  0
SECTION
  2
HEADER
  9
$ACADVER
  1
AC1027
  9
$ACADMAINTVER
 70
   105
  9
$DWGCODEPAGE
  3
ANSI_1252
  9
$REQUIREDVERSIONS
160
                 0
  9
$LASTSAVEDBY
  1
andrea.zolin
  9
$INSBASE
 10
0.0
 20
0.0
 30
0.0
  9
$EXTMIN
 10
0.0
 20
0.0
 30
0.0
  9
$EXTMAX
 10
297.0
 20
210.0
 30
0.0
  9
$LIMMIN
 10
0.0
 20
0.0
  9
$LIMMAX
 10
297.0
 20
210.0
  9
$ORTHOMODE
 70
     0
  9
$REGENMODE
 70
     1
  9
$FILLMODE
 70
     1
  9
$QTEXTMODE
 70
     0
  9
$MIRRTEXT
 70
     1
  9
$LTSCALE
 40
16.335
  9
$ATTMODE
 70
     1
  9
$TEXTSIZE
 40
0.2
  9
$TRACEWID
 40
0.05
  9
$TEXTSTYLE
  7
STANDARD
  9
$CLAYER
  8
0
  9
$CELTYPE
  6
BYLAYER
  9
$CECOLOR
 62
   256
  9
$CELTSCALE
 40
1.0
  9
$DISPSILH
 70
     0
  9
$DIMSCALE
 40
1.0
  9
$DIMASZ
 40
2.5
  9
$DIMEXO
 40
0.75
  9
$DIMDLI
 40
11.286
  9
$DIMRND
 40
0.0
  9
$DIMDLE
 40
0.0
  9
$DIMEXE
 40
0.75
  9
$DIMTP
 40
0.01
  9
$DIMTM
 40
0.01
  9
$DIMTXT
 40
3.0
  9
$DIMCEN
 40
2.673
  9
$DIMTSZ
 40
0.0
  9
$DIMTOL
 70
     1
  9
$DIMLIM
 70
     0
  9
$DIMTIH
 70
     1
  9
$DIMTOH
 70
     1
  9
$DIMSE1
 70
     0
  9
$DIMSE2
 70
     0
  9
$DIMTAD
 70
     0
  9
$DIMZIN
 70
     0
  9
$DIMBLK
  1
CLOSED
  9
$DIMASO
 70
     1
  9
$DIMSHO
 70
     1
  9
$DIMPOST
  1

  9
$DIMAPOST
  1

  9
$DIMALT
 70
     0
  9
$DIMALTD
 70
     2
  9
$DIMALTF
 40
25.4
  9
$DIMLFAC
 40
1.0
  9
$DIMTOFL
 70
     0
  9
$DIMTVP
 40
0.0
  9
$DIMTIX
 70
     0
  9
$DIMSOXD
 70
     0
  9
$DIMSAH
 70
     0
  9
$DIMBLK1
  1

  9
$DIMBLK2
  1

  9
$DIMSTYLE
  2
STANDARD
  9
$DIMCLRD
 70
     0
  9
$DIMCLRE
 70
     0
  9
$DIMCLRT
 70
     0
  9
$DIMTFAC
 40
1.0
  9
$DIMGAP
 40
0.625
  9
$DIMJUST
 70
     0
  9
$DIMSD1
 70
     0
  9
$DIMSD2
 70
     0
  9
$DIMTOLJ
 70
     1
  9
$DIMTZIN
 70
     0
  9
$DIMALTZ
 70
     0
  9
$DIMALTTZ
 70
     0
  9
$DIMUPT
 70
     0
  9
$DIMDEC
 70
     4
  9
$DIMTDEC
 70
     4
  9
$DIMALTU
 70
     2
  9
$DIMALTTD
 70
     2
  9
$DIMTXSTY
  7
STANDARD
  9
$DIMAUNIT
 70
     0
  9
$DIMADEC
 70
     0
  9
$DIMALTRND
 40
0.0
  9
$DIMAZIN
 70
     0
  9
$DIMDSEP
 70
    44
  9
$DIMATFIT
 70
     3
  9
$DIMFRAC
 70
     0
  9
$DIMLDRBLK
  1

  9
$DIMLUNIT
 70
     2
  9
$DIMLWD
 70
    -2
  9
$DIMLWE
 70
    -2
  9
$DIMTMOVE
 70
     0
  9
$DIMFXL
 40
1.0
  9
$DIMFXLON
 70
     0
  9
$DIMJOGANG
 40
0.7853981633974483
  9
$DIMTFILL
 70
     0
  9
$DIMTFILLCLR
 70
     0
  9
$DIMARCSYM
 70
     0
  9
$DIMLTYPE
  6

  9
$DIMLTEX1
  6

  9
$DIMLTEX2
  6

  9
$DIMTXTDIRECTION
 70
     0
  9
$LUNITS
 70
     2
  9
$LUPREC
 70
     4
  9
$SKETCHINC
 40
0.1
  9
$FILLETRAD
 40
0.5
  9
$AUNITS
 70
     0
  9
$AUPREC
 70
     0
  9
$MENU
  1
.
  9
$ELEVATION
 40
0.0
  9
$PELEVATION
 40
0.0
  9
$THICKNESS
 40
0.0
  9
$LIMCHECK
 70
     0
  9
$CHAMFERA
 40
0.0
  9
$CHAMFERB
 40
0.0
  9
$CHAMFERC
 40
0.0
  9
$CHAMFERD
 40
0.0
  9
$SKPOLY
 70
     0
  9
$TDCREATE
 40
2447893.041666667
  9
$TDUCREATE
 40
0.0
  9
$TDUPDATE
 40
2458466.654202662
  9
$TDUUPDATE
 40
2458466.612535995
  9
$TDINDWG
 40
0.0002238542
  9
$TDUSRTIMER
 40
0.0002238542
  9
$USRTIMER
 70
     1
  9
$ANGBASE
 50
0.0
  9
$ANGDIR
 70
     0
  9
$PDMODE
 70
     3
  9
$PDSIZE
 40
0.3125
  9
$PLINEWID
 40
0.0
  9
$SPLFRAME
 70
     0
  9
$SPLINETYPE
 70
     6
  9
$SPLINESEGS
 70
     8
  9
$HANDSEED
  5
4D4
  9
$SURFTAB1
 70
     6
  9
$SURFTAB2
 70
     6
  9
$SURFTYPE
 70
     6
  9
$SURFU
 70
     6
  9
$SURFV
 70
     6
  9
$UCSBASE
  2

  9
$UCSNAME
  2

  9
$UCSORG
 10
0.0
 20
0.0
 30
0.0
  9
$UCSXDIR
 10
1.0
 20
0.0
 30
0.0
  9
$UCSYDIR
 10
0.0
 20
1.0
 30
0.0
  9
$UCSORTHOREF
  2

  9
$UCSORTHOVIEW
 70
     0
  9
$UCSORGTOP
 10
0.0
 20
0.0
 30
0.0
  9
$UCSORGBOTTOM
 10
0.0
 20
0.0
 30
0.0
  9
$UCSORGLEFT
 10
0.0
 20
0.0
 30
0.0
  9
$UCSORGRIGHT
 10
0.0
 20
0.0
 30
0.0
  9
$UCSORGFRONT
 10
0.0
 20
0.0
 30
0.0
  9
$UCSORGBACK
 10
0.0
 20
0.0
 30
0.0
  9
$PUCSBASE
  2

  9
$PUCSNAME
  2

  9
$PUCSORG
 10
0.0
 20
0.0
 30
0.0
  9
$PUCSXDIR
 10
1.0
 20
0.0
 30
0.0
  9
$PUCSYDIR
 10
0.0
 20
1.0
 30
0.0
  9
$PUCSORTHOREF
  2

  9
$PUCSORTHOVIEW
 70
     0
  9
$PUCSORGTOP
 10
0.0
 20
0.0
 30
0.0
  9
$PUCSORGBOTTOM
 10
0.0
 20
0.0
 30
0.0
  9
$PUCSORGLEFT
 10
0.0
 20
0.0
 30
0.0
  9
$PUCSORGRIGHT
 10
0.0
 20
0.0
 30
0.0
  9
$PUCSORGFRONT
 10
0.0
 20
0.0
 30
0.0
  9
$PUCSORGBACK
 10
0.0
 20
0.0
 30
0.0
  9
$USERI1
 70
     0
  9
$USERI2
 70
     0
  9
$USERI3
 70
     0
  9
$USERI4
 70
     0
  9
$USERI5
 70
     0
  9
$USERR1
 40
0.0
  9
$USERR2
 40
0.0
  9
$USERR3
 40
0.0
  9
$USERR4
 40
0.0
  9
$USERR5
 40
0.0
  9
$WORLDVIEW
 70
     1
  9
$SHADEDGE
 70
     3
  9
$SHADEDIF
 70
    70
  9
$TILEMODE
 70
     0
  9
$MAXACTVP
 70
    64
  9
$PINSBASE
 10
0.0
 20
0.0
 30
0.0
  9
$PLIMCHECK
 70
     0
  9
$PEXTMIN
 10
0.0
 20
0.0
 30
0.0
  9
$PEXTMAX
 10
297.0
 20
210.0
 30
0.0
  9
$PLIMMIN
 10
0.0
 20
0.0
  9
$PLIMMAX
 10
297.0
 20
210.0
  9
$UNITMODE
 70
     0
  9
$VISRETAIN
 70
     1
  9
$PLINEGEN
 70
     0
  9
$PSLTSCALE
 70
     1
  9
$TREEDEPTH
 70
  3020
  9
$CMLSTYLE
  2
Standard
  9
$CMLJUST
 70
     0
  9
$CMLSCALE
 40
1.0
  9
$PROXYGRAPHICS
 70
     1
  9
$MEASUREMENT
 70
     1
  9
$CELWEIGHT
370
    -1
  9
$ENDCAPS
280
     0
  9
$JOINSTYLE
280
     0
  9
$LWDISPLAY
290
     0
  9
$INSUNITS
 70
     4
  9
$HYPERLINKBASE
  1

  9
$STYLESHEET
  1

  9
$XEDIT
290
     1
  9
$CEPSNTYPE
380
     0
  9
$PSTYLEMODE
290
     1
  9
$FINGERPRINTGUID
  2
{81C038E7-3959-4C83-B2D4-19F997B5D3A3}
  9
$VERSIONGUID
  2
{FAEB1C32-E019-11D5-929B-00C0DF256EC4}
  9
$EXTNAMES
290
     1
  9
$PSVPSCALE
 40
0.0
  9
$OLESTARTUP
290
     0
  9
$SORTENTS
280
   127
  9
$INDEXCTL
280
     0
  9
$HIDETEXT
280
     1
  9
$XCLIPFRAME
280
     2
  9
$HALOGAP
280
     0
  9
$OBSCOLOR
 70
   257
  9
$OBSLTYPE
280
     0
  9
$INTERSECTIONDISPLAY
280
     0
  9
$INTERSECTIONCOLOR
 70
   257
  9
$DIMASSOC
280
     2
  9
$PROJECTNAME
  1

  9
$CAMERADISPLAY
290
     0
  9
$LENSLENGTH
 40
50.0
  9
$CAMERAHEIGHT
 40
0.0
  9
$STEPSPERSEC
 40
2.0
  9
$STEPSIZE
 40
6.0
  9
$3DDWFPREC
 40
2.0
  9
$PSOLWIDTH
 40
0.25
  9
$PSOLHEIGHT
 40
4.0
  9
$LOFTANG1
 40
1.570796326794897
  9
$LOFTANG2
 40
1.570796326794897
  9
$LOFTMAG1
 40
0.0
  9
$LOFTMAG2
 40
0.0
  9
$LOFTPARAM
 70
     7
  9
$LOFTNORMALS
280
     1
  9
$LATITUDE
 40
37.795
  9
$LONGITUDE
 40
-122.394
  9
$NORTHDIRECTION
 40
0.0
  9
$TIMEZONE
 70
 -8000
  9
$LIGHTGLYPHDISPLAY
280
     1
  9
$TILEMODELIGHTSYNCH
280
     1
  9
$SOLIDHIST
280
     0
  9
$SHOWHIST
280
     1
  9
$DWFFRAME
280
     2
  9
$DGNFRAME
280
     2
  9
$REALWORLDSCALE
290
     1
  9
$INTERFERECOLOR
 62
   256
  9
$CSHADOW
280
     0
  9
$SHADOWPLANELOCATION
 40
0.0
  0
ENDSEC
  0
SECTION
  2
CLASSES
  0
CLASS
  1
ACDBDICTIONARYWDFLT
  2
AcDbDictionaryWithDefault
  3
ObjectDBX Classes
 90
        0
 91
        4
280
     0
281
     0
  0
CLASS
  1
ACDBPLACEHOLDER
  2
AcDbPlaceHolder
  3
ObjectDBX Classes
 90
        0
 91
        1
280
     0
281
     0
  0
CLASS
  1
LAYOUT
  2
AcDbLayout
  3
ObjectDBX Classes
 90
        0
 91
        1
280
     0
281
     0
  0
CLASS
  1
SCALE
  2
AcDbScale
  3
ObjectDBX Classes
 90
     1153
 91
        4
280
     0
281
     0
  0
CLASS
  1
VISUALSTYLE
  2
AcDbVisualStyle
  3
ObjectDBX Classes
 90
     4095
 91
        4
280
     0
281
     0
  0
CLASS
  1
MATERIAL
  2
AcDbMaterial
  3
ObjectDBX Classes
 90
     1153
 91
        4
280
     0
281
     0
  0
CLASS
  1
TABLESTYLE
  2
AcDbTableStyle
  3
ObjectDBX Classes
 90
     4095
 91
        4
280
     0
281
     0
  0
CLASS
  1
MLEADERSTYLE
  2
AcDbMLeaderStyle
  3
ACDB_MLEADERSTYLE_CLASS
 90
     4095
 91
        4
280
     0
281
     0
  0
CLASS
  1
DICTIONARYVAR
  2
AcDbDictionaryVar
  3
ObjectDBX Classes
 90
        0
 91
        4
280
     0
281
     0
  0
CLASS
  1
CELLSTYLEMAP
  2
AcDbCellStyleMap
  3
ObjectDBX Classes
 90
     1152
 91
        4
280
     0
281
     0
  0
ENDSEC
  0
SECTION
  2
TABLES
  0
TABLE
  2
VPORT
  5
8
330
0
100
AcDbSymbolTable
 70
     1
  0
VPORT
  5
1F4
330
8
100
AcDbSymbolTableRecord
100
AcDbViewportTableRecord
  2
*ACTIVE
 70
     0
 10
0.0
 20
0.0
 11
1.0
 21
1.0
 12
148.5
 22
105.0
 13
0.0
 23
0.0
 14
1.0
 24
1.0
 15
0.0
 25
0.0
 16
0.0
 26
0.0
 36
1.0
 17
0.0
 27
0.0
 37
0.0
 40
210.0
 41
1.4142857143
 42
50.0
 43
0.0
 44
0.0
 50
0.0
 51
0.0
 71
     0
 72
   100
 73
     1
 74
     1
 75
     0
 76
     0
 77
     0
 78
     0
281
     0
 65
     1
110
0.0
120
0.0
130
0.0
111
1.0
121
0.0
131
0.0
112
0.0
122
1.0
132
0.0
 79
     0
146
0.0
348
4AD
 60
     3
 61
     5
292
     1
282
     1
141
0.0
142
0.0
 63
   256
  0
ENDTAB
  0
TABLE
  2
LTYPE
  5
5
330
0
100
AcDbSymbolTable
 70
     6
  0
LTYPE
  5
14
330
5
100
AcDbSymbolTableRecord
100
AcDbLinetypeTableRecord
  2
BYBLOCK
 70
     0
  3

 72
    65
 73
     0
 40
0.0
  0
LTYPE
  5
15
330
5
100
AcDbSymbolTableRecord
100
AcDbLinetypeTableRecord
  2
BYLAYER
 70
     0
  3

 72
    65
 73
     0
 40
0.0
  0
LTYPE
  5
16
330
5
100
AcDbSymbolTableRecord
100
AcDbLinetypeTableRecord
  2
CONTINUOUS
 70
     0
  3
Solid line
 72
    65
 73
     0
 40
0.0
  0
LTYPE
  5
1F5
330
5
100
AcDbSymbolTableRecord
100
AcDbLinetypeTableRecord
  2
CENTER
 70
     0
  3
____ _ ____ _ ____ _ ____ _ ____ _ ____ _ ____
 72
    65
 73
     4
 40
0.6
 49
0.375
 74
     0
 49
-0.075
 74
     0
 49
0.075
 74
     0
 49
-0.075
 74
     0
  0
LTYPE
  5
1F6
330
5
100
AcDbSymbolTableRecord
100
AcDbLinetypeTableRecord
  2
HIDDEN
 70
     0
  3
- - - - - - - - - - - - - - - - - - - -
 72
    65
 73
     2
 40
0.2
 49
0.1
 74
     0
 49
-0.1
 74
     0
  0
LTYPE
  5
1F7
330
5
100
AcDbSymbolTableRecord
100
AcDbLinetypeTableRecord
  2
PHANTOM
 70
     0
  3
_____ _ _ _____ _ _ _____ _ _ _____
 72
    65
 73
     6
 40
0.8
 49
0.45
 74
     0
 49
-0.05
 74
     0
 49
0.1
 74
     0
 49
-0.05
 74
     0
 49
0.1
 74
     0
 49
-0.05
 74
     0
  0
LTYPE
  5
1F8
330
5
100
AcDbSymbolTableRecord
100
AcDbLinetypeTableRecord
  2
DOT
 70
     0
  3
. . . . . . . . . . . . . . . . . . . .
 72
    65
 73
     2
 40
0.2
 49
0.1
 74
     0
 49
-0.1
 74
     0
  0
LTYPE
  5
1F9
330
5
100
AcDbSymbolTableRecord
100
AcDbLinetypeTableRecord
  2
DASHED
 70
     0
  3
- - - - - - - - - - - - - - - - - - - -
 72
    65
 73
     2
 40
0.2
 49
0.1
 74
     0
 49
-0.1
 74
     0
  0
ENDTAB
  0
TABLE
  2
LAYER
  5
2
330
0
100
AcDbSymbolTable
 70
    35
  0
LAYER
  5
10
330
2
100
AcDbSymbolTableRecord
100
AcDbLayerTableRecord
  2
0
 70
     0
 62
     7
  6
CONTINUOUS
370
    -3
390
F
347
4C4
348
0
  0
LAYER
  5
1FA
330
2
100
AcDbSymbolTableRecord
100
AcDbLayerTableRecord
  2
DEFAULT_1
 70
     0
 62
     7
  6
CENTER
370
    -3
390
F
347
4C4
348
0
  0
LAYER
  5
1FB
330
2
100
AcDbSymbolTableRecord
100
AcDbLayerTableRecord
  2
DEFAULT_2
 70
     0
 62
     8
  6
HIDDEN
370
    -3
390
F
347
4C4
348
0
  0
LAYER
  5
1FC
330
2
100
AcDbSymbolTableRecord
100
AcDbLayerTableRecord
  2
DEFAULT_3
 70
     0
 62
     7
  6
PHANTOM
370
    -3
390
F
347
4C4
348
0
  0
LAYER
  5
1FD
330
2
100
AcDbSymbolTableRecord
100
AcDbLayerTableRecord
  2
01_ALL_DTM_PLN
 70
     0
 62
     7
  6
CONTINUOUS
370
    -3
390
F
347
4C4
348
0
  0
LAYER
  5
1FE
330
2
100
AcDbSymbolTableRecord
100
AcDbLayerTableRecord
  2
01__ASM_ALL_DTM_PLN
 70
     0
 62
     7
  6
CONTINUOUS
370
    -3
390
F
347
4C4
348
0
  0
LAYER
  5
1FF
330
2
100
AcDbSymbolTableRecord
100
AcDbLayerTableRecord
  2
01__ASM_DEF_DTM_PLN
 70
     0
 62
     7
  6
CONTINUOUS
370
    -3
390
F
347
4C4
348
0
  0
LAYER
  5
200
330
2
100
AcDbSymbolTableRecord
100
AcDbLayerTableRecord
  2
01___PRT_ALL_DTM_PLN
 70
     0
 62
     7
  6
CONTINUOUS
370
    -3
390
F
347
4C4
348
0
  0
LAYER
  5
201
330
2
100
AcDbSymbolTableRecord
100
AcDbLayerTableRecord
  2
01___PRT_DEF_DTM_PLN
 70
     0
 62
     7
  6
CONTINUOUS
370
    -3
390
F
347
4C4
348
0
  0
LAYER
  5
202
330
2
100
AcDbSymbolTableRecord
100
AcDbLayerTableRecord
  2
02_ALL_AXES
 70
     0
 62
     7
  6
CONTINUOUS
370
    -3
390
F
347
4C4
348
0
  0
LAYER
  5
203
330
2
100
AcDbSymbolTableRecord
100
AcDbLayerTableRecord
  2
02__ASM_ALL_AXES
 70
     0
 62
     7
  6
CONTINUOUS
370
    -3
390
F
347
4C4
348
0
  0
LAYER
  5
204
330
2
100
AcDbSymbolTableRecord
100
AcDbLayerTableRecord
  2
02___PRT_ALL_AXES
 70
     0
 62
     7
  6
CONTINUOUS
370
    -3
390
F
347
4C4
348
0
  0
LAYER
  5
205
330
2
100
AcDbSymbolTableRecord
100
AcDbLayerTableRecord
  2
03_ALL_CURVES
 70
     0
 62
     7
  6
CONTINUOUS
370
    -3
390
F
347
4C4
348
0
  0
LAYER
  5
206
330
2
100
AcDbSymbolTableRecord
100
AcDbLayerTableRecord
  2
03__ASM_ALL_CURVES
 70
     0
 62
     7
  6
CONTINUOUS
370
    -3
390
F
347
4C4
348
0
  0
LAYER
  5
207
330
2
100
AcDbSymbolTableRecord
100
AcDbLayerTableRecord
  2
03___PRT_ALL_CURVES
 70
     0
 62
     7
  6
CONTINUOUS
370
    -3
390
F
347
4C4
348
0
  0
LAYER
  5
208
330
2
100
AcDbSymbolTableRecord
100
AcDbLayerTableRecord
  2
04_ALL_DTM_PNT
 70
     0
 62
     7
  6
CONTINUOUS
370
    -3
390
F
347
4C4
348
0
  0
LAYER
  5
209
330
2
100
AcDbSymbolTableRecord
100
AcDbLayerTableRecord
  2
04__ASM_ALL_DTM_PNT
 70
     0
 62
     7
  6
CONTINUOUS
370
    -3
390
F
347
4C4
348
0
  0
LAYER
  5
20A
330
2
100
AcDbSymbolTableRecord
100
AcDbLayerTableRecord
  2
04___PRT_ALL_DTM_PNT
 70
     0
 62
     7
  6
CONTINUOUS
370
    -3
390
F
347
4C4
348
0
  0
LAYER
  5
20B
330
2
100
AcDbSymbolTableRecord
100
AcDbLayerTableRecord
  2
05_ALL_DTM_CSYS
 70
     0
 62
     7
  6
CONTINUOUS
370
    -3
390
F
347
4C4
348
0
  0
LAYER
  5
20C
330
2
100
AcDbSymbolTableRecord
100
AcDbLayerTableRecord
  2
05__ASM_ALL_DTM_CSYS
 70
     0
 62
     7
  6
CONTINUOUS
370
    -3
390
F
347
4C4
348
0
  0
LAYER
  5
20D
330
2
100
AcDbSymbolTableRecord
100
AcDbLayerTableRecord
  2
05__ASM_DEF_DTM_CSYS
 70
     0
 62
     7
  6
CONTINUOUS
370
    -3
390
F
347
4C4
348
0
  0
LAYER
  5
20E
330
2
100
AcDbSymbolTableRecord
100
AcDbLayerTableRecord
  2
05___PRT_ALL_DTM_CSYS
 70
     0
 62
     7
  6
CONTINUOUS
370
    -3
390
F
347
4C4
348
0
  0
LAYER
  5
20F
330
2
100
AcDbSymbolTableRecord
100
AcDbLayerTableRecord
  2
05___PRT_DEF_DTM_CSYS
 70
     0
 62
     7
  6
CONTINUOUS
370
    -3
390
F
347
4C4
348
0
  0
LAYER
  5
210
330
2
100
AcDbSymbolTableRecord
100
AcDbLayerTableRecord
  2
06_ALL_SURFS
 70
     0
 62
     7
  6
CONTINUOUS
370
    -3
390
F
347
4C4
348
0
  0
LAYER
  5
211
330
2
100
AcDbSymbolTableRecord
100
AcDbLayerTableRecord
  2
06__ASM_ALL_SURFS
 70
     0
 62
     7
  6
CONTINUOUS
370
    -3
390
F
347
4C4
348
0
  0
LAYER
  5
212
330
2
100
AcDbSymbolTableRecord
100
AcDbLayerTableRecord
  2
06___PRT_ALL_SURFS
 70
     0
 62
     7
  6
CONTINUOUS
370
    -3
390
F
347
4C4
348
0
  0
LAYER
  5
213
330
2
100
AcDbSymbolTableRecord
100
AcDbLayerTableRecord
  2
07__ASM_ALL_SKELETONS
 70
     0
 62
     7
  6
CONTINUOUS
370
    -3
390
F
347
4C4
348
0
  0
LAYER
  5
214
330
2
100
AcDbSymbolTableRecord
100
AcDbLayerTableRecord
  2
1_ALL_PLANES
 70
     0
 62
     7
  6
CONTINUOUS
370
    -3
390
F
347
4C4
348
0
  0
LAYER
  5
215
330
2
100
AcDbSymbolTableRecord
100
AcDbLayerTableRecord
  2
2_ALL_CSYS
 70
     0
 62
     7
  6
CONTINUOUS
370
    -3
390
F
347
4C4
348
0
  0
LAYER
  5
216
330
2
100
AcDbSymbolTableRecord
100
AcDbLayerTableRecord
  2
3_ALL_AXES
 70
     0
 62
     7
  6
CONTINUOUS
370
    -3
390
F
347
4C4
348
0
  0
LAYER
  5
217
330
2
100
AcDbSymbolTableRecord
100
AcDbLayerTableRecord
  2
4_ALL_POINTS
 70
     0
 62
     7
  6
CONTINUOUS
370
    -3
390
F
347
4C4
348
0
  0
LAYER
  5
218
330
2
100
AcDbSymbolTableRecord
100
AcDbLayerTableRecord
  2
5_ALL_CURVES
 70
     0
 62
     7
  6
CONTINUOUS
370
    -3
390
F
347
4C4
348
0
  0
LAYER
  5
219
330
2
100
AcDbSymbolTableRecord
100
AcDbLayerTableRecord
  2
6_ALL_SURFS
 70
     0
 62
     7
  6
CONTINUOUS
370
    -3
390
F
347
4C4
348
0
  0
LAYER
  5
21A
330
2
100
AcDbSymbolTableRecord
100
AcDbLayerTableRecord
  2
7_ALL_FEATURES
 70
     0
 62
     7
  6
CONTINUOUS
370
    -3
390
F
347
4C4
348
0
  0
LAYER
  5
21B
330
2
100
AcDbSymbolTableRecord
100
AcDbLayerTableRecord
  2
9_SOLID
 70
     0
 62
     7
  6
CONTINUOUS
370
    -3
390
F
347
4C4
348
0
  0
ENDTAB
  0
TABLE
  2
STYLE
  5
3
330
0
100
AcDbSymbolTable
 70
     4
  0
STYLE
  5
11
330
3
100
AcDbSymbolTableRecord
100
AcDbTextStyleTableRecord
  2
STANDARD
 70
     0
 40
0.0
 41
1.0
 50
0.0
 71
     0
 42
0.2
  3
arial.ttf
  4

  0
STYLE
  5
21C
330
3
100
AcDbSymbolTableRecord
100
AcDbTextStyleTableRecord
  2
TEXTSTYLE_1
 70
     0
 40
0.0
 41
0.8
 50
0.0
 71
     0
 42
0.2
  3
gdt
  4

  0
STYLE
  5
21D
330
3
100
AcDbSymbolTableRecord
100
AcDbTextStyleTableRecord
  2
TEXTSTYLE_2
 70
     0
 40
0.0
 41
2.0
 50
0.0
 71
     0
 42
0.2
  3
txt
  4

  0
STYLE
  5
21E
330
3
100
AcDbSymbolTableRecord
100
AcDbTextStyleTableRecord
  2
TEXTSTYLE_3
 70
     0
 40
0.0
 41
0.85
 50
0.0
 71
     0
 42
0.2
  3
txt
  4

  0
ENDTAB
  0
TABLE
  2
VIEW
  5
6
330
0
100
AcDbSymbolTable
 70
     0
  0
ENDTAB
  0
TABLE
  2
UCS
  5
7
330
0
100
AcDbSymbolTable
 70
     0
  0
ENDTAB
  0
TABLE
  2
APPID
  5
9
330
0
100
AcDbSymbolTable
 70
     1
  0
APPID
  5
21F
330
9
100
AcDbSymbolTableRecord
100
AcDbRegAppTableRecord
  2
ACAD
 70
     0
  0
ENDTAB
  0
TABLE
  2
DIMSTYLE
  5
A
330
0
100
AcDbSymbolTable
 70
     3
100
AcDbDimStyleTable
  0
DIMSTYLE
105
228
330
A
100
AcDbSymbolTableRecord
100
AcDbDimStyleTableRecord
  2
STANDARD
 70
     0
 41
2.5
 42
0.75
 44
0.75
 47
0.01
 48
0.01
 71
     1
 73
     0
 74
     0
 77
     1
 78
     8
 79
     2
140
3.0
147
0.625
171
     1
178
     0
179
     2
271
     2
272
     2
278
    44
284
     8
340
11
341
222
342
222
343
222
344
222
  0
DIMSTYLE
105
229
330
A
100
AcDbSymbolTableRecord
100
AcDbDimStyleTableRecord
  2
DIMSTYLE_1
 70
     0
 41
2.5
 42
0.75
 44
0.75
 47
0.3
 48
0.3
 73
     0
 74
     0
 77
     1
 78
     8
 79
     2
140
3.0
147
0.75
171
     1
178
     0
179
     2
271
     2
272
     2
278
    44
284
     8
340
11
341
222
342
222
343
222
344
222
  0
DIMSTYLE
105
22A
330
A
100
AcDbSymbolTableRecord
100
AcDbDimStyleTableRecord
  2
DIMSTYLE_2
 70
     0
 41
2.5
 42
0.75
 44
0.75
 47
0.2
 48
0.2
 73
     0
 74
     0
 77
     1
 78
     8
 79
     2
140
3.0
147
0.75
171
     1
178
     0
179
     2
271
     2
272
     2
278
    44
284
     8
340
11
341
222
342
222
343
222
344
222
  0
ENDTAB
  0
TABLE
  2
BLOCK_RECORD
  5
1
330
0
100
AcDbSymbolTable
 70
     6
  0
BLOCK_RECORD
  5
220
330
1
100
AcDbSymbolTableRecord
100
AcDbBlockTableRecord
  2
*Model_Space
340
484
 70
     0
280
     1
281
     0
  0
BLOCK_RECORD
  5
221
330
1
100
AcDbSymbolTableRecord
100
AcDbBlockTableRecord
  2
*Paper_Space
340
485
 70
     0
280
     1
281
     0
  0
BLOCK_RECORD
  5
222
330
1
100
AcDbSymbolTableRecord
100
AcDbBlockTableRecord
  2
_CLOSED
340
0
102
{BLKREFS
331
27D
331
27E
331
286
331
287
331
28F
331
290
102
}
 70
     0
280
     1
281
     0
  0
BLOCK_RECORD
  5
223
330
1
100
AcDbSymbolTableRecord
100
AcDbBlockTableRecord
  2
*D1
340
0
 70
     0
280
     1
281
     0
  0
BLOCK_RECORD
  5
224
330
1
100
AcDbSymbolTableRecord
100
AcDbBlockTableRecord
  2
*D2
340
0
 70
     0
280
     1
281
     0
  0
BLOCK_RECORD
  5
225
330
1
100
AcDbSymbolTableRecord
100
AcDbBlockTableRecord
  2
*D3
340
0
 70
     0
280
     1
281
     0
  0
BLOCK_RECORD
  5
226
330
1
100
AcDbSymbolTableRecord
100
AcDbBlockTableRecord
  2
LOGO2_BL1
340
0
102
{BLKREFS
331
472
102
}
 70
     0
280
     1
281
     0
  0
BLOCK_RECORD
  5
227
330
1
100
AcDbSymbolTableRecord
100
AcDbBlockTableRecord
  2
PROIEZIONE_EU_BL0
340
0
102
{BLKREFS
331
46F
102
}
 70
     0
280
     1
281
     0
  0
ENDTAB
  0
ENDSEC
  0
SECTION
  2
BLOCKS
  0
BLOCK
  5
20
330
220
100
AcDbEntity
  8
0
100
AcDbBlockBegin
  2
*Model_Space
 70
     0
 10
0.0
 20
0.0
 30
0.0
  3
*Model_Space
  1

  0
ENDBLK
  5
21
330
220
100
AcDbEntity
  8
0
100
AcDbBlockEnd
  0
BLOCK
  5
1C
330
221
100
AcDbEntity
 67
     1
  8
0
100
AcDbBlockBegin
  2
*Paper_Space
 70
     0
 10
0.0
 20
0.0
 30
0.0
  3
*Paper_Space
  1

  0
ENDBLK
  5
1D
330
221
100
AcDbEntity
 67
     1
  8
0
100
AcDbBlockEnd
  0
BLOCK
  5
271
330
222
100
AcDbEntity
  8
0
100
AcDbBlockBegin
  2
_CLOSED
 70
     0
 10
0.0
 20
0.0
 30
0.0
  3
_CLOSED
  1

  0
LINE
  5
272
330
222
100
AcDbEntity
  8
0
  6
ByBlock
 62
     0
100
AcDbLine
 10
0.0
 20
0.0
 30
0.0
 11
-1.0
 21
0.2
 31
0.0
  0
LINE
  5
273
330
222
100
AcDbEntity
  8
0
  6
ByBlock
 62
     0
100
AcDbLine
 10
-1.0
 20
0.2
 30
0.0
 11
-1.0
 21
-0.2
 31
0.0
  0
LINE
  5
274
330
222
100
AcDbEntity
  8
0
  6
ByBlock
 62
     0
100
AcDbLine
 10
-1.0
 20
-0.2
 30
0.0
 11
0.0
 21
0.0
 31
0.0
  0
LINE
  5
275
330
222
100
AcDbEntity
  8
0
  6
ByBlock
 62
     0
100
AcDbLine
 10
-1.0
 20
0.0
 30
0.0
 11
0.0
 21
0.0
 31
0.0
  0
ENDBLK
  5
276
330
222
100
AcDbEntity
  8
0
  6
ByBlock
 62
     0
100
AcDbBlockEnd
  0
BLOCK
  5
277
330
223
100
AcDbEntity
  8
0
100
AcDbBlockBegin
  2
*D1
 70
     1
 10
0.0
 20
0.0
 30
0.0
  3
*D1
  1

  0
MTEXT
  5
278
330
223
100
AcDbEntity
  8
0
  6
Continuous
 62
     2
100
AcDbMText
 10
23.6851793412
 20
119.1668085448
 30
0.0
 40
3.0
 41
4.6617100372
 46
0.0
 71
     2
 72
     1
  1
34
 11
0.0
 21
1.0
 31
0.0
 73
     1
 44
0.9
  0
LINE
  5
279
330
223
100
AcDbEntity
  8
0
  6
Continuous
 62
     2
100
AcDbLine
 10
49.1224873311
 20
102.1668085448
 30
0.0
 11
26.6851793412
 21
102.1668085448
 31
0.0
  0
LINE
  5
27A
330
223
100
AcDbEntity
  8
0
  6
Continuous
 62
     2
100
AcDbLine
 10
51.1594097422
 20
136.1668085448
 30
0.0
 11
26.6851793412
 21
136.1668085448
 31
0.0
  0
LINE
  5
27B
330
223
100
AcDbEntity
  8
0
  6
Continuous
 62
     2
100
AcDbLine
 10
27.4351793412
 20
102.1668085448
 30
0.0
 11
27.4351793412
 21
119.1668085448
 31
0.0
  0
LINE
  5
27C
330
223
100
AcDbEntity
  8
0
  6
Continuous
 62
     2
100
AcDbLine
 10
27.4351793412
 20
136.1668085448
 30
0.0
 11
27.4351793412
 21
119.1668085448
 31
0.0
  0
INSERT
  5
27D
330
223
100
AcDbEntity
  8
0
  6
Continuous
 62
     2
100
AcDbBlockReference
  2
_CLOSED
 10
27.4351793412
 20
102.1668085448
 30
0.0
 41
2.5
 42
2.5
 43
2.5
 50
270.0
  0
INSERT
  5
27E
330
223
100
AcDbEntity
  8
0
  6
Continuous
 62
     2
100
AcDbBlockReference
  2
_CLOSED
 10
27.4351793412
 20
136.1668085448
 30
0.0
 41
2.5
 42
2.5
 43
2.5
 50
90.0
  0
ENDBLK
  5
27F
330
223
100
AcDbEntity
  8
0
  6
ByBlock
 62
     0
100
AcDbBlockEnd
  0
BLOCK
  5
280
330
224
100
AcDbEntity
  8
0
100
AcDbBlockBegin
  2
*D2
 70
     1
 10
0.0
 20
0.0
 30
0.0
  3
*D2
  1

  0
MTEXT
  5
281
330
224
100
AcDbEntity
  8
0
  6
Continuous
 62
     2
100
AcDbMText
 10
62.5968116554
 20
156.7535183421
 30
0.0
 40
3.0
 41
4.6617100372
 46
0.0
 71
     2
 72
     1
  1
51
 73
     1
 44
0.9
  0
LINE
  5
282
330
224
100
AcDbEntity
  8
0
  6
Continuous
 62
     2
100
AcDbLine
 10
37.0968116554
 20
141.9972721993
 30
0.0
 11
37.0968116554
 21
153.7535183421
 31
0.0
  0
LINE
  5
283
330
224
100
AcDbEntity
  8
0
  6
Continuous
 62
     2
100
AcDbLine
 10
88.0968116554
 20
141.9972721993
 30
0.0
 11
88.0968116554
 21
153.7535183421
 31
0.0
  0
LINE
  5
284
330
224
100
AcDbEntity
  8
0
  6
Continuous
 62
     2
100
AcDbLine
 10
37.0968116554
 20
153.0035183421
 30
0.0
 11
62.5968116554
 21
153.0035183421
 31
0.0
  0
LINE
  5
285
330
224
100
AcDbEntity
  8
0
  6
Continuous
 62
     2
100
AcDbLine
 10
88.0968116554
 20
153.0035183421
 30
0.0
 11
62.5968116554
 21
153.0035183421
 31
0.0
  0
INSERT
  5
286
330
224
100
AcDbEntity
  8
0
  6
Continuous
 62
     2
100
AcDbBlockReference
  2
_CLOSED
 10
37.0968116554
 20
153.0035183421
 30
0.0
 41
2.5
 42
2.5
 43
2.5
 50
180.0
  0
INSERT
  5
287
330
224
100
AcDbEntity
  8
0
  6
Continuous
 62
     2
100
AcDbBlockReference
  2
_CLOSED
 10
88.0968116554
 20
153.0035183421
 30
0.0
 41
2.5
 42
2.5
 43
2.5
  0
ENDBLK
  5
288
330
224
100
AcDbEntity
  8
0
  6
ByBlock
 62
     0
100
AcDbBlockEnd
  0
BLOCK
  5
289
330
225
100
AcDbEntity
  8
0
100
AcDbBlockBegin
  2
*D3
 70
     1
 10
0.0
 20
0.0
 30
0.0
  3
*D3
  1

  0
MTEXT
  5
28A
330
225
100
AcDbEntity
  8
0
  6
Continuous
 62
     2
100
AcDbMText
 10
125.7858779265
 20
156.7535183421
 30
0.0
 40
3.0
 41
4.6617100372
 46
0.0
 71
     2
 72
     1
  1
15
 73
     1
 44
0.9
  0
LINE
  5
28B
330
225
100
AcDbEntity
  8
0
  6
Continuous
 62
     2
100
AcDbLine
 10
118.2858779265
 20
142.652305891
 30
0.0
 11
118.2858779265
 21
153.7535183421
 31
0.0
  0
LINE
  5
28C
330
225
100
AcDbEntity
  8
0
  6
Continuous
 62
     2
100
AcDbLine
 10
133.2858779265
 20
141.9972721993
 30
0.0
 11
133.2858779265
 21
153.7535183421
 31
0.0
  0
LINE
  5
28D
330
225
100
AcDbEntity
  8
0
  6
Continuous
 62
     2
100
AcDbLine
 10
118.2858779265
 20
153.0035183421
 30
0.0
 11
125.7858779265
 21
153.0035183421
 31
0.0
  0
LINE
  5
28E
330
225
100
AcDbEntity
  8
0
  6
Continuous
 62
     2
100
AcDbLine
 10
133.2858779265
 20
153.0035183421
 30
0.0
 11
125.7858779265
 21
153.0035183421
 31
0.0
  0
INSERT
  5
28F
330
225
100
AcDbEntity
  8
0
  6
Continuous
 62
     2
100
AcDbBlockReference
  2
_CLOSED
 10
118.2858779265
 20
153.0035183421
 30
0.0
 41
2.5
 42
2.5
 43
2.5
 50
180.0
  0
INSERT
  5
290
330
225
100
AcDbEntity
  8
0
  6
Continuous
 62
     2
100
AcDbBlockReference
  2
_CLOSED
 10
133.2858779265
 20
153.0035183421
 30
0.0
 41
2.5
 42
2.5
 43
2.5
  0
ENDBLK
  5
291
330
225
100
AcDbEntity
  8
0
  6
ByBlock
 62
     0
100
AcDbBlockEnd
  0
BLOCK
  5
22B
330
226
100
AcDbEntity
  8
0
100
AcDbBlockBegin
  2
LOGO2_BL1
 70
     0
 10
171.8203054529
 20
39.0649424379
 30
0.0
  3
LOGO2_BL1
  1

  0
LINE
  5
22C
330
226
100
AcDbEntity
  8
0
  6
Continuous
 62
     7
100
AcDbLine
 10
163.5632306811
 20
42.2604337767
 30
0.0
 11
162.2588897518
 21
42.2604337767
 31
0.0
  0
LINE
  5
22D
330
226
100
AcDbEntity
  8
0
  6
Continuous
 62
     7
100
AcDbLine
 10
162.2588897518
 20
42.2604337767
 30
0.0
 11
162.2588897518
 21
31.8013677169
 31
0.0
  0
LINE
  5
22E
330
226
100
AcDbEntity
  8
0
  6
Continuous
 62
     7
100
AcDbLine
 10
162.2588897518
 20
31.8013677169
 30
0.0
 11
166.73994464
 21
31.8013677169
 31
0.0
  0
LINE
  5
22F
330
226
100
AcDbEntity
  8
0
  6
Continuous
 62
     7
100
AcDbLine
 10
166.73994464
 20
31.8013677169
 30
0.0
 11
166.73994464
 21
32.9942220419
 31
0.0
  0
LINE
  5
230
330
226
100
AcDbEntity
  8
0
  6
Continuous
 62
     7
100
AcDbLine
 10
166.73994464
 20
32.9942220419
 30
0.0
 11
163.5632306811
 21
32.9942220419
 31
0.0
  0
LINE
  5
231
330
226
100
AcDbEntity
  8
0
  6
Continuous
 62
     7
100
AcDbLine
 10
163.5632306811
 20
32.9942220419
 30
0.0
 11
163.5632306811
 21
42.2604337767
 31
0.0
  0
LINE
  5
232
330
226
100
AcDbEntity
  8
0
  6
Continuous
 62
     7
100
AcDbLine
 10
178.4995568974
 20
42.2604337767
 30
0.0
 11
177.1957393793
 21
42.2604337767
 31
0.0
  0
LINE
  5
233
330
226
100
AcDbEntity
  8
0
  6
Continuous
 62
     7
100
AcDbLine
 10
177.1957393793
 20
42.2604337767
 30
0.0
 11
177.1957393793
 21
31.8013677169
 31
0.0
  0
LINE
  5
234
330
226
100
AcDbEntity
  8
0
  6
Continuous
 62
     7
100
AcDbLine
 10
177.1957393793
 20
31.8013677169
 30
0.0
 11
181.6769251204
 21
31.8013677169
 31
0.0
  0
LINE
  5
235
330
226
100
AcDbEntity
  8
0
  6
Continuous
 62
     7
100
AcDbLine
 10
181.6769251204
 20
31.8013677169
 30
0.0
 11
181.6769251204
 21
32.9942220419
 31
0.0
  0
LINE
  5
236
330
226
100
AcDbEntity
  8
0
  6
Continuous
 62
     7
100
AcDbLine
 10
181.6769251204
 20
32.9942220419
 30
0.0
 11
178.4995568974
 21
32.9942220419
 31
0.0
  0
LINE
  5
237
330
226
100
AcDbEntity
  8
0
  6
Continuous
 62
     7
100
AcDbLine
 10
178.4995568974
 20
32.9942220419
 30
0.0
 11
178.4995568974
 21
42.2604337767
 31
0.0
  0
LWPOLYLINE
  5
238
330
226
100
AcDbEntity
  8
0
  6
Continuous
 62
     7
100
AcDbPolyline
 90
        2
 70
     0
 43
0.2
 10
160.6132846627
 20
28.45781641
 10
160.6132846627
 20
26.6007531606
  0
LWPOLYLINE
  5
239
330
226
100
AcDbEntity
  8
0
  6
Continuous
 62
     7
100
AcDbPolyline
 90
        2
 70
     0
 43
0.2
 10
160.6132846627
 20
26.6007531606
 10
161.4090006731
 20
26.6007531606
  0
LWPOLYLINE
  5
23A
330
226
100
AcDbEntity
  8
0
  6
Continuous
 62
     7
100
AcDbPolyline
 90
        2
 70
     0
 43
0.2
 10
161.4090006731
 20
26.6007531606
 10
161.4090006731
 20
26.8127347322
  0
LWPOLYLINE
  5
23B
330
226
100
AcDbEntity
  8
0
  6
Continuous
 62
     7
100
AcDbPolyline
 90
        2
 70
     0
 43
0.2
 10
161.4090006731
 20
26.8127347322
 10
160.8448941576
 20
26.8127347322
  0
LWPOLYLINE
  5
23C
330
226
100
AcDbEntity
  8
0
  6
Continuous
 62
     7
100
AcDbPolyline
 90
        2
 70
     0
 43
0.2
 10
160.8448941576
 20
26.8127347322
 10
160.8448941576
 20
28.45781641
  0
LWPOLYLINE
  5
23D
330
226
100
AcDbEntity
  8
0
  6
Continuous
 62
     7
100
AcDbPolyline
 90
        2
 70
     0
 43
0.2
 10
160.8448941576
 20
28.45781641
 10
160.6132846627
 20
28.45781641
  0
SPLINE
  5
23E
330
226
100
AcDbEntity
  8
0
  6
Continuous
 62
     7
100
AcDbSpline
 70
     3
 71
     3
 72
    35
 73
    31
 74
     0
 42
0.000000001
 43
0.0000001
 40
0.0
 40
0.0
 40
0.0
 40
0.0
 40
1.0
 40
1.0
 40
1.0
 40
2.0
 40
2.0
 40
2.0
 40
3.0
 40
3.0
 40
3.0
 40
4.0
 40
4.0
 40
4.0
 40
5.0
 40
5.0
 40
5.0
 40
6.0
 40
6.0
 40
6.0
 40
7.0
 40
7.0
 40
7.0
 40
8.0
 40
8.0
 40
8.0
 40
9.0
 40
9.0
 40
9.0
 40
10.0
 40
10.0
 40
10.0
 40
10.0
 10
162.8072939286
 20
27.7533048165
 30
0.0
 10
162.8072939286
 20
27.7533048165
 30
0.0
 10
162.8072939286
 20
27.0911895373
 30
0.0
 10
162.8072939286
 20
27.0911895373
 30
0.0
 10
162.8072939286
 20
26.776095942
 30
0.0
 10
162.9551576174
 20
26.561497314
 30
0.0
 10
163.2952441017
 20
26.561497314
 30
0.0
 10
163.6348071747
 20
26.561497314
 30
0.0
 10
163.7829325692
 20
26.776095942
 30
0.0
 10
163.7829325692
 20
27.0911895373
 30
0.0
 10
163.7829325692
 20
27.0911895373
 30
0.0
 10
163.7829325692
 20
27.7533048165
 30
0.0
 10
163.7829325692
 20
27.7533048165
 30
0.0
 10
163.7829325692
 20
27.7533048165
 30
0.0
 10
163.5608753303
 20
27.7533048165
 30
0.0
 10
163.5608753303
 20
27.7533048165
 30
0.0
 10
163.5608753303
 20
27.7533048165
 30
0.0
 10
163.5608753303
 20
27.1163132792
 30
0.0
 10
163.5608753303
 20
27.1163132792
 30
0.0
 10
163.5608753303
 20
26.930502272
 30
0.0
 10
163.5141608729
 20
26.7677213614
 30
0.0
 10
163.2952441017
 20
26.7677213614
 30
0.0
 10
163.0758039193
 20
26.7677213614
 30
0.0
 10
163.0290894619
 20
26.930502272
 30
0.0
 10
163.0290894619
 20
27.1163132792
 30
0.0
 10
163.0290894619
 20
27.1163132792
 30
0.0
 10
163.0290894619
 20
27.7533048165
 30
0.0
 10
163.0290894619
 20
27.7533048165
 30
0.0
 10
163.0290894619
 20
27.7533048165
 30
0.0
 10
162.8072939286
 20
27.7533048165
 30
0.0
 10
162.8072939286
 20
27.7533048165
 30
0.0
  0
SPLINE
  5
23F
330
226
100
AcDbEntity
  8
0
  6
Continuous
 62
     7
100
AcDbSpline
 70
     3
 71
     3
 72
    35
 73
    31
 74
     0
 42
0.000000001
 43
0.0000001
 40
0.0
 40
0.0
 40
0.0
 40
0.0
 40
1.0
 40
1.0
 40
1.0
 40
2.0
 40
2.0
 40
2.0
 40
3.0
 40
3.0
 40
3.0
 40
4.0
 40
4.0
 40
4.0
 40
5.0
 40
5.0
 40
5.0
 40
6.0
 40
6.0
 40
6.0
 40
7.0
 40
7.0
 40
7.0
 40
8.0
 40
8.0
 40
8.0
 40
9.0
 40
9.0
 40
9.0
 40
10.0
 40
10.0
 40
10.0
 40
10.0
 10
166.2060651264
 20
27.7119553248
 30
0.0
 10
166.1176086188
 20
27.763249631
 30
0.0
 10
166.0041592221
 20
27.7883733728
 30
0.0
 10
165.9005237871
 20
27.7883733728
 30
0.0
 10
165.5456509339
 20
27.7883733728
 30
0.0
 10
165.2702057437
 20
27.5245740837
 30
0.0
 10
165.2702057437
 20
27.1670841741
 30
0.0
 10
165.2702057437
 20
26.8221561354
 30
0.0
 10
165.5486605488
 20
26.5620207253
 30
0.0
 10
165.8882236218
 20
26.5620207253
 30
0.0
 10
166.0041592221
 20
26.5620207253
 30
0.0
 10
166.104915895
 20
26.5840039994
 30
0.0
 10
166.2060651264
 20
26.637915362
 30
0.0
 10
166.2060651264
 20
26.637915362
 30
0.0
 10
166.2060651264
 20
26.9205574575
 30
0.0
 10
166.2060651264
 20
26.9205574575
 30
0.0
 10
166.1221884675
 20
26.8273902483
 30
0.0
 10
166.0186838853
 20
26.7682447727
 30
0.0
 10
165.8905789726
 20
26.7682447727
 30
0.0
 10
165.6568758326
 20
26.7682447727
 30
0.0
 10
165.4916087185
 20
26.9404470864
 30
0.0
 10
165.4916087185
 20
27.1770289886
 30
0.0
 10
165.4916087185
 20
27.3890105601
 30
0.0
 10
165.6593620362
 20
27.5811025028
 30
0.0
 10
165.8761851622
 20
27.5811025028
 30
0.0
 10
166.0090007765
 20
27.5811025028
 30
0.0
 10
166.1176086188
 20
27.5271911401
 30
0.0
 10
166.2060651264
 20
27.4261727616
 30
0.0
 10
166.2060651264
 20
27.4261727616
 30
0.0
 10
166.2060651264
 20
27.7119553248
 30
0.0
 10
166.2060651264
 20
27.7119553248
 30
0.0
  0
SPLINE
  5
240
330
226
100
AcDbEntity
  8
0
  6
Continuous
 62
     7
100
AcDbSpline
 70
     3
 71
     3
 72
    32
 73
    28
 74
     0
 42
0.000000001
 43
0.0000001
 40
0.0
 40
0.0
 40
0.0
 40
0.0
 40
1.0
 40
1.0
 40
1.0
 40
2.0
 40
2.0
 40
2.0
 40
3.0
 40
3.0
 40
3.0
 40
4.0
 40
4.0
 40
4.0
 40
5.0
 40
5.0
 40
5.0
 40
6.0
 40
6.0
 40
6.0
 40
7.0
 40
7.0
 40
7.0
 40
8.0
 40
8.0
 40
8.0
 40
9.0
 40
9.0
 40
9.0
 40
9.0
 10
168.7379363787
 20
27.1403901984
 30
0.0
 10
168.7379363787
 20
27.1403901984
 30
0.0
 10
168.7379363787
 20
27.1744119321
 30
0.0
 10
168.7379363787
 20
27.1744119321
 30
0.0
 10
168.7379363787
 20
27.5167229144
 30
0.0
 10
168.5650798008
 20
27.7883733728
 30
0.0
 10
168.1984301937
 20
27.7883733728
 30
0.0
 10
167.8268081793
 20
27.7883733728
 30
0.0
 10
167.6370715874
 20
27.5219570273
 30
0.0
 10
167.6370715874
 20
27.1670841741
 30
0.0
 10
167.6370715874
 20
26.8273902483
 30
0.0
 10
167.8511468042
 20
26.561497314
 30
0.0
 10
168.2032717481
 20
26.561497314
 30
0.0
 10
168.4272917793
 20
26.561497314
 30
0.0
 10
168.6294593892
 20
26.6771712086
 30
0.0
 10
168.7379363787
 20
26.8765909093
 30
0.0
 10
168.7379363787
 20
26.8765909093
 30
0.0
 10
168.550293432
 20
26.983366812
 30
0.0
 10
168.550293432
 20
26.983366812
 30
0.0
 10
168.4668093315
 20
26.8446628208
 30
0.0
 10
168.3756049146
 20
26.7588233695
 30
0.0
 10
168.2060196574
 20
26.7588233695
 30
0.0
 10
167.9940380858
 20
26.7588233695
 30
0.0
 10
167.8610916187
 20
26.9435875542
 30
0.0
 10
167.8587362679
 20
27.1403901984
 30
0.0
 10
167.8587362679
 20
27.1403901984
 30
0.0
 10
168.7379363787
 20
27.1403901984
 30
0.0
 10
168.7379363787
 20
27.1403901984
 30
0.0
  0
SPLINE
  5
241
330
226
100
AcDbEntity
  8
0
  6
Continuous
 62
     7
100
AcDbSpline
 70
     3
 71
     3
 72
    14
 73
    10
 74
     0
 42
0.000000001
 43
0.0000001
 40
0.0
 40
0.0
 40
0.0
 40
0.0
 40
1.0
 40
1.0
 40
1.0
 40
2.0
 40
2.0
 40
2.0
 40
3.0
 40
3.0
 40
3.0
 40
3.0
 10
167.8707747275
 20
27.3078818105
 30
0.0
 10
167.8983846729
 20
27.4727563662
 30
0.0
 10
168.02622788
 20
27.5957580188
 30
0.0
 10
168.1984301937
 20
27.5957580188
 30
0.0
 10
168.3756049146
 20
27.5957580188
 30
0.0
 10
168.4890543113
 20
27.4800841242
 30
0.0
 10
168.5162716982
 20
27.3078818105
 30
0.0
 10
168.5162716982
 20
27.3078818105
 30
0.0
 10
167.8707747275
 20
27.3078818105
 30
0.0
 10
167.8707747275
 20
27.3078818105
 30
0.0
  0
SPLINE
  5
242
330
226
100
AcDbEntity
  8
0
  6
Continuous
 62
     7
100
AcDbSpline
 70
     3
 71
     3
 72
    20
 73
    16
 74
     0
 42
0.000000001
 43
0.0000001
 40
0.0
 40
0.0
 40
0.0
 40
0.0
 40
1.0
 40
1.0
 40
1.0
 40
2.0
 40
2.0
 40
2.0
 40
3.0
 40
3.0
 40
3.0
 40
4.0
 40
4.0
 40
4.0
 40
5.0
 40
5.0
 40
5.0
 40
5.0
 10
170.7619678289
 20
27.5172463257
 30
0.0
 10
170.7619678289
 20
27.5172463257
 30
0.0
 10
171.1731073955
 20
27.0147714893
 30
0.0
 10
171.1731073955
 20
27.0147714893
 30
0.0
 10
171.0570409424
 20
26.8990975947
 30
0.0
 10
170.9192529209
 20
26.768768184
 30
0.0
 10
170.7473123128
 20
26.768768184
 30
0.0
 10
170.5698758862
 20
26.768768184
 30
0.0
 10
170.4023842741
 20
26.9331193284
 30
0.0
 10
170.4023842741
 20
27.1100323437
 30
0.0
 10
170.4023842741
 20
27.2879921816
 30
0.0
 10
170.6121413477
 20
27.414134302
 30
0.0
 10
170.7397228491
 20
27.5020673983
 30
0.0
 10
170.7397228491
 20
27.5020673983
 30
0.0
 10
170.7619678289
 20
27.5172463257
 30
0.0
 10
170.7619678289
 20
27.5172463257
 30
0.0
  0
SPLINE
  5
243
330
226
100
AcDbEntity
  8
0
  6
Continuous
 62
     7
100
AcDbSpline
 70
     3
 71
     3
 72
    23
 73
    19
 74
     0
 42
0.000000001
 43
0.0000001
 40
0.0
 40
0.0
 40
0.0
 40
0.0
 40
1.0
 40
1.0
 40
1.0
 40
2.0
 40
2.0
 40
2.0
 40
3.0
 40
3.0
 40
3.0
 40
4.0
 40
4.0
 40
4.0
 40
5.0
 40
5.0
 40
5.0
 40
6.0
 40
6.0
 40
6.0
 40
6.0
 10
170.8112993427
 20
27.8082630017
 30
0.0
 10
170.8112993427
 20
27.8082630017
 30
0.0
 10
170.7496676636
 20
27.8867746949
 30
0.0
 10
170.7496676636
 20
27.8867746949
 30
0.0
 10
170.6957563009
 20
27.9553415736
 30
0.0
 10
170.6389661762
 20
28.0244318636
 30
0.0
 10
170.6389661762
 20
28.1181224841
 30
0.0
 10
170.6389661762
 20
28.2369368465
 30
0.0
 10
170.7348812947
 20
28.3144017171
 30
0.0
 10
170.8458444877
 20
28.3144017171
 30
0.0
 10
170.969107846
 20
28.3144017171
 30
0.0
 10
171.0624059081
 20
28.2432177819
 30
0.0
 10
171.0624059081
 20
28.1128883713
 30
0.0
 10
171.0624059081
 20
27.977848259
 30
0.0
 10
170.9343009954
 20
27.901430211
 30
0.0
 10
170.8407412277
 20
27.8276292194
 30
0.0
 10
170.8407412277
 20
27.8276292194
 30
0.0
 10
170.8112993427
 20
27.8082630017
 30
0.0
 10
170.8112993427
 20
27.8082630017
 30
0.0
  0
SPLINE
  5
244
330
226
100
AcDbEntity
  8
0
  6
Continuous
 62
     7
100
AcDbSpline
 70
     3
 71
     3
 72
    50
 73
    46
 74
     0
 42
0.000000001
 43
0.0000001
 40
0.0
 40
0.0
 40
0.0
 40
0.0
 40
1.0
 40
1.0
 40
1.0
 40
2.0
 40
2.0
 40
2.0
 40
3.0
 40
3.0
 40
3.0
 40
4.0
 40
4.0
 40
4.0
 40
5.0
 40
5.0
 40
5.0
 40
6.0
 40
6.0
 40
6.0
 40
7.0
 40
7.0
 40
7.0
 40
8.0
 40
8.0
 40
8.0
 40
9.0
 40
9.0
 40
9.0
 40
10.0
 40
10.0
 40
10.0
 40
11.0
 40
11.0
 40
11.0
 40
12.0
 40
12.0
 40
12.0
 40
13.0
 40
13.0
 40
13.0
 40
14.0
 40
14.0
 40
14.0
 40
15.0
 40
15.0
 40
15.0
 40
15.0
 10
171.5134555854
 20
26.6012765719
 30
0.0
 10
171.5134555854
 20
26.6012765719
 30
0.0
 10
171.7988455901
 20
26.6012765719
 30
0.0
 10
171.7988455901
 20
26.6012765719
 30
0.0
 10
171.7988455901
 20
26.6012765719
 30
0.0
 10
171.4664794223
 20
27.0121544329
 30
0.0
 10
171.4664794223
 20
27.0121544329
 30
0.0
 10
171.4664794223
 20
27.0121544329
 30
0.0
 10
171.6929856571
 20
27.2780473671
 30
0.0
 10
171.6929856571
 20
27.2780473671
 30
0.0
 10
171.6929856571
 20
27.2780473671
 30
0.0
 10
171.5447294099
 20
27.4308834632
 30
0.0
 10
171.5447294099
 20
27.4308834632
 30
0.0
 10
171.5447294099
 20
27.4308834632
 30
0.0
 10
171.3288222536
 20
27.179646045
 30
0.0
 10
171.3288222536
 20
27.179646045
 30
0.0
 10
171.3288222536
 20
27.179646045
 30
0.0
 10
170.9417596062
 20
27.6475757363
 30
0.0
 10
170.9417596062
 20
27.6475757363
 30
0.0
 10
171.0972127587
 20
27.7616793971
 30
0.0
 10
171.2794907397
 20
27.901430211
 30
0.0
 10
171.2794907397
 20
28.1107947261
 30
0.0
 10
171.2794907397
 20
28.3547043863
 30
0.0
 10
171.0774539826
 20
28.4981190791
 30
0.0
 10
170.8509477478
 20
28.4981190791
 30
0.0
 10
170.606776382
 20
28.4981190791
 30
0.0
 10
170.4224047558
 20
28.3473766282
 30
0.0
 10
170.4224047558
 20
28.0909050972
 30
0.0
 10
170.4224047558
 20
27.9333582995
 30
0.0
 10
170.5210677836
 20
27.7957011308
 30
0.0
 10
170.6264043053
 20
27.6847379378
 30
0.0
 10
170.6264043053
 20
27.6847379378
 30
0.0
 10
170.5108612635
 20
27.6009921317
 30
0.0
 10
170.5108612635
 20
27.6009921317
 30
0.0
 10
170.3331631313
 20
27.4727563662
 30
0.0
 10
170.1858228537
 20
27.345044012
 30
0.0
 10
170.1858228537
 20
27.1079386986
 30
0.0
 10
170.1858228537
 20
26.7876109904
 30
0.0
 10
170.4443880299
 20
26.561497314
 30
0.0
 10
170.7547709236
 20
26.561497314
 30
0.0
 10
170.9736876948
 20
26.561497314
 30
0.0
 10
171.1708828975
 20
26.6865926118
 30
0.0
 10
171.3111571226
 20
26.8525139901
 30
0.0
 10
171.3111571226
 20
26.8525139901
 30
0.0
 10
171.5134555854
 20
26.6012765719
 30
0.0
 10
171.5134555854
 20
26.6012765719
 30
0.0
  0
LWPOLYLINE
  5
245
330
226
100
AcDbEntity
  8
0
  6
Continuous
 62
     7
100
AcDbPolyline
 90
        2
 70
     0
 43
0.2
 10
173.4488996751
 20
28.45781641
 10
173.2175518859
 20
28.45781641
  0
LWPOLYLINE
  5
246
330
226
100
AcDbEntity
  8
0
  6
Continuous
 62
     7
100
AcDbPolyline
 90
        2
 70
     0
 43
0.2
 10
173.2175518859
 20
28.45781641
 10
173.2175518859
 20
26.6007531606
  0
LWPOLYLINE
  5
247
330
226
100
AcDbEntity
  8
0
  6
Continuous
 62
     7
100
AcDbPolyline
 90
        2
 70
     0
 43
0.2
 10
173.2175518859
 20
26.6007531606
 10
174.0128753378
 20
26.6007531606
  0
LWPOLYLINE
  5
248
330
226
100
AcDbEntity
  8
0
  6
Continuous
 62
     7
100
AcDbPolyline
 90
        2
 70
     0
 43
0.2
 10
174.0128753378
 20
26.6007531606
 10
174.0128753378
 20
26.8127347322
  0
LWPOLYLINE
  5
249
330
226
100
AcDbEntity
  8
0
  6
Continuous
 62
     7
100
AcDbPolyline
 90
        2
 70
     0
 43
0.2
 10
174.0128753378
 20
26.8127347322
 10
173.4488996751
 20
26.8127347322
  0
LWPOLYLINE
  5
24A
330
226
100
AcDbEntity
  8
0
  6
Continuous
 62
     7
100
AcDbPolyline
 90
        2
 70
     0
 43
0.2
 10
173.4488996751
 20
26.8127347322
 10
173.4488996751
 20
28.45781641
  0
LWPOLYLINE
  5
24B
330
226
100
AcDbEntity
  8
0
  6
Continuous
 62
     7
100
AcDbPolyline
 90
        2
 70
     0
 43
0.2
 10
175.6919787493
 20
27.7533048165
 10
175.4708374802
 20
27.7533048165
  0
LWPOLYLINE
  5
24C
330
226
100
AcDbEntity
  8
0
  6
Continuous
 62
     7
100
AcDbPolyline
 90
        2
 70
     0
 43
0.2
 10
175.4708374802
 20
27.7533048165
 10
175.4708374802
 20
26.6012765719
  0
LWPOLYLINE
  5
24D
330
226
100
AcDbEntity
  8
0
  6
Continuous
 62
     7
100
AcDbPolyline
 90
        2
 70
     0
 43
0.2
 10
175.4708374802
 20
26.6012765719
 10
175.6919787493
 20
26.6012765719
  0
LWPOLYLINE
  5
24E
330
226
100
AcDbEntity
  8
0
  6
Continuous
 62
     7
100
AcDbPolyline
 90
        2
 70
     0
 43
0.2
 10
175.6919787493
 20
26.6012765719
 10
175.6919787493
 20
27.7533048165
  0
SPLINE
  5
24F
330
226
100
AcDbEntity
  8
0
  6
Continuous
 62
     7
100
AcDbSpline
 70
     3
 71
     3
 72
    17
 73
    13
 74
     0
 42
0.000000001
 43
0.0000001
 40
0.0
 40
0.0
 40
0.0
 40
0.0
 40
1.0
 40
1.0
 40
1.0
 40
2.0
 40
2.0
 40
2.0
 40
3.0
 40
3.0
 40
3.0
 40
4.0
 40
4.0
 40
4.0
 40
4.0
 10
175.5815389676
 20
28.4358331359
 30
0.0
 10
175.4975314559
 20
28.4358331359
 30
0.0
 10
175.4289645771
 20
28.3667428459
 30
0.0
 10
175.4289645771
 20
28.2809033947
 30
0.0
 10
175.4289645771
 20
28.1966341773
 30
0.0
 10
175.4975314559
 20
28.1306843551
 30
0.0
 10
175.5815389676
 20
28.1306843551
 30
0.0
 10
175.6652847736
 20
28.1306843551
 30
0.0
 10
175.734113358
 20
28.1966341773
 30
0.0
 10
175.734113358
 20
28.2809033947
 30
0.0
 10
175.734113358
 20
28.3667428459
 30
0.0
 10
175.6652847736
 20
28.4358331359
 30
0.0
 10
175.5815389676
 20
28.4358331359
 30
0.0
  0
SPLINE
  5
250
330
226
100
AcDbEntity
  8
0
  6
Continuous
 62
     7
100
AcDbSpline
 70
     3
 71
     3
 72
    17
 73
    13
 74
     0
 42
0.000000001
 43
0.0000001
 40
0.0
 40
0.0
 40
0.0
 40
0.0
 40
1.0
 40
1.0
 40
1.0
 40
2.0
 40
2.0
 40
2.0
 40
3.0
 40
3.0
 40
3.0
 40
4.0
 40
4.0
 40
4.0
 40
4.0
 10
177.8222626909
 20
26.7588233695
 30
0.0
 10
177.5882978453
 20
26.7588233695
 30
0.0
 10
177.4579684346
 20
26.9608601267
 30
0.0
 10
177.4579684346
 20
27.1770289886
 30
0.0
 10
177.4579684346
 20
27.3916276166
 30
0.0
 10
177.5937936638
 20
27.590523906
 30
0.0
 10
177.8222626909
 20
27.590523906
 30
0.0
 10
178.0617233551
 20
27.590523906
 30
0.0
 10
178.1972868787
 20
27.401572431
 30
0.0
 10
178.1972868787
 20
27.1770289886
 30
0.0
 10
178.1972868787
 20
26.9509153122
 30
0.0
 10
178.0640787059
 20
26.7588233695
 30
0.0
 10
177.8222626909
 20
26.7588233695
 30
0.0
  0
SPLINE
  5
251
330
226
100
AcDbEntity
  8
0
  6
Continuous
 62
     7
100
AcDbSpline
 70
     3
 71
     3
 72
    50
 73
    46
 74
     0
 42
0.000000001
 43
0.0000001
 40
0.0
 40
0.0
 40
0.0
 40
0.0
 40
1.0
 40
1.0
 40
1.0
 40
2.0
 40
2.0
 40
2.0
 40
3.0
 40
3.0
 40
3.0
 40
4.0
 40
4.0
 40
4.0
 40
5.0
 40
5.0
 40
5.0
 40
6.0
 40
6.0
 40
6.0
 40
7.0
 40
7.0
 40
7.0
 40
8.0
 40
8.0
 40
8.0
 40
9.0
 40
9.0
 40
9.0
 40
10.0
 40
10.0
 40
10.0
 40
11.0
 40
11.0
 40
11.0
 40
12.0
 40
12.0
 40
12.0
 40
13.0
 40
13.0
 40
13.0
 40
14.0
 40
14.0
 40
14.0
 40
15.0
 40
15.0
 40
15.0
 40
15.0
 10
178.4063896882
 20
27.7538282278
 30
0.0
 10
178.4063896882
 20
27.7538282278
 30
0.0
 10
178.1847250078
 20
27.7538282278
 30
0.0
 10
178.1847250078
 20
27.7538282278
 30
0.0
 10
178.1847250078
 20
27.7538282278
 30
0.0
 10
178.1847250078
 20
27.5565021723
 30
0.0
 10
178.1847250078
 20
27.5565021723
 30
0.0
 10
178.1847250078
 20
27.5565021723
 30
0.0
 10
178.1800143062
 20
27.5565021723
 30
0.0
 10
178.1800143062
 20
27.5565021723
 30
0.0
 10
178.0886790365
 20
27.6993934538
 30
0.0
 10
177.9507601621
 20
27.7878499615
 30
0.0
 10
177.7780344371
 20
27.7878499615
 30
0.0
 10
177.4456682693
 20
27.7878499615
 30
0.0
 10
177.2365654598
 20
27.4999737532
 30
0.0
 10
177.2365654598
 20
27.1843567466
 30
0.0
 10
177.2365654598
 20
26.8546076352
 30
0.0
 10
177.4336298097
 20
26.561497314
 30
0.0
 10
177.7885026629
 20
26.561497314
 30
0.0
 10
177.9507601621
 20
26.561497314
 30
0.0
 10
178.0907726816
 20
26.6499538217
 30
0.0
 10
178.1800143062
 20
26.7808066436
 30
0.0
 10
178.1800143062
 20
26.7808066436
 30
0.0
 10
178.1847250078
 20
26.7808066436
 30
0.0
 10
178.1847250078
 20
26.7808066436
 30
0.0
 10
178.1847250078
 20
26.7808066436
 30
0.0
 10
178.1847250078
 20
26.561497314
 30
0.0
 10
178.1847250078
 20
26.561497314
 30
0.0
 10
178.1847250078
 20
26.3249154119
 30
0.0
 10
178.1281965887
 20
26.1380575821
 30
0.0
 10
177.8549758964
 20
26.1380575821
 30
0.0
 10
177.6526774337
 20
26.1380575821
 30
0.0
 10
177.5100478577
 20
26.2563485332
 30
0.0
 10
177.5100478577
 20
26.4625725806
 30
0.0
 10
177.5100478577
 20
26.4625725806
 30
0.0
 10
177.2883831773
 20
26.4625725806
 30
0.0
 10
177.2883831773
 20
26.4625725806
 30
0.0
 10
177.2933555845
 20
26.1380575821
 30
0.0
 10
177.5244416681
 20
25.9412549379
 30
0.0
 10
177.8447693763
 20
25.9412549379
 30
0.0
 10
178.2928094387
 20
25.9412549379
 30
0.0
 10
178.4063896882
 20
26.2265140898
 30
0.0
 10
178.4063896882
 20
26.623259846
 30
0.0
 10
178.4063896882
 20
26.623259846
 30
0.0
 10
178.4063896882
 20
27.7538282278
 30
0.0
 10
178.4063896882
 20
27.7538282278
 30
0.0
  0
SPLINE
  5
252
330
226
100
AcDbEntity
  8
0
  6
Continuous
 62
     7
100
AcDbSpline
 70
     3
 71
     3
 72
    44
 73
    40
 74
     0
 42
0.000000001
 43
0.0000001
 40
0.0
 40
0.0
 40
0.0
 40
0.0
 40
1.0
 40
1.0
 40
1.0
 40
2.0
 40
2.0
 40
2.0
 40
3.0
 40
3.0
 40
3.0
 40
4.0
 40
4.0
 40
4.0
 40
5.0
 40
5.0
 40
5.0
 40
6.0
 40
6.0
 40
6.0
 40
7.0
 40
7.0
 40
7.0
 40
8.0
 40
8.0
 40
8.0
 40
9.0
 40
9.0
 40
9.0
 40
10.0
 40
10.0
 40
10.0
 40
11.0
 40
11.0
 40
11.0
 40
12.0
 40
12.0
 40
12.0
 40
13.0
 40
13.0
 40
13.0
 40
13.0
 10
179.9753150236
 20
28.7388882716
 30
0.0
 10
179.9753150236
 20
28.7388882716
 30
0.0
 10
179.9753150236
 20
26.6007531606
 30
0.0
 10
179.9753150236
 20
26.6007531606
 30
0.0
 10
179.9753150236
 20
26.6007531606
 30
0.0
 10
180.1967179984
 20
26.6007531606
 30
0.0
 10
180.1967179984
 20
26.6007531606
 30
0.0
 10
180.1967179984
 20
26.6007531606
 30
0.0
 10
180.1967179984
 20
27.1304453839
 30
0.0
 10
180.1967179984
 20
27.1304453839
 30
0.0
 10
180.1967179984
 20
27.3403333104
 30
0.0
 10
180.1967179984
 20
27.5910473173
 30
0.0
 10
180.4819771502
 20
27.5910473173
 30
0.0
 10
180.7088759435
 20
27.5910473173
 30
0.0
 10
180.7358316249
 20
27.4581008501
 30
0.0
 10
180.7358316249
 20
27.2618216172
 30
0.0
 10
180.7358316249
 20
27.2618216172
 30
0.0
 10
180.7358316249
 20
26.6007531606
 30
0.0
 10
180.7358316249
 20
26.6007531606
 30
0.0
 10
180.7358316249
 20
26.6007531606
 30
0.0
 10
180.9577580109
 20
26.6007531606
 30
0.0
 10
180.9577580109
 20
26.6007531606
 30
0.0
 10
180.9577580109
 20
26.6007531606
 30
0.0
 10
180.9577580109
 20
27.2879921816
 30
0.0
 10
180.9577580109
 20
27.2879921816
 30
0.0
 10
180.9577580109
 20
27.5685406319
 30
0.0
 10
180.8737504992
 20
27.7883733728
 30
0.0
 10
180.5487120894
 20
27.7883733728
 30
0.0
 10
180.4089612756
 20
27.7883733728
 30
0.0
 10
180.2707806956
 20
27.7219001392
 30
0.0
 10
180.2014286999
 20
27.5988984866
 30
0.0
 10
180.2014286999
 20
27.5988984866
 30
0.0
 10
180.1967179984
 20
27.5988984866
 30
0.0
 10
180.1967179984
 20
27.5988984866
 30
0.0
 10
180.1967179984
 20
27.5988984866
 30
0.0
 10
180.1967179984
 20
28.7388882716
 30
0.0
 10
180.1967179984
 20
28.7388882716
 30
0.0
 10
180.1967179984
 20
28.7388882716
 30
0.0
 10
179.9753150236
 20
28.7388882716
 30
0.0
 10
179.9753150236
 20
28.7388882716
 30
0.0
  0
LWPOLYLINE
  5
253
330
226
100
AcDbEntity
  8
0
  6
Continuous
 62
     7
100
AcDbPolyline
 90
        2
 70
     0
 43
0.2
 10
182.7975486878
 20
27.5465573578
 10
183.0139792553
 20
27.5465573578
  0
LWPOLYLINE
  5
254
330
226
100
AcDbEntity
  8
0
  6
Continuous
 62
     7
100
AcDbPolyline
 90
        2
 70
     0
 43
0.2
 10
183.0139792553
 20
27.5465573578
 10
183.0139792553
 20
27.7533048165
  0
LWPOLYLINE
  5
255
330
226
100
AcDbEntity
  8
0
  6
Continuous
 62
     7
100
AcDbPolyline
 90
        2
 70
     0
 43
0.2
 10
183.0139792553
 20
27.7533048165
 10
182.7975486878
 20
27.7533048165
  0
LWPOLYLINE
  5
256
330
226
100
AcDbEntity
  8
0
  6
Continuous
 62
     7
100
AcDbPolyline
 90
        2
 70
     0
 43
0.2
 10
182.7975486878
 20
27.7533048165
 10
182.7975486878
 20
28.1940171209
  0
LWPOLYLINE
  5
257
330
226
100
AcDbEntity
  8
0
  6
Continuous
 62
     7
100
AcDbPolyline
 90
        2
 70
     0
 43
0.2
 10
182.7975486878
 20
28.1940171209
 10
182.5758840074
 20
28.1940171209
  0
LWPOLYLINE
  5
258
330
226
100
AcDbEntity
  8
0
  6
Continuous
 62
     7
100
AcDbPolyline
 90
        2
 70
     0
 43
0.2
 10
182.5758840074
 20
28.1940171209
 10
182.5758840074
 20
27.7533048165
  0
LWPOLYLINE
  5
259
330
226
100
AcDbEntity
  8
0
  6
Continuous
 62
     7
100
AcDbPolyline
 90
        2
 70
     0
 43
0.2
 10
182.5758840074
 20
27.7533048165
 10
182.4552377055
 20
27.7533048165
  0
LWPOLYLINE
  5
25A
330
226
100
AcDbEntity
  8
0
  6
Continuous
 62
     7
100
AcDbPolyline
 90
        2
 70
     0
 43
0.2
 10
182.4552377055
 20
27.7533048165
 10
182.4552377055
 20
27.5465573578
  0
LWPOLYLINE
  5
25B
330
226
100
AcDbEntity
  8
0
  6
Continuous
 62
     7
100
AcDbPolyline
 90
        2
 70
     0
 43
0.2
 10
182.4552377055
 20
27.5465573578
 10
182.5758840074
 20
27.5465573578
  0
LWPOLYLINE
  5
25C
330
226
100
AcDbEntity
  8
0
  6
Continuous
 62
     7
100
AcDbPolyline
 90
        2
 70
     0
 43
0.2
 10
182.5758840074
 20
27.5465573578
 10
182.5758840074
 20
26.6007531606
  0
LWPOLYLINE
  5
25D
330
226
100
AcDbEntity
  8
0
  6
Continuous
 62
     7
100
AcDbPolyline
 90
        2
 70
     0
 43
0.2
 10
182.5758840074
 20
26.6007531606
 10
182.7975486878
 20
26.6007531606
  0
LWPOLYLINE
  5
25E
330
226
100
AcDbEntity
  8
0
  6
Continuous
 62
     7
100
AcDbPolyline
 90
        2
 70
     0
 43
0.2
 10
182.7975486878
 20
26.6007531606
 10
182.7975486878
 20
27.5465573578
  0
SPLINE
  5
25F
330
226
100
AcDbEntity
  8
0
  6
Continuous
 62
     7
100
AcDbSpline
 70
     3
 71
     3
 72
    20
 73
    16
 74
     0
 42
0.000000001
 43
0.0000001
 40
0.0
 40
0.0
 40
0.0
 40
0.0
 40
1.0
 40
1.0
 40
1.0
 40
2.0
 40
2.0
 40
2.0
 40
3.0
 40
3.0
 40
3.0
 40
4.0
 40
4.0
 40
4.0
 40
5.0
 40
5.0
 40
5.0
 40
5.0
 10
170.579558995
 20
36.961679604
 30
0.0
 10
170.579558995
 20
36.961679604
 30
0.0
 10
172.8959156495
 20
34.1321181818
 30
0.0
 10
172.8959156495
 20
34.1321181818
 30
0.0
 10
172.2442685961
 20
33.4799477171
 30
0.0
 10
171.4673953921
 20
32.7440314463
 30
0.0
 10
170.4962057474
 20
32.7440314463
 30
0.0
 10
169.497667863
 20
32.7440314463
 30
0.0
 10
168.5543498694
 20
33.6736098936
 30
0.0
 10
168.5543498694
 20
34.6728020421
 30
0.0
 10
168.5543498694
 20
35.6719941907
 30
0.0
 10
169.7332029425
 20
36.3785994293
 30
0.0
 10
170.4547254029
 20
36.8784572092
 30
0.0
 10
170.4547254029
 20
36.8784572092
 30
0.0
 10
170.579558995
 20
36.961679604
 30
0.0
 10
170.579558995
 20
36.961679604
 30
0.0
  0
SPLINE
  5
260
330
226
100
AcDbEntity
  8
0
  6
Continuous
 62
     7
100
AcDbSpline
 70
     3
 71
     3
 72
    23
 73
    19
 74
     0
 42
0.000000001
 43
0.0000001
 40
0.0
 40
0.0
 40
0.0
 40
0.0
 40
1.0
 40
1.0
 40
1.0
 40
2.0
 40
2.0
 40
2.0
 40
3.0
 40
3.0
 40
3.0
 40
4.0
 40
4.0
 40
4.0
 40
5.0
 40
5.0
 40
5.0
 40
6.0
 40
6.0
 40
6.0
 40
6.0
 10
170.8569669776
 20
38.5994335237
 30
0.0
 10
170.8569669776
 20
38.5994335237
 30
0.0
 10
170.510468705
 20
39.0427628846
 30
0.0
 10
170.510468705
 20
39.0427628846
 30
0.0
 10
170.2046656601
 20
39.4308723545
 30
0.0
 10
169.885777333
 20
39.8193743829
 30
0.0
 10
169.885777333
 20
40.346318697
 30
0.0
 10
169.885777333
 20
41.0124904136
 30
0.0
 10
170.4271154574
 20
41.4562123329
 30
0.0
 10
171.0510217126
 20
41.4562123329
 30
0.0
 10
171.7448033746
 20
41.4562123329
 30
0.0
 10
172.2720093944
 20
41.0539707582
 30
0.0
 10
172.2720093944
 20
40.3189704572
 30
0.0
 10
172.2720093944
 20
39.5557059467
 30
0.0
 10
171.5507486397
 20
39.1255927209
 30
0.0
 10
171.0236734728
 20
38.7098733055
 30
0.0
 10
171.0236734728
 20
38.7098733055
 30
0.0
 10
170.8569669776
 20
38.5994335237
 30
0.0
 10
170.8569669776
 20
38.5994335237
 30
0.0
  0
SPLINE
  5
261
330
226
100
AcDbEntity
  8
0
  6
Continuous
 62
     7
100
AcDbSpline
 70
     3
 71
     3
 72
    50
 73
    46
 74
     0
 42
0.000000001
 43
0.0000001
 40
0.0
 40
0.0
 40
0.0
 40
0.0
 40
1.0
 40
1.0
 40
1.0
 40
2.0
 40
2.0
 40
2.0
 40
3.0
 40
3.0
 40
3.0
 40
4.0
 40
4.0
 40
4.0
 40
5.0
 40
5.0
 40
5.0
 40
6.0
 40
6.0
 40
6.0
 40
7.0
 40
7.0
 40
7.0
 40
8.0
 40
8.0
 40
8.0
 40
9.0
 40
9.0
 40
9.0
 40
10.0
 40
10.0
 40
10.0
 40
11.0
 40
11.0
 40
11.0
 40
12.0
 40
12.0
 40
12.0
 40
13.0
 40
13.0
 40
13.0
 40
14.0
 40
14.0
 40
14.0
 40
15.0
 40
15.0
 40
15.0
 40
15.0
 10
174.8105541405
 20
31.8008443056
 30
0.0
 10
174.8105541405
 20
31.8008443056
 30
0.0
 10
176.4197821451
 20
31.8008443056
 30
0.0
 10
176.4197821451
 20
31.8008443056
 30
0.0
 10
176.4197821451
 20
31.8008443056
 30
0.0
 10
174.5467548514
 20
34.117986077
 30
0.0
 10
174.5467548514
 20
34.117986077
 30
0.0
 10
174.5467548514
 20
34.117986077
 30
0.0
 10
175.8230932769
 20
35.6154657716
 30
0.0
 10
175.8230932769
 20
35.6154657716
 30
0.0
 10
175.8230932769
 20
35.6154657716
 30
0.0
 10
174.9908693292
 20
36.4764773401
 30
0.0
 10
174.9908693292
 20
36.4764773401
 30
0.0
 10
174.9908693292
 20
36.4764773401
 30
0.0
 10
173.7702742059
 20
35.0611732177
 30
0.0
 10
173.7702742059
 20
35.0611732177
 30
0.0
 10
173.7702742059
 20
35.0611732177
 30
0.0
 10
171.5923598371
 20
37.6965490522
 30
0.0
 10
171.5923598371
 20
37.6965490522
 30
0.0
 10
172.4659332765
 20
38.3345874121
 30
0.0
 10
173.4926045177
 20
39.1255927209
 30
0.0
 10
173.4926045177
 20
40.304445794
 30
0.0
 10
173.4926045177
 20
41.678138719
 30
0.0
 10
172.3547083778
 20
42.4826218685
 30
0.0
 10
171.0794167749
 20
42.4826218685
 30
0.0
 10
169.7059855556
 20
42.4826218685
 30
0.0
 10
168.6650513568
 20
41.6363966688
 30
0.0
 10
168.6650513568
 20
40.1937443066
 30
0.0
 10
168.6650513568
 20
39.3061696152
 30
0.0
 10
169.2203907333
 20
38.5292964112
 30
0.0
 10
169.8165561901
 20
37.9048667447
 30
0.0
 10
169.8165561901
 20
37.9048667447
 30
0.0
 10
169.1646474311
 20
37.4332731744
 30
0.0
 10
169.1646474311
 20
37.4332731744
 30
0.0
 10
168.1661095467
 20
36.7120124197
 30
0.0
 10
167.3332313348
 20
35.990751665
 30
0.0
 10
167.3332313348
 20
34.6591933487
 30
0.0
 10
167.3332313348
 20
32.8555180507
 30
0.0
 10
168.7902775074
 20
31.5789179195
 30
0.0
 10
170.5378169448
 20
31.5789179195
 30
0.0
 10
171.7726750257
 20
31.5789179195
 30
0.0
 10
172.8820452504
 20
32.287093392
 30
0.0
 10
173.6729197063
 20
33.2156250167
 30
0.0
 10
173.6729197063
 20
33.2156250167
 30
0.0
 10
174.8105541405
 20
31.8008443056
 30
0.0
 10
174.8105541405
 20
31.8008443056
 30
0.0
  0
LINE
  5
262
330
226
100
AcDbEntity
  8
0
  6
Continuous
 62
     7
100
AcDbLine
 10
160.6134155155
 20
29.7747192103
 30
0.0
 11
183.0273262432
 21
29.7747192103
 31
0.0
  0
LINE
  5
263
330
226
100
AcDbEntity
  8
0
  6
Continuous
 62
     7
100
AcDbLine
 10
183.0273262432
 20
29.7747192103
 30
0.0
 11
183.0273262432
 21
52.1886299379
 31
0.0
  0
LINE
  5
264
330
226
100
AcDbEntity
  8
0
  6
Continuous
 62
     7
100
AcDbLine
 10
183.0273262432
 20
52.1886299379
 30
0.0
 11
160.6134155155
 21
52.1886299379
 31
0.0
  0
LINE
  5
265
330
226
100
AcDbEntity
  8
0
  6
Continuous
 62
     7
100
AcDbLine
 10
160.6134155155
 20
52.1886299379
 30
0.0
 11
160.6134155155
 21
29.7747192103
 31
0.0
  0
ENDBLK
  5
266
330
226
100
AcDbEntity
  8
0
  6
ByBlock
 62
     0
100
AcDbBlockEnd
  0
BLOCK
  5
267
330
227
100
AcDbEntity
  8
0
100
AcDbBlockBegin
  2
PROIEZIONE_EU_BL0
 70
     0
 10
172.9942584081
 20
64.6899424379
 30
0.0
  3
PROIEZIONE_EU_BL0
  1

  0
LWPOLYLINE
  5
268
330
227
100
AcDbEntity
  8
DEFAULT_1
  6
CENTER
 62
     7
100
AcDbPolyline
 90
        2
 70
     0
 43
0.25
 10
179.1208790698
 20
69.6896365698
 10
179.1209200522
 20
59.690248306
  0
LWPOLYLINE
  5
269
330
227
100
AcDbEntity
  8
DEFAULT_1
  6
CENTER
 62
     7
100
AcDbPolyline
 90
        2
 70
     0
 43
0.25
 10
185.1209088949
 20
64.690213573
 10
160.8676079214
 20
64.6899429126
  0
LWPOLYLINE
  5
26A
330
227
100
AcDbEntity
  8
0
  6
Continuous
 62
     7
100
AcDbPolyline
 90
        2
 70
     1
 43
0.25
 10
175.573768894
 20
64.6713946837
 42
1.0
 10
182.6800979926
 20
64.6713946837
 42
1.0
  0
LWPOLYLINE
  5
26B
330
227
100
AcDbEntity
  8
0
  6
Continuous
 62
     7
100
AcDbPolyline
 90
        2
 70
     1
 43
0.25
 10
177.1235127224
 20
64.6892927283
 42
1.0
 10
181.1352644724
 20
64.6892927283
 42
1.0
  0
LWPOLYLINE
  5
26C
330
227
100
AcDbEntity
  8
0
  6
Continuous
 62
     7
100
AcDbPolyline
 90
        2
 70
     0
 43
0.25
 10
173.1209066889
 20
68.2651459331
 10
173.1209063343
 20
61.1649430248
  0
LWPOLYLINE
  5
26D
330
227
100
AcDbEntity
  8
0
  6
Continuous
 62
     7
100
AcDbPolyline
 90
        2
 70
     0
 43
0.25
 10
173.1209347707
 20
61.1649145884
 10
163.1263774995
 20
62.6850080013
  0
LWPOLYLINE
  5
26E
330
227
100
AcDbEntity
  8
0
  6
Continuous
 62
     7
100
AcDbPolyline
 90
        2
 70
     0
 43
0.25
 10
163.1240675139
 20
62.6843304597
 10
163.1214006098
 20
66.6899690712
  0
LWPOLYLINE
  5
26F
330
227
100
AcDbEntity
  8
0
  6
Continuous
 62
     7
100
AcDbPolyline
 90
        2
 70
     0
 43
0.25
 10
163.1213923337
 20
66.6899607951
 10
173.121135571
 20
68.2651180152
  0
ENDBLK
  5
270
330
227
100
AcDbEntity
  8
0
  6
ByBlock
 62
     0
100
AcDbBlockEnd
  0
ENDSEC
  0
SECTION
  2
ENTITIES
  0
LINE
  5
292
330
221
100
AcDbEntity
 67
     1
  8
0
  6
Continuous
 62
     7
100
AcDbLine
 10
0.0
 20
0.0
 30
0.0
 11
297.0
 21
0.0
 31
0.0
  0
LINE
  5
293
330
221
100
AcDbEntity
 67
     1
  8
0
  6
Continuous
 62
     7
100
AcDbLine
 10
297.0
 20
0.0
 30
0.0
 11
297.0
 21
210.0
 31
0.0
  0
LINE
  5
294
330
221
100
AcDbEntity
 67
     1
  8
0
  6
Continuous
 62
     7
100
AcDbLine
 10
0.0
 20
210.0
 30
0.0
 11
297.0
 21
210.0
 31
0.0
  0
LINE
  5
295
330
221
100
AcDbEntity
 67
     1
  8
0
  6
Continuous
 62
     7
100
AcDbLine
 10
0.0
 20
0.0
 30
0.0
 11
0.0
 21
210.0
 31
0.0
  0
VIEWPORT
  5
296
330
221
100
AcDbEntity
 67
     1
  8
0
100
AcDbViewport
 10
148.5
 20
105.0
 30
0.0
 40
297.0
 41
210.0
 68
     1
 69
     1
 12
148.5
 22
105.0
 13
0.0
 23
0.0
 14
10.0
 24
10.0
 15
10.0
 25
10.0
 16
0.0
 26
0.0
 36
1.0
 17
0.0
 27
0.0
 37
0.0
 42
50.0
 43
0.0
 44
0.0
 45
210.0
 50
0.0
 51
0.0
 72
   100
 90
    32864
  1

281
     0
 71
     1
 74
     0
110
0.0
120
0.0
130
0.0
111
1.0
121
0.0
131
0.0
112
0.0
122
1.0
132
0.0
 79
     0
146
0.0
170
     0
 61
     5
348
4AD
292
     1
282
     1
141
0.0
142
0.0
 63
   256
  0
LINE
  5
297
330
221
100
AcDbEntity
 67
     1
  8
3_ALL_AXES
  6
Continuous
 62
     7
100
AcDbLine
 10
78.3468116554
 20
117.6668085448
 30
0.0
 11
78.3468116554
 21
116.8668085448
 31
0.0
  0
LINE
  5
298
330
221
100
AcDbEntity
 67
     1
  8
3_ALL_AXES
  6
Continuous
 62
     7
100
AcDbLine
 10
87.3468116554
 20
117.6668085448
 30
0.0
 11
87.3468116554
 21
116.8668085448
 31
0.0
  0
LINE
  5
299
330
221
100
AcDbEntity
 67
     1
  8
3_ALL_AXES
  6
Continuous
 62
     7
100
AcDbLine
 10
87.3468116554
 20
116.8668085448
 30
0.0
 11
86.3468116554
 21
116.8668085448
 31
0.0
  0
LINE
  5
29A
330
221
100
AcDbEntity
 67
     1
  8
3_ALL_AXES
  6
Continuous
 62
     7
100
AcDbLine
 10
86.3468116554
 20
116.8668085448
 30
0.0
 11
84.9968116554
 21
116.8668085448
 31
0.0
  0
LINE
  5
29B
330
221
100
AcDbEntity
 67
     1
  8
3_ALL_AXES
  6
Continuous
 62
     7
100
AcDbLine
 10
84.9968116554
 20
116.8668085448
 30
0.0
 11
84.3468116554
 21
116.8668085448
 31
0.0
  0
LINE
  5
29C
330
221
100
AcDbEntity
 67
     1
  8
3_ALL_AXES
  6
Continuous
 62
     7
100
AcDbLine
 10
84.3468116554
 20
116.8668085448
 30
0.0
 11
82.8468116554
 21
116.8668085448
 31
0.0
  0
LINE
  5
29D
330
221
100
AcDbEntity
 67
     1
  8
3_ALL_AXES
  6
Continuous
 62
     7
100
AcDbLine
 10
82.8468116554
 20
116.8668085448
 30
0.0
 11
81.3468116554
 21
116.8668085448
 31
0.0
  0
LINE
  5
29E
330
221
100
AcDbEntity
 67
     1
  8
3_ALL_AXES
  6
Continuous
 62
     7
100
AcDbLine
 10
81.3468116554
 20
116.8668085448
 30
0.0
 11
80.6968116554
 21
116.8668085448
 31
0.0
  0
LINE
  5
29F
330
221
100
AcDbEntity
 67
     1
  8
3_ALL_AXES
  6
Continuous
 62
     7
100
AcDbLine
 10
80.6968116554
 20
116.8668085448
 30
0.0
 11
79.3468116554
 21
116.8668085448
 31
0.0
  0
LINE
  5
2A0
330
221
100
AcDbEntity
 67
     1
  8
3_ALL_AXES
  6
Continuous
 62
     7
100
AcDbLine
 10
79.3468116554
 20
116.8668085448
 30
0.0
 11
78.3468116554
 21
116.8668085448
 31
0.0
  0
LINE
  5
2A1
330
221
100
AcDbEntity
 67
     1
  8
3_ALL_AXES
  6
Continuous
 62
     7
100
AcDbLine
 10
37.8468116554
 20
117.6668085448
 30
0.0
 11
37.8468116554
 21
116.8668085448
 31
0.0
  0
LINE
  5
2A2
330
221
100
AcDbEntity
 67
     1
  8
3_ALL_AXES
  6
Continuous
 62
     7
100
AcDbLine
 10
46.8468116554
 20
117.6668085448
 30
0.0
 11
46.8468116554
 21
116.8668085448
 31
0.0
  0
LINE
  5
2A3
330
221
100
AcDbEntity
 67
     1
  8
3_ALL_AXES
  6
Continuous
 62
     7
100
AcDbLine
 10
46.8468116554
 20
116.8668085448
 30
0.0
 11
45.8468116554
 21
116.8668085448
 31
0.0
  0
LINE
  5
2A4
330
221
100
AcDbEntity
 67
     1
  8
3_ALL_AXES
  6
Continuous
 62
     7
100
AcDbLine
 10
45.8468116554
 20
116.8668085448
 30
0.0
 11
44.4968116554
 21
116.8668085448
 31
0.0
  0
LINE
  5
2A5
330
221
100
AcDbEntity
 67
     1
  8
3_ALL_AXES
  6
Continuous
 62
     7
100
AcDbLine
 10
44.4968116554
 20
116.8668085448
 30
0.0
 11
43.8468116554
 21
116.8668085448
 31
0.0
  0
LINE
  5
2A6
330
221
100
AcDbEntity
 67
     1
  8
3_ALL_AXES
  6
Continuous
 62
     7
100
AcDbLine
 10
43.8468116554
 20
116.8668085448
 30
0.0
 11
42.3468116554
 21
116.8668085448
 31
0.0
  0
LINE
  5
2A7
330
221
100
AcDbEntity
 67
     1
  8
3_ALL_AXES
  6
Continuous
 62
     7
100
AcDbLine
 10
42.3468116554
 20
116.8668085448
 30
0.0
 11
40.8468116554
 21
116.8668085448
 31
0.0
  0
LINE
  5
2A8
330
221
100
AcDbEntity
 67
     1
  8
3_ALL_AXES
  6
Continuous
 62
     7
100
AcDbLine
 10
40.8468116554
 20
116.8668085448
 30
0.0
 11
40.1968116554
 21
116.8668085448
 31
0.0
  0
LINE
  5
2A9
330
221
100
AcDbEntity
 67
     1
  8
3_ALL_AXES
  6
Continuous
 62
     7
100
AcDbLine
 10
40.1968116554
 20
116.8668085448
 30
0.0
 11
38.8468116554
 21
116.8668085448
 31
0.0
  0
LINE
  5
2AA
330
221
100
AcDbEntity
 67
     1
  8
3_ALL_AXES
  6
Continuous
 62
     7
100
AcDbLine
 10
38.8468116554
 20
116.8668085448
 30
0.0
 11
37.8468116554
 21
116.8668085448
 31
0.0
  0
LINE
  5
2AB
330
221
100
AcDbEntity
 67
     1
  8
3_ALL_AXES
  6
Continuous
 62
     7
100
AcDbLine
 10
87.3468116554
 20
119.6668085448
 30
0.0
 11
87.3468116554
 21
120.4668085448
 31
0.0
  0
LINE
  5
2AC
330
221
100
AcDbEntity
 67
     1
  8
3_ALL_AXES
  6
Continuous
 62
     7
100
AcDbLine
 10
78.3468116554
 20
119.6668085448
 30
0.0
 11
78.3468116554
 21
120.4668085448
 31
0.0
  0
LINE
  5
2AD
330
221
100
AcDbEntity
 67
     1
  8
3_ALL_AXES
  6
Continuous
 62
     7
100
AcDbLine
 10
78.3468116554
 20
120.4668085448
 30
0.0
 11
79.0468116554
 21
120.4668085448
 31
0.0
  0
LINE
  5
2AE
330
221
100
AcDbEntity
 67
     1
  8
3_ALL_AXES
  6
Continuous
 62
     7
100
AcDbLine
 10
79.0468116554
 20
120.4668085448
 30
0.0
 11
79.0611707577
 21
120.4668085448
 31
0.0
  0
LINE
  5
2AF
330
221
100
AcDbEntity
 67
     1
  8
3_ALL_AXES
  6
Continuous
 62
     7
100
AcDbLine
 10
79.0611707577
 20
120.4668085448
 30
0.0
 11
80.6968116554
 21
120.4668085448
 31
0.0
  0
LINE
  5
2B0
330
221
100
AcDbEntity
 67
     1
  8
3_ALL_AXES
  6
Continuous
 62
     7
100
AcDbLine
 10
80.6968116554
 20
120.4668085448
 30
0.0
 11
80.8468116554
 21
120.4668085448
 31
0.0
  0
LINE
  5
2B1
330
221
100
AcDbEntity
 67
     1
  8
3_ALL_AXES
  6
Continuous
 62
     7
100
AcDbLine
 10
80.8468116554
 20
120.4668085448
 30
0.0
 11
84.8468116554
 21
120.4668085448
 31
0.0
  0
LINE
  5
2B2
330
221
100
AcDbEntity
 67
     1
  8
3_ALL_AXES
  6
Continuous
 62
     7
100
AcDbLine
 10
84.8468116554
 20
120.4668085448
 30
0.0
 11
84.9968116554
 21
120.4668085448
 31
0.0
  0
LINE
  5
2B3
330
221
100
AcDbEntity
 67
     1
  8
3_ALL_AXES
  6
Continuous
 62
     7
100
AcDbLine
 10
84.9968116554
 20
120.4668085448
 30
0.0
 11
86.6324525531
 21
120.4668085448
 31
0.0
  0
LINE
  5
2B4
330
221
100
AcDbEntity
 67
     1
  8
3_ALL_AXES
  6
Continuous
 62
     7
100
AcDbLine
 10
86.6324525531
 20
120.4668085448
 30
0.0
 11
86.6468116554
 21
120.4668085448
 31
0.0
  0
LINE
  5
2B5
330
221
100
AcDbEntity
 67
     1
  8
3_ALL_AXES
  6
Continuous
 62
     7
100
AcDbLine
 10
86.6468116554
 20
120.4668085448
 30
0.0
 11
87.3468116554
 21
120.4668085448
 31
0.0
  0
LINE
  5
2B6
330
221
100
AcDbEntity
 67
     1
  8
3_ALL_AXES
  6
Continuous
 62
     7
100
AcDbLine
 10
46.8468116554
 20
119.6668085448
 30
0.0
 11
46.8468116554
 21
120.4668085448
 31
0.0
  0
LINE
  5
2B7
330
221
100
AcDbEntity
 67
     1
  8
3_ALL_AXES
  6
Continuous
 62
     7
100
AcDbLine
 10
37.8468116554
 20
119.6668085448
 30
0.0
 11
37.8468116554
 21
120.4668085448
 31
0.0
  0
LINE
  5
2B8
330
221
100
AcDbEntity
 67
     1
  8
3_ALL_AXES
  6
Continuous
 62
     7
100
AcDbLine
 10
37.8468116554
 20
120.4668085448
 30
0.0
 11
38.5468116554
 21
120.4668085448
 31
0.0
  0
LINE
  5
2B9
330
221
100
AcDbEntity
 67
     1
  8
3_ALL_AXES
  6
Continuous
 62
     7
100
AcDbLine
 10
38.5468116554
 20
120.4668085448
 30
0.0
 11
38.5611707577
 21
120.4668085448
 31
0.0
  0
LINE
  5
2BA
330
221
100
AcDbEntity
 67
     1
  8
3_ALL_AXES
  6
Continuous
 62
     7
100
AcDbLine
 10
38.5611707577
 20
120.4668085448
 30
0.0
 11
40.1968116554
 21
120.4668085448
 31
0.0
  0
LINE
  5
2BB
330
221
100
AcDbEntity
 67
     1
  8
3_ALL_AXES
  6
Continuous
 62
     7
100
AcDbLine
 10
40.1968116554
 20
120.4668085448
 30
0.0
 11
40.3468116554
 21
120.4668085448
 31
0.0
  0
LINE
  5
2BC
330
221
100
AcDbEntity
 67
     1
  8
3_ALL_AXES
  6
Continuous
 62
     7
100
AcDbLine
 10
40.3468116554
 20
120.4668085448
 30
0.0
 11
44.3468116554
 21
120.4668085448
 31
0.0
  0
LINE
  5
2BD
330
221
100
AcDbEntity
 67
     1
  8
3_ALL_AXES
  6
Continuous
 62
     7
100
AcDbLine
 10
44.3468116554
 20
120.4668085448
 30
0.0
 11
44.4968116554
 21
120.4668085448
 31
0.0
  0
LINE
  5
2BE
330
221
100
AcDbEntity
 67
     1
  8
3_ALL_AXES
  6
Continuous
 62
     7
100
AcDbLine
 10
44.4968116554
 20
120.4668085448
 30
0.0
 11
46.1324525531
 21
120.4668085448
 31
0.0
  0
LINE
  5
2BF
330
221
100
AcDbEntity
 67
     1
  8
3_ALL_AXES
  6
Continuous
 62
     7
100
AcDbLine
 10
46.1324525531
 20
120.4668085448
 30
0.0
 11
46.1468116554
 21
120.4668085448
 31
0.0
  0
LINE
  5
2C0
330
221
100
AcDbEntity
 67
     1
  8
3_ALL_AXES
  6
Continuous
 62
     7
100
AcDbLine
 10
46.1468116554
 20
120.4668085448
 30
0.0
 11
46.8468116554
 21
120.4668085448
 31
0.0
  0
LINE
  5
2C1
330
221
100
AcDbEntity
 67
     1
  8
7_ALL_FEATURES
  6
Continuous
 62
     7
100
AcDbLine
 10
79.5968116554
 20
113.6668085448
 30
0.0
 11
80.0255303633
 21
112.0668085448
 31
0.0
  0
LINE
  5
2C2
330
221
100
AcDbEntity
 67
     1
  8
7_ALL_FEATURES
  6
Continuous
 62
     7
100
AcDbLine
 10
85.66805989
 20
112.0668085448
 30
0.0
 11
82.8468116554
 21
112.0668085448
 31
0.0
  0
LINE
  5
2C3
330
221
100
AcDbEntity
 67
     1
  8
7_ALL_FEATURES
  6
Continuous
 62
     7
100
AcDbLine
 10
86.0968116554
 20
113.6668085448
 30
0.0
 11
85.6680929475
 21
112.0668085448
 31
0.0
  0
LINE
  5
2C4
330
221
100
AcDbEntity
 67
     1
  8
7_ALL_FEATURES
  6
Continuous
 62
     7
100
AcDbLine
 10
82.8468116554
 20
112.0668085448
 30
0.0
 11
80.0255634208
 21
112.0668085448
 31
0.0
  0
LINE
  5
2C5
330
221
100
AcDbEntity
 67
     1
  8
3_ALL_AXES
  6
Continuous
 62
     7
100
AcDbLine
 10
86.3468116554
 20
113.6668085448
 30
0.0
 11
82.8468116554
 21
113.6668085448
 31
0.0
  0
LINE
  5
2C6
330
221
100
AcDbEntity
 67
     1
  8
3_ALL_AXES
  6
Continuous
 62
     7
100
AcDbLine
 10
86.3468116554
 20
116.8668085448
 30
0.0
 11
86.3468116554
 21
113.6668085448
 31
0.0
  0
LINE
  5
2C7
330
221
100
AcDbEntity
 67
     1
  8
3_ALL_AXES
  6
Continuous
 62
     7
100
AcDbLine
 10
82.8468116554
 20
113.6668085448
 30
0.0
 11
79.3468116554
 21
113.6668085448
 31
0.0
  0
LINE
  5
2C8
330
221
100
AcDbEntity
 67
     1
  8
3_ALL_AXES
  6
Continuous
 62
     7
100
AcDbLine
 10
79.3468116554
 20
116.8668085448
 30
0.0
 11
79.3468116554
 21
113.6668085448
 31
0.0
  0
LINE
  5
2C9
330
221
100
AcDbEntity
 67
     1
  8
3_ALL_AXES
  6
Continuous
 62
     7
100
AcDbLine
 10
82.8468116554
 20
116.8668085448
 30
0.0
 11
82.8468116554
 21
113.6668085448
 31
0.0
  0
LINE
  5
2CA
330
221
100
AcDbEntity
 67
     1
  8
7_ALL_FEATURES
  6
Continuous
 62
     7
100
AcDbLine
 10
39.0968116554
 20
113.6668085448
 30
0.0
 11
39.5255303633
 21
112.0668085448
 31
0.0
  0
LINE
  5
2CB
330
221
100
AcDbEntity
 67
     1
  8
7_ALL_FEATURES
  6
Continuous
 62
     7
100
AcDbLine
 10
45.16805989
 20
112.0668085448
 30
0.0
 11
42.3468116554
 21
112.0668085448
 31
0.0
  0
LINE
  5
2CC
330
221
100
AcDbEntity
 67
     1
  8
7_ALL_FEATURES
  6
Continuous
 62
     7
100
AcDbLine
 10
45.5968116554
 20
113.6668085448
 30
0.0
 11
45.1680929475
 21
112.0668085448
 31
0.0
  0
LINE
  5
2CD
330
221
100
AcDbEntity
 67
     1
  8
7_ALL_FEATURES
  6
Continuous
 62
     7
100
AcDbLine
 10
42.3468116554
 20
112.0668085448
 30
0.0
 11
39.5255634208
 21
112.0668085448
 31
0.0
  0
LINE
  5
2CE
330
221
100
AcDbEntity
 67
     1
  8
3_ALL_AXES
  6
Continuous
 62
     7
100
AcDbLine
 10
45.8468116554
 20
113.6668085448
 30
0.0
 11
42.3468116554
 21
113.6668085448
 31
0.0
  0
LINE
  5
2CF
330
221
100
AcDbEntity
 67
     1
  8
3_ALL_AXES
  6
Continuous
 62
     7
100
AcDbLine
 10
45.8468116554
 20
116.8668085448
 30
0.0
 11
45.8468116554
 21
113.6668085448
 31
0.0
  0
LINE
  5
2D0
330
221
100
AcDbEntity
 67
     1
  8
3_ALL_AXES
  6
Continuous
 62
     7
100
AcDbLine
 10
42.3468116554
 20
113.6668085448
 30
0.0
 11
38.8468116554
 21
113.6668085448
 31
0.0
  0
LINE
  5
2D1
330
221
100
AcDbEntity
 67
     1
  8
3_ALL_AXES
  6
Continuous
 62
     7
100
AcDbLine
 10
38.8468116554
 20
116.8668085448
 30
0.0
 11
38.8468116554
 21
113.6668085448
 31
0.0
  0
LINE
  5
2D2
330
221
100
AcDbEntity
 67
     1
  8
3_ALL_AXES
  6
Continuous
 62
     7
100
AcDbLine
 10
42.3468116554
 20
116.8668085448
 30
0.0
 11
42.3468116554
 21
113.6668085448
 31
0.0
  0
LINE
  5
2D3
330
221
100
AcDbEntity
 67
     1
  8
7_ALL_FEATURES
  6
Continuous
 62
     7
100
AcDbLine
 10
84.3468116554
 20
110.4668085448
 30
0.0
 11
84.8468116554
 21
110.9668085448
 31
0.0
  0
LINE
  5
2D4
330
221
100
AcDbEntity
 67
     1
  8
7_ALL_FEATURES
  6
Continuous
 62
     7
100
AcDbLine
 10
81.3468116554
 20
110.4668085448
 30
0.0
 11
80.8468116554
 21
110.9668085448
 31
0.0
  0
LINE
  5
2D5
330
221
100
AcDbEntity
 67
     1
  8
7_ALL_FEATURES
  6
Continuous
 62
     7
100
AcDbLine
 10
84.3468116554
 20
110.4668085448
 30
0.0
 11
81.3468116554
 21
110.4668085448
 31
0.0
  0
LINE
  5
2D6
330
221
100
AcDbEntity
 67
     1
  8
7_ALL_FEATURES
  6
Continuous
 62
     7
100
AcDbLine
 10
80.8468116554
 20
112.0668085448
 30
0.0
 11
80.8468116554
 21
110.9668085448
 31
0.0
  0
ARC
  5
2D7
330
221
100
AcDbEntity
 67
     1
  8
3_ALL_AXES
  6
Continuous
 62
     7
100
AcDbCircle
 10
82.9892544528
 20
118.9941684531
 30
0.0
 40
4.1
100
AcDbArc
 50
26.8633031301
 51
63.6069742257
  0
ARC
  5
2D8
330
221
100
AcDbEntity
 67
     1
  8
3_ALL_AXES
  6
Continuous
 62
     7
100
AcDbCircle
 10
82.7043688581
 20
118.9941684531
 30
0.0
 40
4.1
100
AcDbArc
 50
116.3930257743
 51
153.1366968699
  0
LINE
  5
2D9
330
221
100
AcDbEntity
 67
     1
  8
3_ALL_AXES
  6
Continuous
 62
     7
100
AcDbLine
 10
84.8118116554
 20
122.6668085448
 30
0.0
 11
84.2901873284
 21
122.6668085448
 31
0.0
  0
LINE
  5
2DA
330
221
100
AcDbEntity
 67
     1
  8
3_ALL_AXES
  6
Continuous
 62
     7
100
AcDbLine
 10
84.2901873284
 20
122.6668085448
 30
0.0
 11
83.5684994919
 21
122.6668085448
 31
0.0
  0
LINE
  5
2DB
330
221
100
AcDbEntity
 67
     1
  8
3_ALL_AXES
  6
Continuous
 62
     7
100
AcDbLine
 10
83.5684994919
 20
122.6668085448
 30
0.0
 11
82.1251238189
 21
122.6668085448
 31
0.0
  0
LINE
  5
2DC
330
221
100
AcDbEntity
 67
     1
  8
3_ALL_AXES
  6
Continuous
 62
     7
100
AcDbLine
 10
82.1251238189
 20
122.6668085448
 30
0.0
 11
81.4034359824
 21
122.6668085448
 31
0.0
  0
LINE
  5
2DD
330
221
100
AcDbEntity
 67
     1
  8
3_ALL_AXES
  6
Continuous
 62
     7
100
AcDbLine
 10
81.4034359824
 20
122.6668085448
 30
0.0
 11
80.8818116554
 21
122.6668085448
 31
0.0
  0
LINE
  5
2DE
330
221
100
AcDbEntity
 67
     1
  8
3_ALL_AXES
  6
Continuous
 62
     7
100
AcDbLine
 10
86.6468116554
 20
120.8468085448
 30
0.0
 11
86.6468116554
 21
120.4668085448
 31
0.0
  0
LINE
  5
2DF
330
221
100
AcDbEntity
 67
     1
  8
3_ALL_AXES
  6
Continuous
 62
     7
100
AcDbLine
 10
79.0468116554
 20
120.8468085448
 30
0.0
 11
79.0468116554
 21
120.4668085448
 31
0.0
  0
LINE
  5
2E0
330
221
100
AcDbEntity
 67
     1
  8
7_ALL_FEATURES
  6
Continuous
 62
     7
100
AcDbLine
 10
84.8468116554
 20
112.0668085448
 30
0.0
 11
84.8468116554
 21
110.9668085448
 31
0.0
  0
LINE
  5
2E1
330
221
100
AcDbEntity
 67
     1
  8
7_ALL_FEATURES
  6
Continuous
 62
     7
100
AcDbLine
 10
84.8468116554
 20
110.9668085448
 30
0.0
 11
80.8468116554
 21
110.9668085448
 31
0.0
  0
LINE
  5
2E2
330
221
100
AcDbEntity
 67
     1
  8
3_ALL_AXES
  6
Continuous
 62
     7
100
AcDbLine
 10
86.6468116554
 20
120.8468085448
 30
0.0
 11
79.0468116554
 21
120.8468085448
 31
0.0
  0
LINE
  5
2E3
330
221
100
AcDbEntity
 67
     1
  8
7_ALL_FEATURES
  6
Continuous
 62
     7
100
AcDbLine
 10
43.8468116554
 20
110.4668085448
 30
0.0
 11
44.3468116554
 21
110.9668085448
 31
0.0
  0
LINE
  5
2E4
330
221
100
AcDbEntity
 67
     1
  8
7_ALL_FEATURES
  6
Continuous
 62
     7
100
AcDbLine
 10
40.8468116554
 20
110.4668085448
 30
0.0
 11
40.3468116554
 21
110.9668085448
 31
0.0
  0
LINE
  5
2E5
330
221
100
AcDbEntity
 67
     1
  8
7_ALL_FEATURES
  6
Continuous
 62
     7
100
AcDbLine
 10
43.8468116554
 20
110.4668085448
 30
0.0
 11
40.8468116554
 21
110.4668085448
 31
0.0
  0
LINE
  5
2E6
330
221
100
AcDbEntity
 67
     1
  8
7_ALL_FEATURES
  6
Continuous
 62
     7
100
AcDbLine
 10
40.3468116554
 20
112.0668085448
 30
0.0
 11
40.3468116554
 21
110.9668085448
 31
0.0
  0
ARC
  5
2E7
330
221
100
AcDbEntity
 67
     1
  8
3_ALL_AXES
  6
Continuous
 62
     7
100
AcDbCircle
 10
42.4892544528
 20
118.9941684531
 30
0.0
 40
4.1
100
AcDbArc
 50
26.8633031301
 51
63.6069742257
  0
ARC
  5
2E8
330
221
100
AcDbEntity
 67
     1
  8
3_ALL_AXES
  6
Continuous
 62
     7
100
AcDbCircle
 10
42.2043688581
 20
118.9941684531
 30
0.0
 40
4.1
100
AcDbArc
 50
116.3930257743
 51
153.1366968699
  0
LINE
  5
2E9
330
221
100
AcDbEntity
 67
     1
  8
3_ALL_AXES
  6
Continuous
 62
     7
100
AcDbLine
 10
44.3118116554
 20
122.6668085448
 30
0.0
 11
43.7901873284
 21
122.6668085448
 31
0.0
  0
LINE
  5
2EA
330
221
100
AcDbEntity
 67
     1
  8
3_ALL_AXES
  6
Continuous
 62
     7
100
AcDbLine
 10
43.7901873284
 20
122.6668085448
 30
0.0
 11
43.0684994919
 21
122.6668085448
 31
0.0
  0
LINE
  5
2EB
330
221
100
AcDbEntity
 67
     1
  8
3_ALL_AXES
  6
Continuous
 62
     7
100
AcDbLine
 10
43.0684994919
 20
122.6668085448
 30
0.0
 11
41.6251238189
 21
122.6668085448
 31
0.0
  0
LINE
  5
2EC
330
221
100
AcDbEntity
 67
     1
  8
3_ALL_AXES
  6
Continuous
 62
     7
100
AcDbLine
 10
41.6251238189
 20
122.6668085448
 30
0.0
 11
40.9034359824
 21
122.6668085448
 31
0.0
  0
LINE
  5
2ED
330
221
100
AcDbEntity
 67
     1
  8
3_ALL_AXES
  6
Continuous
 62
     7
100
AcDbLine
 10
40.9034359824
 20
122.6668085448
 30
0.0
 11
40.3818116554
 21
122.6668085448
 31
0.0
  0
LINE
  5
2EE
330
221
100
AcDbEntity
 67
     1
  8
3_ALL_AXES
  6
Continuous
 62
     7
100
AcDbLine
 10
46.1468116554
 20
120.8468085448
 30
0.0
 11
46.1468116554
 21
120.4668085448
 31
0.0
  0
LINE
  5
2EF
330
221
100
AcDbEntity
 67
     1
  8
3_ALL_AXES
  6
Continuous
 62
     7
100
AcDbLine
 10
38.5468116554
 20
120.8468085448
 30
0.0
 11
38.5468116554
 21
120.4668085448
 31
0.0
  0
LINE
  5
2F0
330
221
100
AcDbEntity
 67
     1
  8
7_ALL_FEATURES
  6
Continuous
 62
     7
100
AcDbLine
 10
44.3468116554
 20
112.0668085448
 30
0.0
 11
44.3468116554
 21
110.9668085448
 31
0.0
  0
LINE
  5
2F1
330
221
100
AcDbEntity
 67
     1
  8
7_ALL_FEATURES
  6
Continuous
 62
     7
100
AcDbLine
 10
44.3468116554
 20
110.9668085448
 30
0.0
 11
40.3468116554
 21
110.9668085448
 31
0.0
  0
LINE
  5
2F2
330
221
100
AcDbEntity
 67
     1
  8
3_ALL_AXES
  6
Continuous
 62
     7
100
AcDbLine
 10
46.1468116554
 20
120.8468085448
 30
0.0
 11
38.5468116554
 21
120.8468085448
 31
0.0
  0
LINE
  5
2F3
330
221
100
AcDbEntity
 67
     1
  8
7_ALL_FEATURES
  6
Continuous
 62
     7
100
AcDbLine
 10
68.0968116554
 20
103.1668085448
 30
0.0
 11
57.0968116554
 21
103.1668085448
 31
0.0
  0
LINE
  5
2F4
330
221
100
AcDbEntity
 67
     1
  8
7_ALL_FEATURES
  6
Continuous
 62
     7
100
AcDbLine
 10
37.0968116554
 20
118.6668085448
 30
0.0
 11
37.146955831
 21
118.6668085448
 31
0.0
  0
LINE
  5
2F5
330
221
100
AcDbEntity
 67
     1
  8
7_ALL_FEATURES
  6
Continuous
 62
     7
100
AcDbLine
 10
37.146955831
 20
118.6668085448
 30
0.0
 11
37.2948739196
 21
118.6668085448
 31
0.0
  0
LINE
  5
2F6
330
221
100
AcDbEntity
 67
     1
  8
7_ALL_FEATURES
  6
Continuous
 62
     7
100
AcDbLine
 10
37.2948739196
 20
118.6668085448
 30
0.0
 11
37.5331486905
 21
118.6668085448
 31
0.0
  0
LINE
  5
2F7
330
221
100
AcDbEntity
 67
     1
  8
7_ALL_FEATURES
  6
Continuous
 62
     7
100
AcDbLine
 10
37.5331486905
 20
118.6668085448
 30
0.0
 11
37.8498320517
 21
118.6668085448
 31
0.0
  0
LINE
  5
2F8
330
221
100
AcDbEntity
 67
     1
  8
7_ALL_FEATURES
  6
Continuous
 62
     7
100
AcDbLine
 10
37.8498320517
 20
118.6668085448
 30
0.0
 11
38.2290441772
 21
118.6668085448
 31
0.0
  0
LINE
  5
2F9
330
221
100
AcDbEntity
 67
     1
  8
7_ALL_FEATURES
  6
Continuous
 62
     7
100
AcDbLine
 10
38.2290441772
 20
118.6668085448
 30
0.0
 11
38.6517697875
 21
118.6668085448
 31
0.0
  0
LINE
  5
2FA
330
221
100
AcDbEntity
 67
     1
  8
7_ALL_FEATURES
  6
Continuous
 62
     7
100
AcDbLine
 10
38.6517697875
 20
118.6668085448
 30
0.0
 11
39.0968116554
 21
118.6668085448
 31
0.0
  0
LINE
  5
2FB
330
221
100
AcDbEntity
 67
     1
  8
7_ALL_FEATURES
  6
Continuous
 62
     7
100
AcDbLine
 10
86.0968116554
 20
118.6668085448
 30
0.0
 11
77.5968116554
 21
118.6668085448
 31
0.0
  0
LINE
  5
2FC
330
221
100
AcDbEntity
 67
     1
  8
7_ALL_FEATURES
  6
Continuous
 62
     7
100
AcDbLine
 10
86.0968116554
 20
118.6668085448
 30
0.0
 11
86.5418535233
 21
118.6668085448
 31
0.0
  0
LINE
  5
2FD
330
221
100
AcDbEntity
 67
     1
  8
7_ALL_FEATURES
  6
Continuous
 62
     7
100
AcDbLine
 10
86.5418535233
 20
118.6668085448
 30
0.0
 11
86.9645791336
 21
118.6668085448
 31
0.0
  0
LINE
  5
2FE
330
221
100
AcDbEntity
 67
     1
  8
7_ALL_FEATURES
  6
Continuous
 62
     7
100
AcDbLine
 10
86.9645791336
 20
118.6668085448
 30
0.0
 11
87.3437912591
 21
118.6668085448
 31
0.0
  0
LINE
  5
2FF
330
221
100
AcDbEntity
 67
     1
  8
7_ALL_FEATURES
  6
Continuous
 62
     7
100
AcDbLine
 10
87.3437912591
 20
118.6668085448
 30
0.0
 11
87.6604746203
 21
118.6668085448
 31
0.0
  0
LINE
  5
300
330
221
100
AcDbEntity
 67
     1
  8
7_ALL_FEATURES
  6
Continuous
 62
     7
100
AcDbLine
 10
87.6604746203
 20
118.6668085448
 30
0.0
 11
87.8987493912
 21
118.6668085448
 31
0.0
  0
LINE
  5
301
330
221
100
AcDbEntity
 67
     1
  8
7_ALL_FEATURES
  6
Continuous
 62
     7
100
AcDbLine
 10
87.8987493912
 20
118.6668085448
 30
0.0
 11
88.0466674798
 21
118.6668085448
 31
0.0
  0
LINE
  5
302
330
221
100
AcDbEntity
 67
     1
  8
7_ALL_FEATURES
  6
Continuous
 62
     7
100
AcDbLine
 10
88.0466674798
 20
118.6668085448
 30
0.0
 11
88.0968116554
 21
118.6668085448
 31
0.0
  0
LINE
  5
303
330
221
100
AcDbEntity
 67
     1
  8
7_ALL_FEATURES
  6
Continuous
 62
     7
100
AcDbLine
 10
77.5968116554
 20
118.6668085448
 30
0.0
 11
77.2477660113
 21
118.6668085448
 31
0.0
  0
ARC
  5
304
330
221
100
AcDbEntity
 67
     1
  8
7_ALL_FEATURES
  6
Continuous
 62
     7
100
AcDbCircle
 10
77.2477660113
 20
116.1668085448
 30
0.0
 40
2.5
100
AcDbArc
 50
90.0
 51
93.4705780325
  0
ARC
  5
305
330
221
100
AcDbEntity
 67
     1
  8
7_ALL_FEATURES
  6
Continuous
 62
     7
100
AcDbCircle
 10
77.2477660113
 20
116.1668085448
 30
0.0
 40
2.5
100
AcDbArc
 50
93.4705780325
 51
131.0
  0
LINE
  5
306
330
221
100
AcDbEntity
 67
     1
  8
7_ALL_FEATURES
  6
Continuous
 62
     7
100
AcDbLine
 10
75.6076184389
 20
118.0535824954
 30
0.0
 11
69.9566640829
 21
113.1412828177
 31
0.0
  0
LINE
  5
307
330
221
100
AcDbEntity
 67
     1
  8
7_ALL_FEATURES
  6
Continuous
 62
     7
100
AcDbLine
 10
55.2369592279
 20
113.1412828177
 30
0.0
 11
49.5860048719
 21
118.0535824954
 31
0.0
  0
ARC
  5
308
330
221
100
AcDbEntity
 67
     1
  8
7_ALL_FEATURES
  6
Continuous
 62
     7
100
AcDbCircle
 10
53.5968116554
 20
111.2545088672
 30
0.0
 40
2.5
100
AcDbArc
 50
0.0
 51
48.99999999999999
  0
ARC
  5
309
330
221
100
AcDbEntity
 67
     1
  8
7_ALL_FEATURES
  6
Continuous
 62
     7
100
AcDbCircle
 10
47.9458572995
 20
116.1668085448
 30
0.0
 40
2.5
100
AcDbArc
 50
48.99999999999999
 51
86.5294219675
  0
ARC
  5
30A
330
221
100
AcDbEntity
 67
     1
  8
7_ALL_FEATURES
  6
Continuous
 62
     7
100
AcDbCircle
 10
47.9458572995
 20
116.1668085448
 30
0.0
 40
2.5
100
AcDbArc
 50
86.5294219675
 51
90.0
  0
LINE
  5
30B
330
221
100
AcDbEntity
 67
     1
  8
7_ALL_FEATURES
  6
Continuous
 62
     7
100
AcDbLine
 10
56.0968116554
 20
104.1668085448
 30
0.0
 11
56.0968116554
 21
111.2545088672
 31
0.0
  0
LINE
  5
30C
330
221
100
AcDbEntity
 67
     1
  8
7_ALL_FEATURES
  6
Continuous
 62
     7
100
AcDbLine
 10
47.9458572995
 20
118.6668085448
 30
0.0
 11
47.5968116554
 21
118.6668085448
 31
0.0
  0
LINE
  5
30D
330
221
100
AcDbEntity
 67
     1
  8
7_ALL_FEATURES
  6
Continuous
 62
     7
100
AcDbLine
 10
37.0968116554
 20
117.6668085448
 30
0.0
 11
37.0968116554
 21
118.6668085448
 31
0.0
  0
ARC
  5
30E
330
221
100
AcDbEntity
 67
     1
  8
7_ALL_FEATURES
  6
Continuous
 62
     7
100
AcDbCircle
 10
57.0968116554
 20
104.1668085448
 30
0.0
 40
1.0
100
AcDbArc
 50
180.0
 51
270.0
  0
ARC
  5
30F
330
221
100
AcDbEntity
 67
     1
  8
7_ALL_FEATURES
  6
Continuous
 62
     7
100
AcDbCircle
 10
68.0968116554
 20
104.1668085448
 30
0.0
 40
1.0
100
AcDbArc
 50
270.0
 51
360.0
  0
LINE
  5
310
330
221
100
AcDbEntity
 67
     1
  8
7_ALL_FEATURES
  6
Continuous
 62
     7
100
AcDbLine
 10
47.5968116554
 20
118.6668085448
 30
0.0
 11
39.0968116554
 21
118.6668085448
 31
0.0
  0
LINE
  5
311
330
221
100
AcDbEntity
 67
     1
  8
7_ALL_FEATURES
  6
Continuous
 62
     7
100
AcDbLine
 10
69.0968116554
 20
111.2545088672
 30
0.0
 11
69.0968116554
 21
104.1668085448
 31
0.0
  0
LINE
  5
312
330
221
100
AcDbEntity
 67
     1
  8
7_ALL_FEATURES
  6
Continuous
 62
     7
100
AcDbLine
 10
88.0968116554
 20
118.6668085448
 30
0.0
 11
88.0968116554
 21
117.6668085448
 31
0.0
  0
ARC
  5
313
330
221
100
AcDbEntity
 67
     1
  8
7_ALL_FEATURES
  6
Continuous
 62
     7
100
AcDbCircle
 10
71.5968116554
 20
111.2545088672
 30
0.0
 40
2.5
100
AcDbArc
 50
131.0
 51
180.0
  0
LINE
  5
314
330
221
100
AcDbEntity
 67
     1
  8
7_ALL_FEATURES
  6
Continuous
 62
     9
100
AcDbLine
 10
47.5968116554
 20
118.6668085448
 30
0.0
 11
47.5968116554
 21
117.6668085448
 31
0.0
  0
LINE
  5
315
330
221
100
AcDbEntity
 67
     1
  8
7_ALL_FEATURES
  6
Continuous
 62
     9
100
AcDbLine
 10
56.0968116554
 20
111.2545088672
 30
0.0
 11
55.0968116554
 21
111.2545088672
 31
0.0
  0
LINE
  5
316
330
221
100
AcDbEntity
 67
     1
  8
7_ALL_FEATURES
  6
Continuous
 62
     9
100
AcDbLine
 10
69.0968116554
 20
104.1668085448
 30
0.0
 11
70.0968116554
 21
104.1668085448
 31
0.0
  0
LINE
  5
317
330
221
100
AcDbEntity
 67
     1
  8
7_ALL_FEATURES
  6
Continuous
 62
     9
100
AcDbLine
 10
47.9458572995
 20
118.6668085448
 30
0.0
 11
47.9458572995
 21
117.6668085448
 31
0.0
  0
LINE
  5
318
330
221
100
AcDbEntity
 67
     1
  8
7_ALL_FEATURES
  6
Continuous
 62
     9
100
AcDbLine
 10
55.2369592279
 20
113.1412828177
 30
0.0
 11
54.5809001989
 21
112.3865732375
 31
0.0
  0
LINE
  5
319
330
221
100
AcDbEntity
 67
     1
  8
7_ALL_FEATURES
  6
Continuous
 62
     9
100
AcDbLine
 10
39.0968116554
 20
117.6668085448
 30
0.0
 11
39.0968116554
 21
118.6668085448
 31
0.0
  0
LINE
  5
31A
330
221
100
AcDbEntity
 67
     1
  8
7_ALL_FEATURES
  6
Continuous
 62
     9
100
AcDbLine
 10
49.5860048719
 20
118.0535824954
 30
0.0
 11
48.929945843
 21
117.2988729151
 31
0.0
  0
LINE
  5
31B
330
221
100
AcDbEntity
 67
     1
  8
7_ALL_FEATURES
  6
Continuous
 62
     9
100
AcDbLine
 10
75.6076184389
 20
118.0535824954
 30
0.0
 11
76.2636774679
 21
117.2988729151
 31
0.0
  0
LINE
  5
31C
330
221
100
AcDbEntity
 67
     1
  8
7_ALL_FEATURES
  6
Continuous
 62
     9
100
AcDbLine
 10
69.0968116554
 20
111.2545088672
 30
0.0
 11
70.0968116554
 21
111.2545088672
 31
0.0
  0
LINE
  5
31D
330
221
100
AcDbEntity
 67
     1
  8
7_ALL_FEATURES
  6
Continuous
 62
     9
100
AcDbLine
 10
57.0968116554
 20
103.1668085448
 30
0.0
 11
57.0968116554
 21
102.1668085448
 31
0.0
  0
LINE
  5
31E
330
221
100
AcDbEntity
 67
     1
  8
7_ALL_FEATURES
  6
Continuous
 62
     9
100
AcDbLine
 10
77.2477660113
 20
118.6668085448
 30
0.0
 11
77.2477660113
 21
117.6668085448
 31
0.0
  0
LINE
  5
31F
330
221
100
AcDbEntity
 67
     1
  8
7_ALL_FEATURES
  6
Continuous
 62
     9
100
AcDbLine
 10
77.5968116554
 20
117.6668085448
 30
0.0
 11
77.5968116554
 21
118.6668085448
 31
0.0
  0
LINE
  5
320
330
221
100
AcDbEntity
 67
     1
  8
7_ALL_FEATURES
  6
Continuous
 62
     9
100
AcDbLine
 10
86.0968116554
 20
118.6668085448
 30
0.0
 11
86.0968116554
 21
117.6668085448
 31
0.0
  0
LINE
  5
321
330
221
100
AcDbEntity
 67
     1
  8
7_ALL_FEATURES
  6
Continuous
 62
     9
100
AcDbLine
 10
68.0968116554
 20
103.1668085448
 30
0.0
 11
68.0968116554
 21
102.1668085448
 31
0.0
  0
LINE
  5
322
330
221
100
AcDbEntity
 67
     1
  8
7_ALL_FEATURES
  6
Continuous
 62
     9
100
AcDbLine
 10
69.9566640829
 20
113.1412828177
 30
0.0
 11
70.6127231119
 21
112.3865732375
 31
0.0
  0
LINE
  5
323
330
221
100
AcDbEntity
 67
     1
  8
7_ALL_FEATURES
  6
Continuous
 62
     9
100
AcDbLine
 10
56.0968116554
 20
104.1668085448
 30
0.0
 11
55.0968116554
 21
104.1668085448
 31
0.0
  0
ARC
  5
324
330
221
100
AcDbEntity
 67
     1
  8
7_ALL_FEATURES
  6
Continuous
 62
     7
100
AcDbCircle
 10
77.0968116554
 20
120.6668085448
 30
0.0
 40
1.0
100
AcDbArc
 50
180.0
 51
270.0
  0
LINE
  5
325
330
221
100
AcDbEntity
 67
     1
  8
7_ALL_FEATURES
  6
Continuous
 62
     7
100
AcDbLine
 10
86.0968116554
 20
119.6668085448
 30
0.0
 11
77.0968116554
 21
119.6668085448
 31
0.0
  0
LINE
  5
326
330
221
100
AcDbEntity
 67
     1
  8
7_ALL_FEATURES
  6
Continuous
 62
     7
100
AcDbLine
 10
86.0968116554
 20
119.6668085448
 30
0.0
 11
88.0968116554
 21
119.6668085448
 31
0.0
  0
LINE
  5
327
330
221
100
AcDbEntity
 67
     1
  8
7_ALL_FEATURES
  6
Continuous
 62
     7
100
AcDbLine
 10
37.0968116554
 20
119.6668085448
 30
0.0
 11
39.0968116554
 21
119.6668085448
 31
0.0
  0
LINE
  5
328
330
221
100
AcDbEntity
 67
     1
  8
7_ALL_FEATURES
  6
Continuous
 62
     7
100
AcDbLine
 10
48.0968116554
 20
119.6668085448
 30
0.0
 11
39.0968116554
 21
119.6668085448
 31
0.0
  0
LINE
  5
329
330
221
100
AcDbEntity
 67
     1
  8
7_ALL_FEATURES
  6
Continuous
 62
     7
100
AcDbLine
 10
88.0968116554
 20
119.6668085448
 30
0.0
 11
88.0968116554
 21
118.6668085448
 31
0.0
  0
ARC
  5
32A
330
221
100
AcDbEntity
 67
     1
  8
7_ALL_FEATURES
  6
Continuous
 62
     7
100
AcDbCircle
 10
48.0968116554
 20
120.6668085448
 30
0.0
 40
1.0
100
AcDbArc
 50
270.0
 51
360.0
  0
LINE
  5
32B
330
221
100
AcDbEntity
 67
     1
  8
7_ALL_FEATURES
  6
Continuous
 62
     7
100
AcDbLine
 10
49.0968116554
 20
120.6668085448
 30
0.0
 11
49.0968116554
 21
127.4302645121
 31
0.0
  0
ARC
  5
32C
330
221
100
AcDbEntity
 67
     1
  8
7_ALL_FEATURES
  6
Continuous
 62
     7
100
AcDbCircle
 10
51.0968116554
 20
127.4302645121
 30
0.0
 40
2.0
100
AcDbArc
 50
135.0
 51
180.0
  0
LINE
  5
32D
330
221
100
AcDbEntity
 67
     1
  8
7_ALL_FEATURES
  6
Continuous
 62
     7
100
AcDbLine
 10
37.0968116554
 20
119.6668085448
 30
0.0
 11
37.0968116554
 21
118.6668085448
 31
0.0
  0
LINE
  5
32E
330
221
100
AcDbEntity
 67
     1
  8
7_ALL_FEATURES
  6
Continuous
 62
     7
100
AcDbLine
 10
76.0968116554
 20
127.4302645121
 30
0.0
 11
76.0968116554
 21
120.6668085448
 31
0.0
  0
LINE
  5
32F
330
221
100
AcDbEntity
 67
     1
  8
7_ALL_FEATURES
  6
Continuous
 62
     7
100
AcDbLine
 10
49.682598093
 20
128.8444780745
 30
0.0
 11
56.4191421257
 21
135.5810221072
 31
0.0
  0
ARC
  5
330
330
221
100
AcDbEntity
 67
     1
  8
7_ALL_FEATURES
  6
Continuous
 62
     7
100
AcDbCircle
 10
74.0968116554
 20
127.4302645121
 30
0.0
 40
2.0
100
AcDbArc
 50
0.0
 51
45.0
  0
ARC
  5
331
330
221
100
AcDbEntity
 67
     1
  8
7_ALL_FEATURES
  6
Continuous
 62
     7
100
AcDbCircle
 10
57.8333556881
 20
134.1668085448
 30
0.0
 40
2.0
100
AcDbArc
 50
90.0
 51
135.0
  0
LINE
  5
332
330
221
100
AcDbEntity
 67
     1
  8
7_ALL_FEATURES
  6
Continuous
 62
     7
100
AcDbLine
 10
68.7744811851
 20
135.5810221072
 30
0.0
 11
75.5110252178
 21
128.8444780745
 31
0.0
  0
LINE
  5
333
330
221
100
AcDbEntity
 67
     1
  8
7_ALL_FEATURES
  6
Continuous
 62
     7
100
AcDbLine
 10
57.8333556881
 20
136.1668085448
 30
0.0
 11
67.3602676227
 21
136.1668085448
 31
0.0
  0
ARC
  5
334
330
221
100
AcDbEntity
 67
     1
  8
7_ALL_FEATURES
  6
Continuous
 62
     7
100
AcDbCircle
 10
67.3602676227
 20
134.1668085448
 30
0.0
 40
2.0
100
AcDbArc
 50
45.0
 51
90.0
  0
LINE
  5
335
330
221
100
AcDbEntity
 67
     1
  8
7_ALL_FEATURES
  6
Continuous
 62
     9
100
AcDbLine
 10
50.3897048742
 20
128.1373712933
 30
0.0
 11
49.682598093
 21
128.8444780745
 31
0.0
  0
LINE
  5
336
330
221
100
AcDbEntity
 67
     1
  8
7_ALL_FEATURES
  6
Continuous
 62
     9
100
AcDbLine
 10
86.0968116554
 20
119.6668085448
 30
0.0
 11
86.0968116554
 21
118.6668085448
 31
0.0
  0
LINE
  5
337
330
221
100
AcDbEntity
 67
     1
  8
7_ALL_FEATURES
  6
Continuous
 62
     9
100
AcDbLine
 10
75.0968116554
 20
127.4302645121
 30
0.0
 11
76.0968116554
 21
127.4302645121
 31
0.0
  0
LINE
  5
338
330
221
100
AcDbEntity
 67
     1
  8
7_ALL_FEATURES
  6
Continuous
 62
     9
100
AcDbLine
 10
48.0968116554
 20
118.6668085448
 30
0.0
 11
48.0968116554
 21
119.6668085448
 31
0.0
  0
LINE
  5
339
330
221
100
AcDbEntity
 67
     1
  8
7_ALL_FEATURES
  6
Continuous
 62
     9
100
AcDbLine
 10
68.0673744039
 20
134.873915326
 30
0.0
 11
68.7744811851
 21
135.5810221072
 31
0.0
  0
LINE
  5
33A
330
221
100
AcDbEntity
 67
     1
  8
7_ALL_FEATURES
  6
Continuous
 62
     9
100
AcDbLine
 10
50.0968116554
 20
127.4302645121
 30
0.0
 11
49.0968116554
 21
127.4302645121
 31
0.0
  0
LINE
  5
33B
330
221
100
AcDbEntity
 67
     1
  8
7_ALL_FEATURES
  6
Continuous
 62
     9
100
AcDbLine
 10
57.1262489069
 20
134.873915326
 30
0.0
 11
56.4191421257
 21
135.5810221072
 31
0.0
  0
LINE
  5
33C
330
221
100
AcDbEntity
 67
     1
  8
7_ALL_FEATURES
  6
Continuous
 62
     9
100
AcDbLine
 10
77.0968116554
 20
118.6668085448
 30
0.0
 11
77.0968116554
 21
119.6668085448
 31
0.0
  0
LINE
  5
33D
330
221
100
AcDbEntity
 67
     1
  8
7_ALL_FEATURES
  6
Continuous
 62
     9
100
AcDbLine
 10
75.0968116554
 20
120.6668085448
 30
0.0
 11
76.0968116554
 21
120.6668085448
 31
0.0
  0
LINE
  5
33E
330
221
100
AcDbEntity
 67
     1
  8
7_ALL_FEATURES
  6
Continuous
 62
     9
100
AcDbLine
 10
50.0968116554
 20
120.6668085448
 30
0.0
 11
49.0968116554
 21
120.6668085448
 31
0.0
  0
LINE
  5
33F
330
221
100
AcDbEntity
 67
     1
  8
7_ALL_FEATURES
  6
Continuous
 62
     9
100
AcDbLine
 10
67.3602676227
 20
135.1668085448
 30
0.0
 11
67.3602676227
 21
136.1668085448
 31
0.0
  0
LINE
  5
340
330
221
100
AcDbEntity
 67
     1
  8
7_ALL_FEATURES
  6
Continuous
 62
     9
100
AcDbLine
 10
74.8039184366
 20
128.1373712933
 30
0.0
 11
75.5110252178
 21
128.8444780745
 31
0.0
  0
LINE
  5
341
330
221
100
AcDbEntity
 67
     1
  8
7_ALL_FEATURES
  6
Continuous
 62
     9
100
AcDbLine
 10
57.8333556881
 20
135.1668085448
 30
0.0
 11
57.8333556881
 21
136.1668085448
 31
0.0
  0
LINE
  5
342
330
221
100
AcDbEntity
 67
     1
  8
7_ALL_FEATURES
  6
Continuous
 62
     9
100
AcDbLine
 10
39.0968116554
 20
119.6668085448
 30
0.0
 11
39.0968116554
 21
118.6668085448
 31
0.0
  0
LINE
  5
343
330
221
100
AcDbEntity
 67
     1
  8
7_ALL_FEATURES
  6
Continuous
 62
     3
100
AcDbLine
 10
68.0968116554
 20
102.1668085448
 30
0.0
 11
57.0968116554
 21
102.1668085448
 31
0.0
  0
LINE
  5
344
330
221
100
AcDbEntity
 67
     1
  8
7_ALL_FEATURES
  6
Continuous
 62
     3
100
AcDbLine
 10
88.0968116554
 20
117.6668085448
 30
0.0
 11
86.0968116554
 21
117.6668085448
 31
0.0
  0
LINE
  5
345
330
221
100
AcDbEntity
 67
     1
  8
7_ALL_FEATURES
  6
Continuous
 62
     3
100
AcDbLine
 10
86.0968116554
 20
117.6668085448
 30
0.0
 11
77.5968116554
 21
117.6668085448
 31
0.0
  0
LINE
  5
346
330
221
100
AcDbEntity
 67
     1
  8
7_ALL_FEATURES
  6
Continuous
 62
     3
100
AcDbLine
 10
39.0968116554
 20
117.6668085448
 30
0.0
 11
37.0968116554
 21
117.6668085448
 31
0.0
  0
LINE
  5
347
330
221
100
AcDbEntity
 67
     1
  8
7_ALL_FEATURES
  6
Continuous
 62
     3
100
AcDbLine
 10
77.5968116554
 20
117.6668085448
 30
0.0
 11
77.2477660113
 21
117.6668085448
 31
0.0
  0
ARC
  5
348
330
221
100
AcDbEntity
 67
     1
  8
7_ALL_FEATURES
  6
Continuous
 62
     3
100
AcDbCircle
 10
77.2477660113
 20
116.1668085448
 30
0.0
 40
1.5
100
AcDbArc
 50
90.0
 51
131.0
  0
LINE
  5
349
330
221
100
AcDbEntity
 67
     1
  8
7_ALL_FEATURES
  6
Continuous
 62
     3
100
AcDbLine
 10
76.2636774679
 20
117.2988729151
 30
0.0
 11
70.6127231119
 21
112.3865732375
 31
0.0
  0
LINE
  5
34A
330
221
100
AcDbEntity
 67
     1
  8
7_ALL_FEATURES
  6
Continuous
 62
     3
100
AcDbLine
 10
54.5809001989
 20
112.3865732375
 30
0.0
 11
48.929945843
 21
117.2988729151
 31
0.0
  0
ARC
  5
34B
330
221
100
AcDbEntity
 67
     1
  8
7_ALL_FEATURES
  6
Continuous
 62
     3
100
AcDbCircle
 10
47.9458572995
 20
116.1668085448
 30
0.0
 40
1.5
100
AcDbArc
 50
48.99999999999999
 51
90.0
  0
ARC
  5
34C
330
221
100
AcDbEntity
 67
     1
  8
7_ALL_FEATURES
  6
Continuous
 62
     3
100
AcDbCircle
 10
53.5968116554
 20
111.2545088672
 30
0.0
 40
1.5
100
AcDbArc
 50
0.0
 51
48.99999999999999
  0
LINE
  5
34D
330
221
100
AcDbEntity
 67
     1
  8
7_ALL_FEATURES
  6
Continuous
 62
     3
100
AcDbLine
 10
47.9458572995
 20
117.6668085448
 30
0.0
 11
47.5968116554
 21
117.6668085448
 31
0.0
  0
LINE
  5
34E
330
221
100
AcDbEntity
 67
     1
  8
7_ALL_FEATURES
  6
Continuous
 62
     3
100
AcDbLine
 10
55.0968116554
 20
104.1668085448
 30
0.0
 11
55.0968116554
 21
111.2545088672
 31
0.0
  0
ARC
  5
34F
330
221
100
AcDbEntity
 67
     1
  8
7_ALL_FEATURES
  6
Continuous
 62
     3
100
AcDbCircle
 10
57.0968116554
 20
104.1668085448
 30
0.0
 40
2.0
100
AcDbArc
 50
180.0
 51
270.0
  0
LINE
  5
350
330
221
100
AcDbEntity
 67
     1
  8
7_ALL_FEATURES
  6
Continuous
 62
     3
100
AcDbLine
 10
47.5968116554
 20
117.6668085448
 30
0.0
 11
39.0968116554
 21
117.6668085448
 31
0.0
  0
ARC
  5
351
330
221
100
AcDbEntity
 67
     1
  8
7_ALL_FEATURES
  6
Continuous
 62
     3
100
AcDbCircle
 10
68.0968116554
 20
104.1668085448
 30
0.0
 40
2.0
100
AcDbArc
 50
270.0
 51
360.0
  0
LINE
  5
352
330
221
100
AcDbEntity
 67
     1
  8
7_ALL_FEATURES
  6
Continuous
 62
     3
100
AcDbLine
 10
70.0968116554
 20
111.2545088672
 30
0.0
 11
70.0968116554
 21
104.1668085448
 31
0.0
  0
ARC
  5
353
330
221
100
AcDbEntity
 67
     1
  8
7_ALL_FEATURES
  6
Continuous
 62
     3
100
AcDbCircle
 10
71.5968116554
 20
111.2545088672
 30
0.0
 40
1.5
100
AcDbArc
 50
131.0
 51
180.0
  0
LINE
  5
354
330
221
100
AcDbEntity
 67
     1
  8
7_ALL_FEATURES
  6
Continuous
 62
     3
100
AcDbLine
 10
39.0968116554
 20
118.6668085448
 30
0.0
 11
37.0968116554
 21
118.6668085448
 31
0.0
  0
LINE
  5
355
330
221
100
AcDbEntity
 67
     1
  8
7_ALL_FEATURES
  6
Continuous
 62
     3
100
AcDbLine
 10
48.0968116554
 20
118.6668085448
 30
0.0
 11
47.9458572995
 21
118.6668085448
 31
0.0
  0
LINE
  5
356
330
221
100
AcDbEntity
 67
     1
  8
7_ALL_FEATURES
  6
Continuous
 62
     3
100
AcDbLine
 10
47.9458572995
 20
118.6668085448
 30
0.0
 11
47.5968116554
 21
118.6668085448
 31
0.0
  0
LINE
  5
357
330
221
100
AcDbEntity
 67
     1
  8
7_ALL_FEATURES
  6
Continuous
 62
     3
100
AcDbLine
 10
47.5968116554
 20
118.6668085448
 30
0.0
 11
39.0968116554
 21
118.6668085448
 31
0.0
  0
LINE
  5
358
330
221
100
AcDbEntity
 67
     1
  8
7_ALL_FEATURES
  6
Continuous
 62
     3
100
AcDbLine
 10
86.0968116554
 20
118.6668085448
 30
0.0
 11
77.5968116554
 21
118.6668085448
 31
0.0
  0
LINE
  5
359
330
221
100
AcDbEntity
 67
     1
  8
7_ALL_FEATURES
  6
Continuous
 62
     3
100
AcDbLine
 10
77.5968116554
 20
118.6668085448
 30
0.0
 11
77.2477660113
 21
118.6668085448
 31
0.0
  0
LINE
  5
35A
330
221
100
AcDbEntity
 67
     1
  8
7_ALL_FEATURES
  6
Continuous
 62
     3
100
AcDbLine
 10
77.2477660113
 20
118.6668085448
 30
0.0
 11
77.0968116554
 21
118.6668085448
 31
0.0
  0
LINE
  5
35B
330
221
100
AcDbEntity
 67
     1
  8
7_ALL_FEATURES
  6
Continuous
 62
     3
100
AcDbLine
 10
88.0968116554
 20
118.6668085448
 30
0.0
 11
86.0968116554
 21
118.6668085448
 31
0.0
  0
ARC
  5
35C
330
221
100
AcDbEntity
 67
     1
  8
7_ALL_FEATURES
  6
Continuous
 62
     3
100
AcDbCircle
 10
48.0968116554
 20
120.6668085448
 30
0.0
 40
2.0
100
AcDbArc
 50
270.0
 51
360.0
  0
ARC
  5
35D
330
221
100
AcDbEntity
 67
     1
  8
7_ALL_FEATURES
  6
Continuous
 62
     3
100
AcDbCircle
 10
77.0968116554
 20
120.6668085448
 30
0.0
 40
2.0
100
AcDbArc
 50
180.0
 51
270.0
  0
LINE
  5
35E
330
221
100
AcDbEntity
 67
     1
  8
7_ALL_FEATURES
  6
Continuous
 62
     3
100
AcDbLine
 10
50.0968116554
 20
120.6668085448
 30
0.0
 11
50.0968116554
 21
127.4302645121
 31
0.0
  0
LINE
  5
35F
330
221
100
AcDbEntity
 67
     1
  8
7_ALL_FEATURES
  6
Continuous
 62
     3
100
AcDbLine
 10
75.0968116554
 20
127.4302645121
 30
0.0
 11
75.0968116554
 21
120.6668085448
 31
0.0
  0
ARC
  5
360
330
221
100
AcDbEntity
 67
     1
  8
7_ALL_FEATURES
  6
Continuous
 62
     3
100
AcDbCircle
 10
51.0968116554
 20
127.4302645121
 30
0.0
 40
1.0
100
AcDbArc
 50
135.0
 51
180.0
  0
ARC
  5
361
330
221
100
AcDbEntity
 67
     1
  8
7_ALL_FEATURES
  6
Continuous
 62
     3
100
AcDbCircle
 10
74.0968116554
 20
127.4302645121
 30
0.0
 40
1.0
100
AcDbArc
 50
0.0
 51
45.0
  0
LINE
  5
362
330
221
100
AcDbEntity
 67
     1
  8
7_ALL_FEATURES
  6
Continuous
 62
     3
100
AcDbLine
 10
50.3897048742
 20
128.1373712933
 30
0.0
 11
57.1262489069
 21
134.873915326
 31
0.0
  0
LINE
  5
363
330
221
100
AcDbEntity
 67
     1
  8
7_ALL_FEATURES
  6
Continuous
 62
     3
100
AcDbLine
 10
68.0673744039
 20
134.873915326
 30
0.0
 11
74.8039184366
 21
128.1373712933
 31
0.0
  0
ARC
  5
364
330
221
100
AcDbEntity
 67
     1
  8
7_ALL_FEATURES
  6
Continuous
 62
     3
100
AcDbCircle
 10
57.8333556881
 20
134.1668085448
 30
0.0
 40
1.0
100
AcDbArc
 50
90.0
 51
135.0
  0
ARC
  5
365
330
221
100
AcDbEntity
 67
     1
  8
7_ALL_FEATURES
  6
Continuous
 62
     3
100
AcDbCircle
 10
67.3602676227
 20
134.1668085448
 30
0.0
 40
1.0
100
AcDbArc
 50
45.0
 51
90.0
  0
LINE
  5
366
330
221
100
AcDbEntity
 67
     1
  8
7_ALL_FEATURES
  6
Continuous
 62
     3
100
AcDbLine
 10
57.8333556881
 20
135.1668085448
 30
0.0
 11
67.3602676227
 21
135.1668085448
 31
0.0
  0
LINE
  5
367
330
221
100
AcDbEntity
 67
     1
  8
3_ALL_AXES
  6
Continuous
 62
     7
100
AcDbLine
 10
121.2858779265
 20
117.6668085448
 30
0.0
 11
121.2858779265
 21
116.8668085448
 31
0.0
  0
LINE
  5
368
330
221
100
AcDbEntity
 67
     1
  8
3_ALL_AXES
  6
Continuous
 62
     7
100
AcDbLine
 10
125.7858779265
 20
116.8668085448
 30
0.0
 11
124.2858779265
 21
116.8668085448
 31
0.0
  0
LINE
  5
369
330
221
100
AcDbEntity
 67
     1
  8
3_ALL_AXES
  6
Continuous
 62
     7
100
AcDbLine
 10
124.2858779265
 20
116.8668085448
 30
0.0
 11
123.7651519844
 21
116.8668085448
 31
0.0
  0
LINE
  5
36A
330
221
100
AcDbEntity
 67
     1
  8
3_ALL_AXES
  6
Continuous
 62
     7
100
AcDbLine
 10
123.7651519844
 20
116.8668085448
 30
0.0
 11
123.6358779265
 21
116.8668085448
 31
0.0
  0
LINE
  5
36B
330
221
100
AcDbEntity
 67
     1
  8
3_ALL_AXES
  6
Continuous
 62
     7
100
AcDbLine
 10
123.6358779265
 20
116.8668085448
 30
0.0
 11
121.7444260422
 21
116.8668085448
 31
0.0
  0
LINE
  5
36C
330
221
100
AcDbEntity
 67
     1
  8
3_ALL_AXES
  6
Continuous
 62
     7
100
AcDbLine
 10
121.7444260422
 20
116.8668085448
 30
0.0
 11
121.2858779265
 21
116.8668085448
 31
0.0
  0
LINE
  5
36D
330
221
100
AcDbEntity
 67
     1
  8
3_ALL_AXES
  6
Continuous
 62
     7
100
AcDbLine
 10
130.2858779265
 20
116.8668085448
 30
0.0
 11
129.8273298108
 21
116.8668085448
 31
0.0
  0
LINE
  5
36E
330
221
100
AcDbEntity
 67
     1
  8
3_ALL_AXES
  6
Continuous
 62
     7
100
AcDbLine
 10
129.8273298108
 20
116.8668085448
 30
0.0
 11
127.9358779265
 21
116.8668085448
 31
0.0
  0
LINE
  5
36F
330
221
100
AcDbEntity
 67
     1
  8
3_ALL_AXES
  6
Continuous
 62
     7
100
AcDbLine
 10
127.9358779265
 20
116.8668085448
 30
0.0
 11
127.8066038687
 21
116.8668085448
 31
0.0
  0
LINE
  5
370
330
221
100
AcDbEntity
 67
     1
  8
3_ALL_AXES
  6
Continuous
 62
     7
100
AcDbLine
 10
127.8066038687
 20
116.8668085448
 30
0.0
 11
127.2858779265
 21
116.8668085448
 31
0.0
  0
LINE
  5
371
330
221
100
AcDbEntity
 67
     1
  8
3_ALL_AXES
  6
Continuous
 62
     7
100
AcDbLine
 10
127.2858779265
 20
116.8668085448
 30
0.0
 11
125.7858779265
 21
116.8668085448
 31
0.0
  0
LINE
  5
372
330
221
100
AcDbEntity
 67
     1
  8
3_ALL_AXES
  6
Continuous
 62
     7
100
AcDbLine
 10
130.2858779265
 20
117.6668085448
 30
0.0
 11
130.2858779265
 21
116.8668085448
 31
0.0
  0
LINE
  5
373
330
221
100
AcDbEntity
 67
     1
  8
3_ALL_AXES
  6
Continuous
 62
     7
100
AcDbLine
 10
245.7858779265
 20
120.4668085448
 30
0.0
 11
247.7858779265
 21
120.4668085448
 31
0.0
  0
LINE
  5
374
330
221
100
AcDbEntity
 67
     1
  8
3_ALL_AXES
  6
Continuous
 62
     7
100
AcDbLine
 10
247.7858779265
 20
120.4668085448
 30
0.0
 11
247.9358779265
 21
120.4668085448
 31
0.0
  0
LINE
  5
375
330
221
100
AcDbEntity
 67
     1
  8
3_ALL_AXES
  6
Continuous
 62
     7
100
AcDbLine
 10
247.9358779265
 20
120.4668085448
 30
0.0
 11
249.5715188243
 21
120.4668085448
 31
0.0
  0
LINE
  5
376
330
221
100
AcDbEntity
 67
     1
  8
3_ALL_AXES
  6
Continuous
 62
     7
100
AcDbLine
 10
249.5715188243
 20
120.4668085448
 30
0.0
 11
249.5858334012
 21
120.4668085448
 31
0.0
  0
LINE
  5
377
330
221
100
AcDbEntity
 67
     1
  8
3_ALL_AXES
  6
Continuous
 62
     7
100
AcDbLine
 10
249.5858334012
 20
120.4668085448
 30
0.0
 11
250.2858779265
 21
120.4668085448
 31
0.0
  0
LINE
  5
378
330
221
100
AcDbEntity
 67
     1
  8
3_ALL_AXES
  6
Continuous
 62
     7
100
AcDbLine
 10
241.2858779265
 20
120.4668085448
 30
0.0
 11
241.9859224519
 21
120.4668085448
 31
0.0
  0
LINE
  5
379
330
221
100
AcDbEntity
 67
     1
  8
3_ALL_AXES
  6
Continuous
 62
     7
100
AcDbLine
 10
241.9859224519
 20
120.4668085448
 30
0.0
 11
242.0002370288
 21
120.4668085448
 31
0.0
  0
LINE
  5
37A
330
221
100
AcDbEntity
 67
     1
  8
3_ALL_AXES
  6
Continuous
 62
     7
100
AcDbLine
 10
242.0002370288
 20
120.4668085448
 30
0.0
 11
243.6358779265
 21
120.4668085448
 31
0.0
  0
LINE
  5
37B
330
221
100
AcDbEntity
 67
     1
  8
3_ALL_AXES
  6
Continuous
 62
     7
100
AcDbLine
 10
243.6358779265
 20
120.4668085448
 30
0.0
 11
243.7858779265
 21
120.4668085448
 31
0.0
  0
LINE
  5
37C
330
221
100
AcDbEntity
 67
     1
  8
3_ALL_AXES
  6
Continuous
 62
     7
100
AcDbLine
 10
243.7858779265
 20
120.4668085448
 30
0.0
 11
245.7858779265
 21
120.4668085448
 31
0.0
  0
LINE
  5
37D
330
221
100
AcDbEntity
 67
     1
  8
3_ALL_AXES
  6
Continuous
 62
     7
100
AcDbLine
 10
250.2858779265
 20
119.6668085448
 30
0.0
 11
250.2858779265
 21
120.4668085448
 31
0.0
  0
LINE
  5
37E
330
221
100
AcDbEntity
 67
     1
  8
3_ALL_AXES
  6
Continuous
 62
     7
100
AcDbLine
 10
241.2858779265
 20
119.6668085448
 30
0.0
 11
241.2858779265
 21
120.4668085448
 31
0.0
  0
LINE
  5
37F
330
221
100
AcDbEntity
 67
     1
  8
3_ALL_AXES
  6
Continuous
 62
     7
100
AcDbLine
 10
125.7858779265
 20
120.4668085448
 30
0.0
 11
127.7858779265
 21
120.4668085448
 31
0.0
  0
LINE
  5
380
330
221
100
AcDbEntity
 67
     1
  8
3_ALL_AXES
  6
Continuous
 62
     7
100
AcDbLine
 10
127.7858779265
 20
120.4668085448
 30
0.0
 11
127.9358779265
 21
120.4668085448
 31
0.0
  0
LINE
  5
381
330
221
100
AcDbEntity
 67
     1
  8
3_ALL_AXES
  6
Continuous
 62
     7
100
AcDbLine
 10
127.9358779265
 20
120.4668085448
 30
0.0
 11
129.5715188243
 21
120.4668085448
 31
0.0
  0
LINE
  5
382
330
221
100
AcDbEntity
 67
     1
  8
3_ALL_AXES
  6
Continuous
 62
     7
100
AcDbLine
 10
129.5715188243
 20
120.4668085448
 30
0.0
 11
129.5858334012
 21
120.4668085448
 31
0.0
  0
LINE
  5
383
330
221
100
AcDbEntity
 67
     1
  8
3_ALL_AXES
  6
Continuous
 62
     7
100
AcDbLine
 10
129.5858334012
 20
120.4668085448
 30
0.0
 11
130.2858779265
 21
120.4668085448
 31
0.0
  0
LINE
  5
384
330
221
100
AcDbEntity
 67
     1
  8
3_ALL_AXES
  6
Continuous
 62
     7
100
AcDbLine
 10
121.2858779265
 20
120.4668085448
 30
0.0
 11
121.9859224519
 21
120.4668085448
 31
0.0
  0
LINE
  5
385
330
221
100
AcDbEntity
 67
     1
  8
3_ALL_AXES
  6
Continuous
 62
     7
100
AcDbLine
 10
121.9859224519
 20
120.4668085448
 30
0.0
 11
122.0002370288
 21
120.4668085448
 31
0.0
  0
LINE
  5
386
330
221
100
AcDbEntity
 67
     1
  8
3_ALL_AXES
  6
Continuous
 62
     7
100
AcDbLine
 10
122.0002370288
 20
120.4668085448
 30
0.0
 11
123.6358779265
 21
120.4668085448
 31
0.0
  0
LINE
  5
387
330
221
100
AcDbEntity
 67
     1
  8
3_ALL_AXES
  6
Continuous
 62
     7
100
AcDbLine
 10
123.6358779265
 20
120.4668085448
 30
0.0
 11
123.7858779265
 21
120.4668085448
 31
0.0
  0
LINE
  5
388
330
221
100
AcDbEntity
 67
     1
  8
3_ALL_AXES
  6
Continuous
 62
     7
100
AcDbLine
 10
123.7858779265
 20
120.4668085448
 30
0.0
 11
125.7858779265
 21
120.4668085448
 31
0.0
  0
LINE
  5
389
330
221
100
AcDbEntity
 67
     1
  8
3_ALL_AXES
  6
Continuous
 62
     7
100
AcDbLine
 10
130.2858779265
 20
119.6668085448
 30
0.0
 11
130.2858779265
 21
120.4668085448
 31
0.0
  0
LINE
  5
38A
330
221
100
AcDbEntity
 67
     1
  8
3_ALL_AXES
  6
Continuous
 62
     7
100
AcDbLine
 10
121.2858779265
 20
119.6668085448
 30
0.0
 11
121.2858779265
 21
120.4668085448
 31
0.0
  0
LINE
  5
38B
330
221
100
AcDbEntity
 67
     1
  8
3_ALL_AXES
  6
Continuous
 62
     7
100
AcDbLine
 10
241.2858779265
 20
117.6668085448
 30
0.0
 11
241.2858779265
 21
116.8668085448
 31
0.0
  0
LINE
  5
38C
330
221
100
AcDbEntity
 67
     1
  8
3_ALL_AXES
  6
Continuous
 62
     7
100
AcDbLine
 10
245.7858779265
 20
116.8668085448
 30
0.0
 11
244.2858779265
 21
116.8668085448
 31
0.0
  0
LINE
  5
38D
330
221
100
AcDbEntity
 67
     1
  8
3_ALL_AXES
  6
Continuous
 62
     7
100
AcDbLine
 10
244.2858779265
 20
116.8668085448
 30
0.0
 11
243.7651519844
 21
116.8668085448
 31
0.0
  0
LINE
  5
38E
330
221
100
AcDbEntity
 67
     1
  8
3_ALL_AXES
  6
Continuous
 62
     7
100
AcDbLine
 10
243.7651519844
 20
116.8668085448
 30
0.0
 11
243.6358779265
 21
116.8668085448
 31
0.0
  0
LINE
  5
38F
330
221
100
AcDbEntity
 67
     1
  8
3_ALL_AXES
  6
Continuous
 62
     7
100
AcDbLine
 10
243.6358779265
 20
116.8668085448
 30
0.0
 11
241.7444260422
 21
116.8668085448
 31
0.0
  0
LINE
  5
390
330
221
100
AcDbEntity
 67
     1
  8
3_ALL_AXES
  6
Continuous
 62
     7
100
AcDbLine
 10
241.7444260422
 20
116.8668085448
 30
0.0
 11
241.2858779265
 21
116.8668085448
 31
0.0
  0
LINE
  5
391
330
221
100
AcDbEntity
 67
     1
  8
3_ALL_AXES
  6
Continuous
 62
     7
100
AcDbLine
 10
250.2858779265
 20
116.8668085448
 30
0.0
 11
249.8273298108
 21
116.8668085448
 31
0.0
  0
LINE
  5
392
330
221
100
AcDbEntity
 67
     1
  8
3_ALL_AXES
  6
Continuous
 62
     7
100
AcDbLine
 10
249.8273298108
 20
116.8668085448
 30
0.0
 11
247.9358779265
 21
116.8668085448
 31
0.0
  0
LINE
  5
393
330
221
100
AcDbEntity
 67
     1
  8
3_ALL_AXES
  6
Continuous
 62
     7
100
AcDbLine
 10
247.9358779265
 20
116.8668085448
 30
0.0
 11
247.8066038687
 21
116.8668085448
 31
0.0
  0
LINE
  5
394
330
221
100
AcDbEntity
 67
     1
  8
3_ALL_AXES
  6
Continuous
 62
     7
100
AcDbLine
 10
247.8066038687
 20
116.8668085448
 30
0.0
 11
247.2858779265
 21
116.8668085448
 31
0.0
  0
LINE
  5
395
330
221
100
AcDbEntity
 67
     1
  8
3_ALL_AXES
  6
Continuous
 62
     7
100
AcDbLine
 10
247.2858779265
 20
116.8668085448
 30
0.0
 11
245.7858779265
 21
116.8668085448
 31
0.0
  0
LINE
  5
396
330
221
100
AcDbEntity
 67
     1
  8
3_ALL_AXES
  6
Continuous
 62
     7
100
AcDbLine
 10
250.2858779265
 20
117.6668085448
 30
0.0
 11
250.2858779265
 21
116.8668085448
 31
0.0
  0
LINE
  5
397
330
221
100
AcDbEntity
 67
     1
  8
7_ALL_FEATURES
  6
Continuous
 62
     7
100
AcDbLine
 10
122.5358779265
 20
113.6668085448
 30
0.0
 11
122.9645966344
 21
112.0668085448
 31
0.0
  0
LINE
  5
398
330
221
100
AcDbEntity
 67
     1
  8
7_ALL_FEATURES
  6
Continuous
 62
     7
100
AcDbLine
 10
129.0358779265
 20
113.6668085448
 30
0.0
 11
128.6071592186
 21
112.0668085448
 31
0.0
  0
LINE
  5
399
330
221
100
AcDbEntity
 67
     1
  8
3_ALL_AXES
  6
Continuous
 62
     7
100
AcDbLine
 10
121.7444260422
 20
116.8668085448
 30
0.0
 11
121.7444260422
 21
113.6668085448
 31
0.0
  0
LINE
  5
39A
330
221
100
AcDbEntity
 67
     1
  8
3_ALL_AXES
  6
Continuous
 62
     7
100
AcDbLine
 10
123.7651519844
 20
113.6668085448
 30
0.0
 11
122.5358779265
 21
113.6668085448
 31
0.0
  0
LINE
  5
39B
330
221
100
AcDbEntity
 67
     1
  8
3_ALL_AXES
  6
Continuous
 62
     7
100
AcDbLine
 10
122.5358779265
 20
113.6668085448
 30
0.0
 11
121.7444260422
 21
113.6668085448
 31
0.0
  0
LINE
  5
39C
330
221
100
AcDbEntity
 67
     1
  8
7_ALL_FEATURES
  6
Continuous
 62
     7
100
AcDbLine
 10
128.6071592186
 20
112.0668085448
 30
0.0
 11
122.9645966344
 21
112.0668085448
 31
0.0
  0
LINE
  5
39D
330
221
100
AcDbEntity
 67
     1
  8
3_ALL_AXES
  6
Continuous
 62
     7
100
AcDbLine
 10
127.8066038687
 20
113.6668085448
 30
0.0
 11
123.7651519844
 21
113.6668085448
 31
0.0
  0
LINE
  5
39E
330
221
100
AcDbEntity
 67
     1
  8
3_ALL_AXES
  6
Continuous
 62
     7
100
AcDbLine
 10
129.8273298108
 20
116.8668085448
 30
0.0
 11
129.8273298108
 21
113.6668085448
 31
0.0
  0
LINE
  5
39F
330
221
100
AcDbEntity
 67
     1
  8
3_ALL_AXES
  6
Continuous
 62
     7
100
AcDbLine
 10
129.8273298108
 20
113.6668085448
 30
0.0
 11
129.0358779265
 21
113.6668085448
 31
0.0
  0
LINE
  5
3A0
330
221
100
AcDbEntity
 67
     1
  8
3_ALL_AXES
  6
Continuous
 62
     7
100
AcDbLine
 10
129.0358779265
 20
113.6668085448
 30
0.0
 11
127.8066038687
 21
113.6668085448
 31
0.0
  0
LINE
  5
3A1
330
221
100
AcDbEntity
 67
     1
  8
3_ALL_AXES
  6
Continuous
 62
     7
100
AcDbLine
 10
123.7651519844
 20
116.8668085448
 30
0.0
 11
123.7651519844
 21
113.6668085448
 31
0.0
  0
LINE
  5
3A2
330
221
100
AcDbEntity
 67
     1
  8
3_ALL_AXES
  6
Continuous
 62
     7
100
AcDbLine
 10
127.8066038687
 20
116.8668085448
 30
0.0
 11
127.8066038687
 21
113.6668085448
 31
0.0
  0
LINE
  5
3A3
330
221
100
AcDbEntity
 67
     1
  8
7_ALL_FEATURES
  6
Continuous
 62
     7
100
AcDbLine
 10
242.5358779265
 20
113.6668085448
 30
0.0
 11
242.9645966344
 21
112.0668085448
 31
0.0
  0
LINE
  5
3A4
330
221
100
AcDbEntity
 67
     1
  8
7_ALL_FEATURES
  6
Continuous
 62
     7
100
AcDbLine
 10
249.0358779265
 20
113.6668085448
 30
0.0
 11
248.6071592186
 21
112.0668085448
 31
0.0
  0
LINE
  5
3A5
330
221
100
AcDbEntity
 67
     1
  8
3_ALL_AXES
  6
Continuous
 62
     7
100
AcDbLine
 10
241.7444260422
 20
116.8668085448
 30
0.0
 11
241.7444260422
 21
113.6668085448
 31
0.0
  0
LINE
  5
3A6
330
221
100
AcDbEntity
 67
     1
  8
3_ALL_AXES
  6
Continuous
 62
     7
100
AcDbLine
 10
243.7651519844
 20
113.6668085448
 30
0.0
 11
242.5358779265
 21
113.6668085448
 31
0.0
  0
LINE
  5
3A7
330
221
100
AcDbEntity
 67
     1
  8
3_ALL_AXES
  6
Continuous
 62
     7
100
AcDbLine
 10
242.5358779265
 20
113.6668085448
 30
0.0
 11
241.7444260422
 21
113.6668085448
 31
0.0
  0
LINE
  5
3A8
330
221
100
AcDbEntity
 67
     1
  8
7_ALL_FEATURES
  6
Continuous
 62
     7
100
AcDbLine
 10
248.6071592186
 20
112.0668085448
 30
0.0
 11
242.9645966344
 21
112.0668085448
 31
0.0
  0
LINE
  5
3A9
330
221
100
AcDbEntity
 67
     1
  8
3_ALL_AXES
  6
Continuous
 62
     7
100
AcDbLine
 10
247.8066038687
 20
113.6668085448
 30
0.0
 11
243.7651519844
 21
113.6668085448
 31
0.0
  0
LINE
  5
3AA
330
221
100
AcDbEntity
 67
     1
  8
3_ALL_AXES
  6
Continuous
 62
     7
100
AcDbLine
 10
249.8273298108
 20
116.8668085448
 30
0.0
 11
249.8273298108
 21
113.6668085448
 31
0.0
  0
LINE
  5
3AB
330
221
100
AcDbEntity
 67
     1
  8
3_ALL_AXES
  6
Continuous
 62
     7
100
AcDbLine
 10
249.8273298108
 20
113.6668085448
 30
0.0
 11
249.0358779265
 21
113.6668085448
 31
0.0
  0
LINE
  5
3AC
330
221
100
AcDbEntity
 67
     1
  8
3_ALL_AXES
  6
Continuous
 62
     7
100
AcDbLine
 10
249.0358779265
 20
113.6668085448
 30
0.0
 11
247.8066038687
 21
113.6668085448
 31
0.0
  0
LINE
  5
3AD
330
221
100
AcDbEntity
 67
     1
  8
3_ALL_AXES
  6
Continuous
 62
     7
100
AcDbLine
 10
243.7651519844
 20
116.8668085448
 30
0.0
 11
243.7651519844
 21
113.6668085448
 31
0.0
  0
LINE
  5
3AE
330
221
100
AcDbEntity
 67
     1
  8
3_ALL_AXES
  6
Continuous
 62
     7
100
AcDbLine
 10
247.8066038687
 20
116.8668085448
 30
0.0
 11
247.8066038687
 21
113.6668085448
 31
0.0
  0
LINE
  5
3AF
330
221
100
AcDbEntity
 67
     1
  8
7_ALL_FEATURES
  6
Continuous
 62
     7
100
AcDbLine
 10
127.2858105281
 20
110.4668085448
 30
0.0
 11
125.7858779265
 21
110.4668085448
 31
0.0
  0
LINE
  5
3B0
330
221
100
AcDbEntity
 67
     1
  8
7_ALL_FEATURES
  6
Continuous
 62
     7
100
AcDbLine
 10
127.2858779265
 20
110.4668085448
 30
0.0
 11
127.7858779265
 21
110.9668085448
 31
0.0
  0
LINE
  5
3B1
330
221
100
AcDbEntity
 67
     1
  8
7_ALL_FEATURES
  6
Continuous
 62
     7
100
AcDbLine
 10
124.2859453249
 20
110.4668085448
 30
0.0
 11
125.7858779265
 21
110.4668085448
 31
0.0
  0
LINE
  5
3B2
330
221
100
AcDbEntity
 67
     1
  8
7_ALL_FEATURES
  6
Continuous
 62
     7
100
AcDbLine
 10
124.2858779265
 20
110.4668085448
 30
0.0
 11
123.7858779265
 21
110.9668085448
 31
0.0
  0
LINE
  5
3B3
330
221
100
AcDbEntity
 67
     1
  8
3_ALL_AXES
  6
Continuous
 62
     7
100
AcDbLine
 10
127.7858779265
 20
110.9668085448
 30
0.0
 11
127.7858779265
 21
112.0668085448
 31
0.0
  0
LINE
  5
3B4
330
221
100
AcDbEntity
 67
     1
  8
3_ALL_AXES
  6
Continuous
 62
     7
100
AcDbLine
 10
129.5858779265
 20
120.4668085448
 30
0.0
 11
129.5858779265
 21
120.8468085448
 31
0.0
  0
LINE
  5
3B5
330
221
100
AcDbEntity
 67
     1
  8
3_ALL_AXES
  6
Continuous
 62
     7
100
AcDbLine
 10
127.7508779265
 20
122.6668085448
 30
0.0
 11
125.7858779265
 21
122.6668085448
 31
0.0
  0
ARC
  5
3B6
330
221
100
AcDbEntity
 67
     1
  8
3_ALL_AXES
  6
Continuous
 62
     7
100
AcDbCircle
 10
125.9283207239
 20
118.9941684531
 30
0.0
 40
4.1
100
AcDbArc
 50
26.8633031301
 51
63.6069742257
  0
LINE
  5
3B7
330
221
100
AcDbEntity
 67
     1
  8
3_ALL_AXES
  6
Continuous
 62
     7
100
AcDbLine
 10
123.7858779265
 20
110.9668085448
 30
0.0
 11
123.7858779265
 21
112.0668085448
 31
0.0
  0
LINE
  5
3B8
330
221
100
AcDbEntity
 67
     1
  8
3_ALL_AXES
  6
Continuous
 62
     7
100
AcDbLine
 10
121.9858779265
 20
120.4668085448
 30
0.0
 11
121.9858779265
 21
120.8468085448
 31
0.0
  0
LINE
  5
3B9
330
221
100
AcDbEntity
 67
     1
  8
3_ALL_AXES
  6
Continuous
 62
     7
100
AcDbLine
 10
123.8208779265
 20
122.6668085448
 30
0.0
 11
125.7858779265
 21
122.6668085448
 31
0.0
  0
ARC
  5
3BA
330
221
100
AcDbEntity
 67
     1
  8
3_ALL_AXES
  6
Continuous
 62
     7
100
AcDbCircle
 10
125.6434351292
 20
118.9941684531
 30
0.0
 40
4.1
100
AcDbArc
 50
116.3930257743
 51
153.1366968699
  0
LINE
  5
3BB
330
221
100
AcDbEntity
 67
     1
  8
7_ALL_FEATURES
  6
Continuous
 62
     7
100
AcDbLine
 10
127.7858779265
 20
110.9668085448
 30
0.0
 11
125.7858779265
 21
110.9668085448
 31
0.0
  0
LINE
  5
3BC
330
221
100
AcDbEntity
 67
     1
  8
7_ALL_FEATURES
  6
Continuous
 62
     7
100
AcDbLine
 10
123.7858779265
 20
110.9668085448
 30
0.0
 11
125.7858779265
 21
110.9668085448
 31
0.0
  0
LINE
  5
3BD
330
221
100
AcDbEntity
 67
     1
  8
3_ALL_AXES
  6
Continuous
 62
     7
100
AcDbLine
 10
129.5858779265
 20
120.8468085448
 30
0.0
 11
125.7858779265
 21
120.8468085448
 31
0.0
  0
LINE
  5
3BE
330
221
100
AcDbEntity
 67
     1
  8
3_ALL_AXES
  6
Continuous
 62
     7
100
AcDbLine
 10
121.9858779265
 20
120.8468085448
 30
0.0
 11
125.7858779265
 21
120.8468085448
 31
0.0
  0
LINE
  5
3BF
330
221
100
AcDbEntity
 67
     1
  8
7_ALL_FEATURES
  6
Continuous
 62
     7
100
AcDbLine
 10
247.2858105281
 20
110.4668085448
 30
0.0
 11
245.7858779265
 21
110.4668085448
 31
0.0
  0
LINE
  5
3C0
330
221
100
AcDbEntity
 67
     1
  8
7_ALL_FEATURES
  6
Continuous
 62
     7
100
AcDbLine
 10
247.2858779265
 20
110.4668085448
 30
0.0
 11
247.7858779265
 21
110.9668085448
 31
0.0
  0
LINE
  5
3C1
330
221
100
AcDbEntity
 67
     1
  8
7_ALL_FEATURES
  6
Continuous
 62
     7
100
AcDbLine
 10
244.2859453249
 20
110.4668085448
 30
0.0
 11
245.7858779265
 21
110.4668085448
 31
0.0
  0
LINE
  5
3C2
330
221
100
AcDbEntity
 67
     1
  8
7_ALL_FEATURES
  6
Continuous
 62
     7
100
AcDbLine
 10
244.2858779265
 20
110.4668085448
 30
0.0
 11
243.7858779265
 21
110.9668085448
 31
0.0
  0
LINE
  5
3C3
330
221
100
AcDbEntity
 67
     1
  8
3_ALL_AXES
  6
Continuous
 62
     7
100
AcDbLine
 10
247.7858779265
 20
110.9668085448
 30
0.0
 11
247.7858779265
 21
112.0668085448
 31
0.0
  0
LINE
  5
3C4
330
221
100
AcDbEntity
 67
     1
  8
3_ALL_AXES
  6
Continuous
 62
     7
100
AcDbLine
 10
249.5858779265
 20
120.4668085448
 30
0.0
 11
249.5858779265
 21
120.8468085448
 31
0.0
  0
LINE
  5
3C5
330
221
100
AcDbEntity
 67
     1
  8
3_ALL_AXES
  6
Continuous
 62
     7
100
AcDbLine
 10
247.7508779265
 20
122.6668085448
 30
0.0
 11
245.7858779265
 21
122.6668085448
 31
0.0
  0
ARC
  5
3C6
330
221
100
AcDbEntity
 67
     1
  8
3_ALL_AXES
  6
Continuous
 62
     7
100
AcDbCircle
 10
245.9283207239
 20
118.9941684531
 30
0.0
 40
4.1
100
AcDbArc
 50
26.8633031301
 51
63.6069742257
  0
LINE
  5
3C7
330
221
100
AcDbEntity
 67
     1
  8
3_ALL_AXES
  6
Continuous
 62
     7
100
AcDbLine
 10
243.7858779265
 20
110.9668085448
 30
0.0
 11
243.7858779265
 21
112.0668085448
 31
0.0
  0
LINE
  5
3C8
330
221
100
AcDbEntity
 67
     1
  8
3_ALL_AXES
  6
Continuous
 62
     7
100
AcDbLine
 10
241.9858779265
 20
120.4668085448
 30
0.0
 11
241.9858779265
 21
120.8468085448
 31
0.0
  0
LINE
  5
3C9
330
221
100
AcDbEntity
 67
     1
  8
3_ALL_AXES
  6
Continuous
 62
     7
100
AcDbLine
 10
243.8208779265
 20
122.6668085448
 30
0.0
 11
245.7858779265
 21
122.6668085448
 31
0.0
  0
ARC
  5
3CA
330
221
100
AcDbEntity
 67
     1
  8
3_ALL_AXES
  6
Continuous
 62
     7
100
AcDbCircle
 10
245.6434351292
 20
118.9941684531
 30
0.0
 40
4.1
100
AcDbArc
 50
116.3930257743
 51
153.1366968699
  0
LINE
  5
3CB
330
221
100
AcDbEntity
 67
     1
  8
7_ALL_FEATURES
  6
Continuous
 62
     7
100
AcDbLine
 10
247.7858779265
 20
110.9668085448
 30
0.0
 11
245.7858779265
 21
110.9668085448
 31
0.0
  0
LINE
  5
3CC
330
221
100
AcDbEntity
 67
     1
  8
7_ALL_FEATURES
  6
Continuous
 62
     7
100
AcDbLine
 10
243.7858779265
 20
110.9668085448
 30
0.0
 11
245.7858779265
 21
110.9668085448
 31
0.0
  0
LINE
  5
3CD
330
221
100
AcDbEntity
 67
     1
  8
3_ALL_AXES
  6
Continuous
 62
     7
100
AcDbLine
 10
249.5858779265
 20
120.8468085448
 30
0.0
 11
245.7858779265
 21
120.8468085448
 31
0.0
  0
LINE
  5
3CE
330
221
100
AcDbEntity
 67
     1
  8
3_ALL_AXES
  6
Continuous
 62
     7
100
AcDbLine
 10
241.9858779265
 20
120.8468085448
 30
0.0
 11
245.7858779265
 21
120.8468085448
 31
0.0
  0
LINE
  5
3CF
330
221
100
AcDbEntity
 67
     1
  8
7_ALL_FEATURES
  6
Continuous
 62
     7
100
AcDbLine
 10
131.2858779265
 20
118.6668085448
 30
0.0
 11
131.7309197944
 21
118.6668085448
 31
0.0
  0
LINE
  5
3D0
330
221
100
AcDbEntity
 67
     1
  8
7_ALL_FEATURES
  6
Continuous
 62
     7
100
AcDbLine
 10
131.7309197944
 20
118.6668085448
 30
0.0
 11
132.1536454048
 21
118.6668085448
 31
0.0
  0
LINE
  5
3D1
330
221
100
AcDbEntity
 67
     1
  8
7_ALL_FEATURES
  6
Continuous
 62
     7
100
AcDbLine
 10
132.1536454048
 20
118.6668085448
 30
0.0
 11
132.5328575302
 21
118.6668085448
 31
0.0
  0
LINE
  5
3D2
330
221
100
AcDbEntity
 67
     1
  8
7_ALL_FEATURES
  6
Continuous
 62
     7
100
AcDbLine
 10
132.5328575302
 20
118.6668085448
 30
0.0
 11
132.8495408915
 21
118.6668085448
 31
0.0
  0
LINE
  5
3D3
330
221
100
AcDbEntity
 67
     1
  8
7_ALL_FEATURES
  6
Continuous
 62
     7
100
AcDbLine
 10
132.8495408915
 20
118.6668085448
 30
0.0
 11
133.0878156623
 21
118.6668085448
 31
0.0
  0
LINE
  5
3D4
330
221
100
AcDbEntity
 67
     1
  8
7_ALL_FEATURES
  6
Continuous
 62
     7
100
AcDbLine
 10
133.0878156623
 20
118.6668085448
 30
0.0
 11
133.2357337509
 21
118.6668085448
 31
0.0
  0
LINE
  5
3D5
330
221
100
AcDbEntity
 67
     1
  8
7_ALL_FEATURES
  6
Continuous
 62
     7
100
AcDbLine
 10
133.2357337509
 20
118.6668085448
 30
0.0
 11
133.2858779265
 21
118.6668085448
 31
0.0
  0
LINE
  5
3D6
330
221
100
AcDbEntity
 67
     1
  8
7_ALL_FEATURES
  6
Continuous
 62
     7
100
AcDbLine
 10
118.2858779265
 20
118.6668085448
 30
0.0
 11
118.3360221022
 21
118.6668085448
 31
0.0
  0
LINE
  5
3D7
330
221
100
AcDbEntity
 67
     1
  8
7_ALL_FEATURES
  6
Continuous
 62
     7
100
AcDbLine
 10
118.3360221022
 20
118.6668085448
 30
0.0
 11
118.4839401907
 21
118.6668085448
 31
0.0
  0
LINE
  5
3D8
330
221
100
AcDbEntity
 67
     1
  8
7_ALL_FEATURES
  6
Continuous
 62
     7
100
AcDbLine
 10
118.4839401907
 20
118.6668085448
 30
0.0
 11
118.7222149616
 21
118.6668085448
 31
0.0
  0
LINE
  5
3D9
330
221
100
AcDbEntity
 67
     1
  8
7_ALL_FEATURES
  6
Continuous
 62
     7
100
AcDbLine
 10
118.7222149616
 20
118.6668085448
 30
0.0
 11
119.0388983228
 21
118.6668085448
 31
0.0
  0
LINE
  5
3DA
330
221
100
AcDbEntity
 67
     1
  8
7_ALL_FEATURES
  6
Continuous
 62
     7
100
AcDbLine
 10
119.0388983228
 20
118.6668085448
 30
0.0
 11
119.4181104483
 21
118.6668085448
 31
0.0
  0
LINE
  5
3DB
330
221
100
AcDbEntity
 67
     1
  8
7_ALL_FEATURES
  6
Continuous
 62
     7
100
AcDbLine
 10
119.4181104483
 20
118.6668085448
 30
0.0
 11
119.8408360586
 21
118.6668085448
 31
0.0
  0
LINE
  5
3DC
330
221
100
AcDbEntity
 67
     1
  8
7_ALL_FEATURES
  6
Continuous
 62
     7
100
AcDbLine
 10
119.8408360586
 20
118.6668085448
 30
0.0
 11
120.2858779265
 21
118.6668085448
 31
0.0
  0
LINE
  5
3DD
330
221
100
AcDbEntity
 67
     1
  8
7_ALL_FEATURES
  6
Continuous
 62
     7
100
AcDbLine
 10
131.2858779265
 20
118.6668085448
 30
0.0
 11
120.2858779265
 21
118.6668085448
 31
0.0
  0
LINE
  5
3DE
330
221
100
AcDbEntity
 67
     1
  8
7_ALL_FEATURES
  6
Continuous
 62
     7
100
AcDbLine
 10
118.2858779265
 20
117.6668085448
 30
0.0
 11
118.2858779265
 21
118.6668085448
 31
0.0
  0
LINE
  5
3DF
330
221
100
AcDbEntity
 67
     1
  8
7_ALL_FEATURES
  6
Continuous
 62
     7
100
AcDbLine
 10
133.2858779265
 20
117.6668085448
 30
0.0
 11
133.2858779265
 21
118.6668085448
 31
0.0
  0
LINE
  5
3E0
330
221
100
AcDbEntity
 67
     1
  8
7_ALL_FEATURES
  6
Continuous
 62
     9
100
AcDbLine
 10
131.2858779265
 20
117.6668085448
 30
0.0
 11
131.2858779265
 21
118.6668085448
 31
0.0
  0
LINE
  5
3E1
330
221
100
AcDbEntity
 67
     1
  8
7_ALL_FEATURES
  6
Continuous
 62
     9
100
AcDbLine
 10
120.2858779265
 20
117.6668085448
 30
0.0
 11
120.2858779265
 21
118.6668085448
 31
0.0
  0
LINE
  5
3E2
330
221
100
AcDbEntity
 67
     1
  8
7_ALL_FEATURES
  6
Continuous
 62
     7
100
AcDbLine
 10
251.2858779265
 20
118.6668085448
 30
0.0
 11
251.7309197944
 21
118.6668085448
 31
0.0
  0
LINE
  5
3E3
330
221
100
AcDbEntity
 67
     1
  8
7_ALL_FEATURES
  6
Continuous
 62
     7
100
AcDbLine
 10
251.7309197944
 20
118.6668085448
 30
0.0
 11
252.1536454048
 21
118.6668085448
 31
0.0
  0
LINE
  5
3E4
330
221
100
AcDbEntity
 67
     1
  8
7_ALL_FEATURES
  6
Continuous
 62
     7
100
AcDbLine
 10
252.1536454048
 20
118.6668085448
 30
0.0
 11
252.5328575302
 21
118.6668085448
 31
0.0
  0
LINE
  5
3E5
330
221
100
AcDbEntity
 67
     1
  8
7_ALL_FEATURES
  6
Continuous
 62
     7
100
AcDbLine
 10
252.5328575302
 20
118.6668085448
 30
0.0
 11
252.8495408915
 21
118.6668085448
 31
0.0
  0
LINE
  5
3E6
330
221
100
AcDbEntity
 67
     1
  8
7_ALL_FEATURES
  6
Continuous
 62
     7
100
AcDbLine
 10
252.8495408915
 20
118.6668085448
 30
0.0
 11
253.0878156623
 21
118.6668085448
 31
0.0
  0
LINE
  5
3E7
330
221
100
AcDbEntity
 67
     1
  8
7_ALL_FEATURES
  6
Continuous
 62
     7
100
AcDbLine
 10
253.0878156623
 20
118.6668085448
 30
0.0
 11
253.2357337509
 21
118.6668085448
 31
0.0
  0
LINE
  5
3E8
330
221
100
AcDbEntity
 67
     1
  8
7_ALL_FEATURES
  6
Continuous
 62
     7
100
AcDbLine
 10
253.2357337509
 20
118.6668085448
 30
0.0
 11
253.2858779265
 21
118.6668085448
 31
0.0
  0
LINE
  5
3E9
330
221
100
AcDbEntity
 67
     1
  8
7_ALL_FEATURES
  6
Continuous
 62
     7
100
AcDbLine
 10
238.2858779265
 20
118.6668085448
 30
0.0
 11
238.3360221022
 21
118.6668085448
 31
0.0
  0
LINE
  5
3EA
330
221
100
AcDbEntity
 67
     1
  8
7_ALL_FEATURES
  6
Continuous
 62
     7
100
AcDbLine
 10
238.3360221022
 20
118.6668085448
 30
0.0
 11
238.4839401907
 21
118.6668085448
 31
0.0
  0
LINE
  5
3EB
330
221
100
AcDbEntity
 67
     1
  8
7_ALL_FEATURES
  6
Continuous
 62
     7
100
AcDbLine
 10
238.4839401907
 20
118.6668085448
 30
0.0
 11
238.7222149616
 21
118.6668085448
 31
0.0
  0
LINE
  5
3EC
330
221
100
AcDbEntity
 67
     1
  8
7_ALL_FEATURES
  6
Continuous
 62
     7
100
AcDbLine
 10
238.7222149616
 20
118.6668085448
 30
0.0
 11
239.0388983228
 21
118.6668085448
 31
0.0
  0
LINE
  5
3ED
330
221
100
AcDbEntity
 67
     1
  8
7_ALL_FEATURES
  6
Continuous
 62
     7
100
AcDbLine
 10
239.0388983228
 20
118.6668085448
 30
0.0
 11
239.4181104483
 21
118.6668085448
 31
0.0
  0
LINE
  5
3EE
330
221
100
AcDbEntity
 67
     1
  8
7_ALL_FEATURES
  6
Continuous
 62
     7
100
AcDbLine
 10
239.4181104483
 20
118.6668085448
 30
0.0
 11
239.8408360586
 21
118.6668085448
 31
0.0
  0
LINE
  5
3EF
330
221
100
AcDbEntity
 67
     1
  8
7_ALL_FEATURES
  6
Continuous
 62
     7
100
AcDbLine
 10
239.8408360586
 20
118.6668085448
 30
0.0
 11
240.2858779265
 21
118.6668085448
 31
0.0
  0
LINE
  5
3F0
330
221
100
AcDbEntity
 67
     1
  8
7_ALL_FEATURES
  6
Continuous
 62
     7
100
AcDbLine
 10
251.2858779265
 20
118.6668085448
 30
0.0
 11
240.2858779265
 21
118.6668085448
 31
0.0
  0
LINE
  5
3F1
330
221
100
AcDbEntity
 67
     1
  8
7_ALL_FEATURES
  6
Continuous
 62
     7
100
AcDbLine
 10
238.2858779265
 20
117.6668085448
 30
0.0
 11
238.2858779265
 21
118.6668085448
 31
0.0
  0
LINE
  5
3F2
330
221
100
AcDbEntity
 67
     1
  8
7_ALL_FEATURES
  6
Continuous
 62
     7
100
AcDbLine
 10
253.2858779265
 20
117.6668085448
 30
0.0
 11
253.2858779265
 21
118.6668085448
 31
0.0
  0
LINE
  5
3F3
330
221
100
AcDbEntity
 67
     1
  8
7_ALL_FEATURES
  6
Continuous
 62
     9
100
AcDbLine
 10
251.2858779265
 20
117.6668085448
 30
0.0
 11
251.2858779265
 21
118.6668085448
 31
0.0
  0
LINE
  5
3F4
330
221
100
AcDbEntity
 67
     1
  8
7_ALL_FEATURES
  6
Continuous
 62
     9
100
AcDbLine
 10
240.2858779265
 20
117.6668085448
 30
0.0
 11
240.2858779265
 21
118.6668085448
 31
0.0
  0
LINE
  5
3F5
330
221
100
AcDbEntity
 67
     1
  8
7_ALL_FEATURES
  6
Continuous
 62
     7
100
AcDbLine
 10
133.2858779265
 20
136.1668085448
 30
0.0
 11
118.2858779265
 21
136.1668085448
 31
0.0
  0
LINE
  5
3F6
330
221
100
AcDbEntity
 67
     1
  8
7_ALL_FEATURES
  6
Continuous
 62
     7
100
AcDbLine
 10
118.2858779265
 20
119.6668085448
 30
0.0
 11
118.2858779265
 21
118.6668085448
 31
0.0
  0
LINE
  5
3F7
330
221
100
AcDbEntity
 67
     1
  8
7_ALL_FEATURES
  6
Continuous
 62
     7
100
AcDbLine
 10
133.2858779265
 20
119.6668085448
 30
0.0
 11
133.2858779265
 21
118.6668085448
 31
0.0
  0
LINE
  5
3F8
330
221
100
AcDbEntity
 67
     1
  8
7_ALL_FEATURES
  6
Continuous
 62
     7
100
AcDbLine
 10
131.2858779265
 20
119.6668085448
 30
0.0
 11
120.2858779265
 21
119.6668085448
 31
0.0
  0
LINE
  5
3F9
330
221
100
AcDbEntity
 67
     1
  8
7_ALL_FEATURES
  6
Continuous
 62
     7
100
AcDbLine
 10
131.2858779265
 20
119.6668085448
 30
0.0
 11
133.2858779265
 21
119.6668085448
 31
0.0
  0
LINE
  5
3FA
330
221
100
AcDbEntity
 67
     1
  8
7_ALL_FEATURES
  6
Continuous
 62
     7
100
AcDbLine
 10
118.2858779265
 20
119.6668085448
 30
0.0
 11
120.2858779265
 21
119.6668085448
 31
0.0
  0
LINE
  5
3FB
330
221
100
AcDbEntity
 67
     1
  8
7_ALL_FEATURES
  6
Continuous
 62
     7
100
AcDbLine
 10
118.2858779265
 20
119.6668085448
 30
0.0
 11
118.2858779265
 21
120.6668085448
 31
0.0
  0
LINE
  5
3FC
330
221
100
AcDbEntity
 67
     1
  8
7_ALL_FEATURES
  6
Continuous
 62
     7
100
AcDbLine
 10
133.2858779265
 20
119.6668085448
 30
0.0
 11
133.2858779265
 21
120.6668085448
 31
0.0
  0
LINE
  5
3FD
330
221
100
AcDbEntity
 67
     1
  8
7_ALL_FEATURES
  6
Continuous
 62
     7
100
AcDbLine
 10
118.2858779265
 20
120.6668085448
 30
0.0
 11
118.2858779265
 21
127.4302645121
 31
0.0
  0
LINE
  5
3FE
330
221
100
AcDbEntity
 67
     1
  8
7_ALL_FEATURES
  6
Continuous
 62
     7
100
AcDbLine
 10
133.2858779265
 20
120.6668085448
 30
0.0
 11
133.2858779265
 21
127.4302645121
 31
0.0
  0
LINE
  5
3FF
330
221
100
AcDbEntity
 67
     1
  8
7_ALL_FEATURES
  6
Continuous
 62
     7
100
AcDbLine
 10
118.2858779265
 20
127.4302645121
 30
0.0
 11
118.2858779265
 21
128.8444780745
 31
0.0
  0
LINE
  5
400
330
221
100
AcDbEntity
 67
     1
  8
7_ALL_FEATURES
  6
Continuous
 62
     7
100
AcDbLine
 10
133.2858779265
 20
127.4302645121
 30
0.0
 11
133.2858779265
 21
128.8444780745
 31
0.0
  0
LINE
  5
401
330
221
100
AcDbEntity
 67
     1
  8
7_ALL_FEATURES
  6
Continuous
 62
     7
100
AcDbLine
 10
118.2858779265
 20
128.8444780745
 30
0.0
 11
118.2858779265
 21
135.5810221072
 31
0.0
  0
LINE
  5
402
330
221
100
AcDbEntity
 67
     1
  8
7_ALL_FEATURES
  6
Continuous
 62
     7
100
AcDbLine
 10
133.2858779265
 20
128.8444780745
 30
0.0
 11
133.2858779265
 21
135.5810221072
 31
0.0
  0
LINE
  5
403
330
221
100
AcDbEntity
 67
     1
  8
7_ALL_FEATURES
  6
Continuous
 62
     7
100
AcDbLine
 10
118.2858779265
 20
135.5810221072
 30
0.0
 11
118.2858779265
 21
136.1668085448
 31
0.0
  0
LINE
  5
404
330
221
100
AcDbEntity
 67
     1
  8
7_ALL_FEATURES
  6
Continuous
 62
     7
100
AcDbLine
 10
133.2858779265
 20
135.5810221072
 30
0.0
 11
133.2858779265
 21
136.1668085448
 31
0.0
  0
LINE
  5
405
330
221
100
AcDbEntity
 67
     1
  8
7_ALL_FEATURES
  6
Continuous
 62
     9
100
AcDbLine
 10
120.2858779265
 20
119.6668085448
 30
0.0
 11
120.2858779265
 21
118.6668085448
 31
0.0
  0
LINE
  5
406
330
221
100
AcDbEntity
 67
     1
  8
7_ALL_FEATURES
  6
Continuous
 62
     9
100
AcDbLine
 10
131.2858779265
 20
119.6668085448
 30
0.0
 11
131.2858779265
 21
118.6668085448
 31
0.0
  0
LINE
  5
407
330
221
100
AcDbEntity
 67
     1
  8
7_ALL_FEATURES
  6
Continuous
 62
     9
100
AcDbLine
 10
133.2858779265
 20
135.5810221072
 30
0.0
 11
118.2858779265
 21
135.5810221072
 31
0.0
  0
LINE
  5
408
330
221
100
AcDbEntity
 67
     1
  8
7_ALL_FEATURES
  6
Continuous
 62
     9
100
AcDbLine
 10
133.2858779265
 20
128.8444780745
 30
0.0
 11
118.2858779265
 21
128.8444780745
 31
0.0
  0
LINE
  5
409
330
221
100
AcDbEntity
 67
     1
  8
7_ALL_FEATURES
  6
Continuous
 62
     9
100
AcDbLine
 10
133.2858779265
 20
127.4302645121
 30
0.0
 11
118.2858779265
 21
127.4302645121
 31
0.0
  0
LINE
  5
40A
330
221
100
AcDbEntity
 67
     1
  8
7_ALL_FEATURES
  6
Continuous
 62
     9
100
AcDbLine
 10
133.2858779265
 20
120.6668085448
 30
0.0
 11
129.5858779265
 21
120.6668085448
 31
0.0
  0
LINE
  5
40B
330
221
100
AcDbEntity
 67
     1
  8
7_ALL_FEATURES
  6
Continuous
 62
     9
100
AcDbLine
 10
121.9858779265
 20
120.6668085448
 30
0.0
 11
118.2858779265
 21
120.6668085448
 31
0.0
  0
LINE
  5
40C
330
221
100
AcDbEntity
 67
     1
  8
7_ALL_FEATURES
  6
Continuous
 62
     7
100
AcDbLine
 10
253.2858779265
 20
136.1668085448
 30
0.0
 11
238.2858779265
 21
136.1668085448
 31
0.0
  0
LINE
  5
40D
330
221
100
AcDbEntity
 67
     1
  8
7_ALL_FEATURES
  6
Continuous
 62
     7
100
AcDbLine
 10
238.2858779265
 20
119.6668085448
 30
0.0
 11
238.2858779265
 21
118.6668085448
 31
0.0
  0
LINE
  5
40E
330
221
100
AcDbEntity
 67
     1
  8
7_ALL_FEATURES
  6
Continuous
 62
     7
100
AcDbLine
 10
253.2858779265
 20
119.6668085448
 30
0.0
 11
253.2858779265
 21
118.6668085448
 31
0.0
  0
LINE
  5
40F
330
221
100
AcDbEntity
 67
     1
  8
7_ALL_FEATURES
  6
Continuous
 62
     7
100
AcDbLine
 10
251.2858779265
 20
119.6668085448
 30
0.0
 11
240.2858779265
 21
119.6668085448
 31
0.0
  0
LINE
  5
410
330
221
100
AcDbEntity
 67
     1
  8
7_ALL_FEATURES
  6
Continuous
 62
     7
100
AcDbLine
 10
251.2858779265
 20
119.6668085448
 30
0.0
 11
253.2858779265
 21
119.6668085448
 31
0.0
  0
LINE
  5
411
330
221
100
AcDbEntity
 67
     1
  8
7_ALL_FEATURES
  6
Continuous
 62
     7
100
AcDbLine
 10
238.2858779265
 20
119.6668085448
 30
0.0
 11
240.2858779265
 21
119.6668085448
 31
0.0
  0
LINE
  5
412
330
221
100
AcDbEntity
 67
     1
  8
7_ALL_FEATURES
  6
Continuous
 62
     7
100
AcDbLine
 10
238.2858779265
 20
119.6668085448
 30
0.0
 11
238.2858779265
 21
120.6668085448
 31
0.0
  0
LINE
  5
413
330
221
100
AcDbEntity
 67
     1
  8
7_ALL_FEATURES
  6
Continuous
 62
     7
100
AcDbLine
 10
253.2858779265
 20
119.6668085448
 30
0.0
 11
253.2858779265
 21
120.6668085448
 31
0.0
  0
LINE
  5
414
330
221
100
AcDbEntity
 67
     1
  8
7_ALL_FEATURES
  6
Continuous
 62
     7
100
AcDbLine
 10
238.2858779265
 20
120.6668085448
 30
0.0
 11
238.2858779265
 21
127.4302645121
 31
0.0
  0
LINE
  5
415
330
221
100
AcDbEntity
 67
     1
  8
7_ALL_FEATURES
  6
Continuous
 62
     7
100
AcDbLine
 10
253.2858779265
 20
120.6668085448
 30
0.0
 11
253.2858779265
 21
127.4302645121
 31
0.0
  0
LINE
  5
416
330
221
100
AcDbEntity
 67
     1
  8
7_ALL_FEATURES
  6
Continuous
 62
     7
100
AcDbLine
 10
238.2858779265
 20
127.4302645121
 30
0.0
 11
238.2858779265
 21
128.8444780745
 31
0.0
  0
LINE
  5
417
330
221
100
AcDbEntity
 67
     1
  8
7_ALL_FEATURES
  6
Continuous
 62
     7
100
AcDbLine
 10
253.2858779265
 20
127.4302645121
 30
0.0
 11
253.2858779265
 21
128.8444780745
 31
0.0
  0
LINE
  5
418
330
221
100
AcDbEntity
 67
     1
  8
7_ALL_FEATURES
  6
Continuous
 62
     7
100
AcDbLine
 10
238.2858779265
 20
128.8444780745
 30
0.0
 11
238.2858779265
 21
135.5810221072
 31
0.0
  0
LINE
  5
419
330
221
100
AcDbEntity
 67
     1
  8
7_ALL_FEATURES
  6
Continuous
 62
     7
100
AcDbLine
 10
253.2858779265
 20
128.8444780745
 30
0.0
 11
253.2858779265
 21
135.5810221072
 31
0.0
  0
LINE
  5
41A
330
221
100
AcDbEntity
 67
     1
  8
7_ALL_FEATURES
  6
Continuous
 62
     7
100
AcDbLine
 10
238.2858779265
 20
135.5810221072
 30
0.0
 11
238.2858779265
 21
136.1668085448
 31
0.0
  0
LINE
  5
41B
330
221
100
AcDbEntity
 67
     1
  8
7_ALL_FEATURES
  6
Continuous
 62
     7
100
AcDbLine
 10
253.2858779265
 20
135.5810221072
 30
0.0
 11
253.2858779265
 21
136.1668085448
 31
0.0
  0
LINE
  5
41C
330
221
100
AcDbEntity
 67
     1
  8
7_ALL_FEATURES
  6
Continuous
 62
     9
100
AcDbLine
 10
240.2858779265
 20
119.6668085448
 30
0.0
 11
240.2858779265
 21
118.6668085448
 31
0.0
  0
LINE
  5
41D
330
221
100
AcDbEntity
 67
     1
  8
7_ALL_FEATURES
  6
Continuous
 62
     9
100
AcDbLine
 10
251.2858779265
 20
119.6668085448
 30
0.0
 11
251.2858779265
 21
118.6668085448
 31
0.0
  0
LINE
  5
41E
330
221
100
AcDbEntity
 67
     1
  8
7_ALL_FEATURES
  6
Continuous
 62
     9
100
AcDbLine
 10
253.2858779265
 20
135.5810221072
 30
0.0
 11
238.2858779265
 21
135.5810221072
 31
0.0
  0
LINE
  5
41F
330
221
100
AcDbEntity
 67
     1
  8
7_ALL_FEATURES
  6
Continuous
 62
     9
100
AcDbLine
 10
253.2858779265
 20
128.8444780745
 30
0.0
 11
238.2858779265
 21
128.8444780745
 31
0.0
  0
LINE
  5
420
330
221
100
AcDbEntity
 67
     1
  8
7_ALL_FEATURES
  6
Continuous
 62
     9
100
AcDbLine
 10
253.2858779265
 20
127.4302645121
 30
0.0
 11
238.2858779265
 21
127.4302645121
 31
0.0
  0
LINE
  5
421
330
221
100
AcDbEntity
 67
     1
  8
7_ALL_FEATURES
  6
Continuous
 62
     9
100
AcDbLine
 10
253.2858779265
 20
120.6668085448
 30
0.0
 11
249.5858779265
 21
120.6668085448
 31
0.0
  0
LINE
  5
422
330
221
100
AcDbEntity
 67
     1
  8
7_ALL_FEATURES
  6
Continuous
 62
     9
100
AcDbLine
 10
241.9858779265
 20
120.6668085448
 30
0.0
 11
238.2858779265
 21
120.6668085448
 31
0.0
  0
LINE
  5
423
330
221
100
AcDbEntity
 67
     1
  8
7_ALL_FEATURES
  6
Continuous
 62
     3
100
AcDbLine
 10
120.2858779265
 20
117.6668085448
 30
0.0
 11
118.2858779265
 21
117.6668085448
 31
0.0
  0
LINE
  5
424
330
221
100
AcDbEntity
 67
     1
  8
7_ALL_FEATURES
  6
Continuous
 62
     3
100
AcDbLine
 10
133.2858779265
 20
117.6668085448
 30
0.0
 11
131.2858779265
 21
117.6668085448
 31
0.0
  0
LINE
  5
425
330
221
100
AcDbEntity
 67
     1
  8
7_ALL_FEATURES
  6
Continuous
 62
     3
100
AcDbLine
 10
133.2858779265
 20
102.1668085448
 30
0.0
 11
118.2858779265
 21
102.1668085448
 31
0.0
  0
LINE
  5
426
330
221
100
AcDbEntity
 67
     1
  8
7_ALL_FEATURES
  6
Continuous
 62
     3
100
AcDbLine
 10
133.2858779265
 20
111.2545088672
 30
0.0
 11
133.2858779265
 21
112.3865732375
 31
0.0
  0
LINE
  5
427
330
221
100
AcDbEntity
 67
     1
  8
7_ALL_FEATURES
  6
Continuous
 62
     3
100
AcDbLine
 10
118.2858779265
 20
111.2545088672
 30
0.0
 11
118.2858779265
 21
112.3865732375
 31
0.0
  0
LINE
  5
428
330
221
100
AcDbEntity
 67
     1
  8
7_ALL_FEATURES
  6
Continuous
 62
     3
100
AcDbLine
 10
133.2858779265
 20
104.1668085448
 30
0.0
 11
133.2858779265
 21
111.2545088672
 31
0.0
  0
LINE
  5
429
330
221
100
AcDbEntity
 67
     1
  8
7_ALL_FEATURES
  6
Continuous
 62
     3
100
AcDbLine
 10
118.2858779265
 20
104.1668085448
 30
0.0
 11
118.2858779265
 21
111.2545088672
 31
0.0
  0
LINE
  5
42A
330
221
100
AcDbEntity
 67
     1
  8
7_ALL_FEATURES
  6
Continuous
 62
     3
100
AcDbLine
 10
133.2858779265
 20
102.1668085448
 30
0.0
 11
133.2858779265
 21
103.1668085448
 31
0.0
  0
LINE
  5
42B
330
221
100
AcDbEntity
 67
     1
  8
7_ALL_FEATURES
  6
Continuous
 62
     3
100
AcDbLine
 10
133.2858779265
 20
103.1668085448
 30
0.0
 11
133.2858779265
 21
104.1668085448
 31
0.0
  0
LINE
  5
42C
330
221
100
AcDbEntity
 67
     1
  8
7_ALL_FEATURES
  6
Continuous
 62
     3
100
AcDbLine
 10
118.2858779265
 20
112.3865732375
 30
0.0
 11
118.2858779265
 21
117.2988729151
 31
0.0
  0
LINE
  5
42D
330
221
100
AcDbEntity
 67
     1
  8
7_ALL_FEATURES
  6
Continuous
 62
     3
100
AcDbLine
 10
118.2858779265
 20
102.1668085448
 30
0.0
 11
118.2858779265
 21
103.1668085448
 31
0.0
  0
LINE
  5
42E
330
221
100
AcDbEntity
 67
     1
  8
7_ALL_FEATURES
  6
Continuous
 62
     3
100
AcDbLine
 10
118.2858779265
 20
103.1668085448
 30
0.0
 11
118.2858779265
 21
104.1668085448
 31
0.0
  0
LINE
  5
42F
330
221
100
AcDbEntity
 67
     1
  8
7_ALL_FEATURES
  6
Continuous
 62
     3
100
AcDbLine
 10
133.2858779265
 20
112.3865732375
 30
0.0
 11
133.2858779265
 21
117.2988729151
 31
0.0
  0
LINE
  5
430
330
221
100
AcDbEntity
 67
     1
  8
7_ALL_FEATURES
  6
Continuous
 62
     3
100
AcDbLine
 10
118.2858779265
 20
117.2988729151
 30
0.0
 11
118.2858779265
 21
117.6668085448
 31
0.0
  0
LINE
  5
431
330
221
100
AcDbEntity
 67
     1
  8
7_ALL_FEATURES
  6
Continuous
 62
     3
100
AcDbLine
 10
133.2858779265
 20
117.2988729151
 30
0.0
 11
133.2858779265
 21
117.6668085448
 31
0.0
  0
LINE
  5
432
330
221
100
AcDbEntity
 67
     1
  8
7_ALL_FEATURES
  6
Continuous
 62
     3
100
AcDbLine
 10
131.2858779265
 20
117.6668085448
 30
0.0
 11
120.2858779265
 21
117.6668085448
 31
0.0
  0
LINE
  5
433
330
221
100
AcDbEntity
 67
     1
  8
7_ALL_FEATURES
  6
Continuous
 62
     9
100
AcDbLine
 10
133.2858779265
 20
117.2988729151
 30
0.0
 11
130.2858779265
 21
117.2988729151
 31
0.0
  0
LINE
  5
434
330
221
100
AcDbEntity
 67
     1
  8
7_ALL_FEATURES
  6
Continuous
 62
     9
100
AcDbLine
 10
121.2858779265
 20
117.2988729151
 30
0.0
 11
118.2858779265
 21
117.2988729151
 31
0.0
  0
LINE
  5
435
330
221
100
AcDbEntity
 67
     1
  8
7_ALL_FEATURES
  6
Continuous
 62
     9
100
AcDbLine
 10
133.2858779265
 20
112.3865732375
 30
0.0
 11
128.6928399098
 21
112.3865732375
 31
0.0
  0
LINE
  5
436
330
221
100
AcDbEntity
 67
     1
  8
7_ALL_FEATURES
  6
Continuous
 62
     9
100
AcDbLine
 10
122.8789159432
 20
112.3865732375
 30
0.0
 11
118.2858779265
 21
112.3865732375
 31
0.0
  0
LINE
  5
437
330
221
100
AcDbEntity
 67
     1
  8
7_ALL_FEATURES
  6
Continuous
 62
     9
100
AcDbLine
 10
133.2858779265
 20
111.2545088672
 30
0.0
 11
127.7858779265
 21
111.2545088672
 31
0.0
  0
LINE
  5
438
330
221
100
AcDbEntity
 67
     1
  8
7_ALL_FEATURES
  6
Continuous
 62
     9
100
AcDbLine
 10
123.7858779265
 20
111.2545088672
 30
0.0
 11
118.2858779265
 21
111.2545088672
 31
0.0
  0
LINE
  5
439
330
221
100
AcDbEntity
 67
     1
  8
7_ALL_FEATURES
  6
Continuous
 62
     9
100
AcDbLine
 10
133.2858779265
 20
104.1668085448
 30
0.0
 11
118.2858779265
 21
104.1668085448
 31
0.0
  0
LINE
  5
43A
330
221
100
AcDbEntity
 67
     1
  8
7_ALL_FEATURES
  6
Continuous
 62
     3
100
AcDbLine
 10
240.2858779265
 20
117.6668085448
 30
0.0
 11
238.2858779265
 21
117.6668085448
 31
0.0
  0
LINE
  5
43B
330
221
100
AcDbEntity
 67
     1
  8
7_ALL_FEATURES
  6
Continuous
 62
     3
100
AcDbLine
 10
253.2858779265
 20
117.6668085448
 30
0.0
 11
251.2858779265
 21
117.6668085448
 31
0.0
  0
LINE
  5
43C
330
221
100
AcDbEntity
 67
     1
  8
7_ALL_FEATURES
  6
Continuous
 62
     3
100
AcDbLine
 10
253.2858779265
 20
102.1668085448
 30
0.0
 11
238.2858779265
 21
102.1668085448
 31
0.0
  0
LINE
  5
43D
330
221
100
AcDbEntity
 67
     1
  8
7_ALL_FEATURES
  6
Continuous
 62
     3
100
AcDbLine
 10
253.2858779265
 20
111.2545088672
 30
0.0
 11
253.2858779265
 21
112.3865732375
 31
0.0
  0
LINE
  5
43E
330
221
100
AcDbEntity
 67
     1
  8
7_ALL_FEATURES
  6
Continuous
 62
     3
100
AcDbLine
 10
238.2858779265
 20
111.2545088672
 30
0.0
 11
238.2858779265
 21
112.3865732375
 31
0.0
  0
LINE
  5
43F
330
221
100
AcDbEntity
 67
     1
  8
7_ALL_FEATURES
  6
Continuous
 62
     3
100
AcDbLine
 10
253.2858779265
 20
104.1668085448
 30
0.0
 11
253.2858779265
 21
111.2545088672
 31
0.0
  0
LINE
  5
440
330
221
100
AcDbEntity
 67
     1
  8
7_ALL_FEATURES
  6
Continuous
 62
     3
100
AcDbLine
 10
238.2858779265
 20
104.1668085448
 30
0.0
 11
238.2858779265
 21
111.2545088672
 31
0.0
  0
LINE
  5
441
330
221
100
AcDbEntity
 67
     1
  8
7_ALL_FEATURES
  6
Continuous
 62
     3
100
AcDbLine
 10
253.2858779265
 20
102.1668085448
 30
0.0
 11
253.2858779265
 21
103.1668085448
 31
0.0
  0
LINE
  5
442
330
221
100
AcDbEntity
 67
     1
  8
7_ALL_FEATURES
  6
Continuous
 62
     3
100
AcDbLine
 10
253.2858779265
 20
103.1668085448
 30
0.0
 11
253.2858779265
 21
104.1668085448
 31
0.0
  0
LINE
  5
443
330
221
100
AcDbEntity
 67
     1
  8
7_ALL_FEATURES
  6
Continuous
 62
     3
100
AcDbLine
 10
238.2858779265
 20
112.3865732375
 30
0.0
 11
238.2858779265
 21
117.2988729151
 31
0.0
  0
LINE
  5
444
330
221
100
AcDbEntity
 67
     1
  8
7_ALL_FEATURES
  6
Continuous
 62
     3
100
AcDbLine
 10
238.2858779265
 20
102.1668085448
 30
0.0
 11
238.2858779265
 21
103.1668085448
 31
0.0
  0
LINE
  5
445
330
221
100
AcDbEntity
 67
     1
  8
7_ALL_FEATURES
  6
Continuous
 62
     3
100
AcDbLine
 10
238.2858779265
 20
103.1668085448
 30
0.0
 11
238.2858779265
 21
104.1668085448
 31
0.0
  0
LINE
  5
446
330
221
100
AcDbEntity
 67
     1
  8
7_ALL_FEATURES
  6
Continuous
 62
     3
100
AcDbLine
 10
253.2858779265
 20
112.3865732375
 30
0.0
 11
253.2858779265
 21
117.2988729151
 31
0.0
  0
LINE
  5
447
330
221
100
AcDbEntity
 67
     1
  8
7_ALL_FEATURES
  6
Continuous
 62
     3
100
AcDbLine
 10
238.2858779265
 20
117.2988729151
 30
0.0
 11
238.2858779265
 21
117.6668085448
 31
0.0
  0
LINE
  5
448
330
221
100
AcDbEntity
 67
     1
  8
7_ALL_FEATURES
  6
Continuous
 62
     3
100
AcDbLine
 10
253.2858779265
 20
117.2988729151
 30
0.0
 11
253.2858779265
 21
117.6668085448
 31
0.0
  0
LINE
  5
449
330
221
100
AcDbEntity
 67
     1
  8
7_ALL_FEATURES
  6
Continuous
 62
     3
100
AcDbLine
 10
251.2858779265
 20
117.6668085448
 30
0.0
 11
240.2858779265
 21
117.6668085448
 31
0.0
  0
LINE
  5
44A
330
221
100
AcDbEntity
 67
     1
  8
7_ALL_FEATURES
  6
Continuous
 62
     9
100
AcDbLine
 10
253.2858779265
 20
117.2988729151
 30
0.0
 11
250.2858779265
 21
117.2988729151
 31
0.0
  0
LINE
  5
44B
330
221
100
AcDbEntity
 67
     1
  8
7_ALL_FEATURES
  6
Continuous
 62
     9
100
AcDbLine
 10
241.2858779265
 20
117.2988729151
 30
0.0
 11
238.2858779265
 21
117.2988729151
 31
0.0
  0
LINE
  5
44C
330
221
100
AcDbEntity
 67
     1
  8
7_ALL_FEATURES
  6
Continuous
 62
     9
100
AcDbLine
 10
253.2858779265
 20
112.3865732375
 30
0.0
 11
248.6928399098
 21
112.3865732375
 31
0.0
  0
LINE
  5
44D
330
221
100
AcDbEntity
 67
     1
  8
7_ALL_FEATURES
  6
Continuous
 62
     9
100
AcDbLine
 10
242.8789159432
 20
112.3865732375
 30
0.0
 11
238.2858779265
 21
112.3865732375
 31
0.0
  0
LINE
  5
44E
330
221
100
AcDbEntity
 67
     1
  8
7_ALL_FEATURES
  6
Continuous
 62
     9
100
AcDbLine
 10
253.2858779265
 20
111.2545088672
 30
0.0
 11
247.7858779265
 21
111.2545088672
 31
0.0
  0
LINE
  5
44F
330
221
100
AcDbEntity
 67
     1
  8
7_ALL_FEATURES
  6
Continuous
 62
     9
100
AcDbLine
 10
243.7858779265
 20
111.2545088672
 30
0.0
 11
238.2858779265
 21
111.2545088672
 31
0.0
  0
LINE
  5
450
330
221
100
AcDbEntity
 67
     1
  8
7_ALL_FEATURES
  6
Continuous
 62
     9
100
AcDbLine
 10
253.2858779265
 20
104.1668085448
 30
0.0
 11
238.2858779265
 21
104.1668085448
 31
0.0
  0
LINE
  5
451
330
221
100
AcDbEntity
 67
     1
  8
7_ALL_FEATURES
  6
Continuous
 62
     3
100
AcDbLine
 10
120.2858779265
 20
118.6668085448
 30
0.0
 11
118.2858779265
 21
118.6668085448
 31
0.0
  0
LINE
  5
452
330
221
100
AcDbEntity
 67
     1
  8
7_ALL_FEATURES
  6
Continuous
 62
     3
100
AcDbLine
 10
131.2858779265
 20
118.6668085448
 30
0.0
 11
120.2858779265
 21
118.6668085448
 31
0.0
  0
LINE
  5
453
330
221
100
AcDbEntity
 67
     1
  8
7_ALL_FEATURES
  6
Continuous
 62
     3
100
AcDbLine
 10
133.2858779265
 20
118.6668085448
 30
0.0
 11
131.2858779265
 21
118.6668085448
 31
0.0
  0
LINE
  5
454
330
221
100
AcDbEntity
 67
     1
  8
7_ALL_FEATURES
  6
Continuous
 62
     3
100
AcDbLine
 10
240.2858779265
 20
118.6668085448
 30
0.0
 11
238.2858779265
 21
118.6668085448
 31
0.0
  0
LINE
  5
455
330
221
100
AcDbEntity
 67
     1
  8
7_ALL_FEATURES
  6
Continuous
 62
     3
100
AcDbLine
 10
251.2858779265
 20
118.6668085448
 30
0.0
 11
240.2858779265
 21
118.6668085448
 31
0.0
  0
LINE
  5
456
330
221
100
AcDbEntity
 67
     1
  8
7_ALL_FEATURES
  6
Continuous
 62
     3
100
AcDbLine
 10
253.2858779265
 20
118.6668085448
 30
0.0
 11
251.2858779265
 21
118.6668085448
 31
0.0
  0
DIMENSION
  5
457
330
221
100
AcDbEntity
 67
     1
  8
0
  6
Continuous
 62
     2
100
AcDbDimension
280
     0
  2
*D1
 10
27.4351793412
 20
136.1668085448
 30
0.0
 11
27.4351793412
 21
119.1643389624
 31
0.0
 70
   160
 71
     2
 42
34.0
 73
     0
 74
     0
 75
     0
  3
DIMSTYLE_1
100
AcDbAlignedDimension
 13
49.8724873311
 23
102.1668085448
 33
0.0
 14
51.9094097422
 24
136.1668085448
 34
0.0
 50
90.0
100
AcDbRotatedDimension
  0
DIMENSION
  5
458
330
221
100
AcDbEntity
 67
     1
  8
0
  6
Continuous
 62
     2
100
AcDbDimension
280
     0
  2
*D2
 10
88.0968116554
 20
153.0035183421
 30
0.0
 11
62.2988022079
 21
153.0035183421
 31
0.0
 70
   160
 71
     2
 42
51.0
 73
     0
 74
     0
 75
     0
  3
DIMSTYLE_1
100
AcDbAlignedDimension
 13
37.0968116554
 23
141.2472721993
 33
0.0
 14
88.0968116554
 24
141.2472721993
 34
0.0
100
AcDbRotatedDimension
  0
DIMENSION
  5
459
330
221
100
AcDbEntity
 67
     1
  8
0
  6
Continuous
 62
     2
100
AcDbDimension
280
     0
  2
*D3
 10
133.2858779265
 20
153.0035183421
 30
0.0
 11
125.92838974
 21
153.0035183421
 31
0.0
 70
   160
 71
     2
 42
15.0
 73
     0
 74
     0
 75
     0
  3
DIMSTYLE_2
100
AcDbAlignedDimension
 13
118.2858779265
 23
141.902305891
 33
0.0
 14
133.2858779265
 24
141.2472721993
 34
0.0
100
AcDbRotatedDimension
  0
LINE
  5
45A
330
221
100
AcDbEntity
 67
     1
  8
0
  6
Continuous
 62
     2
100
AcDbLine
 10
157.9942584081
 20
73.0649424379
 30
0.0
 11
287.9942584081
 21
73.0649424379
 31
0.0
  0
LINE
  5
45B
330
221
100
AcDbEntity
 67
     1
  8
0
  6
Continuous
 62
     2
100
AcDbLine
 10
157.9942584081
 20
73.0649424379
 30
0.0
 11
157.9942584081
 21
7.0649424379
 31
0.0
  0
LINE
  5
45C
330
221
100
AcDbEntity
 67
     1
  8
0
  6
Continuous
 62
     2
100
AcDbLine
 10
187.9942584081
 20
65.0649424379
 30
0.0
 11
287.9942584081
 21
65.0649424379
 31
0.0
  0
LINE
  5
45D
330
221
100
AcDbEntity
 67
     1
  8
0
  6
Continuous
 62
     2
100
AcDbLine
 10
157.9942584081
 20
57.0649424379
 30
0.0
 11
287.9942584081
 21
57.0649424379
 31
0.0
  0
LINE
  5
45E
330
221
100
AcDbEntity
 67
     1
  8
0
  6
Continuous
 62
     2
100
AcDbLine
 10
187.9942584081
 20
51.0649424379
 30
0.0
 11
287.9942584081
 21
51.0649424379
 31
0.0
  0
LINE
  5
45F
330
221
100
AcDbEntity
 67
     1
  8
0
  6
Continuous
 62
     2
100
AcDbLine
 10
187.9942584081
 20
45.0649424379
 30
0.0
 11
287.9942584081
 21
45.0649424379
 31
0.0
  0
LINE
  5
460
330
221
100
AcDbEntity
 67
     1
  8
0
  6
Continuous
 62
     2
100
AcDbLine
 10
187.9942584081
 20
39.0649424379
 30
0.0
 11
287.9942584081
 21
39.0649424379
 31
0.0
  0
LINE
  5
461
330
221
100
AcDbEntity
 67
     1
  8
0
  6
Continuous
 62
     2
100
AcDbLine
 10
187.9942584081
 20
33.0649424379
 30
0.0
 11
287.9942584081
 21
33.0649424379
 31
0.0
  0
LINE
  5
462
330
221
100
AcDbEntity
 67
     1
  8
0
  6
Continuous
 62
     2
100
AcDbLine
 10
187.9942584081
 20
27.0649424379
 30
0.0
 11
287.9942584081
 21
27.0649424379
 31
0.0
  0
LINE
  5
463
330
221
100
AcDbEntity
 67
     1
  8
0
  6
Continuous
 62
     2
100
AcDbLine
 10
157.9942584081
 20
21.0649424379
 30
0.0
 11
287.9942584081
 21
21.0649424379
 31
0.0
  0
LINE
  5
464
330
221
100
AcDbEntity
 67
     1
  8
0
  6
Continuous
 62
     2
100
AcDbLine
 10
157.9942584081
 20
15.0649424379
 30
0.0
 11
287.9942584081
 21
15.0649424379
 31
0.0
  0
LINE
  5
465
330
221
100
AcDbEntity
 67
     1
  8
0
  6
Continuous
 62
     2
100
AcDbLine
 10
157.9942584081
 20
11.0649424379
 30
0.0
 11
287.9942584081
 21
11.0649424379
 31
0.0
  0
LINE
  5
466
330
221
100
AcDbEntity
 67
     1
  8
0
  6
Continuous
 62
     2
100
AcDbLine
 10
157.9942584081
 20
7.0649424379
 30
0.0
 11
287.9942584081
 21
7.0649424379
 31
0.0
  0
LINE
  5
467
330
221
100
AcDbEntity
 67
     1
  8
0
  6
Continuous
 62
     2
100
AcDbLine
 10
187.9942584081
 20
73.0649424379
 30
0.0
 11
187.9942584081
 21
15.0649424379
 31
0.0
  0
LINE
  5
468
330
221
100
AcDbEntity
 67
     1
  8
0
  6
Continuous
 62
     2
100
AcDbLine
 10
207.9942584081
 20
57.0649424379
 30
0.0
 11
207.9942584081
 21
51.0649424379
 31
0.0
  0
LINE
  5
469
330
221
100
AcDbEntity
 67
     1
  8
0
  6
Continuous
 62
     2
100
AcDbLine
 10
237.9942584081
 20
27.0649424379
 30
0.0
 11
237.9942584081
 21
15.0649424379
 31
0.0
  0
LINE
  5
46A
330
221
100
AcDbEntity
 67
     1
  8
0
  6
Continuous
 62
     2
100
AcDbLine
 10
247.9942584081
 20
57.0649424379
 30
0.0
 11
247.9942584081
 21
51.0649424379
 31
0.0
  0
LINE
  5
46B
330
221
100
AcDbEntity
 67
     1
  8
0
  6
Continuous
 62
     2
100
AcDbLine
 10
247.9942584081
 20
45.0649424379
 30
0.0
 11
247.9942584081
 21
39.0649424379
 31
0.0
  0
LINE
  5
46C
330
221
100
AcDbEntity
 67
     1
  8
0
  6
Continuous
 62
     2
100
AcDbLine
 10
267.9942584081
 20
57.0649424379
 30
0.0
 11
267.9942584081
 21
51.0649424379
 31
0.0
  0
LINE
  5
46D
330
221
100
AcDbEntity
 67
     1
  8
0
  6
Continuous
 62
     2
100
AcDbLine
 10
277.9942584081
 20
45.0649424379
 30
0.0
 11
277.9942584081
 21
39.0649424379
 31
0.0
  0
LINE
  5
46E
330
221
100
AcDbEntity
 67
     1
  8
0
  6
Continuous
 62
     2
100
AcDbLine
 10
287.9942584081
 20
73.0649424379
 30
0.0
 11
287.9942584081
 21
7.0649424379
 31
0.0
  0
INSERT
  5
46F
330
221
100
AcDbEntity
 67
     1
  8
0
  6
Continuous
 62
     2
100
AcDbBlockReference
  2
PROIEZIONE_EU_BL0
 10
172.9942584081
 20
64.6899424379
 30
0.0
  0
MTEXT
  5
470
330
221
100
AcDbEntity
 67
     1
  8
9_SOLID
  6
Continuous
 62
     2
100
AcDbMText
 10
189.4817584081
 20
71.4399424379
 30
0.0
 40
1.9
 41
142.3642857143
 46
0.0
 71
     1
 72
     1
  1
EN: Chamfer/radii unlisted 0.3x45°. Remove sharp edges.\PGen. tol.: hole H11, shaft h11, lenght Js12. UNI EN 22768 Medium Grande.
  7
TEXTSTYLE_3
 73
     1
 44
0.9
  0
MTEXT
  5
471
330
221
100
AcDbEntity
 67
     1
  8
9_SOLID
  6
Continuous
 62
     2
100
AcDbMText
 10
189.4817584081
 20
63.4399424379
 30
0.0
 40
1.9
 41
148.2678571429
 46
0.0
 71
     1
 72
     1
  1
IT: Sm./rac. non quotati 0.3x45°. Eliminare spigoli taglienti.\PToll. gen.: foro H11, albero h11, lunghezza Js12. UNI EN 22768 Grado Medio.
  7
TEXTSTYLE_3
 73
     1
 44
0.9
  0
INSERT
  5
472
330
221
100
AcDbEntity
 67
     1
  8
0
  6
Continuous
 62
     2
100
AcDbBlockReference
  2
LOGO2_BL1
 10
171.8203054529
 20
39.0649424379
 30
0.0
  0
MTEXT
  5
473
330
221
100
AcDbEntity
 67
     1
  8
9_SOLID
  6
Continuous
 62
     2
100
AcDbMText
 10
189.4817584081
 20
55.3149424379
 30
0.0
 40
3.0
 41
22.0714285714
 46
0.0
 71
     1
 72
     1
  1
Pj: 5B0
  7
TEXTSTYLE_3
 73
     1
 44
0.9
  0
MTEXT
  5
474
330
221
100
AcDbEntity
 67
     1
  8
0
  6
Continuous
 62
     2
100
AcDbMText
 10
209.4817584081
 20
55.3149424379
 30
0.0
 40
3.0
 41
41.5714285714
 46
0.0
 71
     1
 72
     1
  1
% Check:  %
  7
TEXTSTYLE_3
 73
     1
 44
0.9
  0
MTEXT
  5
475
330
221
100
AcDbEntity
 67
     1
  8
9_SOLID
  6
Continuous
 62
     2
100
AcDbMText
 10
249.4817584081
 20
55.3149424379
 30
0.0
 40
3.0
 41
19.5
 46
0.0
 71
     1
 72
     1
  1
Rev:00
  7
TEXTSTYLE_3
 73
     1
 44
0.9
  0
MTEXT
  5
476
330
221
100
AcDbEntity
 67
     1
  8
9_SOLID
  6
Continuous
 62
     2
100
AcDbMText
 10
269.4817584081
 20
55.5649424379
 30
0.0
 40
3.0
 41
19.7142857143
 46
0.0
 71
     1
 72
     1
  1
Ver: A
  7
TEXTSTYLE_3
 73
     1
 44
0.9
  0
MTEXT
  5
477
330
221
100
AcDbEntity
 67
     1
  8
9_SOLID
  6
Continuous
 62
     2
100
AcDbMText
 10
189.4817584081
 20
49.3149424379
 30
0.0
 40
3.0
 41
42.9642857143
 46
0.0
 71
     1
 72
     1
  1
Neutral code: 
  7
TEXTSTYLE_3
 73
     1
 44
0.9
  0
MTEXT
  5
478
330
221
100
AcDbEntity
 67
     1
  8
0
  6
Continuous
 62
     2
100
AcDbMText
 10
189.4817584081
 20
43.3149424379
 30
0.0
 40
3.0
 41
22.9285714286
 46
0.0
 71
     1
 72
     1
  1
Code:  
  7
TEXTSTYLE_3
 73
     1
 44
0.9
  0
MTEXT
  5
479
330
221
100
AcDbEntity
 67
     1
  8
9_SOLID
  6
Continuous
 62
     2
100
AcDbMText
 10
249.4817584081
 20
43.5649424379
 30
0.0
 40
3.0
 41
27.8571428571
 46
0.0
 71
     1
 72
     1
  1
Scale: 1:1
  7
TEXTSTYLE_3
 73
     1
 44
0.9
  0
MTEXT
  5
47A
330
221
100
AcDbEntity
 67
     1
  8
9_SOLID
  6
Continuous
 62
     2
100
AcDbMText
 10
282.9942584081
 20
43.5649424379
 30
0.0
 40
3.0
 41
8.25
 46
0.0
 71
     2
 72
     1
  1
A4
  7
TEXTSTYLE_3
 73
     1
 44
0.9
  0
MTEXT
  5
47B
330
221
100
AcDbEntity
 67
     1
  8
9_SOLID
  6
Continuous
 62
     2
100
AcDbMText
 10
189.4817584081
 20
37.5649424379
 30
0.0
 40
3.0
 41
134.6785714286
 46
0.0
 71
     1
 72
     1
  1
It descr.: COPPIA CLIP ANTIVANDALO TREVI
  7
TEXTSTYLE_3
 73
     1
 44
0.9
  0
MTEXT
  5
47C
330
221
100
AcDbEntity
 67
     1
  8
0
  6
Continuous
 62
     2
100
AcDbMText
 10
189.4817584081
 20
31.5649424379
 30
0.0
 40
3.0
 41
37.5
 46
0.0
 71
     1
 72
     1
  1
En descr.:  
  7
TEXTSTYLE_3
 73
     1
 44
0.9
  0
MTEXT
  5
47D
330
221
100
AcDbEntity
 67
     1
  8
9_SOLID
  6
Continuous
 62
     2
100
AcDbMText
 10
189.4817584081
 20
25.5649424379
 30
0.0
 40
3.0
 41
31.2857142857
 46
0.0
 71
     1
 72
     1
  1
Des.: S.Z.
  7
TEXTSTYLE_3
 73
     1
 44
0.9
  0
MTEXT
  5
47E
330
221
100
AcDbEntity
 67
     1
  8
9_SOLID
  6
Continuous
 62
     2
100
AcDbMText
 10
239.4817584081
 20
25.5649424379
 30
0.0
 40
3.0
 41
34.8214285714
 46
0.0
 71
     1
 72
     1
  1
Check: A.P.
  7
TEXTSTYLE_3
 73
     1
 44
0.9
  0
MTEXT
  5
47F
330
221
100
AcDbEntity
 67
     1
  8
9_SOLID
  6
Continuous
 62
     2
100
AcDbMText
 10
159.4817584081
 20
19.5649424379
 30
0.0
 40
3.0
 41
42.5357142857
 46
0.0
 71
     1
 72
     1
  1
Date: 12.12.18
  7
TEXTSTYLE_3
 73
     1
 44
0.9
  0
MTEXT
  5
480
330
221
100
AcDbEntity
 67
     1
  8
0
  6
Continuous
 62
     2
100
AcDbMText
 10
189.4817584081
 20
19.5649424379
 30
0.0
 40
3.0
 41
21.75
 46
0.0
 71
     1
 72
     1
  1
Mat.:  
  7
TEXTSTYLE_3
 73
     1
 44
0.9
  0
MTEXT
  5
481
330
221
100
AcDbEntity
 67
     1
  8
9_SOLID
  6
Continuous
 62
     2
100
AcDbMText
 10
239.4817584081
 20
19.0649424379
 30
0.0
 40
2.0
 41
42.3571428571
 46
0.0
 71
     1
 72
     1
  1
Disegno per catalogo
  7
TEXTSTYLE_3
 73
     1
 44
0.9
  0
MTEXT
  5
482
330
221
100
AcDbEntity
 67
     1
  8
9_SOLID
  6
Continuous
 62
     2
100
AcDbMText
 10
159.4817584081
 20
13.9649424379
 30
0.0
 40
1.8
 41
176.2071428571
 46
0.0
 71
     1
 72
     1
  1
It: A norma di legge si diffida da qualsiasi riproduzione senza nostra autorizzazione esplicita.
  7
TEXTSTYLE_3
 73
     1
 44
0.9
  0
MTEXT
  5
483
330
221
100
AcDbEntity
 67
     1
  8
9_SOLID
  6
Continuous
 62
     2
100
AcDbMText
 10
159.4817584081
 20
9.9649424379
 30
0.0
 40
1.8
 41
158.1428571429
 46
0.0
 71
     1
 72
     1
  1
En: According to the law, beware of any reproduction made without our authorization.
  7
TEXTSTYLE_3
 73
     1
 44
0.9
  0
ENDSEC
  0
SECTION
  2
OBJECTS
  0
DICTIONARY
  5
C
330
0
100
AcDbDictionary
281
     1
  3
ACAD_DETAILVIEWSTYLE
350
4D2
  3
ACAD_GROUP
350
D
  3
ACAD_LAYOUT
350
1A
  3
ACAD_MATERIAL
350
4C1
  3
ACAD_MLEADERSTYLE
350
4C7
  3
ACAD_MLINESTYLE
350
17
  3
ACAD_PLOTSETTINGS
350
19
  3
ACAD_PLOTSTYLENAME
350
E
  3
ACAD_SCALELIST
350
486
  3
ACAD_SECTIONVIEWSTYLE
350
4D3
  3
ACAD_TABLESTYLE
350
4C5
  3
ACAD_VISUALSTYLE
350
4A8
  3
ACDB_RECOMPOSE_DATA
350
4CE
  3
AcDbVariableDictionary
350
4CA
  3
APPDATA
350
4C9
  0
DICTIONARY
  5
4D2
102
{ACAD_REACTORS
330
C
102
}
330
C
100
AcDbDictionary
281
     1
  0
DICTIONARY
  5
D
102
{ACAD_REACTORS
330
C
102
}
330
C
100
AcDbDictionary
281
     1
  0
DICTIONARY
  5
1A
102
{ACAD_REACTORS
330
C
102
}
330
C
100
AcDbDictionary
281
     1
  3
163782_1
350
485
  3
Model
350
484
  0
DICTIONARY
  5
4C1
102
{ACAD_REACTORS
330
C
102
}
330
C
100
AcDbDictionary
281
     1
  3
ByBlock
350
4C3
  3
ByLayer
350
4C2
  3
Global
350
4C4
  0
DICTIONARY
  5
4C7
102
{ACAD_REACTORS
330
C
102
}
330
C
100
AcDbDictionary
281
     1
  3
Standard
350
4C8
  0
DICTIONARY
  5
17
102
{ACAD_REACTORS
330
C
102
}
330
C
100
AcDbDictionary
281
     1
  3
Standard
350
18
  0
DICTIONARY
  5
19
102
{ACAD_REACTORS
330
C
102
}
330
C
100
AcDbDictionary
281
     1
  0
ACDBDICTIONARYWDFLT
  5
E
102
{ACAD_REACTORS
330
C
102
}
330
C
100
AcDbDictionary
281
     1
  3
Normal
350
F
100
AcDbDictionaryWithDefault
340
F
  0
DICTIONARY
  5
486
102
{ACAD_REACTORS
330
C
102
}
330
C
100
AcDbDictionary
281
     1
  3
A0
350
487
  3
A1
350
488
  3
A2
350
489
  3
A3
350
48A
  3
A4
350
48B
  3
A5
350
48C
  3
A6
350
48D
  3
A7
350
48E
  3
A8
350
48F
  3
A9
350
490
  3
B0
350
491
  3
B1
350
492
  3
B2
350
493
  3
B3
350
494
  3
B4
350
495
  3
B5
350
496
  3
B6
350
497
  3
B7
350
498
  3
B8
350
499
  3
B9
350
49A
  3
C0
350
49B
  3
C1
350
49C
  3
C2
350
49D
  3
C3
350
49E
  3
C4
350
49F
  3
C5
350
4A0
  3
C6
350
4A1
  3
C7
350
4A2
  3
C8
350
4A3
  3
C9
350
4A4
  3
D0
350
4A5
  3
D1
350
4A6
  3
D2
350
4A7
  0
DICTIONARY
  5
4D3
102
{ACAD_REACTORS
330
C
102
}
330
C
100
AcDbDictionary
281
     1
  0
DICTIONARY
  5
4C5
102
{ACAD_REACTORS
330
C
102
}
330
C
100
AcDbDictionary
281
     1
  3
Standard
350
4C6
  0
DICTIONARY
  5
4A8
102
{ACAD_REACTORS
330
C
102
}
330
C
100
AcDbDictionary
281
     1
  3
2dWireframe
350
4AD
  3
Basic
350
4B0
  3
Brighten
350
4B4
  3
ColorChange
350
4B8
  3
Conceptual
350
4B2
  3
Dim
350
4B3
  3
EdgeColorOff
350
4BB
  3
Facepattern
350
4B7
  3
Flat
350
4A9
  3
FlatWithEdges
350
4AA
  3
Gouraud
350
4AB
  3
GouraudWithEdges
350
4AC
  3
Hidden
350
4AF
  3
JitterOff
350
4B9
  3
Linepattern
350
4B6
  3
OverhangOff
350
4BA
  3
Realistic
350
4B1
  3
Shaded
350
4C0
  3
Shaded with edges
350
4BF
  3
Shades of Gray
350
4BC
  3
Sketchy
350
4BD
  3
Thicken
350
4B5
  3
Wireframe
350
4AE
  3
X-Ray
350
4BE
  0
XRECORD
  5
4CE
102
{ACAD_REACTORS
330
C
102
}
330
C
100
AcDbXrecord
280
     1
 90
        1
330
4C6
  0
DICTIONARY
  5
4CA
102
{ACAD_REACTORS
330
C
102
}
330
C
100
AcDbDictionary
281
     1
  3
CANNOSCALE
350
4CB
  3
CMLEADERSTYLE
350
4D0
  3
CTABLESTYLE
350
4CF
  3
MSLTSCALE
350
4D1
  0
DICTIONARY
  5
4C9
102
{ACAD_REACTORS
330
C
102
}
330
C
100
AcDbDictionary
281
     1
  0
LAYOUT
  5
485
102
{ACAD_REACTORS
330
1A
102
}
330
1A
100
AcDbPlotSettings
  1

  2
none_device
  4
ISO_A4_(297.00_x_210.00_MM)
  6

 40
0.0
 41
0.0
 42
0.0
 43
0.0
 44
297.0
 45
210.0
 46
0.0
 47
0.0
 48
0.0
 49
0.0
140
0.0
141
0.0
142
1.0
143
1.0
 70
     0
 72
     1
 73
     0
 74
     0
  7

 75
     0
 76
     0
 77
     2
 78
   300
147
1.0
148
0.0
149
0.0
100
AcDbLayout
  1
163782_1
 70
     0
 71
     1
 10
0.0
 20
0.0
 11
297.0
 21
210.0
 12
0.0
 22
0.0
 32
0.0
 14
0.0
 24
0.0
 34
0.0
 15
297.0
 25
210.0
 35
0.0
146
0.0
 13
0.0
 23
0.0
 33
0.0
 16
1.0
 26
0.0
 36
0.0
 17
0.0
 27
1.0
 37
0.0
 76
     0
330
221
331
296
  0
LAYOUT
  5
484
102
{ACAD_REACTORS
330
1A
102
}
330
1A
100
AcDbPlotSettings
  1

  2
none_device
  4

  6

 40
0.0
 41
0.0
 42
0.0
 43
0.0
 44
297.0
 45
210.0
 46
0.0
 47
0.0
 48
0.0
 49
0.0
140
0.0
141
0.0
142
1.0
143
1.0
 70
  1024
 72
     1
 73
     0
 74
     0
  7

 75
     0
 76
     0
 77
     2
 78
   300
147
1.0
148
0.0
149
0.0
100
AcDbLayout
  1
Model
 70
     0
 71
     0
 10
0.0
 20
0.0
 11
297.0
 21
210.0
 12
0.0
 22
0.0
 32
0.0
 14
0.0
 24
0.0
 34
0.0
 15
0.0
 25
0.0
 35
0.0
146
0.0
 13
0.0
 23
0.0
 33
0.0
 16
1.0
 26
0.0
 36
0.0
 17
0.0
 27
1.0
 37
0.0
 76
     0
330
220
331
1F4
  0
MATERIAL
  5
4C3
102
{ACAD_REACTORS
330
4C1
102
}
330
4C1
100
AcDbMaterial
  1
ByBlock
 72
     1
 94
      127
  0
MATERIAL
  5
4C2
102
{ACAD_REACTORS
330
4C1
102
}
330
4C1
100
AcDbMaterial
  1
ByLayer
 72
     1
 94
      127
  0
MATERIAL
  5
4C4
102
{ACAD_REACTORS
330
4C1
102
}
330
4C1
100
AcDbMaterial
  1
Global
 72
     1
 94
      127
  0
MLEADERSTYLE
  5
4C8
102
{ACAD_REACTORS
330
4C7
102
}
330
4C7
100
AcDbMLeaderStyle
179
     2
170
     2
171
     1
172
     0
 90
        2
 40
0.0
 41
0.0
173
     1
 91
-1056964608
340
14
 92
       -2
290
     1
 42
2.0
291
     1
 43
8.0
  3
Standard
341
0
 44
4.0
300

342
11
174
     1
178
     1
175
     1
176
     0
 93
-1056964608
 45
4.0
292
     0
297
     0
 46
4.0
343
0
 94
-1056964608
 47
1.0
 49
1.0
140
1.0
293
     1
141
0.0
294
     1
177
     0
142
1.0
295
     0
296
     0
143
3.75
271
     0
272
     9
273
     9
298
     0
  0
MLINESTYLE
  5
18
102
{ACAD_REACTORS
330
17
102
}
330
17
100
AcDbMlineStyle
  2
STANDARD
 70
     0
  3

 62
   256
 51
90.0
 52
90.0
 71
     2
 49
0.5
 62
   256
  6
BYLAYER
 49
-0.5
 62
   256
  6
BYLAYER
  0
ACDBPLACEHOLDER
  5
F
102
{ACAD_REACTORS
330
E
102
}
330
E
  0
SCALE
  5
487
102
{ACAD_REACTORS
330
486
102
}
330
486
100
AcDbScale
 70
     0
300
1:1
140
1.0
141
1.0
290
     1
  0
SCALE
  5
488
102
{ACAD_REACTORS
330
486
102
}
330
486
100
AcDbScale
 70
     0
300
1:2
140
1.0
141
2.0
290
     0
  0
SCALE
  5
489
102
{ACAD_REACTORS
330
486
102
}
330
486
100
AcDbScale
 70
     0
300
1:4
140
1.0
141
4.0
290
     0
  0
SCALE
  5
48A
102
{ACAD_REACTORS
330
486
102
}
330
486
100
AcDbScale
 70
     0
300
1:5
140
1.0
141
5.0
290
     0
  0
SCALE
  5
48B
102
{ACAD_REACTORS
330
486
102
}
330
486
100
AcDbScale
 70
     0
300
1:8
140
1.0
141
8.0
290
     0
  0
SCALE
  5
48C
102
{ACAD_REACTORS
330
486
102
}
330
486
100
AcDbScale
 70
     0
300
1:10
140
1.0
141
10.0
290
     0
  0
SCALE
  5
48D
102
{ACAD_REACTORS
330
486
102
}
330
486
100
AcDbScale
 70
     0
300
1:16
140
1.0
141
16.0
290
     0
  0
SCALE
  5
48E
102
{ACAD_REACTORS
330
486
102
}
330
486
100
AcDbScale
 70
     0
300
1:20
140
1.0
141
20.0
290
     0
  0
SCALE
  5
48F
102
{ACAD_REACTORS
330
486
102
}
330
486
100
AcDbScale
 70
     0
300
1:30
140
1.0
141
30.0
290
     0
  0
SCALE
  5
490
102
{ACAD_REACTORS
330
486
102
}
330
486
100
AcDbScale
 70
     0
300
1:40
140
1.0
141
40.0
290
     0
  0
SCALE
  5
491
102
{ACAD_REACTORS
330
486
102
}
330
486
100
AcDbScale
 70
     0
300
1:50
140
1.0
141
50.0
290
     0
  0
SCALE
  5
492
102
{ACAD_REACTORS
330
486
102
}
330
486
100
AcDbScale
 70
     0
300
1:100
140
1.0
141
100.0
290
     0
  0
SCALE
  5
493
102
{ACAD_REACTORS
330
486
102
}
330
486
100
AcDbScale
 70
     0
300
2:1
140
2.0
141
1.0
290
     0
  0
SCALE
  5
494
102
{ACAD_REACTORS
330
486
102
}
330
486
100
AcDbScale
 70
     0
300
4:1
140
4.0
141
1.0
290
     0
  0
SCALE
  5
495
102
{ACAD_REACTORS
330
486
102
}
330
486
100
AcDbScale
 70
     0
300
8:1
140
8.0
141
1.0
290
     0
  0
SCALE
  5
496
102
{ACAD_REACTORS
330
486
102
}
330
486
100
AcDbScale
 70
     0
300
10:1
140
10.0
141
1.0
290
     0
  0
SCALE
  5
497
102
{ACAD_REACTORS
330
486
102
}
330
486
100
AcDbScale
 70
     0
300
100:1
140
100.0
141
1.0
290
     0
  0
SCALE
  5
498
102
{ACAD_REACTORS
330
486
102
}
330
486
100
AcDbScale
 70
     0
300
1/128" = 1'-0"
140
0.0078125
141
12.0
290
     0
  0
SCALE
  5
499
102
{ACAD_REACTORS
330
486
102
}
330
486
100
AcDbScale
 70
     0
300
1/64" = 1'-0"
140
0.015625
141
12.0
290
     0
  0
SCALE
  5
49A
102
{ACAD_REACTORS
330
486
102
}
330
486
100
AcDbScale
 70
     0
300
1/32" = 1'-0"
140
0.03125
141
12.0
290
     0
  0
SCALE
  5
49B
102
{ACAD_REACTORS
330
486
102
}
330
486
100
AcDbScale
 70
     0
300
1/16" = 1'-0"
140
0.0625
141
12.0
290
     0
  0
SCALE
  5
49C
102
{ACAD_REACTORS
330
486
102
}
330
486
100
AcDbScale
 70
     0
300
3/32" = 1'-0"
140
0.09375
141
12.0
290
     0
  0
SCALE
  5
49D
102
{ACAD_REACTORS
330
486
102
}
330
486
100
AcDbScale
 70
     0
300
1/8" = 1'-0"
140
0.125
141
12.0
290
     0
  0
SCALE
  5
49E
102
{ACAD_REACTORS
330
486
102
}
330
486
100
AcDbScale
 70
     0
300
3/16" = 1'-0"
140
0.1875
141
12.0
290
     0
  0
SCALE
  5
49F
102
{ACAD_REACTORS
330
486
102
}
330
486
100
AcDbScale
 70
     0
300
1/4" = 1'-0"
140
0.25
141
12.0
290
     0
  0
SCALE
  5
4A0
102
{ACAD_REACTORS
330
486
102
}
330
486
100
AcDbScale
 70
     0
300
3/8" = 1'-0"
140
0.375
141
12.0
290
     0
  0
SCALE
  5
4A1
102
{ACAD_REACTORS
330
486
102
}
330
486
100
AcDbScale
 70
     0
300
1/2" = 1'-0"
140
0.5
141
12.0
290
     0
  0
SCALE
  5
4A2
102
{ACAD_REACTORS
330
486
102
}
330
486
100
AcDbScale
 70
     0
300
3/4" = 1'-0"
140
0.75
141
12.0
290
     0
  0
SCALE
  5
4A3
102
{ACAD_REACTORS
330
486
102
}
330
486
100
AcDbScale
 70
     0
300
1" = 1'-0"
140
1.0
141
12.0
290
     0
  0
SCALE
  5
4A4
102
{ACAD_REACTORS
330
486
102
}
330
486
100
AcDbScale
 70
     0
300
1-1/2" = 1'-0"
140
1.5
141
12.0
290
     0
  0
SCALE
  5
4A5
102
{ACAD_REACTORS
330
486
102
}
330
486
100
AcDbScale
 70
     0
300
3" = 1'-0"
140
3.0
141
12.0
290
     0
  0
SCALE
  5
4A6
102
{ACAD_REACTORS
330
486
102
}
330
486
100
AcDbScale
 70
     0
300
6" = 1'-0"
140
6.0
141
12.0
290
     0
  0
SCALE
  5
4A7
102
{ACAD_REACTORS
330
486
102
}
330
486
100
AcDbScale
 70
     0
300
1'-0" = 1'-0"
140
12.0
141
12.0
290
     0
  0
TABLESTYLE
  5
4C6
102
{ACAD_REACTORS
330
4C5
102
}
102
{ACAD_XDICTIONARY
360
4CC
102
}
330
4C5
100
AcDbTableStyle
  3
Standard
 70
     0
 71
     0
 40
0.06
 41
0.06
280
     0
281
     0
  7
STANDARD
140
4.5
170
     2
 62
     0
 63
   257
283
     0
 90
        4
 91
        0
  1

274
    -2
284
     1
 64
     0
275
    -2
285
     1
 65
     0
276
    -2
286
     1
 66
     0
277
    -2
287
     1
 67
     0
278
    -2
288
     1
 68
     0
279
    -2
289
     1
 69
     0
  7
STANDARD
140
6.0
170
     5
 62
     0
 63
   257
283
     0
 90
        4
 91
        0
  1

274
    -2
284
     1
 64
     0
275
    -2
285
     1
 65
     0
276
    -2
286
     1
 66
     0
277
    -2
287
     1
 67
     0
278
    -2
288
     1
 68
     0
279
    -2
289
     1
 69
     0
  7
STANDARD
140
4.5
170
     5
 62
     0
 63
   257
283
     0
 90
        4
 91
        0
  1

274
    -2
284
     1
 64
     0
275
    -2
285
     1
 65
     0
276
    -2
286
     1
 66
     0
277
    -2
287
     1
 67
     0
278
    -2
288
     1
 68
     0
279
    -2
289
     1
 69
     0
  0
VISUALSTYLE
  5
4AD
102
{ACAD_REACTORS
330
4A8
102
}
330
4A8
100
AcDbVisualStyle
  2
2dWireframe
 70
     4
177
     3
291
     0
 70
    58
 90
        0
176
     1
 90
        2
176
     1
 90
        0
176
     1
 90
        0
176
     1
 40
0.6
176
     1
 40
30.0
176
     1
 62
     7
420
 16777215
176
     1
 90
        1
176
     1
 90
        4
176
     1
 62
     7
176
     1
 62
   257
176
     1
 90
        1
176
     1
 90
        1
176
     1
 40
1.0
176
     1
 90
        0
176
     1
 62
   257
176
     1
 40
1.0
176
     1
 90
        1
176
     1
 90
        6
176
     1
 90
        2
176
     1
 62
     7
176
     1
 90
        5
176
     1
 90
        0
176
     1
 90
        0
176
     1
290
     0
176
     1
 90
        1
176
     1
 40
0.0
176
     1
 90
        0
176
     1
290
     1
176
     1
290
     1
176
     1
290
     0
176
     1
290
     0
176
     1
290
     0
176
     1
290
     0
176
     1
290
     0
176
     1
290
     0
176
     1
290
     0
176
     1
 90
       50
176
     1
 40
0.0
176
     1
 40
1.0
176
     1
 90
        0
176
     1
 62
    18
420
        0
176
     1
 90
       50
176
     1
 90
        3
176
     1
 62
     5
420
      255
176
     1
290
     0
176
     1
 90
       50
176
     1
 90
       50
176
     1
 90
       50
176
     1
290
     0
176
     1
 90
       50
176
     1
 62
   256
176
     0
 40
1.0
176
     0
 90
        2
176
     1
  1
strokes_ogs.tif
176
     1
290
     0
176
     1
 40
1.0
176
     1
 40
1.0
176
     1
  0
VISUALSTYLE
  5
4B0
102
{ACAD_REACTORS
330
4A8
102
}
330
4A8
100
AcDbVisualStyle
  2
Basic
 70
     7
177
     3
291
     1
 70
    58
 90
        1
176
     1
 90
        0
176
     1
 90
        1
176
     1
 90
        0
176
     1
 40
0.6
176
     1
 40
30.0
176
     1
 62
     7
420
 16777215
176
     1
 90
        0
176
     1
 90
        4
176
     1
 62
     7
176
     1
 62
   257
176
     1
 90
        1
176
     1
 90
        1
176
     1
 40
1.0
176
     1
 90
        8
176
     1
 62
     7
176
     1
 40
1.0
176
     1
 90
        1
176
     1
 90
        6
176
     1
 90
        2
176
     1
 62
     7
176
     1
 90
        5
176
     1
 90
        0
176
     1
 90
        0
176
     1
290
     0
176
     1
 90
        1
176
     1
 40
0.0
176
     1
 90
        0
176
     1
290
     0
176
     1
290
     1
176
     1
290
     1
176
     1
290
     0
176
     1
290
     0
176
     1
290
     0
176
     1
290
     0
176
     1
290
     0
176
     1
290
     0
176
     1
 90
       50
176
     1
 40
0.0
176
     1
 40
1.0
176
     1
 90
        0
176
     1
 62
    18
420
        0
176
     1
 90
       50
176
     1
 90
        3
176
     1
 62
     5
420
      255
176
     1
290
     0
176
     1
 90
       50
176
     1
 90
       50
176
     1
 90
       50
176
     1
290
     0
176
     1
 90
       50
176
     1
 62
   256
176
     0
 40
1.0
176
     0
 90
        2
176
     1
  1
strokes_ogs.tif
176
     1
290
     0
176
     1
 40
1.0
176
     1
 40
1.0
176
     1
  0
VISUALSTYLE
  5
4B4
102
{ACAD_REACTORS
330
4A8
102
}
330
4A8
100
AcDbVisualStyle
  2
Brighten
 70
    12
177
     3
291
     1
 70
    58
 90
        2
176
     1
 90
        2
176
     1
 90
        0
176
     1
 90
        0
176
     1
 40
0.6
176
     1
 40
30.0
176
     1
 62
     7
420
 16777215
176
     1
 90
        1
176
     1
 90
        4
176
     1
 62
     7
176
     1
 62
   257
176
     1
 90
        1
176
     1
 90
        1
176
     1
 40
1.0
176
     1
 90
        8
176
     1
 62
     7
176
     1
 40
1.0
176
     1
 90
        1
176
     1
 90
        6
176
     1
 90
        2
176
     1
 62
     7
176
     1
 90
        5
176
     1
 90
        0
176
     1
 90
        0
176
     1
290
     0
176
     1
 90
        1
176
     1
 40
50.0
176
     1
 90
        0
176
     1
290
     0
176
     1
290
     1
176
     1
290
     1
176
     1
290
     0
176
     1
290
     0
176
     1
290
     0
176
     1
290
     0
176
     1
290
     0
176
     1
290
     0
176
     1
 90
       50
176
     1
 40
0.0
176
     1
 40
1.0
176
     1
 90
        0
176
     1
 62
    18
420
        0
176
     1
 90
       50
176
     1
 90
        3
176
     1
 62
     5
420
      255
176
     1
290
     0
176
     1
 90
       50
176
     1
 90
       50
176
     1
 90
       50
176
     1
290
     0
176
     1
 90
       50
176
     1
 62
   256
176
     0
 40
1.0
176
     0
 90
        2
176
     1
  1
strokes_ogs.tif
176
     1
290
     0
176
     1
 40
1.0
176
     1
 40
1.0
176
     1
  0
VISUALSTYLE
  5
4B8
102
{ACAD_REACTORS
330
4A8
102
}
330
4A8
100
AcDbVisualStyle
  2
ColorChange
 70
    16
177
     3
291
     1
 70
    58
 90
        2
176
     1
 90
        2
176
     1
 90
        3
176
     1
 90
        0
176
     1
 40
0.6
176
     1
 40
30.0
176
     1
 62
     8
420
  8421504
176
     1
 90
        1
176
     1
 90
        4
176
     1
 62
     7
176
     1
 62
   257
176
     1
 90
        1
176
     1
 90
        1
176
     1
 40
1.0
176
     1
 90
        8
176
     1
 62
     8
420
  8421504
176
     1
 40
1.0
176
     1
 90
        1
176
     1
 90
        6
176
     1
 90
        2
176
     1
 62
     7
176
     1
 90
        5
176
     1
 90
        0
176
     1
 90
        0
176
     1
290
     0
176
     1
 90
        1
176
     1
 40
0.0
176
     1
 90
        0
176
     1
290
     0
176
     1
290
     1
176
     1
290
     1
176
     1
290
     0
176
     1
290
     0
176
     1
290
     0
176
     1
290
     0
176
     1
290
     0
176
     1
290
     0
176
     1
 90
       50
176
     1
 40
0.0
176
     1
 40
1.0
176
     1
 90
        0
176
     1
 62
    18
420
        0
176
     1
 90
       50
176
     1
 90
        3
176
     1
 62
     5
420
      255
176
     1
290
     0
176
     1
 90
       50
176
     1
 90
       50
176
     1
 90
       50
176
     1
290
     0
176
     1
 90
       50
176
     1
 62
   256
176
     0
 40
1.0
176
     0
 90
        2
176
     1
  1
strokes_ogs.tif
176
     1
290
     0
176
     1
 40
1.0
176
     1
 40
1.0
176
     1
  0
VISUALSTYLE
  5
4B2
102
{ACAD_REACTORS
330
4A8
102
}
330
4A8
100
AcDbVisualStyle
  2
Conceptual
 70
     9
177
     3
291
     0
 70
    58
 90
        3
176
     1
 90
        2
176
     1
 90
        0
176
     1
 90
        0
176
     1
 40
0.6
176
     1
 40
30.0
176
     1
 62
     7
420
 16777215
176
     1
 90
        2
176
     1
 90
        2
176
     1
 62
     7
176
     1
 62
   257
176
     1
 90
        1
176
     1
 90
        1
176
     1
 40
179.0
176
     1
 90
        8
176
     1
 62
     7
176
     1
 40
1.0
176
     1
 90
        1
176
     1
 90
        6
176
     1
 90
        2
176
     1
 62
     7
176
     1
 90
        3
176
     1
 90
        0
176
     1
 90
        0
176
     1
290
     0
176
     1
 90
        1
176
     1
 40
0.0
176
     1
 90
        0
176
     1
290
     0
176
     1
290
     1
176
     1
290
     1
176
     1
290
     0
176
     1
290
     0
176
     1
290
     0
176
     1
290
     0
176
     1
290
     0
176
     1
290
     0
176
     1
 90
       50
176
     1
 40
0.0
176
     1
 40
1.0
176
     1
 90
        0
176
     1
 62
    18
420
        0
176
     1
 90
       50
176
     1
 90
        3
176
     1
 62
     5
420
      255
176
     1
290
     0
176
     1
 90
       50
176
     1
 90
       50
176
     1
 90
       50
176
     1
290
     0
176
     1
 90
       50
176
     1
 62
   256
176
     0
 40
1.0
176
     0
 90
        2
176
     1
  1
strokes_ogs.tif
176
     1
290
     0
176
     1
 40
1.0
176
     1
 40
1.0
176
     1
  0
VISUALSTYLE
  5
4B3
102
{ACAD_REACTORS
330
4A8
102
}
330
4A8
100
AcDbVisualStyle
  2
Dim
 70
    11
177
     3
291
     1
 70
    58
 90
        2
176
     1
 90
        2
176
     1
 90
        0
176
     1
 90
        0
176
     1
 40
0.6
176
     1
 40
30.0
176
     1
 62
     7
420
 16777215
176
     1
 90
        1
176
     1
 90
        4
176
     1
 62
     7
176
     1
 62
   257
176
     1
 90
        1
176
     1
 90
        1
176
     1
 40
1.0
176
     1
 90
        8
176
     1
 62
     7
176
     1
 40
1.0
176
     1
 90
        1
176
     1
 90
        6
176
     1
 90
        2
176
     1
 62
     7
176
     1
 90
        5
176
     1
 90
        0
176
     1
 90
        0
176
     1
290
     0
176
     1
 90
        1
176
     1
 40
-50.0
176
     1
 90
        0
176
     1
290
     0
176
     1
290
     1
176
     1
290
     1
176
     1
290
     0
176
     1
290
     0
176
     1
290
     0
176
     1
290
     0
176
     1
290
     0
176
     1
290
     0
176
     1
 90
       50
176
     1
 40
0.0
176
     1
 40
1.0
176
     1
 90
        0
176
     1
 62
    18
420
        0
176
     1
 90
       50
176
     1
 90
        3
176
     1
 62
     5
420
      255
176
     1
290
     0
176
     1
 90
       50
176
     1
 90
       50
176
     1
 90
       50
176
     1
290
     0
176
     1
 90
       50
176
     1
 62
   256
176
     0
 40
1.0
176
     0
 90
        2
176
     1
  1
strokes_ogs.tif
176
     1
290
     0
176
     1
 40
1.0
176
     1
 40
1.0
176
     1
  0
VISUALSTYLE
  5
4BB
102
{ACAD_REACTORS
330
4A8
102
}
330
4A8
100
AcDbVisualStyle
  2
EdgeColorOff
 70
    22
177
     3
291
     1
 70
    58
 90
        2
176
     0
 90
        2
176
     0
 90
        0
176
     0
 90
        0
176
     0
 40
0.6
176
     0
 40
30.0
176
     0
 62
     7
420
 16777215
176
     0
 90
        1
176
     0
 90
        4
176
     0
 62
     7
176
     0
 62
   257
176
     0
 90
        1
176
     0
 90
        1
176
     0
 40
1.0
176
     0
 90
        8
176
     2
 62
     7
176
     0
 40
1.0
176
     0
 90
        1
176
     0
 90
        6
176
     0
 90
        2
176
     0
 62
     7
176
     0
 90
        5
176
     0
 90
        0
176
     0
 90
        0
176
     0
290
     0
176
     0
 90
        1
176
     0
 40
0.0
176
     0
 90
        0
176
     0
290
     0
176
     0
290
     1
176
     0
290
     1
176
     0
290
     0
176
     0
290
     0
176
     0
290
     0
176
     0
290
     0
176
     0
290
     0
176
     0
290
     0
176
     0
 90
       50
176
     0
 40
0.0
176
     0
 40
1.0
176
     0
 90
        0
176
     0
 62
    18
420
        0
176
     0
 90
       50
176
     0
 90
        3
176
     0
 62
     5
420
      255
176
     0
290
     0
176
     0
 90
       50
176
     0
 90
       50
176
     0
 90
       50
176
     0
290
     0
176
     0
 90
       50
176
     0
 62
   256
176
     0
 40
1.0
176
     0
 90
        2
176
     0
  1
strokes_ogs.tif
176
     0
290
     0
176
     0
 40
1.0
176
     0
 40
1.0
176
     0
  0
VISUALSTYLE
  5
4B7
102
{ACAD_REACTORS
330
4A8
102
}
330
4A8
100
AcDbVisualStyle
  2
Facepattern
 70
    15
177
     3
291
     1
 70
    58
 90
        2
176
     1
 90
        2
176
     1
 90
        0
176
     1
 90
        0
176
     1
 40
0.6
176
     1
 40
30.0
176
     1
 62
     7
420
 16777215
176
     1
 90
        1
176
     1
 90
        4
176
     1
 62
     7
176
     1
 62
   257
176
     1
 90
        1
176
     1
 90
        1
176
     1
 40
1.0
176
     1
 90
        8
176
     1
 62
     7
176
     1
 40
1.0
176
     1
 90
        1
176
     1
 90
        6
176
     1
 90
        2
176
     1
 62
     7
176
     1
 90
        5
176
     1
 90
        0
176
     1
 90
        0
176
     1
290
     0
176
     1
 90
        1
176
     1
 40
0.0
176
     1
 90
        0
176
     1
290
     0
176
     1
290
     1
176
     1
290
     1
176
     1
290
     0
176
     1
290
     0
176
     1
290
     0
176
     1
290
     0
176
     1
290
     0
176
     1
290
     0
176
     1
 90
       50
176
     1
 40
0.0
176
     1
 40
1.0
176
     1
 90
        0
176
     1
 62
    18
420
        0
176
     1
 90
       50
176
     1
 90
        3
176
     1
 62
     5
420
      255
176
     1
290
     0
176
     1
 90
       50
176
     1
 90
       50
176
     1
 90
       50
176
     1
290
     0
176
     1
 90
       50
176
     1
 62
   256
176
     0
 40
1.0
176
     0
 90
        2
176
     1
  1
strokes_ogs.tif
176
     1
290
     0
176
     1
 40
1.0
176
     1
 40
1.0
176
     1
  0
VISUALSTYLE
  5
4A9
102
{ACAD_REACTORS
330
4A8
102
}
330
4A8
100
AcDbVisualStyle
  2
Flat
 70
     0
177
     3
291
     1
 70
    58
 90
        2
176
     1
 90
        1
176
     1
 90
        1
176
     1
 90
        2
176
     1
 40
0.6
176
     1
 40
30.0
176
     1
 62
     7
420
 16777215
176
     1
 90
        0
176
     1
 90
        0
176
     1
 62
     7
176
     1
 62
   257
176
     1
 90
        1
176
     1
 90
        1
176
     1
 40
1.0
176
     1
 90
        8
176
     1
 62
     7
176
     1
 40
1.0
176
     1
 90
        1
176
     1
 90
        6
176
     1
 90
        2
176
     1
 62
     7
176
     1
 90
        5
176
     1
 90
        0
176
     1
 90
        0
176
     1
290
     0
176
     1
 90
       13
176
     1
 40
0.0
176
     1
 90
        0
176
     1
290
     0
176
     1
290
     1
176
     1
290
     1
176
     1
290
     0
176
     1
290
     0
176
     1
290
     0
176
     1
290
     0
176
     1
290
     0
176
     1
290
     0
176
     1
 90
       50
176
     1
 40
0.0
176
     1
 40
1.0
176
     1
 90
        0
176
     1
 62
    18
420
        0
176
     1
 90
       50
176
     1
 90
        3
176
     1
 62
     5
420
      255
176
     1
290
     0
176
     1
 90
       50
176
     1
 90
       50
176
     1
 90
       50
176
     1
290
     0
176
     1
 90
       50
176
     1
 62
   256
176
     0
 40
1.0
176
     0
 90
        2
176
     1
  1
strokes_ogs.tif
176
     1
290
     0
176
     1
 40
1.0
176
     1
 40
1.0
176
     1
  0
VISUALSTYLE
  5
4AA
102
{ACAD_REACTORS
330
4A8
102
}
330
4A8
100
AcDbVisualStyle
  2
FlatWithEdges
 70
     1
177
     3
291
     1
 70
    58
 90
        2
176
     1
 90
        1
176
     1
 90
        1
176
     1
 90
        2
176
     1
 40
0.6
176
     1
 40
30.0
176
     1
 62
     7
420
 16777215
176
     1
 90
        1
176
     1
 90
        0
176
     1
 62
     7
176
     1
 62
   257
176
     1
 90
        1
176
     1
 90
        1
176
     1
 40
1.0
176
     1
 90
        0
176
     1
 62
   257
176
     1
 40
1.0
176
     1
 90
        1
176
     1
 90
        6
176
     1
 90
        2
176
     1
 62
     7
176
     1
 90
        5
176
     1
 90
        0
176
     1
 90
        0
176
     1
290
     0
176
     1
 90
       13
176
     1
 40
0.0
176
     1
 90
        0
176
     1
290
     0
176
     1
290
     1
176
     1
290
     1
176
     1
290
     0
176
     1
290
     0
176
     1
290
     0
176
     1
290
     0
176
     1
290
     0
176
     1
290
     0
176
     1
 90
       50
176
     1
 40
0.0
176
     1
 40
1.0
176
     1
 90
        0
176
     1
 62
    18
420
        0
176
     1
 90
       50
176
     1
 90
        3
176
     1
 62
     5
420
      255
176
     1
290
     0
176
     1
 90
       50
176
     1
 90
       50
176
     1
 90
       50
176
     1
290
     0
176
     1
 90
       50
176
     1
 62
   256
176
     0
 40
1.0
176
     0
 90
        2
176
     1
  1
strokes_ogs.tif
176
     1
290
     0
176
     1
 40
1.0
176
     1
 40
1.0
176
     1
  0
VISUALSTYLE
  5
4AB
102
{ACAD_REACTORS
330
4A8
102
}
330
4A8
100
AcDbVisualStyle
  2
Gouraud
 70
     2
177
     3
291
     1
 70
    58
 90
        2
176
     1
 90
        2
176
     1
 90
        1
176
     1
 90
        2
176
     1
 40
0.6
176
     1
 40
30.0
176
     1
 62
     7
420
 16777215
176
     1
 90
        0
176
     1
 90
        0
176
     1
 62
     7
176
     1
 62
   257
176
     1
 90
        1
176
     1
 90
        1
176
     1
 40
1.0
176
     1
 90
        0
176
     1
 62
     7
176
     1
 40
1.0
176
     1
 90
        1
176
     1
 90
        6
176
     1
 90
        2
176
     1
 62
     7
176
     1
 90
        5
176
     1
 90
        0
176
     1
 90
        0
176
     1
290
     0
176
     1
 90
       13
176
     1
 40
0.0
176
     1
 90
        0
176
     1
290
     0
176
     1
290
     1
176
     1
290
     1
176
     1
290
     0
176
     1
290
     0
176
     1
290
     0
176
     1
290
     0
176
     1
290
     0
176
     1
290
     0
176
     1
 90
       50
176
     1
 40
0.0
176
     1
 40
1.0
176
     1
 90
        0
176
     1
 62
    18
420
        0
176
     1
 90
       50
176
     1
 90
        3
176
     1
 62
     5
420
      255
176
     1
290
     0
176
     1
 90
       50
176
     1
 90
       50
176
     1
 90
       50
176
     1
290
     0
176
     1
 90
       50
176
     1
 62
   256
176
     0
 40
1.0
176
     0
 90
        2
176
     1
  1
strokes_ogs.tif
176
     1
290
     0
176
     1
 40
1.0
176
     1
 40
1.0
176
     1
  0
VISUALSTYLE
  5
4AC
102
{ACAD_REACTORS
330
4A8
102
}
330
4A8
100
AcDbVisualStyle
  2
GouraudWithEdges
 70
     3
177
     3
291
     1
 70
    58
 90
        2
176
     1
 90
        2
176
     1
 90
        1
176
     1
 90
        2
176
     1
 40
0.6
176
     1
 40
30.0
176
     1
 62
     7
420
 16777215
176
     1
 90
        1
176
     1
 90
        0
176
     1
 62
     7
176
     1
 62
   257
176
     1
 90
        1
176
     1
 90
        1
176
     1
 40
1.0
176
     1
 90
        0
176
     1
 62
   257
176
     1
 40
1.0
176
     1
 90
        1
176
     1
 90
        6
176
     1
 90
        2
176
     1
 62
     7
176
     1
 90
        5
176
     1
 90
        0
176
     1
 90
        0
176
     1
290
     0
176
     1
 90
       13
176
     1
 40
0.0
176
     1
 90
        0
176
     1
290
     0
176
     1
290
     1
176
     1
290
     1
176
     1
290
     0
176
     1
290
     0
176
     1
290
     0
176
     1
290
     0
176
     1
290
     0
176
     1
290
     0
176
     1
 90
       50
176
     1
 40
0.0
176
     1
 40
1.0
176
     1
 90
        0
176
     1
 62
    18
420
        0
176
     1
 90
       50
176
     1
 90
        3
176
     1
 62
     5
420
      255
176
     1
290
     0
176
     1
 90
       50
176
     1
 90
       50
176
     1
 90
       50
176
     1
290
     0
176
     1
 90
       50
176
     1
 62
   256
176
     0
 40
1.0
176
     0
 90
        2
176
     1
  1
strokes_ogs.tif
176
     1
290
     0
176
     1
 40
1.0
176
     1
 40
1.0
176
     1
  0
VISUALSTYLE
  5
4AF
102
{ACAD_REACTORS
330
4A8
102
}
330
4A8
100
AcDbVisualStyle
  2
Hidden
 70
     6
177
     3
291
     0
 70
    58
 90
        1
176
     1
 90
        2
176
     1
 90
        2
176
     1
 90
        0
176
     1
 40
0.6
176
     1
 40
30.0
176
     1
 62
     7
420
 16777215
176
     1
 90
        2
176
     1
 90
        2
176
     1
 62
     7
176
     1
 62
   257
176
     1
 90
        2
176
     1
 90
        1
176
     1
 40
40.0
176
     1
 90
        0
176
     1
 62
   257
176
     1
 40
1.0
176
     1
 90
        1
176
     1
 90
        6
176
     1
 90
        2
176
     1
 62
     7
176
     1
 90
        3
176
     1
 90
        0
176
     1
 90
        0
176
     1
290
     0
176
     1
 90
        1
176
     1
 40
0.0
176
     1
 90
        0
176
     1
290
     0
176
     1
290
     1
176
     1
290
     1
176
     1
290
     0
176
     1
290
     0
176
     1
290
     0
176
     1
290
     0
176
     1
290
     0
176
     1
290
     0
176
     1
 90
       50
176
     1
 40
0.0
176
     1
 40
1.0
176
     1
 90
        0
176
     1
 62
    18
420
        0
176
     1
 90
       50
176
     1
 90
        3
176
     1
 62
     5
420
      255
176
     1
290
     0
176
     1
 90
       50
176
     1
 90
       50
176
     1
 90
       50
176
     1
290
     0
176
     1
 90
       50
176
     1
 62
   256
176
     0
 40
1.0
176
     0
 90
        2
176
     1
  1
strokes_ogs.tif
176
     1
290
     0
176
     1
 40
1.0
176
     1
 40
1.0
176
     1
  0
VISUALSTYLE
  5
4B9
102
{ACAD_REACTORS
330
4A8
102
}
330
4A8
100
AcDbVisualStyle
  2
JitterOff
 70
    20
177
     3
291
     1
 70
    58
 90
        2
176
     0
 90
        2
176
     0
 90
        0
176
     0
 90
        0
176
     0
 40
0.6
176
     0
 40
30.0
176
     0
 62
     7
420
 16777215
176
     0
 90
        1
176
     0
 90
        4
176
     0
 62
     7
176
     0
 62
   257
176
     0
 90
        1
176
     0
 90
        1
176
     0
 40
1.0
176
     0
 90
       10
176
     2
 62
     7
176
     0
 40
1.0
176
     0
 90
        1
176
     0
 90
        6
176
     0
 90
        2
176
     0
 62
     7
176
     0
 90
        5
176
     0
 90
        0
176
     0
 90
        0
176
     0
290
     0
176
     0
 90
        1
176
     0
 40
0.0
176
     0
 90
        0
176
     0
290
     0
176
     0
290
     1
176
     0
290
     1
176
     0
290
     0
176
     0
290
     0
176
     0
290
     0
176
     0
290
     0
176
     0
290
     0
176
     0
290
     0
176
     0
 90
       50
176
     0
 40
0.0
176
     0
 40
1.0
176
     0
 90
        0
176
     0
 62
    18
420
        0
176
     0
 90
       50
176
     0
 90
        3
176
     0
 62
     5
420
      255
176
     0
290
     0
176
     0
 90
       50
176
     0
 90
       50
176
     0
 90
       50
176
     0
290
     0
176
     0
 90
       50
176
     0
 62
   256
176
     0
 40
1.0
176
     0
 90
        2
176
     0
  1
strokes_ogs.tif
176
     0
290
     0
176
     0
 40
1.0
176
     0
 40
1.0
176
     0
  0
VISUALSTYLE
  5
4B6
102
{ACAD_REACTORS
330
4A8
102
}
330
4A8
100
AcDbVisualStyle
  2
Linepattern
 70
    14
177
     3
291
     1
 70
    58
 90
        2
176
     1
 90
        2
176
     1
 90
        0
176
     1
 90
        0
176
     1
 40
0.6
176
     1
 40
30.0
176
     1
 62
     7
420
 16777215
176
     1
 90
        1
176
     1
 90
        4
176
     1
 62
     7
176
     1
 62
   257
176
     1
 90
        7
176
     1
 90
        7
176
     1
 40
1.0
176
     1
 90
        8
176
     1
 62
     7
176
     1
 40
1.0
176
     1
 90
        1
176
     1
 90
        6
176
     1
 90
        2
176
     1
 62
     7
176
     1
 90
        5
176
     1
 90
        0
176
     1
 90
        0
176
     1
290
     0
176
     1
 90
        1
176
     1
 40
0.0
176
     1
 90
        0
176
     1
290
     0
176
     1
290
     1
176
     1
290
     1
176
     1
290
     0
176
     1
290
     0
176
     1
290
     0
176
     1
290
     0
176
     1
290
     0
176
     1
290
     0
176
     1
 90
       50
176
     1
 40
0.0
176
     1
 40
1.0
176
     1
 90
        0
176
     1
 62
    18
420
        0
176
     1
 90
       50
176
     1
 90
        3
176
     1
 62
     5
420
      255
176
     1
290
     0
176
     1
 90
       50
176
     1
 90
       50
176
     1
 90
       50
176
     1
290
     0
176
     1
 90
       50
176
     1
 62
   256
176
     0
 40
1.0
176
     0
 90
        2
176
     1
  1
strokes_ogs.tif
176
     1
290
     0
176
     1
 40
1.0
176
     1
 40
1.0
176
     1
  0
VISUALSTYLE
  5
4BA
102
{ACAD_REACTORS
330
4A8
102
}
330
4A8
100
AcDbVisualStyle
  2
OverhangOff
 70
    21
177
     3
291
     1
 70
    58
 90
        2
176
     0
 90
        2
176
     0
 90
        0
176
     0
 90
        0
176
     0
 40
0.6
176
     0
 40
30.0
176
     0
 62
     7
420
 16777215
176
     0
 90
        1
176
     0
 90
        4
176
     0
 62
     7
176
     0
 62
   257
176
     0
 90
        1
176
     0
 90
        1
176
     0
 40
1.0
176
     0
 90
        9
176
     2
 62
     7
176
     0
 40
1.0
176
     0
 90
        1
176
     0
 90
        6
176
     0
 90
        2
176
     0
 62
     7
176
     0
 90
        5
176
     0
 90
        0
176
     0
 90
        0
176
     0
290
     0
176
     0
 90
        1
176
     0
 40
0.0
176
     0
 90
        0
176
     0
290
     0
176
     0
290
     1
176
     0
290
     1
176
     0
290
     0
176
     0
290
     0
176
     0
290
     0
176
     0
290
     0
176
     0
290
     0
176
     0
290
     0
176
     0
 90
       50
176
     0
 40
0.0
176
     0
 40
1.0
176
     0
 90
        0
176
     0
 62
    18
420
        0
176
     0
 90
       50
176
     0
 90
        3
176
     0
 62
     5
420
      255
176
     0
290
     0
176
     0
 90
       50
176
     0
 90
       50
176
     0
 90
       50
176
     0
290
     0
176
     0
 90
       50
176
     0
 62
   256
176
     0
 40
1.0
176
     0
 90
        2
176
     0
  1
strokes_ogs.tif
176
     0
290
     0
176
     0
 40
1.0
176
     0
 40
1.0
176
     0
  0
VISUALSTYLE
  5
4B1
102
{ACAD_REACTORS
330
4A8
102
}
330
4A8
100
AcDbVisualStyle
  2
Realistic
 70
     8
177
     3
291
     0
 70
    58
 90
        2
176
     1
 90
        3
176
     1
 90
        0
176
     1
 90
        2
176
     1
 40
0.6
176
     1
 40
30.0
176
     1
 62
     7
420
 16777215
176
     1
 90
        0
176
     1
 90
        0
176
     1
 62
     7
176
     1
 62
   257
176
     1
 90
        1
176
     1
 90
        1
176
     1
 40
1.0
176
     1
 90
        8
176
     1
 62
   257
176
     1
 40
1.0
176
     1
 90
        1
176
     1
 90
        6
176
     1
 90
        2
176
     1
 62
     7
176
     1
 90
        3
176
     1
 90
        0
176
     1
 90
        0
176
     1
290
     0
176
     1
 90
       13
176
     1
 40
0.0
176
     1
 90
        0
176
     1
290
     0
176
     1
290
     1
176
     1
290
     1
176
     1
290
     0
176
     1
290
     0
176
     1
290
     0
176
     1
290
     0
176
     1
290
     0
176
     1
290
     0
176
     1
 90
       50
176
     1
 40
0.0
176
     1
 40
1.0
176
     1
 90
        0
176
     1
 62
    18
420
        0
176
     1
 90
       50
176
     1
 90
        3
176
     1
 62
     5
420
      255
176
     1
290
     0
176
     1
 90
       50
176
     1
 90
       50
176
     1
 90
       50
176
     1
290
     0
176
     1
 90
       50
176
     1
 62
   256
176
     0
 40
1.0
176
     0
 90
        2
176
     1
  1
strokes_ogs.tif
176
     1
290
     0
176
     1
 40
1.0
176
     1
 40
1.0
176
     1
  0
VISUALSTYLE
  5
4C0
102
{ACAD_REACTORS
330
4A8
102
}
330
4A8
100
AcDbVisualStyle
  2
Shaded
 70
    27
177
     3
291
     0
 70
    58
 90
        2
176
     1
 90
        2
176
     1
 90
        1
176
     1
 90
        2
176
     1
 40
0.6
176
     1
 40
30.0
176
     1
 62
     7
420
 16777215
176
     1
 90
        0
176
     1
 90
        4
176
     1
 62
     7
176
     1
 62
   257
176
     1
 90
        1
176
     1
 90
        1
176
     1
 40
1.0
176
     1
 90
        8
176
     1
 62
   257
176
     1
 40
1.0
176
     1
 90
        1
176
     1
 90
        6
176
     1
 90
        2
176
     1
 62
     8
420
  7895160
176
     1
 90
        3
176
     1
 90
        0
176
     1
 90
        0
176
     1
290
     0
176
     1
 90
        5
176
     1
 40
0.0
176
     1
 90
        0
176
     1
290
     0
176
     1
290
     1
176
     1
290
     1
176
     1
290
     0
176
     1
290
     0
176
     1
290
     0
176
     1
290
     0
176
     1
290
     0
176
     1
290
     0
176
     1
 90
       50
176
     1
 40
0.0
176
     1
 40
1.0
176
     1
 90
        0
176
     1
 62
    18
420
        0
176
     1
 90
       50
176
     1
 90
        3
176
     1
 62
     5
420
      255
176
     1
290
     0
176
     1
 90
       50
176
     1
 90
       50
176
     1
 90
       50
176
     1
290
     0
176
     1
 90
       50
176
     1
 62
   256
176
     0
 40
1.0
176
     0
 90
        2
176
     1
  1
strokes_ogs.tif
176
     1
290
     0
176
     1
 40
1.0
176
     1
 40
1.0
176
     1
  0
VISUALSTYLE
  5
4BF
102
{ACAD_REACTORS
330
4A8
102
}
330
4A8
100
AcDbVisualStyle
  2
Shaded with edges
 70
    26
177
     3
291
     0
 70
    58
 90
        2
176
     1
 90
        2
176
     1
 90
        1
176
     1
 90
        2
176
     1
 40
0.6
176
     1
 40
30.0
176
     1
 62
     7
420
 16777215
176
     1
 90
        1
176
     1
 90
       10
176
     1
 62
     7
176
     1
 62
   257
176
     1
 90
        2
176
     1
 90
        1
176
     1
 40
1.0
176
     1
 90
        8
176
     1
 62
   257
176
     1
 40
1.0
176
     1
 90
        1
176
     1
 90
        6
176
     1
 90
        2
176
     1
 62
     7
176
     1
 90
        3
176
     1
 90
        0
176
     1
 90
        0
176
     1
290
     0
176
     1
 90
        5
176
     1
 40
0.0
176
     1
 90
        0
176
     1
290
     0
176
     1
290
     1
176
     1
290
     1
176
     1
290
     0
176
     1
290
     0
176
     1
290
     0
176
     1
290
     0
176
     1
290
     0
176
     1
290
     0
176
     1
 90
       50
176
     1
 40
0.0
176
     1
 40
1.0
176
     1
 90
        0
176
     1
 62
    18
420
        0
176
     1
 90
       50
176
     1
 90
        3
176
     1
 62
     5
420
      255
176
     1
290
     0
176
     1
 90
       50
176
     1
 90
       50
176
     1
 90
       50
176
     1
290
     0
176
     1
 90
       50
176
     1
 62
   256
176
     0
 40
1.0
176
     0
 90
        2
176
     1
  1
strokes_ogs.tif
176
     1
290
     0
176
     1
 40
1.0
176
     1
 40
1.0
176
     1
  0
VISUALSTYLE
  5
4BC
102
{ACAD_REACTORS
330
4A8
102
}
330
4A8
100
AcDbVisualStyle
  2
Shades of Gray
 70
    23
177
     3
291
     0
 70
    58
 90
        2
176
     1
 90
        2
176
     1
 90
        3
176
     1
 90
        0
176
     1
 40
0.6
176
     1
 40
30.0
176
     1
 62
     7
420
 16777215
176
     1
 90
        2
176
     1
 90
        2
176
     1
 62
     7
176
     1
 62
     7
176
     1
 90
        1
176
     1
 90
        1
176
     1
 40
40.0
176
     1
 90
        8
176
     1
 62
     7
176
     1
 40
1.0
176
     1
 90
        1
176
     1
 90
        6
176
     1
 90
        2
176
     1
 62
     7
176
     1
 90
        3
176
     1
 90
        0
176
     1
 90
        0
176
     1
290
     0
176
     1
 90
        1
176
     1
 40
0.0
176
     1
 90
        0
176
     1
290
     0
176
     1
290
     1
176
     1
290
     1
176
     1
290
     0
176
     1
290
     0
176
     1
290
     0
176
     1
290
     0
176
     1
290
     0
176
     1
290
     0
176
     1
 90
       50
176
     1
 40
0.0
176
     1
 40
1.0
176
     1
 90
        0
176
     1
 62
    18
420
        0
176
     1
 90
       50
176
     1
 90
        3
176
     1
 62
     5
420
      255
176
     1
290
     0
176
     1
 90
       50
176
     1
 90
       50
176
     1
 90
       50
176
     1
290
     0
176
     1
 90
       50
176
     1
 62
   256
176
     0
 40
1.0
176
     0
 90
        2
176
     1
  1
strokes_ogs.tif
176
     1
290
     0
176
     1
 40
1.0
176
     1
 40
1.0
176
     1
  0
VISUALSTYLE
  5
4BD
102
{ACAD_REACTORS
330
4A8
102
}
330
4A8
100
AcDbVisualStyle
  2
Sketchy
 70
    24
177
     3
291
     0
 70
    58
 90
        1
176
     1
 90
        2
176
     1
 90
        2
176
     1
 90
        0
176
     1
 40
0.6
176
     1
 40
30.0
176
     1
 62
     7
420
 16777215
176
     1
 90
        2
176
     1
 90
        2
176
     1
 62
     7
176
     1
 62
     7
176
     1
 90
        1
176
     1
 90
        1
176
     1
 40
40.0
176
     1
 90
       11
176
     1
 62
     7
176
     1
 40
1.0
176
     1
 90
        1
176
     1
 90
        6
176
     1
 90
        2
176
     1
 62
     7
176
     1
 90
        6
176
     1
 90
        0
176
     1
 90
        0
176
     1
290
     0
176
     1
 90
        1
176
     1
 40
0.0
176
     1
 90
        0
176
     1
290
     0
176
     1
290
     1
176
     1
290
     1
176
     1
290
     0
176
     1
290
     0
176
     1
290
     0
176
     1
290
     0
176
     1
290
     0
176
     1
290
     0
176
     1
 90
       50
176
     1
 40
0.0
176
     1
 40
1.0
176
     1
 90
        0
176
     1
 62
    18
420
        0
176
     1
 90
       50
176
     1
 90
        3
176
     1
 62
     5
420
      255
176
     1
290
     0
176
     1
 90
       50
176
     1
 90
       50
176
     1
 90
       50
176
     1
290
     0
176
     1
 90
       50
176
     1
 62
   256
176
     0
 40
1.0
176
     0
 90
        2
176
     1
  1
strokes_ogs.tif
176
     1
290
     0
176
     1
 40
1.0
176
     1
 40
1.0
176
     1
  0
VISUALSTYLE
  5
4B5
102
{ACAD_REACTORS
330
4A8
102
}
330
4A8
100
AcDbVisualStyle
  2
Thicken
 70
    13
177
     3
291
     1
 70
    58
 90
        2
176
     1
 90
        2
176
     1
 90
        0
176
     1
 90
        0
176
     1
 40
0.6
176
     1
 40
30.0
176
     1
 62
     7
420
 16777215
176
     1
 90
        1
176
     1
 90
        4
176
     1
 62
     7
176
     1
 62
   257
176
     1
 90
        1
176
     1
 90
        1
176
     1
 40
1.0
176
     1
 90
       12
176
     1
 62
     7
176
     1
 40
1.0
176
     1
 90
        1
176
     1
 90
        6
176
     1
 90
        2
176
     1
 62
     7
176
     1
 90
        5
176
     1
 90
        0
176
     1
 90
        0
176
     1
290
     0
176
     1
 90
        1
176
     1
 40
0.0
176
     1
 90
        0
176
     1
290
     0
176
     1
290
     1
176
     1
290
     1
176
     1
290
     0
176
     1
290
     0
176
     1
290
     0
176
     1
290
     0
176
     1
290
     0
176
     1
290
     0
176
     1
 90
       50
176
     1
 40
0.0
176
     1
 40
1.0
176
     1
 90
        0
176
     1
 62
    18
420
        0
176
     1
 90
       50
176
     1
 90
        3
176
     1
 62
     5
420
      255
176
     1
290
     0
176
     1
 90
       50
176
     1
 90
       50
176
     1
 90
       50
176
     1
290
     0
176
     1
 90
       50
176
     1
 62
   256
176
     0
 40
1.0
176
     0
 90
        2
176
     1
  1
strokes_ogs.tif
176
     1
290
     0
176
     1
 40
1.0
176
     1
 40
1.0
176
     1
  0
VISUALSTYLE
  5
4AE
102
{ACAD_REACTORS
330
4A8
102
}
330
4A8
100
AcDbVisualStyle
  2
Wireframe
 70
     5
177
     3
291
     0
 70
    58
 90
        0
176
     1
 90
        2
176
     1
 90
        0
176
     1
 90
        0
176
     1
 40
0.6
176
     1
 40
30.0
176
     1
 62
     7
420
 16777215
176
     1
 90
        1
176
     1
 90
        4
176
     1
 62
     7
176
     1
 62
   257
176
     1
 90
        1
176
     1
 90
        1
176
     1
 40
1.0
176
     1
 90
        0
176
     1
 62
   257
176
     1
 40
1.0
176
     1
 90
        1
176
     1
 90
        6
176
     1
 90
        2
176
     1
 62
     7
176
     1
 90
        3
176
     1
 90
        0
176
     1
 90
        0
176
     1
290
     0
176
     1
 90
        1
176
     1
 40
0.0
176
     1
 90
        0
176
     1
290
     0
176
     1
290
     1
176
     1
290
     1
176
     1
290
     0
176
     1
290
     0
176
     1
290
     0
176
     1
290
     0
176
     1
290
     0
176
     1
290
     0
176
     1
 90
       50
176
     1
 40
0.0
176
     1
 40
1.0
176
     1
 90
        0
176
     1
 62
    18
420
        0
176
     1
 90
       50
176
     1
 90
        3
176
     1
 62
     5
420
      255
176
     1
290
     0
176
     1
 90
       50
176
     1
 90
       50
176
     1
 90
       50
176
     1
290
     0
176
     1
 90
       50
176
     1
 62
   256
176
     0
 40
1.0
176
     0
 90
        2
176
     1
  1
strokes_ogs.tif
176
     1
290
     0
176
     1
 40
1.0
176
     1
 40
1.0
176
     1
  0
VISUALSTYLE
  5
4BE
102
{ACAD_REACTORS
330
4A8
102
}
330
4A8
100
AcDbVisualStyle
  2
X-Ray
 70
    25
177
     3
291
     0
 70
    58
 90
        2
176
     1
 90
        2
176
     1
 90
        1
176
     1
 90
        1
176
     1
 40
0.5
176
     1
 40
30.0
176
     1
 62
     7
420
 16777215
176
     1
 90
        1
176
     1
 90
        0
176
     1
 62
     7
176
     1
 62
   257
176
     1
 90
        1
176
     1
 90
        1
176
     1
 40
1.0
176
     1
 90
        8
176
     1
 62
     7
176
     1
 40
1.0
176
     1
 90
        1
176
     1
 90
        6
176
     1
 90
        2
176
     1
 62
     7
176
     1
 90
        3
176
     1
 90
        0
176
     1
 90
        0
176
     1
290
     0
176
     1
 90
       13
176
     1
 40
0.0
176
     1
 90
        0
176
     1
290
     0
176
     1
290
     1
176
     1
290
     1
176
     1
290
     0
176
     1
290
     0
176
     1
290
     0
176
     1
290
     0
176
     1
290
     0
176
     1
290
     0
176
     1
 90
       50
176
     1
 40
0.0
176
     1
 40
1.0
176
     1
 90
        0
176
     1
 62
    18
420
        0
176
     1
 90
       50
176
     1
 90
        3
176
     1
 62
     5
420
      255
176
     1
290
     0
176
     1
 90
       50
176
     1
 90
       50
176
     1
 90
       50
176
     1
290
     0
176
     1
 90
       50
176
     1
 62
   256
176
     0
 40
1.0
176
     0
 90
        2
176
     1
  1
strokes_ogs.tif
176
     1
290
     0
176
     1
 40
1.0
176
     1
 40
1.0
176
     1
  0
DICTIONARYVAR
  5
4CB
102
{ACAD_REACTORS
330
4CA
102
}
330
4CA
100
DictionaryVariables
280
     0
  1
1:1
  0
DICTIONARYVAR
  5
4D0
102
{ACAD_REACTORS
330
4CA
102
}
330
4CA
100
DictionaryVariables
280
     0
  1
Standard
  0
DICTIONARYVAR
  5
4CF
102
{ACAD_REACTORS
330
4CA
102
}
330
4CA
100
DictionaryVariables
280
     0
  1
Standard
  0
DICTIONARYVAR
  5
4D1
102
{ACAD_REACTORS
330
4CA
102
}
330
4CA
100
DictionaryVariables
280
     0
  1
0
  0
DICTIONARY
  5
4CC
330
4C6
100
AcDbDictionary
280
     1
281
     1
  3
ACAD_ROUNDTRIP_2008_TABLESTYLE_CELLSTYLEMAP
360
4CD
  0
CELLSTYLEMAP
  5
4CD
102
{ACAD_REACTORS
330
4CC
102
}
330
4CC
100
AcDbCellStyleMap
 90
        3
300
CELLSTYLE
  1
TABLEFORMAT_BEGIN
 90
        5
170
     1
 91
        0
 92
    32768
 62
   257
 93
        1
300
CONTENTFORMAT
  1
CONTENTFORMAT_BEGIN
 90
        0
 91
        0
 92
        4
 93
        0
300

 40
0.0
140
1.0
 94
        5
 62
     0
340
11
144
6.0
309
CONTENTFORMAT_END
171
     1
301
MARGIN
  1
CELLMARGIN_BEGIN
 40
1.5
 40
1.5
 40
1.5
 40
1.5
 40
1.5
 40
1.5
309
CELLMARGIN_END
 94
        6
 95
        1
302
GRIDFORMAT
  1
GRIDFORMAT_BEGIN
 90
        0
 91
        1
 62
     0
 92
       -2
340
14
 93
        0
 40
0.045
309
GRIDFORMAT_END
 95
        2
302
GRIDFORMAT
  1
GRIDFORMAT_BEGIN
 90
        0
 91
        1
 62
     0
 92
       -2
340
14
 93
        0
 40
0.045
309
GRIDFORMAT_END
 95
        4
302
GRIDFORMAT
  1
GRIDFORMAT_BEGIN
 90
        0
 91
        1
 62
     0
 92
       -2
340
14
 93
        0
 40
0.045
309
GRIDFORMAT_END
 95
        8
302
GRIDFORMAT
  1
GRIDFORMAT_BEGIN
 90
        0
 91
        1
 62
     0
 92
       -2
340
14
 93
        0
 40
0.045
309
GRIDFORMAT_END
 95
       16
302
GRIDFORMAT
  1
GRIDFORMAT_BEGIN
 90
        0
 91
        1
 62
     0
 92
       -2
340
14
 93
        0
 40
0.045
309
GRIDFORMAT_END
 95
       32
302
GRIDFORMAT
  1
GRIDFORMAT_BEGIN
 90
        0
 91
        1
 62
     0
 92
       -2
340
14
 93
        0
 40
0.045
309
GRIDFORMAT_END
309
TABLEFORMAT_END
  1
CELLSTYLE_BEGIN
 90
        1
 91
        1
300
_TITLE
309
CELLSTYLE_END
300
CELLSTYLE
  1
TABLEFORMAT_BEGIN
 90
        5
170
     1
 91
        0
 92
        0
 62
   257
 93
        1
300
CONTENTFORMAT
  1
CONTENTFORMAT_BEGIN
 90
        0
 91
        0
 92
        4
 93
        0
300

 40
0.0
140
1.0
 94
        5
 62
     0
340
11
144
4.5
309
CONTENTFORMAT_END
171
     1
301
MARGIN
  1
CELLMARGIN_BEGIN
 40
1.5
 40
1.5
 40
1.5
 40
1.5
 40
1.5
 40
1.5
309
CELLMARGIN_END
 94
        6
 95
        1
302
GRIDFORMAT
  1
GRIDFORMAT_BEGIN
 90
        0
 91
        1
 62
     0
 92
       -2
340
14
 93
        0
 40
0.045
309
GRIDFORMAT_END
 95
        2
302
GRIDFORMAT
  1
GRIDFORMAT_BEGIN
 90
        0
 91
        1
 62
     0
 92
       -2
340
14
 93
        0
 40
0.045
309
GRIDFORMAT_END
 95
        4
302
GRIDFORMAT
  1
GRIDFORMAT_BEGIN
 90
        0
 91
        1
 62
     0
 92
       -2
340
14
 93
        0
 40
0.045
309
GRIDFORMAT_END
 95
        8
302
GRIDFORMAT
  1
GRIDFORMAT_BEGIN
 90
        0
 91
        1
 62
     0
 92
       -2
340
14
 93
        0
 40
0.045
309
GRIDFORMAT_END
 95
       16
302
GRIDFORMAT
  1
GRIDFORMAT_BEGIN
 90
        0
 91
        1
 62
     0
 92
       -2
340
14
 93
        0
 40
0.045
309
GRIDFORMAT_END
 95
       32
302
GRIDFORMAT
  1
GRIDFORMAT_BEGIN
 90
        0
 91
        1
 62
     0
 92
       -2
340
14
 93
        0
 40
0.045
309
GRIDFORMAT_END
309
TABLEFORMAT_END
  1
CELLSTYLE_BEGIN
 90
        2
 91
        1
300
_HEADER
309
CELLSTYLE_END
300
CELLSTYLE
  1
TABLEFORMAT_BEGIN
 90
        5
170
     1
 91
        0
 92
        0
 62
   257
 93
        1
300
CONTENTFORMAT
  1
CONTENTFORMAT_BEGIN
 90
        0
 91
        0
 92
        4
 93
        0
300

 40
0.0
140
1.0
 94
        2
 62
     0
340
11
144
4.5
309
CONTENTFORMAT_END
171
     1
301
MARGIN
  1
CELLMARGIN_BEGIN
 40
1.5
 40
1.5
 40
1.5
 40
1.5
 40
1.5
 40
1.5
309
CELLMARGIN_END
 94
        6
 95
        1
302
GRIDFORMAT
  1
GRIDFORMAT_BEGIN
 90
        0
 91
        1
 62
     0
 92
       -2
340
14
 93
        0
 40
0.045
309
GRIDFORMAT_END
 95
        2
302
GRIDFORMAT
  1
GRIDFORMAT_BEGIN
 90
        0
 91
        1
 62
     0
 92
       -2
340
14
 93
        0
 40
0.045
309
GRIDFORMAT_END
 95
        4
302
GRIDFORMAT
  1
GRIDFORMAT_BEGIN
 90
        0
 91
        1
 62
     0
 92
       -2
340
14
 93
        0
 40
0.045
309
GRIDFORMAT_END
 95
        8
302
GRIDFORMAT
  1
GRIDFORMAT_BEGIN
 90
        0
 91
        1
 62
     0
 92
       -2
340
14
 93
        0
 40
0.045
309
GRIDFORMAT_END
 95
       16
302
GRIDFORMAT
  1
GRIDFORMAT_BEGIN
 90
        0
 91
        1
 62
     0
 92
       -2
340
14
 93
        0
 40
0.045
309
GRIDFORMAT_END
 95
       32
302
GRIDFORMAT
  1
GRIDFORMAT_BEGIN
 90
        0
 91
        1
 62
     0
 92
       -2
340
14
 93
        0
 40
0.045
309
GRIDFORMAT_END
309
TABLEFORMAT_END
  1
CELLSTYLE_BEGIN
 90
        3
 91
        2
300
_DATA
309
CELLSTYLE_END
  0
ENDSEC
  0
EOF
