  0
SECTION
  2
HEADER
  9
$ACADVER
  1
AC1027
  9
$ACADMAINTVER
 70
   105
  9
$DWGCODEPAGE
  3
ANSI_1252
  9
$REQUIREDVERSIONS
160
                 0
  9
$LASTSAVEDBY
  1
andrea.zolin
  9
$INSBASE
 10
0.0
 20
0.0
 30
0.0
  9
$EXTMIN
 10
0.0
 20
0.0
 30
0.0
  9
$EXTMAX
 10
594.0
 20
420.0
 30
0.0
  9
$LIMMIN
 10
0.0
 20
0.0
  9
$LIMMAX
 10
594.0
 20
420.0
  9
$ORTHOMODE
 70
     0
  9
$REGENMODE
 70
     1
  9
$FILLMODE
 70
     1
  9
$QTEXTMODE
 70
     0
  9
$MIRRTEXT
 70
     1
  9
$LTSCALE
 40
32.67
  9
$ATTMODE
 70
     1
  9
$TEXTSIZE
 40
0.2
  9
$TRACEWID
 40
0.05
  9
$TEXTSTYLE
  7
STANDARD
  9
$CLAYER
  8
0
  9
$CELTYPE
  6
BYLAYER
  9
$CECOLOR
 62
   256
  9
$CELTSCALE
 40
1.0
  9
$DISPSILH
 70
     0
  9
$DIMSCALE
 40
1.0
  9
$DIMASZ
 40
2.5
  9
$DIMEXO
 40
0.75
  9
$DIMDLI
 40
22.572
  9
$DIMRND
 40
0.0
  9
$DIMDLE
 40
0.0
  9
$DIMEXE
 40
0.75
  9
$DIMTP
 40
0.01
  9
$DIMTM
 40
0.01
  9
$DIMTXT
 40
3.0
  9
$DIMCEN
 40
5.346
  9
$DIMTSZ
 40
0.0
  9
$DIMTOL
 70
     1
  9
$DIMLIM
 70
     0
  9
$DIMTIH
 70
     1
  9
$DIMTOH
 70
     1
  9
$DIMSE1
 70
     0
  9
$DIMSE2
 70
     0
  9
$DIMTAD
 70
     0
  9
$DIMZIN
 70
     0
  9
$DIMBLK
  1
CLOSED
  9
$DIMASO
 70
     1
  9
$DIMSHO
 70
     1
  9
$DIMPOST
  1

  9
$DIMAPOST
  1

  9
$DIMALT
 70
     0
  9
$DIMALTD
 70
     2
  9
$DIMALTF
 40
25.4
  9
$DIMLFAC
 40
1.0
  9
$DIMTOFL
 70
     0
  9
$DIMTVP
 40
0.0
  9
$DIMTIX
 70
     0
  9
$DIMSOXD
 70
     0
  9
$DIMSAH
 70
     0
  9
$DIMBLK1
  1

  9
$DIMBLK2
  1

  9
$DIMSTYLE
  2
STANDARD
  9
$DIMCLRD
 70
     0
  9
$DIMCLRE
 70
     0
  9
$DIMCLRT
 70
     0
  9
$DIMTFAC
 40
1.0
  9
$DIMGAP
 40
0.625
  9
$DIMJUST
 70
     0
  9
$DIMSD1
 70
     0
  9
$DIMSD2
 70
     0
  9
$DIMTOLJ
 70
     1
  9
$DIMTZIN
 70
     0
  9
$DIMALTZ
 70
     0
  9
$DIMALTTZ
 70
     0
  9
$DIMUPT
 70
     0
  9
$DIMDEC
 70
     4
  9
$DIMTDEC
 70
     4
  9
$DIMALTU
 70
     2
  9
$DIMALTTD
 70
     2
  9
$DIMTXSTY
  7
STANDARD
  9
$DIMAUNIT
 70
     0
  9
$DIMADEC
 70
     0
  9
$DIMALTRND
 40
0.0
  9
$DIMAZIN
 70
     0
  9
$DIMDSEP
 70
    46
  9
$DIMATFIT
 70
     3
  9
$DIMFRAC
 70
     0
  9
$DIMLDRBLK
  1

  9
$DIMLUNIT
 70
     2
  9
$DIMLWD
 70
    -2
  9
$DIMLWE
 70
    -2
  9
$DIMTMOVE
 70
     2
  9
$DIMFXL
 40
1.0
  9
$DIMFXLON
 70
     0
  9
$DIMJOGANG
 40
0.7853981633974483
  9
$DIMTFILL
 70
     0
  9
$DIMTFILLCLR
 70
     0
  9
$DIMARCSYM
 70
     0
  9
$DIMLTYPE
  6

  9
$DIMLTEX1
  6

  9
$DIMLTEX2
  6

  9
$DIMTXTDIRECTION
 70
     0
  9
$LUNITS
 70
     2
  9
$LUPREC
 70
     4
  9
$SKETCHINC
 40
0.1
  9
$FILLETRAD
 40
0.5
  9
$AUNITS
 70
     0
  9
$AUPREC
 70
     0
  9
$MENU
  1
.
  9
$ELEVATION
 40
0.0
  9
$PELEVATION
 40
0.0
  9
$THICKNESS
 40
0.0
  9
$LIMCHECK
 70
     0
  9
$CHAMFERA
 40
0.0
  9
$CHAMFERB
 40
0.0
  9
$CHAMFERC
 40
0.0
  9
$CHAMFERD
 40
0.0
  9
$SKPOLY
 70
     0
  9
$TDCREATE
 40
2447893.041666667
  9
$TDUCREATE
 40
0.0
  9
$TDUPDATE
 40
2458473.663096667
  9
$TDUUPDATE
 40
2458473.62143
  9
$TDINDWG
 40
0.0002452315
  9
$TDUSRTIMER
 40
0.0002452315
  9
$USRTIMER
 70
     1
  9
$ANGBASE
 50
0.0
  9
$ANGDIR
 70
     0
  9
$PDMODE
 70
     3
  9
$PDSIZE
 40
0.3125
  9
$PLINEWID
 40
0.0
  9
$SPLFRAME
 70
     0
  9
$SPLINETYPE
 70
     6
  9
$SPLINESEGS
 70
     8
  9
$HANDSEED
  5
42E
  9
$SURFTAB1
 70
     6
  9
$SURFTAB2
 70
     6
  9
$SURFTYPE
 70
     6
  9
$SURFU
 70
     6
  9
$SURFV
 70
     6
  9
$UCSBASE
  2

  9
$UCSNAME
  2

  9
$UCSORG
 10
0.0
 20
0.0
 30
0.0
  9
$UCSXDIR
 10
1.0
 20
0.0
 30
0.0
  9
$UCSYDIR
 10
0.0
 20
1.0
 30
0.0
  9
$UCSORTHOREF
  2

  9
$UCSORTHOVIEW
 70
     0
  9
$UCSORGTOP
 10
0.0
 20
0.0
 30
0.0
  9
$UCSORGBOTTOM
 10
0.0
 20
0.0
 30
0.0
  9
$UCSORGLEFT
 10
0.0
 20
0.0
 30
0.0
  9
$UCSORGRIGHT
 10
0.0
 20
0.0
 30
0.0
  9
$UCSORGFRONT
 10
0.0
 20
0.0
 30
0.0
  9
$UCSORGBACK
 10
0.0
 20
0.0
 30
0.0
  9
$PUCSBASE
  2

  9
$PUCSNAME
  2

  9
$PUCSORG
 10
0.0
 20
0.0
 30
0.0
  9
$PUCSXDIR
 10
1.0
 20
0.0
 30
0.0
  9
$PUCSYDIR
 10
0.0
 20
1.0
 30
0.0
  9
$PUCSORTHOREF
  2

  9
$PUCSORTHOVIEW
 70
     0
  9
$PUCSORGTOP
 10
0.0
 20
0.0
 30
0.0
  9
$PUCSORGBOTTOM
 10
0.0
 20
0.0
 30
0.0
  9
$PUCSORGLEFT
 10
0.0
 20
0.0
 30
0.0
  9
$PUCSORGRIGHT
 10
0.0
 20
0.0
 30
0.0
  9
$PUCSORGFRONT
 10
0.0
 20
0.0
 30
0.0
  9
$PUCSORGBACK
 10
0.0
 20
0.0
 30
0.0
  9
$USERI1
 70
     0
  9
$USERI2
 70
     0
  9
$USERI3
 70
     0
  9
$USERI4
 70
     0
  9
$USERI5
 70
     0
  9
$USERR1
 40
0.0
  9
$USERR2
 40
0.0
  9
$USERR3
 40
0.0
  9
$USERR4
 40
0.0
  9
$USERR5
 40
0.0
  9
$WORLDVIEW
 70
     1
  9
$SHADEDGE
 70
     3
  9
$SHADEDIF
 70
    70
  9
$TILEMODE
 70
     0
  9
$MAXACTVP
 70
    64
  9
$PINSBASE
 10
0.0
 20
0.0
 30
0.0
  9
$PLIMCHECK
 70
     0
  9
$PEXTMIN
 10
0.0
 20
0.0
 30
0.0
  9
$PEXTMAX
 10
594.0
 20
420.0
 30
0.0
  9
$PLIMMIN
 10
-12.2568093385214
 20
-32.68482490272373
  9
$PLIMMAX
 10
674.1245136186769
 20
452.6848249027237
  9
$UNITMODE
 70
     0
  9
$VISRETAIN
 70
     1
  9
$PLINEGEN
 70
     0
  9
$PSLTSCALE
 70
     1
  9
$TREEDEPTH
 70
  3020
  9
$CMLSTYLE
  2
STANDARD
  9
$CMLJUST
 70
     0
  9
$CMLSCALE
 40
1.0
  9
$PROXYGRAPHICS
 70
     1
  9
$MEASUREMENT
 70
     1
  9
$CELWEIGHT
370
    -1
  9
$ENDCAPS
280
     0
  9
$JOINSTYLE
280
     0
  9
$LWDISPLAY
290
     0
  9
$INSUNITS
 70
     0
  9
$HYPERLINKBASE
  1

  9
$STYLESHEET
  1

  9
$XEDIT
290
     1
  9
$CEPSNTYPE
380
     0
  9
$PSTYLEMODE
290
     1
  9
$FINGERPRINTGUID
  2
{6C14DBEC-CD21-4635-BDF8-421F95D302D0}
  9
$VERSIONGUID
  2
{FAEB1C32-E019-11D5-929B-00C0DF256EC4}
  9
$EXTNAMES
290
     1
  9
$PSVPSCALE
 40
0.0
  9
$OLESTARTUP
290
     0
  9
$SORTENTS
280
   127
  9
$INDEXCTL
280
     0
  9
$HIDETEXT
280
     1
  9
$XCLIPFRAME
280
     2
  9
$HALOGAP
280
     0
  9
$OBSCOLOR
 70
   257
  9
$OBSLTYPE
280
     0
  9
$INTERSECTIONDISPLAY
280
     0
  9
$INTERSECTIONCOLOR
 70
   257
  9
$DIMASSOC
280
     2
  9
$PROJECTNAME
  1

  9
$CAMERADISPLAY
290
     0
  9
$LENSLENGTH
 40
50.0
  9
$CAMERAHEIGHT
 40
0.0
  9
$STEPSPERSEC
 40
2.0
  9
$STEPSIZE
 40
6.0
  9
$3DDWFPREC
 40
2.0
  9
$PSOLWIDTH
 40
0.25
  9
$PSOLHEIGHT
 40
4.0
  9
$LOFTANG1
 40
1.570796326794897
  9
$LOFTANG2
 40
1.570796326794897
  9
$LOFTMAG1
 40
0.0
  9
$LOFTMAG2
 40
0.0
  9
$LOFTPARAM
 70
     7
  9
$LOFTNORMALS
280
     1
  9
$LATITUDE
 40
37.795
  9
$LONGITUDE
 40
-122.394
  9
$NORTHDIRECTION
 40
0.0
  9
$TIMEZONE
 70
 -8000
  9
$LIGHTGLYPHDISPLAY
280
     1
  9
$TILEMODELIGHTSYNCH
280
     1
  9
$SOLIDHIST
280
     0
  9
$SHOWHIST
280
     1
  9
$DWFFRAME
280
     2
  9
$DGNFRAME
280
     2
  9
$REALWORLDSCALE
290
     1
  9
$INTERFERECOLOR
 62
   256
  9
$CSHADOW
280
     0
  9
$SHADOWPLANELOCATION
 40
0.0
  0
ENDSEC
  0
SECTION
  2
CLASSES
  0
CLASS
  1
ACDBDICTIONARYWDFLT
  2
AcDbDictionaryWithDefault
  3
ObjectDBX Classes
 90
        0
 91
        4
280
     0
281
     0
  0
CLASS
  1
SCALE
  2
AcDbScale
  3
ObjectDBX Classes
 90
     1153
 91
        4
280
     0
281
     0
  0
CLASS
  1
VISUALSTYLE
  2
AcDbVisualStyle
  3
ObjectDBX Classes
 90
     4095
 91
        4
280
     0
281
     0
  0
CLASS
  1
MATERIAL
  2
AcDbMaterial
  3
ObjectDBX Classes
 90
     1153
 91
        4
280
     0
281
     0
  0
CLASS
  1
TABLESTYLE
  2
AcDbTableStyle
  3
ObjectDBX Classes
 90
     4095
 91
        4
280
     0
281
     0
  0
CLASS
  1
MLEADERSTYLE
  2
AcDbMLeaderStyle
  3
ACDB_MLEADERSTYLE_CLASS
 90
     4095
 91
        4
280
     0
281
     0
  0
CLASS
  1
DICTIONARYVAR
  2
AcDbDictionaryVar
  3
ObjectDBX Classes
 90
        0
 91
        4
280
     0
281
     0
  0
CLASS
  1
CELLSTYLEMAP
  2
AcDbCellStyleMap
  3
ObjectDBX Classes
 90
     1152
 91
        4
280
     0
281
     0
  0
ENDSEC
  0
SECTION
  2
TABLES
  0
TABLE
  2
VPORT
  5
8
330
0
100
AcDbSymbolTable
 70
     1
  0
VPORT
  5
1F4
330
8
100
AcDbSymbolTableRecord
100
AcDbViewportTableRecord
  2
*ACTIVE
 70
     0
 10
0.0
 20
0.0
 11
1.0
 21
1.0
 12
297.0
 22
210.0
 13
0.0
 23
0.0
 14
1.0
 24
1.0
 15
0.0
 25
0.0
 16
0.0
 26
0.0
 36
1.0
 17
0.0
 27
0.0
 37
0.0
 40
420.0
 41
1.4142857143
 42
50.0
 43
0.0
 44
0.0
 50
0.0
 51
0.0
 71
     0
 72
   100
 73
     1
 74
     1
 75
     0
 76
     0
 77
     0
 78
     0
281
     0
 65
     1
110
0.0
120
0.0
130
0.0
111
1.0
121
0.0
131
0.0
112
0.0
122
1.0
132
0.0
 79
     0
146
0.0
348
407
 60
     3
 61
     5
292
     1
282
     1
141
0.0
142
0.0
 63
   256
  0
ENDTAB
  0
TABLE
  2
LTYPE
  5
5
330
0
100
AcDbSymbolTable
 70
     6
  0
LTYPE
  5
14
330
5
100
AcDbSymbolTableRecord
100
AcDbLinetypeTableRecord
  2
BYBLOCK
 70
     0
  3

 72
    65
 73
     0
 40
0.0
  0
LTYPE
  5
15
330
5
100
AcDbSymbolTableRecord
100
AcDbLinetypeTableRecord
  2
BYLAYER
 70
     0
  3

 72
    65
 73
     0
 40
0.0
  0
LTYPE
  5
16
330
5
100
AcDbSymbolTableRecord
100
AcDbLinetypeTableRecord
  2
CONTINUOUS
 70
     0
  3
Solid line
 72
    65
 73
     0
 40
0.0
  0
LTYPE
  5
1F5
330
5
100
AcDbSymbolTableRecord
100
AcDbLinetypeTableRecord
  2
CENTER
 70
     0
  3
____ _ ____ _ ____ _ ____ _ ____ _ ____ _ ____
 72
    65
 73
     4
 40
0.6
 49
0.375
 74
     0
 49
-0.075
 74
     0
 49
0.075
 74
     0
 49
-0.075
 74
     0
  0
LTYPE
  5
1F6
330
5
100
AcDbSymbolTableRecord
100
AcDbLinetypeTableRecord
  2
HIDDEN
 70
     0
  3
- - - - - - - - - - - - - - - - - - - -
 72
    65
 73
     2
 40
0.2
 49
0.1
 74
     0
 49
-0.1
 74
     0
  0
LTYPE
  5
1F7
330
5
100
AcDbSymbolTableRecord
100
AcDbLinetypeTableRecord
  2
PHANTOM
 70
     0
  3
_____ _ _ _____ _ _ _____ _ _ _____
 72
    65
 73
     6
 40
0.8
 49
0.45
 74
     0
 49
-0.05
 74
     0
 49
0.1
 74
     0
 49
-0.05
 74
     0
 49
0.1
 74
     0
 49
-0.05
 74
     0
  0
LTYPE
  5
1F8
330
5
100
AcDbSymbolTableRecord
100
AcDbLinetypeTableRecord
  2
DOT
 70
     0
  3
. . . . . . . . . . . . . . . . . . . .
 72
    65
 73
     2
 40
0.2
 49
0.1
 74
     0
 49
-0.1
 74
     0
  0
LTYPE
  5
1F9
330
5
100
AcDbSymbolTableRecord
100
AcDbLinetypeTableRecord
  2
DASHED
 70
     0
  3
- - - - - - - - - - - - - - - - - - - -
 72
    65
 73
     2
 40
0.2
 49
0.1
 74
     0
 49
-0.1
 74
     0
  0
ENDTAB
  0
TABLE
  2
LAYER
  5
2
330
0
100
AcDbSymbolTable
 70
    11
  0
LAYER
  5
10
330
2
100
AcDbSymbolTableRecord
100
AcDbLayerTableRecord
  2
0
 70
     0
 62
     7
  6
CONTINUOUS
370
    -3
390
3DC
347
41E
348
0
  0
LAYER
  5
1FA
330
2
100
AcDbSymbolTableRecord
100
AcDbLayerTableRecord
  2
DEFAULT_1
 70
     0
 62
     7
  6
CENTER
370
    -3
390
3DC
347
41E
348
0
  0
LAYER
  5
1FB
330
2
100
AcDbSymbolTableRecord
100
AcDbLayerTableRecord
  2
DEFAULT_2
 70
     0
 62
     8
  6
HIDDEN
370
    -3
390
3DC
347
41E
348
0
  0
LAYER
  5
1FC
330
2
100
AcDbSymbolTableRecord
100
AcDbLayerTableRecord
  2
DEFAULT_3
 70
     0
 62
     7
  6
PHANTOM
370
    -3
390
3DC
347
41E
348
0
  0
LAYER
  5
1FD
330
2
100
AcDbSymbolTableRecord
100
AcDbLayerTableRecord
  2
1_ALL_PLANES
 70
     0
 62
     7
  6
CONTINUOUS
370
    -3
390
3DC
347
41E
348
0
  0
LAYER
  5
1FE
330
2
100
AcDbSymbolTableRecord
100
AcDbLayerTableRecord
  2
3_ALL_AXES
 70
     0
 62
     7
  6
CONTINUOUS
370
    -3
390
3DC
347
41E
348
0
  0
LAYER
  5
1FF
330
2
100
AcDbSymbolTableRecord
100
AcDbLayerTableRecord
  2
4_ALL_POINTS
 70
     0
 62
     7
  6
CONTINUOUS
370
    -3
390
3DC
347
41E
348
0
  0
LAYER
  5
200
330
2
100
AcDbSymbolTableRecord
100
AcDbLayerTableRecord
  2
5_ALL_CURVES
 70
     0
 62
     7
  6
CONTINUOUS
370
    -3
390
3DC
347
41E
348
0
  0
LAYER
  5
201
330
2
100
AcDbSymbolTableRecord
100
AcDbLayerTableRecord
  2
7_ALL_FEATURES
 70
     0
 62
     7
  6
CONTINUOUS
370
    -3
390
3DC
347
41E
348
0
  0
LAYER
  5
202
330
2
100
AcDbSymbolTableRecord
100
AcDbLayerTableRecord
  2
9_SOLID
 70
     0
 62
     7
  6
CONTINUOUS
370
    -3
390
3DC
347
41E
348
0
  0
LAYER
  5
203
330
2
100
AcDbSymbolTableRecord
100
AcDbLayerTableRecord
  2
XSEC_DATUMS
 70
     0
 62
     7
  6
CONTINUOUS
370
    -3
390
3DC
347
41E
348
0
  0
ENDTAB
  0
TABLE
  2
STYLE
  5
3
330
0
100
AcDbSymbolTable
 70
     6
  0
STYLE
  5
11
330
3
100
AcDbSymbolTableRecord
100
AcDbTextStyleTableRecord
  2
STANDARD
 70
     0
 40
0.0
 41
1.0
 50
0.0
 71
     0
 42
0.2
  3
arial.ttf
  4

  0
STYLE
  5
204
330
3
100
AcDbSymbolTableRecord
100
AcDbTextStyleTableRecord
  2
TEXTSTYLE_1
 70
     0
 40
0.0
 41
0.8
 50
0.0
 71
     0
 42
0.2
  3
gdt
  4

  0
STYLE
  5
205
330
3
100
AcDbSymbolTableRecord
100
AcDbTextStyleTableRecord
  2
TEXTSTYLE_2
 70
     0
 40
0.0
 41
0.9
 50
0.0
 71
     0
 42
0.2
  3
txt
  4

  0
STYLE
  5
206
330
3
100
AcDbSymbolTableRecord
100
AcDbTextStyleTableRecord
  2
TEXTSTYLE_3
 70
     0
 40
0.0
 41
0.9
 50
0.0
 71
     0
 42
0.2
  3
txt
  4

  0
STYLE
  5
207
330
3
100
AcDbSymbolTableRecord
100
AcDbTextStyleTableRecord
  2
TEXTSTYLE_4
 70
     0
 40
0.0
 41
2.0
 50
0.0
 71
     0
 42
0.2
  3
txt
  4

  0
STYLE
  5
208
330
3
100
AcDbSymbolTableRecord
100
AcDbTextStyleTableRecord
  2
TEXTSTYLE_5
 70
     0
 40
0.0
 41
0.85
 50
0.0
 71
     0
 42
0.2
  3
txt
  4

  0
ENDTAB
  0
TABLE
  2
VIEW
  5
6
330
0
100
AcDbSymbolTable
 70
     0
  0
ENDTAB
  0
TABLE
  2
UCS
  5
7
330
0
100
AcDbSymbolTable
 70
     0
  0
ENDTAB
  0
TABLE
  2
APPID
  5
9
330
0
100
AcDbSymbolTable
 70
     1
  0
APPID
  5
209
330
9
100
AcDbSymbolTableRecord
100
AcDbRegAppTableRecord
  2
ACAD
 70
     0
  0
ENDTAB
  0
TABLE
  2
DIMSTYLE
  5
A
330
0
100
AcDbSymbolTable
 70
     3
100
AcDbDimStyleTable
  0
DIMSTYLE
105
210
330
A
100
AcDbSymbolTableRecord
100
AcDbDimStyleTableRecord
  2
STANDARD
 70
     0
 41
2.5
 42
0.75
 44
0.75
 47
0.01
 48
0.01
 71
     1
 73
     0
 74
     0
 77
     1
 78
     8
 79
     2
140
3.0
147
0.625
171
     1
178
     0
179
     2
271
     2
272
     2
284
     8
340
11
341
20A
342
20A
343
20A
344
20A
  0
DIMSTYLE
105
211
330
A
100
AcDbSymbolTableRecord
100
AcDbDimStyleTableRecord
  2
DIMSTYLE_1
 70
     0
 41
2.5
 42
0.75
 44
0.75
 47
0.5
 48
0.5
 73
     0
 74
     0
 77
     1
 78
     8
 79
     2
140
3.0
147
0.75
171
     1
178
     0
179
     2
271
     2
272
     2
284
     8
340
11
341
20A
342
20A
343
20A
344
20A
  0
DIMSTYLE
105
212
330
A
100
AcDbSymbolTableRecord
100
AcDbDimStyleTableRecord
  2
DIMSTYLE_2
 70
     0
 41
2.5
 42
0.75
 44
0.75
 47
0.2
 48
0.2
 73
     0
 74
     0
 77
     1
 78
     8
 79
     2
140
3.0
147
0.75
171
     1
178
     0
179
     2
271
     2
272
     2
284
     8
340
11
341
20A
342
20A
343
20A
344
20A
  0
ENDTAB
  0
TABLE
  2
BLOCK_RECORD
  5
1
330
0
100
AcDbSymbolTable
 70
     6
  0
BLOCK_RECORD
  5
1F
330
1
100
AcDbSymbolTableRecord
100
AcDbBlockTableRecord
  2
*MODEL_SPACE
340
400
 70
     0
280
     1
281
     0
  0
BLOCK_RECORD
  5
1B
330
1
100
AcDbSymbolTableRecord
100
AcDbBlockTableRecord
  2
*PAPER_SPACE
340
401
 70
     0
280
     1
281
     0
  0
BLOCK_RECORD
  5
20A
330
1
100
AcDbSymbolTableRecord
100
AcDbBlockTableRecord
  2
_CLOSED
340
0
102
{BLKREFS
331
265
331
266
331
26E
331
26F
331
277
331
278
102
}
 70
     0
280
     1
281
     0
  0
BLOCK_RECORD
  5
20B
330
1
100
AcDbSymbolTableRecord
100
AcDbBlockTableRecord
  2
*D1
340
0
 70
     0
280
     1
281
     0
  0
BLOCK_RECORD
  5
20C
330
1
100
AcDbSymbolTableRecord
100
AcDbBlockTableRecord
  2
*D2
340
0
 70
     0
280
     1
281
     0
  0
BLOCK_RECORD
  5
20D
330
1
100
AcDbSymbolTableRecord
100
AcDbBlockTableRecord
  2
*D3
340
0
 70
     0
280
     1
281
     0
  0
BLOCK_RECORD
  5
20E
330
1
100
AcDbSymbolTableRecord
100
AcDbBlockTableRecord
  2
LOGO2_BL1
340
0
102
{BLKREFS
331
3C4
102
}
 70
     0
280
     1
281
     0
  0
BLOCK_RECORD
  5
20F
330
1
100
AcDbSymbolTableRecord
100
AcDbBlockTableRecord
  2
PROIEZIONE_EU_BL0
340
0
102
{BLKREFS
331
3C1
102
}
 70
     0
280
     1
281
     0
  0
ENDTAB
  0
ENDSEC
  0
SECTION
  2
BLOCKS
  0
BLOCK
  5
20
330
1F
100
AcDbEntity
  8
0
100
AcDbBlockBegin
  2
*MODEL_SPACE
 70
     0
 10
0.0
 20
0.0
 30
0.0
  3
*MODEL_SPACE
  1

  0
ENDBLK
  5
21
330
1F
100
AcDbEntity
  8
0
100
AcDbBlockEnd
  0
BLOCK
  5
1C
330
1B
100
AcDbEntity
 67
     1
  8
0
100
AcDbBlockBegin
  2
*PAPER_SPACE
 70
     0
 10
0.0
 20
0.0
 30
0.0
  3
*PAPER_SPACE
  1

  0
ENDBLK
  5
1D
330
1B
100
AcDbEntity
 67
     1
  8
0
100
AcDbBlockEnd
  0
BLOCK
  5
259
330
20A
100
AcDbEntity
  8
0
100
AcDbBlockBegin
  2
_CLOSED
 70
     0
 10
0.0
 20
0.0
 30
0.0
  3
_CLOSED
  1

  0
LINE
  5
25A
330
20A
100
AcDbEntity
  8
0
  6
ByBlock
 62
     0
100
AcDbLine
 10
0.0
 20
0.0
 30
0.0
 11
-1.0
 21
0.2
 31
0.0
  0
LINE
  5
25B
330
20A
100
AcDbEntity
  8
0
  6
ByBlock
 62
     0
100
AcDbLine
 10
-1.0
 20
0.2
 30
0.0
 11
-1.0
 21
-0.2
 31
0.0
  0
LINE
  5
25C
330
20A
100
AcDbEntity
  8
0
  6
ByBlock
 62
     0
100
AcDbLine
 10
-1.0
 20
-0.2
 30
0.0
 11
0.0
 21
0.0
 31
0.0
  0
LINE
  5
25D
330
20A
100
AcDbEntity
  8
0
  6
ByBlock
 62
     0
100
AcDbLine
 10
-1.0
 20
0.0
 30
0.0
 11
0.0
 21
0.0
 31
0.0
  0
ENDBLK
  5
25E
330
20A
100
AcDbEntity
  8
0
  6
ByBlock
 62
     0
100
AcDbBlockEnd
  0
BLOCK
  5
25F
330
20B
100
AcDbEntity
  8
0
100
AcDbBlockBegin
  2
*D1
 70
     1
 10
0.0
 20
0.0
 30
0.0
  3
*D1
  1

  0
MTEXT
  5
260
330
20B
100
AcDbEntity
  8
0
  6
Continuous
 62
     2
100
AcDbMText
 10
173.5149819244
 20
45.8307339437
 30
0.0
 40
3.0
 41
10.4832713755
 46
0.0
 71
     2
 72
     1
  1
155,8
 73
     1
 44
1.0
  0
LINE
  5
261
330
20B
100
AcDbEntity
  8
0
  6
Continuous
 62
     2
100
AcDbLine
 10
251.4149819244
 20
84.0748435378
 30
0.0
 11
251.4149819244
 21
41.3307339437
 31
0.0
  0
LINE
  5
262
330
20B
100
AcDbEntity
  8
0
  6
Continuous
 62
     2
100
AcDbLine
 10
95.6149819244
 20
84.0748435378
 30
0.0
 11
95.6149819244
 21
41.3307339437
 31
0.0
  0
LINE
  5
263
330
20B
100
AcDbEntity
  8
0
  6
Continuous
 62
     2
100
AcDbLine
 10
251.4149819244
 20
42.0807339437
 30
0.0
 11
173.5149819244
 21
42.0807339437
 31
0.0
  0
LINE
  5
264
330
20B
100
AcDbEntity
  8
0
  6
Continuous
 62
     2
100
AcDbLine
 10
95.6149819244
 20
42.0807339437
 30
0.0
 11
173.5149819244
 21
42.0807339437
 31
0.0
  0
INSERT
  5
265
330
20B
100
AcDbEntity
  8
0
  6
Continuous
 62
     2
100
AcDbBlockReference
  2
_CLOSED
 10
251.4149819244
 20
42.0807339437
 30
0.0
 41
2.5
 42
2.5
 43
2.5
  0
INSERT
  5
266
330
20B
100
AcDbEntity
  8
0
  6
Continuous
 62
     2
100
AcDbBlockReference
  2
_CLOSED
 10
95.6149819244
 20
42.0807339437
 30
0.0
 41
2.5
 42
2.5
 43
2.5
 50
180.0
  0
ENDBLK
  5
267
330
20B
100
AcDbEntity
  8
0
  6
ByBlock
 62
     0
100
AcDbBlockEnd
  0
BLOCK
  5
268
330
20C
100
AcDbEntity
  8
0
100
AcDbBlockBegin
  2
*D2
 70
     1
 10
0.0
 20
0.0
 30
0.0
  3
*D2
  1

  0
MTEXT
  5
269
330
20C
100
AcDbEntity
  8
0
  6
Continuous
 62
     2
100
AcDbMText
 10
261.2022416728
 20
324.007612627
 30
0.0
 40
3.0
 41
4.6617100372
 46
0.0
 71
     2
 72
     1
  1
20
 11
0.0
 21
1.0
 31
0.0
 73
     1
 44
1.0
  0
LINE
  5
26A
330
20C
100
AcDbEntity
  8
0
  6
Continuous
 62
     2
100
AcDbLine
 10
251.47261292
 20
334.007612627
 30
0.0
 11
265.7022416728
 21
334.007612627
 31
0.0
  0
LINE
  5
26B
330
20C
100
AcDbEntity
  8
0
  6
Continuous
 62
     2
100
AcDbLine
 10
251.9206110154
 20
314.007612627
 30
0.0
 11
265.7022416728
 21
314.007612627
 31
0.0
  0
LINE
  5
26C
330
20C
100
AcDbEntity
  8
0
  6
Continuous
 62
     2
100
AcDbLine
 10
264.9522416728
 20
334.007612627
 30
0.0
 11
264.9522416728
 21
324.007612627
 31
0.0
  0
LINE
  5
26D
330
20C
100
AcDbEntity
  8
0
  6
Continuous
 62
     2
100
AcDbLine
 10
264.9522416728
 20
314.007612627
 30
0.0
 11
264.9522416728
 21
324.007612627
 31
0.0
  0
INSERT
  5
26E
330
20C
100
AcDbEntity
  8
0
  6
Continuous
 62
     2
100
AcDbBlockReference
  2
_CLOSED
 10
264.9522416728
 20
334.007612627
 30
0.0
 41
2.5
 42
2.5
 43
2.5
 50
90.0
  0
INSERT
  5
26F
330
20C
100
AcDbEntity
  8
0
  6
Continuous
 62
     2
100
AcDbBlockReference
  2
_CLOSED
 10
264.9522416728
 20
314.007612627
 30
0.0
 41
2.5
 42
2.5
 43
2.5
 50
270.0
  0
ENDBLK
  5
270
330
20C
100
AcDbEntity
  8
0
  6
ByBlock
 62
     0
100
AcDbBlockEnd
  0
BLOCK
  5
271
330
20D
100
AcDbEntity
  8
0
100
AcDbBlockBegin
  2
*D3
 70
     1
 10
0.0
 20
0.0
 30
0.0
  3
*D3
  1

  0
MTEXT
  5
272
330
20D
100
AcDbEntity
  8
0
  6
Continuous
 62
     2
100
AcDbMText
 10
284.5189975747
 20
150.7248435378
 30
0.0
 40
3.0
 41
10.4832713755
 46
0.0
 71
     2
 72
     1
  1
155,8
 11
0.0
 21
1.0
 31
0.0
 73
     1
 44
1.0
  0
LINE
  5
273
330
20D
100
AcDbEntity
  8
0
  6
Continuous
 62
     2
100
AcDbLine
 10
240.1649819244
 20
72.8248435378
 30
0.0
 11
289.0189975747
 21
72.8248435378
 31
0.0
  0
LINE
  5
274
330
20D
100
AcDbEntity
  8
0
  6
Continuous
 62
     2
100
AcDbLine
 10
174.2649819244
 20
228.6248435378
 30
0.0
 11
289.0189975747
 21
228.6248435378
 31
0.0
  0
LINE
  5
275
330
20D
100
AcDbEntity
  8
0
  6
Continuous
 62
     2
100
AcDbLine
 10
288.2689975747
 20
72.8248435378
 30
0.0
 11
288.2689975747
 21
150.7248435378
 31
0.0
  0
LINE
  5
276
330
20D
100
AcDbEntity
  8
0
  6
Continuous
 62
     2
100
AcDbLine
 10
288.2689975747
 20
228.6248435378
 30
0.0
 11
288.2689975747
 21
150.7248435378
 31
0.0
  0
INSERT
  5
277
330
20D
100
AcDbEntity
  8
0
  6
Continuous
 62
     2
100
AcDbBlockReference
  2
_CLOSED
 10
288.2689975747
 20
72.8248435378
 30
0.0
 41
2.5
 42
2.5
 43
2.5
 50
270.0
  0
INSERT
  5
278
330
20D
100
AcDbEntity
  8
0
  6
Continuous
 62
     2
100
AcDbBlockReference
  2
_CLOSED
 10
288.2689975747
 20
228.6248435378
 30
0.0
 41
2.5
 42
2.5
 43
2.5
 50
90.0
  0
ENDBLK
  5
279
330
20D
100
AcDbEntity
  8
0
  6
ByBlock
 62
     0
100
AcDbBlockEnd
  0
BLOCK
  5
213
330
20E
100
AcDbEntity
  8
0
100
AcDbBlockBegin
  2
LOGO2_BL1
 70
     0
 10
467.8360420644
 20
42.025479964
 30
0.0
  3
LOGO2_BL1
  1

  0
LINE
  5
214
330
20E
100
AcDbEntity
  8
0
  6
Continuous
 62
     7
100
AcDbLine
 10
459.5789672926
 20
45.2209713028
 30
0.0
 11
458.2746263632
 21
45.2209713028
 31
0.0
  0
LINE
  5
215
330
20E
100
AcDbEntity
  8
0
  6
Continuous
 62
     7
100
AcDbLine
 10
458.2746263632
 20
45.2209713028
 30
0.0
 11
458.2746263632
 21
34.761905243
 31
0.0
  0
LINE
  5
216
330
20E
100
AcDbEntity
  8
0
  6
Continuous
 62
     7
100
AcDbLine
 10
458.2746263632
 20
34.761905243
 30
0.0
 11
462.7556812515
 21
34.761905243
 31
0.0
  0
LINE
  5
217
330
20E
100
AcDbEntity
  8
0
  6
Continuous
 62
     7
100
AcDbLine
 10
462.7556812515
 20
34.761905243
 30
0.0
 11
462.7556812515
 21
35.954759568
 31
0.0
  0
LINE
  5
218
330
20E
100
AcDbEntity
  8
0
  6
Continuous
 62
     7
100
AcDbLine
 10
462.7556812515
 20
35.954759568
 30
0.0
 11
459.5789672926
 21
35.954759568
 31
0.0
  0
LINE
  5
219
330
20E
100
AcDbEntity
  8
0
  6
Continuous
 62
     7
100
AcDbLine
 10
459.5789672926
 20
35.954759568
 30
0.0
 11
459.5789672926
 21
45.2209713028
 31
0.0
  0
LINE
  5
21A
330
20E
100
AcDbEntity
  8
0
  6
Continuous
 62
     7
100
AcDbLine
 10
474.5152935089
 20
45.2209713028
 30
0.0
 11
473.2114759908
 21
45.2209713028
 31
0.0
  0
LINE
  5
21B
330
20E
100
AcDbEntity
  8
0
  6
Continuous
 62
     7
100
AcDbLine
 10
473.2114759908
 20
45.2209713028
 30
0.0
 11
473.2114759908
 21
34.761905243
 31
0.0
  0
LINE
  5
21C
330
20E
100
AcDbEntity
  8
0
  6
Continuous
 62
     7
100
AcDbLine
 10
473.2114759908
 20
34.761905243
 30
0.0
 11
477.6926617319
 21
34.761905243
 31
0.0
  0
LINE
  5
21D
330
20E
100
AcDbEntity
  8
0
  6
Continuous
 62
     7
100
AcDbLine
 10
477.6926617319
 20
34.761905243
 30
0.0
 11
477.6926617319
 21
35.954759568
 31
0.0
  0
LINE
  5
21E
330
20E
100
AcDbEntity
  8
0
  6
Continuous
 62
     7
100
AcDbLine
 10
477.6926617319
 20
35.954759568
 30
0.0
 11
474.5152935089
 21
35.954759568
 31
0.0
  0
LINE
  5
21F
330
20E
100
AcDbEntity
  8
0
  6
Continuous
 62
     7
100
AcDbLine
 10
474.5152935089
 20
35.954759568
 30
0.0
 11
474.5152935089
 21
45.2209713028
 31
0.0
  0
LWPOLYLINE
  5
220
330
20E
100
AcDbEntity
  8
0
  6
Continuous
 62
     7
100
AcDbPolyline
 90
        2
 70
     0
 43
0.2
 10
456.6290212741
 20
31.4183539361
 10
456.6290212741
 20
29.5612906867
  0
LWPOLYLINE
  5
221
330
20E
100
AcDbEntity
  8
0
  6
Continuous
 62
     7
100
AcDbPolyline
 90
        2
 70
     0
 43
0.2
 10
456.6290212741
 20
29.5612906867
 10
457.4247372845
 20
29.5612906867
  0
LWPOLYLINE
  5
222
330
20E
100
AcDbEntity
  8
0
  6
Continuous
 62
     7
100
AcDbPolyline
 90
        2
 70
     0
 43
0.2
 10
457.4247372845
 20
29.5612906867
 10
457.4247372845
 20
29.7732722583
  0
LWPOLYLINE
  5
223
330
20E
100
AcDbEntity
  8
0
  6
Continuous
 62
     7
100
AcDbPolyline
 90
        2
 70
     0
 43
0.2
 10
457.4247372845
 20
29.7732722583
 10
456.860630769
 20
29.7732722583
  0
LWPOLYLINE
  5
224
330
20E
100
AcDbEntity
  8
0
  6
Continuous
 62
     7
100
AcDbPolyline
 90
        2
 70
     0
 43
0.2
 10
456.860630769
 20
29.7732722583
 10
456.860630769
 20
31.4183539361
  0
LWPOLYLINE
  5
225
330
20E
100
AcDbEntity
  8
0
  6
Continuous
 62
     7
100
AcDbPolyline
 90
        2
 70
     0
 43
0.2
 10
456.860630769
 20
31.4183539361
 10
456.6290212741
 20
31.4183539361
  0
SPLINE
  5
226
330
20E
100
AcDbEntity
  8
0
  6
Continuous
 62
     7
100
AcDbSpline
 70
     3
 71
     3
 72
    35
 73
    31
 74
     0
 42
0.000000001
 43
0.0000001
 40
0.0
 40
0.0
 40
0.0
 40
0.0
 40
1.0
 40
1.0
 40
1.0
 40
2.0
 40
2.0
 40
2.0
 40
3.0
 40
3.0
 40
3.0
 40
4.0
 40
4.0
 40
4.0
 40
5.0
 40
5.0
 40
5.0
 40
6.0
 40
6.0
 40
6.0
 40
7.0
 40
7.0
 40
7.0
 40
8.0
 40
8.0
 40
8.0
 40
9.0
 40
9.0
 40
9.0
 40
10.0
 40
10.0
 40
10.0
 40
10.0
 10
458.82303054
 20
30.7138423426
 30
0.0
 10
458.82303054
 20
30.7138423426
 30
0.0
 10
458.82303054
 20
30.0517270634
 30
0.0
 10
458.82303054
 20
30.0517270634
 30
0.0
 10
458.82303054
 20
29.7366334681
 30
0.0
 10
458.9708942289
 20
29.5220348401
 30
0.0
 10
459.3109807132
 20
29.5220348401
 30
0.0
 10
459.6505437862
 20
29.5220348401
 30
0.0
 10
459.7986691806
 20
29.7366334681
 30
0.0
 10
459.7986691806
 20
30.0517270634
 30
0.0
 10
459.7986691806
 20
30.0517270634
 30
0.0
 10
459.7986691806
 20
30.7138423426
 30
0.0
 10
459.7986691806
 20
30.7138423426
 30
0.0
 10
459.7986691806
 20
30.7138423426
 30
0.0
 10
459.5766119418
 20
30.7138423426
 30
0.0
 10
459.5766119418
 20
30.7138423426
 30
0.0
 10
459.5766119418
 20
30.7138423426
 30
0.0
 10
459.5766119418
 20
30.0768508053
 30
0.0
 10
459.5766119418
 20
30.0768508053
 30
0.0
 10
459.5766119418
 20
29.8910397981
 30
0.0
 10
459.5298974843
 20
29.7282588875
 30
0.0
 10
459.3109807132
 20
29.7282588875
 30
0.0
 10
459.0915405307
 20
29.7282588875
 30
0.0
 10
459.0448260733
 20
29.8910397981
 30
0.0
 10
459.0448260733
 20
30.0768508053
 30
0.0
 10
459.0448260733
 20
30.0768508053
 30
0.0
 10
459.0448260733
 20
30.7138423426
 30
0.0
 10
459.0448260733
 20
30.7138423426
 30
0.0
 10
459.0448260733
 20
30.7138423426
 30
0.0
 10
458.82303054
 20
30.7138423426
 30
0.0
 10
458.82303054
 20
30.7138423426
 30
0.0
  0
SPLINE
  5
227
330
20E
100
AcDbEntity
  8
0
  6
Continuous
 62
     7
100
AcDbSpline
 70
     3
 71
     3
 72
    35
 73
    31
 74
     0
 42
0.000000001
 43
0.0000001
 40
0.0
 40
0.0
 40
0.0
 40
0.0
 40
1.0
 40
1.0
 40
1.0
 40
2.0
 40
2.0
 40
2.0
 40
3.0
 40
3.0
 40
3.0
 40
4.0
 40
4.0
 40
4.0
 40
5.0
 40
5.0
 40
5.0
 40
6.0
 40
6.0
 40
6.0
 40
7.0
 40
7.0
 40
7.0
 40
8.0
 40
8.0
 40
8.0
 40
9.0
 40
9.0
 40
9.0
 40
10.0
 40
10.0
 40
10.0
 40
10.0
 10
462.2218017378
 20
30.6724928509
 30
0.0
 10
462.1333452302
 20
30.7237871571
 30
0.0
 10
462.0198958335
 20
30.7489108989
 30
0.0
 10
461.9162603985
 20
30.7489108989
 30
0.0
 10
461.5613875454
 20
30.7489108989
 30
0.0
 10
461.2859423551
 20
30.4851116098
 30
0.0
 10
461.2859423551
 20
30.1276217002
 30
0.0
 10
461.2859423551
 20
29.7826936615
 30
0.0
 10
461.5643971603
 20
29.5225582514
 30
0.0
 10
461.9039602333
 20
29.5225582514
 30
0.0
 10
462.0198958335
 20
29.5225582514
 30
0.0
 10
462.1206525065
 20
29.5445415255
 30
0.0
 10
462.2218017378
 20
29.5984528881
 30
0.0
 10
462.2218017378
 20
29.5984528881
 30
0.0
 10
462.2218017378
 20
29.8810949836
 30
0.0
 10
462.2218017378
 20
29.8810949836
 30
0.0
 10
462.137925079
 20
29.7879277744
 30
0.0
 10
462.0344204968
 20
29.7287822988
 30
0.0
 10
461.9063155841
 20
29.7287822988
 30
0.0
 10
461.672612444
 20
29.7287822988
 30
0.0
 10
461.5073453299
 20
29.9009846125
 30
0.0
 10
461.5073453299
 20
30.1375665147
 30
0.0
 10
461.5073453299
 20
30.3495480862
 30
0.0
 10
461.6750986477
 20
30.5416400289
 30
0.0
 10
461.8919217737
 20
30.5416400289
 30
0.0
 10
462.024737388
 20
30.5416400289
 30
0.0
 10
462.1333452302
 20
30.4877286662
 30
0.0
 10
462.2218017378
 20
30.3867102877
 30
0.0
 10
462.2218017378
 20
30.3867102877
 30
0.0
 10
462.2218017378
 20
30.6724928509
 30
0.0
 10
462.2218017378
 20
30.6724928509
 30
0.0
  0
SPLINE
  5
228
330
20E
100
AcDbEntity
  8
0
  6
Continuous
 62
     7
100
AcDbSpline
 70
     3
 71
     3
 72
    32
 73
    28
 74
     0
 42
0.000000001
 43
0.0000001
 40
0.0
 40
0.0
 40
0.0
 40
0.0
 40
1.0
 40
1.0
 40
1.0
 40
2.0
 40
2.0
 40
2.0
 40
3.0
 40
3.0
 40
3.0
 40
4.0
 40
4.0
 40
4.0
 40
5.0
 40
5.0
 40
5.0
 40
6.0
 40
6.0
 40
6.0
 40
7.0
 40
7.0
 40
7.0
 40
8.0
 40
8.0
 40
8.0
 40
9.0
 40
9.0
 40
9.0
 40
9.0
 10
464.7536729901
 20
30.1009277245
 30
0.0
 10
464.7536729901
 20
30.1009277245
 30
0.0
 10
464.7536729901
 20
30.1349494582
 30
0.0
 10
464.7536729901
 20
30.1349494582
 30
0.0
 10
464.7536729901
 20
30.4772604405
 30
0.0
 10
464.5808164123
 20
30.7489108989
 30
0.0
 10
464.2141668051
 20
30.7489108989
 30
0.0
 10
463.8425447907
 20
30.7489108989
 30
0.0
 10
463.6528081989
 20
30.4824945534
 30
0.0
 10
463.6528081989
 20
30.1276217002
 30
0.0
 10
463.6528081989
 20
29.7879277744
 30
0.0
 10
463.8668834156
 20
29.5220348401
 30
0.0
 10
464.2190083595
 20
29.5220348401
 30
0.0
 10
464.4430283907
 20
29.5220348401
 30
0.0
 10
464.6451960007
 20
29.6377087347
 30
0.0
 10
464.7536729901
 20
29.8371284354
 30
0.0
 10
464.7536729901
 20
29.8371284354
 30
0.0
 10
464.5660300434
 20
29.9439043381
 30
0.0
 10
464.5660300434
 20
29.9439043381
 30
0.0
 10
464.482545943
 20
29.8052003469
 30
0.0
 10
464.3913415261
 20
29.7193608956
 30
0.0
 10
464.2217562688
 20
29.7193608956
 30
0.0
 10
464.0097746972
 20
29.7193608956
 30
0.0
 10
463.8768282301
 20
29.9041250803
 30
0.0
 10
463.8744728793
 20
30.1009277245
 30
0.0
 10
463.8744728793
 20
30.1009277245
 30
0.0
 10
464.7536729901
 20
30.1009277245
 30
0.0
 10
464.7536729901
 20
30.1009277245
 30
0.0
  0
SPLINE
  5
229
330
20E
100
AcDbEntity
  8
0
  6
Continuous
 62
     7
100
AcDbSpline
 70
     3
 71
     3
 72
    14
 73
    10
 74
     0
 42
0.000000001
 43
0.0000001
 40
0.0
 40
0.0
 40
0.0
 40
0.0
 40
1.0
 40
1.0
 40
1.0
 40
2.0
 40
2.0
 40
2.0
 40
3.0
 40
3.0
 40
3.0
 40
3.0
 10
463.8865113389
 20
30.2684193366
 30
0.0
 10
463.9141212843
 20
30.4332938923
 30
0.0
 10
464.0419644914
 20
30.5562955449
 30
0.0
 10
464.2141668051
 20
30.5562955449
 30
0.0
 10
464.3913415261
 20
30.5562955449
 30
0.0
 10
464.5047909227
 20
30.4406216503
 30
0.0
 10
464.5320083097
 20
30.2684193366
 30
0.0
 10
464.5320083097
 20
30.2684193366
 30
0.0
 10
463.8865113389
 20
30.2684193366
 30
0.0
 10
463.8865113389
 20
30.2684193366
 30
0.0
  0
SPLINE
  5
22A
330
20E
100
AcDbEntity
  8
0
  6
Continuous
 62
     7
100
AcDbSpline
 70
     3
 71
     3
 72
    20
 73
    16
 74
     0
 42
0.000000001
 43
0.0000001
 40
0.0
 40
0.0
 40
0.0
 40
0.0
 40
1.0
 40
1.0
 40
1.0
 40
2.0
 40
2.0
 40
2.0
 40
3.0
 40
3.0
 40
3.0
 40
4.0
 40
4.0
 40
4.0
 40
5.0
 40
5.0
 40
5.0
 40
5.0
 10
466.7777044403
 20
30.4777838518
 30
0.0
 10
466.7777044403
 20
30.4777838518
 30
0.0
 10
467.1888440069
 20
29.9753090154
 30
0.0
 10
467.1888440069
 20
29.9753090154
 30
0.0
 10
467.0727775538
 20
29.8596351208
 30
0.0
 10
466.9349895323
 20
29.7293057101
 30
0.0
 10
466.7630489242
 20
29.7293057101
 30
0.0
 10
466.5856124976
 20
29.7293057101
 30
0.0
 10
466.4181208855
 20
29.8936568545
 30
0.0
 10
466.4181208855
 20
30.0705698698
 30
0.0
 10
466.4181208855
 20
30.2485297077
 30
0.0
 10
466.6278779591
 20
30.3746718281
 30
0.0
 10
466.7554594605
 20
30.4626049244
 30
0.0
 10
466.7554594605
 20
30.4626049244
 30
0.0
 10
466.7777044403
 20
30.4777838518
 30
0.0
 10
466.7777044403
 20
30.4777838518
 30
0.0
  0
SPLINE
  5
22B
330
20E
100
AcDbEntity
  8
0
  6
Continuous
 62
     7
100
AcDbSpline
 70
     3
 71
     3
 72
    23
 73
    19
 74
     0
 42
0.000000001
 43
0.0000001
 40
0.0
 40
0.0
 40
0.0
 40
0.0
 40
1.0
 40
1.0
 40
1.0
 40
2.0
 40
2.0
 40
2.0
 40
3.0
 40
3.0
 40
3.0
 40
4.0
 40
4.0
 40
4.0
 40
5.0
 40
5.0
 40
5.0
 40
6.0
 40
6.0
 40
6.0
 40
6.0
 10
466.8270359542
 20
30.7688005278
 30
0.0
 10
466.8270359542
 20
30.7688005278
 30
0.0
 10
466.765404275
 20
30.847312221
 30
0.0
 10
466.765404275
 20
30.847312221
 30
0.0
 10
466.7114929124
 20
30.9158790997
 30
0.0
 10
466.6547027876
 20
30.9849693897
 30
0.0
 10
466.6547027876
 20
31.0786600102
 30
0.0
 10
466.6547027876
 20
31.1974743726
 30
0.0
 10
466.7506179061
 20
31.2749392432
 30
0.0
 10
466.8615810992
 20
31.2749392432
 30
0.0
 10
466.9848444575
 20
31.2749392432
 30
0.0
 10
467.0781425195
 20
31.203755308
 30
0.0
 10
467.0781425195
 20
31.0734258974
 30
0.0
 10
467.0781425195
 20
30.9383857851
 30
0.0
 10
466.9500376068
 20
30.8619677371
 30
0.0
 10
466.8564778391
 20
30.7881667455
 30
0.0
 10
466.8564778391
 20
30.7881667455
 30
0.0
 10
466.8270359542
 20
30.7688005278
 30
0.0
 10
466.8270359542
 20
30.7688005278
 30
0.0
  0
SPLINE
  5
22C
330
20E
100
AcDbEntity
  8
0
  6
Continuous
 62
     7
100
AcDbSpline
 70
     3
 71
     3
 72
    50
 73
    46
 74
     0
 42
0.000000001
 43
0.0000001
 40
0.0
 40
0.0
 40
0.0
 40
0.0
 40
1.0
 40
1.0
 40
1.0
 40
2.0
 40
2.0
 40
2.0
 40
3.0
 40
3.0
 40
3.0
 40
4.0
 40
4.0
 40
4.0
 40
5.0
 40
5.0
 40
5.0
 40
6.0
 40
6.0
 40
6.0
 40
7.0
 40
7.0
 40
7.0
 40
8.0
 40
8.0
 40
8.0
 40
9.0
 40
9.0
 40
9.0
 40
10.0
 40
10.0
 40
10.0
 40
11.0
 40
11.0
 40
11.0
 40
12.0
 40
12.0
 40
12.0
 40
13.0
 40
13.0
 40
13.0
 40
14.0
 40
14.0
 40
14.0
 40
15.0
 40
15.0
 40
15.0
 40
15.0
 10
467.5291921968
 20
29.561814098
 30
0.0
 10
467.5291921968
 20
29.561814098
 30
0.0
 10
467.8145822015
 20
29.561814098
 30
0.0
 10
467.8145822015
 20
29.561814098
 30
0.0
 10
467.8145822015
 20
29.561814098
 30
0.0
 10
467.4822160338
 20
29.972691959
 30
0.0
 10
467.4822160338
 20
29.972691959
 30
0.0
 10
467.4822160338
 20
29.972691959
 30
0.0
 10
467.7087222686
 20
30.2385848932
 30
0.0
 10
467.7087222686
 20
30.2385848932
 30
0.0
 10
467.7087222686
 20
30.2385848932
 30
0.0
 10
467.5604660213
 20
30.3914209893
 30
0.0
 10
467.5604660213
 20
30.3914209893
 30
0.0
 10
467.5604660213
 20
30.3914209893
 30
0.0
 10
467.344558865
 20
30.1401835711
 30
0.0
 10
467.344558865
 20
30.1401835711
 30
0.0
 10
467.344558865
 20
30.1401835711
 30
0.0
 10
466.9574962177
 20
30.6081132624
 30
0.0
 10
466.9574962177
 20
30.6081132624
 30
0.0
 10
467.1129493702
 20
30.7222169232
 30
0.0
 10
467.2952273512
 20
30.8619677371
 30
0.0
 10
467.2952273512
 20
31.0713322522
 30
0.0
 10
467.2952273512
 20
31.3152419124
 30
0.0
 10
467.093190594
 20
31.4586566052
 30
0.0
 10
466.8666843592
 20
31.4586566052
 30
0.0
 10
466.6225129934
 20
31.4586566052
 30
0.0
 10
466.4381413673
 20
31.3079141543
 30
0.0
 10
466.4381413673
 20
31.0514426233
 30
0.0
 10
466.4381413673
 20
30.8938958256
 30
0.0
 10
466.536804395
 20
30.7562386569
 30
0.0
 10
466.6421409167
 20
30.6452754639
 30
0.0
 10
466.6421409167
 20
30.6452754639
 30
0.0
 10
466.5265978749
 20
30.5615296578
 30
0.0
 10
466.5265978749
 20
30.5615296578
 30
0.0
 10
466.3488997427
 20
30.4332938923
 30
0.0
 10
466.2015594652
 20
30.3055815381
 30
0.0
 10
466.2015594652
 20
30.0684762247
 30
0.0
 10
466.2015594652
 20
29.7481485165
 30
0.0
 10
466.4601246414
 20
29.5220348401
 30
0.0
 10
466.7705075351
 20
29.5220348401
 30
0.0
 10
466.9894243062
 20
29.5220348401
 30
0.0
 10
467.1866195089
 20
29.6471301379
 30
0.0
 10
467.3268937341
 20
29.8130515162
 30
0.0
 10
467.3268937341
 20
29.8130515162
 30
0.0
 10
467.5291921968
 20
29.561814098
 30
0.0
 10
467.5291921968
 20
29.561814098
 30
0.0
  0
LWPOLYLINE
  5
22D
330
20E
100
AcDbEntity
  8
0
  6
Continuous
 62
     7
100
AcDbPolyline
 90
        2
 70
     0
 43
0.2
 10
469.4646362866
 20
31.4183539361
 10
469.2332884973
 20
31.4183539361
  0
LWPOLYLINE
  5
22E
330
20E
100
AcDbEntity
  8
0
  6
Continuous
 62
     7
100
AcDbPolyline
 90
        2
 70
     0
 43
0.2
 10
469.2332884973
 20
31.4183539361
 10
469.2332884973
 20
29.5612906867
  0
LWPOLYLINE
  5
22F
330
20E
100
AcDbEntity
  8
0
  6
Continuous
 62
     7
100
AcDbPolyline
 90
        2
 70
     0
 43
0.2
 10
469.2332884973
 20
29.5612906867
 10
470.0286119492
 20
29.5612906867
  0
LWPOLYLINE
  5
230
330
20E
100
AcDbEntity
  8
0
  6
Continuous
 62
     7
100
AcDbPolyline
 90
        2
 70
     0
 43
0.2
 10
470.0286119492
 20
29.5612906867
 10
470.0286119492
 20
29.7732722583
  0
LWPOLYLINE
  5
231
330
20E
100
AcDbEntity
  8
0
  6
Continuous
 62
     7
100
AcDbPolyline
 90
        2
 70
     0
 43
0.2
 10
470.0286119492
 20
29.7732722583
 10
469.4646362866
 20
29.7732722583
  0
LWPOLYLINE
  5
232
330
20E
100
AcDbEntity
  8
0
  6
Continuous
 62
     7
100
AcDbPolyline
 90
        2
 70
     0
 43
0.2
 10
469.4646362866
 20
29.7732722583
 10
469.4646362866
 20
31.4183539361
  0
LWPOLYLINE
  5
233
330
20E
100
AcDbEntity
  8
0
  6
Continuous
 62
     7
100
AcDbPolyline
 90
        2
 70
     0
 43
0.2
 10
471.7077153607
 20
30.7138423426
 10
471.4865740916
 20
30.7138423426
  0
LWPOLYLINE
  5
234
330
20E
100
AcDbEntity
  8
0
  6
Continuous
 62
     7
100
AcDbPolyline
 90
        2
 70
     0
 43
0.2
 10
471.4865740916
 20
30.7138423426
 10
471.4865740916
 20
29.561814098
  0
LWPOLYLINE
  5
235
330
20E
100
AcDbEntity
  8
0
  6
Continuous
 62
     7
100
AcDbPolyline
 90
        2
 70
     0
 43
0.2
 10
471.4865740916
 20
29.561814098
 10
471.7077153607
 20
29.561814098
  0
LWPOLYLINE
  5
236
330
20E
100
AcDbEntity
  8
0
  6
Continuous
 62
     7
100
AcDbPolyline
 90
        2
 70
     0
 43
0.2
 10
471.7077153607
 20
29.561814098
 10
471.7077153607
 20
30.7138423426
  0
LWPOLYLINE
  5
237
330
20E
100
AcDbEntity
  8
0
  6
Continuous
 62
     7
100
AcDbPolyline
 90
        2
 70
     1
 43
0.2
 10
471.4446920835
 20
31.2437962716
 42
1.0
 10
471.7498590744
 20
31.2437962716
 42
1.0
  0
SPLINE
  5
238
330
20E
100
AcDbEntity
  8
0
  6
Continuous
 62
     7
100
AcDbSpline
 70
     3
 71
     3
 72
    17
 73
    13
 74
     0
 42
0.000000001
 43
0.0000001
 40
0.0
 40
0.0
 40
0.0
 40
0.0
 40
1.0
 40
1.0
 40
1.0
 40
2.0
 40
2.0
 40
2.0
 40
3.0
 40
3.0
 40
3.0
 40
4.0
 40
4.0
 40
4.0
 40
4.0
 10
473.8379993024
 20
29.7193608956
 30
0.0
 10
473.6040344567
 20
29.7193608956
 30
0.0
 10
473.473705046
 20
29.9213976528
 30
0.0
 10
473.473705046
 20
30.1375665147
 30
0.0
 10
473.473705046
 20
30.3521651427
 30
0.0
 10
473.6095302752
 20
30.5510614321
 30
0.0
 10
473.8379993024
 20
30.5510614321
 30
0.0
 10
474.0774599666
 20
30.5510614321
 30
0.0
 10
474.2130234901
 20
30.3621099571
 30
0.0
 10
474.2130234901
 20
30.1375665147
 30
0.0
 10
474.2130234901
 20
29.9114528383
 30
0.0
 10
474.0798153174
 20
29.7193608956
 30
0.0
 10
473.8379993024
 20
29.7193608956
 30
0.0
  0
SPLINE
  5
239
330
20E
100
AcDbEntity
  8
0
  6
Continuous
 62
     7
100
AcDbSpline
 70
     3
 71
     3
 72
    50
 73
    46
 74
     0
 42
0.000000001
 43
0.0000001
 40
0.0
 40
0.0
 40
0.0
 40
0.0
 40
1.0
 40
1.0
 40
1.0
 40
2.0
 40
2.0
 40
2.0
 40
3.0
 40
3.0
 40
3.0
 40
4.0
 40
4.0
 40
4.0
 40
5.0
 40
5.0
 40
5.0
 40
6.0
 40
6.0
 40
6.0
 40
7.0
 40
7.0
 40
7.0
 40
8.0
 40
8.0
 40
8.0
 40
9.0
 40
9.0
 40
9.0
 40
10.0
 40
10.0
 40
10.0
 40
11.0
 40
11.0
 40
11.0
 40
12.0
 40
12.0
 40
12.0
 40
13.0
 40
13.0
 40
13.0
 40
14.0
 40
14.0
 40
14.0
 40
15.0
 40
15.0
 40
15.0
 40
15.0
 10
474.4221262996
 20
30.7143657539
 30
0.0
 10
474.4221262996
 20
30.7143657539
 30
0.0
 10
474.2004616192
 20
30.7143657539
 30
0.0
 10
474.2004616192
 20
30.7143657539
 30
0.0
 10
474.2004616192
 20
30.7143657539
 30
0.0
 10
474.2004616192
 20
30.5170396984
 30
0.0
 10
474.2004616192
 20
30.5170396984
 30
0.0
 10
474.2004616192
 20
30.5170396984
 30
0.0
 10
474.1957509176
 20
30.5170396984
 30
0.0
 10
474.1957509176
 20
30.5170396984
 30
0.0
 10
474.1044156479
 20
30.6599309799
 30
0.0
 10
473.9664967735
 20
30.7483874876
 30
0.0
 10
473.7937710485
 20
30.7483874876
 30
0.0
 10
473.4614048807
 20
30.7483874876
 30
0.0
 10
473.2523020712
 20
30.4605112793
 30
0.0
 10
473.2523020712
 20
30.1448942727
 30
0.0
 10
473.2523020712
 20
29.8151451613
 30
0.0
 10
473.4493664211
 20
29.5220348401
 30
0.0
 10
473.8042392743
 20
29.5220348401
 30
0.0
 10
473.9664967735
 20
29.5220348401
 30
0.0
 10
474.106509293
 20
29.6104913478
 30
0.0
 10
474.1957509176
 20
29.7413441697
 30
0.0
 10
474.1957509176
 20
29.7413441697
 30
0.0
 10
474.2004616192
 20
29.7413441697
 30
0.0
 10
474.2004616192
 20
29.7413441697
 30
0.0
 10
474.2004616192
 20
29.7413441697
 30
0.0
 10
474.2004616192
 20
29.5220348401
 30
0.0
 10
474.2004616192
 20
29.5220348401
 30
0.0
 10
474.2004616192
 20
29.285452938
 30
0.0
 10
474.1439332001
 20
29.0985951082
 30
0.0
 10
473.8707125078
 20
29.0985951082
 30
0.0
 10
473.6684140451
 20
29.0985951082
 30
0.0
 10
473.5257844691
 20
29.2168860593
 30
0.0
 10
473.5257844691
 20
29.4231101067
 30
0.0
 10
473.5257844691
 20
29.4231101067
 30
0.0
 10
473.3041197887
 20
29.4231101067
 30
0.0
 10
473.3041197887
 20
29.4231101067
 30
0.0
 10
473.309092196
 20
29.0985951082
 30
0.0
 10
473.5401782796
 20
28.901792464
 30
0.0
 10
473.8605059877
 20
28.901792464
 30
0.0
 10
474.3085460502
 20
28.901792464
 30
0.0
 10
474.4221262996
 20
29.1870516159
 30
0.0
 10
474.4221262996
 20
29.5837973721
 30
0.0
 10
474.4221262996
 20
29.5837973721
 30
0.0
 10
474.4221262996
 20
30.7143657539
 30
0.0
 10
474.4221262996
 20
30.7143657539
 30
0.0
  0
SPLINE
  5
23A
330
20E
100
AcDbEntity
  8
0
  6
Continuous
 62
     7
100
AcDbSpline
 70
     3
 71
     3
 72
    44
 73
    40
 74
     0
 42
0.000000001
 43
0.0000001
 40
0.0
 40
0.0
 40
0.0
 40
0.0
 40
1.0
 40
1.0
 40
1.0
 40
2.0
 40
2.0
 40
2.0
 40
3.0
 40
3.0
 40
3.0
 40
4.0
 40
4.0
 40
4.0
 40
5.0
 40
5.0
 40
5.0
 40
6.0
 40
6.0
 40
6.0
 40
7.0
 40
7.0
 40
7.0
 40
8.0
 40
8.0
 40
8.0
 40
9.0
 40
9.0
 40
9.0
 40
10.0
 40
10.0
 40
10.0
 40
11.0
 40
11.0
 40
11.0
 40
12.0
 40
12.0
 40
12.0
 40
13.0
 40
13.0
 40
13.0
 40
13.0
 10
475.991051635
 20
31.6994257977
 30
0.0
 10
475.991051635
 20
31.6994257977
 30
0.0
 10
475.991051635
 20
29.5612906867
 30
0.0
 10
475.991051635
 20
29.5612906867
 30
0.0
 10
475.991051635
 20
29.5612906867
 30
0.0
 10
476.2124546098
 20
29.5612906867
 30
0.0
 10
476.2124546098
 20
29.5612906867
 30
0.0
 10
476.2124546098
 20
29.5612906867
 30
0.0
 10
476.2124546098
 20
30.09098291
 30
0.0
 10
476.2124546098
 20
30.09098291
 30
0.0
 10
476.2124546098
 20
30.3008708365
 30
0.0
 10
476.2124546098
 20
30.5515848434
 30
0.0
 10
476.4977137617
 20
30.5515848434
 30
0.0
 10
476.724612555
 20
30.5515848434
 30
0.0
 10
476.7515682363
 20
30.4186383762
 30
0.0
 10
476.7515682363
 20
30.2223591433
 30
0.0
 10
476.7515682363
 20
30.2223591433
 30
0.0
 10
476.7515682363
 20
29.5612906867
 30
0.0
 10
476.7515682363
 20
29.5612906867
 30
0.0
 10
476.7515682363
 20
29.5612906867
 30
0.0
 10
476.9734946223
 20
29.5612906867
 30
0.0
 10
476.9734946223
 20
29.5612906867
 30
0.0
 10
476.9734946223
 20
29.5612906867
 30
0.0
 10
476.9734946223
 20
30.2485297077
 30
0.0
 10
476.9734946223
 20
30.2485297077
 30
0.0
 10
476.9734946223
 20
30.529078158
 30
0.0
 10
476.8894871106
 20
30.7489108989
 30
0.0
 10
476.5644487009
 20
30.7489108989
 30
0.0
 10
476.424697887
 20
30.7489108989
 30
0.0
 10
476.286517307
 20
30.6824376653
 30
0.0
 10
476.2171653114
 20
30.5594360127
 30
0.0
 10
476.2171653114
 20
30.5594360127
 30
0.0
 10
476.2124546098
 20
30.5594360127
 30
0.0
 10
476.2124546098
 20
30.5594360127
 30
0.0
 10
476.2124546098
 20
30.5594360127
 30
0.0
 10
476.2124546098
 20
31.6994257977
 30
0.0
 10
476.2124546098
 20
31.6994257977
 30
0.0
 10
476.2124546098
 20
31.6994257977
 30
0.0
 10
475.991051635
 20
31.6994257977
 30
0.0
 10
475.991051635
 20
31.6994257977
 30
0.0
  0
LWPOLYLINE
  5
23B
330
20E
100
AcDbEntity
  8
0
  6
Continuous
 62
     7
100
AcDbPolyline
 90
        2
 70
     0
 43
0.2
 10
478.8132852992
 20
30.5070948839
 10
479.0297158667
 20
30.5070948839
  0
LWPOLYLINE
  5
23C
330
20E
100
AcDbEntity
  8
0
  6
Continuous
 62
     7
100
AcDbPolyline
 90
        2
 70
     0
 43
0.2
 10
479.0297158667
 20
30.5070948839
 10
479.0297158667
 20
30.7138423426
  0
LWPOLYLINE
  5
23D
330
20E
100
AcDbEntity
  8
0
  6
Continuous
 62
     7
100
AcDbPolyline
 90
        2
 70
     0
 43
0.2
 10
479.0297158667
 20
30.7138423426
 10
478.8132852992
 20
30.7138423426
  0
LWPOLYLINE
  5
23E
330
20E
100
AcDbEntity
  8
0
  6
Continuous
 62
     7
100
AcDbPolyline
 90
        2
 70
     0
 43
0.2
 10
478.8132852992
 20
30.7138423426
 10
478.8132852992
 20
31.154554647
  0
LWPOLYLINE
  5
23F
330
20E
100
AcDbEntity
  8
0
  6
Continuous
 62
     7
100
AcDbPolyline
 90
        2
 70
     0
 43
0.2
 10
478.8132852992
 20
31.154554647
 10
478.5916206188
 20
31.154554647
  0
LWPOLYLINE
  5
240
330
20E
100
AcDbEntity
  8
0
  6
Continuous
 62
     7
100
AcDbPolyline
 90
        2
 70
     0
 43
0.2
 10
478.5916206188
 20
31.154554647
 10
478.5916206188
 20
30.7138423426
  0
LWPOLYLINE
  5
241
330
20E
100
AcDbEntity
  8
0
  6
Continuous
 62
     7
100
AcDbPolyline
 90
        2
 70
     0
 43
0.2
 10
478.5916206188
 20
30.7138423426
 10
478.4709743169
 20
30.7138423426
  0
LWPOLYLINE
  5
242
330
20E
100
AcDbEntity
  8
0
  6
Continuous
 62
     7
100
AcDbPolyline
 90
        2
 70
     0
 43
0.2
 10
478.4709743169
 20
30.7138423426
 10
478.4709743169
 20
30.5070948839
  0
LWPOLYLINE
  5
243
330
20E
100
AcDbEntity
  8
0
  6
Continuous
 62
     7
100
AcDbPolyline
 90
        2
 70
     0
 43
0.2
 10
478.4709743169
 20
30.5070948839
 10
478.5916206188
 20
30.5070948839
  0
LWPOLYLINE
  5
244
330
20E
100
AcDbEntity
  8
0
  6
Continuous
 62
     7
100
AcDbPolyline
 90
        2
 70
     0
 43
0.2
 10
478.5916206188
 20
30.5070948839
 10
478.5916206188
 20
29.5612906867
  0
LWPOLYLINE
  5
245
330
20E
100
AcDbEntity
  8
0
  6
Continuous
 62
     7
100
AcDbPolyline
 90
        2
 70
     0
 43
0.2
 10
478.5916206188
 20
29.5612906867
 10
478.8132852992
 20
29.5612906867
  0
LWPOLYLINE
  5
246
330
20E
100
AcDbEntity
  8
0
  6
Continuous
 62
     7
100
AcDbPolyline
 90
        2
 70
     0
 43
0.2
 10
478.8132852992
 20
29.5612906867
 10
478.8132852992
 20
30.5070948839
  0
SPLINE
  5
247
330
20E
100
AcDbEntity
  8
0
  6
Continuous
 62
     7
100
AcDbSpline
 70
     3
 71
     3
 72
    20
 73
    16
 74
     0
 42
0.000000001
 43
0.0000001
 40
0.0
 40
0.0
 40
0.0
 40
0.0
 40
1.0
 40
1.0
 40
1.0
 40
2.0
 40
2.0
 40
2.0
 40
3.0
 40
3.0
 40
3.0
 40
4.0
 40
4.0
 40
4.0
 40
5.0
 40
5.0
 40
5.0
 40
5.0
 10
466.5952956065
 20
39.9222171301
 30
0.0
 10
466.5952956065
 20
39.9222171301
 30
0.0
 10
468.9116522609
 20
37.0926557079
 30
0.0
 10
468.9116522609
 20
37.0926557079
 30
0.0
 10
468.2600052075
 20
36.4404852432
 30
0.0
 10
467.4831320035
 20
35.7045689724
 30
0.0
 10
466.5119423589
 20
35.7045689724
 30
0.0
 10
465.5134044744
 20
35.7045689724
 30
0.0
 10
464.5700864809
 20
36.6341474197
 30
0.0
 10
464.5700864809
 20
37.6333395682
 30
0.0
 10
464.5700864809
 20
38.6325317168
 30
0.0
 10
465.748939554
 20
39.3391369554
 30
0.0
 10
466.4704620143
 20
39.8389947353
 30
0.0
 10
466.4704620143
 20
39.8389947353
 30
0.0
 10
466.5952956065
 20
39.9222171301
 30
0.0
 10
466.5952956065
 20
39.9222171301
 30
0.0
  0
SPLINE
  5
248
330
20E
100
AcDbEntity
  8
0
  6
Continuous
 62
     7
100
AcDbSpline
 70
     3
 71
     3
 72
    23
 73
    19
 74
     0
 42
0.000000001
 43
0.0000001
 40
0.0
 40
0.0
 40
0.0
 40
0.0
 40
1.0
 40
1.0
 40
1.0
 40
2.0
 40
2.0
 40
2.0
 40
3.0
 40
3.0
 40
3.0
 40
4.0
 40
4.0
 40
4.0
 40
5.0
 40
5.0
 40
5.0
 40
6.0
 40
6.0
 40
6.0
 40
6.0
 10
466.872703589
 20
41.5599710498
 30
0.0
 10
466.872703589
 20
41.5599710498
 30
0.0
 10
466.5262053165
 20
42.0033004107
 30
0.0
 10
466.5262053165
 20
42.0033004107
 30
0.0
 10
466.2204022715
 20
42.3914098806
 30
0.0
 10
465.9015139444
 20
42.779911909
 30
0.0
 10
465.9015139444
 20
43.3068562231
 30
0.0
 10
465.9015139444
 20
43.9730279397
 30
0.0
 10
466.4428520689
 20
44.416749859
 30
0.0
 10
467.066758324
 20
44.416749859
 30
0.0
 10
467.7605399861
 20
44.416749859
 30
0.0
 10
468.2877460058
 20
44.0145082843
 30
0.0
 10
468.2877460058
 20
43.2795079833
 30
0.0
 10
468.2877460058
 20
42.5162434728
 30
0.0
 10
467.5664852511
 20
42.086130247
 30
0.0
 10
467.0394100842
 20
41.6704108316
 30
0.0
 10
467.0394100842
 20
41.6704108316
 30
0.0
 10
466.872703589
 20
41.5599710498
 30
0.0
 10
466.872703589
 20
41.5599710498
 30
0.0
  0
SPLINE
  5
249
330
20E
100
AcDbEntity
  8
0
  6
Continuous
 62
     7
100
AcDbSpline
 70
     3
 71
     3
 72
    50
 73
    46
 74
     0
 42
0.000000001
 43
0.0000001
 40
0.0
 40
0.0
 40
0.0
 40
0.0
 40
1.0
 40
1.0
 40
1.0
 40
2.0
 40
2.0
 40
2.0
 40
3.0
 40
3.0
 40
3.0
 40
4.0
 40
4.0
 40
4.0
 40
5.0
 40
5.0
 40
5.0
 40
6.0
 40
6.0
 40
6.0
 40
7.0
 40
7.0
 40
7.0
 40
8.0
 40
8.0
 40
8.0
 40
9.0
 40
9.0
 40
9.0
 40
10.0
 40
10.0
 40
10.0
 40
11.0
 40
11.0
 40
11.0
 40
12.0
 40
12.0
 40
12.0
 40
13.0
 40
13.0
 40
13.0
 40
14.0
 40
14.0
 40
14.0
 40
15.0
 40
15.0
 40
15.0
 40
15.0
 10
470.826290752
 20
34.7613818317
 30
0.0
 10
470.826290752
 20
34.7613818317
 30
0.0
 10
472.4355187565
 20
34.7613818317
 30
0.0
 10
472.4355187565
 20
34.7613818317
 30
0.0
 10
472.4355187565
 20
34.7613818317
 30
0.0
 10
470.5624914629
 20
37.0785236031
 30
0.0
 10
470.5624914629
 20
37.0785236031
 30
0.0
 10
470.5624914629
 20
37.0785236031
 30
0.0
 10
471.8388298883
 20
38.5760032977
 30
0.0
 10
471.8388298883
 20
38.5760032977
 30
0.0
 10
471.8388298883
 20
38.5760032977
 30
0.0
 10
471.0066059406
 20
39.4370148662
 30
0.0
 10
471.0066059406
 20
39.4370148662
 30
0.0
 10
471.0066059406
 20
39.4370148662
 30
0.0
 10
469.7860108173
 20
38.0217107438
 30
0.0
 10
469.7860108173
 20
38.0217107438
 30
0.0
 10
469.7860108173
 20
38.0217107438
 30
0.0
 10
467.6080964485
 20
40.6570865783
 30
0.0
 10
467.6080964485
 20
40.6570865783
 30
0.0
 10
468.4816698879
 20
41.2951249382
 30
0.0
 10
469.5083411291
 20
42.086130247
 30
0.0
 10
469.5083411291
 20
43.2649833201
 30
0.0
 10
469.5083411291
 20
44.6386762451
 30
0.0
 10
468.3704449893
 20
45.4431593945
 30
0.0
 10
467.0951533864
 20
45.4431593945
 30
0.0
 10
465.721722167
 20
45.4431593945
 30
0.0
 10
464.6807879682
 20
44.5969341949
 30
0.0
 10
464.6807879682
 20
43.1542818327
 30
0.0
 10
464.6807879682
 20
42.2667071413
 30
0.0
 10
465.2361273447
 20
41.4898339373
 30
0.0
 10
465.8322928016
 20
40.8654042708
 30
0.0
 10
465.8322928016
 20
40.8654042708
 30
0.0
 10
465.1803840425
 20
40.3938107005
 30
0.0
 10
465.1803840425
 20
40.3938107005
 30
0.0
 10
464.1818461581
 20
39.6725499458
 30
0.0
 10
463.3489679463
 20
38.9512891911
 30
0.0
 10
463.3489679463
 20
37.6197308748
 30
0.0
 10
463.3489679463
 20
35.8160555768
 30
0.0
 10
464.8060141189
 20
34.5394554456
 30
0.0
 10
466.5535535562
 20
34.5394554456
 30
0.0
 10
467.7884116372
 20
34.5394554456
 30
0.0
 10
468.8977818618
 20
35.2476309181
 30
0.0
 10
469.6886563178
 20
36.1761625428
 30
0.0
 10
469.6886563178
 20
36.1761625428
 30
0.0
 10
470.826290752
 20
34.7613818317
 30
0.0
 10
470.826290752
 20
34.7613818317
 30
0.0
  0
LINE
  5
24A
330
20E
100
AcDbEntity
  8
0
  6
Continuous
 62
     7
100
AcDbLine
 10
456.6291521269
 20
32.7352567364
 30
0.0
 11
479.0430628546
 21
32.7352567364
 31
0.0
  0
LINE
  5
24B
330
20E
100
AcDbEntity
  8
0
  6
Continuous
 62
     7
100
AcDbLine
 10
479.0430628546
 20
32.7352567364
 30
0.0
 11
479.0430628546
 21
55.149167464
 31
0.0
  0
LINE
  5
24C
330
20E
100
AcDbEntity
  8
0
  6
Continuous
 62
     7
100
AcDbLine
 10
479.0430628546
 20
55.149167464
 30
0.0
 11
456.6291521269
 21
55.149167464
 31
0.0
  0
LINE
  5
24D
330
20E
100
AcDbEntity
  8
0
  6
Continuous
 62
     7
100
AcDbLine
 10
456.6291521269
 20
55.149167464
 30
0.0
 11
456.6291521269
 21
32.7352567364
 31
0.0
  0
ENDBLK
  5
24E
330
20E
100
AcDbEntity
  8
0
  6
ByBlock
 62
     0
100
AcDbBlockEnd
  0
BLOCK
  5
24F
330
20F
100
AcDbEntity
  8
0
100
AcDbBlockBegin
  2
PROIEZIONE_EU_BL0
 70
     0
 10
469.0099950196
 20
67.650479964
 30
0.0
  3
PROIEZIONE_EU_BL0
  1

  0
LWPOLYLINE
  5
250
330
20F
100
AcDbEntity
  8
DEFAULT_1
  6
CENTER
 62
     7
100
AcDbPolyline
 90
        2
 70
     0
 43
0.25
 10
475.1366156812
 20
72.6501740959
 10
475.1366566636
 20
62.6507858321
  0
LWPOLYLINE
  5
251
330
20F
100
AcDbEntity
  8
DEFAULT_1
  6
CENTER
 62
     7
100
AcDbPolyline
 90
        2
 70
     0
 43
0.25
 10
481.1366455063
 20
67.6507510991
 10
456.8833445328
 20
67.6504804387
  0
LWPOLYLINE
  5
252
330
20F
100
AcDbEntity
  8
0
  6
Continuous
 62
     7
100
AcDbPolyline
 90
        2
 70
     1
 43
0.25
 10
471.5895055054
 20
67.6319322098
 42
1.0
 10
478.6958346041
 20
67.6319322098
 42
1.0
  0
LWPOLYLINE
  5
253
330
20F
100
AcDbEntity
  8
0
  6
Continuous
 62
     7
100
AcDbPolyline
 90
        2
 70
     1
 43
0.25
 10
473.1392493338
 20
67.6498302544
 42
1.0
 10
477.1510010839
 20
67.6498302544
 42
1.0
  0
LWPOLYLINE
  5
254
330
20F
100
AcDbEntity
  8
0
  6
Continuous
 62
     7
100
AcDbPolyline
 90
        2
 70
     0
 43
0.25
 10
469.1366433003
 20
71.2256834592
 10
469.1366429457
 20
64.1254805509
  0
LWPOLYLINE
  5
255
330
20F
100
AcDbEntity
  8
0
  6
Continuous
 62
     7
100
AcDbPolyline
 90
        2
 70
     0
 43
0.25
 10
469.1366713821
 20
64.1254521145
 10
459.1421141109
 20
65.6455455274
  0
LWPOLYLINE
  5
256
330
20F
100
AcDbEntity
  8
0
  6
Continuous
 62
     7
100
AcDbPolyline
 90
        2
 70
     0
 43
0.25
 10
459.1398041253
 20
65.6448679858
 10
459.1371372212
 20
69.6505065973
  0
LWPOLYLINE
  5
257
330
20F
100
AcDbEntity
  8
0
  6
Continuous
 62
     7
100
AcDbPolyline
 90
        2
 70
     0
 43
0.25
 10
459.1371289452
 20
69.6504983212
 10
469.1368721825
 20
71.2256555413
  0
ENDBLK
  5
258
330
20F
100
AcDbEntity
  8
0
  6
ByBlock
 62
     0
100
AcDbBlockEnd
  0
ENDSEC
  0
SECTION
  2
ENTITIES
  0
LINE
  5
27A
330
1B
100
AcDbEntity
 67
     1
  8
0
  6
Continuous
 62
     7
100
AcDbLine
 10
0.0
 20
0.0
 30
0.0
 11
594.0
 21
0.0
 31
0.0
  0
LINE
  5
27B
330
1B
100
AcDbEntity
 67
     1
  8
0
  6
Continuous
 62
     7
100
AcDbLine
 10
594.0
 20
0.0
 30
0.0
 11
594.0
 21
420.0
 31
0.0
  0
LINE
  5
27C
330
1B
100
AcDbEntity
 67
     1
  8
0
  6
Continuous
 62
     7
100
AcDbLine
 10
0.0
 20
420.0
 30
0.0
 11
594.0
 21
420.0
 31
0.0
  0
LINE
  5
27D
330
1B
100
AcDbEntity
 67
     1
  8
0
  6
Continuous
 62
     7
100
AcDbLine
 10
0.0
 20
0.0
 30
0.0
 11
0.0
 21
420.0
 31
0.0
  0
LWPOLYLINE
  5
27E
330
1B
100
AcDbEntity
 67
     1
  8
0
  6
Continuous
 62
     7
100
AcDbPolyline
 90
        2
 70
     0
 43
0.5
 10
584.0
 20
10.0318435754
 10
584.0
 20
410.0
  0
LWPOLYLINE
  5
27F
330
1B
100
AcDbEntity
 67
     1
  8
0
  6
Continuous
 62
     7
100
AcDbPolyline
 90
        2
 70
     0
 43
0.5
 10
10.0536312849
 20
10.0318435754
 10
10.0536312849
 20
410.0
  0
LWPOLYLINE
  5
280
330
1B
100
AcDbEntity
 67
     1
  8
0
  6
Continuous
 62
     7
100
AcDbPolyline
 90
        2
 70
     0
 43
0.5
 10
10.0536312849
 20
10.0318435754
 10
584.0
 20
10.0318435754
  0
LWPOLYLINE
  5
281
330
1B
100
AcDbEntity
 67
     1
  8
0
  6
Continuous
 62
     7
100
AcDbPolyline
 90
        2
 70
     0
 43
0.1
 10
297.0
 20
10.0
 10
297.0
 20
0.0
  0
LWPOLYLINE
  5
282
330
1B
100
AcDbEntity
 67
     1
  8
0
  6
Continuous
 62
     7
100
AcDbPolyline
 90
        2
 70
     0
 43
0.1
 10
297.0
 20
410.0
 10
297.0
 20
420.0
  0
LWPOLYLINE
  5
283
330
1B
100
AcDbEntity
 67
     1
  8
0
  6
Continuous
 62
     7
100
AcDbPolyline
 90
        2
 70
     0
 43
0.1
 10
584.0
 20
210.0
 10
594.0
 20
210.0
  0
LWPOLYLINE
  5
284
330
1B
100
AcDbEntity
 67
     1
  8
0
  6
Continuous
 62
     7
100
AcDbPolyline
 90
        2
 70
     0
 43
0.1
 10
10.0
 20
210.0
 10
0.0
 20
210.0
  0
LWPOLYLINE
  5
285
330
1B
100
AcDbEntity
 67
     1
  8
0
  6
Continuous
 62
     7
100
AcDbPolyline
 90
        2
 70
     0
 43
0.5
 10
10.0536312849
 20
410.0
 10
584.0
 20
410.0
  0
LWPOLYLINE
  5
286
330
1B
100
AcDbEntity
 67
     1
  8
0
  6
Continuous
 62
     7
100
AcDbPolyline
 90
        2
 70
     0
 43
0.1
 10
0.0
 20
413.0
 10
594.0
 20
413.0
  0
LWPOLYLINE
  5
287
330
1B
100
AcDbEntity
 67
     1
  8
0
  6
Continuous
 62
     7
100
AcDbPolyline
 90
        2
 70
     0
 43
0.1
 10
7.0536312849
 20
0.0
 10
7.0536312849
 20
420.0
  0
LWPOLYLINE
  5
288
330
1B
100
AcDbEntity
 67
     1
  8
0
  6
Continuous
 62
     7
100
AcDbPolyline
 90
        2
 70
     0
 43
0.1
 10
587.0
 20
0.0
 10
587.0
 20
420.0
  0
LWPOLYLINE
  5
289
330
1B
100
AcDbEntity
 67
     1
  8
0
  6
Continuous
 62
     7
100
AcDbPolyline
 90
        2
 70
     0
 43
0.1
 10
0.0
 20
7.0318435754
 10
594.0
 20
7.0318435754
  0
LINE
  5
28A
330
1B
100
AcDbEntity
 67
     1
  8
0
  6
Continuous
 62
     7
100
AcDbLine
 10
384.0
 20
0.0
 30
0.0
 11
384.0
 21
10.0
 31
0.0
  0
LINE
  5
28B
330
1B
100
AcDbEntity
 67
     1
  8
0
  6
Continuous
 62
     7
100
AcDbLine
 10
487.0
 20
7.0
 30
0.0
 11
487.0
 21
0.0
 31
0.0
  0
LINE
  5
28C
330
1B
100
AcDbEntity
 67
     1
  8
0
  6
Continuous
 62
     7
100
AcDbLine
 10
287.0
 20
7.0
 30
0.0
 11
287.0
 21
0.0
 31
0.0
  0
LINE
  5
28D
330
1B
100
AcDbEntity
 67
     1
  8
0
  6
Continuous
 62
     7
100
AcDbLine
 10
187.0
 20
7.0
 30
0.0
 11
187.0
 21
0.0
 31
0.0
  0
LINE
  5
28E
330
1B
100
AcDbEntity
 67
     1
  8
0
  6
Continuous
 62
     7
100
AcDbLine
 10
87.0
 20
7.0
 30
0.0
 11
87.0
 21
0.0
 31
0.0
  0
LINE
  5
28F
330
1B
100
AcDbEntity
 67
     1
  8
0
  6
Continuous
 62
     7
100
AcDbLine
 10
173.5
 20
420.0
 30
0.0
 11
173.5
 21
410.0
 31
0.0
  0
LINE
  5
290
330
1B
100
AcDbEntity
 67
     1
  8
0
  6
Continuous
 62
     7
100
AcDbLine
 10
384.0
 20
410.0
 30
0.0
 11
384.0
 21
420.0
 31
0.0
  0
LINE
  5
291
330
1B
100
AcDbEntity
 67
     1
  8
0
  6
Continuous
 62
     7
100
AcDbLine
 10
487.0
 20
420.0
 30
0.0
 11
487.0
 21
413.0
 31
0.0
  0
LINE
  5
292
330
1B
100
AcDbEntity
 67
     1
  8
0
  6
Continuous
 62
     7
100
AcDbLine
 10
287.0
 20
420.0
 30
0.0
 11
287.0
 21
413.0
 31
0.0
  0
LINE
  5
293
330
1B
100
AcDbEntity
 67
     1
  8
0
  6
Continuous
 62
     7
100
AcDbLine
 10
187.0
 20
420.0
 30
0.0
 11
187.0
 21
413.0
 31
0.0
  0
LINE
  5
294
330
1B
100
AcDbEntity
 67
     1
  8
0
  6
Continuous
 62
     7
100
AcDbLine
 10
87.0
 20
420.0
 30
0.0
 11
87.0
 21
413.0
 31
0.0
  0
LINE
  5
295
330
1B
100
AcDbEntity
 67
     1
  8
0
  6
Continuous
 62
     7
100
AcDbLine
 10
587.0
 20
307.0
 30
0.0
 11
594.0
 21
307.0
 31
0.0
  0
LINE
  5
296
330
1B
100
AcDbEntity
 67
     1
  8
0
  6
Continuous
 62
     7
100
AcDbLine
 10
0.0
 20
107.0
 30
0.0
 11
7.0
 21
107.0
 31
0.0
  0
LINE
  5
297
330
1B
100
AcDbEntity
 67
     1
  8
0
  6
Continuous
 62
     7
100
AcDbLine
 10
0.0
 20
207.0
 30
0.0
 11
7.0
 21
207.0
 31
0.0
  0
LINE
  5
298
330
1B
100
AcDbEntity
 67
     1
  8
0
  6
Continuous
 62
     7
100
AcDbLine
 10
0.0
 20
307.0
 30
0.0
 11
7.0
 21
307.0
 31
0.0
  0
MTEXT
  5
299
330
1B
100
AcDbEntity
 67
     1
  8
0
  6
Continuous
 62
     2
100
AcDbMText
 10
536.154890719
 20
5.35876025
 30
0.0
 40
4.0
 41
3.6
 46
0.0
 71
     1
 72
     1
  1
A
  7
TEXTSTYLE_2
 73
     1
 44
1.0
  0
MTEXT
  5
29A
330
1B
100
AcDbEntity
 67
     1
  8
0
  6
Continuous
 62
     2
100
AcDbMText
 10
436.154890719
 20
5.35876025
 30
0.0
 40
4.0
 41
3.6
 46
0.0
 71
     1
 72
     1
  1
B
  7
TEXTSTYLE_2
 73
     1
 44
1.0
  0
MTEXT
  5
29B
330
1B
100
AcDbEntity
 67
     1
  8
0
  6
Continuous
 62
     2
100
AcDbMText
 10
336.154890719
 20
5.35876025
 30
0.0
 40
4.0
 41
3.6
 46
0.0
 71
     1
 72
     1
  1
C
  7
TEXTSTYLE_2
 73
     1
 44
1.0
  0
MTEXT
  5
29C
330
1B
100
AcDbEntity
 67
     1
  8
0
  6
Continuous
 62
     2
100
AcDbMText
 10
236.154890719
 20
5.35876025
 30
0.0
 40
4.0
 41
3.6
 46
0.0
 71
     1
 72
     1
  1
D
  7
TEXTSTYLE_2
 73
     1
 44
1.0
  0
MTEXT
  5
29D
330
1B
100
AcDbEntity
 67
     1
  8
0
  6
Continuous
 62
     2
100
AcDbMText
 10
136.154890719
 20
5.35876025
 30
0.0
 40
4.0
 41
3.6
 46
0.0
 71
     1
 72
     1
  1
E
  7
TEXTSTYLE_2
 73
     1
 44
1.0
  0
MTEXT
  5
29E
330
1B
100
AcDbEntity
 67
     1
  8
0
  6
Continuous
 62
     2
100
AcDbMText
 10
588.6467220993
 20
60.6268709614
 30
0.0
 40
4.0
 41
3.4285714286
 46
0.0
 71
     1
 72
     1
  1
1
  7
TEXTSTYLE_3
 73
     1
 44
1.0
  0
MTEXT
  5
29F
330
1B
100
AcDbEntity
 67
     1
  8
0
  6
Continuous
 62
     2
100
AcDbMText
 10
588.6467220993
 20
260.6268709614
 30
0.0
 40
4.0
 41
4.2857142857
 46
0.0
 71
     1
 72
     1
  1
3
  7
TEXTSTYLE_3
 73
     1
 44
1.0
  0
MTEXT
  5
2A0
330
1B
100
AcDbEntity
 67
     1
  8
0
  6
Continuous
 62
     2
100
AcDbMText
 10
588.6467220993
 20
360.6268709614
 30
0.0
 40
4.0
 41
4.7142857143
 46
0.0
 71
     1
 72
     1
  1
4
  7
TEXTSTYLE_3
 73
     1
 44
1.0
  0
MTEXT
  5
2A1
330
1B
100
AcDbEntity
 67
     1
  8
0
  6
Continuous
 62
     2
100
AcDbMText
 10
36.154890719
 20
5.35876025
 30
0.0
 40
4.0
 41
3.6
 46
0.0
 71
     1
 72
     1
  1
F
  7
TEXTSTYLE_2
 73
     1
 44
1.0
  0
MTEXT
  5
2A2
330
1B
100
AcDbEntity
 67
     1
  8
0
  6
Continuous
 62
     2
100
AcDbMText
 10
536.154890719
 20
418.35876025
 30
0.0
 40
4.0
 41
3.6
 46
0.0
 71
     1
 72
     1
  1
A
  7
TEXTSTYLE_2
 73
     1
 44
1.0
  0
MTEXT
  5
2A3
330
1B
100
AcDbEntity
 67
     1
  8
0
  6
Continuous
 62
     2
100
AcDbMText
 10
436.154890719
 20
418.35876025
 30
0.0
 40
4.0
 41
3.6
 46
0.0
 71
     1
 72
     1
  1
B
  7
TEXTSTYLE_2
 73
     1
 44
1.0
  0
MTEXT
  5
2A4
330
1B
100
AcDbEntity
 67
     1
  8
0
  6
Continuous
 62
     2
100
AcDbMText
 10
336.154890719
 20
418.35876025
 30
0.0
 40
4.0
 41
3.6
 46
0.0
 71
     1
 72
     1
  1
C
  7
TEXTSTYLE_2
 73
     1
 44
1.0
  0
MTEXT
  5
2A5
330
1B
100
AcDbEntity
 67
     1
  8
0
  6
Continuous
 62
     2
100
AcDbMText
 10
236.154890719
 20
418.35876025
 30
0.0
 40
4.0
 41
3.6
 46
0.0
 71
     1
 72
     1
  1
D
  7
TEXTSTYLE_2
 73
     1
 44
1.0
  0
MTEXT
  5
2A6
330
1B
100
AcDbEntity
 67
     1
  8
0
  6
Continuous
 62
     2
100
AcDbMText
 10
136.154890719
 20
418.35876025
 30
0.0
 40
4.0
 41
3.6
 46
0.0
 71
     1
 72
     1
  1
E
  7
TEXTSTYLE_2
 73
     1
 44
1.0
  0
MTEXT
  5
2A7
330
1B
100
AcDbEntity
 67
     1
  8
0
  6
Continuous
 62
     2
100
AcDbMText
 10
36.154890719
 20
418.35876025
 30
0.0
 40
4.0
 41
3.6
 46
0.0
 71
     1
 72
     1
  1
F
  7
TEXTSTYLE_2
 73
     1
 44
1.0
  0
MTEXT
  5
2A8
330
1B
100
AcDbEntity
 67
     1
  8
0
  6
Continuous
 62
     2
100
AcDbMText
 10
1.6467220993
 20
60.6268709614
 30
0.0
 40
4.0
 41
3.4285714286
 46
0.0
 71
     1
 72
     1
  1
1
  7
TEXTSTYLE_3
 73
     1
 44
1.0
  0
MTEXT
  5
2A9
330
1B
100
AcDbEntity
 67
     1
  8
0
  6
Continuous
 62
     2
100
AcDbMText
 10
1.6467220993
 20
160.6268709614
 30
0.0
 40
4.0
 41
4.7142857143
 46
0.0
 71
     1
 72
     1
  1
2
  7
TEXTSTYLE_3
 73
     1
 44
1.0
  0
MTEXT
  5
2AA
330
1B
100
AcDbEntity
 67
     1
  8
0
  6
Continuous
 62
     2
100
AcDbMText
 10
1.6467220993
 20
260.6268709614
 30
0.0
 40
4.0
 41
4.2857142857
 46
0.0
 71
     1
 72
     1
  1
3
  7
TEXTSTYLE_3
 73
     1
 44
1.0
  0
MTEXT
  5
2AB
330
1B
100
AcDbEntity
 67
     1
  8
0
  6
Continuous
 62
     2
100
AcDbMText
 10
1.6467220993
 20
360.6268709614
 30
0.0
 40
4.0
 41
4.7142857143
 46
0.0
 71
     1
 72
     1
  1
4
  7
TEXTSTYLE_3
 73
     1
 44
1.0
  0
VIEWPORT
  5
2AC
330
1B
100
AcDbEntity
 67
     1
  8
0
100
AcDbViewport
 10
0.0
 20
0.0
 30
0.0
 40
700.1089494163423
 41
495.0770428015564
 68
     1
 69
     1
 12
330.9338521400778
 22
210.0
 13
0.0
 23
0.0
 14
1.0
 24
1.0
 15
0.0
 25
0.0
 16
0.0
 26
0.0
 36
1.0
 17
0.0
 27
0.0
 37
0.0
 42
50.0
 43
0.0
 44
0.0
 45
495.0770428015564
 50
0.0
 51
0.0
 72
   100
 90
   557216
  1

281
     0
 71
     1
 74
     0
110
0.0
120
0.0
130
0.0
111
1.0
121
0.0
131
0.0
112
0.0
122
1.0
132
0.0
 79
     0
146
0.0
170
     0
 61
     5
348
407
292
     1
282
     1
141
0.0
142
0.0
 63
   256
  0
ARC
  5
2AD
330
1B
100
AcDbEntity
 67
     1
  8
0
  6
Continuous
 62
     2
100
AcDbCircle
 10
209.5149819244
 20
220.7248435378
 30
0.0
 40
2.0
100
AcDbArc
 50
255.0
 51
270.0
  0
ARC
  5
2AE
330
1B
100
AcDbEntity
 67
     1
  8
0
  6
Continuous
 62
     2
100
AcDbCircle
 10
209.5149819244
 20
220.7248435378
 30
0.0
 40
2.0
100
AcDbArc
 50
90.0
 51
195.0
  0
ARC
  5
2AF
330
1B
100
AcDbEntity
 67
     1
  8
0
  6
Continuous
 62
     2
100
AcDbCircle
 10
209.5149819244
 20
220.7248435378
 30
0.0
 40
2.0
100
AcDbArc
 50
270.0
 51
90.0
  0
ARC
  5
2B0
330
1B
100
AcDbEntity
 67
     1
  8
0
  6
Continuous
 62
     2
100
AcDbCircle
 10
137.5149819244
 20
220.7248435378
 30
0.0
 40
2.0
100
AcDbArc
 50
255.0
 51
270.0
  0
ARC
  5
2B1
330
1B
100
AcDbEntity
 67
     1
  8
0
  6
Continuous
 62
     2
100
AcDbCircle
 10
137.5149819244
 20
220.7248435378
 30
0.0
 40
2.0
100
AcDbArc
 50
90.0
 51
195.0
  0
ARC
  5
2B2
330
1B
100
AcDbEntity
 67
     1
  8
0
  6
Continuous
 62
     2
100
AcDbCircle
 10
137.5149819244
 20
220.7248435378
 30
0.0
 40
2.0
100
AcDbArc
 50
270.0
 51
90.0
  0
ARC
  5
2B3
330
1B
100
AcDbEntity
 67
     1
  8
0
  6
Continuous
 62
     2
100
AcDbCircle
 10
137.5149819244
 20
76.7248435378
 30
0.0
 40
2.0
100
AcDbArc
 50
255.0
 51
270.0
  0
ARC
  5
2B4
330
1B
100
AcDbEntity
 67
     1
  8
0
  6
Continuous
 62
     2
100
AcDbCircle
 10
137.5149819244
 20
76.7248435378
 30
0.0
 40
2.0
100
AcDbArc
 50
90.0
 51
195.0
  0
ARC
  5
2B5
330
1B
100
AcDbEntity
 67
     1
  8
0
  6
Continuous
 62
     2
100
AcDbCircle
 10
137.5149819244
 20
76.7248435378
 30
0.0
 40
2.0
100
AcDbArc
 50
270.0
 51
90.0
  0
ARC
  5
2B6
330
1B
100
AcDbEntity
 67
     1
  8
0
  6
Continuous
 62
     2
100
AcDbCircle
 10
209.5149819244
 20
220.7248435378
 30
0.0
 40
2.0
100
AcDbArc
 50
255.0
 51
270.0
  0
ARC
  5
2B7
330
1B
100
AcDbEntity
 67
     1
  8
0
  6
Continuous
 62
     2
100
AcDbCircle
 10
209.5149819244
 20
220.7248435378
 30
0.0
 40
2.0
100
AcDbArc
 50
90.0
 51
195.0
  0
ARC
  5
2B8
330
1B
100
AcDbEntity
 67
     1
  8
0
  6
Continuous
 62
     2
100
AcDbCircle
 10
209.5149819244
 20
220.7248435378
 30
0.0
 40
2.0
100
AcDbArc
 50
270.0
 51
90.0
  0
ARC
  5
2B9
330
1B
100
AcDbEntity
 67
     1
  8
0
  6
Continuous
 62
     2
100
AcDbCircle
 10
209.5149819244
 20
76.7248435378
 30
0.0
 40
2.0
100
AcDbArc
 50
255.0
 51
270.0
  0
ARC
  5
2BA
330
1B
100
AcDbEntity
 67
     1
  8
0
  6
Continuous
 62
     2
100
AcDbCircle
 10
209.5149819244
 20
76.7248435378
 30
0.0
 40
2.0
100
AcDbArc
 50
90.0
 51
195.0
  0
ARC
  5
2BB
330
1B
100
AcDbEntity
 67
     1
  8
0
  6
Continuous
 62
     2
100
AcDbCircle
 10
209.5149819244
 20
76.7248435378
 30
0.0
 40
2.0
100
AcDbArc
 50
270.0
 51
90.0
  0
ARC
  5
2BC
330
1B
100
AcDbEntity
 67
     1
  8
3_ALL_AXES
  6
Continuous
 62
     7
100
AcDbCircle
 10
209.5149819244
 20
76.7248435378
 30
0.0
 40
1.625
100
AcDbArc
 50
0.0
 51
180.0
  0
ARC
  5
2BD
330
1B
100
AcDbEntity
 67
     1
  8
3_ALL_AXES
  6
Continuous
 62
     7
100
AcDbCircle
 10
209.5149819244
 20
76.7248435378
 30
0.0
 40
1.625
100
AcDbArc
 50
180.0
 51
360.0
  0
ARC
  5
2BE
330
1B
100
AcDbEntity
 67
     1
  8
3_ALL_AXES
  6
Continuous
 62
     7
100
AcDbCircle
 10
137.5149819244
 20
76.7248435378
 30
0.0
 40
1.625
100
AcDbArc
 50
0.0
 51
180.0
  0
ARC
  5
2BF
330
1B
100
AcDbEntity
 67
     1
  8
3_ALL_AXES
  6
Continuous
 62
     7
100
AcDbCircle
 10
137.5149819244
 20
76.7248435378
 30
0.0
 40
1.625
100
AcDbArc
 50
180.0
 51
360.0
  0
ARC
  5
2C0
330
1B
100
AcDbEntity
 67
     1
  8
3_ALL_AXES
  6
Continuous
 62
     7
100
AcDbCircle
 10
137.5149819244
 20
220.7248435378
 30
0.0
 40
1.625
100
AcDbArc
 50
0.0
 51
180.0
  0
ARC
  5
2C1
330
1B
100
AcDbEntity
 67
     1
  8
3_ALL_AXES
  6
Continuous
 62
     7
100
AcDbCircle
 10
137.5149819244
 20
220.7248435378
 30
0.0
 40
1.625
100
AcDbArc
 50
180.0
 51
360.0
  0
ARC
  5
2C2
330
1B
100
AcDbEntity
 67
     1
  8
3_ALL_AXES
  6
Continuous
 62
     7
100
AcDbCircle
 10
209.5149819244
 20
220.7248435378
 30
0.0
 40
1.625
100
AcDbArc
 50
0.0
 51
180.0
  0
ARC
  5
2C3
330
1B
100
AcDbEntity
 67
     1
  8
3_ALL_AXES
  6
Continuous
 62
     7
100
AcDbCircle
 10
209.5149819244
 20
220.7248435378
 30
0.0
 40
1.625
100
AcDbArc
 50
180.0
 51
360.0
  0
ARC
  5
2C4
330
1B
100
AcDbEntity
 67
     1
  8
3_ALL_AXES
  6
Continuous
 62
     7
100
AcDbCircle
 10
173.5149819244
 20
98.7248435378
 30
0.0
 40
6.0
100
AcDbArc
 50
270.0
 51
90.0
  0
ARC
  5
2C5
330
1B
100
AcDbEntity
 67
     1
  8
3_ALL_AXES
  6
Continuous
 62
     7
100
AcDbCircle
 10
173.5149819244
 20
98.7248435378
 30
0.0
 40
6.0
100
AcDbArc
 50
90.0
 51
270.0
  0
ARC
  5
2C6
330
1B
100
AcDbEntity
 67
     1
  8
3_ALL_AXES
  6
Continuous
 62
     7
100
AcDbCircle
 10
228.0203514551
 20
154.7954426321
 30
0.0
 40
8.0
100
AcDbArc
 50
240.1476950216
 51
60.1476950216
  0
ARC
  5
2C7
330
1B
100
AcDbEntity
 67
     1
  8
3_ALL_AXES
  6
Continuous
 62
     7
100
AcDbCircle
 10
173.5149819244
 20
59.8248435378
 30
0.0
 40
117.5
100
AcDbArc
 50
60.1476950216
 51
80.14769502159999
  0
ARC
  5
2C8
330
1B
100
AcDbEntity
 67
     1
  8
3_ALL_AXES
  6
Continuous
 62
     7
100
AcDbCircle
 10
192.2514175517
 20
167.7099489972
 30
0.0
 40
8.0
100
AcDbArc
 50
80.14769502159999
 51
260.1476950215999
  0
ARC
  5
2C9
330
1B
100
AcDbEntity
 67
     1
  8
3_ALL_AXES
  6
Continuous
 62
     7
100
AcDbCircle
 10
173.5149819244
 20
59.8248435378
 30
0.0
 40
101.5
100
AcDbArc
 50
60.1476950216
 51
80.14769502159999
  0
ARC
  5
2CA
330
1B
100
AcDbEntity
 67
     1
  8
3_ALL_AXES
  6
Continuous
 62
     7
100
AcDbCircle
 10
154.778546297
 20
167.7099489972
 30
0.0
 40
8.0
100
AcDbArc
 50
279.8523049784
 51
99.85230497840001
  0
ARC
  5
2CB
330
1B
100
AcDbEntity
 67
     1
  8
3_ALL_AXES
  6
Continuous
 62
     7
100
AcDbCircle
 10
173.5149819244
 20
59.8248435378
 30
0.0
 40
117.5
100
AcDbArc
 50
99.85230497840001
 51
119.8523049784
  0
ARC
  5
2CC
330
1B
100
AcDbEntity
 67
     1
  8
3_ALL_AXES
  6
Continuous
 62
     7
100
AcDbCircle
 10
119.0096123936
 20
154.7954426321
 30
0.0
 40
8.0
100
AcDbArc
 50
119.8523049784
 51
299.8523049785
  0
ARC
  5
2CD
330
1B
100
AcDbEntity
 67
     1
  8
3_ALL_AXES
  6
Continuous
 62
     7
100
AcDbCircle
 10
173.5149819244
 20
59.8248435378
 30
0.0
 40
101.5
100
AcDbArc
 50
99.85230497840001
 51
119.8523049784
  0
ARC
  5
2CE
330
1B
100
AcDbEntity
 67
     1
  8
3_ALL_AXES
  6
Continuous
 62
     7
100
AcDbCircle
 10
173.5149819244
 20
59.8248435378
 30
0.0
 40
114.5
100
AcDbArc
 50
60.1476950216
 51
80.14769502159999
  0
ARC
  5
2CF
330
1B
100
AcDbEntity
 67
     1
  8
3_ALL_AXES
  6
Continuous
 62
     7
100
AcDbCircle
 10
192.2514175517
 20
167.7099489972
 30
0.0
 40
5.0
100
AcDbArc
 50
80.14769502159999
 51
260.1476950215999
  0
ARC
  5
2D0
330
1B
100
AcDbEntity
 67
     1
  8
3_ALL_AXES
  6
Continuous
 62
     7
100
AcDbCircle
 10
173.5149819244
 20
59.8248435378
 30
0.0
 40
104.5
100
AcDbArc
 50
60.1476950216
 51
80.14769502159999
  0
ARC
  5
2D1
330
1B
100
AcDbEntity
 67
     1
  8
3_ALL_AXES
  6
Continuous
 62
     7
100
AcDbCircle
 10
228.0203514551
 20
154.7954426321
 30
0.0
 40
5.0
100
AcDbArc
 50
240.1476950216
 51
60.1476950216
  0
ARC
  5
2D2
330
1B
100
AcDbEntity
 67
     1
  8
3_ALL_AXES
  6
Continuous
 62
     7
100
AcDbCircle
 10
173.5149819244
 20
59.8248435378
 30
0.0
 40
114.5
100
AcDbArc
 50
99.85230497840001
 51
119.8523049784
  0
ARC
  5
2D3
330
1B
100
AcDbEntity
 67
     1
  8
3_ALL_AXES
  6
Continuous
 62
     7
100
AcDbCircle
 10
119.0096123936
 20
154.7954426321
 30
0.0
 40
5.0
100
AcDbArc
 50
119.8523049784
 51
299.8523049785
  0
ARC
  5
2D4
330
1B
100
AcDbEntity
 67
     1
  8
3_ALL_AXES
  6
Continuous
 62
     7
100
AcDbCircle
 10
173.5149819244
 20
59.8248435378
 30
0.0
 40
104.5
100
AcDbArc
 50
99.85230497840001
 51
119.8523049784
  0
ARC
  5
2D5
330
1B
100
AcDbEntity
 67
     1
  8
3_ALL_AXES
  6
Continuous
 62
     7
100
AcDbCircle
 10
154.778546297
 20
167.7099489972
 30
0.0
 40
5.0
100
AcDbArc
 50
279.8523049784
 51
99.85230497840001
  0
ARC
  5
2D6
330
1B
100
AcDbEntity
 67
     1
  8
7_ALL_FEATURES
  6
Continuous
 62
     7
100
AcDbCircle
 10
173.5149819244
 20
59.8248435378
 30
0.0
 40
147.7518444143
100
AcDbArc
 50
89.4095488053
 51
90.5729203625
  0
ARC
  5
2D7
330
1B
100
AcDbEntity
 67
     1
  8
7_ALL_FEATURES
  6
Continuous
 62
     7
100
AcDbCircle
 10
173.5149819244
 20
59.8248435378
 30
0.0
 40
129.8481555857
100
AcDbArc
 50
89.3281328651
 51
90.651918818
  0
ARC
  5
2D8
330
1B
100
AcDbEntity
 67
     1
  8
3_ALL_AXES
  6
Continuous
 62
     7
100
AcDbCircle
 10
173.5149819244
 20
98.7248435378
 30
0.0
 40
3.25
100
AcDbArc
 50
270.0
 51
90.0
  0
ARC
  5
2D9
330
1B
100
AcDbEntity
 67
     1
  8
3_ALL_AXES
  6
Continuous
 62
     7
100
AcDbCircle
 10
173.5149819244
 20
98.7248435378
 30
0.0
 40
3.25
100
AcDbArc
 50
90.0
 51
270.0
  0
LINE
  5
2DA
330
1B
100
AcDbEntity
 67
     1
  8
7_ALL_FEATURES
  6
Continuous
 62
     7
100
AcDbLine
 10
251.4149819244
 20
202.1042517458
 30
0.0
 11
251.4149819244
 21
84.8248435378
 31
0.0
  0
ARC
  5
2DB
330
1B
100
AcDbEntity
 67
     1
  8
7_ALL_FEATURES
  6
Continuous
 62
     7
100
AcDbCircle
 10
239.4149819244
 20
84.8248435378
 30
0.0
 40
12.0
100
AcDbArc
 50
270.0
 51
360.0
  0
LINE
  5
2DC
330
1B
100
AcDbEntity
 67
     1
  8
7_ALL_FEATURES
  6
Continuous
 62
     7
100
AcDbLine
 10
239.4149819244
 20
72.8248435378
 30
0.0
 11
107.6149819244
 21
72.8248435378
 31
0.0
  0
ARC
  5
2DD
330
1B
100
AcDbEntity
 67
     1
  8
7_ALL_FEATURES
  6
Continuous
 62
     7
100
AcDbCircle
 10
107.6149819244
 20
84.8248435378
 30
0.0
 40
12.0
100
AcDbArc
 50
180.0
 51
270.0
  0
LINE
  5
2DE
330
1B
100
AcDbEntity
 67
     1
  8
7_ALL_FEATURES
  6
Continuous
 62
     7
100
AcDbLine
 10
95.6149819244
 20
84.8248435378
 30
0.0
 11
95.6149819244
 21
202.1042517458
 31
0.0
  0
ARC
  5
2DF
330
1B
100
AcDbEntity
 67
     1
  8
7_ALL_FEATURES
  6
Continuous
 62
     7
100
AcDbCircle
 10
107.6149819244
 20
202.1042517458
 30
0.0
 40
12.0
100
AcDbArc
 50
114.8523049784
 51
180.0
  0
ARC
  5
2E0
330
1B
100
AcDbEntity
 67
     1
  8
7_ALL_FEATURES
  6
Continuous
 62
     7
100
AcDbCircle
 10
173.5149819244
 20
59.8248435378
 30
0.0
 40
168.8
100
AcDbArc
 50
65.1476950216
 51
114.8523049784
  0
ARC
  5
2E1
330
1B
100
AcDbEntity
 67
     1
  8
7_ALL_FEATURES
  6
Continuous
 62
     7
100
AcDbCircle
 10
239.4149819244
 20
202.1042517458
 30
0.0
 40
12.0
100
AcDbArc
 50
0.0
 51
65.1476950216
  0
ARC
  5
2E2
330
1B
100
AcDbEntity
 67
     1
  8
7_ALL_FEATURES
  6
Continuous
 62
     7
100
AcDbCircle
 10
137.5908984641
 20
193.8953482268
 30
0.0
 40
9.7903688829
100
AcDbArc
 50
105.0
 51
285.0
  0
ARC
  5
2E3
330
1B
100
AcDbEntity
 67
     1
  8
7_ALL_FEATURES
  6
Continuous
 62
     7
100
AcDbCircle
 10
173.5149819244
 20
59.8248435378
 30
0.0
 40
129.0096311171
100
AcDbArc
 50
75.0
 51
89.0755970312
  0
LINE
  5
2E4
330
1B
100
AcDbEntity
 67
     1
  8
7_ALL_FEATURES
  6
Continuous
 62
     7
100
AcDbLine
 10
172.0375846303
 20
189.6645940237
 30
0.0
 11
171.4788523184
 21
188.8184057695
 31
0.0
  0
ARC
  5
2E5
330
1B
100
AcDbEntity
 67
     1
  8
7_ALL_FEATURES
  6
Continuous
 62
     7
100
AcDbCircle
 10
173.5149819244
 20
59.8248435378
 30
0.0
 40
129.0096311171
100
AcDbArc
 50
90.9043237766
 51
105.0
  0
ARC
  5
2E6
330
1B
100
AcDbEntity
 67
     1
  8
7_ALL_FEATURES
  6
Continuous
 62
     7
100
AcDbCircle
 10
209.4390653846
 20
193.8953482268
 30
0.0
 40
9.7903688829
100
AcDbArc
 50
255.0
 51
75.0
  0
ARC
  5
2E7
330
1B
100
AcDbEntity
 67
     1
  8
7_ALL_FEATURES
  6
Continuous
 62
     7
100
AcDbCircle
 10
173.5149819244
 20
59.8248435378
 30
0.0
 40
148.5903688829
100
AcDbArc
 50
90.7851470126
 51
105.0
  0
LINE
  5
2E8
330
1B
100
AcDbEntity
 67
     1
  8
7_ALL_FEATURES
  6
Continuous
 62
     7
100
AcDbLine
 10
175.0375846303
 20
207.5688424307
 30
0.0
 11
175.5963169421
 21
208.4006348677
 31
0.0
  0
ARC
  5
2E9
330
1B
100
AcDbEntity
 67
     1
  8
7_ALL_FEATURES
  6
Continuous
 62
     7
100
AcDbCircle
 10
173.5149819244
 20
59.8248435378
 30
0.0
 40
148.5903688829
100
AcDbArc
 50
75.0
 51
89.1974203101
  0
LINE
  5
2EA
330
1B
100
AcDbEntity
 67
     1
  8
7_ALL_FEATURES
  6
Continuous
 62
     7
100
AcDbLine
 10
175.0375846303
 20
189.664071778
 30
0.0
 11
175.5963169421
 21
188.8176842908
 31
0.0
  0
LINE
  5
2EB
330
1B
100
AcDbEntity
 67
     1
  8
7_ALL_FEATURES
  6
Continuous
 62
     7
100
AcDbLine
 10
172.0375846303
 20
207.5693013868
 30
0.0
 11
171.4788523184
 21
208.4012612527
 31
0.0
  0
LINE
  5
2EC
330
1B
100
AcDbEntity
 67
     1
  8
7_ALL_FEATURES
  6
Continuous
 62
     9
100
AcDbLine
 10
96.3073509287
 20
202.1042517458
 30
0.0
 11
95.8076555152
 21
202.1042517458
 31
0.0
  0
ARC
  5
2ED
330
1B
100
AcDbEntity
 67
     1
  8
7_ALL_FEATURES
  6
Continuous
 62
     7
100
AcDbCircle
 10
137.5908984641
 20
193.8953482268
 30
0.0
 40
10.0
100
AcDbArc
 50
105.0
 51
285.0
  0
ARC
  5
2EE
330
1B
100
AcDbEntity
 67
     1
  8
7_ALL_FEATURES
  6
Continuous
 62
     9
100
AcDbCircle
 10
239.4149819244
 20
202.1042517458
 30
0.0
 40
11.8073264092
100
AcDbArc
 50
0.0
 51
65.1476950216
  0
LINE
  5
2EF
330
1B
100
AcDbEntity
 67
     1
  8
7_ALL_FEATURES
  6
Continuous
 62
     9
100
AcDbLine
 10
244.3773722966
 20
212.8181510698
 30
0.0
 11
244.4583492713
 21
212.9929819658
 31
0.0
  0
ARC
  5
2F0
330
1B
100
AcDbEntity
 67
     1
  8
7_ALL_FEATURES
  6
Continuous
 62
     9
100
AcDbCircle
 10
107.6149819244
 20
84.8248435378
 30
0.0
 40
11.3076309956
100
AcDbArc
 50
180.0
 51
270.0
  0
LINE
  5
2F1
330
1B
100
AcDbEntity
 67
     1
  8
7_ALL_FEATURES
  6
Continuous
 62
     9
100
AcDbLine
 10
96.3073509287
 20
202.1042517458
 30
0.0
 11
96.3073509287
 21
84.8248435378
 31
0.0
  0
ARC
  5
2F2
330
1B
100
AcDbEntity
 67
     1
  8
7_ALL_FEATURES
  6
Continuous
 62
     9
100
AcDbCircle
 10
107.6149819244
 20
202.1042517458
 30
0.0
 40
11.3076309956
100
AcDbArc
 50
114.8523049784
 51
180.0
  0
ARC
  5
2F3
330
1B
100
AcDbEntity
 67
     1
  8
7_ALL_FEATURES
  6
Continuous
 62
     9
100
AcDbCircle
 10
173.5149819244
 20
59.8248435378
 30
0.0
 40
168.1076309956
100
AcDbArc
 50
65.1476950216
 51
114.8523049784
  0
LINE
  5
2F4
330
1B
100
AcDbEntity
 67
     1
  8
7_ALL_FEATURES
  6
Continuous
 62
     9
100
AcDbLine
 10
96.3073509287
 20
84.8248435378
 30
0.0
 11
95.8076555152
 21
84.824843546
 31
0.0
  0
LINE
  5
2F5
330
1B
100
AcDbEntity
 67
     1
  8
7_ALL_FEATURES
  6
Continuous
 62
     9
100
AcDbLine
 10
107.6149819244
 20
73.5172125422
 30
0.0
 11
107.6149819244
 21
73.0175171287
 31
0.0
  0
LINE
  5
2F6
330
1B
100
AcDbEntity
 67
     1
  8
7_ALL_FEATURES
  6
Continuous
 62
     9
100
AcDbLine
 10
239.4149819244
 20
73.5172125422
 30
0.0
 11
239.4149819162
 21
73.0175171287
 31
0.0
  0
LINE
  5
2F7
330
1B
100
AcDbEntity
 67
     1
  8
7_ALL_FEATURES
  6
Continuous
 62
     9
100
AcDbLine
 10
251.2223083335
 20
84.8248435378
 30
0.0
 11
251.2223083335
 21
202.1042517458
 31
0.0
  0
LINE
  5
2F8
330
1B
100
AcDbEntity
 67
     1
  8
7_ALL_FEATURES
  6
Continuous
 62
     9
100
AcDbLine
 10
251.2223083335
 20
202.1042517458
 30
0.0
 11
251.4149819244
 21
202.1042517458
 31
0.0
  0
LINE
  5
2F9
330
1B
100
AcDbEntity
 67
     1
  8
7_ALL_FEATURES
  6
Continuous
 62
     9
100
AcDbLine
 10
250.72261292
 20
84.8248435378
 30
0.0
 11
251.2223083335
 21
84.8248435378
 31
0.0
  0
ARC
  5
2FA
330
1B
100
AcDbEntity
 67
     1
  8
7_ALL_FEATURES
  6
Continuous
 62
     9
100
AcDbCircle
 10
239.4149819244
 20
84.8248435378
 30
0.0
 40
11.8073264092
100
AcDbArc
 50
270.0
 51
360.0
  0
LINE
  5
2FB
330
1B
100
AcDbEntity
 67
     1
  8
7_ALL_FEATURES
  6
Continuous
 62
     9
100
AcDbLine
 10
251.2223083335
 20
84.8248435378
 30
0.0
 11
251.4149819244
 21
84.8248435378
 31
0.0
  0
LINE
  5
2FC
330
1B
100
AcDbEntity
 67
     1
  8
7_ALL_FEATURES
  6
Continuous
 62
     9
100
AcDbLine
 10
250.72261292
 20
202.1042517458
 30
0.0
 11
251.2223083335
 21
202.1042517384
 31
0.0
  0
LINE
  5
2FD
330
1B
100
AcDbEntity
 67
     1
  8
7_ALL_FEATURES
  6
Continuous
 62
     9
100
AcDbLine
 10
244.1673600022
 20
212.3647303574
 30
0.0
 11
244.3773722966
 21
212.8181510698
 31
0.0
  0
LINE
  5
2FE
330
1B
100
AcDbEntity
 67
     1
  8
7_ALL_FEATURES
  6
Continuous
 62
     9
100
AcDbLine
 10
140.1248323896
 20
184.4385780739
 30
0.0
 11
140.1790889152
 21
184.2360899639
 31
0.0
  0
LINE
  5
2FF
330
1B
100
AcDbEntity
 67
     1
  8
7_ALL_FEATURES
  6
Continuous
 62
     9
100
AcDbLine
 10
107.6149819244
 20
73.0175171287
 30
0.0
 11
239.4149819244
 21
73.0175171287
 31
0.0
  0
LINE
  5
300
330
1B
100
AcDbEntity
 67
     1
  8
7_ALL_FEATURES
  6
Continuous
 62
     9
100
AcDbLine
 10
206.9051314591
 20
184.4385780739
 30
0.0
 11
206.8508749336
 21
184.2360899639
 31
0.0
  0
LINE
  5
301
330
1B
100
AcDbEntity
 67
     1
  8
7_ALL_FEATURES
  6
Continuous
 62
     9
100
AcDbLine
 10
239.4149819244
 20
73.0175171287
 30
0.0
 11
239.4149819244
 21
72.8248435378
 31
0.0
  0
ARC
  5
302
330
1B
100
AcDbEntity
 67
     1
  8
7_ALL_FEATURES
  6
Continuous
 62
     9
100
AcDbCircle
 10
239.4149819244
 20
202.1042517458
 30
0.0
 40
11.3076309956
100
AcDbArc
 50
0.0
 51
65.1476950216
  0
LINE
  5
303
330
1B
100
AcDbEntity
 67
     1
  8
7_ALL_FEATURES
  6
Continuous
 62
     9
100
AcDbLine
 10
250.72261292
 20
84.8248435378
 30
0.0
 11
250.72261292
 21
202.1042517458
 31
0.0
  0
LINE
  5
304
330
1B
100
AcDbEntity
 67
     1
  8
7_ALL_FEATURES
  6
Continuous
 62
     9
100
AcDbLine
 10
211.9729993101
 20
203.3521183796
 30
0.0
 11
212.0272558356
 21
203.5546064897
 31
0.0
  0
ARC
  5
305
330
1B
100
AcDbEntity
 67
     1
  8
7_ALL_FEATURES
  6
Continuous
 62
     9
100
AcDbCircle
 10
107.6149819244
 20
84.8248435378
 30
0.0
 40
11.8073264092
100
AcDbArc
 50
180.0
 51
270.0
  0
LINE
  5
306
330
1B
100
AcDbEntity
 67
     1
  8
7_ALL_FEATURES
  6
Continuous
 62
     9
100
AcDbLine
 10
135.0569645387
 20
203.3521183796
 30
0.0
 11
135.0027080131
 21
203.5546064897
 31
0.0
  0
LINE
  5
307
330
1B
100
AcDbEntity
 67
     1
  8
7_ALL_FEATURES
  6
Continuous
 62
     9
100
AcDbLine
 10
107.6149819244
 20
73.0175171287
 30
0.0
 11
107.6149819244
 21
72.8248435378
 31
0.0
  0
ARC
  5
308
330
1B
100
AcDbEntity
 67
     1
  8
7_ALL_FEATURES
  6
Continuous
 62
     9
100
AcDbCircle
 10
239.4149819244
 20
84.8248435378
 30
0.0
 40
11.3076309956
100
AcDbArc
 50
270.0
 51
360.0
  0
LINE
  5
309
330
1B
100
AcDbEntity
 67
     1
  8
7_ALL_FEATURES
  6
Continuous
 62
     9
100
AcDbLine
 10
107.6149819244
 20
73.5172125422
 30
0.0
 11
239.4149819244
 21
73.5172125422
 31
0.0
  0
LINE
  5
30A
330
1B
100
AcDbEntity
 67
     1
  8
7_ALL_FEATURES
  6
Continuous
 62
     9
100
AcDbLine
 10
95.8076555152
 20
202.1042517458
 30
0.0
 11
95.8076555152
 21
84.8248435378
 31
0.0
  0
LINE
  5
30B
330
1B
100
AcDbEntity
 67
     1
  8
7_ALL_FEATURES
  6
Continuous
 62
     9
100
AcDbLine
 10
95.8076555152
 20
84.8248435378
 30
0.0
 11
95.6149819244
 21
84.8248435378
 31
0.0
  0
LINE
  5
30C
330
1B
100
AcDbEntity
 67
     1
  8
7_ALL_FEATURES
  6
Continuous
 62
     9
100
AcDbLine
 10
102.8626038465
 20
212.3647303574
 30
0.0
 11
102.6525915589
 21
212.8181510729
 31
0.0
  0
ARC
  5
30D
330
1B
100
AcDbEntity
 67
     1
  8
7_ALL_FEATURES
  6
Continuous
 62
     7
100
AcDbCircle
 10
173.5149819244
 20
59.8248435378
 30
0.0
 40
128.8
100
AcDbArc
 50
75.0
 51
105.0
  0
ARC
  5
30E
330
1B
100
AcDbEntity
 67
     1
  8
7_ALL_FEATURES
  6
Continuous
 62
     9
100
AcDbCircle
 10
107.6149819244
 20
202.1042517458
 30
0.0
 40
11.8073264092
100
AcDbArc
 50
114.8523049784
 51
180.0
  0
LINE
  5
30F
330
1B
100
AcDbEntity
 67
     1
  8
7_ALL_FEATURES
  6
Continuous
 62
     9
100
AcDbLine
 10
95.8076555152
 20
202.1042517458
 30
0.0
 11
95.6149819244
 21
202.1042517458
 31
0.0
  0
ARC
  5
310
330
1B
100
AcDbEntity
 67
     1
  8
7_ALL_FEATURES
  6
Continuous
 62
     7
100
AcDbCircle
 10
209.4390653846
 20
193.8953482268
 30
0.0
 40
10.0
100
AcDbArc
 50
255.0
 51
75.0
  0
ARC
  5
311
330
1B
100
AcDbEntity
 67
     1
  8
7_ALL_FEATURES
  6
Continuous
 62
     7
100
AcDbCircle
 10
173.5149819244
 20
59.8248435378
 30
0.0
 40
148.8
100
AcDbArc
 50
75.0
 51
105.0
  0
ARC
  5
312
330
1B
100
AcDbEntity
 67
     1
  8
7_ALL_FEATURES
  6
Continuous
 62
     9
100
AcDbCircle
 10
173.5149819244
 20
59.8248435378
 30
0.0
 40
168.6073264092
100
AcDbArc
 50
65.1476950216
 51
114.8523049784
  0
LINE
  5
313
330
1B
100
AcDbEntity
 67
     1
  8
7_ALL_FEATURES
  6
Continuous
 62
     9
100
AcDbLine
 10
102.6525915521
 20
212.8181510698
 30
0.0
 11
102.5716145774
 21
212.9929819658
 31
0.0
  0
LINE
  5
314
330
1B
100
AcDbEntity
 67
     1
  8
7_ALL_FEATURES
  6
Continuous
 62
     7
100
AcDbLine
 10
96.3073509287
 20
334.007612627
 30
0.0
 11
107.6149819244
 21
334.007612627
 31
0.0
  0
LINE
  5
315
330
1B
100
AcDbEntity
 67
     1
  8
7_ALL_FEATURES
  6
Continuous
 62
     7
100
AcDbLine
 10
239.4149819244
 20
334.007612627
 30
0.0
 11
250.72261292
 21
334.007612627
 31
0.0
  0
LINE
  5
316
330
1B
100
AcDbEntity
 67
     1
  8
7_ALL_FEATURES
  6
Continuous
 62
     7
100
AcDbLine
 10
107.6149819244
 20
334.007612627
 30
0.0
 11
239.4149819244
 21
334.007612627
 31
0.0
  0
LINE
  5
317
330
1B
100
AcDbEntity
 67
     1
  8
7_ALL_FEATURES
  6
Continuous
 62
     7
100
AcDbLine
 10
107.6149819244
 20
314.007612627
 30
0.0
 11
105.5145879588
 21
314.007612627
 31
0.0
  0
LINE
  5
318
330
1B
100
AcDbEntity
 67
     1
  8
7_ALL_FEATURES
  6
Continuous
 62
     7
100
AcDbLine
 10
105.5145879588
 20
314.007612627
 30
0.0
 11
105.3215724595
 21
314.007612627
 31
0.0
  0
LINE
  5
319
330
1B
100
AcDbEntity
 67
     1
  8
7_ALL_FEATURES
  6
Continuous
 62
     7
100
AcDbLine
 10
105.3215724595
 20
314.007612627
 30
0.0
 11
105.2932783836
 21
314.007612627
 31
0.0
  0
LINE
  5
31A
330
1B
100
AcDbEntity
 67
     1
  8
7_ALL_FEATURES
  6
Continuous
 62
     7
100
AcDbLine
 10
105.2932783836
 20
314.007612627
 30
0.0
 11
105.2194329741
 21
314.007612627
 31
0.0
  0
LINE
  5
31B
330
1B
100
AcDbEntity
 67
     1
  8
7_ALL_FEATURES
  6
Continuous
 62
     7
100
AcDbLine
 10
105.2194329741
 20
314.007612627
 30
0.0
 11
99.8599621455
 21
314.007612627
 31
0.0
  0
LINE
  5
31C
330
1B
100
AcDbEntity
 67
     1
  8
7_ALL_FEATURES
  6
Continuous
 62
     7
100
AcDbLine
 10
99.8599621455
 20
314.007612627
 30
0.0
 11
95.8593528334
 21
314.007612627
 31
0.0
  0
LINE
  5
31D
330
1B
100
AcDbEntity
 67
     1
  8
7_ALL_FEATURES
  6
Continuous
 62
     7
100
AcDbLine
 10
239.4149819244
 20
314.007612627
 30
0.0
 11
107.6149819244
 21
314.007612627
 31
0.0
  0
LINE
  5
31E
330
1B
100
AcDbEntity
 67
     1
  8
7_ALL_FEATURES
  6
Continuous
 62
     7
100
AcDbLine
 10
251.1706110154
 20
314.007612627
 30
0.0
 11
247.1700017032
 21
314.007612627
 31
0.0
  0
LINE
  5
31F
330
1B
100
AcDbEntity
 67
     1
  8
7_ALL_FEATURES
  6
Continuous
 62
     7
100
AcDbLine
 10
247.1700017032
 20
314.007612627
 30
0.0
 11
241.8105729085
 21
314.007612627
 31
0.0
  0
LINE
  5
320
330
1B
100
AcDbEntity
 67
     1
  8
7_ALL_FEATURES
  6
Continuous
 62
     7
100
AcDbLine
 10
241.8105729085
 20
314.007612627
 30
0.0
 11
241.7366854666
 21
314.007612627
 31
0.0
  0
LINE
  5
321
330
1B
100
AcDbEntity
 67
     1
  8
7_ALL_FEATURES
  6
Continuous
 62
     7
100
AcDbLine
 10
241.7366854666
 20
314.007612627
 30
0.0
 11
241.7083913892
 21
314.007612627
 31
0.0
  0
LINE
  5
322
330
1B
100
AcDbEntity
 67
     1
  8
7_ALL_FEATURES
  6
Continuous
 62
     7
100
AcDbLine
 10
241.7083913892
 20
314.007612627
 30
0.0
 11
241.5149819244
 21
314.007612627
 31
0.0
  0
LINE
  5
323
330
1B
100
AcDbEntity
 67
     1
  8
7_ALL_FEATURES
  6
Continuous
 62
     7
100
AcDbLine
 10
241.5149819244
 20
314.007612627
 30
0.0
 11
239.4149819244
 21
314.007612627
 31
0.0
  0
LINE
  5
324
330
1B
100
AcDbEntity
 67
     1
  8
7_ALL_FEATURES
  6
Continuous
 62
     7
100
AcDbLine
 10
251.4149819244
 20
328.007612627
 30
0.0
 11
251.1706110154
 21
314.007612627
 31
0.0
  0
LINE
  5
325
330
1B
100
AcDbEntity
 67
     1
  8
7_ALL_FEATURES
  6
Continuous
 62
     7
100
AcDbLine
 10
251.2223083335
 20
333.5250623754
 30
0.0
 11
251.4149819244
 21
328.007612627
 31
0.0
  0
LINE
  5
326
330
1B
100
AcDbEntity
 67
     1
  8
7_ALL_FEATURES
  6
Continuous
 62
     7
100
AcDbLine
 10
95.6149819244
 20
328.007612627
 30
0.0
 11
95.8593528334
 21
314.007612627
 31
0.0
  0
LINE
  5
327
330
1B
100
AcDbEntity
 67
     1
  8
7_ALL_FEATURES
  6
Continuous
 62
     7
100
AcDbLine
 10
95.8076555152
 20
333.5250623754
 30
0.0
 11
95.6149819244
 21
328.007612627
 31
0.0
  0
ARC
  5
328
330
1B
100
AcDbEntity
 67
     1
  8
7_ALL_FEATURES
  6
Continuous
 62
     7
100
AcDbCircle
 10
96.3073509287
 20
333.507612627
 30
0.0
 40
0.5
100
AcDbArc
 50
90.0
 51
177.9999999742
  0
ARC
  5
329
330
1B
100
AcDbEntity
 67
     1
  8
7_ALL_FEATURES
  6
Continuous
 62
     7
100
AcDbCircle
 10
250.72261292
 20
333.507612627
 30
0.0
 40
0.5
100
AcDbArc
 50
2.0
 51
90.0
  0
LINE
  5
32A
330
1B
100
AcDbEntity
 67
     1
  8
7_ALL_FEATURES
  6
Continuous
 62
     9
100
AcDbLine
 10
107.6149819244
 20
333.5250623754
 30
0.0
 11
107.6149819244
 21
328.007612627
 31
0.0
  0
LINE
  5
32B
330
1B
100
AcDbEntity
 67
     1
  8
7_ALL_FEATURES
  6
Continuous
 62
     7
100
AcDbLine
 10
107.6149819244
 20
328.007612627
 30
0.0
 11
99.6162007344
 21
328.007612627
 31
0.0
  0
LINE
  5
32C
330
1B
100
AcDbEntity
 67
     1
  8
7_ALL_FEATURES
  6
Continuous
 62
     7
100
AcDbLine
 10
99.6162007344
 20
328.007612627
 30
0.0
 11
95.6149819244
 21
328.007612627
 31
0.0
  0
LINE
  5
32D
330
1B
100
AcDbEntity
 67
     1
  8
7_ALL_FEATURES
  6
Continuous
 62
     9
100
AcDbLine
 10
107.6149819244
 20
334.007612627
 30
0.0
 11
107.6149819244
 21
333.5250623754
 31
0.0
  0
LINE
  5
32E
330
1B
100
AcDbEntity
 67
     1
  8
7_ALL_FEATURES
  6
Continuous
 62
     9
100
AcDbLine
 10
239.4149819244
 20
334.007612627
 30
0.0
 11
239.4149819162
 21
333.5250623756
 31
0.0
  0
LINE
  5
32F
330
1B
100
AcDbEntity
 67
     1
  8
7_ALL_FEATURES
  6
Continuous
 62
     9
100
AcDbLine
 10
239.4149819244
 20
333.5250623754
 30
0.0
 11
251.2223083335
 21
333.5250623754
 31
0.0
  0
LINE
  5
330
330
1B
100
AcDbEntity
 67
     1
  8
7_ALL_FEATURES
  6
Continuous
 62
     7
100
AcDbLine
 10
251.4149819244
 20
328.007612627
 30
0.0
 11
247.4137631144
 21
328.007612627
 31
0.0
  0
LINE
  5
331
330
1B
100
AcDbEntity
 67
     1
  8
7_ALL_FEATURES
  6
Continuous
 62
     7
100
AcDbLine
 10
247.4137631144
 20
328.007612627
 30
0.0
 11
239.4149819244
 21
328.007612627
 31
0.0
  0
LINE
  5
332
330
1B
100
AcDbEntity
 67
     1
  8
7_ALL_FEATURES
  6
Continuous
 62
     9
100
AcDbLine
 10
239.4149819244
 20
328.007612627
 30
0.0
 11
239.4149819244
 21
314.007612627
 31
0.0
  0
LINE
  5
333
330
1B
100
AcDbEntity
 67
     1
  8
7_ALL_FEATURES
  6
Continuous
 62
     9
100
AcDbLine
 10
107.6149819244
 20
333.5250623754
 30
0.0
 11
239.4149819244
 21
333.5250623754
 31
0.0
  0
LINE
  5
334
330
1B
100
AcDbEntity
 67
     1
  8
7_ALL_FEATURES
  6
Continuous
 62
     9
100
AcDbLine
 10
239.4149819244
 20
333.5250623754
 30
0.0
 11
239.4149819244
 21
328.007612627
 31
0.0
  0
LINE
  5
335
330
1B
100
AcDbEntity
 67
     1
  8
7_ALL_FEATURES
  6
Continuous
 62
     7
100
AcDbLine
 10
239.4149819244
 20
328.007612627
 30
0.0
 11
107.6149819244
 21
328.007612627
 31
0.0
  0
LINE
  5
336
330
1B
100
AcDbEntity
 67
     1
  8
7_ALL_FEATURES
  6
Continuous
 62
     9
100
AcDbLine
 10
107.6149819244
 20
328.007612627
 30
0.0
 11
107.6149819244
 21
314.007612627
 31
0.0
  0
LINE
  5
337
330
1B
100
AcDbEntity
 67
     1
  8
7_ALL_FEATURES
  6
Continuous
 62
     9
100
AcDbLine
 10
95.8076555152
 20
333.5250623754
 30
0.0
 11
107.6149819244
 21
333.5250623754
 31
0.0
  0
LINE
  5
338
330
1B
100
AcDbEntity
 67
     1
  8
7_ALL_FEATURES
  6
Continuous
 62
     7
100
AcDbLine
 10
504.1268388871
 20
334.007612627
 30
0.0
 11
515.4344698827
 21
334.007612627
 31
0.0
  0
LINE
  5
339
330
1B
100
AcDbEntity
 67
     1
  8
7_ALL_FEATURES
  6
Continuous
 62
     7
100
AcDbLine
 10
386.8474306791
 20
334.007612627
 30
0.0
 11
504.1268388871
 21
334.007612627
 31
0.0
  0
LINE
  5
33A
330
1B
100
AcDbEntity
 67
     1
  8
7_ALL_FEATURES
  6
Continuous
 62
     7
100
AcDbLine
 10
376.5869520676
 20
334.007612627
 30
0.0
 11
386.8474306791
 21
334.007612627
 31
0.0
  0
LINE
  5
33B
330
1B
100
AcDbEntity
 67
     1
  8
7_ALL_FEATURES
  6
Continuous
 62
     7
100
AcDbLine
 10
376.1804412009
 20
314.007612627
 30
0.0
 11
373.8518107031
 21
314.007612627
 31
0.0
  0
LINE
  5
33C
330
1B
100
AcDbEntity
 67
     1
  8
7_ALL_FEATURES
  6
Continuous
 62
     7
100
AcDbLine
 10
373.8518107031
 20
314.007612627
 30
0.0
 11
371.2264094137
 21
314.007612627
 31
0.0
  0
LINE
  5
33D
330
1B
100
AcDbEntity
 67
     1
  8
7_ALL_FEATURES
  6
Continuous
 62
     7
100
AcDbLine
 10
371.2264094137
 20
314.007612627
 30
0.0
 11
370.2785241932
 21
314.007612627
 31
0.0
  0
LINE
  5
33E
330
1B
100
AcDbEntity
 67
     1
  8
7_ALL_FEATURES
  6
Continuous
 62
     7
100
AcDbLine
 10
370.2785241932
 20
314.007612627
 30
0.0
 11
370.2268388871
 21
314.007612627
 31
0.0
  0
LINE
  5
33F
330
1B
100
AcDbEntity
 67
     1
  8
7_ALL_FEATURES
  6
Continuous
 62
     7
100
AcDbLine
 10
370.2268388871
 20
314.007612627
 30
0.0
 11
370.0726490864
 21
314.007612627
 31
0.0
  0
LINE
  5
340
330
1B
100
AcDbEntity
 67
     1
  8
7_ALL_FEATURES
  6
Continuous
 62
     7
100
AcDbLine
 10
370.0726490864
 20
314.007612627
 30
0.0
 11
369.9608234103
 21
314.007612627
 31
0.0
  0
LINE
  5
341
330
1B
100
AcDbEntity
 67
     1
  8
7_ALL_FEATURES
  6
Continuous
 62
     7
100
AcDbLine
 10
369.9608234103
 20
314.007612627
 30
0.0
 11
369.8518388871
 21
314.007612627
 31
0.0
  0
LINE
  5
342
330
1B
100
AcDbEntity
 67
     1
  8
7_ALL_FEATURES
  6
Continuous
 62
     7
100
AcDbLine
 10
369.8518388871
 20
314.007612627
 30
0.0
 11
368.2268388871
 21
314.007612627
 31
0.0
  0
LINE
  5
343
330
1B
100
AcDbEntity
 67
     1
  8
7_ALL_FEATURES
  6
Continuous
 62
     7
100
AcDbLine
 10
368.2268388871
 20
314.007612627
 30
0.0
 11
367.4969832775
 21
314.007612627
 31
0.0
  0
LINE
  5
344
330
1B
100
AcDbEntity
 67
     1
  8
7_ALL_FEATURES
  6
Continuous
 62
     7
100
AcDbLine
 10
367.4969832775
 20
314.007612627
 30
0.0
 11
366.8753989968
 21
314.007612627
 31
0.0
  0
LINE
  5
345
330
1B
100
AcDbEntity
 67
     1
  8
7_ALL_FEATURES
  6
Continuous
 62
     7
100
AcDbLine
 10
366.8753989968
 20
314.007612627
 30
0.0
 11
366.6018388871
 21
314.007612627
 31
0.0
  0
LINE
  5
346
330
1B
100
AcDbEntity
 67
     1
  8
7_ALL_FEATURES
  6
Continuous
 62
     7
100
AcDbLine
 10
366.6018388871
 20
314.007612627
 30
0.0
 11
366.2268388871
 21
314.007612627
 31
0.0
  0
LINE
  5
347
330
1B
100
AcDbEntity
 67
     1
  8
7_ALL_FEATURES
  6
Continuous
 62
     7
100
AcDbLine
 10
366.2268388871
 20
314.007612627
 30
0.0
 11
365.4414876648
 21
314.007612627
 31
0.0
  0
LINE
  5
348
330
1B
100
AcDbEntity
 67
     1
  8
7_ALL_FEATURES
  6
Continuous
 62
     7
100
AcDbLine
 10
365.4414876648
 20
314.007612627
 30
0.0
 11
365.0841136868
 21
314.007612627
 31
0.0
  0
LINE
  5
349
330
1B
100
AcDbEntity
 67
     1
  8
7_ALL_FEATURES
  6
Continuous
 62
     7
100
AcDbLine
 10
365.0841136868
 20
314.007612627
 30
0.0
 11
364.5837802608
 21
314.007612627
 31
0.0
  0
LINE
  5
34A
330
1B
100
AcDbEntity
 67
     1
  8
7_ALL_FEATURES
  6
Continuous
 62
     7
100
AcDbLine
 10
364.5837802608
 20
314.007612627
 30
0.0
 11
360.5715505528
 21
314.007612627
 31
0.0
  0
LINE
  5
34B
330
1B
100
AcDbEntity
 67
     1
  8
7_ALL_FEATURES
  6
Continuous
 62
     7
100
AcDbLine
 10
386.8474306791
 20
314.007612627
 30
0.0
 11
385.2268048649
 21
314.007612627
 31
0.0
  0
LINE
  5
34C
330
1B
100
AcDbEntity
 67
     1
  8
7_ALL_FEATURES
  6
Continuous
 62
     7
100
AcDbLine
 10
385.2268048649
 20
314.007612627
 30
0.0
 11
384.7183184224
 21
314.007612627
 31
0.0
  0
LINE
  5
34D
330
1B
100
AcDbEntity
 67
     1
  8
7_ALL_FEATURES
  6
Continuous
 62
     7
100
AcDbLine
 10
384.7183184224
 20
314.007612627
 30
0.0
 11
384.6329674858
 21
314.007612627
 31
0.0
  0
LINE
  5
34E
330
1B
100
AcDbEntity
 67
     1
  8
7_ALL_FEATURES
  6
Continuous
 62
     7
100
AcDbLine
 10
384.6329674858
 20
314.007612627
 30
0.0
 11
376.1804412009
 21
314.007612627
 31
0.0
  0
LINE
  5
34F
330
1B
100
AcDbEntity
 67
     1
  8
7_ALL_FEATURES
  6
Continuous
 62
     7
100
AcDbLine
 10
504.1268388871
 20
314.007612627
 30
0.0
 11
386.8474306791
 21
314.007612627
 31
0.0
  0
LINE
  5
350
330
1B
100
AcDbEntity
 67
     1
  8
7_ALL_FEATURES
  6
Continuous
 62
     7
100
AcDbLine
 10
515.8824679781
 20
314.007612627
 30
0.0
 11
511.8818586659
 21
314.007612627
 31
0.0
  0
LINE
  5
351
330
1B
100
AcDbEntity
 67
     1
  8
7_ALL_FEATURES
  6
Continuous
 62
     7
100
AcDbLine
 10
511.8818586659
 20
314.007612627
 30
0.0
 11
506.5224298713
 21
314.007612627
 31
0.0
  0
LINE
  5
352
330
1B
100
AcDbEntity
 67
     1
  8
7_ALL_FEATURES
  6
Continuous
 62
     7
100
AcDbLine
 10
506.5224298713
 20
314.007612627
 30
0.0
 11
506.4485424293
 21
314.007612627
 31
0.0
  0
LINE
  5
353
330
1B
100
AcDbEntity
 67
     1
  8
7_ALL_FEATURES
  6
Continuous
 62
     7
100
AcDbLine
 10
506.4485424293
 20
314.007612627
 30
0.0
 11
506.4202483519
 21
314.007612627
 31
0.0
  0
LINE
  5
354
330
1B
100
AcDbEntity
 67
     1
  8
7_ALL_FEATURES
  6
Continuous
 62
     7
100
AcDbLine
 10
506.4202483519
 20
314.007612627
 30
0.0
 11
506.2268388871
 21
314.007612627
 31
0.0
  0
LINE
  5
355
330
1B
100
AcDbEntity
 67
     1
  8
7_ALL_FEATURES
  6
Continuous
 62
     7
100
AcDbLine
 10
506.2268388871
 20
314.007612627
 30
0.0
 11
504.1268388871
 21
314.007612627
 31
0.0
  0
LINE
  5
356
330
1B
100
AcDbEntity
 67
     1
  8
7_ALL_FEATURES
  6
Continuous
 62
     7
100
AcDbLine
 10
361.0195389262
 20
334.007612627
 30
0.0
 11
366.2268388871
 21
334.007612627
 31
0.0
  0
LINE
  5
357
330
1B
100
AcDbEntity
 67
     1
  8
7_ALL_FEATURES
  6
Continuous
 62
     7
100
AcDbLine
 10
366.2268388871
 20
334.007612627
 30
0.0
 11
366.6018388871
 21
334.007612627
 31
0.0
  0
LINE
  5
358
330
1B
100
AcDbEntity
 67
     1
  8
7_ALL_FEATURES
  6
Continuous
 62
     7
100
AcDbLine
 10
366.6018388871
 20
334.007612627
 30
0.0
 11
368.2268388871
 21
334.007612627
 31
0.0
  0
LINE
  5
359
330
1B
100
AcDbEntity
 67
     1
  8
7_ALL_FEATURES
  6
Continuous
 62
     7
100
AcDbLine
 10
368.2268388871
 20
334.007612627
 30
0.0
 11
369.8518388871
 21
334.007612627
 31
0.0
  0
LINE
  5
35A
330
1B
100
AcDbEntity
 67
     1
  8
7_ALL_FEATURES
  6
Continuous
 62
     7
100
AcDbLine
 10
369.8518388871
 20
334.007612627
 30
0.0
 11
370.2268388871
 21
334.007612627
 31
0.0
  0
LINE
  5
35B
330
1B
100
AcDbEntity
 67
     1
  8
7_ALL_FEATURES
  6
Continuous
 62
     7
100
AcDbLine
 10
370.2268388871
 20
334.007612627
 30
0.0
 11
376.5869520676
 21
334.007612627
 31
0.0
  0
ARC
  5
35C
330
1B
100
AcDbEntity
 67
     1
  8
7_ALL_FEATURES
  6
Continuous
 62
     7
100
AcDbCircle
 10
361.0192078914
 20
333.507612627
 30
0.0
 40
0.5
100
AcDbArc
 50
90.0
 51
178.0
  0
LINE
  5
35D
330
1B
100
AcDbEntity
 67
     1
  8
7_ALL_FEATURES
  6
Continuous
 62
     7
100
AcDbLine
 10
376.5869520676
 20
334.007612627
 30
0.0
 11
370.2268388871
 21
334.007612627
 31
0.0
  0
LINE
  5
35E
330
1B
100
AcDbEntity
 67
     1
  8
7_ALL_FEATURES
  6
Continuous
 62
     7
100
AcDbLine
 10
370.2268388871
 20
334.007612627
 30
0.0
 11
369.8518388871
 21
334.007612627
 31
0.0
  0
LINE
  5
35F
330
1B
100
AcDbEntity
 67
     1
  8
7_ALL_FEATURES
  6
Continuous
 62
     7
100
AcDbLine
 10
369.8518388871
 20
334.007612627
 30
0.0
 11
368.2268388871
 21
334.007612627
 31
0.0
  0
LINE
  5
360
330
1B
100
AcDbEntity
 67
     1
  8
7_ALL_FEATURES
  6
Continuous
 62
     7
100
AcDbLine
 10
368.2268388871
 20
334.007612627
 30
0.0
 11
366.6018388871
 21
334.007612627
 31
0.0
  0
LINE
  5
361
330
1B
100
AcDbEntity
 67
     1
  8
7_ALL_FEATURES
  6
Continuous
 62
     7
100
AcDbLine
 10
366.6018388871
 20
334.007612627
 30
0.0
 11
366.2268388871
 21
334.007612627
 31
0.0
  0
LINE
  5
362
330
1B
100
AcDbEntity
 67
     1
  8
7_ALL_FEATURES
  6
Continuous
 62
     7
100
AcDbLine
 10
366.2268388871
 20
334.007612627
 30
0.0
 11
361.0192078914
 21
334.007612627
 31
0.0
  0
LINE
  5
363
330
1B
100
AcDbEntity
 67
     1
  8
7_ALL_FEATURES
  6
Continuous
 62
     7
100
AcDbLine
 10
516.1268388871
 20
328.007612627
 30
0.0
 11
515.8824679781
 21
314.007612627
 31
0.0
  0
LINE
  5
364
330
1B
100
AcDbEntity
 67
     1
  8
7_ALL_FEATURES
  6
Continuous
 62
     7
100
AcDbLine
 10
515.9341652962
 20
333.5250623754
 30
0.0
 11
516.1268388871
 21
328.007612627
 31
0.0
  0
LINE
  5
365
330
1B
100
AcDbEntity
 67
     1
  8
7_ALL_FEATURES
  6
Continuous
 62
     7
100
AcDbLine
 10
360.5195124779
 20
333.5250623754
 30
0.0
 11
360.3268388871
 21
328.007612627
 31
0.0
  0
LINE
  5
366
330
1B
100
AcDbEntity
 67
     1
  8
7_ALL_FEATURES
  6
Continuous
 62
     7
100
AcDbLine
 10
360.3268388871
 20
328.007612627
 30
0.0
 11
360.5712097961
 21
314.007612627
 31
0.0
  0
ARC
  5
367
330
1B
100
AcDbEntity
 67
     1
  8
7_ALL_FEATURES
  6
Continuous
 62
     7
100
AcDbCircle
 10
515.4344698827
 20
333.507612627
 30
0.0
 40
0.5
100
AcDbArc
 50
2.0
 51
90.0
  0
LINE
  5
368
330
1B
100
AcDbEntity
 67
     1
  8
7_ALL_FEATURES
  6
Continuous
 62
     9
100
AcDbLine
 10
504.1268388871
 20
334.007612627
 30
0.0
 11
504.1268388789
 21
333.5250623756
 31
0.0
  0
SPLINE
  5
369
330
1B
100
AcDbEntity
 67
     1
  8
7_ALL_FEATURES
  6
Continuous
 62
     9
100
AcDbSpline
 70
     0
 71
     3
 72
    10
 73
     6
 74
     0
 42
0.000000001
 43
0.0000001
 40
0.0
 40
0.0
 40
0.0
 40
0.0
 40
0.2409163823
 40
0.4884153713
 40
1.0
 40
1.0
 40
1.0
 40
1.0
 10
376.5869520676
 20
334.007612627
 30
0.0
 10
376.5290141286
 20
334.007612627
 30
0.0
 10
376.4101490221
 20
333.9815940641
 30
0.0
 10
376.2109012612
 20
333.8379435863
 30
0.0
 10
376.1374278645
 20
333.6480315555
 30
0.0
 10
376.133531352
 20
333.5250623756
 30
0.0
  0
LINE
  5
36A
330
1B
100
AcDbEntity
 67
     1
  8
7_ALL_FEATURES
  6
Continuous
 62
     9
100
AcDbLine
 10
386.8474306791
 20
334.007612627
 30
0.0
 11
386.8474306791
 21
333.5250623754
 31
0.0
  0
LINE
  5
36B
330
1B
100
AcDbEntity
 67
     1
  8
7_ALL_FEATURES
  6
Continuous
 62
     9
100
AcDbLine
 10
504.1268388871
 20
333.5250623754
 30
0.0
 11
515.9341652962
 21
333.5250623754
 31
0.0
  0
LINE
  5
36C
330
1B
100
AcDbEntity
 67
     1
  8
7_ALL_FEATURES
  6
Continuous
 62
     7
100
AcDbLine
 10
516.1268388871
 20
328.007612627
 30
0.0
 11
512.1256200771
 21
328.007612627
 31
0.0
  0
LINE
  5
36D
330
1B
100
AcDbEntity
 67
     1
  8
7_ALL_FEATURES
  6
Continuous
 62
     7
100
AcDbLine
 10
512.1256200771
 20
328.007612627
 30
0.0
 11
504.1268388871
 21
328.007612627
 31
0.0
  0
LINE
  5
36E
330
1B
100
AcDbEntity
 67
     1
  8
7_ALL_FEATURES
  6
Continuous
 62
     9
100
AcDbLine
 10
504.1268388871
 20
328.007612627
 30
0.0
 11
504.1268388871
 21
314.007612627
 31
0.0
  0
LINE
  5
36F
330
1B
100
AcDbEntity
 67
     1
  8
7_ALL_FEATURES
  6
Continuous
 62
     9
100
AcDbLine
 10
386.8474306791
 20
333.5250623754
 30
0.0
 11
504.1268388871
 21
333.5250623754
 31
0.0
  0
LINE
  5
370
330
1B
100
AcDbEntity
 67
     1
  8
7_ALL_FEATURES
  6
Continuous
 62
     9
100
AcDbLine
 10
504.1268388871
 20
333.5250623754
 30
0.0
 11
504.1268388871
 21
328.007612627
 31
0.0
  0
LINE
  5
371
330
1B
100
AcDbEntity
 67
     1
  8
7_ALL_FEATURES
  6
Continuous
 62
     7
100
AcDbLine
 10
504.1268388871
 20
328.007612627
 30
0.0
 11
386.8474306791
 21
328.007612627
 31
0.0
  0
LINE
  5
372
330
1B
100
AcDbEntity
 67
     1
  8
7_ALL_FEATURES
  6
Continuous
 62
     9
100
AcDbLine
 10
386.8474306791
 20
328.007612627
 30
0.0
 11
386.8474306791
 21
314.007612627
 31
0.0
  0
LINE
  5
373
330
1B
100
AcDbEntity
 67
     1
  8
7_ALL_FEATURES
  6
Continuous
 62
     9
100
AcDbLine
 10
376.1335313551
 20
333.5250623754
 30
0.0
 11
386.8474306791
 21
333.5250623754
 31
0.0
  0
LINE
  5
374
330
1B
100
AcDbEntity
 67
     1
  8
7_ALL_FEATURES
  6
Continuous
 62
     9
100
AcDbLine
 10
386.8474306791
 20
333.5250623754
 30
0.0
 11
386.8474306791
 21
328.007612627
 31
0.0
  0
LINE
  5
375
330
1B
100
AcDbEntity
 67
     1
  8
7_ALL_FEATURES
  6
Continuous
 62
     7
100
AcDbLine
 10
386.8474306791
 20
328.007612627
 30
0.0
 11
375.9587004591
 21
328.007612627
 31
0.0
  0
LINE
  5
376
330
1B
100
AcDbEntity
 67
     1
  8
7_ALL_FEATURES
  6
Continuous
 62
     9
100
AcDbLine
 10
375.9587004591
 20
328.007612627
 30
0.0
 11
376.1804412009
 21
314.007612627
 31
0.0
  0
LINE
  5
377
330
1B
100
AcDbEntity
 67
     1
  8
7_ALL_FEATURES
  6
Continuous
 62
     9
100
AcDbLine
 10
360.5195124779
 20
333.5250623754
 30
0.0
 11
376.1335313551
 21
333.5250623754
 31
0.0
  0
LINE
  5
378
330
1B
100
AcDbEntity
 67
     1
  8
7_ALL_FEATURES
  6
Continuous
 62
     9
100
AcDbLine
 10
376.1335313551
 20
333.5250623754
 30
0.0
 11
375.9587004591
 21
328.007612627
 31
0.0
  0
LINE
  5
379
330
1B
100
AcDbEntity
 67
     1
  8
7_ALL_FEATURES
  6
Continuous
 62
     7
100
AcDbLine
 10
375.9587004591
 20
328.007612627
 30
0.0
 11
364.346616594
 21
328.007612627
 31
0.0
  0
LINE
  5
37A
330
1B
100
AcDbEntity
 67
     1
  8
7_ALL_FEATURES
  6
Continuous
 62
     7
100
AcDbLine
 10
364.346616594
 20
328.007612627
 30
0.0
 11
360.3268388871
 21
328.007612627
 31
0.0
  0
DIMENSION
  5
37B
330
1B
100
AcDbEntity
 67
     1
  8
0
  6
Continuous
 62
     2
100
AcDbDimension
280
     0
  2
*D1
 10
95.6149819244
 20
42.0807339437
 30
0.0
 11
173.6368607483
 21
42.0807339437
 31
0.0
 70
   160
 71
     5
 42
-1.0
 73
     0
 74
     0
 75
     0
  3
DIMSTYLE_1
100
AcDbAlignedDimension
 13
251.4149819244
 23
84.8248435378
 33
0.0
 14
95.6149819244
 24
84.8248435378
 34
0.0
 50
180.0
100
AcDbRotatedDimension
  0
DIMENSION
  5
37C
330
1B
100
AcDbEntity
 67
     1
  8
0
  6
Continuous
 62
     2
100
AcDbDimension
280
     0
  2
*D2
 10
264.9522416728
 20
314.007612627
 30
0.0
 11
264.9522416728
 21
323.9716878107
 31
0.0
 70
   160
 71
     5
 42
-1.0
 73
     0
 74
     0
 75
     0
  3
DIMSTYLE_2
100
AcDbAlignedDimension
 13
250.72261292
 23
334.007612627
 33
0.0
 14
251.1706110154
 24
314.007612627
 34
0.0
 50
270.0
100
AcDbRotatedDimension
  0
DIMENSION
  5
37D
330
1B
100
AcDbEntity
 67
     1
  8
0
  6
Continuous
 62
     2
100
AcDbDimension
280
     0
  2
*D3
 10
288.2689975747
 20
228.6248435378
 30
0.0
 11
288.2689975747
 21
150.8467341707
 31
0.0
 70
   160
 71
     5
 42
-1.0
 73
     0
 74
     0
 75
     0
  3
DIMSTYLE_1
100
AcDbAlignedDimension
 13
239.4149819244
 23
72.8248435378
 33
0.0
 14
173.5149819244
 24
228.6248435378
 34
0.0
 50
90.0
100
AcDbRotatedDimension
  0
LINE
  5
37E
330
1B
100
AcDbEntity
 67
     1
  8
3_ALL_AXES
  6
CENTER
 62
     2
100
AcDbLine
 10
209.5149819244
 20
76.7248435378
 30
0.0
 11
212.6399819244
 21
76.7248435378
 31
0.0
  0
LINE
  5
37F
330
1B
100
AcDbEntity
 67
     1
  8
3_ALL_AXES
  6
CENTER
 62
     2
100
AcDbLine
 10
209.5149819244
 20
76.7248435378
 30
0.0
 11
206.3899819244
 21
76.7248435378
 31
0.0
  0
LINE
  5
380
330
1B
100
AcDbEntity
 67
     1
  8
3_ALL_AXES
  6
CENTER
 62
     2
100
AcDbLine
 10
209.5149819244
 20
76.7248435378
 30
0.0
 11
209.5149819244
 21
79.8498435378
 31
0.0
  0
LINE
  5
381
330
1B
100
AcDbEntity
 67
     1
  8
3_ALL_AXES
  6
CENTER
 62
     2
100
AcDbLine
 10
209.5149819244
 20
76.7248435378
 30
0.0
 11
209.5149819244
 21
73.5998435378
 31
0.0
  0
LINE
  5
382
330
1B
100
AcDbEntity
 67
     1
  8
3_ALL_AXES
  6
CENTER
 62
     2
100
AcDbLine
 10
137.5149819244
 20
76.7248435378
 30
0.0
 11
140.6399819244
 21
76.7248435378
 31
0.0
  0
LINE
  5
383
330
1B
100
AcDbEntity
 67
     1
  8
3_ALL_AXES
  6
CENTER
 62
     2
100
AcDbLine
 10
137.5149819244
 20
76.7248435378
 30
0.0
 11
134.3899819244
 21
76.7248435378
 31
0.0
  0
LINE
  5
384
330
1B
100
AcDbEntity
 67
     1
  8
3_ALL_AXES
  6
CENTER
 62
     2
100
AcDbLine
 10
137.5149819244
 20
76.7248435378
 30
0.0
 11
137.5149819244
 21
79.8498435378
 31
0.0
  0
LINE
  5
385
330
1B
100
AcDbEntity
 67
     1
  8
3_ALL_AXES
  6
CENTER
 62
     2
100
AcDbLine
 10
137.5149819244
 20
76.7248435378
 30
0.0
 11
137.5149819244
 21
73.5998435378
 31
0.0
  0
LINE
  5
386
330
1B
100
AcDbEntity
 67
     1
  8
3_ALL_AXES
  6
CENTER
 62
     2
100
AcDbLine
 10
137.5149819244
 20
220.7248435378
 30
0.0
 11
140.6399819244
 21
220.7248435378
 31
0.0
  0
LINE
  5
387
330
1B
100
AcDbEntity
 67
     1
  8
3_ALL_AXES
  6
CENTER
 62
     2
100
AcDbLine
 10
137.5149819244
 20
220.7248435378
 30
0.0
 11
134.3899819244
 21
220.7248435378
 31
0.0
  0
LINE
  5
388
330
1B
100
AcDbEntity
 67
     1
  8
3_ALL_AXES
  6
CENTER
 62
     2
100
AcDbLine
 10
137.5149819244
 20
220.7248435378
 30
0.0
 11
137.5149819244
 21
223.8498435378
 31
0.0
  0
LINE
  5
389
330
1B
100
AcDbEntity
 67
     1
  8
3_ALL_AXES
  6
CENTER
 62
     2
100
AcDbLine
 10
137.5149819244
 20
220.7248435378
 30
0.0
 11
137.5149819244
 21
217.5998435378
 31
0.0
  0
LINE
  5
38A
330
1B
100
AcDbEntity
 67
     1
  8
3_ALL_AXES
  6
CENTER
 62
     2
100
AcDbLine
 10
209.5149819244
 20
220.7248435378
 30
0.0
 11
212.6399819244
 21
220.7248435378
 31
0.0
  0
LINE
  5
38B
330
1B
100
AcDbEntity
 67
     1
  8
3_ALL_AXES
  6
CENTER
 62
     2
100
AcDbLine
 10
209.5149819244
 20
220.7248435378
 30
0.0
 11
206.3899819244
 21
220.7248435378
 31
0.0
  0
LINE
  5
38C
330
1B
100
AcDbEntity
 67
     1
  8
3_ALL_AXES
  6
CENTER
 62
     2
100
AcDbLine
 10
209.5149819244
 20
220.7248435378
 30
0.0
 11
209.5149819244
 21
223.8498435378
 31
0.0
  0
LINE
  5
38D
330
1B
100
AcDbEntity
 67
     1
  8
3_ALL_AXES
  6
CENTER
 62
     2
100
AcDbLine
 10
209.5149819244
 20
220.7248435378
 30
0.0
 11
209.5149819244
 21
217.5998435378
 31
0.0
  0
LINE
  5
38E
330
1B
100
AcDbEntity
 67
     1
  8
3_ALL_AXES
  6
CENTER
 62
     2
100
AcDbLine
 10
173.5149819244
 20
59.8248435378
 30
0.0
 11
210.2712440544
 21
59.8248435378
 31
0.0
  0
LINE
  5
38F
330
1B
100
AcDbEntity
 67
     1
  8
3_ALL_AXES
  6
CENTER
 62
     2
100
AcDbLine
 10
173.5149819244
 20
59.8248435378
 30
0.0
 11
136.7587197944
 21
59.8248435378
 31
0.0
  0
LINE
  5
390
330
1B
100
AcDbEntity
 67
     1
  8
3_ALL_AXES
  6
CENTER
 62
     2
100
AcDbLine
 10
173.5149819244
 20
59.8248435378
 30
0.0
 11
173.5149819244
 21
251.8937657847
 31
0.0
  0
LINE
  5
391
330
1B
100
AcDbEntity
 67
     1
  8
3_ALL_AXES
  6
CENTER
 62
     2
100
AcDbLine
 10
173.5149819244
 20
59.8248435378
 30
0.0
 11
173.5149819244
 21
23.0685814078
 31
0.0
  0
LINE
  5
392
330
1B
100
AcDbEntity
 67
     1
  8
3_ALL_AXES
  6
CENTER
 62
     2
100
AcDbLine
 10
173.5149819244
 20
307.6432096111
 30
0.0
 11
173.5149819244
 21
345.9709522418
 31
0.0
  0
LINE
  5
393
330
1B
100
AcDbEntity
 67
     1
  8
3_ALL_AXES
  6
CENTER
 62
     2
100
AcDbLine
 10
209.4390653846
 20
193.8953482268
 30
0.0
 11
220.9390653846
 21
193.8953482268
 31
0.0
  0
LINE
  5
394
330
1B
100
AcDbEntity
 67
     1
  8
3_ALL_AXES
  6
CENTER
 62
     2
100
AcDbLine
 10
209.4390653846
 20
193.8953482268
 30
0.0
 11
197.9390653846
 21
193.8953482268
 31
0.0
  0
LINE
  5
395
330
1B
100
AcDbEntity
 67
     1
  8
3_ALL_AXES
  6
CENTER
 62
     2
100
AcDbLine
 10
209.4390653846
 20
193.8953482268
 30
0.0
 11
209.4390653846
 21
205.3953482268
 31
0.0
  0
LINE
  5
396
330
1B
100
AcDbEntity
 67
     1
  8
3_ALL_AXES
  6
CENTER
 62
     2
100
AcDbLine
 10
209.4390653846
 20
193.8953482268
 30
0.0
 11
209.4390653846
 21
182.3953482268
 31
0.0
  0
LINE
  5
397
330
1B
100
AcDbEntity
 67
     1
  8
3_ALL_AXES
  6
CENTER
 62
     2
100
AcDbLine
 10
137.5908984641
 20
193.8953482268
 30
0.0
 11
149.0908984641
 21
193.8953482268
 31
0.0
  0
LINE
  5
398
330
1B
100
AcDbEntity
 67
     1
  8
3_ALL_AXES
  6
CENTER
 62
     2
100
AcDbLine
 10
137.5908984641
 20
193.8953482268
 30
0.0
 11
126.0908984641
 21
193.8953482268
 31
0.0
  0
LINE
  5
399
330
1B
100
AcDbEntity
 67
     1
  8
3_ALL_AXES
  6
CENTER
 62
     2
100
AcDbLine
 10
137.5908984641
 20
193.8953482268
 30
0.0
 11
137.5908984641
 21
205.3953482268
 31
0.0
  0
LINE
  5
39A
330
1B
100
AcDbEntity
 67
     1
  8
3_ALL_AXES
  6
CENTER
 62
     2
100
AcDbLine
 10
137.5908984641
 20
193.8953482268
 30
0.0
 11
137.5908984641
 21
182.3953482268
 31
0.0
  0
LINE
  5
39B
330
1B
100
AcDbEntity
 67
     1
  8
3_ALL_AXES
  6
CENTER
 62
     2
100
AcDbLine
 10
192.2514175517
 20
167.7099489972
 30
0.0
 11
198.7514175517
 21
167.7099489972
 31
0.0
  0
LINE
  5
39C
330
1B
100
AcDbEntity
 67
     1
  8
3_ALL_AXES
  6
CENTER
 62
     2
100
AcDbLine
 10
192.2514175517
 20
167.7099489972
 30
0.0
 11
185.7514175517
 21
167.7099489972
 31
0.0
  0
LINE
  5
39D
330
1B
100
AcDbEntity
 67
     1
  8
3_ALL_AXES
  6
CENTER
 62
     2
100
AcDbLine
 10
192.2514175517
 20
167.7099489972
 30
0.0
 11
192.2514175517
 21
174.2099489972
 31
0.0
  0
LINE
  5
39E
330
1B
100
AcDbEntity
 67
     1
  8
3_ALL_AXES
  6
CENTER
 62
     2
100
AcDbLine
 10
192.2514175517
 20
167.7099489972
 30
0.0
 11
192.2514175517
 21
161.2099489972
 31
0.0
  0
LINE
  5
39F
330
1B
100
AcDbEntity
 67
     1
  8
3_ALL_AXES
  6
CENTER
 62
     2
100
AcDbLine
 10
228.0203514551
 20
154.7954426321
 30
0.0
 11
234.5203514551
 21
154.7954426321
 31
0.0
  0
LINE
  5
3A0
330
1B
100
AcDbEntity
 67
     1
  8
3_ALL_AXES
  6
CENTER
 62
     2
100
AcDbLine
 10
228.0203514551
 20
154.7954426321
 30
0.0
 11
221.5203514551
 21
154.7954426321
 31
0.0
  0
LINE
  5
3A1
330
1B
100
AcDbEntity
 67
     1
  8
3_ALL_AXES
  6
CENTER
 62
     2
100
AcDbLine
 10
228.0203514551
 20
154.7954426321
 30
0.0
 11
228.0203514551
 21
161.2954426321
 31
0.0
  0
LINE
  5
3A2
330
1B
100
AcDbEntity
 67
     1
  8
3_ALL_AXES
  6
CENTER
 62
     2
100
AcDbLine
 10
228.0203514551
 20
154.7954426321
 30
0.0
 11
228.0203514551
 21
148.2954426321
 31
0.0
  0
LINE
  5
3A3
330
1B
100
AcDbEntity
 67
     1
  8
3_ALL_AXES
  6
CENTER
 62
     2
100
AcDbLine
 10
434.1562397928
 20
329.507612627
 30
0.0
 11
434.1562397928
 21
312.007612627
 31
0.0
  0
LINE
  5
3A4
330
1B
100
AcDbEntity
 67
     1
  8
3_ALL_AXES
  6
CENTER
 62
     2
100
AcDbLine
 10
119.0096123936
 20
154.7954426321
 30
0.0
 11
125.5096123936
 21
154.7954426321
 31
0.0
  0
LINE
  5
3A5
330
1B
100
AcDbEntity
 67
     1
  8
3_ALL_AXES
  6
CENTER
 62
     2
100
AcDbLine
 10
119.0096123936
 20
154.7954426321
 30
0.0
 11
112.5096123936
 21
154.7954426321
 31
0.0
  0
LINE
  5
3A6
330
1B
100
AcDbEntity
 67
     1
  8
3_ALL_AXES
  6
CENTER
 62
     2
100
AcDbLine
 10
119.0096123936
 20
154.7954426321
 30
0.0
 11
119.0096123936
 21
161.2954426321
 31
0.0
  0
LINE
  5
3A7
330
1B
100
AcDbEntity
 67
     1
  8
3_ALL_AXES
  6
CENTER
 62
     2
100
AcDbLine
 10
119.0096123936
 20
154.7954426321
 30
0.0
 11
119.0096123936
 21
148.2954426321
 31
0.0
  0
LINE
  5
3A8
330
1B
100
AcDbEntity
 67
     1
  8
3_ALL_AXES
  6
CENTER
 62
     2
100
AcDbLine
 10
154.778546297
 20
167.7099489972
 30
0.0
 11
161.278546297
 21
167.7099489972
 31
0.0
  0
LINE
  5
3A9
330
1B
100
AcDbEntity
 67
     1
  8
3_ALL_AXES
  6
CENTER
 62
     2
100
AcDbLine
 10
154.778546297
 20
167.7099489972
 30
0.0
 11
148.278546297
 21
167.7099489972
 31
0.0
  0
LINE
  5
3AA
330
1B
100
AcDbEntity
 67
     1
  8
3_ALL_AXES
  6
CENTER
 62
     2
100
AcDbLine
 10
154.778546297
 20
167.7099489972
 30
0.0
 11
154.778546297
 21
174.2099489972
 31
0.0
  0
LINE
  5
3AB
330
1B
100
AcDbEntity
 67
     1
  8
3_ALL_AXES
  6
CENTER
 62
     2
100
AcDbLine
 10
154.778546297
 20
167.7099489972
 30
0.0
 11
154.778546297
 21
161.2099489972
 31
0.0
  0
LINE
  5
3AC
330
1B
100
AcDbEntity
 67
     1
  8
0
  6
Continuous
 62
     2
100
AcDbLine
 10
454.0099950196
 20
76.025479964
 30
0.0
 11
584.0099950196
 21
76.025479964
 31
0.0
  0
LINE
  5
3AD
330
1B
100
AcDbEntity
 67
     1
  8
0
  6
Continuous
 62
     2
100
AcDbLine
 10
454.0099950196
 20
76.025479964
 30
0.0
 11
454.0099950196
 21
10.025479964
 31
0.0
  0
LINE
  5
3AE
330
1B
100
AcDbEntity
 67
     1
  8
0
  6
Continuous
 62
     2
100
AcDbLine
 10
484.0099950196
 20
68.025479964
 30
0.0
 11
584.0099950196
 21
68.025479964
 31
0.0
  0
LINE
  5
3AF
330
1B
100
AcDbEntity
 67
     1
  8
0
  6
Continuous
 62
     2
100
AcDbLine
 10
454.0099950196
 20
60.025479964
 30
0.0
 11
584.0099950196
 21
60.025479964
 31
0.0
  0
LINE
  5
3B0
330
1B
100
AcDbEntity
 67
     1
  8
0
  6
Continuous
 62
     2
100
AcDbLine
 10
484.0099950196
 20
54.025479964
 30
0.0
 11
584.0099950196
 21
54.025479964
 31
0.0
  0
LINE
  5
3B1
330
1B
100
AcDbEntity
 67
     1
  8
0
  6
Continuous
 62
     2
100
AcDbLine
 10
484.0099950196
 20
48.025479964
 30
0.0
 11
584.0099950196
 21
48.025479964
 31
0.0
  0
LINE
  5
3B2
330
1B
100
AcDbEntity
 67
     1
  8
0
  6
Continuous
 62
     2
100
AcDbLine
 10
484.0099950196
 20
42.025479964
 30
0.0
 11
584.0099950196
 21
42.025479964
 31
0.0
  0
LINE
  5
3B3
330
1B
100
AcDbEntity
 67
     1
  8
0
  6
Continuous
 62
     2
100
AcDbLine
 10
484.0099950196
 20
36.025479964
 30
0.0
 11
584.0099950196
 21
36.025479964
 31
0.0
  0
LINE
  5
3B4
330
1B
100
AcDbEntity
 67
     1
  8
0
  6
Continuous
 62
     2
100
AcDbLine
 10
484.0099950196
 20
30.025479964
 30
0.0
 11
584.0099950196
 21
30.025479964
 31
0.0
  0
LINE
  5
3B5
330
1B
100
AcDbEntity
 67
     1
  8
0
  6
Continuous
 62
     2
100
AcDbLine
 10
454.0099950196
 20
24.025479964
 30
0.0
 11
584.0099950196
 21
24.025479964
 31
0.0
  0
LINE
  5
3B6
330
1B
100
AcDbEntity
 67
     1
  8
0
  6
Continuous
 62
     2
100
AcDbLine
 10
454.0099950196
 20
18.025479964
 30
0.0
 11
584.0099950196
 21
18.025479964
 31
0.0
  0
LINE
  5
3B7
330
1B
100
AcDbEntity
 67
     1
  8
0
  6
Continuous
 62
     2
100
AcDbLine
 10
454.0099950196
 20
14.025479964
 30
0.0
 11
584.0099950196
 21
14.025479964
 31
0.0
  0
LINE
  5
3B8
330
1B
100
AcDbEntity
 67
     1
  8
0
  6
Continuous
 62
     2
100
AcDbLine
 10
454.0099950196
 20
10.025479964
 30
0.0
 11
584.0099950196
 21
10.025479964
 31
0.0
  0
LINE
  5
3B9
330
1B
100
AcDbEntity
 67
     1
  8
0
  6
Continuous
 62
     2
100
AcDbLine
 10
484.0099950196
 20
76.025479964
 30
0.0
 11
484.0099950196
 21
18.025479964
 31
0.0
  0
LINE
  5
3BA
330
1B
100
AcDbEntity
 67
     1
  8
0
  6
Continuous
 62
     2
100
AcDbLine
 10
504.0099950196
 20
60.025479964
 30
0.0
 11
504.0099950196
 21
54.025479964
 31
0.0
  0
LINE
  5
3BB
330
1B
100
AcDbEntity
 67
     1
  8
0
  6
Continuous
 62
     2
100
AcDbLine
 10
534.0099950196
 20
30.025479964
 30
0.0
 11
534.0099950196
 21
18.025479964
 31
0.0
  0
LINE
  5
3BC
330
1B
100
AcDbEntity
 67
     1
  8
0
  6
Continuous
 62
     2
100
AcDbLine
 10
544.0099950196
 20
60.025479964
 30
0.0
 11
544.0099950196
 21
54.025479964
 31
0.0
  0
LINE
  5
3BD
330
1B
100
AcDbEntity
 67
     1
  8
0
  6
Continuous
 62
     2
100
AcDbLine
 10
544.0099950196
 20
48.025479964
 30
0.0
 11
544.0099950196
 21
42.025479964
 31
0.0
  0
LINE
  5
3BE
330
1B
100
AcDbEntity
 67
     1
  8
0
  6
Continuous
 62
     2
100
AcDbLine
 10
564.0099950196
 20
60.025479964
 30
0.0
 11
564.0099950196
 21
54.025479964
 31
0.0
  0
LINE
  5
3BF
330
1B
100
AcDbEntity
 67
     1
  8
0
  6
Continuous
 62
     2
100
AcDbLine
 10
574.0099950196
 20
48.025479964
 30
0.0
 11
574.0099950196
 21
42.025479964
 31
0.0
  0
LINE
  5
3C0
330
1B
100
AcDbEntity
 67
     1
  8
0
  6
Continuous
 62
     2
100
AcDbLine
 10
584.0099950196
 20
76.025479964
 30
0.0
 11
584.0099950196
 21
10.025479964
 31
0.0
  0
INSERT
  5
3C1
330
1B
100
AcDbEntity
 67
     1
  8
0
  6
Continuous
 62
     2
100
AcDbBlockReference
  2
PROIEZIONE_EU_BL0
 10
469.0099950196
 20
67.650479964
 30
0.0
  0
MTEXT
  5
3C2
330
1B
100
AcDbEntity
 67
     1
  8
9_SOLID
  6
Continuous
 62
     2
100
AcDbMText
 10
485.4974950196
 20
74.400479964
 30
0.0
 40
1.9
 41
142.3642857143
 46
0.0
 71
     1
 72
     1
  1
EN: Chamfer/radii unlisted 0.3x45°. Remove sharp edges.\PGen. tol.: hole H11, shaft h11, lenght Js12. UNI EN 22768 Medium Grande.
  7
TEXTSTYLE_5
 73
     1
 44
1.0
  0
MTEXT
  5
3C3
330
1B
100
AcDbEntity
 67
     1
  8
9_SOLID
  6
Continuous
 62
     2
100
AcDbMText
 10
485.4974950196
 20
66.400479964
 30
0.0
 40
1.9
 41
148.2678571429
 46
0.0
 71
     1
 72
     1
  1
IT: Sm./rac. non quotati 0.3x45°. Eliminare spigoli taglienti.\PToll. gen.: foro H11, albero h11, lunghezza Js12. UNI EN 22768 Grado Medio.
  7
TEXTSTYLE_5
 73
     1
 44
1.0
  0
INSERT
  5
3C4
330
1B
100
AcDbEntity
 67
     1
  8
0
  6
Continuous
 62
     2
100
AcDbBlockReference
  2
LOGO2_BL1
 10
467.8360420644
 20
42.025479964
 30
0.0
  0
MTEXT
  5
3C5
330
1B
100
AcDbEntity
 67
     1
  8
9_SOLID
  6
Continuous
 62
     2
100
AcDbMText
 10
485.4974950196
 20
58.275479964
 30
0.0
 40
3.0
 41
22.2857142857
 46
0.0
 71
     1
 72
     1
  1
Pj: 3D3
  7
TEXTSTYLE_5
 73
     1
 44
1.0
  0
MTEXT
  5
3C6
330
1B
100
AcDbEntity
 67
     1
  8
9_SOLID
  6
Continuous
 62
     2
100
AcDbMText
 10
505.4974950196
 20
58.275479964
 30
0.0
 40
3.0
 41
38.0357142857
 46
0.0
 71
     1
 72
     1
  1
% Check: %
  7
TEXTSTYLE_5
 73
     1
 44
1.0
  0
MTEXT
  5
3C7
330
1B
100
AcDbEntity
 67
     1
  8
9_SOLID
  6
Continuous
 62
     2
100
AcDbMText
 10
545.4974950196
 20
58.275479964
 30
0.0
 40
3.0
 41
19.5
 46
0.0
 71
     1
 72
     1
  1
Rev:00
  7
TEXTSTYLE_5
 73
     1
 44
1.0
  0
MTEXT
  5
3C8
330
1B
100
AcDbEntity
 67
     1
  8
9_SOLID
  6
Continuous
 62
     2
100
AcDbMText
 10
565.4974950196
 20
58.525479964
 30
0.0
 40
3.0
 41
19.7142857143
 46
0.0
 71
     1
 72
     1
  1
Ver: A
  7
TEXTSTYLE_5
 73
     1
 44
1.0
  0
MTEXT
  5
3C9
330
1B
100
AcDbEntity
 67
     1
  8
9_SOLID
  6
Continuous
 62
     2
100
AcDbMText
 10
485.4974950196
 20
52.275479964
 30
0.0
 40
3.0
 41
74.8928571429
 46
0.0
 71
     1
 72
     1
  1
Neutral code: 3D3_C_404
  7
TEXTSTYLE_5
 73
     1
 44
1.0
  0
MTEXT
  5
3CA
330
1B
100
AcDbEntity
 67
     1
  8
9_SOLID
  6
Continuous
 62
     2
100
AcDbMText
 10
485.4974950196
 20
46.275479964
 30
0.0
 40
3.0
 41
19.3928571429
 46
0.0
 71
     1
 72
     1
  1
Code: 
  7
TEXTSTYLE_5
 73
     1
 44
1.0
  0
MTEXT
  5
3CB
330
1B
100
AcDbEntity
 67
     1
  8
9_SOLID
  6
Continuous
 62
     2
100
AcDbMText
 10
545.4974950196
 20
46.525479964
 30
0.0
 40
3.0
 41
27.0
 46
0.0
 71
     1
 72
     1
  1
Scale: 1:1
  7
TEXTSTYLE_5
 73
     1
 44
1.0
  0
MTEXT
  5
3CC
330
1B
100
AcDbEntity
 67
     1
  8
9_SOLID
  6
Continuous
 62
     2
100
AcDbMText
 10
579.0099950196
 20
46.525479964
 30
0.0
 40
3.0
 41
7.3928571429
 46
0.0
 71
     2
 72
     1
  1
A2
  7
TEXTSTYLE_5
 73
     1
 44
1.0
  0
MTEXT
  5
3CD
330
1B
100
AcDbEntity
 67
     1
  8
9_SOLID
  6
Continuous
 62
     2
100
AcDbMText
 10
485.4974950196
 20
40.525479964
 30
0.0
 40
3.0
 41
114.2142857143
 46
0.0
 71
     1
 72
     1
  1
It descr.: PIASTRA BASE PALLADIANO
  7
TEXTSTYLE_5
 73
     1
 44
1.0
  0
MTEXT
  5
3CE
330
1B
100
AcDbEntity
 67
     1
  8
9_SOLID
  6
Continuous
 62
     2
100
AcDbMText
 10
485.4974950196
 20
34.525479964
 30
0.0
 40
3.0
 41
33.9642857143
 46
0.0
 71
     1
 72
     1
  1
En descr.: 
  7
TEXTSTYLE_5
 73
     1
 44
1.0
  0
MTEXT
  5
3CF
330
1B
100
AcDbEntity
 67
     1
  8
9_SOLID
  6
Continuous
 62
     2
100
AcDbMText
 10
485.4974950196
 20
28.525479964
 30
0.0
 40
3.0
 41
31.6071428571
 46
0.0
 71
     1
 72
     1
  1
Des.: M.P.
  7
TEXTSTYLE_5
 73
     1
 44
1.0
  0
MTEXT
  5
3D0
330
1B
100
AcDbEntity
 67
     1
  8
9_SOLID
  6
Continuous
 62
     2
100
AcDbMText
 10
535.4974950196
 20
28.525479964
 30
0.0
 40
3.0
 41
34.8214285714
 46
0.0
 71
     1
 72
     1
  1
Check: A.P.
  7
TEXTSTYLE_5
 73
     1
 44
1.0
  0
MTEXT
  5
3D1
330
1B
100
AcDbEntity
 67
     1
  8
9_SOLID
  6
Continuous
 62
     2
100
AcDbMText
 10
455.4974950196
 20
22.525479964
 30
0.0
 40
3.0
 41
42.5357142857
 46
0.0
 71
     1
 72
     1
  1
Date: 18.12.18
  7
TEXTSTYLE_5
 73
     1
 44
1.0
  0
MTEXT
  5
3D2
330
1B
100
AcDbEntity
 67
     1
  8
9_SOLID
  6
Continuous
 62
     2
100
AcDbMText
 10
485.4974950196
 20
22.525479964
 30
0.0
 40
3.0
 41
18.2142857143
 46
0.0
 71
     1
 72
     1
  1
Mat.: 
  7
TEXTSTYLE_5
 73
     1
 44
1.0
  0
MTEXT
  5
3D3
330
1B
100
AcDbEntity
 67
     1
  8
9_SOLID
  6
Continuous
 62
     2
100
AcDbMText
 10
535.4974950196
 20
22.025479964
 30
0.0
 40
2.0
 41
42.3571428571
 46
0.0
 71
     1
 72
     1
  1
Disegno per catalogo
  7
TEXTSTYLE_5
 73
     1
 44
1.0
  0
MTEXT
  5
3D4
330
1B
100
AcDbEntity
 67
     1
  8
9_SOLID
  6
Continuous
 62
     2
100
AcDbMText
 10
455.4974950196
 20
16.925479964
 30
0.0
 40
1.8
 41
175.6928571429
 46
0.0
 71
     1
 72
     1
  1
It: A norma di legge si diffida da qualsiasi riproduzione senza nostra autorizzazione esplicita.
  7
TEXTSTYLE_5
 73
     1
 44
1.0
  0
MTEXT
  5
3D5
330
1B
100
AcDbEntity
 67
     1
  8
9_SOLID
  6
Continuous
 62
     2
100
AcDbMText
 10
455.4974950196
 20
12.925479964
 30
0.0
 40
1.8
 41
157.6285714286
 46
0.0
 71
     1
 72
     1
  1
En: According to the law, beware of any reproduction made without our authorization.
  7
TEXTSTYLE_5
 73
     1
 44
1.0
  0
ENDSEC
  0
SECTION
  2
OBJECTS
  0
DICTIONARY
  5
3D6
330
0
100
AcDbDictionary
281
     1
  3
ACAD_DETAILVIEWSTYLE
350
42C
  3
ACAD_GROUP
350
3D7
  3
ACAD_LAYOUT
350
3FF
  3
ACAD_MATERIAL
350
41B
  3
ACAD_MLEADERSTYLE
350
421
  3
ACAD_MLINESTYLE
350
3D8
  3
ACAD_PLOTSETTINGS
350
3DA
  3
ACAD_PLOTSTYLENAME
350
3DB
  3
ACAD_SCALELIST
350
3DD
  3
ACAD_SECTIONVIEWSTYLE
350
42D
  3
ACAD_TABLESTYLE
350
41F
  3
ACAD_VISUALSTYLE
350
402
  3
ACDB_RECOMPOSE_DATA
350
428
  3
AcDbVariableDictionary
350
424
  3
APPDATA
350
423
  0
DICTIONARY
  5
42C
102
{ACAD_REACTORS
330
3D6
102
}
330
3D6
100
AcDbDictionary
281
     1
  0
DICTIONARY
  5
3D7
102
{ACAD_REACTORS
330
3D6
102
}
330
3D6
100
AcDbDictionary
281
     1
  0
DICTIONARY
  5
3FF
102
{ACAD_REACTORS
330
3D6
102
}
330
3D6
100
AcDbDictionary
281
     1
  3
Foglio 1
350
401
  3
Model
350
400
  0
DICTIONARY
  5
41B
102
{ACAD_REACTORS
330
3D6
102
}
330
3D6
100
AcDbDictionary
281
     1
  3
ByBlock
350
41D
  3
ByLayer
350
41C
  3
Global
350
41E
  0
DICTIONARY
  5
421
102
{ACAD_REACTORS
330
3D6
102
}
330
3D6
100
AcDbDictionary
281
     1
  3
Standard
350
422
  0
DICTIONARY
  5
3D8
102
{ACAD_REACTORS
330
3D6
102
}
330
3D6
100
AcDbDictionary
281
     1
  3
STANDARD
350
3D9
  0
DICTIONARY
  5
3DA
102
{ACAD_REACTORS
330
3D6
102
}
330
3D6
100
AcDbDictionary
281
     1
  0
ACDBDICTIONARYWDFLT
  5
3DB
102
{ACAD_REACTORS
330
3D6
102
}
330
3D6
100
AcDbDictionary
281
     1
  3
Normal
350
3DC
100
AcDbDictionaryWithDefault
340
3DC
  0
DICTIONARY
  5
3DD
102
{ACAD_REACTORS
330
3D6
102
}
330
3D6
100
AcDbDictionary
281
     1
  3
A0
350
3DE
  3
A1
350
3DF
  3
A2
350
3E0
  3
A3
350
3E1
  3
A4
350
3E2
  3
A5
350
3E3
  3
A6
350
3E4
  3
A7
350
3E5
  3
A8
350
3E6
  3
A9
350
3E7
  3
B0
350
3E8
  3
B1
350
3E9
  3
B2
350
3EA
  3
B3
350
3EB
  3
B4
350
3EC
  3
B5
350
3ED
  3
B6
350
3EE
  3
B7
350
3EF
  3
B8
350
3F0
  3
B9
350
3F1
  3
C0
350
3F2
  3
C1
350
3F3
  3
C2
350
3F4
  3
C3
350
3F5
  3
C4
350
3F6
  3
C5
350
3F7
  3
C6
350
3F8
  3
C7
350
3F9
  3
C8
350
3FA
  3
C9
350
3FB
  3
D0
350
3FC
  3
D1
350
3FD
  3
D2
350
3FE
  0
DICTIONARY
  5
42D
102
{ACAD_REACTORS
330
3D6
102
}
330
3D6
100
AcDbDictionary
281
     1
  0
DICTIONARY
  5
41F
102
{ACAD_REACTORS
330
3D6
102
}
330
3D6
100
AcDbDictionary
281
     1
  3
Standard
350
420
  0
DICTIONARY
  5
402
102
{ACAD_REACTORS
330
3D6
102
}
330
3D6
100
AcDbDictionary
281
     1
  3
2dWireframe
350
407
  3
Basic
350
40A
  3
Brighten
350
40E
  3
ColorChange
350
412
  3
Conceptual
350
40C
  3
Dim
350
40D
  3
EdgeColorOff
350
415
  3
Facepattern
350
411
  3
Flat
350
403
  3
FlatWithEdges
350
404
  3
Gouraud
350
405
  3
GouraudWithEdges
350
406
  3
Hidden
350
409
  3
JitterOff
350
413
  3
Linepattern
350
410
  3
OverhangOff
350
414
  3
Realistic
350
40B
  3
Shaded
350
41A
  3
Shaded with edges
350
419
  3
Shades of Gray
350
416
  3
Sketchy
350
417
  3
Thicken
350
40F
  3
Wireframe
350
408
  3
X-Ray
350
418
  0
XRECORD
  5
428
102
{ACAD_REACTORS
330
3D6
102
}
330
3D6
100
AcDbXrecord
280
     1
 90
        1
330
420
  0
DICTIONARY
  5
424
102
{ACAD_REACTORS
330
3D6
102
}
330
3D6
100
AcDbDictionary
281
     1
  3
CANNOSCALE
350
425
  3
CMLEADERSTYLE
350
42A
  3
CTABLESTYLE
350
429
  3
MSLTSCALE
350
42B
  0
DICTIONARY
  5
423
102
{ACAD_REACTORS
330
3D6
102
}
330
3D6
100
AcDbDictionary
281
     1
  0
LAYOUT
  5
401
102
{ACAD_REACTORS
330
3FF
102
}
330
3FF
100
AcDbPlotSettings
  1

  2
none_device
  4
ISO_A3_(420.00_x_297.00_MM)
  6

 40
7.5
 41
20.0
 42
7.5
 43
20.0
 44
420.0
 45
297.0
 46
0.0
 47
0.0
 48
0.0
 49
0.0
140
0.0
141
0.0
142
1.0
143
1.634241245136187
 70
   688
 72
     1
 73
     0
 74
     1
  7

 75
     0
 76
     0
 77
     2
 78
   300
147
0.611904761904762
148
0.0
149
0.0
100
AcDbLayout
  1
Foglio 1
 70
     1
 71
     1
 10
0.0
 20
0.0
 11
412.5
 21
277.0
 12
0.0
 22
0.0
 32
0.0
 14
0.0
 24
0.0
 34
0.0
 15
594.0
 25
420.0
 35
0.0
146
0.0
 13
0.0
 23
0.0
 33
0.0
 16
1.0
 26
0.0
 36
0.0
 17
0.0
 27
1.0
 37
0.0
 76
     0
330
1B
331
2AC
  0
LAYOUT
  5
400
102
{ACAD_REACTORS
330
3FF
102
}
330
3FF
100
AcDbPlotSettings
  1

  2
none_device
  4
Letter_(8.50_x_11.00_Inches)
  6

 40
6.35
 41
6.35
 42
6.35
 43
6.35
 44
215.9
 45
279.4
 46
0.0
 47
0.0
 48
0.0
 49
0.0
140
0.0
141
0.0
142
1.0
143
74.25000000075
 70
  1712
 72
     0
 73
     0
 74
     0
  7

 75
     0
 76
     0
 77
     2
 78
   300
147
0.0134680134678774
148
0.000000076200638
149
0.0
100
AcDbLayout
  1
Model
 70
     1
 71
     0
 10
0.0
 20
0.0
 11
594.0
 21
420.0
 12
0.0
 22
0.0
 32
0.0
 14
0.0
 24
0.0
 34
0.0
 15
594.0
 25
420.0
 35
0.0
146
0.0
 13
0.0
 23
0.0
 33
0.0
 16
1.0
 26
0.0
 36
0.0
 17
0.0
 27
1.0
 37
0.0
 76
     0
330
1F
331
1F4
  0
MATERIAL
  5
41D
102
{ACAD_REACTORS
330
41B
102
}
330
41B
100
AcDbMaterial
  1
ByBlock
 72
     1
 94
      127
  0
MATERIAL
  5
41C
102
{ACAD_REACTORS
330
41B
102
}
330
41B
100
AcDbMaterial
  1
ByLayer
 72
     1
 94
      127
  0
MATERIAL
  5
41E
102
{ACAD_REACTORS
330
41B
102
}
330
41B
100
AcDbMaterial
  1
Global
 72
     1
 94
      127
  0
MLEADERSTYLE
  5
422
102
{ACAD_REACTORS
330
421
102
}
330
421
100
AcDbMLeaderStyle
179
     2
170
     2
171
     1
172
     0
 90
        2
 40
0.0
 41
0.0
173
     1
 91
-1056964608
340
14
 92
       -2
290
     1
 42
2.0
291
     1
 43
8.0
  3
Standard
341
0
 44
4.0
300

342
11
174
     1
178
     1
175
     1
176
     0
 93
-1056964608
 45
4.0
292
     0
297
     0
 46
4.0
343
0
 94
-1056964608
 47
1.0
 49
1.0
140
1.0
293
     1
141
0.0
294
     1
177
     0
142
1.0
295
     0
296
     0
143
3.75
271
     0
272
     9
273
     9
298
     0
  0
MLINESTYLE
  5
3D9
102
{ACAD_REACTORS
330
3D8
102
}
330
3D8
100
AcDbMlineStyle
  2
STANDARD
 70
     0
  3

 62
   256
 51
90.0
 52
90.0
 71
     2
 49
0.5
 62
   256
  6
BYLAYER
 49
-0.5
 62
   256
  6
BYLAYER
  0
ACDBPLACEHOLDER
  5
3DC
102
{ACAD_REACTORS
330
3DB
102
}
330
3DB
  0
SCALE
  5
3DE
102
{ACAD_REACTORS
330
3DD
102
}
330
3DD
100
AcDbScale
 70
     0
300
1:1
140
1.0
141
1.0
290
     1
  0
SCALE
  5
3DF
102
{ACAD_REACTORS
330
3DD
102
}
330
3DD
100
AcDbScale
 70
     0
300
1:2
140
1.0
141
2.0
290
     0
  0
SCALE
  5
3E0
102
{ACAD_REACTORS
330
3DD
102
}
330
3DD
100
AcDbScale
 70
     0
300
1:4
140
1.0
141
4.0
290
     0
  0
SCALE
  5
3E1
102
{ACAD_REACTORS
330
3DD
102
}
330
3DD
100
AcDbScale
 70
     0
300
1:5
140
1.0
141
5.0
290
     0
  0
SCALE
  5
3E2
102
{ACAD_REACTORS
330
3DD
102
}
330
3DD
100
AcDbScale
 70
     0
300
1:8
140
1.0
141
8.0
290
     0
  0
SCALE
  5
3E3
102
{ACAD_REACTORS
330
3DD
102
}
330
3DD
100
AcDbScale
 70
     0
300
1:10
140
1.0
141
10.0
290
     0
  0
SCALE
  5
3E4
102
{ACAD_REACTORS
330
3DD
102
}
330
3DD
100
AcDbScale
 70
     0
300
1:16
140
1.0
141
16.0
290
     0
  0
SCALE
  5
3E5
102
{ACAD_REACTORS
330
3DD
102
}
330
3DD
100
AcDbScale
 70
     0
300
1:20
140
1.0
141
20.0
290
     0
  0
SCALE
  5
3E6
102
{ACAD_REACTORS
330
3DD
102
}
330
3DD
100
AcDbScale
 70
     0
300
1:30
140
1.0
141
30.0
290
     0
  0
SCALE
  5
3E7
102
{ACAD_REACTORS
330
3DD
102
}
330
3DD
100
AcDbScale
 70
     0
300
1:40
140
1.0
141
40.0
290
     0
  0
SCALE
  5
3E8
102
{ACAD_REACTORS
330
3DD
102
}
330
3DD
100
AcDbScale
 70
     0
300
1:50
140
1.0
141
50.0
290
     0
  0
SCALE
  5
3E9
102
{ACAD_REACTORS
330
3DD
102
}
330
3DD
100
AcDbScale
 70
     0
300
1:100
140
1.0
141
100.0
290
     0
  0
SCALE
  5
3EA
102
{ACAD_REACTORS
330
3DD
102
}
330
3DD
100
AcDbScale
 70
     0
300
2:1
140
2.0
141
1.0
290
     0
  0
SCALE
  5
3EB
102
{ACAD_REACTORS
330
3DD
102
}
330
3DD
100
AcDbScale
 70
     0
300
4:1
140
4.0
141
1.0
290
     0
  0
SCALE
  5
3EC
102
{ACAD_REACTORS
330
3DD
102
}
330
3DD
100
AcDbScale
 70
     0
300
8:1
140
8.0
141
1.0
290
     0
  0
SCALE
  5
3ED
102
{ACAD_REACTORS
330
3DD
102
}
330
3DD
100
AcDbScale
 70
     0
300
10:1
140
10.0
141
1.0
290
     0
  0
SCALE
  5
3EE
102
{ACAD_REACTORS
330
3DD
102
}
330
3DD
100
AcDbScale
 70
     0
300
100:1
140
100.0
141
1.0
290
     0
  0
SCALE
  5
3EF
102
{ACAD_REACTORS
330
3DD
102
}
330
3DD
100
AcDbScale
 70
     0
300
1/128" = 1'-0"
140
0.0078125
141
12.0
290
     0
  0
SCALE
  5
3F0
102
{ACAD_REACTORS
330
3DD
102
}
330
3DD
100
AcDbScale
 70
     0
300
1/64" = 1'-0"
140
0.015625
141
12.0
290
     0
  0
SCALE
  5
3F1
102
{ACAD_REACTORS
330
3DD
102
}
330
3DD
100
AcDbScale
 70
     0
300
1/32" = 1'-0"
140
0.03125
141
12.0
290
     0
  0
SCALE
  5
3F2
102
{ACAD_REACTORS
330
3DD
102
}
330
3DD
100
AcDbScale
 70
     0
300
1/16" = 1'-0"
140
0.0625
141
12.0
290
     0
  0
SCALE
  5
3F3
102
{ACAD_REACTORS
330
3DD
102
}
330
3DD
100
AcDbScale
 70
     0
300
3/32" = 1'-0"
140
0.09375
141
12.0
290
     0
  0
SCALE
  5
3F4
102
{ACAD_REACTORS
330
3DD
102
}
330
3DD
100
AcDbScale
 70
     0
300
1/8" = 1'-0"
140
0.125
141
12.0
290
     0
  0
SCALE
  5
3F5
102
{ACAD_REACTORS
330
3DD
102
}
330
3DD
100
AcDbScale
 70
     0
300
3/16" = 1'-0"
140
0.1875
141
12.0
290
     0
  0
SCALE
  5
3F6
102
{ACAD_REACTORS
330
3DD
102
}
330
3DD
100
AcDbScale
 70
     0
300
1/4" = 1'-0"
140
0.25
141
12.0
290
     0
  0
SCALE
  5
3F7
102
{ACAD_REACTORS
330
3DD
102
}
330
3DD
100
AcDbScale
 70
     0
300
3/8" = 1'-0"
140
0.375
141
12.0
290
     0
  0
SCALE
  5
3F8
102
{ACAD_REACTORS
330
3DD
102
}
330
3DD
100
AcDbScale
 70
     0
300
1/2" = 1'-0"
140
0.5
141
12.0
290
     0
  0
SCALE
  5
3F9
102
{ACAD_REACTORS
330
3DD
102
}
330
3DD
100
AcDbScale
 70
     0
300
3/4" = 1'-0"
140
0.75
141
12.0
290
     0
  0
SCALE
  5
3FA
102
{ACAD_REACTORS
330
3DD
102
}
330
3DD
100
AcDbScale
 70
     0
300
1" = 1'-0"
140
1.0
141
12.0
290
     0
  0
SCALE
  5
3FB
102
{ACAD_REACTORS
330
3DD
102
}
330
3DD
100
AcDbScale
 70
     0
300
1-1/2" = 1'-0"
140
1.5
141
12.0
290
     0
  0
SCALE
  5
3FC
102
{ACAD_REACTORS
330
3DD
102
}
330
3DD
100
AcDbScale
 70
     0
300
3" = 1'-0"
140
3.0
141
12.0
290
     0
  0
SCALE
  5
3FD
102
{ACAD_REACTORS
330
3DD
102
}
330
3DD
100
AcDbScale
 70
     0
300
6" = 1'-0"
140
6.0
141
12.0
290
     0
  0
SCALE
  5
3FE
102
{ACAD_REACTORS
330
3DD
102
}
330
3DD
100
AcDbScale
 70
     0
300
1'-0" = 1'-0"
140
12.0
141
12.0
290
     0
  0
TABLESTYLE
  5
420
102
{ACAD_REACTORS
330
41F
102
}
102
{ACAD_XDICTIONARY
360
426
102
}
330
41F
100
AcDbTableStyle
  3
Standard
 70
     0
 71
     0
 40
0.06
 41
0.06
280
     0
281
     0
  7
STANDARD
140
4.5
170
     2
 62
     0
 63
   257
283
     0
 90
        4
 91
        0
  1

274
    -2
284
     1
 64
     0
275
    -2
285
     1
 65
     0
276
    -2
286
     1
 66
     0
277
    -2
287
     1
 67
     0
278
    -2
288
     1
 68
     0
279
    -2
289
     1
 69
     0
  7
STANDARD
140
6.0
170
     5
 62
     0
 63
   257
283
     0
 90
        4
 91
        0
  1

274
    -2
284
     1
 64
     0
275
    -2
285
     1
 65
     0
276
    -2
286
     1
 66
     0
277
    -2
287
     1
 67
     0
278
    -2
288
     1
 68
     0
279
    -2
289
     1
 69
     0
  7
STANDARD
140
4.5
170
     5
 62
     0
 63
   257
283
     0
 90
        4
 91
        0
  1

274
    -2
284
     1
 64
     0
275
    -2
285
     1
 65
     0
276
    -2
286
     1
 66
     0
277
    -2
287
     1
 67
     0
278
    -2
288
     1
 68
     0
279
    -2
289
     1
 69
     0
  0
VISUALSTYLE
  5
407
102
{ACAD_REACTORS
330
402
102
}
330
402
100
AcDbVisualStyle
  2
2dWireframe
 70
     4
177
     3
291
     0
 70
    58
 90
        0
176
     1
 90
        2
176
     1
 90
        0
176
     1
 90
        0
176
     1
 40
0.6
176
     1
 40
30.0
176
     1
 62
     7
420
 16777215
176
     1
 90
        1
176
     1
 90
        4
176
     1
 62
     7
176
     1
 62
   257
176
     1
 90
        1
176
     1
 90
        1
176
     1
 40
1.0
176
     1
 90
        0
176
     1
 62
   257
176
     1
 40
1.0
176
     1
 90
        1
176
     1
 90
        6
176
     1
 90
        2
176
     1
 62
     7
176
     1
 90
        5
176
     1
 90
        0
176
     1
 90
        0
176
     1
290
     0
176
     1
 90
        1
176
     1
 40
0.0
176
     1
 90
        0
176
     1
290
     1
176
     1
290
     1
176
     1
290
     0
176
     1
290
     0
176
     1
290
     0
176
     1
290
     0
176
     1
290
     0
176
     1
290
     0
176
     1
290
     0
176
     1
 90
       50
176
     1
 40
0.0
176
     1
 40
1.0
176
     1
 90
        0
176
     1
 62
    18
420
        0
176
     1
 90
       50
176
     1
 90
        3
176
     1
 62
     5
420
      255
176
     1
290
     0
176
     1
 90
       50
176
     1
 90
       50
176
     1
 90
       50
176
     1
290
     0
176
     1
 90
       50
176
     1
 62
   256
176
     0
 40
1.0
176
     0
 90
        2
176
     1
  1
strokes_ogs.tif
176
     1
290
     0
176
     1
 40
1.0
176
     1
 40
1.0
176
     1
  0
VISUALSTYLE
  5
40A
102
{ACAD_REACTORS
330
402
102
}
330
402
100
AcDbVisualStyle
  2
Basic
 70
     7
177
     3
291
     1
 70
    58
 90
        1
176
     1
 90
        0
176
     1
 90
        1
176
     1
 90
        0
176
     1
 40
0.6
176
     1
 40
30.0
176
     1
 62
     7
420
 16777215
176
     1
 90
        0
176
     1
 90
        4
176
     1
 62
     7
176
     1
 62
   257
176
     1
 90
        1
176
     1
 90
        1
176
     1
 40
1.0
176
     1
 90
        8
176
     1
 62
     7
176
     1
 40
1.0
176
     1
 90
        1
176
     1
 90
        6
176
     1
 90
        2
176
     1
 62
     7
176
     1
 90
        5
176
     1
 90
        0
176
     1
 90
        0
176
     1
290
     0
176
     1
 90
        1
176
     1
 40
0.0
176
     1
 90
        0
176
     1
290
     0
176
     1
290
     1
176
     1
290
     1
176
     1
290
     0
176
     1
290
     0
176
     1
290
     0
176
     1
290
     0
176
     1
290
     0
176
     1
290
     0
176
     1
 90
       50
176
     1
 40
0.0
176
     1
 40
1.0
176
     1
 90
        0
176
     1
 62
    18
420
        0
176
     1
 90
       50
176
     1
 90
        3
176
     1
 62
     5
420
      255
176
     1
290
     0
176
     1
 90
       50
176
     1
 90
       50
176
     1
 90
       50
176
     1
290
     0
176
     1
 90
       50
176
     1
 62
   256
176
     0
 40
1.0
176
     0
 90
        2
176
     1
  1
strokes_ogs.tif
176
     1
290
     0
176
     1
 40
1.0
176
     1
 40
1.0
176
     1
  0
VISUALSTYLE
  5
40E
102
{ACAD_REACTORS
330
402
102
}
330
402
100
AcDbVisualStyle
  2
Brighten
 70
    12
177
     3
291
     1
 70
    58
 90
        2
176
     1
 90
        2
176
     1
 90
        0
176
     1
 90
        0
176
     1
 40
0.6
176
     1
 40
30.0
176
     1
 62
     7
420
 16777215
176
     1
 90
        1
176
     1
 90
        4
176
     1
 62
     7
176
     1
 62
   257
176
     1
 90
        1
176
     1
 90
        1
176
     1
 40
1.0
176
     1
 90
        8
176
     1
 62
     7
176
     1
 40
1.0
176
     1
 90
        1
176
     1
 90
        6
176
     1
 90
        2
176
     1
 62
     7
176
     1
 90
        5
176
     1
 90
        0
176
     1
 90
        0
176
     1
290
     0
176
     1
 90
        1
176
     1
 40
50.0
176
     1
 90
        0
176
     1
290
     0
176
     1
290
     1
176
     1
290
     1
176
     1
290
     0
176
     1
290
     0
176
     1
290
     0
176
     1
290
     0
176
     1
290
     0
176
     1
290
     0
176
     1
 90
       50
176
     1
 40
0.0
176
     1
 40
1.0
176
     1
 90
        0
176
     1
 62
    18
420
        0
176
     1
 90
       50
176
     1
 90
        3
176
     1
 62
     5
420
      255
176
     1
290
     0
176
     1
 90
       50
176
     1
 90
       50
176
     1
 90
       50
176
     1
290
     0
176
     1
 90
       50
176
     1
 62
   256
176
     0
 40
1.0
176
     0
 90
        2
176
     1
  1
strokes_ogs.tif
176
     1
290
     0
176
     1
 40
1.0
176
     1
 40
1.0
176
     1
  0
VISUALSTYLE
  5
412
102
{ACAD_REACTORS
330
402
102
}
330
402
100
AcDbVisualStyle
  2
ColorChange
 70
    16
177
     3
291
     1
 70
    58
 90
        2
176
     1
 90
        2
176
     1
 90
        3
176
     1
 90
        0
176
     1
 40
0.6
176
     1
 40
30.0
176
     1
 62
     8
420
  8421504
176
     1
 90
        1
176
     1
 90
        4
176
     1
 62
     7
176
     1
 62
   257
176
     1
 90
        1
176
     1
 90
        1
176
     1
 40
1.0
176
     1
 90
        8
176
     1
 62
     8
420
  8421504
176
     1
 40
1.0
176
     1
 90
        1
176
     1
 90
        6
176
     1
 90
        2
176
     1
 62
     7
176
     1
 90
        5
176
     1
 90
        0
176
     1
 90
        0
176
     1
290
     0
176
     1
 90
        1
176
     1
 40
0.0
176
     1
 90
        0
176
     1
290
     0
176
     1
290
     1
176
     1
290
     1
176
     1
290
     0
176
     1
290
     0
176
     1
290
     0
176
     1
290
     0
176
     1
290
     0
176
     1
290
     0
176
     1
 90
       50
176
     1
 40
0.0
176
     1
 40
1.0
176
     1
 90
        0
176
     1
 62
    18
420
        0
176
     1
 90
       50
176
     1
 90
        3
176
     1
 62
     5
420
      255
176
     1
290
     0
176
     1
 90
       50
176
     1
 90
       50
176
     1
 90
       50
176
     1
290
     0
176
     1
 90
       50
176
     1
 62
   256
176
     0
 40
1.0
176
     0
 90
        2
176
     1
  1
strokes_ogs.tif
176
     1
290
     0
176
     1
 40
1.0
176
     1
 40
1.0
176
     1
  0
VISUALSTYLE
  5
40C
102
{ACAD_REACTORS
330
402
102
}
330
402
100
AcDbVisualStyle
  2
Conceptual
 70
     9
177
     3
291
     0
 70
    58
 90
        3
176
     1
 90
        2
176
     1
 90
        0
176
     1
 90
        0
176
     1
 40
0.6
176
     1
 40
30.0
176
     1
 62
     7
420
 16777215
176
     1
 90
        2
176
     1
 90
        2
176
     1
 62
     7
176
     1
 62
   257
176
     1
 90
        1
176
     1
 90
        1
176
     1
 40
179.0
176
     1
 90
        8
176
     1
 62
     7
176
     1
 40
1.0
176
     1
 90
        1
176
     1
 90
        6
176
     1
 90
        2
176
     1
 62
     7
176
     1
 90
        3
176
     1
 90
        0
176
     1
 90
        0
176
     1
290
     0
176
     1
 90
        1
176
     1
 40
0.0
176
     1
 90
        0
176
     1
290
     0
176
     1
290
     1
176
     1
290
     1
176
     1
290
     0
176
     1
290
     0
176
     1
290
     0
176
     1
290
     0
176
     1
290
     0
176
     1
290
     0
176
     1
 90
       50
176
     1
 40
0.0
176
     1
 40
1.0
176
     1
 90
        0
176
     1
 62
    18
420
        0
176
     1
 90
       50
176
     1
 90
        3
176
     1
 62
     5
420
      255
176
     1
290
     0
176
     1
 90
       50
176
     1
 90
       50
176
     1
 90
       50
176
     1
290
     0
176
     1
 90
       50
176
     1
 62
   256
176
     0
 40
1.0
176
     0
 90
        2
176
     1
  1
strokes_ogs.tif
176
     1
290
     0
176
     1
 40
1.0
176
     1
 40
1.0
176
     1
  0
VISUALSTYLE
  5
40D
102
{ACAD_REACTORS
330
402
102
}
330
402
100
AcDbVisualStyle
  2
Dim
 70
    11
177
     3
291
     1
 70
    58
 90
        2
176
     1
 90
        2
176
     1
 90
        0
176
     1
 90
        0
176
     1
 40
0.6
176
     1
 40
30.0
176
     1
 62
     7
420
 16777215
176
     1
 90
        1
176
     1
 90
        4
176
     1
 62
     7
176
     1
 62
   257
176
     1
 90
        1
176
     1
 90
        1
176
     1
 40
1.0
176
     1
 90
        8
176
     1
 62
     7
176
     1
 40
1.0
176
     1
 90
        1
176
     1
 90
        6
176
     1
 90
        2
176
     1
 62
     7
176
     1
 90
        5
176
     1
 90
        0
176
     1
 90
        0
176
     1
290
     0
176
     1
 90
        1
176
     1
 40
-50.0
176
     1
 90
        0
176
     1
290
     0
176
     1
290
     1
176
     1
290
     1
176
     1
290
     0
176
     1
290
     0
176
     1
290
     0
176
     1
290
     0
176
     1
290
     0
176
     1
290
     0
176
     1
 90
       50
176
     1
 40
0.0
176
     1
 40
1.0
176
     1
 90
        0
176
     1
 62
    18
420
        0
176
     1
 90
       50
176
     1
 90
        3
176
     1
 62
     5
420
      255
176
     1
290
     0
176
     1
 90
       50
176
     1
 90
       50
176
     1
 90
       50
176
     1
290
     0
176
     1
 90
       50
176
     1
 62
   256
176
     0
 40
1.0
176
     0
 90
        2
176
     1
  1
strokes_ogs.tif
176
     1
290
     0
176
     1
 40
1.0
176
     1
 40
1.0
176
     1
  0
VISUALSTYLE
  5
415
102
{ACAD_REACTORS
330
402
102
}
330
402
100
AcDbVisualStyle
  2
EdgeColorOff
 70
    22
177
     3
291
     1
 70
    58
 90
        2
176
     0
 90
        2
176
     0
 90
        0
176
     0
 90
        0
176
     0
 40
0.6
176
     0
 40
30.0
176
     0
 62
     7
420
 16777215
176
     0
 90
        1
176
     0
 90
        4
176
     0
 62
     7
176
     0
 62
   257
176
     0
 90
        1
176
     0
 90
        1
176
     0
 40
1.0
176
     0
 90
        8
176
     2
 62
     7
176
     0
 40
1.0
176
     0
 90
        1
176
     0
 90
        6
176
     0
 90
        2
176
     0
 62
     7
176
     0
 90
        5
176
     0
 90
        0
176
     0
 90
        0
176
     0
290
     0
176
     0
 90
        1
176
     0
 40
0.0
176
     0
 90
        0
176
     0
290
     0
176
     0
290
     1
176
     0
290
     1
176
     0
290
     0
176
     0
290
     0
176
     0
290
     0
176
     0
290
     0
176
     0
290
     0
176
     0
290
     0
176
     0
 90
       50
176
     0
 40
0.0
176
     0
 40
1.0
176
     0
 90
        0
176
     0
 62
    18
420
        0
176
     0
 90
       50
176
     0
 90
        3
176
     0
 62
     5
420
      255
176
     0
290
     0
176
     0
 90
       50
176
     0
 90
       50
176
     0
 90
       50
176
     0
290
     0
176
     0
 90
       50
176
     0
 62
   256
176
     0
 40
1.0
176
     0
 90
        2
176
     0
  1
strokes_ogs.tif
176
     0
290
     0
176
     0
 40
1.0
176
     0
 40
1.0
176
     0
  0
VISUALSTYLE
  5
411
102
{ACAD_REACTORS
330
402
102
}
330
402
100
AcDbVisualStyle
  2
Facepattern
 70
    15
177
     3
291
     1
 70
    58
 90
        2
176
     1
 90
        2
176
     1
 90
        0
176
     1
 90
        0
176
     1
 40
0.6
176
     1
 40
30.0
176
     1
 62
     7
420
 16777215
176
     1
 90
        1
176
     1
 90
        4
176
     1
 62
     7
176
     1
 62
   257
176
     1
 90
        1
176
     1
 90
        1
176
     1
 40
1.0
176
     1
 90
        8
176
     1
 62
     7
176
     1
 40
1.0
176
     1
 90
        1
176
     1
 90
        6
176
     1
 90
        2
176
     1
 62
     7
176
     1
 90
        5
176
     1
 90
        0
176
     1
 90
        0
176
     1
290
     0
176
     1
 90
        1
176
     1
 40
0.0
176
     1
 90
        0
176
     1
290
     0
176
     1
290
     1
176
     1
290
     1
176
     1
290
     0
176
     1
290
     0
176
     1
290
     0
176
     1
290
     0
176
     1
290
     0
176
     1
290
     0
176
     1
 90
       50
176
     1
 40
0.0
176
     1
 40
1.0
176
     1
 90
        0
176
     1
 62
    18
420
        0
176
     1
 90
       50
176
     1
 90
        3
176
     1
 62
     5
420
      255
176
     1
290
     0
176
     1
 90
       50
176
     1
 90
       50
176
     1
 90
       50
176
     1
290
     0
176
     1
 90
       50
176
     1
 62
   256
176
     0
 40
1.0
176
     0
 90
        2
176
     1
  1
strokes_ogs.tif
176
     1
290
     0
176
     1
 40
1.0
176
     1
 40
1.0
176
     1
  0
VISUALSTYLE
  5
403
102
{ACAD_REACTORS
330
402
102
}
330
402
100
AcDbVisualStyle
  2
Flat
 70
     0
177
     3
291
     1
 70
    58
 90
        2
176
     1
 90
        1
176
     1
 90
        1
176
     1
 90
        2
176
     1
 40
0.6
176
     1
 40
30.0
176
     1
 62
     7
420
 16777215
176
     1
 90
        0
176
     1
 90
        0
176
     1
 62
     7
176
     1
 62
   257
176
     1
 90
        1
176
     1
 90
        1
176
     1
 40
1.0
176
     1
 90
        8
176
     1
 62
     7
176
     1
 40
1.0
176
     1
 90
        1
176
     1
 90
        6
176
     1
 90
        2
176
     1
 62
     7
176
     1
 90
        5
176
     1
 90
        0
176
     1
 90
        0
176
     1
290
     0
176
     1
 90
       13
176
     1
 40
0.0
176
     1
 90
        0
176
     1
290
     0
176
     1
290
     1
176
     1
290
     1
176
     1
290
     0
176
     1
290
     0
176
     1
290
     0
176
     1
290
     0
176
     1
290
     0
176
     1
290
     0
176
     1
 90
       50
176
     1
 40
0.0
176
     1
 40
1.0
176
     1
 90
        0
176
     1
 62
    18
420
        0
176
     1
 90
       50
176
     1
 90
        3
176
     1
 62
     5
420
      255
176
     1
290
     0
176
     1
 90
       50
176
     1
 90
       50
176
     1
 90
       50
176
     1
290
     0
176
     1
 90
       50
176
     1
 62
   256
176
     0
 40
1.0
176
     0
 90
        2
176
     1
  1
strokes_ogs.tif
176
     1
290
     0
176
     1
 40
1.0
176
     1
 40
1.0
176
     1
  0
VISUALSTYLE
  5
404
102
{ACAD_REACTORS
330
402
102
}
330
402
100
AcDbVisualStyle
  2
FlatWithEdges
 70
     1
177
     3
291
     1
 70
    58
 90
        2
176
     1
 90
        1
176
     1
 90
        1
176
     1
 90
        2
176
     1
 40
0.6
176
     1
 40
30.0
176
     1
 62
     7
420
 16777215
176
     1
 90
        1
176
     1
 90
        0
176
     1
 62
     7
176
     1
 62
   257
176
     1
 90
        1
176
     1
 90
        1
176
     1
 40
1.0
176
     1
 90
        0
176
     1
 62
   257
176
     1
 40
1.0
176
     1
 90
        1
176
     1
 90
        6
176
     1
 90
        2
176
     1
 62
     7
176
     1
 90
        5
176
     1
 90
        0
176
     1
 90
        0
176
     1
290
     0
176
     1
 90
       13
176
     1
 40
0.0
176
     1
 90
        0
176
     1
290
     0
176
     1
290
     1
176
     1
290
     1
176
     1
290
     0
176
     1
290
     0
176
     1
290
     0
176
     1
290
     0
176
     1
290
     0
176
     1
290
     0
176
     1
 90
       50
176
     1
 40
0.0
176
     1
 40
1.0
176
     1
 90
        0
176
     1
 62
    18
420
        0
176
     1
 90
       50
176
     1
 90
        3
176
     1
 62
     5
420
      255
176
     1
290
     0
176
     1
 90
       50
176
     1
 90
       50
176
     1
 90
       50
176
     1
290
     0
176
     1
 90
       50
176
     1
 62
   256
176
     0
 40
1.0
176
     0
 90
        2
176
     1
  1
strokes_ogs.tif
176
     1
290
     0
176
     1
 40
1.0
176
     1
 40
1.0
176
     1
  0
VISUALSTYLE
  5
405
102
{ACAD_REACTORS
330
402
102
}
330
402
100
AcDbVisualStyle
  2
Gouraud
 70
     2
177
     3
291
     1
 70
    58
 90
        2
176
     1
 90
        2
176
     1
 90
        1
176
     1
 90
        2
176
     1
 40
0.6
176
     1
 40
30.0
176
     1
 62
     7
420
 16777215
176
     1
 90
        0
176
     1
 90
        0
176
     1
 62
     7
176
     1
 62
   257
176
     1
 90
        1
176
     1
 90
        1
176
     1
 40
1.0
176
     1
 90
        0
176
     1
 62
     7
176
     1
 40
1.0
176
     1
 90
        1
176
     1
 90
        6
176
     1
 90
        2
176
     1
 62
     7
176
     1
 90
        5
176
     1
 90
        0
176
     1
 90
        0
176
     1
290
     0
176
     1
 90
       13
176
     1
 40
0.0
176
     1
 90
        0
176
     1
290
     0
176
     1
290
     1
176
     1
290
     1
176
     1
290
     0
176
     1
290
     0
176
     1
290
     0
176
     1
290
     0
176
     1
290
     0
176
     1
290
     0
176
     1
 90
       50
176
     1
 40
0.0
176
     1
 40
1.0
176
     1
 90
        0
176
     1
 62
    18
420
        0
176
     1
 90
       50
176
     1
 90
        3
176
     1
 62
     5
420
      255
176
     1
290
     0
176
     1
 90
       50
176
     1
 90
       50
176
     1
 90
       50
176
     1
290
     0
176
     1
 90
       50
176
     1
 62
   256
176
     0
 40
1.0
176
     0
 90
        2
176
     1
  1
strokes_ogs.tif
176
     1
290
     0
176
     1
 40
1.0
176
     1
 40
1.0
176
     1
  0
VISUALSTYLE
  5
406
102
{ACAD_REACTORS
330
402
102
}
330
402
100
AcDbVisualStyle
  2
GouraudWithEdges
 70
     3
177
     3
291
     1
 70
    58
 90
        2
176
     1
 90
        2
176
     1
 90
        1
176
     1
 90
        2
176
     1
 40
0.6
176
     1
 40
30.0
176
     1
 62
     7
420
 16777215
176
     1
 90
        1
176
     1
 90
        0
176
     1
 62
     7
176
     1
 62
   257
176
     1
 90
        1
176
     1
 90
        1
176
     1
 40
1.0
176
     1
 90
        0
176
     1
 62
   257
176
     1
 40
1.0
176
     1
 90
        1
176
     1
 90
        6
176
     1
 90
        2
176
     1
 62
     7
176
     1
 90
        5
176
     1
 90
        0
176
     1
 90
        0
176
     1
290
     0
176
     1
 90
       13
176
     1
 40
0.0
176
     1
 90
        0
176
     1
290
     0
176
     1
290
     1
176
     1
290
     1
176
     1
290
     0
176
     1
290
     0
176
     1
290
     0
176
     1
290
     0
176
     1
290
     0
176
     1
290
     0
176
     1
 90
       50
176
     1
 40
0.0
176
     1
 40
1.0
176
     1
 90
        0
176
     1
 62
    18
420
        0
176
     1
 90
       50
176
     1
 90
        3
176
     1
 62
     5
420
      255
176
     1
290
     0
176
     1
 90
       50
176
     1
 90
       50
176
     1
 90
       50
176
     1
290
     0
176
     1
 90
       50
176
     1
 62
   256
176
     0
 40
1.0
176
     0
 90
        2
176
     1
  1
strokes_ogs.tif
176
     1
290
     0
176
     1
 40
1.0
176
     1
 40
1.0
176
     1
  0
VISUALSTYLE
  5
409
102
{ACAD_REACTORS
330
402
102
}
330
402
100
AcDbVisualStyle
  2
Hidden
 70
     6
177
     3
291
     0
 70
    58
 90
        1
176
     1
 90
        2
176
     1
 90
        2
176
     1
 90
        0
176
     1
 40
0.6
176
     1
 40
30.0
176
     1
 62
     7
420
 16777215
176
     1
 90
        2
176
     1
 90
        2
176
     1
 62
     7
176
     1
 62
   257
176
     1
 90
        2
176
     1
 90
        1
176
     1
 40
40.0
176
     1
 90
        0
176
     1
 62
   257
176
     1
 40
1.0
176
     1
 90
        1
176
     1
 90
        6
176
     1
 90
        2
176
     1
 62
     7
176
     1
 90
        3
176
     1
 90
        0
176
     1
 90
        0
176
     1
290
     0
176
     1
 90
        1
176
     1
 40
0.0
176
     1
 90
        0
176
     1
290
     0
176
     1
290
     1
176
     1
290
     1
176
     1
290
     0
176
     1
290
     0
176
     1
290
     0
176
     1
290
     0
176
     1
290
     0
176
     1
290
     0
176
     1
 90
       50
176
     1
 40
0.0
176
     1
 40
1.0
176
     1
 90
        0
176
     1
 62
    18
420
        0
176
     1
 90
       50
176
     1
 90
        3
176
     1
 62
     5
420
      255
176
     1
290
     0
176
     1
 90
       50
176
     1
 90
       50
176
     1
 90
       50
176
     1
290
     0
176
     1
 90
       50
176
     1
 62
   256
176
     0
 40
1.0
176
     0
 90
        2
176
     1
  1
strokes_ogs.tif
176
     1
290
     0
176
     1
 40
1.0
176
     1
 40
1.0
176
     1
  0
VISUALSTYLE
  5
413
102
{ACAD_REACTORS
330
402
102
}
330
402
100
AcDbVisualStyle
  2
JitterOff
 70
    20
177
     3
291
     1
 70
    58
 90
        2
176
     0
 90
        2
176
     0
 90
        0
176
     0
 90
        0
176
     0
 40
0.6
176
     0
 40
30.0
176
     0
 62
     7
420
 16777215
176
     0
 90
        1
176
     0
 90
        4
176
     0
 62
     7
176
     0
 62
   257
176
     0
 90
        1
176
     0
 90
        1
176
     0
 40
1.0
176
     0
 90
       10
176
     2
 62
     7
176
     0
 40
1.0
176
     0
 90
        1
176
     0
 90
        6
176
     0
 90
        2
176
     0
 62
     7
176
     0
 90
        5
176
     0
 90
        0
176
     0
 90
        0
176
     0
290
     0
176
     0
 90
        1
176
     0
 40
0.0
176
     0
 90
        0
176
     0
290
     0
176
     0
290
     1
176
     0
290
     1
176
     0
290
     0
176
     0
290
     0
176
     0
290
     0
176
     0
290
     0
176
     0
290
     0
176
     0
290
     0
176
     0
 90
       50
176
     0
 40
0.0
176
     0
 40
1.0
176
     0
 90
        0
176
     0
 62
    18
420
        0
176
     0
 90
       50
176
     0
 90
        3
176
     0
 62
     5
420
      255
176
     0
290
     0
176
     0
 90
       50
176
     0
 90
       50
176
     0
 90
       50
176
     0
290
     0
176
     0
 90
       50
176
     0
 62
   256
176
     0
 40
1.0
176
     0
 90
        2
176
     0
  1
strokes_ogs.tif
176
     0
290
     0
176
     0
 40
1.0
176
     0
 40
1.0
176
     0
  0
VISUALSTYLE
  5
410
102
{ACAD_REACTORS
330
402
102
}
330
402
100
AcDbVisualStyle
  2
Linepattern
 70
    14
177
     3
291
     1
 70
    58
 90
        2
176
     1
 90
        2
176
     1
 90
        0
176
     1
 90
        0
176
     1
 40
0.6
176
     1
 40
30.0
176
     1
 62
     7
420
 16777215
176
     1
 90
        1
176
     1
 90
        4
176
     1
 62
     7
176
     1
 62
   257
176
     1
 90
        7
176
     1
 90
        7
176
     1
 40
1.0
176
     1
 90
        8
176
     1
 62
     7
176
     1
 40
1.0
176
     1
 90
        1
176
     1
 90
        6
176
     1
 90
        2
176
     1
 62
     7
176
     1
 90
        5
176
     1
 90
        0
176
     1
 90
        0
176
     1
290
     0
176
     1
 90
        1
176
     1
 40
0.0
176
     1
 90
        0
176
     1
290
     0
176
     1
290
     1
176
     1
290
     1
176
     1
290
     0
176
     1
290
     0
176
     1
290
     0
176
     1
290
     0
176
     1
290
     0
176
     1
290
     0
176
     1
 90
       50
176
     1
 40
0.0
176
     1
 40
1.0
176
     1
 90
        0
176
     1
 62
    18
420
        0
176
     1
 90
       50
176
     1
 90
        3
176
     1
 62
     5
420
      255
176
     1
290
     0
176
     1
 90
       50
176
     1
 90
       50
176
     1
 90
       50
176
     1
290
     0
176
     1
 90
       50
176
     1
 62
   256
176
     0
 40
1.0
176
     0
 90
        2
176
     1
  1
strokes_ogs.tif
176
     1
290
     0
176
     1
 40
1.0
176
     1
 40
1.0
176
     1
  0
VISUALSTYLE
  5
414
102
{ACAD_REACTORS
330
402
102
}
330
402
100
AcDbVisualStyle
  2
OverhangOff
 70
    21
177
     3
291
     1
 70
    58
 90
        2
176
     0
 90
        2
176
     0
 90
        0
176
     0
 90
        0
176
     0
 40
0.6
176
     0
 40
30.0
176
     0
 62
     7
420
 16777215
176
     0
 90
        1
176
     0
 90
        4
176
     0
 62
     7
176
     0
 62
   257
176
     0
 90
        1
176
     0
 90
        1
176
     0
 40
1.0
176
     0
 90
        9
176
     2
 62
     7
176
     0
 40
1.0
176
     0
 90
        1
176
     0
 90
        6
176
     0
 90
        2
176
     0
 62
     7
176
     0
 90
        5
176
     0
 90
        0
176
     0
 90
        0
176
     0
290
     0
176
     0
 90
        1
176
     0
 40
0.0
176
     0
 90
        0
176
     0
290
     0
176
     0
290
     1
176
     0
290
     1
176
     0
290
     0
176
     0
290
     0
176
     0
290
     0
176
     0
290
     0
176
     0
290
     0
176
     0
290
     0
176
     0
 90
       50
176
     0
 40
0.0
176
     0
 40
1.0
176
     0
 90
        0
176
     0
 62
    18
420
        0
176
     0
 90
       50
176
     0
 90
        3
176
     0
 62
     5
420
      255
176
     0
290
     0
176
     0
 90
       50
176
     0
 90
       50
176
     0
 90
       50
176
     0
290
     0
176
     0
 90
       50
176
     0
 62
   256
176
     0
 40
1.0
176
     0
 90
        2
176
     0
  1
strokes_ogs.tif
176
     0
290
     0
176
     0
 40
1.0
176
     0
 40
1.0
176
     0
  0
VISUALSTYLE
  5
40B
102
{ACAD_REACTORS
330
402
102
}
330
402
100
AcDbVisualStyle
  2
Realistic
 70
     8
177
     3
291
     0
 70
    58
 90
        2
176
     1
 90
        3
176
     1
 90
        0
176
     1
 90
        2
176
     1
 40
0.6
176
     1
 40
30.0
176
     1
 62
     7
420
 16777215
176
     1
 90
        0
176
     1
 90
        0
176
     1
 62
     7
176
     1
 62
   257
176
     1
 90
        1
176
     1
 90
        1
176
     1
 40
1.0
176
     1
 90
        8
176
     1
 62
   257
176
     1
 40
1.0
176
     1
 90
        1
176
     1
 90
        6
176
     1
 90
        2
176
     1
 62
     7
176
     1
 90
        3
176
     1
 90
        0
176
     1
 90
        0
176
     1
290
     0
176
     1
 90
       13
176
     1
 40
0.0
176
     1
 90
        0
176
     1
290
     0
176
     1
290
     1
176
     1
290
     1
176
     1
290
     0
176
     1
290
     0
176
     1
290
     0
176
     1
290
     0
176
     1
290
     0
176
     1
290
     0
176
     1
 90
       50
176
     1
 40
0.0
176
     1
 40
1.0
176
     1
 90
        0
176
     1
 62
    18
420
        0
176
     1
 90
       50
176
     1
 90
        3
176
     1
 62
     5
420
      255
176
     1
290
     0
176
     1
 90
       50
176
     1
 90
       50
176
     1
 90
       50
176
     1
290
     0
176
     1
 90
       50
176
     1
 62
   256
176
     0
 40
1.0
176
     0
 90
        2
176
     1
  1
strokes_ogs.tif
176
     1
290
     0
176
     1
 40
1.0
176
     1
 40
1.0
176
     1
  0
VISUALSTYLE
  5
41A
102
{ACAD_REACTORS
330
402
102
}
330
402
100
AcDbVisualStyle
  2
Shaded
 70
    27
177
     3
291
     0
 70
    58
 90
        2
176
     1
 90
        2
176
     1
 90
        1
176
     1
 90
        2
176
     1
 40
0.6
176
     1
 40
30.0
176
     1
 62
     7
420
 16777215
176
     1
 90
        0
176
     1
 90
        4
176
     1
 62
     7
176
     1
 62
   257
176
     1
 90
        1
176
     1
 90
        1
176
     1
 40
1.0
176
     1
 90
        8
176
     1
 62
   257
176
     1
 40
1.0
176
     1
 90
        1
176
     1
 90
        6
176
     1
 90
        2
176
     1
 62
     8
420
  7895160
176
     1
 90
        3
176
     1
 90
        0
176
     1
 90
        0
176
     1
290
     0
176
     1
 90
        5
176
     1
 40
0.0
176
     1
 90
        0
176
     1
290
     0
176
     1
290
     1
176
     1
290
     1
176
     1
290
     0
176
     1
290
     0
176
     1
290
     0
176
     1
290
     0
176
     1
290
     0
176
     1
290
     0
176
     1
 90
       50
176
     1
 40
0.0
176
     1
 40
1.0
176
     1
 90
        0
176
     1
 62
    18
420
        0
176
     1
 90
       50
176
     1
 90
        3
176
     1
 62
     5
420
      255
176
     1
290
     0
176
     1
 90
       50
176
     1
 90
       50
176
     1
 90
       50
176
     1
290
     0
176
     1
 90
       50
176
     1
 62
   256
176
     0
 40
1.0
176
     0
 90
        2
176
     1
  1
strokes_ogs.tif
176
     1
290
     0
176
     1
 40
1.0
176
     1
 40
1.0
176
     1
  0
VISUALSTYLE
  5
419
102
{ACAD_REACTORS
330
402
102
}
330
402
100
AcDbVisualStyle
  2
Shaded with edges
 70
    26
177
     3
291
     0
 70
    58
 90
        2
176
     1
 90
        2
176
     1
 90
        1
176
     1
 90
        2
176
     1
 40
0.6
176
     1
 40
30.0
176
     1
 62
     7
420
 16777215
176
     1
 90
        1
176
     1
 90
       10
176
     1
 62
     7
176
     1
 62
   257
176
     1
 90
        2
176
     1
 90
        1
176
     1
 40
1.0
176
     1
 90
        8
176
     1
 62
   257
176
     1
 40
1.0
176
     1
 90
        1
176
     1
 90
        6
176
     1
 90
        2
176
     1
 62
     7
176
     1
 90
        3
176
     1
 90
        0
176
     1
 90
        0
176
     1
290
     0
176
     1
 90
        5
176
     1
 40
0.0
176
     1
 90
        0
176
     1
290
     0
176
     1
290
     1
176
     1
290
     1
176
     1
290
     0
176
     1
290
     0
176
     1
290
     0
176
     1
290
     0
176
     1
290
     0
176
     1
290
     0
176
     1
 90
       50
176
     1
 40
0.0
176
     1
 40
1.0
176
     1
 90
        0
176
     1
 62
    18
420
        0
176
     1
 90
       50
176
     1
 90
        3
176
     1
 62
     5
420
      255
176
     1
290
     0
176
     1
 90
       50
176
     1
 90
       50
176
     1
 90
       50
176
     1
290
     0
176
     1
 90
       50
176
     1
 62
   256
176
     0
 40
1.0
176
     0
 90
        2
176
     1
  1
strokes_ogs.tif
176
     1
290
     0
176
     1
 40
1.0
176
     1
 40
1.0
176
     1
  0
VISUALSTYLE
  5
416
102
{ACAD_REACTORS
330
402
102
}
330
402
100
AcDbVisualStyle
  2
Shades of Gray
 70
    23
177
     3
291
     0
 70
    58
 90
        2
176
     1
 90
        2
176
     1
 90
        3
176
     1
 90
        0
176
     1
 40
0.6
176
     1
 40
30.0
176
     1
 62
     7
420
 16777215
176
     1
 90
        2
176
     1
 90
        2
176
     1
 62
     7
176
     1
 62
     7
176
     1
 90
        1
176
     1
 90
        1
176
     1
 40
40.0
176
     1
 90
        8
176
     1
 62
     7
176
     1
 40
1.0
176
     1
 90
        1
176
     1
 90
        6
176
     1
 90
        2
176
     1
 62
     7
176
     1
 90
        3
176
     1
 90
        0
176
     1
 90
        0
176
     1
290
     0
176
     1
 90
        1
176
     1
 40
0.0
176
     1
 90
        0
176
     1
290
     0
176
     1
290
     1
176
     1
290
     1
176
     1
290
     0
176
     1
290
     0
176
     1
290
     0
176
     1
290
     0
176
     1
290
     0
176
     1
290
     0
176
     1
 90
       50
176
     1
 40
0.0
176
     1
 40
1.0
176
     1
 90
        0
176
     1
 62
    18
420
        0
176
     1
 90
       50
176
     1
 90
        3
176
     1
 62
     5
420
      255
176
     1
290
     0
176
     1
 90
       50
176
     1
 90
       50
176
     1
 90
       50
176
     1
290
     0
176
     1
 90
       50
176
     1
 62
   256
176
     0
 40
1.0
176
     0
 90
        2
176
     1
  1
strokes_ogs.tif
176
     1
290
     0
176
     1
 40
1.0
176
     1
 40
1.0
176
     1
  0
VISUALSTYLE
  5
417
102
{ACAD_REACTORS
330
402
102
}
330
402
100
AcDbVisualStyle
  2
Sketchy
 70
    24
177
     3
291
     0
 70
    58
 90
        1
176
     1
 90
        2
176
     1
 90
        2
176
     1
 90
        0
176
     1
 40
0.6
176
     1
 40
30.0
176
     1
 62
     7
420
 16777215
176
     1
 90
        2
176
     1
 90
        2
176
     1
 62
     7
176
     1
 62
     7
176
     1
 90
        1
176
     1
 90
        1
176
     1
 40
40.0
176
     1
 90
       11
176
     1
 62
     7
176
     1
 40
1.0
176
     1
 90
        1
176
     1
 90
        6
176
     1
 90
        2
176
     1
 62
     7
176
     1
 90
        6
176
     1
 90
        0
176
     1
 90
        0
176
     1
290
     0
176
     1
 90
        1
176
     1
 40
0.0
176
     1
 90
        0
176
     1
290
     0
176
     1
290
     1
176
     1
290
     1
176
     1
290
     0
176
     1
290
     0
176
     1
290
     0
176
     1
290
     0
176
     1
290
     0
176
     1
290
     0
176
     1
 90
       50
176
     1
 40
0.0
176
     1
 40
1.0
176
     1
 90
        0
176
     1
 62
    18
420
        0
176
     1
 90
       50
176
     1
 90
        3
176
     1
 62
     5
420
      255
176
     1
290
     0
176
     1
 90
       50
176
     1
 90
       50
176
     1
 90
       50
176
     1
290
     0
176
     1
 90
       50
176
     1
 62
   256
176
     0
 40
1.0
176
     0
 90
        2
176
     1
  1
strokes_ogs.tif
176
     1
290
     0
176
     1
 40
1.0
176
     1
 40
1.0
176
     1
  0
VISUALSTYLE
  5
40F
102
{ACAD_REACTORS
330
402
102
}
330
402
100
AcDbVisualStyle
  2
Thicken
 70
    13
177
     3
291
     1
 70
    58
 90
        2
176
     1
 90
        2
176
     1
 90
        0
176
     1
 90
        0
176
     1
 40
0.6
176
     1
 40
30.0
176
     1
 62
     7
420
 16777215
176
     1
 90
        1
176
     1
 90
        4
176
     1
 62
     7
176
     1
 62
   257
176
     1
 90
        1
176
     1
 90
        1
176
     1
 40
1.0
176
     1
 90
       12
176
     1
 62
     7
176
     1
 40
1.0
176
     1
 90
        1
176
     1
 90
        6
176
     1
 90
        2
176
     1
 62
     7
176
     1
 90
        5
176
     1
 90
        0
176
     1
 90
        0
176
     1
290
     0
176
     1
 90
        1
176
     1
 40
0.0
176
     1
 90
        0
176
     1
290
     0
176
     1
290
     1
176
     1
290
     1
176
     1
290
     0
176
     1
290
     0
176
     1
290
     0
176
     1
290
     0
176
     1
290
     0
176
     1
290
     0
176
     1
 90
       50
176
     1
 40
0.0
176
     1
 40
1.0
176
     1
 90
        0
176
     1
 62
    18
420
        0
176
     1
 90
       50
176
     1
 90
        3
176
     1
 62
     5
420
      255
176
     1
290
     0
176
     1
 90
       50
176
     1
 90
       50
176
     1
 90
       50
176
     1
290
     0
176
     1
 90
       50
176
     1
 62
   256
176
     0
 40
1.0
176
     0
 90
        2
176
     1
  1
strokes_ogs.tif
176
     1
290
     0
176
     1
 40
1.0
176
     1
 40
1.0
176
     1
  0
VISUALSTYLE
  5
408
102
{ACAD_REACTORS
330
402
102
}
330
402
100
AcDbVisualStyle
  2
Wireframe
 70
     5
177
     3
291
     0
 70
    58
 90
        0
176
     1
 90
        2
176
     1
 90
        0
176
     1
 90
        0
176
     1
 40
0.6
176
     1
 40
30.0
176
     1
 62
     7
420
 16777215
176
     1
 90
        1
176
     1
 90
        4
176
     1
 62
     7
176
     1
 62
   257
176
     1
 90
        1
176
     1
 90
        1
176
     1
 40
1.0
176
     1
 90
        0
176
     1
 62
   257
176
     1
 40
1.0
176
     1
 90
        1
176
     1
 90
        6
176
     1
 90
        2
176
     1
 62
     7
176
     1
 90
        3
176
     1
 90
        0
176
     1
 90
        0
176
     1
290
     0
176
     1
 90
        1
176
     1
 40
0.0
176
     1
 90
        0
176
     1
290
     0
176
     1
290
     1
176
     1
290
     1
176
     1
290
     0
176
     1
290
     0
176
     1
290
     0
176
     1
290
     0
176
     1
290
     0
176
     1
290
     0
176
     1
 90
       50
176
     1
 40
0.0
176
     1
 40
1.0
176
     1
 90
        0
176
     1
 62
    18
420
        0
176
     1
 90
       50
176
     1
 90
        3
176
     1
 62
     5
420
      255
176
     1
290
     0
176
     1
 90
       50
176
     1
 90
       50
176
     1
 90
       50
176
     1
290
     0
176
     1
 90
       50
176
     1
 62
   256
176
     0
 40
1.0
176
     0
 90
        2
176
     1
  1
strokes_ogs.tif
176
     1
290
     0
176
     1
 40
1.0
176
     1
 40
1.0
176
     1
  0
VISUALSTYLE
  5
418
102
{ACAD_REACTORS
330
402
102
}
330
402
100
AcDbVisualStyle
  2
X-Ray
 70
    25
177
     3
291
     0
 70
    58
 90
        2
176
     1
 90
        2
176
     1
 90
        1
176
     1
 90
        1
176
     1
 40
0.5
176
     1
 40
30.0
176
     1
 62
     7
420
 16777215
176
     1
 90
        1
176
     1
 90
        0
176
     1
 62
     7
176
     1
 62
   257
176
     1
 90
        1
176
     1
 90
        1
176
     1
 40
1.0
176
     1
 90
        8
176
     1
 62
     7
176
     1
 40
1.0
176
     1
 90
        1
176
     1
 90
        6
176
     1
 90
        2
176
     1
 62
     7
176
     1
 90
        3
176
     1
 90
        0
176
     1
 90
        0
176
     1
290
     0
176
     1
 90
       13
176
     1
 40
0.0
176
     1
 90
        0
176
     1
290
     0
176
     1
290
     1
176
     1
290
     1
176
     1
290
     0
176
     1
290
     0
176
     1
290
     0
176
     1
290
     0
176
     1
290
     0
176
     1
290
     0
176
     1
 90
       50
176
     1
 40
0.0
176
     1
 40
1.0
176
     1
 90
        0
176
     1
 62
    18
420
        0
176
     1
 90
       50
176
     1
 90
        3
176
     1
 62
     5
420
      255
176
     1
290
     0
176
     1
 90
       50
176
     1
 90
       50
176
     1
 90
       50
176
     1
290
     0
176
     1
 90
       50
176
     1
 62
   256
176
     0
 40
1.0
176
     0
 90
        2
176
     1
  1
strokes_ogs.tif
176
     1
290
     0
176
     1
 40
1.0
176
     1
 40
1.0
176
     1
  0
DICTIONARYVAR
  5
425
102
{ACAD_REACTORS
330
424
102
}
330
424
100
DictionaryVariables
280
     0
  1
1:1
  0
DICTIONARYVAR
  5
42A
102
{ACAD_REACTORS
330
424
102
}
330
424
100
DictionaryVariables
280
     0
  1
Standard
  0
DICTIONARYVAR
  5
429
102
{ACAD_REACTORS
330
424
102
}
330
424
100
DictionaryVariables
280
     0
  1
Standard
  0
DICTIONARYVAR
  5
42B
102
{ACAD_REACTORS
330
424
102
}
330
424
100
DictionaryVariables
280
     0
  1
0
  0
DICTIONARY
  5
426
330
420
100
AcDbDictionary
280
     1
281
     1
  3
ACAD_ROUNDTRIP_2008_TABLESTYLE_CELLSTYLEMAP
360
427
  0
CELLSTYLEMAP
  5
427
102
{ACAD_REACTORS
330
426
102
}
330
426
100
AcDbCellStyleMap
 90
        3
300
CELLSTYLE
  1
TABLEFORMAT_BEGIN
 90
        5
170
     1
 91
        0
 92
    32768
 62
   257
 93
        1
300
CONTENTFORMAT
  1
CONTENTFORMAT_BEGIN
 90
        0
 91
        0
 92
        4
 93
        0
300

 40
0.0
140
1.0
 94
        5
 62
     0
340
11
144
6.0
309
CONTENTFORMAT_END
171
     1
301
MARGIN
  1
CELLMARGIN_BEGIN
 40
1.5
 40
1.5
 40
1.5
 40
1.5
 40
1.5
 40
1.5
309
CELLMARGIN_END
 94
        6
 95
        1
302
GRIDFORMAT
  1
GRIDFORMAT_BEGIN
 90
        0
 91
        1
 62
     0
 92
       -2
340
14
 93
        0
 40
0.045
309
GRIDFORMAT_END
 95
        2
302
GRIDFORMAT
  1
GRIDFORMAT_BEGIN
 90
        0
 91
        1
 62
     0
 92
       -2
340
14
 93
        0
 40
0.045
309
GRIDFORMAT_END
 95
        4
302
GRIDFORMAT
  1
GRIDFORMAT_BEGIN
 90
        0
 91
        1
 62
     0
 92
       -2
340
14
 93
        0
 40
0.045
309
GRIDFORMAT_END
 95
        8
302
GRIDFORMAT
  1
GRIDFORMAT_BEGIN
 90
        0
 91
        1
 62
     0
 92
       -2
340
14
 93
        0
 40
0.045
309
GRIDFORMAT_END
 95
       16
302
GRIDFORMAT
  1
GRIDFORMAT_BEGIN
 90
        0
 91
        1
 62
     0
 92
       -2
340
14
 93
        0
 40
0.045
309
GRIDFORMAT_END
 95
       32
302
GRIDFORMAT
  1
GRIDFORMAT_BEGIN
 90
        0
 91
        1
 62
     0
 92
       -2
340
14
 93
        0
 40
0.045
309
GRIDFORMAT_END
309
TABLEFORMAT_END
  1
CELLSTYLE_BEGIN
 90
        1
 91
        1
300
_TITLE
309
CELLSTYLE_END
300
CELLSTYLE
  1
TABLEFORMAT_BEGIN
 90
        5
170
     1
 91
        0
 92
        0
 62
   257
 93
        1
300
CONTENTFORMAT
  1
CONTENTFORMAT_BEGIN
 90
        0
 91
        0
 92
        4
 93
        0
300

 40
0.0
140
1.0
 94
        5
 62
     0
340
11
144
4.5
309
CONTENTFORMAT_END
171
     1
301
MARGIN
  1
CELLMARGIN_BEGIN
 40
1.5
 40
1.5
 40
1.5
 40
1.5
 40
1.5
 40
1.5
309
CELLMARGIN_END
 94
        6
 95
        1
302
GRIDFORMAT
  1
GRIDFORMAT_BEGIN
 90
        0
 91
        1
 62
     0
 92
       -2
340
14
 93
        0
 40
0.045
309
GRIDFORMAT_END
 95
        2
302
GRIDFORMAT
  1
GRIDFORMAT_BEGIN
 90
        0
 91
        1
 62
     0
 92
       -2
340
14
 93
        0
 40
0.045
309
GRIDFORMAT_END
 95
        4
302
GRIDFORMAT
  1
GRIDFORMAT_BEGIN
 90
        0
 91
        1
 62
     0
 92
       -2
340
14
 93
        0
 40
0.045
309
GRIDFORMAT_END
 95
        8
302
GRIDFORMAT
  1
GRIDFORMAT_BEGIN
 90
        0
 91
        1
 62
     0
 92
       -2
340
14
 93
        0
 40
0.045
309
GRIDFORMAT_END
 95
       16
302
GRIDFORMAT
  1
GRIDFORMAT_BEGIN
 90
        0
 91
        1
 62
     0
 92
       -2
340
14
 93
        0
 40
0.045
309
GRIDFORMAT_END
 95
       32
302
GRIDFORMAT
  1
GRIDFORMAT_BEGIN
 90
        0
 91
        1
 62
     0
 92
       -2
340
14
 93
        0
 40
0.045
309
GRIDFORMAT_END
309
TABLEFORMAT_END
  1
CELLSTYLE_BEGIN
 90
        2
 91
        1
300
_HEADER
309
CELLSTYLE_END
300
CELLSTYLE
  1
TABLEFORMAT_BEGIN
 90
        5
170
     1
 91
        0
 92
        0
 62
   257
 93
        1
300
CONTENTFORMAT
  1
CONTENTFORMAT_BEGIN
 90
        0
 91
        0
 92
        4
 93
        0
300

 40
0.0
140
1.0
 94
        2
 62
     0
340
11
144
4.5
309
CONTENTFORMAT_END
171
     1
301
MARGIN
  1
CELLMARGIN_BEGIN
 40
1.5
 40
1.5
 40
1.5
 40
1.5
 40
1.5
 40
1.5
309
CELLMARGIN_END
 94
        6
 95
        1
302
GRIDFORMAT
  1
GRIDFORMAT_BEGIN
 90
        0
 91
        1
 62
     0
 92
       -2
340
14
 93
        0
 40
0.045
309
GRIDFORMAT_END
 95
        2
302
GRIDFORMAT
  1
GRIDFORMAT_BEGIN
 90
        0
 91
        1
 62
     0
 92
       -2
340
14
 93
        0
 40
0.045
309
GRIDFORMAT_END
 95
        4
302
GRIDFORMAT
  1
GRIDFORMAT_BEGIN
 90
        0
 91
        1
 62
     0
 92
       -2
340
14
 93
        0
 40
0.045
309
GRIDFORMAT_END
 95
        8
302
GRIDFORMAT
  1
GRIDFORMAT_BEGIN
 90
        0
 91
        1
 62
     0
 92
       -2
340
14
 93
        0
 40
0.045
309
GRIDFORMAT_END
 95
       16
302
GRIDFORMAT
  1
GRIDFORMAT_BEGIN
 90
        0
 91
        1
 62
     0
 92
       -2
340
14
 93
        0
 40
0.045
309
GRIDFORMAT_END
 95
       32
302
GRIDFORMAT
  1
GRIDFORMAT_BEGIN
 90
        0
 91
        1
 62
     0
 92
       -2
340
14
 93
        0
 40
0.045
309
GRIDFORMAT_END
309
TABLEFORMAT_END
  1
CELLSTYLE_BEGIN
 90
        3
 91
        2
300
_DATA
309
CELLSTYLE_END
  0
ENDSEC
  0
EOF
