  0
SECTION
  2
HEADER
  9
$ACADVER
  1
AC1027
  9
$ACADMAINTVER
 70
   105
  9
$DWGCODEPAGE
  3
ANSI_1252
  9
$REQUIREDVERSIONS
160
                 0
  9
$LASTSAVEDBY
  1
andrea.zolin
  9
$INSBASE
 10
0.0
 20
0.0
 30
0.0
  9
$EXTMIN
 10
0.0
 20
0.0
 30
0.0
  9
$EXTMAX
 10
841.0
 20
594.0
 30
0.0
  9
$LIMMIN
 10
0.0
 20
0.0
  9
$LIMMAX
 10
841.0
 20
594.0
  9
$ORTHOMODE
 70
     0
  9
$REGENMODE
 70
     1
  9
$FILLMODE
 70
     1
  9
$QTEXTMODE
 70
     0
  9
$MIRRTEXT
 70
     1
  9
$LTSCALE
 40
46.255
  9
$ATTMODE
 70
     1
  9
$TEXTSIZE
 40
0.2
  9
$TRACEWID
 40
0.05
  9
$TEXTSTYLE
  7
STANDARD
  9
$CLAYER
  8
0
  9
$CELTYPE
  6
BYLAYER
  9
$CECOLOR
 62
   256
  9
$CELTSCALE
 40
1.0
  9
$DISPSILH
 70
     0
  9
$DIMSCALE
 40
1.0
  9
$DIMASZ
 40
2.5
  9
$DIMEXO
 40
0.75
  9
$DIMDLI
 40
31.958
  9
$DIMRND
 40
0.0
  9
$DIMDLE
 40
0.0
  9
$DIMEXE
 40
0.75
  9
$DIMTP
 40
0.01
  9
$DIMTM
 40
0.01
  9
$DIMTXT
 40
3.0
  9
$DIMCEN
 40
7.569
  9
$DIMTSZ
 40
0.0
  9
$DIMTOL
 70
     1
  9
$DIMLIM
 70
     0
  9
$DIMTIH
 70
     1
  9
$DIMTOH
 70
     1
  9
$DIMSE1
 70
     0
  9
$DIMSE2
 70
     0
  9
$DIMTAD
 70
     0
  9
$DIMZIN
 70
     0
  9
$DIMBLK
  1
CLOSED
  9
$DIMASO
 70
     1
  9
$DIMSHO
 70
     1
  9
$DIMPOST
  1

  9
$DIMAPOST
  1

  9
$DIMALT
 70
     0
  9
$DIMALTD
 70
     2
  9
$DIMALTF
 40
25.4
  9
$DIMLFAC
 40
1.0
  9
$DIMTOFL
 70
     0
  9
$DIMTVP
 40
0.0
  9
$DIMTIX
 70
     0
  9
$DIMSOXD
 70
     0
  9
$DIMSAH
 70
     0
  9
$DIMBLK1
  1

  9
$DIMBLK2
  1

  9
$DIMSTYLE
  2
STANDARD
  9
$DIMCLRD
 70
     0
  9
$DIMCLRE
 70
     0
  9
$DIMCLRT
 70
     0
  9
$DIMTFAC
 40
1.0
  9
$DIMGAP
 40
0.625
  9
$DIMJUST
 70
     0
  9
$DIMSD1
 70
     0
  9
$DIMSD2
 70
     0
  9
$DIMTOLJ
 70
     1
  9
$DIMTZIN
 70
     0
  9
$DIMALTZ
 70
     0
  9
$DIMALTTZ
 70
     0
  9
$DIMUPT
 70
     0
  9
$DIMDEC
 70
     4
  9
$DIMTDEC
 70
     4
  9
$DIMALTU
 70
     2
  9
$DIMALTTD
 70
     2
  9
$DIMTXSTY
  7
STANDARD
  9
$DIMAUNIT
 70
     0
  9
$DIMADEC
 70
     0
  9
$DIMALTRND
 40
0.0
  9
$DIMAZIN
 70
     0
  9
$DIMDSEP
 70
    46
  9
$DIMATFIT
 70
     3
  9
$DIMFRAC
 70
     0
  9
$DIMLDRBLK
  1

  9
$DIMLUNIT
 70
     2
  9
$DIMLWD
 70
    -2
  9
$DIMLWE
 70
    -2
  9
$DIMTMOVE
 70
     2
  9
$DIMFXL
 40
1.0
  9
$DIMFXLON
 70
     0
  9
$DIMJOGANG
 40
0.7853981633974483
  9
$DIMTFILL
 70
     0
  9
$DIMTFILLCLR
 70
     0
  9
$DIMARCSYM
 70
     0
  9
$DIMLTYPE
  6

  9
$DIMLTEX1
  6

  9
$DIMLTEX2
  6

  9
$DIMTXTDIRECTION
 70
     0
  9
$LUNITS
 70
     2
  9
$LUPREC
 70
     4
  9
$SKETCHINC
 40
0.1
  9
$FILLETRAD
 40
0.5
  9
$AUNITS
 70
     0
  9
$AUPREC
 70
     0
  9
$MENU
  1
.
  9
$ELEVATION
 40
0.0
  9
$PELEVATION
 40
0.0
  9
$THICKNESS
 40
0.0
  9
$LIMCHECK
 70
     0
  9
$CHAMFERA
 40
0.0
  9
$CHAMFERB
 40
0.0
  9
$CHAMFERC
 40
0.0
  9
$CHAMFERD
 40
0.0
  9
$SKPOLY
 70
     0
  9
$TDCREATE
 40
2447893.041666667
  9
$TDUCREATE
 40
0.0
  9
$TDUPDATE
 40
2458474.411627106
  9
$TDUUPDATE
 40
2458474.36996044
  9
$TDINDWG
 40
0.0004082523
  9
$TDUSRTIMER
 40
0.0004082523
  9
$USRTIMER
 70
     1
  9
$ANGBASE
 50
0.0
  9
$ANGDIR
 70
     0
  9
$PDMODE
 70
     3
  9
$PDSIZE
 40
0.3125
  9
$PLINEWID
 40
0.0
  9
$SPLFRAME
 70
     0
  9
$SPLINETYPE
 70
     6
  9
$SPLINESEGS
 70
     8
  9
$HANDSEED
  5
4BA
  9
$SURFTAB1
 70
     6
  9
$SURFTAB2
 70
     6
  9
$SURFTYPE
 70
     6
  9
$SURFU
 70
     6
  9
$SURFV
 70
     6
  9
$UCSBASE
  2

  9
$UCSNAME
  2

  9
$UCSORG
 10
0.0
 20
0.0
 30
0.0
  9
$UCSXDIR
 10
1.0
 20
0.0
 30
0.0
  9
$UCSYDIR
 10
0.0
 20
1.0
 30
0.0
  9
$UCSORTHOREF
  2

  9
$UCSORTHOVIEW
 70
     0
  9
$UCSORGTOP
 10
0.0
 20
0.0
 30
0.0
  9
$UCSORGBOTTOM
 10
0.0
 20
0.0
 30
0.0
  9
$UCSORGLEFT
 10
0.0
 20
0.0
 30
0.0
  9
$UCSORGRIGHT
 10
0.0
 20
0.0
 30
0.0
  9
$UCSORGFRONT
 10
0.0
 20
0.0
 30
0.0
  9
$UCSORGBACK
 10
0.0
 20
0.0
 30
0.0
  9
$PUCSBASE
  2

  9
$PUCSNAME
  2

  9
$PUCSORG
 10
0.0
 20
0.0
 30
0.0
  9
$PUCSXDIR
 10
1.0
 20
0.0
 30
0.0
  9
$PUCSYDIR
 10
0.0
 20
1.0
 30
0.0
  9
$PUCSORTHOREF
  2

  9
$PUCSORTHOVIEW
 70
     0
  9
$PUCSORGTOP
 10
0.0
 20
0.0
 30
0.0
  9
$PUCSORGBOTTOM
 10
0.0
 20
0.0
 30
0.0
  9
$PUCSORGLEFT
 10
0.0
 20
0.0
 30
0.0
  9
$PUCSORGRIGHT
 10
0.0
 20
0.0
 30
0.0
  9
$PUCSORGFRONT
 10
0.0
 20
0.0
 30
0.0
  9
$PUCSORGBACK
 10
0.0
 20
0.0
 30
0.0
  9
$USERI1
 70
     0
  9
$USERI2
 70
     0
  9
$USERI3
 70
     0
  9
$USERI4
 70
     0
  9
$USERI5
 70
     0
  9
$USERR1
 40
0.0
  9
$USERR2
 40
0.0
  9
$USERR3
 40
0.0
  9
$USERR4
 40
0.0
  9
$USERR5
 40
0.0
  9
$WORLDVIEW
 70
     1
  9
$SHADEDGE
 70
     3
  9
$SHADEDIF
 70
    70
  9
$TILEMODE
 70
     0
  9
$MAXACTVP
 70
    64
  9
$PINSBASE
 10
0.0
 20
0.0
 30
0.0
  9
$PLIMCHECK
 70
     0
  9
$PEXTMIN
 10
0.0
 20
0.0
 30
0.0
  9
$PEXTMAX
 10
841.0
 20
594.0
 30
0.0
  9
$PLIMMIN
 10
-17.33463035019455
 20
-46.22568093385214
  9
$PLIMMAX
 10
953.4046692607004
 20
640.2256809338521
  9
$UNITMODE
 70
     0
  9
$VISRETAIN
 70
     1
  9
$PLINEGEN
 70
     0
  9
$PSLTSCALE
 70
     1
  9
$TREEDEPTH
 70
  3020
  9
$CMLSTYLE
  2
STANDARD
  9
$CMLJUST
 70
     0
  9
$CMLSCALE
 40
1.0
  9
$PROXYGRAPHICS
 70
     1
  9
$MEASUREMENT
 70
     1
  9
$CELWEIGHT
370
    -1
  9
$ENDCAPS
280
     0
  9
$JOINSTYLE
280
     0
  9
$LWDISPLAY
290
     0
  9
$INSUNITS
 70
     0
  9
$HYPERLINKBASE
  1

  9
$STYLESHEET
  1

  9
$XEDIT
290
     1
  9
$CEPSNTYPE
380
     0
  9
$PSTYLEMODE
290
     1
  9
$FINGERPRINTGUID
  2
{3BF5C0D9-2E68-47B5-B3B0-50CFFD250DB3}
  9
$VERSIONGUID
  2
{FAEB1C32-E019-11D5-929B-00C0DF256EC4}
  9
$EXTNAMES
290
     1
  9
$PSVPSCALE
 40
0.0
  9
$OLESTARTUP
290
     0
  9
$SORTENTS
280
   127
  9
$INDEXCTL
280
     0
  9
$HIDETEXT
280
     1
  9
$XCLIPFRAME
280
     2
  9
$HALOGAP
280
     0
  9
$OBSCOLOR
 70
   257
  9
$OBSLTYPE
280
     0
  9
$INTERSECTIONDISPLAY
280
     0
  9
$INTERSECTIONCOLOR
 70
   257
  9
$DIMASSOC
280
     2
  9
$PROJECTNAME
  1

  9
$CAMERADISPLAY
290
     0
  9
$LENSLENGTH
 40
50.0
  9
$CAMERAHEIGHT
 40
0.0
  9
$STEPSPERSEC
 40
2.0
  9
$STEPSIZE
 40
6.0
  9
$3DDWFPREC
 40
2.0
  9
$PSOLWIDTH
 40
0.25
  9
$PSOLHEIGHT
 40
4.0
  9
$LOFTANG1
 40
1.570796326794897
  9
$LOFTANG2
 40
1.570796326794897
  9
$LOFTMAG1
 40
0.0
  9
$LOFTMAG2
 40
0.0
  9
$LOFTPARAM
 70
     7
  9
$LOFTNORMALS
280
     1
  9
$LATITUDE
 40
37.795
  9
$LONGITUDE
 40
-122.394
  9
$NORTHDIRECTION
 40
0.0
  9
$TIMEZONE
 70
 -8000
  9
$LIGHTGLYPHDISPLAY
280
     1
  9
$TILEMODELIGHTSYNCH
280
     1
  9
$SOLIDHIST
280
     0
  9
$SHOWHIST
280
     1
  9
$DWFFRAME
280
     2
  9
$DGNFRAME
280
     2
  9
$REALWORLDSCALE
290
     1
  9
$INTERFERECOLOR
 62
   256
  9
$CSHADOW
280
     0
  9
$SHADOWPLANELOCATION
 40
0.0
  0
ENDSEC
  0
SECTION
  2
CLASSES
  0
CLASS
  1
ACDBDICTIONARYWDFLT
  2
AcDbDictionaryWithDefault
  3
ObjectDBX Classes
 90
        0
 91
        4
280
     0
281
     0
  0
CLASS
  1
SCALE
  2
AcDbScale
  3
ObjectDBX Classes
 90
     1153
 91
        4
280
     0
281
     0
  0
CLASS
  1
VISUALSTYLE
  2
AcDbVisualStyle
  3
ObjectDBX Classes
 90
     4095
 91
        4
280
     0
281
     0
  0
CLASS
  1
MATERIAL
  2
AcDbMaterial
  3
ObjectDBX Classes
 90
     1153
 91
        4
280
     0
281
     0
  0
CLASS
  1
TABLESTYLE
  2
AcDbTableStyle
  3
ObjectDBX Classes
 90
     4095
 91
        4
280
     0
281
     0
  0
CLASS
  1
MLEADERSTYLE
  2
AcDbMLeaderStyle
  3
ACDB_MLEADERSTYLE_CLASS
 90
     4095
 91
        4
280
     0
281
     0
  0
CLASS
  1
DICTIONARYVAR
  2
AcDbDictionaryVar
  3
ObjectDBX Classes
 90
        0
 91
        4
280
     0
281
     0
  0
CLASS
  1
CELLSTYLEMAP
  2
AcDbCellStyleMap
  3
ObjectDBX Classes
 90
     1152
 91
        4
280
     0
281
     0
  0
ENDSEC
  0
SECTION
  2
TABLES
  0
TABLE
  2
VPORT
  5
8
330
0
100
AcDbSymbolTable
 70
     1
  0
VPORT
  5
1F4
330
8
100
AcDbSymbolTableRecord
100
AcDbViewportTableRecord
  2
*ACTIVE
 70
     0
 10
0.0
 20
0.0
 11
1.0
 21
1.0
 12
420.5
 22
297.0
 13
0.0
 23
0.0
 14
1.0
 24
1.0
 15
0.0
 25
0.0
 16
0.0
 26
0.0
 36
1.0
 17
0.0
 27
0.0
 37
0.0
 40
594.0
 41
1.4158249158
 42
50.0
 43
0.0
 44
0.0
 50
0.0
 51
0.0
 71
     0
 72
   100
 73
     1
 74
     1
 75
     0
 76
     0
 77
     0
 78
     0
281
     0
 65
     1
110
0.0
120
0.0
130
0.0
111
1.0
121
0.0
131
0.0
112
0.0
122
1.0
132
0.0
 79
     0
146
0.0
348
493
 60
     3
 61
     5
292
     1
282
     1
141
0.0
142
0.0
 63
   256
  0
ENDTAB
  0
TABLE
  2
LTYPE
  5
5
330
0
100
AcDbSymbolTable
 70
     6
  0
LTYPE
  5
14
330
5
100
AcDbSymbolTableRecord
100
AcDbLinetypeTableRecord
  2
BYBLOCK
 70
     0
  3

 72
    65
 73
     0
 40
0.0
  0
LTYPE
  5
15
330
5
100
AcDbSymbolTableRecord
100
AcDbLinetypeTableRecord
  2
BYLAYER
 70
     0
  3

 72
    65
 73
     0
 40
0.0
  0
LTYPE
  5
16
330
5
100
AcDbSymbolTableRecord
100
AcDbLinetypeTableRecord
  2
CONTINUOUS
 70
     0
  3
Solid line
 72
    65
 73
     0
 40
0.0
  0
LTYPE
  5
1F5
330
5
100
AcDbSymbolTableRecord
100
AcDbLinetypeTableRecord
  2
CENTER
 70
     0
  3
____ _ ____ _ ____ _ ____ _ ____ _ ____ _ ____
 72
    65
 73
     4
 40
0.6
 49
0.375
 74
     0
 49
-0.075
 74
     0
 49
0.075
 74
     0
 49
-0.075
 74
     0
  0
LTYPE
  5
1F6
330
5
100
AcDbSymbolTableRecord
100
AcDbLinetypeTableRecord
  2
HIDDEN
 70
     0
  3
- - - - - - - - - - - - - - - - - - - -
 72
    65
 73
     2
 40
0.2
 49
0.1
 74
     0
 49
-0.1
 74
     0
  0
LTYPE
  5
1F7
330
5
100
AcDbSymbolTableRecord
100
AcDbLinetypeTableRecord
  2
PHANTOM
 70
     0
  3
_____ _ _ _____ _ _ _____ _ _ _____
 72
    65
 73
     6
 40
0.8
 49
0.45
 74
     0
 49
-0.05
 74
     0
 49
0.1
 74
     0
 49
-0.05
 74
     0
 49
0.1
 74
     0
 49
-0.05
 74
     0
  0
LTYPE
  5
1F8
330
5
100
AcDbSymbolTableRecord
100
AcDbLinetypeTableRecord
  2
DOT
 70
     0
  3
. . . . . . . . . . . . . . . . . . . .
 72
    65
 73
     2
 40
0.2
 49
0.1
 74
     0
 49
-0.1
 74
     0
  0
LTYPE
  5
1F9
330
5
100
AcDbSymbolTableRecord
100
AcDbLinetypeTableRecord
  2
DASHED
 70
     0
  3
- - - - - - - - - - - - - - - - - - - -
 72
    65
 73
     2
 40
0.2
 49
0.1
 74
     0
 49
-0.1
 74
     0
  0
ENDTAB
  0
TABLE
  2
LAYER
  5
2
330
0
100
AcDbSymbolTable
 70
    38
  0
LAYER
  5
10
330
2
100
AcDbSymbolTableRecord
100
AcDbLayerTableRecord
  2
0
 70
     0
 62
     7
  6
CONTINUOUS
370
    -3
390
468
347
4AA
348
0
  0
LAYER
  5
1FA
330
2
100
AcDbSymbolTableRecord
100
AcDbLayerTableRecord
  2
DEFAULT_1
 70
     0
 62
     7
  6
CENTER
370
    -3
390
468
347
4AA
348
0
  0
LAYER
  5
1FB
330
2
100
AcDbSymbolTableRecord
100
AcDbLayerTableRecord
  2
DEFAULT_2
 70
     0
 62
     8
  6
HIDDEN
370
    -3
390
468
347
4AA
348
0
  0
LAYER
  5
1FC
330
2
100
AcDbSymbolTableRecord
100
AcDbLayerTableRecord
  2
DEFAULT_3
 70
     0
 62
     7
  6
PHANTOM
370
    -3
390
468
347
4AA
348
0
  0
LAYER
  5
1FD
330
2
100
AcDbSymbolTableRecord
100
AcDbLayerTableRecord
  2
01_ALL_DTM_PLN
 70
     0
 62
     7
  6
CONTINUOUS
370
    -3
390
468
347
4AA
348
0
  0
LAYER
  5
1FE
330
2
100
AcDbSymbolTableRecord
100
AcDbLayerTableRecord
  2
01__ASM_ALL_DTM_PLN
 70
     0
 62
     7
  6
CONTINUOUS
370
    -3
390
468
347
4AA
348
0
  0
LAYER
  5
1FF
330
2
100
AcDbSymbolTableRecord
100
AcDbLayerTableRecord
  2
01__ASM_DEF_DTM_PLN
 70
     0
 62
     7
  6
CONTINUOUS
370
    -3
390
468
347
4AA
348
0
  0
LAYER
  5
200
330
2
100
AcDbSymbolTableRecord
100
AcDbLayerTableRecord
  2
01___PRT_ALL_DTM_PLN
 70
     0
 62
     7
  6
CONTINUOUS
370
    -3
390
468
347
4AA
348
0
  0
LAYER
  5
201
330
2
100
AcDbSymbolTableRecord
100
AcDbLayerTableRecord
  2
01___PRT_DEF_DTM_PLN
 70
     0
 62
     7
  6
CONTINUOUS
370
    -3
390
468
347
4AA
348
0
  0
LAYER
  5
202
330
2
100
AcDbSymbolTableRecord
100
AcDbLayerTableRecord
  2
02_ALL_AXES
 70
     0
 62
     7
  6
CONTINUOUS
370
    -3
390
468
347
4AA
348
0
  0
LAYER
  5
203
330
2
100
AcDbSymbolTableRecord
100
AcDbLayerTableRecord
  2
02__ASM_ALL_AXES
 70
     0
 62
     7
  6
CONTINUOUS
370
    -3
390
468
347
4AA
348
0
  0
LAYER
  5
204
330
2
100
AcDbSymbolTableRecord
100
AcDbLayerTableRecord
  2
02___PRT_ALL_AXES
 70
     0
 62
     7
  6
CONTINUOUS
370
    -3
390
468
347
4AA
348
0
  0
LAYER
  5
205
330
2
100
AcDbSymbolTableRecord
100
AcDbLayerTableRecord
  2
03_ALL_CURVES
 70
     0
 62
     7
  6
CONTINUOUS
370
    -3
390
468
347
4AA
348
0
  0
LAYER
  5
206
330
2
100
AcDbSymbolTableRecord
100
AcDbLayerTableRecord
  2
03__ASM_ALL_CURVES
 70
     0
 62
     7
  6
CONTINUOUS
370
    -3
390
468
347
4AA
348
0
  0
LAYER
  5
207
330
2
100
AcDbSymbolTableRecord
100
AcDbLayerTableRecord
  2
03___PRT_ALL_CURVES
 70
     0
 62
     7
  6
CONTINUOUS
370
    -3
390
468
347
4AA
348
0
  0
LAYER
  5
208
330
2
100
AcDbSymbolTableRecord
100
AcDbLayerTableRecord
  2
04_ALL_DTM_PNT
 70
     0
 62
     7
  6
CONTINUOUS
370
    -3
390
468
347
4AA
348
0
  0
LAYER
  5
209
330
2
100
AcDbSymbolTableRecord
100
AcDbLayerTableRecord
  2
04__ASM_ALL_DTM_PNT
 70
     0
 62
     7
  6
CONTINUOUS
370
    -3
390
468
347
4AA
348
0
  0
LAYER
  5
20A
330
2
100
AcDbSymbolTableRecord
100
AcDbLayerTableRecord
  2
04___PRT_ALL_DTM_PNT
 70
     0
 62
     7
  6
CONTINUOUS
370
    -3
390
468
347
4AA
348
0
  0
LAYER
  5
20B
330
2
100
AcDbSymbolTableRecord
100
AcDbLayerTableRecord
  2
05_ALL_DTM_CSYS
 70
     0
 62
     7
  6
CONTINUOUS
370
    -3
390
468
347
4AA
348
0
  0
LAYER
  5
20C
330
2
100
AcDbSymbolTableRecord
100
AcDbLayerTableRecord
  2
05__ASM_ALL_DTM_CSYS
 70
     0
 62
     7
  6
CONTINUOUS
370
    -3
390
468
347
4AA
348
0
  0
LAYER
  5
20D
330
2
100
AcDbSymbolTableRecord
100
AcDbLayerTableRecord
  2
05__ASM_DEF_DTM_CSYS
 70
     0
 62
     7
  6
CONTINUOUS
370
    -3
390
468
347
4AA
348
0
  0
LAYER
  5
20E
330
2
100
AcDbSymbolTableRecord
100
AcDbLayerTableRecord
  2
05___PRT_ALL_DTM_CSYS
 70
     0
 62
     7
  6
CONTINUOUS
370
    -3
390
468
347
4AA
348
0
  0
LAYER
  5
20F
330
2
100
AcDbSymbolTableRecord
100
AcDbLayerTableRecord
  2
05___PRT_DEF_DTM_CSYS
 70
     0
 62
     7
  6
CONTINUOUS
370
    -3
390
468
347
4AA
348
0
  0
LAYER
  5
210
330
2
100
AcDbSymbolTableRecord
100
AcDbLayerTableRecord
  2
06_ALL_SURFS
 70
     0
 62
     7
  6
CONTINUOUS
370
    -3
390
468
347
4AA
348
0
  0
LAYER
  5
211
330
2
100
AcDbSymbolTableRecord
100
AcDbLayerTableRecord
  2
06__ASM_ALL_SURFS
 70
     0
 62
     7
  6
CONTINUOUS
370
    -3
390
468
347
4AA
348
0
  0
LAYER
  5
212
330
2
100
AcDbSymbolTableRecord
100
AcDbLayerTableRecord
  2
06___PRT_ALL_SURFS
 70
     0
 62
     7
  6
CONTINUOUS
370
    -3
390
468
347
4AA
348
0
  0
LAYER
  5
213
330
2
100
AcDbSymbolTableRecord
100
AcDbLayerTableRecord
  2
07__ASM_ALL_SKELETONS
 70
     0
 62
     7
  6
CONTINUOUS
370
    -3
390
468
347
4AA
348
0
  0
LAYER
  5
214
330
2
100
AcDbSymbolTableRecord
100
AcDbLayerTableRecord
  2
1_ALL_PLANES
 70
     0
 62
     7
  6
CONTINUOUS
370
    -3
390
468
347
4AA
348
0
  0
LAYER
  5
215
330
2
100
AcDbSymbolTableRecord
100
AcDbLayerTableRecord
  2
2_ALL_CSYS
 70
     0
 62
     7
  6
CONTINUOUS
370
    -3
390
468
347
4AA
348
0
  0
LAYER
  5
216
330
2
100
AcDbSymbolTableRecord
100
AcDbLayerTableRecord
  2
3_ALL_AXES
 70
     0
 62
     7
  6
CONTINUOUS
370
    -3
390
468
347
4AA
348
0
  0
LAYER
  5
217
330
2
100
AcDbSymbolTableRecord
100
AcDbLayerTableRecord
  2
4_ALL_POINTS
 70
     0
 62
     7
  6
CONTINUOUS
370
    -3
390
468
347
4AA
348
0
  0
LAYER
  5
218
330
2
100
AcDbSymbolTableRecord
100
AcDbLayerTableRecord
  2
5_ALL_CURVES
 70
     0
 62
     7
  6
CONTINUOUS
370
    -3
390
468
347
4AA
348
0
  0
LAYER
  5
219
330
2
100
AcDbSymbolTableRecord
100
AcDbLayerTableRecord
  2
5__COSTRUZIONE
 70
     0
 62
     7
  6
CONTINUOUS
370
    -3
390
468
347
4AA
348
0
  0
LAYER
  5
21A
330
2
100
AcDbSymbolTableRecord
100
AcDbLayerTableRecord
  2
6_ALL_SURFS
 70
     0
 62
     7
  6
CONTINUOUS
370
    -3
390
468
347
4AA
348
0
  0
LAYER
  5
21B
330
2
100
AcDbSymbolTableRecord
100
AcDbLayerTableRecord
  2
7_ALL_FEATURES
 70
     0
 62
     7
  6
CONTINUOUS
370
    -3
390
468
347
4AA
348
0
  0
LAYER
  5
21C
330
2
100
AcDbSymbolTableRecord
100
AcDbLayerTableRecord
  2
9_SOLID
 70
     0
 62
     7
  6
CONTINUOUS
370
    -3
390
468
347
4AA
348
0
  0
LAYER
  5
21D
330
2
100
AcDbSymbolTableRecord
100
AcDbLayerTableRecord
  2
XSEC_DATUMS
 70
     0
 62
     7
  6
CONTINUOUS
370
    -3
390
468
347
4AA
348
0
  0
LAYER
  5
21E
330
2
100
AcDbSymbolTableRecord
100
AcDbLayerTableRecord
  2
XXX_SOLIDO
 70
     0
 62
     7
  6
CONTINUOUS
370
    -3
390
468
347
4AA
348
0
  0
ENDTAB
  0
TABLE
  2
STYLE
  5
3
330
0
100
AcDbSymbolTable
 70
     6
  0
STYLE
  5
11
330
3
100
AcDbSymbolTableRecord
100
AcDbTextStyleTableRecord
  2
STANDARD
 70
     0
 40
0.0
 41
1.0
 50
0.0
 71
     0
 42
0.2
  3
arial.ttf
  4

  0
STYLE
  5
21F
330
3
100
AcDbSymbolTableRecord
100
AcDbTextStyleTableRecord
  2
TEXTSTYLE_1
 70
     0
 40
0.0
 41
0.8
 50
0.0
 71
     0
 42
0.2
  3
gdt
  4

  0
STYLE
  5
220
330
3
100
AcDbSymbolTableRecord
100
AcDbTextStyleTableRecord
  2
TEXTSTYLE_2
 70
     0
 40
0.0
 41
0.9
 50
0.0
 71
     0
 42
0.2
  3
txt
  4

  0
STYLE
  5
221
330
3
100
AcDbSymbolTableRecord
100
AcDbTextStyleTableRecord
  2
TEXTSTYLE_3
 70
     0
 40
0.0
 41
0.9
 50
0.0
 71
     0
 42
0.2
  3
txt
  4

  0
STYLE
  5
222
330
3
100
AcDbSymbolTableRecord
100
AcDbTextStyleTableRecord
  2
TEXTSTYLE_4
 70
     0
 40
0.0
 41
2.0
 50
0.0
 71
     0
 42
0.2
  3
txt
  4

  0
STYLE
  5
223
330
3
100
AcDbSymbolTableRecord
100
AcDbTextStyleTableRecord
  2
TEXTSTYLE_5
 70
     0
 40
0.0
 41
0.85
 50
0.0
 71
     0
 42
0.2
  3
txt
  4

  0
ENDTAB
  0
TABLE
  2
VIEW
  5
6
330
0
100
AcDbSymbolTable
 70
     0
  0
ENDTAB
  0
TABLE
  2
UCS
  5
7
330
0
100
AcDbSymbolTable
 70
     0
  0
ENDTAB
  0
TABLE
  2
APPID
  5
9
330
0
100
AcDbSymbolTable
 70
     1
  0
APPID
  5
224
330
9
100
AcDbSymbolTableRecord
100
AcDbRegAppTableRecord
  2
ACAD
 70
     0
  0
ENDTAB
  0
TABLE
  2
DIMSTYLE
  5
A
330
0
100
AcDbSymbolTable
 70
     3
100
AcDbDimStyleTable
  0
DIMSTYLE
105
22C
330
A
100
AcDbSymbolTableRecord
100
AcDbDimStyleTableRecord
  2
STANDARD
 70
     0
 41
2.5
 42
0.75
 44
0.75
 47
0.01
 48
0.01
 71
     1
 73
     0
 74
     0
 77
     1
 78
     8
 79
     2
140
3.0
147
0.625
171
     1
178
     0
179
     2
271
     2
272
     2
284
     8
340
11
341
225
342
225
343
225
344
225
  0
DIMSTYLE
105
22D
330
A
100
AcDbSymbolTableRecord
100
AcDbDimStyleTableRecord
  2
DIMSTYLE_1
 70
     0
 41
2.5
 42
0.75
 44
0.75
 47
0.5
 48
0.5
 73
     0
 74
     0
 77
     1
 78
     8
 79
     2
140
3.0
147
0.75
171
     1
178
     0
179
     2
271
     2
272
     2
284
     8
340
11
341
225
342
225
343
225
344
225
  0
DIMSTYLE
105
22E
330
A
100
AcDbSymbolTableRecord
100
AcDbDimStyleTableRecord
  2
DIMSTYLE_2
 70
     0
 41
2.5
 42
0.75
 44
0.75
 47
0.3
 48
0.3
 73
     0
 74
     0
 77
     1
 78
     8
 79
     2
140
3.0
147
0.75
171
     1
178
     0
179
     2
271
     2
272
     2
284
     8
340
11
341
225
342
225
343
225
344
225
  0
ENDTAB
  0
TABLE
  2
BLOCK_RECORD
  5
1
330
0
100
AcDbSymbolTable
 70
     7
  0
BLOCK_RECORD
  5
1F
330
1
100
AcDbSymbolTableRecord
100
AcDbBlockTableRecord
  2
*MODEL_SPACE
340
48C
 70
     0
280
     1
281
     0
  0
BLOCK_RECORD
  5
1B
330
1
100
AcDbSymbolTableRecord
100
AcDbBlockTableRecord
  2
*PAPER_SPACE
340
48D
 70
     0
280
     1
281
     0
  0
BLOCK_RECORD
  5
225
330
1
100
AcDbSymbolTableRecord
100
AcDbBlockTableRecord
  2
_CLOSED
340
0
102
{BLKREFS
331
281
331
282
331
28A
331
28B
331
293
331
294
331
29C
331
29D
102
}
 70
     0
280
     1
281
     0
  0
BLOCK_RECORD
  5
226
330
1
100
AcDbSymbolTableRecord
100
AcDbBlockTableRecord
  2
*D1
340
0
 70
     0
280
     1
281
     0
  0
BLOCK_RECORD
  5
227
330
1
100
AcDbSymbolTableRecord
100
AcDbBlockTableRecord
  2
*D2
340
0
 70
     0
280
     1
281
     0
  0
BLOCK_RECORD
  5
228
330
1
100
AcDbSymbolTableRecord
100
AcDbBlockTableRecord
  2
*D3
340
0
 70
     0
280
     1
281
     0
  0
BLOCK_RECORD
  5
229
330
1
100
AcDbSymbolTableRecord
100
AcDbBlockTableRecord
  2
*D4
340
0
 70
     0
280
     1
281
     0
  0
BLOCK_RECORD
  5
22A
330
1
100
AcDbSymbolTableRecord
100
AcDbBlockTableRecord
  2
LOGO2_BL1
340
0
102
{BLKREFS
331
450
102
}
 70
     0
280
     1
281
     0
  0
BLOCK_RECORD
  5
22B
330
1
100
AcDbSymbolTableRecord
100
AcDbBlockTableRecord
  2
PROIEZIONE_EU_BL0
340
0
102
{BLKREFS
331
44D
102
}
 70
     0
280
     1
281
     0
  0
ENDTAB
  0
ENDSEC
  0
SECTION
  2
BLOCKS
  0
BLOCK
  5
20
330
1F
100
AcDbEntity
  8
0
100
AcDbBlockBegin
  2
*MODEL_SPACE
 70
     0
 10
0.0
 20
0.0
 30
0.0
  3
*MODEL_SPACE
  1

  0
ENDBLK
  5
21
330
1F
100
AcDbEntity
  8
0
100
AcDbBlockEnd
  0
BLOCK
  5
1C
330
1B
100
AcDbEntity
 67
     1
  8
0
100
AcDbBlockBegin
  2
*PAPER_SPACE
 70
     0
 10
0.0
 20
0.0
 30
0.0
  3
*PAPER_SPACE
  1

  0
ENDBLK
  5
1D
330
1B
100
AcDbEntity
 67
     1
  8
0
100
AcDbBlockEnd
  0
BLOCK
  5
275
330
225
100
AcDbEntity
  8
0
100
AcDbBlockBegin
  2
_CLOSED
 70
     0
 10
0.0
 20
0.0
 30
0.0
  3
_CLOSED
  1

  0
LINE
  5
276
330
225
100
AcDbEntity
  8
0
  6
ByBlock
 62
     0
100
AcDbLine
 10
0.0
 20
0.0
 30
0.0
 11
-1.0
 21
0.2
 31
0.0
  0
LINE
  5
277
330
225
100
AcDbEntity
  8
0
  6
ByBlock
 62
     0
100
AcDbLine
 10
-1.0
 20
0.2
 30
0.0
 11
-1.0
 21
-0.2
 31
0.0
  0
LINE
  5
278
330
225
100
AcDbEntity
  8
0
  6
ByBlock
 62
     0
100
AcDbLine
 10
-1.0
 20
-0.2
 30
0.0
 11
0.0
 21
0.0
 31
0.0
  0
LINE
  5
279
330
225
100
AcDbEntity
  8
0
  6
ByBlock
 62
     0
100
AcDbLine
 10
-1.0
 20
0.0
 30
0.0
 11
0.0
 21
0.0
 31
0.0
  0
ENDBLK
  5
27A
330
225
100
AcDbEntity
  8
0
  6
ByBlock
 62
     0
100
AcDbBlockEnd
  0
BLOCK
  5
27B
330
226
100
AcDbEntity
  8
0
100
AcDbBlockBegin
  2
*D1
 70
     1
 10
0.0
 20
0.0
 30
0.0
  3
*D1
  1

  0
MTEXT
  5
27C
330
226
100
AcDbEntity
  8
0
  6
Continuous
 62
     2
100
AcDbMText
 10
227.3522712954
 20
514.7835038558
 30
0.0
 40
3.0
 41
10.4832713755
 46
0.0
 71
     2
 72
     1
  1
214,9
 73
     1
 44
1.0
  0
LINE
  5
27D
330
226
100
AcDbEntity
  8
0
  6
Continuous
 62
     2
100
AcDbLine
 10
119.9022712954
 20
433.4426820817
 30
0.0
 11
119.9022712954
 21
511.7835038558
 31
0.0
  0
LINE
  5
27E
330
226
100
AcDbEntity
  8
0
  6
Continuous
 62
     2
100
AcDbLine
 10
334.8022712954
 20
465.4426820817
 30
0.0
 11
334.8022712954
 21
511.7835038558
 31
0.0
  0
LINE
  5
27F
330
226
100
AcDbEntity
  8
0
  6
Continuous
 62
     2
100
AcDbLine
 10
119.9022712954
 20
511.0335038558
 30
0.0
 11
227.3522712954
 21
511.0335038558
 31
0.0
  0
LINE
  5
280
330
226
100
AcDbEntity
  8
0
  6
Continuous
 62
     2
100
AcDbLine
 10
334.8022712954
 20
511.0335038558
 30
0.0
 11
227.3522712954
 21
511.0335038558
 31
0.0
  0
INSERT
  5
281
330
226
100
AcDbEntity
  8
0
  6
Continuous
 62
     2
100
AcDbBlockReference
  2
_CLOSED
 10
119.9022712954
 20
511.0335038558
 30
0.0
 41
2.5
 42
2.5
 43
2.5
 50
180.0
  0
INSERT
  5
282
330
226
100
AcDbEntity
  8
0
  6
Continuous
 62
     2
100
AcDbBlockReference
  2
_CLOSED
 10
334.8022712954
 20
511.0335038558
 30
0.0
 41
2.5
 42
2.5
 43
2.5
  0
ENDBLK
  5
283
330
226
100
AcDbEntity
  8
0
  6
ByBlock
 62
     0
100
AcDbBlockEnd
  0
BLOCK
  5
284
330
227
100
AcDbEntity
  8
0
100
AcDbBlockBegin
  2
*D2
 70
     1
 10
0.0
 20
0.0
 30
0.0
  3
*D2
  1

  0
MTEXT
  5
285
330
227
100
AcDbEntity
  8
0
  6
Continuous
 62
     2
100
AcDbMText
 10
654.3307488911
 20
422.1926820817
 30
0.0
 40
3.0
 41
4.6617100372
 46
0.0
 71
     2
 72
     1
  1
85
 11
0.0
 21
1.0
 31
0.0
 73
     1
 44
1.0
  0
LINE
  5
286
330
227
100
AcDbEntity
  8
0
  6
Continuous
 62
     2
100
AcDbLine
 10
630.8650425756
 20
464.6926820817
 30
0.0
 11
658.8307488911
 21
464.6926820817
 31
0.0
  0
LINE
  5
287
330
227
100
AcDbEntity
  8
0
  6
Continuous
 62
     2
100
AcDbLine
 10
578.6205109627
 20
379.6926820817
 30
0.0
 11
658.8307488911
 21
379.6926820817
 31
0.0
  0
LINE
  5
288
330
227
100
AcDbEntity
  8
0
  6
Continuous
 62
     2
100
AcDbLine
 10
658.0807488911
 20
464.6926820817
 30
0.0
 11
658.0807488911
 21
422.1926820817
 31
0.0
  0
LINE
  5
289
330
227
100
AcDbEntity
  8
0
  6
Continuous
 62
     2
100
AcDbLine
 10
658.0807488911
 20
379.6926820817
 30
0.0
 11
658.0807488911
 21
422.1926820817
 31
0.0
  0
INSERT
  5
28A
330
227
100
AcDbEntity
  8
0
  6
Continuous
 62
     2
100
AcDbBlockReference
  2
_CLOSED
 10
658.0807488911
 20
464.6926820817
 30
0.0
 41
2.5
 42
2.5
 43
2.5
 50
90.0
  0
INSERT
  5
28B
330
227
100
AcDbEntity
  8
0
  6
Continuous
 62
     2
100
AcDbBlockReference
  2
_CLOSED
 10
658.0807488911
 20
379.6926820817
 30
0.0
 41
2.5
 42
2.5
 43
2.5
 50
270.0
  0
ENDBLK
  5
28C
330
227
100
AcDbEntity
  8
0
  6
ByBlock
 62
     0
100
AcDbBlockEnd
  0
BLOCK
  5
28D
330
228
100
AcDbEntity
  8
0
100
AcDbBlockBegin
  2
*D3
 70
     1
 10
0.0
 20
0.0
 30
0.0
  3
*D3
  1

  0
MTEXT
  5
28E
330
228
100
AcDbEntity
  8
0
  6
Continuous
 62
     2
100
AcDbMText
 10
380.8115629032
 20
197.1887128276
 30
0.0
 40
3.0
 41
10.4832713755
 46
0.0
 71
     2
 72
     1
  1
155,8
 11
0.0
 21
1.0
 31
0.0
 73
     1
 44
1.0
  0
LINE
  5
28F
330
228
100
AcDbEntity
  8
0
  6
Continuous
 62
     2
100
AcDbLine
 10
323.0522712954
 20
275.0887128276
 30
0.0
 11
385.3115629032
 21
275.0887128276
 31
0.0
  0
LINE
  5
290
330
228
100
AcDbEntity
  8
0
  6
Continuous
 62
     2
100
AcDbLine
 10
323.0522712954
 20
119.2887128276
 30
0.0
 11
385.3115629032
 21
119.2887128276
 31
0.0
  0
LINE
  5
291
330
228
100
AcDbEntity
  8
0
  6
Continuous
 62
     2
100
AcDbLine
 10
384.5615629032
 20
275.0887128276
 30
0.0
 11
384.5615629032
 21
197.1887128276
 31
0.0
  0
LINE
  5
292
330
228
100
AcDbEntity
  8
0
  6
Continuous
 62
     2
100
AcDbLine
 10
384.5615629032
 20
119.2887128276
 30
0.0
 11
384.5615629032
 21
197.1887128276
 31
0.0
  0
INSERT
  5
293
330
228
100
AcDbEntity
  8
0
  6
Continuous
 62
     2
100
AcDbBlockReference
  2
_CLOSED
 10
384.5615629032
 20
275.0887128276
 30
0.0
 41
2.5
 42
2.5
 43
2.5
 50
90.0
  0
INSERT
  5
294
330
228
100
AcDbEntity
  8
0
  6
Continuous
 62
     2
100
AcDbBlockReference
  2
_CLOSED
 10
384.5615629032
 20
119.2887128276
 30
0.0
 41
2.5
 42
2.5
 43
2.5
 50
270.0
  0
ENDBLK
  5
295
330
228
100
AcDbEntity
  8
0
  6
ByBlock
 62
     0
100
AcDbBlockEnd
  0
BLOCK
  5
296
330
229
100
AcDbEntity
  8
0
100
AcDbBlockBegin
  2
*D4
 70
     1
 10
0.0
 20
0.0
 30
0.0
  3
*D4
  1

  0
MTEXT
  5
297
330
229
100
AcDbEntity
  8
0
  6
Continuous
 62
     2
100
AcDbMText
 10
552.8705109627
 20
345.692298397
 30
0.0
 40
3.0
 41
6.0446096654
 46
0.0
 71
     2
 72
     1
  1
80\P= =
 73
     1
 44
1.0
  0
LINE
  5
298
330
229
100
AcDbEntity
  8
0
  6
Continuous
 62
     2
100
AcDbLine
 10
512.8705109627
 20
393.9426820817
 30
0.0
 11
512.8705109627
 21
341.192298397
 31
0.0
  0
LINE
  5
299
330
229
100
AcDbEntity
  8
0
  6
Continuous
 62
     2
100
AcDbLine
 10
592.8705109627
 20
393.9426820817
 30
0.0
 11
592.8705109627
 21
341.192298397
 31
0.0
  0
LINE
  5
29A
330
229
100
AcDbEntity
  8
0
  6
Continuous
 62
     2
100
AcDbLine
 10
512.8705109627
 20
341.942298397
 30
0.0
 11
552.8705109627
 21
341.942298397
 31
0.0
  0
LINE
  5
29B
330
229
100
AcDbEntity
  8
0
  6
Continuous
 62
     2
100
AcDbLine
 10
592.8705109627
 20
341.942298397
 30
0.0
 11
552.8705109627
 21
341.942298397
 31
0.0
  0
INSERT
  5
29C
330
229
100
AcDbEntity
  8
0
  6
Continuous
 62
     2
100
AcDbBlockReference
  2
_CLOSED
 10
512.8705109627
 20
341.942298397
 30
0.0
 41
2.5
 42
2.5
 43
2.5
 50
180.0
  0
INSERT
  5
29D
330
229
100
AcDbEntity
  8
0
  6
Continuous
 62
     2
100
AcDbBlockReference
  2
_CLOSED
 10
592.8705109627
 20
341.942298397
 30
0.0
 41
2.5
 42
2.5
 43
2.5
  0
ENDBLK
  5
29E
330
229
100
AcDbEntity
  8
0
  6
ByBlock
 62
     0
100
AcDbBlockEnd
  0
BLOCK
  5
22F
330
22A
100
AcDbEntity
  8
0
100
AcDbBlockBegin
  2
LOGO2_BL1
 70
     0
 10
714.8265193419
 20
42.0006472157
 30
0.0
  3
LOGO2_BL1
  1

  0
LINE
  5
230
330
22A
100
AcDbEntity
  8
0
  6
Continuous
 62
     7
100
AcDbLine
 10
706.5694445701
 20
45.1961385546
 30
0.0
 11
705.2651036408
 21
45.1961385546
 31
0.0
  0
LINE
  5
231
330
22A
100
AcDbEntity
  8
0
  6
Continuous
 62
     7
100
AcDbLine
 10
705.2651036408
 20
45.1961385546
 30
0.0
 11
705.2651036408
 21
34.7370724947
 31
0.0
  0
LINE
  5
232
330
22A
100
AcDbEntity
  8
0
  6
Continuous
 62
     7
100
AcDbLine
 10
705.2651036408
 20
34.7370724947
 30
0.0
 11
709.7461585291
 21
34.7370724947
 31
0.0
  0
LINE
  5
233
330
22A
100
AcDbEntity
  8
0
  6
Continuous
 62
     7
100
AcDbLine
 10
709.7461585291
 20
34.7370724947
 30
0.0
 11
709.7461585291
 21
35.9299268198
 31
0.0
  0
LINE
  5
234
330
22A
100
AcDbEntity
  8
0
  6
Continuous
 62
     7
100
AcDbLine
 10
709.7461585291
 20
35.9299268198
 30
0.0
 11
706.5694445701
 21
35.9299268198
 31
0.0
  0
LINE
  5
235
330
22A
100
AcDbEntity
  8
0
  6
Continuous
 62
     7
100
AcDbLine
 10
706.5694445701
 20
35.9299268198
 30
0.0
 11
706.5694445701
 21
45.1961385546
 31
0.0
  0
LINE
  5
236
330
22A
100
AcDbEntity
  8
0
  6
Continuous
 62
     7
100
AcDbLine
 10
721.5057707865
 20
45.1961385546
 30
0.0
 11
720.2019532684
 21
45.1961385546
 31
0.0
  0
LINE
  5
237
330
22A
100
AcDbEntity
  8
0
  6
Continuous
 62
     7
100
AcDbLine
 10
720.2019532684
 20
45.1961385546
 30
0.0
 11
720.2019532684
 21
34.7370724947
 31
0.0
  0
LINE
  5
238
330
22A
100
AcDbEntity
  8
0
  6
Continuous
 62
     7
100
AcDbLine
 10
720.2019532684
 20
34.7370724947
 30
0.0
 11
724.6831390095
 21
34.7370724947
 31
0.0
  0
LINE
  5
239
330
22A
100
AcDbEntity
  8
0
  6
Continuous
 62
     7
100
AcDbLine
 10
724.6831390095
 20
34.7370724947
 30
0.0
 11
724.6831390095
 21
35.9299268198
 31
0.0
  0
LINE
  5
23A
330
22A
100
AcDbEntity
  8
0
  6
Continuous
 62
     7
100
AcDbLine
 10
724.6831390095
 20
35.9299268198
 30
0.0
 11
721.5057707865
 21
35.9299268198
 31
0.0
  0
LINE
  5
23B
330
22A
100
AcDbEntity
  8
0
  6
Continuous
 62
     7
100
AcDbLine
 10
721.5057707865
 20
35.9299268198
 30
0.0
 11
721.5057707865
 21
45.1961385546
 31
0.0
  0
LWPOLYLINE
  5
23C
330
22A
100
AcDbEntity
  8
0
  6
Continuous
 62
     7
100
AcDbPolyline
 90
        2
 70
     0
 43
0.2
 10
703.6194985517
 20
31.3935211878
 10
703.6194985517
 20
29.5364579385
  0
LWPOLYLINE
  5
23D
330
22A
100
AcDbEntity
  8
0
  6
Continuous
 62
     7
100
AcDbPolyline
 90
        2
 70
     0
 43
0.2
 10
703.6194985517
 20
29.5364579385
 10
704.4152145621
 20
29.5364579385
  0
LWPOLYLINE
  5
23E
330
22A
100
AcDbEntity
  8
0
  6
Continuous
 62
     7
100
AcDbPolyline
 90
        2
 70
     0
 43
0.2
 10
704.4152145621
 20
29.5364579385
 10
704.4152145621
 20
29.7484395101
  0
LWPOLYLINE
  5
23F
330
22A
100
AcDbEntity
  8
0
  6
Continuous
 62
     7
100
AcDbPolyline
 90
        2
 70
     0
 43
0.2
 10
704.4152145621
 20
29.7484395101
 10
703.8511080466
 20
29.7484395101
  0
LWPOLYLINE
  5
240
330
22A
100
AcDbEntity
  8
0
  6
Continuous
 62
     7
100
AcDbPolyline
 90
        2
 70
     0
 43
0.2
 10
703.8511080466
 20
29.7484395101
 10
703.8511080466
 20
31.3935211878
  0
LWPOLYLINE
  5
241
330
22A
100
AcDbEntity
  8
0
  6
Continuous
 62
     7
100
AcDbPolyline
 90
        2
 70
     0
 43
0.2
 10
703.8511080466
 20
31.3935211878
 10
703.6194985517
 20
31.3935211878
  0
SPLINE
  5
242
330
22A
100
AcDbEntity
  8
0
  6
Continuous
 62
     7
100
AcDbSpline
 70
     3
 71
     3
 72
    35
 73
    31
 74
     0
 42
0.000000001
 43
0.0000001
 40
0.0
 40
0.0
 40
0.0
 40
0.0
 40
1.0
 40
1.0
 40
1.0
 40
2.0
 40
2.0
 40
2.0
 40
3.0
 40
3.0
 40
3.0
 40
4.0
 40
4.0
 40
4.0
 40
5.0
 40
5.0
 40
5.0
 40
6.0
 40
6.0
 40
6.0
 40
7.0
 40
7.0
 40
7.0
 40
8.0
 40
8.0
 40
8.0
 40
9.0
 40
9.0
 40
9.0
 40
10.0
 40
10.0
 40
10.0
 40
10.0
 10
705.8135078176
 20
30.6890095944
 30
0.0
 10
705.8135078176
 20
30.6890095944
 30
0.0
 10
705.8135078176
 20
30.0268943152
 30
0.0
 10
705.8135078176
 20
30.0268943152
 30
0.0
 10
705.8135078176
 20
29.7118007199
 30
0.0
 10
705.9613715065
 20
29.4972020919
 30
0.0
 10
706.3014579908
 20
29.4972020919
 30
0.0
 10
706.6410210638
 20
29.4972020919
 30
0.0
 10
706.7891464582
 20
29.7118007199
 30
0.0
 10
706.7891464582
 20
30.0268943152
 30
0.0
 10
706.7891464582
 20
30.0268943152
 30
0.0
 10
706.7891464582
 20
30.6890095944
 30
0.0
 10
706.7891464582
 20
30.6890095944
 30
0.0
 10
706.7891464582
 20
30.6890095944
 30
0.0
 10
706.5670892194
 20
30.6890095944
 30
0.0
 10
706.5670892194
 20
30.6890095944
 30
0.0
 10
706.5670892194
 20
30.6890095944
 30
0.0
 10
706.5670892194
 20
30.052018057
 30
0.0
 10
706.5670892194
 20
30.052018057
 30
0.0
 10
706.5670892194
 20
29.8662070498
 30
0.0
 10
706.5203747619
 20
29.7034261393
 30
0.0
 10
706.3014579908
 20
29.7034261393
 30
0.0
 10
706.0820178083
 20
29.7034261393
 30
0.0
 10
706.0353033509
 20
29.8662070498
 30
0.0
 10
706.0353033509
 20
30.052018057
 30
0.0
 10
706.0353033509
 20
30.052018057
 30
0.0
 10
706.0353033509
 20
30.6890095944
 30
0.0
 10
706.0353033509
 20
30.6890095944
 30
0.0
 10
706.0353033509
 20
30.6890095944
 30
0.0
 10
705.8135078176
 20
30.6890095944
 30
0.0
 10
705.8135078176
 20
30.6890095944
 30
0.0
  0
SPLINE
  5
243
330
22A
100
AcDbEntity
  8
0
  6
Continuous
 62
     7
100
AcDbSpline
 70
     3
 71
     3
 72
    35
 73
    31
 74
     0
 42
0.000000001
 43
0.0000001
 40
0.0
 40
0.0
 40
0.0
 40
0.0
 40
1.0
 40
1.0
 40
1.0
 40
2.0
 40
2.0
 40
2.0
 40
3.0
 40
3.0
 40
3.0
 40
4.0
 40
4.0
 40
4.0
 40
5.0
 40
5.0
 40
5.0
 40
6.0
 40
6.0
 40
6.0
 40
7.0
 40
7.0
 40
7.0
 40
8.0
 40
8.0
 40
8.0
 40
9.0
 40
9.0
 40
9.0
 40
10.0
 40
10.0
 40
10.0
 40
10.0
 10
709.2122790154
 20
30.6476601026
 30
0.0
 10
709.1238225078
 20
30.6989544088
 30
0.0
 10
709.0103731111
 20
30.7240781506
 30
0.0
 10
708.9067376761
 20
30.7240781506
 30
0.0
 10
708.551864823
 20
30.7240781506
 30
0.0
 10
708.2764196327
 20
30.4602788616
 30
0.0
 10
708.2764196327
 20
30.1027889519
 30
0.0
 10
708.2764196327
 20
29.7578609132
 30
0.0
 10
708.5548744379
 20
29.4977255032
 30
0.0
 10
708.8944375109
 20
29.4977255032
 30
0.0
 10
709.0103731111
 20
29.4977255032
 30
0.0
 10
709.111129784
 20
29.5197087773
 30
0.0
 10
709.2122790154
 20
29.5736201399
 30
0.0
 10
709.2122790154
 20
29.5736201399
 30
0.0
 10
709.2122790154
 20
29.8562622354
 30
0.0
 10
709.2122790154
 20
29.8562622354
 30
0.0
 10
709.1284023565
 20
29.7630950261
 30
0.0
 10
709.0248977744
 20
29.7039495506
 30
0.0
 10
708.8967928617
 20
29.7039495506
 30
0.0
 10
708.6630897216
 20
29.7039495506
 30
0.0
 10
708.4978226075
 20
29.8761518643
 30
0.0
 10
708.4978226075
 20
30.1127337664
 30
0.0
 10
708.4978226075
 20
30.324715338
 30
0.0
 10
708.6655759252
 20
30.5168072806
 30
0.0
 10
708.8823990512
 20
30.5168072806
 30
0.0
 10
709.0152146655
 20
30.5168072806
 30
0.0
 10
709.1238225078
 20
30.462895918
 30
0.0
 10
709.2122790154
 20
30.3618775394
 30
0.0
 10
709.2122790154
 20
30.3618775394
 30
0.0
 10
709.2122790154
 20
30.6476601026
 30
0.0
 10
709.2122790154
 20
30.6476601026
 30
0.0
  0
SPLINE
  5
244
330
22A
100
AcDbEntity
  8
0
  6
Continuous
 62
     7
100
AcDbSpline
 70
     3
 71
     3
 72
    32
 73
    28
 74
     0
 42
0.000000001
 43
0.0000001
 40
0.0
 40
0.0
 40
0.0
 40
0.0
 40
1.0
 40
1.0
 40
1.0
 40
2.0
 40
2.0
 40
2.0
 40
3.0
 40
3.0
 40
3.0
 40
4.0
 40
4.0
 40
4.0
 40
5.0
 40
5.0
 40
5.0
 40
6.0
 40
6.0
 40
6.0
 40
7.0
 40
7.0
 40
7.0
 40
8.0
 40
8.0
 40
8.0
 40
9.0
 40
9.0
 40
9.0
 40
9.0
 10
711.7441502677
 20
30.0760949763
 30
0.0
 10
711.7441502677
 20
30.0760949763
 30
0.0
 10
711.7441502677
 20
30.11011671
 30
0.0
 10
711.7441502677
 20
30.11011671
 30
0.0
 10
711.7441502677
 20
30.4524276922
 30
0.0
 10
711.5712936899
 20
30.7240781506
 30
0.0
 10
711.2046440827
 20
30.7240781506
 30
0.0
 10
710.8330220683
 20
30.7240781506
 30
0.0
 10
710.6432854765
 20
30.4576618051
 30
0.0
 10
710.6432854765
 20
30.1027889519
 30
0.0
 10
710.6432854765
 20
29.7630950261
 30
0.0
 10
710.8573606932
 20
29.4972020919
 30
0.0
 10
711.2094856371
 20
29.4972020919
 30
0.0
 10
711.4335056683
 20
29.4972020919
 30
0.0
 10
711.6356732783
 20
29.6128759865
 30
0.0
 10
711.7441502677
 20
29.8122956872
 30
0.0
 10
711.7441502677
 20
29.8122956872
 30
0.0
 10
711.556507321
 20
29.9190715899
 30
0.0
 10
711.556507321
 20
29.9190715899
 30
0.0
 10
711.4730232206
 20
29.7803675986
 30
0.0
 10
711.3818188036
 20
29.6945281474
 30
0.0
 10
711.2122335464
 20
29.6945281474
 30
0.0
 10
711.0002519748
 20
29.6945281474
 30
0.0
 10
710.8673055077
 20
29.879292332
 30
0.0
 10
710.8649501569
 20
30.0760949763
 30
0.0
 10
710.8649501569
 20
30.0760949763
 30
0.0
 10
711.7441502677
 20
30.0760949763
 30
0.0
 10
711.7441502677
 20
30.0760949763
 30
0.0
  0
SPLINE
  5
245
330
22A
100
AcDbEntity
  8
0
  6
Continuous
 62
     7
100
AcDbSpline
 70
     3
 71
     3
 72
    14
 73
    10
 74
     0
 42
0.000000001
 43
0.0000001
 40
0.0
 40
0.0
 40
0.0
 40
0.0
 40
1.0
 40
1.0
 40
1.0
 40
2.0
 40
2.0
 40
2.0
 40
3.0
 40
3.0
 40
3.0
 40
3.0
 10
710.8769886165
 20
30.2435865884
 30
0.0
 10
710.9045985619
 20
30.4084611441
 30
0.0
 10
711.032441769
 20
30.5314627967
 30
0.0
 10
711.2046440827
 20
30.5314627967
 30
0.0
 10
711.3818188036
 20
30.5314627967
 30
0.0
 10
711.4952682003
 20
30.4157889021
 30
0.0
 10
711.5224855873
 20
30.2435865884
 30
0.0
 10
711.5224855873
 20
30.2435865884
 30
0.0
 10
710.8769886165
 20
30.2435865884
 30
0.0
 10
710.8769886165
 20
30.2435865884
 30
0.0
  0
SPLINE
  5
246
330
22A
100
AcDbEntity
  8
0
  6
Continuous
 62
     7
100
AcDbSpline
 70
     3
 71
     3
 72
    20
 73
    16
 74
     0
 42
0.000000001
 43
0.0000001
 40
0.0
 40
0.0
 40
0.0
 40
0.0
 40
1.0
 40
1.0
 40
1.0
 40
2.0
 40
2.0
 40
2.0
 40
3.0
 40
3.0
 40
3.0
 40
4.0
 40
4.0
 40
4.0
 40
5.0
 40
5.0
 40
5.0
 40
5.0
 10
713.7681817179
 20
30.4529511035
 30
0.0
 10
713.7681817179
 20
30.4529511035
 30
0.0
 10
714.1793212845
 20
29.9504762672
 30
0.0
 10
714.1793212845
 20
29.9504762672
 30
0.0
 10
714.0632548314
 20
29.8348023726
 30
0.0
 10
713.9254668099
 20
29.7044729619
 30
0.0
 10
713.7535262018
 20
29.7044729619
 30
0.0
 10
713.5760897752
 20
29.7044729619
 30
0.0
 10
713.4085981631
 20
29.8688241063
 30
0.0
 10
713.4085981631
 20
30.0457371216
 30
0.0
 10
713.4085981631
 20
30.2236969594
 30
0.0
 10
713.6183552367
 20
30.3498390798
 30
0.0
 10
713.7459367381
 20
30.4377721762
 30
0.0
 10
713.7459367381
 20
30.4377721762
 30
0.0
 10
713.7681817179
 20
30.4529511035
 30
0.0
 10
713.7681817179
 20
30.4529511035
 30
0.0
  0
SPLINE
  5
247
330
22A
100
AcDbEntity
  8
0
  6
Continuous
 62
     7
100
AcDbSpline
 70
     3
 71
     3
 72
    23
 73
    19
 74
     0
 42
0.000000001
 43
0.0000001
 40
0.0
 40
0.0
 40
0.0
 40
0.0
 40
1.0
 40
1.0
 40
1.0
 40
2.0
 40
2.0
 40
2.0
 40
3.0
 40
3.0
 40
3.0
 40
4.0
 40
4.0
 40
4.0
 40
5.0
 40
5.0
 40
5.0
 40
6.0
 40
6.0
 40
6.0
 40
6.0
 10
713.8175132318
 20
30.7439677796
 30
0.0
 10
713.8175132318
 20
30.7439677796
 30
0.0
 10
713.7558815526
 20
30.8224794728
 30
0.0
 10
713.7558815526
 20
30.8224794728
 30
0.0
 10
713.70197019
 20
30.8910463515
 30
0.0
 10
713.6451800652
 20
30.9601366415
 30
0.0
 10
713.6451800652
 20
31.053827262
 30
0.0
 10
713.6451800652
 20
31.1726416243
 30
0.0
 10
713.7410951837
 20
31.250106495
 30
0.0
 10
713.8520583767
 20
31.250106495
 30
0.0
 10
713.975321735
 20
31.250106495
 30
0.0
 10
714.0686197971
 20
31.1789225598
 30
0.0
 10
714.0686197971
 20
31.0485931491
 30
0.0
 10
714.0686197971
 20
30.9135530369
 30
0.0
 10
713.9405148844
 20
30.8371349888
 30
0.0
 10
713.8469551167
 20
30.7633339972
 30
0.0
 10
713.8469551167
 20
30.7633339972
 30
0.0
 10
713.8175132318
 20
30.7439677796
 30
0.0
 10
713.8175132318
 20
30.7439677796
 30
0.0
  0
SPLINE
  5
248
330
22A
100
AcDbEntity
  8
0
  6
Continuous
 62
     7
100
AcDbSpline
 70
     3
 71
     3
 72
    50
 73
    46
 74
     0
 42
0.000000001
 43
0.0000001
 40
0.0
 40
0.0
 40
0.0
 40
0.0
 40
1.0
 40
1.0
 40
1.0
 40
2.0
 40
2.0
 40
2.0
 40
3.0
 40
3.0
 40
3.0
 40
4.0
 40
4.0
 40
4.0
 40
5.0
 40
5.0
 40
5.0
 40
6.0
 40
6.0
 40
6.0
 40
7.0
 40
7.0
 40
7.0
 40
8.0
 40
8.0
 40
8.0
 40
9.0
 40
9.0
 40
9.0
 40
10.0
 40
10.0
 40
10.0
 40
11.0
 40
11.0
 40
11.0
 40
12.0
 40
12.0
 40
12.0
 40
13.0
 40
13.0
 40
13.0
 40
14.0
 40
14.0
 40
14.0
 40
15.0
 40
15.0
 40
15.0
 40
15.0
 10
714.5196694744
 20
29.5369813498
 30
0.0
 10
714.5196694744
 20
29.5369813498
 30
0.0
 10
714.8050594791
 20
29.5369813498
 30
0.0
 10
714.8050594791
 20
29.5369813498
 30
0.0
 10
714.8050594791
 20
29.5369813498
 30
0.0
 10
714.4726933113
 20
29.9478592107
 30
0.0
 10
714.4726933113
 20
29.9478592107
 30
0.0
 10
714.4726933113
 20
29.9478592107
 30
0.0
 10
714.6991995462
 20
30.213752145
 30
0.0
 10
714.6991995462
 20
30.213752145
 30
0.0
 10
714.6991995462
 20
30.213752145
 30
0.0
 10
714.5509432989
 20
30.366588241
 30
0.0
 10
714.5509432989
 20
30.366588241
 30
0.0
 10
714.5509432989
 20
30.366588241
 30
0.0
 10
714.3350361426
 20
30.1153508228
 30
0.0
 10
714.3350361426
 20
30.1153508228
 30
0.0
 10
714.3350361426
 20
30.1153508228
 30
0.0
 10
713.9479734953
 20
30.5832805142
 30
0.0
 10
713.9479734953
 20
30.5832805142
 30
0.0
 10
714.1034266477
 20
30.697384175
 30
0.0
 10
714.2857046287
 20
30.8371349888
 30
0.0
 10
714.2857046287
 20
31.046499504
 30
0.0
 10
714.2857046287
 20
31.2904091641
 30
0.0
 10
714.0836678716
 20
31.433823857
 30
0.0
 10
713.8571616368
 20
31.433823857
 30
0.0
 10
713.612990271
 20
31.433823857
 30
0.0
 10
713.4286186449
 20
31.2830814061
 30
0.0
 10
713.4286186449
 20
31.026609875
 30
0.0
 10
713.4286186449
 20
30.8690630774
 30
0.0
 10
713.5272816726
 20
30.7314059087
 30
0.0
 10
713.6326181943
 20
30.6204427156
 30
0.0
 10
713.6326181943
 20
30.6204427156
 30
0.0
 10
713.5170751525
 20
30.5366969096
 30
0.0
 10
713.5170751525
 20
30.5366969096
 30
0.0
 10
713.3393770203
 20
30.4084611441
 30
0.0
 10
713.1920367427
 20
30.2807487898
 30
0.0
 10
713.1920367427
 20
30.0436434764
 30
0.0
 10
713.1920367427
 20
29.7233157682
 30
0.0
 10
713.450601919
 20
29.4972020919
 30
0.0
 10
713.7609848127
 20
29.4972020919
 30
0.0
 10
713.9799015838
 20
29.4972020919
 30
0.0
 10
714.1770967865
 20
29.6222973897
 30
0.0
 10
714.3173710117
 20
29.7882187679
 30
0.0
 10
714.3173710117
 20
29.7882187679
 30
0.0
 10
714.5196694744
 20
29.5369813498
 30
0.0
 10
714.5196694744
 20
29.5369813498
 30
0.0
  0
LWPOLYLINE
  5
249
330
22A
100
AcDbEntity
  8
0
  6
Continuous
 62
     7
100
AcDbPolyline
 90
        2
 70
     0
 43
0.2
 10
716.4551135641
 20
31.3935211878
 10
716.2237657749
 20
31.3935211878
  0
LWPOLYLINE
  5
24A
330
22A
100
AcDbEntity
  8
0
  6
Continuous
 62
     7
100
AcDbPolyline
 90
        2
 70
     0
 43
0.2
 10
716.2237657749
 20
31.3935211878
 10
716.2237657749
 20
29.5364579385
  0
LWPOLYLINE
  5
24B
330
22A
100
AcDbEntity
  8
0
  6
Continuous
 62
     7
100
AcDbPolyline
 90
        2
 70
     0
 43
0.2
 10
716.2237657749
 20
29.5364579385
 10
717.0190892268
 20
29.5364579385
  0
LWPOLYLINE
  5
24C
330
22A
100
AcDbEntity
  8
0
  6
Continuous
 62
     7
100
AcDbPolyline
 90
        2
 70
     0
 43
0.2
 10
717.0190892268
 20
29.5364579385
 10
717.0190892268
 20
29.7484395101
  0
LWPOLYLINE
  5
24D
330
22A
100
AcDbEntity
  8
0
  6
Continuous
 62
     7
100
AcDbPolyline
 90
        2
 70
     0
 43
0.2
 10
717.0190892268
 20
29.7484395101
 10
716.4551135641
 20
29.7484395101
  0
LWPOLYLINE
  5
24E
330
22A
100
AcDbEntity
  8
0
  6
Continuous
 62
     7
100
AcDbPolyline
 90
        2
 70
     0
 43
0.2
 10
716.4551135641
 20
29.7484395101
 10
716.4551135641
 20
31.3935211878
  0
LWPOLYLINE
  5
24F
330
22A
100
AcDbEntity
  8
0
  6
Continuous
 62
     7
100
AcDbPolyline
 90
        2
 70
     0
 43
0.2
 10
718.6981926383
 20
30.6890095944
 10
718.4770513692
 20
30.6890095944
  0
LWPOLYLINE
  5
250
330
22A
100
AcDbEntity
  8
0
  6
Continuous
 62
     7
100
AcDbPolyline
 90
        2
 70
     0
 43
0.2
 10
718.4770513692
 20
30.6890095944
 10
718.4770513692
 20
29.5369813498
  0
LWPOLYLINE
  5
251
330
22A
100
AcDbEntity
  8
0
  6
Continuous
 62
     7
100
AcDbPolyline
 90
        2
 70
     0
 43
0.2
 10
718.4770513692
 20
29.5369813498
 10
718.6981926383
 20
29.5369813498
  0
LWPOLYLINE
  5
252
330
22A
100
AcDbEntity
  8
0
  6
Continuous
 62
     7
100
AcDbPolyline
 90
        2
 70
     0
 43
0.2
 10
718.6981926383
 20
29.5369813498
 10
718.6981926383
 20
30.6890095944
  0
LWPOLYLINE
  5
253
330
22A
100
AcDbEntity
  8
0
  6
Continuous
 62
     7
100
AcDbPolyline
 90
        2
 70
     1
 43
0.2
 10
718.4351693611
 20
31.2189635233
 42
1.0
 10
718.740336352
 20
31.2189635233
 42
1.0
  0
SPLINE
  5
254
330
22A
100
AcDbEntity
  8
0
  6
Continuous
 62
     7
100
AcDbSpline
 70
     3
 71
     3
 72
    17
 73
    13
 74
     0
 42
0.000000001
 43
0.0000001
 40
0.0
 40
0.0
 40
0.0
 40
0.0
 40
1.0
 40
1.0
 40
1.0
 40
2.0
 40
2.0
 40
2.0
 40
3.0
 40
3.0
 40
3.0
 40
4.0
 40
4.0
 40
4.0
 40
4.0
 10
720.8284765799
 20
29.6945281474
 30
0.0
 10
720.5945117343
 20
29.6945281474
 30
0.0
 10
720.4641823236
 20
29.8965649045
 30
0.0
 10
720.4641823236
 20
30.1127337664
 30
0.0
 10
720.4641823236
 20
30.3273323944
 30
0.0
 10
720.6000075528
 20
30.5262286838
 30
0.0
 10
720.8284765799
 20
30.5262286838
 30
0.0
 10
721.0679372441
 20
30.5262286838
 30
0.0
 10
721.2035007677
 20
30.3372772089
 30
0.0
 10
721.2035007677
 20
30.1127337664
 30
0.0
 10
721.2035007677
 20
29.88662009
 30
0.0
 10
721.0702925949
 20
29.6945281474
 30
0.0
 10
720.8284765799
 20
29.6945281474
 30
0.0
  0
SPLINE
  5
255
330
22A
100
AcDbEntity
  8
0
  6
Continuous
 62
     7
100
AcDbSpline
 70
     3
 71
     3
 72
    50
 73
    46
 74
     0
 42
0.000000001
 43
0.0000001
 40
0.0
 40
0.0
 40
0.0
 40
0.0
 40
1.0
 40
1.0
 40
1.0
 40
2.0
 40
2.0
 40
2.0
 40
3.0
 40
3.0
 40
3.0
 40
4.0
 40
4.0
 40
4.0
 40
5.0
 40
5.0
 40
5.0
 40
6.0
 40
6.0
 40
6.0
 40
7.0
 40
7.0
 40
7.0
 40
8.0
 40
8.0
 40
8.0
 40
9.0
 40
9.0
 40
9.0
 40
10.0
 40
10.0
 40
10.0
 40
11.0
 40
11.0
 40
11.0
 40
12.0
 40
12.0
 40
12.0
 40
13.0
 40
13.0
 40
13.0
 40
14.0
 40
14.0
 40
14.0
 40
15.0
 40
15.0
 40
15.0
 40
15.0
 10
721.4126035772
 20
30.6895330056
 30
0.0
 10
721.4126035772
 20
30.6895330056
 30
0.0
 10
721.1909388968
 20
30.6895330056
 30
0.0
 10
721.1909388968
 20
30.6895330056
 30
0.0
 10
721.1909388968
 20
30.6895330056
 30
0.0
 10
721.1909388968
 20
30.4922069501
 30
0.0
 10
721.1909388968
 20
30.4922069501
 30
0.0
 10
721.1909388968
 20
30.4922069501
 30
0.0
 10
721.1862281952
 20
30.4922069501
 30
0.0
 10
721.1862281952
 20
30.4922069501
 30
0.0
 10
721.0948929255
 20
30.6350982317
 30
0.0
 10
720.9569740511
 20
30.7235547394
 30
0.0
 10
720.7842483261
 20
30.7235547394
 30
0.0
 10
720.4518821583
 20
30.7235547394
 30
0.0
 10
720.2427793488
 20
30.435678531
 30
0.0
 10
720.2427793488
 20
30.1200615244
 30
0.0
 10
720.2427793488
 20
29.7903124131
 30
0.0
 10
720.4398436987
 20
29.4972020919
 30
0.0
 10
720.7947165519
 20
29.4972020919
 30
0.0
 10
720.9569740511
 20
29.4972020919
 30
0.0
 10
721.0969865706
 20
29.5856585995
 30
0.0
 10
721.1862281952
 20
29.7165114215
 30
0.0
 10
721.1862281952
 20
29.7165114215
 30
0.0
 10
721.1909388968
 20
29.7165114215
 30
0.0
 10
721.1909388968
 20
29.7165114215
 30
0.0
 10
721.1909388968
 20
29.7165114215
 30
0.0
 10
721.1909388968
 20
29.4972020919
 30
0.0
 10
721.1909388968
 20
29.4972020919
 30
0.0
 10
721.1909388968
 20
29.2606201898
 30
0.0
 10
721.1344104777
 20
29.07376236
 30
0.0
 10
720.8611897854
 20
29.07376236
 30
0.0
 10
720.6588913227
 20
29.07376236
 30
0.0
 10
720.5162617467
 20
29.192053311
 30
0.0
 10
720.5162617467
 20
29.3982773585
 30
0.0
 10
720.5162617467
 20
29.3982773585
 30
0.0
 10
720.2945970663
 20
29.3982773585
 30
0.0
 10
720.2945970663
 20
29.3982773585
 30
0.0
 10
720.2995694736
 20
29.07376236
 30
0.0
 10
720.5306555571
 20
28.8769597157
 30
0.0
 10
720.8509832653
 20
28.8769597157
 30
0.0
 10
721.2990233277
 20
28.8769597157
 30
0.0
 10
721.4126035772
 20
29.1622188676
 30
0.0
 10
721.4126035772
 20
29.5589646238
 30
0.0
 10
721.4126035772
 20
29.5589646238
 30
0.0
 10
721.4126035772
 20
30.6895330056
 30
0.0
 10
721.4126035772
 20
30.6895330056
 30
0.0
  0
SPLINE
  5
256
330
22A
100
AcDbEntity
  8
0
  6
Continuous
 62
     7
100
AcDbSpline
 70
     3
 71
     3
 72
    44
 73
    40
 74
     0
 42
0.000000001
 43
0.0000001
 40
0.0
 40
0.0
 40
0.0
 40
0.0
 40
1.0
 40
1.0
 40
1.0
 40
2.0
 40
2.0
 40
2.0
 40
3.0
 40
3.0
 40
3.0
 40
4.0
 40
4.0
 40
4.0
 40
5.0
 40
5.0
 40
5.0
 40
6.0
 40
6.0
 40
6.0
 40
7.0
 40
7.0
 40
7.0
 40
8.0
 40
8.0
 40
8.0
 40
9.0
 40
9.0
 40
9.0
 40
10.0
 40
10.0
 40
10.0
 40
11.0
 40
11.0
 40
11.0
 40
12.0
 40
12.0
 40
12.0
 40
13.0
 40
13.0
 40
13.0
 40
13.0
 10
722.9815289126
 20
31.6745930494
 30
0.0
 10
722.9815289126
 20
31.6745930494
 30
0.0
 10
722.9815289126
 20
29.5364579385
 30
0.0
 10
722.9815289126
 20
29.5364579385
 30
0.0
 10
722.9815289126
 20
29.5364579385
 30
0.0
 10
723.2029318874
 20
29.5364579385
 30
0.0
 10
723.2029318874
 20
29.5364579385
 30
0.0
 10
723.2029318874
 20
29.5364579385
 30
0.0
 10
723.2029318874
 20
30.0661501618
 30
0.0
 10
723.2029318874
 20
30.0661501618
 30
0.0
 10
723.2029318874
 20
30.2760380882
 30
0.0
 10
723.2029318874
 20
30.5267520951
 30
0.0
 10
723.4881910393
 20
30.5267520951
 30
0.0
 10
723.7150898326
 20
30.5267520951
 30
0.0
 10
723.7420455139
 20
30.393805628
 30
0.0
 10
723.7420455139
 20
30.197526395
 30
0.0
 10
723.7420455139
 20
30.197526395
 30
0.0
 10
723.7420455139
 20
29.5364579385
 30
0.0
 10
723.7420455139
 20
29.5364579385
 30
0.0
 10
723.7420455139
 20
29.5364579385
 30
0.0
 10
723.9639718999
 20
29.5364579385
 30
0.0
 10
723.9639718999
 20
29.5364579385
 30
0.0
 10
723.9639718999
 20
29.5364579385
 30
0.0
 10
723.9639718999
 20
30.2236969594
 30
0.0
 10
723.9639718999
 20
30.2236969594
 30
0.0
 10
723.9639718999
 20
30.5042454097
 30
0.0
 10
723.8799643882
 20
30.7240781506
 30
0.0
 10
723.5549259785
 20
30.7240781506
 30
0.0
 10
723.4151751646
 20
30.7240781506
 30
0.0
 10
723.2769945846
 20
30.6576049171
 30
0.0
 10
723.207642589
 20
30.5346032644
 30
0.0
 10
723.207642589
 20
30.5346032644
 30
0.0
 10
723.2029318874
 20
30.5346032644
 30
0.0
 10
723.2029318874
 20
30.5346032644
 30
0.0
 10
723.2029318874
 20
30.5346032644
 30
0.0
 10
723.2029318874
 20
31.6745930494
 30
0.0
 10
723.2029318874
 20
31.6745930494
 30
0.0
 10
723.2029318874
 20
31.6745930494
 30
0.0
 10
722.9815289126
 20
31.6745930494
 30
0.0
 10
722.9815289126
 20
31.6745930494
 30
0.0
  0
LWPOLYLINE
  5
257
330
22A
100
AcDbEntity
  8
0
  6
Continuous
 62
     7
100
AcDbPolyline
 90
        2
 70
     0
 43
0.2
 10
725.8037625768
 20
30.4822621356
 10
726.0201931443
 20
30.4822621356
  0
LWPOLYLINE
  5
258
330
22A
100
AcDbEntity
  8
0
  6
Continuous
 62
     7
100
AcDbPolyline
 90
        2
 70
     0
 43
0.2
 10
726.0201931443
 20
30.4822621356
 10
726.0201931443
 20
30.6890095944
  0
LWPOLYLINE
  5
259
330
22A
100
AcDbEntity
  8
0
  6
Continuous
 62
     7
100
AcDbPolyline
 90
        2
 70
     0
 43
0.2
 10
726.0201931443
 20
30.6890095944
 10
725.8037625768
 20
30.6890095944
  0
LWPOLYLINE
  5
25A
330
22A
100
AcDbEntity
  8
0
  6
Continuous
 62
     7
100
AcDbPolyline
 90
        2
 70
     0
 43
0.2
 10
725.8037625768
 20
30.6890095944
 10
725.8037625768
 20
31.1297218987
  0
LWPOLYLINE
  5
25B
330
22A
100
AcDbEntity
  8
0
  6
Continuous
 62
     7
100
AcDbPolyline
 90
        2
 70
     0
 43
0.2
 10
725.8037625768
 20
31.1297218987
 10
725.5820978964
 20
31.1297218987
  0
LWPOLYLINE
  5
25C
330
22A
100
AcDbEntity
  8
0
  6
Continuous
 62
     7
100
AcDbPolyline
 90
        2
 70
     0
 43
0.2
 10
725.5820978964
 20
31.1297218987
 10
725.5820978964
 20
30.6890095944
  0
LWPOLYLINE
  5
25D
330
22A
100
AcDbEntity
  8
0
  6
Continuous
 62
     7
100
AcDbPolyline
 90
        2
 70
     0
 43
0.2
 10
725.5820978964
 20
30.6890095944
 10
725.4614515945
 20
30.6890095944
  0
LWPOLYLINE
  5
25E
330
22A
100
AcDbEntity
  8
0
  6
Continuous
 62
     7
100
AcDbPolyline
 90
        2
 70
     0
 43
0.2
 10
725.4614515945
 20
30.6890095944
 10
725.4614515945
 20
30.4822621356
  0
LWPOLYLINE
  5
25F
330
22A
100
AcDbEntity
  8
0
  6
Continuous
 62
     7
100
AcDbPolyline
 90
        2
 70
     0
 43
0.2
 10
725.4614515945
 20
30.4822621356
 10
725.5820978964
 20
30.4822621356
  0
LWPOLYLINE
  5
260
330
22A
100
AcDbEntity
  8
0
  6
Continuous
 62
     7
100
AcDbPolyline
 90
        2
 70
     0
 43
0.2
 10
725.5820978964
 20
30.4822621356
 10
725.5820978964
 20
29.5364579385
  0
LWPOLYLINE
  5
261
330
22A
100
AcDbEntity
  8
0
  6
Continuous
 62
     7
100
AcDbPolyline
 90
        2
 70
     0
 43
0.2
 10
725.5820978964
 20
29.5364579385
 10
725.8037625768
 20
29.5364579385
  0
LWPOLYLINE
  5
262
330
22A
100
AcDbEntity
  8
0
  6
Continuous
 62
     7
100
AcDbPolyline
 90
        2
 70
     0
 43
0.2
 10
725.8037625768
 20
29.5364579385
 10
725.8037625768
 20
30.4822621356
  0
SPLINE
  5
263
330
22A
100
AcDbEntity
  8
0
  6
Continuous
 62
     7
100
AcDbSpline
 70
     3
 71
     3
 72
    20
 73
    16
 74
     0
 42
0.000000001
 43
0.0000001
 40
0.0
 40
0.0
 40
0.0
 40
0.0
 40
1.0
 40
1.0
 40
1.0
 40
2.0
 40
2.0
 40
2.0
 40
3.0
 40
3.0
 40
3.0
 40
4.0
 40
4.0
 40
4.0
 40
5.0
 40
5.0
 40
5.0
 40
5.0
 10
713.585772884
 20
39.8973843819
 30
0.0
 10
713.585772884
 20
39.8973843819
 30
0.0
 10
715.9021295385
 20
37.0678229596
 30
0.0
 10
715.9021295385
 20
37.0678229596
 30
0.0
 10
715.2504824851
 20
36.4156524949
 30
0.0
 10
714.4736092811
 20
35.6797362242
 30
0.0
 10
713.5024196365
 20
35.6797362242
 30
0.0
 10
712.503881752
 20
35.6797362242
 30
0.0
 10
711.5605637585
 20
36.6093146715
 30
0.0
 10
711.5605637585
 20
37.60850682
 30
0.0
 10
711.5605637585
 20
38.6076989685
 30
0.0
 10
712.7394168316
 20
39.3143042072
 30
0.0
 10
713.4609392919
 20
39.8141619871
 30
0.0
 10
713.4609392919
 20
39.8141619871
 30
0.0
 10
713.585772884
 20
39.8973843819
 30
0.0
 10
713.585772884
 20
39.8973843819
 30
0.0
  0
SPLINE
  5
264
330
22A
100
AcDbEntity
  8
0
  6
Continuous
 62
     7
100
AcDbSpline
 70
     3
 71
     3
 72
    23
 73
    19
 74
     0
 42
0.000000001
 43
0.0000001
 40
0.0
 40
0.0
 40
0.0
 40
0.0
 40
1.0
 40
1.0
 40
1.0
 40
2.0
 40
2.0
 40
2.0
 40
3.0
 40
3.0
 40
3.0
 40
4.0
 40
4.0
 40
4.0
 40
5.0
 40
5.0
 40
5.0
 40
6.0
 40
6.0
 40
6.0
 40
6.0
 10
713.8631808666
 20
41.5351383016
 30
0.0
 10
713.8631808666
 20
41.5351383016
 30
0.0
 10
713.516682594
 20
41.9784676624
 30
0.0
 10
713.516682594
 20
41.9784676624
 30
0.0
 10
713.2108795491
 20
42.3665771324
 30
0.0
 10
712.891991222
 20
42.7550791608
 30
0.0
 10
712.891991222
 20
43.2820234749
 30
0.0
 10
712.891991222
 20
43.9481951915
 30
0.0
 10
713.4333293465
 20
44.3919171108
 30
0.0
 10
714.0572356016
 20
44.3919171108
 30
0.0
 10
714.7510172637
 20
44.3919171108
 30
0.0
 10
715.2782232834
 20
43.9896755361
 30
0.0
 10
715.2782232834
 20
43.2546752351
 30
0.0
 10
715.2782232834
 20
42.4914107245
 30
0.0
 10
714.5569625287
 20
42.0612974987
 30
0.0
 10
714.0298873618
 20
41.6455780833
 30
0.0
 10
714.0298873618
 20
41.6455780833
 30
0.0
 10
713.8631808666
 20
41.5351383016
 30
0.0
 10
713.8631808666
 20
41.5351383016
 30
0.0
  0
SPLINE
  5
265
330
22A
100
AcDbEntity
  8
0
  6
Continuous
 62
     7
100
AcDbSpline
 70
     3
 71
     3
 72
    50
 73
    46
 74
     0
 42
0.000000001
 43
0.0000001
 40
0.0
 40
0.0
 40
0.0
 40
0.0
 40
1.0
 40
1.0
 40
1.0
 40
2.0
 40
2.0
 40
2.0
 40
3.0
 40
3.0
 40
3.0
 40
4.0
 40
4.0
 40
4.0
 40
5.0
 40
5.0
 40
5.0
 40
6.0
 40
6.0
 40
6.0
 40
7.0
 40
7.0
 40
7.0
 40
8.0
 40
8.0
 40
8.0
 40
9.0
 40
9.0
 40
9.0
 40
10.0
 40
10.0
 40
10.0
 40
11.0
 40
11.0
 40
11.0
 40
12.0
 40
12.0
 40
12.0
 40
13.0
 40
13.0
 40
13.0
 40
14.0
 40
14.0
 40
14.0
 40
15.0
 40
15.0
 40
15.0
 40
15.0
 10
717.8167680295
 20
34.7365490835
 30
0.0
 10
717.8167680295
 20
34.7365490835
 30
0.0
 10
719.4259960341
 20
34.7365490835
 30
0.0
 10
719.4259960341
 20
34.7365490835
 30
0.0
 10
719.4259960341
 20
34.7365490835
 30
0.0
 10
717.5529687405
 20
37.0536908549
 30
0.0
 10
717.5529687405
 20
37.0536908549
 30
0.0
 10
717.5529687405
 20
37.0536908549
 30
0.0
 10
718.8293071659
 20
38.5511705495
 30
0.0
 10
718.8293071659
 20
38.5511705495
 30
0.0
 10
718.8293071659
 20
38.5511705495
 30
0.0
 10
717.9970832182
 20
39.412182118
 30
0.0
 10
717.9970832182
 20
39.412182118
 30
0.0
 10
717.9970832182
 20
39.412182118
 30
0.0
 10
716.7764880949
 20
37.9968779956
 30
0.0
 10
716.7764880949
 20
37.9968779956
 30
0.0
 10
716.7764880949
 20
37.9968779956
 30
0.0
 10
714.5985737261
 20
40.63225383
 30
0.0
 10
714.5985737261
 20
40.63225383
 30
0.0
 10
715.4721471655
 20
41.2702921899
 30
0.0
 10
716.4988184067
 20
42.0612974987
 30
0.0
 10
716.4988184067
 20
43.2401505718
 30
0.0
 10
716.4988184067
 20
44.6138434969
 30
0.0
 10
715.3609222669
 20
45.4183266463
 30
0.0
 10
714.085630664
 20
45.4183266463
 30
0.0
 10
712.7121994446
 20
45.4183266463
 30
0.0
 10
711.6712652458
 20
44.5721014466
 30
0.0
 10
711.6712652458
 20
43.1294490845
 30
0.0
 10
711.6712652458
 20
42.241874393
 30
0.0
 10
712.2266046223
 20
41.465001189
 30
0.0
 10
712.8227700792
 20
40.8405715226
 30
0.0
 10
712.8227700792
 20
40.8405715226
 30
0.0
 10
712.1708613201
 20
40.3689779522
 30
0.0
 10
712.1708613201
 20
40.3689779522
 30
0.0
 10
711.1723234357
 20
39.6477171975
 30
0.0
 10
710.3394452239
 20
38.9264564429
 30
0.0
 10
710.3394452239
 20
37.5948981265
 30
0.0
 10
710.3394452239
 20
35.7912228285
 30
0.0
 10
711.7964913965
 20
34.5146226974
 30
0.0
 10
713.5440308338
 20
34.5146226974
 30
0.0
 10
714.7788889147
 20
34.5146226974
 30
0.0
 10
715.8882591394
 20
35.2227981699
 30
0.0
 10
716.6791335954
 20
36.1513297946
 30
0.0
 10
716.6791335954
 20
36.1513297946
 30
0.0
 10
717.8167680295
 20
34.7365490835
 30
0.0
 10
717.8167680295
 20
34.7365490835
 30
0.0
  0
LINE
  5
266
330
22A
100
AcDbEntity
  8
0
  6
Continuous
 62
     7
100
AcDbLine
 10
703.6196294045
 20
32.7104239881
 30
0.0
 11
726.0335401322
 21
32.7104239881
 31
0.0
  0
LINE
  5
267
330
22A
100
AcDbEntity
  8
0
  6
Continuous
 62
     7
100
AcDbLine
 10
726.0335401322
 20
32.7104239881
 30
0.0
 11
726.0335401322
 21
55.1243347157
 31
0.0
  0
LINE
  5
268
330
22A
100
AcDbEntity
  8
0
  6
Continuous
 62
     7
100
AcDbLine
 10
726.0335401322
 20
55.1243347157
 30
0.0
 11
703.6196294045
 21
55.1243347157
 31
0.0
  0
LINE
  5
269
330
22A
100
AcDbEntity
  8
0
  6
Continuous
 62
     7
100
AcDbLine
 10
703.6196294045
 20
55.1243347157
 30
0.0
 11
703.6196294045
 21
32.7104239881
 31
0.0
  0
ENDBLK
  5
26A
330
22A
100
AcDbEntity
  8
0
  6
ByBlock
 62
     0
100
AcDbBlockEnd
  0
BLOCK
  5
26B
330
22B
100
AcDbEntity
  8
0
100
AcDbBlockBegin
  2
PROIEZIONE_EU_BL0
 70
     0
 10
716.0004722972
 20
67.6256472157
 30
0.0
  3
PROIEZIONE_EU_BL0
  1

  0
LWPOLYLINE
  5
26C
330
22B
100
AcDbEntity
  8
DEFAULT_1
  6
CENTER
 62
     7
100
AcDbPolyline
 90
        2
 70
     0
 43
0.25
 10
722.1270929588
 20
72.6253413476
 10
722.1271339412
 20
62.6259530839
  0
LWPOLYLINE
  5
26D
330
22B
100
AcDbEntity
  8
DEFAULT_1
  6
CENTER
 62
     7
100
AcDbPolyline
 90
        2
 70
     0
 43
0.25
 10
728.1271227839
 20
67.6259183509
 10
703.8738218104
 20
67.6256476905
  0
LWPOLYLINE
  5
26E
330
22B
100
AcDbEntity
  8
0
  6
Continuous
 62
     7
100
AcDbPolyline
 90
        2
 70
     1
 43
0.25
 10
718.579982783
 20
67.6070994615
 42
1.0
 10
725.6863118817
 20
67.6070994615
 42
1.0
  0
LWPOLYLINE
  5
26F
330
22B
100
AcDbEntity
  8
0
  6
Continuous
 62
     7
100
AcDbPolyline
 90
        2
 70
     1
 43
0.25
 10
720.1297266114
 20
67.6249975061
 42
1.0
 10
724.1414783615
 20
67.6249975061
 42
1.0
  0
LWPOLYLINE
  5
270
330
22B
100
AcDbEntity
  8
0
  6
Continuous
 62
     7
100
AcDbPolyline
 90
        2
 70
     0
 43
0.25
 10
716.1271205779
 20
71.200850711
 10
716.1271202233
 20
64.1006478027
  0
LWPOLYLINE
  5
271
330
22B
100
AcDbEntity
  8
0
  6
Continuous
 62
     7
100
AcDbPolyline
 90
        2
 70
     0
 43
0.25
 10
716.1271486597
 20
64.1006193663
 10
706.1325913885
 20
65.6207127791
  0
LWPOLYLINE
  5
272
330
22B
100
AcDbEntity
  8
0
  6
Continuous
 62
     7
100
AcDbPolyline
 90
        2
 70
     0
 43
0.25
 10
706.1302814029
 20
65.6200352376
 10
706.1276144988
 20
69.625673849
  0
LWPOLYLINE
  5
273
330
22B
100
AcDbEntity
  8
0
  6
Continuous
 62
     7
100
AcDbPolyline
 90
        2
 70
     0
 43
0.25
 10
706.1276062227
 20
69.625665573
 10
716.12734946
 20
71.200822793
  0
ENDBLK
  5
274
330
22B
100
AcDbEntity
  8
0
  6
ByBlock
 62
     0
100
AcDbBlockEnd
  0
ENDSEC
  0
SECTION
  2
ENTITIES
  0
LINE
  5
29F
330
1B
100
AcDbEntity
 67
     1
  8
0
  6
Continuous
 62
     7
100
AcDbLine
 10
0.0
 20
0.0
 30
0.0
 11
841.0
 21
0.0
 31
0.0
  0
LINE
  5
2A0
330
1B
100
AcDbEntity
 67
     1
  8
0
  6
Continuous
 62
     7
100
AcDbLine
 10
841.0
 20
0.0
 30
0.0
 11
841.0
 21
594.0
 31
0.0
  0
LINE
  5
2A1
330
1B
100
AcDbEntity
 67
     1
  8
0
  6
Continuous
 62
     7
100
AcDbLine
 10
0.0
 20
594.0
 30
0.0
 11
841.0
 21
594.0
 31
0.0
  0
LINE
  5
2A2
330
1B
100
AcDbEntity
 67
     1
  8
0
  6
Continuous
 62
     7
100
AcDbLine
 10
0.0
 20
0.0
 30
0.0
 11
0.0
 21
594.0
 31
0.0
  0
LINE
  5
2A3
330
1B
100
AcDbEntity
 67
     1
  8
0
  6
Continuous
 62
     7
100
AcDbLine
 10
0.0
 20
587.0
 30
0.0
 11
841.0
 21
587.0
 31
0.0
  0
LINE
  5
2A4
330
1B
100
AcDbEntity
 67
     1
  8
0
  6
Continuous
 62
     7
100
AcDbLine
 10
0.0
 20
7.0
 30
0.0
 11
834.0
 21
7.0
 31
0.0
  0
LINE
  5
2A5
330
1B
100
AcDbEntity
 67
     1
  8
0
  6
Continuous
 62
     7
100
AcDbLine
 10
7.0
 20
0.0
 30
0.0
 11
7.0
 21
594.0
 31
0.0
  0
LINE
  5
2A6
330
1B
100
AcDbEntity
 67
     1
  8
0
  6
Continuous
 62
     7
100
AcDbLine
 10
834.0
 20
7.0
 30
0.0
 11
834.0
 21
594.0
 31
0.0
  0
LINE
  5
2A7
330
1B
100
AcDbEntity
 67
     1
  8
0
  6
Continuous
 62
     7
100
AcDbLine
 10
10.0
 20
584.0
 30
0.0
 11
831.0
 21
584.0
 31
0.0
  0
LINE
  5
2A8
330
1B
100
AcDbEntity
 67
     1
  8
0
  6
Continuous
 62
     7
100
AcDbLine
 10
10.1045326603
 20
9.9564447249
 30
0.0
 11
831.0019373863
 21
10.0005548773
 31
0.0
  0
LINE
  5
2A9
330
1B
100
AcDbEntity
 67
     1
  8
0
  6
Continuous
 62
     7
100
AcDbLine
 10
10.0
 20
10.0
 30
0.0
 11
10.0
 21
584.0
 31
0.0
  0
LINE
  5
2AA
330
1B
100
AcDbEntity
 67
     1
  8
0
  6
Continuous
 62
     7
100
AcDbLine
 10
831.0
 20
10.0
 30
0.0
 11
831.0
 21
584.0
 31
0.0
  0
LINE
  5
2AB
330
1B
100
AcDbEntity
 67
     1
  8
0
  6
Continuous
 62
     7
100
AcDbLine
 10
420.5
 20
594.0
 30
0.0
 11
420.5
 21
584.0
 31
0.0
  0
LINE
  5
2AC
330
1B
100
AcDbEntity
 67
     1
  8
0
  6
Continuous
 62
     7
100
AcDbLine
 10
420.5
 20
0.0
 30
0.0
 11
420.5
 21
10.0
 31
0.0
  0
LINE
  5
2AD
330
1B
100
AcDbEntity
 67
     1
  8
0
  6
Continuous
 62
     7
100
AcDbLine
 10
841.0
 20
297.0
 30
0.0
 11
831.0
 21
297.0
 31
0.0
  0
LINE
  5
2AE
330
1B
100
AcDbEntity
 67
     1
  8
0
  6
Continuous
 62
     7
100
AcDbLine
 10
0.0
 20
297.0
 30
0.0
 11
10.0
 21
297.0
 31
0.0
  0
LINE
  5
2AF
330
1B
100
AcDbEntity
 67
     1
  8
0
  6
Continuous
 62
     7
100
AcDbLine
 10
841.0
 20
420.5
 30
0.0
 11
831.0324714513
 21
420.5
 31
0.0
  0
LINE
  5
2B0
330
1B
100
AcDbEntity
 67
     1
  8
0
  6
Continuous
 62
     7
100
AcDbLine
 10
631.0
 20
0.0
 30
0.0
 11
631.0
 21
10.0
 31
0.0
  0
LINE
  5
2B1
330
1B
100
AcDbEntity
 67
     1
  8
0
  6
Continuous
 62
     7
100
AcDbLine
 10
834.0
 20
7.0
 30
0.0
 11
834.0
 21
0.0
 31
0.0
  0
LINE
  5
2B2
330
1B
100
AcDbEntity
 67
     1
  8
0
  6
Continuous
 62
     7
100
AcDbLine
 10
834.0
 20
7.0
 30
0.0
 11
841.0
 21
7.0
 31
0.0
  0
LINE
  5
2B3
330
1B
100
AcDbEntity
 67
     1
  8
0
  6
Continuous
 62
     7
100
AcDbLine
 10
734.0
 20
7.0
 30
0.0
 11
734.0
 21
0.0
 31
0.0
  0
LINE
  5
2B4
330
1B
100
AcDbEntity
 67
     1
  8
0
  6
Continuous
 62
     7
100
AcDbLine
 10
534.0
 20
7.0
 30
0.0
 11
534.0
 21
0.0
 31
0.0
  0
LINE
  5
2B5
330
1B
100
AcDbEntity
 67
     1
  8
0
  6
Continuous
 62
     7
100
AcDbLine
 10
434.0
 20
7.0
 30
0.0
 11
434.0
 21
0.0
 31
0.0
  0
LINE
  5
2B6
330
1B
100
AcDbEntity
 67
     1
  8
0
  6
Continuous
 62
     7
100
AcDbLine
 10
834.0
 20
107.0
 30
0.0
 11
841.0
 21
107.0
 31
0.0
  0
LINE
  5
2B7
330
1B
100
AcDbEntity
 67
     1
  8
0
  6
Continuous
 62
     7
100
AcDbLine
 10
834.0
 20
207.0
 30
0.0
 11
841.0
 21
207.0
 31
0.0
  0
LINE
  5
2B8
330
1B
100
AcDbEntity
 67
     1
  8
0
  6
Continuous
 62
     7
100
AcDbLine
 10
834.0
 20
307.0
 30
0.0
 11
841.0
 21
307.0
 31
0.0
  0
LINE
  5
2B9
330
1B
100
AcDbEntity
 67
     1
  8
0
  6
Continuous
 62
     7
100
AcDbLine
 10
631.0
 20
584.0
 30
0.0
 11
631.0
 21
594.0
 31
0.0
  0
LINE
  5
2BA
330
1B
100
AcDbEntity
 67
     1
  8
0
  6
Continuous
 62
     7
100
AcDbLine
 10
734.0
 20
594.0
 30
0.0
 11
734.0
 21
587.0
 31
0.0
  0
LINE
  5
2BB
330
1B
100
AcDbEntity
 67
     1
  8
0
  6
Continuous
 62
     7
100
AcDbLine
 10
534.0
 20
594.0
 30
0.0
 11
534.0
 21
587.0
 31
0.0
  0
LINE
  5
2BC
330
1B
100
AcDbEntity
 67
     1
  8
0
  6
Continuous
 62
     7
100
AcDbLine
 10
434.0
 20
594.0
 30
0.0
 11
434.0
 21
587.0
 31
0.0
  0
LINE
  5
2BD
330
1B
100
AcDbEntity
 67
     1
  8
0
  6
Continuous
 62
     7
100
AcDbLine
 10
334.0
 20
594.0
 30
0.0
 11
334.0
 21
587.0
 31
0.0
  0
LINE
  5
2BE
330
1B
100
AcDbEntity
 67
     1
  8
0
  6
Continuous
 62
     7
100
AcDbLine
 10
234.0
 20
594.0
 30
0.0
 11
234.0
 21
587.0
 31
0.0
  0
LINE
  5
2BF
330
1B
100
AcDbEntity
 67
     1
  8
0
  6
Continuous
 62
     7
100
AcDbLine
 10
134.0
 20
594.0
 30
0.0
 11
134.0
 21
587.0
 31
0.0
  0
LINE
  5
2C0
330
1B
100
AcDbEntity
 67
     1
  8
0
  6
Continuous
 62
     7
100
AcDbLine
 10
10.0
 20
420.5
 30
0.0
 11
0.0
 21
420.5
 31
0.0
  0
LINE
  5
2C1
330
1B
100
AcDbEntity
 67
     1
  8
0
  6
Continuous
 62
     7
100
AcDbLine
 10
0.0
 20
107.0
 30
0.0
 11
7.0
 21
107.0
 31
0.0
  0
LINE
  5
2C2
330
1B
100
AcDbEntity
 67
     1
  8
0
  6
Continuous
 62
     7
100
AcDbLine
 10
0.0
 20
207.0
 30
0.0
 11
7.0
 21
207.0
 31
0.0
  0
LINE
  5
2C3
330
1B
100
AcDbEntity
 67
     1
  8
0
  6
Continuous
 62
     7
100
AcDbLine
 10
0.0
 20
307.0
 30
0.0
 11
7.0
 21
307.0
 31
0.0
  0
LINE
  5
2C4
330
1B
100
AcDbEntity
 67
     1
  8
0
  6
Continuous
 62
     7
100
AcDbLine
 10
0.0
 20
507.0
 30
0.0
 11
7.0
 21
507.0
 31
0.0
  0
LINE
  5
2C5
330
1B
100
AcDbEntity
 67
     1
  8
0
  6
Continuous
 62
     7
100
AcDbLine
 10
334.0
 20
7.0
 30
0.0
 11
334.0
 21
0.0
 31
0.0
  0
LINE
  5
2C6
330
1B
100
AcDbEntity
 67
     1
  8
0
  6
Continuous
 62
     7
100
AcDbLine
 10
234.0
 20
7.0
 30
0.0
 11
234.0
 21
0.0
 31
0.0
  0
LINE
  5
2C7
330
1B
100
AcDbEntity
 67
     1
  8
0
  6
Continuous
 62
     7
100
AcDbLine
 10
134.0
 20
7.0
 30
0.0
 11
134.0
 21
0.0
 31
0.0
  0
LINE
  5
2C8
330
1B
100
AcDbEntity
 67
     1
  8
0
  6
Continuous
 62
     7
100
AcDbLine
 10
834.0
 20
507.0
 30
0.0
 11
841.0
 21
507.0
 31
0.0
  0
MTEXT
  5
2C9
330
1B
100
AcDbEntity
 67
     1
  8
0
  6
Continuous
 62
     2
100
AcDbMText
 10
783.154890719
 20
5.35876025
 30
0.0
 40
4.0
 41
3.6
 46
0.0
 71
     1
 72
     1
  1
A
  7
TEXTSTYLE_2
 73
     1
 44
1.0
  0
MTEXT
  5
2CA
330
1B
100
AcDbEntity
 67
     1
  8
0
  6
Continuous
 62
     2
100
AcDbMText
 10
683.154890719
 20
5.35876025
 30
0.0
 40
4.0
 41
3.6
 46
0.0
 71
     1
 72
     1
  1
B
  7
TEXTSTYLE_2
 73
     1
 44
1.0
  0
MTEXT
  5
2CB
330
1B
100
AcDbEntity
 67
     1
  8
0
  6
Continuous
 62
     2
100
AcDbMText
 10
583.154890719
 20
5.35876025
 30
0.0
 40
4.0
 41
3.6
 46
0.0
 71
     1
 72
     1
  1
C
  7
TEXTSTYLE_2
 73
     1
 44
1.0
  0
MTEXT
  5
2CC
330
1B
100
AcDbEntity
 67
     1
  8
0
  6
Continuous
 62
     2
100
AcDbMText
 10
483.154890719
 20
5.35876025
 30
0.0
 40
4.0
 41
3.6
 46
0.0
 71
     1
 72
     1
  1
D
  7
TEXTSTYLE_2
 73
     1
 44
1.0
  0
MTEXT
  5
2CD
330
1B
100
AcDbEntity
 67
     1
  8
0
  6
Continuous
 62
     2
100
AcDbMText
 10
383.154890719
 20
5.35876025
 30
0.0
 40
4.0
 41
3.6
 46
0.0
 71
     1
 72
     1
  1
E
  7
TEXTSTYLE_2
 73
     1
 44
1.0
  0
MTEXT
  5
2CE
330
1B
100
AcDbEntity
 67
     1
  8
0
  6
Continuous
 62
     2
100
AcDbMText
 10
835.6467220993
 20
60.6268709614
 30
0.0
 40
4.0
 41
3.4285714286
 46
0.0
 71
     1
 72
     1
  1
1
  7
TEXTSTYLE_3
 73
     1
 44
1.0
  0
MTEXT
  5
2CF
330
1B
100
AcDbEntity
 67
     1
  8
0
  6
Continuous
 62
     2
100
AcDbMText
 10
835.6467220993
 20
160.6268709614
 30
0.0
 40
4.0
 41
4.7142857143
 46
0.0
 71
     1
 72
     1
  1
2
  7
TEXTSTYLE_3
 73
     1
 44
1.0
  0
MTEXT
  5
2D0
330
1B
100
AcDbEntity
 67
     1
  8
0
  6
Continuous
 62
     2
100
AcDbMText
 10
835.6467220993
 20
260.6268709614
 30
0.0
 40
4.0
 41
4.2857142857
 46
0.0
 71
     1
 72
     1
  1
3
  7
TEXTSTYLE_3
 73
     1
 44
1.0
  0
MTEXT
  5
2D1
330
1B
100
AcDbEntity
 67
     1
  8
0
  6
Continuous
 62
     2
100
AcDbMText
 10
835.6467220993
 20
360.6268709614
 30
0.0
 40
4.0
 41
4.7142857143
 46
0.0
 71
     1
 72
     1
  1
4
  7
TEXTSTYLE_3
 73
     1
 44
1.0
  0
MTEXT
  5
2D2
330
1B
100
AcDbEntity
 67
     1
  8
0
  6
Continuous
 62
     2
100
AcDbMText
 10
835.6467220993
 20
460.6268709614
 30
0.0
 40
4.0
 41
4.2857142857
 46
0.0
 71
     1
 72
     1
  1
5
  7
TEXTSTYLE_3
 73
     1
 44
1.0
  0
MTEXT
  5
2D3
330
1B
100
AcDbEntity
 67
     1
  8
0
  6
Continuous
 62
     2
100
AcDbMText
 10
783.154890719
 20
592.35876025
 30
0.0
 40
4.0
 41
3.6
 46
0.0
 71
     1
 72
     1
  1
A
  7
TEXTSTYLE_2
 73
     1
 44
1.0
  0
MTEXT
  5
2D4
330
1B
100
AcDbEntity
 67
     1
  8
0
  6
Continuous
 62
     2
100
AcDbMText
 10
683.154890719
 20
592.35876025
 30
0.0
 40
4.0
 41
3.6
 46
0.0
 71
     1
 72
     1
  1
B
  7
TEXTSTYLE_2
 73
     1
 44
1.0
  0
MTEXT
  5
2D5
330
1B
100
AcDbEntity
 67
     1
  8
0
  6
Continuous
 62
     2
100
AcDbMText
 10
583.154890719
 20
592.35876025
 30
0.0
 40
4.0
 41
3.6
 46
0.0
 71
     1
 72
     1
  1
C
  7
TEXTSTYLE_2
 73
     1
 44
1.0
  0
MTEXT
  5
2D6
330
1B
100
AcDbEntity
 67
     1
  8
0
  6
Continuous
 62
     2
100
AcDbMText
 10
483.154890719
 20
592.35876025
 30
0.0
 40
4.0
 41
3.6
 46
0.0
 71
     1
 72
     1
  1
D
  7
TEXTSTYLE_2
 73
     1
 44
1.0
  0
MTEXT
  5
2D7
330
1B
100
AcDbEntity
 67
     1
  8
0
  6
Continuous
 62
     2
100
AcDbMText
 10
383.154890719
 20
592.35876025
 30
0.0
 40
4.0
 41
3.6
 46
0.0
 71
     1
 72
     1
  1
E
  7
TEXTSTYLE_2
 73
     1
 44
1.0
  0
MTEXT
  5
2D8
330
1B
100
AcDbEntity
 67
     1
  8
0
  6
Continuous
 62
     2
100
AcDbMText
 10
283.154890719
 20
592.35876025
 30
0.0
 40
4.0
 41
3.6
 46
0.0
 71
     1
 72
     1
  1
F
  7
TEXTSTYLE_2
 73
     1
 44
1.0
  0
MTEXT
  5
2D9
330
1B
100
AcDbEntity
 67
     1
  8
0
  6
Continuous
 62
     2
100
AcDbMText
 10
183.154890719
 20
592.35876025
 30
0.0
 40
4.0
 41
3.6
 46
0.0
 71
     1
 72
     1
  1
G
  7
TEXTSTYLE_2
 73
     1
 44
1.0
  0
MTEXT
  5
2DA
330
1B
100
AcDbEntity
 67
     1
  8
0
  6
Continuous
 62
     2
100
AcDbMText
 10
59.5777362717
 20
592.35876025
 30
0.0
 40
4.0
 41
3.6
 46
0.0
 71
     1
 72
     1
  1
H
  7
TEXTSTYLE_2
 73
     1
 44
1.0
  0
MTEXT
  5
2DB
330
1B
100
AcDbEntity
 67
     1
  8
0
  6
Continuous
 62
     2
100
AcDbMText
 10
1.6467220993
 20
60.6268709614
 30
0.0
 40
4.0
 41
3.4285714286
 46
0.0
 71
     1
 72
     1
  1
1
  7
TEXTSTYLE_3
 73
     1
 44
1.0
  0
MTEXT
  5
2DC
330
1B
100
AcDbEntity
 67
     1
  8
0
  6
Continuous
 62
     2
100
AcDbMText
 10
1.6467220993
 20
160.6268709614
 30
0.0
 40
4.0
 41
4.7142857143
 46
0.0
 71
     1
 72
     1
  1
2
  7
TEXTSTYLE_3
 73
     1
 44
1.0
  0
MTEXT
  5
2DD
330
1B
100
AcDbEntity
 67
     1
  8
0
  6
Continuous
 62
     2
100
AcDbMText
 10
1.6467220993
 20
260.6268709614
 30
0.0
 40
4.0
 41
4.2857142857
 46
0.0
 71
     1
 72
     1
  1
3
  7
TEXTSTYLE_3
 73
     1
 44
1.0
  0
MTEXT
  5
2DE
330
1B
100
AcDbEntity
 67
     1
  8
0
  6
Continuous
 62
     2
100
AcDbMText
 10
1.6467220993
 20
360.6268709614
 30
0.0
 40
4.0
 41
4.7142857143
 46
0.0
 71
     1
 72
     1
  1
4
  7
TEXTSTYLE_3
 73
     1
 44
1.0
  0
MTEXT
  5
2DF
330
1B
100
AcDbEntity
 67
     1
  8
0
  6
Continuous
 62
     2
100
AcDbMText
 10
1.6467220993
 20
460.6268709614
 30
0.0
 40
4.0
 41
4.2857142857
 46
0.0
 71
     1
 72
     1
  1
5
  7
TEXTSTYLE_3
 73
     1
 44
1.0
  0
MTEXT
  5
2E0
330
1B
100
AcDbEntity
 67
     1
  8
0
  6
Continuous
 62
     2
100
AcDbMText
 10
1.6467220993
 20
560.6268709614
 30
0.0
 40
4.0
 41
4.7142857143
 46
0.0
 71
     1
 72
     1
  1
6
  7
TEXTSTYLE_3
 73
     1
 44
1.0
  0
MTEXT
  5
2E1
330
1B
100
AcDbEntity
 67
     1
  8
0
  6
Continuous
 62
     2
100
AcDbMText
 10
283.154890719
 20
5.35876025
 30
0.0
 40
4.0
 41
3.6
 46
0.0
 71
     1
 72
     1
  1
F
  7
TEXTSTYLE_2
 73
     1
 44
1.0
  0
MTEXT
  5
2E2
330
1B
100
AcDbEntity
 67
     1
  8
0
  6
Continuous
 62
     2
100
AcDbMText
 10
183.154890719
 20
5.35876025
 30
0.0
 40
4.0
 41
3.6
 46
0.0
 71
     1
 72
     1
  1
G
  7
TEXTSTYLE_2
 73
     1
 44
1.0
  0
MTEXT
  5
2E3
330
1B
100
AcDbEntity
 67
     1
  8
0
  6
Continuous
 62
     2
100
AcDbMText
 10
59.5777362717
 20
5.35876025
 30
0.0
 40
4.0
 41
3.6
 46
0.0
 71
     1
 72
     1
  1
H
  7
TEXTSTYLE_2
 73
     1
 44
1.0
  0
MTEXT
  5
2E4
330
1B
100
AcDbEntity
 67
     1
  8
0
  6
Continuous
 62
     2
100
AcDbMText
 10
835.6467220993
 20
560.6268709614
 30
0.0
 40
4.0
 41
4.7142857143
 46
0.0
 71
     1
 72
     1
  1
6
  7
TEXTSTYLE_3
 73
     1
 44
1.0
  0
VIEWPORT
  5
2E5
330
1B
100
AcDbEntity
 67
     1
  8
0
100
AcDbViewport
 10
0.0
 20
0.0
 30
0.0
 40
990.1540856031129
 41
700.1803891050583
 68
     1
 69
     1
 12
468.0350194552529
 22
297.0
 13
0.0
 23
0.0
 14
1.0
 24
1.0
 15
0.0
 25
0.0
 16
0.0
 26
0.0
 36
1.0
 17
0.0
 27
0.0
 37
0.0
 42
50.0
 43
0.0
 44
0.0
 45
700.1803891050583
 50
0.0
 51
0.0
 72
   100
 90
   557216
  1

281
     0
 71
     1
 74
     0
110
0.0
120
0.0
130
0.0
111
1.0
121
0.0
131
0.0
112
0.0
122
1.0
132
0.0
 79
     0
146
0.0
170
     0
 61
     5
348
493
292
     1
282
     1
141
0.0
142
0.0
 63
   256
  0
LINE
  5
2E6
330
1B
100
AcDbEntity
 67
     1
  8
7_ALL_FEATURES
  6
Continuous
 62
     7
100
AcDbLine
 10
143.9022712954
 20
431.9926820817
 30
0.0
 11
143.9022712954
 21
429.9426820817
 31
0.0
  0
LINE
  5
2E7
330
1B
100
AcDbEntity
 67
     1
  8
7_ALL_FEATURES
  6
Continuous
 62
     7
100
AcDbLine
 10
143.9022712954
 20
429.9426820817
 30
0.0
 11
143.9022712954
 21
411.4426820817
 31
0.0
  0
LINE
  5
2E8
330
1B
100
AcDbEntity
 67
     1
  8
7_ALL_FEATURES
  6
Continuous
 62
     7
100
AcDbLine
 10
143.9022712954
 20
411.4426820817
 30
0.0
 11
143.9022712954
 21
409.3926820817
 31
0.0
  0
LINE
  5
2E9
330
1B
100
AcDbEntity
 67
     1
  8
7_ALL_FEATURES
  6
Continuous
 62
     7
100
AcDbLine
 10
137.9022712954
 20
404.7426820817
 30
0.0
 11
141.6940386933
 21
404.7426820817
 31
0.0
  0
ARC
  5
2EA
330
1B
100
AcDbEntity
 67
     1
  8
7_ALL_FEATURES
  6
Continuous
 62
     7
100
AcDbCircle
 10
137.9022712954
 20
431.9926820817
 30
0.0
 40
6.0
100
AcDbArc
 50
0.0
 51
50.80503257400001
  0
LINE
  5
2EB
330
1B
100
AcDbEntity
 67
     1
  8
7_ALL_FEATURES
  6
Continuous
 62
     7
100
AcDbLine
 10
141.6940386933
 20
436.6426820817
 30
0.0
 11
137.9022712954
 21
436.6426820817
 31
0.0
  0
ARC
  5
2EC
330
1B
100
AcDbEntity
 67
     1
  8
7_ALL_FEATURES
  6
Continuous
 62
     7
100
AcDbCircle
 10
137.9022712954
 20
409.3926820817
 30
0.0
 40
6.0
100
AcDbArc
 50
309.194967426
 51
360.0
  0
LINE
  5
2ED
330
1B
100
AcDbEntity
 67
     1
  8
7_ALL_FEATURES
  6
Continuous
 62
     7
100
AcDbLine
 10
136.3522712954
 20
436.6426820817
 30
0.0
 11
137.9022712954
 21
436.6426820817
 31
0.0
  0
LINE
  5
2EE
330
1B
100
AcDbEntity
 67
     1
  8
7_ALL_FEATURES
  6
Continuous
 62
     7
100
AcDbLine
 10
131.9022712954
 20
404.7426820817
 30
0.0
 11
137.9022712954
 21
404.7426820817
 31
0.0
  0
LINE
  5
2EF
330
1B
100
AcDbEntity
 67
     1
  8
02___PRT_ALL_AXES
  6
Continuous
 62
     7
100
AcDbLine
 10
119.9022712954
 20
408.6926820817
 30
0.0
 11
119.9022712954
 21
409.7426820817
 31
0.0
  0
LINE
  5
2F0
330
1B
100
AcDbEntity
 67
     1
  8
02___PRT_ALL_AXES
  6
Continuous
 62
     7
100
AcDbLine
 10
119.9022712954
 20
409.7426820817
 30
0.0
 11
119.9022712954
 21
412.4426820817
 31
0.0
  0
LINE
  5
2F1
330
1B
100
AcDbEntity
 67
     1
  8
02___PRT_ALL_AXES
  6
Continuous
 62
     7
100
AcDbLine
 10
119.9022712954
 20
412.4426820817
 30
0.0
 11
119.9022712954
 21
428.9426820817
 31
0.0
  0
LINE
  5
2F2
330
1B
100
AcDbEntity
 67
     1
  8
02___PRT_ALL_AXES
  6
Continuous
 62
     7
100
AcDbLine
 10
119.9022712954
 20
428.9426820817
 30
0.0
 11
119.9022712954
 21
431.6426820817
 31
0.0
  0
LINE
  5
2F3
330
1B
100
AcDbEntity
 67
     1
  8
02___PRT_ALL_AXES
  6
Continuous
 62
     7
100
AcDbLine
 10
119.9022712954
 20
431.6426820817
 30
0.0
 11
119.9022712954
 21
432.6926820817
 31
0.0
  0
LINE
  5
2F4
330
1B
100
AcDbEntity
 67
     1
  8
02___PRT_ALL_AXES
  6
Continuous
 62
     7
100
AcDbLine
 10
126.9022712954
 20
432.6926820817
 30
0.0
 11
119.9022712954
 21
432.6926820817
 31
0.0
  0
LINE
  5
2F5
330
1B
100
AcDbEntity
 67
     1
  8
02___PRT_ALL_AXES
  6
Continuous
 62
     7
100
AcDbLine
 10
126.9022712954
 20
408.6926820817
 30
0.0
 11
119.9022712954
 21
408.6926820817
 31
0.0
  0
LINE
  5
2F6
330
1B
100
AcDbEntity
 67
     1
  8
7_ALL_FEATURES
  6
Continuous
 62
     9
100
AcDbLine
 10
137.9022712954
 20
413.9928686514
 30
0.0
 11
137.9022712954
 21
404.7426820817
 31
0.0
  0
LINE
  5
2F7
330
1B
100
AcDbEntity
 67
     1
  8
7_ALL_FEATURES
  6
Continuous
 62
     7
100
AcDbLine
 10
131.9022712954
 20
427.3924955119
 30
0.0
 11
137.9022712954
 21
427.3924955119
 31
0.0
  0
SPLINE
  5
2F8
330
1B
100
AcDbEntity
 67
     1
  8
7_ALL_FEATURES
  6
Continuous
 62
     7
100
AcDbSpline
 70
     0
 71
     3
 72
    37
 73
    33
 74
     0
 42
0.000000001
 43
0.0000001
 40
0.0
 40
0.0
 40
0.0
 40
0.0
 40
0.015625338
 40
0.0312508811
 40
0.0468770379
 40
0.0625038803
 40
0.0937280521
 40
0.1249639316
 40
0.1562084037
 40
0.1874586906
 40
0.2187127598
 40
0.2499692289
 40
0.2812272917
 40
0.3124863627
 40
0.3749855527
 40
0.4374914307
 40
0.5
 40
0.5625085693
 40
0.6250144473
 40
0.6875136372
 40
0.7187727083
 40
0.7500307711
 40
0.7812872403
 40
0.8125413094
 40
0.8437915963
 40
0.8750360684
 40
0.9062719479
 40
0.9374961197
 40
0.9531229621
 40
0.9687491189
 40
0.984374662
 40
1.0
 40
1.0
 40
1.0
 40
1.0
 10
137.9022712954
 20
427.3924955119
 30
0.0
 10
137.9901251287
 20
427.3924955119
 30
0.0
 10
138.1659958215
 20
427.3824902472
 30
0.0
 10
138.4262983726
 20
427.3379867089
 30
0.0
 10
138.6802293763
 20
427.2654253956
 30
0.0
 10
139.0066796386
 20
427.1342884718
 30
0.0
 10
139.3882604343
 20
426.9117843901
 30
0.0
 10
139.7946867215
 20
426.5735031131
 30
0.0
 10
140.1501268205
 20
426.1824731952
 30
0.0
 10
140.4575498508
 20
425.7530851163
 30
0.0
 10
140.7212945913
 20
425.2958021979
 30
0.0
 10
140.9457371238
 20
424.8181633328
 30
0.0
 10
141.1349103202
 20
424.3255835793
 30
0.0
 10
141.3446800548
 20
423.6543102714
 30
0.0
 10
141.5350834745
 20
422.7948093307
 30
0.0
 10
141.6657050064
 20
421.7473489276
 30
0.0
 10
141.7082067591
 20
420.6926820818
 30
0.0
 10
141.6657050064
 20
419.6380152359
 30
0.0
 10
141.5350834745
 20
418.5905548328
 30
0.0
 10
141.3446800549
 20
417.7310538923
 30
0.0
 10
141.1349103203
 20
417.0597805843
 30
0.0
 10
140.9457371239
 20
416.5672008306
 30
0.0
 10
140.7212945913
 20
416.0895619654
 30
0.0
 10
140.4575498508
 20
415.632279047
 30
0.0
 10
140.1501268206
 20
415.2028909682
 30
0.0
 10
139.7946867215
 20
414.8118610503
 30
0.0
 10
139.3882604343
 20
414.4735797732
 30
0.0
 10
139.0066796386
 20
414.2510756915
 30
0.0
 10
138.6802293763
 20
414.1199387678
 30
0.0
 10
138.4262983726
 20
414.0473774544
 30
0.0
 10
138.1659958215
 20
414.0028739162
 30
0.0
 10
137.9901251287
 20
413.9928686514
 30
0.0
 10
137.9022712954
 20
413.9928686514
 30
0.0
  0
LINE
  5
2F9
330
1B
100
AcDbEntity
 67
     1
  8
7_ALL_FEATURES
  6
Continuous
 62
     9
100
AcDbLine
 10
137.9022712954
 20
436.6426820817
 30
0.0
 11
137.9022712954
 21
427.3924955119
 31
0.0
  0
LINE
  5
2FA
330
1B
100
AcDbEntity
 67
     1
  8
7_ALL_FEATURES
  6
Continuous
 62
     7
100
AcDbLine
 10
131.9022712954
 20
413.9928686514
 30
0.0
 11
137.9022712954
 21
413.9928686514
 31
0.0
  0
LINE
  5
2FB
330
1B
100
AcDbEntity
 67
     1
  8
7_ALL_FEATURES
  6
Continuous
 62
     7
100
AcDbLine
 10
159.4022712954
 20
459.6926820817
 30
0.0
 11
131.9022712954
 21
432.1926820817
 31
0.0
  0
LINE
  5
2FC
330
1B
100
AcDbEntity
 67
     1
  8
7_ALL_FEATURES
  6
Continuous
 62
     7
100
AcDbLine
 10
131.9022712954
 20
444.1926820817
 30
0.0
 11
147.4022712954
 21
459.6926820817
 31
0.0
  0
LINE
  5
2FD
330
1B
100
AcDbEntity
 67
     1
  8
3_ALL_AXES
  6
Continuous
 62
     7
100
AcDbLine
 10
195.1583406595
 20
459.6926820817
 30
0.0
 11
194.8927953448
 21
459.6926820817
 31
0.0
  0
LINE
  5
2FE
330
1B
100
AcDbEntity
 67
     1
  8
3_ALL_AXES
  6
Continuous
 62
     7
100
AcDbLine
 10
194.8927953448
 20
459.6926820817
 30
0.0
 11
189.8321581689
 21
459.6926820817
 31
0.0
  0
LINE
  5
2FF
330
1B
100
AcDbEntity
 67
     1
  8
3_ALL_AXES
  6
Continuous
 62
     7
100
AcDbLine
 10
189.8321581689
 20
459.6926820817
 30
0.0
 11
189.4022712954
 21
459.6926820817
 31
0.0
  0
LINE
  5
300
330
1B
100
AcDbEntity
 67
     1
  8
3_ALL_AXES
  6
Continuous
 62
     7
100
AcDbLine
 10
189.4022712954
 20
459.6926820817
 30
0.0
 11
189.0710318928
 21
459.6926820817
 31
0.0
  0
LINE
  5
301
330
1B
100
AcDbEntity
 67
     1
  8
3_ALL_AXES
  6
Continuous
 62
     7
100
AcDbLine
 10
189.0710318928
 20
459.6926820817
 30
0.0
 11
188.9022712954
 21
459.6926820817
 31
0.0
  0
LINE
  5
302
330
1B
100
AcDbEntity
 67
     1
  8
3_ALL_AXES
  6
Continuous
 62
     7
100
AcDbLine
 10
188.9022712954
 20
459.6926820817
 30
0.0
 11
188.5272712954
 21
459.6926820817
 31
0.0
  0
LINE
  5
303
330
1B
100
AcDbEntity
 67
     1
  8
3_ALL_AXES
  6
Continuous
 62
     7
100
AcDbLine
 10
188.5272712954
 20
459.6926820817
 30
0.0
 11
188.4920430281
 21
459.6926820817
 31
0.0
  0
LINE
  5
304
330
1B
100
AcDbEntity
 67
     1
  8
3_ALL_AXES
  6
Continuous
 62
     7
100
AcDbLine
 10
188.4920430281
 20
459.6926820817
 30
0.0
 11
187.3716579387
 21
459.6926820817
 31
0.0
  0
LINE
  5
305
330
1B
100
AcDbEntity
 67
     1
  8
3_ALL_AXES
  6
Continuous
 62
     7
100
AcDbLine
 10
334.8022712954
 20
459.6926820817
 30
0.0
 11
322.3022712954
 21
459.6926820817
 31
0.0
  0
LINE
  5
306
330
1B
100
AcDbEntity
 67
     1
  8
3_ALL_AXES
  6
Continuous
 62
     7
100
AcDbLine
 10
322.3022712954
 20
459.6926820817
 30
0.0
 11
206.5022712954
 21
459.6926820817
 31
0.0
  0
LINE
  5
307
330
1B
100
AcDbEntity
 67
     1
  8
3_ALL_AXES
  6
Continuous
 62
     7
100
AcDbLine
 10
206.5022712954
 20
459.6926820817
 30
0.0
 11
195.1583406595
 21
459.6926820817
 31
0.0
  0
LINE
  5
308
330
1B
100
AcDbEntity
 67
     1
  8
3_ALL_AXES
  6
Continuous
 62
     7
100
AcDbLine
 10
195.1583406595
 20
454.6926820817
 30
0.0
 11
189.0710318928
 21
454.6926820817
 31
0.0
  0
LINE
  5
309
330
1B
100
AcDbEntity
 67
     1
  8
3_ALL_AXES
  6
Continuous
 62
     7
100
AcDbLine
 10
189.0710318928
 20
454.6926820817
 30
0.0
 11
188.9022712954
 21
454.6926820817
 31
0.0
  0
LINE
  5
30A
330
1B
100
AcDbEntity
 67
     1
  8
3_ALL_AXES
  6
Continuous
 62
     7
100
AcDbLine
 10
188.9022712954
 20
454.6926820817
 30
0.0
 11
188.5272712954
 21
454.6926820817
 31
0.0
  0
LINE
  5
30B
330
1B
100
AcDbEntity
 67
     1
  8
3_ALL_AXES
  6
Continuous
 62
     7
100
AcDbLine
 10
188.5272712954
 20
454.6926820817
 30
0.0
 11
186.9022712954
 21
454.6926820817
 31
0.0
  0
LINE
  5
30C
330
1B
100
AcDbEntity
 67
     1
  8
3_ALL_AXES
  6
Continuous
 62
     7
100
AcDbLine
 10
186.9022712954
 20
454.6926820817
 30
0.0
 11
185.2772712954
 21
454.6926820817
 31
0.0
  0
LINE
  5
30D
330
1B
100
AcDbEntity
 67
     1
  8
3_ALL_AXES
  6
Continuous
 62
     7
100
AcDbLine
 10
185.2772712954
 20
454.6926820817
 30
0.0
 11
184.9022712954
 21
454.6926820817
 31
0.0
  0
LINE
  5
30E
330
1B
100
AcDbEntity
 67
     1
  8
3_ALL_AXES
  6
Continuous
 62
     7
100
AcDbLine
 10
184.9022712954
 20
454.6926820817
 30
0.0
 11
179.6026104976
 21
454.6926820817
 31
0.0
  0
LINE
  5
30F
330
1B
100
AcDbEntity
 67
     1
  8
3_ALL_AXES
  6
Continuous
 62
     7
100
AcDbLine
 10
206.5022712954
 20
454.6926820817
 30
0.0
 11
195.1583406595
 21
454.6926820817
 31
0.0
  0
LINE
  5
310
330
1B
100
AcDbEntity
 67
     1
  8
3_ALL_AXES
  6
Continuous
 62
     7
100
AcDbLine
 10
322.3022712954
 20
454.6926820817
 30
0.0
 11
206.5022712954
 21
454.6926820817
 31
0.0
  0
LINE
  5
311
330
1B
100
AcDbEntity
 67
     1
  8
3_ALL_AXES
  6
Continuous
 62
     7
100
AcDbLine
 10
334.8022712954
 20
454.6926820817
 30
0.0
 11
322.3022712954
 21
454.6926820817
 31
0.0
  0
LINE
  5
312
330
1B
100
AcDbEntity
 67
     1
  8
3_ALL_AXES
  6
Continuous
 62
     7
100
AcDbLine
 10
334.8022712954
 20
459.6926820817
 30
0.0
 11
334.8022712954
 21
454.6926820817
 31
0.0
  0
LINE
  5
313
330
1B
100
AcDbEntity
 67
     1
  8
3_ALL_AXES
  6
Continuous
 62
     7
100
AcDbLine
 10
179.6022712954
 20
459.6926820817
 30
0.0
 11
179.6022712954
 21
454.6926820817
 31
0.0
  0
LINE
  5
314
330
1B
100
AcDbEntity
 67
     1
  8
3_ALL_AXES
  6
Continuous
 62
     9
100
AcDbLine
 10
195.1583406595
 20
459.6926820817
 30
0.0
 11
195.1583406595
 21
454.6926820817
 31
0.0
  0
LINE
  5
315
330
1B
100
AcDbEntity
 67
     1
  8
3_ALL_AXES
  6
Continuous
 62
     9
100
AcDbLine
 10
322.3022712954
 20
459.6926820817
 30
0.0
 11
322.3022712954
 21
454.6926820817
 31
0.0
  0
LINE
  5
316
330
1B
100
AcDbEntity
 67
     1
  8
3_ALL_AXES
  6
Continuous
 62
     9
100
AcDbLine
 10
206.5022712954
 20
459.6926820817
 30
0.0
 11
206.5022712954
 21
454.6926820817
 31
0.0
  0
ARC
  5
317
330
1B
100
AcDbEntity
 67
     1
  8
3_ALL_AXES
  6
Continuous
 62
     7
100
AcDbCircle
 10
136.9022712954
 20
454.6926820817
 30
0.0
 40
10.0
100
AcDbArc
 50
90.0
 51
180.0
  0
LINE
  5
318
330
1B
100
AcDbEntity
 67
     1
  8
3_ALL_AXES
  6
Continuous
 62
     7
100
AcDbLine
 10
126.9022712954
 20
394.6926820817
 30
0.0
 11
126.9022712954
 21
379.6926820817
 31
0.0
  0
LINE
  5
319
330
1B
100
AcDbEntity
 67
     1
  8
3_ALL_AXES
  6
Continuous
 62
     7
100
AcDbLine
 10
187.3716579387
 20
464.6926820817
 30
0.0
 11
173.0636776762
 21
464.6926820817
 31
0.0
  0
LINE
  5
31A
330
1B
100
AcDbEntity
 67
     1
  8
3_ALL_AXES
  6
Continuous
 62
     7
100
AcDbLine
 10
334.8022712954
 20
459.6926820817
 30
0.0
 11
334.8022712954
 21
464.6926820817
 31
0.0
  0
LINE
  5
31B
330
1B
100
AcDbEntity
 67
     1
  8
3_ALL_AXES
  6
Continuous
 62
     7
100
AcDbLine
 10
126.9022712954
 20
454.6926820817
 30
0.0
 11
126.9022712954
 21
394.6926820817
 31
0.0
  0
LINE
  5
31C
330
1B
100
AcDbEntity
 67
     1
  8
3_ALL_AXES
  6
Continuous
 62
     7
100
AcDbLine
 10
187.3716579387
 20
464.6926820817
 30
0.0
 11
195.1708922024
 21
464.6926820817
 31
0.0
  0
LINE
  5
31D
330
1B
100
AcDbEntity
 67
     1
  8
3_ALL_AXES
  6
Continuous
 62
     7
100
AcDbLine
 10
195.1708922024
 20
464.6926820817
 30
0.0
 11
206.5145644699
 21
464.6926820817
 31
0.0
  0
LINE
  5
31E
330
1B
100
AcDbEntity
 67
     1
  8
3_ALL_AXES
  6
Continuous
 62
     7
100
AcDbLine
 10
206.5145644699
 20
464.6926820817
 30
0.0
 11
322.3022712954
 21
464.6926820817
 31
0.0
  0
LINE
  5
31F
330
1B
100
AcDbEntity
 67
     1
  8
3_ALL_AXES
  6
Continuous
 62
     7
100
AcDbLine
 10
322.3022712954
 20
464.6926820817
 30
0.0
 11
334.8022712954
 21
464.6926820817
 31
0.0
  0
LINE
  5
320
330
1B
100
AcDbEntity
 67
     1
  8
3_ALL_AXES
  6
Continuous
 62
     7
100
AcDbLine
 10
136.9022712954
 20
464.6926820817
 30
0.0
 11
173.0636776762
 21
464.6926820817
 31
0.0
  0
LINE
  5
321
330
1B
100
AcDbEntity
 67
     1
  8
3_ALL_AXES
  6
Continuous
 62
     7
100
AcDbLine
 10
131.9022712954
 20
379.6926820817
 30
0.0
 11
126.9022712954
 21
379.6926820817
 31
0.0
  0
LINE
  5
322
330
1B
100
AcDbEntity
 67
     1
  8
3_ALL_AXES
  6
Continuous
 62
     9
100
AcDbLine
 10
136.9022712954
 20
459.6926820817
 30
0.0
 11
136.9022712954
 21
464.6926820817
 31
0.0
  0
LINE
  5
323
330
1B
100
AcDbEntity
 67
     1
  8
3_ALL_AXES
  6
Continuous
 62
     9
100
AcDbLine
 10
173.0636776762
 20
459.6926820817
 30
0.0
 11
173.0636776762
 21
464.6926820817
 31
0.0
  0
LINE
  5
324
330
1B
100
AcDbEntity
 67
     1
  8
3_ALL_AXES
  6
Continuous
 62
     9
100
AcDbLine
 10
187.3716579387
 20
459.6926820817
 30
0.0
 11
187.3716579387
 21
464.6926820817
 31
0.0
  0
LINE
  5
325
330
1B
100
AcDbEntity
 67
     1
  8
3_ALL_AXES
  6
Continuous
 62
     9
100
AcDbLine
 10
195.1708922024
 20
459.6926820817
 30
0.0
 11
195.1708922024
 21
464.6926820817
 31
0.0
  0
LINE
  5
326
330
1B
100
AcDbEntity
 67
     1
  8
3_ALL_AXES
  6
Continuous
 62
     9
100
AcDbLine
 10
206.5145644699
 20
459.6926820817
 30
0.0
 11
206.5145644699
 21
464.6926820817
 31
0.0
  0
LINE
  5
327
330
1B
100
AcDbEntity
 67
     1
  8
3_ALL_AXES
  6
Continuous
 62
     9
100
AcDbLine
 10
322.3022712954
 20
459.6926820817
 30
0.0
 11
322.3022712954
 21
464.6926820817
 31
0.0
  0
LINE
  5
328
330
1B
100
AcDbEntity
 67
     1
  8
3_ALL_AXES
  6
Continuous
 62
     9
100
AcDbLine
 10
131.9022712954
 20
454.6926820817
 30
0.0
 11
126.9022712954
 21
454.6926820817
 31
0.0
  0
LINE
  5
329
330
1B
100
AcDbEntity
 67
     1
  8
3_ALL_AXES
  6
Continuous
 62
     9
100
AcDbLine
 10
131.9022712954
 20
394.6926820817
 30
0.0
 11
126.9022712954
 21
394.6926820817
 31
0.0
  0
LINE
  5
32A
330
1B
100
AcDbEntity
 67
     1
  8
3_ALL_AXES
  6
Continuous
 62
     3
100
AcDbLine
 10
136.9022712954
 20
459.6926820817
 30
0.0
 11
173.0636776762
 21
459.6926820817
 31
0.0
  0
LINE
  5
32B
330
1B
100
AcDbEntity
 67
     1
  8
3_ALL_AXES
  6
Continuous
 62
     3
100
AcDbLine
 10
187.3716579387
 20
459.6926820817
 30
0.0
 11
188.4920430281
 21
459.6926820817
 31
0.0
  0
LINE
  5
32C
330
1B
100
AcDbEntity
 67
     1
  8
3_ALL_AXES
  6
Continuous
 62
     3
100
AcDbLine
 10
188.4920430281
 20
459.6926820817
 30
0.0
 11
189.8321581689
 21
459.6926820817
 31
0.0
  0
LINE
  5
32D
330
1B
100
AcDbEntity
 67
     1
  8
3_ALL_AXES
  6
Continuous
 62
     3
100
AcDbLine
 10
189.8321581689
 20
459.6926820817
 30
0.0
 11
194.8927953448
 21
459.6926820817
 31
0.0
  0
LINE
  5
32E
330
1B
100
AcDbEntity
 67
     1
  8
3_ALL_AXES
  6
Continuous
 62
     3
100
AcDbLine
 10
194.8927953448
 20
459.6926820817
 30
0.0
 11
195.1708922024
 21
459.6926820817
 31
0.0
  0
LINE
  5
32F
330
1B
100
AcDbEntity
 67
     1
  8
3_ALL_AXES
  6
Continuous
 62
     3
100
AcDbLine
 10
195.1708922024
 20
459.6926820817
 30
0.0
 11
206.5145644699
 21
459.6926820817
 31
0.0
  0
LINE
  5
330
330
1B
100
AcDbEntity
 67
     1
  8
3_ALL_AXES
  6
Continuous
 62
     3
100
AcDbLine
 10
206.5145644699
 20
459.6926820817
 30
0.0
 11
322.3022712954
 21
459.6926820817
 31
0.0
  0
LINE
  5
331
330
1B
100
AcDbEntity
 67
     1
  8
3_ALL_AXES
  6
Continuous
 62
     3
100
AcDbLine
 10
322.3022712954
 20
459.6926820817
 30
0.0
 11
325.0837829698
 21
459.6926820817
 31
0.0
  0
LINE
  5
332
330
1B
100
AcDbEntity
 67
     1
  8
3_ALL_AXES
  6
Continuous
 62
     3
100
AcDbLine
 10
325.0837829698
 20
459.6926820817
 30
0.0
 11
327.7258180343
 21
459.6926820817
 31
0.0
  0
LINE
  5
333
330
1B
100
AcDbEntity
 67
     1
  8
3_ALL_AXES
  6
Continuous
 62
     3
100
AcDbLine
 10
327.7258180343
 20
459.6926820817
 30
0.0
 11
330.0958938186
 21
459.6926820817
 31
0.0
  0
LINE
  5
334
330
1B
100
AcDbEntity
 67
     1
  8
3_ALL_AXES
  6
Continuous
 62
     3
100
AcDbLine
 10
330.0958938186
 20
459.6926820817
 30
0.0
 11
332.0751648262
 21
459.6926820817
 31
0.0
  0
LINE
  5
335
330
1B
100
AcDbEntity
 67
     1
  8
3_ALL_AXES
  6
Continuous
 62
     3
100
AcDbLine
 10
332.0751648262
 20
459.6926820817
 30
0.0
 11
333.5643821441
 21
459.6926820817
 31
0.0
  0
LINE
  5
336
330
1B
100
AcDbEntity
 67
     1
  8
3_ALL_AXES
  6
Continuous
 62
     3
100
AcDbLine
 10
333.5643821441
 20
459.6926820817
 30
0.0
 11
334.4888701976
 21
459.6926820817
 31
0.0
  0
LINE
  5
337
330
1B
100
AcDbEntity
 67
     1
  8
3_ALL_AXES
  6
Continuous
 62
     3
100
AcDbLine
 10
334.4888701976
 20
459.6926820817
 30
0.0
 11
334.8022712954
 21
459.6926820817
 31
0.0
  0
LINE
  5
338
330
1B
100
AcDbEntity
 67
     1
  8
3_ALL_AXES
  6
Continuous
 62
     3
100
AcDbLine
 10
131.9022712954
 20
394.6926820817
 30
0.0
 11
131.9022712954
 21
379.6926820817
 31
0.0
  0
LINE
  5
339
330
1B
100
AcDbEntity
 67
     1
  8
3_ALL_AXES
  6
Continuous
 62
     3
100
AcDbLine
 10
131.9022712954
 20
454.6926820817
 30
0.0
 11
131.9022712954
 21
394.6926820817
 31
0.0
  0
ARC
  5
33A
330
1B
100
AcDbEntity
 67
     1
  8
3_ALL_AXES
  6
Continuous
 62
     3
100
AcDbCircle
 10
136.9022712954
 20
454.6926820817
 30
0.0
 40
5.0
100
AcDbArc
 50
90.0
 51
180.0
  0
LINE
  5
33B
330
1B
100
AcDbEntity
 67
     1
  8
3_ALL_AXES
  6
Continuous
 62
     3
100
AcDbLine
 10
187.3716579387
 20
459.6926820817
 30
0.0
 11
179.6026104976
 21
459.6926820817
 31
0.0
  0
LINE
  5
33C
330
1B
100
AcDbEntity
 67
     1
  8
3_ALL_AXES
  6
Continuous
 62
     3
100
AcDbLine
 10
179.6026104976
 20
459.6926820817
 30
0.0
 11
173.0636776762
 21
459.6926820817
 31
0.0
  0
ARC
  5
33D
330
1B
100
AcDbEntity
 67
     1
  8
0
  6
Continuous
 62
     2
100
AcDbCircle
 10
330.6522712954
 20
233.1887128276
 30
0.0
 40
2.0
100
AcDbArc
 50
270.0
 51
90.0
  0
ARC
  5
33E
330
1B
100
AcDbEntity
 67
     1
  8
0
  6
Continuous
 62
     2
100
AcDbCircle
 10
330.6522712954
 20
233.1887128276
 30
0.0
 40
2.0
100
AcDbArc
 50
255.0
 51
270.0
  0
ARC
  5
33F
330
1B
100
AcDbEntity
 67
     1
  8
0
  6
Continuous
 62
     2
100
AcDbCircle
 10
330.6522712954
 20
233.1887128276
 30
0.0
 40
2.0
100
AcDbArc
 50
90.0
 51
195.0
  0
ARC
  5
340
330
1B
100
AcDbEntity
 67
     1
  8
0
  6
Continuous
 62
     2
100
AcDbCircle
 10
330.6522712954
 20
161.1887128276
 30
0.0
 40
2.0
100
AcDbArc
 50
270.0
 51
90.0
  0
ARC
  5
341
330
1B
100
AcDbEntity
 67
     1
  8
0
  6
Continuous
 62
     2
100
AcDbCircle
 10
330.6522712954
 20
161.1887128276
 30
0.0
 40
2.0
100
AcDbArc
 50
255.0
 51
270.0
  0
ARC
  5
342
330
1B
100
AcDbEntity
 67
     1
  8
0
  6
Continuous
 62
     2
100
AcDbCircle
 10
330.6522712954
 20
161.1887128276
 30
0.0
 40
2.0
100
AcDbArc
 50
90.0
 51
195.0
  0
ARC
  5
343
330
1B
100
AcDbEntity
 67
     1
  8
0
  6
Continuous
 62
     2
100
AcDbCircle
 10
186.9022712954
 20
161.1887128276
 30
0.0
 40
2.0
100
AcDbArc
 50
270.0
 51
90.0
  0
ARC
  5
344
330
1B
100
AcDbEntity
 67
     1
  8
0
  6
Continuous
 62
     2
100
AcDbCircle
 10
186.9022712954
 20
161.1887128276
 30
0.0
 40
2.0
100
AcDbArc
 50
255.0
 51
270.0
  0
ARC
  5
345
330
1B
100
AcDbEntity
 67
     1
  8
0
  6
Continuous
 62
     2
100
AcDbCircle
 10
186.9022712954
 20
161.1887128276
 30
0.0
 40
2.0
100
AcDbArc
 50
90.0
 51
195.0
  0
ARC
  5
346
330
1B
100
AcDbEntity
 67
     1
  8
0
  6
Continuous
 62
     2
100
AcDbCircle
 10
186.9022712954
 20
161.1887128276
 30
0.0
 40
2.0
100
AcDbArc
 50
270.0
 51
90.0
  0
ARC
  5
347
330
1B
100
AcDbEntity
 67
     1
  8
0
  6
Continuous
 62
     2
100
AcDbCircle
 10
186.9022712954
 20
161.1887128276
 30
0.0
 40
2.0
100
AcDbArc
 50
255.0
 51
270.0
  0
ARC
  5
348
330
1B
100
AcDbEntity
 67
     1
  8
0
  6
Continuous
 62
     2
100
AcDbCircle
 10
186.9022712954
 20
161.1887128276
 30
0.0
 40
2.0
100
AcDbArc
 50
90.0
 51
195.0
  0
ARC
  5
349
330
1B
100
AcDbEntity
 67
     1
  8
0
  6
Continuous
 62
     2
100
AcDbCircle
 10
186.9022712954
 20
233.1887128276
 30
0.0
 40
2.0
100
AcDbArc
 50
270.0
 51
90.0
  0
ARC
  5
34A
330
1B
100
AcDbEntity
 67
     1
  8
0
  6
Continuous
 62
     2
100
AcDbCircle
 10
186.9022712954
 20
233.1887128276
 30
0.0
 40
2.0
100
AcDbArc
 50
255.0
 51
270.0
  0
ARC
  5
34B
330
1B
100
AcDbEntity
 67
     1
  8
0
  6
Continuous
 62
     2
100
AcDbCircle
 10
186.9022712954
 20
233.1887128276
 30
0.0
 40
2.0
100
AcDbArc
 50
90.0
 51
195.0
  0
LINE
  5
34C
330
1B
100
AcDbEntity
 67
     1
  8
7_ALL_FEATURES
  6
Continuous
 62
     7
100
AcDbLine
 10
308.6522712954
 20
133.9670249911
 30
0.0
 11
309.9022712954
 21
133.2453371546
 31
0.0
  0
LINE
  5
34D
330
1B
100
AcDbEntity
 67
     1
  8
7_ALL_FEATURES
  6
Continuous
 62
     7
100
AcDbLine
 10
309.9022712954
 20
133.2453371546
 30
0.0
 11
311.1522712954
 21
133.9670249911
 31
0.0
  0
LINE
  5
34E
330
1B
100
AcDbEntity
 67
     1
  8
7_ALL_FEATURES
  6
Continuous
 62
     7
100
AcDbLine
 10
311.1522712954
 20
133.9670249911
 30
0.0
 11
311.1522712954
 21
135.4104006641
 31
0.0
  0
LINE
  5
34F
330
1B
100
AcDbEntity
 67
     1
  8
7_ALL_FEATURES
  6
Continuous
 62
     7
100
AcDbLine
 10
311.1522712954
 20
135.4104006641
 30
0.0
 11
309.9022712954
 21
136.1320885006
 31
0.0
  0
LINE
  5
350
330
1B
100
AcDbEntity
 67
     1
  8
7_ALL_FEATURES
  6
Continuous
 62
     7
100
AcDbLine
 10
309.9022712954
 20
136.1320885006
 30
0.0
 11
308.6522712954
 21
135.4104006641
 31
0.0
  0
LINE
  5
351
330
1B
100
AcDbEntity
 67
     1
  8
7_ALL_FEATURES
  6
Continuous
 62
     7
100
AcDbLine
 10
308.6522712954
 20
135.4104006641
 30
0.0
 11
308.6522712954
 21
133.9670249911
 31
0.0
  0
ARC
  5
352
330
1B
100
AcDbEntity
 67
     1
  8
3_ALL_AXES
  6
Continuous
 62
     7
100
AcDbCircle
 10
309.9022712954
 20
134.6887128276
 30
0.0
 40
4.0
100
AcDbArc
 50
90.0
 51
270.0
  0
ARC
  5
353
330
1B
100
AcDbEntity
 67
     1
  8
3_ALL_AXES
  6
Continuous
 62
     7
100
AcDbCircle
 10
309.9022712954
 20
134.6887128276
 30
0.0
 40
4.0
100
AcDbArc
 50
270.0
 51
90.0
  0
LINE
  5
354
330
1B
100
AcDbEntity
 67
     1
  8
7_ALL_FEATURES
  6
Continuous
 62
     7
100
AcDbLine
 10
228.6522712954
 20
133.9670249911
 30
0.0
 11
229.9022712954
 21
133.2453371546
 31
0.0
  0
LINE
  5
355
330
1B
100
AcDbEntity
 67
     1
  8
7_ALL_FEATURES
  6
Continuous
 62
     7
100
AcDbLine
 10
229.9022712954
 20
133.2453371546
 30
0.0
 11
231.1522712954
 21
133.9670249911
 31
0.0
  0
LINE
  5
356
330
1B
100
AcDbEntity
 67
     1
  8
7_ALL_FEATURES
  6
Continuous
 62
     7
100
AcDbLine
 10
231.1522712954
 20
133.9670249911
 30
0.0
 11
231.1522712954
 21
135.4104006641
 31
0.0
  0
LINE
  5
357
330
1B
100
AcDbEntity
 67
     1
  8
7_ALL_FEATURES
  6
Continuous
 62
     7
100
AcDbLine
 10
231.1522712954
 20
135.4104006641
 30
0.0
 11
229.9022712954
 21
136.1320885006
 31
0.0
  0
LINE
  5
358
330
1B
100
AcDbEntity
 67
     1
  8
7_ALL_FEATURES
  6
Continuous
 62
     7
100
AcDbLine
 10
229.9022712954
 20
136.1320885006
 30
0.0
 11
228.6522712954
 21
135.4104006641
 31
0.0
  0
LINE
  5
359
330
1B
100
AcDbEntity
 67
     1
  8
7_ALL_FEATURES
  6
Continuous
 62
     7
100
AcDbLine
 10
228.6522712954
 20
135.4104006641
 30
0.0
 11
228.6522712954
 21
133.9670249911
 31
0.0
  0
ARC
  5
35A
330
1B
100
AcDbEntity
 67
     1
  8
3_ALL_AXES
  6
Continuous
 62
     7
100
AcDbCircle
 10
229.9022712954
 20
134.6887128276
 30
0.0
 40
4.0
100
AcDbArc
 50
90.0
 51
270.0
  0
ARC
  5
35B
330
1B
100
AcDbEntity
 67
     1
  8
3_ALL_AXES
  6
Continuous
 62
     7
100
AcDbCircle
 10
229.9022712954
 20
134.6887128276
 30
0.0
 40
4.0
100
AcDbArc
 50
270.0
 51
90.0
  0
LINE
  5
35C
330
1B
100
AcDbEntity
 67
     1
  8
7_ALL_FEATURES
  6
Continuous
 62
     7
100
AcDbLine
 10
228.6522712954
 20
258.9670249911
 30
0.0
 11
229.9022712954
 21
258.2453371546
 31
0.0
  0
LINE
  5
35D
330
1B
100
AcDbEntity
 67
     1
  8
7_ALL_FEATURES
  6
Continuous
 62
     7
100
AcDbLine
 10
229.9022712954
 20
258.2453371546
 30
0.0
 11
231.1522712954
 21
258.9670249911
 31
0.0
  0
LINE
  5
35E
330
1B
100
AcDbEntity
 67
     1
  8
7_ALL_FEATURES
  6
Continuous
 62
     7
100
AcDbLine
 10
231.1522712954
 20
258.9670249911
 30
0.0
 11
231.1522712954
 21
260.4104006641
 31
0.0
  0
LINE
  5
35F
330
1B
100
AcDbEntity
 67
     1
  8
7_ALL_FEATURES
  6
Continuous
 62
     7
100
AcDbLine
 10
231.1522712954
 20
260.4104006641
 30
0.0
 11
229.9022712954
 21
261.1320885006
 31
0.0
  0
LINE
  5
360
330
1B
100
AcDbEntity
 67
     1
  8
7_ALL_FEATURES
  6
Continuous
 62
     7
100
AcDbLine
 10
229.9022712954
 20
261.1320885006
 30
0.0
 11
228.6522712954
 21
260.4104006641
 31
0.0
  0
LINE
  5
361
330
1B
100
AcDbEntity
 67
     1
  8
7_ALL_FEATURES
  6
Continuous
 62
     7
100
AcDbLine
 10
228.6522712954
 20
260.4104006641
 30
0.0
 11
228.6522712954
 21
258.9670249911
 31
0.0
  0
ARC
  5
362
330
1B
100
AcDbEntity
 67
     1
  8
3_ALL_AXES
  6
Continuous
 62
     7
100
AcDbCircle
 10
229.9022712954
 20
259.6887128276
 30
0.0
 40
4.0
100
AcDbArc
 50
90.0
 51
270.0
  0
ARC
  5
363
330
1B
100
AcDbEntity
 67
     1
  8
3_ALL_AXES
  6
Continuous
 62
     7
100
AcDbCircle
 10
229.9022712954
 20
259.6887128276
 30
0.0
 40
4.0
100
AcDbArc
 50
270.0
 51
90.0
  0
LINE
  5
364
330
1B
100
AcDbEntity
 67
     1
  8
7_ALL_FEATURES
  6
Continuous
 62
     7
100
AcDbLine
 10
308.6522712954
 20
258.9670249911
 30
0.0
 11
309.9022712954
 21
258.2453371546
 31
0.0
  0
LINE
  5
365
330
1B
100
AcDbEntity
 67
     1
  8
7_ALL_FEATURES
  6
Continuous
 62
     7
100
AcDbLine
 10
309.9022712954
 20
258.2453371546
 30
0.0
 11
311.1522712954
 21
258.9670249911
 31
0.0
  0
LINE
  5
366
330
1B
100
AcDbEntity
 67
     1
  8
7_ALL_FEATURES
  6
Continuous
 62
     7
100
AcDbLine
 10
311.1522712954
 20
258.9670249911
 30
0.0
 11
311.1522712954
 21
260.4104006641
 31
0.0
  0
LINE
  5
367
330
1B
100
AcDbEntity
 67
     1
  8
7_ALL_FEATURES
  6
Continuous
 62
     7
100
AcDbLine
 10
311.1522712954
 20
260.4104006641
 30
0.0
 11
309.9022712954
 21
261.1320885006
 31
0.0
  0
LINE
  5
368
330
1B
100
AcDbEntity
 67
     1
  8
7_ALL_FEATURES
  6
Continuous
 62
     7
100
AcDbLine
 10
309.9022712954
 20
261.1320885006
 30
0.0
 11
308.6522712954
 21
260.4104006641
 31
0.0
  0
LINE
  5
369
330
1B
100
AcDbEntity
 67
     1
  8
7_ALL_FEATURES
  6
Continuous
 62
     7
100
AcDbLine
 10
308.6522712954
 20
260.4104006641
 30
0.0
 11
308.6522712954
 21
258.9670249911
 31
0.0
  0
ARC
  5
36A
330
1B
100
AcDbEntity
 67
     1
  8
3_ALL_AXES
  6
Continuous
 62
     7
100
AcDbCircle
 10
309.9022712954
 20
259.6887128276
 30
0.0
 40
4.0
100
AcDbArc
 50
90.0
 51
270.0
  0
ARC
  5
36B
330
1B
100
AcDbEntity
 67
     1
  8
3_ALL_AXES
  6
Continuous
 62
     7
100
AcDbCircle
 10
309.9022712954
 20
259.6887128276
 30
0.0
 40
4.0
100
AcDbArc
 50
270.0
 51
90.0
  0
LINE
  5
36C
330
1B
100
AcDbEntity
 67
     1
  8
7_ALL_FEATURES
  6
Continuous
 62
     7
100
AcDbLine
 10
157.4022712954
 20
222.4387128276
 30
0.0
 11
157.4022712954
 21
227.4387128276
 31
0.0
  0
LINE
  5
36D
330
1B
100
AcDbEntity
 67
     1
  8
7_ALL_FEATURES
  6
Continuous
 62
     7
100
AcDbLine
 10
147.4022712954
 20
222.4387128276
 30
0.0
 11
147.4022712954
 21
227.4387128276
 31
0.0
  0
LINE
  5
36E
330
1B
100
AcDbEntity
 67
     1
  8
7_ALL_FEATURES
  6
Continuous
 62
     7
100
AcDbLine
 10
157.4022712954
 20
227.4387128276
 30
0.0
 11
157.9022712954
 21
227.4387128276
 31
0.0
  0
LINE
  5
36F
330
1B
100
AcDbEntity
 67
     1
  8
7_ALL_FEATURES
  6
Continuous
 62
     7
100
AcDbLine
 10
147.4022712954
 20
227.4387128276
 30
0.0
 11
157.4022712954
 21
227.4387128276
 31
0.0
  0
LINE
  5
370
330
1B
100
AcDbEntity
 67
     1
  8
7_ALL_FEATURES
  6
Continuous
 62
     7
100
AcDbLine
 10
146.9022712954
 20
227.4387128276
 30
0.0
 11
147.4022712954
 21
227.4387128276
 31
0.0
  0
LINE
  5
371
330
1B
100
AcDbEntity
 67
     1
  8
7_ALL_FEATURES
  6
Continuous
 62
     7
100
AcDbLine
 10
157.4022712954
 20
166.4387128276
 30
0.0
 11
157.4022712954
 21
171.4387128276
 31
0.0
  0
LINE
  5
372
330
1B
100
AcDbEntity
 67
     1
  8
7_ALL_FEATURES
  6
Continuous
 62
     7
100
AcDbLine
 10
147.4022712954
 20
166.4387128276
 30
0.0
 11
147.4022712954
 21
171.4387128276
 31
0.0
  0
LINE
  5
373
330
1B
100
AcDbEntity
 67
     1
  8
7_ALL_FEATURES
  6
Continuous
 62
     7
100
AcDbLine
 10
157.4022712954
 20
171.4387128276
 30
0.0
 11
157.9022712954
 21
171.4387128276
 31
0.0
  0
LINE
  5
374
330
1B
100
AcDbEntity
 67
     1
  8
7_ALL_FEATURES
  6
Continuous
 62
     7
100
AcDbLine
 10
147.4022712954
 20
171.4387128276
 30
0.0
 11
157.4022712954
 21
171.4387128276
 31
0.0
  0
LINE
  5
375
330
1B
100
AcDbEntity
 67
     1
  8
7_ALL_FEATURES
  6
Continuous
 62
     7
100
AcDbLine
 10
146.9022712954
 20
171.4387128276
 30
0.0
 11
147.4022712954
 21
171.4387128276
 31
0.0
  0
LINE
  5
376
330
1B
100
AcDbEntity
 67
     1
  8
02___PRT_ALL_AXES
  6
Continuous
 62
     7
100
AcDbLine
 10
119.9022712954
 20
197.1887128276
 30
0.0
 11
119.9022712954
 21
205.4387128276
 31
0.0
  0
LINE
  5
377
330
1B
100
AcDbEntity
 67
     1
  8
02___PRT_ALL_AXES
  6
Continuous
 62
     7
100
AcDbLine
 10
119.9022712954
 20
205.4387128276
 30
0.0
 11
119.9022712954
 21
208.1387128276
 31
0.0
  0
LINE
  5
378
330
1B
100
AcDbEntity
 67
     1
  8
02___PRT_ALL_AXES
  6
Continuous
 62
     7
100
AcDbLine
 10
119.9022712954
 20
208.1387128276
 30
0.0
 11
119.9022712954
 21
209.1887117497
 31
0.0
  0
LINE
  5
379
330
1B
100
AcDbEntity
 67
     1
  8
02___PRT_ALL_AXES
  6
Continuous
 62
     7
100
AcDbLine
 10
126.9022712954
 20
185.1887128276
 30
0.0
 11
119.9022712954
 21
185.1887128276
 31
0.0
  0
LINE
  5
37A
330
1B
100
AcDbEntity
 67
     1
  8
02___PRT_ALL_AXES
  6
Continuous
 62
     7
100
AcDbLine
 10
126.9022712954
 20
209.1887128276
 30
0.0
 11
119.9022712954
 21
209.1887128276
 31
0.0
  0
LINE
  5
37B
330
1B
100
AcDbEntity
 67
     1
  8
02___PRT_ALL_AXES
  6
Continuous
 62
     7
100
AcDbLine
 10
119.9022712954
 20
185.1887139055
 30
0.0
 11
119.9022712954
 21
186.2387128276
 31
0.0
  0
LINE
  5
37C
330
1B
100
AcDbEntity
 67
     1
  8
02___PRT_ALL_AXES
  6
Continuous
 62
     7
100
AcDbLine
 10
119.9022712954
 20
186.2387128276
 30
0.0
 11
119.9022712954
 21
188.9387128276
 31
0.0
  0
LINE
  5
37D
330
1B
100
AcDbEntity
 67
     1
  8
02___PRT_ALL_AXES
  6
Continuous
 62
     7
100
AcDbLine
 10
119.9022712954
 20
188.9387128276
 30
0.0
 11
119.9022712954
 21
197.1887128276
 31
0.0
  0
ARC
  5
37E
330
1B
100
AcDbEntity
 67
     1
  8
3_ALL_AXES
  6
Continuous
 62
     7
100
AcDbCircle
 10
186.9022712954
 20
161.1887128276
 30
0.0
 40
1.625
100
AcDbArc
 50
0.0
 51
180.0
  0
ARC
  5
37F
330
1B
100
AcDbEntity
 67
     1
  8
3_ALL_AXES
  6
Continuous
 62
     7
100
AcDbCircle
 10
186.9022712954
 20
161.1887128276
 30
0.0
 40
1.625
100
AcDbArc
 50
180.0
 51
360.0
  0
ARC
  5
380
330
1B
100
AcDbEntity
 67
     1
  8
3_ALL_AXES
  6
Continuous
 62
     7
100
AcDbCircle
 10
186.9022712954
 20
233.1887128276
 30
0.0
 40
1.625
100
AcDbArc
 50
0.0
 51
180.0
  0
ARC
  5
381
330
1B
100
AcDbEntity
 67
     1
  8
3_ALL_AXES
  6
Continuous
 62
     7
100
AcDbCircle
 10
186.9022712954
 20
233.1887128276
 30
0.0
 40
1.625
100
AcDbArc
 50
180.0
 51
360.0
  0
ARC
  5
382
330
1B
100
AcDbEntity
 67
     1
  8
3_ALL_AXES
  6
Continuous
 62
     7
100
AcDbCircle
 10
330.6522712954
 20
233.1887128276
 30
0.0
 40
1.6
100
AcDbArc
 50
90.0
 51
270.0
  0
ARC
  5
383
330
1B
100
AcDbEntity
 67
     1
  8
3_ALL_AXES
  6
Continuous
 62
     7
100
AcDbCircle
 10
330.6522712954
 20
233.1887128276
 30
0.0
 40
1.6
100
AcDbArc
 50
270.0
 51
90.0
  0
ARC
  5
384
330
1B
100
AcDbEntity
 67
     1
  8
3_ALL_AXES
  6
Continuous
 62
     7
100
AcDbCircle
 10
330.6522712954
 20
161.1887128276
 30
0.0
 40
1.6
100
AcDbArc
 50
90.0
 51
270.0
  0
ARC
  5
385
330
1B
100
AcDbEntity
 67
     1
  8
3_ALL_AXES
  6
Continuous
 62
     7
100
AcDbCircle
 10
330.6522712954
 20
161.1887128276
 30
0.0
 40
1.6
100
AcDbArc
 50
270.0
 51
90.0
  0
LINE
  5
386
330
1B
100
AcDbEntity
 67
     1
  8
3_ALL_AXES
  6
Continuous
 62
     7
100
AcDbLine
 10
136.9022712954
 20
237.1887128276
 30
0.0
 11
131.9022712954
 21
237.1887128276
 31
0.0
  0
LINE
  5
387
330
1B
100
AcDbEntity
 67
     1
  8
3_ALL_AXES
  6
Continuous
 62
     7
100
AcDbLine
 10
131.9022712954
 20
237.1887128276
 30
0.0
 11
126.9022712954
 21
237.1887128276
 31
0.0
  0
LINE
  5
388
330
1B
100
AcDbEntity
 67
     1
  8
3_ALL_AXES
  6
Continuous
 62
     7
100
AcDbLine
 10
126.9022712954
 20
157.1887128276
 30
0.0
 11
131.9022712954
 21
157.1887128276
 31
0.0
  0
LINE
  5
389
330
1B
100
AcDbEntity
 67
     1
  8
3_ALL_AXES
  6
Continuous
 62
     7
100
AcDbLine
 10
131.9022712954
 20
157.1887128276
 30
0.0
 11
136.9022712954
 21
157.1887128276
 31
0.0
  0
LINE
  5
38A
330
1B
100
AcDbEntity
 67
     1
  8
3_ALL_AXES
  6
Continuous
 62
     7
100
AcDbLine
 10
126.9022712954
 20
237.1887128276
 30
0.0
 11
126.9022712954
 21
157.1887128276
 31
0.0
  0
LINE
  5
38B
330
1B
100
AcDbEntity
 67
     1
  8
7_ALL_FEATURES
  6
Continuous
 62
     7
100
AcDbLine
 10
146.9022712954
 20
171.9387128276
 30
0.0
 11
146.9022712954
 21
166.4387128276
 31
0.0
  0
LINE
  5
38C
330
1B
100
AcDbEntity
 67
     1
  8
7_ALL_FEATURES
  6
Continuous
 62
     7
100
AcDbLine
 10
146.9022712954
 20
171.9387128276
 30
0.0
 11
157.9022712954
 21
171.9387128276
 31
0.0
  0
LINE
  5
38D
330
1B
100
AcDbEntity
 67
     1
  8
7_ALL_FEATURES
  6
Continuous
 62
     7
100
AcDbLine
 10
157.9022712954
 20
171.9387128276
 30
0.0
 11
157.9022712954
 21
166.4387128276
 31
0.0
  0
LINE
  5
38E
330
1B
100
AcDbEntity
 67
     1
  8
7_ALL_FEATURES
  6
Continuous
 62
     7
100
AcDbLine
 10
146.9022712954
 20
166.4387128276
 30
0.0
 11
157.9022712954
 21
166.4387128276
 31
0.0
  0
LINE
  5
38F
330
1B
100
AcDbEntity
 67
     1
  8
7_ALL_FEATURES
  6
Continuous
 62
     7
100
AcDbLine
 10
146.9022712954
 20
227.9387128276
 30
0.0
 11
146.9022712954
 21
222.4387128276
 31
0.0
  0
LINE
  5
390
330
1B
100
AcDbEntity
 67
     1
  8
7_ALL_FEATURES
  6
Continuous
 62
     7
100
AcDbLine
 10
157.9022712954
 20
227.9387128276
 30
0.0
 11
146.9022712954
 21
227.9387128276
 31
0.0
  0
LINE
  5
391
330
1B
100
AcDbEntity
 67
     1
  8
7_ALL_FEATURES
  6
Continuous
 62
     7
100
AcDbLine
 10
157.9022712954
 20
227.9387128276
 30
0.0
 11
157.9022712954
 21
222.4387128276
 31
0.0
  0
LINE
  5
392
330
1B
100
AcDbEntity
 67
     1
  8
7_ALL_FEATURES
  6
Continuous
 62
     7
100
AcDbLine
 10
157.9022712954
 20
222.4387128276
 30
0.0
 11
146.9022712954
 21
222.4387128276
 31
0.0
  0
ARC
  5
393
330
1B
100
AcDbEntity
 67
     1
  8
3_ALL_AXES
  6
Continuous
 62
     7
100
AcDbCircle
 10
165.9022712954
 20
197.1887128276
 30
0.0
 40
12.0
100
AcDbArc
 50
90.0
 51
270.0
  0
ARC
  5
394
330
1B
100
AcDbEntity
 67
     1
  8
3_ALL_AXES
  6
Continuous
 62
     7
100
AcDbCircle
 10
165.9022712954
 20
197.1887128276
 30
0.0
 40
12.0
100
AcDbArc
 50
270.0
 51
90.0
  0
LINE
  5
395
330
1B
100
AcDbEntity
 67
     1
  8
3_ALL_AXES
  6
Continuous
 62
     7
100
AcDbLine
 10
220.9022712954
 20
237.1887128276
 30
0.0
 11
207.9022712954
 21
237.1887128276
 31
0.0
  0
ARC
  5
396
330
1B
100
AcDbEntity
 67
     1
  8
3_ALL_AXES
  6
Continuous
 62
     7
100
AcDbCircle
 10
220.9022712954
 20
231.1887128276
 30
0.0
 40
6.0
100
AcDbArc
 50
0.0
 51
90.0
  0
LINE
  5
397
330
1B
100
AcDbEntity
 67
     1
  8
3_ALL_AXES
  6
Continuous
 62
     7
100
AcDbLine
 10
226.9022712954
 20
163.1887128276
 30
0.0
 11
226.9022712954
 21
231.1887128276
 31
0.0
  0
ARC
  5
398
330
1B
100
AcDbEntity
 67
     1
  8
3_ALL_AXES
  6
Continuous
 62
     7
100
AcDbCircle
 10
220.9022712954
 20
163.1887128276
 30
0.0
 40
6.0
100
AcDbArc
 50
270.0
 51
360.0
  0
LINE
  5
399
330
1B
100
AcDbEntity
 67
     1
  8
3_ALL_AXES
  6
Continuous
 62
     7
100
AcDbLine
 10
207.9022712954
 20
157.1887128276
 30
0.0
 11
220.9022712954
 21
157.1887128276
 31
0.0
  0
ARC
  5
39A
330
1B
100
AcDbEntity
 67
     1
  8
3_ALL_AXES
  6
Continuous
 62
     7
100
AcDbCircle
 10
207.9022712954
 20
163.1887128276
 30
0.0
 40
6.0
100
AcDbArc
 50
180.0
 51
270.0
  0
LINE
  5
39B
330
1B
100
AcDbEntity
 67
     1
  8
3_ALL_AXES
  6
Continuous
 62
     7
100
AcDbLine
 10
201.9022712954
 20
231.1887128276
 30
0.0
 11
201.9022712954
 21
163.1887128276
 31
0.0
  0
ARC
  5
39C
330
1B
100
AcDbEntity
 67
     1
  8
3_ALL_AXES
  6
Continuous
 62
     7
100
AcDbCircle
 10
207.9022712954
 20
231.1887128276
 30
0.0
 40
6.0
100
AcDbArc
 50
90.0
 51
180.0
  0
ARC
  5
39D
330
1B
100
AcDbEntity
 67
     1
  8
3_ALL_AXES
  6
Continuous
 62
     7
100
AcDbCircle
 10
186.9022712954
 20
161.1887128276
 30
0.0
 40
2.5
100
AcDbArc
 50
90.0
 51
270.0
  0
ARC
  5
39E
330
1B
100
AcDbEntity
 67
     1
  8
3_ALL_AXES
  6
Continuous
 62
     7
100
AcDbCircle
 10
186.9022712954
 20
161.1887128276
 30
0.0
 40
2.5
100
AcDbArc
 50
270.0
 51
90.0
  0
ARC
  5
39F
330
1B
100
AcDbEntity
 67
     1
  8
3_ALL_AXES
  6
Continuous
 62
     7
100
AcDbCircle
 10
186.9022712954
 20
233.1887128276
 30
0.0
 40
2.5
100
AcDbArc
 50
90.0
 51
270.0
  0
ARC
  5
3A0
330
1B
100
AcDbEntity
 67
     1
  8
3_ALL_AXES
  6
Continuous
 62
     7
100
AcDbCircle
 10
186.9022712954
 20
233.1887128276
 30
0.0
 40
2.5
100
AcDbArc
 50
270.0
 51
90.0
  0
ARC
  5
3A1
330
1B
100
AcDbEntity
 67
     1
  8
3_ALL_AXES
  6
Continuous
 62
     7
100
AcDbCircle
 10
330.6522712954
 20
161.1887128276
 30
0.0
 40
2.5
100
AcDbArc
 50
90.0
 51
270.0
  0
ARC
  5
3A2
330
1B
100
AcDbEntity
 67
     1
  8
3_ALL_AXES
  6
Continuous
 62
     7
100
AcDbCircle
 10
330.6522712954
 20
161.1887128276
 30
0.0
 40
2.5
100
AcDbArc
 50
270.0
 51
90.0
  0
ARC
  5
3A3
330
1B
100
AcDbEntity
 67
     1
  8
3_ALL_AXES
  6
Continuous
 62
     7
100
AcDbCircle
 10
330.6522712954
 20
233.1887128276
 30
0.0
 40
2.5
100
AcDbArc
 50
90.0
 51
270.0
  0
ARC
  5
3A4
330
1B
100
AcDbEntity
 67
     1
  8
3_ALL_AXES
  6
Continuous
 62
     7
100
AcDbCircle
 10
330.6522712954
 20
233.1887128276
 30
0.0
 40
2.5
100
AcDbArc
 50
270.0
 51
90.0
  0
ARC
  5
3A5
330
1B
100
AcDbEntity
 67
     1
  8
3_ALL_AXES
  6
Continuous
 62
     7
100
AcDbCircle
 10
347.8022712954
 20
197.1887128276
 30
0.0
 40
168.19
100
AcDbArc
 50
197.4717020305
 51
204.8387237815
  0
ARC
  5
3A6
330
1B
100
AcDbEntity
 67
     1
  8
3_ALL_AXES
  6
Continuous
 62
     7
100
AcDbCircle
 10
206.5145644699
 20
131.7887128276
 30
0.0
 40
12.5
100
AcDbArc
 50
204.8387237815
 51
270.0
  0
LINE
  5
3A7
330
1B
100
AcDbEntity
 67
     1
  8
3_ALL_AXES
  6
Continuous
 62
     7
100
AcDbLine
 10
206.5145644699
 20
119.2887128276
 30
0.0
 11
322.3022712954
 21
119.2887128276
 31
0.0
  0
ARC
  5
3A8
330
1B
100
AcDbEntity
 67
     1
  8
3_ALL_AXES
  6
Continuous
 62
     7
100
AcDbCircle
 10
322.3022712954
 20
131.7887128276
 30
0.0
 40
12.5
100
AcDbArc
 50
270.0
 51
360.0
  0
LINE
  5
3A9
330
1B
100
AcDbEntity
 67
     1
  8
3_ALL_AXES
  6
Continuous
 62
     7
100
AcDbLine
 10
334.8022712954
 20
131.7887128276
 30
0.0
 11
334.8022712954
 21
262.5887128276
 31
0.0
  0
ARC
  5
3AA
330
1B
100
AcDbEntity
 67
     1
  8
3_ALL_AXES
  6
Continuous
 62
     7
100
AcDbCircle
 10
322.3022712954
 20
262.5887128276
 30
0.0
 40
12.5
100
AcDbArc
 50
0.0
 51
90.0
  0
LINE
  5
3AB
330
1B
100
AcDbEntity
 67
     1
  8
3_ALL_AXES
  6
Continuous
 62
     7
100
AcDbLine
 10
322.3022712954
 20
275.0887128276
 30
0.0
 11
206.5145644699
 21
275.0887128276
 31
0.0
  0
ARC
  5
3AC
330
1B
100
AcDbEntity
 67
     1
  8
3_ALL_AXES
  6
Continuous
 62
     7
100
AcDbCircle
 10
206.5145644699
 20
262.5887128276
 30
0.0
 40
12.5
100
AcDbArc
 50
90.0
 51
155.1612762185
  0
ARC
  5
3AD
330
1B
100
AcDbEntity
 67
     1
  8
3_ALL_AXES
  6
Continuous
 62
     7
100
AcDbCircle
 10
347.8022712954
 20
197.1887128276
 30
0.0
 40
168.19
100
AcDbArc
 50
155.1612762185
 51
162.5282979695
  0
LINE
  5
3AE
330
1B
100
AcDbEntity
 67
     1
  8
3_ALL_AXES
  6
Continuous
 62
     7
100
AcDbLine
 10
173.0636776762
 20
237.1887128276
 30
0.0
 11
136.9022712954
 21
237.1887128276
 31
0.0
  0
LINE
  5
3AF
330
1B
100
AcDbEntity
 67
     1
  8
3_ALL_AXES
  6
Continuous
 62
     7
100
AcDbLine
 10
136.9022712954
 20
157.1887128276
 30
0.0
 11
173.0636776762
 21
157.1887128276
 31
0.0
  0
ARC
  5
3B0
330
1B
100
AcDbEntity
 67
     1
  8
3_ALL_AXES
  6
Continuous
 62
     7
100
AcDbCircle
 10
173.0636776762
 20
142.1887128276
 30
0.0
 40
15.0
100
AcDbArc
 50
17.4717020305
 51
90.0
  0
ARC
  5
3B1
330
1B
100
AcDbEntity
 67
     1
  8
3_ALL_AXES
  6
Continuous
 62
     7
100
AcDbCircle
 10
173.0636776762
 20
252.1887128276
 30
0.0
 40
15.0
100
AcDbArc
 50
270.0
 51
342.5282979694999
  0
LINE
  5
3B2
330
1B
100
AcDbEntity
 67
     1
  8
3_ALL_AXES
  6
Continuous
 62
     9
100
AcDbLine
 10
136.9022712954
 20
237.1887128276
 30
0.0
 11
136.9022712954
 21
157.1887128276
 31
0.0
  0
ARC
  5
3B3
330
1B
100
AcDbEntity
 67
     1
  8
7_ALL_FEATURES
  6
Continuous
 62
     7
100
AcDbCircle
 10
309.9022712954
 20
134.6887128276
 30
0.0
 40
4.25
100
AcDbArc
 50
90.0
 51
270.0
  0
ARC
  5
3B4
330
1B
100
AcDbEntity
 67
     1
  8
7_ALL_FEATURES
  6
Continuous
 62
     7
100
AcDbCircle
 10
309.9022712954
 20
134.6887128276
 30
0.0
 40
4.25
100
AcDbArc
 50
270.0
 51
90.0
  0
ARC
  5
3B5
330
1B
100
AcDbEntity
 67
     1
  8
7_ALL_FEATURES
  6
Continuous
 62
     7
100
AcDbCircle
 10
229.9022712954
 20
134.6887128276
 30
0.0
 40
4.25
100
AcDbArc
 50
90.0
 51
270.0
  0
ARC
  5
3B6
330
1B
100
AcDbEntity
 67
     1
  8
7_ALL_FEATURES
  6
Continuous
 62
     7
100
AcDbCircle
 10
229.9022712954
 20
134.6887128276
 30
0.0
 40
4.25
100
AcDbArc
 50
270.0
 51
90.0
  0
ARC
  5
3B7
330
1B
100
AcDbEntity
 67
     1
  8
7_ALL_FEATURES
  6
Continuous
 62
     7
100
AcDbCircle
 10
229.9022712954
 20
259.6887128276
 30
0.0
 40
4.25
100
AcDbArc
 50
90.0
 51
270.0
  0
ARC
  5
3B8
330
1B
100
AcDbEntity
 67
     1
  8
7_ALL_FEATURES
  6
Continuous
 62
     7
100
AcDbCircle
 10
229.9022712954
 20
259.6887128276
 30
0.0
 40
4.25
100
AcDbArc
 50
270.0
 51
90.0
  0
ARC
  5
3B9
330
1B
100
AcDbEntity
 67
     1
  8
7_ALL_FEATURES
  6
Continuous
 62
     7
100
AcDbCircle
 10
309.9022712954
 20
259.6887128276
 30
0.0
 40
4.25
100
AcDbArc
 50
90.0
 51
270.0
  0
ARC
  5
3BA
330
1B
100
AcDbEntity
 67
     1
  8
7_ALL_FEATURES
  6
Continuous
 62
     7
100
AcDbCircle
 10
309.9022712954
 20
259.6887128276
 30
0.0
 40
4.25
100
AcDbArc
 50
270.0
 51
90.0
  0
ARC
  5
3BB
330
1B
100
AcDbEntity
 67
     1
  8
0
  6
Continuous
 62
     2
100
AcDbCircle
 10
552.8705109627
 20
420.6926820817
 30
0.0
 40
10.95
100
AcDbArc
 50
270.0
 51
90.0
  0
ARC
  5
3BC
330
1B
100
AcDbEntity
 67
     1
  8
0
  6
Continuous
 62
     2
100
AcDbCircle
 10
552.8705109627
 20
420.6926820817
 30
0.0
 40
10.95
100
AcDbArc
 50
255.0
 51
270.0
  0
ARC
  5
3BD
330
1B
100
AcDbEntity
 67
     1
  8
0
  6
Continuous
 62
     2
100
AcDbCircle
 10
552.8705109627
 20
420.6926820817
 30
0.0
 40
10.95
100
AcDbArc
 50
90.0
 51
195.0
  0
LINE
  5
3BE
330
1B
100
AcDbEntity
 67
     1
  8
7_ALL_FEATURES
  6
Continuous
 62
     7
100
AcDbLine
 10
527.6205109627
 20
444.1926820817
 30
0.0
 11
522.6205109627
 21
444.1926820817
 31
0.0
  0
LINE
  5
3BF
330
1B
100
AcDbEntity
 67
     1
  8
7_ALL_FEATURES
  6
Continuous
 62
     7
100
AcDbLine
 10
527.6205109627
 20
434.6926820817
 30
0.0
 11
522.6205109627
 21
434.6926820817
 31
0.0
  0
LINE
  5
3C0
330
1B
100
AcDbEntity
 67
     1
  8
7_ALL_FEATURES
  6
Continuous
 62
     7
100
AcDbLine
 10
522.6205109627
 20
433.6926820817
 30
0.0
 11
522.6205109627
 21
434.6926820817
 31
0.0
  0
LINE
  5
3C1
330
1B
100
AcDbEntity
 67
     1
  8
7_ALL_FEATURES
  6
Continuous
 62
     7
100
AcDbLine
 10
522.6205109627
 20
434.6926820817
 30
0.0
 11
522.6205109627
 21
444.1926820817
 31
0.0
  0
LINE
  5
3C2
330
1B
100
AcDbEntity
 67
     1
  8
7_ALL_FEATURES
  6
Continuous
 62
     7
100
AcDbLine
 10
522.6205109627
 20
444.1926820817
 30
0.0
 11
522.6205109627
 21
444.6926820817
 31
0.0
  0
LINE
  5
3C3
330
1B
100
AcDbEntity
 67
     1
  8
7_ALL_FEATURES
  6
Continuous
 62
     7
100
AcDbLine
 10
583.6205109627
 20
444.1926820817
 30
0.0
 11
578.6205109627
 21
444.1926820817
 31
0.0
  0
LINE
  5
3C4
330
1B
100
AcDbEntity
 67
     1
  8
7_ALL_FEATURES
  6
Continuous
 62
     7
100
AcDbLine
 10
583.6205109627
 20
434.6926820817
 30
0.0
 11
578.6205109627
 21
434.6926820817
 31
0.0
  0
LINE
  5
3C5
330
1B
100
AcDbEntity
 67
     1
  8
7_ALL_FEATURES
  6
Continuous
 62
     7
100
AcDbLine
 10
578.6205109627
 20
433.6926820817
 30
0.0
 11
578.6205109627
 21
434.6926820817
 31
0.0
  0
LINE
  5
3C6
330
1B
100
AcDbEntity
 67
     1
  8
7_ALL_FEATURES
  6
Continuous
 62
     7
100
AcDbLine
 10
578.6205109627
 20
434.6926820817
 30
0.0
 11
578.6205109627
 21
444.1926820817
 31
0.0
  0
LINE
  5
3C7
330
1B
100
AcDbEntity
 67
     1
  8
7_ALL_FEATURES
  6
Continuous
 62
     7
100
AcDbLine
 10
578.6205109627
 20
444.1926820817
 30
0.0
 11
578.6205109627
 21
444.6926820817
 31
0.0
  0
LINE
  5
3C8
330
1B
100
AcDbEntity
 67
     1
  8
3_ALL_AXES
  6
Continuous
 62
     7
100
AcDbLine
 10
623.5207716924
 20
459.6926820817
 30
0.0
 11
622.8660335168
 21
459.6926820817
 31
0.0
  0
LINE
  5
3C9
330
1B
100
AcDbEntity
 67
     1
  8
3_ALL_AXES
  6
Continuous
 62
     7
100
AcDbLine
 10
622.8660335168
 20
459.6926820817
 30
0.0
 11
610.3883426342
 21
459.6926820817
 31
0.0
  0
LINE
  5
3CA
330
1B
100
AcDbEntity
 67
     1
  8
3_ALL_AXES
  6
Continuous
 62
     7
100
AcDbLine
 10
610.3883426342
 20
459.6926820817
 30
0.0
 11
606.5641524062
 21
459.6926820817
 31
0.0
  0
LINE
  5
3CB
330
1B
100
AcDbEntity
 67
     1
  8
3_ALL_AXES
  6
Continuous
 62
     7
100
AcDbLine
 10
606.5641524062
 20
459.6926820817
 30
0.0
 11
603.3669900282
 21
459.6926820817
 31
0.0
  0
LINE
  5
3CC
330
1B
100
AcDbEntity
 67
     1
  8
3_ALL_AXES
  6
Continuous
 62
     7
100
AcDbLine
 10
502.3740318973
 20
459.6926820817
 30
0.0
 11
499.141401195
 21
459.6926820817
 31
0.0
  0
LINE
  5
3CD
330
1B
100
AcDbEntity
 67
     1
  8
3_ALL_AXES
  6
Continuous
 62
     7
100
AcDbLine
 10
499.141401195
 20
459.6926820817
 30
0.0
 11
495.388508139
 21
459.6926820817
 31
0.0
  0
LINE
  5
3CE
330
1B
100
AcDbEntity
 67
     1
  8
3_ALL_AXES
  6
Continuous
 62
     7
100
AcDbLine
 10
495.388508139
 20
459.6926820817
 30
0.0
 11
482.7394335549
 21
459.6926820817
 31
0.0
  0
LINE
  5
3CF
330
1B
100
AcDbEntity
 67
     1
  8
3_ALL_AXES
  6
Continuous
 62
     7
100
AcDbLine
 10
482.7394335549
 20
459.6926820817
 30
0.0
 11
482.2198083012
 21
459.6926820817
 31
0.0
  0
LINE
  5
3D0
330
1B
100
AcDbEntity
 67
     1
  8
3_ALL_AXES
  6
Continuous
 62
     7
100
AcDbLine
 10
482.2198083012
 20
459.6926820817
 30
0.0
 11
474.9705109627
 21
459.6926820817
 31
0.0
  0
LINE
  5
3D1
330
1B
100
AcDbEntity
 67
     1
  8
3_ALL_AXES
  6
Continuous
 62
     7
100
AcDbLine
 10
630.7705109627
 20
459.6926820817
 30
0.0
 11
623.5207716924
 21
459.6926820817
 31
0.0
  0
LINE
  5
3D2
330
1B
100
AcDbEntity
 67
     1
  8
3_ALL_AXES
  6
Continuous
 62
     7
100
AcDbLine
 10
623.5207716924
 20
454.6926820817
 30
0.0
 11
592.9866899041
 21
454.6926820817
 31
0.0
  0
LINE
  5
3D3
330
1B
100
AcDbEntity
 67
     1
  8
3_ALL_AXES
  6
Continuous
 62
     7
100
AcDbLine
 10
592.9866899041
 20
454.6926820817
 30
0.0
 11
592.8705109627
 21
454.6926820817
 31
0.0
  0
LINE
  5
3D4
330
1B
100
AcDbEntity
 67
     1
  8
3_ALL_AXES
  6
Continuous
 62
     7
100
AcDbLine
 10
512.8705109627
 20
454.6926820817
 30
0.0
 11
512.7534731078
 21
454.6926820817
 31
0.0
  0
LINE
  5
3D5
330
1B
100
AcDbEntity
 67
     1
  8
3_ALL_AXES
  6
Continuous
 62
     7
100
AcDbLine
 10
512.7534731078
 20
454.6926820817
 30
0.0
 11
482.2198083012
 21
454.6926820817
 31
0.0
  0
LINE
  5
3D6
330
1B
100
AcDbEntity
 67
     1
  8
3_ALL_AXES
  6
Continuous
 62
     7
100
AcDbLine
 10
630.7705109627
 20
454.6926820817
 30
0.0
 11
623.5207716924
 21
454.6926820817
 31
0.0
  0
LINE
  5
3D7
330
1B
100
AcDbEntity
 67
     1
  8
3_ALL_AXES
  6
Continuous
 62
     7
100
AcDbLine
 10
482.2198083012
 20
454.6926820817
 30
0.0
 11
474.9705109627
 21
454.6926820817
 31
0.0
  0
LINE
  5
3D8
330
1B
100
AcDbEntity
 67
     1
  8
3_ALL_AXES
  6
Continuous
 62
     7
100
AcDbLine
 10
474.9705109627
 20
459.6926820817
 30
0.0
 11
474.9705109627
 21
454.6926820817
 31
0.0
  0
LINE
  5
3D9
330
1B
100
AcDbEntity
 67
     1
  8
3_ALL_AXES
  6
Continuous
 62
     7
100
AcDbLine
 10
630.7705109627
 20
459.6926820817
 30
0.0
 11
630.7705109627
 21
454.6926820817
 31
0.0
  0
LINE
  5
3DA
330
1B
100
AcDbEntity
 67
     1
  8
3_ALL_AXES
  6
Continuous
 62
     9
100
AcDbLine
 10
623.5207716924
 20
459.6926820817
 30
0.0
 11
623.5207716924
 21
454.6926820817
 31
0.0
  0
LINE
  5
3DB
330
1B
100
AcDbEntity
 67
     1
  8
3_ALL_AXES
  6
Continuous
 62
     9
100
AcDbLine
 10
482.2198083012
 20
459.6926820817
 30
0.0
 11
482.2198083012
 21
454.6926820817
 31
0.0
  0
ARC
  5
3DC
330
1B
100
AcDbEntity
 67
     1
  8
02___PRT_ALL_AXES
  6
Continuous
 62
     7
100
AcDbCircle
 10
552.8705109627
 20
420.6926820817
 30
0.0
 40
8.25
100
AcDbArc
 50
90.0
 51
270.0
  0
ARC
  5
3DD
330
1B
100
AcDbEntity
 67
     1
  8
02___PRT_ALL_AXES
  6
Continuous
 62
     7
100
AcDbCircle
 10
552.8705109627
 20
420.6926820817
 30
0.0
 40
8.25
100
AcDbArc
 50
270.0
 51
90.0
  0
ARC
  5
3DE
330
1B
100
AcDbEntity
 67
     1
  8
02___PRT_ALL_AXES
  6
Continuous
 62
     7
100
AcDbCircle
 10
552.8705109627
 20
420.6926820817
 30
0.0
 40
12.0
100
AcDbArc
 50
90.0
 51
270.0
  0
ARC
  5
3DF
330
1B
100
AcDbEntity
 67
     1
  8
02___PRT_ALL_AXES
  6
Continuous
 62
     7
100
AcDbCircle
 10
552.8705109627
 20
420.6926820817
 30
0.0
 40
12.0
100
AcDbArc
 50
270.0
 51
90.0
  0
LINE
  5
3E0
330
1B
100
AcDbEntity
 67
     1
  8
3_ALL_AXES
  6
Continuous
 62
     7
100
AcDbLine
 10
512.8705109627
 20
464.6926820817
 30
0.0
 11
512.8705109627
 21
459.6926820817
 31
0.0
  0
LINE
  5
3E1
330
1B
100
AcDbEntity
 67
     1
  8
3_ALL_AXES
  6
Continuous
 62
     7
100
AcDbLine
 10
512.8705109627
 20
459.6926820817
 30
0.0
 11
512.8705109627
 21
454.6926820817
 31
0.0
  0
LINE
  5
3E2
330
1B
100
AcDbEntity
 67
     1
  8
3_ALL_AXES
  6
Continuous
 62
     7
100
AcDbLine
 10
592.8705109627
 20
454.6926820817
 30
0.0
 11
592.8705109627
 21
459.6926820817
 31
0.0
  0
LINE
  5
3E3
330
1B
100
AcDbEntity
 67
     1
  8
3_ALL_AXES
  6
Continuous
 62
     7
100
AcDbLine
 10
592.8705109627
 20
459.6926820817
 30
0.0
 11
592.8705109627
 21
464.6926820817
 31
0.0
  0
LINE
  5
3E4
330
1B
100
AcDbEntity
 67
     1
  8
7_ALL_FEATURES
  6
Continuous
 62
     7
100
AcDbLine
 10
578.1205109627
 20
433.6926820817
 30
0.0
 11
583.6205109627
 21
433.6926820817
 31
0.0
  0
LINE
  5
3E5
330
1B
100
AcDbEntity
 67
     1
  8
7_ALL_FEATURES
  6
Continuous
 62
     7
100
AcDbLine
 10
578.1205109627
 20
444.6926820817
 30
0.0
 11
578.1205109627
 21
433.6926820817
 31
0.0
  0
LINE
  5
3E6
330
1B
100
AcDbEntity
 67
     1
  8
7_ALL_FEATURES
  6
Continuous
 62
     7
100
AcDbLine
 10
578.1205109627
 20
444.6926820817
 30
0.0
 11
583.6205109627
 21
444.6926820817
 31
0.0
  0
LINE
  5
3E7
330
1B
100
AcDbEntity
 67
     1
  8
7_ALL_FEATURES
  6
Continuous
 62
     7
100
AcDbLine
 10
583.6205109627
 20
444.6926820817
 30
0.0
 11
583.6205109627
 21
433.6926820817
 31
0.0
  0
LINE
  5
3E8
330
1B
100
AcDbEntity
 67
     1
  8
7_ALL_FEATURES
  6
Continuous
 62
     7
100
AcDbLine
 10
527.6205109627
 20
433.6926820817
 30
0.0
 11
522.1205109627
 21
433.6926820817
 31
0.0
  0
LINE
  5
3E9
330
1B
100
AcDbEntity
 67
     1
  8
7_ALL_FEATURES
  6
Continuous
 62
     7
100
AcDbLine
 10
522.1205109627
 20
433.6926820817
 30
0.0
 11
522.1205109627
 21
444.6926820817
 31
0.0
  0
LINE
  5
3EA
330
1B
100
AcDbEntity
 67
     1
  8
7_ALL_FEATURES
  6
Continuous
 62
     7
100
AcDbLine
 10
527.6205109627
 20
444.6926820817
 30
0.0
 11
522.1205109627
 21
444.6926820817
 31
0.0
  0
LINE
  5
3EB
330
1B
100
AcDbEntity
 67
     1
  8
7_ALL_FEATURES
  6
Continuous
 62
     7
100
AcDbLine
 10
527.6205109627
 20
433.6926820817
 30
0.0
 11
527.6205109627
 21
444.6926820817
 31
0.0
  0
ARC
  5
3EC
330
1B
100
AcDbEntity
 67
     1
  8
3_ALL_AXES
  6
Continuous
 62
     7
100
AcDbCircle
 10
577.8705109627
 20
394.6926820817
 30
0.0
 40
15.0
100
AcDbArc
 50
270.0
 51
360.0
  0
LINE
  5
3ED
330
1B
100
AcDbEntity
 67
     1
  8
3_ALL_AXES
  6
Continuous
 62
     7
100
AcDbLine
 10
592.8705109627
 20
454.6926820817
 30
0.0
 11
592.8705109627
 21
394.6926820817
 31
0.0
  0
ARC
  5
3EE
330
1B
100
AcDbEntity
 67
     1
  8
3_ALL_AXES
  6
Continuous
 62
     7
100
AcDbCircle
 10
527.8705109627
 20
394.6926820817
 30
0.0
 40
15.0
100
AcDbArc
 50
180.0
 51
270.0
  0
LINE
  5
3EF
330
1B
100
AcDbEntity
 67
     1
  8
3_ALL_AXES
  6
Continuous
 62
     7
100
AcDbLine
 10
603.3669900282
 20
464.6926820817
 30
0.0
 11
623.5213298978
 21
464.6926820817
 31
0.0
  0
LINE
  5
3F0
330
1B
100
AcDbEntity
 67
     1
  8
3_ALL_AXES
  6
Continuous
 62
     7
100
AcDbLine
 10
623.5213298978
 20
464.6926820817
 30
0.0
 11
630.7705109627
 21
464.6926820817
 31
0.0
  0
LINE
  5
3F1
330
1B
100
AcDbEntity
 67
     1
  8
3_ALL_AXES
  6
Continuous
 62
     7
100
AcDbLine
 10
474.9705109627
 20
464.6926820817
 30
0.0
 11
482.2196920276
 21
464.6926820817
 31
0.0
  0
LINE
  5
3F2
330
1B
100
AcDbEntity
 67
     1
  8
3_ALL_AXES
  6
Continuous
 62
     7
100
AcDbLine
 10
482.2196920276
 20
464.6926820817
 30
0.0
 11
502.3740318973
 21
464.6926820817
 31
0.0
  0
LINE
  5
3F3
330
1B
100
AcDbEntity
 67
     1
  8
3_ALL_AXES
  6
Continuous
 62
     7
100
AcDbLine
 10
512.8705109627
 20
464.6926820817
 30
0.0
 11
592.8705109627
 21
464.6926820817
 31
0.0
  0
LINE
  5
3F4
330
1B
100
AcDbEntity
 67
     1
  8
3_ALL_AXES
  6
Continuous
 62
     7
100
AcDbLine
 10
512.8705109627
 20
454.6926820817
 30
0.0
 11
512.8705109627
 21
394.6926820817
 31
0.0
  0
LINE
  5
3F5
330
1B
100
AcDbEntity
 67
     1
  8
3_ALL_AXES
  6
Continuous
 62
     7
100
AcDbLine
 10
577.8705109627
 20
379.6926820817
 30
0.0
 11
527.8705109627
 21
379.6926820817
 31
0.0
  0
LINE
  5
3F6
330
1B
100
AcDbEntity
 67
     1
  8
3_ALL_AXES
  6
Continuous
 62
     7
100
AcDbLine
 10
603.3669900282
 20
464.6926820817
 30
0.0
 11
592.8705109627
 21
464.6926820817
 31
0.0
  0
LINE
  5
3F7
330
1B
100
AcDbEntity
 67
     1
  8
3_ALL_AXES
  6
Continuous
 62
     7
100
AcDbLine
 10
630.7705109627
 20
459.6926820817
 30
0.0
 11
630.7705109627
 21
464.6926820817
 31
0.0
  0
LINE
  5
3F8
330
1B
100
AcDbEntity
 67
     1
  8
3_ALL_AXES
  6
Continuous
 62
     7
100
AcDbLine
 10
474.9705109627
 20
459.6926820817
 30
0.0
 11
474.9705109627
 21
464.6926820817
 31
0.0
  0
LINE
  5
3F9
330
1B
100
AcDbEntity
 67
     1
  8
3_ALL_AXES
  6
Continuous
 62
     7
100
AcDbLine
 10
512.8705109627
 20
464.6926820817
 30
0.0
 11
502.3740318973
 21
464.6926820817
 31
0.0
  0
LINE
  5
3FA
330
1B
100
AcDbEntity
 67
     1
  8
3_ALL_AXES
  6
Continuous
 62
     9
100
AcDbLine
 10
603.3669900282
 20
459.6926820817
 30
0.0
 11
603.3669900282
 21
464.6926820817
 31
0.0
  0
LINE
  5
3FB
330
1B
100
AcDbEntity
 67
     1
  8
3_ALL_AXES
  6
Continuous
 62
     9
100
AcDbLine
 10
623.5213298978
 20
459.6926820817
 30
0.0
 11
623.5213298978
 21
464.6926820817
 31
0.0
  0
LINE
  5
3FC
330
1B
100
AcDbEntity
 67
     1
  8
3_ALL_AXES
  6
Continuous
 62
     9
100
AcDbLine
 10
482.2196920276
 20
459.6926820817
 30
0.0
 11
482.2196920276
 21
464.6926820817
 31
0.0
  0
LINE
  5
3FD
330
1B
100
AcDbEntity
 67
     1
  8
3_ALL_AXES
  6
Continuous
 62
     9
100
AcDbLine
 10
502.3740318973
 20
459.6926820817
 30
0.0
 11
502.3740318973
 21
464.6926820817
 31
0.0
  0
LINE
  5
3FE
330
1B
100
AcDbEntity
 67
     1
  8
3_ALL_AXES
  6
Continuous
 62
     9
100
AcDbLine
 10
512.8705109627
 20
454.6926820817
 30
0.0
 11
592.8705109627
 21
454.6926820817
 31
0.0
  0
LINE
  5
3FF
330
1B
100
AcDbEntity
 67
     1
  8
3_ALL_AXES
  6
Continuous
 62
     3
100
AcDbLine
 10
603.3669900282
 20
459.6926820817
 30
0.0
 11
606.5641524062
 21
459.6926820817
 31
0.0
  0
LINE
  5
400
330
1B
100
AcDbEntity
 67
     1
  8
3_ALL_AXES
  6
Continuous
 62
     3
100
AcDbLine
 10
606.5641524062
 20
459.6926820817
 30
0.0
 11
610.3883426342
 21
459.6926820817
 31
0.0
  0
LINE
  5
401
330
1B
100
AcDbEntity
 67
     1
  8
3_ALL_AXES
  6
Continuous
 62
     3
100
AcDbLine
 10
610.3883426342
 20
459.6926820817
 30
0.0
 11
622.8660335168
 21
459.6926820817
 31
0.0
  0
LINE
  5
402
330
1B
100
AcDbEntity
 67
     1
  8
3_ALL_AXES
  6
Continuous
 62
     3
100
AcDbLine
 10
622.8660335168
 20
459.6926820817
 30
0.0
 11
623.5213298978
 21
459.6926820817
 31
0.0
  0
LINE
  5
403
330
1B
100
AcDbEntity
 67
     1
  8
3_ALL_AXES
  6
Continuous
 62
     3
100
AcDbLine
 10
623.5213298978
 20
459.6926820817
 30
0.0
 11
630.7705109627
 21
459.6926820817
 31
0.0
  0
LINE
  5
404
330
1B
100
AcDbEntity
 67
     1
  8
3_ALL_AXES
  6
Continuous
 62
     3
100
AcDbLine
 10
474.9705109627
 20
459.6926820817
 30
0.0
 11
482.2196920276
 21
459.6926820817
 31
0.0
  0
LINE
  5
405
330
1B
100
AcDbEntity
 67
     1
  8
3_ALL_AXES
  6
Continuous
 62
     3
100
AcDbLine
 10
482.2196920276
 20
459.6926820817
 30
0.0
 11
482.7394335549
 21
459.6926820817
 31
0.0
  0
LINE
  5
406
330
1B
100
AcDbEntity
 67
     1
  8
3_ALL_AXES
  6
Continuous
 62
     3
100
AcDbLine
 10
482.7394335549
 20
459.6926820817
 30
0.0
 11
495.388508139
 21
459.6926820817
 31
0.0
  0
LINE
  5
407
330
1B
100
AcDbEntity
 67
     1
  8
3_ALL_AXES
  6
Continuous
 62
     3
100
AcDbLine
 10
495.388508139
 20
459.6926820817
 30
0.0
 11
499.141401195
 21
459.6926820817
 31
0.0
  0
LINE
  5
408
330
1B
100
AcDbEntity
 67
     1
  8
3_ALL_AXES
  6
Continuous
 62
     3
100
AcDbLine
 10
499.141401195
 20
459.6926820817
 30
0.0
 11
502.3740318973
 21
459.6926820817
 31
0.0
  0
LINE
  5
409
330
1B
100
AcDbEntity
 67
     1
  8
3_ALL_AXES
  6
Continuous
 62
     3
100
AcDbLine
 10
603.3669900282
 20
459.6926820817
 30
0.0
 11
592.8705109627
 21
459.6926820817
 31
0.0
  0
LINE
  5
40A
330
1B
100
AcDbEntity
 67
     1
  8
3_ALL_AXES
  6
Continuous
 62
     3
100
AcDbLine
 10
512.8705109627
 20
459.6926820817
 30
0.0
 11
502.3740318973
 21
459.6926820817
 31
0.0
  0
DIMENSION
  5
40B
330
1B
100
AcDbEntity
 67
     1
  8
0
  6
Continuous
 62
     2
100
AcDbDimension
280
     0
  2
*D1
 10
334.8022712954
 20
511.0335038558
 30
0.0
 11
227.3124470978
 21
511.0335038558
 31
0.0
 70
   160
 71
     5
 42
-1.0
 73
     0
 74
     0
 75
     0
  3
DIMSTYLE_1
100
AcDbAlignedDimension
 13
119.9022712954
 23
432.6926820817
 33
0.0
 14
334.8022712954
 24
464.6926820817
 34
0.0
100
AcDbRotatedDimension
  0
DIMENSION
  5
40C
330
1B
100
AcDbEntity
 67
     1
  8
0
  6
Continuous
 62
     2
100
AcDbDimension
280
     0
  2
*D2
 10
658.0807488911
 20
379.6926820817
 30
0.0
 11
658.0807488911
 21
422.1902221844
 31
0.0
 70
   160
 71
     5
 42
-1.0
 73
     0
 74
     0
 75
     0
  3
DIMSTYLE_2
100
AcDbAlignedDimension
 13
630.1150425756
 23
464.6926820817
 33
0.0
 14
577.8705109627
 24
379.6926820817
 34
0.0
 50
270.0
100
AcDbRotatedDimension
  0
DIMENSION
  5
40D
330
1B
100
AcDbEntity
 67
     1
  8
0
  6
Continuous
 62
     2
100
AcDbDimension
280
     0
  2
*D3
 10
384.5615629032
 20
119.2887128276
 30
0.0
 11
384.5615629032
 21
197.3105997774
 31
0.0
 70
   160
 71
     5
 42
-1.0
 73
     0
 74
     0
 75
     0
  3
DIMSTYLE_1
100
AcDbAlignedDimension
 13
322.3022712954
 23
275.0887128276
 33
0.0
 14
322.3022712954
 24
119.2887128276
 34
0.0
 50
270.0
100
AcDbRotatedDimension
  0
DIMENSION
  5
40E
330
1B
100
AcDbEntity
 67
     1
  8
0
  6
Continuous
 62
     2
100
AcDbDimension
280
     0
  2
*D4
 10
592.8705109627
 20
341.942298397
 30
0.0
 11
552.8705109627
 21
341.942298397
 31
0.0
 70
   160
  1
<>\P= =
 71
     5
 42
-1.0
 73
     0
 74
     0
 75
     0
  3
DIMSTYLE_2
100
AcDbAlignedDimension
 13
512.8705109627
 23
394.6926820817
 33
0.0
 14
592.8705109627
 24
394.6926820817
 34
0.0
100
AcDbRotatedDimension
  0
LINE
  5
40F
330
1B
100
AcDbEntity
 67
     1
  8
3_ALL_AXES
  6
CENTER
 62
     2
100
AcDbLine
 10
207.9022712954
 20
231.1887128276
 30
0.0
 11
215.4022712954
 21
231.1887128276
 31
0.0
  0
LINE
  5
410
330
1B
100
AcDbEntity
 67
     1
  8
3_ALL_AXES
  6
CENTER
 62
     2
100
AcDbLine
 10
207.9022712954
 20
231.1887128276
 30
0.0
 11
200.4022712954
 21
231.1887128276
 31
0.0
  0
LINE
  5
411
330
1B
100
AcDbEntity
 67
     1
  8
3_ALL_AXES
  6
CENTER
 62
     2
100
AcDbLine
 10
207.9022712954
 20
231.1887128276
 30
0.0
 11
207.9022712954
 21
238.6887128276
 31
0.0
  0
LINE
  5
412
330
1B
100
AcDbEntity
 67
     1
  8
3_ALL_AXES
  6
CENTER
 62
     2
100
AcDbLine
 10
207.9022712954
 20
231.1887128276
 30
0.0
 11
207.9022712954
 21
223.6887128276
 31
0.0
  0
LINE
  5
413
330
1B
100
AcDbEntity
 67
     1
  8
3_ALL_AXES
  6
CENTER
 62
     2
100
AcDbLine
 10
207.9022712954
 20
163.1887128276
 30
0.0
 11
215.4022712954
 21
163.1887128276
 31
0.0
  0
LINE
  5
414
330
1B
100
AcDbEntity
 67
     1
  8
3_ALL_AXES
  6
CENTER
 62
     2
100
AcDbLine
 10
207.9022712954
 20
163.1887128276
 30
0.0
 11
200.4022712954
 21
163.1887128276
 31
0.0
  0
LINE
  5
415
330
1B
100
AcDbEntity
 67
     1
  8
3_ALL_AXES
  6
CENTER
 62
     2
100
AcDbLine
 10
207.9022712954
 20
163.1887128276
 30
0.0
 11
207.9022712954
 21
170.6887128276
 31
0.0
  0
LINE
  5
416
330
1B
100
AcDbEntity
 67
     1
  8
3_ALL_AXES
  6
CENTER
 62
     2
100
AcDbLine
 10
207.9022712954
 20
163.1887128276
 30
0.0
 11
207.9022712954
 21
155.6887128276
 31
0.0
  0
LINE
  5
417
330
1B
100
AcDbEntity
 67
     1
  8
3_ALL_AXES
  6
CENTER
 62
     2
100
AcDbLine
 10
220.9022712954
 20
163.1887128276
 30
0.0
 11
228.4022712954
 21
163.1887128276
 31
0.0
  0
LINE
  5
418
330
1B
100
AcDbEntity
 67
     1
  8
3_ALL_AXES
  6
CENTER
 62
     2
100
AcDbLine
 10
220.9022712954
 20
163.1887128276
 30
0.0
 11
213.4022712954
 21
163.1887128276
 31
0.0
  0
LINE
  5
419
330
1B
100
AcDbEntity
 67
     1
  8
3_ALL_AXES
  6
CENTER
 62
     2
100
AcDbLine
 10
220.9022712954
 20
163.1887128276
 30
0.0
 11
220.9022712954
 21
170.6887128276
 31
0.0
  0
LINE
  5
41A
330
1B
100
AcDbEntity
 67
     1
  8
3_ALL_AXES
  6
CENTER
 62
     2
100
AcDbLine
 10
220.9022712954
 20
163.1887128276
 30
0.0
 11
220.9022712954
 21
155.6887128276
 31
0.0
  0
LINE
  5
41B
330
1B
100
AcDbEntity
 67
     1
  8
3_ALL_AXES
  6
CENTER
 62
     2
100
AcDbLine
 10
220.9022712954
 20
231.1887128276
 30
0.0
 11
228.4022712954
 21
231.1887128276
 31
0.0
  0
LINE
  5
41C
330
1B
100
AcDbEntity
 67
     1
  8
3_ALL_AXES
  6
CENTER
 62
     2
100
AcDbLine
 10
220.9022712954
 20
231.1887128276
 30
0.0
 11
213.4022712954
 21
231.1887128276
 31
0.0
  0
LINE
  5
41D
330
1B
100
AcDbEntity
 67
     1
  8
3_ALL_AXES
  6
CENTER
 62
     2
100
AcDbLine
 10
220.9022712954
 20
231.1887128276
 30
0.0
 11
220.9022712954
 21
238.6887128276
 31
0.0
  0
LINE
  5
41E
330
1B
100
AcDbEntity
 67
     1
  8
3_ALL_AXES
  6
CENTER
 62
     2
100
AcDbLine
 10
220.9022712954
 20
231.1887128276
 30
0.0
 11
220.9022712954
 21
223.6887128276
 31
0.0
  0
LINE
  5
41F
330
1B
100
AcDbEntity
 67
     1
  8
3_ALL_AXES
  6
CENTER
 62
     2
100
AcDbLine
 10
165.9022712954
 20
197.1887128276
 30
0.0
 11
344.5006949905
 21
197.1887128276
 31
0.0
  0
LINE
  5
420
330
1B
100
AcDbEntity
 67
     1
  8
3_ALL_AXES
  6
CENTER
 62
     2
100
AcDbLine
 10
165.9022712954
 20
197.1887128276
 30
0.0
 11
103.2084595797
 21
197.1887128276
 31
0.0
  0
LINE
  5
421
330
1B
100
AcDbEntity
 67
     1
  8
3_ALL_AXES
  6
CENTER
 62
     2
100
AcDbLine
 10
165.9022712954
 20
197.1887128276
 30
0.0
 11
165.9022712954
 21
251.5697580167
 31
0.0
  0
LINE
  5
422
330
1B
100
AcDbEntity
 67
     1
  8
3_ALL_AXES
  6
CENTER
 62
     2
100
AcDbLine
 10
165.9022712954
 20
197.1887128276
 30
0.0
 11
165.9022712954
 21
145.0864454332
 31
0.0
  0
LINE
  5
423
330
1B
100
AcDbEntity
 67
     1
  8
02___PRT_ALL_AXES
  6
CENTER
 62
     2
100
AcDbLine
 10
552.8705109627
 20
420.6926820817
 30
0.0
 11
624.7543974885
 21
420.6926820817
 31
0.0
  0
LINE
  5
424
330
1B
100
AcDbEntity
 67
     1
  8
02___PRT_ALL_AXES
  6
CENTER
 62
     2
100
AcDbLine
 10
552.8705109627
 20
420.6926820817
 30
0.0
 11
480.9866244369
 21
420.6926820817
 31
0.0
  0
LINE
  5
425
330
1B
100
AcDbEntity
 67
     1
  8
02___PRT_ALL_AXES
  6
CENTER
 62
     2
100
AcDbLine
 10
552.8705109627
 20
420.6926820817
 30
0.0
 11
552.8705109627
 21
492.5765686074
 31
0.0
  0
LINE
  5
426
330
1B
100
AcDbEntity
 67
     1
  8
02___PRT_ALL_AXES
  6
CENTER
 62
     2
100
AcDbLine
 10
552.8705109627
 20
420.6926820817
 30
0.0
 11
552.8705109627
 21
348.8087955559
 31
0.0
  0
LINE
  5
427
330
1B
100
AcDbEntity
 67
     1
  8
02___PRT_ALL_AXES
  6
CENTER
 62
     2
100
AcDbLine
 10
108.3638517811
 20
420.6926820817
 30
0.0
 11
160.4661890831
 21
420.6926820817
 31
0.0
  0
LINE
  5
428
330
1B
100
AcDbEntity
 67
     1
  8
3_ALL_AXES
  6
CENTER
 62
     2
100
AcDbLine
 10
309.9022712954
 20
134.6887128276
 30
0.0
 11
315.4022712954
 21
134.6887128276
 31
0.0
  0
LINE
  5
429
330
1B
100
AcDbEntity
 67
     1
  8
3_ALL_AXES
  6
CENTER
 62
     2
100
AcDbLine
 10
309.9022712954
 20
134.6887128276
 30
0.0
 11
304.4022712954
 21
134.6887128276
 31
0.0
  0
LINE
  5
42A
330
1B
100
AcDbEntity
 67
     1
  8
3_ALL_AXES
  6
CENTER
 62
     2
100
AcDbLine
 10
309.9022712954
 20
134.6887128276
 30
0.0
 11
309.9022712954
 21
140.1887128276
 31
0.0
  0
LINE
  5
42B
330
1B
100
AcDbEntity
 67
     1
  8
3_ALL_AXES
  6
CENTER
 62
     2
100
AcDbLine
 10
309.9022712954
 20
134.6887128276
 30
0.0
 11
309.9022712954
 21
129.1887128276
 31
0.0
  0
LINE
  5
42C
330
1B
100
AcDbEntity
 67
     1
  8
3_ALL_AXES
  6
CENTER
 62
     2
100
AcDbLine
 10
229.9022712954
 20
134.6887128276
 30
0.0
 11
235.4022712954
 21
134.6887128276
 31
0.0
  0
LINE
  5
42D
330
1B
100
AcDbEntity
 67
     1
  8
3_ALL_AXES
  6
CENTER
 62
     2
100
AcDbLine
 10
229.9022712954
 20
134.6887128276
 30
0.0
 11
224.4022712954
 21
134.6887128276
 31
0.0
  0
LINE
  5
42E
330
1B
100
AcDbEntity
 67
     1
  8
3_ALL_AXES
  6
CENTER
 62
     2
100
AcDbLine
 10
229.9022712954
 20
134.6887128276
 30
0.0
 11
229.9022712954
 21
140.1887128276
 31
0.0
  0
LINE
  5
42F
330
1B
100
AcDbEntity
 67
     1
  8
3_ALL_AXES
  6
CENTER
 62
     2
100
AcDbLine
 10
229.9022712954
 20
134.6887128276
 30
0.0
 11
229.9022712954
 21
129.1887128276
 31
0.0
  0
LINE
  5
430
330
1B
100
AcDbEntity
 67
     1
  8
3_ALL_AXES
  6
CENTER
 62
     2
100
AcDbLine
 10
229.9022712954
 20
259.6887128276
 30
0.0
 11
235.4022712954
 21
259.6887128276
 31
0.0
  0
LINE
  5
431
330
1B
100
AcDbEntity
 67
     1
  8
3_ALL_AXES
  6
CENTER
 62
     2
100
AcDbLine
 10
229.9022712954
 20
259.6887128276
 30
0.0
 11
224.4022712954
 21
259.6887128276
 31
0.0
  0
LINE
  5
432
330
1B
100
AcDbEntity
 67
     1
  8
3_ALL_AXES
  6
CENTER
 62
     2
100
AcDbLine
 10
229.9022712954
 20
259.6887128276
 30
0.0
 11
229.9022712954
 21
265.1887128276
 31
0.0
  0
LINE
  5
433
330
1B
100
AcDbEntity
 67
     1
  8
3_ALL_AXES
  6
CENTER
 62
     2
100
AcDbLine
 10
229.9022712954
 20
259.6887128276
 30
0.0
 11
229.9022712954
 21
254.1887128276
 31
0.0
  0
LINE
  5
434
330
1B
100
AcDbEntity
 67
     1
  8
3_ALL_AXES
  6
CENTER
 62
     2
100
AcDbLine
 10
309.9022712954
 20
259.6887128276
 30
0.0
 11
315.4022712954
 21
259.6887128276
 31
0.0
  0
LINE
  5
435
330
1B
100
AcDbEntity
 67
     1
  8
3_ALL_AXES
  6
CENTER
 62
     2
100
AcDbLine
 10
309.9022712954
 20
259.6887128276
 30
0.0
 11
304.4022712954
 21
259.6887128276
 31
0.0
  0
LINE
  5
436
330
1B
100
AcDbEntity
 67
     1
  8
3_ALL_AXES
  6
CENTER
 62
     2
100
AcDbLine
 10
309.9022712954
 20
259.6887128276
 30
0.0
 11
309.9022712954
 21
265.1887128276
 31
0.0
  0
LINE
  5
437
330
1B
100
AcDbEntity
 67
     1
  8
3_ALL_AXES
  6
CENTER
 62
     2
100
AcDbLine
 10
309.9022712954
 20
259.6887128276
 30
0.0
 11
309.9022712954
 21
254.1887128276
 31
0.0
  0
LINE
  5
438
330
1B
100
AcDbEntity
 67
     1
  8
0
  6
Continuous
 62
     2
100
AcDbLine
 10
701.0004722972
 20
76.0006472157
 30
0.0
 11
831.0004722972
 21
76.0006472157
 31
0.0
  0
LINE
  5
439
330
1B
100
AcDbEntity
 67
     1
  8
0
  6
Continuous
 62
     2
100
AcDbLine
 10
701.0004722972
 20
76.0006472157
 30
0.0
 11
701.0004722972
 21
10.0006472157
 31
0.0
  0
LINE
  5
43A
330
1B
100
AcDbEntity
 67
     1
  8
0
  6
Continuous
 62
     2
100
AcDbLine
 10
731.0004722972
 20
68.0006472157
 30
0.0
 11
831.0004722972
 21
68.0006472157
 31
0.0
  0
LINE
  5
43B
330
1B
100
AcDbEntity
 67
     1
  8
0
  6
Continuous
 62
     2
100
AcDbLine
 10
701.0004722972
 20
60.0006472157
 30
0.0
 11
831.0004722972
 21
60.0006472157
 31
0.0
  0
LINE
  5
43C
330
1B
100
AcDbEntity
 67
     1
  8
0
  6
Continuous
 62
     2
100
AcDbLine
 10
731.0004722972
 20
54.0006472157
 30
0.0
 11
831.0004722972
 21
54.0006472157
 31
0.0
  0
LINE
  5
43D
330
1B
100
AcDbEntity
 67
     1
  8
0
  6
Continuous
 62
     2
100
AcDbLine
 10
731.0004722972
 20
48.0006472157
 30
0.0
 11
831.0004722972
 21
48.0006472157
 31
0.0
  0
LINE
  5
43E
330
1B
100
AcDbEntity
 67
     1
  8
0
  6
Continuous
 62
     2
100
AcDbLine
 10
731.0004722972
 20
42.0006472157
 30
0.0
 11
831.0004722972
 21
42.0006472157
 31
0.0
  0
LINE
  5
43F
330
1B
100
AcDbEntity
 67
     1
  8
0
  6
Continuous
 62
     2
100
AcDbLine
 10
731.0004722972
 20
36.0006472157
 30
0.0
 11
831.0004722972
 21
36.0006472157
 31
0.0
  0
LINE
  5
440
330
1B
100
AcDbEntity
 67
     1
  8
0
  6
Continuous
 62
     2
100
AcDbLine
 10
731.0004722972
 20
30.0006472157
 30
0.0
 11
831.0004722972
 21
30.0006472157
 31
0.0
  0
LINE
  5
441
330
1B
100
AcDbEntity
 67
     1
  8
0
  6
Continuous
 62
     2
100
AcDbLine
 10
701.0004722972
 20
24.0006472157
 30
0.0
 11
831.0004722972
 21
24.0006472157
 31
0.0
  0
LINE
  5
442
330
1B
100
AcDbEntity
 67
     1
  8
0
  6
Continuous
 62
     2
100
AcDbLine
 10
701.0004722972
 20
18.0006472157
 30
0.0
 11
831.0004722972
 21
18.0006472157
 31
0.0
  0
LINE
  5
443
330
1B
100
AcDbEntity
 67
     1
  8
0
  6
Continuous
 62
     2
100
AcDbLine
 10
701.0004722972
 20
14.0006472157
 30
0.0
 11
831.0004722972
 21
14.0006472157
 31
0.0
  0
LINE
  5
444
330
1B
100
AcDbEntity
 67
     1
  8
0
  6
Continuous
 62
     2
100
AcDbLine
 10
701.0004722972
 20
10.0006472157
 30
0.0
 11
831.0004722972
 21
10.0006472157
 31
0.0
  0
LINE
  5
445
330
1B
100
AcDbEntity
 67
     1
  8
0
  6
Continuous
 62
     2
100
AcDbLine
 10
731.0004722972
 20
76.0006472157
 30
0.0
 11
731.0004722972
 21
18.0006472157
 31
0.0
  0
LINE
  5
446
330
1B
100
AcDbEntity
 67
     1
  8
0
  6
Continuous
 62
     2
100
AcDbLine
 10
751.0004722972
 20
60.0006472157
 30
0.0
 11
751.0004722972
 21
54.0006472157
 31
0.0
  0
LINE
  5
447
330
1B
100
AcDbEntity
 67
     1
  8
0
  6
Continuous
 62
     2
100
AcDbLine
 10
781.0004722972
 20
30.0006472157
 30
0.0
 11
781.0004722972
 21
18.0006472157
 31
0.0
  0
LINE
  5
448
330
1B
100
AcDbEntity
 67
     1
  8
0
  6
Continuous
 62
     2
100
AcDbLine
 10
791.0004722972
 20
60.0006472157
 30
0.0
 11
791.0004722972
 21
54.0006472157
 31
0.0
  0
LINE
  5
449
330
1B
100
AcDbEntity
 67
     1
  8
0
  6
Continuous
 62
     2
100
AcDbLine
 10
791.0004722972
 20
48.0006472157
 30
0.0
 11
791.0004722972
 21
42.0006472157
 31
0.0
  0
LINE
  5
44A
330
1B
100
AcDbEntity
 67
     1
  8
0
  6
Continuous
 62
     2
100
AcDbLine
 10
811.0004722972
 20
60.0006472157
 30
0.0
 11
811.0004722972
 21
54.0006472157
 31
0.0
  0
LINE
  5
44B
330
1B
100
AcDbEntity
 67
     1
  8
0
  6
Continuous
 62
     2
100
AcDbLine
 10
821.0004722972
 20
48.0006472157
 30
0.0
 11
821.0004722972
 21
42.0006472157
 31
0.0
  0
LINE
  5
44C
330
1B
100
AcDbEntity
 67
     1
  8
0
  6
Continuous
 62
     2
100
AcDbLine
 10
831.0004722972
 20
76.0006472157
 30
0.0
 11
831.0004722972
 21
10.0006472157
 31
0.0
  0
INSERT
  5
44D
330
1B
100
AcDbEntity
 67
     1
  8
0
  6
Continuous
 62
     2
100
AcDbBlockReference
  2
PROIEZIONE_EU_BL0
 10
716.0004722972
 20
67.6256472157
 30
0.0
  0
MTEXT
  5
44E
330
1B
100
AcDbEntity
 67
     1
  8
9_SOLID
  6
Continuous
 62
     2
100
AcDbMText
 10
732.4879722972
 20
74.3756472157
 30
0.0
 40
1.9
 41
142.3642857143
 46
0.0
 71
     1
 72
     1
  1
EN: Chamfer/radii unlisted 0.3x45°. Remove sharp edges.\PGen. tol.: hole H11, shaft h11, lenght Js12. UNI EN 22768 Medium Grande.
  7
TEXTSTYLE_5
 73
     1
 44
1.0
  0
MTEXT
  5
44F
330
1B
100
AcDbEntity
 67
     1
  8
9_SOLID
  6
Continuous
 62
     2
100
AcDbMText
 10
732.4879722972
 20
66.3756472157
 30
0.0
 40
1.9
 41
148.2678571429
 46
0.0
 71
     1
 72
     1
  1
IT: Sm./rac. non quotati 0.3x45°. Eliminare spigoli taglienti.\PToll. gen.: foro H11, albero h11, lunghezza Js12. UNI EN 22768 Grado Medio.
  7
TEXTSTYLE_5
 73
     1
 44
1.0
  0
INSERT
  5
450
330
1B
100
AcDbEntity
 67
     1
  8
0
  6
Continuous
 62
     2
100
AcDbBlockReference
  2
LOGO2_BL1
 10
714.8265193419
 20
42.0006472157
 30
0.0
  0
MTEXT
  5
451
330
1B
100
AcDbEntity
 67
     1
  8
9_SOLID
  6
Continuous
 62
     2
100
AcDbMText
 10
732.4879722972
 20
58.2506472157
 30
0.0
 40
3.0
 41
22.2857142857
 46
0.0
 71
     1
 72
     1
  1
Pj: 3D3
  7
TEXTSTYLE_5
 73
     1
 44
1.0
  0
MTEXT
  5
452
330
1B
100
AcDbEntity
 67
     1
  8
9_SOLID
  6
Continuous
 62
     2
100
AcDbMText
 10
752.4879722972
 20
58.2506472157
 30
0.0
 40
3.0
 41
38.0357142857
 46
0.0
 71
     1
 72
     1
  1
% Check: %
  7
TEXTSTYLE_5
 73
     1
 44
1.0
  0
MTEXT
  5
453
330
1B
100
AcDbEntity
 67
     1
  8
9_SOLID
  6
Continuous
 62
     2
100
AcDbMText
 10
792.4879722972
 20
58.2506472157
 30
0.0
 40
3.0
 41
19.5
 46
0.0
 71
     1
 72
     1
  1
Rev:00
  7
TEXTSTYLE_5
 73
     1
 44
1.0
  0
MTEXT
  5
454
330
1B
100
AcDbEntity
 67
     1
  8
9_SOLID
  6
Continuous
 62
     2
100
AcDbMText
 10
812.4879722972
 20
58.5006472157
 30
0.0
 40
3.0
 41
19.7142857143
 46
0.0
 71
     1
 72
     1
  1
Ver: A
  7
TEXTSTYLE_5
 73
     1
 44
1.0
  0
MTEXT
  5
455
330
1B
100
AcDbEntity
 67
     1
  8
9_SOLID
  6
Continuous
 62
     2
100
AcDbMText
 10
732.4879722972
 20
52.2506472157
 30
0.0
 40
3.0
 41
74.8928571429
 46
0.0
 71
     1
 72
     1
  1
Neutral code: 3D3_C_402
  7
TEXTSTYLE_5
 73
     1
 44
1.0
  0
MTEXT
  5
456
330
1B
100
AcDbEntity
 67
     1
  8
9_SOLID
  6
Continuous
 62
     2
100
AcDbMText
 10
732.4879722972
 20
46.2506472157
 30
0.0
 40
3.0
 41
19.3928571429
 46
0.0
 71
     1
 72
     1
  1
Code: 
  7
TEXTSTYLE_5
 73
     1
 44
1.0
  0
MTEXT
  5
457
330
1B
100
AcDbEntity
 67
     1
  8
9_SOLID
  6
Continuous
 62
     2
100
AcDbMText
 10
792.4879722972
 20
46.5006472157
 30
0.0
 40
3.0
 41
27.0
 46
0.0
 71
     1
 72
     1
  1
Scale: 1:1
  7
TEXTSTYLE_5
 73
     1
 44
1.0
  0
MTEXT
  5
458
330
1B
100
AcDbEntity
 67
     1
  8
9_SOLID
  6
Continuous
 62
     2
100
AcDbMText
 10
826.0004722972
 20
46.5006472157
 30
0.0
 40
3.0
 41
6.4285714286
 46
0.0
 71
     2
 72
     1
  1
A1
  7
TEXTSTYLE_5
 73
     1
 44
1.0
  0
MTEXT
  5
459
330
1B
100
AcDbEntity
 67
     1
  8
9_SOLID
  6
Continuous
 62
     2
100
AcDbMText
 10
732.4879722972
 20
40.2506472157
 30
0.0
 40
2.5
 41
143.6607142857
 46
0.0
 71
     1
 72
     1
  1
It descr.: STAFFA PER ATTACCO A COLONNA PALLADIANO
  7
TEXTSTYLE_5
 73
     1
 44
1.0
  0
MTEXT
  5
45A
330
1B
100
AcDbEntity
 67
     1
  8
9_SOLID
  6
Continuous
 62
     2
100
AcDbMText
 10
732.4879722972
 20
34.5006472157
 30
0.0
 40
3.0
 41
33.9642857143
 46
0.0
 71
     1
 72
     1
  1
En descr.: 
  7
TEXTSTYLE_5
 73
     1
 44
1.0
  0
MTEXT
  5
45B
330
1B
100
AcDbEntity
 67
     1
  8
9_SOLID
  6
Continuous
 62
     2
100
AcDbMText
 10
732.4879722972
 20
28.5006472157
 30
0.0
 40
3.0
 41
31.6071428571
 46
0.0
 71
     1
 72
     1
  1
Des.: M.P.
  7
TEXTSTYLE_5
 73
     1
 44
1.0
  0
MTEXT
  5
45C
330
1B
100
AcDbEntity
 67
     1
  8
9_SOLID
  6
Continuous
 62
     2
100
AcDbMText
 10
782.4879722972
 20
28.5006472157
 30
0.0
 40
3.0
 41
34.8214285714
 46
0.0
 71
     1
 72
     1
  1
Check: A.P.
  7
TEXTSTYLE_5
 73
     1
 44
1.0
  0
MTEXT
  5
45D
330
1B
100
AcDbEntity
 67
     1
  8
9_SOLID
  6
Continuous
 62
     2
100
AcDbMText
 10
702.4879722972
 20
22.5006472157
 30
0.0
 40
3.0
 41
42.5357142857
 46
0.0
 71
     1
 72
     1
  1
Date: 18.12.18
  7
TEXTSTYLE_5
 73
     1
 44
1.0
  0
MTEXT
  5
45E
330
1B
100
AcDbEntity
 67
     1
  8
9_SOLID
  6
Continuous
 62
     2
100
AcDbMText
 10
732.4879722972
 20
22.5006472157
 30
0.0
 40
3.0
 41
18.2142857143
 46
0.0
 71
     1
 72
     1
  1
Mat.: 
  7
TEXTSTYLE_5
 73
     1
 44
1.0
  0
MTEXT
  5
45F
330
1B
100
AcDbEntity
 67
     1
  8
9_SOLID
  6
Continuous
 62
     2
100
AcDbMText
 10
782.4879722972
 20
22.0006472157
 30
0.0
 40
2.0
 41
42.3571428571
 46
0.0
 71
     1
 72
     1
  1
Disegno per catalogo
  7
TEXTSTYLE_5
 73
     1
 44
1.0
  0
MTEXT
  5
460
330
1B
100
AcDbEntity
 67
     1
  8
9_SOLID
  6
Continuous
 62
     2
100
AcDbMText
 10
702.4879722972
 20
16.9006472157
 30
0.0
 40
1.8
 41
175.6928571429
 46
0.0
 71
     1
 72
     1
  1
It: A norma di legge si diffida da qualsiasi riproduzione senza nostra autorizzazione esplicita.
  7
TEXTSTYLE_5
 73
     1
 44
1.0
  0
MTEXT
  5
461
330
1B
100
AcDbEntity
 67
     1
  8
9_SOLID
  6
Continuous
 62
     2
100
AcDbMText
 10
702.4879722972
 20
12.9006472157
 30
0.0
 40
1.8
 41
157.6285714286
 46
0.0
 71
     1
 72
     1
  1
En: According to the law, beware of any reproduction made without our authorization.
  7
TEXTSTYLE_5
 73
     1
 44
1.0
  0
ENDSEC
  0
SECTION
  2
OBJECTS
  0
DICTIONARY
  5
462
330
0
100
AcDbDictionary
281
     1
  3
ACAD_DETAILVIEWSTYLE
350
4B8
  3
ACAD_GROUP
350
463
  3
ACAD_LAYOUT
350
48B
  3
ACAD_MATERIAL
350
4A7
  3
ACAD_MLEADERSTYLE
350
4AD
  3
ACAD_MLINESTYLE
350
464
  3
ACAD_PLOTSETTINGS
350
466
  3
ACAD_PLOTSTYLENAME
350
467
  3
ACAD_SCALELIST
350
469
  3
ACAD_SECTIONVIEWSTYLE
350
4B9
  3
ACAD_TABLESTYLE
350
4AB
  3
ACAD_VISUALSTYLE
350
48E
  3
ACDB_RECOMPOSE_DATA
350
4B4
  3
AcDbVariableDictionary
350
4B0
  3
APPDATA
350
4AF
  0
DICTIONARY
  5
4B8
102
{ACAD_REACTORS
330
462
102
}
330
462
100
AcDbDictionary
281
     1
  0
DICTIONARY
  5
463
102
{ACAD_REACTORS
330
462
102
}
330
462
100
AcDbDictionary
281
     1
  0
DICTIONARY
  5
48B
102
{ACAD_REACTORS
330
462
102
}
330
462
100
AcDbDictionary
281
     1
  3
Foglio 1
350
48D
  3
Model
350
48C
  0
DICTIONARY
  5
4A7
102
{ACAD_REACTORS
330
462
102
}
330
462
100
AcDbDictionary
281
     1
  3
ByBlock
350
4A9
  3
ByLayer
350
4A8
  3
Global
350
4AA
  0
DICTIONARY
  5
4AD
102
{ACAD_REACTORS
330
462
102
}
330
462
100
AcDbDictionary
281
     1
  3
Standard
350
4AE
  0
DICTIONARY
  5
464
102
{ACAD_REACTORS
330
462
102
}
330
462
100
AcDbDictionary
281
     1
  3
STANDARD
350
465
  0
DICTIONARY
  5
466
102
{ACAD_REACTORS
330
462
102
}
330
462
100
AcDbDictionary
281
     1
  0
ACDBDICTIONARYWDFLT
  5
467
102
{ACAD_REACTORS
330
462
102
}
330
462
100
AcDbDictionary
281
     1
  3
Normal
350
468
100
AcDbDictionaryWithDefault
340
468
  0
DICTIONARY
  5
469
102
{ACAD_REACTORS
330
462
102
}
330
462
100
AcDbDictionary
281
     1
  3
A0
350
46A
  3
A1
350
46B
  3
A2
350
46C
  3
A3
350
46D
  3
A4
350
46E
  3
A5
350
46F
  3
A6
350
470
  3
A7
350
471
  3
A8
350
472
  3
A9
350
473
  3
B0
350
474
  3
B1
350
475
  3
B2
350
476
  3
B3
350
477
  3
B4
350
478
  3
B5
350
479
  3
B6
350
47A
  3
B7
350
47B
  3
B8
350
47C
  3
B9
350
47D
  3
C0
350
47E
  3
C1
350
47F
  3
C2
350
480
  3
C3
350
481
  3
C4
350
482
  3
C5
350
483
  3
C6
350
484
  3
C7
350
485
  3
C8
350
486
  3
C9
350
487
  3
D0
350
488
  3
D1
350
489
  3
D2
350
48A
  0
DICTIONARY
  5
4B9
102
{ACAD_REACTORS
330
462
102
}
330
462
100
AcDbDictionary
281
     1
  0
DICTIONARY
  5
4AB
102
{ACAD_REACTORS
330
462
102
}
330
462
100
AcDbDictionary
281
     1
  3
Standard
350
4AC
  0
DICTIONARY
  5
48E
102
{ACAD_REACTORS
330
462
102
}
330
462
100
AcDbDictionary
281
     1
  3
2dWireframe
350
493
  3
Basic
350
496
  3
Brighten
350
49A
  3
ColorChange
350
49E
  3
Conceptual
350
498
  3
Dim
350
499
  3
EdgeColorOff
350
4A1
  3
Facepattern
350
49D
  3
Flat
350
48F
  3
FlatWithEdges
350
490
  3
Gouraud
350
491
  3
GouraudWithEdges
350
492
  3
Hidden
350
495
  3
JitterOff
350
49F
  3
Linepattern
350
49C
  3
OverhangOff
350
4A0
  3
Realistic
350
497
  3
Shaded
350
4A6
  3
Shaded with edges
350
4A5
  3
Shades of Gray
350
4A2
  3
Sketchy
350
4A3
  3
Thicken
350
49B
  3
Wireframe
350
494
  3
X-Ray
350
4A4
  0
XRECORD
  5
4B4
102
{ACAD_REACTORS
330
462
102
}
330
462
100
AcDbXrecord
280
     1
 90
        1
330
4AC
  0
DICTIONARY
  5
4B0
102
{ACAD_REACTORS
330
462
102
}
330
462
100
AcDbDictionary
281
     1
  3
CANNOSCALE
350
4B1
  3
CMLEADERSTYLE
350
4B6
  3
CTABLESTYLE
350
4B5
  3
MSLTSCALE
350
4B7
  0
DICTIONARY
  5
4AF
102
{ACAD_REACTORS
330
462
102
}
330
462
100
AcDbDictionary
281
     1
  0
LAYOUT
  5
48D
102
{ACAD_REACTORS
330
48B
102
}
330
48B
100
AcDbPlotSettings
  1

  2
none_device
  4
ISO_A3_(420.00_x_297.00_MM)
  6

 40
7.5
 41
20.0
 42
7.5
 43
20.0
 44
420.0
 45
297.0
 46
0.0
 47
0.0
 48
0.0
 49
0.0
140
0.0
141
0.0
142
1.0
143
2.311284046692607
 70
   688
 72
     1
 73
     0
 74
     1
  7

 75
     0
 76
     0
 77
     2
 78
   300
147
0.4326599326599327
148
0.0
149
0.0
100
AcDbLayout
  1
Foglio 1
 70
     1
 71
     1
 10
0.0
 20
0.0
 11
412.5
 21
277.0
 12
0.0
 22
0.0
 32
0.0
 14
0.0
 24
0.0
 34
0.0
 15
841.0
 25
594.0
 35
0.0
146
0.0
 13
0.0
 23
0.0
 33
0.0
 16
1.0
 26
0.0
 36
0.0
 17
0.0
 27
1.0
 37
0.0
 76
     0
330
1B
331
2E5
  0
LAYOUT
  5
48C
102
{ACAD_REACTORS
330
48B
102
}
330
48B
100
AcDbPlotSettings
  1

  2
none_device
  4
Letter_(8.50_x_11.00_Inches)
  6

 40
6.35
 41
6.35
 42
6.35
 43
6.35
 44
215.9
 45
279.4
 46
0.0
 47
0.0
 48
0.0
 49
0.0
140
0.0
141
0.0
142
1.0
143
105.12499999815
 70
  1712
 72
     0
 73
     0
 74
     0
  7

 75
     0
 76
     0
 77
     2
 78
   300
147
0.0095124851369094
148
-0.0000001879597448
149
0.0
100
AcDbLayout
  1
Model
 70
     1
 71
     0
 10
0.0
 20
0.0
 11
841.0
 21
594.0
 12
0.0
 22
0.0
 32
0.0
 14
0.0
 24
0.0
 34
0.0
 15
841.0
 25
594.0
 35
0.0
146
0.0
 13
0.0
 23
0.0
 33
0.0
 16
1.0
 26
0.0
 36
0.0
 17
0.0
 27
1.0
 37
0.0
 76
     0
330
1F
331
1F4
  0
MATERIAL
  5
4A9
102
{ACAD_REACTORS
330
4A7
102
}
330
4A7
100
AcDbMaterial
  1
ByBlock
 72
     1
 94
      127
  0
MATERIAL
  5
4A8
102
{ACAD_REACTORS
330
4A7
102
}
330
4A7
100
AcDbMaterial
  1
ByLayer
 72
     1
 94
      127
  0
MATERIAL
  5
4AA
102
{ACAD_REACTORS
330
4A7
102
}
330
4A7
100
AcDbMaterial
  1
Global
 72
     1
 94
      127
  0
MLEADERSTYLE
  5
4AE
102
{ACAD_REACTORS
330
4AD
102
}
330
4AD
100
AcDbMLeaderStyle
179
     2
170
     2
171
     1
172
     0
 90
        2
 40
0.0
 41
0.0
173
     1
 91
-1056964608
340
14
 92
       -2
290
     1
 42
2.0
291
     1
 43
8.0
  3
Standard
341
0
 44
4.0
300

342
11
174
     1
178
     1
175
     1
176
     0
 93
-1056964608
 45
4.0
292
     0
297
     0
 46
4.0
343
0
 94
-1056964608
 47
1.0
 49
1.0
140
1.0
293
     1
141
0.0
294
     1
177
     0
142
1.0
295
     0
296
     0
143
3.75
271
     0
272
     9
273
     9
298
     0
  0
MLINESTYLE
  5
465
102
{ACAD_REACTORS
330
464
102
}
330
464
100
AcDbMlineStyle
  2
STANDARD
 70
     0
  3

 62
   256
 51
90.0
 52
90.0
 71
     2
 49
0.5
 62
   256
  6
BYLAYER
 49
-0.5
 62
   256
  6
BYLAYER
  0
ACDBPLACEHOLDER
  5
468
102
{ACAD_REACTORS
330
467
102
}
330
467
  0
SCALE
  5
46A
102
{ACAD_REACTORS
330
469
102
}
330
469
100
AcDbScale
 70
     0
300
1:1
140
1.0
141
1.0
290
     1
  0
SCALE
  5
46B
102
{ACAD_REACTORS
330
469
102
}
330
469
100
AcDbScale
 70
     0
300
1:2
140
1.0
141
2.0
290
     0
  0
SCALE
  5
46C
102
{ACAD_REACTORS
330
469
102
}
330
469
100
AcDbScale
 70
     0
300
1:4
140
1.0
141
4.0
290
     0
  0
SCALE
  5
46D
102
{ACAD_REACTORS
330
469
102
}
330
469
100
AcDbScale
 70
     0
300
1:5
140
1.0
141
5.0
290
     0
  0
SCALE
  5
46E
102
{ACAD_REACTORS
330
469
102
}
330
469
100
AcDbScale
 70
     0
300
1:8
140
1.0
141
8.0
290
     0
  0
SCALE
  5
46F
102
{ACAD_REACTORS
330
469
102
}
330
469
100
AcDbScale
 70
     0
300
1:10
140
1.0
141
10.0
290
     0
  0
SCALE
  5
470
102
{ACAD_REACTORS
330
469
102
}
330
469
100
AcDbScale
 70
     0
300
1:16
140
1.0
141
16.0
290
     0
  0
SCALE
  5
471
102
{ACAD_REACTORS
330
469
102
}
330
469
100
AcDbScale
 70
     0
300
1:20
140
1.0
141
20.0
290
     0
  0
SCALE
  5
472
102
{ACAD_REACTORS
330
469
102
}
330
469
100
AcDbScale
 70
     0
300
1:30
140
1.0
141
30.0
290
     0
  0
SCALE
  5
473
102
{ACAD_REACTORS
330
469
102
}
330
469
100
AcDbScale
 70
     0
300
1:40
140
1.0
141
40.0
290
     0
  0
SCALE
  5
474
102
{ACAD_REACTORS
330
469
102
}
330
469
100
AcDbScale
 70
     0
300
1:50
140
1.0
141
50.0
290
     0
  0
SCALE
  5
475
102
{ACAD_REACTORS
330
469
102
}
330
469
100
AcDbScale
 70
     0
300
1:100
140
1.0
141
100.0
290
     0
  0
SCALE
  5
476
102
{ACAD_REACTORS
330
469
102
}
330
469
100
AcDbScale
 70
     0
300
2:1
140
2.0
141
1.0
290
     0
  0
SCALE
  5
477
102
{ACAD_REACTORS
330
469
102
}
330
469
100
AcDbScale
 70
     0
300
4:1
140
4.0
141
1.0
290
     0
  0
SCALE
  5
478
102
{ACAD_REACTORS
330
469
102
}
330
469
100
AcDbScale
 70
     0
300
8:1
140
8.0
141
1.0
290
     0
  0
SCALE
  5
479
102
{ACAD_REACTORS
330
469
102
}
330
469
100
AcDbScale
 70
     0
300
10:1
140
10.0
141
1.0
290
     0
  0
SCALE
  5
47A
102
{ACAD_REACTORS
330
469
102
}
330
469
100
AcDbScale
 70
     0
300
100:1
140
100.0
141
1.0
290
     0
  0
SCALE
  5
47B
102
{ACAD_REACTORS
330
469
102
}
330
469
100
AcDbScale
 70
     0
300
1/128" = 1'-0"
140
0.0078125
141
12.0
290
     0
  0
SCALE
  5
47C
102
{ACAD_REACTORS
330
469
102
}
330
469
100
AcDbScale
 70
     0
300
1/64" = 1'-0"
140
0.015625
141
12.0
290
     0
  0
SCALE
  5
47D
102
{ACAD_REACTORS
330
469
102
}
330
469
100
AcDbScale
 70
     0
300
1/32" = 1'-0"
140
0.03125
141
12.0
290
     0
  0
SCALE
  5
47E
102
{ACAD_REACTORS
330
469
102
}
330
469
100
AcDbScale
 70
     0
300
1/16" = 1'-0"
140
0.0625
141
12.0
290
     0
  0
SCALE
  5
47F
102
{ACAD_REACTORS
330
469
102
}
330
469
100
AcDbScale
 70
     0
300
3/32" = 1'-0"
140
0.09375
141
12.0
290
     0
  0
SCALE
  5
480
102
{ACAD_REACTORS
330
469
102
}
330
469
100
AcDbScale
 70
     0
300
1/8" = 1'-0"
140
0.125
141
12.0
290
     0
  0
SCALE
  5
481
102
{ACAD_REACTORS
330
469
102
}
330
469
100
AcDbScale
 70
     0
300
3/16" = 1'-0"
140
0.1875
141
12.0
290
     0
  0
SCALE
  5
482
102
{ACAD_REACTORS
330
469
102
}
330
469
100
AcDbScale
 70
     0
300
1/4" = 1'-0"
140
0.25
141
12.0
290
     0
  0
SCALE
  5
483
102
{ACAD_REACTORS
330
469
102
}
330
469
100
AcDbScale
 70
     0
300
3/8" = 1'-0"
140
0.375
141
12.0
290
     0
  0
SCALE
  5
484
102
{ACAD_REACTORS
330
469
102
}
330
469
100
AcDbScale
 70
     0
300
1/2" = 1'-0"
140
0.5
141
12.0
290
     0
  0
SCALE
  5
485
102
{ACAD_REACTORS
330
469
102
}
330
469
100
AcDbScale
 70
     0
300
3/4" = 1'-0"
140
0.75
141
12.0
290
     0
  0
SCALE
  5
486
102
{ACAD_REACTORS
330
469
102
}
330
469
100
AcDbScale
 70
     0
300
1" = 1'-0"
140
1.0
141
12.0
290
     0
  0
SCALE
  5
487
102
{ACAD_REACTORS
330
469
102
}
330
469
100
AcDbScale
 70
     0
300
1-1/2" = 1'-0"
140
1.5
141
12.0
290
     0
  0
SCALE
  5
488
102
{ACAD_REACTORS
330
469
102
}
330
469
100
AcDbScale
 70
     0
300
3" = 1'-0"
140
3.0
141
12.0
290
     0
  0
SCALE
  5
489
102
{ACAD_REACTORS
330
469
102
}
330
469
100
AcDbScale
 70
     0
300
6" = 1'-0"
140
6.0
141
12.0
290
     0
  0
SCALE
  5
48A
102
{ACAD_REACTORS
330
469
102
}
330
469
100
AcDbScale
 70
     0
300
1'-0" = 1'-0"
140
12.0
141
12.0
290
     0
  0
TABLESTYLE
  5
4AC
102
{ACAD_REACTORS
330
4AB
102
}
102
{ACAD_XDICTIONARY
360
4B2
102
}
330
4AB
100
AcDbTableStyle
  3
Standard
 70
     0
 71
     0
 40
0.06
 41
0.06
280
     0
281
     0
  7
STANDARD
140
4.5
170
     2
 62
     0
 63
   257
283
     0
 90
        4
 91
        0
  1

274
    -2
284
     1
 64
     0
275
    -2
285
     1
 65
     0
276
    -2
286
     1
 66
     0
277
    -2
287
     1
 67
     0
278
    -2
288
     1
 68
     0
279
    -2
289
     1
 69
     0
  7
STANDARD
140
6.0
170
     5
 62
     0
 63
   257
283
     0
 90
        4
 91
        0
  1

274
    -2
284
     1
 64
     0
275
    -2
285
     1
 65
     0
276
    -2
286
     1
 66
     0
277
    -2
287
     1
 67
     0
278
    -2
288
     1
 68
     0
279
    -2
289
     1
 69
     0
  7
STANDARD
140
4.5
170
     5
 62
     0
 63
   257
283
     0
 90
        4
 91
        0
  1

274
    -2
284
     1
 64
     0
275
    -2
285
     1
 65
     0
276
    -2
286
     1
 66
     0
277
    -2
287
     1
 67
     0
278
    -2
288
     1
 68
     0
279
    -2
289
     1
 69
     0
  0
VISUALSTYLE
  5
493
102
{ACAD_REACTORS
330
48E
102
}
330
48E
100
AcDbVisualStyle
  2
2dWireframe
 70
     4
177
     3
291
     0
 70
    58
 90
        0
176
     1
 90
        2
176
     1
 90
        0
176
     1
 90
        0
176
     1
 40
0.6
176
     1
 40
30.0
176
     1
 62
     7
420
 16777215
176
     1
 90
        1
176
     1
 90
        4
176
     1
 62
     7
176
     1
 62
   257
176
     1
 90
        1
176
     1
 90
        1
176
     1
 40
1.0
176
     1
 90
        0
176
     1
 62
   257
176
     1
 40
1.0
176
     1
 90
        1
176
     1
 90
        6
176
     1
 90
        2
176
     1
 62
     7
176
     1
 90
        5
176
     1
 90
        0
176
     1
 90
        0
176
     1
290
     0
176
     1
 90
        1
176
     1
 40
0.0
176
     1
 90
        0
176
     1
290
     1
176
     1
290
     1
176
     1
290
     0
176
     1
290
     0
176
     1
290
     0
176
     1
290
     0
176
     1
290
     0
176
     1
290
     0
176
     1
290
     0
176
     1
 90
       50
176
     1
 40
0.0
176
     1
 40
1.0
176
     1
 90
        0
176
     1
 62
    18
420
        0
176
     1
 90
       50
176
     1
 90
        3
176
     1
 62
     5
420
      255
176
     1
290
     0
176
     1
 90
       50
176
     1
 90
       50
176
     1
 90
       50
176
     1
290
     0
176
     1
 90
       50
176
     1
 62
   256
176
     0
 40
1.0
176
     0
 90
        2
176
     1
  1
strokes_ogs.tif
176
     1
290
     0
176
     1
 40
1.0
176
     1
 40
1.0
176
     1
  0
VISUALSTYLE
  5
496
102
{ACAD_REACTORS
330
48E
102
}
330
48E
100
AcDbVisualStyle
  2
Basic
 70
     7
177
     3
291
     1
 70
    58
 90
        1
176
     1
 90
        0
176
     1
 90
        1
176
     1
 90
        0
176
     1
 40
0.6
176
     1
 40
30.0
176
     1
 62
     7
420
 16777215
176
     1
 90
        0
176
     1
 90
        4
176
     1
 62
     7
176
     1
 62
   257
176
     1
 90
        1
176
     1
 90
        1
176
     1
 40
1.0
176
     1
 90
        8
176
     1
 62
     7
176
     1
 40
1.0
176
     1
 90
        1
176
     1
 90
        6
176
     1
 90
        2
176
     1
 62
     7
176
     1
 90
        5
176
     1
 90
        0
176
     1
 90
        0
176
     1
290
     0
176
     1
 90
        1
176
     1
 40
0.0
176
     1
 90
        0
176
     1
290
     0
176
     1
290
     1
176
     1
290
     1
176
     1
290
     0
176
     1
290
     0
176
     1
290
     0
176
     1
290
     0
176
     1
290
     0
176
     1
290
     0
176
     1
 90
       50
176
     1
 40
0.0
176
     1
 40
1.0
176
     1
 90
        0
176
     1
 62
    18
420
        0
176
     1
 90
       50
176
     1
 90
        3
176
     1
 62
     5
420
      255
176
     1
290
     0
176
     1
 90
       50
176
     1
 90
       50
176
     1
 90
       50
176
     1
290
     0
176
     1
 90
       50
176
     1
 62
   256
176
     0
 40
1.0
176
     0
 90
        2
176
     1
  1
strokes_ogs.tif
176
     1
290
     0
176
     1
 40
1.0
176
     1
 40
1.0
176
     1
  0
VISUALSTYLE
  5
49A
102
{ACAD_REACTORS
330
48E
102
}
330
48E
100
AcDbVisualStyle
  2
Brighten
 70
    12
177
     3
291
     1
 70
    58
 90
        2
176
     1
 90
        2
176
     1
 90
        0
176
     1
 90
        0
176
     1
 40
0.6
176
     1
 40
30.0
176
     1
 62
     7
420
 16777215
176
     1
 90
        1
176
     1
 90
        4
176
     1
 62
     7
176
     1
 62
   257
176
     1
 90
        1
176
     1
 90
        1
176
     1
 40
1.0
176
     1
 90
        8
176
     1
 62
     7
176
     1
 40
1.0
176
     1
 90
        1
176
     1
 90
        6
176
     1
 90
        2
176
     1
 62
     7
176
     1
 90
        5
176
     1
 90
        0
176
     1
 90
        0
176
     1
290
     0
176
     1
 90
        1
176
     1
 40
50.0
176
     1
 90
        0
176
     1
290
     0
176
     1
290
     1
176
     1
290
     1
176
     1
290
     0
176
     1
290
     0
176
     1
290
     0
176
     1
290
     0
176
     1
290
     0
176
     1
290
     0
176
     1
 90
       50
176
     1
 40
0.0
176
     1
 40
1.0
176
     1
 90
        0
176
     1
 62
    18
420
        0
176
     1
 90
       50
176
     1
 90
        3
176
     1
 62
     5
420
      255
176
     1
290
     0
176
     1
 90
       50
176
     1
 90
       50
176
     1
 90
       50
176
     1
290
     0
176
     1
 90
       50
176
     1
 62
   256
176
     0
 40
1.0
176
     0
 90
        2
176
     1
  1
strokes_ogs.tif
176
     1
290
     0
176
     1
 40
1.0
176
     1
 40
1.0
176
     1
  0
VISUALSTYLE
  5
49E
102
{ACAD_REACTORS
330
48E
102
}
330
48E
100
AcDbVisualStyle
  2
ColorChange
 70
    16
177
     3
291
     1
 70
    58
 90
        2
176
     1
 90
        2
176
     1
 90
        3
176
     1
 90
        0
176
     1
 40
0.6
176
     1
 40
30.0
176
     1
 62
     8
420
  8421504
176
     1
 90
        1
176
     1
 90
        4
176
     1
 62
     7
176
     1
 62
   257
176
     1
 90
        1
176
     1
 90
        1
176
     1
 40
1.0
176
     1
 90
        8
176
     1
 62
     8
420
  8421504
176
     1
 40
1.0
176
     1
 90
        1
176
     1
 90
        6
176
     1
 90
        2
176
     1
 62
     7
176
     1
 90
        5
176
     1
 90
        0
176
     1
 90
        0
176
     1
290
     0
176
     1
 90
        1
176
     1
 40
0.0
176
     1
 90
        0
176
     1
290
     0
176
     1
290
     1
176
     1
290
     1
176
     1
290
     0
176
     1
290
     0
176
     1
290
     0
176
     1
290
     0
176
     1
290
     0
176
     1
290
     0
176
     1
 90
       50
176
     1
 40
0.0
176
     1
 40
1.0
176
     1
 90
        0
176
     1
 62
    18
420
        0
176
     1
 90
       50
176
     1
 90
        3
176
     1
 62
     5
420
      255
176
     1
290
     0
176
     1
 90
       50
176
     1
 90
       50
176
     1
 90
       50
176
     1
290
     0
176
     1
 90
       50
176
     1
 62
   256
176
     0
 40
1.0
176
     0
 90
        2
176
     1
  1
strokes_ogs.tif
176
     1
290
     0
176
     1
 40
1.0
176
     1
 40
1.0
176
     1
  0
VISUALSTYLE
  5
498
102
{ACAD_REACTORS
330
48E
102
}
330
48E
100
AcDbVisualStyle
  2
Conceptual
 70
     9
177
     3
291
     0
 70
    58
 90
        3
176
     1
 90
        2
176
     1
 90
        0
176
     1
 90
        0
176
     1
 40
0.6
176
     1
 40
30.0
176
     1
 62
     7
420
 16777215
176
     1
 90
        2
176
     1
 90
        2
176
     1
 62
     7
176
     1
 62
   257
176
     1
 90
        1
176
     1
 90
        1
176
     1
 40
179.0
176
     1
 90
        8
176
     1
 62
     7
176
     1
 40
1.0
176
     1
 90
        1
176
     1
 90
        6
176
     1
 90
        2
176
     1
 62
     7
176
     1
 90
        3
176
     1
 90
        0
176
     1
 90
        0
176
     1
290
     0
176
     1
 90
        1
176
     1
 40
0.0
176
     1
 90
        0
176
     1
290
     0
176
     1
290
     1
176
     1
290
     1
176
     1
290
     0
176
     1
290
     0
176
     1
290
     0
176
     1
290
     0
176
     1
290
     0
176
     1
290
     0
176
     1
 90
       50
176
     1
 40
0.0
176
     1
 40
1.0
176
     1
 90
        0
176
     1
 62
    18
420
        0
176
     1
 90
       50
176
     1
 90
        3
176
     1
 62
     5
420
      255
176
     1
290
     0
176
     1
 90
       50
176
     1
 90
       50
176
     1
 90
       50
176
     1
290
     0
176
     1
 90
       50
176
     1
 62
   256
176
     0
 40
1.0
176
     0
 90
        2
176
     1
  1
strokes_ogs.tif
176
     1
290
     0
176
     1
 40
1.0
176
     1
 40
1.0
176
     1
  0
VISUALSTYLE
  5
499
102
{ACAD_REACTORS
330
48E
102
}
330
48E
100
AcDbVisualStyle
  2
Dim
 70
    11
177
     3
291
     1
 70
    58
 90
        2
176
     1
 90
        2
176
     1
 90
        0
176
     1
 90
        0
176
     1
 40
0.6
176
     1
 40
30.0
176
     1
 62
     7
420
 16777215
176
     1
 90
        1
176
     1
 90
        4
176
     1
 62
     7
176
     1
 62
   257
176
     1
 90
        1
176
     1
 90
        1
176
     1
 40
1.0
176
     1
 90
        8
176
     1
 62
     7
176
     1
 40
1.0
176
     1
 90
        1
176
     1
 90
        6
176
     1
 90
        2
176
     1
 62
     7
176
     1
 90
        5
176
     1
 90
        0
176
     1
 90
        0
176
     1
290
     0
176
     1
 90
        1
176
     1
 40
-50.0
176
     1
 90
        0
176
     1
290
     0
176
     1
290
     1
176
     1
290
     1
176
     1
290
     0
176
     1
290
     0
176
     1
290
     0
176
     1
290
     0
176
     1
290
     0
176
     1
290
     0
176
     1
 90
       50
176
     1
 40
0.0
176
     1
 40
1.0
176
     1
 90
        0
176
     1
 62
    18
420
        0
176
     1
 90
       50
176
     1
 90
        3
176
     1
 62
     5
420
      255
176
     1
290
     0
176
     1
 90
       50
176
     1
 90
       50
176
     1
 90
       50
176
     1
290
     0
176
     1
 90
       50
176
     1
 62
   256
176
     0
 40
1.0
176
     0
 90
        2
176
     1
  1
strokes_ogs.tif
176
     1
290
     0
176
     1
 40
1.0
176
     1
 40
1.0
176
     1
  0
VISUALSTYLE
  5
4A1
102
{ACAD_REACTORS
330
48E
102
}
330
48E
100
AcDbVisualStyle
  2
EdgeColorOff
 70
    22
177
     3
291
     1
 70
    58
 90
        2
176
     0
 90
        2
176
     0
 90
        0
176
     0
 90
        0
176
     0
 40
0.6
176
     0
 40
30.0
176
     0
 62
     7
420
 16777215
176
     0
 90
        1
176
     0
 90
        4
176
     0
 62
     7
176
     0
 62
   257
176
     0
 90
        1
176
     0
 90
        1
176
     0
 40
1.0
176
     0
 90
        8
176
     2
 62
     7
176
     0
 40
1.0
176
     0
 90
        1
176
     0
 90
        6
176
     0
 90
        2
176
     0
 62
     7
176
     0
 90
        5
176
     0
 90
        0
176
     0
 90
        0
176
     0
290
     0
176
     0
 90
        1
176
     0
 40
0.0
176
     0
 90
        0
176
     0
290
     0
176
     0
290
     1
176
     0
290
     1
176
     0
290
     0
176
     0
290
     0
176
     0
290
     0
176
     0
290
     0
176
     0
290
     0
176
     0
290
     0
176
     0
 90
       50
176
     0
 40
0.0
176
     0
 40
1.0
176
     0
 90
        0
176
     0
 62
    18
420
        0
176
     0
 90
       50
176
     0
 90
        3
176
     0
 62
     5
420
      255
176
     0
290
     0
176
     0
 90
       50
176
     0
 90
       50
176
     0
 90
       50
176
     0
290
     0
176
     0
 90
       50
176
     0
 62
   256
176
     0
 40
1.0
176
     0
 90
        2
176
     0
  1
strokes_ogs.tif
176
     0
290
     0
176
     0
 40
1.0
176
     0
 40
1.0
176
     0
  0
VISUALSTYLE
  5
49D
102
{ACAD_REACTORS
330
48E
102
}
330
48E
100
AcDbVisualStyle
  2
Facepattern
 70
    15
177
     3
291
     1
 70
    58
 90
        2
176
     1
 90
        2
176
     1
 90
        0
176
     1
 90
        0
176
     1
 40
0.6
176
     1
 40
30.0
176
     1
 62
     7
420
 16777215
176
     1
 90
        1
176
     1
 90
        4
176
     1
 62
     7
176
     1
 62
   257
176
     1
 90
        1
176
     1
 90
        1
176
     1
 40
1.0
176
     1
 90
        8
176
     1
 62
     7
176
     1
 40
1.0
176
     1
 90
        1
176
     1
 90
        6
176
     1
 90
        2
176
     1
 62
     7
176
     1
 90
        5
176
     1
 90
        0
176
     1
 90
        0
176
     1
290
     0
176
     1
 90
        1
176
     1
 40
0.0
176
     1
 90
        0
176
     1
290
     0
176
     1
290
     1
176
     1
290
     1
176
     1
290
     0
176
     1
290
     0
176
     1
290
     0
176
     1
290
     0
176
     1
290
     0
176
     1
290
     0
176
     1
 90
       50
176
     1
 40
0.0
176
     1
 40
1.0
176
     1
 90
        0
176
     1
 62
    18
420
        0
176
     1
 90
       50
176
     1
 90
        3
176
     1
 62
     5
420
      255
176
     1
290
     0
176
     1
 90
       50
176
     1
 90
       50
176
     1
 90
       50
176
     1
290
     0
176
     1
 90
       50
176
     1
 62
   256
176
     0
 40
1.0
176
     0
 90
        2
176
     1
  1
strokes_ogs.tif
176
     1
290
     0
176
     1
 40
1.0
176
     1
 40
1.0
176
     1
  0
VISUALSTYLE
  5
48F
102
{ACAD_REACTORS
330
48E
102
}
330
48E
100
AcDbVisualStyle
  2
Flat
 70
     0
177
     3
291
     1
 70
    58
 90
        2
176
     1
 90
        1
176
     1
 90
        1
176
     1
 90
        2
176
     1
 40
0.6
176
     1
 40
30.0
176
     1
 62
     7
420
 16777215
176
     1
 90
        0
176
     1
 90
        0
176
     1
 62
     7
176
     1
 62
   257
176
     1
 90
        1
176
     1
 90
        1
176
     1
 40
1.0
176
     1
 90
        8
176
     1
 62
     7
176
     1
 40
1.0
176
     1
 90
        1
176
     1
 90
        6
176
     1
 90
        2
176
     1
 62
     7
176
     1
 90
        5
176
     1
 90
        0
176
     1
 90
        0
176
     1
290
     0
176
     1
 90
       13
176
     1
 40
0.0
176
     1
 90
        0
176
     1
290
     0
176
     1
290
     1
176
     1
290
     1
176
     1
290
     0
176
     1
290
     0
176
     1
290
     0
176
     1
290
     0
176
     1
290
     0
176
     1
290
     0
176
     1
 90
       50
176
     1
 40
0.0
176
     1
 40
1.0
176
     1
 90
        0
176
     1
 62
    18
420
        0
176
     1
 90
       50
176
     1
 90
        3
176
     1
 62
     5
420
      255
176
     1
290
     0
176
     1
 90
       50
176
     1
 90
       50
176
     1
 90
       50
176
     1
290
     0
176
     1
 90
       50
176
     1
 62
   256
176
     0
 40
1.0
176
     0
 90
        2
176
     1
  1
strokes_ogs.tif
176
     1
290
     0
176
     1
 40
1.0
176
     1
 40
1.0
176
     1
  0
VISUALSTYLE
  5
490
102
{ACAD_REACTORS
330
48E
102
}
330
48E
100
AcDbVisualStyle
  2
FlatWithEdges
 70
     1
177
     3
291
     1
 70
    58
 90
        2
176
     1
 90
        1
176
     1
 90
        1
176
     1
 90
        2
176
     1
 40
0.6
176
     1
 40
30.0
176
     1
 62
     7
420
 16777215
176
     1
 90
        1
176
     1
 90
        0
176
     1
 62
     7
176
     1
 62
   257
176
     1
 90
        1
176
     1
 90
        1
176
     1
 40
1.0
176
     1
 90
        0
176
     1
 62
   257
176
     1
 40
1.0
176
     1
 90
        1
176
     1
 90
        6
176
     1
 90
        2
176
     1
 62
     7
176
     1
 90
        5
176
     1
 90
        0
176
     1
 90
        0
176
     1
290
     0
176
     1
 90
       13
176
     1
 40
0.0
176
     1
 90
        0
176
     1
290
     0
176
     1
290
     1
176
     1
290
     1
176
     1
290
     0
176
     1
290
     0
176
     1
290
     0
176
     1
290
     0
176
     1
290
     0
176
     1
290
     0
176
     1
 90
       50
176
     1
 40
0.0
176
     1
 40
1.0
176
     1
 90
        0
176
     1
 62
    18
420
        0
176
     1
 90
       50
176
     1
 90
        3
176
     1
 62
     5
420
      255
176
     1
290
     0
176
     1
 90
       50
176
     1
 90
       50
176
     1
 90
       50
176
     1
290
     0
176
     1
 90
       50
176
     1
 62
   256
176
     0
 40
1.0
176
     0
 90
        2
176
     1
  1
strokes_ogs.tif
176
     1
290
     0
176
     1
 40
1.0
176
     1
 40
1.0
176
     1
  0
VISUALSTYLE
  5
491
102
{ACAD_REACTORS
330
48E
102
}
330
48E
100
AcDbVisualStyle
  2
Gouraud
 70
     2
177
     3
291
     1
 70
    58
 90
        2
176
     1
 90
        2
176
     1
 90
        1
176
     1
 90
        2
176
     1
 40
0.6
176
     1
 40
30.0
176
     1
 62
     7
420
 16777215
176
     1
 90
        0
176
     1
 90
        0
176
     1
 62
     7
176
     1
 62
   257
176
     1
 90
        1
176
     1
 90
        1
176
     1
 40
1.0
176
     1
 90
        0
176
     1
 62
     7
176
     1
 40
1.0
176
     1
 90
        1
176
     1
 90
        6
176
     1
 90
        2
176
     1
 62
     7
176
     1
 90
        5
176
     1
 90
        0
176
     1
 90
        0
176
     1
290
     0
176
     1
 90
       13
176
     1
 40
0.0
176
     1
 90
        0
176
     1
290
     0
176
     1
290
     1
176
     1
290
     1
176
     1
290
     0
176
     1
290
     0
176
     1
290
     0
176
     1
290
     0
176
     1
290
     0
176
     1
290
     0
176
     1
 90
       50
176
     1
 40
0.0
176
     1
 40
1.0
176
     1
 90
        0
176
     1
 62
    18
420
        0
176
     1
 90
       50
176
     1
 90
        3
176
     1
 62
     5
420
      255
176
     1
290
     0
176
     1
 90
       50
176
     1
 90
       50
176
     1
 90
       50
176
     1
290
     0
176
     1
 90
       50
176
     1
 62
   256
176
     0
 40
1.0
176
     0
 90
        2
176
     1
  1
strokes_ogs.tif
176
     1
290
     0
176
     1
 40
1.0
176
     1
 40
1.0
176
     1
  0
VISUALSTYLE
  5
492
102
{ACAD_REACTORS
330
48E
102
}
330
48E
100
AcDbVisualStyle
  2
GouraudWithEdges
 70
     3
177
     3
291
     1
 70
    58
 90
        2
176
     1
 90
        2
176
     1
 90
        1
176
     1
 90
        2
176
     1
 40
0.6
176
     1
 40
30.0
176
     1
 62
     7
420
 16777215
176
     1
 90
        1
176
     1
 90
        0
176
     1
 62
     7
176
     1
 62
   257
176
     1
 90
        1
176
     1
 90
        1
176
     1
 40
1.0
176
     1
 90
        0
176
     1
 62
   257
176
     1
 40
1.0
176
     1
 90
        1
176
     1
 90
        6
176
     1
 90
        2
176
     1
 62
     7
176
     1
 90
        5
176
     1
 90
        0
176
     1
 90
        0
176
     1
290
     0
176
     1
 90
       13
176
     1
 40
0.0
176
     1
 90
        0
176
     1
290
     0
176
     1
290
     1
176
     1
290
     1
176
     1
290
     0
176
     1
290
     0
176
     1
290
     0
176
     1
290
     0
176
     1
290
     0
176
     1
290
     0
176
     1
 90
       50
176
     1
 40
0.0
176
     1
 40
1.0
176
     1
 90
        0
176
     1
 62
    18
420
        0
176
     1
 90
       50
176
     1
 90
        3
176
     1
 62
     5
420
      255
176
     1
290
     0
176
     1
 90
       50
176
     1
 90
       50
176
     1
 90
       50
176
     1
290
     0
176
     1
 90
       50
176
     1
 62
   256
176
     0
 40
1.0
176
     0
 90
        2
176
     1
  1
strokes_ogs.tif
176
     1
290
     0
176
     1
 40
1.0
176
     1
 40
1.0
176
     1
  0
VISUALSTYLE
  5
495
102
{ACAD_REACTORS
330
48E
102
}
330
48E
100
AcDbVisualStyle
  2
Hidden
 70
     6
177
     3
291
     0
 70
    58
 90
        1
176
     1
 90
        2
176
     1
 90
        2
176
     1
 90
        0
176
     1
 40
0.6
176
     1
 40
30.0
176
     1
 62
     7
420
 16777215
176
     1
 90
        2
176
     1
 90
        2
176
     1
 62
     7
176
     1
 62
   257
176
     1
 90
        2
176
     1
 90
        1
176
     1
 40
40.0
176
     1
 90
        0
176
     1
 62
   257
176
     1
 40
1.0
176
     1
 90
        1
176
     1
 90
        6
176
     1
 90
        2
176
     1
 62
     7
176
     1
 90
        3
176
     1
 90
        0
176
     1
 90
        0
176
     1
290
     0
176
     1
 90
        1
176
     1
 40
0.0
176
     1
 90
        0
176
     1
290
     0
176
     1
290
     1
176
     1
290
     1
176
     1
290
     0
176
     1
290
     0
176
     1
290
     0
176
     1
290
     0
176
     1
290
     0
176
     1
290
     0
176
     1
 90
       50
176
     1
 40
0.0
176
     1
 40
1.0
176
     1
 90
        0
176
     1
 62
    18
420
        0
176
     1
 90
       50
176
     1
 90
        3
176
     1
 62
     5
420
      255
176
     1
290
     0
176
     1
 90
       50
176
     1
 90
       50
176
     1
 90
       50
176
     1
290
     0
176
     1
 90
       50
176
     1
 62
   256
176
     0
 40
1.0
176
     0
 90
        2
176
     1
  1
strokes_ogs.tif
176
     1
290
     0
176
     1
 40
1.0
176
     1
 40
1.0
176
     1
  0
VISUALSTYLE
  5
49F
102
{ACAD_REACTORS
330
48E
102
}
330
48E
100
AcDbVisualStyle
  2
JitterOff
 70
    20
177
     3
291
     1
 70
    58
 90
        2
176
     0
 90
        2
176
     0
 90
        0
176
     0
 90
        0
176
     0
 40
0.6
176
     0
 40
30.0
176
     0
 62
     7
420
 16777215
176
     0
 90
        1
176
     0
 90
        4
176
     0
 62
     7
176
     0
 62
   257
176
     0
 90
        1
176
     0
 90
        1
176
     0
 40
1.0
176
     0
 90
       10
176
     2
 62
     7
176
     0
 40
1.0
176
     0
 90
        1
176
     0
 90
        6
176
     0
 90
        2
176
     0
 62
     7
176
     0
 90
        5
176
     0
 90
        0
176
     0
 90
        0
176
     0
290
     0
176
     0
 90
        1
176
     0
 40
0.0
176
     0
 90
        0
176
     0
290
     0
176
     0
290
     1
176
     0
290
     1
176
     0
290
     0
176
     0
290
     0
176
     0
290
     0
176
     0
290
     0
176
     0
290
     0
176
     0
290
     0
176
     0
 90
       50
176
     0
 40
0.0
176
     0
 40
1.0
176
     0
 90
        0
176
     0
 62
    18
420
        0
176
     0
 90
       50
176
     0
 90
        3
176
     0
 62
     5
420
      255
176
     0
290
     0
176
     0
 90
       50
176
     0
 90
       50
176
     0
 90
       50
176
     0
290
     0
176
     0
 90
       50
176
     0
 62
   256
176
     0
 40
1.0
176
     0
 90
        2
176
     0
  1
strokes_ogs.tif
176
     0
290
     0
176
     0
 40
1.0
176
     0
 40
1.0
176
     0
  0
VISUALSTYLE
  5
49C
102
{ACAD_REACTORS
330
48E
102
}
330
48E
100
AcDbVisualStyle
  2
Linepattern
 70
    14
177
     3
291
     1
 70
    58
 90
        2
176
     1
 90
        2
176
     1
 90
        0
176
     1
 90
        0
176
     1
 40
0.6
176
     1
 40
30.0
176
     1
 62
     7
420
 16777215
176
     1
 90
        1
176
     1
 90
        4
176
     1
 62
     7
176
     1
 62
   257
176
     1
 90
        7
176
     1
 90
        7
176
     1
 40
1.0
176
     1
 90
        8
176
     1
 62
     7
176
     1
 40
1.0
176
     1
 90
        1
176
     1
 90
        6
176
     1
 90
        2
176
     1
 62
     7
176
     1
 90
        5
176
     1
 90
        0
176
     1
 90
        0
176
     1
290
     0
176
     1
 90
        1
176
     1
 40
0.0
176
     1
 90
        0
176
     1
290
     0
176
     1
290
     1
176
     1
290
     1
176
     1
290
     0
176
     1
290
     0
176
     1
290
     0
176
     1
290
     0
176
     1
290
     0
176
     1
290
     0
176
     1
 90
       50
176
     1
 40
0.0
176
     1
 40
1.0
176
     1
 90
        0
176
     1
 62
    18
420
        0
176
     1
 90
       50
176
     1
 90
        3
176
     1
 62
     5
420
      255
176
     1
290
     0
176
     1
 90
       50
176
     1
 90
       50
176
     1
 90
       50
176
     1
290
     0
176
     1
 90
       50
176
     1
 62
   256
176
     0
 40
1.0
176
     0
 90
        2
176
     1
  1
strokes_ogs.tif
176
     1
290
     0
176
     1
 40
1.0
176
     1
 40
1.0
176
     1
  0
VISUALSTYLE
  5
4A0
102
{ACAD_REACTORS
330
48E
102
}
330
48E
100
AcDbVisualStyle
  2
OverhangOff
 70
    21
177
     3
291
     1
 70
    58
 90
        2
176
     0
 90
        2
176
     0
 90
        0
176
     0
 90
        0
176
     0
 40
0.6
176
     0
 40
30.0
176
     0
 62
     7
420
 16777215
176
     0
 90
        1
176
     0
 90
        4
176
     0
 62
     7
176
     0
 62
   257
176
     0
 90
        1
176
     0
 90
        1
176
     0
 40
1.0
176
     0
 90
        9
176
     2
 62
     7
176
     0
 40
1.0
176
     0
 90
        1
176
     0
 90
        6
176
     0
 90
        2
176
     0
 62
     7
176
     0
 90
        5
176
     0
 90
        0
176
     0
 90
        0
176
     0
290
     0
176
     0
 90
        1
176
     0
 40
0.0
176
     0
 90
        0
176
     0
290
     0
176
     0
290
     1
176
     0
290
     1
176
     0
290
     0
176
     0
290
     0
176
     0
290
     0
176
     0
290
     0
176
     0
290
     0
176
     0
290
     0
176
     0
 90
       50
176
     0
 40
0.0
176
     0
 40
1.0
176
     0
 90
        0
176
     0
 62
    18
420
        0
176
     0
 90
       50
176
     0
 90
        3
176
     0
 62
     5
420
      255
176
     0
290
     0
176
     0
 90
       50
176
     0
 90
       50
176
     0
 90
       50
176
     0
290
     0
176
     0
 90
       50
176
     0
 62
   256
176
     0
 40
1.0
176
     0
 90
        2
176
     0
  1
strokes_ogs.tif
176
     0
290
     0
176
     0
 40
1.0
176
     0
 40
1.0
176
     0
  0
VISUALSTYLE
  5
497
102
{ACAD_REACTORS
330
48E
102
}
330
48E
100
AcDbVisualStyle
  2
Realistic
 70
     8
177
     3
291
     0
 70
    58
 90
        2
176
     1
 90
        3
176
     1
 90
        0
176
     1
 90
        2
176
     1
 40
0.6
176
     1
 40
30.0
176
     1
 62
     7
420
 16777215
176
     1
 90
        0
176
     1
 90
        0
176
     1
 62
     7
176
     1
 62
   257
176
     1
 90
        1
176
     1
 90
        1
176
     1
 40
1.0
176
     1
 90
        8
176
     1
 62
   257
176
     1
 40
1.0
176
     1
 90
        1
176
     1
 90
        6
176
     1
 90
        2
176
     1
 62
     7
176
     1
 90
        3
176
     1
 90
        0
176
     1
 90
        0
176
     1
290
     0
176
     1
 90
       13
176
     1
 40
0.0
176
     1
 90
        0
176
     1
290
     0
176
     1
290
     1
176
     1
290
     1
176
     1
290
     0
176
     1
290
     0
176
     1
290
     0
176
     1
290
     0
176
     1
290
     0
176
     1
290
     0
176
     1
 90
       50
176
     1
 40
0.0
176
     1
 40
1.0
176
     1
 90
        0
176
     1
 62
    18
420
        0
176
     1
 90
       50
176
     1
 90
        3
176
     1
 62
     5
420
      255
176
     1
290
     0
176
     1
 90
       50
176
     1
 90
       50
176
     1
 90
       50
176
     1
290
     0
176
     1
 90
       50
176
     1
 62
   256
176
     0
 40
1.0
176
     0
 90
        2
176
     1
  1
strokes_ogs.tif
176
     1
290
     0
176
     1
 40
1.0
176
     1
 40
1.0
176
     1
  0
VISUALSTYLE
  5
4A6
102
{ACAD_REACTORS
330
48E
102
}
330
48E
100
AcDbVisualStyle
  2
Shaded
 70
    27
177
     3
291
     0
 70
    58
 90
        2
176
     1
 90
        2
176
     1
 90
        1
176
     1
 90
        2
176
     1
 40
0.6
176
     1
 40
30.0
176
     1
 62
     7
420
 16777215
176
     1
 90
        0
176
     1
 90
        4
176
     1
 62
     7
176
     1
 62
   257
176
     1
 90
        1
176
     1
 90
        1
176
     1
 40
1.0
176
     1
 90
        8
176
     1
 62
   257
176
     1
 40
1.0
176
     1
 90
        1
176
     1
 90
        6
176
     1
 90
        2
176
     1
 62
     8
420
  7895160
176
     1
 90
        3
176
     1
 90
        0
176
     1
 90
        0
176
     1
290
     0
176
     1
 90
        5
176
     1
 40
0.0
176
     1
 90
        0
176
     1
290
     0
176
     1
290
     1
176
     1
290
     1
176
     1
290
     0
176
     1
290
     0
176
     1
290
     0
176
     1
290
     0
176
     1
290
     0
176
     1
290
     0
176
     1
 90
       50
176
     1
 40
0.0
176
     1
 40
1.0
176
     1
 90
        0
176
     1
 62
    18
420
        0
176
     1
 90
       50
176
     1
 90
        3
176
     1
 62
     5
420
      255
176
     1
290
     0
176
     1
 90
       50
176
     1
 90
       50
176
     1
 90
       50
176
     1
290
     0
176
     1
 90
       50
176
     1
 62
   256
176
     0
 40
1.0
176
     0
 90
        2
176
     1
  1
strokes_ogs.tif
176
     1
290
     0
176
     1
 40
1.0
176
     1
 40
1.0
176
     1
  0
VISUALSTYLE
  5
4A5
102
{ACAD_REACTORS
330
48E
102
}
330
48E
100
AcDbVisualStyle
  2
Shaded with edges
 70
    26
177
     3
291
     0
 70
    58
 90
        2
176
     1
 90
        2
176
     1
 90
        1
176
     1
 90
        2
176
     1
 40
0.6
176
     1
 40
30.0
176
     1
 62
     7
420
 16777215
176
     1
 90
        1
176
     1
 90
       10
176
     1
 62
     7
176
     1
 62
   257
176
     1
 90
        2
176
     1
 90
        1
176
     1
 40
1.0
176
     1
 90
        8
176
     1
 62
   257
176
     1
 40
1.0
176
     1
 90
        1
176
     1
 90
        6
176
     1
 90
        2
176
     1
 62
     7
176
     1
 90
        3
176
     1
 90
        0
176
     1
 90
        0
176
     1
290
     0
176
     1
 90
        5
176
     1
 40
0.0
176
     1
 90
        0
176
     1
290
     0
176
     1
290
     1
176
     1
290
     1
176
     1
290
     0
176
     1
290
     0
176
     1
290
     0
176
     1
290
     0
176
     1
290
     0
176
     1
290
     0
176
     1
 90
       50
176
     1
 40
0.0
176
     1
 40
1.0
176
     1
 90
        0
176
     1
 62
    18
420
        0
176
     1
 90
       50
176
     1
 90
        3
176
     1
 62
     5
420
      255
176
     1
290
     0
176
     1
 90
       50
176
     1
 90
       50
176
     1
 90
       50
176
     1
290
     0
176
     1
 90
       50
176
     1
 62
   256
176
     0
 40
1.0
176
     0
 90
        2
176
     1
  1
strokes_ogs.tif
176
     1
290
     0
176
     1
 40
1.0
176
     1
 40
1.0
176
     1
  0
VISUALSTYLE
  5
4A2
102
{ACAD_REACTORS
330
48E
102
}
330
48E
100
AcDbVisualStyle
  2
Shades of Gray
 70
    23
177
     3
291
     0
 70
    58
 90
        2
176
     1
 90
        2
176
     1
 90
        3
176
     1
 90
        0
176
     1
 40
0.6
176
     1
 40
30.0
176
     1
 62
     7
420
 16777215
176
     1
 90
        2
176
     1
 90
        2
176
     1
 62
     7
176
     1
 62
     7
176
     1
 90
        1
176
     1
 90
        1
176
     1
 40
40.0
176
     1
 90
        8
176
     1
 62
     7
176
     1
 40
1.0
176
     1
 90
        1
176
     1
 90
        6
176
     1
 90
        2
176
     1
 62
     7
176
     1
 90
        3
176
     1
 90
        0
176
     1
 90
        0
176
     1
290
     0
176
     1
 90
        1
176
     1
 40
0.0
176
     1
 90
        0
176
     1
290
     0
176
     1
290
     1
176
     1
290
     1
176
     1
290
     0
176
     1
290
     0
176
     1
290
     0
176
     1
290
     0
176
     1
290
     0
176
     1
290
     0
176
     1
 90
       50
176
     1
 40
0.0
176
     1
 40
1.0
176
     1
 90
        0
176
     1
 62
    18
420
        0
176
     1
 90
       50
176
     1
 90
        3
176
     1
 62
     5
420
      255
176
     1
290
     0
176
     1
 90
       50
176
     1
 90
       50
176
     1
 90
       50
176
     1
290
     0
176
     1
 90
       50
176
     1
 62
   256
176
     0
 40
1.0
176
     0
 90
        2
176
     1
  1
strokes_ogs.tif
176
     1
290
     0
176
     1
 40
1.0
176
     1
 40
1.0
176
     1
  0
VISUALSTYLE
  5
4A3
102
{ACAD_REACTORS
330
48E
102
}
330
48E
100
AcDbVisualStyle
  2
Sketchy
 70
    24
177
     3
291
     0
 70
    58
 90
        1
176
     1
 90
        2
176
     1
 90
        2
176
     1
 90
        0
176
     1
 40
0.6
176
     1
 40
30.0
176
     1
 62
     7
420
 16777215
176
     1
 90
        2
176
     1
 90
        2
176
     1
 62
     7
176
     1
 62
     7
176
     1
 90
        1
176
     1
 90
        1
176
     1
 40
40.0
176
     1
 90
       11
176
     1
 62
     7
176
     1
 40
1.0
176
     1
 90
        1
176
     1
 90
        6
176
     1
 90
        2
176
     1
 62
     7
176
     1
 90
        6
176
     1
 90
        0
176
     1
 90
        0
176
     1
290
     0
176
     1
 90
        1
176
     1
 40
0.0
176
     1
 90
        0
176
     1
290
     0
176
     1
290
     1
176
     1
290
     1
176
     1
290
     0
176
     1
290
     0
176
     1
290
     0
176
     1
290
     0
176
     1
290
     0
176
     1
290
     0
176
     1
 90
       50
176
     1
 40
0.0
176
     1
 40
1.0
176
     1
 90
        0
176
     1
 62
    18
420
        0
176
     1
 90
       50
176
     1
 90
        3
176
     1
 62
     5
420
      255
176
     1
290
     0
176
     1
 90
       50
176
     1
 90
       50
176
     1
 90
       50
176
     1
290
     0
176
     1
 90
       50
176
     1
 62
   256
176
     0
 40
1.0
176
     0
 90
        2
176
     1
  1
strokes_ogs.tif
176
     1
290
     0
176
     1
 40
1.0
176
     1
 40
1.0
176
     1
  0
VISUALSTYLE
  5
49B
102
{ACAD_REACTORS
330
48E
102
}
330
48E
100
AcDbVisualStyle
  2
Thicken
 70
    13
177
     3
291
     1
 70
    58
 90
        2
176
     1
 90
        2
176
     1
 90
        0
176
     1
 90
        0
176
     1
 40
0.6
176
     1
 40
30.0
176
     1
 62
     7
420
 16777215
176
     1
 90
        1
176
     1
 90
        4
176
     1
 62
     7
176
     1
 62
   257
176
     1
 90
        1
176
     1
 90
        1
176
     1
 40
1.0
176
     1
 90
       12
176
     1
 62
     7
176
     1
 40
1.0
176
     1
 90
        1
176
     1
 90
        6
176
     1
 90
        2
176
     1
 62
     7
176
     1
 90
        5
176
     1
 90
        0
176
     1
 90
        0
176
     1
290
     0
176
     1
 90
        1
176
     1
 40
0.0
176
     1
 90
        0
176
     1
290
     0
176
     1
290
     1
176
     1
290
     1
176
     1
290
     0
176
     1
290
     0
176
     1
290
     0
176
     1
290
     0
176
     1
290
     0
176
     1
290
     0
176
     1
 90
       50
176
     1
 40
0.0
176
     1
 40
1.0
176
     1
 90
        0
176
     1
 62
    18
420
        0
176
     1
 90
       50
176
     1
 90
        3
176
     1
 62
     5
420
      255
176
     1
290
     0
176
     1
 90
       50
176
     1
 90
       50
176
     1
 90
       50
176
     1
290
     0
176
     1
 90
       50
176
     1
 62
   256
176
     0
 40
1.0
176
     0
 90
        2
176
     1
  1
strokes_ogs.tif
176
     1
290
     0
176
     1
 40
1.0
176
     1
 40
1.0
176
     1
  0
VISUALSTYLE
  5
494
102
{ACAD_REACTORS
330
48E
102
}
330
48E
100
AcDbVisualStyle
  2
Wireframe
 70
     5
177
     3
291
     0
 70
    58
 90
        0
176
     1
 90
        2
176
     1
 90
        0
176
     1
 90
        0
176
     1
 40
0.6
176
     1
 40
30.0
176
     1
 62
     7
420
 16777215
176
     1
 90
        1
176
     1
 90
        4
176
     1
 62
     7
176
     1
 62
   257
176
     1
 90
        1
176
     1
 90
        1
176
     1
 40
1.0
176
     1
 90
        0
176
     1
 62
   257
176
     1
 40
1.0
176
     1
 90
        1
176
     1
 90
        6
176
     1
 90
        2
176
     1
 62
     7
176
     1
 90
        3
176
     1
 90
        0
176
     1
 90
        0
176
     1
290
     0
176
     1
 90
        1
176
     1
 40
0.0
176
     1
 90
        0
176
     1
290
     0
176
     1
290
     1
176
     1
290
     1
176
     1
290
     0
176
     1
290
     0
176
     1
290
     0
176
     1
290
     0
176
     1
290
     0
176
     1
290
     0
176
     1
 90
       50
176
     1
 40
0.0
176
     1
 40
1.0
176
     1
 90
        0
176
     1
 62
    18
420
        0
176
     1
 90
       50
176
     1
 90
        3
176
     1
 62
     5
420
      255
176
     1
290
     0
176
     1
 90
       50
176
     1
 90
       50
176
     1
 90
       50
176
     1
290
     0
176
     1
 90
       50
176
     1
 62
   256
176
     0
 40
1.0
176
     0
 90
        2
176
     1
  1
strokes_ogs.tif
176
     1
290
     0
176
     1
 40
1.0
176
     1
 40
1.0
176
     1
  0
VISUALSTYLE
  5
4A4
102
{ACAD_REACTORS
330
48E
102
}
330
48E
100
AcDbVisualStyle
  2
X-Ray
 70
    25
177
     3
291
     0
 70
    58
 90
        2
176
     1
 90
        2
176
     1
 90
        1
176
     1
 90
        1
176
     1
 40
0.5
176
     1
 40
30.0
176
     1
 62
     7
420
 16777215
176
     1
 90
        1
176
     1
 90
        0
176
     1
 62
     7
176
     1
 62
   257
176
     1
 90
        1
176
     1
 90
        1
176
     1
 40
1.0
176
     1
 90
        8
176
     1
 62
     7
176
     1
 40
1.0
176
     1
 90
        1
176
     1
 90
        6
176
     1
 90
        2
176
     1
 62
     7
176
     1
 90
        3
176
     1
 90
        0
176
     1
 90
        0
176
     1
290
     0
176
     1
 90
       13
176
     1
 40
0.0
176
     1
 90
        0
176
     1
290
     0
176
     1
290
     1
176
     1
290
     1
176
     1
290
     0
176
     1
290
     0
176
     1
290
     0
176
     1
290
     0
176
     1
290
     0
176
     1
290
     0
176
     1
 90
       50
176
     1
 40
0.0
176
     1
 40
1.0
176
     1
 90
        0
176
     1
 62
    18
420
        0
176
     1
 90
       50
176
     1
 90
        3
176
     1
 62
     5
420
      255
176
     1
290
     0
176
     1
 90
       50
176
     1
 90
       50
176
     1
 90
       50
176
     1
290
     0
176
     1
 90
       50
176
     1
 62
   256
176
     0
 40
1.0
176
     0
 90
        2
176
     1
  1
strokes_ogs.tif
176
     1
290
     0
176
     1
 40
1.0
176
     1
 40
1.0
176
     1
  0
DICTIONARYVAR
  5
4B1
102
{ACAD_REACTORS
330
4B0
102
}
330
4B0
100
DictionaryVariables
280
     0
  1
1:1
  0
DICTIONARYVAR
  5
4B6
102
{ACAD_REACTORS
330
4B0
102
}
330
4B0
100
DictionaryVariables
280
     0
  1
Standard
  0
DICTIONARYVAR
  5
4B5
102
{ACAD_REACTORS
330
4B0
102
}
330
4B0
100
DictionaryVariables
280
     0
  1
Standard
  0
DICTIONARYVAR
  5
4B7
102
{ACAD_REACTORS
330
4B0
102
}
330
4B0
100
DictionaryVariables
280
     0
  1
0
  0
DICTIONARY
  5
4B2
330
4AC
100
AcDbDictionary
280
     1
281
     1
  3
ACAD_ROUNDTRIP_2008_TABLESTYLE_CELLSTYLEMAP
360
4B3
  0
CELLSTYLEMAP
  5
4B3
102
{ACAD_REACTORS
330
4B2
102
}
330
4B2
100
AcDbCellStyleMap
 90
        3
300
CELLSTYLE
  1
TABLEFORMAT_BEGIN
 90
        5
170
     1
 91
        0
 92
    32768
 62
   257
 93
        1
300
CONTENTFORMAT
  1
CONTENTFORMAT_BEGIN
 90
        0
 91
        0
 92
        4
 93
        0
300

 40
0.0
140
1.0
 94
        5
 62
     0
340
11
144
6.0
309
CONTENTFORMAT_END
171
     1
301
MARGIN
  1
CELLMARGIN_BEGIN
 40
1.5
 40
1.5
 40
1.5
 40
1.5
 40
1.5
 40
1.5
309
CELLMARGIN_END
 94
        6
 95
        1
302
GRIDFORMAT
  1
GRIDFORMAT_BEGIN
 90
        0
 91
        1
 62
     0
 92
       -2
340
14
 93
        0
 40
0.045
309
GRIDFORMAT_END
 95
        2
302
GRIDFORMAT
  1
GRIDFORMAT_BEGIN
 90
        0
 91
        1
 62
     0
 92
       -2
340
14
 93
        0
 40
0.045
309
GRIDFORMAT_END
 95
        4
302
GRIDFORMAT
  1
GRIDFORMAT_BEGIN
 90
        0
 91
        1
 62
     0
 92
       -2
340
14
 93
        0
 40
0.045
309
GRIDFORMAT_END
 95
        8
302
GRIDFORMAT
  1
GRIDFORMAT_BEGIN
 90
        0
 91
        1
 62
     0
 92
       -2
340
14
 93
        0
 40
0.045
309
GRIDFORMAT_END
 95
       16
302
GRIDFORMAT
  1
GRIDFORMAT_BEGIN
 90
        0
 91
        1
 62
     0
 92
       -2
340
14
 93
        0
 40
0.045
309
GRIDFORMAT_END
 95
       32
302
GRIDFORMAT
  1
GRIDFORMAT_BEGIN
 90
        0
 91
        1
 62
     0
 92
       -2
340
14
 93
        0
 40
0.045
309
GRIDFORMAT_END
309
TABLEFORMAT_END
  1
CELLSTYLE_BEGIN
 90
        1
 91
        1
300
_TITLE
309
CELLSTYLE_END
300
CELLSTYLE
  1
TABLEFORMAT_BEGIN
 90
        5
170
     1
 91
        0
 92
        0
 62
   257
 93
        1
300
CONTENTFORMAT
  1
CONTENTFORMAT_BEGIN
 90
        0
 91
        0
 92
        4
 93
        0
300

 40
0.0
140
1.0
 94
        5
 62
     0
340
11
144
4.5
309
CONTENTFORMAT_END
171
     1
301
MARGIN
  1
CELLMARGIN_BEGIN
 40
1.5
 40
1.5
 40
1.5
 40
1.5
 40
1.5
 40
1.5
309
CELLMARGIN_END
 94
        6
 95
        1
302
GRIDFORMAT
  1
GRIDFORMAT_BEGIN
 90
        0
 91
        1
 62
     0
 92
       -2
340
14
 93
        0
 40
0.045
309
GRIDFORMAT_END
 95
        2
302
GRIDFORMAT
  1
GRIDFORMAT_BEGIN
 90
        0
 91
        1
 62
     0
 92
       -2
340
14
 93
        0
 40
0.045
309
GRIDFORMAT_END
 95
        4
302
GRIDFORMAT
  1
GRIDFORMAT_BEGIN
 90
        0
 91
        1
 62
     0
 92
       -2
340
14
 93
        0
 40
0.045
309
GRIDFORMAT_END
 95
        8
302
GRIDFORMAT
  1
GRIDFORMAT_BEGIN
 90
        0
 91
        1
 62
     0
 92
       -2
340
14
 93
        0
 40
0.045
309
GRIDFORMAT_END
 95
       16
302
GRIDFORMAT
  1
GRIDFORMAT_BEGIN
 90
        0
 91
        1
 62
     0
 92
       -2
340
14
 93
        0
 40
0.045
309
GRIDFORMAT_END
 95
       32
302
GRIDFORMAT
  1
GRIDFORMAT_BEGIN
 90
        0
 91
        1
 62
     0
 92
       -2
340
14
 93
        0
 40
0.045
309
GRIDFORMAT_END
309
TABLEFORMAT_END
  1
CELLSTYLE_BEGIN
 90
        2
 91
        1
300
_HEADER
309
CELLSTYLE_END
300
CELLSTYLE
  1
TABLEFORMAT_BEGIN
 90
        5
170
     1
 91
        0
 92
        0
 62
   257
 93
        1
300
CONTENTFORMAT
  1
CONTENTFORMAT_BEGIN
 90
        0
 91
        0
 92
        4
 93
        0
300

 40
0.0
140
1.0
 94
        2
 62
     0
340
11
144
4.5
309
CONTENTFORMAT_END
171
     1
301
MARGIN
  1
CELLMARGIN_BEGIN
 40
1.5
 40
1.5
 40
1.5
 40
1.5
 40
1.5
 40
1.5
309
CELLMARGIN_END
 94
        6
 95
        1
302
GRIDFORMAT
  1
GRIDFORMAT_BEGIN
 90
        0
 91
        1
 62
     0
 92
       -2
340
14
 93
        0
 40
0.045
309
GRIDFORMAT_END
 95
        2
302
GRIDFORMAT
  1
GRIDFORMAT_BEGIN
 90
        0
 91
        1
 62
     0
 92
       -2
340
14
 93
        0
 40
0.045
309
GRIDFORMAT_END
 95
        4
302
GRIDFORMAT
  1
GRIDFORMAT_BEGIN
 90
        0
 91
        1
 62
     0
 92
       -2
340
14
 93
        0
 40
0.045
309
GRIDFORMAT_END
 95
        8
302
GRIDFORMAT
  1
GRIDFORMAT_BEGIN
 90
        0
 91
        1
 62
     0
 92
       -2
340
14
 93
        0
 40
0.045
309
GRIDFORMAT_END
 95
       16
302
GRIDFORMAT
  1
GRIDFORMAT_BEGIN
 90
        0
 91
        1
 62
     0
 92
       -2
340
14
 93
        0
 40
0.045
309
GRIDFORMAT_END
 95
       32
302
GRIDFORMAT
  1
GRIDFORMAT_BEGIN
 90
        0
 91
        1
 62
     0
 92
       -2
340
14
 93
        0
 40
0.045
309
GRIDFORMAT_END
309
TABLEFORMAT_END
  1
CELLSTYLE_BEGIN
 90
        3
 91
        2
300
_DATA
309
CELLSTYLE_END
  0
ENDSEC
  0
EOF
