  0
SECTION
  2
HEADER
  9
$ACADVER
  1
AC1027
  9
$ACADMAINTVER
 70
   105
  9
$DWGCODEPAGE
  3
ANSI_1252
  9
$REQUIREDVERSIONS
160
                 0
  9
$LASTSAVEDBY
  1
andrea.zolin
  9
$INSBASE
 10
0.0
 20
0.0
 30
0.0
  9
$EXTMIN
 10
0.0
 20
0.0
 30
0.0
  9
$EXTMAX
 10
297.0
 20
210.0
 30
0.0
  9
$LIMMIN
 10
0.0
 20
0.0
  9
$LIMMAX
 10
297.0
 20
210.0
  9
$ORTHOMODE
 70
     0
  9
$REGENMODE
 70
     1
  9
$FILLMODE
 70
     1
  9
$QTEXTMODE
 70
     0
  9
$MIRRTEXT
 70
     1
  9
$LTSCALE
 40
16.335
  9
$ATTMODE
 70
     1
  9
$TEXTSIZE
 40
0.2
  9
$TRACEWID
 40
0.05
  9
$TEXTSTYLE
  7
STANDARD
  9
$CLAYER
  8
0
  9
$CELTYPE
  6
BYLAYER
  9
$CECOLOR
 62
   256
  9
$CELTSCALE
 40
1.0
  9
$DISPSILH
 70
     0
  9
$DIMSCALE
 40
1.0
  9
$DIMASZ
 40
2.5
  9
$DIMEXO
 40
0.75
  9
$DIMDLI
 40
11.286
  9
$DIMRND
 40
0.0
  9
$DIMDLE
 40
0.0
  9
$DIMEXE
 40
0.75
  9
$DIMTP
 40
0.01
  9
$DIMTM
 40
0.01
  9
$DIMTXT
 40
3.0
  9
$DIMCEN
 40
2.673
  9
$DIMTSZ
 40
0.0
  9
$DIMTOL
 70
     1
  9
$DIMLIM
 70
     0
  9
$DIMTIH
 70
     1
  9
$DIMTOH
 70
     1
  9
$DIMSE1
 70
     0
  9
$DIMSE2
 70
     0
  9
$DIMTAD
 70
     0
  9
$DIMZIN
 70
     0
  9
$DIMBLK
  1
CLOSED
  9
$DIMASO
 70
     1
  9
$DIMSHO
 70
     1
  9
$DIMPOST
  1

  9
$DIMAPOST
  1

  9
$DIMALT
 70
     0
  9
$DIMALTD
 70
     2
  9
$DIMALTF
 40
25.4
  9
$DIMLFAC
 40
1.0
  9
$DIMTOFL
 70
     0
  9
$DIMTVP
 40
0.0
  9
$DIMTIX
 70
     0
  9
$DIMSOXD
 70
     0
  9
$DIMSAH
 70
     0
  9
$DIMBLK1
  1

  9
$DIMBLK2
  1

  9
$DIMSTYLE
  2
STANDARD
  9
$DIMCLRD
 70
     0
  9
$DIMCLRE
 70
     0
  9
$DIMCLRT
 70
     0
  9
$DIMTFAC
 40
1.0
  9
$DIMGAP
 40
0.625
  9
$DIMJUST
 70
     0
  9
$DIMSD1
 70
     0
  9
$DIMSD2
 70
     0
  9
$DIMTOLJ
 70
     1
  9
$DIMTZIN
 70
     0
  9
$DIMALTZ
 70
     0
  9
$DIMALTTZ
 70
     0
  9
$DIMUPT
 70
     0
  9
$DIMDEC
 70
     4
  9
$DIMTDEC
 70
     4
  9
$DIMALTU
 70
     2
  9
$DIMALTTD
 70
     2
  9
$DIMTXSTY
  7
STANDARD
  9
$DIMAUNIT
 70
     0
  9
$DIMADEC
 70
     0
  9
$DIMALTRND
 40
0.0
  9
$DIMAZIN
 70
     0
  9
$DIMDSEP
 70
    44
  9
$DIMATFIT
 70
     3
  9
$DIMFRAC
 70
     0
  9
$DIMLDRBLK
  1

  9
$DIMLUNIT
 70
     2
  9
$DIMLWD
 70
    -2
  9
$DIMLWE
 70
    -2
  9
$DIMTMOVE
 70
     0
  9
$DIMFXL
 40
1.0
  9
$DIMFXLON
 70
     0
  9
$DIMJOGANG
 40
0.7853981633974483
  9
$DIMTFILL
 70
     0
  9
$DIMTFILLCLR
 70
     0
  9
$DIMARCSYM
 70
     0
  9
$DIMLTYPE
  6

  9
$DIMLTEX1
  6

  9
$DIMLTEX2
  6

  9
$DIMTXTDIRECTION
 70
     0
  9
$LUNITS
 70
     2
  9
$LUPREC
 70
     4
  9
$SKETCHINC
 40
0.1
  9
$FILLETRAD
 40
0.5
  9
$AUNITS
 70
     0
  9
$AUPREC
 70
     0
  9
$MENU
  1
.
  9
$ELEVATION
 40
0.0
  9
$PELEVATION
 40
0.0
  9
$THICKNESS
 40
0.0
  9
$LIMCHECK
 70
     0
  9
$CHAMFERA
 40
0.0
  9
$CHAMFERB
 40
0.0
  9
$CHAMFERC
 40
0.0
  9
$CHAMFERD
 40
0.0
  9
$SKPOLY
 70
     0
  9
$TDCREATE
 40
2447893.041666667
  9
$TDUCREATE
 40
0.0
  9
$TDUPDATE
 40
2458816.721918322
  9
$TDUUPDATE
 40
2458816.680251655
  9
$TDINDWG
 40
0.0015853472
  9
$TDUSRTIMER
 40
0.0015853472
  9
$USRTIMER
 70
     1
  9
$ANGBASE
 50
0.0
  9
$ANGDIR
 70
     0
  9
$PDMODE
 70
     3
  9
$PDSIZE
 40
0.3125
  9
$PLINEWID
 40
0.0
  9
$SPLFRAME
 70
     0
  9
$SPLINETYPE
 70
     6
  9
$SPLINESEGS
 70
     8
  9
$HANDSEED
  5
400
  9
$SURFTAB1
 70
     6
  9
$SURFTAB2
 70
     6
  9
$SURFTYPE
 70
     6
  9
$SURFU
 70
     6
  9
$SURFV
 70
     6
  9
$UCSBASE
  2

  9
$UCSNAME
  2

  9
$UCSORG
 10
0.0
 20
0.0
 30
0.0
  9
$UCSXDIR
 10
1.0
 20
0.0
 30
0.0
  9
$UCSYDIR
 10
0.0
 20
1.0
 30
0.0
  9
$UCSORTHOREF
  2

  9
$UCSORTHOVIEW
 70
     0
  9
$UCSORGTOP
 10
0.0
 20
0.0
 30
0.0
  9
$UCSORGBOTTOM
 10
0.0
 20
0.0
 30
0.0
  9
$UCSORGLEFT
 10
0.0
 20
0.0
 30
0.0
  9
$UCSORGRIGHT
 10
0.0
 20
0.0
 30
0.0
  9
$UCSORGFRONT
 10
0.0
 20
0.0
 30
0.0
  9
$UCSORGBACK
 10
0.0
 20
0.0
 30
0.0
  9
$PUCSBASE
  2

  9
$PUCSNAME
  2

  9
$PUCSORG
 10
0.0
 20
0.0
 30
0.0
  9
$PUCSXDIR
 10
1.0
 20
0.0
 30
0.0
  9
$PUCSYDIR
 10
0.0
 20
1.0
 30
0.0
  9
$PUCSORTHOREF
  2

  9
$PUCSORTHOVIEW
 70
     0
  9
$PUCSORGTOP
 10
0.0
 20
0.0
 30
0.0
  9
$PUCSORGBOTTOM
 10
0.0
 20
0.0
 30
0.0
  9
$PUCSORGLEFT
 10
0.0
 20
0.0
 30
0.0
  9
$PUCSORGRIGHT
 10
0.0
 20
0.0
 30
0.0
  9
$PUCSORGFRONT
 10
0.0
 20
0.0
 30
0.0
  9
$PUCSORGBACK
 10
0.0
 20
0.0
 30
0.0
  9
$USERI1
 70
     0
  9
$USERI2
 70
     0
  9
$USERI3
 70
     0
  9
$USERI4
 70
     0
  9
$USERI5
 70
     0
  9
$USERR1
 40
0.0
  9
$USERR2
 40
0.0
  9
$USERR3
 40
0.0
  9
$USERR4
 40
0.0
  9
$USERR5
 40
0.0
  9
$WORLDVIEW
 70
     1
  9
$SHADEDGE
 70
     3
  9
$SHADEDIF
 70
    70
  9
$TILEMODE
 70
     0
  9
$MAXACTVP
 70
    64
  9
$PINSBASE
 10
0.0
 20
0.0
 30
0.0
  9
$PLIMCHECK
 70
     0
  9
$PEXTMIN
 10
9.949999999999989
 20
9.950000000000003
 30
0.0
  9
$PEXTMAX
 10
291.7524117122
 20
200.05
 30
0.0
  9
$PLIMMIN
 10
0.0
 20
0.0
  9
$PLIMMAX
 10
297.0
 20
210.0
  9
$UNITMODE
 70
     0
  9
$VISRETAIN
 70
     1
  9
$PLINEGEN
 70
     0
  9
$PSLTSCALE
 70
     1
  9
$TREEDEPTH
 70
  3020
  9
$CMLSTYLE
  2
Standard
  9
$CMLJUST
 70
     0
  9
$CMLSCALE
 40
1.0
  9
$PROXYGRAPHICS
 70
     1
  9
$MEASUREMENT
 70
     1
  9
$CELWEIGHT
370
    -1
  9
$ENDCAPS
280
     0
  9
$JOINSTYLE
280
     0
  9
$LWDISPLAY
290
     0
  9
$INSUNITS
 70
     4
  9
$HYPERLINKBASE
  1

  9
$STYLESHEET
  1

  9
$XEDIT
290
     1
  9
$CEPSNTYPE
380
     0
  9
$PSTYLEMODE
290
     1
  9
$FINGERPRINTGUID
  2
{1E94AA08-D0A2-4E1B-B84D-87E79BA6E855}
  9
$VERSIONGUID
  2
{FAEB1C32-E019-11D5-929B-00C0DF256EC4}
  9
$EXTNAMES
290
     1
  9
$PSVPSCALE
 40
0.0
  9
$OLESTARTUP
290
     0
  9
$SORTENTS
280
   127
  9
$INDEXCTL
280
     0
  9
$HIDETEXT
280
     1
  9
$XCLIPFRAME
280
     2
  9
$HALOGAP
280
     0
  9
$OBSCOLOR
 70
   257
  9
$OBSLTYPE
280
     0
  9
$INTERSECTIONDISPLAY
280
     0
  9
$INTERSECTIONCOLOR
 70
   257
  9
$DIMASSOC
280
     2
  9
$PROJECTNAME
  1

  9
$CAMERADISPLAY
290
     0
  9
$LENSLENGTH
 40
50.0
  9
$CAMERAHEIGHT
 40
0.0
  9
$STEPSPERSEC
 40
2.0
  9
$STEPSIZE
 40
6.0
  9
$3DDWFPREC
 40
2.0
  9
$PSOLWIDTH
 40
0.25
  9
$PSOLHEIGHT
 40
4.0
  9
$LOFTANG1
 40
1.570796326794897
  9
$LOFTANG2
 40
1.570796326794897
  9
$LOFTMAG1
 40
0.0
  9
$LOFTMAG2
 40
0.0
  9
$LOFTPARAM
 70
     7
  9
$LOFTNORMALS
280
     1
  9
$LATITUDE
 40
37.795
  9
$LONGITUDE
 40
-122.394
  9
$NORTHDIRECTION
 40
0.0
  9
$TIMEZONE
 70
 -8000
  9
$LIGHTGLYPHDISPLAY
280
     1
  9
$TILEMODELIGHTSYNCH
280
     1
  9
$SOLIDHIST
280
     0
  9
$SHOWHIST
280
     1
  9
$DWFFRAME
280
     2
  9
$DGNFRAME
280
     2
  9
$REALWORLDSCALE
290
     1
  9
$INTERFERECOLOR
 62
   256
  9
$CSHADOW
280
     0
  9
$SHADOWPLANELOCATION
 40
0.0
  0
ENDSEC
  0
SECTION
  2
CLASSES
  0
CLASS
  1
ACDBDICTIONARYWDFLT
  2
AcDbDictionaryWithDefault
  3
ObjectDBX Classes
 90
        0
 91
        4
280
     0
281
     0
  0
CLASS
  1
ACDBPLACEHOLDER
  2
AcDbPlaceHolder
  3
ObjectDBX Classes
 90
        0
 91
        1
280
     0
281
     0
  0
CLASS
  1
LAYOUT
  2
AcDbLayout
  3
ObjectDBX Classes
 90
        0
 91
        1
280
     0
281
     0
  0
CLASS
  1
TABLESTYLE
  2
AcDbTableStyle
  3
ObjectDBX Classes
 90
     4095
 91
        4
280
     0
281
     0
  0
CLASS
  1
ACAD_TABLE
  2
AcDbTable
  3
ObjectDBX Classes
 90
     1025
 91
        4
280
     0
281
     1
  0
CLASS
  1
SCALE
  2
AcDbScale
  3
ObjectDBX Classes
 90
     1153
 91
        4
280
     0
281
     0
  0
CLASS
  1
VISUALSTYLE
  2
AcDbVisualStyle
  3
ObjectDBX Classes
 90
     4095
 91
        4
280
     0
281
     0
  0
CLASS
  1
TABLEGEOMETRY
  2
AcDbTableGeometry
  3
ObjectDBX Classes
 90
     1152
 91
        4
280
     0
281
     0
  0
CLASS
  1
MATERIAL
  2
AcDbMaterial
  3
ObjectDBX Classes
 90
     1153
 91
        4
280
     0
281
     0
  0
CLASS
  1
MLEADERSTYLE
  2
AcDbMLeaderStyle
  3
ACDB_MLEADERSTYLE_CLASS
 90
     4095
 91
        4
280
     0
281
     0
  0
CLASS
  1
SUN
  2
AcDbSun
  3
SCENEOE
 90
     1153
 91
        4
280
     0
281
     0
  0
CLASS
  1
DICTIONARYVAR
  2
AcDbDictionaryVar
  3
ObjectDBX Classes
 90
        0
 91
        4
280
     0
281
     0
  0
CLASS
  1
CELLSTYLEMAP
  2
AcDbCellStyleMap
  3
ObjectDBX Classes
 90
     1152
 91
        4
280
     0
281
     0
  0
ENDSEC
  0
SECTION
  2
TABLES
  0
TABLE
  2
VPORT
  5
8
330
0
100
AcDbSymbolTable
 70
     1
  0
VPORT
  5
1F4
330
8
100
AcDbSymbolTableRecord
100
AcDbViewportTableRecord
  2
*ACTIVE
 70
     0
 10
0.0
 20
0.0
 11
1.0
 21
1.0
 12
148.5
 22
105.0
 13
0.0
 23
0.0
 14
1.0
 24
1.0
 15
0.0
 25
0.0
 16
0.0
 26
0.0
 36
1.0
 17
0.0
 27
0.0
 37
0.0
 40
210.0
 41
1.4142857143
 42
50.0
 43
0.0
 44
0.0
 50
0.0
 51
0.0
 71
     0
 72
   100
 73
     1
 74
     1
 75
     0
 76
     0
 77
     0
 78
     0
281
     0
 65
     1
110
0.0
120
0.0
130
0.0
111
1.0
121
0.0
131
0.0
112
0.0
122
1.0
132
0.0
 79
     0
146
0.0
348
3D8
 60
     3
 61
     5
292
     1
282
     1
141
0.0
142
0.0
 63
   256
  0
ENDTAB
  0
TABLE
  2
LTYPE
  5
5
330
0
100
AcDbSymbolTable
 70
     6
  0
LTYPE
  5
14
330
5
100
AcDbSymbolTableRecord
100
AcDbLinetypeTableRecord
  2
BYBLOCK
 70
     0
  3

 72
    65
 73
     0
 40
0.0
  0
LTYPE
  5
15
330
5
100
AcDbSymbolTableRecord
100
AcDbLinetypeTableRecord
  2
BYLAYER
 70
     0
  3

 72
    65
 73
     0
 40
0.0
  0
LTYPE
  5
16
330
5
100
AcDbSymbolTableRecord
100
AcDbLinetypeTableRecord
  2
CONTINUOUS
 70
     0
  3
Solid line
 72
    65
 73
     0
 40
0.0
  0
LTYPE
  5
1F5
330
5
100
AcDbSymbolTableRecord
100
AcDbLinetypeTableRecord
  2
CENTER
 70
     0
  3
____ _ ____ _ ____ _ ____ _ ____ _ ____ _ ____
 72
    65
 73
     4
 40
0.6
 49
0.375
 74
     0
 49
-0.075
 74
     0
 49
0.075
 74
     0
 49
-0.075
 74
     0
  0
LTYPE
  5
1F6
330
5
100
AcDbSymbolTableRecord
100
AcDbLinetypeTableRecord
  2
HIDDEN
 70
     0
  3
- - - - - - - - - - - - - - - - - - - -
 72
    65
 73
     2
 40
0.2
 49
0.1
 74
     0
 49
-0.1
 74
     0
  0
LTYPE
  5
1F7
330
5
100
AcDbSymbolTableRecord
100
AcDbLinetypeTableRecord
  2
PHANTOM
 70
     0
  3
_____ _ _ _____ _ _ _____ _ _ _____
 72
    65
 73
     6
 40
0.8
 49
0.45
 74
     0
 49
-0.05
 74
     0
 49
0.1
 74
     0
 49
-0.05
 74
     0
 49
0.1
 74
     0
 49
-0.05
 74
     0
  0
LTYPE
  5
1F8
330
5
100
AcDbSymbolTableRecord
100
AcDbLinetypeTableRecord
  2
DOT
 70
     0
  3
. . . . . . . . . . . . . . . . . . . .
 72
    65
 73
     2
 40
0.2
 49
0.1
 74
     0
 49
-0.1
 74
     0
  0
LTYPE
  5
1F9
330
5
100
AcDbSymbolTableRecord
100
AcDbLinetypeTableRecord
  2
DASHED
 70
     0
  3
- - - - - - - - - - - - - - - - - - - -
 72
    65
 73
     2
 40
0.2
 49
0.1
 74
     0
 49
-0.1
 74
     0
  0
ENDTAB
  0
TABLE
  2
LAYER
  5
2
330
0
100
AcDbSymbolTable
 70
    12
  0
LAYER
  5
10
330
2
100
AcDbSymbolTableRecord
100
AcDbLayerTableRecord
  2
0
 70
     0
 62
     7
  6
CONTINUOUS
370
    -3
390
F
347
3F0
348
0
  0
LAYER
  5
1FA
330
2
100
AcDbSymbolTableRecord
100
AcDbLayerTableRecord
  2
DEFAULT_1
 70
     0
 62
     7
  6
CENTER
370
    -3
390
F
347
3F0
348
0
  0
LAYER
  5
1FB
330
2
100
AcDbSymbolTableRecord
100
AcDbLayerTableRecord
  2
DEFAULT_2
 70
     0
 62
     8
  6
HIDDEN
370
    -3
390
F
347
3F0
348
0
  0
LAYER
  5
1FC
330
2
100
AcDbSymbolTableRecord
100
AcDbLayerTableRecord
  2
DEFAULT_3
 70
     0
 62
     7
  6
PHANTOM
370
    -3
390
F
347
3F0
348
0
  0
LAYER
  5
1FD
330
2
100
AcDbSymbolTableRecord
100
AcDbLayerTableRecord
  2
1_ALL_PLANES
 70
     0
 62
     7
  6
CONTINUOUS
370
    -3
390
F
347
3F0
348
0
  0
LAYER
  5
1FE
330
2
100
AcDbSymbolTableRecord
100
AcDbLayerTableRecord
  2
2_ALL_CSYS
 70
     0
 62
     7
  6
CONTINUOUS
370
    -3
390
F
347
3F0
348
0
  0
LAYER
  5
1FF
330
2
100
AcDbSymbolTableRecord
100
AcDbLayerTableRecord
  2
3_ALL_AXES
 70
     0
 62
     7
  6
CONTINUOUS
370
    -3
390
F
347
3F0
348
0
  0
LAYER
  5
200
330
2
100
AcDbSymbolTableRecord
100
AcDbLayerTableRecord
  2
4_ALL_POINTS
 70
     0
 62
     7
  6
CONTINUOUS
370
    -3
390
F
347
3F0
348
0
  0
LAYER
  5
201
330
2
100
AcDbSymbolTableRecord
100
AcDbLayerTableRecord
  2
5_ALL_CURVES
 70
     0
 62
     7
  6
CONTINUOUS
370
    -3
390
F
347
3F0
348
0
  0
LAYER
  5
202
330
2
100
AcDbSymbolTableRecord
100
AcDbLayerTableRecord
  2
6_ALL_SURFS
 70
     0
 62
     7
  6
CONTINUOUS
370
    -3
390
F
347
3F0
348
0
  0
LAYER
  5
203
330
2
100
AcDbSymbolTableRecord
100
AcDbLayerTableRecord
  2
7_ALL_FEATURES
 70
     0
 62
     7
  6
CONTINUOUS
370
    -3
390
F
347
3F0
348
0
  0
LAYER
  5
204
330
2
100
AcDbSymbolTableRecord
100
AcDbLayerTableRecord
  2
9_SOLID
 70
     0
 62
     7
  6
CONTINUOUS
370
    -3
390
F
347
3F0
348
0
  0
ENDTAB
  0
TABLE
  2
STYLE
  5
3
330
0
100
AcDbSymbolTable
 70
     4
  0
STYLE
  5
11
330
3
100
AcDbSymbolTableRecord
100
AcDbTextStyleTableRecord
  2
STANDARD
 70
     0
 40
0.0
 41
1.0
 50
0.0
 71
     0
 42
0.2
  3
arial.ttf
  4

  0
STYLE
  5
205
330
3
100
AcDbSymbolTableRecord
100
AcDbTextStyleTableRecord
  2
TEXTSTYLE_1
 70
     0
 40
0.0
 41
0.8
 50
0.0
 71
     0
 42
0.2
  3
gdt
  4

  0
STYLE
  5
206
330
3
100
AcDbSymbolTableRecord
100
AcDbTextStyleTableRecord
  2
TEXTSTYLE_2
 70
     0
 40
0.0
 41
0.85
 50
0.0
 71
     0
 42
0.2
  3
gdt
  4

  0
STYLE
  5
207
330
3
100
AcDbSymbolTableRecord
100
AcDbTextStyleTableRecord
  2
TEXTSTYLE_3
 70
     0
 40
0.0
 41
0.85
 50
0.0
 71
     0
 42
0.2
  3
txt
  4

  0
ENDTAB
  0
TABLE
  2
VIEW
  5
6
330
0
100
AcDbSymbolTable
 70
     0
  0
ENDTAB
  0
TABLE
  2
UCS
  5
7
330
0
100
AcDbSymbolTable
 70
     0
  0
ENDTAB
  0
TABLE
  2
APPID
  5
9
330
0
100
AcDbSymbolTable
 70
     1
  0
APPID
  5
208
330
9
100
AcDbSymbolTableRecord
100
AcDbRegAppTableRecord
  2
ACAD
 70
     0
  0
ENDTAB
  0
TABLE
  2
DIMSTYLE
  5
A
330
0
100
AcDbSymbolTable
 70
     4
100
AcDbDimStyleTable
  0
DIMSTYLE
105
212
330
A
100
AcDbSymbolTableRecord
100
AcDbDimStyleTableRecord
  2
STANDARD
 70
     0
 41
2.5
 42
0.75
 44
0.75
 47
0.01
 48
0.01
 71
     1
 73
     0
 74
     0
 77
     1
 78
     8
 79
     2
140
3.0
147
0.625
171
     1
178
     0
179
     2
271
     2
272
     2
278
    44
284
     8
340
11
341
20B
342
20B
343
20B
344
20B
  0
DIMSTYLE
105
213
330
A
100
AcDbSymbolTableRecord
100
AcDbDimStyleTableRecord
  2
DIMSTYLE_1
 70
     0
  3
<>
 41
2.5
 42
0.75
 44
0.75
 47
0.2
 48
0.2
 73
     0
 74
     0
 77
     1
 78
     8
 79
     2
140
3.0
147
0.625
171
     1
172
     1
178
     0
179
     2
271
     2
272
     2
278
    44
284
     8
288
     1
289
     2
340
11
341
20B
342
20B
343
20B
344
20B
  0
DIMSTYLE
105
214
330
A
100
AcDbSymbolTableRecord
100
AcDbDimStyleTableRecord
  2
DIMSTYLE_2
 70
     0
 41
2.5
 42
0.75
 44
0.75
 47
0.1
 48
0.1
 73
     0
 74
     0
 77
     1
 78
     8
 79
     2
140
3.0
147
0.75
171
     1
178
     0
179
     2
271
     2
272
     2
278
    44
284
     8
340
11
341
20B
342
20B
343
20B
344
20B
  0
DIMSTYLE
105
215
330
A
100
AcDbSymbolTableRecord
100
AcDbDimStyleTableRecord
  2
DIMSTYLE_3
 70
     0
 41
2.5
 42
0.75
 44
0.75
 47
0.2
 48
0.2
 73
     0
 74
     0
 77
     1
 78
     8
 79
     2
140
3.0
147
0.75
171
     1
178
     0
179
     2
271
     2
272
     2
278
    44
284
     8
340
11
341
20B
342
20B
343
20B
344
20B
  0
ENDTAB
  0
TABLE
  2
BLOCK_RECORD
  5
1
330
0
100
AcDbSymbolTable
 70
     7
  0
BLOCK_RECORD
  5
209
330
1
100
AcDbSymbolTableRecord
100
AcDbBlockTableRecord
  2
*Model_Space
340
3AD
 70
     0
280
     1
281
     0
  0
BLOCK_RECORD
  5
20A
330
1
100
AcDbSymbolTableRecord
100
AcDbBlockTableRecord
  2
*Paper_Space
340
3AE
 70
     0
280
     1
281
     0
  0
BLOCK_RECORD
  5
20B
330
1
100
AcDbSymbolTableRecord
100
AcDbBlockTableRecord
  2
_CLOSED
340
0
102
{BLKREFS
331
25B
331
265
331
266
331
26E
331
26F
331
277
331
278
102
}
 70
     0
280
     1
281
     0
  0
BLOCK_RECORD
  5
20C
330
1
100
AcDbSymbolTableRecord
100
AcDbBlockTableRecord
  2
*D1
340
0
 70
     0
280
     1
281
     0
  0
BLOCK_RECORD
  5
20D
330
1
100
AcDbSymbolTableRecord
100
AcDbBlockTableRecord
  2
*D2
340
0
 70
     0
280
     1
281
     0
  0
BLOCK_RECORD
  5
20E
330
1
100
AcDbSymbolTableRecord
100
AcDbBlockTableRecord
  2
*D3
340
0
 70
     0
280
     1
281
     0
  0
BLOCK_RECORD
  5
20F
330
1
100
AcDbSymbolTableRecord
100
AcDbBlockTableRecord
  2
*D4
340
0
 70
     0
280
     1
281
     0
  0
BLOCK_RECORD
  5
210
330
1
100
AcDbSymbolTableRecord
100
AcDbBlockTableRecord
  2
LOGO2_BL0
340
0
102
{BLKREFS
331
3AA
102
}
 70
     0
280
     1
281
     0
  0
BLOCK_RECORD
  5
211
330
1
100
AcDbSymbolTableRecord
100
AcDbBlockTableRecord
  2
*T6
340
0
102
{BLKREFS
331
3AB
102
}
 70
     0
280
     1
281
     0
  0
ENDTAB
  0
ENDSEC
  0
SECTION
  2
BLOCKS
  0
BLOCK
  5
20
330
209
100
AcDbEntity
  8
0
100
AcDbBlockBegin
  2
*Model_Space
 70
     0
 10
0.0
 20
0.0
 30
0.0
  3
*Model_Space
  1

  0
ENDBLK
  5
21
330
209
100
AcDbEntity
  8
0
100
AcDbBlockEnd
  0
BLOCK
  5
1C
330
20A
100
AcDbEntity
 67
     1
  8
0
100
AcDbBlockBegin
  2
*Paper_Space
 70
     0
 10
0.0
 20
0.0
 30
0.0
  3
*Paper_Space
  1

  0
ENDBLK
  5
1D
330
20A
100
AcDbEntity
 67
     1
  8
0
100
AcDbBlockEnd
  0
BLOCK
  5
252
330
20B
100
AcDbEntity
  8
0
100
AcDbBlockBegin
  2
_CLOSED
 70
     0
 10
0.0
 20
0.0
 30
0.0
  3
_CLOSED
  1

  0
LINE
  5
253
330
20B
100
AcDbEntity
  8
0
  6
ByBlock
 62
     0
100
AcDbLine
 10
0.0
 20
0.0
 30
0.0
 11
-1.0
 21
0.2
 31
0.0
  0
LINE
  5
254
330
20B
100
AcDbEntity
  8
0
  6
ByBlock
 62
     0
100
AcDbLine
 10
-1.0
 20
0.2
 30
0.0
 11
-1.0
 21
-0.2
 31
0.0
  0
LINE
  5
255
330
20B
100
AcDbEntity
  8
0
  6
ByBlock
 62
     0
100
AcDbLine
 10
-1.0
 20
-0.2
 30
0.0
 11
0.0
 21
0.0
 31
0.0
  0
LINE
  5
256
330
20B
100
AcDbEntity
  8
0
  6
ByBlock
 62
     0
100
AcDbLine
 10
-1.0
 20
0.0
 30
0.0
 11
0.0
 21
0.0
 31
0.0
  0
ENDBLK
  5
257
330
20B
100
AcDbEntity
  8
0
  6
ByBlock
 62
     0
100
AcDbBlockEnd
  0
BLOCK
  5
258
330
20C
100
AcDbEntity
  8
0
100
AcDbBlockBegin
  2
*D1
 70
     1
 10
0.0
 20
0.0
 30
0.0
  3
*D1
  1

  0
MTEXT
  5
259
330
20C
100
AcDbEntity
  8
0
  6
Continuous
 62
     2
100
AcDbMText
 10
81.8059452161
 20
156.4646909722
 30
0.0
 40
3.0
 41
8.6617100372
 46
0.0
 71
     3
 72
     1
  1
{\Fgdt;n}\Farial.ttf;30
  7
TEXTSTYLE_2
 11
0.8433894555
 21
-0.5373027324
 31
0.0
 73
     1
 44
0.9
  0
LINE
  5
25A
330
20C
100
AcDbEntity
  8
0
  6
Continuous
 62
     2
100
AcDbLine
 10
85.4217589834
 20
149.7148003023
 30
0.0
 11
72.4858650572
 21
157.9559409843
 31
0.0
  0
INSERT
  5
25B
330
20C
100
AcDbEntity
  8
0
  6
Continuous
 62
     2
100
AcDbBlockReference
  2
_CLOSED
 10
85.4217589834
 20
149.7148003023
 30
0.0
 41
2.5
 42
2.5
 43
2.5
 50
327.4997877655999
  0
ENDBLK
  5
25C
330
20C
100
AcDbEntity
  8
0
  6
ByBlock
 62
     0
100
AcDbBlockEnd
  0
BLOCK
  5
25D
330
20D
100
AcDbEntity
  8
0
100
AcDbBlockBegin
  2
*D2
 70
     1
 10
0.0
 20
0.0
 30
0.0
  3
*D2
  1

  0
MTEXT
  5
25E
330
20D
100
AcDbEntity
  8
0
  6
Continuous
 62
     2
100
AcDbMText
 10
182.4478225729
 20
166.529309981
 30
0.0
 40
3.0
 41
2.3308550186
 46
0.0
 71
     1
 72
     1
  1
2
 73
     1
 44
0.9
  0
LINE
  5
25F
330
20D
100
AcDbEntity
  8
0
  6
Continuous
 62
     2
100
AcDbLine
 10
175.1327265219
 20
157.4052593159
 30
0.0
 11
175.1327265219
 21
163.529309981
 31
0.0
  0
LINE
  5
260
330
20D
100
AcDbEntity
  8
0
  6
Continuous
 62
     2
100
AcDbLine
 10
177.1327265219
 20
156.9052593159
 30
0.0
 11
177.1327265219
 21
163.529309981
 31
0.0
  0
LINE
  5
261
330
20D
100
AcDbEntity
  8
0
  6
Continuous
 62
     2
100
AcDbLine
 10
175.1327265219
 20
162.779309981
 30
0.0
 11
174.1327265219
 21
162.779309981
 31
0.0
  0
LINE
  5
262
330
20D
100
AcDbEntity
  8
0
  6
Continuous
 62
     2
100
AcDbLine
 10
174.1327265219
 20
162.779309981
 30
0.0
 11
176.1327265219
 21
162.779309981
 31
0.0
  0
LINE
  5
263
330
20D
100
AcDbEntity
  8
0
  6
Continuous
 62
     2
100
AcDbLine
 10
177.1327265219
 20
162.779309981
 30
0.0
 11
184.7786775915
 21
162.779309981
 31
0.0
  0
LINE
  5
264
330
20D
100
AcDbEntity
  8
0
  6
Continuous
 62
     2
100
AcDbLine
 10
184.7786775915
 20
162.779309981
 30
0.0
 11
176.1327265219
 21
162.779309981
 31
0.0
  0
INSERT
  5
265
330
20D
100
AcDbEntity
  8
0
  6
Continuous
 62
     2
100
AcDbBlockReference
  2
_CLOSED
 10
175.1327265219
 20
162.779309981
 30
0.0
 41
2.5
 42
2.5
 43
2.5
  0
INSERT
  5
266
330
20D
100
AcDbEntity
  8
0
  6
Continuous
 62
     2
100
AcDbBlockReference
  2
_CLOSED
 10
177.1327265219
 20
162.779309981
 30
0.0
 41
2.5
 42
2.5
 43
2.5
 50
180.0
  0
ENDBLK
  5
267
330
20D
100
AcDbEntity
  8
0
  6
ByBlock
 62
     0
100
AcDbBlockEnd
  0
BLOCK
  5
268
330
20E
100
AcDbEntity
  8
0
100
AcDbBlockBegin
  2
*D3
 70
     1
 10
0.0
 20
0.0
 30
0.0
  3
*D3
  1

  0
MTEXT
  5
269
330
20E
100
AcDbEntity
  8
0
  6
Continuous
 62
     2
100
AcDbMText
 10
73.140002345
 20
79.1947901633
 30
0.0
 40
3.0
 41
4.6617100372
 46
0.0
 71
     2
 72
     1
  1
15
 11
0.0
 21
1.0
 31
0.0
 73
     1
 44
0.9
  0
LINE
  5
26A
330
20E
100
AcDbEntity
  8
0
  6
Continuous
 62
     2
100
AcDbLine
 10
81.1579506449
 20
86.6947901633
 30
0.0
 11
76.140002345
 21
86.6947901633
 31
0.0
  0
LINE
  5
26B
330
20E
100
AcDbEntity
  8
0
  6
Continuous
 62
     2
100
AcDbLine
 10
81.7102008472
 20
71.6947901633
 30
0.0
 11
76.140002345
 21
71.6947901633
 31
0.0
  0
LINE
  5
26C
330
20E
100
AcDbEntity
  8
0
  6
Continuous
 62
     2
100
AcDbLine
 10
76.890002345
 20
86.6947901633
 30
0.0
 11
76.890002345
 21
79.1947901633
 31
0.0
  0
LINE
  5
26D
330
20E
100
AcDbEntity
  8
0
  6
Continuous
 62
     2
100
AcDbLine
 10
76.890002345
 20
71.6947901633
 30
0.0
 11
76.890002345
 21
79.1947901633
 31
0.0
  0
INSERT
  5
26E
330
20E
100
AcDbEntity
  8
0
  6
Continuous
 62
     2
100
AcDbBlockReference
  2
_CLOSED
 10
76.890002345
 20
86.6947901633
 30
0.0
 41
2.5
 42
2.5
 43
2.5
 50
90.0
  0
INSERT
  5
26F
330
20E
100
AcDbEntity
  8
0
  6
Continuous
 62
     2
100
AcDbBlockReference
  2
_CLOSED
 10
76.890002345
 20
71.6947901633
 30
0.0
 41
2.5
 42
2.5
 43
2.5
 50
270.0
  0
ENDBLK
  5
270
330
20E
100
AcDbEntity
  8
0
  6
ByBlock
 62
     0
100
AcDbBlockEnd
  0
BLOCK
  5
271
330
20F
100
AcDbEntity
  8
0
100
AcDbBlockBegin
  2
*D4
 70
     1
 10
0.0
 20
0.0
 30
0.0
  3
*D4
  1

  0
MTEXT
  5
272
330
20F
100
AcDbEntity
  8
0
  6
Continuous
 62
     2
100
AcDbMText
 10
98.0726008166
 20
98.7509145359
 30
0.0
 40
3.0
 41
8.6617100372
 46
0.0
 71
     2
 72
     1
  1
{\Fgdt;n}\Farial.ttf;16
  7
TEXTSTYLE_2
 73
     1
 44
0.9
  0
LINE
  5
273
330
20F
100
AcDbEntity
  8
0
  6
Continuous
 62
     2
100
AcDbLine
 10
90.0726008166
 20
88.8985160276
 30
0.0
 11
90.0726008166
 21
95.7509145359
 31
0.0
  0
LINE
  5
274
330
20F
100
AcDbEntity
  8
0
  6
Continuous
 62
     2
100
AcDbLine
 10
106.0726008166
 20
89.2492612004
 30
0.0
 11
106.0726008166
 21
95.7509145359
 31
0.0
  0
LINE
  5
275
330
20F
100
AcDbEntity
  8
0
  6
Continuous
 62
     2
100
AcDbLine
 10
90.0726008166
 20
95.0009145359
 30
0.0
 11
98.0726008166
 21
95.0009145359
 31
0.0
  0
LINE
  5
276
330
20F
100
AcDbEntity
  8
0
  6
Continuous
 62
     2
100
AcDbLine
 10
106.0726008166
 20
95.0009145359
 30
0.0
 11
98.0726008166
 21
95.0009145359
 31
0.0
  0
INSERT
  5
277
330
20F
100
AcDbEntity
  8
0
  6
Continuous
 62
     2
100
AcDbBlockReference
  2
_CLOSED
 10
90.0726008166
 20
95.0009145359
 30
0.0
 41
2.5
 42
2.5
 43
2.5
 50
180.0
  0
INSERT
  5
278
330
20F
100
AcDbEntity
  8
0
  6
Continuous
 62
     2
100
AcDbBlockReference
  2
_CLOSED
 10
106.0726008166
 20
95.0009145359
 30
0.0
 41
2.5
 42
2.5
 43
2.5
  0
ENDBLK
  5
279
330
20F
100
AcDbEntity
  8
0
  6
ByBlock
 62
     0
100
AcDbBlockEnd
  0
BLOCK
  5
216
330
210
100
AcDbEntity
  8
0
100
AcDbBlockBegin
  2
LOGO2_BL0
 70
     0
 10
207.8284587569
 20
39.54351784
 30
0.0
  3
LOGO2_BL0
  1

  0
LINE
  5
217
330
210
100
AcDbEntity
  8
0
  6
Continuous
 62
     7
100
AcDbLine
 10
199.5713839852
 20
42.7390091789
 30
0.0
 11
198.2670430558
 21
42.7390091789
 31
0.0
  0
LINE
  5
218
330
210
100
AcDbEntity
  8
0
  6
Continuous
 62
     7
100
AcDbLine
 10
198.2670430558
 20
42.7390091789
 30
0.0
 11
198.2670430558
 21
32.279943119
 31
0.0
  0
LINE
  5
219
330
210
100
AcDbEntity
  8
0
  6
Continuous
 62
     7
100
AcDbLine
 10
198.2670430558
 20
32.279943119
 30
0.0
 11
202.7480979441
 21
32.279943119
 31
0.0
  0
LINE
  5
21A
330
210
100
AcDbEntity
  8
0
  6
Continuous
 62
     7
100
AcDbLine
 10
202.7480979441
 20
32.279943119
 30
0.0
 11
202.7480979441
 21
33.472797444
 31
0.0
  0
LINE
  5
21B
330
210
100
AcDbEntity
  8
0
  6
Continuous
 62
     7
100
AcDbLine
 10
202.7480979441
 20
33.472797444
 30
0.0
 11
199.5713839852
 21
33.472797444
 31
0.0
  0
LINE
  5
21C
330
210
100
AcDbEntity
  8
0
  6
Continuous
 62
     7
100
AcDbLine
 10
199.5713839852
 20
33.472797444
 30
0.0
 11
199.5713839852
 21
42.7390091789
 31
0.0
  0
LINE
  5
21D
330
210
100
AcDbEntity
  8
0
  6
Continuous
 62
     7
100
AcDbLine
 10
214.5077102015
 20
42.7390091789
 30
0.0
 11
213.2038926834
 21
42.7390091789
 31
0.0
  0
LINE
  5
21E
330
210
100
AcDbEntity
  8
0
  6
Continuous
 62
     7
100
AcDbLine
 10
213.2038926834
 20
42.7390091789
 30
0.0
 11
213.2038926834
 21
32.279943119
 31
0.0
  0
LINE
  5
21F
330
210
100
AcDbEntity
  8
0
  6
Continuous
 62
     7
100
AcDbLine
 10
213.2038926834
 20
32.279943119
 30
0.0
 11
217.6850784245
 21
32.279943119
 31
0.0
  0
LINE
  5
220
330
210
100
AcDbEntity
  8
0
  6
Continuous
 62
     7
100
AcDbLine
 10
217.6850784245
 20
32.279943119
 30
0.0
 11
217.6850784245
 21
33.472797444
 31
0.0
  0
LINE
  5
221
330
210
100
AcDbEntity
  8
0
  6
Continuous
 62
     7
100
AcDbLine
 10
217.6850784245
 20
33.472797444
 30
0.0
 11
214.5077102015
 21
33.472797444
 31
0.0
  0
LINE
  5
222
330
210
100
AcDbEntity
  8
0
  6
Continuous
 62
     7
100
AcDbLine
 10
214.5077102015
 20
33.472797444
 30
0.0
 11
214.5077102015
 21
42.7390091789
 31
0.0
  0
LWPOLYLINE
  5
223
330
210
100
AcDbEntity
  8
0
  6
Continuous
 62
     7
100
AcDbPolyline
 90
        2
 70
     0
 43
0.2
 10
196.6214379667
 20
28.9363918121
 10
196.6214379667
 20
27.0793285627
  0
LWPOLYLINE
  5
224
330
210
100
AcDbEntity
  8
0
  6
Continuous
 62
     7
100
AcDbPolyline
 90
        2
 70
     0
 43
0.2
 10
196.6214379667
 20
27.0793285627
 10
197.4171539771
 20
27.0793285627
  0
LWPOLYLINE
  5
225
330
210
100
AcDbEntity
  8
0
  6
Continuous
 62
     7
100
AcDbPolyline
 90
        2
 70
     0
 43
0.2
 10
197.4171539771
 20
27.0793285627
 10
197.4171539771
 20
27.2913101343
  0
LWPOLYLINE
  5
226
330
210
100
AcDbEntity
  8
0
  6
Continuous
 62
     7
100
AcDbPolyline
 90
        2
 70
     0
 43
0.2
 10
197.4171539771
 20
27.2913101343
 10
196.8530474616
 20
27.2913101343
  0
LWPOLYLINE
  5
227
330
210
100
AcDbEntity
  8
0
  6
Continuous
 62
     7
100
AcDbPolyline
 90
        2
 70
     0
 43
0.2
 10
196.8530474616
 20
27.2913101343
 10
196.8530474616
 20
28.9363918121
  0
LWPOLYLINE
  5
228
330
210
100
AcDbEntity
  8
0
  6
Continuous
 62
     7
100
AcDbPolyline
 90
        2
 70
     0
 43
0.2
 10
196.8530474616
 20
28.9363918121
 10
196.6214379667
 20
28.9363918121
  0
SPLINE
  5
229
330
210
100
AcDbEntity
  8
0
  6
Continuous
 62
     7
100
AcDbSpline
 70
     3
 71
     3
 72
    35
 73
    31
 74
     0
 42
0.000000001
 43
0.0000001
 40
0.0
 40
0.0
 40
0.0
 40
0.0
 40
1.0
 40
1.0
 40
1.0
 40
2.0
 40
2.0
 40
2.0
 40
3.0
 40
3.0
 40
3.0
 40
4.0
 40
4.0
 40
4.0
 40
5.0
 40
5.0
 40
5.0
 40
6.0
 40
6.0
 40
6.0
 40
7.0
 40
7.0
 40
7.0
 40
8.0
 40
8.0
 40
8.0
 40
9.0
 40
9.0
 40
9.0
 40
10.0
 40
10.0
 40
10.0
 40
10.0
 10
198.8154472326
 20
28.2318802186
 30
0.0
 10
198.8154472326
 20
28.2318802186
 30
0.0
 10
198.8154472326
 20
27.5697649394
 30
0.0
 10
198.8154472326
 20
27.5697649394
 30
0.0
 10
198.8154472326
 20
27.2546713441
 30
0.0
 10
198.9633109215
 20
27.0400727161
 30
0.0
 10
199.3033974058
 20
27.0400727161
 30
0.0
 10
199.6429604788
 20
27.0400727161
 30
0.0
 10
199.7910858732
 20
27.2546713441
 30
0.0
 10
199.7910858732
 20
27.5697649394
 30
0.0
 10
199.7910858732
 20
27.5697649394
 30
0.0
 10
199.7910858732
 20
28.2318802186
 30
0.0
 10
199.7910858732
 20
28.2318802186
 30
0.0
 10
199.7910858732
 20
28.2318802186
 30
0.0
 10
199.5690286344
 20
28.2318802186
 30
0.0
 10
199.5690286344
 20
28.2318802186
 30
0.0
 10
199.5690286344
 20
28.2318802186
 30
0.0
 10
199.5690286344
 20
27.5948886813
 30
0.0
 10
199.5690286344
 20
27.5948886813
 30
0.0
 10
199.5690286344
 20
27.4090776741
 30
0.0
 10
199.5223141769
 20
27.2462967635
 30
0.0
 10
199.3033974058
 20
27.2462967635
 30
0.0
 10
199.0839572233
 20
27.2462967635
 30
0.0
 10
199.0372427659
 20
27.4090776741
 30
0.0
 10
199.0372427659
 20
27.5948886813
 30
0.0
 10
199.0372427659
 20
27.5948886813
 30
0.0
 10
199.0372427659
 20
28.2318802186
 30
0.0
 10
199.0372427659
 20
28.2318802186
 30
0.0
 10
199.0372427659
 20
28.2318802186
 30
0.0
 10
198.8154472326
 20
28.2318802186
 30
0.0
 10
198.8154472326
 20
28.2318802186
 30
0.0
  0
SPLINE
  5
22A
330
210
100
AcDbEntity
  8
0
  6
Continuous
 62
     7
100
AcDbSpline
 70
     3
 71
     3
 72
    35
 73
    31
 74
     0
 42
0.000000001
 43
0.0000001
 40
0.0
 40
0.0
 40
0.0
 40
0.0
 40
1.0
 40
1.0
 40
1.0
 40
2.0
 40
2.0
 40
2.0
 40
3.0
 40
3.0
 40
3.0
 40
4.0
 40
4.0
 40
4.0
 40
5.0
 40
5.0
 40
5.0
 40
6.0
 40
6.0
 40
6.0
 40
7.0
 40
7.0
 40
7.0
 40
8.0
 40
8.0
 40
8.0
 40
9.0
 40
9.0
 40
9.0
 40
10.0
 40
10.0
 40
10.0
 40
10.0
 10
202.2142184304
 20
28.1905307269
 30
0.0
 10
202.1257619228
 20
28.2418250331
 30
0.0
 10
202.0123125261
 20
28.2669487749
 30
0.0
 10
201.9086770911
 20
28.2669487749
 30
0.0
 10
201.553804238
 20
28.2669487749
 30
0.0
 10
201.2783590477
 20
28.0031494858
 30
0.0
 10
201.2783590477
 20
27.6456595762
 30
0.0
 10
201.2783590477
 20
27.3007315375
 30
0.0
 10
201.5568138529
 20
27.0405961274
 30
0.0
 10
201.8963769259
 20
27.0405961274
 30
0.0
 10
202.0123125261
 20
27.0405961274
 30
0.0
 10
202.113069199
 20
27.0625794015
 30
0.0
 10
202.2142184304
 20
27.1164907641
 30
0.0
 10
202.2142184304
 20
27.1164907641
 30
0.0
 10
202.2142184304
 20
27.3991328596
 30
0.0
 10
202.2142184304
 20
27.3991328596
 30
0.0
 10
202.1303417715
 20
27.3059656504
 30
0.0
 10
202.0268371894
 20
27.2468201748
 30
0.0
 10
201.8987322767
 20
27.2468201748
 30
0.0
 10
201.6650291366
 20
27.2468201748
 30
0.0
 10
201.4997620225
 20
27.4190224885
 30
0.0
 10
201.4997620225
 20
27.6556043907
 30
0.0
 10
201.4997620225
 20
27.8675859622
 30
0.0
 10
201.6675153402
 20
28.0596779049
 30
0.0
 10
201.8843384662
 20
28.0596779049
 30
0.0
 10
202.0171540805
 20
28.0596779049
 30
0.0
 10
202.1257619228
 20
28.0057665422
 30
0.0
 10
202.2142184304
 20
27.9047481637
 30
0.0
 10
202.2142184304
 20
27.9047481637
 30
0.0
 10
202.2142184304
 20
28.1905307269
 30
0.0
 10
202.2142184304
 20
28.1905307269
 30
0.0
  0
SPLINE
  5
22B
330
210
100
AcDbEntity
  8
0
  6
Continuous
 62
     7
100
AcDbSpline
 70
     3
 71
     3
 72
    32
 73
    28
 74
     0
 42
0.000000001
 43
0.0000001
 40
0.0
 40
0.0
 40
0.0
 40
0.0
 40
1.0
 40
1.0
 40
1.0
 40
2.0
 40
2.0
 40
2.0
 40
3.0
 40
3.0
 40
3.0
 40
4.0
 40
4.0
 40
4.0
 40
5.0
 40
5.0
 40
5.0
 40
6.0
 40
6.0
 40
6.0
 40
7.0
 40
7.0
 40
7.0
 40
8.0
 40
8.0
 40
8.0
 40
9.0
 40
9.0
 40
9.0
 40
9.0
 10
204.7460896827
 20
27.6189656005
 30
0.0
 10
204.7460896827
 20
27.6189656005
 30
0.0
 10
204.7460896827
 20
27.6529873342
 30
0.0
 10
204.7460896827
 20
27.6529873342
 30
0.0
 10
204.7460896827
 20
27.9952983165
 30
0.0
 10
204.5732331049
 20
28.2669487749
 30
0.0
 10
204.2065834977
 20
28.2669487749
 30
0.0
 10
203.8349614833
 20
28.2669487749
 30
0.0
 10
203.6452248915
 20
28.0005324294
 30
0.0
 10
203.6452248915
 20
27.6456595762
 30
0.0
 10
203.6452248915
 20
27.3059656504
 30
0.0
 10
203.8593001082
 20
27.0400727161
 30
0.0
 10
204.2114250521
 20
27.0400727161
 30
0.0
 10
204.4354450833
 20
27.0400727161
 30
0.0
 10
204.6376126933
 20
27.1557466107
 30
0.0
 10
204.7460896827
 20
27.3551663114
 30
0.0
 10
204.7460896827
 20
27.3551663114
 30
0.0
 10
204.558446736
 20
27.4619422141
 30
0.0
 10
204.558446736
 20
27.4619422141
 30
0.0
 10
204.4749626356
 20
27.3232382229
 30
0.0
 10
204.3837582186
 20
27.2373987716
 30
0.0
 10
204.2141729614
 20
27.2373987716
 30
0.0
 10
204.0021913898
 20
27.2373987716
 30
0.0
 10
203.8692449227
 20
27.4221629563
 30
0.0
 10
203.8668895719
 20
27.6189656005
 30
0.0
 10
203.8668895719
 20
27.6189656005
 30
0.0
 10
204.7460896827
 20
27.6189656005
 30
0.0
 10
204.7460896827
 20
27.6189656005
 30
0.0
  0
SPLINE
  5
22C
330
210
100
AcDbEntity
  8
0
  6
Continuous
 62
     7
100
AcDbSpline
 70
     3
 71
     3
 72
    14
 73
    10
 74
     0
 42
0.000000001
 43
0.0000001
 40
0.0
 40
0.0
 40
0.0
 40
0.0
 40
1.0
 40
1.0
 40
1.0
 40
2.0
 40
2.0
 40
2.0
 40
3.0
 40
3.0
 40
3.0
 40
3.0
 10
203.8789280315
 20
27.7864572126
 30
0.0
 10
203.9065379769
 20
27.9513317683
 30
0.0
 10
204.034381184
 20
28.0743334209
 30
0.0
 10
204.2065834977
 20
28.0743334209
 30
0.0
 10
204.3837582186
 20
28.0743334209
 30
0.0
 10
204.4972076153
 20
27.9586595263
 30
0.0
 10
204.5244250023
 20
27.7864572126
 30
0.0
 10
204.5244250023
 20
27.7864572126
 30
0.0
 10
203.8789280315
 20
27.7864572126
 30
0.0
 10
203.8789280315
 20
27.7864572126
 30
0.0
  0
SPLINE
  5
22D
330
210
100
AcDbEntity
  8
0
  6
Continuous
 62
     7
100
AcDbSpline
 70
     3
 71
     3
 72
    20
 73
    16
 74
     0
 42
0.000000001
 43
0.0000001
 40
0.0
 40
0.0
 40
0.0
 40
0.0
 40
1.0
 40
1.0
 40
1.0
 40
2.0
 40
2.0
 40
2.0
 40
3.0
 40
3.0
 40
3.0
 40
4.0
 40
4.0
 40
4.0
 40
5.0
 40
5.0
 40
5.0
 40
5.0
 10
206.7701211329
 20
27.9958217278
 30
0.0
 10
206.7701211329
 20
27.9958217278
 30
0.0
 10
207.1812606995
 20
27.4933468914
 30
0.0
 10
207.1812606995
 20
27.4933468914
 30
0.0
 10
207.0651942464
 20
27.3776729968
 30
0.0
 10
206.9274062249
 20
27.2473435861
 30
0.0
 10
206.7554656168
 20
27.2473435861
 30
0.0
 10
206.5780291902
 20
27.2473435861
 30
0.0
 10
206.4105375781
 20
27.4116947305
 30
0.0
 10
206.4105375781
 20
27.5886077458
 30
0.0
 10
206.4105375781
 20
27.7665675837
 30
0.0
 10
206.6202946517
 20
27.8927097041
 30
0.0
 10
206.7478761531
 20
27.9806428004
 30
0.0
 10
206.7478761531
 20
27.9806428004
 30
0.0
 10
206.7701211329
 20
27.9958217278
 30
0.0
 10
206.7701211329
 20
27.9958217278
 30
0.0
  0
SPLINE
  5
22E
330
210
100
AcDbEntity
  8
0
  6
Continuous
 62
     7
100
AcDbSpline
 70
     3
 71
     3
 72
    23
 73
    19
 74
     0
 42
0.000000001
 43
0.0000001
 40
0.0
 40
0.0
 40
0.0
 40
0.0
 40
1.0
 40
1.0
 40
1.0
 40
2.0
 40
2.0
 40
2.0
 40
3.0
 40
3.0
 40
3.0
 40
4.0
 40
4.0
 40
4.0
 40
5.0
 40
5.0
 40
5.0
 40
6.0
 40
6.0
 40
6.0
 40
6.0
 10
206.8194526468
 20
28.2868384038
 30
0.0
 10
206.8194526468
 20
28.2868384038
 30
0.0
 10
206.7578209676
 20
28.365350097
 30
0.0
 10
206.7578209676
 20
28.365350097
 30
0.0
 10
206.703909605
 20
28.4339169757
 30
0.0
 10
206.6471194802
 20
28.5030072657
 30
0.0
 10
206.6471194802
 20
28.5966978862
 30
0.0
 10
206.6471194802
 20
28.7155122486
 30
0.0
 10
206.7430345987
 20
28.7929771192
 30
0.0
 10
206.8539977918
 20
28.7929771192
 30
0.0
 10
206.97726115
 20
28.7929771192
 30
0.0
 10
207.0705592121
 20
28.721793184
 30
0.0
 10
207.0705592121
 20
28.5914637734
 30
0.0
 10
207.0705592121
 20
28.4564236611
 30
0.0
 10
206.9424542994
 20
28.3800056131
 30
0.0
 10
206.8488945317
 20
28.3062046215
 30
0.0
 10
206.8488945317
 20
28.3062046215
 30
0.0
 10
206.8194526468
 20
28.2868384038
 30
0.0
 10
206.8194526468
 20
28.2868384038
 30
0.0
  0
SPLINE
  5
22F
330
210
100
AcDbEntity
  8
0
  6
Continuous
 62
     7
100
AcDbSpline
 70
     3
 71
     3
 72
    50
 73
    46
 74
     0
 42
0.000000001
 43
0.0000001
 40
0.0
 40
0.0
 40
0.0
 40
0.0
 40
1.0
 40
1.0
 40
1.0
 40
2.0
 40
2.0
 40
2.0
 40
3.0
 40
3.0
 40
3.0
 40
4.0
 40
4.0
 40
4.0
 40
5.0
 40
5.0
 40
5.0
 40
6.0
 40
6.0
 40
6.0
 40
7.0
 40
7.0
 40
7.0
 40
8.0
 40
8.0
 40
8.0
 40
9.0
 40
9.0
 40
9.0
 40
10.0
 40
10.0
 40
10.0
 40
11.0
 40
11.0
 40
11.0
 40
12.0
 40
12.0
 40
12.0
 40
13.0
 40
13.0
 40
13.0
 40
14.0
 40
14.0
 40
14.0
 40
15.0
 40
15.0
 40
15.0
 40
15.0
 10
207.5216088894
 20
27.079851974
 30
0.0
 10
207.5216088894
 20
27.079851974
 30
0.0
 10
207.8069988941
 20
27.079851974
 30
0.0
 10
207.8069988941
 20
27.079851974
 30
0.0
 10
207.8069988941
 20
27.079851974
 30
0.0
 10
207.4746327263
 20
27.490729835
 30
0.0
 10
207.4746327263
 20
27.490729835
 30
0.0
 10
207.4746327263
 20
27.490729835
 30
0.0
 10
207.7011389612
 20
27.7566227692
 30
0.0
 10
207.7011389612
 20
27.7566227692
 30
0.0
 10
207.7011389612
 20
27.7566227692
 30
0.0
 10
207.5528827139
 20
27.9094588653
 30
0.0
 10
207.5528827139
 20
27.9094588653
 30
0.0
 10
207.5528827139
 20
27.9094588653
 30
0.0
 10
207.3369755576
 20
27.6582214471
 30
0.0
 10
207.3369755576
 20
27.6582214471
 30
0.0
 10
207.3369755576
 20
27.6582214471
 30
0.0
 10
206.9499129103
 20
28.1261511384
 30
0.0
 10
206.9499129103
 20
28.1261511384
 30
0.0
 10
207.1053660628
 20
28.2402547992
 30
0.0
 10
207.2876440438
 20
28.3800056131
 30
0.0
 10
207.2876440438
 20
28.5893701282
 30
0.0
 10
207.2876440438
 20
28.8332797884
 30
0.0
 10
207.0856072866
 20
28.9766944812
 30
0.0
 10
206.8591010518
 20
28.9766944812
 30
0.0
 10
206.614929686
 20
28.9766944812
 30
0.0
 10
206.4305580599
 20
28.8259520303
 30
0.0
 10
206.4305580599
 20
28.5694804993
 30
0.0
 10
206.4305580599
 20
28.4119337016
 30
0.0
 10
206.5292210876
 20
28.2742765329
 30
0.0
 10
206.6345576093
 20
28.1633133399
 30
0.0
 10
206.6345576093
 20
28.1633133399
 30
0.0
 10
206.5190145675
 20
28.0795675338
 30
0.0
 10
206.5190145675
 20
28.0795675338
 30
0.0
 10
206.3413164353
 20
27.9513317683
 30
0.0
 10
206.1939761577
 20
27.8236194141
 30
0.0
 10
206.1939761577
 20
27.5865141007
 30
0.0
 10
206.1939761577
 20
27.2661863925
 30
0.0
 10
206.452541334
 20
27.0400727161
 30
0.0
 10
206.7629242277
 20
27.0400727161
 30
0.0
 10
206.9818409988
 20
27.0400727161
 30
0.0
 10
207.1790362015
 20
27.1651680139
 30
0.0
 10
207.3193104267
 20
27.3310893922
 30
0.0
 10
207.3193104267
 20
27.3310893922
 30
0.0
 10
207.5216088894
 20
27.079851974
 30
0.0
 10
207.5216088894
 20
27.079851974
 30
0.0
  0
LWPOLYLINE
  5
230
330
210
100
AcDbEntity
  8
0
  6
Continuous
 62
     7
100
AcDbPolyline
 90
        2
 70
     0
 43
0.2
 10
209.4570529792
 20
28.9363918121
 10
209.2257051899
 20
28.9363918121
  0
LWPOLYLINE
  5
231
330
210
100
AcDbEntity
  8
0
  6
Continuous
 62
     7
100
AcDbPolyline
 90
        2
 70
     0
 43
0.2
 10
209.2257051899
 20
28.9363918121
 10
209.2257051899
 20
27.0793285627
  0
LWPOLYLINE
  5
232
330
210
100
AcDbEntity
  8
0
  6
Continuous
 62
     7
100
AcDbPolyline
 90
        2
 70
     0
 43
0.2
 10
209.2257051899
 20
27.0793285627
 10
210.0210286418
 20
27.0793285627
  0
LWPOLYLINE
  5
233
330
210
100
AcDbEntity
  8
0
  6
Continuous
 62
     7
100
AcDbPolyline
 90
        2
 70
     0
 43
0.2
 10
210.0210286418
 20
27.0793285627
 10
210.0210286418
 20
27.2913101343
  0
LWPOLYLINE
  5
234
330
210
100
AcDbEntity
  8
0
  6
Continuous
 62
     7
100
AcDbPolyline
 90
        2
 70
     0
 43
0.2
 10
210.0210286418
 20
27.2913101343
 10
209.4570529792
 20
27.2913101343
  0
LWPOLYLINE
  5
235
330
210
100
AcDbEntity
  8
0
  6
Continuous
 62
     7
100
AcDbPolyline
 90
        2
 70
     0
 43
0.2
 10
209.4570529792
 20
27.2913101343
 10
209.4570529792
 20
28.9363918121
  0
LWPOLYLINE
  5
236
330
210
100
AcDbEntity
  8
0
  6
Continuous
 62
     7
100
AcDbPolyline
 90
        2
 70
     0
 43
0.2
 10
211.7001320533
 20
28.2318802186
 10
211.4789907842
 20
28.2318802186
  0
LWPOLYLINE
  5
237
330
210
100
AcDbEntity
  8
0
  6
Continuous
 62
     7
100
AcDbPolyline
 90
        2
 70
     0
 43
0.2
 10
211.4789907842
 20
28.2318802186
 10
211.4789907842
 20
27.079851974
  0
LWPOLYLINE
  5
238
330
210
100
AcDbEntity
  8
0
  6
Continuous
 62
     7
100
AcDbPolyline
 90
        2
 70
     0
 43
0.2
 10
211.4789907842
 20
27.079851974
 10
211.7001320533
 20
27.079851974
  0
LWPOLYLINE
  5
239
330
210
100
AcDbEntity
  8
0
  6
Continuous
 62
     7
100
AcDbPolyline
 90
        2
 70
     0
 43
0.2
 10
211.7001320533
 20
27.079851974
 10
211.7001320533
 20
28.2318802186
  0
SPLINE
  5
23A
330
210
100
AcDbEntity
  8
0
  6
Continuous
 62
     7
100
AcDbSpline
 70
     3
 71
     3
 72
    17
 73
    13
 74
     0
 42
0.000000001
 43
0.0000001
 40
0.0
 40
0.0
 40
0.0
 40
0.0
 40
1.0
 40
1.0
 40
1.0
 40
2.0
 40
2.0
 40
2.0
 40
3.0
 40
3.0
 40
3.0
 40
4.0
 40
4.0
 40
4.0
 40
4.0
 10
211.5896922716
 20
28.914408538
 30
0.0
 10
211.5056847599
 20
28.914408538
 30
0.0
 10
211.4371178812
 20
28.845318248
 30
0.0
 10
211.4371178812
 20
28.7594787968
 30
0.0
 10
211.4371178812
 20
28.6752095794
 30
0.0
 10
211.5056847599
 20
28.6092597572
 30
0.0
 10
211.5896922716
 20
28.6092597572
 30
0.0
 10
211.6734380776
 20
28.6092597572
 30
0.0
 10
211.742266662
 20
28.6752095794
 30
0.0
 10
211.742266662
 20
28.7594787968
 30
0.0
 10
211.742266662
 20
28.845318248
 30
0.0
 10
211.6734380776
 20
28.914408538
 30
0.0
 10
211.5896922716
 20
28.914408538
 30
0.0
  0
SPLINE
  5
23B
330
210
100
AcDbEntity
  8
0
  6
Continuous
 62
     7
100
AcDbSpline
 70
     3
 71
     3
 72
    17
 73
    13
 74
     0
 42
0.000000001
 43
0.0000001
 40
0.0
 40
0.0
 40
0.0
 40
0.0
 40
1.0
 40
1.0
 40
1.0
 40
2.0
 40
2.0
 40
2.0
 40
3.0
 40
3.0
 40
3.0
 40
4.0
 40
4.0
 40
4.0
 40
4.0
 10
213.830415995
 20
27.2373987716
 30
0.0
 10
213.5964511493
 20
27.2373987716
 30
0.0
 10
213.4661217386
 20
27.4394355288
 30
0.0
 10
213.4661217386
 20
27.6556043907
 30
0.0
 10
213.4661217386
 20
27.8702030187
 30
0.0
 10
213.6019469678
 20
28.0690993081
 30
0.0
 10
213.830415995
 20
28.0690993081
 30
0.0
 10
214.0698766592
 20
28.0690993081
 30
0.0
 10
214.2054401827
 20
27.8801478331
 30
0.0
 10
214.2054401827
 20
27.6556043907
 30
0.0
 10
214.2054401827
 20
27.4294907143
 30
0.0
 10
214.0722320099
 20
27.2373987716
 30
0.0
 10
213.830415995
 20
27.2373987716
 30
0.0
  0
SPLINE
  5
23C
330
210
100
AcDbEntity
  8
0
  6
Continuous
 62
     7
100
AcDbSpline
 70
     3
 71
     3
 72
    50
 73
    46
 74
     0
 42
0.000000001
 43
0.0000001
 40
0.0
 40
0.0
 40
0.0
 40
0.0
 40
1.0
 40
1.0
 40
1.0
 40
2.0
 40
2.0
 40
2.0
 40
3.0
 40
3.0
 40
3.0
 40
4.0
 40
4.0
 40
4.0
 40
5.0
 40
5.0
 40
5.0
 40
6.0
 40
6.0
 40
6.0
 40
7.0
 40
7.0
 40
7.0
 40
8.0
 40
8.0
 40
8.0
 40
9.0
 40
9.0
 40
9.0
 40
10.0
 40
10.0
 40
10.0
 40
11.0
 40
11.0
 40
11.0
 40
12.0
 40
12.0
 40
12.0
 40
13.0
 40
13.0
 40
13.0
 40
14.0
 40
14.0
 40
14.0
 40
15.0
 40
15.0
 40
15.0
 40
15.0
 10
214.4145429922
 20
28.2324036299
 30
0.0
 10
214.4145429922
 20
28.2324036299
 30
0.0
 10
214.1928783118
 20
28.2324036299
 30
0.0
 10
214.1928783118
 20
28.2324036299
 30
0.0
 10
214.1928783118
 20
28.2324036299
 30
0.0
 10
214.1928783118
 20
28.0350775744
 30
0.0
 10
214.1928783118
 20
28.0350775744
 30
0.0
 10
214.1928783118
 20
28.0350775744
 30
0.0
 10
214.1881676102
 20
28.0350775744
 30
0.0
 10
214.1881676102
 20
28.0350775744
 30
0.0
 10
214.0968323405
 20
28.1779688559
 30
0.0
 10
213.9589134661
 20
28.2664253636
 30
0.0
 10
213.7861877411
 20
28.2664253636
 30
0.0
 10
213.4538215733
 20
28.2664253636
 30
0.0
 10
213.2447187638
 20
27.9785491553
 30
0.0
 10
213.2447187638
 20
27.6629321487
 30
0.0
 10
213.2447187638
 20
27.3331830373
 30
0.0
 10
213.4417831137
 20
27.0400727161
 30
0.0
 10
213.7966559669
 20
27.0400727161
 30
0.0
 10
213.9589134661
 20
27.0400727161
 30
0.0
 10
214.0989259856
 20
27.1285292238
 30
0.0
 10
214.1881676102
 20
27.2593820457
 30
0.0
 10
214.1881676102
 20
27.2593820457
 30
0.0
 10
214.1928783118
 20
27.2593820457
 30
0.0
 10
214.1928783118
 20
27.2593820457
 30
0.0
 10
214.1928783118
 20
27.2593820457
 30
0.0
 10
214.1928783118
 20
27.0400727161
 30
0.0
 10
214.1928783118
 20
27.0400727161
 30
0.0
 10
214.1928783118
 20
26.803490814
 30
0.0
 10
214.1363498927
 20
26.6166329842
 30
0.0
 10
213.8631292004
 20
26.6166329842
 30
0.0
 10
213.6608307377
 20
26.6166329842
 30
0.0
 10
213.5182011617
 20
26.7349239353
 30
0.0
 10
213.5182011617
 20
26.9411479827
 30
0.0
 10
213.5182011617
 20
26.9411479827
 30
0.0
 10
213.2965364813
 20
26.9411479827
 30
0.0
 10
213.2965364813
 20
26.9411479827
 30
0.0
 10
213.3015088886
 20
26.6166329842
 30
0.0
 10
213.5325949722
 20
26.41983034
 30
0.0
 10
213.8529226803
 20
26.41983034
 30
0.0
 10
214.3009627427
 20
26.41983034
 30
0.0
 10
214.4145429922
 20
26.7050894919
 30
0.0
 10
214.4145429922
 20
27.1018352481
 30
0.0
 10
214.4145429922
 20
27.1018352481
 30
0.0
 10
214.4145429922
 20
28.2324036299
 30
0.0
 10
214.4145429922
 20
28.2324036299
 30
0.0
  0
SPLINE
  5
23D
330
210
100
AcDbEntity
  8
0
  6
Continuous
 62
     7
100
AcDbSpline
 70
     3
 71
     3
 72
    44
 73
    40
 74
     0
 42
0.000000001
 43
0.0000001
 40
0.0
 40
0.0
 40
0.0
 40
0.0
 40
1.0
 40
1.0
 40
1.0
 40
2.0
 40
2.0
 40
2.0
 40
3.0
 40
3.0
 40
3.0
 40
4.0
 40
4.0
 40
4.0
 40
5.0
 40
5.0
 40
5.0
 40
6.0
 40
6.0
 40
6.0
 40
7.0
 40
7.0
 40
7.0
 40
8.0
 40
8.0
 40
8.0
 40
9.0
 40
9.0
 40
9.0
 40
10.0
 40
10.0
 40
10.0
 40
11.0
 40
11.0
 40
11.0
 40
12.0
 40
12.0
 40
12.0
 40
13.0
 40
13.0
 40
13.0
 40
13.0
 10
215.9834683276
 20
29.2174636737
 30
0.0
 10
215.9834683276
 20
29.2174636737
 30
0.0
 10
215.9834683276
 20
27.0793285627
 30
0.0
 10
215.9834683276
 20
27.0793285627
 30
0.0
 10
215.9834683276
 20
27.0793285627
 30
0.0
 10
216.2048713024
 20
27.0793285627
 30
0.0
 10
216.2048713024
 20
27.0793285627
 30
0.0
 10
216.2048713024
 20
27.0793285627
 30
0.0
 10
216.2048713024
 20
27.609020786
 30
0.0
 10
216.2048713024
 20
27.609020786
 30
0.0
 10
216.2048713024
 20
27.8189087125
 30
0.0
 10
216.2048713024
 20
28.0696227194
 30
0.0
 10
216.4901304543
 20
28.0696227194
 30
0.0
 10
216.7170292476
 20
28.0696227194
 30
0.0
 10
216.7439849289
 20
27.9366762522
 30
0.0
 10
216.7439849289
 20
27.7403970193
 30
0.0
 10
216.7439849289
 20
27.7403970193
 30
0.0
 10
216.7439849289
 20
27.0793285627
 30
0.0
 10
216.7439849289
 20
27.0793285627
 30
0.0
 10
216.7439849289
 20
27.0793285627
 30
0.0
 10
216.9659113149
 20
27.0793285627
 30
0.0
 10
216.9659113149
 20
27.0793285627
 30
0.0
 10
216.9659113149
 20
27.0793285627
 30
0.0
 10
216.9659113149
 20
27.7665675837
 30
0.0
 10
216.9659113149
 20
27.7665675837
 30
0.0
 10
216.9659113149
 20
28.047116034
 30
0.0
 10
216.8819038032
 20
28.2669487749
 30
0.0
 10
216.5568653935
 20
28.2669487749
 30
0.0
 10
216.4171145796
 20
28.2669487749
 30
0.0
 10
216.2789339996
 20
28.2004755413
 30
0.0
 10
216.209582004
 20
28.0774738887
 30
0.0
 10
216.209582004
 20
28.0774738887
 30
0.0
 10
216.2048713024
 20
28.0774738887
 30
0.0
 10
216.2048713024
 20
28.0774738887
 30
0.0
 10
216.2048713024
 20
28.0774738887
 30
0.0
 10
216.2048713024
 20
29.2174636737
 30
0.0
 10
216.2048713024
 20
29.2174636737
 30
0.0
 10
216.2048713024
 20
29.2174636737
 30
0.0
 10
215.9834683276
 20
29.2174636737
 30
0.0
 10
215.9834683276
 20
29.2174636737
 30
0.0
  0
LWPOLYLINE
  5
23E
330
210
100
AcDbEntity
  8
0
  6
Continuous
 62
     7
100
AcDbPolyline
 90
        2
 70
     0
 43
0.2
 10
218.8057019918
 20
28.0251327599
 10
219.0221325593
 20
28.0251327599
  0
LWPOLYLINE
  5
23F
330
210
100
AcDbEntity
  8
0
  6
Continuous
 62
     7
100
AcDbPolyline
 90
        2
 70
     0
 43
0.2
 10
219.0221325593
 20
28.0251327599
 10
219.0221325593
 20
28.2318802186
  0
LWPOLYLINE
  5
240
330
210
100
AcDbEntity
  8
0
  6
Continuous
 62
     7
100
AcDbPolyline
 90
        2
 70
     0
 43
0.2
 10
219.0221325593
 20
28.2318802186
 10
218.8057019918
 20
28.2318802186
  0
LWPOLYLINE
  5
241
330
210
100
AcDbEntity
  8
0
  6
Continuous
 62
     7
100
AcDbPolyline
 90
        2
 70
     0
 43
0.2
 10
218.8057019918
 20
28.2318802186
 10
218.8057019918
 20
28.672592523
  0
LWPOLYLINE
  5
242
330
210
100
AcDbEntity
  8
0
  6
Continuous
 62
     7
100
AcDbPolyline
 90
        2
 70
     0
 43
0.2
 10
218.8057019918
 20
28.672592523
 10
218.5840373114
 20
28.672592523
  0
LWPOLYLINE
  5
243
330
210
100
AcDbEntity
  8
0
  6
Continuous
 62
     7
100
AcDbPolyline
 90
        2
 70
     0
 43
0.2
 10
218.5840373114
 20
28.672592523
 10
218.5840373114
 20
28.2318802186
  0
LWPOLYLINE
  5
244
330
210
100
AcDbEntity
  8
0
  6
Continuous
 62
     7
100
AcDbPolyline
 90
        2
 70
     0
 43
0.2
 10
218.5840373114
 20
28.2318802186
 10
218.4633910095
 20
28.2318802186
  0
LWPOLYLINE
  5
245
330
210
100
AcDbEntity
  8
0
  6
Continuous
 62
     7
100
AcDbPolyline
 90
        2
 70
     0
 43
0.2
 10
218.4633910095
 20
28.2318802186
 10
218.4633910095
 20
28.0251327599
  0
LWPOLYLINE
  5
246
330
210
100
AcDbEntity
  8
0
  6
Continuous
 62
     7
100
AcDbPolyline
 90
        2
 70
     0
 43
0.2
 10
218.4633910095
 20
28.0251327599
 10
218.5840373114
 20
28.0251327599
  0
LWPOLYLINE
  5
247
330
210
100
AcDbEntity
  8
0
  6
Continuous
 62
     7
100
AcDbPolyline
 90
        2
 70
     0
 43
0.2
 10
218.5840373114
 20
28.0251327599
 10
218.5840373114
 20
27.0793285627
  0
LWPOLYLINE
  5
248
330
210
100
AcDbEntity
  8
0
  6
Continuous
 62
     7
100
AcDbPolyline
 90
        2
 70
     0
 43
0.2
 10
218.5840373114
 20
27.0793285627
 10
218.8057019918
 20
27.0793285627
  0
LWPOLYLINE
  5
249
330
210
100
AcDbEntity
  8
0
  6
Continuous
 62
     7
100
AcDbPolyline
 90
        2
 70
     0
 43
0.2
 10
218.8057019918
 20
27.0793285627
 10
218.8057019918
 20
28.0251327599
  0
SPLINE
  5
24A
330
210
100
AcDbEntity
  8
0
  6
Continuous
 62
     7
100
AcDbSpline
 70
     3
 71
     3
 72
    20
 73
    16
 74
     0
 42
0.000000001
 43
0.0000001
 40
0.0
 40
0.0
 40
0.0
 40
0.0
 40
1.0
 40
1.0
 40
1.0
 40
2.0
 40
2.0
 40
2.0
 40
3.0
 40
3.0
 40
3.0
 40
4.0
 40
4.0
 40
4.0
 40
5.0
 40
5.0
 40
5.0
 40
5.0
 10
206.587712299
 20
37.4402550061
 30
0.0
 10
206.587712299
 20
37.4402550061
 30
0.0
 10
208.9040689535
 20
34.6106935839
 30
0.0
 10
208.9040689535
 20
34.6106935839
 30
0.0
 10
208.2524219001
 20
33.9585231192
 30
0.0
 10
207.4755486961
 20
33.2226068484
 30
0.0
 10
206.5043590515
 20
33.2226068484
 30
0.0
 10
205.505821167
 20
33.2226068484
 30
0.0
 10
204.5625031735
 20
34.1521852957
 30
0.0
 10
204.5625031735
 20
35.1513774442
 30
0.0
 10
204.5625031735
 20
36.1505695928
 30
0.0
 10
205.7413562466
 20
36.8571748314
 30
0.0
 10
206.4628787069
 20
37.3570326113
 30
0.0
 10
206.4628787069
 20
37.3570326113
 30
0.0
 10
206.587712299
 20
37.4402550061
 30
0.0
 10
206.587712299
 20
37.4402550061
 30
0.0
  0
SPLINE
  5
24B
330
210
100
AcDbEntity
  8
0
  6
Continuous
 62
     7
100
AcDbSpline
 70
     3
 71
     3
 72
    23
 73
    19
 74
     0
 42
0.000000001
 43
0.0000001
 40
0.0
 40
0.0
 40
0.0
 40
0.0
 40
1.0
 40
1.0
 40
1.0
 40
2.0
 40
2.0
 40
2.0
 40
3.0
 40
3.0
 40
3.0
 40
4.0
 40
4.0
 40
4.0
 40
5.0
 40
5.0
 40
5.0
 40
6.0
 40
6.0
 40
6.0
 40
6.0
 10
206.8651202816
 20
39.0780089258
 30
0.0
 10
206.8651202816
 20
39.0780089258
 30
0.0
 10
206.518622009
 20
39.5213382867
 30
0.0
 10
206.518622009
 20
39.5213382867
 30
0.0
 10
206.2128189641
 20
39.9094477566
 30
0.0
 10
205.893930637
 20
40.297949785
 30
0.0
 10
205.893930637
 20
40.8248940991
 30
0.0
 10
205.893930637
 20
41.4910658157
 30
0.0
 10
206.4352687615
 20
41.934787735
 30
0.0
 10
207.0591750166
 20
41.934787735
 30
0.0
 10
207.7529566787
 20
41.934787735
 30
0.0
 10
208.2801626984
 20
41.5325461603
 30
0.0
 10
208.2801626984
 20
40.7975458593
 30
0.0
 10
208.2801626984
 20
40.0342813488
 30
0.0
 10
207.5589019437
 20
39.604168123
 30
0.0
 10
207.0318267768
 20
39.1884487076
 30
0.0
 10
207.0318267768
 20
39.1884487076
 30
0.0
 10
206.8651202816
 20
39.0780089258
 30
0.0
 10
206.8651202816
 20
39.0780089258
 30
0.0
  0
SPLINE
  5
24C
330
210
100
AcDbEntity
  8
0
  6
Continuous
 62
     7
100
AcDbSpline
 70
     3
 71
     3
 72
    50
 73
    46
 74
     0
 42
0.000000001
 43
0.0000001
 40
0.0
 40
0.0
 40
0.0
 40
0.0
 40
1.0
 40
1.0
 40
1.0
 40
2.0
 40
2.0
 40
2.0
 40
3.0
 40
3.0
 40
3.0
 40
4.0
 40
4.0
 40
4.0
 40
5.0
 40
5.0
 40
5.0
 40
6.0
 40
6.0
 40
6.0
 40
7.0
 40
7.0
 40
7.0
 40
8.0
 40
8.0
 40
8.0
 40
9.0
 40
9.0
 40
9.0
 40
10.0
 40
10.0
 40
10.0
 40
11.0
 40
11.0
 40
11.0
 40
12.0
 40
12.0
 40
12.0
 40
13.0
 40
13.0
 40
13.0
 40
14.0
 40
14.0
 40
14.0
 40
15.0
 40
15.0
 40
15.0
 40
15.0
 10
210.8187074445
 20
32.2794197077
 30
0.0
 10
210.8187074445
 20
32.2794197077
 30
0.0
 10
212.4279354491
 20
32.2794197077
 30
0.0
 10
212.4279354491
 20
32.2794197077
 30
0.0
 10
212.4279354491
 20
32.2794197077
 30
0.0
 10
210.5549081555
 20
34.5965614791
 30
0.0
 10
210.5549081555
 20
34.5965614791
 30
0.0
 10
210.5549081555
 20
34.5965614791
 30
0.0
 10
211.8312465809
 20
36.0940411737
 30
0.0
 10
211.8312465809
 20
36.0940411737
 30
0.0
 10
211.8312465809
 20
36.0940411737
 30
0.0
 10
210.9990226332
 20
36.9550527422
 30
0.0
 10
210.9990226332
 20
36.9550527422
 30
0.0
 10
210.9990226332
 20
36.9550527422
 30
0.0
 10
209.7784275099
 20
35.5397486198
 30
0.0
 10
209.7784275099
 20
35.5397486198
 30
0.0
 10
209.7784275099
 20
35.5397486198
 30
0.0
 10
207.6005131411
 20
38.1751244543
 30
0.0
 10
207.6005131411
 20
38.1751244543
 30
0.0
 10
208.4740865805
 20
38.8131628142
 30
0.0
 10
209.5007578217
 20
39.604168123
 30
0.0
 10
209.5007578217
 20
40.7830211961
 30
0.0
 10
209.5007578217
 20
42.1567141211
 30
0.0
 10
208.3628616819
 20
42.9611972706
 30
0.0
 10
207.087570079
 20
42.9611972706
 30
0.0
 10
205.7141388596
 20
42.9611972706
 30
0.0
 10
204.6732046608
 20
42.1149720709
 30
0.0
 10
204.6732046608
 20
40.6723197087
 30
0.0
 10
204.6732046608
 20
39.7847450173
 30
0.0
 10
205.2285440373
 20
39.0078718133
 30
0.0
 10
205.8247094942
 20
38.3834421468
 30
0.0
 10
205.8247094942
 20
38.3834421468
 30
0.0
 10
205.1728007351
 20
37.9118485765
 30
0.0
 10
205.1728007351
 20
37.9118485765
 30
0.0
 10
204.1742628507
 20
37.1905878218
 30
0.0
 10
203.3413846389
 20
36.4693270671
 30
0.0
 10
203.3413846389
 20
35.1377687508
 30
0.0
 10
203.3413846389
 20
33.3340934528
 30
0.0
 10
204.7984308115
 20
32.0574933216
 30
0.0
 10
206.5459702488
 20
32.0574933216
 30
0.0
 10
207.7808283297
 20
32.0574933216
 30
0.0
 10
208.8901985544
 20
32.7656687941
 30
0.0
 10
209.6810730104
 20
33.6942004188
 30
0.0
 10
209.6810730104
 20
33.6942004188
 30
0.0
 10
210.8187074445
 20
32.2794197077
 30
0.0
 10
210.8187074445
 20
32.2794197077
 30
0.0
  0
LINE
  5
24D
330
210
100
AcDbEntity
  8
0
  6
Continuous
 62
     7
100
AcDbLine
 10
196.6215688195
 20
30.2532946124
 30
0.0
 11
219.0354795472
 21
30.2532946124
 31
0.0
  0
LINE
  5
24E
330
210
100
AcDbEntity
  8
0
  6
Continuous
 62
     7
100
AcDbLine
 10
219.0354795472
 20
30.2532946124
 30
0.0
 11
219.0354795472
 21
52.66720534
 31
0.0
  0
LINE
  5
24F
330
210
100
AcDbEntity
  8
0
  6
Continuous
 62
     7
100
AcDbLine
 10
219.0354795472
 20
52.66720534
 30
0.0
 11
196.6215688195
 21
52.66720534
 31
0.0
  0
LINE
  5
250
330
210
100
AcDbEntity
  8
0
  6
Continuous
 62
     7
100
AcDbLine
 10
196.6215688195
 20
52.66720534
 30
0.0
 11
196.6215688195
 21
30.2532946124
 31
0.0
  0
ENDBLK
  5
251
330
210
100
AcDbEntity
  8
0
  6
ByBlock
 62
     0
100
AcDbBlockEnd
  0
BLOCK
  5
27A
330
211
100
AcDbEntity
  8
0
100
AcDbBlockBegin
  2
*T6
 70
     1
 10
0.0
 20
0.0
 30
0.0
  3
*T6
  1

  0
LINE
  5
27B
330
211
100
AcDbEntity
  8
0
  6
Continuous
 62
     2
100
AcDbLine
 10
0.0
 20
0.0
 30
0.0
 11
90.0
 21
0.0
 31
0.0
  0
LINE
  5
27C
330
211
100
AcDbEntity
  8
0
  6
Continuous
 62
     2
100
AcDbLine
 10
0.0
 20
0.0
 30
0.0
 11
0.0
 21
-40.0
 31
0.0
  0
LINE
  5
27D
330
211
100
AcDbEntity
  8
0
  6
Continuous
 62
     2
100
AcDbLine
 10
30.0
 20
-6.0
 30
0.0
 11
90.0
 21
-6.0
 31
0.0
  0
LINE
  5
27E
330
211
100
AcDbEntity
  8
0
  6
Continuous
 62
     2
100
AcDbLine
 10
30.0
 20
-12.0
 30
0.0
 11
90.0
 21
-12.0
 31
0.0
  0
LINE
  5
27F
330
211
100
AcDbEntity
  8
0
  6
Continuous
 62
     2
100
AcDbLine
 10
30.0
 20
-22.0
 30
0.0
 11
90.0
 21
-22.0
 31
0.0
  0
LINE
  5
280
330
211
100
AcDbEntity
  8
0
  6
Continuous
 62
     2
100
AcDbLine
 10
0.0
 20
-27.0
 30
0.0
 11
90.0
 21
-27.0
 31
0.0
  0
LINE
  5
281
330
211
100
AcDbEntity
  8
0
  6
Continuous
 62
     2
100
AcDbLine
 10
0.0
 20
-40.0
 30
0.0
 11
90.0
 21
-40.0
 31
0.0
  0
LINE
  5
282
330
211
100
AcDbEntity
  8
0
  6
Continuous
 62
     2
100
AcDbLine
 10
30.0
 20
0.0
 30
0.0
 11
30.0
 21
-27.0
 31
0.0
  0
LINE
  5
283
330
211
100
AcDbEntity
  8
0
  6
Continuous
 62
     2
100
AcDbLine
 10
70.0
 20
0.0
 30
0.0
 11
70.0
 21
-12.0
 31
0.0
  0
LINE
  5
284
330
211
100
AcDbEntity
  8
0
  6
Continuous
 62
     2
100
AcDbLine
 10
90.0
 20
0.0
 30
0.0
 11
90.0
 21
-40.0
 31
0.0
  0
MTEXT
  5
285
330
211
100
AcDbEntity
  8
9_SOLID
  6
Continuous
 62
     2
100
AcDbMText
 10
31.4875
 20
-1.5
 30
0.0
 40
3.0
 41
27.0
 46
0.0
 71
     1
 72
     1
  1
174902
  7
TEXTSTYLE_3
 73
     1
 44
0.9
  0
MTEXT
  5
286
330
211
100
AcDbEntity
  8
9_SOLID
  6
Continuous
 62
     2
100
AcDbMText
 10
71.4875
 20
-1.25
 30
0.0
 40
3.5
 41
30.3333333333
 46
0.0
 71
     1
 72
     1
  1
Rev:00
  7
TEXTSTYLE_3
 73
     1
 44
0.9
  0
MTEXT
  5
287
330
211
100
AcDbEntity
  8
9_SOLID
  6
Continuous
 62
     2
100
AcDbMText
 10
31.4875
 20
-7.75
 30
0.0
 40
3.5
 41
36.5
 46
0.0
 71
     1
 72
     1
  1
Scale:1:1
  7
TEXTSTYLE_3
 73
     1
 44
0.9
  0
MTEXT
  5
288
330
211
100
AcDbEntity
  8
9_SOLID
  6
Continuous
 62
     2
100
AcDbMText
 10
71.4875
 20
-7.25
 30
0.0
 40
3.5
 41
11.5
 46
0.0
 71
     1
 72
     1
  1
A4
  7
TEXTSTYLE_3
 73
     1
 44
0.9
  0
MTEXT
  5
289
330
211
100
AcDbEntity
  8
9_SOLID
  6
Continuous
 62
     2
100
AcDbMText
 10
31.4875
 20
-15.5
 30
0.0
 40
3.0
 41
109.0
 46
0.0
 71
     1
 72
     1
  1
MOLLA DI FISSAGGIO KRILL
  7
TEXTSTYLE_3
 73
     1
 44
0.9
  0
MTEXT
  5
28A
330
211
100
AcDbEntity
  8
9_SOLID
  6
Continuous
 62
     2
100
AcDbMText
 10
31.4875
 20
-23.25
 30
0.0
 40
2.5
 41
45.4761904762
 46
0.0
 71
     1
 72
     1
  1
DATE:28.11.19
  7
TEXTSTYLE_3
 73
     1
 44
0.9
  0
MTEXT
  5
28B
330
211
100
AcDbEntity
  8
9_SOLID
  6
Continuous
 62
     2
100
AcDbMText
 10
1.4875
 20
-27.3125
 30
0.0
 40
2.25
 41
178.6071428571
 46
0.0
 71
     1
 72
     1
  1
Any integral or partial reproductions are prohibited \Pwithout prior authorisation of L & L Luce & Light s.r.l., \Pin accordance with the law in force. \PAll rights reserved.
  7
TEXTSTYLE_3
 73
     1
 44
0.9
  0
ENDBLK
  5
28C
330
211
100
AcDbEntity
  8
0
  6
ByBlock
 62
     0
100
AcDbBlockEnd
  0
ENDSEC
  0
SECTION
  2
ENTITIES
  0
LWPOLYLINE
  5
28D
330
20A
100
AcDbEntity
 67
     1
  8
0
  6
Continuous
 62
     7
100
AcDbPolyline
 90
        2
 70
     0
 43
0.5
 10
284.0
 20
13.0
 10
284.0
 20
197.0
  0
LWPOLYLINE
  5
28E
330
20A
100
AcDbEntity
 67
     1
  8
0
  6
Continuous
 62
     7
100
AcDbPolyline
 90
        2
 70
     0
 43
0.5
 10
13.0
 20
13.0
 10
13.0
 20
197.0
  0
LWPOLYLINE
  5
28F
330
20A
100
AcDbEntity
 67
     1
  8
0
  6
Continuous
 62
     7
100
AcDbPolyline
 90
        2
 70
     0
 43
0.5
 10
13.0
 20
13.0
 10
284.0
 20
13.0
  0
LWPOLYLINE
  5
290
330
20A
100
AcDbEntity
 67
     1
  8
0
  6
Continuous
 62
     7
100
AcDbPolyline
 90
        2
 70
     0
 43
0.1
 10
148.5
 20
197.0
 10
148.5
 20
200.0
  0
LWPOLYLINE
  5
291
330
20A
100
AcDbEntity
 67
     1
  8
0
  6
Continuous
 62
     7
100
AcDbPolyline
 90
        2
 70
     0
 43
0.1
 10
284.0
 20
105.0
 10
287.0
 20
105.0
  0
LWPOLYLINE
  5
292
330
20A
100
AcDbEntity
 67
     1
  8
0
  6
Continuous
 62
     7
100
AcDbPolyline
 90
        2
 70
     0
 43
0.1
 10
13.0
 20
105.0
 10
10.0
 20
105.0
  0
LWPOLYLINE
  5
293
330
20A
100
AcDbEntity
 67
     1
  8
0
  6
Continuous
 62
     7
100
AcDbPolyline
 90
        2
 70
     0
 43
0.5
 10
13.0
 20
197.0
 10
284.0
 20
197.0
  0
LWPOLYLINE
  5
294
330
20A
100
AcDbEntity
 67
     1
  8
0
  6
Continuous
 62
     7
100
AcDbPolyline
 90
        2
 70
     0
 43
0.1
 10
10.0
 20
200.0
 10
287.0
 20
200.0
  0
LWPOLYLINE
  5
295
330
20A
100
AcDbEntity
 67
     1
  8
0
  6
Continuous
 62
     7
100
AcDbPolyline
 90
        2
 70
     0
 43
0.1
 10
10.0
 20
10.0
 10
10.0
 20
200.0
  0
LWPOLYLINE
  5
296
330
20A
100
AcDbEntity
 67
     1
  8
0
  6
Continuous
 62
     7
100
AcDbPolyline
 90
        2
 70
     0
 43
0.1
 10
287.0
 20
10.0
 10
287.0
 20
200.0
  0
LWPOLYLINE
  5
297
330
20A
100
AcDbEntity
 67
     1
  8
0
  6
Continuous
 62
     7
100
AcDbPolyline
 90
        2
 70
     0
 43
0.1
 10
10.0
 20
10.0
 10
287.0
 20
10.0
  0
LWPOLYLINE
  5
298
330
20A
100
AcDbEntity
 67
     1
  8
0
  6
Continuous
 62
     7
100
AcDbPolyline
 90
        2
 70
     0
 43
0.1
 10
148.5
 20
13.0
 10
148.5
 20
10.0
  0
VIEWPORT
  5
299
330
20A
100
AcDbEntity
 67
     1
  8
0
100
AcDbViewport
 10
148.5
 20
105.0
 30
0.0
 40
297.0
 41
210.0
 68
     1
 69
     1
 12
148.5
 22
105.0
 13
0.0
 23
0.0
 14
10.0
 24
10.0
 15
10.0
 25
10.0
 16
0.0
 26
0.0
 36
1.0
 17
0.0
 27
0.0
 37
0.0
 42
50.0
 43
0.0
 44
0.0
 45
210.0
 50
0.0
 51
0.0
 72
   100
 90
    32864
  1

281
     0
 71
     1
 74
     0
110
0.0
120
0.0
130
0.0
111
1.0
121
0.0
131
0.0
112
0.0
122
1.0
132
0.0
 79
     0
146
0.0
170
     0
 61
     5
348
3D8
292
     1
282
     1
141
0.0
142
0.0
 63
   256
361
3F4
  0
LINE
  5
29A
330
20A
100
AcDbEntity
 67
     1
  8
0
  6
Continuous
 62
     7
100
AcDbLine
 10
94.5726008166
 20
71.6947901633
 30
0.0
 11
101.5726008166
 21
71.6947901633
 31
0.0
  0
LINE
  5
29B
330
20A
100
AcDbEntity
 67
     1
  8
7_ALL_FEATURES
  6
Continuous
 62
     7
100
AcDbLine
 10
94.5726008166
 20
71.6947901633
 30
0.0
 11
95.8226008166
 21
71.6947901633
 31
0.0
  0
LINE
  5
29C
330
20A
100
AcDbEntity
 67
     1
  8
7_ALL_FEATURES
  6
Continuous
 62
     7
100
AcDbLine
 10
95.8226008166
 20
71.6947901633
 30
0.0
 11
100.3226008166
 21
71.6947901633
 31
0.0
  0
LINE
  5
29D
330
20A
100
AcDbEntity
 67
     1
  8
7_ALL_FEATURES
  6
Continuous
 62
     7
100
AcDbLine
 10
100.3226008166
 20
71.6947901633
 30
0.0
 11
101.5726008166
 21
71.6947901633
 31
0.0
  0
LINE
  5
29E
330
20A
100
AcDbEntity
 67
     1
  8
7_ALL_FEATURES
  6
Continuous
 62
     7
100
AcDbLine
 10
83.5726008166
 20
74.6947901633
 30
0.0
 11
94.0726008166
 21
74.6947901633
 31
0.0
  0
LINE
  5
29F
330
20A
100
AcDbEntity
 67
     1
  8
7_ALL_FEATURES
  6
Continuous
 62
     7
100
AcDbLine
 10
94.0726008166
 20
74.6947901633
 30
0.0
 11
94.5726008166
 21
74.6947901633
 31
0.0
  0
LINE
  5
2A0
330
20A
100
AcDbEntity
 67
     1
  8
7_ALL_FEATURES
  6
Continuous
 62
     7
100
AcDbLine
 10
94.5726008166
 20
74.6947901633
 30
0.0
 11
101.5726008166
 21
74.6947901633
 31
0.0
  0
LINE
  5
2A1
330
20A
100
AcDbEntity
 67
     1
  8
7_ALL_FEATURES
  6
Continuous
 62
     7
100
AcDbLine
 10
101.5726008166
 20
74.6947901633
 30
0.0
 11
102.0726008166
 21
74.6947901633
 31
0.0
  0
LINE
  5
2A2
330
20A
100
AcDbEntity
 67
     1
  8
7_ALL_FEATURES
  6
Continuous
 62
     7
100
AcDbLine
 10
102.0726008166
 20
74.6947901633
 30
0.0
 11
112.5726008166
 21
74.6947901633
 31
0.0
  0
LINE
  5
2A3
330
20A
100
AcDbEntity
 67
     1
  8
3_ALL_AXES
  6
Continuous
 62
     7
100
AcDbLine
 10
83.0726008166
 20
76.6947901633
 30
0.0
 11
90.0726008166
 21
76.6947901633
 31
0.0
  0
LINE
  5
2A4
330
20A
100
AcDbEntity
 67
     1
  8
3_ALL_AXES
  6
Continuous
 62
     7
100
AcDbLine
 10
90.0726008166
 20
76.6947901633
 30
0.0
 11
106.0726008166
 21
76.6947901633
 31
0.0
  0
LINE
  5
2A5
330
20A
100
AcDbEntity
 67
     1
  8
3_ALL_AXES
  6
Continuous
 62
     7
100
AcDbLine
 10
106.0726008166
 20
76.6947901633
 30
0.0
 11
113.0726008166
 21
76.6947901633
 31
0.0
  0
LINE
  5
2A6
330
20A
100
AcDbEntity
 67
     1
  8
7_ALL_FEATURES
  6
Continuous
 62
     7
100
AcDbLine
 10
90.0726008166
 20
77.6947901633
 30
0.0
 11
91.3226008166
 21
77.6947901633
 31
0.0
  0
LINE
  5
2A7
330
20A
100
AcDbEntity
 67
     1
  8
7_ALL_FEATURES
  6
Continuous
 62
     7
100
AcDbLine
 10
91.3226008166
 20
77.6947901633
 30
0.0
 11
104.8226008166
 21
77.6947901633
 31
0.0
  0
LINE
  5
2A8
330
20A
100
AcDbEntity
 67
     1
  8
7_ALL_FEATURES
  6
Continuous
 62
     7
100
AcDbLine
 10
104.8226008166
 20
77.6947901633
 30
0.0
 11
106.0726008166
 21
77.6947901633
 31
0.0
  0
LINE
  5
2A9
330
20A
100
AcDbEntity
 67
     1
  8
7_ALL_FEATURES
  6
Continuous
 62
     7
100
AcDbLine
 10
90.0726008166
 20
80.1947901633
 30
0.0
 11
91.3226008166
 21
80.1947901633
 31
0.0
  0
LINE
  5
2AA
330
20A
100
AcDbEntity
 67
     1
  8
7_ALL_FEATURES
  6
Continuous
 62
     7
100
AcDbLine
 10
91.3226008166
 20
80.1947901633
 30
0.0
 11
104.8226008166
 21
80.1947901633
 31
0.0
  0
LINE
  5
2AB
330
20A
100
AcDbEntity
 67
     1
  8
7_ALL_FEATURES
  6
Continuous
 62
     7
100
AcDbLine
 10
104.8226008166
 20
80.1947901633
 30
0.0
 11
105.1631940096
 21
80.1947901633
 31
0.0
  0
LINE
  5
2AC
330
20A
100
AcDbEntity
 67
     1
  8
7_ALL_FEATURES
  6
Continuous
 62
     7
100
AcDbLine
 10
105.1631940096
 20
80.1947901633
 30
0.0
 11
105.2006530101
 21
80.1947901633
 31
0.0
  0
LINE
  5
2AD
330
20A
100
AcDbEntity
 67
     1
  8
7_ALL_FEATURES
  6
Continuous
 62
     7
100
AcDbLine
 10
105.2006530101
 20
80.1947901633
 30
0.0
 11
106.0726008166
 21
80.1947901633
 31
0.0
  0
LINE
  5
2AE
330
20A
100
AcDbEntity
 67
     1
  8
7_ALL_FEATURES
  6
Continuous
 62
     7
100
AcDbLine
 10
91.3226008166
 20
78.4673293175
 30
0.0
 11
91.3226008166
 21
78.6647791554
 31
0.0
  0
LINE
  5
2AF
330
20A
100
AcDbEntity
 67
     1
  8
7_ALL_FEATURES
  6
Continuous
 62
     7
100
AcDbLine
 10
91.3226008166
 20
79.667368807
 30
0.0
 11
91.3226008166
 21
80.1947901633
 31
0.0
  0
LINE
  5
2B0
330
20A
100
AcDbEntity
 67
     1
  8
7_ALL_FEATURES
  6
Continuous
 62
     7
100
AcDbLine
 10
90.3726008166
 20
86.6947901633
 30
0.0
 11
95.5226008166
 21
86.6947901633
 31
0.0
  0
LINE
  5
2B1
330
20A
100
AcDbEntity
 67
     1
  8
7_ALL_FEATURES
  6
Continuous
 62
     7
100
AcDbLine
 10
95.5226008166
 20
86.6947901633
 30
0.0
 11
100.6226008166
 21
86.6947901633
 31
0.0
  0
LINE
  5
2B2
330
20A
100
AcDbEntity
 67
     1
  8
7_ALL_FEATURES
  6
Continuous
 62
     7
100
AcDbLine
 10
100.6226008166
 20
86.6947901633
 30
0.0
 11
105.7726008166
 21
86.6947901633
 31
0.0
  0
LINE
  5
2B3
330
20A
100
AcDbEntity
 67
     1
  8
7_ALL_FEATURES
  6
Continuous
 62
     7
100
AcDbLine
 10
104.8226008166
 20
77.6947901633
 30
0.0
 11
104.8226008166
 21
77.9222121126
 31
0.0
  0
LINE
  5
2B4
330
20A
100
AcDbEntity
 67
     1
  8
7_ALL_FEATURES
  6
Continuous
 62
     7
100
AcDbLine
 10
104.8226008166
 20
78.9248283556
 30
0.0
 11
104.8226008166
 21
79.1222141578
 31
0.0
  0
LINE
  5
2B5
330
20A
100
AcDbEntity
 67
     1
  8
7_ALL_FEATURES
  6
Continuous
 62
     7
100
AcDbLine
 10
104.8226008166
 20
80.1248412946
 30
0.0
 11
104.8226008166
 21
80.1947901633
 31
0.0
  0
LINE
  5
2B6
330
20A
100
AcDbEntity
 67
     1
  8
7_ALL_FEATURES
  6
Continuous
 62
     7
100
AcDbLine
 10
105.7726008164
 20
86.6947901635
 30
0.0
 11
106.0726008164
 21
86.3947901635
 31
0.0
  0
LINE
  5
2B7
330
20A
100
AcDbEntity
 67
     1
  8
7_ALL_FEATURES
  6
Continuous
 62
     7
100
AcDbLine
 10
90.3726008168
 20
86.6947901635
 30
0.0
 11
90.0726008168
 21
86.3947901635
 31
0.0
  0
LINE
  5
2B8
330
20A
100
AcDbEntity
 67
     1
  8
7_ALL_FEATURES
  6
Continuous
 62
     7
100
AcDbLine
 10
83.0726008167
 20
75.1947901632
 30
0.0
 11
83.5726008167
 21
74.6947901632
 31
0.0
  0
LINE
  5
2B9
330
20A
100
AcDbEntity
 67
     1
  8
7_ALL_FEATURES
  6
Continuous
 62
     7
100
AcDbLine
 10
102.0726008166
 20
72.1947901633
 30
0.0
 11
102.0726008166
 21
74.6947901633
 31
0.0
  0
LINE
  5
2BA
330
20A
100
AcDbEntity
 67
     1
  8
7_ALL_FEATURES
  6
Continuous
 62
     7
100
AcDbLine
 10
94.0726008166
 20
72.1947901633
 30
0.0
 11
94.0726008166
 21
74.6947901633
 31
0.0
  0
LINE
  5
2BB
330
20A
100
AcDbEntity
 67
     1
  8
7_ALL_FEATURES
  6
Continuous
 62
     7
100
AcDbLine
 10
113.0726008165
 20
75.1947901632
 30
0.0
 11
112.5726008165
 21
74.6947901632
 31
0.0
  0
LINE
  5
2BC
330
20A
100
AcDbEntity
 67
     1
  8
7_ALL_FEATURES
  6
Continuous
 62
     7
100
AcDbLine
 10
113.0726008166
 20
75.1947901633
 30
0.0
 11
113.0726008166
 21
76.6947901633
 31
0.0
  0
LINE
  5
2BD
330
20A
100
AcDbEntity
 67
     1
  8
7_ALL_FEATURES
  6
Continuous
 62
     7
100
AcDbLine
 10
83.0726008166
 20
75.1947901633
 30
0.0
 11
83.0726008166
 21
76.6947901633
 31
0.0
  0
LINE
  5
2BE
330
20A
100
AcDbEntity
 67
     1
  8
7_ALL_FEATURES
  6
Continuous
 62
     7
100
AcDbLine
 10
102.072600816
 20
72.1947901627
 30
0.0
 11
101.5726008161
 21
71.6947901627
 31
0.0
  0
LINE
  5
2BF
330
20A
100
AcDbEntity
 67
     1
  8
7_ALL_FEATURES
  6
Continuous
 62
     7
100
AcDbLine
 10
90.0726008166
 20
76.6947901633
 30
0.0
 11
90.0726008166
 21
77.6947901633
 31
0.0
  0
LINE
  5
2C0
330
20A
100
AcDbEntity
 67
     1
  8
7_ALL_FEATURES
  6
Continuous
 62
     7
100
AcDbLine
 10
94.0726008172
 20
72.1947901627
 30
0.0
 11
94.5726008171
 21
71.6947901627
 31
0.0
  0
LINE
  5
2C1
330
20A
100
AcDbEntity
 67
     1
  8
7_ALL_FEATURES
  6
Continuous
 62
     7
100
AcDbLine
 10
106.0726008166
 20
76.6947901633
 30
0.0
 11
106.0726008166
 21
77.6947901633
 31
0.0
  0
LINE
  5
2C2
330
20A
100
AcDbEntity
 67
     1
  8
7_ALL_FEATURES
  6
Continuous
 62
     7
100
AcDbLine
 10
90.0726008166
 20
80.1947901633
 30
0.0
 11
90.0726008166
 21
86.3947901633
 31
0.0
  0
LINE
  5
2C3
330
20A
100
AcDbEntity
 67
     1
  8
7_ALL_FEATURES
  6
Continuous
 62
     7
100
AcDbLine
 10
106.0726008166
 20
80.1947901633
 30
0.0
 11
106.0726008166
 21
86.3947901633
 31
0.0
  0
LINE
  5
2C4
330
20A
100
AcDbEntity
 67
     1
  8
7_ALL_FEATURES
  6
Continuous
 62
     7
100
AcDbLine
 10
83.0726008166
 20
75.1947901633
 30
0.0
 11
113.0726008166
 21
75.1947901633
 31
0.0
  0
LINE
  5
2C5
330
20A
100
AcDbEntity
 67
     1
  8
7_ALL_FEATURES
  6
Continuous
 62
     7
100
AcDbLine
 10
94.0726008166
 20
72.1947901633
 30
0.0
 11
102.0726008166
 21
72.1947901633
 31
0.0
  0
LINE
  5
2C6
330
20A
100
AcDbEntity
 67
     1
  8
7_ALL_FEATURES
  6
Continuous
 62
     7
100
AcDbLine
 10
90.0726008166
 20
86.3947901633
 30
0.0
 11
106.0726008166
 21
86.3947901633
 31
0.0
  0
LINE
  5
2C7
330
20A
100
AcDbEntity
 67
     1
  8
3_ALL_AXES
  6
Continuous
 62
     7
100
AcDbLine
 10
105.8226008166
 20
79.6947901633
 30
0.0
 11
105.8225929586
 21
79.691987923
 31
0.0
  0
LINE
  5
2C8
330
20A
100
AcDbEntity
 67
     1
  8
7_ALL_FEATURES
  6
Continuous
 62
     7
100
AcDbLine
 10
117.3619025153
 20
104.4315667511
 30
0.0
 11
116.3517490056
 21
108.8105350231
 31
0.0
  0
LINE
  5
2C9
330
20A
100
AcDbEntity
 67
     1
  8
7_ALL_FEATURES
  6
Continuous
 62
     7
100
AcDbLine
 10
117.326055363
 20
109.0352909689
 30
0.0
 11
117.32585729
 21
109.0359144395
 31
0.0
  0
LINE
  5
2CA
330
20A
100
AcDbEntity
 67
     1
  8
7_ALL_FEATURES
  6
Continuous
 62
     7
100
AcDbLine
 10
90.3226008166
 20
77.8947901633
 30
0.0
 11
90.3226075855
 21
77.8973909653
 31
0.0
  0
LINE
  5
2CB
330
20A
100
AcDbEntity
 67
     1
  8
7_ALL_FEATURES
  6
Continuous
 62
     7
100
AcDbLine
 10
118.3363121189
 20
104.6563464754
 30
0.0
 11
117.3261586092
 21
109.0353147474
 31
0.0
  0
LINE
  5
2CC
330
20A
100
AcDbEntity
 67
     1
  8
7_ALL_FEATURES
  6
Continuous
 62
     7
100
AcDbLine
 10
90.3226008166
 20
77.8947901633
 30
0.0
 11
90.3226008166
 21
77.8921567881
 31
0.0
  0
ARC
  5
2CD
330
20A
100
AcDbEntity
 67
     1
  8
7_ALL_FEATURES
  6
Continuous
 62
     7
100
AcDbCircle
 10
117.3623617904
 20
104.431731606
 30
0.0
 40
0.9995154236
100
AcDbArc
 50
332.9841467462
 51
12.9866351045
  0
LINE
  5
2CE
330
20A
100
AcDbEntity
 67
     1
  8
7_ALL_FEATURES
  6
Continuous
 62
     7
100
AcDbLine
 10
106.0726008166
 20
82.2830792527
 30
0.0
 11
117.3618681536
 21
104.4318302231
 31
0.0
  0
LINE
  5
2CF
330
20A
100
AcDbEntity
 67
     1
  8
7_ALL_FEATURES
  6
Continuous
 62
     7
100
AcDbLine
 10
105.9950674723
 20
79.9288814183
 30
0.0
 11
106.118640743
 21
80.171323511
 31
0.0
  0
LINE
  5
2D0
330
20A
100
AcDbEntity
 67
     1
  8
7_ALL_FEATURES
  6
Continuous
 62
     7
100
AcDbLine
 10
106.118640743
 20
80.171323511
 30
0.0
 11
118.2528109653
 21
103.9777147022
 31
0.0
  0
ARC
  5
2D1
330
20A
100
AcDbEntity
 67
     1
  8
7_ALL_FEATURES
  6
Continuous
 62
     7
100
AcDbCircle
 10
131.1421429459
 20
67.0496579536
 30
0.0
 40
29.2531320495
100
AcDbArc
 50
153.2991386478
 51
153.4245070954
  0
ARC
  5
2D2
330
20A
100
AcDbEntity
 67
     1
  8
7_ALL_FEATURES
  6
Continuous
 62
     7
100
AcDbCircle
 10
119.0756886763
 20
73.0663946125
 30
0.0
 40
14.7697974622
100
AcDbArc
 50
153.4243899231
 51
153.8518487218
  0
ARC
  5
2D3
330
20A
100
AcDbEntity
 67
     1
  8
7_ALL_FEATURES
  6
Continuous
 62
     7
100
AcDbCircle
 10
136.0699975285
 20
64.5815448918
 30
0.0
 40
33.7645103081
100
AcDbArc
 50
152.9646285708
 51
153.4490057493
  0
SPLINE
  5
2D4
330
20A
100
AcDbEntity
 67
     1
  8
7_ALL_FEATURES
  6
Continuous
 62
     7
100
AcDbSpline
 70
     0
 71
     3
 72
    32
 73
    28
 74
     0
 42
0.000000001
 43
0.0000001
 40
0.0
 40
0.0
 40
0.0
 40
0.0
 40
0.0024692658
 40
0.0094898473
 40
0.0211654984
 40
0.0374408731
 40
0.0581741296
 40
0.0831387189
 40
0.1121017007
 40
0.1448144364
 40
0.220131513
 40
0.3061957124
 40
0.3996991436
 40
0.4970585664
 40
0.5945313815
 40
0.6883715091
 40
0.7749821281
 40
0.8510346643
 40
0.8841770169
 40
0.9136057024
 40
0.9390675175
 40
0.9603247822
 40
0.9771459688
 40
0.9893826695
 40
0.9969691177
 40
0.9990225097
 40
1.0
 40
1.0
 40
1.0
 40
1.0
 10
79.0482702655
 20
106.7469572362
 30
0.0
 10
79.0482702655
 20
106.7477813942
 30
0.0
 10
79.0531116091
 20
106.7476142373
 30
0.0
 10
79.0586023263
 20
106.7474182231
 30
0.0
 10
79.0710609001
 20
106.7457214764
 30
0.0
 10
79.0867245745
 20
106.7432675493
 30
0.0
 10
79.1072486475
 20
106.7396666625
 30
0.0
 10
79.1316931101
 20
106.7351095497
 30
0.0
 10
79.1600949205
 20
106.729575951
 30
0.0
 10
79.204911973
 20
106.7205524399
 30
0.0
 10
79.2683249662
 20
106.707279207
 30
0.0
 10
79.3514662485
 20
106.6892633527
 30
0.0
 10
79.4416850245
 20
106.6691670231
 30
0.0
 10
79.535510167
 20
106.6477566262
 30
0.0
 10
79.629338241
 20
106.6258583106
 30
0.0
 10
79.7195626304
 20
106.6043097952
 30
0.0
 10
79.8027182235
 20
106.5839453733
 30
0.0
 10
79.8660864002
 20
106.5679587947
 30
0.0
 10
79.9108640118
 20
106.5563059351
 30
0.0
 10
79.939251565
 20
106.5487327781
 30
0.0
 10
79.963763874
 20
106.5419901547
 30
0.0
 10
79.984132553
 20
106.536152622
 30
0.0
 10
80.0002539454
 20
106.5312662454
 30
0.0
 10
80.0117459264
 20
106.5274326147
 30
0.0
 10
80.0187697184
 20
106.5247620566
 30
0.0
 10
80.0217087436
 20
106.5231612766
 30
0.0
 10
80.0226403303
 20
106.5224104468
 30
0.0
 10
80.0226403303
 20
106.5220841934
 30
0.0
  0
LINE
  5
2D5
330
20A
100
AcDbEntity
 67
     1
  8
7_ALL_FEATURES
  6
Continuous
 62
     7
100
AcDbLine
 10
79.0103605857
 20
102.1389394747
 30
0.0
 11
80.0226403303
 21
106.5220841934
 31
0.0
  0
LINE
  5
2D6
330
20A
100
AcDbEntity
 67
     1
  8
7_ALL_FEATURES
  6
Continuous
 62
     7
100
AcDbLine
 10
78.0359905209
 20
102.3638125175
 30
0.0
 11
79.0482702655
 21
106.7469572362
 31
0.0
  0
ARC
  5
2D7
330
20A
100
AcDbEntity
 67
     1
  8
7_ALL_FEATURES
  6
Continuous
 62
     7
100
AcDbCircle
 10
79.0099926091
 20
102.138929835
 30
0.0
 40
0.9996320234
100
AcDbArc
 50
179.9994474852
 51
207.0090840485
  0
LINE
  5
2D8
330
20A
100
AcDbEntity
 67
     1
  8
7_ALL_FEATURES
  6
Continuous
 62
     7
100
AcDbLine
 10
89.923138911
 20
78.52682943
 30
0.0
 11
78.1193859178
 21
101.6849651848
 31
0.0
  0
LINE
  5
2D9
330
20A
100
AcDbEntity
 67
     1
  8
7_ALL_FEATURES
  6
Continuous
 62
     7
100
AcDbLine
 10
105.8226008166
 20
79.6947901633
 30
0.0
 11
105.8226008166
 21
79.6974235384
 31
0.0
  0
LINE
  5
2DA
330
20A
100
AcDbEntity
 67
     1
  8
7_ALL_FEATURES
  6
Continuous
 62
     7
100
AcDbLine
 10
90.5447601354
 20
79.5093350217
 30
0.0
 11
90.1953821343
 21
80.1947901633
 31
0.0
  0
LINE
  5
2DB
330
20A
100
AcDbEntity
 67
     1
  8
7_ALL_FEATURES
  6
Continuous
 62
     7
100
AcDbLine
 10
90.0726008166
 20
80.4356784998
 30
0.0
 11
79.0103287295
 21
102.1390807057
 31
0.0
  0
SPLINE
  5
2DC
330
20A
100
AcDbEntity
 67
     1
  8
7_ALL_FEATURES
  6
Continuous
 62
     7
100
AcDbSpline
 70
     0
 71
     3
 72
     9
 73
     5
 74
     0
 42
0.000000001
 43
0.0000001
 40
0.0
 40
0.0
 40
0.0
 40
0.0
 40
0.2202696372
 40
1.0
 40
1.0
 40
1.0
 40
1.0
 10
90.3565938461
 20
77.6942060305
 30
0.0
 10
90.3535484853
 20
77.6997063232
 30
0.0
 10
90.3397923514
 20
77.7247155135
 30
0.0
 10
90.3262468886
 20
77.7498399816
 30
0.0
 10
90.3157368952
 20
77.7694576127
 30
0.0
  0
ARC
  5
2DD
330
20A
100
AcDbEntity
 67
     1
  8
7_ALL_FEATURES
  6
Continuous
 62
     7
100
AcDbCircle
 10
103.7854194679
 20
84.9816270156
 30
0.0
 40
15.2789965674
100
AcDbArc
 50
207.7687922254
 51
208.166253978
  0
SPLINE
  5
2DE
330
20A
100
AcDbEntity
 67
     1
  8
7_ALL_FEATURES
  6
Continuous
 62
     7
100
AcDbSpline
 70
     0
 71
     3
 72
     9
 73
     5
 74
     0
 42
0.000000001
 43
0.0000001
 40
0.0
 40
0.0
 40
0.0
 40
0.0
 40
0.2069015017
 40
1.0
 40
1.0
 40
1.0
 40
1.0
 10
90.2660304543
 20
77.8630698019
 30
0.0
 10
90.241998137
 20
77.9086472203
 30
0.0
 10
90.1265583126
 20
78.1293087072
 30
0.0
 10
90.0128301652
 20
78.3508614779
 30
0.0
 10
89.923138911
 20
78.52682943
 30
0.0
  0
SPLINE
  5
2DF
330
20A
100
AcDbEntity
 67
     1
  8
7_ALL_FEATURES
  6
Continuous
 62
     7
100
AcDbSpline
 70
     0
 71
     3
 72
    29
 73
    25
 74
     0
 42
0.000000001
 43
0.0000001
 40
0.0
 40
0.0
 40
0.0
 40
0.0
 40
0.0043691969
 40
0.0129990679
 40
0.0260805093
 40
0.0435849336
 40
0.0653808816
 40
0.0912461549
 40
0.1542370944
 40
0.230246717
 40
0.3164083584
 40
0.4094800644
 40
0.505954816
 40
0.6021967984
 40
0.6945674923
 40
0.77960007
 40
0.854078101
 40
0.9152184657
 40
0.9400480702
 40
0.9607561613
 40
0.9771378876
 40
0.9890623963
 40
0.9965468556
 40
1.0
 40
1.0
 40
1.0
 40
1.0
 10
117.32585729
 20
109.0359144395
 30
0.0
 10
117.3249376313
 20
109.0370515945
 30
0.0
 10
117.3201418525
 20
109.0378958121
 30
0.0
 10
117.3117684783
 20
109.0382741285
 30
0.0
 10
117.2984692237
 20
109.0375642351
 30
0.0
 10
117.2810893081
 20
109.0358875806
 30
0.0
 10
117.2594193234
 20
109.0331415842
 30
0.0
 10
117.2227852767
 20
109.0277592013
 30
0.0
 10
117.1683719784
 20
109.0184763778
 30
0.0
 10
117.0943174634
 20
109.0044712177
 30
0.0
 10
117.0105934376
 20
108.9874302304
 30
0.0
 10
116.9203733213
 20
108.9679995748
 30
0.0
 10
116.8270667691
 20
108.9468963389
 30
0.0
 10
116.7342010718
 20
108.9249281287
 30
0.0
 10
116.6452873683
 20
108.9029153959
 30
0.0
 10
116.5636814033
 20
108.8817091644
 30
0.0
 10
116.4924737245
 20
108.862112758
 30
0.0
 10
116.4409511732
 20
108.8468812738
 30
0.0
 10
116.4069829433
 20
108.8359352523
 30
0.0
 10
116.387362349
 20
108.8291013662
 30
0.0
 10
116.372137638
 20
108.8233315348
 30
0.0
 10
116.3609582931
 20
108.8182035254
 30
0.0
 10
116.3547357556
 20
108.8148536106
 30
0.0
 10
116.3515010072
 20
108.811663962
 30
0.0
 10
116.3517517729
 20
108.8105356251
 30
0.0
  0
ARC
  5
2E0
330
20A
100
AcDbEntity
 67
     1
  8
7_ALL_FEATURES
  6
Continuous
 62
     7
100
AcDbCircle
 10
131.7959252236
 20
99.6762048437
 30
0.0
 40
45.9100527616
100
AcDbArc
 50
207.358326917
 51
207.5422563092
  0
LWPOLYLINE
  5
2E1
330
20A
100
AcDbEntity
 67
     1
  8
7_ALL_FEATURES
  6
Continuous
 62
     7
100
AcDbPolyline
 90
       75
 70
     0
 43
0.0
 10
90.9823815307
 20
78.6295290066
 10
90.9878967731
 20
78.6305917932
 10
91.0061049233
 20
78.6336001003
 10
91.0350148258
 20
78.6376658591
 10
91.0736435601
 20
78.6423757194
 10
91.1219129458
 20
78.6475567634
 10
91.1802156463
 20
78.6531314827
 10
91.2492907128
 20
78.6590699148
 10
91.3300032426
 20
78.6653556412
 10
91.4228133067
 20
78.6719457223
 10
91.527990795
 20
78.6787958662
 10
91.6456845357
 20
78.6858676335
 10
91.7760422652
 20
78.6931359253
 10
91.9193387666
 20
78.7005892014
 10
92.0758329698
 20
78.7082184316
 10
92.2457544689
 20
78.7160159372
 10
92.4292998367
 20
78.7239749856
 10
92.6266298535
 20
78.7320895262
 10
92.8378397454
 20
78.7403541368
 10
93.0629002567
 20
78.7487636719
 10
93.3018398912
 20
78.757317553
 10
93.5548843833
 20
78.7660232541
 10
93.8222810247
 20
78.7748892415
 10
94.1042697591
 20
78.7839241189
 10
94.4010266928
 20
78.7931366203
 10
94.7126297068
 20
78.8025355047
 10
95.0391065987
 20
78.8121295712
 10
95.3801654042
 20
78.8219201727
 10
95.7347203063
 20
78.8318890524
 10
96.1014261027
 20
78.8420148076
 10
96.4787608473
 20
78.8522760659
 10
96.8650172587
 20
78.8626514734
 10
97.258372107
 20
78.8731197016
 10
97.6569121614
 20
78.8836594482
 10
98.0586567007
 20
78.8942494365
 10
98.4615814586
 20
78.9048684155
 10
98.8636434766
 20
78.9154951612
 10
99.2628050153
 20
78.9261084766
 10
99.6570581236
 20
78.9366871933
 10
100.0444336546
 20
78.9472097521
 10
100.42293559
 20
78.9576511956
 10
100.790672607
 20
78.9679849472
 10
101.1459002475
 20
78.9781844607
 10
101.487033879
 20
78.9882232321
 10
101.8126690565
 20
78.9980748026
 10
102.1216460333
 20
79.0077130493
 10
102.4135176577
 20
79.0171260073
 10
102.6885472599
 20
79.0263209722
 10
102.9470846215
 20
79.0353067329
 10
103.1895128721
 20
79.0440922366
 10
103.416241282
 20
79.052686623
 10
103.6277377683
 20
79.0610991103
 10
103.8245466819
 20
79.0693392735
 10
104.007135314
 20
79.0774135959
 10
104.1757476668
 20
79.0853178997
 10
104.3306497008
 20
79.0930465355
 10
104.4721828154
 20
79.1005948549
 10
104.6007729766
 20
79.1079590361
 10
104.7170718033
 20
79.1151432762
 10
104.8220117406
 20
79.1221711348
 10
104.9165175977
 20
79.1290733391
 10
105.0014748927
 20
79.135888075
 10
105.0777527773
 20
79.1426660851
 10
105.1462756921
 20
79.1494838528
 10
105.2080571892
 20
79.1564611904
 10
105.2638069648
 20
79.1637273128
 10
105.3148065325
 20
79.1715552523
 10
105.3633060435
 20
79.1805558716
 10
105.4132734577
 20
79.1921838662
 10
105.4719159278
 20
79.2102458446
 10
105.5502619624
 20
79.2448470311
 10
105.6543055125
 20
79.317988411
 10
105.7539635853
 20
79.4404914832
 10
105.813534395
 20
79.5999957285
 10
105.822592784
 20
79.6919896003
  0
LWPOLYLINE
  5
2E2
330
20A
100
AcDbEntity
 67
     1
  8
7_ALL_FEATURES
  6
Continuous
 62
     7
100
AcDbPolyline
 90
       43
 70
     0
 43
0.0
 10
98.0791809054
 20
77.6947901633
 10
98.3824159368
 20
77.7027801766
 10
98.7236859261
 20
77.7117899751
 10
99.0650445948
 20
77.7208401325
 10
99.4054002511
 20
77.7299222779
 10
99.7436574257
 20
77.7390280575
 10
100.0787205467
 20
77.7481491368
 10
100.4095010617
 20
77.7572772039
 10
100.7349246069
 20
77.7664039736
 10
101.0539422812
 20
77.7755211891
 10
101.3655705907
 20
77.7846201969
 10
101.6686702487
 20
77.7936855336
 10
101.9619906171
 20
77.8026962094
 10
102.2443756203
 20
77.8116311372
 10
102.5147828067
 20
77.8204693053
 10
102.7722955993
 20
77.8291897928
 10
103.0161626448
 20
77.8377716966
 10
103.2458563941
 20
77.8461942856
 10
103.4612132792
 20
77.8544453216
 10
103.6625641477
 20
77.8625289884
 10
103.8503056921
 20
77.8704516533
 10
104.0248457066
 20
77.8782201032
 10
104.1866016361
 20
77.8858416389
 10
104.3360320634
 20
77.8933239489
 10
104.4736405831
 20
77.9006758709
 10
104.599930569
 20
77.9079077197
 10
104.7153975813
 20
77.9150314481
 10
104.8204817992
 20
77.9220575521
 10
104.9156473017
 20
77.9289988951
 10
105.0014223513
 20
77.935876223
 10
105.0784088011
 20
77.9427230674
 10
105.1473332628
 20
77.9495970873
 10
105.2092004499
 20
77.9566088082
 10
105.2648917916
 20
77.9638974081
 10
105.3157718583
 20
77.9717425009
 10
105.3641523063
 20
77.9807636218
 10
105.4140432895
 20
77.9924290816
 10
105.4726752987
 20
78.0105714304
 10
105.5510621228
 20
78.0453447521
 10
105.6550219934
 20
78.1187293168
 10
105.7543447435
 20
78.2412887384
 10
105.8135829289
 20
78.4005825944
 10
105.8225466139
 20
78.4948668439
  0
LWPOLYLINE
  5
2E3
330
20A
100
AcDbEntity
 67
     1
  8
7_ALL_FEATURES
  6
Continuous
 62
     7
100
AcDbPolyline
 90
        3
 70
     0
 43
0.0
 10
90.322819686
 20
79.094824522
 10
90.3320111593
 20
78.9993462366
 10
90.3917604353
 20
78.8399599673
  0
LINE
  5
2E4
330
20A
100
AcDbEntity
 67
     1
  8
7_ALL_FEATURES
  6
Continuous
 62
     7
100
AcDbLine
 10
90.3917604353
 20
78.8399599673
 30
0.0
 11
90.4182237771
 21
78.8074919443
 31
0.0
  0
LINE
  5
2E5
330
20A
100
AcDbEntity
 67
     1
  8
7_ALL_FEATURES
  6
Continuous
 62
     7
100
AcDbLine
 10
90.4182237771
 20
78.8074919443
 30
0.0
 11
90.4914052964
 21
78.7177051263
 31
0.0
  0
LWPOLYLINE
  5
2E6
330
20A
100
AcDbEntity
 67
     1
  8
7_ALL_FEATURES
  6
Continuous
 62
     7
100
AcDbPolyline
 90
        4
 70
     0
 43
0.0
 10
90.4914052964
 20
78.7177051263
 10
90.5955662323
 20
78.6445959425
 10
90.6744418086
 20
78.6098684658
 10
90.7192558224
 20
78.5956438067
  0
LINE
  5
2E7
330
20A
100
AcDbEntity
 67
     1
  8
7_ALL_FEATURES
  6
Continuous
 62
     7
100
AcDbLine
 10
91.0377330347
 20
78.5456279418
 30
0.0
 11
91.0803920795
 21
78.5414669941
 31
0.0
  0
LWPOLYLINE
  5
2E8
330
20A
100
AcDbEntity
 67
     1
  8
7_ALL_FEATURES
  6
Continuous
 62
     7
100
AcDbPolyline
 90
        4
 70
     0
 43
0.0
 10
91.0803920795
 20
78.5414669941
 10
91.1590328531
 20
78.534610197
 10
91.2461334611
 20
78.527748171
 10
91.3226008166
 20
78.5222563358
  0
LINE
  5
2E9
330
20A
100
AcDbEntity
 67
     1
  8
7_ALL_FEATURES
  6
Continuous
 62
     7
100
AcDbLine
 10
90.3226008166
 20
77.8921567881
 30
0.0
 11
90.3226008166
 21
77.889523413
 31
0.0
  0
LWPOLYLINE
  5
2EA
330
20A
100
AcDbEntity
 67
     1
  8
7_ALL_FEATURES
  6
Continuous
 62
     7
100
AcDbPolyline
 90
       17
 70
     0
 43
0.0
 10
105.8225466224
 20
78.4948121891
 10
105.8144788921
 20
78.584280869
 10
105.7569838503
 20
78.7437811913
 10
105.6596498961
 20
78.8667001162
 10
105.5560429602
 20
78.9416040487
 10
105.4767366453
 20
78.9775960805
 10
105.4171324101
 20
78.9963714955
 10
105.3665569141
 20
79.0083411483
 10
105.3176621379
 20
79.0175265842
 10
105.2664972768
 20
79.0254518066
 10
105.2110346171
 20
79.0327375618
 10
105.150133126
 20
79.0396723921
 10
105.0826507159
 20
79.0464469303
 10
105.0078176421
 20
79.0531576238
 10
104.9250246132
 20
79.0598602951
 10
104.833784299
 20
79.066588113
 10
104.8226008166
 20
79.0673452307
  0
LWPOLYLINE
  5
2EB
330
20A
100
AcDbEntity
 67
     1
  8
7_ALL_FEATURES
  6
Continuous
 62
     7
100
AcDbPolyline
 90
        9
 70
     0
 43
0.0
 10
105.1631940096
 20
80.1601416633
 10
105.1541737773
 20
80.1584383461
 10
105.132615821
 20
80.1550146656
 10
105.1003532103
 20
80.1506492412
 10
105.0582372374
 20
80.1457027372
 10
105.0065880569
 20
80.1403553656
 10
104.9454949046
 20
80.1347068421
 10
104.8749067125
 20
80.1288160992
 10
104.7946630338
 20
80.1227182599
  0
LWPOLYLINE
  5
2EC
330
20A
100
AcDbEntity
 67
     1
  8
7_ALL_FEATURES
  6
Continuous
 62
     7
100
AcDbPolyline
 90
       72
 70
     0
 43
0.0
 10
104.7946630338
 20
80.1227182599
 10
104.704531799
 20
80.1164349214
 10
104.604255765
 20
80.1099811101
 10
104.4936663884
 20
80.103373587
 10
104.3726412145
 20
80.0966276374
 10
104.2411063999
 20
80.0897561113
 10
104.0990801168
 20
80.0827708756
 10
103.9466301597
 20
80.075682866
 10
103.7838668691
 20
80.0685022068
 10
103.6109148214
 20
80.0612372504
 10
103.4277696219
 20
80.0538893704
 10
103.2343766842
 20
80.0464573581
 10
103.0307137823
 20
80.0389396789
 10
102.8168151999
 20
80.0313347313
 10
102.5927290113
 20
80.0236407913
 10
102.3585144861
 20
80.0158560144
 10
102.1142439634
 20
80.0079784627
 10
101.860004733
 20
80.0000061254
 10
101.5959019405
 20
79.9919369302
 10
101.3220938846
 20
79.9837687429
 10
101.0388046963
 20
79.9754994161
 10
100.7462898832
 20
79.9671267716
 10
100.4448365114
 20
79.9586486001
 10
100.1347659232
 20
79.9500626653
 10
99.816437602
 20
79.9413667063
 10
99.4903132951
 20
79.9325594932
 10
99.1572618405
 20
79.9236487879
 10
98.8183845602
 20
79.9146469055
 10
98.4748413267
 20
79.9055661847
 10
98.1278401849
 20
79.8964189518
 10
97.7786277085
 20
79.8872175205
 10
97.4284788821
 20
79.8779741901
 10
97.078686631
 20
79.8687012447
 10
96.7305510514
 20
79.8594109523
 10
96.3853684638
 20
79.8501155622
 10
96.0444203904
 20
79.840827303
 10
95.708957946
 20
79.8315583813
 10
95.3801504373
 20
79.8223209835
 10
95.0590956733
 20
79.8131272632
 10
94.746838547
 20
79.8039894003
 10
94.44440276
 20
79.794920829
 10
94.1527695327
 20
79.7859360179
 10
93.8728300144
 20
79.7770493987
 10
93.6053387006
 20
79.7682753772
 10
93.3508835662
 20
79.7596282579
 10
93.1099428348
 20
79.7511222243
 10
92.8828835626
 20
79.7427711839
 10
92.6697818053
 20
79.7345817533
 10
92.4703876503
 20
79.7265501394
 10
92.2843650886
 20
79.7186716643
 10
92.1113070272
 20
79.7109411777
 10
91.9507944234
 20
79.7033529699
 10
91.8024012012
 20
79.6959006104
 10
91.6656940261
 20
79.6885766478
 10
91.5402309965
 20
79.6813721478
 10
91.4255645326
 20
79.6742763378
 10
91.3212595789
 20
79.6672788273
 10
91.2268092159
 20
79.6603656743
 10
91.1416499385
 20
79.6535150943
 10
91.0651568487
 20
79.6466928999
 10
90.996590622
 20
79.6398411873
 10
90.9349034058
 20
79.6328422315
 10
90.8792695412
 20
79.6255542801
 10
90.8283648875
 20
79.6176912241
 10
90.7798657778
 20
79.6086127497
 10
90.7297777432
 20
79.5968245974
 10
90.6707752903
 20
79.5784014944
 10
90.5920366256
 20
79.5430903456
 10
90.4880956777
 20
79.4688767069
 10
90.3892248673
 20
79.3452338223
 10
90.3309178417
 20
79.1844073962
 10
90.3228196786
 20
79.0947683262
  0
LWPOLYLINE
  5
2ED
330
20A
100
AcDbEntity
 67
     1
  8
7_ALL_FEATURES
  6
Continuous
 62
     7
100
AcDbPolyline
 90
       75
 70
     0
 43
0.0
 10
105.1630006482
 20
78.9601332839
 10
105.1559602088
 20
78.9587813956
 10
105.1365323557
 20
78.9556157287
 10
105.1064633535
 20
78.9514404944
 10
105.0665626216
 20
78.9466354183
 10
105.0167824482
 20
78.9413602986
 10
104.9566015556
 20
78.9356840944
 10
104.8852125869
 20
78.9296337565
 10
104.8017730576
 20
78.9232298425
 10
104.7058769913
 20
78.9165193957
 10
104.597291839
 20
78.9095478695
 10
104.4759042058
 20
78.9023543797
 10
104.3414993133
 20
78.894961357
 10
104.1937643844
 20
78.887380466
 10
104.0324121738
 20
78.8796214339
 10
103.8572102679
 20
78.8716925113
 10
103.6680393296
 20
78.8636013167
 10
103.464842468
 20
78.8553549329
 10
103.247614102
 20
78.8469599189
 10
103.0163870213
 20
78.8384219276
 10
102.7709860052
 20
78.8297373281
 10
102.5110282382
 20
78.8208946416
 10
102.236194057
 20
78.8118819611
 10
101.9462153304
 20
78.8026873386
 10
101.6408398405
 20
78.793298713
 10
101.3198421098
 20
78.7837039298
 10
100.9830720192
 20
78.7738917997
 10
100.6311499284
 20
78.7638711139
 10
100.2655383938
 20
78.7536686921
 10
99.8879585239
 20
78.7433119846
 10
99.5002949231
 20
78.732828409
 10
99.1045689559
 20
78.7222453494
 10
98.7029117238
 20
78.7115901585
 10
98.2975404634
 20
78.7008901589
 10
97.8907491699
 20
78.6901726451
 10
97.4848587049
 20
78.6794648836
 10
97.0821704391
 20
78.668794113
 10
96.6849230073
 20
78.6581875464
 10
96.2952746036
 20
78.6476723485
 10
95.9151421966
 20
78.6372721216
 10
95.5460321204
 20
78.627003149
 10
95.1892910334
 20
78.6168807816
 10
94.846114741
 20
78.6069203392
 10
94.5175245119
 20
78.597137098
 10
94.2043948578
 20
78.5875462832
 10
93.9073741818
 20
78.578161206
 10
93.6265216119
 20
78.5689816907
 10
93.361642838
 20
78.5600016237
 10
93.1124889564
 20
78.5512147721
 10
92.8787253694
 20
78.5426147894
 10
92.6599737729
 20
78.5341950968
 10
92.4558367334
 20
78.5259488577
 10
92.2658956574
 20
78.5178691389
 10
92.0897932073
 20
78.5099539762
 10
91.9272696576
 20
78.5022076502
 10
91.7780116711
 20
78.4946341448
 10
91.6416345837
 20
78.4872367258
 10
91.5176540647
 20
78.4800172134
 10
91.4053844766
 20
78.472966361
 10
91.3039484355
 20
78.4660592084
 10
91.2124947203
 20
78.4592649136
 10
91.1301973719
 20
78.4525458449
 10
91.0562122524
 20
78.4458511768
 10
90.9896170399
 20
78.4391017904
 10
90.9294150142
 20
78.4321750955
 10
90.8749062743
 20
78.424933145
 10
90.8248314504
 20
78.4170877625
 10
90.7769211687
 20
78.4079966657
 10
90.7271174444
 20
78.3961231089
 10
90.6680892274
 20
78.3774553939
 10
90.5892125285
 20
78.3416256278
 10
90.4856302682
 20
78.2667754406
 10
90.3879514347
 20
78.1433537005
 10
90.3305236442
 20
77.9834233677
 10
90.3226077386
 20
77.8973898679
  0
SPLINE
  5
2EE
330
20A
100
AcDbEntity
 67
     1
  8
7_ALL_FEATURES
  6
Continuous
 62
     9
100
AcDbSpline
 70
     0
 71
     3
 72
    32
 73
    28
 74
     0
 42
0.000000001
 43
0.0000001
 40
0.0
 40
0.0
 40
0.0
 40
0.0
 40
0.0024692658
 40
0.0094898473
 40
0.0211654984
 40
0.0374408731
 40
0.0581741296
 40
0.0831387189
 40
0.1121017007
 40
0.1448144364
 40
0.220131513
 40
0.3061957124
 40
0.3996991436
 40
0.4970585664
 40
0.5945313815
 40
0.6883715091
 40
0.7749821281
 40
0.8510346643
 40
0.8841770169
 40
0.9136057024
 40
0.9390675175
 40
0.9603247822
 40
0.9771459688
 40
0.9893826695
 40
0.9969691177
 40
0.9990225097
 40
1.0
 40
1.0
 40
1.0
 40
1.0
 10
78.0359905209
 20
102.3638125175
 30
0.0
 10
78.0359905209
 20
102.3646366755
 30
0.0
 10
78.0408318646
 20
102.3644695186
 30
0.0
 10
78.0463225817
 20
102.3642735044
 30
0.0
 10
78.0587811556
 20
102.3625767577
 30
0.0
 10
78.0744448299
 20
102.3601228306
 30
0.0
 10
78.094968903
 20
102.3565219438
 30
0.0
 10
78.1194133656
 20
102.351964831
 30
0.0
 10
78.147815176
 20
102.3464312323
 30
0.0
 10
78.1926322285
 20
102.3374077212
 30
0.0
 10
78.2560452216
 20
102.3241344884
 30
0.0
 10
78.339186504
 20
102.306118634
 30
0.0
 10
78.42940528
 20
102.2860223044
 30
0.0
 10
78.5232304224
 20
102.2646119075
 30
0.0
 10
78.6170584964
 20
102.2427135919
 30
0.0
 10
78.7072828858
 20
102.2211650765
 30
0.0
 10
78.790438479
 20
102.2008006546
 30
0.0
 10
78.8538066557
 20
102.184814076
 30
0.0
 10
78.8985842673
 20
102.1731612164
 30
0.0
 10
78.9269718204
 20
102.1655880594
 30
0.0
 10
78.9514841294
 20
102.158845436
 30
0.0
 10
78.9718528084
 20
102.1530079033
 30
0.0
 10
78.9879742009
 20
102.1481215267
 30
0.0
 10
78.9994661818
 20
102.144287896
 30
0.0
 10
79.0064899738
 20
102.1416173379
 30
0.0
 10
79.009428999
 20
102.1400165579
 30
0.0
 10
79.0103605857
 20
102.1392657281
 30
0.0
 10
79.0103605857
 20
102.1389394747
 30
0.0
  0
SPLINE
  5
2EF
330
20A
100
AcDbEntity
 67
     1
  8
7_ALL_FEATURES
  6
Continuous
 62
     9
100
AcDbSpline
 70
     0
 71
     3
 72
     8
 73
     4
 74
     0
 42
0.000000001
 43
0.0000001
 40
0.0
 40
0.0
 40
0.0
 40
0.0
 40
1.0
 40
1.0
 40
1.0
 40
1.0
 10
90.3627740579
 20
77.6932392573
 30
0.0
 10
90.3392823642
 20
77.7482068065
 30
0.0
 10
90.3256214639
 20
77.8083953524
 30
0.0
 10
90.3230595607
 20
77.8681174403
 30
0.0
  0
ARC
  5
2F0
330
20A
100
AcDbEntity
 67
     1
  8
7_ALL_FEATURES
  6
Continuous
 62
     9
100
AcDbCircle
 10
90.8203122321
 20
77.8894378176
 30
0.0
 40
0.4977095315
100
AcDbArc
 50
179.9901463952
 51
182.4551298851
  0
SPLINE
  5
2F1
330
20A
100
AcDbEntity
 67
     1
  8
7_ALL_FEATURES
  6
Continuous
 62
     9
100
AcDbSpline
 70
     0
 71
     3
 72
    20
 73
    16
 74
     0
 42
0.000000001
 43
0.0000001
 40
0.0
 40
0.0
 40
0.0
 40
0.0
 40
0.0016725272
 40
0.0054606261
 40
0.0199814729
 40
0.0438103521
 40
0.0768199413
 40
0.1186731608
 40
0.1689633318
 40
0.2272677191
 40
0.2930153501
 40
0.4441776288
 40
0.6168343071
 40
0.8046821121
 40
1.0
 40
1.0
 40
1.0
 40
1.0
 10
79.0103282343
 20
102.1390804533
 30
0.0
 10
79.0102011415
 20
102.1393251673
 30
0.0
 10
79.0090631357
 20
102.1393400439
 30
0.0
 10
79.0061128696
 20
102.1386705146
 30
0.0
 10
78.9992824512
 20
102.1363034544
 30
0.0
 10
78.9885238225
 20
102.1319445698
 30
0.0
 10
78.9735198955
 20
102.1254705528
 30
0.0
 10
78.9547266521
 20
102.1170143501
 30
0.0
 10
78.9321977399
 20
102.1066136372
 30
0.0
 10
78.9061931204
 20
102.0943744993
 30
0.0
 10
78.8652461522
 20
102.0748214625
 30
0.0
 10
78.8074817167
 20
102.0467417508
 30
0.0
 10
78.7318497469
 20
102.0093753346
 30
0.0
 10
78.6499077097
 20
101.9683494188
 30
0.0
 10
78.593551565
 20
101.939805197
 30
0.0
 10
78.5648573236
 20
101.9251898211
 30
0.0
  0
SPLINE
  5
2F2
330
20A
100
AcDbEntity
 67
     1
  8
7_ALL_FEATURES
  6
Continuous
 62
     9
100
AcDbSpline
 70
     0
 71
     3
 72
    20
 73
    16
 74
     0
 42
0.000000001
 43
0.0000001
 40
0.0
 40
0.0
 40
0.0
 40
0.0
 40
0.0016837125
 40
0.0054404489
 40
0.019807377
 40
0.043406639
 40
0.0761068374
 40
0.1175764435
 40
0.1674556236
 40
0.2253476607
 40
0.2906894335
 40
0.4412594908
 40
0.6138910763
 40
0.8026120724
 40
1.0
 40
1.0
 40
1.0
 40
1.0
 10
118.2528036411
 20
103.9777184355
 30
0.0
 10
118.2526776384
 20
103.9774839488
 30
0.0
 10
118.2516014971
 20
103.9774524571
 30
0.0
 10
118.2487759907
 20
103.9780742541
 30
0.0
 10
118.2422975743
 20
103.9802922502
 30
0.0
 10
118.2320622631
 20
103.9844112919
 30
0.0
 10
118.2178016248
 20
103.9905343812
 30
0.0
 10
118.199925429
 20
103.9985458092
 30
0.0
 10
118.1784828714
 20
104.0084124536
 30
0.0
 10
118.1537086382
 20
104.0200390769
 30
0.0
 10
118.114624962
 20
104.0386532915
 30
0.0
 10
118.0593533403
 20
104.0654598745
 30
0.0
 10
117.9867596759
 20
104.1012484103
 30
0.0
 10
117.9077357828
 20
104.140729813
 30
0.0
 10
117.853253524
 20
104.16826365
 30
0.0
 10
117.8254321796
 20
104.182400996
 30
0.0
  0
SPLINE
  5
2F3
330
20A
100
AcDbEntity
 67
     1
  8
7_ALL_FEATURES
  6
Continuous
 62
     9
100
AcDbSpline
 70
     0
 71
     3
 72
    20
 73
    16
 74
     0
 42
0.000000001
 43
0.0000001
 40
0.0
 40
0.0
 40
0.0
 40
0.0
 40
0.001662349
 40
0.005449092
 40
0.0200528281
 40
0.0440607094
 40
0.0772398499
 40
0.1193153284
 40
0.1698814663
 40
0.2284209152
 40
0.2944006195
 40
0.4459608676
 40
0.6186233859
 40
0.8058735181
 40
1.0
 40
1.0
 40
1.0
 40
1.0
 10
89.9231464915
 20
78.5268332938
 30
0.0
 10
89.9230194591
 20
78.5270835978
 30
0.0
 10
89.9236929725
 20
78.5280353683
 30
0.0
 10
89.9260361132
 20
78.5300742474
 30
0.0
 10
89.9321576378
 20
78.5343253735
 30
0.0
 10
89.9423144582
 20
78.5406370715
 30
0.0
 10
89.9568000237
 20
78.5492125252
 30
0.0
 10
89.9752234736
 20
78.559738574
 30
0.0
 10
89.9975172005
 20
78.5721946043
 30
0.0
 10
90.023426929
 20
78.5864259075
 30
0.0
 10
90.0644126795
 20
78.6086399622
 30
0.0
 10
90.1225547182
 20
78.6396340484
 30
0.0
 10
90.1990242885
 20
78.679775215
 30
0.0
 10
90.2820867159
 20
78.7228172858
 30
0.0
 10
90.3394018868
 20
78.7521767888
 30
0.0
 10
90.3686103169
 20
78.7670540662
 30
0.0
  0
SPLINE
  5
2F4
330
20A
100
AcDbEntity
 67
     1
  8
7_ALL_FEATURES
  6
Continuous
 62
     9
100
AcDbSpline
 70
     0
 71
     3
 72
    20
 73
    16
 74
     0
 42
0.000000001
 43
0.0000001
 40
0.0
 40
0.0
 40
0.0
 40
0.0
 40
0.1952354434
 40
0.3831836905
 40
0.5558793328
 40
0.7070214824
 40
0.7727368615
 40
0.8310600652
 40
0.881386827
 40
0.9232089581
 40
0.9562041419
 40
0.9800785889
 40
0.9945825376
 40
0.9983414564
 40
1.0
 40
1.0
 40
1.0
 40
1.0
 10
105.5495960665
 20
80.1427723029
 30
0.0
 10
105.5782772792
 20
80.1281635631
 30
0.0
 10
105.6346345954
 20
80.0996195614
 30
0.0
 10
105.7165818359
 20
80.0585895959
 30
0.0
 10
105.7922294679
 20
80.02121659
 30
0.0
 10
105.8499894697
 20
79.9931374781
 30
0.0
 10
105.8909308138
 20
79.9735889087
 30
0.0
 10
105.9169381337
 20
79.9613486123
 30
0.0
 10
105.9394694513
 20
79.9509457306
 30
0.0
 10
105.9582613364
 20
79.942490745
 30
0.0
 10
105.9732653002
 20
79.9360204652
 30
0.0
 10
105.9840240576
 20
79.9316520598
 30
0.0
 10
105.9908525635
 20
79.9292903046
 30
0.0
 10
105.9937963057
 20
79.9286184733
 30
0.0
 10
105.9949251282
 20
79.9286470676
 30
0.0
 10
105.9950486254
 20
79.9288910246
 30
0.0
  0
LINE
  5
2F5
330
20A
100
AcDbEntity
 67
     1
  8
7_ALL_FEATURES
  6
Continuous
 62
     9
100
AcDbLine
 10
117.8254321796
 20
104.182400996
 30
0.0
 11
117.8073395594
 21
104.1916055869
 31
0.0
  0
SPLINE
  5
2F6
330
20A
100
AcDbEntity
 67
     1
  8
7_ALL_FEATURES
  6
Continuous
 62
     9
100
AcDbSpline
 70
     0
 71
     3
 72
    17
 73
    13
 74
     0
 42
0.000000001
 43
0.0000001
 40
0.0
 40
0.0
 40
0.0
 40
0.0
 40
0.1880415446
 40
0.3699952245
 40
0.5386738582
 40
0.6881406394
 40
0.8130249336
 40
0.9086878421
 40
0.9444630351
 40
0.9717174227
 40
0.990265514
 40
1.0
 40
1.0
 40
1.0
 40
1.0
 10
117.8073395594
 20
104.1916055869
 30
0.0
 10
117.7790985093
 20
104.2059901304
 30
0.0
 10
117.7235938397
 20
104.2344175278
 30
0.0
 10
117.6429724863
 20
104.2761695942
 30
0.0
 10
117.5683238076
 20
104.3153125225
 30
0.0
 10
117.5023998299
 20
104.3503853223
 30
0.0
 10
117.4475923771
 20
104.3801299713
 30
0.0
 10
117.4098327595
 20
104.4011514965
 30
0.0
 10
117.386745187
 20
104.4146228228
 30
0.0
 10
117.374934261
 20
104.4217249858
 30
0.0
 10
117.3672161326
 20
104.4269183774
 30
0.0
 10
117.3632355506
 20
104.4296913453
 30
0.0
 10
117.3622038345
 20
104.430967059
 30
0.0
  0
LINE
  5
2F7
330
20A
100
AcDbEntity
 67
     1
  8
7_ALL_FEATURES
  6
Continuous
 62
     7
100
AcDbLine
 10
116.3518522518
 20
108.8105588016
 30
0.0
 11
116.3520503248
 21
108.8099353311
 31
0.0
  0
SPLINE
  5
2F8
330
20A
100
AcDbEntity
 67
     1
  8
7_ALL_FEATURES
  6
Continuous
 62
     7
100
AcDbSpline
 70
     0
 71
     3
 72
    11
 73
     7
 74
     0
 42
0.000000001
 43
0.0000001
 40
0.0
 40
0.0
 40
0.0
 40
0.0
 40
0.0895165944
 40
0.2803189131
 40
0.5812882305
 40
1.0
 40
1.0
 40
1.0
 40
1.0
 10
91.0209185111
 20
78.5780572955
 30
0.0
 10
91.0197980609
 20
78.5802277152
 30
0.0
 10
91.0108114987
 20
78.5818163288
 30
0.0
 10
90.996022477
 20
78.582006599
 30
0.0
 10
90.9706442772
 20
78.5802794389
 30
0.0
 10
90.9512647951
 20
78.5786744308
 30
0.0
 10
90.9398685524
 20
78.5778636656
 30
0.0
  0
SPLINE
  5
2F9
330
20A
100
AcDbEntity
 67
     1
  8
7_ALL_FEATURES
  6
Continuous
 62
     7
100
AcDbSpline
 70
     0
 71
     3
 72
     9
 73
     5
 74
     0
 42
0.000000001
 43
0.0000001
 40
0.0
 40
0.0
 40
0.0
 40
0.0
 40
0.2243700522
 40
1.0
 40
1.0
 40
1.0
 40
1.0
 10
90.9398685524
 20
78.5778636656
 30
0.0
 10
90.9362378322
 20
78.5776053646
 30
0.0
 10
90.9200531052
 20
78.5764995447
 30
0.0
 10
90.9038416733
 20
78.5757448019
 30
0.0
 10
90.8912620668
 20
78.5754594765
 30
0.0
  0
SPLINE
  5
2FA
330
20A
100
AcDbEntity
 67
     1
  8
7_ALL_FEATURES
  6
Continuous
 62
     7
100
AcDbSpline
 70
     0
 71
     3
 72
     9
 73
     5
 74
     0
 42
0.000000001
 43
0.0000001
 40
0.0
 40
0.0
 40
0.0
 40
0.0
 40
0.2119023876
 40
1.0
 40
1.0
 40
1.0
 40
1.0
 10
90.8912620668
 20
78.5754594765
 30
0.0
 10
90.8790108805
 20
78.5751816003
 30
0.0
 10
90.8212004978
 20
78.5751854367
 30
0.0
 10
90.7631362183
 20
78.5833294338
 30
0.0
 10
90.7192577616
 20
78.5956514298
 30
0.0
  0
LINE
  5
2FB
330
20A
100
AcDbEntity
 67
     1
  8
7_ALL_FEATURES
  6
Continuous
 62
     9
100
AcDbLine
 10
117.3622038345
 20
104.430967059
 30
0.0
 11
117.3618681536
 21
104.4318302231
 31
0.0
  0
SPLINE
  5
2FC
330
20A
100
AcDbEntity
 67
     1
  8
7_ALL_FEATURES
  6
Continuous
 62
     7
100
AcDbSpline
 70
     0
 71
     3
 72
    29
 73
    25
 74
     0
 42
0.000000001
 43
0.0000001
 40
0.0
 40
0.0
 40
0.0
 40
0.0
 40
0.0043691969
 40
0.0129990679
 40
0.0260805093
 40
0.0435849336
 40
0.0653808816
 40
0.0912461549
 40
0.1542370944
 40
0.230246717
 40
0.3164083584
 40
0.4094800644
 40
0.505954816
 40
0.6021967984
 40
0.6945674923
 40
0.77960007
 40
0.854078101
 40
0.9152184657
 40
0.9400480702
 40
0.9607561613
 40
0.9771378876
 40
0.9890623963
 40
0.9965468556
 40
1.0
 40
1.0
 40
1.0
 40
1.0
 10
116.3520503248
 20
108.8099353311
 30
0.0
 10
116.3529699835
 20
108.808798176
 30
0.0
 10
116.3577657623
 20
108.8079539585
 30
0.0
 10
116.3661391365
 20
108.807575642
 30
0.0
 10
116.3794383911
 20
108.8082855355
 30
0.0
 10
116.3968183067
 20
108.8099621899
 30
0.0
 10
116.4184882914
 20
108.8127081864
 30
0.0
 10
116.4551223381
 20
108.8180905693
 30
0.0
 10
116.5095356364
 20
108.8273733927
 30
0.0
 10
116.5835901514
 20
108.8413785529
 30
0.0
 10
116.6673141772
 20
108.8584195402
 30
0.0
 10
116.7575342935
 20
108.8778501957
 30
0.0
 10
116.8508408457
 20
108.8989534316
 30
0.0
 10
116.943706543
 20
108.9209216418
 30
0.0
 10
117.0326202465
 20
108.9429343747
 30
0.0
 10
117.1142262115
 20
108.9641406062
 30
0.0
 10
117.1854338903
 20
108.9837370126
 30
0.0
 10
117.2369564416
 20
108.9989684967
 30
0.0
 10
117.2709246715
 20
109.0099145183
 30
0.0
 10
117.2905452658
 20
109.0167484043
 30
0.0
 10
117.3057699768
 20
109.0225182358
 30
0.0
 10
117.3169493217
 20
109.0276462452
 30
0.0
 10
117.3231718592
 20
109.0309961599
 30
0.0
 10
117.3264066076
 20
109.0341858085
 30
0.0
 10
117.3261558419
 20
109.0353141454
 30
0.0
  0
ARC
  5
2FD
330
20A
100
AcDbEntity
 67
     1
  8
7_ALL_FEATURES
  6
Continuous
 62
     9
100
AcDbCircle
 10
99.9324530905
 20
59.99081124
 30
0.0
 40
21.0716488028
100
AcDbArc
 50
116.8141596474
 51
116.9924149361
  0
SPLINE
  5
2FE
330
20A
100
AcDbEntity
 67
     1
  8
7_ALL_FEATURES
  6
Continuous
 62
     9
100
AcDbSpline
 70
     0
 71
     3
 72
    29
 73
    25
 74
     0
 42
0.000000001
 43
0.0000001
 40
0.0
 40
0.0
 40
0.0
 40
0.0
 40
0.0043691943
 40
0.0129990588
 40
0.0260804899
 40
0.0435849002
 40
0.0653808309
 40
0.0912460841
 40
0.1542369756
 40
0.2302465441
 40
0.3164081292
 40
0.4094797823
 40
0.5059544891
 40
0.6021964397
 40
0.6945671192
 40
0.7795997039
 40
0.8540777651
 40
0.9152181852
 40
0.9400478263
 40
0.9607559601
 40
0.9771377351
 40
0.989062297
 40
0.996546812
 40
1.0
 40
1.0
 40
1.0
 40
1.0
 10
117.3622038345
 20
104.430967059
 30
0.0
 10
117.3631234926
 20
104.4298299047
 30
0.0
 10
117.3679192675
 20
104.4289856868
 30
0.0
 10
117.3762926354
 20
104.42860737
 30
0.0
 10
117.3895918792
 20
104.4293172618
 30
0.0
 10
117.4069717807
 20
104.4309939139
 30
0.0
 10
117.4286417477
 20
104.4337399071
 30
0.0
 10
117.4652757654
 20
104.4391222841
 30
0.0
 10
117.519689022
 20
104.4484050984
 30
0.0
 10
117.5937434832
 20
104.462410246
 30
0.0
 10
117.6774674535
 20
104.4794512194
 30
0.0
 10
117.7676875174
 20
104.4988818607
 30
0.0
 10
117.8609940254
 20
104.5199850834
 30
0.0
 10
117.9538596912
 20
104.5419532824
 30
0.0
 10
118.0427733803
 20
104.5639660075
 30
0.0
 10
118.1243793516
 20
104.5851722355
 30
0.0
 10
118.1955870596
 20
104.6047686442
 30
0.0
 10
118.2471096506
 20
104.6200001322
 30
0.0
 10
118.2810779247
 20
104.6309461615
 30
0.0
 10
118.3006985613
 20
104.6377800524
 30
0.0
 10
118.3159233189
 20
104.6435499008
 30
0.0
 10
118.3271027191
 20
104.6486779046
 30
0.0
 10
118.3333253
 20
104.6520278625
 30
0.0
 10
118.3365600979
 20
104.655217481
 30
0.0
 10
118.3363093593
 20
104.6563458388
 30
0.0
  0
ARC
  5
2FF
330
20A
100
AcDbEntity
 67
     1
  8
7_ALL_FEATURES
  6
Continuous
 62
     9
100
AcDbCircle
 10
115.021774021
 20
98.7402950038
 30
0.0
 40
20.8707931284
100
AcDbArc
 50
242.692991133
 51
243.0091314778
  0
LINE
  5
300
330
20A
100
AcDbEntity
 67
     1
  8
7_ALL_FEATURES
  6
Continuous
 62
     9
100
AcDbLine
 10
78.1193540615
 20
101.6851064158
 30
0.0
 11
78.1193859178
 21
101.6849651848
 31
0.0
  0
SPLINE
  5
301
330
20A
100
AcDbEntity
 67
     1
  8
7_ALL_FEATURES
  6
Continuous
 62
     9
100
AcDbSpline
 70
     0
 71
     3
 72
     8
 73
     4
 74
     0
 42
0.000000001
 43
0.0000001
 40
0.0
 40
0.0
 40
0.0
 40
0.0
 40
1.0
 40
1.0
 40
1.0
 40
1.0
 10
90.3649486017
 20
77.6934765283
 30
0.0
 10
90.3373207815
 20
77.7562378454
 30
0.0
 10
90.3226008166
 20
77.826216995
 30
0.0
 10
90.3226008166
 20
77.8947901631
 30
0.0
  0
SPLINE
  5
302
330
20A
100
AcDbEntity
 67
     1
  8
7_ALL_FEATURES
  6
Continuous
 62
     9
100
AcDbSpline
 70
     0
 71
     3
 72
    20
 73
    16
 74
     0
 42
0.000000001
 43
0.0000001
 40
0.0
 40
0.0
 40
0.0
 40
0.0
 40
0.1926588935
 40
0.378733811
 40
0.5504802715
 40
0.7015285449
 40
0.7674892896
 40
0.8261672036
 40
0.8769879235
 40
0.9195136992
 40
0.9533188895
 40
0.9780610811
 40
0.9935904817
 40
0.9978953941
 40
1.0
 40
1.0
 40
1.0
 40
1.0
 10
78.5648573236
 20
101.9251898211
 30
0.0
 10
78.5358764215
 20
101.9104284348
 30
0.0
 10
78.4789713359
 20
101.8812796927
 30
0.0
 10
78.3964589491
 20
101.8385290011
 30
0.0
 10
78.3203920027
 20
101.7986096856
 30
0.0
 10
78.2624737172
 20
101.7677468936
 30
0.0
 10
78.2215490529
 20
101.7455831245
 30
0.0
 10
78.195582432
 20
101.7313354165
 30
0.0
 10
78.1731637452
 20
101.7188323948
 30
0.0
 10
78.1545338887
 20
101.7081994207
 30
0.0
 10
78.139786782
 20
101.6995380213
 30
0.0
 10
78.1292583936
 20
101.6929558493
 30
0.0
 10
78.1228518867
 20
101.6887053492
 30
0.0
 10
78.1201844943
 20
101.6863538337
 30
0.0
 10
78.1193540615
 20
101.6854617048
 30
0.0
 10
78.1193540615
 20
101.6851064158
 30
0.0
  0
LINE
  5
303
330
20A
100
AcDbEntity
 67
     1
  8
7_ALL_FEATURES
  6
Continuous
 62
     9
100
AcDbLine
 10
117.3619025153
 20
104.4315667511
 30
0.0
 11
117.3622038345
 21
104.430967059
 31
0.0
  0
ARC
  5
304
330
20A
100
AcDbEntity
 67
     1
  8
3_ALL_AXES
  6
Continuous
 62
     9
100
AcDbCircle
 10
105.3234734038
 20
79.6906691997
 30
0.0
 40
0.5039354695
100
AcDbArc
 50
108.9581821845
 51
111.4000156016
  0
ARC
  5
305
330
20A
100
AcDbEntity
 67
     1
  8
3_ALL_AXES
  6
Continuous
 62
     9
100
AcDbCircle
 10
105.3238960379
 20
79.6894561154
 30
0.0
 40
0.5052200557
100
AcDbArc
 50
107.9585580797
 51
108.9588177617
  0
ARC
  5
306
330
20A
100
AcDbEntity
 67
     1
  8
3_ALL_AXES
  6
Continuous
 62
     9
100
AcDbCircle
 10
105.3226726653
 20
79.6946194459
 30
0.0
 40
0.4999397497
100
AcDbArc
 50
0.0195581461
 51
108.0076369498
  0
ARC
  5
307
330
20A
100
AcDbEntity
 67
     1
  8
7_ALL_FEATURES
  6
Continuous
 62
     9
100
AcDbCircle
 10
105.3227957365
 20
79.6973842325
 30
0.0
 40
0.4998068539
100
AcDbArc
 50
0.0045058851
 51
63.013914331
  0
ARC
  5
308
330
20A
100
AcDbEntity
 67
     1
  8
0
  6
Continuous
 62
     2
100
AcDbCircle
 10
98.0726008166
 20
141.6552593159
 30
0.0
 40
3.5
100
AcDbArc
 50
0.0
 51
180.0
  0
ARC
  5
309
330
20A
100
AcDbEntity
 67
     1
  8
0
  6
Continuous
 62
     2
100
AcDbCircle
 10
98.0726008166
 20
141.6552593159
 30
0.0
 40
3.5
100
AcDbArc
 50
255.0
 51
360.0
  0
ARC
  5
30A
330
20A
100
AcDbEntity
 67
     1
  8
0
  6
Continuous
 62
     2
100
AcDbCircle
 10
98.0726008166
 20
141.6552593159
 30
0.0
 40
3.5
100
AcDbArc
 50
180.0
 51
195.0
  0
LINE
  5
30B
330
20A
100
AcDbEntity
 67
     1
  8
7_ALL_FEATURES
  6
Continuous
 62
     7
100
AcDbLine
 10
117.9614244376
 20
142.2016238392
 30
0.0
 11
117.7974770516
 21
142.2394179337
 31
0.0
  0
LINE
  5
30C
330
20A
100
AcDbEntity
 67
     1
  8
7_ALL_FEATURES
  6
Continuous
 62
     7
100
AcDbLine
 10
117.7974770516
 20
142.2394179337
 30
0.0
 11
117.7909548453
 21
142.2409214702
 31
0.0
  0
LINE
  5
30D
330
20A
100
AcDbEntity
 67
     1
  8
7_ALL_FEATURES
  6
Continuous
 62
     7
100
AcDbLine
 10
117.7909548453
 20
142.2409214702
 30
0.0
 11
116.9512709279
 21
142.4344902371
 31
0.0
  0
SPLINE
  5
30E
330
20A
100
AcDbEntity
 67
     1
  8
7_ALL_FEATURES
  6
Continuous
 62
     7
100
AcDbSpline
 70
     0
 71
     3
 72
    11
 73
     7
 74
     0
 42
0.000000001
 43
0.0000001
 40
0.0
 40
0.0
 40
0.0
 40
0.0
 40
0.1870266015
 40
0.450831745
 40
0.7249012994
 40
1.0
 40
1.0
 40
1.0
 40
1.0
 10
117.8331465644
 20
141.2013813107
 30
0.0
 10
117.8774308593
 20
141.2036700514
 30
0.0
 10
117.9844131087
 20
141.2140240337
 30
0.0
 10
118.1467951405
 20
141.2822412046
 30
0.0
 10
118.2869969592
 20
141.4213742147
 30
0.0
 10
118.3388316082
 20
141.5451445533
 30
0.0
 10
118.3518256143
 20
141.6090621373
 30
0.0
  0
ARC
  5
30F
330
20A
100
AcDbEntity
 67
     1
  8
7_ALL_FEATURES
  6
Continuous
 62
     7
100
AcDbCircle
 10
117.8596351124
 20
141.7089553497
 30
0.0
 40
0.5022251926
100
AcDbArc
 50
348.5272862374999
 51
357.9242802785
  0
LINE
  5
310
330
20A
100
AcDbEntity
 67
     1
  8
7_ALL_FEATURES
  6
Continuous
 62
     7
100
AcDbLine
 10
117.7815325545
 20
142.2000484194
 30
0.0
 11
117.7884989818
 21
142.2004718738
 31
0.0
  0
SPLINE
  5
311
330
20A
100
AcDbEntity
 67
     1
  8
7_ALL_FEATURES
  6
Continuous
 62
     7
100
AcDbSpline
 70
     0
 71
     3
 72
    11
 73
     7
 74
     0
 42
0.000000001
 43
0.0000001
 40
0.0
 40
0.0
 40
0.0
 40
0.0
 40
0.2566979293
 40
0.5128940187
 40
0.7674079646
 40
1.0
 40
1.0
 40
1.0
 40
1.0
 10
118.3615307612
 20
141.6907646431
 30
0.0
 10
118.3637062744
 20
141.750711338
 30
0.0
 10
118.3461135557
 20
141.872407421
 30
0.0
 10
118.2574201089
 20
142.0325505128
 30
0.0
 10
118.1226305061
 20
142.1480255113
 30
0.0
 10
118.0143883459
 20
142.1894142944
 30
0.0
 10
117.9614244376
 20
142.2016238392
 30
0.0
  0
LINE
  5
312
330
20A
100
AcDbEntity
 67
     1
  8
7_ALL_FEATURES
  6
Continuous
 62
     7
100
AcDbLine
 10
113.0520567981
 20
141.9556154085
 30
0.0
 11
117.7815325545
 21
142.2000484194
 31
0.0
  0
SPLINE
  5
313
330
20A
100
AcDbEntity
 67
     1
  8
7_ALL_FEATURES
  6
Continuous
 62
     7
100
AcDbSpline
 70
     0
 71
     3
 72
    11
 73
     7
 74
     0
 42
0.000000001
 43
0.0000001
 40
0.0
 40
0.0
 40
0.0
 40
0.0
 40
0.2521509374
 40
0.5026567798
 40
0.7517334348
 40
1.0
 40
1.0
 40
1.0
 40
1.0
 10
79.9174728727
 20
139.3898860259
 30
0.0
 10
79.8919771274
 20
139.3566834449
 30
0.0
 10
79.8325368723
 20
139.2966210621
 30
0.0
 10
79.7240944309
 20
139.2322132048
 30
0.0
 10
79.6034109181
 20
139.1977157563
 30
0.0
 10
79.5197448622
 20
139.1963275963
 30
0.0
 10
79.4787913643
 20
139.200983632
 30
0.0
  0
LINE
  5
314
330
20A
100
AcDbEntity
 67
     1
  8
7_ALL_FEATURES
  6
Continuous
 62
     7
100
AcDbLine
 10
113.0245574559
 20
140.9528594925
 30
0.0
 11
117.8331465644
 21
141.2013813107
 31
0.0
  0
LINE
  5
315
330
20A
100
AcDbEntity
 67
     1
  8
7_ALL_FEATURES
  6
Continuous
 62
     7
100
AcDbLine
 10
78.4665109772
 20
139.3164414786
 30
0.0
 11
78.5749520554
 21
139.3040722544
 31
0.0
  0
LINE
  5
316
330
20A
100
AcDbEntity
 67
     1
  8
7_ALL_FEATURES
  6
Continuous
 62
     7
100
AcDbLine
 10
78.5749520554
 20
139.3040722544
 30
0.0
 11
78.5883508505
 21
139.3025439341
 31
0.0
  0
LINE
  5
317
330
20A
100
AcDbEntity
 67
     1
  8
7_ALL_FEATURES
  6
Continuous
 62
     7
100
AcDbLine
 10
78.5883508505
 20
139.3025439341
 30
0.0
 11
79.4787907218
 21
139.200976792
 31
0.0
  0
SPLINE
  5
318
330
20A
100
AcDbEntity
 67
     1
  8
7_ALL_FEATURES
  6
Continuous
 62
     7
100
AcDbSpline
 70
     0
 71
     3
 72
    11
 73
     7
 74
     0
 42
0.000000001
 43
0.0000001
 40
0.0
 40
0.0
 40
0.0
 40
0.0
 40
0.2530661125
 40
0.5041335468
 40
0.7528483032
 40
1.0
 40
1.0
 40
1.0
 40
1.0
 10
116.386928183
 20
142.1281022245
 30
0.0
 10
116.4082764581
 20
142.1828164163
 30
0.0
 10
116.4703249219
 20
142.285288268
 30
0.0
 10
116.6093896798
 20
142.3968142236
 30
0.0
 10
116.7773816718
 20
142.4525963868
 30
0.0
 10
116.8953796978
 20
142.4473827114
 30
0.0
 10
116.9512707687
 20
142.4344896033
 30
0.0
  0
SPLINE
  5
319
330
20A
100
AcDbEntity
 67
     1
  8
7_ALL_FEATURES
  6
Continuous
 62
     7
100
AcDbSpline
 70
     0
 71
     3
 72
    11
 73
     7
 74
     0
 42
0.000000001
 43
0.0000001
 40
0.0
 40
0.0
 40
0.0
 40
0.0
 40
0.1663088094
 40
0.43617352
 40
0.7177675089
 40
1.0
 40
1.0
 40
1.0
 40
1.0
 10
78.5390503187
 20
140.3214933214
 30
0.0
 10
78.5014011061
 20
140.319547501
 30
0.0
 10
78.4024868609
 20
140.3124371083
 30
0.0
 10
78.2460263667
 20
140.2550134443
 30
0.0
 10
78.1018661463
 20
140.1259267086
 30
0.0
 10
78.0440553567
 20
140.0077312157
 30
0.0
 10
78.0274782891
 20
139.9459387036
 30
0.0
  0
ARC
  5
31A
330
20A
100
AcDbEntity
 67
     1
  8
7_ALL_FEATURES
  6
Continuous
 62
     7
100
AcDbCircle
 10
78.5132877472
 20
139.8158425257
 30
0.0
 40
0.5029272761
100
AcDbArc
 50
165.008371397
 51
179.9613106591
  0
LINE
  5
31B
330
20A
100
AcDbEntity
 67
     1
  8
7_ALL_FEATURES
  6
Continuous
 62
     7
100
AcDbLine
 10
78.5906643285
 20
139.3228262127
 30
0.0
 11
78.5769990113
 21
139.3220179322
 31
0.0
  0
SPLINE
  5
31C
330
20A
100
AcDbEntity
 67
     1
  8
7_ALL_FEATURES
  6
Continuous
 62
     7
100
AcDbSpline
 70
     0
 71
     3
 72
    12
 73
     8
 74
     0
 42
0.000000001
 43
0.0000001
 40
0.0
 40
0.0
 40
0.0
 40
0.0
 40
0.2585655369
 40
0.5168060899
 40
0.7740692261
 40
0.8995399691
 40
1.0
 40
1.0
 40
1.0
 40
1.0
 10
78.0103605857
 20
139.8161821306
 30
0.0
 10
78.0103605857
 20
139.7525473531
 30
0.0
 10
78.035250422
 20
139.6240192857
 30
0.0
 10
78.1414086806
 20
139.4605008904
 30
0.0
 10
78.2739418722
 20
139.3674043531
 30
0.0
 10
78.3869605642
 20
139.3286773462
 30
0.0
 10
78.4419463486
 20
139.3192434187
 30
0.0
 10
78.4665109772
 20
139.3164414786
 30
0.0
  0
LINE
  5
31D
330
20A
100
AcDbEntity
 67
     1
  8
7_ALL_FEATURES
  6
Continuous
 62
     7
100
AcDbLine
 10
83.222817805
 20
139.5622293262
 30
0.0
 11
78.5906643285
 21
139.3228262127
 31
0.0
  0
LINE
  5
31E
330
20A
100
AcDbEntity
 67
     1
  8
7_ALL_FEATURES
  6
Continuous
 62
     7
100
AcDbLine
 10
83.1475376662
 20
140.5596733008
 30
0.0
 11
78.5390503187
 21
140.3214933214
 31
0.0
  0
ARC
  5
31F
330
20A
100
AcDbEntity
 67
     1
  8
7_ALL_FEATURES
  6
Continuous
 62
     9
100
AcDbCircle
 10
117.8550089963
 20
141.7364733981
 30
0.0
 40
0.4772616755
100
AcDbArc
 50
99.1584635161
 51
102.2468419811
  0
ARC
  5
320
330
20A
100
AcDbEntity
 67
     1
  8
7_ALL_FEATURES
  6
Continuous
 62
     9
100
AcDbCircle
 10
117.8544994018
 20
141.7394760606
 30
0.0
 40
0.4742161821
100
AcDbArc
 50
97.98412546829998
 51
99.1554214723
  0
SPLINE
  5
321
330
20A
100
AcDbEntity
 67
     1
  8
7_ALL_FEATURES
  6
Continuous
 62
     9
100
AcDbSpline
 70
     0
 71
     3
 72
     8
 73
     4
 74
     0
 42
0.000000001
 43
0.0000001
 40
0.0
 40
0.0
 40
0.0
 40
0.0
 40
1.0
 40
1.0
 40
1.0
 40
1.0
 10
117.7886313767
 20
142.209095471
 30
0.0
 10
117.8457240026
 20
142.2171032071
 30
0.0
 10
117.9052481444
 20
142.2145820742
 30
0.0
 10
117.9614242907
 20
142.2016232025
 30
0.0
  0
SPLINE
  5
322
330
20A
100
AcDbEntity
 67
     1
  8
7_ALL_FEATURES
  6
Continuous
 62
     9
100
AcDbSpline
 70
     0
 71
     3
 72
    11
 73
     7
 74
     0
 42
0.000000001
 43
0.0000001
 40
0.0
 40
0.0
 40
0.0
 40
0.0
 40
0.2620670223
 40
0.5182402413
 40
0.763790033
 40
1.0
 40
1.0
 40
1.0
 40
1.0
 10
118.2524752844
 20
141.6744433797
 30
0.0
 10
118.2548287277
 20
141.7393743732
 30
0.0
 10
118.23693289
 20
141.8697292299
 30
0.0
 10
118.1459027886
 20
142.0403996942
 30
0.0
 10
118.0028885795
 20
142.1619446021
 30
0.0
 10
117.8838934048
 20
142.1964360275
 30
0.0
 10
117.8254321796
 20
142.1998863532
 30
0.0
  0
ARC
  5
323
330
20A
100
AcDbEntity
 67
     1
  8
7_ALL_FEATURES
  6
Continuous
 62
     9
100
AcDbCircle
 10
117.8019990272
 20
141.8028858016
 30
0.0
 40
0.3976915269
100
AcDbArc
 50
86.6220078495
 51
89.23056154760002
  0
LINE
  5
324
330
20A
100
AcDbEntity
 67
     1
  8
7_ALL_FEATURES
  6
Continuous
 62
     9
100
AcDbLine
 10
117.8073395594
 20
142.2005414683
 30
0.0
 11
117.7815325545
 21
142.2000484194
 31
0.0
  0
LINE
  5
325
330
20A
100
AcDbEntity
 67
     1
  8
7_ALL_FEATURES
  6
Continuous
 62
     9
100
AcDbLine
 10
78.5648573236
 20
139.3223331638
 30
0.0
 11
78.5906643285
 21
139.3228262127
 31
0.0
  0
SPLINE
  5
326
330
20A
100
AcDbEntity
 67
     1
  8
7_ALL_FEATURES
  6
Continuous
 62
     9
100
AcDbSpline
 70
     0
 71
     3
 72
    11
 73
     7
 74
     0
 42
0.000000001
 43
0.0000001
 40
0.0
 40
0.0
 40
0.0
 40
0.0
 40
0.2625983327
 40
0.5185779438
 40
0.7637189552
 40
1.0
 40
1.0
 40
1.0
 40
1.0
 10
78.1193540615
 20
139.8281374036
 30
0.0
 10
78.1193540615
 20
139.7632277248
 30
0.0
 10
78.1418409771
 20
139.6338906111
 30
0.0
 10
78.2389539449
 20
139.4672193236
 30
0.0
 10
78.3864159032
 20
139.3520728761
 30
0.0
 10
78.5064580712
 20
139.3231167484
 30
0.0
 10
78.5648573236
 20
139.3223331638
 30
0.0
  0
ARC
  5
327
330
20A
100
AcDbEntity
 67
     1
  8
7_ALL_FEATURES
  6
Continuous
 62
     9
100
AcDbCircle
 10
78.5207688523
 20
139.786890785
 30
0.0
 40
0.4734524219
100
AcDbArc
 50
280.5893235997
 51
281.447834715
  0
ARC
  5
328
330
20A
100
AcDbEntity
 67
     1
  8
7_ALL_FEATURES
  6
Continuous
 62
     9
100
AcDbCircle
 10
78.5202181558
 20
139.7921172576
 30
0.0
 40
0.4786912696
100
AcDbArc
 50
263.5581806796
 51
280.5391554815
  0
SPLINE
  5
329
330
20A
100
AcDbEntity
 67
     1
  8
7_ALL_FEATURES
  6
Continuous
 62
     9
100
AcDbSpline
 70
     0
 71
     3
 72
    11
 73
     7
 74
     0
 42
0.000000001
 43
0.0000001
 40
0.0
 40
0.0
 40
0.0
 40
0.0
 40
0.2373991914
 40
0.4819329323
 40
0.7368782293
 40
1.0
 40
1.0
 40
1.0
 40
1.0
 10
117.833146095
 20
141.2013903152
 30
0.0
 10
117.8876614424
 20
141.2042377977
 30
0.0
 10
117.9983525723
 20
141.2336759812
 30
0.0
 10
118.1347986188
 20
141.3409657589
 30
0.0
 10
118.2264445887
 20
141.4946219084
 30
0.0
 10
118.2502837183
 20
141.6139785445
 30
0.0
 10
118.2524752844
 20
141.6744433797
 30
0.0
  0
SPLINE
  5
32A
330
20A
100
AcDbEntity
 67
     1
  8
7_ALL_FEATURES
  6
Continuous
 62
     9
100
AcDbSpline
 70
     0
 71
     3
 72
    11
 73
     7
 74
     0
 42
0.000000001
 43
0.0000001
 40
0.0
 40
0.0
 40
0.0
 40
0.0
 40
0.2370689373
 40
0.4816040765
 40
0.7368167488
 40
1.0
 40
1.0
 40
1.0
 40
1.0
 10
78.5390508194
 20
140.3214837215
 30
0.0
 10
78.4830347015
 20
140.3185555349
 30
0.0
 10
78.3691905088
 20
140.2875622534
 30
0.0
 10
78.2304911667
 20
140.1747274624
 30
0.0
 10
78.1399851361
 20
140.0141481961
 30
0.0
 10
78.1193540615
 20
139.89040888
 30
0.0
 10
78.1193540615
 20
139.8281374036
 30
0.0
  0
ARC
  5
32B
330
20A
100
AcDbEntity
 67
     1
  8
3_ALL_AXES
  6
Continuous
 62
     7
100
AcDbCircle
 10
98.0726008166
 20
141.6552593159
 30
0.0
 40
2.25
100
AcDbArc
 50
0.0
 51
180.0
  0
ARC
  5
32C
330
20A
100
AcDbEntity
 67
     1
  8
3_ALL_AXES
  6
Continuous
 62
     7
100
AcDbCircle
 10
98.0726008166
 20
141.6552593159
 30
0.0
 40
2.25
100
AcDbArc
 50
180.0
 51
360.0
  0
ARC
  5
32D
330
20A
100
AcDbEntity
 67
     1
  8
7_ALL_FEATURES
  6
Continuous
 62
     7
100
AcDbCircle
 10
98.0726008166
 20
141.6552593159
 30
0.0
 40
4.0
100
AcDbArc
 50
0.0
 51
180.0
  0
ARC
  5
32E
330
20A
100
AcDbEntity
 67
     1
  8
7_ALL_FEATURES
  6
Continuous
 62
     7
100
AcDbCircle
 10
98.0726008166
 20
141.6552593159
 30
0.0
 40
15.0
100
AcDbArc
 50
0.0
 51
180.0
  0
ARC
  5
32F
330
20A
100
AcDbEntity
 67
     1
  8
7_ALL_FEATURES
  6
Continuous
 62
     7
100
AcDbCircle
 10
98.0726008166
 20
141.6552593159
 30
0.0
 40
4.0
100
AcDbArc
 50
180.0
 51
360.0
  0
ARC
  5
330
330
20A
100
AcDbEntity
 67
     1
  8
7_ALL_FEATURES
  6
Continuous
 62
     7
100
AcDbCircle
 10
98.0726008166
 20
141.6552593159
 30
0.0
 40
15.0
100
AcDbArc
 50
180.0
 51
360.0
  0
ARC
  5
331
330
20A
100
AcDbEntity
 67
     1
  8
7_ALL_FEATURES
  6
Continuous
 62
     7
100
AcDbCircle
 10
98.0726008166
 20
141.6552593159
 30
0.0
 40
3.5
100
AcDbArc
 50
255.0080557747
 51
360.0
  0
ARC
  5
332
330
20A
100
AcDbEntity
 67
     1
  8
7_ALL_FEATURES
  6
Continuous
 62
     7
100
AcDbCircle
 10
98.0726008166
 20
141.6552593159
 30
0.0
 40
3.5
100
AcDbArc
 50
194.9918555788
 51
255.0080557747
  0
ARC
  5
333
330
20A
100
AcDbEntity
 67
     1
  8
7_ALL_FEATURES
  6
Continuous
 62
     7
100
AcDbCircle
 10
98.0726008166
 20
141.6552593159
 30
0.0
 40
3.5
100
AcDbArc
 50
180.0
 51
194.9918555788
  0
ARC
  5
334
330
20A
100
AcDbEntity
 67
     1
  8
7_ALL_FEATURES
  6
Continuous
 62
     7
100
AcDbCircle
 10
98.0726008166
 20
141.6552593159
 30
0.0
 40
3.5
100
AcDbArc
 50
0.0
 51
180.0
  0
ARC
  5
335
330
20A
100
AcDbEntity
 67
     1
  8
7_ALL_FEATURES
  6
Continuous
 62
     7
100
AcDbCircle
 10
98.0726008166
 20
141.6552593159
 30
0.0
 40
14.5
100
AcDbArc
 50
180.0
 51
360.0
  0
ARC
  5
336
330
20A
100
AcDbEntity
 67
     1
  8
7_ALL_FEATURES
  6
Continuous
 62
     7
100
AcDbCircle
 10
98.0726008166
 20
141.6552593159
 30
0.0
 40
14.5
100
AcDbArc
 50
0.0
 51
180.0
  0
LINE
  5
337
330
20A
100
AcDbEntity
 67
     1
  8
0
  6
Continuous
 62
     7
100
AcDbLine
 10
180.1327265219
 20
141.6552593159
 30
0.0
 11
180.1327265219
 21
145.1552593159
 31
0.0
  0
LINE
  5
338
330
20A
100
AcDbEntity
 67
     1
  8
0
  6
Continuous
 62
     7
100
AcDbLine
 10
180.1327265219
 20
138.1552593159
 30
0.0
 11
180.1327265219
 21
141.6552594689
 31
0.0
  0
LINE
  5
339
330
20A
100
AcDbEntity
 67
     1
  8
7_ALL_FEATURES
  6
Continuous
 62
     7
100
AcDbLine
 10
180.1327265219
 20
141.6552593159
 30
0.0
 11
180.1327265219
 21
143.9052593159
 31
0.0
  0
LINE
  5
33A
330
20A
100
AcDbEntity
 67
     1
  8
7_ALL_FEATURES
  6
Continuous
 62
     7
100
AcDbLine
 10
180.1327265219
 20
143.9052593159
 30
0.0
 11
180.1327265219
 21
145.1552593159
 31
0.0
  0
LINE
  5
33B
330
20A
100
AcDbEntity
 67
     1
  8
7_ALL_FEATURES
  6
Continuous
 62
     7
100
AcDbLine
 10
177.1327265219
 20
141.6552593159
 30
0.0
 11
177.1327265219
 21
145.1552593159
 31
0.0
  0
LINE
  5
33C
330
20A
100
AcDbEntity
 67
     1
  8
7_ALL_FEATURES
  6
Continuous
 62
     7
100
AcDbLine
 10
177.1327265219
 20
145.1552593159
 30
0.0
 11
177.1327265219
 21
145.6552593159
 31
0.0
  0
LINE
  5
33D
330
20A
100
AcDbEntity
 67
     1
  8
7_ALL_FEATURES
  6
Continuous
 62
     7
100
AcDbLine
 10
177.1327265219
 20
145.6552593159
 30
0.0
 11
177.1327265219
 21
156.155141195
 31
0.0
  0
LINE
  5
33E
330
20A
100
AcDbEntity
 67
     1
  8
3_ALL_AXES
  6
Continuous
 62
     7
100
AcDbLine
 10
175.1327265219
 20
141.6552593159
 30
0.0
 11
175.1327265219
 21
149.6552593159
 31
0.0
  0
LINE
  5
33F
330
20A
100
AcDbEntity
 67
     1
  8
3_ALL_AXES
  6
Continuous
 62
     7
100
AcDbLine
 10
175.1327265219
 20
149.6552593159
 30
0.0
 11
175.1327265219
 21
156.6552109449
 31
0.0
  0
LINE
  5
340
330
20A
100
AcDbEntity
 67
     1
  8
3_ALL_AXES
  6
Continuous
 62
     7
100
AcDbLine
 10
175.1327265219
 20
141.6552593159
 30
0.0
 11
175.1327265219
 21
133.6552593159
 31
0.0
  0
LINE
  5
341
330
20A
100
AcDbEntity
 67
     1
  8
3_ALL_AXES
  6
Continuous
 62
     7
100
AcDbLine
 10
175.1327265219
 20
133.6552593159
 30
0.0
 11
175.1327265219
 21
126.6553076869
 31
0.0
  0
LINE
  5
342
330
20A
100
AcDbEntity
 67
     1
  8
7_ALL_FEATURES
  6
Continuous
 62
     7
100
AcDbLine
 10
174.1327265219
 20
141.6552593159
 30
0.0
 11
174.1327265219
 21
148.4052593159
 31
0.0
  0
LINE
  5
343
330
20A
100
AcDbEntity
 67
     1
  8
7_ALL_FEATURES
  6
Continuous
 62
     7
100
AcDbLine
 10
174.1327265219
 20
148.4052593159
 30
0.0
 11
174.1327265219
 21
148.7411547931
 31
0.0
  0
LINE
  5
344
330
20A
100
AcDbEntity
 67
     1
  8
7_ALL_FEATURES
  6
Continuous
 62
     7
100
AcDbLine
 10
174.1327265219
 20
148.7411547931
 30
0.0
 11
174.1327265219
 21
148.7833115094
 31
0.0
  0
LINE
  5
345
330
20A
100
AcDbEntity
 67
     1
  8
7_ALL_FEATURES
  6
Continuous
 62
     7
100
AcDbLine
 10
174.1327265219
 20
148.7833115094
 30
0.0
 11
174.1327265219
 21
149.6552593159
 31
0.0
  0
LINE
  5
346
330
20A
100
AcDbEntity
 67
     1
  8
7_ALL_FEATURES
  6
Continuous
 62
     7
100
AcDbLine
 10
171.6327265219
 20
141.6552593159
 30
0.0
 11
171.6327265219
 21
141.6684261917
 31
0.0
  0
LINE
  5
347
330
20A
100
AcDbEntity
 67
     1
  8
7_ALL_FEATURES
  6
Continuous
 62
     7
100
AcDbLine
 10
171.6327265219
 20
141.6684261917
 30
0.0
 11
171.6327265219
 21
148.4052593159
 31
0.0
  0
LINE
  5
348
330
20A
100
AcDbEntity
 67
     1
  8
7_ALL_FEATURES
  6
Continuous
 62
     7
100
AcDbLine
 10
171.6327265219
 20
148.4052593159
 30
0.0
 11
171.6327265219
 21
149.6552593159
 31
0.0
  0
LINE
  5
349
330
20A
100
AcDbEntity
 67
     1
  8
7_ALL_FEATURES
  6
Continuous
 62
     7
100
AcDbLine
 10
165.1327265219
 20
141.6552593159
 30
0.0
 11
165.1327265219
 21
144.1552751896
 31
0.0
  0
LINE
  5
34A
330
20A
100
AcDbEntity
 67
     1
  8
7_ALL_FEATURES
  6
Continuous
 62
     7
100
AcDbLine
 10
165.1327265219
 20
144.1552751896
 30
0.0
 11
165.1327265219
 21
144.2051442864
 31
0.0
  0
LINE
  5
34B
330
20A
100
AcDbEntity
 67
     1
  8
7_ALL_FEATURES
  6
Continuous
 62
     7
100
AcDbLine
 10
165.1327265219
 20
144.2051442864
 30
0.0
 11
165.1327265219
 21
149.3551246897
 31
0.0
  0
LINE
  5
34C
330
20A
100
AcDbEntity
 67
     1
  8
7_ALL_FEATURES
  6
Continuous
 62
     7
100
AcDbLine
 10
173.2026875297
 20
148.4052593159
 30
0.0
 11
173.0052178743
 21
148.4052593159
 31
0.0
  0
LINE
  5
34D
330
20A
100
AcDbEntity
 67
     1
  8
7_ALL_FEATURES
  6
Continuous
 62
     7
100
AcDbLine
 10
172.0026750276
 20
148.4052593159
 30
0.0
 11
171.6327265219
 21
148.4052593159
 31
0.0
  0
LINE
  5
34E
330
20A
100
AcDbEntity
 67
     1
  8
7_ALL_FEATURES
  6
Continuous
 62
     7
100
AcDbLine
 10
174.1327265219
 20
134.9052593159
 30
0.0
 11
173.4627409588
 21
134.9052593159
 31
0.0
  0
LINE
  5
34F
330
20A
100
AcDbEntity
 67
     1
  8
7_ALL_FEATURES
  6
Continuous
 62
     7
100
AcDbLine
 10
172.4602286688
 20
134.9052593159
 30
0.0
 11
171.6327265219
 21
134.9052593159
 31
0.0
  0
LINE
  5
350
330
20A
100
AcDbEntity
 67
     1
  8
7_ALL_FEATURES
  6
Continuous
 62
     7
100
AcDbLine
 10
165.1327265219
 20
133.9553939421
 30
0.0
 11
165.1327265219
 21
139.1053743454
 31
0.0
  0
LINE
  5
351
330
20A
100
AcDbEntity
 67
     1
  8
7_ALL_FEATURES
  6
Continuous
 62
     7
100
AcDbLine
 10
165.1327265219
 20
139.1053743454
 30
0.0
 11
165.1327265219
 21
139.1552415705
 31
0.0
  0
LINE
  5
352
330
20A
100
AcDbEntity
 67
     1
  8
7_ALL_FEATURES
  6
Continuous
 62
     7
100
AcDbLine
 10
165.1327265219
 20
139.1552415705
 30
0.0
 11
165.1327265219
 21
139.7228521559
 31
0.0
  0
LINE
  5
353
330
20A
100
AcDbEntity
 67
     1
  8
7_ALL_FEATURES
  6
Continuous
 62
     7
100
AcDbLine
 10
165.1327265219
 20
140.7231990696
 30
0.0
 11
165.1327265219
 21
141.6552593159
 31
0.0
  0
LINE
  5
354
330
20A
100
AcDbEntity
 67
     1
  8
7_ALL_FEATURES
  6
Continuous
 62
     7
100
AcDbLine
 10
165.1327265219
 20
133.9552593159
 30
0.0
 11
165.4327265219
 21
133.6552593159
 31
0.0
  0
LINE
  5
355
330
20A
100
AcDbEntity
 67
     1
  8
7_ALL_FEATURES
  6
Continuous
 62
     7
100
AcDbLine
 10
165.1327265219
 20
149.3552593159
 30
0.0
 11
165.4327265219
 21
149.6552593159
 31
0.0
  0
LINE
  5
356
330
20A
100
AcDbEntity
 67
     1
  8
7_ALL_FEATURES
  6
Continuous
 62
     7
100
AcDbLine
 10
177.1327265219
 20
156.1552593159
 30
0.0
 11
176.6327265219
 21
156.6552593159
 31
0.0
  0
LINE
  5
357
330
20A
100
AcDbEntity
 67
     1
  8
7_ALL_FEATURES
  6
Continuous
 62
     7
100
AcDbLine
 10
177.1327265219
 20
127.1553774369
 30
0.0
 11
177.1327265219
 21
137.6552593159
 31
0.0
  0
LINE
  5
358
330
20A
100
AcDbEntity
 67
     1
  8
7_ALL_FEATURES
  6
Continuous
 62
     7
100
AcDbLine
 10
177.1327265219
 20
137.6552593159
 30
0.0
 11
177.1327265219
 21
138.1552593159
 31
0.0
  0
LINE
  5
359
330
20A
100
AcDbEntity
 67
     1
  8
7_ALL_FEATURES
  6
Continuous
 62
     7
100
AcDbLine
 10
177.1327265219
 20
138.1552593159
 30
0.0
 11
177.1327265219
 21
141.6552593159
 31
0.0
  0
LINE
  5
35A
330
20A
100
AcDbEntity
 67
     1
  8
7_ALL_FEATURES
  6
Continuous
 62
     7
100
AcDbLine
 10
177.1327265219
 20
127.1552593159
 30
0.0
 11
176.6327265219
 21
126.6552593159
 31
0.0
  0
LINE
  5
35B
330
20A
100
AcDbEntity
 67
     1
  8
7_ALL_FEATURES
  6
Continuous
 62
     7
100
AcDbLine
 10
180.1327265219
 20
138.1552593159
 30
0.0
 11
180.1327265219
 21
139.4052593159
 31
0.0
  0
LINE
  5
35C
330
20A
100
AcDbEntity
 67
     1
  8
7_ALL_FEATURES
  6
Continuous
 62
     7
100
AcDbLine
 10
180.1327265219
 20
139.4052593159
 30
0.0
 11
180.1327265219
 21
141.6552593159
 31
0.0
  0
LINE
  5
35D
330
20A
100
AcDbEntity
 67
     1
  8
7_ALL_FEATURES
  6
Continuous
 62
     7
100
AcDbLine
 10
180.1327265219
 20
138.1552593159
 30
0.0
 11
179.6327265219
 21
137.6552593159
 31
0.0
  0
LINE
  5
35E
330
20A
100
AcDbEntity
 67
     1
  8
3_ALL_AXES
  6
Continuous
 62
     7
100
AcDbLine
 10
179.6327265219
 20
145.6552593159
 30
0.0
 11
177.1327265219
 21
145.6552593159
 31
0.0
  0
LINE
  5
35F
330
20A
100
AcDbEntity
 67
     1
  8
7_ALL_FEATURES
  6
Continuous
 62
     7
100
AcDbLine
 10
180.1327265219
 20
145.1552593159
 30
0.0
 11
179.6327265219
 21
145.6552593159
 31
0.0
  0
LINE
  5
360
330
20A
100
AcDbEntity
 67
     1
  8
3_ALL_AXES
  6
Continuous
 62
     7
100
AcDbLine
 10
176.6327265219
 20
156.6552593159
 30
0.0
 11
175.1327265219
 21
156.6552593159
 31
0.0
  0
LINE
  5
361
330
20A
100
AcDbEntity
 67
     1
  8
7_ALL_FEATURES
  6
Continuous
 62
     7
100
AcDbLine
 10
171.6327265219
 20
133.6552593159
 30
0.0
 11
171.6327265219
 21
134.9052593159
 31
0.0
  0
LINE
  5
362
330
20A
100
AcDbEntity
 67
     1
  8
7_ALL_FEATURES
  6
Continuous
 62
     7
100
AcDbLine
 10
171.6327265219
 20
134.9052593159
 30
0.0
 11
171.6327265219
 21
139.8940809223
 31
0.0
  0
LINE
  5
363
330
20A
100
AcDbEntity
 67
     1
  8
7_ALL_FEATURES
  6
Continuous
 62
     7
100
AcDbLine
 10
171.6327265219
 20
140.8944278359
 30
0.0
 11
171.6327265219
 21
141.6552593159
 31
0.0
  0
LINE
  5
364
330
20A
100
AcDbEntity
 67
     1
  8
3_ALL_AXES
  6
Continuous
 62
     7
100
AcDbLine
 10
171.6327265219
 20
133.6552593159
 30
0.0
 11
165.4327265219
 21
133.6552593159
 31
0.0
  0
LINE
  5
365
330
20A
100
AcDbEntity
 67
     1
  8
3_ALL_AXES
  6
Continuous
 62
     7
100
AcDbLine
 10
175.1327265219
 20
149.6552593159
 30
0.0
 11
174.1327265219
 21
149.6552593159
 31
0.0
  0
LINE
  5
366
330
20A
100
AcDbEntity
 67
     1
  8
7_ALL_FEATURES
  6
Continuous
 62
     7
100
AcDbLine
 10
174.1327265219
 20
133.6552593159
 30
0.0
 11
174.1327265219
 21
134.9052593159
 31
0.0
  0
LINE
  5
367
330
20A
100
AcDbEntity
 67
     1
  8
7_ALL_FEATURES
  6
Continuous
 62
     7
100
AcDbLine
 10
174.1327265219
 20
134.9052593159
 30
0.0
 11
174.1327265219
 21
141.6552593159
 31
0.0
  0
LINE
  5
368
330
20A
100
AcDbEntity
 67
     1
  8
3_ALL_AXES
  6
Continuous
 62
     7
100
AcDbLine
 10
175.1327265219
 20
133.6552593159
 30
0.0
 11
174.1327265219
 21
133.6552593159
 31
0.0
  0
LINE
  5
369
330
20A
100
AcDbEntity
 67
     1
  8
3_ALL_AXES
  6
Continuous
 62
     7
100
AcDbLine
 10
171.6327265219
 20
149.6552593159
 30
0.0
 11
165.4327265219
 21
149.6552593159
 31
0.0
  0
LINE
  5
36A
330
20A
100
AcDbEntity
 67
     1
  8
3_ALL_AXES
  6
Continuous
 62
     7
100
AcDbLine
 10
176.6327265219
 20
126.6552593159
 30
0.0
 11
175.1327265219
 21
126.6552593159
 31
0.0
  0
LINE
  5
36B
330
20A
100
AcDbEntity
 67
     1
  8
3_ALL_AXES
  6
Continuous
 62
     7
100
AcDbLine
 10
179.6327265219
 20
137.6552593159
 30
0.0
 11
177.1327265219
 21
137.6552593159
 31
0.0
  0
LINE
  5
36C
330
20A
100
AcDbEntity
 67
     1
  8
7_ALL_FEATURES
  6
Continuous
 62
     7
100
AcDbLine
 10
179.6327265219
 20
141.6552593159
 30
0.0
 11
179.6327265219
 21
145.6552593159
 31
0.0
  0
LINE
  5
36D
330
20A
100
AcDbEntity
 67
     1
  8
7_ALL_FEATURES
  6
Continuous
 62
     7
100
AcDbLine
 10
165.4327265219
 20
141.6552593159
 30
0.0
 11
165.4327265219
 21
149.6552593159
 31
0.0
  0
LINE
  5
36E
330
20A
100
AcDbEntity
 67
     1
  8
7_ALL_FEATURES
  6
Continuous
 62
     7
100
AcDbLine
 10
176.6327265219
 20
141.6552593159
 30
0.0
 11
176.6327265219
 21
156.6552593159
 31
0.0
  0
LINE
  5
36F
330
20A
100
AcDbEntity
 67
     1
  8
7_ALL_FEATURES
  6
Continuous
 62
     7
100
AcDbLine
 10
165.4327265219
 20
133.6552593159
 30
0.0
 11
165.4327265219
 21
139.730755022
 31
0.0
  0
LINE
  5
370
330
20A
100
AcDbEntity
 67
     1
  8
7_ALL_FEATURES
  6
Continuous
 62
     7
100
AcDbLine
 10
165.4327265219
 20
140.7311019357
 30
0.0
 11
165.4327265219
 21
141.6552593159
 31
0.0
  0
LINE
  5
371
330
20A
100
AcDbEntity
 67
     1
  8
7_ALL_FEATURES
  6
Continuous
 62
     7
100
AcDbLine
 10
176.6327265219
 20
126.6552593159
 30
0.0
 11
176.6327265219
 21
141.6552593159
 31
0.0
  0
LINE
  5
372
330
20A
100
AcDbEntity
 67
     1
  8
7_ALL_FEATURES
  6
Continuous
 62
     7
100
AcDbLine
 10
179.6327265219
 20
137.6552593159
 30
0.0
 11
179.6327265219
 21
141.6552593159
 31
0.0
  0
LINE
  5
373
330
20A
100
AcDbEntity
 67
     1
  8
7_ALL_FEATURES
  6
Continuous
 62
     7
100
AcDbLine
 10
147.2570084034
 20
141.2151077517
 30
0.0
 11
142.8780401313
 21
141.4479741496
 31
0.0
  0
SPLINE
  5
374
330
20A
100
AcDbEntity
 67
     1
  8
7_ALL_FEATURES
  6
Continuous
 62
     7
100
AcDbSpline
 70
     0
 71
     3
 72
    16
 73
    12
 74
     0
 42
0.000000001
 43
0.0000001
 40
0.0
 40
0.0
 40
0.0
 40
0.0
 40
0.0447942247
 40
0.0750631226
 40
0.1120744688
 40
0.2072618064
 40
0.3297466503
 40
0.4757603073
 40
0.6403300232
 40
0.8175723125
 40
1.0
 40
1.0
 40
1.0
 40
1.0
 10
142.9311424822
 20
142.4465436858
 30
0.0
 10
142.9229679394
 20
142.4469713492
 30
0.0
 10
142.9092741344
 20
142.4401825337
 30
0.0
 10
142.8955715044
 20
142.4251503111
 30
0.0
 10
142.878917578
 20
142.4003628961
 30
0.0
 10
142.8600715447
 20
142.3575770329
 30
0.0
 10
142.8402303308
 20
142.2940803631
 30
0.0
 10
142.8227301319
 20
142.2168265202
 30
0.0
 10
142.8082609501
 20
142.1288223219
 30
0.0
 10
142.7975209767
 20
142.0335907544
 30
0.0
 10
142.7930948157
 20
141.967988083
 30
0.0
 10
142.7916022457
 20
141.9346845733
 30
0.0
  0
LINE
  5
375
330
20A
100
AcDbEntity
 67
     1
  8
7_ALL_FEATURES
  6
Continuous
 62
     7
100
AcDbLine
 10
147.3101117406
 20
142.213696774
 30
0.0
 11
142.9311434685
 21
142.446563172
 31
0.0
  0
LINE
  5
376
330
20A
100
AcDbEntity
 67
     1
  8
7_ALL_FEATURES
  6
Continuous
 62
     7
100
AcDbLine
 10
147.6095773468
 20
141.2008882617
 30
0.0
 11
147.6007837206
 21
141.2011236729
 31
0.0
  0
ARC
  5
377
330
20A
100
AcDbEntity
 67
     1
  8
7_ALL_FEATURES
  6
Continuous
 62
     7
100
AcDbCircle
 10
147.9221540451
 20
152.9752529825
 30
0.0
 40
11.7785143327
100
AcDbArc
 50
267.9231270529
 51
268.4365219512
  0
ARC
  5
378
330
20A
100
AcDbEntity
 67
     1
  8
7_ALL_FEATURES
  6
Continuous
 62
     7
100
AcDbCircle
 10
148.0033220922
 20
155.2663668297
 30
0.0
 40
14.0710648425
100
AcDbArc
 50
266.9596687279
 51
267.930928796
  0
ARC
  5
379
330
20A
100
AcDbEntity
 67
     1
  8
7_ALL_FEATURES
  6
Continuous
 62
     7
100
AcDbCircle
 10
147.9657377236
 20
154.4097936325
 30
0.0
 40
12.2137063994
100
AcDbArc
 50
266.9229106779
 51
268.4525605425
  0
LINE
  5
37A
330
20A
100
AcDbEntity
 67
     1
  8
7_ALL_FEATURES
  6
Continuous
 62
     7
100
AcDbLine
 10
173.060462619
 20
140.9320385268
 30
0.0
 11
149.9023268641
 21
140.3219863704
 31
0.0
  0
LINE
  5
37B
330
20A
100
AcDbEntity
 67
     1
  8
7_ALL_FEATURES
  6
Continuous
 62
     7
100
AcDbLine
 10
173.0867963706
 20
139.9323853202
 30
0.0
 11
149.9286606157
 21
139.3223331638
 31
0.0
  0
SPLINE
  5
37C
330
20A
100
AcDbEntity
 67
     1
  8
7_ALL_FEATURES
  6
Continuous
 62
     7
100
AcDbSpline
 70
     0
 71
     3
 72
    16
 73
    12
 74
     0
 42
0.000000001
 43
0.0000001
 40
0.0
 40
0.0
 40
0.0
 40
0.0
 40
0.18392069
 40
0.3616560322
 40
0.525992076
 40
0.6713531937
 40
0.7930696408
 40
0.8876828632
 40
0.9245400585
 40
0.9548025569
 40
1.0
 40
1.0
 40
1.0
 40
1.0
 10
145.080559449
 20
139.6947936388
 30
0.0
 10
145.0797041264
 20
139.7272624631
 30
0.0
 10
145.0794290368
 20
139.7911536165
 30
0.0
 10
145.083159539
 20
139.8840022763
 30
0.0
 10
145.0909709045
 20
139.9697655946
 30
0.0
 10
145.102440052
 20
140.0451568837
 30
0.0
 10
145.1171496312
 20
140.1073767076
 30
0.0
 10
145.1323686617
 20
140.149646892
 30
0.0
 10
145.146757834
 20
140.1745073491
 30
0.0
 10
145.1590517399
 20
140.1899192231
 30
0.0
 10
145.1718506315
 20
140.1973506132
 30
0.0
 10
145.1798296568
 20
140.1975608038
 30
0.0
  0
LINE
  5
37D
330
20A
100
AcDbEntity
 67
     1
  8
7_ALL_FEATURES
  6
Continuous
 62
     7
100
AcDbLine
 10
149.5629738133
 20
140.3130468313
 30
0.0
 11
145.1798290946
 21
140.1975821447
 31
0.0
  0
SPLINE
  5
37E
330
20A
100
AcDbEntity
 67
     1
  8
7_ALL_FEATURES
  6
Continuous
 62
     7
100
AcDbSpline
 70
     0
 71
     3
 72
    16
 73
    12
 74
     0
 42
0.000000001
 43
0.0000001
 40
0.0
 40
0.0
 40
0.0
 40
0.0
 40
0.0451974431
 40
0.0754599415
 40
0.1123171368
 40
0.2069303592
 40
0.3286468063
 40
0.474007924
 40
0.6383439678
 40
0.81607931
 40
1.0
 40
1.0
 40
1.0
 40
1.0
 10
145.206162284
 20
139.1979502789
 30
0.0
 10
145.1981832587
 20
139.1977400883
 30
0.0
 10
145.1850108613
 20
139.2044873198
 30
0.0
 10
145.1719225828
 20
139.2192305537
 30
0.0
 10
145.1562444832
 20
139.2432989521
 30
0.0
 10
145.1388210674
 20
139.2847092402
 30
0.0
 10
145.1208560631
 20
139.3460683212
 30
0.0
 10
145.1054335286
 20
139.4207512058
 30
0.0
 10
145.0931176235
 20
139.5059843137
 30
0.0
 10
145.0845038841
 20
139.5985077906
 30
0.0
 10
145.0814147716
 20
139.6623248144
 30
0.0
 10
145.080559449
 20
139.6947936388
 30
0.0
  0
LINE
  5
37F
330
20A
100
AcDbEntity
 67
     1
  8
7_ALL_FEATURES
  6
Continuous
 62
     7
100
AcDbLine
 10
149.5893075649
 20
139.3133936247
 30
0.0
 11
145.2061628462
 21
139.197928938
 31
0.0
  0
LINE
  5
380
330
20A
100
AcDbEntity
 67
     1
  8
7_ALL_FEATURES
  6
Continuous
 62
     7
100
AcDbLine
 10
149.9023268641
 20
140.3219863704
 30
0.0
 11
149.5629738133
 21
140.3130468313
 31
0.0
  0
LINE
  5
381
330
20A
100
AcDbEntity
 67
     1
  8
7_ALL_FEATURES
  6
Continuous
 62
     7
100
AcDbLine
 10
149.9286606157
 20
139.3223331638
 30
0.0
 11
149.5893075649
 21
139.3133936247
 31
0.0
  0
LINE
  5
382
330
20A
100
AcDbEntity
 67
     1
  8
7_ALL_FEATURES
  6
Continuous
 62
     7
100
AcDbLine
 10
165.1349474121
 20
141.7395663298
 30
0.0
 11
147.6359110983
 21
142.2005414683
 31
0.0
  0
SPLINE
  5
383
330
20A
100
AcDbEntity
 67
     1
  8
7_ALL_FEATURES
  6
Continuous
 62
     7
100
AcDbSpline
 70
     0
 71
     3
 72
    11
 73
     7
 74
     0
 42
0.000000001
 43
0.0000001
 40
0.0
 40
0.0
 40
0.0
 40
0.0
 40
0.2528815872
 40
0.5034014282
 40
0.7521645058
 40
1.0
 40
1.0
 40
1.0
 40
1.0
 10
174.1351977738
 20
140.4915590669
 30
0.0
 10
174.073552482
 20
140.4084556455
 30
0.0
 10
173.9328745338
 20
140.2554344137
 30
0.0
 10
173.6779508348
 20
140.0785431751
 30
0.0
 10
173.3914486756
 20
139.9645675393
 30
0.0
 10
173.1881678496
 20
139.9350557376
 30
0.0
 10
173.0867963706
 20
139.9323853202
 30
0.0
  0
LINE
  5
384
330
20A
100
AcDbEntity
 67
     1
  8
7_ALL_FEATURES
  6
Continuous
 62
     7
100
AcDbLine
 10
165.1327265219
 20
140.7392779208
 30
0.0
 11
147.6095773468
 21
141.2008882617
 31
0.0
  0
SPLINE
  5
385
330
20A
100
AcDbEntity
 67
     1
  8
7_ALL_FEATURES
  6
Continuous
 62
     7
100
AcDbSpline
 70
     0
 71
     3
 72
    16
 73
    12
 74
     0
 42
0.000000001
 43
0.0000001
 40
0.0
 40
0.0
 40
0.0
 40
0.0
 40
0.1854052597
 40
0.3636527044
 40
0.5277944854
 40
0.6725496168
 40
0.793530679
 40
0.8875849192
 40
0.9242765079
 40
0.9545005341
 40
1.0
 40
1.0
 40
1.0
 40
1.0
 10
142.7916022457
 20
141.9346845733
 30
0.0
 10
142.7901878596
 20
141.9031255684
 30
0.0
 10
142.7887415383
 20
141.8411584591
 30
0.0
 10
142.7905889075
 20
141.7512151354
 30
0.0
 10
142.7964861081
 20
141.6683849343
 30
0.0
 10
142.8060877123
 20
141.5956999653
 30
0.0
 10
142.8190824249
 20
141.5357300244
 30
0.0
 10
142.8329612132
 20
141.4949215517
 30
0.0
 10
142.8463979056
 20
141.4708343986
 30
0.0
 10
142.8580577529
 20
141.4557719609
 30
0.0
 10
142.8702991786
 20
141.4483986668
 30
0.0
 10
142.8780411176
 20
141.4479936358
 30
0.0
  0
SPLINE
  5
386
330
20A
100
AcDbEntity
 67
     1
  8
7_ALL_FEATURES
  6
Continuous
 62
     7
100
AcDbSpline
 70
     0
 71
     3
 72
     9
 73
     5
 74
     0
 42
0.000000001
 43
0.0000001
 40
0.0
 40
0.0
 40
0.0
 40
0.0
 40
0.530948638
 40
1.0
 40
1.0
 40
1.0
 40
1.0
 10
173.4381666689
 20
141.4421617988
 30
0.0
 10
173.4402044534
 20
141.3648056425
 30
0.0
 10
173.4170179344
 20
141.2168828446
 30
0.0
 10
173.3390492084
 20
141.0881924123
 30
0.0
 10
173.2911405322
 20
141.0394267204
 30
0.0
  0
SPLINE
  5
387
330
20A
100
AcDbEntity
 67
     1
  8
7_ALL_FEATURES
  6
Continuous
 62
     7
100
AcDbSpline
 70
     0
 71
     3
 72
     9
 73
     5
 74
     0
 42
0.000000001
 43
0.0000001
 40
0.0
 40
0.0
 40
0.0
 40
0.0
 40
0.2673409734
 40
1.0
 40
1.0
 40
1.0
 40
1.0
 10
173.2911405322
 20
141.0394267204
 30
0.0
 10
173.2829109744
 20
141.0310499479
 30
0.0
 10
173.2508608963
 20
141.001000772
 30
0.0
 10
173.2137123336
 20
140.9762832488
 30
0.0
 10
173.1846524708
 20
140.9624556986
 30
0.0
  0
SPLINE
  5
388
330
20A
100
AcDbEntity
 67
     1
  8
7_ALL_FEATURES
  6
Continuous
 62
     7
100
AcDbSpline
 70
     0
 71
     3
 72
     9
 73
     5
 74
     0
 42
0.000000001
 43
0.0000001
 40
0.0
 40
0.0
 40
0.0
 40
0.0
 40
0.264218232
 40
1.0
 40
1.0
 40
1.0
 40
1.0
 10
173.1846524708
 20
140.9624556986
 30
0.0
 10
173.17444134
 20
140.9575969377
 30
0.0
 10
173.1349106615
 20
140.9411339628
 30
0.0
 10
173.0919421316
 20
140.932867788
 30
0.0
 10
173.060462619
 20
140.9320385268
 30
0.0
  0
LWPOLYLINE
  5
389
330
20A
100
AcDbEntity
 67
     1
  8
7_ALL_FEATURES
  6
Continuous
 62
     7
100
AcDbPolyline
 90
       33
 70
     0
 43
0.0
 10
173.4980132392
 20
134.564965874
 10
173.4968900351
 20
134.5707868621
 10
173.4938314628
 20
134.5893300275
 10
173.4896971034
 20
134.6188180839
 10
173.4848826827
 20
134.6585069711
 10
173.4795983396
 20
134.7080783289
 10
173.4739668901
 20
134.767426369
 10
173.468063987
 20
134.836572163
 10
173.46193603
 20
134.915645935
 10
173.4556102077
 20
135.0048765559
 10
173.4491048786
 20
135.1045086861
 10
173.4424330093
 20
135.2148009726
 10
173.4356038459
 20
135.3360247111
 10
173.4286240846
 20
135.4684557963
 10
173.4214985826
 20
135.6123299737
 10
173.4142314951
 20
135.7678312671
 10
173.406826347
 20
135.9351227116
 10
173.3992884695
 20
136.1142897769
 10
173.3916241821
 20
136.305349412
 10
173.3838394967
 20
136.5082781901
 10
173.375940182
 20
136.7230120452
 10
173.3679317715
 20
136.9494344224
 10
173.3598196628
 20
137.1873090082
 10
173.3516092312
 20
137.4363206664
 10
173.3433035304
 20
137.6961764411
 10
173.334898524
 20
137.9667728855
 10
173.3263887483
 20
138.2480364466
 10
173.3177686875
 20
138.5398786657
 10
173.3090327778
 20
138.842182184
 10
173.3001754254
 20
139.1547470339
 10
173.2911910228
 20
139.4773169019
 10
173.2820739387
 20
139.8095930048
 10
173.2779888761
 20
139.9603802562
  0
LWPOLYLINE
  5
38A
330
20A
100
AcDbEntity
 67
     1
  8
7_ALL_FEATURES
  6
Continuous
 62
     7
100
AcDbPolyline
 90
       42
 70
     0
 43
0.0
 10
173.2499340029
 20
141.0096420795
 10
173.2441654806
 20
141.2278778316
 10
173.2342998641
 20
141.602120065
 10
173.22427007
 20
141.9827647736
 10
173.2140975847
 20
142.3679306053
 10
173.2038171141
 20
142.7551564349
 10
173.1934634728
 20
143.1419430985
 10
173.1830714509
 20
143.5258170818
 10
173.1726758067
 20
143.9043454267
 10
173.16231126
 20
144.2751678079
 10
173.1520124845
 20
144.6360338548
 10
173.1418141118
 20
144.9848535733
 10
173.1317507331
 20
145.3197997266
 10
173.1218568639
 20
145.6392750816
 10
173.1121669485
 20
145.9419020307
 10
173.1027087767
 20
146.226734786
 10
173.093476169
 20
146.4940088135
 10
173.0844520141
 20
146.7443633
 10
173.0756189528
 20
146.9784993456
 10
173.0669593203
 20
147.1970958501
 10
173.0584550584
 20
147.4007961313
 10
173.0500875485
 20
147.5902023477
 10
173.0418425224
 20
147.7657699471
 10
173.033721198
 20
147.9276846765
 10
173.0257263295
 20
148.0761892263
 10
173.0178585845
 20
148.2115991482
 10
173.0101155419
 20
148.3343050272
 10
173.0024899649
 20
148.4447795311
 10
172.9949668209
 20
148.5435892803
 10
172.9875179276
 20
148.6314150392
 10
172.9800994981
 20
148.7090255398
 10
172.9726413193
 20
148.7773556657
 10
172.9649995638
 20
148.8377048616
 10
172.9568649647
 20
148.8919725255
 10
172.9476053406
 20
148.9427748042
 10
172.9357826945
 20
148.9941990435
 10
172.9176164849
 20
149.0536079514
 10
172.8830144999
 20
149.1322855813
 10
172.810100135
 20
149.236338998
 10
172.6880881101
 20
149.3360059757
 10
172.528742408
 20
149.3959537442
 10
172.4327180082
 20
149.4052519587
  0
LINE
  5
38B
330
20A
100
AcDbEntity
 67
     1
  8
7_ALL_FEATURES
  6
Continuous
 62
     7
100
AcDbLine
 10
173.4328924216
 20
141.642377032
 30
0.0
 11
173.4381666689
 21
141.4421617988
 31
0.0
  0
LWPOLYLINE
  5
38C
330
20A
100
AcDbEntity
 67
     1
  8
7_ALL_FEATURES
  6
Continuous
 62
     7
100
AcDbPolyline
 90
        7
 70
     0
 43
0.0
 10
174.1327265219
 20
149.0041361788
 10
174.1180437003
 20
149.0524471873
 10
174.0836292701
 20
149.1311559982
 10
174.0109169727
 20
149.2354452781
 10
173.8886835679
 20
149.3356744756
 10
173.7289041746
 20
149.3959463153
 10
173.632691625
 20
149.4052809619
  0
LWPOLYLINE
  5
38D
330
20A
100
AcDbEntity
 67
     1
  8
7_ALL_FEATURES
  6
Continuous
 62
     7
100
AcDbPolyline
 90
       16
 70
     0
 43
0.0
 10
173.0327268684
 20
133.9053210291
 10
173.1285543151
 20
133.9145802055
 10
173.2879342727
 20
133.9744656392
 10
173.4100775186
 20
134.0741785558
 10
173.4831035494
 20
134.1783908482
 10
173.5177860635
 20
134.2573453326
 10
173.5359441705
 20
134.3168892863
 10
173.5477308959
 20
134.3683302183
 10
173.5569586395
 20
134.4191187974
 10
173.5650665924
 20
134.4733478377
 10
173.5726780897
 20
134.5335580386
 10
173.5801067002
 20
134.6016557036
 10
173.5874977126
 20
134.6789341256
 10
173.5949244318
 20
134.7663678593
 10
173.6024285046
 20
134.8647802468
 10
173.6052256896
 20
134.9052593159
  0
LWPOLYLINE
  5
38E
330
20A
100
AcDbEntity
 67
     1
  8
7_ALL_FEATURES
  6
Continuous
 62
     7
100
AcDbPolyline
 90
       38
 70
     0
 43
0.0
 10
173.1673930639
 20
148.7458092171
 10
173.1673525415
 20
148.7459883819
 10
173.1687740646
 20
148.7385715218
 10
173.1719920397
 20
148.7187176193
 10
173.1762401363
 20
148.6879369409
 10
173.1811417519
 20
148.6469439075
 10
173.1865024845
 20
148.5959595705
 10
173.192208149
 20
148.5350210802
 10
173.1981859096
 20
148.4640840353
 10
173.2043902356
 20
148.3830092827
 10
173.2107935652
 20
148.2915673324
 10
173.217377685
 20
148.1895004177
 10
173.2241292204
 20
148.0765666664
 10
173.2310382326
 20
147.9525234875
 10
173.2380972001
 20
147.8171292719
 10
173.2453003611
 20
147.6701532181
 10
173.2526430372
 20
147.5114126839
 10
173.2601211044
 20
147.3407592903
 10
173.2677310858
 20
147.1580644829
 10
173.2754704579
 20
146.9632160479
 10
173.2833370396
 20
146.756164946
 10
173.2913288098
 20
146.5369074843
 10
173.2994439493
 20
146.3054706246
 10
173.3076808097
 20
146.0619174114
 10
173.3160378715
 20
145.8063834943
 10
173.3245136499
 20
145.5390645389
 10
173.3331066775
 20
145.2601993645
 10
173.3418155475
 20
144.9700836784
 10
173.3506388894
 20
144.6690945834
 10
173.3595753667
 20
144.357663271
 10
173.3686236788
 20
144.0362711998
 10
173.3777825575
 20
143.7054722335
 10
173.3870507543
 20
143.3658984721
 10
173.3964270429
 20
143.0182387518
 10
173.4059102187
 20
142.6632414062
 10
173.4154990962
 20
142.3017300004
 10
173.4251925084
 20
141.9345930541
 10
173.4328924267
 20
141.6423768387
  0
LWPOLYLINE
  5
38F
330
20A
100
AcDbEntity
 67
     1
  8
7_ALL_FEATURES
  6
Continuous
 62
     7
100
AcDbPolyline
 90
       16
 70
     0
 43
0.0
 10
172.432772664
 20
149.4052519741
 10
172.3442343347
 20
149.3973504876
 10
172.1851331172
 20
149.3404339414
 10
172.0621590481
 20
149.2437175234
 10
171.9868704424
 20
149.1403608638
 10
171.9505365421
 20
149.060977683
 10
171.9315349887
 20
149.0011610761
 10
171.91939587
 20
148.9502259393
 10
171.9100556063
 20
148.9007168439
 10
171.9019594628
 20
148.8484799676
 10
171.8944483485
 20
148.7910831991
 10
171.8871734962
 20
148.7265900692
 10
171.8799717421
 20
148.6536954541
 10
171.8727614298
 20
148.5714809328
 10
171.8654954633
 20
148.4792189426
 10
171.8602145609
 20
148.4052593159
  0
LWPOLYLINE
  5
390
330
20A
100
AcDbEntity
 67
     1
  8
7_ALL_FEATURES
  6
Continuous
 62
     7
100
AcDbPolyline
 90
       16
 70
     0
 43
0.0
 10
173.632747539
 20
149.4052809752
 10
173.5430981244
 20
149.3971801606
 10
173.383354351
 20
149.339478492
 10
173.2603226045
 20
149.2418110987
 10
173.1855540378
 20
149.1380750535
 10
173.1496128025
 20
149.0585842074
 10
173.1307988951
 20
148.9985289946
 10
173.1187396447
 20
148.9471408664
 10
173.1094102388
 20
148.8968795756
 10
173.1012858011
 20
148.8435965382
 10
173.0937031989
 20
148.7847138858
 10
173.0863295838
 20
148.718311598
 10
173.0790107264
 20
148.643103964
 10
173.0716686162
 20
148.5581335459
 10
173.0642580617
 20
148.4625863788
 10
173.0602307012
 20
148.4052593159
  0
LWPOLYLINE
  5
391
330
20A
100
AcDbEntity
 67
     1
  8
7_ALL_FEATURES
  6
Continuous
 62
     7
100
AcDbPolyline
 90
       39
 70
     0
 43
0.0
 10
171.9673606139
 20
148.7458917214
 10
171.9687702167
 20
148.7385285705
 10
171.9720050748
 20
148.7185698166
 10
171.9762805964
 20
148.6875722403
 10
171.9812229967
 20
148.646187911
 10
171.9866307222
 20
148.5946589018
 10
171.9923840519
 20
148.5330333657
 10
171.9984094705
 20
148.461248307
 10
172.0046621633
 20
148.3791765032
 10
172.0111140287
 20
148.2866257466
 10
172.0177462302
 20
148.1833691422
 10
172.0245456055
 20
148.0691616419
 10
172.0315026071
 20
147.9437505759
 10
172.0386100698
 20
147.8068826422
 10
172.0458624485
 20
147.6583087127
 10
172.0532554202
 20
147.4977914481
 10
172.0607845014
 20
147.3251896133
 10
172.0684445011
 20
147.1404544673
 10
172.0762308071
 20
146.943569013
 10
172.0841391527
 20
146.7345512843
 10
172.0921655306
 20
146.5134553539
 10
172.1003061374
 20
146.2803725693
 10
172.1085573728
 20
146.0354675614
 10
172.116915896
 20
145.7789973622
 10
172.125381604
 20
145.5111668624
 10
172.1339569026
 20
145.2321340935
 10
172.1426443227
 20
144.9420818248
 10
172.1514464443
 20
144.6412224597
 10
172.160365895
 20
144.3298171617
 10
172.1694053262
 20
144.0082252661
 10
172.1785674068
 20
143.6768662211
 10
172.1878548308
 20
143.3362102867
 10
172.1972703132
 20
142.9867828098
 10
172.2068165884
 20
142.6291687385
 10
172.2164964085
 20
142.264027285
 10
172.2263125423
 20
141.8921109882
 10
172.2362673925
 20
141.5142674419
 10
172.246349136
 20
141.131966544
 10
172.2522049639
 20
140.9107466866
  0
LWPOLYLINE
  5
392
330
20A
100
AcDbEntity
 67
     1
  8
7_ALL_FEATURES
  6
Continuous
 62
     7
100
AcDbPolyline
 90
       36
 70
     0
 43
0.0
 10
172.2789554071
 20
139.9111044568
 10
172.2873356452
 20
139.6035626704
 10
172.2975920894
 20
139.233028667
 10
172.3077905462
 20
138.8714589358
 10
172.3179001337
 20
138.5208422401
 10
172.3278900036
 20
138.1829906931
 10
172.3377293568
 20
137.8594577414
 10
172.3473874663
 20
137.5515905093
 10
172.3568345092
 20
137.2605055523
 10
172.366061873
 20
136.9864892189
 10
172.3750833292
 20
136.7290810707
 10
172.3839138176
 20
136.4877575554
 10
172.3925684381
 20
136.2619004041
 10
172.4010626762
 20
136.0508842404
 10
172.4094124269
 20
135.8541161024
 10
172.4176336797
 20
135.671049685
 10
172.4257327756
 20
135.5013876514
 10
172.4337072726
 20
135.3450034553
 10
172.4415555706
 20
135.2016986125
 10
172.4492778656
 20
135.071139366
 10
172.4568778812
 20
134.9528959206
 10
172.4643643172
 20
134.8464647046
 10
172.4717533859
 20
134.7512583123
 10
172.4790733249
 20
134.6665723152
 10
172.4863696649
 20
134.5916096145
 10
172.4937242506
 20
134.5253988835
 10
172.5012982769
 20
134.4666335525
 10
172.5094334642
 20
134.4133826437
 10
172.5187815304
 20
134.3631583552
 10
172.5308610078
 20
134.3118251815
 10
172.5496540136
 20
134.2519369539
 10
172.5855186047
 20
134.1726324739
 10
172.660218131
 20
134.0689355218
 10
172.7833298106
 20
133.971156352
 10
172.9432013794
 20
133.9134096854
 10
173.0327825212
 20
133.9053210181
  0
SPLINE
  5
393
330
20A
100
AcDbEntity
 67
     1
  8
7_ALL_FEATURES
  6
Continuous
 62
     9
100
AcDbSpline
 70
     0
 71
     3
 72
    16
 73
    12
 74
     0
 42
0.000000001
 43
0.0000001
 40
0.0
 40
0.0
 40
0.0
 40
0.0
 40
0.18392069
 40
0.3616560322
 40
0.525992076
 40
0.6713531937
 40
0.7930696408
 40
0.8876828632
 40
0.9245400585
 40
0.9548025569
 40
1.0
 40
1.0
 40
1.0
 40
1.0
 10
149.4637041677
 20
139.8102583254
 30
0.0
 10
149.4628488451
 20
139.8427271497
 30
0.0
 10
149.4625737555
 20
139.9066183031
 30
0.0
 10
149.4663042577
 20
139.9994669629
 30
0.0
 10
149.4741156232
 20
140.0852302812
 30
0.0
 10
149.4855847706
 20
140.1606215703
 30
0.0
 10
149.5002943499
 20
140.2228413942
 30
0.0
 10
149.5155133804
 20
140.2651115786
 30
0.0
 10
149.5299025527
 20
140.2899720357
 30
0.0
 10
149.5421964586
 20
140.3053839097
 30
0.0
 10
149.5549953502
 20
140.3128152999
 30
0.0
 10
149.5629743755
 20
140.3130254904
 30
0.0
  0
SPLINE
  5
394
330
20A
100
AcDbEntity
 67
     1
  8
7_ALL_FEATURES
  6
Continuous
 62
     9
100
AcDbSpline
 70
     0
 71
     3
 72
    16
 73
    12
 74
     0
 42
0.000000001
 43
0.0000001
 40
0.0
 40
0.0
 40
0.0
 40
0.0
 40
0.0451974431
 40
0.0754599415
 40
0.1123171368
 40
0.2069303592
 40
0.3286468063
 40
0.474007924
 40
0.6383439678
 40
0.81607931
 40
1.0
 40
1.0
 40
1.0
 40
1.0
 10
149.5893070027
 20
139.3134149655
 30
0.0
 10
149.5813279774
 20
139.313204775
 30
0.0
 10
149.56815558
 20
139.3199520064
 30
0.0
 10
149.5550673015
 20
139.3346952404
 30
0.0
 10
149.5393892019
 20
139.3587636387
 30
0.0
 10
149.5219657861
 20
139.4001739268
 30
0.0
 10
149.5040007817
 20
139.4615330078
 30
0.0
 10
149.4885782473
 20
139.5362158924
 30
0.0
 10
149.4762623422
 20
139.6214490003
 30
0.0
 10
149.4676486028
 20
139.7139724772
 30
0.0
 10
149.4645594903
 20
139.777789501
 30
0.0
 10
149.4637041677
 20
139.8102583254
 30
0.0
  0
LINE
  5
395
330
20A
100
AcDbEntity
 67
     1
  8
7_ALL_FEATURES
  6
Continuous
 62
     9
100
AcDbLine
 10
173.4926445077
 20
141.4435969023
 30
0.0
 11
173.4381666689
 21
141.4421617988
 31
0.0
  0
SPLINE
  5
396
330
20A
100
AcDbEntity
 67
     1
  8
7_ALL_FEATURES
  6
Continuous
 62
     9
100
AcDbSpline
 70
     0
 71
     3
 72
    21
 73
    17
 74
     0
 42
0.000000001
 43
0.0000001
 40
0.0
 40
0.0
 40
0.0
 40
0.0
 40
0.03837534
 40
0.0817896964
 40
0.1331430934
 40
0.1933533897
 40
0.2618605929
 40
0.3372233725
 40
0.5
 40
0.6627766275
 40
0.7381394071
 40
0.8066466103
 40
0.8668569066
 40
0.9182103036
 40
0.96162466
 40
1.0
 40
1.0
 40
1.0
 40
1.0
 10
173.0867963706
 20
139.9323853202
 30
0.0
 10
173.1018888551
 20
139.9327828998
 30
0.0
 10
173.1341010828
 20
139.9412182923
 30
0.0
 10
173.1767216196
 20
139.9731617295
 30
0.0
 10
173.2143255071
 20
140.0217990037
 30
0.0
 10
173.246346202
 20
140.0853429745
 30
0.0
 10
173.2719159107
 20
140.1616840315
 30
0.0
 10
173.2967920565
 20
140.2799483007
 30
0.0
 10
173.3059509804
 20
140.4383319421
 30
0.0
 10
173.2884659812
 20
140.5960137058
 30
0.0
 10
173.2573978133
 20
140.7128042402
 30
0.0
 10
173.2278442695
 20
140.7876931916
 30
0.0
 10
173.1925224435
 20
140.849463166
 30
0.0
 10
173.1524099946
 20
140.8960531674
 30
0.0
 10
173.108166772
 20
140.9257083625
 30
0.0
 10
173.0755551035
 20
140.9324361064
 30
0.0
 10
173.060462619
 20
140.9320385268
 30
0.0
  0
SPLINE
  5
397
330
20A
100
AcDbEntity
 67
     1
  8
7_ALL_FEATURES
  6
Continuous
 62
     9
100
AcDbSpline
 70
     0
 71
     3
 72
    14
 73
    10
 74
     0
 42
0.000000001
 43
0.0000001
 40
0.0
 40
0.0
 40
0.0
 40
0.0
 40
0.07733878
 40
0.1644125518
 40
0.2669004667
 40
0.3867883439
 40
0.5231539459
 40
0.673446997
 40
1.0
 40
1.0
 40
1.0
 40
1.0
 10
147.6359110983
 20
142.2005414683
 30
0.0
 10
147.6212246145
 20
142.2009283542
 30
0.0
 10
147.5895829654
 20
142.1946009409
 30
0.0
 10
147.5463622783
 20
142.1665422634
 30
0.0
 10
147.5069893184
 20
142.1222295106
 30
0.0
 10
147.4721078521
 20
142.0633394204
 30
0.0
 10
147.4425496736
 20
141.9917565483
 30
0.0
 10
147.4108268662
 20
141.8794913857
 30
0.0
 10
147.3993269966
 20
141.7889574374
 30
0.0
 10
147.3965496262
 20
141.7269863504
 30
0.0
  0
ARC
  5
398
330
20A
100
AcDbEntity
 67
     1
  8
7_ALL_FEATURES
  6
Continuous
 62
     9
100
AcDbCircle
 10
147.61231072
 20
141.3042844578
 30
0.0
 40
0.1034323193
100
AcDbArc
 50
263.3722577144
 51
268.4856862395
  0
SPLINE
  5
399
330
20A
100
AcDbEntity
 67
     1
  8
7_ALL_FEATURES
  6
Continuous
 62
     9
100
AcDbSpline
 70
     0
 71
     3
 72
    11
 73
     7
 74
     0
 42
0.000000001
 43
0.0000001
 40
0.0
 40
0.0
 40
0.0
 40
0.0
 40
0.2969337001
 40
0.5740543294
 40
0.8120001755
 40
1.0
 40
1.0
 40
1.0
 40
1.0
 10
147.3965496262
 20
141.7269863504
 30
0.0
 10
147.3942275304
 20
141.6751737433
 30
0.0
 10
147.396690486
 20
141.5745624087
 30
0.0
 10
147.4209604304
 20
141.4341412242
 30
0.0
 10
147.4630430224
 20
141.3182010693
 30
0.0
 10
147.5066719347
 20
141.2555031105
 30
0.0
 10
147.5315697191
 20
141.2340929039
 30
0.0
  0
SPLINE
  5
39A
330
20A
100
AcDbEntity
 67
     1
  8
7_ALL_FEATURES
  6
Continuous
 62
     9
100
AcDbSpline
 70
     0
 71
     3
 72
     9
 73
     5
 74
     0
 42
0.000000001
 43
0.0000001
 40
0.0
 40
0.0
 40
0.0
 40
0.0
 40
0.2722153124
 40
1.0
 40
1.0
 40
1.0
 40
1.0
 10
147.5315697191
 20
141.2340929039
 30
0.0
 10
147.5368482942
 20
141.2295537296
 30
0.0
 10
147.5571048445
 20
141.2139974966
 30
0.0
 10
147.5818840804
 20
141.2036907534
 30
0.0
 10
147.6003727559
 20
141.2015433769
 30
0.0
  0
SPLINE
  5
39B
330
20A
100
AcDbEntity
 67
     1
  8
7_ALL_FEATURES
  6
Continuous
 62
     7
100
AcDbSpline
 70
     0
 71
     3
 72
    16
 73
    12
 74
     0
 42
0.000000001
 43
0.0000001
 40
0.0
 40
0.0
 40
0.0
 40
0.0
 40
0.1854052597
 40
0.3636527044
 40
0.5277944854
 40
0.6725496168
 40
0.793530679
 40
0.8875849192
 40
0.9242765079
 40
0.9545005341
 40
1.0
 40
1.0
 40
1.0
 40
1.0
 10
143.0175813541
 20
141.9598527484
 30
0.0
 10
143.0189957403
 20
141.9914117533
 30
0.0
 10
143.0204420615
 20
142.0533788625
 30
0.0
 10
143.0185946924
 20
142.1433221863
 30
0.0
 10
143.0126974917
 20
142.2261523873
 30
0.0
 10
143.0030958876
 20
142.2988373564
 30
0.0
 10
142.990101175
 20
142.3588072973
 30
0.0
 10
142.9762223867
 20
142.39961577
 30
0.0
 10
142.9627856943
 20
142.4237029231
 30
0.0
 10
142.951125847
 20
142.4387653608
 30
0.0
 10
142.9388844213
 20
142.4461386548
 30
0.0
 10
142.9311424822
 20
142.4465436858
 30
0.0
  0
SPLINE
  5
39C
330
20A
100
AcDbEntity
 67
     1
  8
7_ALL_FEATURES
  6
Continuous
 62
     9
100
AcDbSpline
 70
     0
 71
     3
 72
    16
 73
    12
 74
     0
 42
0.000000001
 43
0.0000001
 40
0.0
 40
0.0
 40
0.0
 40
0.0
 40
0.1854052947
 40
0.3636527688
 40
0.5277945691
 40
0.6725497065
 40
0.7935307592
 40
0.8875849737
 40
0.9242765454
 40
0.954500554
 40
1.0
 40
1.0
 40
1.0
 40
1.0
 10
147.3965496262
 20
141.7269863504
 30
0.0
 10
147.3979640127
 20
141.7585453642
 30
0.0
 10
147.399410334
 20
141.8205124902
 30
0.0
 10
147.3975629627
 20
141.9104558365
 30
0.0
 10
147.3916657577
 20
141.9932860544
 30
0.0
 10
147.3820641476
 20
142.0659710323
 30
0.0
 10
147.3690694277
 20
142.1259409723
 30
0.0
 10
147.355190632
 20
142.166749438
 30
0.0
 10
147.3417539317
 20
142.1908365779
 30
0.0
 10
147.3300940784
 20
142.2058990023
 30
0.0
 10
147.3178526424
 20
142.2132722745
 30
0.0
 10
147.3101107053
 20
142.2136772904
 30
0.0
  0
SPLINE
  5
39D
330
20A
100
AcDbEntity
 67
     1
  8
7_ALL_FEATURES
  6
Continuous
 62
     7
100
AcDbSpline
 70
     0
 71
     3
 72
    16
 73
    12
 74
     0
 42
0.000000001
 43
0.0000001
 40
0.0
 40
0.0
 40
0.0
 40
0.0
 40
0.0447942247
 40
0.0750631226
 40
0.1120744688
 40
0.2072618064
 40
0.3297466503
 40
0.4757603073
 40
0.6403300232
 40
0.8175723125
 40
1.0
 40
1.0
 40
1.0
 40
1.0
 10
142.8780411176
 20
141.4479936358
 30
0.0
 10
142.8862156604
 20
141.4475659724
 30
0.0
 10
142.8999094655
 20
141.4543547879
 30
0.0
 10
142.9136120954
 20
141.4693870105
 30
0.0
 10
142.9302660219
 20
141.4941744255
 30
0.0
 10
142.9491120551
 20
141.5369602888
 30
0.0
 10
142.9689532691
 20
141.6004569586
 30
0.0
 10
142.986453468
 20
141.6777108015
 30
0.0
 10
143.0009226497
 20
141.7657149997
 30
0.0
 10
143.0116626232
 20
141.8609465673
 30
0.0
 10
143.0160887842
 20
141.9265492386
 30
0.0
 10
143.0175813541
 20
141.9598527484
 30
0.0
  0
LINE
  5
39E
330
20A
100
AcDbEntity
 67
     1
  8
7_ALL_FEATURES
  6
Continuous
 62
     9
100
AcDbLine
 10
174.1327265219
 20
141.4604585106
 30
0.0
 11
173.4926445077
 21
141.4435969023
 31
0.0
  0
SPLINE
  5
39F
330
20A
100
AcDbEntity
 67
     1
  8
7_ALL_FEATURES
  6
Continuous
 62
     9
100
AcDbSpline
 70
     0
 71
     3
 72
    16
 73
    12
 74
     0
 42
0.000000001
 43
0.0000001
 40
0.0
 40
0.0
 40
0.0
 40
0.0
 40
0.0447942453
 40
0.0750631611
 40
0.1120745242
 40
0.2072618866
 40
0.3297467392
 40
0.4757603895
 40
0.6403300857
 40
0.817572346
 40
1.0
 40
1.0
 40
1.0
 40
1.0
 10
147.2570094386
 20
141.2151272353
 30
0.0
 10
147.2651839853
 20
141.2146995876
 30
0.0
 10
147.2788777818
 20
141.2214884267
 30
0.0
 10
147.2925804073
 20
141.2365206638
 30
0.0
 10
147.3092343272
 20
141.2613080931
 30
0.0
 10
147.3280803538
 20
141.3040939642
 30
0.0
 10
147.3479215605
 20
141.3675906356
 30
0.0
 10
147.3654217524
 20
141.4448444695
 30
0.0
 10
147.3798909281
 20
141.5328486507
 30
0.0
 10
147.3906308972
 20
141.6280801953
 30
0.0
 10
147.3950570567
 20
141.6936828497
 30
0.0
 10
147.3965496262
 20
141.7269863504
 30
0.0
  0
LINE
  5
3A0
330
20A
100
AcDbEntity
 67
     1
  8
7_ALL_FEATURES
  6
Continuous
 62
     9
100
AcDbLine
 10
174.134040157
 20
141.6605528776
 30
0.0
 11
173.9327265221
 21
141.6552593113
 31
0.0
  0
LWPOLYLINE
  5
3A1
330
20A
100
AcDbEntity
 67
     1
  8
7_ALL_FEATURES
  6
Continuous
 62
     9
100
AcDbPolyline
 90
        3
 70
     0
 43
0.0
 10
174.1327265219
 20
141.6605231645
 10
174.0618862408
 20
141.6586618415
 10
173.9327265221
 20
141.6552593113
  0
SPLINE
  5
3A2
330
20A
100
AcDbEntity
 67
     1
  8
7_ALL_FEATURES
  6
Continuous
 62
     9
100
AcDbSpline
 70
     0
 71
     3
 72
    14
 73
    10
 74
     0
 42
0.000000001
 43
0.0000001
 40
0.0
 40
0.0
 40
0.0
 40
0.0
 40
0.3255932137
 40
0.476298927
 40
0.6132814801
 40
0.7337121509
 40
0.8364255078
 40
0.9232700378
 40
1.0
 40
1.0
 40
1.0
 40
1.0
 10
150.1424102694
 20
139.8281374036
 30
0.0
 10
150.1440968813
 20
139.7641120782
 30
0.0
 10
150.1386521016
 20
139.6698567069
 30
0.0
 10
150.113789925
 20
139.5516260344
 30
0.0
 10
150.0881931756
 20
139.4752976897
 30
0.0
 10
150.0561970902
 20
139.4117489523
 30
0.0
 10
150.0185896544
 20
139.3631002449
 30
0.0
 10
149.9759541265
 20
139.3311823294
 30
0.0
 10
149.9437489548
 20
139.3227306342
 30
0.0
 10
149.9286606157
 20
139.3223331638
 30
0.0
  0
SPLINE
  5
3A3
330
20A
100
AcDbEntity
 67
     1
  8
7_ALL_FEATURES
  6
Continuous
 62
     9
100
AcDbSpline
 70
     0
 71
     3
 72
    14
 73
    10
 74
     0
 42
0.000000001
 43
0.0000001
 40
0.0
 40
0.0
 40
0.0
 40
0.0
 40
0.0767299622
 40
0.1635744922
 40
0.2662878491
 40
0.3867185199
 40
0.523701073
 40
0.6744067863
 40
1.0
 40
1.0
 40
1.0
 40
1.0
 10
149.9023268641
 20
140.3219863704
 30
0.0
 10
149.9174152032
 20
140.3223838408
 30
0.0
 10
149.9500206838
 20
140.3156394453
 30
0.0
 10
149.9942775331
 20
140.2860105259
 30
0.0
 10
150.0343941272
 20
140.2394092938
 30
0.0
 10
150.0696916288
 20
140.1776332638
 30
0.0
 10
150.0992715065
 20
140.1027584308
 30
0.0
 10
150.1303239558
 20
139.986000711
 30
0.0
 10
150.1407236574
 20
139.8921627291
 30
0.0
 10
150.1424102694
 20
139.8281374036
 30
0.0
  0
LINE
  5
3A4
330
20A
100
AcDbEntity
 67
     1
  8
7_ALL_FEATURES
  6
Continuous
 62
     9
100
AcDbLine
 10
173.9327265219
 20
141.6552593161
 30
0.0
 11
173.4328926351
 21
141.6423775796
 31
0.0
  0
LWPOLYLINE
  5
3A5
330
20A
100
AcDbEntity
 67
     1
  8
7_ALL_FEATURES
  6
Continuous
 62
     9
100
AcDbPolyline
 90
        7
 70
     0
 43
0.0
 10
173.9327265219
 20
141.6552593161
 10
173.8043611949
 20
141.6518774396
 10
173.6846601916
 20
141.6487260061
 10
173.5817025355
 20
141.6460107276
 10
173.501947549
 20
141.6439161562
 10
173.4512520813
 20
141.6425696354
 10
173.4328924216
 20
141.642377032
  0
DIMENSION
  5
3A6
330
20A
100
AcDbEntity
 67
     1
  8
0
  6
Continuous
 62
     2
100
AcDbDimension
280
     0
  2
*D1
 10
85.4217589834
 20
149.7148003023
 30
0.0
 11
77.3473936613
 21
157.5265870241
 31
0.0
 70
   163
  1
%%c<>
 71
     3
 42
30.0
 73
     0
 74
     0
 75
     0
  3
DIMSTYLE_1
100
AcDbDiametricDimension
 15
110.7234426498
 25
133.5957183295
 35
0.0
 40
0.0
  0
DIMENSION
  5
3A7
330
20A
100
AcDbEntity
 67
     1
  8
0
  6
Continuous
 62
     2
100
AcDbDimension
280
     0
  2
*D2
 10
177.1327265219
 20
162.779309981
 30
0.0
 11
183.5630669861
 21
162.779309981
 31
0.0
 70
   160
 71
     1
 42
2.0
 73
     0
 74
     0
 75
     0
  3
DIMSTYLE_2
100
AcDbAlignedDimension
 13
175.1327265219
 23
156.6552593159
 33
0.0
 14
177.1327265219
 24
156.1552593159
 34
0.0
100
AcDbRotatedDimension
  0
DIMENSION
  5
3A8
330
20A
100
AcDbEntity
 67
     1
  8
0
  6
Continuous
 62
     2
100
AcDbDimension
280
     0
  2
*D3
 10
76.890002345
 20
71.6947901633
 30
0.0
 11
76.890002345
 21
79.3373031153
 31
0.0
 70
   160
 71
     2
 42
15.0
 73
     0
 74
     0
 75
     0
  3
DIMSTYLE_3
100
AcDbAlignedDimension
 13
81.9079506449
 23
86.6947901633
 33
0.0
 14
82.4602008472
 24
71.6947901633
 34
0.0
 50
270.0
100
AcDbRotatedDimension
  0
DIMENSION
  5
3A9
330
20A
100
AcDbEntity
 67
     1
  8
0
  6
Continuous
 62
     2
100
AcDbDimension
280
     0
  2
*D4
 10
106.0726008166
 20
95.0009145359
 30
0.0
 11
98.0726008166
 21
95.0009145359
 31
0.0
 70
   160
  1
%%c<>
 71
     2
 42
16.0
 73
     0
 74
     0
 75
     0
  3
DIMSTYLE_3
100
AcDbAlignedDimension
 13
90.0726008166
 23
88.1485160276
 33
0.0
 14
106.0726008166
 24
88.4992612004
 34
0.0
100
AcDbRotatedDimension
  0
INSERT
  5
3AA
330
20A
100
AcDbEntity
 67
     1
  8
0
  6
Continuous
 62
     2
100
AcDbBlockReference
  2
LOGO2_BL0
 10
207.8284587569
 20
39.54351784
 30
0.0
  0
ACAD_TABLE
  5
3AB
330
20A
100
AcDbEntity
 67
     1
  8
0
  6
Continuous
 62
     2
160
              3356
310
1C0D000019000000880000001D000000000000000000F03F00000000000000000000000000000000D820BAC1134068400000000000000000000000000000F03F0000000000000000D9CB19FE91854A4000000000000000000000000000000000000000000000F03F0000000000000000000000000000000000000000000000
310
000000000000000000000000000000F03F54000000200000000200000000000000000000000000000000000000000000000000000000000000008056400000000000000000000000000000000000000000000000000000000000000000000000000000F03F5400000020000000020000000000000000000000000000000000
310
00000000000000000000000000000000000000000000000044C0000000000000000000000000000000000000000000000000000000000000F03F5400000020000000020000000000000000003E4000000000000018C00000000000000000000000000080564000000000000018C00000000000000000000000000000000000
310
00000000000000000000000000F03F5400000020000000020000000000000000003E4000000000000028C00000000000000000000000000080564000000000000028C0000000000000000000000000000000000000000000000000000000000000F03F5400000020000000020000000000000000003E4000000000000036C0
310
0000000000000000000000000080564000000000000036C0000000000000000000000000000000000000000000000000000000000000F03F54000000200000000200000000000000000000000000000000003BC0000000000000000000000000008056400000000000003BC000000000000000000000000000000000000000
310
0000000000000000000000F03F540000002000000002000000000000000000000000000000000044C00000000000000000000000000080564000000000000044C0000000000000000000000000000000000000000000000000000000000000F03F5400000020000000020000000000000000003E4000000000000000000000
310
0000000000000000000000003E400000000000003BC0000000000000000000000000000000000000000000000000000000000000F03F540000002000000002000000000000000080514000000000000000000000000000000000000000000080514000000000000028C0000000000000000000000000000000000000000000
310
000000000000000000F03F540000002000000002000000000000000080564000000000000000000000000000000000000000000080564000000000000044C0000000000000000000000000000000000000000000000000000000000000F03F0C000000100000000B000000BC00000026000000CDCCCCCCCC7C3F4000000000
310
000012C0000000000000000000000000000000000000000000000000000000000000F03F000000000000F03F000000000000000000000000000000003100370034003900300032000000000006000000010000000000000000000840333333333333EB3F0000000000000000000000000000F03F0000000000000000000000
310
0000000000000000000000000000000000000000000000000000000000740078007400000000000000BC000000260000003333333333DF514000000000000013C0000000000000000000000000000000000000000000000000000000000000F03F000000000000F03F00000000000000000000000000000000520065007600
310
3A00300030000000000006000000010000000000000000000C40333333333333EB3F0000000000000000000000000000F03F00000000000000000000000000000000000000000000000000000000000000000000000000000000740078007400000000000000C000000026000000CDCCCCCCCC7C3F4000000000008026C000
310
0000000000000000000000000000000000000000000000000000000000F03F000000000000F03F000000000000000000000000000000005300630061006C0065003A0031003A003100000009000000010000000000000000000C40333333333333EB3F0000000000000000000000000000F03F000000000000000000000000
310
00000000000000000000000000000000000000000000000000000000740078007400000000000000B4000000260000003333333333DF514000000000008025C0000000000000000000000000000000000000000000000000000000000000F03F000000000000F03F0000000000000000000000000000000041003400000000
310
0002000000010000000000000000000C40333333333333EB3F0000000000000000000000000000F03F00000000000000000000000000000000000000000000000000000000000000000000000000000000740078007400000000000000E000000026000000CDCCCCCCCC7C3F4000000000008032C000000000000000000000
310
0000000000000000000000000000000000000000F03F000000000000F03F000000000000000000000000000000004D004F004C004C0041002000440049002000460049005300530041004700470049004F0020004B00520049004C004C000000000018000000010000000000000000000840333333333333EB3F0000000000
310
000000000000000000F03F00000000000000000000000000000000000000000000000000000000000000000000000000000000740078007400000000000000C800000026000000CDCCCCCCCC7C3F400000000000C039C0000000000000000000000000000000000000000000000000000000000000F03F000000000000F03F
310
0000000000000000000000000000000044004100540045003A00320038002E00310031002E003100390000000D000000010000000000000000000440333333333333EB3F0000000000000000000000000000F03F00000000000000000000000000000000000000000000000000000000000000000000000000000000740078
310
0074000000000000001801000026000000CDCCCCCCCCCCF73F0000000000903DC0000000000000000000000000000000000000000000000000000000000000F03F000000000000F03F0000000000000000000000000000000041006E007900200069006E00740065006700720061006C0020006F0072002000700061007200
310
7400690061006C00200072006500700072006F00640075006300740069006F006E00730020006100720065002000700072006F0068006900620069007400650064002000000035000000010000000000000000000240333333333333EB3F0000000000000000000000000000F03F0000000000000000000000000000000000
310
00000000000000000000000000000000000000000000007400780074000000000000002401000026000000CDCCCCCCCCCCF73F00000000007840C0000000000000000000000000000000000000000000000000000000000000F03F000000000000F03F0000000000000000000000000000000077006900740068006F007500
310
740020007000720069006F007200200061007500740068006F007200690073006100740069006F006E0020006F00660020004C002000260020004C0020004C007500630065002000260020004C006900670068007400200073002E0072002E006C002E002C002000000000003A000000010000000000000000000240333333
310
333333EB3F0000000000000000000000000000F03F00000000000000000000000000000000000000000000000000000000000000000000000000000000740078007400000000000000F800000026000000CDCCCCCCCCCCF73F00000000002842C0000000000000000000000000000000000000000000000000000000000000
310
F03F000000000000F03F0000000000000000000000000000000069006E0020006100630063006F007200640061006E006300650020007700690074006800200074006800650020006C0061007700200069006E00200066006F007200630065002E002000000025000000010000000000000000000240333333333333EB3F00
310
00000000000000000000000000F03F00000000000000000000000000000000000000000000000000000000000000000000000000000000740078007400000000000000D800000026000000CDCCCCCCCCCCF73F0000000000D843C0000000000000000000000000000000000000000000000000000000000000F03F00000000
310
0000F03F0000000000000000000000000000000041006C006C0020007200690067006800740073002000720065007300650072007600650064002E000000000014000000010000000000000000000240333333333333EB3F0000000000000000000000000000F03F0000000000000000000000000000000000000000000000
310
0000000000000000000000000000000000740078007400000000000000080000001F000000880000001D000000000000000000F03F0000000000000000000000000000000000000000000000000000000000000000000000000000F03F00000000000000000000000000000000000000000000000000000000000000000000
310
00000000F03F0000000000000000000000000000000000000000000000000000000000000000000000000000F03F080000001F000000
100
AcDbBlockReference
  2
*T6
 10
194.0024117122
 20
53.04351784
 30
0.0
100
AcDbTable
342
3AF
343
211
 11
1.0
 21
0.0
 31
0.0
 90
       54
 91
        5
 92
        5
 93
        0
 94
        0
 95
        0
 96
        0
141
6.0
141
6.0
141
10.0
141
5.0
141
13.0
142
10.0
142
10.0
142
10.0
142
40.0
142
20.0
171
     1
172
     0
173
     0
174
     0
175
     3
176
     4
 91
       33
178
     0
145
0.0
170
     5
140
3.5
 92
        0
301
CELL_VALUE
 93
        4
 90
        4
  1
 
 94
        0
300

302
 
304
ACVALUE_END
171
     1
172
     0
173
     1
174
     0
175
     1
176
     1
 91
        0
178
     0
145
0.0
 92
        0
301
CELL_VALUE
 93
        3
 90
        0
 91
        0
 94
        0
300

302

304
ACVALUE_END
171
     1
172
     0
173
     1
174
     0
175
     1
176
     1
 91
        0
178
     0
145
0.0
 92
        0
301
CELL_VALUE
 93
        3
 90
        0
 91
        0
 94
        0
300

302

304
ACVALUE_END
171
     1
172
     0
173
     0
174
     0
175
     1
176
     1
 91
       49
178
     0
145
0.0
170
     4
  7
TEXTSTYLE_3
140
3.0
 92
        0
301
CELL_VALUE
 93
        4
 90
        4
  1
174902
 94
        0
300

302
174902
304
ACVALUE_END
171
     1
172
     0
173
     0
174
     0
175
     1
176
     1
 91
       49
178
     0
145
0.0
170
     4
  7
TEXTSTYLE_3
140
3.5
 92
        0
301
CELL_VALUE
 93
        4
 90
        4
  1
Rev:00
 94
        0
300

302
Rev:00
304
ACVALUE_END
171
     1
172
     0
173
     1
174
     0
175
     1
176
     1
 91
        0
178
     0
145
0.0
 92
        0
301
CELL_VALUE
 93
        3
 90
        0
 91
        0
 94
        0
300

302

304
ACVALUE_END
171
     1
172
     0
173
     1
174
     0
175
     1
176
     1
 91
        0
178
     0
145
0.0
 92
        0
301
CELL_VALUE
 93
        3
 90
        0
 91
        0
 94
        0
300

302

304
ACVALUE_END
171
     1
172
     0
173
     1
174
     0
175
     1
176
     1
 91
        0
178
     0
145
0.0
 92
        0
301
CELL_VALUE
 93
        3
 90
        0
 91
        0
 94
        0
300

302

304
ACVALUE_END
171
     1
172
     0
173
     0
174
     0
175
     1
176
     1
 91
       48
178
     0
145
0.0
  7
TEXTSTYLE_3
140
3.5
 92
        0
301
CELL_VALUE
 93
        4
 90
        4
  1
Scale:1:1
 94
        0
300

302
Scale:1:1
304
ACVALUE_END
171
     1
172
     0
173
     0
174
     0
175
     1
176
     1
 91
       49
178
     0
145
0.0
170
     4
  7
TEXTSTYLE_3
140
3.5
 92
        0
301
CELL_VALUE
 93
        4
 90
        4
  1
A4
 94
        0
300

302
A4
304
ACVALUE_END
171
     1
172
     0
173
     1
174
     0
175
     1
176
     1
 91
        0
178
     0
145
0.0
 92
        0
301
CELL_VALUE
 93
        3
 90
        0
 91
        0
 94
        0
300

302

304
ACVALUE_END
171
     1
172
     0
173
     1
174
     0
175
     1
176
     1
 91
        0
178
     0
145
0.0
 92
        0
301
CELL_VALUE
 93
        3
 90
        0
 91
        0
 94
        0
300

302

304
ACVALUE_END
171
     1
172
     0
173
     1
174
     0
175
     1
176
     1
 91
        0
178
     0
145
0.0
 92
        0
301
CELL_VALUE
 93
        3
 90
        0
 91
        0
 94
        0
300

302

304
ACVALUE_END
171
     1
172
     0
173
     0
174
     0
175
     2
176
     1
 91
       49
178
     0
145
0.0
170
     4
  7
TEXTSTYLE_3
140
3.0
 92
        0
301
CELL_VALUE
 93
        4
 90
        4
  1
MOLLA DI FISSAGGIO KRILL
 94
        0
300

302
MOLLA DI FISSAGGIO KRILL
304
ACVALUE_END
171
     1
172
     0
173
     1
174
     0
175
     1
176
     1
 91
        0
178
     0
145
0.0
 92
        0
301
CELL_VALUE
 93
        3
 90
        0
 91
        0
 94
        0
300

302

304
ACVALUE_END
171
     1
172
     0
173
     1
174
     0
175
     1
176
     1
 91
        0
178
     0
145
0.0
 92
        0
301
CELL_VALUE
 93
        3
 90
        0
 91
        0
 94
        0
300

302

304
ACVALUE_END
171
     1
172
     0
173
     1
174
     0
175
     1
176
     1
 91
        0
178
     0
145
0.0
 92
        0
301
CELL_VALUE
 93
        3
 90
        0
 91
        0
 94
        0
300

302

304
ACVALUE_END
171
     1
172
     0
173
     1
174
     0
175
     1
176
     1
 91
        0
178
     0
145
0.0
 92
        0
301
CELL_VALUE
 93
        3
 90
        0
 91
        0
 94
        0
300

302

304
ACVALUE_END
171
     1
172
     0
173
     0
174
     0
175
     2
176
     1
 91
       49
178
     0
145
0.0
170
     4
  7
TEXTSTYLE_3
140
2.5
 92
        0
301
CELL_VALUE
 93
        4
 90
        4
  1
DATE:28.11.19
 94
        0
300

302
DATE:28.11.19
304
ACVALUE_END
171
     1
172
     0
173
     1
174
     0
175
     1
176
     1
 91
        0
178
     0
145
0.0
 92
        0
301
CELL_VALUE
 93
        3
 90
        0
 91
        0
 94
        0
300

302

304
ACVALUE_END
171
     1
172
     0
173
     0
174
     0
175
     5
176
     1
 91
       49
178
     0
145
0.0
170
     4
  7
TEXTSTYLE_3
140
2.25
 92
        0
301
CELL_VALUE
 93
        4
 90
        4
  1
Any integral or partial reproductions are prohibited \Pwithout prior authorisation of L & L Luce & Light s.r.l., \Pin accordance with the law in force. \PAll rights reserved.
 94
        0
300

302
Any integral or partial reproductions are prohibited \Pwithout prior authorisation of L & L Luce & Light s.r.l., \Pin accordance with the law in force. \PAll rights reserved.
304
ACVALUE_END
171
     1
172
     0
173
     1
174
     0
175
     1
176
     1
 91
        0
178
     0
145
0.0
 92
        0
301
CELL_VALUE
 93
        3
 90
        0
 91
        0
 94
        0
300

302

304
ACVALUE_END
171
     1
172
     0
173
     1
174
     0
175
     1
176
     1
 91
        0
178
     0
145
0.0
 92
        0
301
CELL_VALUE
 93
        3
 90
        0
 91
        0
 94
        0
300

302

304
ACVALUE_END
171
     1
172
     0
173
     1
174
     0
175
     1
176
     1
 91
        0
178
     0
145
0.0
 92
        0
301
CELL_VALUE
 93
        3
 90
        0
 91
        0
 94
        0
300

302

304
ACVALUE_END
171
     1
172
     0
173
     1
174
     0
175
     1
176
     1
 91
        0
178
     0
145
0.0
 92
        0
301
CELL_VALUE
 93
        3
 90
        0
 91
        0
 94
        0
300

302

304
ACVALUE_END
  0
ENDSEC
  0
SECTION
  2
OBJECTS
  0
DICTIONARY
  5
C
330
0
100
AcDbDictionary
281
     1
  3
ACAD_DETAILVIEWSTYLE
350
3FE
  3
ACAD_GROUP
350
D
  3
ACAD_LAYOUT
350
1A
  3
ACAD_MATERIAL
350
3ED
  3
ACAD_MLEADERSTYLE
350
3F1
  3
ACAD_MLINESTYLE
350
17
  3
ACAD_PLOTSETTINGS
350
19
  3
ACAD_PLOTSTYLENAME
350
E
  3
ACAD_SCALELIST
350
3B1
  3
ACAD_SECTIONVIEWSTYLE
350
3FF
  3
ACAD_TABLESTYLE
350
3AC
  3
ACAD_VISUALSTYLE
350
3D3
  3
ACDB_RECOMPOSE_DATA
350
3FB
  3
AcDbVariableDictionary
350
3F5
  3
APPDATA
350
3F3
  0
SUN
  5
3F4
330
299
100
AcDbSun
 90
        1
290
     0
 63
     7
421
 16777215
 40
1.0
291
     1
 91
  2455826
 92
 54000000
292
     0
 70
     2
 71
   256
280
     1
  0
DICTIONARY
  5
3FE
102
{ACAD_REACTORS
330
C
102
}
330
C
100
AcDbDictionary
281
     1
  0
DICTIONARY
  5
D
102
{ACAD_REACTORS
330
C
102
}
330
C
100
AcDbDictionary
281
     1
  0
DICTIONARY
  5
1A
102
{ACAD_REACTORS
330
C
102
}
330
C
100
AcDbDictionary
281
     1
  3
174902_1
350
3AE
  3
Model
350
3AD
  0
DICTIONARY
  5
3ED
102
{ACAD_REACTORS
330
C
102
}
330
C
100
AcDbDictionary
281
     1
  3
ByBlock
350
3EF
  3
ByLayer
350
3EE
  3
Global
350
3F0
  0
DICTIONARY
  5
3F1
102
{ACAD_REACTORS
330
C
102
}
330
C
100
AcDbDictionary
281
     1
  3
Standard
350
3F2
  0
DICTIONARY
  5
17
102
{ACAD_REACTORS
330
C
102
}
330
C
100
AcDbDictionary
281
     1
  3
Standard
350
18
  0
DICTIONARY
  5
19
102
{ACAD_REACTORS
330
C
102
}
330
C
100
AcDbDictionary
281
     1
  0
ACDBDICTIONARYWDFLT
  5
E
102
{ACAD_REACTORS
330
C
102
}
330
C
100
AcDbDictionary
281
     1
  3
Normal
350
F
100
AcDbDictionaryWithDefault
340
F
  0
DICTIONARY
  5
3B1
102
{ACAD_REACTORS
330
C
102
}
330
C
100
AcDbDictionary
281
     1
  3
A0
350
3B2
  3
A1
350
3B3
  3
A2
350
3B4
  3
A3
350
3B5
  3
A4
350
3B6
  3
A5
350
3B7
  3
A6
350
3B8
  3
A7
350
3B9
  3
A8
350
3BA
  3
A9
350
3BB
  3
B0
350
3BC
  3
B1
350
3BD
  3
B2
350
3BE
  3
B3
350
3BF
  3
B4
350
3C0
  3
B5
350
3C1
  3
B6
350
3C2
  3
B7
350
3C3
  3
B8
350
3C4
  3
B9
350
3C5
  3
C0
350
3C6
  3
C1
350
3C7
  3
C2
350
3C8
  3
C3
350
3C9
  3
C4
350
3CA
  3
C5
350
3CB
  3
C6
350
3CC
  3
C7
350
3CD
  3
C8
350
3CE
  3
C9
350
3CF
  3
D0
350
3D0
  3
D1
350
3D1
  3
D2
350
3D2
  0
DICTIONARY
  5
3FF
102
{ACAD_REACTORS
330
C
102
}
330
C
100
AcDbDictionary
281
     1
  0
DICTIONARY
  5
3AC
330
C
100
AcDbDictionary
281
     1
  3
Standard
350
3AF
  3
Standard1
350
3B0
  0
DICTIONARY
  5
3D3
102
{ACAD_REACTORS
330
C
102
}
330
C
100
AcDbDictionary
281
     1
  3
2dWireframe
350
3D8
  3
Basic
350
3DB
  3
Brighten
350
3DF
  3
ColorChange
350
3E3
  3
Conceptual
350
3DD
  3
Dim
350
3DE
  3
EdgeColorOff
350
3E6
  3
Facepattern
350
3E2
  3
Flat
350
3D4
  3
FlatWithEdges
350
3D5
  3
Gouraud
350
3D6
  3
GouraudWithEdges
350
3D7
  3
Hidden
350
3DA
  3
JitterOff
350
3E4
  3
Linepattern
350
3E1
  3
OverhangOff
350
3E5
  3
Realistic
350
3DC
  3
Shaded
350
3EB
  3
Shaded with edges
350
3EA
  3
Shades of Gray
350
3E7
  3
Sketchy
350
3E8
  3
Thicken
350
3E0
  3
Wireframe
350
3D9
  3
X-Ray
350
3E9
  0
XRECORD
  5
3FB
102
{ACAD_REACTORS
330
C
102
}
330
C
100
AcDbXrecord
280
     1
 90
        1
330
3AF
330
3B0
  0
DICTIONARY
  5
3F5
102
{ACAD_REACTORS
330
C
102
}
330
C
100
AcDbDictionary
281
     1
  3
CANNOSCALE
350
3F6
  3
CMLEADERSTYLE
350
3FD
  3
CTABLESTYLE
350
3FC
  0
DICTIONARY
  5
3F3
102
{ACAD_REACTORS
330
C
102
}
330
C
100
AcDbDictionary
281
     1
  0
LAYOUT
  5
3AE
102
{ACAD_REACTORS
330
1A
102
}
330
1A
100
AcDbPlotSettings
  1

  2
none_device
  4
ISO_A4_(297.00_x_210.00_MM)
  6

 40
0.0
 41
0.0
 42
0.0
 43
0.0
 44
297.0
 45
210.0
 46
0.0
 47
0.0
 48
0.0
 49
0.0
140
0.0
141
0.0
142
1.0
143
1.0
 70
     0
 72
     1
 73
     0
 74
     0
  7

 75
     0
 76
     0
 77
     2
 78
   300
147
1.0
148
0.0
149
0.0
100
AcDbLayout
  1
174902_1
 70
     0
 71
     1
 10
0.0
 20
0.0
 11
297.0
 21
210.0
 12
0.0
 22
0.0
 32
0.0
 14
9.949999999999989
 24
9.950000000000003
 34
0.0
 15
291.7524117122
 25
200.05
 35
0.0
146
0.0
 13
0.0
 23
0.0
 33
0.0
 16
1.0
 26
0.0
 36
0.0
 17
0.0
 27
1.0
 37
0.0
 76
     0
330
20A
331
299
  0
LAYOUT
  5
3AD
102
{ACAD_REACTORS
330
1A
102
}
330
1A
100
AcDbPlotSettings
  1

  2
none_device
  4

  6

 40
0.0
 41
0.0
 42
0.0
 43
0.0
 44
297.0
 45
210.0
 46
0.0
 47
0.0
 48
0.0
 49
0.0
140
0.0
141
0.0
142
1.0
143
1.0
 70
  1024
 72
     1
 73
     0
 74
     0
  7

 75
     0
 76
     0
 77
     2
 78
   300
147
1.0
148
0.0
149
0.0
100
AcDbLayout
  1
Model
 70
     0
 71
     0
 10
0.0
 20
0.0
 11
297.0
 21
210.0
 12
0.0
 22
0.0
 32
0.0
 14
0.0
 24
0.0
 34
0.0
 15
0.0
 25
0.0
 35
0.0
146
0.0
 13
0.0
 23
0.0
 33
0.0
 16
1.0
 26
0.0
 36
0.0
 17
0.0
 27
1.0
 37
0.0
 76
     0
330
209
331
1F4
  0
MATERIAL
  5
3EF
102
{ACAD_REACTORS
330
3ED
102
}
330
3ED
100
AcDbMaterial
  1
ByBlock
 72
     1
 94
      127
  0
MATERIAL
  5
3EE
102
{ACAD_REACTORS
330
3ED
102
}
330
3ED
100
AcDbMaterial
  1
ByLayer
 72
     1
 94
      127
  0
MATERIAL
  5
3F0
102
{ACAD_REACTORS
330
3ED
102
}
330
3ED
100
AcDbMaterial
  1
Global
 72
     1
 94
      127
  0
MLEADERSTYLE
  5
3F2
102
{ACAD_REACTORS
330
3F1
102
}
330
3F1
100
AcDbMLeaderStyle
179
     2
170
     2
171
     1
172
     0
 90
        2
 40
0.0
 41
0.0
173
     1
 91
-1056964608
340
14
 92
       -2
290
     1
 42
2.0
291
     1
 43
8.0
  3
Standard
341
0
 44
4.0
300

342
11
174
     1
178
     1
175
     1
176
     0
 93
-1056964608
 45
4.0
292
     0
297
     0
 46
4.0
343
0
 94
-1056964608
 47
1.0
 49
1.0
140
1.0
293
     1
141
0.0
294
     1
177
     0
142
1.0
295
     0
296
     0
143
3.75
271
     0
272
     9
273
     9
298
     0
  0
MLINESTYLE
  5
18
102
{ACAD_REACTORS
330
17
102
}
330
17
100
AcDbMlineStyle
  2
STANDARD
 70
     0
  3

 62
   256
 51
90.0
 52
90.0
 71
     2
 49
0.5
 62
   256
  6
BYLAYER
 49
-0.5
 62
   256
  6
BYLAYER
  0
ACDBPLACEHOLDER
  5
F
102
{ACAD_REACTORS
330
E
102
}
330
E
  0
SCALE
  5
3B2
102
{ACAD_REACTORS
330
3B1
102
}
330
3B1
100
AcDbScale
 70
     0
300
1:1
140
1.0
141
1.0
290
     1
  0
SCALE
  5
3B3
102
{ACAD_REACTORS
330
3B1
102
}
330
3B1
100
AcDbScale
 70
     0
300
1:2
140
1.0
141
2.0
290
     0
  0
SCALE
  5
3B4
102
{ACAD_REACTORS
330
3B1
102
}
330
3B1
100
AcDbScale
 70
     0
300
1:4
140
1.0
141
4.0
290
     0
  0
SCALE
  5
3B5
102
{ACAD_REACTORS
330
3B1
102
}
330
3B1
100
AcDbScale
 70
     0
300
1:5
140
1.0
141
5.0
290
     0
  0
SCALE
  5
3B6
102
{ACAD_REACTORS
330
3B1
102
}
330
3B1
100
AcDbScale
 70
     0
300
1:8
140
1.0
141
8.0
290
     0
  0
SCALE
  5
3B7
102
{ACAD_REACTORS
330
3B1
102
}
330
3B1
100
AcDbScale
 70
     0
300
1:10
140
1.0
141
10.0
290
     0
  0
SCALE
  5
3B8
102
{ACAD_REACTORS
330
3B1
102
}
330
3B1
100
AcDbScale
 70
     0
300
1:16
140
1.0
141
16.0
290
     0
  0
SCALE
  5
3B9
102
{ACAD_REACTORS
330
3B1
102
}
330
3B1
100
AcDbScale
 70
     0
300
1:20
140
1.0
141
20.0
290
     0
  0
SCALE
  5
3BA
102
{ACAD_REACTORS
330
3B1
102
}
330
3B1
100
AcDbScale
 70
     0
300
1:30
140
1.0
141
30.0
290
     0
  0
SCALE
  5
3BB
102
{ACAD_REACTORS
330
3B1
102
}
330
3B1
100
AcDbScale
 70
     0
300
1:40
140
1.0
141
40.0
290
     0
  0
SCALE
  5
3BC
102
{ACAD_REACTORS
330
3B1
102
}
330
3B1
100
AcDbScale
 70
     0
300
1:50
140
1.0
141
50.0
290
     0
  0
SCALE
  5
3BD
102
{ACAD_REACTORS
330
3B1
102
}
330
3B1
100
AcDbScale
 70
     0
300
1:100
140
1.0
141
100.0
290
     0
  0
SCALE
  5
3BE
102
{ACAD_REACTORS
330
3B1
102
}
330
3B1
100
AcDbScale
 70
     0
300
2:1
140
2.0
141
1.0
290
     0
  0
SCALE
  5
3BF
102
{ACAD_REACTORS
330
3B1
102
}
330
3B1
100
AcDbScale
 70
     0
300
4:1
140
4.0
141
1.0
290
     0
  0
SCALE
  5
3C0
102
{ACAD_REACTORS
330
3B1
102
}
330
3B1
100
AcDbScale
 70
     0
300
8:1
140
8.0
141
1.0
290
     0
  0
SCALE
  5
3C1
102
{ACAD_REACTORS
330
3B1
102
}
330
3B1
100
AcDbScale
 70
     0
300
10:1
140
10.0
141
1.0
290
     0
  0
SCALE
  5
3C2
102
{ACAD_REACTORS
330
3B1
102
}
330
3B1
100
AcDbScale
 70
     0
300
100:1
140
100.0
141
1.0
290
     0
  0
SCALE
  5
3C3
102
{ACAD_REACTORS
330
3B1
102
}
330
3B1
100
AcDbScale
 70
     0
300
1/128" = 1'-0"
140
0.0078125
141
12.0
290
     0
  0
SCALE
  5
3C4
102
{ACAD_REACTORS
330
3B1
102
}
330
3B1
100
AcDbScale
 70
     0
300
1/64" = 1'-0"
140
0.015625
141
12.0
290
     0
  0
SCALE
  5
3C5
102
{ACAD_REACTORS
330
3B1
102
}
330
3B1
100
AcDbScale
 70
     0
300
1/32" = 1'-0"
140
0.03125
141
12.0
290
     0
  0
SCALE
  5
3C6
102
{ACAD_REACTORS
330
3B1
102
}
330
3B1
100
AcDbScale
 70
     0
300
1/16" = 1'-0"
140
0.0625
141
12.0
290
     0
  0
SCALE
  5
3C7
102
{ACAD_REACTORS
330
3B1
102
}
330
3B1
100
AcDbScale
 70
     0
300
3/32" = 1'-0"
140
0.09375
141
12.0
290
     0
  0
SCALE
  5
3C8
102
{ACAD_REACTORS
330
3B1
102
}
330
3B1
100
AcDbScale
 70
     0
300
1/8" = 1'-0"
140
0.125
141
12.0
290
     0
  0
SCALE
  5
3C9
102
{ACAD_REACTORS
330
3B1
102
}
330
3B1
100
AcDbScale
 70
     0
300
3/16" = 1'-0"
140
0.1875
141
12.0
290
     0
  0
SCALE
  5
3CA
102
{ACAD_REACTORS
330
3B1
102
}
330
3B1
100
AcDbScale
 70
     0
300
1/4" = 1'-0"
140
0.25
141
12.0
290
     0
  0
SCALE
  5
3CB
102
{ACAD_REACTORS
330
3B1
102
}
330
3B1
100
AcDbScale
 70
     0
300
3/8" = 1'-0"
140
0.375
141
12.0
290
     0
  0
SCALE
  5
3CC
102
{ACAD_REACTORS
330
3B1
102
}
330
3B1
100
AcDbScale
 70
     0
300
1/2" = 1'-0"
140
0.5
141
12.0
290
     0
  0
SCALE
  5
3CD
102
{ACAD_REACTORS
330
3B1
102
}
330
3B1
100
AcDbScale
 70
     0
300
3/4" = 1'-0"
140
0.75
141
12.0
290
     0
  0
SCALE
  5
3CE
102
{ACAD_REACTORS
330
3B1
102
}
330
3B1
100
AcDbScale
 70
     0
300
1" = 1'-0"
140
1.0
141
12.0
290
     0
  0
SCALE
  5
3CF
102
{ACAD_REACTORS
330
3B1
102
}
330
3B1
100
AcDbScale
 70
     0
300
1-1/2" = 1'-0"
140
1.5
141
12.0
290
     0
  0
SCALE
  5
3D0
102
{ACAD_REACTORS
330
3B1
102
}
330
3B1
100
AcDbScale
 70
     0
300
3" = 1'-0"
140
3.0
141
12.0
290
     0
  0
SCALE
  5
3D1
102
{ACAD_REACTORS
330
3B1
102
}
330
3B1
100
AcDbScale
 70
     0
300
6" = 1'-0"
140
6.0
141
12.0
290
     0
  0
SCALE
  5
3D2
102
{ACAD_REACTORS
330
3B1
102
}
330
3B1
100
AcDbScale
 70
     0
300
1'-0" = 1'-0"
140
12.0
141
12.0
290
     0
  0
TABLESTYLE
  5
3AF
102
{ACAD_REACTORS
330
3AC
330
3AB
102
}
102
{ACAD_XDICTIONARY
360
3F7
102
}
330
3AC
100
AcDbTableStyle
  3
Standard
 70
     0
 71
     0
 40
0.06
 41
0.06
280
     1
281
     1
  7
STANDARD
140
0.18
170
     1
 62
     0
 63
   257
283
     0
 90
        4
 91
        0
  1

274
    -2
284
     1
 64
     0
275
    -2
285
     1
 65
     0
276
    -2
286
     1
 66
     0
277
    -2
287
     1
 67
     0
278
    -2
288
     1
 68
     0
279
    -2
289
     1
 69
     0
  7
STANDARD
140
0.18
170
     1
 62
     0
 63
   257
283
     0
 90
        4
 91
        0
  1

274
    -2
284
     1
 64
     0
275
    -2
285
     1
 65
     0
276
    -2
286
     1
 66
     0
277
    -2
287
     1
 67
     0
278
    -2
288
     1
 68
     0
279
    -2
289
     1
 69
     0
  7
STANDARD
140
0.18
170
     1
 62
     0
 63
   257
283
     0
 90
        4
 91
        0
  1

274
    -2
284
     1
 64
     0
275
    -2
285
     1
 65
     0
276
    -2
286
     1
 66
     0
277
    -2
287
     1
 67
     0
278
    -2
288
     1
 68
     0
279
    -2
289
     1
 69
     0
  0
TABLESTYLE
  5
3B0
102
{ACAD_REACTORS
330
3AC
102
}
102
{ACAD_XDICTIONARY
360
3F9
102
}
330
3AC
100
AcDbTableStyle
  3
Standard1
 70
     1
 71
     0
 40
0.06
 41
0.06
280
     1
281
     1
  7
STANDARD
140
0.18
170
     1
 62
     0
 63
   257
283
     0
 90
        4
 91
        0
  1

274
    -2
284
     1
 64
     0
275
    -2
285
     1
 65
     0
276
    -2
286
     1
 66
     0
277
    -2
287
     1
 67
     0
278
    -2
288
     1
 68
     0
279
    -2
289
     1
 69
     0
  7
STANDARD
140
0.18
170
     1
 62
     0
 63
   257
283
     0
 90
        4
 91
        0
  1

274
    -2
284
     1
 64
     0
275
    -2
285
     1
 65
     0
276
    -2
286
     1
 66
     0
277
    -2
287
     1
 67
     0
278
    -2
288
     1
 68
     0
279
    -2
289
     1
 69
     0
  7
STANDARD
140
0.18
170
     1
 62
     0
 63
   257
283
     0
 90
        4
 91
        0
  1

274
    -2
284
     1
 64
     0
275
    -2
285
     1
 65
     0
276
    -2
286
     1
 66
     0
277
    -2
287
     1
 67
     0
278
    -2
288
     1
 68
     0
279
    -2
289
     1
 69
     0
  0
VISUALSTYLE
  5
3D8
102
{ACAD_REACTORS
330
3D3
102
}
330
3D3
100
AcDbVisualStyle
  2
2dWireframe
 70
     4
177
     3
291
     0
 70
    58
 90
        0
176
     1
 90
        2
176
     1
 90
        0
176
     1
 90
        0
176
     1
 40
0.6
176
     1
 40
30.0
176
     1
 62
     7
420
 16777215
176
     1
 90
        1
176
     1
 90
        4
176
     1
 62
     7
176
     1
 62
   257
176
     1
 90
        1
176
     1
 90
        1
176
     1
 40
1.0
176
     1
 90
        0
176
     1
 62
   257
176
     1
 40
1.0
176
     1
 90
        1
176
     1
 90
        6
176
     1
 90
        2
176
     1
 62
     7
176
     1
 90
        5
176
     1
 90
        0
176
     1
 90
        0
176
     1
290
     0
176
     1
 90
        1
176
     1
 40
0.0
176
     1
 90
        0
176
     1
290
     1
176
     1
290
     1
176
     1
290
     0
176
     1
290
     0
176
     1
290
     0
176
     1
290
     0
176
     1
290
     0
176
     1
290
     0
176
     1
290
     0
176
     1
 90
       50
176
     1
 40
0.0
176
     1
 40
1.0
176
     1
 90
        0
176
     1
 62
    18
420
        0
176
     1
 90
       50
176
     1
 90
        3
176
     1
 62
     5
420
      255
176
     1
290
     0
176
     1
 90
       50
176
     1
 90
       50
176
     1
 90
       50
176
     1
290
     0
176
     1
 90
       50
176
     1
 62
   256
176
     0
 40
1.0
176
     0
 90
        2
176
     1
  1
strokes_ogs.tif
176
     1
290
     0
176
     1
 40
1.0
176
     1
 40
1.0
176
     1
  0
VISUALSTYLE
  5
3DB
102
{ACAD_REACTORS
330
3D3
102
}
330
3D3
100
AcDbVisualStyle
  2
Basic
 70
     7
177
     3
291
     1
 70
    58
 90
        1
176
     1
 90
        0
176
     1
 90
        1
176
     1
 90
        0
176
     1
 40
0.6
176
     1
 40
30.0
176
     1
 62
     7
420
 16777215
176
     1
 90
        0
176
     1
 90
        4
176
     1
 62
     7
176
     1
 62
   257
176
     1
 90
        1
176
     1
 90
        1
176
     1
 40
1.0
176
     1
 90
        8
176
     1
 62
     7
176
     1
 40
1.0
176
     1
 90
        1
176
     1
 90
        6
176
     1
 90
        2
176
     1
 62
     7
176
     1
 90
        5
176
     1
 90
        0
176
     1
 90
        0
176
     1
290
     0
176
     1
 90
        1
176
     1
 40
0.0
176
     1
 90
        0
176
     1
290
     0
176
     1
290
     1
176
     1
290
     1
176
     1
290
     0
176
     1
290
     0
176
     1
290
     0
176
     1
290
     0
176
     1
290
     0
176
     1
290
     0
176
     1
 90
       50
176
     1
 40
0.0
176
     1
 40
1.0
176
     1
 90
        0
176
     1
 62
    18
420
        0
176
     1
 90
       50
176
     1
 90
        3
176
     1
 62
     5
420
      255
176
     1
290
     0
176
     1
 90
       50
176
     1
 90
       50
176
     1
 90
       50
176
     1
290
     0
176
     1
 90
       50
176
     1
 62
   256
176
     0
 40
1.0
176
     0
 90
        2
176
     1
  1
strokes_ogs.tif
176
     1
290
     0
176
     1
 40
1.0
176
     1
 40
1.0
176
     1
  0
VISUALSTYLE
  5
3DF
102
{ACAD_REACTORS
330
3D3
102
}
330
3D3
100
AcDbVisualStyle
  2
Brighten
 70
    12
177
     3
291
     1
 70
    58
 90
        2
176
     1
 90
        2
176
     1
 90
        0
176
     1
 90
        0
176
     1
 40
0.6
176
     1
 40
30.0
176
     1
 62
     7
420
 16777215
176
     1
 90
        1
176
     1
 90
        4
176
     1
 62
     7
176
     1
 62
   257
176
     1
 90
        1
176
     1
 90
        1
176
     1
 40
1.0
176
     1
 90
        8
176
     1
 62
     7
176
     1
 40
1.0
176
     1
 90
        1
176
     1
 90
        6
176
     1
 90
        2
176
     1
 62
     7
176
     1
 90
        5
176
     1
 90
        0
176
     1
 90
        0
176
     1
290
     0
176
     1
 90
        1
176
     1
 40
50.0
176
     1
 90
        0
176
     1
290
     0
176
     1
290
     1
176
     1
290
     1
176
     1
290
     0
176
     1
290
     0
176
     1
290
     0
176
     1
290
     0
176
     1
290
     0
176
     1
290
     0
176
     1
 90
       50
176
     1
 40
0.0
176
     1
 40
1.0
176
     1
 90
        0
176
     1
 62
    18
420
        0
176
     1
 90
       50
176
     1
 90
        3
176
     1
 62
     5
420
      255
176
     1
290
     0
176
     1
 90
       50
176
     1
 90
       50
176
     1
 90
       50
176
     1
290
     0
176
     1
 90
       50
176
     1
 62
   256
176
     0
 40
1.0
176
     0
 90
        2
176
     1
  1
strokes_ogs.tif
176
     1
290
     0
176
     1
 40
1.0
176
     1
 40
1.0
176
     1
  0
VISUALSTYLE
  5
3E3
102
{ACAD_REACTORS
330
3D3
102
}
330
3D3
100
AcDbVisualStyle
  2
ColorChange
 70
    16
177
     3
291
     1
 70
    58
 90
        2
176
     1
 90
        2
176
     1
 90
        3
176
     1
 90
        0
176
     1
 40
0.6
176
     1
 40
30.0
176
     1
 62
     8
420
  8421504
176
     1
 90
        1
176
     1
 90
        4
176
     1
 62
     7
176
     1
 62
   257
176
     1
 90
        1
176
     1
 90
        1
176
     1
 40
1.0
176
     1
 90
        8
176
     1
 62
     8
420
  8421504
176
     1
 40
1.0
176
     1
 90
        1
176
     1
 90
        6
176
     1
 90
        2
176
     1
 62
     7
176
     1
 90
        5
176
     1
 90
        0
176
     1
 90
        0
176
     1
290
     0
176
     1
 90
        1
176
     1
 40
0.0
176
     1
 90
        0
176
     1
290
     0
176
     1
290
     1
176
     1
290
     1
176
     1
290
     0
176
     1
290
     0
176
     1
290
     0
176
     1
290
     0
176
     1
290
     0
176
     1
290
     0
176
     1
 90
       50
176
     1
 40
0.0
176
     1
 40
1.0
176
     1
 90
        0
176
     1
 62
    18
420
        0
176
     1
 90
       50
176
     1
 90
        3
176
     1
 62
     5
420
      255
176
     1
290
     0
176
     1
 90
       50
176
     1
 90
       50
176
     1
 90
       50
176
     1
290
     0
176
     1
 90
       50
176
     1
 62
   256
176
     0
 40
1.0
176
     0
 90
        2
176
     1
  1
strokes_ogs.tif
176
     1
290
     0
176
     1
 40
1.0
176
     1
 40
1.0
176
     1
  0
VISUALSTYLE
  5
3DD
102
{ACAD_REACTORS
330
3D3
102
}
330
3D3
100
AcDbVisualStyle
  2
Conceptual
 70
     9
177
     3
291
     0
 70
    58
 90
        3
176
     1
 90
        2
176
     1
 90
        0
176
     1
 90
        0
176
     1
 40
0.6
176
     1
 40
30.0
176
     1
 62
     7
420
 16777215
176
     1
 90
        2
176
     1
 90
        2
176
     1
 62
     7
176
     1
 62
   257
176
     1
 90
        1
176
     1
 90
        1
176
     1
 40
179.0
176
     1
 90
        8
176
     1
 62
     7
176
     1
 40
1.0
176
     1
 90
        1
176
     1
 90
        6
176
     1
 90
        2
176
     1
 62
     7
176
     1
 90
        3
176
     1
 90
        0
176
     1
 90
        0
176
     1
290
     0
176
     1
 90
        1
176
     1
 40
0.0
176
     1
 90
        0
176
     1
290
     0
176
     1
290
     1
176
     1
290
     1
176
     1
290
     0
176
     1
290
     0
176
     1
290
     0
176
     1
290
     0
176
     1
290
     0
176
     1
290
     0
176
     1
 90
       50
176
     1
 40
0.0
176
     1
 40
1.0
176
     1
 90
        0
176
     1
 62
    18
420
        0
176
     1
 90
       50
176
     1
 90
        3
176
     1
 62
     5
420
      255
176
     1
290
     0
176
     1
 90
       50
176
     1
 90
       50
176
     1
 90
       50
176
     1
290
     0
176
     1
 90
       50
176
     1
 62
   256
176
     0
 40
1.0
176
     0
 90
        2
176
     1
  1
strokes_ogs.tif
176
     1
290
     0
176
     1
 40
1.0
176
     1
 40
1.0
176
     1
  0
VISUALSTYLE
  5
3DE
102
{ACAD_REACTORS
330
3D3
102
}
330
3D3
100
AcDbVisualStyle
  2
Dim
 70
    11
177
     3
291
     1
 70
    58
 90
        2
176
     1
 90
        2
176
     1
 90
        0
176
     1
 90
        0
176
     1
 40
0.6
176
     1
 40
30.0
176
     1
 62
     7
420
 16777215
176
     1
 90
        1
176
     1
 90
        4
176
     1
 62
     7
176
     1
 62
   257
176
     1
 90
        1
176
     1
 90
        1
176
     1
 40
1.0
176
     1
 90
        8
176
     1
 62
     7
176
     1
 40
1.0
176
     1
 90
        1
176
     1
 90
        6
176
     1
 90
        2
176
     1
 62
     7
176
     1
 90
        5
176
     1
 90
        0
176
     1
 90
        0
176
     1
290
     0
176
     1
 90
        1
176
     1
 40
-50.0
176
     1
 90
        0
176
     1
290
     0
176
     1
290
     1
176
     1
290
     1
176
     1
290
     0
176
     1
290
     0
176
     1
290
     0
176
     1
290
     0
176
     1
290
     0
176
     1
290
     0
176
     1
 90
       50
176
     1
 40
0.0
176
     1
 40
1.0
176
     1
 90
        0
176
     1
 62
    18
420
        0
176
     1
 90
       50
176
     1
 90
        3
176
     1
 62
     5
420
      255
176
     1
290
     0
176
     1
 90
       50
176
     1
 90
       50
176
     1
 90
       50
176
     1
290
     0
176
     1
 90
       50
176
     1
 62
   256
176
     0
 40
1.0
176
     0
 90
        2
176
     1
  1
strokes_ogs.tif
176
     1
290
     0
176
     1
 40
1.0
176
     1
 40
1.0
176
     1
  0
VISUALSTYLE
  5
3E6
102
{ACAD_REACTORS
330
3D3
102
}
330
3D3
100
AcDbVisualStyle
  2
EdgeColorOff
 70
    22
177
     3
291
     1
 70
    58
 90
        2
176
     0
 90
        2
176
     0
 90
        0
176
     0
 90
        0
176
     0
 40
0.6
176
     0
 40
30.0
176
     0
 62
     7
420
 16777215
176
     0
 90
        1
176
     0
 90
        4
176
     0
 62
     7
176
     0
 62
   257
176
     0
 90
        1
176
     0
 90
        1
176
     0
 40
1.0
176
     0
 90
        8
176
     2
 62
     7
176
     0
 40
1.0
176
     0
 90
        1
176
     0
 90
        6
176
     0
 90
        2
176
     0
 62
     7
176
     0
 90
        5
176
     0
 90
        0
176
     0
 90
        0
176
     0
290
     0
176
     0
 90
        1
176
     0
 40
0.0
176
     0
 90
        0
176
     0
290
     0
176
     0
290
     1
176
     0
290
     1
176
     0
290
     0
176
     0
290
     0
176
     0
290
     0
176
     0
290
     0
176
     0
290
     0
176
     0
290
     0
176
     0
 90
       50
176
     0
 40
0.0
176
     0
 40
1.0
176
     0
 90
        0
176
     0
 62
    18
420
        0
176
     0
 90
       50
176
     0
 90
        3
176
     0
 62
     5
420
      255
176
     0
290
     0
176
     0
 90
       50
176
     0
 90
       50
176
     0
 90
       50
176
     0
290
     0
176
     0
 90
       50
176
     0
 62
   256
176
     0
 40
1.0
176
     0
 90
        2
176
     0
  1
strokes_ogs.tif
176
     0
290
     0
176
     0
 40
1.0
176
     0
 40
1.0
176
     0
  0
VISUALSTYLE
  5
3E2
102
{ACAD_REACTORS
330
3D3
102
}
330
3D3
100
AcDbVisualStyle
  2
Facepattern
 70
    15
177
     3
291
     1
 70
    58
 90
        2
176
     1
 90
        2
176
     1
 90
        0
176
     1
 90
        0
176
     1
 40
0.6
176
     1
 40
30.0
176
     1
 62
     7
420
 16777215
176
     1
 90
        1
176
     1
 90
        4
176
     1
 62
     7
176
     1
 62
   257
176
     1
 90
        1
176
     1
 90
        1
176
     1
 40
1.0
176
     1
 90
        8
176
     1
 62
     7
176
     1
 40
1.0
176
     1
 90
        1
176
     1
 90
        6
176
     1
 90
        2
176
     1
 62
     7
176
     1
 90
        5
176
     1
 90
        0
176
     1
 90
        0
176
     1
290
     0
176
     1
 90
        1
176
     1
 40
0.0
176
     1
 90
        0
176
     1
290
     0
176
     1
290
     1
176
     1
290
     1
176
     1
290
     0
176
     1
290
     0
176
     1
290
     0
176
     1
290
     0
176
     1
290
     0
176
     1
290
     0
176
     1
 90
       50
176
     1
 40
0.0
176
     1
 40
1.0
176
     1
 90
        0
176
     1
 62
    18
420
        0
176
     1
 90
       50
176
     1
 90
        3
176
     1
 62
     5
420
      255
176
     1
290
     0
176
     1
 90
       50
176
     1
 90
       50
176
     1
 90
       50
176
     1
290
     0
176
     1
 90
       50
176
     1
 62
   256
176
     0
 40
1.0
176
     0
 90
        2
176
     1
  1
strokes_ogs.tif
176
     1
290
     0
176
     1
 40
1.0
176
     1
 40
1.0
176
     1
  0
VISUALSTYLE
  5
3D4
102
{ACAD_REACTORS
330
3D3
102
}
330
3D3
100
AcDbVisualStyle
  2
Flat
 70
     0
177
     3
291
     1
 70
    58
 90
        2
176
     1
 90
        1
176
     1
 90
        1
176
     1
 90
        2
176
     1
 40
0.6
176
     1
 40
30.0
176
     1
 62
     7
420
 16777215
176
     1
 90
        0
176
     1
 90
        0
176
     1
 62
     7
176
     1
 62
   257
176
     1
 90
        1
176
     1
 90
        1
176
     1
 40
1.0
176
     1
 90
        8
176
     1
 62
     7
176
     1
 40
1.0
176
     1
 90
        1
176
     1
 90
        6
176
     1
 90
        2
176
     1
 62
     7
176
     1
 90
        5
176
     1
 90
        0
176
     1
 90
        0
176
     1
290
     0
176
     1
 90
       13
176
     1
 40
0.0
176
     1
 90
        0
176
     1
290
     0
176
     1
290
     1
176
     1
290
     1
176
     1
290
     0
176
     1
290
     0
176
     1
290
     0
176
     1
290
     0
176
     1
290
     0
176
     1
290
     0
176
     1
 90
       50
176
     1
 40
0.0
176
     1
 40
1.0
176
     1
 90
        0
176
     1
 62
    18
420
        0
176
     1
 90
       50
176
     1
 90
        3
176
     1
 62
     5
420
      255
176
     1
290
     0
176
     1
 90
       50
176
     1
 90
       50
176
     1
 90
       50
176
     1
290
     0
176
     1
 90
       50
176
     1
 62
   256
176
     0
 40
1.0
176
     0
 90
        2
176
     1
  1
strokes_ogs.tif
176
     1
290
     0
176
     1
 40
1.0
176
     1
 40
1.0
176
     1
  0
VISUALSTYLE
  5
3D5
102
{ACAD_REACTORS
330
3D3
102
}
330
3D3
100
AcDbVisualStyle
  2
FlatWithEdges
 70
     1
177
     3
291
     1
 70
    58
 90
        2
176
     1
 90
        1
176
     1
 90
        1
176
     1
 90
        2
176
     1
 40
0.6
176
     1
 40
30.0
176
     1
 62
     7
420
 16777215
176
     1
 90
        1
176
     1
 90
        0
176
     1
 62
     7
176
     1
 62
   257
176
     1
 90
        1
176
     1
 90
        1
176
     1
 40
1.0
176
     1
 90
        0
176
     1
 62
   257
176
     1
 40
1.0
176
     1
 90
        1
176
     1
 90
        6
176
     1
 90
        2
176
     1
 62
     7
176
     1
 90
        5
176
     1
 90
        0
176
     1
 90
        0
176
     1
290
     0
176
     1
 90
       13
176
     1
 40
0.0
176
     1
 90
        0
176
     1
290
     0
176
     1
290
     1
176
     1
290
     1
176
     1
290
     0
176
     1
290
     0
176
     1
290
     0
176
     1
290
     0
176
     1
290
     0
176
     1
290
     0
176
     1
 90
       50
176
     1
 40
0.0
176
     1
 40
1.0
176
     1
 90
        0
176
     1
 62
    18
420
        0
176
     1
 90
       50
176
     1
 90
        3
176
     1
 62
     5
420
      255
176
     1
290
     0
176
     1
 90
       50
176
     1
 90
       50
176
     1
 90
       50
176
     1
290
     0
176
     1
 90
       50
176
     1
 62
   256
176
     0
 40
1.0
176
     0
 90
        2
176
     1
  1
strokes_ogs.tif
176
     1
290
     0
176
     1
 40
1.0
176
     1
 40
1.0
176
     1
  0
VISUALSTYLE
  5
3D6
102
{ACAD_REACTORS
330
3D3
102
}
330
3D3
100
AcDbVisualStyle
  2
Gouraud
 70
     2
177
     3
291
     1
 70
    58
 90
        2
176
     1
 90
        2
176
     1
 90
        1
176
     1
 90
        2
176
     1
 40
0.6
176
     1
 40
30.0
176
     1
 62
     7
420
 16777215
176
     1
 90
        0
176
     1
 90
        0
176
     1
 62
     7
176
     1
 62
   257
176
     1
 90
        1
176
     1
 90
        1
176
     1
 40
1.0
176
     1
 90
        0
176
     1
 62
     7
176
     1
 40
1.0
176
     1
 90
        1
176
     1
 90
        6
176
     1
 90
        2
176
     1
 62
     7
176
     1
 90
        5
176
     1
 90
        0
176
     1
 90
        0
176
     1
290
     0
176
     1
 90
       13
176
     1
 40
0.0
176
     1
 90
        0
176
     1
290
     0
176
     1
290
     1
176
     1
290
     1
176
     1
290
     0
176
     1
290
     0
176
     1
290
     0
176
     1
290
     0
176
     1
290
     0
176
     1
290
     0
176
     1
 90
       50
176
     1
 40
0.0
176
     1
 40
1.0
176
     1
 90
        0
176
     1
 62
    18
420
        0
176
     1
 90
       50
176
     1
 90
        3
176
     1
 62
     5
420
      255
176
     1
290
     0
176
     1
 90
       50
176
     1
 90
       50
176
     1
 90
       50
176
     1
290
     0
176
     1
 90
       50
176
     1
 62
   256
176
     0
 40
1.0
176
     0
 90
        2
176
     1
  1
strokes_ogs.tif
176
     1
290
     0
176
     1
 40
1.0
176
     1
 40
1.0
176
     1
  0
VISUALSTYLE
  5
3D7
102
{ACAD_REACTORS
330
3D3
102
}
330
3D3
100
AcDbVisualStyle
  2
GouraudWithEdges
 70
     3
177
     3
291
     1
 70
    58
 90
        2
176
     1
 90
        2
176
     1
 90
        1
176
     1
 90
        2
176
     1
 40
0.6
176
     1
 40
30.0
176
     1
 62
     7
420
 16777215
176
     1
 90
        1
176
     1
 90
        0
176
     1
 62
     7
176
     1
 62
   257
176
     1
 90
        1
176
     1
 90
        1
176
     1
 40
1.0
176
     1
 90
        0
176
     1
 62
   257
176
     1
 40
1.0
176
     1
 90
        1
176
     1
 90
        6
176
     1
 90
        2
176
     1
 62
     7
176
     1
 90
        5
176
     1
 90
        0
176
     1
 90
        0
176
     1
290
     0
176
     1
 90
       13
176
     1
 40
0.0
176
     1
 90
        0
176
     1
290
     0
176
     1
290
     1
176
     1
290
     1
176
     1
290
     0
176
     1
290
     0
176
     1
290
     0
176
     1
290
     0
176
     1
290
     0
176
     1
290
     0
176
     1
 90
       50
176
     1
 40
0.0
176
     1
 40
1.0
176
     1
 90
        0
176
     1
 62
    18
420
        0
176
     1
 90
       50
176
     1
 90
        3
176
     1
 62
     5
420
      255
176
     1
290
     0
176
     1
 90
       50
176
     1
 90
       50
176
     1
 90
       50
176
     1
290
     0
176
     1
 90
       50
176
     1
 62
   256
176
     0
 40
1.0
176
     0
 90
        2
176
     1
  1
strokes_ogs.tif
176
     1
290
     0
176
     1
 40
1.0
176
     1
 40
1.0
176
     1
  0
VISUALSTYLE
  5
3DA
102
{ACAD_REACTORS
330
3D3
102
}
330
3D3
100
AcDbVisualStyle
  2
Hidden
 70
     6
177
     3
291
     0
 70
    58
 90
        1
176
     1
 90
        2
176
     1
 90
        2
176
     1
 90
        0
176
     1
 40
0.6
176
     1
 40
30.0
176
     1
 62
     7
420
 16777215
176
     1
 90
        2
176
     1
 90
        2
176
     1
 62
     7
176
     1
 62
   257
176
     1
 90
        2
176
     1
 90
        1
176
     1
 40
40.0
176
     1
 90
        0
176
     1
 62
   257
176
     1
 40
1.0
176
     1
 90
        1
176
     1
 90
        6
176
     1
 90
        2
176
     1
 62
     7
176
     1
 90
        3
176
     1
 90
        0
176
     1
 90
        0
176
     1
290
     0
176
     1
 90
        1
176
     1
 40
0.0
176
     1
 90
        0
176
     1
290
     0
176
     1
290
     1
176
     1
290
     1
176
     1
290
     0
176
     1
290
     0
176
     1
290
     0
176
     1
290
     0
176
     1
290
     0
176
     1
290
     0
176
     1
 90
       50
176
     1
 40
0.0
176
     1
 40
1.0
176
     1
 90
        0
176
     1
 62
    18
420
        0
176
     1
 90
       50
176
     1
 90
        3
176
     1
 62
     5
420
      255
176
     1
290
     0
176
     1
 90
       50
176
     1
 90
       50
176
     1
 90
       50
176
     1
290
     0
176
     1
 90
       50
176
     1
 62
   256
176
     0
 40
1.0
176
     0
 90
        2
176
     1
  1
strokes_ogs.tif
176
     1
290
     0
176
     1
 40
1.0
176
     1
 40
1.0
176
     1
  0
VISUALSTYLE
  5
3E4
102
{ACAD_REACTORS
330
3D3
102
}
330
3D3
100
AcDbVisualStyle
  2
JitterOff
 70
    20
177
     3
291
     1
 70
    58
 90
        2
176
     0
 90
        2
176
     0
 90
        0
176
     0
 90
        0
176
     0
 40
0.6
176
     0
 40
30.0
176
     0
 62
     7
420
 16777215
176
     0
 90
        1
176
     0
 90
        4
176
     0
 62
     7
176
     0
 62
   257
176
     0
 90
        1
176
     0
 90
        1
176
     0
 40
1.0
176
     0
 90
       10
176
     2
 62
     7
176
     0
 40
1.0
176
     0
 90
        1
176
     0
 90
        6
176
     0
 90
        2
176
     0
 62
     7
176
     0
 90
        5
176
     0
 90
        0
176
     0
 90
        0
176
     0
290
     0
176
     0
 90
        1
176
     0
 40
0.0
176
     0
 90
        0
176
     0
290
     0
176
     0
290
     1
176
     0
290
     1
176
     0
290
     0
176
     0
290
     0
176
     0
290
     0
176
     0
290
     0
176
     0
290
     0
176
     0
290
     0
176
     0
 90
       50
176
     0
 40
0.0
176
     0
 40
1.0
176
     0
 90
        0
176
     0
 62
    18
420
        0
176
     0
 90
       50
176
     0
 90
        3
176
     0
 62
     5
420
      255
176
     0
290
     0
176
     0
 90
       50
176
     0
 90
       50
176
     0
 90
       50
176
     0
290
     0
176
     0
 90
       50
176
     0
 62
   256
176
     0
 40
1.0
176
     0
 90
        2
176
     0
  1
strokes_ogs.tif
176
     0
290
     0
176
     0
 40
1.0
176
     0
 40
1.0
176
     0
  0
VISUALSTYLE
  5
3E1
102
{ACAD_REACTORS
330
3D3
102
}
330
3D3
100
AcDbVisualStyle
  2
Linepattern
 70
    14
177
     3
291
     1
 70
    58
 90
        2
176
     1
 90
        2
176
     1
 90
        0
176
     1
 90
        0
176
     1
 40
0.6
176
     1
 40
30.0
176
     1
 62
     7
420
 16777215
176
     1
 90
        1
176
     1
 90
        4
176
     1
 62
     7
176
     1
 62
   257
176
     1
 90
        7
176
     1
 90
        7
176
     1
 40
1.0
176
     1
 90
        8
176
     1
 62
     7
176
     1
 40
1.0
176
     1
 90
        1
176
     1
 90
        6
176
     1
 90
        2
176
     1
 62
     7
176
     1
 90
        5
176
     1
 90
        0
176
     1
 90
        0
176
     1
290
     0
176
     1
 90
        1
176
     1
 40
0.0
176
     1
 90
        0
176
     1
290
     0
176
     1
290
     1
176
     1
290
     1
176
     1
290
     0
176
     1
290
     0
176
     1
290
     0
176
     1
290
     0
176
     1
290
     0
176
     1
290
     0
176
     1
 90
       50
176
     1
 40
0.0
176
     1
 40
1.0
176
     1
 90
        0
176
     1
 62
    18
420
        0
176
     1
 90
       50
176
     1
 90
        3
176
     1
 62
     5
420
      255
176
     1
290
     0
176
     1
 90
       50
176
     1
 90
       50
176
     1
 90
       50
176
     1
290
     0
176
     1
 90
       50
176
     1
 62
   256
176
     0
 40
1.0
176
     0
 90
        2
176
     1
  1
strokes_ogs.tif
176
     1
290
     0
176
     1
 40
1.0
176
     1
 40
1.0
176
     1
  0
VISUALSTYLE
  5
3E5
102
{ACAD_REACTORS
330
3D3
102
}
330
3D3
100
AcDbVisualStyle
  2
OverhangOff
 70
    21
177
     3
291
     1
 70
    58
 90
        2
176
     0
 90
        2
176
     0
 90
        0
176
     0
 90
        0
176
     0
 40
0.6
176
     0
 40
30.0
176
     0
 62
     7
420
 16777215
176
     0
 90
        1
176
     0
 90
        4
176
     0
 62
     7
176
     0
 62
   257
176
     0
 90
        1
176
     0
 90
        1
176
     0
 40
1.0
176
     0
 90
        9
176
     2
 62
     7
176
     0
 40
1.0
176
     0
 90
        1
176
     0
 90
        6
176
     0
 90
        2
176
     0
 62
     7
176
     0
 90
        5
176
     0
 90
        0
176
     0
 90
        0
176
     0
290
     0
176
     0
 90
        1
176
     0
 40
0.0
176
     0
 90
        0
176
     0
290
     0
176
     0
290
     1
176
     0
290
     1
176
     0
290
     0
176
     0
290
     0
176
     0
290
     0
176
     0
290
     0
176
     0
290
     0
176
     0
290
     0
176
     0
 90
       50
176
     0
 40
0.0
176
     0
 40
1.0
176
     0
 90
        0
176
     0
 62
    18
420
        0
176
     0
 90
       50
176
     0
 90
        3
176
     0
 62
     5
420
      255
176
     0
290
     0
176
     0
 90
       50
176
     0
 90
       50
176
     0
 90
       50
176
     0
290
     0
176
     0
 90
       50
176
     0
 62
   256
176
     0
 40
1.0
176
     0
 90
        2
176
     0
  1
strokes_ogs.tif
176
     0
290
     0
176
     0
 40
1.0
176
     0
 40
1.0
176
     0
  0
VISUALSTYLE
  5
3DC
102
{ACAD_REACTORS
330
3D3
102
}
330
3D3
100
AcDbVisualStyle
  2
Realistic
 70
     8
177
     3
291
     0
 70
    58
 90
        2
176
     1
 90
        3
176
     1
 90
        0
176
     1
 90
        2
176
     1
 40
0.6
176
     1
 40
30.0
176
     1
 62
     7
420
 16777215
176
     1
 90
        0
176
     1
 90
        0
176
     1
 62
     7
176
     1
 62
   257
176
     1
 90
        1
176
     1
 90
        1
176
     1
 40
1.0
176
     1
 90
        8
176
     1
 62
   257
176
     1
 40
1.0
176
     1
 90
        1
176
     1
 90
        6
176
     1
 90
        2
176
     1
 62
     7
176
     1
 90
        3
176
     1
 90
        0
176
     1
 90
        0
176
     1
290
     0
176
     1
 90
       13
176
     1
 40
0.0
176
     1
 90
        0
176
     1
290
     0
176
     1
290
     1
176
     1
290
     1
176
     1
290
     0
176
     1
290
     0
176
     1
290
     0
176
     1
290
     0
176
     1
290
     0
176
     1
290
     0
176
     1
 90
       50
176
     1
 40
0.0
176
     1
 40
1.0
176
     1
 90
        0
176
     1
 62
    18
420
        0
176
     1
 90
       50
176
     1
 90
        3
176
     1
 62
     5
420
      255
176
     1
290
     0
176
     1
 90
       50
176
     1
 90
       50
176
     1
 90
       50
176
     1
290
     0
176
     1
 90
       50
176
     1
 62
   256
176
     0
 40
1.0
176
     0
 90
        2
176
     1
  1
strokes_ogs.tif
176
     1
290
     0
176
     1
 40
1.0
176
     1
 40
1.0
176
     1
  0
VISUALSTYLE
  5
3EB
102
{ACAD_REACTORS
330
3D3
102
}
330
3D3
100
AcDbVisualStyle
  2
Shaded
 70
    27
177
     3
291
     0
 70
    58
 90
        2
176
     1
 90
        2
176
     1
 90
        1
176
     1
 90
        2
176
     1
 40
0.6
176
     1
 40
30.0
176
     1
 62
     7
420
 16777215
176
     1
 90
        0
176
     1
 90
        4
176
     1
 62
     7
176
     1
 62
   257
176
     1
 90
        1
176
     1
 90
        1
176
     1
 40
1.0
176
     1
 90
        8
176
     1
 62
   257
176
     1
 40
1.0
176
     1
 90
        1
176
     1
 90
        6
176
     1
 90
        2
176
     1
 62
     8
420
  7895160
176
     1
 90
        3
176
     1
 90
        0
176
     1
 90
        0
176
     1
290
     0
176
     1
 90
        5
176
     1
 40
0.0
176
     1
 90
        0
176
     1
290
     0
176
     1
290
     1
176
     1
290
     1
176
     1
290
     0
176
     1
290
     0
176
     1
290
     0
176
     1
290
     0
176
     1
290
     0
176
     1
290
     0
176
     1
 90
       50
176
     1
 40
0.0
176
     1
 40
1.0
176
     1
 90
        0
176
     1
 62
    18
420
        0
176
     1
 90
       50
176
     1
 90
        3
176
     1
 62
     5
420
      255
176
     1
290
     0
176
     1
 90
       50
176
     1
 90
       50
176
     1
 90
       50
176
     1
290
     0
176
     1
 90
       50
176
     1
 62
   256
176
     0
 40
1.0
176
     0
 90
        2
176
     1
  1
strokes_ogs.tif
176
     1
290
     0
176
     1
 40
1.0
176
     1
 40
1.0
176
     1
  0
VISUALSTYLE
  5
3EA
102
{ACAD_REACTORS
330
3D3
102
}
330
3D3
100
AcDbVisualStyle
  2
Shaded with edges
 70
    26
177
     3
291
     0
 70
    58
 90
        2
176
     1
 90
        2
176
     1
 90
        1
176
     1
 90
        2
176
     1
 40
0.6
176
     1
 40
30.0
176
     1
 62
     7
420
 16777215
176
     1
 90
        1
176
     1
 90
       10
176
     1
 62
     7
176
     1
 62
   257
176
     1
 90
        2
176
     1
 90
        1
176
     1
 40
1.0
176
     1
 90
        8
176
     1
 62
   257
176
     1
 40
1.0
176
     1
 90
        1
176
     1
 90
        6
176
     1
 90
        2
176
     1
 62
     7
176
     1
 90
        3
176
     1
 90
        0
176
     1
 90
        0
176
     1
290
     0
176
     1
 90
        5
176
     1
 40
0.0
176
     1
 90
        0
176
     1
290
     0
176
     1
290
     1
176
     1
290
     1
176
     1
290
     0
176
     1
290
     0
176
     1
290
     0
176
     1
290
     0
176
     1
290
     0
176
     1
290
     0
176
     1
 90
       50
176
     1
 40
0.0
176
     1
 40
1.0
176
     1
 90
        0
176
     1
 62
    18
420
        0
176
     1
 90
       50
176
     1
 90
        3
176
     1
 62
     5
420
      255
176
     1
290
     0
176
     1
 90
       50
176
     1
 90
       50
176
     1
 90
       50
176
     1
290
     0
176
     1
 90
       50
176
     1
 62
   256
176
     0
 40
1.0
176
     0
 90
        2
176
     1
  1
strokes_ogs.tif
176
     1
290
     0
176
     1
 40
1.0
176
     1
 40
1.0
176
     1
  0
VISUALSTYLE
  5
3E7
102
{ACAD_REACTORS
330
3D3
102
}
330
3D3
100
AcDbVisualStyle
  2
Shades of Gray
 70
    23
177
     3
291
     0
 70
    58
 90
        2
176
     1
 90
        2
176
     1
 90
        3
176
     1
 90
        0
176
     1
 40
0.6
176
     1
 40
30.0
176
     1
 62
     7
420
 16777215
176
     1
 90
        2
176
     1
 90
        2
176
     1
 62
     7
176
     1
 62
     7
176
     1
 90
        1
176
     1
 90
        1
176
     1
 40
40.0
176
     1
 90
        8
176
     1
 62
     7
176
     1
 40
1.0
176
     1
 90
        1
176
     1
 90
        6
176
     1
 90
        2
176
     1
 62
     7
176
     1
 90
        3
176
     1
 90
        0
176
     1
 90
        0
176
     1
290
     0
176
     1
 90
        1
176
     1
 40
0.0
176
     1
 90
        0
176
     1
290
     0
176
     1
290
     1
176
     1
290
     1
176
     1
290
     0
176
     1
290
     0
176
     1
290
     0
176
     1
290
     0
176
     1
290
     0
176
     1
290
     0
176
     1
 90
       50
176
     1
 40
0.0
176
     1
 40
1.0
176
     1
 90
        0
176
     1
 62
    18
420
        0
176
     1
 90
       50
176
     1
 90
        3
176
     1
 62
     5
420
      255
176
     1
290
     0
176
     1
 90
       50
176
     1
 90
       50
176
     1
 90
       50
176
     1
290
     0
176
     1
 90
       50
176
     1
 62
   256
176
     0
 40
1.0
176
     0
 90
        2
176
     1
  1
strokes_ogs.tif
176
     1
290
     0
176
     1
 40
1.0
176
     1
 40
1.0
176
     1
  0
VISUALSTYLE
  5
3E8
102
{ACAD_REACTORS
330
3D3
102
}
330
3D3
100
AcDbVisualStyle
  2
Sketchy
 70
    24
177
     3
291
     0
 70
    58
 90
        1
176
     1
 90
        2
176
     1
 90
        2
176
     1
 90
        0
176
     1
 40
0.6
176
     1
 40
30.0
176
     1
 62
     7
420
 16777215
176
     1
 90
        2
176
     1
 90
        2
176
     1
 62
     7
176
     1
 62
     7
176
     1
 90
        1
176
     1
 90
        1
176
     1
 40
40.0
176
     1
 90
       11
176
     1
 62
     7
176
     1
 40
1.0
176
     1
 90
        1
176
     1
 90
        6
176
     1
 90
        2
176
     1
 62
     7
176
     1
 90
        6
176
     1
 90
        0
176
     1
 90
        0
176
     1
290
     0
176
     1
 90
        1
176
     1
 40
0.0
176
     1
 90
        0
176
     1
290
     0
176
     1
290
     1
176
     1
290
     1
176
     1
290
     0
176
     1
290
     0
176
     1
290
     0
176
     1
290
     0
176
     1
290
     0
176
     1
290
     0
176
     1
 90
       50
176
     1
 40
0.0
176
     1
 40
1.0
176
     1
 90
        0
176
     1
 62
    18
420
        0
176
     1
 90
       50
176
     1
 90
        3
176
     1
 62
     5
420
      255
176
     1
290
     0
176
     1
 90
       50
176
     1
 90
       50
176
     1
 90
       50
176
     1
290
     0
176
     1
 90
       50
176
     1
 62
   256
176
     0
 40
1.0
176
     0
 90
        2
176
     1
  1
strokes_ogs.tif
176
     1
290
     0
176
     1
 40
1.0
176
     1
 40
1.0
176
     1
  0
VISUALSTYLE
  5
3E0
102
{ACAD_REACTORS
330
3D3
102
}
330
3D3
100
AcDbVisualStyle
  2
Thicken
 70
    13
177
     3
291
     1
 70
    58
 90
        2
176
     1
 90
        2
176
     1
 90
        0
176
     1
 90
        0
176
     1
 40
0.6
176
     1
 40
30.0
176
     1
 62
     7
420
 16777215
176
     1
 90
        1
176
     1
 90
        4
176
     1
 62
     7
176
     1
 62
   257
176
     1
 90
        1
176
     1
 90
        1
176
     1
 40
1.0
176
     1
 90
       12
176
     1
 62
     7
176
     1
 40
1.0
176
     1
 90
        1
176
     1
 90
        6
176
     1
 90
        2
176
     1
 62
     7
176
     1
 90
        5
176
     1
 90
        0
176
     1
 90
        0
176
     1
290
     0
176
     1
 90
        1
176
     1
 40
0.0
176
     1
 90
        0
176
     1
290
     0
176
     1
290
     1
176
     1
290
     1
176
     1
290
     0
176
     1
290
     0
176
     1
290
     0
176
     1
290
     0
176
     1
290
     0
176
     1
290
     0
176
     1
 90
       50
176
     1
 40
0.0
176
     1
 40
1.0
176
     1
 90
        0
176
     1
 62
    18
420
        0
176
     1
 90
       50
176
     1
 90
        3
176
     1
 62
     5
420
      255
176
     1
290
     0
176
     1
 90
       50
176
     1
 90
       50
176
     1
 90
       50
176
     1
290
     0
176
     1
 90
       50
176
     1
 62
   256
176
     0
 40
1.0
176
     0
 90
        2
176
     1
  1
strokes_ogs.tif
176
     1
290
     0
176
     1
 40
1.0
176
     1
 40
1.0
176
     1
  0
VISUALSTYLE
  5
3D9
102
{ACAD_REACTORS
330
3D3
102
}
330
3D3
100
AcDbVisualStyle
  2
Wireframe
 70
     5
177
     3
291
     0
 70
    58
 90
        0
176
     1
 90
        2
176
     1
 90
        0
176
     1
 90
        0
176
     1
 40
0.6
176
     1
 40
30.0
176
     1
 62
     7
420
 16777215
176
     1
 90
        1
176
     1
 90
        4
176
     1
 62
     7
176
     1
 62
   257
176
     1
 90
        1
176
     1
 90
        1
176
     1
 40
1.0
176
     1
 90
        0
176
     1
 62
   257
176
     1
 40
1.0
176
     1
 90
        1
176
     1
 90
        6
176
     1
 90
        2
176
     1
 62
     7
176
     1
 90
        3
176
     1
 90
        0
176
     1
 90
        0
176
     1
290
     0
176
     1
 90
        1
176
     1
 40
0.0
176
     1
 90
        0
176
     1
290
     0
176
     1
290
     1
176
     1
290
     1
176
     1
290
     0
176
     1
290
     0
176
     1
290
     0
176
     1
290
     0
176
     1
290
     0
176
     1
290
     0
176
     1
 90
       50
176
     1
 40
0.0
176
     1
 40
1.0
176
     1
 90
        0
176
     1
 62
    18
420
        0
176
     1
 90
       50
176
     1
 90
        3
176
     1
 62
     5
420
      255
176
     1
290
     0
176
     1
 90
       50
176
     1
 90
       50
176
     1
 90
       50
176
     1
290
     0
176
     1
 90
       50
176
     1
 62
   256
176
     0
 40
1.0
176
     0
 90
        2
176
     1
  1
strokes_ogs.tif
176
     1
290
     0
176
     1
 40
1.0
176
     1
 40
1.0
176
     1
  0
VISUALSTYLE
  5
3E9
102
{ACAD_REACTORS
330
3D3
102
}
330
3D3
100
AcDbVisualStyle
  2
X-Ray
 70
    25
177
     3
291
     0
 70
    58
 90
        2
176
     1
 90
        2
176
     1
 90
        1
176
     1
 90
        1
176
     1
 40
0.5
176
     1
 40
30.0
176
     1
 62
     7
420
 16777215
176
     1
 90
        1
176
     1
 90
        0
176
     1
 62
     7
176
     1
 62
   257
176
     1
 90
        1
176
     1
 90
        1
176
     1
 40
1.0
176
     1
 90
        8
176
     1
 62
     7
176
     1
 40
1.0
176
     1
 90
        1
176
     1
 90
        6
176
     1
 90
        2
176
     1
 62
     7
176
     1
 90
        3
176
     1
 90
        0
176
     1
 90
        0
176
     1
290
     0
176
     1
 90
       13
176
     1
 40
0.0
176
     1
 90
        0
176
     1
290
     0
176
     1
290
     1
176
     1
290
     1
176
     1
290
     0
176
     1
290
     0
176
     1
290
     0
176
     1
290
     0
176
     1
290
     0
176
     1
290
     0
176
     1
 90
       50
176
     1
 40
0.0
176
     1
 40
1.0
176
     1
 90
        0
176
     1
 62
    18
420
        0
176
     1
 90
       50
176
     1
 90
        3
176
     1
 62
     5
420
      255
176
     1
290
     0
176
     1
 90
       50
176
     1
 90
       50
176
     1
 90
       50
176
     1
290
     0
176
     1
 90
       50
176
     1
 62
   256
176
     0
 40
1.0
176
     0
 90
        2
176
     1
  1
strokes_ogs.tif
176
     1
290
     0
176
     1
 40
1.0
176
     1
 40
1.0
176
     1
  0
DICTIONARYVAR
  5
3F6
102
{ACAD_REACTORS
330
3F5
102
}
330
3F5
100
DictionaryVariables
280
     0
  1
1:1
  0
DICTIONARYVAR
  5
3FD
102
{ACAD_REACTORS
330
3F5
102
}
330
3F5
100
DictionaryVariables
280
     0
  1
Standard
  0
DICTIONARYVAR
  5
3FC
102
{ACAD_REACTORS
330
3F5
102
}
330
3F5
100
DictionaryVariables
280
     0
  1
Standard
  0
DICTIONARY
  5
3F7
330
3AF
100
AcDbDictionary
280
     1
281
     1
  3
ACAD_ROUNDTRIP_2008_TABLESTYLE_CELLSTYLEMAP
360
3F8
  0
DICTIONARY
  5
3F9
330
3B0
100
AcDbDictionary
280
     1
281
     1
  3
ACAD_ROUNDTRIP_2008_TABLESTYLE_CELLSTYLEMAP
360
3FA
  0
CELLSTYLEMAP
  5
3F8
102
{ACAD_REACTORS
330
3F7
102
}
330
3F7
100
AcDbCellStyleMap
 90
        3
300
CELLSTYLE
  1
TABLEFORMAT_BEGIN
 90
        5
170
     1
 91
        0
 92
    32768
 62
   257
 93
        1
300
CONTENTFORMAT
  1
CONTENTFORMAT_BEGIN
 90
        0
 91
        0
 92
        4
 93
        0
300

 40
0.0
140
1.0
 94
        1
 62
     0
340
11
144
0.18
309
CONTENTFORMAT_END
171
     1
301
MARGIN
  1
CELLMARGIN_BEGIN
 40
0.06
 40
0.06
 40
0.06
 40
0.06
 40
0.18
 40
0.18
309
CELLMARGIN_END
 94
        6
 95
        1
302
GRIDFORMAT
  1
GRIDFORMAT_BEGIN
 90
        0
 91
        1
 62
     0
 92
       -2
340
0
 93
        0
 40
0.045
309
GRIDFORMAT_END
 95
        2
302
GRIDFORMAT
  1
GRIDFORMAT_BEGIN
 90
        0
 91
        1
 62
     0
 92
       -2
340
0
 93
        0
 40
0.045
309
GRIDFORMAT_END
 95
        4
302
GRIDFORMAT
  1
GRIDFORMAT_BEGIN
 90
        0
 91
        1
 62
     0
 92
       -2
340
0
 93
        0
 40
0.045
309
GRIDFORMAT_END
 95
        8
302
GRIDFORMAT
  1
GRIDFORMAT_BEGIN
 90
        0
 91
        1
 62
     0
 92
       -2
340
0
 93
        0
 40
0.045
309
GRIDFORMAT_END
 95
       16
302
GRIDFORMAT
  1
GRIDFORMAT_BEGIN
 90
        0
 91
        1
 62
     0
 92
       -2
340
0
 93
        0
 40
0.045
309
GRIDFORMAT_END
 95
       32
302
GRIDFORMAT
  1
GRIDFORMAT_BEGIN
 90
        0
 91
        1
 62
     0
 92
       -2
340
0
 93
        0
 40
0.045
309
GRIDFORMAT_END
309
TABLEFORMAT_END
  1
CELLSTYLE_BEGIN
 90
        1
 91
        1
300
_TITLE
309
CELLSTYLE_END
300
CELLSTYLE
  1
TABLEFORMAT_BEGIN
 90
        5
170
     1
 91
        0
 92
        0
 62
   257
 93
        1
300
CONTENTFORMAT
  1
CONTENTFORMAT_BEGIN
 90
        0
 91
        0
 92
        4
 93
        0
300

 40
0.0
140
1.0
 94
        1
 62
     0
340
11
144
0.18
309
CONTENTFORMAT_END
171
     1
301
MARGIN
  1
CELLMARGIN_BEGIN
 40
0.06
 40
0.06
 40
0.06
 40
0.06
 40
0.18
 40
0.18
309
CELLMARGIN_END
 94
        6
 95
        1
302
GRIDFORMAT
  1
GRIDFORMAT_BEGIN
 90
        0
 91
        1
 62
     0
 92
       -2
340
0
 93
        0
 40
0.045
309
GRIDFORMAT_END
 95
        2
302
GRIDFORMAT
  1
GRIDFORMAT_BEGIN
 90
        0
 91
        1
 62
     0
 92
       -2
340
0
 93
        0
 40
0.045
309
GRIDFORMAT_END
 95
        4
302
GRIDFORMAT
  1
GRIDFORMAT_BEGIN
 90
        0
 91
        1
 62
     0
 92
       -2
340
0
 93
        0
 40
0.045
309
GRIDFORMAT_END
 95
        8
302
GRIDFORMAT
  1
GRIDFORMAT_BEGIN
 90
        0
 91
        1
 62
     0
 92
       -2
340
0
 93
        0
 40
0.045
309
GRIDFORMAT_END
 95
       16
302
GRIDFORMAT
  1
GRIDFORMAT_BEGIN
 90
        0
 91
        1
 62
     0
 92
       -2
340
0
 93
        0
 40
0.045
309
GRIDFORMAT_END
 95
       32
302
GRIDFORMAT
  1
GRIDFORMAT_BEGIN
 90
        0
 91
        1
 62
     0
 92
       -2
340
0
 93
        0
 40
0.045
309
GRIDFORMAT_END
309
TABLEFORMAT_END
  1
CELLSTYLE_BEGIN
 90
        2
 91
        1
300
_HEADER
309
CELLSTYLE_END
300
CELLSTYLE
  1
TABLEFORMAT_BEGIN
 90
        5
170
     1
 91
        0
 92
        0
 62
   257
 93
        1
300
CONTENTFORMAT
  1
CONTENTFORMAT_BEGIN
 90
        0
 91
        0
 92
        4
 93
        0
300

 40
0.0
140
1.0
 94
        1
 62
     0
340
11
144
0.18
309
CONTENTFORMAT_END
171
     1
301
MARGIN
  1
CELLMARGIN_BEGIN
 40
0.06
 40
0.06
 40
0.06
 40
0.06
 40
0.18
 40
0.18
309
CELLMARGIN_END
 94
        6
 95
        1
302
GRIDFORMAT
  1
GRIDFORMAT_BEGIN
 90
        0
 91
        1
 62
     0
 92
       -2
340
0
 93
        0
 40
0.045
309
GRIDFORMAT_END
 95
        2
302
GRIDFORMAT
  1
GRIDFORMAT_BEGIN
 90
        0
 91
        1
 62
     0
 92
       -2
340
0
 93
        0
 40
0.045
309
GRIDFORMAT_END
 95
        4
302
GRIDFORMAT
  1
GRIDFORMAT_BEGIN
 90
        0
 91
        1
 62
     0
 92
       -2
340
0
 93
        0
 40
0.045
309
GRIDFORMAT_END
 95
        8
302
GRIDFORMAT
  1
GRIDFORMAT_BEGIN
 90
        0
 91
        1
 62
     0
 92
       -2
340
0
 93
        0
 40
0.045
309
GRIDFORMAT_END
 95
       16
302
GRIDFORMAT
  1
GRIDFORMAT_BEGIN
 90
        0
 91
        1
 62
     0
 92
       -2
340
0
 93
        0
 40
0.045
309
GRIDFORMAT_END
 95
       32
302
GRIDFORMAT
  1
GRIDFORMAT_BEGIN
 90
        0
 91
        1
 62
     0
 92
       -2
340
0
 93
        0
 40
0.045
309
GRIDFORMAT_END
309
TABLEFORMAT_END
  1
CELLSTYLE_BEGIN
 90
        3
 91
        2
300
_DATA
309
CELLSTYLE_END
  0
CELLSTYLEMAP
  5
3FA
102
{ACAD_REACTORS
330
3F9
102
}
330
3F9
100
AcDbCellStyleMap
 90
        3
300
CELLSTYLE
  1
TABLEFORMAT_BEGIN
 90
        5
170
     1
 91
        0
 92
    32768
 62
   257
 93
        1
300
CONTENTFORMAT
  1
CONTENTFORMAT_BEGIN
 90
        0
 91
        0
 92
        4
 93
        0
300

 40
0.0
140
1.0
 94
        1
 62
     0
340
11
144
0.18
309
CONTENTFORMAT_END
171
     1
301
MARGIN
  1
CELLMARGIN_BEGIN
 40
0.06
 40
0.06
 40
0.06
 40
0.06
 40
0.18
 40
0.18
309
CELLMARGIN_END
 94
        6
 95
        1
302
GRIDFORMAT
  1
GRIDFORMAT_BEGIN
 90
        0
 91
        1
 62
     0
 92
       -2
340
0
 93
        0
 40
0.045
309
GRIDFORMAT_END
 95
        2
302
GRIDFORMAT
  1
GRIDFORMAT_BEGIN
 90
        0
 91
        1
 62
     0
 92
       -2
340
0
 93
        0
 40
0.045
309
GRIDFORMAT_END
 95
        4
302
GRIDFORMAT
  1
GRIDFORMAT_BEGIN
 90
        0
 91
        1
 62
     0
 92
       -2
340
0
 93
        0
 40
0.045
309
GRIDFORMAT_END
 95
        8
302
GRIDFORMAT
  1
GRIDFORMAT_BEGIN
 90
        0
 91
        1
 62
     0
 92
       -2
340
0
 93
        0
 40
0.045
309
GRIDFORMAT_END
 95
       16
302
GRIDFORMAT
  1
GRIDFORMAT_BEGIN
 90
        0
 91
        1
 62
     0
 92
       -2
340
0
 93
        0
 40
0.045
309
GRIDFORMAT_END
 95
       32
302
GRIDFORMAT
  1
GRIDFORMAT_BEGIN
 90
        0
 91
        1
 62
     0
 92
       -2
340
0
 93
        0
 40
0.045
309
GRIDFORMAT_END
309
TABLEFORMAT_END
  1
CELLSTYLE_BEGIN
 90
        1
 91
        1
300
_TITLE
309
CELLSTYLE_END
300
CELLSTYLE
  1
TABLEFORMAT_BEGIN
 90
        5
170
     1
 91
        0
 92
        0
 62
   257
 93
        1
300
CONTENTFORMAT
  1
CONTENTFORMAT_BEGIN
 90
        0
 91
        0
 92
        4
 93
        0
300

 40
0.0
140
1.0
 94
        1
 62
     0
340
11
144
0.18
309
CONTENTFORMAT_END
171
     1
301
MARGIN
  1
CELLMARGIN_BEGIN
 40
0.06
 40
0.06
 40
0.06
 40
0.06
 40
0.18
 40
0.18
309
CELLMARGIN_END
 94
        6
 95
        1
302
GRIDFORMAT
  1
GRIDFORMAT_BEGIN
 90
        0
 91
        1
 62
     0
 92
       -2
340
0
 93
        0
 40
0.045
309
GRIDFORMAT_END
 95
        2
302
GRIDFORMAT
  1
GRIDFORMAT_BEGIN
 90
        0
 91
        1
 62
     0
 92
       -2
340
0
 93
        0
 40
0.045
309
GRIDFORMAT_END
 95
        4
302
GRIDFORMAT
  1
GRIDFORMAT_BEGIN
 90
        0
 91
        1
 62
     0
 92
       -2
340
0
 93
        0
 40
0.045
309
GRIDFORMAT_END
 95
        8
302
GRIDFORMAT
  1
GRIDFORMAT_BEGIN
 90
        0
 91
        1
 62
     0
 92
       -2
340
0
 93
        0
 40
0.045
309
GRIDFORMAT_END
 95
       16
302
GRIDFORMAT
  1
GRIDFORMAT_BEGIN
 90
        0
 91
        1
 62
     0
 92
       -2
340
0
 93
        0
 40
0.045
309
GRIDFORMAT_END
 95
       32
302
GRIDFORMAT
  1
GRIDFORMAT_BEGIN
 90
        0
 91
        1
 62
     0
 92
       -2
340
0
 93
        0
 40
0.045
309
GRIDFORMAT_END
309
TABLEFORMAT_END
  1
CELLSTYLE_BEGIN
 90
        2
 91
        1
300
_HEADER
309
CELLSTYLE_END
300
CELLSTYLE
  1
TABLEFORMAT_BEGIN
 90
        5
170
     1
 91
        0
 92
        0
 62
   257
 93
        1
300
CONTENTFORMAT
  1
CONTENTFORMAT_BEGIN
 90
        0
 91
        0
 92
        4
 93
        0
300

 40
0.0
140
1.0
 94
        1
 62
     0
340
11
144
0.18
309
CONTENTFORMAT_END
171
     1
301
MARGIN
  1
CELLMARGIN_BEGIN
 40
0.06
 40
0.06
 40
0.06
 40
0.06
 40
0.18
 40
0.18
309
CELLMARGIN_END
 94
        6
 95
        1
302
GRIDFORMAT
  1
GRIDFORMAT_BEGIN
 90
        0
 91
        1
 62
     0
 92
       -2
340
0
 93
        0
 40
0.045
309
GRIDFORMAT_END
 95
        2
302
GRIDFORMAT
  1
GRIDFORMAT_BEGIN
 90
        0
 91
        1
 62
     0
 92
       -2
340
0
 93
        0
 40
0.045
309
GRIDFORMAT_END
 95
        4
302
GRIDFORMAT
  1
GRIDFORMAT_BEGIN
 90
        0
 91
        1
 62
     0
 92
       -2
340
0
 93
        0
 40
0.045
309
GRIDFORMAT_END
 95
        8
302
GRIDFORMAT
  1
GRIDFORMAT_BEGIN
 90
        0
 91
        1
 62
     0
 92
       -2
340
0
 93
        0
 40
0.045
309
GRIDFORMAT_END
 95
       16
302
GRIDFORMAT
  1
GRIDFORMAT_BEGIN
 90
        0
 91
        1
 62
     0
 92
       -2
340
0
 93
        0
 40
0.045
309
GRIDFORMAT_END
 95
       32
302
GRIDFORMAT
  1
GRIDFORMAT_BEGIN
 90
        0
 91
        1
 62
     0
 92
       -2
340
0
 93
        0
 40
0.045
309
GRIDFORMAT_END
309
TABLEFORMAT_END
  1
CELLSTYLE_BEGIN
 90
        3
 91
        2
300
_DATA
309
CELLSTYLE_END
  0
ENDSEC
  0
EOF
