  0
SECTION
  2
HEADER
  9
$ACADVER
  1
AC1027
  9
$ACADMAINTVER
 70
   105
  9
$DWGCODEPAGE
  3
ANSI_1252
  9
$REQUIREDVERSIONS
160
                 0
  9
$LASTSAVEDBY
  1
andrea.zolin
  9
$INSBASE
 10
0.0
 20
0.0
 30
0.0
  9
$EXTMIN
 10
0.0
 20
0.0
 30
0.0
  9
$EXTMAX
 10
297.0
 20
210.0
 30
0.0
  9
$LIMMIN
 10
0.0
 20
0.0
  9
$LIMMAX
 10
297.0
 20
210.0
  9
$ORTHOMODE
 70
     0
  9
$REGENMODE
 70
     1
  9
$FILLMODE
 70
     1
  9
$QTEXTMODE
 70
     0
  9
$MIRRTEXT
 70
     1
  9
$LTSCALE
 40
16.335
  9
$ATTMODE
 70
     1
  9
$TEXTSIZE
 40
0.2
  9
$TRACEWID
 40
0.05
  9
$TEXTSTYLE
  7
STANDARD
  9
$CLAYER
  8
0
  9
$CELTYPE
  6
BYLAYER
  9
$CECOLOR
 62
   256
  9
$CELTSCALE
 40
1.0
  9
$DISPSILH
 70
     0
  9
$DIMSCALE
 40
1.0
  9
$DIMASZ
 40
2.5
  9
$DIMEXO
 40
0.75
  9
$DIMDLI
 40
11.286
  9
$DIMRND
 40
0.0
  9
$DIMDLE
 40
0.0
  9
$DIMEXE
 40
0.75
  9
$DIMTP
 40
0.01
  9
$DIMTM
 40
0.01
  9
$DIMTXT
 40
3.0
  9
$DIMCEN
 40
2.673
  9
$DIMTSZ
 40
0.0
  9
$DIMTOL
 70
     1
  9
$DIMLIM
 70
     0
  9
$DIMTIH
 70
     1
  9
$DIMTOH
 70
     1
  9
$DIMSE1
 70
     0
  9
$DIMSE2
 70
     0
  9
$DIMTAD
 70
     0
  9
$DIMZIN
 70
     0
  9
$DIMBLK
  1
CLOSED
  9
$DIMASO
 70
     1
  9
$DIMSHO
 70
     1
  9
$DIMPOST
  1

  9
$DIMAPOST
  1

  9
$DIMALT
 70
     0
  9
$DIMALTD
 70
     2
  9
$DIMALTF
 40
25.4
  9
$DIMLFAC
 40
1.0
  9
$DIMTOFL
 70
     0
  9
$DIMTVP
 40
0.0
  9
$DIMTIX
 70
     0
  9
$DIMSOXD
 70
     0
  9
$DIMSAH
 70
     0
  9
$DIMBLK1
  1

  9
$DIMBLK2
  1

  9
$DIMSTYLE
  2
STANDARD
  9
$DIMCLRD
 70
     0
  9
$DIMCLRE
 70
     0
  9
$DIMCLRT
 70
     0
  9
$DIMTFAC
 40
1.0
  9
$DIMGAP
 40
0.625
  9
$DIMJUST
 70
     0
  9
$DIMSD1
 70
     0
  9
$DIMSD2
 70
     0
  9
$DIMTOLJ
 70
     1
  9
$DIMTZIN
 70
     0
  9
$DIMALTZ
 70
     0
  9
$DIMALTTZ
 70
     0
  9
$DIMUPT
 70
     0
  9
$DIMDEC
 70
     4
  9
$DIMTDEC
 70
     4
  9
$DIMALTU
 70
     2
  9
$DIMALTTD
 70
     2
  9
$DIMTXSTY
  7
STANDARD
  9
$DIMAUNIT
 70
     0
  9
$DIMADEC
 70
     0
  9
$DIMALTRND
 40
0.0
  9
$DIMAZIN
 70
     0
  9
$DIMDSEP
 70
    44
  9
$DIMATFIT
 70
     3
  9
$DIMFRAC
 70
     0
  9
$DIMLDRBLK
  1

  9
$DIMLUNIT
 70
     2
  9
$DIMLWD
 70
    -2
  9
$DIMLWE
 70
    -2
  9
$DIMTMOVE
 70
     0
  9
$DIMFXL
 40
1.0
  9
$DIMFXLON
 70
     0
  9
$DIMJOGANG
 40
0.7853981633974483
  9
$DIMTFILL
 70
     0
  9
$DIMTFILLCLR
 70
     0
  9
$DIMARCSYM
 70
     0
  9
$DIMLTYPE
  6

  9
$DIMLTEX1
  6

  9
$DIMLTEX2
  6

  9
$DIMTXTDIRECTION
 70
     0
  9
$LUNITS
 70
     2
  9
$LUPREC
 70
     4
  9
$SKETCHINC
 40
0.1
  9
$FILLETRAD
 40
0.5
  9
$AUNITS
 70
     0
  9
$AUPREC
 70
     0
  9
$MENU
  1
.
  9
$ELEVATION
 40
0.0
  9
$PELEVATION
 40
0.0
  9
$THICKNESS
 40
0.0
  9
$LIMCHECK
 70
     0
  9
$CHAMFERA
 40
0.0
  9
$CHAMFERB
 40
0.0
  9
$CHAMFERC
 40
0.0
  9
$CHAMFERD
 40
0.0
  9
$SKPOLY
 70
     0
  9
$TDCREATE
 40
2447893.041666667
  9
$TDUCREATE
 40
0.0
  9
$TDUPDATE
 40
2458816.729358542
  9
$TDUUPDATE
 40
2458816.687691875
  9
$TDINDWG
 40
0.0001937384
  9
$TDUSRTIMER
 40
0.0001937384
  9
$USRTIMER
 70
     1
  9
$ANGBASE
 50
0.0
  9
$ANGDIR
 70
     0
  9
$PDMODE
 70
     3
  9
$PDSIZE
 40
0.3125
  9
$PLINEWID
 40
0.0
  9
$SPLFRAME
 70
     0
  9
$SPLINETYPE
 70
     6
  9
$SPLINESEGS
 70
     8
  9
$HANDSEED
  5
338
  9
$SURFTAB1
 70
     6
  9
$SURFTAB2
 70
     6
  9
$SURFTYPE
 70
     6
  9
$SURFU
 70
     6
  9
$SURFV
 70
     6
  9
$UCSBASE
  2

  9
$UCSNAME
  2

  9
$UCSORG
 10
0.0
 20
0.0
 30
0.0
  9
$UCSXDIR
 10
1.0
 20
0.0
 30
0.0
  9
$UCSYDIR
 10
0.0
 20
1.0
 30
0.0
  9
$UCSORTHOREF
  2

  9
$UCSORTHOVIEW
 70
     0
  9
$UCSORGTOP
 10
0.0
 20
0.0
 30
0.0
  9
$UCSORGBOTTOM
 10
0.0
 20
0.0
 30
0.0
  9
$UCSORGLEFT
 10
0.0
 20
0.0
 30
0.0
  9
$UCSORGRIGHT
 10
0.0
 20
0.0
 30
0.0
  9
$UCSORGFRONT
 10
0.0
 20
0.0
 30
0.0
  9
$UCSORGBACK
 10
0.0
 20
0.0
 30
0.0
  9
$PUCSBASE
  2

  9
$PUCSNAME
  2

  9
$PUCSORG
 10
0.0
 20
0.0
 30
0.0
  9
$PUCSXDIR
 10
1.0
 20
0.0
 30
0.0
  9
$PUCSYDIR
 10
0.0
 20
1.0
 30
0.0
  9
$PUCSORTHOREF
  2

  9
$PUCSORTHOVIEW
 70
     0
  9
$PUCSORGTOP
 10
0.0
 20
0.0
 30
0.0
  9
$PUCSORGBOTTOM
 10
0.0
 20
0.0
 30
0.0
  9
$PUCSORGLEFT
 10
0.0
 20
0.0
 30
0.0
  9
$PUCSORGRIGHT
 10
0.0
 20
0.0
 30
0.0
  9
$PUCSORGFRONT
 10
0.0
 20
0.0
 30
0.0
  9
$PUCSORGBACK
 10
0.0
 20
0.0
 30
0.0
  9
$USERI1
 70
     0
  9
$USERI2
 70
     0
  9
$USERI3
 70
     0
  9
$USERI4
 70
     0
  9
$USERI5
 70
     0
  9
$USERR1
 40
0.0
  9
$USERR2
 40
0.0
  9
$USERR3
 40
0.0
  9
$USERR4
 40
0.0
  9
$USERR5
 40
0.0
  9
$WORLDVIEW
 70
     1
  9
$SHADEDGE
 70
     3
  9
$SHADEDIF
 70
    70
  9
$TILEMODE
 70
     0
  9
$MAXACTVP
 70
    64
  9
$PINSBASE
 10
0.0
 20
0.0
 30
0.0
  9
$PLIMCHECK
 70
     0
  9
$PEXTMIN
 10
9.949999999999989
 20
9.950000000000003
 30
0.0
  9
$PEXTMAX
 10
291.7524117122
 20
200.05
 30
0.0
  9
$PLIMMIN
 10
0.0
 20
0.0
  9
$PLIMMAX
 10
297.0
 20
210.0
  9
$UNITMODE
 70
     0
  9
$VISRETAIN
 70
     1
  9
$PLINEGEN
 70
     0
  9
$PSLTSCALE
 70
     1
  9
$TREEDEPTH
 70
  3020
  9
$CMLSTYLE
  2
Standard
  9
$CMLJUST
 70
     0
  9
$CMLSCALE
 40
1.0
  9
$PROXYGRAPHICS
 70
     1
  9
$MEASUREMENT
 70
     1
  9
$CELWEIGHT
370
    -1
  9
$ENDCAPS
280
     0
  9
$JOINSTYLE
280
     0
  9
$LWDISPLAY
290
     0
  9
$INSUNITS
 70
     4
  9
$HYPERLINKBASE
  1

  9
$STYLESHEET
  1

  9
$XEDIT
290
     1
  9
$CEPSNTYPE
380
     0
  9
$PSTYLEMODE
290
     1
  9
$FINGERPRINTGUID
  2
{2B97E539-AEE8-4BE4-BFE1-4818BBB8E32E}
  9
$VERSIONGUID
  2
{FAEB1C32-E019-11D5-929B-00C0DF256EC4}
  9
$EXTNAMES
290
     1
  9
$PSVPSCALE
 40
0.0
  9
$OLESTARTUP
290
     0
  9
$SORTENTS
280
   127
  9
$INDEXCTL
280
     0
  9
$HIDETEXT
280
     1
  9
$XCLIPFRAME
280
     2
  9
$HALOGAP
280
     0
  9
$OBSCOLOR
 70
   257
  9
$OBSLTYPE
280
     0
  9
$INTERSECTIONDISPLAY
280
     0
  9
$INTERSECTIONCOLOR
 70
   257
  9
$DIMASSOC
280
     2
  9
$PROJECTNAME
  1

  9
$CAMERADISPLAY
290
     0
  9
$LENSLENGTH
 40
50.0
  9
$CAMERAHEIGHT
 40
0.0
  9
$STEPSPERSEC
 40
2.0
  9
$STEPSIZE
 40
6.0
  9
$3DDWFPREC
 40
2.0
  9
$PSOLWIDTH
 40
0.25
  9
$PSOLHEIGHT
 40
4.0
  9
$LOFTANG1
 40
1.570796326794897
  9
$LOFTANG2
 40
1.570796326794897
  9
$LOFTMAG1
 40
0.0
  9
$LOFTMAG2
 40
0.0
  9
$LOFTPARAM
 70
     7
  9
$LOFTNORMALS
280
     1
  9
$LATITUDE
 40
37.795
  9
$LONGITUDE
 40
-122.394
  9
$NORTHDIRECTION
 40
0.0
  9
$TIMEZONE
 70
 -8000
  9
$LIGHTGLYPHDISPLAY
280
     1
  9
$TILEMODELIGHTSYNCH
280
     1
  9
$SOLIDHIST
280
     0
  9
$SHOWHIST
280
     1
  9
$DWFFRAME
280
     2
  9
$DGNFRAME
280
     2
  9
$REALWORLDSCALE
290
     1
  9
$INTERFERECOLOR
 62
   256
  9
$CSHADOW
280
     0
  9
$SHADOWPLANELOCATION
 40
0.0
  0
ENDSEC
  0
SECTION
  2
CLASSES
  0
CLASS
  1
ACDBDICTIONARYWDFLT
  2
AcDbDictionaryWithDefault
  3
ObjectDBX Classes
 90
        0
 91
        4
280
     0
281
     0
  0
CLASS
  1
ACDBPLACEHOLDER
  2
AcDbPlaceHolder
  3
ObjectDBX Classes
 90
        0
 91
        1
280
     0
281
     0
  0
CLASS
  1
LAYOUT
  2
AcDbLayout
  3
ObjectDBX Classes
 90
        0
 91
        1
280
     0
281
     0
  0
CLASS
  1
TABLESTYLE
  2
AcDbTableStyle
  3
ObjectDBX Classes
 90
     4095
 91
        4
280
     0
281
     0
  0
CLASS
  1
ACAD_TABLE
  2
AcDbTable
  3
ObjectDBX Classes
 90
     1025
 91
        4
280
     0
281
     1
  0
CLASS
  1
SCALE
  2
AcDbScale
  3
ObjectDBX Classes
 90
     1153
 91
        4
280
     0
281
     0
  0
CLASS
  1
VISUALSTYLE
  2
AcDbVisualStyle
  3
ObjectDBX Classes
 90
     4095
 91
        4
280
     0
281
     0
  0
CLASS
  1
TABLEGEOMETRY
  2
AcDbTableGeometry
  3
ObjectDBX Classes
 90
     1152
 91
        4
280
     0
281
     0
  0
CLASS
  1
MATERIAL
  2
AcDbMaterial
  3
ObjectDBX Classes
 90
     1153
 91
        4
280
     0
281
     0
  0
CLASS
  1
MLEADERSTYLE
  2
AcDbMLeaderStyle
  3
ACDB_MLEADERSTYLE_CLASS
 90
     4095
 91
        4
280
     0
281
     0
  0
CLASS
  1
SUN
  2
AcDbSun
  3
SCENEOE
 90
     1153
 91
        4
280
     0
281
     0
  0
CLASS
  1
DICTIONARYVAR
  2
AcDbDictionaryVar
  3
ObjectDBX Classes
 90
        0
 91
        4
280
     0
281
     0
  0
CLASS
  1
CELLSTYLEMAP
  2
AcDbCellStyleMap
  3
ObjectDBX Classes
 90
     1152
 91
        4
280
     0
281
     0
  0
ENDSEC
  0
SECTION
  2
TABLES
  0
TABLE
  2
VPORT
  5
8
330
0
100
AcDbSymbolTable
 70
     1
  0
VPORT
  5
1F4
330
8
100
AcDbSymbolTableRecord
100
AcDbViewportTableRecord
  2
*ACTIVE
 70
     0
 10
0.0
 20
0.0
 11
1.0
 21
1.0
 12
148.5
 22
105.0
 13
0.0
 23
0.0
 14
1.0
 24
1.0
 15
0.0
 25
0.0
 16
0.0
 26
0.0
 36
1.0
 17
0.0
 27
0.0
 37
0.0
 40
210.0
 41
1.4142857143
 42
50.0
 43
0.0
 44
0.0
 50
0.0
 51
0.0
 71
     0
 72
   100
 73
     1
 74
     1
 75
     0
 76
     0
 77
     0
 78
     0
281
     0
 65
     1
110
0.0
120
0.0
130
0.0
111
1.0
121
0.0
131
0.0
112
0.0
122
1.0
132
0.0
 79
     0
146
0.0
348
310
 60
     3
 61
     5
292
     1
282
     1
141
0.0
142
0.0
 63
   256
  0
ENDTAB
  0
TABLE
  2
LTYPE
  5
5
330
0
100
AcDbSymbolTable
 70
     6
  0
LTYPE
  5
14
330
5
100
AcDbSymbolTableRecord
100
AcDbLinetypeTableRecord
  2
BYBLOCK
 70
     0
  3

 72
    65
 73
     0
 40
0.0
  0
LTYPE
  5
15
330
5
100
AcDbSymbolTableRecord
100
AcDbLinetypeTableRecord
  2
BYLAYER
 70
     0
  3

 72
    65
 73
     0
 40
0.0
  0
LTYPE
  5
16
330
5
100
AcDbSymbolTableRecord
100
AcDbLinetypeTableRecord
  2
CONTINUOUS
 70
     0
  3
Solid line
 72
    65
 73
     0
 40
0.0
  0
LTYPE
  5
1F5
330
5
100
AcDbSymbolTableRecord
100
AcDbLinetypeTableRecord
  2
CENTER
 70
     0
  3
____ _ ____ _ ____ _ ____ _ ____ _ ____ _ ____
 72
    65
 73
     4
 40
0.6
 49
0.375
 74
     0
 49
-0.075
 74
     0
 49
0.075
 74
     0
 49
-0.075
 74
     0
  0
LTYPE
  5
1F6
330
5
100
AcDbSymbolTableRecord
100
AcDbLinetypeTableRecord
  2
HIDDEN
 70
     0
  3
- - - - - - - - - - - - - - - - - - - -
 72
    65
 73
     2
 40
0.2
 49
0.1
 74
     0
 49
-0.1
 74
     0
  0
LTYPE
  5
1F7
330
5
100
AcDbSymbolTableRecord
100
AcDbLinetypeTableRecord
  2
PHANTOM
 70
     0
  3
_____ _ _ _____ _ _ _____ _ _ _____
 72
    65
 73
     6
 40
0.8
 49
0.45
 74
     0
 49
-0.05
 74
     0
 49
0.1
 74
     0
 49
-0.05
 74
     0
 49
0.1
 74
     0
 49
-0.05
 74
     0
  0
LTYPE
  5
1F8
330
5
100
AcDbSymbolTableRecord
100
AcDbLinetypeTableRecord
  2
DOT
 70
     0
  3
. . . . . . . . . . . . . . . . . . . .
 72
    65
 73
     2
 40
0.2
 49
0.1
 74
     0
 49
-0.1
 74
     0
  0
LTYPE
  5
1F9
330
5
100
AcDbSymbolTableRecord
100
AcDbLinetypeTableRecord
  2
DASHED
 70
     0
  3
- - - - - - - - - - - - - - - - - - - -
 72
    65
 73
     2
 40
0.2
 49
0.1
 74
     0
 49
-0.1
 74
     0
  0
ENDTAB
  0
TABLE
  2
LAYER
  5
2
330
0
100
AcDbSymbolTable
 70
    20
  0
LAYER
  5
10
330
2
100
AcDbSymbolTableRecord
100
AcDbLayerTableRecord
  2
0
 70
     0
 62
     7
  6
CONTINUOUS
370
    -3
390
F
347
328
348
0
  0
LAYER
  5
1FA
330
2
100
AcDbSymbolTableRecord
100
AcDbLayerTableRecord
  2
DEFAULT_1
 70
     0
 62
     7
  6
CENTER
370
    -3
390
F
347
328
348
0
  0
LAYER
  5
1FB
330
2
100
AcDbSymbolTableRecord
100
AcDbLayerTableRecord
  2
DEFAULT_2
 70
     0
 62
     8
  6
HIDDEN
370
    -3
390
F
347
328
348
0
  0
LAYER
  5
1FC
330
2
100
AcDbSymbolTableRecord
100
AcDbLayerTableRecord
  2
DEFAULT_3
 70
     0
 62
     7
  6
PHANTOM
370
    -3
390
F
347
328
348
0
  0
LAYER
  5
1FD
330
2
100
AcDbSymbolTableRecord
100
AcDbLayerTableRecord
  2
01___PRT_ALL_DTM_PLN
 70
     0
 62
     7
  6
CONTINUOUS
370
    -3
390
F
347
328
348
0
  0
LAYER
  5
1FE
330
2
100
AcDbSymbolTableRecord
100
AcDbLayerTableRecord
  2
01___PRT_DEF_DTM_PLN
 70
     0
 62
     7
  6
CONTINUOUS
370
    -3
390
F
347
328
348
0
  0
LAYER
  5
1FF
330
2
100
AcDbSymbolTableRecord
100
AcDbLayerTableRecord
  2
02___PRT_ALL_AXES
 70
     0
 62
     7
  6
CONTINUOUS
370
    -3
390
F
347
328
348
0
  0
LAYER
  5
200
330
2
100
AcDbSymbolTableRecord
100
AcDbLayerTableRecord
  2
03___PRT_ALL_CURVES
 70
     0
 62
     7
  6
CONTINUOUS
370
    -3
390
F
347
328
348
0
  0
LAYER
  5
201
330
2
100
AcDbSymbolTableRecord
100
AcDbLayerTableRecord
  2
04___PRT_ALL_DTM_PNT
 70
     0
 62
     7
  6
CONTINUOUS
370
    -3
390
F
347
328
348
0
  0
LAYER
  5
202
330
2
100
AcDbSymbolTableRecord
100
AcDbLayerTableRecord
  2
05___PRT_ALL_DTM_CSYS
 70
     0
 62
     7
  6
CONTINUOUS
370
    -3
390
F
347
328
348
0
  0
LAYER
  5
203
330
2
100
AcDbSymbolTableRecord
100
AcDbLayerTableRecord
  2
05___PRT_DEF_DTM_CSYS
 70
     0
 62
     7
  6
CONTINUOUS
370
    -3
390
F
347
328
348
0
  0
LAYER
  5
204
330
2
100
AcDbSymbolTableRecord
100
AcDbLayerTableRecord
  2
06___PRT_ALL_SURFS
 70
     0
 62
     7
  6
CONTINUOUS
370
    -3
390
F
347
328
348
0
  0
LAYER
  5
205
330
2
100
AcDbSymbolTableRecord
100
AcDbLayerTableRecord
  2
1_ALL_PLANES
 70
     0
 62
     7
  6
CONTINUOUS
370
    -3
390
F
347
328
348
0
  0
LAYER
  5
206
330
2
100
AcDbSymbolTableRecord
100
AcDbLayerTableRecord
  2
2_ALL_CSYS
 70
     0
 62
     7
  6
CONTINUOUS
370
    -3
390
F
347
328
348
0
  0
LAYER
  5
207
330
2
100
AcDbSymbolTableRecord
100
AcDbLayerTableRecord
  2
3_ALL_AXES
 70
     0
 62
     7
  6
CONTINUOUS
370
    -3
390
F
347
328
348
0
  0
LAYER
  5
208
330
2
100
AcDbSymbolTableRecord
100
AcDbLayerTableRecord
  2
4_ALL_POINTS
 70
     0
 62
     7
  6
CONTINUOUS
370
    -3
390
F
347
328
348
0
  0
LAYER
  5
209
330
2
100
AcDbSymbolTableRecord
100
AcDbLayerTableRecord
  2
5_ALL_CURVES
 70
     0
 62
     7
  6
CONTINUOUS
370
    -3
390
F
347
328
348
0
  0
LAYER
  5
20A
330
2
100
AcDbSymbolTableRecord
100
AcDbLayerTableRecord
  2
6_ALL_SURFS
 70
     0
 62
     7
  6
CONTINUOUS
370
    -3
390
F
347
328
348
0
  0
LAYER
  5
20B
330
2
100
AcDbSymbolTableRecord
100
AcDbLayerTableRecord
  2
7_ALL_FEATURES
 70
     0
 62
     7
  6
CONTINUOUS
370
    -3
390
F
347
328
348
0
  0
LAYER
  5
20C
330
2
100
AcDbSymbolTableRecord
100
AcDbLayerTableRecord
  2
9_SOLID
 70
     0
 62
     7
  6
CONTINUOUS
370
    -3
390
F
347
328
348
0
  0
ENDTAB
  0
TABLE
  2
STYLE
  5
3
330
0
100
AcDbSymbolTable
 70
     4
  0
STYLE
  5
11
330
3
100
AcDbSymbolTableRecord
100
AcDbTextStyleTableRecord
  2
STANDARD
 70
     0
 40
0.0
 41
1.0
 50
0.0
 71
     0
 42
0.2
  3
arial.ttf
  4

  0
STYLE
  5
20D
330
3
100
AcDbSymbolTableRecord
100
AcDbTextStyleTableRecord
  2
TEXTSTYLE_1
 70
     0
 40
0.0
 41
0.8
 50
0.0
 71
     0
 42
0.2
  3
gdt
  4

  0
STYLE
  5
20E
330
3
100
AcDbSymbolTableRecord
100
AcDbTextStyleTableRecord
  2
TEXTSTYLE_2
 70
     0
 40
0.0
 41
0.85
 50
0.0
 71
     0
 42
0.2
  3
gdt
  4

  0
STYLE
  5
20F
330
3
100
AcDbSymbolTableRecord
100
AcDbTextStyleTableRecord
  2
TEXTSTYLE_3
 70
     0
 40
0.0
 41
0.85
 50
0.0
 71
     0
 42
0.2
  3
txt
  4

  0
ENDTAB
  0
TABLE
  2
VIEW
  5
6
330
0
100
AcDbSymbolTable
 70
     0
  0
ENDTAB
  0
TABLE
  2
UCS
  5
7
330
0
100
AcDbSymbolTable
 70
     0
  0
ENDTAB
  0
TABLE
  2
APPID
  5
9
330
0
100
AcDbSymbolTable
 70
     1
  0
APPID
  5
210
330
9
100
AcDbSymbolTableRecord
100
AcDbRegAppTableRecord
  2
ACAD
 70
     0
  0
ENDTAB
  0
TABLE
  2
DIMSTYLE
  5
A
330
0
100
AcDbSymbolTable
 70
     3
100
AcDbDimStyleTable
  0
DIMSTYLE
105
219
330
A
100
AcDbSymbolTableRecord
100
AcDbDimStyleTableRecord
  2
STANDARD
 70
     0
 41
2.5
 42
0.75
 44
0.75
 47
0.01
 48
0.01
 71
     1
 73
     0
 74
     0
 77
     1
 78
     8
 79
     2
140
3.0
147
0.625
171
     1
178
     0
179
     2
271
     2
272
     2
278
    44
284
     8
340
11
341
213
342
213
343
213
344
213
  0
DIMSTYLE
105
21A
330
A
100
AcDbSymbolTableRecord
100
AcDbDimStyleTableRecord
  2
DIMSTYLE_1
 70
     0
  3
<>
 41
2.5
 42
0.75
 44
0.75
 47
0.3
 48
0.3
 73
     0
 74
     0
 77
     1
 78
     8
 79
     2
140
3.0
147
0.625
171
     1
172
     1
178
     0
179
     2
271
     2
272
     2
278
    44
284
     8
288
     1
289
     2
340
11
341
213
342
213
343
213
344
213
  0
DIMSTYLE
105
21B
330
A
100
AcDbSymbolTableRecord
100
AcDbDimStyleTableRecord
  2
DIMSTYLE_2
 70
     0
 41
2.5
 42
0.75
 44
0.75
 47
0.2
 48
0.2
 73
     0
 74
     0
 77
     1
 78
     8
 79
     2
140
3.0
147
0.75
171
     1
178
     0
179
     2
271
     2
272
     2
278
    44
284
     8
340
11
341
213
342
213
343
213
344
213
  0
ENDTAB
  0
TABLE
  2
BLOCK_RECORD
  5
1
330
0
100
AcDbSymbolTable
 70
     6
  0
BLOCK_RECORD
  5
211
330
1
100
AcDbSymbolTableRecord
100
AcDbBlockTableRecord
  2
*Model_Space
340
2E5
 70
     0
280
     1
281
     0
  0
BLOCK_RECORD
  5
212
330
1
100
AcDbSymbolTableRecord
100
AcDbBlockTableRecord
  2
*Paper_Space
340
2E6
 70
     0
280
     1
281
     0
  0
BLOCK_RECORD
  5
213
330
1
100
AcDbSymbolTableRecord
100
AcDbBlockTableRecord
  2
_CLOSED
340
0
102
{BLKREFS
331
261
331
269
331
26A
331
272
331
273
102
}
 70
     0
280
     1
281
     0
  0
BLOCK_RECORD
  5
214
330
1
100
AcDbSymbolTableRecord
100
AcDbBlockTableRecord
  2
*D1
340
0
 70
     0
280
     1
281
     0
  0
BLOCK_RECORD
  5
215
330
1
100
AcDbSymbolTableRecord
100
AcDbBlockTableRecord
  2
*D2
340
0
 70
     0
280
     1
281
     0
  0
BLOCK_RECORD
  5
216
330
1
100
AcDbSymbolTableRecord
100
AcDbBlockTableRecord
  2
*D3
340
0
 70
     0
280
     1
281
     0
  0
BLOCK_RECORD
  5
217
330
1
100
AcDbSymbolTableRecord
100
AcDbBlockTableRecord
  2
LOGO2_BL0
340
0
102
{BLKREFS
331
2E2
102
}
 70
     0
280
     1
281
     0
  0
BLOCK_RECORD
  5
218
330
1
100
AcDbSymbolTableRecord
100
AcDbBlockTableRecord
  2
*T5
340
0
102
{BLKREFS
331
2E3
102
}
 70
     0
280
     1
281
     0
  0
ENDTAB
  0
ENDSEC
  0
SECTION
  2
BLOCKS
  0
BLOCK
  5
20
330
211
100
AcDbEntity
  8
0
100
AcDbBlockBegin
  2
*Model_Space
 70
     0
 10
0.0
 20
0.0
 30
0.0
  3
*Model_Space
  1

  0
ENDBLK
  5
21
330
211
100
AcDbEntity
  8
0
100
AcDbBlockEnd
  0
BLOCK
  5
1C
330
212
100
AcDbEntity
 67
     1
  8
0
100
AcDbBlockBegin
  2
*Paper_Space
 70
     0
 10
0.0
 20
0.0
 30
0.0
  3
*Paper_Space
  1

  0
ENDBLK
  5
1D
330
212
100
AcDbEntity
 67
     1
  8
0
100
AcDbBlockEnd
  0
BLOCK
  5
258
330
213
100
AcDbEntity
  8
0
100
AcDbBlockBegin
  2
_CLOSED
 70
     0
 10
0.0
 20
0.0
 30
0.0
  3
_CLOSED
  1

  0
LINE
  5
259
330
213
100
AcDbEntity
  8
0
  6
ByBlock
 62
     0
100
AcDbLine
 10
0.0
 20
0.0
 30
0.0
 11
-1.0
 21
0.2
 31
0.0
  0
LINE
  5
25A
330
213
100
AcDbEntity
  8
0
  6
ByBlock
 62
     0
100
AcDbLine
 10
-1.0
 20
0.2
 30
0.0
 11
-1.0
 21
-0.2
 31
0.0
  0
LINE
  5
25B
330
213
100
AcDbEntity
  8
0
  6
ByBlock
 62
     0
100
AcDbLine
 10
-1.0
 20
-0.2
 30
0.0
 11
0.0
 21
0.0
 31
0.0
  0
LINE
  5
25C
330
213
100
AcDbEntity
  8
0
  6
ByBlock
 62
     0
100
AcDbLine
 10
-1.0
 20
0.0
 30
0.0
 11
0.0
 21
0.0
 31
0.0
  0
ENDBLK
  5
25D
330
213
100
AcDbEntity
  8
0
  6
ByBlock
 62
     0
100
AcDbBlockEnd
  0
BLOCK
  5
25E
330
214
100
AcDbEntity
  8
0
100
AcDbBlockBegin
  2
*D1
 70
     1
 10
0.0
 20
0.0
 30
0.0
  3
*D1
  1

  0
MTEXT
  5
25F
330
214
100
AcDbEntity
  8
0
  6
Continuous
 62
     2
100
AcDbMText
 10
118.2132929939
 20
102.4030118922
 30
0.0
 40
3.0
 41
8.6617100372
 46
0.0
 71
     1
 72
     1
  1
{\Fgdt;n}\Farial.ttf;40
  7
TEXTSTYLE_2
 11
0.8515384351
 21
0.5242921833999999
 31
0.0
 73
     1
 44
0.9
  0
LINE
  5
260
330
214
100
AcDbEntity
  8
0
  6
Continuous
 62
     2
100
AcDbLine
 10
116.0405930898
 20
96.6614864658
 30
0.0
 11
127.5551676918
 21
103.7510096282
 31
0.0
  0
INSERT
  5
261
330
214
100
AcDbEntity
  8
0
  6
Continuous
 62
     2
100
AcDbBlockReference
  2
_CLOSED
 10
116.0405930898
 20
96.6614864658
 30
0.0
 41
2.5
 42
2.5
 43
2.5
 50
211.6206056024
  0
ENDBLK
  5
262
330
214
100
AcDbEntity
  8
0
  6
ByBlock
 62
     0
100
AcDbBlockEnd
  0
BLOCK
  5
263
330
215
100
AcDbEntity
  8
0
100
AcDbBlockBegin
  2
*D2
 70
     1
 10
0.0
 20
0.0
 30
0.0
  3
*D2
  1

  0
MTEXT
  5
264
330
215
100
AcDbEntity
  8
0
  6
Continuous
 62
     2
100
AcDbMText
 10
65.8970303546
 20
134.089057703
 30
0.0
 40
3.0
 41
8.1524163569
 46
0.0
 71
     2
 72
     1
  1
18,5
 11
0.0
 21
1.0
 31
0.0
 73
     1
 44
0.9
  0
LINE
  5
265
330
215
100
AcDbEntity
  8
0
  6
Continuous
 62
     2
100
AcDbLine
 10
77.6021771891
 20
124.839057703
 30
0.0
 11
68.8970303546
 21
124.839057703
 31
0.0
  0
LINE
  5
266
330
215
100
AcDbEntity
  8
0
  6
Continuous
 62
     2
100
AcDbLine
 10
76.2726309021
 20
143.339057703
 30
0.0
 11
68.8970303546
 21
143.339057703
 31
0.0
  0
LINE
  5
267
330
215
100
AcDbEntity
  8
0
  6
Continuous
 62
     2
100
AcDbLine
 10
69.6470303546
 20
124.839057703
 30
0.0
 11
69.6470303546
 21
134.089057703
 31
0.0
  0
LINE
  5
268
330
215
100
AcDbEntity
  8
0
  6
Continuous
 62
     2
100
AcDbLine
 10
69.6470303546
 20
143.339057703
 30
0.0
 11
69.6470303546
 21
134.089057703
 31
0.0
  0
INSERT
  5
269
330
215
100
AcDbEntity
  8
0
  6
Continuous
 62
     2
100
AcDbBlockReference
  2
_CLOSED
 10
69.6470303546
 20
124.839057703
 30
0.0
 41
2.5
 42
2.5
 43
2.5
 50
270.0
  0
INSERT
  5
26A
330
215
100
AcDbEntity
  8
0
  6
Continuous
 62
     2
100
AcDbBlockReference
  2
_CLOSED
 10
69.6470303546
 20
143.339057703
 30
0.0
 41
2.5
 42
2.5
 43
2.5
 50
90.0
  0
ENDBLK
  5
26B
330
215
100
AcDbEntity
  8
0
  6
ByBlock
 62
     0
100
AcDbBlockEnd
  0
BLOCK
  5
26C
330
216
100
AcDbEntity
  8
0
100
AcDbBlockBegin
  2
*D3
 70
     1
 10
0.0
 20
0.0
 30
0.0
  3
*D3
  1

  0
MTEXT
  5
26D
330
216
100
AcDbEntity
  8
0
  6
Continuous
 62
     2
100
AcDbMText
 10
202.328807599
 20
132.339057703
 30
0.0
 40
3.0
 41
4.6617100372
 46
0.0
 71
     2
 72
     1
  1
15
 11
0.0
 21
1.0
 31
0.0
 73
     1
 44
0.9
  0
LINE
  5
26E
330
216
100
AcDbEntity
  8
0
  6
Continuous
 62
     2
100
AcDbLine
 10
196.7740276923
 20
139.839057703
 30
0.0
 11
206.828807599
 21
139.839057703
 31
0.0
  0
LINE
  5
26F
330
216
100
AcDbEntity
  8
0
  6
Continuous
 62
     2
100
AcDbLine
 10
199.0012481924
 20
124.839057703
 30
0.0
 11
206.828807599
 21
124.839057703
 31
0.0
  0
LINE
  5
270
330
216
100
AcDbEntity
  8
0
  6
Continuous
 62
     2
100
AcDbLine
 10
206.078807599
 20
139.839057703
 30
0.0
 11
206.078807599
 21
132.339057703
 31
0.0
  0
LINE
  5
271
330
216
100
AcDbEntity
  8
0
  6
Continuous
 62
     2
100
AcDbLine
 10
206.078807599
 20
124.839057703
 30
0.0
 11
206.078807599
 21
132.339057703
 31
0.0
  0
INSERT
  5
272
330
216
100
AcDbEntity
  8
0
  6
Continuous
 62
     2
100
AcDbBlockReference
  2
_CLOSED
 10
206.078807599
 20
139.839057703
 30
0.0
 41
2.5
 42
2.5
 43
2.5
 50
90.0
  0
INSERT
  5
273
330
216
100
AcDbEntity
  8
0
  6
Continuous
 62
     2
100
AcDbBlockReference
  2
_CLOSED
 10
206.078807599
 20
124.839057703
 30
0.0
 41
2.5
 42
2.5
 43
2.5
 50
270.0
  0
ENDBLK
  5
274
330
216
100
AcDbEntity
  8
0
  6
ByBlock
 62
     0
100
AcDbBlockEnd
  0
BLOCK
  5
21C
330
217
100
AcDbEntity
  8
0
100
AcDbBlockBegin
  2
LOGO2_BL0
 70
     0
 10
207.8284587569
 20
39.54351784
 30
0.0
  3
LOGO2_BL0
  1

  0
LINE
  5
21D
330
217
100
AcDbEntity
  8
0
  6
Continuous
 62
     7
100
AcDbLine
 10
199.5713839852
 20
42.7390091789
 30
0.0
 11
198.2670430558
 21
42.7390091789
 31
0.0
  0
LINE
  5
21E
330
217
100
AcDbEntity
  8
0
  6
Continuous
 62
     7
100
AcDbLine
 10
198.2670430558
 20
42.7390091789
 30
0.0
 11
198.2670430558
 21
32.279943119
 31
0.0
  0
LINE
  5
21F
330
217
100
AcDbEntity
  8
0
  6
Continuous
 62
     7
100
AcDbLine
 10
198.2670430558
 20
32.279943119
 30
0.0
 11
202.7480979441
 21
32.279943119
 31
0.0
  0
LINE
  5
220
330
217
100
AcDbEntity
  8
0
  6
Continuous
 62
     7
100
AcDbLine
 10
202.7480979441
 20
32.279943119
 30
0.0
 11
202.7480979441
 21
33.472797444
 31
0.0
  0
LINE
  5
221
330
217
100
AcDbEntity
  8
0
  6
Continuous
 62
     7
100
AcDbLine
 10
202.7480979441
 20
33.472797444
 30
0.0
 11
199.5713839852
 21
33.472797444
 31
0.0
  0
LINE
  5
222
330
217
100
AcDbEntity
  8
0
  6
Continuous
 62
     7
100
AcDbLine
 10
199.5713839852
 20
33.472797444
 30
0.0
 11
199.5713839852
 21
42.7390091789
 31
0.0
  0
LINE
  5
223
330
217
100
AcDbEntity
  8
0
  6
Continuous
 62
     7
100
AcDbLine
 10
214.5077102015
 20
42.7390091789
 30
0.0
 11
213.2038926834
 21
42.7390091789
 31
0.0
  0
LINE
  5
224
330
217
100
AcDbEntity
  8
0
  6
Continuous
 62
     7
100
AcDbLine
 10
213.2038926834
 20
42.7390091789
 30
0.0
 11
213.2038926834
 21
32.279943119
 31
0.0
  0
LINE
  5
225
330
217
100
AcDbEntity
  8
0
  6
Continuous
 62
     7
100
AcDbLine
 10
213.2038926834
 20
32.279943119
 30
0.0
 11
217.6850784245
 21
32.279943119
 31
0.0
  0
LINE
  5
226
330
217
100
AcDbEntity
  8
0
  6
Continuous
 62
     7
100
AcDbLine
 10
217.6850784245
 20
32.279943119
 30
0.0
 11
217.6850784245
 21
33.472797444
 31
0.0
  0
LINE
  5
227
330
217
100
AcDbEntity
  8
0
  6
Continuous
 62
     7
100
AcDbLine
 10
217.6850784245
 20
33.472797444
 30
0.0
 11
214.5077102015
 21
33.472797444
 31
0.0
  0
LINE
  5
228
330
217
100
AcDbEntity
  8
0
  6
Continuous
 62
     7
100
AcDbLine
 10
214.5077102015
 20
33.472797444
 30
0.0
 11
214.5077102015
 21
42.7390091789
 31
0.0
  0
LWPOLYLINE
  5
229
330
217
100
AcDbEntity
  8
0
  6
Continuous
 62
     7
100
AcDbPolyline
 90
        2
 70
     0
 43
0.2
 10
196.6214379667
 20
28.9363918121
 10
196.6214379667
 20
27.0793285627
  0
LWPOLYLINE
  5
22A
330
217
100
AcDbEntity
  8
0
  6
Continuous
 62
     7
100
AcDbPolyline
 90
        2
 70
     0
 43
0.2
 10
196.6214379667
 20
27.0793285627
 10
197.4171539771
 20
27.0793285627
  0
LWPOLYLINE
  5
22B
330
217
100
AcDbEntity
  8
0
  6
Continuous
 62
     7
100
AcDbPolyline
 90
        2
 70
     0
 43
0.2
 10
197.4171539771
 20
27.0793285627
 10
197.4171539771
 20
27.2913101343
  0
LWPOLYLINE
  5
22C
330
217
100
AcDbEntity
  8
0
  6
Continuous
 62
     7
100
AcDbPolyline
 90
        2
 70
     0
 43
0.2
 10
197.4171539771
 20
27.2913101343
 10
196.8530474616
 20
27.2913101343
  0
LWPOLYLINE
  5
22D
330
217
100
AcDbEntity
  8
0
  6
Continuous
 62
     7
100
AcDbPolyline
 90
        2
 70
     0
 43
0.2
 10
196.8530474616
 20
27.2913101343
 10
196.8530474616
 20
28.9363918121
  0
LWPOLYLINE
  5
22E
330
217
100
AcDbEntity
  8
0
  6
Continuous
 62
     7
100
AcDbPolyline
 90
        2
 70
     0
 43
0.2
 10
196.8530474616
 20
28.9363918121
 10
196.6214379667
 20
28.9363918121
  0
SPLINE
  5
22F
330
217
100
AcDbEntity
  8
0
  6
Continuous
 62
     7
100
AcDbSpline
 70
     3
 71
     3
 72
    35
 73
    31
 74
     0
 42
0.000000001
 43
0.0000001
 40
0.0
 40
0.0
 40
0.0
 40
0.0
 40
1.0
 40
1.0
 40
1.0
 40
2.0
 40
2.0
 40
2.0
 40
3.0
 40
3.0
 40
3.0
 40
4.0
 40
4.0
 40
4.0
 40
5.0
 40
5.0
 40
5.0
 40
6.0
 40
6.0
 40
6.0
 40
7.0
 40
7.0
 40
7.0
 40
8.0
 40
8.0
 40
8.0
 40
9.0
 40
9.0
 40
9.0
 40
10.0
 40
10.0
 40
10.0
 40
10.0
 10
198.8154472326
 20
28.2318802186
 30
0.0
 10
198.8154472326
 20
28.2318802186
 30
0.0
 10
198.8154472326
 20
27.5697649394
 30
0.0
 10
198.8154472326
 20
27.5697649394
 30
0.0
 10
198.8154472326
 20
27.2546713441
 30
0.0
 10
198.9633109215
 20
27.0400727161
 30
0.0
 10
199.3033974058
 20
27.0400727161
 30
0.0
 10
199.6429604788
 20
27.0400727161
 30
0.0
 10
199.7910858732
 20
27.2546713441
 30
0.0
 10
199.7910858732
 20
27.5697649394
 30
0.0
 10
199.7910858732
 20
27.5697649394
 30
0.0
 10
199.7910858732
 20
28.2318802186
 30
0.0
 10
199.7910858732
 20
28.2318802186
 30
0.0
 10
199.7910858732
 20
28.2318802186
 30
0.0
 10
199.5690286344
 20
28.2318802186
 30
0.0
 10
199.5690286344
 20
28.2318802186
 30
0.0
 10
199.5690286344
 20
28.2318802186
 30
0.0
 10
199.5690286344
 20
27.5948886813
 30
0.0
 10
199.5690286344
 20
27.5948886813
 30
0.0
 10
199.5690286344
 20
27.4090776741
 30
0.0
 10
199.5223141769
 20
27.2462967635
 30
0.0
 10
199.3033974058
 20
27.2462967635
 30
0.0
 10
199.0839572233
 20
27.2462967635
 30
0.0
 10
199.0372427659
 20
27.4090776741
 30
0.0
 10
199.0372427659
 20
27.5948886813
 30
0.0
 10
199.0372427659
 20
27.5948886813
 30
0.0
 10
199.0372427659
 20
28.2318802186
 30
0.0
 10
199.0372427659
 20
28.2318802186
 30
0.0
 10
199.0372427659
 20
28.2318802186
 30
0.0
 10
198.8154472326
 20
28.2318802186
 30
0.0
 10
198.8154472326
 20
28.2318802186
 30
0.0
  0
SPLINE
  5
230
330
217
100
AcDbEntity
  8
0
  6
Continuous
 62
     7
100
AcDbSpline
 70
     3
 71
     3
 72
    35
 73
    31
 74
     0
 42
0.000000001
 43
0.0000001
 40
0.0
 40
0.0
 40
0.0
 40
0.0
 40
1.0
 40
1.0
 40
1.0
 40
2.0
 40
2.0
 40
2.0
 40
3.0
 40
3.0
 40
3.0
 40
4.0
 40
4.0
 40
4.0
 40
5.0
 40
5.0
 40
5.0
 40
6.0
 40
6.0
 40
6.0
 40
7.0
 40
7.0
 40
7.0
 40
8.0
 40
8.0
 40
8.0
 40
9.0
 40
9.0
 40
9.0
 40
10.0
 40
10.0
 40
10.0
 40
10.0
 10
202.2142184304
 20
28.1905307269
 30
0.0
 10
202.1257619228
 20
28.2418250331
 30
0.0
 10
202.0123125261
 20
28.2669487749
 30
0.0
 10
201.9086770911
 20
28.2669487749
 30
0.0
 10
201.553804238
 20
28.2669487749
 30
0.0
 10
201.2783590477
 20
28.0031494858
 30
0.0
 10
201.2783590477
 20
27.6456595762
 30
0.0
 10
201.2783590477
 20
27.3007315375
 30
0.0
 10
201.5568138529
 20
27.0405961274
 30
0.0
 10
201.8963769259
 20
27.0405961274
 30
0.0
 10
202.0123125261
 20
27.0405961274
 30
0.0
 10
202.113069199
 20
27.0625794015
 30
0.0
 10
202.2142184304
 20
27.1164907641
 30
0.0
 10
202.2142184304
 20
27.1164907641
 30
0.0
 10
202.2142184304
 20
27.3991328596
 30
0.0
 10
202.2142184304
 20
27.3991328596
 30
0.0
 10
202.1303417715
 20
27.3059656504
 30
0.0
 10
202.0268371894
 20
27.2468201748
 30
0.0
 10
201.8987322767
 20
27.2468201748
 30
0.0
 10
201.6650291366
 20
27.2468201748
 30
0.0
 10
201.4997620225
 20
27.4190224885
 30
0.0
 10
201.4997620225
 20
27.6556043907
 30
0.0
 10
201.4997620225
 20
27.8675859622
 30
0.0
 10
201.6675153402
 20
28.0596779049
 30
0.0
 10
201.8843384662
 20
28.0596779049
 30
0.0
 10
202.0171540805
 20
28.0596779049
 30
0.0
 10
202.1257619228
 20
28.0057665422
 30
0.0
 10
202.2142184304
 20
27.9047481637
 30
0.0
 10
202.2142184304
 20
27.9047481637
 30
0.0
 10
202.2142184304
 20
28.1905307269
 30
0.0
 10
202.2142184304
 20
28.1905307269
 30
0.0
  0
SPLINE
  5
231
330
217
100
AcDbEntity
  8
0
  6
Continuous
 62
     7
100
AcDbSpline
 70
     3
 71
     3
 72
    32
 73
    28
 74
     0
 42
0.000000001
 43
0.0000001
 40
0.0
 40
0.0
 40
0.0
 40
0.0
 40
1.0
 40
1.0
 40
1.0
 40
2.0
 40
2.0
 40
2.0
 40
3.0
 40
3.0
 40
3.0
 40
4.0
 40
4.0
 40
4.0
 40
5.0
 40
5.0
 40
5.0
 40
6.0
 40
6.0
 40
6.0
 40
7.0
 40
7.0
 40
7.0
 40
8.0
 40
8.0
 40
8.0
 40
9.0
 40
9.0
 40
9.0
 40
9.0
 10
204.7460896827
 20
27.6189656005
 30
0.0
 10
204.7460896827
 20
27.6189656005
 30
0.0
 10
204.7460896827
 20
27.6529873342
 30
0.0
 10
204.7460896827
 20
27.6529873342
 30
0.0
 10
204.7460896827
 20
27.9952983165
 30
0.0
 10
204.5732331049
 20
28.2669487749
 30
0.0
 10
204.2065834977
 20
28.2669487749
 30
0.0
 10
203.8349614833
 20
28.2669487749
 30
0.0
 10
203.6452248915
 20
28.0005324294
 30
0.0
 10
203.6452248915
 20
27.6456595762
 30
0.0
 10
203.6452248915
 20
27.3059656504
 30
0.0
 10
203.8593001082
 20
27.0400727161
 30
0.0
 10
204.2114250521
 20
27.0400727161
 30
0.0
 10
204.4354450833
 20
27.0400727161
 30
0.0
 10
204.6376126933
 20
27.1557466107
 30
0.0
 10
204.7460896827
 20
27.3551663114
 30
0.0
 10
204.7460896827
 20
27.3551663114
 30
0.0
 10
204.558446736
 20
27.4619422141
 30
0.0
 10
204.558446736
 20
27.4619422141
 30
0.0
 10
204.4749626356
 20
27.3232382229
 30
0.0
 10
204.3837582186
 20
27.2373987716
 30
0.0
 10
204.2141729614
 20
27.2373987716
 30
0.0
 10
204.0021913898
 20
27.2373987716
 30
0.0
 10
203.8692449227
 20
27.4221629563
 30
0.0
 10
203.8668895719
 20
27.6189656005
 30
0.0
 10
203.8668895719
 20
27.6189656005
 30
0.0
 10
204.7460896827
 20
27.6189656005
 30
0.0
 10
204.7460896827
 20
27.6189656005
 30
0.0
  0
SPLINE
  5
232
330
217
100
AcDbEntity
  8
0
  6
Continuous
 62
     7
100
AcDbSpline
 70
     3
 71
     3
 72
    14
 73
    10
 74
     0
 42
0.000000001
 43
0.0000001
 40
0.0
 40
0.0
 40
0.0
 40
0.0
 40
1.0
 40
1.0
 40
1.0
 40
2.0
 40
2.0
 40
2.0
 40
3.0
 40
3.0
 40
3.0
 40
3.0
 10
203.8789280315
 20
27.7864572126
 30
0.0
 10
203.9065379769
 20
27.9513317683
 30
0.0
 10
204.034381184
 20
28.0743334209
 30
0.0
 10
204.2065834977
 20
28.0743334209
 30
0.0
 10
204.3837582186
 20
28.0743334209
 30
0.0
 10
204.4972076153
 20
27.9586595263
 30
0.0
 10
204.5244250023
 20
27.7864572126
 30
0.0
 10
204.5244250023
 20
27.7864572126
 30
0.0
 10
203.8789280315
 20
27.7864572126
 30
0.0
 10
203.8789280315
 20
27.7864572126
 30
0.0
  0
SPLINE
  5
233
330
217
100
AcDbEntity
  8
0
  6
Continuous
 62
     7
100
AcDbSpline
 70
     3
 71
     3
 72
    20
 73
    16
 74
     0
 42
0.000000001
 43
0.0000001
 40
0.0
 40
0.0
 40
0.0
 40
0.0
 40
1.0
 40
1.0
 40
1.0
 40
2.0
 40
2.0
 40
2.0
 40
3.0
 40
3.0
 40
3.0
 40
4.0
 40
4.0
 40
4.0
 40
5.0
 40
5.0
 40
5.0
 40
5.0
 10
206.7701211329
 20
27.9958217278
 30
0.0
 10
206.7701211329
 20
27.9958217278
 30
0.0
 10
207.1812606995
 20
27.4933468914
 30
0.0
 10
207.1812606995
 20
27.4933468914
 30
0.0
 10
207.0651942464
 20
27.3776729968
 30
0.0
 10
206.9274062249
 20
27.2473435861
 30
0.0
 10
206.7554656168
 20
27.2473435861
 30
0.0
 10
206.5780291902
 20
27.2473435861
 30
0.0
 10
206.4105375781
 20
27.4116947305
 30
0.0
 10
206.4105375781
 20
27.5886077458
 30
0.0
 10
206.4105375781
 20
27.7665675837
 30
0.0
 10
206.6202946517
 20
27.8927097041
 30
0.0
 10
206.7478761531
 20
27.9806428004
 30
0.0
 10
206.7478761531
 20
27.9806428004
 30
0.0
 10
206.7701211329
 20
27.9958217278
 30
0.0
 10
206.7701211329
 20
27.9958217278
 30
0.0
  0
SPLINE
  5
234
330
217
100
AcDbEntity
  8
0
  6
Continuous
 62
     7
100
AcDbSpline
 70
     3
 71
     3
 72
    23
 73
    19
 74
     0
 42
0.000000001
 43
0.0000001
 40
0.0
 40
0.0
 40
0.0
 40
0.0
 40
1.0
 40
1.0
 40
1.0
 40
2.0
 40
2.0
 40
2.0
 40
3.0
 40
3.0
 40
3.0
 40
4.0
 40
4.0
 40
4.0
 40
5.0
 40
5.0
 40
5.0
 40
6.0
 40
6.0
 40
6.0
 40
6.0
 10
206.8194526468
 20
28.2868384038
 30
0.0
 10
206.8194526468
 20
28.2868384038
 30
0.0
 10
206.7578209676
 20
28.365350097
 30
0.0
 10
206.7578209676
 20
28.365350097
 30
0.0
 10
206.703909605
 20
28.4339169757
 30
0.0
 10
206.6471194802
 20
28.5030072657
 30
0.0
 10
206.6471194802
 20
28.5966978862
 30
0.0
 10
206.6471194802
 20
28.7155122486
 30
0.0
 10
206.7430345987
 20
28.7929771192
 30
0.0
 10
206.8539977918
 20
28.7929771192
 30
0.0
 10
206.97726115
 20
28.7929771192
 30
0.0
 10
207.0705592121
 20
28.721793184
 30
0.0
 10
207.0705592121
 20
28.5914637734
 30
0.0
 10
207.0705592121
 20
28.4564236611
 30
0.0
 10
206.9424542994
 20
28.3800056131
 30
0.0
 10
206.8488945317
 20
28.3062046215
 30
0.0
 10
206.8488945317
 20
28.3062046215
 30
0.0
 10
206.8194526468
 20
28.2868384038
 30
0.0
 10
206.8194526468
 20
28.2868384038
 30
0.0
  0
SPLINE
  5
235
330
217
100
AcDbEntity
  8
0
  6
Continuous
 62
     7
100
AcDbSpline
 70
     3
 71
     3
 72
    50
 73
    46
 74
     0
 42
0.000000001
 43
0.0000001
 40
0.0
 40
0.0
 40
0.0
 40
0.0
 40
1.0
 40
1.0
 40
1.0
 40
2.0
 40
2.0
 40
2.0
 40
3.0
 40
3.0
 40
3.0
 40
4.0
 40
4.0
 40
4.0
 40
5.0
 40
5.0
 40
5.0
 40
6.0
 40
6.0
 40
6.0
 40
7.0
 40
7.0
 40
7.0
 40
8.0
 40
8.0
 40
8.0
 40
9.0
 40
9.0
 40
9.0
 40
10.0
 40
10.0
 40
10.0
 40
11.0
 40
11.0
 40
11.0
 40
12.0
 40
12.0
 40
12.0
 40
13.0
 40
13.0
 40
13.0
 40
14.0
 40
14.0
 40
14.0
 40
15.0
 40
15.0
 40
15.0
 40
15.0
 10
207.5216088894
 20
27.079851974
 30
0.0
 10
207.5216088894
 20
27.079851974
 30
0.0
 10
207.8069988941
 20
27.079851974
 30
0.0
 10
207.8069988941
 20
27.079851974
 30
0.0
 10
207.8069988941
 20
27.079851974
 30
0.0
 10
207.4746327263
 20
27.490729835
 30
0.0
 10
207.4746327263
 20
27.490729835
 30
0.0
 10
207.4746327263
 20
27.490729835
 30
0.0
 10
207.7011389612
 20
27.7566227692
 30
0.0
 10
207.7011389612
 20
27.7566227692
 30
0.0
 10
207.7011389612
 20
27.7566227692
 30
0.0
 10
207.5528827139
 20
27.9094588653
 30
0.0
 10
207.5528827139
 20
27.9094588653
 30
0.0
 10
207.5528827139
 20
27.9094588653
 30
0.0
 10
207.3369755576
 20
27.6582214471
 30
0.0
 10
207.3369755576
 20
27.6582214471
 30
0.0
 10
207.3369755576
 20
27.6582214471
 30
0.0
 10
206.9499129103
 20
28.1261511384
 30
0.0
 10
206.9499129103
 20
28.1261511384
 30
0.0
 10
207.1053660628
 20
28.2402547992
 30
0.0
 10
207.2876440438
 20
28.3800056131
 30
0.0
 10
207.2876440438
 20
28.5893701282
 30
0.0
 10
207.2876440438
 20
28.8332797884
 30
0.0
 10
207.0856072866
 20
28.9766944812
 30
0.0
 10
206.8591010518
 20
28.9766944812
 30
0.0
 10
206.614929686
 20
28.9766944812
 30
0.0
 10
206.4305580599
 20
28.8259520303
 30
0.0
 10
206.4305580599
 20
28.5694804993
 30
0.0
 10
206.4305580599
 20
28.4119337016
 30
0.0
 10
206.5292210876
 20
28.2742765329
 30
0.0
 10
206.6345576093
 20
28.1633133399
 30
0.0
 10
206.6345576093
 20
28.1633133399
 30
0.0
 10
206.5190145675
 20
28.0795675338
 30
0.0
 10
206.5190145675
 20
28.0795675338
 30
0.0
 10
206.3413164353
 20
27.9513317683
 30
0.0
 10
206.1939761577
 20
27.8236194141
 30
0.0
 10
206.1939761577
 20
27.5865141007
 30
0.0
 10
206.1939761577
 20
27.2661863925
 30
0.0
 10
206.452541334
 20
27.0400727161
 30
0.0
 10
206.7629242277
 20
27.0400727161
 30
0.0
 10
206.9818409988
 20
27.0400727161
 30
0.0
 10
207.1790362015
 20
27.1651680139
 30
0.0
 10
207.3193104267
 20
27.3310893922
 30
0.0
 10
207.3193104267
 20
27.3310893922
 30
0.0
 10
207.5216088894
 20
27.079851974
 30
0.0
 10
207.5216088894
 20
27.079851974
 30
0.0
  0
LWPOLYLINE
  5
236
330
217
100
AcDbEntity
  8
0
  6
Continuous
 62
     7
100
AcDbPolyline
 90
        2
 70
     0
 43
0.2
 10
209.4570529792
 20
28.9363918121
 10
209.2257051899
 20
28.9363918121
  0
LWPOLYLINE
  5
237
330
217
100
AcDbEntity
  8
0
  6
Continuous
 62
     7
100
AcDbPolyline
 90
        2
 70
     0
 43
0.2
 10
209.2257051899
 20
28.9363918121
 10
209.2257051899
 20
27.0793285627
  0
LWPOLYLINE
  5
238
330
217
100
AcDbEntity
  8
0
  6
Continuous
 62
     7
100
AcDbPolyline
 90
        2
 70
     0
 43
0.2
 10
209.2257051899
 20
27.0793285627
 10
210.0210286418
 20
27.0793285627
  0
LWPOLYLINE
  5
239
330
217
100
AcDbEntity
  8
0
  6
Continuous
 62
     7
100
AcDbPolyline
 90
        2
 70
     0
 43
0.2
 10
210.0210286418
 20
27.0793285627
 10
210.0210286418
 20
27.2913101343
  0
LWPOLYLINE
  5
23A
330
217
100
AcDbEntity
  8
0
  6
Continuous
 62
     7
100
AcDbPolyline
 90
        2
 70
     0
 43
0.2
 10
210.0210286418
 20
27.2913101343
 10
209.4570529792
 20
27.2913101343
  0
LWPOLYLINE
  5
23B
330
217
100
AcDbEntity
  8
0
  6
Continuous
 62
     7
100
AcDbPolyline
 90
        2
 70
     0
 43
0.2
 10
209.4570529792
 20
27.2913101343
 10
209.4570529792
 20
28.9363918121
  0
LWPOLYLINE
  5
23C
330
217
100
AcDbEntity
  8
0
  6
Continuous
 62
     7
100
AcDbPolyline
 90
        2
 70
     0
 43
0.2
 10
211.7001320533
 20
28.2318802186
 10
211.4789907842
 20
28.2318802186
  0
LWPOLYLINE
  5
23D
330
217
100
AcDbEntity
  8
0
  6
Continuous
 62
     7
100
AcDbPolyline
 90
        2
 70
     0
 43
0.2
 10
211.4789907842
 20
28.2318802186
 10
211.4789907842
 20
27.079851974
  0
LWPOLYLINE
  5
23E
330
217
100
AcDbEntity
  8
0
  6
Continuous
 62
     7
100
AcDbPolyline
 90
        2
 70
     0
 43
0.2
 10
211.4789907842
 20
27.079851974
 10
211.7001320533
 20
27.079851974
  0
LWPOLYLINE
  5
23F
330
217
100
AcDbEntity
  8
0
  6
Continuous
 62
     7
100
AcDbPolyline
 90
        2
 70
     0
 43
0.2
 10
211.7001320533
 20
27.079851974
 10
211.7001320533
 20
28.2318802186
  0
SPLINE
  5
240
330
217
100
AcDbEntity
  8
0
  6
Continuous
 62
     7
100
AcDbSpline
 70
     3
 71
     3
 72
    17
 73
    13
 74
     0
 42
0.000000001
 43
0.0000001
 40
0.0
 40
0.0
 40
0.0
 40
0.0
 40
1.0
 40
1.0
 40
1.0
 40
2.0
 40
2.0
 40
2.0
 40
3.0
 40
3.0
 40
3.0
 40
4.0
 40
4.0
 40
4.0
 40
4.0
 10
211.5896922716
 20
28.914408538
 30
0.0
 10
211.5056847599
 20
28.914408538
 30
0.0
 10
211.4371178812
 20
28.845318248
 30
0.0
 10
211.4371178812
 20
28.7594787968
 30
0.0
 10
211.4371178812
 20
28.6752095794
 30
0.0
 10
211.5056847599
 20
28.6092597572
 30
0.0
 10
211.5896922716
 20
28.6092597572
 30
0.0
 10
211.6734380776
 20
28.6092597572
 30
0.0
 10
211.742266662
 20
28.6752095794
 30
0.0
 10
211.742266662
 20
28.7594787968
 30
0.0
 10
211.742266662
 20
28.845318248
 30
0.0
 10
211.6734380776
 20
28.914408538
 30
0.0
 10
211.5896922716
 20
28.914408538
 30
0.0
  0
SPLINE
  5
241
330
217
100
AcDbEntity
  8
0
  6
Continuous
 62
     7
100
AcDbSpline
 70
     3
 71
     3
 72
    17
 73
    13
 74
     0
 42
0.000000001
 43
0.0000001
 40
0.0
 40
0.0
 40
0.0
 40
0.0
 40
1.0
 40
1.0
 40
1.0
 40
2.0
 40
2.0
 40
2.0
 40
3.0
 40
3.0
 40
3.0
 40
4.0
 40
4.0
 40
4.0
 40
4.0
 10
213.830415995
 20
27.2373987716
 30
0.0
 10
213.5964511493
 20
27.2373987716
 30
0.0
 10
213.4661217386
 20
27.4394355288
 30
0.0
 10
213.4661217386
 20
27.6556043907
 30
0.0
 10
213.4661217386
 20
27.8702030187
 30
0.0
 10
213.6019469678
 20
28.0690993081
 30
0.0
 10
213.830415995
 20
28.0690993081
 30
0.0
 10
214.0698766592
 20
28.0690993081
 30
0.0
 10
214.2054401827
 20
27.8801478331
 30
0.0
 10
214.2054401827
 20
27.6556043907
 30
0.0
 10
214.2054401827
 20
27.4294907143
 30
0.0
 10
214.0722320099
 20
27.2373987716
 30
0.0
 10
213.830415995
 20
27.2373987716
 30
0.0
  0
SPLINE
  5
242
330
217
100
AcDbEntity
  8
0
  6
Continuous
 62
     7
100
AcDbSpline
 70
     3
 71
     3
 72
    50
 73
    46
 74
     0
 42
0.000000001
 43
0.0000001
 40
0.0
 40
0.0
 40
0.0
 40
0.0
 40
1.0
 40
1.0
 40
1.0
 40
2.0
 40
2.0
 40
2.0
 40
3.0
 40
3.0
 40
3.0
 40
4.0
 40
4.0
 40
4.0
 40
5.0
 40
5.0
 40
5.0
 40
6.0
 40
6.0
 40
6.0
 40
7.0
 40
7.0
 40
7.0
 40
8.0
 40
8.0
 40
8.0
 40
9.0
 40
9.0
 40
9.0
 40
10.0
 40
10.0
 40
10.0
 40
11.0
 40
11.0
 40
11.0
 40
12.0
 40
12.0
 40
12.0
 40
13.0
 40
13.0
 40
13.0
 40
14.0
 40
14.0
 40
14.0
 40
15.0
 40
15.0
 40
15.0
 40
15.0
 10
214.4145429922
 20
28.2324036299
 30
0.0
 10
214.4145429922
 20
28.2324036299
 30
0.0
 10
214.1928783118
 20
28.2324036299
 30
0.0
 10
214.1928783118
 20
28.2324036299
 30
0.0
 10
214.1928783118
 20
28.2324036299
 30
0.0
 10
214.1928783118
 20
28.0350775744
 30
0.0
 10
214.1928783118
 20
28.0350775744
 30
0.0
 10
214.1928783118
 20
28.0350775744
 30
0.0
 10
214.1881676102
 20
28.0350775744
 30
0.0
 10
214.1881676102
 20
28.0350775744
 30
0.0
 10
214.0968323405
 20
28.1779688559
 30
0.0
 10
213.9589134661
 20
28.2664253636
 30
0.0
 10
213.7861877411
 20
28.2664253636
 30
0.0
 10
213.4538215733
 20
28.2664253636
 30
0.0
 10
213.2447187638
 20
27.9785491553
 30
0.0
 10
213.2447187638
 20
27.6629321487
 30
0.0
 10
213.2447187638
 20
27.3331830373
 30
0.0
 10
213.4417831137
 20
27.0400727161
 30
0.0
 10
213.7966559669
 20
27.0400727161
 30
0.0
 10
213.9589134661
 20
27.0400727161
 30
0.0
 10
214.0989259856
 20
27.1285292238
 30
0.0
 10
214.1881676102
 20
27.2593820457
 30
0.0
 10
214.1881676102
 20
27.2593820457
 30
0.0
 10
214.1928783118
 20
27.2593820457
 30
0.0
 10
214.1928783118
 20
27.2593820457
 30
0.0
 10
214.1928783118
 20
27.2593820457
 30
0.0
 10
214.1928783118
 20
27.0400727161
 30
0.0
 10
214.1928783118
 20
27.0400727161
 30
0.0
 10
214.1928783118
 20
26.803490814
 30
0.0
 10
214.1363498927
 20
26.6166329842
 30
0.0
 10
213.8631292004
 20
26.6166329842
 30
0.0
 10
213.6608307377
 20
26.6166329842
 30
0.0
 10
213.5182011617
 20
26.7349239353
 30
0.0
 10
213.5182011617
 20
26.9411479827
 30
0.0
 10
213.5182011617
 20
26.9411479827
 30
0.0
 10
213.2965364813
 20
26.9411479827
 30
0.0
 10
213.2965364813
 20
26.9411479827
 30
0.0
 10
213.3015088886
 20
26.6166329842
 30
0.0
 10
213.5325949722
 20
26.41983034
 30
0.0
 10
213.8529226803
 20
26.41983034
 30
0.0
 10
214.3009627427
 20
26.41983034
 30
0.0
 10
214.4145429922
 20
26.7050894919
 30
0.0
 10
214.4145429922
 20
27.1018352481
 30
0.0
 10
214.4145429922
 20
27.1018352481
 30
0.0
 10
214.4145429922
 20
28.2324036299
 30
0.0
 10
214.4145429922
 20
28.2324036299
 30
0.0
  0
SPLINE
  5
243
330
217
100
AcDbEntity
  8
0
  6
Continuous
 62
     7
100
AcDbSpline
 70
     3
 71
     3
 72
    44
 73
    40
 74
     0
 42
0.000000001
 43
0.0000001
 40
0.0
 40
0.0
 40
0.0
 40
0.0
 40
1.0
 40
1.0
 40
1.0
 40
2.0
 40
2.0
 40
2.0
 40
3.0
 40
3.0
 40
3.0
 40
4.0
 40
4.0
 40
4.0
 40
5.0
 40
5.0
 40
5.0
 40
6.0
 40
6.0
 40
6.0
 40
7.0
 40
7.0
 40
7.0
 40
8.0
 40
8.0
 40
8.0
 40
9.0
 40
9.0
 40
9.0
 40
10.0
 40
10.0
 40
10.0
 40
11.0
 40
11.0
 40
11.0
 40
12.0
 40
12.0
 40
12.0
 40
13.0
 40
13.0
 40
13.0
 40
13.0
 10
215.9834683276
 20
29.2174636737
 30
0.0
 10
215.9834683276
 20
29.2174636737
 30
0.0
 10
215.9834683276
 20
27.0793285627
 30
0.0
 10
215.9834683276
 20
27.0793285627
 30
0.0
 10
215.9834683276
 20
27.0793285627
 30
0.0
 10
216.2048713024
 20
27.0793285627
 30
0.0
 10
216.2048713024
 20
27.0793285627
 30
0.0
 10
216.2048713024
 20
27.0793285627
 30
0.0
 10
216.2048713024
 20
27.609020786
 30
0.0
 10
216.2048713024
 20
27.609020786
 30
0.0
 10
216.2048713024
 20
27.8189087125
 30
0.0
 10
216.2048713024
 20
28.0696227194
 30
0.0
 10
216.4901304543
 20
28.0696227194
 30
0.0
 10
216.7170292476
 20
28.0696227194
 30
0.0
 10
216.7439849289
 20
27.9366762522
 30
0.0
 10
216.7439849289
 20
27.7403970193
 30
0.0
 10
216.7439849289
 20
27.7403970193
 30
0.0
 10
216.7439849289
 20
27.0793285627
 30
0.0
 10
216.7439849289
 20
27.0793285627
 30
0.0
 10
216.7439849289
 20
27.0793285627
 30
0.0
 10
216.9659113149
 20
27.0793285627
 30
0.0
 10
216.9659113149
 20
27.0793285627
 30
0.0
 10
216.9659113149
 20
27.0793285627
 30
0.0
 10
216.9659113149
 20
27.7665675837
 30
0.0
 10
216.9659113149
 20
27.7665675837
 30
0.0
 10
216.9659113149
 20
28.047116034
 30
0.0
 10
216.8819038032
 20
28.2669487749
 30
0.0
 10
216.5568653935
 20
28.2669487749
 30
0.0
 10
216.4171145796
 20
28.2669487749
 30
0.0
 10
216.2789339996
 20
28.2004755413
 30
0.0
 10
216.209582004
 20
28.0774738887
 30
0.0
 10
216.209582004
 20
28.0774738887
 30
0.0
 10
216.2048713024
 20
28.0774738887
 30
0.0
 10
216.2048713024
 20
28.0774738887
 30
0.0
 10
216.2048713024
 20
28.0774738887
 30
0.0
 10
216.2048713024
 20
29.2174636737
 30
0.0
 10
216.2048713024
 20
29.2174636737
 30
0.0
 10
216.2048713024
 20
29.2174636737
 30
0.0
 10
215.9834683276
 20
29.2174636737
 30
0.0
 10
215.9834683276
 20
29.2174636737
 30
0.0
  0
LWPOLYLINE
  5
244
330
217
100
AcDbEntity
  8
0
  6
Continuous
 62
     7
100
AcDbPolyline
 90
        2
 70
     0
 43
0.2
 10
218.8057019918
 20
28.0251327599
 10
219.0221325593
 20
28.0251327599
  0
LWPOLYLINE
  5
245
330
217
100
AcDbEntity
  8
0
  6
Continuous
 62
     7
100
AcDbPolyline
 90
        2
 70
     0
 43
0.2
 10
219.0221325593
 20
28.0251327599
 10
219.0221325593
 20
28.2318802186
  0
LWPOLYLINE
  5
246
330
217
100
AcDbEntity
  8
0
  6
Continuous
 62
     7
100
AcDbPolyline
 90
        2
 70
     0
 43
0.2
 10
219.0221325593
 20
28.2318802186
 10
218.8057019918
 20
28.2318802186
  0
LWPOLYLINE
  5
247
330
217
100
AcDbEntity
  8
0
  6
Continuous
 62
     7
100
AcDbPolyline
 90
        2
 70
     0
 43
0.2
 10
218.8057019918
 20
28.2318802186
 10
218.8057019918
 20
28.672592523
  0
LWPOLYLINE
  5
248
330
217
100
AcDbEntity
  8
0
  6
Continuous
 62
     7
100
AcDbPolyline
 90
        2
 70
     0
 43
0.2
 10
218.8057019918
 20
28.672592523
 10
218.5840373114
 20
28.672592523
  0
LWPOLYLINE
  5
249
330
217
100
AcDbEntity
  8
0
  6
Continuous
 62
     7
100
AcDbPolyline
 90
        2
 70
     0
 43
0.2
 10
218.5840373114
 20
28.672592523
 10
218.5840373114
 20
28.2318802186
  0
LWPOLYLINE
  5
24A
330
217
100
AcDbEntity
  8
0
  6
Continuous
 62
     7
100
AcDbPolyline
 90
        2
 70
     0
 43
0.2
 10
218.5840373114
 20
28.2318802186
 10
218.4633910095
 20
28.2318802186
  0
LWPOLYLINE
  5
24B
330
217
100
AcDbEntity
  8
0
  6
Continuous
 62
     7
100
AcDbPolyline
 90
        2
 70
     0
 43
0.2
 10
218.4633910095
 20
28.2318802186
 10
218.4633910095
 20
28.0251327599
  0
LWPOLYLINE
  5
24C
330
217
100
AcDbEntity
  8
0
  6
Continuous
 62
     7
100
AcDbPolyline
 90
        2
 70
     0
 43
0.2
 10
218.4633910095
 20
28.0251327599
 10
218.5840373114
 20
28.0251327599
  0
LWPOLYLINE
  5
24D
330
217
100
AcDbEntity
  8
0
  6
Continuous
 62
     7
100
AcDbPolyline
 90
        2
 70
     0
 43
0.2
 10
218.5840373114
 20
28.0251327599
 10
218.5840373114
 20
27.0793285627
  0
LWPOLYLINE
  5
24E
330
217
100
AcDbEntity
  8
0
  6
Continuous
 62
     7
100
AcDbPolyline
 90
        2
 70
     0
 43
0.2
 10
218.5840373114
 20
27.0793285627
 10
218.8057019918
 20
27.0793285627
  0
LWPOLYLINE
  5
24F
330
217
100
AcDbEntity
  8
0
  6
Continuous
 62
     7
100
AcDbPolyline
 90
        2
 70
     0
 43
0.2
 10
218.8057019918
 20
27.0793285627
 10
218.8057019918
 20
28.0251327599
  0
SPLINE
  5
250
330
217
100
AcDbEntity
  8
0
  6
Continuous
 62
     7
100
AcDbSpline
 70
     3
 71
     3
 72
    20
 73
    16
 74
     0
 42
0.000000001
 43
0.0000001
 40
0.0
 40
0.0
 40
0.0
 40
0.0
 40
1.0
 40
1.0
 40
1.0
 40
2.0
 40
2.0
 40
2.0
 40
3.0
 40
3.0
 40
3.0
 40
4.0
 40
4.0
 40
4.0
 40
5.0
 40
5.0
 40
5.0
 40
5.0
 10
206.587712299
 20
37.4402550061
 30
0.0
 10
206.587712299
 20
37.4402550061
 30
0.0
 10
208.9040689535
 20
34.6106935839
 30
0.0
 10
208.9040689535
 20
34.6106935839
 30
0.0
 10
208.2524219001
 20
33.9585231192
 30
0.0
 10
207.4755486961
 20
33.2226068484
 30
0.0
 10
206.5043590515
 20
33.2226068484
 30
0.0
 10
205.505821167
 20
33.2226068484
 30
0.0
 10
204.5625031735
 20
34.1521852957
 30
0.0
 10
204.5625031735
 20
35.1513774442
 30
0.0
 10
204.5625031735
 20
36.1505695928
 30
0.0
 10
205.7413562466
 20
36.8571748314
 30
0.0
 10
206.4628787069
 20
37.3570326113
 30
0.0
 10
206.4628787069
 20
37.3570326113
 30
0.0
 10
206.587712299
 20
37.4402550061
 30
0.0
 10
206.587712299
 20
37.4402550061
 30
0.0
  0
SPLINE
  5
251
330
217
100
AcDbEntity
  8
0
  6
Continuous
 62
     7
100
AcDbSpline
 70
     3
 71
     3
 72
    23
 73
    19
 74
     0
 42
0.000000001
 43
0.0000001
 40
0.0
 40
0.0
 40
0.0
 40
0.0
 40
1.0
 40
1.0
 40
1.0
 40
2.0
 40
2.0
 40
2.0
 40
3.0
 40
3.0
 40
3.0
 40
4.0
 40
4.0
 40
4.0
 40
5.0
 40
5.0
 40
5.0
 40
6.0
 40
6.0
 40
6.0
 40
6.0
 10
206.8651202816
 20
39.0780089258
 30
0.0
 10
206.8651202816
 20
39.0780089258
 30
0.0
 10
206.518622009
 20
39.5213382867
 30
0.0
 10
206.518622009
 20
39.5213382867
 30
0.0
 10
206.2128189641
 20
39.9094477566
 30
0.0
 10
205.893930637
 20
40.297949785
 30
0.0
 10
205.893930637
 20
40.8248940991
 30
0.0
 10
205.893930637
 20
41.4910658157
 30
0.0
 10
206.4352687615
 20
41.934787735
 30
0.0
 10
207.0591750166
 20
41.934787735
 30
0.0
 10
207.7529566787
 20
41.934787735
 30
0.0
 10
208.2801626984
 20
41.5325461603
 30
0.0
 10
208.2801626984
 20
40.7975458593
 30
0.0
 10
208.2801626984
 20
40.0342813488
 30
0.0
 10
207.5589019437
 20
39.604168123
 30
0.0
 10
207.0318267768
 20
39.1884487076
 30
0.0
 10
207.0318267768
 20
39.1884487076
 30
0.0
 10
206.8651202816
 20
39.0780089258
 30
0.0
 10
206.8651202816
 20
39.0780089258
 30
0.0
  0
SPLINE
  5
252
330
217
100
AcDbEntity
  8
0
  6
Continuous
 62
     7
100
AcDbSpline
 70
     3
 71
     3
 72
    50
 73
    46
 74
     0
 42
0.000000001
 43
0.0000001
 40
0.0
 40
0.0
 40
0.0
 40
0.0
 40
1.0
 40
1.0
 40
1.0
 40
2.0
 40
2.0
 40
2.0
 40
3.0
 40
3.0
 40
3.0
 40
4.0
 40
4.0
 40
4.0
 40
5.0
 40
5.0
 40
5.0
 40
6.0
 40
6.0
 40
6.0
 40
7.0
 40
7.0
 40
7.0
 40
8.0
 40
8.0
 40
8.0
 40
9.0
 40
9.0
 40
9.0
 40
10.0
 40
10.0
 40
10.0
 40
11.0
 40
11.0
 40
11.0
 40
12.0
 40
12.0
 40
12.0
 40
13.0
 40
13.0
 40
13.0
 40
14.0
 40
14.0
 40
14.0
 40
15.0
 40
15.0
 40
15.0
 40
15.0
 10
210.8187074445
 20
32.2794197077
 30
0.0
 10
210.8187074445
 20
32.2794197077
 30
0.0
 10
212.4279354491
 20
32.2794197077
 30
0.0
 10
212.4279354491
 20
32.2794197077
 30
0.0
 10
212.4279354491
 20
32.2794197077
 30
0.0
 10
210.5549081555
 20
34.5965614791
 30
0.0
 10
210.5549081555
 20
34.5965614791
 30
0.0
 10
210.5549081555
 20
34.5965614791
 30
0.0
 10
211.8312465809
 20
36.0940411737
 30
0.0
 10
211.8312465809
 20
36.0940411737
 30
0.0
 10
211.8312465809
 20
36.0940411737
 30
0.0
 10
210.9990226332
 20
36.9550527422
 30
0.0
 10
210.9990226332
 20
36.9550527422
 30
0.0
 10
210.9990226332
 20
36.9550527422
 30
0.0
 10
209.7784275099
 20
35.5397486198
 30
0.0
 10
209.7784275099
 20
35.5397486198
 30
0.0
 10
209.7784275099
 20
35.5397486198
 30
0.0
 10
207.6005131411
 20
38.1751244543
 30
0.0
 10
207.6005131411
 20
38.1751244543
 30
0.0
 10
208.4740865805
 20
38.8131628142
 30
0.0
 10
209.5007578217
 20
39.604168123
 30
0.0
 10
209.5007578217
 20
40.7830211961
 30
0.0
 10
209.5007578217
 20
42.1567141211
 30
0.0
 10
208.3628616819
 20
42.9611972706
 30
0.0
 10
207.087570079
 20
42.9611972706
 30
0.0
 10
205.7141388596
 20
42.9611972706
 30
0.0
 10
204.6732046608
 20
42.1149720709
 30
0.0
 10
204.6732046608
 20
40.6723197087
 30
0.0
 10
204.6732046608
 20
39.7847450173
 30
0.0
 10
205.2285440373
 20
39.0078718133
 30
0.0
 10
205.8247094942
 20
38.3834421468
 30
0.0
 10
205.8247094942
 20
38.3834421468
 30
0.0
 10
205.1728007351
 20
37.9118485765
 30
0.0
 10
205.1728007351
 20
37.9118485765
 30
0.0
 10
204.1742628507
 20
37.1905878218
 30
0.0
 10
203.3413846389
 20
36.4693270671
 30
0.0
 10
203.3413846389
 20
35.1377687508
 30
0.0
 10
203.3413846389
 20
33.3340934528
 30
0.0
 10
204.7984308115
 20
32.0574933216
 30
0.0
 10
206.5459702488
 20
32.0574933216
 30
0.0
 10
207.7808283297
 20
32.0574933216
 30
0.0
 10
208.8901985544
 20
32.7656687941
 30
0.0
 10
209.6810730104
 20
33.6942004188
 30
0.0
 10
209.6810730104
 20
33.6942004188
 30
0.0
 10
210.8187074445
 20
32.2794197077
 30
0.0
 10
210.8187074445
 20
32.2794197077
 30
0.0
  0
LINE
  5
253
330
217
100
AcDbEntity
  8
0
  6
Continuous
 62
     7
100
AcDbLine
 10
196.6215688195
 20
30.2532946124
 30
0.0
 11
219.0354795472
 21
30.2532946124
 31
0.0
  0
LINE
  5
254
330
217
100
AcDbEntity
  8
0
  6
Continuous
 62
     7
100
AcDbLine
 10
219.0354795472
 20
30.2532946124
 30
0.0
 11
219.0354795472
 21
52.66720534
 31
0.0
  0
LINE
  5
255
330
217
100
AcDbEntity
  8
0
  6
Continuous
 62
     7
100
AcDbLine
 10
219.0354795472
 20
52.66720534
 30
0.0
 11
196.6215688195
 21
52.66720534
 31
0.0
  0
LINE
  5
256
330
217
100
AcDbEntity
  8
0
  6
Continuous
 62
     7
100
AcDbLine
 10
196.6215688195
 20
52.66720534
 30
0.0
 11
196.6215688195
 21
30.2532946124
 31
0.0
  0
ENDBLK
  5
257
330
217
100
AcDbEntity
  8
0
  6
ByBlock
 62
     0
100
AcDbBlockEnd
  0
BLOCK
  5
275
330
218
100
AcDbEntity
  8
0
100
AcDbBlockBegin
  2
*T5
 70
     1
 10
0.0
 20
0.0
 30
0.0
  3
*T5
  1

  0
LINE
  5
276
330
218
100
AcDbEntity
  8
0
  6
Continuous
 62
     2
100
AcDbLine
 10
0.0
 20
0.0
 30
0.0
 11
90.0
 21
0.0
 31
0.0
  0
LINE
  5
277
330
218
100
AcDbEntity
  8
0
  6
Continuous
 62
     2
100
AcDbLine
 10
0.0
 20
0.0
 30
0.0
 11
0.0
 21
-40.0
 31
0.0
  0
LINE
  5
278
330
218
100
AcDbEntity
  8
0
  6
Continuous
 62
     2
100
AcDbLine
 10
30.0
 20
-6.0
 30
0.0
 11
90.0
 21
-6.0
 31
0.0
  0
LINE
  5
279
330
218
100
AcDbEntity
  8
0
  6
Continuous
 62
     2
100
AcDbLine
 10
30.0
 20
-12.0
 30
0.0
 11
90.0
 21
-12.0
 31
0.0
  0
LINE
  5
27A
330
218
100
AcDbEntity
  8
0
  6
Continuous
 62
     2
100
AcDbLine
 10
30.0
 20
-22.0
 30
0.0
 11
90.0
 21
-22.0
 31
0.0
  0
LINE
  5
27B
330
218
100
AcDbEntity
  8
0
  6
Continuous
 62
     2
100
AcDbLine
 10
0.0
 20
-27.0
 30
0.0
 11
90.0
 21
-27.0
 31
0.0
  0
LINE
  5
27C
330
218
100
AcDbEntity
  8
0
  6
Continuous
 62
     2
100
AcDbLine
 10
0.0
 20
-40.0
 30
0.0
 11
90.0
 21
-40.0
 31
0.0
  0
LINE
  5
27D
330
218
100
AcDbEntity
  8
0
  6
Continuous
 62
     2
100
AcDbLine
 10
30.0
 20
0.0
 30
0.0
 11
30.0
 21
-27.0
 31
0.0
  0
LINE
  5
27E
330
218
100
AcDbEntity
  8
0
  6
Continuous
 62
     2
100
AcDbLine
 10
70.0
 20
0.0
 30
0.0
 11
70.0
 21
-12.0
 31
0.0
  0
LINE
  5
27F
330
218
100
AcDbEntity
  8
0
  6
Continuous
 62
     2
100
AcDbLine
 10
90.0
 20
0.0
 30
0.0
 11
90.0
 21
-40.0
 31
0.0
  0
MTEXT
  5
280
330
218
100
AcDbEntity
  8
9_SOLID
  6
Continuous
 62
     2
100
AcDbMText
 10
31.4875
 20
-1.5
 30
0.0
 40
3.0
 41
27.0
 46
0.0
 71
     1
 72
     1
  1
174909
  7
TEXTSTYLE_3
 73
     1
 44
0.9
  0
MTEXT
  5
281
330
218
100
AcDbEntity
  8
9_SOLID
  6
Continuous
 62
     2
100
AcDbMText
 10
71.4875
 20
-1.25
 30
0.0
 40
3.5
 41
30.3333333333
 46
0.0
 71
     1
 72
     1
  1
Rev:00
  7
TEXTSTYLE_3
 73
     1
 44
0.9
  0
MTEXT
  5
282
330
218
100
AcDbEntity
  8
9_SOLID
  6
Continuous
 62
     2
100
AcDbMText
 10
31.4875
 20
-7.75
 30
0.0
 40
3.5
 41
36.5
 46
0.0
 71
     1
 72
     1
  1
Scale:1:1
  7
TEXTSTYLE_3
 73
     1
 44
0.9
  0
MTEXT
  5
283
330
218
100
AcDbEntity
  8
9_SOLID
  6
Continuous
 62
     2
100
AcDbMText
 10
71.4875
 20
-7.25
 30
0.0
 40
3.5
 41
11.5
 46
0.0
 71
     1
 72
     1
  1
A4
  7
TEXTSTYLE_3
 73
     1
 44
0.9
  0
MTEXT
  5
284
330
218
100
AcDbEntity
  8
9_SOLID
  6
Continuous
 62
     2
100
AcDbMText
 10
31.4875
 20
-15.25
 30
0.0
 40
3.5
 41
91.3333333333
 46
0.0
 71
     1
 72
     1
  1
BASE ROSONE KRILL
  7
TEXTSTYLE_3
 73
     1
 44
0.9
  0
MTEXT
  5
285
330
218
100
AcDbEntity
  8
9_SOLID
  6
Continuous
 62
     2
100
AcDbMText
 10
31.4875
 20
-23.25
 30
0.0
 40
2.5
 41
45.4761904762
 46
0.0
 71
     1
 72
     1
  1
DATE:28.11.19
  7
TEXTSTYLE_3
 73
     1
 44
0.9
  0
MTEXT
  5
286
330
218
100
AcDbEntity
  8
9_SOLID
  6
Continuous
 62
     2
100
AcDbMText
 10
1.4875
 20
-27.3125
 30
0.0
 40
2.25
 41
178.6071428571
 46
0.0
 71
     1
 72
     1
  1
Any integral or partial reproductions are prohibited \Pwithout prior authorisation of L & L Luce & Light s.r.l., \Pin accordance with the law in force. \PAll rights reserved.
  7
TEXTSTYLE_3
 73
     1
 44
0.9
  0
ENDBLK
  5
287
330
218
100
AcDbEntity
  8
0
  6
ByBlock
 62
     0
100
AcDbBlockEnd
  0
ENDSEC
  0
SECTION
  2
ENTITIES
  0
LWPOLYLINE
  5
288
330
212
100
AcDbEntity
 67
     1
  8
0
  6
Continuous
 62
     7
100
AcDbPolyline
 90
        2
 70
     0
 43
0.5
 10
284.0
 20
13.0
 10
284.0
 20
197.0
  0
LWPOLYLINE
  5
289
330
212
100
AcDbEntity
 67
     1
  8
0
  6
Continuous
 62
     7
100
AcDbPolyline
 90
        2
 70
     0
 43
0.5
 10
13.0
 20
13.0
 10
13.0
 20
197.0
  0
LWPOLYLINE
  5
28A
330
212
100
AcDbEntity
 67
     1
  8
0
  6
Continuous
 62
     7
100
AcDbPolyline
 90
        2
 70
     0
 43
0.5
 10
13.0
 20
13.0
 10
284.0
 20
13.0
  0
LWPOLYLINE
  5
28B
330
212
100
AcDbEntity
 67
     1
  8
0
  6
Continuous
 62
     7
100
AcDbPolyline
 90
        2
 70
     0
 43
0.1
 10
148.5
 20
197.0
 10
148.5
 20
200.0
  0
LWPOLYLINE
  5
28C
330
212
100
AcDbEntity
 67
     1
  8
0
  6
Continuous
 62
     7
100
AcDbPolyline
 90
        2
 70
     0
 43
0.1
 10
284.0
 20
105.0
 10
287.0
 20
105.0
  0
LWPOLYLINE
  5
28D
330
212
100
AcDbEntity
 67
     1
  8
0
  6
Continuous
 62
     7
100
AcDbPolyline
 90
        2
 70
     0
 43
0.1
 10
13.0
 20
105.0
 10
10.0
 20
105.0
  0
LWPOLYLINE
  5
28E
330
212
100
AcDbEntity
 67
     1
  8
0
  6
Continuous
 62
     7
100
AcDbPolyline
 90
        2
 70
     0
 43
0.5
 10
13.0
 20
197.0
 10
284.0
 20
197.0
  0
LWPOLYLINE
  5
28F
330
212
100
AcDbEntity
 67
     1
  8
0
  6
Continuous
 62
     7
100
AcDbPolyline
 90
        2
 70
     0
 43
0.1
 10
10.0
 20
200.0
 10
287.0
 20
200.0
  0
LWPOLYLINE
  5
290
330
212
100
AcDbEntity
 67
     1
  8
0
  6
Continuous
 62
     7
100
AcDbPolyline
 90
        2
 70
     0
 43
0.1
 10
10.0
 20
10.0
 10
10.0
 20
200.0
  0
LWPOLYLINE
  5
291
330
212
100
AcDbEntity
 67
     1
  8
0
  6
Continuous
 62
     7
100
AcDbPolyline
 90
        2
 70
     0
 43
0.1
 10
287.0
 20
10.0
 10
287.0
 20
200.0
  0
LWPOLYLINE
  5
292
330
212
100
AcDbEntity
 67
     1
  8
0
  6
Continuous
 62
     7
100
AcDbPolyline
 90
        2
 70
     0
 43
0.1
 10
10.0
 20
10.0
 10
287.0
 20
10.0
  0
LWPOLYLINE
  5
293
330
212
100
AcDbEntity
 67
     1
  8
0
  6
Continuous
 62
     7
100
AcDbPolyline
 90
        2
 70
     0
 43
0.1
 10
148.5
 20
13.0
 10
148.5
 20
10.0
  0
VIEWPORT
  5
294
330
212
100
AcDbEntity
 67
     1
  8
0
100
AcDbViewport
 10
148.5
 20
105.0
 30
0.0
 40
297.0
 41
210.0
 68
     1
 69
     1
 12
148.5
 22
105.0
 13
0.0
 23
0.0
 14
10.0
 24
10.0
 15
10.0
 25
10.0
 16
0.0
 26
0.0
 36
1.0
 17
0.0
 27
0.0
 37
0.0
 42
50.0
 43
0.0
 44
0.0
 45
210.0
 50
0.0
 51
0.0
 72
   100
 90
    32864
  1

281
     0
 71
     1
 74
     0
110
0.0
120
0.0
130
0.0
111
1.0
121
0.0
131
0.0
112
0.0
122
1.0
132
0.0
 79
     0
146
0.0
170
     0
 61
     5
348
310
292
     1
282
     1
141
0.0
142
0.0
 63
   256
361
32C
  0
LINE
  5
295
330
212
100
AcDbEntity
 67
     1
  8
0
  6
Continuous
 62
     7
100
AcDbLine
 10
95.5098243882
 20
143.339057703
 30
0.0
 11
102.5098243882
 21
143.339057703
 31
0.0
  0
LINE
  5
296
330
212
100
AcDbEntity
 67
     1
  8
7_ALL_FEATURES
  6
Continuous
 62
     7
100
AcDbLine
 10
103.0098243882
 20
139.839057703
 30
0.0
 11
103.0098243882
 21
142.839057703
 31
0.0
  0
LINE
  5
297
330
212
100
AcDbEntity
 67
     1
  8
7_ALL_FEATURES
  6
Continuous
 62
     7
100
AcDbLine
 10
95.0098243882
 20
139.839057703
 30
0.0
 11
95.0098243882
 21
142.839057703
 31
0.0
  0
LINE
  5
298
330
212
100
AcDbEntity
 67
     1
  8
7_ALL_FEATURES
  6
Continuous
 62
     7
100
AcDbLine
 10
95.5098243882
 20
143.339057703
 30
0.0
 11
96.2598243882
 21
143.339057703
 31
0.0
  0
LINE
  5
299
330
212
100
AcDbEntity
 67
     1
  8
7_ALL_FEATURES
  6
Continuous
 62
     7
100
AcDbLine
 10
96.2598243882
 20
143.339057703
 30
0.0
 11
101.7598243882
 21
143.339057703
 31
0.0
  0
LINE
  5
29A
330
212
100
AcDbEntity
 67
     1
  8
7_ALL_FEATURES
  6
Continuous
 62
     7
100
AcDbLine
 10
101.7598243882
 20
143.339057703
 30
0.0
 11
102.5098243882
 21
143.339057703
 31
0.0
  0
LINE
  5
29B
330
212
100
AcDbEntity
 67
     1
  8
7_ALL_FEATURES
  6
Continuous
 62
     7
100
AcDbLine
 10
102.5098243882
 20
143.339057703
 30
0.0
 11
103.0098243882
 21
142.839057703
 31
0.0
  0
LINE
  5
29C
330
212
100
AcDbEntity
 67
     1
  8
7_ALL_FEATURES
  6
Continuous
 62
     7
100
AcDbLine
 10
95.5098243882
 20
143.339057703
 30
0.0
 11
95.0098243882
 21
142.839057703
 31
0.0
  0
LINE
  5
29D
330
212
100
AcDbEntity
 67
     1
  8
7_ALL_FEATURES
  6
Continuous
 62
     7
100
AcDbLine
 10
95.0098243882
 20
142.839057703
 30
0.0
 11
103.0098243882
 21
142.839057703
 31
0.0
  0
LINE
  5
29E
330
212
100
AcDbEntity
 67
     1
  8
7_ALL_FEATURES
  6
Continuous
 62
     7
100
AcDbLine
 10
81.2370448884
 20
139.839057703
 30
0.0
 11
94.9098243882
 21
139.839057703
 31
0.0
  0
LINE
  5
29F
330
212
100
AcDbEntity
 67
     1
  8
7_ALL_FEATURES
  6
Continuous
 62
     7
100
AcDbLine
 10
94.9098243882
 20
139.839057703
 30
0.0
 11
103.1098243882
 21
139.839057703
 31
0.0
  0
LINE
  5
2A0
330
212
100
AcDbEntity
 67
     1
  8
7_ALL_FEATURES
  6
Continuous
 62
     7
100
AcDbLine
 10
103.1098243882
 20
139.839057703
 30
0.0
 11
116.7826038881
 21
139.839057703
 31
0.0
  0
LINE
  5
2A1
330
212
100
AcDbEntity
 67
     1
  8
7_ALL_FEATURES
  6
Continuous
 62
     7
100
AcDbLine
 10
119.0098243882
 20
124.839057703
 30
0.0
 11
118.2681701352
 21
124.839057703
 31
0.0
  0
LINE
  5
2A2
330
212
100
AcDbEntity
 67
     1
  8
7_ALL_FEATURES
  6
Continuous
 62
     7
100
AcDbLine
 10
118.2681701352
 20
124.839057703
 30
0.0
 11
118.2097025258
 21
124.839057703
 31
0.0
  0
LINE
  5
2A3
330
212
100
AcDbEntity
 67
     1
  8
7_ALL_FEATURES
  6
Continuous
 62
     7
100
AcDbLine
 10
118.2097025258
 20
124.839057703
 30
0.0
 11
79.8099462506
 21
124.839057703
 31
0.0
  0
LINE
  5
2A4
330
212
100
AcDbEntity
 67
     1
  8
7_ALL_FEATURES
  6
Continuous
 62
     7
100
AcDbLine
 10
79.8099462506
 20
124.839057703
 30
0.0
 11
79.7514786413
 21
124.839057703
 31
0.0
  0
LINE
  5
2A5
330
212
100
AcDbEntity
 67
     1
  8
7_ALL_FEATURES
  6
Continuous
 62
     7
100
AcDbLine
 10
79.7514786413
 20
124.839057703
 30
0.0
 11
79.0098243882
 21
124.839057703
 31
0.0
  0
LINE
  5
2A6
330
212
100
AcDbEntity
 67
     1
  8
7_ALL_FEATURES
  6
Continuous
 62
     7
100
AcDbLine
 10
119.0098243882
 20
124.839057703
 30
0.0
 11
118.7822992784
 21
137.8739625159
 31
0.0
  0
LINE
  5
2A7
330
212
100
AcDbEntity
 67
     1
  8
7_ALL_FEATURES
  6
Continuous
 62
     7
100
AcDbLine
 10
79.0098243882
 20
124.839057703
 30
0.0
 11
79.2373494981
 21
137.8739625159
 31
0.0
  0
ARC
  5
2A8
330
212
100
AcDbEntity
 67
     1
  8
7_ALL_FEATURES
  6
Continuous
 62
     7
100
AcDbCircle
 10
81.2370448884
 20
137.839057703
 30
0.0
 40
2.0
100
AcDbArc
 50
90.0
 51
179.0
  0
ARC
  5
2A9
330
212
100
AcDbEntity
 67
     1
  8
7_ALL_FEATURES
  6
Continuous
 62
     7
100
AcDbCircle
 10
116.7826038881
 20
137.839057703
 30
0.0
 40
2.0
100
AcDbArc
 50
1.0
 51
90.0
  0
LINE
  5
2AA
330
212
100
AcDbEntity
 67
     1
  8
7_ALL_FEATURES
  6
Continuous
 62
     9
100
AcDbLine
 10
79.2373494981
 20
137.8739625159
 30
0.0
 11
80.0372276542
 21
137.8739625159
 31
0.0
  0
LINE
  5
2AB
330
212
100
AcDbEntity
 67
     1
  8
7_ALL_FEATURES
  6
Continuous
 62
     9
100
AcDbLine
 10
80.0372276542
 20
137.8739625159
 30
0.0
 11
117.9824211222
 21
137.8739625159
 31
0.0
  0
LINE
  5
2AC
330
212
100
AcDbEntity
 67
     1
  8
7_ALL_FEATURES
  6
Continuous
 62
     9
100
AcDbLine
 10
117.9824211222
 20
137.8739625159
 30
0.0
 11
118.7822992784
 21
137.8739625159
 31
0.0
  0
ARC
  5
2AD
330
212
100
AcDbEntity
 67
     1
  8
0
  6
Continuous
 62
     2
100
AcDbCircle
 10
99.0098243882
 20
86.1756427976
 30
0.0
 40
3.5
100
AcDbArc
 50
255.0
 51
360.0
  0
ARC
  5
2AE
330
212
100
AcDbEntity
 67
     1
  8
0
  6
Continuous
 62
     2
100
AcDbCircle
 10
99.0098243882
 20
86.1756427976
 30
0.0
 40
3.5
100
AcDbArc
 50
180.0
 51
195.0
  0
ARC
  5
2AF
330
212
100
AcDbEntity
 67
     1
  8
0
  6
Continuous
 62
     2
100
AcDbCircle
 10
99.0098243882
 20
86.1756427976
 30
0.0
 40
3.5
100
AcDbArc
 50
0.0
 51
180.0
  0
ARC
  5
2B0
330
212
100
AcDbEntity
 67
     1
  8
02___PRT_ALL_AXES
  6
Continuous
 62
     7
100
AcDbCircle
 10
99.0098243882
 20
86.1756427976
 30
0.0
 40
2.75
100
AcDbArc
 50
180.0
 51
360.0
  0
ARC
  5
2B1
330
212
100
AcDbEntity
 67
     1
  8
02___PRT_ALL_AXES
  6
Continuous
 62
     7
100
AcDbCircle
 10
99.0098243882
 20
86.1756427976
 30
0.0
 40
2.75
100
AcDbArc
 50
0.0
 51
180.0
  0
ARC
  5
2B2
330
212
100
AcDbEntity
 67
     1
  8
7_ALL_FEATURES
  6
Continuous
 62
     7
100
AcDbCircle
 10
99.0098243882
 20
86.1756427976
 30
0.0
 40
4.0
100
AcDbArc
 50
0.0
 51
180.0
  0
ARC
  5
2B3
330
212
100
AcDbEntity
 67
     1
  8
7_ALL_FEATURES
  6
Continuous
 62
     7
100
AcDbCircle
 10
99.0098243882
 20
86.1756427976
 30
0.0
 40
4.0
100
AcDbArc
 50
180.0
 51
360.0
  0
ARC
  5
2B4
330
212
100
AcDbEntity
 67
     1
  8
7_ALL_FEATURES
  6
Continuous
 62
     7
100
AcDbCircle
 10
99.0098243882
 20
86.1756427976
 30
0.0
 40
3.5
100
AcDbArc
 50
180.0
 51
195.0
  0
ARC
  5
2B5
330
212
100
AcDbEntity
 67
     1
  8
7_ALL_FEATURES
  6
Continuous
 62
     7
100
AcDbCircle
 10
99.0098243882
 20
86.1756427976
 30
0.0
 40
3.5
100
AcDbArc
 50
195.0
 51
255.0
  0
ARC
  5
2B6
330
212
100
AcDbEntity
 67
     1
  8
7_ALL_FEATURES
  6
Continuous
 62
     7
100
AcDbCircle
 10
99.0098243882
 20
86.1756427976
 30
0.0
 40
3.5
100
AcDbArc
 50
255.0
 51
360.0
  0
ARC
  5
2B7
330
212
100
AcDbEntity
 67
     1
  8
7_ALL_FEATURES
  6
Continuous
 62
     7
100
AcDbCircle
 10
99.0098243882
 20
86.1756427976
 30
0.0
 40
3.5
100
AcDbArc
 50
0.0
 51
180.0
  0
ARC
  5
2B8
330
212
100
AcDbEntity
 67
     1
  8
7_ALL_FEATURES
  6
Continuous
 62
     7
100
AcDbCircle
 10
99.0098243882
 20
86.1756427976
 30
0.0
 40
4.1
100
AcDbArc
 50
0.0
 51
180.0
  0
ARC
  5
2B9
330
212
100
AcDbEntity
 67
     1
  8
7_ALL_FEATURES
  6
Continuous
 62
     7
100
AcDbCircle
 10
99.0098243882
 20
86.1756427976
 30
0.0
 40
4.1
100
AcDbArc
 50
180.0
 51
360.0
  0
ARC
  5
2BA
330
212
100
AcDbEntity
 67
     1
  8
7_ALL_FEATURES
  6
Continuous
 62
     7
100
AcDbCircle
 10
99.0098243882
 20
86.1756427976
 30
0.0
 40
20.0
100
AcDbArc
 50
0.0
 51
180.0
  0
ARC
  5
2BB
330
212
100
AcDbEntity
 67
     1
  8
7_ALL_FEATURES
  6
Continuous
 62
     7
100
AcDbCircle
 10
99.0098243882
 20
86.1756427976
 30
0.0
 40
20.0
100
AcDbArc
 50
180.0
 51
360.0
  0
ARC
  5
2BC
330
212
100
AcDbEntity
 67
     1
  8
7_ALL_FEATURES
  6
Continuous
 62
     9
100
AcDbCircle
 10
99.0098243882
 20
86.1756427976
 30
0.0
 40
17.7727794998
100
AcDbArc
 50
180.0
 51
360.0
  0
ARC
  5
2BD
330
212
100
AcDbEntity
 67
     1
  8
7_ALL_FEATURES
  6
Continuous
 62
     9
100
AcDbCircle
 10
99.0098243882
 20
86.1756427976
 30
0.0
 40
17.7727794998
100
AcDbArc
 50
0.0
 51
180.0
  0
ARC
  5
2BE
330
212
100
AcDbEntity
 67
     1
  8
7_ALL_FEATURES
  6
Continuous
 62
     9
100
AcDbCircle
 10
99.0098243882
 20
86.1756427976
 30
0.0
 40
19.7724748902
100
AcDbArc
 50
0.0
 51
180.0
  0
ARC
  5
2BF
330
212
100
AcDbEntity
 67
     1
  8
7_ALL_FEATURES
  6
Continuous
 62
     9
100
AcDbCircle
 10
99.0098243882
 20
86.1756427976
 30
0.0
 40
19.7724748902
100
AcDbArc
 50
180.0
 51
360.0
  0
LINE
  5
2C0
330
212
100
AcDbEntity
 67
     1
  8
0
  6
Continuous
 62
     7
100
AcDbLine
 10
178.2512481924
 20
143.339057703
 30
0.0
 11
181.7512481924
 21
143.339057703
 31
0.0
  0
LINE
  5
2C1
330
212
100
AcDbEntity
 67
     1
  8
0
  6
Continuous
 62
     7
100
AcDbLine
 10
174.7512481924
 20
143.339057703
 30
0.0
 11
178.2512483454
 21
143.339057703
 31
0.0
  0
LINE
  5
2C2
330
212
100
AcDbEntity
 67
     1
  8
7_ALL_FEATURES
  6
Continuous
 62
     7
100
AcDbLine
 10
178.2512481924
 20
143.339057703
 30
0.0
 11
181.0012481924
 21
143.339057703
 31
0.0
  0
LINE
  5
2C3
330
212
100
AcDbEntity
 67
     1
  8
7_ALL_FEATURES
  6
Continuous
 62
     7
100
AcDbLine
 10
181.0012481924
 20
143.339057703
 30
0.0
 11
181.7512481924
 21
143.339057703
 31
0.0
  0
LINE
  5
2C4
330
212
100
AcDbEntity
 67
     1
  8
02___PRT_ALL_AXES
  6
Continuous
 62
     7
100
AcDbLine
 10
174.2512481924
 20
139.839057703
 30
0.0
 11
174.2512481924
 21
142.839057703
 31
0.0
  0
LINE
  5
2C5
330
212
100
AcDbEntity
 67
     1
  8
02___PRT_ALL_AXES
  6
Continuous
 62
     7
100
AcDbLine
 10
182.2512481924
 20
139.839057703
 30
0.0
 11
182.2512481924
 21
142.839057703
 31
0.0
  0
LINE
  5
2C6
330
212
100
AcDbEntity
 67
     1
  8
7_ALL_FEATURES
  6
Continuous
 62
     7
100
AcDbLine
 10
174.2512481924
 20
142.839057703
 30
0.0
 11
174.7512481924
 21
143.339057703
 31
0.0
  0
LINE
  5
2C7
330
212
100
AcDbEntity
 67
     1
  8
7_ALL_FEATURES
  6
Continuous
 62
     7
100
AcDbLine
 10
174.7512481924
 20
143.339057703
 30
0.0
 11
175.5012481924
 21
143.339057703
 31
0.0
  0
LINE
  5
2C8
330
212
100
AcDbEntity
 67
     1
  8
7_ALL_FEATURES
  6
Continuous
 62
     7
100
AcDbLine
 10
175.5012481924
 20
143.339057703
 30
0.0
 11
178.2512481924
 21
143.339057703
 31
0.0
  0
LINE
  5
2C9
330
212
100
AcDbEntity
 67
     1
  8
7_ALL_FEATURES
  6
Continuous
 62
     7
100
AcDbLine
 10
182.2512481924
 20
142.839057703
 30
0.0
 11
181.7512481924
 21
143.339057703
 31
0.0
  0
LINE
  5
2CA
330
212
100
AcDbEntity
 67
     1
  8
7_ALL_FEATURES
  6
Continuous
 62
     7
100
AcDbLine
 10
178.2512481924
 20
142.839057703
 30
0.0
 11
182.2512481924
 21
142.839057703
 31
0.0
  0
LINE
  5
2CB
330
212
100
AcDbEntity
 67
     1
  8
7_ALL_FEATURES
  6
Continuous
 62
     7
100
AcDbLine
 10
174.2512481924
 20
142.839057703
 30
0.0
 11
178.2512481924
 21
142.839057703
 31
0.0
  0
LINE
  5
2CC
330
212
100
AcDbEntity
 67
     1
  8
7_ALL_FEATURES
  6
Continuous
 62
     7
100
AcDbLine
 10
178.2512481924
 20
124.839057703
 30
0.0
 11
159.0515264498
 21
124.839057703
 31
0.0
  0
LINE
  5
2CD
330
212
100
AcDbEntity
 67
     1
  8
7_ALL_FEATURES
  6
Continuous
 62
     7
100
AcDbLine
 10
159.0515264498
 20
124.839057703
 30
0.0
 11
158.2514111049
 21
124.839057703
 31
0.0
  0
LINE
  5
2CE
330
212
100
AcDbEntity
 67
     1
  8
7_ALL_FEATURES
  6
Continuous
 62
     7
100
AcDbLine
 10
160.4784686926
 20
139.839057703
 30
0.0
 11
160.6594042083
 21
139.839057703
 31
0.0
  0
LINE
  5
2CF
330
212
100
AcDbEntity
 67
     1
  8
7_ALL_FEATURES
  6
Continuous
 62
     7
100
AcDbLine
 10
160.6594042083
 20
139.839057703
 30
0.0
 11
174.1512481924
 21
139.839057703
 31
0.0
  0
LINE
  5
2D0
330
212
100
AcDbEntity
 67
     1
  8
7_ALL_FEATURES
  6
Continuous
 62
     7
100
AcDbLine
 10
174.1512481924
 20
139.839057703
 30
0.0
 11
178.2512481924
 21
139.839057703
 31
0.0
  0
ARC
  5
2D1
330
212
100
AcDbEntity
 67
     1
  8
7_ALL_FEATURES
  6
Continuous
 62
     7
100
AcDbCircle
 10
160.4784686926
 20
137.839057703
 30
0.0
 40
2.0
100
AcDbArc
 50
90.0
 51
179.0
  0
LINE
  5
2D2
330
212
100
AcDbEntity
 67
     1
  8
7_ALL_FEATURES
  6
Continuous
 62
     7
100
AcDbLine
 10
160.5199011437
 20
139.839057703
 30
0.0
 11
160.4784686926
 21
139.839057703
 31
0.0
  0
LINE
  5
2D3
330
212
100
AcDbEntity
 67
     1
  8
7_ALL_FEATURES
  6
Continuous
 62
     7
100
AcDbLine
 10
178.2512481924
 20
139.839057703
 30
0.0
 11
160.5199011437
 21
139.839057703
 31
0.0
  0
LINE
  5
2D4
330
212
100
AcDbEntity
 67
     1
  8
7_ALL_FEATURES
  6
Continuous
 62
     7
100
AcDbLine
 10
158.4787733023
 20
137.8739625159
 30
0.0
 11
158.2512481924
 21
124.839057703
 31
0.0
  0
ARC
  5
2D5
330
212
100
AcDbEntity
 67
     1
  8
7_ALL_FEATURES
  6
Continuous
 62
     7
100
AcDbCircle
 10
196.0240276923
 20
137.839057703
 30
0.0
 40
2.0
100
AcDbArc
 50
1.0
 51
90.0
  0
LINE
  5
2D6
330
212
100
AcDbEntity
 67
     1
  8
7_ALL_FEATURES
  6
Continuous
 62
     7
100
AcDbLine
 10
198.0237230826
 20
137.8739625159
 30
0.0
 11
198.2512481924
 21
124.839057703
 31
0.0
  0
LINE
  5
2D7
330
212
100
AcDbEntity
 67
     1
  8
7_ALL_FEATURES
  6
Continuous
 62
     7
100
AcDbLine
 10
178.2512481924
 20
139.839057703
 30
0.0
 11
182.3512481924
 21
139.839057703
 31
0.0
  0
LINE
  5
2D8
330
212
100
AcDbEntity
 67
     1
  8
7_ALL_FEATURES
  6
Continuous
 62
     7
100
AcDbLine
 10
182.3512481924
 20
139.839057703
 30
0.0
 11
196.0240276923
 21
139.839057703
 31
0.0
  0
LINE
  5
2D9
330
212
100
AcDbEntity
 67
     1
  8
7_ALL_FEATURES
  6
Continuous
 62
     7
100
AcDbLine
 10
198.25108528
 20
124.839057703
 30
0.0
 11
197.4509699351
 21
124.839057703
 31
0.0
  0
LINE
  5
2DA
330
212
100
AcDbEntity
 67
     1
  8
7_ALL_FEATURES
  6
Continuous
 62
     7
100
AcDbLine
 10
197.4509699351
 20
124.839057703
 30
0.0
 11
178.2512481924
 21
124.839057703
 31
0.0
  0
LINE
  5
2DB
330
212
100
AcDbEntity
 67
     1
  8
7_ALL_FEATURES
  6
Continuous
 62
     7
100
AcDbLine
 10
196.0240276923
 20
139.839057703
 30
0.0
 11
182.3512481924
 21
139.839057703
 31
0.0
  0
LINE
  5
2DC
330
212
100
AcDbEntity
 67
     1
  8
7_ALL_FEATURES
  6
Continuous
 62
     7
100
AcDbLine
 10
182.3512481924
 20
139.839057703
 30
0.0
 11
178.2512481924
 21
139.839057703
 31
0.0
  0
LINE
  5
2DD
330
212
100
AcDbEntity
 67
     1
  8
7_ALL_FEATURES
  6
Continuous
 62
     9
100
AcDbLine
 10
158.4787733023
 20
137.8739625159
 30
0.0
 11
178.2512481924
 21
137.8739625159
 31
0.0
  0
LINE
  5
2DE
330
212
100
AcDbEntity
 67
     1
  8
7_ALL_FEATURES
  6
Continuous
 62
     9
100
AcDbLine
 10
178.2512481924
 20
137.8739625159
 30
0.0
 11
198.0237230826
 21
137.8739625159
 31
0.0
  0
DIMENSION
  5
2DF
330
212
100
AcDbEntity
 67
     1
  8
0
  6
Continuous
 62
     2
100
AcDbDimension
280
     0
  2
*D1
 10
116.0405930898
 20
96.6614864658
 30
0.0
 11
122.6876207741
 21
103.3963376733
 31
0.0
 70
   163
  1
%%c<>
 71
     1
 42
40.0
 73
     0
 74
     0
 75
     0
  3
DIMSTYLE_1
100
AcDbDiametricDimension
 15
81.9790556867
 25
75.6897991293
 35
0.0
 40
0.0
  0
DIMENSION
  5
2E0
330
212
100
AcDbEntity
 67
     1
  8
0
  6
Continuous
 62
     2
100
AcDbDimension
280
     0
  2
*D2
 10
69.6470303546
 20
143.339057703
 30
0.0
 11
69.6470303546
 21
134.2301417637
 31
0.0
 70
   160
 71
     2
 42
18.5
 73
     0
 74
     0
 75
     0
  3
DIMSTYLE_2
100
AcDbAlignedDimension
 13
78.3521771891
 23
124.839057703
 33
0.0
 14
77.0226309021
 24
143.339057703
 34
0.0
 50
90.0
100
AcDbRotatedDimension
  0
DIMENSION
  5
2E1
330
212
100
AcDbEntity
 67
     1
  8
0
  6
Continuous
 62
     2
100
AcDbDimension
280
     0
  2
*D3
 10
206.078807599
 20
124.839057703
 30
0.0
 11
206.078807599
 21
132.4815703479
 31
0.0
 70
   160
 71
     2
 42
15.0
 73
     0
 74
     0
 75
     0
  3
DIMSTYLE_2
100
AcDbAlignedDimension
 13
196.0240276923
 23
139.839057703
 33
0.0
 14
198.2512481924
 24
124.839057703
 34
0.0
 50
270.0
100
AcDbRotatedDimension
  0
INSERT
  5
2E2
330
212
100
AcDbEntity
 67
     1
  8
0
  6
Continuous
 62
     2
100
AcDbBlockReference
  2
LOGO2_BL0
 10
207.8284587569
 20
39.54351784
 30
0.0
  0
ACAD_TABLE
  5
2E3
330
212
100
AcDbEntity
 67
     1
  8
0
  6
Continuous
 62
     2
160
              3340
310
0C0D000019000000880000001D000000000000000000F03F00000000000000000000000000000000D820BAC1134068400000000000000000000000000000F03F0000000000000000D9CB19FE91854A4000000000000000000000000000000000000000000000F03F0000000000000000000000000000000000000000000000
310
000000000000000000000000000000F03F54000000200000000200000000000000000000000000000000000000000000000000000000000000008056400000000000000000000000000000000000000000000000000000000000000000000000000000F03F5400000020000000020000000000000000000000000000000000
310
00000000000000000000000000000000000000000000000044C0000000000000000000000000000000000000000000000000000000000000F03F5400000020000000020000000000000000003E4000000000000018C00000000000000000000000000080564000000000000018C00000000000000000000000000000000000
310
00000000000000000000000000F03F5400000020000000020000000000000000003E4000000000000028C00000000000000000000000000080564000000000000028C0000000000000000000000000000000000000000000000000000000000000F03F5400000020000000020000000000000000003E4000000000000036C0
310
0000000000000000000000000080564000000000000036C0000000000000000000000000000000000000000000000000000000000000F03F54000000200000000200000000000000000000000000000000003BC0000000000000000000000000008056400000000000003BC000000000000000000000000000000000000000
310
0000000000000000000000F03F540000002000000002000000000000000000000000000000000044C00000000000000000000000000080564000000000000044C0000000000000000000000000000000000000000000000000000000000000F03F5400000020000000020000000000000000003E4000000000000000000000
310
0000000000000000000000003E400000000000003BC0000000000000000000000000000000000000000000000000000000000000F03F540000002000000002000000000000000080514000000000000000000000000000000000000000000080514000000000000028C0000000000000000000000000000000000000000000
310
000000000000000000F03F540000002000000002000000000000000080564000000000000000000000000000000000000000000080564000000000000044C0000000000000000000000000000000000000000000000000000000000000F03F0C0000001000000013000000BC00000026000000CDCCCCCCCC7C3F4000000000
310
000012C0000000000000000000000000000000000000000000000000000000000000F03F000000000000F03F000000000000000000000000000000003100370034003900300039000000000006000000010000000000000000000840333333333333EB3F0000000000000000000000000000F03F0000000000000000000000
310
0000000000000000000000000000000000000000000000000000000000740078007400000000000000BC000000260000003333333333DF514000000000000013C0000000000000000000000000000000000000000000000000000000000000F03F000000000000F03F00000000000000000000000000000000520065007600
310
3A00300030000000000006000000010000000000000000000C40333333333333EB3F0000000000000000000000000000F03F00000000000000000000000000000000000000000000000000000000000000000000000000000000740078007400000000000000C000000026000000CDCCCCCCCC7C3F4000000000008026C000
310
0000000000000000000000000000000000000000000000000000000000F03F000000000000F03F000000000000000000000000000000005300630061006C0065003A0031003A003100000009000000010000000000000000000C40333333333333EB3F0000000000000000000000000000F03F000000000000000000000000
310
00000000000000000000000000000000000000000000000000000000740078007400000000000000B4000000260000003333333333DF514000000000008025C0000000000000000000000000000000000000000000000000000000000000F03F000000000000F03F0000000000000000000000000000000041003400000000
310
0002000000010000000000000000000C40333333333333EB3F0000000000000000000000000000F03F00000000000000000000000000000000000000000000000000000000000000000000000000000000740078007400000000000000D000000026000000CDCCCCCCCC7C3F400000000000C032C000000000000000000000
310
0000000000000000000000000000000000000000F03F000000000000F03F000000000000000000000000000000004200410053004500200052004F0053004F004E00450020004B00520049004C004C00000011000000010000000000000000000C40333333333333EB3F0000000000000000000000000000F03F0000000000
310
0000000000000000000000000000000000000000000000000000000000000000000000740078007400000000000000C800000026000000CDCCCCCCCC7C3F400000000000C039C0000000000000000000000000000000000000000000000000000000000000F03F000000000000F03F00000000000000000000000000000000
310
44004100540045003A00320038002E00310031002E003100390000000D000000010000000000000000000440333333333333EB3F0000000000000000000000000000F03F0000000000000000000000000000000000000000000000000000000000000000000000000000000074007800740000000000000018010000260000
310
00CDCCCCCCCCCCF73F0000000000903DC0000000000000000000000000000000000000000000000000000000000000F03F000000000000F03F0000000000000000000000000000000041006E007900200069006E00740065006700720061006C0020006F00720020007000610072007400690061006C002000720065007000
310
72006F00640075006300740069006F006E00730020006100720065002000700072006F0068006900620069007400650064002000000035000000010000000000000000000240333333333333EB3F0000000000000000000000000000F03F000000000000000000000000000000000000000000000000000000000000000000
310
000000000000007400780074000000000000002401000026000000CDCCCCCCCCCCF73F00000000007840C0000000000000000000000000000000000000000000000000000000000000F03F000000000000F03F0000000000000000000000000000000077006900740068006F007500740020007000720069006F0072002000
310
61007500740068006F007200690073006100740069006F006E0020006F00660020004C002000260020004C0020004C007500630065002000260020004C006900670068007400200073002E0072002E006C002E002C002000000000003A000000010000000000000000000240333333333333EB3F0000000000000000000000
310
000000F03F00000000000000000000000000000000000000000000000000000000000000000000000000000000740078007400000000000000F800000026000000CDCCCCCCCCCCF73F00000000002842C0000000000000000000000000000000000000000000000000000000000000F03F000000000000F03F000000000000
310
0000000000000000000069006E0020006100630063006F007200640061006E006300650020007700690074006800200074006800650020006C0061007700200069006E00200066006F007200630065002E002000000025000000010000000000000000000240333333333333EB3F0000000000000000000000000000F03F00
310
000000000000000000000000000000000000000000000000000000000000000000000000000000740078007400000000000000D800000026000000CDCCCCCCCCCCF73F0000000000D843C0000000000000000000000000000000000000000000000000000000000000F03F000000000000F03F000000000000000000000000
310
0000000041006C006C0020007200690067006800740073002000720065007300650072007600650064002E000000000014000000010000000000000000000240333333333333EB3F0000000000000000000000000000F03F000000000000000000000000000000000000000000000000000000000000000000000000000000
310
00740078007400000000000000080000001F000000880000001D000000000000000000F03F0000000000000000000000000000000000000000000000000000000000000000000000000000F03F0000000000000000000000000000000000000000000000000000000000000000000000000000F03F00000000000000000000
310
00000000000000000000000000000000000000000000000000000000F03F080000001F000000
100
AcDbBlockReference
  2
*T5
 10
194.0024117122
 20
53.04351784
 30
0.0
100
AcDbTable
342
2E7
343
218
 11
1.0
 21
0.0
 31
0.0
 90
       54
 91
        5
 92
        5
 93
        0
 94
        0
 95
        0
 96
        0
141
6.0
141
6.0
141
10.0
141
5.0
141
13.0
142
10.0
142
10.0
142
10.0
142
40.0
142
20.0
171
     1
172
     0
173
     0
174
     0
175
     3
176
     4
 91
       33
178
     0
145
0.0
170
     5
140
3.5
 92
        0
301
CELL_VALUE
 93
        4
 90
        4
  1
 
 94
        0
300

302
 
304
ACVALUE_END
171
     1
172
     0
173
     1
174
     0
175
     1
176
     1
 91
        0
178
     0
145
0.0
 92
        0
301
CELL_VALUE
 93
        3
 90
        0
 91
        0
 94
        0
300

302

304
ACVALUE_END
171
     1
172
     0
173
     1
174
     0
175
     1
176
     1
 91
        0
178
     0
145
0.0
 92
        0
301
CELL_VALUE
 93
        3
 90
        0
 91
        0
 94
        0
300

302

304
ACVALUE_END
171
     1
172
     0
173
     0
174
     0
175
     1
176
     1
 91
       49
178
     0
145
0.0
170
     4
  7
TEXTSTYLE_3
140
3.0
 92
        0
301
CELL_VALUE
 93
        4
 90
        4
  1
174909
 94
        0
300

302
174909
304
ACVALUE_END
171
     1
172
     0
173
     0
174
     0
175
     1
176
     1
 91
       49
178
     0
145
0.0
170
     4
  7
TEXTSTYLE_3
140
3.5
 92
        0
301
CELL_VALUE
 93
        4
 90
        4
  1
Rev:00
 94
        0
300

302
Rev:00
304
ACVALUE_END
171
     1
172
     0
173
     1
174
     0
175
     1
176
     1
 91
        0
178
     0
145
0.0
 92
        0
301
CELL_VALUE
 93
        3
 90
        0
 91
        0
 94
        0
300

302

304
ACVALUE_END
171
     1
172
     0
173
     1
174
     0
175
     1
176
     1
 91
        0
178
     0
145
0.0
 92
        0
301
CELL_VALUE
 93
        3
 90
        0
 91
        0
 94
        0
300

302

304
ACVALUE_END
171
     1
172
     0
173
     1
174
     0
175
     1
176
     1
 91
        0
178
     0
145
0.0
 92
        0
301
CELL_VALUE
 93
        3
 90
        0
 91
        0
 94
        0
300

302

304
ACVALUE_END
171
     1
172
     0
173
     0
174
     0
175
     1
176
     1
 91
       48
178
     0
145
0.0
  7
TEXTSTYLE_3
140
3.5
 92
        0
301
CELL_VALUE
 93
        4
 90
        4
  1
Scale:1:1
 94
        0
300

302
Scale:1:1
304
ACVALUE_END
171
     1
172
     0
173
     0
174
     0
175
     1
176
     1
 91
       49
178
     0
145
0.0
170
     4
  7
TEXTSTYLE_3
140
3.5
 92
        0
301
CELL_VALUE
 93
        4
 90
        4
  1
A4
 94
        0
300

302
A4
304
ACVALUE_END
171
     1
172
     0
173
     1
174
     0
175
     1
176
     1
 91
        0
178
     0
145
0.0
 92
        0
301
CELL_VALUE
 93
        3
 90
        0
 91
        0
 94
        0
300

302

304
ACVALUE_END
171
     1
172
     0
173
     1
174
     0
175
     1
176
     1
 91
        0
178
     0
145
0.0
 92
        0
301
CELL_VALUE
 93
        3
 90
        0
 91
        0
 94
        0
300

302

304
ACVALUE_END
171
     1
172
     0
173
     1
174
     0
175
     1
176
     1
 91
        0
178
     0
145
0.0
 92
        0
301
CELL_VALUE
 93
        3
 90
        0
 91
        0
 94
        0
300

302

304
ACVALUE_END
171
     1
172
     0
173
     0
174
     0
175
     2
176
     1
 91
       49
178
     0
145
0.0
170
     4
  7
TEXTSTYLE_3
140
3.5
 92
        0
301
CELL_VALUE
 93
        4
 90
        4
  1
BASE ROSONE KRILL
 94
        0
300

302
BASE ROSONE KRILL
304
ACVALUE_END
171
     1
172
     0
173
     1
174
     0
175
     1
176
     1
 91
        0
178
     0
145
0.0
 92
        0
301
CELL_VALUE
 93
        3
 90
        0
 91
        0
 94
        0
300

302

304
ACVALUE_END
171
     1
172
     0
173
     1
174
     0
175
     1
176
     1
 91
        0
178
     0
145
0.0
 92
        0
301
CELL_VALUE
 93
        3
 90
        0
 91
        0
 94
        0
300

302

304
ACVALUE_END
171
     1
172
     0
173
     1
174
     0
175
     1
176
     1
 91
        0
178
     0
145
0.0
 92
        0
301
CELL_VALUE
 93
        3
 90
        0
 91
        0
 94
        0
300

302

304
ACVALUE_END
171
     1
172
     0
173
     1
174
     0
175
     1
176
     1
 91
        0
178
     0
145
0.0
 92
        0
301
CELL_VALUE
 93
        3
 90
        0
 91
        0
 94
        0
300

302

304
ACVALUE_END
171
     1
172
     0
173
     0
174
     0
175
     2
176
     1
 91
       49
178
     0
145
0.0
170
     4
  7
TEXTSTYLE_3
140
2.5
 92
        0
301
CELL_VALUE
 93
        4
 90
        4
  1
DATE:28.11.19
 94
        0
300

302
DATE:28.11.19
304
ACVALUE_END
171
     1
172
     0
173
     1
174
     0
175
     1
176
     1
 91
        0
178
     0
145
0.0
 92
        0
301
CELL_VALUE
 93
        3
 90
        0
 91
        0
 94
        0
300

302

304
ACVALUE_END
171
     1
172
     0
173
     0
174
     0
175
     5
176
     1
 91
       49
178
     0
145
0.0
170
     4
  7
TEXTSTYLE_3
140
2.25
 92
        0
301
CELL_VALUE
 93
        4
 90
        4
  1
Any integral or partial reproductions are prohibited \Pwithout prior authorisation of L & L Luce & Light s.r.l., \Pin accordance with the law in force. \PAll rights reserved.
 94
        0
300

302
Any integral or partial reproductions are prohibited \Pwithout prior authorisation of L & L Luce & Light s.r.l., \Pin accordance with the law in force. \PAll rights reserved.
304
ACVALUE_END
171
     1
172
     0
173
     1
174
     0
175
     1
176
     1
 91
        0
178
     0
145
0.0
 92
        0
301
CELL_VALUE
 93
        3
 90
        0
 91
        0
 94
        0
300

302

304
ACVALUE_END
171
     1
172
     0
173
     1
174
     0
175
     1
176
     1
 91
        0
178
     0
145
0.0
 92
        0
301
CELL_VALUE
 93
        3
 90
        0
 91
        0
 94
        0
300

302

304
ACVALUE_END
171
     1
172
     0
173
     1
174
     0
175
     1
176
     1
 91
        0
178
     0
145
0.0
 92
        0
301
CELL_VALUE
 93
        3
 90
        0
 91
        0
 94
        0
300

302

304
ACVALUE_END
171
     1
172
     0
173
     1
174
     0
175
     1
176
     1
 91
        0
178
     0
145
0.0
 92
        0
301
CELL_VALUE
 93
        3
 90
        0
 91
        0
 94
        0
300

302

304
ACVALUE_END
  0
ENDSEC
  0
SECTION
  2
OBJECTS
  0
DICTIONARY
  5
C
330
0
100
AcDbDictionary
281
     1
  3
ACAD_DETAILVIEWSTYLE
350
336
  3
ACAD_GROUP
350
D
  3
ACAD_LAYOUT
350
1A
  3
ACAD_MATERIAL
350
325
  3
ACAD_MLEADERSTYLE
350
329
  3
ACAD_MLINESTYLE
350
17
  3
ACAD_PLOTSETTINGS
350
19
  3
ACAD_PLOTSTYLENAME
350
E
  3
ACAD_SCALELIST
350
2E9
  3
ACAD_SECTIONVIEWSTYLE
350
337
  3
ACAD_TABLESTYLE
350
2E4
  3
ACAD_VISUALSTYLE
350
30B
  3
ACDB_RECOMPOSE_DATA
350
333
  3
AcDbVariableDictionary
350
32D
  3
APPDATA
350
32B
  0
SUN
  5
32C
330
294
100
AcDbSun
 90
        1
290
     0
 63
     7
421
 16777215
 40
1.0
291
     1
 91
  2455826
 92
 54000000
292
     0
 70
     2
 71
   256
280
     1
  0
DICTIONARY
  5
336
102
{ACAD_REACTORS
330
C
102
}
330
C
100
AcDbDictionary
281
     1
  0
DICTIONARY
  5
D
102
{ACAD_REACTORS
330
C
102
}
330
C
100
AcDbDictionary
281
     1
  0
DICTIONARY
  5
1A
102
{ACAD_REACTORS
330
C
102
}
330
C
100
AcDbDictionary
281
     1
  3
174909_1
350
2E6
  3
Model
350
2E5
  0
DICTIONARY
  5
325
102
{ACAD_REACTORS
330
C
102
}
330
C
100
AcDbDictionary
281
     1
  3
ByBlock
350
327
  3
ByLayer
350
326
  3
Global
350
328
  0
DICTIONARY
  5
329
102
{ACAD_REACTORS
330
C
102
}
330
C
100
AcDbDictionary
281
     1
  3
Standard
350
32A
  0
DICTIONARY
  5
17
102
{ACAD_REACTORS
330
C
102
}
330
C
100
AcDbDictionary
281
     1
  3
Standard
350
18
  0
DICTIONARY
  5
19
102
{ACAD_REACTORS
330
C
102
}
330
C
100
AcDbDictionary
281
     1
  0
ACDBDICTIONARYWDFLT
  5
E
102
{ACAD_REACTORS
330
C
102
}
330
C
100
AcDbDictionary
281
     1
  3
Normal
350
F
100
AcDbDictionaryWithDefault
340
F
  0
DICTIONARY
  5
2E9
102
{ACAD_REACTORS
330
C
102
}
330
C
100
AcDbDictionary
281
     1
  3
A0
350
2EA
  3
A1
350
2EB
  3
A2
350
2EC
  3
A3
350
2ED
  3
A4
350
2EE
  3
A5
350
2EF
  3
A6
350
2F0
  3
A7
350
2F1
  3
A8
350
2F2
  3
A9
350
2F3
  3
B0
350
2F4
  3
B1
350
2F5
  3
B2
350
2F6
  3
B3
350
2F7
  3
B4
350
2F8
  3
B5
350
2F9
  3
B6
350
2FA
  3
B7
350
2FB
  3
B8
350
2FC
  3
B9
350
2FD
  3
C0
350
2FE
  3
C1
350
2FF
  3
C2
350
300
  3
C3
350
301
  3
C4
350
302
  3
C5
350
303
  3
C6
350
304
  3
C7
350
305
  3
C8
350
306
  3
C9
350
307
  3
D0
350
308
  3
D1
350
309
  3
D2
350
30A
  0
DICTIONARY
  5
337
102
{ACAD_REACTORS
330
C
102
}
330
C
100
AcDbDictionary
281
     1
  0
DICTIONARY
  5
2E4
330
C
100
AcDbDictionary
281
     1
  3
Standard
350
2E7
  3
Standard1
350
2E8
  0
DICTIONARY
  5
30B
102
{ACAD_REACTORS
330
C
102
}
330
C
100
AcDbDictionary
281
     1
  3
2dWireframe
350
310
  3
Basic
350
313
  3
Brighten
350
317
  3
ColorChange
350
31B
  3
Conceptual
350
315
  3
Dim
350
316
  3
EdgeColorOff
350
31E
  3
Facepattern
350
31A
  3
Flat
350
30C
  3
FlatWithEdges
350
30D
  3
Gouraud
350
30E
  3
GouraudWithEdges
350
30F
  3
Hidden
350
312
  3
JitterOff
350
31C
  3
Linepattern
350
319
  3
OverhangOff
350
31D
  3
Realistic
350
314
  3
Shaded
350
323
  3
Shaded with edges
350
322
  3
Shades of Gray
350
31F
  3
Sketchy
350
320
  3
Thicken
350
318
  3
Wireframe
350
311
  3
X-Ray
350
321
  0
XRECORD
  5
333
102
{ACAD_REACTORS
330
C
102
}
330
C
100
AcDbXrecord
280
     1
 90
        1
330
2E8
330
2E7
  0
DICTIONARY
  5
32D
102
{ACAD_REACTORS
330
C
102
}
330
C
100
AcDbDictionary
281
     1
  3
CANNOSCALE
350
32E
  3
CMLEADERSTYLE
350
335
  3
CTABLESTYLE
350
334
  0
DICTIONARY
  5
32B
102
{ACAD_REACTORS
330
C
102
}
330
C
100
AcDbDictionary
281
     1
  0
LAYOUT
  5
2E6
102
{ACAD_REACTORS
330
1A
102
}
330
1A
100
AcDbPlotSettings
  1

  2
none_device
  4
ISO_A4_(297.00_x_210.00_MM)
  6

 40
0.0
 41
0.0
 42
0.0
 43
0.0
 44
297.0
 45
210.0
 46
0.0
 47
0.0
 48
0.0
 49
0.0
140
0.0
141
0.0
142
1.0
143
1.0
 70
     0
 72
     1
 73
     0
 74
     0
  7

 75
     0
 76
     0
 77
     2
 78
   300
147
1.0
148
0.0
149
0.0
100
AcDbLayout
  1
174909_1
 70
     0
 71
     1
 10
0.0
 20
0.0
 11
297.0
 21
210.0
 12
0.0
 22
0.0
 32
0.0
 14
9.949999999999989
 24
9.950000000000003
 34
0.0
 15
291.7524117122
 25
200.05
 35
0.0
146
0.0
 13
0.0
 23
0.0
 33
0.0
 16
1.0
 26
0.0
 36
0.0
 17
0.0
 27
1.0
 37
0.0
 76
     0
330
212
331
294
  0
LAYOUT
  5
2E5
102
{ACAD_REACTORS
330
1A
102
}
330
1A
100
AcDbPlotSettings
  1

  2
none_device
  4

  6

 40
0.0
 41
0.0
 42
0.0
 43
0.0
 44
297.0
 45
210.0
 46
0.0
 47
0.0
 48
0.0
 49
0.0
140
0.0
141
0.0
142
1.0
143
1.0
 70
  1024
 72
     1
 73
     0
 74
     0
  7

 75
     0
 76
     0
 77
     2
 78
   300
147
1.0
148
0.0
149
0.0
100
AcDbLayout
  1
Model
 70
     0
 71
     0
 10
0.0
 20
0.0
 11
297.0
 21
210.0
 12
0.0
 22
0.0
 32
0.0
 14
0.0
 24
0.0
 34
0.0
 15
0.0
 25
0.0
 35
0.0
146
0.0
 13
0.0
 23
0.0
 33
0.0
 16
1.0
 26
0.0
 36
0.0
 17
0.0
 27
1.0
 37
0.0
 76
     0
330
211
331
1F4
  0
MATERIAL
  5
327
102
{ACAD_REACTORS
330
325
102
}
330
325
100
AcDbMaterial
  1
ByBlock
 72
     1
 94
      127
  0
MATERIAL
  5
326
102
{ACAD_REACTORS
330
325
102
}
330
325
100
AcDbMaterial
  1
ByLayer
 72
     1
 94
      127
  0
MATERIAL
  5
328
102
{ACAD_REACTORS
330
325
102
}
330
325
100
AcDbMaterial
  1
Global
 72
     1
 94
      127
  0
MLEADERSTYLE
  5
32A
102
{ACAD_REACTORS
330
329
102
}
330
329
100
AcDbMLeaderStyle
179
     2
170
     2
171
     1
172
     0
 90
        2
 40
0.0
 41
0.0
173
     1
 91
-1056964608
340
14
 92
       -2
290
     1
 42
2.0
291
     1
 43
8.0
  3
Standard
341
0
 44
4.0
300

342
11
174
     1
178
     1
175
     1
176
     0
 93
-1056964608
 45
4.0
292
     0
297
     0
 46
4.0
343
0
 94
-1056964608
 47
1.0
 49
1.0
140
1.0
293
     1
141
0.0
294
     1
177
     0
142
1.0
295
     0
296
     0
143
3.75
271
     0
272
     9
273
     9
298
     0
  0
MLINESTYLE
  5
18
102
{ACAD_REACTORS
330
17
102
}
330
17
100
AcDbMlineStyle
  2
STANDARD
 70
     0
  3

 62
   256
 51
90.0
 52
90.0
 71
     2
 49
0.5
 62
   256
  6
BYLAYER
 49
-0.5
 62
   256
  6
BYLAYER
  0
ACDBPLACEHOLDER
  5
F
102
{ACAD_REACTORS
330
E
102
}
330
E
  0
SCALE
  5
2EA
102
{ACAD_REACTORS
330
2E9
102
}
330
2E9
100
AcDbScale
 70
     0
300
1:1
140
1.0
141
1.0
290
     1
  0
SCALE
  5
2EB
102
{ACAD_REACTORS
330
2E9
102
}
330
2E9
100
AcDbScale
 70
     0
300
1:2
140
1.0
141
2.0
290
     0
  0
SCALE
  5
2EC
102
{ACAD_REACTORS
330
2E9
102
}
330
2E9
100
AcDbScale
 70
     0
300
1:4
140
1.0
141
4.0
290
     0
  0
SCALE
  5
2ED
102
{ACAD_REACTORS
330
2E9
102
}
330
2E9
100
AcDbScale
 70
     0
300
1:5
140
1.0
141
5.0
290
     0
  0
SCALE
  5
2EE
102
{ACAD_REACTORS
330
2E9
102
}
330
2E9
100
AcDbScale
 70
     0
300
1:8
140
1.0
141
8.0
290
     0
  0
SCALE
  5
2EF
102
{ACAD_REACTORS
330
2E9
102
}
330
2E9
100
AcDbScale
 70
     0
300
1:10
140
1.0
141
10.0
290
     0
  0
SCALE
  5
2F0
102
{ACAD_REACTORS
330
2E9
102
}
330
2E9
100
AcDbScale
 70
     0
300
1:16
140
1.0
141
16.0
290
     0
  0
SCALE
  5
2F1
102
{ACAD_REACTORS
330
2E9
102
}
330
2E9
100
AcDbScale
 70
     0
300
1:20
140
1.0
141
20.0
290
     0
  0
SCALE
  5
2F2
102
{ACAD_REACTORS
330
2E9
102
}
330
2E9
100
AcDbScale
 70
     0
300
1:30
140
1.0
141
30.0
290
     0
  0
SCALE
  5
2F3
102
{ACAD_REACTORS
330
2E9
102
}
330
2E9
100
AcDbScale
 70
     0
300
1:40
140
1.0
141
40.0
290
     0
  0
SCALE
  5
2F4
102
{ACAD_REACTORS
330
2E9
102
}
330
2E9
100
AcDbScale
 70
     0
300
1:50
140
1.0
141
50.0
290
     0
  0
SCALE
  5
2F5
102
{ACAD_REACTORS
330
2E9
102
}
330
2E9
100
AcDbScale
 70
     0
300
1:100
140
1.0
141
100.0
290
     0
  0
SCALE
  5
2F6
102
{ACAD_REACTORS
330
2E9
102
}
330
2E9
100
AcDbScale
 70
     0
300
2:1
140
2.0
141
1.0
290
     0
  0
SCALE
  5
2F7
102
{ACAD_REACTORS
330
2E9
102
}
330
2E9
100
AcDbScale
 70
     0
300
4:1
140
4.0
141
1.0
290
     0
  0
SCALE
  5
2F8
102
{ACAD_REACTORS
330
2E9
102
}
330
2E9
100
AcDbScale
 70
     0
300
8:1
140
8.0
141
1.0
290
     0
  0
SCALE
  5
2F9
102
{ACAD_REACTORS
330
2E9
102
}
330
2E9
100
AcDbScale
 70
     0
300
10:1
140
10.0
141
1.0
290
     0
  0
SCALE
  5
2FA
102
{ACAD_REACTORS
330
2E9
102
}
330
2E9
100
AcDbScale
 70
     0
300
100:1
140
100.0
141
1.0
290
     0
  0
SCALE
  5
2FB
102
{ACAD_REACTORS
330
2E9
102
}
330
2E9
100
AcDbScale
 70
     0
300
1/128" = 1'-0"
140
0.0078125
141
12.0
290
     0
  0
SCALE
  5
2FC
102
{ACAD_REACTORS
330
2E9
102
}
330
2E9
100
AcDbScale
 70
     0
300
1/64" = 1'-0"
140
0.015625
141
12.0
290
     0
  0
SCALE
  5
2FD
102
{ACAD_REACTORS
330
2E9
102
}
330
2E9
100
AcDbScale
 70
     0
300
1/32" = 1'-0"
140
0.03125
141
12.0
290
     0
  0
SCALE
  5
2FE
102
{ACAD_REACTORS
330
2E9
102
}
330
2E9
100
AcDbScale
 70
     0
300
1/16" = 1'-0"
140
0.0625
141
12.0
290
     0
  0
SCALE
  5
2FF
102
{ACAD_REACTORS
330
2E9
102
}
330
2E9
100
AcDbScale
 70
     0
300
3/32" = 1'-0"
140
0.09375
141
12.0
290
     0
  0
SCALE
  5
300
102
{ACAD_REACTORS
330
2E9
102
}
330
2E9
100
AcDbScale
 70
     0
300
1/8" = 1'-0"
140
0.125
141
12.0
290
     0
  0
SCALE
  5
301
102
{ACAD_REACTORS
330
2E9
102
}
330
2E9
100
AcDbScale
 70
     0
300
3/16" = 1'-0"
140
0.1875
141
12.0
290
     0
  0
SCALE
  5
302
102
{ACAD_REACTORS
330
2E9
102
}
330
2E9
100
AcDbScale
 70
     0
300
1/4" = 1'-0"
140
0.25
141
12.0
290
     0
  0
SCALE
  5
303
102
{ACAD_REACTORS
330
2E9
102
}
330
2E9
100
AcDbScale
 70
     0
300
3/8" = 1'-0"
140
0.375
141
12.0
290
     0
  0
SCALE
  5
304
102
{ACAD_REACTORS
330
2E9
102
}
330
2E9
100
AcDbScale
 70
     0
300
1/2" = 1'-0"
140
0.5
141
12.0
290
     0
  0
SCALE
  5
305
102
{ACAD_REACTORS
330
2E9
102
}
330
2E9
100
AcDbScale
 70
     0
300
3/4" = 1'-0"
140
0.75
141
12.0
290
     0
  0
SCALE
  5
306
102
{ACAD_REACTORS
330
2E9
102
}
330
2E9
100
AcDbScale
 70
     0
300
1" = 1'-0"
140
1.0
141
12.0
290
     0
  0
SCALE
  5
307
102
{ACAD_REACTORS
330
2E9
102
}
330
2E9
100
AcDbScale
 70
     0
300
1-1/2" = 1'-0"
140
1.5
141
12.0
290
     0
  0
SCALE
  5
308
102
{ACAD_REACTORS
330
2E9
102
}
330
2E9
100
AcDbScale
 70
     0
300
3" = 1'-0"
140
3.0
141
12.0
290
     0
  0
SCALE
  5
309
102
{ACAD_REACTORS
330
2E9
102
}
330
2E9
100
AcDbScale
 70
     0
300
6" = 1'-0"
140
6.0
141
12.0
290
     0
  0
SCALE
  5
30A
102
{ACAD_REACTORS
330
2E9
102
}
330
2E9
100
AcDbScale
 70
     0
300
1'-0" = 1'-0"
140
12.0
141
12.0
290
     0
  0
TABLESTYLE
  5
2E7
102
{ACAD_REACTORS
330
2E4
330
2E3
102
}
102
{ACAD_XDICTIONARY
360
32F
102
}
330
2E4
100
AcDbTableStyle
  3
Standard
 70
     0
 71
     0
 40
0.06
 41
0.06
280
     1
281
     1
  7
STANDARD
140
0.18
170
     1
 62
     0
 63
   257
283
     0
 90
        4
 91
        0
  1

274
    -2
284
     1
 64
     0
275
    -2
285
     1
 65
     0
276
    -2
286
     1
 66
     0
277
    -2
287
     1
 67
     0
278
    -2
288
     1
 68
     0
279
    -2
289
     1
 69
     0
  7
STANDARD
140
0.18
170
     1
 62
     0
 63
   257
283
     0
 90
        4
 91
        0
  1

274
    -2
284
     1
 64
     0
275
    -2
285
     1
 65
     0
276
    -2
286
     1
 66
     0
277
    -2
287
     1
 67
     0
278
    -2
288
     1
 68
     0
279
    -2
289
     1
 69
     0
  7
STANDARD
140
0.18
170
     1
 62
     0
 63
   257
283
     0
 90
        4
 91
        0
  1

274
    -2
284
     1
 64
     0
275
    -2
285
     1
 65
     0
276
    -2
286
     1
 66
     0
277
    -2
287
     1
 67
     0
278
    -2
288
     1
 68
     0
279
    -2
289
     1
 69
     0
  0
TABLESTYLE
  5
2E8
102
{ACAD_REACTORS
330
2E4
102
}
102
{ACAD_XDICTIONARY
360
331
102
}
330
2E4
100
AcDbTableStyle
  3
Standard1
 70
     1
 71
     0
 40
0.06
 41
0.06
280
     1
281
     1
  7
STANDARD
140
0.18
170
     1
 62
     0
 63
   257
283
     0
 90
        4
 91
        0
  1

274
    -2
284
     1
 64
     0
275
    -2
285
     1
 65
     0
276
    -2
286
     1
 66
     0
277
    -2
287
     1
 67
     0
278
    -2
288
     1
 68
     0
279
    -2
289
     1
 69
     0
  7
STANDARD
140
0.18
170
     1
 62
     0
 63
   257
283
     0
 90
        4
 91
        0
  1

274
    -2
284
     1
 64
     0
275
    -2
285
     1
 65
     0
276
    -2
286
     1
 66
     0
277
    -2
287
     1
 67
     0
278
    -2
288
     1
 68
     0
279
    -2
289
     1
 69
     0
  7
STANDARD
140
0.18
170
     1
 62
     0
 63
   257
283
     0
 90
        4
 91
        0
  1

274
    -2
284
     1
 64
     0
275
    -2
285
     1
 65
     0
276
    -2
286
     1
 66
     0
277
    -2
287
     1
 67
     0
278
    -2
288
     1
 68
     0
279
    -2
289
     1
 69
     0
  0
VISUALSTYLE
  5
310
102
{ACAD_REACTORS
330
30B
102
}
330
30B
100
AcDbVisualStyle
  2
2dWireframe
 70
     4
177
     3
291
     0
 70
    58
 90
        0
176
     1
 90
        2
176
     1
 90
        0
176
     1
 90
        0
176
     1
 40
0.6
176
     1
 40
30.0
176
     1
 62
     7
420
 16777215
176
     1
 90
        1
176
     1
 90
        4
176
     1
 62
     7
176
     1
 62
   257
176
     1
 90
        1
176
     1
 90
        1
176
     1
 40
1.0
176
     1
 90
        0
176
     1
 62
   257
176
     1
 40
1.0
176
     1
 90
        1
176
     1
 90
        6
176
     1
 90
        2
176
     1
 62
     7
176
     1
 90
        5
176
     1
 90
        0
176
     1
 90
        0
176
     1
290
     0
176
     1
 90
        1
176
     1
 40
0.0
176
     1
 90
        0
176
     1
290
     1
176
     1
290
     1
176
     1
290
     0
176
     1
290
     0
176
     1
290
     0
176
     1
290
     0
176
     1
290
     0
176
     1
290
     0
176
     1
290
     0
176
     1
 90
       50
176
     1
 40
0.0
176
     1
 40
1.0
176
     1
 90
        0
176
     1
 62
    18
420
        0
176
     1
 90
       50
176
     1
 90
        3
176
     1
 62
     5
420
      255
176
     1
290
     0
176
     1
 90
       50
176
     1
 90
       50
176
     1
 90
       50
176
     1
290
     0
176
     1
 90
       50
176
     1
 62
   256
176
     0
 40
1.0
176
     0
 90
        2
176
     1
  1
strokes_ogs.tif
176
     1
290
     0
176
     1
 40
1.0
176
     1
 40
1.0
176
     1
  0
VISUALSTYLE
  5
313
102
{ACAD_REACTORS
330
30B
102
}
330
30B
100
AcDbVisualStyle
  2
Basic
 70
     7
177
     3
291
     1
 70
    58
 90
        1
176
     1
 90
        0
176
     1
 90
        1
176
     1
 90
        0
176
     1
 40
0.6
176
     1
 40
30.0
176
     1
 62
     7
420
 16777215
176
     1
 90
        0
176
     1
 90
        4
176
     1
 62
     7
176
     1
 62
   257
176
     1
 90
        1
176
     1
 90
        1
176
     1
 40
1.0
176
     1
 90
        8
176
     1
 62
     7
176
     1
 40
1.0
176
     1
 90
        1
176
     1
 90
        6
176
     1
 90
        2
176
     1
 62
     7
176
     1
 90
        5
176
     1
 90
        0
176
     1
 90
        0
176
     1
290
     0
176
     1
 90
        1
176
     1
 40
0.0
176
     1
 90
        0
176
     1
290
     0
176
     1
290
     1
176
     1
290
     1
176
     1
290
     0
176
     1
290
     0
176
     1
290
     0
176
     1
290
     0
176
     1
290
     0
176
     1
290
     0
176
     1
 90
       50
176
     1
 40
0.0
176
     1
 40
1.0
176
     1
 90
        0
176
     1
 62
    18
420
        0
176
     1
 90
       50
176
     1
 90
        3
176
     1
 62
     5
420
      255
176
     1
290
     0
176
     1
 90
       50
176
     1
 90
       50
176
     1
 90
       50
176
     1
290
     0
176
     1
 90
       50
176
     1
 62
   256
176
     0
 40
1.0
176
     0
 90
        2
176
     1
  1
strokes_ogs.tif
176
     1
290
     0
176
     1
 40
1.0
176
     1
 40
1.0
176
     1
  0
VISUALSTYLE
  5
317
102
{ACAD_REACTORS
330
30B
102
}
330
30B
100
AcDbVisualStyle
  2
Brighten
 70
    12
177
     3
291
     1
 70
    58
 90
        2
176
     1
 90
        2
176
     1
 90
        0
176
     1
 90
        0
176
     1
 40
0.6
176
     1
 40
30.0
176
     1
 62
     7
420
 16777215
176
     1
 90
        1
176
     1
 90
        4
176
     1
 62
     7
176
     1
 62
   257
176
     1
 90
        1
176
     1
 90
        1
176
     1
 40
1.0
176
     1
 90
        8
176
     1
 62
     7
176
     1
 40
1.0
176
     1
 90
        1
176
     1
 90
        6
176
     1
 90
        2
176
     1
 62
     7
176
     1
 90
        5
176
     1
 90
        0
176
     1
 90
        0
176
     1
290
     0
176
     1
 90
        1
176
     1
 40
50.0
176
     1
 90
        0
176
     1
290
     0
176
     1
290
     1
176
     1
290
     1
176
     1
290
     0
176
     1
290
     0
176
     1
290
     0
176
     1
290
     0
176
     1
290
     0
176
     1
290
     0
176
     1
 90
       50
176
     1
 40
0.0
176
     1
 40
1.0
176
     1
 90
        0
176
     1
 62
    18
420
        0
176
     1
 90
       50
176
     1
 90
        3
176
     1
 62
     5
420
      255
176
     1
290
     0
176
     1
 90
       50
176
     1
 90
       50
176
     1
 90
       50
176
     1
290
     0
176
     1
 90
       50
176
     1
 62
   256
176
     0
 40
1.0
176
     0
 90
        2
176
     1
  1
strokes_ogs.tif
176
     1
290
     0
176
     1
 40
1.0
176
     1
 40
1.0
176
     1
  0
VISUALSTYLE
  5
31B
102
{ACAD_REACTORS
330
30B
102
}
330
30B
100
AcDbVisualStyle
  2
ColorChange
 70
    16
177
     3
291
     1
 70
    58
 90
        2
176
     1
 90
        2
176
     1
 90
        3
176
     1
 90
        0
176
     1
 40
0.6
176
     1
 40
30.0
176
     1
 62
     8
420
  8421504
176
     1
 90
        1
176
     1
 90
        4
176
     1
 62
     7
176
     1
 62
   257
176
     1
 90
        1
176
     1
 90
        1
176
     1
 40
1.0
176
     1
 90
        8
176
     1
 62
     8
420
  8421504
176
     1
 40
1.0
176
     1
 90
        1
176
     1
 90
        6
176
     1
 90
        2
176
     1
 62
     7
176
     1
 90
        5
176
     1
 90
        0
176
     1
 90
        0
176
     1
290
     0
176
     1
 90
        1
176
     1
 40
0.0
176
     1
 90
        0
176
     1
290
     0
176
     1
290
     1
176
     1
290
     1
176
     1
290
     0
176
     1
290
     0
176
     1
290
     0
176
     1
290
     0
176
     1
290
     0
176
     1
290
     0
176
     1
 90
       50
176
     1
 40
0.0
176
     1
 40
1.0
176
     1
 90
        0
176
     1
 62
    18
420
        0
176
     1
 90
       50
176
     1
 90
        3
176
     1
 62
     5
420
      255
176
     1
290
     0
176
     1
 90
       50
176
     1
 90
       50
176
     1
 90
       50
176
     1
290
     0
176
     1
 90
       50
176
     1
 62
   256
176
     0
 40
1.0
176
     0
 90
        2
176
     1
  1
strokes_ogs.tif
176
     1
290
     0
176
     1
 40
1.0
176
     1
 40
1.0
176
     1
  0
VISUALSTYLE
  5
315
102
{ACAD_REACTORS
330
30B
102
}
330
30B
100
AcDbVisualStyle
  2
Conceptual
 70
     9
177
     3
291
     0
 70
    58
 90
        3
176
     1
 90
        2
176
     1
 90
        0
176
     1
 90
        0
176
     1
 40
0.6
176
     1
 40
30.0
176
     1
 62
     7
420
 16777215
176
     1
 90
        2
176
     1
 90
        2
176
     1
 62
     7
176
     1
 62
   257
176
     1
 90
        1
176
     1
 90
        1
176
     1
 40
179.0
176
     1
 90
        8
176
     1
 62
     7
176
     1
 40
1.0
176
     1
 90
        1
176
     1
 90
        6
176
     1
 90
        2
176
     1
 62
     7
176
     1
 90
        3
176
     1
 90
        0
176
     1
 90
        0
176
     1
290
     0
176
     1
 90
        1
176
     1
 40
0.0
176
     1
 90
        0
176
     1
290
     0
176
     1
290
     1
176
     1
290
     1
176
     1
290
     0
176
     1
290
     0
176
     1
290
     0
176
     1
290
     0
176
     1
290
     0
176
     1
290
     0
176
     1
 90
       50
176
     1
 40
0.0
176
     1
 40
1.0
176
     1
 90
        0
176
     1
 62
    18
420
        0
176
     1
 90
       50
176
     1
 90
        3
176
     1
 62
     5
420
      255
176
     1
290
     0
176
     1
 90
       50
176
     1
 90
       50
176
     1
 90
       50
176
     1
290
     0
176
     1
 90
       50
176
     1
 62
   256
176
     0
 40
1.0
176
     0
 90
        2
176
     1
  1
strokes_ogs.tif
176
     1
290
     0
176
     1
 40
1.0
176
     1
 40
1.0
176
     1
  0
VISUALSTYLE
  5
316
102
{ACAD_REACTORS
330
30B
102
}
330
30B
100
AcDbVisualStyle
  2
Dim
 70
    11
177
     3
291
     1
 70
    58
 90
        2
176
     1
 90
        2
176
     1
 90
        0
176
     1
 90
        0
176
     1
 40
0.6
176
     1
 40
30.0
176
     1
 62
     7
420
 16777215
176
     1
 90
        1
176
     1
 90
        4
176
     1
 62
     7
176
     1
 62
   257
176
     1
 90
        1
176
     1
 90
        1
176
     1
 40
1.0
176
     1
 90
        8
176
     1
 62
     7
176
     1
 40
1.0
176
     1
 90
        1
176
     1
 90
        6
176
     1
 90
        2
176
     1
 62
     7
176
     1
 90
        5
176
     1
 90
        0
176
     1
 90
        0
176
     1
290
     0
176
     1
 90
        1
176
     1
 40
-50.0
176
     1
 90
        0
176
     1
290
     0
176
     1
290
     1
176
     1
290
     1
176
     1
290
     0
176
     1
290
     0
176
     1
290
     0
176
     1
290
     0
176
     1
290
     0
176
     1
290
     0
176
     1
 90
       50
176
     1
 40
0.0
176
     1
 40
1.0
176
     1
 90
        0
176
     1
 62
    18
420
        0
176
     1
 90
       50
176
     1
 90
        3
176
     1
 62
     5
420
      255
176
     1
290
     0
176
     1
 90
       50
176
     1
 90
       50
176
     1
 90
       50
176
     1
290
     0
176
     1
 90
       50
176
     1
 62
   256
176
     0
 40
1.0
176
     0
 90
        2
176
     1
  1
strokes_ogs.tif
176
     1
290
     0
176
     1
 40
1.0
176
     1
 40
1.0
176
     1
  0
VISUALSTYLE
  5
31E
102
{ACAD_REACTORS
330
30B
102
}
330
30B
100
AcDbVisualStyle
  2
EdgeColorOff
 70
    22
177
     3
291
     1
 70
    58
 90
        2
176
     0
 90
        2
176
     0
 90
        0
176
     0
 90
        0
176
     0
 40
0.6
176
     0
 40
30.0
176
     0
 62
     7
420
 16777215
176
     0
 90
        1
176
     0
 90
        4
176
     0
 62
     7
176
     0
 62
   257
176
     0
 90
        1
176
     0
 90
        1
176
     0
 40
1.0
176
     0
 90
        8
176
     2
 62
     7
176
     0
 40
1.0
176
     0
 90
        1
176
     0
 90
        6
176
     0
 90
        2
176
     0
 62
     7
176
     0
 90
        5
176
     0
 90
        0
176
     0
 90
        0
176
     0
290
     0
176
     0
 90
        1
176
     0
 40
0.0
176
     0
 90
        0
176
     0
290
     0
176
     0
290
     1
176
     0
290
     1
176
     0
290
     0
176
     0
290
     0
176
     0
290
     0
176
     0
290
     0
176
     0
290
     0
176
     0
290
     0
176
     0
 90
       50
176
     0
 40
0.0
176
     0
 40
1.0
176
     0
 90
        0
176
     0
 62
    18
420
        0
176
     0
 90
       50
176
     0
 90
        3
176
     0
 62
     5
420
      255
176
     0
290
     0
176
     0
 90
       50
176
     0
 90
       50
176
     0
 90
       50
176
     0
290
     0
176
     0
 90
       50
176
     0
 62
   256
176
     0
 40
1.0
176
     0
 90
        2
176
     0
  1
strokes_ogs.tif
176
     0
290
     0
176
     0
 40
1.0
176
     0
 40
1.0
176
     0
  0
VISUALSTYLE
  5
31A
102
{ACAD_REACTORS
330
30B
102
}
330
30B
100
AcDbVisualStyle
  2
Facepattern
 70
    15
177
     3
291
     1
 70
    58
 90
        2
176
     1
 90
        2
176
     1
 90
        0
176
     1
 90
        0
176
     1
 40
0.6
176
     1
 40
30.0
176
     1
 62
     7
420
 16777215
176
     1
 90
        1
176
     1
 90
        4
176
     1
 62
     7
176
     1
 62
   257
176
     1
 90
        1
176
     1
 90
        1
176
     1
 40
1.0
176
     1
 90
        8
176
     1
 62
     7
176
     1
 40
1.0
176
     1
 90
        1
176
     1
 90
        6
176
     1
 90
        2
176
     1
 62
     7
176
     1
 90
        5
176
     1
 90
        0
176
     1
 90
        0
176
     1
290
     0
176
     1
 90
        1
176
     1
 40
0.0
176
     1
 90
        0
176
     1
290
     0
176
     1
290
     1
176
     1
290
     1
176
     1
290
     0
176
     1
290
     0
176
     1
290
     0
176
     1
290
     0
176
     1
290
     0
176
     1
290
     0
176
     1
 90
       50
176
     1
 40
0.0
176
     1
 40
1.0
176
     1
 90
        0
176
     1
 62
    18
420
        0
176
     1
 90
       50
176
     1
 90
        3
176
     1
 62
     5
420
      255
176
     1
290
     0
176
     1
 90
       50
176
     1
 90
       50
176
     1
 90
       50
176
     1
290
     0
176
     1
 90
       50
176
     1
 62
   256
176
     0
 40
1.0
176
     0
 90
        2
176
     1
  1
strokes_ogs.tif
176
     1
290
     0
176
     1
 40
1.0
176
     1
 40
1.0
176
     1
  0
VISUALSTYLE
  5
30C
102
{ACAD_REACTORS
330
30B
102
}
330
30B
100
AcDbVisualStyle
  2
Flat
 70
     0
177
     3
291
     1
 70
    58
 90
        2
176
     1
 90
        1
176
     1
 90
        1
176
     1
 90
        2
176
     1
 40
0.6
176
     1
 40
30.0
176
     1
 62
     7
420
 16777215
176
     1
 90
        0
176
     1
 90
        0
176
     1
 62
     7
176
     1
 62
   257
176
     1
 90
        1
176
     1
 90
        1
176
     1
 40
1.0
176
     1
 90
        8
176
     1
 62
     7
176
     1
 40
1.0
176
     1
 90
        1
176
     1
 90
        6
176
     1
 90
        2
176
     1
 62
     7
176
     1
 90
        5
176
     1
 90
        0
176
     1
 90
        0
176
     1
290
     0
176
     1
 90
       13
176
     1
 40
0.0
176
     1
 90
        0
176
     1
290
     0
176
     1
290
     1
176
     1
290
     1
176
     1
290
     0
176
     1
290
     0
176
     1
290
     0
176
     1
290
     0
176
     1
290
     0
176
     1
290
     0
176
     1
 90
       50
176
     1
 40
0.0
176
     1
 40
1.0
176
     1
 90
        0
176
     1
 62
    18
420
        0
176
     1
 90
       50
176
     1
 90
        3
176
     1
 62
     5
420
      255
176
     1
290
     0
176
     1
 90
       50
176
     1
 90
       50
176
     1
 90
       50
176
     1
290
     0
176
     1
 90
       50
176
     1
 62
   256
176
     0
 40
1.0
176
     0
 90
        2
176
     1
  1
strokes_ogs.tif
176
     1
290
     0
176
     1
 40
1.0
176
     1
 40
1.0
176
     1
  0
VISUALSTYLE
  5
30D
102
{ACAD_REACTORS
330
30B
102
}
330
30B
100
AcDbVisualStyle
  2
FlatWithEdges
 70
     1
177
     3
291
     1
 70
    58
 90
        2
176
     1
 90
        1
176
     1
 90
        1
176
     1
 90
        2
176
     1
 40
0.6
176
     1
 40
30.0
176
     1
 62
     7
420
 16777215
176
     1
 90
        1
176
     1
 90
        0
176
     1
 62
     7
176
     1
 62
   257
176
     1
 90
        1
176
     1
 90
        1
176
     1
 40
1.0
176
     1
 90
        0
176
     1
 62
   257
176
     1
 40
1.0
176
     1
 90
        1
176
     1
 90
        6
176
     1
 90
        2
176
     1
 62
     7
176
     1
 90
        5
176
     1
 90
        0
176
     1
 90
        0
176
     1
290
     0
176
     1
 90
       13
176
     1
 40
0.0
176
     1
 90
        0
176
     1
290
     0
176
     1
290
     1
176
     1
290
     1
176
     1
290
     0
176
     1
290
     0
176
     1
290
     0
176
     1
290
     0
176
     1
290
     0
176
     1
290
     0
176
     1
 90
       50
176
     1
 40
0.0
176
     1
 40
1.0
176
     1
 90
        0
176
     1
 62
    18
420
        0
176
     1
 90
       50
176
     1
 90
        3
176
     1
 62
     5
420
      255
176
     1
290
     0
176
     1
 90
       50
176
     1
 90
       50
176
     1
 90
       50
176
     1
290
     0
176
     1
 90
       50
176
     1
 62
   256
176
     0
 40
1.0
176
     0
 90
        2
176
     1
  1
strokes_ogs.tif
176
     1
290
     0
176
     1
 40
1.0
176
     1
 40
1.0
176
     1
  0
VISUALSTYLE
  5
30E
102
{ACAD_REACTORS
330
30B
102
}
330
30B
100
AcDbVisualStyle
  2
Gouraud
 70
     2
177
     3
291
     1
 70
    58
 90
        2
176
     1
 90
        2
176
     1
 90
        1
176
     1
 90
        2
176
     1
 40
0.6
176
     1
 40
30.0
176
     1
 62
     7
420
 16777215
176
     1
 90
        0
176
     1
 90
        0
176
     1
 62
     7
176
     1
 62
   257
176
     1
 90
        1
176
     1
 90
        1
176
     1
 40
1.0
176
     1
 90
        0
176
     1
 62
     7
176
     1
 40
1.0
176
     1
 90
        1
176
     1
 90
        6
176
     1
 90
        2
176
     1
 62
     7
176
     1
 90
        5
176
     1
 90
        0
176
     1
 90
        0
176
     1
290
     0
176
     1
 90
       13
176
     1
 40
0.0
176
     1
 90
        0
176
     1
290
     0
176
     1
290
     1
176
     1
290
     1
176
     1
290
     0
176
     1
290
     0
176
     1
290
     0
176
     1
290
     0
176
     1
290
     0
176
     1
290
     0
176
     1
 90
       50
176
     1
 40
0.0
176
     1
 40
1.0
176
     1
 90
        0
176
     1
 62
    18
420
        0
176
     1
 90
       50
176
     1
 90
        3
176
     1
 62
     5
420
      255
176
     1
290
     0
176
     1
 90
       50
176
     1
 90
       50
176
     1
 90
       50
176
     1
290
     0
176
     1
 90
       50
176
     1
 62
   256
176
     0
 40
1.0
176
     0
 90
        2
176
     1
  1
strokes_ogs.tif
176
     1
290
     0
176
     1
 40
1.0
176
     1
 40
1.0
176
     1
  0
VISUALSTYLE
  5
30F
102
{ACAD_REACTORS
330
30B
102
}
330
30B
100
AcDbVisualStyle
  2
GouraudWithEdges
 70
     3
177
     3
291
     1
 70
    58
 90
        2
176
     1
 90
        2
176
     1
 90
        1
176
     1
 90
        2
176
     1
 40
0.6
176
     1
 40
30.0
176
     1
 62
     7
420
 16777215
176
     1
 90
        1
176
     1
 90
        0
176
     1
 62
     7
176
     1
 62
   257
176
     1
 90
        1
176
     1
 90
        1
176
     1
 40
1.0
176
     1
 90
        0
176
     1
 62
   257
176
     1
 40
1.0
176
     1
 90
        1
176
     1
 90
        6
176
     1
 90
        2
176
     1
 62
     7
176
     1
 90
        5
176
     1
 90
        0
176
     1
 90
        0
176
     1
290
     0
176
     1
 90
       13
176
     1
 40
0.0
176
     1
 90
        0
176
     1
290
     0
176
     1
290
     1
176
     1
290
     1
176
     1
290
     0
176
     1
290
     0
176
     1
290
     0
176
     1
290
     0
176
     1
290
     0
176
     1
290
     0
176
     1
 90
       50
176
     1
 40
0.0
176
     1
 40
1.0
176
     1
 90
        0
176
     1
 62
    18
420
        0
176
     1
 90
       50
176
     1
 90
        3
176
     1
 62
     5
420
      255
176
     1
290
     0
176
     1
 90
       50
176
     1
 90
       50
176
     1
 90
       50
176
     1
290
     0
176
     1
 90
       50
176
     1
 62
   256
176
     0
 40
1.0
176
     0
 90
        2
176
     1
  1
strokes_ogs.tif
176
     1
290
     0
176
     1
 40
1.0
176
     1
 40
1.0
176
     1
  0
VISUALSTYLE
  5
312
102
{ACAD_REACTORS
330
30B
102
}
330
30B
100
AcDbVisualStyle
  2
Hidden
 70
     6
177
     3
291
     0
 70
    58
 90
        1
176
     1
 90
        2
176
     1
 90
        2
176
     1
 90
        0
176
     1
 40
0.6
176
     1
 40
30.0
176
     1
 62
     7
420
 16777215
176
     1
 90
        2
176
     1
 90
        2
176
     1
 62
     7
176
     1
 62
   257
176
     1
 90
        2
176
     1
 90
        1
176
     1
 40
40.0
176
     1
 90
        0
176
     1
 62
   257
176
     1
 40
1.0
176
     1
 90
        1
176
     1
 90
        6
176
     1
 90
        2
176
     1
 62
     7
176
     1
 90
        3
176
     1
 90
        0
176
     1
 90
        0
176
     1
290
     0
176
     1
 90
        1
176
     1
 40
0.0
176
     1
 90
        0
176
     1
290
     0
176
     1
290
     1
176
     1
290
     1
176
     1
290
     0
176
     1
290
     0
176
     1
290
     0
176
     1
290
     0
176
     1
290
     0
176
     1
290
     0
176
     1
 90
       50
176
     1
 40
0.0
176
     1
 40
1.0
176
     1
 90
        0
176
     1
 62
    18
420
        0
176
     1
 90
       50
176
     1
 90
        3
176
     1
 62
     5
420
      255
176
     1
290
     0
176
     1
 90
       50
176
     1
 90
       50
176
     1
 90
       50
176
     1
290
     0
176
     1
 90
       50
176
     1
 62
   256
176
     0
 40
1.0
176
     0
 90
        2
176
     1
  1
strokes_ogs.tif
176
     1
290
     0
176
     1
 40
1.0
176
     1
 40
1.0
176
     1
  0
VISUALSTYLE
  5
31C
102
{ACAD_REACTORS
330
30B
102
}
330
30B
100
AcDbVisualStyle
  2
JitterOff
 70
    20
177
     3
291
     1
 70
    58
 90
        2
176
     0
 90
        2
176
     0
 90
        0
176
     0
 90
        0
176
     0
 40
0.6
176
     0
 40
30.0
176
     0
 62
     7
420
 16777215
176
     0
 90
        1
176
     0
 90
        4
176
     0
 62
     7
176
     0
 62
   257
176
     0
 90
        1
176
     0
 90
        1
176
     0
 40
1.0
176
     0
 90
       10
176
     2
 62
     7
176
     0
 40
1.0
176
     0
 90
        1
176
     0
 90
        6
176
     0
 90
        2
176
     0
 62
     7
176
     0
 90
        5
176
     0
 90
        0
176
     0
 90
        0
176
     0
290
     0
176
     0
 90
        1
176
     0
 40
0.0
176
     0
 90
        0
176
     0
290
     0
176
     0
290
     1
176
     0
290
     1
176
     0
290
     0
176
     0
290
     0
176
     0
290
     0
176
     0
290
     0
176
     0
290
     0
176
     0
290
     0
176
     0
 90
       50
176
     0
 40
0.0
176
     0
 40
1.0
176
     0
 90
        0
176
     0
 62
    18
420
        0
176
     0
 90
       50
176
     0
 90
        3
176
     0
 62
     5
420
      255
176
     0
290
     0
176
     0
 90
       50
176
     0
 90
       50
176
     0
 90
       50
176
     0
290
     0
176
     0
 90
       50
176
     0
 62
   256
176
     0
 40
1.0
176
     0
 90
        2
176
     0
  1
strokes_ogs.tif
176
     0
290
     0
176
     0
 40
1.0
176
     0
 40
1.0
176
     0
  0
VISUALSTYLE
  5
319
102
{ACAD_REACTORS
330
30B
102
}
330
30B
100
AcDbVisualStyle
  2
Linepattern
 70
    14
177
     3
291
     1
 70
    58
 90
        2
176
     1
 90
        2
176
     1
 90
        0
176
     1
 90
        0
176
     1
 40
0.6
176
     1
 40
30.0
176
     1
 62
     7
420
 16777215
176
     1
 90
        1
176
     1
 90
        4
176
     1
 62
     7
176
     1
 62
   257
176
     1
 90
        7
176
     1
 90
        7
176
     1
 40
1.0
176
     1
 90
        8
176
     1
 62
     7
176
     1
 40
1.0
176
     1
 90
        1
176
     1
 90
        6
176
     1
 90
        2
176
     1
 62
     7
176
     1
 90
        5
176
     1
 90
        0
176
     1
 90
        0
176
     1
290
     0
176
     1
 90
        1
176
     1
 40
0.0
176
     1
 90
        0
176
     1
290
     0
176
     1
290
     1
176
     1
290
     1
176
     1
290
     0
176
     1
290
     0
176
     1
290
     0
176
     1
290
     0
176
     1
290
     0
176
     1
290
     0
176
     1
 90
       50
176
     1
 40
0.0
176
     1
 40
1.0
176
     1
 90
        0
176
     1
 62
    18
420
        0
176
     1
 90
       50
176
     1
 90
        3
176
     1
 62
     5
420
      255
176
     1
290
     0
176
     1
 90
       50
176
     1
 90
       50
176
     1
 90
       50
176
     1
290
     0
176
     1
 90
       50
176
     1
 62
   256
176
     0
 40
1.0
176
     0
 90
        2
176
     1
  1
strokes_ogs.tif
176
     1
290
     0
176
     1
 40
1.0
176
     1
 40
1.0
176
     1
  0
VISUALSTYLE
  5
31D
102
{ACAD_REACTORS
330
30B
102
}
330
30B
100
AcDbVisualStyle
  2
OverhangOff
 70
    21
177
     3
291
     1
 70
    58
 90
        2
176
     0
 90
        2
176
     0
 90
        0
176
     0
 90
        0
176
     0
 40
0.6
176
     0
 40
30.0
176
     0
 62
     7
420
 16777215
176
     0
 90
        1
176
     0
 90
        4
176
     0
 62
     7
176
     0
 62
   257
176
     0
 90
        1
176
     0
 90
        1
176
     0
 40
1.0
176
     0
 90
        9
176
     2
 62
     7
176
     0
 40
1.0
176
     0
 90
        1
176
     0
 90
        6
176
     0
 90
        2
176
     0
 62
     7
176
     0
 90
        5
176
     0
 90
        0
176
     0
 90
        0
176
     0
290
     0
176
     0
 90
        1
176
     0
 40
0.0
176
     0
 90
        0
176
     0
290
     0
176
     0
290
     1
176
     0
290
     1
176
     0
290
     0
176
     0
290
     0
176
     0
290
     0
176
     0
290
     0
176
     0
290
     0
176
     0
290
     0
176
     0
 90
       50
176
     0
 40
0.0
176
     0
 40
1.0
176
     0
 90
        0
176
     0
 62
    18
420
        0
176
     0
 90
       50
176
     0
 90
        3
176
     0
 62
     5
420
      255
176
     0
290
     0
176
     0
 90
       50
176
     0
 90
       50
176
     0
 90
       50
176
     0
290
     0
176
     0
 90
       50
176
     0
 62
   256
176
     0
 40
1.0
176
     0
 90
        2
176
     0
  1
strokes_ogs.tif
176
     0
290
     0
176
     0
 40
1.0
176
     0
 40
1.0
176
     0
  0
VISUALSTYLE
  5
314
102
{ACAD_REACTORS
330
30B
102
}
330
30B
100
AcDbVisualStyle
  2
Realistic
 70
     8
177
     3
291
     0
 70
    58
 90
        2
176
     1
 90
        3
176
     1
 90
        0
176
     1
 90
        2
176
     1
 40
0.6
176
     1
 40
30.0
176
     1
 62
     7
420
 16777215
176
     1
 90
        0
176
     1
 90
        0
176
     1
 62
     7
176
     1
 62
   257
176
     1
 90
        1
176
     1
 90
        1
176
     1
 40
1.0
176
     1
 90
        8
176
     1
 62
   257
176
     1
 40
1.0
176
     1
 90
        1
176
     1
 90
        6
176
     1
 90
        2
176
     1
 62
     7
176
     1
 90
        3
176
     1
 90
        0
176
     1
 90
        0
176
     1
290
     0
176
     1
 90
       13
176
     1
 40
0.0
176
     1
 90
        0
176
     1
290
     0
176
     1
290
     1
176
     1
290
     1
176
     1
290
     0
176
     1
290
     0
176
     1
290
     0
176
     1
290
     0
176
     1
290
     0
176
     1
290
     0
176
     1
 90
       50
176
     1
 40
0.0
176
     1
 40
1.0
176
     1
 90
        0
176
     1
 62
    18
420
        0
176
     1
 90
       50
176
     1
 90
        3
176
     1
 62
     5
420
      255
176
     1
290
     0
176
     1
 90
       50
176
     1
 90
       50
176
     1
 90
       50
176
     1
290
     0
176
     1
 90
       50
176
     1
 62
   256
176
     0
 40
1.0
176
     0
 90
        2
176
     1
  1
strokes_ogs.tif
176
     1
290
     0
176
     1
 40
1.0
176
     1
 40
1.0
176
     1
  0
VISUALSTYLE
  5
323
102
{ACAD_REACTORS
330
30B
102
}
330
30B
100
AcDbVisualStyle
  2
Shaded
 70
    27
177
     3
291
     0
 70
    58
 90
        2
176
     1
 90
        2
176
     1
 90
        1
176
     1
 90
        2
176
     1
 40
0.6
176
     1
 40
30.0
176
     1
 62
     7
420
 16777215
176
     1
 90
        0
176
     1
 90
        4
176
     1
 62
     7
176
     1
 62
   257
176
     1
 90
        1
176
     1
 90
        1
176
     1
 40
1.0
176
     1
 90
        8
176
     1
 62
   257
176
     1
 40
1.0
176
     1
 90
        1
176
     1
 90
        6
176
     1
 90
        2
176
     1
 62
     8
420
  7895160
176
     1
 90
        3
176
     1
 90
        0
176
     1
 90
        0
176
     1
290
     0
176
     1
 90
        5
176
     1
 40
0.0
176
     1
 90
        0
176
     1
290
     0
176
     1
290
     1
176
     1
290
     1
176
     1
290
     0
176
     1
290
     0
176
     1
290
     0
176
     1
290
     0
176
     1
290
     0
176
     1
290
     0
176
     1
 90
       50
176
     1
 40
0.0
176
     1
 40
1.0
176
     1
 90
        0
176
     1
 62
    18
420
        0
176
     1
 90
       50
176
     1
 90
        3
176
     1
 62
     5
420
      255
176
     1
290
     0
176
     1
 90
       50
176
     1
 90
       50
176
     1
 90
       50
176
     1
290
     0
176
     1
 90
       50
176
     1
 62
   256
176
     0
 40
1.0
176
     0
 90
        2
176
     1
  1
strokes_ogs.tif
176
     1
290
     0
176
     1
 40
1.0
176
     1
 40
1.0
176
     1
  0
VISUALSTYLE
  5
322
102
{ACAD_REACTORS
330
30B
102
}
330
30B
100
AcDbVisualStyle
  2
Shaded with edges
 70
    26
177
     3
291
     0
 70
    58
 90
        2
176
     1
 90
        2
176
     1
 90
        1
176
     1
 90
        2
176
     1
 40
0.6
176
     1
 40
30.0
176
     1
 62
     7
420
 16777215
176
     1
 90
        1
176
     1
 90
       10
176
     1
 62
     7
176
     1
 62
   257
176
     1
 90
        2
176
     1
 90
        1
176
     1
 40
1.0
176
     1
 90
        8
176
     1
 62
   257
176
     1
 40
1.0
176
     1
 90
        1
176
     1
 90
        6
176
     1
 90
        2
176
     1
 62
     7
176
     1
 90
        3
176
     1
 90
        0
176
     1
 90
        0
176
     1
290
     0
176
     1
 90
        5
176
     1
 40
0.0
176
     1
 90
        0
176
     1
290
     0
176
     1
290
     1
176
     1
290
     1
176
     1
290
     0
176
     1
290
     0
176
     1
290
     0
176
     1
290
     0
176
     1
290
     0
176
     1
290
     0
176
     1
 90
       50
176
     1
 40
0.0
176
     1
 40
1.0
176
     1
 90
        0
176
     1
 62
    18
420
        0
176
     1
 90
       50
176
     1
 90
        3
176
     1
 62
     5
420
      255
176
     1
290
     0
176
     1
 90
       50
176
     1
 90
       50
176
     1
 90
       50
176
     1
290
     0
176
     1
 90
       50
176
     1
 62
   256
176
     0
 40
1.0
176
     0
 90
        2
176
     1
  1
strokes_ogs.tif
176
     1
290
     0
176
     1
 40
1.0
176
     1
 40
1.0
176
     1
  0
VISUALSTYLE
  5
31F
102
{ACAD_REACTORS
330
30B
102
}
330
30B
100
AcDbVisualStyle
  2
Shades of Gray
 70
    23
177
     3
291
     0
 70
    58
 90
        2
176
     1
 90
        2
176
     1
 90
        3
176
     1
 90
        0
176
     1
 40
0.6
176
     1
 40
30.0
176
     1
 62
     7
420
 16777215
176
     1
 90
        2
176
     1
 90
        2
176
     1
 62
     7
176
     1
 62
     7
176
     1
 90
        1
176
     1
 90
        1
176
     1
 40
40.0
176
     1
 90
        8
176
     1
 62
     7
176
     1
 40
1.0
176
     1
 90
        1
176
     1
 90
        6
176
     1
 90
        2
176
     1
 62
     7
176
     1
 90
        3
176
     1
 90
        0
176
     1
 90
        0
176
     1
290
     0
176
     1
 90
        1
176
     1
 40
0.0
176
     1
 90
        0
176
     1
290
     0
176
     1
290
     1
176
     1
290
     1
176
     1
290
     0
176
     1
290
     0
176
     1
290
     0
176
     1
290
     0
176
     1
290
     0
176
     1
290
     0
176
     1
 90
       50
176
     1
 40
0.0
176
     1
 40
1.0
176
     1
 90
        0
176
     1
 62
    18
420
        0
176
     1
 90
       50
176
     1
 90
        3
176
     1
 62
     5
420
      255
176
     1
290
     0
176
     1
 90
       50
176
     1
 90
       50
176
     1
 90
       50
176
     1
290
     0
176
     1
 90
       50
176
     1
 62
   256
176
     0
 40
1.0
176
     0
 90
        2
176
     1
  1
strokes_ogs.tif
176
     1
290
     0
176
     1
 40
1.0
176
     1
 40
1.0
176
     1
  0
VISUALSTYLE
  5
320
102
{ACAD_REACTORS
330
30B
102
}
330
30B
100
AcDbVisualStyle
  2
Sketchy
 70
    24
177
     3
291
     0
 70
    58
 90
        1
176
     1
 90
        2
176
     1
 90
        2
176
     1
 90
        0
176
     1
 40
0.6
176
     1
 40
30.0
176
     1
 62
     7
420
 16777215
176
     1
 90
        2
176
     1
 90
        2
176
     1
 62
     7
176
     1
 62
     7
176
     1
 90
        1
176
     1
 90
        1
176
     1
 40
40.0
176
     1
 90
       11
176
     1
 62
     7
176
     1
 40
1.0
176
     1
 90
        1
176
     1
 90
        6
176
     1
 90
        2
176
     1
 62
     7
176
     1
 90
        6
176
     1
 90
        0
176
     1
 90
        0
176
     1
290
     0
176
     1
 90
        1
176
     1
 40
0.0
176
     1
 90
        0
176
     1
290
     0
176
     1
290
     1
176
     1
290
     1
176
     1
290
     0
176
     1
290
     0
176
     1
290
     0
176
     1
290
     0
176
     1
290
     0
176
     1
290
     0
176
     1
 90
       50
176
     1
 40
0.0
176
     1
 40
1.0
176
     1
 90
        0
176
     1
 62
    18
420
        0
176
     1
 90
       50
176
     1
 90
        3
176
     1
 62
     5
420
      255
176
     1
290
     0
176
     1
 90
       50
176
     1
 90
       50
176
     1
 90
       50
176
     1
290
     0
176
     1
 90
       50
176
     1
 62
   256
176
     0
 40
1.0
176
     0
 90
        2
176
     1
  1
strokes_ogs.tif
176
     1
290
     0
176
     1
 40
1.0
176
     1
 40
1.0
176
     1
  0
VISUALSTYLE
  5
318
102
{ACAD_REACTORS
330
30B
102
}
330
30B
100
AcDbVisualStyle
  2
Thicken
 70
    13
177
     3
291
     1
 70
    58
 90
        2
176
     1
 90
        2
176
     1
 90
        0
176
     1
 90
        0
176
     1
 40
0.6
176
     1
 40
30.0
176
     1
 62
     7
420
 16777215
176
     1
 90
        1
176
     1
 90
        4
176
     1
 62
     7
176
     1
 62
   257
176
     1
 90
        1
176
     1
 90
        1
176
     1
 40
1.0
176
     1
 90
       12
176
     1
 62
     7
176
     1
 40
1.0
176
     1
 90
        1
176
     1
 90
        6
176
     1
 90
        2
176
     1
 62
     7
176
     1
 90
        5
176
     1
 90
        0
176
     1
 90
        0
176
     1
290
     0
176
     1
 90
        1
176
     1
 40
0.0
176
     1
 90
        0
176
     1
290
     0
176
     1
290
     1
176
     1
290
     1
176
     1
290
     0
176
     1
290
     0
176
     1
290
     0
176
     1
290
     0
176
     1
290
     0
176
     1
290
     0
176
     1
 90
       50
176
     1
 40
0.0
176
     1
 40
1.0
176
     1
 90
        0
176
     1
 62
    18
420
        0
176
     1
 90
       50
176
     1
 90
        3
176
     1
 62
     5
420
      255
176
     1
290
     0
176
     1
 90
       50
176
     1
 90
       50
176
     1
 90
       50
176
     1
290
     0
176
     1
 90
       50
176
     1
 62
   256
176
     0
 40
1.0
176
     0
 90
        2
176
     1
  1
strokes_ogs.tif
176
     1
290
     0
176
     1
 40
1.0
176
     1
 40
1.0
176
     1
  0
VISUALSTYLE
  5
311
102
{ACAD_REACTORS
330
30B
102
}
330
30B
100
AcDbVisualStyle
  2
Wireframe
 70
     5
177
     3
291
     0
 70
    58
 90
        0
176
     1
 90
        2
176
     1
 90
        0
176
     1
 90
        0
176
     1
 40
0.6
176
     1
 40
30.0
176
     1
 62
     7
420
 16777215
176
     1
 90
        1
176
     1
 90
        4
176
     1
 62
     7
176
     1
 62
   257
176
     1
 90
        1
176
     1
 90
        1
176
     1
 40
1.0
176
     1
 90
        0
176
     1
 62
   257
176
     1
 40
1.0
176
     1
 90
        1
176
     1
 90
        6
176
     1
 90
        2
176
     1
 62
     7
176
     1
 90
        3
176
     1
 90
        0
176
     1
 90
        0
176
     1
290
     0
176
     1
 90
        1
176
     1
 40
0.0
176
     1
 90
        0
176
     1
290
     0
176
     1
290
     1
176
     1
290
     1
176
     1
290
     0
176
     1
290
     0
176
     1
290
     0
176
     1
290
     0
176
     1
290
     0
176
     1
290
     0
176
     1
 90
       50
176
     1
 40
0.0
176
     1
 40
1.0
176
     1
 90
        0
176
     1
 62
    18
420
        0
176
     1
 90
       50
176
     1
 90
        3
176
     1
 62
     5
420
      255
176
     1
290
     0
176
     1
 90
       50
176
     1
 90
       50
176
     1
 90
       50
176
     1
290
     0
176
     1
 90
       50
176
     1
 62
   256
176
     0
 40
1.0
176
     0
 90
        2
176
     1
  1
strokes_ogs.tif
176
     1
290
     0
176
     1
 40
1.0
176
     1
 40
1.0
176
     1
  0
VISUALSTYLE
  5
321
102
{ACAD_REACTORS
330
30B
102
}
330
30B
100
AcDbVisualStyle
  2
X-Ray
 70
    25
177
     3
291
     0
 70
    58
 90
        2
176
     1
 90
        2
176
     1
 90
        1
176
     1
 90
        1
176
     1
 40
0.5
176
     1
 40
30.0
176
     1
 62
     7
420
 16777215
176
     1
 90
        1
176
     1
 90
        0
176
     1
 62
     7
176
     1
 62
   257
176
     1
 90
        1
176
     1
 90
        1
176
     1
 40
1.0
176
     1
 90
        8
176
     1
 62
     7
176
     1
 40
1.0
176
     1
 90
        1
176
     1
 90
        6
176
     1
 90
        2
176
     1
 62
     7
176
     1
 90
        3
176
     1
 90
        0
176
     1
 90
        0
176
     1
290
     0
176
     1
 90
       13
176
     1
 40
0.0
176
     1
 90
        0
176
     1
290
     0
176
     1
290
     1
176
     1
290
     1
176
     1
290
     0
176
     1
290
     0
176
     1
290
     0
176
     1
290
     0
176
     1
290
     0
176
     1
290
     0
176
     1
 90
       50
176
     1
 40
0.0
176
     1
 40
1.0
176
     1
 90
        0
176
     1
 62
    18
420
        0
176
     1
 90
       50
176
     1
 90
        3
176
     1
 62
     5
420
      255
176
     1
290
     0
176
     1
 90
       50
176
     1
 90
       50
176
     1
 90
       50
176
     1
290
     0
176
     1
 90
       50
176
     1
 62
   256
176
     0
 40
1.0
176
     0
 90
        2
176
     1
  1
strokes_ogs.tif
176
     1
290
     0
176
     1
 40
1.0
176
     1
 40
1.0
176
     1
  0
DICTIONARYVAR
  5
32E
102
{ACAD_REACTORS
330
32D
102
}
330
32D
100
DictionaryVariables
280
     0
  1
1:1
  0
DICTIONARYVAR
  5
335
102
{ACAD_REACTORS
330
32D
102
}
330
32D
100
DictionaryVariables
280
     0
  1
Standard
  0
DICTIONARYVAR
  5
334
102
{ACAD_REACTORS
330
32D
102
}
330
32D
100
DictionaryVariables
280
     0
  1
Standard
  0
DICTIONARY
  5
32F
330
2E7
100
AcDbDictionary
280
     1
281
     1
  3
ACAD_ROUNDTRIP_2008_TABLESTYLE_CELLSTYLEMAP
360
330
  0
DICTIONARY
  5
331
330
2E8
100
AcDbDictionary
280
     1
281
     1
  3
ACAD_ROUNDTRIP_2008_TABLESTYLE_CELLSTYLEMAP
360
332
  0
CELLSTYLEMAP
  5
330
102
{ACAD_REACTORS
330
32F
102
}
330
32F
100
AcDbCellStyleMap
 90
        3
300
CELLSTYLE
  1
TABLEFORMAT_BEGIN
 90
        5
170
     1
 91
        0
 92
    32768
 62
   257
 93
        1
300
CONTENTFORMAT
  1
CONTENTFORMAT_BEGIN
 90
        0
 91
        0
 92
        4
 93
        0
300

 40
0.0
140
1.0
 94
        1
 62
     0
340
11
144
0.18
309
CONTENTFORMAT_END
171
     1
301
MARGIN
  1
CELLMARGIN_BEGIN
 40
0.06
 40
0.06
 40
0.06
 40
0.06
 40
0.18
 40
0.18
309
CELLMARGIN_END
 94
        6
 95
        1
302
GRIDFORMAT
  1
GRIDFORMAT_BEGIN
 90
        0
 91
        1
 62
     0
 92
       -2
340
0
 93
        0
 40
0.045
309
GRIDFORMAT_END
 95
        2
302
GRIDFORMAT
  1
GRIDFORMAT_BEGIN
 90
        0
 91
        1
 62
     0
 92
       -2
340
0
 93
        0
 40
0.045
309
GRIDFORMAT_END
 95
        4
302
GRIDFORMAT
  1
GRIDFORMAT_BEGIN
 90
        0
 91
        1
 62
     0
 92
       -2
340
0
 93
        0
 40
0.045
309
GRIDFORMAT_END
 95
        8
302
GRIDFORMAT
  1
GRIDFORMAT_BEGIN
 90
        0
 91
        1
 62
     0
 92
       -2
340
0
 93
        0
 40
0.045
309
GRIDFORMAT_END
 95
       16
302
GRIDFORMAT
  1
GRIDFORMAT_BEGIN
 90
        0
 91
        1
 62
     0
 92
       -2
340
0
 93
        0
 40
0.045
309
GRIDFORMAT_END
 95
       32
302
GRIDFORMAT
  1
GRIDFORMAT_BEGIN
 90
        0
 91
        1
 62
     0
 92
       -2
340
0
 93
        0
 40
0.045
309
GRIDFORMAT_END
309
TABLEFORMAT_END
  1
CELLSTYLE_BEGIN
 90
        1
 91
        1
300
_TITLE
309
CELLSTYLE_END
300
CELLSTYLE
  1
TABLEFORMAT_BEGIN
 90
        5
170
     1
 91
        0
 92
        0
 62
   257
 93
        1
300
CONTENTFORMAT
  1
CONTENTFORMAT_BEGIN
 90
        0
 91
        0
 92
        4
 93
        0
300

 40
0.0
140
1.0
 94
        1
 62
     0
340
11
144
0.18
309
CONTENTFORMAT_END
171
     1
301
MARGIN
  1
CELLMARGIN_BEGIN
 40
0.06
 40
0.06
 40
0.06
 40
0.06
 40
0.18
 40
0.18
309
CELLMARGIN_END
 94
        6
 95
        1
302
GRIDFORMAT
  1
GRIDFORMAT_BEGIN
 90
        0
 91
        1
 62
     0
 92
       -2
340
0
 93
        0
 40
0.045
309
GRIDFORMAT_END
 95
        2
302
GRIDFORMAT
  1
GRIDFORMAT_BEGIN
 90
        0
 91
        1
 62
     0
 92
       -2
340
0
 93
        0
 40
0.045
309
GRIDFORMAT_END
 95
        4
302
GRIDFORMAT
  1
GRIDFORMAT_BEGIN
 90
        0
 91
        1
 62
     0
 92
       -2
340
0
 93
        0
 40
0.045
309
GRIDFORMAT_END
 95
        8
302
GRIDFORMAT
  1
GRIDFORMAT_BEGIN
 90
        0
 91
        1
 62
     0
 92
       -2
340
0
 93
        0
 40
0.045
309
GRIDFORMAT_END
 95
       16
302
GRIDFORMAT
  1
GRIDFORMAT_BEGIN
 90
        0
 91
        1
 62
     0
 92
       -2
340
0
 93
        0
 40
0.045
309
GRIDFORMAT_END
 95
       32
302
GRIDFORMAT
  1
GRIDFORMAT_BEGIN
 90
        0
 91
        1
 62
     0
 92
       -2
340
0
 93
        0
 40
0.045
309
GRIDFORMAT_END
309
TABLEFORMAT_END
  1
CELLSTYLE_BEGIN
 90
        2
 91
        1
300
_HEADER
309
CELLSTYLE_END
300
CELLSTYLE
  1
TABLEFORMAT_BEGIN
 90
        5
170
     1
 91
        0
 92
        0
 62
   257
 93
        1
300
CONTENTFORMAT
  1
CONTENTFORMAT_BEGIN
 90
        0
 91
        0
 92
        4
 93
        0
300

 40
0.0
140
1.0
 94
        1
 62
     0
340
11
144
0.18
309
CONTENTFORMAT_END
171
     1
301
MARGIN
  1
CELLMARGIN_BEGIN
 40
0.06
 40
0.06
 40
0.06
 40
0.06
 40
0.18
 40
0.18
309
CELLMARGIN_END
 94
        6
 95
        1
302
GRIDFORMAT
  1
GRIDFORMAT_BEGIN
 90
        0
 91
        1
 62
     0
 92
       -2
340
0
 93
        0
 40
0.045
309
GRIDFORMAT_END
 95
        2
302
GRIDFORMAT
  1
GRIDFORMAT_BEGIN
 90
        0
 91
        1
 62
     0
 92
       -2
340
0
 93
        0
 40
0.045
309
GRIDFORMAT_END
 95
        4
302
GRIDFORMAT
  1
GRIDFORMAT_BEGIN
 90
        0
 91
        1
 62
     0
 92
       -2
340
0
 93
        0
 40
0.045
309
GRIDFORMAT_END
 95
        8
302
GRIDFORMAT
  1
GRIDFORMAT_BEGIN
 90
        0
 91
        1
 62
     0
 92
       -2
340
0
 93
        0
 40
0.045
309
GRIDFORMAT_END
 95
       16
302
GRIDFORMAT
  1
GRIDFORMAT_BEGIN
 90
        0
 91
        1
 62
     0
 92
       -2
340
0
 93
        0
 40
0.045
309
GRIDFORMAT_END
 95
       32
302
GRIDFORMAT
  1
GRIDFORMAT_BEGIN
 90
        0
 91
        1
 62
     0
 92
       -2
340
0
 93
        0
 40
0.045
309
GRIDFORMAT_END
309
TABLEFORMAT_END
  1
CELLSTYLE_BEGIN
 90
        3
 91
        2
300
_DATA
309
CELLSTYLE_END
  0
CELLSTYLEMAP
  5
332
102
{ACAD_REACTORS
330
331
102
}
330
331
100
AcDbCellStyleMap
 90
        3
300
CELLSTYLE
  1
TABLEFORMAT_BEGIN
 90
        5
170
     1
 91
        0
 92
    32768
 62
   257
 93
        1
300
CONTENTFORMAT
  1
CONTENTFORMAT_BEGIN
 90
        0
 91
        0
 92
        4
 93
        0
300

 40
0.0
140
1.0
 94
        1
 62
     0
340
11
144
0.18
309
CONTENTFORMAT_END
171
     1
301
MARGIN
  1
CELLMARGIN_BEGIN
 40
0.06
 40
0.06
 40
0.06
 40
0.06
 40
0.18
 40
0.18
309
CELLMARGIN_END
 94
        6
 95
        1
302
GRIDFORMAT
  1
GRIDFORMAT_BEGIN
 90
        0
 91
        1
 62
     0
 92
       -2
340
0
 93
        0
 40
0.045
309
GRIDFORMAT_END
 95
        2
302
GRIDFORMAT
  1
GRIDFORMAT_BEGIN
 90
        0
 91
        1
 62
     0
 92
       -2
340
0
 93
        0
 40
0.045
309
GRIDFORMAT_END
 95
        4
302
GRIDFORMAT
  1
GRIDFORMAT_BEGIN
 90
        0
 91
        1
 62
     0
 92
       -2
340
0
 93
        0
 40
0.045
309
GRIDFORMAT_END
 95
        8
302
GRIDFORMAT
  1
GRIDFORMAT_BEGIN
 90
        0
 91
        1
 62
     0
 92
       -2
340
0
 93
        0
 40
0.045
309
GRIDFORMAT_END
 95
       16
302
GRIDFORMAT
  1
GRIDFORMAT_BEGIN
 90
        0
 91
        1
 62
     0
 92
       -2
340
0
 93
        0
 40
0.045
309
GRIDFORMAT_END
 95
       32
302
GRIDFORMAT
  1
GRIDFORMAT_BEGIN
 90
        0
 91
        1
 62
     0
 92
       -2
340
0
 93
        0
 40
0.045
309
GRIDFORMAT_END
309
TABLEFORMAT_END
  1
CELLSTYLE_BEGIN
 90
        1
 91
        1
300
_TITLE
309
CELLSTYLE_END
300
CELLSTYLE
  1
TABLEFORMAT_BEGIN
 90
        5
170
     1
 91
        0
 92
        0
 62
   257
 93
        1
300
CONTENTFORMAT
  1
CONTENTFORMAT_BEGIN
 90
        0
 91
        0
 92
        4
 93
        0
300

 40
0.0
140
1.0
 94
        1
 62
     0
340
11
144
0.18
309
CONTENTFORMAT_END
171
     1
301
MARGIN
  1
CELLMARGIN_BEGIN
 40
0.06
 40
0.06
 40
0.06
 40
0.06
 40
0.18
 40
0.18
309
CELLMARGIN_END
 94
        6
 95
        1
302
GRIDFORMAT
  1
GRIDFORMAT_BEGIN
 90
        0
 91
        1
 62
     0
 92
       -2
340
0
 93
        0
 40
0.045
309
GRIDFORMAT_END
 95
        2
302
GRIDFORMAT
  1
GRIDFORMAT_BEGIN
 90
        0
 91
        1
 62
     0
 92
       -2
340
0
 93
        0
 40
0.045
309
GRIDFORMAT_END
 95
        4
302
GRIDFORMAT
  1
GRIDFORMAT_BEGIN
 90
        0
 91
        1
 62
     0
 92
       -2
340
0
 93
        0
 40
0.045
309
GRIDFORMAT_END
 95
        8
302
GRIDFORMAT
  1
GRIDFORMAT_BEGIN
 90
        0
 91
        1
 62
     0
 92
       -2
340
0
 93
        0
 40
0.045
309
GRIDFORMAT_END
 95
       16
302
GRIDFORMAT
  1
GRIDFORMAT_BEGIN
 90
        0
 91
        1
 62
     0
 92
       -2
340
0
 93
        0
 40
0.045
309
GRIDFORMAT_END
 95
       32
302
GRIDFORMAT
  1
GRIDFORMAT_BEGIN
 90
        0
 91
        1
 62
     0
 92
       -2
340
0
 93
        0
 40
0.045
309
GRIDFORMAT_END
309
TABLEFORMAT_END
  1
CELLSTYLE_BEGIN
 90
        2
 91
        1
300
_HEADER
309
CELLSTYLE_END
300
CELLSTYLE
  1
TABLEFORMAT_BEGIN
 90
        5
170
     1
 91
        0
 92
        0
 62
   257
 93
        1
300
CONTENTFORMAT
  1
CONTENTFORMAT_BEGIN
 90
        0
 91
        0
 92
        4
 93
        0
300

 40
0.0
140
1.0
 94
        1
 62
     0
340
11
144
0.18
309
CONTENTFORMAT_END
171
     1
301
MARGIN
  1
CELLMARGIN_BEGIN
 40
0.06
 40
0.06
 40
0.06
 40
0.06
 40
0.18
 40
0.18
309
CELLMARGIN_END
 94
        6
 95
        1
302
GRIDFORMAT
  1
GRIDFORMAT_BEGIN
 90
        0
 91
        1
 62
     0
 92
       -2
340
0
 93
        0
 40
0.045
309
GRIDFORMAT_END
 95
        2
302
GRIDFORMAT
  1
GRIDFORMAT_BEGIN
 90
        0
 91
        1
 62
     0
 92
       -2
340
0
 93
        0
 40
0.045
309
GRIDFORMAT_END
 95
        4
302
GRIDFORMAT
  1
GRIDFORMAT_BEGIN
 90
        0
 91
        1
 62
     0
 92
       -2
340
0
 93
        0
 40
0.045
309
GRIDFORMAT_END
 95
        8
302
GRIDFORMAT
  1
GRIDFORMAT_BEGIN
 90
        0
 91
        1
 62
     0
 92
       -2
340
0
 93
        0
 40
0.045
309
GRIDFORMAT_END
 95
       16
302
GRIDFORMAT
  1
GRIDFORMAT_BEGIN
 90
        0
 91
        1
 62
     0
 92
       -2
340
0
 93
        0
 40
0.045
309
GRIDFORMAT_END
 95
       32
302
GRIDFORMAT
  1
GRIDFORMAT_BEGIN
 90
        0
 91
        1
 62
     0
 92
       -2
340
0
 93
        0
 40
0.045
309
GRIDFORMAT_END
309
TABLEFORMAT_END
  1
CELLSTYLE_BEGIN
 90
        3
 91
        2
300
_DATA
309
CELLSTYLE_END
  0
ENDSEC
  0
EOF
