  0
SECTION
  2
HEADER
  9
$ACADVER
  1
AC1027
  9
$ACADMAINTVER
 70
   105
  9
$DWGCODEPAGE
  3
ANSI_1252
  9
$REQUIREDVERSIONS
160
                 0
  9
$LASTSAVEDBY
  1
andrea.zolin
  9
$INSBASE
 10
0.0
 20
0.0
 30
0.0
  9
$EXTMIN
 10
0.0
 20
0.0
 30
0.0
  9
$EXTMAX
 10
420.0
 20
297.0
 30
0.0
  9
$LIMMIN
 10
0.0
 20
0.0
  9
$LIMMAX
 10
420.0
 20
297.0
  9
$ORTHOMODE
 70
     0
  9
$REGENMODE
 70
     1
  9
$FILLMODE
 70
     1
  9
$QTEXTMODE
 70
     0
  9
$MIRRTEXT
 70
     1
  9
$LTSCALE
 40
23.1
  9
$ATTMODE
 70
     1
  9
$TEXTSIZE
 40
0.2
  9
$TRACEWID
 40
0.05
  9
$TEXTSTYLE
  7
STANDARD
  9
$CLAYER
  8
0
  9
$CELTYPE
  6
BYLAYER
  9
$CECOLOR
 62
   256
  9
$CELTSCALE
 40
1.0
  9
$DISPSILH
 70
     0
  9
$DIMSCALE
 40
1.0
  9
$DIMASZ
 40
2.5
  9
$DIMEXO
 40
0.75
  9
$DIMDLI
 40
15.96
  9
$DIMRND
 40
0.0
  9
$DIMDLE
 40
0.0
  9
$DIMEXE
 40
0.75
  9
$DIMTP
 40
0.01
  9
$DIMTM
 40
0.01
  9
$DIMTXT
 40
3.0
  9
$DIMCEN
 40
3.78
  9
$DIMTSZ
 40
0.0
  9
$DIMTOL
 70
     1
  9
$DIMLIM
 70
     0
  9
$DIMTIH
 70
     1
  9
$DIMTOH
 70
     1
  9
$DIMSE1
 70
     0
  9
$DIMSE2
 70
     0
  9
$DIMTAD
 70
     0
  9
$DIMZIN
 70
     0
  9
$DIMBLK
  1
CLOSED
  9
$DIMASO
 70
     1
  9
$DIMSHO
 70
     1
  9
$DIMPOST
  1

  9
$DIMAPOST
  1

  9
$DIMALT
 70
     0
  9
$DIMALTD
 70
     2
  9
$DIMALTF
 40
25.4
  9
$DIMLFAC
 40
1.0
  9
$DIMTOFL
 70
     0
  9
$DIMTVP
 40
0.0
  9
$DIMTIX
 70
     0
  9
$DIMSOXD
 70
     0
  9
$DIMSAH
 70
     0
  9
$DIMBLK1
  1

  9
$DIMBLK2
  1

  9
$DIMSTYLE
  2
STANDARD
  9
$DIMCLRD
 70
     0
  9
$DIMCLRE
 70
     0
  9
$DIMCLRT
 70
     0
  9
$DIMTFAC
 40
1.0
  9
$DIMGAP
 40
0.625
  9
$DIMJUST
 70
     0
  9
$DIMSD1
 70
     0
  9
$DIMSD2
 70
     0
  9
$DIMTOLJ
 70
     1
  9
$DIMTZIN
 70
     0
  9
$DIMALTZ
 70
     0
  9
$DIMALTTZ
 70
     0
  9
$DIMUPT
 70
     0
  9
$DIMDEC
 70
     4
  9
$DIMTDEC
 70
     4
  9
$DIMALTU
 70
     2
  9
$DIMALTTD
 70
     2
  9
$DIMTXSTY
  7
STANDARD
  9
$DIMAUNIT
 70
     0
  9
$DIMADEC
 70
     0
  9
$DIMALTRND
 40
0.0
  9
$DIMAZIN
 70
     0
  9
$DIMDSEP
 70
    46
  9
$DIMATFIT
 70
     3
  9
$DIMFRAC
 70
     0
  9
$DIMLDRBLK
  1

  9
$DIMLUNIT
 70
     2
  9
$DIMLWD
 70
    -2
  9
$DIMLWE
 70
    -2
  9
$DIMTMOVE
 70
     2
  9
$DIMFXL
 40
1.0
  9
$DIMFXLON
 70
     0
  9
$DIMJOGANG
 40
0.7853981633974483
  9
$DIMTFILL
 70
     0
  9
$DIMTFILLCLR
 70
     0
  9
$DIMARCSYM
 70
     0
  9
$DIMLTYPE
  6

  9
$DIMLTEX1
  6

  9
$DIMLTEX2
  6

  9
$DIMTXTDIRECTION
 70
     0
  9
$LUNITS
 70
     2
  9
$LUPREC
 70
     4
  9
$SKETCHINC
 40
0.1
  9
$FILLETRAD
 40
0.5
  9
$AUNITS
 70
     0
  9
$AUPREC
 70
     0
  9
$MENU
  1
.
  9
$ELEVATION
 40
0.0
  9
$PELEVATION
 40
0.0
  9
$THICKNESS
 40
0.0
  9
$LIMCHECK
 70
     0
  9
$CHAMFERA
 40
0.0
  9
$CHAMFERB
 40
0.0
  9
$CHAMFERC
 40
0.0
  9
$CHAMFERD
 40
0.0
  9
$SKPOLY
 70
     0
  9
$TDCREATE
 40
2447893.041666667
  9
$TDUCREATE
 40
0.0
  9
$TDUPDATE
 40
2458466.649263842
  9
$TDUUPDATE
 40
2458466.607597176
  9
$TDINDWG
 40
0.0001751042
  9
$TDUSRTIMER
 40
0.0001751042
  9
$USRTIMER
 70
     1
  9
$ANGBASE
 50
0.0
  9
$ANGDIR
 70
     0
  9
$PDMODE
 70
     3
  9
$PDSIZE
 40
0.3125
  9
$PLINEWID
 40
0.0
  9
$SPLFRAME
 70
     0
  9
$SPLINETYPE
 70
     6
  9
$SPLINESEGS
 70
     8
  9
$HANDSEED
  5
4B1
  9
$SURFTAB1
 70
     6
  9
$SURFTAB2
 70
     6
  9
$SURFTYPE
 70
     6
  9
$SURFU
 70
     6
  9
$SURFV
 70
     6
  9
$UCSBASE
  2

  9
$UCSNAME
  2

  9
$UCSORG
 10
0.0
 20
0.0
 30
0.0
  9
$UCSXDIR
 10
1.0
 20
0.0
 30
0.0
  9
$UCSYDIR
 10
0.0
 20
1.0
 30
0.0
  9
$UCSORTHOREF
  2

  9
$UCSORTHOVIEW
 70
     0
  9
$UCSORGTOP
 10
0.0
 20
0.0
 30
0.0
  9
$UCSORGBOTTOM
 10
0.0
 20
0.0
 30
0.0
  9
$UCSORGLEFT
 10
0.0
 20
0.0
 30
0.0
  9
$UCSORGRIGHT
 10
0.0
 20
0.0
 30
0.0
  9
$UCSORGFRONT
 10
0.0
 20
0.0
 30
0.0
  9
$UCSORGBACK
 10
0.0
 20
0.0
 30
0.0
  9
$PUCSBASE
  2

  9
$PUCSNAME
  2

  9
$PUCSORG
 10
0.0
 20
0.0
 30
0.0
  9
$PUCSXDIR
 10
1.0
 20
0.0
 30
0.0
  9
$PUCSYDIR
 10
0.0
 20
1.0
 30
0.0
  9
$PUCSORTHOREF
  2

  9
$PUCSORTHOVIEW
 70
     0
  9
$PUCSORGTOP
 10
0.0
 20
0.0
 30
0.0
  9
$PUCSORGBOTTOM
 10
0.0
 20
0.0
 30
0.0
  9
$PUCSORGLEFT
 10
0.0
 20
0.0
 30
0.0
  9
$PUCSORGRIGHT
 10
0.0
 20
0.0
 30
0.0
  9
$PUCSORGFRONT
 10
0.0
 20
0.0
 30
0.0
  9
$PUCSORGBACK
 10
0.0
 20
0.0
 30
0.0
  9
$USERI1
 70
     0
  9
$USERI2
 70
     0
  9
$USERI3
 70
     0
  9
$USERI4
 70
     0
  9
$USERI5
 70
     0
  9
$USERR1
 40
0.0
  9
$USERR2
 40
0.0
  9
$USERR3
 40
0.0
  9
$USERR4
 40
0.0
  9
$USERR5
 40
0.0
  9
$WORLDVIEW
 70
     1
  9
$SHADEDGE
 70
     3
  9
$SHADEDIF
 70
    70
  9
$TILEMODE
 70
     0
  9
$MAXACTVP
 70
    64
  9
$PINSBASE
 10
0.0
 20
0.0
 30
0.0
  9
$PLIMCHECK
 70
     0
  9
$PEXTMIN
 10
0.0
 20
0.0
 30
0.0
  9
$PEXTMAX
 10
420.0
 20
297.0
 30
0.0
  9
$PLIMMIN
 10
-8.667315175097276
 20
-23.11284046692607
  9
$PLIMMAX
 10
476.7023346303502
 20
320.1128404669261
  9
$UNITMODE
 70
     0
  9
$VISRETAIN
 70
     1
  9
$PLINEGEN
 70
     0
  9
$PSLTSCALE
 70
     1
  9
$TREEDEPTH
 70
  3020
  9
$CMLSTYLE
  2
STANDARD
  9
$CMLJUST
 70
     0
  9
$CMLSCALE
 40
1.0
  9
$PROXYGRAPHICS
 70
     1
  9
$MEASUREMENT
 70
     1
  9
$CELWEIGHT
370
    -1
  9
$ENDCAPS
280
     0
  9
$JOINSTYLE
280
     0
  9
$LWDISPLAY
290
     0
  9
$INSUNITS
 70
     0
  9
$HYPERLINKBASE
  1

  9
$STYLESHEET
  1

  9
$XEDIT
290
     1
  9
$CEPSNTYPE
380
     0
  9
$PSTYLEMODE
290
     1
  9
$FINGERPRINTGUID
  2
{CC0F4BC9-15E5-4BFE-A87A-04FD55AD39D4}
  9
$VERSIONGUID
  2
{FAEB1C32-E019-11D5-929B-00C0DF256EC4}
  9
$EXTNAMES
290
     1
  9
$PSVPSCALE
 40
0.0
  9
$OLESTARTUP
290
     0
  9
$SORTENTS
280
   127
  9
$INDEXCTL
280
     0
  9
$HIDETEXT
280
     1
  9
$XCLIPFRAME
280
     2
  9
$HALOGAP
280
     0
  9
$OBSCOLOR
 70
   257
  9
$OBSLTYPE
280
     0
  9
$INTERSECTIONDISPLAY
280
     0
  9
$INTERSECTIONCOLOR
 70
   257
  9
$DIMASSOC
280
     2
  9
$PROJECTNAME
  1

  9
$CAMERADISPLAY
290
     0
  9
$LENSLENGTH
 40
50.0
  9
$CAMERAHEIGHT
 40
0.0
  9
$STEPSPERSEC
 40
2.0
  9
$STEPSIZE
 40
6.0
  9
$3DDWFPREC
 40
2.0
  9
$PSOLWIDTH
 40
0.25
  9
$PSOLHEIGHT
 40
4.0
  9
$LOFTANG1
 40
1.570796326794897
  9
$LOFTANG2
 40
1.570796326794897
  9
$LOFTMAG1
 40
0.0
  9
$LOFTMAG2
 40
0.0
  9
$LOFTPARAM
 70
     7
  9
$LOFTNORMALS
280
     1
  9
$LATITUDE
 40
37.795
  9
$LONGITUDE
 40
-122.394
  9
$NORTHDIRECTION
 40
0.0
  9
$TIMEZONE
 70
 -8000
  9
$LIGHTGLYPHDISPLAY
280
     1
  9
$TILEMODELIGHTSYNCH
280
     1
  9
$SOLIDHIST
280
     0
  9
$SHOWHIST
280
     1
  9
$DWFFRAME
280
     2
  9
$DGNFRAME
280
     2
  9
$REALWORLDSCALE
290
     1
  9
$INTERFERECOLOR
 62
   256
  9
$CSHADOW
280
     0
  9
$SHADOWPLANELOCATION
 40
0.0
  0
ENDSEC
  0
SECTION
  2
CLASSES
  0
CLASS
  1
ACDBDICTIONARYWDFLT
  2
AcDbDictionaryWithDefault
  3
ObjectDBX Classes
 90
        0
 91
        4
280
     0
281
     0
  0
CLASS
  1
SCALE
  2
AcDbScale
  3
ObjectDBX Classes
 90
     1153
 91
        4
280
     0
281
     0
  0
CLASS
  1
VISUALSTYLE
  2
AcDbVisualStyle
  3
ObjectDBX Classes
 90
     4095
 91
        4
280
     0
281
     0
  0
CLASS
  1
MATERIAL
  2
AcDbMaterial
  3
ObjectDBX Classes
 90
     1153
 91
        4
280
     0
281
     0
  0
CLASS
  1
TABLESTYLE
  2
AcDbTableStyle
  3
ObjectDBX Classes
 90
     4095
 91
        4
280
     0
281
     0
  0
CLASS
  1
MLEADERSTYLE
  2
AcDbMLeaderStyle
  3
ACDB_MLEADERSTYLE_CLASS
 90
     4095
 91
        4
280
     0
281
     0
  0
CLASS
  1
DICTIONARYVAR
  2
AcDbDictionaryVar
  3
ObjectDBX Classes
 90
        0
 91
        4
280
     0
281
     0
  0
CLASS
  1
CELLSTYLEMAP
  2
AcDbCellStyleMap
  3
ObjectDBX Classes
 90
     1152
 91
        4
280
     0
281
     0
  0
ENDSEC
  0
SECTION
  2
TABLES
  0
TABLE
  2
VPORT
  5
8
330
0
100
AcDbSymbolTable
 70
     1
  0
VPORT
  5
1F4
330
8
100
AcDbSymbolTableRecord
100
AcDbViewportTableRecord
  2
*ACTIVE
 70
     0
 10
0.0
 20
0.0
 11
1.0
 21
1.0
 12
210.0
 22
148.5
 13
0.0
 23
0.0
 14
1.0
 24
1.0
 15
0.0
 25
0.0
 16
0.0
 26
0.0
 36
1.0
 17
0.0
 27
0.0
 37
0.0
 40
297.0
 41
1.4141414141
 42
50.0
 43
0.0
 44
0.0
 50
0.0
 51
0.0
 71
     0
 72
   100
 73
     1
 74
     1
 75
     0
 76
     0
 77
     0
 78
     0
281
     0
 65
     1
110
0.0
120
0.0
130
0.0
111
1.0
121
0.0
131
0.0
112
0.0
122
1.0
132
0.0
 79
     0
146
0.0
348
48A
 60
     3
 61
     5
292
     1
282
     1
141
0.0
142
0.0
 63
   256
  0
ENDTAB
  0
TABLE
  2
LTYPE
  5
5
330
0
100
AcDbSymbolTable
 70
     6
  0
LTYPE
  5
14
330
5
100
AcDbSymbolTableRecord
100
AcDbLinetypeTableRecord
  2
BYBLOCK
 70
     0
  3

 72
    65
 73
     0
 40
0.0
  0
LTYPE
  5
15
330
5
100
AcDbSymbolTableRecord
100
AcDbLinetypeTableRecord
  2
BYLAYER
 70
     0
  3

 72
    65
 73
     0
 40
0.0
  0
LTYPE
  5
16
330
5
100
AcDbSymbolTableRecord
100
AcDbLinetypeTableRecord
  2
CONTINUOUS
 70
     0
  3
Solid line
 72
    65
 73
     0
 40
0.0
  0
LTYPE
  5
1F5
330
5
100
AcDbSymbolTableRecord
100
AcDbLinetypeTableRecord
  2
CENTER
 70
     0
  3
____ _ ____ _ ____ _ ____ _ ____ _ ____ _ ____
 72
    65
 73
     4
 40
0.6
 49
0.375
 74
     0
 49
-0.075
 74
     0
 49
0.075
 74
     0
 49
-0.075
 74
     0
  0
LTYPE
  5
1F6
330
5
100
AcDbSymbolTableRecord
100
AcDbLinetypeTableRecord
  2
HIDDEN
 70
     0
  3
- - - - - - - - - - - - - - - - - - - -
 72
    65
 73
     2
 40
0.2
 49
0.1
 74
     0
 49
-0.1
 74
     0
  0
LTYPE
  5
1F7
330
5
100
AcDbSymbolTableRecord
100
AcDbLinetypeTableRecord
  2
PHANTOM
 70
     0
  3
_____ _ _ _____ _ _ _____ _ _ _____
 72
    65
 73
     6
 40
0.8
 49
0.45
 74
     0
 49
-0.05
 74
     0
 49
0.1
 74
     0
 49
-0.05
 74
     0
 49
0.1
 74
     0
 49
-0.05
 74
     0
  0
LTYPE
  5
1F8
330
5
100
AcDbSymbolTableRecord
100
AcDbLinetypeTableRecord
  2
DOT
 70
     0
  3
. . . . . . . . . . . . . . . . . . . .
 72
    65
 73
     2
 40
0.2
 49
0.1
 74
     0
 49
-0.1
 74
     0
  0
LTYPE
  5
1F9
330
5
100
AcDbSymbolTableRecord
100
AcDbLinetypeTableRecord
  2
DASHED
 70
     0
  3
- - - - - - - - - - - - - - - - - - - -
 72
    65
 73
     2
 40
0.2
 49
0.1
 74
     0
 49
-0.1
 74
     0
  0
ENDTAB
  0
TABLE
  2
LAYER
  5
2
330
0
100
AcDbSymbolTable
 70
    37
  0
LAYER
  5
10
330
2
100
AcDbSymbolTableRecord
100
AcDbLayerTableRecord
  2
0
 70
     0
 62
     7
  6
CONTINUOUS
370
    -3
390
45F
347
4A1
348
0
  0
LAYER
  5
1FA
330
2
100
AcDbSymbolTableRecord
100
AcDbLayerTableRecord
  2
DEFAULT_1
 70
     0
 62
     7
  6
CENTER
370
    -3
390
45F
347
4A1
348
0
  0
LAYER
  5
1FB
330
2
100
AcDbSymbolTableRecord
100
AcDbLayerTableRecord
  2
DEFAULT_2
 70
     0
 62
     8
  6
HIDDEN
370
    -3
390
45F
347
4A1
348
0
  0
LAYER
  5
1FC
330
2
100
AcDbSymbolTableRecord
100
AcDbLayerTableRecord
  2
DEFAULT_3
 70
     0
 62
     7
  6
PHANTOM
370
    -3
390
45F
347
4A1
348
0
  0
LAYER
  5
1FD
330
2
100
AcDbSymbolTableRecord
100
AcDbLayerTableRecord
  2
01_ALL_DTM_PLN
 70
     0
 62
     7
  6
CONTINUOUS
370
    -3
390
45F
347
4A1
348
0
  0
LAYER
  5
1FE
330
2
100
AcDbSymbolTableRecord
100
AcDbLayerTableRecord
  2
01__ASM_ALL_DTM_PLN
 70
     0
 62
     7
  6
CONTINUOUS
370
    -3
390
45F
347
4A1
348
0
  0
LAYER
  5
1FF
330
2
100
AcDbSymbolTableRecord
100
AcDbLayerTableRecord
  2
01__ASM_DEF_DTM_PLN
 70
     0
 62
     7
  6
CONTINUOUS
370
    -3
390
45F
347
4A1
348
0
  0
LAYER
  5
200
330
2
100
AcDbSymbolTableRecord
100
AcDbLayerTableRecord
  2
01___PRT_ALL_DTM_PLN
 70
     0
 62
     7
  6
CONTINUOUS
370
    -3
390
45F
347
4A1
348
0
  0
LAYER
  5
201
330
2
100
AcDbSymbolTableRecord
100
AcDbLayerTableRecord
  2
01___PRT_DEF_DTM_PLN
 70
     0
 62
     7
  6
CONTINUOUS
370
    -3
390
45F
347
4A1
348
0
  0
LAYER
  5
202
330
2
100
AcDbSymbolTableRecord
100
AcDbLayerTableRecord
  2
02_ALL_AXES
 70
     0
 62
     7
  6
CONTINUOUS
370
    -3
390
45F
347
4A1
348
0
  0
LAYER
  5
203
330
2
100
AcDbSymbolTableRecord
100
AcDbLayerTableRecord
  2
02__ASM_ALL_AXES
 70
     0
 62
     7
  6
CONTINUOUS
370
    -3
390
45F
347
4A1
348
0
  0
LAYER
  5
204
330
2
100
AcDbSymbolTableRecord
100
AcDbLayerTableRecord
  2
02___PRT_ALL_AXES
 70
     0
 62
     7
  6
CONTINUOUS
370
    -3
390
45F
347
4A1
348
0
  0
LAYER
  5
205
330
2
100
AcDbSymbolTableRecord
100
AcDbLayerTableRecord
  2
03_ALL_CURVES
 70
     0
 62
     7
  6
CONTINUOUS
370
    -3
390
45F
347
4A1
348
0
  0
LAYER
  5
206
330
2
100
AcDbSymbolTableRecord
100
AcDbLayerTableRecord
  2
03__ASM_ALL_CURVES
 70
     0
 62
     7
  6
CONTINUOUS
370
    -3
390
45F
347
4A1
348
0
  0
LAYER
  5
207
330
2
100
AcDbSymbolTableRecord
100
AcDbLayerTableRecord
  2
03___PRT_ALL_CURVES
 70
     0
 62
     7
  6
CONTINUOUS
370
    -3
390
45F
347
4A1
348
0
  0
LAYER
  5
208
330
2
100
AcDbSymbolTableRecord
100
AcDbLayerTableRecord
  2
04_ALL_DTM_PNT
 70
     0
 62
     7
  6
CONTINUOUS
370
    -3
390
45F
347
4A1
348
0
  0
LAYER
  5
209
330
2
100
AcDbSymbolTableRecord
100
AcDbLayerTableRecord
  2
04__ASM_ALL_DTM_PNT
 70
     0
 62
     7
  6
CONTINUOUS
370
    -3
390
45F
347
4A1
348
0
  0
LAYER
  5
20A
330
2
100
AcDbSymbolTableRecord
100
AcDbLayerTableRecord
  2
04___PRT_ALL_DTM_PNT
 70
     0
 62
     7
  6
CONTINUOUS
370
    -3
390
45F
347
4A1
348
0
  0
LAYER
  5
20B
330
2
100
AcDbSymbolTableRecord
100
AcDbLayerTableRecord
  2
05_ALL_DTM_CSYS
 70
     0
 62
     7
  6
CONTINUOUS
370
    -3
390
45F
347
4A1
348
0
  0
LAYER
  5
20C
330
2
100
AcDbSymbolTableRecord
100
AcDbLayerTableRecord
  2
05__ASM_ALL_DTM_CSYS
 70
     0
 62
     7
  6
CONTINUOUS
370
    -3
390
45F
347
4A1
348
0
  0
LAYER
  5
20D
330
2
100
AcDbSymbolTableRecord
100
AcDbLayerTableRecord
  2
05__ASM_DEF_DTM_CSYS
 70
     0
 62
     7
  6
CONTINUOUS
370
    -3
390
45F
347
4A1
348
0
  0
LAYER
  5
20E
330
2
100
AcDbSymbolTableRecord
100
AcDbLayerTableRecord
  2
05___PRT_ALL_DTM_CSYS
 70
     0
 62
     7
  6
CONTINUOUS
370
    -3
390
45F
347
4A1
348
0
  0
LAYER
  5
20F
330
2
100
AcDbSymbolTableRecord
100
AcDbLayerTableRecord
  2
05___PRT_DEF_DTM_CSYS
 70
     0
 62
     7
  6
CONTINUOUS
370
    -3
390
45F
347
4A1
348
0
  0
LAYER
  5
210
330
2
100
AcDbSymbolTableRecord
100
AcDbLayerTableRecord
  2
06_ALL_SURFS
 70
     0
 62
     7
  6
CONTINUOUS
370
    -3
390
45F
347
4A1
348
0
  0
LAYER
  5
211
330
2
100
AcDbSymbolTableRecord
100
AcDbLayerTableRecord
  2
06__ASM_ALL_SURFS
 70
     0
 62
     7
  6
CONTINUOUS
370
    -3
390
45F
347
4A1
348
0
  0
LAYER
  5
212
330
2
100
AcDbSymbolTableRecord
100
AcDbLayerTableRecord
  2
06___PRT_ALL_SURFS
 70
     0
 62
     7
  6
CONTINUOUS
370
    -3
390
45F
347
4A1
348
0
  0
LAYER
  5
213
330
2
100
AcDbSymbolTableRecord
100
AcDbLayerTableRecord
  2
07__ASM_ALL_SKELETONS
 70
     0
 62
     7
  6
CONTINUOUS
370
    -3
390
45F
347
4A1
348
0
  0
LAYER
  5
214
330
2
100
AcDbSymbolTableRecord
100
AcDbLayerTableRecord
  2
1_ALL_PLANES
 70
     0
 62
     7
  6
CONTINUOUS
370
    -3
390
45F
347
4A1
348
0
  0
LAYER
  5
215
330
2
100
AcDbSymbolTableRecord
100
AcDbLayerTableRecord
  2
3_ALL_AXES
 70
     0
 62
     7
  6
CONTINUOUS
370
    -3
390
45F
347
4A1
348
0
  0
LAYER
  5
216
330
2
100
AcDbSymbolTableRecord
100
AcDbLayerTableRecord
  2
4_ALL_POINTS
 70
     0
 62
     7
  6
CONTINUOUS
370
    -3
390
45F
347
4A1
348
0
  0
LAYER
  5
217
330
2
100
AcDbSymbolTableRecord
100
AcDbLayerTableRecord
  2
5_ALL_CURVES
 70
     0
 62
     7
  6
CONTINUOUS
370
    -3
390
45F
347
4A1
348
0
  0
LAYER
  5
218
330
2
100
AcDbSymbolTableRecord
100
AcDbLayerTableRecord
  2
5__COSTRUZIONE
 70
     0
 62
     7
  6
CONTINUOUS
370
    -3
390
45F
347
4A1
348
0
  0
LAYER
  5
219
330
2
100
AcDbSymbolTableRecord
100
AcDbLayerTableRecord
  2
6_ALL_SURFS
 70
     0
 62
     7
  6
CONTINUOUS
370
    -3
390
45F
347
4A1
348
0
  0
LAYER
  5
21A
330
2
100
AcDbSymbolTableRecord
100
AcDbLayerTableRecord
  2
7_ALL_FEATURES
 70
     0
 62
     7
  6
CONTINUOUS
370
    -3
390
45F
347
4A1
348
0
  0
LAYER
  5
21B
330
2
100
AcDbSymbolTableRecord
100
AcDbLayerTableRecord
  2
8_ALL_NOTES_BALLOONS_SYMBOLS_GT
 70
     0
 62
     7
  6
CONTINUOUS
370
    -3
390
45F
347
4A1
348
0
  0
LAYER
  5
21C
330
2
100
AcDbSymbolTableRecord
100
AcDbLayerTableRecord
  2
9_SOLID
 70
     0
 62
     7
  6
CONTINUOUS
370
    -3
390
45F
347
4A1
348
0
  0
LAYER
  5
21D
330
2
100
AcDbSymbolTableRecord
100
AcDbLayerTableRecord
  2
XXX_SOLIDO
 70
     0
 62
     7
  6
CONTINUOUS
370
    -3
390
45F
347
4A1
348
0
  0
ENDTAB
  0
TABLE
  2
STYLE
  5
3
330
0
100
AcDbSymbolTable
 70
     5
  0
STYLE
  5
11
330
3
100
AcDbSymbolTableRecord
100
AcDbTextStyleTableRecord
  2
STANDARD
 70
     0
 40
0.0
 41
0.85
 50
0.0
 71
     0
 42
0.2
  3
txt
  4

  0
STYLE
  5
21E
330
3
100
AcDbSymbolTableRecord
100
AcDbTextStyleTableRecord
  2
TEXTSTYLE_1
 70
     0
 40
0.0
 41
0.8
 50
0.0
 71
     0
 42
0.2
  3
gdt
  4

  0
STYLE
  5
21F
330
3
100
AcDbSymbolTableRecord
100
AcDbTextStyleTableRecord
  2
TEXTSTYLE_2
 70
     0
 40
0.0
 41
0.9
 50
0.0
 71
     0
 42
0.2
  3
txt
  4

  0
STYLE
  5
220
330
3
100
AcDbSymbolTableRecord
100
AcDbTextStyleTableRecord
  2
TEXTSTYLE_3
 70
     0
 40
0.0
 41
0.9
 50
0.0
 71
     0
 42
0.2
  3
txt
  4

  0
STYLE
  5
221
330
3
100
AcDbSymbolTableRecord
100
AcDbTextStyleTableRecord
  2
TEXTSTYLE_4
 70
     0
 40
0.0
 41
2.0
 50
0.0
 71
     0
 42
0.2
  3
txt
  4

  0
ENDTAB
  0
TABLE
  2
VIEW
  5
6
330
0
100
AcDbSymbolTable
 70
     0
  0
ENDTAB
  0
TABLE
  2
UCS
  5
7
330
0
100
AcDbSymbolTable
 70
     0
  0
ENDTAB
  0
TABLE
  2
APPID
  5
9
330
0
100
AcDbSymbolTable
 70
     1
  0
APPID
  5
222
330
9
100
AcDbSymbolTableRecord
100
AcDbRegAppTableRecord
  2
ACAD
 70
     0
  0
ENDTAB
  0
TABLE
  2
DIMSTYLE
  5
A
330
0
100
AcDbSymbolTable
 70
     4
100
AcDbDimStyleTable
  0
DIMSTYLE
105
229
330
A
100
AcDbSymbolTableRecord
100
AcDbDimStyleTableRecord
  2
STANDARD
 70
     0
 41
2.5
 42
0.75
 44
0.75
 47
0.01
 48
0.01
 71
     1
 73
     0
 74
     0
 77
     1
 78
     8
 79
     2
140
3.0
147
0.625
171
     1
178
     0
179
     2
271
     2
272
     2
284
     8
340
11
341
223
342
223
343
223
344
223
  0
DIMSTYLE
105
22A
330
A
100
AcDbSymbolTableRecord
100
AcDbDimStyleTableRecord
  2
DIMSTYLE_1
 70
     0
 41
2.5
 42
0.75
 44
0.75
 47
0.5
 48
0.5
 73
     0
 74
     0
 77
     1
 78
     8
 79
     2
140
3.0
147
0.75
171
     1
178
     0
179
     2
271
     2
272
     2
284
     8
340
11
341
223
342
223
343
223
344
223
  0
DIMSTYLE
105
22B
330
A
100
AcDbSymbolTableRecord
100
AcDbDimStyleTableRecord
  2
DIMSTYLE_2
 70
     0
 41
2.5
 42
0.75
 44
0.75
 47
0.3
 48
0.3
 73
     0
 74
     0
 77
     1
 78
     8
 79
     2
140
3.0
147
0.75
171
     1
178
     0
271
     0
272
     0
284
     8
340
11
341
223
342
223
343
223
344
223
  0
DIMSTYLE
105
22C
330
A
100
AcDbSymbolTableRecord
100
AcDbDimStyleTableRecord
  2
DIMSTYLE_3
 70
     0
 41
2.5
 42
0.75
 44
0.75
 47
0.3
 48
0.3
 73
     0
 74
     0
 77
     1
 78
     8
 79
     2
140
3.0
147
0.75
171
     1
178
     0
179
     2
271
     2
272
     2
284
     8
340
11
341
223
342
223
343
223
344
223
  0
ENDTAB
  0
TABLE
  2
BLOCK_RECORD
  5
1
330
0
100
AcDbSymbolTable
 70
     6
  0
BLOCK_RECORD
  5
1F
330
1
100
AcDbSymbolTableRecord
100
AcDbBlockTableRecord
  2
*MODEL_SPACE
340
483
 70
     0
280
     1
281
     0
  0
BLOCK_RECORD
  5
1B
330
1
100
AcDbSymbolTableRecord
100
AcDbBlockTableRecord
  2
*PAPER_SPACE
340
484
 70
     0
280
     1
281
     0
  0
BLOCK_RECORD
  5
223
330
1
100
AcDbSymbolTableRecord
100
AcDbBlockTableRecord
  2
_CLOSED
340
0
102
{BLKREFS
331
27F
331
280
331
288
331
289
331
291
331
292
102
}
 70
     0
280
     1
281
     0
  0
BLOCK_RECORD
  5
224
330
1
100
AcDbSymbolTableRecord
100
AcDbBlockTableRecord
  2
*D1
340
0
 70
     0
280
     1
281
     0
  0
BLOCK_RECORD
  5
225
330
1
100
AcDbSymbolTableRecord
100
AcDbBlockTableRecord
  2
*D2
340
0
 70
     0
280
     1
281
     0
  0
BLOCK_RECORD
  5
226
330
1
100
AcDbSymbolTableRecord
100
AcDbBlockTableRecord
  2
*D3
340
0
 70
     0
280
     1
281
     0
  0
BLOCK_RECORD
  5
227
330
1
100
AcDbSymbolTableRecord
100
AcDbBlockTableRecord
  2
LOGO2_BL1
340
0
102
{BLKREFS
331
447
102
}
 70
     0
280
     1
281
     0
  0
BLOCK_RECORD
  5
228
330
1
100
AcDbSymbolTableRecord
100
AcDbBlockTableRecord
  2
PROIEZIONE_EU_BL0
340
0
102
{BLKREFS
331
444
102
}
 70
     0
280
     1
281
     0
  0
ENDTAB
  0
ENDSEC
  0
SECTION
  2
BLOCKS
  0
BLOCK
  5
20
330
1F
100
AcDbEntity
  8
0
100
AcDbBlockBegin
  2
*MODEL_SPACE
 70
     0
 10
0.0
 20
0.0
 30
0.0
  3
*MODEL_SPACE
  1

  0
ENDBLK
  5
21
330
1F
100
AcDbEntity
  8
0
100
AcDbBlockEnd
  0
BLOCK
  5
1C
330
1B
100
AcDbEntity
 67
     1
  8
0
100
AcDbBlockBegin
  2
*PAPER_SPACE
 70
     0
 10
0.0
 20
0.0
 30
0.0
  3
*PAPER_SPACE
  1

  0
ENDBLK
  5
1D
330
1B
100
AcDbEntity
 67
     1
  8
0
100
AcDbBlockEnd
  0
BLOCK
  5
273
330
223
100
AcDbEntity
  8
0
100
AcDbBlockBegin
  2
_CLOSED
 70
     0
 10
0.0
 20
0.0
 30
0.0
  3
_CLOSED
  1

  0
LINE
  5
274
330
223
100
AcDbEntity
  8
0
  6
ByBlock
 62
     0
100
AcDbLine
 10
0.0
 20
0.0
 30
0.0
 11
-1.0
 21
0.2
 31
0.0
  0
LINE
  5
275
330
223
100
AcDbEntity
  8
0
  6
ByBlock
 62
     0
100
AcDbLine
 10
-1.0
 20
0.2
 30
0.0
 11
-1.0
 21
-0.2
 31
0.0
  0
LINE
  5
276
330
223
100
AcDbEntity
  8
0
  6
ByBlock
 62
     0
100
AcDbLine
 10
-1.0
 20
-0.2
 30
0.0
 11
0.0
 21
0.0
 31
0.0
  0
LINE
  5
277
330
223
100
AcDbEntity
  8
0
  6
ByBlock
 62
     0
100
AcDbLine
 10
-1.0
 20
0.0
 30
0.0
 11
0.0
 21
0.0
 31
0.0
  0
ENDBLK
  5
278
330
223
100
AcDbEntity
  8
0
  6
ByBlock
 62
     0
100
AcDbBlockEnd
  0
BLOCK
  5
279
330
224
100
AcDbEntity
  8
0
100
AcDbBlockBegin
  2
*D1
 70
     1
 10
0.0
 20
0.0
 30
0.0
  3
*D1
  1

  0
MTEXT
  5
27A
330
224
100
AcDbEntity
  8
0
  6
Continuous
 62
     2
100
AcDbMText
 10
97.6555851064
 20
278.2209401106
 30
0.0
 40
3.0
 41
9.6428571429
 46
0.0
 71
     2
 72
     1
  1
140
 73
     1
 44
1.0
  0
LINE
  5
27B
330
224
100
AcDbEntity
  8
0
  6
Continuous
 62
     2
100
AcDbLine
 10
27.6555851064
 20
264.5395115119
 30
0.0
 11
27.6555851064
 21
275.2209401106
 31
0.0
  0
LINE
  5
27C
330
224
100
AcDbEntity
  8
0
  6
Continuous
 62
     2
100
AcDbLine
 10
167.6555851064
 20
264.5395115119
 30
0.0
 11
167.6555851064
 21
275.2209401106
 31
0.0
  0
LINE
  5
27D
330
224
100
AcDbEntity
  8
0
  6
Continuous
 62
     2
100
AcDbLine
 10
27.6555851064
 20
274.4709401106
 30
0.0
 11
97.6555851064
 21
274.4709401106
 31
0.0
  0
LINE
  5
27E
330
224
100
AcDbEntity
  8
0
  6
Continuous
 62
     2
100
AcDbLine
 10
167.6555851064
 20
274.4709401106
 30
0.0
 11
97.6555851064
 21
274.4709401106
 31
0.0
  0
INSERT
  5
27F
330
224
100
AcDbEntity
  8
0
  6
Continuous
 62
     2
100
AcDbBlockReference
  2
_CLOSED
 10
27.6555851064
 20
274.4709401106
 30
0.0
 41
2.5
 42
2.5
 43
2.5
 50
180.0
  0
INSERT
  5
280
330
224
100
AcDbEntity
  8
0
  6
Continuous
 62
     2
100
AcDbBlockReference
  2
_CLOSED
 10
167.6555851064
 20
274.4709401106
 30
0.0
 41
2.5
 42
2.5
 43
2.5
  0
ENDBLK
  5
281
330
224
100
AcDbEntity
  8
0
  6
ByBlock
 62
     0
100
AcDbBlockEnd
  0
BLOCK
  5
282
330
225
100
AcDbEntity
  8
0
100
AcDbBlockBegin
  2
*D2
 70
     1
 10
0.0
 20
0.0
 30
0.0
  3
*D2
  1

  0
MTEXT
  5
283
330
225
100
AcDbEntity
  8
0
  6
Continuous
 62
     2
100
AcDbMText
 10
181.1187928748
 20
120.9793882979
 30
0.0
 40
3.0
 41
6.75
 46
0.0
 71
     2
 72
     1
  1
73
 11
0.0
 21
1.0
 31
0.0
 73
     1
 44
1.0
  0
LINE
  5
284
330
225
100
AcDbEntity
  8
0
  6
Continuous
 62
     2
100
AcDbLine
 10
176.9641670696
 20
84.2471552508
 30
0.0
 11
185.6187928748
 21
84.2471552508
 31
0.0
  0
LINE
  5
285
330
225
100
AcDbEntity
  8
0
  6
Continuous
 62
     2
100
AcDbLine
 10
176.9641670696
 20
157.7116213449
 30
0.0
 11
185.6187928748
 21
157.7116213449
 31
0.0
  0
LINE
  5
286
330
225
100
AcDbEntity
  8
0
  6
Continuous
 62
     2
100
AcDbLine
 10
184.8687928748
 20
84.2471552508
 30
0.0
 11
184.8687928748
 21
120.9793882979
 31
0.0
  0
LINE
  5
287
330
225
100
AcDbEntity
  8
0
  6
Continuous
 62
     2
100
AcDbLine
 10
184.8687928748
 20
157.7116213449
 30
0.0
 11
184.8687928748
 21
120.9793882979
 31
0.0
  0
INSERT
  5
288
330
225
100
AcDbEntity
  8
0
  6
Continuous
 62
     2
100
AcDbBlockReference
  2
_CLOSED
 10
184.8687928748
 20
84.2471552508
 30
0.0
 41
2.5
 42
2.5
 43
2.5
 50
270.0
  0
INSERT
  5
289
330
225
100
AcDbEntity
  8
0
  6
Continuous
 62
     2
100
AcDbBlockReference
  2
_CLOSED
 10
184.8687928748
 20
157.7116213449
 30
0.0
 41
2.5
 42
2.5
 43
2.5
 50
90.0
  0
ENDBLK
  5
28A
330
225
100
AcDbEntity
  8
0
  6
ByBlock
 62
     0
100
AcDbBlockEnd
  0
BLOCK
  5
28B
330
226
100
AcDbEntity
  8
0
100
AcDbBlockBegin
  2
*D3
 70
     1
 10
0.0
 20
0.0
 30
0.0
  3
*D3
  1

  0
MTEXT
  5
28C
330
226
100
AcDbEntity
  8
0
  6
Continuous
 62
     2
100
AcDbMText
 10
295.1183029978
 20
232.9468085106
 30
0.0
 40
3.0
 41
6.4285714286
 46
0.0
 71
     2
 72
     1
  1
55
 11
0.0
 21
1.0
 31
0.0
 73
     1
 44
1.0
  0
LINE
  5
28D
330
226
100
AcDbEntity
  8
0
  6
Continuous
 62
     2
100
AcDbLine
 10
289.1262492398
 20
260.4468085106
 30
0.0
 11
299.6183029978
 21
260.4468085106
 31
0.0
  0
LINE
  5
28E
330
226
100
AcDbEntity
  8
0
  6
Continuous
 62
     2
100
AcDbLine
 10
289.3239030271
 20
205.4468085106
 30
0.0
 11
299.6183029978
 21
205.4468085106
 31
0.0
  0
LINE
  5
28F
330
226
100
AcDbEntity
  8
0
  6
Continuous
 62
     2
100
AcDbLine
 10
298.8683029978
 20
260.4468085106
 30
0.0
 11
298.8683029978
 21
232.9468085106
 31
0.0
  0
LINE
  5
290
330
226
100
AcDbEntity
  8
0
  6
Continuous
 62
     2
100
AcDbLine
 10
298.8683029978
 20
205.4468085106
 30
0.0
 11
298.8683029978
 21
232.9468085106
 31
0.0
  0
INSERT
  5
291
330
226
100
AcDbEntity
  8
0
  6
Continuous
 62
     2
100
AcDbBlockReference
  2
_CLOSED
 10
298.8683029978
 20
260.4468085106
 30
0.0
 41
2.5
 42
2.5
 43
2.5
 50
90.0
  0
INSERT
  5
292
330
226
100
AcDbEntity
  8
0
  6
Continuous
 62
     2
100
AcDbBlockReference
  2
_CLOSED
 10
298.8683029978
 20
205.4468085106
 30
0.0
 41
2.5
 42
2.5
 43
2.5
 50
270.0
  0
ENDBLK
  5
293
330
226
100
AcDbEntity
  8
0
  6
ByBlock
 62
     0
100
AcDbBlockEnd
  0
BLOCK
  5
22D
330
227
100
AcDbEntity
  8
0
100
AcDbBlockBegin
  2
LOGO2_BL1
 70
     0
 10
293.7163767331
 20
42.3618032155
 30
0.0
  3
LOGO2_BL1
  1

  0
LINE
  5
22E
330
227
100
AcDbEntity
  8
0
  6
Continuous
 62
     7
100
AcDbLine
 10
285.4593019613
 20
45.5572945544
 30
0.0
 11
284.1549610319
 21
45.5572945544
 31
0.0
  0
LINE
  5
22F
330
227
100
AcDbEntity
  8
0
  6
Continuous
 62
     7
100
AcDbLine
 10
284.1549610319
 20
45.5572945544
 30
0.0
 11
284.1549610319
 21
35.0982284945
 31
0.0
  0
LINE
  5
230
330
227
100
AcDbEntity
  8
0
  6
Continuous
 62
     7
100
AcDbLine
 10
284.1549610319
 20
35.0982284945
 30
0.0
 11
288.6360159202
 21
35.0982284945
 31
0.0
  0
LINE
  5
231
330
227
100
AcDbEntity
  8
0
  6
Continuous
 62
     7
100
AcDbLine
 10
288.6360159202
 20
35.0982284945
 30
0.0
 11
288.6360159202
 21
36.2910828196
 31
0.0
  0
LINE
  5
232
330
227
100
AcDbEntity
  8
0
  6
Continuous
 62
     7
100
AcDbLine
 10
288.6360159202
 20
36.2910828196
 30
0.0
 11
285.4593019613
 21
36.2910828196
 31
0.0
  0
LINE
  5
233
330
227
100
AcDbEntity
  8
0
  6
Continuous
 62
     7
100
AcDbLine
 10
285.4593019613
 20
36.2910828196
 30
0.0
 11
285.4593019613
 21
45.5572945544
 31
0.0
  0
LINE
  5
234
330
227
100
AcDbEntity
  8
0
  6
Continuous
 62
     7
100
AcDbLine
 10
300.3956281776
 20
45.5572945544
 30
0.0
 11
299.0918106595
 21
45.5572945544
 31
0.0
  0
LINE
  5
235
330
227
100
AcDbEntity
  8
0
  6
Continuous
 62
     7
100
AcDbLine
 10
299.0918106595
 20
45.5572945544
 30
0.0
 11
299.0918106595
 21
35.0982284945
 31
0.0
  0
LINE
  5
236
330
227
100
AcDbEntity
  8
0
  6
Continuous
 62
     7
100
AcDbLine
 10
299.0918106595
 20
35.0982284945
 30
0.0
 11
303.5729964006
 21
35.0982284945
 31
0.0
  0
LINE
  5
237
330
227
100
AcDbEntity
  8
0
  6
Continuous
 62
     7
100
AcDbLine
 10
303.5729964006
 20
35.0982284945
 30
0.0
 11
303.5729964006
 21
36.2910828196
 31
0.0
  0
LINE
  5
238
330
227
100
AcDbEntity
  8
0
  6
Continuous
 62
     7
100
AcDbLine
 10
303.5729964006
 20
36.2910828196
 30
0.0
 11
300.3956281776
 21
36.2910828196
 31
0.0
  0
LINE
  5
239
330
227
100
AcDbEntity
  8
0
  6
Continuous
 62
     7
100
AcDbLine
 10
300.3956281776
 20
36.2910828196
 30
0.0
 11
300.3956281776
 21
45.5572945544
 31
0.0
  0
LWPOLYLINE
  5
23A
330
227
100
AcDbEntity
  8
0
  6
Continuous
 62
     7
100
AcDbPolyline
 90
        2
 70
     0
 43
0.2
 10
282.5093559428
 20
31.7546771876
 10
282.5093559428
 20
29.8976139383
  0
LWPOLYLINE
  5
23B
330
227
100
AcDbEntity
  8
0
  6
Continuous
 62
     7
100
AcDbPolyline
 90
        2
 70
     0
 43
0.2
 10
282.5093559428
 20
29.8976139383
 10
283.3050719532
 20
29.8976139383
  0
LWPOLYLINE
  5
23C
330
227
100
AcDbEntity
  8
0
  6
Continuous
 62
     7
100
AcDbPolyline
 90
        2
 70
     0
 43
0.2
 10
283.3050719532
 20
29.8976139383
 10
283.3050719532
 20
30.1095955098
  0
LWPOLYLINE
  5
23D
330
227
100
AcDbEntity
  8
0
  6
Continuous
 62
     7
100
AcDbPolyline
 90
        2
 70
     0
 43
0.2
 10
283.3050719532
 20
30.1095955098
 10
282.7409654377
 20
30.1095955098
  0
LWPOLYLINE
  5
23E
330
227
100
AcDbEntity
  8
0
  6
Continuous
 62
     7
100
AcDbPolyline
 90
        2
 70
     0
 43
0.2
 10
282.7409654377
 20
30.1095955098
 10
282.7409654377
 20
31.7546771876
  0
LWPOLYLINE
  5
23F
330
227
100
AcDbEntity
  8
0
  6
Continuous
 62
     7
100
AcDbPolyline
 90
        2
 70
     0
 43
0.2
 10
282.7409654377
 20
31.7546771876
 10
282.5093559428
 20
31.7546771876
  0
SPLINE
  5
240
330
227
100
AcDbEntity
  8
0
  6
Continuous
 62
     7
100
AcDbSpline
 70
     3
 71
     3
 72
    35
 73
    31
 74
     0
 42
0.000000001
 43
0.0000001
 40
0.0
 40
0.0
 40
0.0
 40
0.0
 40
1.0
 40
1.0
 40
1.0
 40
2.0
 40
2.0
 40
2.0
 40
3.0
 40
3.0
 40
3.0
 40
4.0
 40
4.0
 40
4.0
 40
5.0
 40
5.0
 40
5.0
 40
6.0
 40
6.0
 40
6.0
 40
7.0
 40
7.0
 40
7.0
 40
8.0
 40
8.0
 40
8.0
 40
9.0
 40
9.0
 40
9.0
 40
10.0
 40
10.0
 40
10.0
 40
10.0
 10
284.7033652088
 20
31.0501655941
 30
0.0
 10
284.7033652088
 20
31.0501655941
 30
0.0
 10
284.7033652088
 20
30.388050315
 30
0.0
 10
284.7033652088
 20
30.388050315
 30
0.0
 10
284.7033652088
 20
30.0729567197
 30
0.0
 10
284.8512288976
 20
29.8583580917
 30
0.0
 10
285.1913153819
 20
29.8583580917
 30
0.0
 10
285.5308784549
 20
29.8583580917
 30
0.0
 10
285.6790038494
 20
30.0729567197
 30
0.0
 10
285.6790038494
 20
30.388050315
 30
0.0
 10
285.6790038494
 20
30.388050315
 30
0.0
 10
285.6790038494
 20
31.0501655941
 30
0.0
 10
285.6790038494
 20
31.0501655941
 30
0.0
 10
285.6790038494
 20
31.0501655941
 30
0.0
 10
285.4569466105
 20
31.0501655941
 30
0.0
 10
285.4569466105
 20
31.0501655941
 30
0.0
 10
285.4569466105
 20
31.0501655941
 30
0.0
 10
285.4569466105
 20
30.4131740568
 30
0.0
 10
285.4569466105
 20
30.4131740568
 30
0.0
 10
285.4569466105
 20
30.2273630496
 30
0.0
 10
285.410232153
 20
30.0645821391
 30
0.0
 10
285.1913153819
 20
30.0645821391
 30
0.0
 10
284.9718751995
 20
30.0645821391
 30
0.0
 10
284.925160742
 20
30.2273630496
 30
0.0
 10
284.925160742
 20
30.4131740568
 30
0.0
 10
284.925160742
 20
30.4131740568
 30
0.0
 10
284.925160742
 20
31.0501655941
 30
0.0
 10
284.925160742
 20
31.0501655941
 30
0.0
 10
284.925160742
 20
31.0501655941
 30
0.0
 10
284.7033652088
 20
31.0501655941
 30
0.0
 10
284.7033652088
 20
31.0501655941
 30
0.0
  0
SPLINE
  5
241
330
227
100
AcDbEntity
  8
0
  6
Continuous
 62
     7
100
AcDbSpline
 70
     3
 71
     3
 72
    35
 73
    31
 74
     0
 42
0.000000001
 43
0.0000001
 40
0.0
 40
0.0
 40
0.0
 40
0.0
 40
1.0
 40
1.0
 40
1.0
 40
2.0
 40
2.0
 40
2.0
 40
3.0
 40
3.0
 40
3.0
 40
4.0
 40
4.0
 40
4.0
 40
5.0
 40
5.0
 40
5.0
 40
6.0
 40
6.0
 40
6.0
 40
7.0
 40
7.0
 40
7.0
 40
8.0
 40
8.0
 40
8.0
 40
9.0
 40
9.0
 40
9.0
 40
10.0
 40
10.0
 40
10.0
 40
10.0
 10
288.1021364066
 20
31.0088161024
 30
0.0
 10
288.0136798989
 20
31.0601104086
 30
0.0
 10
287.9002305023
 20
31.0852341504
 30
0.0
 10
287.7965950673
 20
31.0852341504
 30
0.0
 10
287.4417222141
 20
31.0852341504
 30
0.0
 10
287.1662770239
 20
30.8214348614
 30
0.0
 10
287.1662770239
 20
30.4639449517
 30
0.0
 10
287.1662770239
 20
30.119016913
 30
0.0
 10
287.444731829
 20
29.858881503
 30
0.0
 10
287.784294902
 20
29.858881503
 30
0.0
 10
287.9002305023
 20
29.858881503
 30
0.0
 10
288.0009871752
 20
29.880864777
 30
0.0
 10
288.1021364066
 20
29.9347761397
 30
0.0
 10
288.1021364066
 20
29.9347761397
 30
0.0
 10
288.1021364066
 20
30.2174182351
 30
0.0
 10
288.1021364066
 20
30.2174182351
 30
0.0
 10
288.0182597477
 20
30.1242510259
 30
0.0
 10
287.9147551655
 20
30.0651055504
 30
0.0
 10
287.7866502528
 20
30.0651055504
 30
0.0
 10
287.5529471128
 20
30.0651055504
 30
0.0
 10
287.3876799986
 20
30.2373078641
 30
0.0
 10
287.3876799986
 20
30.4738897662
 30
0.0
 10
287.3876799986
 20
30.6858713378
 30
0.0
 10
287.5554333164
 20
30.8779632804
 30
0.0
 10
287.7722564424
 20
30.8779632804
 30
0.0
 10
287.9050720567
 20
30.8779632804
 30
0.0
 10
288.0136798989
 20
30.8240519178
 30
0.0
 10
288.1021364066
 20
30.7230335392
 30
0.0
 10
288.1021364066
 20
30.7230335392
 30
0.0
 10
288.1021364066
 20
31.0088161024
 30
0.0
 10
288.1021364066
 20
31.0088161024
 30
0.0
  0
SPLINE
  5
242
330
227
100
AcDbEntity
  8
0
  6
Continuous
 62
     7
100
AcDbSpline
 70
     3
 71
     3
 72
    32
 73
    28
 74
     0
 42
0.000000001
 43
0.0000001
 40
0.0
 40
0.0
 40
0.0
 40
0.0
 40
1.0
 40
1.0
 40
1.0
 40
2.0
 40
2.0
 40
2.0
 40
3.0
 40
3.0
 40
3.0
 40
4.0
 40
4.0
 40
4.0
 40
5.0
 40
5.0
 40
5.0
 40
6.0
 40
6.0
 40
6.0
 40
7.0
 40
7.0
 40
7.0
 40
8.0
 40
8.0
 40
8.0
 40
9.0
 40
9.0
 40
9.0
 40
9.0
 10
290.6340076588
 20
30.4372509761
 30
0.0
 10
290.6340076588
 20
30.4372509761
 30
0.0
 10
290.6340076588
 20
30.4712727098
 30
0.0
 10
290.6340076588
 20
30.4712727098
 30
0.0
 10
290.6340076588
 20
30.813583692
 30
0.0
 10
290.461151081
 20
31.0852341504
 30
0.0
 10
290.0945014738
 20
31.0852341504
 30
0.0
 10
289.7228794595
 20
31.0852341504
 30
0.0
 10
289.5331428676
 20
30.8188178049
 30
0.0
 10
289.5331428676
 20
30.4639449517
 30
0.0
 10
289.5331428676
 20
30.1242510259
 30
0.0
 10
289.7472180843
 20
29.8583580917
 30
0.0
 10
290.0993430283
 20
29.8583580917
 30
0.0
 10
290.3233630595
 20
29.8583580917
 30
0.0
 10
290.5255306694
 20
29.9740319863
 30
0.0
 10
290.6340076588
 20
30.173451687
 30
0.0
 10
290.6340076588
 20
30.173451687
 30
0.0
 10
290.4463647121
 20
30.2802275897
 30
0.0
 10
290.4463647121
 20
30.2802275897
 30
0.0
 10
290.3628806117
 20
30.1415235984
 30
0.0
 10
290.2716761948
 20
30.0556841472
 30
0.0
 10
290.1020909375
 20
30.0556841472
 30
0.0
 10
289.8901093659
 20
30.0556841472
 30
0.0
 10
289.7571628988
 20
30.2404483318
 30
0.0
 10
289.754807548
 20
30.4372509761
 30
0.0
 10
289.754807548
 20
30.4372509761
 30
0.0
 10
290.6340076588
 20
30.4372509761
 30
0.0
 10
290.6340076588
 20
30.4372509761
 30
0.0
  0
SPLINE
  5
243
330
227
100
AcDbEntity
  8
0
  6
Continuous
 62
     7
100
AcDbSpline
 70
     3
 71
     3
 72
    14
 73
    10
 74
     0
 42
0.000000001
 43
0.0000001
 40
0.0
 40
0.0
 40
0.0
 40
0.0
 40
1.0
 40
1.0
 40
1.0
 40
2.0
 40
2.0
 40
2.0
 40
3.0
 40
3.0
 40
3.0
 40
3.0
 10
289.7668460076
 20
30.6047425882
 30
0.0
 10
289.7944559531
 20
30.7696171439
 30
0.0
 10
289.9222991601
 20
30.8926187965
 30
0.0
 10
290.0945014738
 20
30.8926187965
 30
0.0
 10
290.2716761948
 20
30.8926187965
 30
0.0
 10
290.3851255914
 20
30.7769449019
 30
0.0
 10
290.4123429784
 20
30.6047425882
 30
0.0
 10
290.4123429784
 20
30.6047425882
 30
0.0
 10
289.7668460076
 20
30.6047425882
 30
0.0
 10
289.7668460076
 20
30.6047425882
 30
0.0
  0
SPLINE
  5
244
330
227
100
AcDbEntity
  8
0
  6
Continuous
 62
     7
100
AcDbSpline
 70
     3
 71
     3
 72
    20
 73
    16
 74
     0
 42
0.000000001
 43
0.0000001
 40
0.0
 40
0.0
 40
0.0
 40
0.0
 40
1.0
 40
1.0
 40
1.0
 40
2.0
 40
2.0
 40
2.0
 40
3.0
 40
3.0
 40
3.0
 40
4.0
 40
4.0
 40
4.0
 40
5.0
 40
5.0
 40
5.0
 40
5.0
 10
292.658039109
 20
30.8141071033
 30
0.0
 10
292.658039109
 20
30.8141071033
 30
0.0
 10
293.0691786756
 20
30.311632267
 30
0.0
 10
293.0691786756
 20
30.311632267
 30
0.0
 10
292.9531122225
 20
30.1959583723
 30
0.0
 10
292.815324201
 20
30.0656289617
 30
0.0
 10
292.6433835929
 20
30.0656289617
 30
0.0
 10
292.4659471664
 20
30.0656289617
 30
0.0
 10
292.2984555542
 20
30.2299801061
 30
0.0
 10
292.2984555542
 20
30.4068931214
 30
0.0
 10
292.2984555542
 20
30.5848529592
 30
0.0
 10
292.5082126279
 20
30.7109950796
 30
0.0
 10
292.6357941293
 20
30.798928176
 30
0.0
 10
292.6357941293
 20
30.798928176
 30
0.0
 10
292.658039109
 20
30.8141071033
 30
0.0
 10
292.658039109
 20
30.8141071033
 30
0.0
  0
SPLINE
  5
245
330
227
100
AcDbEntity
  8
0
  6
Continuous
 62
     7
100
AcDbSpline
 70
     3
 71
     3
 72
    23
 73
    19
 74
     0
 42
0.000000001
 43
0.0000001
 40
0.0
 40
0.0
 40
0.0
 40
0.0
 40
1.0
 40
1.0
 40
1.0
 40
2.0
 40
2.0
 40
2.0
 40
3.0
 40
3.0
 40
3.0
 40
4.0
 40
4.0
 40
4.0
 40
5.0
 40
5.0
 40
5.0
 40
6.0
 40
6.0
 40
6.0
 40
6.0
 10
292.7073706229
 20
31.1051237794
 30
0.0
 10
292.7073706229
 20
31.1051237794
 30
0.0
 10
292.6457389437
 20
31.1836354726
 30
0.0
 10
292.6457389437
 20
31.1836354726
 30
0.0
 10
292.5918275811
 20
31.2522023513
 30
0.0
 10
292.5350374564
 20
31.3212926413
 30
0.0
 10
292.5350374564
 20
31.4149832618
 30
0.0
 10
292.5350374564
 20
31.5337976241
 30
0.0
 10
292.6309525749
 20
31.6112624947
 30
0.0
 10
292.7419157679
 20
31.6112624947
 30
0.0
 10
292.8651791262
 20
31.6112624947
 30
0.0
 10
292.9584771882
 20
31.5400785596
 30
0.0
 10
292.9584771882
 20
31.4097491489
 30
0.0
 10
292.9584771882
 20
31.2747090366
 30
0.0
 10
292.8303722755
 20
31.1982909886
 30
0.0
 10
292.7368125078
 20
31.124489997
 30
0.0
 10
292.7368125078
 20
31.124489997
 30
0.0
 10
292.7073706229
 20
31.1051237794
 30
0.0
 10
292.7073706229
 20
31.1051237794
 30
0.0
  0
SPLINE
  5
246
330
227
100
AcDbEntity
  8
0
  6
Continuous
 62
     7
100
AcDbSpline
 70
     3
 71
     3
 72
    50
 73
    46
 74
     0
 42
0.000000001
 43
0.0000001
 40
0.0
 40
0.0
 40
0.0
 40
0.0
 40
1.0
 40
1.0
 40
1.0
 40
2.0
 40
2.0
 40
2.0
 40
3.0
 40
3.0
 40
3.0
 40
4.0
 40
4.0
 40
4.0
 40
5.0
 40
5.0
 40
5.0
 40
6.0
 40
6.0
 40
6.0
 40
7.0
 40
7.0
 40
7.0
 40
8.0
 40
8.0
 40
8.0
 40
9.0
 40
9.0
 40
9.0
 40
10.0
 40
10.0
 40
10.0
 40
11.0
 40
11.0
 40
11.0
 40
12.0
 40
12.0
 40
12.0
 40
13.0
 40
13.0
 40
13.0
 40
14.0
 40
14.0
 40
14.0
 40
15.0
 40
15.0
 40
15.0
 40
15.0
 10
293.4095268656
 20
29.8981373495
 30
0.0
 10
293.4095268656
 20
29.8981373495
 30
0.0
 10
293.6949168703
 20
29.8981373495
 30
0.0
 10
293.6949168703
 20
29.8981373495
 30
0.0
 10
293.6949168703
 20
29.8981373495
 30
0.0
 10
293.3625507025
 20
30.3090152105
 30
0.0
 10
293.3625507025
 20
30.3090152105
 30
0.0
 10
293.3625507025
 20
30.3090152105
 30
0.0
 10
293.5890569373
 20
30.5749081448
 30
0.0
 10
293.5890569373
 20
30.5749081448
 30
0.0
 10
293.5890569373
 20
30.5749081448
 30
0.0
 10
293.44080069
 20
30.7277442408
 30
0.0
 10
293.44080069
 20
30.7277442408
 30
0.0
 10
293.44080069
 20
30.7277442408
 30
0.0
 10
293.2248935338
 20
30.4765068226
 30
0.0
 10
293.2248935338
 20
30.4765068226
 30
0.0
 10
293.2248935338
 20
30.4765068226
 30
0.0
 10
292.8378308864
 20
30.944436514
 30
0.0
 10
292.8378308864
 20
30.944436514
 30
0.0
 10
292.9932840389
 20
31.0585401748
 30
0.0
 10
293.1755620199
 20
31.1982909886
 30
0.0
 10
293.1755620199
 20
31.4076555038
 30
0.0
 10
293.1755620199
 20
31.6515651639
 30
0.0
 10
292.9735252628
 20
31.7949798568
 30
0.0
 10
292.7470190279
 20
31.7949798568
 30
0.0
 10
292.5028476622
 20
31.7949798568
 30
0.0
 10
292.318476036
 20
31.6442374059
 30
0.0
 10
292.318476036
 20
31.3877658748
 30
0.0
 10
292.318476036
 20
31.2302190772
 30
0.0
 10
292.4171390638
 20
31.0925619085
 30
0.0
 10
292.5224755854
 20
30.9815987154
 30
0.0
 10
292.5224755854
 20
30.9815987154
 30
0.0
 10
292.4069325437
 20
30.8978529094
 30
0.0
 10
292.4069325437
 20
30.8978529094
 30
0.0
 10
292.2292344114
 20
30.7696171439
 30
0.0
 10
292.0818941339
 20
30.6419047896
 30
0.0
 10
292.0818941339
 20
30.4047994762
 30
0.0
 10
292.0818941339
 20
30.084471768
 30
0.0
 10
292.3404593101
 20
29.8583580917
 30
0.0
 10
292.6508422038
 20
29.8583580917
 30
0.0
 10
292.8697589749
 20
29.8583580917
 30
0.0
 10
293.0669541777
 20
29.9834533895
 30
0.0
 10
293.2072284028
 20
30.1493747677
 30
0.0
 10
293.2072284028
 20
30.1493747677
 30
0.0
 10
293.4095268656
 20
29.8981373495
 30
0.0
 10
293.4095268656
 20
29.8981373495
 30
0.0
  0
LWPOLYLINE
  5
247
330
227
100
AcDbEntity
  8
0
  6
Continuous
 62
     7
100
AcDbPolyline
 90
        2
 70
     0
 43
0.2
 10
295.3449709553
 20
31.7546771876
 10
295.113623166
 20
31.7546771876
  0
LWPOLYLINE
  5
248
330
227
100
AcDbEntity
  8
0
  6
Continuous
 62
     7
100
AcDbPolyline
 90
        2
 70
     0
 43
0.2
 10
295.113623166
 20
31.7546771876
 10
295.113623166
 20
29.8976139383
  0
LWPOLYLINE
  5
249
330
227
100
AcDbEntity
  8
0
  6
Continuous
 62
     7
100
AcDbPolyline
 90
        2
 70
     0
 43
0.2
 10
295.113623166
 20
29.8976139383
 10
295.908946618
 20
29.8976139383
  0
LWPOLYLINE
  5
24A
330
227
100
AcDbEntity
  8
0
  6
Continuous
 62
     7
100
AcDbPolyline
 90
        2
 70
     0
 43
0.2
 10
295.908946618
 20
29.8976139383
 10
295.908946618
 20
30.1095955098
  0
LWPOLYLINE
  5
24B
330
227
100
AcDbEntity
  8
0
  6
Continuous
 62
     7
100
AcDbPolyline
 90
        2
 70
     0
 43
0.2
 10
295.908946618
 20
30.1095955098
 10
295.3449709553
 20
30.1095955098
  0
LWPOLYLINE
  5
24C
330
227
100
AcDbEntity
  8
0
  6
Continuous
 62
     7
100
AcDbPolyline
 90
        2
 70
     0
 43
0.2
 10
295.3449709553
 20
30.1095955098
 10
295.3449709553
 20
31.7546771876
  0
LWPOLYLINE
  5
24D
330
227
100
AcDbEntity
  8
0
  6
Continuous
 62
     7
100
AcDbPolyline
 90
        2
 70
     0
 43
0.2
 10
297.5880500295
 20
31.0501655941
 10
297.3669087603
 20
31.0501655941
  0
LWPOLYLINE
  5
24E
330
227
100
AcDbEntity
  8
0
  6
Continuous
 62
     7
100
AcDbPolyline
 90
        2
 70
     0
 43
0.2
 10
297.3669087603
 20
31.0501655941
 10
297.3669087603
 20
29.8981373495
  0
LWPOLYLINE
  5
24F
330
227
100
AcDbEntity
  8
0
  6
Continuous
 62
     7
100
AcDbPolyline
 90
        2
 70
     0
 43
0.2
 10
297.3669087603
 20
29.8981373495
 10
297.5880500295
 20
29.8981373495
  0
LWPOLYLINE
  5
250
330
227
100
AcDbEntity
  8
0
  6
Continuous
 62
     7
100
AcDbPolyline
 90
        2
 70
     0
 43
0.2
 10
297.5880500295
 20
29.8981373495
 10
297.5880500295
 20
31.0501655941
  0
LWPOLYLINE
  5
251
330
227
100
AcDbEntity
  8
0
  6
Continuous
 62
     7
100
AcDbPolyline
 90
        2
 70
     1
 43
0.2
 10
297.3250267523
 20
31.5801195231
 42
1.0
 10
297.6301937432
 20
31.5801195231
 42
1.0
  0
SPLINE
  5
252
330
227
100
AcDbEntity
  8
0
  6
Continuous
 62
     7
100
AcDbSpline
 70
     3
 71
     3
 72
    17
 73
    13
 74
     0
 42
0.000000001
 43
0.0000001
 40
0.0
 40
0.0
 40
0.0
 40
0.0
 40
1.0
 40
1.0
 40
1.0
 40
2.0
 40
2.0
 40
2.0
 40
3.0
 40
3.0
 40
3.0
 40
4.0
 40
4.0
 40
4.0
 40
4.0
 10
299.7183339711
 20
30.0556841472
 30
0.0
 10
299.4843691254
 20
30.0556841472
 30
0.0
 10
299.3540397147
 20
30.2577209043
 30
0.0
 10
299.3540397147
 20
30.4738897662
 30
0.0
 10
299.3540397147
 20
30.6884883942
 30
0.0
 10
299.4898649439
 20
30.8873846836
 30
0.0
 10
299.7183339711
 20
30.8873846836
 30
0.0
 10
299.9577946353
 20
30.8873846836
 30
0.0
 10
300.0933581588
 20
30.6984332087
 30
0.0
 10
300.0933581588
 20
30.4738897662
 30
0.0
 10
300.0933581588
 20
30.2477760898
 30
0.0
 10
299.9601499861
 20
30.0556841472
 30
0.0
 10
299.7183339711
 20
30.0556841472
 30
0.0
  0
SPLINE
  5
253
330
227
100
AcDbEntity
  8
0
  6
Continuous
 62
     7
100
AcDbSpline
 70
     3
 71
     3
 72
    50
 73
    46
 74
     0
 42
0.000000001
 43
0.0000001
 40
0.0
 40
0.0
 40
0.0
 40
0.0
 40
1.0
 40
1.0
 40
1.0
 40
2.0
 40
2.0
 40
2.0
 40
3.0
 40
3.0
 40
3.0
 40
4.0
 40
4.0
 40
4.0
 40
5.0
 40
5.0
 40
5.0
 40
6.0
 40
6.0
 40
6.0
 40
7.0
 40
7.0
 40
7.0
 40
8.0
 40
8.0
 40
8.0
 40
9.0
 40
9.0
 40
9.0
 40
10.0
 40
10.0
 40
10.0
 40
11.0
 40
11.0
 40
11.0
 40
12.0
 40
12.0
 40
12.0
 40
13.0
 40
13.0
 40
13.0
 40
14.0
 40
14.0
 40
14.0
 40
15.0
 40
15.0
 40
15.0
 40
15.0
 10
300.3024609683
 20
31.0506890054
 30
0.0
 10
300.3024609683
 20
31.0506890054
 30
0.0
 10
300.0807962879
 20
31.0506890054
 30
0.0
 10
300.0807962879
 20
31.0506890054
 30
0.0
 10
300.0807962879
 20
31.0506890054
 30
0.0
 10
300.0807962879
 20
30.8533629499
 30
0.0
 10
300.0807962879
 20
30.8533629499
 30
0.0
 10
300.0807962879
 20
30.8533629499
 30
0.0
 10
300.0760855863
 20
30.8533629499
 30
0.0
 10
300.0760855863
 20
30.8533629499
 30
0.0
 10
299.9847503166
 20
30.9962542315
 30
0.0
 10
299.8468314423
 20
31.0847107391
 30
0.0
 10
299.6741057173
 20
31.0847107391
 30
0.0
 10
299.3417395495
 20
31.0847107391
 30
0.0
 10
299.13263674
 20
30.7968345308
 30
0.0
 10
299.13263674
 20
30.4812175242
 30
0.0
 10
299.13263674
 20
30.1514684129
 30
0.0
 10
299.3297010898
 20
29.8583580917
 30
0.0
 10
299.684573943
 20
29.8583580917
 30
0.0
 10
299.8468314423
 20
29.8583580917
 30
0.0
 10
299.9868439618
 20
29.9468145993
 30
0.0
 10
300.0760855863
 20
30.0776674213
 30
0.0
 10
300.0760855863
 20
30.0776674213
 30
0.0
 10
300.0807962879
 20
30.0776674213
 30
0.0
 10
300.0807962879
 20
30.0776674213
 30
0.0
 10
300.0807962879
 20
30.0776674213
 30
0.0
 10
300.0807962879
 20
29.8583580917
 30
0.0
 10
300.0807962879
 20
29.8583580917
 30
0.0
 10
300.0807962879
 20
29.6217761896
 30
0.0
 10
300.0242678688
 20
29.4349183598
 30
0.0
 10
299.7510471766
 20
29.4349183598
 30
0.0
 10
299.5487487138
 20
29.4349183598
 30
0.0
 10
299.4061191379
 20
29.5532093108
 30
0.0
 10
299.4061191379
 20
29.7594333583
 30
0.0
 10
299.4061191379
 20
29.7594333583
 30
0.0
 10
299.1844544575
 20
29.7594333583
 30
0.0
 10
299.1844544575
 20
29.7594333583
 30
0.0
 10
299.1894268647
 20
29.4349183598
 30
0.0
 10
299.4205129483
 20
29.2381157155
 30
0.0
 10
299.7408406565
 20
29.2381157155
 30
0.0
 10
300.1888807189
 20
29.2381157155
 30
0.0
 10
300.3024609683
 20
29.5233748674
 30
0.0
 10
300.3024609683
 20
29.9201206236
 30
0.0
 10
300.3024609683
 20
29.9201206236
 30
0.0
 10
300.3024609683
 20
31.0506890054
 30
0.0
 10
300.3024609683
 20
31.0506890054
 30
0.0
  0
SPLINE
  5
254
330
227
100
AcDbEntity
  8
0
  6
Continuous
 62
     7
100
AcDbSpline
 70
     3
 71
     3
 72
    44
 73
    40
 74
     0
 42
0.000000001
 43
0.0000001
 40
0.0
 40
0.0
 40
0.0
 40
0.0
 40
1.0
 40
1.0
 40
1.0
 40
2.0
 40
2.0
 40
2.0
 40
3.0
 40
3.0
 40
3.0
 40
4.0
 40
4.0
 40
4.0
 40
5.0
 40
5.0
 40
5.0
 40
6.0
 40
6.0
 40
6.0
 40
7.0
 40
7.0
 40
7.0
 40
8.0
 40
8.0
 40
8.0
 40
9.0
 40
9.0
 40
9.0
 40
10.0
 40
10.0
 40
10.0
 40
11.0
 40
11.0
 40
11.0
 40
12.0
 40
12.0
 40
12.0
 40
13.0
 40
13.0
 40
13.0
 40
13.0
 10
301.8713863037
 20
32.0357490492
 30
0.0
 10
301.8713863037
 20
32.0357490492
 30
0.0
 10
301.8713863037
 20
29.8976139383
 30
0.0
 10
301.8713863037
 20
29.8976139383
 30
0.0
 10
301.8713863037
 20
29.8976139383
 30
0.0
 10
302.0927892785
 20
29.8976139383
 30
0.0
 10
302.0927892785
 20
29.8976139383
 30
0.0
 10
302.0927892785
 20
29.8976139383
 30
0.0
 10
302.0927892785
 20
30.4273061616
 30
0.0
 10
302.0927892785
 20
30.4273061616
 30
0.0
 10
302.0927892785
 20
30.637194088
 30
0.0
 10
302.0927892785
 20
30.8879080949
 30
0.0
 10
302.3780484304
 20
30.8879080949
 30
0.0
 10
302.6049472237
 20
30.8879080949
 30
0.0
 10
302.631902905
 20
30.7549616278
 30
0.0
 10
302.631902905
 20
30.5586823948
 30
0.0
 10
302.631902905
 20
30.5586823948
 30
0.0
 10
302.631902905
 20
29.8976139383
 30
0.0
 10
302.631902905
 20
29.8976139383
 30
0.0
 10
302.631902905
 20
29.8976139383
 30
0.0
 10
302.8538292911
 20
29.8976139383
 30
0.0
 10
302.8538292911
 20
29.8976139383
 30
0.0
 10
302.8538292911
 20
29.8976139383
 30
0.0
 10
302.8538292911
 20
30.5848529592
 30
0.0
 10
302.8538292911
 20
30.5848529592
 30
0.0
 10
302.8538292911
 20
30.8654014095
 30
0.0
 10
302.7698217794
 20
31.0852341504
 30
0.0
 10
302.4447833696
 20
31.0852341504
 30
0.0
 10
302.3050325557
 20
31.0852341504
 30
0.0
 10
302.1668519757
 20
31.0187609169
 30
0.0
 10
302.0974999801
 20
30.8957592642
 30
0.0
 10
302.0974999801
 20
30.8957592642
 30
0.0
 10
302.0927892785
 20
30.8957592642
 30
0.0
 10
302.0927892785
 20
30.8957592642
 30
0.0
 10
302.0927892785
 20
30.8957592642
 30
0.0
 10
302.0927892785
 20
32.0357490492
 30
0.0
 10
302.0927892785
 20
32.0357490492
 30
0.0
 10
302.0927892785
 20
32.0357490492
 30
0.0
 10
301.8713863037
 20
32.0357490492
 30
0.0
 10
301.8713863037
 20
32.0357490492
 30
0.0
  0
LWPOLYLINE
  5
255
330
227
100
AcDbEntity
  8
0
  6
Continuous
 62
     7
100
AcDbPolyline
 90
        2
 70
     0
 43
0.2
 10
304.6936199679
 20
30.8434181354
 10
304.9100505355
 20
30.8434181354
  0
LWPOLYLINE
  5
256
330
227
100
AcDbEntity
  8
0
  6
Continuous
 62
     7
100
AcDbPolyline
 90
        2
 70
     0
 43
0.2
 10
304.9100505355
 20
30.8434181354
 10
304.9100505355
 20
31.0501655941
  0
LWPOLYLINE
  5
257
330
227
100
AcDbEntity
  8
0
  6
Continuous
 62
     7
100
AcDbPolyline
 90
        2
 70
     0
 43
0.2
 10
304.9100505355
 20
31.0501655941
 10
304.6936199679
 20
31.0501655941
  0
LWPOLYLINE
  5
258
330
227
100
AcDbEntity
  8
0
  6
Continuous
 62
     7
100
AcDbPolyline
 90
        2
 70
     0
 43
0.2
 10
304.6936199679
 20
31.0501655941
 10
304.6936199679
 20
31.4908778985
  0
LWPOLYLINE
  5
259
330
227
100
AcDbEntity
  8
0
  6
Continuous
 62
     7
100
AcDbPolyline
 90
        2
 70
     0
 43
0.2
 10
304.6936199679
 20
31.4908778985
 10
304.4719552875
 20
31.4908778985
  0
LWPOLYLINE
  5
25A
330
227
100
AcDbEntity
  8
0
  6
Continuous
 62
     7
100
AcDbPolyline
 90
        2
 70
     0
 43
0.2
 10
304.4719552875
 20
31.4908778985
 10
304.4719552875
 20
31.0501655941
  0
LWPOLYLINE
  5
25B
330
227
100
AcDbEntity
  8
0
  6
Continuous
 62
     7
100
AcDbPolyline
 90
        2
 70
     0
 43
0.2
 10
304.4719552875
 20
31.0501655941
 10
304.3513089857
 20
31.0501655941
  0
LWPOLYLINE
  5
25C
330
227
100
AcDbEntity
  8
0
  6
Continuous
 62
     7
100
AcDbPolyline
 90
        2
 70
     0
 43
0.2
 10
304.3513089857
 20
31.0501655941
 10
304.3513089857
 20
30.8434181354
  0
LWPOLYLINE
  5
25D
330
227
100
AcDbEntity
  8
0
  6
Continuous
 62
     7
100
AcDbPolyline
 90
        2
 70
     0
 43
0.2
 10
304.3513089857
 20
30.8434181354
 10
304.4719552875
 20
30.8434181354
  0
LWPOLYLINE
  5
25E
330
227
100
AcDbEntity
  8
0
  6
Continuous
 62
     7
100
AcDbPolyline
 90
        2
 70
     0
 43
0.2
 10
304.4719552875
 20
30.8434181354
 10
304.4719552875
 20
29.8976139383
  0
LWPOLYLINE
  5
25F
330
227
100
AcDbEntity
  8
0
  6
Continuous
 62
     7
100
AcDbPolyline
 90
        2
 70
     0
 43
0.2
 10
304.4719552875
 20
29.8976139383
 10
304.6936199679
 20
29.8976139383
  0
LWPOLYLINE
  5
260
330
227
100
AcDbEntity
  8
0
  6
Continuous
 62
     7
100
AcDbPolyline
 90
        2
 70
     0
 43
0.2
 10
304.6936199679
 20
29.8976139383
 10
304.6936199679
 20
30.8434181354
  0
SPLINE
  5
261
330
227
100
AcDbEntity
  8
0
  6
Continuous
 62
     7
100
AcDbSpline
 70
     3
 71
     3
 72
    20
 73
    16
 74
     0
 42
0.000000001
 43
0.0000001
 40
0.0
 40
0.0
 40
0.0
 40
0.0
 40
1.0
 40
1.0
 40
1.0
 40
2.0
 40
2.0
 40
2.0
 40
3.0
 40
3.0
 40
3.0
 40
4.0
 40
4.0
 40
4.0
 40
5.0
 40
5.0
 40
5.0
 40
5.0
 10
292.4756302752
 20
40.2585403816
 30
0.0
 10
292.4756302752
 20
40.2585403816
 30
0.0
 10
294.7919869297
 20
37.4289789594
 30
0.0
 10
294.7919869297
 20
37.4289789594
 30
0.0
 10
294.1403398763
 20
36.7768084947
 30
0.0
 10
293.3634666722
 20
36.040892224
 30
0.0
 10
292.3922770276
 20
36.040892224
 30
0.0
 10
291.3937391432
 20
36.040892224
 30
0.0
 10
290.4504211496
 20
36.9704706712
 30
0.0
 10
290.4504211496
 20
37.9696628198
 30
0.0
 10
290.4504211496
 20
38.9688549683
 30
0.0
 10
291.6292742227
 20
39.675460207
 30
0.0
 10
292.350796683
 20
40.1753179869
 30
0.0
 10
292.350796683
 20
40.1753179869
 30
0.0
 10
292.4756302752
 20
40.2585403816
 30
0.0
 10
292.4756302752
 20
40.2585403816
 30
0.0
  0
SPLINE
  5
262
330
227
100
AcDbEntity
  8
0
  6
Continuous
 62
     7
100
AcDbSpline
 70
     3
 71
     3
 72
    23
 73
    19
 74
     0
 42
0.000000001
 43
0.0000001
 40
0.0
 40
0.0
 40
0.0
 40
0.0
 40
1.0
 40
1.0
 40
1.0
 40
2.0
 40
2.0
 40
2.0
 40
3.0
 40
3.0
 40
3.0
 40
4.0
 40
4.0
 40
4.0
 40
5.0
 40
5.0
 40
5.0
 40
6.0
 40
6.0
 40
6.0
 40
6.0
 10
292.7530382578
 20
41.8962943014
 30
0.0
 10
292.7530382578
 20
41.8962943014
 30
0.0
 10
292.4065399852
 20
42.3396236622
 30
0.0
 10
292.4065399852
 20
42.3396236622
 30
0.0
 10
292.1007369402
 20
42.7277331322
 30
0.0
 10
291.7818486131
 20
43.1162351606
 30
0.0
 10
291.7818486131
 20
43.6431794747
 30
0.0
 10
291.7818486131
 20
44.3093511913
 30
0.0
 10
292.3231867376
 20
44.7530731106
 30
0.0
 10
292.9470929927
 20
44.7530731106
 30
0.0
 10
293.6408746548
 20
44.7530731106
 30
0.0
 10
294.1680806745
 20
44.3508315359
 30
0.0
 10
294.1680806745
 20
43.6158312349
 30
0.0
 10
294.1680806745
 20
42.8525667243
 30
0.0
 10
293.4468199198
 20
42.4224534985
 30
0.0
 10
292.9197447529
 20
42.0067340831
 30
0.0
 10
292.9197447529
 20
42.0067340831
 30
0.0
 10
292.7530382578
 20
41.8962943014
 30
0.0
 10
292.7530382578
 20
41.8962943014
 30
0.0
  0
SPLINE
  5
263
330
227
100
AcDbEntity
  8
0
  6
Continuous
 62
     7
100
AcDbSpline
 70
     3
 71
     3
 72
    50
 73
    46
 74
     0
 42
0.000000001
 43
0.0000001
 40
0.0
 40
0.0
 40
0.0
 40
0.0
 40
1.0
 40
1.0
 40
1.0
 40
2.0
 40
2.0
 40
2.0
 40
3.0
 40
3.0
 40
3.0
 40
4.0
 40
4.0
 40
4.0
 40
5.0
 40
5.0
 40
5.0
 40
6.0
 40
6.0
 40
6.0
 40
7.0
 40
7.0
 40
7.0
 40
8.0
 40
8.0
 40
8.0
 40
9.0
 40
9.0
 40
9.0
 40
10.0
 40
10.0
 40
10.0
 40
11.0
 40
11.0
 40
11.0
 40
12.0
 40
12.0
 40
12.0
 40
13.0
 40
13.0
 40
13.0
 40
14.0
 40
14.0
 40
14.0
 40
15.0
 40
15.0
 40
15.0
 40
15.0
 10
296.7066254207
 20
35.0977050832
 30
0.0
 10
296.7066254207
 20
35.0977050832
 30
0.0
 10
298.3158534252
 20
35.0977050832
 30
0.0
 10
298.3158534252
 20
35.0977050832
 30
0.0
 10
298.3158534252
 20
35.0977050832
 30
0.0
 10
296.4428261316
 20
37.4148468547
 30
0.0
 10
296.4428261316
 20
37.4148468547
 30
0.0
 10
296.4428261316
 20
37.4148468547
 30
0.0
 10
297.7191645571
 20
38.9123265492
 30
0.0
 10
297.7191645571
 20
38.9123265492
 30
0.0
 10
297.7191645571
 20
38.9123265492
 30
0.0
 10
296.8869406094
 20
39.7733381178
 30
0.0
 10
296.8869406094
 20
39.7733381178
 30
0.0
 10
296.8869406094
 20
39.7733381178
 30
0.0
 10
295.666345486
 20
38.3580339954
 30
0.0
 10
295.666345486
 20
38.3580339954
 30
0.0
 10
295.666345486
 20
38.3580339954
 30
0.0
 10
293.4884311172
 20
40.9934098298
 30
0.0
 10
293.4884311172
 20
40.9934098298
 30
0.0
 10
294.3620045567
 20
41.6314481897
 30
0.0
 10
295.3886757978
 20
42.4224534985
 30
0.0
 10
295.3886757978
 20
43.6013065716
 30
0.0
 10
295.3886757978
 20
44.9749994966
 30
0.0
 10
294.250779658
 20
45.7794826461
 30
0.0
 10
292.9754880551
 20
45.7794826461
 30
0.0
 10
291.6020568357
 20
45.7794826461
 30
0.0
 10
290.561122637
 20
44.9332574464
 30
0.0
 10
290.561122637
 20
43.4906050842
 30
0.0
 10
290.561122637
 20
42.6030303928
 30
0.0
 10
291.1164620134
 20
41.8261571888
 30
0.0
 10
291.7126274703
 20
41.2017275224
 30
0.0
 10
291.7126274703
 20
41.2017275224
 30
0.0
 10
291.0607187112
 20
40.730133952
 30
0.0
 10
291.0607187112
 20
40.730133952
 30
0.0
 10
290.0621808268
 20
40.0088731973
 30
0.0
 10
289.229302615
 20
39.2876124426
 30
0.0
 10
289.229302615
 20
37.9560541263
 30
0.0
 10
289.229302615
 20
36.1523788283
 30
0.0
 10
290.6863487876
 20
34.8757786972
 30
0.0
 10
292.433888225
 20
34.8757786972
 30
0.0
 10
293.6687463059
 20
34.8757786972
 30
0.0
 10
294.7781165305
 20
35.5839541697
 30
0.0
 10
295.5689909865
 20
36.5124857944
 30
0.0
 10
295.5689909865
 20
36.5124857944
 30
0.0
 10
296.7066254207
 20
35.0977050832
 30
0.0
 10
296.7066254207
 20
35.0977050832
 30
0.0
  0
LINE
  5
264
330
227
100
AcDbEntity
  8
0
  6
Continuous
 62
     7
100
AcDbLine
 10
282.5094867957
 20
33.0715799879
 30
0.0
 11
304.9233975233
 21
33.0715799879
 31
0.0
  0
LINE
  5
265
330
227
100
AcDbEntity
  8
0
  6
Continuous
 62
     7
100
AcDbLine
 10
304.9233975233
 20
33.0715799879
 30
0.0
 11
304.9233975233
 21
55.4854907155
 31
0.0
  0
LINE
  5
266
330
227
100
AcDbEntity
  8
0
  6
Continuous
 62
     7
100
AcDbLine
 10
304.9233975233
 20
55.4854907155
 30
0.0
 11
282.5094867957
 21
55.4854907155
 31
0.0
  0
LINE
  5
267
330
227
100
AcDbEntity
  8
0
  6
Continuous
 62
     7
100
AcDbLine
 10
282.5094867957
 20
55.4854907155
 30
0.0
 11
282.5094867957
 21
33.0715799879
 31
0.0
  0
ENDBLK
  5
268
330
227
100
AcDbEntity
  8
0
  6
ByBlock
 62
     0
100
AcDbBlockEnd
  0
BLOCK
  5
269
330
228
100
AcDbEntity
  8
0
100
AcDbBlockBegin
  2
PROIEZIONE_EU_BL0
 70
     0
 10
294.8903296883
 20
67.9868032155
 30
0.0
  3
PROIEZIONE_EU_BL0
  1

  0
LWPOLYLINE
  5
26A
330
228
100
AcDbEntity
  8
DEFAULT_1
  6
CENTER
 62
     7
100
AcDbPolyline
 90
        2
 70
     0
 43
0.25
 10
301.01695035
 20
72.9864973474
 10
301.0169913323
 20
62.9871090837
  0
LWPOLYLINE
  5
26B
330
228
100
AcDbEntity
  8
DEFAULT_1
  6
CENTER
 62
     7
100
AcDbPolyline
 90
        2
 70
     0
 43
0.25
 10
307.016980175
 20
67.9870743507
 10
282.7636792016
 20
67.9868036903
  0
LWPOLYLINE
  5
26C
330
228
100
AcDbEntity
  8
0
  6
Continuous
 62
     7
100
AcDbPolyline
 90
        2
 70
     1
 43
0.25
 10
297.4698401742
 20
67.9682554613
 42
1.0
 10
304.5761692728
 20
67.9682554613
 42
1.0
  0
LWPOLYLINE
  5
26D
330
228
100
AcDbEntity
  8
0
  6
Continuous
 62
     7
100
AcDbPolyline
 90
        2
 70
     1
 43
0.25
 10
299.0195840025
 20
67.9861535059
 42
1.0
 10
303.0313357526
 20
67.9861535059
 42
1.0
  0
LWPOLYLINE
  5
26E
330
228
100
AcDbEntity
  8
0
  6
Continuous
 62
     7
100
AcDbPolyline
 90
        2
 70
     0
 43
0.25
 10
295.016977969
 20
71.5620067108
 10
295.0169776144
 20
64.4618038025
  0
LWPOLYLINE
  5
26F
330
228
100
AcDbEntity
  8
0
  6
Continuous
 62
     7
100
AcDbPolyline
 90
        2
 70
     0
 43
0.25
 10
295.0170060508
 20
64.4617753661
 10
285.0224487797
 20
65.9818687789
  0
LWPOLYLINE
  5
270
330
228
100
AcDbEntity
  8
0
  6
Continuous
 62
     7
100
AcDbPolyline
 90
        2
 70
     0
 43
0.25
 10
285.0201387941
 20
65.9811912374
 10
285.01747189
 20
69.9868298488
  0
LWPOLYLINE
  5
271
330
228
100
AcDbEntity
  8
0
  6
Continuous
 62
     7
100
AcDbPolyline
 90
        2
 70
     0
 43
0.25
 10
285.0174636139
 20
69.9868215727
 10
295.0172068512
 20
71.5619787928
  0
ENDBLK
  5
272
330
228
100
AcDbEntity
  8
0
  6
ByBlock
 62
     0
100
AcDbBlockEnd
  0
ENDSEC
  0
SECTION
  2
ENTITIES
  0
LINE
  5
294
330
1B
100
AcDbEntity
 67
     1
  8
0
  6
Continuous
 62
     7
100
AcDbLine
 10
0.0
 20
0.0
 30
0.0
 11
420.0
 21
0.0
 31
0.0
  0
LINE
  5
295
330
1B
100
AcDbEntity
 67
     1
  8
0
  6
Continuous
 62
     7
100
AcDbLine
 10
420.0
 20
0.0
 30
0.0
 11
420.0
 21
297.0
 31
0.0
  0
LINE
  5
296
330
1B
100
AcDbEntity
 67
     1
  8
0
  6
Continuous
 62
     7
100
AcDbLine
 10
0.0
 20
297.0
 30
0.0
 11
420.0
 21
297.0
 31
0.0
  0
LINE
  5
297
330
1B
100
AcDbEntity
 67
     1
  8
0
  6
Continuous
 62
     7
100
AcDbLine
 10
0.0
 20
0.0
 30
0.0
 11
0.0
 21
297.0
 31
0.0
  0
LWPOLYLINE
  5
298
330
1B
100
AcDbEntity
 67
     1
  8
0
  6
Continuous
 62
     7
100
AcDbPolyline
 90
        2
 70
     0
 43
0.5
 10
410.0
 20
10.0318435754
 10
410.0
 20
287.0
  0
LWPOLYLINE
  5
299
330
1B
100
AcDbEntity
 67
     1
  8
0
  6
Continuous
 62
     7
100
AcDbPolyline
 90
        2
 70
     0
 43
0.5
 10
10.0536312849
 20
10.0318435754
 10
10.0536312849
 20
287.0
  0
LWPOLYLINE
  5
29A
330
1B
100
AcDbEntity
 67
     1
  8
0
  6
Continuous
 62
     7
100
AcDbPolyline
 90
        2
 70
     0
 43
0.5
 10
10.0536312849
 20
10.0318435754
 10
410.0
 20
10.0318435754
  0
LWPOLYLINE
  5
29B
330
1B
100
AcDbEntity
 67
     1
  8
0
  6
Continuous
 62
     7
100
AcDbPolyline
 90
        2
 70
     0
 43
0.1
 10
210.0
 20
10.0
 10
210.0
 20
0.0
  0
LWPOLYLINE
  5
29C
330
1B
100
AcDbEntity
 67
     1
  8
0
  6
Continuous
 62
     7
100
AcDbPolyline
 90
        2
 70
     0
 43
0.1
 10
210.0
 20
287.0
 10
210.0
 20
297.0
  0
LWPOLYLINE
  5
29D
330
1B
100
AcDbEntity
 67
     1
  8
0
  6
Continuous
 62
     7
100
AcDbPolyline
 90
        2
 70
     0
 43
0.1
 10
410.0
 20
148.5
 10
420.0
 20
148.5
  0
LWPOLYLINE
  5
29E
330
1B
100
AcDbEntity
 67
     1
  8
0
  6
Continuous
 62
     7
100
AcDbPolyline
 90
        2
 70
     0
 43
0.1
 10
10.0
 20
148.5
 10
0.0
 20
148.5
  0
LWPOLYLINE
  5
29F
330
1B
100
AcDbEntity
 67
     1
  8
0
  6
Continuous
 62
     7
100
AcDbPolyline
 90
        2
 70
     0
 43
0.5
 10
10.0536312849
 20
287.0
 10
410.0
 20
287.0
  0
LWPOLYLINE
  5
2A0
330
1B
100
AcDbEntity
 67
     1
  8
0
  6
Continuous
 62
     7
100
AcDbPolyline
 90
        2
 70
     0
 43
0.1
 10
0.0
 20
290.0
 10
420.0
 20
290.0
  0
LWPOLYLINE
  5
2A1
330
1B
100
AcDbEntity
 67
     1
  8
0
  6
Continuous
 62
     7
100
AcDbPolyline
 90
        2
 70
     0
 43
0.1
 10
7.0536312849
 20
0.0
 10
7.0536312849
 20
297.0
  0
LWPOLYLINE
  5
2A2
330
1B
100
AcDbEntity
 67
     1
  8
0
  6
Continuous
 62
     7
100
AcDbPolyline
 90
        2
 70
     0
 43
0.1
 10
413.0
 20
0.0
 10
413.0
 20
297.0
  0
LWPOLYLINE
  5
2A3
330
1B
100
AcDbEntity
 67
     1
  8
0
  6
Continuous
 62
     7
100
AcDbPolyline
 90
        2
 70
     0
 43
0.1
 10
0.0
 20
7.0318435754
 10
420.0
 20
7.0318435754
  0
LWPOLYLINE
  5
2A4
330
1B
100
AcDbEntity
 67
     1
  8
0
  6
Continuous
 62
     7
100
AcDbPolyline
 90
        2
 70
     0
 43
0.1
 10
10.0
 20
202.9681564246
 10
0.0
 20
202.9681564246
  0
LINE
  5
2A5
330
1B
100
AcDbEntity
 67
     1
  8
0
  6
Continuous
 62
     7
100
AcDbLine
 10
0.0
 20
99.9681564246
 30
0.0
 11
7.0
 21
99.9681564246
 31
0.0
  0
LINE
  5
2A6
330
1B
100
AcDbEntity
 67
     1
  8
0
  6
Continuous
 62
     7
100
AcDbLine
 10
0.0
 20
199.9681564246
 30
0.0
 11
7.0
 21
199.9681564246
 31
0.0
  0
LWPOLYLINE
  5
2A7
330
1B
100
AcDbEntity
 67
     1
  8
0
  6
Continuous
 62
     7
100
AcDbPolyline
 90
        2
 70
     0
 43
0.1
 10
410.0
 20
210.0
 10
420.0
 20
210.0
  0
LINE
  5
2A8
330
1B
100
AcDbEntity
 67
     1
  8
0
  6
Continuous
 62
     7
100
AcDbLine
 10
413.0
 20
107.0
 30
0.0
 11
420.0
 21
107.0
 31
0.0
  0
LWPOLYLINE
  5
2A9
330
1B
100
AcDbEntity
 67
     1
  8
0
  6
Continuous
 62
     7
100
AcDbPolyline
 90
        2
 70
     0
 43
0.1
 10
123.0
 20
10.0
 10
123.0
 20
0.0
  0
LINE
  5
2AA
330
1B
100
AcDbEntity
 67
     1
  8
0
  6
Continuous
 62
     7
100
AcDbLine
 10
210.0
 20
0.0
 30
0.0
 11
210.0
 21
10.0
 31
0.0
  0
LINE
  5
2AB
330
1B
100
AcDbEntity
 67
     1
  8
0
  6
Continuous
 62
     7
100
AcDbLine
 10
313.0
 20
7.0
 30
0.0
 11
313.0
 21
0.0
 31
0.0
  0
LINE
  5
2AC
330
1B
100
AcDbEntity
 67
     1
  8
0
  6
Continuous
 62
     7
100
AcDbLine
 10
113.0
 20
7.0
 30
0.0
 11
113.0
 21
0.0
 31
0.0
  0
LWPOLYLINE
  5
2AD
330
1B
100
AcDbEntity
 67
     1
  8
0
  6
Continuous
 62
     7
100
AcDbPolyline
 90
        2
 70
     0
 43
0.1
 10
123.0
 20
287.0
 10
123.0
 20
297.0
  0
LINE
  5
2AE
330
1B
100
AcDbEntity
 67
     1
  8
0
  6
Continuous
 62
     7
100
AcDbLine
 10
210.0
 20
287.0
 30
0.0
 11
210.0
 21
297.0
 31
0.0
  0
LINE
  5
2AF
330
1B
100
AcDbEntity
 67
     1
  8
0
  6
Continuous
 62
     7
100
AcDbLine
 10
313.0
 20
297.0
 30
0.0
 11
313.0
 21
290.0
 31
0.0
  0
LINE
  5
2B0
330
1B
100
AcDbEntity
 67
     1
  8
0
  6
Continuous
 62
     7
100
AcDbLine
 10
113.0
 20
297.0
 30
0.0
 11
113.0
 21
290.0
 31
0.0
  0
MTEXT
  5
2B1
330
1B
100
AcDbEntity
 67
     1
  8
0
  6
Continuous
 62
     2
100
AcDbMText
 10
1.6467220993
 20
53.595027386
 30
0.0
 40
4.0
 41
3.4285714286
 46
0.0
 71
     1
 72
     1
  1
1
  7
TEXTSTYLE_2
 73
     1
 44
1.0
  0
MTEXT
  5
2B2
330
1B
100
AcDbEntity
 67
     1
  8
0
  6
Continuous
 62
     2
100
AcDbMText
 10
1.6467220993
 20
153.595027386
 30
0.0
 40
4.0
 41
4.7142857143
 46
0.0
 71
     1
 72
     1
  1
2
  7
TEXTSTYLE_2
 73
     1
 44
1.0
  0
MTEXT
  5
2B3
330
1B
100
AcDbEntity
 67
     1
  8
0
  6
Continuous
 62
     2
100
AcDbMText
 10
1.6467220993
 20
253.595027386
 30
0.0
 40
4.0
 41
4.2857142857
 46
0.0
 71
     1
 72
     1
  1
3
  7
TEXTSTYLE_2
 73
     1
 44
1.0
  0
MTEXT
  5
2B4
330
1B
100
AcDbEntity
 67
     1
  8
0
  6
Continuous
 62
     2
100
AcDbMText
 10
414.6467220993
 20
60.6268709614
 30
0.0
 40
4.0
 41
3.4285714286
 46
0.0
 71
     1
 72
     1
  1
1
  7
TEXTSTYLE_2
 73
     1
 44
1.0
  0
MTEXT
  5
2B5
330
1B
100
AcDbEntity
 67
     1
  8
0
  6
Continuous
 62
     2
100
AcDbMText
 10
414.6467220993
 20
160.6268709614
 30
0.0
 40
4.0
 41
4.7142857143
 46
0.0
 71
     1
 72
     1
  1
2
  7
TEXTSTYLE_2
 73
     1
 44
1.0
  0
MTEXT
  5
2B6
330
1B
100
AcDbEntity
 67
     1
  8
0
  6
Continuous
 62
     2
100
AcDbMText
 10
414.6467220993
 20
260.6268709614
 30
0.0
 40
4.0
 41
4.2857142857
 46
0.0
 71
     1
 72
     1
  1
3
  7
TEXTSTYLE_2
 73
     1
 44
1.0
  0
MTEXT
  5
2B7
330
1B
100
AcDbEntity
 67
     1
  8
0
  6
Continuous
 62
     2
100
AcDbMText
 10
362.154890719
 20
5.35876025
 30
0.0
 40
4.0
 41
3.6
 46
0.0
 71
     1
 72
     1
  1
A
  7
TEXTSTYLE_3
 73
     1
 44
1.0
  0
MTEXT
  5
2B8
330
1B
100
AcDbEntity
 67
     1
  8
0
  6
Continuous
 62
     2
100
AcDbMText
 10
262.154890719
 20
5.35876025
 30
0.0
 40
4.0
 41
3.6
 46
0.0
 71
     1
 72
     1
  1
B
  7
TEXTSTYLE_3
 73
     1
 44
1.0
  0
MTEXT
  5
2B9
330
1B
100
AcDbEntity
 67
     1
  8
0
  6
Continuous
 62
     2
100
AcDbMText
 10
162.154890719
 20
5.35876025
 30
0.0
 40
4.0
 41
3.6
 46
0.0
 71
     1
 72
     1
  1
C
  7
TEXTSTYLE_3
 73
     1
 44
1.0
  0
MTEXT
  5
2BA
330
1B
100
AcDbEntity
 67
     1
  8
0
  6
Continuous
 62
     2
100
AcDbMText
 10
55.7978688212
 20
5.5353441916
 30
0.0
 40
4.0
 41
3.6
 46
0.0
 71
     1
 72
     1
  1
D
  7
TEXTSTYLE_3
 73
     1
 44
1.0
  0
MTEXT
  5
2BB
330
1B
100
AcDbEntity
 67
     1
  8
0
  6
Continuous
 62
     2
100
AcDbMText
 10
362.154890719
 20
295.35876025
 30
0.0
 40
4.0
 41
3.6
 46
0.0
 71
     1
 72
     1
  1
A
  7
TEXTSTYLE_3
 73
     1
 44
1.0
  0
MTEXT
  5
2BC
330
1B
100
AcDbEntity
 67
     1
  8
0
  6
Continuous
 62
     2
100
AcDbMText
 10
262.154890719
 20
295.35876025
 30
0.0
 40
4.0
 41
3.6
 46
0.0
 71
     1
 72
     1
  1
B
  7
TEXTSTYLE_3
 73
     1
 44
1.0
  0
MTEXT
  5
2BD
330
1B
100
AcDbEntity
 67
     1
  8
0
  6
Continuous
 62
     2
100
AcDbMText
 10
162.154890719
 20
295.35876025
 30
0.0
 40
4.0
 41
3.6
 46
0.0
 71
     1
 72
     1
  1
C
  7
TEXTSTYLE_3
 73
     1
 44
1.0
  0
MTEXT
  5
2BE
330
1B
100
AcDbEntity
 67
     1
  8
0
  6
Continuous
 62
     2
100
AcDbMText
 10
53.9878834197
 20
295.579490177
 30
0.0
 40
4.0
 41
3.6
 46
0.0
 71
     1
 72
     1
  1
D
  7
TEXTSTYLE_3
 73
     1
 44
1.0
  0
VIEWPORT
  5
2BF
330
1B
100
AcDbEntity
 67
     1
  8
0
100
AcDbViewport
 10
0.0
 20
0.0
 30
0.0
 40
495.0770428015564
 41
350.0901945525292
 68
     1
 69
     1
 12
234.0175097276264
 22
148.5
 13
0.0
 23
0.0
 14
1.0
 24
1.0
 15
0.0
 25
0.0
 16
0.0
 26
0.0
 36
1.0
 17
0.0
 27
0.0
 37
0.0
 42
50.0
 43
0.0
 44
0.0
 45
350.0901945525292
 50
0.0
 51
0.0
 72
   100
 90
   557216
  1

281
     0
 71
     1
 74
     0
110
0.0
120
0.0
130
0.0
111
1.0
121
0.0
131
0.0
112
0.0
122
1.0
132
0.0
 79
     0
146
0.0
170
     0
 61
     5
348
48A
292
     1
282
     1
141
0.0
142
0.0
 63
   256
  0
ARC
  5
2C0
330
1B
100
AcDbEntity
 67
     1
  8
0
  6
Continuous
 62
     2
100
AcDbCircle
 10
147.6555851064
 20
222.9468085106
 30
0.0
 40
4.0
100
AcDbArc
 50
0.0
 51
180.0
  0
ARC
  5
2C1
330
1B
100
AcDbEntity
 67
     1
  8
0
  6
Continuous
 62
     2
100
AcDbCircle
 10
147.6555851064
 20
222.9468085106
 30
0.0
 40
4.0
100
AcDbArc
 50
255.0
 51
360.0
  0
ARC
  5
2C2
330
1B
100
AcDbEntity
 67
     1
  8
0
  6
Continuous
 62
     2
100
AcDbCircle
 10
147.6555851064
 20
222.9468085106
 30
0.0
 40
4.0
100
AcDbArc
 50
180.0
 51
195.0
  0
ARC
  5
2C3
330
1B
100
AcDbEntity
 67
     1
  8
0
  6
Continuous
 62
     2
100
AcDbCircle
 10
47.6555851064
 20
222.9468085106
 30
0.0
 40
4.0
100
AcDbArc
 50
0.0
 51
180.0
  0
ARC
  5
2C4
330
1B
100
AcDbEntity
 67
     1
  8
0
  6
Continuous
 62
     2
100
AcDbCircle
 10
47.6555851064
 20
222.9468085106
 30
0.0
 40
4.0
100
AcDbArc
 50
255.0
 51
360.0
  0
ARC
  5
2C5
330
1B
100
AcDbEntity
 67
     1
  8
0
  6
Continuous
 62
     2
100
AcDbCircle
 10
47.6555851064
 20
222.9468085106
 30
0.0
 40
4.0
100
AcDbArc
 50
180.0
 51
195.0
  0
SPLINE
  5
2C6
330
1B
100
AcDbEntity
 67
     1
  8
7_ALL_FEATURES
  6
Continuous
 62
     7
100
AcDbSpline
 70
     0
 71
     3
 72
    13
 73
     9
 74
     0
 42
0.000000001
 43
0.0000001
 40
0.0
 40
0.0
 40
0.0
 40
0.0
 40
0.1154760581
 40
0.2320461467
 40
0.3507386211
 40
0.4724440631
 40
0.7271546844
 40
1.0
 40
1.0
 40
1.0
 40
1.0
 10
57.8860324847
 20
260.4468085106
 30
0.0
 10
57.9555087228
 20
260.4468085106
 30
0.0
 10
58.0953106683
 20
260.4370536167
 30
0.0
 10
58.302400916
 20
260.3933965945
 30
0.0
 10
58.5053403886
 20
260.3211732767
 30
0.0
 10
58.7715374557
 20
260.1859093346
 30
0.0
 10
59.0843157888
 20
259.9458443211
 30
0.0
 10
59.2912560824
 20
259.7021629277
 30
0.0
 10
59.3860324847
 20
259.5681288542
 30
0.0
  0
LINE
  5
2C7
330
1B
100
AcDbEntity
 67
     1
  8
7_ALL_FEATURES
  6
Continuous
 62
     7
100
AcDbLine
 10
56.4718189223
 20
260.4468085106
 30
0.0
 11
57.8860324847
 21
260.4468085106
 31
0.0
  0
LINE
  5
2C8
330
1B
100
AcDbEntity
 67
     1
  8
7_ALL_FEATURES
  6
Continuous
 62
     7
100
AcDbLine
 10
137.4251377281
 20
260.4468085106
 30
0.0
 11
138.8393512905
 21
260.4468085106
 31
0.0
  0
SPLINE
  5
2C9
330
1B
100
AcDbEntity
 67
     1
  8
02___PRT_ALL_AXES
  6
Continuous
 62
     7
100
AcDbSpline
 70
     0
 71
     3
 72
    15
 73
    11
 74
     0
 42
0.000000001
 43
0.0000001
 40
0.0
 40
0.0
 40
0.0
 40
0.0
 40
0.1046009823
 40
0.2147608615
 40
0.331535733
 40
0.4551465551
 40
0.5850854257
 40
0.7202637856
 40
0.859166624
 40
1.0
 40
1.0
 40
1.0
 40
1.0
 10
157.7561275237
 20
251.5774732697
 30
0.0
 10
157.9215505822
 20
251.5208349169
 30
0.0
 10
158.2486925093
 20
251.3651674368
 30
0.0
 10
158.6927569277
 20
251.0282134986
 30
0.0
 10
159.08977995
 20
250.593283066
 30
0.0
 10
159.4294314907
 20
250.0728959307
 30
0.0
 10
159.7032212139
 20
249.4813214839
 30
0.0
 10
159.9040727334
 20
248.8345811082
 30
0.0
 10
160.0267463534
 20
248.1503085727
 30
0.0
 10
160.0541872086
 20
247.6822248826
 30
0.0
 10
160.0541872086
 20
247.4468085106
 30
0.0
  0
SPLINE
  5
2CA
330
1B
100
AcDbEntity
 67
     1
  8
02___PRT_ALL_AXES
  6
Continuous
 62
     7
100
AcDbSpline
 70
     0
 71
     3
 72
    15
 73
    11
 74
     0
 42
0.000000001
 43
0.0000001
 40
0.0
 40
0.0
 40
0.0
 40
0.0
 40
0.1046009823
 40
0.2147608615
 40
0.331535733
 40
0.4551465551
 40
0.5850854257
 40
0.7202637856
 40
0.859166624
 40
1.0
 40
1.0
 40
1.0
 40
1.0
 10
37.5550426891
 20
251.5774732697
 30
0.0
 10
37.3896196305
 20
251.5208349169
 30
0.0
 10
37.0624777035
 20
251.3651674368
 30
0.0
 10
36.6184132851
 20
251.0282134986
 30
0.0
 10
36.2213902627
 20
250.593283066
 30
0.0
 10
35.8817387221
 20
250.0728959307
 30
0.0
 10
35.6079489989
 20
249.4813214839
 30
0.0
 10
35.4070974794
 20
248.8345811082
 30
0.0
 10
35.2844238594
 20
248.1503085727
 30
0.0
 10
35.2569830041
 20
247.6822248826
 30
0.0
 10
35.2569830041
 20
247.4468085106
 30
0.0
  0
SPLINE
  5
2CB
330
1B
100
AcDbEntity
 67
     1
  8
02___PRT_ALL_AXES
  6
Continuous
 62
     7
100
AcDbSpline
 70
     0
 71
     3
 72
    14
 73
    10
 74
     0
 42
0.000000001
 43
0.0000001
 40
0.0
 40
0.0
 40
0.0
 40
0.0
 40
0.2720354026
 40
0.4014879752
 40
0.5268276057
 40
0.6485710142
 40
0.7674190321
 40
0.8842336626
 40
1.0
 40
1.0
 40
1.0
 40
1.0
 10
45.7286920794
 20
225.747798439
 30
0.0
 10
46.0430390786
 20
225.3191913087
 30
0.0
 10
46.5652530239
 20
224.7248215186
 30
0.0
 10
47.3598548165
 20
224.0679804936
 30
0.0
 10
47.9770686688
 20
223.664451653
 30
0.0
 10
48.6193340434
 20
223.3462966214
 30
0.0
 10
49.2808838264
 20
223.1166128877
 30
0.0
 10
49.9553340073
 20
222.9778127365
 30
0.0
 10
50.4103620519
 20
222.9468085106
 30
0.0
 10
50.6365554949
 20
222.9468085106
 30
0.0
  0
ARC
  5
2CC
330
1B
100
AcDbEntity
 67
     1
  8
7_ALL_FEATURES
  6
Continuous
 62
     7
100
AcDbCircle
 10
147.6555851064
 20
222.9468085106
 30
0.0
 40
3.4
100
AcDbArc
 50
0.0
 51
180.0
  0
ARC
  5
2CD
330
1B
100
AcDbEntity
 67
     1
  8
7_ALL_FEATURES
  6
Continuous
 62
     7
100
AcDbCircle
 10
147.6555851064
 20
222.9468085106
 30
0.0
 40
3.4
100
AcDbArc
 50
180.0
 51
360.0
  0
ARC
  5
2CE
330
1B
100
AcDbEntity
 67
     1
  8
7_ALL_FEATURES
  6
Continuous
 62
     7
100
AcDbCircle
 10
47.6555851064
 20
222.9468085106
 30
0.0
 40
3.4
100
AcDbArc
 50
0.0
 51
180.0
  0
ARC
  5
2CF
330
1B
100
AcDbEntity
 67
     1
  8
7_ALL_FEATURES
  6
Continuous
 62
     7
100
AcDbCircle
 10
47.6555851064
 20
222.9468085106
 30
0.0
 40
3.4
100
AcDbArc
 50
180.0
 51
360.0
  0
LINE
  5
2D0
330
1B
100
AcDbEntity
 67
     1
  8
7_ALL_FEATURES
  6
Continuous
 62
     7
100
AcDbLine
 10
27.6555851064
 20
209.4468085106
 30
0.0
 11
27.6555851064
 21
239.9468085106
 31
0.0
  0
LINE
  5
2D1
330
1B
100
AcDbEntity
 67
     1
  8
7_ALL_FEATURES
  6
Continuous
 62
     7
100
AcDbLine
 10
167.6555851064
 20
239.9468085106
 30
0.0
 11
167.6555851064
 21
209.4468085106
 31
0.0
  0
ARC
  5
2D2
330
1B
100
AcDbEntity
 67
     1
  8
7_ALL_FEATURES
  6
Continuous
 62
     7
100
AcDbCircle
 10
164.6555851064
 20
239.9468085106
 30
0.0
 40
3.0
100
AcDbArc
 50
0.0
 51
90.0
  0
LINE
  5
2D3
330
1B
100
AcDbEntity
 67
     1
  8
7_ALL_FEATURES
  6
Continuous
 62
     7
100
AcDbLine
 10
100.3365364301
 20
242.9468085106
 30
0.0
 11
164.6555851064
 21
242.9468085106
 31
0.0
  0
ARC
  5
2D4
330
1B
100
AcDbEntity
 67
     1
  8
7_ALL_FEATURES
  6
Continuous
 62
     7
100
AcDbCircle
 10
100.3365364301
 20
241.9468085106
 30
0.0
 40
1.0
100
AcDbArc
 50
90.0
 51
139.9947991151
  0
ARC
  5
2D5
330
1B
100
AcDbEntity
 67
     1
  8
7_ALL_FEATURES
  6
Continuous
 62
     7
100
AcDbCircle
 10
97.6555851064
 20
244.1968085106
 30
0.0
 40
2.5
100
AcDbArc
 50
220.0052008849
 51
319.9947991151
  0
ARC
  5
2D6
330
1B
100
AcDbEntity
 67
     1
  8
7_ALL_FEATURES
  6
Continuous
 62
     7
100
AcDbCircle
 10
94.9746337827
 20
241.9468085106
 30
0.0
 40
1.0
100
AcDbArc
 50
40.0052008849
 51
90.0
  0
LINE
  5
2D7
330
1B
100
AcDbEntity
 67
     1
  8
7_ALL_FEATURES
  6
Continuous
 62
     7
100
AcDbLine
 10
30.6555851064
 20
242.9468085106
 30
0.0
 11
94.9746337827
 21
242.9468085106
 31
0.0
  0
ARC
  5
2D8
330
1B
100
AcDbEntity
 67
     1
  8
7_ALL_FEATURES
  6
Continuous
 62
     7
100
AcDbCircle
 10
30.6555851064
 20
239.9468085106
 30
0.0
 40
3.0
100
AcDbArc
 50
90.0
 51
180.0
  0
ARC
  5
2D9
330
1B
100
AcDbEntity
 67
     1
  8
02___PRT_ALL_AXES
  6
Continuous
 62
     7
100
AcDbCircle
 10
114.1555851064
 20
223.4468085106
 30
0.0
 40
11.0
100
AcDbArc
 50
270.0
 51
90.0
  0
LINE
  5
2DA
330
1B
100
AcDbEntity
 67
     1
  8
02___PRT_ALL_AXES
  6
Continuous
 62
     7
100
AcDbLine
 10
81.1555851064
 20
212.4468085106
 30
0.0
 11
114.1555851064
 21
212.4468085106
 31
0.0
  0
ARC
  5
2DB
330
1B
100
AcDbEntity
 67
     1
  8
02___PRT_ALL_AXES
  6
Continuous
 62
     7
100
AcDbCircle
 10
81.1555851064
 20
223.4468085106
 30
0.0
 40
11.0
100
AcDbArc
 50
90.0
 51
270.0
  0
LINE
  5
2DC
330
1B
100
AcDbEntity
 67
     1
  8
02___PRT_ALL_AXES
  6
Continuous
 62
     7
100
AcDbLine
 10
114.1555851064
 20
234.4468085106
 30
0.0
 11
81.1555851064
 21
234.4468085106
 31
0.0
  0
LINE
  5
2DD
330
1B
100
AcDbEntity
 67
     1
  8
7_ALL_FEATURES
  6
Continuous
 62
     7
100
AcDbLine
 10
125.9398563538
 20
242.9468085106
 30
0.0
 11
125.9398563538
 21
244.2041678235
 31
0.0
  0
SPLINE
  5
2DE
330
1B
100
AcDbEntity
 67
     1
  8
7_ALL_FEATURES
  6
Continuous
 62
     7
100
AcDbSpline
 70
     0
 71
     3
 72
    11
 73
     7
 74
     0
 42
0.000000001
 43
0.0000001
 40
0.0
 40
0.0
 40
0.0
 40
0.0
 40
0.2616397214
 40
0.5183262368
 40
0.7655981867
 40
1.0
 40
1.0
 40
1.0
 40
1.0
 10
125.9398563538
 20
244.2041678235
 30
0.0
 10
125.9398563538
 20
244.3997304507
 30
0.0
 10
125.9665940052
 20
244.7876984949
 30
0.0
 10
126.0858967737
 20
245.3493420524
 30
0.0
 10
126.2798417972
 20
245.8682417606
 30
0.0
 10
126.4600228224
 20
246.1824349851
 30
0.0
 10
126.5611766974
 20
246.3254881671
 30
0.0
  0
LINE
  5
2DF
330
1B
100
AcDbEntity
 67
     1
  8
7_ALL_FEATURES
  6
Continuous
 62
     7
100
AcDbLine
 10
126.5611766974
 20
246.3254881671
 30
0.0
 11
135.9251377281
 21
259.5681288542
 31
0.0
  0
SPLINE
  5
2E0
330
1B
100
AcDbEntity
 67
     1
  8
7_ALL_FEATURES
  6
Continuous
 62
     7
100
AcDbSpline
 70
     0
 71
     3
 72
    13
 73
     9
 74
     0
 42
0.000000001
 43
0.0000001
 40
0.0
 40
0.0
 40
0.0
 40
0.0
 40
0.2728453156
 40
0.5275559369
 40
0.6492613789
 40
0.7679538533
 40
0.8845239419
 40
1.0
 40
1.0
 40
1.0
 40
1.0
 10
135.9251377281
 20
259.5681288542
 30
0.0
 10
136.0199141304
 20
259.7021629277
 30
0.0
 10
136.226854424
 20
259.9458443211
 30
0.0
 10
136.539632757
 20
260.1859093346
 30
0.0
 10
136.8058298242
 20
260.3211732767
 30
0.0
 10
137.0087692968
 20
260.3933965945
 30
0.0
 10
137.2158595445
 20
260.4370536167
 30
0.0
 10
137.35566149
 20
260.4468085106
 30
0.0
 10
137.4251377281
 20
260.4468085106
 30
0.0
  0
SPLINE
  5
2E1
330
1B
100
AcDbEntity
 67
     1
  8
02___PRT_ALL_AXES
  6
Continuous
 62
     7
100
AcDbSpline
 70
     0
 71
     3
 72
    14
 73
    10
 74
     0
 42
0.000000001
 43
0.0000001
 40
0.0
 40
0.0
 40
0.0
 40
0.0
 40
0.2720354026
 40
0.4014879752
 40
0.5268276057
 40
0.6485710142
 40
0.7674190321
 40
0.8842336626
 40
1.0
 40
1.0
 40
1.0
 40
1.0
 10
149.5824781334
 20
225.747798439
 30
0.0
 10
149.2681311341
 20
225.3191913087
 30
0.0
 10
148.7459171889
 20
224.7248215186
 30
0.0
 10
147.9513153963
 20
224.0679804936
 30
0.0
 10
147.3341015439
 20
223.664451653
 30
0.0
 10
146.6918361693
 20
223.3462966214
 30
0.0
 10
146.0302863864
 20
223.1166128877
 30
0.0
 10
145.3558362055
 20
222.9778127365
 30
0.0
 10
144.9008081609
 20
222.9468085106
 30
0.0
 10
144.6746147178
 20
222.9468085106
 30
0.0
  0
ARC
  5
2E2
330
1B
100
AcDbEntity
 67
     1
  8
02___PRT_ALL_AXES
  6
Continuous
 62
     7
100
AcDbCircle
 10
154.0566703195
 20
243.4467060628
 30
0.0
 40
5.99751689
100
AcDbArc
 50
355.2184337369
 51
0.0009787095
  0
LINE
  5
2E3
330
1B
100
AcDbEntity
 67
     1
  8
02___PRT_ALL_AXES
  6
Continuous
 62
     7
100
AcDbLine
 10
160.0541872086
 20
243.4468085106
 30
0.0
 11
160.0541872086
 21
247.4468085106
 31
0.0
  0
LINE
  5
2E4
330
1B
100
AcDbEntity
 67
     1
  8
7_ALL_FEATURES
  6
Continuous
 62
     7
100
AcDbLine
 10
69.3713138589
 20
244.2041678235
 30
0.0
 11
69.3713138589
 21
242.9468085106
 31
0.0
  0
LINE
  5
2E5
330
1B
100
AcDbEntity
 67
     1
  8
7_ALL_FEATURES
  6
Continuous
 62
     7
100
AcDbLine
 10
59.3860324847
 20
259.5681288542
 30
0.0
 11
68.7499935154
 21
246.3254881671
 31
0.0
  0
SPLINE
  5
2E6
330
1B
100
AcDbEntity
 67
     1
  8
7_ALL_FEATURES
  6
Continuous
 62
     7
100
AcDbSpline
 70
     0
 71
     3
 72
    11
 73
     7
 74
     0
 42
0.000000001
 43
0.0000001
 40
0.0
 40
0.0
 40
0.0
 40
0.0
 40
0.2344018133
 40
0.4816737632
 40
0.7383602786
 40
1.0
 40
1.0
 40
1.0
 40
1.0
 10
68.7499935154
 20
246.3254881671
 30
0.0
 10
68.8511473904
 20
246.1824349851
 30
0.0
 10
69.0313284156
 20
245.8682417606
 30
0.0
 10
69.2252734391
 20
245.3493420524
 30
0.0
 10
69.3445762076
 20
244.7876984949
 30
0.0
 10
69.3713138589
 20
244.3997304507
 30
0.0
 10
69.3713138589
 20
244.2041678235
 30
0.0
  0
LINE
  5
2E7
330
1B
100
AcDbEntity
 67
     1
  8
02___PRT_ALL_AXES
  6
Continuous
 62
     7
100
AcDbLine
 10
35.2569830041
 20
243.4468085106
 30
0.0
 11
35.2569830041
 21
247.4468085106
 31
0.0
  0
ARC
  5
2E8
330
1B
100
AcDbEntity
 67
     1
  8
02___PRT_ALL_AXES
  6
Continuous
 62
     7
100
AcDbCircle
 10
41.2544998932
 20
243.4467060628
 30
0.0
 40
5.99751689
100
AcDbArc
 50
179.9990212905
 51
184.7815662631
  0
LINE
  5
2E9
330
1B
100
AcDbEntity
 67
     1
  8
7_ALL_FEATURES
  6
Continuous
 62
     7
100
AcDbLine
 10
137.4251377281
 20
260.4468085106
 30
0.0
 11
138.8393512905
 21
260.4468085106
 31
0.0
  0
LINE
  5
2EA
330
1B
100
AcDbEntity
 67
     1
  8
7_ALL_FEATURES
  6
Continuous
 62
     7
100
AcDbLine
 10
167.6555851064
 20
205.4468085106
 30
0.0
 11
27.6555851064
 21
205.4468085106
 31
0.0
  0
LINE
  5
2EB
330
1B
100
AcDbEntity
 67
     1
  8
7_ALL_FEATURES
  6
Continuous
 62
     7
100
AcDbLine
 10
27.6555851064
 20
205.4468085106
 30
0.0
 11
27.6555851064
 21
207.4465960825
 31
0.0
  0
LINE
  5
2EC
330
1B
100
AcDbEntity
 67
     1
  8
7_ALL_FEATURES
  6
Continuous
 62
     7
100
AcDbLine
 10
27.6555851064
 20
207.4465960825
 30
0.0
 11
27.6555851064
 21
209.4468085106
 31
0.0
  0
LINE
  5
2ED
330
1B
100
AcDbEntity
 67
     1
  8
7_ALL_FEATURES
  6
Continuous
 62
     7
100
AcDbLine
 10
167.6555851064
 20
205.4468085106
 30
0.0
 11
167.6555851064
 21
207.4465960825
 31
0.0
  0
LINE
  5
2EE
330
1B
100
AcDbEntity
 67
     1
  8
7_ALL_FEATURES
  6
Continuous
 62
     7
100
AcDbLine
 10
167.6555851064
 20
207.4465960825
 30
0.0
 11
167.6555851064
 21
209.4468085106
 31
0.0
  0
LINE
  5
2EF
330
1B
100
AcDbEntity
 67
     1
  8
7_ALL_FEATURES
  6
Continuous
 62
     7
100
AcDbLine
 10
56.4718189223
 20
260.4468085106
 30
0.0
 11
57.8860324847
 21
260.4468085106
 31
0.0
  0
LINE
  5
2F0
330
1B
100
AcDbEntity
 67
     1
  8
7_ALL_FEATURES
  6
Continuous
 62
     9
100
AcDbLine
 10
127.3540699162
 20
244.2041678235
 30
0.0
 11
125.9398563538
 21
244.2041678235
 31
0.0
  0
LINE
  5
2F1
330
1B
100
AcDbEntity
 67
     1
  8
7_ALL_FEATURES
  6
Continuous
 62
     9
100
AcDbLine
 10
127.9753902598
 20
246.3254881671
 30
0.0
 11
126.5611766974
 21
246.3254881671
 31
0.0
  0
LINE
  5
2F2
330
1B
100
AcDbEntity
 67
     1
  8
7_ALL_FEATURES
  6
Continuous
 62
     9
100
AcDbLine
 10
135.9251377281
 20
259.5681288542
 30
0.0
 11
137.3393512905
 21
259.5681288542
 31
0.0
  0
LINE
  5
2F3
330
1B
100
AcDbEntity
 67
     1
  8
02___PRT_ALL_AXES
  6
Continuous
 62
     9
100
AcDbLine
 10
33.8427694418
 20
243.4468085106
 30
0.0
 11
35.2569830041
 21
243.4468085106
 31
0.0
  0
LINE
  5
2F4
330
1B
100
AcDbEntity
 67
     1
  8
7_ALL_FEATURES
  6
Continuous
 62
     9
100
AcDbLine
 10
167.6555851064
 20
209.4468085106
 30
0.0
 11
27.6555851064
 21
209.4468085106
 31
0.0
  0
LINE
  5
2F5
330
1B
100
AcDbEntity
 67
     1
  8
02___PRT_ALL_AXES
  6
Continuous
 62
     9
100
AcDbLine
 10
33.8427694418
 20
247.4468085106
 30
0.0
 11
35.2569830041
 21
247.4468085106
 31
0.0
  0
LINE
  5
2F6
330
1B
100
AcDbEntity
 67
     1
  8
02___PRT_ALL_AXES
  6
Continuous
 62
     9
100
AcDbLine
 10
161.468400771
 20
243.4468085106
 30
0.0
 11
160.0541872086
 21
243.4468085106
 31
0.0
  0
LINE
  5
2F7
330
1B
100
AcDbEntity
 67
     1
  8
02___PRT_ALL_AXES
  6
Continuous
 62
     9
100
AcDbLine
 10
161.468400771
 20
247.4468085106
 30
0.0
 11
160.0541872086
 21
247.4468085106
 31
0.0
  0
LINE
  5
2F8
330
1B
100
AcDbEntity
 67
     1
  8
7_ALL_FEATURES
  6
Continuous
 62
     9
100
AcDbLine
 10
68.7499935154
 20
246.3254881671
 30
0.0
 11
67.335779953
 21
246.3254881671
 31
0.0
  0
LINE
  5
2F9
330
1B
100
AcDbEntity
 67
     1
  8
7_ALL_FEATURES
  6
Continuous
 62
     9
100
AcDbLine
 10
57.9718189223
 20
259.5681288542
 30
0.0
 11
59.3860324847
 21
259.5681288542
 31
0.0
  0
LINE
  5
2FA
330
1B
100
AcDbEntity
 67
     1
  8
7_ALL_FEATURES
  6
Continuous
 62
     9
100
AcDbLine
 10
69.3713138589
 20
244.2041678235
 30
0.0
 11
67.9571002965
 21
244.2041678235
 31
0.0
  0
ARC
  5
2FB
330
1B
100
AcDbEntity
 67
     1
  8
02___PRT_ALL_AXES
  6
Continuous
 62
     3
100
AcDbCircle
 10
161.4441798704
 20
243.4462331116
 30
0.0
 40
5.9861867672
100
AcDbArc
 50
179.9944926651
 51
184.7860948885
  0
ARC
  5
2FC
330
1B
100
AcDbEntity
 67
     1
  8
02___PRT_ALL_AXES
  6
Continuous
 62
     3
100
AcDbCircle
 10
33.8669903423
 20
243.4462331116
 30
0.0
 40
5.9861867672
100
AcDbArc
 50
355.2139051115
 51
0.0055073349
  0
LINE
  5
2FD
330
1B
100
AcDbEntity
 67
     1
  8
02___PRT_ALL_AXES
  6
Continuous
 62
     3
100
AcDbLine
 10
51.0555851064
 20
222.9468085106
 30
0.0
 11
49.2223419326
 21
222.9468085106
 31
0.0
  0
SPLINE
  5
2FE
330
1B
100
AcDbEntity
 67
     1
  8
02___PRT_ALL_AXES
  6
Continuous
 62
     3
100
AcDbSpline
 70
     0
 71
     3
 72
    17
 73
    13
 74
     0
 42
0.000000001
 43
0.0000001
 40
0.0
 40
0.0
 40
0.0
 40
0.0
 40
0.1449578005
 40
0.287171291
 40
0.4241686712
 40
0.5540357937
 40
0.6757152098
 40
0.7893068545
 40
0.8435831497
 40
0.8965156264
 40
0.9485022482
 40
1.0
 40
1.0
 40
1.0
 40
1.0
 10
39.8531770819
 20
247.4468085106
 30
0.0
 10
39.8531770819
 20
247.723855619
 30
0.0
 10
39.8152909551
 20
248.2734890035
 30
0.0
 10
39.6463131124
 20
249.0690980205
 30
0.0
 10
39.3714380647
 20
249.8043872751
 30
0.0
 10
39.0002085086
 20
250.4518218447
 30
0.0
 10
38.5456212899
 20
250.9869906375
 30
0.0
 10
38.1024290031
 20
251.3272148273
 30
0.0
 10
37.725327811
 20
251.5188224014
 30
0.0
 10
37.4378278107
 20
251.6211435657
 30
0.0
 10
37.1444500843
 20
251.6829883762
 30
0.0
 10
36.9463971009
 20
251.6968081286
 30
0.0
 10
36.8479732618
 20
251.6968081286
 30
0.0
  0
LINE
  5
2FF
330
1B
100
AcDbEntity
 67
     1
  8
02___PRT_ALL_AXES
  6
Continuous
 62
     3
100
AcDbLine
 10
39.8531770819
 20
247.4468085106
 30
0.0
 11
39.8531770819
 21
243.4468085106
 31
0.0
  0
LINE
  5
300
330
1B
100
AcDbEntity
 67
     1
  8
7_ALL_FEATURES
  6
Continuous
 62
     3
100
AcDbLine
 10
29.7769054499
 20
242.8150413707
 30
0.0
 11
29.7769054499
 21
255.4468085106
 31
0.0
  0
SPLINE
  5
301
330
1B
100
AcDbEntity
 67
     1
  8
7_ALL_FEATURES
  6
Continuous
 62
     3
100
AcDbSpline
 70
     0
 71
     3
 72
    17
 73
    13
 74
     0
 42
0.000000001
 43
0.0000001
 40
0.0
 40
0.0
 40
0.0
 40
0.0
 40
0.0514981148
 40
0.1034843369
 40
0.1564168427
 40
0.2106931505
 40
0.3242847961
 40
0.4459641989
 40
0.5758313323
 40
0.7128287168
 40
0.8550421207
 40
1.0
 40
1.0
 40
1.0
 40
1.0
 10
33.3124393559
 20
260.4468085106
 30
0.0
 10
33.1966457856
 20
260.4468085106
 30
0.0
 10
32.9636423073
 20
260.4305498206
 30
0.0
 10
32.6184923649
 20
260.3577900952
 30
0.0
 10
32.2802574237
 20
260.2374136826
 30
0.0
 10
31.8366091801
 20
260.011992202
 30
0.0
 10
31.3152064456
 20
259.6117286893
 30
0.0
 10
30.7803976812
 20
258.9821184979
 30
0.0
 10
30.3436570597
 20
258.2204306789
 30
0.0
 10
30.0202753324
 20
257.3553844457
 30
0.0
 10
29.8214768348
 20
256.419374048
 30
0.0
 10
29.7769054499
 20
255.772746469
 30
0.0
 10
29.7769054499
 20
255.4468085106
 30
0.0
  0
LINE
  5
302
330
1B
100
AcDbEntity
 67
     1
  8
7_ALL_FEATURES
  6
Continuous
 62
     3
100
AcDbLine
 10
33.3124393559
 20
260.4468085106
 30
0.0
 11
56.4718189223
 21
260.4468085106
 31
0.0
  0
LINE
  5
303
330
1B
100
AcDbEntity
 67
     1
  8
02___PRT_ALL_AXES
  6
Continuous
 62
     3
100
AcDbLine
 10
144.2555851064
 20
222.9468085106
 30
0.0
 11
146.0888282802
 21
222.9468085106
 31
0.0
  0
SPLINE
  5
304
330
1B
100
AcDbEntity
 67
     1
  8
02___PRT_ALL_AXES
  6
Continuous
 62
     3
100
AcDbSpline
 70
     0
 71
     3
 72
    17
 73
    13
 74
     0
 42
0.000000001
 43
0.0000001
 40
0.0
 40
0.0
 40
0.0
 40
0.0
 40
0.1449578005
 40
0.287171291
 40
0.4241686712
 40
0.5540357937
 40
0.6757152098
 40
0.7893068545
 40
0.8435831497
 40
0.8965156264
 40
0.9485022482
 40
1.0
 40
1.0
 40
1.0
 40
1.0
 10
155.4579931309
 20
247.4468085106
 30
0.0
 10
155.4579931309
 20
247.723855619
 30
0.0
 10
155.4958792577
 20
248.2734890035
 30
0.0
 10
155.6648571004
 20
249.0690980206
 30
0.0
 10
155.9397321481
 20
249.8043872751
 30
0.0
 10
156.3109617041
 20
250.4518218447
 30
0.0
 10
156.7655489229
 20
250.9869906375
 30
0.0
 10
157.2087412096
 20
251.3272148273
 30
0.0
 10
157.5858424018
 20
251.5188224014
 30
0.0
 10
157.8733424021
 20
251.6211435657
 30
0.0
 10
158.1667201285
 20
251.6829883762
 30
0.0
 10
158.3647731119
 20
251.6968081286
 30
0.0
 10
158.463196951
 20
251.6968081286
 30
0.0
  0
LINE
  5
305
330
1B
100
AcDbEntity
 67
     1
  8
02___PRT_ALL_AXES
  6
Continuous
 62
     3
100
AcDbLine
 10
155.4579931309
 20
247.4468085106
 30
0.0
 11
155.4579931309
 21
243.4468085106
 31
0.0
  0
LINE
  5
306
330
1B
100
AcDbEntity
 67
     1
  8
7_ALL_FEATURES
  6
Continuous
 62
     3
100
AcDbLine
 10
138.8393512905
 20
260.4468085106
 30
0.0
 11
160.5845172945
 21
260.4468085106
 31
0.0
  0
LINE
  5
307
330
1B
100
AcDbEntity
 67
     1
  8
7_ALL_FEATURES
  6
Continuous
 62
     3
100
AcDbLine
 10
160.5845172945
 20
260.4468085106
 30
0.0
 11
161.9987308569
 21
260.4468085106
 31
0.0
  0
SPLINE
  5
308
330
1B
100
AcDbEntity
 67
     1
  8
7_ALL_FEATURES
  6
Continuous
 62
     3
100
AcDbSpline
 70
     0
 71
     3
 72
    17
 73
    13
 74
     0
 42
0.000000001
 43
0.0000001
 40
0.0
 40
0.0
 40
0.0
 40
0.0
 40
0.1449578793
 40
0.2871712832
 40
0.4241686677
 40
0.5540358011
 40
0.6757152039
 40
0.7893068495
 40
0.8435831573
 40
0.8965156631
 40
0.9485018852
 40
1.0
 40
1.0
 40
1.0
 40
1.0
 10
165.5342647628
 20
255.4468085106
 30
0.0
 10
165.5342647628
 20
255.772746469
 30
0.0
 10
165.489693378
 20
256.419374048
 30
0.0
 10
165.2908948804
 20
257.3553844457
 30
0.0
 10
164.9675131531
 20
258.2204306789
 30
0.0
 10
164.5307725316
 20
258.9821184979
 30
0.0
 10
163.9959637672
 20
259.6117286893
 30
0.0
 10
163.4745610327
 20
260.011992202
 30
0.0
 10
163.0309127891
 20
260.2374136826
 30
0.0
 10
162.6926778479
 20
260.3577900952
 30
0.0
 10
162.3475279055
 20
260.4305498206
 30
0.0
 10
162.1145244272
 20
260.4468085106
 30
0.0
 10
161.9987308569
 20
260.4468085106
 30
0.0
  0
LINE
  5
309
330
1B
100
AcDbEntity
 67
     1
  8
7_ALL_FEATURES
  6
Continuous
 62
     3
100
AcDbLine
 10
165.5342647628
 20
255.4468085106
 30
0.0
 11
165.5342647628
 21
242.8150413707
 31
0.0
  0
LINE
  5
30A
330
1B
100
AcDbEntity
 67
     1
  8
7_ALL_FEATURES
  6
Continuous
 62
     3
100
AcDbLine
 10
67.9571002965
 20
244.2041678235
 30
0.0
 11
67.9571002965
 21
242.9468085106
 31
0.0
  0
ARC
  5
30B
330
1B
100
AcDbEntity
 67
     1
  8
02___PRT_ALL_AXES
  6
Continuous
 62
     3
100
AcDbCircle
 10
155.4708838819
 20
243.4467060628
 30
0.0
 40
5.99751689
100
AcDbArc
 50
355.2184337369
 51
0.0009787095
  0
LINE
  5
30C
330
1B
100
AcDbEntity
 67
     1
  8
02___PRT_ALL_AXES
  6
Continuous
 62
     3
100
AcDbLine
 10
161.468400771
 20
243.4468085106
 30
0.0
 11
161.468400771
 21
247.4468085106
 31
0.0
  0
SPLINE
  5
30D
330
1B
100
AcDbEntity
 67
     1
  8
7_ALL_FEATURES
  6
Continuous
 62
     3
100
AcDbSpline
 70
     0
 71
     3
 72
    13
 73
     9
 74
     0
 42
0.000000001
 43
0.0000001
 40
0.0
 40
0.0
 40
0.0
 40
0.0
 40
0.1154760581
 40
0.2320461467
 40
0.3507386211
 40
0.4724440631
 40
0.7271546844
 40
1.0
 40
1.0
 40
1.0
 40
1.0
 10
138.8393512905
 20
260.4468085106
 30
0.0
 10
138.7698750524
 20
260.4468085106
 30
0.0
 10
138.6300731069
 20
260.4370536167
 30
0.0
 10
138.4229828591
 20
260.3933965945
 30
0.0
 10
138.2200433865
 20
260.3211732767
 30
0.0
 10
137.9538463194
 20
260.1859093346
 30
0.0
 10
137.6410679864
 20
259.9458443211
 30
0.0
 10
137.4341276928
 20
259.7021629277
 30
0.0
 10
137.3393512905
 20
259.5681288542
 30
0.0
  0
SPLINE
  5
30E
330
1B
100
AcDbEntity
 67
     1
  8
7_ALL_FEATURES
  6
Continuous
 62
     3
100
AcDbSpline
 70
     0
 71
     3
 72
    13
 73
     9
 74
     0
 42
0.000000001
 43
0.0000001
 40
0.0
 40
0.0
 40
0.0
 40
0.0
 40
0.2728453156
 40
0.5275559369
 40
0.6492613789
 40
0.7679538533
 40
0.8845239419
 40
1.0
 40
1.0
 40
1.0
 40
1.0
 10
57.9718189223
 20
259.5681288542
 30
0.0
 10
57.87704252
 20
259.7021629277
 30
0.0
 10
57.6701022264
 20
259.9458443211
 30
0.0
 10
57.3573238934
 20
260.1859093346
 30
0.0
 10
57.0911268262
 20
260.3211732767
 30
0.0
 10
56.8881873536
 20
260.3933965945
 30
0.0
 10
56.6810971059
 20
260.4370536167
 30
0.0
 10
56.5412951604
 20
260.4468085106
 30
0.0
 10
56.4718189223
 20
260.4468085106
 30
0.0
  0
LINE
  5
30F
330
1B
100
AcDbEntity
 67
     1
  8
7_ALL_FEATURES
  6
Continuous
 62
     3
100
AcDbLine
 10
127.3540699162
 20
242.9468085106
 30
0.0
 11
127.3540699162
 21
244.2041678235
 31
0.0
  0
SPLINE
  5
310
330
1B
100
AcDbEntity
 67
     1
  8
7_ALL_FEATURES
  6
Continuous
 62
     3
100
AcDbSpline
 70
     0
 71
     3
 72
    11
 73
     7
 74
     0
 42
0.000000001
 43
0.0000001
 40
0.0
 40
0.0
 40
0.0
 40
0.0
 40
0.2344018133
 40
0.4816737632
 40
0.7383602786
 40
1.0
 40
1.0
 40
1.0
 40
1.0
 10
127.9753902598
 20
246.3254881671
 30
0.0
 10
127.8742363847
 20
246.1824349851
 30
0.0
 10
127.6940553595
 20
245.8682417606
 30
0.0
 10
127.5001103361
 20
245.3493420524
 30
0.0
 10
127.3808075675
 20
244.7876984949
 30
0.0
 10
127.3540699162
 20
244.3997304507
 30
0.0
 10
127.3540699162
 20
244.2041678235
 30
0.0
  0
LINE
  5
311
330
1B
100
AcDbEntity
 67
     1
  8
7_ALL_FEATURES
  6
Continuous
 62
     3
100
AcDbLine
 10
137.3393512905
 20
259.5681288542
 30
0.0
 11
127.9753902598
 21
246.3254881671
 31
0.0
  0
LINE
  5
312
330
1B
100
AcDbEntity
 67
     1
  8
7_ALL_FEATURES
  6
Continuous
 62
     3
100
AcDbLine
 10
67.335779953
 20
246.3254881671
 30
0.0
 11
57.9718189223
 21
259.5681288542
 31
0.0
  0
SPLINE
  5
313
330
1B
100
AcDbEntity
 67
     1
  8
02___PRT_ALL_AXES
  6
Continuous
 62
     3
100
AcDbSpline
 70
     0
 71
     3
 72
    14
 73
    10
 74
     0
 42
0.000000001
 43
0.0000001
 40
0.0
 40
0.0
 40
0.0
 40
0.0
 40
0.267436117
 40
0.395785988
 40
0.5209031732
 40
0.6432601076
 40
0.7634369982
 40
0.8821038467
 40
1.0
 40
1.0
 40
1.0
 40
1.0
 10
150.3725441551
 20
224.9907071193
 30
0.0
 10
150.0764111427
 20
224.6718202697
 30
0.0
 10
149.5977845504
 20
224.2340814862
 30
0.0
 10
148.8961515429
 20
223.7566594721
 30
0.0
 10
148.3579052989
 20
223.4639809595
 30
0.0
 10
147.8043425967
 20
223.234158796
 30
0.0
 10
147.2390576179
 20
223.0687746249
 30
0.0
 10
146.6659811212
 20
222.9690493157
 30
0.0
 10
146.2806733941
 20
222.9468085106
 30
0.0
 10
146.0888282802
 20
222.9468085106
 30
0.0
  0
SPLINE
  5
314
330
1B
100
AcDbEntity
 67
     1
  8
02___PRT_ALL_AXES
  6
Continuous
 62
     3
100
AcDbSpline
 70
     0
 71
     3
 72
    17
 73
    13
 74
     0
 42
0.000000001
 43
0.0000001
 40
0.0
 40
0.0
 40
0.0
 40
0.0
 40
0.0514977518
 40
0.1034843736
 40
0.1564168503
 40
0.2106931455
 40
0.3242847902
 40
0.4459642063
 40
0.5758313288
 40
0.712828709
 40
0.8550421995
 40
1.0
 40
1.0
 40
1.0
 40
1.0
 10
158.463196951
 20
251.6968081286
 30
0.0
 10
158.5616207901
 20
251.6968081286
 30
0.0
 10
158.7596737735
 20
251.6829883762
 30
0.0
 10
159.0530514998
 20
251.6211435657
 30
0.0
 10
159.3405515001
 20
251.5188224014
 30
0.0
 10
159.7176526923
 20
251.3272148273
 30
0.0
 10
160.160844979
 20
250.9869906375
 30
0.0
 10
160.6154321978
 20
250.4518218447
 30
0.0
 10
160.9866617538
 20
249.8043872751
 30
0.0
 10
161.2615368015
 20
249.0690980206
 30
0.0
 10
161.4305146442
 20
248.2734890035
 30
0.0
 10
161.468400771
 20
247.723855619
 30
0.0
 10
161.468400771
 20
247.4468085106
 30
0.0
  0
SPLINE
  5
315
330
1B
100
AcDbEntity
 67
     1
  8
02___PRT_ALL_AXES
  6
Continuous
 62
     3
100
AcDbSpline
 70
     0
 71
     3
 72
    14
 73
    10
 74
     0
 42
0.000000001
 43
0.0000001
 40
0.0
 40
0.0
 40
0.0
 40
0.0
 40
0.267436117
 40
0.395785988
 40
0.5209031732
 40
0.6432601076
 40
0.7634369982
 40
0.8821038467
 40
1.0
 40
1.0
 40
1.0
 40
1.0
 10
44.9386260577
 20
224.9907071193
 30
0.0
 10
45.23475907
 20
224.6718202697
 30
0.0
 10
45.7133856624
 20
224.2340814862
 30
0.0
 10
46.4150186699
 20
223.7566594721
 30
0.0
 10
46.9532649139
 20
223.4639809595
 30
0.0
 10
47.5068276161
 20
223.234158796
 30
0.0
 10
48.0721125948
 20
223.0687746249
 30
0.0
 10
48.6451890916
 20
222.9690493157
 30
0.0
 10
49.0304968187
 20
222.9468085106
 30
0.0
 10
49.2223419326
 20
222.9468085106
 30
0.0
  0
LINE
  5
316
330
1B
100
AcDbEntity
 67
     1
  8
02___PRT_ALL_AXES
  6
Continuous
 62
     3
100
AcDbLine
 10
33.8427694418
 20
243.4468085106
 30
0.0
 11
33.8427694418
 21
247.4468085106
 31
0.0
  0
ARC
  5
317
330
1B
100
AcDbEntity
 67
     1
  8
02___PRT_ALL_AXES
  6
Continuous
 62
     3
100
AcDbCircle
 10
39.8402863309
 20
243.4467060628
 30
0.0
 40
5.99751689
100
AcDbArc
 50
179.9990212905
 51
184.7815662631
  0
SPLINE
  5
318
330
1B
100
AcDbEntity
 67
     1
  8
02___PRT_ALL_AXES
  6
Continuous
 62
     3
100
AcDbSpline
 70
     0
 71
     3
 72
    17
 73
    13
 74
     0
 42
0.000000001
 43
0.0000001
 40
0.0
 40
0.0
 40
0.0
 40
0.0
 40
0.0514977518
 40
0.1034843736
 40
0.1564168503
 40
0.2106931455
 40
0.3242847902
 40
0.4459642063
 40
0.5758313288
 40
0.712828709
 40
0.8550421995
 40
1.0
 40
1.0
 40
1.0
 40
1.0
 10
36.8479732618
 20
251.6968081286
 30
0.0
 10
36.7495494227
 20
251.6968081286
 30
0.0
 10
36.5514964393
 20
251.6829883762
 30
0.0
 10
36.2581187129
 20
251.6211435657
 30
0.0
 10
35.9706187127
 20
251.5188224014
 30
0.0
 10
35.5935175205
 20
251.3272148273
 30
0.0
 10
35.1503252338
 20
250.9869906375
 30
0.0
 10
34.695738015
 20
250.4518218447
 30
0.0
 10
34.3245084589
 20
249.8043872751
 30
0.0
 10
34.0496334112
 20
249.0690980206
 30
0.0
 10
33.8806555686
 20
248.2734890035
 30
0.0
 10
33.8427694418
 20
247.723855619
 30
0.0
 10
33.8427694418
 20
247.4468085106
 30
0.0
  0
SPLINE
  5
319
330
1B
100
AcDbEntity
 67
     1
  8
7_ALL_FEATURES
  6
Continuous
 62
     3
100
AcDbSpline
 70
     0
 71
     3
 72
    11
 73
     7
 74
     0
 42
0.000000001
 43
0.0000001
 40
0.0
 40
0.0
 40
0.0
 40
0.0
 40
0.2616397214
 40
0.5183262368
 40
0.7655981867
 40
1.0
 40
1.0
 40
1.0
 40
1.0
 10
67.9571002965
 20
244.2041678235
 30
0.0
 10
67.9571002965
 20
244.3997304507
 30
0.0
 10
67.9303626452
 20
244.7876984949
 30
0.0
 10
67.8110598767
 20
245.3493420524
 30
0.0
 10
67.6171148532
 20
245.8682417606
 30
0.0
 10
67.436933828
 20
246.1824349851
 30
0.0
 10
67.335779953
 20
246.3254881671
 30
0.0
  0
LINE
  5
31A
330
1B
100
AcDbEntity
 67
     1
  8
7_ALL_FEATURES
  6
Continuous
 62
     7
100
AcDbLine
 10
127.1555851064
 20
116.9971552508
 30
0.0
 11
127.1555851064
 21
117.9971552508
 31
0.0
  0
LINE
  5
31B
330
1B
100
AcDbEntity
 67
     1
  8
7_ALL_FEATURES
  6
Continuous
 62
     7
100
AcDbLine
 10
127.1555851064
 20
115.2991362148
 30
0.0
 11
127.1555851064
 21
116.9971552508
 31
0.0
  0
LINE
  5
31C
330
1B
100
AcDbEntity
 67
     1
  8
7_ALL_FEATURES
  6
Continuous
 62
     7
100
AcDbLine
 10
127.1555851064
 20
112.4013587359
 30
0.0
 11
127.1555851064
 21
115.2991362148
 31
0.0
  0
LINE
  5
31D
330
1B
100
AcDbEntity
 67
     1
  8
7_ALL_FEATURES
  6
Continuous
 62
     7
100
AcDbLine
 10
127.1555851064
 20
106.894221955
 30
0.0
 11
127.1555851064
 21
112.4013587359
 31
0.0
  0
LINE
  5
31E
330
1B
100
AcDbEntity
 67
     1
  8
7_ALL_FEATURES
  6
Continuous
 62
     7
100
AcDbLine
 10
127.1555851064
 20
103.9964444761
 30
0.0
 11
127.1555851064
 21
96.8985011202
 31
0.0
  0
LINE
  5
31F
330
1B
100
AcDbEntity
 67
     1
  8
7_ALL_FEATURES
  6
Continuous
 62
     7
100
AcDbLine
 10
127.1555851064
 20
94.0007236413
 30
0.0
 11
127.1555851064
 21
91.4457540891
 31
0.0
  0
LINE
  5
320
330
1B
100
AcDbEntity
 67
     1
  8
7_ALL_FEATURES
  6
Continuous
 62
     7
100
AcDbLine
 10
127.1555851064
 20
90.4798282629
 30
0.0
 11
127.1555851064
 21
91.4457540891
 31
0.0
  0
LINE
  5
321
330
1B
100
AcDbEntity
 67
     1
  8
7_ALL_FEATURES
  6
Continuous
 62
     7
100
AcDbLine
 10
127.1555851064
 20
90.4798282629
 30
0.0
 11
127.1555851064
 21
87.2471552508
 31
0.0
  0
LINE
  5
322
330
1B
100
AcDbEntity
 67
     1
  8
7_ALL_FEATURES
  6
Continuous
 62
     7
100
AcDbLine
 10
129.1555851064
 20
87.2471552508
 30
0.0
 11
129.1555851064
 21
86.2471552508
 31
0.0
  0
LINE
  5
323
330
1B
100
AcDbEntity
 67
     1
  8
7_ALL_FEATURES
  6
Continuous
 62
     7
100
AcDbLine
 10
129.1555851064
 20
90.4798282629
 30
0.0
 11
129.1555851064
 21
87.2471552508
 31
0.0
  0
LINE
  5
324
330
1B
100
AcDbEntity
 67
     1
  8
7_ALL_FEATURES
  6
Continuous
 62
     7
100
AcDbLine
 10
129.1555851064
 20
91.4457540891
 30
0.0
 11
129.1555851064
 21
90.4798282629
 31
0.0
  0
LINE
  5
325
330
1B
100
AcDbEntity
 67
     1
  8
7_ALL_FEATURES
  6
Continuous
 62
     7
100
AcDbLine
 10
129.1555851064
 20
94.0007236413
 30
0.0
 11
129.1555851064
 21
91.4457540891
 31
0.0
  0
LINE
  5
326
330
1B
100
AcDbEntity
 67
     1
  8
7_ALL_FEATURES
  6
Continuous
 62
     7
100
AcDbLine
 10
129.1555851064
 20
103.9964444761
 30
0.0
 11
129.1555851064
 21
96.8985011202
 31
0.0
  0
LINE
  5
327
330
1B
100
AcDbEntity
 67
     1
  8
7_ALL_FEATURES
  6
Continuous
 62
     7
100
AcDbLine
 10
129.1555851064
 20
106.894221955
 30
0.0
 11
129.1555851064
 21
112.4013587359
 31
0.0
  0
LINE
  5
328
330
1B
100
AcDbEntity
 67
     1
  8
7_ALL_FEATURES
  6
Continuous
 62
     7
100
AcDbLine
 10
129.1555851064
 20
115.2991362148
 30
0.0
 11
129.1555851064
 21
113.9971552508
 31
0.0
  0
LINE
  5
329
330
1B
100
AcDbEntity
 67
     1
  8
7_ALL_FEATURES
  6
Continuous
 62
     7
100
AcDbLine
 10
129.1555851064
 20
113.9971552508
 30
0.0
 11
129.1555851064
 21
112.4013587359
 31
0.0
  0
LINE
  5
32A
330
1B
100
AcDbEntity
 67
     1
  8
7_ALL_FEATURES
  6
Continuous
 62
     7
100
AcDbLine
 10
129.1555851064
 20
115.2991362148
 30
0.0
 11
129.1555851064
 21
116.9971552508
 31
0.0
  0
LINE
  5
32B
330
1B
100
AcDbEntity
 67
     1
  8
7_ALL_FEATURES
  6
Continuous
 62
     7
100
AcDbLine
 10
127.1555851064
 20
117.9971552508
 30
0.0
 11
129.1555851064
 21
117.9971552508
 31
0.0
  0
LINE
  5
32C
330
1B
100
AcDbEntity
 67
     1
  8
7_ALL_FEATURES
  6
Continuous
 62
     7
100
AcDbLine
 10
127.1555851064
 20
103.9964444761
 30
0.0
 11
127.1555851064
 21
106.894221955
 31
0.0
  0
LINE
  5
32D
330
1B
100
AcDbEntity
 67
     1
  8
7_ALL_FEATURES
  6
Continuous
 62
     7
100
AcDbLine
 10
129.1555851064
 20
106.894221955
 30
0.0
 11
129.1555851064
 21
103.9964444761
 31
0.0
  0
LINE
  5
32E
330
1B
100
AcDbEntity
 67
     1
  8
7_ALL_FEATURES
  6
Continuous
 62
     7
100
AcDbLine
 10
127.1555851064
 20
94.0007236413
 30
0.0
 11
127.1555851064
 21
96.8985011202
 31
0.0
  0
LINE
  5
32F
330
1B
100
AcDbEntity
 67
     1
  8
7_ALL_FEATURES
  6
Continuous
 62
     7
100
AcDbLine
 10
129.1555851064
 20
96.8985011202
 30
0.0
 11
129.1555851064
 21
94.0007236413
 31
0.0
  0
LINE
  5
330
330
1B
100
AcDbEntity
 67
     1
  8
7_ALL_FEATURES
  6
Continuous
 62
     7
100
AcDbLine
 10
127.1555851064
 20
117.9971552508
 30
0.0
 11
129.1555851064
 21
117.9971552508
 31
0.0
  0
LINE
  5
331
330
1B
100
AcDbEntity
 67
     1
  8
7_ALL_FEATURES
  6
Continuous
 62
     7
100
AcDbLine
 10
129.1555851064
 20
117.9971552508
 30
0.0
 11
129.1555851064
 21
116.9971552508
 31
0.0
  0
LINE
  5
332
330
1B
100
AcDbEntity
 67
     1
  8
7_ALL_FEATURES
  6
Continuous
 62
     7
100
AcDbLine
 10
127.1555851064
 20
86.2471552508
 30
0.0
 11
127.1555851064
 21
87.2471552508
 31
0.0
  0
LINE
  5
333
330
1B
100
AcDbEntity
 67
     1
  8
7_ALL_FEATURES
  6
Continuous
 62
     9
100
AcDbLine
 10
127.1555851064
 20
116.9971552508
 30
0.0
 11
129.1555851064
 21
116.9971552508
 31
0.0
  0
LINE
  5
334
330
1B
100
AcDbEntity
 67
     1
  8
7_ALL_FEATURES
  6
Continuous
 62
     9
100
AcDbLine
 10
129.1555851064
 20
91.4457540891
 30
0.0
 11
127.1555851064
 21
91.4457540891
 31
0.0
  0
LINE
  5
335
330
1B
100
AcDbEntity
 67
     1
  8
7_ALL_FEATURES
  6
Continuous
 62
     9
100
AcDbLine
 10
127.1555851064
 20
94.0007236413
 30
0.0
 11
129.1555851064
 21
94.0007236413
 31
0.0
  0
LINE
  5
336
330
1B
100
AcDbEntity
 67
     1
  8
7_ALL_FEATURES
  6
Continuous
 62
     9
100
AcDbLine
 10
129.1555851064
 20
87.2471552508
 30
0.0
 11
127.1555851064
 21
87.2471552508
 31
0.0
  0
LINE
  5
337
330
1B
100
AcDbEntity
 67
     1
  8
7_ALL_FEATURES
  6
Continuous
 62
     9
100
AcDbLine
 10
129.1555851064
 20
90.4798282629
 30
0.0
 11
127.1555851064
 21
90.4798282629
 31
0.0
  0
LINE
  5
338
330
1B
100
AcDbEntity
 67
     1
  8
7_ALL_FEATURES
  6
Continuous
 62
     9
100
AcDbLine
 10
127.1555851064
 20
103.9964444761
 30
0.0
 11
129.1555851064
 21
103.9964444761
 31
0.0
  0
LINE
  5
339
330
1B
100
AcDbEntity
 67
     1
  8
7_ALL_FEATURES
  6
Continuous
 62
     9
100
AcDbLine
 10
127.1555851064
 20
96.8985011202
 30
0.0
 11
129.1555851064
 21
96.8985011202
 31
0.0
  0
LINE
  5
33A
330
1B
100
AcDbEntity
 67
     1
  8
7_ALL_FEATURES
  6
Continuous
 62
     9
100
AcDbLine
 10
127.1555851064
 20
112.4013587359
 30
0.0
 11
129.1555851064
 21
112.4013587359
 31
0.0
  0
LINE
  5
33B
330
1B
100
AcDbEntity
 67
     1
  8
7_ALL_FEATURES
  6
Continuous
 62
     9
100
AcDbLine
 10
127.1555851064
 20
106.894221955
 30
0.0
 11
129.1555851064
 21
106.894221955
 31
0.0
  0
LINE
  5
33C
330
1B
100
AcDbEntity
 67
     1
  8
7_ALL_FEATURES
  6
Continuous
 62
     9
100
AcDbLine
 10
127.1555851064
 20
115.2991362148
 30
0.0
 11
129.1555851064
 21
115.2991362148
 31
0.0
  0
LINE
  5
33D
330
1B
100
AcDbEntity
 67
     1
  8
7_ALL_FEATURES
  6
Continuous
 62
     7
100
AcDbLine
 10
66.1555851064
 20
116.9971552508
 30
0.0
 11
66.1555851064
 21
117.9971552508
 31
0.0
  0
LINE
  5
33E
330
1B
100
AcDbEntity
 67
     1
  8
7_ALL_FEATURES
  6
Continuous
 62
     7
100
AcDbLine
 10
66.1555851064
 20
115.2991362148
 30
0.0
 11
66.1555851064
 21
116.9971552508
 31
0.0
  0
LINE
  5
33F
330
1B
100
AcDbEntity
 67
     1
  8
7_ALL_FEATURES
  6
Continuous
 62
     7
100
AcDbLine
 10
66.1555851064
 20
112.4013587359
 30
0.0
 11
66.1555851064
 21
113.9971552508
 31
0.0
  0
LINE
  5
340
330
1B
100
AcDbEntity
 67
     1
  8
7_ALL_FEATURES
  6
Continuous
 62
     7
100
AcDbLine
 10
66.1555851064
 20
113.9971552508
 30
0.0
 11
66.1555851064
 21
115.2991362148
 31
0.0
  0
LINE
  5
341
330
1B
100
AcDbEntity
 67
     1
  8
7_ALL_FEATURES
  6
Continuous
 62
     7
100
AcDbLine
 10
66.1555851064
 20
106.894221955
 30
0.0
 11
66.1555851064
 21
112.4013587359
 31
0.0
  0
LINE
  5
342
330
1B
100
AcDbEntity
 67
     1
  8
7_ALL_FEATURES
  6
Continuous
 62
     7
100
AcDbLine
 10
66.1555851064
 20
103.9964444761
 30
0.0
 11
66.1555851064
 21
96.8985011202
 31
0.0
  0
LINE
  5
343
330
1B
100
AcDbEntity
 67
     1
  8
7_ALL_FEATURES
  6
Continuous
 62
     7
100
AcDbLine
 10
66.1555851064
 20
94.0007236413
 30
0.0
 11
66.1555851064
 21
91.4457540891
 31
0.0
  0
LINE
  5
344
330
1B
100
AcDbEntity
 67
     1
  8
7_ALL_FEATURES
  6
Continuous
 62
     7
100
AcDbLine
 10
66.1555851064
 20
90.4798282629
 30
0.0
 11
66.1555851064
 21
91.4457540891
 31
0.0
  0
LINE
  5
345
330
1B
100
AcDbEntity
 67
     1
  8
7_ALL_FEATURES
  6
Continuous
 62
     7
100
AcDbLine
 10
66.1555851064
 20
90.4798282629
 30
0.0
 11
66.1555851064
 21
87.2471552508
 31
0.0
  0
LINE
  5
346
330
1B
100
AcDbEntity
 67
     1
  8
7_ALL_FEATURES
  6
Continuous
 62
     7
100
AcDbLine
 10
68.1555851064
 20
87.2471552508
 30
0.0
 11
68.1555851064
 21
86.2471552508
 31
0.0
  0
LINE
  5
347
330
1B
100
AcDbEntity
 67
     1
  8
7_ALL_FEATURES
  6
Continuous
 62
     7
100
AcDbLine
 10
68.1555851064
 20
90.4798282629
 30
0.0
 11
68.1555851064
 21
87.2471552508
 31
0.0
  0
LINE
  5
348
330
1B
100
AcDbEntity
 67
     1
  8
7_ALL_FEATURES
  6
Continuous
 62
     7
100
AcDbLine
 10
68.1555851064
 20
91.4457540891
 30
0.0
 11
68.1555851064
 21
90.4798282629
 31
0.0
  0
LINE
  5
349
330
1B
100
AcDbEntity
 67
     1
  8
7_ALL_FEATURES
  6
Continuous
 62
     7
100
AcDbLine
 10
68.1555851064
 20
94.0007236413
 30
0.0
 11
68.1555851064
 21
91.4457540891
 31
0.0
  0
LINE
  5
34A
330
1B
100
AcDbEntity
 67
     1
  8
7_ALL_FEATURES
  6
Continuous
 62
     7
100
AcDbLine
 10
68.1555851064
 20
103.9964444761
 30
0.0
 11
68.1555851064
 21
96.8985011202
 31
0.0
  0
LINE
  5
34B
330
1B
100
AcDbEntity
 67
     1
  8
7_ALL_FEATURES
  6
Continuous
 62
     7
100
AcDbLine
 10
68.1555851064
 20
106.894221955
 30
0.0
 11
68.1555851064
 21
112.4013587359
 31
0.0
  0
LINE
  5
34C
330
1B
100
AcDbEntity
 67
     1
  8
7_ALL_FEATURES
  6
Continuous
 62
     7
100
AcDbLine
 10
68.1555851064
 20
115.2991362148
 30
0.0
 11
68.1555851064
 21
112.4013587359
 31
0.0
  0
LINE
  5
34D
330
1B
100
AcDbEntity
 67
     1
  8
7_ALL_FEATURES
  6
Continuous
 62
     7
100
AcDbLine
 10
68.1555851064
 20
115.2991362148
 30
0.0
 11
68.1555851064
 21
116.9971552508
 31
0.0
  0
LINE
  5
34E
330
1B
100
AcDbEntity
 67
     1
  8
7_ALL_FEATURES
  6
Continuous
 62
     7
100
AcDbLine
 10
66.1555851064
 20
117.9971552508
 30
0.0
 11
68.1555851064
 21
117.9971552508
 31
0.0
  0
LINE
  5
34F
330
1B
100
AcDbEntity
 67
     1
  8
7_ALL_FEATURES
  6
Continuous
 62
     7
100
AcDbLine
 10
66.1555851064
 20
103.9964444761
 30
0.0
 11
66.1555851064
 21
106.894221955
 31
0.0
  0
LINE
  5
350
330
1B
100
AcDbEntity
 67
     1
  8
7_ALL_FEATURES
  6
Continuous
 62
     7
100
AcDbLine
 10
68.1555851064
 20
106.894221955
 30
0.0
 11
68.1555851064
 21
103.9964444761
 31
0.0
  0
LINE
  5
351
330
1B
100
AcDbEntity
 67
     1
  8
7_ALL_FEATURES
  6
Continuous
 62
     7
100
AcDbLine
 10
66.1555851064
 20
94.0007236413
 30
0.0
 11
66.1555851064
 21
96.8985011202
 31
0.0
  0
LINE
  5
352
330
1B
100
AcDbEntity
 67
     1
  8
7_ALL_FEATURES
  6
Continuous
 62
     7
100
AcDbLine
 10
68.1555851064
 20
96.8985011202
 30
0.0
 11
68.1555851064
 21
94.0007236413
 31
0.0
  0
LINE
  5
353
330
1B
100
AcDbEntity
 67
     1
  8
7_ALL_FEATURES
  6
Continuous
 62
     7
100
AcDbLine
 10
66.1555851064
 20
117.9971552508
 30
0.0
 11
68.1555851064
 21
117.9971552508
 31
0.0
  0
LINE
  5
354
330
1B
100
AcDbEntity
 67
     1
  8
7_ALL_FEATURES
  6
Continuous
 62
     7
100
AcDbLine
 10
68.1555851064
 20
117.9971552508
 30
0.0
 11
68.1555851064
 21
116.9971552508
 31
0.0
  0
LINE
  5
355
330
1B
100
AcDbEntity
 67
     1
  8
7_ALL_FEATURES
  6
Continuous
 62
     7
100
AcDbLine
 10
66.1555851064
 20
86.2471552508
 30
0.0
 11
66.1555851064
 21
87.2471552508
 31
0.0
  0
LINE
  5
356
330
1B
100
AcDbEntity
 67
     1
  8
7_ALL_FEATURES
  6
Continuous
 62
     9
100
AcDbLine
 10
66.1555851064
 20
116.9971552508
 30
0.0
 11
68.1555851064
 21
116.9971552508
 31
0.0
  0
LINE
  5
357
330
1B
100
AcDbEntity
 67
     1
  8
7_ALL_FEATURES
  6
Continuous
 62
     9
100
AcDbLine
 10
68.1555851064
 20
91.4457540891
 30
0.0
 11
66.1555851064
 21
91.4457540891
 31
0.0
  0
LINE
  5
358
330
1B
100
AcDbEntity
 67
     1
  8
7_ALL_FEATURES
  6
Continuous
 62
     9
100
AcDbLine
 10
66.1555851064
 20
94.0007236413
 30
0.0
 11
68.1555851064
 21
94.0007236413
 31
0.0
  0
LINE
  5
359
330
1B
100
AcDbEntity
 67
     1
  8
7_ALL_FEATURES
  6
Continuous
 62
     9
100
AcDbLine
 10
68.1555851064
 20
87.2471552508
 30
0.0
 11
66.1555851064
 21
87.2471552508
 31
0.0
  0
LINE
  5
35A
330
1B
100
AcDbEntity
 67
     1
  8
7_ALL_FEATURES
  6
Continuous
 62
     9
100
AcDbLine
 10
68.1555851064
 20
90.4798282629
 30
0.0
 11
66.1555851064
 21
90.4798282629
 31
0.0
  0
LINE
  5
35B
330
1B
100
AcDbEntity
 67
     1
  8
7_ALL_FEATURES
  6
Continuous
 62
     9
100
AcDbLine
 10
66.1555851064
 20
103.9964444761
 30
0.0
 11
68.1555851064
 21
103.9964444761
 31
0.0
  0
LINE
  5
35C
330
1B
100
AcDbEntity
 67
     1
  8
7_ALL_FEATURES
  6
Continuous
 62
     9
100
AcDbLine
 10
66.1555851064
 20
96.8985011202
 30
0.0
 11
68.1555851064
 21
96.8985011202
 31
0.0
  0
LINE
  5
35D
330
1B
100
AcDbEntity
 67
     1
  8
7_ALL_FEATURES
  6
Continuous
 62
     9
100
AcDbLine
 10
66.1555851064
 20
112.4013587359
 30
0.0
 11
68.1555851064
 21
112.4013587359
 31
0.0
  0
LINE
  5
35E
330
1B
100
AcDbEntity
 67
     1
  8
7_ALL_FEATURES
  6
Continuous
 62
     9
100
AcDbLine
 10
66.1555851064
 20
106.894221955
 30
0.0
 11
68.1555851064
 21
106.894221955
 31
0.0
  0
LINE
  5
35F
330
1B
100
AcDbEntity
 67
     1
  8
7_ALL_FEATURES
  6
Continuous
 62
     9
100
AcDbLine
 10
66.1555851064
 20
115.2991362148
 30
0.0
 11
68.1555851064
 21
115.2991362148
 31
0.0
  0
LINE
  5
360
330
1B
100
AcDbEntity
 67
     1
  8
7_ALL_FEATURES
  6
Continuous
 62
     7
100
AcDbLine
 10
129.1555851064
 20
90.2471552508
 30
0.0
 11
133.1555851064
 21
86.2471552508
 31
0.0
  0
LINE
  5
361
330
1B
100
AcDbEntity
 67
     1
  8
06___PRT_ALL_SURFS
  6
Continuous
 62
     7
100
AcDbLine
 10
66.1555851064
 20
117.9971552508
 30
0.0
 11
66.1555851064
 21
119.3459310061
 31
0.0
  0
LINE
  5
362
330
1B
100
AcDbEntity
 67
     1
  8
06___PRT_ALL_SURFS
  6
Continuous
 62
     7
100
AcDbLine
 10
66.1555851064
 20
113.9971552508
 30
0.0
 11
62.1555851064
 21
123.9187281261
 31
0.0
  0
LINE
  5
363
330
1B
100
AcDbEntity
 67
     1
  8
7_ALL_FEATURES
  6
Continuous
 62
     7
100
AcDbLine
 10
133.1555851064
 20
86.2471552508
 30
0.0
 11
133.1555851064
 21
88.2471552508
 31
0.0
  0
LINE
  5
364
330
1B
100
AcDbEntity
 67
     1
  8
7_ALL_FEATURES
  6
Continuous
 62
     7
100
AcDbLine
 10
133.1555851064
 20
88.2471552508
 30
0.0
 11
133.1555851064
 21
121.0903010013
 31
0.0
  0
LINE
  5
365
330
1B
100
AcDbEntity
 67
     1
  8
7_ALL_FEATURES
  6
Continuous
 62
     7
100
AcDbLine
 10
133.1555851064
 20
121.0903010013
 30
0.0
 11
133.1555851064
 21
123.9187281261
 31
0.0
  0
LINE
  5
366
330
1B
100
AcDbEntity
 67
     1
  8
7_ALL_FEATURES
  6
Continuous
 62
     7
100
AcDbLine
 10
133.1555851064
 20
123.9187281261
 30
0.0
 11
129.1555851064
 21
113.9971552508
 31
0.0
  0
LINE
  5
367
330
1B
100
AcDbEntity
 67
     1
  8
7_ALL_FEATURES
  6
Continuous
 62
     7
100
AcDbLine
 10
129.1555851064
 20
117.9971552508
 30
0.0
 11
129.1555851064
 21
119.3459310061
 31
0.0
  0
LINE
  5
368
330
1B
100
AcDbEntity
 67
     1
  8
7_ALL_FEATURES
  6
Continuous
 62
     7
100
AcDbLine
 10
133.1555851064
 20
123.9187281261
 30
0.0
 11
129.1555851064
 21
113.9971552508
 31
0.0
  0
LINE
  5
369
330
1B
100
AcDbEntity
 67
     1
  8
7_ALL_FEATURES
  6
Continuous
 62
     7
100
AcDbLine
 10
129.1555851064
 20
119.3459310061
 30
0.0
 11
129.1555851064
 21
119.9187281261
 31
0.0
  0
LINE
  5
36A
330
1B
100
AcDbEntity
 67
     1
  8
06___PRT_ALL_SURFS
  6
Continuous
 62
     7
100
AcDbLine
 10
66.1555851064
 20
119.3459310061
 30
0.0
 11
66.1555851064
 21
119.9187281261
 31
0.0
  0
LINE
  5
36B
330
1B
100
AcDbEntity
 67
     1
  8
06___PRT_ALL_SURFS
  6
Continuous
 62
     7
100
AcDbLine
 10
66.1555851064
 20
90.2471552508
 30
0.0
 11
62.1555851064
 21
86.2471552508
 31
0.0
  0
LINE
  5
36C
330
1B
100
AcDbEntity
 67
     1
  8
06___PRT_ALL_SURFS
  6
Continuous
 62
     7
100
AcDbLine
 10
62.1555851064
 20
86.2471552508
 30
0.0
 11
62.1555851064
 21
88.2471552508
 31
0.0
  0
LINE
  5
36D
330
1B
100
AcDbEntity
 67
     1
  8
06___PRT_ALL_SURFS
  6
Continuous
 62
     7
100
AcDbLine
 10
62.1555851064
 20
88.2471552508
 30
0.0
 11
62.1555851064
 21
121.0903010013
 31
0.0
  0
LINE
  5
36E
330
1B
100
AcDbEntity
 67
     1
  8
06___PRT_ALL_SURFS
  6
Continuous
 62
     7
100
AcDbLine
 10
62.1555851064
 20
121.0903010013
 30
0.0
 11
62.1555851064
 21
123.9187281261
 31
0.0
  0
LINE
  5
36F
330
1B
100
AcDbEntity
 67
     1
  8
06___PRT_ALL_SURFS
  6
Continuous
 62
     7
100
AcDbLine
 10
62.1555851064
 20
123.9187281261
 30
0.0
 11
66.1555851064
 21
113.9971552508
 31
0.0
  0
LINE
  5
370
330
1B
100
AcDbEntity
 67
     1
  8
7_ALL_FEATURES
  6
Continuous
 62
     9
100
AcDbLine
 10
129.5425073867
 20
120.3056504064
 30
0.0
 11
129.1555851064
 21
119.3459310061
 31
0.0
  0
LINE
  5
371
330
1B
100
AcDbEntity
 67
     1
  8
06___PRT_ALL_SURFS
  6
Continuous
 62
     9
100
AcDbLine
 10
66.1555851064
 20
111.4971552508
 30
0.0
 11
62.1555851064
 21
121.0903010013
 31
0.0
  0
LINE
  5
372
330
1B
100
AcDbEntity
 67
     1
  8
7_ALL_FEATURES
  6
Continuous
 62
     9
100
AcDbLine
 10
129.1555851064
 20
87.4187281261
 30
0.0
 11
130.3271579816
 21
86.2471552508
 31
0.0
  0
LINE
  5
373
330
1B
100
AcDbEntity
 67
     1
  8
7_ALL_FEATURES
  6
Continuous
 62
     9
100
AcDbLine
 10
129.1555851064
 20
92.7471552508
 30
0.0
 11
133.1555851064
 21
88.2471552508
 31
0.0
  0
LINE
  5
374
330
1B
100
AcDbEntity
 67
     1
  8
06___PRT_ALL_SURFS
  6
Continuous
 62
     9
100
AcDbLine
 10
65.768662826
 20
120.3056504064
 30
0.0
 11
66.1555851064
 21
119.3459310061
 31
0.0
  0
LINE
  5
375
330
1B
100
AcDbEntity
 67
     1
  8
06___PRT_ALL_SURFS
  6
Continuous
 62
     9
100
AcDbLine
 10
66.1555851064
 20
92.7471552508
 30
0.0
 11
62.1555851064
 21
88.2471552508
 31
0.0
  0
LINE
  5
376
330
1B
100
AcDbEntity
 67
     1
  8
7_ALL_FEATURES
  6
Continuous
 62
     9
100
AcDbLine
 10
129.1555851064
 20
111.4971552508
 30
0.0
 11
133.1555851064
 21
121.0903010013
 31
0.0
  0
LINE
  5
377
330
1B
100
AcDbEntity
 67
     1
  8
06___PRT_ALL_SURFS
  6
Continuous
 62
     9
100
AcDbLine
 10
66.1555851064
 20
87.4187281261
 30
0.0
 11
64.9840122311
 21
86.2471552508
 31
0.0
  0
LINE
  5
378
330
1B
100
AcDbEntity
 67
     1
  8
7_ALL_FEATURES
  6
Continuous
 62
     7
100
AcDbLine
 10
27.6555851064
 20
84.2471552508
 30
0.0
 11
27.6555851064
 21
86.2471552508
 31
0.0
  0
LINE
  5
379
330
1B
100
AcDbEntity
 67
     1
  8
7_ALL_FEATURES
  6
Continuous
 62
     7
100
AcDbLine
 10
69.3713138589
 20
119.5314264983
 30
0.0
 11
67.9571002965
 21
118.1172129359
 31
0.0
  0
LINE
  5
37A
330
1B
100
AcDbEntity
 67
     1
  8
7_ALL_FEATURES
  6
Continuous
 62
     7
100
AcDbLine
 10
125.9398563538
 20
119.5314264983
 30
0.0
 11
126.5611766974
 21
120.1527468419
 31
0.0
  0
LINE
  5
37B
330
1B
100
AcDbEntity
 67
     1
  8
7_ALL_FEATURES
  6
Continuous
 62
     7
100
AcDbLine
 10
127.3540699162
 20
118.1172129359
 30
0.0
 11
125.9398563538
 21
119.5314264983
 31
0.0
  0
LINE
  5
37C
330
1B
100
AcDbEntity
 67
     1
  8
7_ALL_FEATURES
  6
Continuous
 62
     7
100
AcDbLine
 10
165.5342647628
 20
156.2974077825
 30
0.0
 11
164.1200512005
 21
157.7116213449
 31
0.0
  0
LINE
  5
37D
330
1B
100
AcDbEntity
 67
     1
  8
7_ALL_FEATURES
  6
Continuous
 62
     7
100
AcDbLine
 10
31.1911190123
 20
157.7116213449
 30
0.0
 11
34.7266529182
 21
154.176087439
 31
0.0
  0
LINE
  5
37E
330
1B
100
AcDbEntity
 67
     1
  8
7_ALL_FEATURES
  6
Continuous
 62
     7
100
AcDbLine
 10
29.7769054499
 20
156.2974077825
 30
0.0
 11
31.1911190123
 21
157.7116213449
 31
0.0
  0
LINE
  5
37F
330
1B
100
AcDbEntity
 67
     1
  8
7_ALL_FEATURES
  6
Continuous
 62
     7
100
AcDbLine
 10
167.6555851064
 20
84.2471552508
 30
0.0
 11
164.6555851064
 21
84.2471552508
 31
0.0
  0
LINE
  5
380
330
1B
100
AcDbEntity
 67
     1
  8
7_ALL_FEATURES
  6
Continuous
 62
     7
100
AcDbLine
 10
100.3365364301
 20
84.2471552508
 30
0.0
 11
164.6555851064
 21
84.2471552508
 31
0.0
  0
LINE
  5
381
330
1B
100
AcDbEntity
 67
     1
  8
7_ALL_FEATURES
  6
Continuous
 62
     7
100
AcDbLine
 10
100.3365364301
 20
84.2471552508
 30
0.0
 11
99.5705503376
 21
84.2471552508
 31
0.0
  0
LINE
  5
382
330
1B
100
AcDbEntity
 67
     1
  8
7_ALL_FEATURES
  6
Continuous
 62
     7
100
AcDbLine
 10
95.7406198752
 20
84.2471552508
 30
0.0
 11
99.5705503376
 21
84.2471552508
 31
0.0
  0
LINE
  5
383
330
1B
100
AcDbEntity
 67
     1
  8
7_ALL_FEATURES
  6
Continuous
 62
     7
100
AcDbLine
 10
95.7406198752
 20
84.2471552508
 30
0.0
 11
94.9746337827
 21
84.2471552508
 31
0.0
  0
LINE
  5
384
330
1B
100
AcDbEntity
 67
     1
  8
7_ALL_FEATURES
  6
Continuous
 62
     7
100
AcDbLine
 10
30.6555851064
 20
84.2471552508
 30
0.0
 11
94.9746337827
 21
84.2471552508
 31
0.0
  0
LINE
  5
385
330
1B
100
AcDbEntity
 67
     1
  8
7_ALL_FEATURES
  6
Continuous
 62
     7
100
AcDbLine
 10
30.6555851064
 20
84.2471552508
 30
0.0
 11
27.6555851064
 21
84.2471552508
 31
0.0
  0
LINE
  5
386
330
1B
100
AcDbEntity
 67
     1
  8
7_ALL_FEATURES
  6
Continuous
 62
     7
100
AcDbLine
 10
167.6555851064
 20
84.2471552508
 30
0.0
 11
167.6555851064
 21
86.2471552508
 31
0.0
  0
LINE
  5
387
330
1B
100
AcDbEntity
 67
     1
  8
7_ALL_FEATURES
  6
Continuous
 62
     7
100
AcDbLine
 10
27.6555851064
 20
84.2471552508
 30
0.0
 11
27.6555851064
 21
86.2471552508
 31
0.0
  0
LINE
  5
388
330
1B
100
AcDbEntity
 67
     1
  8
7_ALL_FEATURES
  6
Continuous
 62
     7
100
AcDbLine
 10
137.4251377281
 20
131.0167078725
 30
0.0
 11
160.5845172945
 21
154.176087439
 31
0.0
  0
LINE
  5
389
330
1B
100
AcDbEntity
 67
     1
  8
7_ALL_FEATURES
  6
Continuous
 62
     7
100
AcDbLine
 10
160.5845172945
 20
154.176087439
 30
0.0
 11
164.1200512005
 21
157.7116213449
 31
0.0
  0
LINE
  5
38A
330
1B
100
AcDbEntity
 67
     1
  8
7_ALL_FEATURES
  6
Continuous
 62
     7
100
AcDbLine
 10
126.5611766974
 20
120.1527468419
 30
0.0
 11
135.9251377281
 21
129.5167078725
 31
0.0
  0
LINE
  5
38B
330
1B
100
AcDbEntity
 67
     1
  8
7_ALL_FEATURES
  6
Continuous
 62
     7
100
AcDbLine
 10
135.9251377281
 20
129.5167078725
 30
0.0
 11
137.4251377281
 21
131.0167078725
 31
0.0
  0
LINE
  5
38C
330
1B
100
AcDbEntity
 67
     1
  8
7_ALL_FEATURES
  6
Continuous
 62
     7
100
AcDbLine
 10
34.7266529182
 20
154.176087439
 30
0.0
 11
57.8860324847
 21
131.0167078725
 31
0.0
  0
LINE
  5
38D
330
1B
100
AcDbEntity
 67
     1
  8
7_ALL_FEATURES
  6
Continuous
 62
     7
100
AcDbLine
 10
57.8860324847
 20
131.0167078725
 30
0.0
 11
59.3860324847
 21
129.5167078725
 31
0.0
  0
LINE
  5
38E
330
1B
100
AcDbEntity
 67
     1
  8
7_ALL_FEATURES
  6
Continuous
 62
     7
100
AcDbLine
 10
59.3860324847
 20
129.5167078725
 30
0.0
 11
68.7499935154
 21
120.1527468419
 31
0.0
  0
LINE
  5
38F
330
1B
100
AcDbEntity
 67
     1
  8
7_ALL_FEATURES
  6
Continuous
 62
     7
100
AcDbLine
 10
68.7499935154
 20
120.1527468419
 30
0.0
 11
69.3713138589
 21
119.5314264983
 31
0.0
  0
LINE
  5
390
330
1B
100
AcDbEntity
 67
     1
  8
7_ALL_FEATURES
  6
Continuous
 62
     7
100
AcDbLine
 10
69.3713138589
 20
119.5314264983
 30
0.0
 11
67.9571002965
 21
118.1172129359
 31
0.0
  0
LINE
  5
391
330
1B
100
AcDbEntity
 67
     1
  8
7_ALL_FEATURES
  6
Continuous
 62
     7
100
AcDbLine
 10
127.3540699162
 20
118.1172129359
 30
0.0
 11
125.9398563538
 21
119.5314264983
 31
0.0
  0
LINE
  5
392
330
1B
100
AcDbEntity
 67
     1
  8
7_ALL_FEATURES
  6
Continuous
 62
     7
100
AcDbLine
 10
29.7769054499
 20
156.2974077825
 30
0.0
 11
31.1911190123
 21
157.7116213449
 31
0.0
  0
LINE
  5
393
330
1B
100
AcDbEntity
 67
     1
  8
7_ALL_FEATURES
  6
Continuous
 62
     7
100
AcDbLine
 10
165.5342647628
 20
156.2974077825
 30
0.0
 11
164.1200512005
 21
157.7116213449
 31
0.0
  0
LINE
  5
394
330
1B
100
AcDbEntity
 67
     1
  8
7_ALL_FEATURES
  6
Continuous
 62
     9
100
AcDbLine
 10
95.7406198752
 20
84.2471552508
 30
0.0
 11
95.7406198752
 21
86.2471552508
 31
0.0
  0
LINE
  5
395
330
1B
100
AcDbEntity
 67
     1
  8
7_ALL_FEATURES
  6
Continuous
 62
     9
100
AcDbLine
 10
68.7499935154
 20
120.1527468419
 30
0.0
 11
67.335779953
 21
118.7385332795
 31
0.0
  0
LINE
  5
396
330
1B
100
AcDbEntity
 67
     1
  8
7_ALL_FEATURES
  6
Continuous
 62
     9
100
AcDbLine
 10
57.9718189223
 20
128.1024943102
 30
0.0
 11
59.3860324847
 21
129.5167078725
 31
0.0
  0
LINE
  5
397
330
1B
100
AcDbEntity
 67
     1
  8
7_ALL_FEATURES
  6
Continuous
 62
     9
100
AcDbLine
 10
99.5705503376
 20
84.2471552508
 30
0.0
 11
99.5705503376
 21
86.2471552508
 31
0.0
  0
LINE
  5
398
330
1B
100
AcDbEntity
 67
     1
  8
7_ALL_FEATURES
  6
Continuous
 62
     9
100
AcDbLine
 10
56.4718189223
 20
129.6024943102
 30
0.0
 11
57.8860324847
 21
131.0167078725
 31
0.0
  0
LINE
  5
399
330
1B
100
AcDbEntity
 67
     1
  8
7_ALL_FEATURES
  6
Continuous
 62
     9
100
AcDbLine
 10
33.3124393559
 20
152.7618738766
 30
0.0
 11
34.7266529182
 21
154.176087439
 31
0.0
  0
LINE
  5
39A
330
1B
100
AcDbEntity
 67
     1
  8
7_ALL_FEATURES
  6
Continuous
 62
     9
100
AcDbLine
 10
30.6555851064
 20
84.2471552508
 30
0.0
 11
30.6555851064
 21
86.2471552508
 31
0.0
  0
LINE
  5
39B
330
1B
100
AcDbEntity
 67
     1
  8
7_ALL_FEATURES
  6
Continuous
 62
     9
100
AcDbLine
 10
161.9987308569
 20
152.7618738766
 30
0.0
 11
160.5845172945
 21
154.176087439
 31
0.0
  0
LINE
  5
39C
330
1B
100
AcDbEntity
 67
     1
  8
7_ALL_FEATURES
  6
Continuous
 62
     9
100
AcDbLine
 10
137.4251377281
 20
131.0167078725
 30
0.0
 11
138.8393512905
 21
129.6024943102
 31
0.0
  0
LINE
  5
39D
330
1B
100
AcDbEntity
 67
     1
  8
7_ALL_FEATURES
  6
Continuous
 62
     9
100
AcDbLine
 10
127.9753902598
 20
118.7385332795
 30
0.0
 11
126.5611766974
 21
120.1527468419
 31
0.0
  0
LINE
  5
39E
330
1B
100
AcDbEntity
 67
     1
  8
7_ALL_FEATURES
  6
Continuous
 62
     9
100
AcDbLine
 10
100.3365364301
 20
84.2471552508
 30
0.0
 11
100.3365364301
 21
86.2471552508
 31
0.0
  0
LINE
  5
39F
330
1B
100
AcDbEntity
 67
     1
  8
7_ALL_FEATURES
  6
Continuous
 62
     9
100
AcDbLine
 10
164.6555851064
 20
84.2471552508
 30
0.0
 11
164.6555851064
 21
86.2471552508
 31
0.0
  0
LINE
  5
3A0
330
1B
100
AcDbEntity
 67
     1
  8
7_ALL_FEATURES
  6
Continuous
 62
     9
100
AcDbLine
 10
94.9746337827
 20
84.2471552508
 30
0.0
 11
94.9746337827
 21
86.2471552508
 31
0.0
  0
LINE
  5
3A1
330
1B
100
AcDbEntity
 67
     1
  8
7_ALL_FEATURES
  6
Continuous
 62
     9
100
AcDbLine
 10
135.9251377281
 20
129.5167078725
 30
0.0
 11
137.3393512905
 21
128.1024943102
 31
0.0
  0
LINE
  5
3A2
330
1B
100
AcDbEntity
 67
     1
  8
7_ALL_FEATURES
  6
Continuous
 62
     3
100
AcDbLine
 10
164.6555851064
 20
86.2471552508
 30
0.0
 11
167.6555851064
 21
86.2471552508
 31
0.0
  0
LINE
  5
3A3
330
1B
100
AcDbEntity
 67
     1
  8
7_ALL_FEATURES
  6
Continuous
 62
     3
100
AcDbLine
 10
100.3365364301
 20
86.2471552508
 30
0.0
 11
164.6555851064
 21
86.2471552508
 31
0.0
  0
LINE
  5
3A4
330
1B
100
AcDbEntity
 67
     1
  8
7_ALL_FEATURES
  6
Continuous
 62
     3
100
AcDbLine
 10
99.5705503376
 20
86.2471552508
 30
0.0
 11
100.3365364301
 21
86.2471552508
 31
0.0
  0
LINE
  5
3A5
330
1B
100
AcDbEntity
 67
     1
  8
7_ALL_FEATURES
  6
Continuous
 62
     3
100
AcDbLine
 10
95.7406198752
 20
86.2471552508
 30
0.0
 11
99.5705503376
 21
86.2471552508
 31
0.0
  0
LINE
  5
3A6
330
1B
100
AcDbEntity
 67
     1
  8
7_ALL_FEATURES
  6
Continuous
 62
     3
100
AcDbLine
 10
94.9746337827
 20
86.2471552508
 30
0.0
 11
95.7406198752
 21
86.2471552508
 31
0.0
  0
LINE
  5
3A7
330
1B
100
AcDbEntity
 67
     1
  8
7_ALL_FEATURES
  6
Continuous
 62
     3
100
AcDbLine
 10
30.6555851064
 20
86.2471552508
 30
0.0
 11
94.9746337827
 21
86.2471552508
 31
0.0
  0
ARC
  5
3A8
330
1B
100
AcDbEntity
 67
     1
  8
7_ALL_FEATURES
  6
Continuous
 62
     3
100
AcDbCircle
 10
30.6555851064
 20
152.9334467519
 30
0.0
 40
3.0
100
AcDbArc
 50
139.6391631101
 51
180.0
  0
LINE
  5
3A9
330
1B
100
AcDbEntity
 67
     1
  8
7_ALL_FEATURES
  6
Continuous
 62
     3
100
AcDbLine
 10
68.1692323309
 20
117.9050809016
 30
0.0
 11
68.1555851064
 21
117.8914336771
 31
0.0
  0
ARC
  5
3AA
330
1B
100
AcDbEntity
 67
     1
  8
7_ALL_FEATURES
  6
Continuous
 62
     3
100
AcDbCircle
 10
69.5834458933
 20
116.4908673392
 30
0.0
 40
2.0
100
AcDbArc
 50
45.0
 51
135.0
  0
LINE
  5
3AB
330
1B
100
AcDbEntity
 67
     1
  8
7_ALL_FEATURES
  6
Continuous
 62
     3
100
AcDbLine
 10
70.9976594557
 20
117.9050809016
 30
0.0
 11
93.0836666364
 21
95.8190737208
 31
0.0
  0
ARC
  5
3AC
330
1B
100
AcDbEntity
 67
     1
  8
7_ALL_FEATURES
  6
Continuous
 62
     3
100
AcDbCircle
 10
91.6694530741
 20
94.4048601584
 30
0.0
 40
2.0
100
AcDbArc
 50
356.1037025817
 51
45.0
  0
ARC
  5
3AD
330
1B
100
AcDbEntity
 67
     1
  8
7_ALL_FEATURES
  6
Continuous
 62
     3
100
AcDbCircle
 10
97.6555851064
 20
93.9971552508
 30
0.0
 40
4.0
100
AcDbArc
 50
176.1037025817
 51
180.0
  0
ARC
  5
3AE
330
1B
100
AcDbEntity
 67
     1
  8
02___PRT_ALL_AXES
  6
Continuous
 62
     3
100
AcDbCircle
 10
97.6555851064
 20
93.9971552508
 30
0.0
 40
4.0
100
AcDbArc
 50
180.0
 51
360.0
  0
ARC
  5
3AF
330
1B
100
AcDbEntity
 67
     1
  8
7_ALL_FEATURES
  6
Continuous
 62
     3
100
AcDbCircle
 10
97.6555851064
 20
93.9971552508
 30
0.0
 40
4.0
100
AcDbArc
 50
0.0
 51
3.8962974183
  0
ARC
  5
3B0
330
1B
100
AcDbEntity
 67
     1
  8
7_ALL_FEATURES
  6
Continuous
 62
     3
100
AcDbCircle
 10
103.6417171387
 20
94.4048601584
 30
0.0
 40
2.0
100
AcDbArc
 50
135.0
 51
183.8962974183
  0
LINE
  5
3B1
330
1B
100
AcDbEntity
 67
     1
  8
7_ALL_FEATURES
  6
Continuous
 62
     3
100
AcDbLine
 10
102.2275035763
 20
95.8190737208
 30
0.0
 11
124.3135107571
 21
117.9050809016
 31
0.0
  0
ARC
  5
3B2
330
1B
100
AcDbEntity
 67
     1
  8
7_ALL_FEATURES
  6
Continuous
 62
     3
100
AcDbCircle
 10
125.7277243195
 20
116.4908673392
 30
0.0
 40
2.0
100
AcDbArc
 50
45.0
 51
135.0
  0
LINE
  5
3B3
330
1B
100
AcDbEntity
 67
     1
  8
7_ALL_FEATURES
  6
Continuous
 62
     3
100
AcDbLine
 10
127.1419378819
 20
117.9050809016
 30
0.0
 11
127.1555851064
 21
117.8914336771
 31
0.0
  0
ARC
  5
3B4
330
1B
100
AcDbEntity
 67
     1
  8
7_ALL_FEATURES
  6
Continuous
 62
     3
100
AcDbCircle
 10
164.6555851064
 20
152.9334467519
 30
0.0
 40
3.0
100
AcDbArc
 50
0.0
 51
40.3608368899
  0
LINE
  5
3B5
330
1B
100
AcDbEntity
 67
     1
  8
7_ALL_FEATURES
  6
Continuous
 62
     3
100
AcDbLine
 10
167.6555851064
 20
152.9334467519
 30
0.0
 11
167.6555851064
 21
88.2471552508
 31
0.0
  0
LINE
  5
3B6
330
1B
100
AcDbEntity
 67
     1
  8
7_ALL_FEATURES
  6
Continuous
 62
     3
100
AcDbLine
 10
27.6555851064
 20
88.2471552508
 30
0.0
 11
27.6555851064
 21
152.9334467519
 31
0.0
  0
LINE
  5
3B7
330
1B
100
AcDbEntity
 67
     1
  8
7_ALL_FEATURES
  6
Continuous
 62
     3
100
AcDbLine
 10
167.6555851064
 20
88.2471552508
 30
0.0
 11
167.6555851064
 21
86.2471552508
 31
0.0
  0
LINE
  5
3B8
330
1B
100
AcDbEntity
 67
     1
  8
7_ALL_FEATURES
  6
Continuous
 62
     3
100
AcDbLine
 10
27.6555851064
 20
88.2471552508
 30
0.0
 11
27.6555851064
 21
86.2471552508
 31
0.0
  0
LINE
  5
3B9
330
1B
100
AcDbEntity
 67
     1
  8
7_ALL_FEATURES
  6
Continuous
 62
     3
100
AcDbLine
 10
27.6555851064
 20
86.2471552508
 30
0.0
 11
30.6555851064
 21
86.2471552508
 31
0.0
  0
LINE
  5
3BA
330
1B
100
AcDbEntity
 67
     1
  8
7_ALL_FEATURES
  6
Continuous
 62
     3
100
AcDbLine
 10
67.9571002965
 20
118.1172129359
 30
0.0
 11
67.335779953
 21
118.7385332795
 31
0.0
  0
LINE
  5
3BB
330
1B
100
AcDbEntity
 67
     1
  8
7_ALL_FEATURES
  6
Continuous
 62
     3
100
AcDbLine
 10
165.5342647628
 20
156.2974077825
 30
0.0
 11
161.9987308569
 21
152.7618738766
 31
0.0
  0
LINE
  5
3BC
330
1B
100
AcDbEntity
 67
     1
  8
7_ALL_FEATURES
  6
Continuous
 62
     3
100
AcDbLine
 10
33.3124393559
 20
152.7618738766
 30
0.0
 11
29.7769054499
 21
156.2974077825
 31
0.0
  0
LINE
  5
3BD
330
1B
100
AcDbEntity
 67
     1
  8
7_ALL_FEATURES
  6
Continuous
 62
     3
100
AcDbLine
 10
33.3124393559
 20
152.7618738766
 30
0.0
 11
56.4718189223
 21
129.6024943102
 31
0.0
  0
LINE
  5
3BE
330
1B
100
AcDbEntity
 67
     1
  8
7_ALL_FEATURES
  6
Continuous
 62
     3
100
AcDbLine
 10
57.9718189223
 20
128.1024943102
 30
0.0
 11
56.4718189223
 21
129.6024943102
 31
0.0
  0
LINE
  5
3BF
330
1B
100
AcDbEntity
 67
     1
  8
7_ALL_FEATURES
  6
Continuous
 62
     3
100
AcDbLine
 10
67.335779953
 20
118.7385332795
 30
0.0
 11
57.9718189223
 21
128.1024943102
 31
0.0
  0
ARC
  5
3C0
330
1B
100
AcDbEntity
 67
     1
  8
7_ALL_FEATURES
  6
Continuous
 62
     3
100
AcDbCircle
 10
30.6555851064
 20
152.9334467519
 30
0.0
 40
3.0
100
AcDbArc
 50
135.0
 51
139.6391631101
  0
LINE
  5
3C1
330
1B
100
AcDbEntity
 67
     1
  8
7_ALL_FEATURES
  6
Continuous
 62
     3
100
AcDbLine
 10
29.7537519738
 20
156.2742543064
 30
0.0
 11
28.5342647628
 21
155.0547670954
 31
0.0
  0
LINE
  5
3C2
330
1B
100
AcDbEntity
 67
     1
  8
7_ALL_FEATURES
  6
Continuous
 62
     3
100
AcDbLine
 10
67.9339468204
 20
118.0940594598
 30
0.0
 11
67.8370426115
 21
117.9971552508
 31
0.0
  0
LINE
  5
3C3
330
1B
100
AcDbEntity
 67
     1
  8
7_ALL_FEATURES
  6
Continuous
 62
     3
100
AcDbLine
 10
127.3540699162
 20
118.1172129359
 30
0.0
 11
127.3772233923
 21
118.0940594598
 31
0.0
  0
LINE
  5
3C4
330
1B
100
AcDbEntity
 67
     1
  8
7_ALL_FEATURES
  6
Continuous
 62
     3
100
AcDbLine
 10
165.5342647628
 20
156.2974077825
 30
0.0
 11
165.5574182389
 21
156.2742543064
 31
0.0
  0
LINE
  5
3C5
330
1B
100
AcDbEntity
 67
     1
  8
7_ALL_FEATURES
  6
Continuous
 62
     3
100
AcDbLine
 10
29.7769054499
 20
156.2974077825
 30
0.0
 11
29.7537519738
 21
156.2742543064
 31
0.0
  0
LINE
  5
3C6
330
1B
100
AcDbEntity
 67
     1
  8
7_ALL_FEATURES
  6
Continuous
 62
     3
100
AcDbLine
 10
67.9571002965
 20
118.1172129359
 30
0.0
 11
67.9339468204
 21
118.0940594598
 31
0.0
  0
LINE
  5
3C7
330
1B
100
AcDbEntity
 67
     1
  8
7_ALL_FEATURES
  6
Continuous
 62
     3
100
AcDbLine
 10
138.8393512905
 20
129.6024943102
 30
0.0
 11
137.3393512905
 21
128.1024943102
 31
0.0
  0
LINE
  5
3C8
330
1B
100
AcDbEntity
 67
     1
  8
7_ALL_FEATURES
  6
Continuous
 62
     3
100
AcDbLine
 10
138.8393512905
 20
129.6024943102
 30
0.0
 11
161.9987308569
 21
152.7618738766
 31
0.0
  0
LINE
  5
3C9
330
1B
100
AcDbEntity
 67
     1
  8
7_ALL_FEATURES
  6
Continuous
 62
     3
100
AcDbLine
 10
127.9753902598
 20
118.7385332795
 30
0.0
 11
127.3540699162
 21
118.1172129359
 31
0.0
  0
LINE
  5
3CA
330
1B
100
AcDbEntity
 67
     1
  8
7_ALL_FEATURES
  6
Continuous
 62
     3
100
AcDbLine
 10
137.3393512905
 20
128.1024943102
 30
0.0
 11
127.9753902598
 21
118.7385332795
 31
0.0
  0
ARC
  5
3CB
330
1B
100
AcDbEntity
 67
     1
  8
7_ALL_FEATURES
  6
Continuous
 62
     3
100
AcDbCircle
 10
164.6555851064
 20
152.9334467519
 30
0.0
 40
3.0
100
AcDbArc
 50
40.3608368899
 51
45.0
  0
LINE
  5
3CC
330
1B
100
AcDbEntity
 67
     1
  8
7_ALL_FEATURES
  6
Continuous
 62
     3
100
AcDbLine
 10
127.3772233923
 20
118.0940594598
 30
0.0
 11
127.4741276013
 21
117.9971552508
 31
0.0
  0
LINE
  5
3CD
330
1B
100
AcDbEntity
 67
     1
  8
7_ALL_FEATURES
  6
Continuous
 62
     3
100
AcDbLine
 10
165.5574182389
 20
156.2742543064
 30
0.0
 11
166.7769054499
 21
155.0547670954
 31
0.0
  0
LINE
  5
3CE
330
1B
100
AcDbEntity
 67
     1
  8
7_ALL_FEATURES
  6
Continuous
 62
     9
100
AcDbLine
 10
62.1555851064
 20
121.0903010013
 30
0.0
 11
28.3696416987
 21
154.876244409
 31
0.0
  0
LINE
  5
3CF
330
1B
100
AcDbEntity
 67
     1
  8
7_ALL_FEATURES
  6
Continuous
 62
     9
100
AcDbLine
 10
167.6555851064
 20
88.2471552508
 30
0.0
 11
133.1555851064
 21
88.2471552508
 31
0.0
  0
LINE
  5
3D0
330
1B
100
AcDbEntity
 67
     1
  8
7_ALL_FEATURES
  6
Continuous
 62
     9
100
AcDbLine
 10
127.1555851064
 20
88.2471552508
 30
0.0
 11
68.1555851064
 21
88.2471552508
 31
0.0
  0
LINE
  5
3D1
330
1B
100
AcDbEntity
 67
     1
  8
7_ALL_FEATURES
  6
Continuous
 62
     9
100
AcDbLine
 10
62.1555851064
 20
88.2471552508
 30
0.0
 11
27.6555851064
 21
88.2471552508
 31
0.0
  0
LINE
  5
3D2
330
1B
100
AcDbEntity
 67
     1
  8
7_ALL_FEATURES
  6
Continuous
 62
     9
100
AcDbLine
 10
166.9415285141
 20
154.876244409
 30
0.0
 11
133.1555851064
 21
121.0903010013
 31
0.0
  0
ARC
  5
3D3
330
1B
100
AcDbEntity
 67
     1
  8
7_ALL_FEATURES
  6
Continuous
 62
     7
100
AcDbCircle
 10
250.1737224087
 20
241.4468085106
 30
0.0
 40
1.0
100
AcDbArc
 50
90.0
 51
180.0
  0
LINE
  5
3D4
330
1B
100
AcDbEntity
 67
     1
  8
7_ALL_FEATURES
  6
Continuous
 62
     7
100
AcDbLine
 10
251.8717414448
 20
242.4468085106
 30
0.0
 11
250.1737224087
 21
242.4468085106
 31
0.0
  0
ARC
  5
3D5
330
1B
100
AcDbEntity
 67
     1
  8
7_ALL_FEATURES
  6
Continuous
 62
     7
100
AcDbCircle
 10
251.8717414448
 20
239.4468085106
 30
0.0
 40
3.0
100
AcDbArc
 50
15.0
 51
90.0
  0
LINE
  5
3D6
330
1B
100
AcDbEntity
 67
     1
  8
7_ALL_FEATURES
  6
Continuous
 62
     7
100
AcDbLine
 10
260.2766557046
 20
219.6703513753
 30
0.0
 11
254.7695189237
 21
240.2232656459
 31
0.0
  0
LINE
  5
3D7
330
1B
100
AcDbEntity
 67
     1
  8
7_ALL_FEATURES
  6
Continuous
 62
     7
100
AcDbLine
 10
263.1744331835
 20
217.4468085106
 30
0.0
 11
270.2723765394
 21
217.4468085106
 31
0.0
  0
LINE
  5
3D8
330
1B
100
AcDbEntity
 67
     1
  8
7_ALL_FEATURES
  6
Continuous
 62
     7
100
AcDbLine
 10
273.1701540183
 20
219.6703513753
 30
0.0
 11
275.7251235704
 21
229.2056275557
 31
0.0
  0
ARC
  5
3D9
330
1B
100
AcDbEntity
 67
     1
  8
7_ALL_FEATURES
  6
Continuous
 62
     7
100
AcDbCircle
 10
276.6910493967
 20
228.9468085106
 30
0.0
 40
1.0
100
AcDbArc
 50
90.0
 51
165.0
  0
LINE
  5
3DA
330
1B
100
AcDbEntity
 67
     1
  8
7_ALL_FEATURES
  6
Continuous
 62
     7
100
AcDbLine
 10
276.6910493967
 20
229.9468085106
 30
0.0
 11
279.9237224087
 21
229.9468085106
 31
0.0
  0
ARC
  5
3DB
330
1B
100
AcDbEntity
 67
     1
  8
7_ALL_FEATURES
  6
Continuous
 62
     7
100
AcDbCircle
 10
279.9237224087
 20
228.9468085106
 30
0.0
 40
1.0
100
AcDbArc
 50
0.0
 51
90.0
  0
ARC
  5
3DC
330
1B
100
AcDbEntity
 67
     1
  8
7_ALL_FEATURES
  6
Continuous
 62
     7
100
AcDbCircle
 10
270.2723765394
 20
220.4468085106
 30
0.0
 40
3.0
100
AcDbArc
 50
270.0
 51
345.0
  0
ARC
  5
3DD
330
1B
100
AcDbEntity
 67
     1
  8
7_ALL_FEATURES
  6
Continuous
 62
     7
100
AcDbCircle
 10
263.1744331835
 20
220.4468085106
 30
0.0
 40
3.0
100
AcDbArc
 50
195.0
 51
270.0
  0
LINE
  5
3DE
330
1B
100
AcDbEntity
 67
     1
  8
7_ALL_FEATURES
  6
Continuous
 62
     7
100
AcDbLine
 10
249.1737224087
 20
241.4468085106
 30
0.0
 11
249.1737224087
 21
241.3821268969
 31
0.0
  0
SPLINE
  5
3DF
330
1B
100
AcDbEntity
 67
     1
  8
06___PRT_ALL_SURFS
  6
Continuous
 62
     7
100
AcDbSpline
 70
     0
 71
     3
 72
    17
 73
    13
 74
     0
 42
0.000000001
 43
0.0000001
 40
0.0
 40
0.0
 40
0.0
 40
0.0
 40
0.155173867
 40
0.29895021
 40
0.4319912008
 40
0.5556285478
 40
0.6716153358
 40
0.7821204428
 40
0.8362804824
 40
0.890243242
 40
0.9445928299
 40
1.0
 40
1.0
 40
1.0
 40
1.0
 10
246.0805766582
 20
207.4468085106
 30
0.0
 10
245.8831976023
 20
207.4468085106
 30
0.0
 10
245.5022905016
 20
207.4749014515
 30
0.0
 10
244.9642772293
 20
207.5954485804
 30
0.0
 10
244.4873509821
 20
207.779907095
 30
0.0
 10
244.0758226588
 20
208.0195256428
 30
0.0
 10
243.7340596918
 20
208.3089396225
 30
0.0
 10
243.5116568545
 20
208.592240502
 30
0.0
 10
243.3812551853
 20
208.8385807664
 30
0.0
 10
243.3085025081
 20
209.0326854692
 30
0.0
 10
243.2626342596
 20
209.2364958691
 30
0.0
 10
243.2521495335
 20
209.3763313411
 30
0.0
 10
243.2521495335
 20
209.4468085106
 30
0.0
  0
ELLIPSE
  5
3E0
330
1B
100
AcDbEntity
 67
     1
  8
06___PRT_ALL_SURFS
  6
Continuous
 62
     7
100
AcDbEllipse
 10
246.8652272531
 20
239.4468085106
 30
0.0
 11
3.6130777197
 21
0.0
 31
0.0
210
0.0
220
0.0
230
1.0
 40
0.5535446938
 41
1.5707963268
 42
3.1415926536
  0
ELLIPSE
  5
3E1
330
1B
100
AcDbEntity
 67
     1
  8
06___PRT_ALL_SURFS
  6
Continuous
 62
     7
100
AcDbEllipse
 10
279.7521495335
 20
226.9468085106
 30
0.0
 11
2.8284271247
 21
0.0
 31
0.0
210
0.0
220
0.0
230
1.0
 40
0.7071067812
 41
1.5707963268
 42
3.1415926536
  0
ELLIPSE
  5
3E2
330
1B
100
AcDbEntity
 67
     1
  8
06___PRT_ALL_SURFS
  6
Continuous
 62
     7
100
AcDbEllipse
 10
247.8249466535
 20
239.4468085106
 30
0.0
 11
5.3487757552
 21
0.0
 31
0.0
210
0.0
220
0.0
230
1.0
 40
0.3739173395
 41
0.0
 42
1.3158781583
  0
ELLIPSE
  5
3E3
330
1B
100
AcDbEntity
 67
     1
  8
06___PRT_ALL_SURFS
  6
Continuous
 62
     7
100
AcDbEllipse
 10
247.8249466535
 20
239.4468085106
 30
0.0
 11
5.3487757552
 21
0.0
 31
0.0
210
0.0
220
0.0
230
1.0
 40
0.3739173395
 41
1.3158781583
 42
1.5707963268
  0
LINE
  5
3E4
330
1B
100
AcDbEntity
 67
     1
  8
06___PRT_ALL_SURFS
  6
Continuous
 62
     7
100
AcDbLine
 10
246.8652272531
 20
241.4468085106
 30
0.0
 11
247.8249466535
 21
241.4468085106
 31
0.0
  0
LINE
  5
3E5
330
1B
100
AcDbEntity
 67
     1
  8
06___PRT_ALL_SURFS
  6
Continuous
 62
     7
100
AcDbLine
 10
279.7521495335
 20
228.9468085106
 30
0.0
 11
280.9237224087
 21
228.9468085106
 31
0.0
  0
LINE
  5
3E6
330
1B
100
AcDbEntity
 67
     1
  8
06___PRT_ALL_SURFS
  6
Continuous
 62
     7
100
AcDbLine
 10
243.2521495335
 20
209.4468085106
 30
0.0
 11
243.2521495335
 21
239.4468085106
 31
0.0
  0
LINE
  5
3E7
330
1B
100
AcDbEntity
 67
     1
  8
06___PRT_ALL_SURFS
  6
Continuous
 62
     7
100
AcDbLine
 10
253.1737224087
 20
213.9468085106
 30
0.0
 11
253.1737224087
 21
239.4468085106
 31
0.0
  0
ARC
  5
3E8
330
1B
100
AcDbEntity
 67
     1
  8
06___PRT_ALL_SURFS
  6
Continuous
 62
     7
100
AcDbCircle
 10
255.6737224087
 20
213.9468085106
 30
0.0
 40
2.5
100
AcDbArc
 50
179.9999999894
 51
270.0000000111
  0
LINE
  5
3E9
330
1B
100
AcDbEntity
 67
     1
  8
06___PRT_ALL_SURFS
  6
Continuous
 62
     7
100
AcDbLine
 10
276.9237224087
 20
226.9468085106
 30
0.0
 11
276.9237224087
 21
213.9468085106
 31
0.0
  0
ARC
  5
3EA
330
1B
100
AcDbEntity
 67
     1
  8
06___PRT_ALL_SURFS
  6
Continuous
 62
     7
100
AcDbCircle
 10
274.4237224087
 20
213.9468085106
 30
0.0
 40
2.5
100
AcDbArc
 50
269.999999901
 51
360.0
  0
LINE
  5
3EB
330
1B
100
AcDbEntity
 67
     1
  8
06___PRT_ALL_SURFS
  6
Continuous
 62
     7
100
AcDbLine
 10
274.4237224087
 20
211.4468085106
 30
0.0
 11
255.6737224087
 21
211.4468085106
 31
0.0
  0
LINE
  5
3EC
330
1B
100
AcDbEntity
 67
     1
  8
06___PRT_ALL_SURFS
  6
Continuous
 62
     9
100
AcDbLine
 10
276.9237224087
 20
213.9468085106
 30
0.0
 11
280.9237224087
 21
209.4468085106
 31
0.0
  0
LINE
  5
3ED
330
1B
100
AcDbEntity
 67
     1
  8
06___PRT_ALL_SURFS
  6
Continuous
 62
     9
100
AcDbLine
 10
274.4237224087
 20
211.4468085106
 30
0.0
 11
278.9237224087
 21
207.4468085106
 31
0.0
  0
LINE
  5
3EE
330
1B
100
AcDbEntity
 67
     1
  8
06___PRT_ALL_SURFS
  6
Continuous
 62
     9
100
AcDbLine
 10
243.2521495335
 20
239.4468085106
 30
0.0
 11
253.1737224087
 21
239.4468085106
 31
0.0
  0
LINE
  5
3EF
330
1B
100
AcDbEntity
 67
     1
  8
06___PRT_ALL_SURFS
  6
Continuous
 62
     9
100
AcDbLine
 10
276.9237224087
 20
226.9468085106
 30
0.0
 11
280.9237224087
 21
226.9468085106
 31
0.0
  0
LINE
  5
3F0
330
1B
100
AcDbEntity
 67
     1
  8
06___PRT_ALL_SURFS
  6
Continuous
 62
     9
100
AcDbLine
 10
255.6737224087
 20
211.4468085106
 30
0.0
 11
246.0805766582
 21
207.4468085106
 31
0.0
  0
LINE
  5
3F1
330
1B
100
AcDbEntity
 67
     1
  8
06___PRT_ALL_SURFS
  6
Continuous
 62
     9
100
AcDbLine
 10
253.1737224087
 20
213.9468085106
 30
0.0
 11
243.2521495335
 21
209.4468085106
 31
0.0
  0
SPLINE
  5
3F2
330
1B
100
AcDbEntity
 67
     1
  8
7_ALL_FEATURES
  6
Continuous
 62
     7
100
AcDbSpline
 70
     0
 71
     3
 72
     9
 73
     5
 74
     0
 42
0.000000001
 43
0.0000001
 40
0.0
 40
0.0
 40
0.0
 40
0.0
 40
0.2568363581
 40
1.0
 40
1.0
 40
1.0
 40
1.0
 10
212.2946332505
 20
205.4468085106
 30
0.0
 10
212.2793339618
 20
205.4468085106
 30
0.0
 10
212.2197683881
 20
205.447393694
 30
0.0
 10
212.1602169152
 20
205.4503838985
 30
0.0
 10
212.1161105642
 20
205.4541746059
 30
0.0
  0
ARC
  5
3F3
330
1B
100
AcDbEntity
 67
     1
  8
7_ALL_FEATURES
  6
Continuous
 62
     7
100
AcDbCircle
 10
215.085868679
 20
209.4463531513
 30
0.0
 40
5.6266123827
100
AcDbArc
 50
179.9953630769
 51
187.3558966809
  0
SPLINE
  5
3F4
330
1B
100
AcDbEntity
 67
     1
  8
7_ALL_FEATURES
  6
Continuous
 62
     7
100
AcDbSpline
 70
     0
 71
     3
 72
    16
 73
    12
 74
     0
 42
0.000000001
 43
0.0000001
 40
0.0
 40
0.0
 40
0.0
 40
0.0
 40
0.1448402818
 40
0.2856571153
 40
0.4209082107
 40
0.5495055794
 40
0.6709742922
 40
0.785603611
 40
0.894551353
 40
0.947578673
 40
1.0
 40
1.0
 40
1.0
 40
1.0
 10
209.5055632669
 20
208.7259654685
 30
0.0
 10
209.5334967384
 20
208.510344952
 30
0.0
 10
209.6137454355
 20
208.08785649
 30
0.0
 10
209.8080102158
 20
207.4848954441
 30
0.0
 10
210.0700132227
 20
206.9346755822
 30
0.0
 10
210.3930287589
 20
206.4521493767
 30
0.0
 10
210.7690042131
 20
206.0504703891
 30
0.0
 10
211.1883374831
 20
205.7411081343
 30
0.0
 10
211.5690479482
 20
205.5666134556
 30
0.0
 10
211.8806381535
 20
205.4837832067
 30
0.0
 10
212.0377089853
 20
205.4609128066
 30
0.0
 10
212.1161105642
 20
205.4541746059
 30
0.0
  0
SPLINE
  5
3F5
330
1B
100
AcDbEntity
 67
     1
  8
02___PRT_ALL_AXES
  6
Continuous
 62
     7
100
AcDbSpline
 70
     0
 71
     3
 72
    15
 73
    11
 74
     0
 42
0.000000001
 43
0.0000001
 40
0.0
 40
0.0
 40
0.0
 40
0.0
 40
0.1046009823
 40
0.2147608615
 40
0.331535733
 40
0.4551465551
 40
0.5850854257
 40
0.7202637856
 40
0.859166624
 40
1.0
 40
1.0
 40
1.0
 40
1.0
 10
217.2374682616
 20
239.3161437516
 30
0.0
 10
217.4028913202
 20
239.3727821043
 30
0.0
 10
217.7300332473
 20
239.5284495845
 30
0.0
 10
218.1740976656
 20
239.8654035227
 30
0.0
 10
218.571120688
 20
240.3003339553
 30
0.0
 10
218.9107722286
 20
240.8207210906
 30
0.0
 10
219.1845619518
 20
241.4122955374
 30
0.0
 10
219.3854134713
 20
242.0590359131
 30
0.0
 10
219.5080870913
 20
242.7433084486
 30
0.0
 10
219.5355279466
 20
243.2113921386
 30
0.0
 10
219.5355279466
 20
243.4468085106
 30
0.0
  0
SPLINE
  5
3F6
330
1B
100
AcDbEntity
 67
     1
  8
02___PRT_ALL_AXES
  6
Continuous
 62
     7
100
AcDbSpline
 70
     0
 71
     3
 72
    27
 73
    23
 74
     0
 42
0.000000001
 43
0.0000001
 40
0.0
 40
0.0
 40
0.0
 40
0.0
 40
0.0257490875
 40
0.0517421442
 40
0.0782084271
 40
0.1053465694
 40
0.1621424028
 40
0.222982103
 40
0.287915664
 40
0.3564143585
 40
0.4275210264
 40
0.5
 40
0.5724789736
 40
0.6435856415
 40
0.712084336
 40
0.777017897
 40
0.8378575972
 40
0.8946534306
 40
0.9217915729
 40
0.9482578558
 40
0.9742509125
 40
1.0
 40
1.0
 40
1.0
 40
1.0
 10
217.9445376889
 20
216.1968085106
 30
0.0
 10
218.0429623376
 20
216.1968085106
 30
0.0
 10
218.2410152392
 20
216.2106281841
 30
0.0
 10
218.5343925499
 20
216.2724746622
 30
0.0
 10
218.8218922673
 20
216.3747940486
 30
0.0
 10
219.1989935415
 20
216.5664020547
 30
0.0
 10
219.6421855315
 20
216.9066269416
 30
0.0
 10
220.0967729289
 20
217.4417935509
 30
0.0
 10
220.4680027737
 20
218.0892362599
 30
0.0
 10
220.7428768734
 20
218.8244923317
 30
0.0
 10
220.9118562475
 20
219.6202316079
 30
0.0
 10
220.9688647755
 20
220.4468085106
 30
0.0
 10
220.9118562475
 20
221.2733854133
 30
0.0
 10
220.7428768734
 20
222.0691246896
 30
0.0
 10
220.4680027737
 20
222.8043807614
 30
0.0
 10
220.0967729289
 20
223.4518234704
 30
0.0
 10
219.6421855315
 20
223.9869900797
 30
0.0
 10
219.1989935415
 20
224.3272149666
 30
0.0
 10
218.8218922673
 20
224.5188229727
 30
0.0
 10
218.5343925499
 20
224.621142359
 30
0.0
 10
218.2410152392
 20
224.6829888372
 30
0.0
 10
218.0429623376
 20
224.6968085106
 30
0.0
 10
217.9445376889
 20
224.6968085106
 30
0.0
  0
SPLINE
  5
3F7
330
1B
100
AcDbEntity
 67
     1
  8
02___PRT_ALL_AXES
  6
Continuous
 62
     7
100
AcDbSpline
 70
     0
 71
     3
 72
    31
 73
    27
 74
     0
 42
0.000000001
 43
0.0000001
 40
0.0
 40
0.0
 40
0.0
 40
0.0
 40
0.0257410878
 40
0.0517263571
 40
0.0781844833
 40
0.1053143243
 40
0.1332757536
 40
0.1621844521
 40
0.2230055304
 40
0.255004062
 40
0.2879805834
 40
0.3564583091
 40
0.4275432145
 40
0.5
 40
0.5724567855
 40
0.6435416909
 40
0.7120194166
 40
0.744995938
 40
0.7769944696
 40
0.8378155479
 40
0.8667242464
 40
0.8946856757
 40
0.9218155167
 40
0.9482736429
 40
0.9742589122
 40
1.0
 40
1.0
 40
1.0
 40
1.0
 10
232.4402267032
 20
222.9468085106
 30
0.0
 10
232.6718130599
 20
222.9468085106
 30
0.0
 10
233.1378184233
 20
222.9793241061
 30
0.0
 10
233.8281267527
 20
223.1248516752
 30
0.0
 10
234.5045664875
 20
223.365570407
 30
0.0
 10
235.1603052016
 20
223.6988338635
 30
0.0
 10
235.7891516015
 20
224.1211943847
 30
0.0
 10
236.5969820495
 20
224.8085335248
 30
0.0
 10
237.3118273384
 20
225.6495418609
 30
0.0
 10
237.9215878003
 20
226.6040899367
 30
0.0
 10
238.4785973566
 20
227.6693016799
 30
0.0
 10
239.0246312675
 20
229.1297673526
 30
0.0
 10
239.4221294471
 20
231.001876639
 30
0.0
 10
239.5563027412
 20
232.9468085106
 30
0.0
 10
239.4221294471
 20
234.8917403823
 30
0.0
 10
239.0246312675
 20
236.7638496687
 30
0.0
 10
238.4785973566
 20
238.2243153414
 30
0.0
 10
237.9215878003
 20
239.2895270846
 30
0.0
 10
237.3118273384
 20
240.2440751604
 30
0.0
 10
236.5969820495
 20
241.0850834964
 30
0.0
 10
235.7891516015
 20
241.7724226366
 30
0.0
 10
235.1603052016
 20
242.1947831577
 30
0.0
 10
234.5045664875
 20
242.5280466143
 30
0.0
 10
233.8281267527
 20
242.768765346
 30
0.0
 10
233.1378184233
 20
242.9142929152
 30
0.0
 10
232.6718130599
 20
242.9468085106
 30
0.0
 10
232.4402267032
 20
242.9468085106
 30
0.0
  0
LINE
  5
3F8
330
1B
100
AcDbEntity
 67
     1
  8
7_ALL_FEATURES
  6
Continuous
 62
     7
100
AcDbLine
 10
214.2374309077
 20
205.4468085106
 30
0.0
 11
212.2946332505
 21
205.4468085106
 31
0.0
  0
LINE
  5
3F9
330
1B
100
AcDbEntity
 67
     1
  8
7_ALL_FEATURES
  6
Continuous
 62
     7
100
AcDbLine
 10
278.9237224087
 20
205.4468085106
 30
0.0
 11
214.2374309077
 21
205.4468085106
 31
0.0
  0
LINE
  5
3FA
330
1B
100
AcDbEntity
 67
     1
  8
7_ALL_FEATURES
  6
Continuous
 62
     7
100
AcDbLine
 10
282.9237224087
 20
242.9468085106
 30
0.0
 11
280.9237224087
 21
242.9468085106
 31
0.0
  0
LINE
  5
3FB
330
1B
100
AcDbEntity
 67
     1
  8
7_ALL_FEATURES
  6
Continuous
 62
     7
100
AcDbLine
 10
282.9237224087
 20
209.4468085106
 30
0.0
 11
282.9237224087
 21
239.9468085106
 31
0.0
  0
ARC
  5
3FC
330
1B
100
AcDbEntity
 67
     1
  8
7_ALL_FEATURES
  6
Continuous
 62
     7
100
AcDbCircle
 10
278.9237224087
 20
209.4468085106
 30
0.0
 40
4.0
100
AcDbArc
 50
270.0
 51
360.0
  0
LINE
  5
3FD
330
1B
100
AcDbEntity
 67
     1
  8
7_ALL_FEATURES
  6
Continuous
 62
     7
100
AcDbLine
 10
282.9237224087
 20
242.9468085106
 30
0.0
 11
282.9237224087
 21
239.9468085106
 31
0.0
  0
LINE
  5
3FE
330
1B
100
AcDbEntity
 67
     1
  8
7_ALL_FEATURES
  6
Continuous
 62
     7
100
AcDbLine
 10
214.409003783
 20
260.4468085106
 30
0.0
 11
212.9947902206
 21
260.4468085106
 31
0.0
  0
SPLINE
  5
3FF
330
1B
100
AcDbEntity
 67
     1
  8
02___PRT_ALL_AXES
  6
Continuous
 62
     7
100
AcDbSpline
 70
     0
 71
     3
 72
    15
 73
    11
 74
     0
 42
0.000000001
 43
0.0000001
 40
0.0
 40
0.0
 40
0.0
 40
0.0
 40
0.140833376
 40
0.2797362144
 40
0.4149145743
 40
0.5448534449
 40
0.668464267
 40
0.7852391385
 40
0.8953990177
 40
1.0
 40
1.0
 40
1.0
 40
1.0
 10
219.5355279466
 20
247.4468085106
 30
0.0
 10
219.5355279466
 20
247.6822248826
 30
0.0
 10
219.5080870913
 20
248.1503085727
 30
0.0
 10
219.3854134713
 20
248.8345811082
 30
0.0
 10
219.1845619518
 20
249.4813214839
 30
0.0
 10
218.9107722286
 20
250.0728959307
 30
0.0
 10
218.571120688
 20
250.593283066
 30
0.0
 10
218.1740976656
 20
251.0282134986
 30
0.0
 10
217.7300332473
 20
251.3651674368
 30
0.0
 10
217.4028913202
 20
251.5208349169
 30
0.0
 10
217.2374682616
 20
251.5774732697
 30
0.0
  0
LINE
  5
400
330
1B
100
AcDbEntity
 67
     1
  8
02___PRT_ALL_AXES
  6
Continuous
 62
     7
100
AcDbLine
 10
219.5355279466
 20
247.4468085106
 30
0.0
 11
219.5355279466
 21
243.4468085106
 31
0.0
  0
LINE
  5
401
330
1B
100
AcDbEntity
 67
     1
  8
7_ALL_FEATURES
  6
Continuous
 62
     7
100
AcDbLine
 10
209.4592563147
 20
209.4468085106
 30
0.0
 11
209.4592563147
 21
255.4468085106
 31
0.0
  0
SPLINE
  5
402
330
1B
100
AcDbEntity
 67
     1
  8
7_ALL_FEATURES
  6
Continuous
 62
     7
100
AcDbSpline
 70
     0
 71
     3
 72
    17
 73
    13
 74
     0
 42
0.000000001
 43
0.0000001
 40
0.0
 40
0.0
 40
0.0
 40
0.0
 40
0.1449578793
 40
0.2871712832
 40
0.4241686677
 40
0.5540358011
 40
0.6757152039
 40
0.7893068495
 40
0.8435831573
 40
0.8965156631
 40
0.9485018852
 40
1.0
 40
1.0
 40
1.0
 40
1.0
 10
209.4592563147
 20
255.4468085106
 30
0.0
 10
209.4592563147
 20
255.772746469
 30
0.0
 10
209.5038276995
 20
256.419374048
 30
0.0
 10
209.7026261971
 20
257.3553844457
 30
0.0
 10
210.0260079244
 20
258.2204306789
 30
0.0
 10
210.4627485459
 20
258.9821184979
 30
0.0
 10
210.9975573103
 20
259.6117286893
 30
0.0
 10
211.5189600448
 20
260.011992202
 30
0.0
 10
211.9626082884
 20
260.2374136826
 30
0.0
 10
212.3008432296
 20
260.3577900952
 30
0.0
 10
212.645993172
 20
260.4305498206
 30
0.0
 10
212.8789966503
 20
260.4468085106
 30
0.0
 10
212.9947902206
 20
260.4468085106
 30
0.0
  0
LINE
  5
403
330
1B
100
AcDbEntity
 67
     1
  8
7_ALL_FEATURES
  6
Continuous
 62
     9
100
AcDbLine
 10
282.9237224087
 20
209.4468085106
 30
0.0
 11
280.9237224087
 21
209.4468085106
 31
0.0
  0
LINE
  5
404
330
1B
100
AcDbEntity
 67
     1
  8
7_ALL_FEATURES
  6
Continuous
 62
     9
100
AcDbLine
 10
282.9237224087
 20
239.9468085106
 30
0.0
 11
280.9237224087
 21
239.9468085106
 31
0.0
  0
LINE
  5
405
330
1B
100
AcDbEntity
 67
     1
  8
7_ALL_FEATURES
  6
Continuous
 62
     9
100
AcDbLine
 10
210.873469877
 20
255.4468085106
 30
0.0
 11
209.4592563147
 21
255.4468085106
 31
0.0
  0
LINE
  5
406
330
1B
100
AcDbEntity
 67
     1
  8
7_ALL_FEATURES
  6
Continuous
 62
     9
100
AcDbLine
 10
214.2374309077
 20
207.4468085106
 30
0.0
 11
214.2374309077
 21
205.4468085106
 31
0.0
  0
LINE
  5
407
330
1B
100
AcDbEntity
 67
     1
  8
7_ALL_FEATURES
  6
Continuous
 62
     9
100
AcDbLine
 10
278.9237224087
 20
205.4468085106
 30
0.0
 11
278.9237224087
 21
207.4468085106
 31
0.0
  0
LINE
  5
408
330
1B
100
AcDbEntity
 67
     1
  8
02___PRT_ALL_AXES
  6
Continuous
 62
     9
100
AcDbLine
 10
220.9497415089
 20
247.4468085106
 30
0.0
 11
219.5355279466
 21
247.4468085106
 31
0.0
  0
LINE
  5
409
330
1B
100
AcDbEntity
 67
     1
  8
02___PRT_ALL_AXES
  6
Continuous
 62
     9
100
AcDbLine
 10
220.9497415089
 20
243.4468085106
 30
0.0
 11
219.5355279466
 21
243.4468085106
 31
0.0
  0
LINE
  5
40A
330
1B
100
AcDbEntity
 67
     1
  8
7_ALL_FEATURES
  6
Continuous
 62
     9
100
AcDbLine
 10
212.1161105642
 20
207.4615816982
 30
0.0
 11
212.1161105642
 21
205.4541746059
 31
0.0
  0
LINE
  5
40B
330
1B
100
AcDbEntity
 67
     1
  8
7_ALL_FEATURES
  6
Continuous
 62
     9
100
AcDbLine
 10
209.5055632669
 20
208.7259654685
 30
0.0
 11
210.8966233532
 21
209.0863869896
 31
0.0
  0
LINE
  5
40C
330
1B
100
AcDbEntity
 67
     1
  8
7_ALL_FEATURES
  6
Continuous
 62
     9
100
AcDbLine
 10
209.4592563147
 20
209.4468085106
 30
0.0
 11
210.873469877
 21
209.4468085106
 31
0.0
  0
LINE
  5
40D
330
1B
100
AcDbEntity
 67
     1
  8
7_ALL_FEATURES
  6
Continuous
 62
     3
100
AcDbLine
 10
280.9237224087
 20
239.9468085106
 30
0.0
 11
280.9237224087
 21
242.9468085106
 31
0.0
  0
LINE
  5
40E
330
1B
100
AcDbEntity
 67
     1
  8
7_ALL_FEATURES
  6
Continuous
 62
     3
100
AcDbLine
 10
280.9237224087
 20
209.4468085106
 30
0.0
 11
280.9237224087
 21
239.9468085106
 31
0.0
  0
LINE
  5
40F
330
1B
100
AcDbEntity
 67
     1
  8
7_ALL_FEATURES
  6
Continuous
 62
     3
100
AcDbLine
 10
212.2946332505
 20
207.4468085106
 30
0.0
 11
214.2374309077
 21
207.4468085106
 31
0.0
  0
LINE
  5
410
330
1B
100
AcDbEntity
 67
     1
  8
7_ALL_FEATURES
  6
Continuous
 62
     3
100
AcDbLine
 10
278.9237224087
 20
207.4468085106
 30
0.0
 11
214.2374309077
 21
207.4468085106
 31
0.0
  0
ARC
  5
411
330
1B
100
AcDbEntity
 67
     1
  8
7_ALL_FEATURES
  6
Continuous
 62
     3
100
AcDbCircle
 10
278.9237224087
 20
209.4468085106
 30
0.0
 40
2.0
100
AcDbArc
 50
270.0
 51
360.0
  0
LINE
  5
412
330
1B
100
AcDbEntity
 67
     1
  8
02___PRT_ALL_AXES
  6
Continuous
 62
     3
100
AcDbLine
 10
230.3189063597
 20
242.9468085106
 30
0.0
 11
233.8544402656
 21
242.9468085106
 31
0.0
  0
SPLINE
  5
413
330
1B
100
AcDbEntity
 67
     1
  8
02___PRT_ALL_AXES
  6
Continuous
 62
     3
100
AcDbSpline
 70
     0
 71
     3
 72
    31
 73
    27
 74
     0
 42
0.000000001
 43
0.0000001
 40
0.0
 40
0.0
 40
0.0
 40
0.0
 40
0.0257410878
 40
0.0517263571
 40
0.0781844833
 40
0.1053143243
 40
0.1332757536
 40
0.1621844521
 40
0.2230055304
 40
0.255004062
 40
0.2879805834
 40
0.3564583091
 40
0.4275432145
 40
0.5
 40
0.5724567855
 40
0.6435416909
 40
0.7120194166
 40
0.744995938
 40
0.7769944696
 40
0.8378155479
 40
0.8667242464
 40
0.8946856757
 40
0.9218155167
 40
0.9482736429
 40
0.9742589122
 40
1.0
 40
1.0
 40
1.0
 40
1.0
 10
230.3189063597
 20
242.9468085106
 30
0.0
 10
230.087320003
 20
242.9468085106
 30
0.0
 10
229.6213146396
 20
242.9142929152
 30
0.0
 10
228.9310063102
 20
242.768765346
 30
0.0
 10
228.2545665754
 20
242.5280466143
 30
0.0
 10
227.5988278613
 20
242.1947831577
 30
0.0
 10
226.9699814614
 20
241.7724226366
 30
0.0
 10
226.1621510134
 20
241.0850834964
 30
0.0
 10
225.4473057245
 20
240.2440751604
 30
0.0
 10
224.8375452626
 20
239.2895270846
 30
0.0
 10
224.2805357064
 20
238.2243153414
 30
0.0
 10
223.7345017954
 20
236.7638496687
 30
0.0
 10
223.3370036158
 20
234.8917403823
 30
0.0
 10
223.2028303217
 20
232.9468085106
 30
0.0
 10
223.3370036158
 20
231.001876639
 30
0.0
 10
223.7345017954
 20
229.1297673526
 30
0.0
 10
224.2805357064
 20
227.6693016799
 30
0.0
 10
224.8375452626
 20
226.6040899367
 30
0.0
 10
225.4473057245
 20
225.6495418609
 30
0.0
 10
226.1621510134
 20
224.8085335248
 30
0.0
 10
226.9699814614
 20
224.1211943847
 30
0.0
 10
227.5988278613
 20
223.6988338635
 30
0.0
 10
228.2545665754
 20
223.365570407
 30
0.0
 10
228.9310063102
 20
223.1248516752
 30
0.0
 10
229.6213146396
 20
222.9793241061
 30
0.0
 10
230.087320003
 20
222.9468085106
 30
0.0
 10
230.3189063597
 20
222.9468085106
 30
0.0
  0
LINE
  5
414
330
1B
100
AcDbEntity
 67
     1
  8
02___PRT_ALL_AXES
  6
Continuous
 62
     3
100
AcDbLine
 10
233.8544402656
 20
222.9468085106
 30
0.0
 11
230.3189063597
 21
222.9468085106
 31
0.0
  0
LINE
  5
415
330
1B
100
AcDbEntity
 67
     1
  8
02___PRT_ALL_AXES
  6
Continuous
 62
     3
100
AcDbLine
 10
216.5303241265
 20
224.6968085106
 30
0.0
 11
219.3587512513
 21
224.6968085106
 31
0.0
  0
SPLINE
  5
416
330
1B
100
AcDbEntity
 67
     1
  8
02___PRT_ALL_AXES
  6
Continuous
 62
     3
100
AcDbSpline
 70
     0
 71
     3
 72
    27
 73
    23
 74
     0
 42
0.000000001
 43
0.0000001
 40
0.0
 40
0.0
 40
0.0
 40
0.0
 40
0.0257490875
 40
0.0517421442
 40
0.0782084271
 40
0.1053465694
 40
0.1621424028
 40
0.222982103
 40
0.287915664
 40
0.3564143585
 40
0.4275210264
 40
0.5
 40
0.5724789736
 40
0.6435856415
 40
0.712084336
 40
0.777017897
 40
0.8378575972
 40
0.8946534306
 40
0.9217915729
 40
0.9482578558
 40
0.9742509125
 40
1.0
 40
1.0
 40
1.0
 40
1.0
 10
216.5303241265
 20
224.6968085106
 30
0.0
 10
216.4318994778
 20
224.6968085106
 30
0.0
 10
216.2338465762
 20
224.6829888372
 30
0.0
 10
215.9404692656
 20
224.621142359
 30
0.0
 10
215.6529695482
 20
224.5188229727
 30
0.0
 10
215.2758682739
 20
224.3272149666
 30
0.0
 10
214.832676284
 20
223.9869900797
 30
0.0
 10
214.3780888865
 20
223.4518234704
 30
0.0
 10
214.0068590417
 20
222.8043807614
 30
0.0
 10
213.731984942
 20
222.0691246896
 30
0.0
 10
213.563005568
 20
221.2733854133
 30
0.0
 10
213.50599704
 20
220.4468085106
 30
0.0
 10
213.563005568
 20
219.6202316079
 30
0.0
 10
213.731984942
 20
218.8244923317
 30
0.0
 10
214.0068590417
 20
218.0892362599
 30
0.0
 10
214.3780888865
 20
217.4417935509
 30
0.0
 10
214.832676284
 20
216.9066269416
 30
0.0
 10
215.2758682739
 20
216.5664020547
 30
0.0
 10
215.6529695482
 20
216.3747940486
 30
0.0
 10
215.9404692656
 20
216.2724746622
 30
0.0
 10
216.2338465762
 20
216.2106281841
 30
0.0
 10
216.4318994778
 20
216.1968085106
 30
0.0
 10
216.5303241265
 20
216.1968085106
 30
0.0
  0
LINE
  5
417
330
1B
100
AcDbEntity
 67
     1
  8
02___PRT_ALL_AXES
  6
Continuous
 62
     3
100
AcDbLine
 10
219.3587512513
 20
216.1968085106
 30
0.0
 11
216.5303241265
 21
216.1968085106
 31
0.0
  0
LINE
  5
418
330
1B
100
AcDbEntity
 67
     1
  8
02___PRT_ALL_AXES
  6
Continuous
 62
     3
100
AcDbLine
 10
214.9393338689
 20
243.4468085106
 30
0.0
 11
214.9393338689
 21
247.4468085106
 31
0.0
  0
SPLINE
  5
419
330
1B
100
AcDbEntity
 67
     1
  8
02___PRT_ALL_AXES
  6
Continuous
 62
     3
100
AcDbSpline
 70
     0
 71
     3
 72
    17
 73
    13
 74
     0
 42
0.000000001
 43
0.0000001
 40
0.0
 40
0.0
 40
0.0
 40
0.0
 40
0.1449578005
 40
0.287171291
 40
0.4241686712
 40
0.5540357937
 40
0.6757152098
 40
0.7893068545
 40
0.8435831497
 40
0.8965156264
 40
0.9485022482
 40
1.0
 40
1.0
 40
1.0
 40
1.0
 10
214.9393338689
 20
243.4468085106
 30
0.0
 10
214.9393338689
 20
243.1697614023
 30
0.0
 10
214.9772199957
 20
242.6201280177
 30
0.0
 10
215.1461978383
 20
241.8245190007
 30
0.0
 10
215.421072886
 20
241.0892297462
 30
0.0
 10
215.7923024421
 20
240.4417951766
 30
0.0
 10
216.2468896609
 20
239.9066263838
 30
0.0
 10
216.6900819476
 20
239.5664021939
 30
0.0
 10
217.0671831398
 20
239.3747946199
 30
0.0
 10
217.35468314
 20
239.2724734556
 30
0.0
 10
217.6480608664
 20
239.2106286451
 30
0.0
 10
217.8461138498
 20
239.1968088927
 30
0.0
 10
217.9445376889
 20
239.1968088927
 30
0.0
  0
SPLINE
  5
41A
330
1B
100
AcDbEntity
 67
     1
  8
7_ALL_FEATURES
  6
Continuous
 62
     3
100
AcDbSpline
 70
     0
 71
     3
 72
    11
 73
     7
 74
     0
 42
0.000000001
 43
0.0000001
 40
0.0
 40
0.0
 40
0.0
 40
0.0
 40
0.2616397214
 40
0.5183262368
 40
0.7655981867
 40
1.0
 40
1.0
 40
1.0
 40
1.0
 10
249.0536647236
 20
244.2041678235
 30
0.0
 10
249.0536647236
 20
244.3997304507
 30
0.0
 10
249.0269270723
 20
244.7876984949
 30
0.0
 10
248.9076243038
 20
245.3493420524
 30
0.0
 10
248.7136792803
 20
245.8682417606
 30
0.0
 10
248.5334982551
 20
246.1824349851
 30
0.0
 10
248.4323443801
 20
246.3254881671
 30
0.0
  0
LINE
  5
41B
330
1B
100
AcDbEntity
 67
     1
  8
7_ALL_FEATURES
  6
Continuous
 62
     3
100
AcDbLine
 10
249.0536647236
 20
244.2041678235
 30
0.0
 11
249.0536647236
 21
241.3930148452
 31
0.0
  0
LINE
  5
41C
330
1B
100
AcDbEntity
 67
     1
  8
7_ALL_FEATURES
  6
Continuous
 62
     3
100
AcDbLine
 10
214.409003783
 20
260.4468085106
 30
0.0
 11
236.154169787
 21
260.4468085106
 31
0.0
  0
LINE
  5
41D
330
1B
100
AcDbEntity
 67
     1
  8
7_ALL_FEATURES
  6
Continuous
 62
     3
100
AcDbLine
 10
236.154169787
 20
260.4468085106
 30
0.0
 11
237.5683833494
 21
260.4468085106
 31
0.0
  0
SPLINE
  5
41E
330
1B
100
AcDbEntity
 67
     1
  8
7_ALL_FEATURES
  6
Continuous
 62
     3
100
AcDbSpline
 70
     0
 71
     3
 72
    13
 73
     9
 74
     0
 42
0.000000001
 43
0.0000001
 40
0.0
 40
0.0
 40
0.0
 40
0.0
 40
0.2728453156
 40
0.5275559369
 40
0.6492613789
 40
0.7679538533
 40
0.8845239419
 40
1.0
 40
1.0
 40
1.0
 40
1.0
 10
239.0683833494
 20
259.5681288542
 30
0.0
 10
238.9736069471
 20
259.7021629277
 30
0.0
 10
238.7666666535
 20
259.9458443211
 30
0.0
 10
238.4538883205
 20
260.1859093346
 30
0.0
 10
238.1876912533
 20
260.3211732767
 30
0.0
 10
237.9847517807
 20
260.3933965945
 30
0.0
 10
237.777661533
 20
260.4370536167
 30
0.0
 10
237.6378595875
 20
260.4468085106
 30
0.0
 10
237.5683833494
 20
260.4468085106
 30
0.0
  0
LINE
  5
41F
330
1B
100
AcDbEntity
 67
     1
  8
7_ALL_FEATURES
  6
Continuous
 62
     3
100
AcDbLine
 10
248.4323443801
 20
246.3254881671
 30
0.0
 11
239.0683833494
 21
259.5681288542
 31
0.0
  0
SPLINE
  5
420
330
1B
100
AcDbEntity
 67
     1
  8
02___PRT_ALL_AXES
  6
Continuous
 62
     3
100
AcDbSpline
 70
     0
 71
     3
 72
    17
 73
    13
 74
     0
 42
0.000000001
 43
0.0000001
 40
0.0
 40
0.0
 40
0.0
 40
0.0
 40
0.0514977518
 40
0.1034843736
 40
0.1564168503
 40
0.2106931455
 40
0.3242847902
 40
0.4459642063
 40
0.5758313288
 40
0.712828709
 40
0.8550421995
 40
1.0
 40
1.0
 40
1.0
 40
1.0
 10
217.9445376889
 20
251.6968081286
 30
0.0
 10
217.8461138498
 20
251.6968081286
 30
0.0
 10
217.6480608664
 20
251.6829883762
 30
0.0
 10
217.35468314
 20
251.6211435657
 30
0.0
 10
217.0671831398
 20
251.5188224014
 30
0.0
 10
216.6900819476
 20
251.3272148273
 30
0.0
 10
216.2468896609
 20
250.9869906375
 30
0.0
 10
215.7923024421
 20
250.4518218447
 30
0.0
 10
215.421072886
 20
249.8043872751
 30
0.0
 10
215.1461978383
 20
249.0690980206
 30
0.0
 10
214.9772199957
 20
248.2734890035
 30
0.0
 10
214.9393338689
 20
247.723855619
 30
0.0
 10
214.9393338689
 20
247.4468085106
 30
0.0
  0
SPLINE
  5
421
330
1B
100
AcDbEntity
 67
     1
  8
02___PRT_ALL_AXES
  6
Continuous
 62
     3
100
AcDbSpline
 70
     0
 71
     3
 72
    31
 73
    27
 74
     0
 42
0.000000001
 43
0.0000001
 40
0.0
 40
0.0
 40
0.0
 40
0.0
 40
0.0257410878
 40
0.0517263571
 40
0.0781844833
 40
0.1053143243
 40
0.1332757536
 40
0.1621844521
 40
0.2230055304
 40
0.255004062
 40
0.2879805834
 40
0.3564583091
 40
0.4275432145
 40
0.5
 40
0.5724567855
 40
0.6435416909
 40
0.7120194166
 40
0.744995938
 40
0.7769944696
 40
0.8378155479
 40
0.8667242464
 40
0.8946856757
 40
0.9218155167
 40
0.9482736429
 40
0.9742589122
 40
1.0
 40
1.0
 40
1.0
 40
1.0
 10
233.8544402656
 20
222.9468085106
 30
0.0
 10
234.0860266223
 20
222.9468085106
 30
0.0
 10
234.5520319857
 20
222.9793241061
 30
0.0
 10
235.2423403151
 20
223.1248516752
 30
0.0
 10
235.9187800499
 20
223.365570407
 30
0.0
 10
236.574518764
 20
223.6988338635
 30
0.0
 10
237.2033651639
 20
224.1211943847
 30
0.0
 10
238.0111956119
 20
224.8085335248
 30
0.0
 10
238.7260409008
 20
225.6495418609
 30
0.0
 10
239.3358013627
 20
226.6040899367
 30
0.0
 10
239.8928109189
 20
227.6693016799
 30
0.0
 10
240.4388448299
 20
229.1297673526
 30
0.0
 10
240.8363430095
 20
231.001876639
 30
0.0
 10
240.9705163036
 20
232.9468085106
 30
0.0
 10
240.8363430095
 20
234.8917403823
 30
0.0
 10
240.4388448299
 20
236.7638496687
 30
0.0
 10
239.8928109189
 20
238.2243153414
 30
0.0
 10
239.3358013627
 20
239.2895270846
 30
0.0
 10
238.7260409008
 20
240.2440751604
 30
0.0
 10
238.0111956119
 20
241.0850834964
 30
0.0
 10
237.2033651639
 20
241.7724226366
 30
0.0
 10
236.574518764
 20
242.1947831577
 30
0.0
 10
235.9187800499
 20
242.5280466143
 30
0.0
 10
235.2423403151
 20
242.768765346
 30
0.0
 10
234.5520319857
 20
242.9142929152
 30
0.0
 10
234.0860266223
 20
242.9468085106
 30
0.0
 10
233.8544402656
 20
242.9468085106
 30
0.0
  0
LINE
  5
422
330
1B
100
AcDbEntity
 67
     1
  8
7_ALL_FEATURES
  6
Continuous
 62
     9
100
AcDbLine
 10
243.2521495335
 20
209.4468085106
 30
0.0
 11
210.873469877
 21
209.4468085106
 31
0.0
  0
SPLINE
  5
423
330
1B
100
AcDbEntity
 67
     1
  8
7_ALL_FEATURES
  6
Continuous
 62
     3
100
AcDbSpline
 70
     0
 71
     3
 72
    17
 73
    13
 74
     0
 42
0.000000001
 43
0.0000001
 40
0.0
 40
0.0
 40
0.0
 40
0.0
 40
0.0514981148
 40
0.1034843369
 40
0.1564168427
 40
0.2106931505
 40
0.3242847961
 40
0.4459641989
 40
0.5758313323
 40
0.7128287168
 40
0.8550421207
 40
1.0
 40
1.0
 40
1.0
 40
1.0
 10
214.409003783
 20
260.4468085106
 30
0.0
 10
214.2932102127
 20
260.4468085106
 30
0.0
 10
214.0602067344
 20
260.4305498206
 30
0.0
 10
213.715056792
 20
260.3577900952
 30
0.0
 10
213.3768218508
 20
260.2374136826
 30
0.0
 10
212.9331736072
 20
260.011992202
 30
0.0
 10
212.4117708727
 20
259.6117286893
 30
0.0
 10
211.8769621083
 20
258.9821184979
 30
0.0
 10
211.4402214868
 20
258.2204306789
 30
0.0
 10
211.1168397595
 20
257.3553844457
 30
0.0
 10
210.9180412619
 20
256.419374048
 30
0.0
 10
210.873469877
 20
255.772746469
 30
0.0
 10
210.873469877
 20
255.4468085106
 30
0.0
  0
SPLINE
  5
424
330
1B
100
AcDbEntity
 67
     1
  8
02___PRT_ALL_AXES
  6
Continuous
 62
     3
100
AcDbSpline
 70
     0
 71
     3
 72
    17
 73
    13
 74
     0
 42
0.000000001
 43
0.0000001
 40
0.0
 40
0.0
 40
0.0
 40
0.0
 40
0.1449578005
 40
0.287171291
 40
0.4241686712
 40
0.5540357937
 40
0.6757152098
 40
0.7893068545
 40
0.8435831497
 40
0.8965156264
 40
0.9485022482
 40
1.0
 40
1.0
 40
1.0
 40
1.0
 10
220.9497415089
 20
247.4468085106
 30
0.0
 10
220.9497415089
 20
247.723855619
 30
0.0
 10
220.9118553822
 20
248.2734890035
 30
0.0
 10
220.7428775395
 20
249.0690980206
 30
0.0
 10
220.4680024918
 20
249.8043872751
 30
0.0
 10
220.0967729357
 20
250.4518218447
 30
0.0
 10
219.642185717
 20
250.9869906375
 30
0.0
 10
219.1989934302
 20
251.3272148273
 30
0.0
 10
218.8218922381
 20
251.5188224014
 30
0.0
 10
218.5343922378
 20
251.6211435657
 30
0.0
 10
218.2410145114
 20
251.6829883762
 30
0.0
 10
218.042961528
 20
251.6968081286
 30
0.0
 10
217.9445376889
 20
251.6968081286
 30
0.0
  0
LINE
  5
425
330
1B
100
AcDbEntity
 67
     1
  8
02___PRT_ALL_AXES
  6
Continuous
 62
     3
100
AcDbLine
 10
220.9497415089
 20
247.4468085106
 30
0.0
 11
220.9497415089
 21
243.4468085106
 31
0.0
  0
SPLINE
  5
426
330
1B
100
AcDbEntity
 67
     1
  8
02___PRT_ALL_AXES
  6
Continuous
 62
     3
100
AcDbSpline
 70
     0
 71
     3
 72
    17
 73
    13
 74
     0
 42
0.000000001
 43
0.0000001
 40
0.0
 40
0.0
 40
0.0
 40
0.0
 40
0.0514977518
 40
0.1034843736
 40
0.1564168503
 40
0.2106931455
 40
0.3242847902
 40
0.4459642063
 40
0.5758313288
 40
0.712828709
 40
0.8550421995
 40
1.0
 40
1.0
 40
1.0
 40
1.0
 10
217.9445376889
 20
239.1968088927
 30
0.0
 10
218.042961528
 20
239.1968088927
 30
0.0
 10
218.2410145114
 20
239.2106286451
 30
0.0
 10
218.5343922378
 20
239.2724734556
 30
0.0
 10
218.8218922381
 20
239.3747946199
 30
0.0
 10
219.1989934302
 20
239.5664021939
 30
0.0
 10
219.642185717
 20
239.9066263838
 30
0.0
 10
220.0967729357
 20
240.4417951766
 30
0.0
 10
220.4680024918
 20
241.0892297462
 30
0.0
 10
220.7428775395
 20
241.8245190007
 30
0.0
 10
220.9118553822
 20
242.6201280177
 30
0.0
 10
220.9497415089
 20
243.1697614023
 30
0.0
 10
220.9497415089
 20
243.4468085106
 30
0.0
  0
LINE
  5
427
330
1B
100
AcDbEntity
 67
     1
  8
7_ALL_FEATURES
  6
Continuous
 62
     3
100
AcDbLine
 10
210.873469877
 20
209.4468085106
 30
0.0
 11
210.873469877
 21
255.4468085106
 31
0.0
  0
SPLINE
  5
428
330
1B
100
AcDbEntity
 67
     1
  8
7_ALL_FEATURES
  6
Continuous
 62
     3
100
AcDbSpline
 70
     0
 71
     3
 72
     9
 73
     5
 74
     0
 42
0.000000001
 43
0.0000001
 40
0.0
 40
0.0
 40
0.0
 40
0.0
 40
0.2438214068
 40
1.0
 40
1.0
 40
1.0
 40
1.0
 10
212.1161105642
 20
207.4615816982
 30
0.0
 10
212.1304666802
 20
207.4591002486
 30
0.0
 10
212.1895776562
 20
207.4502823306
 30
0.0
 10
212.2494495094
 20
207.4468085106
 30
0.0
 10
212.2946332505
 20
207.4468085106
 30
0.0
  0
SPLINE
  5
429
330
1B
100
AcDbEntity
 67
     1
  8
7_ALL_FEATURES
  6
Continuous
 62
     3
100
AcDbSpline
 70
     0
 71
     3
 72
    13
 73
     9
 74
     0
 42
0.000000001
 43
0.0000001
 40
0.0
 40
0.0
 40
0.0
 40
0.0
 40
0.2836972641
 40
0.5470116239
 40
0.6691548111
 40
0.7846783206
 40
0.894426855
 40
1.0
 40
1.0
 40
1.0
 40
1.0
 10
210.8966233532
 20
209.0863869896
 30
0.0
 10
210.9228993157
 20
208.8835609065
 30
0.0
 10
211.0168685714
 20
208.496494887
 30
0.0
 10
211.2455283918
 20
208.064186125
 30
0.0
 10
211.4839668161
 20
207.7909836381
 30
0.0
 10
211.679294671
 20
207.6320092587
 30
0.0
 10
211.8906978764
 20
207.5183665337
 30
0.0
 10
212.0411136189
 20
207.4745448936
 30
0.0
 10
212.1161105642
 20
207.4615816982
 30
0.0
  0
SPLINE
  5
42A
330
1B
100
AcDbEntity
 67
     1
  8
02___PRT_ALL_AXES
  6
Continuous
 62
     3
100
AcDbSpline
 70
     0
 71
     3
 72
    27
 73
    23
 74
     0
 42
0.000000001
 43
0.0000001
 40
0.0
 40
0.0
 40
0.0
 40
0.0
 40
0.0257490875
 40
0.0517421442
 40
0.0782084271
 40
0.1053465694
 40
0.1621424028
 40
0.222982103
 40
0.287915664
 40
0.3564143585
 40
0.4275210264
 40
0.5
 40
0.5724789736
 40
0.6435856415
 40
0.712084336
 40
0.777017897
 40
0.8378575972
 40
0.8946534306
 40
0.9217915729
 40
0.9482578558
 40
0.9742509125
 40
1.0
 40
1.0
 40
1.0
 40
1.0
 10
219.3587512513
 20
216.1968085106
 30
0.0
 10
219.4571759
 20
216.1968085106
 30
0.0
 10
219.6552288016
 20
216.2106281841
 30
0.0
 10
219.9486061123
 20
216.2724746622
 30
0.0
 10
220.2361058296
 20
216.3747940486
 30
0.0
 10
220.6132071039
 20
216.5664020547
 30
0.0
 10
221.0563990939
 20
216.9066269416
 30
0.0
 10
221.5109864913
 20
217.4417935509
 30
0.0
 10
221.8822163361
 20
218.0892362599
 30
0.0
 10
222.1570904358
 20
218.8244923317
 30
0.0
 10
222.3260698099
 20
219.6202316079
 30
0.0
 10
222.3830783378
 20
220.4468085106
 30
0.0
 10
222.3260698099
 20
221.2733854133
 30
0.0
 10
222.1570904358
 20
222.0691246896
 30
0.0
 10
221.8822163361
 20
222.8043807614
 30
0.0
 10
221.5109864913
 20
223.4518234704
 30
0.0
 10
221.0563990939
 20
223.9869900797
 30
0.0
 10
220.6132071039
 20
224.3272149666
 30
0.0
 10
220.2361058296
 20
224.5188229727
 30
0.0
 10
219.9486061123
 20
224.621142359
 30
0.0
 10
219.6552288016
 20
224.6829888372
 30
0.0
 10
219.4571759
 20
224.6968085106
 30
0.0
 10
219.3587512513
 20
224.6968085106
 30
0.0
  0
ARC
  5
42B
330
1B
100
AcDbEntity
 67
     1
  8
7_ALL_FEATURES
  6
Continuous
 62
     3
100
AcDbCircle
 10
213.6867760592
 20
209.446580831
 30
0.0
 40
2.8133061914
100
AcDbArc
 50
179.9953630769
 51
187.3558966809
  0
DIMENSION
  5
42C
330
1B
100
AcDbEntity
 67
     1
  8
0
  6
Continuous
 62
     2
100
AcDbDimension
280
     0
  2
*D1
 10
167.6555851064
 20
274.4709401106
 30
0.0
 11
97.2270135498
 21
274.4709401106
 31
0.0
 70
   160
 71
     5
 42
-1.0
 73
     0
 74
     0
 75
     0
  3
DIMSTYLE_1
100
AcDbAlignedDimension
 13
27.6555851064
 23
263.7895115119
 33
0.0
 14
167.6555851064
 24
263.7895115119
 34
0.0
100
AcDbRotatedDimension
  0
DIMENSION
  5
42D
330
1B
100
AcDbEntity
 67
     1
  8
0
  6
Continuous
 62
     2
100
AcDbDimension
280
     0
  2
*D2
 10
184.8687928748
 20
157.7116213449
 30
0.0
 11
184.8687928748
 21
120.5508169807
 31
0.0
 70
   160
 71
     5
 42
-1.0
 73
     0
 74
     0
 75
     0
  3
DIMSTYLE_2
100
AcDbAlignedDimension
 13
176.2141670696
 23
84.2471552508
 33
0.0
 14
176.2141670696
 24
157.7116213449
 34
0.0
 50
90.0
100
AcDbRotatedDimension
  0
DIMENSION
  5
42E
330
1B
100
AcDbEntity
 67
     1
  8
0
  6
Continuous
 62
     2
100
AcDbDimension
280
     0
  2
*D3
 10
298.8683029978
 20
205.4468085106
 30
0.0
 11
298.8683029978
 21
232.518236871
 31
0.0
 70
   160
 71
     5
 42
-1.0
 73
     0
 74
     0
 75
     0
  3
DIMSTYLE_3
100
AcDbAlignedDimension
 13
288.3762492398
 23
260.4468085106
 33
0.0
 14
288.5739030271
 24
205.4468085106
 34
0.0
 50
270.0
100
AcDbRotatedDimension
  0
LINE
  5
42F
330
1B
100
AcDbEntity
 67
     1
  8
0
  6
Continuous
 62
     2
100
AcDbLine
 10
279.8903296883
 20
76.3618032155
 30
0.0
 11
409.8903296883
 21
76.3618032155
 31
0.0
  0
LINE
  5
430
330
1B
100
AcDbEntity
 67
     1
  8
0
  6
Continuous
 62
     2
100
AcDbLine
 10
279.8903296883
 20
76.3618032155
 30
0.0
 11
279.8903296883
 21
10.3618032155
 31
0.0
  0
LINE
  5
431
330
1B
100
AcDbEntity
 67
     1
  8
0
  6
Continuous
 62
     2
100
AcDbLine
 10
309.8903296883
 20
68.3618032155
 30
0.0
 11
409.8903296883
 21
68.3618032155
 31
0.0
  0
LINE
  5
432
330
1B
100
AcDbEntity
 67
     1
  8
0
  6
Continuous
 62
     2
100
AcDbLine
 10
279.8903296883
 20
60.3618032155
 30
0.0
 11
409.8903296883
 21
60.3618032155
 31
0.0
  0
LINE
  5
433
330
1B
100
AcDbEntity
 67
     1
  8
0
  6
Continuous
 62
     2
100
AcDbLine
 10
309.8903296883
 20
54.3618032155
 30
0.0
 11
409.8903296883
 21
54.3618032155
 31
0.0
  0
LINE
  5
434
330
1B
100
AcDbEntity
 67
     1
  8
0
  6
Continuous
 62
     2
100
AcDbLine
 10
309.8903296883
 20
48.3618032155
 30
0.0
 11
409.8903296883
 21
48.3618032155
 31
0.0
  0
LINE
  5
435
330
1B
100
AcDbEntity
 67
     1
  8
0
  6
Continuous
 62
     2
100
AcDbLine
 10
309.8903296883
 20
42.3618032155
 30
0.0
 11
409.8903296883
 21
42.3618032155
 31
0.0
  0
LINE
  5
436
330
1B
100
AcDbEntity
 67
     1
  8
0
  6
Continuous
 62
     2
100
AcDbLine
 10
309.8903296883
 20
36.3618032155
 30
0.0
 11
409.8903296883
 21
36.3618032155
 31
0.0
  0
LINE
  5
437
330
1B
100
AcDbEntity
 67
     1
  8
0
  6
Continuous
 62
     2
100
AcDbLine
 10
309.8903296883
 20
30.3618032155
 30
0.0
 11
409.8903296883
 21
30.3618032155
 31
0.0
  0
LINE
  5
438
330
1B
100
AcDbEntity
 67
     1
  8
0
  6
Continuous
 62
     2
100
AcDbLine
 10
279.8903296883
 20
24.3618032155
 30
0.0
 11
409.8903296883
 21
24.3618032155
 31
0.0
  0
LINE
  5
439
330
1B
100
AcDbEntity
 67
     1
  8
0
  6
Continuous
 62
     2
100
AcDbLine
 10
279.8903296883
 20
18.3618032155
 30
0.0
 11
409.8903296883
 21
18.3618032155
 31
0.0
  0
LINE
  5
43A
330
1B
100
AcDbEntity
 67
     1
  8
0
  6
Continuous
 62
     2
100
AcDbLine
 10
279.8903296883
 20
14.3618032155
 30
0.0
 11
409.8903296883
 21
14.3618032155
 31
0.0
  0
LINE
  5
43B
330
1B
100
AcDbEntity
 67
     1
  8
0
  6
Continuous
 62
     2
100
AcDbLine
 10
279.8903296883
 20
10.3618032155
 30
0.0
 11
409.8903296883
 21
10.3618032155
 31
0.0
  0
LINE
  5
43C
330
1B
100
AcDbEntity
 67
     1
  8
0
  6
Continuous
 62
     2
100
AcDbLine
 10
309.8903296883
 20
76.3618032155
 30
0.0
 11
309.8903296883
 21
18.3618032155
 31
0.0
  0
LINE
  5
43D
330
1B
100
AcDbEntity
 67
     1
  8
0
  6
Continuous
 62
     2
100
AcDbLine
 10
329.8903296883
 20
60.3618032155
 30
0.0
 11
329.8903296883
 21
54.3618032155
 31
0.0
  0
LINE
  5
43E
330
1B
100
AcDbEntity
 67
     1
  8
0
  6
Continuous
 62
     2
100
AcDbLine
 10
359.8903296883
 20
30.3618032155
 30
0.0
 11
359.8903296883
 21
18.3618032155
 31
0.0
  0
LINE
  5
43F
330
1B
100
AcDbEntity
 67
     1
  8
0
  6
Continuous
 62
     2
100
AcDbLine
 10
369.8903296883
 20
60.3618032155
 30
0.0
 11
369.8903296883
 21
54.3618032155
 31
0.0
  0
LINE
  5
440
330
1B
100
AcDbEntity
 67
     1
  8
0
  6
Continuous
 62
     2
100
AcDbLine
 10
369.8903296883
 20
48.3618032155
 30
0.0
 11
369.8903296883
 21
42.3618032155
 31
0.0
  0
LINE
  5
441
330
1B
100
AcDbEntity
 67
     1
  8
0
  6
Continuous
 62
     2
100
AcDbLine
 10
389.8903296883
 20
60.3618032155
 30
0.0
 11
389.8903296883
 21
54.3618032155
 31
0.0
  0
LINE
  5
442
330
1B
100
AcDbEntity
 67
     1
  8
0
  6
Continuous
 62
     2
100
AcDbLine
 10
399.8903296883
 20
48.3618032155
 30
0.0
 11
399.8903296883
 21
42.3618032155
 31
0.0
  0
LINE
  5
443
330
1B
100
AcDbEntity
 67
     1
  8
0
  6
Continuous
 62
     2
100
AcDbLine
 10
409.8903296883
 20
76.3618032155
 30
0.0
 11
409.8903296883
 21
10.3618032155
 31
0.0
  0
INSERT
  5
444
330
1B
100
AcDbEntity
 67
     1
  8
0
  6
Continuous
 62
     2
100
AcDbBlockReference
  2
PROIEZIONE_EU_BL0
 10
294.8903296883
 20
67.9868032155
 30
0.0
  0
MTEXT
  5
445
330
1B
100
AcDbEntity
 67
     1
  8
9_SOLID
  6
Continuous
 62
     2
100
AcDbMText
 10
311.3778296883
 20
74.7368032155
 30
0.0
 40
1.9
 41
142.3642857143
 46
0.0
 71
     1
 72
     1
  1
EN: Chamfer/radii unlisted 0.3x45°. Remove sharp edges.\PGen. tol.: hole H11, shaft h11, lenght Js12. UNI EN 22768 Medium Grande.
 73
     1
 44
1.0
  0
MTEXT
  5
446
330
1B
100
AcDbEntity
 67
     1
  8
9_SOLID
  6
Continuous
 62
     2
100
AcDbMText
 10
311.3778296883
 20
66.7368032155
 30
0.0
 40
1.9
 41
148.2678571429
 46
0.0
 71
     1
 72
     1
  1
IT: Sm./rac. non quotati 0.3x45°. Eliminare spigoli taglienti.\PToll. gen.: foro H11, albero h11, lunghezza Js12. UNI EN 22768 Grado Medio.
 73
     1
 44
1.0
  0
INSERT
  5
447
330
1B
100
AcDbEntity
 67
     1
  8
0
  6
Continuous
 62
     2
100
AcDbBlockReference
  2
LOGO2_BL1
 10
293.7163767331
 20
42.3618032155
 30
0.0
  0
MTEXT
  5
448
330
1B
100
AcDbEntity
 67
     1
  8
9_SOLID
  6
Continuous
 62
     2
100
AcDbMText
 10
311.3778296883
 20
58.6118032155
 30
0.0
 40
3.0
 41
20.7857142857
 46
0.0
 71
     1
 72
     1
  1
Pj: 3E1
 73
     1
 44
1.0
  0
MTEXT
  5
449
330
1B
100
AcDbEntity
 67
     1
  8
0
  6
Continuous
 62
     2
100
AcDbMText
 10
331.3778296883
 20
58.6118032155
 30
0.0
 40
3.0
 41
41.5714285714
 46
0.0
 71
     1
 72
     1
  1
% Check:  %
 73
     1
 44
1.0
  0
MTEXT
  5
44A
330
1B
100
AcDbEntity
 67
     1
  8
9_SOLID
  6
Continuous
 62
     2
100
AcDbMText
 10
371.3778296883
 20
58.6118032155
 30
0.0
 40
3.0
 41
19.5
 46
0.0
 71
     1
 72
     1
  1
Rev:00
 73
     1
 44
1.0
  0
MTEXT
  5
44B
330
1B
100
AcDbEntity
 67
     1
  8
9_SOLID
  6
Continuous
 62
     2
100
AcDbMText
 10
391.3778296883
 20
58.8618032155
 30
0.0
 40
3.0
 41
19.7142857143
 46
0.0
 71
     1
 72
     1
  1
Ver: A
 73
     1
 44
1.0
  0
MTEXT
  5
44C
330
1B
100
AcDbEntity
 67
     1
  8
9_SOLID
  6
Continuous
 62
     2
100
AcDbMText
 10
311.3778296883
 20
52.6118032155
 30
0.0
 40
3.0
 41
78.1071428571
 46
0.0
 71
     1
 72
     1
  1
Neutral code: WD0700H_C
 73
     1
 44
1.0
  0
MTEXT
  5
44D
330
1B
100
AcDbEntity
 67
     1
  8
0
  6
Continuous
 62
     2
100
AcDbMText
 10
311.3778296883
 20
46.6118032155
 30
0.0
 40
3.0
 41
22.9285714286
 46
0.0
 71
     1
 72
     1
  1
Code:  
 73
     1
 44
1.0
  0
MTEXT
  5
44E
330
1B
100
AcDbEntity
 67
     1
  8
9_SOLID
  6
Continuous
 62
     2
100
AcDbMText
 10
371.3778296883
 20
46.8618032155
 30
0.0
 40
3.0
 41
27.8571428571
 46
0.0
 71
     1
 72
     1
  1
Scale: 1:1
 73
     1
 44
1.0
  0
MTEXT
  5
44F
330
1B
100
AcDbEntity
 67
     1
  8
9_SOLID
  6
Continuous
 62
     2
100
AcDbMText
 10
404.8903296883
 20
46.8618032155
 30
0.0
 40
3.0
 41
7.9285714286
 46
0.0
 71
     2
 72
     1
  1
A3
 73
     1
 44
1.0
  0
MTEXT
  5
450
330
1B
100
AcDbEntity
 67
     1
  8
9_SOLID
  6
Continuous
 62
     2
100
AcDbMText
 10
311.3778296883
 20
40.8618032155
 30
0.0
 40
3.0
 41
121.7142857143
 46
0.0
 71
     1
 72
     1
  1
It descr.: PIASTRA ANGOLARE A PARETE
 73
     1
 44
1.0
  0
MTEXT
  5
451
330
1B
100
AcDbEntity
 67
     1
  8
0
  6
Continuous
 62
     2
100
AcDbMText
 10
311.3778296883
 20
34.8618032155
 30
0.0
 40
3.0
 41
37.5
 46
0.0
 71
     1
 72
     1
  1
En descr.:  
 73
     1
 44
1.0
  0
MTEXT
  5
452
330
1B
100
AcDbEntity
 67
     1
  8
9_SOLID
  6
Continuous
 62
     2
100
AcDbMText
 10
311.3778296883
 20
28.8618032155
 30
0.0
 40
3.0
 41
31.2857142857
 46
0.0
 71
     1
 72
     1
  1
Des.: S.Z.
 73
     1
 44
1.0
  0
MTEXT
  5
453
330
1B
100
AcDbEntity
 67
     1
  8
9_SOLID
  6
Continuous
 62
     2
100
AcDbMText
 10
361.3778296883
 20
28.8618032155
 30
0.0
 40
3.0
 41
22.2857142857
 46
0.0
 71
     1
 72
     1
  1
Check: 
 73
     1
 44
1.0
  0
MTEXT
  5
454
330
1B
100
AcDbEntity
 67
     1
  8
9_SOLID
  6
Continuous
 62
     2
100
AcDbMText
 10
281.3778296883
 20
22.8618032155
 30
0.0
 40
3.0
 41
41.5714285714
 46
0.0
 71
     1
 72
     1
  1
Date: 11.12.18
 73
     1
 44
1.0
  0
MTEXT
  5
455
330
1B
100
AcDbEntity
 67
     1
  8
0
  6
Continuous
 62
     2
100
AcDbMText
 10
311.3778296883
 20
22.8618032155
 30
0.0
 40
3.0
 41
21.75
 46
0.0
 71
     1
 72
     1
  1
Mat.:  
 73
     1
 44
1.0
  0
MTEXT
  5
456
330
1B
100
AcDbEntity
 67
     1
  8
9_SOLID
  6
Continuous
 62
     2
100
AcDbMText
 10
361.3778296883
 20
22.3618032155
 30
0.0
 40
2.0
 41
42.3571428571
 46
0.0
 71
     1
 72
     1
  1
Disegno per catalogo
 73
     1
 44
1.0
  0
MTEXT
  5
457
330
1B
100
AcDbEntity
 67
     1
  8
9_SOLID
  6
Continuous
 62
     2
100
AcDbMText
 10
281.3778296883
 20
17.2618032155
 30
0.0
 40
1.8
 41
176.2071428571
 46
0.0
 71
     1
 72
     1
  1
It: A norma di legge si diffida da qualsiasi riproduzione senza nostra autorizzazione esplicita.
 73
     1
 44
1.0
  0
MTEXT
  5
458
330
1B
100
AcDbEntity
 67
     1
  8
9_SOLID
  6
Continuous
 62
     2
100
AcDbMText
 10
281.3778296883
 20
13.2618032155
 30
0.0
 40
1.8
 41
158.1428571429
 46
0.0
 71
     1
 72
     1
  1
En: According to the law, beware of any reproduction made without our authorization.
 73
     1
 44
1.0
  0
ENDSEC
  0
SECTION
  2
OBJECTS
  0
DICTIONARY
  5
459
330
0
100
AcDbDictionary
281
     1
  3
ACAD_DETAILVIEWSTYLE
350
4AF
  3
ACAD_GROUP
350
45A
  3
ACAD_LAYOUT
350
482
  3
ACAD_MATERIAL
350
49E
  3
ACAD_MLEADERSTYLE
350
4A4
  3
ACAD_MLINESTYLE
350
45B
  3
ACAD_PLOTSETTINGS
350
45D
  3
ACAD_PLOTSTYLENAME
350
45E
  3
ACAD_SCALELIST
350
460
  3
ACAD_SECTIONVIEWSTYLE
350
4B0
  3
ACAD_TABLESTYLE
350
4A2
  3
ACAD_VISUALSTYLE
350
485
  3
ACDB_RECOMPOSE_DATA
350
4AB
  3
AcDbVariableDictionary
350
4A7
  3
APPDATA
350
4A6
  0
DICTIONARY
  5
4AF
102
{ACAD_REACTORS
330
459
102
}
330
459
100
AcDbDictionary
281
     1
  0
DICTIONARY
  5
45A
102
{ACAD_REACTORS
330
459
102
}
330
459
100
AcDbDictionary
281
     1
  0
DICTIONARY
  5
482
102
{ACAD_REACTORS
330
459
102
}
330
459
100
AcDbDictionary
281
     1
  3
Foglio 1
350
484
  3
Model
350
483
  0
DICTIONARY
  5
49E
102
{ACAD_REACTORS
330
459
102
}
330
459
100
AcDbDictionary
281
     1
  3
ByBlock
350
4A0
  3
ByLayer
350
49F
  3
Global
350
4A1
  0
DICTIONARY
  5
4A4
102
{ACAD_REACTORS
330
459
102
}
330
459
100
AcDbDictionary
281
     1
  3
Standard
350
4A5
  0
DICTIONARY
  5
45B
102
{ACAD_REACTORS
330
459
102
}
330
459
100
AcDbDictionary
281
     1
  3
STANDARD
350
45C
  0
DICTIONARY
  5
45D
102
{ACAD_REACTORS
330
459
102
}
330
459
100
AcDbDictionary
281
     1
  0
ACDBDICTIONARYWDFLT
  5
45E
102
{ACAD_REACTORS
330
459
102
}
330
459
100
AcDbDictionary
281
     1
  3
Normal
350
45F
100
AcDbDictionaryWithDefault
340
45F
  0
DICTIONARY
  5
460
102
{ACAD_REACTORS
330
459
102
}
330
459
100
AcDbDictionary
281
     1
  3
A0
350
461
  3
A1
350
462
  3
A2
350
463
  3
A3
350
464
  3
A4
350
465
  3
A5
350
466
  3
A6
350
467
  3
A7
350
468
  3
A8
350
469
  3
A9
350
46A
  3
B0
350
46B
  3
B1
350
46C
  3
B2
350
46D
  3
B3
350
46E
  3
B4
350
46F
  3
B5
350
470
  3
B6
350
471
  3
B7
350
472
  3
B8
350
473
  3
B9
350
474
  3
C0
350
475
  3
C1
350
476
  3
C2
350
477
  3
C3
350
478
  3
C4
350
479
  3
C5
350
47A
  3
C6
350
47B
  3
C7
350
47C
  3
C8
350
47D
  3
C9
350
47E
  3
D0
350
47F
  3
D1
350
480
  3
D2
350
481
  0
DICTIONARY
  5
4B0
102
{ACAD_REACTORS
330
459
102
}
330
459
100
AcDbDictionary
281
     1
  0
DICTIONARY
  5
4A2
102
{ACAD_REACTORS
330
459
102
}
330
459
100
AcDbDictionary
281
     1
  3
Standard
350
4A3
  0
DICTIONARY
  5
485
102
{ACAD_REACTORS
330
459
102
}
330
459
100
AcDbDictionary
281
     1
  3
2dWireframe
350
48A
  3
Basic
350
48D
  3
Brighten
350
491
  3
ColorChange
350
495
  3
Conceptual
350
48F
  3
Dim
350
490
  3
EdgeColorOff
350
498
  3
Facepattern
350
494
  3
Flat
350
486
  3
FlatWithEdges
350
487
  3
Gouraud
350
488
  3
GouraudWithEdges
350
489
  3
Hidden
350
48C
  3
JitterOff
350
496
  3
Linepattern
350
493
  3
OverhangOff
350
497
  3
Realistic
350
48E
  3
Shaded
350
49D
  3
Shaded with edges
350
49C
  3
Shades of Gray
350
499
  3
Sketchy
350
49A
  3
Thicken
350
492
  3
Wireframe
350
48B
  3
X-Ray
350
49B
  0
XRECORD
  5
4AB
102
{ACAD_REACTORS
330
459
102
}
330
459
100
AcDbXrecord
280
     1
 90
        1
330
4A3
  0
DICTIONARY
  5
4A7
102
{ACAD_REACTORS
330
459
102
}
330
459
100
AcDbDictionary
281
     1
  3
CANNOSCALE
350
4A8
  3
CMLEADERSTYLE
350
4AD
  3
CTABLESTYLE
350
4AC
  3
MSLTSCALE
350
4AE
  0
DICTIONARY
  5
4A6
102
{ACAD_REACTORS
330
459
102
}
330
459
100
AcDbDictionary
281
     1
  0
LAYOUT
  5
484
102
{ACAD_REACTORS
330
482
102
}
330
482
100
AcDbPlotSettings
  1

  2
none_device
  4
ISO_A3_(420.00_x_297.00_MM)
  6

 40
7.5
 41
20.0
 42
7.5
 43
20.0
 44
420.0
 45
297.0
 46
0.0
 47
0.0
 48
0.0
 49
0.0
140
0.0
141
0.0
142
1.0
143
1.155642023346303
 70
   688
 72
     1
 73
     0
 74
     1
  7

 75
     0
 76
     0
 77
     2
 78
   300
147
0.8653198653198654
148
0.0
149
0.0
100
AcDbLayout
  1
Foglio 1
 70
     1
 71
     1
 10
0.0
 20
0.0
 11
412.5
 21
277.0
 12
0.0
 22
0.0
 32
0.0
 14
0.0
 24
0.0
 34
0.0
 15
420.0
 25
297.0
 35
0.0
146
0.0
 13
0.0
 23
0.0
 33
0.0
 16
1.0
 26
0.0
 36
0.0
 17
0.0
 27
1.0
 37
0.0
 76
     0
330
1B
331
2BF
  0
LAYOUT
  5
483
102
{ACAD_REACTORS
330
482
102
}
330
482
100
AcDbPlotSettings
  1

  2
none_device
  4
Letter_(8.50_x_11.00_Inches)
  6

 40
6.35
 41
6.35
 42
6.35
 43
6.35
 44
215.9
 45
279.4
 46
0.0
 47
0.0
 48
0.0
 49
0.0
140
0.0
141
0.0
142
1.0
143
52.49999999846251
 70
  1712
 72
     0
 73
     0
 74
     0
  7

 75
     0
 76
     0
 77
     2
 78
   300
147
0.0190476190481769
148
-0.0000001562100806
149
0.0
100
AcDbLayout
  1
Model
 70
     1
 71
     0
 10
0.0
 20
0.0
 11
420.0
 21
297.0
 12
0.0
 22
0.0
 32
0.0
 14
0.0
 24
0.0
 34
0.0
 15
420.0
 25
297.0
 35
0.0
146
0.0
 13
0.0
 23
0.0
 33
0.0
 16
1.0
 26
0.0
 36
0.0
 17
0.0
 27
1.0
 37
0.0
 76
     0
330
1F
331
1F4
  0
MATERIAL
  5
4A0
102
{ACAD_REACTORS
330
49E
102
}
330
49E
100
AcDbMaterial
  1
ByBlock
 72
     1
 94
      127
  0
MATERIAL
  5
49F
102
{ACAD_REACTORS
330
49E
102
}
330
49E
100
AcDbMaterial
  1
ByLayer
 72
     1
 94
      127
  0
MATERIAL
  5
4A1
102
{ACAD_REACTORS
330
49E
102
}
330
49E
100
AcDbMaterial
  1
Global
 72
     1
 94
      127
  0
MLEADERSTYLE
  5
4A5
102
{ACAD_REACTORS
330
4A4
102
}
330
4A4
100
AcDbMLeaderStyle
179
     2
170
     2
171
     1
172
     0
 90
        2
 40
0.0
 41
0.0
173
     1
 91
-1056964608
340
14
 92
       -2
290
     1
 42
2.0
291
     1
 43
8.0
  3
Standard
341
0
 44
4.0
300

342
11
174
     1
178
     1
175
     1
176
     0
 93
-1056964608
 45
4.0
292
     0
297
     0
 46
4.0
343
0
 94
-1056964608
 47
1.0
 49
1.0
140
1.0
293
     1
141
0.0
294
     1
177
     0
142
1.0
295
     0
296
     0
143
3.75
271
     0
272
     9
273
     9
298
     0
  0
MLINESTYLE
  5
45C
102
{ACAD_REACTORS
330
45B
102
}
330
45B
100
AcDbMlineStyle
  2
STANDARD
 70
     0
  3

 62
   256
 51
90.0
 52
90.0
 71
     2
 49
0.5
 62
   256
  6
BYLAYER
 49
-0.5
 62
   256
  6
BYLAYER
  0
ACDBPLACEHOLDER
  5
45F
102
{ACAD_REACTORS
330
45E
102
}
330
45E
  0
SCALE
  5
461
102
{ACAD_REACTORS
330
460
102
}
330
460
100
AcDbScale
 70
     0
300
1:1
140
1.0
141
1.0
290
     1
  0
SCALE
  5
462
102
{ACAD_REACTORS
330
460
102
}
330
460
100
AcDbScale
 70
     0
300
1:2
140
1.0
141
2.0
290
     0
  0
SCALE
  5
463
102
{ACAD_REACTORS
330
460
102
}
330
460
100
AcDbScale
 70
     0
300
1:4
140
1.0
141
4.0
290
     0
  0
SCALE
  5
464
102
{ACAD_REACTORS
330
460
102
}
330
460
100
AcDbScale
 70
     0
300
1:5
140
1.0
141
5.0
290
     0
  0
SCALE
  5
465
102
{ACAD_REACTORS
330
460
102
}
330
460
100
AcDbScale
 70
     0
300
1:8
140
1.0
141
8.0
290
     0
  0
SCALE
  5
466
102
{ACAD_REACTORS
330
460
102
}
330
460
100
AcDbScale
 70
     0
300
1:10
140
1.0
141
10.0
290
     0
  0
SCALE
  5
467
102
{ACAD_REACTORS
330
460
102
}
330
460
100
AcDbScale
 70
     0
300
1:16
140
1.0
141
16.0
290
     0
  0
SCALE
  5
468
102
{ACAD_REACTORS
330
460
102
}
330
460
100
AcDbScale
 70
     0
300
1:20
140
1.0
141
20.0
290
     0
  0
SCALE
  5
469
102
{ACAD_REACTORS
330
460
102
}
330
460
100
AcDbScale
 70
     0
300
1:30
140
1.0
141
30.0
290
     0
  0
SCALE
  5
46A
102
{ACAD_REACTORS
330
460
102
}
330
460
100
AcDbScale
 70
     0
300
1:40
140
1.0
141
40.0
290
     0
  0
SCALE
  5
46B
102
{ACAD_REACTORS
330
460
102
}
330
460
100
AcDbScale
 70
     0
300
1:50
140
1.0
141
50.0
290
     0
  0
SCALE
  5
46C
102
{ACAD_REACTORS
330
460
102
}
330
460
100
AcDbScale
 70
     0
300
1:100
140
1.0
141
100.0
290
     0
  0
SCALE
  5
46D
102
{ACAD_REACTORS
330
460
102
}
330
460
100
AcDbScale
 70
     0
300
2:1
140
2.0
141
1.0
290
     0
  0
SCALE
  5
46E
102
{ACAD_REACTORS
330
460
102
}
330
460
100
AcDbScale
 70
     0
300
4:1
140
4.0
141
1.0
290
     0
  0
SCALE
  5
46F
102
{ACAD_REACTORS
330
460
102
}
330
460
100
AcDbScale
 70
     0
300
8:1
140
8.0
141
1.0
290
     0
  0
SCALE
  5
470
102
{ACAD_REACTORS
330
460
102
}
330
460
100
AcDbScale
 70
     0
300
10:1
140
10.0
141
1.0
290
     0
  0
SCALE
  5
471
102
{ACAD_REACTORS
330
460
102
}
330
460
100
AcDbScale
 70
     0
300
100:1
140
100.0
141
1.0
290
     0
  0
SCALE
  5
472
102
{ACAD_REACTORS
330
460
102
}
330
460
100
AcDbScale
 70
     0
300
1/128" = 1'-0"
140
0.0078125
141
12.0
290
     0
  0
SCALE
  5
473
102
{ACAD_REACTORS
330
460
102
}
330
460
100
AcDbScale
 70
     0
300
1/64" = 1'-0"
140
0.015625
141
12.0
290
     0
  0
SCALE
  5
474
102
{ACAD_REACTORS
330
460
102
}
330
460
100
AcDbScale
 70
     0
300
1/32" = 1'-0"
140
0.03125
141
12.0
290
     0
  0
SCALE
  5
475
102
{ACAD_REACTORS
330
460
102
}
330
460
100
AcDbScale
 70
     0
300
1/16" = 1'-0"
140
0.0625
141
12.0
290
     0
  0
SCALE
  5
476
102
{ACAD_REACTORS
330
460
102
}
330
460
100
AcDbScale
 70
     0
300
3/32" = 1'-0"
140
0.09375
141
12.0
290
     0
  0
SCALE
  5
477
102
{ACAD_REACTORS
330
460
102
}
330
460
100
AcDbScale
 70
     0
300
1/8" = 1'-0"
140
0.125
141
12.0
290
     0
  0
SCALE
  5
478
102
{ACAD_REACTORS
330
460
102
}
330
460
100
AcDbScale
 70
     0
300
3/16" = 1'-0"
140
0.1875
141
12.0
290
     0
  0
SCALE
  5
479
102
{ACAD_REACTORS
330
460
102
}
330
460
100
AcDbScale
 70
     0
300
1/4" = 1'-0"
140
0.25
141
12.0
290
     0
  0
SCALE
  5
47A
102
{ACAD_REACTORS
330
460
102
}
330
460
100
AcDbScale
 70
     0
300
3/8" = 1'-0"
140
0.375
141
12.0
290
     0
  0
SCALE
  5
47B
102
{ACAD_REACTORS
330
460
102
}
330
460
100
AcDbScale
 70
     0
300
1/2" = 1'-0"
140
0.5
141
12.0
290
     0
  0
SCALE
  5
47C
102
{ACAD_REACTORS
330
460
102
}
330
460
100
AcDbScale
 70
     0
300
3/4" = 1'-0"
140
0.75
141
12.0
290
     0
  0
SCALE
  5
47D
102
{ACAD_REACTORS
330
460
102
}
330
460
100
AcDbScale
 70
     0
300
1" = 1'-0"
140
1.0
141
12.0
290
     0
  0
SCALE
  5
47E
102
{ACAD_REACTORS
330
460
102
}
330
460
100
AcDbScale
 70
     0
300
1-1/2" = 1'-0"
140
1.5
141
12.0
290
     0
  0
SCALE
  5
47F
102
{ACAD_REACTORS
330
460
102
}
330
460
100
AcDbScale
 70
     0
300
3" = 1'-0"
140
3.0
141
12.0
290
     0
  0
SCALE
  5
480
102
{ACAD_REACTORS
330
460
102
}
330
460
100
AcDbScale
 70
     0
300
6" = 1'-0"
140
6.0
141
12.0
290
     0
  0
SCALE
  5
481
102
{ACAD_REACTORS
330
460
102
}
330
460
100
AcDbScale
 70
     0
300
1'-0" = 1'-0"
140
12.0
141
12.0
290
     0
  0
TABLESTYLE
  5
4A3
102
{ACAD_REACTORS
330
4A2
102
}
102
{ACAD_XDICTIONARY
360
4A9
102
}
330
4A2
100
AcDbTableStyle
  3
Standard
 70
     0
 71
     0
 40
0.06
 41
0.06
280
     0
281
     0
  7
STANDARD
140
4.5
170
     2
 62
     0
 63
   257
283
     0
 90
        4
 91
        0
  1

274
    -2
284
     1
 64
     0
275
    -2
285
     1
 65
     0
276
    -2
286
     1
 66
     0
277
    -2
287
     1
 67
     0
278
    -2
288
     1
 68
     0
279
    -2
289
     1
 69
     0
  7
STANDARD
140
6.0
170
     5
 62
     0
 63
   257
283
     0
 90
        4
 91
        0
  1

274
    -2
284
     1
 64
     0
275
    -2
285
     1
 65
     0
276
    -2
286
     1
 66
     0
277
    -2
287
     1
 67
     0
278
    -2
288
     1
 68
     0
279
    -2
289
     1
 69
     0
  7
STANDARD
140
4.5
170
     5
 62
     0
 63
   257
283
     0
 90
        4
 91
        0
  1

274
    -2
284
     1
 64
     0
275
    -2
285
     1
 65
     0
276
    -2
286
     1
 66
     0
277
    -2
287
     1
 67
     0
278
    -2
288
     1
 68
     0
279
    -2
289
     1
 69
     0
  0
VISUALSTYLE
  5
48A
102
{ACAD_REACTORS
330
485
102
}
330
485
100
AcDbVisualStyle
  2
2dWireframe
 70
     4
177
     3
291
     0
 70
    58
 90
        0
176
     1
 90
        2
176
     1
 90
        0
176
     1
 90
        0
176
     1
 40
0.6
176
     1
 40
30.0
176
     1
 62
     7
420
 16777215
176
     1
 90
        1
176
     1
 90
        4
176
     1
 62
     7
176
     1
 62
   257
176
     1
 90
        1
176
     1
 90
        1
176
     1
 40
1.0
176
     1
 90
        0
176
     1
 62
   257
176
     1
 40
1.0
176
     1
 90
        1
176
     1
 90
        6
176
     1
 90
        2
176
     1
 62
     7
176
     1
 90
        5
176
     1
 90
        0
176
     1
 90
        0
176
     1
290
     0
176
     1
 90
        1
176
     1
 40
0.0
176
     1
 90
        0
176
     1
290
     1
176
     1
290
     1
176
     1
290
     0
176
     1
290
     0
176
     1
290
     0
176
     1
290
     0
176
     1
290
     0
176
     1
290
     0
176
     1
290
     0
176
     1
 90
       50
176
     1
 40
0.0
176
     1
 40
1.0
176
     1
 90
        0
176
     1
 62
    18
420
        0
176
     1
 90
       50
176
     1
 90
        3
176
     1
 62
     5
420
      255
176
     1
290
     0
176
     1
 90
       50
176
     1
 90
       50
176
     1
 90
       50
176
     1
290
     0
176
     1
 90
       50
176
     1
 62
   256
176
     0
 40
1.0
176
     0
 90
        2
176
     1
  1
strokes_ogs.tif
176
     1
290
     0
176
     1
 40
1.0
176
     1
 40
1.0
176
     1
  0
VISUALSTYLE
  5
48D
102
{ACAD_REACTORS
330
485
102
}
330
485
100
AcDbVisualStyle
  2
Basic
 70
     7
177
     3
291
     1
 70
    58
 90
        1
176
     1
 90
        0
176
     1
 90
        1
176
     1
 90
        0
176
     1
 40
0.6
176
     1
 40
30.0
176
     1
 62
     7
420
 16777215
176
     1
 90
        0
176
     1
 90
        4
176
     1
 62
     7
176
     1
 62
   257
176
     1
 90
        1
176
     1
 90
        1
176
     1
 40
1.0
176
     1
 90
        8
176
     1
 62
     7
176
     1
 40
1.0
176
     1
 90
        1
176
     1
 90
        6
176
     1
 90
        2
176
     1
 62
     7
176
     1
 90
        5
176
     1
 90
        0
176
     1
 90
        0
176
     1
290
     0
176
     1
 90
        1
176
     1
 40
0.0
176
     1
 90
        0
176
     1
290
     0
176
     1
290
     1
176
     1
290
     1
176
     1
290
     0
176
     1
290
     0
176
     1
290
     0
176
     1
290
     0
176
     1
290
     0
176
     1
290
     0
176
     1
 90
       50
176
     1
 40
0.0
176
     1
 40
1.0
176
     1
 90
        0
176
     1
 62
    18
420
        0
176
     1
 90
       50
176
     1
 90
        3
176
     1
 62
     5
420
      255
176
     1
290
     0
176
     1
 90
       50
176
     1
 90
       50
176
     1
 90
       50
176
     1
290
     0
176
     1
 90
       50
176
     1
 62
   256
176
     0
 40
1.0
176
     0
 90
        2
176
     1
  1
strokes_ogs.tif
176
     1
290
     0
176
     1
 40
1.0
176
     1
 40
1.0
176
     1
  0
VISUALSTYLE
  5
491
102
{ACAD_REACTORS
330
485
102
}
330
485
100
AcDbVisualStyle
  2
Brighten
 70
    12
177
     3
291
     1
 70
    58
 90
        2
176
     1
 90
        2
176
     1
 90
        0
176
     1
 90
        0
176
     1
 40
0.6
176
     1
 40
30.0
176
     1
 62
     7
420
 16777215
176
     1
 90
        1
176
     1
 90
        4
176
     1
 62
     7
176
     1
 62
   257
176
     1
 90
        1
176
     1
 90
        1
176
     1
 40
1.0
176
     1
 90
        8
176
     1
 62
     7
176
     1
 40
1.0
176
     1
 90
        1
176
     1
 90
        6
176
     1
 90
        2
176
     1
 62
     7
176
     1
 90
        5
176
     1
 90
        0
176
     1
 90
        0
176
     1
290
     0
176
     1
 90
        1
176
     1
 40
50.0
176
     1
 90
        0
176
     1
290
     0
176
     1
290
     1
176
     1
290
     1
176
     1
290
     0
176
     1
290
     0
176
     1
290
     0
176
     1
290
     0
176
     1
290
     0
176
     1
290
     0
176
     1
 90
       50
176
     1
 40
0.0
176
     1
 40
1.0
176
     1
 90
        0
176
     1
 62
    18
420
        0
176
     1
 90
       50
176
     1
 90
        3
176
     1
 62
     5
420
      255
176
     1
290
     0
176
     1
 90
       50
176
     1
 90
       50
176
     1
 90
       50
176
     1
290
     0
176
     1
 90
       50
176
     1
 62
   256
176
     0
 40
1.0
176
     0
 90
        2
176
     1
  1
strokes_ogs.tif
176
     1
290
     0
176
     1
 40
1.0
176
     1
 40
1.0
176
     1
  0
VISUALSTYLE
  5
495
102
{ACAD_REACTORS
330
485
102
}
330
485
100
AcDbVisualStyle
  2
ColorChange
 70
    16
177
     3
291
     1
 70
    58
 90
        2
176
     1
 90
        2
176
     1
 90
        3
176
     1
 90
        0
176
     1
 40
0.6
176
     1
 40
30.0
176
     1
 62
     8
420
  8421504
176
     1
 90
        1
176
     1
 90
        4
176
     1
 62
     7
176
     1
 62
   257
176
     1
 90
        1
176
     1
 90
        1
176
     1
 40
1.0
176
     1
 90
        8
176
     1
 62
     8
420
  8421504
176
     1
 40
1.0
176
     1
 90
        1
176
     1
 90
        6
176
     1
 90
        2
176
     1
 62
     7
176
     1
 90
        5
176
     1
 90
        0
176
     1
 90
        0
176
     1
290
     0
176
     1
 90
        1
176
     1
 40
0.0
176
     1
 90
        0
176
     1
290
     0
176
     1
290
     1
176
     1
290
     1
176
     1
290
     0
176
     1
290
     0
176
     1
290
     0
176
     1
290
     0
176
     1
290
     0
176
     1
290
     0
176
     1
 90
       50
176
     1
 40
0.0
176
     1
 40
1.0
176
     1
 90
        0
176
     1
 62
    18
420
        0
176
     1
 90
       50
176
     1
 90
        3
176
     1
 62
     5
420
      255
176
     1
290
     0
176
     1
 90
       50
176
     1
 90
       50
176
     1
 90
       50
176
     1
290
     0
176
     1
 90
       50
176
     1
 62
   256
176
     0
 40
1.0
176
     0
 90
        2
176
     1
  1
strokes_ogs.tif
176
     1
290
     0
176
     1
 40
1.0
176
     1
 40
1.0
176
     1
  0
VISUALSTYLE
  5
48F
102
{ACAD_REACTORS
330
485
102
}
330
485
100
AcDbVisualStyle
  2
Conceptual
 70
     9
177
     3
291
     0
 70
    58
 90
        3
176
     1
 90
        2
176
     1
 90
        0
176
     1
 90
        0
176
     1
 40
0.6
176
     1
 40
30.0
176
     1
 62
     7
420
 16777215
176
     1
 90
        2
176
     1
 90
        2
176
     1
 62
     7
176
     1
 62
   257
176
     1
 90
        1
176
     1
 90
        1
176
     1
 40
179.0
176
     1
 90
        8
176
     1
 62
     7
176
     1
 40
1.0
176
     1
 90
        1
176
     1
 90
        6
176
     1
 90
        2
176
     1
 62
     7
176
     1
 90
        3
176
     1
 90
        0
176
     1
 90
        0
176
     1
290
     0
176
     1
 90
        1
176
     1
 40
0.0
176
     1
 90
        0
176
     1
290
     0
176
     1
290
     1
176
     1
290
     1
176
     1
290
     0
176
     1
290
     0
176
     1
290
     0
176
     1
290
     0
176
     1
290
     0
176
     1
290
     0
176
     1
 90
       50
176
     1
 40
0.0
176
     1
 40
1.0
176
     1
 90
        0
176
     1
 62
    18
420
        0
176
     1
 90
       50
176
     1
 90
        3
176
     1
 62
     5
420
      255
176
     1
290
     0
176
     1
 90
       50
176
     1
 90
       50
176
     1
 90
       50
176
     1
290
     0
176
     1
 90
       50
176
     1
 62
   256
176
     0
 40
1.0
176
     0
 90
        2
176
     1
  1
strokes_ogs.tif
176
     1
290
     0
176
     1
 40
1.0
176
     1
 40
1.0
176
     1
  0
VISUALSTYLE
  5
490
102
{ACAD_REACTORS
330
485
102
}
330
485
100
AcDbVisualStyle
  2
Dim
 70
    11
177
     3
291
     1
 70
    58
 90
        2
176
     1
 90
        2
176
     1
 90
        0
176
     1
 90
        0
176
     1
 40
0.6
176
     1
 40
30.0
176
     1
 62
     7
420
 16777215
176
     1
 90
        1
176
     1
 90
        4
176
     1
 62
     7
176
     1
 62
   257
176
     1
 90
        1
176
     1
 90
        1
176
     1
 40
1.0
176
     1
 90
        8
176
     1
 62
     7
176
     1
 40
1.0
176
     1
 90
        1
176
     1
 90
        6
176
     1
 90
        2
176
     1
 62
     7
176
     1
 90
        5
176
     1
 90
        0
176
     1
 90
        0
176
     1
290
     0
176
     1
 90
        1
176
     1
 40
-50.0
176
     1
 90
        0
176
     1
290
     0
176
     1
290
     1
176
     1
290
     1
176
     1
290
     0
176
     1
290
     0
176
     1
290
     0
176
     1
290
     0
176
     1
290
     0
176
     1
290
     0
176
     1
 90
       50
176
     1
 40
0.0
176
     1
 40
1.0
176
     1
 90
        0
176
     1
 62
    18
420
        0
176
     1
 90
       50
176
     1
 90
        3
176
     1
 62
     5
420
      255
176
     1
290
     0
176
     1
 90
       50
176
     1
 90
       50
176
     1
 90
       50
176
     1
290
     0
176
     1
 90
       50
176
     1
 62
   256
176
     0
 40
1.0
176
     0
 90
        2
176
     1
  1
strokes_ogs.tif
176
     1
290
     0
176
     1
 40
1.0
176
     1
 40
1.0
176
     1
  0
VISUALSTYLE
  5
498
102
{ACAD_REACTORS
330
485
102
}
330
485
100
AcDbVisualStyle
  2
EdgeColorOff
 70
    22
177
     3
291
     1
 70
    58
 90
        2
176
     0
 90
        2
176
     0
 90
        0
176
     0
 90
        0
176
     0
 40
0.6
176
     0
 40
30.0
176
     0
 62
     7
420
 16777215
176
     0
 90
        1
176
     0
 90
        4
176
     0
 62
     7
176
     0
 62
   257
176
     0
 90
        1
176
     0
 90
        1
176
     0
 40
1.0
176
     0
 90
        8
176
     2
 62
     7
176
     0
 40
1.0
176
     0
 90
        1
176
     0
 90
        6
176
     0
 90
        2
176
     0
 62
     7
176
     0
 90
        5
176
     0
 90
        0
176
     0
 90
        0
176
     0
290
     0
176
     0
 90
        1
176
     0
 40
0.0
176
     0
 90
        0
176
     0
290
     0
176
     0
290
     1
176
     0
290
     1
176
     0
290
     0
176
     0
290
     0
176
     0
290
     0
176
     0
290
     0
176
     0
290
     0
176
     0
290
     0
176
     0
 90
       50
176
     0
 40
0.0
176
     0
 40
1.0
176
     0
 90
        0
176
     0
 62
    18
420
        0
176
     0
 90
       50
176
     0
 90
        3
176
     0
 62
     5
420
      255
176
     0
290
     0
176
     0
 90
       50
176
     0
 90
       50
176
     0
 90
       50
176
     0
290
     0
176
     0
 90
       50
176
     0
 62
   256
176
     0
 40
1.0
176
     0
 90
        2
176
     0
  1
strokes_ogs.tif
176
     0
290
     0
176
     0
 40
1.0
176
     0
 40
1.0
176
     0
  0
VISUALSTYLE
  5
494
102
{ACAD_REACTORS
330
485
102
}
330
485
100
AcDbVisualStyle
  2
Facepattern
 70
    15
177
     3
291
     1
 70
    58
 90
        2
176
     1
 90
        2
176
     1
 90
        0
176
     1
 90
        0
176
     1
 40
0.6
176
     1
 40
30.0
176
     1
 62
     7
420
 16777215
176
     1
 90
        1
176
     1
 90
        4
176
     1
 62
     7
176
     1
 62
   257
176
     1
 90
        1
176
     1
 90
        1
176
     1
 40
1.0
176
     1
 90
        8
176
     1
 62
     7
176
     1
 40
1.0
176
     1
 90
        1
176
     1
 90
        6
176
     1
 90
        2
176
     1
 62
     7
176
     1
 90
        5
176
     1
 90
        0
176
     1
 90
        0
176
     1
290
     0
176
     1
 90
        1
176
     1
 40
0.0
176
     1
 90
        0
176
     1
290
     0
176
     1
290
     1
176
     1
290
     1
176
     1
290
     0
176
     1
290
     0
176
     1
290
     0
176
     1
290
     0
176
     1
290
     0
176
     1
290
     0
176
     1
 90
       50
176
     1
 40
0.0
176
     1
 40
1.0
176
     1
 90
        0
176
     1
 62
    18
420
        0
176
     1
 90
       50
176
     1
 90
        3
176
     1
 62
     5
420
      255
176
     1
290
     0
176
     1
 90
       50
176
     1
 90
       50
176
     1
 90
       50
176
     1
290
     0
176
     1
 90
       50
176
     1
 62
   256
176
     0
 40
1.0
176
     0
 90
        2
176
     1
  1
strokes_ogs.tif
176
     1
290
     0
176
     1
 40
1.0
176
     1
 40
1.0
176
     1
  0
VISUALSTYLE
  5
486
102
{ACAD_REACTORS
330
485
102
}
330
485
100
AcDbVisualStyle
  2
Flat
 70
     0
177
     3
291
     1
 70
    58
 90
        2
176
     1
 90
        1
176
     1
 90
        1
176
     1
 90
        2
176
     1
 40
0.6
176
     1
 40
30.0
176
     1
 62
     7
420
 16777215
176
     1
 90
        0
176
     1
 90
        0
176
     1
 62
     7
176
     1
 62
   257
176
     1
 90
        1
176
     1
 90
        1
176
     1
 40
1.0
176
     1
 90
        8
176
     1
 62
     7
176
     1
 40
1.0
176
     1
 90
        1
176
     1
 90
        6
176
     1
 90
        2
176
     1
 62
     7
176
     1
 90
        5
176
     1
 90
        0
176
     1
 90
        0
176
     1
290
     0
176
     1
 90
       13
176
     1
 40
0.0
176
     1
 90
        0
176
     1
290
     0
176
     1
290
     1
176
     1
290
     1
176
     1
290
     0
176
     1
290
     0
176
     1
290
     0
176
     1
290
     0
176
     1
290
     0
176
     1
290
     0
176
     1
 90
       50
176
     1
 40
0.0
176
     1
 40
1.0
176
     1
 90
        0
176
     1
 62
    18
420
        0
176
     1
 90
       50
176
     1
 90
        3
176
     1
 62
     5
420
      255
176
     1
290
     0
176
     1
 90
       50
176
     1
 90
       50
176
     1
 90
       50
176
     1
290
     0
176
     1
 90
       50
176
     1
 62
   256
176
     0
 40
1.0
176
     0
 90
        2
176
     1
  1
strokes_ogs.tif
176
     1
290
     0
176
     1
 40
1.0
176
     1
 40
1.0
176
     1
  0
VISUALSTYLE
  5
487
102
{ACAD_REACTORS
330
485
102
}
330
485
100
AcDbVisualStyle
  2
FlatWithEdges
 70
     1
177
     3
291
     1
 70
    58
 90
        2
176
     1
 90
        1
176
     1
 90
        1
176
     1
 90
        2
176
     1
 40
0.6
176
     1
 40
30.0
176
     1
 62
     7
420
 16777215
176
     1
 90
        1
176
     1
 90
        0
176
     1
 62
     7
176
     1
 62
   257
176
     1
 90
        1
176
     1
 90
        1
176
     1
 40
1.0
176
     1
 90
        0
176
     1
 62
   257
176
     1
 40
1.0
176
     1
 90
        1
176
     1
 90
        6
176
     1
 90
        2
176
     1
 62
     7
176
     1
 90
        5
176
     1
 90
        0
176
     1
 90
        0
176
     1
290
     0
176
     1
 90
       13
176
     1
 40
0.0
176
     1
 90
        0
176
     1
290
     0
176
     1
290
     1
176
     1
290
     1
176
     1
290
     0
176
     1
290
     0
176
     1
290
     0
176
     1
290
     0
176
     1
290
     0
176
     1
290
     0
176
     1
 90
       50
176
     1
 40
0.0
176
     1
 40
1.0
176
     1
 90
        0
176
     1
 62
    18
420
        0
176
     1
 90
       50
176
     1
 90
        3
176
     1
 62
     5
420
      255
176
     1
290
     0
176
     1
 90
       50
176
     1
 90
       50
176
     1
 90
       50
176
     1
290
     0
176
     1
 90
       50
176
     1
 62
   256
176
     0
 40
1.0
176
     0
 90
        2
176
     1
  1
strokes_ogs.tif
176
     1
290
     0
176
     1
 40
1.0
176
     1
 40
1.0
176
     1
  0
VISUALSTYLE
  5
488
102
{ACAD_REACTORS
330
485
102
}
330
485
100
AcDbVisualStyle
  2
Gouraud
 70
     2
177
     3
291
     1
 70
    58
 90
        2
176
     1
 90
        2
176
     1
 90
        1
176
     1
 90
        2
176
     1
 40
0.6
176
     1
 40
30.0
176
     1
 62
     7
420
 16777215
176
     1
 90
        0
176
     1
 90
        0
176
     1
 62
     7
176
     1
 62
   257
176
     1
 90
        1
176
     1
 90
        1
176
     1
 40
1.0
176
     1
 90
        0
176
     1
 62
     7
176
     1
 40
1.0
176
     1
 90
        1
176
     1
 90
        6
176
     1
 90
        2
176
     1
 62
     7
176
     1
 90
        5
176
     1
 90
        0
176
     1
 90
        0
176
     1
290
     0
176
     1
 90
       13
176
     1
 40
0.0
176
     1
 90
        0
176
     1
290
     0
176
     1
290
     1
176
     1
290
     1
176
     1
290
     0
176
     1
290
     0
176
     1
290
     0
176
     1
290
     0
176
     1
290
     0
176
     1
290
     0
176
     1
 90
       50
176
     1
 40
0.0
176
     1
 40
1.0
176
     1
 90
        0
176
     1
 62
    18
420
        0
176
     1
 90
       50
176
     1
 90
        3
176
     1
 62
     5
420
      255
176
     1
290
     0
176
     1
 90
       50
176
     1
 90
       50
176
     1
 90
       50
176
     1
290
     0
176
     1
 90
       50
176
     1
 62
   256
176
     0
 40
1.0
176
     0
 90
        2
176
     1
  1
strokes_ogs.tif
176
     1
290
     0
176
     1
 40
1.0
176
     1
 40
1.0
176
     1
  0
VISUALSTYLE
  5
489
102
{ACAD_REACTORS
330
485
102
}
330
485
100
AcDbVisualStyle
  2
GouraudWithEdges
 70
     3
177
     3
291
     1
 70
    58
 90
        2
176
     1
 90
        2
176
     1
 90
        1
176
     1
 90
        2
176
     1
 40
0.6
176
     1
 40
30.0
176
     1
 62
     7
420
 16777215
176
     1
 90
        1
176
     1
 90
        0
176
     1
 62
     7
176
     1
 62
   257
176
     1
 90
        1
176
     1
 90
        1
176
     1
 40
1.0
176
     1
 90
        0
176
     1
 62
   257
176
     1
 40
1.0
176
     1
 90
        1
176
     1
 90
        6
176
     1
 90
        2
176
     1
 62
     7
176
     1
 90
        5
176
     1
 90
        0
176
     1
 90
        0
176
     1
290
     0
176
     1
 90
       13
176
     1
 40
0.0
176
     1
 90
        0
176
     1
290
     0
176
     1
290
     1
176
     1
290
     1
176
     1
290
     0
176
     1
290
     0
176
     1
290
     0
176
     1
290
     0
176
     1
290
     0
176
     1
290
     0
176
     1
 90
       50
176
     1
 40
0.0
176
     1
 40
1.0
176
     1
 90
        0
176
     1
 62
    18
420
        0
176
     1
 90
       50
176
     1
 90
        3
176
     1
 62
     5
420
      255
176
     1
290
     0
176
     1
 90
       50
176
     1
 90
       50
176
     1
 90
       50
176
     1
290
     0
176
     1
 90
       50
176
     1
 62
   256
176
     0
 40
1.0
176
     0
 90
        2
176
     1
  1
strokes_ogs.tif
176
     1
290
     0
176
     1
 40
1.0
176
     1
 40
1.0
176
     1
  0
VISUALSTYLE
  5
48C
102
{ACAD_REACTORS
330
485
102
}
330
485
100
AcDbVisualStyle
  2
Hidden
 70
     6
177
     3
291
     0
 70
    58
 90
        1
176
     1
 90
        2
176
     1
 90
        2
176
     1
 90
        0
176
     1
 40
0.6
176
     1
 40
30.0
176
     1
 62
     7
420
 16777215
176
     1
 90
        2
176
     1
 90
        2
176
     1
 62
     7
176
     1
 62
   257
176
     1
 90
        2
176
     1
 90
        1
176
     1
 40
40.0
176
     1
 90
        0
176
     1
 62
   257
176
     1
 40
1.0
176
     1
 90
        1
176
     1
 90
        6
176
     1
 90
        2
176
     1
 62
     7
176
     1
 90
        3
176
     1
 90
        0
176
     1
 90
        0
176
     1
290
     0
176
     1
 90
        1
176
     1
 40
0.0
176
     1
 90
        0
176
     1
290
     0
176
     1
290
     1
176
     1
290
     1
176
     1
290
     0
176
     1
290
     0
176
     1
290
     0
176
     1
290
     0
176
     1
290
     0
176
     1
290
     0
176
     1
 90
       50
176
     1
 40
0.0
176
     1
 40
1.0
176
     1
 90
        0
176
     1
 62
    18
420
        0
176
     1
 90
       50
176
     1
 90
        3
176
     1
 62
     5
420
      255
176
     1
290
     0
176
     1
 90
       50
176
     1
 90
       50
176
     1
 90
       50
176
     1
290
     0
176
     1
 90
       50
176
     1
 62
   256
176
     0
 40
1.0
176
     0
 90
        2
176
     1
  1
strokes_ogs.tif
176
     1
290
     0
176
     1
 40
1.0
176
     1
 40
1.0
176
     1
  0
VISUALSTYLE
  5
496
102
{ACAD_REACTORS
330
485
102
}
330
485
100
AcDbVisualStyle
  2
JitterOff
 70
    20
177
     3
291
     1
 70
    58
 90
        2
176
     0
 90
        2
176
     0
 90
        0
176
     0
 90
        0
176
     0
 40
0.6
176
     0
 40
30.0
176
     0
 62
     7
420
 16777215
176
     0
 90
        1
176
     0
 90
        4
176
     0
 62
     7
176
     0
 62
   257
176
     0
 90
        1
176
     0
 90
        1
176
     0
 40
1.0
176
     0
 90
       10
176
     2
 62
     7
176
     0
 40
1.0
176
     0
 90
        1
176
     0
 90
        6
176
     0
 90
        2
176
     0
 62
     7
176
     0
 90
        5
176
     0
 90
        0
176
     0
 90
        0
176
     0
290
     0
176
     0
 90
        1
176
     0
 40
0.0
176
     0
 90
        0
176
     0
290
     0
176
     0
290
     1
176
     0
290
     1
176
     0
290
     0
176
     0
290
     0
176
     0
290
     0
176
     0
290
     0
176
     0
290
     0
176
     0
290
     0
176
     0
 90
       50
176
     0
 40
0.0
176
     0
 40
1.0
176
     0
 90
        0
176
     0
 62
    18
420
        0
176
     0
 90
       50
176
     0
 90
        3
176
     0
 62
     5
420
      255
176
     0
290
     0
176
     0
 90
       50
176
     0
 90
       50
176
     0
 90
       50
176
     0
290
     0
176
     0
 90
       50
176
     0
 62
   256
176
     0
 40
1.0
176
     0
 90
        2
176
     0
  1
strokes_ogs.tif
176
     0
290
     0
176
     0
 40
1.0
176
     0
 40
1.0
176
     0
  0
VISUALSTYLE
  5
493
102
{ACAD_REACTORS
330
485
102
}
330
485
100
AcDbVisualStyle
  2
Linepattern
 70
    14
177
     3
291
     1
 70
    58
 90
        2
176
     1
 90
        2
176
     1
 90
        0
176
     1
 90
        0
176
     1
 40
0.6
176
     1
 40
30.0
176
     1
 62
     7
420
 16777215
176
     1
 90
        1
176
     1
 90
        4
176
     1
 62
     7
176
     1
 62
   257
176
     1
 90
        7
176
     1
 90
        7
176
     1
 40
1.0
176
     1
 90
        8
176
     1
 62
     7
176
     1
 40
1.0
176
     1
 90
        1
176
     1
 90
        6
176
     1
 90
        2
176
     1
 62
     7
176
     1
 90
        5
176
     1
 90
        0
176
     1
 90
        0
176
     1
290
     0
176
     1
 90
        1
176
     1
 40
0.0
176
     1
 90
        0
176
     1
290
     0
176
     1
290
     1
176
     1
290
     1
176
     1
290
     0
176
     1
290
     0
176
     1
290
     0
176
     1
290
     0
176
     1
290
     0
176
     1
290
     0
176
     1
 90
       50
176
     1
 40
0.0
176
     1
 40
1.0
176
     1
 90
        0
176
     1
 62
    18
420
        0
176
     1
 90
       50
176
     1
 90
        3
176
     1
 62
     5
420
      255
176
     1
290
     0
176
     1
 90
       50
176
     1
 90
       50
176
     1
 90
       50
176
     1
290
     0
176
     1
 90
       50
176
     1
 62
   256
176
     0
 40
1.0
176
     0
 90
        2
176
     1
  1
strokes_ogs.tif
176
     1
290
     0
176
     1
 40
1.0
176
     1
 40
1.0
176
     1
  0
VISUALSTYLE
  5
497
102
{ACAD_REACTORS
330
485
102
}
330
485
100
AcDbVisualStyle
  2
OverhangOff
 70
    21
177
     3
291
     1
 70
    58
 90
        2
176
     0
 90
        2
176
     0
 90
        0
176
     0
 90
        0
176
     0
 40
0.6
176
     0
 40
30.0
176
     0
 62
     7
420
 16777215
176
     0
 90
        1
176
     0
 90
        4
176
     0
 62
     7
176
     0
 62
   257
176
     0
 90
        1
176
     0
 90
        1
176
     0
 40
1.0
176
     0
 90
        9
176
     2
 62
     7
176
     0
 40
1.0
176
     0
 90
        1
176
     0
 90
        6
176
     0
 90
        2
176
     0
 62
     7
176
     0
 90
        5
176
     0
 90
        0
176
     0
 90
        0
176
     0
290
     0
176
     0
 90
        1
176
     0
 40
0.0
176
     0
 90
        0
176
     0
290
     0
176
     0
290
     1
176
     0
290
     1
176
     0
290
     0
176
     0
290
     0
176
     0
290
     0
176
     0
290
     0
176
     0
290
     0
176
     0
290
     0
176
     0
 90
       50
176
     0
 40
0.0
176
     0
 40
1.0
176
     0
 90
        0
176
     0
 62
    18
420
        0
176
     0
 90
       50
176
     0
 90
        3
176
     0
 62
     5
420
      255
176
     0
290
     0
176
     0
 90
       50
176
     0
 90
       50
176
     0
 90
       50
176
     0
290
     0
176
     0
 90
       50
176
     0
 62
   256
176
     0
 40
1.0
176
     0
 90
        2
176
     0
  1
strokes_ogs.tif
176
     0
290
     0
176
     0
 40
1.0
176
     0
 40
1.0
176
     0
  0
VISUALSTYLE
  5
48E
102
{ACAD_REACTORS
330
485
102
}
330
485
100
AcDbVisualStyle
  2
Realistic
 70
     8
177
     3
291
     0
 70
    58
 90
        2
176
     1
 90
        3
176
     1
 90
        0
176
     1
 90
        2
176
     1
 40
0.6
176
     1
 40
30.0
176
     1
 62
     7
420
 16777215
176
     1
 90
        0
176
     1
 90
        0
176
     1
 62
     7
176
     1
 62
   257
176
     1
 90
        1
176
     1
 90
        1
176
     1
 40
1.0
176
     1
 90
        8
176
     1
 62
   257
176
     1
 40
1.0
176
     1
 90
        1
176
     1
 90
        6
176
     1
 90
        2
176
     1
 62
     7
176
     1
 90
        3
176
     1
 90
        0
176
     1
 90
        0
176
     1
290
     0
176
     1
 90
       13
176
     1
 40
0.0
176
     1
 90
        0
176
     1
290
     0
176
     1
290
     1
176
     1
290
     1
176
     1
290
     0
176
     1
290
     0
176
     1
290
     0
176
     1
290
     0
176
     1
290
     0
176
     1
290
     0
176
     1
 90
       50
176
     1
 40
0.0
176
     1
 40
1.0
176
     1
 90
        0
176
     1
 62
    18
420
        0
176
     1
 90
       50
176
     1
 90
        3
176
     1
 62
     5
420
      255
176
     1
290
     0
176
     1
 90
       50
176
     1
 90
       50
176
     1
 90
       50
176
     1
290
     0
176
     1
 90
       50
176
     1
 62
   256
176
     0
 40
1.0
176
     0
 90
        2
176
     1
  1
strokes_ogs.tif
176
     1
290
     0
176
     1
 40
1.0
176
     1
 40
1.0
176
     1
  0
VISUALSTYLE
  5
49D
102
{ACAD_REACTORS
330
485
102
}
330
485
100
AcDbVisualStyle
  2
Shaded
 70
    27
177
     3
291
     0
 70
    58
 90
        2
176
     1
 90
        2
176
     1
 90
        1
176
     1
 90
        2
176
     1
 40
0.6
176
     1
 40
30.0
176
     1
 62
     7
420
 16777215
176
     1
 90
        0
176
     1
 90
        4
176
     1
 62
     7
176
     1
 62
   257
176
     1
 90
        1
176
     1
 90
        1
176
     1
 40
1.0
176
     1
 90
        8
176
     1
 62
   257
176
     1
 40
1.0
176
     1
 90
        1
176
     1
 90
        6
176
     1
 90
        2
176
     1
 62
     8
420
  7895160
176
     1
 90
        3
176
     1
 90
        0
176
     1
 90
        0
176
     1
290
     0
176
     1
 90
        5
176
     1
 40
0.0
176
     1
 90
        0
176
     1
290
     0
176
     1
290
     1
176
     1
290
     1
176
     1
290
     0
176
     1
290
     0
176
     1
290
     0
176
     1
290
     0
176
     1
290
     0
176
     1
290
     0
176
     1
 90
       50
176
     1
 40
0.0
176
     1
 40
1.0
176
     1
 90
        0
176
     1
 62
    18
420
        0
176
     1
 90
       50
176
     1
 90
        3
176
     1
 62
     5
420
      255
176
     1
290
     0
176
     1
 90
       50
176
     1
 90
       50
176
     1
 90
       50
176
     1
290
     0
176
     1
 90
       50
176
     1
 62
   256
176
     0
 40
1.0
176
     0
 90
        2
176
     1
  1
strokes_ogs.tif
176
     1
290
     0
176
     1
 40
1.0
176
     1
 40
1.0
176
     1
  0
VISUALSTYLE
  5
49C
102
{ACAD_REACTORS
330
485
102
}
330
485
100
AcDbVisualStyle
  2
Shaded with edges
 70
    26
177
     3
291
     0
 70
    58
 90
        2
176
     1
 90
        2
176
     1
 90
        1
176
     1
 90
        2
176
     1
 40
0.6
176
     1
 40
30.0
176
     1
 62
     7
420
 16777215
176
     1
 90
        1
176
     1
 90
       10
176
     1
 62
     7
176
     1
 62
   257
176
     1
 90
        2
176
     1
 90
        1
176
     1
 40
1.0
176
     1
 90
        8
176
     1
 62
   257
176
     1
 40
1.0
176
     1
 90
        1
176
     1
 90
        6
176
     1
 90
        2
176
     1
 62
     7
176
     1
 90
        3
176
     1
 90
        0
176
     1
 90
        0
176
     1
290
     0
176
     1
 90
        5
176
     1
 40
0.0
176
     1
 90
        0
176
     1
290
     0
176
     1
290
     1
176
     1
290
     1
176
     1
290
     0
176
     1
290
     0
176
     1
290
     0
176
     1
290
     0
176
     1
290
     0
176
     1
290
     0
176
     1
 90
       50
176
     1
 40
0.0
176
     1
 40
1.0
176
     1
 90
        0
176
     1
 62
    18
420
        0
176
     1
 90
       50
176
     1
 90
        3
176
     1
 62
     5
420
      255
176
     1
290
     0
176
     1
 90
       50
176
     1
 90
       50
176
     1
 90
       50
176
     1
290
     0
176
     1
 90
       50
176
     1
 62
   256
176
     0
 40
1.0
176
     0
 90
        2
176
     1
  1
strokes_ogs.tif
176
     1
290
     0
176
     1
 40
1.0
176
     1
 40
1.0
176
     1
  0
VISUALSTYLE
  5
499
102
{ACAD_REACTORS
330
485
102
}
330
485
100
AcDbVisualStyle
  2
Shades of Gray
 70
    23
177
     3
291
     0
 70
    58
 90
        2
176
     1
 90
        2
176
     1
 90
        3
176
     1
 90
        0
176
     1
 40
0.6
176
     1
 40
30.0
176
     1
 62
     7
420
 16777215
176
     1
 90
        2
176
     1
 90
        2
176
     1
 62
     7
176
     1
 62
     7
176
     1
 90
        1
176
     1
 90
        1
176
     1
 40
40.0
176
     1
 90
        8
176
     1
 62
     7
176
     1
 40
1.0
176
     1
 90
        1
176
     1
 90
        6
176
     1
 90
        2
176
     1
 62
     7
176
     1
 90
        3
176
     1
 90
        0
176
     1
 90
        0
176
     1
290
     0
176
     1
 90
        1
176
     1
 40
0.0
176
     1
 90
        0
176
     1
290
     0
176
     1
290
     1
176
     1
290
     1
176
     1
290
     0
176
     1
290
     0
176
     1
290
     0
176
     1
290
     0
176
     1
290
     0
176
     1
290
     0
176
     1
 90
       50
176
     1
 40
0.0
176
     1
 40
1.0
176
     1
 90
        0
176
     1
 62
    18
420
        0
176
     1
 90
       50
176
     1
 90
        3
176
     1
 62
     5
420
      255
176
     1
290
     0
176
     1
 90
       50
176
     1
 90
       50
176
     1
 90
       50
176
     1
290
     0
176
     1
 90
       50
176
     1
 62
   256
176
     0
 40
1.0
176
     0
 90
        2
176
     1
  1
strokes_ogs.tif
176
     1
290
     0
176
     1
 40
1.0
176
     1
 40
1.0
176
     1
  0
VISUALSTYLE
  5
49A
102
{ACAD_REACTORS
330
485
102
}
330
485
100
AcDbVisualStyle
  2
Sketchy
 70
    24
177
     3
291
     0
 70
    58
 90
        1
176
     1
 90
        2
176
     1
 90
        2
176
     1
 90
        0
176
     1
 40
0.6
176
     1
 40
30.0
176
     1
 62
     7
420
 16777215
176
     1
 90
        2
176
     1
 90
        2
176
     1
 62
     7
176
     1
 62
     7
176
     1
 90
        1
176
     1
 90
        1
176
     1
 40
40.0
176
     1
 90
       11
176
     1
 62
     7
176
     1
 40
1.0
176
     1
 90
        1
176
     1
 90
        6
176
     1
 90
        2
176
     1
 62
     7
176
     1
 90
        6
176
     1
 90
        0
176
     1
 90
        0
176
     1
290
     0
176
     1
 90
        1
176
     1
 40
0.0
176
     1
 90
        0
176
     1
290
     0
176
     1
290
     1
176
     1
290
     1
176
     1
290
     0
176
     1
290
     0
176
     1
290
     0
176
     1
290
     0
176
     1
290
     0
176
     1
290
     0
176
     1
 90
       50
176
     1
 40
0.0
176
     1
 40
1.0
176
     1
 90
        0
176
     1
 62
    18
420
        0
176
     1
 90
       50
176
     1
 90
        3
176
     1
 62
     5
420
      255
176
     1
290
     0
176
     1
 90
       50
176
     1
 90
       50
176
     1
 90
       50
176
     1
290
     0
176
     1
 90
       50
176
     1
 62
   256
176
     0
 40
1.0
176
     0
 90
        2
176
     1
  1
strokes_ogs.tif
176
     1
290
     0
176
     1
 40
1.0
176
     1
 40
1.0
176
     1
  0
VISUALSTYLE
  5
492
102
{ACAD_REACTORS
330
485
102
}
330
485
100
AcDbVisualStyle
  2
Thicken
 70
    13
177
     3
291
     1
 70
    58
 90
        2
176
     1
 90
        2
176
     1
 90
        0
176
     1
 90
        0
176
     1
 40
0.6
176
     1
 40
30.0
176
     1
 62
     7
420
 16777215
176
     1
 90
        1
176
     1
 90
        4
176
     1
 62
     7
176
     1
 62
   257
176
     1
 90
        1
176
     1
 90
        1
176
     1
 40
1.0
176
     1
 90
       12
176
     1
 62
     7
176
     1
 40
1.0
176
     1
 90
        1
176
     1
 90
        6
176
     1
 90
        2
176
     1
 62
     7
176
     1
 90
        5
176
     1
 90
        0
176
     1
 90
        0
176
     1
290
     0
176
     1
 90
        1
176
     1
 40
0.0
176
     1
 90
        0
176
     1
290
     0
176
     1
290
     1
176
     1
290
     1
176
     1
290
     0
176
     1
290
     0
176
     1
290
     0
176
     1
290
     0
176
     1
290
     0
176
     1
290
     0
176
     1
 90
       50
176
     1
 40
0.0
176
     1
 40
1.0
176
     1
 90
        0
176
     1
 62
    18
420
        0
176
     1
 90
       50
176
     1
 90
        3
176
     1
 62
     5
420
      255
176
     1
290
     0
176
     1
 90
       50
176
     1
 90
       50
176
     1
 90
       50
176
     1
290
     0
176
     1
 90
       50
176
     1
 62
   256
176
     0
 40
1.0
176
     0
 90
        2
176
     1
  1
strokes_ogs.tif
176
     1
290
     0
176
     1
 40
1.0
176
     1
 40
1.0
176
     1
  0
VISUALSTYLE
  5
48B
102
{ACAD_REACTORS
330
485
102
}
330
485
100
AcDbVisualStyle
  2
Wireframe
 70
     5
177
     3
291
     0
 70
    58
 90
        0
176
     1
 90
        2
176
     1
 90
        0
176
     1
 90
        0
176
     1
 40
0.6
176
     1
 40
30.0
176
     1
 62
     7
420
 16777215
176
     1
 90
        1
176
     1
 90
        4
176
     1
 62
     7
176
     1
 62
   257
176
     1
 90
        1
176
     1
 90
        1
176
     1
 40
1.0
176
     1
 90
        0
176
     1
 62
   257
176
     1
 40
1.0
176
     1
 90
        1
176
     1
 90
        6
176
     1
 90
        2
176
     1
 62
     7
176
     1
 90
        3
176
     1
 90
        0
176
     1
 90
        0
176
     1
290
     0
176
     1
 90
        1
176
     1
 40
0.0
176
     1
 90
        0
176
     1
290
     0
176
     1
290
     1
176
     1
290
     1
176
     1
290
     0
176
     1
290
     0
176
     1
290
     0
176
     1
290
     0
176
     1
290
     0
176
     1
290
     0
176
     1
 90
       50
176
     1
 40
0.0
176
     1
 40
1.0
176
     1
 90
        0
176
     1
 62
    18
420
        0
176
     1
 90
       50
176
     1
 90
        3
176
     1
 62
     5
420
      255
176
     1
290
     0
176
     1
 90
       50
176
     1
 90
       50
176
     1
 90
       50
176
     1
290
     0
176
     1
 90
       50
176
     1
 62
   256
176
     0
 40
1.0
176
     0
 90
        2
176
     1
  1
strokes_ogs.tif
176
     1
290
     0
176
     1
 40
1.0
176
     1
 40
1.0
176
     1
  0
VISUALSTYLE
  5
49B
102
{ACAD_REACTORS
330
485
102
}
330
485
100
AcDbVisualStyle
  2
X-Ray
 70
    25
177
     3
291
     0
 70
    58
 90
        2
176
     1
 90
        2
176
     1
 90
        1
176
     1
 90
        1
176
     1
 40
0.5
176
     1
 40
30.0
176
     1
 62
     7
420
 16777215
176
     1
 90
        1
176
     1
 90
        0
176
     1
 62
     7
176
     1
 62
   257
176
     1
 90
        1
176
     1
 90
        1
176
     1
 40
1.0
176
     1
 90
        8
176
     1
 62
     7
176
     1
 40
1.0
176
     1
 90
        1
176
     1
 90
        6
176
     1
 90
        2
176
     1
 62
     7
176
     1
 90
        3
176
     1
 90
        0
176
     1
 90
        0
176
     1
290
     0
176
     1
 90
       13
176
     1
 40
0.0
176
     1
 90
        0
176
     1
290
     0
176
     1
290
     1
176
     1
290
     1
176
     1
290
     0
176
     1
290
     0
176
     1
290
     0
176
     1
290
     0
176
     1
290
     0
176
     1
290
     0
176
     1
 90
       50
176
     1
 40
0.0
176
     1
 40
1.0
176
     1
 90
        0
176
     1
 62
    18
420
        0
176
     1
 90
       50
176
     1
 90
        3
176
     1
 62
     5
420
      255
176
     1
290
     0
176
     1
 90
       50
176
     1
 90
       50
176
     1
 90
       50
176
     1
290
     0
176
     1
 90
       50
176
     1
 62
   256
176
     0
 40
1.0
176
     0
 90
        2
176
     1
  1
strokes_ogs.tif
176
     1
290
     0
176
     1
 40
1.0
176
     1
 40
1.0
176
     1
  0
DICTIONARYVAR
  5
4A8
102
{ACAD_REACTORS
330
4A7
102
}
330
4A7
100
DictionaryVariables
280
     0
  1
1:1
  0
DICTIONARYVAR
  5
4AD
102
{ACAD_REACTORS
330
4A7
102
}
330
4A7
100
DictionaryVariables
280
     0
  1
Standard
  0
DICTIONARYVAR
  5
4AC
102
{ACAD_REACTORS
330
4A7
102
}
330
4A7
100
DictionaryVariables
280
     0
  1
Standard
  0
DICTIONARYVAR
  5
4AE
102
{ACAD_REACTORS
330
4A7
102
}
330
4A7
100
DictionaryVariables
280
     0
  1
0
  0
DICTIONARY
  5
4A9
330
4A3
100
AcDbDictionary
280
     1
281
     1
  3
ACAD_ROUNDTRIP_2008_TABLESTYLE_CELLSTYLEMAP
360
4AA
  0
CELLSTYLEMAP
  5
4AA
102
{ACAD_REACTORS
330
4A9
102
}
330
4A9
100
AcDbCellStyleMap
 90
        3
300
CELLSTYLE
  1
TABLEFORMAT_BEGIN
 90
        5
170
     1
 91
        0
 92
    32768
 62
   257
 93
        1
300
CONTENTFORMAT
  1
CONTENTFORMAT_BEGIN
 90
        0
 91
        0
 92
        4
 93
        0
300

 40
0.0
140
1.0
 94
        5
 62
     0
340
11
144
6.0
309
CONTENTFORMAT_END
171
     1
301
MARGIN
  1
CELLMARGIN_BEGIN
 40
1.5
 40
1.5
 40
1.5
 40
1.5
 40
1.5
 40
1.5
309
CELLMARGIN_END
 94
        6
 95
        1
302
GRIDFORMAT
  1
GRIDFORMAT_BEGIN
 90
        0
 91
        1
 62
     0
 92
       -2
340
14
 93
        0
 40
0.045
309
GRIDFORMAT_END
 95
        2
302
GRIDFORMAT
  1
GRIDFORMAT_BEGIN
 90
        0
 91
        1
 62
     0
 92
       -2
340
14
 93
        0
 40
0.045
309
GRIDFORMAT_END
 95
        4
302
GRIDFORMAT
  1
GRIDFORMAT_BEGIN
 90
        0
 91
        1
 62
     0
 92
       -2
340
14
 93
        0
 40
0.045
309
GRIDFORMAT_END
 95
        8
302
GRIDFORMAT
  1
GRIDFORMAT_BEGIN
 90
        0
 91
        1
 62
     0
 92
       -2
340
14
 93
        0
 40
0.045
309
GRIDFORMAT_END
 95
       16
302
GRIDFORMAT
  1
GRIDFORMAT_BEGIN
 90
        0
 91
        1
 62
     0
 92
       -2
340
14
 93
        0
 40
0.045
309
GRIDFORMAT_END
 95
       32
302
GRIDFORMAT
  1
GRIDFORMAT_BEGIN
 90
        0
 91
        1
 62
     0
 92
       -2
340
14
 93
        0
 40
0.045
309
GRIDFORMAT_END
309
TABLEFORMAT_END
  1
CELLSTYLE_BEGIN
 90
        1
 91
        1
300
_TITLE
309
CELLSTYLE_END
300
CELLSTYLE
  1
TABLEFORMAT_BEGIN
 90
        5
170
     1
 91
        0
 92
        0
 62
   257
 93
        1
300
CONTENTFORMAT
  1
CONTENTFORMAT_BEGIN
 90
        0
 91
        0
 92
        4
 93
        0
300

 40
0.0
140
1.0
 94
        5
 62
     0
340
11
144
4.5
309
CONTENTFORMAT_END
171
     1
301
MARGIN
  1
CELLMARGIN_BEGIN
 40
1.5
 40
1.5
 40
1.5
 40
1.5
 40
1.5
 40
1.5
309
CELLMARGIN_END
 94
        6
 95
        1
302
GRIDFORMAT
  1
GRIDFORMAT_BEGIN
 90
        0
 91
        1
 62
     0
 92
       -2
340
14
 93
        0
 40
0.045
309
GRIDFORMAT_END
 95
        2
302
GRIDFORMAT
  1
GRIDFORMAT_BEGIN
 90
        0
 91
        1
 62
     0
 92
       -2
340
14
 93
        0
 40
0.045
309
GRIDFORMAT_END
 95
        4
302
GRIDFORMAT
  1
GRIDFORMAT_BEGIN
 90
        0
 91
        1
 62
     0
 92
       -2
340
14
 93
        0
 40
0.045
309
GRIDFORMAT_END
 95
        8
302
GRIDFORMAT
  1
GRIDFORMAT_BEGIN
 90
        0
 91
        1
 62
     0
 92
       -2
340
14
 93
        0
 40
0.045
309
GRIDFORMAT_END
 95
       16
302
GRIDFORMAT
  1
GRIDFORMAT_BEGIN
 90
        0
 91
        1
 62
     0
 92
       -2
340
14
 93
        0
 40
0.045
309
GRIDFORMAT_END
 95
       32
302
GRIDFORMAT
  1
GRIDFORMAT_BEGIN
 90
        0
 91
        1
 62
     0
 92
       -2
340
14
 93
        0
 40
0.045
309
GRIDFORMAT_END
309
TABLEFORMAT_END
  1
CELLSTYLE_BEGIN
 90
        2
 91
        1
300
_HEADER
309
CELLSTYLE_END
300
CELLSTYLE
  1
TABLEFORMAT_BEGIN
 90
        5
170
     1
 91
        0
 92
        0
 62
   257
 93
        1
300
CONTENTFORMAT
  1
CONTENTFORMAT_BEGIN
 90
        0
 91
        0
 92
        4
 93
        0
300

 40
0.0
140
1.0
 94
        2
 62
     0
340
11
144
4.5
309
CONTENTFORMAT_END
171
     1
301
MARGIN
  1
CELLMARGIN_BEGIN
 40
1.5
 40
1.5
 40
1.5
 40
1.5
 40
1.5
 40
1.5
309
CELLMARGIN_END
 94
        6
 95
        1
302
GRIDFORMAT
  1
GRIDFORMAT_BEGIN
 90
        0
 91
        1
 62
     0
 92
       -2
340
14
 93
        0
 40
0.045
309
GRIDFORMAT_END
 95
        2
302
GRIDFORMAT
  1
GRIDFORMAT_BEGIN
 90
        0
 91
        1
 62
     0
 92
       -2
340
14
 93
        0
 40
0.045
309
GRIDFORMAT_END
 95
        4
302
GRIDFORMAT
  1
GRIDFORMAT_BEGIN
 90
        0
 91
        1
 62
     0
 92
       -2
340
14
 93
        0
 40
0.045
309
GRIDFORMAT_END
 95
        8
302
GRIDFORMAT
  1
GRIDFORMAT_BEGIN
 90
        0
 91
        1
 62
     0
 92
       -2
340
14
 93
        0
 40
0.045
309
GRIDFORMAT_END
 95
       16
302
GRIDFORMAT
  1
GRIDFORMAT_BEGIN
 90
        0
 91
        1
 62
     0
 92
       -2
340
14
 93
        0
 40
0.045
309
GRIDFORMAT_END
 95
       32
302
GRIDFORMAT
  1
GRIDFORMAT_BEGIN
 90
        0
 91
        1
 62
     0
 92
       -2
340
14
 93
        0
 40
0.045
309
GRIDFORMAT_END
309
TABLEFORMAT_END
  1
CELLSTYLE_BEGIN
 90
        3
 91
        2
300
_DATA
309
CELLSTYLE_END
  0
ENDSEC
  0
EOF
