  0
SECTION
  2
HEADER
  9
$ACADVER
  1
AC1027
  9
$ACADMAINTVER
 70
   105
  9
$DWGCODEPAGE
  3
ANSI_1252
  9
$REQUIREDVERSIONS
160
                 0
  9
$LASTSAVEDBY
  1
andrea.zolin
  9
$INSBASE
 10
0.0
 20
0.0
 30
0.0
  9
$EXTMIN
 10
0.0
 20
0.0
 30
0.0
  9
$EXTMAX
 10
420.0
 20
297.0
 30
0.0
  9
$LIMMIN
 10
0.0
 20
0.0
  9
$LIMMAX
 10
420.0
 20
297.0
  9
$ORTHOMODE
 70
     1
  9
$REGENMODE
 70
     1
  9
$FILLMODE
 70
     1
  9
$QTEXTMODE
 70
     0
  9
$MIRRTEXT
 70
     1
  9
$LTSCALE
 40
23.1
  9
$ATTMODE
 70
     1
  9
$TEXTSIZE
 40
0.2
  9
$TRACEWID
 40
0.05
  9
$TEXTSTYLE
  7
STANDARD
  9
$CLAYER
  8
0
  9
$CELTYPE
  6
BYLAYER
  9
$CECOLOR
 62
   256
  9
$CELTSCALE
 40
1.0
  9
$DISPSILH
 70
     0
  9
$DIMSCALE
 40
1.0
  9
$DIMASZ
 40
2.5
  9
$DIMEXO
 40
0.75
  9
$DIMDLI
 40
15.96
  9
$DIMRND
 40
0.0
  9
$DIMDLE
 40
0.0
  9
$DIMEXE
 40
0.75
  9
$DIMTP
 40
0.01
  9
$DIMTM
 40
0.01
  9
$DIMTXT
 40
3.0
  9
$DIMCEN
 40
3.78
  9
$DIMTSZ
 40
0.0
  9
$DIMTOL
 70
     1
  9
$DIMLIM
 70
     0
  9
$DIMTIH
 70
     1
  9
$DIMTOH
 70
     1
  9
$DIMSE1
 70
     0
  9
$DIMSE2
 70
     0
  9
$DIMTAD
 70
     0
  9
$DIMZIN
 70
     0
  9
$DIMBLK
  1
CLOSED
  9
$DIMASO
 70
     1
  9
$DIMSHO
 70
     1
  9
$DIMPOST
  1

  9
$DIMAPOST
  1

  9
$DIMALT
 70
     0
  9
$DIMALTD
 70
     2
  9
$DIMALTF
 40
25.4
  9
$DIMLFAC
 40
1.0
  9
$DIMTOFL
 70
     0
  9
$DIMTVP
 40
0.0
  9
$DIMTIX
 70
     0
  9
$DIMSOXD
 70
     0
  9
$DIMSAH
 70
     0
  9
$DIMBLK1
  1

  9
$DIMBLK2
  1

  9
$DIMSTYLE
  2
STANDARD
  9
$DIMCLRD
 70
     0
  9
$DIMCLRE
 70
     0
  9
$DIMCLRT
 70
     0
  9
$DIMTFAC
 40
1.0
  9
$DIMGAP
 40
0.625
  9
$DIMJUST
 70
     0
  9
$DIMSD1
 70
     0
  9
$DIMSD2
 70
     0
  9
$DIMTOLJ
 70
     1
  9
$DIMTZIN
 70
     0
  9
$DIMALTZ
 70
     0
  9
$DIMALTTZ
 70
     0
  9
$DIMUPT
 70
     0
  9
$DIMDEC
 70
     4
  9
$DIMTDEC
 70
     4
  9
$DIMALTU
 70
     2
  9
$DIMALTTD
 70
     2
  9
$DIMTXSTY
  7
STANDARD
  9
$DIMAUNIT
 70
     0
  9
$DIMADEC
 70
     0
  9
$DIMALTRND
 40
0.0
  9
$DIMAZIN
 70
     0
  9
$DIMDSEP
 70
    46
  9
$DIMATFIT
 70
     3
  9
$DIMFRAC
 70
     0
  9
$DIMLDRBLK
  1

  9
$DIMLUNIT
 70
     2
  9
$DIMLWD
 70
    -2
  9
$DIMLWE
 70
    -2
  9
$DIMTMOVE
 70
     2
  9
$DIMFXL
 40
1.0
  9
$DIMFXLON
 70
     0
  9
$DIMJOGANG
 40
0.7853981633974483
  9
$DIMTFILL
 70
     0
  9
$DIMTFILLCLR
 70
     0
  9
$DIMARCSYM
 70
     0
  9
$DIMLTYPE
  6

  9
$DIMLTEX1
  6

  9
$DIMLTEX2
  6

  9
$DIMTXTDIRECTION
 70
     0
  9
$LUNITS
 70
     2
  9
$LUPREC
 70
     4
  9
$SKETCHINC
 40
0.1
  9
$FILLETRAD
 40
0.5
  9
$AUNITS
 70
     0
  9
$AUPREC
 70
     0
  9
$MENU
  1
.
  9
$ELEVATION
 40
0.0
  9
$PELEVATION
 40
0.0
  9
$THICKNESS
 40
0.0
  9
$LIMCHECK
 70
     0
  9
$CHAMFERA
 40
0.0
  9
$CHAMFERB
 40
0.0
  9
$CHAMFERC
 40
0.0
  9
$CHAMFERD
 40
0.0
  9
$SKPOLY
 70
     0
  9
$TDCREATE
 40
2447893.041666667
  9
$TDUCREATE
 40
0.0
  9
$TDUPDATE
 40
2458467.346885752
  9
$TDUUPDATE
 40
2458467.305219085
  9
$TDINDWG
 40
0.0009000926
  9
$TDUSRTIMER
 40
0.0009000926
  9
$USRTIMER
 70
     1
  9
$ANGBASE
 50
0.0
  9
$ANGDIR
 70
     0
  9
$PDMODE
 70
     3
  9
$PDSIZE
 40
0.3125
  9
$PLINEWID
 40
0.0
  9
$SPLFRAME
 70
     0
  9
$SPLINETYPE
 70
     6
  9
$SPLINESEGS
 70
     8
  9
$HANDSEED
  5
45D
  9
$SURFTAB1
 70
     6
  9
$SURFTAB2
 70
     6
  9
$SURFTYPE
 70
     6
  9
$SURFU
 70
     6
  9
$SURFV
 70
     6
  9
$UCSBASE
  2

  9
$UCSNAME
  2

  9
$UCSORG
 10
0.0
 20
0.0
 30
0.0
  9
$UCSXDIR
 10
1.0
 20
0.0
 30
0.0
  9
$UCSYDIR
 10
0.0
 20
1.0
 30
0.0
  9
$UCSORTHOREF
  2

  9
$UCSORTHOVIEW
 70
     0
  9
$UCSORGTOP
 10
0.0
 20
0.0
 30
0.0
  9
$UCSORGBOTTOM
 10
0.0
 20
0.0
 30
0.0
  9
$UCSORGLEFT
 10
0.0
 20
0.0
 30
0.0
  9
$UCSORGRIGHT
 10
0.0
 20
0.0
 30
0.0
  9
$UCSORGFRONT
 10
0.0
 20
0.0
 30
0.0
  9
$UCSORGBACK
 10
0.0
 20
0.0
 30
0.0
  9
$PUCSBASE
  2

  9
$PUCSNAME
  2

  9
$PUCSORG
 10
0.0
 20
0.0
 30
0.0
  9
$PUCSXDIR
 10
1.0
 20
0.0
 30
0.0
  9
$PUCSYDIR
 10
0.0
 20
1.0
 30
0.0
  9
$PUCSORTHOREF
  2

  9
$PUCSORTHOVIEW
 70
     0
  9
$PUCSORGTOP
 10
0.0
 20
0.0
 30
0.0
  9
$PUCSORGBOTTOM
 10
0.0
 20
0.0
 30
0.0
  9
$PUCSORGLEFT
 10
0.0
 20
0.0
 30
0.0
  9
$PUCSORGRIGHT
 10
0.0
 20
0.0
 30
0.0
  9
$PUCSORGFRONT
 10
0.0
 20
0.0
 30
0.0
  9
$PUCSORGBACK
 10
0.0
 20
0.0
 30
0.0
  9
$USERI1
 70
     0
  9
$USERI2
 70
     0
  9
$USERI3
 70
     0
  9
$USERI4
 70
     0
  9
$USERI5
 70
     0
  9
$USERR1
 40
0.0
  9
$USERR2
 40
0.0
  9
$USERR3
 40
0.0
  9
$USERR4
 40
0.0
  9
$USERR5
 40
0.0
  9
$WORLDVIEW
 70
     1
  9
$SHADEDGE
 70
     3
  9
$SHADEDIF
 70
    70
  9
$TILEMODE
 70
     0
  9
$MAXACTVP
 70
    64
  9
$PINSBASE
 10
0.0
 20
0.0
 30
0.0
  9
$PLIMCHECK
 70
     0
  9
$PEXTMIN
 10
0.0
 20
0.0
 30
0.0
  9
$PEXTMAX
 10
420.0
 20
297.0
 30
0.0
  9
$PLIMMIN
 10
-8.667315175097276
 20
-23.11284046692607
  9
$PLIMMAX
 10
476.7023346303502
 20
320.1128404669261
  9
$UNITMODE
 70
     0
  9
$VISRETAIN
 70
     1
  9
$PLINEGEN
 70
     0
  9
$PSLTSCALE
 70
     1
  9
$TREEDEPTH
 70
  3020
  9
$CMLSTYLE
  2
STANDARD
  9
$CMLJUST
 70
     0
  9
$CMLSCALE
 40
1.0
  9
$PROXYGRAPHICS
 70
     1
  9
$MEASUREMENT
 70
     1
  9
$CELWEIGHT
370
    -1
  9
$ENDCAPS
280
     0
  9
$JOINSTYLE
280
     0
  9
$LWDISPLAY
290
     0
  9
$INSUNITS
 70
     0
  9
$HYPERLINKBASE
  1

  9
$STYLESHEET
  1

  9
$XEDIT
290
     1
  9
$CEPSNTYPE
380
     0
  9
$PSTYLEMODE
290
     1
  9
$FINGERPRINTGUID
  2
{4735FDA9-51B7-4F35-9727-1FF8DC9D3DC9}
  9
$VERSIONGUID
  2
{FAEB1C32-E019-11D5-929B-00C0DF256EC4}
  9
$EXTNAMES
290
     1
  9
$PSVPSCALE
 40
0.0
  9
$OLESTARTUP
290
     0
  9
$SORTENTS
280
   127
  9
$INDEXCTL
280
     0
  9
$HIDETEXT
280
     1
  9
$XCLIPFRAME
280
     2
  9
$HALOGAP
280
     0
  9
$OBSCOLOR
 70
   257
  9
$OBSLTYPE
280
     0
  9
$INTERSECTIONDISPLAY
280
     0
  9
$INTERSECTIONCOLOR
 70
   257
  9
$DIMASSOC
280
     2
  9
$PROJECTNAME
  1

  9
$CAMERADISPLAY
290
     0
  9
$LENSLENGTH
 40
50.0
  9
$CAMERAHEIGHT
 40
0.0
  9
$STEPSPERSEC
 40
2.0
  9
$STEPSIZE
 40
6.0
  9
$3DDWFPREC
 40
2.0
  9
$PSOLWIDTH
 40
0.25
  9
$PSOLHEIGHT
 40
4.0
  9
$LOFTANG1
 40
1.570796326794897
  9
$LOFTANG2
 40
1.570796326794897
  9
$LOFTMAG1
 40
0.0
  9
$LOFTMAG2
 40
0.0
  9
$LOFTPARAM
 70
     7
  9
$LOFTNORMALS
280
     1
  9
$LATITUDE
 40
37.795
  9
$LONGITUDE
 40
-122.394
  9
$NORTHDIRECTION
 40
0.0
  9
$TIMEZONE
 70
 -8000
  9
$LIGHTGLYPHDISPLAY
280
     1
  9
$TILEMODELIGHTSYNCH
280
     1
  9
$SOLIDHIST
280
     0
  9
$SHOWHIST
280
     1
  9
$DWFFRAME
280
     2
  9
$DGNFRAME
280
     2
  9
$REALWORLDSCALE
290
     1
  9
$INTERFERECOLOR
 62
   256
  9
$CSHADOW
280
     0
  9
$SHADOWPLANELOCATION
 40
0.0
  0
ENDSEC
  0
SECTION
  2
CLASSES
  0
CLASS
  1
ACDBDICTIONARYWDFLT
  2
AcDbDictionaryWithDefault
  3
ObjectDBX Classes
 90
        0
 91
        4
280
     0
281
     0
  0
CLASS
  1
SCALE
  2
AcDbScale
  3
ObjectDBX Classes
 90
     1153
 91
        4
280
     0
281
     0
  0
CLASS
  1
VISUALSTYLE
  2
AcDbVisualStyle
  3
ObjectDBX Classes
 90
     4095
 91
        4
280
     0
281
     0
  0
CLASS
  1
MATERIAL
  2
AcDbMaterial
  3
ObjectDBX Classes
 90
     1153
 91
        4
280
     0
281
     0
  0
CLASS
  1
TABLESTYLE
  2
AcDbTableStyle
  3
ObjectDBX Classes
 90
     4095
 91
        4
280
     0
281
     0
  0
CLASS
  1
MLEADERSTYLE
  2
AcDbMLeaderStyle
  3
ACDB_MLEADERSTYLE_CLASS
 90
     4095
 91
        4
280
     0
281
     0
  0
CLASS
  1
DICTIONARYVAR
  2
AcDbDictionaryVar
  3
ObjectDBX Classes
 90
        0
 91
        4
280
     0
281
     0
  0
CLASS
  1
CELLSTYLEMAP
  2
AcDbCellStyleMap
  3
ObjectDBX Classes
 90
     1152
 91
        4
280
     0
281
     0
  0
ENDSEC
  0
SECTION
  2
TABLES
  0
TABLE
  2
VPORT
  5
8
330
0
100
AcDbSymbolTable
 70
     1
  0
VPORT
  5
1F4
330
8
100
AcDbSymbolTableRecord
100
AcDbViewportTableRecord
  2
*ACTIVE
 70
     0
 10
0.0
 20
0.0
 11
1.0
 21
1.0
 12
210.0
 22
148.5
 13
0.0
 23
0.0
 14
1.0
 24
1.0
 15
0.0
 25
0.0
 16
0.0
 26
0.0
 36
1.0
 17
0.0
 27
0.0
 37
0.0
 40
297.0
 41
1.4141414141
 42
50.0
 43
0.0
 44
0.0
 50
0.0
 51
0.0
 71
     0
 72
   100
 73
     1
 74
     1
 75
     0
 76
     0
 77
     0
 78
     0
281
     0
 65
     1
110
0.0
120
0.0
130
0.0
111
1.0
121
0.0
131
0.0
112
0.0
122
1.0
132
0.0
 79
     0
146
0.0
348
433
 60
     3
 61
     5
292
     1
282
     1
141
0.0
142
0.0
 63
   256
  0
ENDTAB
  0
TABLE
  2
LTYPE
  5
5
330
0
100
AcDbSymbolTable
 70
     6
  0
LTYPE
  5
14
330
5
100
AcDbSymbolTableRecord
100
AcDbLinetypeTableRecord
  2
BYBLOCK
 70
     0
  3

 72
    65
 73
     0
 40
0.0
  0
LTYPE
  5
15
330
5
100
AcDbSymbolTableRecord
100
AcDbLinetypeTableRecord
  2
BYLAYER
 70
     0
  3

 72
    65
 73
     0
 40
0.0
  0
LTYPE
  5
16
330
5
100
AcDbSymbolTableRecord
100
AcDbLinetypeTableRecord
  2
CONTINUOUS
 70
     0
  3
Solid line
 72
    65
 73
     0
 40
0.0
  0
LTYPE
  5
1F5
330
5
100
AcDbSymbolTableRecord
100
AcDbLinetypeTableRecord
  2
CENTER
 70
     0
  3
____ _ ____ _ ____ _ ____ _ ____ _ ____ _ ____
 72
    65
 73
     4
 40
0.6
 49
0.375
 74
     0
 49
-0.075
 74
     0
 49
0.075
 74
     0
 49
-0.075
 74
     0
  0
LTYPE
  5
1F6
330
5
100
AcDbSymbolTableRecord
100
AcDbLinetypeTableRecord
  2
HIDDEN
 70
     0
  3
- - - - - - - - - - - - - - - - - - - -
 72
    65
 73
     2
 40
0.2
 49
0.1
 74
     0
 49
-0.1
 74
     0
  0
LTYPE
  5
1F7
330
5
100
AcDbSymbolTableRecord
100
AcDbLinetypeTableRecord
  2
PHANTOM
 70
     0
  3
_____ _ _ _____ _ _ _____ _ _ _____
 72
    65
 73
     6
 40
0.8
 49
0.45
 74
     0
 49
-0.05
 74
     0
 49
0.1
 74
     0
 49
-0.05
 74
     0
 49
0.1
 74
     0
 49
-0.05
 74
     0
  0
LTYPE
  5
1F8
330
5
100
AcDbSymbolTableRecord
100
AcDbLinetypeTableRecord
  2
DOT
 70
     0
  3
. . . . . . . . . . . . . . . . . . . .
 72
    65
 73
     2
 40
0.2
 49
0.1
 74
     0
 49
-0.1
 74
     0
  0
LTYPE
  5
1F9
330
5
100
AcDbSymbolTableRecord
100
AcDbLinetypeTableRecord
  2
DASHED
 70
     0
  3
- - - - - - - - - - - - - - - - - - - -
 72
    65
 73
     2
 40
0.2
 49
0.1
 74
     0
 49
-0.1
 74
     0
  0
ENDTAB
  0
TABLE
  2
LAYER
  5
2
330
0
100
AcDbSymbolTable
 70
    33
  0
LAYER
  5
10
330
2
100
AcDbSymbolTableRecord
100
AcDbLayerTableRecord
  2
0
 70
     0
 62
     7
  6
CONTINUOUS
370
    -3
390
408
347
44A
348
0
  0
LAYER
  5
1FA
330
2
100
AcDbSymbolTableRecord
100
AcDbLayerTableRecord
  2
DEFAULT_1
 70
     0
 62
     7
  6
CENTER
370
    -3
390
408
347
44A
348
0
  0
LAYER
  5
1FB
330
2
100
AcDbSymbolTableRecord
100
AcDbLayerTableRecord
  2
DEFAULT_2
 70
     0
 62
     8
  6
HIDDEN
370
    -3
390
408
347
44A
348
0
  0
LAYER
  5
1FC
330
2
100
AcDbSymbolTableRecord
100
AcDbLayerTableRecord
  2
DEFAULT_3
 70
     0
 62
     7
  6
PHANTOM
370
    -3
390
408
347
44A
348
0
  0
LAYER
  5
1FD
330
2
100
AcDbSymbolTableRecord
100
AcDbLayerTableRecord
  2
01_ALL_DTM_PLN
 70
     0
 62
     7
  6
CONTINUOUS
370
    -3
390
408
347
44A
348
0
  0
LAYER
  5
1FE
330
2
100
AcDbSymbolTableRecord
100
AcDbLayerTableRecord
  2
01__ASM_ALL_DTM_PLN
 70
     0
 62
     7
  6
CONTINUOUS
370
    -3
390
408
347
44A
348
0
  0
LAYER
  5
1FF
330
2
100
AcDbSymbolTableRecord
100
AcDbLayerTableRecord
  2
01__ASM_DEF_DTM_PLN
 70
     0
 62
     7
  6
CONTINUOUS
370
    -3
390
408
347
44A
348
0
  0
LAYER
  5
200
330
2
100
AcDbSymbolTableRecord
100
AcDbLayerTableRecord
  2
01___PRT_ALL_DTM_PLN
 70
     0
 62
     7
  6
CONTINUOUS
370
    -3
390
408
347
44A
348
0
  0
LAYER
  5
201
330
2
100
AcDbSymbolTableRecord
100
AcDbLayerTableRecord
  2
01___PRT_DEF_DTM_PLN
 70
     0
 62
     7
  6
CONTINUOUS
370
    -3
390
408
347
44A
348
0
  0
LAYER
  5
202
330
2
100
AcDbSymbolTableRecord
100
AcDbLayerTableRecord
  2
02_ALL_AXES
 70
     0
 62
     7
  6
CONTINUOUS
370
    -3
390
408
347
44A
348
0
  0
LAYER
  5
203
330
2
100
AcDbSymbolTableRecord
100
AcDbLayerTableRecord
  2
02__ASM_ALL_AXES
 70
     0
 62
     7
  6
CONTINUOUS
370
    -3
390
408
347
44A
348
0
  0
LAYER
  5
204
330
2
100
AcDbSymbolTableRecord
100
AcDbLayerTableRecord
  2
02___PRT_ALL_AXES
 70
     0
 62
     7
  6
CONTINUOUS
370
    -3
390
408
347
44A
348
0
  0
LAYER
  5
205
330
2
100
AcDbSymbolTableRecord
100
AcDbLayerTableRecord
  2
03_ALL_CURVES
 70
     0
 62
     7
  6
CONTINUOUS
370
    -3
390
408
347
44A
348
0
  0
LAYER
  5
206
330
2
100
AcDbSymbolTableRecord
100
AcDbLayerTableRecord
  2
03__ASM_ALL_CURVES
 70
     0
 62
     7
  6
CONTINUOUS
370
    -3
390
408
347
44A
348
0
  0
LAYER
  5
207
330
2
100
AcDbSymbolTableRecord
100
AcDbLayerTableRecord
  2
03___PRT_ALL_CURVES
 70
     0
 62
     7
  6
CONTINUOUS
370
    -3
390
408
347
44A
348
0
  0
LAYER
  5
208
330
2
100
AcDbSymbolTableRecord
100
AcDbLayerTableRecord
  2
04_ALL_DTM_PNT
 70
     0
 62
     7
  6
CONTINUOUS
370
    -3
390
408
347
44A
348
0
  0
LAYER
  5
209
330
2
100
AcDbSymbolTableRecord
100
AcDbLayerTableRecord
  2
04__ASM_ALL_DTM_PNT
 70
     0
 62
     7
  6
CONTINUOUS
370
    -3
390
408
347
44A
348
0
  0
LAYER
  5
20A
330
2
100
AcDbSymbolTableRecord
100
AcDbLayerTableRecord
  2
04___PRT_ALL_DTM_PNT
 70
     0
 62
     7
  6
CONTINUOUS
370
    -3
390
408
347
44A
348
0
  0
LAYER
  5
20B
330
2
100
AcDbSymbolTableRecord
100
AcDbLayerTableRecord
  2
05_ALL_DTM_CSYS
 70
     0
 62
     7
  6
CONTINUOUS
370
    -3
390
408
347
44A
348
0
  0
LAYER
  5
20C
330
2
100
AcDbSymbolTableRecord
100
AcDbLayerTableRecord
  2
05__ASM_ALL_DTM_CSYS
 70
     0
 62
     7
  6
CONTINUOUS
370
    -3
390
408
347
44A
348
0
  0
LAYER
  5
20D
330
2
100
AcDbSymbolTableRecord
100
AcDbLayerTableRecord
  2
05__ASM_DEF_DTM_CSYS
 70
     0
 62
     7
  6
CONTINUOUS
370
    -3
390
408
347
44A
348
0
  0
LAYER
  5
20E
330
2
100
AcDbSymbolTableRecord
100
AcDbLayerTableRecord
  2
05___PRT_ALL_DTM_CSYS
 70
     0
 62
     7
  6
CONTINUOUS
370
    -3
390
408
347
44A
348
0
  0
LAYER
  5
20F
330
2
100
AcDbSymbolTableRecord
100
AcDbLayerTableRecord
  2
05___PRT_DEF_DTM_CSYS
 70
     0
 62
     7
  6
CONTINUOUS
370
    -3
390
408
347
44A
348
0
  0
LAYER
  5
210
330
2
100
AcDbSymbolTableRecord
100
AcDbLayerTableRecord
  2
06_ALL_SURFS
 70
     0
 62
     7
  6
CONTINUOUS
370
    -3
390
408
347
44A
348
0
  0
LAYER
  5
211
330
2
100
AcDbSymbolTableRecord
100
AcDbLayerTableRecord
  2
06__ASM_ALL_SURFS
 70
     0
 62
     7
  6
CONTINUOUS
370
    -3
390
408
347
44A
348
0
  0
LAYER
  5
212
330
2
100
AcDbSymbolTableRecord
100
AcDbLayerTableRecord
  2
06___PRT_ALL_SURFS
 70
     0
 62
     7
  6
CONTINUOUS
370
    -3
390
408
347
44A
348
0
  0
LAYER
  5
213
330
2
100
AcDbSymbolTableRecord
100
AcDbLayerTableRecord
  2
07__ASM_ALL_SKELETONS
 70
     0
 62
     7
  6
CONTINUOUS
370
    -3
390
408
347
44A
348
0
  0
LAYER
  5
214
330
2
100
AcDbSymbolTableRecord
100
AcDbLayerTableRecord
  2
1_ALL_PLANES
 70
     0
 62
     7
  6
CONTINUOUS
370
    -3
390
408
347
44A
348
0
  0
LAYER
  5
215
330
2
100
AcDbSymbolTableRecord
100
AcDbLayerTableRecord
  2
3_ALL_AXES
 70
     0
 62
     7
  6
CONTINUOUS
370
    -3
390
408
347
44A
348
0
  0
LAYER
  5
216
330
2
100
AcDbSymbolTableRecord
100
AcDbLayerTableRecord
  2
5_ALL_CURVES
 70
     0
 62
     7
  6
CONTINUOUS
370
    -3
390
408
347
44A
348
0
  0
LAYER
  5
217
330
2
100
AcDbSymbolTableRecord
100
AcDbLayerTableRecord
  2
7_ALL_FEATURES
 70
     0
 62
     7
  6
CONTINUOUS
370
    -3
390
408
347
44A
348
0
  0
LAYER
  5
218
330
2
100
AcDbSymbolTableRecord
100
AcDbLayerTableRecord
  2
8_ALL_NOTES_BALLOONS_SYMBOLS_GT
 70
     0
 62
     7
  6
CONTINUOUS
370
    -3
390
408
347
44A
348
0
  0
LAYER
  5
219
330
2
100
AcDbSymbolTableRecord
100
AcDbLayerTableRecord
  2
9_SOLID
 70
     0
 62
     7
  6
CONTINUOUS
370
    -3
390
408
347
44A
348
0
  0
ENDTAB
  0
TABLE
  2
STYLE
  5
3
330
0
100
AcDbSymbolTable
 70
     5
  0
STYLE
  5
11
330
3
100
AcDbSymbolTableRecord
100
AcDbTextStyleTableRecord
  2
STANDARD
 70
     0
 40
0.0
 41
0.85
 50
0.0
 71
     0
 42
0.2
  3
txt
  4

  0
STYLE
  5
21A
330
3
100
AcDbSymbolTableRecord
100
AcDbTextStyleTableRecord
  2
TEXTSTYLE_1
 70
     0
 40
0.0
 41
0.8
 50
0.0
 71
     0
 42
0.2
  3
gdt
  4

  0
STYLE
  5
21B
330
3
100
AcDbSymbolTableRecord
100
AcDbTextStyleTableRecord
  2
TEXTSTYLE_2
 70
     0
 40
0.0
 41
0.9
 50
0.0
 71
     0
 42
0.2
  3
txt
  4

  0
STYLE
  5
21C
330
3
100
AcDbSymbolTableRecord
100
AcDbTextStyleTableRecord
  2
TEXTSTYLE_3
 70
     0
 40
0.0
 41
0.9
 50
0.0
 71
     0
 42
0.2
  3
txt
  4

  0
STYLE
  5
21D
330
3
100
AcDbSymbolTableRecord
100
AcDbTextStyleTableRecord
  2
TEXTSTYLE_4
 70
     0
 40
0.0
 41
2.0
 50
0.0
 71
     0
 42
0.2
  3
txt
  4

  0
ENDTAB
  0
TABLE
  2
VIEW
  5
6
330
0
100
AcDbSymbolTable
 70
     0
  0
ENDTAB
  0
TABLE
  2
UCS
  5
7
330
0
100
AcDbSymbolTable
 70
     0
  0
ENDTAB
  0
TABLE
  2
APPID
  5
9
330
0
100
AcDbSymbolTable
 70
     1
  0
APPID
  5
21E
330
9
100
AcDbSymbolTableRecord
100
AcDbRegAppTableRecord
  2
ACAD
 70
     0
  0
ENDTAB
  0
TABLE
  2
DIMSTYLE
  5
A
330
0
100
AcDbSymbolTable
 70
     3
100
AcDbDimStyleTable
  0
DIMSTYLE
105
225
330
A
100
AcDbSymbolTableRecord
100
AcDbDimStyleTableRecord
  2
STANDARD
 70
     0
 41
2.5
 42
0.75
 44
0.75
 47
0.01
 48
0.01
 71
     1
 73
     0
 74
     0
 77
     1
 78
     8
 79
     2
140
3.0
147
0.625
171
     1
178
     0
179
     2
271
     2
272
     2
284
     8
340
11
341
21F
342
21F
343
21F
344
21F
  0
DIMSTYLE
105
226
330
A
100
AcDbSymbolTableRecord
100
AcDbDimStyleTableRecord
  2
DIMSTYLE_1
 70
     0
 41
2.5
 42
0.75
 44
0.75
 47
0.5
 48
0.5
 73
     0
 74
     0
 77
     1
 78
     8
 79
     2
140
3.0
147
0.75
171
     1
178
     0
179
     2
271
     2
272
     2
284
     8
340
11
341
21F
342
21F
343
21F
344
21F
  0
DIMSTYLE
105
227
330
A
100
AcDbSymbolTableRecord
100
AcDbDimStyleTableRecord
  2
DIMSTYLE_2
 70
     0
 41
2.5
 42
0.75
 44
0.75
 47
0.2
 48
0.2
 73
     0
 74
     0
 77
     1
 78
     8
 79
     2
140
3.0
147
0.75
171
     1
178
     0
179
     2
271
     2
272
     2
284
     8
340
11
341
21F
342
21F
343
21F
344
21F
  0
ENDTAB
  0
TABLE
  2
BLOCK_RECORD
  5
1
330
0
100
AcDbSymbolTable
 70
     6
  0
BLOCK_RECORD
  5
1F
330
1
100
AcDbSymbolTableRecord
100
AcDbBlockTableRecord
  2
*MODEL_SPACE
340
42C
 70
     0
280
     1
281
     0
  0
BLOCK_RECORD
  5
1B
330
1
100
AcDbSymbolTableRecord
100
AcDbBlockTableRecord
  2
*PAPER_SPACE
340
42D
 70
     0
280
     1
281
     0
  0
BLOCK_RECORD
  5
21F
330
1
100
AcDbSymbolTableRecord
100
AcDbBlockTableRecord
  2
_CLOSED
340
0
102
{BLKREFS
331
27A
331
27B
331
283
331
284
331
28D
331
28E
102
}
 70
     0
280
     1
281
     0
  0
BLOCK_RECORD
  5
220
330
1
100
AcDbSymbolTableRecord
100
AcDbBlockTableRecord
  2
*D1
340
0
 70
     0
280
     1
281
     0
  0
BLOCK_RECORD
  5
221
330
1
100
AcDbSymbolTableRecord
100
AcDbBlockTableRecord
  2
*D2
340
0
 70
     0
280
     1
281
     0
  0
BLOCK_RECORD
  5
222
330
1
100
AcDbSymbolTableRecord
100
AcDbBlockTableRecord
  2
*D3
340
0
 70
     0
280
     1
281
     0
  0
BLOCK_RECORD
  5
223
330
1
100
AcDbSymbolTableRecord
100
AcDbBlockTableRecord
  2
LOGO2_BL1
340
0
102
{BLKREFS
331
3F0
102
}
 70
     0
280
     1
281
     0
  0
BLOCK_RECORD
  5
224
330
1
100
AcDbSymbolTableRecord
100
AcDbBlockTableRecord
  2
PROIEZIONE_EU_BL0
340
0
102
{BLKREFS
331
3ED
102
}
 70
     0
280
     1
281
     0
  0
ENDTAB
  0
ENDSEC
  0
SECTION
  2
BLOCKS
  0
BLOCK
  5
20
330
1F
100
AcDbEntity
  8
0
100
AcDbBlockBegin
  2
*MODEL_SPACE
 70
     0
 10
0.0
 20
0.0
 30
0.0
  3
*MODEL_SPACE
  1

  0
ENDBLK
  5
21
330
1F
100
AcDbEntity
  8
0
100
AcDbBlockEnd
  0
BLOCK
  5
1C
330
1B
100
AcDbEntity
 67
     1
  8
0
100
AcDbBlockBegin
  2
*PAPER_SPACE
 70
     0
 10
0.0
 20
0.0
 30
0.0
  3
*PAPER_SPACE
  1

  0
ENDBLK
  5
1D
330
1B
100
AcDbEntity
 67
     1
  8
0
100
AcDbBlockEnd
  0
BLOCK
  5
26E
330
21F
100
AcDbEntity
  8
0
100
AcDbBlockBegin
  2
_CLOSED
 70
     0
 10
0.0
 20
0.0
 30
0.0
  3
_CLOSED
  1

  0
LINE
  5
26F
330
21F
100
AcDbEntity
  8
0
  6
ByBlock
 62
     0
100
AcDbLine
 10
0.0
 20
0.0
 30
0.0
 11
-1.0
 21
0.2
 31
0.0
  0
LINE
  5
270
330
21F
100
AcDbEntity
  8
0
  6
ByBlock
 62
     0
100
AcDbLine
 10
-1.0
 20
0.2
 30
0.0
 11
-1.0
 21
-0.2
 31
0.0
  0
LINE
  5
271
330
21F
100
AcDbEntity
  8
0
  6
ByBlock
 62
     0
100
AcDbLine
 10
-1.0
 20
-0.2
 30
0.0
 11
0.0
 21
0.0
 31
0.0
  0
LINE
  5
272
330
21F
100
AcDbEntity
  8
0
  6
ByBlock
 62
     0
100
AcDbLine
 10
-1.0
 20
0.0
 30
0.0
 11
0.0
 21
0.0
 31
0.0
  0
ENDBLK
  5
273
330
21F
100
AcDbEntity
  8
0
  6
ByBlock
 62
     0
100
AcDbBlockEnd
  0
BLOCK
  5
274
330
220
100
AcDbEntity
  8
0
100
AcDbBlockBegin
  2
*D1
 70
     1
 10
0.0
 20
0.0
 30
0.0
  3
*D1
  1

  0
MTEXT
  5
275
330
220
100
AcDbEntity
  8
0
  6
Continuous
 62
     2
100
AcDbMText
 10
138.9198665427
 20
58.6800138533
 30
0.0
 40
3.0
 41
10.6071428571
 46
0.0
 71
     2
 72
     1
  1
208
 73
     1
 44
1.0
  0
LINE
  5
276
330
220
100
AcDbEntity
  8
0
  6
Continuous
 62
     2
100
AcDbLine
 10
34.9198665427
 20
66.2909215468
 30
0.0
 11
34.9198665427
 21
54.1800138533
 31
0.0
  0
LINE
  5
277
330
220
100
AcDbEntity
  8
0
  6
Continuous
 62
     2
100
AcDbLine
 10
242.9198665427
 20
66.2909215468
 30
0.0
 11
242.9198665427
 21
54.1800138533
 31
0.0
  0
LINE
  5
278
330
220
100
AcDbEntity
  8
0
  6
Continuous
 62
     2
100
AcDbLine
 10
34.9198665427
 20
54.9300138533
 30
0.0
 11
138.9198665427
 21
54.9300138533
 31
0.0
  0
LINE
  5
279
330
220
100
AcDbEntity
  8
0
  6
Continuous
 62
     2
100
AcDbLine
 10
242.9198665427
 20
54.9300138533
 30
0.0
 11
138.9198665427
 21
54.9300138533
 31
0.0
  0
INSERT
  5
27A
330
220
100
AcDbEntity
  8
0
  6
Continuous
 62
     2
100
AcDbBlockReference
  2
_CLOSED
 10
34.9198665427
 20
54.9300138533
 30
0.0
 41
2.5
 42
2.5
 43
2.5
 50
180.0
  0
INSERT
  5
27B
330
220
100
AcDbEntity
  8
0
  6
Continuous
 62
     2
100
AcDbBlockReference
  2
_CLOSED
 10
242.9198665427
 20
54.9300138533
 30
0.0
 41
2.5
 42
2.5
 43
2.5
  0
ENDBLK
  5
27C
330
220
100
AcDbEntity
  8
0
  6
ByBlock
 62
     0
100
AcDbBlockEnd
  0
BLOCK
  5
27D
330
221
100
AcDbEntity
  8
0
100
AcDbBlockBegin
  2
*D2
 70
     1
 10
0.0
 20
0.0
 30
0.0
  3
*D2
  1

  0
MTEXT
  5
27E
330
221
100
AcDbEntity
  8
0
  6
Continuous
 62
     2
100
AcDbMText
 10
333.4526234253
 20
199.3310196911
 30
0.0
 40
3.0
 41
15.75
 46
0.0
 71
     2
 72
     1
  1
28,01
 73
     1
 44
1.0
  0
LINE
  5
27F
330
221
100
AcDbEntity
  8
0
  6
Continuous
 62
     2
100
AcDbLine
 10
319.4466989441
 20
202.7088868841
 30
0.0
 11
319.4466989441
 21
194.8310196911
 31
0.0
  0
LINE
  5
280
330
221
100
AcDbEntity
  8
0
  6
Continuous
 62
     2
100
AcDbLine
 10
347.4585479065
 20
202.7088868841
 30
0.0
 11
347.4585479065
 21
194.8310196911
 31
0.0
  0
LINE
  5
281
330
221
100
AcDbEntity
  8
0
  6
Continuous
 62
     2
100
AcDbLine
 10
319.4466989441
 20
195.5810196911
 30
0.0
 11
333.4526234253
 21
195.5810196911
 31
0.0
  0
LINE
  5
282
330
221
100
AcDbEntity
  8
0
  6
Continuous
 62
     2
100
AcDbLine
 10
347.4585479065
 20
195.5810196911
 30
0.0
 11
333.4526234253
 21
195.5810196911
 31
0.0
  0
INSERT
  5
283
330
221
100
AcDbEntity
  8
0
  6
Continuous
 62
     2
100
AcDbBlockReference
  2
_CLOSED
 10
319.4466989441
 20
195.5810196911
 30
0.0
 41
2.5
 42
2.5
 43
2.5
 50
180.0
  0
INSERT
  5
284
330
221
100
AcDbEntity
  8
0
  6
Continuous
 62
     2
100
AcDbBlockReference
  2
_CLOSED
 10
347.4585479065
 20
195.5810196911
 30
0.0
 41
2.5
 42
2.5
 43
2.5
  0
ENDBLK
  5
285
330
221
100
AcDbEntity
  8
0
  6
ByBlock
 62
     0
100
AcDbBlockEnd
  0
BLOCK
  5
286
330
222
100
AcDbEntity
  8
0
100
AcDbBlockBegin
  2
*D3
 70
     1
 10
0.0
 20
0.0
 30
0.0
  3
*D3
  1

  0
MTEXT
  5
287
330
222
100
AcDbEntity
  8
0
  6
Continuous
 62
     2
100
AcDbMText
 10
249.2948805663
 20
201.5678772722
 30
0.0
 40
3.0
 41
13.1785714286
 46
0.0
 71
     3
 72
     1
  1
9,87
 11
0.0
 21
1.0
 31
0.0
 73
     1
 44
1.0
  0
LINE
  5
288
330
222
100
AcDbEntity
  8
0
  6
Continuous
 62
     2
100
AcDbLine
 10
243.2788989308
 20
212.936046074
 30
0.0
 11
253.7948805663
 21
212.936046074
 31
0.0
  0
LINE
  5
289
330
222
100
AcDbEntity
  8
0
  6
Continuous
 62
     2
100
AcDbLine
 10
243.2788989308
 20
203.0679192722
 30
0.0
 11
253.7948805663
 21
203.0679192722
 31
0.0
  0
LINE
  5
28A
330
222
100
AcDbEntity
  8
0
  6
Continuous
 62
     2
100
AcDbLine
 10
253.0448805663
 20
212.936046074
 30
0.0
 11
253.0448805663
 21
208.0019826731
 31
0.0
  0
LINE
  5
28B
330
222
100
AcDbEntity
  8
0
  6
Continuous
 62
     2
100
AcDbLine
 10
253.0448805663
 20
203.0679192722
 30
0.0
 11
253.0448805663
 21
208.0019826731
 31
0.0
  0
LINE
  5
28C
330
222
100
AcDbEntity
  8
0
  6
Continuous
 62
     2
100
AcDbLine
 10
253.0448805663
 20
208.0019826731
 30
0.0
 11
253.0448805663
 21
192.7821629865
 31
0.0
  0
INSERT
  5
28D
330
222
100
AcDbEntity
  8
0
  6
Continuous
 62
     2
100
AcDbBlockReference
  2
_CLOSED
 10
253.0448805663
 20
212.936046074
 30
0.0
 41
2.5
 42
2.5
 43
2.5
 50
90.0
  0
INSERT
  5
28E
330
222
100
AcDbEntity
  8
0
  6
Continuous
 62
     2
100
AcDbBlockReference
  2
_CLOSED
 10
253.0448805663
 20
203.0679192722
 30
0.0
 41
2.5
 42
2.5
 43
2.5
 50
270.0
  0
ENDBLK
  5
28F
330
222
100
AcDbEntity
  8
0
  6
ByBlock
 62
     0
100
AcDbBlockEnd
  0
BLOCK
  5
228
330
223
100
AcDbEntity
  8
0
100
AcDbBlockBegin
  2
LOGO2_BL1
 70
     0
 10
293.0648219857
 20
42.5954425707
 30
0.0
  3
LOGO2_BL1
  1

  0
LINE
  5
229
330
223
100
AcDbEntity
  8
0
  6
Continuous
 62
     7
100
AcDbLine
 10
284.8077472139
 20
45.7909339096
 30
0.0
 11
283.5034062845
 21
45.7909339096
 31
0.0
  0
LINE
  5
22A
330
223
100
AcDbEntity
  8
0
  6
Continuous
 62
     7
100
AcDbLine
 10
283.5034062845
 20
45.7909339096
 30
0.0
 11
283.5034062845
 21
35.3318678497
 31
0.0
  0
LINE
  5
22B
330
223
100
AcDbEntity
  8
0
  6
Continuous
 62
     7
100
AcDbLine
 10
283.5034062845
 20
35.3318678497
 30
0.0
 11
287.9844611728
 21
35.3318678497
 31
0.0
  0
LINE
  5
22C
330
223
100
AcDbEntity
  8
0
  6
Continuous
 62
     7
100
AcDbLine
 10
287.9844611728
 20
35.3318678497
 30
0.0
 11
287.9844611728
 21
36.5247221748
 31
0.0
  0
LINE
  5
22D
330
223
100
AcDbEntity
  8
0
  6
Continuous
 62
     7
100
AcDbLine
 10
287.9844611728
 20
36.5247221748
 30
0.0
 11
284.8077472139
 21
36.5247221748
 31
0.0
  0
LINE
  5
22E
330
223
100
AcDbEntity
  8
0
  6
Continuous
 62
     7
100
AcDbLine
 10
284.8077472139
 20
36.5247221748
 30
0.0
 11
284.8077472139
 21
45.7909339096
 31
0.0
  0
LINE
  5
22F
330
223
100
AcDbEntity
  8
0
  6
Continuous
 62
     7
100
AcDbLine
 10
299.7440734302
 20
45.7909339096
 30
0.0
 11
298.4402559121
 21
45.7909339096
 31
0.0
  0
LINE
  5
230
330
223
100
AcDbEntity
  8
0
  6
Continuous
 62
     7
100
AcDbLine
 10
298.4402559121
 20
45.7909339096
 30
0.0
 11
298.4402559121
 21
35.3318678497
 31
0.0
  0
LINE
  5
231
330
223
100
AcDbEntity
  8
0
  6
Continuous
 62
     7
100
AcDbLine
 10
298.4402559121
 20
35.3318678497
 30
0.0
 11
302.9214416532
 21
35.3318678497
 31
0.0
  0
LINE
  5
232
330
223
100
AcDbEntity
  8
0
  6
Continuous
 62
     7
100
AcDbLine
 10
302.9214416532
 20
35.3318678497
 30
0.0
 11
302.9214416532
 21
36.5247221748
 31
0.0
  0
LINE
  5
233
330
223
100
AcDbEntity
  8
0
  6
Continuous
 62
     7
100
AcDbLine
 10
302.9214416532
 20
36.5247221748
 30
0.0
 11
299.7440734302
 21
36.5247221748
 31
0.0
  0
LINE
  5
234
330
223
100
AcDbEntity
  8
0
  6
Continuous
 62
     7
100
AcDbLine
 10
299.7440734302
 20
36.5247221748
 30
0.0
 11
299.7440734302
 21
45.7909339096
 31
0.0
  0
LWPOLYLINE
  5
235
330
223
100
AcDbEntity
  8
0
  6
Continuous
 62
     7
100
AcDbPolyline
 90
        2
 70
     0
 43
0.2
 10
281.8578011955
 20
31.9883165428
 10
281.8578011955
 20
30.1312532935
  0
LWPOLYLINE
  5
236
330
223
100
AcDbEntity
  8
0
  6
Continuous
 62
     7
100
AcDbPolyline
 90
        2
 70
     0
 43
0.2
 10
281.8578011955
 20
30.1312532935
 10
282.6535172058
 20
30.1312532935
  0
LWPOLYLINE
  5
237
330
223
100
AcDbEntity
  8
0
  6
Continuous
 62
     7
100
AcDbPolyline
 90
        2
 70
     0
 43
0.2
 10
282.6535172058
 20
30.1312532935
 10
282.6535172058
 20
30.343234865
  0
LWPOLYLINE
  5
238
330
223
100
AcDbEntity
  8
0
  6
Continuous
 62
     7
100
AcDbPolyline
 90
        2
 70
     0
 43
0.2
 10
282.6535172058
 20
30.343234865
 10
282.0894106903
 20
30.343234865
  0
LWPOLYLINE
  5
239
330
223
100
AcDbEntity
  8
0
  6
Continuous
 62
     7
100
AcDbPolyline
 90
        2
 70
     0
 43
0.2
 10
282.0894106903
 20
30.343234865
 10
282.0894106903
 20
31.9883165428
  0
LWPOLYLINE
  5
23A
330
223
100
AcDbEntity
  8
0
  6
Continuous
 62
     7
100
AcDbPolyline
 90
        2
 70
     0
 43
0.2
 10
282.0894106903
 20
31.9883165428
 10
281.8578011955
 20
31.9883165428
  0
SPLINE
  5
23B
330
223
100
AcDbEntity
  8
0
  6
Continuous
 62
     7
100
AcDbSpline
 70
     3
 71
     3
 72
    35
 73
    31
 74
     0
 42
0.000000001
 43
0.0000001
 40
0.0
 40
0.0
 40
0.0
 40
0.0
 40
1.0
 40
1.0
 40
1.0
 40
2.0
 40
2.0
 40
2.0
 40
3.0
 40
3.0
 40
3.0
 40
4.0
 40
4.0
 40
4.0
 40
5.0
 40
5.0
 40
5.0
 40
6.0
 40
6.0
 40
6.0
 40
7.0
 40
7.0
 40
7.0
 40
8.0
 40
8.0
 40
8.0
 40
9.0
 40
9.0
 40
9.0
 40
10.0
 40
10.0
 40
10.0
 40
10.0
 10
284.0518104614
 20
31.2838049493
 30
0.0
 10
284.0518104614
 20
31.2838049493
 30
0.0
 10
284.0518104614
 20
30.6216896702
 30
0.0
 10
284.0518104614
 20
30.6216896702
 30
0.0
 10
284.0518104614
 20
30.3065960749
 30
0.0
 10
284.1996741502
 20
30.0919974469
 30
0.0
 10
284.5397606345
 20
30.0919974469
 30
0.0
 10
284.8793237075
 20
30.0919974469
 30
0.0
 10
285.027449102
 20
30.3065960749
 30
0.0
 10
285.027449102
 20
30.6216896702
 30
0.0
 10
285.027449102
 20
30.6216896702
 30
0.0
 10
285.027449102
 20
31.2838049493
 30
0.0
 10
285.027449102
 20
31.2838049493
 30
0.0
 10
285.027449102
 20
31.2838049493
 30
0.0
 10
284.8053918631
 20
31.2838049493
 30
0.0
 10
284.8053918631
 20
31.2838049493
 30
0.0
 10
284.8053918631
 20
31.2838049493
 30
0.0
 10
284.8053918631
 20
30.646813412
 30
0.0
 10
284.8053918631
 20
30.646813412
 30
0.0
 10
284.8053918631
 20
30.4610024048
 30
0.0
 10
284.7586774057
 20
30.2982214943
 30
0.0
 10
284.5397606345
 20
30.2982214943
 30
0.0
 10
284.3203204521
 20
30.2982214943
 30
0.0
 10
284.2736059946
 20
30.4610024048
 30
0.0
 10
284.2736059946
 20
30.646813412
 30
0.0
 10
284.2736059946
 20
30.646813412
 30
0.0
 10
284.2736059946
 20
31.2838049493
 30
0.0
 10
284.2736059946
 20
31.2838049493
 30
0.0
 10
284.2736059946
 20
31.2838049493
 30
0.0
 10
284.0518104614
 20
31.2838049493
 30
0.0
 10
284.0518104614
 20
31.2838049493
 30
0.0
  0
SPLINE
  5
23C
330
223
100
AcDbEntity
  8
0
  6
Continuous
 62
     7
100
AcDbSpline
 70
     3
 71
     3
 72
    35
 73
    31
 74
     0
 42
0.000000001
 43
0.0000001
 40
0.0
 40
0.0
 40
0.0
 40
0.0
 40
1.0
 40
1.0
 40
1.0
 40
2.0
 40
2.0
 40
2.0
 40
3.0
 40
3.0
 40
3.0
 40
4.0
 40
4.0
 40
4.0
 40
5.0
 40
5.0
 40
5.0
 40
6.0
 40
6.0
 40
6.0
 40
7.0
 40
7.0
 40
7.0
 40
8.0
 40
8.0
 40
8.0
 40
9.0
 40
9.0
 40
9.0
 40
10.0
 40
10.0
 40
10.0
 40
10.0
 10
287.4505816592
 20
31.2424554576
 30
0.0
 10
287.3621251515
 20
31.2937497638
 30
0.0
 10
287.2486757549
 20
31.3188735056
 30
0.0
 10
287.1450403199
 20
31.3188735056
 30
0.0
 10
286.7901674667
 20
31.3188735056
 30
0.0
 10
286.5147222765
 20
31.0550742165
 30
0.0
 10
286.5147222765
 20
30.6975843069
 30
0.0
 10
286.5147222765
 20
30.3526562682
 30
0.0
 10
286.7931770816
 20
30.0925208582
 30
0.0
 10
287.1327401546
 20
30.0925208582
 30
0.0
 10
287.2486757549
 20
30.0925208582
 30
0.0
 10
287.3494324278
 20
30.1145041322
 30
0.0
 10
287.4505816592
 20
30.1684154949
 30
0.0
 10
287.4505816592
 20
30.1684154949
 30
0.0
 10
287.4505816592
 20
30.4510575903
 30
0.0
 10
287.4505816592
 20
30.4510575903
 30
0.0
 10
287.3667050003
 20
30.3578903811
 30
0.0
 10
287.2632004181
 20
30.2987449056
 30
0.0
 10
287.1350955054
 20
30.2987449056
 30
0.0
 10
286.9013923654
 20
30.2987449056
 30
0.0
 10
286.7361252512
 20
30.4709472193
 30
0.0
 10
286.7361252512
 20
30.7075291214
 30
0.0
 10
286.7361252512
 20
30.919510693
 30
0.0
 10
286.903878569
 20
31.1116026356
 30
0.0
 10
287.120701695
 20
31.1116026356
 30
0.0
 10
287.2535173093
 20
31.1116026356
 30
0.0
 10
287.3621251515
 20
31.057691273
 30
0.0
 10
287.4505816592
 20
30.9566728944
 30
0.0
 10
287.4505816592
 20
30.9566728944
 30
0.0
 10
287.4505816592
 20
31.2424554576
 30
0.0
 10
287.4505816592
 20
31.2424554576
 30
0.0
  0
SPLINE
  5
23D
330
223
100
AcDbEntity
  8
0
  6
Continuous
 62
     7
100
AcDbSpline
 70
     3
 71
     3
 72
    32
 73
    28
 74
     0
 42
0.000000001
 43
0.0000001
 40
0.0
 40
0.0
 40
0.0
 40
0.0
 40
1.0
 40
1.0
 40
1.0
 40
2.0
 40
2.0
 40
2.0
 40
3.0
 40
3.0
 40
3.0
 40
4.0
 40
4.0
 40
4.0
 40
5.0
 40
5.0
 40
5.0
 40
6.0
 40
6.0
 40
6.0
 40
7.0
 40
7.0
 40
7.0
 40
8.0
 40
8.0
 40
8.0
 40
9.0
 40
9.0
 40
9.0
 40
9.0
 10
289.9824529114
 20
30.6708903312
 30
0.0
 10
289.9824529114
 20
30.6708903312
 30
0.0
 10
289.9824529114
 20
30.704912065
 30
0.0
 10
289.9824529114
 20
30.704912065
 30
0.0
 10
289.9824529114
 20
31.0472230472
 30
0.0
 10
289.8095963336
 20
31.3188735056
 30
0.0
 10
289.4429467264
 20
31.3188735056
 30
0.0
 10
289.0713247121
 20
31.3188735056
 30
0.0
 10
288.8815881202
 20
31.0524571601
 30
0.0
 10
288.8815881202
 20
30.6975843069
 30
0.0
 10
288.8815881202
 20
30.3578903811
 30
0.0
 10
289.0956633369
 20
30.0919974469
 30
0.0
 10
289.4477882809
 20
30.0919974469
 30
0.0
 10
289.6718083121
 20
30.0919974469
 30
0.0
 10
289.873975922
 20
30.2076713415
 30
0.0
 10
289.9824529114
 20
30.4070910422
 30
0.0
 10
289.9824529114
 20
30.4070910422
 30
0.0
 10
289.7948099647
 20
30.5138669449
 30
0.0
 10
289.7948099647
 20
30.5138669449
 30
0.0
 10
289.7113258643
 20
30.3751629536
 30
0.0
 10
289.6201214474
 20
30.2893235024
 30
0.0
 10
289.4505361901
 20
30.2893235024
 30
0.0
 10
289.2385546185
 20
30.2893235024
 30
0.0
 10
289.1056081514
 20
30.474087687
 30
0.0
 10
289.1032528006
 20
30.6708903312
 30
0.0
 10
289.1032528006
 20
30.6708903312
 30
0.0
 10
289.9824529114
 20
30.6708903312
 30
0.0
 10
289.9824529114
 20
30.6708903312
 30
0.0
  0
SPLINE
  5
23E
330
223
100
AcDbEntity
  8
0
  6
Continuous
 62
     7
100
AcDbSpline
 70
     3
 71
     3
 72
    14
 73
    10
 74
     0
 42
0.000000001
 43
0.0000001
 40
0.0
 40
0.0
 40
0.0
 40
0.0
 40
1.0
 40
1.0
 40
1.0
 40
2.0
 40
2.0
 40
2.0
 40
3.0
 40
3.0
 40
3.0
 40
3.0
 10
289.1152912602
 20
30.8383819434
 30
0.0
 10
289.1429012057
 20
31.003256499
 30
0.0
 10
289.2707444127
 20
31.1262581517
 30
0.0
 10
289.4429467264
 20
31.1262581517
 30
0.0
 10
289.6201214474
 20
31.1262581517
 30
0.0
 10
289.733570844
 20
31.0105842571
 30
0.0
 10
289.760788231
 20
30.8383819434
 30
0.0
 10
289.760788231
 20
30.8383819434
 30
0.0
 10
289.1152912602
 20
30.8383819434
 30
0.0
 10
289.1152912602
 20
30.8383819434
 30
0.0
  0
SPLINE
  5
23F
330
223
100
AcDbEntity
  8
0
  6
Continuous
 62
     7
100
AcDbSpline
 70
     3
 71
     3
 72
    20
 73
    16
 74
     0
 42
0.000000001
 43
0.0000001
 40
0.0
 40
0.0
 40
0.0
 40
0.0
 40
1.0
 40
1.0
 40
1.0
 40
2.0
 40
2.0
 40
2.0
 40
3.0
 40
3.0
 40
3.0
 40
4.0
 40
4.0
 40
4.0
 40
5.0
 40
5.0
 40
5.0
 40
5.0
 10
292.0064843616
 20
31.0477464585
 30
0.0
 10
292.0064843616
 20
31.0477464585
 30
0.0
 10
292.4176239282
 20
30.5452716222
 30
0.0
 10
292.4176239282
 20
30.5452716222
 30
0.0
 10
292.3015574751
 20
30.4295977275
 30
0.0
 10
292.1637694536
 20
30.2992683169
 30
0.0
 10
291.9918288455
 20
30.2992683169
 30
0.0
 10
291.814392419
 20
30.2992683169
 30
0.0
 10
291.6469008068
 20
30.4636194613
 30
0.0
 10
291.6469008068
 20
30.6405324766
 30
0.0
 10
291.6469008068
 20
30.8184923144
 30
0.0
 10
291.8566578805
 20
30.9446344348
 30
0.0
 10
291.9842393819
 20
31.0325675312
 30
0.0
 10
291.9842393819
 20
31.0325675312
 30
0.0
 10
292.0064843616
 20
31.0477464585
 30
0.0
 10
292.0064843616
 20
31.0477464585
 30
0.0
  0
SPLINE
  5
240
330
223
100
AcDbEntity
  8
0
  6
Continuous
 62
     7
100
AcDbSpline
 70
     3
 71
     3
 72
    23
 73
    19
 74
     0
 42
0.000000001
 43
0.0000001
 40
0.0
 40
0.0
 40
0.0
 40
0.0
 40
1.0
 40
1.0
 40
1.0
 40
2.0
 40
2.0
 40
2.0
 40
3.0
 40
3.0
 40
3.0
 40
4.0
 40
4.0
 40
4.0
 40
5.0
 40
5.0
 40
5.0
 40
6.0
 40
6.0
 40
6.0
 40
6.0
 10
292.0558158755
 20
31.3387631346
 30
0.0
 10
292.0558158755
 20
31.3387631346
 30
0.0
 10
291.9941841963
 20
31.4172748278
 30
0.0
 10
291.9941841963
 20
31.4172748278
 30
0.0
 10
291.9402728337
 20
31.4858417065
 30
0.0
 10
291.883482709
 20
31.5549319965
 30
0.0
 10
291.883482709
 20
31.648622617
 30
0.0
 10
291.883482709
 20
31.7674369793
 30
0.0
 10
291.9793978275
 20
31.8449018499
 30
0.0
 10
292.0903610205
 20
31.8449018499
 30
0.0
 10
292.2136243788
 20
31.8449018499
 30
0.0
 10
292.3069224408
 20
31.7737179148
 30
0.0
 10
292.3069224408
 20
31.6433885041
 30
0.0
 10
292.3069224408
 20
31.5083483918
 30
0.0
 10
292.1788175281
 20
31.4319303438
 30
0.0
 10
292.0852577604
 20
31.3581293522
 30
0.0
 10
292.0852577604
 20
31.3581293522
 30
0.0
 10
292.0558158755
 20
31.3387631346
 30
0.0
 10
292.0558158755
 20
31.3387631346
 30
0.0
  0
SPLINE
  5
241
330
223
100
AcDbEntity
  8
0
  6
Continuous
 62
     7
100
AcDbSpline
 70
     3
 71
     3
 72
    50
 73
    46
 74
     0
 42
0.000000001
 43
0.0000001
 40
0.0
 40
0.0
 40
0.0
 40
0.0
 40
1.0
 40
1.0
 40
1.0
 40
2.0
 40
2.0
 40
2.0
 40
3.0
 40
3.0
 40
3.0
 40
4.0
 40
4.0
 40
4.0
 40
5.0
 40
5.0
 40
5.0
 40
6.0
 40
6.0
 40
6.0
 40
7.0
 40
7.0
 40
7.0
 40
8.0
 40
8.0
 40
8.0
 40
9.0
 40
9.0
 40
9.0
 40
10.0
 40
10.0
 40
10.0
 40
11.0
 40
11.0
 40
11.0
 40
12.0
 40
12.0
 40
12.0
 40
13.0
 40
13.0
 40
13.0
 40
14.0
 40
14.0
 40
14.0
 40
15.0
 40
15.0
 40
15.0
 40
15.0
 10
292.7579721182
 20
30.1317767047
 30
0.0
 10
292.7579721182
 20
30.1317767047
 30
0.0
 10
293.0433621229
 20
30.1317767047
 30
0.0
 10
293.0433621229
 20
30.1317767047
 30
0.0
 10
293.0433621229
 20
30.1317767047
 30
0.0
 10
292.7109959551
 20
30.5426545657
 30
0.0
 10
292.7109959551
 20
30.5426545657
 30
0.0
 10
292.7109959551
 20
30.5426545657
 30
0.0
 10
292.9375021899
 20
30.8085475
 30
0.0
 10
292.9375021899
 20
30.8085475
 30
0.0
 10
292.9375021899
 20
30.8085475
 30
0.0
 10
292.7892459426
 20
30.961383596
 30
0.0
 10
292.7892459426
 20
30.961383596
 30
0.0
 10
292.7892459426
 20
30.961383596
 30
0.0
 10
292.5733387864
 20
30.7101461778
 30
0.0
 10
292.5733387864
 20
30.7101461778
 30
0.0
 10
292.5733387864
 20
30.7101461778
 30
0.0
 10
292.186276139
 20
31.1780758692
 30
0.0
 10
292.186276139
 20
31.1780758692
 30
0.0
 10
292.3417292915
 20
31.29217953
 30
0.0
 10
292.5240072725
 20
31.4319303438
 30
0.0
 10
292.5240072725
 20
31.641294859
 30
0.0
 10
292.5240072725
 20
31.8852045191
 30
0.0
 10
292.3219705154
 20
32.028619212
 30
0.0
 10
292.0954642805
 20
32.028619212
 30
0.0
 10
291.8512929148
 20
32.028619212
 30
0.0
 10
291.6669212886
 20
31.8778767611
 30
0.0
 10
291.6669212886
 20
31.62140523
 30
0.0
 10
291.6669212886
 20
31.4638584324
 30
0.0
 10
291.7655843164
 20
31.3262012637
 30
0.0
 10
291.8709208381
 20
31.2152380706
 30
0.0
 10
291.8709208381
 20
31.2152380706
 30
0.0
 10
291.7553777963
 20
31.1314922646
 30
0.0
 10
291.7553777963
 20
31.1314922646
 30
0.0
 10
291.577679664
 20
31.003256499
 30
0.0
 10
291.4303393865
 20
30.8755441448
 30
0.0
 10
291.4303393865
 20
30.6384388314
 30
0.0
 10
291.4303393865
 20
30.3181111232
 30
0.0
 10
291.6889045627
 20
30.0919974469
 30
0.0
 10
291.9992874564
 20
30.0919974469
 30
0.0
 10
292.2182042276
 20
30.0919974469
 30
0.0
 10
292.4153994303
 20
30.2170927447
 30
0.0
 10
292.5556736554
 20
30.3830141229
 30
0.0
 10
292.5556736554
 20
30.3830141229
 30
0.0
 10
292.7579721182
 20
30.1317767047
 30
0.0
 10
292.7579721182
 20
30.1317767047
 30
0.0
  0
LWPOLYLINE
  5
242
330
223
100
AcDbEntity
  8
0
  6
Continuous
 62
     7
100
AcDbPolyline
 90
        2
 70
     0
 43
0.2
 10
294.6934162079
 20
31.9883165428
 10
294.4620684187
 20
31.9883165428
  0
LWPOLYLINE
  5
243
330
223
100
AcDbEntity
  8
0
  6
Continuous
 62
     7
100
AcDbPolyline
 90
        2
 70
     0
 43
0.2
 10
294.4620684187
 20
31.9883165428
 10
294.4620684187
 20
30.1312532935
  0
LWPOLYLINE
  5
244
330
223
100
AcDbEntity
  8
0
  6
Continuous
 62
     7
100
AcDbPolyline
 90
        2
 70
     0
 43
0.2
 10
294.4620684187
 20
30.1312532935
 10
295.2573918706
 20
30.1312532935
  0
LWPOLYLINE
  5
245
330
223
100
AcDbEntity
  8
0
  6
Continuous
 62
     7
100
AcDbPolyline
 90
        2
 70
     0
 43
0.2
 10
295.2573918706
 20
30.1312532935
 10
295.2573918706
 20
30.343234865
  0
LWPOLYLINE
  5
246
330
223
100
AcDbEntity
  8
0
  6
Continuous
 62
     7
100
AcDbPolyline
 90
        2
 70
     0
 43
0.2
 10
295.2573918706
 20
30.343234865
 10
294.6934162079
 20
30.343234865
  0
LWPOLYLINE
  5
247
330
223
100
AcDbEntity
  8
0
  6
Continuous
 62
     7
100
AcDbPolyline
 90
        2
 70
     0
 43
0.2
 10
294.6934162079
 20
30.343234865
 10
294.6934162079
 20
31.9883165428
  0
LWPOLYLINE
  5
248
330
223
100
AcDbEntity
  8
0
  6
Continuous
 62
     7
100
AcDbPolyline
 90
        2
 70
     0
 43
0.2
 10
296.9364952821
 20
31.2838049493
 10
296.7153540129
 20
31.2838049493
  0
LWPOLYLINE
  5
249
330
223
100
AcDbEntity
  8
0
  6
Continuous
 62
     7
100
AcDbPolyline
 90
        2
 70
     0
 43
0.2
 10
296.7153540129
 20
31.2838049493
 10
296.7153540129
 20
30.1317767047
  0
LWPOLYLINE
  5
24A
330
223
100
AcDbEntity
  8
0
  6
Continuous
 62
     7
100
AcDbPolyline
 90
        2
 70
     0
 43
0.2
 10
296.7153540129
 20
30.1317767047
 10
296.9364952821
 20
30.1317767047
  0
LWPOLYLINE
  5
24B
330
223
100
AcDbEntity
  8
0
  6
Continuous
 62
     7
100
AcDbPolyline
 90
        2
 70
     0
 43
0.2
 10
296.9364952821
 20
30.1317767047
 10
296.9364952821
 20
31.2838049493
  0
LWPOLYLINE
  5
24C
330
223
100
AcDbEntity
  8
0
  6
Continuous
 62
     7
100
AcDbPolyline
 90
        2
 70
     1
 43
0.2
 10
296.6734720049
 20
31.8137588783
 42
1.0
 10
296.9786389958
 20
31.8137588783
 42
1.0
  0
SPLINE
  5
24D
330
223
100
AcDbEntity
  8
0
  6
Continuous
 62
     7
100
AcDbSpline
 70
     3
 71
     3
 72
    17
 73
    13
 74
     0
 42
0.000000001
 43
0.0000001
 40
0.0
 40
0.0
 40
0.0
 40
0.0
 40
1.0
 40
1.0
 40
1.0
 40
2.0
 40
2.0
 40
2.0
 40
3.0
 40
3.0
 40
3.0
 40
4.0
 40
4.0
 40
4.0
 40
4.0
 10
299.0667792237
 20
30.2893235024
 30
0.0
 10
298.832814378
 20
30.2893235024
 30
0.0
 10
298.7024849673
 20
30.4913602595
 30
0.0
 10
298.7024849673
 20
30.7075291214
 30
0.0
 10
298.7024849673
 20
30.9221277494
 30
0.0
 10
298.8383101965
 20
31.1210240388
 30
0.0
 10
299.0667792237
 20
31.1210240388
 30
0.0
 10
299.3062398879
 20
31.1210240388
 30
0.0
 10
299.4418034114
 20
30.9320725639
 30
0.0
 10
299.4418034114
 20
30.7075291214
 30
0.0
 10
299.4418034114
 20
30.481415445
 30
0.0
 10
299.3085952387
 20
30.2893235024
 30
0.0
 10
299.0667792237
 20
30.2893235024
 30
0.0
  0
SPLINE
  5
24E
330
223
100
AcDbEntity
  8
0
  6
Continuous
 62
     7
100
AcDbSpline
 70
     3
 71
     3
 72
    50
 73
    46
 74
     0
 42
0.000000001
 43
0.0000001
 40
0.0
 40
0.0
 40
0.0
 40
0.0
 40
1.0
 40
1.0
 40
1.0
 40
2.0
 40
2.0
 40
2.0
 40
3.0
 40
3.0
 40
3.0
 40
4.0
 40
4.0
 40
4.0
 40
5.0
 40
5.0
 40
5.0
 40
6.0
 40
6.0
 40
6.0
 40
7.0
 40
7.0
 40
7.0
 40
8.0
 40
8.0
 40
8.0
 40
9.0
 40
9.0
 40
9.0
 40
10.0
 40
10.0
 40
10.0
 40
11.0
 40
11.0
 40
11.0
 40
12.0
 40
12.0
 40
12.0
 40
13.0
 40
13.0
 40
13.0
 40
14.0
 40
14.0
 40
14.0
 40
15.0
 40
15.0
 40
15.0
 40
15.0
 10
299.650906221
 20
31.2843283606
 30
0.0
 10
299.650906221
 20
31.2843283606
 30
0.0
 10
299.4292415405
 20
31.2843283606
 30
0.0
 10
299.4292415405
 20
31.2843283606
 30
0.0
 10
299.4292415405
 20
31.2843283606
 30
0.0
 10
299.4292415405
 20
31.0870023051
 30
0.0
 10
299.4292415405
 20
31.0870023051
 30
0.0
 10
299.4292415405
 20
31.0870023051
 30
0.0
 10
299.4245308389
 20
31.0870023051
 30
0.0
 10
299.4245308389
 20
31.0870023051
 30
0.0
 10
299.3331955692
 20
31.2298935867
 30
0.0
 10
299.1952766949
 20
31.3183500943
 30
0.0
 10
299.0225509699
 20
31.3183500943
 30
0.0
 10
298.6901848021
 20
31.3183500943
 30
0.0
 10
298.4810819926
 20
31.030473886
 30
0.0
 10
298.4810819926
 20
30.7148568794
 30
0.0
 10
298.4810819926
 20
30.3851077681
 30
0.0
 10
298.6781463424
 20
30.0919974469
 30
0.0
 10
299.0330191956
 20
30.0919974469
 30
0.0
 10
299.1952766949
 20
30.0919974469
 30
0.0
 10
299.3352892144
 20
30.1804539545
 30
0.0
 10
299.4245308389
 20
30.3113067765
 30
0.0
 10
299.4245308389
 20
30.3113067765
 30
0.0
 10
299.4292415405
 20
30.3113067765
 30
0.0
 10
299.4292415405
 20
30.3113067765
 30
0.0
 10
299.4292415405
 20
30.3113067765
 30
0.0
 10
299.4292415405
 20
30.0919974469
 30
0.0
 10
299.4292415405
 20
30.0919974469
 30
0.0
 10
299.4292415405
 20
29.8554155447
 30
0.0
 10
299.3727131214
 20
29.668557715
 30
0.0
 10
299.0994924292
 20
29.668557715
 30
0.0
 10
298.8971939664
 20
29.668557715
 30
0.0
 10
298.7545643905
 20
29.786848666
 30
0.0
 10
298.7545643905
 20
29.9930727135
 30
0.0
 10
298.7545643905
 20
29.9930727135
 30
0.0
 10
298.5328997101
 20
29.9930727135
 30
0.0
 10
298.5328997101
 20
29.9930727135
 30
0.0
 10
298.5378721173
 20
29.668557715
 30
0.0
 10
298.7689582009
 20
29.4717550707
 30
0.0
 10
299.0892859091
 20
29.4717550707
 30
0.0
 10
299.5373259715
 20
29.4717550707
 30
0.0
 10
299.650906221
 20
29.7570142226
 30
0.0
 10
299.650906221
 20
30.1537599788
 30
0.0
 10
299.650906221
 20
30.1537599788
 30
0.0
 10
299.650906221
 20
31.2843283606
 30
0.0
 10
299.650906221
 20
31.2843283606
 30
0.0
  0
SPLINE
  5
24F
330
223
100
AcDbEntity
  8
0
  6
Continuous
 62
     7
100
AcDbSpline
 70
     3
 71
     3
 72
    44
 73
    40
 74
     0
 42
0.000000001
 43
0.0000001
 40
0.0
 40
0.0
 40
0.0
 40
0.0
 40
1.0
 40
1.0
 40
1.0
 40
2.0
 40
2.0
 40
2.0
 40
3.0
 40
3.0
 40
3.0
 40
4.0
 40
4.0
 40
4.0
 40
5.0
 40
5.0
 40
5.0
 40
6.0
 40
6.0
 40
6.0
 40
7.0
 40
7.0
 40
7.0
 40
8.0
 40
8.0
 40
8.0
 40
9.0
 40
9.0
 40
9.0
 40
10.0
 40
10.0
 40
10.0
 40
11.0
 40
11.0
 40
11.0
 40
12.0
 40
12.0
 40
12.0
 40
13.0
 40
13.0
 40
13.0
 40
13.0
 10
301.2198315563
 20
32.2693884044
 30
0.0
 10
301.2198315563
 20
32.2693884044
 30
0.0
 10
301.2198315563
 20
30.1312532935
 30
0.0
 10
301.2198315563
 20
30.1312532935
 30
0.0
 10
301.2198315563
 20
30.1312532935
 30
0.0
 10
301.4412345311
 20
30.1312532935
 30
0.0
 10
301.4412345311
 20
30.1312532935
 30
0.0
 10
301.4412345311
 20
30.1312532935
 30
0.0
 10
301.4412345311
 20
30.6609455168
 30
0.0
 10
301.4412345311
 20
30.6609455168
 30
0.0
 10
301.4412345311
 20
30.8708334432
 30
0.0
 10
301.4412345311
 20
31.1215474501
 30
0.0
 10
301.726493683
 20
31.1215474501
 30
0.0
 10
301.9533924763
 20
31.1215474501
 30
0.0
 10
301.9803481576
 20
30.988600983
 30
0.0
 10
301.9803481576
 20
30.79232175
 30
0.0
 10
301.9803481576
 20
30.79232175
 30
0.0
 10
301.9803481576
 20
30.1312532935
 30
0.0
 10
301.9803481576
 20
30.1312532935
 30
0.0
 10
301.9803481576
 20
30.1312532935
 30
0.0
 10
302.2022745437
 20
30.1312532935
 30
0.0
 10
302.2022745437
 20
30.1312532935
 30
0.0
 10
302.2022745437
 20
30.1312532935
 30
0.0
 10
302.2022745437
 20
30.8184923144
 30
0.0
 10
302.2022745437
 20
30.8184923144
 30
0.0
 10
302.2022745437
 20
31.0990407647
 30
0.0
 10
302.118267032
 20
31.3188735056
 30
0.0
 10
301.7932286222
 20
31.3188735056
 30
0.0
 10
301.6534778083
 20
31.3188735056
 30
0.0
 10
301.5152972283
 20
31.2524002721
 30
0.0
 10
301.4459452327
 20
31.1293986194
 30
0.0
 10
301.4459452327
 20
31.1293986194
 30
0.0
 10
301.4412345311
 20
31.1293986194
 30
0.0
 10
301.4412345311
 20
31.1293986194
 30
0.0
 10
301.4412345311
 20
31.1293986194
 30
0.0
 10
301.4412345311
 20
32.2693884044
 30
0.0
 10
301.4412345311
 20
32.2693884044
 30
0.0
 10
301.4412345311
 20
32.2693884044
 30
0.0
 10
301.2198315563
 20
32.2693884044
 30
0.0
 10
301.2198315563
 20
32.2693884044
 30
0.0
  0
LWPOLYLINE
  5
250
330
223
100
AcDbEntity
  8
0
  6
Continuous
 62
     7
100
AcDbPolyline
 90
        2
 70
     0
 43
0.2
 10
304.0420652205
 20
31.0770574906
 10
304.2584957881
 20
31.0770574906
  0
LWPOLYLINE
  5
251
330
223
100
AcDbEntity
  8
0
  6
Continuous
 62
     7
100
AcDbPolyline
 90
        2
 70
     0
 43
0.2
 10
304.2584957881
 20
31.0770574906
 10
304.2584957881
 20
31.2838049493
  0
LWPOLYLINE
  5
252
330
223
100
AcDbEntity
  8
0
  6
Continuous
 62
     7
100
AcDbPolyline
 90
        2
 70
     0
 43
0.2
 10
304.2584957881
 20
31.2838049493
 10
304.0420652205
 20
31.2838049493
  0
LWPOLYLINE
  5
253
330
223
100
AcDbEntity
  8
0
  6
Continuous
 62
     7
100
AcDbPolyline
 90
        2
 70
     0
 43
0.2
 10
304.0420652205
 20
31.2838049493
 10
304.0420652205
 20
31.7245172537
  0
LWPOLYLINE
  5
254
330
223
100
AcDbEntity
  8
0
  6
Continuous
 62
     7
100
AcDbPolyline
 90
        2
 70
     0
 43
0.2
 10
304.0420652205
 20
31.7245172537
 10
303.8204005401
 20
31.7245172537
  0
LWPOLYLINE
  5
255
330
223
100
AcDbEntity
  8
0
  6
Continuous
 62
     7
100
AcDbPolyline
 90
        2
 70
     0
 43
0.2
 10
303.8204005401
 20
31.7245172537
 10
303.8204005401
 20
31.2838049493
  0
LWPOLYLINE
  5
256
330
223
100
AcDbEntity
  8
0
  6
Continuous
 62
     7
100
AcDbPolyline
 90
        2
 70
     0
 43
0.2
 10
303.8204005401
 20
31.2838049493
 10
303.6997542383
 20
31.2838049493
  0
LWPOLYLINE
  5
257
330
223
100
AcDbEntity
  8
0
  6
Continuous
 62
     7
100
AcDbPolyline
 90
        2
 70
     0
 43
0.2
 10
303.6997542383
 20
31.2838049493
 10
303.6997542383
 20
31.0770574906
  0
LWPOLYLINE
  5
258
330
223
100
AcDbEntity
  8
0
  6
Continuous
 62
     7
100
AcDbPolyline
 90
        2
 70
     0
 43
0.2
 10
303.6997542383
 20
31.0770574906
 10
303.8204005401
 20
31.0770574906
  0
LWPOLYLINE
  5
259
330
223
100
AcDbEntity
  8
0
  6
Continuous
 62
     7
100
AcDbPolyline
 90
        2
 70
     0
 43
0.2
 10
303.8204005401
 20
31.0770574906
 10
303.8204005401
 20
30.1312532935
  0
LWPOLYLINE
  5
25A
330
223
100
AcDbEntity
  8
0
  6
Continuous
 62
     7
100
AcDbPolyline
 90
        2
 70
     0
 43
0.2
 10
303.8204005401
 20
30.1312532935
 10
304.0420652205
 20
30.1312532935
  0
LWPOLYLINE
  5
25B
330
223
100
AcDbEntity
  8
0
  6
Continuous
 62
     7
100
AcDbPolyline
 90
        2
 70
     0
 43
0.2
 10
304.0420652205
 20
30.1312532935
 10
304.0420652205
 20
31.0770574906
  0
SPLINE
  5
25C
330
223
100
AcDbEntity
  8
0
  6
Continuous
 62
     7
100
AcDbSpline
 70
     3
 71
     3
 72
    20
 73
    16
 74
     0
 42
0.000000001
 43
0.0000001
 40
0.0
 40
0.0
 40
0.0
 40
0.0
 40
1.0
 40
1.0
 40
1.0
 40
2.0
 40
2.0
 40
2.0
 40
3.0
 40
3.0
 40
3.0
 40
4.0
 40
4.0
 40
4.0
 40
5.0
 40
5.0
 40
5.0
 40
5.0
 10
291.8240755278
 20
40.4921797368
 30
0.0
 10
291.8240755278
 20
40.4921797368
 30
0.0
 10
294.1404321823
 20
37.6626183146
 30
0.0
 10
294.1404321823
 20
37.6626183146
 30
0.0
 10
293.4887851289
 20
37.0104478499
 30
0.0
 10
292.7119119248
 20
36.2745315792
 30
0.0
 10
291.7407222802
 20
36.2745315792
 30
0.0
 10
290.7421843958
 20
36.2745315792
 30
0.0
 10
289.7988664022
 20
37.2041100264
 30
0.0
 10
289.7988664022
 20
38.203302175
 30
0.0
 10
289.7988664022
 20
39.2024943235
 30
0.0
 10
290.9777194753
 20
39.9090995622
 30
0.0
 10
291.6992419356
 20
40.4089573421
 30
0.0
 10
291.6992419356
 20
40.4089573421
 30
0.0
 10
291.8240755278
 20
40.4921797368
 30
0.0
 10
291.8240755278
 20
40.4921797368
 30
0.0
  0
SPLINE
  5
25D
330
223
100
AcDbEntity
  8
0
  6
Continuous
 62
     7
100
AcDbSpline
 70
     3
 71
     3
 72
    23
 73
    19
 74
     0
 42
0.000000001
 43
0.0000001
 40
0.0
 40
0.0
 40
0.0
 40
0.0
 40
1.0
 40
1.0
 40
1.0
 40
2.0
 40
2.0
 40
2.0
 40
3.0
 40
3.0
 40
3.0
 40
4.0
 40
4.0
 40
4.0
 40
5.0
 40
5.0
 40
5.0
 40
6.0
 40
6.0
 40
6.0
 40
6.0
 10
292.1014835104
 20
42.1299336566
 30
0.0
 10
292.1014835104
 20
42.1299336566
 30
0.0
 10
291.7549852378
 20
42.5732630174
 30
0.0
 10
291.7549852378
 20
42.5732630174
 30
0.0
 10
291.4491821929
 20
42.9613724874
 30
0.0
 10
291.1302938657
 20
43.3498745158
 30
0.0
 10
291.1302938657
 20
43.8768188299
 30
0.0
 10
291.1302938657
 20
44.5429905465
 30
0.0
 10
291.6716319902
 20
44.9867124658
 30
0.0
 10
292.2955382453
 20
44.9867124658
 30
0.0
 10
292.9893199074
 20
44.9867124658
 30
0.0
 10
293.5165259271
 20
44.5844708911
 30
0.0
 10
293.5165259271
 20
43.8494705901
 30
0.0
 10
293.5165259271
 20
43.0862060795
 30
0.0
 10
292.7952651724
 20
42.6560928537
 30
0.0
 10
292.2681900055
 20
42.2403734383
 30
0.0
 10
292.2681900055
 20
42.2403734383
 30
0.0
 10
292.1014835104
 20
42.1299336566
 30
0.0
 10
292.1014835104
 20
42.1299336566
 30
0.0
  0
SPLINE
  5
25E
330
223
100
AcDbEntity
  8
0
  6
Continuous
 62
     7
100
AcDbSpline
 70
     3
 71
     3
 72
    50
 73
    46
 74
     0
 42
0.000000001
 43
0.0000001
 40
0.0
 40
0.0
 40
0.0
 40
0.0
 40
1.0
 40
1.0
 40
1.0
 40
2.0
 40
2.0
 40
2.0
 40
3.0
 40
3.0
 40
3.0
 40
4.0
 40
4.0
 40
4.0
 40
5.0
 40
5.0
 40
5.0
 40
6.0
 40
6.0
 40
6.0
 40
7.0
 40
7.0
 40
7.0
 40
8.0
 40
8.0
 40
8.0
 40
9.0
 40
9.0
 40
9.0
 40
10.0
 40
10.0
 40
10.0
 40
11.0
 40
11.0
 40
11.0
 40
12.0
 40
12.0
 40
12.0
 40
13.0
 40
13.0
 40
13.0
 40
14.0
 40
14.0
 40
14.0
 40
15.0
 40
15.0
 40
15.0
 40
15.0
 10
296.0550706733
 20
35.3313444384
 30
0.0
 10
296.0550706733
 20
35.3313444384
 30
0.0
 10
297.6642986778
 20
35.3313444384
 30
0.0
 10
297.6642986778
 20
35.3313444384
 30
0.0
 10
297.6642986778
 20
35.3313444384
 30
0.0
 10
295.7912713842
 20
37.6484862098
 30
0.0
 10
295.7912713842
 20
37.6484862098
 30
0.0
 10
295.7912713842
 20
37.6484862098
 30
0.0
 10
297.0676098097
 20
39.1459659044
 30
0.0
 10
297.0676098097
 20
39.1459659044
 30
0.0
 10
297.0676098097
 20
39.1459659044
 30
0.0
 10
296.235385862
 20
40.006977473
 30
0.0
 10
296.235385862
 20
40.006977473
 30
0.0
 10
296.235385862
 20
40.006977473
 30
0.0
 10
295.0147907386
 20
38.5916733506
 30
0.0
 10
295.0147907386
 20
38.5916733506
 30
0.0
 10
295.0147907386
 20
38.5916733506
 30
0.0
 10
292.8368763698
 20
41.227049185
 30
0.0
 10
292.8368763698
 20
41.227049185
 30
0.0
 10
293.7104498093
 20
41.8650875449
 30
0.0
 10
294.7371210504
 20
42.6560928537
 30
0.0
 10
294.7371210504
 20
43.8349459268
 30
0.0
 10
294.7371210504
 20
45.2086388518
 30
0.0
 10
293.5992249106
 20
46.0131220013
 30
0.0
 10
292.3239333077
 20
46.0131220013
 30
0.0
 10
290.9505020883
 20
46.0131220013
 30
0.0
 10
289.9095678896
 20
45.1668968016
 30
0.0
 10
289.9095678896
 20
43.7242444394
 30
0.0
 10
289.9095678896
 20
42.836669748
 30
0.0
 10
290.464907266
 20
42.059796544
 30
0.0
 10
291.0610727229
 20
41.4353668776
 30
0.0
 10
291.0610727229
 20
41.4353668776
 30
0.0
 10
290.4091639639
 20
40.9637733072
 30
0.0
 10
290.4091639639
 20
40.9637733072
 30
0.0
 10
289.4106260794
 20
40.2425125525
 30
0.0
 10
288.5777478676
 20
39.5212517978
 30
0.0
 10
288.5777478676
 20
38.1896934815
 30
0.0
 10
288.5777478676
 20
36.3860181835
 30
0.0
 10
290.0347940402
 20
35.1094180524
 30
0.0
 10
291.7823334776
 20
35.1094180524
 30
0.0
 10
293.0171915585
 20
35.1094180524
 30
0.0
 10
294.1265617831
 20
35.8175935249
 30
0.0
 10
294.9174362391
 20
36.7461251496
 30
0.0
 10
294.9174362391
 20
36.7461251496
 30
0.0
 10
296.0550706733
 20
35.3313444384
 30
0.0
 10
296.0550706733
 20
35.3313444384
 30
0.0
  0
LINE
  5
25F
330
223
100
AcDbEntity
  8
0
  6
Continuous
 62
     7
100
AcDbLine
 10
281.8579320483
 20
33.3052193431
 30
0.0
 11
304.2718427759
 21
33.3052193431
 31
0.0
  0
LINE
  5
260
330
223
100
AcDbEntity
  8
0
  6
Continuous
 62
     7
100
AcDbLine
 10
304.2718427759
 20
33.3052193431
 30
0.0
 11
304.2718427759
 21
55.7191300707
 31
0.0
  0
LINE
  5
261
330
223
100
AcDbEntity
  8
0
  6
Continuous
 62
     7
100
AcDbLine
 10
304.2718427759
 20
55.7191300707
 30
0.0
 11
281.8579320483
 21
55.7191300707
 31
0.0
  0
LINE
  5
262
330
223
100
AcDbEntity
  8
0
  6
Continuous
 62
     7
100
AcDbLine
 10
281.8579320483
 20
55.7191300707
 30
0.0
 11
281.8579320483
 21
33.3052193431
 31
0.0
  0
ENDBLK
  5
263
330
223
100
AcDbEntity
  8
0
  6
ByBlock
 62
     0
100
AcDbBlockEnd
  0
BLOCK
  5
264
330
224
100
AcDbEntity
  8
0
100
AcDbBlockBegin
  2
PROIEZIONE_EU_BL0
 70
     0
 10
294.2387749409
 20
68.2204425707
 30
0.0
  3
PROIEZIONE_EU_BL0
  1

  0
LWPOLYLINE
  5
265
330
224
100
AcDbEntity
  8
DEFAULT_1
  6
CENTER
 62
     7
100
AcDbPolyline
 90
        2
 70
     0
 43
0.25
 10
300.3653956026
 20
73.2201367026
 10
300.3654365849
 20
63.2207484389
  0
LWPOLYLINE
  5
266
330
224
100
AcDbEntity
  8
DEFAULT_1
  6
CENTER
 62
     7
100
AcDbPolyline
 90
        2
 70
     0
 43
0.25
 10
306.3654254276
 20
68.2207137059
 10
282.1121244542
 20
68.2204430455
  0
LWPOLYLINE
  5
267
330
224
100
AcDbEntity
  8
0
  6
Continuous
 62
     7
100
AcDbPolyline
 90
        2
 70
     1
 43
0.25
 10
296.8182854268
 20
68.2018948165
 42
1.0
 10
303.9246145254
 20
68.2018948165
 42
1.0
  0
LWPOLYLINE
  5
268
330
224
100
AcDbEntity
  8
0
  6
Continuous
 62
     7
100
AcDbPolyline
 90
        2
 70
     1
 43
0.25
 10
298.3680292552
 20
68.2197928611
 42
1.0
 10
302.3797810052
 20
68.2197928611
 42
1.0
  0
LWPOLYLINE
  5
269
330
224
100
AcDbEntity
  8
0
  6
Continuous
 62
     7
100
AcDbPolyline
 90
        2
 70
     0
 43
0.25
 10
294.3654232216
 20
71.795646066
 10
294.365422867
 20
64.6954431577
  0
LWPOLYLINE
  5
26A
330
224
100
AcDbEntity
  8
0
  6
Continuous
 62
     7
100
AcDbPolyline
 90
        2
 70
     0
 43
0.25
 10
294.3654513034
 20
64.6954147213
 10
284.3708940323
 20
66.2155081341
  0
LWPOLYLINE
  5
26B
330
224
100
AcDbEntity
  8
0
  6
Continuous
 62
     7
100
AcDbPolyline
 90
        2
 70
     0
 43
0.25
 10
284.3685840467
 20
66.2148305926
 10
284.3659171426
 20
70.220469204
  0
LWPOLYLINE
  5
26C
330
224
100
AcDbEntity
  8
0
  6
Continuous
 62
     7
100
AcDbPolyline
 90
        2
 70
     0
 43
0.25
 10
284.3659088665
 20
70.2204609279
 10
294.3656521038
 20
71.795618148
  0
ENDBLK
  5
26D
330
224
100
AcDbEntity
  8
0
  6
ByBlock
 62
     0
100
AcDbBlockEnd
  0
ENDSEC
  0
SECTION
  2
ENTITIES
  0
LINE
  5
290
330
1B
100
AcDbEntity
 67
     1
  8
0
  6
Continuous
 62
     7
100
AcDbLine
 10
0.0
 20
0.0
 30
0.0
 11
420.0
 21
0.0
 31
0.0
  0
LINE
  5
291
330
1B
100
AcDbEntity
 67
     1
  8
0
  6
Continuous
 62
     7
100
AcDbLine
 10
420.0
 20
0.0
 30
0.0
 11
420.0
 21
297.0
 31
0.0
  0
LINE
  5
292
330
1B
100
AcDbEntity
 67
     1
  8
0
  6
Continuous
 62
     7
100
AcDbLine
 10
0.0
 20
297.0
 30
0.0
 11
420.0
 21
297.0
 31
0.0
  0
LINE
  5
293
330
1B
100
AcDbEntity
 67
     1
  8
0
  6
Continuous
 62
     7
100
AcDbLine
 10
0.0
 20
0.0
 30
0.0
 11
0.0
 21
297.0
 31
0.0
  0
LWPOLYLINE
  5
294
330
1B
100
AcDbEntity
 67
     1
  8
0
  6
Continuous
 62
     7
100
AcDbPolyline
 90
        2
 70
     0
 43
0.5
 10
410.0
 20
10.0318435754
 10
410.0
 20
287.0
  0
LWPOLYLINE
  5
295
330
1B
100
AcDbEntity
 67
     1
  8
0
  6
Continuous
 62
     7
100
AcDbPolyline
 90
        2
 70
     0
 43
0.5
 10
10.0536312849
 20
10.0318435754
 10
10.0536312849
 20
287.0
  0
LWPOLYLINE
  5
296
330
1B
100
AcDbEntity
 67
     1
  8
0
  6
Continuous
 62
     7
100
AcDbPolyline
 90
        2
 70
     0
 43
0.5
 10
10.0536312849
 20
10.0318435754
 10
410.0
 20
10.0318435754
  0
LWPOLYLINE
  5
297
330
1B
100
AcDbEntity
 67
     1
  8
0
  6
Continuous
 62
     7
100
AcDbPolyline
 90
        2
 70
     0
 43
0.1
 10
210.0
 20
10.0
 10
210.0
 20
0.0
  0
LWPOLYLINE
  5
298
330
1B
100
AcDbEntity
 67
     1
  8
0
  6
Continuous
 62
     7
100
AcDbPolyline
 90
        2
 70
     0
 43
0.1
 10
210.0
 20
287.0
 10
210.0
 20
297.0
  0
LWPOLYLINE
  5
299
330
1B
100
AcDbEntity
 67
     1
  8
0
  6
Continuous
 62
     7
100
AcDbPolyline
 90
        2
 70
     0
 43
0.1
 10
410.0
 20
148.5
 10
420.0
 20
148.5
  0
LWPOLYLINE
  5
29A
330
1B
100
AcDbEntity
 67
     1
  8
0
  6
Continuous
 62
     7
100
AcDbPolyline
 90
        2
 70
     0
 43
0.1
 10
10.0
 20
148.5
 10
0.0
 20
148.5
  0
LWPOLYLINE
  5
29B
330
1B
100
AcDbEntity
 67
     1
  8
0
  6
Continuous
 62
     7
100
AcDbPolyline
 90
        2
 70
     0
 43
0.5
 10
10.0536312849
 20
287.0
 10
410.0
 20
287.0
  0
LWPOLYLINE
  5
29C
330
1B
100
AcDbEntity
 67
     1
  8
0
  6
Continuous
 62
     7
100
AcDbPolyline
 90
        2
 70
     0
 43
0.1
 10
0.0
 20
290.0
 10
420.0
 20
290.0
  0
LWPOLYLINE
  5
29D
330
1B
100
AcDbEntity
 67
     1
  8
0
  6
Continuous
 62
     7
100
AcDbPolyline
 90
        2
 70
     0
 43
0.1
 10
7.0536312849
 20
0.0
 10
7.0536312849
 20
297.0
  0
LWPOLYLINE
  5
29E
330
1B
100
AcDbEntity
 67
     1
  8
0
  6
Continuous
 62
     7
100
AcDbPolyline
 90
        2
 70
     0
 43
0.1
 10
413.0
 20
0.0
 10
413.0
 20
297.0
  0
LWPOLYLINE
  5
29F
330
1B
100
AcDbEntity
 67
     1
  8
0
  6
Continuous
 62
     7
100
AcDbPolyline
 90
        2
 70
     0
 43
0.1
 10
0.0
 20
7.0318435754
 10
420.0
 20
7.0318435754
  0
LWPOLYLINE
  5
2A0
330
1B
100
AcDbEntity
 67
     1
  8
0
  6
Continuous
 62
     7
100
AcDbPolyline
 90
        2
 70
     0
 43
0.1
 10
10.0
 20
202.9681564246
 10
0.0
 20
202.9681564246
  0
LINE
  5
2A1
330
1B
100
AcDbEntity
 67
     1
  8
0
  6
Continuous
 62
     7
100
AcDbLine
 10
0.0
 20
99.9681564246
 30
0.0
 11
7.0
 21
99.9681564246
 31
0.0
  0
LINE
  5
2A2
330
1B
100
AcDbEntity
 67
     1
  8
0
  6
Continuous
 62
     7
100
AcDbLine
 10
0.0
 20
199.9681564246
 30
0.0
 11
7.0
 21
199.9681564246
 31
0.0
  0
LWPOLYLINE
  5
2A3
330
1B
100
AcDbEntity
 67
     1
  8
0
  6
Continuous
 62
     7
100
AcDbPolyline
 90
        2
 70
     0
 43
0.1
 10
410.0
 20
210.0
 10
420.0
 20
210.0
  0
LINE
  5
2A4
330
1B
100
AcDbEntity
 67
     1
  8
0
  6
Continuous
 62
     7
100
AcDbLine
 10
413.0
 20
107.0
 30
0.0
 11
420.0
 21
107.0
 31
0.0
  0
LWPOLYLINE
  5
2A5
330
1B
100
AcDbEntity
 67
     1
  8
0
  6
Continuous
 62
     7
100
AcDbPolyline
 90
        2
 70
     0
 43
0.1
 10
123.0
 20
10.0
 10
123.0
 20
0.0
  0
LINE
  5
2A6
330
1B
100
AcDbEntity
 67
     1
  8
0
  6
Continuous
 62
     7
100
AcDbLine
 10
210.0
 20
0.0
 30
0.0
 11
210.0
 21
10.0
 31
0.0
  0
LINE
  5
2A7
330
1B
100
AcDbEntity
 67
     1
  8
0
  6
Continuous
 62
     7
100
AcDbLine
 10
313.0
 20
7.0
 30
0.0
 11
313.0
 21
0.0
 31
0.0
  0
LINE
  5
2A8
330
1B
100
AcDbEntity
 67
     1
  8
0
  6
Continuous
 62
     7
100
AcDbLine
 10
113.0
 20
7.0
 30
0.0
 11
113.0
 21
0.0
 31
0.0
  0
LWPOLYLINE
  5
2A9
330
1B
100
AcDbEntity
 67
     1
  8
0
  6
Continuous
 62
     7
100
AcDbPolyline
 90
        2
 70
     0
 43
0.1
 10
123.0
 20
287.0
 10
123.0
 20
297.0
  0
LINE
  5
2AA
330
1B
100
AcDbEntity
 67
     1
  8
0
  6
Continuous
 62
     7
100
AcDbLine
 10
210.0
 20
287.0
 30
0.0
 11
210.0
 21
297.0
 31
0.0
  0
LINE
  5
2AB
330
1B
100
AcDbEntity
 67
     1
  8
0
  6
Continuous
 62
     7
100
AcDbLine
 10
313.0
 20
297.0
 30
0.0
 11
313.0
 21
290.0
 31
0.0
  0
LINE
  5
2AC
330
1B
100
AcDbEntity
 67
     1
  8
0
  6
Continuous
 62
     7
100
AcDbLine
 10
113.0
 20
297.0
 30
0.0
 11
113.0
 21
290.0
 31
0.0
  0
MTEXT
  5
2AD
330
1B
100
AcDbEntity
 67
     1
  8
0
  6
Continuous
 62
     2
100
AcDbMText
 10
1.6467220993
 20
53.595027386
 30
0.0
 40
4.0
 41
3.4285714286
 46
0.0
 71
     1
 72
     1
  1
1
  7
TEXTSTYLE_2
 73
     1
 44
1.0
  0
MTEXT
  5
2AE
330
1B
100
AcDbEntity
 67
     1
  8
0
  6
Continuous
 62
     2
100
AcDbMText
 10
1.6467220993
 20
153.595027386
 30
0.0
 40
4.0
 41
4.7142857143
 46
0.0
 71
     1
 72
     1
  1
2
  7
TEXTSTYLE_2
 73
     1
 44
1.0
  0
MTEXT
  5
2AF
330
1B
100
AcDbEntity
 67
     1
  8
0
  6
Continuous
 62
     2
100
AcDbMText
 10
1.6467220993
 20
253.595027386
 30
0.0
 40
4.0
 41
4.2857142857
 46
0.0
 71
     1
 72
     1
  1
3
  7
TEXTSTYLE_2
 73
     1
 44
1.0
  0
MTEXT
  5
2B0
330
1B
100
AcDbEntity
 67
     1
  8
0
  6
Continuous
 62
     2
100
AcDbMText
 10
414.6467220993
 20
60.6268709614
 30
0.0
 40
4.0
 41
3.4285714286
 46
0.0
 71
     1
 72
     1
  1
1
  7
TEXTSTYLE_2
 73
     1
 44
1.0
  0
MTEXT
  5
2B1
330
1B
100
AcDbEntity
 67
     1
  8
0
  6
Continuous
 62
     2
100
AcDbMText
 10
414.6467220993
 20
160.6268709614
 30
0.0
 40
4.0
 41
4.7142857143
 46
0.0
 71
     1
 72
     1
  1
2
  7
TEXTSTYLE_2
 73
     1
 44
1.0
  0
MTEXT
  5
2B2
330
1B
100
AcDbEntity
 67
     1
  8
0
  6
Continuous
 62
     2
100
AcDbMText
 10
414.6467220993
 20
260.6268709614
 30
0.0
 40
4.0
 41
4.2857142857
 46
0.0
 71
     1
 72
     1
  1
3
  7
TEXTSTYLE_2
 73
     1
 44
1.0
  0
MTEXT
  5
2B3
330
1B
100
AcDbEntity
 67
     1
  8
0
  6
Continuous
 62
     2
100
AcDbMText
 10
362.154890719
 20
5.35876025
 30
0.0
 40
4.0
 41
3.6
 46
0.0
 71
     1
 72
     1
  1
A
  7
TEXTSTYLE_3
 73
     1
 44
1.0
  0
MTEXT
  5
2B4
330
1B
100
AcDbEntity
 67
     1
  8
0
  6
Continuous
 62
     2
100
AcDbMText
 10
262.154890719
 20
5.35876025
 30
0.0
 40
4.0
 41
3.6
 46
0.0
 71
     1
 72
     1
  1
B
  7
TEXTSTYLE_3
 73
     1
 44
1.0
  0
MTEXT
  5
2B5
330
1B
100
AcDbEntity
 67
     1
  8
0
  6
Continuous
 62
     2
100
AcDbMText
 10
162.154890719
 20
5.35876025
 30
0.0
 40
4.0
 41
3.6
 46
0.0
 71
     1
 72
     1
  1
C
  7
TEXTSTYLE_3
 73
     1
 44
1.0
  0
MTEXT
  5
2B6
330
1B
100
AcDbEntity
 67
     1
  8
0
  6
Continuous
 62
     2
100
AcDbMText
 10
55.7978688212
 20
5.5353441916
 30
0.0
 40
4.0
 41
3.6
 46
0.0
 71
     1
 72
     1
  1
D
  7
TEXTSTYLE_3
 73
     1
 44
1.0
  0
MTEXT
  5
2B7
330
1B
100
AcDbEntity
 67
     1
  8
0
  6
Continuous
 62
     2
100
AcDbMText
 10
362.154890719
 20
295.35876025
 30
0.0
 40
4.0
 41
3.6
 46
0.0
 71
     1
 72
     1
  1
A
  7
TEXTSTYLE_3
 73
     1
 44
1.0
  0
MTEXT
  5
2B8
330
1B
100
AcDbEntity
 67
     1
  8
0
  6
Continuous
 62
     2
100
AcDbMText
 10
262.154890719
 20
295.35876025
 30
0.0
 40
4.0
 41
3.6
 46
0.0
 71
     1
 72
     1
  1
B
  7
TEXTSTYLE_3
 73
     1
 44
1.0
  0
MTEXT
  5
2B9
330
1B
100
AcDbEntity
 67
     1
  8
0
  6
Continuous
 62
     2
100
AcDbMText
 10
162.154890719
 20
295.35876025
 30
0.0
 40
4.0
 41
3.6
 46
0.0
 71
     1
 72
     1
  1
C
  7
TEXTSTYLE_3
 73
     1
 44
1.0
  0
MTEXT
  5
2BA
330
1B
100
AcDbEntity
 67
     1
  8
0
  6
Continuous
 62
     2
100
AcDbMText
 10
53.9878834197
 20
295.579490177
 30
0.0
 40
4.0
 41
3.6
 46
0.0
 71
     1
 72
     1
  1
D
  7
TEXTSTYLE_3
 73
     1
 44
1.0
  0
VIEWPORT
  5
2BB
330
1B
100
AcDbEntity
 67
     1
  8
0
100
AcDbViewport
 10
0.0
 20
0.0
 30
0.0
 40
679.8414037602266
 41
350.0901945525292
 68
     1
 69
     1
 12
223.6346296436206
 22
151.3036944617682
 13
0.0
 23
0.0
 14
1.0
 24
1.0
 15
0.0
 25
0.0
 16
0.0
 26
0.0
 36
1.0
 17
0.0
 27
0.0
 37
0.0
 42
50.0
 43
0.0
 44
0.0
 45
350.0901945525292
 50
0.0
 51
0.0
 72
   100
 90
   557232
  1

281
     0
 71
     1
 74
     0
110
0.0
120
0.0
130
0.0
111
1.0
121
0.0
131
0.0
112
0.0
122
1.0
132
0.0
 79
     0
146
0.0
170
     0
 61
     5
348
433
292
     1
282
     1
141
0.0
142
0.0
 63
   256
  0
SPLINE
  5
2BC
330
1B
100
AcDbEntity
 67
     1
  8
0
  6
Continuous
 62
     2
100
AcDbSpline
 70
     0
 71
     3
 72
   251
 73
   247
 74
     0
 42
0.000000001
 43
0.0000001
 40
0.0
 40
0.0
 40
0.0
 40
0.0
 40
0.015625
 40
0.03125
 40
0.0390625
 40
0.046875
 40
0.05078125
 40
0.0546875
 40
0.05859375
 40
0.060546875
 40
0.0615234375
 40
0.0625
 40
0.0634765625
 40
0.064453125
 40
0.06640625
 40
0.0703125
 40
0.07421875
 40
0.078125
 40
0.0859375
 40
0.09375
 40
0.1015625
 40
0.109375
 40
0.11328125
 40
0.1171875
 40
0.12109375
 40
0.123046875
 40
0.1240234375
 40
0.125
 40
0.1259765625
 40
0.126953125
 40
0.12890625
 40
0.1328125
 40
0.13671875
 40
0.140625
 40
0.1484375
 40
0.15625
 40
0.1640625
 40
0.171875
 40
0.17578125
 40
0.1796875
 40
0.18359375
 40
0.185546875
 40
0.1865234375
 40
0.1875
 40
0.1884765625
 40
0.189453125
 40
0.19140625
 40
0.1953125
 40
0.19921875
 40
0.203125
 40
0.2109375
 40
0.21875
 40
0.2265625
 40
0.234375
 40
0.23828125
 40
0.2421875
 40
0.24609375
 40
0.248046875
 40
0.2490234375
 40
0.25
 40
0.2509765625
 40
0.251953125
 40
0.25390625
 40
0.2578125
 40
0.26171875
 40
0.265625
 40
0.2734375
 40
0.28125
 40
0.2890625
 40
0.296875
 40
0.30078125
 40
0.3046875
 40
0.30859375
 40
0.310546875
 40
0.3115234375
 40
0.3125
 40
0.3134765625
 40
0.314453125
 40
0.31640625
 40
0.3203125
 40
0.32421875
 40
0.328125
 40
0.3359375
 40
0.34375
 40
0.3515625
 40
0.359375
 40
0.36328125
 40
0.3671875
 40
0.37109375
 40
0.373046875
 40
0.3740234375
 40
0.375
 40
0.3759765625
 40
0.376953125
 40
0.37890625
 40
0.3828125
 40
0.38671875
 40
0.390625
 40
0.3984375
 40
0.40625
 40
0.4140625
 40
0.421875
 40
0.42578125
 40
0.4296875
 40
0.43359375
 40
0.435546875
 40
0.4365234375
 40
0.4375
 40
0.4384765625
 40
0.439453125
 40
0.44140625
 40
0.4453125
 40
0.44921875
 40
0.453125
 40
0.4609375
 40
0.46875
 40
0.4765625
 40
0.484375
 40
0.48828125
 40
0.4921875
 40
0.49609375
 40
0.498046875
 40
0.4990234375
 40
0.5
 40
0.5009765625
 40
0.501953125
 40
0.50390625
 40
0.5078125
 40
0.51171875
 40
0.515625
 40
0.5234375
 40
0.53125
 40
0.5390625
 40
0.546875
 40
0.55078125
 40
0.5546875
 40
0.55859375
 40
0.560546875
 40
0.5615234375
 40
0.5625
 40
0.5634765625
 40
0.564453125
 40
0.56640625
 40
0.5703125
 40
0.57421875
 40
0.578125
 40
0.5859375
 40
0.59375
 40
0.6015625
 40
0.609375
 40
0.61328125
 40
0.6171875
 40
0.62109375
 40
0.623046875
 40
0.6240234375
 40
0.625
 40
0.6259765625
 40
0.626953125
 40
0.62890625
 40
0.6328125
 40
0.63671875
 40
0.640625
 40
0.6484375
 40
0.65625
 40
0.6640625
 40
0.671875
 40
0.67578125
 40
0.6796875
 40
0.68359375
 40
0.685546875
 40
0.6865234375
 40
0.6875
 40
0.6884765625
 40
0.689453125
 40
0.69140625
 40
0.6953125
 40
0.69921875
 40
0.703125
 40
0.7109375
 40
0.71875
 40
0.7265625
 40
0.734375
 40
0.73828125
 40
0.7421875
 40
0.74609375
 40
0.748046875
 40
0.7490234375
 40
0.75
 40
0.7509765625
 40
0.751953125
 40
0.75390625
 40
0.7578125
 40
0.76171875
 40
0.765625
 40
0.7734375
 40
0.78125
 40
0.7890625
 40
0.796875
 40
0.80078125
 40
0.8046875
 40
0.80859375
 40
0.810546875
 40
0.8115234375
 40
0.8125
 40
0.8134765625
 40
0.814453125
 40
0.81640625
 40
0.8203125
 40
0.82421875
 40
0.828125
 40
0.8359375
 40
0.84375
 40
0.8515625
 40
0.859375
 40
0.86328125
 40
0.8671875
 40
0.87109375
 40
0.873046875
 40
0.8740234375
 40
0.875
 40
0.8759765625
 40
0.876953125
 40
0.87890625
 40
0.8828125
 40
0.88671875
 40
0.890625
 40
0.8984375
 40
0.90625
 40
0.9140625
 40
0.921875
 40
0.92578125
 40
0.9296875
 40
0.93359375
 40
0.935546875
 40
0.9365234375
 40
0.9375
 40
0.9384765625
 40
0.939453125
 40
0.94140625
 40
0.9453125
 40
0.94921875
 40
0.953125
 40
0.9609375
 40
0.96875
 40
0.984375
 40
1.0
 40
1.0
 40
1.0
 40
1.0
 10
233.4198665427
 20
82.1145562544
 30
0.0
 10
233.3874941508
 20
82.1176222389
 30
0.0
 10
233.3227493926
 20
82.1237543326
 30
0.0
 10
233.2418183172
 20
82.1314188269
 30
0.0
 10
233.1770737249
 20
82.1375517302
 30
0.0
 10
233.1366077484
 20
82.1413818365
 30
0.0
 10
233.1042363555
 20
82.1444526943
 30
0.0
 10
233.0799540097
 20
82.1467372946
 30
0.0
 10
233.0597308134
 20
82.1487001162
 30
0.0
 10
233.0455508459
 20
82.149958329
 30
0.0
 10
233.03748506
 20
82.1508580611
 30
0.0
 10
233.0313313427
 20
82.151023675
 30
0.0
 10
233.0255766108
 20
82.1531356528
 30
0.0
 10
233.0177644643
 20
82.1552727096
 30
0.0
 10
233.0041580502
 20
82.1593288776
 30
0.0
 10
232.9846864154
 20
82.1649580279
 30
0.0
 10
232.9613349648
 20
82.1717837961
 30
0.0
 10
232.9301946253
 20
82.1808600859
 30
0.0
 10
232.8912709636
 20
82.192213988
 30
0.0
 10
232.8445617163
 20
82.2058347804
 30
0.0
 10
232.7978530618
 20
82.2194574695
 30
0.0
 10
232.7589279181
 20
82.23080663
 30
0.0
 10
232.7277905427
 20
82.2398924029
 30
0.0
 10
232.7044300515
 20
82.2466892476
 30
0.0
 10
232.6849866994
 20
82.2524088827
 30
0.0
 10
232.6713297964
 20
82.2563035214
 30
0.0
 10
232.6635985458
 20
82.2586993886
 30
0.0
 10
232.6575953277
 20
82.2600163841
 30
0.0
 10
232.6523748834
 20
82.2631678192
 30
0.0
 10
232.6451412507
 20
82.2667298597
 30
0.0
 10
232.632609608
 20
82.2732615592
 30
0.0
 10
232.6146407519
 20
82.2824366929
 30
0.0
 10
232.5931065937
 20
82.2935135708
 30
0.0
 10
232.5643844341
 20
82.3082594287
 30
0.0
 10
232.5284851772
 20
82.3266998017
 30
0.0
 10
232.4854044678
 20
82.3488245756
 30
0.0
 10
232.4423246544
 20
82.3709511631
 30
0.0
 10
232.4064231573
 20
82.3893870019
 30
0.0
 10
232.3777054779
 20
82.4041419282
 30
0.0
 10
232.3561576553
 20
82.4151911476
 30
0.0
 10
232.3382315472
 20
82.4244528084
 30
0.0
 10
232.3256235928
 20
82.4308300439
 30
0.0
 10
232.3185122306
 20
82.4346395744
 30
0.0
 10
232.3129162104
 20
82.4370307994
 30
0.0
 10
232.308323593
 20
82.4412030178
 30
0.0
 10
232.3018501049
 20
82.4461447452
 30
0.0
 10
232.2906845715
 20
82.4550822111
 30
0.0
 10
232.2746485539
 20
82.4676986951
 30
0.0
 10
232.2554418265
 20
82.482903249
 30
0.0
 10
232.2298201024
 20
82.5031533561
 30
0.0
 10
232.1977973697
 20
82.5284737931
 30
0.0
 10
232.1593679938
 20
82.5588548096
 30
0.0
 10
232.1209399285
 20
82.5892373728
 30
0.0
 10
232.0889139195
 20
82.6145539432
 30
0.0
 10
232.0632987481
 20
82.6348117835
 30
0.0
 10
232.0440720347
 20
82.6499927513
 30
0.0
 10
232.0280985417
 20
82.6626830225
 30
0.0
 10
232.0168213923
 20
82.6714887669
 30
0.0
 10
232.0105267409
 20
82.676641545
 30
0.0
 10
232.0053847947
 20
82.6801654836
 30
0.0
 10
232.0018519622
 20
82.6849915398
 30
0.0
 10
231.9965802419
 20
82.6909720883
 30
0.0
 10
231.9876162408
 20
82.7016496651
 30
0.0
 10
231.9746738045
 20
82.7167927103
 30
0.0
 10
231.9592014035
 20
82.7350117215
 30
0.0
 10
231.9385510858
 20
82.7592871894
 30
0.0
 10
231.9127452546
 20
82.789637234
 30
0.0
 10
231.881775015
 20
82.8260547019
 30
0.0
 10
231.8508064388
 20
82.8624733766
 30
0.0
 10
231.8249964489
 20
82.8928204039
 30
0.0
 10
231.8043544487
 20
82.9171019064
 30
0.0
 10
231.7888566793
 20
82.9353025123
 30
0.0
 10
231.7759936057
 20
82.9505031369
 30
0.0
 10
231.7668879301
 20
82.9610779256
 30
0.0
 10
231.7618432078
 20
82.9672231665
 30
0.0
 10
231.7576131104
 20
82.9715433404
 30
0.0
 10
231.7550899755
 20
82.9769672891
 30
0.0
 10
231.7511303879
 20
82.9838142118
 30
0.0
 10
231.7444785213
 20
82.9959757093
 30
0.0
 10
231.7348308203
 20
83.0132554935
 30
0.0
 10
231.7233156604
 20
83.0340313779
 30
0.0
 10
231.7079404203
 20
83.0617185314
 30
0.0
 10
231.6887288685
 20
83.0963323079
 30
0.0
 10
231.665671555
 20
83.1378666718
 30
0.0
 10
231.6426160492
 20
83.1794019719
 30
0.0
 10
231.6233999783
 20
83.2140134079
 30
0.0
 10
231.6080337763
 20
83.2417052424
 30
0.0
 10
231.5964910503
 20
83.2624668496
 30
0.0
 10
231.5869295876
 20
83.2797912988
 30
0.0
 10
231.5801237723
 20
83.2918730625
 30
0.0
 10
231.5764108491
 20
83.2988477387
 30
0.0
 10
231.5731300405
 20
83.3038792694
 30
0.0
 10
231.5717456396
 20
83.3096733004
 30
0.0
 10
231.5692382834
 20
83.3171327063
 30
0.0
 10
231.5651586098
 20
83.3303105864
 30
0.0
 10
231.5591693739
 20
83.3490713427
 30
0.0
 10
231.552051262
 20
83.3716119817
 30
0.0
 10
231.5425363454
 20
83.4016564777
 30
0.0
 10
231.5306510272
 20
83.4392154389
 30
0.0
 10
231.5163848241
 20
83.4842846883
 30
0.0
 10
231.5021205822
 20
83.5293546082
 30
0.0
 10
231.4902303608
 20
83.5669118933
 30
0.0
 10
231.4807252506
 20
83.5969597415
 30
0.0
 10
231.4735772292
 20
83.619490156
 30
0.0
 10
231.4676815629
 20
83.6382828987
 30
0.0
 10
231.4634348532
 20
83.6514036782
 30
0.0
 10
231.4611951307
 20
83.6589545737
 30
0.0
 10
231.458988645
 20
83.664467578
 30
0.0
 10
231.4587954499
 20
83.670554598
 30
0.0
 10
231.4578355982
 20
83.6784704015
 30
0.0
 10
231.4564830529
 20
83.6924163454
 30
0.0
 10
231.4543797834
 20
83.7122903504
 30
0.0
 10
231.4519290822
 20
83.7361600324
 30
0.0
 10
231.4486358945
 20
83.7679789835
 30
0.0
 10
231.4445282495
 20
83.8077551694
 30
0.0
 10
231.4395950249
 20
83.8554855441
 30
0.0
 10
231.4346638592
 20
83.9032161172
 30
0.0
 10
231.4305510669
 20
83.9429918068
 30
0.0
 10
231.4272681739
 20
83.9748117504
 30
0.0
 10
231.4247860741
 20
83.9986784052
 30
0.0
 10
231.4227810322
 20
84.0185618806
 30
0.0
 10
231.4212531358
 20
84.0324909185
 30
0.0
 10
231.4205742404
 20
84.0404338096
 30
0.0
 10
231.4195180374
 20
84.0464376251
 30
0.0
 10
231.420552866
 20
84.0522631317
 30
0.0
 10
231.4212032622
 20
84.06009267
 30
0.0
 10
231.422681285
 20
84.0737653836
 30
0.0
 10
231.424615079
 20
84.0933129819
 30
0.0
 10
231.4270116811
 20
84.1167636147
 30
0.0
 10
231.4301805773
 20
84.148033392
 30
0.0
 10
231.4341508737
 20
84.1871198247
 30
0.0
 10
231.438911044
 20
84.2340239303
 30
0.0
 10
231.4436732741
 20
84.2809277531
 30
0.0
 10
231.4476384211
 20
84.3200148928
 30
0.0
 10
231.4508176162
 20
84.3512832562
 30
0.0
 10
231.4531828066
 20
84.3747382013
 30
0.0
 10
231.4552148696
 20
84.3942723088
 30
0.0
 10
231.4565174673
 20
84.4079691056
 30
0.0
 10
231.4574489385
 20
84.4157600565
 30
0.0
 10
231.4576203946
 20
84.4217040911
 30
0.0
 10
231.4598068749
 20
84.4272627352
 30
0.0
 10
231.462019319
 20
84.4348086892
 30
0.0
 10
231.466218573
 20
84.447951476
 30
0.0
 10
231.4720462983
 20
84.466759631
 30
0.0
 10
231.4791128535
 20
84.4893154002
 30
0.0
 10
231.4885093201
 20
84.5193946584
 30
0.0
 10
231.5002637445
 20
84.5569920284
 30
0.0
 10
231.5143650265
 20
84.6021096967
 30
0.0
 10
231.5284682719
 20
84.6472267924
 30
0.0
 10
231.5402177876
 20
84.684825594
 30
0.0
 10
231.5496240718
 20
84.7149019891
 30
0.0
 10
231.5566606832
 20
84.7374664909
 30
0.0
 10
231.5625820852
 20
84.7562473268
 30
0.0
 10
231.5666141119
 20
84.7694388822
 30
0.0
 10
231.5690944961
 20
84.7769066967
 30
0.0
 10
231.5704579502
 20
84.7827053602
 30
0.0
 10
231.5737205559
 20
84.7877479222
 30
0.0
 10
231.5774082515
 20
84.7947350748
 30
0.0
 10
231.5841703644
 20
84.8068397121
 30
0.0
 10
231.5936691619
 20
84.8241962943
 30
0.0
 10
231.6051367897
 20
84.8449966938
 30
0.0
 10
231.6204028252
 20
84.8727401695
 30
0.0
 10
231.639493704
 20
84.907416189
 30
0.0
 10
231.6623989554
 20
84.9490289588
 30
0.0
 10
231.6853060845
 20
84.9906408632
 30
0.0
 10
231.7043922692
 20
85.0253190464
 30
0.0
 10
231.7196676929
 20
85.0530581946
 30
0.0
 10
231.7311066866
 20
85.073871793
 30
0.0
 10
231.7406950635
 20
85.0911870837
 30
0.0
 10
231.7472972635
 20
85.1033654325
 30
0.0
 10
231.7512411796
 20
85.1102344809
 30
0.0
 10
231.7537167579
 20
85.1156398213
 30
0.0
 10
231.7580361563
 20
85.1200759491
 30
0.0
 10
231.763152209
 20
85.1263288584
 30
0.0
 10
231.7724049544
 20
85.1371139355
 30
0.0
 10
231.7854664998
 20
85.152603539
 30
0.0
 10
231.8012074123
 20
85.1711558131
 30
0.0
 10
231.8221718659
 20
85.1959044982
 30
0.0
 10
231.8483855112
 20
85.2268360827
 30
0.0
 10
231.8798382539
 20
85.2639560093
 30
0.0
 10
231.9112925979
 20
85.30107467
 30
0.0
 10
231.9375022402
 20
85.3320094193
 30
0.0
 10
231.9584746997
 20
85.3567517749
 30
0.0
 10
231.9741911941
 20
85.3753233539
 30
0.0
 10
231.9873291295
 20
85.3907525634
 30
0.0
 10
231.996445507
 20
85.4016454531
 30
0.0
 10
232.0017800554
 20
85.4077256195
 30
0.0
 10
232.0054283051
 20
85.4126923582
 30
0.0
 10
232.0104246062
 20
85.4161048123
 30
0.0
 10
232.0166161255
 20
85.4211969031
 30
0.0
 10
232.0276703665
 20
85.4298554632
 30
0.0
 10
232.0433476005
 20
85.4423568967
 30
0.0
 10
232.0622093088
 20
85.4573020885
 30
0.0
 10
232.0873411225
 20
85.4772487637
 30
0.0
 10
232.1187618007
 20
85.5021752825
 30
0.0
 10
232.1564639378
 20
85.5320902368
 30
0.0
 10
232.1941673243
 20
85.5620035843
 30
0.0
 10
232.2255848788
 20
85.5869341201
 30
0.0
 10
232.2507229399
 20
85.6068727612
 30
0.0
 10
232.2695655936
 20
85.6218424569
 30
0.0
 10
232.2853024383
 20
85.634267232
 30
0.0
 10
232.2962502651
 20
85.6430626391
 30
0.0
 10
232.3026122866
 20
85.6479354667
 30
0.0
 10
232.3070848597
 20
85.6520214271
 30
0.0
 10
232.3127001447
 20
85.6544585882
 30
0.0
 10
232.3197886006
 20
85.6582832561
 30
0.0
 10
232.3323791093
 20
85.6647084659
 30
0.0
 10
232.3502684583
 20
85.6740274294
 30
0.0
 10
232.3717772366
 20
85.6851502198
 30
0.0
 10
232.400441087
 20
85.7000015613
 30
0.0
 10
232.4362759054
 20
85.7185584954
 30
0.0
 10
232.479275443
 20
85.7408301499
 30
0.0
 10
232.5222759498
 20
85.7631000584
 30
0.0
 10
232.5581083451
 20
85.7816613576
 30
0.0
 10
232.5867770417
 20
85.7965039689
 30
0.0
 10
232.6082710391
 20
85.8076533861
 30
0.0
 10
232.6262066288
 20
85.8168890498
 30
0.0
 10
232.6387145909
 20
85.8234629626
 30
0.0
 10
232.6459353071
 20
85.827049371
 30
0.0
 10
232.651144331
 20
85.8302183888
 30
0.0
 10
232.6571427532
 20
85.8315556174
 30
0.0
 10
232.6648652985
 20
85.8339775375
 30
0.0
 10
232.6785080439
 20
85.8379181996
 30
0.0
 10
232.697930608
 20
85.8437033572
 30
0.0
 10
232.7212663946
 20
85.8505789253
 30
0.0
 10
232.7523707457
 20
85.859769629
 30
0.0
 10
232.7912546436
 20
85.8712499648
 30
0.0
 10
232.837913764
 20
85.8850300588
 30
0.0
 10
232.8845735784
 20
85.8988082585
 30
0.0
 10
232.9234557411
 20
85.9102933304
 30
0.0
 10
232.9545635627
 20
85.9194745618
 30
0.0
 10
232.9778887641
 20
85.9263790203
 30
0.0
 10
232.9973444431
 20
85.9320737967
 30
0.0
 10
233.0109280734
 20
85.9361758032
 30
0.0
 10
233.018745336
 20
85.9383392091
 30
0.0
 10
233.024452817
 20
85.9404705105
 30
0.0
 10
233.0307545675
 20
85.9406571226
 30
0.0
 10
233.0389496137
 20
85.9415842682
 30
0.0
 10
233.0533875237
 20
85.9428907267
 30
0.0
 10
233.0739626168
 20
85.9449223286
 30
0.0
 10
233.098674341
 20
85.947289526
 30
0.0
 10
233.1316157577
 20
85.950470492
 30
0.0
 10
233.1727951134
 20
85.954438241
 30
0.0
 10
233.2386806375
 20
85.9607913683
 30
0.0
 10
233.3210380417
 20
85.9687311441
 30
0.0
 10
233.3869238129
 20
85.9750834626
 30
0.0
 10
233.4198667175
 20
85.9782595595
 30
0.0
  0
SPLINE
  5
2BD
330
1B
100
AcDbEntity
 67
     1
  8
0
  6
Continuous
 62
     2
100
AcDbSpline
 70
     0
 71
     3
 72
   251
 73
   247
 74
     0
 42
0.000000001
 43
0.0000001
 40
0.0
 40
0.0
 40
0.0
 40
0.0
 40
0.015625
 40
0.03125
 40
0.0390625
 40
0.046875
 40
0.05078125
 40
0.0546875
 40
0.05859375
 40
0.060546875
 40
0.0615234375
 40
0.0625
 40
0.0634765625
 40
0.064453125
 40
0.06640625
 40
0.0703125
 40
0.07421875
 40
0.078125
 40
0.0859375
 40
0.09375
 40
0.1015625
 40
0.109375
 40
0.11328125
 40
0.1171875
 40
0.12109375
 40
0.123046875
 40
0.1240234375
 40
0.125
 40
0.1259765625
 40
0.126953125
 40
0.12890625
 40
0.1328125
 40
0.13671875
 40
0.140625
 40
0.1484375
 40
0.15625
 40
0.1640625
 40
0.171875
 40
0.17578125
 40
0.1796875
 40
0.18359375
 40
0.185546875
 40
0.1865234375
 40
0.1875
 40
0.1884765625
 40
0.189453125
 40
0.19140625
 40
0.1953125
 40
0.19921875
 40
0.203125
 40
0.2109375
 40
0.21875
 40
0.2265625
 40
0.234375
 40
0.23828125
 40
0.2421875
 40
0.24609375
 40
0.248046875
 40
0.2490234375
 40
0.25
 40
0.2509765625
 40
0.251953125
 40
0.25390625
 40
0.2578125
 40
0.26171875
 40
0.265625
 40
0.2734375
 40
0.28125
 40
0.2890625
 40
0.296875
 40
0.30078125
 40
0.3046875
 40
0.30859375
 40
0.310546875
 40
0.3115234375
 40
0.3125
 40
0.3134765625
 40
0.314453125
 40
0.31640625
 40
0.3203125
 40
0.32421875
 40
0.328125
 40
0.3359375
 40
0.34375
 40
0.3515625
 40
0.359375
 40
0.36328125
 40
0.3671875
 40
0.37109375
 40
0.373046875
 40
0.3740234375
 40
0.375
 40
0.3759765625
 40
0.376953125
 40
0.37890625
 40
0.3828125
 40
0.38671875
 40
0.390625
 40
0.3984375
 40
0.40625
 40
0.4140625
 40
0.421875
 40
0.42578125
 40
0.4296875
 40
0.43359375
 40
0.435546875
 40
0.4365234375
 40
0.4375
 40
0.4384765625
 40
0.439453125
 40
0.44140625
 40
0.4453125
 40
0.44921875
 40
0.453125
 40
0.4609375
 40
0.46875
 40
0.4765625
 40
0.484375
 40
0.48828125
 40
0.4921875
 40
0.49609375
 40
0.498046875
 40
0.4990234375
 40
0.5
 40
0.5009765625
 40
0.501953125
 40
0.50390625
 40
0.5078125
 40
0.51171875
 40
0.515625
 40
0.5234375
 40
0.53125
 40
0.5390625
 40
0.546875
 40
0.55078125
 40
0.5546875
 40
0.55859375
 40
0.560546875
 40
0.5615234375
 40
0.5625
 40
0.5634765625
 40
0.564453125
 40
0.56640625
 40
0.5703125
 40
0.57421875
 40
0.578125
 40
0.5859375
 40
0.59375
 40
0.6015625
 40
0.609375
 40
0.61328125
 40
0.6171875
 40
0.62109375
 40
0.623046875
 40
0.6240234375
 40
0.625
 40
0.6259765625
 40
0.626953125
 40
0.62890625
 40
0.6328125
 40
0.63671875
 40
0.640625
 40
0.6484375
 40
0.65625
 40
0.6640625
 40
0.671875
 40
0.67578125
 40
0.6796875
 40
0.68359375
 40
0.685546875
 40
0.6865234375
 40
0.6875
 40
0.6884765625
 40
0.689453125
 40
0.69140625
 40
0.6953125
 40
0.69921875
 40
0.703125
 40
0.7109375
 40
0.71875
 40
0.7265625
 40
0.734375
 40
0.73828125
 40
0.7421875
 40
0.74609375
 40
0.748046875
 40
0.7490234375
 40
0.75
 40
0.7509765625
 40
0.751953125
 40
0.75390625
 40
0.7578125
 40
0.76171875
 40
0.765625
 40
0.7734375
 40
0.78125
 40
0.7890625
 40
0.796875
 40
0.80078125
 40
0.8046875
 40
0.80859375
 40
0.810546875
 40
0.8115234375
 40
0.8125
 40
0.8134765625
 40
0.814453125
 40
0.81640625
 40
0.8203125
 40
0.82421875
 40
0.828125
 40
0.8359375
 40
0.84375
 40
0.8515625
 40
0.859375
 40
0.86328125
 40
0.8671875
 40
0.87109375
 40
0.873046875
 40
0.8740234375
 40
0.875
 40
0.8759765625
 40
0.876953125
 40
0.87890625
 40
0.8828125
 40
0.88671875
 40
0.890625
 40
0.8984375
 40
0.90625
 40
0.9140625
 40
0.921875
 40
0.92578125
 40
0.9296875
 40
0.93359375
 40
0.935546875
 40
0.9365234375
 40
0.9375
 40
0.9384765625
 40
0.939453125
 40
0.94140625
 40
0.9453125
 40
0.94921875
 40
0.953125
 40
0.9609375
 40
0.96875
 40
0.984375
 40
1.0
 40
1.0
 40
1.0
 40
1.0
 10
233.4198665427
 20
85.9782595595
 30
0.0
 10
233.4522389346
 20
85.975193575
 30
0.0
 10
233.5169836928
 20
85.9690614813
 30
0.0
 10
233.5979147682
 20
85.961396987
 30
0.0
 10
233.6626593604
 20
85.9552640838
 30
0.0
 10
233.703125337
 20
85.9514339774
 30
0.0
 10
233.7354967299
 20
85.9483631197
 30
0.0
 10
233.7597790757
 20
85.9460785194
 30
0.0
 10
233.7800022719
 20
85.9441156977
 30
0.0
 10
233.7941822394
 20
85.9428574849
 30
0.0
 10
233.8022480253
 20
85.9419577528
 30
0.0
 10
233.8084017427
 20
85.9417921389
 30
0.0
 10
233.8141564746
 20
85.9396801611
 30
0.0
 10
233.821968621
 20
85.9375431043
 30
0.0
 10
233.8355750351
 20
85.9334869363
 30
0.0
 10
233.8550466699
 20
85.927857786
 30
0.0
 10
233.8783981205
 20
85.9210320178
 30
0.0
 10
233.9095384601
 20
85.9119557281
 30
0.0
 10
233.9484621218
 20
85.9006018259
 30
0.0
 10
233.9951713691
 20
85.8869810335
 30
0.0
 10
234.0418800235
 20
85.8733583445
 30
0.0
 10
234.0808051673
 20
85.8620091839
 30
0.0
 10
234.1119425427
 20
85.8529234111
 30
0.0
 10
234.1353030339
 20
85.8461265663
 30
0.0
 10
234.154746386
 20
85.8404069312
 30
0.0
 10
234.168403289
 20
85.8365122925
 30
0.0
 10
234.1761345396
 20
85.8341164254
 30
0.0
 10
234.1821377577
 20
85.8327994298
 30
0.0
 10
234.187358202
 20
85.8296479947
 30
0.0
 10
234.1945918347
 20
85.8260859543
 30
0.0
 10
234.2071234774
 20
85.8195542548
 30
0.0
 10
234.2250923335
 20
85.810379121
 30
0.0
 10
234.2466264916
 20
85.7993022431
 30
0.0
 10
234.2753486512
 20
85.7845563852
 30
0.0
 10
234.3112479082
 20
85.7661160123
 30
0.0
 10
234.3543286176
 20
85.7439912384
 30
0.0
 10
234.397408431
 20
85.7218646508
 30
0.0
 10
234.433309928
 20
85.703428812
 30
0.0
 10
234.4620276075
 20
85.6886738858
 30
0.0
 10
234.4835754301
 20
85.6776246663
 30
0.0
 10
234.5015015382
 20
85.6683630055
 30
0.0
 10
234.5141094926
 20
85.66198577
 30
0.0
 10
234.5212208548
 20
85.6581762395
 30
0.0
 10
234.526816875
 20
85.6557850145
 30
0.0
 10
234.5314094924
 20
85.6516127961
 30
0.0
 10
234.5378829804
 20
85.6466710687
 30
0.0
 10
234.5490485139
 20
85.6377336029
 30
0.0
 10
234.5650845314
 20
85.6251171189
 30
0.0
 10
234.5842912589
 20
85.6099125649
 30
0.0
 10
234.609912983
 20
85.5896624578
 30
0.0
 10
234.6419357157
 20
85.5643420208
 30
0.0
 10
234.6803650915
 20
85.5339610043
 30
0.0
 10
234.7187931568
 20
85.5035784411
 30
0.0
 10
234.7508191659
 20
85.4782618707
 30
0.0
 10
234.7764343373
 20
85.4580040304
 30
0.0
 10
234.7956610507
 20
85.4428230626
 30
0.0
 10
234.8116345437
 20
85.4301327915
 30
0.0
 10
234.822911693
 20
85.421327047
 30
0.0
 10
234.8292063444
 20
85.416174269
 30
0.0
 10
234.8343482907
 20
85.4126503304
 30
0.0
 10
234.8378811232
 20
85.4078242741
 30
0.0
 10
234.8431528435
 20
85.4018437257
 30
0.0
 10
234.8521168445
 20
85.3911661488
 30
0.0
 10
234.8650592808
 20
85.3760231036
 30
0.0
 10
234.8805316819
 20
85.3578040924
 30
0.0
 10
234.9011819996
 20
85.3335286245
 30
0.0
 10
234.9269878307
 20
85.30317858
 30
0.0
 10
234.9579580704
 20
85.2667611121
 30
0.0
 10
234.9889266465
 20
85.2303424373
 30
0.0
 10
235.0147366364
 20
85.19999541
 30
0.0
 10
235.0353786367
 20
85.1757139075
 30
0.0
 10
235.050876406
 20
85.1575133017
 30
0.0
 10
235.0637394797
 20
85.142312677
 30
0.0
 10
235.0728451552
 20
85.1317378883
 30
0.0
 10
235.0778898775
 20
85.1255926475
 30
0.0
 10
235.082119975
 20
85.1212724736
 30
0.0
 10
235.0846431099
 20
85.1158485248
 30
0.0
 10
235.0886026974
 20
85.1090016022
 30
0.0
 10
235.0952545641
 20
85.0968401047
 30
0.0
 10
235.1049022651
 20
85.0795603204
 30
0.0
 10
235.116417425
 20
85.058784436
 30
0.0
 10
235.1317926651
 20
85.0310972825
 30
0.0
 10
235.1510042169
 20
84.996483506
 30
0.0
 10
235.1740615303
 20
84.9549491421
 30
0.0
 10
235.1971170362
 20
84.913413842
 30
0.0
 10
235.2163331071
 20
84.8788024061
 30
0.0
 10
235.231699309
 20
84.8511105715
 30
0.0
 10
235.2432420351
 20
84.8303489644
 30
0.0
 10
235.2528034977
 20
84.8130245151
 30
0.0
 10
235.259609313
 20
84.8009427514
 30
0.0
 10
235.2633222363
 20
84.7939680752
 30
0.0
 10
235.2666030449
 20
84.7889365445
 30
0.0
 10
235.2679874458
 20
84.7831425136
 30
0.0
 10
235.270494802
 20
84.7756831076
 30
0.0
 10
235.2745744756
 20
84.7625052275
 30
0.0
 10
235.2805637115
 20
84.7437444712
 30
0.0
 10
235.2876818234
 20
84.7212038322
 30
0.0
 10
235.29719674
 20
84.6911593363
 30
0.0
 10
235.3090820581
 20
84.653600375
 30
0.0
 10
235.3233482613
 20
84.6085311256
 30
0.0
 10
235.3376125032
 20
84.5634612058
 30
0.0
 10
235.3495027245
 20
84.5259039207
 30
0.0
 10
235.3590078347
 20
84.4958560724
 30
0.0
 10
235.3661558562
 20
84.4733256579
 30
0.0
 10
235.3720515225
 20
84.4545329152
 30
0.0
 10
235.3762982322
 20
84.4414121357
 30
0.0
 10
235.3785379547
 20
84.4338612402
 30
0.0
 10
235.3807444404
 20
84.4283482359
 30
0.0
 10
235.3809376354
 20
84.4222612159
 30
0.0
 10
235.3818974872
 20
84.4143454124
 30
0.0
 10
235.3832500325
 20
84.4003994686
 30
0.0
 10
235.385353302
 20
84.3805254635
 30
0.0
 10
235.3878040032
 20
84.3566557815
 30
0.0
 10
235.3910971908
 20
84.3248368304
 30
0.0
 10
235.3952048359
 20
84.2850606445
 30
0.0
 10
235.4001380605
 20
84.2373302699
 30
0.0
 10
235.4050692261
 20
84.1895996967
 30
0.0
 10
235.4091820185
 20
84.1498240071
 30
0.0
 10
235.4124649115
 20
84.1180040635
 30
0.0
 10
235.4149470112
 20
84.0941374087
 30
0.0
 10
235.4169520532
 20
84.0742539333
 30
0.0
 10
235.4184799496
 20
84.0603248954
 30
0.0
 10
235.419158845
 20
84.0523820043
 30
0.0
 10
235.4202150479
 20
84.0463781888
 30
0.0
 10
235.4191802194
 20
84.0405526822
 30
0.0
 10
235.4185298232
 20
84.032723144
 30
0.0
 10
235.4170518004
 20
84.0190504304
 30
0.0
 10
235.4151180064
 20
83.9995028321
 30
0.0
 10
235.4127214043
 20
83.9760521993
 30
0.0
 10
235.409552508
 20
83.9447824219
 30
0.0
 10
235.4055822116
 20
83.9056959892
 30
0.0
 10
235.4008220413
 20
83.8587918836
 30
0.0
 10
235.3960598112
 20
83.8118880609
 30
0.0
 10
235.3920946643
 20
83.7728009212
 30
0.0
 10
235.3889154691
 20
83.7415325577
 30
0.0
 10
235.3865502787
 20
83.7180776126
 30
0.0
 10
235.3845182158
 20
83.6985435051
 30
0.0
 10
235.3832156181
 20
83.6848467083
 30
0.0
 10
235.3822841469
 20
83.6770557574
 30
0.0
 10
235.3821126907
 20
83.6711117228
 30
0.0
 10
235.3799262105
 20
83.6655530787
 30
0.0
 10
235.3777137664
 20
83.6580071247
 30
0.0
 10
235.3735145124
 20
83.6448643379
 30
0.0
 10
235.3676867871
 20
83.626056183
 30
0.0
 10
235.3606202318
 20
83.6035004137
 30
0.0
 10
235.3512237653
 20
83.5734211555
 30
0.0
 10
235.3394693408
 20
83.5358237855
 30
0.0
 10
235.3253680589
 20
83.4907061172
 30
0.0
 10
235.3112648134
 20
83.4455890215
 30
0.0
 10
235.2995152978
 20
83.4079902199
 30
0.0
 10
235.2901090136
 20
83.3779138248
 30
0.0
 10
235.2830724022
 20
83.3553493231
 30
0.0
 10
235.2771510002
 20
83.3365684871
 30
0.0
 10
235.2731189735
 20
83.3233769318
 30
0.0
 10
235.2706385893
 20
83.3159091172
 30
0.0
 10
235.2692751352
 20
83.3101104538
 30
0.0
 10
235.2660125295
 20
83.3050678918
 30
0.0
 10
235.2623248339
 20
83.2980807391
 30
0.0
 10
235.2555627209
 20
83.2859761018
 30
0.0
 10
235.2460639235
 20
83.2686195197
 30
0.0
 10
235.2345962957
 20
83.2478191201
 30
0.0
 10
235.2193302602
 20
83.2200756444
 30
0.0
 10
235.2002393814
 20
83.1853996249
 30
0.0
 10
235.1773341299
 20
83.1437868551
 30
0.0
 10
235.1544270009
 20
83.1021749508
 30
0.0
 10
235.1353408162
 20
83.0674967676
 30
0.0
 10
235.1200653924
 20
83.0397576193
 30
0.0
 10
235.1086263988
 20
83.018944021
 30
0.0
 10
235.0990380219
 20
83.0016287302
 30
0.0
 10
235.0924358219
 20
82.9894503814
 30
0.0
 10
235.0884919057
 20
82.982581333
 30
0.0
 10
235.0860163274
 20
82.9771759926
 30
0.0
 10
235.0816969291
 20
82.9727398648
 30
0.0
 10
235.0765808764
 20
82.9664869555
 30
0.0
 10
235.0673281309
 20
82.9557018784
 30
0.0
 10
235.0542665856
 20
82.9402122749
 30
0.0
 10
235.0385256731
 20
82.9216600008
 30
0.0
 10
235.0175612195
 20
82.8969113158
 30
0.0
 10
234.9913475742
 20
82.8659797312
 30
0.0
 10
234.9598948314
 20
82.8288598046
 30
0.0
 10
234.9284404875
 20
82.7917411439
 30
0.0
 10
234.9022308452
 20
82.7608063946
 30
0.0
 10
234.8812583857
 20
82.7360640391
 30
0.0
 10
234.8655418913
 20
82.71749246
 30
0.0
 10
234.8524039558
 20
82.7020632506
 30
0.0
 10
234.8432875784
 20
82.6911703608
 30
0.0
 10
234.83795303
 20
82.6850901944
 30
0.0
 10
234.8343047803
 20
82.6801234558
 30
0.0
 10
234.8293084792
 20
82.6767110016
 30
0.0
 10
234.8231169598
 20
82.6716189108
 30
0.0
 10
234.8120627189
 20
82.6629603507
 30
0.0
 10
234.7963854849
 20
82.6504589172
 30
0.0
 10
234.7775237766
 20
82.6355137254
 30
0.0
 10
234.7523919628
 20
82.6155670503
 30
0.0
 10
234.7209712847
 20
82.5906405315
 30
0.0
 10
234.6832691476
 20
82.5607255772
 30
0.0
 10
234.6455657611
 20
82.5308122296
 30
0.0
 10
234.6141482066
 20
82.5058816938
 30
0.0
 10
234.5890101455
 20
82.4859430527
 30
0.0
 10
234.5701674917
 20
82.470973357
 30
0.0
 10
234.5544306471
 20
82.458548582
 30
0.0
 10
234.5434828203
 20
82.4497531748
 30
0.0
 10
234.5371207988
 20
82.4448803473
 30
0.0
 10
234.5326482257
 20
82.4407943869
 30
0.0
 10
234.5270329407
 20
82.4383572257
 30
0.0
 10
234.5199444848
 20
82.4345325578
 30
0.0
 10
234.5073539761
 20
82.428107348
 30
0.0
 10
234.489464627
 20
82.4187883845
 30
0.0
 10
234.4679558488
 20
82.4076655941
 30
0.0
 10
234.4392919983
 20
82.3928142527
 30
0.0
 10
234.40345718
 20
82.3742573186
 30
0.0
 10
234.3604576424
 20
82.351985664
 30
0.0
 10
234.3174571355
 20
82.3297157555
 30
0.0
 10
234.2816247403
 20
82.3111544564
 30
0.0
 10
234.2529560436
 20
82.296311845
 30
0.0
 10
234.2314620462
 20
82.2851624278
 30
0.0
 10
234.2135264566
 20
82.2759267641
 30
0.0
 10
234.2010184945
 20
82.2693528513
 30
0.0
 10
234.1937977783
 20
82.2657664429
 30
0.0
 10
234.1885887544
 20
82.2625974252
 30
0.0
 10
234.1825903322
 20
82.2612601965
 30
0.0
 10
234.1748677869
 20
82.2588382765
 30
0.0
 10
234.1612250415
 20
82.2548976144
 30
0.0
 10
234.1418024774
 20
82.2491124567
 30
0.0
 10
234.1184666908
 20
82.2422368886
 30
0.0
 10
234.0873623397
 20
82.2330461849
 30
0.0
 10
234.0484784418
 20
82.2215658492
 30
0.0
 10
234.0018193214
 20
82.2077857551
 30
0.0
 10
233.9551595069
 20
82.1940075555
 30
0.0
 10
233.9162773443
 20
82.1825224836
 30
0.0
 10
233.8851695227
 20
82.1733412522
 30
0.0
 10
233.8618443212
 20
82.1664367936
 30
0.0
 10
233.8423886423
 20
82.1607420173
 30
0.0
 10
233.828805012
 20
82.1566400107
 30
0.0
 10
233.8209877494
 20
82.1544766049
 30
0.0
 10
233.8152802684
 20
82.1523453034
 30
0.0
 10
233.8089785178
 20
82.1521586913
 30
0.0
 10
233.8007834717
 20
82.1512315457
 30
0.0
 10
233.7863455616
 20
82.1499250872
 30
0.0
 10
233.7657704686
 20
82.1478934853
 30
0.0
 10
233.7410587444
 20
82.1455262879
 30
0.0
 10
233.7081173277
 20
82.1423453219
 30
0.0
 10
233.666937972
 20
82.138377573
 30
0.0
 10
233.6010524479
 20
82.1320244456
 30
0.0
 10
233.5186950437
 20
82.1240846698
 30
0.0
 10
233.4528092725
 20
82.1177323514
 30
0.0
 10
233.4198663678
 20
82.1145562544
 30
0.0
  0
SPLINE
  5
2BE
330
1B
100
AcDbEntity
 67
     1
  8
0
  6
Continuous
 62
     2
100
AcDbSpline
 70
     0
 71
     3
 72
   251
 73
   247
 74
     0
 42
0.000000001
 43
0.0000001
 40
0.0
 40
0.0
 40
0.0
 40
0.0
 40
0.015625
 40
0.03125
 40
0.0390625
 40
0.046875
 40
0.05078125
 40
0.0546875
 40
0.05859375
 40
0.060546875
 40
0.0615234375
 40
0.0625
 40
0.0634765625
 40
0.064453125
 40
0.06640625
 40
0.0703125
 40
0.07421875
 40
0.078125
 40
0.0859375
 40
0.09375
 40
0.1015625
 40
0.109375
 40
0.11328125
 40
0.1171875
 40
0.12109375
 40
0.123046875
 40
0.1240234375
 40
0.125
 40
0.1259765625
 40
0.126953125
 40
0.12890625
 40
0.1328125
 40
0.13671875
 40
0.140625
 40
0.1484375
 40
0.15625
 40
0.1640625
 40
0.171875
 40
0.17578125
 40
0.1796875
 40
0.18359375
 40
0.185546875
 40
0.1865234375
 40
0.1875
 40
0.1884765625
 40
0.189453125
 40
0.19140625
 40
0.1953125
 40
0.19921875
 40
0.203125
 40
0.2109375
 40
0.21875
 40
0.2265625
 40
0.234375
 40
0.23828125
 40
0.2421875
 40
0.24609375
 40
0.248046875
 40
0.2490234375
 40
0.25
 40
0.2509765625
 40
0.251953125
 40
0.25390625
 40
0.2578125
 40
0.26171875
 40
0.265625
 40
0.2734375
 40
0.28125
 40
0.2890625
 40
0.296875
 40
0.30078125
 40
0.3046875
 40
0.30859375
 40
0.310546875
 40
0.3115234375
 40
0.3125
 40
0.3134765625
 40
0.314453125
 40
0.31640625
 40
0.3203125
 40
0.32421875
 40
0.328125
 40
0.3359375
 40
0.34375
 40
0.3515625
 40
0.359375
 40
0.36328125
 40
0.3671875
 40
0.37109375
 40
0.373046875
 40
0.3740234375
 40
0.375
 40
0.3759765625
 40
0.376953125
 40
0.37890625
 40
0.3828125
 40
0.38671875
 40
0.390625
 40
0.3984375
 40
0.40625
 40
0.4140625
 40
0.421875
 40
0.42578125
 40
0.4296875
 40
0.43359375
 40
0.435546875
 40
0.4365234375
 40
0.4375
 40
0.4384765625
 40
0.439453125
 40
0.44140625
 40
0.4453125
 40
0.44921875
 40
0.453125
 40
0.4609375
 40
0.46875
 40
0.4765625
 40
0.484375
 40
0.48828125
 40
0.4921875
 40
0.49609375
 40
0.498046875
 40
0.4990234375
 40
0.5
 40
0.5009765625
 40
0.501953125
 40
0.50390625
 40
0.5078125
 40
0.51171875
 40
0.515625
 40
0.5234375
 40
0.53125
 40
0.5390625
 40
0.546875
 40
0.55078125
 40
0.5546875
 40
0.55859375
 40
0.560546875
 40
0.5615234375
 40
0.5625
 40
0.5634765625
 40
0.564453125
 40
0.56640625
 40
0.5703125
 40
0.57421875
 40
0.578125
 40
0.5859375
 40
0.59375
 40
0.6015625
 40
0.609375
 40
0.61328125
 40
0.6171875
 40
0.62109375
 40
0.623046875
 40
0.6240234375
 40
0.625
 40
0.6259765625
 40
0.626953125
 40
0.62890625
 40
0.6328125
 40
0.63671875
 40
0.640625
 40
0.6484375
 40
0.65625
 40
0.6640625
 40
0.671875
 40
0.67578125
 40
0.6796875
 40
0.68359375
 40
0.685546875
 40
0.6865234375
 40
0.6875
 40
0.6884765625
 40
0.689453125
 40
0.69140625
 40
0.6953125
 40
0.69921875
 40
0.703125
 40
0.7109375
 40
0.71875
 40
0.7265625
 40
0.734375
 40
0.73828125
 40
0.7421875
 40
0.74609375
 40
0.748046875
 40
0.7490234375
 40
0.75
 40
0.7509765625
 40
0.751953125
 40
0.75390625
 40
0.7578125
 40
0.76171875
 40
0.765625
 40
0.7734375
 40
0.78125
 40
0.7890625
 40
0.796875
 40
0.80078125
 40
0.8046875
 40
0.80859375
 40
0.810546875
 40
0.8115234375
 40
0.8125
 40
0.8134765625
 40
0.814453125
 40
0.81640625
 40
0.8203125
 40
0.82421875
 40
0.828125
 40
0.8359375
 40
0.84375
 40
0.8515625
 40
0.859375
 40
0.86328125
 40
0.8671875
 40
0.87109375
 40
0.873046875
 40
0.8740234375
 40
0.875
 40
0.8759765625
 40
0.876953125
 40
0.87890625
 40
0.8828125
 40
0.88671875
 40
0.890625
 40
0.8984375
 40
0.90625
 40
0.9140625
 40
0.921875
 40
0.92578125
 40
0.9296875
 40
0.93359375
 40
0.935546875
 40
0.9365234375
 40
0.9375
 40
0.9384765625
 40
0.939453125
 40
0.94140625
 40
0.9453125
 40
0.94921875
 40
0.953125
 40
0.9609375
 40
0.96875
 40
0.984375
 40
1.0
 40
1.0
 40
1.0
 40
1.0
 10
44.4198665427
 20
82.1145562544
 30
0.0
 10
44.3874941508
 20
82.1176222389
 30
0.0
 10
44.3227493926
 20
82.1237543326
 30
0.0
 10
44.2418183172
 20
82.1314188269
 30
0.0
 10
44.1770737249
 20
82.1375517302
 30
0.0
 10
44.1366077484
 20
82.1413818365
 30
0.0
 10
44.1042363555
 20
82.1444526943
 30
0.0
 10
44.0799540097
 20
82.1467372946
 30
0.0
 10
44.0597308134
 20
82.1487001162
 30
0.0
 10
44.0455508459
 20
82.149958329
 30
0.0
 10
44.03748506
 20
82.1508580611
 30
0.0
 10
44.0313313427
 20
82.151023675
 30
0.0
 10
44.0255766108
 20
82.1531356528
 30
0.0
 10
44.0177644643
 20
82.1552727096
 30
0.0
 10
44.0041580502
 20
82.1593288776
 30
0.0
 10
43.9846864154
 20
82.1649580279
 30
0.0
 10
43.9613349648
 20
82.1717837961
 30
0.0
 10
43.9301946253
 20
82.1808600859
 30
0.0
 10
43.8912709636
 20
82.192213988
 30
0.0
 10
43.8445617163
 20
82.2058347804
 30
0.0
 10
43.7978530618
 20
82.2194574695
 30
0.0
 10
43.7589279181
 20
82.23080663
 30
0.0
 10
43.7277905427
 20
82.2398924029
 30
0.0
 10
43.7044300515
 20
82.2466892476
 30
0.0
 10
43.6849866994
 20
82.2524088827
 30
0.0
 10
43.6713297964
 20
82.2563035214
 30
0.0
 10
43.6635985458
 20
82.2586993886
 30
0.0
 10
43.6575953277
 20
82.2600163841
 30
0.0
 10
43.6523748834
 20
82.2631678192
 30
0.0
 10
43.6451412507
 20
82.2667298597
 30
0.0
 10
43.632609608
 20
82.2732615592
 30
0.0
 10
43.6146407519
 20
82.2824366929
 30
0.0
 10
43.5931065937
 20
82.2935135708
 30
0.0
 10
43.5643844341
 20
82.3082594287
 30
0.0
 10
43.5284851772
 20
82.3266998017
 30
0.0
 10
43.4854044678
 20
82.3488245756
 30
0.0
 10
43.4423246544
 20
82.3709511631
 30
0.0
 10
43.4064231573
 20
82.3893870019
 30
0.0
 10
43.3777054779
 20
82.4041419282
 30
0.0
 10
43.3561576553
 20
82.4151911476
 30
0.0
 10
43.3382315472
 20
82.4244528084
 30
0.0
 10
43.3256235928
 20
82.4308300439
 30
0.0
 10
43.3185122306
 20
82.4346395744
 30
0.0
 10
43.3129162104
 20
82.4370307994
 30
0.0
 10
43.308323593
 20
82.4412030178
 30
0.0
 10
43.3018501049
 20
82.4461447452
 30
0.0
 10
43.2906845715
 20
82.4550822111
 30
0.0
 10
43.2746485539
 20
82.4676986951
 30
0.0
 10
43.2554418265
 20
82.482903249
 30
0.0
 10
43.2298201024
 20
82.5031533561
 30
0.0
 10
43.1977973697
 20
82.5284737931
 30
0.0
 10
43.1593679938
 20
82.5588548096
 30
0.0
 10
43.1209399285
 20
82.5892373728
 30
0.0
 10
43.0889139195
 20
82.6145539432
 30
0.0
 10
43.0632987481
 20
82.6348117835
 30
0.0
 10
43.0440720347
 20
82.6499927513
 30
0.0
 10
43.0280985417
 20
82.6626830225
 30
0.0
 10
43.0168213923
 20
82.6714887669
 30
0.0
 10
43.0105267409
 20
82.676641545
 30
0.0
 10
43.0053847947
 20
82.6801654836
 30
0.0
 10
43.0018519622
 20
82.6849915398
 30
0.0
 10
42.9965802419
 20
82.6909720883
 30
0.0
 10
42.9876162408
 20
82.7016496651
 30
0.0
 10
42.9746738045
 20
82.7167927103
 30
0.0
 10
42.9592014035
 20
82.7350117215
 30
0.0
 10
42.9385510858
 20
82.7592871894
 30
0.0
 10
42.9127452546
 20
82.789637234
 30
0.0
 10
42.881775015
 20
82.8260547019
 30
0.0
 10
42.8508064388
 20
82.8624733766
 30
0.0
 10
42.8249964489
 20
82.8928204039
 30
0.0
 10
42.8043544487
 20
82.9171019064
 30
0.0
 10
42.7888566793
 20
82.9353025123
 30
0.0
 10
42.7759936057
 20
82.9505031369
 30
0.0
 10
42.7668879301
 20
82.9610779256
 30
0.0
 10
42.7618432078
 20
82.9672231665
 30
0.0
 10
42.7576131104
 20
82.9715433404
 30
0.0
 10
42.7550899755
 20
82.9769672891
 30
0.0
 10
42.7511303879
 20
82.9838142118
 30
0.0
 10
42.7444785213
 20
82.9959757093
 30
0.0
 10
42.7348308203
 20
83.0132554935
 30
0.0
 10
42.7233156604
 20
83.0340313779
 30
0.0
 10
42.7079404203
 20
83.0617185314
 30
0.0
 10
42.6887288685
 20
83.0963323079
 30
0.0
 10
42.665671555
 20
83.1378666718
 30
0.0
 10
42.6426160492
 20
83.1794019719
 30
0.0
 10
42.6233999783
 20
83.2140134079
 30
0.0
 10
42.6080337763
 20
83.2417052424
 30
0.0
 10
42.5964910503
 20
83.2624668496
 30
0.0
 10
42.5869295876
 20
83.2797912988
 30
0.0
 10
42.5801237723
 20
83.2918730625
 30
0.0
 10
42.5764108491
 20
83.2988477387
 30
0.0
 10
42.5731300405
 20
83.3038792694
 30
0.0
 10
42.5717456396
 20
83.3096733004
 30
0.0
 10
42.5692382834
 20
83.3171327063
 30
0.0
 10
42.5651586098
 20
83.3303105864
 30
0.0
 10
42.5591693739
 20
83.3490713427
 30
0.0
 10
42.552051262
 20
83.3716119817
 30
0.0
 10
42.5425363454
 20
83.4016564777
 30
0.0
 10
42.5306510272
 20
83.4392154389
 30
0.0
 10
42.5163848241
 20
83.4842846883
 30
0.0
 10
42.5021205822
 20
83.5293546082
 30
0.0
 10
42.4902303608
 20
83.5669118933
 30
0.0
 10
42.4807252506
 20
83.5969597415
 30
0.0
 10
42.4735772292
 20
83.619490156
 30
0.0
 10
42.4676815629
 20
83.6382828987
 30
0.0
 10
42.4634348532
 20
83.6514036782
 30
0.0
 10
42.4611951307
 20
83.6589545737
 30
0.0
 10
42.458988645
 20
83.664467578
 30
0.0
 10
42.4587954499
 20
83.670554598
 30
0.0
 10
42.4578355982
 20
83.6784704015
 30
0.0
 10
42.4564830529
 20
83.6924163454
 30
0.0
 10
42.4543797834
 20
83.7122903504
 30
0.0
 10
42.4519290822
 20
83.7361600324
 30
0.0
 10
42.4486358945
 20
83.7679789835
 30
0.0
 10
42.4445282495
 20
83.8077551694
 30
0.0
 10
42.4395950249
 20
83.8554855441
 30
0.0
 10
42.4346638592
 20
83.9032161172
 30
0.0
 10
42.4305510669
 20
83.9429918068
 30
0.0
 10
42.4272681739
 20
83.9748117504
 30
0.0
 10
42.4247860741
 20
83.9986784052
 30
0.0
 10
42.4227810322
 20
84.0185618806
 30
0.0
 10
42.4212531358
 20
84.0324909185
 30
0.0
 10
42.4205742404
 20
84.0404338096
 30
0.0
 10
42.4195180374
 20
84.0464376251
 30
0.0
 10
42.420552866
 20
84.0522631317
 30
0.0
 10
42.4212032622
 20
84.06009267
 30
0.0
 10
42.422681285
 20
84.0737653836
 30
0.0
 10
42.424615079
 20
84.0933129819
 30
0.0
 10
42.4270116811
 20
84.1167636147
 30
0.0
 10
42.4301805773
 20
84.148033392
 30
0.0
 10
42.4341508737
 20
84.1871198247
 30
0.0
 10
42.438911044
 20
84.2340239303
 30
0.0
 10
42.4436732741
 20
84.2809277531
 30
0.0
 10
42.4476384211
 20
84.3200148928
 30
0.0
 10
42.4508176162
 20
84.3512832562
 30
0.0
 10
42.4531828066
 20
84.3747382013
 30
0.0
 10
42.4552148696
 20
84.3942723088
 30
0.0
 10
42.4565174673
 20
84.4079691056
 30
0.0
 10
42.4574489385
 20
84.4157600565
 30
0.0
 10
42.4576203946
 20
84.4217040911
 30
0.0
 10
42.4598068749
 20
84.4272627352
 30
0.0
 10
42.462019319
 20
84.4348086892
 30
0.0
 10
42.466218573
 20
84.447951476
 30
0.0
 10
42.4720462983
 20
84.466759631
 30
0.0
 10
42.4791128535
 20
84.4893154002
 30
0.0
 10
42.4885093201
 20
84.5193946584
 30
0.0
 10
42.5002637445
 20
84.5569920284
 30
0.0
 10
42.5143650265
 20
84.6021096967
 30
0.0
 10
42.5284682719
 20
84.6472267924
 30
0.0
 10
42.5402177876
 20
84.684825594
 30
0.0
 10
42.5496240718
 20
84.7149019891
 30
0.0
 10
42.5566606832
 20
84.7374664909
 30
0.0
 10
42.5625820852
 20
84.7562473268
 30
0.0
 10
42.5666141119
 20
84.7694388822
 30
0.0
 10
42.5690944961
 20
84.7769066967
 30
0.0
 10
42.5704579502
 20
84.7827053602
 30
0.0
 10
42.5737205559
 20
84.7877479222
 30
0.0
 10
42.5774082515
 20
84.7947350748
 30
0.0
 10
42.5841703644
 20
84.8068397121
 30
0.0
 10
42.5936691619
 20
84.8241962943
 30
0.0
 10
42.6051367897
 20
84.8449966938
 30
0.0
 10
42.6204028252
 20
84.8727401695
 30
0.0
 10
42.639493704
 20
84.907416189
 30
0.0
 10
42.6623989554
 20
84.9490289588
 30
0.0
 10
42.6853060845
 20
84.9906408632
 30
0.0
 10
42.7043922692
 20
85.0253190464
 30
0.0
 10
42.7196676929
 20
85.0530581946
 30
0.0
 10
42.7311066866
 20
85.073871793
 30
0.0
 10
42.7406950635
 20
85.0911870837
 30
0.0
 10
42.7472972635
 20
85.1033654325
 30
0.0
 10
42.7512411796
 20
85.1102344809
 30
0.0
 10
42.7537167579
 20
85.1156398213
 30
0.0
 10
42.7580361563
 20
85.1200759491
 30
0.0
 10
42.763152209
 20
85.1263288584
 30
0.0
 10
42.7724049544
 20
85.1371139355
 30
0.0
 10
42.7854664998
 20
85.152603539
 30
0.0
 10
42.8012074123
 20
85.1711558131
 30
0.0
 10
42.8221718659
 20
85.1959044982
 30
0.0
 10
42.8483855112
 20
85.2268360827
 30
0.0
 10
42.8798382539
 20
85.2639560093
 30
0.0
 10
42.9112925979
 20
85.30107467
 30
0.0
 10
42.9375022402
 20
85.3320094193
 30
0.0
 10
42.9584746997
 20
85.3567517749
 30
0.0
 10
42.9741911941
 20
85.3753233539
 30
0.0
 10
42.9873291295
 20
85.3907525634
 30
0.0
 10
42.996445507
 20
85.4016454531
 30
0.0
 10
43.0017800554
 20
85.4077256195
 30
0.0
 10
43.0054283051
 20
85.4126923582
 30
0.0
 10
43.0104246062
 20
85.4161048123
 30
0.0
 10
43.0166161255
 20
85.4211969031
 30
0.0
 10
43.0276703665
 20
85.4298554632
 30
0.0
 10
43.0433476005
 20
85.4423568967
 30
0.0
 10
43.0622093088
 20
85.4573020885
 30
0.0
 10
43.0873411225
 20
85.4772487637
 30
0.0
 10
43.1187618007
 20
85.5021752825
 30
0.0
 10
43.1564639378
 20
85.5320902368
 30
0.0
 10
43.1941673243
 20
85.5620035843
 30
0.0
 10
43.2255848788
 20
85.5869341201
 30
0.0
 10
43.2507229399
 20
85.6068727612
 30
0.0
 10
43.2695655936
 20
85.6218424569
 30
0.0
 10
43.2853024383
 20
85.634267232
 30
0.0
 10
43.2962502651
 20
85.6430626391
 30
0.0
 10
43.3026122866
 20
85.6479354667
 30
0.0
 10
43.3070848597
 20
85.6520214271
 30
0.0
 10
43.3127001447
 20
85.6544585882
 30
0.0
 10
43.3197886006
 20
85.6582832561
 30
0.0
 10
43.3323791093
 20
85.6647084659
 30
0.0
 10
43.3502684583
 20
85.6740274294
 30
0.0
 10
43.3717772366
 20
85.6851502198
 30
0.0
 10
43.400441087
 20
85.7000015613
 30
0.0
 10
43.4362759054
 20
85.7185584954
 30
0.0
 10
43.479275443
 20
85.7408301499
 30
0.0
 10
43.5222759498
 20
85.7631000584
 30
0.0
 10
43.5581083451
 20
85.7816613576
 30
0.0
 10
43.5867770417
 20
85.7965039689
 30
0.0
 10
43.6082710391
 20
85.8076533861
 30
0.0
 10
43.6262066288
 20
85.8168890498
 30
0.0
 10
43.6387145909
 20
85.8234629626
 30
0.0
 10
43.6459353071
 20
85.827049371
 30
0.0
 10
43.651144331
 20
85.8302183888
 30
0.0
 10
43.6571427532
 20
85.8315556174
 30
0.0
 10
43.6648652985
 20
85.8339775375
 30
0.0
 10
43.6785080439
 20
85.8379181996
 30
0.0
 10
43.697930608
 20
85.8437033572
 30
0.0
 10
43.7212663946
 20
85.8505789253
 30
0.0
 10
43.7523707457
 20
85.859769629
 30
0.0
 10
43.7912546436
 20
85.8712499648
 30
0.0
 10
43.837913764
 20
85.8850300588
 30
0.0
 10
43.8845735784
 20
85.8988082585
 30
0.0
 10
43.9234557411
 20
85.9102933304
 30
0.0
 10
43.9545635627
 20
85.9194745618
 30
0.0
 10
43.9778887641
 20
85.9263790203
 30
0.0
 10
43.9973444431
 20
85.9320737967
 30
0.0
 10
44.0109280734
 20
85.9361758032
 30
0.0
 10
44.018745336
 20
85.9383392091
 30
0.0
 10
44.024452817
 20
85.9404705105
 30
0.0
 10
44.0307545675
 20
85.9406571226
 30
0.0
 10
44.0389496137
 20
85.9415842682
 30
0.0
 10
44.0533875237
 20
85.9428907267
 30
0.0
 10
44.0739626168
 20
85.9449223286
 30
0.0
 10
44.098674341
 20
85.947289526
 30
0.0
 10
44.1316157577
 20
85.950470492
 30
0.0
 10
44.1727951134
 20
85.954438241
 30
0.0
 10
44.2386806375
 20
85.9607913683
 30
0.0
 10
44.3210380417
 20
85.9687311441
 30
0.0
 10
44.3869238129
 20
85.9750834626
 30
0.0
 10
44.4198667175
 20
85.9782595595
 30
0.0
  0
SPLINE
  5
2BF
330
1B
100
AcDbEntity
 67
     1
  8
0
  6
Continuous
 62
     2
100
AcDbSpline
 70
     0
 71
     3
 72
   251
 73
   247
 74
     0
 42
0.000000001
 43
0.0000001
 40
0.0
 40
0.0
 40
0.0
 40
0.0
 40
0.015625
 40
0.03125
 40
0.0390625
 40
0.046875
 40
0.05078125
 40
0.0546875
 40
0.05859375
 40
0.060546875
 40
0.0615234375
 40
0.0625
 40
0.0634765625
 40
0.064453125
 40
0.06640625
 40
0.0703125
 40
0.07421875
 40
0.078125
 40
0.0859375
 40
0.09375
 40
0.1015625
 40
0.109375
 40
0.11328125
 40
0.1171875
 40
0.12109375
 40
0.123046875
 40
0.1240234375
 40
0.125
 40
0.1259765625
 40
0.126953125
 40
0.12890625
 40
0.1328125
 40
0.13671875
 40
0.140625
 40
0.1484375
 40
0.15625
 40
0.1640625
 40
0.171875
 40
0.17578125
 40
0.1796875
 40
0.18359375
 40
0.185546875
 40
0.1865234375
 40
0.1875
 40
0.1884765625
 40
0.189453125
 40
0.19140625
 40
0.1953125
 40
0.19921875
 40
0.203125
 40
0.2109375
 40
0.21875
 40
0.2265625
 40
0.234375
 40
0.23828125
 40
0.2421875
 40
0.24609375
 40
0.248046875
 40
0.2490234375
 40
0.25
 40
0.2509765625
 40
0.251953125
 40
0.25390625
 40
0.2578125
 40
0.26171875
 40
0.265625
 40
0.2734375
 40
0.28125
 40
0.2890625
 40
0.296875
 40
0.30078125
 40
0.3046875
 40
0.30859375
 40
0.310546875
 40
0.3115234375
 40
0.3125
 40
0.3134765625
 40
0.314453125
 40
0.31640625
 40
0.3203125
 40
0.32421875
 40
0.328125
 40
0.3359375
 40
0.34375
 40
0.3515625
 40
0.359375
 40
0.36328125
 40
0.3671875
 40
0.37109375
 40
0.373046875
 40
0.3740234375
 40
0.375
 40
0.3759765625
 40
0.376953125
 40
0.37890625
 40
0.3828125
 40
0.38671875
 40
0.390625
 40
0.3984375
 40
0.40625
 40
0.4140625
 40
0.421875
 40
0.42578125
 40
0.4296875
 40
0.43359375
 40
0.435546875
 40
0.4365234375
 40
0.4375
 40
0.4384765625
 40
0.439453125
 40
0.44140625
 40
0.4453125
 40
0.44921875
 40
0.453125
 40
0.4609375
 40
0.46875
 40
0.4765625
 40
0.484375
 40
0.48828125
 40
0.4921875
 40
0.49609375
 40
0.498046875
 40
0.4990234375
 40
0.5
 40
0.5009765625
 40
0.501953125
 40
0.50390625
 40
0.5078125
 40
0.51171875
 40
0.515625
 40
0.5234375
 40
0.53125
 40
0.5390625
 40
0.546875
 40
0.55078125
 40
0.5546875
 40
0.55859375
 40
0.560546875
 40
0.5615234375
 40
0.5625
 40
0.5634765625
 40
0.564453125
 40
0.56640625
 40
0.5703125
 40
0.57421875
 40
0.578125
 40
0.5859375
 40
0.59375
 40
0.6015625
 40
0.609375
 40
0.61328125
 40
0.6171875
 40
0.62109375
 40
0.623046875
 40
0.6240234375
 40
0.625
 40
0.6259765625
 40
0.626953125
 40
0.62890625
 40
0.6328125
 40
0.63671875
 40
0.640625
 40
0.6484375
 40
0.65625
 40
0.6640625
 40
0.671875
 40
0.67578125
 40
0.6796875
 40
0.68359375
 40
0.685546875
 40
0.6865234375
 40
0.6875
 40
0.6884765625
 40
0.689453125
 40
0.69140625
 40
0.6953125
 40
0.69921875
 40
0.703125
 40
0.7109375
 40
0.71875
 40
0.7265625
 40
0.734375
 40
0.73828125
 40
0.7421875
 40
0.74609375
 40
0.748046875
 40
0.7490234375
 40
0.75
 40
0.7509765625
 40
0.751953125
 40
0.75390625
 40
0.7578125
 40
0.76171875
 40
0.765625
 40
0.7734375
 40
0.78125
 40
0.7890625
 40
0.796875
 40
0.80078125
 40
0.8046875
 40
0.80859375
 40
0.810546875
 40
0.8115234375
 40
0.8125
 40
0.8134765625
 40
0.814453125
 40
0.81640625
 40
0.8203125
 40
0.82421875
 40
0.828125
 40
0.8359375
 40
0.84375
 40
0.8515625
 40
0.859375
 40
0.86328125
 40
0.8671875
 40
0.87109375
 40
0.873046875
 40
0.8740234375
 40
0.875
 40
0.8759765625
 40
0.876953125
 40
0.87890625
 40
0.8828125
 40
0.88671875
 40
0.890625
 40
0.8984375
 40
0.90625
 40
0.9140625
 40
0.921875
 40
0.92578125
 40
0.9296875
 40
0.93359375
 40
0.935546875
 40
0.9365234375
 40
0.9375
 40
0.9384765625
 40
0.939453125
 40
0.94140625
 40
0.9453125
 40
0.94921875
 40
0.953125
 40
0.9609375
 40
0.96875
 40
0.984375
 40
1.0
 40
1.0
 40
1.0
 40
1.0
 10
44.4198665427
 20
85.9782595595
 30
0.0
 10
44.4522389346
 20
85.975193575
 30
0.0
 10
44.5169836928
 20
85.9690614813
 30
0.0
 10
44.5979147682
 20
85.961396987
 30
0.0
 10
44.6626593604
 20
85.9552640838
 30
0.0
 10
44.703125337
 20
85.9514339774
 30
0.0
 10
44.7354967299
 20
85.9483631197
 30
0.0
 10
44.7597790757
 20
85.9460785194
 30
0.0
 10
44.7800022719
 20
85.9441156977
 30
0.0
 10
44.7941822394
 20
85.9428574849
 30
0.0
 10
44.8022480253
 20
85.9419577528
 30
0.0
 10
44.8084017427
 20
85.9417921389
 30
0.0
 10
44.8141564746
 20
85.9396801611
 30
0.0
 10
44.821968621
 20
85.9375431043
 30
0.0
 10
44.8355750351
 20
85.9334869363
 30
0.0
 10
44.8550466699
 20
85.927857786
 30
0.0
 10
44.8783981205
 20
85.9210320178
 30
0.0
 10
44.9095384601
 20
85.9119557281
 30
0.0
 10
44.9484621218
 20
85.9006018259
 30
0.0
 10
44.9951713691
 20
85.8869810335
 30
0.0
 10
45.0418800235
 20
85.8733583445
 30
0.0
 10
45.0808051673
 20
85.8620091839
 30
0.0
 10
45.1119425427
 20
85.8529234111
 30
0.0
 10
45.1353030339
 20
85.8461265663
 30
0.0
 10
45.154746386
 20
85.8404069312
 30
0.0
 10
45.168403289
 20
85.8365122925
 30
0.0
 10
45.1761345396
 20
85.8341164254
 30
0.0
 10
45.1821377577
 20
85.8327994298
 30
0.0
 10
45.187358202
 20
85.8296479947
 30
0.0
 10
45.1945918347
 20
85.8260859543
 30
0.0
 10
45.2071234774
 20
85.8195542548
 30
0.0
 10
45.2250923335
 20
85.810379121
 30
0.0
 10
45.2466264916
 20
85.7993022431
 30
0.0
 10
45.2753486512
 20
85.7845563852
 30
0.0
 10
45.3112479082
 20
85.7661160123
 30
0.0
 10
45.3543286176
 20
85.7439912384
 30
0.0
 10
45.397408431
 20
85.7218646508
 30
0.0
 10
45.433309928
 20
85.703428812
 30
0.0
 10
45.4620276075
 20
85.6886738858
 30
0.0
 10
45.4835754301
 20
85.6776246663
 30
0.0
 10
45.5015015382
 20
85.6683630055
 30
0.0
 10
45.5141094926
 20
85.66198577
 30
0.0
 10
45.5212208548
 20
85.6581762395
 30
0.0
 10
45.526816875
 20
85.6557850145
 30
0.0
 10
45.5314094924
 20
85.6516127961
 30
0.0
 10
45.5378829804
 20
85.6466710687
 30
0.0
 10
45.5490485139
 20
85.6377336029
 30
0.0
 10
45.5650845314
 20
85.6251171189
 30
0.0
 10
45.5842912589
 20
85.6099125649
 30
0.0
 10
45.609912983
 20
85.5896624578
 30
0.0
 10
45.6419357157
 20
85.5643420208
 30
0.0
 10
45.6803650915
 20
85.5339610043
 30
0.0
 10
45.7187931568
 20
85.5035784411
 30
0.0
 10
45.7508191659
 20
85.4782618707
 30
0.0
 10
45.7764343373
 20
85.4580040304
 30
0.0
 10
45.7956610507
 20
85.4428230626
 30
0.0
 10
45.8116345437
 20
85.4301327915
 30
0.0
 10
45.822911693
 20
85.421327047
 30
0.0
 10
45.8292063444
 20
85.416174269
 30
0.0
 10
45.8343482907
 20
85.4126503304
 30
0.0
 10
45.8378811232
 20
85.4078242741
 30
0.0
 10
45.8431528435
 20
85.4018437257
 30
0.0
 10
45.8521168445
 20
85.3911661488
 30
0.0
 10
45.8650592808
 20
85.3760231036
 30
0.0
 10
45.8805316819
 20
85.3578040924
 30
0.0
 10
45.9011819996
 20
85.3335286245
 30
0.0
 10
45.9269878307
 20
85.30317858
 30
0.0
 10
45.9579580704
 20
85.2667611121
 30
0.0
 10
45.9889266465
 20
85.2303424373
 30
0.0
 10
46.0147366364
 20
85.19999541
 30
0.0
 10
46.0353786367
 20
85.1757139075
 30
0.0
 10
46.050876406
 20
85.1575133017
 30
0.0
 10
46.0637394797
 20
85.142312677
 30
0.0
 10
46.0728451552
 20
85.1317378883
 30
0.0
 10
46.0778898775
 20
85.1255926475
 30
0.0
 10
46.082119975
 20
85.1212724736
 30
0.0
 10
46.0846431099
 20
85.1158485248
 30
0.0
 10
46.0886026974
 20
85.1090016022
 30
0.0
 10
46.0952545641
 20
85.0968401047
 30
0.0
 10
46.1049022651
 20
85.0795603204
 30
0.0
 10
46.116417425
 20
85.058784436
 30
0.0
 10
46.1317926651
 20
85.0310972825
 30
0.0
 10
46.1510042169
 20
84.996483506
 30
0.0
 10
46.1740615303
 20
84.9549491421
 30
0.0
 10
46.1971170362
 20
84.913413842
 30
0.0
 10
46.2163331071
 20
84.8788024061
 30
0.0
 10
46.231699309
 20
84.8511105715
 30
0.0
 10
46.2432420351
 20
84.8303489644
 30
0.0
 10
46.2528034977
 20
84.8130245151
 30
0.0
 10
46.259609313
 20
84.8009427514
 30
0.0
 10
46.2633222363
 20
84.7939680752
 30
0.0
 10
46.2666030449
 20
84.7889365445
 30
0.0
 10
46.2679874458
 20
84.7831425136
 30
0.0
 10
46.270494802
 20
84.7756831076
 30
0.0
 10
46.2745744756
 20
84.7625052275
 30
0.0
 10
46.2805637115
 20
84.7437444712
 30
0.0
 10
46.2876818234
 20
84.7212038322
 30
0.0
 10
46.29719674
 20
84.6911593363
 30
0.0
 10
46.3090820581
 20
84.653600375
 30
0.0
 10
46.3233482613
 20
84.6085311256
 30
0.0
 10
46.3376125032
 20
84.5634612058
 30
0.0
 10
46.3495027245
 20
84.5259039207
 30
0.0
 10
46.3590078347
 20
84.4958560724
 30
0.0
 10
46.3661558562
 20
84.4733256579
 30
0.0
 10
46.3720515225
 20
84.4545329152
 30
0.0
 10
46.3762982322
 20
84.4414121357
 30
0.0
 10
46.3785379547
 20
84.4338612402
 30
0.0
 10
46.3807444404
 20
84.4283482359
 30
0.0
 10
46.3809376354
 20
84.4222612159
 30
0.0
 10
46.3818974872
 20
84.4143454124
 30
0.0
 10
46.3832500325
 20
84.4003994686
 30
0.0
 10
46.385353302
 20
84.3805254635
 30
0.0
 10
46.3878040032
 20
84.3566557815
 30
0.0
 10
46.3910971908
 20
84.3248368304
 30
0.0
 10
46.3952048359
 20
84.2850606445
 30
0.0
 10
46.4001380605
 20
84.2373302699
 30
0.0
 10
46.4050692261
 20
84.1895996967
 30
0.0
 10
46.4091820185
 20
84.1498240071
 30
0.0
 10
46.4124649115
 20
84.1180040635
 30
0.0
 10
46.4149470112
 20
84.0941374087
 30
0.0
 10
46.4169520532
 20
84.0742539333
 30
0.0
 10
46.4184799496
 20
84.0603248954
 30
0.0
 10
46.419158845
 20
84.0523820043
 30
0.0
 10
46.4202150479
 20
84.0463781888
 30
0.0
 10
46.4191802194
 20
84.0405526822
 30
0.0
 10
46.4185298232
 20
84.032723144
 30
0.0
 10
46.4170518004
 20
84.0190504304
 30
0.0
 10
46.4151180064
 20
83.9995028321
 30
0.0
 10
46.4127214043
 20
83.9760521993
 30
0.0
 10
46.409552508
 20
83.9447824219
 30
0.0
 10
46.4055822116
 20
83.9056959892
 30
0.0
 10
46.4008220413
 20
83.8587918836
 30
0.0
 10
46.3960598112
 20
83.8118880609
 30
0.0
 10
46.3920946643
 20
83.7728009212
 30
0.0
 10
46.3889154691
 20
83.7415325577
 30
0.0
 10
46.3865502787
 20
83.7180776126
 30
0.0
 10
46.3845182158
 20
83.6985435051
 30
0.0
 10
46.3832156181
 20
83.6848467083
 30
0.0
 10
46.3822841469
 20
83.6770557574
 30
0.0
 10
46.3821126907
 20
83.6711117228
 30
0.0
 10
46.3799262105
 20
83.6655530787
 30
0.0
 10
46.3777137664
 20
83.6580071247
 30
0.0
 10
46.3735145124
 20
83.6448643379
 30
0.0
 10
46.3676867871
 20
83.626056183
 30
0.0
 10
46.3606202318
 20
83.6035004137
 30
0.0
 10
46.3512237653
 20
83.5734211555
 30
0.0
 10
46.3394693408
 20
83.5358237855
 30
0.0
 10
46.3253680589
 20
83.4907061172
 30
0.0
 10
46.3112648134
 20
83.4455890215
 30
0.0
 10
46.2995152978
 20
83.4079902199
 30
0.0
 10
46.2901090136
 20
83.3779138248
 30
0.0
 10
46.2830724022
 20
83.3553493231
 30
0.0
 10
46.2771510002
 20
83.3365684871
 30
0.0
 10
46.2731189735
 20
83.3233769318
 30
0.0
 10
46.2706385893
 20
83.3159091172
 30
0.0
 10
46.2692751352
 20
83.3101104538
 30
0.0
 10
46.2660125295
 20
83.3050678918
 30
0.0
 10
46.2623248339
 20
83.2980807391
 30
0.0
 10
46.2555627209
 20
83.2859761018
 30
0.0
 10
46.2460639235
 20
83.2686195197
 30
0.0
 10
46.2345962957
 20
83.2478191201
 30
0.0
 10
46.2193302602
 20
83.2200756444
 30
0.0
 10
46.2002393814
 20
83.1853996249
 30
0.0
 10
46.1773341299
 20
83.1437868551
 30
0.0
 10
46.1544270009
 20
83.1021749508
 30
0.0
 10
46.1353408162
 20
83.0674967676
 30
0.0
 10
46.1200653924
 20
83.0397576193
 30
0.0
 10
46.1086263988
 20
83.018944021
 30
0.0
 10
46.0990380219
 20
83.0016287302
 30
0.0
 10
46.0924358219
 20
82.9894503814
 30
0.0
 10
46.0884919057
 20
82.982581333
 30
0.0
 10
46.0860163274
 20
82.9771759926
 30
0.0
 10
46.0816969291
 20
82.9727398648
 30
0.0
 10
46.0765808764
 20
82.9664869555
 30
0.0
 10
46.0673281309
 20
82.9557018784
 30
0.0
 10
46.0542665856
 20
82.9402122749
 30
0.0
 10
46.0385256731
 20
82.9216600008
 30
0.0
 10
46.0175612195
 20
82.8969113158
 30
0.0
 10
45.9913475742
 20
82.8659797312
 30
0.0
 10
45.9598948314
 20
82.8288598046
 30
0.0
 10
45.9284404875
 20
82.7917411439
 30
0.0
 10
45.9022308452
 20
82.7608063946
 30
0.0
 10
45.8812583857
 20
82.7360640391
 30
0.0
 10
45.8655418913
 20
82.71749246
 30
0.0
 10
45.8524039558
 20
82.7020632506
 30
0.0
 10
45.8432875784
 20
82.6911703608
 30
0.0
 10
45.83795303
 20
82.6850901944
 30
0.0
 10
45.8343047803
 20
82.6801234558
 30
0.0
 10
45.8293084792
 20
82.6767110016
 30
0.0
 10
45.8231169598
 20
82.6716189108
 30
0.0
 10
45.8120627189
 20
82.6629603507
 30
0.0
 10
45.7963854849
 20
82.6504589172
 30
0.0
 10
45.7775237766
 20
82.6355137254
 30
0.0
 10
45.7523919628
 20
82.6155670503
 30
0.0
 10
45.7209712847
 20
82.5906405315
 30
0.0
 10
45.6832691476
 20
82.5607255772
 30
0.0
 10
45.6455657611
 20
82.5308122296
 30
0.0
 10
45.6141482066
 20
82.5058816938
 30
0.0
 10
45.5890101455
 20
82.4859430527
 30
0.0
 10
45.5701674917
 20
82.470973357
 30
0.0
 10
45.5544306471
 20
82.458548582
 30
0.0
 10
45.5434828203
 20
82.4497531748
 30
0.0
 10
45.5371207988
 20
82.4448803473
 30
0.0
 10
45.5326482257
 20
82.4407943869
 30
0.0
 10
45.5270329407
 20
82.4383572257
 30
0.0
 10
45.5199444848
 20
82.4345325578
 30
0.0
 10
45.5073539761
 20
82.428107348
 30
0.0
 10
45.489464627
 20
82.4187883845
 30
0.0
 10
45.4679558488
 20
82.4076655941
 30
0.0
 10
45.4392919983
 20
82.3928142527
 30
0.0
 10
45.40345718
 20
82.3742573186
 30
0.0
 10
45.3604576424
 20
82.351985664
 30
0.0
 10
45.3174571355
 20
82.3297157555
 30
0.0
 10
45.2816247403
 20
82.3111544564
 30
0.0
 10
45.2529560436
 20
82.296311845
 30
0.0
 10
45.2314620462
 20
82.2851624278
 30
0.0
 10
45.2135264566
 20
82.2759267641
 30
0.0
 10
45.2010184945
 20
82.2693528513
 30
0.0
 10
45.1937977783
 20
82.2657664429
 30
0.0
 10
45.1885887544
 20
82.2625974252
 30
0.0
 10
45.1825903322
 20
82.2612601965
 30
0.0
 10
45.1748677869
 20
82.2588382765
 30
0.0
 10
45.1612250415
 20
82.2548976144
 30
0.0
 10
45.1418024774
 20
82.2491124567
 30
0.0
 10
45.1184666908
 20
82.2422368886
 30
0.0
 10
45.0873623397
 20
82.2330461849
 30
0.0
 10
45.0484784418
 20
82.2215658492
 30
0.0
 10
45.0018193214
 20
82.2077857551
 30
0.0
 10
44.9551595069
 20
82.1940075555
 30
0.0
 10
44.9162773443
 20
82.1825224836
 30
0.0
 10
44.8851695227
 20
82.1733412522
 30
0.0
 10
44.8618443212
 20
82.1664367936
 30
0.0
 10
44.8423886423
 20
82.1607420173
 30
0.0
 10
44.828805012
 20
82.1566400107
 30
0.0
 10
44.8209877494
 20
82.1544766049
 30
0.0
 10
44.8152802684
 20
82.1523453034
 30
0.0
 10
44.8089785178
 20
82.1521586913
 30
0.0
 10
44.8007834717
 20
82.1512315457
 30
0.0
 10
44.7863455616
 20
82.1499250872
 30
0.0
 10
44.7657704686
 20
82.1478934853
 30
0.0
 10
44.7410587444
 20
82.1455262879
 30
0.0
 10
44.7081173277
 20
82.1423453219
 30
0.0
 10
44.666937972
 20
82.138377573
 30
0.0
 10
44.6010524479
 20
82.1320244456
 30
0.0
 10
44.5186950437
 20
82.1240846698
 30
0.0
 10
44.4528092725
 20
82.1177323514
 30
0.0
 10
44.4198663678
 20
82.1145562544
 30
0.0
  0
SPLINE
  5
2C0
330
1B
100
AcDbEntity
 67
     1
  8
7_ALL_FEATURES
  6
Continuous
 62
     7
100
AcDbSpline
 70
     0
 71
     3
 72
    11
 73
     7
 74
     0
 42
0.000000001
 43
0.0000001
 40
0.0
 40
0.0
 40
0.0
 40
0.0
 40
0.251697131
 40
0.5026229388
 40
0.7521900351
 40
1.0
 40
1.0
 40
1.0
 40
1.0
 10
44.4198665427
 20
83.3988623811
 30
0.0
 10
44.3125411121
 20
83.3988623811
 30
0.0
 10
44.0975547013
 20
83.3765110061
 30
0.0
 10
43.7901608683
 20
83.2773115863
 30
0.0
 10
43.5115594693
 20
83.117109536
 30
0.0
 10
43.3528114591
 20
82.9735821624
 30
0.0
 10
43.2825518214
 20
82.8946563003
 30
0.0
  0
SPLINE
  5
2C1
330
1B
100
AcDbEntity
 67
     1
  8
7_ALL_FEATURES
  6
Continuous
 62
     7
100
AcDbSpline
 70
     0
 71
     3
 72
    11
 73
     7
 74
     0
 42
0.000000001
 43
0.0000001
 40
0.0
 40
0.0
 40
0.0
 40
0.0
 40
0.251697131
 40
0.5026229388
 40
0.7521900351
 40
1.0
 40
1.0
 40
1.0
 40
1.0
 10
44.4198665427
 20
83.3988623811
 30
0.0
 10
44.5271919733
 20
83.3988623811
 30
0.0
 10
44.742178384
 20
83.3765110061
 30
0.0
 10
45.0495722171
 20
83.2773115863
 30
0.0
 10
45.328173616
 20
83.117109536
 30
0.0
 10
45.4869216263
 20
82.9735821624
 30
0.0
 10
45.557181264
 20
82.8946563003
 30
0.0
  0
SPLINE
  5
2C2
330
1B
100
AcDbEntity
 67
     1
  8
7_ALL_FEATURES
  6
Continuous
 62
     7
100
AcDbSpline
 70
     0
 71
     3
 72
    11
 73
     7
 74
     0
 42
0.000000001
 43
0.0000001
 40
0.0
 40
0.0
 40
0.0
 40
0.0
 40
0.251697131
 40
0.5026229388
 40
0.7521900351
 40
1.0
 40
1.0
 40
1.0
 40
1.0
 10
233.4198665427
 20
83.3988623811
 30
0.0
 10
233.3125411121
 20
83.3988623811
 30
0.0
 10
233.0975547013
 20
83.3765110061
 30
0.0
 10
232.7901608683
 20
83.2773115863
 30
0.0
 10
232.5115594693
 20
83.117109536
 30
0.0
 10
232.3528114591
 20
82.9735821624
 30
0.0
 10
232.2825518214
 20
82.8946563003
 30
0.0
  0
SPLINE
  5
2C3
330
1B
100
AcDbEntity
 67
     1
  8
7_ALL_FEATURES
  6
Continuous
 62
     7
100
AcDbSpline
 70
     0
 71
     3
 72
    11
 73
     7
 74
     0
 42
0.000000001
 43
0.0000001
 40
0.0
 40
0.0
 40
0.0
 40
0.0
 40
0.251697131
 40
0.5026229388
 40
0.7521900351
 40
1.0
 40
1.0
 40
1.0
 40
1.0
 10
233.4198665427
 20
83.3988623811
 30
0.0
 10
233.5271919733
 20
83.3988623811
 30
0.0
 10
233.742178384
 20
83.3765110061
 30
0.0
 10
234.0495722171
 20
83.2773115863
 30
0.0
 10
234.328173616
 20
83.117109536
 30
0.0
 10
234.4869216263
 20
82.9735821624
 30
0.0
 10
234.557181264
 20
82.8946563003
 30
0.0
  0
SPLINE
  5
2C4
330
1B
100
AcDbEntity
 67
     1
  8
3_ALL_AXES
  6
Continuous
 62
     7
100
AcDbSpline
 70
     0
 71
     3
 72
    15
 73
    11
 74
     0
 42
0.000000001
 43
0.0000001
 40
0.0
 40
0.0
 40
0.0
 40
0.0
 40
0.1271196084
 40
0.2539133478
 40
0.3801207449
 40
0.5055520249
 40
0.6301381265
 40
0.7539382147
 40
0.877133434
 40
1.0
 40
1.0
 40
1.0
 40
1.0
 10
44.4198665427
 20
76.3092121978
 30
0.0
 10
44.1259017276
 20
76.3092121978
 30
0.0
 10
43.5371997081
 20
76.3650825312
 30
0.0
 10
42.6886874205
 20
76.6134663782
 30
0.0
 10
41.9059799355
 20
77.0169913568
 30
0.0
 10
41.2195299589
 20
77.5604495965
 30
0.0
 10
40.6556958374
 20
78.2231250163
 30
0.0
 10
40.2364200785
 20
78.9798440849
 30
0.0
 10
39.9780745258
 20
79.8010485886
 30
0.0
 10
39.9198665427
 20
80.3717487857
 30
0.0
 10
39.9198665427
 20
80.6558784161
 30
0.0
  0
LINE
  5
2C5
330
1B
100
AcDbEntity
 67
     1
  8
3_ALL_AXES
  6
Continuous
 62
     7
100
AcDbLine
 10
39.9198665427
 20
80.8629336522
 30
0.0
 11
39.9198665427
 21
80.6558784161
 31
0.0
  0
LINE
  5
2C6
330
1B
100
AcDbEntity
 67
     1
  8
3_ALL_AXES
  6
Continuous
 62
     7
100
AcDbLine
 10
48.9198665427
 20
80.8629336522
 30
0.0
 11
48.9198665427
 21
80.6558784161
 31
0.0
  0
SPLINE
  5
2C7
330
1B
100
AcDbEntity
 67
     1
  8
3_ALL_AXES
  6
Continuous
 62
     7
100
AcDbSpline
 70
     0
 71
     3
 72
    15
 73
    11
 74
     0
 42
0.000000001
 43
0.0000001
 40
0.0
 40
0.0
 40
0.0
 40
0.0
 40
0.122866566
 40
0.2460617853
 40
0.3698618735
 40
0.4944479751
 40
0.6198792551
 40
0.7460866522
 40
0.8728803916
 40
1.0
 40
1.0
 40
1.0
 40
1.0
 10
48.9198665427
 20
80.6558784161
 30
0.0
 10
48.9198665427
 20
80.3717487857
 30
0.0
 10
48.8616585596
 20
79.8010485886
 30
0.0
 10
48.6033130069
 20
78.9798440849
 30
0.0
 10
48.184037248
 20
78.2231250163
 30
0.0
 10
47.6202031265
 20
77.5604495965
 30
0.0
 10
46.9337531499
 20
77.0169913568
 30
0.0
 10
46.1510456649
 20
76.6134663782
 30
0.0
 10
45.3025333773
 20
76.3650825312
 30
0.0
 10
44.7138313578
 20
76.3092121978
 30
0.0
 10
44.4198665427
 20
76.3092121978
 30
0.0
  0
SPLINE
  5
2C8
330
1B
100
AcDbEntity
 67
     1
  8
3_ALL_AXES
  6
Continuous
 62
     7
100
AcDbSpline
 70
     0
 71
     3
 72
    15
 73
    11
 74
     0
 42
0.000000001
 43
0.0000001
 40
0.0
 40
0.0
 40
0.0
 40
0.0
 40
0.1270528273
 40
0.25379804
 40
0.3799892808
 40
0.5054396844
 40
0.6300722194
 40
0.753926049
 40
0.8771535975
 40
1.0
 40
1.0
 40
1.0
 40
1.0
 10
44.4198665427
 20
76.5162674339
 30
0.0
 10
44.1347583576
 20
76.5162674339
 30
0.0
 10
43.5638400562
 20
76.5688076713
 30
0.0
 10
42.7389844168
 20
76.802564546
 30
0.0
 10
41.9742424613
 20
77.1828873981
 30
0.0
 10
41.2975941408
 20
77.6963023192
 30
0.0
 10
40.7334694521
 20
78.3243941914
 30
0.0
 10
40.3024583855
 20
79.0447184141
 30
0.0
 10
40.0204066789
 20
79.8308446498
 30
0.0
 10
39.938501683
 20
80.3812049287
 30
0.0
 10
39.9249462269
 20
80.6565403594
 30
0.0
  0
ARC
  5
2C9
330
1B
100
AcDbEntity
 67
     1
  8
3_ALL_AXES
  6
Continuous
 62
     7
100
AcDbCircle
 10
44.1177948158
 20
80.8629925327
 30
0.0
 40
4.1979282735
100
AcDbArc
 50
180.0008036358
 51
182.8189170674
  0
ARC
  5
2CA
330
1B
100
AcDbEntity
 67
     1
  8
3_ALL_AXES
  6
Continuous
 62
     7
100
AcDbCircle
 10
44.7219382696
 20
80.8629925327
 30
0.0
 40
4.1979282735
100
AcDbArc
 50
357.1810829326
 51
359.9991963642
  0
SPLINE
  5
2CB
330
1B
100
AcDbEntity
 67
     1
  8
3_ALL_AXES
  6
Continuous
 62
     7
100
AcDbSpline
 70
     0
 71
     3
 72
    15
 73
    11
 74
     0
 42
0.000000001
 43
0.0000001
 40
0.0
 40
0.0
 40
0.0
 40
0.0
 40
0.1228464025
 40
0.246073951
 40
0.3699277806
 40
0.4945603156
 40
0.6200107192
 40
0.74620196
 40
0.8729471727
 40
1.0
 40
1.0
 40
1.0
 40
1.0
 10
48.9147868585
 20
80.6565403594
 30
0.0
 10
48.9012314023
 20
80.3812049287
 30
0.0
 10
48.8193264064
 20
79.8308446498
 30
0.0
 10
48.5372746998
 20
79.0447184141
 30
0.0
 10
48.1062636332
 20
78.3243941914
 30
0.0
 10
47.5421389446
 20
77.6963023192
 30
0.0
 10
46.8654906241
 20
77.1828873981
 30
0.0
 10
46.1007486685
 20
76.802564546
 30
0.0
 10
45.2758930291
 20
76.5688076713
 30
0.0
 10
44.7049747277
 20
76.5162674339
 30
0.0
 10
44.4198665427
 20
76.5162674339
 30
0.0
  0
SPLINE
  5
2CC
330
1B
100
AcDbEntity
 67
     1
  8
3_ALL_AXES
  6
Continuous
 62
     7
100
AcDbSpline
 70
     0
 71
     3
 72
    15
 73
    11
 74
     0
 42
0.000000001
 43
0.0000001
 40
0.0
 40
0.0
 40
0.0
 40
0.0
 40
0.1271196084
 40
0.2539133478
 40
0.3801207449
 40
0.5055520249
 40
0.6301381265
 40
0.7539382147
 40
0.877133434
 40
1.0
 40
1.0
 40
1.0
 40
1.0
 10
233.4198665427
 20
76.3092121978
 30
0.0
 10
233.1259017276
 20
76.3092121978
 30
0.0
 10
232.5371997081
 20
76.3650825312
 30
0.0
 10
231.6886874205
 20
76.6134663782
 30
0.0
 10
230.9059799355
 20
77.0169913568
 30
0.0
 10
230.2195299589
 20
77.5604495965
 30
0.0
 10
229.6556958374
 20
78.2231250163
 30
0.0
 10
229.2364200785
 20
78.9798440849
 30
0.0
 10
228.9780745258
 20
79.8010485886
 30
0.0
 10
228.9198665427
 20
80.3717487857
 30
0.0
 10
228.9198665427
 20
80.6558784161
 30
0.0
  0
LINE
  5
2CD
330
1B
100
AcDbEntity
 67
     1
  8
3_ALL_AXES
  6
Continuous
 62
     7
100
AcDbLine
 10
228.9198665427
 20
80.8629336522
 30
0.0
 11
228.9198665427
 21
80.6558784161
 31
0.0
  0
LINE
  5
2CE
330
1B
100
AcDbEntity
 67
     1
  8
3_ALL_AXES
  6
Continuous
 62
     7
100
AcDbLine
 10
237.9198665427
 20
80.8629336522
 30
0.0
 11
237.9198665427
 21
80.6558784161
 31
0.0
  0
SPLINE
  5
2CF
330
1B
100
AcDbEntity
 67
     1
  8
3_ALL_AXES
  6
Continuous
 62
     7
100
AcDbSpline
 70
     0
 71
     3
 72
    15
 73
    11
 74
     0
 42
0.000000001
 43
0.0000001
 40
0.0
 40
0.0
 40
0.0
 40
0.0
 40
0.122866566
 40
0.2460617853
 40
0.3698618735
 40
0.4944479751
 40
0.6198792551
 40
0.7460866522
 40
0.8728803916
 40
1.0
 40
1.0
 40
1.0
 40
1.0
 10
237.9198665427
 20
80.6558784161
 30
0.0
 10
237.9198665427
 20
80.3717487857
 30
0.0
 10
237.8616585596
 20
79.8010485886
 30
0.0
 10
237.6033130069
 20
78.9798440849
 30
0.0
 10
237.184037248
 20
78.2231250163
 30
0.0
 10
236.6202031265
 20
77.5604495965
 30
0.0
 10
235.9337531499
 20
77.0169913568
 30
0.0
 10
235.1510456649
 20
76.6134663782
 30
0.0
 10
234.3025333773
 20
76.3650825312
 30
0.0
 10
233.7138313578
 20
76.3092121978
 30
0.0
 10
233.4198665427
 20
76.3092121978
 30
0.0
  0
SPLINE
  5
2D0
330
1B
100
AcDbEntity
 67
     1
  8
3_ALL_AXES
  6
Continuous
 62
     7
100
AcDbSpline
 70
     0
 71
     3
 72
    15
 73
    11
 74
     0
 42
0.000000001
 43
0.0000001
 40
0.0
 40
0.0
 40
0.0
 40
0.0
 40
0.1270528273
 40
0.25379804
 40
0.3799892808
 40
0.5054396844
 40
0.6300722194
 40
0.753926049
 40
0.8771535975
 40
1.0
 40
1.0
 40
1.0
 40
1.0
 10
233.4198665427
 20
76.5162674339
 30
0.0
 10
233.1347583576
 20
76.5162674339
 30
0.0
 10
232.5638400562
 20
76.5688076713
 30
0.0
 10
231.7389844168
 20
76.802564546
 30
0.0
 10
230.9742424613
 20
77.1828873981
 30
0.0
 10
230.2975941408
 20
77.6963023192
 30
0.0
 10
229.7334694521
 20
78.3243941914
 30
0.0
 10
229.3024583855
 20
79.0447184141
 30
0.0
 10
229.0204066789
 20
79.8308446498
 30
0.0
 10
228.938501683
 20
80.3812049287
 30
0.0
 10
228.9249462269
 20
80.6565403594
 30
0.0
  0
ARC
  5
2D1
330
1B
100
AcDbEntity
 67
     1
  8
3_ALL_AXES
  6
Continuous
 62
     7
100
AcDbCircle
 10
233.1177948158
 20
80.8629925327
 30
0.0
 40
4.1979282735
100
AcDbArc
 50
180.0008036358
 51
182.8189170674
  0
ARC
  5
2D2
330
1B
100
AcDbEntity
 67
     1
  8
3_ALL_AXES
  6
Continuous
 62
     7
100
AcDbCircle
 10
233.7219382696
 20
80.8629925327
 30
0.0
 40
4.1979282735
100
AcDbArc
 50
357.1810829326
 51
359.9991963642
  0
SPLINE
  5
2D3
330
1B
100
AcDbEntity
 67
     1
  8
3_ALL_AXES
  6
Continuous
 62
     7
100
AcDbSpline
 70
     0
 71
     3
 72
    15
 73
    11
 74
     0
 42
0.000000001
 43
0.0000001
 40
0.0
 40
0.0
 40
0.0
 40
0.0
 40
0.1228464025
 40
0.246073951
 40
0.3699277806
 40
0.4945603156
 40
0.6200107192
 40
0.74620196
 40
0.8729471727
 40
1.0
 40
1.0
 40
1.0
 40
1.0
 10
237.9147868585
 20
80.6565403594
 30
0.0
 10
237.9012314023
 20
80.3812049287
 30
0.0
 10
237.8193264064
 20
79.8308446498
 30
0.0
 10
237.5372746998
 20
79.0447184141
 30
0.0
 10
237.1062636332
 20
78.3243941914
 30
0.0
 10
236.5421389446
 20
77.6963023192
 30
0.0
 10
235.8654906241
 20
77.1828873981
 30
0.0
 10
235.1007486685
 20
76.802564546
 30
0.0
 10
234.2758930291
 20
76.5688076713
 30
0.0
 10
233.7049747277
 20
76.5162674339
 30
0.0
 10
233.4198665427
 20
76.5162674339
 30
0.0
  0
SPLINE
  5
2D4
330
1B
100
AcDbEntity
 67
     1
  8
3_ALL_AXES
  6
Continuous
 62
     7
100
AcDbSpline
 70
     0
 71
     3
 72
    11
 73
     7
 74
     0
 42
0.000000001
 43
0.0000001
 40
0.0
 40
0.0
 40
0.0
 40
0.0
 40
0.2509671308
 40
0.5011255569
 40
0.7507111895
 40
1.0
 40
1.0
 40
1.0
 40
1.0
 10
237.3272020598
 20
83.2261229963
 30
0.0
 10
237.4234983936
 20
83.063299298
 30
0.0
 10
237.5945690422
 20
82.7250717171
 30
0.0
 10
237.7812253808
 20
82.1891708172
 30
0.0
 10
237.894541532
 20
81.6344053117
 30
0.0
 10
237.9198665427
 20
81.2578918662
 30
0.0
 10
237.9198665427
 20
81.0699888883
 30
0.0
  0
SPLINE
  5
2D5
330
1B
100
AcDbEntity
 67
     1
  8
3_ALL_AXES
  6
Continuous
 62
     7
100
AcDbSpline
 70
     0
 71
     3
 72
    15
 73
    11
 74
     0
 42
0.000000001
 43
0.0000001
 40
0.0
 40
0.0
 40
0.0
 40
0.0
 40
0.1270528273
 40
0.25379804
 40
0.3799892808
 40
0.5054396844
 40
0.6300722194
 40
0.753926049
 40
0.8771535975
 40
1.0
 40
1.0
 40
1.0
 40
1.0
 10
233.4198665427
 20
76.5162674339
 30
0.0
 10
233.1347583576
 20
76.5162674339
 30
0.0
 10
232.5638400562
 20
76.5688076713
 30
0.0
 10
231.7389844168
 20
76.802564546
 30
0.0
 10
230.9742424613
 20
77.1828873981
 30
0.0
 10
230.2975941408
 20
77.6963023192
 30
0.0
 10
229.7334694521
 20
78.3243941914
 30
0.0
 10
229.3024583855
 20
79.0447184141
 30
0.0
 10
229.0204066789
 20
79.8308446498
 30
0.0
 10
228.938501683
 20
80.3812049287
 30
0.0
 10
228.9249462269
 20
80.6565403594
 30
0.0
  0
ARC
  5
2D6
330
1B
100
AcDbEntity
 67
     1
  8
3_ALL_AXES
  6
Continuous
 62
     7
100
AcDbCircle
 10
233.1177948158
 20
80.8629925327
 30
0.0
 40
4.1979282735
100
AcDbArc
 50
180.0008036358
 51
182.8189170674
  0
LINE
  5
2D7
330
1B
100
AcDbEntity
 67
     1
  8
3_ALL_AXES
  6
Continuous
 62
     7
100
AcDbLine
 10
228.9198665427
 20
81.0699888883
 30
0.0
 11
228.9198665427
 21
80.8629336522
 31
0.0
  0
SPLINE
  5
2D8
330
1B
100
AcDbEntity
 67
     1
  8
3_ALL_AXES
  6
Continuous
 62
     7
100
AcDbSpline
 70
     0
 71
     3
 72
    11
 73
     7
 74
     0
 42
0.000000001
 43
0.0000001
 40
0.0
 40
0.0
 40
0.0
 40
0.0
 40
0.2492888105
 40
0.4988744431
 40
0.7490328692
 40
1.0
 40
1.0
 40
1.0
 40
1.0
 10
228.9198665427
 20
81.0699888883
 30
0.0
 10
228.9198665427
 20
81.2578918662
 30
0.0
 10
228.9451915534
 20
81.6344053117
 30
0.0
 10
229.0585077046
 20
82.1891708172
 30
0.0
 10
229.2451640431
 20
82.7250717171
 30
0.0
 10
229.4162346917
 20
83.063299298
 30
0.0
 10
229.5125310256
 20
83.2261229963
 30
0.0
  0
LINE
  5
2D9
330
1B
100
AcDbEntity
 67
     1
  8
3_ALL_AXES
  6
Continuous
 62
     7
100
AcDbLine
 10
237.9198665427
 20
81.0699888883
 30
0.0
 11
237.9198665427
 21
80.8629336522
 31
0.0
  0
ARC
  5
2DA
330
1B
100
AcDbEntity
 67
     1
  8
3_ALL_AXES
  6
Continuous
 62
     7
100
AcDbCircle
 10
233.7219382696
 20
80.8629925327
 30
0.0
 40
4.1979282735
100
AcDbArc
 50
357.1810829326
 51
359.9991963642
  0
SPLINE
  5
2DB
330
1B
100
AcDbEntity
 67
     1
  8
3_ALL_AXES
  6
Continuous
 62
     7
100
AcDbSpline
 70
     0
 71
     3
 72
    15
 73
    11
 74
     0
 42
0.000000001
 43
0.0000001
 40
0.0
 40
0.0
 40
0.0
 40
0.0
 40
0.1228464025
 40
0.246073951
 40
0.3699277806
 40
0.4945603156
 40
0.6200107192
 40
0.74620196
 40
0.8729471727
 40
1.0
 40
1.0
 40
1.0
 40
1.0
 10
237.9147868585
 20
80.6565403594
 30
0.0
 10
237.9012314023
 20
80.3812049287
 30
0.0
 10
237.8193264064
 20
79.8308446498
 30
0.0
 10
237.5372746998
 20
79.0447184141
 30
0.0
 10
237.1062636332
 20
78.3243941914
 30
0.0
 10
236.5421389446
 20
77.6963023192
 30
0.0
 10
235.8654906241
 20
77.1828873981
 30
0.0
 10
235.1007486685
 20
76.802564546
 30
0.0
 10
234.2758930291
 20
76.5688076713
 30
0.0
 10
233.7049747277
 20
76.5162674339
 30
0.0
 10
233.4198665427
 20
76.5162674339
 30
0.0
  0
SPLINE
  5
2DC
330
1B
100
AcDbEntity
 67
     1
  8
3_ALL_AXES
  6
Continuous
 62
     7
100
AcDbSpline
 70
     0
 71
     3
 72
    15
 73
    11
 74
     0
 42
0.000000001
 43
0.0000001
 40
0.0
 40
0.0
 40
0.0
 40
0.0
 40
0.1270528273
 40
0.25379804
 40
0.3799892808
 40
0.5054396844
 40
0.6300722194
 40
0.753926049
 40
0.8771535975
 40
1.0
 40
1.0
 40
1.0
 40
1.0
 10
233.4198665427
 20
76.72332267
 30
0.0
 10
233.1347583576
 20
76.72332267
 30
0.0
 10
232.5638400562
 20
76.7758629074
 30
0.0
 10
231.7389844168
 20
77.0096197821
 30
0.0
 10
230.9742424613
 20
77.3899426342
 30
0.0
 10
230.2975941408
 20
77.9033575553
 30
0.0
 10
229.7334694521
 20
78.5314494275
 30
0.0
 10
229.3024583855
 20
79.2517736502
 30
0.0
 10
229.0204066789
 20
80.0378998859
 30
0.0
 10
228.938501683
 20
80.5882601648
 30
0.0
 10
228.9249462269
 20
80.8635955955
 30
0.0
  0
ARC
  5
2DD
330
1B
100
AcDbEntity
 67
     1
  8
3_ALL_AXES
  6
Continuous
 62
     7
100
AcDbCircle
 10
233.1177948158
 20
81.0700477688
 30
0.0
 40
4.1979282735
100
AcDbArc
 50
180.0008036358
 51
182.8189170674
  0
ARC
  5
2DE
330
1B
100
AcDbEntity
 67
     1
  8
3_ALL_AXES
  6
Continuous
 62
     7
100
AcDbCircle
 10
233.7219382696
 20
81.0700477688
 30
0.0
 40
4.1979282735
100
AcDbArc
 50
357.1810829326
 51
359.9991963642
  0
SPLINE
  5
2DF
330
1B
100
AcDbEntity
 67
     1
  8
3_ALL_AXES
  6
Continuous
 62
     7
100
AcDbSpline
 70
     0
 71
     3
 72
    15
 73
    11
 74
     0
 42
0.000000001
 43
0.0000001
 40
0.0
 40
0.0
 40
0.0
 40
0.0
 40
0.1228464025
 40
0.246073951
 40
0.3699277806
 40
0.4945603156
 40
0.6200107192
 40
0.74620196
 40
0.8729471727
 40
1.0
 40
1.0
 40
1.0
 40
1.0
 10
237.9147868585
 20
80.8635955955
 30
0.0
 10
237.9012314023
 20
80.5882601648
 30
0.0
 10
237.8193264064
 20
80.0378998859
 30
0.0
 10
237.5372746998
 20
79.2517736502
 30
0.0
 10
237.1062636332
 20
78.5314494275
 30
0.0
 10
236.5421389446
 20
77.9033575553
 30
0.0
 10
235.8654906241
 20
77.3899426342
 30
0.0
 10
235.1007486685
 20
77.0096197821
 30
0.0
 10
234.2758930291
 20
76.7758629074
 30
0.0
 10
233.7049747277
 20
76.72332267
 30
0.0
 10
233.4198665427
 20
76.72332267
 30
0.0
  0
SPLINE
  5
2E0
330
1B
100
AcDbEntity
 67
     1
  8
3_ALL_AXES
  6
Continuous
 62
     7
100
AcDbSpline
 70
     0
 71
     3
 72
    11
 73
     7
 74
     0
 42
0.000000001
 43
0.0000001
 40
0.0
 40
0.0
 40
0.0
 40
0.0
 40
0.2509671308
 40
0.5011255569
 40
0.7507111895
 40
1.0
 40
1.0
 40
1.0
 40
1.0
 10
48.3272020598
 20
83.2261229963
 30
0.0
 10
48.4234983936
 20
83.063299298
 30
0.0
 10
48.5945690422
 20
82.7250717171
 30
0.0
 10
48.7812253808
 20
82.1891708172
 30
0.0
 10
48.894541532
 20
81.6344053117
 30
0.0
 10
48.9198665427
 20
81.2578918662
 30
0.0
 10
48.9198665427
 20
81.0699888883
 30
0.0
  0
SPLINE
  5
2E1
330
1B
100
AcDbEntity
 67
     1
  8
3_ALL_AXES
  6
Continuous
 62
     7
100
AcDbSpline
 70
     0
 71
     3
 72
    15
 73
    11
 74
     0
 42
0.000000001
 43
0.0000001
 40
0.0
 40
0.0
 40
0.0
 40
0.0
 40
0.1270528273
 40
0.25379804
 40
0.3799892808
 40
0.5054396844
 40
0.6300722194
 40
0.753926049
 40
0.8771535975
 40
1.0
 40
1.0
 40
1.0
 40
1.0
 10
44.4198665427
 20
76.5162674339
 30
0.0
 10
44.1347583576
 20
76.5162674339
 30
0.0
 10
43.5638400562
 20
76.5688076713
 30
0.0
 10
42.7389844168
 20
76.802564546
 30
0.0
 10
41.9742424613
 20
77.1828873981
 30
0.0
 10
41.2975941408
 20
77.6963023192
 30
0.0
 10
40.7334694521
 20
78.3243941914
 30
0.0
 10
40.3024583855
 20
79.0447184141
 30
0.0
 10
40.0204066789
 20
79.8308446498
 30
0.0
 10
39.938501683
 20
80.3812049287
 30
0.0
 10
39.9249462269
 20
80.6565403594
 30
0.0
  0
ARC
  5
2E2
330
1B
100
AcDbEntity
 67
     1
  8
3_ALL_AXES
  6
Continuous
 62
     7
100
AcDbCircle
 10
44.1177948158
 20
80.8629925327
 30
0.0
 40
4.1979282735
100
AcDbArc
 50
180.0008036358
 51
182.8189170674
  0
LINE
  5
2E3
330
1B
100
AcDbEntity
 67
     1
  8
3_ALL_AXES
  6
Continuous
 62
     7
100
AcDbLine
 10
39.9198665427
 20
81.0699888883
 30
0.0
 11
39.9198665427
 21
80.8629336522
 31
0.0
  0
SPLINE
  5
2E4
330
1B
100
AcDbEntity
 67
     1
  8
3_ALL_AXES
  6
Continuous
 62
     7
100
AcDbSpline
 70
     0
 71
     3
 72
    11
 73
     7
 74
     0
 42
0.000000001
 43
0.0000001
 40
0.0
 40
0.0
 40
0.0
 40
0.0
 40
0.2492888105
 40
0.4988744431
 40
0.7490328692
 40
1.0
 40
1.0
 40
1.0
 40
1.0
 10
39.9198665427
 20
81.0699888883
 30
0.0
 10
39.9198665427
 20
81.2578918662
 30
0.0
 10
39.9451915534
 20
81.6344053117
 30
0.0
 10
40.0585077046
 20
82.1891708172
 30
0.0
 10
40.2451640431
 20
82.7250717171
 30
0.0
 10
40.4162346917
 20
83.063299298
 30
0.0
 10
40.5125310256
 20
83.2261229963
 30
0.0
  0
LINE
  5
2E5
330
1B
100
AcDbEntity
 67
     1
  8
3_ALL_AXES
  6
Continuous
 62
     7
100
AcDbLine
 10
48.9198665427
 20
81.0699888883
 30
0.0
 11
48.9198665427
 21
80.8629336522
 31
0.0
  0
ARC
  5
2E6
330
1B
100
AcDbEntity
 67
     1
  8
3_ALL_AXES
  6
Continuous
 62
     7
100
AcDbCircle
 10
44.7219382696
 20
80.8629925327
 30
0.0
 40
4.1979282735
100
AcDbArc
 50
357.1810829326
 51
359.9991963642
  0
SPLINE
  5
2E7
330
1B
100
AcDbEntity
 67
     1
  8
3_ALL_AXES
  6
Continuous
 62
     7
100
AcDbSpline
 70
     0
 71
     3
 72
    15
 73
    11
 74
     0
 42
0.000000001
 43
0.0000001
 40
0.0
 40
0.0
 40
0.0
 40
0.0
 40
0.1228464025
 40
0.246073951
 40
0.3699277806
 40
0.4945603156
 40
0.6200107192
 40
0.74620196
 40
0.8729471727
 40
1.0
 40
1.0
 40
1.0
 40
1.0
 10
48.9147868585
 20
80.6565403594
 30
0.0
 10
48.9012314023
 20
80.3812049287
 30
0.0
 10
48.8193264064
 20
79.8308446498
 30
0.0
 10
48.5372746998
 20
79.0447184141
 30
0.0
 10
48.1062636332
 20
78.3243941914
 30
0.0
 10
47.5421389446
 20
77.6963023192
 30
0.0
 10
46.8654906241
 20
77.1828873981
 30
0.0
 10
46.1007486685
 20
76.802564546
 30
0.0
 10
45.2758930291
 20
76.5688076713
 30
0.0
 10
44.7049747277
 20
76.5162674339
 30
0.0
 10
44.4198665427
 20
76.5162674339
 30
0.0
  0
SPLINE
  5
2E8
330
1B
100
AcDbEntity
 67
     1
  8
3_ALL_AXES
  6
Continuous
 62
     7
100
AcDbSpline
 70
     0
 71
     3
 72
    15
 73
    11
 74
     0
 42
0.000000001
 43
0.0000001
 40
0.0
 40
0.0
 40
0.0
 40
0.0
 40
0.1270528273
 40
0.25379804
 40
0.3799892808
 40
0.5054396844
 40
0.6300722194
 40
0.753926049
 40
0.8771535975
 40
1.0
 40
1.0
 40
1.0
 40
1.0
 10
44.4198665427
 20
76.72332267
 30
0.0
 10
44.1347583576
 20
76.72332267
 30
0.0
 10
43.5638400562
 20
76.7758629074
 30
0.0
 10
42.7389844168
 20
77.0096197821
 30
0.0
 10
41.9742424613
 20
77.3899426342
 30
0.0
 10
41.2975941408
 20
77.9033575553
 30
0.0
 10
40.7334694521
 20
78.5314494275
 30
0.0
 10
40.3024583855
 20
79.2517736502
 30
0.0
 10
40.0204066789
 20
80.0378998859
 30
0.0
 10
39.938501683
 20
80.5882601648
 30
0.0
 10
39.9249462269
 20
80.8635955955
 30
0.0
  0
ARC
  5
2E9
330
1B
100
AcDbEntity
 67
     1
  8
3_ALL_AXES
  6
Continuous
 62
     7
100
AcDbCircle
 10
44.1177948158
 20
81.0700477688
 30
0.0
 40
4.1979282735
100
AcDbArc
 50
180.0008036358
 51
182.8189170674
  0
ARC
  5
2EA
330
1B
100
AcDbEntity
 67
     1
  8
3_ALL_AXES
  6
Continuous
 62
     7
100
AcDbCircle
 10
44.7219382696
 20
81.0700477688
 30
0.0
 40
4.1979282735
100
AcDbArc
 50
357.1810829326
 51
359.9991963642
  0
SPLINE
  5
2EB
330
1B
100
AcDbEntity
 67
     1
  8
3_ALL_AXES
  6
Continuous
 62
     7
100
AcDbSpline
 70
     0
 71
     3
 72
    15
 73
    11
 74
     0
 42
0.000000001
 43
0.0000001
 40
0.0
 40
0.0
 40
0.0
 40
0.0
 40
0.1228464025
 40
0.246073951
 40
0.3699277806
 40
0.4945603156
 40
0.6200107192
 40
0.74620196
 40
0.8729471727
 40
1.0
 40
1.0
 40
1.0
 40
1.0
 10
48.9147868585
 20
80.8635955955
 30
0.0
 10
48.9012314023
 20
80.5882601648
 30
0.0
 10
48.8193264064
 20
80.0378998859
 30
0.0
 10
48.5372746998
 20
79.2517736502
 30
0.0
 10
48.1062636332
 20
78.5314494275
 30
0.0
 10
47.5421389446
 20
77.9033575553
 30
0.0
 10
46.8654906241
 20
77.3899426342
 30
0.0
 10
46.1007486685
 20
77.0096197821
 30
0.0
 10
45.2758930291
 20
76.7758629074
 30
0.0
 10
44.7049747277
 20
76.72332267
 30
0.0
 10
44.4198665427
 20
76.72332267
 30
0.0
  0
SPLINE
  5
2EC
330
1B
100
AcDbEntity
 67
     1
  8
7_ALL_FEATURES
  6
Continuous
 62
     7
100
AcDbSpline
 70
     0
 71
     3
 72
    15
 73
    11
 74
     0
 42
0.000000001
 43
0.0000001
 40
0.0
 40
0.0
 40
0.0
 40
0.0
 40
0.1271187546
 40
0.2539128779
 40
0.3801214471
 40
0.5055522648
 40
0.6301384237
 40
0.7539384515
 40
0.8771335491
 40
1.0
 40
1.0
 40
1.0
 40
1.0
 10
233.4198665427
 20
82.4526302936
 30
0.0
 10
233.3120802915
 20
82.4526302936
 30
0.0
 10
233.0962232945
 20
82.4731142327
 30
0.0
 10
232.7851024547
 20
82.5641906883
 30
0.0
 10
232.4981091219
 20
82.7121495515
 30
0.0
 10
232.2464104299
 20
82.9114178866
 30
0.0
 10
232.0396739632
 20
83.154400187
 30
0.0
 10
231.885939632
 20
83.431863061
 30
0.0
 10
231.7912119361
 20
83.7329707112
 30
0.0
 10
231.7698716006
 20
83.9422272596
 30
0.0
 10
231.7698716006
 20
84.046407907
 30
0.0
  0
SPLINE
  5
2ED
330
1B
100
AcDbEntity
 67
     1
  8
02___PRT_ALL_AXES
  6
Continuous
 62
     7
100
AcDbSpline
 70
     0
 71
     3
 72
    15
 73
    11
 74
     0
 42
0.000000001
 43
0.0000001
 40
0.0
 40
0.0
 40
0.0
 40
0.0
 40
0.1271200361
 40
0.2539130144
 40
0.3801208294
 40
0.5055520268
 40
0.6301380952
 40
0.7539382509
 40
0.8771334218
 40
1.0
 40
1.0
 40
1.0
 40
1.0
 10
233.4198665427
 20
79.5028400491
 30
0.0
 10
233.6746368752
 20
79.5028400491
 30
0.0
 10
234.1848451209
 20
79.551258933
 30
0.0
 10
234.9202202493
 20
79.7665320283
 30
0.0
 10
235.598568416
 20
80.116246887
 30
0.0
 10
236.1934943298
 20
80.5872434506
 30
0.0
 10
236.6821414537
 20
81.1615689972
 30
0.0
 10
237.0455226385
 20
81.8173861195
 30
0.0
 10
237.2694241017
 20
82.5290976864
 30
0.0
 10
237.3198614269
 20
83.0237050975
 30
0.0
 10
237.3198614269
 20
83.2699507717
 30
0.0
  0
SPLINE
  5
2EE
330
1B
100
AcDbEntity
 67
     1
  8
02___PRT_ALL_AXES
  6
Continuous
 62
     7
100
AcDbSpline
 70
     0
 71
     3
 72
    15
 73
    11
 74
     0
 42
0.000000001
 43
0.0000001
 40
0.0
 40
0.0
 40
0.0
 40
0.0
 40
0.1271200361
 40
0.2539130144
 40
0.3801208294
 40
0.5055520268
 40
0.6301380952
 40
0.7539382509
 40
0.8771334218
 40
1.0
 40
1.0
 40
1.0
 40
1.0
 10
233.4198665427
 20
79.5028400491
 30
0.0
 10
233.1650962101
 20
79.5028400491
 30
0.0
 10
232.6548879645
 20
79.551258933
 30
0.0
 10
231.9195128361
 20
79.7665320283
 30
0.0
 10
231.2411646694
 20
80.116246887
 30
0.0
 10
230.6462387555
 20
80.5872434506
 30
0.0
 10
230.1575916317
 20
81.1615689972
 30
0.0
 10
229.7942104468
 20
81.8173861195
 30
0.0
 10
229.5703089837
 20
82.5290976864
 30
0.0
 10
229.5198716585
 20
83.0237050975
 30
0.0
 10
229.5198716585
 20
83.2699507717
 30
0.0
  0
SPLINE
  5
2EF
330
1B
100
AcDbEntity
 67
     1
  8
7_ALL_FEATURES
  6
Continuous
 62
     7
100
AcDbSpline
 70
     0
 71
     3
 72
    15
 73
    11
 74
     0
 42
0.000000001
 43
0.0000001
 40
0.0
 40
0.0
 40
0.0
 40
0.0
 40
0.1271200248
 40
0.2539130027
 40
0.3801208199
 40
0.5055520189
 40
0.630138089
 40
0.7539382469
 40
0.8771334198
 40
1.0
 40
1.0
 40
1.0
 40
1.0
 10
233.4198665427
 20
77.3287600703
 30
0.0
 10
233.1650962326
 20
77.32876007
 30
0.0
 10
232.6548880113
 20
77.3771789502
 30
0.0
 10
231.9195128964
 20
77.5924520228
 30
0.0
 10
231.2411647183
 20
77.9421668754
 30
0.0
 10
230.6462387903
 20
78.413163439
 30
0.0
 10
230.1575916517
 20
78.9874889878
 30
0.0
 10
229.7942104553
 20
79.6433061177
 30
0.0
 10
229.5703089858
 20
80.3550176958
 30
0.0
 10
229.5198716586
 20
80.849625115
 30
0.0
 10
229.5198716586
 20
81.0958707932
 30
0.0
  0
LINE
  5
2F0
330
1B
100
AcDbEntity
 67
     1
  8
02___PRT_ALL_AXES
  6
Continuous
 62
     7
100
AcDbLine
 10
237.3198665427
 20
83.2699507717
 30
0.0
 11
237.3198665427
 21
83.7228841006
 31
0.0
  0
SPLINE
  5
2F1
330
1B
100
AcDbEntity
 67
     1
  8
02___PRT_ALL_AXES
  6
Continuous
 62
     7
100
AcDbSpline
 70
     0
 71
     3
 72
    15
 73
    11
 74
     0
 42
0.000000001
 43
0.0000001
 40
0.0
 40
0.0
 40
0.0
 40
0.0
 40
0.1228665782
 40
0.2460617491
 40
0.3698619048
 40
0.4944479732
 40
0.6198791706
 40
0.7460869856
 40
0.8728799639
 40
1.0
 40
1.0
 40
1.0
 40
1.0
 10
237.3198614269
 20
83.7228841006
 30
0.0
 10
237.3198614269
 20
83.9691297747
 30
0.0
 10
237.2694241017
 20
84.4637371858
 30
0.0
 10
237.0455226385
 20
85.1754487527
 30
0.0
 10
236.6821414537
 20
85.831265875
 30
0.0
 10
236.1934943298
 20
86.4055914216
 30
0.0
 10
235.598568416
 20
86.8765879852
 30
0.0
 10
234.9202202493
 20
87.2263028439
 30
0.0
 10
234.1848451209
 20
87.4415759392
 30
0.0
 10
233.6746368752
 20
87.4899948231
 30
0.0
 10
233.4198665427
 20
87.4899948231
 30
0.0
  0
LINE
  5
2F2
330
1B
100
AcDbEntity
 67
     1
  8
02___PRT_ALL_AXES
  6
Continuous
 62
     7
100
AcDbLine
 10
237.3198665427
 20
81.0958707928
 30
0.0
 11
237.3198665427
 21
82.7523126815
 31
0.0
  0
SPLINE
  5
2F3
330
1B
100
AcDbEntity
 67
     1
  8
7_ALL_FEATURES
  6
Continuous
 62
     7
100
AcDbSpline
 70
     0
 71
     3
 72
    15
 73
    11
 74
     0
 42
0.000000001
 43
0.0000001
 40
0.0
 40
0.0
 40
0.0
 40
0.0
 40
0.1228665802
 40
0.2460617532
 40
0.3698619111
 40
0.4944479812
 40
0.6198791803
 40
0.7460869974
 40
0.8728799753
 40
1.0
 40
1.0
 40
1.0
 40
1.0
 10
237.3198614267
 20
81.0958707924
 30
0.0
 10
237.3198614267
 20
80.8496251142
 30
0.0
 10
237.2694240994
 20
80.355017695
 30
0.0
 10
237.0455226298
 20
79.6433061169
 30
0.0
 10
236.6821414331
 20
78.987488987
 30
0.0
 10
236.1934942943
 20
78.4131634383
 30
0.0
 10
235.5985683661
 20
77.9421668748
 30
0.0
 10
234.920220188
 20
77.5924520224
 30
0.0
 10
234.1848450734
 20
77.3771789501
 30
0.0
 10
233.6746368525
 20
77.32876007
 30
0.0
 10
233.4198665427
 20
77.3287600703
 30
0.0
  0
ARC
  5
2F4
330
1B
100
AcDbEntity
 67
     1
  8
02___PRT_ALL_AXES
  6
Continuous
 62
     7
100
AcDbCircle
 10
233.6788182886
 20
82.7523120478
 30
0.0
 40
3.6410431383
100
AcDbArc
 50
0.0000099719
 51
4.0770936229
  0
LINE
  5
2F5
330
1B
100
AcDbEntity
 67
     1
  8
02___PRT_ALL_AXES
  6
Continuous
 62
     7
100
AcDbLine
 10
229.5198665427
 20
83.2699507717
 30
0.0
 11
229.5198665427
 21
83.7228841006
 31
0.0
  0
SPLINE
  5
2F6
330
1B
100
AcDbEntity
 67
     1
  8
02___PRT_ALL_AXES
  6
Continuous
 62
     7
100
AcDbSpline
 70
     0
 71
     3
 72
    15
 73
    11
 74
     0
 42
0.000000001
 43
0.0000001
 40
0.0
 40
0.0
 40
0.0
 40
0.0
 40
0.1228665782
 40
0.2460617491
 40
0.3698619048
 40
0.4944479732
 40
0.6198791706
 40
0.7460869856
 40
0.8728799639
 40
1.0
 40
1.0
 40
1.0
 40
1.0
 10
229.5198716585
 20
83.7228841006
 30
0.0
 10
229.5198716585
 20
83.9691297747
 30
0.0
 10
229.5703089837
 20
84.4637371858
 30
0.0
 10
229.7942104468
 20
85.1754487527
 30
0.0
 10
230.1575916317
 20
85.831265875
 30
0.0
 10
230.6462387555
 20
86.4055914216
 30
0.0
 10
231.2411646694
 20
86.8765879852
 30
0.0
 10
231.9195128361
 20
87.2263028439
 30
0.0
 10
232.6548879645
 20
87.4415759392
 30
0.0
 10
233.1650962101
 20
87.4899948231
 30
0.0
 10
233.4198665427
 20
87.4899948231
 30
0.0
  0
LINE
  5
2F7
330
1B
100
AcDbEntity
 67
     1
  8
02___PRT_ALL_AXES
  6
Continuous
 62
     7
100
AcDbLine
 10
229.5198665427
 20
81.0958707928
 30
0.0
 11
229.5198665427
 21
82.7523126815
 31
0.0
  0
ARC
  5
2F8
330
1B
100
AcDbEntity
 67
     1
  8
02___PRT_ALL_AXES
  6
Continuous
 62
     7
100
AcDbCircle
 10
233.1609147967
 20
82.7523120478
 30
0.0
 40
3.6410431382
100
AcDbArc
 50
175.922906377
 51
179.9999900281
  0
SPLINE
  5
2F9
330
1B
100
AcDbEntity
 67
     1
  8
7_ALL_FEATURES
  6
Continuous
 62
     7
100
AcDbSpline
 70
     0
 71
     3
 72
    15
 73
    11
 74
     0
 42
0.000000001
 43
0.0000001
 40
0.0
 40
0.0
 40
0.0
 40
0.0
 40
0.1228664509
 40
0.2460615485
 40
0.3698615763
 40
0.4944477352
 40
0.6198785529
 40
0.7460871221
 40
0.8728812454
 40
1.0
 40
1.0
 40
1.0
 40
1.0
 10
235.0698614848
 20
84.046407907
 30
0.0
 10
235.0698614848
 20
83.9422272596
 30
0.0
 10
235.0485211493
 20
83.7329707112
 30
0.0
 10
234.9537934534
 20
83.431863061
 30
0.0
 10
234.8000591221
 20
83.154400187
 30
0.0
 10
234.5933226555
 20
82.9114178866
 30
0.0
 10
234.3416239634
 20
82.7121495515
 30
0.0
 10
234.0546306307
 20
82.5641906883
 30
0.0
 10
233.7435097909
 20
82.4731142327
 30
0.0
 10
233.5276527939
 20
82.4526302936
 30
0.0
 10
233.4198665427
 20
82.4526302936
 30
0.0
  0
SPLINE
  5
2FA
330
1B
100
AcDbEntity
 67
     1
  8
7_ALL_FEATURES
  6
Continuous
 62
     7
100
AcDbSpline
 70
     0
 71
     3
 72
    15
 73
    11
 74
     0
 42
0.000000001
 43
0.0000001
 40
0.0
 40
0.0
 40
0.0
 40
0.0
 40
0.1271187546
 40
0.2539128779
 40
0.3801214471
 40
0.5055522648
 40
0.6301384237
 40
0.7539384515
 40
0.8771335491
 40
1.0
 40
1.0
 40
1.0
 40
1.0
 10
233.4198665427
 20
85.6401855203
 30
0.0
 10
233.5276527939
 20
85.6401855203
 30
0.0
 10
233.7435097909
 20
85.6197015813
 30
0.0
 10
234.0546306307
 20
85.5286251256
 30
0.0
 10
234.3416239634
 20
85.3806662624
 30
0.0
 10
234.5933226555
 20
85.1813979274
 30
0.0
 10
234.8000591221
 20
84.938415627
 30
0.0
 10
234.9537934534
 20
84.660952753
 30
0.0
 10
235.0485211493
 20
84.3598451027
 30
0.0
 10
235.0698614848
 20
84.1505885543
 30
0.0
 10
235.0698614848
 20
84.046407907
 30
0.0
  0
SPLINE
  5
2FB
330
1B
100
AcDbEntity
 67
     1
  8
02___PRT_ALL_AXES
  6
Continuous
 62
     7
100
AcDbSpline
 70
     0
 71
     3
 72
    15
 73
    11
 74
     0
 42
0.000000001
 43
0.0000001
 40
0.0
 40
0.0
 40
0.0
 40
0.0
 40
0.1271200361
 40
0.2539130144
 40
0.3801208294
 40
0.5055520268
 40
0.6301380952
 40
0.7539382509
 40
0.8771334218
 40
1.0
 40
1.0
 40
1.0
 40
1.0
 10
233.4198665427
 20
78.9852019589
 30
0.0
 10
233.6746368752
 20
78.9852019589
 30
0.0
 10
234.1848451209
 20
79.0336208428
 30
0.0
 10
234.9202202493
 20
79.2488939381
 30
0.0
 10
235.598568416
 20
79.5986087968
 30
0.0
 10
236.1934943298
 20
80.0696053604
 30
0.0
 10
236.6821414537
 20
80.643930907
 30
0.0
 10
237.0455226385
 20
81.2997480293
 30
0.0
 10
237.2694241017
 20
82.0114595962
 30
0.0
 10
237.3198614269
 20
82.5060670073
 30
0.0
 10
237.3198614269
 20
82.7523126815
 30
0.0
  0
SPLINE
  5
2FC
330
1B
100
AcDbEntity
 67
     1
  8
02___PRT_ALL_AXES
  6
Continuous
 62
     7
100
AcDbSpline
 70
     0
 71
     3
 72
    27
 73
    23
 74
     0
 42
0.000000001
 43
0.0000001
 40
0.0
 40
0.0
 40
0.0
 40
0.0
 40
0.0635413274
 40
0.0952950072
 40
0.1269908659
 40
0.1900762935
 40
0.2527732725
 40
0.2840008754
 40
0.3151238502
 40
0.3770055669
 40
0.4385849169
 40
0.5
 40
0.5614150831
 40
0.6229944331
 40
0.6848761498
 40
0.7159991246
 40
0.7472267275
 40
0.8099237065
 40
0.8730091341
 40
0.9047049928
 40
0.9364586726
 40
1.0
 40
1.0
 40
1.0
 40
1.0
 10
233.4198665427
 20
80.9763941042
 30
0.0
 10
233.2122405534
 20
80.9763941042
 30
0.0
 10
232.8998016993
 20
81.0060827925
 30
0.0
 10
232.4960536103
 20
81.1037941745
 30
0.0
 10
232.104712714
 20
81.2389779785
 30
0.0
 10
231.6443276488
 20
81.4762561288
 30
0.0
 10
231.2393985406
 20
81.7969196968
 30
0.0
 10
230.959392602
 20
82.095302294
 30
0.0
 10
230.7117376252
 20
82.417655737
 30
0.0
 10
230.4650908488
 20
82.8626523427
 30
0.0
 10
230.2826779362
 20
83.442794258
 30
0.0
 10
230.2210200622
 20
84.046407907
 30
0.0
 10
230.2826779362
 20
84.650021556
 30
0.0
 10
230.4650908488
 20
85.2301634712
 30
0.0
 10
230.7117376252
 20
85.6751600769
 30
0.0
 10
230.959392602
 20
85.99751352
 30
0.0
 10
231.2393985406
 20
86.2958961171
 30
0.0
 10
231.6443276488
 20
86.6165596851
 30
0.0
 10
232.104712714
 20
86.8538378355
 30
0.0
 10
232.4960536103
 20
86.9890216394
 30
0.0
 10
232.8998016993
 20
87.0867330214
 30
0.0
 10
233.2122405534
 20
87.1164217097
 30
0.0
 10
233.4198665427
 20
87.1164217097
 30
0.0
  0
SPLINE
  5
2FD
330
1B
100
AcDbEntity
 67
     1
  8
02___PRT_ALL_AXES
  6
Continuous
 62
     7
100
AcDbSpline
 70
     0
 71
     3
 72
    15
 73
    11
 74
     0
 42
0.000000001
 43
0.0000001
 40
0.0
 40
0.0
 40
0.0
 40
0.0
 40
0.1271200361
 40
0.2539130144
 40
0.3801208294
 40
0.5055520268
 40
0.6301380952
 40
0.7539382509
 40
0.8771334218
 40
1.0
 40
1.0
 40
1.0
 40
1.0
 10
233.4198665427
 20
79.9557733781
 30
0.0
 10
233.1650962101
 20
79.9557733781
 30
0.0
 10
232.6548879645
 20
80.0041922619
 30
0.0
 10
231.9195128361
 20
80.2194653572
 30
0.0
 10
231.2411646694
 20
80.5691802159
 30
0.0
 10
230.6462387555
 20
81.0401767795
 30
0.0
 10
230.1575916317
 20
81.6145023261
 30
0.0
 10
229.7942104468
 20
82.2703194485
 30
0.0
 10
229.5703089837
 20
82.9820310154
 30
0.0
 10
229.5198716585
 20
83.4766384264
 30
0.0
 10
229.5198716585
 20
83.7228841006
 30
0.0
  0
SPLINE
  5
2FE
330
1B
100
AcDbEntity
 67
     1
  8
7_ALL_FEATURES
  6
Continuous
 62
     7
100
AcDbSpline
 70
     0
 71
     3
 72
    15
 73
    11
 74
     0
 42
0.000000001
 43
0.0000001
 40
0.0
 40
0.0
 40
0.0
 40
0.0
 40
0.1228664509
 40
0.2460615485
 40
0.3698615763
 40
0.4944477352
 40
0.6198785529
 40
0.7460871221
 40
0.8728812454
 40
1.0
 40
1.0
 40
1.0
 40
1.0
 10
231.7698716006
 20
84.046407907
 30
0.0
 10
231.7698716006
 20
84.1505885543
 30
0.0
 10
231.7912119361
 20
84.3598451027
 30
0.0
 10
231.885939632
 20
84.660952753
 30
0.0
 10
232.0396739632
 20
84.938415627
 30
0.0
 10
232.2464104299
 20
85.1813979274
 30
0.0
 10
232.4981091219
 20
85.3806662624
 30
0.0
 10
232.7851024547
 20
85.5286251256
 30
0.0
 10
233.0962232945
 20
85.6197015813
 30
0.0
 10
233.3120802915
 20
85.6401855203
 30
0.0
 10
233.4198665427
 20
85.6401855203
 30
0.0
  0
SPLINE
  5
2FF
330
1B
100
AcDbEntity
 67
     1
  8
02___PRT_ALL_AXES
  6
Continuous
 62
     7
100
AcDbSpline
 70
     0
 71
     3
 72
    27
 73
    23
 74
     0
 42
0.000000001
 43
0.0000001
 40
0.0
 40
0.0
 40
0.0
 40
0.0
 40
0.0635413274
 40
0.0952950072
 40
0.1269908659
 40
0.1900762935
 40
0.2527732725
 40
0.2840008754
 40
0.3151238502
 40
0.3770055669
 40
0.4385849169
 40
0.5
 40
0.5614150831
 40
0.6229944331
 40
0.6848761498
 40
0.7159991246
 40
0.7472267275
 40
0.8099237065
 40
0.8730091341
 40
0.9047049928
 40
0.9364586726
 40
1.0
 40
1.0
 40
1.0
 40
1.0
 10
233.4198665427
 20
80.9763941042
 30
0.0
 10
233.627492532
 20
80.9763941042
 30
0.0
 10
233.939931386
 20
81.0060827925
 30
0.0
 10
234.3436794751
 20
81.1037941745
 30
0.0
 10
234.7350203714
 20
81.2389779785
 30
0.0
 10
235.1954054366
 20
81.4762561288
 30
0.0
 10
235.6003345447
 20
81.7969196968
 30
0.0
 10
235.8803404834
 20
82.095302294
 30
0.0
 10
236.1279954602
 20
82.417655737
 30
0.0
 10
236.3746422366
 20
82.8626523427
 30
0.0
 10
236.5570551492
 20
83.442794258
 30
0.0
 10
236.6187130232
 20
84.046407907
 30
0.0
 10
236.5570551492
 20
84.650021556
 30
0.0
 10
236.3746422366
 20
85.2301634712
 30
0.0
 10
236.1279954602
 20
85.6751600769
 30
0.0
 10
235.8803404834
 20
85.99751352
 30
0.0
 10
235.6003345447
 20
86.2958961171
 30
0.0
 10
235.1954054366
 20
86.6165596851
 30
0.0
 10
234.7350203714
 20
86.8538378355
 30
0.0
 10
234.3436794751
 20
86.9890216394
 30
0.0
 10
233.939931386
 20
87.0867330214
 30
0.0
 10
233.627492532
 20
87.1164217097
 30
0.0
 10
233.4198665427
 20
87.1164217097
 30
0.0
  0
SPLINE
  5
300
330
1B
100
AcDbEntity
 67
     1
  8
02___PRT_ALL_AXES
  6
Continuous
 62
     7
100
AcDbSpline
 70
     0
 71
     3
 72
    15
 73
    11
 74
     0
 42
0.000000001
 43
0.0000001
 40
0.0
 40
0.0
 40
0.0
 40
0.0
 40
0.1271200361
 40
0.2539130144
 40
0.3801208294
 40
0.5055520268
 40
0.6301380952
 40
0.7539382509
 40
0.8771334218
 40
1.0
 40
1.0
 40
1.0
 40
1.0
 10
233.4198665427
 20
79.9557733781
 30
0.0
 10
233.6746368752
 20
79.9557733781
 30
0.0
 10
234.1848451209
 20
80.0041922619
 30
0.0
 10
234.9202202493
 20
80.2194653572
 30
0.0
 10
235.598568416
 20
80.5691802159
 30
0.0
 10
236.1934943298
 20
81.0401767795
 30
0.0
 10
236.6821414537
 20
81.6145023261
 30
0.0
 10
237.0455226385
 20
82.2703194485
 30
0.0
 10
237.2694241017
 20
82.9820310154
 30
0.0
 10
237.3198614269
 20
83.4766384264
 30
0.0
 10
237.3198614269
 20
83.7228841006
 30
0.0
  0
SPLINE
  5
301
330
1B
100
AcDbEntity
 67
     1
  8
02___PRT_ALL_AXES
  6
Continuous
 62
     7
100
AcDbSpline
 70
     0
 71
     3
 72
    15
 73
    11
 74
     0
 42
0.000000001
 43
0.0000001
 40
0.0
 40
0.0
 40
0.0
 40
0.0
 40
0.1271200361
 40
0.2539130144
 40
0.3801208294
 40
0.5055520268
 40
0.6301380952
 40
0.7539382509
 40
0.8771334218
 40
1.0
 40
1.0
 40
1.0
 40
1.0
 10
233.4198665427
 20
78.9852019589
 30
0.0
 10
233.1650962101
 20
78.9852019589
 30
0.0
 10
232.6548879645
 20
79.0336208428
 30
0.0
 10
231.9195128361
 20
79.2488939381
 30
0.0
 10
231.2411646694
 20
79.5986087968
 30
0.0
 10
230.6462387555
 20
80.0696053604
 30
0.0
 10
230.1575916317
 20
80.643930907
 30
0.0
 10
229.7942104468
 20
81.2997480293
 30
0.0
 10
229.5703089837
 20
82.0114595962
 30
0.0
 10
229.5198716585
 20
82.5060670073
 30
0.0
 10
229.5198716585
 20
82.7523126815
 30
0.0
  0
SPLINE
  5
302
330
1B
100
AcDbEntity
 67
     1
  8
7_ALL_FEATURES
  6
Continuous
 62
     7
100
AcDbSpline
 70
     0
 71
     3
 72
    15
 73
    11
 74
     0
 42
0.000000001
 43
0.0000001
 40
0.0
 40
0.0
 40
0.0
 40
0.0
 40
0.1271187546
 40
0.2539128779
 40
0.3801214471
 40
0.5055522648
 40
0.6301384237
 40
0.7539384515
 40
0.8771335491
 40
1.0
 40
1.0
 40
1.0
 40
1.0
 10
44.4198665427
 20
82.4526302936
 30
0.0
 10
44.3120802915
 20
82.4526302936
 30
0.0
 10
44.0962232945
 20
82.4731142327
 30
0.0
 10
43.7851024547
 20
82.5641906883
 30
0.0
 10
43.4981091219
 20
82.7121495515
 30
0.0
 10
43.2464104299
 20
82.9114178866
 30
0.0
 10
43.0396739632
 20
83.154400187
 30
0.0
 10
42.885939632
 20
83.431863061
 30
0.0
 10
42.7912119361
 20
83.7329707112
 30
0.0
 10
42.7698716006
 20
83.9422272596
 30
0.0
 10
42.7698716006
 20
84.046407907
 30
0.0
  0
SPLINE
  5
303
330
1B
100
AcDbEntity
 67
     1
  8
02___PRT_ALL_AXES
  6
Continuous
 62
     7
100
AcDbSpline
 70
     0
 71
     3
 72
    15
 73
    11
 74
     0
 42
0.000000001
 43
0.0000001
 40
0.0
 40
0.0
 40
0.0
 40
0.0
 40
0.1271200361
 40
0.2539130144
 40
0.3801208294
 40
0.5055520268
 40
0.6301380952
 40
0.7539382509
 40
0.8771334218
 40
1.0
 40
1.0
 40
1.0
 40
1.0
 10
44.4198665427
 20
79.5028400491
 30
0.0
 10
44.6746368752
 20
79.5028400491
 30
0.0
 10
45.1848451209
 20
79.551258933
 30
0.0
 10
45.9202202493
 20
79.7665320283
 30
0.0
 10
46.598568416
 20
80.116246887
 30
0.0
 10
47.1934943298
 20
80.5872434506
 30
0.0
 10
47.6821414537
 20
81.1615689972
 30
0.0
 10
48.0455226385
 20
81.8173861195
 30
0.0
 10
48.2694241017
 20
82.5290976864
 30
0.0
 10
48.3198614269
 20
83.0237050975
 30
0.0
 10
48.3198614269
 20
83.2699507717
 30
0.0
  0
SPLINE
  5
304
330
1B
100
AcDbEntity
 67
     1
  8
02___PRT_ALL_AXES
  6
Continuous
 62
     7
100
AcDbSpline
 70
     0
 71
     3
 72
    15
 73
    11
 74
     0
 42
0.000000001
 43
0.0000001
 40
0.0
 40
0.0
 40
0.0
 40
0.0
 40
0.1271200361
 40
0.2539130144
 40
0.3801208294
 40
0.5055520268
 40
0.6301380952
 40
0.7539382509
 40
0.8771334218
 40
1.0
 40
1.0
 40
1.0
 40
1.0
 10
44.4198665427
 20
79.5028400491
 30
0.0
 10
44.1650962101
 20
79.5028400491
 30
0.0
 10
43.6548879645
 20
79.551258933
 30
0.0
 10
42.9195128361
 20
79.7665320283
 30
0.0
 10
42.2411646694
 20
80.116246887
 30
0.0
 10
41.6462387555
 20
80.5872434506
 30
0.0
 10
41.1575916317
 20
81.1615689972
 30
0.0
 10
40.7942104468
 20
81.8173861195
 30
0.0
 10
40.5703089837
 20
82.5290976864
 30
0.0
 10
40.5198716585
 20
83.0237050975
 30
0.0
 10
40.5198716585
 20
83.2699507717
 30
0.0
  0
SPLINE
  5
305
330
1B
100
AcDbEntity
 67
     1
  8
7_ALL_FEATURES
  6
Continuous
 62
     7
100
AcDbSpline
 70
     0
 71
     3
 72
    15
 73
    11
 74
     0
 42
0.000000001
 43
0.0000001
 40
0.0
 40
0.0
 40
0.0
 40
0.0
 40
0.1271200248
 40
0.2539130027
 40
0.3801208199
 40
0.5055520189
 40
0.630138089
 40
0.7539382469
 40
0.8771334198
 40
1.0
 40
1.0
 40
1.0
 40
1.0
 10
44.4198665427
 20
77.3287600703
 30
0.0
 10
44.1650962326
 20
77.32876007
 30
0.0
 10
43.6548880113
 20
77.3771789502
 30
0.0
 10
42.9195128964
 20
77.5924520228
 30
0.0
 10
42.2411647183
 20
77.9421668754
 30
0.0
 10
41.6462387903
 20
78.413163439
 30
0.0
 10
41.1575916517
 20
78.9874889878
 30
0.0
 10
40.7942104553
 20
79.6433061177
 30
0.0
 10
40.5703089858
 20
80.3550176958
 30
0.0
 10
40.5198716586
 20
80.849625115
 30
0.0
 10
40.5198716586
 20
81.0958707932
 30
0.0
  0
LINE
  5
306
330
1B
100
AcDbEntity
 67
     1
  8
02___PRT_ALL_AXES
  6
Continuous
 62
     7
100
AcDbLine
 10
48.3198665427
 20
83.2699507717
 30
0.0
 11
48.3198665427
 21
83.7228841006
 31
0.0
  0
SPLINE
  5
307
330
1B
100
AcDbEntity
 67
     1
  8
02___PRT_ALL_AXES
  6
Continuous
 62
     7
100
AcDbSpline
 70
     0
 71
     3
 72
    15
 73
    11
 74
     0
 42
0.000000001
 43
0.0000001
 40
0.0
 40
0.0
 40
0.0
 40
0.0
 40
0.1228665782
 40
0.2460617491
 40
0.3698619048
 40
0.4944479732
 40
0.6198791706
 40
0.7460869856
 40
0.8728799639
 40
1.0
 40
1.0
 40
1.0
 40
1.0
 10
48.3198614269
 20
83.7228841006
 30
0.0
 10
48.3198614269
 20
83.9691297747
 30
0.0
 10
48.2694241017
 20
84.4637371858
 30
0.0
 10
48.0455226385
 20
85.1754487527
 30
0.0
 10
47.6821414537
 20
85.831265875
 30
0.0
 10
47.1934943298
 20
86.4055914216
 30
0.0
 10
46.598568416
 20
86.8765879852
 30
0.0
 10
45.9202202493
 20
87.2263028439
 30
0.0
 10
45.1848451209
 20
87.4415759392
 30
0.0
 10
44.6746368752
 20
87.4899948231
 30
0.0
 10
44.4198665427
 20
87.4899948231
 30
0.0
  0
LINE
  5
308
330
1B
100
AcDbEntity
 67
     1
  8
02___PRT_ALL_AXES
  6
Continuous
 62
     7
100
AcDbLine
 10
48.3198665427
 20
81.0958707928
 30
0.0
 11
48.3198665427
 21
82.7523126815
 31
0.0
  0
SPLINE
  5
309
330
1B
100
AcDbEntity
 67
     1
  8
7_ALL_FEATURES
  6
Continuous
 62
     7
100
AcDbSpline
 70
     0
 71
     3
 72
    15
 73
    11
 74
     0
 42
0.000000001
 43
0.0000001
 40
0.0
 40
0.0
 40
0.0
 40
0.0
 40
0.1228665802
 40
0.2460617532
 40
0.3698619111
 40
0.4944479812
 40
0.6198791803
 40
0.7460869974
 40
0.8728799753
 40
1.0
 40
1.0
 40
1.0
 40
1.0
 10
48.3198614267
 20
81.0958707924
 30
0.0
 10
48.3198614267
 20
80.8496251142
 30
0.0
 10
48.2694240994
 20
80.355017695
 30
0.0
 10
48.0455226298
 20
79.6433061169
 30
0.0
 10
47.6821414331
 20
78.987488987
 30
0.0
 10
47.1934942943
 20
78.4131634383
 30
0.0
 10
46.5985683661
 20
77.9421668748
 30
0.0
 10
45.920220188
 20
77.5924520224
 30
0.0
 10
45.1848450734
 20
77.3771789501
 30
0.0
 10
44.6746368525
 20
77.32876007
 30
0.0
 10
44.4198665427
 20
77.3287600703
 30
0.0
  0
ARC
  5
30A
330
1B
100
AcDbEntity
 67
     1
  8
02___PRT_ALL_AXES
  6
Continuous
 62
     7
100
AcDbCircle
 10
44.6788182887
 20
82.7523120478
 30
0.0
 40
3.6410431382
100
AcDbArc
 50
0.0000099719
 51
4.077093622999999
  0
LINE
  5
30B
330
1B
100
AcDbEntity
 67
     1
  8
02___PRT_ALL_AXES
  6
Continuous
 62
     7
100
AcDbLine
 10
40.5198665427
 20
83.2699507717
 30
0.0
 11
40.5198665427
 21
83.7228841006
 31
0.0
  0
SPLINE
  5
30C
330
1B
100
AcDbEntity
 67
     1
  8
02___PRT_ALL_AXES
  6
Continuous
 62
     7
100
AcDbSpline
 70
     0
 71
     3
 72
    15
 73
    11
 74
     0
 42
0.000000001
 43
0.0000001
 40
0.0
 40
0.0
 40
0.0
 40
0.0
 40
0.1228665782
 40
0.2460617491
 40
0.3698619048
 40
0.4944479732
 40
0.6198791706
 40
0.7460869856
 40
0.8728799639
 40
1.0
 40
1.0
 40
1.0
 40
1.0
 10
40.5198716585
 20
83.7228841006
 30
0.0
 10
40.5198716585
 20
83.9691297747
 30
0.0
 10
40.5703089837
 20
84.4637371858
 30
0.0
 10
40.7942104468
 20
85.1754487527
 30
0.0
 10
41.1575916317
 20
85.831265875
 30
0.0
 10
41.6462387555
 20
86.4055914216
 30
0.0
 10
42.2411646694
 20
86.8765879852
 30
0.0
 10
42.9195128361
 20
87.2263028439
 30
0.0
 10
43.6548879645
 20
87.4415759392
 30
0.0
 10
44.1650962101
 20
87.4899948231
 30
0.0
 10
44.4198665427
 20
87.4899948231
 30
0.0
  0
LINE
  5
30D
330
1B
100
AcDbEntity
 67
     1
  8
02___PRT_ALL_AXES
  6
Continuous
 62
     7
100
AcDbLine
 10
40.5198665427
 20
81.0958707928
 30
0.0
 11
40.5198665427
 21
82.7523126815
 31
0.0
  0
ARC
  5
30E
330
1B
100
AcDbEntity
 67
     1
  8
02___PRT_ALL_AXES
  6
Continuous
 62
     7
100
AcDbCircle
 10
44.1609147967
 20
82.7523120478
 30
0.0
 40
3.6410431382
100
AcDbArc
 50
175.922906377
 51
179.9999900281
  0
SPLINE
  5
30F
330
1B
100
AcDbEntity
 67
     1
  8
7_ALL_FEATURES
  6
Continuous
 62
     7
100
AcDbSpline
 70
     0
 71
     3
 72
    15
 73
    11
 74
     0
 42
0.000000001
 43
0.0000001
 40
0.0
 40
0.0
 40
0.0
 40
0.0
 40
0.1228664509
 40
0.2460615485
 40
0.3698615763
 40
0.4944477352
 40
0.6198785529
 40
0.7460871221
 40
0.8728812454
 40
1.0
 40
1.0
 40
1.0
 40
1.0
 10
46.0698614848
 20
84.046407907
 30
0.0
 10
46.0698614848
 20
83.9422272596
 30
0.0
 10
46.0485211493
 20
83.7329707112
 30
0.0
 10
45.9537934534
 20
83.431863061
 30
0.0
 10
45.8000591221
 20
83.154400187
 30
0.0
 10
45.5933226555
 20
82.9114178866
 30
0.0
 10
45.3416239634
 20
82.7121495515
 30
0.0
 10
45.0546306307
 20
82.5641906883
 30
0.0
 10
44.7435097909
 20
82.4731142327
 30
0.0
 10
44.5276527939
 20
82.4526302936
 30
0.0
 10
44.4198665427
 20
82.4526302936
 30
0.0
  0
SPLINE
  5
310
330
1B
100
AcDbEntity
 67
     1
  8
7_ALL_FEATURES
  6
Continuous
 62
     7
100
AcDbSpline
 70
     0
 71
     3
 72
    15
 73
    11
 74
     0
 42
0.000000001
 43
0.0000001
 40
0.0
 40
0.0
 40
0.0
 40
0.0
 40
0.1271187546
 40
0.2539128779
 40
0.3801214471
 40
0.5055522648
 40
0.6301384237
 40
0.7539384515
 40
0.8771335491
 40
1.0
 40
1.0
 40
1.0
 40
1.0
 10
44.4198665427
 20
85.6401855203
 30
0.0
 10
44.5276527939
 20
85.6401855203
 30
0.0
 10
44.7435097909
 20
85.6197015813
 30
0.0
 10
45.0546306307
 20
85.5286251256
 30
0.0
 10
45.3416239634
 20
85.3806662624
 30
0.0
 10
45.5933226555
 20
85.1813979274
 30
0.0
 10
45.8000591221
 20
84.938415627
 30
0.0
 10
45.9537934534
 20
84.660952753
 30
0.0
 10
46.0485211493
 20
84.3598451027
 30
0.0
 10
46.0698614848
 20
84.1505885543
 30
0.0
 10
46.0698614848
 20
84.046407907
 30
0.0
  0
SPLINE
  5
311
330
1B
100
AcDbEntity
 67
     1
  8
02___PRT_ALL_AXES
  6
Continuous
 62
     7
100
AcDbSpline
 70
     0
 71
     3
 72
    15
 73
    11
 74
     0
 42
0.000000001
 43
0.0000001
 40
0.0
 40
0.0
 40
0.0
 40
0.0
 40
0.1271200361
 40
0.2539130144
 40
0.3801208294
 40
0.5055520268
 40
0.6301380952
 40
0.7539382509
 40
0.8771334218
 40
1.0
 40
1.0
 40
1.0
 40
1.0
 10
44.4198665427
 20
78.9852019589
 30
0.0
 10
44.6746368752
 20
78.9852019589
 30
0.0
 10
45.1848451209
 20
79.0336208428
 30
0.0
 10
45.9202202493
 20
79.2488939381
 30
0.0
 10
46.598568416
 20
79.5986087968
 30
0.0
 10
47.1934943298
 20
80.0696053604
 30
0.0
 10
47.6821414537
 20
80.643930907
 30
0.0
 10
48.0455226385
 20
81.2997480293
 30
0.0
 10
48.2694241017
 20
82.0114595962
 30
0.0
 10
48.3198614269
 20
82.5060670073
 30
0.0
 10
48.3198614269
 20
82.7523126815
 30
0.0
  0
SPLINE
  5
312
330
1B
100
AcDbEntity
 67
     1
  8
02___PRT_ALL_AXES
  6
Continuous
 62
     7
100
AcDbSpline
 70
     0
 71
     3
 72
    27
 73
    23
 74
     0
 42
0.000000001
 43
0.0000001
 40
0.0
 40
0.0
 40
0.0
 40
0.0
 40
0.0635413274
 40
0.0952950072
 40
0.1269908659
 40
0.1900762935
 40
0.2527732725
 40
0.2840008754
 40
0.3151238502
 40
0.3770055669
 40
0.4385849169
 40
0.5
 40
0.5614150831
 40
0.6229944331
 40
0.6848761498
 40
0.7159991246
 40
0.7472267275
 40
0.8099237065
 40
0.8730091341
 40
0.9047049928
 40
0.9364586726
 40
1.0
 40
1.0
 40
1.0
 40
1.0
 10
44.4198665427
 20
80.9763941042
 30
0.0
 10
44.2122405534
 20
80.9763941042
 30
0.0
 10
43.8998016993
 20
81.0060827925
 30
0.0
 10
43.4960536103
 20
81.1037941745
 30
0.0
 10
43.104712714
 20
81.2389779785
 30
0.0
 10
42.6443276488
 20
81.4762561288
 30
0.0
 10
42.2393985406
 20
81.7969196968
 30
0.0
 10
41.959392602
 20
82.095302294
 30
0.0
 10
41.7117376252
 20
82.417655737
 30
0.0
 10
41.4650908488
 20
82.8626523427
 30
0.0
 10
41.2826779362
 20
83.442794258
 30
0.0
 10
41.2210200622
 20
84.046407907
 30
0.0
 10
41.2826779362
 20
84.650021556
 30
0.0
 10
41.4650908488
 20
85.2301634712
 30
0.0
 10
41.7117376252
 20
85.6751600769
 30
0.0
 10
41.959392602
 20
85.99751352
 30
0.0
 10
42.2393985406
 20
86.2958961171
 30
0.0
 10
42.6443276488
 20
86.6165596851
 30
0.0
 10
43.104712714
 20
86.8538378355
 30
0.0
 10
43.4960536103
 20
86.9890216394
 30
0.0
 10
43.8998016993
 20
87.0867330214
 30
0.0
 10
44.2122405534
 20
87.1164217097
 30
0.0
 10
44.4198665427
 20
87.1164217097
 30
0.0
  0
SPLINE
  5
313
330
1B
100
AcDbEntity
 67
     1
  8
02___PRT_ALL_AXES
  6
Continuous
 62
     7
100
AcDbSpline
 70
     0
 71
     3
 72
    15
 73
    11
 74
     0
 42
0.000000001
 43
0.0000001
 40
0.0
 40
0.0
 40
0.0
 40
0.0
 40
0.1271200361
 40
0.2539130144
 40
0.3801208294
 40
0.5055520268
 40
0.6301380952
 40
0.7539382509
 40
0.8771334218
 40
1.0
 40
1.0
 40
1.0
 40
1.0
 10
44.4198665427
 20
79.9557733781
 30
0.0
 10
44.1650962101
 20
79.9557733781
 30
0.0
 10
43.6548879645
 20
80.0041922619
 30
0.0
 10
42.9195128361
 20
80.2194653572
 30
0.0
 10
42.2411646694
 20
80.5691802159
 30
0.0
 10
41.6462387555
 20
81.0401767795
 30
0.0
 10
41.1575916317
 20
81.6145023261
 30
0.0
 10
40.7942104468
 20
82.2703194485
 30
0.0
 10
40.5703089837
 20
82.9820310154
 30
0.0
 10
40.5198716585
 20
83.4766384264
 30
0.0
 10
40.5198716585
 20
83.7228841006
 30
0.0
  0
SPLINE
  5
314
330
1B
100
AcDbEntity
 67
     1
  8
7_ALL_FEATURES
  6
Continuous
 62
     7
100
AcDbSpline
 70
     0
 71
     3
 72
    15
 73
    11
 74
     0
 42
0.000000001
 43
0.0000001
 40
0.0
 40
0.0
 40
0.0
 40
0.0
 40
0.1228664509
 40
0.2460615485
 40
0.3698615763
 40
0.4944477352
 40
0.6198785529
 40
0.7460871221
 40
0.8728812454
 40
1.0
 40
1.0
 40
1.0
 40
1.0
 10
42.7698716006
 20
84.046407907
 30
0.0
 10
42.7698716006
 20
84.1505885543
 30
0.0
 10
42.7912119361
 20
84.3598451027
 30
0.0
 10
42.885939632
 20
84.660952753
 30
0.0
 10
43.0396739632
 20
84.938415627
 30
0.0
 10
43.2464104299
 20
85.1813979274
 30
0.0
 10
43.4981091219
 20
85.3806662624
 30
0.0
 10
43.7851024547
 20
85.5286251256
 30
0.0
 10
44.0962232945
 20
85.6197015813
 30
0.0
 10
44.3120802915
 20
85.6401855203
 30
0.0
 10
44.4198665427
 20
85.6401855203
 30
0.0
  0
SPLINE
  5
315
330
1B
100
AcDbEntity
 67
     1
  8
02___PRT_ALL_AXES
  6
Continuous
 62
     7
100
AcDbSpline
 70
     0
 71
     3
 72
    27
 73
    23
 74
     0
 42
0.000000001
 43
0.0000001
 40
0.0
 40
0.0
 40
0.0
 40
0.0
 40
0.0635413274
 40
0.0952950072
 40
0.1269908659
 40
0.1900762935
 40
0.2527732725
 40
0.2840008754
 40
0.3151238502
 40
0.3770055669
 40
0.4385849169
 40
0.5
 40
0.5614150831
 40
0.6229944331
 40
0.6848761498
 40
0.7159991246
 40
0.7472267275
 40
0.8099237065
 40
0.8730091341
 40
0.9047049928
 40
0.9364586726
 40
1.0
 40
1.0
 40
1.0
 40
1.0
 10
44.4198665427
 20
80.9763941042
 30
0.0
 10
44.627492532
 20
80.9763941042
 30
0.0
 10
44.939931386
 20
81.0060827925
 30
0.0
 10
45.3436794751
 20
81.1037941745
 30
0.0
 10
45.7350203714
 20
81.2389779785
 30
0.0
 10
46.1954054366
 20
81.4762561288
 30
0.0
 10
46.6003345447
 20
81.7969196968
 30
0.0
 10
46.8803404834
 20
82.095302294
 30
0.0
 10
47.1279954602
 20
82.417655737
 30
0.0
 10
47.3746422366
 20
82.8626523427
 30
0.0
 10
47.5570551492
 20
83.442794258
 30
0.0
 10
47.6187130232
 20
84.046407907
 30
0.0
 10
47.5570551492
 20
84.650021556
 30
0.0
 10
47.3746422366
 20
85.2301634712
 30
0.0
 10
47.1279954602
 20
85.6751600769
 30
0.0
 10
46.8803404834
 20
85.99751352
 30
0.0
 10
46.6003345447
 20
86.2958961171
 30
0.0
 10
46.1954054366
 20
86.6165596851
 30
0.0
 10
45.7350203714
 20
86.8538378355
 30
0.0
 10
45.3436794751
 20
86.9890216394
 30
0.0
 10
44.939931386
 20
87.0867330214
 30
0.0
 10
44.627492532
 20
87.1164217097
 30
0.0
 10
44.4198665427
 20
87.1164217097
 30
0.0
  0
SPLINE
  5
316
330
1B
100
AcDbEntity
 67
     1
  8
02___PRT_ALL_AXES
  6
Continuous
 62
     7
100
AcDbSpline
 70
     0
 71
     3
 72
    15
 73
    11
 74
     0
 42
0.000000001
 43
0.0000001
 40
0.0
 40
0.0
 40
0.0
 40
0.0
 40
0.1271200361
 40
0.2539130144
 40
0.3801208294
 40
0.5055520268
 40
0.6301380952
 40
0.7539382509
 40
0.8771334218
 40
1.0
 40
1.0
 40
1.0
 40
1.0
 10
44.4198665427
 20
79.9557733781
 30
0.0
 10
44.6746368752
 20
79.9557733781
 30
0.0
 10
45.1848451209
 20
80.0041922619
 30
0.0
 10
45.9202202493
 20
80.2194653572
 30
0.0
 10
46.598568416
 20
80.5691802159
 30
0.0
 10
47.1934943298
 20
81.0401767795
 30
0.0
 10
47.6821414537
 20
81.6145023261
 30
0.0
 10
48.0455226385
 20
82.2703194485
 30
0.0
 10
48.2694241017
 20
82.9820310154
 30
0.0
 10
48.3198614269
 20
83.4766384264
 30
0.0
 10
48.3198614269
 20
83.7228841006
 30
0.0
  0
SPLINE
  5
317
330
1B
100
AcDbEntity
 67
     1
  8
02___PRT_ALL_AXES
  6
Continuous
 62
     7
100
AcDbSpline
 70
     0
 71
     3
 72
    15
 73
    11
 74
     0
 42
0.000000001
 43
0.0000001
 40
0.0
 40
0.0
 40
0.0
 40
0.0
 40
0.1271200361
 40
0.2539130144
 40
0.3801208294
 40
0.5055520268
 40
0.6301380952
 40
0.7539382509
 40
0.8771334218
 40
1.0
 40
1.0
 40
1.0
 40
1.0
 10
44.4198665427
 20
78.9852019589
 30
0.0
 10
44.1650962101
 20
78.9852019589
 30
0.0
 10
43.6548879645
 20
79.0336208428
 30
0.0
 10
42.9195128361
 20
79.2488939381
 30
0.0
 10
42.2411646694
 20
79.5986087968
 30
0.0
 10
41.6462387555
 20
80.0696053604
 30
0.0
 10
41.1575916317
 20
80.643930907
 30
0.0
 10
40.7942104468
 20
81.2997480293
 30
0.0
 10
40.5703089837
 20
82.0114595962
 30
0.0
 10
40.5198716585
 20
82.5060670073
 30
0.0
 10
40.5198716585
 20
82.7523126815
 30
0.0
  0
LINE
  5
318
330
1B
100
AcDbEntity
 67
     1
  8
7_ALL_FEATURES
  6
Continuous
 62
     7
100
AcDbLine
 10
34.9198665427
 20
67.0409215468
 30
0.0
 11
34.9198665427
 21
94.2708352855
 31
0.0
  0
LINE
  5
319
330
1B
100
AcDbEntity
 67
     1
  8
7_ALL_FEATURES
  6
Continuous
 62
     7
100
AcDbLine
 10
242.9198665427
 20
94.2708352855
 30
0.0
 11
242.9198665427
 21
67.0409215468
 31
0.0
  0
LINE
  5
31A
330
1B
100
AcDbEntity
 67
     1
  8
7_ALL_FEATURES
  6
Continuous
 62
     7
100
AcDbLine
 10
35.3108341545
 20
94.6618028973
 30
0.0
 11
35.1659452806
 21
94.5169140234
 31
0.0
  0
LINE
  5
31B
330
1B
100
AcDbEntity
 67
     1
  8
7_ALL_FEATURES
  6
Continuous
 62
     7
100
AcDbLine
 10
35.0647554166
 20
66.8960326728
 30
0.0
 11
34.9198665427
 21
67.0409215468
 31
0.0
  0
LINE
  5
31C
330
1B
100
AcDbEntity
 67
     1
  8
7_ALL_FEATURES
  6
Continuous
 62
     7
100
AcDbLine
 10
35.3108341545
 20
66.6499539349
 30
0.0
 11
35.0647554166
 21
66.8960326728
 31
0.0
  0
LINE
  5
31D
330
1B
100
AcDbEntity
 67
     1
  8
7_ALL_FEATURES
  6
Continuous
 62
     7
100
AcDbLine
 10
242.9198665427
 20
67.0409215468
 30
0.0
 11
242.7749776687
 21
66.8960326728
 31
0.0
  0
LINE
  5
31E
330
1B
100
AcDbEntity
 67
     1
  8
7_ALL_FEATURES
  6
Continuous
 62
     7
100
AcDbLine
 10
242.5288989308
 20
66.6499539349
 30
0.0
 11
242.7749776687
 21
66.8960326728
 31
0.0
  0
LINE
  5
31F
330
1B
100
AcDbEntity
 67
     1
  8
7_ALL_FEATURES
  6
Continuous
 62
     7
100
AcDbLine
 10
242.9198665427
 20
94.2708352855
 30
0.0
 11
242.6737878048
 21
94.5169140234
 31
0.0
  0
LINE
  5
320
330
1B
100
AcDbEntity
 67
     1
  8
7_ALL_FEATURES
  6
Continuous
 62
     7
100
AcDbLine
 10
242.6737878048
 20
94.5169140234
 30
0.0
 11
242.5288989308
 21
94.6618028973
 31
0.0
  0
LINE
  5
321
330
1B
100
AcDbEntity
 67
     1
  8
7_ALL_FEATURES
  6
Continuous
 62
     7
100
AcDbLine
 10
35.1659452806
 20
94.5169140234
 30
0.0
 11
34.9198665427
 21
94.2708352855
 31
0.0
  0
LINE
  5
322
330
1B
100
AcDbEntity
 67
     1
  8
7_ALL_FEATURES
  6
Continuous
 62
     7
100
AcDbLine
 10
242.5288989308
 20
94.6618028973
 30
0.0
 11
35.3108341545
 21
94.6618028973
 31
0.0
  0
ARC
  5
323
330
1B
100
AcDbEntity
 67
     1
  8
02___PRT_ALL_AXES
  6
Continuous
 62
     7
100
AcDbCircle
 10
58.9198665427
 20
80.6558784161
 30
0.0
 40
7.5
100
AcDbArc
 50
270.0
 51
90.0
  0
ARC
  5
324
330
1B
100
AcDbEntity
 67
     1
  8
02___PRT_ALL_AXES
  6
Continuous
 62
     7
100
AcDbCircle
 10
58.9198665427
 20
80.6558784161
 30
0.0
 40
7.5
100
AcDbArc
 50
90.0
 51
270.0
  0
ARC
  5
325
330
1B
100
AcDbEntity
 67
     1
  8
02___PRT_ALL_AXES
  6
Continuous
 62
     7
100
AcDbCircle
 10
218.9198665427
 20
80.6558784161
 30
0.0
 40
7.5
100
AcDbArc
 50
270.0
 51
90.0
  0
ARC
  5
326
330
1B
100
AcDbEntity
 67
     1
  8
02___PRT_ALL_AXES
  6
Continuous
 62
     7
100
AcDbCircle
 10
218.9198665427
 20
80.6558784161
 30
0.0
 40
7.5
100
AcDbArc
 50
90.0
 51
270.0
  0
LINE
  5
327
330
1B
100
AcDbEntity
 67
     1
  8
02___PRT_ALL_AXES
  6
Continuous
 62
     7
100
AcDbLine
 10
61.4198665427
 20
83.1558784161
 30
0.0
 11
61.4198665427
 21
78.1558784161
 31
0.0
  0
ARC
  5
328
330
1B
100
AcDbEntity
 67
     1
  8
02___PRT_ALL_AXES
  6
Continuous
 62
     7
100
AcDbCircle
 10
58.9198665427
 20
83.1558784161
 30
0.0
 40
2.5
100
AcDbArc
 50
0.0
 51
180.0
  0
LINE
  5
329
330
1B
100
AcDbEntity
 67
     1
  8
02___PRT_ALL_AXES
  6
Continuous
 62
     7
100
AcDbLine
 10
56.4198665427
 20
78.1558784161
 30
0.0
 11
56.4198665427
 21
83.1558784161
 31
0.0
  0
ARC
  5
32A
330
1B
100
AcDbEntity
 67
     1
  8
02___PRT_ALL_AXES
  6
Continuous
 62
     7
100
AcDbCircle
 10
173.9198665427
 20
80.6558784161
 30
0.0
 40
10.0
100
AcDbArc
 50
270.0
 51
90.0
  0
LINE
  5
32B
330
1B
100
AcDbEntity
 67
     1
  8
02___PRT_ALL_AXES
  6
Continuous
 62
     7
100
AcDbLine
 10
103.9198665427
 20
90.6558784161
 30
0.0
 11
173.9198665427
 21
90.6558784161
 31
0.0
  0
ARC
  5
32C
330
1B
100
AcDbEntity
 67
     1
  8
02___PRT_ALL_AXES
  6
Continuous
 62
     7
100
AcDbCircle
 10
103.9198665427
 20
80.6558784161
 30
0.0
 40
10.0
100
AcDbArc
 50
90.0
 51
270.0
  0
LINE
  5
32D
330
1B
100
AcDbEntity
 67
     1
  8
02___PRT_ALL_AXES
  6
Continuous
 62
     7
100
AcDbLine
 10
173.9198665427
 20
70.6558784161
 30
0.0
 11
103.9198665427
 21
70.6558784161
 31
0.0
  0
LINE
  5
32E
330
1B
100
AcDbEntity
 67
     1
  8
7_ALL_FEATURES
  6
Continuous
 62
     7
100
AcDbLine
 10
242.5288989308
 20
66.6499539349
 30
0.0
 11
35.3108341545
 21
66.6499539349
 31
0.0
  0
ARC
  5
32F
330
1B
100
AcDbEntity
 67
     1
  8
02___PRT_ALL_AXES
  6
Continuous
 62
     7
100
AcDbCircle
 10
58.9198665427
 20
78.1558784161
 30
0.0
 40
2.5
100
AcDbArc
 50
180.0
 51
360.0
  0
LINE
  5
330
330
1B
100
AcDbEntity
 67
     1
  8
02___PRT_ALL_AXES
  6
Continuous
 62
     7
100
AcDbLine
 10
221.4198665427
 20
78.1558784161
 30
0.0
 11
216.4198665427
 21
78.1558784161
 31
0.0
  0
ARC
  5
331
330
1B
100
AcDbEntity
 67
     1
  8
02___PRT_ALL_AXES
  6
Continuous
 62
     7
100
AcDbCircle
 10
221.4198665427
 20
80.6558784161
 30
0.0
 40
2.5
100
AcDbArc
 50
270.0
 51
90.0
  0
ARC
  5
332
330
1B
100
AcDbEntity
 67
     1
  8
02___PRT_ALL_AXES
  6
Continuous
 62
     7
100
AcDbCircle
 10
216.4198665427
 20
80.6558784161
 30
0.0
 40
2.5
100
AcDbArc
 50
90.0
 51
270.0
  0
LINE
  5
333
330
1B
100
AcDbEntity
 67
     1
  8
02___PRT_ALL_AXES
  6
Continuous
 62
     7
100
AcDbLine
 10
216.4198665427
 20
83.1558784161
 30
0.0
 11
221.4198665427
 21
83.1558784161
 31
0.0
  0
LINE
  5
334
330
1B
100
AcDbEntity
 67
     1
  8
7_ALL_FEATURES
  6
Continuous
 62
     7
100
AcDbLine
 10
35.3108341545
 20
94.3720251494
 30
0.0
 11
35.1659452806
 21
94.5169140234
 31
0.0
  0
LINE
  5
335
330
1B
100
AcDbEntity
 67
     1
  8
7_ALL_FEATURES
  6
Continuous
 62
     7
100
AcDbLine
 10
242.5288989308
 20
94.3720251494
 30
0.0
 11
242.5288989308
 21
67.1421114107
 31
0.0
  0
LINE
  5
336
330
1B
100
AcDbEntity
 67
     1
  8
7_ALL_FEATURES
  6
Continuous
 62
     7
100
AcDbLine
 10
242.5288989308
 20
67.1421114107
 30
0.0
 11
35.3108341545
 21
67.1421114107
 31
0.0
  0
LINE
  5
337
330
1B
100
AcDbEntity
 67
     1
  8
7_ALL_FEATURES
  6
Continuous
 62
     7
100
AcDbLine
 10
35.3108341545
 20
67.1421114107
 30
0.0
 11
35.3108341545
 21
94.3720251494
 31
0.0
  0
LINE
  5
338
330
1B
100
AcDbEntity
 67
     1
  8
7_ALL_FEATURES
  6
Continuous
 62
     7
100
AcDbLine
 10
242.5288989308
 20
94.3720251494
 30
0.0
 11
35.3108341545
 21
94.3720251494
 31
0.0
  0
LINE
  5
339
330
1B
100
AcDbEntity
 67
     1
  8
7_ALL_FEATURES
  6
Continuous
 62
     7
100
AcDbLine
 10
242.5288989308
 20
94.3720251494
 30
0.0
 11
242.6737878048
 21
94.5169140234
 31
0.0
  0
LINE
  5
33A
330
1B
100
AcDbEntity
 67
     1
  8
7_ALL_FEATURES
  6
Continuous
 62
     7
100
AcDbLine
 10
35.3108341545
 20
67.1421114107
 30
0.0
 11
35.0647554166
 21
66.8960326728
 31
0.0
  0
LINE
  5
33B
330
1B
100
AcDbEntity
 67
     1
  8
7_ALL_FEATURES
  6
Continuous
 62
     7
100
AcDbLine
 10
242.7749776687
 20
66.8960326728
 30
0.0
 11
242.5288989308
 21
67.1421114107
 31
0.0
  0
SPLINE
  5
33C
330
1B
100
AcDbEntity
 67
     1
  8
02___PRT_ALL_AXES
  6
Continuous
 62
     7
100
AcDbSpline
 70
     0
 71
     3
 72
    18
 73
    14
 74
     0
 42
0.000000001
 43
0.0000001
 40
0.0
 40
0.0
 40
0.0
 40
0.0
 40
0.1703073083
 40
0.3356510974
 40
0.4912853591
 40
0.632819794
 40
0.7564813117
 40
0.810683421
 40
0.859433582
 40
0.9025962391
 40
0.9401899974
 40
0.9724568854
 40
1.0
 40
1.0
 40
1.0
 40
1.0
 10
44.4198665427
 20
222.7912791618
 30
0.0
 10
44.2333398812
 20
222.7912791618
 30
0.0
 10
43.8656636121
 20
222.7829627373
 30
0.0
 10
43.3286830447
 20
222.7457560512
 30
0.0
 10
42.8254960353
 20
222.6851461285
 30
0.0
 10
42.3716668626
 20
222.6031052942
 30
0.0
 10
42.0323705589
 20
222.5158828603
 30
0.0
 10
41.7974785948
 20
222.4353312135
 30
0.0
 10
41.649517214
 20
222.374023442
 30
0.0
 10
41.5229372337
 20
222.3096379963
 30
0.0
 10
41.4185549232
 20
222.2425592362
 30
0.0
 10
41.3370428741
 20
222.1731729779
 30
0.0
 10
41.2954356578
 20
222.1217450021
 30
0.0
 10
41.2798202201
 20
222.0959349644
 30
0.0
  0
LINE
  5
33D
330
1B
100
AcDbEntity
 67
     1
  8
02___PRT_ALL_AXES
  6
Continuous
 62
     7
100
AcDbLine
 10
48.2729160333
 20
220.9174179977
 30
0.0
 11
47.5599163024
 21
222.0959292996
 31
0.0
  0
SPLINE
  5
33E
330
1B
100
AcDbEntity
 67
     1
  8
02___PRT_ALL_AXES
  6
Continuous
 62
     7
100
AcDbSpline
 70
     0
 71
     3
 72
     9
 73
     5
 74
     0
 42
0.000000001
 43
0.0000001
 40
0.0
 40
0.0
 40
0.0
 40
0.0
 40
0.5189530246
 40
1.0
 40
1.0
 40
1.0
 40
1.0
 10
48.2729110392
 20
220.9174177953
 30
0.0
 10
48.2876512052
 20
220.8930530464
 30
0.0
 10
48.3112558471
 20
220.8427958756
 30
0.0
 10
48.3198614269
 20
220.7876606813
 30
0.0
 10
48.3198614269
 20
220.7612641598
 30
0.0
  0
LINE
  5
33F
330
1B
100
AcDbEntity
 67
     1
  8
02___PRT_ALL_AXES
  6
Continuous
 62
     7
100
AcDbLine
 10
48.3198665427
 20
219.0708939637
 30
0.0
 11
48.3198665427
 21
220.7612641598
 31
0.0
  0
SPLINE
  5
340
330
1B
100
AcDbEntity
 67
     1
  8
02___PRT_ALL_AXES
  6
Continuous
 62
     7
100
AcDbSpline
 70
     0
 71
     3
 72
    11
 73
     7
 74
     0
 42
0.000000001
 43
0.0000001
 40
0.0
 40
0.0
 40
0.0
 40
0.0
 40
0.2196204291
 40
0.452633061
 40
0.7101130129
 40
1.0
 40
1.0
 40
1.0
 40
1.0
 10
48.3198614269
 20
219.0708939637
 30
0.0
 10
48.3198614269
 20
219.0478989961
 30
0.0
 10
48.3134352983
 20
219.0003041972
 30
0.0
 10
48.2852033869
 20
218.9308394423
 30
0.0
 10
48.2391507262
 20
218.862781641
 30
0.0
 10
48.1994719471
 20
218.8211042483
 30
0.0
 10
48.1772517644
 20
218.8004278454
 30
0.0
  0
LINE
  5
341
330
1B
100
AcDbEntity
 67
     1
  8
02___PRT_ALL_AXES
  6
Continuous
 62
     7
100
AcDbLine
 10
47.4299356057
 20
218.1049681375
 30
0.0
 11
48.1772554143
 21
218.8004275827
 31
0.0
  0
LINE
  5
342
330
1B
100
AcDbEntity
 67
     1
  8
02___PRT_ALL_AXES
  6
Continuous
 62
     7
100
AcDbLine
 10
48.1772554143
 20
217.4095086922
 30
0.0
 11
47.2138223703
 21
218.3060841644
 31
0.0
  0
SPLINE
  5
343
330
1B
100
AcDbEntity
 67
     1
  8
02___PRT_ALL_AXES
  6
Continuous
 62
     7
100
AcDbSpline
 70
     0
 71
     3
 72
    11
 73
     7
 74
     0
 42
0.000000001
 43
0.0000001
 40
0.0
 40
0.0
 40
0.0
 40
0.0
 40
0.2898869871
 40
0.547366939
 40
0.7803795709
 40
1.0
 40
1.0
 40
1.0
 40
1.0
 10
48.1772517644
 20
217.4095084295
 30
0.0
 10
48.1994719471
 20
217.3888320266
 30
0.0
 10
48.2391507262
 20
217.3471546339
 30
0.0
 10
48.2852033869
 20
217.2790968326
 30
0.0
 10
48.3134352983
 20
217.2096320777
 30
0.0
 10
48.3198614269
 20
217.1620372788
 30
0.0
 10
48.3198614269
 20
217.1390423112
 30
0.0
  0
LINE
  5
344
330
1B
100
AcDbEntity
 67
     1
  8
02___PRT_ALL_AXES
  6
Continuous
 62
     7
100
AcDbLine
 10
48.3198665427
 20
212.936046074
 30
0.0
 11
48.3198665427
 21
217.1390423112
 31
0.0
  0
LINE
  5
345
330
1B
100
AcDbEntity
 67
     1
  8
02___PRT_ALL_AXES
  6
Continuous
 62
     7
100
AcDbLine
 10
40.566817052
 20
220.9174179977
 30
0.0
 11
41.279816783
 21
222.0959292996
 31
0.0
  0
SPLINE
  5
346
330
1B
100
AcDbEntity
 67
     1
  8
02___PRT_ALL_AXES
  6
Continuous
 62
     7
100
AcDbSpline
 70
     0
 71
     3
 72
     9
 73
     5
 74
     0
 42
0.000000001
 43
0.0000001
 40
0.0
 40
0.0
 40
0.0
 40
0.0
 40
0.5189530246
 40
1.0
 40
1.0
 40
1.0
 40
1.0
 10
40.5668220461
 20
220.9174177953
 30
0.0
 10
40.5520818802
 20
220.8930530464
 30
0.0
 10
40.5284772383
 20
220.8427958756
 30
0.0
 10
40.5198716585
 20
220.7876606813
 30
0.0
 10
40.5198716585
 20
220.7612641598
 30
0.0
  0
LINE
  5
347
330
1B
100
AcDbEntity
 67
     1
  8
02___PRT_ALL_AXES
  6
Continuous
 62
     7
100
AcDbLine
 10
40.5198665427
 20
219.0708939637
 30
0.0
 11
40.5198665427
 21
220.7612641598
 31
0.0
  0
SPLINE
  5
348
330
1B
100
AcDbEntity
 67
     1
  8
02___PRT_ALL_AXES
  6
Continuous
 62
     7
100
AcDbSpline
 70
     0
 71
     3
 72
    11
 73
     7
 74
     0
 42
0.000000001
 43
0.0000001
 40
0.0
 40
0.0
 40
0.0
 40
0.0
 40
0.2196204291
 40
0.452633061
 40
0.7101130129
 40
1.0
 40
1.0
 40
1.0
 40
1.0
 10
40.5198716585
 20
219.0708939637
 30
0.0
 10
40.5198716585
 20
219.0478989961
 30
0.0
 10
40.5262977871
 20
219.0003041972
 30
0.0
 10
40.5545296985
 20
218.9308394423
 30
0.0
 10
40.6005823592
 20
218.862781641
 30
0.0
 10
40.6402611382
 20
218.8211042483
 30
0.0
 10
40.662481321
 20
218.8004278454
 30
0.0
  0
LINE
  5
349
330
1B
100
AcDbEntity
 67
     1
  8
02___PRT_ALL_AXES
  6
Continuous
 62
     7
100
AcDbLine
 10
41.4097974797
 20
218.1049681375
 30
0.0
 11
40.6624776711
 21
218.8004275827
 31
0.0
  0
LINE
  5
34A
330
1B
100
AcDbEntity
 67
     1
  8
02___PRT_ALL_AXES
  6
Continuous
 62
     7
100
AcDbLine
 10
40.6624776711
 20
217.4095086922
 30
0.0
 11
41.6259107151
 21
218.3060841644
 31
0.0
  0
SPLINE
  5
34B
330
1B
100
AcDbEntity
 67
     1
  8
02___PRT_ALL_AXES
  6
Continuous
 62
     7
100
AcDbSpline
 70
     0
 71
     3
 72
    11
 73
     7
 74
     0
 42
0.000000001
 43
0.0000001
 40
0.0
 40
0.0
 40
0.0
 40
0.0
 40
0.2898869871
 40
0.547366939
 40
0.7803795709
 40
1.0
 40
1.0
 40
1.0
 40
1.0
 10
40.662481321
 20
217.4095084295
 30
0.0
 10
40.6402611382
 20
217.3888320266
 30
0.0
 10
40.6005823592
 20
217.3471546339
 30
0.0
 10
40.5545296985
 20
217.2790968326
 30
0.0
 10
40.5262977871
 20
217.2096320777
 30
0.0
 10
40.5198716585
 20
217.1620372788
 30
0.0
 10
40.5198716585
 20
217.1390423112
 30
0.0
  0
LINE
  5
34C
330
1B
100
AcDbEntity
 67
     1
  8
02___PRT_ALL_AXES
  6
Continuous
 62
     7
100
AcDbLine
 10
40.5198665427
 20
212.936046074
 30
0.0
 11
40.5198665427
 21
217.1390423112
 31
0.0
  0
SPLINE
  5
34D
330
1B
100
AcDbEntity
 67
     1
  8
02___PRT_ALL_AXES
  6
Continuous
 62
     7
100
AcDbSpline
 70
     0
 71
     3
 72
    18
 73
    14
 74
     0
 42
0.000000001
 43
0.0000001
 40
0.0
 40
0.0
 40
0.0
 40
0.0
 40
0.1703073083
 40
0.3356510974
 40
0.4912853591
 40
0.632819794
 40
0.7564813117
 40
0.810683421
 40
0.859433582
 40
0.9025962391
 40
0.9401899974
 40
0.9724568854
 40
1.0
 40
1.0
 40
1.0
 40
1.0
 10
44.4198665427
 20
222.7912791618
 30
0.0
 10
44.6063932042
 20
222.7912791618
 30
0.0
 10
44.9740694732
 20
222.7829627373
 30
0.0
 10
45.5110500407
 20
222.7457560512
 30
0.0
 10
46.0142370501
 20
222.6851461285
 30
0.0
 10
46.4680662228
 20
222.6031052942
 30
0.0
 10
46.8073625265
 20
222.5158828603
 30
0.0
 10
47.0422544906
 20
222.4353312135
 30
0.0
 10
47.1902158714
 20
222.374023442
 30
0.0
 10
47.3167958517
 20
222.3096379963
 30
0.0
 10
47.4211781622
 20
222.2425592362
 30
0.0
 10
47.5026902113
 20
222.1731729779
 30
0.0
 10
47.5442974276
 20
222.1217450021
 30
0.0
 10
47.5599128652
 20
222.0959349644
 30
0.0
  0
SPLINE
  5
34E
330
1B
100
AcDbEntity
 67
     1
  8
02___PRT_ALL_AXES
  6
Continuous
 62
     7
100
AcDbSpline
 70
     0
 71
     3
 72
    19
 73
    15
 74
     0
 42
0.000000001
 43
0.0000001
 40
0.0
 40
0.0
 40
0.0
 40
0.0
 40
0.1703032946
 40
0.3356422757
 40
0.4912722568
 40
0.6328032742
 40
0.6970847944
 40
0.7564910462
 40
0.8106902346
 40
0.8594396812
 40
0.9026006685
 40
0.9401923854
 40
0.9724593669
 40
1.0
 40
1.0
 40
1.0
 40
1.0
 10
44.4198665427
 20
221.7706584357
 30
0.0
 10
44.1909842144
 20
221.7706584357
 30
0.0
 10
43.7398222229
 20
221.7604511582
 30
0.0
 10
43.0808939102
 20
221.7148053065
 30
0.0
 10
42.4634962502
 20
221.6403992414
 30
0.0
 10
41.9850549147
 20
221.5540254795
 30
0.0
 10
41.6383987039
 20
221.4706773978
 30
0.0
 10
41.4085064108
 20
221.4047333793
 30
0.0
 10
41.202013711
 20
221.3338724555
 30
0.0
 10
41.0204527287
 20
221.2586568413
 30
0.0
 10
40.8651314129
 20
221.1796487238
 30
0.0
 10
40.7370531652
 20
221.0973323393
 30
0.0
 10
40.6370240379
 20
221.0122016177
 30
0.0
 10
40.5859812847
 20
220.9490870477
 30
0.0
 10
40.5668220461
 20
220.9174177953
 30
0.0
  0
SPLINE
  5
34F
330
1B
100
AcDbEntity
 67
     1
  8
02___PRT_ALL_AXES
  6
Continuous
 62
     7
100
AcDbSpline
 70
     0
 71
     3
 72
    21
 73
    17
 74
     0
 42
0.000000001
 43
0.0000001
 40
0.0
 40
0.0
 40
0.0
 40
0.0
 40
0.181371028
 40
0.3562395886
 40
0.5184431753
 40
0.5930337374
 40
0.6624444482
 40
0.7261405159
 40
0.7836817645
 40
0.834753841
 40
0.8792046002
 40
0.9171244406
 40
0.9489896551
 40
0.9759019693
 40
0.9881447186
 40
1.0
 40
1.0
 40
1.0
 40
1.0
 10
44.4198665427
 20
220.0802882396
 30
0.0
 10
44.1661590206
 20
220.0802882396
 30
0.0
 10
43.667735327
 20
220.0678155857
 30
0.0
 10
42.9443538023
 20
220.0120702795
 30
0.0
 10
42.373253642
 20
219.9348764522
 30
0.0
 10
41.9524086797
 20
219.8546584314
 30
0.0
 10
41.6693516842
 20
219.7887639096
 30
0.0
 10
41.4126303935
 20
219.7161225881
 30
0.0
 10
41.1846382947
 20
219.6374383734
 30
0.0
 10
40.987436004
 20
219.5534752845
 30
0.0
 10
40.8226993803
 20
219.4650074154
 30
0.0
 10
40.6916761972
 20
219.372579515
 30
0.0
 10
40.5951866885
 20
219.2766239094
 30
0.0
 10
40.5430716115
 20
219.1901478581
 30
0.0
 10
40.5231250145
 20
219.1212689996
 30
0.0
 10
40.5198716585
 20
219.0874775058
 30
0.0
 10
40.5198716585
 20
219.0708939637
 30
0.0
  0
SPLINE
  5
350
330
1B
100
AcDbEntity
 67
     1
  8
02___PRT_ALL_AXES
  6
Continuous
 62
     7
100
AcDbSpline
 70
     0
 71
     3
 72
    17
 73
    13
 74
     0
 42
0.000000001
 43
0.0000001
 40
0.0
 40
0.0
 40
0.0
 40
0.0
 40
0.1624912161
 40
0.3209926757
 40
0.4716525717
 40
0.6108675467
 40
0.7354421749
 40
0.8427542783
 40
0.889359534
 40
0.9310776136
 40
0.9679062038
 40
1.0
 40
1.0
 40
1.0
 40
1.0
 10
44.4198665427
 20
218.8555433683
 30
0.0
 10
44.2634933455
 20
218.8555433683
 30
0.0
 10
43.9545459741
 20
218.8491144186
 30
0.0
 10
43.5014241988
 20
218.8203317063
 30
0.0
 10
43.0723396483
 20
218.7732493508
 30
0.0
 10
42.6784437504
 20
218.7091948611
 30
0.0
 10
42.3299738738
 20
218.6299322081
 30
0.0
 10
42.0737135821
 20
218.5498166615
 30
0.0
 10
41.8995801284
 20
218.4779311818
 30
0.0
 10
41.791666635
 20
218.4241503444
 30
0.0
 10
41.7008348082
 20
218.3683032715
 30
0.0
 10
41.6485220319
 20
218.3271259355
 30
0.0
 10
41.6259135258
 20
218.3060839621
 30
0.0
  0
SPLINE
  5
351
330
1B
100
AcDbEntity
 67
     1
  8
02___PRT_ALL_AXES
  6
Continuous
 62
     7
100
AcDbSpline
 70
     0
 71
     3
 72
    18
 73
    14
 74
     0
 42
0.000000001
 43
0.0000001
 40
0.0
 40
0.0
 40
0.0
 40
0.0
 40
0.1624873829
 40
0.3209818196
 40
0.4716374855
 40
0.6108477121
 40
0.7354183369
 40
0.7913804014
 40
0.842758717
 40
0.8893635823
 40
0.9310794697
 40
0.9679074609
 40
1.0
 40
1.0
 40
1.0
 40
1.0
 10
44.4198665427
 20
218.1484365871
 30
0.0
 10
44.2095698553
 20
218.1484365871
 30
0.0
 10
43.7940886549
 20
218.1397917731
 30
0.0
 10
43.1847231537
 20
218.1010800131
 30
0.0
 10
42.6076641744
 20
218.0377722276
 30
0.0
 10
42.0779964985
 20
217.9515993748
 30
0.0
 10
41.6740603652
 20
217.8598356502
 30
0.0
 10
41.3860315564
 20
217.7750832038
 30
0.0
 10
41.1977351923
 20
217.7096746799
 30
0.0
 10
41.0305162563
 20
217.6406106677
 30
0.0
 10
40.8853915327
 20
217.5682853872
 30
0.0
 10
40.763234552
 20
217.4931863067
 30
0.0
 10
40.6928884702
 20
217.4378029973
 30
0.0
 10
40.662481321
 20
217.4095084295
 30
0.0
  0
SPLINE
  5
352
330
1B
100
AcDbEntity
 67
     1
  8
02___PRT_ALL_AXES
  6
Continuous
 62
     7
100
AcDbSpline
 70
     0
 71
     3
 72
    19
 73
    15
 74
     0
 42
0.000000001
 43
0.0000001
 40
0.0
 40
0.0
 40
0.0
 40
0.0
 40
0.1703032946
 40
0.3356422757
 40
0.4912722568
 40
0.6328032742
 40
0.6970847944
 40
0.7564910462
 40
0.8106902346
 40
0.8594396812
 40
0.9026006685
 40
0.9401923854
 40
0.9724593669
 40
1.0
 40
1.0
 40
1.0
 40
1.0
 10
44.4198665427
 20
221.7706584357
 30
0.0
 10
44.648748871
 20
221.7706584357
 30
0.0
 10
45.0999108625
 20
221.7604511582
 30
0.0
 10
45.7588391752
 20
221.7148053065
 30
0.0
 10
46.3762368352
 20
221.6403992414
 30
0.0
 10
46.8546781707
 20
221.5540254795
 30
0.0
 10
47.2013343815
 20
221.4706773978
 30
0.0
 10
47.4312266745
 20
221.4047333793
 30
0.0
 10
47.6377193744
 20
221.3338724555
 30
0.0
 10
47.8192803566
 20
221.2586568413
 30
0.0
 10
47.9746016725
 20
221.1796487238
 30
0.0
 10
48.1026799202
 20
221.0973323393
 30
0.0
 10
48.2027090474
 20
221.0122016177
 30
0.0
 10
48.2537518007
 20
220.9490870477
 30
0.0
 10
48.2729110392
 20
220.9174177953
 30
0.0
  0
SPLINE
  5
353
330
1B
100
AcDbEntity
 67
     1
  8
02___PRT_ALL_AXES
  6
Continuous
 62
     7
100
AcDbSpline
 70
     0
 71
     3
 72
    21
 73
    17
 74
     0
 42
0.000000001
 43
0.0000001
 40
0.0
 40
0.0
 40
0.0
 40
0.0
 40
0.181371028
 40
0.3562395886
 40
0.5184431753
 40
0.5930337374
 40
0.6624444482
 40
0.7261405159
 40
0.7836817645
 40
0.834753841
 40
0.8792046002
 40
0.9171244406
 40
0.9489896551
 40
0.9759019693
 40
0.9881447186
 40
1.0
 40
1.0
 40
1.0
 40
1.0
 10
44.4198665427
 20
220.0802882396
 30
0.0
 10
44.6735740647
 20
220.0802882396
 30
0.0
 10
45.1719977584
 20
220.0678155857
 30
0.0
 10
45.8953792831
 20
220.0120702795
 30
0.0
 10
46.4664794434
 20
219.9348764522
 30
0.0
 10
46.8873244057
 20
219.8546584314
 30
0.0
 10
47.1703814012
 20
219.7887639096
 30
0.0
 10
47.4271026919
 20
219.7161225881
 30
0.0
 10
47.6550947907
 20
219.6374383734
 30
0.0
 10
47.8522970813
 20
219.5534752845
 30
0.0
 10
48.0170337051
 20
219.4650074154
 30
0.0
 10
48.1480568882
 20
219.372579515
 30
0.0
 10
48.2445463969
 20
219.2766239094
 30
0.0
 10
48.2966614739
 20
219.1901478581
 30
0.0
 10
48.3166080709
 20
219.1212689996
 30
0.0
 10
48.3198614269
 20
219.0874775058
 30
0.0
 10
48.3198614269
 20
219.0708939637
 30
0.0
  0
SPLINE
  5
354
330
1B
100
AcDbEntity
 67
     1
  8
02___PRT_ALL_AXES
  6
Continuous
 62
     7
100
AcDbSpline
 70
     0
 71
     3
 72
    17
 73
    13
 74
     0
 42
0.000000001
 43
0.0000001
 40
0.0
 40
0.0
 40
0.0
 40
0.0
 40
0.1624912161
 40
0.3209926757
 40
0.4716525717
 40
0.6108675467
 40
0.7354421749
 40
0.8427542783
 40
0.889359534
 40
0.9310776136
 40
0.9679062038
 40
1.0
 40
1.0
 40
1.0
 40
1.0
 10
44.4198665427
 20
218.8555433683
 30
0.0
 10
44.5762397398
 20
218.8555433683
 30
0.0
 10
44.8851871113
 20
218.8491144186
 30
0.0
 10
45.3383088865
 20
218.8203317063
 30
0.0
 10
45.7673934371
 20
218.7732493508
 30
0.0
 10
46.161289335
 20
218.7091948611
 30
0.0
 10
46.5097592115
 20
218.6299322081
 30
0.0
 10
46.7660195033
 20
218.5498166615
 30
0.0
 10
46.940152957
 20
218.4779311818
 30
0.0
 10
47.0480664503
 20
218.4241503444
 30
0.0
 10
47.1388982771
 20
218.3683032715
 30
0.0
 10
47.1912110534
 20
218.3271259355
 30
0.0
 10
47.2138195596
 20
218.3060839621
 30
0.0
  0
SPLINE
  5
355
330
1B
100
AcDbEntity
 67
     1
  8
02___PRT_ALL_AXES
  6
Continuous
 62
     7
100
AcDbSpline
 70
     0
 71
     3
 72
    18
 73
    14
 74
     0
 42
0.000000001
 43
0.0000001
 40
0.0
 40
0.0
 40
0.0
 40
0.0
 40
0.1624873829
 40
0.3209818196
 40
0.4716374855
 40
0.6108477121
 40
0.7354183369
 40
0.7913804014
 40
0.842758717
 40
0.8893635823
 40
0.9310794697
 40
0.9679074609
 40
1.0
 40
1.0
 40
1.0
 40
1.0
 10
44.4198665427
 20
218.1484365871
 30
0.0
 10
44.63016323
 20
218.1484365871
 30
0.0
 10
45.0456444305
 20
218.1397917731
 30
0.0
 10
45.6550099317
 20
218.1010800131
 30
0.0
 10
46.2320689109
 20
218.0377722276
 30
0.0
 10
46.7617365869
 20
217.9515993748
 30
0.0
 10
47.1656727202
 20
217.8598356502
 30
0.0
 10
47.4537015289
 20
217.7750832038
 30
0.0
 10
47.6419978931
 20
217.7096746799
 30
0.0
 10
47.809216829
 20
217.6406106677
 30
0.0
 10
47.9543415527
 20
217.5682853872
 30
0.0
 10
48.0764985334
 20
217.4931863067
 30
0.0
 10
48.1468446152
 20
217.4378029973
 30
0.0
 10
48.1772517644
 20
217.4095084295
 30
0.0
  0
SPLINE
  5
356
330
1B
100
AcDbEntity
 67
     1
  8
02___PRT_ALL_AXES
  6
Continuous
 62
     7
100
AcDbSpline
 70
     0
 71
     3
 72
    18
 73
    14
 74
     0
 42
0.000000001
 43
0.0000001
 40
0.0
 40
0.0
 40
0.0
 40
0.0
 40
0.1703073083
 40
0.3356510974
 40
0.4912853591
 40
0.632819794
 40
0.7564813117
 40
0.810683421
 40
0.859433582
 40
0.9025962391
 40
0.9401899974
 40
0.9724568854
 40
1.0
 40
1.0
 40
1.0
 40
1.0
 10
233.4198665427
 20
222.7912791618
 30
0.0
 10
233.2333398812
 20
222.7912791618
 30
0.0
 10
232.8656636121
 20
222.7829627373
 30
0.0
 10
232.3286830447
 20
222.7457560512
 30
0.0
 10
231.8254960353
 20
222.6851461285
 30
0.0
 10
231.3716668626
 20
222.6031052942
 30
0.0
 10
231.0323705589
 20
222.5158828603
 30
0.0
 10
230.7974785948
 20
222.4353312135
 30
0.0
 10
230.649517214
 20
222.374023442
 30
0.0
 10
230.5229372337
 20
222.3096379963
 30
0.0
 10
230.4185549232
 20
222.2425592362
 30
0.0
 10
230.3370428741
 20
222.1731729779
 30
0.0
 10
230.2954356578
 20
222.1217450021
 30
0.0
 10
230.2798202201
 20
222.0959349644
 30
0.0
  0
LINE
  5
357
330
1B
100
AcDbEntity
 67
     1
  8
02___PRT_ALL_AXES
  6
Continuous
 62
     7
100
AcDbLine
 10
237.2729160333
 20
220.9174179977
 30
0.0
 11
236.5599163024
 21
222.0959292996
 31
0.0
  0
SPLINE
  5
358
330
1B
100
AcDbEntity
 67
     1
  8
02___PRT_ALL_AXES
  6
Continuous
 62
     7
100
AcDbSpline
 70
     0
 71
     3
 72
     9
 73
     5
 74
     0
 42
0.000000001
 43
0.0000001
 40
0.0
 40
0.0
 40
0.0
 40
0.0
 40
0.5189530246
 40
1.0
 40
1.0
 40
1.0
 40
1.0
 10
237.2729110392
 20
220.9174177953
 30
0.0
 10
237.2876512052
 20
220.8930530464
 30
0.0
 10
237.3112558471
 20
220.8427958756
 30
0.0
 10
237.3198614269
 20
220.7876606813
 30
0.0
 10
237.3198614269
 20
220.7612641598
 30
0.0
  0
LINE
  5
359
330
1B
100
AcDbEntity
 67
     1
  8
02___PRT_ALL_AXES
  6
Continuous
 62
     7
100
AcDbLine
 10
237.3198665427
 20
219.0708939637
 30
0.0
 11
237.3198665427
 21
220.7612641598
 31
0.0
  0
SPLINE
  5
35A
330
1B
100
AcDbEntity
 67
     1
  8
02___PRT_ALL_AXES
  6
Continuous
 62
     7
100
AcDbSpline
 70
     0
 71
     3
 72
    11
 73
     7
 74
     0
 42
0.000000001
 43
0.0000001
 40
0.0
 40
0.0
 40
0.0
 40
0.0
 40
0.2196204291
 40
0.452633061
 40
0.7101130129
 40
1.0
 40
1.0
 40
1.0
 40
1.0
 10
237.3198614269
 20
219.0708939637
 30
0.0
 10
237.3198614269
 20
219.0478989961
 30
0.0
 10
237.3134352983
 20
219.0003041972
 30
0.0
 10
237.2852033869
 20
218.9308394423
 30
0.0
 10
237.2391507262
 20
218.862781641
 30
0.0
 10
237.1994719471
 20
218.8211042483
 30
0.0
 10
237.1772517644
 20
218.8004278454
 30
0.0
  0
LINE
  5
35B
330
1B
100
AcDbEntity
 67
     1
  8
02___PRT_ALL_AXES
  6
Continuous
 62
     7
100
AcDbLine
 10
236.4299356057
 20
218.1049681375
 30
0.0
 11
237.1772554143
 21
218.8004275827
 31
0.0
  0
LINE
  5
35C
330
1B
100
AcDbEntity
 67
     1
  8
02___PRT_ALL_AXES
  6
Continuous
 62
     7
100
AcDbLine
 10
237.1772554143
 20
217.4095086922
 30
0.0
 11
236.2138223703
 21
218.3060841644
 31
0.0
  0
SPLINE
  5
35D
330
1B
100
AcDbEntity
 67
     1
  8
02___PRT_ALL_AXES
  6
Continuous
 62
     7
100
AcDbSpline
 70
     0
 71
     3
 72
    11
 73
     7
 74
     0
 42
0.000000001
 43
0.0000001
 40
0.0
 40
0.0
 40
0.0
 40
0.0
 40
0.2898869871
 40
0.547366939
 40
0.7803795709
 40
1.0
 40
1.0
 40
1.0
 40
1.0
 10
237.1772517644
 20
217.4095084295
 30
0.0
 10
237.1994719471
 20
217.3888320266
 30
0.0
 10
237.2391507262
 20
217.3471546339
 30
0.0
 10
237.2852033869
 20
217.2790968326
 30
0.0
 10
237.3134352983
 20
217.2096320777
 30
0.0
 10
237.3198614269
 20
217.1620372788
 30
0.0
 10
237.3198614269
 20
217.1390423112
 30
0.0
  0
LINE
  5
35E
330
1B
100
AcDbEntity
 67
     1
  8
02___PRT_ALL_AXES
  6
Continuous
 62
     7
100
AcDbLine
 10
237.3198665427
 20
212.936046074
 30
0.0
 11
237.3198665427
 21
217.1390423112
 31
0.0
  0
LINE
  5
35F
330
1B
100
AcDbEntity
 67
     1
  8
02___PRT_ALL_AXES
  6
Continuous
 62
     7
100
AcDbLine
 10
229.566817052
 20
220.9174179977
 30
0.0
 11
230.279816783
 21
222.0959292996
 31
0.0
  0
SPLINE
  5
360
330
1B
100
AcDbEntity
 67
     1
  8
02___PRT_ALL_AXES
  6
Continuous
 62
     7
100
AcDbSpline
 70
     0
 71
     3
 72
     9
 73
     5
 74
     0
 42
0.000000001
 43
0.0000001
 40
0.0
 40
0.0
 40
0.0
 40
0.0
 40
0.5189530246
 40
1.0
 40
1.0
 40
1.0
 40
1.0
 10
229.5668220461
 20
220.9174177953
 30
0.0
 10
229.5520818802
 20
220.8930530464
 30
0.0
 10
229.5284772383
 20
220.8427958756
 30
0.0
 10
229.5198716585
 20
220.7876606813
 30
0.0
 10
229.5198716585
 20
220.7612641598
 30
0.0
  0
LINE
  5
361
330
1B
100
AcDbEntity
 67
     1
  8
02___PRT_ALL_AXES
  6
Continuous
 62
     7
100
AcDbLine
 10
229.5198665427
 20
219.0708939637
 30
0.0
 11
229.5198665427
 21
220.7612641598
 31
0.0
  0
SPLINE
  5
362
330
1B
100
AcDbEntity
 67
     1
  8
02___PRT_ALL_AXES
  6
Continuous
 62
     7
100
AcDbSpline
 70
     0
 71
     3
 72
    11
 73
     7
 74
     0
 42
0.000000001
 43
0.0000001
 40
0.0
 40
0.0
 40
0.0
 40
0.0
 40
0.2196204291
 40
0.452633061
 40
0.7101130129
 40
1.0
 40
1.0
 40
1.0
 40
1.0
 10
229.5198716585
 20
219.0708939637
 30
0.0
 10
229.5198716585
 20
219.0478989961
 30
0.0
 10
229.5262977871
 20
219.0003041972
 30
0.0
 10
229.5545296985
 20
218.9308394423
 30
0.0
 10
229.6005823592
 20
218.862781641
 30
0.0
 10
229.6402611382
 20
218.8211042483
 30
0.0
 10
229.662481321
 20
218.8004278454
 30
0.0
  0
LINE
  5
363
330
1B
100
AcDbEntity
 67
     1
  8
02___PRT_ALL_AXES
  6
Continuous
 62
     7
100
AcDbLine
 10
230.4097974797
 20
218.1049681375
 30
0.0
 11
229.6624776711
 21
218.8004275827
 31
0.0
  0
LINE
  5
364
330
1B
100
AcDbEntity
 67
     1
  8
02___PRT_ALL_AXES
  6
Continuous
 62
     7
100
AcDbLine
 10
229.6624776711
 20
217.4095086922
 30
0.0
 11
230.6259107151
 21
218.3060841644
 31
0.0
  0
SPLINE
  5
365
330
1B
100
AcDbEntity
 67
     1
  8
02___PRT_ALL_AXES
  6
Continuous
 62
     7
100
AcDbSpline
 70
     0
 71
     3
 72
    11
 73
     7
 74
     0
 42
0.000000001
 43
0.0000001
 40
0.0
 40
0.0
 40
0.0
 40
0.0
 40
0.2898869871
 40
0.547366939
 40
0.7803795709
 40
1.0
 40
1.0
 40
1.0
 40
1.0
 10
229.662481321
 20
217.4095084295
 30
0.0
 10
229.6402611382
 20
217.3888320266
 30
0.0
 10
229.6005823592
 20
217.3471546339
 30
0.0
 10
229.5545296985
 20
217.2790968326
 30
0.0
 10
229.5262977871
 20
217.2096320777
 30
0.0
 10
229.5198716585
 20
217.1620372788
 30
0.0
 10
229.5198716585
 20
217.1390423112
 30
0.0
  0
LINE
  5
366
330
1B
100
AcDbEntity
 67
     1
  8
02___PRT_ALL_AXES
  6
Continuous
 62
     7
100
AcDbLine
 10
229.5198665427
 20
212.936046074
 30
0.0
 11
229.5198665427
 21
217.1390423112
 31
0.0
  0
SPLINE
  5
367
330
1B
100
AcDbEntity
 67
     1
  8
02___PRT_ALL_AXES
  6
Continuous
 62
     7
100
AcDbSpline
 70
     0
 71
     3
 72
    18
 73
    14
 74
     0
 42
0.000000001
 43
0.0000001
 40
0.0
 40
0.0
 40
0.0
 40
0.0
 40
0.1703073083
 40
0.3356510974
 40
0.4912853591
 40
0.632819794
 40
0.7564813117
 40
0.810683421
 40
0.859433582
 40
0.9025962391
 40
0.9401899974
 40
0.9724568854
 40
1.0
 40
1.0
 40
1.0
 40
1.0
 10
233.4198665427
 20
222.7912791618
 30
0.0
 10
233.6063932042
 20
222.7912791618
 30
0.0
 10
233.9740694732
 20
222.7829627373
 30
0.0
 10
234.5110500407
 20
222.7457560512
 30
0.0
 10
235.0142370501
 20
222.6851461285
 30
0.0
 10
235.4680662228
 20
222.6031052942
 30
0.0
 10
235.8073625265
 20
222.5158828603
 30
0.0
 10
236.0422544906
 20
222.4353312135
 30
0.0
 10
236.1902158714
 20
222.374023442
 30
0.0
 10
236.3167958517
 20
222.3096379963
 30
0.0
 10
236.4211781622
 20
222.2425592362
 30
0.0
 10
236.5026902113
 20
222.1731729779
 30
0.0
 10
236.5442974276
 20
222.1217450021
 30
0.0
 10
236.5599128652
 20
222.0959349644
 30
0.0
  0
SPLINE
  5
368
330
1B
100
AcDbEntity
 67
     1
  8
02___PRT_ALL_AXES
  6
Continuous
 62
     7
100
AcDbSpline
 70
     0
 71
     3
 72
    19
 73
    15
 74
     0
 42
0.000000001
 43
0.0000001
 40
0.0
 40
0.0
 40
0.0
 40
0.0
 40
0.1703032946
 40
0.3356422757
 40
0.4912722568
 40
0.6328032742
 40
0.6970847944
 40
0.7564910462
 40
0.8106902346
 40
0.8594396812
 40
0.9026006685
 40
0.9401923854
 40
0.9724593669
 40
1.0
 40
1.0
 40
1.0
 40
1.0
 10
233.4198665427
 20
221.7706584357
 30
0.0
 10
233.1909842144
 20
221.7706584357
 30
0.0
 10
232.7398222229
 20
221.7604511582
 30
0.0
 10
232.0808939102
 20
221.7148053065
 30
0.0
 10
231.4634962502
 20
221.6403992414
 30
0.0
 10
230.9850549147
 20
221.5540254795
 30
0.0
 10
230.6383987039
 20
221.4706773978
 30
0.0
 10
230.4085064108
 20
221.4047333793
 30
0.0
 10
230.202013711
 20
221.3338724555
 30
0.0
 10
230.0204527287
 20
221.2586568413
 30
0.0
 10
229.8651314129
 20
221.1796487238
 30
0.0
 10
229.7370531652
 20
221.0973323393
 30
0.0
 10
229.6370240379
 20
221.0122016177
 30
0.0
 10
229.5859812847
 20
220.9490870477
 30
0.0
 10
229.5668220461
 20
220.9174177953
 30
0.0
  0
SPLINE
  5
369
330
1B
100
AcDbEntity
 67
     1
  8
02___PRT_ALL_AXES
  6
Continuous
 62
     7
100
AcDbSpline
 70
     0
 71
     3
 72
    21
 73
    17
 74
     0
 42
0.000000001
 43
0.0000001
 40
0.0
 40
0.0
 40
0.0
 40
0.0
 40
0.181371028
 40
0.3562395886
 40
0.5184431753
 40
0.5930337374
 40
0.6624444482
 40
0.7261405159
 40
0.7836817645
 40
0.834753841
 40
0.8792046002
 40
0.9171244406
 40
0.9489896551
 40
0.9759019693
 40
0.9881447186
 40
1.0
 40
1.0
 40
1.0
 40
1.0
 10
233.4198665427
 20
220.0802882396
 30
0.0
 10
233.1661590206
 20
220.0802882396
 30
0.0
 10
232.667735327
 20
220.0678155857
 30
0.0
 10
231.9443538023
 20
220.0120702795
 30
0.0
 10
231.373253642
 20
219.9348764522
 30
0.0
 10
230.9524086797
 20
219.8546584314
 30
0.0
 10
230.6693516842
 20
219.7887639096
 30
0.0
 10
230.4126303935
 20
219.7161225881
 30
0.0
 10
230.1846382947
 20
219.6374383734
 30
0.0
 10
229.987436004
 20
219.5534752845
 30
0.0
 10
229.8226993803
 20
219.4650074154
 30
0.0
 10
229.6916761972
 20
219.372579515
 30
0.0
 10
229.5951866885
 20
219.2766239094
 30
0.0
 10
229.5430716115
 20
219.1901478581
 30
0.0
 10
229.5231250145
 20
219.1212689996
 30
0.0
 10
229.5198716585
 20
219.0874775058
 30
0.0
 10
229.5198716585
 20
219.0708939637
 30
0.0
  0
SPLINE
  5
36A
330
1B
100
AcDbEntity
 67
     1
  8
02___PRT_ALL_AXES
  6
Continuous
 62
     7
100
AcDbSpline
 70
     0
 71
     3
 72
    17
 73
    13
 74
     0
 42
0.000000001
 43
0.0000001
 40
0.0
 40
0.0
 40
0.0
 40
0.0
 40
0.1624912161
 40
0.3209926757
 40
0.4716525717
 40
0.6108675467
 40
0.7354421749
 40
0.8427542783
 40
0.889359534
 40
0.9310776136
 40
0.9679062038
 40
1.0
 40
1.0
 40
1.0
 40
1.0
 10
233.4198665427
 20
218.8555433683
 30
0.0
 10
233.2634933455
 20
218.8555433683
 30
0.0
 10
232.9545459741
 20
218.8491144186
 30
0.0
 10
232.5014241988
 20
218.8203317063
 30
0.0
 10
232.0723396483
 20
218.7732493508
 30
0.0
 10
231.6784437504
 20
218.7091948611
 30
0.0
 10
231.3299738738
 20
218.6299322081
 30
0.0
 10
231.0737135821
 20
218.5498166615
 30
0.0
 10
230.8995801284
 20
218.4779311818
 30
0.0
 10
230.791666635
 20
218.4241503444
 30
0.0
 10
230.7008348082
 20
218.3683032715
 30
0.0
 10
230.6485220319
 20
218.3271259355
 30
0.0
 10
230.6259135258
 20
218.3060839621
 30
0.0
  0
SPLINE
  5
36B
330
1B
100
AcDbEntity
 67
     1
  8
02___PRT_ALL_AXES
  6
Continuous
 62
     7
100
AcDbSpline
 70
     0
 71
     3
 72
    18
 73
    14
 74
     0
 42
0.000000001
 43
0.0000001
 40
0.0
 40
0.0
 40
0.0
 40
0.0
 40
0.1624873829
 40
0.3209818196
 40
0.4716374855
 40
0.6108477121
 40
0.7354183369
 40
0.7913804014
 40
0.842758717
 40
0.8893635823
 40
0.9310794697
 40
0.9679074609
 40
1.0
 40
1.0
 40
1.0
 40
1.0
 10
233.4198665427
 20
218.1484365871
 30
0.0
 10
233.2095698553
 20
218.1484365871
 30
0.0
 10
232.7940886549
 20
218.1397917731
 30
0.0
 10
232.1847231537
 20
218.1010800131
 30
0.0
 10
231.6076641744
 20
218.0377722276
 30
0.0
 10
231.0779964985
 20
217.9515993748
 30
0.0
 10
230.6740603652
 20
217.8598356502
 30
0.0
 10
230.3860315564
 20
217.7750832038
 30
0.0
 10
230.1977351923
 20
217.7096746799
 30
0.0
 10
230.0305162563
 20
217.6406106677
 30
0.0
 10
229.8853915327
 20
217.5682853872
 30
0.0
 10
229.763234552
 20
217.4931863067
 30
0.0
 10
229.6928884702
 20
217.4378029973
 30
0.0
 10
229.662481321
 20
217.4095084295
 30
0.0
  0
SPLINE
  5
36C
330
1B
100
AcDbEntity
 67
     1
  8
02___PRT_ALL_AXES
  6
Continuous
 62
     7
100
AcDbSpline
 70
     0
 71
     3
 72
    19
 73
    15
 74
     0
 42
0.000000001
 43
0.0000001
 40
0.0
 40
0.0
 40
0.0
 40
0.0
 40
0.1703032946
 40
0.3356422757
 40
0.4912722568
 40
0.6328032742
 40
0.6970847944
 40
0.7564910462
 40
0.8106902346
 40
0.8594396812
 40
0.9026006685
 40
0.9401923854
 40
0.9724593669
 40
1.0
 40
1.0
 40
1.0
 40
1.0
 10
233.4198665427
 20
221.7706584357
 30
0.0
 10
233.648748871
 20
221.7706584357
 30
0.0
 10
234.0999108625
 20
221.7604511582
 30
0.0
 10
234.7588391752
 20
221.7148053065
 30
0.0
 10
235.3762368352
 20
221.6403992414
 30
0.0
 10
235.8546781707
 20
221.5540254795
 30
0.0
 10
236.2013343815
 20
221.4706773978
 30
0.0
 10
236.4312266745
 20
221.4047333793
 30
0.0
 10
236.6377193744
 20
221.3338724555
 30
0.0
 10
236.8192803566
 20
221.2586568413
 30
0.0
 10
236.9746016725
 20
221.1796487238
 30
0.0
 10
237.1026799202
 20
221.0973323393
 30
0.0
 10
237.2027090474
 20
221.0122016177
 30
0.0
 10
237.2537518007
 20
220.9490870477
 30
0.0
 10
237.2729110392
 20
220.9174177953
 30
0.0
  0
SPLINE
  5
36D
330
1B
100
AcDbEntity
 67
     1
  8
02___PRT_ALL_AXES
  6
Continuous
 62
     7
100
AcDbSpline
 70
     0
 71
     3
 72
    21
 73
    17
 74
     0
 42
0.000000001
 43
0.0000001
 40
0.0
 40
0.0
 40
0.0
 40
0.0
 40
0.181371028
 40
0.3562395886
 40
0.5184431753
 40
0.5930337374
 40
0.6624444482
 40
0.7261405159
 40
0.7836817645
 40
0.834753841
 40
0.8792046002
 40
0.9171244406
 40
0.9489896551
 40
0.9759019693
 40
0.9881447186
 40
1.0
 40
1.0
 40
1.0
 40
1.0
 10
233.4198665427
 20
220.0802882396
 30
0.0
 10
233.6735740647
 20
220.0802882396
 30
0.0
 10
234.1719977584
 20
220.0678155857
 30
0.0
 10
234.8953792831
 20
220.0120702795
 30
0.0
 10
235.4664794434
 20
219.9348764522
 30
0.0
 10
235.8873244057
 20
219.8546584314
 30
0.0
 10
236.1703814012
 20
219.7887639096
 30
0.0
 10
236.4271026919
 20
219.7161225881
 30
0.0
 10
236.6550947907
 20
219.6374383734
 30
0.0
 10
236.8522970813
 20
219.5534752845
 30
0.0
 10
237.0170337051
 20
219.4650074154
 30
0.0
 10
237.1480568882
 20
219.372579515
 30
0.0
 10
237.2445463969
 20
219.2766239094
 30
0.0
 10
237.2966614739
 20
219.1901478581
 30
0.0
 10
237.3166080709
 20
219.1212689996
 30
0.0
 10
237.3198614269
 20
219.0874775058
 30
0.0
 10
237.3198614269
 20
219.0708939637
 30
0.0
  0
SPLINE
  5
36E
330
1B
100
AcDbEntity
 67
     1
  8
02___PRT_ALL_AXES
  6
Continuous
 62
     7
100
AcDbSpline
 70
     0
 71
     3
 72
    17
 73
    13
 74
     0
 42
0.000000001
 43
0.0000001
 40
0.0
 40
0.0
 40
0.0
 40
0.0
 40
0.1624912161
 40
0.3209926757
 40
0.4716525717
 40
0.6108675467
 40
0.7354421749
 40
0.8427542783
 40
0.889359534
 40
0.9310776136
 40
0.9679062038
 40
1.0
 40
1.0
 40
1.0
 40
1.0
 10
233.4198665427
 20
218.8555433683
 30
0.0
 10
233.5762397398
 20
218.8555433683
 30
0.0
 10
233.8851871113
 20
218.8491144186
 30
0.0
 10
234.3383088865
 20
218.8203317063
 30
0.0
 10
234.7673934371
 20
218.7732493508
 30
0.0
 10
235.161289335
 20
218.7091948611
 30
0.0
 10
235.5097592115
 20
218.6299322081
 30
0.0
 10
235.7660195033
 20
218.5498166615
 30
0.0
 10
235.940152957
 20
218.4779311818
 30
0.0
 10
236.0480664503
 20
218.4241503444
 30
0.0
 10
236.1388982771
 20
218.3683032715
 30
0.0
 10
236.1912110534
 20
218.3271259355
 30
0.0
 10
236.2138195596
 20
218.3060839621
 30
0.0
  0
SPLINE
  5
36F
330
1B
100
AcDbEntity
 67
     1
  8
02___PRT_ALL_AXES
  6
Continuous
 62
     7
100
AcDbSpline
 70
     0
 71
     3
 72
    18
 73
    14
 74
     0
 42
0.000000001
 43
0.0000001
 40
0.0
 40
0.0
 40
0.0
 40
0.0
 40
0.1624873829
 40
0.3209818196
 40
0.4716374855
 40
0.6108477121
 40
0.7354183369
 40
0.7913804014
 40
0.842758717
 40
0.8893635823
 40
0.9310794697
 40
0.9679074609
 40
1.0
 40
1.0
 40
1.0
 40
1.0
 10
233.4198665427
 20
218.1484365871
 30
0.0
 10
233.63016323
 20
218.1484365871
 30
0.0
 10
234.0456444305
 20
218.1397917731
 30
0.0
 10
234.6550099317
 20
218.1010800131
 30
0.0
 10
235.2320689109
 20
218.0377722276
 30
0.0
 10
235.7617365869
 20
217.9515993748
 30
0.0
 10
236.1656727202
 20
217.8598356502
 30
0.0
 10
236.4537015289
 20
217.7750832038
 30
0.0
 10
236.6419978931
 20
217.7096746799
 30
0.0
 10
236.809216829
 20
217.6406106677
 30
0.0
 10
236.9543415527
 20
217.5682853872
 30
0.0
 10
237.0764985334
 20
217.4931863067
 30
0.0
 10
237.1468446152
 20
217.4378029973
 30
0.0
 10
237.1772517644
 20
217.4095084295
 30
0.0
  0
LINE
  5
370
330
1B
100
AcDbEntity
 67
     1
  8
7_ALL_FEATURES
  6
Continuous
 62
     7
100
AcDbLine
 10
34.9198665427
 20
203.4588868841
 30
0.0
 11
34.9198665427
 21
212.5584003605
 31
0.0
  0
LINE
  5
371
330
1B
100
AcDbEntity
 67
     1
  8
7_ALL_FEATURES
  6
Continuous
 62
     7
100
AcDbLine
 10
242.9198665427
 20
212.5584003605
 30
0.0
 11
242.9198665427
 21
203.4588868841
 31
0.0
  0
LINE
  5
372
330
1B
100
AcDbEntity
 67
     1
  8
7_ALL_FEATURES
  6
Continuous
 62
     7
100
AcDbLine
 10
242.5288989308
 20
203.0679192722
 30
0.0
 11
35.3108341545
 21
203.0679192722
 31
0.0
  0
LINE
  5
373
330
1B
100
AcDbEntity
 67
     1
  8
7_ALL_FEATURES
  6
Continuous
 62
     7
100
AcDbLine
 10
35.0647554166
 20
212.7472232173
 30
0.0
 11
34.9198665427
 21
212.5584003605
 31
0.0
  0
LINE
  5
374
330
1B
100
AcDbEntity
 67
     1
  8
7_ALL_FEATURES
  6
Continuous
 62
     7
100
AcDbLine
 10
34.9198665427
 20
203.4588868841
 30
0.0
 11
35.1153503486
 21
203.2634030781
 31
0.0
  0
LINE
  5
375
330
1B
100
AcDbEntity
 67
     1
  8
7_ALL_FEATURES
  6
Continuous
 62
     7
100
AcDbLine
 10
242.5288989308
 20
203.0679192722
 30
0.0
 11
242.7243827368
 21
203.2634030781
 31
0.0
  0
LINE
  5
376
330
1B
100
AcDbEntity
 67
     1
  8
7_ALL_FEATURES
  6
Continuous
 62
     7
100
AcDbLine
 10
242.9198665427
 20
212.5584003605
 30
0.0
 11
242.7749776687
 21
212.7472232173
 31
0.0
  0
LINE
  5
377
330
1B
100
AcDbEntity
 67
     1
  8
7_ALL_FEATURES
  6
Continuous
 62
     7
100
AcDbLine
 10
242.5288989308
 20
212.936046074
 30
0.0
 11
35.3108341545
 21
212.936046074
 31
0.0
  0
LINE
  5
378
330
1B
100
AcDbEntity
 67
     1
  8
7_ALL_FEATURES
  6
Continuous
 62
     7
100
AcDbLine
 10
35.3108341545
 20
212.936046074
 30
0.0
 11
35.0647554166
 21
212.7472232173
 31
0.0
  0
LINE
  5
379
330
1B
100
AcDbEntity
 67
     1
  8
7_ALL_FEATURES
  6
Continuous
 62
     7
100
AcDbLine
 10
242.7749776687
 20
212.7472232173
 30
0.0
 11
242.5288989308
 21
212.936046074
 31
0.0
  0
LINE
  5
37A
330
1B
100
AcDbEntity
 67
     1
  8
7_ALL_FEATURES
  6
Continuous
 62
     7
100
AcDbLine
 10
35.1153503486
 20
203.2634030781
 30
0.0
 11
35.3108341545
 21
203.0679192722
 31
0.0
  0
LINE
  5
37B
330
1B
100
AcDbEntity
 67
     1
  8
7_ALL_FEATURES
  6
Continuous
 62
     7
100
AcDbLine
 10
242.7243827368
 20
203.2634030781
 30
0.0
 11
242.9198665427
 21
203.4588868841
 31
0.0
  0
LINE
  5
37C
330
1B
100
AcDbEntity
 67
     1
  8
7_ALL_FEATURES
  6
Continuous
 62
     7
100
AcDbLine
 10
242.5288989308
 20
212.5584003605
 30
0.0
 11
35.3108341545
 21
212.5584003605
 31
0.0
  0
LINE
  5
37D
330
1B
100
AcDbEntity
 67
     1
  8
7_ALL_FEATURES
  6
Continuous
 62
     7
100
AcDbLine
 10
242.5288989308
 20
212.5584003605
 30
0.0
 11
242.5288989308
 21
203.4588868841
 31
0.0
  0
LINE
  5
37E
330
1B
100
AcDbEntity
 67
     1
  8
7_ALL_FEATURES
  6
Continuous
 62
     7
100
AcDbLine
 10
242.5288989308
 20
203.4588868841
 30
0.0
 11
35.3108341545
 21
203.4588868841
 31
0.0
  0
LINE
  5
37F
330
1B
100
AcDbEntity
 67
     1
  8
7_ALL_FEATURES
  6
Continuous
 62
     7
100
AcDbLine
 10
35.3108341545
 20
203.4588868841
 30
0.0
 11
35.3108341545
 21
212.5584003605
 31
0.0
  0
LINE
  5
380
330
1B
100
AcDbEntity
 67
     1
  8
7_ALL_FEATURES
  6
Continuous
 62
     7
100
AcDbLine
 10
35.3108341545
 20
212.5584003605
 30
0.0
 11
35.0647554166
 21
212.7472232173
 31
0.0
  0
LINE
  5
381
330
1B
100
AcDbEntity
 67
     1
  8
7_ALL_FEATURES
  6
Continuous
 62
     7
100
AcDbLine
 10
35.3108341545
 20
203.4588868841
 30
0.0
 11
35.1153503486
 21
203.2634030781
 31
0.0
  0
LINE
  5
382
330
1B
100
AcDbEntity
 67
     1
  8
7_ALL_FEATURES
  6
Continuous
 62
     7
100
AcDbLine
 10
242.5288989308
 20
203.4588868841
 30
0.0
 11
242.7243827368
 21
203.2634030781
 31
0.0
  0
LINE
  5
383
330
1B
100
AcDbEntity
 67
     1
  8
7_ALL_FEATURES
  6
Continuous
 62
     7
100
AcDbLine
 10
242.5288989308
 20
212.5584003605
 30
0.0
 11
242.7749776687
 21
212.7472232173
 31
0.0
  0
LINE
  5
384
330
1B
100
AcDbEntity
 67
     1
  8
3_ALL_AXES
  6
Continuous
 62
     7
100
AcDbLine
 10
337.5922344076
 20
211.2524694822
 30
0.0
 11
337.7992896436
 21
210.4797288212
 31
0.0
  0
LINE
  5
385
330
1B
100
AcDbEntity
 67
     1
  8
3_ALL_AXES
  6
Continuous
 62
     7
100
AcDbLine
 10
328.8989019709
 20
208.9230980763
 30
0.0
 11
329.105957207
 21
208.1503574153
 31
0.0
  0
LINE
  5
386
330
1B
100
AcDbEntity
 67
     1
  8
3_ALL_AXES
  6
Continuous
 62
     7
100
AcDbLine
 10
337.5922344076
 20
211.2524694822
 30
0.0
 11
337.7992896436
 21
210.4797288212
 31
0.0
  0
LINE
  5
387
330
1B
100
AcDbEntity
 67
     1
  8
3_ALL_AXES
  6
Continuous
 62
     7
100
AcDbLine
 10
337.5922344076
 20
211.2524694822
 30
0.0
 11
337.5479916128
 21
211.2406146611
 31
0.0
  0
LINE
  5
388
330
1B
100
AcDbEntity
 67
     1
  8
3_ALL_AXES
  6
Continuous
 62
     7
100
AcDbLine
 10
337.5479916128
 20
211.2406146611
 30
0.0
 11
335.3223087158
 21
210.6442447262
 31
0.0
  0
LINE
  5
389
330
1B
100
AcDbEntity
 67
     1
  8
3_ALL_AXES
  6
Continuous
 62
     7
100
AcDbLine
 10
335.3223087158
 20
210.6442447262
 30
0.0
 11
331.1688276627
 21
209.5313228323
 31
0.0
  0
LINE
  5
38A
330
1B
100
AcDbEntity
 67
     1
  8
3_ALL_AXES
  6
Continuous
 62
     7
100
AcDbLine
 10
331.1688276627
 20
209.5313228323
 30
0.0
 11
328.9431447657
 21
208.9349528974
 31
0.0
  0
LINE
  5
38B
330
1B
100
AcDbEntity
 67
     1
  8
3_ALL_AXES
  6
Continuous
 62
     7
100
AcDbLine
 10
328.9431447657
 20
208.9349528974
 30
0.0
 11
328.8989019709
 21
208.9230980763
 31
0.0
  0
LINE
  5
38C
330
1B
100
AcDbEntity
 67
     1
  8
3_ALL_AXES
  6
Continuous
 62
     7
100
AcDbLine
 10
328.8989019709
 20
208.9230980763
 30
0.0
 11
329.105957207
 21
208.1503574153
 31
0.0
  0
LINE
  5
38D
330
1B
100
AcDbEntity
 67
     1
  8
3_ALL_AXES
  6
Continuous
 62
     7
100
AcDbLine
 10
337.3851791715
 20
212.0252101432
 30
0.0
 11
337.5922344076
 21
211.2524694822
 31
0.0
  0
LINE
  5
38E
330
1B
100
AcDbEntity
 67
     1
  8
3_ALL_AXES
  6
Continuous
 62
     7
100
AcDbLine
 10
328.6918467349
 20
209.6958387373
 30
0.0
 11
328.8989019709
 21
208.9230980763
 31
0.0
  0
LINE
  5
38F
330
1B
100
AcDbEntity
 67
     1
  8
3_ALL_AXES
  6
Continuous
 62
     7
100
AcDbLine
 10
337.3851791715
 20
212.0252101432
 30
0.0
 11
337.5922344076
 21
211.2524694822
 31
0.0
  0
LINE
  5
390
330
1B
100
AcDbEntity
 67
     1
  8
3_ALL_AXES
  6
Continuous
 62
     7
100
AcDbLine
 10
337.3851791715
 20
212.0252101432
 30
0.0
 11
336.709031093
 21
211.8440368117
 31
0.0
  0
LINE
  5
391
330
1B
100
AcDbEntity
 67
     1
  8
3_ALL_AXES
  6
Continuous
 62
     7
100
AcDbLine
 10
336.709031093
 20
211.8440368117
 30
0.0
 11
336.6951612654
 21
211.8403204025
 31
0.0
  0
LINE
  5
392
330
1B
100
AcDbEntity
 67
     1
  8
3_ALL_AXES
  6
Continuous
 62
     7
100
AcDbLine
 10
336.6951612654
 20
211.8403204025
 30
0.0
 11
336.081179306
 21
211.6758044324
 31
0.0
  0
LINE
  5
393
330
1B
100
AcDbEntity
 67
     1
  8
3_ALL_AXES
  6
Continuous
 62
     7
100
AcDbLine
 10
336.081179306
 20
211.6758044324
 30
0.0
 11
335.1152534797
 21
211.4169853873
 31
0.0
  0
LINE
  5
394
330
1B
100
AcDbEntity
 67
     1
  8
3_ALL_AXES
  6
Continuous
 62
     7
100
AcDbLine
 10
335.1152534797
 20
211.4169853873
 30
0.0
 11
330.9617724266
 21
210.3040634933
 31
0.0
  0
LINE
  5
395
330
1B
100
AcDbEntity
 67
     1
  8
3_ALL_AXES
  6
Continuous
 62
     7
100
AcDbLine
 10
330.9617724266
 20
210.3040634933
 30
0.0
 11
329.9958466004
 21
210.0452444482
 31
0.0
  0
LINE
  5
396
330
1B
100
AcDbEntity
 67
     1
  8
3_ALL_AXES
  6
Continuous
 62
     7
100
AcDbLine
 10
329.9958466004
 20
210.0452444482
 30
0.0
 11
329.381864641
 21
209.880728478
 31
0.0
  0
LINE
  5
397
330
1B
100
AcDbEntity
 67
     1
  8
3_ALL_AXES
  6
Continuous
 62
     7
100
AcDbLine
 10
329.381864641
 20
209.880728478
 30
0.0
 11
329.3679948133
 21
209.8770120689
 31
0.0
  0
LINE
  5
398
330
1B
100
AcDbEntity
 67
     1
  8
3_ALL_AXES
  6
Continuous
 62
     7
100
AcDbLine
 10
329.3679948133
 20
209.8770120689
 30
0.0
 11
328.6918467349
 21
209.6958387373
 31
0.0
  0
LINE
  5
399
330
1B
100
AcDbEntity
 67
     1
  8
3_ALL_AXES
  6
Continuous
 62
     7
100
AcDbLine
 10
337.5922344076
 20
211.2524694822
 30
0.0
 11
337.5479916128
 21
211.2406146611
 31
0.0
  0
LINE
  5
39A
330
1B
100
AcDbEntity
 67
     1
  8
3_ALL_AXES
  6
Continuous
 62
     7
100
AcDbLine
 10
337.5479916128
 20
211.2406146611
 30
0.0
 11
335.3223087158
 21
210.6442447262
 31
0.0
  0
LINE
  5
39B
330
1B
100
AcDbEntity
 67
     1
  8
3_ALL_AXES
  6
Continuous
 62
     7
100
AcDbLine
 10
335.3223087158
 20
210.6442447262
 30
0.0
 11
331.1688276627
 21
209.5313228323
 31
0.0
  0
LINE
  5
39C
330
1B
100
AcDbEntity
 67
     1
  8
3_ALL_AXES
  6
Continuous
 62
     7
100
AcDbLine
 10
331.1688276627
 20
209.5313228323
 30
0.0
 11
328.9431447657
 21
208.9349528974
 31
0.0
  0
LINE
  5
39D
330
1B
100
AcDbEntity
 67
     1
  8
3_ALL_AXES
  6
Continuous
 62
     7
100
AcDbLine
 10
328.9431447657
 20
208.9349528974
 30
0.0
 11
328.8989019709
 21
208.9230980763
 31
0.0
  0
LINE
  5
39E
330
1B
100
AcDbEntity
 67
     1
  8
3_ALL_AXES
  6
Continuous
 62
     7
100
AcDbLine
 10
328.6918467349
 20
209.6958387373
 30
0.0
 11
328.8989019709
 21
208.9230980763
 31
0.0
  0
LINE
  5
39F
330
1B
100
AcDbEntity
 67
     1
  8
7_ALL_FEATURES
  6
Continuous
 62
     7
100
AcDbLine
 10
336.709031093
 20
211.8440368116
 30
0.0
 11
336.7797417712
 21
211.9665112988
 31
0.0
  0
LINE
  5
3A0
330
1B
100
AcDbEntity
 67
     1
  8
7_ALL_FEATURES
  6
Continuous
 62
     7
100
AcDbLine
 10
329.3679948134
 20
209.8770120688
 30
0.0
 11
329.2455203262
 21
209.947722747
 31
0.0
  0
LINE
  5
3A1
330
1B
100
AcDbEntity
 67
     1
  8
02___PRT_ALL_AXES
  6
Continuous
 62
     7
100
AcDbLine
 10
333.1321077372
 20
222.7912791618
 30
0.0
 11
334.1527284634
 21
221.7706584357
 31
0.0
  0
LINE
  5
3A2
330
1B
100
AcDbEntity
 67
     1
  8
02___PRT_ALL_AXES
  6
Continuous
 62
     7
100
AcDbLine
 10
326.9920801317
 20
221.1460637234
 30
0.0
 11
326.6185070183
 21
219.7518698839
 31
0.0
  0
LINE
  5
3A3
330
1B
100
AcDbEntity
 67
     1
  8
02___PRT_ALL_AXES
  6
Continuous
 62
     7
100
AcDbLine
 10
333.1321077372
 20
222.7912791618
 30
0.0
 11
331.9939455871
 21
222.4863095328
 31
0.0
  0
LINE
  5
3A4
330
1B
100
AcDbEntity
 67
     1
  8
02___PRT_ALL_AXES
  6
Continuous
 62
     7
100
AcDbLine
 10
331.9939455871
 20
222.4863095328
 30
0.0
 11
331.6558715479
 21
222.395722867
 31
0.0
  0
LINE
  5
3A5
330
1B
100
AcDbEntity
 67
     1
  8
02___PRT_ALL_AXES
  6
Continuous
 62
     7
100
AcDbLine
 10
331.6558715479
 20
222.395722867
 30
0.0
 11
328.4683163211
 21
221.5416200182
 31
0.0
  0
LINE
  5
3A6
330
1B
100
AcDbEntity
 67
     1
  8
02___PRT_ALL_AXES
  6
Continuous
 62
     7
100
AcDbLine
 10
328.4683163211
 20
221.5416200182
 30
0.0
 11
328.1302422819
 21
221.4510333524
 31
0.0
  0
LINE
  5
3A7
330
1B
100
AcDbEntity
 67
     1
  8
02___PRT_ALL_AXES
  6
Continuous
 62
     7
100
AcDbLine
 10
328.1302422819
 20
221.4510333524
 30
0.0
 11
326.9920801317
 21
221.1460637234
 31
0.0
  0
LINE
  5
3A8
330
1B
100
AcDbEntity
 67
     1
  8
02___PRT_ALL_AXES
  6
Continuous
 62
     7
100
AcDbLine
 10
334.1527284634
 20
221.7706584357
 30
0.0
 11
334.6056617923
 21
220.0802882396
 31
0.0
  0
LINE
  5
3A9
330
1B
100
AcDbEntity
 67
     1
  8
02___PRT_ALL_AXES
  6
Continuous
 62
     7
100
AcDbLine
 10
326.6185070183
 20
219.7518698839
 30
0.0
 11
327.0714403473
 21
218.0614996878
 31
0.0
  0
LINE
  5
3AA
330
1B
100
AcDbEntity
 67
     1
  8
02___PRT_ALL_AXES
  6
Continuous
 62
     7
100
AcDbLine
 10
334.6056617923
 20
220.0802882396
 30
0.0
 11
333.8985550111
 21
218.8555433683
 31
0.0
  0
LINE
  5
3AB
330
1B
100
AcDbEntity
 67
     1
  8
02___PRT_ALL_AXES
  6
Continuous
 62
     7
100
AcDbLine
 10
327.0714403473
 20
218.0614996878
 30
0.0
 11
328.2961852187
 21
217.3543929067
 31
0.0
  0
LINE
  5
3AC
330
1B
100
AcDbEntity
 67
     1
  8
02___PRT_ALL_AXES
  6
Continuous
 62
     7
100
AcDbLine
 10
333.8985550111
 20
218.8555433683
 30
0.0
 11
335.1232998825
 21
218.1484365871
 31
0.0
  0
LINE
  5
3AD
330
1B
100
AcDbEntity
 67
     1
  8
02___PRT_ALL_AXES
  6
Continuous
 62
     7
100
AcDbLine
 10
328.2961852187
 20
217.3543929067
 30
0.0
 11
327.5890784375
 21
216.1296480353
 31
0.0
  0
LINE
  5
3AE
330
1B
100
AcDbEntity
 67
     1
  8
7_ALL_FEATURES
  6
Continuous
 62
     7
100
AcDbLine
 10
327.5890784375
 20
216.1296480353
 30
0.0
 11
329.2455203261
 21
209.947722747
 31
0.0
  0
LINE
  5
3AF
330
1B
100
AcDbEntity
 67
     1
  8
7_ALL_FEATURES
  6
Continuous
 62
     7
100
AcDbLine
 10
335.1232998825
 20
218.1484365871
 30
0.0
 11
336.7797417712
 21
211.9665112988
 31
0.0
  0
LINE
  5
3B0
330
1B
100
AcDbEntity
 67
     1
  8
7_ALL_FEATURES
  6
Continuous
 62
     7
100
AcDbLine
 10
336.709031093
 20
211.8440368116
 30
0.0
 11
336.7797417711
 21
211.9665112987
 31
0.0
  0
LINE
  5
3B1
330
1B
100
AcDbEntity
 67
     1
  8
7_ALL_FEATURES
  6
Continuous
 62
     7
100
AcDbLine
 10
329.3679948133
 20
209.8770120689
 30
0.0
 11
329.2455203262
 21
209.947722747
 31
0.0
  0
LINE
  5
3B2
330
1B
100
AcDbEntity
 67
     1
  8
02___PRT_ALL_AXES
  6
Continuous
 62
     7
100
AcDbLine
 10
329.2455203261
 20
209.947722747
 30
0.0
 11
327.5890784375
 21
216.1296480353
 31
0.0
  0
LINE
  5
3B3
330
1B
100
AcDbEntity
 67
     1
  8
02___PRT_ALL_AXES
  6
Continuous
 62
     7
100
AcDbLine
 10
327.5890784375
 20
216.1296480353
 30
0.0
 11
328.2961852187
 21
217.3543929067
 31
0.0
  0
LINE
  5
3B4
330
1B
100
AcDbEntity
 67
     1
  8
02___PRT_ALL_AXES
  6
Continuous
 62
     7
100
AcDbLine
 10
334.1527284634
 20
221.7706584357
 30
0.0
 11
333.1321077372
 21
222.7912791618
 31
0.0
  0
LINE
  5
3B5
330
1B
100
AcDbEntity
 67
     1
  8
02___PRT_ALL_AXES
  6
Continuous
 62
     7
100
AcDbLine
 10
328.2961852187
 20
217.3543929067
 30
0.0
 11
327.0714403473
 21
218.0614996878
 31
0.0
  0
LINE
  5
3B6
330
1B
100
AcDbEntity
 67
     1
  8
02___PRT_ALL_AXES
  6
Continuous
 62
     7
100
AcDbLine
 10
334.6056617923
 20
220.0802882396
 30
0.0
 11
334.1527284634
 21
221.7706584357
 31
0.0
  0
LINE
  5
3B7
330
1B
100
AcDbEntity
 67
     1
  8
02___PRT_ALL_AXES
  6
Continuous
 62
     7
100
AcDbLine
 10
327.0714403473
 20
218.0614996878
 30
0.0
 11
326.6185070183
 21
219.7518698839
 31
0.0
  0
LINE
  5
3B8
330
1B
100
AcDbEntity
 67
     1
  8
02___PRT_ALL_AXES
  6
Continuous
 62
     7
100
AcDbLine
 10
333.8985550111
 20
218.8555433683
 30
0.0
 11
334.6056617923
 21
220.0802882396
 31
0.0
  0
LINE
  5
3B9
330
1B
100
AcDbEntity
 67
     1
  8
02___PRT_ALL_AXES
  6
Continuous
 62
     7
100
AcDbLine
 10
326.6185070183
 20
219.7518698839
 30
0.0
 11
326.9920801317
 21
221.1460637234
 31
0.0
  0
LINE
  5
3BA
330
1B
100
AcDbEntity
 67
     1
  8
02___PRT_ALL_AXES
  6
Continuous
 62
     7
100
AcDbLine
 10
335.1232998825
 20
218.1484365871
 30
0.0
 11
333.8985550111
 21
218.8555433683
 31
0.0
  0
LINE
  5
3BB
330
1B
100
AcDbEntity
 67
     1
  8
02___PRT_ALL_AXES
  6
Continuous
 62
     7
100
AcDbLine
 10
336.7797417712
 20
211.9665112988
 30
0.0
 11
335.1232998825
 21
218.1484365871
 31
0.0
  0
LINE
  5
3BC
330
1B
100
AcDbEntity
 67
     1
  8
02___PRT_ALL_AXES
  6
Continuous
 62
     7
100
AcDbLine
 10
333.8985550111
 20
218.8555433683
 30
0.0
 11
328.2961852187
 21
217.3543929067
 31
0.0
  0
LINE
  5
3BD
330
1B
100
AcDbEntity
 67
     1
  8
7_ALL_FEATURES
  6
Continuous
 62
     7
100
AcDbLine
 10
336.7797417712
 20
211.9665112988
 30
0.0
 11
329.2455203261
 21
209.947722747
 31
0.0
  0
LINE
  5
3BE
330
1B
100
AcDbEntity
 67
     1
  8
02___PRT_ALL_AXES
  6
Continuous
 62
     7
100
AcDbLine
 10
334.1527284634
 20
221.7706584357
 30
0.0
 11
326.6185070183
 21
219.7518698839
 31
0.0
  0
LINE
  5
3BF
330
1B
100
AcDbEntity
 67
     1
  8
02___PRT_ALL_AXES
  6
Continuous
 62
     7
100
AcDbLine
 10
335.1232998825
 20
218.1484365871
 30
0.0
 11
327.5890784375
 21
216.1296480353
 31
0.0
  0
LINE
  5
3C0
330
1B
100
AcDbEntity
 67
     1
  8
02___PRT_ALL_AXES
  6
Continuous
 62
     7
100
AcDbLine
 10
334.6056617923
 20
220.0802882396
 30
0.0
 11
327.0714403473
 21
218.0614996878
 31
0.0
  0
LINE
  5
3C1
330
1B
100
AcDbEntity
 67
     1
  8
7_ALL_FEATURES
  6
Continuous
 62
     7
100
AcDbLine
 10
319.4466989441
 20
205.2621669642
 30
0.0
 11
319.5915878181
 21
205.450989821
 31
0.0
  0
LINE
  5
3C2
330
1B
100
AcDbEntity
 67
     1
  8
7_ALL_FEATURES
  6
Continuous
 62
     7
100
AcDbLine
 10
319.837666556
 20
203.0679192722
 30
0.0
 11
347.0675802947
 21
203.0679192722
 31
0.0
  0
LINE
  5
3C3
330
1B
100
AcDbEntity
 67
     1
  8
7_ALL_FEATURES
  6
Continuous
 62
     7
100
AcDbLine
 10
319.736476692
 20
205.6398126778
 30
0.0
 11
319.5915878181
 21
205.450989821
 31
0.0
  0
LINE
  5
3C4
330
1B
100
AcDbEntity
 67
     1
  8
7_ALL_FEATURES
  6
Continuous
 62
     7
100
AcDbLine
 10
319.4466989441
 20
205.2621669642
 30
0.0
 11
319.4466989441
 21
203.4588868841
 31
0.0
  0
LINE
  5
3C5
330
1B
100
AcDbEntity
 67
     1
  8
7_ALL_FEATURES
  6
Continuous
 62
     7
100
AcDbLine
 10
347.4585479065
 20
212.5584003605
 30
0.0
 11
347.2124691686
 21
212.7472232173
 31
0.0
  0
LINE
  5
3C6
330
1B
100
AcDbEntity
 67
     1
  8
7_ALL_FEATURES
  6
Continuous
 62
     7
100
AcDbLine
 10
347.4585479065
 20
203.4588868841
 30
0.0
 11
347.2630641006
 21
203.2634030781
 31
0.0
  0
LINE
  5
3C7
330
1B
100
AcDbEntity
 67
     1
  8
7_ALL_FEATURES
  6
Continuous
 62
     7
100
AcDbLine
 10
346.9663904307
 20
212.936046074
 30
0.0
 11
347.2124691686
 21
212.7472232173
 31
0.0
  0
LINE
  5
3C8
330
1B
100
AcDbEntity
 67
     1
  8
7_ALL_FEATURES
  6
Continuous
 62
     7
100
AcDbLine
 10
319.837666556
 20
203.0679192722
 30
0.0
 11
319.6421827501
 21
203.2634030781
 31
0.0
  0
LINE
  5
3C9
330
1B
100
AcDbEntity
 67
     1
  8
7_ALL_FEATURES
  6
Continuous
 62
     7
100
AcDbLine
 10
319.4466989441
 20
203.4588868841
 30
0.0
 11
319.6421827501
 21
203.2634030781
 31
0.0
  0
LINE
  5
3CA
330
1B
100
AcDbEntity
 67
     1
  8
7_ALL_FEATURES
  6
Continuous
 62
     7
100
AcDbLine
 10
347.2630641006
 20
203.2634030781
 30
0.0
 11
347.0675802947
 21
203.0679192722
 31
0.0
  0
LINE
  5
3CB
330
1B
100
AcDbEntity
 67
     1
  8
7_ALL_FEATURES
  6
Continuous
 62
     7
100
AcDbLine
 10
346.9663904307
 20
212.936046074
 30
0.0
 11
319.736476692
 21
205.6398126778
 31
0.0
  0
LINE
  5
3CC
330
1B
100
AcDbEntity
 67
     1
  8
7_ALL_FEATURES
  6
Continuous
 62
     7
100
AcDbLine
 10
347.4585479065
 20
203.4588868841
 30
0.0
 11
347.4585479065
 21
212.5584003605
 31
0.0
  0
LINE
  5
3CD
330
1B
100
AcDbEntity
 67
     1
  8
7_ALL_FEATURES
  6
Continuous
 62
     7
100
AcDbLine
 10
319.6421827501
 20
203.2634030781
 30
0.0
 11
319.837666556
 21
203.4588868841
 31
0.0
  0
LINE
  5
3CE
330
1B
100
AcDbEntity
 67
     1
  8
7_ALL_FEATURES
  6
Continuous
 62
     7
100
AcDbLine
 10
319.837666556
 20
205.2621669642
 30
0.0
 11
319.837666556
 21
203.4588868841
 31
0.0
  0
LINE
  5
3CF
330
1B
100
AcDbEntity
 67
     1
  8
7_ALL_FEATURES
  6
Continuous
 62
     7
100
AcDbLine
 10
347.0675802947
 20
212.5584003605
 30
0.0
 11
319.837666556
 21
205.2621669642
 31
0.0
  0
LINE
  5
3D0
330
1B
100
AcDbEntity
 67
     1
  8
7_ALL_FEATURES
  6
Continuous
 62
     7
100
AcDbLine
 10
347.0675802947
 20
203.4588868841
 30
0.0
 11
347.2630641006
 21
203.2634030781
 31
0.0
  0
LINE
  5
3D1
330
1B
100
AcDbEntity
 67
     1
  8
7_ALL_FEATURES
  6
Continuous
 62
     7
100
AcDbLine
 10
347.0675802947
 20
203.4588868841
 30
0.0
 11
347.0675802947
 21
212.5584003605
 31
0.0
  0
LINE
  5
3D2
330
1B
100
AcDbEntity
 67
     1
  8
7_ALL_FEATURES
  6
Continuous
 62
     7
100
AcDbLine
 10
319.5915878181
 20
205.450989821
 30
0.0
 11
319.837666556
 21
205.2621669642
 31
0.0
  0
LINE
  5
3D3
330
1B
100
AcDbEntity
 67
     1
  8
7_ALL_FEATURES
  6
Continuous
 62
     7
100
AcDbLine
 10
347.2124691686
 20
212.7472232173
 30
0.0
 11
347.0675802947
 21
212.5584003605
 31
0.0
  0
LINE
  5
3D4
330
1B
100
AcDbEntity
 67
     1
  8
7_ALL_FEATURES
  6
Continuous
 62
     7
100
AcDbLine
 10
319.837666556
 20
203.4588868841
 30
0.0
 11
347.0675802947
 21
203.4588868841
 31
0.0
  0
DIMENSION
  5
3D5
330
1B
100
AcDbEntity
 67
     1
  8
0
  6
Continuous
 62
     2
100
AcDbDimension
280
     0
  2
*D1
 10
242.9198665427
 20
54.9300138533
 30
0.0
 11
138.4912957764
 21
54.9300138533
 31
0.0
 70
   160
 71
     5
 42
-1.0
 73
     0
 74
     0
 75
     0
  3
DIMSTYLE_1
100
AcDbAlignedDimension
 13
34.9198665427
 23
67.0409215468
 33
0.0
 14
242.9198665427
 24
67.0409215468
 34
0.0
100
AcDbRotatedDimension
  0
DIMENSION
  5
3D6
330
1B
100
AcDbEntity
 67
     1
  8
0
  6
Continuous
 62
     2
100
AcDbDimension
280
     0
  2
*D2
 10
347.4585479065
 20
195.5810196911
 30
0.0
 11
333.0240472412
 21
195.5810196911
 31
0.0
 70
   160
 71
     5
 42
-1.0
 73
     0
 74
     0
 75
     0
  3
DIMSTYLE_2
100
AcDbAlignedDimension
 13
319.4466989441
 23
203.4588868841
 33
0.0
 14
347.4585479065
 24
203.4588868841
 34
0.0
100
AcDbRotatedDimension
  0
DIMENSION
  5
3D7
330
1B
100
AcDbEntity
 67
     1
  8
0
  6
Continuous
 62
     2
100
AcDbDimension
280
     0
  2
*D3
 10
253.0448805663
 20
203.0679192722
 30
0.0
 11
253.0448805663
 21
196.7464474593
 31
0.0
 70
   160
 71
     5
 42
-1.0
 73
     0
 74
     0
 75
     0
  3
DIMSTYLE_2
100
AcDbAlignedDimension
 13
242.5288989308
 23
212.936046074
 33
0.0
 14
242.5288989308
 24
203.0679192722
 34
0.0
 50
270.0
100
AcDbRotatedDimension
  0
LINE
  5
3D8
330
1B
100
AcDbEntity
 67
     1
  8
0
  6
Continuous
 62
     2
100
AcDbLine
 10
279.2387749409
 20
76.5954425707
 30
0.0
 11
409.2387749409
 21
76.5954425707
 31
0.0
  0
LINE
  5
3D9
330
1B
100
AcDbEntity
 67
     1
  8
0
  6
Continuous
 62
     2
100
AcDbLine
 10
279.2387749409
 20
76.5954425707
 30
0.0
 11
279.2387749409
 21
10.5954425707
 31
0.0
  0
LINE
  5
3DA
330
1B
100
AcDbEntity
 67
     1
  8
0
  6
Continuous
 62
     2
100
AcDbLine
 10
309.2387749409
 20
68.5954425707
 30
0.0
 11
409.2387749409
 21
68.5954425707
 31
0.0
  0
LINE
  5
3DB
330
1B
100
AcDbEntity
 67
     1
  8
0
  6
Continuous
 62
     2
100
AcDbLine
 10
279.2387749409
 20
60.5954425707
 30
0.0
 11
409.2387749409
 21
60.5954425707
 31
0.0
  0
LINE
  5
3DC
330
1B
100
AcDbEntity
 67
     1
  8
0
  6
Continuous
 62
     2
100
AcDbLine
 10
309.2387749409
 20
54.5954425707
 30
0.0
 11
409.2387749409
 21
54.5954425707
 31
0.0
  0
LINE
  5
3DD
330
1B
100
AcDbEntity
 67
     1
  8
0
  6
Continuous
 62
     2
100
AcDbLine
 10
309.2387749409
 20
48.5954425707
 30
0.0
 11
409.2387749409
 21
48.5954425707
 31
0.0
  0
LINE
  5
3DE
330
1B
100
AcDbEntity
 67
     1
  8
0
  6
Continuous
 62
     2
100
AcDbLine
 10
309.2387749409
 20
42.5954425707
 30
0.0
 11
409.2387749409
 21
42.5954425707
 31
0.0
  0
LINE
  5
3DF
330
1B
100
AcDbEntity
 67
     1
  8
0
  6
Continuous
 62
     2
100
AcDbLine
 10
309.2387749409
 20
36.5954425707
 30
0.0
 11
409.2387749409
 21
36.5954425707
 31
0.0
  0
LINE
  5
3E0
330
1B
100
AcDbEntity
 67
     1
  8
0
  6
Continuous
 62
     2
100
AcDbLine
 10
309.2387749409
 20
30.5954425707
 30
0.0
 11
409.2387749409
 21
30.5954425707
 31
0.0
  0
LINE
  5
3E1
330
1B
100
AcDbEntity
 67
     1
  8
0
  6
Continuous
 62
     2
100
AcDbLine
 10
279.2387749409
 20
24.5954425707
 30
0.0
 11
409.2387749409
 21
24.5954425707
 31
0.0
  0
LINE
  5
3E2
330
1B
100
AcDbEntity
 67
     1
  8
0
  6
Continuous
 62
     2
100
AcDbLine
 10
279.2387749409
 20
18.5954425707
 30
0.0
 11
409.2387749409
 21
18.5954425707
 31
0.0
  0
LINE
  5
3E3
330
1B
100
AcDbEntity
 67
     1
  8
0
  6
Continuous
 62
     2
100
AcDbLine
 10
279.2387749409
 20
14.5954425707
 30
0.0
 11
409.2387749409
 21
14.5954425707
 31
0.0
  0
LINE
  5
3E4
330
1B
100
AcDbEntity
 67
     1
  8
0
  6
Continuous
 62
     2
100
AcDbLine
 10
279.2387749409
 20
10.5954425707
 30
0.0
 11
409.2387749409
 21
10.5954425707
 31
0.0
  0
LINE
  5
3E5
330
1B
100
AcDbEntity
 67
     1
  8
0
  6
Continuous
 62
     2
100
AcDbLine
 10
309.2387749409
 20
76.5954425707
 30
0.0
 11
309.2387749409
 21
18.5954425707
 31
0.0
  0
LINE
  5
3E6
330
1B
100
AcDbEntity
 67
     1
  8
0
  6
Continuous
 62
     2
100
AcDbLine
 10
329.2387749409
 20
60.5954425707
 30
0.0
 11
329.2387749409
 21
54.5954425707
 31
0.0
  0
LINE
  5
3E7
330
1B
100
AcDbEntity
 67
     1
  8
0
  6
Continuous
 62
     2
100
AcDbLine
 10
359.2387749409
 20
30.5954425707
 30
0.0
 11
359.2387749409
 21
18.5954425707
 31
0.0
  0
LINE
  5
3E8
330
1B
100
AcDbEntity
 67
     1
  8
0
  6
Continuous
 62
     2
100
AcDbLine
 10
369.2387749409
 20
60.5954425707
 30
0.0
 11
369.2387749409
 21
54.5954425707
 31
0.0
  0
LINE
  5
3E9
330
1B
100
AcDbEntity
 67
     1
  8
0
  6
Continuous
 62
     2
100
AcDbLine
 10
369.2387749409
 20
48.5954425707
 30
0.0
 11
369.2387749409
 21
42.5954425707
 31
0.0
  0
LINE
  5
3EA
330
1B
100
AcDbEntity
 67
     1
  8
0
  6
Continuous
 62
     2
100
AcDbLine
 10
389.2387749409
 20
60.5954425707
 30
0.0
 11
389.2387749409
 21
54.5954425707
 31
0.0
  0
LINE
  5
3EB
330
1B
100
AcDbEntity
 67
     1
  8
0
  6
Continuous
 62
     2
100
AcDbLine
 10
399.2387749409
 20
48.5954425707
 30
0.0
 11
399.2387749409
 21
42.5954425707
 31
0.0
  0
LINE
  5
3EC
330
1B
100
AcDbEntity
 67
     1
  8
0
  6
Continuous
 62
     2
100
AcDbLine
 10
409.2387749409
 20
76.5954425707
 30
0.0
 11
409.2387749409
 21
10.5954425707
 31
0.0
  0
INSERT
  5
3ED
330
1B
100
AcDbEntity
 67
     1
  8
0
  6
Continuous
 62
     2
100
AcDbBlockReference
  2
PROIEZIONE_EU_BL0
 10
294.2387749409
 20
68.2204425707
 30
0.0
  0
MTEXT
  5
3EE
330
1B
100
AcDbEntity
 67
     1
  8
9_SOLID
  6
Continuous
 62
     2
100
AcDbMText
 10
310.7262749409
 20
74.9704425707
 30
0.0
 40
1.9
 41
142.3642857143
 46
0.0
 71
     1
 72
     1
  1
EN: Chamfer/radii unlisted 0.3x45°. Remove sharp edges.\PGen. tol.: hole H11, shaft h11, lenght Js12. UNI EN 22768 Medium Grande.
 73
     1
 44
1.0
  0
MTEXT
  5
3EF
330
1B
100
AcDbEntity
 67
     1
  8
9_SOLID
  6
Continuous
 62
     2
100
AcDbMText
 10
310.7262749409
 20
66.9704425707
 30
0.0
 40
1.9
 41
148.2678571429
 46
0.0
 71
     1
 72
     1
  1
IT: Sm./rac. non quotati 0.3x45°. Eliminare spigoli taglienti.\PToll. gen.: foro H11, albero h11, lunghezza Js12. UNI EN 22768 Grado Medio.
 73
     1
 44
1.0
  0
INSERT
  5
3F0
330
1B
100
AcDbEntity
 67
     1
  8
0
  6
Continuous
 62
     2
100
AcDbBlockReference
  2
LOGO2_BL1
 10
293.0648219857
 20
42.5954425707
 30
0.0
  0
MTEXT
  5
3F1
330
1B
100
AcDbEntity
 67
     1
  8
9_SOLID
  6
Continuous
 62
     2
100
AcDbMText
 10
310.7262749409
 20
58.8454425707
 30
0.0
 40
3.0
 41
22.0714285714
 46
0.0
 71
     1
 72
     1
  1
Pj: 3H6
 73
     1
 44
1.0
  0
MTEXT
  5
3F2
330
1B
100
AcDbEntity
 67
     1
  8
9_SOLID
  6
Continuous
 62
     2
100
AcDbMText
 10
330.7262749409
 20
58.8454425707
 30
0.0
 40
3.0
 41
38.0357142857
 46
0.0
 71
     1
 72
     1
  1
% Check: %
 73
     1
 44
1.0
  0
MTEXT
  5
3F3
330
1B
100
AcDbEntity
 67
     1
  8
9_SOLID
  6
Continuous
 62
     2
100
AcDbMText
 10
370.7262749409
 20
58.8454425707
 30
0.0
 40
3.0
 41
19.5
 46
0.0
 71
     1
 72
     1
  1
Rev:00
 73
     1
 44
1.0
  0
MTEXT
  5
3F4
330
1B
100
AcDbEntity
 67
     1
  8
9_SOLID
  6
Continuous
 62
     2
100
AcDbMText
 10
390.7262749409
 20
59.0954425707
 30
0.0
 40
3.0
 41
19.7142857143
 46
0.0
 71
     1
 72
     1
  1
Ver: A
 73
     1
 44
1.0
  0
MTEXT
  5
3F5
330
1B
100
AcDbEntity
 67
     1
  8
9_SOLID
  6
Continuous
 62
     2
100
AcDbMText
 10
310.7262749409
 20
52.8454425707
 30
0.0
 40
3.0
 41
74.3571428571
 46
0.0
 71
     1
 72
     1
  1
Neutral code: 3H6_C_005
 73
     1
 44
1.0
  0
MTEXT
  5
3F6
330
1B
100
AcDbEntity
 67
     1
  8
9_SOLID
  6
Continuous
 62
     2
100
AcDbMText
 10
310.7262749409
 20
46.8454425707
 30
0.0
 40
3.0
 41
19.3928571429
 46
0.0
 71
     1
 72
     1
  1
Code: 
 73
     1
 44
1.0
  0
MTEXT
  5
3F7
330
1B
100
AcDbEntity
 67
     1
  8
9_SOLID
  6
Continuous
 62
     2
100
AcDbMText
 10
370.7262749409
 20
47.0954425707
 30
0.0
 40
3.0
 41
27.8571428571
 46
0.0
 71
     1
 72
     1
  1
Scale: 1:1
 73
     1
 44
1.0
  0
MTEXT
  5
3F8
330
1B
100
AcDbEntity
 67
     1
  8
9_SOLID
  6
Continuous
 62
     2
100
AcDbMText
 10
404.2387749409
 20
47.0954425707
 30
0.0
 40
3.0
 41
7.9285714286
 46
0.0
 71
     2
 72
     1
  1
A3
 73
     1
 44
1.0
  0
MTEXT
  5
3F9
330
1B
100
AcDbEntity
 67
     1
  8
9_SOLID
  6
Continuous
 62
     2
100
AcDbMText
 10
310.7262749409
 20
41.0954425707
 30
0.0
 40
3.0
 41
123.75
 46
0.0
 71
     1
 72
     1
  1
It descr.: DIST. ELLA/ELLO IN 2 AL6026
 73
     1
 44
1.0
  0
MTEXT
  5
3FA
330
1B
100
AcDbEntity
 67
     1
  8
9_SOLID
  6
Continuous
 62
     2
100
AcDbMText
 10
310.7262749409
 20
35.0954425707
 30
0.0
 40
3.0
 41
33.9642857143
 46
0.0
 71
     1
 72
     1
  1
En descr.: 
 73
     1
 44
1.0
  0
MTEXT
  5
3FB
330
1B
100
AcDbEntity
 67
     1
  8
9_SOLID
  6
Continuous
 62
     2
100
AcDbMText
 10
310.7262749409
 20
29.0954425707
 30
0.0
 40
3.0
 41
31.2857142857
 46
0.0
 71
     1
 72
     1
  1
Des.: A.F.
 73
     1
 44
1.0
  0
MTEXT
  5
3FC
330
1B
100
AcDbEntity
 67
     1
  8
9_SOLID
  6
Continuous
 62
     2
100
AcDbMText
 10
360.7262749409
 20
29.0954425707
 30
0.0
 40
3.0
 41
22.2857142857
 46
0.0
 71
     1
 72
     1
  1
Check: 
 73
     1
 44
1.0
  0
MTEXT
  5
3FD
330
1B
100
AcDbEntity
 67
     1
  8
9_SOLID
  6
Continuous
 62
     2
100
AcDbMText
 10
280.7262749409
 20
23.0954425707
 30
0.0
 40
3.0
 41
19.0714285714
 46
0.0
 71
     1
 72
     1
  1
Date: 
 73
     1
 44
1.0
  0
MTEXT
  5
3FE
330
1B
100
AcDbEntity
 67
     1
  8
9_SOLID
  6
Continuous
 62
     2
100
AcDbMText
 10
310.7262749409
 20
23.0954425707
 30
0.0
 40
3.0
 41
18.2142857143
 46
0.0
 71
     1
 72
     1
  1
Mat.: 
 73
     1
 44
1.0
  0
MTEXT
  5
3FF
330
1B
100
AcDbEntity
 67
     1
  8
9_SOLID
  6
Continuous
 62
     2
100
AcDbMText
 10
360.7262749409
 20
22.5954425707
 30
0.0
 40
2.0
 41
42.3571428571
 46
0.0
 71
     1
 72
     1
  1
Disegno per catalogo
 73
     1
 44
1.0
  0
MTEXT
  5
400
330
1B
100
AcDbEntity
 67
     1
  8
9_SOLID
  6
Continuous
 62
     2
100
AcDbMText
 10
280.7262749409
 20
17.4954425707
 30
0.0
 40
1.8
 41
176.2071428571
 46
0.0
 71
     1
 72
     1
  1
It: A norma di legge si diffida da qualsiasi riproduzione senza nostra autorizzazione esplicita.
 73
     1
 44
1.0
  0
MTEXT
  5
401
330
1B
100
AcDbEntity
 67
     1
  8
9_SOLID
  6
Continuous
 62
     2
100
AcDbMText
 10
280.7262749409
 20
13.4954425707
 30
0.0
 40
1.8
 41
158.1428571429
 46
0.0
 71
     1
 72
     1
  1
En: According to the law, beware of any reproduction made without our authorization.
 73
     1
 44
1.0
  0
ENDSEC
  0
SECTION
  2
OBJECTS
  0
DICTIONARY
  5
402
330
0
100
AcDbDictionary
281
     1
  3
ACAD_DETAILVIEWSTYLE
350
458
  3
ACAD_GROUP
350
403
  3
ACAD_LAYOUT
350
42B
  3
ACAD_MATERIAL
350
447
  3
ACAD_MLEADERSTYLE
350
44D
  3
ACAD_MLINESTYLE
350
404
  3
ACAD_PLOTSETTINGS
350
406
  3
ACAD_PLOTSTYLENAME
350
407
  3
ACAD_SCALELIST
350
409
  3
ACAD_SECTIONVIEWSTYLE
350
459
  3
ACAD_TABLESTYLE
350
44B
  3
ACAD_VISUALSTYLE
350
42E
  3
ACDB_RECOMPOSE_DATA
350
45C
  3
AcDbVariableDictionary
350
450
  3
APPDATA
350
44F
  0
DICTIONARY
  5
458
102
{ACAD_REACTORS
330
402
102
}
330
402
100
AcDbDictionary
281
     1
  0
DICTIONARY
  5
403
102
{ACAD_REACTORS
330
402
102
}
330
402
100
AcDbDictionary
281
     1
  0
DICTIONARY
  5
42B
102
{ACAD_REACTORS
330
402
102
}
330
402
100
AcDbDictionary
281
     1
  3
Foglio 1
350
42D
  3
Model
350
42C
  0
DICTIONARY
  5
447
102
{ACAD_REACTORS
330
402
102
}
330
402
100
AcDbDictionary
281
     1
  3
ByBlock
350
449
  3
ByLayer
350
448
  3
Global
350
44A
  0
DICTIONARY
  5
44D
102
{ACAD_REACTORS
330
402
102
}
330
402
100
AcDbDictionary
281
     1
  3
Standard
350
44E
  0
DICTIONARY
  5
404
102
{ACAD_REACTORS
330
402
102
}
330
402
100
AcDbDictionary
281
     1
  3
STANDARD
350
405
  0
DICTIONARY
  5
406
102
{ACAD_REACTORS
330
402
102
}
330
402
100
AcDbDictionary
281
     1
  0
ACDBDICTIONARYWDFLT
  5
407
102
{ACAD_REACTORS
330
402
102
}
330
402
100
AcDbDictionary
281
     1
  3
Normal
350
408
100
AcDbDictionaryWithDefault
340
408
  0
DICTIONARY
  5
409
102
{ACAD_REACTORS
330
402
102
}
330
402
100
AcDbDictionary
281
     1
  3
A0
350
40A
  3
A1
350
40B
  3
A2
350
40C
  3
A3
350
40D
  3
A4
350
40E
  3
A5
350
40F
  3
A6
350
410
  3
A7
350
411
  3
A8
350
412
  3
A9
350
413
  3
B0
350
414
  3
B1
350
415
  3
B2
350
416
  3
B3
350
417
  3
B4
350
418
  3
B5
350
419
  3
B6
350
41A
  3
B7
350
41B
  3
B8
350
41C
  3
B9
350
41D
  3
C0
350
41E
  3
C1
350
41F
  3
C2
350
420
  3
C3
350
421
  3
C4
350
422
  3
C5
350
423
  3
C6
350
424
  3
C7
350
425
  3
C8
350
426
  3
C9
350
427
  3
D0
350
428
  3
D1
350
429
  3
D2
350
42A
  0
DICTIONARY
  5
459
102
{ACAD_REACTORS
330
402
102
}
330
402
100
AcDbDictionary
281
     1
  0
DICTIONARY
  5
44B
102
{ACAD_REACTORS
330
402
102
}
330
402
100
AcDbDictionary
281
     1
  3
Standard
350
44C
  0
DICTIONARY
  5
42E
102
{ACAD_REACTORS
330
402
102
}
330
402
100
AcDbDictionary
281
     1
  3
2dWireframe
350
433
  3
Basic
350
436
  3
Brighten
350
43A
  3
ColorChange
350
43E
  3
Conceptual
350
438
  3
Dim
350
439
  3
EdgeColorOff
350
441
  3
Facepattern
350
43D
  3
Flat
350
42F
  3
FlatWithEdges
350
430
  3
Gouraud
350
431
  3
GouraudWithEdges
350
432
  3
Hidden
350
435
  3
JitterOff
350
43F
  3
Linepattern
350
43C
  3
OverhangOff
350
440
  3
Realistic
350
437
  3
Shaded
350
446
  3
Shaded with edges
350
445
  3
Shades of Gray
350
442
  3
Sketchy
350
443
  3
Thicken
350
43B
  3
Wireframe
350
434
  3
X-Ray
350
444
  0
XRECORD
  5
45C
102
{ACAD_REACTORS
330
402
102
}
330
402
100
AcDbXrecord
280
     1
 90
        1
330
44C
  0
DICTIONARY
  5
450
102
{ACAD_REACTORS
330
402
102
}
330
402
100
AcDbDictionary
281
     1
  3
CANNOSCALE
350
451
  3
CMLEADERSTYLE
350
456
  3
CTABLESTYLE
350
455
  3
MSLTSCALE
350
457
  0
DICTIONARY
  5
44F
102
{ACAD_REACTORS
330
402
102
}
330
402
100
AcDbDictionary
281
     1
  0
LAYOUT
  5
42D
102
{ACAD_REACTORS
330
42B
102
}
330
42B
100
AcDbPlotSettings
  1

  2
none_device
  4
ISO_A3_(420.00_x_297.00_MM)
  6

 40
7.5
 41
20.0
 42
7.5
 43
20.0
 44
420.0
 45
297.0
 46
0.0
 47
0.0
 48
0.0
 49
0.0
140
0.0
141
0.0
142
1.0
143
1.155642023346303
 70
   688
 72
     1
 73
     0
 74
     1
  7

 75
     0
 76
     0
 77
     2
 78
   300
147
0.8653198653198654
148
0.0
149
0.0
100
AcDbLayout
  1
Foglio 1
 70
     1
 71
     1
 10
0.0
 20
0.0
 11
412.5
 21
277.0
 12
0.0
 22
0.0
 32
0.0
 14
0.0
 24
0.0
 34
0.0
 15
420.0
 25
297.0
 35
0.0
146
0.0
 13
0.0
 23
0.0
 33
0.0
 16
1.0
 26
0.0
 36
0.0
 17
0.0
 27
1.0
 37
0.0
 76
     0
330
1B
331
2BB
  0
LAYOUT
  5
42C
102
{ACAD_REACTORS
330
42B
102
}
330
42B
100
AcDbPlotSettings
  1

  2
none_device
  4
Letter_(8.50_x_11.00_Inches)
  6

 40
6.35
 41
6.35
 42
6.35
 43
6.35
 44
215.9
 45
279.4
 46
0.0
 47
0.0
 48
0.0
 49
0.0
140
0.0
141
0.0
142
1.0
143
52.49999999846251
 70
  1712
 72
     0
 73
     0
 74
     0
  7

 75
     0
 76
     0
 77
     2
 78
   300
147
0.0190476190481769
148
-0.0000001562100806
149
0.0
100
AcDbLayout
  1
Model
 70
     1
 71
     0
 10
0.0
 20
0.0
 11
420.0
 21
297.0
 12
0.0
 22
0.0
 32
0.0
 14
0.0
 24
0.0
 34
0.0
 15
420.0
 25
297.0
 35
0.0
146
0.0
 13
0.0
 23
0.0
 33
0.0
 16
1.0
 26
0.0
 36
0.0
 17
0.0
 27
1.0
 37
0.0
 76
     0
330
1F
331
1F4
  0
MATERIAL
  5
449
102
{ACAD_REACTORS
330
447
102
}
330
447
100
AcDbMaterial
  1
ByBlock
 72
     1
 94
      127
  0
MATERIAL
  5
448
102
{ACAD_REACTORS
330
447
102
}
330
447
100
AcDbMaterial
  1
ByLayer
 72
     1
 94
      127
  0
MATERIAL
  5
44A
102
{ACAD_REACTORS
330
447
102
}
330
447
100
AcDbMaterial
  1
Global
 72
     1
 94
      127
  0
MLEADERSTYLE
  5
44E
102
{ACAD_REACTORS
330
44D
102
}
330
44D
100
AcDbMLeaderStyle
179
     2
170
     2
171
     1
172
     0
 90
        2
 40
0.0
 41
0.0
173
     1
 91
-1056964608
340
14
 92
       -2
290
     1
 42
2.0
291
     1
 43
8.0
  3
Standard
341
0
 44
4.0
300

342
11
174
     1
178
     1
175
     1
176
     0
 93
-1056964608
 45
4.0
292
     0
297
     0
 46
4.0
343
0
 94
-1056964608
 47
1.0
 49
1.0
140
1.0
293
     1
141
0.0
294
     1
177
     0
142
1.0
295
     0
296
     0
143
3.75
271
     0
272
     9
273
     9
298
     0
  0
MLINESTYLE
  5
405
102
{ACAD_REACTORS
330
404
102
}
330
404
100
AcDbMlineStyle
  2
STANDARD
 70
     0
  3

 62
   256
 51
90.0
 52
90.0
 71
     2
 49
0.5
 62
   256
  6
BYLAYER
 49
-0.5
 62
   256
  6
BYLAYER
  0
ACDBPLACEHOLDER
  5
408
102
{ACAD_REACTORS
330
407
102
}
330
407
  0
SCALE
  5
40A
102
{ACAD_REACTORS
330
409
102
}
330
409
100
AcDbScale
 70
     0
300
1:1
140
1.0
141
1.0
290
     1
  0
SCALE
  5
40B
102
{ACAD_REACTORS
330
409
102
}
330
409
100
AcDbScale
 70
     0
300
1:2
140
1.0
141
2.0
290
     0
  0
SCALE
  5
40C
102
{ACAD_REACTORS
330
409
102
}
330
409
100
AcDbScale
 70
     0
300
1:4
140
1.0
141
4.0
290
     0
  0
SCALE
  5
40D
102
{ACAD_REACTORS
330
409
102
}
330
409
100
AcDbScale
 70
     0
300
1:5
140
1.0
141
5.0
290
     0
  0
SCALE
  5
40E
102
{ACAD_REACTORS
330
409
102
}
330
409
100
AcDbScale
 70
     0
300
1:8
140
1.0
141
8.0
290
     0
  0
SCALE
  5
40F
102
{ACAD_REACTORS
330
409
102
}
330
409
100
AcDbScale
 70
     0
300
1:10
140
1.0
141
10.0
290
     0
  0
SCALE
  5
410
102
{ACAD_REACTORS
330
409
102
}
330
409
100
AcDbScale
 70
     0
300
1:16
140
1.0
141
16.0
290
     0
  0
SCALE
  5
411
102
{ACAD_REACTORS
330
409
102
}
330
409
100
AcDbScale
 70
     0
300
1:20
140
1.0
141
20.0
290
     0
  0
SCALE
  5
412
102
{ACAD_REACTORS
330
409
102
}
330
409
100
AcDbScale
 70
     0
300
1:30
140
1.0
141
30.0
290
     0
  0
SCALE
  5
413
102
{ACAD_REACTORS
330
409
102
}
330
409
100
AcDbScale
 70
     0
300
1:40
140
1.0
141
40.0
290
     0
  0
SCALE
  5
414
102
{ACAD_REACTORS
330
409
102
}
330
409
100
AcDbScale
 70
     0
300
1:50
140
1.0
141
50.0
290
     0
  0
SCALE
  5
415
102
{ACAD_REACTORS
330
409
102
}
330
409
100
AcDbScale
 70
     0
300
1:100
140
1.0
141
100.0
290
     0
  0
SCALE
  5
416
102
{ACAD_REACTORS
330
409
102
}
330
409
100
AcDbScale
 70
     0
300
2:1
140
2.0
141
1.0
290
     0
  0
SCALE
  5
417
102
{ACAD_REACTORS
330
409
102
}
330
409
100
AcDbScale
 70
     0
300
4:1
140
4.0
141
1.0
290
     0
  0
SCALE
  5
418
102
{ACAD_REACTORS
330
409
102
}
330
409
100
AcDbScale
 70
     0
300
8:1
140
8.0
141
1.0
290
     0
  0
SCALE
  5
419
102
{ACAD_REACTORS
330
409
102
}
330
409
100
AcDbScale
 70
     0
300
10:1
140
10.0
141
1.0
290
     0
  0
SCALE
  5
41A
102
{ACAD_REACTORS
330
409
102
}
330
409
100
AcDbScale
 70
     0
300
100:1
140
100.0
141
1.0
290
     0
  0
SCALE
  5
41B
102
{ACAD_REACTORS
330
409
102
}
330
409
100
AcDbScale
 70
     0
300
1/128" = 1'-0"
140
0.0078125
141
12.0
290
     0
  0
SCALE
  5
41C
102
{ACAD_REACTORS
330
409
102
}
330
409
100
AcDbScale
 70
     0
300
1/64" = 1'-0"
140
0.015625
141
12.0
290
     0
  0
SCALE
  5
41D
102
{ACAD_REACTORS
330
409
102
}
330
409
100
AcDbScale
 70
     0
300
1/32" = 1'-0"
140
0.03125
141
12.0
290
     0
  0
SCALE
  5
41E
102
{ACAD_REACTORS
330
409
102
}
330
409
100
AcDbScale
 70
     0
300
1/16" = 1'-0"
140
0.0625
141
12.0
290
     0
  0
SCALE
  5
41F
102
{ACAD_REACTORS
330
409
102
}
330
409
100
AcDbScale
 70
     0
300
3/32" = 1'-0"
140
0.09375
141
12.0
290
     0
  0
SCALE
  5
420
102
{ACAD_REACTORS
330
409
102
}
330
409
100
AcDbScale
 70
     0
300
1/8" = 1'-0"
140
0.125
141
12.0
290
     0
  0
SCALE
  5
421
102
{ACAD_REACTORS
330
409
102
}
330
409
100
AcDbScale
 70
     0
300
3/16" = 1'-0"
140
0.1875
141
12.0
290
     0
  0
SCALE
  5
422
102
{ACAD_REACTORS
330
409
102
}
330
409
100
AcDbScale
 70
     0
300
1/4" = 1'-0"
140
0.25
141
12.0
290
     0
  0
SCALE
  5
423
102
{ACAD_REACTORS
330
409
102
}
330
409
100
AcDbScale
 70
     0
300
3/8" = 1'-0"
140
0.375
141
12.0
290
     0
  0
SCALE
  5
424
102
{ACAD_REACTORS
330
409
102
}
330
409
100
AcDbScale
 70
     0
300
1/2" = 1'-0"
140
0.5
141
12.0
290
     0
  0
SCALE
  5
425
102
{ACAD_REACTORS
330
409
102
}
330
409
100
AcDbScale
 70
     0
300
3/4" = 1'-0"
140
0.75
141
12.0
290
     0
  0
SCALE
  5
426
102
{ACAD_REACTORS
330
409
102
}
330
409
100
AcDbScale
 70
     0
300
1" = 1'-0"
140
1.0
141
12.0
290
     0
  0
SCALE
  5
427
102
{ACAD_REACTORS
330
409
102
}
330
409
100
AcDbScale
 70
     0
300
1-1/2" = 1'-0"
140
1.5
141
12.0
290
     0
  0
SCALE
  5
428
102
{ACAD_REACTORS
330
409
102
}
330
409
100
AcDbScale
 70
     0
300
3" = 1'-0"
140
3.0
141
12.0
290
     0
  0
SCALE
  5
429
102
{ACAD_REACTORS
330
409
102
}
330
409
100
AcDbScale
 70
     0
300
6" = 1'-0"
140
6.0
141
12.0
290
     0
  0
SCALE
  5
42A
102
{ACAD_REACTORS
330
409
102
}
330
409
100
AcDbScale
 70
     0
300
1'-0" = 1'-0"
140
12.0
141
12.0
290
     0
  0
TABLESTYLE
  5
44C
102
{ACAD_REACTORS
330
44B
102
}
102
{ACAD_XDICTIONARY
360
45A
102
}
330
44B
100
AcDbTableStyle
  3
Standard
 70
     0
 71
     0
 40
0.06
 41
0.06
280
     0
281
     0
  7
STANDARD
140
4.5
170
     2
 62
     0
 63
   257
283
     0
 90
        4
 91
        0
  1

274
    -2
284
     1
 64
     0
275
    -2
285
     1
 65
     0
276
    -2
286
     1
 66
     0
277
    -2
287
     1
 67
     0
278
    -2
288
     1
 68
     0
279
    -2
289
     1
 69
     0
  7
STANDARD
140
6.0
170
     5
 62
     0
 63
   257
283
     0
 90
        4
 91
        0
  1

274
    -2
284
     1
 64
     0
275
    -2
285
     1
 65
     0
276
    -2
286
     1
 66
     0
277
    -2
287
     1
 67
     0
278
    -2
288
     1
 68
     0
279
    -2
289
     1
 69
     0
  7
STANDARD
140
4.5
170
     5
 62
     0
 63
   257
283
     0
 90
        4
 91
        0
  1

274
    -2
284
     1
 64
     0
275
    -2
285
     1
 65
     0
276
    -2
286
     1
 66
     0
277
    -2
287
     1
 67
     0
278
    -2
288
     1
 68
     0
279
    -2
289
     1
 69
     0
  0
VISUALSTYLE
  5
433
102
{ACAD_REACTORS
330
42E
102
}
330
42E
100
AcDbVisualStyle
  2
2dWireframe
 70
     4
177
     3
291
     0
 70
    58
 90
        0
176
     1
 90
        2
176
     1
 90
        0
176
     1
 90
        0
176
     1
 40
0.6
176
     1
 40
30.0
176
     1
 62
     7
420
 16777215
176
     1
 90
        1
176
     1
 90
        4
176
     1
 62
     7
176
     1
 62
   257
176
     1
 90
        1
176
     1
 90
        1
176
     1
 40
1.0
176
     1
 90
        0
176
     1
 62
   257
176
     1
 40
1.0
176
     1
 90
        1
176
     1
 90
        6
176
     1
 90
        2
176
     1
 62
     7
176
     1
 90
        5
176
     1
 90
        0
176
     1
 90
        0
176
     1
290
     0
176
     1
 90
        1
176
     1
 40
0.0
176
     1
 90
        0
176
     1
290
     1
176
     1
290
     1
176
     1
290
     0
176
     1
290
     0
176
     1
290
     0
176
     1
290
     0
176
     1
290
     0
176
     1
290
     0
176
     1
290
     0
176
     1
 90
       50
176
     1
 40
0.0
176
     1
 40
1.0
176
     1
 90
        0
176
     1
 62
    18
420
        0
176
     1
 90
       50
176
     1
 90
        3
176
     1
 62
     5
420
      255
176
     1
290
     0
176
     1
 90
       50
176
     1
 90
       50
176
     1
 90
       50
176
     1
290
     0
176
     1
 90
       50
176
     1
 62
   256
176
     0
 40
1.0
176
     0
 90
        2
176
     1
  1
strokes_ogs.tif
176
     1
290
     0
176
     1
 40
1.0
176
     1
 40
1.0
176
     1
  0
VISUALSTYLE
  5
436
102
{ACAD_REACTORS
330
42E
102
}
330
42E
100
AcDbVisualStyle
  2
Basic
 70
     7
177
     3
291
     1
 70
    58
 90
        1
176
     1
 90
        0
176
     1
 90
        1
176
     1
 90
        0
176
     1
 40
0.6
176
     1
 40
30.0
176
     1
 62
     7
420
 16777215
176
     1
 90
        0
176
     1
 90
        4
176
     1
 62
     7
176
     1
 62
   257
176
     1
 90
        1
176
     1
 90
        1
176
     1
 40
1.0
176
     1
 90
        8
176
     1
 62
     7
176
     1
 40
1.0
176
     1
 90
        1
176
     1
 90
        6
176
     1
 90
        2
176
     1
 62
     7
176
     1
 90
        5
176
     1
 90
        0
176
     1
 90
        0
176
     1
290
     0
176
     1
 90
        1
176
     1
 40
0.0
176
     1
 90
        0
176
     1
290
     0
176
     1
290
     1
176
     1
290
     1
176
     1
290
     0
176
     1
290
     0
176
     1
290
     0
176
     1
290
     0
176
     1
290
     0
176
     1
290
     0
176
     1
 90
       50
176
     1
 40
0.0
176
     1
 40
1.0
176
     1
 90
        0
176
     1
 62
    18
420
        0
176
     1
 90
       50
176
     1
 90
        3
176
     1
 62
     5
420
      255
176
     1
290
     0
176
     1
 90
       50
176
     1
 90
       50
176
     1
 90
       50
176
     1
290
     0
176
     1
 90
       50
176
     1
 62
   256
176
     0
 40
1.0
176
     0
 90
        2
176
     1
  1
strokes_ogs.tif
176
     1
290
     0
176
     1
 40
1.0
176
     1
 40
1.0
176
     1
  0
VISUALSTYLE
  5
43A
102
{ACAD_REACTORS
330
42E
102
}
330
42E
100
AcDbVisualStyle
  2
Brighten
 70
    12
177
     3
291
     1
 70
    58
 90
        2
176
     1
 90
        2
176
     1
 90
        0
176
     1
 90
        0
176
     1
 40
0.6
176
     1
 40
30.0
176
     1
 62
     7
420
 16777215
176
     1
 90
        1
176
     1
 90
        4
176
     1
 62
     7
176
     1
 62
   257
176
     1
 90
        1
176
     1
 90
        1
176
     1
 40
1.0
176
     1
 90
        8
176
     1
 62
     7
176
     1
 40
1.0
176
     1
 90
        1
176
     1
 90
        6
176
     1
 90
        2
176
     1
 62
     7
176
     1
 90
        5
176
     1
 90
        0
176
     1
 90
        0
176
     1
290
     0
176
     1
 90
        1
176
     1
 40
50.0
176
     1
 90
        0
176
     1
290
     0
176
     1
290
     1
176
     1
290
     1
176
     1
290
     0
176
     1
290
     0
176
     1
290
     0
176
     1
290
     0
176
     1
290
     0
176
     1
290
     0
176
     1
 90
       50
176
     1
 40
0.0
176
     1
 40
1.0
176
     1
 90
        0
176
     1
 62
    18
420
        0
176
     1
 90
       50
176
     1
 90
        3
176
     1
 62
     5
420
      255
176
     1
290
     0
176
     1
 90
       50
176
     1
 90
       50
176
     1
 90
       50
176
     1
290
     0
176
     1
 90
       50
176
     1
 62
   256
176
     0
 40
1.0
176
     0
 90
        2
176
     1
  1
strokes_ogs.tif
176
     1
290
     0
176
     1
 40
1.0
176
     1
 40
1.0
176
     1
  0
VISUALSTYLE
  5
43E
102
{ACAD_REACTORS
330
42E
102
}
330
42E
100
AcDbVisualStyle
  2
ColorChange
 70
    16
177
     3
291
     1
 70
    58
 90
        2
176
     1
 90
        2
176
     1
 90
        3
176
     1
 90
        0
176
     1
 40
0.6
176
     1
 40
30.0
176
     1
 62
     8
420
  8421504
176
     1
 90
        1
176
     1
 90
        4
176
     1
 62
     7
176
     1
 62
   257
176
     1
 90
        1
176
     1
 90
        1
176
     1
 40
1.0
176
     1
 90
        8
176
     1
 62
     8
420
  8421504
176
     1
 40
1.0
176
     1
 90
        1
176
     1
 90
        6
176
     1
 90
        2
176
     1
 62
     7
176
     1
 90
        5
176
     1
 90
        0
176
     1
 90
        0
176
     1
290
     0
176
     1
 90
        1
176
     1
 40
0.0
176
     1
 90
        0
176
     1
290
     0
176
     1
290
     1
176
     1
290
     1
176
     1
290
     0
176
     1
290
     0
176
     1
290
     0
176
     1
290
     0
176
     1
290
     0
176
     1
290
     0
176
     1
 90
       50
176
     1
 40
0.0
176
     1
 40
1.0
176
     1
 90
        0
176
     1
 62
    18
420
        0
176
     1
 90
       50
176
     1
 90
        3
176
     1
 62
     5
420
      255
176
     1
290
     0
176
     1
 90
       50
176
     1
 90
       50
176
     1
 90
       50
176
     1
290
     0
176
     1
 90
       50
176
     1
 62
   256
176
     0
 40
1.0
176
     0
 90
        2
176
     1
  1
strokes_ogs.tif
176
     1
290
     0
176
     1
 40
1.0
176
     1
 40
1.0
176
     1
  0
VISUALSTYLE
  5
438
102
{ACAD_REACTORS
330
42E
102
}
330
42E
100
AcDbVisualStyle
  2
Conceptual
 70
     9
177
     3
291
     0
 70
    58
 90
        3
176
     1
 90
        2
176
     1
 90
        0
176
     1
 90
        0
176
     1
 40
0.6
176
     1
 40
30.0
176
     1
 62
     7
420
 16777215
176
     1
 90
        2
176
     1
 90
        2
176
     1
 62
     7
176
     1
 62
   257
176
     1
 90
        1
176
     1
 90
        1
176
     1
 40
179.0
176
     1
 90
        8
176
     1
 62
     7
176
     1
 40
1.0
176
     1
 90
        1
176
     1
 90
        6
176
     1
 90
        2
176
     1
 62
     7
176
     1
 90
        3
176
     1
 90
        0
176
     1
 90
        0
176
     1
290
     0
176
     1
 90
        1
176
     1
 40
0.0
176
     1
 90
        0
176
     1
290
     0
176
     1
290
     1
176
     1
290
     1
176
     1
290
     0
176
     1
290
     0
176
     1
290
     0
176
     1
290
     0
176
     1
290
     0
176
     1
290
     0
176
     1
 90
       50
176
     1
 40
0.0
176
     1
 40
1.0
176
     1
 90
        0
176
     1
 62
    18
420
        0
176
     1
 90
       50
176
     1
 90
        3
176
     1
 62
     5
420
      255
176
     1
290
     0
176
     1
 90
       50
176
     1
 90
       50
176
     1
 90
       50
176
     1
290
     0
176
     1
 90
       50
176
     1
 62
   256
176
     0
 40
1.0
176
     0
 90
        2
176
     1
  1
strokes_ogs.tif
176
     1
290
     0
176
     1
 40
1.0
176
     1
 40
1.0
176
     1
  0
VISUALSTYLE
  5
439
102
{ACAD_REACTORS
330
42E
102
}
330
42E
100
AcDbVisualStyle
  2
Dim
 70
    11
177
     3
291
     1
 70
    58
 90
        2
176
     1
 90
        2
176
     1
 90
        0
176
     1
 90
        0
176
     1
 40
0.6
176
     1
 40
30.0
176
     1
 62
     7
420
 16777215
176
     1
 90
        1
176
     1
 90
        4
176
     1
 62
     7
176
     1
 62
   257
176
     1
 90
        1
176
     1
 90
        1
176
     1
 40
1.0
176
     1
 90
        8
176
     1
 62
     7
176
     1
 40
1.0
176
     1
 90
        1
176
     1
 90
        6
176
     1
 90
        2
176
     1
 62
     7
176
     1
 90
        5
176
     1
 90
        0
176
     1
 90
        0
176
     1
290
     0
176
     1
 90
        1
176
     1
 40
-50.0
176
     1
 90
        0
176
     1
290
     0
176
     1
290
     1
176
     1
290
     1
176
     1
290
     0
176
     1
290
     0
176
     1
290
     0
176
     1
290
     0
176
     1
290
     0
176
     1
290
     0
176
     1
 90
       50
176
     1
 40
0.0
176
     1
 40
1.0
176
     1
 90
        0
176
     1
 62
    18
420
        0
176
     1
 90
       50
176
     1
 90
        3
176
     1
 62
     5
420
      255
176
     1
290
     0
176
     1
 90
       50
176
     1
 90
       50
176
     1
 90
       50
176
     1
290
     0
176
     1
 90
       50
176
     1
 62
   256
176
     0
 40
1.0
176
     0
 90
        2
176
     1
  1
strokes_ogs.tif
176
     1
290
     0
176
     1
 40
1.0
176
     1
 40
1.0
176
     1
  0
VISUALSTYLE
  5
441
102
{ACAD_REACTORS
330
42E
102
}
330
42E
100
AcDbVisualStyle
  2
EdgeColorOff
 70
    22
177
     3
291
     1
 70
    58
 90
        2
176
     0
 90
        2
176
     0
 90
        0
176
     0
 90
        0
176
     0
 40
0.6
176
     0
 40
30.0
176
     0
 62
     7
420
 16777215
176
     0
 90
        1
176
     0
 90
        4
176
     0
 62
     7
176
     0
 62
   257
176
     0
 90
        1
176
     0
 90
        1
176
     0
 40
1.0
176
     0
 90
        8
176
     2
 62
     7
176
     0
 40
1.0
176
     0
 90
        1
176
     0
 90
        6
176
     0
 90
        2
176
     0
 62
     7
176
     0
 90
        5
176
     0
 90
        0
176
     0
 90
        0
176
     0
290
     0
176
     0
 90
        1
176
     0
 40
0.0
176
     0
 90
        0
176
     0
290
     0
176
     0
290
     1
176
     0
290
     1
176
     0
290
     0
176
     0
290
     0
176
     0
290
     0
176
     0
290
     0
176
     0
290
     0
176
     0
290
     0
176
     0
 90
       50
176
     0
 40
0.0
176
     0
 40
1.0
176
     0
 90
        0
176
     0
 62
    18
420
        0
176
     0
 90
       50
176
     0
 90
        3
176
     0
 62
     5
420
      255
176
     0
290
     0
176
     0
 90
       50
176
     0
 90
       50
176
     0
 90
       50
176
     0
290
     0
176
     0
 90
       50
176
     0
 62
   256
176
     0
 40
1.0
176
     0
 90
        2
176
     0
  1
strokes_ogs.tif
176
     0
290
     0
176
     0
 40
1.0
176
     0
 40
1.0
176
     0
  0
VISUALSTYLE
  5
43D
102
{ACAD_REACTORS
330
42E
102
}
330
42E
100
AcDbVisualStyle
  2
Facepattern
 70
    15
177
     3
291
     1
 70
    58
 90
        2
176
     1
 90
        2
176
     1
 90
        0
176
     1
 90
        0
176
     1
 40
0.6
176
     1
 40
30.0
176
     1
 62
     7
420
 16777215
176
     1
 90
        1
176
     1
 90
        4
176
     1
 62
     7
176
     1
 62
   257
176
     1
 90
        1
176
     1
 90
        1
176
     1
 40
1.0
176
     1
 90
        8
176
     1
 62
     7
176
     1
 40
1.0
176
     1
 90
        1
176
     1
 90
        6
176
     1
 90
        2
176
     1
 62
     7
176
     1
 90
        5
176
     1
 90
        0
176
     1
 90
        0
176
     1
290
     0
176
     1
 90
        1
176
     1
 40
0.0
176
     1
 90
        0
176
     1
290
     0
176
     1
290
     1
176
     1
290
     1
176
     1
290
     0
176
     1
290
     0
176
     1
290
     0
176
     1
290
     0
176
     1
290
     0
176
     1
290
     0
176
     1
 90
       50
176
     1
 40
0.0
176
     1
 40
1.0
176
     1
 90
        0
176
     1
 62
    18
420
        0
176
     1
 90
       50
176
     1
 90
        3
176
     1
 62
     5
420
      255
176
     1
290
     0
176
     1
 90
       50
176
     1
 90
       50
176
     1
 90
       50
176
     1
290
     0
176
     1
 90
       50
176
     1
 62
   256
176
     0
 40
1.0
176
     0
 90
        2
176
     1
  1
strokes_ogs.tif
176
     1
290
     0
176
     1
 40
1.0
176
     1
 40
1.0
176
     1
  0
VISUALSTYLE
  5
42F
102
{ACAD_REACTORS
330
42E
102
}
330
42E
100
AcDbVisualStyle
  2
Flat
 70
     0
177
     3
291
     1
 70
    58
 90
        2
176
     1
 90
        1
176
     1
 90
        1
176
     1
 90
        2
176
     1
 40
0.6
176
     1
 40
30.0
176
     1
 62
     7
420
 16777215
176
     1
 90
        0
176
     1
 90
        0
176
     1
 62
     7
176
     1
 62
   257
176
     1
 90
        1
176
     1
 90
        1
176
     1
 40
1.0
176
     1
 90
        8
176
     1
 62
     7
176
     1
 40
1.0
176
     1
 90
        1
176
     1
 90
        6
176
     1
 90
        2
176
     1
 62
     7
176
     1
 90
        5
176
     1
 90
        0
176
     1
 90
        0
176
     1
290
     0
176
     1
 90
       13
176
     1
 40
0.0
176
     1
 90
        0
176
     1
290
     0
176
     1
290
     1
176
     1
290
     1
176
     1
290
     0
176
     1
290
     0
176
     1
290
     0
176
     1
290
     0
176
     1
290
     0
176
     1
290
     0
176
     1
 90
       50
176
     1
 40
0.0
176
     1
 40
1.0
176
     1
 90
        0
176
     1
 62
    18
420
        0
176
     1
 90
       50
176
     1
 90
        3
176
     1
 62
     5
420
      255
176
     1
290
     0
176
     1
 90
       50
176
     1
 90
       50
176
     1
 90
       50
176
     1
290
     0
176
     1
 90
       50
176
     1
 62
   256
176
     0
 40
1.0
176
     0
 90
        2
176
     1
  1
strokes_ogs.tif
176
     1
290
     0
176
     1
 40
1.0
176
     1
 40
1.0
176
     1
  0
VISUALSTYLE
  5
430
102
{ACAD_REACTORS
330
42E
102
}
330
42E
100
AcDbVisualStyle
  2
FlatWithEdges
 70
     1
177
     3
291
     1
 70
    58
 90
        2
176
     1
 90
        1
176
     1
 90
        1
176
     1
 90
        2
176
     1
 40
0.6
176
     1
 40
30.0
176
     1
 62
     7
420
 16777215
176
     1
 90
        1
176
     1
 90
        0
176
     1
 62
     7
176
     1
 62
   257
176
     1
 90
        1
176
     1
 90
        1
176
     1
 40
1.0
176
     1
 90
        0
176
     1
 62
   257
176
     1
 40
1.0
176
     1
 90
        1
176
     1
 90
        6
176
     1
 90
        2
176
     1
 62
     7
176
     1
 90
        5
176
     1
 90
        0
176
     1
 90
        0
176
     1
290
     0
176
     1
 90
       13
176
     1
 40
0.0
176
     1
 90
        0
176
     1
290
     0
176
     1
290
     1
176
     1
290
     1
176
     1
290
     0
176
     1
290
     0
176
     1
290
     0
176
     1
290
     0
176
     1
290
     0
176
     1
290
     0
176
     1
 90
       50
176
     1
 40
0.0
176
     1
 40
1.0
176
     1
 90
        0
176
     1
 62
    18
420
        0
176
     1
 90
       50
176
     1
 90
        3
176
     1
 62
     5
420
      255
176
     1
290
     0
176
     1
 90
       50
176
     1
 90
       50
176
     1
 90
       50
176
     1
290
     0
176
     1
 90
       50
176
     1
 62
   256
176
     0
 40
1.0
176
     0
 90
        2
176
     1
  1
strokes_ogs.tif
176
     1
290
     0
176
     1
 40
1.0
176
     1
 40
1.0
176
     1
  0
VISUALSTYLE
  5
431
102
{ACAD_REACTORS
330
42E
102
}
330
42E
100
AcDbVisualStyle
  2
Gouraud
 70
     2
177
     3
291
     1
 70
    58
 90
        2
176
     1
 90
        2
176
     1
 90
        1
176
     1
 90
        2
176
     1
 40
0.6
176
     1
 40
30.0
176
     1
 62
     7
420
 16777215
176
     1
 90
        0
176
     1
 90
        0
176
     1
 62
     7
176
     1
 62
   257
176
     1
 90
        1
176
     1
 90
        1
176
     1
 40
1.0
176
     1
 90
        0
176
     1
 62
     7
176
     1
 40
1.0
176
     1
 90
        1
176
     1
 90
        6
176
     1
 90
        2
176
     1
 62
     7
176
     1
 90
        5
176
     1
 90
        0
176
     1
 90
        0
176
     1
290
     0
176
     1
 90
       13
176
     1
 40
0.0
176
     1
 90
        0
176
     1
290
     0
176
     1
290
     1
176
     1
290
     1
176
     1
290
     0
176
     1
290
     0
176
     1
290
     0
176
     1
290
     0
176
     1
290
     0
176
     1
290
     0
176
     1
 90
       50
176
     1
 40
0.0
176
     1
 40
1.0
176
     1
 90
        0
176
     1
 62
    18
420
        0
176
     1
 90
       50
176
     1
 90
        3
176
     1
 62
     5
420
      255
176
     1
290
     0
176
     1
 90
       50
176
     1
 90
       50
176
     1
 90
       50
176
     1
290
     0
176
     1
 90
       50
176
     1
 62
   256
176
     0
 40
1.0
176
     0
 90
        2
176
     1
  1
strokes_ogs.tif
176
     1
290
     0
176
     1
 40
1.0
176
     1
 40
1.0
176
     1
  0
VISUALSTYLE
  5
432
102
{ACAD_REACTORS
330
42E
102
}
330
42E
100
AcDbVisualStyle
  2
GouraudWithEdges
 70
     3
177
     3
291
     1
 70
    58
 90
        2
176
     1
 90
        2
176
     1
 90
        1
176
     1
 90
        2
176
     1
 40
0.6
176
     1
 40
30.0
176
     1
 62
     7
420
 16777215
176
     1
 90
        1
176
     1
 90
        0
176
     1
 62
     7
176
     1
 62
   257
176
     1
 90
        1
176
     1
 90
        1
176
     1
 40
1.0
176
     1
 90
        0
176
     1
 62
   257
176
     1
 40
1.0
176
     1
 90
        1
176
     1
 90
        6
176
     1
 90
        2
176
     1
 62
     7
176
     1
 90
        5
176
     1
 90
        0
176
     1
 90
        0
176
     1
290
     0
176
     1
 90
       13
176
     1
 40
0.0
176
     1
 90
        0
176
     1
290
     0
176
     1
290
     1
176
     1
290
     1
176
     1
290
     0
176
     1
290
     0
176
     1
290
     0
176
     1
290
     0
176
     1
290
     0
176
     1
290
     0
176
     1
 90
       50
176
     1
 40
0.0
176
     1
 40
1.0
176
     1
 90
        0
176
     1
 62
    18
420
        0
176
     1
 90
       50
176
     1
 90
        3
176
     1
 62
     5
420
      255
176
     1
290
     0
176
     1
 90
       50
176
     1
 90
       50
176
     1
 90
       50
176
     1
290
     0
176
     1
 90
       50
176
     1
 62
   256
176
     0
 40
1.0
176
     0
 90
        2
176
     1
  1
strokes_ogs.tif
176
     1
290
     0
176
     1
 40
1.0
176
     1
 40
1.0
176
     1
  0
VISUALSTYLE
  5
435
102
{ACAD_REACTORS
330
42E
102
}
330
42E
100
AcDbVisualStyle
  2
Hidden
 70
     6
177
     3
291
     0
 70
    58
 90
        1
176
     1
 90
        2
176
     1
 90
        2
176
     1
 90
        0
176
     1
 40
0.6
176
     1
 40
30.0
176
     1
 62
     7
420
 16777215
176
     1
 90
        2
176
     1
 90
        2
176
     1
 62
     7
176
     1
 62
   257
176
     1
 90
        2
176
     1
 90
        1
176
     1
 40
40.0
176
     1
 90
        0
176
     1
 62
   257
176
     1
 40
1.0
176
     1
 90
        1
176
     1
 90
        6
176
     1
 90
        2
176
     1
 62
     7
176
     1
 90
        3
176
     1
 90
        0
176
     1
 90
        0
176
     1
290
     0
176
     1
 90
        1
176
     1
 40
0.0
176
     1
 90
        0
176
     1
290
     0
176
     1
290
     1
176
     1
290
     1
176
     1
290
     0
176
     1
290
     0
176
     1
290
     0
176
     1
290
     0
176
     1
290
     0
176
     1
290
     0
176
     1
 90
       50
176
     1
 40
0.0
176
     1
 40
1.0
176
     1
 90
        0
176
     1
 62
    18
420
        0
176
     1
 90
       50
176
     1
 90
        3
176
     1
 62
     5
420
      255
176
     1
290
     0
176
     1
 90
       50
176
     1
 90
       50
176
     1
 90
       50
176
     1
290
     0
176
     1
 90
       50
176
     1
 62
   256
176
     0
 40
1.0
176
     0
 90
        2
176
     1
  1
strokes_ogs.tif
176
     1
290
     0
176
     1
 40
1.0
176
     1
 40
1.0
176
     1
  0
VISUALSTYLE
  5
43F
102
{ACAD_REACTORS
330
42E
102
}
330
42E
100
AcDbVisualStyle
  2
JitterOff
 70
    20
177
     3
291
     1
 70
    58
 90
        2
176
     0
 90
        2
176
     0
 90
        0
176
     0
 90
        0
176
     0
 40
0.6
176
     0
 40
30.0
176
     0
 62
     7
420
 16777215
176
     0
 90
        1
176
     0
 90
        4
176
     0
 62
     7
176
     0
 62
   257
176
     0
 90
        1
176
     0
 90
        1
176
     0
 40
1.0
176
     0
 90
       10
176
     2
 62
     7
176
     0
 40
1.0
176
     0
 90
        1
176
     0
 90
        6
176
     0
 90
        2
176
     0
 62
     7
176
     0
 90
        5
176
     0
 90
        0
176
     0
 90
        0
176
     0
290
     0
176
     0
 90
        1
176
     0
 40
0.0
176
     0
 90
        0
176
     0
290
     0
176
     0
290
     1
176
     0
290
     1
176
     0
290
     0
176
     0
290
     0
176
     0
290
     0
176
     0
290
     0
176
     0
290
     0
176
     0
290
     0
176
     0
 90
       50
176
     0
 40
0.0
176
     0
 40
1.0
176
     0
 90
        0
176
     0
 62
    18
420
        0
176
     0
 90
       50
176
     0
 90
        3
176
     0
 62
     5
420
      255
176
     0
290
     0
176
     0
 90
       50
176
     0
 90
       50
176
     0
 90
       50
176
     0
290
     0
176
     0
 90
       50
176
     0
 62
   256
176
     0
 40
1.0
176
     0
 90
        2
176
     0
  1
strokes_ogs.tif
176
     0
290
     0
176
     0
 40
1.0
176
     0
 40
1.0
176
     0
  0
VISUALSTYLE
  5
43C
102
{ACAD_REACTORS
330
42E
102
}
330
42E
100
AcDbVisualStyle
  2
Linepattern
 70
    14
177
     3
291
     1
 70
    58
 90
        2
176
     1
 90
        2
176
     1
 90
        0
176
     1
 90
        0
176
     1
 40
0.6
176
     1
 40
30.0
176
     1
 62
     7
420
 16777215
176
     1
 90
        1
176
     1
 90
        4
176
     1
 62
     7
176
     1
 62
   257
176
     1
 90
        7
176
     1
 90
        7
176
     1
 40
1.0
176
     1
 90
        8
176
     1
 62
     7
176
     1
 40
1.0
176
     1
 90
        1
176
     1
 90
        6
176
     1
 90
        2
176
     1
 62
     7
176
     1
 90
        5
176
     1
 90
        0
176
     1
 90
        0
176
     1
290
     0
176
     1
 90
        1
176
     1
 40
0.0
176
     1
 90
        0
176
     1
290
     0
176
     1
290
     1
176
     1
290
     1
176
     1
290
     0
176
     1
290
     0
176
     1
290
     0
176
     1
290
     0
176
     1
290
     0
176
     1
290
     0
176
     1
 90
       50
176
     1
 40
0.0
176
     1
 40
1.0
176
     1
 90
        0
176
     1
 62
    18
420
        0
176
     1
 90
       50
176
     1
 90
        3
176
     1
 62
     5
420
      255
176
     1
290
     0
176
     1
 90
       50
176
     1
 90
       50
176
     1
 90
       50
176
     1
290
     0
176
     1
 90
       50
176
     1
 62
   256
176
     0
 40
1.0
176
     0
 90
        2
176
     1
  1
strokes_ogs.tif
176
     1
290
     0
176
     1
 40
1.0
176
     1
 40
1.0
176
     1
  0
VISUALSTYLE
  5
440
102
{ACAD_REACTORS
330
42E
102
}
330
42E
100
AcDbVisualStyle
  2
OverhangOff
 70
    21
177
     3
291
     1
 70
    58
 90
        2
176
     0
 90
        2
176
     0
 90
        0
176
     0
 90
        0
176
     0
 40
0.6
176
     0
 40
30.0
176
     0
 62
     7
420
 16777215
176
     0
 90
        1
176
     0
 90
        4
176
     0
 62
     7
176
     0
 62
   257
176
     0
 90
        1
176
     0
 90
        1
176
     0
 40
1.0
176
     0
 90
        9
176
     2
 62
     7
176
     0
 40
1.0
176
     0
 90
        1
176
     0
 90
        6
176
     0
 90
        2
176
     0
 62
     7
176
     0
 90
        5
176
     0
 90
        0
176
     0
 90
        0
176
     0
290
     0
176
     0
 90
        1
176
     0
 40
0.0
176
     0
 90
        0
176
     0
290
     0
176
     0
290
     1
176
     0
290
     1
176
     0
290
     0
176
     0
290
     0
176
     0
290
     0
176
     0
290
     0
176
     0
290
     0
176
     0
290
     0
176
     0
 90
       50
176
     0
 40
0.0
176
     0
 40
1.0
176
     0
 90
        0
176
     0
 62
    18
420
        0
176
     0
 90
       50
176
     0
 90
        3
176
     0
 62
     5
420
      255
176
     0
290
     0
176
     0
 90
       50
176
     0
 90
       50
176
     0
 90
       50
176
     0
290
     0
176
     0
 90
       50
176
     0
 62
   256
176
     0
 40
1.0
176
     0
 90
        2
176
     0
  1
strokes_ogs.tif
176
     0
290
     0
176
     0
 40
1.0
176
     0
 40
1.0
176
     0
  0
VISUALSTYLE
  5
437
102
{ACAD_REACTORS
330
42E
102
}
330
42E
100
AcDbVisualStyle
  2
Realistic
 70
     8
177
     3
291
     0
 70
    58
 90
        2
176
     1
 90
        3
176
     1
 90
        0
176
     1
 90
        2
176
     1
 40
0.6
176
     1
 40
30.0
176
     1
 62
     7
420
 16777215
176
     1
 90
        0
176
     1
 90
        0
176
     1
 62
     7
176
     1
 62
   257
176
     1
 90
        1
176
     1
 90
        1
176
     1
 40
1.0
176
     1
 90
        8
176
     1
 62
   257
176
     1
 40
1.0
176
     1
 90
        1
176
     1
 90
        6
176
     1
 90
        2
176
     1
 62
     7
176
     1
 90
        3
176
     1
 90
        0
176
     1
 90
        0
176
     1
290
     0
176
     1
 90
       13
176
     1
 40
0.0
176
     1
 90
        0
176
     1
290
     0
176
     1
290
     1
176
     1
290
     1
176
     1
290
     0
176
     1
290
     0
176
     1
290
     0
176
     1
290
     0
176
     1
290
     0
176
     1
290
     0
176
     1
 90
       50
176
     1
 40
0.0
176
     1
 40
1.0
176
     1
 90
        0
176
     1
 62
    18
420
        0
176
     1
 90
       50
176
     1
 90
        3
176
     1
 62
     5
420
      255
176
     1
290
     0
176
     1
 90
       50
176
     1
 90
       50
176
     1
 90
       50
176
     1
290
     0
176
     1
 90
       50
176
     1
 62
   256
176
     0
 40
1.0
176
     0
 90
        2
176
     1
  1
strokes_ogs.tif
176
     1
290
     0
176
     1
 40
1.0
176
     1
 40
1.0
176
     1
  0
VISUALSTYLE
  5
446
102
{ACAD_REACTORS
330
42E
102
}
330
42E
100
AcDbVisualStyle
  2
Shaded
 70
    27
177
     3
291
     0
 70
    58
 90
        2
176
     1
 90
        2
176
     1
 90
        1
176
     1
 90
        2
176
     1
 40
0.6
176
     1
 40
30.0
176
     1
 62
     7
420
 16777215
176
     1
 90
        0
176
     1
 90
        4
176
     1
 62
     7
176
     1
 62
   257
176
     1
 90
        1
176
     1
 90
        1
176
     1
 40
1.0
176
     1
 90
        8
176
     1
 62
   257
176
     1
 40
1.0
176
     1
 90
        1
176
     1
 90
        6
176
     1
 90
        2
176
     1
 62
     8
420
  7895160
176
     1
 90
        3
176
     1
 90
        0
176
     1
 90
        0
176
     1
290
     0
176
     1
 90
        5
176
     1
 40
0.0
176
     1
 90
        0
176
     1
290
     0
176
     1
290
     1
176
     1
290
     1
176
     1
290
     0
176
     1
290
     0
176
     1
290
     0
176
     1
290
     0
176
     1
290
     0
176
     1
290
     0
176
     1
 90
       50
176
     1
 40
0.0
176
     1
 40
1.0
176
     1
 90
        0
176
     1
 62
    18
420
        0
176
     1
 90
       50
176
     1
 90
        3
176
     1
 62
     5
420
      255
176
     1
290
     0
176
     1
 90
       50
176
     1
 90
       50
176
     1
 90
       50
176
     1
290
     0
176
     1
 90
       50
176
     1
 62
   256
176
     0
 40
1.0
176
     0
 90
        2
176
     1
  1
strokes_ogs.tif
176
     1
290
     0
176
     1
 40
1.0
176
     1
 40
1.0
176
     1
  0
VISUALSTYLE
  5
445
102
{ACAD_REACTORS
330
42E
102
}
330
42E
100
AcDbVisualStyle
  2
Shaded with edges
 70
    26
177
     3
291
     0
 70
    58
 90
        2
176
     1
 90
        2
176
     1
 90
        1
176
     1
 90
        2
176
     1
 40
0.6
176
     1
 40
30.0
176
     1
 62
     7
420
 16777215
176
     1
 90
        1
176
     1
 90
       10
176
     1
 62
     7
176
     1
 62
   257
176
     1
 90
        2
176
     1
 90
        1
176
     1
 40
1.0
176
     1
 90
        8
176
     1
 62
   257
176
     1
 40
1.0
176
     1
 90
        1
176
     1
 90
        6
176
     1
 90
        2
176
     1
 62
     7
176
     1
 90
        3
176
     1
 90
        0
176
     1
 90
        0
176
     1
290
     0
176
     1
 90
        5
176
     1
 40
0.0
176
     1
 90
        0
176
     1
290
     0
176
     1
290
     1
176
     1
290
     1
176
     1
290
     0
176
     1
290
     0
176
     1
290
     0
176
     1
290
     0
176
     1
290
     0
176
     1
290
     0
176
     1
 90
       50
176
     1
 40
0.0
176
     1
 40
1.0
176
     1
 90
        0
176
     1
 62
    18
420
        0
176
     1
 90
       50
176
     1
 90
        3
176
     1
 62
     5
420
      255
176
     1
290
     0
176
     1
 90
       50
176
     1
 90
       50
176
     1
 90
       50
176
     1
290
     0
176
     1
 90
       50
176
     1
 62
   256
176
     0
 40
1.0
176
     0
 90
        2
176
     1
  1
strokes_ogs.tif
176
     1
290
     0
176
     1
 40
1.0
176
     1
 40
1.0
176
     1
  0
VISUALSTYLE
  5
442
102
{ACAD_REACTORS
330
42E
102
}
330
42E
100
AcDbVisualStyle
  2
Shades of Gray
 70
    23
177
     3
291
     0
 70
    58
 90
        2
176
     1
 90
        2
176
     1
 90
        3
176
     1
 90
        0
176
     1
 40
0.6
176
     1
 40
30.0
176
     1
 62
     7
420
 16777215
176
     1
 90
        2
176
     1
 90
        2
176
     1
 62
     7
176
     1
 62
     7
176
     1
 90
        1
176
     1
 90
        1
176
     1
 40
40.0
176
     1
 90
        8
176
     1
 62
     7
176
     1
 40
1.0
176
     1
 90
        1
176
     1
 90
        6
176
     1
 90
        2
176
     1
 62
     7
176
     1
 90
        3
176
     1
 90
        0
176
     1
 90
        0
176
     1
290
     0
176
     1
 90
        1
176
     1
 40
0.0
176
     1
 90
        0
176
     1
290
     0
176
     1
290
     1
176
     1
290
     1
176
     1
290
     0
176
     1
290
     0
176
     1
290
     0
176
     1
290
     0
176
     1
290
     0
176
     1
290
     0
176
     1
 90
       50
176
     1
 40
0.0
176
     1
 40
1.0
176
     1
 90
        0
176
     1
 62
    18
420
        0
176
     1
 90
       50
176
     1
 90
        3
176
     1
 62
     5
420
      255
176
     1
290
     0
176
     1
 90
       50
176
     1
 90
       50
176
     1
 90
       50
176
     1
290
     0
176
     1
 90
       50
176
     1
 62
   256
176
     0
 40
1.0
176
     0
 90
        2
176
     1
  1
strokes_ogs.tif
176
     1
290
     0
176
     1
 40
1.0
176
     1
 40
1.0
176
     1
  0
VISUALSTYLE
  5
443
102
{ACAD_REACTORS
330
42E
102
}
330
42E
100
AcDbVisualStyle
  2
Sketchy
 70
    24
177
     3
291
     0
 70
    58
 90
        1
176
     1
 90
        2
176
     1
 90
        2
176
     1
 90
        0
176
     1
 40
0.6
176
     1
 40
30.0
176
     1
 62
     7
420
 16777215
176
     1
 90
        2
176
     1
 90
        2
176
     1
 62
     7
176
     1
 62
     7
176
     1
 90
        1
176
     1
 90
        1
176
     1
 40
40.0
176
     1
 90
       11
176
     1
 62
     7
176
     1
 40
1.0
176
     1
 90
        1
176
     1
 90
        6
176
     1
 90
        2
176
     1
 62
     7
176
     1
 90
        6
176
     1
 90
        0
176
     1
 90
        0
176
     1
290
     0
176
     1
 90
        1
176
     1
 40
0.0
176
     1
 90
        0
176
     1
290
     0
176
     1
290
     1
176
     1
290
     1
176
     1
290
     0
176
     1
290
     0
176
     1
290
     0
176
     1
290
     0
176
     1
290
     0
176
     1
290
     0
176
     1
 90
       50
176
     1
 40
0.0
176
     1
 40
1.0
176
     1
 90
        0
176
     1
 62
    18
420
        0
176
     1
 90
       50
176
     1
 90
        3
176
     1
 62
     5
420
      255
176
     1
290
     0
176
     1
 90
       50
176
     1
 90
       50
176
     1
 90
       50
176
     1
290
     0
176
     1
 90
       50
176
     1
 62
   256
176
     0
 40
1.0
176
     0
 90
        2
176
     1
  1
strokes_ogs.tif
176
     1
290
     0
176
     1
 40
1.0
176
     1
 40
1.0
176
     1
  0
VISUALSTYLE
  5
43B
102
{ACAD_REACTORS
330
42E
102
}
330
42E
100
AcDbVisualStyle
  2
Thicken
 70
    13
177
     3
291
     1
 70
    58
 90
        2
176
     1
 90
        2
176
     1
 90
        0
176
     1
 90
        0
176
     1
 40
0.6
176
     1
 40
30.0
176
     1
 62
     7
420
 16777215
176
     1
 90
        1
176
     1
 90
        4
176
     1
 62
     7
176
     1
 62
   257
176
     1
 90
        1
176
     1
 90
        1
176
     1
 40
1.0
176
     1
 90
       12
176
     1
 62
     7
176
     1
 40
1.0
176
     1
 90
        1
176
     1
 90
        6
176
     1
 90
        2
176
     1
 62
     7
176
     1
 90
        5
176
     1
 90
        0
176
     1
 90
        0
176
     1
290
     0
176
     1
 90
        1
176
     1
 40
0.0
176
     1
 90
        0
176
     1
290
     0
176
     1
290
     1
176
     1
290
     1
176
     1
290
     0
176
     1
290
     0
176
     1
290
     0
176
     1
290
     0
176
     1
290
     0
176
     1
290
     0
176
     1
 90
       50
176
     1
 40
0.0
176
     1
 40
1.0
176
     1
 90
        0
176
     1
 62
    18
420
        0
176
     1
 90
       50
176
     1
 90
        3
176
     1
 62
     5
420
      255
176
     1
290
     0
176
     1
 90
       50
176
     1
 90
       50
176
     1
 90
       50
176
     1
290
     0
176
     1
 90
       50
176
     1
 62
   256
176
     0
 40
1.0
176
     0
 90
        2
176
     1
  1
strokes_ogs.tif
176
     1
290
     0
176
     1
 40
1.0
176
     1
 40
1.0
176
     1
  0
VISUALSTYLE
  5
434
102
{ACAD_REACTORS
330
42E
102
}
330
42E
100
AcDbVisualStyle
  2
Wireframe
 70
     5
177
     3
291
     0
 70
    58
 90
        0
176
     1
 90
        2
176
     1
 90
        0
176
     1
 90
        0
176
     1
 40
0.6
176
     1
 40
30.0
176
     1
 62
     7
420
 16777215
176
     1
 90
        1
176
     1
 90
        4
176
     1
 62
     7
176
     1
 62
   257
176
     1
 90
        1
176
     1
 90
        1
176
     1
 40
1.0
176
     1
 90
        0
176
     1
 62
   257
176
     1
 40
1.0
176
     1
 90
        1
176
     1
 90
        6
176
     1
 90
        2
176
     1
 62
     7
176
     1
 90
        3
176
     1
 90
        0
176
     1
 90
        0
176
     1
290
     0
176
     1
 90
        1
176
     1
 40
0.0
176
     1
 90
        0
176
     1
290
     0
176
     1
290
     1
176
     1
290
     1
176
     1
290
     0
176
     1
290
     0
176
     1
290
     0
176
     1
290
     0
176
     1
290
     0
176
     1
290
     0
176
     1
 90
       50
176
     1
 40
0.0
176
     1
 40
1.0
176
     1
 90
        0
176
     1
 62
    18
420
        0
176
     1
 90
       50
176
     1
 90
        3
176
     1
 62
     5
420
      255
176
     1
290
     0
176
     1
 90
       50
176
     1
 90
       50
176
     1
 90
       50
176
     1
290
     0
176
     1
 90
       50
176
     1
 62
   256
176
     0
 40
1.0
176
     0
 90
        2
176
     1
  1
strokes_ogs.tif
176
     1
290
     0
176
     1
 40
1.0
176
     1
 40
1.0
176
     1
  0
VISUALSTYLE
  5
444
102
{ACAD_REACTORS
330
42E
102
}
330
42E
100
AcDbVisualStyle
  2
X-Ray
 70
    25
177
     3
291
     0
 70
    58
 90
        2
176
     1
 90
        2
176
     1
 90
        1
176
     1
 90
        1
176
     1
 40
0.5
176
     1
 40
30.0
176
     1
 62
     7
420
 16777215
176
     1
 90
        1
176
     1
 90
        0
176
     1
 62
     7
176
     1
 62
   257
176
     1
 90
        1
176
     1
 90
        1
176
     1
 40
1.0
176
     1
 90
        8
176
     1
 62
     7
176
     1
 40
1.0
176
     1
 90
        1
176
     1
 90
        6
176
     1
 90
        2
176
     1
 62
     7
176
     1
 90
        3
176
     1
 90
        0
176
     1
 90
        0
176
     1
290
     0
176
     1
 90
       13
176
     1
 40
0.0
176
     1
 90
        0
176
     1
290
     0
176
     1
290
     1
176
     1
290
     1
176
     1
290
     0
176
     1
290
     0
176
     1
290
     0
176
     1
290
     0
176
     1
290
     0
176
     1
290
     0
176
     1
 90
       50
176
     1
 40
0.0
176
     1
 40
1.0
176
     1
 90
        0
176
     1
 62
    18
420
        0
176
     1
 90
       50
176
     1
 90
        3
176
     1
 62
     5
420
      255
176
     1
290
     0
176
     1
 90
       50
176
     1
 90
       50
176
     1
 90
       50
176
     1
290
     0
176
     1
 90
       50
176
     1
 62
   256
176
     0
 40
1.0
176
     0
 90
        2
176
     1
  1
strokes_ogs.tif
176
     1
290
     0
176
     1
 40
1.0
176
     1
 40
1.0
176
     1
  0
DICTIONARYVAR
  5
451
102
{ACAD_REACTORS
330
450
102
}
330
450
100
DictionaryVariables
280
     0
  1
1:1
  0
DICTIONARYVAR
  5
456
102
{ACAD_REACTORS
330
450
102
}
330
450
100
DictionaryVariables
280
     0
  1
Standard
  0
DICTIONARYVAR
  5
455
102
{ACAD_REACTORS
330
450
102
}
330
450
100
DictionaryVariables
280
     0
  1
Standard
  0
DICTIONARYVAR
  5
457
102
{ACAD_REACTORS
330
450
102
}
330
450
100
DictionaryVariables
280
     0
  1
0
  0
DICTIONARY
  5
45A
330
44C
100
AcDbDictionary
280
     1
281
     1
  3
ACAD_ROUNDTRIP_2008_TABLESTYLE_CELLSTYLEMAP
360
45B
  0
CELLSTYLEMAP
  5
45B
102
{ACAD_REACTORS
330
45A
102
}
330
45A
100
AcDbCellStyleMap
 90
        3
300
CELLSTYLE
  1
TABLEFORMAT_BEGIN
 90
        5
170
     1
 91
        0
 92
    32768
 62
   257
 93
        1
300
CONTENTFORMAT
  1
CONTENTFORMAT_BEGIN
 90
        0
 91
        0
 92
        4
 93
        0
300

 40
0.0
140
1.0
 94
        5
 62
     0
340
11
144
6.0
309
CONTENTFORMAT_END
171
     1
301
MARGIN
  1
CELLMARGIN_BEGIN
 40
1.5
 40
1.5
 40
1.5
 40
1.5
 40
1.5
 40
1.5
309
CELLMARGIN_END
 94
        6
 95
        1
302
GRIDFORMAT
  1
GRIDFORMAT_BEGIN
 90
        0
 91
        1
 62
     0
 92
       -2
340
14
 93
        0
 40
0.045
309
GRIDFORMAT_END
 95
        2
302
GRIDFORMAT
  1
GRIDFORMAT_BEGIN
 90
        0
 91
        1
 62
     0
 92
       -2
340
14
 93
        0
 40
0.045
309
GRIDFORMAT_END
 95
        4
302
GRIDFORMAT
  1
GRIDFORMAT_BEGIN
 90
        0
 91
        1
 62
     0
 92
       -2
340
14
 93
        0
 40
0.045
309
GRIDFORMAT_END
 95
        8
302
GRIDFORMAT
  1
GRIDFORMAT_BEGIN
 90
        0
 91
        1
 62
     0
 92
       -2
340
14
 93
        0
 40
0.045
309
GRIDFORMAT_END
 95
       16
302
GRIDFORMAT
  1
GRIDFORMAT_BEGIN
 90
        0
 91
        1
 62
     0
 92
       -2
340
14
 93
        0
 40
0.045
309
GRIDFORMAT_END
 95
       32
302
GRIDFORMAT
  1
GRIDFORMAT_BEGIN
 90
        0
 91
        1
 62
     0
 92
       -2
340
14
 93
        0
 40
0.045
309
GRIDFORMAT_END
309
TABLEFORMAT_END
  1
CELLSTYLE_BEGIN
 90
        1
 91
        1
300
_TITLE
309
CELLSTYLE_END
300
CELLSTYLE
  1
TABLEFORMAT_BEGIN
 90
        5
170
     1
 91
        0
 92
        0
 62
   257
 93
        1
300
CONTENTFORMAT
  1
CONTENTFORMAT_BEGIN
 90
        0
 91
        0
 92
        4
 93
        0
300

 40
0.0
140
1.0
 94
        5
 62
     0
340
11
144
4.5
309
CONTENTFORMAT_END
171
     1
301
MARGIN
  1
CELLMARGIN_BEGIN
 40
1.5
 40
1.5
 40
1.5
 40
1.5
 40
1.5
 40
1.5
309
CELLMARGIN_END
 94
        6
 95
        1
302
GRIDFORMAT
  1
GRIDFORMAT_BEGIN
 90
        0
 91
        1
 62
     0
 92
       -2
340
14
 93
        0
 40
0.045
309
GRIDFORMAT_END
 95
        2
302
GRIDFORMAT
  1
GRIDFORMAT_BEGIN
 90
        0
 91
        1
 62
     0
 92
       -2
340
14
 93
        0
 40
0.045
309
GRIDFORMAT_END
 95
        4
302
GRIDFORMAT
  1
GRIDFORMAT_BEGIN
 90
        0
 91
        1
 62
     0
 92
       -2
340
14
 93
        0
 40
0.045
309
GRIDFORMAT_END
 95
        8
302
GRIDFORMAT
  1
GRIDFORMAT_BEGIN
 90
        0
 91
        1
 62
     0
 92
       -2
340
14
 93
        0
 40
0.045
309
GRIDFORMAT_END
 95
       16
302
GRIDFORMAT
  1
GRIDFORMAT_BEGIN
 90
        0
 91
        1
 62
     0
 92
       -2
340
14
 93
        0
 40
0.045
309
GRIDFORMAT_END
 95
       32
302
GRIDFORMAT
  1
GRIDFORMAT_BEGIN
 90
        0
 91
        1
 62
     0
 92
       -2
340
14
 93
        0
 40
0.045
309
GRIDFORMAT_END
309
TABLEFORMAT_END
  1
CELLSTYLE_BEGIN
 90
        2
 91
        1
300
_HEADER
309
CELLSTYLE_END
300
CELLSTYLE
  1
TABLEFORMAT_BEGIN
 90
        5
170
     1
 91
        0
 92
        0
 62
   257
 93
        1
300
CONTENTFORMAT
  1
CONTENTFORMAT_BEGIN
 90
        0
 91
        0
 92
        4
 93
        0
300

 40
0.0
140
1.0
 94
        2
 62
     0
340
11
144
4.5
309
CONTENTFORMAT_END
171
     1
301
MARGIN
  1
CELLMARGIN_BEGIN
 40
1.5
 40
1.5
 40
1.5
 40
1.5
 40
1.5
 40
1.5
309
CELLMARGIN_END
 94
        6
 95
        1
302
GRIDFORMAT
  1
GRIDFORMAT_BEGIN
 90
        0
 91
        1
 62
     0
 92
       -2
340
14
 93
        0
 40
0.045
309
GRIDFORMAT_END
 95
        2
302
GRIDFORMAT
  1
GRIDFORMAT_BEGIN
 90
        0
 91
        1
 62
     0
 92
       -2
340
14
 93
        0
 40
0.045
309
GRIDFORMAT_END
 95
        4
302
GRIDFORMAT
  1
GRIDFORMAT_BEGIN
 90
        0
 91
        1
 62
     0
 92
       -2
340
14
 93
        0
 40
0.045
309
GRIDFORMAT_END
 95
        8
302
GRIDFORMAT
  1
GRIDFORMAT_BEGIN
 90
        0
 91
        1
 62
     0
 92
       -2
340
14
 93
        0
 40
0.045
309
GRIDFORMAT_END
 95
       16
302
GRIDFORMAT
  1
GRIDFORMAT_BEGIN
 90
        0
 91
        1
 62
     0
 92
       -2
340
14
 93
        0
 40
0.045
309
GRIDFORMAT_END
 95
       32
302
GRIDFORMAT
  1
GRIDFORMAT_BEGIN
 90
        0
 91
        1
 62
     0
 92
       -2
340
14
 93
        0
 40
0.045
309
GRIDFORMAT_END
309
TABLEFORMAT_END
  1
CELLSTYLE_BEGIN
 90
        3
 91
        2
300
_DATA
309
CELLSTYLE_END
  0
ENDSEC
  0
EOF
