  0
SECTION
  2
HEADER
  9
$ACADVER
  1
AC1027
  9
$ACADMAINTVER
 70
   105
  9
$DWGCODEPAGE
  3
ANSI_1252
  9
$REQUIREDVERSIONS
160
                 0
  9
$LASTSAVEDBY
  1
andrea.zolin
  9
$INSBASE
 10
0.0
 20
0.0
 30
0.0
  9
$EXTMIN
 10
0.0
 20
0.0
 30
0.0
  9
$EXTMAX
 10
420.0
 20
297.0
 30
0.0
  9
$LIMMIN
 10
0.0
 20
0.0
  9
$LIMMAX
 10
420.0
 20
297.0
  9
$ORTHOMODE
 70
     0
  9
$REGENMODE
 70
     1
  9
$FILLMODE
 70
     1
  9
$QTEXTMODE
 70
     0
  9
$MIRRTEXT
 70
     1
  9
$LTSCALE
 40
23.1
  9
$ATTMODE
 70
     1
  9
$TEXTSIZE
 40
0.2
  9
$TRACEWID
 40
0.05
  9
$TEXTSTYLE
  7
STANDARD
  9
$CLAYER
  8
0
  9
$CELTYPE
  6
BYLAYER
  9
$CECOLOR
 62
   256
  9
$CELTSCALE
 40
1.0
  9
$DISPSILH
 70
     0
  9
$DIMSCALE
 40
1.0
  9
$DIMASZ
 40
2.5
  9
$DIMEXO
 40
0.75
  9
$DIMDLI
 40
15.96
  9
$DIMRND
 40
0.0
  9
$DIMDLE
 40
0.0
  9
$DIMEXE
 40
0.75
  9
$DIMTP
 40
0.01
  9
$DIMTM
 40
0.01
  9
$DIMTXT
 40
3.0
  9
$DIMCEN
 40
3.78
  9
$DIMTSZ
 40
0.0
  9
$DIMTOL
 70
     1
  9
$DIMLIM
 70
     0
  9
$DIMTIH
 70
     1
  9
$DIMTOH
 70
     1
  9
$DIMSE1
 70
     0
  9
$DIMSE2
 70
     0
  9
$DIMTAD
 70
     0
  9
$DIMZIN
 70
     0
  9
$DIMBLK
  1
CLOSED
  9
$DIMASO
 70
     1
  9
$DIMSHO
 70
     1
  9
$DIMPOST
  1

  9
$DIMAPOST
  1

  9
$DIMALT
 70
     0
  9
$DIMALTD
 70
     2
  9
$DIMALTF
 40
25.4
  9
$DIMLFAC
 40
1.0
  9
$DIMTOFL
 70
     0
  9
$DIMTVP
 40
0.0
  9
$DIMTIX
 70
     0
  9
$DIMSOXD
 70
     0
  9
$DIMSAH
 70
     0
  9
$DIMBLK1
  1

  9
$DIMBLK2
  1

  9
$DIMSTYLE
  2
STANDARD
  9
$DIMCLRD
 70
     0
  9
$DIMCLRE
 70
     0
  9
$DIMCLRT
 70
     0
  9
$DIMTFAC
 40
1.0
  9
$DIMGAP
 40
0.625
  9
$DIMJUST
 70
     0
  9
$DIMSD1
 70
     0
  9
$DIMSD2
 70
     0
  9
$DIMTOLJ
 70
     1
  9
$DIMTZIN
 70
     0
  9
$DIMALTZ
 70
     0
  9
$DIMALTTZ
 70
     0
  9
$DIMUPT
 70
     0
  9
$DIMDEC
 70
     4
  9
$DIMTDEC
 70
     4
  9
$DIMALTU
 70
     2
  9
$DIMALTTD
 70
     2
  9
$DIMTXSTY
  7
STANDARD
  9
$DIMAUNIT
 70
     0
  9
$DIMADEC
 70
     0
  9
$DIMALTRND
 40
0.0
  9
$DIMAZIN
 70
     0
  9
$DIMDSEP
 70
    46
  9
$DIMATFIT
 70
     3
  9
$DIMFRAC
 70
     0
  9
$DIMLDRBLK
  1

  9
$DIMLUNIT
 70
     2
  9
$DIMLWD
 70
    -2
  9
$DIMLWE
 70
    -2
  9
$DIMTMOVE
 70
     2
  9
$DIMFXL
 40
1.0
  9
$DIMFXLON
 70
     0
  9
$DIMJOGANG
 40
0.7853981633974483
  9
$DIMTFILL
 70
     0
  9
$DIMTFILLCLR
 70
     0
  9
$DIMARCSYM
 70
     0
  9
$DIMLTYPE
  6

  9
$DIMLTEX1
  6

  9
$DIMLTEX2
  6

  9
$DIMTXTDIRECTION
 70
     0
  9
$LUNITS
 70
     2
  9
$LUPREC
 70
     4
  9
$SKETCHINC
 40
0.1
  9
$FILLETRAD
 40
0.5
  9
$AUNITS
 70
     0
  9
$AUPREC
 70
     0
  9
$MENU
  1
.
  9
$ELEVATION
 40
0.0
  9
$PELEVATION
 40
0.0
  9
$THICKNESS
 40
0.0
  9
$LIMCHECK
 70
     0
  9
$CHAMFERA
 40
0.0
  9
$CHAMFERB
 40
0.0
  9
$CHAMFERC
 40
0.0
  9
$CHAMFERD
 40
0.0
  9
$SKPOLY
 70
     0
  9
$TDCREATE
 40
2447893.041666667
  9
$TDUCREATE
 40
0.0
  9
$TDUPDATE
 40
2458467.34238103
  9
$TDUUPDATE
 40
2458467.300714363
  9
$TDINDWG
 40
0.0002360185
  9
$TDUSRTIMER
 40
0.0002360185
  9
$USRTIMER
 70
     1
  9
$ANGBASE
 50
0.0
  9
$ANGDIR
 70
     0
  9
$PDMODE
 70
     3
  9
$PDSIZE
 40
0.3125
  9
$PLINEWID
 40
0.0
  9
$SPLFRAME
 70
     0
  9
$SPLINETYPE
 70
     6
  9
$SPLINESEGS
 70
     8
  9
$HANDSEED
  5
45B
  9
$SURFTAB1
 70
     6
  9
$SURFTAB2
 70
     6
  9
$SURFTYPE
 70
     6
  9
$SURFU
 70
     6
  9
$SURFV
 70
     6
  9
$UCSBASE
  2

  9
$UCSNAME
  2

  9
$UCSORG
 10
0.0
 20
0.0
 30
0.0
  9
$UCSXDIR
 10
1.0
 20
0.0
 30
0.0
  9
$UCSYDIR
 10
0.0
 20
1.0
 30
0.0
  9
$UCSORTHOREF
  2

  9
$UCSORTHOVIEW
 70
     0
  9
$UCSORGTOP
 10
0.0
 20
0.0
 30
0.0
  9
$UCSORGBOTTOM
 10
0.0
 20
0.0
 30
0.0
  9
$UCSORGLEFT
 10
0.0
 20
0.0
 30
0.0
  9
$UCSORGRIGHT
 10
0.0
 20
0.0
 30
0.0
  9
$UCSORGFRONT
 10
0.0
 20
0.0
 30
0.0
  9
$UCSORGBACK
 10
0.0
 20
0.0
 30
0.0
  9
$PUCSBASE
  2

  9
$PUCSNAME
  2

  9
$PUCSORG
 10
0.0
 20
0.0
 30
0.0
  9
$PUCSXDIR
 10
1.0
 20
0.0
 30
0.0
  9
$PUCSYDIR
 10
0.0
 20
1.0
 30
0.0
  9
$PUCSORTHOREF
  2

  9
$PUCSORTHOVIEW
 70
     0
  9
$PUCSORGTOP
 10
0.0
 20
0.0
 30
0.0
  9
$PUCSORGBOTTOM
 10
0.0
 20
0.0
 30
0.0
  9
$PUCSORGLEFT
 10
0.0
 20
0.0
 30
0.0
  9
$PUCSORGRIGHT
 10
0.0
 20
0.0
 30
0.0
  9
$PUCSORGFRONT
 10
0.0
 20
0.0
 30
0.0
  9
$PUCSORGBACK
 10
0.0
 20
0.0
 30
0.0
  9
$USERI1
 70
     0
  9
$USERI2
 70
     0
  9
$USERI3
 70
     0
  9
$USERI4
 70
     0
  9
$USERI5
 70
     0
  9
$USERR1
 40
0.0
  9
$USERR2
 40
0.0
  9
$USERR3
 40
0.0
  9
$USERR4
 40
0.0
  9
$USERR5
 40
0.0
  9
$WORLDVIEW
 70
     1
  9
$SHADEDGE
 70
     3
  9
$SHADEDIF
 70
    70
  9
$TILEMODE
 70
     0
  9
$MAXACTVP
 70
    64
  9
$PINSBASE
 10
0.0
 20
0.0
 30
0.0
  9
$PLIMCHECK
 70
     0
  9
$PEXTMIN
 10
0.0
 20
0.0
 30
0.0
  9
$PEXTMAX
 10
420.0
 20
297.0
 30
0.0
  9
$PLIMMIN
 10
-8.667315175097276
 20
-23.11284046692607
  9
$PLIMMAX
 10
476.7023346303502
 20
320.1128404669261
  9
$UNITMODE
 70
     0
  9
$VISRETAIN
 70
     1
  9
$PLINEGEN
 70
     0
  9
$PSLTSCALE
 70
     1
  9
$TREEDEPTH
 70
  3020
  9
$CMLSTYLE
  2
STANDARD
  9
$CMLJUST
 70
     0
  9
$CMLSCALE
 40
1.0
  9
$PROXYGRAPHICS
 70
     1
  9
$MEASUREMENT
 70
     1
  9
$CELWEIGHT
370
    -1
  9
$ENDCAPS
280
     0
  9
$JOINSTYLE
280
     0
  9
$LWDISPLAY
290
     0
  9
$INSUNITS
 70
     0
  9
$HYPERLINKBASE
  1

  9
$STYLESHEET
  1

  9
$XEDIT
290
     1
  9
$CEPSNTYPE
380
     0
  9
$PSTYLEMODE
290
     1
  9
$FINGERPRINTGUID
  2
{A97D67AE-BD9C-4784-95FE-BB3C2017E213}
  9
$VERSIONGUID
  2
{FAEB1C32-E019-11D5-929B-00C0DF256EC4}
  9
$EXTNAMES
290
     1
  9
$PSVPSCALE
 40
0.0
  9
$OLESTARTUP
290
     0
  9
$SORTENTS
280
   127
  9
$INDEXCTL
280
     0
  9
$HIDETEXT
280
     1
  9
$XCLIPFRAME
280
     2
  9
$HALOGAP
280
     0
  9
$OBSCOLOR
 70
   257
  9
$OBSLTYPE
280
     0
  9
$INTERSECTIONDISPLAY
280
     0
  9
$INTERSECTIONCOLOR
 70
   257
  9
$DIMASSOC
280
     2
  9
$PROJECTNAME
  1

  9
$CAMERADISPLAY
290
     0
  9
$LENSLENGTH
 40
50.0
  9
$CAMERAHEIGHT
 40
0.0
  9
$STEPSPERSEC
 40
2.0
  9
$STEPSIZE
 40
6.0
  9
$3DDWFPREC
 40
2.0
  9
$PSOLWIDTH
 40
0.25
  9
$PSOLHEIGHT
 40
4.0
  9
$LOFTANG1
 40
1.570796326794897
  9
$LOFTANG2
 40
1.570796326794897
  9
$LOFTMAG1
 40
0.0
  9
$LOFTMAG2
 40
0.0
  9
$LOFTPARAM
 70
     7
  9
$LOFTNORMALS
280
     1
  9
$LATITUDE
 40
37.795
  9
$LONGITUDE
 40
-122.394
  9
$NORTHDIRECTION
 40
0.0
  9
$TIMEZONE
 70
 -8000
  9
$LIGHTGLYPHDISPLAY
280
     1
  9
$TILEMODELIGHTSYNCH
280
     1
  9
$SOLIDHIST
280
     0
  9
$SHOWHIST
280
     1
  9
$DWFFRAME
280
     2
  9
$DGNFRAME
280
     2
  9
$REALWORLDSCALE
290
     1
  9
$INTERFERECOLOR
 62
   256
  9
$CSHADOW
280
     0
  9
$SHADOWPLANELOCATION
 40
0.0
  0
ENDSEC
  0
SECTION
  2
CLASSES
  0
CLASS
  1
ACDBDICTIONARYWDFLT
  2
AcDbDictionaryWithDefault
  3
ObjectDBX Classes
 90
        0
 91
        4
280
     0
281
     0
  0
CLASS
  1
SCALE
  2
AcDbScale
  3
ObjectDBX Classes
 90
     1153
 91
        4
280
     0
281
     0
  0
CLASS
  1
VISUALSTYLE
  2
AcDbVisualStyle
  3
ObjectDBX Classes
 90
     4095
 91
        4
280
     0
281
     0
  0
CLASS
  1
MATERIAL
  2
AcDbMaterial
  3
ObjectDBX Classes
 90
     1153
 91
        4
280
     0
281
     0
  0
CLASS
  1
TABLESTYLE
  2
AcDbTableStyle
  3
ObjectDBX Classes
 90
     4095
 91
        4
280
     0
281
     0
  0
CLASS
  1
MLEADERSTYLE
  2
AcDbMLeaderStyle
  3
ACDB_MLEADERSTYLE_CLASS
 90
     4095
 91
        4
280
     0
281
     0
  0
CLASS
  1
DICTIONARYVAR
  2
AcDbDictionaryVar
  3
ObjectDBX Classes
 90
        0
 91
        4
280
     0
281
     0
  0
CLASS
  1
CELLSTYLEMAP
  2
AcDbCellStyleMap
  3
ObjectDBX Classes
 90
     1152
 91
        4
280
     0
281
     0
  0
ENDSEC
  0
SECTION
  2
TABLES
  0
TABLE
  2
VPORT
  5
8
330
0
100
AcDbSymbolTable
 70
     1
  0
VPORT
  5
1F4
330
8
100
AcDbSymbolTableRecord
100
AcDbViewportTableRecord
  2
*ACTIVE
 70
     0
 10
0.0
 20
0.0
 11
1.0
 21
1.0
 12
210.0
 22
148.5
 13
0.0
 23
0.0
 14
1.0
 24
1.0
 15
0.0
 25
0.0
 16
0.0
 26
0.0
 36
1.0
 17
0.0
 27
0.0
 37
0.0
 40
297.0
 41
1.4141414141
 42
50.0
 43
0.0
 44
0.0
 50
0.0
 51
0.0
 71
     0
 72
   100
 73
     1
 74
     1
 75
     0
 76
     0
 77
     0
 78
     0
281
     0
 65
     1
110
0.0
120
0.0
130
0.0
111
1.0
121
0.0
131
0.0
112
0.0
122
1.0
132
0.0
 79
     0
146
0.0
348
434
 60
     3
 61
     5
292
     1
282
     1
141
0.0
142
0.0
 63
   256
  0
ENDTAB
  0
TABLE
  2
LTYPE
  5
5
330
0
100
AcDbSymbolTable
 70
     6
  0
LTYPE
  5
14
330
5
100
AcDbSymbolTableRecord
100
AcDbLinetypeTableRecord
  2
BYBLOCK
 70
     0
  3

 72
    65
 73
     0
 40
0.0
  0
LTYPE
  5
15
330
5
100
AcDbSymbolTableRecord
100
AcDbLinetypeTableRecord
  2
BYLAYER
 70
     0
  3

 72
    65
 73
     0
 40
0.0
  0
LTYPE
  5
16
330
5
100
AcDbSymbolTableRecord
100
AcDbLinetypeTableRecord
  2
CONTINUOUS
 70
     0
  3
Solid line
 72
    65
 73
     0
 40
0.0
  0
LTYPE
  5
1F5
330
5
100
AcDbSymbolTableRecord
100
AcDbLinetypeTableRecord
  2
CENTER
 70
     0
  3
____ _ ____ _ ____ _ ____ _ ____ _ ____ _ ____
 72
    65
 73
     4
 40
0.6
 49
0.375
 74
     0
 49
-0.075
 74
     0
 49
0.075
 74
     0
 49
-0.075
 74
     0
  0
LTYPE
  5
1F6
330
5
100
AcDbSymbolTableRecord
100
AcDbLinetypeTableRecord
  2
HIDDEN
 70
     0
  3
- - - - - - - - - - - - - - - - - - - -
 72
    65
 73
     2
 40
0.2
 49
0.1
 74
     0
 49
-0.1
 74
     0
  0
LTYPE
  5
1F7
330
5
100
AcDbSymbolTableRecord
100
AcDbLinetypeTableRecord
  2
PHANTOM
 70
     0
  3
_____ _ _ _____ _ _ _____ _ _ _____
 72
    65
 73
     6
 40
0.8
 49
0.45
 74
     0
 49
-0.05
 74
     0
 49
0.1
 74
     0
 49
-0.05
 74
     0
 49
0.1
 74
     0
 49
-0.05
 74
     0
  0
LTYPE
  5
1F8
330
5
100
AcDbSymbolTableRecord
100
AcDbLinetypeTableRecord
  2
DOT
 70
     0
  3
. . . . . . . . . . . . . . . . . . . .
 72
    65
 73
     2
 40
0.2
 49
0.1
 74
     0
 49
-0.1
 74
     0
  0
LTYPE
  5
1F9
330
5
100
AcDbSymbolTableRecord
100
AcDbLinetypeTableRecord
  2
DASHED
 70
     0
  3
- - - - - - - - - - - - - - - - - - - -
 72
    65
 73
     2
 40
0.2
 49
0.1
 74
     0
 49
-0.1
 74
     0
  0
ENDTAB
  0
TABLE
  2
LAYER
  5
2
330
0
100
AcDbSymbolTable
 70
    34
  0
LAYER
  5
10
330
2
100
AcDbSymbolTableRecord
100
AcDbLayerTableRecord
  2
0
 70
     0
 62
     7
  6
CONTINUOUS
370
    -3
390
409
347
44B
348
0
  0
LAYER
  5
1FA
330
2
100
AcDbSymbolTableRecord
100
AcDbLayerTableRecord
  2
DEFAULT_1
 70
     0
 62
     7
  6
CENTER
370
    -3
390
409
347
44B
348
0
  0
LAYER
  5
1FB
330
2
100
AcDbSymbolTableRecord
100
AcDbLayerTableRecord
  2
DEFAULT_2
 70
     0
 62
     8
  6
HIDDEN
370
    -3
390
409
347
44B
348
0
  0
LAYER
  5
1FC
330
2
100
AcDbSymbolTableRecord
100
AcDbLayerTableRecord
  2
DEFAULT_3
 70
     0
 62
     7
  6
PHANTOM
370
    -3
390
409
347
44B
348
0
  0
LAYER
  5
1FD
330
2
100
AcDbSymbolTableRecord
100
AcDbLayerTableRecord
  2
01_ALL_DTM_PLN
 70
     0
 62
     7
  6
CONTINUOUS
370
    -3
390
409
347
44B
348
0
  0
LAYER
  5
1FE
330
2
100
AcDbSymbolTableRecord
100
AcDbLayerTableRecord
  2
01__ASM_ALL_DTM_PLN
 70
     0
 62
     7
  6
CONTINUOUS
370
    -3
390
409
347
44B
348
0
  0
LAYER
  5
1FF
330
2
100
AcDbSymbolTableRecord
100
AcDbLayerTableRecord
  2
01__ASM_DEF_DTM_PLN
 70
     0
 62
     7
  6
CONTINUOUS
370
    -3
390
409
347
44B
348
0
  0
LAYER
  5
200
330
2
100
AcDbSymbolTableRecord
100
AcDbLayerTableRecord
  2
01___PRT_ALL_DTM_PLN
 70
     0
 62
     7
  6
CONTINUOUS
370
    -3
390
409
347
44B
348
0
  0
LAYER
  5
201
330
2
100
AcDbSymbolTableRecord
100
AcDbLayerTableRecord
  2
01___PRT_DEF_DTM_PLN
 70
     0
 62
     7
  6
CONTINUOUS
370
    -3
390
409
347
44B
348
0
  0
LAYER
  5
202
330
2
100
AcDbSymbolTableRecord
100
AcDbLayerTableRecord
  2
02_ALL_AXES
 70
     0
 62
     7
  6
CONTINUOUS
370
    -3
390
409
347
44B
348
0
  0
LAYER
  5
203
330
2
100
AcDbSymbolTableRecord
100
AcDbLayerTableRecord
  2
02__ASM_ALL_AXES
 70
     0
 62
     7
  6
CONTINUOUS
370
    -3
390
409
347
44B
348
0
  0
LAYER
  5
204
330
2
100
AcDbSymbolTableRecord
100
AcDbLayerTableRecord
  2
02___PRT_ALL_AXES
 70
     0
 62
     7
  6
CONTINUOUS
370
    -3
390
409
347
44B
348
0
  0
LAYER
  5
205
330
2
100
AcDbSymbolTableRecord
100
AcDbLayerTableRecord
  2
03_ALL_CURVES
 70
     0
 62
     7
  6
CONTINUOUS
370
    -3
390
409
347
44B
348
0
  0
LAYER
  5
206
330
2
100
AcDbSymbolTableRecord
100
AcDbLayerTableRecord
  2
03__ASM_ALL_CURVES
 70
     0
 62
     7
  6
CONTINUOUS
370
    -3
390
409
347
44B
348
0
  0
LAYER
  5
207
330
2
100
AcDbSymbolTableRecord
100
AcDbLayerTableRecord
  2
03___PRT_ALL_CURVES
 70
     0
 62
     7
  6
CONTINUOUS
370
    -3
390
409
347
44B
348
0
  0
LAYER
  5
208
330
2
100
AcDbSymbolTableRecord
100
AcDbLayerTableRecord
  2
04_ALL_DTM_PNT
 70
     0
 62
     7
  6
CONTINUOUS
370
    -3
390
409
347
44B
348
0
  0
LAYER
  5
209
330
2
100
AcDbSymbolTableRecord
100
AcDbLayerTableRecord
  2
04__ASM_ALL_DTM_PNT
 70
     0
 62
     7
  6
CONTINUOUS
370
    -3
390
409
347
44B
348
0
  0
LAYER
  5
20A
330
2
100
AcDbSymbolTableRecord
100
AcDbLayerTableRecord
  2
04___PRT_ALL_DTM_PNT
 70
     0
 62
     7
  6
CONTINUOUS
370
    -3
390
409
347
44B
348
0
  0
LAYER
  5
20B
330
2
100
AcDbSymbolTableRecord
100
AcDbLayerTableRecord
  2
05_ALL_DTM_CSYS
 70
     0
 62
     7
  6
CONTINUOUS
370
    -3
390
409
347
44B
348
0
  0
LAYER
  5
20C
330
2
100
AcDbSymbolTableRecord
100
AcDbLayerTableRecord
  2
05__ASM_ALL_DTM_CSYS
 70
     0
 62
     7
  6
CONTINUOUS
370
    -3
390
409
347
44B
348
0
  0
LAYER
  5
20D
330
2
100
AcDbSymbolTableRecord
100
AcDbLayerTableRecord
  2
05__ASM_DEF_DTM_CSYS
 70
     0
 62
     7
  6
CONTINUOUS
370
    -3
390
409
347
44B
348
0
  0
LAYER
  5
20E
330
2
100
AcDbSymbolTableRecord
100
AcDbLayerTableRecord
  2
05___PRT_ALL_DTM_CSYS
 70
     0
 62
     7
  6
CONTINUOUS
370
    -3
390
409
347
44B
348
0
  0
LAYER
  5
20F
330
2
100
AcDbSymbolTableRecord
100
AcDbLayerTableRecord
  2
05___PRT_DEF_DTM_CSYS
 70
     0
 62
     7
  6
CONTINUOUS
370
    -3
390
409
347
44B
348
0
  0
LAYER
  5
210
330
2
100
AcDbSymbolTableRecord
100
AcDbLayerTableRecord
  2
06_ALL_SURFS
 70
     0
 62
     7
  6
CONTINUOUS
370
    -3
390
409
347
44B
348
0
  0
LAYER
  5
211
330
2
100
AcDbSymbolTableRecord
100
AcDbLayerTableRecord
  2
06__ASM_ALL_SURFS
 70
     0
 62
     7
  6
CONTINUOUS
370
    -3
390
409
347
44B
348
0
  0
LAYER
  5
212
330
2
100
AcDbSymbolTableRecord
100
AcDbLayerTableRecord
  2
06___PRT_ALL_SURFS
 70
     0
 62
     7
  6
CONTINUOUS
370
    -3
390
409
347
44B
348
0
  0
LAYER
  5
213
330
2
100
AcDbSymbolTableRecord
100
AcDbLayerTableRecord
  2
07__ASM_ALL_SKELETONS
 70
     0
 62
     7
  6
CONTINUOUS
370
    -3
390
409
347
44B
348
0
  0
LAYER
  5
214
330
2
100
AcDbSymbolTableRecord
100
AcDbLayerTableRecord
  2
1_ALL_PLANES
 70
     0
 62
     7
  6
CONTINUOUS
370
    -3
390
409
347
44B
348
0
  0
LAYER
  5
215
330
2
100
AcDbSymbolTableRecord
100
AcDbLayerTableRecord
  2
3_ALL_AXES
 70
     0
 62
     7
  6
CONTINUOUS
370
    -3
390
409
347
44B
348
0
  0
LAYER
  5
216
330
2
100
AcDbSymbolTableRecord
100
AcDbLayerTableRecord
  2
5_ALL_CURVES
 70
     0
 62
     7
  6
CONTINUOUS
370
    -3
390
409
347
44B
348
0
  0
LAYER
  5
217
330
2
100
AcDbSymbolTableRecord
100
AcDbLayerTableRecord
  2
7_ALL_FEATURES
 70
     0
 62
     7
  6
CONTINUOUS
370
    -3
390
409
347
44B
348
0
  0
LAYER
  5
218
330
2
100
AcDbSymbolTableRecord
100
AcDbLayerTableRecord
  2
8_ALL_NOTES_BALLOONS_SYMBOLS_GT
 70
     0
 62
     7
  6
CONTINUOUS
370
    -3
390
409
347
44B
348
0
  0
LAYER
  5
219
330
2
100
AcDbSymbolTableRecord
100
AcDbLayerTableRecord
  2
9_SOLID
 70
     0
 62
     7
  6
CONTINUOUS
370
    -3
390
409
347
44B
348
0
  0
LAYER
  5
21A
330
2
100
AcDbSymbolTableRecord
100
AcDbLayerTableRecord
  2
XSEC_DATUMS
 70
     0
 62
     7
  6
CONTINUOUS
370
    -3
390
409
347
44B
348
0
  0
ENDTAB
  0
TABLE
  2
STYLE
  5
3
330
0
100
AcDbSymbolTable
 70
     5
  0
STYLE
  5
11
330
3
100
AcDbSymbolTableRecord
100
AcDbTextStyleTableRecord
  2
STANDARD
 70
     0
 40
0.0
 41
0.85
 50
0.0
 71
     0
 42
0.2
  3
txt
  4

  0
STYLE
  5
21B
330
3
100
AcDbSymbolTableRecord
100
AcDbTextStyleTableRecord
  2
TEXTSTYLE_1
 70
     0
 40
0.0
 41
0.8
 50
0.0
 71
     0
 42
0.2
  3
gdt
  4

  0
STYLE
  5
21C
330
3
100
AcDbSymbolTableRecord
100
AcDbTextStyleTableRecord
  2
TEXTSTYLE_2
 70
     0
 40
0.0
 41
0.9
 50
0.0
 71
     0
 42
0.2
  3
txt
  4

  0
STYLE
  5
21D
330
3
100
AcDbSymbolTableRecord
100
AcDbTextStyleTableRecord
  2
TEXTSTYLE_3
 70
     0
 40
0.0
 41
0.9
 50
0.0
 71
     0
 42
0.2
  3
txt
  4

  0
STYLE
  5
21E
330
3
100
AcDbSymbolTableRecord
100
AcDbTextStyleTableRecord
  2
TEXTSTYLE_4
 70
     0
 40
0.0
 41
2.0
 50
0.0
 71
     0
 42
0.2
  3
txt
  4

  0
ENDTAB
  0
TABLE
  2
VIEW
  5
6
330
0
100
AcDbSymbolTable
 70
     0
  0
ENDTAB
  0
TABLE
  2
UCS
  5
7
330
0
100
AcDbSymbolTable
 70
     0
  0
ENDTAB
  0
TABLE
  2
APPID
  5
9
330
0
100
AcDbSymbolTable
 70
     1
  0
APPID
  5
21F
330
9
100
AcDbSymbolTableRecord
100
AcDbRegAppTableRecord
  2
ACAD
 70
     0
  0
ENDTAB
  0
TABLE
  2
DIMSTYLE
  5
A
330
0
100
AcDbSymbolTable
 70
     3
100
AcDbDimStyleTable
  0
DIMSTYLE
105
226
330
A
100
AcDbSymbolTableRecord
100
AcDbDimStyleTableRecord
  2
STANDARD
 70
     0
 41
2.5
 42
0.75
 44
0.75
 47
0.01
 48
0.01
 71
     1
 73
     0
 74
     0
 77
     1
 78
     8
 79
     2
140
3.0
147
0.625
171
     1
178
     0
179
     2
271
     2
272
     2
284
     8
340
11
341
220
342
220
343
220
344
220
  0
DIMSTYLE
105
227
330
A
100
AcDbSymbolTableRecord
100
AcDbDimStyleTableRecord
  2
DIMSTYLE_1
 70
     0
 41
2.5
 42
0.75
 44
0.75
 47
0.5
 48
0.5
 73
     0
 74
     0
 77
     1
 78
     8
 79
     2
140
3.0
147
0.75
171
     1
178
     0
179
     2
271
     2
272
     2
284
     8
340
11
341
220
342
220
343
220
344
220
  0
DIMSTYLE
105
228
330
A
100
AcDbSymbolTableRecord
100
AcDbDimStyleTableRecord
  2
DIMSTYLE_2
 70
     0
 41
2.5
 42
0.75
 44
0.75
 47
0.2
 48
0.2
 73
     0
 74
     0
 77
     1
 78
     8
 79
     2
140
3.0
147
0.75
171
     1
178
     0
179
     2
271
     2
272
     2
284
     8
340
11
341
220
342
220
343
220
344
220
  0
ENDTAB
  0
TABLE
  2
BLOCK_RECORD
  5
1
330
0
100
AcDbSymbolTable
 70
     6
  0
BLOCK_RECORD
  5
1F
330
1
100
AcDbSymbolTableRecord
100
AcDbBlockTableRecord
  2
*MODEL_SPACE
340
42D
 70
     0
280
     1
281
     0
  0
BLOCK_RECORD
  5
1B
330
1
100
AcDbSymbolTableRecord
100
AcDbBlockTableRecord
  2
*PAPER_SPACE
340
42E
 70
     0
280
     1
281
     0
  0
BLOCK_RECORD
  5
220
330
1
100
AcDbSymbolTableRecord
100
AcDbBlockTableRecord
  2
_CLOSED
340
0
102
{BLKREFS
331
27B
331
27C
331
285
331
286
331
28E
331
28F
102
}
 70
     0
280
     1
281
     0
  0
BLOCK_RECORD
  5
221
330
1
100
AcDbSymbolTableRecord
100
AcDbBlockTableRecord
  2
*D1
340
0
 70
     0
280
     1
281
     0
  0
BLOCK_RECORD
  5
222
330
1
100
AcDbSymbolTableRecord
100
AcDbBlockTableRecord
  2
*D2
340
0
 70
     0
280
     1
281
     0
  0
BLOCK_RECORD
  5
223
330
1
100
AcDbSymbolTableRecord
100
AcDbBlockTableRecord
  2
*D3
340
0
 70
     0
280
     1
281
     0
  0
BLOCK_RECORD
  5
224
330
1
100
AcDbSymbolTableRecord
100
AcDbBlockTableRecord
  2
LOGO2_BL1
340
0
102
{BLKREFS
331
3F1
102
}
 70
     0
280
     1
281
     0
  0
BLOCK_RECORD
  5
225
330
1
100
AcDbSymbolTableRecord
100
AcDbBlockTableRecord
  2
PROIEZIONE_EU_BL0
340
0
102
{BLKREFS
331
3EE
102
}
 70
     0
280
     1
281
     0
  0
ENDTAB
  0
ENDSEC
  0
SECTION
  2
BLOCKS
  0
BLOCK
  5
20
330
1F
100
AcDbEntity
  8
0
100
AcDbBlockBegin
  2
*MODEL_SPACE
 70
     0
 10
0.0
 20
0.0
 30
0.0
  3
*MODEL_SPACE
  1

  0
ENDBLK
  5
21
330
1F
100
AcDbEntity
  8
0
100
AcDbBlockEnd
  0
BLOCK
  5
1C
330
1B
100
AcDbEntity
 67
     1
  8
0
100
AcDbBlockBegin
  2
*PAPER_SPACE
 70
     0
 10
0.0
 20
0.0
 30
0.0
  3
*PAPER_SPACE
  1

  0
ENDBLK
  5
1D
330
1B
100
AcDbEntity
 67
     1
  8
0
100
AcDbBlockEnd
  0
BLOCK
  5
26F
330
220
100
AcDbEntity
  8
0
100
AcDbBlockBegin
  2
_CLOSED
 70
     0
 10
0.0
 20
0.0
 30
0.0
  3
_CLOSED
  1

  0
LINE
  5
270
330
220
100
AcDbEntity
  8
0
  6
ByBlock
 62
     0
100
AcDbLine
 10
0.0
 20
0.0
 30
0.0
 11
-1.0
 21
0.2
 31
0.0
  0
LINE
  5
271
330
220
100
AcDbEntity
  8
0
  6
ByBlock
 62
     0
100
AcDbLine
 10
-1.0
 20
0.2
 30
0.0
 11
-1.0
 21
-0.2
 31
0.0
  0
LINE
  5
272
330
220
100
AcDbEntity
  8
0
  6
ByBlock
 62
     0
100
AcDbLine
 10
-1.0
 20
-0.2
 30
0.0
 11
0.0
 21
0.0
 31
0.0
  0
LINE
  5
273
330
220
100
AcDbEntity
  8
0
  6
ByBlock
 62
     0
100
AcDbLine
 10
-1.0
 20
0.0
 30
0.0
 11
0.0
 21
0.0
 31
0.0
  0
ENDBLK
  5
274
330
220
100
AcDbEntity
  8
0
  6
ByBlock
 62
     0
100
AcDbBlockEnd
  0
BLOCK
  5
275
330
221
100
AcDbEntity
  8
0
100
AcDbBlockBegin
  2
*D1
 70
     1
 10
0.0
 20
0.0
 30
0.0
  3
*D1
  1

  0
MTEXT
  5
276
330
221
100
AcDbEntity
  8
0
  6
Continuous
 62
     2
100
AcDbMText
 10
132.139088923
 20
62.4045977896
 30
0.0
 40
3.0
 41
9.3214285714
 46
0.0
 71
     2
 72
     1
  1
123
 73
     1
 44
1.0
  0
LINE
  5
277
330
221
100
AcDbEntity
  8
0
  6
Continuous
 62
     2
100
AcDbLine
 10
70.639088923
 20
68.2327815451
 30
0.0
 11
70.639088923
 21
57.9045977896
 31
0.0
  0
LINE
  5
278
330
221
100
AcDbEntity
  8
0
  6
Continuous
 62
     2
100
AcDbLine
 10
193.639088923
 20
69.4437270401
 30
0.0
 11
193.639088923
 21
57.9045977896
 31
0.0
  0
LINE
  5
279
330
221
100
AcDbEntity
  8
0
  6
Continuous
 62
     2
100
AcDbLine
 10
70.639088923
 20
58.6545977896
 30
0.0
 11
132.139088923
 21
58.6545977896
 31
0.0
  0
LINE
  5
27A
330
221
100
AcDbEntity
  8
0
  6
Continuous
 62
     2
100
AcDbLine
 10
193.639088923
 20
58.6545977896
 30
0.0
 11
132.139088923
 21
58.6545977896
 31
0.0
  0
INSERT
  5
27B
330
221
100
AcDbEntity
  8
0
  6
Continuous
 62
     2
100
AcDbBlockReference
  2
_CLOSED
 10
70.639088923
 20
58.6545977896
 30
0.0
 41
2.5
 42
2.5
 43
2.5
 50
180.0
  0
INSERT
  5
27C
330
221
100
AcDbEntity
  8
0
  6
Continuous
 62
     2
100
AcDbBlockReference
  2
_CLOSED
 10
193.639088923
 20
58.6545977896
 30
0.0
 41
2.5
 42
2.5
 43
2.5
  0
ENDBLK
  5
27D
330
221
100
AcDbEntity
  8
0
  6
ByBlock
 62
     0
100
AcDbBlockEnd
  0
BLOCK
  5
27E
330
222
100
AcDbEntity
  8
0
100
AcDbBlockBegin
  2
*D2
 70
     1
 10
0.0
 20
0.0
 30
0.0
  3
*D2
  1

  0
MTEXT
  5
27F
330
222
100
AcDbEntity
  8
0
  6
Continuous
 62
     2
100
AcDbMText
 10
200.9396377044
 20
198.0381320842
 30
0.0
 40
3.0
 41
13.1785714286
 46
0.0
 71
     3
 72
     1
  1
9,87
 11
0.0
 21
1.0
 31
0.0
 73
     1
 44
1.0
  0
LINE
  5
280
330
222
100
AcDbEntity
  8
0
  6
Continuous
 62
     2
100
AcDbLine
 10
195.6772990642
 20
209.6585811975
 30
0.0
 11
205.4396377044
 21
209.6585811975
 31
0.0
  0
LINE
  5
281
330
222
100
AcDbEntity
  8
0
  6
Continuous
 62
     2
100
AcDbLine
 10
195.9356341032
 20
199.7904543957
 30
0.0
 11
205.4396377044
 21
199.7904543957
 31
0.0
  0
LINE
  5
282
330
222
100
AcDbEntity
  8
0
  6
Continuous
 62
     2
100
AcDbLine
 10
204.6896377044
 20
209.6585811975
 30
0.0
 11
204.6896377044
 21
204.7245177966
 31
0.0
  0
LINE
  5
283
330
222
100
AcDbEntity
  8
0
  6
Continuous
 62
     2
100
AcDbLine
 10
204.6896377044
 20
199.7904543957
 30
0.0
 11
204.6896377044
 21
204.7245177966
 31
0.0
  0
LINE
  5
284
330
222
100
AcDbEntity
  8
0
  6
Continuous
 62
     2
100
AcDbLine
 10
204.6896377044
 20
204.7245177966
 30
0.0
 11
204.6896377044
 21
189.2524177985
 31
0.0
  0
INSERT
  5
285
330
222
100
AcDbEntity
  8
0
  6
Continuous
 62
     2
100
AcDbBlockReference
  2
_CLOSED
 10
204.6896377044
 20
209.6585811975
 30
0.0
 41
2.5
 42
2.5
 43
2.5
 50
90.0
  0
INSERT
  5
286
330
222
100
AcDbEntity
  8
0
  6
Continuous
 62
     2
100
AcDbBlockReference
  2
_CLOSED
 10
204.6896377044
 20
199.7904543957
 30
0.0
 41
2.5
 42
2.5
 43
2.5
 50
270.0
  0
ENDBLK
  5
287
330
222
100
AcDbEntity
  8
0
  6
ByBlock
 62
     0
100
AcDbBlockEnd
  0
BLOCK
  5
288
330
223
100
AcDbEntity
  8
0
100
AcDbBlockBegin
  2
*D3
 70
     1
 10
0.0
 20
0.0
 30
0.0
  3
*D3
  1

  0
MTEXT
  5
289
330
223
100
AcDbEntity
  8
0
  6
Continuous
 62
     2
100
AcDbMText
 10
299.423088784
 20
192.8253048325
 30
0.0
 40
3.0
 41
15.75
 46
0.0
 71
     2
 72
     1
  1
28,01
 73
     1
 44
1.0
  0
LINE
  5
28A
330
223
100
AcDbEntity
  8
0
  6
Continuous
 62
     2
100
AcDbLine
 10
285.4171643028
 20
197.3647416961
 30
0.0
 11
285.4171643028
 21
188.3253048325
 31
0.0
  0
LINE
  5
28B
330
223
100
AcDbEntity
  8
0
  6
Continuous
 62
     2
100
AcDbLine
 10
313.4290132652
 20
197.1064066572
 30
0.0
 11
313.4290132652
 21
188.3253048325
 31
0.0
  0
LINE
  5
28C
330
223
100
AcDbEntity
  8
0
  6
Continuous
 62
     2
100
AcDbLine
 10
285.4171643028
 20
189.0753048325
 30
0.0
 11
299.423088784
 21
189.0753048325
 31
0.0
  0
LINE
  5
28D
330
223
100
AcDbEntity
  8
0
  6
Continuous
 62
     2
100
AcDbLine
 10
313.4290132652
 20
189.0753048325
 30
0.0
 11
299.423088784
 21
189.0753048325
 31
0.0
  0
INSERT
  5
28E
330
223
100
AcDbEntity
  8
0
  6
Continuous
 62
     2
100
AcDbBlockReference
  2
_CLOSED
 10
285.4171643028
 20
189.0753048325
 30
0.0
 41
2.5
 42
2.5
 43
2.5
 50
180.0
  0
INSERT
  5
28F
330
223
100
AcDbEntity
  8
0
  6
Continuous
 62
     2
100
AcDbBlockReference
  2
_CLOSED
 10
313.4290132652
 20
189.0753048325
 30
0.0
 41
2.5
 42
2.5
 43
2.5
  0
ENDBLK
  5
290
330
223
100
AcDbEntity
  8
0
  6
ByBlock
 62
     0
100
AcDbBlockEnd
  0
BLOCK
  5
229
330
224
100
AcDbEntity
  8
0
100
AcDbBlockBegin
  2
LOGO2_BL1
 70
     0
 10
293.011951522
 20
42.857318896
 30
0.0
  3
LOGO2_BL1
  1

  0
LINE
  5
22A
330
224
100
AcDbEntity
  8
0
  6
Continuous
 62
     7
100
AcDbLine
 10
284.7548767502
 20
46.0528102349
 30
0.0
 11
283.4505358208
 21
46.0528102349
 31
0.0
  0
LINE
  5
22B
330
224
100
AcDbEntity
  8
0
  6
Continuous
 62
     7
100
AcDbLine
 10
283.4505358208
 20
46.0528102349
 30
0.0
 11
283.4505358208
 21
35.593744175
 31
0.0
  0
LINE
  5
22C
330
224
100
AcDbEntity
  8
0
  6
Continuous
 62
     7
100
AcDbLine
 10
283.4505358208
 20
35.593744175
 30
0.0
 11
287.9315907091
 21
35.593744175
 31
0.0
  0
LINE
  5
22D
330
224
100
AcDbEntity
  8
0
  6
Continuous
 62
     7
100
AcDbLine
 10
287.9315907091
 20
35.593744175
 30
0.0
 11
287.9315907091
 21
36.7865985
 31
0.0
  0
LINE
  5
22E
330
224
100
AcDbEntity
  8
0
  6
Continuous
 62
     7
100
AcDbLine
 10
287.9315907091
 20
36.7865985
 30
0.0
 11
284.7548767502
 21
36.7865985
 31
0.0
  0
LINE
  5
22F
330
224
100
AcDbEntity
  8
0
  6
Continuous
 62
     7
100
AcDbLine
 10
284.7548767502
 20
36.7865985
 30
0.0
 11
284.7548767502
 21
46.0528102349
 31
0.0
  0
LINE
  5
230
330
224
100
AcDbEntity
  8
0
  6
Continuous
 62
     7
100
AcDbLine
 10
299.6912029665
 20
46.0528102349
 30
0.0
 11
298.3873854484
 21
46.0528102349
 31
0.0
  0
LINE
  5
231
330
224
100
AcDbEntity
  8
0
  6
Continuous
 62
     7
100
AcDbLine
 10
298.3873854484
 20
46.0528102349
 30
0.0
 11
298.3873854484
 21
35.593744175
 31
0.0
  0
LINE
  5
232
330
224
100
AcDbEntity
  8
0
  6
Continuous
 62
     7
100
AcDbLine
 10
298.3873854484
 20
35.593744175
 30
0.0
 11
302.8685711895
 21
35.593744175
 31
0.0
  0
LINE
  5
233
330
224
100
AcDbEntity
  8
0
  6
Continuous
 62
     7
100
AcDbLine
 10
302.8685711895
 20
35.593744175
 30
0.0
 11
302.8685711895
 21
36.7865985
 31
0.0
  0
LINE
  5
234
330
224
100
AcDbEntity
  8
0
  6
Continuous
 62
     7
100
AcDbLine
 10
302.8685711895
 20
36.7865985
 30
0.0
 11
299.6912029665
 21
36.7865985
 31
0.0
  0
LINE
  5
235
330
224
100
AcDbEntity
  8
0
  6
Continuous
 62
     7
100
AcDbLine
 10
299.6912029665
 20
36.7865985
 30
0.0
 11
299.6912029665
 21
46.0528102349
 31
0.0
  0
LWPOLYLINE
  5
236
330
224
100
AcDbEntity
  8
0
  6
Continuous
 62
     7
100
AcDbPolyline
 90
        2
 70
     0
 43
0.2
 10
281.8049307317
 20
32.2501928681
 10
281.8049307317
 20
30.3931296187
  0
LWPOLYLINE
  5
237
330
224
100
AcDbEntity
  8
0
  6
Continuous
 62
     7
100
AcDbPolyline
 90
        2
 70
     0
 43
0.2
 10
281.8049307317
 20
30.3931296187
 10
282.6006467421
 20
30.3931296187
  0
LWPOLYLINE
  5
238
330
224
100
AcDbEntity
  8
0
  6
Continuous
 62
     7
100
AcDbPolyline
 90
        2
 70
     0
 43
0.2
 10
282.6006467421
 20
30.3931296187
 10
282.6006467421
 20
30.6051111903
  0
LWPOLYLINE
  5
239
330
224
100
AcDbEntity
  8
0
  6
Continuous
 62
     7
100
AcDbPolyline
 90
        2
 70
     0
 43
0.2
 10
282.6006467421
 20
30.6051111903
 10
282.0365402266
 20
30.6051111903
  0
LWPOLYLINE
  5
23A
330
224
100
AcDbEntity
  8
0
  6
Continuous
 62
     7
100
AcDbPolyline
 90
        2
 70
     0
 43
0.2
 10
282.0365402266
 20
30.6051111903
 10
282.0365402266
 20
32.2501928681
  0
LWPOLYLINE
  5
23B
330
224
100
AcDbEntity
  8
0
  6
Continuous
 62
     7
100
AcDbPolyline
 90
        2
 70
     0
 43
0.2
 10
282.0365402266
 20
32.2501928681
 10
281.8049307317
 20
32.2501928681
  0
SPLINE
  5
23C
330
224
100
AcDbEntity
  8
0
  6
Continuous
 62
     7
100
AcDbSpline
 70
     3
 71
     3
 72
    35
 73
    31
 74
     0
 42
0.000000001
 43
0.0000001
 40
0.0
 40
0.0
 40
0.0
 40
0.0
 40
1.0
 40
1.0
 40
1.0
 40
2.0
 40
2.0
 40
2.0
 40
3.0
 40
3.0
 40
3.0
 40
4.0
 40
4.0
 40
4.0
 40
5.0
 40
5.0
 40
5.0
 40
6.0
 40
6.0
 40
6.0
 40
7.0
 40
7.0
 40
7.0
 40
8.0
 40
8.0
 40
8.0
 40
9.0
 40
9.0
 40
9.0
 40
10.0
 40
10.0
 40
10.0
 40
10.0
 10
283.9989399977
 20
31.5456812746
 30
0.0
 10
283.9989399977
 20
31.5456812746
 30
0.0
 10
283.9989399977
 20
30.8835659954
 30
0.0
 10
283.9989399977
 20
30.8835659954
 30
0.0
 10
283.9989399977
 20
30.5684724001
 30
0.0
 10
284.1468036865
 20
30.3538737721
 30
0.0
 10
284.4868901708
 20
30.3538737721
 30
0.0
 10
284.8264532438
 20
30.3538737721
 30
0.0
 10
284.9745786383
 20
30.5684724001
 30
0.0
 10
284.9745786383
 20
30.8835659954
 30
0.0
 10
284.9745786383
 20
30.8835659954
 30
0.0
 10
284.9745786383
 20
31.5456812746
 30
0.0
 10
284.9745786383
 20
31.5456812746
 30
0.0
 10
284.9745786383
 20
31.5456812746
 30
0.0
 10
284.7525213994
 20
31.5456812746
 30
0.0
 10
284.7525213994
 20
31.5456812746
 30
0.0
 10
284.7525213994
 20
31.5456812746
 30
0.0
 10
284.7525213994
 20
30.9086897373
 30
0.0
 10
284.7525213994
 20
30.9086897373
 30
0.0
 10
284.7525213994
 20
30.7228787301
 30
0.0
 10
284.7058069419
 20
30.5600978195
 30
0.0
 10
284.4868901708
 20
30.5600978195
 30
0.0
 10
284.2674499884
 20
30.5600978195
 30
0.0
 10
284.2207355309
 20
30.7228787301
 30
0.0
 10
284.2207355309
 20
30.9086897373
 30
0.0
 10
284.2207355309
 20
30.9086897373
 30
0.0
 10
284.2207355309
 20
31.5456812746
 30
0.0
 10
284.2207355309
 20
31.5456812746
 30
0.0
 10
284.2207355309
 20
31.5456812746
 30
0.0
 10
283.9989399977
 20
31.5456812746
 30
0.0
 10
283.9989399977
 20
31.5456812746
 30
0.0
  0
SPLINE
  5
23D
330
224
100
AcDbEntity
  8
0
  6
Continuous
 62
     7
100
AcDbSpline
 70
     3
 71
     3
 72
    35
 73
    31
 74
     0
 42
0.000000001
 43
0.0000001
 40
0.0
 40
0.0
 40
0.0
 40
0.0
 40
1.0
 40
1.0
 40
1.0
 40
2.0
 40
2.0
 40
2.0
 40
3.0
 40
3.0
 40
3.0
 40
4.0
 40
4.0
 40
4.0
 40
5.0
 40
5.0
 40
5.0
 40
6.0
 40
6.0
 40
6.0
 40
7.0
 40
7.0
 40
7.0
 40
8.0
 40
8.0
 40
8.0
 40
9.0
 40
9.0
 40
9.0
 40
10.0
 40
10.0
 40
10.0
 40
10.0
 10
287.3977111955
 20
31.5043317829
 30
0.0
 10
287.3092546878
 20
31.5556260891
 30
0.0
 10
287.1958052912
 20
31.5807498309
 30
0.0
 10
287.0921698562
 20
31.5807498309
 30
0.0
 10
286.737297003
 20
31.5807498309
 30
0.0
 10
286.4618518127
 20
31.3169505418
 30
0.0
 10
286.4618518127
 20
30.9594606322
 30
0.0
 10
286.4618518127
 20
30.6145325935
 30
0.0
 10
286.7403066179
 20
30.3543971834
 30
0.0
 10
287.0798696909
 20
30.3543971834
 30
0.0
 10
287.1958052912
 20
30.3543971834
 30
0.0
 10
287.2965619641
 20
30.3763804575
 30
0.0
 10
287.3977111955
 20
30.4302918202
 30
0.0
 10
287.3977111955
 20
30.4302918202
 30
0.0
 10
287.3977111955
 20
30.7129339156
 30
0.0
 10
287.3977111955
 20
30.7129339156
 30
0.0
 10
287.3138345366
 20
30.6197667064
 30
0.0
 10
287.2103299544
 20
30.5606212308
 30
0.0
 10
287.0822250417
 20
30.5606212308
 30
0.0
 10
286.8485219017
 20
30.5606212308
 30
0.0
 10
286.6832547875
 20
30.7328235445
 30
0.0
 10
286.6832547875
 20
30.9694054467
 30
0.0
 10
286.6832547875
 20
31.1813870182
 30
0.0
 10
286.8510081053
 20
31.3734789609
 30
0.0
 10
287.0678312313
 20
31.3734789609
 30
0.0
 10
287.2006468456
 20
31.3734789609
 30
0.0
 10
287.3092546878
 20
31.3195675982
 30
0.0
 10
287.3977111955
 20
31.2185492197
 30
0.0
 10
287.3977111955
 20
31.2185492197
 30
0.0
 10
287.3977111955
 20
31.5043317829
 30
0.0
 10
287.3977111955
 20
31.5043317829
 30
0.0
  0
SPLINE
  5
23E
330
224
100
AcDbEntity
  8
0
  6
Continuous
 62
     7
100
AcDbSpline
 70
     3
 71
     3
 72
    32
 73
    28
 74
     0
 42
0.000000001
 43
0.0000001
 40
0.0
 40
0.0
 40
0.0
 40
0.0
 40
1.0
 40
1.0
 40
1.0
 40
2.0
 40
2.0
 40
2.0
 40
3.0
 40
3.0
 40
3.0
 40
4.0
 40
4.0
 40
4.0
 40
5.0
 40
5.0
 40
5.0
 40
6.0
 40
6.0
 40
6.0
 40
7.0
 40
7.0
 40
7.0
 40
8.0
 40
8.0
 40
8.0
 40
9.0
 40
9.0
 40
9.0
 40
9.0
 10
289.9295824477
 20
30.9327666565
 30
0.0
 10
289.9295824477
 20
30.9327666565
 30
0.0
 10
289.9295824477
 20
30.9667883902
 30
0.0
 10
289.9295824477
 20
30.9667883902
 30
0.0
 10
289.9295824477
 20
31.3090993725
 30
0.0
 10
289.7567258699
 20
31.5807498309
 30
0.0
 10
289.3900762627
 20
31.5807498309
 30
0.0
 10
289.0184542483
 20
31.5807498309
 30
0.0
 10
288.8287176565
 20
31.3143334854
 30
0.0
 10
288.8287176565
 20
30.9594606322
 30
0.0
 10
288.8287176565
 20
30.6197667064
 30
0.0
 10
289.0427928732
 20
30.3538737721
 30
0.0
 10
289.3949178171
 20
30.3538737721
 30
0.0
 10
289.6189378484
 20
30.3538737721
 30
0.0
 10
289.8211054583
 20
30.4695476667
 30
0.0
 10
289.9295824477
 20
30.6689673674
 30
0.0
 10
289.9295824477
 20
30.6689673674
 30
0.0
 10
289.741939501
 20
30.7757432701
 30
0.0
 10
289.741939501
 20
30.7757432701
 30
0.0
 10
289.6584554006
 20
30.6370392789
 30
0.0
 10
289.5672509837
 20
30.5511998276
 30
0.0
 10
289.3976657264
 20
30.5511998276
 30
0.0
 10
289.1856841548
 20
30.5511998276
 30
0.0
 10
289.0527376877
 20
30.7359640123
 30
0.0
 10
289.0503823369
 20
30.9327666565
 30
0.0
 10
289.0503823369
 20
30.9327666565
 30
0.0
 10
289.9295824477
 20
30.9327666565
 30
0.0
 10
289.9295824477
 20
30.9327666565
 30
0.0
  0
SPLINE
  5
23F
330
224
100
AcDbEntity
  8
0
  6
Continuous
 62
     7
100
AcDbSpline
 70
     3
 71
     3
 72
    14
 73
    10
 74
     0
 42
0.000000001
 43
0.0000001
 40
0.0
 40
0.0
 40
0.0
 40
0.0
 40
1.0
 40
1.0
 40
1.0
 40
2.0
 40
2.0
 40
2.0
 40
3.0
 40
3.0
 40
3.0
 40
3.0
 10
289.0624207965
 20
31.1002582686
 30
0.0
 10
289.090030742
 20
31.2651328243
 30
0.0
 10
289.217873949
 20
31.388134477
 30
0.0
 10
289.3900762627
 20
31.388134477
 30
0.0
 10
289.5672509837
 20
31.388134477
 30
0.0
 10
289.6807003803
 20
31.2724605823
 30
0.0
 10
289.7079177673
 20
31.1002582686
 30
0.0
 10
289.7079177673
 20
31.1002582686
 30
0.0
 10
289.0624207965
 20
31.1002582686
 30
0.0
 10
289.0624207965
 20
31.1002582686
 30
0.0
  0
SPLINE
  5
240
330
224
100
AcDbEntity
  8
0
  6
Continuous
 62
     7
100
AcDbSpline
 70
     3
 71
     3
 72
    20
 73
    16
 74
     0
 42
0.000000001
 43
0.0000001
 40
0.0
 40
0.0
 40
0.0
 40
0.0
 40
1.0
 40
1.0
 40
1.0
 40
2.0
 40
2.0
 40
2.0
 40
3.0
 40
3.0
 40
3.0
 40
4.0
 40
4.0
 40
4.0
 40
5.0
 40
5.0
 40
5.0
 40
5.0
 10
291.9536138979
 20
31.3096227838
 30
0.0
 10
291.9536138979
 20
31.3096227838
 30
0.0
 10
292.3647534645
 20
30.8071479474
 30
0.0
 10
292.3647534645
 20
30.8071479474
 30
0.0
 10
292.2486870114
 20
30.6914740528
 30
0.0
 10
292.1108989899
 20
30.5611446421
 30
0.0
 10
291.9389583818
 20
30.5611446421
 30
0.0
 10
291.7615219553
 20
30.5611446421
 30
0.0
 10
291.5940303431
 20
30.7254957865
 30
0.0
 10
291.5940303431
 20
30.9024088018
 30
0.0
 10
291.5940303431
 20
31.0803686397
 30
0.0
 10
291.8037874167
 20
31.2065107601
 30
0.0
 10
291.9313689182
 20
31.2944438564
 30
0.0
 10
291.9313689182
 20
31.2944438564
 30
0.0
 10
291.9536138979
 20
31.3096227838
 30
0.0
 10
291.9536138979
 20
31.3096227838
 30
0.0
  0
SPLINE
  5
241
330
224
100
AcDbEntity
  8
0
  6
Continuous
 62
     7
100
AcDbSpline
 70
     3
 71
     3
 72
    23
 73
    19
 74
     0
 42
0.000000001
 43
0.0000001
 40
0.0
 40
0.0
 40
0.0
 40
0.0
 40
1.0
 40
1.0
 40
1.0
 40
2.0
 40
2.0
 40
2.0
 40
3.0
 40
3.0
 40
3.0
 40
4.0
 40
4.0
 40
4.0
 40
5.0
 40
5.0
 40
5.0
 40
6.0
 40
6.0
 40
6.0
 40
6.0
 10
292.0029454118
 20
31.6006394598
 30
0.0
 10
292.0029454118
 20
31.6006394598
 30
0.0
 10
291.9413137326
 20
31.679151153
 30
0.0
 10
291.9413137326
 20
31.679151153
 30
0.0
 10
291.88740237
 20
31.7477180317
 30
0.0
 10
291.8306122453
 20
31.8168083217
 30
0.0
 10
291.8306122453
 20
31.9104989422
 30
0.0
 10
291.8306122453
 20
32.0293133046
 30
0.0
 10
291.9265273638
 20
32.1067781752
 30
0.0
 10
292.0374905568
 20
32.1067781752
 30
0.0
 10
292.1607539151
 20
32.1067781752
 30
0.0
 10
292.2540519771
 20
32.03559424
 30
0.0
 10
292.2540519771
 20
31.9052648294
 30
0.0
 10
292.2540519771
 20
31.7702247171
 30
0.0
 10
292.1259470644
 20
31.6938066691
 30
0.0
 10
292.0323872967
 20
31.6200056775
 30
0.0
 10
292.0323872967
 20
31.6200056775
 30
0.0
 10
292.0029454118
 20
31.6006394598
 30
0.0
 10
292.0029454118
 20
31.6006394598
 30
0.0
  0
SPLINE
  5
242
330
224
100
AcDbEntity
  8
0
  6
Continuous
 62
     7
100
AcDbSpline
 70
     3
 71
     3
 72
    50
 73
    46
 74
     0
 42
0.000000001
 43
0.0000001
 40
0.0
 40
0.0
 40
0.0
 40
0.0
 40
1.0
 40
1.0
 40
1.0
 40
2.0
 40
2.0
 40
2.0
 40
3.0
 40
3.0
 40
3.0
 40
4.0
 40
4.0
 40
4.0
 40
5.0
 40
5.0
 40
5.0
 40
6.0
 40
6.0
 40
6.0
 40
7.0
 40
7.0
 40
7.0
 40
8.0
 40
8.0
 40
8.0
 40
9.0
 40
9.0
 40
9.0
 40
10.0
 40
10.0
 40
10.0
 40
11.0
 40
11.0
 40
11.0
 40
12.0
 40
12.0
 40
12.0
 40
13.0
 40
13.0
 40
13.0
 40
14.0
 40
14.0
 40
14.0
 40
15.0
 40
15.0
 40
15.0
 40
15.0
 10
292.7051016545
 20
30.39365303
 30
0.0
 10
292.7051016545
 20
30.39365303
 30
0.0
 10
292.9904916592
 20
30.39365303
 30
0.0
 10
292.9904916592
 20
30.39365303
 30
0.0
 10
292.9904916592
 20
30.39365303
 30
0.0
 10
292.6581254914
 20
30.804530891
 30
0.0
 10
292.6581254914
 20
30.804530891
 30
0.0
 10
292.6581254914
 20
30.804530891
 30
0.0
 10
292.8846317262
 20
31.0704238252
 30
0.0
 10
292.8846317262
 20
31.0704238252
 30
0.0
 10
292.8846317262
 20
31.0704238252
 30
0.0
 10
292.7363754789
 20
31.2232599213
 30
0.0
 10
292.7363754789
 20
31.2232599213
 30
0.0
 10
292.7363754789
 20
31.2232599213
 30
0.0
 10
292.5204683227
 20
30.9720225031
 30
0.0
 10
292.5204683227
 20
30.9720225031
 30
0.0
 10
292.5204683227
 20
30.9720225031
 30
0.0
 10
292.1334056753
 20
31.4399521945
 30
0.0
 10
292.1334056753
 20
31.4399521945
 30
0.0
 10
292.2888588278
 20
31.5540558552
 30
0.0
 10
292.4711368088
 20
31.6938066691
 30
0.0
 10
292.4711368088
 20
31.9031711842
 30
0.0
 10
292.4711368088
 20
32.1470808444
 30
0.0
 10
292.2691000517
 20
32.2904955372
 30
0.0
 10
292.0425938168
 20
32.2904955372
 30
0.0
 10
291.798422451
 20
32.2904955372
 30
0.0
 10
291.6140508249
 20
32.1397530863
 30
0.0
 10
291.6140508249
 20
31.8832815553
 30
0.0
 10
291.6140508249
 20
31.7257347576
 30
0.0
 10
291.7127138527
 20
31.5880775889
 30
0.0
 10
291.8180503743
 20
31.4771143959
 30
0.0
 10
291.8180503743
 20
31.4771143959
 30
0.0
 10
291.7025073325
 20
31.3933685898
 30
0.0
 10
291.7025073325
 20
31.3933685898
 30
0.0
 10
291.5248092003
 20
31.2651328243
 30
0.0
 10
291.3774689228
 20
31.1374204701
 30
0.0
 10
291.3774689228
 20
30.9003151567
 30
0.0
 10
291.3774689228
 20
30.5799874485
 30
0.0
 10
291.636034099
 20
30.3538737721
 30
0.0
 10
291.9464169927
 20
30.3538737721
 30
0.0
 10
292.1653337638
 20
30.3538737721
 30
0.0
 10
292.3625289665
 20
30.4789690699
 30
0.0
 10
292.5028031917
 20
30.6448904482
 30
0.0
 10
292.5028031917
 20
30.6448904482
 30
0.0
 10
292.7051016545
 20
30.39365303
 30
0.0
 10
292.7051016545
 20
30.39365303
 30
0.0
  0
LWPOLYLINE
  5
243
330
224
100
AcDbEntity
  8
0
  6
Continuous
 62
     7
100
AcDbPolyline
 90
        2
 70
     0
 43
0.2
 10
294.6405457442
 20
32.2501928681
 10
294.4091979549
 20
32.2501928681
  0
LWPOLYLINE
  5
244
330
224
100
AcDbEntity
  8
0
  6
Continuous
 62
     7
100
AcDbPolyline
 90
        2
 70
     0
 43
0.2
 10
294.4091979549
 20
32.2501928681
 10
294.4091979549
 20
30.3931296187
  0
LWPOLYLINE
  5
245
330
224
100
AcDbEntity
  8
0
  6
Continuous
 62
     7
100
AcDbPolyline
 90
        2
 70
     0
 43
0.2
 10
294.4091979549
 20
30.3931296187
 10
295.2045214069
 20
30.3931296187
  0
LWPOLYLINE
  5
246
330
224
100
AcDbEntity
  8
0
  6
Continuous
 62
     7
100
AcDbPolyline
 90
        2
 70
     0
 43
0.2
 10
295.2045214069
 20
30.3931296187
 10
295.2045214069
 20
30.6051111903
  0
LWPOLYLINE
  5
247
330
224
100
AcDbEntity
  8
0
  6
Continuous
 62
     7
100
AcDbPolyline
 90
        2
 70
     0
 43
0.2
 10
295.2045214069
 20
30.6051111903
 10
294.6405457442
 20
30.6051111903
  0
LWPOLYLINE
  5
248
330
224
100
AcDbEntity
  8
0
  6
Continuous
 62
     7
100
AcDbPolyline
 90
        2
 70
     0
 43
0.2
 10
294.6405457442
 20
30.6051111903
 10
294.6405457442
 20
32.2501928681
  0
LWPOLYLINE
  5
249
330
224
100
AcDbEntity
  8
0
  6
Continuous
 62
     7
100
AcDbPolyline
 90
        2
 70
     0
 43
0.2
 10
296.8836248183
 20
31.5456812746
 10
296.6624835492
 20
31.5456812746
  0
LWPOLYLINE
  5
24A
330
224
100
AcDbEntity
  8
0
  6
Continuous
 62
     7
100
AcDbPolyline
 90
        2
 70
     0
 43
0.2
 10
296.6624835492
 20
31.5456812746
 10
296.6624835492
 20
30.39365303
  0
LWPOLYLINE
  5
24B
330
224
100
AcDbEntity
  8
0
  6
Continuous
 62
     7
100
AcDbPolyline
 90
        2
 70
     0
 43
0.2
 10
296.6624835492
 20
30.39365303
 10
296.8836248183
 20
30.39365303
  0
LWPOLYLINE
  5
24C
330
224
100
AcDbEntity
  8
0
  6
Continuous
 62
     7
100
AcDbPolyline
 90
        2
 70
     0
 43
0.2
 10
296.8836248183
 20
30.39365303
 10
296.8836248183
 20
31.5456812746
  0
LWPOLYLINE
  5
24D
330
224
100
AcDbEntity
  8
0
  6
Continuous
 62
     7
100
AcDbPolyline
 90
        2
 70
     1
 43
0.2
 10
296.6206015411
 20
32.0756352036
 42
1.0
 10
296.9257685321
 20
32.0756352036
 42
1.0
  0
SPLINE
  5
24E
330
224
100
AcDbEntity
  8
0
  6
Continuous
 62
     7
100
AcDbSpline
 70
     3
 71
     3
 72
    17
 73
    13
 74
     0
 42
0.000000001
 43
0.0000001
 40
0.0
 40
0.0
 40
0.0
 40
0.0
 40
1.0
 40
1.0
 40
1.0
 40
2.0
 40
2.0
 40
2.0
 40
3.0
 40
3.0
 40
3.0
 40
4.0
 40
4.0
 40
4.0
 40
4.0
 10
299.01390876
 20
30.5511998276
 30
0.0
 10
298.7799439143
 20
30.5511998276
 30
0.0
 10
298.6496145036
 20
30.7532365848
 30
0.0
 10
298.6496145036
 20
30.9694054467
 30
0.0
 10
298.6496145036
 20
31.1840040747
 30
0.0
 10
298.7854397328
 20
31.3829003641
 30
0.0
 10
299.01390876
 20
31.3829003641
 30
0.0
 10
299.2533694242
 20
31.3829003641
 30
0.0
 10
299.3889329477
 20
31.1939488892
 30
0.0
 10
299.3889329477
 20
30.9694054467
 30
0.0
 10
299.3889329477
 20
30.7432917703
 30
0.0
 10
299.255724775
 20
30.5511998276
 30
0.0
 10
299.01390876
 20
30.5511998276
 30
0.0
  0
SPLINE
  5
24F
330
224
100
AcDbEntity
  8
0
  6
Continuous
 62
     7
100
AcDbSpline
 70
     3
 71
     3
 72
    50
 73
    46
 74
     0
 42
0.000000001
 43
0.0000001
 40
0.0
 40
0.0
 40
0.0
 40
0.0
 40
1.0
 40
1.0
 40
1.0
 40
2.0
 40
2.0
 40
2.0
 40
3.0
 40
3.0
 40
3.0
 40
4.0
 40
4.0
 40
4.0
 40
5.0
 40
5.0
 40
5.0
 40
6.0
 40
6.0
 40
6.0
 40
7.0
 40
7.0
 40
7.0
 40
8.0
 40
8.0
 40
8.0
 40
9.0
 40
9.0
 40
9.0
 40
10.0
 40
10.0
 40
10.0
 40
11.0
 40
11.0
 40
11.0
 40
12.0
 40
12.0
 40
12.0
 40
13.0
 40
13.0
 40
13.0
 40
14.0
 40
14.0
 40
14.0
 40
15.0
 40
15.0
 40
15.0
 40
15.0
 10
299.5980357572
 20
31.5462046859
 30
0.0
 10
299.5980357572
 20
31.5462046859
 30
0.0
 10
299.3763710768
 20
31.5462046859
 30
0.0
 10
299.3763710768
 20
31.5462046859
 30
0.0
 10
299.3763710768
 20
31.5462046859
 30
0.0
 10
299.3763710768
 20
31.3488786304
 30
0.0
 10
299.3763710768
 20
31.3488786304
 30
0.0
 10
299.3763710768
 20
31.3488786304
 30
0.0
 10
299.3716603752
 20
31.3488786304
 30
0.0
 10
299.3716603752
 20
31.3488786304
 30
0.0
 10
299.2803251055
 20
31.491769912
 30
0.0
 10
299.1424062312
 20
31.5802264196
 30
0.0
 10
298.9696805062
 20
31.5802264196
 30
0.0
 10
298.6373143384
 20
31.5802264196
 30
0.0
 10
298.4282115289
 20
31.2923502113
 30
0.0
 10
298.4282115289
 20
30.9767332047
 30
0.0
 10
298.4282115289
 20
30.6469840933
 30
0.0
 10
298.6252758787
 20
30.3538737721
 30
0.0
 10
298.9801487319
 20
30.3538737721
 30
0.0
 10
299.1424062312
 20
30.3538737721
 30
0.0
 10
299.2824187507
 20
30.4423302798
 30
0.0
 10
299.3716603752
 20
30.5731831017
 30
0.0
 10
299.3716603752
 20
30.5731831017
 30
0.0
 10
299.3763710768
 20
30.5731831017
 30
0.0
 10
299.3763710768
 20
30.5731831017
 30
0.0
 10
299.3763710768
 20
30.5731831017
 30
0.0
 10
299.3763710768
 20
30.3538737721
 30
0.0
 10
299.3763710768
 20
30.3538737721
 30
0.0
 10
299.3763710768
 20
30.11729187
 30
0.0
 10
299.3198426577
 20
29.9304340402
 30
0.0
 10
299.0466219655
 20
29.9304340402
 30
0.0
 10
298.8443235027
 20
29.9304340402
 30
0.0
 10
298.7016939268
 20
30.0487249913
 30
0.0
 10
298.7016939268
 20
30.2549490387
 30
0.0
 10
298.7016939268
 20
30.2549490387
 30
0.0
 10
298.4800292464
 20
30.2549490387
 30
0.0
 10
298.4800292464
 20
30.2549490387
 30
0.0
 10
298.4850016536
 20
29.9304340402
 30
0.0
 10
298.7160877372
 20
29.733631396
 30
0.0
 10
299.0364154454
 20
29.733631396
 30
0.0
 10
299.4844555078
 20
29.733631396
 30
0.0
 10
299.5980357572
 20
30.0188905479
 30
0.0
 10
299.5980357572
 20
30.4156363041
 30
0.0
 10
299.5980357572
 20
30.4156363041
 30
0.0
 10
299.5980357572
 20
31.5462046859
 30
0.0
 10
299.5980357572
 20
31.5462046859
 30
0.0
  0
SPLINE
  5
250
330
224
100
AcDbEntity
  8
0
  6
Continuous
 62
     7
100
AcDbSpline
 70
     3
 71
     3
 72
    44
 73
    40
 74
     0
 42
0.000000001
 43
0.0000001
 40
0.0
 40
0.0
 40
0.0
 40
0.0
 40
1.0
 40
1.0
 40
1.0
 40
2.0
 40
2.0
 40
2.0
 40
3.0
 40
3.0
 40
3.0
 40
4.0
 40
4.0
 40
4.0
 40
5.0
 40
5.0
 40
5.0
 40
6.0
 40
6.0
 40
6.0
 40
7.0
 40
7.0
 40
7.0
 40
8.0
 40
8.0
 40
8.0
 40
9.0
 40
9.0
 40
9.0
 40
10.0
 40
10.0
 40
10.0
 40
11.0
 40
11.0
 40
11.0
 40
12.0
 40
12.0
 40
12.0
 40
13.0
 40
13.0
 40
13.0
 40
13.0
 10
301.1669610926
 20
32.5312647297
 30
0.0
 10
301.1669610926
 20
32.5312647297
 30
0.0
 10
301.1669610926
 20
30.3931296187
 30
0.0
 10
301.1669610926
 20
30.3931296187
 30
0.0
 10
301.1669610926
 20
30.3931296187
 30
0.0
 10
301.3883640674
 20
30.3931296187
 30
0.0
 10
301.3883640674
 20
30.3931296187
 30
0.0
 10
301.3883640674
 20
30.3931296187
 30
0.0
 10
301.3883640674
 20
30.922821842
 30
0.0
 10
301.3883640674
 20
30.922821842
 30
0.0
 10
301.3883640674
 20
31.1327097685
 30
0.0
 10
301.3883640674
 20
31.3834237754
 30
0.0
 10
301.6736232193
 20
31.3834237754
 30
0.0
 10
301.9005220126
 20
31.3834237754
 30
0.0
 10
301.9274776939
 20
31.2504773082
 30
0.0
 10
301.9274776939
 20
31.0541980753
 30
0.0
 10
301.9274776939
 20
31.0541980753
 30
0.0
 10
301.9274776939
 20
30.3931296187
 30
0.0
 10
301.9274776939
 20
30.3931296187
 30
0.0
 10
301.9274776939
 20
30.3931296187
 30
0.0
 10
302.14940408
 20
30.3931296187
 30
0.0
 10
302.14940408
 20
30.3931296187
 30
0.0
 10
302.14940408
 20
30.3931296187
 30
0.0
 10
302.14940408
 20
31.0803686397
 30
0.0
 10
302.14940408
 20
31.0803686397
 30
0.0
 10
302.14940408
 20
31.36091709
 30
0.0
 10
302.0653965683
 20
31.5807498309
 30
0.0
 10
301.7403581585
 20
31.5807498309
 30
0.0
 10
301.6006073446
 20
31.5807498309
 30
0.0
 10
301.4624267646
 20
31.5142765973
 30
0.0
 10
301.393074769
 20
31.3912749447
 30
0.0
 10
301.393074769
 20
31.3912749447
 30
0.0
 10
301.3883640674
 20
31.3912749447
 30
0.0
 10
301.3883640674
 20
31.3912749447
 30
0.0
 10
301.3883640674
 20
31.3912749447
 30
0.0
 10
301.3883640674
 20
32.5312647297
 30
0.0
 10
301.3883640674
 20
32.5312647297
 30
0.0
 10
301.3883640674
 20
32.5312647297
 30
0.0
 10
301.1669610926
 20
32.5312647297
 30
0.0
 10
301.1669610926
 20
32.5312647297
 30
0.0
  0
LWPOLYLINE
  5
251
330
224
100
AcDbEntity
  8
0
  6
Continuous
 62
     7
100
AcDbPolyline
 90
        2
 70
     0
 43
0.2
 10
303.9891947568
 20
31.3389338159
 10
304.2056253244
 20
31.3389338159
  0
LWPOLYLINE
  5
252
330
224
100
AcDbEntity
  8
0
  6
Continuous
 62
     7
100
AcDbPolyline
 90
        2
 70
     0
 43
0.2
 10
304.2056253244
 20
31.3389338159
 10
304.2056253244
 20
31.5456812746
  0
LWPOLYLINE
  5
253
330
224
100
AcDbEntity
  8
0
  6
Continuous
 62
     7
100
AcDbPolyline
 90
        2
 70
     0
 43
0.2
 10
304.2056253244
 20
31.5456812746
 10
303.9891947568
 20
31.5456812746
  0
LWPOLYLINE
  5
254
330
224
100
AcDbEntity
  8
0
  6
Continuous
 62
     7
100
AcDbPolyline
 90
        2
 70
     0
 43
0.2
 10
303.9891947568
 20
31.5456812746
 10
303.9891947568
 20
31.986393579
  0
LWPOLYLINE
  5
255
330
224
100
AcDbEntity
  8
0
  6
Continuous
 62
     7
100
AcDbPolyline
 90
        2
 70
     0
 43
0.2
 10
303.9891947568
 20
31.986393579
 10
303.7675300764
 20
31.986393579
  0
LWPOLYLINE
  5
256
330
224
100
AcDbEntity
  8
0
  6
Continuous
 62
     7
100
AcDbPolyline
 90
        2
 70
     0
 43
0.2
 10
303.7675300764
 20
31.986393579
 10
303.7675300764
 20
31.5456812746
  0
LWPOLYLINE
  5
257
330
224
100
AcDbEntity
  8
0
  6
Continuous
 62
     7
100
AcDbPolyline
 90
        2
 70
     0
 43
0.2
 10
303.7675300764
 20
31.5456812746
 10
303.6468837746
 20
31.5456812746
  0
LWPOLYLINE
  5
258
330
224
100
AcDbEntity
  8
0
  6
Continuous
 62
     7
100
AcDbPolyline
 90
        2
 70
     0
 43
0.2
 10
303.6468837746
 20
31.5456812746
 10
303.6468837746
 20
31.3389338159
  0
LWPOLYLINE
  5
259
330
224
100
AcDbEntity
  8
0
  6
Continuous
 62
     7
100
AcDbPolyline
 90
        2
 70
     0
 43
0.2
 10
303.6468837746
 20
31.3389338159
 10
303.7675300764
 20
31.3389338159
  0
LWPOLYLINE
  5
25A
330
224
100
AcDbEntity
  8
0
  6
Continuous
 62
     7
100
AcDbPolyline
 90
        2
 70
     0
 43
0.2
 10
303.7675300764
 20
31.3389338159
 10
303.7675300764
 20
30.3931296187
  0
LWPOLYLINE
  5
25B
330
224
100
AcDbEntity
  8
0
  6
Continuous
 62
     7
100
AcDbPolyline
 90
        2
 70
     0
 43
0.2
 10
303.7675300764
 20
30.3931296187
 10
303.9891947568
 20
30.3931296187
  0
LWPOLYLINE
  5
25C
330
224
100
AcDbEntity
  8
0
  6
Continuous
 62
     7
100
AcDbPolyline
 90
        2
 70
     0
 43
0.2
 10
303.9891947568
 20
30.3931296187
 10
303.9891947568
 20
31.3389338159
  0
SPLINE
  5
25D
330
224
100
AcDbEntity
  8
0
  6
Continuous
 62
     7
100
AcDbSpline
 70
     3
 71
     3
 72
    20
 73
    16
 74
     0
 42
0.000000001
 43
0.0000001
 40
0.0
 40
0.0
 40
0.0
 40
0.0
 40
1.0
 40
1.0
 40
1.0
 40
2.0
 40
2.0
 40
2.0
 40
3.0
 40
3.0
 40
3.0
 40
4.0
 40
4.0
 40
4.0
 40
5.0
 40
5.0
 40
5.0
 40
5.0
 10
291.7712050641
 20
40.7540560621
 30
0.0
 10
291.7712050641
 20
40.7540560621
 30
0.0
 10
294.0875617185
 20
37.9244946399
 30
0.0
 10
294.0875617185
 20
37.9244946399
 30
0.0
 10
293.4359146651
 20
37.2723241752
 30
0.0
 10
292.6590414611
 20
36.5364079044
 30
0.0
 10
291.6878518165
 20
36.5364079044
 30
0.0
 10
290.6893139321
 20
36.5364079044
 30
0.0
 10
289.7459959385
 20
37.4659863517
 30
0.0
 10
289.7459959385
 20
38.4651785002
 30
0.0
 10
289.7459959385
 20
39.4643706488
 30
0.0
 10
290.9248490116
 20
40.1709758874
 30
0.0
 10
291.6463714719
 20
40.6708336673
 30
0.0
 10
291.6463714719
 20
40.6708336673
 30
0.0
 10
291.7712050641
 20
40.7540560621
 30
0.0
 10
291.7712050641
 20
40.7540560621
 30
0.0
  0
SPLINE
  5
25E
330
224
100
AcDbEntity
  8
0
  6
Continuous
 62
     7
100
AcDbSpline
 70
     3
 71
     3
 72
    23
 73
    19
 74
     0
 42
0.000000001
 43
0.0000001
 40
0.0
 40
0.0
 40
0.0
 40
0.0
 40
1.0
 40
1.0
 40
1.0
 40
2.0
 40
2.0
 40
2.0
 40
3.0
 40
3.0
 40
3.0
 40
4.0
 40
4.0
 40
4.0
 40
5.0
 40
5.0
 40
5.0
 40
6.0
 40
6.0
 40
6.0
 40
6.0
 10
292.0486130466
 20
42.3918099818
 30
0.0
 10
292.0486130466
 20
42.3918099818
 30
0.0
 10
291.7021147741
 20
42.8351393427
 30
0.0
 10
291.7021147741
 20
42.8351393427
 30
0.0
 10
291.3963117291
 20
43.2232488126
 30
0.0
 10
291.077423402
 20
43.611750841
 30
0.0
 10
291.077423402
 20
44.1386951551
 30
0.0
 10
291.077423402
 20
44.8048668717
 30
0.0
 10
291.6187615265
 20
45.248588791
 30
0.0
 10
292.2426677816
 20
45.248588791
 30
0.0
 10
292.9364494437
 20
45.248588791
 30
0.0
 10
293.4636554634
 20
44.8463472163
 30
0.0
 10
293.4636554634
 20
44.1113469153
 30
0.0
 10
293.4636554634
 20
43.3480824048
 30
0.0
 10
292.7423947087
 20
42.917969179
 30
0.0
 10
292.2153195418
 20
42.5022497636
 30
0.0
 10
292.2153195418
 20
42.5022497636
 30
0.0
 10
292.0486130466
 20
42.3918099818
 30
0.0
 10
292.0486130466
 20
42.3918099818
 30
0.0
  0
SPLINE
  5
25F
330
224
100
AcDbEntity
  8
0
  6
Continuous
 62
     7
100
AcDbSpline
 70
     3
 71
     3
 72
    50
 73
    46
 74
     0
 42
0.000000001
 43
0.0000001
 40
0.0
 40
0.0
 40
0.0
 40
0.0
 40
1.0
 40
1.0
 40
1.0
 40
2.0
 40
2.0
 40
2.0
 40
3.0
 40
3.0
 40
3.0
 40
4.0
 40
4.0
 40
4.0
 40
5.0
 40
5.0
 40
5.0
 40
6.0
 40
6.0
 40
6.0
 40
7.0
 40
7.0
 40
7.0
 40
8.0
 40
8.0
 40
8.0
 40
9.0
 40
9.0
 40
9.0
 40
10.0
 40
10.0
 40
10.0
 40
11.0
 40
11.0
 40
11.0
 40
12.0
 40
12.0
 40
12.0
 40
13.0
 40
13.0
 40
13.0
 40
14.0
 40
14.0
 40
14.0
 40
15.0
 40
15.0
 40
15.0
 40
15.0
 10
296.0022002096
 20
35.5932207637
 30
0.0
 10
296.0022002096
 20
35.5932207637
 30
0.0
 10
297.6114282141
 20
35.5932207637
 30
0.0
 10
297.6114282141
 20
35.5932207637
 30
0.0
 10
297.6114282141
 20
35.5932207637
 30
0.0
 10
295.7384009205
 20
37.9103625351
 30
0.0
 10
295.7384009205
 20
37.9103625351
 30
0.0
 10
295.7384009205
 20
37.9103625351
 30
0.0
 10
297.014739346
 20
39.4078422297
 30
0.0
 10
297.014739346
 20
39.4078422297
 30
0.0
 10
297.014739346
 20
39.4078422297
 30
0.0
 10
296.1825153982
 20
40.2688537982
 30
0.0
 10
296.1825153982
 20
40.2688537982
 30
0.0
 10
296.1825153982
 20
40.2688537982
 30
0.0
 10
294.9619202749
 20
38.8535496758
 30
0.0
 10
294.9619202749
 20
38.8535496758
 30
0.0
 10
294.9619202749
 20
38.8535496758
 30
0.0
 10
292.7840059061
 20
41.4889255103
 30
0.0
 10
292.7840059061
 20
41.4889255103
 30
0.0
 10
293.6575793456
 20
42.1269638702
 30
0.0
 10
294.6842505867
 20
42.917969179
 30
0.0
 10
294.6842505867
 20
44.0968222521
 30
0.0
 10
294.6842505867
 20
45.4705151771
 30
0.0
 10
293.5463544469
 20
46.2749983266
 30
0.0
 10
292.271062844
 20
46.2749983266
 30
0.0
 10
290.8976316246
 20
46.2749983266
 30
0.0
 10
289.8566974259
 20
45.4287731269
 30
0.0
 10
289.8566974259
 20
43.9861207647
 30
0.0
 10
289.8566974259
 20
43.0985460733
 30
0.0
 10
290.4120368023
 20
42.3216728693
 30
0.0
 10
291.0082022592
 20
41.6972432028
 30
0.0
 10
291.0082022592
 20
41.6972432028
 30
0.0
 10
290.3562935001
 20
41.2256496325
 30
0.0
 10
290.3562935001
 20
41.2256496325
 30
0.0
 10
289.3577556157
 20
40.5043888778
 30
0.0
 10
288.5248774039
 20
39.7831281231
 30
0.0
 10
288.5248774039
 20
38.4515698068
 30
0.0
 10
288.5248774039
 20
36.6478945088
 30
0.0
 10
289.9819235765
 20
35.3712943776
 30
0.0
 10
291.7294630139
 20
35.3712943776
 30
0.0
 10
292.9643210948
 20
35.3712943776
 30
0.0
 10
294.0736913194
 20
36.0794698501
 30
0.0
 10
294.8645657754
 20
37.0080014748
 30
0.0
 10
294.8645657754
 20
37.0080014748
 30
0.0
 10
296.0022002096
 20
35.5932207637
 30
0.0
 10
296.0022002096
 20
35.5932207637
 30
0.0
  0
LINE
  5
260
330
224
100
AcDbEntity
  8
0
  6
Continuous
 62
     7
100
AcDbLine
 10
281.8050615846
 20
33.5670956684
 30
0.0
 11
304.2189723122
 21
33.5670956684
 31
0.0
  0
LINE
  5
261
330
224
100
AcDbEntity
  8
0
  6
Continuous
 62
     7
100
AcDbLine
 10
304.2189723122
 20
33.5670956684
 30
0.0
 11
304.2189723122
 21
55.981006396
 31
0.0
  0
LINE
  5
262
330
224
100
AcDbEntity
  8
0
  6
Continuous
 62
     7
100
AcDbLine
 10
304.2189723122
 20
55.981006396
 30
0.0
 11
281.8050615846
 21
55.981006396
 31
0.0
  0
LINE
  5
263
330
224
100
AcDbEntity
  8
0
  6
Continuous
 62
     7
100
AcDbLine
 10
281.8050615846
 20
55.981006396
 30
0.0
 11
281.8050615846
 21
33.5670956684
 31
0.0
  0
ENDBLK
  5
264
330
224
100
AcDbEntity
  8
0
  6
ByBlock
 62
     0
100
AcDbBlockEnd
  0
BLOCK
  5
265
330
225
100
AcDbEntity
  8
0
100
AcDbBlockBegin
  2
PROIEZIONE_EU_BL0
 70
     0
 10
294.1859044772
 20
68.482318896
 30
0.0
  3
PROIEZIONE_EU_BL0
  1

  0
LWPOLYLINE
  5
266
330
225
100
AcDbEntity
  8
DEFAULT_1
  6
CENTER
 62
     7
100
AcDbPolyline
 90
        2
 70
     0
 43
0.25
 10
300.3125251389
 20
73.4820130279
 10
300.3125661212
 20
63.4826247641
  0
LWPOLYLINE
  5
267
330
225
100
AcDbEntity
  8
DEFAULT_1
  6
CENTER
 62
     7
100
AcDbPolyline
 90
        2
 70
     0
 43
0.25
 10
306.3125549639
 20
68.4825900311
 10
282.0592539905
 20
68.4823193707
  0
LWPOLYLINE
  5
268
330
225
100
AcDbEntity
  8
0
  6
Continuous
 62
     7
100
AcDbPolyline
 90
        2
 70
     1
 43
0.25
 10
296.7654149631
 20
68.4637711418
 42
1.0
 10
303.8717440617
 20
68.4637711418
 42
1.0
  0
LWPOLYLINE
  5
269
330
225
100
AcDbEntity
  8
0
  6
Continuous
 62
     7
100
AcDbPolyline
 90
        2
 70
     1
 43
0.25
 10
298.3151587914
 20
68.4816691864
 42
1.0
 10
302.3269105415
 20
68.4816691864
 42
1.0
  0
LWPOLYLINE
  5
26A
330
225
100
AcDbEntity
  8
0
  6
Continuous
 62
     7
100
AcDbPolyline
 90
        2
 70
     0
 43
0.25
 10
294.3125527579
 20
72.0575223912
 10
294.3125524033
 20
64.9573194829
  0
LWPOLYLINE
  5
26B
330
225
100
AcDbEntity
  8
0
  6
Continuous
 62
     7
100
AcDbPolyline
 90
        2
 70
     0
 43
0.25
 10
294.3125808397
 20
64.9572910465
 10
284.3180235686
 20
66.4773844594
  0
LWPOLYLINE
  5
26C
330
225
100
AcDbEntity
  8
0
  6
Continuous
 62
     7
100
AcDbPolyline
 90
        2
 70
     0
 43
0.25
 10
284.3157135829
 20
66.4767069178
 10
284.3130466789
 20
70.4823455293
  0
LWPOLYLINE
  5
26D
330
225
100
AcDbEntity
  8
0
  6
Continuous
 62
     7
100
AcDbPolyline
 90
        2
 70
     0
 43
0.25
 10
284.3130384028
 20
70.4823372532
 10
294.3127816401
 20
72.0574944733
  0
ENDBLK
  5
26E
330
225
100
AcDbEntity
  8
0
  6
ByBlock
 62
     0
100
AcDbBlockEnd
  0
ENDSEC
  0
SECTION
  2
ENTITIES
  0
LINE
  5
291
330
1B
100
AcDbEntity
 67
     1
  8
0
  6
Continuous
 62
     7
100
AcDbLine
 10
0.0
 20
0.0
 30
0.0
 11
420.0
 21
0.0
 31
0.0
  0
LINE
  5
292
330
1B
100
AcDbEntity
 67
     1
  8
0
  6
Continuous
 62
     7
100
AcDbLine
 10
420.0
 20
0.0
 30
0.0
 11
420.0
 21
297.0
 31
0.0
  0
LINE
  5
293
330
1B
100
AcDbEntity
 67
     1
  8
0
  6
Continuous
 62
     7
100
AcDbLine
 10
0.0
 20
297.0
 30
0.0
 11
420.0
 21
297.0
 31
0.0
  0
LINE
  5
294
330
1B
100
AcDbEntity
 67
     1
  8
0
  6
Continuous
 62
     7
100
AcDbLine
 10
0.0
 20
0.0
 30
0.0
 11
0.0
 21
297.0
 31
0.0
  0
LWPOLYLINE
  5
295
330
1B
100
AcDbEntity
 67
     1
  8
0
  6
Continuous
 62
     7
100
AcDbPolyline
 90
        2
 70
     0
 43
0.5
 10
410.0
 20
10.0318435754
 10
410.0
 20
287.0
  0
LWPOLYLINE
  5
296
330
1B
100
AcDbEntity
 67
     1
  8
0
  6
Continuous
 62
     7
100
AcDbPolyline
 90
        2
 70
     0
 43
0.5
 10
10.0536312849
 20
10.0318435754
 10
10.0536312849
 20
287.0
  0
LWPOLYLINE
  5
297
330
1B
100
AcDbEntity
 67
     1
  8
0
  6
Continuous
 62
     7
100
AcDbPolyline
 90
        2
 70
     0
 43
0.5
 10
10.0536312849
 20
10.0318435754
 10
410.0
 20
10.0318435754
  0
LWPOLYLINE
  5
298
330
1B
100
AcDbEntity
 67
     1
  8
0
  6
Continuous
 62
     7
100
AcDbPolyline
 90
        2
 70
     0
 43
0.1
 10
210.0
 20
10.0
 10
210.0
 20
0.0
  0
LWPOLYLINE
  5
299
330
1B
100
AcDbEntity
 67
     1
  8
0
  6
Continuous
 62
     7
100
AcDbPolyline
 90
        2
 70
     0
 43
0.1
 10
210.0
 20
287.0
 10
210.0
 20
297.0
  0
LWPOLYLINE
  5
29A
330
1B
100
AcDbEntity
 67
     1
  8
0
  6
Continuous
 62
     7
100
AcDbPolyline
 90
        2
 70
     0
 43
0.1
 10
410.0
 20
148.5
 10
420.0
 20
148.5
  0
LWPOLYLINE
  5
29B
330
1B
100
AcDbEntity
 67
     1
  8
0
  6
Continuous
 62
     7
100
AcDbPolyline
 90
        2
 70
     0
 43
0.1
 10
10.0
 20
148.5
 10
0.0
 20
148.5
  0
LWPOLYLINE
  5
29C
330
1B
100
AcDbEntity
 67
     1
  8
0
  6
Continuous
 62
     7
100
AcDbPolyline
 90
        2
 70
     0
 43
0.5
 10
10.0536312849
 20
287.0
 10
410.0
 20
287.0
  0
LWPOLYLINE
  5
29D
330
1B
100
AcDbEntity
 67
     1
  8
0
  6
Continuous
 62
     7
100
AcDbPolyline
 90
        2
 70
     0
 43
0.1
 10
0.0
 20
290.0
 10
420.0
 20
290.0
  0
LWPOLYLINE
  5
29E
330
1B
100
AcDbEntity
 67
     1
  8
0
  6
Continuous
 62
     7
100
AcDbPolyline
 90
        2
 70
     0
 43
0.1
 10
7.0536312849
 20
0.0
 10
7.0536312849
 20
297.0
  0
LWPOLYLINE
  5
29F
330
1B
100
AcDbEntity
 67
     1
  8
0
  6
Continuous
 62
     7
100
AcDbPolyline
 90
        2
 70
     0
 43
0.1
 10
413.0
 20
0.0
 10
413.0
 20
297.0
  0
LWPOLYLINE
  5
2A0
330
1B
100
AcDbEntity
 67
     1
  8
0
  6
Continuous
 62
     7
100
AcDbPolyline
 90
        2
 70
     0
 43
0.1
 10
0.0
 20
7.0318435754
 10
420.0
 20
7.0318435754
  0
LWPOLYLINE
  5
2A1
330
1B
100
AcDbEntity
 67
     1
  8
0
  6
Continuous
 62
     7
100
AcDbPolyline
 90
        2
 70
     0
 43
0.1
 10
10.0
 20
202.9681564246
 10
0.0
 20
202.9681564246
  0
LINE
  5
2A2
330
1B
100
AcDbEntity
 67
     1
  8
0
  6
Continuous
 62
     7
100
AcDbLine
 10
0.0
 20
99.9681564246
 30
0.0
 11
7.0
 21
99.9681564246
 31
0.0
  0
LINE
  5
2A3
330
1B
100
AcDbEntity
 67
     1
  8
0
  6
Continuous
 62
     7
100
AcDbLine
 10
0.0
 20
199.9681564246
 30
0.0
 11
7.0
 21
199.9681564246
 31
0.0
  0
LWPOLYLINE
  5
2A4
330
1B
100
AcDbEntity
 67
     1
  8
0
  6
Continuous
 62
     7
100
AcDbPolyline
 90
        2
 70
     0
 43
0.1
 10
410.0
 20
210.0
 10
420.0
 20
210.0
  0
LINE
  5
2A5
330
1B
100
AcDbEntity
 67
     1
  8
0
  6
Continuous
 62
     7
100
AcDbLine
 10
413.0
 20
107.0
 30
0.0
 11
420.0
 21
107.0
 31
0.0
  0
LWPOLYLINE
  5
2A6
330
1B
100
AcDbEntity
 67
     1
  8
0
  6
Continuous
 62
     7
100
AcDbPolyline
 90
        2
 70
     0
 43
0.1
 10
123.0
 20
10.0
 10
123.0
 20
0.0
  0
LINE
  5
2A7
330
1B
100
AcDbEntity
 67
     1
  8
0
  6
Continuous
 62
     7
100
AcDbLine
 10
210.0
 20
0.0
 30
0.0
 11
210.0
 21
10.0
 31
0.0
  0
LINE
  5
2A8
330
1B
100
AcDbEntity
 67
     1
  8
0
  6
Continuous
 62
     7
100
AcDbLine
 10
313.0
 20
7.0
 30
0.0
 11
313.0
 21
0.0
 31
0.0
  0
LINE
  5
2A9
330
1B
100
AcDbEntity
 67
     1
  8
0
  6
Continuous
 62
     7
100
AcDbLine
 10
113.0
 20
7.0
 30
0.0
 11
113.0
 21
0.0
 31
0.0
  0
LWPOLYLINE
  5
2AA
330
1B
100
AcDbEntity
 67
     1
  8
0
  6
Continuous
 62
     7
100
AcDbPolyline
 90
        2
 70
     0
 43
0.1
 10
123.0
 20
287.0
 10
123.0
 20
297.0
  0
LINE
  5
2AB
330
1B
100
AcDbEntity
 67
     1
  8
0
  6
Continuous
 62
     7
100
AcDbLine
 10
210.0
 20
287.0
 30
0.0
 11
210.0
 21
297.0
 31
0.0
  0
LINE
  5
2AC
330
1B
100
AcDbEntity
 67
     1
  8
0
  6
Continuous
 62
     7
100
AcDbLine
 10
313.0
 20
297.0
 30
0.0
 11
313.0
 21
290.0
 31
0.0
  0
LINE
  5
2AD
330
1B
100
AcDbEntity
 67
     1
  8
0
  6
Continuous
 62
     7
100
AcDbLine
 10
113.0
 20
297.0
 30
0.0
 11
113.0
 21
290.0
 31
0.0
  0
MTEXT
  5
2AE
330
1B
100
AcDbEntity
 67
     1
  8
0
  6
Continuous
 62
     2
100
AcDbMText
 10
1.6467220993
 20
53.595027386
 30
0.0
 40
4.0
 41
3.4285714286
 46
0.0
 71
     1
 72
     1
  1
1
  7
TEXTSTYLE_2
 73
     1
 44
1.0
  0
MTEXT
  5
2AF
330
1B
100
AcDbEntity
 67
     1
  8
0
  6
Continuous
 62
     2
100
AcDbMText
 10
1.6467220993
 20
153.595027386
 30
0.0
 40
4.0
 41
4.7142857143
 46
0.0
 71
     1
 72
     1
  1
2
  7
TEXTSTYLE_2
 73
     1
 44
1.0
  0
MTEXT
  5
2B0
330
1B
100
AcDbEntity
 67
     1
  8
0
  6
Continuous
 62
     2
100
AcDbMText
 10
1.6467220993
 20
253.595027386
 30
0.0
 40
4.0
 41
4.2857142857
 46
0.0
 71
     1
 72
     1
  1
3
  7
TEXTSTYLE_2
 73
     1
 44
1.0
  0
MTEXT
  5
2B1
330
1B
100
AcDbEntity
 67
     1
  8
0
  6
Continuous
 62
     2
100
AcDbMText
 10
414.6467220993
 20
60.6268709614
 30
0.0
 40
4.0
 41
3.4285714286
 46
0.0
 71
     1
 72
     1
  1
1
  7
TEXTSTYLE_2
 73
     1
 44
1.0
  0
MTEXT
  5
2B2
330
1B
100
AcDbEntity
 67
     1
  8
0
  6
Continuous
 62
     2
100
AcDbMText
 10
414.6467220993
 20
160.6268709614
 30
0.0
 40
4.0
 41
4.7142857143
 46
0.0
 71
     1
 72
     1
  1
2
  7
TEXTSTYLE_2
 73
     1
 44
1.0
  0
MTEXT
  5
2B3
330
1B
100
AcDbEntity
 67
     1
  8
0
  6
Continuous
 62
     2
100
AcDbMText
 10
414.6467220993
 20
260.6268709614
 30
0.0
 40
4.0
 41
4.2857142857
 46
0.0
 71
     1
 72
     1
  1
3
  7
TEXTSTYLE_2
 73
     1
 44
1.0
  0
MTEXT
  5
2B4
330
1B
100
AcDbEntity
 67
     1
  8
0
  6
Continuous
 62
     2
100
AcDbMText
 10
362.154890719
 20
5.35876025
 30
0.0
 40
4.0
 41
3.6
 46
0.0
 71
     1
 72
     1
  1
A
  7
TEXTSTYLE_3
 73
     1
 44
1.0
  0
MTEXT
  5
2B5
330
1B
100
AcDbEntity
 67
     1
  8
0
  6
Continuous
 62
     2
100
AcDbMText
 10
262.154890719
 20
5.35876025
 30
0.0
 40
4.0
 41
3.6
 46
0.0
 71
     1
 72
     1
  1
B
  7
TEXTSTYLE_3
 73
     1
 44
1.0
  0
MTEXT
  5
2B6
330
1B
100
AcDbEntity
 67
     1
  8
0
  6
Continuous
 62
     2
100
AcDbMText
 10
162.154890719
 20
5.35876025
 30
0.0
 40
4.0
 41
3.6
 46
0.0
 71
     1
 72
     1
  1
C
  7
TEXTSTYLE_3
 73
     1
 44
1.0
  0
MTEXT
  5
2B7
330
1B
100
AcDbEntity
 67
     1
  8
0
  6
Continuous
 62
     2
100
AcDbMText
 10
55.7978688212
 20
5.5353441916
 30
0.0
 40
4.0
 41
3.6
 46
0.0
 71
     1
 72
     1
  1
D
  7
TEXTSTYLE_3
 73
     1
 44
1.0
  0
MTEXT
  5
2B8
330
1B
100
AcDbEntity
 67
     1
  8
0
  6
Continuous
 62
     2
100
AcDbMText
 10
362.154890719
 20
295.35876025
 30
0.0
 40
4.0
 41
3.6
 46
0.0
 71
     1
 72
     1
  1
A
  7
TEXTSTYLE_3
 73
     1
 44
1.0
  0
MTEXT
  5
2B9
330
1B
100
AcDbEntity
 67
     1
  8
0
  6
Continuous
 62
     2
100
AcDbMText
 10
262.154890719
 20
295.35876025
 30
0.0
 40
4.0
 41
3.6
 46
0.0
 71
     1
 72
     1
  1
B
  7
TEXTSTYLE_3
 73
     1
 44
1.0
  0
MTEXT
  5
2BA
330
1B
100
AcDbEntity
 67
     1
  8
0
  6
Continuous
 62
     2
100
AcDbMText
 10
162.154890719
 20
295.35876025
 30
0.0
 40
4.0
 41
3.6
 46
0.0
 71
     1
 72
     1
  1
C
  7
TEXTSTYLE_3
 73
     1
 44
1.0
  0
MTEXT
  5
2BB
330
1B
100
AcDbEntity
 67
     1
  8
0
  6
Continuous
 62
     2
100
AcDbMText
 10
53.9878834197
 20
295.579490177
 30
0.0
 40
4.0
 41
3.6
 46
0.0
 71
     1
 72
     1
  1
D
  7
TEXTSTYLE_3
 73
     1
 44
1.0
  0
VIEWPORT
  5
2BC
330
1B
100
AcDbEntity
 67
     1
  8
0
100
AcDbViewport
 10
0.0
 20
0.0
 30
0.0
 40
495.0770428015564
 41
350.0901945525292
 68
     1
 69
     1
 12
234.0175097276264
 22
148.5
 13
0.0
 23
0.0
 14
1.0
 24
1.0
 15
0.0
 25
0.0
 16
0.0
 26
0.0
 36
1.0
 17
0.0
 27
0.0
 37
0.0
 42
50.0
 43
0.0
 44
0.0
 45
350.0901945525292
 50
0.0
 51
0.0
 72
   100
 90
   557216
  1

281
     0
 71
     1
 74
     0
110
0.0
120
0.0
130
0.0
111
1.0
121
0.0
131
0.0
112
0.0
122
1.0
132
0.0
 79
     0
146
0.0
170
     0
 61
     5
348
434
292
     1
282
     1
141
0.0
142
0.0
 63
   256
  0
SPLINE
  5
2BD
330
1B
100
AcDbEntity
 67
     1
  8
0
  6
Continuous
 62
     2
100
AcDbSpline
 70
     0
 71
     3
 72
   252
 73
   248
 74
     0
 42
0.000000001
 43
0.0000001
 40
0.0
 40
0.0
 40
0.0
 40
0.0
 40
0.015625
 40
0.03125
 40
0.0390625
 40
0.046875
 40
0.05078125
 40
0.0546875
 40
0.05859375
 40
0.060546875
 40
0.0615234375
 40
0.0625
 40
0.0634765625
 40
0.064453125
 40
0.06640625
 40
0.0703125
 40
0.07421875
 40
0.078125
 40
0.0859375
 40
0.09375
 40
0.1015625
 40
0.109375
 40
0.11328125
 40
0.1171875
 40
0.12109375
 40
0.123046875
 40
0.1240234375
 40
0.125
 40
0.1259765625
 40
0.126953125
 40
0.12890625
 40
0.1328125
 40
0.13671875
 40
0.140625
 40
0.1484375
 40
0.15625
 40
0.1640625
 40
0.171875
 40
0.17578125
 40
0.1796875
 40
0.18359375
 40
0.185546875
 40
0.1865234375
 40
0.1875
 40
0.1884765625
 40
0.189453125
 40
0.19140625
 40
0.1953125
 40
0.19921875
 40
0.203125
 40
0.2109375
 40
0.21875
 40
0.2265625
 40
0.234375
 40
0.23828125
 40
0.2421875
 40
0.24609375
 40
0.248046875
 40
0.2490234375
 40
0.25
 40
0.2509765625
 40
0.251953125
 40
0.25390625
 40
0.2578125
 40
0.26171875
 40
0.265625
 40
0.2734375
 40
0.28125
 40
0.2890625
 40
0.296875
 40
0.30078125
 40
0.3046875
 40
0.30859375
 40
0.310546875
 40
0.3115234375
 40
0.3125
 40
0.3134765625
 40
0.314453125
 40
0.31640625
 40
0.3203125
 40
0.32421875
 40
0.328125
 40
0.3359375
 40
0.34375
 40
0.3515625
 40
0.359375
 40
0.36328125
 40
0.3671875
 40
0.37109375
 40
0.373046875
 40
0.3740234375
 40
0.375
 40
0.3759765625
 40
0.376953125
 40
0.37890625
 40
0.3828125
 40
0.38671875
 40
0.390625
 40
0.3984375
 40
0.40625
 40
0.4140625
 40
0.421875
 40
0.42578125
 40
0.4296875
 40
0.43359375
 40
0.435546875
 40
0.4365234375
 40
0.4375
 40
0.4384765625
 40
0.439453125
 40
0.44140625
 40
0.4453125
 40
0.44921875
 40
0.453125
 40
0.4609375
 40
0.46875
 40
0.4765625
 40
0.484375
 40
0.48828125
 40
0.4921875
 40
0.49609375
 40
0.498046875
 40
0.4990234375
 40
0.5
 40
0.5009765625
 40
0.501953125
 40
0.50390625
 40
0.5078125
 40
0.51171875
 40
0.515625
 40
0.5234375
 40
0.53125
 40
0.5390625
 40
0.546875
 40
0.55078125
 40
0.5546875
 40
0.55859375
 40
0.560546875
 40
0.5615234375
 40
0.5625
 40
0.5634765625
 40
0.564453125
 40
0.56640625
 40
0.5703125
 40
0.57421875
 40
0.578125
 40
0.5859375
 40
0.59375
 40
0.6015625
 40
0.609375
 40
0.61328125
 40
0.6171875
 40
0.62109375
 40
0.623046875
 40
0.6240234375
 40
0.625
 40
0.6259765625
 40
0.626953125
 40
0.62890625
 40
0.6328125
 40
0.63671875
 40
0.640625
 40
0.6484375
 40
0.65625
 40
0.6640625
 40
0.671875
 40
0.67578125
 40
0.6796875
 40
0.68359375
 40
0.685546875
 40
0.6865234375
 40
0.6875
 40
0.6884765625
 40
0.689453125
 40
0.69140625
 40
0.6953125
 40
0.69921875
 40
0.703125
 40
0.7109375
 40
0.71875
 40
0.7265625
 40
0.734375
 40
0.73828125
 40
0.7421875
 40
0.74609375
 40
0.748046875
 40
0.7490234375
 40
0.75
 40
0.7509765625
 40
0.751953125
 40
0.75390625
 40
0.7578125
 40
0.76171875
 40
0.765625
 40
0.7734375
 40
0.78125
 40
0.7890625
 40
0.796875
 40
0.80078125
 40
0.8046875
 40
0.80859375
 40
0.810546875
 40
0.8115234375
 40
0.8125
 40
0.8134765625
 40
0.814453125
 40
0.81640625
 40
0.8203125
 40
0.82421875
 40
0.828125
 40
0.8359375
 40
0.84375
 40
0.8515625
 40
0.859375
 40
0.86328125
 40
0.8671875
 40
0.87109375
 40
0.873046875
 40
0.8740234375
 40
0.875
 40
0.8759765625
 40
0.876953125
 40
0.87890625
 40
0.8828125
 40
0.88671875
 40
0.890625
 40
0.8984375
 40
0.90625
 40
0.9140625
 40
0.921875
 40
0.92578125
 40
0.9296875
 40
0.93359375
 40
0.935546875
 40
0.9365234375
 40
0.9375
 40
0.9384765625
 40
0.939453125
 40
0.94140625
 40
0.9453125
 40
0.94921875
 40
0.953125
 40
0.9609375
 40
0.96875
 40
0.9765625
 40
0.984375
 40
1.0
 40
1.0
 40
1.0
 40
1.0
 10
184.139088923
 20
90.9474832954
 30
0.0
 10
184.1714613149
 20
90.9444173108
 30
0.0
 10
184.2362060731
 20
90.9382852172
 30
0.0
 10
184.3171371485
 20
90.9306207229
 30
0.0
 10
184.3818817408
 20
90.9244878196
 30
0.0
 10
184.4223477173
 20
90.9206577132
 30
0.0
 10
184.4547191102
 20
90.9175868555
 30
0.0
 10
184.4790014561
 20
90.9153022552
 30
0.0
 10
184.4992246523
 20
90.9133394336
 30
0.0
 10
184.5134046198
 20
90.9120812208
 30
0.0
 10
184.5214704057
 20
90.9111814887
 30
0.0
 10
184.5276241231
 20
90.9110158747
 30
0.0
 10
184.5333788549
 20
90.908903897
 30
0.0
 10
184.5411910014
 20
90.9067668401
 30
0.0
 10
184.5547974155
 20
90.9027106722
 30
0.0
 10
184.5742690503
 20
90.8970815219
 30
0.0
 10
184.5976205009
 20
90.8902557536
 30
0.0
 10
184.6287608404
 20
90.8811794639
 30
0.0
 10
184.6676845021
 20
90.8698255618
 30
0.0
 10
184.7143937494
 20
90.8562047693
 30
0.0
 10
184.7611024039
 20
90.8425820803
 30
0.0
 10
184.8000275476
 20
90.8312329197
 30
0.0
 10
184.831164923
 20
90.8221471469
 30
0.0
 10
184.8545254142
 20
90.8153503022
 30
0.0
 10
184.8739687663
 20
90.809630667
 30
0.0
 10
184.8876256694
 20
90.8057360283
 30
0.0
 10
184.8953569199
 20
90.8033401612
 30
0.0
 10
184.901360138
 20
90.8020231656
 30
0.0
 10
184.9065805823
 20
90.7988717305
 30
0.0
 10
184.913814215
 20
90.7953096901
 30
0.0
 10
184.9263458577
 20
90.7887779906
 30
0.0
 10
184.9443147138
 20
90.7796028568
 30
0.0
 10
184.965848872
 20
90.768525979
 30
0.0
 10
184.9945710316
 20
90.753780121
 30
0.0
 10
185.0304702886
 20
90.7353397481
 30
0.0
 10
185.073550998
 20
90.7132149742
 30
0.0
 10
185.1166308113
 20
90.6910883866
 30
0.0
 10
185.1525323084
 20
90.6726525479
 30
0.0
 10
185.1812499878
 20
90.6578976216
 30
0.0
 10
185.2027978104
 20
90.6468484022
 30
0.0
 10
185.2207239185
 20
90.6375867413
 30
0.0
 10
185.2333318729
 20
90.6312095059
 30
0.0
 10
185.2404432351
 20
90.6273999754
 30
0.0
 10
185.2460392553
 20
90.6250087504
 30
0.0
 10
185.2506318727
 20
90.620836532
 30
0.0
 10
185.2571053608
 20
90.6158948045
 30
0.0
 10
185.2682708942
 20
90.6069573387
 30
0.0
 10
185.2843069118
 20
90.5943408547
 30
0.0
 10
185.3035136392
 20
90.5791363008
 30
0.0
 10
185.3291353634
 20
90.5588861937
 30
0.0
 10
185.361158096
 20
90.5335657566
 30
0.0
 10
185.3995874719
 20
90.5031847401
 30
0.0
 10
185.4380155372
 20
90.472802177
 30
0.0
 10
185.4700415463
 20
90.4474856065
 30
0.0
 10
185.4956567176
 20
90.4272277663
 30
0.0
 10
185.5148834311
 20
90.4120467985
 30
0.0
 10
185.5308569241
 20
90.3993565273
 30
0.0
 10
185.5421340734
 20
90.3905507828
 30
0.0
 10
185.5484287248
 20
90.3853980048
 30
0.0
 10
185.553570671
 20
90.3818740662
 30
0.0
 10
185.5571035035
 20
90.3770480099
 30
0.0
 10
185.5623752238
 20
90.3710674615
 30
0.0
 10
185.5713392249
 20
90.3603898846
 30
0.0
 10
185.5842816612
 20
90.3452468395
 30
0.0
 10
185.5997540622
 20
90.3270278283
 30
0.0
 10
185.6204043799
 20
90.3027523603
 30
0.0
 10
185.6462102111
 20
90.2724023158
 30
0.0
 10
185.6771804507
 20
90.2359848479
 30
0.0
 10
185.7081490269
 20
90.1995661731
 30
0.0
 10
185.7339590168
 20
90.1692191459
 30
0.0
 10
185.754601017
 20
90.1449376434
 30
0.0
 10
185.7700987864
 20
90.1267370375
 30
0.0
 10
185.78296186
 20
90.1115364128
 30
0.0
 10
185.7920675356
 20
90.1009616242
 30
0.0
 10
185.7971122579
 20
90.0948163833
 30
0.0
 10
185.8013423553
 20
90.0904962094
 30
0.0
 10
185.8038654902
 20
90.0850722606
 30
0.0
 10
185.8078250778
 20
90.078225338
 30
0.0
 10
185.8144769444
 20
90.0660638405
 30
0.0
 10
185.8241246454
 20
90.0487840562
 30
0.0
 10
185.8356398053
 20
90.0280081718
 30
0.0
 10
185.8510150454
 20
90.0003210184
 30
0.0
 10
185.8702265973
 20
89.9657072419
 30
0.0
 10
185.8932839107
 20
89.924172878
 30
0.0
 10
185.9163394165
 20
89.8826375779
 30
0.0
 10
185.9355554874
 20
89.8480261419
 30
0.0
 10
185.9509216894
 20
89.8203343074
 30
0.0
 10
185.9624644154
 20
89.7995727002
 30
0.0
 10
185.9720258781
 20
89.7822482509
 30
0.0
 10
185.9788316934
 20
89.7701664873
 30
0.0
 10
185.9825446166
 20
89.763191811
 30
0.0
 10
185.9858254252
 20
89.7581602803
 30
0.0
 10
185.9872098261
 20
89.7523662494
 30
0.0
 10
185.9897171823
 20
89.7449068435
 30
0.0
 10
185.9937968559
 20
89.7317289633
 30
0.0
 10
185.9997860918
 20
89.7129682071
 30
0.0
 10
186.0069042037
 20
89.6904275681
 30
0.0
 10
186.0164191203
 20
89.6603830721
 30
0.0
 10
186.0283044385
 20
89.6228241108
 30
0.0
 10
186.0425706416
 20
89.5777548614
 30
0.0
 10
186.0568348835
 20
89.5326849416
 30
0.0
 10
186.0687251049
 20
89.4951276565
 30
0.0
 10
186.0782302151
 20
89.4650798082
 30
0.0
 10
186.0853782366
 20
89.4425493937
 30
0.0
 10
186.0912739028
 20
89.423756651
 30
0.0
 10
186.0955206125
 20
89.4106358716
 30
0.0
 10
186.0977603351
 20
89.403084976
 30
0.0
 10
186.0999668207
 20
89.3975719717
 30
0.0
 10
186.1001600158
 20
89.3914849518
 30
0.0
 10
186.1011198675
 20
89.3835691482
 30
0.0
 10
186.1024724128
 20
89.3696232044
 30
0.0
 10
186.1045756823
 20
89.3497491993
 30
0.0
 10
186.1070263835
 20
89.3258795173
 30
0.0
 10
186.1103195712
 20
89.2940605662
 30
0.0
 10
186.1144272162
 20
89.2542843803
 30
0.0
 10
186.1193604408
 20
89.2065540057
 30
0.0
 10
186.1242916065
 20
89.1588234326
 30
0.0
 10
186.1284043988
 20
89.1190477429
 30
0.0
 10
186.1316872919
 20
89.0872277993
 30
0.0
 10
186.1341693916
 20
89.0633611445
 30
0.0
 10
186.1361744335
 20
89.0434776691
 30
0.0
 10
186.13770233
 20
89.0295486313
 30
0.0
 10
186.1383812253
 20
89.0216057401
 30
0.0
 10
186.1394374283
 20
89.0156019247
 30
0.0
 10
186.1384025997
 20
89.0097764181
 30
0.0
 10
186.1377522035
 20
89.0019468798
 30
0.0
 10
186.1362741807
 20
88.9882741662
 30
0.0
 10
186.1343403868
 20
88.9687265679
 30
0.0
 10
186.1319437846
 20
88.9452759351
 30
0.0
 10
186.1287748884
 20
88.9140061578
 30
0.0
 10
186.124804592
 20
88.874919725
 30
0.0
 10
186.1200444217
 20
88.8280156195
 30
0.0
 10
186.1152821916
 20
88.7811117967
 30
0.0
 10
186.1113170446
 20
88.742024657
 30
0.0
 10
186.1081378495
 20
88.7107562936
 30
0.0
 10
186.1057726591
 20
88.6873013484
 30
0.0
 10
186.1037405961
 20
88.667767241
 30
0.0
 10
186.1024379985
 20
88.6540704441
 30
0.0
 10
186.1015065272
 20
88.6462794932
 30
0.0
 10
186.1013350711
 20
88.6403354587
 30
0.0
 10
186.0991485908
 20
88.6347768145
 30
0.0
 10
186.0969361467
 20
88.6272308605
 30
0.0
 10
186.0927368927
 20
88.6140880737
 30
0.0
 10
186.0869091675
 20
88.5952799188
 30
0.0
 10
186.0798426122
 20
88.5727241496
 30
0.0
 10
186.0704461456
 20
88.5426448914
 30
0.0
 10
186.0586917212
 20
88.5050475213
 30
0.0
 10
186.0445904392
 20
88.459929853
 30
0.0
 10
186.0304871938
 20
88.4148127573
 30
0.0
 10
186.0187376781
 20
88.3772139557
 30
0.0
 10
186.009331394
 20
88.3471375606
 30
0.0
 10
186.0022947825
 20
88.3245730589
 30
0.0
 10
185.9963733805
 20
88.3057922229
 30
0.0
 10
185.9923413538
 20
88.2926006676
 30
0.0
 10
185.9898609696
 20
88.285132853
 30
0.0
 10
185.9884975155
 20
88.2793341896
 30
0.0
 10
185.9852349098
 20
88.2742916276
 30
0.0
 10
185.9815472142
 20
88.267304475
 30
0.0
 10
185.9747851013
 20
88.2551998377
 30
0.0
 10
185.9652863038
 20
88.2378432555
 30
0.0
 10
185.9538186761
 20
88.217042856
 30
0.0
 10
185.9385526406
 20
88.1892993802
 30
0.0
 10
185.9194617617
 20
88.1546233608
 30
0.0
 10
185.8965565103
 20
88.1130105909
 30
0.0
 10
185.8736493812
 20
88.0713986866
 30
0.0
 10
185.8545631965
 20
88.0367205034
 30
0.0
 10
185.8392877728
 20
88.0089813551
 30
0.0
 10
185.8278487791
 20
87.9881677568
 30
0.0
 10
185.8182604022
 20
87.970852466
 30
0.0
 10
185.8116582022
 20
87.9586741172
 30
0.0
 10
185.8077142861
 20
87.9518050689
 30
0.0
 10
185.8052387078
 20
87.9463997284
 30
0.0
 10
185.8009193095
 20
87.9419636006
 30
0.0
 10
185.7958032568
 20
87.9357106913
 30
0.0
 10
185.7865505113
 20
87.9249256143
 30
0.0
 10
185.7734889659
 20
87.9094360107
 30
0.0
 10
185.7577480534
 20
87.8908837367
 30
0.0
 10
185.7367835999
 20
87.8661350516
 30
0.0
 10
185.7105699545
 20
87.8352034671
 30
0.0
 10
185.6791172118
 20
87.7980835405
 30
0.0
 10
185.6476628679
 20
87.7609648797
 30
0.0
 10
185.6214532255
 20
87.7300301305
 30
0.0
 10
185.600480766
 20
87.7052877749
 30
0.0
 10
185.5847642716
 20
87.6867161958
 30
0.0
 10
185.5716263362
 20
87.6712869864
 30
0.0
 10
185.5625099587
 20
87.6603940966
 30
0.0
 10
185.5571754103
 20
87.6543139303
 30
0.0
 10
185.5535271606
 20
87.6493471916
 30
0.0
 10
185.5485308595
 20
87.6459347374
 30
0.0
 10
185.5423393402
 20
87.6408426467
 30
0.0
 10
185.5312850992
 20
87.6321840865
 30
0.0
 10
185.5156078652
 20
87.6196826531
 30
0.0
 10
185.4967461569
 20
87.6047374613
 30
0.0
 10
185.4716143432
 20
87.5847907861
 30
0.0
 10
185.440193665
 20
87.5598642673
 30
0.0
 10
185.402491528
 20
87.529949313
 30
0.0
 10
185.3647881414
 20
87.5000359655
 30
0.0
 10
185.333370587
 20
87.4751054297
 30
0.0
 10
185.3082325258
 20
87.4551667885
 30
0.0
 10
185.2893898721
 20
87.4401970928
 30
0.0
 10
185.2736530275
 20
87.4277723178
 30
0.0
 10
185.2627052006
 20
87.4189769106
 30
0.0
 10
185.2563431791
 20
87.4141040831
 30
0.0
 10
185.251870606
 20
87.4100181227
 30
0.0
 10
185.246255321
 20
87.4075809615
 30
0.0
 10
185.2391668651
 20
87.4037562937
 30
0.0
 10
185.2265763564
 20
87.3973310839
 30
0.0
 10
185.2086870074
 20
87.3880121203
 30
0.0
 10
185.1871782292
 20
87.37688933
 30
0.0
 10
185.1585143787
 20
87.3620379885
 30
0.0
 10
185.1226795603
 20
87.3434810544
 30
0.0
 10
185.0796800227
 20
87.3212093999
 30
0.0
 10
185.0366795159
 20
87.2989394914
 30
0.0
 10
185.0008471206
 20
87.2803781922
 30
0.0
 10
184.972178424
 20
87.2655355809
 30
0.0
 10
184.9506844266
 20
87.2543861636
 30
0.0
 10
184.9327488369
 20
87.2451505
 30
0.0
 10
184.9202408748
 20
87.2385765872
 30
0.0
 10
184.9130201586
 20
87.2349901788
 30
0.0
 10
184.9078111347
 20
87.231821161
 30
0.0
 10
184.9018127125
 20
87.2304839324
 30
0.0
 10
184.8940901672
 20
87.2280620123
 30
0.0
 10
184.8804474218
 20
87.2241213502
 30
0.0
 10
184.8610248577
 20
87.2183361926
 30
0.0
 10
184.8376890711
 20
87.2114606244
 30
0.0
 10
184.8065847201
 20
87.2022699207
 30
0.0
 10
184.7677008221
 20
87.190789585
 30
0.0
 10
184.7210417018
 20
87.1770094909
 30
0.0
 10
184.6743818873
 20
87.1632312913
 30
0.0
 10
184.6354997246
 20
87.1517462194
 30
0.0
 10
184.604391903
 20
87.142564988
 30
0.0
 10
184.5810667016
 20
87.1356605294
 30
0.0
 10
184.5616110226
 20
87.1299657531
 30
0.0
 10
184.5480273923
 20
87.1258637466
 30
0.0
 10
184.5402101298
 20
87.1237003407
 30
0.0
 10
184.5345026487
 20
87.1215690392
 30
0.0
 10
184.5282008982
 20
87.1213824271
 30
0.0
 10
184.520005852
 20
87.1204552815
 30
0.0
 10
184.505567942
 20
87.119148823
 30
0.0
 10
184.4849928489
 20
87.1171172211
 30
0.0
 10
184.4602811247
 20
87.1147500241
 30
0.0
 10
184.4273397086
 20
87.1115690559
 30
0.0
 10
184.3861603478
 20
87.1076013234
 30
0.0
 10
184.3367462255
 20
87.1028364101
 30
0.0
 10
184.287331806
 20
87.0980724693
 30
0.0
 10
184.2214460176
 20
87.0917202071
 30
0.0
 10
184.1720316528
 20
87.0869560872
 30
0.0
 10
184.1390887482
 20
87.0837799902
 30
0.0
  0
SPLINE
  5
2BE
330
1B
100
AcDbEntity
 67
     1
  8
0
  6
Continuous
 62
     2
100
AcDbSpline
 70
     0
 71
     3
 72
   252
 73
   248
 74
     0
 42
0.000000001
 43
0.0000001
 40
0.0
 40
0.0
 40
0.0
 40
0.0
 40
0.015625
 40
0.03125
 40
0.0390625
 40
0.046875
 40
0.05078125
 40
0.0546875
 40
0.05859375
 40
0.060546875
 40
0.0615234375
 40
0.0625
 40
0.0634765625
 40
0.064453125
 40
0.06640625
 40
0.0703125
 40
0.07421875
 40
0.078125
 40
0.0859375
 40
0.09375
 40
0.1015625
 40
0.109375
 40
0.11328125
 40
0.1171875
 40
0.12109375
 40
0.123046875
 40
0.1240234375
 40
0.125
 40
0.1259765625
 40
0.126953125
 40
0.12890625
 40
0.1328125
 40
0.13671875
 40
0.140625
 40
0.1484375
 40
0.15625
 40
0.1640625
 40
0.171875
 40
0.17578125
 40
0.1796875
 40
0.18359375
 40
0.185546875
 40
0.1865234375
 40
0.1875
 40
0.1884765625
 40
0.189453125
 40
0.19140625
 40
0.1953125
 40
0.19921875
 40
0.203125
 40
0.2109375
 40
0.21875
 40
0.2265625
 40
0.234375
 40
0.23828125
 40
0.2421875
 40
0.24609375
 40
0.248046875
 40
0.2490234375
 40
0.25
 40
0.2509765625
 40
0.251953125
 40
0.25390625
 40
0.2578125
 40
0.26171875
 40
0.265625
 40
0.2734375
 40
0.28125
 40
0.2890625
 40
0.296875
 40
0.30078125
 40
0.3046875
 40
0.30859375
 40
0.310546875
 40
0.3115234375
 40
0.3125
 40
0.3134765625
 40
0.314453125
 40
0.31640625
 40
0.3203125
 40
0.32421875
 40
0.328125
 40
0.3359375
 40
0.34375
 40
0.3515625
 40
0.359375
 40
0.36328125
 40
0.3671875
 40
0.37109375
 40
0.373046875
 40
0.3740234375
 40
0.375
 40
0.3759765625
 40
0.376953125
 40
0.37890625
 40
0.3828125
 40
0.38671875
 40
0.390625
 40
0.3984375
 40
0.40625
 40
0.4140625
 40
0.421875
 40
0.42578125
 40
0.4296875
 40
0.43359375
 40
0.435546875
 40
0.4365234375
 40
0.4375
 40
0.4384765625
 40
0.439453125
 40
0.44140625
 40
0.4453125
 40
0.44921875
 40
0.453125
 40
0.4609375
 40
0.46875
 40
0.4765625
 40
0.484375
 40
0.48828125
 40
0.4921875
 40
0.49609375
 40
0.498046875
 40
0.4990234375
 40
0.5
 40
0.5009765625
 40
0.501953125
 40
0.50390625
 40
0.5078125
 40
0.51171875
 40
0.515625
 40
0.5234375
 40
0.53125
 40
0.5390625
 40
0.546875
 40
0.55078125
 40
0.5546875
 40
0.55859375
 40
0.560546875
 40
0.5615234375
 40
0.5625
 40
0.5634765625
 40
0.564453125
 40
0.56640625
 40
0.5703125
 40
0.57421875
 40
0.578125
 40
0.5859375
 40
0.59375
 40
0.6015625
 40
0.609375
 40
0.61328125
 40
0.6171875
 40
0.62109375
 40
0.623046875
 40
0.6240234375
 40
0.625
 40
0.6259765625
 40
0.626953125
 40
0.62890625
 40
0.6328125
 40
0.63671875
 40
0.640625
 40
0.6484375
 40
0.65625
 40
0.6640625
 40
0.671875
 40
0.67578125
 40
0.6796875
 40
0.68359375
 40
0.685546875
 40
0.6865234375
 40
0.6875
 40
0.6884765625
 40
0.689453125
 40
0.69140625
 40
0.6953125
 40
0.69921875
 40
0.703125
 40
0.7109375
 40
0.71875
 40
0.7265625
 40
0.734375
 40
0.73828125
 40
0.7421875
 40
0.74609375
 40
0.748046875
 40
0.7490234375
 40
0.75
 40
0.7509765625
 40
0.751953125
 40
0.75390625
 40
0.7578125
 40
0.76171875
 40
0.765625
 40
0.7734375
 40
0.78125
 40
0.7890625
 40
0.796875
 40
0.80078125
 40
0.8046875
 40
0.80859375
 40
0.810546875
 40
0.8115234375
 40
0.8125
 40
0.8134765625
 40
0.814453125
 40
0.81640625
 40
0.8203125
 40
0.82421875
 40
0.828125
 40
0.8359375
 40
0.84375
 40
0.8515625
 40
0.859375
 40
0.86328125
 40
0.8671875
 40
0.87109375
 40
0.873046875
 40
0.8740234375
 40
0.875
 40
0.8759765625
 40
0.876953125
 40
0.87890625
 40
0.8828125
 40
0.88671875
 40
0.890625
 40
0.8984375
 40
0.90625
 40
0.9140625
 40
0.921875
 40
0.92578125
 40
0.9296875
 40
0.93359375
 40
0.935546875
 40
0.9365234375
 40
0.9375
 40
0.9384765625
 40
0.939453125
 40
0.94140625
 40
0.9453125
 40
0.94921875
 40
0.953125
 40
0.9609375
 40
0.96875
 40
0.9765625
 40
0.984375
 40
1.0
 40
1.0
 40
1.0
 40
1.0
 10
184.139088923
 20
87.0837799902
 30
0.0
 10
184.1067165312
 20
87.0868459748
 30
0.0
 10
184.041971773
 20
87.0929780684
 30
0.0
 10
183.9610406975
 20
87.1006425627
 30
0.0
 10
183.8962961053
 20
87.106775466
 30
0.0
 10
183.8558301287
 20
87.1106055724
 30
0.0
 10
183.8234587358
 20
87.1136764301
 30
0.0
 10
183.79917639
 20
87.1159610304
 30
0.0
 10
183.7789531938
 20
87.117923852
 30
0.0
 10
183.7647732263
 20
87.1191820648
 30
0.0
 10
183.7567074404
 20
87.1200817969
 30
0.0
 10
183.750553723
 20
87.1202474109
 30
0.0
 10
183.7447989911
 20
87.1223593886
 30
0.0
 10
183.7369868447
 20
87.1244964455
 30
0.0
 10
183.7233804306
 20
87.1285526134
 30
0.0
 10
183.7039087958
 20
87.1341817637
 30
0.0
 10
183.6805573452
 20
87.141007532
 30
0.0
 10
183.6494170056
 20
87.1500838217
 30
0.0
 10
183.610493344
 20
87.1614377238
 30
0.0
 10
183.5637840967
 20
87.1750585163
 30
0.0
 10
183.5170754422
 20
87.1886812053
 30
0.0
 10
183.4781502985
 20
87.2000303659
 30
0.0
 10
183.447012923
 20
87.2091161387
 30
0.0
 10
183.4236524318
 20
87.2159129834
 30
0.0
 10
183.4042090797
 20
87.2216326186
 30
0.0
 10
183.3905521767
 20
87.2255272573
 30
0.0
 10
183.3828209261
 20
87.2279231244
 30
0.0
 10
183.376817708
 20
87.22924012
 30
0.0
 10
183.3715972637
 20
87.2323915551
 30
0.0
 10
183.364363631
 20
87.2359535955
 30
0.0
 10
183.3518319883
 20
87.242485295
 30
0.0
 10
183.3338631322
 20
87.2516604288
 30
0.0
 10
183.3123289741
 20
87.2627373066
 30
0.0
 10
183.2836068145
 20
87.2774831646
 30
0.0
 10
183.2477075575
 20
87.2959235375
 30
0.0
 10
183.2046268481
 20
87.3180483114
 30
0.0
 10
183.1615470347
 20
87.340174899
 30
0.0
 10
183.1256455377
 20
87.3586107377
 30
0.0
 10
183.0969278582
 20
87.373365664
 30
0.0
 10
183.0753800356
 20
87.3844148834
 30
0.0
 10
183.0574539275
 20
87.3936765443
 30
0.0
 10
183.0448459731
 20
87.4000537797
 30
0.0
 10
183.037734611
 20
87.4038633102
 30
0.0
 10
183.0321385907
 20
87.4062545352
 30
0.0
 10
183.0275459733
 20
87.4104267536
 30
0.0
 10
183.0210724853
 20
87.4153684811
 30
0.0
 10
183.0099069518
 20
87.4243059469
 30
0.0
 10
182.9938709343
 20
87.4369224309
 30
0.0
 10
182.9746642068
 20
87.4521269848
 30
0.0
 10
182.9490424827
 20
87.4723770919
 30
0.0
 10
182.91701975
 20
87.4976975289
 30
0.0
 10
182.8785903742
 20
87.5280785455
 30
0.0
 10
182.8401623089
 20
87.5584611086
 30
0.0
 10
182.8081362998
 20
87.5837776791
 30
0.0
 10
182.7825211285
 20
87.6040355193
 30
0.0
 10
182.763294415
 20
87.6192164871
 30
0.0
 10
182.747320922
 20
87.6319067583
 30
0.0
 10
182.7360437727
 20
87.6407125028
 30
0.0
 10
182.7297491213
 20
87.6458652808
 30
0.0
 10
182.724607175
 20
87.6493892194
 30
0.0
 10
182.7210743425
 20
87.6542152757
 30
0.0
 10
182.7158026223
 20
87.6601958241
 30
0.0
 10
182.7068386212
 20
87.670873401
 30
0.0
 10
182.6938961849
 20
87.6860164461
 30
0.0
 10
182.6784237838
 20
87.7042354573
 30
0.0
 10
182.6577734661
 20
87.7285109253
 30
0.0
 10
182.631967635
 20
87.7588609698
 30
0.0
 10
182.6009973953
 20
87.7952784377
 30
0.0
 10
182.5700288192
 20
87.8316971125
 30
0.0
 10
182.5442188293
 20
87.8620441397
 30
0.0
 10
182.523576829
 20
87.8863256422
 30
0.0
 10
182.5080790597
 20
87.9045262481
 30
0.0
 10
182.495215986
 20
87.9197268727
 30
0.0
 10
182.4861103105
 20
87.9303016614
 30
0.0
 10
182.4810655882
 20
87.9364469023
 30
0.0
 10
182.4768354907
 20
87.9407670762
 30
0.0
 10
182.4743123558
 20
87.946191025
 30
0.0
 10
182.4703527683
 20
87.9530379476
 30
0.0
 10
182.4637009016
 20
87.9651994451
 30
0.0
 10
182.4540532006
 20
87.9824792294
 30
0.0
 10
182.4425380407
 20
88.0032551138
 30
0.0
 10
182.4271628007
 20
88.0309422672
 30
0.0
 10
182.4079512488
 20
88.0655560437
 30
0.0
 10
182.3848939354
 20
88.1070904076
 30
0.0
 10
182.3618384296
 20
88.1486257077
 30
0.0
 10
182.3426223587
 20
88.1832371437
 30
0.0
 10
182.3272561567
 20
88.2109289782
 30
0.0
 10
182.3157134306
 20
88.2316905854
 30
0.0
 10
182.306151968
 20
88.2490150347
 30
0.0
 10
182.2993461527
 20
88.2610967983
 30
0.0
 10
182.2956332295
 20
88.2680714746
 30
0.0
 10
182.2923524209
 20
88.2731030053
 30
0.0
 10
182.2909680199
 20
88.2788970362
 30
0.0
 10
182.2884606637
 20
88.2863564421
 30
0.0
 10
182.2843809901
 20
88.2995343223
 30
0.0
 10
182.2783917542
 20
88.3182950785
 30
0.0
 10
182.2712736423
 20
88.3408357175
 30
0.0
 10
182.2617587257
 20
88.3708802135
 30
0.0
 10
182.2498734076
 20
88.4084391748
 30
0.0
 10
182.2356072044
 20
88.4535084241
 30
0.0
 10
182.2213429625
 20
88.498578344
 30
0.0
 10
182.2094527412
 20
88.5361356291
 30
0.0
 10
182.199947631
 20
88.5661834774
 30
0.0
 10
182.1927996095
 20
88.5887138919
 30
0.0
 10
182.1869039432
 20
88.6075066346
 30
0.0
 10
182.1826572335
 20
88.620627414
 30
0.0
 10
182.180417511
 20
88.6281783096
 30
0.0
 10
182.1782110254
 20
88.6336913139
 30
0.0
 10
182.1780178303
 20
88.6397783338
 30
0.0
 10
182.1770579785
 20
88.6476941374
 30
0.0
 10
182.1757054332
 20
88.6616400812
 30
0.0
 10
182.1736021638
 20
88.6815140863
 30
0.0
 10
182.1711514625
 20
88.7053837683
 30
0.0
 10
182.1678582749
 20
88.7372027194
 30
0.0
 10
182.1637506298
 20
88.7769789053
 30
0.0
 10
182.1588174053
 20
88.8247092799
 30
0.0
 10
182.1538862396
 20
88.872439853
 30
0.0
 10
182.1497734472
 20
88.9122155427
 30
0.0
 10
182.1464905542
 20
88.9440354863
 30
0.0
 10
182.1440084545
 20
88.9679021411
 30
0.0
 10
182.1420034125
 20
88.9877856165
 30
0.0
 10
182.1404755161
 20
89.0017146543
 30
0.0
 10
182.1397966207
 20
89.0096575455
 30
0.0
 10
182.1387404178
 20
89.0156613609
 30
0.0
 10
182.1397752463
 20
89.0214868675
 30
0.0
 10
182.1404256425
 20
89.0293164058
 30
0.0
 10
182.1419036653
 20
89.0429891194
 30
0.0
 10
182.1438374593
 20
89.0625367177
 30
0.0
 10
182.1462340614
 20
89.0859873505
 30
0.0
 10
182.1494029577
 20
89.1172571278
 30
0.0
 10
182.1533732541
 20
89.1563435606
 30
0.0
 10
182.1581334244
 20
89.2032476661
 30
0.0
 10
182.1628956545
 20
89.2501514889
 30
0.0
 10
182.1668608014
 20
89.2892386286
 30
0.0
 10
182.1700399966
 20
89.320506992
 30
0.0
 10
182.172405187
 20
89.3439619372
 30
0.0
 10
182.1744372499
 20
89.3634960446
 30
0.0
 10
182.1757398476
 20
89.3771928415
 30
0.0
 10
182.1766713188
 20
89.3849837924
 30
0.0
 10
182.176842775
 20
89.3909278269
 30
0.0
 10
182.1790292553
 20
89.3964864711
 30
0.0
 10
182.1812416993
 20
89.4040324251
 30
0.0
 10
182.1854409534
 20
89.4171752119
 30
0.0
 10
182.1912686786
 20
89.4359833668
 30
0.0
 10
182.1983352339
 20
89.458539136
 30
0.0
 10
182.2077317004
 20
89.4886183942
 30
0.0
 10
182.2194861249
 20
89.5262157643
 30
0.0
 10
182.2335874068
 20
89.5713334326
 30
0.0
 10
182.2476906523
 20
89.6164505283
 30
0.0
 10
182.2594401679
 20
89.6540493299
 30
0.0
 10
182.2688464521
 20
89.684125725
 30
0.0
 10
182.2758830635
 20
89.7066902267
 30
0.0
 10
182.2818044656
 20
89.7254710627
 30
0.0
 10
182.2858364922
 20
89.738662618
 30
0.0
 10
182.2883168764
 20
89.7461304326
 30
0.0
 10
182.2896803305
 20
89.751929096
 30
0.0
 10
182.2929429363
 20
89.756971658
 30
0.0
 10
182.2966306318
 20
89.7639588106
 30
0.0
 10
182.3033927448
 20
89.7760634479
 30
0.0
 10
182.3128915422
 20
89.7934200301
 30
0.0
 10
182.32435917
 20
89.8142204296
 30
0.0
 10
182.3396252055
 20
89.8419639054
 30
0.0
 10
182.3587160843
 20
89.8766399248
 30
0.0
 10
182.3816213358
 20
89.9182526947
 30
0.0
 10
182.4045284648
 20
89.959864599
 30
0.0
 10
182.4236146496
 20
89.9945427822
 30
0.0
 10
182.4388900733
 20
90.0222819305
 30
0.0
 10
182.450329067
 20
90.0430955288
 30
0.0
 10
182.4599174438
 20
90.0604108196
 30
0.0
 10
182.4665196438
 20
90.0725891684
 30
0.0
 10
182.47046356
 20
90.0794582167
 30
0.0
 10
182.4729391383
 20
90.0848635572
 30
0.0
 10
182.4772585366
 20
90.089299685
 30
0.0
 10
182.4823745893
 20
90.0955525943
 30
0.0
 10
182.4916273348
 20
90.1063376713
 30
0.0
 10
182.5046888801
 20
90.1218272749
 30
0.0
 10
182.5204297927
 20
90.1403795489
 30
0.0
 10
182.5413942462
 20
90.165128234
 30
0.0
 10
182.5676078915
 20
90.1960598185
 30
0.0
 10
182.5990606343
 20
90.2331797451
 30
0.0
 10
182.6305149782
 20
90.2702984059
 30
0.0
 10
182.6567246206
 20
90.3012331551
 30
0.0
 10
182.67769708
 20
90.3259755107
 30
0.0
 10
182.6934135744
 20
90.3445470898
 30
0.0
 10
182.7065515099
 20
90.3599762992
 30
0.0
 10
182.7156678874
 20
90.370869189
 30
0.0
 10
182.7210024357
 20
90.3769493553
 30
0.0
 10
182.7246506854
 20
90.381916094
 30
0.0
 10
182.7296469865
 20
90.3853285482
 30
0.0
 10
182.7358385059
 20
90.3904206389
 30
0.0
 10
182.7468927469
 20
90.3990791991
 30
0.0
 10
182.7625699808
 20
90.4115806325
 30
0.0
 10
182.7814316891
 20
90.4265258243
 30
0.0
 10
182.8065635029
 20
90.4464724995
 30
0.0
 10
182.837984181
 20
90.4713990183
 30
0.0
 10
182.8756863181
 20
90.5013139726
 30
0.0
 10
182.9133897046
 20
90.5312273201
 30
0.0
 10
182.9448072591
 20
90.5561578559
 30
0.0
 10
182.9699453203
 20
90.5760964971
 30
0.0
 10
182.988787974
 20
90.5910661928
 30
0.0
 10
183.0045248186
 20
90.6034909678
 30
0.0
 10
183.0154726454
 20
90.612286375
 30
0.0
 10
183.0218346669
 20
90.6171592025
 30
0.0
 10
183.0263072401
 20
90.6212451629
 30
0.0
 10
183.031922525
 20
90.6236823241
 30
0.0
 10
183.0390109809
 20
90.6275069919
 30
0.0
 10
183.0516014896
 20
90.6339322017
 30
0.0
 10
183.0694908387
 20
90.6432511653
 30
0.0
 10
183.0909996169
 20
90.6543739556
 30
0.0
 10
183.1196634674
 20
90.6692252971
 30
0.0
 10
183.1554982857
 20
90.6877822312
 30
0.0
 10
183.1984978233
 20
90.7100538857
 30
0.0
 10
183.2414983302
 20
90.7323237942
 30
0.0
 10
183.2773307254
 20
90.7508850934
 30
0.0
 10
183.3059994221
 20
90.7657277047
 30
0.0
 10
183.3274934195
 20
90.7768771219
 30
0.0
 10
183.3454290091
 20
90.7861127856
 30
0.0
 10
183.3579369713
 20
90.7926866984
 30
0.0
 10
183.3651576874
 20
90.7962731068
 30
0.0
 10
183.3703667113
 20
90.7994421246
 30
0.0
 10
183.3763651335
 20
90.8007793532
 30
0.0
 10
183.3840876788
 20
90.8032012733
 30
0.0
 10
183.3977304242
 20
90.8071419354
 30
0.0
 10
183.4171529883
 20
90.812927093
 30
0.0
 10
183.440488775
 20
90.8198026612
 30
0.0
 10
183.471593126
 20
90.8289933648
 30
0.0
 10
183.5104770239
 20
90.8404737006
 30
0.0
 10
183.5571361443
 20
90.8542537947
 30
0.0
 10
183.6037959588
 20
90.8680319943
 30
0.0
 10
183.6426781214
 20
90.8795170662
 30
0.0
 10
183.673785943
 20
90.8886982976
 30
0.0
 10
183.6971111445
 20
90.8956027562
 30
0.0
 10
183.7165668235
 20
90.9012975325
 30
0.0
 10
183.7301504537
 20
90.905399539
 30
0.0
 10
183.7379677163
 20
90.9075629449
 30
0.0
 10
183.7436751974
 20
90.9096942464
 30
0.0
 10
183.7499769479
 20
90.9098808585
 30
0.0
 10
183.758171994
 20
90.9108080041
 30
0.0
 10
183.7726099041
 20
90.9121144626
 30
0.0
 10
183.7931849971
 20
90.9141460645
 30
0.0
 10
183.8178967214
 20
90.9165132615
 30
0.0
 10
183.8508381375
 20
90.9196942296
 30
0.0
 10
183.8920174982
 20
90.9236619622
 30
0.0
 10
183.9414316205
 20
90.9284268755
 30
0.0
 10
183.9908460401
 20
90.9331908163
 30
0.0
 10
184.0567318285
 20
90.9395430785
 30
0.0
 10
184.1061461932
 20
90.9443071984
 30
0.0
 10
184.1390890979
 20
90.9474832954
 30
0.0
  0
SPLINE
  5
2BF
330
1B
100
AcDbEntity
 67
     1
  8
0
  6
Continuous
 62
     2
100
AcDbSpline
 70
     0
 71
     3
 72
   252
 73
   248
 74
     0
 42
0.000000001
 43
0.0000001
 40
0.0
 40
0.0
 40
0.0
 40
0.0
 40
0.015625
 40
0.03125
 40
0.0390625
 40
0.046875
 40
0.05078125
 40
0.0546875
 40
0.05859375
 40
0.060546875
 40
0.0615234375
 40
0.0625
 40
0.0634765625
 40
0.064453125
 40
0.06640625
 40
0.0703125
 40
0.07421875
 40
0.078125
 40
0.0859375
 40
0.09375
 40
0.1015625
 40
0.109375
 40
0.11328125
 40
0.1171875
 40
0.12109375
 40
0.123046875
 40
0.1240234375
 40
0.125
 40
0.1259765625
 40
0.126953125
 40
0.12890625
 40
0.1328125
 40
0.13671875
 40
0.140625
 40
0.1484375
 40
0.15625
 40
0.1640625
 40
0.171875
 40
0.17578125
 40
0.1796875
 40
0.18359375
 40
0.185546875
 40
0.1865234375
 40
0.1875
 40
0.1884765625
 40
0.189453125
 40
0.19140625
 40
0.1953125
 40
0.19921875
 40
0.203125
 40
0.2109375
 40
0.21875
 40
0.2265625
 40
0.234375
 40
0.23828125
 40
0.2421875
 40
0.24609375
 40
0.248046875
 40
0.2490234375
 40
0.25
 40
0.2509765625
 40
0.251953125
 40
0.25390625
 40
0.2578125
 40
0.26171875
 40
0.265625
 40
0.2734375
 40
0.28125
 40
0.2890625
 40
0.296875
 40
0.30078125
 40
0.3046875
 40
0.30859375
 40
0.310546875
 40
0.3115234375
 40
0.3125
 40
0.3134765625
 40
0.314453125
 40
0.31640625
 40
0.3203125
 40
0.32421875
 40
0.328125
 40
0.3359375
 40
0.34375
 40
0.3515625
 40
0.359375
 40
0.36328125
 40
0.3671875
 40
0.37109375
 40
0.373046875
 40
0.3740234375
 40
0.375
 40
0.3759765625
 40
0.376953125
 40
0.37890625
 40
0.3828125
 40
0.38671875
 40
0.390625
 40
0.3984375
 40
0.40625
 40
0.4140625
 40
0.421875
 40
0.42578125
 40
0.4296875
 40
0.43359375
 40
0.435546875
 40
0.4365234375
 40
0.4375
 40
0.4384765625
 40
0.439453125
 40
0.44140625
 40
0.4453125
 40
0.44921875
 40
0.453125
 40
0.4609375
 40
0.46875
 40
0.4765625
 40
0.484375
 40
0.48828125
 40
0.4921875
 40
0.49609375
 40
0.498046875
 40
0.4990234375
 40
0.5
 40
0.5009765625
 40
0.501953125
 40
0.50390625
 40
0.5078125
 40
0.51171875
 40
0.515625
 40
0.5234375
 40
0.53125
 40
0.5390625
 40
0.546875
 40
0.55078125
 40
0.5546875
 40
0.55859375
 40
0.560546875
 40
0.5615234375
 40
0.5625
 40
0.5634765625
 40
0.564453125
 40
0.56640625
 40
0.5703125
 40
0.57421875
 40
0.578125
 40
0.5859375
 40
0.59375
 40
0.6015625
 40
0.609375
 40
0.61328125
 40
0.6171875
 40
0.62109375
 40
0.623046875
 40
0.6240234375
 40
0.625
 40
0.6259765625
 40
0.626953125
 40
0.62890625
 40
0.6328125
 40
0.63671875
 40
0.640625
 40
0.6484375
 40
0.65625
 40
0.6640625
 40
0.671875
 40
0.67578125
 40
0.6796875
 40
0.68359375
 40
0.685546875
 40
0.6865234375
 40
0.6875
 40
0.6884765625
 40
0.689453125
 40
0.69140625
 40
0.6953125
 40
0.69921875
 40
0.703125
 40
0.7109375
 40
0.71875
 40
0.7265625
 40
0.734375
 40
0.73828125
 40
0.7421875
 40
0.74609375
 40
0.748046875
 40
0.7490234375
 40
0.75
 40
0.7509765625
 40
0.751953125
 40
0.75390625
 40
0.7578125
 40
0.76171875
 40
0.765625
 40
0.7734375
 40
0.78125
 40
0.7890625
 40
0.796875
 40
0.80078125
 40
0.8046875
 40
0.80859375
 40
0.810546875
 40
0.8115234375
 40
0.8125
 40
0.8134765625
 40
0.814453125
 40
0.81640625
 40
0.8203125
 40
0.82421875
 40
0.828125
 40
0.8359375
 40
0.84375
 40
0.8515625
 40
0.859375
 40
0.86328125
 40
0.8671875
 40
0.87109375
 40
0.873046875
 40
0.8740234375
 40
0.875
 40
0.8759765625
 40
0.876953125
 40
0.87890625
 40
0.8828125
 40
0.88671875
 40
0.890625
 40
0.8984375
 40
0.90625
 40
0.9140625
 40
0.921875
 40
0.92578125
 40
0.9296875
 40
0.93359375
 40
0.935546875
 40
0.9365234375
 40
0.9375
 40
0.9384765625
 40
0.939453125
 40
0.94140625
 40
0.9453125
 40
0.94921875
 40
0.953125
 40
0.9609375
 40
0.96875
 40
0.9765625
 40
0.984375
 40
1.0
 40
1.0
 40
1.0
 40
1.0
 10
80.139088923
 20
90.9474832954
 30
0.0
 10
80.1714613149
 20
90.9444173108
 30
0.0
 10
80.2362060731
 20
90.9382852172
 30
0.0
 10
80.3171371485
 20
90.9306207229
 30
0.0
 10
80.3818817408
 20
90.9244878196
 30
0.0
 10
80.4223477173
 20
90.9206577132
 30
0.0
 10
80.4547191102
 20
90.9175868555
 30
0.0
 10
80.4790014561
 20
90.9153022552
 30
0.0
 10
80.4992246523
 20
90.9133394336
 30
0.0
 10
80.5134046198
 20
90.9120812208
 30
0.0
 10
80.5214704057
 20
90.9111814887
 30
0.0
 10
80.5276241231
 20
90.9110158747
 30
0.0
 10
80.5333788549
 20
90.908903897
 30
0.0
 10
80.5411910014
 20
90.9067668401
 30
0.0
 10
80.5547974155
 20
90.9027106722
 30
0.0
 10
80.5742690503
 20
90.8970815219
 30
0.0
 10
80.5976205009
 20
90.8902557536
 30
0.0
 10
80.6287608404
 20
90.8811794639
 30
0.0
 10
80.6676845021
 20
90.8698255618
 30
0.0
 10
80.7143937494
 20
90.8562047693
 30
0.0
 10
80.7611024039
 20
90.8425820803
 30
0.0
 10
80.8000275476
 20
90.8312329197
 30
0.0
 10
80.831164923
 20
90.8221471469
 30
0.0
 10
80.8545254142
 20
90.8153503022
 30
0.0
 10
80.8739687663
 20
90.809630667
 30
0.0
 10
80.8876256694
 20
90.8057360283
 30
0.0
 10
80.8953569199
 20
90.8033401612
 30
0.0
 10
80.901360138
 20
90.8020231656
 30
0.0
 10
80.9065805823
 20
90.7988717305
 30
0.0
 10
80.913814215
 20
90.7953096901
 30
0.0
 10
80.9263458577
 20
90.7887779906
 30
0.0
 10
80.9443147138
 20
90.7796028568
 30
0.0
 10
80.965848872
 20
90.768525979
 30
0.0
 10
80.9945710316
 20
90.753780121
 30
0.0
 10
81.0304702886
 20
90.7353397481
 30
0.0
 10
81.073550998
 20
90.7132149742
 30
0.0
 10
81.1166308113
 20
90.6910883866
 30
0.0
 10
81.1525323084
 20
90.6726525479
 30
0.0
 10
81.1812499878
 20
90.6578976216
 30
0.0
 10
81.2027978104
 20
90.6468484022
 30
0.0
 10
81.2207239185
 20
90.6375867413
 30
0.0
 10
81.2333318729
 20
90.6312095059
 30
0.0
 10
81.2404432351
 20
90.6273999754
 30
0.0
 10
81.2460392553
 20
90.6250087504
 30
0.0
 10
81.2506318727
 20
90.620836532
 30
0.0
 10
81.2571053608
 20
90.6158948045
 30
0.0
 10
81.2682708942
 20
90.6069573387
 30
0.0
 10
81.2843069118
 20
90.5943408547
 30
0.0
 10
81.3035136392
 20
90.5791363008
 30
0.0
 10
81.3291353634
 20
90.5588861937
 30
0.0
 10
81.361158096
 20
90.5335657566
 30
0.0
 10
81.3995874719
 20
90.5031847401
 30
0.0
 10
81.4380155372
 20
90.472802177
 30
0.0
 10
81.4700415463
 20
90.4474856065
 30
0.0
 10
81.4956567176
 20
90.4272277663
 30
0.0
 10
81.5148834311
 20
90.4120467985
 30
0.0
 10
81.5308569241
 20
90.3993565273
 30
0.0
 10
81.5421340734
 20
90.3905507828
 30
0.0
 10
81.5484287248
 20
90.3853980048
 30
0.0
 10
81.553570671
 20
90.3818740662
 30
0.0
 10
81.5571035035
 20
90.3770480099
 30
0.0
 10
81.5623752238
 20
90.3710674615
 30
0.0
 10
81.5713392249
 20
90.3603898846
 30
0.0
 10
81.5842816612
 20
90.3452468395
 30
0.0
 10
81.5997540622
 20
90.3270278283
 30
0.0
 10
81.6204043799
 20
90.3027523603
 30
0.0
 10
81.6462102111
 20
90.2724023158
 30
0.0
 10
81.6771804507
 20
90.2359848479
 30
0.0
 10
81.7081490269
 20
90.1995661731
 30
0.0
 10
81.7339590168
 20
90.1692191459
 30
0.0
 10
81.754601017
 20
90.1449376434
 30
0.0
 10
81.7700987864
 20
90.1267370375
 30
0.0
 10
81.78296186
 20
90.1115364128
 30
0.0
 10
81.7920675356
 20
90.1009616242
 30
0.0
 10
81.7971122579
 20
90.0948163833
 30
0.0
 10
81.8013423553
 20
90.0904962094
 30
0.0
 10
81.8038654902
 20
90.0850722606
 30
0.0
 10
81.8078250778
 20
90.078225338
 30
0.0
 10
81.8144769444
 20
90.0660638405
 30
0.0
 10
81.8241246454
 20
90.0487840562
 30
0.0
 10
81.8356398053
 20
90.0280081718
 30
0.0
 10
81.8510150454
 20
90.0003210184
 30
0.0
 10
81.8702265973
 20
89.9657072419
 30
0.0
 10
81.8932839107
 20
89.924172878
 30
0.0
 10
81.9163394165
 20
89.8826375779
 30
0.0
 10
81.9355554874
 20
89.8480261419
 30
0.0
 10
81.9509216894
 20
89.8203343074
 30
0.0
 10
81.9624644154
 20
89.7995727002
 30
0.0
 10
81.9720258781
 20
89.7822482509
 30
0.0
 10
81.9788316934
 20
89.7701664873
 30
0.0
 10
81.9825446166
 20
89.763191811
 30
0.0
 10
81.9858254252
 20
89.7581602803
 30
0.0
 10
81.9872098261
 20
89.7523662494
 30
0.0
 10
81.9897171823
 20
89.7449068435
 30
0.0
 10
81.9937968559
 20
89.7317289633
 30
0.0
 10
81.9997860918
 20
89.7129682071
 30
0.0
 10
82.0069042037
 20
89.6904275681
 30
0.0
 10
82.0164191203
 20
89.6603830721
 30
0.0
 10
82.0283044385
 20
89.6228241108
 30
0.0
 10
82.0425706416
 20
89.5777548614
 30
0.0
 10
82.0568348835
 20
89.5326849416
 30
0.0
 10
82.0687251049
 20
89.4951276565
 30
0.0
 10
82.0782302151
 20
89.4650798082
 30
0.0
 10
82.0853782366
 20
89.4425493937
 30
0.0
 10
82.0912739028
 20
89.423756651
 30
0.0
 10
82.0955206125
 20
89.4106358716
 30
0.0
 10
82.0977603351
 20
89.403084976
 30
0.0
 10
82.0999668207
 20
89.3975719717
 30
0.0
 10
82.1001600158
 20
89.3914849518
 30
0.0
 10
82.1011198675
 20
89.3835691482
 30
0.0
 10
82.1024724128
 20
89.3696232044
 30
0.0
 10
82.1045756823
 20
89.3497491993
 30
0.0
 10
82.1070263835
 20
89.3258795173
 30
0.0
 10
82.1103195712
 20
89.2940605662
 30
0.0
 10
82.1144272162
 20
89.2542843803
 30
0.0
 10
82.1193604408
 20
89.2065540057
 30
0.0
 10
82.1242916065
 20
89.1588234326
 30
0.0
 10
82.1284043988
 20
89.1190477429
 30
0.0
 10
82.1316872919
 20
89.0872277993
 30
0.0
 10
82.1341693916
 20
89.0633611445
 30
0.0
 10
82.1361744335
 20
89.0434776691
 30
0.0
 10
82.13770233
 20
89.0295486313
 30
0.0
 10
82.1383812253
 20
89.0216057401
 30
0.0
 10
82.1394374283
 20
89.0156019247
 30
0.0
 10
82.1384025997
 20
89.0097764181
 30
0.0
 10
82.1377522035
 20
89.0019468798
 30
0.0
 10
82.1362741807
 20
88.9882741662
 30
0.0
 10
82.1343403868
 20
88.9687265679
 30
0.0
 10
82.1319437846
 20
88.9452759351
 30
0.0
 10
82.1287748884
 20
88.9140061578
 30
0.0
 10
82.124804592
 20
88.874919725
 30
0.0
 10
82.1200444217
 20
88.8280156195
 30
0.0
 10
82.1152821916
 20
88.7811117967
 30
0.0
 10
82.1113170446
 20
88.742024657
 30
0.0
 10
82.1081378495
 20
88.7107562936
 30
0.0
 10
82.1057726591
 20
88.6873013484
 30
0.0
 10
82.1037405961
 20
88.667767241
 30
0.0
 10
82.1024379985
 20
88.6540704441
 30
0.0
 10
82.1015065272
 20
88.6462794932
 30
0.0
 10
82.1013350711
 20
88.6403354587
 30
0.0
 10
82.0991485908
 20
88.6347768145
 30
0.0
 10
82.0969361467
 20
88.6272308605
 30
0.0
 10
82.0927368927
 20
88.6140880737
 30
0.0
 10
82.0869091675
 20
88.5952799188
 30
0.0
 10
82.0798426122
 20
88.5727241496
 30
0.0
 10
82.0704461456
 20
88.5426448914
 30
0.0
 10
82.0586917212
 20
88.5050475213
 30
0.0
 10
82.0445904392
 20
88.459929853
 30
0.0
 10
82.0304871938
 20
88.4148127573
 30
0.0
 10
82.0187376781
 20
88.3772139557
 30
0.0
 10
82.009331394
 20
88.3471375606
 30
0.0
 10
82.0022947825
 20
88.3245730589
 30
0.0
 10
81.9963733805
 20
88.3057922229
 30
0.0
 10
81.9923413538
 20
88.2926006676
 30
0.0
 10
81.9898609696
 20
88.285132853
 30
0.0
 10
81.9884975155
 20
88.2793341896
 30
0.0
 10
81.9852349098
 20
88.2742916276
 30
0.0
 10
81.9815472142
 20
88.267304475
 30
0.0
 10
81.9747851013
 20
88.2551998377
 30
0.0
 10
81.9652863038
 20
88.2378432555
 30
0.0
 10
81.9538186761
 20
88.217042856
 30
0.0
 10
81.9385526406
 20
88.1892993802
 30
0.0
 10
81.9194617617
 20
88.1546233608
 30
0.0
 10
81.8965565103
 20
88.1130105909
 30
0.0
 10
81.8736493812
 20
88.0713986866
 30
0.0
 10
81.8545631965
 20
88.0367205034
 30
0.0
 10
81.8392877728
 20
88.0089813551
 30
0.0
 10
81.8278487791
 20
87.9881677568
 30
0.0
 10
81.8182604022
 20
87.970852466
 30
0.0
 10
81.8116582022
 20
87.9586741172
 30
0.0
 10
81.8077142861
 20
87.9518050689
 30
0.0
 10
81.8052387078
 20
87.9463997284
 30
0.0
 10
81.8009193095
 20
87.9419636006
 30
0.0
 10
81.7958032568
 20
87.9357106913
 30
0.0
 10
81.7865505113
 20
87.9249256143
 30
0.0
 10
81.7734889659
 20
87.9094360107
 30
0.0
 10
81.7577480534
 20
87.8908837367
 30
0.0
 10
81.7367835999
 20
87.8661350516
 30
0.0
 10
81.7105699545
 20
87.8352034671
 30
0.0
 10
81.6791172118
 20
87.7980835405
 30
0.0
 10
81.6476628679
 20
87.7609648797
 30
0.0
 10
81.6214532255
 20
87.7300301305
 30
0.0
 10
81.600480766
 20
87.7052877749
 30
0.0
 10
81.5847642716
 20
87.6867161958
 30
0.0
 10
81.5716263362
 20
87.6712869864
 30
0.0
 10
81.5625099587
 20
87.6603940966
 30
0.0
 10
81.5571754103
 20
87.6543139303
 30
0.0
 10
81.5535271606
 20
87.6493471916
 30
0.0
 10
81.5485308595
 20
87.6459347374
 30
0.0
 10
81.5423393402
 20
87.6408426467
 30
0.0
 10
81.5312850992
 20
87.6321840865
 30
0.0
 10
81.5156078652
 20
87.6196826531
 30
0.0
 10
81.4967461569
 20
87.6047374613
 30
0.0
 10
81.4716143432
 20
87.5847907861
 30
0.0
 10
81.440193665
 20
87.5598642673
 30
0.0
 10
81.402491528
 20
87.529949313
 30
0.0
 10
81.3647881414
 20
87.5000359655
 30
0.0
 10
81.333370587
 20
87.4751054297
 30
0.0
 10
81.3082325258
 20
87.4551667885
 30
0.0
 10
81.2893898721
 20
87.4401970928
 30
0.0
 10
81.2736530275
 20
87.4277723178
 30
0.0
 10
81.2627052006
 20
87.4189769106
 30
0.0
 10
81.2563431791
 20
87.4141040831
 30
0.0
 10
81.251870606
 20
87.4100181227
 30
0.0
 10
81.246255321
 20
87.4075809615
 30
0.0
 10
81.2391668651
 20
87.4037562937
 30
0.0
 10
81.2265763564
 20
87.3973310839
 30
0.0
 10
81.2086870074
 20
87.3880121203
 30
0.0
 10
81.1871782292
 20
87.37688933
 30
0.0
 10
81.1585143787
 20
87.3620379885
 30
0.0
 10
81.1226795603
 20
87.3434810544
 30
0.0
 10
81.0796800227
 20
87.3212093999
 30
0.0
 10
81.0366795159
 20
87.2989394914
 30
0.0
 10
81.0008471206
 20
87.2803781922
 30
0.0
 10
80.972178424
 20
87.2655355809
 30
0.0
 10
80.9506844266
 20
87.2543861636
 30
0.0
 10
80.9327488369
 20
87.2451505
 30
0.0
 10
80.9202408748
 20
87.2385765872
 30
0.0
 10
80.9130201586
 20
87.2349901788
 30
0.0
 10
80.9078111347
 20
87.231821161
 30
0.0
 10
80.9018127125
 20
87.2304839324
 30
0.0
 10
80.8940901672
 20
87.2280620123
 30
0.0
 10
80.8804474218
 20
87.2241213502
 30
0.0
 10
80.8610248577
 20
87.2183361926
 30
0.0
 10
80.8376890711
 20
87.2114606244
 30
0.0
 10
80.8065847201
 20
87.2022699207
 30
0.0
 10
80.7677008221
 20
87.190789585
 30
0.0
 10
80.7210417018
 20
87.1770094909
 30
0.0
 10
80.6743818873
 20
87.1632312913
 30
0.0
 10
80.6354997246
 20
87.1517462194
 30
0.0
 10
80.604391903
 20
87.142564988
 30
0.0
 10
80.5810667016
 20
87.1356605294
 30
0.0
 10
80.5616110226
 20
87.1299657531
 30
0.0
 10
80.5480273923
 20
87.1258637466
 30
0.0
 10
80.5402101298
 20
87.1237003407
 30
0.0
 10
80.5345026487
 20
87.1215690392
 30
0.0
 10
80.5282008982
 20
87.1213824271
 30
0.0
 10
80.520005852
 20
87.1204552815
 30
0.0
 10
80.505567942
 20
87.119148823
 30
0.0
 10
80.4849928489
 20
87.1171172211
 30
0.0
 10
80.4602811247
 20
87.1147500241
 30
0.0
 10
80.4273397086
 20
87.1115690559
 30
0.0
 10
80.3861603478
 20
87.1076013234
 30
0.0
 10
80.3367462255
 20
87.1028364101
 30
0.0
 10
80.287331806
 20
87.0980724693
 30
0.0
 10
80.2214460176
 20
87.0917202071
 30
0.0
 10
80.1720316528
 20
87.0869560872
 30
0.0
 10
80.1390887482
 20
87.0837799902
 30
0.0
  0
SPLINE
  5
2C0
330
1B
100
AcDbEntity
 67
     1
  8
0
  6
Continuous
 62
     2
100
AcDbSpline
 70
     0
 71
     3
 72
   252
 73
   248
 74
     0
 42
0.000000001
 43
0.0000001
 40
0.0
 40
0.0
 40
0.0
 40
0.0
 40
0.015625
 40
0.03125
 40
0.0390625
 40
0.046875
 40
0.05078125
 40
0.0546875
 40
0.05859375
 40
0.060546875
 40
0.0615234375
 40
0.0625
 40
0.0634765625
 40
0.064453125
 40
0.06640625
 40
0.0703125
 40
0.07421875
 40
0.078125
 40
0.0859375
 40
0.09375
 40
0.1015625
 40
0.109375
 40
0.11328125
 40
0.1171875
 40
0.12109375
 40
0.123046875
 40
0.1240234375
 40
0.125
 40
0.1259765625
 40
0.126953125
 40
0.12890625
 40
0.1328125
 40
0.13671875
 40
0.140625
 40
0.1484375
 40
0.15625
 40
0.1640625
 40
0.171875
 40
0.17578125
 40
0.1796875
 40
0.18359375
 40
0.185546875
 40
0.1865234375
 40
0.1875
 40
0.1884765625
 40
0.189453125
 40
0.19140625
 40
0.1953125
 40
0.19921875
 40
0.203125
 40
0.2109375
 40
0.21875
 40
0.2265625
 40
0.234375
 40
0.23828125
 40
0.2421875
 40
0.24609375
 40
0.248046875
 40
0.2490234375
 40
0.25
 40
0.2509765625
 40
0.251953125
 40
0.25390625
 40
0.2578125
 40
0.26171875
 40
0.265625
 40
0.2734375
 40
0.28125
 40
0.2890625
 40
0.296875
 40
0.30078125
 40
0.3046875
 40
0.30859375
 40
0.310546875
 40
0.3115234375
 40
0.3125
 40
0.3134765625
 40
0.314453125
 40
0.31640625
 40
0.3203125
 40
0.32421875
 40
0.328125
 40
0.3359375
 40
0.34375
 40
0.3515625
 40
0.359375
 40
0.36328125
 40
0.3671875
 40
0.37109375
 40
0.373046875
 40
0.3740234375
 40
0.375
 40
0.3759765625
 40
0.376953125
 40
0.37890625
 40
0.3828125
 40
0.38671875
 40
0.390625
 40
0.3984375
 40
0.40625
 40
0.4140625
 40
0.421875
 40
0.42578125
 40
0.4296875
 40
0.43359375
 40
0.435546875
 40
0.4365234375
 40
0.4375
 40
0.4384765625
 40
0.439453125
 40
0.44140625
 40
0.4453125
 40
0.44921875
 40
0.453125
 40
0.4609375
 40
0.46875
 40
0.4765625
 40
0.484375
 40
0.48828125
 40
0.4921875
 40
0.49609375
 40
0.498046875
 40
0.4990234375
 40
0.5
 40
0.5009765625
 40
0.501953125
 40
0.50390625
 40
0.5078125
 40
0.51171875
 40
0.515625
 40
0.5234375
 40
0.53125
 40
0.5390625
 40
0.546875
 40
0.55078125
 40
0.5546875
 40
0.55859375
 40
0.560546875
 40
0.5615234375
 40
0.5625
 40
0.5634765625
 40
0.564453125
 40
0.56640625
 40
0.5703125
 40
0.57421875
 40
0.578125
 40
0.5859375
 40
0.59375
 40
0.6015625
 40
0.609375
 40
0.61328125
 40
0.6171875
 40
0.62109375
 40
0.623046875
 40
0.6240234375
 40
0.625
 40
0.6259765625
 40
0.626953125
 40
0.62890625
 40
0.6328125
 40
0.63671875
 40
0.640625
 40
0.6484375
 40
0.65625
 40
0.6640625
 40
0.671875
 40
0.67578125
 40
0.6796875
 40
0.68359375
 40
0.685546875
 40
0.6865234375
 40
0.6875
 40
0.6884765625
 40
0.689453125
 40
0.69140625
 40
0.6953125
 40
0.69921875
 40
0.703125
 40
0.7109375
 40
0.71875
 40
0.7265625
 40
0.734375
 40
0.73828125
 40
0.7421875
 40
0.74609375
 40
0.748046875
 40
0.7490234375
 40
0.75
 40
0.7509765625
 40
0.751953125
 40
0.75390625
 40
0.7578125
 40
0.76171875
 40
0.765625
 40
0.7734375
 40
0.78125
 40
0.7890625
 40
0.796875
 40
0.80078125
 40
0.8046875
 40
0.80859375
 40
0.810546875
 40
0.8115234375
 40
0.8125
 40
0.8134765625
 40
0.814453125
 40
0.81640625
 40
0.8203125
 40
0.82421875
 40
0.828125
 40
0.8359375
 40
0.84375
 40
0.8515625
 40
0.859375
 40
0.86328125
 40
0.8671875
 40
0.87109375
 40
0.873046875
 40
0.8740234375
 40
0.875
 40
0.8759765625
 40
0.876953125
 40
0.87890625
 40
0.8828125
 40
0.88671875
 40
0.890625
 40
0.8984375
 40
0.90625
 40
0.9140625
 40
0.921875
 40
0.92578125
 40
0.9296875
 40
0.93359375
 40
0.935546875
 40
0.9365234375
 40
0.9375
 40
0.9384765625
 40
0.939453125
 40
0.94140625
 40
0.9453125
 40
0.94921875
 40
0.953125
 40
0.9609375
 40
0.96875
 40
0.9765625
 40
0.984375
 40
1.0
 40
1.0
 40
1.0
 40
1.0
 10
80.139088923
 20
87.0837799902
 30
0.0
 10
80.1067165312
 20
87.0868459748
 30
0.0
 10
80.041971773
 20
87.0929780684
 30
0.0
 10
79.9610406975
 20
87.1006425627
 30
0.0
 10
79.8962961053
 20
87.106775466
 30
0.0
 10
79.8558301287
 20
87.1106055724
 30
0.0
 10
79.8234587358
 20
87.1136764301
 30
0.0
 10
79.79917639
 20
87.1159610304
 30
0.0
 10
79.7789531938
 20
87.117923852
 30
0.0
 10
79.7647732263
 20
87.1191820648
 30
0.0
 10
79.7567074404
 20
87.1200817969
 30
0.0
 10
79.750553723
 20
87.1202474109
 30
0.0
 10
79.7447989911
 20
87.1223593886
 30
0.0
 10
79.7369868447
 20
87.1244964455
 30
0.0
 10
79.7233804306
 20
87.1285526134
 30
0.0
 10
79.7039087958
 20
87.1341817637
 30
0.0
 10
79.6805573452
 20
87.141007532
 30
0.0
 10
79.6494170056
 20
87.1500838217
 30
0.0
 10
79.610493344
 20
87.1614377238
 30
0.0
 10
79.5637840967
 20
87.1750585163
 30
0.0
 10
79.5170754422
 20
87.1886812053
 30
0.0
 10
79.4781502985
 20
87.2000303659
 30
0.0
 10
79.447012923
 20
87.2091161387
 30
0.0
 10
79.4236524318
 20
87.2159129834
 30
0.0
 10
79.4042090797
 20
87.2216326186
 30
0.0
 10
79.3905521767
 20
87.2255272573
 30
0.0
 10
79.3828209261
 20
87.2279231244
 30
0.0
 10
79.376817708
 20
87.22924012
 30
0.0
 10
79.3715972637
 20
87.2323915551
 30
0.0
 10
79.364363631
 20
87.2359535955
 30
0.0
 10
79.3518319883
 20
87.242485295
 30
0.0
 10
79.3338631322
 20
87.2516604288
 30
0.0
 10
79.3123289741
 20
87.2627373066
 30
0.0
 10
79.2836068145
 20
87.2774831646
 30
0.0
 10
79.2477075575
 20
87.2959235375
 30
0.0
 10
79.2046268481
 20
87.3180483114
 30
0.0
 10
79.1615470347
 20
87.340174899
 30
0.0
 10
79.1256455377
 20
87.3586107377
 30
0.0
 10
79.0969278582
 20
87.373365664
 30
0.0
 10
79.0753800356
 20
87.3844148834
 30
0.0
 10
79.0574539275
 20
87.3936765443
 30
0.0
 10
79.0448459731
 20
87.4000537797
 30
0.0
 10
79.037734611
 20
87.4038633102
 30
0.0
 10
79.0321385907
 20
87.4062545352
 30
0.0
 10
79.0275459733
 20
87.4104267536
 30
0.0
 10
79.0210724853
 20
87.4153684811
 30
0.0
 10
79.0099069518
 20
87.4243059469
 30
0.0
 10
78.9938709343
 20
87.4369224309
 30
0.0
 10
78.9746642068
 20
87.4521269848
 30
0.0
 10
78.9490424827
 20
87.4723770919
 30
0.0
 10
78.91701975
 20
87.4976975289
 30
0.0
 10
78.8785903742
 20
87.5280785455
 30
0.0
 10
78.8401623089
 20
87.5584611086
 30
0.0
 10
78.8081362998
 20
87.5837776791
 30
0.0
 10
78.7825211285
 20
87.6040355193
 30
0.0
 10
78.763294415
 20
87.6192164871
 30
0.0
 10
78.747320922
 20
87.6319067583
 30
0.0
 10
78.7360437727
 20
87.6407125028
 30
0.0
 10
78.7297491213
 20
87.6458652808
 30
0.0
 10
78.724607175
 20
87.6493892194
 30
0.0
 10
78.7210743425
 20
87.6542152757
 30
0.0
 10
78.7158026223
 20
87.6601958241
 30
0.0
 10
78.7068386212
 20
87.670873401
 30
0.0
 10
78.6938961849
 20
87.6860164461
 30
0.0
 10
78.6784237838
 20
87.7042354573
 30
0.0
 10
78.6577734661
 20
87.7285109253
 30
0.0
 10
78.631967635
 20
87.7588609698
 30
0.0
 10
78.6009973953
 20
87.7952784377
 30
0.0
 10
78.5700288192
 20
87.8316971125
 30
0.0
 10
78.5442188293
 20
87.8620441397
 30
0.0
 10
78.523576829
 20
87.8863256422
 30
0.0
 10
78.5080790597
 20
87.9045262481
 30
0.0
 10
78.495215986
 20
87.9197268727
 30
0.0
 10
78.4861103105
 20
87.9303016614
 30
0.0
 10
78.4810655882
 20
87.9364469023
 30
0.0
 10
78.4768354907
 20
87.9407670762
 30
0.0
 10
78.4743123558
 20
87.946191025
 30
0.0
 10
78.4703527683
 20
87.9530379476
 30
0.0
 10
78.4637009016
 20
87.9651994451
 30
0.0
 10
78.4540532006
 20
87.9824792294
 30
0.0
 10
78.4425380407
 20
88.0032551138
 30
0.0
 10
78.4271628007
 20
88.0309422672
 30
0.0
 10
78.4079512488
 20
88.0655560437
 30
0.0
 10
78.3848939354
 20
88.1070904076
 30
0.0
 10
78.3618384296
 20
88.1486257077
 30
0.0
 10
78.3426223587
 20
88.1832371437
 30
0.0
 10
78.3272561567
 20
88.2109289782
 30
0.0
 10
78.3157134306
 20
88.2316905854
 30
0.0
 10
78.306151968
 20
88.2490150347
 30
0.0
 10
78.2993461527
 20
88.2610967983
 30
0.0
 10
78.2956332295
 20
88.2680714746
 30
0.0
 10
78.2923524209
 20
88.2731030053
 30
0.0
 10
78.2909680199
 20
88.2788970362
 30
0.0
 10
78.2884606637
 20
88.2863564421
 30
0.0
 10
78.2843809901
 20
88.2995343223
 30
0.0
 10
78.2783917542
 20
88.3182950785
 30
0.0
 10
78.2712736423
 20
88.3408357175
 30
0.0
 10
78.2617587257
 20
88.3708802135
 30
0.0
 10
78.2498734076
 20
88.4084391748
 30
0.0
 10
78.2356072044
 20
88.4535084241
 30
0.0
 10
78.2213429625
 20
88.498578344
 30
0.0
 10
78.2094527412
 20
88.5361356291
 30
0.0
 10
78.199947631
 20
88.5661834774
 30
0.0
 10
78.1927996095
 20
88.5887138919
 30
0.0
 10
78.1869039432
 20
88.6075066346
 30
0.0
 10
78.1826572335
 20
88.620627414
 30
0.0
 10
78.180417511
 20
88.6281783096
 30
0.0
 10
78.1782110254
 20
88.6336913139
 30
0.0
 10
78.1780178303
 20
88.6397783338
 30
0.0
 10
78.1770579785
 20
88.6476941374
 30
0.0
 10
78.1757054332
 20
88.6616400812
 30
0.0
 10
78.1736021638
 20
88.6815140863
 30
0.0
 10
78.1711514625
 20
88.7053837683
 30
0.0
 10
78.1678582749
 20
88.7372027194
 30
0.0
 10
78.1637506298
 20
88.7769789053
 30
0.0
 10
78.1588174053
 20
88.8247092799
 30
0.0
 10
78.1538862396
 20
88.872439853
 30
0.0
 10
78.1497734472
 20
88.9122155427
 30
0.0
 10
78.1464905542
 20
88.9440354863
 30
0.0
 10
78.1440084545
 20
88.9679021411
 30
0.0
 10
78.1420034125
 20
88.9877856165
 30
0.0
 10
78.1404755161
 20
89.0017146543
 30
0.0
 10
78.1397966207
 20
89.0096575455
 30
0.0
 10
78.1387404178
 20
89.0156613609
 30
0.0
 10
78.1397752463
 20
89.0214868675
 30
0.0
 10
78.1404256425
 20
89.0293164058
 30
0.0
 10
78.1419036653
 20
89.0429891194
 30
0.0
 10
78.1438374593
 20
89.0625367177
 30
0.0
 10
78.1462340614
 20
89.0859873505
 30
0.0
 10
78.1494029577
 20
89.1172571278
 30
0.0
 10
78.1533732541
 20
89.1563435606
 30
0.0
 10
78.1581334244
 20
89.2032476661
 30
0.0
 10
78.1628956545
 20
89.2501514889
 30
0.0
 10
78.1668608014
 20
89.2892386286
 30
0.0
 10
78.1700399966
 20
89.320506992
 30
0.0
 10
78.172405187
 20
89.3439619372
 30
0.0
 10
78.1744372499
 20
89.3634960446
 30
0.0
 10
78.1757398476
 20
89.3771928415
 30
0.0
 10
78.1766713188
 20
89.3849837924
 30
0.0
 10
78.176842775
 20
89.3909278269
 30
0.0
 10
78.1790292553
 20
89.3964864711
 30
0.0
 10
78.1812416993
 20
89.4040324251
 30
0.0
 10
78.1854409534
 20
89.4171752119
 30
0.0
 10
78.1912686786
 20
89.4359833668
 30
0.0
 10
78.1983352339
 20
89.458539136
 30
0.0
 10
78.2077317004
 20
89.4886183942
 30
0.0
 10
78.2194861249
 20
89.5262157643
 30
0.0
 10
78.2335874068
 20
89.5713334326
 30
0.0
 10
78.2476906523
 20
89.6164505283
 30
0.0
 10
78.2594401679
 20
89.6540493299
 30
0.0
 10
78.2688464521
 20
89.684125725
 30
0.0
 10
78.2758830635
 20
89.7066902267
 30
0.0
 10
78.2818044656
 20
89.7254710627
 30
0.0
 10
78.2858364922
 20
89.738662618
 30
0.0
 10
78.2883168764
 20
89.7461304326
 30
0.0
 10
78.2896803305
 20
89.751929096
 30
0.0
 10
78.2929429363
 20
89.756971658
 30
0.0
 10
78.2966306318
 20
89.7639588106
 30
0.0
 10
78.3033927448
 20
89.7760634479
 30
0.0
 10
78.3128915422
 20
89.7934200301
 30
0.0
 10
78.32435917
 20
89.8142204296
 30
0.0
 10
78.3396252055
 20
89.8419639054
 30
0.0
 10
78.3587160843
 20
89.8766399248
 30
0.0
 10
78.3816213358
 20
89.9182526947
 30
0.0
 10
78.4045284648
 20
89.959864599
 30
0.0
 10
78.4236146496
 20
89.9945427822
 30
0.0
 10
78.4388900733
 20
90.0222819305
 30
0.0
 10
78.450329067
 20
90.0430955288
 30
0.0
 10
78.4599174438
 20
90.0604108196
 30
0.0
 10
78.4665196438
 20
90.0725891684
 30
0.0
 10
78.47046356
 20
90.0794582167
 30
0.0
 10
78.4729391383
 20
90.0848635572
 30
0.0
 10
78.4772585366
 20
90.089299685
 30
0.0
 10
78.4823745893
 20
90.0955525943
 30
0.0
 10
78.4916273348
 20
90.1063376713
 30
0.0
 10
78.5046888801
 20
90.1218272749
 30
0.0
 10
78.5204297927
 20
90.1403795489
 30
0.0
 10
78.5413942462
 20
90.165128234
 30
0.0
 10
78.5676078915
 20
90.1960598185
 30
0.0
 10
78.5990606343
 20
90.2331797451
 30
0.0
 10
78.6305149782
 20
90.2702984059
 30
0.0
 10
78.6567246206
 20
90.3012331551
 30
0.0
 10
78.67769708
 20
90.3259755107
 30
0.0
 10
78.6934135744
 20
90.3445470898
 30
0.0
 10
78.7065515099
 20
90.3599762992
 30
0.0
 10
78.7156678874
 20
90.370869189
 30
0.0
 10
78.7210024357
 20
90.3769493553
 30
0.0
 10
78.7246506854
 20
90.381916094
 30
0.0
 10
78.7296469865
 20
90.3853285482
 30
0.0
 10
78.7358385059
 20
90.3904206389
 30
0.0
 10
78.7468927469
 20
90.3990791991
 30
0.0
 10
78.7625699808
 20
90.4115806325
 30
0.0
 10
78.7814316891
 20
90.4265258243
 30
0.0
 10
78.8065635029
 20
90.4464724995
 30
0.0
 10
78.837984181
 20
90.4713990183
 30
0.0
 10
78.8756863181
 20
90.5013139726
 30
0.0
 10
78.9133897046
 20
90.5312273201
 30
0.0
 10
78.9448072591
 20
90.5561578559
 30
0.0
 10
78.9699453203
 20
90.5760964971
 30
0.0
 10
78.988787974
 20
90.5910661928
 30
0.0
 10
79.0045248186
 20
90.6034909678
 30
0.0
 10
79.0154726454
 20
90.612286375
 30
0.0
 10
79.0218346669
 20
90.6171592025
 30
0.0
 10
79.0263072401
 20
90.6212451629
 30
0.0
 10
79.031922525
 20
90.6236823241
 30
0.0
 10
79.0390109809
 20
90.6275069919
 30
0.0
 10
79.0516014896
 20
90.6339322017
 30
0.0
 10
79.0694908387
 20
90.6432511653
 30
0.0
 10
79.0909996169
 20
90.6543739556
 30
0.0
 10
79.1196634674
 20
90.6692252971
 30
0.0
 10
79.1554982857
 20
90.6877822312
 30
0.0
 10
79.1984978233
 20
90.7100538857
 30
0.0
 10
79.2414983302
 20
90.7323237942
 30
0.0
 10
79.2773307254
 20
90.7508850934
 30
0.0
 10
79.3059994221
 20
90.7657277047
 30
0.0
 10
79.3274934195
 20
90.7768771219
 30
0.0
 10
79.3454290091
 20
90.7861127856
 30
0.0
 10
79.3579369713
 20
90.7926866984
 30
0.0
 10
79.3651576874
 20
90.7962731068
 30
0.0
 10
79.3703667113
 20
90.7994421246
 30
0.0
 10
79.3763651335
 20
90.8007793532
 30
0.0
 10
79.3840876788
 20
90.8032012733
 30
0.0
 10
79.3977304242
 20
90.8071419354
 30
0.0
 10
79.4171529883
 20
90.812927093
 30
0.0
 10
79.440488775
 20
90.8198026612
 30
0.0
 10
79.471593126
 20
90.8289933648
 30
0.0
 10
79.5104770239
 20
90.8404737006
 30
0.0
 10
79.5571361443
 20
90.8542537947
 30
0.0
 10
79.6037959588
 20
90.8680319943
 30
0.0
 10
79.6426781214
 20
90.8795170662
 30
0.0
 10
79.673785943
 20
90.8886982976
 30
0.0
 10
79.6971111445
 20
90.8956027562
 30
0.0
 10
79.7165668235
 20
90.9012975325
 30
0.0
 10
79.7301504537
 20
90.905399539
 30
0.0
 10
79.7379677163
 20
90.9075629449
 30
0.0
 10
79.7436751974
 20
90.9096942464
 30
0.0
 10
79.7499769479
 20
90.9098808585
 30
0.0
 10
79.758171994
 20
90.9108080041
 30
0.0
 10
79.7726099041
 20
90.9121144626
 30
0.0
 10
79.7931849971
 20
90.9141460645
 30
0.0
 10
79.8178967214
 20
90.9165132615
 30
0.0
 10
79.8508381375
 20
90.9196942296
 30
0.0
 10
79.8920174982
 20
90.9236619622
 30
0.0
 10
79.9414316205
 20
90.9284268755
 30
0.0
 10
79.9908460401
 20
90.9331908163
 30
0.0
 10
80.0567318285
 20
90.9395430785
 30
0.0
 10
80.1061461932
 20
90.9443071984
 30
0.0
 10
80.1390890979
 20
90.9474832954
 30
0.0
  0
SPLINE
  5
2C1
330
1B
100
AcDbEntity
 67
     1
  8
3_ALL_AXES
  6
Continuous
 62
     7
100
AcDbSpline
 70
     0
 71
     3
 72
    15
 73
    11
 74
     0
 42
0.000000001
 43
0.0000001
 40
0.0
 40
0.0
 40
0.0
 40
0.0
 40
0.1271196084
 40
0.2539133478
 40
0.3801207449
 40
0.5055520249
 40
0.6301381265
 40
0.7539382147
 40
0.877133434
 40
1.0
 40
1.0
 40
1.0
 40
1.0
 10
184.139088923
 20
81.2784359337
 30
0.0
 10
183.8451241079
 20
81.2784359337
 30
0.0
 10
183.2564220884
 20
81.334306267
 30
0.0
 10
182.4079098008
 20
81.582690114
 30
0.0
 10
181.6252023158
 20
81.9862150926
 30
0.0
 10
180.9387523392
 20
82.5296733323
 30
0.0
 10
180.3749182177
 20
83.1923487521
 30
0.0
 10
179.9556424588
 20
83.9490678208
 30
0.0
 10
179.6972969061
 20
84.7702723244
 30
0.0
 10
179.639088923
 20
85.3409725216
 30
0.0
 10
179.639088923
 20
85.625102152
 30
0.0
  0
LINE
  5
2C2
330
1B
100
AcDbEntity
 67
     1
  8
3_ALL_AXES
  6
Continuous
 62
     7
100
AcDbLine
 10
179.639088923
 20
85.832157388
 30
0.0
 11
179.639088923
 21
85.625102152
 31
0.0
  0
LINE
  5
2C3
330
1B
100
AcDbEntity
 67
     1
  8
3_ALL_AXES
  6
Continuous
 62
     7
100
AcDbLine
 10
188.639088923
 20
85.832157388
 30
0.0
 11
188.639088923
 21
85.625102152
 31
0.0
  0
SPLINE
  5
2C4
330
1B
100
AcDbEntity
 67
     1
  8
3_ALL_AXES
  6
Continuous
 62
     7
100
AcDbSpline
 70
     0
 71
     3
 72
    15
 73
    11
 74
     0
 42
0.000000001
 43
0.0000001
 40
0.0
 40
0.0
 40
0.0
 40
0.0
 40
0.122866566
 40
0.2460617853
 40
0.3698618735
 40
0.4944479751
 40
0.6198792551
 40
0.7460866522
 40
0.8728803916
 40
1.0
 40
1.0
 40
1.0
 40
1.0
 10
188.639088923
 20
85.625102152
 30
0.0
 10
188.639088923
 20
85.3409725216
 30
0.0
 10
188.5808809399
 20
84.7702723244
 30
0.0
 10
188.3225353873
 20
83.9490678208
 30
0.0
 10
187.9032596283
 20
83.1923487521
 30
0.0
 10
187.3394255068
 20
82.5296733323
 30
0.0
 10
186.6529755302
 20
81.9862150926
 30
0.0
 10
185.8702680452
 20
81.582690114
 30
0.0
 10
185.0217557576
 20
81.334306267
 30
0.0
 10
184.4330537381
 20
81.2784359337
 30
0.0
 10
184.139088923
 20
81.2784359337
 30
0.0
  0
SPLINE
  5
2C5
330
1B
100
AcDbEntity
 67
     1
  8
3_ALL_AXES
  6
Continuous
 62
     7
100
AcDbSpline
 70
     0
 71
     3
 72
    15
 73
    11
 74
     0
 42
0.000000001
 43
0.0000001
 40
0.0
 40
0.0
 40
0.0
 40
0.0
 40
0.1270528273
 40
0.25379804
 40
0.3799892808
 40
0.5054396844
 40
0.6300722194
 40
0.753926049
 40
0.8771535975
 40
1.0
 40
1.0
 40
1.0
 40
1.0
 10
184.139088923
 20
81.4854911697
 30
0.0
 10
183.853980738
 20
81.4854911697
 30
0.0
 10
183.2830624366
 20
81.5380314072
 30
0.0
 10
182.4582067972
 20
81.7717882819
 30
0.0
 10
181.6934648417
 20
82.1521111339
 30
0.0
 10
181.0168165211
 20
82.6655260551
 30
0.0
 10
180.4526918325
 20
83.2936179272
 30
0.0
 10
180.0216807659
 20
84.01394215
 30
0.0
 10
179.7396290593
 20
84.8000683856
 30
0.0
 10
179.6577240634
 20
85.3504286646
 30
0.0
 10
179.6441686072
 20
85.6257640952
 30
0.0
  0
ARC
  5
2C6
330
1B
100
AcDbEntity
 67
     1
  8
3_ALL_AXES
  6
Continuous
 62
     7
100
AcDbCircle
 10
183.8370171962
 20
85.8322162686
 30
0.0
 40
4.1979282736
100
AcDbArc
 50
180.0008036358
 51
182.8189170674
  0
ARC
  5
2C7
330
1B
100
AcDbEntity
 67
     1
  8
3_ALL_AXES
  6
Continuous
 62
     7
100
AcDbCircle
 10
184.4411606499
 20
85.8322162686
 30
0.0
 40
4.1979282736
100
AcDbArc
 50
357.1810829326
 51
359.9991963642
  0
SPLINE
  5
2C8
330
1B
100
AcDbEntity
 67
     1
  8
3_ALL_AXES
  6
Continuous
 62
     7
100
AcDbSpline
 70
     0
 71
     3
 72
    15
 73
    11
 74
     0
 42
0.000000001
 43
0.0000001
 40
0.0
 40
0.0
 40
0.0
 40
0.0
 40
0.1228464025
 40
0.246073951
 40
0.3699277806
 40
0.4945603156
 40
0.6200107192
 40
0.74620196
 40
0.8729471727
 40
1.0
 40
1.0
 40
1.0
 40
1.0
 10
188.6340092389
 20
85.6257640952
 30
0.0
 10
188.6204537827
 20
85.3504286646
 30
0.0
 10
188.5385487868
 20
84.8000683856
 30
0.0
 10
188.2564970802
 20
84.01394215
 30
0.0
 10
187.8254860136
 20
83.2936179272
 30
0.0
 10
187.2613613249
 20
82.6655260551
 30
0.0
 10
186.5847130044
 20
82.1521111339
 30
0.0
 10
185.8199710489
 20
81.7717882819
 30
0.0
 10
184.9951154095
 20
81.5380314072
 30
0.0
 10
184.4241971081
 20
81.4854911697
 30
0.0
 10
184.139088923
 20
81.4854911697
 30
0.0
  0
SPLINE
  5
2C9
330
1B
100
AcDbEntity
 67
     1
  8
3_ALL_AXES
  6
Continuous
 62
     7
100
AcDbSpline
 70
     0
 71
     3
 72
    15
 73
    11
 74
     0
 42
0.000000001
 43
0.0000001
 40
0.0
 40
0.0
 40
0.0
 40
0.0
 40
0.1271196084
 40
0.2539133478
 40
0.3801207449
 40
0.5055520249
 40
0.6301381265
 40
0.7539382147
 40
0.877133434
 40
1.0
 40
1.0
 40
1.0
 40
1.0
 10
80.139088923
 20
81.2784359337
 30
0.0
 10
79.8451241079
 20
81.2784359337
 30
0.0
 10
79.2564220884
 20
81.334306267
 30
0.0
 10
78.4079098008
 20
81.582690114
 30
0.0
 10
77.6252023158
 20
81.9862150926
 30
0.0
 10
76.9387523392
 20
82.5296733323
 30
0.0
 10
76.3749182177
 20
83.1923487521
 30
0.0
 10
75.9556424588
 20
83.9490678208
 30
0.0
 10
75.6972969061
 20
84.7702723244
 30
0.0
 10
75.639088923
 20
85.3409725216
 30
0.0
 10
75.639088923
 20
85.625102152
 30
0.0
  0
LINE
  5
2CA
330
1B
100
AcDbEntity
 67
     1
  8
3_ALL_AXES
  6
Continuous
 62
     7
100
AcDbLine
 10
75.639088923
 20
85.832157388
 30
0.0
 11
75.639088923
 21
85.625102152
 31
0.0
  0
LINE
  5
2CB
330
1B
100
AcDbEntity
 67
     1
  8
3_ALL_AXES
  6
Continuous
 62
     7
100
AcDbLine
 10
84.639088923
 20
85.832157388
 30
0.0
 11
84.639088923
 21
85.625102152
 31
0.0
  0
SPLINE
  5
2CC
330
1B
100
AcDbEntity
 67
     1
  8
3_ALL_AXES
  6
Continuous
 62
     7
100
AcDbSpline
 70
     0
 71
     3
 72
    15
 73
    11
 74
     0
 42
0.000000001
 43
0.0000001
 40
0.0
 40
0.0
 40
0.0
 40
0.0
 40
0.122866566
 40
0.2460617853
 40
0.3698618735
 40
0.4944479751
 40
0.6198792551
 40
0.7460866522
 40
0.8728803916
 40
1.0
 40
1.0
 40
1.0
 40
1.0
 10
84.639088923
 20
85.625102152
 30
0.0
 10
84.639088923
 20
85.3409725216
 30
0.0
 10
84.5808809399
 20
84.7702723244
 30
0.0
 10
84.3225353873
 20
83.9490678208
 30
0.0
 10
83.9032596283
 20
83.1923487521
 30
0.0
 10
83.3394255068
 20
82.5296733323
 30
0.0
 10
82.6529755302
 20
81.9862150926
 30
0.0
 10
81.8702680452
 20
81.582690114
 30
0.0
 10
81.0217557576
 20
81.334306267
 30
0.0
 10
80.4330537381
 20
81.2784359337
 30
0.0
 10
80.139088923
 20
81.2784359337
 30
0.0
  0
SPLINE
  5
2CD
330
1B
100
AcDbEntity
 67
     1
  8
3_ALL_AXES
  6
Continuous
 62
     7
100
AcDbSpline
 70
     0
 71
     3
 72
    15
 73
    11
 74
     0
 42
0.000000001
 43
0.0000001
 40
0.0
 40
0.0
 40
0.0
 40
0.0
 40
0.1270528273
 40
0.25379804
 40
0.3799892808
 40
0.5054396844
 40
0.6300722194
 40
0.753926049
 40
0.8771535975
 40
1.0
 40
1.0
 40
1.0
 40
1.0
 10
80.139088923
 20
81.4854911697
 30
0.0
 10
79.853980738
 20
81.4854911697
 30
0.0
 10
79.2830624366
 20
81.5380314072
 30
0.0
 10
78.4582067972
 20
81.7717882819
 30
0.0
 10
77.6934648417
 20
82.1521111339
 30
0.0
 10
77.0168165211
 20
82.6655260551
 30
0.0
 10
76.4526918325
 20
83.2936179272
 30
0.0
 10
76.0216807659
 20
84.01394215
 30
0.0
 10
75.7396290593
 20
84.8000683856
 30
0.0
 10
75.6577240634
 20
85.3504286646
 30
0.0
 10
75.6441686072
 20
85.6257640952
 30
0.0
  0
ARC
  5
2CE
330
1B
100
AcDbEntity
 67
     1
  8
3_ALL_AXES
  6
Continuous
 62
     7
100
AcDbCircle
 10
79.8370171961
 20
85.8322162686
 30
0.0
 40
4.1979282735
100
AcDbArc
 50
180.0008036358
 51
182.8189170674
  0
ARC
  5
2CF
330
1B
100
AcDbEntity
 67
     1
  8
3_ALL_AXES
  6
Continuous
 62
     7
100
AcDbCircle
 10
80.4411606499
 20
85.8322162686
 30
0.0
 40
4.1979282735
100
AcDbArc
 50
357.1810829326
 51
359.9991963642
  0
SPLINE
  5
2D0
330
1B
100
AcDbEntity
 67
     1
  8
3_ALL_AXES
  6
Continuous
 62
     7
100
AcDbSpline
 70
     0
 71
     3
 72
    15
 73
    11
 74
     0
 42
0.000000001
 43
0.0000001
 40
0.0
 40
0.0
 40
0.0
 40
0.0
 40
0.1228464025
 40
0.246073951
 40
0.3699277806
 40
0.4945603156
 40
0.6200107192
 40
0.74620196
 40
0.8729471727
 40
1.0
 40
1.0
 40
1.0
 40
1.0
 10
84.6340092389
 20
85.6257640952
 30
0.0
 10
84.6204537827
 20
85.3504286646
 30
0.0
 10
84.5385487868
 20
84.8000683856
 30
0.0
 10
84.2564970802
 20
84.01394215
 30
0.0
 10
83.8254860136
 20
83.2936179272
 30
0.0
 10
83.2613613249
 20
82.6655260551
 30
0.0
 10
82.5847130044
 20
82.1521111339
 30
0.0
 10
81.8199710489
 20
81.7717882819
 30
0.0
 10
80.9951154095
 20
81.5380314072
 30
0.0
 10
80.4241971081
 20
81.4854911697
 30
0.0
 10
80.139088923
 20
81.4854911697
 30
0.0
  0
SPLINE
  5
2D1
330
1B
100
AcDbEntity
 67
     1
  8
3_ALL_AXES
  6
Continuous
 62
     7
100
AcDbSpline
 70
     0
 71
     3
 72
    11
 73
     7
 74
     0
 42
0.000000001
 43
0.0000001
 40
0.0
 40
0.0
 40
0.0
 40
0.0
 40
0.2509671308
 40
0.5011255569
 40
0.7507111895
 40
1.0
 40
1.0
 40
1.0
 40
1.0
 10
188.0464244401
 20
88.1953467321
 30
0.0
 10
188.142720774
 20
88.0325230339
 30
0.0
 10
188.3137914226
 20
87.694295453
 30
0.0
 10
188.5004477611
 20
87.1583945531
 30
0.0
 10
188.6137639123
 20
86.6036290475
 30
0.0
 10
188.639088923
 20
86.2271156021
 30
0.0
 10
188.639088923
 20
86.0392126241
 30
0.0
  0
SPLINE
  5
2D2
330
1B
100
AcDbEntity
 67
     1
  8
3_ALL_AXES
  6
Continuous
 62
     7
100
AcDbSpline
 70
     0
 71
     3
 72
    15
 73
    11
 74
     0
 42
0.000000001
 43
0.0000001
 40
0.0
 40
0.0
 40
0.0
 40
0.0
 40
0.1270528273
 40
0.25379804
 40
0.3799892808
 40
0.5054396844
 40
0.6300722194
 40
0.753926049
 40
0.8771535975
 40
1.0
 40
1.0
 40
1.0
 40
1.0
 10
184.139088923
 20
81.4854911697
 30
0.0
 10
183.853980738
 20
81.4854911697
 30
0.0
 10
183.2830624366
 20
81.5380314072
 30
0.0
 10
182.4582067972
 20
81.7717882819
 30
0.0
 10
181.6934648417
 20
82.1521111339
 30
0.0
 10
181.0168165211
 20
82.6655260551
 30
0.0
 10
180.4526918325
 20
83.2936179272
 30
0.0
 10
180.0216807659
 20
84.01394215
 30
0.0
 10
179.7396290593
 20
84.8000683856
 30
0.0
 10
179.6577240634
 20
85.3504286646
 30
0.0
 10
179.6441686072
 20
85.6257640952
 30
0.0
  0
ARC
  5
2D3
330
1B
100
AcDbEntity
 67
     1
  8
3_ALL_AXES
  6
Continuous
 62
     7
100
AcDbCircle
 10
183.8370171962
 20
85.8322162686
 30
0.0
 40
4.1979282736
100
AcDbArc
 50
180.0008036358
 51
182.8189170674
  0
LINE
  5
2D4
330
1B
100
AcDbEntity
 67
     1
  8
3_ALL_AXES
  6
Continuous
 62
     7
100
AcDbLine
 10
179.639088923
 20
86.0392126241
 30
0.0
 11
179.639088923
 21
85.832157388
 31
0.0
  0
SPLINE
  5
2D5
330
1B
100
AcDbEntity
 67
     1
  8
3_ALL_AXES
  6
Continuous
 62
     7
100
AcDbSpline
 70
     0
 71
     3
 72
    11
 73
     7
 74
     0
 42
0.000000001
 43
0.0000001
 40
0.0
 40
0.0
 40
0.0
 40
0.0
 40
0.2492888105
 40
0.4988744431
 40
0.7490328692
 40
1.0
 40
1.0
 40
1.0
 40
1.0
 10
179.639088923
 20
86.0392126241
 30
0.0
 10
179.639088923
 20
86.2271156021
 30
0.0
 10
179.6644139337
 20
86.6036290475
 30
0.0
 10
179.777730085
 20
87.1583945531
 30
0.0
 10
179.9643864235
 20
87.694295453
 30
0.0
 10
180.1354570721
 20
88.0325230339
 30
0.0
 10
180.2317534059
 20
88.1953467321
 30
0.0
  0
LINE
  5
2D6
330
1B
100
AcDbEntity
 67
     1
  8
3_ALL_AXES
  6
Continuous
 62
     7
100
AcDbLine
 10
188.639088923
 20
86.0392126241
 30
0.0
 11
188.639088923
 21
85.832157388
 31
0.0
  0
ARC
  5
2D7
330
1B
100
AcDbEntity
 67
     1
  8
3_ALL_AXES
  6
Continuous
 62
     7
100
AcDbCircle
 10
184.4411606499
 20
85.8322162686
 30
0.0
 40
4.1979282736
100
AcDbArc
 50
357.1810829326
 51
359.9991963642
  0
SPLINE
  5
2D8
330
1B
100
AcDbEntity
 67
     1
  8
3_ALL_AXES
  6
Continuous
 62
     7
100
AcDbSpline
 70
     0
 71
     3
 72
    15
 73
    11
 74
     0
 42
0.000000001
 43
0.0000001
 40
0.0
 40
0.0
 40
0.0
 40
0.0
 40
0.1228464025
 40
0.246073951
 40
0.3699277806
 40
0.4945603156
 40
0.6200107192
 40
0.74620196
 40
0.8729471727
 40
1.0
 40
1.0
 40
1.0
 40
1.0
 10
188.6340092389
 20
85.6257640952
 30
0.0
 10
188.6204537827
 20
85.3504286646
 30
0.0
 10
188.5385487868
 20
84.8000683856
 30
0.0
 10
188.2564970802
 20
84.01394215
 30
0.0
 10
187.8254860136
 20
83.2936179272
 30
0.0
 10
187.2613613249
 20
82.6655260551
 30
0.0
 10
186.5847130044
 20
82.1521111339
 30
0.0
 10
185.8199710489
 20
81.7717882819
 30
0.0
 10
184.9951154095
 20
81.5380314072
 30
0.0
 10
184.4241971081
 20
81.4854911697
 30
0.0
 10
184.139088923
 20
81.4854911697
 30
0.0
  0
SPLINE
  5
2D9
330
1B
100
AcDbEntity
 67
     1
  8
3_ALL_AXES
  6
Continuous
 62
     7
100
AcDbSpline
 70
     0
 71
     3
 72
    15
 73
    11
 74
     0
 42
0.000000001
 43
0.0000001
 40
0.0
 40
0.0
 40
0.0
 40
0.0
 40
0.1270528273
 40
0.25379804
 40
0.3799892808
 40
0.5054396844
 40
0.6300722194
 40
0.753926049
 40
0.8771535975
 40
1.0
 40
1.0
 40
1.0
 40
1.0
 10
184.139088923
 20
81.6925464058
 30
0.0
 10
183.853980738
 20
81.6925464058
 30
0.0
 10
183.2830624366
 20
81.7450866432
 30
0.0
 10
182.4582067972
 20
81.978843518
 30
0.0
 10
181.6934648417
 20
82.35916637
 30
0.0
 10
181.0168165211
 20
82.8725812912
 30
0.0
 10
180.4526918325
 20
83.5006731633
 30
0.0
 10
180.0216807659
 20
84.220997386
 30
0.0
 10
179.7396290593
 20
85.0071236217
 30
0.0
 10
179.6577240634
 20
85.5574839006
 30
0.0
 10
179.6441686072
 20
85.8328193313
 30
0.0
  0
ARC
  5
2DA
330
1B
100
AcDbEntity
 67
     1
  8
3_ALL_AXES
  6
Continuous
 62
     7
100
AcDbCircle
 10
183.8370171961
 20
86.0392715046
 30
0.0
 40
4.1979282735
100
AcDbArc
 50
180.0008036358
 51
182.8189170674
  0
ARC
  5
2DB
330
1B
100
AcDbEntity
 67
     1
  8
3_ALL_AXES
  6
Continuous
 62
     7
100
AcDbCircle
 10
184.4411606499
 20
86.0392715046
 30
0.0
 40
4.1979282735
100
AcDbArc
 50
357.1810829326
 51
359.9991963642
  0
SPLINE
  5
2DC
330
1B
100
AcDbEntity
 67
     1
  8
3_ALL_AXES
  6
Continuous
 62
     7
100
AcDbSpline
 70
     0
 71
     3
 72
    15
 73
    11
 74
     0
 42
0.000000001
 43
0.0000001
 40
0.0
 40
0.0
 40
0.0
 40
0.0
 40
0.1228464025
 40
0.246073951
 40
0.3699277806
 40
0.4945603156
 40
0.6200107192
 40
0.74620196
 40
0.8729471727
 40
1.0
 40
1.0
 40
1.0
 40
1.0
 10
188.6340092389
 20
85.8328193313
 30
0.0
 10
188.6204537827
 20
85.5574839006
 30
0.0
 10
188.5385487868
 20
85.0071236217
 30
0.0
 10
188.2564970802
 20
84.220997386
 30
0.0
 10
187.8254860136
 20
83.5006731633
 30
0.0
 10
187.2613613249
 20
82.8725812912
 30
0.0
 10
186.5847130044
 20
82.35916637
 30
0.0
 10
185.8199710489
 20
81.978843518
 30
0.0
 10
184.9951154095
 20
81.7450866432
 30
0.0
 10
184.4241971081
 20
81.6925464058
 30
0.0
 10
184.139088923
 20
81.6925464058
 30
0.0
  0
SPLINE
  5
2DD
330
1B
100
AcDbEntity
 67
     1
  8
3_ALL_AXES
  6
Continuous
 62
     7
100
AcDbSpline
 70
     0
 71
     3
 72
    11
 73
     7
 74
     0
 42
0.000000001
 43
0.0000001
 40
0.0
 40
0.0
 40
0.0
 40
0.0
 40
0.2509671308
 40
0.5011255569
 40
0.7507111895
 40
1.0
 40
1.0
 40
1.0
 40
1.0
 10
84.0464244401
 20
88.1953467321
 30
0.0
 10
84.142720774
 20
88.0325230339
 30
0.0
 10
84.3137914226
 20
87.694295453
 30
0.0
 10
84.5004477611
 20
87.1583945531
 30
0.0
 10
84.6137639123
 20
86.6036290475
 30
0.0
 10
84.639088923
 20
86.2271156021
 30
0.0
 10
84.639088923
 20
86.0392126241
 30
0.0
  0
SPLINE
  5
2DE
330
1B
100
AcDbEntity
 67
     1
  8
3_ALL_AXES
  6
Continuous
 62
     7
100
AcDbSpline
 70
     0
 71
     3
 72
    15
 73
    11
 74
     0
 42
0.000000001
 43
0.0000001
 40
0.0
 40
0.0
 40
0.0
 40
0.0
 40
0.1270528273
 40
0.25379804
 40
0.3799892808
 40
0.5054396844
 40
0.6300722194
 40
0.753926049
 40
0.8771535975
 40
1.0
 40
1.0
 40
1.0
 40
1.0
 10
80.139088923
 20
81.4854911697
 30
0.0
 10
79.853980738
 20
81.4854911697
 30
0.0
 10
79.2830624366
 20
81.5380314072
 30
0.0
 10
78.4582067972
 20
81.7717882819
 30
0.0
 10
77.6934648417
 20
82.1521111339
 30
0.0
 10
77.0168165211
 20
82.6655260551
 30
0.0
 10
76.4526918325
 20
83.2936179272
 30
0.0
 10
76.0216807659
 20
84.01394215
 30
0.0
 10
75.7396290593
 20
84.8000683856
 30
0.0
 10
75.6577240634
 20
85.3504286646
 30
0.0
 10
75.6441686072
 20
85.6257640952
 30
0.0
  0
ARC
  5
2DF
330
1B
100
AcDbEntity
 67
     1
  8
3_ALL_AXES
  6
Continuous
 62
     7
100
AcDbCircle
 10
79.8370171961
 20
85.8322162686
 30
0.0
 40
4.1979282735
100
AcDbArc
 50
180.0008036358
 51
182.8189170675
  0
LINE
  5
2E0
330
1B
100
AcDbEntity
 67
     1
  8
3_ALL_AXES
  6
Continuous
 62
     7
100
AcDbLine
 10
75.639088923
 20
86.0392126241
 30
0.0
 11
75.639088923
 21
85.832157388
 31
0.0
  0
SPLINE
  5
2E1
330
1B
100
AcDbEntity
 67
     1
  8
3_ALL_AXES
  6
Continuous
 62
     7
100
AcDbSpline
 70
     0
 71
     3
 72
    11
 73
     7
 74
     0
 42
0.000000001
 43
0.0000001
 40
0.0
 40
0.0
 40
0.0
 40
0.0
 40
0.2492888105
 40
0.4988744431
 40
0.7490328692
 40
1.0
 40
1.0
 40
1.0
 40
1.0
 10
75.639088923
 20
86.0392126241
 30
0.0
 10
75.639088923
 20
86.2271156021
 30
0.0
 10
75.6644139337
 20
86.6036290475
 30
0.0
 10
75.777730085
 20
87.1583945531
 30
0.0
 10
75.9643864235
 20
87.694295453
 30
0.0
 10
76.1354570721
 20
88.0325230339
 30
0.0
 10
76.2317534059
 20
88.1953467321
 30
0.0
  0
LINE
  5
2E2
330
1B
100
AcDbEntity
 67
     1
  8
3_ALL_AXES
  6
Continuous
 62
     7
100
AcDbLine
 10
84.639088923
 20
86.0392126241
 30
0.0
 11
84.639088923
 21
85.832157388
 31
0.0
  0
ARC
  5
2E3
330
1B
100
AcDbEntity
 67
     1
  8
3_ALL_AXES
  6
Continuous
 62
     7
100
AcDbCircle
 10
80.4411606499
 20
85.8322162686
 30
0.0
 40
4.1979282735
100
AcDbArc
 50
357.1810829326
 51
359.9991963642
  0
SPLINE
  5
2E4
330
1B
100
AcDbEntity
 67
     1
  8
3_ALL_AXES
  6
Continuous
 62
     7
100
AcDbSpline
 70
     0
 71
     3
 72
    15
 73
    11
 74
     0
 42
0.000000001
 43
0.0000001
 40
0.0
 40
0.0
 40
0.0
 40
0.0
 40
0.1228464025
 40
0.246073951
 40
0.3699277806
 40
0.4945603156
 40
0.6200107192
 40
0.74620196
 40
0.8729471727
 40
1.0
 40
1.0
 40
1.0
 40
1.0
 10
84.6340092389
 20
85.6257640952
 30
0.0
 10
84.6204537827
 20
85.3504286646
 30
0.0
 10
84.5385487868
 20
84.8000683856
 30
0.0
 10
84.2564970802
 20
84.01394215
 30
0.0
 10
83.8254860136
 20
83.2936179272
 30
0.0
 10
83.2613613249
 20
82.6655260551
 30
0.0
 10
82.5847130044
 20
82.1521111339
 30
0.0
 10
81.8199710489
 20
81.7717882819
 30
0.0
 10
80.9951154095
 20
81.5380314072
 30
0.0
 10
80.4241971081
 20
81.4854911697
 30
0.0
 10
80.139088923
 20
81.4854911697
 30
0.0
  0
SPLINE
  5
2E5
330
1B
100
AcDbEntity
 67
     1
  8
3_ALL_AXES
  6
Continuous
 62
     7
100
AcDbSpline
 70
     0
 71
     3
 72
    15
 73
    11
 74
     0
 42
0.000000001
 43
0.0000001
 40
0.0
 40
0.0
 40
0.0
 40
0.0
 40
0.1270528273
 40
0.25379804
 40
0.3799892808
 40
0.5054396844
 40
0.6300722194
 40
0.753926049
 40
0.8771535975
 40
1.0
 40
1.0
 40
1.0
 40
1.0
 10
80.139088923
 20
81.6925464058
 30
0.0
 10
79.853980738
 20
81.6925464058
 30
0.0
 10
79.2830624366
 20
81.7450866432
 30
0.0
 10
78.4582067972
 20
81.978843518
 30
0.0
 10
77.6934648417
 20
82.35916637
 30
0.0
 10
77.0168165211
 20
82.8725812912
 30
0.0
 10
76.4526918325
 20
83.5006731633
 30
0.0
 10
76.0216807659
 20
84.220997386
 30
0.0
 10
75.7396290593
 20
85.0071236217
 30
0.0
 10
75.6577240634
 20
85.5574839006
 30
0.0
 10
75.6441686072
 20
85.8328193313
 30
0.0
  0
ARC
  5
2E6
330
1B
100
AcDbEntity
 67
     1
  8
3_ALL_AXES
  6
Continuous
 62
     7
100
AcDbCircle
 10
79.8370171961
 20
86.0392715046
 30
0.0
 40
4.1979282735
100
AcDbArc
 50
180.0008036358
 51
182.8189170675
  0
ARC
  5
2E7
330
1B
100
AcDbEntity
 67
     1
  8
3_ALL_AXES
  6
Continuous
 62
     7
100
AcDbCircle
 10
80.44116065
 20
86.0392715046
 30
0.0
 40
4.1979282735
100
AcDbArc
 50
357.1810829326
 51
359.9991963642
  0
SPLINE
  5
2E8
330
1B
100
AcDbEntity
 67
     1
  8
3_ALL_AXES
  6
Continuous
 62
     7
100
AcDbSpline
 70
     0
 71
     3
 72
    15
 73
    11
 74
     0
 42
0.000000001
 43
0.0000001
 40
0.0
 40
0.0
 40
0.0
 40
0.0
 40
0.1228464025
 40
0.246073951
 40
0.3699277806
 40
0.4945603156
 40
0.6200107192
 40
0.74620196
 40
0.8729471727
 40
1.0
 40
1.0
 40
1.0
 40
1.0
 10
84.6340092389
 20
85.8328193313
 30
0.0
 10
84.6204537827
 20
85.5574839006
 30
0.0
 10
84.5385487868
 20
85.0071236217
 30
0.0
 10
84.2564970802
 20
84.220997386
 30
0.0
 10
83.8254860136
 20
83.5006731633
 30
0.0
 10
83.2613613249
 20
82.8725812912
 30
0.0
 10
82.5847130044
 20
82.35916637
 30
0.0
 10
81.8199710489
 20
81.978843518
 30
0.0
 10
80.9951154095
 20
81.7450866432
 30
0.0
 10
80.4241971081
 20
81.6925464058
 30
0.0
 10
80.139088923
 20
81.6925464058
 30
0.0
  0
SPLINE
  5
2E9
330
1B
100
AcDbEntity
 67
     1
  8
7_ALL_FEATURES
  6
Continuous
 62
     7
100
AcDbSpline
 70
     0
 71
     3
 72
    11
 73
     7
 74
     0
 42
0.000000001
 43
0.0000001
 40
0.0
 40
0.0
 40
0.0
 40
0.0
 40
0.2525543895
 40
0.5038657763
 40
0.7531052288
 40
1.0
 40
1.0
 40
1.0
 40
1.0
 10
80.139088923
 20
88.8857242071
 30
0.0
 10
80.001364231
 20
88.8857242071
 30
0.0
 10
79.7251826824
 20
88.8487993371
 30
0.0
 10
79.3426994005
 20
88.6864101501
 30
0.0
 10
79.0199804274
 20
88.4293894565
 30
0.0
 10
78.8602902115
 20
88.2058212755
 30
0.0
 10
78.7982477034
 20
88.0863298009
 30
0.0
  0
SPLINE
  5
2EA
330
1B
100
AcDbEntity
 67
     1
  8
7_ALL_FEATURES
  6
Continuous
 62
     7
100
AcDbSpline
 70
     0
 71
     3
 72
    11
 73
     7
 74
     0
 42
0.000000001
 43
0.0000001
 40
0.0
 40
0.0
 40
0.0
 40
0.0
 40
0.2525543895
 40
0.5038657763
 40
0.7531052288
 40
1.0
 40
1.0
 40
1.0
 40
1.0
 10
80.139088923
 20
88.8857242071
 30
0.0
 10
80.2768136151
 20
88.8857242071
 30
0.0
 10
80.5529951636
 20
88.8487993371
 30
0.0
 10
80.9354784455
 20
88.6864101501
 30
0.0
 10
81.2581974187
 20
88.4293894565
 30
0.0
 10
81.4178876345
 20
88.2058212755
 30
0.0
 10
81.4799301426
 20
88.0863298009
 30
0.0
  0
SPLINE
  5
2EB
330
1B
100
AcDbEntity
 67
     1
  8
7_ALL_FEATURES
  6
Continuous
 62
     7
100
AcDbSpline
 70
     0
 71
     3
 72
    11
 73
     7
 74
     0
 42
0.000000001
 43
0.0000001
 40
0.0
 40
0.0
 40
0.0
 40
0.0
 40
0.2525543895
 40
0.5038657763
 40
0.7531052288
 40
1.0
 40
1.0
 40
1.0
 40
1.0
 10
184.139088923
 20
88.8857242071
 30
0.0
 10
184.001364231
 20
88.8857242071
 30
0.0
 10
183.7251826824
 20
88.8487993371
 30
0.0
 10
183.3426994005
 20
88.6864101501
 30
0.0
 10
183.0199804274
 20
88.4293894565
 30
0.0
 10
182.8602902115
 20
88.2058212755
 30
0.0
 10
182.7982477034
 20
88.0863298009
 30
0.0
  0
SPLINE
  5
2EC
330
1B
100
AcDbEntity
 67
     1
  8
7_ALL_FEATURES
  6
Continuous
 62
     7
100
AcDbSpline
 70
     0
 71
     3
 72
    11
 73
     7
 74
     0
 42
0.000000001
 43
0.0000001
 40
0.0
 40
0.0
 40
0.0
 40
0.0
 40
0.2525543895
 40
0.5038657763
 40
0.7531052288
 40
1.0
 40
1.0
 40
1.0
 40
1.0
 10
184.139088923
 20
88.8857242071
 30
0.0
 10
184.2768136151
 20
88.8857242071
 30
0.0
 10
184.5529951636
 20
88.8487993371
 30
0.0
 10
184.9354784455
 20
88.6864101501
 30
0.0
 10
185.2581974187
 20
88.4293894565
 30
0.0
 10
185.4178876345
 20
88.2058212755
 30
0.0
 10
185.4799301426
 20
88.0863298009
 30
0.0
  0
SPLINE
  5
2ED
330
1B
100
AcDbEntity
 67
     1
  8
7_ALL_FEATURES
  6
Continuous
 62
     7
100
AcDbSpline
 70
     0
 71
     3
 72
    15
 73
    11
 74
     0
 42
0.000000001
 43
0.0000001
 40
0.0
 40
0.0
 40
0.0
 40
0.0
 40
0.1271187546
 40
0.2539128779
 40
0.3801214471
 40
0.5055522648
 40
0.6301384237
 40
0.7539384515
 40
0.8771335491
 40
1.0
 40
1.0
 40
1.0
 40
1.0
 10
184.139088923
 20
87.4218540294
 30
0.0
 10
184.0313026718
 20
87.4218540294
 30
0.0
 10
183.8154456748
 20
87.4423379685
 30
0.0
 10
183.504324835
 20
87.5334144242
 30
0.0
 10
183.2173315023
 20
87.6813732873
 30
0.0
 10
182.9656328102
 20
87.8806416224
 30
0.0
 10
182.7588963436
 20
88.1236239228
 30
0.0
 10
182.6051620123
 20
88.4010867968
 30
0.0
 10
182.5104343164
 20
88.7021944471
 30
0.0
 10
182.4890939809
 20
88.9114509954
 30
0.0
 10
182.4890939809
 20
89.0156316428
 30
0.0
  0
SPLINE
  5
2EE
330
1B
100
AcDbEntity
 67
     1
  8
02___PRT_ALL_AXES
  6
Continuous
 62
     7
100
AcDbSpline
 70
     0
 71
     3
 72
    15
 73
    11
 74
     0
 42
0.000000001
 43
0.0000001
 40
0.0
 40
0.0
 40
0.0
 40
0.0
 40
0.1271200361
 40
0.2539130144
 40
0.3801208294
 40
0.5055520268
 40
0.6301380952
 40
0.7539382509
 40
0.8771334218
 40
1.0
 40
1.0
 40
1.0
 40
1.0
 10
184.139088923
 20
84.472063785
 30
0.0
 10
184.3938592556
 20
84.472063785
 30
0.0
 10
184.9040675012
 20
84.5204826688
 30
0.0
 10
185.6394426296
 20
84.7357557641
 30
0.0
 10
186.3177907964
 20
85.0854706228
 30
0.0
 10
186.9127167102
 20
85.5564671864
 30
0.0
 10
187.401363834
 20
86.1307927331
 30
0.0
 10
187.7647450189
 20
86.7866098554
 30
0.0
 10
187.988646482
 20
87.4983214223
 30
0.0
 10
188.0390838073
 20
87.9929288333
 30
0.0
 10
188.0390838073
 20
88.2391745075
 30
0.0
  0
SPLINE
  5
2EF
330
1B
100
AcDbEntity
 67
     1
  8
02___PRT_ALL_AXES
  6
Continuous
 62
     7
100
AcDbSpline
 70
     0
 71
     3
 72
    15
 73
    11
 74
     0
 42
0.000000001
 43
0.0000001
 40
0.0
 40
0.0
 40
0.0
 40
0.0
 40
0.1271200361
 40
0.2539130144
 40
0.3801208294
 40
0.5055520268
 40
0.6301380952
 40
0.7539382509
 40
0.8771334218
 40
1.0
 40
1.0
 40
1.0
 40
1.0
 10
184.139088923
 20
84.472063785
 30
0.0
 10
183.8843185905
 20
84.472063785
 30
0.0
 10
183.3741103449
 20
84.5204826688
 30
0.0
 10
182.6387352164
 20
84.7357557641
 30
0.0
 10
181.9603870497
 20
85.0854706228
 30
0.0
 10
181.3654611359
 20
85.5564671864
 30
0.0
 10
180.876814012
 20
86.1307927331
 30
0.0
 10
180.5134328272
 20
86.7866098554
 30
0.0
 10
180.289531364
 20
87.4983214223
 30
0.0
 10
180.2390940388
 20
87.9929288333
 30
0.0
 10
180.2390940388
 20
88.2391745075
 30
0.0
  0
SPLINE
  5
2F0
330
1B
100
AcDbEntity
 67
     1
  8
7_ALL_FEATURES
  6
Continuous
 62
     7
100
AcDbSpline
 70
     0
 71
     3
 72
    15
 73
    11
 74
     0
 42
0.000000001
 43
0.0000001
 40
0.0
 40
0.0
 40
0.0
 40
0.0
 40
0.1271200248
 40
0.2539130027
 40
0.3801208199
 40
0.5055520189
 40
0.630138089
 40
0.7539382469
 40
0.8771334198
 40
1.0
 40
1.0
 40
1.0
 40
1.0
 10
184.139088923
 20
82.2979838061
 30
0.0
 10
183.884318613
 20
82.2979838058
 30
0.0
 10
183.3741103916
 20
82.3464026861
 30
0.0
 10
182.6387352767
 20
82.5616757586
 30
0.0
 10
181.9603870987
 20
82.9113906113
 30
0.0
 10
181.3654611707
 20
83.3823871748
 30
0.0
 10
180.8768140321
 20
83.9567127237
 30
0.0
 10
180.5134328356
 20
84.6125298535
 30
0.0
 10
180.2895313661
 20
85.3242414316
 30
0.0
 10
180.2390940389
 20
85.8188488508
 30
0.0
 10
180.239094039
 20
86.065094529
 30
0.0
  0
LINE
  5
2F1
330
1B
100
AcDbEntity
 67
     1
  8
02___PRT_ALL_AXES
  6
Continuous
 62
     7
100
AcDbLine
 10
188.039088923
 20
88.2391745075
 30
0.0
 11
188.039088923
 21
88.6921078364
 31
0.0
  0
SPLINE
  5
2F2
330
1B
100
AcDbEntity
 67
     1
  8
02___PRT_ALL_AXES
  6
Continuous
 62
     7
100
AcDbSpline
 70
     0
 71
     3
 72
    15
 73
    11
 74
     0
 42
0.000000001
 43
0.0000001
 40
0.0
 40
0.0
 40
0.0
 40
0.0
 40
0.1228665782
 40
0.2460617491
 40
0.3698619048
 40
0.4944479732
 40
0.6198791706
 40
0.7460869856
 40
0.8728799639
 40
1.0
 40
1.0
 40
1.0
 40
1.0
 10
188.0390838073
 20
88.6921078364
 30
0.0
 10
188.0390838073
 20
88.9383535106
 30
0.0
 10
187.988646482
 20
89.4329609216
 30
0.0
 10
187.7647450189
 20
90.1446724885
 30
0.0
 10
187.401363834
 20
90.8004896109
 30
0.0
 10
186.9127167102
 20
91.3748151575
 30
0.0
 10
186.3177907964
 20
91.8458117211
 30
0.0
 10
185.6394426296
 20
92.1955265798
 30
0.0
 10
184.9040675012
 20
92.4107996751
 30
0.0
 10
184.3938592556
 20
92.4592185589
 30
0.0
 10
184.139088923
 20
92.4592185589
 30
0.0
  0
LINE
  5
2F3
330
1B
100
AcDbEntity
 67
     1
  8
02___PRT_ALL_AXES
  6
Continuous
 62
     7
100
AcDbLine
 10
188.039088923
 20
86.0650945286
 30
0.0
 11
188.039088923
 21
87.7215364173
 31
0.0
  0
SPLINE
  5
2F4
330
1B
100
AcDbEntity
 67
     1
  8
7_ALL_FEATURES
  6
Continuous
 62
     7
100
AcDbSpline
 70
     0
 71
     3
 72
    15
 73
    11
 74
     0
 42
0.000000001
 43
0.0000001
 40
0.0
 40
0.0
 40
0.0
 40
0.0
 40
0.1228665802
 40
0.2460617532
 40
0.3698619111
 40
0.4944479812
 40
0.6198791803
 40
0.7460869974
 40
0.8728799753
 40
1.0
 40
1.0
 40
1.0
 40
1.0
 10
188.0390838071
 20
86.0650945283
 30
0.0
 10
188.039083807
 20
85.8188488501
 30
0.0
 10
187.9886464798
 20
85.3242414308
 30
0.0
 10
187.7647450101
 20
84.6125298527
 30
0.0
 10
187.4013638134
 20
83.9567127228
 30
0.0
 10
186.9127166746
 20
83.3823871741
 30
0.0
 10
186.3177907464
 20
82.9113906106
 30
0.0
 10
185.6394425683
 20
82.5616757582
 30
0.0
 10
184.9040674538
 20
82.346402686
 30
0.0
 10
184.3938592328
 20
82.2979838059
 30
0.0
 10
184.139088923
 20
82.2979838061
 30
0.0
  0
ARC
  5
2F5
330
1B
100
AcDbEntity
 67
     1
  8
02___PRT_ALL_AXES
  6
Continuous
 62
     7
100
AcDbCircle
 10
184.398040669
 20
87.7215357836
 30
0.0
 40
3.6410431382
100
AcDbArc
 50
0.0000099719
 51
4.077093622999999
  0
LINE
  5
2F6
330
1B
100
AcDbEntity
 67
     1
  8
02___PRT_ALL_AXES
  6
Continuous
 62
     7
100
AcDbLine
 10
180.239088923
 20
88.2391745075
 30
0.0
 11
180.239088923
 21
88.6921078364
 31
0.0
  0
SPLINE
  5
2F7
330
1B
100
AcDbEntity
 67
     1
  8
02___PRT_ALL_AXES
  6
Continuous
 62
     7
100
AcDbSpline
 70
     0
 71
     3
 72
    15
 73
    11
 74
     0
 42
0.000000001
 43
0.0000001
 40
0.0
 40
0.0
 40
0.0
 40
0.0
 40
0.1228665782
 40
0.2460617491
 40
0.3698619048
 40
0.4944479732
 40
0.6198791706
 40
0.7460869856
 40
0.8728799639
 40
1.0
 40
1.0
 40
1.0
 40
1.0
 10
180.2390940388
 20
88.6921078364
 30
0.0
 10
180.2390940388
 20
88.9383535106
 30
0.0
 10
180.289531364
 20
89.4329609216
 30
0.0
 10
180.5134328272
 20
90.1446724885
 30
0.0
 10
180.876814012
 20
90.8004896109
 30
0.0
 10
181.3654611359
 20
91.3748151575
 30
0.0
 10
181.9603870497
 20
91.8458117211
 30
0.0
 10
182.6387352164
 20
92.1955265798
 30
0.0
 10
183.3741103449
 20
92.4107996751
 30
0.0
 10
183.8843185905
 20
92.4592185589
 30
0.0
 10
184.139088923
 20
92.4592185589
 30
0.0
  0
LINE
  5
2F8
330
1B
100
AcDbEntity
 67
     1
  8
02___PRT_ALL_AXES
  6
Continuous
 62
     7
100
AcDbLine
 10
180.239088923
 20
86.0650945286
 30
0.0
 11
180.239088923
 21
87.7215364173
 31
0.0
  0
ARC
  5
2F9
330
1B
100
AcDbEntity
 67
     1
  8
02___PRT_ALL_AXES
  6
Continuous
 62
     7
100
AcDbCircle
 10
183.880137177
 20
87.7215357836
 30
0.0
 40
3.6410431382
100
AcDbArc
 50
175.922906377
 51
179.9999900281
  0
SPLINE
  5
2FA
330
1B
100
AcDbEntity
 67
     1
  8
7_ALL_FEATURES
  6
Continuous
 62
     7
100
AcDbSpline
 70
     0
 71
     3
 72
    15
 73
    11
 74
     0
 42
0.000000001
 43
0.0000001
 40
0.0
 40
0.0
 40
0.0
 40
0.0
 40
0.1228664509
 40
0.2460615485
 40
0.3698615763
 40
0.4944477352
 40
0.6198785529
 40
0.7460871221
 40
0.8728812454
 40
1.0
 40
1.0
 40
1.0
 40
1.0
 10
185.7890838651
 20
89.0156316428
 30
0.0
 10
185.7890838651
 20
88.9114509954
 30
0.0
 10
185.7677435297
 20
88.7021944471
 30
0.0
 10
185.6730158337
 20
88.4010867968
 30
0.0
 10
185.5192815025
 20
88.1236239228
 30
0.0
 10
185.3125450358
 20
87.8806416224
 30
0.0
 10
185.0608463438
 20
87.6813732873
 30
0.0
 10
184.7738530111
 20
87.5334144242
 30
0.0
 10
184.4627321712
 20
87.4423379685
 30
0.0
 10
184.2468751743
 20
87.4218540294
 30
0.0
 10
184.139088923
 20
87.4218540294
 30
0.0
  0
SPLINE
  5
2FB
330
1B
100
AcDbEntity
 67
     1
  8
7_ALL_FEATURES
  6
Continuous
 62
     7
100
AcDbSpline
 70
     0
 71
     3
 72
    15
 73
    11
 74
     0
 42
0.000000001
 43
0.0000001
 40
0.0
 40
0.0
 40
0.0
 40
0.0
 40
0.1271187546
 40
0.2539128779
 40
0.3801214471
 40
0.5055522648
 40
0.6301384237
 40
0.7539384515
 40
0.8771335491
 40
1.0
 40
1.0
 40
1.0
 40
1.0
 10
184.139088923
 20
90.6094092562
 30
0.0
 10
184.2468751743
 20
90.6094092562
 30
0.0
 10
184.4627321712
 20
90.5889253171
 30
0.0
 10
184.7738530111
 20
90.4978488614
 30
0.0
 10
185.0608463438
 20
90.3498899983
 30
0.0
 10
185.3125450358
 20
90.1506216632
 30
0.0
 10
185.5192815025
 20
89.9076393628
 30
0.0
 10
185.6730158337
 20
89.6301764888
 30
0.0
 10
185.7677435297
 20
89.3290688385
 30
0.0
 10
185.7890838651
 20
89.1198122902
 30
0.0
 10
185.7890838651
 20
89.0156316428
 30
0.0
  0
SPLINE
  5
2FC
330
1B
100
AcDbEntity
 67
     1
  8
02___PRT_ALL_AXES
  6
Continuous
 62
     7
100
AcDbSpline
 70
     0
 71
     3
 72
    15
 73
    11
 74
     0
 42
0.000000001
 43
0.0000001
 40
0.0
 40
0.0
 40
0.0
 40
0.0
 40
0.1271200361
 40
0.2539130144
 40
0.3801208294
 40
0.5055520268
 40
0.6301380952
 40
0.7539382509
 40
0.8771334218
 40
1.0
 40
1.0
 40
1.0
 40
1.0
 10
184.139088923
 20
83.9544256948
 30
0.0
 10
184.3938592556
 20
83.9544256948
 30
0.0
 10
184.9040675012
 20
84.0028445786
 30
0.0
 10
185.6394426296
 20
84.2181176739
 30
0.0
 10
186.3177907964
 20
84.5678325326
 30
0.0
 10
186.9127167102
 20
85.0388290962
 30
0.0
 10
187.401363834
 20
85.6131546428
 30
0.0
 10
187.7647450189
 20
86.2689717652
 30
0.0
 10
187.988646482
 20
86.9806833321
 30
0.0
 10
188.0390838073
 20
87.4752907431
 30
0.0
 10
188.0390838073
 20
87.7215364173
 30
0.0
  0
SPLINE
  5
2FD
330
1B
100
AcDbEntity
 67
     1
  8
02___PRT_ALL_AXES
  6
Continuous
 62
     7
100
AcDbSpline
 70
     0
 71
     3
 72
    27
 73
    23
 74
     0
 42
0.000000001
 43
0.0000001
 40
0.0
 40
0.0
 40
0.0
 40
0.0
 40
0.0635413274
 40
0.0952950072
 40
0.1269908659
 40
0.1900762935
 40
0.2527732725
 40
0.2840008754
 40
0.3151238502
 40
0.3770055669
 40
0.4385849169
 40
0.5
 40
0.5614150831
 40
0.6229944331
 40
0.6848761498
 40
0.7159991246
 40
0.7472267275
 40
0.8099237065
 40
0.8730091341
 40
0.9047049928
 40
0.9364586726
 40
1.0
 40
1.0
 40
1.0
 40
1.0
 10
184.139088923
 20
85.9456178401
 30
0.0
 10
183.9314629337
 20
85.9456178401
 30
0.0
 10
183.6190240797
 20
85.9753065284
 30
0.0
 10
183.2152759906
 20
86.0730179103
 30
0.0
 10
182.8239350943
 20
86.2082017143
 30
0.0
 10
182.3635500292
 20
86.4454798647
 30
0.0
 10
181.958620921
 20
86.7661434327
 30
0.0
 10
181.6786149823
 20
87.0645260298
 30
0.0
 10
181.4309600055
 20
87.3868794729
 30
0.0
 10
181.1843132291
 20
87.8318760786
 30
0.0
 10
181.0019003166
 20
88.4120179938
 30
0.0
 10
180.9402424426
 20
89.0156316428
 30
0.0
 10
181.0019003166
 20
89.6192452918
 30
0.0
 10
181.1843132291
 20
90.199387207
 30
0.0
 10
181.4309600055
 20
90.6443838127
 30
0.0
 10
181.6786149823
 20
90.9667372558
 30
0.0
 10
181.958620921
 20
91.2651198529
 30
0.0
 10
182.3635500292
 20
91.5857834209
 30
0.0
 10
182.8239350943
 20
91.8230615713
 30
0.0
 10
183.2152759906
 20
91.9582453753
 30
0.0
 10
183.6190240797
 20
92.0559567572
 30
0.0
 10
183.9314629337
 20
92.0856454455
 30
0.0
 10
184.139088923
 20
92.0856454455
 30
0.0
  0
SPLINE
  5
2FE
330
1B
100
AcDbEntity
 67
     1
  8
02___PRT_ALL_AXES
  6
Continuous
 62
     7
100
AcDbSpline
 70
     0
 71
     3
 72
    15
 73
    11
 74
     0
 42
0.000000001
 43
0.0000001
 40
0.0
 40
0.0
 40
0.0
 40
0.0
 40
0.1271200361
 40
0.2539130144
 40
0.3801208294
 40
0.5055520268
 40
0.6301380952
 40
0.7539382509
 40
0.8771334218
 40
1.0
 40
1.0
 40
1.0
 40
1.0
 10
184.139088923
 20
84.9249971139
 30
0.0
 10
183.8843185905
 20
84.9249971139
 30
0.0
 10
183.3741103449
 20
84.9734159978
 30
0.0
 10
182.6387352164
 20
85.1886890931
 30
0.0
 10
181.9603870497
 20
85.5384039518
 30
0.0
 10
181.3654611359
 20
86.0094005154
 30
0.0
 10
180.876814012
 20
86.583726062
 30
0.0
 10
180.5134328272
 20
87.2395431843
 30
0.0
 10
180.289531364
 20
87.9512547512
 30
0.0
 10
180.2390940388
 20
88.4458621623
 30
0.0
 10
180.2390940388
 20
88.6921078364
 30
0.0
  0
SPLINE
  5
2FF
330
1B
100
AcDbEntity
 67
     1
  8
7_ALL_FEATURES
  6
Continuous
 62
     7
100
AcDbSpline
 70
     0
 71
     3
 72
    15
 73
    11
 74
     0
 42
0.000000001
 43
0.0000001
 40
0.0
 40
0.0
 40
0.0
 40
0.0
 40
0.1228664509
 40
0.2460615485
 40
0.3698615763
 40
0.4944477352
 40
0.6198785529
 40
0.7460871221
 40
0.8728812454
 40
1.0
 40
1.0
 40
1.0
 40
1.0
 10
182.4890939809
 20
89.0156316428
 30
0.0
 10
182.4890939809
 20
89.1198122902
 30
0.0
 10
182.5104343164
 20
89.3290688385
 30
0.0
 10
182.6051620123
 20
89.6301764888
 30
0.0
 10
182.7588963436
 20
89.9076393628
 30
0.0
 10
182.9656328102
 20
90.1506216632
 30
0.0
 10
183.2173315023
 20
90.3498899983
 30
0.0
 10
183.504324835
 20
90.4978488614
 30
0.0
 10
183.8154456748
 20
90.5889253171
 30
0.0
 10
184.0313026718
 20
90.6094092562
 30
0.0
 10
184.139088923
 20
90.6094092562
 30
0.0
  0
SPLINE
  5
300
330
1B
100
AcDbEntity
 67
     1
  8
02___PRT_ALL_AXES
  6
Continuous
 62
     7
100
AcDbSpline
 70
     0
 71
     3
 72
    27
 73
    23
 74
     0
 42
0.000000001
 43
0.0000001
 40
0.0
 40
0.0
 40
0.0
 40
0.0
 40
0.0635413274
 40
0.0952950072
 40
0.1269908659
 40
0.1900762935
 40
0.2527732725
 40
0.2840008754
 40
0.3151238502
 40
0.3770055669
 40
0.4385849169
 40
0.5
 40
0.5614150831
 40
0.6229944331
 40
0.6848761498
 40
0.7159991246
 40
0.7472267275
 40
0.8099237065
 40
0.8730091341
 40
0.9047049928
 40
0.9364586726
 40
1.0
 40
1.0
 40
1.0
 40
1.0
 10
184.139088923
 20
85.9456178401
 30
0.0
 10
184.3467149123
 20
85.9456178401
 30
0.0
 10
184.6591537664
 20
85.9753065284
 30
0.0
 10
185.0629018554
 20
86.0730179103
 30
0.0
 10
185.4542427517
 20
86.2082017143
 30
0.0
 10
185.9146278169
 20
86.4454798647
 30
0.0
 10
186.3195569251
 20
86.7661434327
 30
0.0
 10
186.5995628637
 20
87.0645260298
 30
0.0
 10
186.8472178405
 20
87.3868794729
 30
0.0
 10
187.0938646169
 20
87.8318760786
 30
0.0
 10
187.2762775295
 20
88.4120179938
 30
0.0
 10
187.3379354035
 20
89.0156316428
 30
0.0
 10
187.2762775295
 20
89.6192452918
 30
0.0
 10
187.0938646169
 20
90.199387207
 30
0.0
 10
186.8472178405
 20
90.6443838127
 30
0.0
 10
186.5995628637
 20
90.9667372558
 30
0.0
 10
186.3195569251
 20
91.2651198529
 30
0.0
 10
185.9146278169
 20
91.5857834209
 30
0.0
 10
185.4542427517
 20
91.8230615713
 30
0.0
 10
185.0629018554
 20
91.9582453753
 30
0.0
 10
184.6591537664
 20
92.0559567572
 30
0.0
 10
184.3467149123
 20
92.0856454455
 30
0.0
 10
184.139088923
 20
92.0856454455
 30
0.0
  0
SPLINE
  5
301
330
1B
100
AcDbEntity
 67
     1
  8
02___PRT_ALL_AXES
  6
Continuous
 62
     7
100
AcDbSpline
 70
     0
 71
     3
 72
    15
 73
    11
 74
     0
 42
0.000000001
 43
0.0000001
 40
0.0
 40
0.0
 40
0.0
 40
0.0
 40
0.1271200361
 40
0.2539130144
 40
0.3801208294
 40
0.5055520268
 40
0.6301380952
 40
0.7539382509
 40
0.8771334218
 40
1.0
 40
1.0
 40
1.0
 40
1.0
 10
184.139088923
 20
84.9249971139
 30
0.0
 10
184.3938592556
 20
84.9249971139
 30
0.0
 10
184.9040675012
 20
84.9734159978
 30
0.0
 10
185.6394426296
 20
85.1886890931
 30
0.0
 10
186.3177907964
 20
85.5384039518
 30
0.0
 10
186.9127167102
 20
86.0094005154
 30
0.0
 10
187.401363834
 20
86.583726062
 30
0.0
 10
187.7647450189
 20
87.2395431843
 30
0.0
 10
187.988646482
 20
87.9512547512
 30
0.0
 10
188.0390838073
 20
88.4458621623
 30
0.0
 10
188.0390838073
 20
88.6921078364
 30
0.0
  0
SPLINE
  5
302
330
1B
100
AcDbEntity
 67
     1
  8
02___PRT_ALL_AXES
  6
Continuous
 62
     7
100
AcDbSpline
 70
     0
 71
     3
 72
    15
 73
    11
 74
     0
 42
0.000000001
 43
0.0000001
 40
0.0
 40
0.0
 40
0.0
 40
0.0
 40
0.1271200361
 40
0.2539130144
 40
0.3801208294
 40
0.5055520268
 40
0.6301380952
 40
0.7539382509
 40
0.8771334218
 40
1.0
 40
1.0
 40
1.0
 40
1.0
 10
184.139088923
 20
83.9544256948
 30
0.0
 10
183.8843185905
 20
83.9544256948
 30
0.0
 10
183.3741103449
 20
84.0028445786
 30
0.0
 10
182.6387352164
 20
84.2181176739
 30
0.0
 10
181.9603870497
 20
84.5678325326
 30
0.0
 10
181.3654611359
 20
85.0388290962
 30
0.0
 10
180.876814012
 20
85.6131546428
 30
0.0
 10
180.5134328272
 20
86.2689717652
 30
0.0
 10
180.289531364
 20
86.9806833321
 30
0.0
 10
180.2390940388
 20
87.4752907431
 30
0.0
 10
180.2390940388
 20
87.7215364173
 30
0.0
  0
SPLINE
  5
303
330
1B
100
AcDbEntity
 67
     1
  8
7_ALL_FEATURES
  6
Continuous
 62
     7
100
AcDbSpline
 70
     0
 71
     3
 72
    15
 73
    11
 74
     0
 42
0.000000001
 43
0.0000001
 40
0.0
 40
0.0
 40
0.0
 40
0.0
 40
0.1271187546
 40
0.2539128779
 40
0.3801214471
 40
0.5055522648
 40
0.6301384237
 40
0.7539384515
 40
0.8771335491
 40
1.0
 40
1.0
 40
1.0
 40
1.0
 10
80.139088923
 20
87.4218540294
 30
0.0
 10
80.0313026718
 20
87.4218540294
 30
0.0
 10
79.8154456748
 20
87.4423379685
 30
0.0
 10
79.504324835
 20
87.5334144242
 30
0.0
 10
79.2173315023
 20
87.6813732873
 30
0.0
 10
78.9656328102
 20
87.8806416224
 30
0.0
 10
78.7588963436
 20
88.1236239228
 30
0.0
 10
78.6051620123
 20
88.4010867968
 30
0.0
 10
78.5104343164
 20
88.7021944471
 30
0.0
 10
78.4890939809
 20
88.9114509954
 30
0.0
 10
78.4890939809
 20
89.0156316428
 30
0.0
  0
SPLINE
  5
304
330
1B
100
AcDbEntity
 67
     1
  8
02___PRT_ALL_AXES
  6
Continuous
 62
     7
100
AcDbSpline
 70
     0
 71
     3
 72
    15
 73
    11
 74
     0
 42
0.000000001
 43
0.0000001
 40
0.0
 40
0.0
 40
0.0
 40
0.0
 40
0.1271200361
 40
0.2539130144
 40
0.3801208294
 40
0.5055520268
 40
0.6301380952
 40
0.7539382509
 40
0.8771334218
 40
1.0
 40
1.0
 40
1.0
 40
1.0
 10
80.139088923
 20
84.472063785
 30
0.0
 10
80.3938592556
 20
84.472063785
 30
0.0
 10
80.9040675012
 20
84.5204826688
 30
0.0
 10
81.6394426296
 20
84.7357557641
 30
0.0
 10
82.3177907964
 20
85.0854706228
 30
0.0
 10
82.9127167102
 20
85.5564671864
 30
0.0
 10
83.401363834
 20
86.1307927331
 30
0.0
 10
83.7647450189
 20
86.7866098554
 30
0.0
 10
83.988646482
 20
87.4983214223
 30
0.0
 10
84.0390838073
 20
87.9929288333
 30
0.0
 10
84.0390838073
 20
88.2391745075
 30
0.0
  0
SPLINE
  5
305
330
1B
100
AcDbEntity
 67
     1
  8
02___PRT_ALL_AXES
  6
Continuous
 62
     7
100
AcDbSpline
 70
     0
 71
     3
 72
    15
 73
    11
 74
     0
 42
0.000000001
 43
0.0000001
 40
0.0
 40
0.0
 40
0.0
 40
0.0
 40
0.1271200361
 40
0.2539130144
 40
0.3801208294
 40
0.5055520268
 40
0.6301380952
 40
0.7539382509
 40
0.8771334218
 40
1.0
 40
1.0
 40
1.0
 40
1.0
 10
80.139088923
 20
84.472063785
 30
0.0
 10
79.8843185905
 20
84.472063785
 30
0.0
 10
79.3741103449
 20
84.5204826688
 30
0.0
 10
78.6387352164
 20
84.7357557641
 30
0.0
 10
77.9603870497
 20
85.0854706228
 30
0.0
 10
77.3654611359
 20
85.5564671864
 30
0.0
 10
76.876814012
 20
86.1307927331
 30
0.0
 10
76.5134328272
 20
86.7866098554
 30
0.0
 10
76.289531364
 20
87.4983214223
 30
0.0
 10
76.2390940388
 20
87.9929288333
 30
0.0
 10
76.2390940388
 20
88.2391745075
 30
0.0
  0
SPLINE
  5
306
330
1B
100
AcDbEntity
 67
     1
  8
7_ALL_FEATURES
  6
Continuous
 62
     7
100
AcDbSpline
 70
     0
 71
     3
 72
    15
 73
    11
 74
     0
 42
0.000000001
 43
0.0000001
 40
0.0
 40
0.0
 40
0.0
 40
0.0
 40
0.1271200248
 40
0.2539130027
 40
0.3801208199
 40
0.5055520189
 40
0.630138089
 40
0.7539382469
 40
0.8771334198
 40
1.0
 40
1.0
 40
1.0
 40
1.0
 10
80.139088923
 20
82.2979838061
 30
0.0
 10
79.884318613
 20
82.2979838058
 30
0.0
 10
79.3741103916
 20
82.3464026861
 30
0.0
 10
78.6387352767
 20
82.5616757586
 30
0.0
 10
77.9603870987
 20
82.9113906113
 30
0.0
 10
77.3654611707
 20
83.3823871748
 30
0.0
 10
76.8768140321
 20
83.9567127237
 30
0.0
 10
76.5134328356
 20
84.6125298535
 30
0.0
 10
76.2895313661
 20
85.3242414316
 30
0.0
 10
76.2390940389
 20
85.8188488508
 30
0.0
 10
76.239094039
 20
86.065094529
 30
0.0
  0
LINE
  5
307
330
1B
100
AcDbEntity
 67
     1
  8
02___PRT_ALL_AXES
  6
Continuous
 62
     7
100
AcDbLine
 10
84.039088923
 20
88.2391745075
 30
0.0
 11
84.039088923
 21
88.6921078364
 31
0.0
  0
SPLINE
  5
308
330
1B
100
AcDbEntity
 67
     1
  8
02___PRT_ALL_AXES
  6
Continuous
 62
     7
100
AcDbSpline
 70
     0
 71
     3
 72
    15
 73
    11
 74
     0
 42
0.000000001
 43
0.0000001
 40
0.0
 40
0.0
 40
0.0
 40
0.0
 40
0.1228665782
 40
0.2460617491
 40
0.3698619048
 40
0.4944479732
 40
0.6198791706
 40
0.7460869856
 40
0.8728799639
 40
1.0
 40
1.0
 40
1.0
 40
1.0
 10
84.0390838073
 20
88.6921078364
 30
0.0
 10
84.0390838073
 20
88.9383535106
 30
0.0
 10
83.988646482
 20
89.4329609216
 30
0.0
 10
83.7647450189
 20
90.1446724885
 30
0.0
 10
83.401363834
 20
90.8004896109
 30
0.0
 10
82.9127167102
 20
91.3748151575
 30
0.0
 10
82.3177907964
 20
91.8458117211
 30
0.0
 10
81.6394426296
 20
92.1955265798
 30
0.0
 10
80.9040675012
 20
92.4107996751
 30
0.0
 10
80.3938592556
 20
92.4592185589
 30
0.0
 10
80.139088923
 20
92.4592185589
 30
0.0
  0
LINE
  5
309
330
1B
100
AcDbEntity
 67
     1
  8
02___PRT_ALL_AXES
  6
Continuous
 62
     7
100
AcDbLine
 10
84.039088923
 20
86.0650945286
 30
0.0
 11
84.039088923
 21
87.7215364173
 31
0.0
  0
SPLINE
  5
30A
330
1B
100
AcDbEntity
 67
     1
  8
7_ALL_FEATURES
  6
Continuous
 62
     7
100
AcDbSpline
 70
     0
 71
     3
 72
    15
 73
    11
 74
     0
 42
0.000000001
 43
0.0000001
 40
0.0
 40
0.0
 40
0.0
 40
0.0
 40
0.1228665802
 40
0.2460617532
 40
0.3698619111
 40
0.4944479812
 40
0.6198791803
 40
0.7460869974
 40
0.8728799753
 40
1.0
 40
1.0
 40
1.0
 40
1.0
 10
84.0390838071
 20
86.0650945283
 30
0.0
 10
84.039083807
 20
85.8188488501
 30
0.0
 10
83.9886464798
 20
85.3242414308
 30
0.0
 10
83.7647450101
 20
84.6125298527
 30
0.0
 10
83.4013638134
 20
83.9567127228
 30
0.0
 10
82.9127166746
 20
83.3823871741
 30
0.0
 10
82.3177907464
 20
82.9113906106
 30
0.0
 10
81.6394425683
 20
82.5616757582
 30
0.0
 10
80.9040674538
 20
82.346402686
 30
0.0
 10
80.3938592328
 20
82.2979838059
 30
0.0
 10
80.139088923
 20
82.2979838061
 30
0.0
  0
ARC
  5
30B
330
1B
100
AcDbEntity
 67
     1
  8
02___PRT_ALL_AXES
  6
Continuous
 62
     7
100
AcDbCircle
 10
80.398040669
 20
87.7215357836
 30
0.0
 40
3.6410431382
100
AcDbArc
 50
0.0000099719
 51
4.077093622999999
  0
LINE
  5
30C
330
1B
100
AcDbEntity
 67
     1
  8
02___PRT_ALL_AXES
  6
Continuous
 62
     7
100
AcDbLine
 10
76.239088923
 20
88.2391745075
 30
0.0
 11
76.239088923
 21
88.6921078364
 31
0.0
  0
SPLINE
  5
30D
330
1B
100
AcDbEntity
 67
     1
  8
02___PRT_ALL_AXES
  6
Continuous
 62
     7
100
AcDbSpline
 70
     0
 71
     3
 72
    15
 73
    11
 74
     0
 42
0.000000001
 43
0.0000001
 40
0.0
 40
0.0
 40
0.0
 40
0.0
 40
0.1228665782
 40
0.2460617491
 40
0.3698619048
 40
0.4944479732
 40
0.6198791706
 40
0.7460869856
 40
0.8728799639
 40
1.0
 40
1.0
 40
1.0
 40
1.0
 10
76.2390940388
 20
88.6921078364
 30
0.0
 10
76.2390940388
 20
88.9383535106
 30
0.0
 10
76.289531364
 20
89.4329609216
 30
0.0
 10
76.5134328272
 20
90.1446724885
 30
0.0
 10
76.876814012
 20
90.8004896109
 30
0.0
 10
77.3654611359
 20
91.3748151575
 30
0.0
 10
77.9603870497
 20
91.8458117211
 30
0.0
 10
78.6387352164
 20
92.1955265798
 30
0.0
 10
79.3741103449
 20
92.4107996751
 30
0.0
 10
79.8843185905
 20
92.4592185589
 30
0.0
 10
80.139088923
 20
92.4592185589
 30
0.0
  0
LINE
  5
30E
330
1B
100
AcDbEntity
 67
     1
  8
02___PRT_ALL_AXES
  6
Continuous
 62
     7
100
AcDbLine
 10
76.239088923
 20
86.0650945286
 30
0.0
 11
76.239088923
 21
87.7215364173
 31
0.0
  0
ARC
  5
30F
330
1B
100
AcDbEntity
 67
     1
  8
02___PRT_ALL_AXES
  6
Continuous
 62
     7
100
AcDbCircle
 10
79.880137177
 20
87.7215357836
 30
0.0
 40
3.6410431382
100
AcDbArc
 50
175.922906377
 51
179.9999900281
  0
SPLINE
  5
310
330
1B
100
AcDbEntity
 67
     1
  8
7_ALL_FEATURES
  6
Continuous
 62
     7
100
AcDbSpline
 70
     0
 71
     3
 72
    15
 73
    11
 74
     0
 42
0.000000001
 43
0.0000001
 40
0.0
 40
0.0
 40
0.0
 40
0.0
 40
0.1228664509
 40
0.2460615485
 40
0.3698615763
 40
0.4944477352
 40
0.6198785529
 40
0.7460871221
 40
0.8728812454
 40
1.0
 40
1.0
 40
1.0
 40
1.0
 10
81.7890838651
 20
89.0156316428
 30
0.0
 10
81.7890838651
 20
88.9114509954
 30
0.0
 10
81.7677435297
 20
88.7021944471
 30
0.0
 10
81.6730158337
 20
88.4010867968
 30
0.0
 10
81.5192815025
 20
88.1236239228
 30
0.0
 10
81.3125450358
 20
87.8806416224
 30
0.0
 10
81.0608463438
 20
87.6813732873
 30
0.0
 10
80.7738530111
 20
87.5334144242
 30
0.0
 10
80.4627321712
 20
87.4423379685
 30
0.0
 10
80.2468751743
 20
87.4218540294
 30
0.0
 10
80.139088923
 20
87.4218540294
 30
0.0
  0
SPLINE
  5
311
330
1B
100
AcDbEntity
 67
     1
  8
7_ALL_FEATURES
  6
Continuous
 62
     7
100
AcDbSpline
 70
     0
 71
     3
 72
    15
 73
    11
 74
     0
 42
0.000000001
 43
0.0000001
 40
0.0
 40
0.0
 40
0.0
 40
0.0
 40
0.1271187546
 40
0.2539128779
 40
0.3801214471
 40
0.5055522648
 40
0.6301384237
 40
0.7539384515
 40
0.8771335491
 40
1.0
 40
1.0
 40
1.0
 40
1.0
 10
80.139088923
 20
90.6094092562
 30
0.0
 10
80.2468751743
 20
90.6094092562
 30
0.0
 10
80.4627321712
 20
90.5889253171
 30
0.0
 10
80.7738530111
 20
90.4978488614
 30
0.0
 10
81.0608463438
 20
90.3498899983
 30
0.0
 10
81.3125450358
 20
90.1506216632
 30
0.0
 10
81.5192815025
 20
89.9076393628
 30
0.0
 10
81.6730158337
 20
89.6301764888
 30
0.0
 10
81.7677435297
 20
89.3290688385
 30
0.0
 10
81.7890838651
 20
89.1198122902
 30
0.0
 10
81.7890838651
 20
89.0156316428
 30
0.0
  0
SPLINE
  5
312
330
1B
100
AcDbEntity
 67
     1
  8
02___PRT_ALL_AXES
  6
Continuous
 62
     7
100
AcDbSpline
 70
     0
 71
     3
 72
    15
 73
    11
 74
     0
 42
0.000000001
 43
0.0000001
 40
0.0
 40
0.0
 40
0.0
 40
0.0
 40
0.1271200361
 40
0.2539130144
 40
0.3801208294
 40
0.5055520268
 40
0.6301380952
 40
0.7539382509
 40
0.8771334218
 40
1.0
 40
1.0
 40
1.0
 40
1.0
 10
80.139088923
 20
83.9544256948
 30
0.0
 10
80.3938592556
 20
83.9544256948
 30
0.0
 10
80.9040675012
 20
84.0028445786
 30
0.0
 10
81.6394426296
 20
84.2181176739
 30
0.0
 10
82.3177907964
 20
84.5678325326
 30
0.0
 10
82.9127167102
 20
85.0388290962
 30
0.0
 10
83.401363834
 20
85.6131546428
 30
0.0
 10
83.7647450189
 20
86.2689717652
 30
0.0
 10
83.988646482
 20
86.9806833321
 30
0.0
 10
84.0390838073
 20
87.4752907431
 30
0.0
 10
84.0390838073
 20
87.7215364173
 30
0.0
  0
SPLINE
  5
313
330
1B
100
AcDbEntity
 67
     1
  8
02___PRT_ALL_AXES
  6
Continuous
 62
     7
100
AcDbSpline
 70
     0
 71
     3
 72
    27
 73
    23
 74
     0
 42
0.000000001
 43
0.0000001
 40
0.0
 40
0.0
 40
0.0
 40
0.0
 40
0.0635413274
 40
0.0952950072
 40
0.1269908659
 40
0.1900762935
 40
0.2527732725
 40
0.2840008754
 40
0.3151238502
 40
0.3770055669
 40
0.4385849169
 40
0.5
 40
0.5614150831
 40
0.6229944331
 40
0.6848761498
 40
0.7159991246
 40
0.7472267275
 40
0.8099237065
 40
0.8730091341
 40
0.9047049928
 40
0.9364586726
 40
1.0
 40
1.0
 40
1.0
 40
1.0
 10
80.139088923
 20
85.9456178401
 30
0.0
 10
79.9314629337
 20
85.9456178401
 30
0.0
 10
79.6190240797
 20
85.9753065284
 30
0.0
 10
79.2152759906
 20
86.0730179103
 30
0.0
 10
78.8239350943
 20
86.2082017143
 30
0.0
 10
78.3635500292
 20
86.4454798647
 30
0.0
 10
77.958620921
 20
86.7661434327
 30
0.0
 10
77.6786149823
 20
87.0645260298
 30
0.0
 10
77.4309600055
 20
87.3868794729
 30
0.0
 10
77.1843132291
 20
87.8318760786
 30
0.0
 10
77.0019003166
 20
88.4120179938
 30
0.0
 10
76.9402424426
 20
89.0156316428
 30
0.0
 10
77.0019003166
 20
89.6192452918
 30
0.0
 10
77.1843132291
 20
90.199387207
 30
0.0
 10
77.4309600055
 20
90.6443838127
 30
0.0
 10
77.6786149823
 20
90.9667372558
 30
0.0
 10
77.958620921
 20
91.2651198529
 30
0.0
 10
78.3635500292
 20
91.5857834209
 30
0.0
 10
78.8239350943
 20
91.8230615713
 30
0.0
 10
79.2152759906
 20
91.9582453753
 30
0.0
 10
79.6190240797
 20
92.0559567572
 30
0.0
 10
79.9314629337
 20
92.0856454455
 30
0.0
 10
80.139088923
 20
92.0856454455
 30
0.0
  0
SPLINE
  5
314
330
1B
100
AcDbEntity
 67
     1
  8
02___PRT_ALL_AXES
  6
Continuous
 62
     7
100
AcDbSpline
 70
     0
 71
     3
 72
    15
 73
    11
 74
     0
 42
0.000000001
 43
0.0000001
 40
0.0
 40
0.0
 40
0.0
 40
0.0
 40
0.1271200361
 40
0.2539130144
 40
0.3801208294
 40
0.5055520268
 40
0.6301380952
 40
0.7539382509
 40
0.8771334218
 40
1.0
 40
1.0
 40
1.0
 40
1.0
 10
80.139088923
 20
84.9249971139
 30
0.0
 10
79.8843185905
 20
84.9249971139
 30
0.0
 10
79.3741103449
 20
84.9734159978
 30
0.0
 10
78.6387352164
 20
85.1886890931
 30
0.0
 10
77.9603870497
 20
85.5384039518
 30
0.0
 10
77.3654611359
 20
86.0094005154
 30
0.0
 10
76.876814012
 20
86.583726062
 30
0.0
 10
76.5134328272
 20
87.2395431843
 30
0.0
 10
76.289531364
 20
87.9512547512
 30
0.0
 10
76.2390940388
 20
88.4458621623
 30
0.0
 10
76.2390940388
 20
88.6921078364
 30
0.0
  0
SPLINE
  5
315
330
1B
100
AcDbEntity
 67
     1
  8
7_ALL_FEATURES
  6
Continuous
 62
     7
100
AcDbSpline
 70
     0
 71
     3
 72
    15
 73
    11
 74
     0
 42
0.000000001
 43
0.0000001
 40
0.0
 40
0.0
 40
0.0
 40
0.0
 40
0.1228664509
 40
0.2460615485
 40
0.3698615763
 40
0.4944477352
 40
0.6198785529
 40
0.7460871221
 40
0.8728812454
 40
1.0
 40
1.0
 40
1.0
 40
1.0
 10
78.4890939809
 20
89.0156316428
 30
0.0
 10
78.4890939809
 20
89.1198122902
 30
0.0
 10
78.5104343164
 20
89.3290688385
 30
0.0
 10
78.6051620123
 20
89.6301764888
 30
0.0
 10
78.7588963436
 20
89.9076393628
 30
0.0
 10
78.9656328102
 20
90.1506216632
 30
0.0
 10
79.2173315023
 20
90.3498899983
 30
0.0
 10
79.504324835
 20
90.4978488614
 30
0.0
 10
79.8154456748
 20
90.5889253171
 30
0.0
 10
80.0313026718
 20
90.6094092562
 30
0.0
 10
80.139088923
 20
90.6094092562
 30
0.0
  0
SPLINE
  5
316
330
1B
100
AcDbEntity
 67
     1
  8
02___PRT_ALL_AXES
  6
Continuous
 62
     7
100
AcDbSpline
 70
     0
 71
     3
 72
    27
 73
    23
 74
     0
 42
0.000000001
 43
0.0000001
 40
0.0
 40
0.0
 40
0.0
 40
0.0
 40
0.0635413274
 40
0.0952950072
 40
0.1269908659
 40
0.1900762935
 40
0.2527732725
 40
0.2840008754
 40
0.3151238502
 40
0.3770055669
 40
0.4385849169
 40
0.5
 40
0.5614150831
 40
0.6229944331
 40
0.6848761498
 40
0.7159991246
 40
0.7472267275
 40
0.8099237065
 40
0.8730091341
 40
0.9047049928
 40
0.9364586726
 40
1.0
 40
1.0
 40
1.0
 40
1.0
 10
80.139088923
 20
85.9456178401
 30
0.0
 10
80.3467149123
 20
85.9456178401
 30
0.0
 10
80.6591537664
 20
85.9753065284
 30
0.0
 10
81.0629018554
 20
86.0730179103
 30
0.0
 10
81.4542427517
 20
86.2082017143
 30
0.0
 10
81.9146278169
 20
86.4454798647
 30
0.0
 10
82.3195569251
 20
86.7661434327
 30
0.0
 10
82.5995628637
 20
87.0645260298
 30
0.0
 10
82.8472178405
 20
87.3868794729
 30
0.0
 10
83.0938646169
 20
87.8318760786
 30
0.0
 10
83.2762775295
 20
88.4120179938
 30
0.0
 10
83.3379354035
 20
89.0156316428
 30
0.0
 10
83.2762775295
 20
89.6192452918
 30
0.0
 10
83.0938646169
 20
90.199387207
 30
0.0
 10
82.8472178405
 20
90.6443838127
 30
0.0
 10
82.5995628637
 20
90.9667372558
 30
0.0
 10
82.3195569251
 20
91.2651198529
 30
0.0
 10
81.9146278169
 20
91.5857834209
 30
0.0
 10
81.4542427517
 20
91.8230615713
 30
0.0
 10
81.0629018554
 20
91.9582453753
 30
0.0
 10
80.6591537664
 20
92.0559567572
 30
0.0
 10
80.3467149123
 20
92.0856454455
 30
0.0
 10
80.139088923
 20
92.0856454455
 30
0.0
  0
SPLINE
  5
317
330
1B
100
AcDbEntity
 67
     1
  8
02___PRT_ALL_AXES
  6
Continuous
 62
     7
100
AcDbSpline
 70
     0
 71
     3
 72
    15
 73
    11
 74
     0
 42
0.000000001
 43
0.0000001
 40
0.0
 40
0.0
 40
0.0
 40
0.0
 40
0.1271200361
 40
0.2539130144
 40
0.3801208294
 40
0.5055520268
 40
0.6301380952
 40
0.7539382509
 40
0.8771334218
 40
1.0
 40
1.0
 40
1.0
 40
1.0
 10
80.139088923
 20
84.9249971139
 30
0.0
 10
80.3938592556
 20
84.9249971139
 30
0.0
 10
80.9040675012
 20
84.9734159978
 30
0.0
 10
81.6394426296
 20
85.1886890931
 30
0.0
 10
82.3177907964
 20
85.5384039518
 30
0.0
 10
82.9127167102
 20
86.0094005154
 30
0.0
 10
83.401363834
 20
86.583726062
 30
0.0
 10
83.7647450189
 20
87.2395431843
 30
0.0
 10
83.988646482
 20
87.9512547512
 30
0.0
 10
84.0390838073
 20
88.4458621623
 30
0.0
 10
84.0390838073
 20
88.6921078364
 30
0.0
  0
SPLINE
  5
318
330
1B
100
AcDbEntity
 67
     1
  8
02___PRT_ALL_AXES
  6
Continuous
 62
     7
100
AcDbSpline
 70
     0
 71
     3
 72
    15
 73
    11
 74
     0
 42
0.000000001
 43
0.0000001
 40
0.0
 40
0.0
 40
0.0
 40
0.0
 40
0.1271200361
 40
0.2539130144
 40
0.3801208294
 40
0.5055520268
 40
0.6301380952
 40
0.7539382509
 40
0.8771334218
 40
1.0
 40
1.0
 40
1.0
 40
1.0
 10
80.139088923
 20
83.9544256948
 30
0.0
 10
79.8843185905
 20
83.9544256948
 30
0.0
 10
79.3741103449
 20
84.0028445786
 30
0.0
 10
78.6387352164
 20
84.2181176739
 30
0.0
 10
77.9603870497
 20
84.5678325326
 30
0.0
 10
77.3654611359
 20
85.0388290962
 30
0.0
 10
76.876814012
 20
85.6131546428
 30
0.0
 10
76.5134328272
 20
86.2689717652
 30
0.0
 10
76.289531364
 20
86.9806833321
 30
0.0
 10
76.2390940388
 20
87.4752907431
 30
0.0
 10
76.2390940388
 20
87.7215364173
 30
0.0
  0
LINE
  5
319
330
1B
100
AcDbEntity
 67
     1
  8
7_ALL_FEATURES
  6
Continuous
 62
     7
100
AcDbLine
 10
70.639088923
 20
72.0101452826
 30
0.0
 11
70.639088923
 21
99.2400590213
 31
0.0
  0
LINE
  5
31A
330
1B
100
AcDbEntity
 67
     1
  8
7_ALL_FEATURES
  6
Continuous
 62
     7
100
AcDbLine
 10
193.639088923
 20
99.2400590213
 30
0.0
 11
193.639088923
 21
72.0101452826
 31
0.0
  0
LINE
  5
31B
330
1B
100
AcDbEntity
 67
     1
  8
7_ALL_FEATURES
  6
Continuous
 62
     7
100
AcDbLine
 10
71.0300565349
 20
99.6310266331
 30
0.0
 11
70.8851676609
 21
99.4861377592
 31
0.0
  0
LINE
  5
31C
330
1B
100
AcDbEntity
 67
     1
  8
7_ALL_FEATURES
  6
Continuous
 62
     7
100
AcDbLine
 10
70.783977797
 20
71.8652564087
 30
0.0
 11
70.639088923
 21
72.0101452826
 31
0.0
  0
LINE
  5
31D
330
1B
100
AcDbEntity
 67
     1
  8
7_ALL_FEATURES
  6
Continuous
 62
     7
100
AcDbLine
 10
71.0300565349
 20
71.6191776708
 30
0.0
 11
70.783977797
 21
71.8652564087
 31
0.0
  0
LINE
  5
31E
330
1B
100
AcDbEntity
 67
     1
  8
7_ALL_FEATURES
  6
Continuous
 62
     7
100
AcDbLine
 10
193.639088923
 20
72.0101452826
 30
0.0
 11
193.4942000491
 21
71.8652564087
 31
0.0
  0
LINE
  5
31F
330
1B
100
AcDbEntity
 67
     1
  8
7_ALL_FEATURES
  6
Continuous
 62
     7
100
AcDbLine
 10
193.2481213112
 20
71.6191776708
 30
0.0
 11
193.4942000491
 21
71.8652564087
 31
0.0
  0
LINE
  5
320
330
1B
100
AcDbEntity
 67
     1
  8
7_ALL_FEATURES
  6
Continuous
 62
     7
100
AcDbLine
 10
193.639088923
 20
99.2400590213
 30
0.0
 11
193.3930101851
 21
99.4861377592
 31
0.0
  0
LINE
  5
321
330
1B
100
AcDbEntity
 67
     1
  8
7_ALL_FEATURES
  6
Continuous
 62
     7
100
AcDbLine
 10
193.3930101851
 20
99.4861377592
 30
0.0
 11
193.2481213112
 21
99.6310266331
 31
0.0
  0
LINE
  5
322
330
1B
100
AcDbEntity
 67
     1
  8
7_ALL_FEATURES
  6
Continuous
 62
     7
100
AcDbLine
 10
70.8851676609
 20
99.4861377592
 30
0.0
 11
70.639088923
 21
99.2400590213
 31
0.0
  0
LINE
  5
323
330
1B
100
AcDbEntity
 67
     1
  8
7_ALL_FEATURES
  6
Continuous
 62
     7
100
AcDbLine
 10
193.2481213112
 20
99.6310266331
 30
0.0
 11
71.0300565349
 21
99.6310266331
 31
0.0
  0
ARC
  5
324
330
1B
100
AcDbEntity
 67
     1
  8
02___PRT_ALL_AXES
  6
Continuous
 62
     7
100
AcDbCircle
 10
93.139088923
 20
85.625102152
 30
0.0
 40
7.5
100
AcDbArc
 50
270.0
 51
90.0
  0
ARC
  5
325
330
1B
100
AcDbEntity
 67
     1
  8
02___PRT_ALL_AXES
  6
Continuous
 62
     7
100
AcDbCircle
 10
93.139088923
 20
85.625102152
 30
0.0
 40
7.5
100
AcDbArc
 50
90.0
 51
270.0
  0
ARC
  5
326
330
1B
100
AcDbEntity
 67
     1
  8
02___PRT_ALL_AXES
  6
Continuous
 62
     7
100
AcDbCircle
 10
171.139088923
 20
85.625102152
 30
0.0
 40
7.5
100
AcDbArc
 50
270.0
 51
90.0
  0
ARC
  5
327
330
1B
100
AcDbEntity
 67
     1
  8
02___PRT_ALL_AXES
  6
Continuous
 62
     7
100
AcDbCircle
 10
171.139088923
 20
85.625102152
 30
0.0
 40
7.5
100
AcDbArc
 50
90.0
 51
270.0
  0
LINE
  5
328
330
1B
100
AcDbEntity
 67
     1
  8
02___PRT_ALL_AXES
  6
Continuous
 62
     7
100
AcDbLine
 10
95.639088923
 20
88.125102152
 30
0.0
 11
95.639088923
 21
83.125102152
 31
0.0
  0
ARC
  5
329
330
1B
100
AcDbEntity
 67
     1
  8
02___PRT_ALL_AXES
  6
Continuous
 62
     7
100
AcDbCircle
 10
93.139088923
 20
88.125102152
 30
0.0
 40
2.5
100
AcDbArc
 50
0.0
 51
180.0
  0
LINE
  5
32A
330
1B
100
AcDbEntity
 67
     1
  8
02___PRT_ALL_AXES
  6
Continuous
 62
     7
100
AcDbLine
 10
90.639088923
 20
83.125102152
 30
0.0
 11
90.639088923
 21
88.125102152
 31
0.0
  0
ARC
  5
32B
330
1B
100
AcDbEntity
 67
     1
  8
02___PRT_ALL_AXES
  6
Continuous
 62
     7
100
AcDbCircle
 10
152.139088923
 20
85.625102152
 30
0.0
 40
10.0
100
AcDbArc
 50
270.0
 51
90.0
  0
LINE
  5
32C
330
1B
100
AcDbEntity
 67
     1
  8
02___PRT_ALL_AXES
  6
Continuous
 62
     7
100
AcDbLine
 10
112.139088923
 20
95.625102152
 30
0.0
 11
152.139088923
 21
95.625102152
 31
0.0
  0
ARC
  5
32D
330
1B
100
AcDbEntity
 67
     1
  8
02___PRT_ALL_AXES
  6
Continuous
 62
     7
100
AcDbCircle
 10
112.139088923
 20
85.625102152
 30
0.0
 40
10.0
100
AcDbArc
 50
90.0
 51
270.0
  0
LINE
  5
32E
330
1B
100
AcDbEntity
 67
     1
  8
02___PRT_ALL_AXES
  6
Continuous
 62
     7
100
AcDbLine
 10
152.139088923
 20
75.625102152
 30
0.0
 11
112.139088923
 21
75.625102152
 31
0.0
  0
LINE
  5
32F
330
1B
100
AcDbEntity
 67
     1
  8
7_ALL_FEATURES
  6
Continuous
 62
     7
100
AcDbLine
 10
193.2481213112
 20
71.6191776708
 30
0.0
 11
71.0300565349
 21
71.6191776708
 31
0.0
  0
ARC
  5
330
330
1B
100
AcDbEntity
 67
     1
  8
02___PRT_ALL_AXES
  6
Continuous
 62
     7
100
AcDbCircle
 10
93.139088923
 20
83.125102152
 30
0.0
 40
2.5
100
AcDbArc
 50
180.0
 51
360.0
  0
LINE
  5
331
330
1B
100
AcDbEntity
 67
     1
  8
02___PRT_ALL_AXES
  6
Continuous
 62
     7
100
AcDbLine
 10
173.639088923
 20
83.125102152
 30
0.0
 11
168.639088923
 21
83.125102152
 31
0.0
  0
ARC
  5
332
330
1B
100
AcDbEntity
 67
     1
  8
02___PRT_ALL_AXES
  6
Continuous
 62
     7
100
AcDbCircle
 10
173.639088923
 20
85.625102152
 30
0.0
 40
2.5
100
AcDbArc
 50
270.0
 51
90.0
  0
ARC
  5
333
330
1B
100
AcDbEntity
 67
     1
  8
02___PRT_ALL_AXES
  6
Continuous
 62
     7
100
AcDbCircle
 10
168.639088923
 20
85.625102152
 30
0.0
 40
2.5
100
AcDbArc
 50
90.0
 51
270.0
  0
LINE
  5
334
330
1B
100
AcDbEntity
 67
     1
  8
02___PRT_ALL_AXES
  6
Continuous
 62
     7
100
AcDbLine
 10
168.639088923
 20
88.125102152
 30
0.0
 11
173.639088923
 21
88.125102152
 31
0.0
  0
LINE
  5
335
330
1B
100
AcDbEntity
 67
     1
  8
7_ALL_FEATURES
  6
Continuous
 62
     7
100
AcDbLine
 10
71.0300565349
 20
99.3412488853
 30
0.0
 11
70.8851676609
 21
99.4861377592
 31
0.0
  0
LINE
  5
336
330
1B
100
AcDbEntity
 67
     1
  8
7_ALL_FEATURES
  6
Continuous
 62
     7
100
AcDbLine
 10
193.2481213112
 20
99.3412488853
 30
0.0
 11
193.2481213112
 21
72.1113351466
 31
0.0
  0
LINE
  5
337
330
1B
100
AcDbEntity
 67
     1
  8
7_ALL_FEATURES
  6
Continuous
 62
     7
100
AcDbLine
 10
193.2481213112
 20
72.1113351466
 30
0.0
 11
71.0300565349
 21
72.1113351466
 31
0.0
  0
LINE
  5
338
330
1B
100
AcDbEntity
 67
     1
  8
7_ALL_FEATURES
  6
Continuous
 62
     7
100
AcDbLine
 10
71.0300565349
 20
72.1113351466
 30
0.0
 11
71.0300565349
 21
99.3412488853
 31
0.0
  0
LINE
  5
339
330
1B
100
AcDbEntity
 67
     1
  8
7_ALL_FEATURES
  6
Continuous
 62
     7
100
AcDbLine
 10
193.2481213112
 20
99.3412488853
 30
0.0
 11
71.0300565349
 21
99.3412488853
 31
0.0
  0
LINE
  5
33A
330
1B
100
AcDbEntity
 67
     1
  8
7_ALL_FEATURES
  6
Continuous
 62
     7
100
AcDbLine
 10
193.2481213112
 20
99.3412488853
 30
0.0
 11
193.3930101851
 21
99.4861377592
 31
0.0
  0
LINE
  5
33B
330
1B
100
AcDbEntity
 67
     1
  8
7_ALL_FEATURES
  6
Continuous
 62
     7
100
AcDbLine
 10
71.0300565349
 20
72.1113351466
 30
0.0
 11
70.783977797
 21
71.8652564087
 31
0.0
  0
LINE
  5
33C
330
1B
100
AcDbEntity
 67
     1
  8
7_ALL_FEATURES
  6
Continuous
 62
     7
100
AcDbLine
 10
193.4942000491
 20
71.8652564087
 30
0.0
 11
193.2481213112
 21
72.1113351466
 31
0.0
  0
SPLINE
  5
33D
330
1B
100
AcDbEntity
 67
     1
  8
02___PRT_ALL_AXES
  6
Continuous
 62
     7
100
AcDbSpline
 70
     0
 71
     3
 72
    18
 73
    14
 74
     0
 42
0.000000001
 43
0.0000001
 40
0.0
 40
0.0
 40
0.0
 40
0.0
 40
0.1703073083
 40
0.3356510974
 40
0.4912853591
 40
0.632819794
 40
0.7564813117
 40
0.810683421
 40
0.859433582
 40
0.9025962391
 40
0.9401899974
 40
0.9724568854
 40
1.0
 40
1.0
 40
1.0
 40
1.0
 10
80.139088923
 20
219.5138142853
 30
0.0
 10
80.3256155845
 20
219.5138142853
 30
0.0
 10
80.6932918536
 20
219.5054978608
 30
0.0
 10
81.230272421
 20
219.4682911747
 30
0.0
 10
81.7334594304
 20
219.407681252
 30
0.0
 10
82.1872886031
 20
219.3256404177
 30
0.0
 10
82.5265849068
 20
219.2384179838
 30
0.0
 10
82.761476871
 20
219.157866337
 30
0.0
 10
82.9094382517
 20
219.0965585655
 30
0.0
 10
83.036018232
 20
219.0321731198
 30
0.0
 10
83.1404005425
 20
218.9650943597
 30
0.0
 10
83.2219125916
 20
218.8957081014
 30
0.0
 10
83.2635198079
 20
218.8442801256
 30
0.0
 10
83.2791352456
 20
218.8184700879
 30
0.0
  0
SPLINE
  5
33E
330
1B
100
AcDbEntity
 67
     1
  8
02___PRT_ALL_AXES
  6
Continuous
 62
     7
100
AcDbSpline
 70
     0
 71
     3
 72
    18
 73
    14
 74
     0
 42
0.000000001
 43
0.0000001
 40
0.0
 40
0.0
 40
0.0
 40
0.0
 40
0.1703073083
 40
0.3356510974
 40
0.4912853591
 40
0.632819794
 40
0.7564813117
 40
0.810683421
 40
0.859433582
 40
0.9025962391
 40
0.9401899974
 40
0.9724568854
 40
1.0
 40
1.0
 40
1.0
 40
1.0
 10
80.139088923
 20
219.5138142853
 30
0.0
 10
79.9525622615
 20
219.5138142853
 30
0.0
 10
79.5848859925
 20
219.5054978608
 30
0.0
 10
79.047905425
 20
219.4682911747
 30
0.0
 10
78.5447184157
 20
219.407681252
 30
0.0
 10
78.090889243
 20
219.3256404177
 30
0.0
 10
77.7515929393
 20
219.2384179838
 30
0.0
 10
77.5167009751
 20
219.157866337
 30
0.0
 10
77.3687395943
 20
219.0965585655
 30
0.0
 10
77.242159614
 20
219.0321731198
 30
0.0
 10
77.1377773035
 20
218.9650943597
 30
0.0
 10
77.0562652545
 20
218.8957081014
 30
0.0
 10
77.0146580381
 20
218.8442801256
 30
0.0
 10
76.9990426005
 20
218.8184700879
 30
0.0
  0
LINE
  5
33F
330
1B
100
AcDbEntity
 67
     1
  8
02___PRT_ALL_AXES
  6
Continuous
 62
     7
100
AcDbLine
 10
83.9921384137
 20
217.6399531212
 30
0.0
 11
83.2791386827
 21
218.8184644231
 31
0.0
  0
SPLINE
  5
340
330
1B
100
AcDbEntity
 67
     1
  8
02___PRT_ALL_AXES
  6
Continuous
 62
     7
100
AcDbSpline
 70
     0
 71
     3
 72
     9
 73
     5
 74
     0
 42
0.000000001
 43
0.0000001
 40
0.0
 40
0.0
 40
0.0
 40
0.0
 40
0.5189530246
 40
1.0
 40
1.0
 40
1.0
 40
1.0
 10
83.9921334196
 20
217.6399529188
 30
0.0
 10
84.0068735855
 20
217.6155881699
 30
0.0
 10
84.0304782274
 20
217.5653309991
 30
0.0
 10
84.0390838073
 20
217.5101958048
 30
0.0
 10
84.0390838073
 20
217.4837992832
 30
0.0
  0
LINE
  5
341
330
1B
100
AcDbEntity
 67
     1
  8
02___PRT_ALL_AXES
  6
Continuous
 62
     7
100
AcDbLine
 10
84.039088923
 20
215.7934290872
 30
0.0
 11
84.039088923
 21
217.4837992832
 31
0.0
  0
SPLINE
  5
342
330
1B
100
AcDbEntity
 67
     1
  8
02___PRT_ALL_AXES
  6
Continuous
 62
     7
100
AcDbSpline
 70
     0
 71
     3
 72
    11
 73
     7
 74
     0
 42
0.000000001
 43
0.0000001
 40
0.0
 40
0.0
 40
0.0
 40
0.0
 40
0.2196204291
 40
0.452633061
 40
0.7101130129
 40
1.0
 40
1.0
 40
1.0
 40
1.0
 10
84.0390838073
 20
215.7934290872
 30
0.0
 10
84.0390838073
 20
215.7704341196
 30
0.0
 10
84.0326576787
 20
215.7228393207
 30
0.0
 10
84.0044257672
 20
215.6533745658
 30
0.0
 10
83.9583731065
 20
215.5853167645
 30
0.0
 10
83.9186943275
 20
215.5436393718
 30
0.0
 10
83.8964741447
 20
215.5229629689
 30
0.0
  0
LINE
  5
343
330
1B
100
AcDbEntity
 67
     1
  8
02___PRT_ALL_AXES
  6
Continuous
 62
     7
100
AcDbLine
 10
83.149157986
 20
214.8275032609
 30
0.0
 11
83.8964777946
 21
215.5229627062
 31
0.0
  0
LINE
  5
344
330
1B
100
AcDbEntity
 67
     1
  8
02___PRT_ALL_AXES
  6
Continuous
 62
     7
100
AcDbLine
 10
83.8964777946
 20
214.1320438157
 30
0.0
 11
82.9330447506
 21
215.0286192879
 31
0.0
  0
SPLINE
  5
345
330
1B
100
AcDbEntity
 67
     1
  8
02___PRT_ALL_AXES
  6
Continuous
 62
     7
100
AcDbSpline
 70
     0
 71
     3
 72
    11
 73
     7
 74
     0
 42
0.000000001
 43
0.0000001
 40
0.0
 40
0.0
 40
0.0
 40
0.0
 40
0.2898869871
 40
0.547366939
 40
0.7803795709
 40
1.0
 40
1.0
 40
1.0
 40
1.0
 10
83.8964741447
 20
214.132043553
 30
0.0
 10
83.9186943275
 20
214.1113671501
 30
0.0
 10
83.9583731065
 20
214.0696897574
 30
0.0
 10
84.0044257672
 20
214.0016319561
 30
0.0
 10
84.0326576787
 20
213.9321672012
 30
0.0
 10
84.0390838073
 20
213.8845724023
 30
0.0
 10
84.0390838073
 20
213.8615774347
 30
0.0
  0
LINE
  5
346
330
1B
100
AcDbEntity
 67
     1
  8
02___PRT_ALL_AXES
  6
Continuous
 62
     7
100
AcDbLine
 10
84.039088923
 20
209.6585811975
 30
0.0
 11
84.039088923
 21
213.8615774347
 31
0.0
  0
LINE
  5
347
330
1B
100
AcDbEntity
 67
     1
  8
02___PRT_ALL_AXES
  6
Continuous
 62
     7
100
AcDbLine
 10
76.2860394324
 20
217.6399531212
 30
0.0
 11
76.9990391633
 21
218.8184644231
 31
0.0
  0
SPLINE
  5
348
330
1B
100
AcDbEntity
 67
     1
  8
02___PRT_ALL_AXES
  6
Continuous
 62
     7
100
AcDbSpline
 70
     0
 71
     3
 72
     9
 73
     5
 74
     0
 42
0.000000001
 43
0.0000001
 40
0.0
 40
0.0
 40
0.0
 40
0.0
 40
0.5189530246
 40
1.0
 40
1.0
 40
1.0
 40
1.0
 10
76.2860444265
 20
217.6399529188
 30
0.0
 10
76.2713042606
 20
217.6155881699
 30
0.0
 10
76.2476996186
 20
217.5653309991
 30
0.0
 10
76.2390940388
 20
217.5101958048
 30
0.0
 10
76.2390940388
 20
217.4837992832
 30
0.0
  0
LINE
  5
349
330
1B
100
AcDbEntity
 67
     1
  8
02___PRT_ALL_AXES
  6
Continuous
 62
     7
100
AcDbLine
 10
76.239088923
 20
215.7934290872
 30
0.0
 11
76.239088923
 21
217.4837992832
 31
0.0
  0
SPLINE
  5
34A
330
1B
100
AcDbEntity
 67
     1
  8
02___PRT_ALL_AXES
  6
Continuous
 62
     7
100
AcDbSpline
 70
     0
 71
     3
 72
    11
 73
     7
 74
     0
 42
0.000000001
 43
0.0000001
 40
0.0
 40
0.0
 40
0.0
 40
0.0
 40
0.2196204291
 40
0.452633061
 40
0.7101130129
 40
1.0
 40
1.0
 40
1.0
 40
1.0
 10
76.2390940388
 20
215.7934290872
 30
0.0
 10
76.2390940388
 20
215.7704341196
 30
0.0
 10
76.2455201674
 20
215.7228393207
 30
0.0
 10
76.2737520788
 20
215.6533745658
 30
0.0
 10
76.3198047395
 20
215.5853167645
 30
0.0
 10
76.3594835186
 20
215.5436393718
 30
0.0
 10
76.3817037013
 20
215.5229629689
 30
0.0
  0
LINE
  5
34B
330
1B
100
AcDbEntity
 67
     1
  8
02___PRT_ALL_AXES
  6
Continuous
 62
     7
100
AcDbLine
 10
77.1290198601
 20
214.8275032609
 30
0.0
 11
76.3817000514
 21
215.5229627062
 31
0.0
  0
LINE
  5
34C
330
1B
100
AcDbEntity
 67
     1
  8
02___PRT_ALL_AXES
  6
Continuous
 62
     7
100
AcDbLine
 10
76.3817000514
 20
214.1320438157
 30
0.0
 11
77.3451330954
 21
215.0286192879
 31
0.0
  0
SPLINE
  5
34D
330
1B
100
AcDbEntity
 67
     1
  8
02___PRT_ALL_AXES
  6
Continuous
 62
     7
100
AcDbSpline
 70
     0
 71
     3
 72
    11
 73
     7
 74
     0
 42
0.000000001
 43
0.0000001
 40
0.0
 40
0.0
 40
0.0
 40
0.0
 40
0.2898869871
 40
0.547366939
 40
0.7803795709
 40
1.0
 40
1.0
 40
1.0
 40
1.0
 10
76.3817037013
 20
214.132043553
 30
0.0
 10
76.3594835186
 20
214.1113671501
 30
0.0
 10
76.3198047395
 20
214.0696897574
 30
0.0
 10
76.2737520788
 20
214.0016319561
 30
0.0
 10
76.2455201674
 20
213.9321672012
 30
0.0
 10
76.2390940388
 20
213.8845724023
 30
0.0
 10
76.2390940388
 20
213.8615774347
 30
0.0
  0
LINE
  5
34E
330
1B
100
AcDbEntity
 67
     1
  8
02___PRT_ALL_AXES
  6
Continuous
 62
     7
100
AcDbLine
 10
76.239088923
 20
209.6585811975
 30
0.0
 11
76.239088923
 21
213.8615774347
 31
0.0
  0
SPLINE
  5
34F
330
1B
100
AcDbEntity
 67
     1
  8
02___PRT_ALL_AXES
  6
Continuous
 62
     7
100
AcDbSpline
 70
     0
 71
     3
 72
    17
 73
    13
 74
     0
 42
0.000000001
 43
0.0000001
 40
0.0
 40
0.0
 40
0.0
 40
0.0
 40
0.1624912161
 40
0.3209926757
 40
0.4716525717
 40
0.6108675467
 40
0.7354421749
 40
0.8427542783
 40
0.889359534
 40
0.9310776136
 40
0.9679062038
 40
1.0
 40
1.0
 40
1.0
 40
1.0
 10
80.139088923
 20
215.5780784917
 30
0.0
 10
80.2954621202
 20
215.5780784917
 30
0.0
 10
80.6044094916
 20
215.5716495421
 30
0.0
 10
81.0575312669
 20
215.5428668298
 30
0.0
 10
81.4866158174
 20
215.4957844743
 30
0.0
 10
81.8805117153
 20
215.4317299846
 30
0.0
 10
82.2289815919
 20
215.3524673316
 30
0.0
 10
82.4852418836
 20
215.272351785
 30
0.0
 10
82.6593753373
 20
215.2004663053
 30
0.0
 10
82.7672888307
 20
215.1466854679
 30
0.0
 10
82.8581206575
 20
215.090838395
 30
0.0
 10
82.9104334338
 20
215.049661059
 30
0.0
 10
82.9330419399
 20
215.0286190856
 30
0.0
  0
SPLINE
  5
350
330
1B
100
AcDbEntity
 67
     1
  8
02___PRT_ALL_AXES
  6
Continuous
 62
     7
100
AcDbSpline
 70
     0
 71
     3
 72
    19
 73
    15
 74
     0
 42
0.000000001
 43
0.0000001
 40
0.0
 40
0.0
 40
0.0
 40
0.0
 40
0.1703032946
 40
0.3356422757
 40
0.4912722568
 40
0.6328032742
 40
0.6970847944
 40
0.7564910462
 40
0.8106902346
 40
0.8594396812
 40
0.9026006685
 40
0.9401923854
 40
0.9724593669
 40
1.0
 40
1.0
 40
1.0
 40
1.0
 10
80.139088923
 20
218.4931935591
 30
0.0
 10
79.9102065947
 20
218.4931935591
 30
0.0
 10
79.4590446032
 20
218.4829862817
 30
0.0
 10
78.8001162905
 20
218.43734043
 30
0.0
 10
78.1827186305
 20
218.3629343649
 30
0.0
 10
77.704277295
 20
218.276560603
 30
0.0
 10
77.3576210842
 20
218.1932125213
 30
0.0
 10
77.1277287912
 20
218.1272685028
 30
0.0
 10
76.9212360914
 20
218.056407579
 30
0.0
 10
76.7396751091
 20
217.9811919648
 30
0.0
 10
76.5843537932
 20
217.9021838472
 30
0.0
 10
76.4562755456
 20
217.8198674628
 30
0.0
 10
76.3562464183
 20
217.7347367411
 30
0.0
 10
76.305203665
 20
217.6716221712
 30
0.0
 10
76.2860444265
 20
217.6399529188
 30
0.0
  0
SPLINE
  5
351
330
1B
100
AcDbEntity
 67
     1
  8
02___PRT_ALL_AXES
  6
Continuous
 62
     7
100
AcDbSpline
 70
     0
 71
     3
 72
    21
 73
    17
 74
     0
 42
0.000000001
 43
0.0000001
 40
0.0
 40
0.0
 40
0.0
 40
0.0
 40
0.181371028
 40
0.3562395886
 40
0.5184431753
 40
0.5930337374
 40
0.6624444482
 40
0.7261405159
 40
0.7836817645
 40
0.834753841
 40
0.8792046002
 40
0.9171244406
 40
0.9489896551
 40
0.9759019693
 40
0.9881447186
 40
1.0
 40
1.0
 40
1.0
 40
1.0
 10
80.139088923
 20
216.8028233631
 30
0.0
 10
79.885381401
 20
216.8028233631
 30
0.0
 10
79.3869577073
 20
216.7903507092
 30
0.0
 10
78.6635761827
 20
216.734605403
 30
0.0
 10
78.0924760224
 20
216.6574115757
 30
0.0
 10
77.67163106
 20
216.5771935549
 30
0.0
 10
77.3885740645
 20
216.511299033
 30
0.0
 10
77.1318527739
 20
216.4386577116
 30
0.0
 10
76.903860675
 20
216.3599734969
 30
0.0
 10
76.7066583844
 20
216.276010408
 30
0.0
 10
76.5419217607
 20
216.1875425389
 30
0.0
 10
76.4108985776
 20
216.0951146385
 30
0.0
 10
76.3144090688
 20
215.9991590329
 30
0.0
 10
76.2622939918
 20
215.9126829816
 30
0.0
 10
76.2423473948
 20
215.8438041231
 30
0.0
 10
76.2390940388
 20
215.8100126293
 30
0.0
 10
76.2390940388
 20
215.7934290872
 30
0.0
  0
SPLINE
  5
352
330
1B
100
AcDbEntity
 67
     1
  8
02___PRT_ALL_AXES
  6
Continuous
 62
     7
100
AcDbSpline
 70
     0
 71
     3
 72
    17
 73
    13
 74
     0
 42
0.000000001
 43
0.0000001
 40
0.0
 40
0.0
 40
0.0
 40
0.0
 40
0.1624912161
 40
0.3209926757
 40
0.4716525717
 40
0.6108675467
 40
0.7354421749
 40
0.8427542783
 40
0.889359534
 40
0.9310776136
 40
0.9679062038
 40
1.0
 40
1.0
 40
1.0
 40
1.0
 10
80.139088923
 20
215.5780784917
 30
0.0
 10
79.9827157259
 20
215.5780784917
 30
0.0
 10
79.6737683545
 20
215.5716495421
 30
0.0
 10
79.2206465792
 20
215.5428668298
 30
0.0
 10
78.7915620286
 20
215.4957844743
 30
0.0
 10
78.3976661307
 20
215.4317299846
 30
0.0
 10
78.0491962542
 20
215.3524673316
 30
0.0
 10
77.7929359624
 20
215.272351785
 30
0.0
 10
77.6188025087
 20
215.2004663053
 30
0.0
 10
77.5108890154
 20
215.1466854679
 30
0.0
 10
77.4200571886
 20
215.090838395
 30
0.0
 10
77.3677444123
 20
215.049661059
 30
0.0
 10
77.3451359062
 20
215.0286190856
 30
0.0
  0
SPLINE
  5
353
330
1B
100
AcDbEntity
 67
     1
  8
02___PRT_ALL_AXES
  6
Continuous
 62
     7
100
AcDbSpline
 70
     0
 71
     3
 72
    18
 73
    14
 74
     0
 42
0.000000001
 43
0.0000001
 40
0.0
 40
0.0
 40
0.0
 40
0.0
 40
0.1624873829
 40
0.3209818196
 40
0.4716374855
 40
0.6108477121
 40
0.7354183369
 40
0.7913804014
 40
0.842758717
 40
0.8893635823
 40
0.9310794697
 40
0.9679074609
 40
1.0
 40
1.0
 40
1.0
 40
1.0
 10
80.139088923
 20
214.8709717106
 30
0.0
 10
79.9287922357
 20
214.8709717106
 30
0.0
 10
79.5133110352
 20
214.8623268965
 30
0.0
 10
78.9039455341
 20
214.8236151366
 30
0.0
 10
78.3268865548
 20
214.7603073511
 30
0.0
 10
77.7972188788
 20
214.6741344983
 30
0.0
 10
77.3932827455
 20
214.5823707736
 30
0.0
 10
77.1052539368
 20
214.4976183273
 30
0.0
 10
76.9169575726
 20
214.4322098033
 30
0.0
 10
76.7497386367
 20
214.3631457912
 30
0.0
 10
76.604613913
 20
214.2908205107
 30
0.0
 10
76.4824569323
 20
214.2157214302
 30
0.0
 10
76.4121108505
 20
214.1603381208
 30
0.0
 10
76.3817037013
 20
214.132043553
 30
0.0
  0
SPLINE
  5
354
330
1B
100
AcDbEntity
 67
     1
  8
02___PRT_ALL_AXES
  6
Continuous
 62
     7
100
AcDbSpline
 70
     0
 71
     3
 72
    18
 73
    14
 74
     0
 42
0.000000001
 43
0.0000001
 40
0.0
 40
0.0
 40
0.0
 40
0.0
 40
0.1624873829
 40
0.3209818196
 40
0.4716374855
 40
0.6108477121
 40
0.7354183369
 40
0.7913804014
 40
0.842758717
 40
0.8893635823
 40
0.9310794697
 40
0.9679074609
 40
1.0
 40
1.0
 40
1.0
 40
1.0
 10
80.139088923
 20
214.8709717106
 30
0.0
 10
80.3493856104
 20
214.8709717106
 30
0.0
 10
80.7648668108
 20
214.8623268965
 30
0.0
 10
81.374232312
 20
214.8236151366
 30
0.0
 10
81.9512912913
 20
214.7603073511
 30
0.0
 10
82.4809589672
 20
214.6741344983
 30
0.0
 10
82.8848951005
 20
214.5823707736
 30
0.0
 10
83.1729239093
 20
214.4976183273
 30
0.0
 10
83.3612202734
 20
214.4322098033
 30
0.0
 10
83.5284392094
 20
214.3631457912
 30
0.0
 10
83.6735639331
 20
214.2908205107
 30
0.0
 10
83.7957209137
 20
214.2157214302
 30
0.0
 10
83.8660669955
 20
214.1603381208
 30
0.0
 10
83.8964741447
 20
214.132043553
 30
0.0
  0
SPLINE
  5
355
330
1B
100
AcDbEntity
 67
     1
  8
02___PRT_ALL_AXES
  6
Continuous
 62
     7
100
AcDbSpline
 70
     0
 71
     3
 72
    19
 73
    15
 74
     0
 42
0.000000001
 43
0.0000001
 40
0.0
 40
0.0
 40
0.0
 40
0.0
 40
0.1703032946
 40
0.3356422757
 40
0.4912722568
 40
0.6328032742
 40
0.6970847944
 40
0.7564910462
 40
0.8106902346
 40
0.8594396812
 40
0.9026006685
 40
0.9401923854
 40
0.9724593669
 40
1.0
 40
1.0
 40
1.0
 40
1.0
 10
80.139088923
 20
218.4931935591
 30
0.0
 10
80.3679712513
 20
218.4931935591
 30
0.0
 10
80.8191332428
 20
218.4829862817
 30
0.0
 10
81.4780615555
 20
218.43734043
 30
0.0
 10
82.0954592155
 20
218.3629343649
 30
0.0
 10
82.573900551
 20
218.276560603
 30
0.0
 10
82.9205567619
 20
218.1932125213
 30
0.0
 10
83.1504490549
 20
218.1272685028
 30
0.0
 10
83.3569417547
 20
218.056407579
 30
0.0
 10
83.538502737
 20
217.9811919648
 30
0.0
 10
83.6938240528
 20
217.9021838472
 30
0.0
 10
83.8219023005
 20
217.8198674628
 30
0.0
 10
83.9219314278
 20
217.7347367411
 30
0.0
 10
83.972974181
 20
217.6716221712
 30
0.0
 10
83.9921334196
 20
217.6399529188
 30
0.0
  0
SPLINE
  5
356
330
1B
100
AcDbEntity
 67
     1
  8
02___PRT_ALL_AXES
  6
Continuous
 62
     7
100
AcDbSpline
 70
     0
 71
     3
 72
    21
 73
    17
 74
     0
 42
0.000000001
 43
0.0000001
 40
0.0
 40
0.0
 40
0.0
 40
0.0
 40
0.181371028
 40
0.3562395886
 40
0.5184431753
 40
0.5930337374
 40
0.6624444482
 40
0.7261405159
 40
0.7836817645
 40
0.834753841
 40
0.8792046002
 40
0.9171244406
 40
0.9489896551
 40
0.9759019693
 40
0.9881447186
 40
1.0
 40
1.0
 40
1.0
 40
1.0
 10
80.139088923
 20
216.8028233631
 30
0.0
 10
80.3927964451
 20
216.8028233631
 30
0.0
 10
80.8912201388
 20
216.7903507092
 30
0.0
 10
81.6146016634
 20
216.734605403
 30
0.0
 10
82.1857018237
 20
216.6574115757
 30
0.0
 10
82.6065467861
 20
216.5771935549
 30
0.0
 10
82.8896037815
 20
216.511299033
 30
0.0
 10
83.1463250722
 20
216.4386577116
 30
0.0
 10
83.374317171
 20
216.3599734969
 30
0.0
 10
83.5715194617
 20
216.276010408
 30
0.0
 10
83.7362560854
 20
216.1875425389
 30
0.0
 10
83.8672792685
 20
216.0951146385
 30
0.0
 10
83.9637687772
 20
215.9991590329
 30
0.0
 10
84.0158838542
 20
215.9126829816
 30
0.0
 10
84.0358304512
 20
215.8438041231
 30
0.0
 10
84.0390838073
 20
215.8100126293
 30
0.0
 10
84.0390838073
 20
215.7934290872
 30
0.0
  0
SPLINE
  5
357
330
1B
100
AcDbEntity
 67
     1
  8
02___PRT_ALL_AXES
  6
Continuous
 62
     7
100
AcDbSpline
 70
     0
 71
     3
 72
    18
 73
    14
 74
     0
 42
0.000000001
 43
0.0000001
 40
0.0
 40
0.0
 40
0.0
 40
0.0
 40
0.1703073083
 40
0.3356510974
 40
0.4912853591
 40
0.632819794
 40
0.7564813117
 40
0.810683421
 40
0.859433582
 40
0.9025962391
 40
0.9401899974
 40
0.9724568854
 40
1.0
 40
1.0
 40
1.0
 40
1.0
 10
184.139088923
 20
219.5138142853
 30
0.0
 10
184.3256155845
 20
219.5138142853
 30
0.0
 10
184.6932918536
 20
219.5054978608
 30
0.0
 10
185.230272421
 20
219.4682911747
 30
0.0
 10
185.7334594304
 20
219.407681252
 30
0.0
 10
186.1872886031
 20
219.3256404177
 30
0.0
 10
186.5265849068
 20
219.2384179838
 30
0.0
 10
186.761476871
 20
219.157866337
 30
0.0
 10
186.9094382517
 20
219.0965585655
 30
0.0
 10
187.036018232
 20
219.0321731198
 30
0.0
 10
187.1404005425
 20
218.9650943597
 30
0.0
 10
187.2219125916
 20
218.8957081014
 30
0.0
 10
187.2635198079
 20
218.8442801256
 30
0.0
 10
187.2791352456
 20
218.8184700879
 30
0.0
  0
SPLINE
  5
358
330
1B
100
AcDbEntity
 67
     1
  8
02___PRT_ALL_AXES
  6
Continuous
 62
     7
100
AcDbSpline
 70
     0
 71
     3
 72
    18
 73
    14
 74
     0
 42
0.000000001
 43
0.0000001
 40
0.0
 40
0.0
 40
0.0
 40
0.0
 40
0.1703073083
 40
0.3356510974
 40
0.4912853591
 40
0.632819794
 40
0.7564813117
 40
0.810683421
 40
0.859433582
 40
0.9025962391
 40
0.9401899974
 40
0.9724568854
 40
1.0
 40
1.0
 40
1.0
 40
1.0
 10
184.139088923
 20
219.5138142853
 30
0.0
 10
183.9525622615
 20
219.5138142853
 30
0.0
 10
183.5848859925
 20
219.5054978608
 30
0.0
 10
183.047905425
 20
219.4682911747
 30
0.0
 10
182.5447184157
 20
219.407681252
 30
0.0
 10
182.090889243
 20
219.3256404177
 30
0.0
 10
181.7515929393
 20
219.2384179838
 30
0.0
 10
181.5167009751
 20
219.157866337
 30
0.0
 10
181.3687395943
 20
219.0965585655
 30
0.0
 10
181.242159614
 20
219.0321731198
 30
0.0
 10
181.1377773035
 20
218.9650943597
 30
0.0
 10
181.0562652545
 20
218.8957081014
 30
0.0
 10
181.0146580381
 20
218.8442801256
 30
0.0
 10
180.9990426005
 20
218.8184700879
 30
0.0
  0
LINE
  5
359
330
1B
100
AcDbEntity
 67
     1
  8
02___PRT_ALL_AXES
  6
Continuous
 62
     7
100
AcDbLine
 10
187.9921384137
 20
217.6399531212
 30
0.0
 11
187.2791386827
 21
218.8184644231
 31
0.0
  0
SPLINE
  5
35A
330
1B
100
AcDbEntity
 67
     1
  8
02___PRT_ALL_AXES
  6
Continuous
 62
     7
100
AcDbSpline
 70
     0
 71
     3
 72
     9
 73
     5
 74
     0
 42
0.000000001
 43
0.0000001
 40
0.0
 40
0.0
 40
0.0
 40
0.0
 40
0.5189530246
 40
1.0
 40
1.0
 40
1.0
 40
1.0
 10
187.9921334196
 20
217.6399529188
 30
0.0
 10
188.0068735855
 20
217.6155881699
 30
0.0
 10
188.0304782274
 20
217.5653309991
 30
0.0
 10
188.0390838073
 20
217.5101958048
 30
0.0
 10
188.0390838073
 20
217.4837992832
 30
0.0
  0
LINE
  5
35B
330
1B
100
AcDbEntity
 67
     1
  8
02___PRT_ALL_AXES
  6
Continuous
 62
     7
100
AcDbLine
 10
188.039088923
 20
215.7934290872
 30
0.0
 11
188.039088923
 21
217.4837992832
 31
0.0
  0
SPLINE
  5
35C
330
1B
100
AcDbEntity
 67
     1
  8
02___PRT_ALL_AXES
  6
Continuous
 62
     7
100
AcDbSpline
 70
     0
 71
     3
 72
    11
 73
     7
 74
     0
 42
0.000000001
 43
0.0000001
 40
0.0
 40
0.0
 40
0.0
 40
0.0
 40
0.2196204291
 40
0.452633061
 40
0.7101130129
 40
1.0
 40
1.0
 40
1.0
 40
1.0
 10
188.0390838073
 20
215.7934290872
 30
0.0
 10
188.0390838073
 20
215.7704341196
 30
0.0
 10
188.0326576787
 20
215.7228393207
 30
0.0
 10
188.0044257672
 20
215.6533745658
 30
0.0
 10
187.9583731065
 20
215.5853167645
 30
0.0
 10
187.9186943275
 20
215.5436393718
 30
0.0
 10
187.8964741447
 20
215.5229629689
 30
0.0
  0
LINE
  5
35D
330
1B
100
AcDbEntity
 67
     1
  8
02___PRT_ALL_AXES
  6
Continuous
 62
     7
100
AcDbLine
 10
187.149157986
 20
214.8275032609
 30
0.0
 11
187.8964777946
 21
215.5229627062
 31
0.0
  0
LINE
  5
35E
330
1B
100
AcDbEntity
 67
     1
  8
02___PRT_ALL_AXES
  6
Continuous
 62
     7
100
AcDbLine
 10
187.8964777946
 20
214.1320438157
 30
0.0
 11
186.9330447506
 21
215.0286192879
 31
0.0
  0
SPLINE
  5
35F
330
1B
100
AcDbEntity
 67
     1
  8
02___PRT_ALL_AXES
  6
Continuous
 62
     7
100
AcDbSpline
 70
     0
 71
     3
 72
    11
 73
     7
 74
     0
 42
0.000000001
 43
0.0000001
 40
0.0
 40
0.0
 40
0.0
 40
0.0
 40
0.2898869871
 40
0.547366939
 40
0.7803795709
 40
1.0
 40
1.0
 40
1.0
 40
1.0
 10
187.8964741447
 20
214.132043553
 30
0.0
 10
187.9186943275
 20
214.1113671501
 30
0.0
 10
187.9583731065
 20
214.0696897574
 30
0.0
 10
188.0044257672
 20
214.0016319561
 30
0.0
 10
188.0326576787
 20
213.9321672012
 30
0.0
 10
188.0390838073
 20
213.8845724023
 30
0.0
 10
188.0390838073
 20
213.8615774347
 30
0.0
  0
LINE
  5
360
330
1B
100
AcDbEntity
 67
     1
  8
02___PRT_ALL_AXES
  6
Continuous
 62
     7
100
AcDbLine
 10
188.039088923
 20
209.6585811975
 30
0.0
 11
188.039088923
 21
213.8615774347
 31
0.0
  0
LINE
  5
361
330
1B
100
AcDbEntity
 67
     1
  8
02___PRT_ALL_AXES
  6
Continuous
 62
     7
100
AcDbLine
 10
180.2860394324
 20
217.6399531212
 30
0.0
 11
180.9990391633
 21
218.8184644231
 31
0.0
  0
SPLINE
  5
362
330
1B
100
AcDbEntity
 67
     1
  8
02___PRT_ALL_AXES
  6
Continuous
 62
     7
100
AcDbSpline
 70
     0
 71
     3
 72
     9
 73
     5
 74
     0
 42
0.000000001
 43
0.0000001
 40
0.0
 40
0.0
 40
0.0
 40
0.0
 40
0.5189530246
 40
1.0
 40
1.0
 40
1.0
 40
1.0
 10
180.2860444265
 20
217.6399529188
 30
0.0
 10
180.2713042606
 20
217.6155881699
 30
0.0
 10
180.2476996186
 20
217.5653309991
 30
0.0
 10
180.2390940388
 20
217.5101958048
 30
0.0
 10
180.2390940388
 20
217.4837992832
 30
0.0
  0
LINE
  5
363
330
1B
100
AcDbEntity
 67
     1
  8
02___PRT_ALL_AXES
  6
Continuous
 62
     7
100
AcDbLine
 10
180.239088923
 20
215.7934290872
 30
0.0
 11
180.239088923
 21
217.4837992832
 31
0.0
  0
SPLINE
  5
364
330
1B
100
AcDbEntity
 67
     1
  8
02___PRT_ALL_AXES
  6
Continuous
 62
     7
100
AcDbSpline
 70
     0
 71
     3
 72
    11
 73
     7
 74
     0
 42
0.000000001
 43
0.0000001
 40
0.0
 40
0.0
 40
0.0
 40
0.0
 40
0.2196204291
 40
0.452633061
 40
0.7101130129
 40
1.0
 40
1.0
 40
1.0
 40
1.0
 10
180.2390940388
 20
215.7934290872
 30
0.0
 10
180.2390940388
 20
215.7704341196
 30
0.0
 10
180.2455201674
 20
215.7228393207
 30
0.0
 10
180.2737520788
 20
215.6533745658
 30
0.0
 10
180.3198047395
 20
215.5853167645
 30
0.0
 10
180.3594835186
 20
215.5436393718
 30
0.0
 10
180.3817037013
 20
215.5229629689
 30
0.0
  0
LINE
  5
365
330
1B
100
AcDbEntity
 67
     1
  8
02___PRT_ALL_AXES
  6
Continuous
 62
     7
100
AcDbLine
 10
181.1290198601
 20
214.8275032609
 30
0.0
 11
180.3817000514
 21
215.5229627062
 31
0.0
  0
LINE
  5
366
330
1B
100
AcDbEntity
 67
     1
  8
02___PRT_ALL_AXES
  6
Continuous
 62
     7
100
AcDbLine
 10
180.3817000514
 20
214.1320438157
 30
0.0
 11
181.3451330954
 21
215.0286192879
 31
0.0
  0
SPLINE
  5
367
330
1B
100
AcDbEntity
 67
     1
  8
02___PRT_ALL_AXES
  6
Continuous
 62
     7
100
AcDbSpline
 70
     0
 71
     3
 72
    11
 73
     7
 74
     0
 42
0.000000001
 43
0.0000001
 40
0.0
 40
0.0
 40
0.0
 40
0.0
 40
0.2898869871
 40
0.547366939
 40
0.7803795709
 40
1.0
 40
1.0
 40
1.0
 40
1.0
 10
180.3817037013
 20
214.132043553
 30
0.0
 10
180.3594835186
 20
214.1113671501
 30
0.0
 10
180.3198047395
 20
214.0696897574
 30
0.0
 10
180.2737520788
 20
214.0016319561
 30
0.0
 10
180.2455201674
 20
213.9321672012
 30
0.0
 10
180.2390940388
 20
213.8845724023
 30
0.0
 10
180.2390940388
 20
213.8615774347
 30
0.0
  0
LINE
  5
368
330
1B
100
AcDbEntity
 67
     1
  8
02___PRT_ALL_AXES
  6
Continuous
 62
     7
100
AcDbLine
 10
180.239088923
 20
209.6585811975
 30
0.0
 11
180.239088923
 21
213.8615774347
 31
0.0
  0
SPLINE
  5
369
330
1B
100
AcDbEntity
 67
     1
  8
02___PRT_ALL_AXES
  6
Continuous
 62
     7
100
AcDbSpline
 70
     0
 71
     3
 72
    17
 73
    13
 74
     0
 42
0.000000001
 43
0.0000001
 40
0.0
 40
0.0
 40
0.0
 40
0.0
 40
0.1624912161
 40
0.3209926757
 40
0.4716525717
 40
0.6108675467
 40
0.7354421749
 40
0.8427542783
 40
0.889359534
 40
0.9310776136
 40
0.9679062038
 40
1.0
 40
1.0
 40
1.0
 40
1.0
 10
184.139088923
 20
215.5780784917
 30
0.0
 10
184.2954621202
 20
215.5780784917
 30
0.0
 10
184.6044094916
 20
215.5716495421
 30
0.0
 10
185.0575312669
 20
215.5428668298
 30
0.0
 10
185.4866158174
 20
215.4957844743
 30
0.0
 10
185.8805117153
 20
215.4317299846
 30
0.0
 10
186.2289815919
 20
215.3524673316
 30
0.0
 10
186.4852418836
 20
215.272351785
 30
0.0
 10
186.6593753373
 20
215.2004663053
 30
0.0
 10
186.7672888307
 20
215.1466854679
 30
0.0
 10
186.8581206575
 20
215.090838395
 30
0.0
 10
186.9104334338
 20
215.049661059
 30
0.0
 10
186.9330419399
 20
215.0286190856
 30
0.0
  0
SPLINE
  5
36A
330
1B
100
AcDbEntity
 67
     1
  8
02___PRT_ALL_AXES
  6
Continuous
 62
     7
100
AcDbSpline
 70
     0
 71
     3
 72
    19
 73
    15
 74
     0
 42
0.000000001
 43
0.0000001
 40
0.0
 40
0.0
 40
0.0
 40
0.0
 40
0.1703032946
 40
0.3356422757
 40
0.4912722568
 40
0.6328032742
 40
0.6970847944
 40
0.7564910462
 40
0.8106902346
 40
0.8594396812
 40
0.9026006685
 40
0.9401923854
 40
0.9724593669
 40
1.0
 40
1.0
 40
1.0
 40
1.0
 10
184.139088923
 20
218.4931935591
 30
0.0
 10
183.9102065947
 20
218.4931935591
 30
0.0
 10
183.4590446032
 20
218.4829862817
 30
0.0
 10
182.8001162905
 20
218.43734043
 30
0.0
 10
182.1827186305
 20
218.3629343649
 30
0.0
 10
181.704277295
 20
218.276560603
 30
0.0
 10
181.3576210842
 20
218.1932125213
 30
0.0
 10
181.1277287912
 20
218.1272685028
 30
0.0
 10
180.9212360914
 20
218.056407579
 30
0.0
 10
180.7396751091
 20
217.9811919648
 30
0.0
 10
180.5843537932
 20
217.9021838472
 30
0.0
 10
180.4562755456
 20
217.8198674628
 30
0.0
 10
180.3562464183
 20
217.7347367411
 30
0.0
 10
180.305203665
 20
217.6716221712
 30
0.0
 10
180.2860444265
 20
217.6399529188
 30
0.0
  0
SPLINE
  5
36B
330
1B
100
AcDbEntity
 67
     1
  8
02___PRT_ALL_AXES
  6
Continuous
 62
     7
100
AcDbSpline
 70
     0
 71
     3
 72
    21
 73
    17
 74
     0
 42
0.000000001
 43
0.0000001
 40
0.0
 40
0.0
 40
0.0
 40
0.0
 40
0.181371028
 40
0.3562395886
 40
0.5184431753
 40
0.5930337374
 40
0.6624444482
 40
0.7261405159
 40
0.7836817645
 40
0.834753841
 40
0.8792046002
 40
0.9171244406
 40
0.9489896551
 40
0.9759019693
 40
0.9881447186
 40
1.0
 40
1.0
 40
1.0
 40
1.0
 10
184.139088923
 20
216.8028233631
 30
0.0
 10
183.885381401
 20
216.8028233631
 30
0.0
 10
183.3869577073
 20
216.7903507092
 30
0.0
 10
182.6635761827
 20
216.734605403
 30
0.0
 10
182.0924760224
 20
216.6574115757
 30
0.0
 10
181.67163106
 20
216.5771935549
 30
0.0
 10
181.3885740645
 20
216.511299033
 30
0.0
 10
181.1318527739
 20
216.4386577116
 30
0.0
 10
180.903860675
 20
216.3599734969
 30
0.0
 10
180.7066583844
 20
216.276010408
 30
0.0
 10
180.5419217607
 20
216.1875425389
 30
0.0
 10
180.4108985776
 20
216.0951146385
 30
0.0
 10
180.3144090688
 20
215.9991590329
 30
0.0
 10
180.2622939918
 20
215.9126829816
 30
0.0
 10
180.2423473948
 20
215.8438041231
 30
0.0
 10
180.2390940388
 20
215.8100126293
 30
0.0
 10
180.2390940388
 20
215.7934290872
 30
0.0
  0
SPLINE
  5
36C
330
1B
100
AcDbEntity
 67
     1
  8
02___PRT_ALL_AXES
  6
Continuous
 62
     7
100
AcDbSpline
 70
     0
 71
     3
 72
    17
 73
    13
 74
     0
 42
0.000000001
 43
0.0000001
 40
0.0
 40
0.0
 40
0.0
 40
0.0
 40
0.1624912161
 40
0.3209926757
 40
0.4716525717
 40
0.6108675467
 40
0.7354421749
 40
0.8427542783
 40
0.889359534
 40
0.9310776136
 40
0.9679062038
 40
1.0
 40
1.0
 40
1.0
 40
1.0
 10
184.139088923
 20
215.5780784917
 30
0.0
 10
183.9827157259
 20
215.5780784917
 30
0.0
 10
183.6737683545
 20
215.5716495421
 30
0.0
 10
183.2206465792
 20
215.5428668298
 30
0.0
 10
182.7915620286
 20
215.4957844743
 30
0.0
 10
182.3976661307
 20
215.4317299846
 30
0.0
 10
182.0491962542
 20
215.3524673316
 30
0.0
 10
181.7929359624
 20
215.272351785
 30
0.0
 10
181.6188025087
 20
215.2004663053
 30
0.0
 10
181.5108890154
 20
215.1466854679
 30
0.0
 10
181.4200571886
 20
215.090838395
 30
0.0
 10
181.3677444123
 20
215.049661059
 30
0.0
 10
181.3451359062
 20
215.0286190856
 30
0.0
  0
SPLINE
  5
36D
330
1B
100
AcDbEntity
 67
     1
  8
02___PRT_ALL_AXES
  6
Continuous
 62
     7
100
AcDbSpline
 70
     0
 71
     3
 72
    18
 73
    14
 74
     0
 42
0.000000001
 43
0.0000001
 40
0.0
 40
0.0
 40
0.0
 40
0.0
 40
0.1624873829
 40
0.3209818196
 40
0.4716374855
 40
0.6108477121
 40
0.7354183369
 40
0.7913804014
 40
0.842758717
 40
0.8893635823
 40
0.9310794697
 40
0.9679074609
 40
1.0
 40
1.0
 40
1.0
 40
1.0
 10
184.139088923
 20
214.8709717106
 30
0.0
 10
183.9287922357
 20
214.8709717106
 30
0.0
 10
183.5133110352
 20
214.8623268965
 30
0.0
 10
182.9039455341
 20
214.8236151366
 30
0.0
 10
182.3268865548
 20
214.7603073511
 30
0.0
 10
181.7972188788
 20
214.6741344983
 30
0.0
 10
181.3932827455
 20
214.5823707736
 30
0.0
 10
181.1052539368
 20
214.4976183273
 30
0.0
 10
180.9169575726
 20
214.4322098033
 30
0.0
 10
180.7497386367
 20
214.3631457912
 30
0.0
 10
180.604613913
 20
214.2908205107
 30
0.0
 10
180.4824569323
 20
214.2157214302
 30
0.0
 10
180.4121108505
 20
214.1603381208
 30
0.0
 10
180.3817037013
 20
214.132043553
 30
0.0
  0
SPLINE
  5
36E
330
1B
100
AcDbEntity
 67
     1
  8
02___PRT_ALL_AXES
  6
Continuous
 62
     7
100
AcDbSpline
 70
     0
 71
     3
 72
    18
 73
    14
 74
     0
 42
0.000000001
 43
0.0000001
 40
0.0
 40
0.0
 40
0.0
 40
0.0
 40
0.1624873829
 40
0.3209818196
 40
0.4716374855
 40
0.6108477121
 40
0.7354183369
 40
0.7913804014
 40
0.842758717
 40
0.8893635823
 40
0.9310794697
 40
0.9679074609
 40
1.0
 40
1.0
 40
1.0
 40
1.0
 10
184.139088923
 20
214.8709717106
 30
0.0
 10
184.3493856104
 20
214.8709717106
 30
0.0
 10
184.7648668108
 20
214.8623268965
 30
0.0
 10
185.374232312
 20
214.8236151366
 30
0.0
 10
185.9512912913
 20
214.7603073511
 30
0.0
 10
186.4809589672
 20
214.6741344983
 30
0.0
 10
186.8848951005
 20
214.5823707736
 30
0.0
 10
187.1729239093
 20
214.4976183273
 30
0.0
 10
187.3612202734
 20
214.4322098033
 30
0.0
 10
187.5284392094
 20
214.3631457912
 30
0.0
 10
187.6735639331
 20
214.2908205107
 30
0.0
 10
187.7957209137
 20
214.2157214302
 30
0.0
 10
187.8660669955
 20
214.1603381208
 30
0.0
 10
187.8964741447
 20
214.132043553
 30
0.0
  0
SPLINE
  5
36F
330
1B
100
AcDbEntity
 67
     1
  8
02___PRT_ALL_AXES
  6
Continuous
 62
     7
100
AcDbSpline
 70
     0
 71
     3
 72
    19
 73
    15
 74
     0
 42
0.000000001
 43
0.0000001
 40
0.0
 40
0.0
 40
0.0
 40
0.0
 40
0.1703032946
 40
0.3356422757
 40
0.4912722568
 40
0.6328032742
 40
0.6970847944
 40
0.7564910462
 40
0.8106902346
 40
0.8594396812
 40
0.9026006685
 40
0.9401923854
 40
0.9724593669
 40
1.0
 40
1.0
 40
1.0
 40
1.0
 10
184.139088923
 20
218.4931935591
 30
0.0
 10
184.3679712513
 20
218.4931935591
 30
0.0
 10
184.8191332428
 20
218.4829862817
 30
0.0
 10
185.4780615555
 20
218.43734043
 30
0.0
 10
186.0954592155
 20
218.3629343649
 30
0.0
 10
186.573900551
 20
218.276560603
 30
0.0
 10
186.9205567619
 20
218.1932125213
 30
0.0
 10
187.1504490549
 20
218.1272685028
 30
0.0
 10
187.3569417547
 20
218.056407579
 30
0.0
 10
187.538502737
 20
217.9811919648
 30
0.0
 10
187.6938240528
 20
217.9021838472
 30
0.0
 10
187.8219023005
 20
217.8198674628
 30
0.0
 10
187.9219314278
 20
217.7347367411
 30
0.0
 10
187.972974181
 20
217.6716221712
 30
0.0
 10
187.9921334196
 20
217.6399529188
 30
0.0
  0
SPLINE
  5
370
330
1B
100
AcDbEntity
 67
     1
  8
02___PRT_ALL_AXES
  6
Continuous
 62
     7
100
AcDbSpline
 70
     0
 71
     3
 72
    21
 73
    17
 74
     0
 42
0.000000001
 43
0.0000001
 40
0.0
 40
0.0
 40
0.0
 40
0.0
 40
0.181371028
 40
0.3562395886
 40
0.5184431753
 40
0.5930337374
 40
0.6624444482
 40
0.7261405159
 40
0.7836817645
 40
0.834753841
 40
0.8792046002
 40
0.9171244406
 40
0.9489896551
 40
0.9759019693
 40
0.9881447186
 40
1.0
 40
1.0
 40
1.0
 40
1.0
 10
184.139088923
 20
216.8028233631
 30
0.0
 10
184.3927964451
 20
216.8028233631
 30
0.0
 10
184.8912201388
 20
216.7903507092
 30
0.0
 10
185.6146016634
 20
216.734605403
 30
0.0
 10
186.1857018237
 20
216.6574115757
 30
0.0
 10
186.6065467861
 20
216.5771935549
 30
0.0
 10
186.8896037815
 20
216.511299033
 30
0.0
 10
187.1463250722
 20
216.4386577116
 30
0.0
 10
187.374317171
 20
216.3599734969
 30
0.0
 10
187.5715194617
 20
216.276010408
 30
0.0
 10
187.7362560854
 20
216.1875425389
 30
0.0
 10
187.8672792685
 20
216.0951146385
 30
0.0
 10
187.9637687772
 20
215.9991590329
 30
0.0
 10
188.0158838542
 20
215.9126829816
 30
0.0
 10
188.0358304512
 20
215.8438041231
 30
0.0
 10
188.0390838073
 20
215.8100126293
 30
0.0
 10
188.0390838073
 20
215.7934290872
 30
0.0
  0
LINE
  5
371
330
1B
100
AcDbEntity
 67
     1
  8
7_ALL_FEATURES
  6
Continuous
 62
     7
100
AcDbLine
 10
70.639088923
 20
200.1814220076
 30
0.0
 11
70.639088923
 21
209.280935484
 31
0.0
  0
LINE
  5
372
330
1B
100
AcDbEntity
 67
     1
  8
7_ALL_FEATURES
  6
Continuous
 62
     7
100
AcDbLine
 10
193.639088923
 20
209.280935484
 30
0.0
 11
193.639088923
 21
200.1814220076
 31
0.0
  0
LINE
  5
373
330
1B
100
AcDbEntity
 67
     1
  8
7_ALL_FEATURES
  6
Continuous
 62
     7
100
AcDbLine
 10
193.2481213112
 20
199.7904543957
 30
0.0
 11
71.0300565349
 21
199.7904543957
 31
0.0
  0
LINE
  5
374
330
1B
100
AcDbEntity
 67
     1
  8
7_ALL_FEATURES
  6
Continuous
 62
     7
100
AcDbLine
 10
70.783977797
 20
209.4697583407
 30
0.0
 11
70.639088923
 21
209.280935484
 31
0.0
  0
LINE
  5
375
330
1B
100
AcDbEntity
 67
     1
  8
7_ALL_FEATURES
  6
Continuous
 62
     7
100
AcDbLine
 10
70.639088923
 20
200.1814220076
 30
0.0
 11
70.834572729
 21
199.9859382016
 31
0.0
  0
LINE
  5
376
330
1B
100
AcDbEntity
 67
     1
  8
7_ALL_FEATURES
  6
Continuous
 62
     7
100
AcDbLine
 10
193.2481213112
 20
199.7904543957
 30
0.0
 11
193.4436051171
 21
199.9859382016
 31
0.0
  0
LINE
  5
377
330
1B
100
AcDbEntity
 67
     1
  8
7_ALL_FEATURES
  6
Continuous
 62
     7
100
AcDbLine
 10
193.639088923
 20
209.280935484
 30
0.0
 11
193.4942000491
 21
209.4697583407
 31
0.0
  0
LINE
  5
378
330
1B
100
AcDbEntity
 67
     1
  8
7_ALL_FEATURES
  6
Continuous
 62
     7
100
AcDbLine
 10
193.2481213112
 20
209.6585811975
 30
0.0
 11
71.0300565349
 21
209.6585811975
 31
0.0
  0
LINE
  5
379
330
1B
100
AcDbEntity
 67
     1
  8
7_ALL_FEATURES
  6
Continuous
 62
     7
100
AcDbLine
 10
71.0300565349
 20
209.6585811975
 30
0.0
 11
70.783977797
 21
209.4697583407
 31
0.0
  0
LINE
  5
37A
330
1B
100
AcDbEntity
 67
     1
  8
7_ALL_FEATURES
  6
Continuous
 62
     7
100
AcDbLine
 10
193.4942000491
 20
209.4697583407
 30
0.0
 11
193.2481213112
 21
209.6585811975
 31
0.0
  0
LINE
  5
37B
330
1B
100
AcDbEntity
 67
     1
  8
7_ALL_FEATURES
  6
Continuous
 62
     7
100
AcDbLine
 10
70.834572729
 20
199.9859382016
 30
0.0
 11
71.0300565349
 21
199.7904543957
 31
0.0
  0
LINE
  5
37C
330
1B
100
AcDbEntity
 67
     1
  8
7_ALL_FEATURES
  6
Continuous
 62
     7
100
AcDbLine
 10
193.4436051171
 20
199.9859382016
 30
0.0
 11
193.639088923
 21
200.1814220076
 31
0.0
  0
LINE
  5
37D
330
1B
100
AcDbEntity
 67
     1
  8
7_ALL_FEATURES
  6
Continuous
 62
     7
100
AcDbLine
 10
193.2481213112
 20
209.280935484
 30
0.0
 11
71.0300565349
 21
209.280935484
 31
0.0
  0
LINE
  5
37E
330
1B
100
AcDbEntity
 67
     1
  8
7_ALL_FEATURES
  6
Continuous
 62
     7
100
AcDbLine
 10
193.2481213112
 20
209.280935484
 30
0.0
 11
193.2481213112
 21
200.1814220076
 31
0.0
  0
LINE
  5
37F
330
1B
100
AcDbEntity
 67
     1
  8
7_ALL_FEATURES
  6
Continuous
 62
     7
100
AcDbLine
 10
193.2481213112
 20
200.1814220076
 30
0.0
 11
71.0300565349
 21
200.1814220076
 31
0.0
  0
LINE
  5
380
330
1B
100
AcDbEntity
 67
     1
  8
7_ALL_FEATURES
  6
Continuous
 62
     7
100
AcDbLine
 10
71.0300565349
 20
200.1814220076
 30
0.0
 11
71.0300565349
 21
209.280935484
 31
0.0
  0
LINE
  5
381
330
1B
100
AcDbEntity
 67
     1
  8
7_ALL_FEATURES
  6
Continuous
 62
     7
100
AcDbLine
 10
71.0300565349
 20
209.280935484
 30
0.0
 11
70.783977797
 21
209.4697583407
 31
0.0
  0
LINE
  5
382
330
1B
100
AcDbEntity
 67
     1
  8
7_ALL_FEATURES
  6
Continuous
 62
     7
100
AcDbLine
 10
71.0300565349
 20
200.1814220076
 30
0.0
 11
70.834572729
 21
199.9859382016
 31
0.0
  0
LINE
  5
383
330
1B
100
AcDbEntity
 67
     1
  8
7_ALL_FEATURES
  6
Continuous
 62
     7
100
AcDbLine
 10
193.2481213112
 20
200.1814220076
 30
0.0
 11
193.4436051171
 21
199.9859382016
 31
0.0
  0
LINE
  5
384
330
1B
100
AcDbEntity
 67
     1
  8
7_ALL_FEATURES
  6
Continuous
 62
     7
100
AcDbLine
 10
193.2481213112
 20
209.280935484
 30
0.0
 11
193.4942000491
 21
209.4697583407
 31
0.0
  0
LINE
  5
385
330
1B
100
AcDbEntity
 67
     1
  8
3_ALL_AXES
  6
Continuous
 62
     7
100
AcDbLine
 10
303.3556445301
 20
208.7477452667
 30
0.0
 11
303.5626997662
 21
207.9750046057
 31
0.0
  0
LINE
  5
386
330
1B
100
AcDbEntity
 67
     1
  8
3_ALL_AXES
  6
Continuous
 62
     7
100
AcDbLine
 10
294.6623120935
 20
206.4183738608
 30
0.0
 11
294.8693673296
 21
205.6456331998
 31
0.0
  0
LINE
  5
387
330
1B
100
AcDbEntity
 67
     1
  8
3_ALL_AXES
  6
Continuous
 62
     7
100
AcDbLine
 10
303.3556445301
 20
208.7477452667
 30
0.0
 11
303.5626997662
 21
207.9750046057
 31
0.0
  0
LINE
  5
388
330
1B
100
AcDbEntity
 67
     1
  8
3_ALL_AXES
  6
Continuous
 62
     7
100
AcDbLine
 10
303.3556445301
 20
208.7477452667
 30
0.0
 11
302.6794964517
 21
208.5665719352
 31
0.0
  0
LINE
  5
389
330
1B
100
AcDbEntity
 67
     1
  8
3_ALL_AXES
  6
Continuous
 62
     7
100
AcDbLine
 10
302.6794964517
 20
208.5665719352
 30
0.0
 11
302.665626624
 21
208.562855526
 31
0.0
  0
LINE
  5
38A
330
1B
100
AcDbEntity
 67
     1
  8
3_ALL_AXES
  6
Continuous
 62
     7
100
AcDbLine
 10
302.665626624
 20
208.562855526
 30
0.0
 11
302.0516446646
 21
208.3983395558
 31
0.0
  0
LINE
  5
38B
330
1B
100
AcDbEntity
 67
     1
  8
3_ALL_AXES
  6
Continuous
 62
     7
100
AcDbLine
 10
302.0516446646
 20
208.3983395558
 30
0.0
 11
301.0857188383
 21
208.1395205107
 31
0.0
  0
LINE
  5
38C
330
1B
100
AcDbEntity
 67
     1
  8
3_ALL_AXES
  6
Continuous
 62
     7
100
AcDbLine
 10
301.0857188383
 20
208.1395205107
 30
0.0
 11
296.9322377853
 21
207.0265986168
 31
0.0
  0
LINE
  5
38D
330
1B
100
AcDbEntity
 67
     1
  8
3_ALL_AXES
  6
Continuous
 62
     7
100
AcDbLine
 10
296.9322377853
 20
207.0265986168
 30
0.0
 11
295.966311959
 21
206.7677795717
 31
0.0
  0
LINE
  5
38E
330
1B
100
AcDbEntity
 67
     1
  8
3_ALL_AXES
  6
Continuous
 62
     7
100
AcDbLine
 10
295.966311959
 20
206.7677795717
 30
0.0
 11
295.3523299996
 21
206.6032636015
 31
0.0
  0
LINE
  5
38F
330
1B
100
AcDbEntity
 67
     1
  8
3_ALL_AXES
  6
Continuous
 62
     7
100
AcDbLine
 10
295.3523299996
 20
206.6032636015
 30
0.0
 11
295.338460172
 21
206.5995471924
 31
0.0
  0
LINE
  5
390
330
1B
100
AcDbEntity
 67
     1
  8
3_ALL_AXES
  6
Continuous
 62
     7
100
AcDbLine
 10
295.338460172
 20
206.5995471924
 30
0.0
 11
294.6623120935
 21
206.4183738608
 31
0.0
  0
LINE
  5
391
330
1B
100
AcDbEntity
 67
     1
  8
3_ALL_AXES
  6
Continuous
 62
     7
100
AcDbLine
 10
303.5626997662
 20
207.9750046057
 30
0.0
 11
303.5184569715
 21
207.9631497846
 31
0.0
  0
LINE
  5
392
330
1B
100
AcDbEntity
 67
     1
  8
3_ALL_AXES
  6
Continuous
 62
     7
100
AcDbLine
 10
303.5184569715
 20
207.9631497846
 30
0.0
 11
301.2927740744
 21
207.3667798497
 31
0.0
  0
LINE
  5
393
330
1B
100
AcDbEntity
 67
     1
  8
3_ALL_AXES
  6
Continuous
 62
     7
100
AcDbLine
 10
301.2927740744
 20
207.3667798497
 30
0.0
 11
297.1392930214
 21
206.2538579558
 31
0.0
  0
LINE
  5
394
330
1B
100
AcDbEntity
 67
     1
  8
3_ALL_AXES
  6
Continuous
 62
     7
100
AcDbLine
 10
297.1392930214
 20
206.2538579558
 30
0.0
 11
294.9136101243
 21
205.6574880209
 31
0.0
  0
LINE
  5
395
330
1B
100
AcDbEntity
 67
     1
  8
3_ALL_AXES
  6
Continuous
 62
     7
100
AcDbLine
 10
294.9136101243
 20
205.6574880209
 30
0.0
 11
294.8693673296
 21
205.6456331998
 31
0.0
  0
LINE
  5
396
330
1B
100
AcDbEntity
 67
     1
  8
3_ALL_AXES
  6
Continuous
 62
     7
100
AcDbLine
 10
294.6623120935
 20
206.4183738608
 30
0.0
 11
294.8693673296
 21
205.6456331998
 31
0.0
  0
LINE
  5
397
330
1B
100
AcDbEntity
 67
     1
  8
3_ALL_AXES
  6
Continuous
 62
     7
100
AcDbLine
 10
303.5626997662
 20
207.9750046057
 30
0.0
 11
303.7697550023
 21
207.2022639447
 31
0.0
  0
LINE
  5
398
330
1B
100
AcDbEntity
 67
     1
  8
3_ALL_AXES
  6
Continuous
 62
     7
100
AcDbLine
 10
294.8693673296
 20
205.6456331998
 30
0.0
 11
295.0764225657
 21
204.8728925388
 31
0.0
  0
LINE
  5
399
330
1B
100
AcDbEntity
 67
     1
  8
3_ALL_AXES
  6
Continuous
 62
     7
100
AcDbLine
 10
303.5626997662
 20
207.9750046057
 30
0.0
 11
303.7697550023
 21
207.2022639447
 31
0.0
  0
LINE
  5
39A
330
1B
100
AcDbEntity
 67
     1
  8
3_ALL_AXES
  6
Continuous
 62
     7
100
AcDbLine
 10
303.5626997662
 20
207.9750046057
 30
0.0
 11
303.5184569715
 21
207.9631497846
 31
0.0
  0
LINE
  5
39B
330
1B
100
AcDbEntity
 67
     1
  8
3_ALL_AXES
  6
Continuous
 62
     7
100
AcDbLine
 10
303.5184569715
 20
207.9631497846
 30
0.0
 11
301.2927740744
 21
207.3667798497
 31
0.0
  0
LINE
  5
39C
330
1B
100
AcDbEntity
 67
     1
  8
3_ALL_AXES
  6
Continuous
 62
     7
100
AcDbLine
 10
301.2927740744
 20
207.3667798497
 30
0.0
 11
297.1392930214
 21
206.2538579558
 31
0.0
  0
LINE
  5
39D
330
1B
100
AcDbEntity
 67
     1
  8
3_ALL_AXES
  6
Continuous
 62
     7
100
AcDbLine
 10
297.1392930214
 20
206.2538579558
 30
0.0
 11
294.9136101243
 21
205.6574880209
 31
0.0
  0
LINE
  5
39E
330
1B
100
AcDbEntity
 67
     1
  8
3_ALL_AXES
  6
Continuous
 62
     7
100
AcDbLine
 10
294.9136101243
 20
205.6574880209
 30
0.0
 11
294.8693673296
 21
205.6456331998
 31
0.0
  0
LINE
  5
39F
330
1B
100
AcDbEntity
 67
     1
  8
3_ALL_AXES
  6
Continuous
 62
     7
100
AcDbLine
 10
294.8693673296
 20
205.6456331998
 30
0.0
 11
295.0764225657
 21
204.8728925388
 31
0.0
  0
LINE
  5
3A0
330
1B
100
AcDbEntity
 67
     1
  8
7_ALL_FEATURES
  6
Continuous
 62
     7
100
AcDbLine
 10
302.6794964517
 20
208.5665719351
 30
0.0
 11
302.7502071298
 21
208.6890464222
 31
0.0
  0
LINE
  5
3A1
330
1B
100
AcDbEntity
 67
     1
  8
7_ALL_FEATURES
  6
Continuous
 62
     7
100
AcDbLine
 10
295.338460172
 20
206.5995471923
 30
0.0
 11
295.2159856849
 21
206.6702578704
 31
0.0
  0
LINE
  5
3A2
330
1B
100
AcDbEntity
 67
     1
  8
02___PRT_ALL_AXES
  6
Continuous
 62
     7
100
AcDbLine
 10
299.1025730959
 20
219.5138142853
 30
0.0
 11
300.123193822
 21
218.4931935591
 31
0.0
  0
LINE
  5
3A3
330
1B
100
AcDbEntity
 67
     1
  8
02___PRT_ALL_AXES
  6
Continuous
 62
     7
100
AcDbLine
 10
292.9625454904
 20
217.8685988469
 30
0.0
 11
292.588972377
 21
216.4744050073
 31
0.0
  0
LINE
  5
3A4
330
1B
100
AcDbEntity
 67
     1
  8
02___PRT_ALL_AXES
  6
Continuous
 62
     7
100
AcDbLine
 10
299.1025730959
 20
219.5138142853
 30
0.0
 11
297.9644109457
 21
219.2088446563
 31
0.0
  0
LINE
  5
3A5
330
1B
100
AcDbEntity
 67
     1
  8
02___PRT_ALL_AXES
  6
Continuous
 62
     7
100
AcDbLine
 10
297.9644109457
 20
219.2088446563
 30
0.0
 11
297.6263369065
 21
219.1182579905
 31
0.0
  0
LINE
  5
3A6
330
1B
100
AcDbEntity
 67
     1
  8
02___PRT_ALL_AXES
  6
Continuous
 62
     7
100
AcDbLine
 10
297.6263369065
 20
219.1182579905
 30
0.0
 11
294.4387816798
 21
218.2641551417
 31
0.0
  0
LINE
  5
3A7
330
1B
100
AcDbEntity
 67
     1
  8
02___PRT_ALL_AXES
  6
Continuous
 62
     7
100
AcDbLine
 10
294.4387816798
 20
218.2641551417
 30
0.0
 11
294.1007076406
 21
218.1735684759
 31
0.0
  0
LINE
  5
3A8
330
1B
100
AcDbEntity
 67
     1
  8
02___PRT_ALL_AXES
  6
Continuous
 62
     7
100
AcDbLine
 10
294.1007076406
 20
218.1735684759
 30
0.0
 11
292.9625454904
 21
217.8685988469
 31
0.0
  0
LINE
  5
3A9
330
1B
100
AcDbEntity
 67
     1
  8
02___PRT_ALL_AXES
  6
Continuous
 62
     7
100
AcDbLine
 10
300.123193822
 20
218.4931935591
 30
0.0
 11
300.576127151
 21
216.8028233631
 31
0.0
  0
LINE
  5
3AA
330
1B
100
AcDbEntity
 67
     1
  8
02___PRT_ALL_AXES
  6
Continuous
 62
     7
100
AcDbLine
 10
292.588972377
 20
216.4744050073
 30
0.0
 11
293.0419057059
 21
214.7840348113
 31
0.0
  0
LINE
  5
3AB
330
1B
100
AcDbEntity
 67
     1
  8
02___PRT_ALL_AXES
  6
Continuous
 62
     7
100
AcDbLine
 10
300.576127151
 20
216.8028233631
 30
0.0
 11
299.8690203698
 21
215.5780784917
 31
0.0
  0
LINE
  5
3AC
330
1B
100
AcDbEntity
 67
     1
  8
02___PRT_ALL_AXES
  6
Continuous
 62
     7
100
AcDbLine
 10
293.0419057059
 20
214.7840348113
 30
0.0
 11
294.2666505773
 21
214.0769280301
 31
0.0
  0
LINE
  5
3AD
330
1B
100
AcDbEntity
 67
     1
  8
02___PRT_ALL_AXES
  6
Continuous
 62
     7
100
AcDbLine
 10
299.8690203698
 20
215.5780784917
 30
0.0
 11
301.0937652412
 21
214.8709717106
 31
0.0
  0
LINE
  5
3AE
330
1B
100
AcDbEntity
 67
     1
  8
02___PRT_ALL_AXES
  6
Continuous
 62
     7
100
AcDbLine
 10
294.2666505773
 20
214.0769280301
 30
0.0
 11
293.5595437961
 21
212.8521831588
 31
0.0
  0
LINE
  5
3AF
330
1B
100
AcDbEntity
 67
     1
  8
7_ALL_FEATURES
  6
Continuous
 62
     7
100
AcDbLine
 10
293.5595437961
 20
212.8521831588
 30
0.0
 11
295.2159856848
 21
206.6702578705
 31
0.0
  0
LINE
  5
3B0
330
1B
100
AcDbEntity
 67
     1
  8
7_ALL_FEATURES
  6
Continuous
 62
     7
100
AcDbLine
 10
301.0937652412
 20
214.8709717106
 30
0.0
 11
302.7502071298
 21
208.6890464223
 31
0.0
  0
LINE
  5
3B1
330
1B
100
AcDbEntity
 67
     1
  8
7_ALL_FEATURES
  6
Continuous
 62
     7
100
AcDbLine
 10
302.6794964517
 20
208.5665719351
 30
0.0
 11
302.7502071298
 21
208.6890464222
 31
0.0
  0
LINE
  5
3B2
330
1B
100
AcDbEntity
 67
     1
  8
7_ALL_FEATURES
  6
Continuous
 62
     7
100
AcDbLine
 10
295.338460172
 20
206.5995471924
 30
0.0
 11
295.2159856848
 21
206.6702578705
 31
0.0
  0
LINE
  5
3B3
330
1B
100
AcDbEntity
 67
     1
  8
02___PRT_ALL_AXES
  6
Continuous
 62
     7
100
AcDbLine
 10
295.2159856848
 20
206.6702578705
 30
0.0
 11
293.5595437961
 21
212.8521831588
 31
0.0
  0
LINE
  5
3B4
330
1B
100
AcDbEntity
 67
     1
  8
02___PRT_ALL_AXES
  6
Continuous
 62
     7
100
AcDbLine
 10
293.5595437961
 20
212.8521831588
 30
0.0
 11
294.2666505773
 21
214.0769280301
 31
0.0
  0
LINE
  5
3B5
330
1B
100
AcDbEntity
 67
     1
  8
02___PRT_ALL_AXES
  6
Continuous
 62
     7
100
AcDbLine
 10
300.123193822
 20
218.4931935591
 30
0.0
 11
299.1025730959
 21
219.5138142853
 31
0.0
  0
LINE
  5
3B6
330
1B
100
AcDbEntity
 67
     1
  8
02___PRT_ALL_AXES
  6
Continuous
 62
     7
100
AcDbLine
 10
294.2666505773
 20
214.0769280301
 30
0.0
 11
293.0419057059
 21
214.7840348113
 31
0.0
  0
LINE
  5
3B7
330
1B
100
AcDbEntity
 67
     1
  8
02___PRT_ALL_AXES
  6
Continuous
 62
     7
100
AcDbLine
 10
300.576127151
 20
216.8028233631
 30
0.0
 11
300.123193822
 21
218.4931935591
 31
0.0
  0
LINE
  5
3B8
330
1B
100
AcDbEntity
 67
     1
  8
02___PRT_ALL_AXES
  6
Continuous
 62
     7
100
AcDbLine
 10
293.0419057059
 20
214.7840348113
 30
0.0
 11
292.588972377
 21
216.4744050073
 31
0.0
  0
LINE
  5
3B9
330
1B
100
AcDbEntity
 67
     1
  8
02___PRT_ALL_AXES
  6
Continuous
 62
     7
100
AcDbLine
 10
299.8690203698
 20
215.5780784917
 30
0.0
 11
300.576127151
 21
216.8028233631
 31
0.0
  0
LINE
  5
3BA
330
1B
100
AcDbEntity
 67
     1
  8
02___PRT_ALL_AXES
  6
Continuous
 62
     7
100
AcDbLine
 10
292.588972377
 20
216.4744050073
 30
0.0
 11
292.9625454904
 21
217.8685988469
 31
0.0
  0
LINE
  5
3BB
330
1B
100
AcDbEntity
 67
     1
  8
02___PRT_ALL_AXES
  6
Continuous
 62
     7
100
AcDbLine
 10
301.0937652412
 20
214.8709717106
 30
0.0
 11
299.8690203698
 21
215.5780784917
 31
0.0
  0
LINE
  5
3BC
330
1B
100
AcDbEntity
 67
     1
  8
02___PRT_ALL_AXES
  6
Continuous
 62
     7
100
AcDbLine
 10
302.7502071298
 20
208.6890464223
 30
0.0
 11
301.0937652412
 21
214.8709717106
 31
0.0
  0
LINE
  5
3BD
330
1B
100
AcDbEntity
 67
     1
  8
02___PRT_ALL_AXES
  6
Continuous
 62
     7
100
AcDbLine
 10
299.8690203698
 20
215.5780784917
 30
0.0
 11
294.2666505773
 21
214.0769280301
 31
0.0
  0
LINE
  5
3BE
330
1B
100
AcDbEntity
 67
     1
  8
7_ALL_FEATURES
  6
Continuous
 62
     7
100
AcDbLine
 10
302.7502071298
 20
208.6890464223
 30
0.0
 11
295.2159856848
 21
206.6702578705
 31
0.0
  0
LINE
  5
3BF
330
1B
100
AcDbEntity
 67
     1
  8
02___PRT_ALL_AXES
  6
Continuous
 62
     7
100
AcDbLine
 10
300.123193822
 20
218.4931935591
 30
0.0
 11
292.588972377
 21
216.4744050073
 31
0.0
  0
LINE
  5
3C0
330
1B
100
AcDbEntity
 67
     1
  8
02___PRT_ALL_AXES
  6
Continuous
 62
     7
100
AcDbLine
 10
301.0937652412
 20
214.8709717106
 30
0.0
 11
293.5595437961
 21
212.8521831588
 31
0.0
  0
LINE
  5
3C1
330
1B
100
AcDbEntity
 67
     1
  8
02___PRT_ALL_AXES
  6
Continuous
 62
     7
100
AcDbLine
 10
300.576127151
 20
216.8028233631
 30
0.0
 11
293.0419057059
 21
214.7840348113
 31
0.0
  0
LINE
  5
3C2
330
1B
100
AcDbEntity
 67
     1
  8
7_ALL_FEATURES
  6
Continuous
 62
     7
100
AcDbLine
 10
285.4171643028
 20
201.9847020877
 30
0.0
 11
285.5620531767
 21
202.1735249445
 31
0.0
  0
LINE
  5
3C3
330
1B
100
AcDbEntity
 67
     1
  8
7_ALL_FEATURES
  6
Continuous
 62
     7
100
AcDbLine
 10
285.8081319146
 20
199.7904543957
 30
0.0
 11
313.0380456533
 21
199.7904543957
 31
0.0
  0
LINE
  5
3C4
330
1B
100
AcDbEntity
 67
     1
  8
7_ALL_FEATURES
  6
Continuous
 62
     7
100
AcDbLine
 10
285.7069420507
 20
202.3623478013
 30
0.0
 11
285.5620531767
 21
202.1735249445
 31
0.0
  0
LINE
  5
3C5
330
1B
100
AcDbEntity
 67
     1
  8
7_ALL_FEATURES
  6
Continuous
 62
     7
100
AcDbLine
 10
285.4171643028
 20
201.9847020877
 30
0.0
 11
285.4171643028
 21
200.1814220076
 31
0.0
  0
LINE
  5
3C6
330
1B
100
AcDbEntity
 67
     1
  8
7_ALL_FEATURES
  6
Continuous
 62
     7
100
AcDbLine
 10
313.4290132652
 20
209.280935484
 30
0.0
 11
313.1829345273
 21
209.4697583407
 31
0.0
  0
LINE
  5
3C7
330
1B
100
AcDbEntity
 67
     1
  8
7_ALL_FEATURES
  6
Continuous
 62
     7
100
AcDbLine
 10
313.4290132652
 20
200.1814220076
 30
0.0
 11
313.2335294592
 21
199.9859382016
 31
0.0
  0
LINE
  5
3C8
330
1B
100
AcDbEntity
 67
     1
  8
7_ALL_FEATURES
  6
Continuous
 62
     7
100
AcDbLine
 10
312.9368557894
 20
209.6585811975
 30
0.0
 11
313.1829345273
 21
209.4697583407
 31
0.0
  0
LINE
  5
3C9
330
1B
100
AcDbEntity
 67
     1
  8
7_ALL_FEATURES
  6
Continuous
 62
     7
100
AcDbLine
 10
285.8081319146
 20
199.7904543957
 30
0.0
 11
285.6126481087
 21
199.9859382016
 31
0.0
  0
LINE
  5
3CA
330
1B
100
AcDbEntity
 67
     1
  8
7_ALL_FEATURES
  6
Continuous
 62
     7
100
AcDbLine
 10
285.4171643028
 20
200.1814220076
 30
0.0
 11
285.6126481087
 21
199.9859382016
 31
0.0
  0
LINE
  5
3CB
330
1B
100
AcDbEntity
 67
     1
  8
7_ALL_FEATURES
  6
Continuous
 62
     7
100
AcDbLine
 10
313.2335294592
 20
199.9859382016
 30
0.0
 11
313.0380456533
 21
199.7904543957
 31
0.0
  0
LINE
  5
3CC
330
1B
100
AcDbEntity
 67
     1
  8
7_ALL_FEATURES
  6
Continuous
 62
     7
100
AcDbLine
 10
312.9368557894
 20
209.6585811975
 30
0.0
 11
285.7069420507
 21
202.3623478013
 31
0.0
  0
LINE
  5
3CD
330
1B
100
AcDbEntity
 67
     1
  8
7_ALL_FEATURES
  6
Continuous
 62
     7
100
AcDbLine
 10
313.4290132652
 20
200.1814220076
 30
0.0
 11
313.4290132652
 21
209.280935484
 31
0.0
  0
LINE
  5
3CE
330
1B
100
AcDbEntity
 67
     1
  8
7_ALL_FEATURES
  6
Continuous
 62
     7
100
AcDbLine
 10
285.8081319146
 20
201.9847020877
 30
0.0
 11
285.8081319146
 21
200.1814220076
 31
0.0
  0
LINE
  5
3CF
330
1B
100
AcDbEntity
 67
     1
  8
7_ALL_FEATURES
  6
Continuous
 62
     7
100
AcDbLine
 10
285.6126481087
 20
199.9859382016
 30
0.0
 11
285.8081319146
 21
200.1814220076
 31
0.0
  0
LINE
  5
3D0
330
1B
100
AcDbEntity
 67
     1
  8
7_ALL_FEATURES
  6
Continuous
 62
     7
100
AcDbLine
 10
313.0380456533
 20
209.280935484
 30
0.0
 11
285.8081319146
 21
201.9847020877
 31
0.0
  0
LINE
  5
3D1
330
1B
100
AcDbEntity
 67
     1
  8
7_ALL_FEATURES
  6
Continuous
 62
     7
100
AcDbLine
 10
313.0380456533
 20
200.1814220076
 30
0.0
 11
313.2335294592
 21
199.9859382016
 31
0.0
  0
LINE
  5
3D2
330
1B
100
AcDbEntity
 67
     1
  8
7_ALL_FEATURES
  6
Continuous
 62
     7
100
AcDbLine
 10
313.0380456533
 20
200.1814220076
 30
0.0
 11
313.0380456533
 21
209.280935484
 31
0.0
  0
LINE
  5
3D3
330
1B
100
AcDbEntity
 67
     1
  8
7_ALL_FEATURES
  6
Continuous
 62
     7
100
AcDbLine
 10
285.5620531767
 20
202.1735249445
 30
0.0
 11
285.8081319146
 21
201.9847020877
 31
0.0
  0
LINE
  5
3D4
330
1B
100
AcDbEntity
 67
     1
  8
7_ALL_FEATURES
  6
Continuous
 62
     7
100
AcDbLine
 10
313.1829345273
 20
209.4697583407
 30
0.0
 11
313.0380456533
 21
209.280935484
 31
0.0
  0
LINE
  5
3D5
330
1B
100
AcDbEntity
 67
     1
  8
7_ALL_FEATURES
  6
Continuous
 62
     7
100
AcDbLine
 10
285.8081319146
 20
200.1814220076
 30
0.0
 11
313.0380456533
 21
200.1814220076
 31
0.0
  0
DIMENSION
  5
3D6
330
1B
100
AcDbEntity
 67
     1
  8
0
  6
Continuous
 62
     2
100
AcDbDimension
280
     0
  2
*D1
 10
193.639088923
 20
58.6545977896
 30
0.0
 11
131.7105221558
 21
58.6545977896
 31
0.0
 70
   160
 71
     5
 42
-1.0
 73
     0
 74
     0
 75
     0
  3
DIMSTYLE_1
100
AcDbAlignedDimension
 13
70.639088923
 23
68.9827815451
 33
0.0
 14
193.639088923
 24
70.1937270401
 34
0.0
100
AcDbRotatedDimension
  0
DIMENSION
  5
3D7
330
1B
100
AcDbEntity
 67
     1
  8
0
  6
Continuous
 62
     2
100
AcDbDimension
280
     0
  2
*D2
 10
204.6896377044
 20
199.7904543957
 30
0.0
 11
204.6896377044
 21
193.2167022133
 31
0.0
 70
   160
 71
     5
 42
-1.0
 73
     0
 74
     0
 75
     0
  3
DIMSTYLE_2
100
AcDbAlignedDimension
 13
194.9272990642
 23
209.6585811975
 33
0.0
 14
195.1856341032
 24
199.7904543957
 34
0.0
 50
270.0
100
AcDbRotatedDimension
  0
DIMENSION
  5
3D8
330
1B
100
AcDbEntity
 67
     1
  8
0
  6
Continuous
 62
     2
100
AcDbDimension
280
     0
  2
*D3
 10
313.4290132652
 20
189.0753048325
 30
0.0
 11
298.9945111084
 21
189.0753048325
 31
0.0
 70
   160
 71
     5
 42
-1.0
 73
     0
 74
     0
 75
     0
  3
DIMSTYLE_2
100
AcDbAlignedDimension
 13
285.4171643028
 23
198.1147416961
 33
0.0
 14
313.4290132652
 24
197.8564066572
 34
0.0
100
AcDbRotatedDimension
  0
LINE
  5
3D9
330
1B
100
AcDbEntity
 67
     1
  8
0
  6
Continuous
 62
     2
100
AcDbLine
 10
279.1859044772
 20
76.857318896
 30
0.0
 11
409.1859044772
 21
76.857318896
 31
0.0
  0
LINE
  5
3DA
330
1B
100
AcDbEntity
 67
     1
  8
0
  6
Continuous
 62
     2
100
AcDbLine
 10
279.1859044772
 20
76.857318896
 30
0.0
 11
279.1859044772
 21
10.857318896
 31
0.0
  0
LINE
  5
3DB
330
1B
100
AcDbEntity
 67
     1
  8
0
  6
Continuous
 62
     2
100
AcDbLine
 10
309.1859044772
 20
68.857318896
 30
0.0
 11
409.1859044772
 21
68.857318896
 31
0.0
  0
LINE
  5
3DC
330
1B
100
AcDbEntity
 67
     1
  8
0
  6
Continuous
 62
     2
100
AcDbLine
 10
279.1859044772
 20
60.857318896
 30
0.0
 11
409.1859044772
 21
60.857318896
 31
0.0
  0
LINE
  5
3DD
330
1B
100
AcDbEntity
 67
     1
  8
0
  6
Continuous
 62
     2
100
AcDbLine
 10
309.1859044772
 20
54.857318896
 30
0.0
 11
409.1859044772
 21
54.857318896
 31
0.0
  0
LINE
  5
3DE
330
1B
100
AcDbEntity
 67
     1
  8
0
  6
Continuous
 62
     2
100
AcDbLine
 10
309.1859044772
 20
48.857318896
 30
0.0
 11
409.1859044772
 21
48.857318896
 31
0.0
  0
LINE
  5
3DF
330
1B
100
AcDbEntity
 67
     1
  8
0
  6
Continuous
 62
     2
100
AcDbLine
 10
309.1859044772
 20
42.857318896
 30
0.0
 11
409.1859044772
 21
42.857318896
 31
0.0
  0
LINE
  5
3E0
330
1B
100
AcDbEntity
 67
     1
  8
0
  6
Continuous
 62
     2
100
AcDbLine
 10
309.1859044772
 20
36.857318896
 30
0.0
 11
409.1859044772
 21
36.857318896
 31
0.0
  0
LINE
  5
3E1
330
1B
100
AcDbEntity
 67
     1
  8
0
  6
Continuous
 62
     2
100
AcDbLine
 10
309.1859044772
 20
30.857318896
 30
0.0
 11
409.1859044772
 21
30.857318896
 31
0.0
  0
LINE
  5
3E2
330
1B
100
AcDbEntity
 67
     1
  8
0
  6
Continuous
 62
     2
100
AcDbLine
 10
279.1859044772
 20
24.857318896
 30
0.0
 11
409.1859044772
 21
24.857318896
 31
0.0
  0
LINE
  5
3E3
330
1B
100
AcDbEntity
 67
     1
  8
0
  6
Continuous
 62
     2
100
AcDbLine
 10
279.1859044772
 20
18.857318896
 30
0.0
 11
409.1859044772
 21
18.857318896
 31
0.0
  0
LINE
  5
3E4
330
1B
100
AcDbEntity
 67
     1
  8
0
  6
Continuous
 62
     2
100
AcDbLine
 10
279.1859044772
 20
14.857318896
 30
0.0
 11
409.1859044772
 21
14.857318896
 31
0.0
  0
LINE
  5
3E5
330
1B
100
AcDbEntity
 67
     1
  8
0
  6
Continuous
 62
     2
100
AcDbLine
 10
279.1859044772
 20
10.857318896
 30
0.0
 11
409.1859044772
 21
10.857318896
 31
0.0
  0
LINE
  5
3E6
330
1B
100
AcDbEntity
 67
     1
  8
0
  6
Continuous
 62
     2
100
AcDbLine
 10
309.1859044772
 20
76.857318896
 30
0.0
 11
309.1859044772
 21
18.857318896
 31
0.0
  0
LINE
  5
3E7
330
1B
100
AcDbEntity
 67
     1
  8
0
  6
Continuous
 62
     2
100
AcDbLine
 10
329.1859044772
 20
60.857318896
 30
0.0
 11
329.1859044772
 21
54.857318896
 31
0.0
  0
LINE
  5
3E8
330
1B
100
AcDbEntity
 67
     1
  8
0
  6
Continuous
 62
     2
100
AcDbLine
 10
359.1859044772
 20
30.857318896
 30
0.0
 11
359.1859044772
 21
18.857318896
 31
0.0
  0
LINE
  5
3E9
330
1B
100
AcDbEntity
 67
     1
  8
0
  6
Continuous
 62
     2
100
AcDbLine
 10
369.1859044772
 20
60.857318896
 30
0.0
 11
369.1859044772
 21
54.857318896
 31
0.0
  0
LINE
  5
3EA
330
1B
100
AcDbEntity
 67
     1
  8
0
  6
Continuous
 62
     2
100
AcDbLine
 10
369.1859044772
 20
48.857318896
 30
0.0
 11
369.1859044772
 21
42.857318896
 31
0.0
  0
LINE
  5
3EB
330
1B
100
AcDbEntity
 67
     1
  8
0
  6
Continuous
 62
     2
100
AcDbLine
 10
389.1859044772
 20
60.857318896
 30
0.0
 11
389.1859044772
 21
54.857318896
 31
0.0
  0
LINE
  5
3EC
330
1B
100
AcDbEntity
 67
     1
  8
0
  6
Continuous
 62
     2
100
AcDbLine
 10
399.1859044772
 20
48.857318896
 30
0.0
 11
399.1859044772
 21
42.857318896
 31
0.0
  0
LINE
  5
3ED
330
1B
100
AcDbEntity
 67
     1
  8
0
  6
Continuous
 62
     2
100
AcDbLine
 10
409.1859044772
 20
76.857318896
 30
0.0
 11
409.1859044772
 21
10.857318896
 31
0.0
  0
INSERT
  5
3EE
330
1B
100
AcDbEntity
 67
     1
  8
0
  6
Continuous
 62
     2
100
AcDbBlockReference
  2
PROIEZIONE_EU_BL0
 10
294.1859044772
 20
68.482318896
 30
0.0
  0
MTEXT
  5
3EF
330
1B
100
AcDbEntity
 67
     1
  8
9_SOLID
  6
Continuous
 62
     2
100
AcDbMText
 10
310.6734044772
 20
75.232318896
 30
0.0
 40
1.9
 41
142.3642857143
 46
0.0
 71
     1
 72
     1
  1
EN: Chamfer/radii unlisted 0.3x45°. Remove sharp edges.\PGen. tol.: hole H11, shaft h11, lenght Js12. UNI EN 22768 Medium Grande.
 73
     1
 44
1.0
  0
MTEXT
  5
3F0
330
1B
100
AcDbEntity
 67
     1
  8
9_SOLID
  6
Continuous
 62
     2
100
AcDbMText
 10
310.6734044772
 20
67.232318896
 30
0.0
 40
1.9
 41
148.2678571429
 46
0.0
 71
     1
 72
     1
  1
IT: Sm./rac. non quotati 0.3x45°. Eliminare spigoli taglienti.\PToll. gen.: foro H11, albero h11, lunghezza Js12. UNI EN 22768 Grado Medio.
 73
     1
 44
1.0
  0
INSERT
  5
3F1
330
1B
100
AcDbEntity
 67
     1
  8
0
  6
Continuous
 62
     2
100
AcDbBlockReference
  2
LOGO2_BL1
 10
293.011951522
 20
42.857318896
 30
0.0
  0
MTEXT
  5
3F2
330
1B
100
AcDbEntity
 67
     1
  8
9_SOLID
  6
Continuous
 62
     2
100
AcDbMText
 10
310.6734044772
 20
59.107318896
 30
0.0
 40
3.0
 41
21.75
 46
0.0
 71
     1
 72
     1
  1
Pj: 3H5
 73
     1
 44
1.0
  0
MTEXT
  5
3F3
330
1B
100
AcDbEntity
 67
     1
  8
9_SOLID
  6
Continuous
 62
     2
100
AcDbMText
 10
330.6734044772
 20
59.107318896
 30
0.0
 40
3.0
 41
38.0357142857
 46
0.0
 71
     1
 72
     1
  1
% Check: %
 73
     1
 44
1.0
  0
MTEXT
  5
3F4
330
1B
100
AcDbEntity
 67
     1
  8
9_SOLID
  6
Continuous
 62
     2
100
AcDbMText
 10
370.6734044772
 20
59.107318896
 30
0.0
 40
3.0
 41
19.5
 46
0.0
 71
     1
 72
     1
  1
Rev:00
 73
     1
 44
1.0
  0
MTEXT
  5
3F5
330
1B
100
AcDbEntity
 67
     1
  8
9_SOLID
  6
Continuous
 62
     2
100
AcDbMText
 10
390.6734044772
 20
59.357318896
 30
0.0
 40
3.0
 41
19.7142857143
 46
0.0
 71
     1
 72
     1
  1
Ver: A
 73
     1
 44
1.0
  0
MTEXT
  5
3F6
330
1B
100
AcDbEntity
 67
     1
  8
9_SOLID
  6
Continuous
 62
     2
100
AcDbMText
 10
310.6734044772
 20
53.107318896
 30
0.0
 40
3.0
 41
74.0357142857
 46
0.0
 71
     1
 72
     1
  1
Neutral code: 3H5_C_005
 73
     1
 44
1.0
  0
MTEXT
  5
3F7
330
1B
100
AcDbEntity
 67
     1
  8
9_SOLID
  6
Continuous
 62
     2
100
AcDbMText
 10
310.6734044772
 20
47.107318896
 30
0.0
 40
3.0
 41
19.3928571429
 46
0.0
 71
     1
 72
     1
  1
Code: 
 73
     1
 44
1.0
  0
MTEXT
  5
3F8
330
1B
100
AcDbEntity
 67
     1
  8
9_SOLID
  6
Continuous
 62
     2
100
AcDbMText
 10
370.6734044772
 20
47.357318896
 30
0.0
 40
3.0
 41
27.8571428571
 46
0.0
 71
     1
 72
     1
  1
Scale: 1:1
 73
     1
 44
1.0
  0
MTEXT
  5
3F9
330
1B
100
AcDbEntity
 67
     1
  8
9_SOLID
  6
Continuous
 62
     2
100
AcDbMText
 10
404.1859044772
 20
47.357318896
 30
0.0
 40
3.0
 41
7.9285714286
 46
0.0
 71
     2
 72
     1
  1
A3
 73
     1
 44
1.0
  0
MTEXT
  5
3FA
330
1B
100
AcDbEntity
 67
     1
  8
9_SOLID
  6
Continuous
 62
     2
100
AcDbMText
 10
310.6734044772
 20
41.357318896
 30
0.0
 40
3.0
 41
122.7857142857
 46
0.0
 71
     1
 72
     1
  1
It descr.: DIST. ELLA/ELLO IN 1 AL6026
 73
     1
 44
1.0
  0
MTEXT
  5
3FB
330
1B
100
AcDbEntity
 67
     1
  8
9_SOLID
  6
Continuous
 62
     2
100
AcDbMText
 10
310.6734044772
 20
35.357318896
 30
0.0
 40
3.0
 41
33.9642857143
 46
0.0
 71
     1
 72
     1
  1
En descr.: 
 73
     1
 44
1.0
  0
MTEXT
  5
3FC
330
1B
100
AcDbEntity
 67
     1
  8
9_SOLID
  6
Continuous
 62
     2
100
AcDbMText
 10
310.6734044772
 20
29.357318896
 30
0.0
 40
3.0
 41
31.2857142857
 46
0.0
 71
     1
 72
     1
  1
Des.: A.F.
 73
     1
 44
1.0
  0
MTEXT
  5
3FD
330
1B
100
AcDbEntity
 67
     1
  8
9_SOLID
  6
Continuous
 62
     2
100
AcDbMText
 10
360.6734044772
 20
29.357318896
 30
0.0
 40
3.0
 41
22.2857142857
 46
0.0
 71
     1
 72
     1
  1
Check: 
 73
     1
 44
1.0
  0
MTEXT
  5
3FE
330
1B
100
AcDbEntity
 67
     1
  8
9_SOLID
  6
Continuous
 62
     2
100
AcDbMText
 10
280.6734044772
 20
23.357318896
 30
0.0
 40
3.0
 41
19.0714285714
 46
0.0
 71
     1
 72
     1
  1
Date: 
 73
     1
 44
1.0
  0
MTEXT
  5
3FF
330
1B
100
AcDbEntity
 67
     1
  8
9_SOLID
  6
Continuous
 62
     2
100
AcDbMText
 10
310.6734044772
 20
23.357318896
 30
0.0
 40
3.0
 41
18.2142857143
 46
0.0
 71
     1
 72
     1
  1
Mat.: 
 73
     1
 44
1.0
  0
MTEXT
  5
400
330
1B
100
AcDbEntity
 67
     1
  8
9_SOLID
  6
Continuous
 62
     2
100
AcDbMText
 10
360.6734044772
 20
22.857318896
 30
0.0
 40
2.0
 41
42.3571428571
 46
0.0
 71
     1
 72
     1
  1
Disegno per catalogo
 73
     1
 44
1.0
  0
MTEXT
  5
401
330
1B
100
AcDbEntity
 67
     1
  8
9_SOLID
  6
Continuous
 62
     2
100
AcDbMText
 10
280.6734044772
 20
17.757318896
 30
0.0
 40
1.8
 41
176.2071428571
 46
0.0
 71
     1
 72
     1
  1
It: A norma di legge si diffida da qualsiasi riproduzione senza nostra autorizzazione esplicita.
 73
     1
 44
1.0
  0
MTEXT
  5
402
330
1B
100
AcDbEntity
 67
     1
  8
9_SOLID
  6
Continuous
 62
     2
100
AcDbMText
 10
280.6734044772
 20
13.757318896
 30
0.0
 40
1.8
 41
158.1428571429
 46
0.0
 71
     1
 72
     1
  1
En: According to the law, beware of any reproduction made without our authorization.
 73
     1
 44
1.0
  0
ENDSEC
  0
SECTION
  2
OBJECTS
  0
DICTIONARY
  5
403
330
0
100
AcDbDictionary
281
     1
  3
ACAD_DETAILVIEWSTYLE
350
459
  3
ACAD_GROUP
350
404
  3
ACAD_LAYOUT
350
42C
  3
ACAD_MATERIAL
350
448
  3
ACAD_MLEADERSTYLE
350
44E
  3
ACAD_MLINESTYLE
350
405
  3
ACAD_PLOTSETTINGS
350
407
  3
ACAD_PLOTSTYLENAME
350
408
  3
ACAD_SCALELIST
350
40A
  3
ACAD_SECTIONVIEWSTYLE
350
45A
  3
ACAD_TABLESTYLE
350
44C
  3
ACAD_VISUALSTYLE
350
42F
  3
ACDB_RECOMPOSE_DATA
350
455
  3
AcDbVariableDictionary
350
451
  3
APPDATA
350
450
  0
DICTIONARY
  5
459
102
{ACAD_REACTORS
330
403
102
}
330
403
100
AcDbDictionary
281
     1
  0
DICTIONARY
  5
404
102
{ACAD_REACTORS
330
403
102
}
330
403
100
AcDbDictionary
281
     1
  0
DICTIONARY
  5
42C
102
{ACAD_REACTORS
330
403
102
}
330
403
100
AcDbDictionary
281
     1
  3
Foglio 1
350
42E
  3
Model
350
42D
  0
DICTIONARY
  5
448
102
{ACAD_REACTORS
330
403
102
}
330
403
100
AcDbDictionary
281
     1
  3
ByBlock
350
44A
  3
ByLayer
350
449
  3
Global
350
44B
  0
DICTIONARY
  5
44E
102
{ACAD_REACTORS
330
403
102
}
330
403
100
AcDbDictionary
281
     1
  3
Standard
350
44F
  0
DICTIONARY
  5
405
102
{ACAD_REACTORS
330
403
102
}
330
403
100
AcDbDictionary
281
     1
  3
STANDARD
350
406
  0
DICTIONARY
  5
407
102
{ACAD_REACTORS
330
403
102
}
330
403
100
AcDbDictionary
281
     1
  0
ACDBDICTIONARYWDFLT
  5
408
102
{ACAD_REACTORS
330
403
102
}
330
403
100
AcDbDictionary
281
     1
  3
Normal
350
409
100
AcDbDictionaryWithDefault
340
409
  0
DICTIONARY
  5
40A
102
{ACAD_REACTORS
330
403
102
}
330
403
100
AcDbDictionary
281
     1
  3
A0
350
40B
  3
A1
350
40C
  3
A2
350
40D
  3
A3
350
40E
  3
A4
350
40F
  3
A5
350
410
  3
A6
350
411
  3
A7
350
412
  3
A8
350
413
  3
A9
350
414
  3
B0
350
415
  3
B1
350
416
  3
B2
350
417
  3
B3
350
418
  3
B4
350
419
  3
B5
350
41A
  3
B6
350
41B
  3
B7
350
41C
  3
B8
350
41D
  3
B9
350
41E
  3
C0
350
41F
  3
C1
350
420
  3
C2
350
421
  3
C3
350
422
  3
C4
350
423
  3
C5
350
424
  3
C6
350
425
  3
C7
350
426
  3
C8
350
427
  3
C9
350
428
  3
D0
350
429
  3
D1
350
42A
  3
D2
350
42B
  0
DICTIONARY
  5
45A
102
{ACAD_REACTORS
330
403
102
}
330
403
100
AcDbDictionary
281
     1
  0
DICTIONARY
  5
44C
102
{ACAD_REACTORS
330
403
102
}
330
403
100
AcDbDictionary
281
     1
  3
Standard
350
44D
  0
DICTIONARY
  5
42F
102
{ACAD_REACTORS
330
403
102
}
330
403
100
AcDbDictionary
281
     1
  3
2dWireframe
350
434
  3
Basic
350
437
  3
Brighten
350
43B
  3
ColorChange
350
43F
  3
Conceptual
350
439
  3
Dim
350
43A
  3
EdgeColorOff
350
442
  3
Facepattern
350
43E
  3
Flat
350
430
  3
FlatWithEdges
350
431
  3
Gouraud
350
432
  3
GouraudWithEdges
350
433
  3
Hidden
350
436
  3
JitterOff
350
440
  3
Linepattern
350
43D
  3
OverhangOff
350
441
  3
Realistic
350
438
  3
Shaded
350
447
  3
Shaded with edges
350
446
  3
Shades of Gray
350
443
  3
Sketchy
350
444
  3
Thicken
350
43C
  3
Wireframe
350
435
  3
X-Ray
350
445
  0
XRECORD
  5
455
102
{ACAD_REACTORS
330
403
102
}
330
403
100
AcDbXrecord
280
     1
 90
        1
330
44D
  0
DICTIONARY
  5
451
102
{ACAD_REACTORS
330
403
102
}
330
403
100
AcDbDictionary
281
     1
  3
CANNOSCALE
350
452
  3
CMLEADERSTYLE
350
457
  3
CTABLESTYLE
350
456
  3
MSLTSCALE
350
458
  0
DICTIONARY
  5
450
102
{ACAD_REACTORS
330
403
102
}
330
403
100
AcDbDictionary
281
     1
  0
LAYOUT
  5
42E
102
{ACAD_REACTORS
330
42C
102
}
330
42C
100
AcDbPlotSettings
  1

  2
none_device
  4
ISO_A3_(420.00_x_297.00_MM)
  6

 40
7.5
 41
20.0
 42
7.5
 43
20.0
 44
420.0
 45
297.0
 46
0.0
 47
0.0
 48
0.0
 49
0.0
140
0.0
141
0.0
142
1.0
143
1.155642023346303
 70
   688
 72
     1
 73
     0
 74
     1
  7

 75
     0
 76
     0
 77
     2
 78
   300
147
0.8653198653198654
148
0.0
149
0.0
100
AcDbLayout
  1
Foglio 1
 70
     1
 71
     1
 10
0.0
 20
0.0
 11
412.5
 21
277.0
 12
0.0
 22
0.0
 32
0.0
 14
0.0
 24
0.0
 34
0.0
 15
420.0
 25
297.0
 35
0.0
146
0.0
 13
0.0
 23
0.0
 33
0.0
 16
1.0
 26
0.0
 36
0.0
 17
0.0
 27
1.0
 37
0.0
 76
     0
330
1B
331
2BC
  0
LAYOUT
  5
42D
102
{ACAD_REACTORS
330
42C
102
}
330
42C
100
AcDbPlotSettings
  1

  2
none_device
  4
Letter_(8.50_x_11.00_Inches)
  6

 40
6.35
 41
6.35
 42
6.35
 43
6.35
 44
215.9
 45
279.4
 46
0.0
 47
0.0
 48
0.0
 49
0.0
140
0.0
141
0.0
142
1.0
143
52.49999999846251
 70
  1712
 72
     0
 73
     0
 74
     0
  7

 75
     0
 76
     0
 77
     2
 78
   300
147
0.0190476190481769
148
-0.0000001562100806
149
0.0
100
AcDbLayout
  1
Model
 70
     1
 71
     0
 10
0.0
 20
0.0
 11
420.0
 21
297.0
 12
0.0
 22
0.0
 32
0.0
 14
0.0
 24
0.0
 34
0.0
 15
420.0
 25
297.0
 35
0.0
146
0.0
 13
0.0
 23
0.0
 33
0.0
 16
1.0
 26
0.0
 36
0.0
 17
0.0
 27
1.0
 37
0.0
 76
     0
330
1F
331
1F4
  0
MATERIAL
  5
44A
102
{ACAD_REACTORS
330
448
102
}
330
448
100
AcDbMaterial
  1
ByBlock
 72
     1
 94
      127
  0
MATERIAL
  5
449
102
{ACAD_REACTORS
330
448
102
}
330
448
100
AcDbMaterial
  1
ByLayer
 72
     1
 94
      127
  0
MATERIAL
  5
44B
102
{ACAD_REACTORS
330
448
102
}
330
448
100
AcDbMaterial
  1
Global
 72
     1
 94
      127
  0
MLEADERSTYLE
  5
44F
102
{ACAD_REACTORS
330
44E
102
}
330
44E
100
AcDbMLeaderStyle
179
     2
170
     2
171
     1
172
     0
 90
        2
 40
0.0
 41
0.0
173
     1
 91
-1056964608
340
14
 92
       -2
290
     1
 42
2.0
291
     1
 43
8.0
  3
Standard
341
0
 44
4.0
300

342
11
174
     1
178
     1
175
     1
176
     0
 93
-1056964608
 45
4.0
292
     0
297
     0
 46
4.0
343
0
 94
-1056964608
 47
1.0
 49
1.0
140
1.0
293
     1
141
0.0
294
     1
177
     0
142
1.0
295
     0
296
     0
143
3.75
271
     0
272
     9
273
     9
298
     0
  0
MLINESTYLE
  5
406
102
{ACAD_REACTORS
330
405
102
}
330
405
100
AcDbMlineStyle
  2
STANDARD
 70
     0
  3

 62
   256
 51
90.0
 52
90.0
 71
     2
 49
0.5
 62
   256
  6
BYLAYER
 49
-0.5
 62
   256
  6
BYLAYER
  0
ACDBPLACEHOLDER
  5
409
102
{ACAD_REACTORS
330
408
102
}
330
408
  0
SCALE
  5
40B
102
{ACAD_REACTORS
330
40A
102
}
330
40A
100
AcDbScale
 70
     0
300
1:1
140
1.0
141
1.0
290
     1
  0
SCALE
  5
40C
102
{ACAD_REACTORS
330
40A
102
}
330
40A
100
AcDbScale
 70
     0
300
1:2
140
1.0
141
2.0
290
     0
  0
SCALE
  5
40D
102
{ACAD_REACTORS
330
40A
102
}
330
40A
100
AcDbScale
 70
     0
300
1:4
140
1.0
141
4.0
290
     0
  0
SCALE
  5
40E
102
{ACAD_REACTORS
330
40A
102
}
330
40A
100
AcDbScale
 70
     0
300
1:5
140
1.0
141
5.0
290
     0
  0
SCALE
  5
40F
102
{ACAD_REACTORS
330
40A
102
}
330
40A
100
AcDbScale
 70
     0
300
1:8
140
1.0
141
8.0
290
     0
  0
SCALE
  5
410
102
{ACAD_REACTORS
330
40A
102
}
330
40A
100
AcDbScale
 70
     0
300
1:10
140
1.0
141
10.0
290
     0
  0
SCALE
  5
411
102
{ACAD_REACTORS
330
40A
102
}
330
40A
100
AcDbScale
 70
     0
300
1:16
140
1.0
141
16.0
290
     0
  0
SCALE
  5
412
102
{ACAD_REACTORS
330
40A
102
}
330
40A
100
AcDbScale
 70
     0
300
1:20
140
1.0
141
20.0
290
     0
  0
SCALE
  5
413
102
{ACAD_REACTORS
330
40A
102
}
330
40A
100
AcDbScale
 70
     0
300
1:30
140
1.0
141
30.0
290
     0
  0
SCALE
  5
414
102
{ACAD_REACTORS
330
40A
102
}
330
40A
100
AcDbScale
 70
     0
300
1:40
140
1.0
141
40.0
290
     0
  0
SCALE
  5
415
102
{ACAD_REACTORS
330
40A
102
}
330
40A
100
AcDbScale
 70
     0
300
1:50
140
1.0
141
50.0
290
     0
  0
SCALE
  5
416
102
{ACAD_REACTORS
330
40A
102
}
330
40A
100
AcDbScale
 70
     0
300
1:100
140
1.0
141
100.0
290
     0
  0
SCALE
  5
417
102
{ACAD_REACTORS
330
40A
102
}
330
40A
100
AcDbScale
 70
     0
300
2:1
140
2.0
141
1.0
290
     0
  0
SCALE
  5
418
102
{ACAD_REACTORS
330
40A
102
}
330
40A
100
AcDbScale
 70
     0
300
4:1
140
4.0
141
1.0
290
     0
  0
SCALE
  5
419
102
{ACAD_REACTORS
330
40A
102
}
330
40A
100
AcDbScale
 70
     0
300
8:1
140
8.0
141
1.0
290
     0
  0
SCALE
  5
41A
102
{ACAD_REACTORS
330
40A
102
}
330
40A
100
AcDbScale
 70
     0
300
10:1
140
10.0
141
1.0
290
     0
  0
SCALE
  5
41B
102
{ACAD_REACTORS
330
40A
102
}
330
40A
100
AcDbScale
 70
     0
300
100:1
140
100.0
141
1.0
290
     0
  0
SCALE
  5
41C
102
{ACAD_REACTORS
330
40A
102
}
330
40A
100
AcDbScale
 70
     0
300
1/128" = 1'-0"
140
0.0078125
141
12.0
290
     0
  0
SCALE
  5
41D
102
{ACAD_REACTORS
330
40A
102
}
330
40A
100
AcDbScale
 70
     0
300
1/64" = 1'-0"
140
0.015625
141
12.0
290
     0
  0
SCALE
  5
41E
102
{ACAD_REACTORS
330
40A
102
}
330
40A
100
AcDbScale
 70
     0
300
1/32" = 1'-0"
140
0.03125
141
12.0
290
     0
  0
SCALE
  5
41F
102
{ACAD_REACTORS
330
40A
102
}
330
40A
100
AcDbScale
 70
     0
300
1/16" = 1'-0"
140
0.0625
141
12.0
290
     0
  0
SCALE
  5
420
102
{ACAD_REACTORS
330
40A
102
}
330
40A
100
AcDbScale
 70
     0
300
3/32" = 1'-0"
140
0.09375
141
12.0
290
     0
  0
SCALE
  5
421
102
{ACAD_REACTORS
330
40A
102
}
330
40A
100
AcDbScale
 70
     0
300
1/8" = 1'-0"
140
0.125
141
12.0
290
     0
  0
SCALE
  5
422
102
{ACAD_REACTORS
330
40A
102
}
330
40A
100
AcDbScale
 70
     0
300
3/16" = 1'-0"
140
0.1875
141
12.0
290
     0
  0
SCALE
  5
423
102
{ACAD_REACTORS
330
40A
102
}
330
40A
100
AcDbScale
 70
     0
300
1/4" = 1'-0"
140
0.25
141
12.0
290
     0
  0
SCALE
  5
424
102
{ACAD_REACTORS
330
40A
102
}
330
40A
100
AcDbScale
 70
     0
300
3/8" = 1'-0"
140
0.375
141
12.0
290
     0
  0
SCALE
  5
425
102
{ACAD_REACTORS
330
40A
102
}
330
40A
100
AcDbScale
 70
     0
300
1/2" = 1'-0"
140
0.5
141
12.0
290
     0
  0
SCALE
  5
426
102
{ACAD_REACTORS
330
40A
102
}
330
40A
100
AcDbScale
 70
     0
300
3/4" = 1'-0"
140
0.75
141
12.0
290
     0
  0
SCALE
  5
427
102
{ACAD_REACTORS
330
40A
102
}
330
40A
100
AcDbScale
 70
     0
300
1" = 1'-0"
140
1.0
141
12.0
290
     0
  0
SCALE
  5
428
102
{ACAD_REACTORS
330
40A
102
}
330
40A
100
AcDbScale
 70
     0
300
1-1/2" = 1'-0"
140
1.5
141
12.0
290
     0
  0
SCALE
  5
429
102
{ACAD_REACTORS
330
40A
102
}
330
40A
100
AcDbScale
 70
     0
300
3" = 1'-0"
140
3.0
141
12.0
290
     0
  0
SCALE
  5
42A
102
{ACAD_REACTORS
330
40A
102
}
330
40A
100
AcDbScale
 70
     0
300
6" = 1'-0"
140
6.0
141
12.0
290
     0
  0
SCALE
  5
42B
102
{ACAD_REACTORS
330
40A
102
}
330
40A
100
AcDbScale
 70
     0
300
1'-0" = 1'-0"
140
12.0
141
12.0
290
     0
  0
TABLESTYLE
  5
44D
102
{ACAD_REACTORS
330
44C
102
}
102
{ACAD_XDICTIONARY
360
453
102
}
330
44C
100
AcDbTableStyle
  3
Standard
 70
     0
 71
     0
 40
0.06
 41
0.06
280
     0
281
     0
  7
STANDARD
140
4.5
170
     2
 62
     0
 63
   257
283
     0
 90
        4
 91
        0
  1

274
    -2
284
     1
 64
     0
275
    -2
285
     1
 65
     0
276
    -2
286
     1
 66
     0
277
    -2
287
     1
 67
     0
278
    -2
288
     1
 68
     0
279
    -2
289
     1
 69
     0
  7
STANDARD
140
6.0
170
     5
 62
     0
 63
   257
283
     0
 90
        4
 91
        0
  1

274
    -2
284
     1
 64
     0
275
    -2
285
     1
 65
     0
276
    -2
286
     1
 66
     0
277
    -2
287
     1
 67
     0
278
    -2
288
     1
 68
     0
279
    -2
289
     1
 69
     0
  7
STANDARD
140
4.5
170
     5
 62
     0
 63
   257
283
     0
 90
        4
 91
        0
  1

274
    -2
284
     1
 64
     0
275
    -2
285
     1
 65
     0
276
    -2
286
     1
 66
     0
277
    -2
287
     1
 67
     0
278
    -2
288
     1
 68
     0
279
    -2
289
     1
 69
     0
  0
VISUALSTYLE
  5
434
102
{ACAD_REACTORS
330
42F
102
}
330
42F
100
AcDbVisualStyle
  2
2dWireframe
 70
     4
177
     3
291
     0
 70
    58
 90
        0
176
     1
 90
        2
176
     1
 90
        0
176
     1
 90
        0
176
     1
 40
0.6
176
     1
 40
30.0
176
     1
 62
     7
420
 16777215
176
     1
 90
        1
176
     1
 90
        4
176
     1
 62
     7
176
     1
 62
   257
176
     1
 90
        1
176
     1
 90
        1
176
     1
 40
1.0
176
     1
 90
        0
176
     1
 62
   257
176
     1
 40
1.0
176
     1
 90
        1
176
     1
 90
        6
176
     1
 90
        2
176
     1
 62
     7
176
     1
 90
        5
176
     1
 90
        0
176
     1
 90
        0
176
     1
290
     0
176
     1
 90
        1
176
     1
 40
0.0
176
     1
 90
        0
176
     1
290
     1
176
     1
290
     1
176
     1
290
     0
176
     1
290
     0
176
     1
290
     0
176
     1
290
     0
176
     1
290
     0
176
     1
290
     0
176
     1
290
     0
176
     1
 90
       50
176
     1
 40
0.0
176
     1
 40
1.0
176
     1
 90
        0
176
     1
 62
    18
420
        0
176
     1
 90
       50
176
     1
 90
        3
176
     1
 62
     5
420
      255
176
     1
290
     0
176
     1
 90
       50
176
     1
 90
       50
176
     1
 90
       50
176
     1
290
     0
176
     1
 90
       50
176
     1
 62
   256
176
     0
 40
1.0
176
     0
 90
        2
176
     1
  1
strokes_ogs.tif
176
     1
290
     0
176
     1
 40
1.0
176
     1
 40
1.0
176
     1
  0
VISUALSTYLE
  5
437
102
{ACAD_REACTORS
330
42F
102
}
330
42F
100
AcDbVisualStyle
  2
Basic
 70
     7
177
     3
291
     1
 70
    58
 90
        1
176
     1
 90
        0
176
     1
 90
        1
176
     1
 90
        0
176
     1
 40
0.6
176
     1
 40
30.0
176
     1
 62
     7
420
 16777215
176
     1
 90
        0
176
     1
 90
        4
176
     1
 62
     7
176
     1
 62
   257
176
     1
 90
        1
176
     1
 90
        1
176
     1
 40
1.0
176
     1
 90
        8
176
     1
 62
     7
176
     1
 40
1.0
176
     1
 90
        1
176
     1
 90
        6
176
     1
 90
        2
176
     1
 62
     7
176
     1
 90
        5
176
     1
 90
        0
176
     1
 90
        0
176
     1
290
     0
176
     1
 90
        1
176
     1
 40
0.0
176
     1
 90
        0
176
     1
290
     0
176
     1
290
     1
176
     1
290
     1
176
     1
290
     0
176
     1
290
     0
176
     1
290
     0
176
     1
290
     0
176
     1
290
     0
176
     1
290
     0
176
     1
 90
       50
176
     1
 40
0.0
176
     1
 40
1.0
176
     1
 90
        0
176
     1
 62
    18
420
        0
176
     1
 90
       50
176
     1
 90
        3
176
     1
 62
     5
420
      255
176
     1
290
     0
176
     1
 90
       50
176
     1
 90
       50
176
     1
 90
       50
176
     1
290
     0
176
     1
 90
       50
176
     1
 62
   256
176
     0
 40
1.0
176
     0
 90
        2
176
     1
  1
strokes_ogs.tif
176
     1
290
     0
176
     1
 40
1.0
176
     1
 40
1.0
176
     1
  0
VISUALSTYLE
  5
43B
102
{ACAD_REACTORS
330
42F
102
}
330
42F
100
AcDbVisualStyle
  2
Brighten
 70
    12
177
     3
291
     1
 70
    58
 90
        2
176
     1
 90
        2
176
     1
 90
        0
176
     1
 90
        0
176
     1
 40
0.6
176
     1
 40
30.0
176
     1
 62
     7
420
 16777215
176
     1
 90
        1
176
     1
 90
        4
176
     1
 62
     7
176
     1
 62
   257
176
     1
 90
        1
176
     1
 90
        1
176
     1
 40
1.0
176
     1
 90
        8
176
     1
 62
     7
176
     1
 40
1.0
176
     1
 90
        1
176
     1
 90
        6
176
     1
 90
        2
176
     1
 62
     7
176
     1
 90
        5
176
     1
 90
        0
176
     1
 90
        0
176
     1
290
     0
176
     1
 90
        1
176
     1
 40
50.0
176
     1
 90
        0
176
     1
290
     0
176
     1
290
     1
176
     1
290
     1
176
     1
290
     0
176
     1
290
     0
176
     1
290
     0
176
     1
290
     0
176
     1
290
     0
176
     1
290
     0
176
     1
 90
       50
176
     1
 40
0.0
176
     1
 40
1.0
176
     1
 90
        0
176
     1
 62
    18
420
        0
176
     1
 90
       50
176
     1
 90
        3
176
     1
 62
     5
420
      255
176
     1
290
     0
176
     1
 90
       50
176
     1
 90
       50
176
     1
 90
       50
176
     1
290
     0
176
     1
 90
       50
176
     1
 62
   256
176
     0
 40
1.0
176
     0
 90
        2
176
     1
  1
strokes_ogs.tif
176
     1
290
     0
176
     1
 40
1.0
176
     1
 40
1.0
176
     1
  0
VISUALSTYLE
  5
43F
102
{ACAD_REACTORS
330
42F
102
}
330
42F
100
AcDbVisualStyle
  2
ColorChange
 70
    16
177
     3
291
     1
 70
    58
 90
        2
176
     1
 90
        2
176
     1
 90
        3
176
     1
 90
        0
176
     1
 40
0.6
176
     1
 40
30.0
176
     1
 62
     8
420
  8421504
176
     1
 90
        1
176
     1
 90
        4
176
     1
 62
     7
176
     1
 62
   257
176
     1
 90
        1
176
     1
 90
        1
176
     1
 40
1.0
176
     1
 90
        8
176
     1
 62
     8
420
  8421504
176
     1
 40
1.0
176
     1
 90
        1
176
     1
 90
        6
176
     1
 90
        2
176
     1
 62
     7
176
     1
 90
        5
176
     1
 90
        0
176
     1
 90
        0
176
     1
290
     0
176
     1
 90
        1
176
     1
 40
0.0
176
     1
 90
        0
176
     1
290
     0
176
     1
290
     1
176
     1
290
     1
176
     1
290
     0
176
     1
290
     0
176
     1
290
     0
176
     1
290
     0
176
     1
290
     0
176
     1
290
     0
176
     1
 90
       50
176
     1
 40
0.0
176
     1
 40
1.0
176
     1
 90
        0
176
     1
 62
    18
420
        0
176
     1
 90
       50
176
     1
 90
        3
176
     1
 62
     5
420
      255
176
     1
290
     0
176
     1
 90
       50
176
     1
 90
       50
176
     1
 90
       50
176
     1
290
     0
176
     1
 90
       50
176
     1
 62
   256
176
     0
 40
1.0
176
     0
 90
        2
176
     1
  1
strokes_ogs.tif
176
     1
290
     0
176
     1
 40
1.0
176
     1
 40
1.0
176
     1
  0
VISUALSTYLE
  5
439
102
{ACAD_REACTORS
330
42F
102
}
330
42F
100
AcDbVisualStyle
  2
Conceptual
 70
     9
177
     3
291
     0
 70
    58
 90
        3
176
     1
 90
        2
176
     1
 90
        0
176
     1
 90
        0
176
     1
 40
0.6
176
     1
 40
30.0
176
     1
 62
     7
420
 16777215
176
     1
 90
        2
176
     1
 90
        2
176
     1
 62
     7
176
     1
 62
   257
176
     1
 90
        1
176
     1
 90
        1
176
     1
 40
179.0
176
     1
 90
        8
176
     1
 62
     7
176
     1
 40
1.0
176
     1
 90
        1
176
     1
 90
        6
176
     1
 90
        2
176
     1
 62
     7
176
     1
 90
        3
176
     1
 90
        0
176
     1
 90
        0
176
     1
290
     0
176
     1
 90
        1
176
     1
 40
0.0
176
     1
 90
        0
176
     1
290
     0
176
     1
290
     1
176
     1
290
     1
176
     1
290
     0
176
     1
290
     0
176
     1
290
     0
176
     1
290
     0
176
     1
290
     0
176
     1
290
     0
176
     1
 90
       50
176
     1
 40
0.0
176
     1
 40
1.0
176
     1
 90
        0
176
     1
 62
    18
420
        0
176
     1
 90
       50
176
     1
 90
        3
176
     1
 62
     5
420
      255
176
     1
290
     0
176
     1
 90
       50
176
     1
 90
       50
176
     1
 90
       50
176
     1
290
     0
176
     1
 90
       50
176
     1
 62
   256
176
     0
 40
1.0
176
     0
 90
        2
176
     1
  1
strokes_ogs.tif
176
     1
290
     0
176
     1
 40
1.0
176
     1
 40
1.0
176
     1
  0
VISUALSTYLE
  5
43A
102
{ACAD_REACTORS
330
42F
102
}
330
42F
100
AcDbVisualStyle
  2
Dim
 70
    11
177
     3
291
     1
 70
    58
 90
        2
176
     1
 90
        2
176
     1
 90
        0
176
     1
 90
        0
176
     1
 40
0.6
176
     1
 40
30.0
176
     1
 62
     7
420
 16777215
176
     1
 90
        1
176
     1
 90
        4
176
     1
 62
     7
176
     1
 62
   257
176
     1
 90
        1
176
     1
 90
        1
176
     1
 40
1.0
176
     1
 90
        8
176
     1
 62
     7
176
     1
 40
1.0
176
     1
 90
        1
176
     1
 90
        6
176
     1
 90
        2
176
     1
 62
     7
176
     1
 90
        5
176
     1
 90
        0
176
     1
 90
        0
176
     1
290
     0
176
     1
 90
        1
176
     1
 40
-50.0
176
     1
 90
        0
176
     1
290
     0
176
     1
290
     1
176
     1
290
     1
176
     1
290
     0
176
     1
290
     0
176
     1
290
     0
176
     1
290
     0
176
     1
290
     0
176
     1
290
     0
176
     1
 90
       50
176
     1
 40
0.0
176
     1
 40
1.0
176
     1
 90
        0
176
     1
 62
    18
420
        0
176
     1
 90
       50
176
     1
 90
        3
176
     1
 62
     5
420
      255
176
     1
290
     0
176
     1
 90
       50
176
     1
 90
       50
176
     1
 90
       50
176
     1
290
     0
176
     1
 90
       50
176
     1
 62
   256
176
     0
 40
1.0
176
     0
 90
        2
176
     1
  1
strokes_ogs.tif
176
     1
290
     0
176
     1
 40
1.0
176
     1
 40
1.0
176
     1
  0
VISUALSTYLE
  5
442
102
{ACAD_REACTORS
330
42F
102
}
330
42F
100
AcDbVisualStyle
  2
EdgeColorOff
 70
    22
177
     3
291
     1
 70
    58
 90
        2
176
     0
 90
        2
176
     0
 90
        0
176
     0
 90
        0
176
     0
 40
0.6
176
     0
 40
30.0
176
     0
 62
     7
420
 16777215
176
     0
 90
        1
176
     0
 90
        4
176
     0
 62
     7
176
     0
 62
   257
176
     0
 90
        1
176
     0
 90
        1
176
     0
 40
1.0
176
     0
 90
        8
176
     2
 62
     7
176
     0
 40
1.0
176
     0
 90
        1
176
     0
 90
        6
176
     0
 90
        2
176
     0
 62
     7
176
     0
 90
        5
176
     0
 90
        0
176
     0
 90
        0
176
     0
290
     0
176
     0
 90
        1
176
     0
 40
0.0
176
     0
 90
        0
176
     0
290
     0
176
     0
290
     1
176
     0
290
     1
176
     0
290
     0
176
     0
290
     0
176
     0
290
     0
176
     0
290
     0
176
     0
290
     0
176
     0
290
     0
176
     0
 90
       50
176
     0
 40
0.0
176
     0
 40
1.0
176
     0
 90
        0
176
     0
 62
    18
420
        0
176
     0
 90
       50
176
     0
 90
        3
176
     0
 62
     5
420
      255
176
     0
290
     0
176
     0
 90
       50
176
     0
 90
       50
176
     0
 90
       50
176
     0
290
     0
176
     0
 90
       50
176
     0
 62
   256
176
     0
 40
1.0
176
     0
 90
        2
176
     0
  1
strokes_ogs.tif
176
     0
290
     0
176
     0
 40
1.0
176
     0
 40
1.0
176
     0
  0
VISUALSTYLE
  5
43E
102
{ACAD_REACTORS
330
42F
102
}
330
42F
100
AcDbVisualStyle
  2
Facepattern
 70
    15
177
     3
291
     1
 70
    58
 90
        2
176
     1
 90
        2
176
     1
 90
        0
176
     1
 90
        0
176
     1
 40
0.6
176
     1
 40
30.0
176
     1
 62
     7
420
 16777215
176
     1
 90
        1
176
     1
 90
        4
176
     1
 62
     7
176
     1
 62
   257
176
     1
 90
        1
176
     1
 90
        1
176
     1
 40
1.0
176
     1
 90
        8
176
     1
 62
     7
176
     1
 40
1.0
176
     1
 90
        1
176
     1
 90
        6
176
     1
 90
        2
176
     1
 62
     7
176
     1
 90
        5
176
     1
 90
        0
176
     1
 90
        0
176
     1
290
     0
176
     1
 90
        1
176
     1
 40
0.0
176
     1
 90
        0
176
     1
290
     0
176
     1
290
     1
176
     1
290
     1
176
     1
290
     0
176
     1
290
     0
176
     1
290
     0
176
     1
290
     0
176
     1
290
     0
176
     1
290
     0
176
     1
 90
       50
176
     1
 40
0.0
176
     1
 40
1.0
176
     1
 90
        0
176
     1
 62
    18
420
        0
176
     1
 90
       50
176
     1
 90
        3
176
     1
 62
     5
420
      255
176
     1
290
     0
176
     1
 90
       50
176
     1
 90
       50
176
     1
 90
       50
176
     1
290
     0
176
     1
 90
       50
176
     1
 62
   256
176
     0
 40
1.0
176
     0
 90
        2
176
     1
  1
strokes_ogs.tif
176
     1
290
     0
176
     1
 40
1.0
176
     1
 40
1.0
176
     1
  0
VISUALSTYLE
  5
430
102
{ACAD_REACTORS
330
42F
102
}
330
42F
100
AcDbVisualStyle
  2
Flat
 70
     0
177
     3
291
     1
 70
    58
 90
        2
176
     1
 90
        1
176
     1
 90
        1
176
     1
 90
        2
176
     1
 40
0.6
176
     1
 40
30.0
176
     1
 62
     7
420
 16777215
176
     1
 90
        0
176
     1
 90
        0
176
     1
 62
     7
176
     1
 62
   257
176
     1
 90
        1
176
     1
 90
        1
176
     1
 40
1.0
176
     1
 90
        8
176
     1
 62
     7
176
     1
 40
1.0
176
     1
 90
        1
176
     1
 90
        6
176
     1
 90
        2
176
     1
 62
     7
176
     1
 90
        5
176
     1
 90
        0
176
     1
 90
        0
176
     1
290
     0
176
     1
 90
       13
176
     1
 40
0.0
176
     1
 90
        0
176
     1
290
     0
176
     1
290
     1
176
     1
290
     1
176
     1
290
     0
176
     1
290
     0
176
     1
290
     0
176
     1
290
     0
176
     1
290
     0
176
     1
290
     0
176
     1
 90
       50
176
     1
 40
0.0
176
     1
 40
1.0
176
     1
 90
        0
176
     1
 62
    18
420
        0
176
     1
 90
       50
176
     1
 90
        3
176
     1
 62
     5
420
      255
176
     1
290
     0
176
     1
 90
       50
176
     1
 90
       50
176
     1
 90
       50
176
     1
290
     0
176
     1
 90
       50
176
     1
 62
   256
176
     0
 40
1.0
176
     0
 90
        2
176
     1
  1
strokes_ogs.tif
176
     1
290
     0
176
     1
 40
1.0
176
     1
 40
1.0
176
     1
  0
VISUALSTYLE
  5
431
102
{ACAD_REACTORS
330
42F
102
}
330
42F
100
AcDbVisualStyle
  2
FlatWithEdges
 70
     1
177
     3
291
     1
 70
    58
 90
        2
176
     1
 90
        1
176
     1
 90
        1
176
     1
 90
        2
176
     1
 40
0.6
176
     1
 40
30.0
176
     1
 62
     7
420
 16777215
176
     1
 90
        1
176
     1
 90
        0
176
     1
 62
     7
176
     1
 62
   257
176
     1
 90
        1
176
     1
 90
        1
176
     1
 40
1.0
176
     1
 90
        0
176
     1
 62
   257
176
     1
 40
1.0
176
     1
 90
        1
176
     1
 90
        6
176
     1
 90
        2
176
     1
 62
     7
176
     1
 90
        5
176
     1
 90
        0
176
     1
 90
        0
176
     1
290
     0
176
     1
 90
       13
176
     1
 40
0.0
176
     1
 90
        0
176
     1
290
     0
176
     1
290
     1
176
     1
290
     1
176
     1
290
     0
176
     1
290
     0
176
     1
290
     0
176
     1
290
     0
176
     1
290
     0
176
     1
290
     0
176
     1
 90
       50
176
     1
 40
0.0
176
     1
 40
1.0
176
     1
 90
        0
176
     1
 62
    18
420
        0
176
     1
 90
       50
176
     1
 90
        3
176
     1
 62
     5
420
      255
176
     1
290
     0
176
     1
 90
       50
176
     1
 90
       50
176
     1
 90
       50
176
     1
290
     0
176
     1
 90
       50
176
     1
 62
   256
176
     0
 40
1.0
176
     0
 90
        2
176
     1
  1
strokes_ogs.tif
176
     1
290
     0
176
     1
 40
1.0
176
     1
 40
1.0
176
     1
  0
VISUALSTYLE
  5
432
102
{ACAD_REACTORS
330
42F
102
}
330
42F
100
AcDbVisualStyle
  2
Gouraud
 70
     2
177
     3
291
     1
 70
    58
 90
        2
176
     1
 90
        2
176
     1
 90
        1
176
     1
 90
        2
176
     1
 40
0.6
176
     1
 40
30.0
176
     1
 62
     7
420
 16777215
176
     1
 90
        0
176
     1
 90
        0
176
     1
 62
     7
176
     1
 62
   257
176
     1
 90
        1
176
     1
 90
        1
176
     1
 40
1.0
176
     1
 90
        0
176
     1
 62
     7
176
     1
 40
1.0
176
     1
 90
        1
176
     1
 90
        6
176
     1
 90
        2
176
     1
 62
     7
176
     1
 90
        5
176
     1
 90
        0
176
     1
 90
        0
176
     1
290
     0
176
     1
 90
       13
176
     1
 40
0.0
176
     1
 90
        0
176
     1
290
     0
176
     1
290
     1
176
     1
290
     1
176
     1
290
     0
176
     1
290
     0
176
     1
290
     0
176
     1
290
     0
176
     1
290
     0
176
     1
290
     0
176
     1
 90
       50
176
     1
 40
0.0
176
     1
 40
1.0
176
     1
 90
        0
176
     1
 62
    18
420
        0
176
     1
 90
       50
176
     1
 90
        3
176
     1
 62
     5
420
      255
176
     1
290
     0
176
     1
 90
       50
176
     1
 90
       50
176
     1
 90
       50
176
     1
290
     0
176
     1
 90
       50
176
     1
 62
   256
176
     0
 40
1.0
176
     0
 90
        2
176
     1
  1
strokes_ogs.tif
176
     1
290
     0
176
     1
 40
1.0
176
     1
 40
1.0
176
     1
  0
VISUALSTYLE
  5
433
102
{ACAD_REACTORS
330
42F
102
}
330
42F
100
AcDbVisualStyle
  2
GouraudWithEdges
 70
     3
177
     3
291
     1
 70
    58
 90
        2
176
     1
 90
        2
176
     1
 90
        1
176
     1
 90
        2
176
     1
 40
0.6
176
     1
 40
30.0
176
     1
 62
     7
420
 16777215
176
     1
 90
        1
176
     1
 90
        0
176
     1
 62
     7
176
     1
 62
   257
176
     1
 90
        1
176
     1
 90
        1
176
     1
 40
1.0
176
     1
 90
        0
176
     1
 62
   257
176
     1
 40
1.0
176
     1
 90
        1
176
     1
 90
        6
176
     1
 90
        2
176
     1
 62
     7
176
     1
 90
        5
176
     1
 90
        0
176
     1
 90
        0
176
     1
290
     0
176
     1
 90
       13
176
     1
 40
0.0
176
     1
 90
        0
176
     1
290
     0
176
     1
290
     1
176
     1
290
     1
176
     1
290
     0
176
     1
290
     0
176
     1
290
     0
176
     1
290
     0
176
     1
290
     0
176
     1
290
     0
176
     1
 90
       50
176
     1
 40
0.0
176
     1
 40
1.0
176
     1
 90
        0
176
     1
 62
    18
420
        0
176
     1
 90
       50
176
     1
 90
        3
176
     1
 62
     5
420
      255
176
     1
290
     0
176
     1
 90
       50
176
     1
 90
       50
176
     1
 90
       50
176
     1
290
     0
176
     1
 90
       50
176
     1
 62
   256
176
     0
 40
1.0
176
     0
 90
        2
176
     1
  1
strokes_ogs.tif
176
     1
290
     0
176
     1
 40
1.0
176
     1
 40
1.0
176
     1
  0
VISUALSTYLE
  5
436
102
{ACAD_REACTORS
330
42F
102
}
330
42F
100
AcDbVisualStyle
  2
Hidden
 70
     6
177
     3
291
     0
 70
    58
 90
        1
176
     1
 90
        2
176
     1
 90
        2
176
     1
 90
        0
176
     1
 40
0.6
176
     1
 40
30.0
176
     1
 62
     7
420
 16777215
176
     1
 90
        2
176
     1
 90
        2
176
     1
 62
     7
176
     1
 62
   257
176
     1
 90
        2
176
     1
 90
        1
176
     1
 40
40.0
176
     1
 90
        0
176
     1
 62
   257
176
     1
 40
1.0
176
     1
 90
        1
176
     1
 90
        6
176
     1
 90
        2
176
     1
 62
     7
176
     1
 90
        3
176
     1
 90
        0
176
     1
 90
        0
176
     1
290
     0
176
     1
 90
        1
176
     1
 40
0.0
176
     1
 90
        0
176
     1
290
     0
176
     1
290
     1
176
     1
290
     1
176
     1
290
     0
176
     1
290
     0
176
     1
290
     0
176
     1
290
     0
176
     1
290
     0
176
     1
290
     0
176
     1
 90
       50
176
     1
 40
0.0
176
     1
 40
1.0
176
     1
 90
        0
176
     1
 62
    18
420
        0
176
     1
 90
       50
176
     1
 90
        3
176
     1
 62
     5
420
      255
176
     1
290
     0
176
     1
 90
       50
176
     1
 90
       50
176
     1
 90
       50
176
     1
290
     0
176
     1
 90
       50
176
     1
 62
   256
176
     0
 40
1.0
176
     0
 90
        2
176
     1
  1
strokes_ogs.tif
176
     1
290
     0
176
     1
 40
1.0
176
     1
 40
1.0
176
     1
  0
VISUALSTYLE
  5
440
102
{ACAD_REACTORS
330
42F
102
}
330
42F
100
AcDbVisualStyle
  2
JitterOff
 70
    20
177
     3
291
     1
 70
    58
 90
        2
176
     0
 90
        2
176
     0
 90
        0
176
     0
 90
        0
176
     0
 40
0.6
176
     0
 40
30.0
176
     0
 62
     7
420
 16777215
176
     0
 90
        1
176
     0
 90
        4
176
     0
 62
     7
176
     0
 62
   257
176
     0
 90
        1
176
     0
 90
        1
176
     0
 40
1.0
176
     0
 90
       10
176
     2
 62
     7
176
     0
 40
1.0
176
     0
 90
        1
176
     0
 90
        6
176
     0
 90
        2
176
     0
 62
     7
176
     0
 90
        5
176
     0
 90
        0
176
     0
 90
        0
176
     0
290
     0
176
     0
 90
        1
176
     0
 40
0.0
176
     0
 90
        0
176
     0
290
     0
176
     0
290
     1
176
     0
290
     1
176
     0
290
     0
176
     0
290
     0
176
     0
290
     0
176
     0
290
     0
176
     0
290
     0
176
     0
290
     0
176
     0
 90
       50
176
     0
 40
0.0
176
     0
 40
1.0
176
     0
 90
        0
176
     0
 62
    18
420
        0
176
     0
 90
       50
176
     0
 90
        3
176
     0
 62
     5
420
      255
176
     0
290
     0
176
     0
 90
       50
176
     0
 90
       50
176
     0
 90
       50
176
     0
290
     0
176
     0
 90
       50
176
     0
 62
   256
176
     0
 40
1.0
176
     0
 90
        2
176
     0
  1
strokes_ogs.tif
176
     0
290
     0
176
     0
 40
1.0
176
     0
 40
1.0
176
     0
  0
VISUALSTYLE
  5
43D
102
{ACAD_REACTORS
330
42F
102
}
330
42F
100
AcDbVisualStyle
  2
Linepattern
 70
    14
177
     3
291
     1
 70
    58
 90
        2
176
     1
 90
        2
176
     1
 90
        0
176
     1
 90
        0
176
     1
 40
0.6
176
     1
 40
30.0
176
     1
 62
     7
420
 16777215
176
     1
 90
        1
176
     1
 90
        4
176
     1
 62
     7
176
     1
 62
   257
176
     1
 90
        7
176
     1
 90
        7
176
     1
 40
1.0
176
     1
 90
        8
176
     1
 62
     7
176
     1
 40
1.0
176
     1
 90
        1
176
     1
 90
        6
176
     1
 90
        2
176
     1
 62
     7
176
     1
 90
        5
176
     1
 90
        0
176
     1
 90
        0
176
     1
290
     0
176
     1
 90
        1
176
     1
 40
0.0
176
     1
 90
        0
176
     1
290
     0
176
     1
290
     1
176
     1
290
     1
176
     1
290
     0
176
     1
290
     0
176
     1
290
     0
176
     1
290
     0
176
     1
290
     0
176
     1
290
     0
176
     1
 90
       50
176
     1
 40
0.0
176
     1
 40
1.0
176
     1
 90
        0
176
     1
 62
    18
420
        0
176
     1
 90
       50
176
     1
 90
        3
176
     1
 62
     5
420
      255
176
     1
290
     0
176
     1
 90
       50
176
     1
 90
       50
176
     1
 90
       50
176
     1
290
     0
176
     1
 90
       50
176
     1
 62
   256
176
     0
 40
1.0
176
     0
 90
        2
176
     1
  1
strokes_ogs.tif
176
     1
290
     0
176
     1
 40
1.0
176
     1
 40
1.0
176
     1
  0
VISUALSTYLE
  5
441
102
{ACAD_REACTORS
330
42F
102
}
330
42F
100
AcDbVisualStyle
  2
OverhangOff
 70
    21
177
     3
291
     1
 70
    58
 90
        2
176
     0
 90
        2
176
     0
 90
        0
176
     0
 90
        0
176
     0
 40
0.6
176
     0
 40
30.0
176
     0
 62
     7
420
 16777215
176
     0
 90
        1
176
     0
 90
        4
176
     0
 62
     7
176
     0
 62
   257
176
     0
 90
        1
176
     0
 90
        1
176
     0
 40
1.0
176
     0
 90
        9
176
     2
 62
     7
176
     0
 40
1.0
176
     0
 90
        1
176
     0
 90
        6
176
     0
 90
        2
176
     0
 62
     7
176
     0
 90
        5
176
     0
 90
        0
176
     0
 90
        0
176
     0
290
     0
176
     0
 90
        1
176
     0
 40
0.0
176
     0
 90
        0
176
     0
290
     0
176
     0
290
     1
176
     0
290
     1
176
     0
290
     0
176
     0
290
     0
176
     0
290
     0
176
     0
290
     0
176
     0
290
     0
176
     0
290
     0
176
     0
 90
       50
176
     0
 40
0.0
176
     0
 40
1.0
176
     0
 90
        0
176
     0
 62
    18
420
        0
176
     0
 90
       50
176
     0
 90
        3
176
     0
 62
     5
420
      255
176
     0
290
     0
176
     0
 90
       50
176
     0
 90
       50
176
     0
 90
       50
176
     0
290
     0
176
     0
 90
       50
176
     0
 62
   256
176
     0
 40
1.0
176
     0
 90
        2
176
     0
  1
strokes_ogs.tif
176
     0
290
     0
176
     0
 40
1.0
176
     0
 40
1.0
176
     0
  0
VISUALSTYLE
  5
438
102
{ACAD_REACTORS
330
42F
102
}
330
42F
100
AcDbVisualStyle
  2
Realistic
 70
     8
177
     3
291
     0
 70
    58
 90
        2
176
     1
 90
        3
176
     1
 90
        0
176
     1
 90
        2
176
     1
 40
0.6
176
     1
 40
30.0
176
     1
 62
     7
420
 16777215
176
     1
 90
        0
176
     1
 90
        0
176
     1
 62
     7
176
     1
 62
   257
176
     1
 90
        1
176
     1
 90
        1
176
     1
 40
1.0
176
     1
 90
        8
176
     1
 62
   257
176
     1
 40
1.0
176
     1
 90
        1
176
     1
 90
        6
176
     1
 90
        2
176
     1
 62
     7
176
     1
 90
        3
176
     1
 90
        0
176
     1
 90
        0
176
     1
290
     0
176
     1
 90
       13
176
     1
 40
0.0
176
     1
 90
        0
176
     1
290
     0
176
     1
290
     1
176
     1
290
     1
176
     1
290
     0
176
     1
290
     0
176
     1
290
     0
176
     1
290
     0
176
     1
290
     0
176
     1
290
     0
176
     1
 90
       50
176
     1
 40
0.0
176
     1
 40
1.0
176
     1
 90
        0
176
     1
 62
    18
420
        0
176
     1
 90
       50
176
     1
 90
        3
176
     1
 62
     5
420
      255
176
     1
290
     0
176
     1
 90
       50
176
     1
 90
       50
176
     1
 90
       50
176
     1
290
     0
176
     1
 90
       50
176
     1
 62
   256
176
     0
 40
1.0
176
     0
 90
        2
176
     1
  1
strokes_ogs.tif
176
     1
290
     0
176
     1
 40
1.0
176
     1
 40
1.0
176
     1
  0
VISUALSTYLE
  5
447
102
{ACAD_REACTORS
330
42F
102
}
330
42F
100
AcDbVisualStyle
  2
Shaded
 70
    27
177
     3
291
     0
 70
    58
 90
        2
176
     1
 90
        2
176
     1
 90
        1
176
     1
 90
        2
176
     1
 40
0.6
176
     1
 40
30.0
176
     1
 62
     7
420
 16777215
176
     1
 90
        0
176
     1
 90
        4
176
     1
 62
     7
176
     1
 62
   257
176
     1
 90
        1
176
     1
 90
        1
176
     1
 40
1.0
176
     1
 90
        8
176
     1
 62
   257
176
     1
 40
1.0
176
     1
 90
        1
176
     1
 90
        6
176
     1
 90
        2
176
     1
 62
     8
420
  7895160
176
     1
 90
        3
176
     1
 90
        0
176
     1
 90
        0
176
     1
290
     0
176
     1
 90
        5
176
     1
 40
0.0
176
     1
 90
        0
176
     1
290
     0
176
     1
290
     1
176
     1
290
     1
176
     1
290
     0
176
     1
290
     0
176
     1
290
     0
176
     1
290
     0
176
     1
290
     0
176
     1
290
     0
176
     1
 90
       50
176
     1
 40
0.0
176
     1
 40
1.0
176
     1
 90
        0
176
     1
 62
    18
420
        0
176
     1
 90
       50
176
     1
 90
        3
176
     1
 62
     5
420
      255
176
     1
290
     0
176
     1
 90
       50
176
     1
 90
       50
176
     1
 90
       50
176
     1
290
     0
176
     1
 90
       50
176
     1
 62
   256
176
     0
 40
1.0
176
     0
 90
        2
176
     1
  1
strokes_ogs.tif
176
     1
290
     0
176
     1
 40
1.0
176
     1
 40
1.0
176
     1
  0
VISUALSTYLE
  5
446
102
{ACAD_REACTORS
330
42F
102
}
330
42F
100
AcDbVisualStyle
  2
Shaded with edges
 70
    26
177
     3
291
     0
 70
    58
 90
        2
176
     1
 90
        2
176
     1
 90
        1
176
     1
 90
        2
176
     1
 40
0.6
176
     1
 40
30.0
176
     1
 62
     7
420
 16777215
176
     1
 90
        1
176
     1
 90
       10
176
     1
 62
     7
176
     1
 62
   257
176
     1
 90
        2
176
     1
 90
        1
176
     1
 40
1.0
176
     1
 90
        8
176
     1
 62
   257
176
     1
 40
1.0
176
     1
 90
        1
176
     1
 90
        6
176
     1
 90
        2
176
     1
 62
     7
176
     1
 90
        3
176
     1
 90
        0
176
     1
 90
        0
176
     1
290
     0
176
     1
 90
        5
176
     1
 40
0.0
176
     1
 90
        0
176
     1
290
     0
176
     1
290
     1
176
     1
290
     1
176
     1
290
     0
176
     1
290
     0
176
     1
290
     0
176
     1
290
     0
176
     1
290
     0
176
     1
290
     0
176
     1
 90
       50
176
     1
 40
0.0
176
     1
 40
1.0
176
     1
 90
        0
176
     1
 62
    18
420
        0
176
     1
 90
       50
176
     1
 90
        3
176
     1
 62
     5
420
      255
176
     1
290
     0
176
     1
 90
       50
176
     1
 90
       50
176
     1
 90
       50
176
     1
290
     0
176
     1
 90
       50
176
     1
 62
   256
176
     0
 40
1.0
176
     0
 90
        2
176
     1
  1
strokes_ogs.tif
176
     1
290
     0
176
     1
 40
1.0
176
     1
 40
1.0
176
     1
  0
VISUALSTYLE
  5
443
102
{ACAD_REACTORS
330
42F
102
}
330
42F
100
AcDbVisualStyle
  2
Shades of Gray
 70
    23
177
     3
291
     0
 70
    58
 90
        2
176
     1
 90
        2
176
     1
 90
        3
176
     1
 90
        0
176
     1
 40
0.6
176
     1
 40
30.0
176
     1
 62
     7
420
 16777215
176
     1
 90
        2
176
     1
 90
        2
176
     1
 62
     7
176
     1
 62
     7
176
     1
 90
        1
176
     1
 90
        1
176
     1
 40
40.0
176
     1
 90
        8
176
     1
 62
     7
176
     1
 40
1.0
176
     1
 90
        1
176
     1
 90
        6
176
     1
 90
        2
176
     1
 62
     7
176
     1
 90
        3
176
     1
 90
        0
176
     1
 90
        0
176
     1
290
     0
176
     1
 90
        1
176
     1
 40
0.0
176
     1
 90
        0
176
     1
290
     0
176
     1
290
     1
176
     1
290
     1
176
     1
290
     0
176
     1
290
     0
176
     1
290
     0
176
     1
290
     0
176
     1
290
     0
176
     1
290
     0
176
     1
 90
       50
176
     1
 40
0.0
176
     1
 40
1.0
176
     1
 90
        0
176
     1
 62
    18
420
        0
176
     1
 90
       50
176
     1
 90
        3
176
     1
 62
     5
420
      255
176
     1
290
     0
176
     1
 90
       50
176
     1
 90
       50
176
     1
 90
       50
176
     1
290
     0
176
     1
 90
       50
176
     1
 62
   256
176
     0
 40
1.0
176
     0
 90
        2
176
     1
  1
strokes_ogs.tif
176
     1
290
     0
176
     1
 40
1.0
176
     1
 40
1.0
176
     1
  0
VISUALSTYLE
  5
444
102
{ACAD_REACTORS
330
42F
102
}
330
42F
100
AcDbVisualStyle
  2
Sketchy
 70
    24
177
     3
291
     0
 70
    58
 90
        1
176
     1
 90
        2
176
     1
 90
        2
176
     1
 90
        0
176
     1
 40
0.6
176
     1
 40
30.0
176
     1
 62
     7
420
 16777215
176
     1
 90
        2
176
     1
 90
        2
176
     1
 62
     7
176
     1
 62
     7
176
     1
 90
        1
176
     1
 90
        1
176
     1
 40
40.0
176
     1
 90
       11
176
     1
 62
     7
176
     1
 40
1.0
176
     1
 90
        1
176
     1
 90
        6
176
     1
 90
        2
176
     1
 62
     7
176
     1
 90
        6
176
     1
 90
        0
176
     1
 90
        0
176
     1
290
     0
176
     1
 90
        1
176
     1
 40
0.0
176
     1
 90
        0
176
     1
290
     0
176
     1
290
     1
176
     1
290
     1
176
     1
290
     0
176
     1
290
     0
176
     1
290
     0
176
     1
290
     0
176
     1
290
     0
176
     1
290
     0
176
     1
 90
       50
176
     1
 40
0.0
176
     1
 40
1.0
176
     1
 90
        0
176
     1
 62
    18
420
        0
176
     1
 90
       50
176
     1
 90
        3
176
     1
 62
     5
420
      255
176
     1
290
     0
176
     1
 90
       50
176
     1
 90
       50
176
     1
 90
       50
176
     1
290
     0
176
     1
 90
       50
176
     1
 62
   256
176
     0
 40
1.0
176
     0
 90
        2
176
     1
  1
strokes_ogs.tif
176
     1
290
     0
176
     1
 40
1.0
176
     1
 40
1.0
176
     1
  0
VISUALSTYLE
  5
43C
102
{ACAD_REACTORS
330
42F
102
}
330
42F
100
AcDbVisualStyle
  2
Thicken
 70
    13
177
     3
291
     1
 70
    58
 90
        2
176
     1
 90
        2
176
     1
 90
        0
176
     1
 90
        0
176
     1
 40
0.6
176
     1
 40
30.0
176
     1
 62
     7
420
 16777215
176
     1
 90
        1
176
     1
 90
        4
176
     1
 62
     7
176
     1
 62
   257
176
     1
 90
        1
176
     1
 90
        1
176
     1
 40
1.0
176
     1
 90
       12
176
     1
 62
     7
176
     1
 40
1.0
176
     1
 90
        1
176
     1
 90
        6
176
     1
 90
        2
176
     1
 62
     7
176
     1
 90
        5
176
     1
 90
        0
176
     1
 90
        0
176
     1
290
     0
176
     1
 90
        1
176
     1
 40
0.0
176
     1
 90
        0
176
     1
290
     0
176
     1
290
     1
176
     1
290
     1
176
     1
290
     0
176
     1
290
     0
176
     1
290
     0
176
     1
290
     0
176
     1
290
     0
176
     1
290
     0
176
     1
 90
       50
176
     1
 40
0.0
176
     1
 40
1.0
176
     1
 90
        0
176
     1
 62
    18
420
        0
176
     1
 90
       50
176
     1
 90
        3
176
     1
 62
     5
420
      255
176
     1
290
     0
176
     1
 90
       50
176
     1
 90
       50
176
     1
 90
       50
176
     1
290
     0
176
     1
 90
       50
176
     1
 62
   256
176
     0
 40
1.0
176
     0
 90
        2
176
     1
  1
strokes_ogs.tif
176
     1
290
     0
176
     1
 40
1.0
176
     1
 40
1.0
176
     1
  0
VISUALSTYLE
  5
435
102
{ACAD_REACTORS
330
42F
102
}
330
42F
100
AcDbVisualStyle
  2
Wireframe
 70
     5
177
     3
291
     0
 70
    58
 90
        0
176
     1
 90
        2
176
     1
 90
        0
176
     1
 90
        0
176
     1
 40
0.6
176
     1
 40
30.0
176
     1
 62
     7
420
 16777215
176
     1
 90
        1
176
     1
 90
        4
176
     1
 62
     7
176
     1
 62
   257
176
     1
 90
        1
176
     1
 90
        1
176
     1
 40
1.0
176
     1
 90
        0
176
     1
 62
   257
176
     1
 40
1.0
176
     1
 90
        1
176
     1
 90
        6
176
     1
 90
        2
176
     1
 62
     7
176
     1
 90
        3
176
     1
 90
        0
176
     1
 90
        0
176
     1
290
     0
176
     1
 90
        1
176
     1
 40
0.0
176
     1
 90
        0
176
     1
290
     0
176
     1
290
     1
176
     1
290
     1
176
     1
290
     0
176
     1
290
     0
176
     1
290
     0
176
     1
290
     0
176
     1
290
     0
176
     1
290
     0
176
     1
 90
       50
176
     1
 40
0.0
176
     1
 40
1.0
176
     1
 90
        0
176
     1
 62
    18
420
        0
176
     1
 90
       50
176
     1
 90
        3
176
     1
 62
     5
420
      255
176
     1
290
     0
176
     1
 90
       50
176
     1
 90
       50
176
     1
 90
       50
176
     1
290
     0
176
     1
 90
       50
176
     1
 62
   256
176
     0
 40
1.0
176
     0
 90
        2
176
     1
  1
strokes_ogs.tif
176
     1
290
     0
176
     1
 40
1.0
176
     1
 40
1.0
176
     1
  0
VISUALSTYLE
  5
445
102
{ACAD_REACTORS
330
42F
102
}
330
42F
100
AcDbVisualStyle
  2
X-Ray
 70
    25
177
     3
291
     0
 70
    58
 90
        2
176
     1
 90
        2
176
     1
 90
        1
176
     1
 90
        1
176
     1
 40
0.5
176
     1
 40
30.0
176
     1
 62
     7
420
 16777215
176
     1
 90
        1
176
     1
 90
        0
176
     1
 62
     7
176
     1
 62
   257
176
     1
 90
        1
176
     1
 90
        1
176
     1
 40
1.0
176
     1
 90
        8
176
     1
 62
     7
176
     1
 40
1.0
176
     1
 90
        1
176
     1
 90
        6
176
     1
 90
        2
176
     1
 62
     7
176
     1
 90
        3
176
     1
 90
        0
176
     1
 90
        0
176
     1
290
     0
176
     1
 90
       13
176
     1
 40
0.0
176
     1
 90
        0
176
     1
290
     0
176
     1
290
     1
176
     1
290
     1
176
     1
290
     0
176
     1
290
     0
176
     1
290
     0
176
     1
290
     0
176
     1
290
     0
176
     1
290
     0
176
     1
 90
       50
176
     1
 40
0.0
176
     1
 40
1.0
176
     1
 90
        0
176
     1
 62
    18
420
        0
176
     1
 90
       50
176
     1
 90
        3
176
     1
 62
     5
420
      255
176
     1
290
     0
176
     1
 90
       50
176
     1
 90
       50
176
     1
 90
       50
176
     1
290
     0
176
     1
 90
       50
176
     1
 62
   256
176
     0
 40
1.0
176
     0
 90
        2
176
     1
  1
strokes_ogs.tif
176
     1
290
     0
176
     1
 40
1.0
176
     1
 40
1.0
176
     1
  0
DICTIONARYVAR
  5
452
102
{ACAD_REACTORS
330
451
102
}
330
451
100
DictionaryVariables
280
     0
  1
1:1
  0
DICTIONARYVAR
  5
457
102
{ACAD_REACTORS
330
451
102
}
330
451
100
DictionaryVariables
280
     0
  1
Standard
  0
DICTIONARYVAR
  5
456
102
{ACAD_REACTORS
330
451
102
}
330
451
100
DictionaryVariables
280
     0
  1
Standard
  0
DICTIONARYVAR
  5
458
102
{ACAD_REACTORS
330
451
102
}
330
451
100
DictionaryVariables
280
     0
  1
0
  0
DICTIONARY
  5
453
330
44D
100
AcDbDictionary
280
     1
281
     1
  3
ACAD_ROUNDTRIP_2008_TABLESTYLE_CELLSTYLEMAP
360
454
  0
CELLSTYLEMAP
  5
454
102
{ACAD_REACTORS
330
453
102
}
330
453
100
AcDbCellStyleMap
 90
        3
300
CELLSTYLE
  1
TABLEFORMAT_BEGIN
 90
        5
170
     1
 91
        0
 92
    32768
 62
   257
 93
        1
300
CONTENTFORMAT
  1
CONTENTFORMAT_BEGIN
 90
        0
 91
        0
 92
        4
 93
        0
300

 40
0.0
140
1.0
 94
        5
 62
     0
340
11
144
6.0
309
CONTENTFORMAT_END
171
     1
301
MARGIN
  1
CELLMARGIN_BEGIN
 40
1.5
 40
1.5
 40
1.5
 40
1.5
 40
1.5
 40
1.5
309
CELLMARGIN_END
 94
        6
 95
        1
302
GRIDFORMAT
  1
GRIDFORMAT_BEGIN
 90
        0
 91
        1
 62
     0
 92
       -2
340
14
 93
        0
 40
0.045
309
GRIDFORMAT_END
 95
        2
302
GRIDFORMAT
  1
GRIDFORMAT_BEGIN
 90
        0
 91
        1
 62
     0
 92
       -2
340
14
 93
        0
 40
0.045
309
GRIDFORMAT_END
 95
        4
302
GRIDFORMAT
  1
GRIDFORMAT_BEGIN
 90
        0
 91
        1
 62
     0
 92
       -2
340
14
 93
        0
 40
0.045
309
GRIDFORMAT_END
 95
        8
302
GRIDFORMAT
  1
GRIDFORMAT_BEGIN
 90
        0
 91
        1
 62
     0
 92
       -2
340
14
 93
        0
 40
0.045
309
GRIDFORMAT_END
 95
       16
302
GRIDFORMAT
  1
GRIDFORMAT_BEGIN
 90
        0
 91
        1
 62
     0
 92
       -2
340
14
 93
        0
 40
0.045
309
GRIDFORMAT_END
 95
       32
302
GRIDFORMAT
  1
GRIDFORMAT_BEGIN
 90
        0
 91
        1
 62
     0
 92
       -2
340
14
 93
        0
 40
0.045
309
GRIDFORMAT_END
309
TABLEFORMAT_END
  1
CELLSTYLE_BEGIN
 90
        1
 91
        1
300
_TITLE
309
CELLSTYLE_END
300
CELLSTYLE
  1
TABLEFORMAT_BEGIN
 90
        5
170
     1
 91
        0
 92
        0
 62
   257
 93
        1
300
CONTENTFORMAT
  1
CONTENTFORMAT_BEGIN
 90
        0
 91
        0
 92
        4
 93
        0
300

 40
0.0
140
1.0
 94
        5
 62
     0
340
11
144
4.5
309
CONTENTFORMAT_END
171
     1
301
MARGIN
  1
CELLMARGIN_BEGIN
 40
1.5
 40
1.5
 40
1.5
 40
1.5
 40
1.5
 40
1.5
309
CELLMARGIN_END
 94
        6
 95
        1
302
GRIDFORMAT
  1
GRIDFORMAT_BEGIN
 90
        0
 91
        1
 62
     0
 92
       -2
340
14
 93
        0
 40
0.045
309
GRIDFORMAT_END
 95
        2
302
GRIDFORMAT
  1
GRIDFORMAT_BEGIN
 90
        0
 91
        1
 62
     0
 92
       -2
340
14
 93
        0
 40
0.045
309
GRIDFORMAT_END
 95
        4
302
GRIDFORMAT
  1
GRIDFORMAT_BEGIN
 90
        0
 91
        1
 62
     0
 92
       -2
340
14
 93
        0
 40
0.045
309
GRIDFORMAT_END
 95
        8
302
GRIDFORMAT
  1
GRIDFORMAT_BEGIN
 90
        0
 91
        1
 62
     0
 92
       -2
340
14
 93
        0
 40
0.045
309
GRIDFORMAT_END
 95
       16
302
GRIDFORMAT
  1
GRIDFORMAT_BEGIN
 90
        0
 91
        1
 62
     0
 92
       -2
340
14
 93
        0
 40
0.045
309
GRIDFORMAT_END
 95
       32
302
GRIDFORMAT
  1
GRIDFORMAT_BEGIN
 90
        0
 91
        1
 62
     0
 92
       -2
340
14
 93
        0
 40
0.045
309
GRIDFORMAT_END
309
TABLEFORMAT_END
  1
CELLSTYLE_BEGIN
 90
        2
 91
        1
300
_HEADER
309
CELLSTYLE_END
300
CELLSTYLE
  1
TABLEFORMAT_BEGIN
 90
        5
170
     1
 91
        0
 92
        0
 62
   257
 93
        1
300
CONTENTFORMAT
  1
CONTENTFORMAT_BEGIN
 90
        0
 91
        0
 92
        4
 93
        0
300

 40
0.0
140
1.0
 94
        2
 62
     0
340
11
144
4.5
309
CONTENTFORMAT_END
171
     1
301
MARGIN
  1
CELLMARGIN_BEGIN
 40
1.5
 40
1.5
 40
1.5
 40
1.5
 40
1.5
 40
1.5
309
CELLMARGIN_END
 94
        6
 95
        1
302
GRIDFORMAT
  1
GRIDFORMAT_BEGIN
 90
        0
 91
        1
 62
     0
 92
       -2
340
14
 93
        0
 40
0.045
309
GRIDFORMAT_END
 95
        2
302
GRIDFORMAT
  1
GRIDFORMAT_BEGIN
 90
        0
 91
        1
 62
     0
 92
       -2
340
14
 93
        0
 40
0.045
309
GRIDFORMAT_END
 95
        4
302
GRIDFORMAT
  1
GRIDFORMAT_BEGIN
 90
        0
 91
        1
 62
     0
 92
       -2
340
14
 93
        0
 40
0.045
309
GRIDFORMAT_END
 95
        8
302
GRIDFORMAT
  1
GRIDFORMAT_BEGIN
 90
        0
 91
        1
 62
     0
 92
       -2
340
14
 93
        0
 40
0.045
309
GRIDFORMAT_END
 95
       16
302
GRIDFORMAT
  1
GRIDFORMAT_BEGIN
 90
        0
 91
        1
 62
     0
 92
       -2
340
14
 93
        0
 40
0.045
309
GRIDFORMAT_END
 95
       32
302
GRIDFORMAT
  1
GRIDFORMAT_BEGIN
 90
        0
 91
        1
 62
     0
 92
       -2
340
14
 93
        0
 40
0.045
309
GRIDFORMAT_END
309
TABLEFORMAT_END
  1
CELLSTYLE_BEGIN
 90
        3
 91
        2
300
_DATA
309
CELLSTYLE_END
  0
ENDSEC
  0
EOF
