  0
SECTION
  2
HEADER
  9
$ACADVER
  1
AC1027
  9
$ACADMAINTVER
 70
   105
  9
$DWGCODEPAGE
  3
ANSI_1252
  9
$REQUIREDVERSIONS
160
                 0
  9
$LASTSAVEDBY
  1
andrea.zolin
  9
$INSBASE
 10
0.0
 20
0.0
 30
0.0
  9
$EXTMIN
 10
0.0
 20
0.0
 30
0.0
  9
$EXTMAX
 10
420.0
 20
297.0
 30
0.0
  9
$LIMMIN
 10
0.0
 20
0.0
  9
$LIMMAX
 10
420.0
 20
297.0
  9
$ORTHOMODE
 70
     0
  9
$REGENMODE
 70
     1
  9
$FILLMODE
 70
     1
  9
$QTEXTMODE
 70
     0
  9
$MIRRTEXT
 70
     1
  9
$LTSCALE
 40
23.1
  9
$ATTMODE
 70
     1
  9
$TEXTSIZE
 40
0.2
  9
$TRACEWID
 40
0.05
  9
$TEXTSTYLE
  7
STANDARD
  9
$CLAYER
  8
0
  9
$CELTYPE
  6
BYLAYER
  9
$CECOLOR
 62
   256
  9
$CELTSCALE
 40
1.0
  9
$DISPSILH
 70
     0
  9
$DIMSCALE
 40
1.0
  9
$DIMASZ
 40
2.5
  9
$DIMEXO
 40
0.75
  9
$DIMDLI
 40
15.96
  9
$DIMRND
 40
0.0
  9
$DIMDLE
 40
0.0
  9
$DIMEXE
 40
0.75
  9
$DIMTP
 40
0.01
  9
$DIMTM
 40
0.01
  9
$DIMTXT
 40
3.0
  9
$DIMCEN
 40
3.78
  9
$DIMTSZ
 40
0.0
  9
$DIMTOL
 70
     1
  9
$DIMLIM
 70
     0
  9
$DIMTIH
 70
     1
  9
$DIMTOH
 70
     1
  9
$DIMSE1
 70
     0
  9
$DIMSE2
 70
     0
  9
$DIMTAD
 70
     0
  9
$DIMZIN
 70
     0
  9
$DIMBLK
  1
CLOSED
  9
$DIMASO
 70
     1
  9
$DIMSHO
 70
     1
  9
$DIMPOST
  1

  9
$DIMAPOST
  1

  9
$DIMALT
 70
     0
  9
$DIMALTD
 70
     2
  9
$DIMALTF
 40
25.4
  9
$DIMLFAC
 40
1.0
  9
$DIMTOFL
 70
     0
  9
$DIMTVP
 40
0.0
  9
$DIMTIX
 70
     0
  9
$DIMSOXD
 70
     0
  9
$DIMSAH
 70
     0
  9
$DIMBLK1
  1

  9
$DIMBLK2
  1

  9
$DIMSTYLE
  2
STANDARD
  9
$DIMCLRD
 70
     0
  9
$DIMCLRE
 70
     0
  9
$DIMCLRT
 70
     0
  9
$DIMTFAC
 40
1.0
  9
$DIMGAP
 40
0.625
  9
$DIMJUST
 70
     0
  9
$DIMSD1
 70
     0
  9
$DIMSD2
 70
     0
  9
$DIMTOLJ
 70
     1
  9
$DIMTZIN
 70
     0
  9
$DIMALTZ
 70
     0
  9
$DIMALTTZ
 70
     0
  9
$DIMUPT
 70
     0
  9
$DIMDEC
 70
     4
  9
$DIMTDEC
 70
     4
  9
$DIMALTU
 70
     2
  9
$DIMALTTD
 70
     2
  9
$DIMTXSTY
  7
STANDARD
  9
$DIMAUNIT
 70
     0
  9
$DIMADEC
 70
     0
  9
$DIMALTRND
 40
0.0
  9
$DIMAZIN
 70
     0
  9
$DIMDSEP
 70
    46
  9
$DIMATFIT
 70
     3
  9
$DIMFRAC
 70
     0
  9
$DIMLDRBLK
  1

  9
$DIMLUNIT
 70
     2
  9
$DIMLWD
 70
    -2
  9
$DIMLWE
 70
    -2
  9
$DIMTMOVE
 70
     2
  9
$DIMFXL
 40
1.0
  9
$DIMFXLON
 70
     0
  9
$DIMJOGANG
 40
0.7853981633974483
  9
$DIMTFILL
 70
     0
  9
$DIMTFILLCLR
 70
     0
  9
$DIMARCSYM
 70
     0
  9
$DIMLTYPE
  6

  9
$DIMLTEX1
  6

  9
$DIMLTEX2
  6

  9
$DIMTXTDIRECTION
 70
     0
  9
$LUNITS
 70
     2
  9
$LUPREC
 70
     4
  9
$SKETCHINC
 40
0.1
  9
$FILLETRAD
 40
0.5
  9
$AUNITS
 70
     0
  9
$AUPREC
 70
     0
  9
$MENU
  1
.
  9
$ELEVATION
 40
0.0
  9
$PELEVATION
 40
0.0
  9
$THICKNESS
 40
0.0
  9
$LIMCHECK
 70
     0
  9
$CHAMFERA
 40
0.0
  9
$CHAMFERB
 40
0.0
  9
$CHAMFERC
 40
0.0
  9
$CHAMFERD
 40
0.0
  9
$SKPOLY
 70
     0
  9
$TDCREATE
 40
2447893.041666667
  9
$TDUCREATE
 40
0.0
  9
$TDUPDATE
 40
2458466.647635405
  9
$TDUUPDATE
 40
2458466.605968738
  9
$TDINDWG
 40
0.0002022106
  9
$TDUSRTIMER
 40
0.0002022106
  9
$USRTIMER
 70
     1
  9
$ANGBASE
 50
0.0
  9
$ANGDIR
 70
     0
  9
$PDMODE
 70
     3
  9
$PDSIZE
 40
0.3125
  9
$PLINEWID
 40
0.0
  9
$SPLFRAME
 70
     0
  9
$SPLINETYPE
 70
     6
  9
$SPLINESEGS
 70
     8
  9
$HANDSEED
  5
5B5
  9
$SURFTAB1
 70
     6
  9
$SURFTAB2
 70
     6
  9
$SURFTYPE
 70
     6
  9
$SURFU
 70
     6
  9
$SURFV
 70
     6
  9
$UCSBASE
  2

  9
$UCSNAME
  2

  9
$UCSORG
 10
0.0
 20
0.0
 30
0.0
  9
$UCSXDIR
 10
1.0
 20
0.0
 30
0.0
  9
$UCSYDIR
 10
0.0
 20
1.0
 30
0.0
  9
$UCSORTHOREF
  2

  9
$UCSORTHOVIEW
 70
     0
  9
$UCSORGTOP
 10
0.0
 20
0.0
 30
0.0
  9
$UCSORGBOTTOM
 10
0.0
 20
0.0
 30
0.0
  9
$UCSORGLEFT
 10
0.0
 20
0.0
 30
0.0
  9
$UCSORGRIGHT
 10
0.0
 20
0.0
 30
0.0
  9
$UCSORGFRONT
 10
0.0
 20
0.0
 30
0.0
  9
$UCSORGBACK
 10
0.0
 20
0.0
 30
0.0
  9
$PUCSBASE
  2

  9
$PUCSNAME
  2

  9
$PUCSORG
 10
0.0
 20
0.0
 30
0.0
  9
$PUCSXDIR
 10
1.0
 20
0.0
 30
0.0
  9
$PUCSYDIR
 10
0.0
 20
1.0
 30
0.0
  9
$PUCSORTHOREF
  2

  9
$PUCSORTHOVIEW
 70
     0
  9
$PUCSORGTOP
 10
0.0
 20
0.0
 30
0.0
  9
$PUCSORGBOTTOM
 10
0.0
 20
0.0
 30
0.0
  9
$PUCSORGLEFT
 10
0.0
 20
0.0
 30
0.0
  9
$PUCSORGRIGHT
 10
0.0
 20
0.0
 30
0.0
  9
$PUCSORGFRONT
 10
0.0
 20
0.0
 30
0.0
  9
$PUCSORGBACK
 10
0.0
 20
0.0
 30
0.0
  9
$USERI1
 70
     0
  9
$USERI2
 70
     0
  9
$USERI3
 70
     0
  9
$USERI4
 70
     0
  9
$USERI5
 70
     0
  9
$USERR1
 40
0.0
  9
$USERR2
 40
0.0
  9
$USERR3
 40
0.0
  9
$USERR4
 40
0.0
  9
$USERR5
 40
0.0
  9
$WORLDVIEW
 70
     1
  9
$SHADEDGE
 70
     3
  9
$SHADEDIF
 70
    70
  9
$TILEMODE
 70
     0
  9
$MAXACTVP
 70
    64
  9
$PINSBASE
 10
0.0
 20
0.0
 30
0.0
  9
$PLIMCHECK
 70
     0
  9
$PEXTMIN
 10
0.0
 20
0.0
 30
0.0
  9
$PEXTMAX
 10
420.0
 20
297.0
 30
0.0
  9
$PLIMMIN
 10
-8.667315175097276
 20
-23.11284046692607
  9
$PLIMMAX
 10
476.7023346303502
 20
320.1128404669261
  9
$UNITMODE
 70
     0
  9
$VISRETAIN
 70
     1
  9
$PLINEGEN
 70
     0
  9
$PSLTSCALE
 70
     1
  9
$TREEDEPTH
 70
  3020
  9
$CMLSTYLE
  2
STANDARD
  9
$CMLJUST
 70
     0
  9
$CMLSCALE
 40
1.0
  9
$PROXYGRAPHICS
 70
     1
  9
$MEASUREMENT
 70
     1
  9
$CELWEIGHT
370
    -1
  9
$ENDCAPS
280
     0
  9
$JOINSTYLE
280
     0
  9
$LWDISPLAY
290
     0
  9
$INSUNITS
 70
     0
  9
$HYPERLINKBASE
  1

  9
$STYLESHEET
  1

  9
$XEDIT
290
     1
  9
$CEPSNTYPE
380
     0
  9
$PSTYLEMODE
290
     1
  9
$FINGERPRINTGUID
  2
{F9D3201B-AF38-4FDD-99A6-60FD95D047D3}
  9
$VERSIONGUID
  2
{FAEB1C32-E019-11D5-929B-00C0DF256EC4}
  9
$EXTNAMES
290
     1
  9
$PSVPSCALE
 40
0.0
  9
$OLESTARTUP
290
     0
  9
$SORTENTS
280
   127
  9
$INDEXCTL
280
     0
  9
$HIDETEXT
280
     1
  9
$XCLIPFRAME
280
     2
  9
$HALOGAP
280
     0
  9
$OBSCOLOR
 70
   257
  9
$OBSLTYPE
280
     0
  9
$INTERSECTIONDISPLAY
280
     0
  9
$INTERSECTIONCOLOR
 70
   257
  9
$DIMASSOC
280
     2
  9
$PROJECTNAME
  1

  9
$CAMERADISPLAY
290
     0
  9
$LENSLENGTH
 40
50.0
  9
$CAMERAHEIGHT
 40
0.0
  9
$STEPSPERSEC
 40
2.0
  9
$STEPSIZE
 40
6.0
  9
$3DDWFPREC
 40
2.0
  9
$PSOLWIDTH
 40
0.25
  9
$PSOLHEIGHT
 40
4.0
  9
$LOFTANG1
 40
1.570796326794897
  9
$LOFTANG2
 40
1.570796326794897
  9
$LOFTMAG1
 40
0.0
  9
$LOFTMAG2
 40
0.0
  9
$LOFTPARAM
 70
     7
  9
$LOFTNORMALS
280
     1
  9
$LATITUDE
 40
37.795
  9
$LONGITUDE
 40
-122.394
  9
$NORTHDIRECTION
 40
0.0
  9
$TIMEZONE
 70
 -8000
  9
$LIGHTGLYPHDISPLAY
280
     1
  9
$TILEMODELIGHTSYNCH
280
     1
  9
$SOLIDHIST
280
     0
  9
$SHOWHIST
280
     1
  9
$DWFFRAME
280
     2
  9
$DGNFRAME
280
     2
  9
$REALWORLDSCALE
290
     1
  9
$INTERFERECOLOR
 62
   256
  9
$CSHADOW
280
     0
  9
$SHADOWPLANELOCATION
 40
0.0
  0
ENDSEC
  0
SECTION
  2
CLASSES
  0
CLASS
  1
ACDBDICTIONARYWDFLT
  2
AcDbDictionaryWithDefault
  3
ObjectDBX Classes
 90
        0
 91
        4
280
     0
281
     0
  0
CLASS
  1
SCALE
  2
AcDbScale
  3
ObjectDBX Classes
 90
     1153
 91
        4
280
     0
281
     0
  0
CLASS
  1
VISUALSTYLE
  2
AcDbVisualStyle
  3
ObjectDBX Classes
 90
     4095
 91
        4
280
     0
281
     0
  0
CLASS
  1
MATERIAL
  2
AcDbMaterial
  3
ObjectDBX Classes
 90
     1153
 91
        4
280
     0
281
     0
  0
CLASS
  1
TABLESTYLE
  2
AcDbTableStyle
  3
ObjectDBX Classes
 90
     4095
 91
        4
280
     0
281
     0
  0
CLASS
  1
MLEADERSTYLE
  2
AcDbMLeaderStyle
  3
ACDB_MLEADERSTYLE_CLASS
 90
     4095
 91
        4
280
     0
281
     0
  0
CLASS
  1
DICTIONARYVAR
  2
AcDbDictionaryVar
  3
ObjectDBX Classes
 90
        0
 91
        4
280
     0
281
     0
  0
CLASS
  1
CELLSTYLEMAP
  2
AcDbCellStyleMap
  3
ObjectDBX Classes
 90
     1152
 91
        4
280
     0
281
     0
  0
ENDSEC
  0
SECTION
  2
TABLES
  0
TABLE
  2
VPORT
  5
8
330
0
100
AcDbSymbolTable
 70
     1
  0
VPORT
  5
1F4
330
8
100
AcDbSymbolTableRecord
100
AcDbViewportTableRecord
  2
*ACTIVE
 70
     0
 10
0.0
 20
0.0
 11
1.0
 21
1.0
 12
210.0
 22
148.5
 13
0.0
 23
0.0
 14
1.0
 24
1.0
 15
0.0
 25
0.0
 16
0.0
 26
0.0
 36
1.0
 17
0.0
 27
0.0
 37
0.0
 40
297.0
 41
1.4141414141
 42
50.0
 43
0.0
 44
0.0
 50
0.0
 51
0.0
 71
     0
 72
   100
 73
     1
 74
     1
 75
     0
 76
     0
 77
     0
 78
     0
281
     0
 65
     1
110
0.0
120
0.0
130
0.0
111
1.0
121
0.0
131
0.0
112
0.0
122
1.0
132
0.0
 79
     0
146
0.0
348
58E
 60
     3
 61
     5
292
     1
282
     1
141
0.0
142
0.0
 63
   256
  0
ENDTAB
  0
TABLE
  2
LTYPE
  5
5
330
0
100
AcDbSymbolTable
 70
     6
  0
LTYPE
  5
14
330
5
100
AcDbSymbolTableRecord
100
AcDbLinetypeTableRecord
  2
BYBLOCK
 70
     0
  3

 72
    65
 73
     0
 40
0.0
  0
LTYPE
  5
15
330
5
100
AcDbSymbolTableRecord
100
AcDbLinetypeTableRecord
  2
BYLAYER
 70
     0
  3

 72
    65
 73
     0
 40
0.0
  0
LTYPE
  5
16
330
5
100
AcDbSymbolTableRecord
100
AcDbLinetypeTableRecord
  2
CONTINUOUS
 70
     0
  3
Solid line
 72
    65
 73
     0
 40
0.0
  0
LTYPE
  5
1F5
330
5
100
AcDbSymbolTableRecord
100
AcDbLinetypeTableRecord
  2
CENTER
 70
     0
  3
____ _ ____ _ ____ _ ____ _ ____ _ ____ _ ____
 72
    65
 73
     4
 40
0.6
 49
0.375
 74
     0
 49
-0.075
 74
     0
 49
0.075
 74
     0
 49
-0.075
 74
     0
  0
LTYPE
  5
1F6
330
5
100
AcDbSymbolTableRecord
100
AcDbLinetypeTableRecord
  2
HIDDEN
 70
     0
  3
- - - - - - - - - - - - - - - - - - - -
 72
    65
 73
     2
 40
0.2
 49
0.1
 74
     0
 49
-0.1
 74
     0
  0
LTYPE
  5
1F7
330
5
100
AcDbSymbolTableRecord
100
AcDbLinetypeTableRecord
  2
PHANTOM
 70
     0
  3
_____ _ _ _____ _ _ _____ _ _ _____
 72
    65
 73
     6
 40
0.8
 49
0.45
 74
     0
 49
-0.05
 74
     0
 49
0.1
 74
     0
 49
-0.05
 74
     0
 49
0.1
 74
     0
 49
-0.05
 74
     0
  0
LTYPE
  5
1F8
330
5
100
AcDbSymbolTableRecord
100
AcDbLinetypeTableRecord
  2
DOT
 70
     0
  3
. . . . . . . . . . . . . . . . . . . .
 72
    65
 73
     2
 40
0.2
 49
0.1
 74
     0
 49
-0.1
 74
     0
  0
LTYPE
  5
1F9
330
5
100
AcDbSymbolTableRecord
100
AcDbLinetypeTableRecord
  2
DASHED
 70
     0
  3
- - - - - - - - - - - - - - - - - - - -
 72
    65
 73
     2
 40
0.2
 49
0.1
 74
     0
 49
-0.1
 74
     0
  0
ENDTAB
  0
TABLE
  2
LAYER
  5
2
330
0
100
AcDbSymbolTable
 70
    36
  0
LAYER
  5
10
330
2
100
AcDbSymbolTableRecord
100
AcDbLayerTableRecord
  2
0
 70
     0
 62
     7
  6
CONTINUOUS
370
    -3
390
563
347
5A5
348
0
  0
LAYER
  5
1FA
330
2
100
AcDbSymbolTableRecord
100
AcDbLayerTableRecord
  2
DEFAULT_1
 70
     0
 62
     7
  6
CENTER
370
    -3
390
563
347
5A5
348
0
  0
LAYER
  5
1FB
330
2
100
AcDbSymbolTableRecord
100
AcDbLayerTableRecord
  2
DEFAULT_2
 70
     0
 62
     8
  6
HIDDEN
370
    -3
390
563
347
5A5
348
0
  0
LAYER
  5
1FC
330
2
100
AcDbSymbolTableRecord
100
AcDbLayerTableRecord
  2
DEFAULT_3
 70
     0
 62
     7
  6
PHANTOM
370
    -3
390
563
347
5A5
348
0
  0
LAYER
  5
1FD
330
2
100
AcDbSymbolTableRecord
100
AcDbLayerTableRecord
  2
01_ALL_DTM_PLN
 70
     0
 62
     7
  6
CONTINUOUS
370
    -3
390
563
347
5A5
348
0
  0
LAYER
  5
1FE
330
2
100
AcDbSymbolTableRecord
100
AcDbLayerTableRecord
  2
01__ASM_ALL_DTM_PLN
 70
     0
 62
     7
  6
CONTINUOUS
370
    -3
390
563
347
5A5
348
0
  0
LAYER
  5
1FF
330
2
100
AcDbSymbolTableRecord
100
AcDbLayerTableRecord
  2
01__ASM_DEF_DTM_PLN
 70
     0
 62
     7
  6
CONTINUOUS
370
    -3
390
563
347
5A5
348
0
  0
LAYER
  5
200
330
2
100
AcDbSymbolTableRecord
100
AcDbLayerTableRecord
  2
01___PRT_ALL_DTM_PLN
 70
     0
 62
     7
  6
CONTINUOUS
370
    -3
390
563
347
5A5
348
0
  0
LAYER
  5
201
330
2
100
AcDbSymbolTableRecord
100
AcDbLayerTableRecord
  2
01___PRT_DEF_DTM_PLN
 70
     0
 62
     7
  6
CONTINUOUS
370
    -3
390
563
347
5A5
348
0
  0
LAYER
  5
202
330
2
100
AcDbSymbolTableRecord
100
AcDbLayerTableRecord
  2
02_ALL_AXES
 70
     0
 62
     7
  6
CONTINUOUS
370
    -3
390
563
347
5A5
348
0
  0
LAYER
  5
203
330
2
100
AcDbSymbolTableRecord
100
AcDbLayerTableRecord
  2
02__ASM_ALL_AXES
 70
     0
 62
     7
  6
CONTINUOUS
370
    -3
390
563
347
5A5
348
0
  0
LAYER
  5
204
330
2
100
AcDbSymbolTableRecord
100
AcDbLayerTableRecord
  2
02___PRT_ALL_AXES
 70
     0
 62
     7
  6
CONTINUOUS
370
    -3
390
563
347
5A5
348
0
  0
LAYER
  5
205
330
2
100
AcDbSymbolTableRecord
100
AcDbLayerTableRecord
  2
03_ALL_CURVES
 70
     0
 62
     7
  6
CONTINUOUS
370
    -3
390
563
347
5A5
348
0
  0
LAYER
  5
206
330
2
100
AcDbSymbolTableRecord
100
AcDbLayerTableRecord
  2
03__ASM_ALL_CURVES
 70
     0
 62
     7
  6
CONTINUOUS
370
    -3
390
563
347
5A5
348
0
  0
LAYER
  5
207
330
2
100
AcDbSymbolTableRecord
100
AcDbLayerTableRecord
  2
03___PRT_ALL_CURVES
 70
     0
 62
     7
  6
CONTINUOUS
370
    -3
390
563
347
5A5
348
0
  0
LAYER
  5
208
330
2
100
AcDbSymbolTableRecord
100
AcDbLayerTableRecord
  2
04_ALL_DTM_PNT
 70
     0
 62
     7
  6
CONTINUOUS
370
    -3
390
563
347
5A5
348
0
  0
LAYER
  5
209
330
2
100
AcDbSymbolTableRecord
100
AcDbLayerTableRecord
  2
04__ASM_ALL_DTM_PNT
 70
     0
 62
     7
  6
CONTINUOUS
370
    -3
390
563
347
5A5
348
0
  0
LAYER
  5
20A
330
2
100
AcDbSymbolTableRecord
100
AcDbLayerTableRecord
  2
04___PRT_ALL_DTM_PNT
 70
     0
 62
     7
  6
CONTINUOUS
370
    -3
390
563
347
5A5
348
0
  0
LAYER
  5
20B
330
2
100
AcDbSymbolTableRecord
100
AcDbLayerTableRecord
  2
05_ALL_DTM_CSYS
 70
     0
 62
     7
  6
CONTINUOUS
370
    -3
390
563
347
5A5
348
0
  0
LAYER
  5
20C
330
2
100
AcDbSymbolTableRecord
100
AcDbLayerTableRecord
  2
05__ASM_ALL_DTM_CSYS
 70
     0
 62
     7
  6
CONTINUOUS
370
    -3
390
563
347
5A5
348
0
  0
LAYER
  5
20D
330
2
100
AcDbSymbolTableRecord
100
AcDbLayerTableRecord
  2
05__ASM_DEF_DTM_CSYS
 70
     0
 62
     7
  6
CONTINUOUS
370
    -3
390
563
347
5A5
348
0
  0
LAYER
  5
20E
330
2
100
AcDbSymbolTableRecord
100
AcDbLayerTableRecord
  2
05___PRT_ALL_DTM_CSYS
 70
     0
 62
     7
  6
CONTINUOUS
370
    -3
390
563
347
5A5
348
0
  0
LAYER
  5
20F
330
2
100
AcDbSymbolTableRecord
100
AcDbLayerTableRecord
  2
05___PRT_DEF_DTM_CSYS
 70
     0
 62
     7
  6
CONTINUOUS
370
    -3
390
563
347
5A5
348
0
  0
LAYER
  5
210
330
2
100
AcDbSymbolTableRecord
100
AcDbLayerTableRecord
  2
06_ALL_SURFS
 70
     0
 62
     7
  6
CONTINUOUS
370
    -3
390
563
347
5A5
348
0
  0
LAYER
  5
211
330
2
100
AcDbSymbolTableRecord
100
AcDbLayerTableRecord
  2
06__ASM_ALL_SURFS
 70
     0
 62
     7
  6
CONTINUOUS
370
    -3
390
563
347
5A5
348
0
  0
LAYER
  5
212
330
2
100
AcDbSymbolTableRecord
100
AcDbLayerTableRecord
  2
06___PRT_ALL_SURFS
 70
     0
 62
     7
  6
CONTINUOUS
370
    -3
390
563
347
5A5
348
0
  0
LAYER
  5
213
330
2
100
AcDbSymbolTableRecord
100
AcDbLayerTableRecord
  2
07__ASM_ALL_SKELETONS
 70
     0
 62
     7
  6
CONTINUOUS
370
    -3
390
563
347
5A5
348
0
  0
LAYER
  5
214
330
2
100
AcDbSymbolTableRecord
100
AcDbLayerTableRecord
  2
1_ALL_PLANES
 70
     0
 62
     7
  6
CONTINUOUS
370
    -3
390
563
347
5A5
348
0
  0
LAYER
  5
215
330
2
100
AcDbSymbolTableRecord
100
AcDbLayerTableRecord
  2
2_ALL_CSYS
 70
     0
 62
     7
  6
CONTINUOUS
370
    -3
390
563
347
5A5
348
0
  0
LAYER
  5
216
330
2
100
AcDbSymbolTableRecord
100
AcDbLayerTableRecord
  2
3_ALL_AXES
 70
     0
 62
     7
  6
CONTINUOUS
370
    -3
390
563
347
5A5
348
0
  0
LAYER
  5
217
330
2
100
AcDbSymbolTableRecord
100
AcDbLayerTableRecord
  2
4_ALL_POINTS
 70
     0
 62
     7
  6
CONTINUOUS
370
    -3
390
563
347
5A5
348
0
  0
LAYER
  5
218
330
2
100
AcDbSymbolTableRecord
100
AcDbLayerTableRecord
  2
5_ALL_CURVES
 70
     0
 62
     7
  6
CONTINUOUS
370
    -3
390
563
347
5A5
348
0
  0
LAYER
  5
219
330
2
100
AcDbSymbolTableRecord
100
AcDbLayerTableRecord
  2
6_ALL_SURFS
 70
     0
 62
     7
  6
CONTINUOUS
370
    -3
390
563
347
5A5
348
0
  0
LAYER
  5
21A
330
2
100
AcDbSymbolTableRecord
100
AcDbLayerTableRecord
  2
7_ALL_FEATURES
 70
     0
 62
     7
  6
CONTINUOUS
370
    -3
390
563
347
5A5
348
0
  0
LAYER
  5
21B
330
2
100
AcDbSymbolTableRecord
100
AcDbLayerTableRecord
  2
8_ALL_NOTES_BALLOONS_SYMBOLS_GT
 70
     0
 62
     7
  6
CONTINUOUS
370
    -3
390
563
347
5A5
348
0
  0
LAYER
  5
21C
330
2
100
AcDbSymbolTableRecord
100
AcDbLayerTableRecord
  2
9_SOLID
 70
     0
 62
     7
  6
CONTINUOUS
370
    -3
390
563
347
5A5
348
0
  0
ENDTAB
  0
TABLE
  2
STYLE
  5
3
330
0
100
AcDbSymbolTable
 70
     5
  0
STYLE
  5
11
330
3
100
AcDbSymbolTableRecord
100
AcDbTextStyleTableRecord
  2
STANDARD
 70
     0
 40
0.0
 41
0.85
 50
0.0
 71
     0
 42
0.2
  3
txt
  4

  0
STYLE
  5
21D
330
3
100
AcDbSymbolTableRecord
100
AcDbTextStyleTableRecord
  2
TEXTSTYLE_1
 70
     0
 40
0.0
 41
0.8
 50
0.0
 71
     0
 42
0.2
  3
gdt
  4

  0
STYLE
  5
21E
330
3
100
AcDbSymbolTableRecord
100
AcDbTextStyleTableRecord
  2
TEXTSTYLE_2
 70
     0
 40
0.0
 41
0.9
 50
0.0
 71
     0
 42
0.2
  3
txt
  4

  0
STYLE
  5
21F
330
3
100
AcDbSymbolTableRecord
100
AcDbTextStyleTableRecord
  2
TEXTSTYLE_3
 70
     0
 40
0.0
 41
0.9
 50
0.0
 71
     0
 42
0.2
  3
txt
  4

  0
STYLE
  5
220
330
3
100
AcDbSymbolTableRecord
100
AcDbTextStyleTableRecord
  2
TEXTSTYLE_4
 70
     0
 40
0.0
 41
2.0
 50
0.0
 71
     0
 42
0.2
  3
txt
  4

  0
ENDTAB
  0
TABLE
  2
VIEW
  5
6
330
0
100
AcDbSymbolTable
 70
     0
  0
ENDTAB
  0
TABLE
  2
UCS
  5
7
330
0
100
AcDbSymbolTable
 70
     0
  0
ENDTAB
  0
TABLE
  2
APPID
  5
9
330
0
100
AcDbSymbolTable
 70
     1
  0
APPID
  5
221
330
9
100
AcDbSymbolTableRecord
100
AcDbRegAppTableRecord
  2
ACAD
 70
     0
  0
ENDTAB
  0
TABLE
  2
DIMSTYLE
  5
A
330
0
100
AcDbSymbolTable
 70
     4
100
AcDbDimStyleTable
  0
DIMSTYLE
105
22A
330
A
100
AcDbSymbolTableRecord
100
AcDbDimStyleTableRecord
  2
STANDARD
 70
     0
 41
2.5
 42
0.75
 44
0.75
 47
0.01
 48
0.01
 71
     1
 73
     0
 74
     0
 77
     1
 78
     8
 79
     2
140
3.0
147
0.625
171
     1
178
     0
179
     2
271
     2
272
     2
284
     8
340
11
341
222
342
222
343
222
344
222
  0
DIMSTYLE
105
22B
330
A
100
AcDbSymbolTableRecord
100
AcDbDimStyleTableRecord
  2
DIMSTYLE_1
 70
     0
 41
2.5
 42
0.75
 44
0.75
 47
0.3
 48
0.3
 73
     0
 74
     0
 77
     1
 78
     8
 79
     2
140
3.0
147
0.75
171
     1
178
     0
179
     2
271
     2
272
     2
284
     8
340
11
341
222
342
222
343
222
344
222
  0
DIMSTYLE
105
22C
330
A
100
AcDbSymbolTableRecord
100
AcDbDimStyleTableRecord
  2
DIMSTYLE_2
 70
     0
 41
2.5
 42
0.75
 44
0.75
 47
0.2
 48
0.2
 73
     0
 74
     0
 77
     1
 78
     8
 79
     2
140
3.0
147
0.75
171
     1
178
     0
179
     2
271
     2
272
     2
284
     8
340
11
341
222
342
222
343
222
344
222
  0
DIMSTYLE
105
22D
330
A
100
AcDbSymbolTableRecord
100
AcDbDimStyleTableRecord
  2
DIMSTYLE_3
 70
     0
 41
2.5
 42
0.75
 44
0.75
 47
0.5
 48
0.5
 73
     0
 74
     0
 77
     1
 78
     8
 79
     2
140
3.0
147
0.75
171
     1
178
     0
179
     2
271
     2
272
     2
284
     8
340
11
341
222
342
222
343
222
344
222
  0
ENDTAB
  0
TABLE
  2
BLOCK_RECORD
  5
1
330
0
100
AcDbSymbolTable
 70
     8
  0
BLOCK_RECORD
  5
1F
330
1
100
AcDbSymbolTableRecord
100
AcDbBlockTableRecord
  2
*MODEL_SPACE
340
587
 70
     0
280
     1
281
     0
  0
BLOCK_RECORD
  5
1B
330
1
100
AcDbSymbolTableRecord
100
AcDbBlockTableRecord
  2
*PAPER_SPACE
340
588
 70
     0
280
     1
281
     0
  0
BLOCK_RECORD
  5
222
330
1
100
AcDbSymbolTableRecord
100
AcDbBlockTableRecord
  2
_CLOSED
340
0
102
{BLKREFS
331
280
331
281
331
28B
331
28C
331
294
331
295
331
29D
331
29E
331
2A6
331
2A7
102
}
 70
     0
280
     1
281
     0
  0
BLOCK_RECORD
  5
223
330
1
100
AcDbSymbolTableRecord
100
AcDbBlockTableRecord
  2
*D1
340
0
 70
     0
280
     1
281
     0
  0
BLOCK_RECORD
  5
224
330
1
100
AcDbSymbolTableRecord
100
AcDbBlockTableRecord
  2
*D2
340
0
 70
     0
280
     1
281
     0
  0
BLOCK_RECORD
  5
225
330
1
100
AcDbSymbolTableRecord
100
AcDbBlockTableRecord
  2
*D3
340
0
 70
     0
280
     1
281
     0
  0
BLOCK_RECORD
  5
226
330
1
100
AcDbSymbolTableRecord
100
AcDbBlockTableRecord
  2
*D4
340
0
 70
     0
280
     1
281
     0
  0
BLOCK_RECORD
  5
227
330
1
100
AcDbSymbolTableRecord
100
AcDbBlockTableRecord
  2
*D5
340
0
 70
     0
280
     1
281
     0
  0
BLOCK_RECORD
  5
228
330
1
100
AcDbSymbolTableRecord
100
AcDbBlockTableRecord
  2
LOGO2_BL1
340
0
102
{BLKREFS
331
54B
102
}
 70
     0
280
     1
281
     0
  0
BLOCK_RECORD
  5
229
330
1
100
AcDbSymbolTableRecord
100
AcDbBlockTableRecord
  2
PROIEZIONE_EU_BL0
340
0
102
{BLKREFS
331
548
102
}
 70
     0
280
     1
281
     0
  0
ENDTAB
  0
ENDSEC
  0
SECTION
  2
BLOCKS
  0
BLOCK
  5
20
330
1F
100
AcDbEntity
  8
0
100
AcDbBlockBegin
  2
*MODEL_SPACE
 70
     0
 10
0.0
 20
0.0
 30
0.0
  3
*MODEL_SPACE
  1

  0
ENDBLK
  5
21
330
1F
100
AcDbEntity
  8
0
100
AcDbBlockEnd
  0
BLOCK
  5
1C
330
1B
100
AcDbEntity
 67
     1
  8
0
100
AcDbBlockBegin
  2
*PAPER_SPACE
 70
     0
 10
0.0
 20
0.0
 30
0.0
  3
*PAPER_SPACE
  1

  0
ENDBLK
  5
1D
330
1B
100
AcDbEntity
 67
     1
  8
0
100
AcDbBlockEnd
  0
BLOCK
  5
274
330
222
100
AcDbEntity
  8
0
100
AcDbBlockBegin
  2
_CLOSED
 70
     0
 10
0.0
 20
0.0
 30
0.0
  3
_CLOSED
  1

  0
LINE
  5
275
330
222
100
AcDbEntity
  8
0
  6
ByBlock
 62
     0
100
AcDbLine
 10
0.0
 20
0.0
 30
0.0
 11
-1.0
 21
0.2
 31
0.0
  0
LINE
  5
276
330
222
100
AcDbEntity
  8
0
  6
ByBlock
 62
     0
100
AcDbLine
 10
-1.0
 20
0.2
 30
0.0
 11
-1.0
 21
-0.2
 31
0.0
  0
LINE
  5
277
330
222
100
AcDbEntity
  8
0
  6
ByBlock
 62
     0
100
AcDbLine
 10
-1.0
 20
-0.2
 30
0.0
 11
0.0
 21
0.0
 31
0.0
  0
LINE
  5
278
330
222
100
AcDbEntity
  8
0
  6
ByBlock
 62
     0
100
AcDbLine
 10
-1.0
 20
0.0
 30
0.0
 11
0.0
 21
0.0
 31
0.0
  0
ENDBLK
  5
279
330
222
100
AcDbEntity
  8
0
  6
ByBlock
 62
     0
100
AcDbBlockEnd
  0
BLOCK
  5
27A
330
223
100
AcDbEntity
  8
0
100
AcDbBlockBegin
  2
*D1
 70
     1
 10
0.0
 20
0.0
 30
0.0
  3
*D1
  1

  0
MTEXT
  5
27B
330
223
100
AcDbEntity
  8
0
  6
Continuous
 62
     2
100
AcDbMText
 10
57.1478402351
 20
145.0434966216
 30
0.0
 40
3.0
 41
6.4285714286
 46
0.0
 71
     2
 72
     1
  1
35
 11
0.0
 21
1.0
 31
0.0
 73
     1
 44
1.0
  0
LINE
  5
27C
330
223
100
AcDbEntity
  8
0
  6
Continuous
 62
     2
100
AcDbLine
 10
69.4929847973
 20
127.5434966216
 30
0.0
 11
60.1478402351
 21
127.5434966216
 31
0.0
  0
LINE
  5
27D
330
223
100
AcDbEntity
  8
0
  6
Continuous
 62
     2
100
AcDbLine
 10
70.1823375324
 20
162.5434966216
 30
0.0
 11
60.1478402351
 21
162.5434966216
 31
0.0
  0
LINE
  5
27E
330
223
100
AcDbEntity
  8
0
  6
Continuous
 62
     2
100
AcDbLine
 10
60.8978402351
 20
127.5434966216
 30
0.0
 11
60.8978402351
 21
145.0434966216
 31
0.0
  0
LINE
  5
27F
330
223
100
AcDbEntity
  8
0
  6
Continuous
 62
     2
100
AcDbLine
 10
60.8978402351
 20
162.5434966216
 30
0.0
 11
60.8978402351
 21
145.0434966216
 31
0.0
  0
INSERT
  5
280
330
223
100
AcDbEntity
  8
0
  6
Continuous
 62
     2
100
AcDbBlockReference
  2
_CLOSED
 10
60.8978402351
 20
127.5434966216
 30
0.0
 41
2.5
 42
2.5
 43
2.5
 50
270.0
  0
INSERT
  5
281
330
223
100
AcDbEntity
  8
0
  6
Continuous
 62
     2
100
AcDbBlockReference
  2
_CLOSED
 10
60.8978402351
 20
162.5434966216
 30
0.0
 41
2.5
 42
2.5
 43
2.5
 50
90.0
  0
ENDBLK
  5
282
330
223
100
AcDbEntity
  8
0
  6
ByBlock
 62
     0
100
AcDbBlockEnd
  0
BLOCK
  5
283
330
224
100
AcDbEntity
  8
0
100
AcDbBlockBegin
  2
*D2
 70
     1
 10
0.0
 20
0.0
 30
0.0
  3
*D2
  1

  0
MTEXT
  5
284
330
224
100
AcDbEntity
  8
0
  6
Continuous
 62
     2
100
AcDbMText
 10
57.1478402351
 20
168.9434966216
 30
0.0
 40
3.0
 41
12.2142857143
 46
0.0
 71
     2
 72
     1
  1
12,8
 11
0.0
 21
1.0
 31
0.0
 73
     1
 44
1.0
  0
LINE
  5
285
330
224
100
AcDbEntity
  8
0
  6
Continuous
 62
     2
100
AcDbLine
 10
70.1823375324
 20
162.5434966216
 30
0.0
 11
60.1478402351
 21
162.5434966216
 31
0.0
  0
LINE
  5
286
330
224
100
AcDbEntity
  8
0
  6
Continuous
 62
     2
100
AcDbLine
 10
70.1823375324
 20
175.3434966216
 30
0.0
 11
60.1478402351
 21
175.3434966216
 31
0.0
  0
LINE
  5
287
330
224
100
AcDbEntity
  8
0
  6
Continuous
 62
     2
100
AcDbLine
 10
60.8978402351
 20
162.5434966216
 30
0.0
 11
60.8978402351
 21
161.5434966216
 31
0.0
  0
LINE
  5
288
330
224
100
AcDbEntity
  8
0
  6
Continuous
 62
     2
100
AcDbLine
 10
60.8978402351
 20
161.5434966216
 30
0.0
 11
60.8978402351
 21
168.9434966216
 31
0.0
  0
LINE
  5
289
330
224
100
AcDbEntity
  8
0
  6
Continuous
 62
     2
100
AcDbLine
 10
60.8978402351
 20
175.3434966216
 30
0.0
 11
60.8978402351
 21
176.3434966216
 31
0.0
  0
LINE
  5
28A
330
224
100
AcDbEntity
  8
0
  6
Continuous
 62
     2
100
AcDbLine
 10
60.8978402351
 20
176.3434966216
 30
0.0
 11
60.8978402351
 21
168.9434966216
 31
0.0
  0
INSERT
  5
28B
330
224
100
AcDbEntity
  8
0
  6
Continuous
 62
     2
100
AcDbBlockReference
  2
_CLOSED
 10
60.8978402351
 20
162.5434966216
 30
0.0
 41
2.5
 42
2.5
 43
2.5
 50
90.0
  0
INSERT
  5
28C
330
224
100
AcDbEntity
  8
0
  6
Continuous
 62
     2
100
AcDbBlockReference
  2
_CLOSED
 10
60.8978402351
 20
175.3434966216
 30
0.0
 41
2.5
 42
2.5
 43
2.5
 50
270.0
  0
ENDBLK
  5
28D
330
224
100
AcDbEntity
  8
0
  6
ByBlock
 62
     0
100
AcDbBlockEnd
  0
BLOCK
  5
28E
330
225
100
AcDbEntity
  8
0
100
AcDbBlockBegin
  2
*D3
 70
     1
 10
0.0
 20
0.0
 30
0.0
  3
*D3
  1

  0
MTEXT
  5
28F
330
225
100
AcDbEntity
  8
0
  6
Continuous
 62
     2
100
AcDbMText
 10
218.7554304446
 20
71.8410102689
 30
0.0
 40
3.0
 41
7.0714285714
 46
0.0
 71
     2
 72
     1
  1
92
 11
0.0
 21
1.0
 31
0.0
 73
     1
 44
1.0
  0
LINE
  5
290
330
225
100
AcDbEntity
  8
0
  6
Continuous
 62
     2
100
AcDbLine
 10
211.6963260135
 20
117.8410102689
 30
0.0
 11
223.2554304446
 21
117.8410102689
 31
0.0
  0
LINE
  5
291
330
225
100
AcDbEntity
  8
0
  6
Continuous
 62
     2
100
AcDbLine
 10
209.3255253378
 20
25.8410102689
 30
0.0
 11
223.2554304446
 21
25.8410102689
 31
0.0
  0
LINE
  5
292
330
225
100
AcDbEntity
  8
0
  6
Continuous
 62
     2
100
AcDbLine
 10
222.5054304446
 20
117.8410102689
 30
0.0
 11
222.5054304446
 21
71.8410102689
 31
0.0
  0
LINE
  5
293
330
225
100
AcDbEntity
  8
0
  6
Continuous
 62
     2
100
AcDbLine
 10
222.5054304446
 20
25.8410102689
 30
0.0
 11
222.5054304446
 21
71.8410102689
 31
0.0
  0
INSERT
  5
294
330
225
100
AcDbEntity
  8
0
  6
Continuous
 62
     2
100
AcDbBlockReference
  2
_CLOSED
 10
222.5054304446
 20
117.8410102689
 30
0.0
 41
2.5
 42
2.5
 43
2.5
 50
90.0
  0
INSERT
  5
295
330
225
100
AcDbEntity
  8
0
  6
Continuous
 62
     2
100
AcDbBlockReference
  2
_CLOSED
 10
222.5054304446
 20
25.8410102689
 30
0.0
 41
2.5
 42
2.5
 43
2.5
 50
270.0
  0
ENDBLK
  5
296
330
225
100
AcDbEntity
  8
0
  6
ByBlock
 62
     0
100
AcDbBlockEnd
  0
BLOCK
  5
297
330
226
100
AcDbEntity
  8
0
100
AcDbBlockBegin
  2
*D4
 70
     1
 10
0.0
 20
0.0
 30
0.0
  3
*D4
  1

  0
MTEXT
  5
298
330
226
100
AcDbEntity
  8
0
  6
Continuous
 62
     2
100
AcDbMText
 10
140.3621199324
 20
19.2745502676
 30
0.0
 40
3.0
 41
9.3214285714
 46
0.0
 71
     2
 72
     1
  1
130
 73
     1
 44
1.0
  0
LINE
  5
299
330
226
100
AcDbEntity
  8
0
  6
Continuous
 62
     2
100
AcDbLine
 10
75.3621199324
 20
22.841064323
 30
0.0
 11
75.3621199324
 21
14.7745502676
 31
0.0
  0
LINE
  5
29A
330
226
100
AcDbEntity
  8
0
  6
Continuous
 62
     2
100
AcDbLine
 10
205.3621199324
 20
22.1872264851
 30
0.0
 11
205.3621199324
 21
14.7745502676
 31
0.0
  0
LINE
  5
29B
330
226
100
AcDbEntity
  8
0
  6
Continuous
 62
     2
100
AcDbLine
 10
75.3621199324
 20
15.5245502676
 30
0.0
 11
140.3621199324
 21
15.5245502676
 31
0.0
  0
LINE
  5
29C
330
226
100
AcDbEntity
  8
0
  6
Continuous
 62
     2
100
AcDbLine
 10
205.3621199324
 20
15.5245502676
 30
0.0
 11
140.3621199324
 21
15.5245502676
 31
0.0
  0
INSERT
  5
29D
330
226
100
AcDbEntity
  8
0
  6
Continuous
 62
     2
100
AcDbBlockReference
  2
_CLOSED
 10
75.3621199324
 20
15.5245502676
 30
0.0
 41
2.5
 42
2.5
 43
2.5
 50
180.0
  0
INSERT
  5
29E
330
226
100
AcDbEntity
  8
0
  6
Continuous
 62
     2
100
AcDbBlockReference
  2
_CLOSED
 10
205.3621199324
 20
15.5245502676
 30
0.0
 41
2.5
 42
2.5
 43
2.5
  0
ENDBLK
  5
29F
330
226
100
AcDbEntity
  8
0
  6
ByBlock
 62
     0
100
AcDbBlockEnd
  0
BLOCK
  5
2A0
330
227
100
AcDbEntity
  8
0
100
AcDbBlockBegin
  2
*D5
 70
     1
 10
0.0
 20
0.0
 30
0.0
  3
*D5
  1

  0
MTEXT
  5
2A1
330
227
100
AcDbEntity
  8
0
  6
Continuous
 62
     2
100
AcDbMText
 10
49.0379254878
 20
151.4434966216
 30
0.0
 40
3.0
 41
13.1785714286
 46
0.0
 71
     2
 72
     1
  1
47,8
 11
0.0
 21
1.0
 31
0.0
 73
     1
 44
1.0
  0
LINE
  5
2A2
330
227
100
AcDbEntity
  8
0
  6
Continuous
 62
     2
100
AcDbLine
 10
56.5796875
 20
127.5434966216
 30
0.0
 11
52.0379254878
 21
127.5434966216
 31
0.0
  0
LINE
  5
2A3
330
227
100
AcDbEntity
  8
0
  6
Continuous
 62
     2
100
AcDbLine
 10
58.0530102011
 20
175.3434966216
 30
0.0
 11
52.0379254878
 21
175.3434966216
 31
0.0
  0
LINE
  5
2A4
330
227
100
AcDbEntity
  8
0
  6
Continuous
 62
     2
100
AcDbLine
 10
52.7879254878
 20
127.5434966216
 30
0.0
 11
52.7879254878
 21
151.4434966216
 31
0.0
  0
LINE
  5
2A5
330
227
100
AcDbEntity
  8
0
  6
Continuous
 62
     2
100
AcDbLine
 10
52.7879254878
 20
175.3434966216
 30
0.0
 11
52.7879254878
 21
151.4434966216
 31
0.0
  0
INSERT
  5
2A6
330
227
100
AcDbEntity
  8
0
  6
Continuous
 62
     2
100
AcDbBlockReference
  2
_CLOSED
 10
52.7879254878
 20
127.5434966216
 30
0.0
 41
2.5
 42
2.5
 43
2.5
 50
270.0
  0
INSERT
  5
2A7
330
227
100
AcDbEntity
  8
0
  6
Continuous
 62
     2
100
AcDbBlockReference
  2
_CLOSED
 10
52.7879254878
 20
175.3434966216
 30
0.0
 41
2.5
 42
2.5
 43
2.5
 50
90.0
  0
ENDBLK
  5
2A8
330
227
100
AcDbEntity
  8
0
  6
ByBlock
 62
     0
100
AcDbBlockEnd
  0
BLOCK
  5
22E
330
228
100
AcDbEntity
  8
0
100
AcDbBlockBegin
  2
LOGO2_BL1
 70
     0
 10
293.5967345147
 20
42.2616107985
 30
0.0
  3
LOGO2_BL1
  1

  0
LINE
  5
22F
330
228
100
AcDbEntity
  8
0
  6
Continuous
 62
     7
100
AcDbLine
 10
285.3396597429
 20
45.4571021373
 30
0.0
 11
284.0353188135
 21
45.4571021373
 31
0.0
  0
LINE
  5
230
330
228
100
AcDbEntity
  8
0
  6
Continuous
 62
     7
100
AcDbLine
 10
284.0353188135
 20
45.4571021373
 30
0.0
 11
284.0353188135
 21
34.9980360774
 31
0.0
  0
LINE
  5
231
330
228
100
AcDbEntity
  8
0
  6
Continuous
 62
     7
100
AcDbLine
 10
284.0353188135
 20
34.9980360774
 30
0.0
 11
288.5163737018
 21
34.9980360774
 31
0.0
  0
LINE
  5
232
330
228
100
AcDbEntity
  8
0
  6
Continuous
 62
     7
100
AcDbLine
 10
288.5163737018
 20
34.9980360774
 30
0.0
 11
288.5163737018
 21
36.1908904025
 31
0.0
  0
LINE
  5
233
330
228
100
AcDbEntity
  8
0
  6
Continuous
 62
     7
100
AcDbLine
 10
288.5163737018
 20
36.1908904025
 30
0.0
 11
285.3396597429
 21
36.1908904025
 31
0.0
  0
LINE
  5
234
330
228
100
AcDbEntity
  8
0
  6
Continuous
 62
     7
100
AcDbLine
 10
285.3396597429
 20
36.1908904025
 30
0.0
 11
285.3396597429
 21
45.4571021373
 31
0.0
  0
LINE
  5
235
330
228
100
AcDbEntity
  8
0
  6
Continuous
 62
     7
100
AcDbLine
 10
300.2759859592
 20
45.4571021373
 30
0.0
 11
298.9721684411
 21
45.4571021373
 31
0.0
  0
LINE
  5
236
330
228
100
AcDbEntity
  8
0
  6
Continuous
 62
     7
100
AcDbLine
 10
298.9721684411
 20
45.4571021373
 30
0.0
 11
298.9721684411
 21
34.9980360774
 31
0.0
  0
LINE
  5
237
330
228
100
AcDbEntity
  8
0
  6
Continuous
 62
     7
100
AcDbLine
 10
298.9721684411
 20
34.9980360774
 30
0.0
 11
303.4533541822
 21
34.9980360774
 31
0.0
  0
LINE
  5
238
330
228
100
AcDbEntity
  8
0
  6
Continuous
 62
     7
100
AcDbLine
 10
303.4533541822
 20
34.9980360774
 30
0.0
 11
303.4533541822
 21
36.1908904025
 31
0.0
  0
LINE
  5
239
330
228
100
AcDbEntity
  8
0
  6
Continuous
 62
     7
100
AcDbLine
 10
303.4533541822
 20
36.1908904025
 30
0.0
 11
300.2759859592
 21
36.1908904025
 31
0.0
  0
LINE
  5
23A
330
228
100
AcDbEntity
  8
0
  6
Continuous
 62
     7
100
AcDbLine
 10
300.2759859592
 20
36.1908904025
 30
0.0
 11
300.2759859592
 21
45.4571021373
 31
0.0
  0
LWPOLYLINE
  5
23B
330
228
100
AcDbEntity
  8
0
  6
Continuous
 62
     7
100
AcDbPolyline
 90
        2
 70
     0
 43
0.2
 10
282.3897137245
 20
31.6544847705
 10
282.3897137245
 20
29.7974215212
  0
LWPOLYLINE
  5
23C
330
228
100
AcDbEntity
  8
0
  6
Continuous
 62
     7
100
AcDbPolyline
 90
        2
 70
     0
 43
0.2
 10
282.3897137245
 20
29.7974215212
 10
283.1854297348
 20
29.7974215212
  0
LWPOLYLINE
  5
23D
330
228
100
AcDbEntity
  8
0
  6
Continuous
 62
     7
100
AcDbPolyline
 90
        2
 70
     0
 43
0.2
 10
283.1854297348
 20
29.7974215212
 10
283.1854297348
 20
30.0094030928
  0
LWPOLYLINE
  5
23E
330
228
100
AcDbEntity
  8
0
  6
Continuous
 62
     7
100
AcDbPolyline
 90
        2
 70
     0
 43
0.2
 10
283.1854297348
 20
30.0094030928
 10
282.6213232193
 20
30.0094030928
  0
LWPOLYLINE
  5
23F
330
228
100
AcDbEntity
  8
0
  6
Continuous
 62
     7
100
AcDbPolyline
 90
        2
 70
     0
 43
0.2
 10
282.6213232193
 20
30.0094030928
 10
282.6213232193
 20
31.6544847705
  0
LWPOLYLINE
  5
240
330
228
100
AcDbEntity
  8
0
  6
Continuous
 62
     7
100
AcDbPolyline
 90
        2
 70
     0
 43
0.2
 10
282.6213232193
 20
31.6544847705
 10
282.3897137245
 20
31.6544847705
  0
SPLINE
  5
241
330
228
100
AcDbEntity
  8
0
  6
Continuous
 62
     7
100
AcDbSpline
 70
     3
 71
     3
 72
    35
 73
    31
 74
     0
 42
0.000000001
 43
0.0000001
 40
0.0
 40
0.0
 40
0.0
 40
0.0
 40
1.0
 40
1.0
 40
1.0
 40
2.0
 40
2.0
 40
2.0
 40
3.0
 40
3.0
 40
3.0
 40
4.0
 40
4.0
 40
4.0
 40
5.0
 40
5.0
 40
5.0
 40
6.0
 40
6.0
 40
6.0
 40
7.0
 40
7.0
 40
7.0
 40
8.0
 40
8.0
 40
8.0
 40
9.0
 40
9.0
 40
9.0
 40
10.0
 40
10.0
 40
10.0
 40
10.0
 10
284.5837229904
 20
30.9499731771
 30
0.0
 10
284.5837229904
 20
30.9499731771
 30
0.0
 10
284.5837229904
 20
30.2878578979
 30
0.0
 10
284.5837229904
 20
30.2878578979
 30
0.0
 10
284.5837229904
 20
29.9727643026
 30
0.0
 10
284.7315866792
 20
29.7581656746
 30
0.0
 10
285.0716731635
 20
29.7581656746
 30
0.0
 10
285.4112362365
 20
29.7581656746
 30
0.0
 10
285.559361631
 20
29.9727643026
 30
0.0
 10
285.559361631
 20
30.2878578979
 30
0.0
 10
285.559361631
 20
30.2878578979
 30
0.0
 10
285.559361631
 20
30.9499731771
 30
0.0
 10
285.559361631
 20
30.9499731771
 30
0.0
 10
285.559361631
 20
30.9499731771
 30
0.0
 10
285.3373043921
 20
30.9499731771
 30
0.0
 10
285.3373043921
 20
30.9499731771
 30
0.0
 10
285.3373043921
 20
30.9499731771
 30
0.0
 10
285.3373043921
 20
30.3129816397
 30
0.0
 10
285.3373043921
 20
30.3129816397
 30
0.0
 10
285.3373043921
 20
30.1271706325
 30
0.0
 10
285.2905899347
 20
29.964389722
 30
0.0
 10
285.0716731635
 20
29.964389722
 30
0.0
 10
284.8522329811
 20
29.964389722
 30
0.0
 10
284.8055185236
 20
30.1271706325
 30
0.0
 10
284.8055185236
 20
30.3129816397
 30
0.0
 10
284.8055185236
 20
30.3129816397
 30
0.0
 10
284.8055185236
 20
30.9499731771
 30
0.0
 10
284.8055185236
 20
30.9499731771
 30
0.0
 10
284.8055185236
 20
30.9499731771
 30
0.0
 10
284.5837229904
 20
30.9499731771
 30
0.0
 10
284.5837229904
 20
30.9499731771
 30
0.0
  0
SPLINE
  5
242
330
228
100
AcDbEntity
  8
0
  6
Continuous
 62
     7
100
AcDbSpline
 70
     3
 71
     3
 72
    35
 73
    31
 74
     0
 42
0.000000001
 43
0.0000001
 40
0.0
 40
0.0
 40
0.0
 40
0.0
 40
1.0
 40
1.0
 40
1.0
 40
2.0
 40
2.0
 40
2.0
 40
3.0
 40
3.0
 40
3.0
 40
4.0
 40
4.0
 40
4.0
 40
5.0
 40
5.0
 40
5.0
 40
6.0
 40
6.0
 40
6.0
 40
7.0
 40
7.0
 40
7.0
 40
8.0
 40
8.0
 40
8.0
 40
9.0
 40
9.0
 40
9.0
 40
10.0
 40
10.0
 40
10.0
 40
10.0
 10
287.9824941882
 20
30.9086236853
 30
0.0
 10
287.8940376805
 20
30.9599179915
 30
0.0
 10
287.7805882839
 20
30.9850417333
 30
0.0
 10
287.6769528489
 20
30.9850417333
 30
0.0
 10
287.3220799957
 20
30.9850417333
 30
0.0
 10
287.0466348055
 20
30.7212424443
 30
0.0
 10
287.0466348055
 20
30.3637525346
 30
0.0
 10
287.0466348055
 20
30.0188244959
 30
0.0
 10
287.3250896106
 20
29.7586890859
 30
0.0
 10
287.6646526836
 20
29.7586890859
 30
0.0
 10
287.7805882839
 20
29.7586890859
 30
0.0
 10
287.8813449568
 20
29.78067236
 30
0.0
 10
287.9824941882
 20
29.8345837226
 30
0.0
 10
287.9824941882
 20
29.8345837226
 30
0.0
 10
287.9824941882
 20
30.1172258181
 30
0.0
 10
287.9824941882
 20
30.1172258181
 30
0.0
 10
287.8986175293
 20
30.0240586088
 30
0.0
 10
287.7951129471
 20
29.9649131333
 30
0.0
 10
287.6670080344
 20
29.9649131333
 30
0.0
 10
287.4333048944
 20
29.9649131333
 30
0.0
 10
287.2680377802
 20
30.137115447
 30
0.0
 10
287.2680377802
 20
30.3736973491
 30
0.0
 10
287.2680377802
 20
30.5856789207
 30
0.0
 10
287.435791098
 20
30.7777708634
 30
0.0
 10
287.652614224
 20
30.7777708634
 30
0.0
 10
287.7854298383
 20
30.7777708634
 30
0.0
 10
287.8940376805
 20
30.7238595007
 30
0.0
 10
287.9824941882
 20
30.6228411221
 30
0.0
 10
287.9824941882
 20
30.6228411221
 30
0.0
 10
287.9824941882
 20
30.9086236853
 30
0.0
 10
287.9824941882
 20
30.9086236853
 30
0.0
  0
SPLINE
  5
243
330
228
100
AcDbEntity
  8
0
  6
Continuous
 62
     7
100
AcDbSpline
 70
     3
 71
     3
 72
    32
 73
    28
 74
     0
 42
0.000000001
 43
0.0000001
 40
0.0
 40
0.0
 40
0.0
 40
0.0
 40
1.0
 40
1.0
 40
1.0
 40
2.0
 40
2.0
 40
2.0
 40
3.0
 40
3.0
 40
3.0
 40
4.0
 40
4.0
 40
4.0
 40
5.0
 40
5.0
 40
5.0
 40
6.0
 40
6.0
 40
6.0
 40
7.0
 40
7.0
 40
7.0
 40
8.0
 40
8.0
 40
8.0
 40
9.0
 40
9.0
 40
9.0
 40
9.0
 10
290.5143654404
 20
30.337058559
 30
0.0
 10
290.5143654404
 20
30.337058559
 30
0.0
 10
290.5143654404
 20
30.3710802927
 30
0.0
 10
290.5143654404
 20
30.3710802927
 30
0.0
 10
290.5143654404
 20
30.7133912749
 30
0.0
 10
290.3415088626
 20
30.9850417333
 30
0.0
 10
289.9748592554
 20
30.9850417333
 30
0.0
 10
289.6032372411
 20
30.9850417333
 30
0.0
 10
289.4135006492
 20
30.7186253878
 30
0.0
 10
289.4135006492
 20
30.3637525346
 30
0.0
 10
289.4135006492
 20
30.0240586088
 30
0.0
 10
289.6275758659
 20
29.7581656746
 30
0.0
 10
289.9797008099
 20
29.7581656746
 30
0.0
 10
290.2037208411
 20
29.7581656746
 30
0.0
 10
290.405888451
 20
29.8738395692
 30
0.0
 10
290.5143654404
 20
30.0732592699
 30
0.0
 10
290.5143654404
 20
30.0732592699
 30
0.0
 10
290.3267224937
 20
30.1800351726
 30
0.0
 10
290.3267224937
 20
30.1800351726
 30
0.0
 10
290.2432383933
 20
30.0413311813
 30
0.0
 10
290.1520339764
 20
29.9554917301
 30
0.0
 10
289.9824487191
 20
29.9554917301
 30
0.0
 10
289.7704671475
 20
29.9554917301
 30
0.0
 10
289.6375206804
 20
30.1402559147
 30
0.0
 10
289.6351653296
 20
30.337058559
 30
0.0
 10
289.6351653296
 20
30.337058559
 30
0.0
 10
290.5143654404
 20
30.337058559
 30
0.0
 10
290.5143654404
 20
30.337058559
 30
0.0
  0
SPLINE
  5
244
330
228
100
AcDbEntity
  8
0
  6
Continuous
 62
     7
100
AcDbSpline
 70
     3
 71
     3
 72
    14
 73
    10
 74
     0
 42
0.000000001
 43
0.0000001
 40
0.0
 40
0.0
 40
0.0
 40
0.0
 40
1.0
 40
1.0
 40
1.0
 40
2.0
 40
2.0
 40
2.0
 40
3.0
 40
3.0
 40
3.0
 40
3.0
 10
289.6472037892
 20
30.5045501711
 30
0.0
 10
289.6748137347
 20
30.6694247268
 30
0.0
 10
289.8026569417
 20
30.7924263794
 30
0.0
 10
289.9748592554
 20
30.7924263794
 30
0.0
 10
290.1520339764
 20
30.7924263794
 30
0.0
 10
290.265483373
 20
30.6767524848
 30
0.0
 10
290.29270076
 20
30.5045501711
 30
0.0
 10
290.29270076
 20
30.5045501711
 30
0.0
 10
289.6472037892
 20
30.5045501711
 30
0.0
 10
289.6472037892
 20
30.5045501711
 30
0.0
  0
SPLINE
  5
245
330
228
100
AcDbEntity
  8
0
  6
Continuous
 62
     7
100
AcDbSpline
 70
     3
 71
     3
 72
    20
 73
    16
 74
     0
 42
0.000000001
 43
0.0000001
 40
0.0
 40
0.0
 40
0.0
 40
0.0
 40
1.0
 40
1.0
 40
1.0
 40
2.0
 40
2.0
 40
2.0
 40
3.0
 40
3.0
 40
3.0
 40
4.0
 40
4.0
 40
4.0
 40
5.0
 40
5.0
 40
5.0
 40
5.0
 10
292.5383968906
 20
30.7139146862
 30
0.0
 10
292.5383968906
 20
30.7139146862
 30
0.0
 10
292.9495364572
 20
30.2114398499
 30
0.0
 10
292.9495364572
 20
30.2114398499
 30
0.0
 10
292.8334700042
 20
30.0957659553
 30
0.0
 10
292.6956819826
 20
29.9654365446
 30
0.0
 10
292.5237413746
 20
29.9654365446
 30
0.0
 10
292.346304948
 20
29.9654365446
 30
0.0
 10
292.1788133358
 20
30.129787689
 30
0.0
 10
292.1788133358
 20
30.3067007043
 30
0.0
 10
292.1788133358
 20
30.4846605421
 30
0.0
 10
292.3885704095
 20
30.6108026625
 30
0.0
 10
292.5161519109
 20
30.6987357589
 30
0.0
 10
292.5161519109
 20
30.6987357589
 30
0.0
 10
292.5383968906
 20
30.7139146862
 30
0.0
 10
292.5383968906
 20
30.7139146862
 30
0.0
  0
SPLINE
  5
246
330
228
100
AcDbEntity
  8
0
  6
Continuous
 62
     7
100
AcDbSpline
 70
     3
 71
     3
 72
    23
 73
    19
 74
     0
 42
0.000000001
 43
0.0000001
 40
0.0
 40
0.0
 40
0.0
 40
0.0
 40
1.0
 40
1.0
 40
1.0
 40
2.0
 40
2.0
 40
2.0
 40
3.0
 40
3.0
 40
3.0
 40
4.0
 40
4.0
 40
4.0
 40
5.0
 40
5.0
 40
5.0
 40
6.0
 40
6.0
 40
6.0
 40
6.0
 10
292.5877284045
 20
31.0049313623
 30
0.0
 10
292.5877284045
 20
31.0049313623
 30
0.0
 10
292.5260967254
 20
31.0834430555
 30
0.0
 10
292.5260967254
 20
31.0834430555
 30
0.0
 10
292.4721853627
 20
31.1520099342
 30
0.0
 10
292.415395238
 20
31.2211002242
 30
0.0
 10
292.415395238
 20
31.3147908447
 30
0.0
 10
292.415395238
 20
31.4336052071
 30
0.0
 10
292.5113103565
 20
31.5110700777
 30
0.0
 10
292.6222735495
 20
31.5110700777
 30
0.0
 10
292.7455369078
 20
31.5110700777
 30
0.0
 10
292.8388349699
 20
31.4398861425
 30
0.0
 10
292.8388349699
 20
31.3095567318
 30
0.0
 10
292.8388349699
 20
31.1745166196
 30
0.0
 10
292.7107300571
 20
31.0980985715
 30
0.0
 10
292.6171702894
 20
31.0242975799
 30
0.0
 10
292.6171702894
 20
31.0242975799
 30
0.0
 10
292.5877284045
 20
31.0049313623
 30
0.0
 10
292.5877284045
 20
31.0049313623
 30
0.0
  0
SPLINE
  5
247
330
228
100
AcDbEntity
  8
0
  6
Continuous
 62
     7
100
AcDbSpline
 70
     3
 71
     3
 72
    50
 73
    46
 74
     0
 42
0.000000001
 43
0.0000001
 40
0.0
 40
0.0
 40
0.0
 40
0.0
 40
1.0
 40
1.0
 40
1.0
 40
2.0
 40
2.0
 40
2.0
 40
3.0
 40
3.0
 40
3.0
 40
4.0
 40
4.0
 40
4.0
 40
5.0
 40
5.0
 40
5.0
 40
6.0
 40
6.0
 40
6.0
 40
7.0
 40
7.0
 40
7.0
 40
8.0
 40
8.0
 40
8.0
 40
9.0
 40
9.0
 40
9.0
 40
10.0
 40
10.0
 40
10.0
 40
11.0
 40
11.0
 40
11.0
 40
12.0
 40
12.0
 40
12.0
 40
13.0
 40
13.0
 40
13.0
 40
14.0
 40
14.0
 40
14.0
 40
15.0
 40
15.0
 40
15.0
 40
15.0
 10
293.2898846472
 20
29.7979449325
 30
0.0
 10
293.2898846472
 20
29.7979449325
 30
0.0
 10
293.5752746519
 20
29.7979449325
 30
0.0
 10
293.5752746519
 20
29.7979449325
 30
0.0
 10
293.5752746519
 20
29.7979449325
 30
0.0
 10
293.2429084841
 20
30.2088227934
 30
0.0
 10
293.2429084841
 20
30.2088227934
 30
0.0
 10
293.2429084841
 20
30.2088227934
 30
0.0
 10
293.4694147189
 20
30.4747157277
 30
0.0
 10
293.4694147189
 20
30.4747157277
 30
0.0
 10
293.4694147189
 20
30.4747157277
 30
0.0
 10
293.3211584716
 20
30.6275518237
 30
0.0
 10
293.3211584716
 20
30.6275518237
 30
0.0
 10
293.3211584716
 20
30.6275518237
 30
0.0
 10
293.1052513154
 20
30.3763144056
 30
0.0
 10
293.1052513154
 20
30.3763144056
 30
0.0
 10
293.1052513154
 20
30.3763144056
 30
0.0
 10
292.718188668
 20
30.8442440969
 30
0.0
 10
292.718188668
 20
30.8442440969
 30
0.0
 10
292.8736418205
 20
30.9583477577
 30
0.0
 10
293.0559198015
 20
31.0980985715
 30
0.0
 10
293.0559198015
 20
31.3074630867
 30
0.0
 10
293.0559198015
 20
31.5513727468
 30
0.0
 10
292.8538830444
 20
31.6947874397
 30
0.0
 10
292.6273768096
 20
31.6947874397
 30
0.0
 10
292.3832054438
 20
31.6947874397
 30
0.0
 10
292.1988338176
 20
31.5440449888
 30
0.0
 10
292.1988338176
 20
31.2875734577
 30
0.0
 10
292.1988338176
 20
31.1300266601
 30
0.0
 10
292.2974968454
 20
30.9923694914
 30
0.0
 10
292.4028333671
 20
30.8814062984
 30
0.0
 10
292.4028333671
 20
30.8814062984
 30
0.0
 10
292.2872903253
 20
30.7976604923
 30
0.0
 10
292.2872903253
 20
30.7976604923
 30
0.0
 10
292.109592193
 20
30.6694247268
 30
0.0
 10
291.9622519155
 20
30.5417123725
 30
0.0
 10
291.9622519155
 20
30.3046070591
 30
0.0
 10
291.9622519155
 20
29.9842793509
 30
0.0
 10
292.2208170917
 20
29.7581656746
 30
0.0
 10
292.5311999854
 20
29.7581656746
 30
0.0
 10
292.7501167566
 20
29.7581656746
 30
0.0
 10
292.9473119593
 20
29.8832609724
 30
0.0
 10
293.0875861844
 20
30.0491823506
 30
0.0
 10
293.0875861844
 20
30.0491823506
 30
0.0
 10
293.2898846472
 20
29.7979449325
 30
0.0
 10
293.2898846472
 20
29.7979449325
 30
0.0
  0
LWPOLYLINE
  5
248
330
228
100
AcDbEntity
  8
0
  6
Continuous
 62
     7
100
AcDbPolyline
 90
        2
 70
     0
 43
0.2
 10
295.2253287369
 20
31.6544847705
 10
294.9939809477
 20
31.6544847705
  0
LWPOLYLINE
  5
249
330
228
100
AcDbEntity
  8
0
  6
Continuous
 62
     7
100
AcDbPolyline
 90
        2
 70
     0
 43
0.2
 10
294.9939809477
 20
31.6544847705
 10
294.9939809477
 20
29.7974215212
  0
LWPOLYLINE
  5
24A
330
228
100
AcDbEntity
  8
0
  6
Continuous
 62
     7
100
AcDbPolyline
 90
        2
 70
     0
 43
0.2
 10
294.9939809477
 20
29.7974215212
 10
295.7893043996
 20
29.7974215212
  0
LWPOLYLINE
  5
24B
330
228
100
AcDbEntity
  8
0
  6
Continuous
 62
     7
100
AcDbPolyline
 90
        2
 70
     0
 43
0.2
 10
295.7893043996
 20
29.7974215212
 10
295.7893043996
 20
30.0094030928
  0
LWPOLYLINE
  5
24C
330
228
100
AcDbEntity
  8
0
  6
Continuous
 62
     7
100
AcDbPolyline
 90
        2
 70
     0
 43
0.2
 10
295.7893043996
 20
30.0094030928
 10
295.2253287369
 20
30.0094030928
  0
LWPOLYLINE
  5
24D
330
228
100
AcDbEntity
  8
0
  6
Continuous
 62
     7
100
AcDbPolyline
 90
        2
 70
     0
 43
0.2
 10
295.2253287369
 20
30.0094030928
 10
295.2253287369
 20
31.6544847705
  0
LWPOLYLINE
  5
24E
330
228
100
AcDbEntity
  8
0
  6
Continuous
 62
     7
100
AcDbPolyline
 90
        2
 70
     0
 43
0.2
 10
297.4684078111
 20
30.9499731771
 10
297.2472665419
 20
30.9499731771
  0
LWPOLYLINE
  5
24F
330
228
100
AcDbEntity
  8
0
  6
Continuous
 62
     7
100
AcDbPolyline
 90
        2
 70
     0
 43
0.2
 10
297.2472665419
 20
30.9499731771
 10
297.2472665419
 20
29.7979449325
  0
LWPOLYLINE
  5
250
330
228
100
AcDbEntity
  8
0
  6
Continuous
 62
     7
100
AcDbPolyline
 90
        2
 70
     0
 43
0.2
 10
297.2472665419
 20
29.7979449325
 10
297.4684078111
 20
29.7979449325
  0
LWPOLYLINE
  5
251
330
228
100
AcDbEntity
  8
0
  6
Continuous
 62
     7
100
AcDbPolyline
 90
        2
 70
     0
 43
0.2
 10
297.4684078111
 20
29.7979449325
 10
297.4684078111
 20
30.9499731771
  0
LWPOLYLINE
  5
252
330
228
100
AcDbEntity
  8
0
  6
Continuous
 62
     7
100
AcDbPolyline
 90
        2
 70
     1
 43
0.2
 10
297.2053845339
 20
31.479927106
 42
1.0
 10
297.5105515248
 20
31.479927106
 42
1.0
  0
SPLINE
  5
253
330
228
100
AcDbEntity
  8
0
  6
Continuous
 62
     7
100
AcDbSpline
 70
     3
 71
     3
 72
    17
 73
    13
 74
     0
 42
0.000000001
 43
0.0000001
 40
0.0
 40
0.0
 40
0.0
 40
0.0
 40
1.0
 40
1.0
 40
1.0
 40
2.0
 40
2.0
 40
2.0
 40
3.0
 40
3.0
 40
3.0
 40
4.0
 40
4.0
 40
4.0
 40
4.0
 10
299.5986917527
 20
29.9554917301
 30
0.0
 10
299.364726907
 20
29.9554917301
 30
0.0
 10
299.2343974963
 20
30.1575284872
 30
0.0
 10
299.2343974963
 20
30.3736973491
 30
0.0
 10
299.2343974963
 20
30.5882959771
 30
0.0
 10
299.3702227255
 20
30.7871922665
 30
0.0
 10
299.5986917527
 20
30.7871922665
 30
0.0
 10
299.8381524169
 20
30.7871922665
 30
0.0
 10
299.9737159405
 20
30.5982407916
 30
0.0
 10
299.9737159405
 20
30.3736973491
 30
0.0
 10
299.9737159405
 20
30.1475836728
 30
0.0
 10
299.8405077677
 20
29.9554917301
 30
0.0
 10
299.5986917527
 20
29.9554917301
 30
0.0
  0
SPLINE
  5
254
330
228
100
AcDbEntity
  8
0
  6
Continuous
 62
     7
100
AcDbSpline
 70
     3
 71
     3
 72
    50
 73
    46
 74
     0
 42
0.000000001
 43
0.0000001
 40
0.0
 40
0.0
 40
0.0
 40
0.0
 40
1.0
 40
1.0
 40
1.0
 40
2.0
 40
2.0
 40
2.0
 40
3.0
 40
3.0
 40
3.0
 40
4.0
 40
4.0
 40
4.0
 40
5.0
 40
5.0
 40
5.0
 40
6.0
 40
6.0
 40
6.0
 40
7.0
 40
7.0
 40
7.0
 40
8.0
 40
8.0
 40
8.0
 40
9.0
 40
9.0
 40
9.0
 40
10.0
 40
10.0
 40
10.0
 40
11.0
 40
11.0
 40
11.0
 40
12.0
 40
12.0
 40
12.0
 40
13.0
 40
13.0
 40
13.0
 40
14.0
 40
14.0
 40
14.0
 40
15.0
 40
15.0
 40
15.0
 40
15.0
 10
300.18281875
 20
30.9504965883
 30
0.0
 10
300.18281875
 20
30.9504965883
 30
0.0
 10
299.9611540695
 20
30.9504965883
 30
0.0
 10
299.9611540695
 20
30.9504965883
 30
0.0
 10
299.9611540695
 20
30.9504965883
 30
0.0
 10
299.9611540695
 20
30.7531705328
 30
0.0
 10
299.9611540695
 20
30.7531705328
 30
0.0
 10
299.9611540695
 20
30.7531705328
 30
0.0
 10
299.956443368
 20
30.7531705328
 30
0.0
 10
299.956443368
 20
30.7531705328
 30
0.0
 10
299.8651080982
 20
30.8960618144
 30
0.0
 10
299.7271892239
 20
30.9845183221
 30
0.0
 10
299.5544634989
 20
30.9845183221
 30
0.0
 10
299.2220973311
 20
30.9845183221
 30
0.0
 10
299.0129945216
 20
30.6966421137
 30
0.0
 10
299.0129945216
 20
30.3810251071
 30
0.0
 10
299.0129945216
 20
30.0512759958
 30
0.0
 10
299.2100588715
 20
29.7581656746
 30
0.0
 10
299.5649317246
 20
29.7581656746
 30
0.0
 10
299.7271892239
 20
29.7581656746
 30
0.0
 10
299.8672017434
 20
29.8466221822
 30
0.0
 10
299.956443368
 20
29.9774750042
 30
0.0
 10
299.956443368
 20
29.9774750042
 30
0.0
 10
299.9611540695
 20
29.9774750042
 30
0.0
 10
299.9611540695
 20
29.9774750042
 30
0.0
 10
299.9611540695
 20
29.9774750042
 30
0.0
 10
299.9611540695
 20
29.7581656746
 30
0.0
 10
299.9611540695
 20
29.7581656746
 30
0.0
 10
299.9611540695
 20
29.5215837725
 30
0.0
 10
299.9046256505
 20
29.3347259427
 30
0.0
 10
299.6314049582
 20
29.3347259427
 30
0.0
 10
299.4291064954
 20
29.3347259427
 30
0.0
 10
299.2864769195
 20
29.4530168938
 30
0.0
 10
299.2864769195
 20
29.6592409412
 30
0.0
 10
299.2864769195
 20
29.6592409412
 30
0.0
 10
299.0648122391
 20
29.6592409412
 30
0.0
 10
299.0648122391
 20
29.6592409412
 30
0.0
 10
299.0697846463
 20
29.3347259427
 30
0.0
 10
299.3008707299
 20
29.1379232985
 30
0.0
 10
299.6211984381
 20
29.1379232985
 30
0.0
 10
300.0692385005
 20
29.1379232985
 30
0.0
 10
300.18281875
 20
29.4231824503
 30
0.0
 10
300.18281875
 20
29.8199282066
 30
0.0
 10
300.18281875
 20
29.8199282066
 30
0.0
 10
300.18281875
 20
30.9504965883
 30
0.0
 10
300.18281875
 20
30.9504965883
 30
0.0
  0
SPLINE
  5
255
330
228
100
AcDbEntity
  8
0
  6
Continuous
 62
     7
100
AcDbSpline
 70
     3
 71
     3
 72
    44
 73
    40
 74
     0
 42
0.000000001
 43
0.0000001
 40
0.0
 40
0.0
 40
0.0
 40
0.0
 40
1.0
 40
1.0
 40
1.0
 40
2.0
 40
2.0
 40
2.0
 40
3.0
 40
3.0
 40
3.0
 40
4.0
 40
4.0
 40
4.0
 40
5.0
 40
5.0
 40
5.0
 40
6.0
 40
6.0
 40
6.0
 40
7.0
 40
7.0
 40
7.0
 40
8.0
 40
8.0
 40
8.0
 40
9.0
 40
9.0
 40
9.0
 40
10.0
 40
10.0
 40
10.0
 40
11.0
 40
11.0
 40
11.0
 40
12.0
 40
12.0
 40
12.0
 40
13.0
 40
13.0
 40
13.0
 40
13.0
 10
301.7517440853
 20
31.9355566321
 30
0.0
 10
301.7517440853
 20
31.9355566321
 30
0.0
 10
301.7517440853
 20
29.7974215212
 30
0.0
 10
301.7517440853
 20
29.7974215212
 30
0.0
 10
301.7517440853
 20
29.7974215212
 30
0.0
 10
301.9731470601
 20
29.7974215212
 30
0.0
 10
301.9731470601
 20
29.7974215212
 30
0.0
 10
301.9731470601
 20
29.7974215212
 30
0.0
 10
301.9731470601
 20
30.3271137445
 30
0.0
 10
301.9731470601
 20
30.3271137445
 30
0.0
 10
301.9731470601
 20
30.5370016709
 30
0.0
 10
301.9731470601
 20
30.7877156778
 30
0.0
 10
302.258406212
 20
30.7877156778
 30
0.0
 10
302.4853050053
 20
30.7877156778
 30
0.0
 10
302.5122606866
 20
30.6547692107
 30
0.0
 10
302.5122606866
 20
30.4584899778
 30
0.0
 10
302.5122606866
 20
30.4584899778
 30
0.0
 10
302.5122606866
 20
29.7974215212
 30
0.0
 10
302.5122606866
 20
29.7974215212
 30
0.0
 10
302.5122606866
 20
29.7974215212
 30
0.0
 10
302.7341870727
 20
29.7974215212
 30
0.0
 10
302.7341870727
 20
29.7974215212
 30
0.0
 10
302.7341870727
 20
29.7974215212
 30
0.0
 10
302.7341870727
 20
30.4846605421
 30
0.0
 10
302.7341870727
 20
30.4846605421
 30
0.0
 10
302.7341870727
 20
30.7652089924
 30
0.0
 10
302.650179561
 20
30.9850417333
 30
0.0
 10
302.3251411512
 20
30.9850417333
 30
0.0
 10
302.1853903373
 20
30.9850417333
 30
0.0
 10
302.0472097574
 20
30.9185684998
 30
0.0
 10
301.9778577617
 20
30.7955668471
 30
0.0
 10
301.9778577617
 20
30.7955668471
 30
0.0
 10
301.9731470601
 20
30.7955668471
 30
0.0
 10
301.9731470601
 20
30.7955668471
 30
0.0
 10
301.9731470601
 20
30.7955668471
 30
0.0
 10
301.9731470601
 20
31.9355566321
 30
0.0
 10
301.9731470601
 20
31.9355566321
 30
0.0
 10
301.9731470601
 20
31.9355566321
 30
0.0
 10
301.7517440853
 20
31.9355566321
 30
0.0
 10
301.7517440853
 20
31.9355566321
 30
0.0
  0
LWPOLYLINE
  5
256
330
228
100
AcDbEntity
  8
0
  6
Continuous
 62
     7
100
AcDbPolyline
 90
        2
 70
     0
 43
0.2
 10
304.5739777495
 20
30.7432257184
 10
304.7904083171
 20
30.7432257184
  0
LWPOLYLINE
  5
257
330
228
100
AcDbEntity
  8
0
  6
Continuous
 62
     7
100
AcDbPolyline
 90
        2
 70
     0
 43
0.2
 10
304.7904083171
 20
30.7432257184
 10
304.7904083171
 20
30.9499731771
  0
LWPOLYLINE
  5
258
330
228
100
AcDbEntity
  8
0
  6
Continuous
 62
     7
100
AcDbPolyline
 90
        2
 70
     0
 43
0.2
 10
304.7904083171
 20
30.9499731771
 10
304.5739777495
 20
30.9499731771
  0
LWPOLYLINE
  5
259
330
228
100
AcDbEntity
  8
0
  6
Continuous
 62
     7
100
AcDbPolyline
 90
        2
 70
     0
 43
0.2
 10
304.5739777495
 20
30.9499731771
 10
304.5739777495
 20
31.3906854814
  0
LWPOLYLINE
  5
25A
330
228
100
AcDbEntity
  8
0
  6
Continuous
 62
     7
100
AcDbPolyline
 90
        2
 70
     0
 43
0.2
 10
304.5739777495
 20
31.3906854814
 10
304.3523130691
 20
31.3906854814
  0
LWPOLYLINE
  5
25B
330
228
100
AcDbEntity
  8
0
  6
Continuous
 62
     7
100
AcDbPolyline
 90
        2
 70
     0
 43
0.2
 10
304.3523130691
 20
31.3906854814
 10
304.3523130691
 20
30.9499731771
  0
LWPOLYLINE
  5
25C
330
228
100
AcDbEntity
  8
0
  6
Continuous
 62
     7
100
AcDbPolyline
 90
        2
 70
     0
 43
0.2
 10
304.3523130691
 20
30.9499731771
 10
304.2316667673
 20
30.9499731771
  0
LWPOLYLINE
  5
25D
330
228
100
AcDbEntity
  8
0
  6
Continuous
 62
     7
100
AcDbPolyline
 90
        2
 70
     0
 43
0.2
 10
304.2316667673
 20
30.9499731771
 10
304.2316667673
 20
30.7432257184
  0
LWPOLYLINE
  5
25E
330
228
100
AcDbEntity
  8
0
  6
Continuous
 62
     7
100
AcDbPolyline
 90
        2
 70
     0
 43
0.2
 10
304.2316667673
 20
30.7432257184
 10
304.3523130691
 20
30.7432257184
  0
LWPOLYLINE
  5
25F
330
228
100
AcDbEntity
  8
0
  6
Continuous
 62
     7
100
AcDbPolyline
 90
        2
 70
     0
 43
0.2
 10
304.3523130691
 20
30.7432257184
 10
304.3523130691
 20
29.7974215212
  0
LWPOLYLINE
  5
260
330
228
100
AcDbEntity
  8
0
  6
Continuous
 62
     7
100
AcDbPolyline
 90
        2
 70
     0
 43
0.2
 10
304.3523130691
 20
29.7974215212
 10
304.5739777495
 20
29.7974215212
  0
LWPOLYLINE
  5
261
330
228
100
AcDbEntity
  8
0
  6
Continuous
 62
     7
100
AcDbPolyline
 90
        2
 70
     0
 43
0.2
 10
304.5739777495
 20
29.7974215212
 10
304.5739777495
 20
30.7432257184
  0
SPLINE
  5
262
330
228
100
AcDbEntity
  8
0
  6
Continuous
 62
     7
100
AcDbSpline
 70
     3
 71
     3
 72
    20
 73
    16
 74
     0
 42
0.000000001
 43
0.0000001
 40
0.0
 40
0.0
 40
0.0
 40
0.0
 40
1.0
 40
1.0
 40
1.0
 40
2.0
 40
2.0
 40
2.0
 40
3.0
 40
3.0
 40
3.0
 40
4.0
 40
4.0
 40
4.0
 40
5.0
 40
5.0
 40
5.0
 40
5.0
 10
292.3559880568
 20
40.1583479646
 30
0.0
 10
292.3559880568
 20
40.1583479646
 30
0.0
 10
294.6723447113
 20
37.3287865423
 30
0.0
 10
294.6723447113
 20
37.3287865423
 30
0.0
 10
294.0206976579
 20
36.6766160776
 30
0.0
 10
293.2438244538
 20
35.9406998069
 30
0.0
 10
292.2726348092
 20
35.9406998069
 30
0.0
 10
291.2740969248
 20
35.9406998069
 30
0.0
 10
290.3307789312
 20
36.8702782542
 30
0.0
 10
290.3307789312
 20
37.8694704027
 30
0.0
 10
290.3307789312
 20
38.8686625512
 30
0.0
 10
291.5096320043
 20
39.5752677899
 30
0.0
 10
292.2311544646
 20
40.0751255698
 30
0.0
 10
292.2311544646
 20
40.0751255698
 30
0.0
 10
292.3559880568
 20
40.1583479646
 30
0.0
 10
292.3559880568
 20
40.1583479646
 30
0.0
  0
SPLINE
  5
263
330
228
100
AcDbEntity
  8
0
  6
Continuous
 62
     7
100
AcDbSpline
 70
     3
 71
     3
 72
    23
 73
    19
 74
     0
 42
0.000000001
 43
0.0000001
 40
0.0
 40
0.0
 40
0.0
 40
0.0
 40
1.0
 40
1.0
 40
1.0
 40
2.0
 40
2.0
 40
2.0
 40
3.0
 40
3.0
 40
3.0
 40
4.0
 40
4.0
 40
4.0
 40
5.0
 40
5.0
 40
5.0
 40
6.0
 40
6.0
 40
6.0
 40
6.0
 10
292.6333960394
 20
41.7961018843
 30
0.0
 10
292.6333960394
 20
41.7961018843
 30
0.0
 10
292.2868977668
 20
42.2394312451
 30
0.0
 10
292.2868977668
 20
42.2394312451
 30
0.0
 10
291.9810947219
 20
42.6275407151
 30
0.0
 10
291.6622063947
 20
43.0160427435
 30
0.0
 10
291.6622063947
 20
43.5429870576
 30
0.0
 10
291.6622063947
 20
44.2091587742
 30
0.0
 10
292.2035445192
 20
44.6528806935
 30
0.0
 10
292.8274507743
 20
44.6528806935
 30
0.0
 10
293.5212324364
 20
44.6528806935
 30
0.0
 10
294.0484384561
 20
44.2506391188
 30
0.0
 10
294.0484384561
 20
43.5156388178
 30
0.0
 10
294.0484384561
 20
42.7523743072
 30
0.0
 10
293.3271777014
 20
42.3222610814
 30
0.0
 10
292.8001025346
 20
41.906541666
 30
0.0
 10
292.8001025346
 20
41.906541666
 30
0.0
 10
292.6333960394
 20
41.7961018843
 30
0.0
 10
292.6333960394
 20
41.7961018843
 30
0.0
  0
SPLINE
  5
264
330
228
100
AcDbEntity
  8
0
  6
Continuous
 62
     7
100
AcDbSpline
 70
     3
 71
     3
 72
    50
 73
    46
 74
     0
 42
0.000000001
 43
0.0000001
 40
0.0
 40
0.0
 40
0.0
 40
0.0
 40
1.0
 40
1.0
 40
1.0
 40
2.0
 40
2.0
 40
2.0
 40
3.0
 40
3.0
 40
3.0
 40
4.0
 40
4.0
 40
4.0
 40
5.0
 40
5.0
 40
5.0
 40
6.0
 40
6.0
 40
6.0
 40
7.0
 40
7.0
 40
7.0
 40
8.0
 40
8.0
 40
8.0
 40
9.0
 40
9.0
 40
9.0
 40
10.0
 40
10.0
 40
10.0
 40
11.0
 40
11.0
 40
11.0
 40
12.0
 40
12.0
 40
12.0
 40
13.0
 40
13.0
 40
13.0
 40
14.0
 40
14.0
 40
14.0
 40
15.0
 40
15.0
 40
15.0
 40
15.0
 10
296.5869832023
 20
34.9975126662
 30
0.0
 10
296.5869832023
 20
34.9975126662
 30
0.0
 10
298.1962112068
 20
34.9975126662
 30
0.0
 10
298.1962112068
 20
34.9975126662
 30
0.0
 10
298.1962112068
 20
34.9975126662
 30
0.0
 10
296.3231839132
 20
37.3146544376
 30
0.0
 10
296.3231839132
 20
37.3146544376
 30
0.0
 10
296.3231839132
 20
37.3146544376
 30
0.0
 10
297.5995223387
 20
38.8121341322
 30
0.0
 10
297.5995223387
 20
38.8121341322
 30
0.0
 10
297.5995223387
 20
38.8121341322
 30
0.0
 10
296.767298391
 20
39.6731457007
 30
0.0
 10
296.767298391
 20
39.6731457007
 30
0.0
 10
296.767298391
 20
39.6731457007
 30
0.0
 10
295.5467032676
 20
38.2578415783
 30
0.0
 10
295.5467032676
 20
38.2578415783
 30
0.0
 10
295.5467032676
 20
38.2578415783
 30
0.0
 10
293.3687888988
 20
40.8932174127
 30
0.0
 10
293.3687888988
 20
40.8932174127
 30
0.0
 10
294.2423623383
 20
41.5312557726
 30
0.0
 10
295.2690335794
 20
42.3222610814
 30
0.0
 10
295.2690335794
 20
43.5011141545
 30
0.0
 10
295.2690335794
 20
44.8748070796
 30
0.0
 10
294.1311374396
 20
45.679290229
 30
0.0
 10
292.8558458367
 20
45.679290229
 30
0.0
 10
291.4824146173
 20
45.679290229
 30
0.0
 10
290.4414804186
 20
44.8330650294
 30
0.0
 10
290.4414804186
 20
43.3904126672
 30
0.0
 10
290.4414804186
 20
42.5028379758
 30
0.0
 10
290.996819795
 20
41.7259647717
 30
0.0
 10
291.5929852519
 20
41.1015351053
 30
0.0
 10
291.5929852519
 20
41.1015351053
 30
0.0
 10
290.9410764929
 20
40.6299415349
 30
0.0
 10
290.9410764929
 20
40.6299415349
 30
0.0
 10
289.9425386084
 20
39.9086807802
 30
0.0
 10
289.1096603966
 20
39.1874200256
 30
0.0
 10
289.1096603966
 20
37.8558617092
 30
0.0
 10
289.1096603966
 20
36.0521864112
 30
0.0
 10
290.5667065692
 20
34.7755862801
 30
0.0
 10
292.3142460066
 20
34.7755862801
 30
0.0
 10
293.5491040875
 20
34.7755862801
 30
0.0
 10
294.6584743121
 20
35.4837617526
 30
0.0
 10
295.4493487681
 20
36.4122933773
 30
0.0
 10
295.4493487681
 20
36.4122933773
 30
0.0
 10
296.5869832023
 20
34.9975126662
 30
0.0
 10
296.5869832023
 20
34.9975126662
 30
0.0
  0
LINE
  5
265
330
228
100
AcDbEntity
  8
0
  6
Continuous
 62
     7
100
AcDbLine
 10
282.3898445773
 20
32.9713875708
 30
0.0
 11
304.8037553049
 21
32.9713875708
 31
0.0
  0
LINE
  5
266
330
228
100
AcDbEntity
  8
0
  6
Continuous
 62
     7
100
AcDbLine
 10
304.8037553049
 20
32.9713875708
 30
0.0
 11
304.8037553049
 21
55.3852982985
 31
0.0
  0
LINE
  5
267
330
228
100
AcDbEntity
  8
0
  6
Continuous
 62
     7
100
AcDbLine
 10
304.8037553049
 20
55.3852982985
 30
0.0
 11
282.3898445773
 21
55.3852982985
 31
0.0
  0
LINE
  5
268
330
228
100
AcDbEntity
  8
0
  6
Continuous
 62
     7
100
AcDbLine
 10
282.3898445773
 20
55.3852982985
 30
0.0
 11
282.3898445773
 21
32.9713875708
 31
0.0
  0
ENDBLK
  5
269
330
228
100
AcDbEntity
  8
0
  6
ByBlock
 62
     0
100
AcDbBlockEnd
  0
BLOCK
  5
26A
330
229
100
AcDbEntity
  8
0
100
AcDbBlockBegin
  2
PROIEZIONE_EU_BL0
 70
     0
 10
294.7706874699
 20
67.8866107985
 30
0.0
  3
PROIEZIONE_EU_BL0
  1

  0
LWPOLYLINE
  5
26B
330
229
100
AcDbEntity
  8
DEFAULT_1
  6
CENTER
 62
     7
100
AcDbPolyline
 90
        2
 70
     0
 43
0.25
 10
300.8973081316
 20
72.8863049303
 10
300.8973491139
 20
62.8869166666
  0
LWPOLYLINE
  5
26C
330
229
100
AcDbEntity
  8
DEFAULT_1
  6
CENTER
 62
     7
100
AcDbPolyline
 90
        2
 70
     0
 43
0.25
 10
306.8973379566
 20
67.8868819336
 10
282.6440369832
 20
67.8866112732
  0
LWPOLYLINE
  5
26D
330
229
100
AcDbEntity
  8
0
  6
Continuous
 62
     7
100
AcDbPolyline
 90
        2
 70
     1
 43
0.25
 10
297.3501979558
 20
67.8680630443
 42
1.0
 10
304.4565270544
 20
67.8680630443
 42
1.0
  0
LWPOLYLINE
  5
26E
330
229
100
AcDbEntity
  8
0
  6
Continuous
 62
     7
100
AcDbPolyline
 90
        2
 70
     1
 43
0.25
 10
298.8999417842
 20
67.8859610889
 42
1.0
 10
302.9116935342
 20
67.8859610889
 42
1.0
  0
LWPOLYLINE
  5
26F
330
229
100
AcDbEntity
  8
0
  6
Continuous
 62
     7
100
AcDbPolyline
 90
        2
 70
     0
 43
0.25
 10
294.8973357506
 20
71.4618142937
 10
294.897335396
 20
64.3616113854
  0
LWPOLYLINE
  5
270
330
229
100
AcDbEntity
  8
0
  6
Continuous
 62
     7
100
AcDbPolyline
 90
        2
 70
     0
 43
0.25
 10
294.8973638324
 20
64.361582949
 10
284.9028065613
 20
65.8816763619
  0
LWPOLYLINE
  5
271
330
229
100
AcDbEntity
  8
0
  6
Continuous
 62
     7
100
AcDbPolyline
 90
        2
 70
     0
 43
0.25
 10
284.9004965757
 20
65.8809988203
 10
284.8978296716
 20
69.8866374317
  0
LWPOLYLINE
  5
272
330
229
100
AcDbEntity
  8
0
  6
Continuous
 62
     7
100
AcDbPolyline
 90
        2
 70
     0
 43
0.25
 10
284.8978213955
 20
69.8866291557
 10
294.8975646328
 20
71.4617863757
  0
ENDBLK
  5
273
330
229
100
AcDbEntity
  8
0
  6
ByBlock
 62
     0
100
AcDbBlockEnd
  0
ENDSEC
  0
SECTION
  2
ENTITIES
  0
LINE
  5
2A9
330
1B
100
AcDbEntity
 67
     1
  8
0
  6
Continuous
 62
     7
100
AcDbLine
 10
0.0
 20
0.0
 30
0.0
 11
420.0
 21
0.0
 31
0.0
  0
LINE
  5
2AA
330
1B
100
AcDbEntity
 67
     1
  8
0
  6
Continuous
 62
     7
100
AcDbLine
 10
420.0
 20
0.0
 30
0.0
 11
420.0
 21
297.0
 31
0.0
  0
LINE
  5
2AB
330
1B
100
AcDbEntity
 67
     1
  8
0
  6
Continuous
 62
     7
100
AcDbLine
 10
0.0
 20
297.0
 30
0.0
 11
420.0
 21
297.0
 31
0.0
  0
LINE
  5
2AC
330
1B
100
AcDbEntity
 67
     1
  8
0
  6
Continuous
 62
     7
100
AcDbLine
 10
0.0
 20
0.0
 30
0.0
 11
0.0
 21
297.0
 31
0.0
  0
LWPOLYLINE
  5
2AD
330
1B
100
AcDbEntity
 67
     1
  8
0
  6
Continuous
 62
     7
100
AcDbPolyline
 90
        2
 70
     0
 43
0.5
 10
410.0
 20
10.0318435754
 10
410.0
 20
287.0
  0
LWPOLYLINE
  5
2AE
330
1B
100
AcDbEntity
 67
     1
  8
0
  6
Continuous
 62
     7
100
AcDbPolyline
 90
        2
 70
     0
 43
0.5
 10
10.0536312849
 20
10.0318435754
 10
10.0536312849
 20
287.0
  0
LWPOLYLINE
  5
2AF
330
1B
100
AcDbEntity
 67
     1
  8
0
  6
Continuous
 62
     7
100
AcDbPolyline
 90
        2
 70
     0
 43
0.5
 10
10.0536312849
 20
10.0318435754
 10
410.0
 20
10.0318435754
  0
LWPOLYLINE
  5
2B0
330
1B
100
AcDbEntity
 67
     1
  8
0
  6
Continuous
 62
     7
100
AcDbPolyline
 90
        2
 70
     0
 43
0.1
 10
210.0
 20
10.0
 10
210.0
 20
0.0
  0
LWPOLYLINE
  5
2B1
330
1B
100
AcDbEntity
 67
     1
  8
0
  6
Continuous
 62
     7
100
AcDbPolyline
 90
        2
 70
     0
 43
0.1
 10
210.0
 20
287.0
 10
210.0
 20
297.0
  0
LWPOLYLINE
  5
2B2
330
1B
100
AcDbEntity
 67
     1
  8
0
  6
Continuous
 62
     7
100
AcDbPolyline
 90
        2
 70
     0
 43
0.1
 10
410.0
 20
148.5
 10
420.0
 20
148.5
  0
LWPOLYLINE
  5
2B3
330
1B
100
AcDbEntity
 67
     1
  8
0
  6
Continuous
 62
     7
100
AcDbPolyline
 90
        2
 70
     0
 43
0.1
 10
10.0
 20
148.5
 10
0.0
 20
148.5
  0
LWPOLYLINE
  5
2B4
330
1B
100
AcDbEntity
 67
     1
  8
0
  6
Continuous
 62
     7
100
AcDbPolyline
 90
        2
 70
     0
 43
0.5
 10
10.0536312849
 20
287.0
 10
410.0
 20
287.0
  0
LWPOLYLINE
  5
2B5
330
1B
100
AcDbEntity
 67
     1
  8
0
  6
Continuous
 62
     7
100
AcDbPolyline
 90
        2
 70
     0
 43
0.1
 10
0.0
 20
290.0
 10
420.0
 20
290.0
  0
LWPOLYLINE
  5
2B6
330
1B
100
AcDbEntity
 67
     1
  8
0
  6
Continuous
 62
     7
100
AcDbPolyline
 90
        2
 70
     0
 43
0.1
 10
7.0536312849
 20
0.0
 10
7.0536312849
 20
297.0
  0
LWPOLYLINE
  5
2B7
330
1B
100
AcDbEntity
 67
     1
  8
0
  6
Continuous
 62
     7
100
AcDbPolyline
 90
        2
 70
     0
 43
0.1
 10
413.0
 20
0.0
 10
413.0
 20
297.0
  0
LWPOLYLINE
  5
2B8
330
1B
100
AcDbEntity
 67
     1
  8
0
  6
Continuous
 62
     7
100
AcDbPolyline
 90
        2
 70
     0
 43
0.1
 10
0.0
 20
7.0318435754
 10
420.0
 20
7.0318435754
  0
LWPOLYLINE
  5
2B9
330
1B
100
AcDbEntity
 67
     1
  8
0
  6
Continuous
 62
     7
100
AcDbPolyline
 90
        2
 70
     0
 43
0.1
 10
10.0
 20
202.9681564246
 10
0.0
 20
202.9681564246
  0
LINE
  5
2BA
330
1B
100
AcDbEntity
 67
     1
  8
0
  6
Continuous
 62
     7
100
AcDbLine
 10
0.0
 20
99.9681564246
 30
0.0
 11
7.0
 21
99.9681564246
 31
0.0
  0
LINE
  5
2BB
330
1B
100
AcDbEntity
 67
     1
  8
0
  6
Continuous
 62
     7
100
AcDbLine
 10
0.0
 20
199.9681564246
 30
0.0
 11
7.0
 21
199.9681564246
 31
0.0
  0
LWPOLYLINE
  5
2BC
330
1B
100
AcDbEntity
 67
     1
  8
0
  6
Continuous
 62
     7
100
AcDbPolyline
 90
        2
 70
     0
 43
0.1
 10
410.0
 20
210.0
 10
420.0
 20
210.0
  0
LINE
  5
2BD
330
1B
100
AcDbEntity
 67
     1
  8
0
  6
Continuous
 62
     7
100
AcDbLine
 10
413.0
 20
107.0
 30
0.0
 11
420.0
 21
107.0
 31
0.0
  0
LWPOLYLINE
  5
2BE
330
1B
100
AcDbEntity
 67
     1
  8
0
  6
Continuous
 62
     7
100
AcDbPolyline
 90
        2
 70
     0
 43
0.1
 10
123.0
 20
10.0
 10
123.0
 20
0.0
  0
LINE
  5
2BF
330
1B
100
AcDbEntity
 67
     1
  8
0
  6
Continuous
 62
     7
100
AcDbLine
 10
210.0
 20
0.0
 30
0.0
 11
210.0
 21
10.0
 31
0.0
  0
LINE
  5
2C0
330
1B
100
AcDbEntity
 67
     1
  8
0
  6
Continuous
 62
     7
100
AcDbLine
 10
313.0
 20
7.0
 30
0.0
 11
313.0
 21
0.0
 31
0.0
  0
LINE
  5
2C1
330
1B
100
AcDbEntity
 67
     1
  8
0
  6
Continuous
 62
     7
100
AcDbLine
 10
113.0
 20
7.0
 30
0.0
 11
113.0
 21
0.0
 31
0.0
  0
LWPOLYLINE
  5
2C2
330
1B
100
AcDbEntity
 67
     1
  8
0
  6
Continuous
 62
     7
100
AcDbPolyline
 90
        2
 70
     0
 43
0.1
 10
123.0
 20
287.0
 10
123.0
 20
297.0
  0
LINE
  5
2C3
330
1B
100
AcDbEntity
 67
     1
  8
0
  6
Continuous
 62
     7
100
AcDbLine
 10
210.0
 20
287.0
 30
0.0
 11
210.0
 21
297.0
 31
0.0
  0
LINE
  5
2C4
330
1B
100
AcDbEntity
 67
     1
  8
0
  6
Continuous
 62
     7
100
AcDbLine
 10
313.0
 20
297.0
 30
0.0
 11
313.0
 21
290.0
 31
0.0
  0
LINE
  5
2C5
330
1B
100
AcDbEntity
 67
     1
  8
0
  6
Continuous
 62
     7
100
AcDbLine
 10
113.0
 20
297.0
 30
0.0
 11
113.0
 21
290.0
 31
0.0
  0
MTEXT
  5
2C6
330
1B
100
AcDbEntity
 67
     1
  8
0
  6
Continuous
 62
     2
100
AcDbMText
 10
1.6467220993
 20
53.595027386
 30
0.0
 40
4.0
 41
3.4285714286
 46
0.0
 71
     1
 72
     1
  1
1
  7
TEXTSTYLE_2
 73
     1
 44
1.0
  0
MTEXT
  5
2C7
330
1B
100
AcDbEntity
 67
     1
  8
0
  6
Continuous
 62
     2
100
AcDbMText
 10
1.6467220993
 20
153.595027386
 30
0.0
 40
4.0
 41
4.7142857143
 46
0.0
 71
     1
 72
     1
  1
2
  7
TEXTSTYLE_2
 73
     1
 44
1.0
  0
MTEXT
  5
2C8
330
1B
100
AcDbEntity
 67
     1
  8
0
  6
Continuous
 62
     2
100
AcDbMText
 10
1.6467220993
 20
253.595027386
 30
0.0
 40
4.0
 41
4.2857142857
 46
0.0
 71
     1
 72
     1
  1
3
  7
TEXTSTYLE_2
 73
     1
 44
1.0
  0
MTEXT
  5
2C9
330
1B
100
AcDbEntity
 67
     1
  8
0
  6
Continuous
 62
     2
100
AcDbMText
 10
414.6467220993
 20
60.6268709614
 30
0.0
 40
4.0
 41
3.4285714286
 46
0.0
 71
     1
 72
     1
  1
1
  7
TEXTSTYLE_2
 73
     1
 44
1.0
  0
MTEXT
  5
2CA
330
1B
100
AcDbEntity
 67
     1
  8
0
  6
Continuous
 62
     2
100
AcDbMText
 10
414.6467220993
 20
160.6268709614
 30
0.0
 40
4.0
 41
4.7142857143
 46
0.0
 71
     1
 72
     1
  1
2
  7
TEXTSTYLE_2
 73
     1
 44
1.0
  0
MTEXT
  5
2CB
330
1B
100
AcDbEntity
 67
     1
  8
0
  6
Continuous
 62
     2
100
AcDbMText
 10
414.6467220993
 20
260.6268709614
 30
0.0
 40
4.0
 41
4.2857142857
 46
0.0
 71
     1
 72
     1
  1
3
  7
TEXTSTYLE_2
 73
     1
 44
1.0
  0
MTEXT
  5
2CC
330
1B
100
AcDbEntity
 67
     1
  8
0
  6
Continuous
 62
     2
100
AcDbMText
 10
362.154890719
 20
5.35876025
 30
0.0
 40
4.0
 41
3.6
 46
0.0
 71
     1
 72
     1
  1
A
  7
TEXTSTYLE_3
 73
     1
 44
1.0
  0
MTEXT
  5
2CD
330
1B
100
AcDbEntity
 67
     1
  8
0
  6
Continuous
 62
     2
100
AcDbMText
 10
262.154890719
 20
5.35876025
 30
0.0
 40
4.0
 41
3.6
 46
0.0
 71
     1
 72
     1
  1
B
  7
TEXTSTYLE_3
 73
     1
 44
1.0
  0
MTEXT
  5
2CE
330
1B
100
AcDbEntity
 67
     1
  8
0
  6
Continuous
 62
     2
100
AcDbMText
 10
162.154890719
 20
5.35876025
 30
0.0
 40
4.0
 41
3.6
 46
0.0
 71
     1
 72
     1
  1
C
  7
TEXTSTYLE_3
 73
     1
 44
1.0
  0
MTEXT
  5
2CF
330
1B
100
AcDbEntity
 67
     1
  8
0
  6
Continuous
 62
     2
100
AcDbMText
 10
55.7978688212
 20
5.5353441916
 30
0.0
 40
4.0
 41
3.6
 46
0.0
 71
     1
 72
     1
  1
D
  7
TEXTSTYLE_3
 73
     1
 44
1.0
  0
MTEXT
  5
2D0
330
1B
100
AcDbEntity
 67
     1
  8
0
  6
Continuous
 62
     2
100
AcDbMText
 10
362.154890719
 20
295.35876025
 30
0.0
 40
4.0
 41
3.6
 46
0.0
 71
     1
 72
     1
  1
A
  7
TEXTSTYLE_3
 73
     1
 44
1.0
  0
MTEXT
  5
2D1
330
1B
100
AcDbEntity
 67
     1
  8
0
  6
Continuous
 62
     2
100
AcDbMText
 10
262.154890719
 20
295.35876025
 30
0.0
 40
4.0
 41
3.6
 46
0.0
 71
     1
 72
     1
  1
B
  7
TEXTSTYLE_3
 73
     1
 44
1.0
  0
MTEXT
  5
2D2
330
1B
100
AcDbEntity
 67
     1
  8
0
  6
Continuous
 62
     2
100
AcDbMText
 10
162.154890719
 20
295.35876025
 30
0.0
 40
4.0
 41
3.6
 46
0.0
 71
     1
 72
     1
  1
C
  7
TEXTSTYLE_3
 73
     1
 44
1.0
  0
MTEXT
  5
2D3
330
1B
100
AcDbEntity
 67
     1
  8
0
  6
Continuous
 62
     2
100
AcDbMText
 10
53.9878834197
 20
295.579490177
 30
0.0
 40
4.0
 41
3.6
 46
0.0
 71
     1
 72
     1
  1
D
  7
TEXTSTYLE_3
 73
     1
 44
1.0
  0
VIEWPORT
  5
2D4
330
1B
100
AcDbEntity
 67
     1
  8
0
100
AcDbViewport
 10
0.0
 20
0.0
 30
0.0
 40
495.0770428015564
 41
350.0901945525292
 68
     1
 69
     1
 12
234.0175097276264
 22
148.5
 13
0.0
 23
0.0
 14
1.0
 24
1.0
 15
0.0
 25
0.0
 16
0.0
 26
0.0
 36
1.0
 17
0.0
 27
0.0
 37
0.0
 42
50.0
 43
0.0
 44
0.0
 45
350.0901945525292
 50
0.0
 51
0.0
 72
   100
 90
   557216
  1

281
     0
 71
     1
 74
     0
110
0.0
120
0.0
130
0.0
111
1.0
121
0.0
131
0.0
112
0.0
122
1.0
132
0.0
 79
     0
146
0.0
170
     0
 61
     5
348
58E
292
     1
282
     1
141
0.0
142
0.0
 63
   256
  0
LINE
  5
2D5
330
1B
100
AcDbEntity
 67
     1
  8
06___PRT_ALL_SURFS
  6
Continuous
 62
     7
100
AcDbLine
 10
191.711275559
 20
162.9711458575
 30
0.0
 11
192.6283723048
 21
162.5434966216
 31
0.0
  0
LINE
  5
2D6
330
1B
100
AcDbEntity
 67
     1
  8
06___PRT_ALL_SURFS
  6
Continuous
 62
     7
100
AcDbLine
 10
193.0129643059
 20
162.9158473858
 30
0.0
 11
192.09586756
 21
163.3434966216
 31
0.0
  0
LINE
  5
2D7
330
1B
100
AcDbEntity
 67
     1
  8
06___PRT_ALL_SURFS
  6
Continuous
 62
     7
100
AcDbLine
 10
192.839334293
 20
162.5434966216
 30
0.0
 11
193.0129643059
 21
162.9158473858
 31
0.0
  0
LINE
  5
2D8
330
1B
100
AcDbEntity
 67
     1
  8
06___PRT_ALL_SURFS
  6
Continuous
 62
     7
100
AcDbLine
 10
191.711275559
 20
162.9711458575
 30
0.0
 11
191.8849055718
 21
163.3434966216
 31
0.0
  0
SPLINE
  5
2D9
330
1B
100
AcDbEntity
 67
     1
  8
06___PRT_ALL_SURFS
  6
Continuous
 62
     7
100
AcDbSpline
 70
     0
 71
     3
 72
    12
 73
     8
 74
     0
 42
0.000000001
 43
0.0000001
 40
0.0
 40
0.0
 40
0.0
 40
0.0
 40
0.1160236383
 40
0.2351566999
 40
0.4819172091
 40
0.7370840952
 40
1.0
 40
1.0
 40
1.0
 40
1.0
 10
190.3183736346
 20
162.9711458575
 30
0.0
 10
190.3478698207
 20
162.9533963682
 30
0.0
 10
190.4076834519
 20
162.9174701167
 30
0.0
 10
190.5313448238
 20
162.8456739901
 30
0.0
 10
190.692360596
 20
162.7560362895
 30
0.0
 10
190.8923745753
 20
162.6488161813
 30
0.0
 10
191.0290517934
 20
162.5784459495
 30
0.0
 10
191.0987751491
 20
162.5434603928
 30
0.0
  0
LINE
  5
2DA
330
1B
100
AcDbEntity
 67
     1
  8
06___PRT_ALL_SURFS
  6
Continuous
 62
     7
100
AcDbLine
 10
190.3183736346
 20
162.9711458575
 30
0.0
 11
190.4687416366
 21
163.3434966216
 31
0.0
  0
LINE
  5
2DB
330
1B
100
AcDbEntity
 67
     1
  8
7_ALL_FEATURES
  6
Continuous
 62
     7
100
AcDbLine
 10
191.9467670564
 20
162.8613343688
 30
0.0
 11
191.9076581651
 21
162.7644904566
 31
0.0
  0
ARC
  5
2DC
330
1B
100
AcDbEntity
 67
     1
  8
7_ALL_FEATURES
  6
Continuous
 62
     7
100
AcDbCircle
 10
196.4968294541
 20
172.6186571621
 30
0.0
 40
10.7081675406
100
AcDbArc
 50
242.68315079
 51
243.6083917587
  0
SPLINE
  5
2DD
330
1B
100
AcDbEntity
 67
     1
  8
06___PRT_ALL_SURFS
  6
Continuous
 62
     7
100
AcDbSpline
 70
     0
 71
     3
 72
    14
 73
    10
 74
     0
 42
0.000000001
 43
0.0000001
 40
0.0
 40
0.0
 40
0.0
 40
0.0
 40
0.1084535842
 40
0.2219617068
 40
0.3407563048
 40
0.4642962932
 40
0.5919413335
 40
0.7234005142
 40
1.0
 40
1.0
 40
1.0
 40
1.0
 10
189.4730918803
 20
162.9711458575
 30
0.0
 10
189.4861742093
 20
162.9533182312
 30
0.0
 10
189.5130962764
 20
162.916920756
 30
0.0
 10
189.5578182521
 20
162.8636979086
 30
0.0
 10
189.6069968127
 20
162.8103304267
 30
0.0
 10
189.6602610255
 20
162.7568904596
 30
0.0
 10
189.7169881391
 20
162.7033149848
 30
0.0
 10
189.7983187813
 20
162.6303955948
 30
0.0
 10
189.8628184064
 20
162.5777242353
 30
0.0
 10
189.9076125148
 20
162.5434603928
 30
0.0
  0
LINE
  5
2DE
330
1B
100
AcDbEntity
 67
     1
  8
06___PRT_ALL_SURFS
  6
Continuous
 62
     7
100
AcDbLine
 10
189.4730918803
 20
162.9711458575
 30
0.0
 11
189.5599068867
 21
163.3434966216
 31
0.0
  0
SPLINE
  5
2DF
330
1B
100
AcDbEntity
 67
     1
  8
06___PRT_ALL_SURFS
  6
Continuous
 62
     7
100
AcDbSpline
 70
     0
 71
     3
 72
    14
 73
    10
 74
     0
 42
0.000000001
 43
0.0000001
 40
0.0
 40
0.0
 40
0.0
 40
0.0
 40
0.1084579597
 40
0.2219648106
 40
0.3407574466
 40
0.4642973123
 40
0.5919431673
 40
0.7234030383
 40
1.0
 40
1.0
 40
1.0
 40
1.0
 10
195.2511485029
 20
162.9158473858
 30
0.0
 10
195.2380645684
 20
162.9336748529
 30
0.0
 10
195.2111403034
 20
162.9700712414
 30
0.0
 10
195.166420053
 20
163.0232954658
 30
0.0
 10
195.1172430796
 20
163.0766632206
 30
0.0
 10
195.0639792011
 20
163.1301028219
 30
0.0
 10
195.0072518117
 20
163.183678058
 30
0.0
 10
194.9259212833
 20
163.2565967208
 30
0.0
 10
194.8614232045
 20
163.3092689207
 30
0.0
 10
194.816630046
 20
163.3435328619
 30
0.0
  0
LINE
  5
2E0
330
1B
100
AcDbEntity
 67
     1
  8
06___PRT_ALL_SURFS
  6
Continuous
 62
     7
100
AcDbLine
 10
195.1643334965
 20
162.5434966216
 30
0.0
 11
195.2511485029
 21
162.9158473858
 31
0.0
  0
SPLINE
  5
2E1
330
1B
100
AcDbEntity
 67
     1
  8
06___PRT_ALL_SURFS
  6
Continuous
 62
     7
100
AcDbSpline
 70
     0
 71
     3
 72
    12
 73
     8
 74
     0
 42
0.000000001
 43
0.0000001
 40
0.0
 40
0.0
 40
0.0
 40
0.0
 40
0.1160263303
 40
0.2351585512
 40
0.4819175933
 40
0.7370850725
 40
1.0
 40
1.0
 40
1.0
 40
1.0
 10
194.4058665295
 20
162.9158473858
 30
0.0
 10
194.3763694333
 20
162.933596827
 30
0.0
 10
194.3165549444
 20
162.9695225356
 30
0.0
 10
194.1928942005
 20
163.0413195956
 30
0.0
 10
194.0318792526
 20
163.1309572827
 30
0.0
 10
193.8318656845
 20
163.2381763723
 30
0.0
 10
193.6951891383
 20
163.3085472247
 30
0.0
 10
193.6254662581
 20
163.3435328619
 30
0.0
  0
LINE
  5
2E2
330
1B
100
AcDbEntity
 67
     1
  8
06___PRT_ALL_SURFS
  6
Continuous
 62
     7
100
AcDbLine
 10
194.2554985275
 20
162.5434966216
 30
0.0
 11
194.4058665295
 21
162.9158473858
 31
0.0
  0
LINE
  5
2E3
330
1B
100
AcDbEntity
 67
     1
  8
7_ALL_FEATURES
  6
Continuous
 62
     7
100
AcDbLine
 10
192.7774720437
 20
163.0256592311
 30
0.0
 11
192.816575599
 21
163.1224899299
 31
0.0
  0
ARC
  5
2E4
330
1B
100
AcDbEntity
 67
     1
  8
7_ALL_FEATURES
  6
Continuous
 62
     7
100
AcDbCircle
 10
188.2224562901
 20
153.2586620976
 30
0.0
 40
10.7190354463
100
AcDbArc
 50
62.68371688
 51
63.6076568093
  0
LINE
  5
2E5
330
1B
100
AcDbEntity
 67
     1
  8
06___PRT_ALL_SURFS
  6
Continuous
 62
     7
100
AcDbLine
 10
189.3524111025
 20
163.170068962
 30
0.0
 11
189.3524111025
 21
162.7169150685
 31
0.0
  0
SPLINE
  5
2E6
330
1B
100
AcDbEntity
 67
     1
  8
06___PRT_ALL_SURFS
  6
Continuous
 62
     7
100
AcDbSpline
 70
     0
 71
     3
 72
     9
 73
     5
 74
     0
 42
0.000000001
 43
0.0000001
 40
0.0
 40
0.0
 40
0.0
 40
0.0
 40
0.4965981003
 40
1.0
 40
1.0
 40
1.0
 40
1.0
 10
189.3524111025
 20
163.170068962
 30
0.0
 10
189.3524111025
 20
163.1990719432
 30
0.0
 10
189.3554497192
 20
163.2575453709
 30
0.0
 10
189.3664292104
 20
163.3151589717
 30
0.0
 10
189.3741300337
 20
163.3435328619
 30
0.0
  0
SPLINE
  5
2E7
330
1B
100
AcDbEntity
 67
     1
  8
06___PRT_ALL_SURFS
  6
Continuous
 62
     7
100
AcDbSpline
 70
     0
 71
     3
 72
     9
 73
     5
 74
     0
 42
0.000000001
 43
0.0000001
 40
0.0
 40
0.0
 40
0.0
 40
0.0
 40
0.4965966699
 40
1.0
 40
1.0
 40
1.0
 40
1.0
 10
189.3524111025
 20
162.7169150685
 30
0.0
 10
189.3524111025
 20
162.6879135915
 30
0.0
 10
189.3554491864
 20
162.6294428686
 30
0.0
 10
189.366431732
 20
162.571832713
 30
0.0
 10
189.3741331609
 20
162.5434603928
 30
0.0
  0
LINE
  5
2E8
330
1B
100
AcDbEntity
 67
     1
  8
06___PRT_ALL_SURFS
  6
Continuous
 62
     7
100
AcDbLine
 10
195.3718287624
 20
162.7169150685
 30
0.0
 11
195.3718287624
 21
163.170068962
 31
0.0
  0
SPLINE
  5
2E9
330
1B
100
AcDbEntity
 67
     1
  8
06___PRT_ALL_SURFS
  6
Continuous
 62
     7
100
AcDbSpline
 70
     0
 71
     3
 72
     9
 73
     5
 74
     0
 42
0.000000001
 43
0.0000001
 40
0.0
 40
0.0
 40
0.0
 40
0.0
 40
0.4965966699
 40
1.0
 40
1.0
 40
1.0
 40
1.0
 10
195.3718287624
 20
162.7169150685
 30
0.0
 10
195.3718287624
 20
162.6879135915
 30
0.0
 10
195.3687906784
 20
162.6294428686
 30
0.0
 10
195.3578081328
 20
162.571832713
 30
0.0
 10
195.350106704
 20
162.5434603928
 30
0.0
  0
SPLINE
  5
2EA
330
1B
100
AcDbEntity
 67
     1
  8
06___PRT_ALL_SURFS
  6
Continuous
 62
     7
100
AcDbSpline
 70
     0
 71
     3
 72
     9
 73
     5
 74
     0
 42
0.000000001
 43
0.0000001
 40
0.0
 40
0.0
 40
0.0
 40
0.0
 40
0.4965981003
 40
1.0
 40
1.0
 40
1.0
 40
1.0
 10
195.3718287624
 20
163.170068962
 30
0.0
 10
195.3718287624
 20
163.1990719432
 30
0.0
 10
195.3687901457
 20
163.2575453709
 30
0.0
 10
195.3578106545
 20
163.3151589717
 30
0.0
 10
195.3501098311
 20
163.3435328619
 30
0.0
  0
SPLINE
  5
2EB
330
1B
100
AcDbEntity
 67
     1
  8
06___PRT_ALL_SURFS
  6
Continuous
 62
     7
100
AcDbSpline
 70
     0
 71
     3
 72
    12
 73
     8
 74
     0
 42
0.000000001
 43
0.0000001
 40
0.0
 40
0.0
 40
0.0
 40
0.0
 40
0.1293635823
 40
0.2572550643
 40
0.5081269881
 40
0.7548702389
 40
1.0
 40
1.0
 40
1.0
 40
1.0
 10
189.4019222609
 20
162.9158473858
 30
0.0
 10
189.3978313606
 20
162.926318781
 30
0.0
 10
189.3896703461
 20
162.947135961
 30
0.0
 10
189.3754814721
 20
162.9889726538
 30
0.0
 10
189.3625507873
 20
163.041903893
 30
0.0
 10
189.3540456543
 20
163.1059919513
 30
0.0
 10
189.3524111025
 20
163.1487663539
 30
0.0
 10
189.3524111025
 20
163.170068962
 30
0.0
  0
SPLINE
  5
2EC
330
1B
100
AcDbEntity
 67
     1
  8
06___PRT_ALL_SURFS
  6
Continuous
 62
     7
100
AcDbSpline
 70
     0
 71
     3
 72
    12
 73
     8
 74
     0
 42
0.000000001
 43
0.0000001
 40
0.0
 40
0.0
 40
0.0
 40
0.0
 40
0.1293667377
 40
0.2572588084
 40
0.5081281894
 40
0.754870567
 40
1.0
 40
1.0
 40
1.0
 40
1.0
 10
195.3223170054
 20
162.9711458575
 30
0.0
 10
195.3264091736
 20
162.9606742067
 30
0.0
 10
195.3345726926
 20
162.939856743
 30
0.0
 10
195.3487632245
 20
162.8980186523
 30
0.0
 10
195.3616904097
 20
162.8450846009
 30
0.0
 10
195.3701941413
 20
162.7809943679
 30
0.0
 10
195.3718287624
 20
162.7382184537
 30
0.0
 10
195.3718287624
 20
162.7169150685
 30
0.0
  0
LINE
  5
2ED
330
1B
100
AcDbEntity
 67
     1
  8
06___PRT_ALL_SURFS
  6
Continuous
 62
     7
100
AcDbLine
 10
189.4019222609
 20
162.5434966216
 30
0.0
 11
189.4019222609
 21
162.9158473858
 31
0.0
  0
LINE
  5
2EE
330
1B
100
AcDbEntity
 67
     1
  8
06___PRT_ALL_SURFS
  6
Continuous
 62
     7
100
AcDbLine
 10
195.3223170054
 20
162.9711458575
 30
0.0
 11
195.3223170054
 21
163.3434966216
 31
0.0
  0
LINE
  5
2EF
330
1B
100
AcDbEntity
 67
     1
  8
06___PRT_ALL_SURFS
  6
Continuous
 62
     7
100
AcDbLine
 10
195.3223170054
 20
162.9711458575
 30
0.0
 11
195.2090771638
 21
162.9711458575
 31
0.0
  0
ELLIPSE
  5
2F0
330
1B
100
AcDbEntity
 67
     1
  8
7_ALL_FEATURES
  6
Continuous
 62
     7
100
AcDbEllipse
 10
192.3621199324
 20
163.2193411014
 30
0.0
 11
1.992928022
 21
-0.8439921357
 31
0.0
210
0.0
220
0.0
230
1.0
 40
0.1991029947
 41
-2.1437978282
 42
-1.8869740322
  0
ELLIPSE
  5
2F1
330
1B
100
AcDbEntity
 67
     1
  8
7_ALL_FEATURES
  6
Continuous
 62
     7
100
AcDbEllipse
 10
192.3621199324
 20
162.6676521419
 30
0.0
 11
1.992928022
 21
-0.8439921357
 31
0.0
210
0.0
220
0.0
230
1.0
 40
0.1991029947
 41
0.9977948254
 42
1.2546516394
  0
ELLIPSE
  5
2F2
330
1B
100
AcDbEntity
 67
     1
  8
7_ALL_FEATURES
  6
Continuous
 62
     7
100
AcDbEllipse
 10
192.3621199324
 20
161.5201071228
 30
0.0
 11
1.8099469758
 21
4.2738479352
 31
0.0
210
0.0
220
0.0
230
1.0
 40
0.1991029947
 41
1.3605506398
 42
1.4139848285
  0
SPLINE
  5
2F3
330
1B
100
AcDbEntity
 67
     1
  8
06___PRT_ALL_SURFS
  6
Continuous
 62
     7
100
AcDbSpline
 70
     0
 71
     3
 72
    13
 73
     9
 74
     0
 42
0.000000001
 43
0.0000001
 40
0.0
 40
0.0
 40
0.0
 40
0.0
 40
0.1404073037
 40
0.2762348465
 40
0.5335672423
 40
0.6561893755
 40
0.7751823946
 40
1.0
 40
1.0
 40
1.0
 40
1.0
 10
194.6003036111
 20
162.9711458575
 30
0.0
 10
194.6249881001
 20
162.9536476105
 30
0.0
 10
194.6735177372
 20
162.9191621066
 30
0.0
 10
194.764907945
 20
162.8493515981
 30
0.0
 10
194.8499712527
 20
162.7776842336
 30
0.0
 10
194.9291123206
 20
162.7048804088
 30
0.0
 10
195.0012600114
 20
162.6348953008
 30
0.0
 10
195.0518577689
 20
162.5806085768
 30
0.0
 10
195.0829574155
 20
162.5434603928
 30
0.0
  0
ELLIPSE
  5
2F4
330
1B
100
AcDbEntity
 67
     1
  8
7_ALL_FEATURES
  6
Continuous
 62
     7
100
AcDbEllipse
 10
192.3621199324
 20
161.5201071228
 30
0.0
 11
1.1745833705
 21
4.265790834999999
 31
0.0
210
0.0
220
0.0
230
1.0
 40
0.3794725964
 41
1.4150562
 42
1.4339747831
  0
LINE
  5
2F5
330
1B
100
AcDbEntity
 67
     1
  8
06___PRT_ALL_SURFS
  6
Continuous
 62
     7
100
AcDbLine
 10
190.1239357354
 20
162.9158473858
 30
0.0
 11
190.411128495
 21
162.9158473858
 31
0.0
  0
LINE
  5
2F6
330
1B
100
AcDbEntity
 67
     1
  8
06___PRT_ALL_SURFS
  6
Continuous
 62
     7
100
AcDbLine
 10
194.6003036111
 20
162.9711458575
 30
0.0
 11
194.6871186175
 21
163.3434966216
 31
0.0
  0
LINE
  5
2F7
330
1B
100
AcDbEntity
 67
     1
  8
06___PRT_ALL_SURFS
  6
Continuous
 62
     7
100
AcDbLine
 10
194.6003036111
 20
162.9711458575
 30
0.0
 11
194.3131098426
 21
162.9711458575
 31
0.0
  0
ELLIPSE
  5
2F8
330
1B
100
AcDbEntity
 67
     1
  8
7_ALL_FEATURES
  6
Continuous
 62
     7
100
AcDbEllipse
 10
192.3621199324
 20
164.3668861205
 30
0.0
 11
1.8099469758
 21
4.2738479352
 31
0.0
210
0.0
220
0.0
230
1.0
 40
0.1991029947
 41
-1.7810451461
 42
-1.7276078251
  0
SPLINE
  5
2F9
330
1B
100
AcDbEntity
 67
     1
  8
06___PRT_ALL_SURFS
  6
Continuous
 62
     7
100
AcDbSpline
 70
     0
 71
     3
 72
    13
 73
     9
 74
     0
 42
0.000000001
 43
0.0000001
 40
0.0
 40
0.0
 40
0.0
 40
0.0
 40
0.1404032221
 40
0.2762318637
 40
0.5335654204
 40
0.6561867028
 40
0.7751792396
 40
1.0
 40
1.0
 40
1.0
 40
1.0
 10
190.1239357354
 20
162.9158473858
 30
0.0
 10
190.099252479
 20
162.9333459573
 30
0.0
 10
190.0507243503
 20
162.9678326438
 30
0.0
 10
189.9593330161
 20
163.0376413601
 30
0.0
 10
189.8742686202
 20
163.1093083482
 30
0.0
 10
189.7951277891
 20
163.1821127075
 30
0.0
 10
189.7229800608
 20
163.2520986143
 30
0.0
 10
189.6723805632
 20
163.3063846565
 30
0.0
 10
189.6412797289
 20
163.3435328619
 30
0.0
  0
LINE
  5
2FA
330
1B
100
AcDbEntity
 67
     1
  8
06___PRT_ALL_SURFS
  6
Continuous
 62
     7
100
AcDbLine
 10
190.0371207289
 20
162.5434966216
 30
0.0
 11
190.1239357354
 21
162.9158473858
 31
0.0
  0
SPLINE
  5
2FB
330
1B
100
AcDbEntity
 67
     1
  8
06___PRT_ALL_SURFS
  6
Continuous
 62
     7
100
AcDbSpline
 70
     0
 71
     3
 72
    12
 73
     8
 74
     0
 42
0.000000001
 43
0.0000001
 40
0.0
 40
0.0
 40
0.0
 40
0.0
 40
0.1316850852
 40
0.2616835423
 40
0.5156699088
 40
0.7622785218
 40
1.0
 40
1.0
 40
1.0
 40
1.0
 10
193.2785707076
 20
162.9711458575
 30
0.0
 10
193.3146603974
 20
162.9535633462
 30
0.0
 10
193.386362173
 20
162.9185899603
 30
0.0
 10
193.5268802686
 20
162.848099153
 30
0.0
 10
193.6974069636
 20
162.7593243125
 30
0.0
 10
193.8954365211
 20
162.6523286245
 30
0.0
 10
194.0240969899
 20
162.5798622403
 30
0.0
 10
194.0867619207
 20
162.5434603928
 30
0.0
  0
ELLIPSE
  5
2FC
330
1B
100
AcDbEntity
 67
     1
  8
7_ALL_FEATURES
  6
Continuous
 62
     7
100
AcDbEllipse
 10
192.3621199324
 20
164.3668861205
 30
0.0
 11
1.1745833705
 21
4.265790834999999
 31
0.0
210
0.0
220
0.0
230
1.0
 40
0.3794725964
 41
-1.7265364396
 42
-1.7076178705
  0
LINE
  5
2FD
330
1B
100
AcDbEntity
 67
     1
  8
06___PRT_ALL_SURFS
  6
Continuous
 62
     7
100
AcDbLine
 10
191.445668858
 20
162.9158473858
 30
0.0
 11
191.8298635143
 21
162.9158473858
 31
0.0
  0
LINE
  5
2FE
330
1B
100
AcDbEntity
 67
     1
  8
06___PRT_ALL_SURFS
  6
Continuous
 62
     7
100
AcDbLine
 10
193.2785707076
 20
162.9711458575
 30
0.0
 11
193.4289387096
 21
163.3434966216
 31
0.0
  0
LINE
  5
2FF
330
1B
100
AcDbEntity
 67
     1
  8
06___PRT_ALL_SURFS
  6
Continuous
 62
     7
100
AcDbLine
 10
193.2785707076
 20
162.9711458575
 30
0.0
 11
192.8943763506
 21
162.9711458575
 31
0.0
  0
SPLINE
  5
300
330
1B
100
AcDbEntity
 67
     1
  8
06___PRT_ALL_SURFS
  6
Continuous
 62
     7
100
AcDbSpline
 70
     0
 71
     3
 72
    12
 73
     8
 74
     0
 42
0.000000001
 43
0.0000001
 40
0.0
 40
0.0
 40
0.0
 40
0.0
 40
0.131683544
 40
0.2616823401
 40
0.5156688508
 40
0.7622767007
 40
1.0
 40
1.0
 40
1.0
 40
1.0
 10
191.445668858
 20
162.9158473858
 30
0.0
 10
191.4095797352
 20
162.9334300986
 30
0.0
 10
191.3378785525
 20
162.9684040761
 30
0.0
 10
191.1973601639
 20
163.0388939912
 30
0.0
 10
191.0268331008
 20
163.1276684677
 30
0.0
 10
190.8288033485
 20
163.2346651258
 30
0.0
 10
190.7001420127
 20
163.3071309791
 30
0.0
 10
190.6374763594
 20
163.3435328619
 30
0.0
  0
LINE
  5
301
330
1B
100
AcDbEntity
 67
     1
  8
06___PRT_ALL_SURFS
  6
Continuous
 62
     7
100
AcDbLine
 10
191.295300856
 20
162.5434966216
 30
0.0
 11
191.445668858
 21
162.9158473858
 31
0.0
  0
LINE
  5
302
330
1B
100
AcDbEntity
 67
     1
  8
06___PRT_ALL_SURFS
  6
Continuous
 62
     7
100
AcDbLine
 10
189.4019222609
 20
162.9158473858
 30
0.0
 11
189.5151600557
 21
162.9158473858
 31
0.0
  0
LINE
  5
303
330
1B
100
AcDbEntity
 67
     1
  8
06___PRT_ALL_SURFS
  6
Continuous
 62
     7
100
AcDbLine
 10
87.711275559
 20
162.9711458575
 30
0.0
 11
88.6283723048
 21
162.5434966216
 31
0.0
  0
LINE
  5
304
330
1B
100
AcDbEntity
 67
     1
  8
06___PRT_ALL_SURFS
  6
Continuous
 62
     7
100
AcDbLine
 10
89.0129643059
 20
162.9158473858
 30
0.0
 11
88.09586756
 21
163.3434966216
 31
0.0
  0
LINE
  5
305
330
1B
100
AcDbEntity
 67
     1
  8
06___PRT_ALL_SURFS
  6
Continuous
 62
     7
100
AcDbLine
 10
88.839334293
 20
162.5434966216
 30
0.0
 11
89.0129643059
 21
162.9158473858
 31
0.0
  0
LINE
  5
306
330
1B
100
AcDbEntity
 67
     1
  8
06___PRT_ALL_SURFS
  6
Continuous
 62
     7
100
AcDbLine
 10
87.711275559
 20
162.9711458575
 30
0.0
 11
87.8849055718
 21
163.3434966216
 31
0.0
  0
SPLINE
  5
307
330
1B
100
AcDbEntity
 67
     1
  8
06___PRT_ALL_SURFS
  6
Continuous
 62
     7
100
AcDbSpline
 70
     0
 71
     3
 72
    12
 73
     8
 74
     0
 42
0.000000001
 43
0.0000001
 40
0.0
 40
0.0
 40
0.0
 40
0.0
 40
0.1160236383
 40
0.2351566999
 40
0.4819172091
 40
0.7370840952
 40
1.0
 40
1.0
 40
1.0
 40
1.0
 10
86.3183736346
 20
162.9711458575
 30
0.0
 10
86.3478698207
 20
162.9533963682
 30
0.0
 10
86.4076834519
 20
162.9174701167
 30
0.0
 10
86.5313448238
 20
162.8456739901
 30
0.0
 10
86.692360596
 20
162.7560362895
 30
0.0
 10
86.8923745753
 20
162.6488161813
 30
0.0
 10
87.0290517934
 20
162.5784459495
 30
0.0
 10
87.0987751491
 20
162.5434603928
 30
0.0
  0
LINE
  5
308
330
1B
100
AcDbEntity
 67
     1
  8
06___PRT_ALL_SURFS
  6
Continuous
 62
     7
100
AcDbLine
 10
86.3183736346
 20
162.9711458575
 30
0.0
 11
86.4687416366
 21
163.3434966216
 31
0.0
  0
LINE
  5
309
330
1B
100
AcDbEntity
 67
     1
  8
7_ALL_FEATURES
  6
Continuous
 62
     7
100
AcDbLine
 10
87.9467670564
 20
162.8613343688
 30
0.0
 11
87.9076581651
 21
162.7644904566
 31
0.0
  0
ARC
  5
30A
330
1B
100
AcDbEntity
 67
     1
  8
7_ALL_FEATURES
  6
Continuous
 62
     7
100
AcDbCircle
 10
92.4968294543
 20
172.6186571626
 30
0.0
 40
10.7081675412
100
AcDbArc
 50
242.68315079
 51
243.6083917587
  0
SPLINE
  5
30B
330
1B
100
AcDbEntity
 67
     1
  8
06___PRT_ALL_SURFS
  6
Continuous
 62
     7
100
AcDbSpline
 70
     0
 71
     3
 72
    14
 73
    10
 74
     0
 42
0.000000001
 43
0.0000001
 40
0.0
 40
0.0
 40
0.0
 40
0.0
 40
0.1084535842
 40
0.2219617068
 40
0.3407563048
 40
0.4642962932
 40
0.5919413335
 40
0.7234005142
 40
1.0
 40
1.0
 40
1.0
 40
1.0
 10
85.4730918803
 20
162.9711458575
 30
0.0
 10
85.4861742093
 20
162.9533182312
 30
0.0
 10
85.5130962764
 20
162.916920756
 30
0.0
 10
85.5578182521
 20
162.8636979086
 30
0.0
 10
85.6069968127
 20
162.8103304267
 30
0.0
 10
85.6602610255
 20
162.7568904596
 30
0.0
 10
85.7169881391
 20
162.7033149848
 30
0.0
 10
85.7983187813
 20
162.6303955948
 30
0.0
 10
85.8628184064
 20
162.5777242353
 30
0.0
 10
85.9076125148
 20
162.5434603928
 30
0.0
  0
LINE
  5
30C
330
1B
100
AcDbEntity
 67
     1
  8
06___PRT_ALL_SURFS
  6
Continuous
 62
     7
100
AcDbLine
 10
85.4730918803
 20
162.9711458575
 30
0.0
 11
85.5599068867
 21
163.3434966216
 31
0.0
  0
SPLINE
  5
30D
330
1B
100
AcDbEntity
 67
     1
  8
06___PRT_ALL_SURFS
  6
Continuous
 62
     7
100
AcDbSpline
 70
     0
 71
     3
 72
    14
 73
    10
 74
     0
 42
0.000000001
 43
0.0000001
 40
0.0
 40
0.0
 40
0.0
 40
0.0
 40
0.1084579597
 40
0.2219648106
 40
0.3407574466
 40
0.4642973123
 40
0.5919431673
 40
0.7234030383
 40
1.0
 40
1.0
 40
1.0
 40
1.0
 10
91.2511485029
 20
162.9158473858
 30
0.0
 10
91.2380645684
 20
162.9336748529
 30
0.0
 10
91.2111403034
 20
162.9700712414
 30
0.0
 10
91.166420053
 20
163.0232954658
 30
0.0
 10
91.1172430796
 20
163.0766632206
 30
0.0
 10
91.0639792011
 20
163.1301028219
 30
0.0
 10
91.0072518117
 20
163.183678058
 30
0.0
 10
90.9259212833
 20
163.2565967208
 30
0.0
 10
90.8614232045
 20
163.3092689207
 30
0.0
 10
90.816630046
 20
163.3435328619
 30
0.0
  0
LINE
  5
30E
330
1B
100
AcDbEntity
 67
     1
  8
06___PRT_ALL_SURFS
  6
Continuous
 62
     7
100
AcDbLine
 10
91.1643334965
 20
162.5434966216
 30
0.0
 11
91.2511485029
 21
162.9158473858
 31
0.0
  0
SPLINE
  5
30F
330
1B
100
AcDbEntity
 67
     1
  8
06___PRT_ALL_SURFS
  6
Continuous
 62
     7
100
AcDbSpline
 70
     0
 71
     3
 72
    12
 73
     8
 74
     0
 42
0.000000001
 43
0.0000001
 40
0.0
 40
0.0
 40
0.0
 40
0.0
 40
0.1160263303
 40
0.2351585512
 40
0.4819175933
 40
0.7370850725
 40
1.0
 40
1.0
 40
1.0
 40
1.0
 10
90.4058665295
 20
162.9158473858
 30
0.0
 10
90.3763694333
 20
162.933596827
 30
0.0
 10
90.3165549444
 20
162.9695225356
 30
0.0
 10
90.1928942005
 20
163.0413195956
 30
0.0
 10
90.0318792526
 20
163.1309572827
 30
0.0
 10
89.8318656845
 20
163.2381763723
 30
0.0
 10
89.6951891383
 20
163.3085472247
 30
0.0
 10
89.6254662581
 20
163.3435328619
 30
0.0
  0
LINE
  5
310
330
1B
100
AcDbEntity
 67
     1
  8
06___PRT_ALL_SURFS
  6
Continuous
 62
     7
100
AcDbLine
 10
90.2554985275
 20
162.5434966216
 30
0.0
 11
90.4058665295
 21
162.9158473858
 31
0.0
  0
LINE
  5
311
330
1B
100
AcDbEntity
 67
     1
  8
7_ALL_FEATURES
  6
Continuous
 62
     7
100
AcDbLine
 10
88.7774720437
 20
163.0256592311
 30
0.0
 11
88.816575599
 21
163.1224899299
 31
0.0
  0
ARC
  5
312
330
1B
100
AcDbEntity
 67
     1
  8
7_ALL_FEATURES
  6
Continuous
 62
     7
100
AcDbCircle
 10
84.2224562907
 20
153.2586620987
 30
0.0
 40
10.7190354451
100
AcDbArc
 50
62.68371688
 51
63.60765680940001
  0
LINE
  5
313
330
1B
100
AcDbEntity
 67
     1
  8
06___PRT_ALL_SURFS
  6
Continuous
 62
     7
100
AcDbLine
 10
85.3524111025
 20
163.170068962
 30
0.0
 11
85.3524111025
 21
162.7169150685
 31
0.0
  0
SPLINE
  5
314
330
1B
100
AcDbEntity
 67
     1
  8
06___PRT_ALL_SURFS
  6
Continuous
 62
     7
100
AcDbSpline
 70
     0
 71
     3
 72
     9
 73
     5
 74
     0
 42
0.000000001
 43
0.0000001
 40
0.0
 40
0.0
 40
0.0
 40
0.0
 40
0.4965981003
 40
1.0
 40
1.0
 40
1.0
 40
1.0
 10
85.3524111025
 20
163.170068962
 30
0.0
 10
85.3524111025
 20
163.1990719432
 30
0.0
 10
85.3554497192
 20
163.2575453709
 30
0.0
 10
85.3664292104
 20
163.3151589717
 30
0.0
 10
85.3741300337
 20
163.3435328619
 30
0.0
  0
SPLINE
  5
315
330
1B
100
AcDbEntity
 67
     1
  8
06___PRT_ALL_SURFS
  6
Continuous
 62
     7
100
AcDbSpline
 70
     0
 71
     3
 72
     9
 73
     5
 74
     0
 42
0.000000001
 43
0.0000001
 40
0.0
 40
0.0
 40
0.0
 40
0.0
 40
0.4965966699
 40
1.0
 40
1.0
 40
1.0
 40
1.0
 10
85.3524111025
 20
162.7169150685
 30
0.0
 10
85.3524111025
 20
162.6879135915
 30
0.0
 10
85.3554491864
 20
162.6294428686
 30
0.0
 10
85.366431732
 20
162.571832713
 30
0.0
 10
85.3741331609
 20
162.5434603928
 30
0.0
  0
LINE
  5
316
330
1B
100
AcDbEntity
 67
     1
  8
06___PRT_ALL_SURFS
  6
Continuous
 62
     7
100
AcDbLine
 10
91.3718287624
 20
162.7169150685
 30
0.0
 11
91.3718287624
 21
163.170068962
 31
0.0
  0
SPLINE
  5
317
330
1B
100
AcDbEntity
 67
     1
  8
06___PRT_ALL_SURFS
  6
Continuous
 62
     7
100
AcDbSpline
 70
     0
 71
     3
 72
     9
 73
     5
 74
     0
 42
0.000000001
 43
0.0000001
 40
0.0
 40
0.0
 40
0.0
 40
0.0
 40
0.4965966699
 40
1.0
 40
1.0
 40
1.0
 40
1.0
 10
91.3718287624
 20
162.7169150685
 30
0.0
 10
91.3718287624
 20
162.6879135915
 30
0.0
 10
91.3687906784
 20
162.6294428686
 30
0.0
 10
91.3578081328
 20
162.571832713
 30
0.0
 10
91.350106704
 20
162.5434603928
 30
0.0
  0
SPLINE
  5
318
330
1B
100
AcDbEntity
 67
     1
  8
06___PRT_ALL_SURFS
  6
Continuous
 62
     7
100
AcDbSpline
 70
     0
 71
     3
 72
     9
 73
     5
 74
     0
 42
0.000000001
 43
0.0000001
 40
0.0
 40
0.0
 40
0.0
 40
0.0
 40
0.4965981003
 40
1.0
 40
1.0
 40
1.0
 40
1.0
 10
91.3718287624
 20
163.170068962
 30
0.0
 10
91.3718287624
 20
163.1990719432
 30
0.0
 10
91.3687901457
 20
163.2575453709
 30
0.0
 10
91.3578106545
 20
163.3151589717
 30
0.0
 10
91.3501098311
 20
163.3435328619
 30
0.0
  0
SPLINE
  5
319
330
1B
100
AcDbEntity
 67
     1
  8
06___PRT_ALL_SURFS
  6
Continuous
 62
     7
100
AcDbSpline
 70
     0
 71
     3
 72
    12
 73
     8
 74
     0
 42
0.000000001
 43
0.0000001
 40
0.0
 40
0.0
 40
0.0
 40
0.0
 40
0.1293635823
 40
0.2572550643
 40
0.5081269881
 40
0.7548702389
 40
1.0
 40
1.0
 40
1.0
 40
1.0
 10
85.4019222609
 20
162.9158473858
 30
0.0
 10
85.3978313606
 20
162.926318781
 30
0.0
 10
85.3896703461
 20
162.947135961
 30
0.0
 10
85.3754814721
 20
162.9889726538
 30
0.0
 10
85.3625507873
 20
163.041903893
 30
0.0
 10
85.3540456543
 20
163.1059919513
 30
0.0
 10
85.3524111025
 20
163.1487663539
 30
0.0
 10
85.3524111025
 20
163.170068962
 30
0.0
  0
SPLINE
  5
31A
330
1B
100
AcDbEntity
 67
     1
  8
06___PRT_ALL_SURFS
  6
Continuous
 62
     7
100
AcDbSpline
 70
     0
 71
     3
 72
    12
 73
     8
 74
     0
 42
0.000000001
 43
0.0000001
 40
0.0
 40
0.0
 40
0.0
 40
0.0
 40
0.1293667377
 40
0.2572588084
 40
0.5081281894
 40
0.754870567
 40
1.0
 40
1.0
 40
1.0
 40
1.0
 10
91.3223170054
 20
162.9711458575
 30
0.0
 10
91.3264091736
 20
162.9606742067
 30
0.0
 10
91.3345726926
 20
162.939856743
 30
0.0
 10
91.3487632245
 20
162.8980186523
 30
0.0
 10
91.3616904097
 20
162.8450846009
 30
0.0
 10
91.3701941413
 20
162.7809943679
 30
0.0
 10
91.3718287624
 20
162.7382184537
 30
0.0
 10
91.3718287624
 20
162.7169150685
 30
0.0
  0
LINE
  5
31B
330
1B
100
AcDbEntity
 67
     1
  8
06___PRT_ALL_SURFS
  6
Continuous
 62
     7
100
AcDbLine
 10
85.4019222609
 20
162.5434966216
 30
0.0
 11
85.4019222609
 21
162.9158473858
 31
0.0
  0
LINE
  5
31C
330
1B
100
AcDbEntity
 67
     1
  8
06___PRT_ALL_SURFS
  6
Continuous
 62
     7
100
AcDbLine
 10
91.3223170054
 20
162.9711458575
 30
0.0
 11
91.3223170054
 21
163.3434966216
 31
0.0
  0
LINE
  5
31D
330
1B
100
AcDbEntity
 67
     1
  8
06___PRT_ALL_SURFS
  6
Continuous
 62
     7
100
AcDbLine
 10
91.3223170054
 20
162.9711458575
 30
0.0
 11
91.2090771638
 21
162.9711458575
 31
0.0
  0
ELLIPSE
  5
31E
330
1B
100
AcDbEntity
 67
     1
  8
7_ALL_FEATURES
  6
Continuous
 62
     7
100
AcDbEllipse
 10
88.3621199324
 20
163.2193411014
 30
0.0
 11
1.992928022
 21
-0.8439921357
 31
0.0
210
0.0
220
0.0
230
1.0
 40
0.1991029947
 41
-2.1437978282
 42
-1.8869740322
  0
ELLIPSE
  5
31F
330
1B
100
AcDbEntity
 67
     1
  8
7_ALL_FEATURES
  6
Continuous
 62
     7
100
AcDbEllipse
 10
88.3621199324
 20
162.6676521419
 30
0.0
 11
1.992928022
 21
-0.8439921357
 31
0.0
210
0.0
220
0.0
230
1.0
 40
0.1991029947
 41
0.9977948254
 42
1.2546516394
  0
ELLIPSE
  5
320
330
1B
100
AcDbEntity
 67
     1
  8
7_ALL_FEATURES
  6
Continuous
 62
     7
100
AcDbEllipse
 10
88.3621199324
 20
161.5201071228
 30
0.0
 11
1.8099469758
 21
4.2738479352
 31
0.0
210
0.0
220
0.0
230
1.0
 40
0.1991029947
 41
1.3605506398
 42
1.4139848285
  0
SPLINE
  5
321
330
1B
100
AcDbEntity
 67
     1
  8
06___PRT_ALL_SURFS
  6
Continuous
 62
     7
100
AcDbSpline
 70
     0
 71
     3
 72
    13
 73
     9
 74
     0
 42
0.000000001
 43
0.0000001
 40
0.0
 40
0.0
 40
0.0
 40
0.0
 40
0.1404073037
 40
0.2762348465
 40
0.5335672423
 40
0.6561893755
 40
0.7751823946
 40
1.0
 40
1.0
 40
1.0
 40
1.0
 10
90.6003036111
 20
162.9711458575
 30
0.0
 10
90.6249881001
 20
162.9536476105
 30
0.0
 10
90.6735177372
 20
162.9191621066
 30
0.0
 10
90.764907945
 20
162.8493515981
 30
0.0
 10
90.8499712527
 20
162.7776842336
 30
0.0
 10
90.9291123206
 20
162.7048804088
 30
0.0
 10
91.0012600114
 20
162.6348953008
 30
0.0
 10
91.0518577689
 20
162.5806085768
 30
0.0
 10
91.0829574155
 20
162.5434603928
 30
0.0
  0
ELLIPSE
  5
322
330
1B
100
AcDbEntity
 67
     1
  8
7_ALL_FEATURES
  6
Continuous
 62
     7
100
AcDbEllipse
 10
88.3621199324
 20
161.5201071228
 30
0.0
 11
1.1745833705
 21
4.265790834999999
 31
0.0
210
0.0
220
0.0
230
1.0
 40
0.3794725964
 41
1.4150562
 42
1.4339747831
  0
LINE
  5
323
330
1B
100
AcDbEntity
 67
     1
  8
06___PRT_ALL_SURFS
  6
Continuous
 62
     7
100
AcDbLine
 10
86.1239357354
 20
162.9158473858
 30
0.0
 11
86.411128495
 21
162.9158473858
 31
0.0
  0
LINE
  5
324
330
1B
100
AcDbEntity
 67
     1
  8
06___PRT_ALL_SURFS
  6
Continuous
 62
     7
100
AcDbLine
 10
90.6003036111
 20
162.9711458575
 30
0.0
 11
90.6871186175
 21
163.3434966216
 31
0.0
  0
LINE
  5
325
330
1B
100
AcDbEntity
 67
     1
  8
06___PRT_ALL_SURFS
  6
Continuous
 62
     7
100
AcDbLine
 10
90.6003036111
 20
162.9711458575
 30
0.0
 11
90.3131098426
 21
162.9711458575
 31
0.0
  0
ELLIPSE
  5
326
330
1B
100
AcDbEntity
 67
     1
  8
7_ALL_FEATURES
  6
Continuous
 62
     7
100
AcDbEllipse
 10
88.3621199324
 20
164.3668861205
 30
0.0
 11
1.8099469758
 21
4.2738479352
 31
0.0
210
0.0
220
0.0
230
1.0
 40
0.1991029947
 41
-1.7810451461
 42
-1.7276078251
  0
SPLINE
  5
327
330
1B
100
AcDbEntity
 67
     1
  8
06___PRT_ALL_SURFS
  6
Continuous
 62
     7
100
AcDbSpline
 70
     0
 71
     3
 72
    13
 73
     9
 74
     0
 42
0.000000001
 43
0.0000001
 40
0.0
 40
0.0
 40
0.0
 40
0.0
 40
0.1404032221
 40
0.2762318637
 40
0.5335654204
 40
0.6561867028
 40
0.7751792396
 40
1.0
 40
1.0
 40
1.0
 40
1.0
 10
86.1239357354
 20
162.9158473858
 30
0.0
 10
86.099252479
 20
162.9333459573
 30
0.0
 10
86.0507243503
 20
162.9678326438
 30
0.0
 10
85.9593330161
 20
163.0376413601
 30
0.0
 10
85.8742686202
 20
163.1093083482
 30
0.0
 10
85.7951277891
 20
163.1821127075
 30
0.0
 10
85.7229800608
 20
163.2520986143
 30
0.0
 10
85.6723805632
 20
163.3063846565
 30
0.0
 10
85.6412797289
 20
163.3435328619
 30
0.0
  0
LINE
  5
328
330
1B
100
AcDbEntity
 67
     1
  8
06___PRT_ALL_SURFS
  6
Continuous
 62
     7
100
AcDbLine
 10
86.0371207289
 20
162.5434966216
 30
0.0
 11
86.1239357354
 21
162.9158473858
 31
0.0
  0
SPLINE
  5
329
330
1B
100
AcDbEntity
 67
     1
  8
06___PRT_ALL_SURFS
  6
Continuous
 62
     7
100
AcDbSpline
 70
     0
 71
     3
 72
    12
 73
     8
 74
     0
 42
0.000000001
 43
0.0000001
 40
0.0
 40
0.0
 40
0.0
 40
0.0
 40
0.1316850852
 40
0.2616835423
 40
0.5156699088
 40
0.7622785218
 40
1.0
 40
1.0
 40
1.0
 40
1.0
 10
89.2785707076
 20
162.9711458575
 30
0.0
 10
89.3146603974
 20
162.9535633462
 30
0.0
 10
89.386362173
 20
162.9185899603
 30
0.0
 10
89.5268802686
 20
162.848099153
 30
0.0
 10
89.6974069636
 20
162.7593243125
 30
0.0
 10
89.8954365211
 20
162.6523286245
 30
0.0
 10
90.0240969899
 20
162.5798622403
 30
0.0
 10
90.0867619207
 20
162.5434603928
 30
0.0
  0
ELLIPSE
  5
32A
330
1B
100
AcDbEntity
 67
     1
  8
7_ALL_FEATURES
  6
Continuous
 62
     7
100
AcDbEllipse
 10
88.3621199324
 20
164.3668861205
 30
0.0
 11
1.1745833705
 21
4.265790834999999
 31
0.0
210
0.0
220
0.0
230
1.0
 40
0.3794725964
 41
-1.7265364396
 42
-1.7076178705
  0
LINE
  5
32B
330
1B
100
AcDbEntity
 67
     1
  8
06___PRT_ALL_SURFS
  6
Continuous
 62
     7
100
AcDbLine
 10
87.445668858
 20
162.9158473858
 30
0.0
 11
87.8298635143
 21
162.9158473858
 31
0.0
  0
LINE
  5
32C
330
1B
100
AcDbEntity
 67
     1
  8
06___PRT_ALL_SURFS
  6
Continuous
 62
     7
100
AcDbLine
 10
89.2785707076
 20
162.9711458575
 30
0.0
 11
89.4289387096
 21
163.3434966216
 31
0.0
  0
LINE
  5
32D
330
1B
100
AcDbEntity
 67
     1
  8
06___PRT_ALL_SURFS
  6
Continuous
 62
     7
100
AcDbLine
 10
89.2785707076
 20
162.9711458575
 30
0.0
 11
88.8943763506
 21
162.9711458575
 31
0.0
  0
SPLINE
  5
32E
330
1B
100
AcDbEntity
 67
     1
  8
06___PRT_ALL_SURFS
  6
Continuous
 62
     7
100
AcDbSpline
 70
     0
 71
     3
 72
    12
 73
     8
 74
     0
 42
0.000000001
 43
0.0000001
 40
0.0
 40
0.0
 40
0.0
 40
0.0
 40
0.131683544
 40
0.2616823401
 40
0.5156688508
 40
0.7622767007
 40
1.0
 40
1.0
 40
1.0
 40
1.0
 10
87.445668858
 20
162.9158473858
 30
0.0
 10
87.4095797352
 20
162.9334300986
 30
0.0
 10
87.3378785525
 20
162.9684040761
 30
0.0
 10
87.1973601639
 20
163.0388939912
 30
0.0
 10
87.0268331008
 20
163.1276684677
 30
0.0
 10
86.8288033485
 20
163.2346651258
 30
0.0
 10
86.7001420127
 20
163.3071309791
 30
0.0
 10
86.6374763594
 20
163.3435328619
 30
0.0
  0
LINE
  5
32F
330
1B
100
AcDbEntity
 67
     1
  8
06___PRT_ALL_SURFS
  6
Continuous
 62
     7
100
AcDbLine
 10
87.295300856
 20
162.5434966216
 30
0.0
 11
87.445668858
 21
162.9158473858
 31
0.0
  0
LINE
  5
330
330
1B
100
AcDbEntity
 67
     1
  8
06___PRT_ALL_SURFS
  6
Continuous
 62
     7
100
AcDbLine
 10
85.4019222609
 20
162.9158473858
 30
0.0
 11
85.5151600557
 21
162.9158473858
 31
0.0
  0
LINE
  5
331
330
1B
100
AcDbEntity
 67
     1
  8
06___PRT_ALL_SURFS
  6
Continuous
 62
     7
100
AcDbLine
 10
139.711275559
 20
162.9711458575
 30
0.0
 11
140.6283723048
 21
162.5434966216
 31
0.0
  0
LINE
  5
332
330
1B
100
AcDbEntity
 67
     1
  8
06___PRT_ALL_SURFS
  6
Continuous
 62
     7
100
AcDbLine
 10
141.0129643059
 20
162.9158473858
 30
0.0
 11
140.09586756
 21
163.3434966216
 31
0.0
  0
LINE
  5
333
330
1B
100
AcDbEntity
 67
     1
  8
06___PRT_ALL_SURFS
  6
Continuous
 62
     7
100
AcDbLine
 10
140.839334293
 20
162.5434966216
 30
0.0
 11
141.0129643059
 21
162.9158473858
 31
0.0
  0
LINE
  5
334
330
1B
100
AcDbEntity
 67
     1
  8
06___PRT_ALL_SURFS
  6
Continuous
 62
     7
100
AcDbLine
 10
139.711275559
 20
162.9711458575
 30
0.0
 11
139.8849055718
 21
163.3434966216
 31
0.0
  0
SPLINE
  5
335
330
1B
100
AcDbEntity
 67
     1
  8
06___PRT_ALL_SURFS
  6
Continuous
 62
     7
100
AcDbSpline
 70
     0
 71
     3
 72
    12
 73
     8
 74
     0
 42
0.000000001
 43
0.0000001
 40
0.0
 40
0.0
 40
0.0
 40
0.0
 40
0.1160236383
 40
0.2351566999
 40
0.4819172091
 40
0.7370840952
 40
1.0
 40
1.0
 40
1.0
 40
1.0
 10
138.3183736346
 20
162.9711458575
 30
0.0
 10
138.3478698207
 20
162.9533963682
 30
0.0
 10
138.4076834519
 20
162.9174701167
 30
0.0
 10
138.5313448238
 20
162.8456739901
 30
0.0
 10
138.692360596
 20
162.7560362895
 30
0.0
 10
138.8923745753
 20
162.6488161813
 30
0.0
 10
139.0290517934
 20
162.5784459495
 30
0.0
 10
139.0987751491
 20
162.5434603928
 30
0.0
  0
LINE
  5
336
330
1B
100
AcDbEntity
 67
     1
  8
06___PRT_ALL_SURFS
  6
Continuous
 62
     7
100
AcDbLine
 10
138.3183736346
 20
162.9711458575
 30
0.0
 11
138.4687416366
 21
163.3434966216
 31
0.0
  0
LINE
  5
337
330
1B
100
AcDbEntity
 67
     1
  8
7_ALL_FEATURES
  6
Continuous
 62
     7
100
AcDbLine
 10
139.9467670564
 20
162.8613343688
 30
0.0
 11
139.9076581651
 21
162.7644904566
 31
0.0
  0
ARC
  5
338
330
1B
100
AcDbEntity
 67
     1
  8
7_ALL_FEATURES
  6
Continuous
 62
     7
100
AcDbCircle
 10
144.4968294535
 20
172.618657161
 30
0.0
 40
10.7081675394
100
AcDbArc
 50
242.68315079
 51
243.6083917588001
  0
SPLINE
  5
339
330
1B
100
AcDbEntity
 67
     1
  8
06___PRT_ALL_SURFS
  6
Continuous
 62
     7
100
AcDbSpline
 70
     0
 71
     3
 72
    14
 73
    10
 74
     0
 42
0.000000001
 43
0.0000001
 40
0.0
 40
0.0
 40
0.0
 40
0.0
 40
0.1084535842
 40
0.2219617068
 40
0.3407563048
 40
0.4642962932
 40
0.5919413335
 40
0.7234005142
 40
1.0
 40
1.0
 40
1.0
 40
1.0
 10
137.4730918803
 20
162.9711458575
 30
0.0
 10
137.4861742093
 20
162.9533182312
 30
0.0
 10
137.5130962764
 20
162.916920756
 30
0.0
 10
137.5578182521
 20
162.8636979086
 30
0.0
 10
137.6069968127
 20
162.8103304267
 30
0.0
 10
137.6602610255
 20
162.7568904596
 30
0.0
 10
137.7169881391
 20
162.7033149848
 30
0.0
 10
137.7983187813
 20
162.6303955948
 30
0.0
 10
137.8628184064
 20
162.5777242353
 30
0.0
 10
137.9076125148
 20
162.5434603928
 30
0.0
  0
LINE
  5
33A
330
1B
100
AcDbEntity
 67
     1
  8
06___PRT_ALL_SURFS
  6
Continuous
 62
     7
100
AcDbLine
 10
137.4730918803
 20
162.9711458575
 30
0.0
 11
137.5599068867
 21
163.3434966216
 31
0.0
  0
SPLINE
  5
33B
330
1B
100
AcDbEntity
 67
     1
  8
06___PRT_ALL_SURFS
  6
Continuous
 62
     7
100
AcDbSpline
 70
     0
 71
     3
 72
    14
 73
    10
 74
     0
 42
0.000000001
 43
0.0000001
 40
0.0
 40
0.0
 40
0.0
 40
0.0
 40
0.1084579597
 40
0.2219648106
 40
0.3407574466
 40
0.4642973123
 40
0.5919431673
 40
0.7234030383
 40
1.0
 40
1.0
 40
1.0
 40
1.0
 10
143.2511485029
 20
162.9158473858
 30
0.0
 10
143.2380645684
 20
162.9336748529
 30
0.0
 10
143.2111403034
 20
162.9700712414
 30
0.0
 10
143.166420053
 20
163.0232954658
 30
0.0
 10
143.1172430796
 20
163.0766632206
 30
0.0
 10
143.0639792011
 20
163.1301028219
 30
0.0
 10
143.0072518117
 20
163.183678058
 30
0.0
 10
142.9259212833
 20
163.2565967208
 30
0.0
 10
142.8614232045
 20
163.3092689207
 30
0.0
 10
142.816630046
 20
163.3435328619
 30
0.0
  0
LINE
  5
33C
330
1B
100
AcDbEntity
 67
     1
  8
06___PRT_ALL_SURFS
  6
Continuous
 62
     7
100
AcDbLine
 10
143.1643334965
 20
162.5434966216
 30
0.0
 11
143.2511485029
 21
162.9158473858
 31
0.0
  0
SPLINE
  5
33D
330
1B
100
AcDbEntity
 67
     1
  8
06___PRT_ALL_SURFS
  6
Continuous
 62
     7
100
AcDbSpline
 70
     0
 71
     3
 72
    12
 73
     8
 74
     0
 42
0.000000001
 43
0.0000001
 40
0.0
 40
0.0
 40
0.0
 40
0.0
 40
0.1160263303
 40
0.2351585512
 40
0.4819175933
 40
0.7370850725
 40
1.0
 40
1.0
 40
1.0
 40
1.0
 10
142.4058665295
 20
162.9158473858
 30
0.0
 10
142.3763694333
 20
162.933596827
 30
0.0
 10
142.3165549444
 20
162.9695225356
 30
0.0
 10
142.1928942005
 20
163.0413195956
 30
0.0
 10
142.0318792526
 20
163.1309572827
 30
0.0
 10
141.8318656845
 20
163.2381763723
 30
0.0
 10
141.6951891383
 20
163.3085472247
 30
0.0
 10
141.6254662581
 20
163.3435328619
 30
0.0
  0
LINE
  5
33E
330
1B
100
AcDbEntity
 67
     1
  8
06___PRT_ALL_SURFS
  6
Continuous
 62
     7
100
AcDbLine
 10
142.2554985275
 20
162.5434966216
 30
0.0
 11
142.4058665295
 21
162.9158473858
 31
0.0
  0
LINE
  5
33F
330
1B
100
AcDbEntity
 67
     1
  8
7_ALL_FEATURES
  6
Continuous
 62
     7
100
AcDbLine
 10
140.7774720437
 20
163.0256592311
 30
0.0
 11
140.816575599
 21
163.1224899299
 31
0.0
  0
ARC
  5
340
330
1B
100
AcDbEntity
 67
     1
  8
7_ALL_FEATURES
  6
Continuous
 62
     7
100
AcDbCircle
 10
136.2224562905
 20
153.2586620984
 30
0.0
 40
10.7190354455
100
AcDbArc
 50
62.68371688
 51
63.60765680940001
  0
LINE
  5
341
330
1B
100
AcDbEntity
 67
     1
  8
06___PRT_ALL_SURFS
  6
Continuous
 62
     7
100
AcDbLine
 10
137.3524111025
 20
163.170068962
 30
0.0
 11
137.3524111025
 21
162.7169150685
 31
0.0
  0
SPLINE
  5
342
330
1B
100
AcDbEntity
 67
     1
  8
06___PRT_ALL_SURFS
  6
Continuous
 62
     7
100
AcDbSpline
 70
     0
 71
     3
 72
     9
 73
     5
 74
     0
 42
0.000000001
 43
0.0000001
 40
0.0
 40
0.0
 40
0.0
 40
0.0
 40
0.4965981003
 40
1.0
 40
1.0
 40
1.0
 40
1.0
 10
137.3524111025
 20
163.170068962
 30
0.0
 10
137.3524111025
 20
163.1990719432
 30
0.0
 10
137.3554497192
 20
163.2575453709
 30
0.0
 10
137.3664292104
 20
163.3151589717
 30
0.0
 10
137.3741300337
 20
163.3435328619
 30
0.0
  0
SPLINE
  5
343
330
1B
100
AcDbEntity
 67
     1
  8
06___PRT_ALL_SURFS
  6
Continuous
 62
     7
100
AcDbSpline
 70
     0
 71
     3
 72
     9
 73
     5
 74
     0
 42
0.000000001
 43
0.0000001
 40
0.0
 40
0.0
 40
0.0
 40
0.0
 40
0.4965966699
 40
1.0
 40
1.0
 40
1.0
 40
1.0
 10
137.3524111025
 20
162.7169150685
 30
0.0
 10
137.3524111025
 20
162.6879135915
 30
0.0
 10
137.3554491864
 20
162.6294428686
 30
0.0
 10
137.366431732
 20
162.571832713
 30
0.0
 10
137.3741331609
 20
162.5434603928
 30
0.0
  0
LINE
  5
344
330
1B
100
AcDbEntity
 67
     1
  8
06___PRT_ALL_SURFS
  6
Continuous
 62
     7
100
AcDbLine
 10
143.3718287624
 20
162.7169150685
 30
0.0
 11
143.3718287624
 21
163.170068962
 31
0.0
  0
SPLINE
  5
345
330
1B
100
AcDbEntity
 67
     1
  8
06___PRT_ALL_SURFS
  6
Continuous
 62
     7
100
AcDbSpline
 70
     0
 71
     3
 72
     9
 73
     5
 74
     0
 42
0.000000001
 43
0.0000001
 40
0.0
 40
0.0
 40
0.0
 40
0.0
 40
0.4965966699
 40
1.0
 40
1.0
 40
1.0
 40
1.0
 10
143.3718287624
 20
162.7169150685
 30
0.0
 10
143.3718287624
 20
162.6879135915
 30
0.0
 10
143.3687906784
 20
162.6294428686
 30
0.0
 10
143.3578081328
 20
162.571832713
 30
0.0
 10
143.350106704
 20
162.5434603928
 30
0.0
  0
SPLINE
  5
346
330
1B
100
AcDbEntity
 67
     1
  8
06___PRT_ALL_SURFS
  6
Continuous
 62
     7
100
AcDbSpline
 70
     0
 71
     3
 72
     9
 73
     5
 74
     0
 42
0.000000001
 43
0.0000001
 40
0.0
 40
0.0
 40
0.0
 40
0.0
 40
0.4965981003
 40
1.0
 40
1.0
 40
1.0
 40
1.0
 10
143.3718287624
 20
163.170068962
 30
0.0
 10
143.3718287624
 20
163.1990719432
 30
0.0
 10
143.3687901457
 20
163.2575453709
 30
0.0
 10
143.3578106545
 20
163.3151589717
 30
0.0
 10
143.3501098311
 20
163.3435328619
 30
0.0
  0
SPLINE
  5
347
330
1B
100
AcDbEntity
 67
     1
  8
06___PRT_ALL_SURFS
  6
Continuous
 62
     7
100
AcDbSpline
 70
     0
 71
     3
 72
    12
 73
     8
 74
     0
 42
0.000000001
 43
0.0000001
 40
0.0
 40
0.0
 40
0.0
 40
0.0
 40
0.1293635823
 40
0.2572550643
 40
0.5081269881
 40
0.7548702389
 40
1.0
 40
1.0
 40
1.0
 40
1.0
 10
137.4019222609
 20
162.9158473858
 30
0.0
 10
137.3978313606
 20
162.926318781
 30
0.0
 10
137.3896703461
 20
162.947135961
 30
0.0
 10
137.3754814721
 20
162.9889726538
 30
0.0
 10
137.3625507873
 20
163.041903893
 30
0.0
 10
137.3540456543
 20
163.1059919513
 30
0.0
 10
137.3524111025
 20
163.1487663539
 30
0.0
 10
137.3524111025
 20
163.170068962
 30
0.0
  0
SPLINE
  5
348
330
1B
100
AcDbEntity
 67
     1
  8
06___PRT_ALL_SURFS
  6
Continuous
 62
     7
100
AcDbSpline
 70
     0
 71
     3
 72
    12
 73
     8
 74
     0
 42
0.000000001
 43
0.0000001
 40
0.0
 40
0.0
 40
0.0
 40
0.0
 40
0.1293667377
 40
0.2572588084
 40
0.5081281894
 40
0.754870567
 40
1.0
 40
1.0
 40
1.0
 40
1.0
 10
143.3223170054
 20
162.9711458575
 30
0.0
 10
143.3264091736
 20
162.9606742067
 30
0.0
 10
143.3345726926
 20
162.939856743
 30
0.0
 10
143.3487632245
 20
162.8980186523
 30
0.0
 10
143.3616904097
 20
162.8450846009
 30
0.0
 10
143.3701941413
 20
162.7809943679
 30
0.0
 10
143.3718287624
 20
162.7382184537
 30
0.0
 10
143.3718287624
 20
162.7169150685
 30
0.0
  0
LINE
  5
349
330
1B
100
AcDbEntity
 67
     1
  8
06___PRT_ALL_SURFS
  6
Continuous
 62
     7
100
AcDbLine
 10
137.4019222609
 20
162.5434966216
 30
0.0
 11
137.4019222609
 21
162.9158473858
 31
0.0
  0
LINE
  5
34A
330
1B
100
AcDbEntity
 67
     1
  8
06___PRT_ALL_SURFS
  6
Continuous
 62
     7
100
AcDbLine
 10
143.3223170054
 20
162.9711458575
 30
0.0
 11
143.3223170054
 21
163.3434966216
 31
0.0
  0
LINE
  5
34B
330
1B
100
AcDbEntity
 67
     1
  8
06___PRT_ALL_SURFS
  6
Continuous
 62
     7
100
AcDbLine
 10
143.3223170054
 20
162.9711458575
 30
0.0
 11
143.2090771638
 21
162.9711458575
 31
0.0
  0
ELLIPSE
  5
34C
330
1B
100
AcDbEntity
 67
     1
  8
7_ALL_FEATURES
  6
Continuous
 62
     7
100
AcDbEllipse
 10
140.3621199324
 20
163.2193411014
 30
0.0
 11
1.992928022
 21
-0.8439921357
 31
0.0
210
0.0
220
0.0
230
1.0
 40
0.1991029947
 41
-2.1437978282
 42
-1.8869740322
  0
ELLIPSE
  5
34D
330
1B
100
AcDbEntity
 67
     1
  8
7_ALL_FEATURES
  6
Continuous
 62
     7
100
AcDbEllipse
 10
140.3621199324
 20
162.6676521419
 30
0.0
 11
1.992928022
 21
-0.8439921357
 31
0.0
210
0.0
220
0.0
230
1.0
 40
0.1991029947
 41
0.9977948254
 42
1.2546516394
  0
ELLIPSE
  5
34E
330
1B
100
AcDbEntity
 67
     1
  8
7_ALL_FEATURES
  6
Continuous
 62
     7
100
AcDbEllipse
 10
140.3621199324
 20
161.5201071228
 30
0.0
 11
1.8099469758
 21
4.2738479352
 31
0.0
210
0.0
220
0.0
230
1.0
 40
0.1991029947
 41
1.3605506398
 42
1.4139848285
  0
SPLINE
  5
34F
330
1B
100
AcDbEntity
 67
     1
  8
06___PRT_ALL_SURFS
  6
Continuous
 62
     7
100
AcDbSpline
 70
     0
 71
     3
 72
    13
 73
     9
 74
     0
 42
0.000000001
 43
0.0000001
 40
0.0
 40
0.0
 40
0.0
 40
0.0
 40
0.1404073037
 40
0.2762348465
 40
0.5335672423
 40
0.6561893755
 40
0.7751823946
 40
1.0
 40
1.0
 40
1.0
 40
1.0
 10
142.6003036111
 20
162.9711458575
 30
0.0
 10
142.6249881001
 20
162.9536476105
 30
0.0
 10
142.6735177372
 20
162.9191621066
 30
0.0
 10
142.764907945
 20
162.8493515981
 30
0.0
 10
142.8499712527
 20
162.7776842336
 30
0.0
 10
142.9291123206
 20
162.7048804088
 30
0.0
 10
143.0012600114
 20
162.6348953008
 30
0.0
 10
143.0518577689
 20
162.5806085768
 30
0.0
 10
143.0829574155
 20
162.5434603928
 30
0.0
  0
ELLIPSE
  5
350
330
1B
100
AcDbEntity
 67
     1
  8
7_ALL_FEATURES
  6
Continuous
 62
     7
100
AcDbEllipse
 10
140.3621199324
 20
161.5201071228
 30
0.0
 11
1.1745833705
 21
4.265790834999999
 31
0.0
210
0.0
220
0.0
230
1.0
 40
0.3794725964
 41
1.4150562
 42
1.4339747831
  0
LINE
  5
351
330
1B
100
AcDbEntity
 67
     1
  8
06___PRT_ALL_SURFS
  6
Continuous
 62
     7
100
AcDbLine
 10
138.1239357354
 20
162.9158473858
 30
0.0
 11
138.411128495
 21
162.9158473858
 31
0.0
  0
LINE
  5
352
330
1B
100
AcDbEntity
 67
     1
  8
06___PRT_ALL_SURFS
  6
Continuous
 62
     7
100
AcDbLine
 10
142.6003036111
 20
162.9711458575
 30
0.0
 11
142.6871186175
 21
163.3434966216
 31
0.0
  0
LINE
  5
353
330
1B
100
AcDbEntity
 67
     1
  8
06___PRT_ALL_SURFS
  6
Continuous
 62
     7
100
AcDbLine
 10
142.6003036111
 20
162.9711458575
 30
0.0
 11
142.3131098426
 21
162.9711458575
 31
0.0
  0
ELLIPSE
  5
354
330
1B
100
AcDbEntity
 67
     1
  8
7_ALL_FEATURES
  6
Continuous
 62
     7
100
AcDbEllipse
 10
140.3621199324
 20
164.3668861205
 30
0.0
 11
1.8099469758
 21
4.2738479352
 31
0.0
210
0.0
220
0.0
230
1.0
 40
0.1991029947
 41
-1.7810451461
 42
-1.7276078251
  0
SPLINE
  5
355
330
1B
100
AcDbEntity
 67
     1
  8
06___PRT_ALL_SURFS
  6
Continuous
 62
     7
100
AcDbSpline
 70
     0
 71
     3
 72
    13
 73
     9
 74
     0
 42
0.000000001
 43
0.0000001
 40
0.0
 40
0.0
 40
0.0
 40
0.0
 40
0.1404032221
 40
0.2762318637
 40
0.5335654204
 40
0.6561867028
 40
0.7751792396
 40
1.0
 40
1.0
 40
1.0
 40
1.0
 10
138.1239357354
 20
162.9158473858
 30
0.0
 10
138.099252479
 20
162.9333459573
 30
0.0
 10
138.0507243503
 20
162.9678326438
 30
0.0
 10
137.9593330161
 20
163.0376413601
 30
0.0
 10
137.8742686202
 20
163.1093083482
 30
0.0
 10
137.7951277891
 20
163.1821127075
 30
0.0
 10
137.7229800608
 20
163.2520986143
 30
0.0
 10
137.6723805632
 20
163.3063846565
 30
0.0
 10
137.6412797289
 20
163.3435328619
 30
0.0
  0
LINE
  5
356
330
1B
100
AcDbEntity
 67
     1
  8
06___PRT_ALL_SURFS
  6
Continuous
 62
     7
100
AcDbLine
 10
138.0371207289
 20
162.5434966216
 30
0.0
 11
138.1239357354
 21
162.9158473858
 31
0.0
  0
SPLINE
  5
357
330
1B
100
AcDbEntity
 67
     1
  8
06___PRT_ALL_SURFS
  6
Continuous
 62
     7
100
AcDbSpline
 70
     0
 71
     3
 72
    12
 73
     8
 74
     0
 42
0.000000001
 43
0.0000001
 40
0.0
 40
0.0
 40
0.0
 40
0.0
 40
0.1316850852
 40
0.2616835423
 40
0.5156699088
 40
0.7622785218
 40
1.0
 40
1.0
 40
1.0
 40
1.0
 10
141.2785707076
 20
162.9711458575
 30
0.0
 10
141.3146603974
 20
162.9535633462
 30
0.0
 10
141.386362173
 20
162.9185899603
 30
0.0
 10
141.5268802686
 20
162.848099153
 30
0.0
 10
141.6974069636
 20
162.7593243125
 30
0.0
 10
141.8954365211
 20
162.6523286245
 30
0.0
 10
142.0240969899
 20
162.5798622403
 30
0.0
 10
142.0867619207
 20
162.5434603928
 30
0.0
  0
ELLIPSE
  5
358
330
1B
100
AcDbEntity
 67
     1
  8
7_ALL_FEATURES
  6
Continuous
 62
     7
100
AcDbEllipse
 10
140.3621199324
 20
164.3668861205
 30
0.0
 11
1.1745833705
 21
4.265790834999999
 31
0.0
210
0.0
220
0.0
230
1.0
 40
0.3794725964
 41
-1.7265364396
 42
-1.7076178705
  0
LINE
  5
359
330
1B
100
AcDbEntity
 67
     1
  8
06___PRT_ALL_SURFS
  6
Continuous
 62
     7
100
AcDbLine
 10
139.445668858
 20
162.9158473858
 30
0.0
 11
139.8298635143
 21
162.9158473858
 31
0.0
  0
LINE
  5
35A
330
1B
100
AcDbEntity
 67
     1
  8
06___PRT_ALL_SURFS
  6
Continuous
 62
     7
100
AcDbLine
 10
141.2785707076
 20
162.9711458575
 30
0.0
 11
141.4289387096
 21
163.3434966216
 31
0.0
  0
LINE
  5
35B
330
1B
100
AcDbEntity
 67
     1
  8
06___PRT_ALL_SURFS
  6
Continuous
 62
     7
100
AcDbLine
 10
141.2785707076
 20
162.9711458575
 30
0.0
 11
140.8943763506
 21
162.9711458575
 31
0.0
  0
SPLINE
  5
35C
330
1B
100
AcDbEntity
 67
     1
  8
06___PRT_ALL_SURFS
  6
Continuous
 62
     7
100
AcDbSpline
 70
     0
 71
     3
 72
    12
 73
     8
 74
     0
 42
0.000000001
 43
0.0000001
 40
0.0
 40
0.0
 40
0.0
 40
0.0
 40
0.131683544
 40
0.2616823401
 40
0.5156688508
 40
0.7622767007
 40
1.0
 40
1.0
 40
1.0
 40
1.0
 10
139.445668858
 20
162.9158473858
 30
0.0
 10
139.4095797352
 20
162.9334300986
 30
0.0
 10
139.3378785525
 20
162.9684040761
 30
0.0
 10
139.1973601639
 20
163.0388939912
 30
0.0
 10
139.0268331008
 20
163.1276684677
 30
0.0
 10
138.8288033485
 20
163.2346651258
 30
0.0
 10
138.7001420127
 20
163.3071309791
 30
0.0
 10
138.6374763594
 20
163.3435328619
 30
0.0
  0
LINE
  5
35D
330
1B
100
AcDbEntity
 67
     1
  8
06___PRT_ALL_SURFS
  6
Continuous
 62
     7
100
AcDbLine
 10
139.295300856
 20
162.5434966216
 30
0.0
 11
139.445668858
 21
162.9158473858
 31
0.0
  0
LINE
  5
35E
330
1B
100
AcDbEntity
 67
     1
  8
06___PRT_ALL_SURFS
  6
Continuous
 62
     7
100
AcDbLine
 10
137.4019222609
 20
162.9158473858
 30
0.0
 11
137.5151600557
 21
162.9158473858
 31
0.0
  0
LINE
  5
35F
330
1B
100
AcDbEntity
 67
     1
  8
02___PRT_ALL_AXES
  6
Continuous
 62
     7
100
AcDbLine
 10
85.9781453362
 20
175.3434966216
 30
0.0
 11
85.1121199324
 21
173.8434966216
 31
0.0
  0
LINE
  5
360
330
1B
100
AcDbEntity
 67
     1
  8
02___PRT_ALL_AXES
  6
Continuous
 62
     7
100
AcDbLine
 10
90.7460945286
 20
175.3434966216
 30
0.0
 11
91.6121199324
 21
173.8434966216
 31
0.0
  0
LINE
  5
361
330
1B
100
AcDbEntity
 67
     1
  8
02___PRT_ALL_AXES
  6
Continuous
 62
     7
100
AcDbLine
 10
85.1121199324
 20
173.8434966216
 30
0.0
 11
85.1121199324
 21
163.3434966216
 31
0.0
  0
LINE
  5
362
330
1B
100
AcDbEntity
 67
     1
  8
02___PRT_ALL_AXES
  6
Continuous
 62
     7
100
AcDbLine
 10
91.6121199324
 20
173.8434966216
 30
0.0
 11
91.6121199324
 21
163.3434966216
 31
0.0
  0
LINE
  5
363
330
1B
100
AcDbEntity
 67
     1
  8
02___PRT_ALL_AXES
  6
Continuous
 62
     7
100
AcDbLine
 10
85.1121199324
 20
173.8434966216
 30
0.0
 11
85.9781453362
 21
175.3434966216
 31
0.0
  0
LINE
  5
364
330
1B
100
AcDbEntity
 67
     1
  8
02___PRT_ALL_AXES
  6
Continuous
 62
     7
100
AcDbLine
 10
85.9781453362
 20
175.3434966216
 30
0.0
 11
90.7460945286
 21
175.3434966216
 31
0.0
  0
LINE
  5
365
330
1B
100
AcDbEntity
 67
     1
  8
02___PRT_ALL_AXES
  6
Continuous
 62
     7
100
AcDbLine
 10
85.1121199324
 20
163.3434966216
 30
0.0
 11
85.1121199324
 21
173.8434966216
 31
0.0
  0
LINE
  5
366
330
1B
100
AcDbEntity
 67
     1
  8
02___PRT_ALL_AXES
  6
Continuous
 62
     7
100
AcDbLine
 10
85.1121199324
 20
163.3434966216
 30
0.0
 11
86.2621199324
 21
163.3434966216
 31
0.0
  0
LINE
  5
367
330
1B
100
AcDbEntity
 67
     1
  8
02___PRT_ALL_AXES
  6
Continuous
 62
     7
100
AcDbLine
 10
86.2621199324
 20
163.3434966216
 30
0.0
 11
86.3621200371
 21
163.3434966216
 31
0.0
  0
LINE
  5
368
330
1B
100
AcDbEntity
 67
     1
  8
02___PRT_ALL_AXES
  6
Continuous
 62
     7
100
AcDbLine
 10
86.3621200371
 20
163.3434966216
 30
0.0
 11
86.4414902075
 21
163.3434966216
 31
0.0
  0
LINE
  5
369
330
1B
100
AcDbEntity
 67
     1
  8
02___PRT_ALL_AXES
  6
Continuous
 62
     7
100
AcDbLine
 10
86.4414902075
 20
163.3434966216
 30
0.0
 11
86.5123597562
 21
163.3434966216
 31
0.0
  0
LINE
  5
36A
330
1B
100
AcDbEntity
 67
     1
  8
02___PRT_ALL_AXES
  6
Continuous
 62
     7
100
AcDbLine
 10
86.5123597562
 20
163.3434966216
 30
0.0
 11
86.7621199324
 21
163.3434966216
 31
0.0
  0
LINE
  5
36B
330
1B
100
AcDbEntity
 67
     1
  8
02___PRT_ALL_AXES
  6
Continuous
 62
     7
100
AcDbLine
 10
86.7621199324
 20
163.3434966216
 30
0.0
 11
86.9777240042
 21
163.3434966216
 31
0.0
  0
LINE
  5
36C
330
1B
100
AcDbEntity
 67
     1
  8
02___PRT_ALL_AXES
  6
Continuous
 62
     7
100
AcDbLine
 10
86.9777240042
 20
163.3434966216
 30
0.0
 11
87.1404395179
 21
163.3434966216
 31
0.0
  0
LINE
  5
36D
330
1B
100
AcDbEntity
 67
     1
  8
02___PRT_ALL_AXES
  6
Continuous
 62
     7
100
AcDbLine
 10
87.1404395179
 20
163.3434966216
 30
0.0
 11
87.8849055718
 21
163.3434966216
 31
0.0
  0
LINE
  5
36E
330
1B
100
AcDbEntity
 67
     1
  8
02___PRT_ALL_AXES
  6
Continuous
 62
     7
100
AcDbLine
 10
87.8849055718
 20
163.3434966216
 30
0.0
 11
88.09586756
 21
163.3434966216
 31
0.0
  0
LINE
  5
36F
330
1B
100
AcDbEntity
 67
     1
  8
02___PRT_ALL_AXES
  6
Continuous
 62
     7
100
AcDbLine
 10
88.09586756
 20
163.3434966216
 30
0.0
 11
88.919956342
 21
163.3434966216
 31
0.0
  0
LINE
  5
370
330
1B
100
AcDbEntity
 67
     1
  8
02___PRT_ALL_AXES
  6
Continuous
 62
     7
100
AcDbLine
 10
88.919956342
 20
163.3434966216
 30
0.0
 11
89.1226377103
 21
163.3434966216
 31
0.0
  0
LINE
  5
371
330
1B
100
AcDbEntity
 67
     1
  8
02___PRT_ALL_AXES
  6
Continuous
 62
     7
100
AcDbLine
 10
89.1226377103
 20
163.3434966216
 30
0.0
 11
89.8055352967
 21
163.3434966216
 31
0.0
  0
LINE
  5
372
330
1B
100
AcDbEntity
 67
     1
  8
02___PRT_ALL_AXES
  6
Continuous
 62
     7
100
AcDbLine
 10
89.8055352967
 20
163.3434966216
 30
0.0
 11
89.9454316753
 21
163.3434966216
 31
0.0
  0
LINE
  5
373
330
1B
100
AcDbEntity
 67
     1
  8
02___PRT_ALL_AXES
  6
Continuous
 62
     7
100
AcDbLine
 10
89.9454316753
 20
163.3434966216
 30
0.0
 11
89.9456277362
 21
163.3434966216
 31
0.0
  0
LINE
  5
374
330
1B
100
AcDbEntity
 67
     1
  8
02___PRT_ALL_AXES
  6
Continuous
 62
     7
100
AcDbLine
 10
89.9456277362
 20
163.3434966216
 30
0.0
 11
89.9621199324
 21
163.3434966216
 31
0.0
  0
LINE
  5
375
330
1B
100
AcDbEntity
 67
     1
  8
02___PRT_ALL_AXES
  6
Continuous
 62
     7
100
AcDbLine
 10
89.9621199324
 20
163.3434966216
 30
0.0
 11
90.3043522702
 21
163.3434966216
 31
0.0
  0
LINE
  5
376
330
1B
100
AcDbEntity
 67
     1
  8
02___PRT_ALL_AXES
  6
Continuous
 62
     7
100
AcDbLine
 10
90.3043522702
 20
163.3434966216
 30
0.0
 11
90.3071549535
 21
163.3434966216
 31
0.0
  0
LINE
  5
377
330
1B
100
AcDbEntity
 67
     1
  8
02___PRT_ALL_AXES
  6
Continuous
 62
     7
100
AcDbLine
 10
90.3071549535
 20
163.3434966216
 30
0.0
 11
90.3443181249
 21
163.3434966216
 31
0.0
  0
LINE
  5
378
330
1B
100
AcDbEntity
 67
     1
  8
02___PRT_ALL_AXES
  6
Continuous
 62
     7
100
AcDbLine
 10
90.3443181249
 20
163.3434966216
 30
0.0
 11
90.3621161832
 21
163.3434966216
 31
0.0
  0
LINE
  5
379
330
1B
100
AcDbEntity
 67
     1
  8
02___PRT_ALL_AXES
  6
Continuous
 62
     7
100
AcDbLine
 10
90.3621161832
 20
163.3434966216
 30
0.0
 11
90.4621199324
 21
163.3434966216
 31
0.0
  0
LINE
  5
37A
330
1B
100
AcDbEntity
 67
     1
  8
02___PRT_ALL_AXES
  6
Continuous
 62
     7
100
AcDbLine
 10
90.4621199324
 20
163.3434966216
 30
0.0
 11
91.6121199324
 21
163.3434966216
 31
0.0
  0
LINE
  5
37B
330
1B
100
AcDbEntity
 67
     1
  8
02___PRT_ALL_AXES
  6
Continuous
 62
     7
100
AcDbLine
 10
91.6121199324
 20
173.8434966216
 30
0.0
 11
90.7460945286
 21
175.3434966216
 31
0.0
  0
LINE
  5
37C
330
1B
100
AcDbEntity
 67
     1
  8
02___PRT_ALL_AXES
  6
Continuous
 62
     7
100
AcDbLine
 10
91.6121199324
 20
163.3434966216
 30
0.0
 11
91.6121199324
 21
173.8434966216
 31
0.0
  0
LINE
  5
37D
330
1B
100
AcDbEntity
 67
     1
  8
02___PRT_ALL_AXES
  6
Continuous
 62
     7
100
AcDbLine
 10
85.1121199324
 20
173.8434966216
 30
0.0
 11
91.6121199324
 21
173.8434966216
 31
0.0
  0
LINE
  5
37E
330
1B
100
AcDbEntity
 67
     1
  8
02___PRT_ALL_AXES
  6
Continuous
 62
     7
100
AcDbLine
 10
189.9781453362
 20
175.3434966216
 30
0.0
 11
189.1121199324
 21
173.8434966216
 31
0.0
  0
LINE
  5
37F
330
1B
100
AcDbEntity
 67
     1
  8
02___PRT_ALL_AXES
  6
Continuous
 62
     7
100
AcDbLine
 10
194.7460945286
 20
175.3434966216
 30
0.0
 11
195.6121199324
 21
173.8434966216
 31
0.0
  0
LINE
  5
380
330
1B
100
AcDbEntity
 67
     1
  8
02___PRT_ALL_AXES
  6
Continuous
 62
     7
100
AcDbLine
 10
189.1121199324
 20
173.8434966216
 30
0.0
 11
189.1121199324
 21
163.3434966216
 31
0.0
  0
LINE
  5
381
330
1B
100
AcDbEntity
 67
     1
  8
02___PRT_ALL_AXES
  6
Continuous
 62
     7
100
AcDbLine
 10
195.6121199324
 20
173.8434966216
 30
0.0
 11
195.6121199324
 21
163.3434966216
 31
0.0
  0
LINE
  5
382
330
1B
100
AcDbEntity
 67
     1
  8
02___PRT_ALL_AXES
  6
Continuous
 62
     7
100
AcDbLine
 10
189.1121199324
 20
173.8434966216
 30
0.0
 11
189.9781453362
 21
175.3434966216
 31
0.0
  0
LINE
  5
383
330
1B
100
AcDbEntity
 67
     1
  8
02___PRT_ALL_AXES
  6
Continuous
 62
     7
100
AcDbLine
 10
189.9781453362
 20
175.3434966216
 30
0.0
 11
194.7460945286
 21
175.3434966216
 31
0.0
  0
LINE
  5
384
330
1B
100
AcDbEntity
 67
     1
  8
02___PRT_ALL_AXES
  6
Continuous
 62
     7
100
AcDbLine
 10
189.1121199324
 20
163.3434966216
 30
0.0
 11
189.1121199324
 21
173.8434966216
 31
0.0
  0
LINE
  5
385
330
1B
100
AcDbEntity
 67
     1
  8
02___PRT_ALL_AXES
  6
Continuous
 62
     7
100
AcDbLine
 10
189.1121199324
 20
163.3434966216
 30
0.0
 11
190.2621199324
 21
163.3434966216
 31
0.0
  0
LINE
  5
386
330
1B
100
AcDbEntity
 67
     1
  8
02___PRT_ALL_AXES
  6
Continuous
 62
     7
100
AcDbLine
 10
190.2621199324
 20
163.3434966216
 30
0.0
 11
190.3621200371
 21
163.3434966216
 31
0.0
  0
LINE
  5
387
330
1B
100
AcDbEntity
 67
     1
  8
02___PRT_ALL_AXES
  6
Continuous
 62
     7
100
AcDbLine
 10
190.3621200371
 20
163.3434966216
 30
0.0
 11
190.4414902075
 21
163.3434966216
 31
0.0
  0
LINE
  5
388
330
1B
100
AcDbEntity
 67
     1
  8
02___PRT_ALL_AXES
  6
Continuous
 62
     7
100
AcDbLine
 10
190.4414902075
 20
163.3434966216
 30
0.0
 11
190.5123597562
 21
163.3434966216
 31
0.0
  0
LINE
  5
389
330
1B
100
AcDbEntity
 67
     1
  8
02___PRT_ALL_AXES
  6
Continuous
 62
     7
100
AcDbLine
 10
190.5123597562
 20
163.3434966216
 30
0.0
 11
190.7621199324
 21
163.3434966216
 31
0.0
  0
LINE
  5
38A
330
1B
100
AcDbEntity
 67
     1
  8
02___PRT_ALL_AXES
  6
Continuous
 62
     7
100
AcDbLine
 10
190.7621199324
 20
163.3434966216
 30
0.0
 11
190.9777240042
 21
163.3434966216
 31
0.0
  0
LINE
  5
38B
330
1B
100
AcDbEntity
 67
     1
  8
02___PRT_ALL_AXES
  6
Continuous
 62
     7
100
AcDbLine
 10
190.9777240042
 20
163.3434966216
 30
0.0
 11
191.1404395179
 21
163.3434966216
 31
0.0
  0
LINE
  5
38C
330
1B
100
AcDbEntity
 67
     1
  8
02___PRT_ALL_AXES
  6
Continuous
 62
     7
100
AcDbLine
 10
191.1404395179
 20
163.3434966216
 30
0.0
 11
191.8849055718
 21
163.3434966216
 31
0.0
  0
LINE
  5
38D
330
1B
100
AcDbEntity
 67
     1
  8
02___PRT_ALL_AXES
  6
Continuous
 62
     7
100
AcDbLine
 10
191.8849055718
 20
163.3434966216
 30
0.0
 11
192.09586756
 21
163.3434966216
 31
0.0
  0
LINE
  5
38E
330
1B
100
AcDbEntity
 67
     1
  8
02___PRT_ALL_AXES
  6
Continuous
 62
     7
100
AcDbLine
 10
192.09586756
 20
163.3434966216
 30
0.0
 11
192.919956342
 21
163.3434966216
 31
0.0
  0
LINE
  5
38F
330
1B
100
AcDbEntity
 67
     1
  8
02___PRT_ALL_AXES
  6
Continuous
 62
     7
100
AcDbLine
 10
192.919956342
 20
163.3434966216
 30
0.0
 11
193.1226377103
 21
163.3434966216
 31
0.0
  0
LINE
  5
390
330
1B
100
AcDbEntity
 67
     1
  8
02___PRT_ALL_AXES
  6
Continuous
 62
     7
100
AcDbLine
 10
193.1226377103
 20
163.3434966216
 30
0.0
 11
193.8055352967
 21
163.3434966216
 31
0.0
  0
LINE
  5
391
330
1B
100
AcDbEntity
 67
     1
  8
02___PRT_ALL_AXES
  6
Continuous
 62
     7
100
AcDbLine
 10
193.8055352967
 20
163.3434966216
 30
0.0
 11
193.9454316753
 21
163.3434966216
 31
0.0
  0
LINE
  5
392
330
1B
100
AcDbEntity
 67
     1
  8
02___PRT_ALL_AXES
  6
Continuous
 62
     7
100
AcDbLine
 10
193.9454316753
 20
163.3434966216
 30
0.0
 11
193.9456277362
 21
163.3434966216
 31
0.0
  0
LINE
  5
393
330
1B
100
AcDbEntity
 67
     1
  8
02___PRT_ALL_AXES
  6
Continuous
 62
     7
100
AcDbLine
 10
193.9456277362
 20
163.3434966216
 30
0.0
 11
193.9621199324
 21
163.3434966216
 31
0.0
  0
LINE
  5
394
330
1B
100
AcDbEntity
 67
     1
  8
02___PRT_ALL_AXES
  6
Continuous
 62
     7
100
AcDbLine
 10
193.9621199324
 20
163.3434966216
 30
0.0
 11
194.3043522702
 21
163.3434966216
 31
0.0
  0
LINE
  5
395
330
1B
100
AcDbEntity
 67
     1
  8
02___PRT_ALL_AXES
  6
Continuous
 62
     7
100
AcDbLine
 10
194.3043522702
 20
163.3434966216
 30
0.0
 11
194.3071549535
 21
163.3434966216
 31
0.0
  0
LINE
  5
396
330
1B
100
AcDbEntity
 67
     1
  8
02___PRT_ALL_AXES
  6
Continuous
 62
     7
100
AcDbLine
 10
194.3071549535
 20
163.3434966216
 30
0.0
 11
194.3443181249
 21
163.3434966216
 31
0.0
  0
LINE
  5
397
330
1B
100
AcDbEntity
 67
     1
  8
02___PRT_ALL_AXES
  6
Continuous
 62
     7
100
AcDbLine
 10
194.3443181249
 20
163.3434966216
 30
0.0
 11
194.3621161832
 21
163.3434966216
 31
0.0
  0
LINE
  5
398
330
1B
100
AcDbEntity
 67
     1
  8
02___PRT_ALL_AXES
  6
Continuous
 62
     7
100
AcDbLine
 10
194.3621161832
 20
163.3434966216
 30
0.0
 11
194.4621199324
 21
163.3434966216
 31
0.0
  0
LINE
  5
399
330
1B
100
AcDbEntity
 67
     1
  8
02___PRT_ALL_AXES
  6
Continuous
 62
     7
100
AcDbLine
 10
194.4621199324
 20
163.3434966216
 30
0.0
 11
195.6121199324
 21
163.3434966216
 31
0.0
  0
LINE
  5
39A
330
1B
100
AcDbEntity
 67
     1
  8
02___PRT_ALL_AXES
  6
Continuous
 62
     7
100
AcDbLine
 10
195.6121199324
 20
173.8434966216
 30
0.0
 11
194.7460945286
 21
175.3434966216
 31
0.0
  0
LINE
  5
39B
330
1B
100
AcDbEntity
 67
     1
  8
02___PRT_ALL_AXES
  6
Continuous
 62
     7
100
AcDbLine
 10
195.6121199324
 20
163.3434966216
 30
0.0
 11
195.6121199324
 21
173.8434966216
 31
0.0
  0
LINE
  5
39C
330
1B
100
AcDbEntity
 67
     1
  8
02___PRT_ALL_AXES
  6
Continuous
 62
     7
100
AcDbLine
 10
189.1121199324
 20
173.8434966216
 30
0.0
 11
195.6121199324
 21
173.8434966216
 31
0.0
  0
LINE
  5
39D
330
1B
100
AcDbEntity
 67
     1
  8
02___PRT_ALL_AXES
  6
Continuous
 62
     7
100
AcDbLine
 10
137.9781453362
 20
175.3434966216
 30
0.0
 11
137.1121199324
 21
173.8434966216
 31
0.0
  0
LINE
  5
39E
330
1B
100
AcDbEntity
 67
     1
  8
02___PRT_ALL_AXES
  6
Continuous
 62
     7
100
AcDbLine
 10
142.7460945286
 20
175.3434966216
 30
0.0
 11
143.6121199324
 21
173.8434966216
 31
0.0
  0
LINE
  5
39F
330
1B
100
AcDbEntity
 67
     1
  8
02___PRT_ALL_AXES
  6
Continuous
 62
     7
100
AcDbLine
 10
137.1121199324
 20
173.8434966216
 30
0.0
 11
137.1121199324
 21
163.3434966216
 31
0.0
  0
LINE
  5
3A0
330
1B
100
AcDbEntity
 67
     1
  8
02___PRT_ALL_AXES
  6
Continuous
 62
     7
100
AcDbLine
 10
143.6121199324
 20
173.8434966216
 30
0.0
 11
143.6121199324
 21
163.3434966216
 31
0.0
  0
LINE
  5
3A1
330
1B
100
AcDbEntity
 67
     1
  8
02___PRT_ALL_AXES
  6
Continuous
 62
     7
100
AcDbLine
 10
137.1121199324
 20
173.8434966216
 30
0.0
 11
137.9781453362
 21
175.3434966216
 31
0.0
  0
LINE
  5
3A2
330
1B
100
AcDbEntity
 67
     1
  8
02___PRT_ALL_AXES
  6
Continuous
 62
     7
100
AcDbLine
 10
137.9781453362
 20
175.3434966216
 30
0.0
 11
142.7460945286
 21
175.3434966216
 31
0.0
  0
LINE
  5
3A3
330
1B
100
AcDbEntity
 67
     1
  8
02___PRT_ALL_AXES
  6
Continuous
 62
     7
100
AcDbLine
 10
137.1121199324
 20
163.3434966216
 30
0.0
 11
137.1121199324
 21
173.8434966216
 31
0.0
  0
LINE
  5
3A4
330
1B
100
AcDbEntity
 67
     1
  8
02___PRT_ALL_AXES
  6
Continuous
 62
     7
100
AcDbLine
 10
137.1121199324
 20
163.3434966216
 30
0.0
 11
138.2621199324
 21
163.3434966216
 31
0.0
  0
LINE
  5
3A5
330
1B
100
AcDbEntity
 67
     1
  8
02___PRT_ALL_AXES
  6
Continuous
 62
     7
100
AcDbLine
 10
138.2621199324
 20
163.3434966216
 30
0.0
 11
138.3621200371
 21
163.3434966216
 31
0.0
  0
LINE
  5
3A6
330
1B
100
AcDbEntity
 67
     1
  8
02___PRT_ALL_AXES
  6
Continuous
 62
     7
100
AcDbLine
 10
138.3621200371
 20
163.3434966216
 30
0.0
 11
138.4414902075
 21
163.3434966216
 31
0.0
  0
LINE
  5
3A7
330
1B
100
AcDbEntity
 67
     1
  8
02___PRT_ALL_AXES
  6
Continuous
 62
     7
100
AcDbLine
 10
138.4414902075
 20
163.3434966216
 30
0.0
 11
138.5123597562
 21
163.3434966216
 31
0.0
  0
LINE
  5
3A8
330
1B
100
AcDbEntity
 67
     1
  8
02___PRT_ALL_AXES
  6
Continuous
 62
     7
100
AcDbLine
 10
138.5123597562
 20
163.3434966216
 30
0.0
 11
138.7621199324
 21
163.3434966216
 31
0.0
  0
LINE
  5
3A9
330
1B
100
AcDbEntity
 67
     1
  8
02___PRT_ALL_AXES
  6
Continuous
 62
     7
100
AcDbLine
 10
138.7621199324
 20
163.3434966216
 30
0.0
 11
138.9777240042
 21
163.3434966216
 31
0.0
  0
LINE
  5
3AA
330
1B
100
AcDbEntity
 67
     1
  8
02___PRT_ALL_AXES
  6
Continuous
 62
     7
100
AcDbLine
 10
138.9777240042
 20
163.3434966216
 30
0.0
 11
139.1404395179
 21
163.3434966216
 31
0.0
  0
LINE
  5
3AB
330
1B
100
AcDbEntity
 67
     1
  8
02___PRT_ALL_AXES
  6
Continuous
 62
     7
100
AcDbLine
 10
139.1404395179
 20
163.3434966216
 30
0.0
 11
139.8849055718
 21
163.3434966216
 31
0.0
  0
LINE
  5
3AC
330
1B
100
AcDbEntity
 67
     1
  8
02___PRT_ALL_AXES
  6
Continuous
 62
     7
100
AcDbLine
 10
139.8849055718
 20
163.3434966216
 30
0.0
 11
140.09586756
 21
163.3434966216
 31
0.0
  0
LINE
  5
3AD
330
1B
100
AcDbEntity
 67
     1
  8
02___PRT_ALL_AXES
  6
Continuous
 62
     7
100
AcDbLine
 10
140.09586756
 20
163.3434966216
 30
0.0
 11
140.919956342
 21
163.3434966216
 31
0.0
  0
LINE
  5
3AE
330
1B
100
AcDbEntity
 67
     1
  8
02___PRT_ALL_AXES
  6
Continuous
 62
     7
100
AcDbLine
 10
140.919956342
 20
163.3434966216
 30
0.0
 11
141.1226377103
 21
163.3434966216
 31
0.0
  0
LINE
  5
3AF
330
1B
100
AcDbEntity
 67
     1
  8
02___PRT_ALL_AXES
  6
Continuous
 62
     7
100
AcDbLine
 10
141.1226377103
 20
163.3434966216
 30
0.0
 11
141.8055352967
 21
163.3434966216
 31
0.0
  0
LINE
  5
3B0
330
1B
100
AcDbEntity
 67
     1
  8
02___PRT_ALL_AXES
  6
Continuous
 62
     7
100
AcDbLine
 10
141.8055352967
 20
163.3434966216
 30
0.0
 11
141.9454316753
 21
163.3434966216
 31
0.0
  0
LINE
  5
3B1
330
1B
100
AcDbEntity
 67
     1
  8
02___PRT_ALL_AXES
  6
Continuous
 62
     7
100
AcDbLine
 10
141.9454316753
 20
163.3434966216
 30
0.0
 11
141.9456277362
 21
163.3434966216
 31
0.0
  0
LINE
  5
3B2
330
1B
100
AcDbEntity
 67
     1
  8
02___PRT_ALL_AXES
  6
Continuous
 62
     7
100
AcDbLine
 10
141.9456277362
 20
163.3434966216
 30
0.0
 11
141.9621199324
 21
163.3434966216
 31
0.0
  0
LINE
  5
3B3
330
1B
100
AcDbEntity
 67
     1
  8
02___PRT_ALL_AXES
  6
Continuous
 62
     7
100
AcDbLine
 10
141.9621199324
 20
163.3434966216
 30
0.0
 11
142.3043522702
 21
163.3434966216
 31
0.0
  0
LINE
  5
3B4
330
1B
100
AcDbEntity
 67
     1
  8
02___PRT_ALL_AXES
  6
Continuous
 62
     7
100
AcDbLine
 10
142.3043522702
 20
163.3434966216
 30
0.0
 11
142.3071549535
 21
163.3434966216
 31
0.0
  0
LINE
  5
3B5
330
1B
100
AcDbEntity
 67
     1
  8
02___PRT_ALL_AXES
  6
Continuous
 62
     7
100
AcDbLine
 10
142.3071549535
 20
163.3434966216
 30
0.0
 11
142.3443181249
 21
163.3434966216
 31
0.0
  0
LINE
  5
3B6
330
1B
100
AcDbEntity
 67
     1
  8
02___PRT_ALL_AXES
  6
Continuous
 62
     7
100
AcDbLine
 10
142.3443181249
 20
163.3434966216
 30
0.0
 11
142.3621161832
 21
163.3434966216
 31
0.0
  0
LINE
  5
3B7
330
1B
100
AcDbEntity
 67
     1
  8
02___PRT_ALL_AXES
  6
Continuous
 62
     7
100
AcDbLine
 10
142.3621161832
 20
163.3434966216
 30
0.0
 11
142.4621199324
 21
163.3434966216
 31
0.0
  0
LINE
  5
3B8
330
1B
100
AcDbEntity
 67
     1
  8
02___PRT_ALL_AXES
  6
Continuous
 62
     7
100
AcDbLine
 10
142.4621199324
 20
163.3434966216
 30
0.0
 11
143.6121199324
 21
163.3434966216
 31
0.0
  0
LINE
  5
3B9
330
1B
100
AcDbEntity
 67
     1
  8
02___PRT_ALL_AXES
  6
Continuous
 62
     7
100
AcDbLine
 10
143.6121199324
 20
173.8434966216
 30
0.0
 11
142.7460945286
 21
175.3434966216
 31
0.0
  0
LINE
  5
3BA
330
1B
100
AcDbEntity
 67
     1
  8
02___PRT_ALL_AXES
  6
Continuous
 62
     7
100
AcDbLine
 10
143.6121199324
 20
163.3434966216
 30
0.0
 11
143.6121199324
 21
173.8434966216
 31
0.0
  0
LINE
  5
3BB
330
1B
100
AcDbEntity
 67
     1
  8
02___PRT_ALL_AXES
  6
Continuous
 62
     7
100
AcDbLine
 10
137.1121199324
 20
173.8434966216
 30
0.0
 11
143.6121199324
 21
173.8434966216
 31
0.0
  0
SPLINE
  5
3BC
330
1B
100
AcDbEntity
 67
     1
  8
7_ALL_FEATURES
  6
Continuous
 62
     7
100
AcDbSpline
 70
     0
 71
     3
 72
    19
 73
    15
 74
     0
 42
0.000000001
 43
0.0000001
 40
0.0
 40
0.0
 40
0.0
 40
0.0
 40
0.177826377
 40
0.3495763793
 40
0.5090248395
 40
0.6512142114
 40
0.7145312958
 40
0.7720994998
 40
0.8236574245
 40
0.8690682191
 40
0.9085368149
 40
0.9426570608
 40
0.9725344168
 40
1.0
 40
1.0
 40
1.0
 40
1.0
 10
204.1621199324
 20
129.9434966216
 30
0.0
 10
204.1124087287
 20
129.7873242692
 30
0.0
 10
204.0146924962
 20
129.4803146434
 30
0.0
 10
203.8674485374
 20
129.0348492619
 30
0.0
 10
203.7205021856
 20
128.6239925736
 30
0.0
 10
203.5941105786
 20
128.3120538013
 30
0.0
 10
203.4907813018
 20
128.0926375873
 30
0.0
 10
203.4163079195
 20
127.9521479675
 30
0.0
 10
203.3418579313
 20
127.830586643
 30
0.0
 10
203.2673707317
 20
127.7290346742
 30
0.0
 10
203.1926774889
 20
127.6482948283
 30
0.0
 10
203.1172925525
 20
127.589005388
 30
0.0
 10
203.040559151
 20
127.5520953433
 30
0.0
 10
202.9874335255
 20
127.5434966216
 30
0.0
 10
202.9621199324
 20
127.5434966216
 30
0.0
  0
LINE
  5
3BD
330
1B
100
AcDbEntity
 67
     1
  8
7_ALL_FEATURES
  6
Continuous
 62
     7
100
AcDbLine
 10
77.7621199324
 20
127.5434966216
 30
0.0
 11
202.9621199324
 21
127.5434966216
 31
0.0
  0
SPLINE
  5
3BE
330
1B
100
AcDbEntity
 67
     1
  8
7_ALL_FEATURES
  6
Continuous
 62
     7
100
AcDbSpline
 70
     0
 71
     3
 72
    19
 73
    15
 74
     0
 42
0.000000001
 43
0.0000001
 40
0.0
 40
0.0
 40
0.0
 40
0.0
 40
0.177826377
 40
0.3495763793
 40
0.5090248395
 40
0.6512142114
 40
0.7145312958
 40
0.7720994998
 40
0.8236574245
 40
0.8690682191
 40
0.9085368149
 40
0.9426570608
 40
0.9725344168
 40
1.0
 40
1.0
 40
1.0
 40
1.0
 10
76.5621199324
 20
129.9434966216
 30
0.0
 10
76.6118311362
 20
129.7873242692
 30
0.0
 10
76.7095473687
 20
129.4803146434
 30
0.0
 10
76.8567913275
 20
129.0348492619
 30
0.0
 10
77.0037376793
 20
128.6239925736
 30
0.0
 10
77.1301292863
 20
128.3120538013
 30
0.0
 10
77.233458563
 20
128.0926375873
 30
0.0
 10
77.3079319454
 20
127.9521479675
 30
0.0
 10
77.3823819336
 20
127.830586643
 30
0.0
 10
77.4568691331
 20
127.7290346742
 30
0.0
 10
77.531562376
 20
127.6482948283
 30
0.0
 10
77.6069473124
 20
127.589005388
 30
0.0
 10
77.6836807139
 20
127.5520953433
 30
0.0
 10
77.7368063394
 20
127.5434966216
 30
0.0
 10
77.7621199324
 20
127.5434966216
 30
0.0
  0
LINE
  5
3BF
330
1B
100
AcDbEntity
 67
     1
  8
7_ALL_FEATURES
  6
Continuous
 62
     7
100
AcDbLine
 10
204.1621199324
 20
129.9434966216
 30
0.0
 11
204.1621199324
 21
160.1434966216
 31
0.0
  0
LINE
  5
3C0
330
1B
100
AcDbEntity
 67
     1
  8
7_ALL_FEATURES
  6
Continuous
 62
     7
100
AcDbLine
 10
76.5621199324
 20
129.9434966216
 30
0.0
 11
76.5621199324
 21
160.1434966216
 31
0.0
  0
LINE
  5
3C1
330
1B
100
AcDbEntity
 67
     1
  8
7_ALL_FEATURES
  6
Continuous
 62
     7
100
AcDbLine
 10
75.3621199324
 20
162.5434966216
 30
0.0
 11
76.5621199324
 21
162.5434966216
 31
0.0
  0
LINE
  5
3C2
330
1B
100
AcDbEntity
 67
     1
  8
7_ALL_FEATURES
  6
Continuous
 62
     7
100
AcDbLine
 10
76.5621199324
 20
162.5434966216
 30
0.0
 11
204.1621199324
 21
162.5434966216
 31
0.0
  0
LINE
  5
3C3
330
1B
100
AcDbEntity
 67
     1
  8
7_ALL_FEATURES
  6
Continuous
 62
     7
100
AcDbLine
 10
205.3621199324
 20
162.5434966216
 30
0.0
 11
204.1621199324
 21
162.5434966216
 31
0.0
  0
ARC
  5
3C4
330
1B
100
AcDbEntity
 67
     1
  8
7_ALL_FEATURES
  6
Continuous
 62
     7
100
AcDbCircle
 10
202.9621199324
 20
129.9434966216
 30
0.0
 40
2.4
100
AcDbArc
 50
270.0
 51
360.0
  0
LINE
  5
3C5
330
1B
100
AcDbEntity
 67
     1
  8
7_ALL_FEATURES
  6
Continuous
 62
     7
100
AcDbLine
 10
205.3621199324
 20
129.9434966216
 30
0.0
 11
205.3621199324
 21
160.5434966216
 31
0.0
  0
LINE
  5
3C6
330
1B
100
AcDbEntity
 67
     1
  8
7_ALL_FEATURES
  6
Continuous
 62
     7
100
AcDbLine
 10
205.3621199324
 20
162.5434966216
 30
0.0
 11
205.3621199324
 21
160.5434966216
 31
0.0
  0
LINE
  5
3C7
330
1B
100
AcDbEntity
 67
     1
  8
7_ALL_FEATURES
  6
Continuous
 62
     7
100
AcDbLine
 10
75.3621199324
 20
162.5434966216
 30
0.0
 11
76.5621199324
 21
162.5434966216
 31
0.0
  0
ARC
  5
3C8
330
1B
100
AcDbEntity
 67
     1
  8
7_ALL_FEATURES
  6
Continuous
 62
     7
100
AcDbCircle
 10
77.7621199324
 20
129.9434966216
 30
0.0
 40
2.4
100
AcDbArc
 50
180.0
 51
270.0
  0
LINE
  5
3C9
330
1B
100
AcDbEntity
 67
     1
  8
7_ALL_FEATURES
  6
Continuous
 62
     7
100
AcDbLine
 10
75.3621199324
 20
160.5434966216
 30
0.0
 11
75.3621199324
 21
162.5434966216
 31
0.0
  0
LINE
  5
3CA
330
1B
100
AcDbEntity
 67
     1
  8
7_ALL_FEATURES
  6
Continuous
 62
     7
100
AcDbLine
 10
75.3621199324
 20
129.9434966216
 30
0.0
 11
75.3621199324
 21
160.5434966216
 31
0.0
  0
LINE
  5
3CB
330
1B
100
AcDbEntity
 67
     1
  8
7_ALL_FEATURES
  6
Continuous
 62
     7
100
AcDbLine
 10
76.5621199324
 20
162.5434966216
 30
0.0
 11
204.1621199324
 21
162.5434966216
 31
0.0
  0
LINE
  5
3CC
330
1B
100
AcDbEntity
 67
     1
  8
7_ALL_FEATURES
  6
Continuous
 62
     9
100
AcDbLine
 10
204.1621199324
 20
129.9434966216
 30
0.0
 11
76.5621199324
 21
129.9434966216
 31
0.0
  0
LINE
  5
3CD
330
1B
100
AcDbEntity
 67
     1
  8
7_ALL_FEATURES
  6
Continuous
 62
     9
100
AcDbLine
 10
205.3621199324
 20
160.5434966216
 30
0.0
 11
204.1621199324
 21
160.5434966216
 31
0.0
  0
LINE
  5
3CE
330
1B
100
AcDbEntity
 67
     1
  8
7_ALL_FEATURES
  6
Continuous
 62
     7
100
AcDbLine
 10
204.1621199324
 20
129.9434966216
 30
0.0
 11
205.3621199324
 21
129.9434966216
 31
0.0
  0
LINE
  5
3CF
330
1B
100
AcDbEntity
 67
     1
  8
7_ALL_FEATURES
  6
Continuous
 62
     9
100
AcDbLine
 10
76.5621199324
 20
160.1434966216
 30
0.0
 11
204.1621199324
 21
160.1434966216
 31
0.0
  0
LINE
  5
3D0
330
1B
100
AcDbEntity
 67
     1
  8
7_ALL_FEATURES
  6
Continuous
 62
     9
100
AcDbLine
 10
75.3621199324
 20
160.5434966216
 30
0.0
 11
76.5621199324
 21
160.5434966216
 31
0.0
  0
LINE
  5
3D1
330
1B
100
AcDbEntity
 67
     1
  8
7_ALL_FEATURES
  6
Continuous
 62
     7
100
AcDbLine
 10
76.5621199324
 20
129.9434966216
 30
0.0
 11
75.3621199324
 21
129.9434966216
 31
0.0
  0
LINE
  5
3D2
330
1B
100
AcDbEntity
 67
     1
  8
7_ALL_FEATURES
  6
Continuous
 62
     3
100
AcDbLine
 10
76.5621199324
 20
162.5434966216
 30
0.0
 11
76.5621199324
 21
160.5434966216
 31
0.0
  0
LINE
  5
3D3
330
1B
100
AcDbEntity
 67
     1
  8
7_ALL_FEATURES
  6
Continuous
 62
     3
100
AcDbLine
 10
204.1621199324
 20
160.5434966216
 30
0.0
 11
204.1621199324
 21
162.5434966216
 31
0.0
  0
LINE
  5
3D4
330
1B
100
AcDbEntity
 67
     1
  8
7_ALL_FEATURES
  6
Continuous
 62
     3
100
AcDbLine
 10
204.1621199324
 20
129.9434966216
 30
0.0
 11
204.1621199324
 21
160.1434966216
 31
0.0
  0
LINE
  5
3D5
330
1B
100
AcDbEntity
 67
     1
  8
7_ALL_FEATURES
  6
Continuous
 62
     3
100
AcDbLine
 10
204.1621199324
 20
160.1434966216
 30
0.0
 11
204.1621199324
 21
160.5434966216
 31
0.0
  0
ARC
  5
3D6
330
1B
100
AcDbEntity
 67
     1
  8
7_ALL_FEATURES
  6
Continuous
 62
     3
100
AcDbCircle
 10
202.9621199324
 20
129.9434966216
 30
0.0
 40
1.2
100
AcDbArc
 50
324.5067396733
 51
360.0
  0
LINE
  5
3D7
330
1B
100
AcDbEntity
 67
     1
  8
7_ALL_FEATURES
  6
Continuous
 62
     3
100
AcDbLine
 10
76.5621199324
 20
129.9434966216
 30
0.0
 11
76.5621199324
 21
160.1434966216
 31
0.0
  0
LINE
  5
3D8
330
1B
100
AcDbEntity
 67
     1
  8
7_ALL_FEATURES
  6
Continuous
 62
     3
100
AcDbLine
 10
76.5621199324
 20
160.1434966216
 30
0.0
 11
76.5621199324
 21
160.5434966216
 31
0.0
  0
ARC
  5
3D9
330
1B
100
AcDbEntity
 67
     1
  8
7_ALL_FEATURES
  6
Continuous
 62
     3
100
AcDbCircle
 10
77.7621199324
 20
129.9434966216
 30
0.0
 40
1.2
100
AcDbArc
 50
180.0
 51
215.4932603267
  0
LINE
  5
3DA
330
1B
100
AcDbEntity
 67
     1
  8
7_ALL_FEATURES
  6
Continuous
 62
     7
100
AcDbLine
 10
87.7847696632
 20
200.4011824324
 30
0.0
 11
87.2074193941
 21
199.4011824324
 31
0.0
  0
LINE
  5
3DB
330
1B
100
AcDbEntity
 67
     1
  8
7_ALL_FEATURES
  6
Continuous
 62
     7
100
AcDbLine
 10
87.2074193941
 20
199.4011824324
 30
0.0
 11
87.7847696632
 21
198.4011824324
 31
0.0
  0
LINE
  5
3DC
330
1B
100
AcDbEntity
 67
     1
  8
7_ALL_FEATURES
  6
Continuous
 62
     7
100
AcDbLine
 10
87.7847696632
 20
198.4011824324
 30
0.0
 11
88.9394702016
 21
198.4011824324
 31
0.0
  0
LINE
  5
3DD
330
1B
100
AcDbEntity
 67
     1
  8
7_ALL_FEATURES
  6
Continuous
 62
     7
100
AcDbLine
 10
88.9394702016
 20
198.4011824324
 30
0.0
 11
89.5168204708
 21
199.4011824324
 31
0.0
  0
LINE
  5
3DE
330
1B
100
AcDbEntity
 67
     1
  8
7_ALL_FEATURES
  6
Continuous
 62
     7
100
AcDbLine
 10
89.5168204708
 20
199.4011824324
 30
0.0
 11
88.9394702016
 21
200.4011824324
 31
0.0
  0
LINE
  5
3DF
330
1B
100
AcDbEntity
 67
     1
  8
7_ALL_FEATURES
  6
Continuous
 62
     7
100
AcDbLine
 10
88.9394702016
 20
200.4011824324
 30
0.0
 11
87.7847696632
 21
200.4011824324
 31
0.0
  0
ARC
  5
3E0
330
1B
100
AcDbEntity
 67
     1
  8
3_ALL_AXES
  6
Continuous
 62
     7
100
AcDbCircle
 10
88.3621199324
 20
199.4011824324
 30
0.0
 40
2.85
100
AcDbArc
 50
0.0
 51
180.0
  0
ARC
  5
3E1
330
1B
100
AcDbEntity
 67
     1
  8
3_ALL_AXES
  6
Continuous
 62
     7
100
AcDbCircle
 10
88.3621199324
 20
199.4011824324
 30
0.0
 40
2.85
100
AcDbArc
 50
180.0
 51
360.0
  0
ARC
  5
3E2
330
1B
100
AcDbEntity
 67
     1
  8
3_ALL_AXES
  6
Continuous
 62
     7
100
AcDbCircle
 10
88.3621199324
 20
199.4011824324
 30
0.0
 40
1.655
100
AcDbArc
 50
180.0
 51
360.0
  0
ARC
  5
3E3
330
1B
100
AcDbEntity
 67
     1
  8
3_ALL_AXES
  6
Continuous
 62
     7
100
AcDbCircle
 10
88.3621199324
 20
199.4011824324
 30
0.0
 40
1.655
100
AcDbArc
 50
0.0
 51
180.0
  0
LINE
  5
3E4
330
1B
100
AcDbEntity
 67
     1
  8
7_ALL_FEATURES
  6
Continuous
 62
     7
100
AcDbLine
 10
191.7847696632
 20
200.4011824324
 30
0.0
 11
191.2074193941
 21
199.4011824324
 31
0.0
  0
LINE
  5
3E5
330
1B
100
AcDbEntity
 67
     1
  8
7_ALL_FEATURES
  6
Continuous
 62
     7
100
AcDbLine
 10
191.2074193941
 20
199.4011824324
 30
0.0
 11
191.7847696632
 21
198.4011824324
 31
0.0
  0
LINE
  5
3E6
330
1B
100
AcDbEntity
 67
     1
  8
7_ALL_FEATURES
  6
Continuous
 62
     7
100
AcDbLine
 10
191.7847696632
 20
198.4011824324
 30
0.0
 11
192.9394702016
 21
198.4011824324
 31
0.0
  0
LINE
  5
3E7
330
1B
100
AcDbEntity
 67
     1
  8
7_ALL_FEATURES
  6
Continuous
 62
     7
100
AcDbLine
 10
192.9394702016
 20
198.4011824324
 30
0.0
 11
193.5168204708
 21
199.4011824324
 31
0.0
  0
LINE
  5
3E8
330
1B
100
AcDbEntity
 67
     1
  8
7_ALL_FEATURES
  6
Continuous
 62
     7
100
AcDbLine
 10
193.5168204708
 20
199.4011824324
 30
0.0
 11
192.9394702016
 21
200.4011824324
 31
0.0
  0
LINE
  5
3E9
330
1B
100
AcDbEntity
 67
     1
  8
7_ALL_FEATURES
  6
Continuous
 62
     7
100
AcDbLine
 10
192.9394702016
 20
200.4011824324
 30
0.0
 11
191.7847696632
 21
200.4011824324
 31
0.0
  0
ARC
  5
3EA
330
1B
100
AcDbEntity
 67
     1
  8
3_ALL_AXES
  6
Continuous
 62
     7
100
AcDbCircle
 10
192.3621199324
 20
199.4011824324
 30
0.0
 40
2.85
100
AcDbArc
 50
0.0
 51
180.0
  0
ARC
  5
3EB
330
1B
100
AcDbEntity
 67
     1
  8
3_ALL_AXES
  6
Continuous
 62
     7
100
AcDbCircle
 10
192.3621199324
 20
199.4011824324
 30
0.0
 40
2.85
100
AcDbArc
 50
180.0
 51
360.0
  0
ARC
  5
3EC
330
1B
100
AcDbEntity
 67
     1
  8
3_ALL_AXES
  6
Continuous
 62
     7
100
AcDbCircle
 10
192.3621199324
 20
199.4011824324
 30
0.0
 40
1.655
100
AcDbArc
 50
180.0
 51
360.0
  0
ARC
  5
3ED
330
1B
100
AcDbEntity
 67
     1
  8
3_ALL_AXES
  6
Continuous
 62
     7
100
AcDbCircle
 10
192.3621199324
 20
199.4011824324
 30
0.0
 40
1.655
100
AcDbArc
 50
0.0
 51
180.0
  0
LINE
  5
3EE
330
1B
100
AcDbEntity
 67
     1
  8
7_ALL_FEATURES
  6
Continuous
 62
     7
100
AcDbLine
 10
139.7847696632
 20
269.4011824324
 30
0.0
 11
139.2074193941
 21
268.4011824324
 31
0.0
  0
LINE
  5
3EF
330
1B
100
AcDbEntity
 67
     1
  8
7_ALL_FEATURES
  6
Continuous
 62
     7
100
AcDbLine
 10
139.2074193941
 20
268.4011824324
 30
0.0
 11
139.7847696632
 21
267.4011824324
 31
0.0
  0
LINE
  5
3F0
330
1B
100
AcDbEntity
 67
     1
  8
7_ALL_FEATURES
  6
Continuous
 62
     7
100
AcDbLine
 10
139.7847696632
 20
267.4011824324
 30
0.0
 11
140.9394702016
 21
267.4011824324
 31
0.0
  0
LINE
  5
3F1
330
1B
100
AcDbEntity
 67
     1
  8
7_ALL_FEATURES
  6
Continuous
 62
     7
100
AcDbLine
 10
140.9394702016
 20
267.4011824324
 30
0.0
 11
141.5168204708
 21
268.4011824324
 31
0.0
  0
LINE
  5
3F2
330
1B
100
AcDbEntity
 67
     1
  8
7_ALL_FEATURES
  6
Continuous
 62
     7
100
AcDbLine
 10
141.5168204708
 20
268.4011824324
 30
0.0
 11
140.9394702016
 21
269.4011824324
 31
0.0
  0
LINE
  5
3F3
330
1B
100
AcDbEntity
 67
     1
  8
7_ALL_FEATURES
  6
Continuous
 62
     7
100
AcDbLine
 10
140.9394702016
 20
269.4011824324
 30
0.0
 11
139.7847696632
 21
269.4011824324
 31
0.0
  0
ARC
  5
3F4
330
1B
100
AcDbEntity
 67
     1
  8
3_ALL_AXES
  6
Continuous
 62
     7
100
AcDbCircle
 10
140.3621199324
 20
268.4011824324
 30
0.0
 40
2.85
100
AcDbArc
 50
0.0
 51
59.2513272764
  0
ARC
  5
3F5
330
1B
100
AcDbEntity
 67
     1
  8
3_ALL_AXES
  6
Continuous
 62
     7
100
AcDbCircle
 10
140.3621199324
 20
268.4011824324
 30
0.0
 40
2.85
100
AcDbArc
 50
120.7486727236
 51
180.0
  0
ARC
  5
3F6
330
1B
100
AcDbEntity
 67
     1
  8
3_ALL_AXES
  6
Continuous
 62
     7
100
AcDbCircle
 10
140.3621199324
 20
268.4011824324
 30
0.0
 40
2.85
100
AcDbArc
 50
180.0
 51
360.0
  0
ARC
  5
3F7
330
1B
100
AcDbEntity
 67
     1
  8
3_ALL_AXES
  6
Continuous
 62
     7
100
AcDbCircle
 10
140.3621199324
 20
268.4011824324
 30
0.0
 40
1.655
100
AcDbArc
 50
180.0
 51
360.0
  0
ARC
  5
3F8
330
1B
100
AcDbEntity
 67
     1
  8
3_ALL_AXES
  6
Continuous
 62
     7
100
AcDbCircle
 10
140.3621199324
 20
268.4011824324
 30
0.0
 40
1.655
100
AcDbArc
 50
0.0
 51
180.0
  0
LINE
  5
3F9
330
1B
100
AcDbEntity
 67
     1
  8
7_ALL_FEATURES
  6
Continuous
 62
     7
100
AcDbLine
 10
204.1621199324
 20
187.9011824324
 30
0.0
 11
76.5621199324
 21
187.9011824324
 31
0.0
  0
LINE
  5
3FA
330
1B
100
AcDbEntity
 67
     1
  8
7_ALL_FEATURES
  6
Continuous
 62
     7
100
AcDbLine
 10
204.1621199324
 20
279.9011824324
 30
0.0
 11
76.5621199324
 21
279.9011824324
 31
0.0
  0
LINE
  5
3FB
330
1B
100
AcDbEntity
 67
     1
  8
7_ALL_FEATURES
  6
Continuous
 62
     7
100
AcDbLine
 10
75.3621199324
 20
187.9011824324
 30
0.0
 11
75.3621199324
 21
279.9011824324
 31
0.0
  0
LINE
  5
3FC
330
1B
100
AcDbEntity
 67
     1
  8
7_ALL_FEATURES
  6
Continuous
 62
     7
100
AcDbLine
 10
205.3621199324
 20
279.9011824324
 30
0.0
 11
205.3621199324
 21
187.9011824324
 31
0.0
  0
LINE
  5
3FD
330
1B
100
AcDbEntity
 67
     1
  8
7_ALL_FEATURES
  6
Continuous
 62
     7
100
AcDbLine
 10
76.5621199324
 20
279.9011824324
 30
0.0
 11
204.1621199324
 21
279.9011824324
 31
0.0
  0
ARC
  5
3FE
330
1B
100
AcDbEntity
 67
     1
  8
7_ALL_FEATURES
  6
Continuous
 62
     7
100
AcDbCircle
 10
140.8147727053
 20
265.9511824324
 30
0.0
 40
5.0
100
AcDbArc
 50
14.1114883919
 51
90.0
  0
ARC
  5
3FF
330
1B
100
AcDbEntity
 67
     1
  8
7_ALL_FEATURES
  6
Continuous
 62
     7
100
AcDbCircle
 10
139.9094671596
 20
265.9511824324
 30
0.0
 40
5.0
100
AcDbArc
 50
90.0
 51
165.8885116081
  0
ARC
  5
400
330
1B
100
AcDbEntity
 67
     1
  8
7_ALL_FEATURES
  6
Continuous
 62
     7
100
AcDbCircle
 10
149.1121199324
 20
233.9011824324
 30
0.0
 40
26.25
100
AcDbArc
 50
270.0
 51
80.0718081577
  0
LINE
  5
401
330
1B
100
AcDbEntity
 67
     1
  8
7_ALL_FEATURES
  6
Continuous
 62
     7
100
AcDbLine
 10
149.1121199324
 20
207.6511824324
 30
0.0
 11
131.6121199324
 21
207.6511824324
 31
0.0
  0
ARC
  5
402
330
1B
100
AcDbEntity
 67
     1
  8
7_ALL_FEATURES
  6
Continuous
 62
     7
100
AcDbCircle
 10
131.6121199324
 20
233.9011824324
 30
0.0
 40
26.25
100
AcDbArc
 50
99.9281918423
 51
270.0
  0
ARC
  5
403
330
1B
100
AcDbEntity
 67
     1
  8
7_ALL_FEATURES
  6
Continuous
 62
     7
100
AcDbCircle
 10
125.3621199324
 20
269.6083245751
 30
0.0
 40
10.0
100
AcDbArc
 50
279.9281918423
 51
345.8885116081
  0
LINE
  5
404
330
1B
100
AcDbEntity
 67
     1
  8
7_ALL_FEATURES
  6
Continuous
 62
     7
100
AcDbLine
 10
139.9094671596
 20
270.9511824324
 30
0.0
 11
140.8147727053
 21
270.9511824324
 31
0.0
  0
ARC
  5
405
330
1B
100
AcDbEntity
 67
     1
  8
7_ALL_FEATURES
  6
Continuous
 62
     7
100
AcDbCircle
 10
155.3621199324
 20
269.6083245751
 30
0.0
 40
10.0
100
AcDbArc
 50
194.1114883919
 51
260.0718081577
  0
ARC
  5
406
330
1B
100
AcDbEntity
 67
     1
  8
02___PRT_ALL_AXES
  6
Continuous
 62
     7
100
AcDbCircle
 10
192.3621199324
 20
199.4011824324
 30
0.0
 40
3.25
100
AcDbArc
 50
180.0
 51
360.0
  0
ARC
  5
407
330
1B
100
AcDbEntity
 67
     1
  8
02___PRT_ALL_AXES
  6
Continuous
 62
     7
100
AcDbCircle
 10
192.3621199324
 20
199.4011824324
 30
0.0
 40
3.25
100
AcDbArc
 50
0.0
 51
180.0
  0
ARC
  5
408
330
1B
100
AcDbEntity
 67
     1
  8
02___PRT_ALL_AXES
  6
Continuous
 62
     7
100
AcDbCircle
 10
88.3621199324
 20
199.4011824324
 30
0.0
 40
3.25
100
AcDbArc
 50
180.0
 51
360.0
  0
ARC
  5
409
330
1B
100
AcDbEntity
 67
     1
  8
02___PRT_ALL_AXES
  6
Continuous
 62
     7
100
AcDbCircle
 10
88.3621199324
 20
199.4011824324
 30
0.0
 40
3.25
100
AcDbArc
 50
0.0
 51
180.0
  0
ARC
  5
40A
330
1B
100
AcDbEntity
 67
     1
  8
7_ALL_FEATURES
  6
Continuous
 62
     7
100
AcDbCircle
 10
99.6121199324
 20
233.9011824324
 30
0.0
 40
2.5
100
AcDbArc
 50
180.0
 51
360.0
  0
ARC
  5
40B
330
1B
100
AcDbEntity
 67
     1
  8
7_ALL_FEATURES
  6
Continuous
 62
     7
100
AcDbCircle
 10
99.6121199324
 20
233.9011824324
 30
0.0
 40
2.5
100
AcDbArc
 50
0.0
 51
180.0
  0
ARC
  5
40C
330
1B
100
AcDbEntity
 67
     1
  8
7_ALL_FEATURES
  6
Continuous
 62
     7
100
AcDbCircle
 10
181.1121199324
 20
233.9011824324
 30
0.0
 40
2.5
100
AcDbArc
 50
180.0
 51
360.0
  0
ARC
  5
40D
330
1B
100
AcDbEntity
 67
     1
  8
7_ALL_FEATURES
  6
Continuous
 62
     7
100
AcDbCircle
 10
181.1121199324
 20
233.9011824324
 30
0.0
 40
2.5
100
AcDbArc
 50
0.0
 51
180.0
  0
ARC
  5
40E
330
1B
100
AcDbEntity
 67
     1
  8
7_ALL_FEATURES
  6
Continuous
 62
     7
100
AcDbCircle
 10
185.3621199324
 20
215.1511824324
 30
0.0
 40
2.75
100
AcDbArc
 50
0.0
 51
180.0
  0
LINE
  5
40F
330
1B
100
AcDbEntity
 67
     1
  8
7_ALL_FEATURES
  6
Continuous
 62
     7
100
AcDbLine
 10
188.1121199324
 20
215.1511824324
 30
0.0
 11
188.1121199324
 21
212.6511824324
 31
0.0
  0
ARC
  5
410
330
1B
100
AcDbEntity
 67
     1
  8
7_ALL_FEATURES
  6
Continuous
 62
     7
100
AcDbCircle
 10
185.3621199324
 20
212.6511824324
 30
0.0
 40
2.75
100
AcDbArc
 50
180.0
 51
360.0
  0
LINE
  5
411
330
1B
100
AcDbEntity
 67
     1
  8
7_ALL_FEATURES
  6
Continuous
 62
     7
100
AcDbLine
 10
182.6121199324
 20
212.6511824324
 30
0.0
 11
182.6121199324
 21
215.1511824324
 31
0.0
  0
LINE
  5
412
330
1B
100
AcDbEntity
 67
     1
  8
7_ALL_FEATURES
  6
Continuous
 62
     7
100
AcDbLine
 10
94.1121199324
 20
216.6511824324
 30
0.0
 11
96.6121199324
 21
216.6511824324
 31
0.0
  0
ARC
  5
413
330
1B
100
AcDbEntity
 67
     1
  8
7_ALL_FEATURES
  6
Continuous
 62
     7
100
AcDbCircle
 10
96.6121199324
 20
213.9011824324
 30
0.0
 40
2.75
100
AcDbArc
 50
270.0
 51
90.0
  0
LINE
  5
414
330
1B
100
AcDbEntity
 67
     1
  8
7_ALL_FEATURES
  6
Continuous
 62
     7
100
AcDbLine
 10
96.6121199324
 20
211.1511824324
 30
0.0
 11
94.1121199324
 21
211.1511824324
 31
0.0
  0
ARC
  5
415
330
1B
100
AcDbEntity
 67
     1
  8
7_ALL_FEATURES
  6
Continuous
 62
     7
100
AcDbCircle
 10
94.1121199324
 20
213.9011824324
 30
0.0
 40
2.75
100
AcDbArc
 50
90.0
 51
270.0
  0
ARC
  5
416
330
1B
100
AcDbEntity
 67
     1
  8
7_ALL_FEATURES
  6
Continuous
 62
     7
100
AcDbCircle
 10
95.3621199324
 20
252.6511824324
 30
0.0
 40
2.75
100
AcDbArc
 50
180.0
 51
360.0
  0
LINE
  5
417
330
1B
100
AcDbEntity
 67
     1
  8
7_ALL_FEATURES
  6
Continuous
 62
     7
100
AcDbLine
 10
92.6121199324
 20
252.6511824324
 30
0.0
 11
92.6121199324
 21
255.1511824324
 31
0.0
  0
ARC
  5
418
330
1B
100
AcDbEntity
 67
     1
  8
7_ALL_FEATURES
  6
Continuous
 62
     7
100
AcDbCircle
 10
95.3621199324
 20
255.1511824324
 30
0.0
 40
2.75
100
AcDbArc
 50
0.0
 51
180.0
  0
LINE
  5
419
330
1B
100
AcDbEntity
 67
     1
  8
7_ALL_FEATURES
  6
Continuous
 62
     7
100
AcDbLine
 10
98.1121199324
 20
255.1511824324
 30
0.0
 11
98.1121199324
 21
252.6511824324
 31
0.0
  0
LINE
  5
41A
330
1B
100
AcDbEntity
 67
     1
  8
7_ALL_FEATURES
  6
Continuous
 62
     7
100
AcDbLine
 10
186.6121199324
 20
251.1511824324
 30
0.0
 11
184.1121199324
 21
251.1511824324
 31
0.0
  0
ARC
  5
41B
330
1B
100
AcDbEntity
 67
     1
  8
7_ALL_FEATURES
  6
Continuous
 62
     7
100
AcDbCircle
 10
184.1121199324
 20
253.9011824324
 30
0.0
 40
2.75
100
AcDbArc
 50
90.0
 51
270.0
  0
LINE
  5
41C
330
1B
100
AcDbEntity
 67
     1
  8
7_ALL_FEATURES
  6
Continuous
 62
     7
100
AcDbLine
 10
204.1621199324
 20
279.9011824324
 30
0.0
 11
205.3621199324
 21
279.9011824324
 31
0.0
  0
LINE
  5
41D
330
1B
100
AcDbEntity
 67
     1
  8
7_ALL_FEATURES
  6
Continuous
 62
     7
100
AcDbLine
 10
184.1121199324
 20
256.6511824324
 30
0.0
 11
186.6121199324
 21
256.6511824324
 31
0.0
  0
ARC
  5
41E
330
1B
100
AcDbEntity
 67
     1
  8
7_ALL_FEATURES
  6
Continuous
 62
     7
100
AcDbCircle
 10
186.6121199324
 20
253.9011824324
 30
0.0
 40
2.75
100
AcDbArc
 50
270.0
 51
90.0
  0
LINE
  5
41F
330
1B
100
AcDbEntity
 67
     1
  8
7_ALL_FEATURES
  6
Continuous
 62
     7
100
AcDbLine
 10
205.3621199324
 20
187.9011824324
 30
0.0
 11
205.3621199324
 21
279.9011824324
 31
0.0
  0
LINE
  5
420
330
1B
100
AcDbEntity
 67
     1
  8
7_ALL_FEATURES
  6
Continuous
 62
     7
100
AcDbLine
 10
204.1621199324
 20
187.9011824324
 30
0.0
 11
205.3621199324
 21
187.9011824324
 31
0.0
  0
LINE
  5
421
330
1B
100
AcDbEntity
 67
     1
  8
7_ALL_FEATURES
  6
Continuous
 62
     7
100
AcDbLine
 10
76.5621199324
 20
279.9011824324
 30
0.0
 11
75.3621199324
 21
279.9011824324
 31
0.0
  0
LINE
  5
422
330
1B
100
AcDbEntity
 67
     1
  8
7_ALL_FEATURES
  6
Continuous
 62
     7
100
AcDbLine
 10
76.5621199324
 20
187.9011824324
 30
0.0
 11
75.3621199324
 21
187.9011824324
 31
0.0
  0
LINE
  5
423
330
1B
100
AcDbEntity
 67
     1
  8
7_ALL_FEATURES
  6
Continuous
 62
     7
100
AcDbLine
 10
75.3621199324
 20
279.9011824324
 30
0.0
 11
75.3621199324
 21
187.9011824324
 31
0.0
  0
LINE
  5
424
330
1B
100
AcDbEntity
 67
     1
  8
7_ALL_FEATURES
  6
Continuous
 62
     7
100
AcDbLine
 10
76.5621199324
 20
187.9011824324
 30
0.0
 11
204.1621199324
 21
187.9011824324
 31
0.0
  0
SPLINE
  5
425
330
1B
100
AcDbEntity
 67
     1
  8
7_ALL_FEATURES
  6
Continuous
 62
     7
100
AcDbSpline
 70
     0
 71
     3
 72
    18
 73
    14
 74
     0
 42
0.000000001
 43
0.0000001
 40
0.0
 40
0.0
 40
0.0
 40
0.0
 40
0.0428447644
 40
0.0866820349
 40
0.1805551394
 40
0.2320067803
 40
0.2869060388
 40
0.3453982538
 40
0.4074776297
 40
0.5417419961
 40
0.6875593209
 40
0.8416347354
 40
1.0
 40
1.0
 40
1.0
 40
1.0
 10
205.3621199324
 20
279.9011824324
 30
0.0
 10
205.3621199324
 20
279.8510342512
 30
0.0
 10
205.3541822484
 20
279.7494049081
 30
0.0
 10
205.3060166297
 20
279.5429489872
 30
0.0
 10
205.2100041165
 20
279.3404771278
 30
0.0
 10
205.0785189395
 20
279.1463453748
 30
0.0
 10
204.9566739877
 20
278.9964140541
 30
0.0
 10
204.8158616398
 20
278.8467217832
 30
0.0
 10
204.5988286376
 20
278.6419012871
 30
0.0
 10
204.2877377507
 20
278.3889213338
 30
0.0
 10
203.8744311509
 20
278.0930116423
 30
0.0
 10
203.4269810563
 20
277.7971072136
 30
0.0
 10
203.1184833644
 20
277.6007264849
 30
0.0
 10
202.9621199324
 20
277.5011824324
 30
0.0
  0
SPLINE
  5
426
330
1B
100
AcDbEntity
 67
     1
  8
7_ALL_FEATURES
  6
Continuous
 62
     7
100
AcDbSpline
 70
     0
 71
     3
 72
    19
 73
    15
 74
     0
 42
0.000000001
 43
0.0000001
 40
0.0
 40
0.0
 40
0.0
 40
0.0
 40
0.0274432473
 40
0.057314851
 40
0.0914519464
 40
0.1309839841
 40
0.1764043862
 40
0.2278456262
 40
0.2853271151
 40
0.3486003236
 40
0.4908987842
 40
0.6505260991
 40
0.8220954045
 40
1.0
 40
1.0
 40
1.0
 40
1.0
 10
204.1621199324
 20
187.9011824324
 30
0.0
 10
204.1368269246
 20
187.9011824324
 30
0.0
 10
204.0837276149
 20
187.9097694031
 30
0.0
 10
204.0069951213
 20
187.9466582569
 30
0.0
 10
203.9315496284
 20
188.0059839887
 30
0.0
 10
203.8568068232
 20
188.0867925012
 30
0.0
 10
203.7823558127
 20
188.18832065
 30
0.0
 10
203.7079979801
 20
188.3097280827
 30
0.0
 10
203.6336176293
 20
188.4500088909
 30
0.0
 10
203.5302732165
 20
188.6693961113
 30
0.0
 10
203.403784238
 20
188.981539002
 30
0.0
 10
203.2568077653
 20
189.3924899467
 30
0.0
 10
203.1095404822
 20
189.8380216938
 30
0.0
 10
203.0118530033
 20
190.1449413822
 30
0.0
 10
202.9621199324
 20
190.3011824324
 30
0.0
  0
SPLINE
  5
427
330
1B
100
AcDbEntity
 67
     1
  8
7_ALL_FEATURES
  6
Continuous
 62
     7
100
AcDbSpline
 70
     0
 71
     3
 72
    19
 73
    15
 74
     0
 42
0.000000001
 43
0.0000001
 40
0.0
 40
0.0
 40
0.0
 40
0.0
 40
0.0274432473
 40
0.057314851
 40
0.0914519464
 40
0.1309839841
 40
0.1764043862
 40
0.2278456262
 40
0.2853271151
 40
0.3486003236
 40
0.4908987842
 40
0.6505260991
 40
0.8220954045
 40
1.0
 40
1.0
 40
1.0
 40
1.0
 10
76.5621199324
 20
187.9011824324
 30
0.0
 10
76.5874129402
 20
187.9011824324
 30
0.0
 10
76.64051225
 20
187.9097694031
 30
0.0
 10
76.7172447436
 20
187.9466582569
 30
0.0
 10
76.7926902364
 20
188.0059839887
 30
0.0
 10
76.8674330417
 20
188.0867925012
 30
0.0
 10
76.9418840521
 20
188.18832065
 30
0.0
 10
77.0162418848
 20
188.3097280827
 30
0.0
 10
77.0906222355
 20
188.4500088909
 30
0.0
 10
77.1939666484
 20
188.6693961113
 30
0.0
 10
77.3204556269
 20
188.981539002
 30
0.0
 10
77.4674320996
 20
189.3924899467
 30
0.0
 10
77.6146993826
 20
189.8380216938
 30
0.0
 10
77.7123868615
 20
190.1449413822
 30
0.0
 10
77.7621199324
 20
190.3011824324
 30
0.0
  0
LINE
  5
428
330
1B
100
AcDbEntity
 67
     1
  8
7_ALL_FEATURES
  6
Continuous
 62
     9
100
AcDbLine
 10
77.7621199324
 20
277.5011824324
 30
0.0
 11
202.9621199324
 21
277.5011824324
 31
0.0
  0
SPLINE
  5
429
330
1B
100
AcDbEntity
 67
     1
  8
7_ALL_FEATURES
  6
Continuous
 62
     7
100
AcDbSpline
 70
     0
 71
     3
 72
    18
 73
    14
 74
     0
 42
0.000000001
 43
0.0000001
 40
0.0
 40
0.0
 40
0.0
 40
0.0
 40
0.0428447644
 40
0.0866820349
 40
0.1805551394
 40
0.2320067803
 40
0.2869060388
 40
0.3453982538
 40
0.4074776297
 40
0.5417419961
 40
0.6875593209
 40
0.8416347354
 40
1.0
 40
1.0
 40
1.0
 40
1.0
 10
75.3621199324
 20
279.9011824324
 30
0.0
 10
75.3621199324
 20
279.8510342512
 30
0.0
 10
75.3700576165
 20
279.7494049081
 30
0.0
 10
75.4182232351
 20
279.5429489872
 30
0.0
 10
75.5142357483
 20
279.3404771278
 30
0.0
 10
75.6457209254
 20
279.1463453748
 30
0.0
 10
75.7675658772
 20
278.9964140541
 30
0.0
 10
75.908378225
 20
278.8467217832
 30
0.0
 10
76.1254112272
 20
278.6419012871
 30
0.0
 10
76.4365021141
 20
278.3889213338
 30
0.0
 10
76.849808714
 20
278.0930116423
 30
0.0
 10
77.2972588086
 20
277.7971072136
 30
0.0
 10
77.6057565005
 20
277.6007264849
 30
0.0
 10
77.7621199324
 20
277.5011824324
 30
0.0
  0
LINE
  5
42A
330
1B
100
AcDbEntity
 67
     1
  8
7_ALL_FEATURES
  6
Continuous
 62
     9
100
AcDbLine
 10
77.7621199324
 20
190.3011824324
 30
0.0
 11
77.7621199324
 21
277.5011824324
 31
0.0
  0
SPLINE
  5
42B
330
1B
100
AcDbEntity
 67
     1
  8
7_ALL_FEATURES
  6
Continuous
 62
     7
100
AcDbSpline
 70
     0
 71
     3
 72
    18
 73
    14
 74
     0
 42
0.000000001
 43
0.0000001
 40
0.0
 40
0.0
 40
0.0
 40
0.0
 40
0.0428447644
 40
0.0866820349
 40
0.1805551394
 40
0.2320067803
 40
0.2869060388
 40
0.3453982538
 40
0.4074776297
 40
0.5417419961
 40
0.6875593209
 40
0.8416347354
 40
1.0
 40
1.0
 40
1.0
 40
1.0
 10
75.3621199324
 20
187.9011824324
 30
0.0
 10
75.3621199324
 20
187.9513306137
 30
0.0
 10
75.3700576165
 20
188.0529599568
 30
0.0
 10
75.4182232351
 20
188.2594158777
 30
0.0
 10
75.5142357483
 20
188.461887737
 30
0.0
 10
75.6457209254
 20
188.6560194901
 30
0.0
 10
75.7675658772
 20
188.8059508107
 30
0.0
 10
75.908378225
 20
188.9556430817
 30
0.0
 10
76.1254112272
 20
189.1604635778
 30
0.0
 10
76.4365021141
 20
189.413443531
 30
0.0
 10
76.849808714
 20
189.7093532225
 30
0.0
 10
77.2972588086
 20
190.0052576513
 30
0.0
 10
77.6057565005
 20
190.20163838
 30
0.0
 10
77.7621199324
 20
190.3011824324
 30
0.0
  0
LINE
  5
42C
330
1B
100
AcDbEntity
 67
     1
  8
7_ALL_FEATURES
  6
Continuous
 62
     9
100
AcDbLine
 10
202.9621199324
 20
277.5011824324
 30
0.0
 11
202.9621199324
 21
190.3011824324
 31
0.0
  0
SPLINE
  5
42D
330
1B
100
AcDbEntity
 67
     1
  8
7_ALL_FEATURES
  6
Continuous
 62
     7
100
AcDbSpline
 70
     0
 71
     3
 72
    19
 73
    15
 74
     0
 42
0.000000001
 43
0.0000001
 40
0.0
 40
0.0
 40
0.0
 40
0.0
 40
0.0274432473
 40
0.057314851
 40
0.0914519464
 40
0.1309839841
 40
0.1764043862
 40
0.2278456262
 40
0.2853271151
 40
0.3486003236
 40
0.4908987842
 40
0.6505260991
 40
0.8220954045
 40
1.0
 40
1.0
 40
1.0
 40
1.0
 10
204.1621199324
 20
279.9011824324
 30
0.0
 10
204.1368269246
 20
279.9011824324
 30
0.0
 10
204.0837276149
 20
279.8925954618
 30
0.0
 10
204.0069951213
 20
279.855706608
 30
0.0
 10
203.9315496284
 20
279.7963808762
 30
0.0
 10
203.8568068232
 20
279.7155723637
 30
0.0
 10
203.7823558127
 20
279.6140442149
 30
0.0
 10
203.7079979801
 20
279.4926367822
 30
0.0
 10
203.6336176293
 20
279.3523559739
 30
0.0
 10
203.5302732165
 20
279.1329687535
 30
0.0
 10
203.403784238
 20
278.8208258628
 30
0.0
 10
203.2568077653
 20
278.4098749182
 30
0.0
 10
203.1095404822
 20
277.9643431711
 30
0.0
 10
203.0118530033
 20
277.6574234826
 30
0.0
 10
202.9621199324
 20
277.5011824324
 30
0.0
  0
SPLINE
  5
42E
330
1B
100
AcDbEntity
 67
     1
  8
7_ALL_FEATURES
  6
Continuous
 62
     7
100
AcDbSpline
 70
     0
 71
     3
 72
    19
 73
    15
 74
     0
 42
0.000000001
 43
0.0000001
 40
0.0
 40
0.0
 40
0.0
 40
0.0
 40
0.0274432473
 40
0.057314851
 40
0.0914519464
 40
0.1309839841
 40
0.1764043862
 40
0.2278456262
 40
0.2853271151
 40
0.3486003236
 40
0.4908987842
 40
0.6505260991
 40
0.8220954045
 40
1.0
 40
1.0
 40
1.0
 40
1.0
 10
76.5621199324
 20
279.9011824324
 30
0.0
 10
76.5874129402
 20
279.9011824324
 30
0.0
 10
76.64051225
 20
279.8925954618
 30
0.0
 10
76.7172447436
 20
279.855706608
 30
0.0
 10
76.7926902364
 20
279.7963808762
 30
0.0
 10
76.8674330417
 20
279.7155723637
 30
0.0
 10
76.9418840521
 20
279.6140442149
 30
0.0
 10
77.0162418848
 20
279.4926367822
 30
0.0
 10
77.0906222355
 20
279.3523559739
 30
0.0
 10
77.1939666484
 20
279.1329687535
 30
0.0
 10
77.3204556269
 20
278.8208258628
 30
0.0
 10
77.4674320996
 20
278.4098749182
 30
0.0
 10
77.6146993826
 20
277.9643431711
 30
0.0
 10
77.7123868615
 20
277.6574234826
 30
0.0
 10
77.7621199324
 20
277.5011824324
 30
0.0
  0
SPLINE
  5
42F
330
1B
100
AcDbEntity
 67
     1
  8
7_ALL_FEATURES
  6
Continuous
 62
     7
100
AcDbSpline
 70
     0
 71
     3
 72
    18
 73
    14
 74
     0
 42
0.000000001
 43
0.0000001
 40
0.0
 40
0.0
 40
0.0
 40
0.0
 40
0.0428447644
 40
0.0866820349
 40
0.1805551394
 40
0.2320067803
 40
0.2869060388
 40
0.3453982538
 40
0.4074776297
 40
0.5417419961
 40
0.6875593209
 40
0.8416347354
 40
1.0
 40
1.0
 40
1.0
 40
1.0
 10
205.3621199324
 20
187.9011824324
 30
0.0
 10
205.3621199324
 20
187.9513306137
 30
0.0
 10
205.3541822484
 20
188.0529599568
 30
0.0
 10
205.3060166297
 20
188.2594158777
 30
0.0
 10
205.2100041165
 20
188.461887737
 30
0.0
 10
205.0785189395
 20
188.6560194901
 30
0.0
 10
204.9566739877
 20
188.8059508107
 30
0.0
 10
204.8158616398
 20
188.9556430817
 30
0.0
 10
204.5988286376
 20
189.1604635778
 30
0.0
 10
204.2877377507
 20
189.413443531
 30
0.0
 10
203.8744311509
 20
189.7093532225
 30
0.0
 10
203.4269810563
 20
190.0052576513
 30
0.0
 10
203.1184833644
 20
190.20163838
 30
0.0
 10
202.9621199324
 20
190.3011824324
 30
0.0
  0
LINE
  5
430
330
1B
100
AcDbEntity
 67
     1
  8
7_ALL_FEATURES
  6
Continuous
 62
     9
100
AcDbLine
 10
202.9621199324
 20
190.3011824324
 30
0.0
 11
77.7621199324
 21
190.3011824324
 31
0.0
  0
SPLINE
  5
431
330
1B
100
AcDbEntity
 67
     1
  8
7_ALL_FEATURES
  6
Continuous
 62
     3
100
AcDbSpline
 70
     0
 71
     3
 72
    11
 73
     7
 74
     0
 42
0.000000001
 43
0.0000001
 40
0.0
 40
0.0
 40
0.0
 40
0.0
 40
0.2188074421
 40
0.4634214807
 40
0.7266305348
 40
1.0
 40
1.0
 40
1.0
 40
1.0
 10
77.0654326454
 20
189.3523356379
 30
0.0
 10
77.1274438871
 20
189.4119644031
 30
0.0
 10
77.2491350597
 20
189.5482577693
 30
0.0
 10
77.420107815
 20
189.777315131
 30
0.0
 10
77.591117385
 20
190.0325446113
 30
0.0
 10
77.7043993642
 20
190.2105151759
 30
0.0
 10
77.7621199324
 20
190.3011824324
 30
0.0
  0
SPLINE
  5
432
330
1B
100
AcDbEntity
 67
     1
  8
7_ALL_FEATURES
  6
Continuous
 62
     3
100
AcDbSpline
 70
     0
 71
     3
 72
    11
 73
     7
 74
     0
 42
0.000000001
 43
0.0000001
 40
0.0
 40
0.0
 40
0.0
 40
0.0
 40
0.2188074421
 40
0.4634214807
 40
0.7266305348
 40
1.0
 40
1.0
 40
1.0
 40
1.0
 10
203.6588072194
 20
189.3523356379
 30
0.0
 10
203.5967959777
 20
189.4119644031
 30
0.0
 10
203.4751048052
 20
189.5482577693
 30
0.0
 10
203.3041320499
 20
189.777315131
 30
0.0
 10
203.1331224799
 20
190.0325446113
 30
0.0
 10
203.0198405006
 20
190.2105151759
 30
0.0
 10
202.9621199324
 20
190.3011824324
 30
0.0
  0
SPLINE
  5
433
330
1B
100
AcDbEntity
 67
     1
  8
7_ALL_FEATURES
  6
Continuous
 62
     3
100
AcDbSpline
 70
     0
 71
     3
 72
    14
 73
    10
 74
     0
 42
0.000000001
 43
0.0000001
 40
0.0
 40
0.0
 40
0.0
 40
0.0
 40
0.1100291576
 40
0.2225408183
 40
0.3395013398
 40
0.4620309928
 40
0.5903168925
 40
0.7236998911
 40
1.0
 40
1.0
 40
1.0
 40
1.0
 10
76.5621199324
 20
279.9011824324
 30
0.0
 10
76.5621199324
 20
279.8008874799
 30
0.0
 10
76.5780195821
 20
279.5977107067
 30
0.0
 10
76.6480593719
 20
279.2952720931
 30
0.0
 10
76.7610238346
 20
278.9941221657
 30
0.0
 10
76.9120199907
 20
278.6942578225
 30
0.0
 10
77.0950158838
 20
278.3953247999
 30
0.0
 10
77.3756147811
 20
277.9929289962
 30
0.0
 10
77.6065565691
 20
277.6992518584
 30
0.0
 10
77.7621199324
 20
277.5011824324
 30
0.0
  0
SPLINE
  5
434
330
1B
100
AcDbEntity
 67
     1
  8
7_ALL_FEATURES
  6
Continuous
 62
     3
100
AcDbSpline
 70
     0
 71
     3
 72
    14
 73
    10
 74
     0
 42
0.000000001
 43
0.0000001
 40
0.0
 40
0.0
 40
0.0
 40
0.0
 40
0.1100291576
 40
0.2225408183
 40
0.3395013398
 40
0.4620309928
 40
0.5903168925
 40
0.7236998911
 40
1.0
 40
1.0
 40
1.0
 40
1.0
 10
76.5621199324
 20
187.9011824324
 30
0.0
 10
76.5621199324
 20
188.001477385
 30
0.0
 10
76.5780195821
 20
188.2046541582
 30
0.0
 10
76.6480593719
 20
188.5070927717
 30
0.0
 10
76.7610238346
 20
188.8082426992
 30
0.0
 10
76.9120199907
 20
189.1081070423
 30
0.0
 10
77.0950158838
 20
189.4070400649
 30
0.0
 10
77.3756147811
 20
189.8094358687
 30
0.0
 10
77.6065565691
 20
190.1031130065
 30
0.0
 10
77.7621199324
 20
190.3011824324
 30
0.0
  0
SPLINE
  5
435
330
1B
100
AcDbEntity
 67
     1
  8
7_ALL_FEATURES
  6
Continuous
 62
     3
100
AcDbSpline
 70
     0
 71
     3
 72
    14
 73
    10
 74
     0
 42
0.000000001
 43
0.0000001
 40
0.0
 40
0.0
 40
0.0
 40
0.0
 40
0.1100291576
 40
0.2225408183
 40
0.3395013398
 40
0.4620309928
 40
0.5903168925
 40
0.7236998911
 40
1.0
 40
1.0
 40
1.0
 40
1.0
 10
204.1621199324
 20
187.9011824324
 30
0.0
 10
204.1621199324
 20
188.001477385
 30
0.0
 10
204.1462202828
 20
188.2046541582
 30
0.0
 10
204.076180493
 20
188.5070927717
 30
0.0
 10
203.9632160303
 20
188.8082426992
 30
0.0
 10
203.8122198741
 20
189.1081070423
 30
0.0
 10
203.6292239811
 20
189.4070400649
 30
0.0
 10
203.3486250838
 20
189.8094358687
 30
0.0
 10
203.1176832958
 20
190.1031130065
 30
0.0
 10
202.9621199324
 20
190.3011824324
 30
0.0
  0
SPLINE
  5
436
330
1B
100
AcDbEntity
 67
     1
  8
7_ALL_FEATURES
  6
Continuous
 62
     3
100
AcDbSpline
 70
     0
 71
     3
 72
    14
 73
    10
 74
     0
 42
0.000000001
 43
0.0000001
 40
0.0
 40
0.0
 40
0.0
 40
0.0
 40
0.1100291576
 40
0.2225408183
 40
0.3395013398
 40
0.4620309928
 40
0.5903168925
 40
0.7236998911
 40
1.0
 40
1.0
 40
1.0
 40
1.0
 10
204.1621199324
 20
279.9011824324
 30
0.0
 10
204.1621199324
 20
279.8008874799
 30
0.0
 10
204.1462202828
 20
279.5977107067
 30
0.0
 10
204.076180493
 20
279.2952720931
 30
0.0
 10
203.9632160303
 20
278.9941221657
 30
0.0
 10
203.8122198741
 20
278.6942578225
 30
0.0
 10
203.6292239811
 20
278.3953247999
 30
0.0
 10
203.3486250838
 20
277.9929289962
 30
0.0
 10
203.1176832958
 20
277.6992518584
 30
0.0
 10
202.9621199324
 20
277.5011824324
 30
0.0
  0
SPLINE
  5
437
330
1B
100
AcDbEntity
 67
     1
  8
7_ALL_FEATURES
  6
Continuous
 62
     3
100
AcDbSpline
 70
     0
 71
     3
 72
    11
 73
     7
 74
     0
 42
0.000000001
 43
0.0000001
 40
0.0
 40
0.0
 40
0.0
 40
0.0
 40
0.2188074421
 40
0.4634214807
 40
0.7266305348
 40
1.0
 40
1.0
 40
1.0
 40
1.0
 10
203.6588072194
 20
278.4500292269
 30
0.0
 10
203.5967959777
 20
278.3904004618
 30
0.0
 10
203.4751048052
 20
278.2541070956
 30
0.0
 10
203.3041320499
 20
278.0250497339
 30
0.0
 10
203.1331224799
 20
277.7698202535
 30
0.0
 10
203.0198405006
 20
277.5918496889
 30
0.0
 10
202.9621199324
 20
277.5011824324
 30
0.0
  0
SPLINE
  5
438
330
1B
100
AcDbEntity
 67
     1
  8
7_ALL_FEATURES
  6
Continuous
 62
     3
100
AcDbSpline
 70
     0
 71
     3
 72
    11
 73
     7
 74
     0
 42
0.000000001
 43
0.0000001
 40
0.0
 40
0.0
 40
0.0
 40
0.0
 40
0.2188074421
 40
0.4634214807
 40
0.7266305348
 40
1.0
 40
1.0
 40
1.0
 40
1.0
 10
77.0654326454
 20
278.4500292269
 30
0.0
 10
77.1274438871
 20
278.3904004618
 30
0.0
 10
77.2491350597
 20
278.2541070956
 30
0.0
 10
77.420107815
 20
278.0250497339
 30
0.0
 10
77.591117385
 20
277.7698202535
 30
0.0
 10
77.7043993642
 20
277.5918496889
 30
0.0
 10
77.7621199324
 20
277.5011824324
 30
0.0
  0
LINE
  5
439
330
1B
100
AcDbEntity
 67
     1
  8
7_ALL_FEATURES
  6
Continuous
 62
     3
100
AcDbLine
 10
147.1514871445
 20
263.9011824324
 30
0.0
 11
133.5727527204
 21
263.9011824324
 31
0.0
  0
ARC
  5
43A
330
1B
100
AcDbEntity
 67
     1
  8
02___PRT_ALL_AXES
  6
Continuous
 62
     7
100
AcDbCircle
 10
192.3621199324
 20
106.3410102689
 30
0.0
 40
3.25
100
AcDbArc
 50
180.0
 51
360.0
  0
ARC
  5
43B
330
1B
100
AcDbEntity
 67
     1
  8
02___PRT_ALL_AXES
  6
Continuous
 62
     7
100
AcDbCircle
 10
192.3621199324
 20
106.3410102689
 30
0.0
 40
3.25
100
AcDbArc
 50
0.0
 51
180.0
  0
ARC
  5
43C
330
1B
100
AcDbEntity
 67
     1
  8
02___PRT_ALL_AXES
  6
Continuous
 62
     7
100
AcDbCircle
 10
192.3621199324
 20
106.3410102689
 30
0.0
 40
2.3839745962
100
AcDbArc
 50
0.0
 51
180.0
  0
ARC
  5
43D
330
1B
100
AcDbEntity
 67
     1
  8
02___PRT_ALL_AXES
  6
Continuous
 62
     7
100
AcDbCircle
 10
192.3621199324
 20
106.3410102689
 30
0.0
 40
2.3839745962
100
AcDbArc
 50
180.0
 51
360.0
  0
ARC
  5
43E
330
1B
100
AcDbEntity
 67
     1
  8
02___PRT_ALL_AXES
  6
Continuous
 62
     7
100
AcDbCircle
 10
88.3621199324
 20
106.3410102689
 30
0.0
 40
3.25
100
AcDbArc
 50
180.0
 51
360.0
  0
ARC
  5
43F
330
1B
100
AcDbEntity
 67
     1
  8
02___PRT_ALL_AXES
  6
Continuous
 62
     7
100
AcDbCircle
 10
88.3621199324
 20
106.3410102689
 30
0.0
 40
3.25
100
AcDbArc
 50
0.0
 51
180.0
  0
ARC
  5
440
330
1B
100
AcDbEntity
 67
     1
  8
02___PRT_ALL_AXES
  6
Continuous
 62
     7
100
AcDbCircle
 10
88.3621199324
 20
106.3410102689
 30
0.0
 40
2.3839745962
100
AcDbArc
 50
0.0
 51
180.0
  0
ARC
  5
441
330
1B
100
AcDbEntity
 67
     1
  8
02___PRT_ALL_AXES
  6
Continuous
 62
     7
100
AcDbCircle
 10
88.3621199324
 20
106.3410102689
 30
0.0
 40
2.3839745962
100
AcDbArc
 50
180.0
 51
360.0
  0
ARC
  5
442
330
1B
100
AcDbEntity
 67
     1
  8
02___PRT_ALL_AXES
  6
Continuous
 62
     7
100
AcDbCircle
 10
140.3621199324
 20
37.3410102689
 30
0.0
 40
3.25
100
AcDbArc
 50
180.0
 51
360.0
  0
ARC
  5
443
330
1B
100
AcDbEntity
 67
     1
  8
02___PRT_ALL_AXES
  6
Continuous
 62
     7
100
AcDbCircle
 10
140.3621199324
 20
37.3410102689
 30
0.0
 40
3.25
100
AcDbArc
 50
0.0
 51
180.0
  0
ARC
  5
444
330
1B
100
AcDbEntity
 67
     1
  8
02___PRT_ALL_AXES
  6
Continuous
 62
     7
100
AcDbCircle
 10
140.3621199324
 20
37.3410102689
 30
0.0
 40
2.3839745962
100
AcDbArc
 50
0.0
 51
180.0
  0
ARC
  5
445
330
1B
100
AcDbEntity
 67
     1
  8
02___PRT_ALL_AXES
  6
Continuous
 62
     7
100
AcDbCircle
 10
140.3621199324
 20
37.3410102689
 30
0.0
 40
2.3839745962
100
AcDbArc
 50
180.0
 51
360.0
  0
LINE
  5
446
330
1B
100
AcDbEntity
 67
     1
  8
7_ALL_FEATURES
  6
Continuous
 62
     7
100
AcDbLine
 10
75.3621199324
 20
117.8410102689
 30
0.0
 11
76.5621199324
 21
117.8410102689
 31
0.0
  0
LINE
  5
447
330
1B
100
AcDbEntity
 67
     1
  8
7_ALL_FEATURES
  6
Continuous
 62
     7
100
AcDbLine
 10
205.3621199324
 20
25.8410102689
 30
0.0
 11
204.1621199324
 21
25.8410102689
 31
0.0
  0
LINE
  5
448
330
1B
100
AcDbEntity
 67
     1
  8
7_ALL_FEATURES
  6
Continuous
 62
     7
100
AcDbLine
 10
205.3621199324
 20
115.8410102689
 30
0.0
 11
205.3621199324
 21
27.8410102689
 31
0.0
  0
LINE
  5
449
330
1B
100
AcDbEntity
 67
     1
  8
7_ALL_FEATURES
  6
Continuous
 62
     7
100
AcDbLine
 10
205.3621199324
 20
25.8410102689
 30
0.0
 11
204.1621199324
 21
25.8410102689
 31
0.0
  0
LINE
  5
44A
330
1B
100
AcDbEntity
 67
     1
  8
7_ALL_FEATURES
  6
Continuous
 62
     7
100
AcDbLine
 10
204.1621199324
 20
41.8410102689
 30
0.0
 11
76.5621199324
 21
41.8410102689
 31
0.0
  0
LINE
  5
44B
330
1B
100
AcDbEntity
 67
     1
  8
7_ALL_FEATURES
  6
Continuous
 62
     7
100
AcDbLine
 10
76.5621199324
 20
41.8410102689
 30
0.0
 11
76.5621199324
 21
28.2410102689
 31
0.0
  0
LINE
  5
44C
330
1B
100
AcDbEntity
 67
     1
  8
7_ALL_FEATURES
  6
Continuous
 62
     7
100
AcDbLine
 10
204.1621199324
 20
28.2410102689
 30
0.0
 11
204.1621199324
 21
41.8410102689
 31
0.0
  0
LINE
  5
44D
330
1B
100
AcDbEntity
 67
     1
  8
7_ALL_FEATURES
  6
Continuous
 62
     7
100
AcDbLine
 10
205.3621199324
 20
117.8410102689
 30
0.0
 11
205.3621199324
 21
115.8410102689
 31
0.0
  0
LINE
  5
44E
330
1B
100
AcDbEntity
 67
     1
  8
7_ALL_FEATURES
  6
Continuous
 62
     7
100
AcDbLine
 10
205.3621199324
 20
27.8410102689
 30
0.0
 11
205.3621199324
 21
25.8410102689
 31
0.0
  0
LINE
  5
44F
330
1B
100
AcDbEntity
 67
     1
  8
7_ALL_FEATURES
  6
Continuous
 62
     7
100
AcDbLine
 10
205.3621199324
 20
117.8410102689
 30
0.0
 11
204.1621199324
 21
117.8410102689
 31
0.0
  0
LINE
  5
450
330
1B
100
AcDbEntity
 67
     1
  8
7_ALL_FEATURES
  6
Continuous
 62
     7
100
AcDbLine
 10
76.5621199324
 20
101.8410102689
 30
0.0
 11
204.1621199324
 21
101.8410102689
 31
0.0
  0
LINE
  5
451
330
1B
100
AcDbEntity
 67
     1
  8
7_ALL_FEATURES
  6
Continuous
 62
     7
100
AcDbLine
 10
204.1621199324
 20
101.8410102689
 30
0.0
 11
204.1621199324
 21
115.4410102689
 31
0.0
  0
LINE
  5
452
330
1B
100
AcDbEntity
 67
     1
  8
7_ALL_FEATURES
  6
Continuous
 62
     7
100
AcDbLine
 10
76.5621199324
 20
115.4410102689
 30
0.0
 11
76.5621199324
 21
101.8410102689
 31
0.0
  0
LINE
  5
453
330
1B
100
AcDbEntity
 67
     1
  8
7_ALL_FEATURES
  6
Continuous
 62
     7
100
AcDbLine
 10
76.5621199324
 20
25.8410102689
 30
0.0
 11
204.1621199324
 21
25.8410102689
 31
0.0
  0
LINE
  5
454
330
1B
100
AcDbEntity
 67
     1
  8
7_ALL_FEATURES
  6
Continuous
 62
     7
100
AcDbLine
 10
204.1621199324
 20
117.8410102689
 30
0.0
 11
76.5621199324
 21
117.8410102689
 31
0.0
  0
LINE
  5
455
330
1B
100
AcDbEntity
 67
     1
  8
7_ALL_FEATURES
  6
Continuous
 62
     7
100
AcDbLine
 10
75.3621199324
 20
25.8410102689
 30
0.0
 11
76.5621199324
 21
25.8410102689
 31
0.0
  0
LINE
  5
456
330
1B
100
AcDbEntity
 67
     1
  8
7_ALL_FEATURES
  6
Continuous
 62
     7
100
AcDbLine
 10
75.3621199324
 20
27.8410102689
 30
0.0
 11
75.3621199324
 21
115.8410102689
 31
0.0
  0
LINE
  5
457
330
1B
100
AcDbEntity
 67
     1
  8
7_ALL_FEATURES
  6
Continuous
 62
     7
100
AcDbLine
 10
75.3621199324
 20
117.8410102689
 30
0.0
 11
76.5621199324
 21
117.8410102689
 31
0.0
  0
LINE
  5
458
330
1B
100
AcDbEntity
 67
     1
  8
7_ALL_FEATURES
  6
Continuous
 62
     7
100
AcDbLine
 10
75.3621199324
 20
25.8410102689
 30
0.0
 11
75.3621199324
 21
27.8410102689
 31
0.0
  0
LINE
  5
459
330
1B
100
AcDbEntity
 67
     1
  8
7_ALL_FEATURES
  6
Continuous
 62
     7
100
AcDbLine
 10
75.3621199324
 20
115.8410102689
 30
0.0
 11
75.3621199324
 21
117.8410102689
 31
0.0
  0
LINE
  5
45A
330
1B
100
AcDbEntity
 67
     1
  8
7_ALL_FEATURES
  6
Continuous
 62
     9
100
AcDbLine
 10
76.5621199324
 20
28.2410102689
 30
0.0
 11
204.1621199324
 21
28.2410102689
 31
0.0
  0
LINE
  5
45B
330
1B
100
AcDbEntity
 67
     1
  8
7_ALL_FEATURES
  6
Continuous
 62
     9
100
AcDbLine
 10
204.1621199324
 20
115.4410102689
 30
0.0
 11
76.5621199324
 21
115.4410102689
 31
0.0
  0
LINE
  5
45C
330
1B
100
AcDbEntity
 67
     1
  8
7_ALL_FEATURES
  6
Continuous
 62
     9
100
AcDbLine
 10
75.3621199324
 20
115.8410102689
 30
0.0
 11
76.5621199324
 21
115.8410102689
 31
0.0
  0
LINE
  5
45D
330
1B
100
AcDbEntity
 67
     1
  8
7_ALL_FEATURES
  6
Continuous
 62
     9
100
AcDbLine
 10
205.3621199324
 20
115.8410102689
 30
0.0
 11
204.1621199324
 21
115.8410102689
 31
0.0
  0
LINE
  5
45E
330
1B
100
AcDbEntity
 67
     1
  8
7_ALL_FEATURES
  6
Continuous
 62
     9
100
AcDbLine
 10
75.3621199324
 20
27.8410102689
 30
0.0
 11
76.5621199324
 21
27.8410102689
 31
0.0
  0
LINE
  5
45F
330
1B
100
AcDbEntity
 67
     1
  8
7_ALL_FEATURES
  6
Continuous
 62
     9
100
AcDbLine
 10
205.3621199324
 20
27.8410102689
 30
0.0
 11
204.1621199324
 21
27.8410102689
 31
0.0
  0
LINE
  5
460
330
1B
100
AcDbEntity
 67
     1
  8
7_ALL_FEATURES
  6
Continuous
 62
     3
100
AcDbLine
 10
76.5621199324
 20
117.8410102689
 30
0.0
 11
76.5621199324
 21
115.8410102689
 31
0.0
  0
LINE
  5
461
330
1B
100
AcDbEntity
 67
     1
  8
7_ALL_FEATURES
  6
Continuous
 62
     3
100
AcDbLine
 10
204.1621199324
 20
25.8410102689
 30
0.0
 11
204.1621199324
 21
27.8410102689
 31
0.0
  0
ARC
  5
462
330
1B
100
AcDbEntity
 67
     1
  8
7_ALL_FEATURES
  6
Continuous
 62
     3
100
AcDbCircle
 10
186.6121199324
 20
51.8410102689
 30
0.0
 40
2.75
100
AcDbArc
 50
270.0
 51
90.0
  0
LINE
  5
463
330
1B
100
AcDbEntity
 67
     1
  8
7_ALL_FEATURES
  6
Continuous
 62
     3
100
AcDbLine
 10
186.6121199324
 20
54.5910102689
 30
0.0
 11
184.1121199324
 21
54.5910102689
 31
0.0
  0
ARC
  5
464
330
1B
100
AcDbEntity
 67
     1
  8
7_ALL_FEATURES
  6
Continuous
 62
     3
100
AcDbCircle
 10
184.1121199324
 20
51.8410102689
 30
0.0
 40
2.75
100
AcDbArc
 50
90.0
 51
270.0
  0
LINE
  5
465
330
1B
100
AcDbEntity
 67
     1
  8
7_ALL_FEATURES
  6
Continuous
 62
     3
100
AcDbLine
 10
184.1121199324
 20
49.0910102689
 30
0.0
 11
186.6121199324
 21
49.0910102689
 31
0.0
  0
LINE
  5
466
330
1B
100
AcDbEntity
 67
     1
  8
7_ALL_FEATURES
  6
Continuous
 62
     3
100
AcDbLine
 10
98.1121199324
 20
50.5910102689
 30
0.0
 11
98.1121199324
 21
53.0910102689
 31
0.0
  0
ARC
  5
467
330
1B
100
AcDbEntity
 67
     1
  8
7_ALL_FEATURES
  6
Continuous
 62
     3
100
AcDbCircle
 10
95.3621199324
 20
53.0910102689
 30
0.0
 40
2.75
100
AcDbArc
 50
0.0
 51
180.0
  0
LINE
  5
468
330
1B
100
AcDbEntity
 67
     1
  8
7_ALL_FEATURES
  6
Continuous
 62
     3
100
AcDbLine
 10
92.6121199324
 20
53.0910102689
 30
0.0
 11
92.6121199324
 21
50.5910102689
 31
0.0
  0
ARC
  5
469
330
1B
100
AcDbEntity
 67
     1
  8
7_ALL_FEATURES
  6
Continuous
 62
     3
100
AcDbCircle
 10
95.3621199324
 20
50.5910102689
 30
0.0
 40
2.75
100
AcDbArc
 50
180.0
 51
360.0
  0
ARC
  5
46A
330
1B
100
AcDbEntity
 67
     1
  8
7_ALL_FEATURES
  6
Continuous
 62
     3
100
AcDbCircle
 10
94.1121199324
 20
91.8410102689
 30
0.0
 40
2.75
100
AcDbArc
 50
90.0
 51
270.0
  0
LINE
  5
46B
330
1B
100
AcDbEntity
 67
     1
  8
7_ALL_FEATURES
  6
Continuous
 62
     3
100
AcDbLine
 10
94.1121199324
 20
89.0910102689
 30
0.0
 11
96.6121199324
 21
89.0910102689
 31
0.0
  0
ARC
  5
46C
330
1B
100
AcDbEntity
 67
     1
  8
7_ALL_FEATURES
  6
Continuous
 62
     3
100
AcDbCircle
 10
96.6121199324
 20
91.8410102689
 30
0.0
 40
2.75
100
AcDbArc
 50
270.0
 51
90.0
  0
LINE
  5
46D
330
1B
100
AcDbEntity
 67
     1
  8
7_ALL_FEATURES
  6
Continuous
 62
     3
100
AcDbLine
 10
96.6121199324
 20
94.5910102689
 30
0.0
 11
94.1121199324
 21
94.5910102689
 31
0.0
  0
LINE
  5
46E
330
1B
100
AcDbEntity
 67
     1
  8
7_ALL_FEATURES
  6
Continuous
 62
     3
100
AcDbLine
 10
182.6121199324
 20
93.0910102689
 30
0.0
 11
182.6121199324
 21
90.5910102689
 31
0.0
  0
ARC
  5
46F
330
1B
100
AcDbEntity
 67
     1
  8
7_ALL_FEATURES
  6
Continuous
 62
     3
100
AcDbCircle
 10
185.3621199324
 20
90.5910102689
 30
0.0
 40
2.75
100
AcDbArc
 50
180.0
 51
360.0
  0
LINE
  5
470
330
1B
100
AcDbEntity
 67
     1
  8
7_ALL_FEATURES
  6
Continuous
 62
     3
100
AcDbLine
 10
188.1121199324
 20
90.5910102689
 30
0.0
 11
188.1121199324
 21
93.0910102689
 31
0.0
  0
ARC
  5
471
330
1B
100
AcDbEntity
 67
     1
  8
7_ALL_FEATURES
  6
Continuous
 62
     3
100
AcDbCircle
 10
185.3621199324
 20
93.0910102689
 30
0.0
 40
2.75
100
AcDbArc
 50
0.0
 51
180.0
  0
ARC
  5
472
330
1B
100
AcDbEntity
 67
     1
  8
7_ALL_FEATURES
  6
Continuous
 62
     3
100
AcDbCircle
 10
181.1121199324
 20
71.8410102689
 30
0.0
 40
2.5
100
AcDbArc
 50
180.0
 51
360.0
  0
ARC
  5
473
330
1B
100
AcDbEntity
 67
     1
  8
7_ALL_FEATURES
  6
Continuous
 62
     3
100
AcDbCircle
 10
181.1121199324
 20
71.8410102689
 30
0.0
 40
2.5
100
AcDbArc
 50
0.0
 51
180.0
  0
ARC
  5
474
330
1B
100
AcDbEntity
 67
     1
  8
7_ALL_FEATURES
  6
Continuous
 62
     3
100
AcDbCircle
 10
99.6121199324
 20
71.8410102689
 30
0.0
 40
2.5
100
AcDbArc
 50
180.0
 51
360.0
  0
ARC
  5
475
330
1B
100
AcDbEntity
 67
     1
  8
7_ALL_FEATURES
  6
Continuous
 62
     3
100
AcDbCircle
 10
99.6121199324
 20
71.8410102689
 30
0.0
 40
2.5
100
AcDbArc
 50
0.0
 51
180.0
  0
ARC
  5
476
330
1B
100
AcDbEntity
 67
     1
  8
7_ALL_FEATURES
  6
Continuous
 62
     3
100
AcDbCircle
 10
155.3621199324
 20
36.1338681262
 30
0.0
 40
10.0
100
AcDbArc
 50
99.9281918423
 51
145.1971595042
  0
ARC
  5
477
330
1B
100
AcDbEntity
 67
     1
  8
7_ALL_FEATURES
  6
Continuous
 62
     3
100
AcDbCircle
 10
149.1121199324
 20
71.8410102689
 30
0.0
 40
26.25
100
AcDbArc
 50
279.9281918423
 51
90.0
  0
LINE
  5
478
330
1B
100
AcDbEntity
 67
     1
  8
7_ALL_FEATURES
  6
Continuous
 62
     3
100
AcDbLine
 10
149.1121199324
 20
98.0910102689
 30
0.0
 11
131.6121199324
 21
98.0910102689
 31
0.0
  0
ARC
  5
479
330
1B
100
AcDbEntity
 67
     1
  8
7_ALL_FEATURES
  6
Continuous
 62
     3
100
AcDbCircle
 10
131.6121199324
 20
71.8410102689
 30
0.0
 40
26.25
100
AcDbArc
 50
90.0
 51
260.0718081577
  0
ARC
  5
47A
330
1B
100
AcDbEntity
 67
     1
  8
7_ALL_FEATURES
  6
Continuous
 62
     3
100
AcDbCircle
 10
125.3621199324
 20
36.1338681262
 30
0.0
 40
10.0
100
AcDbArc
 50
34.8028404958
 51
80.0718081577
  0
LINE
  5
47B
330
1B
100
AcDbEntity
 67
     1
  8
7_ALL_FEATURES
  6
Continuous
 62
     3
100
AcDbLine
 10
204.1621199324
 20
115.8410102689
 30
0.0
 11
204.1621199324
 21
117.8410102689
 31
0.0
  0
LINE
  5
47C
330
1B
100
AcDbEntity
 67
     1
  8
7_ALL_FEATURES
  6
Continuous
 62
     3
100
AcDbLine
 10
204.1621199324
 20
27.8410102689
 30
0.0
 11
204.1621199324
 21
28.2410102689
 31
0.0
  0
LINE
  5
47D
330
1B
100
AcDbEntity
 67
     1
  8
7_ALL_FEATURES
  6
Continuous
 62
     3
100
AcDbLine
 10
204.1621199324
 20
28.2410102689
 30
0.0
 11
204.1621199324
 21
41.8410102689
 31
0.0
  0
LINE
  5
47E
330
1B
100
AcDbEntity
 67
     1
  8
7_ALL_FEATURES
  6
Continuous
 62
     3
100
AcDbLine
 10
204.1621199324
 20
41.8410102689
 30
0.0
 11
204.1621199324
 21
101.8410102689
 31
0.0
  0
LINE
  5
47F
330
1B
100
AcDbEntity
 67
     1
  8
7_ALL_FEATURES
  6
Continuous
 62
     3
100
AcDbLine
 10
204.1621199324
 20
101.8410102689
 30
0.0
 11
204.1621199324
 21
115.4410102689
 31
0.0
  0
LINE
  5
480
330
1B
100
AcDbEntity
 67
     1
  8
7_ALL_FEATURES
  6
Continuous
 62
     3
100
AcDbLine
 10
204.1621199324
 20
115.4410102689
 30
0.0
 11
204.1621199324
 21
115.8410102689
 31
0.0
  0
LINE
  5
481
330
1B
100
AcDbEntity
 67
     1
  8
7_ALL_FEATURES
  6
Continuous
 62
     3
100
AcDbLine
 10
76.5621199324
 20
27.8410102689
 30
0.0
 11
76.5621199324
 21
25.8410102689
 31
0.0
  0
LINE
  5
482
330
1B
100
AcDbEntity
 67
     1
  8
7_ALL_FEATURES
  6
Continuous
 62
     3
100
AcDbLine
 10
76.5621199324
 20
115.8410102689
 30
0.0
 11
76.5621199324
 21
115.4410102689
 31
0.0
  0
LINE
  5
483
330
1B
100
AcDbEntity
 67
     1
  8
7_ALL_FEATURES
  6
Continuous
 62
     3
100
AcDbLine
 10
76.5621199324
 20
115.4410102689
 30
0.0
 11
76.5621199324
 21
101.8410102689
 31
0.0
  0
LINE
  5
484
330
1B
100
AcDbEntity
 67
     1
  8
7_ALL_FEATURES
  6
Continuous
 62
     3
100
AcDbLine
 10
76.5621199324
 20
101.8410102689
 30
0.0
 11
76.5621199324
 21
41.8410102689
 31
0.0
  0
LINE
  5
485
330
1B
100
AcDbEntity
 67
     1
  8
7_ALL_FEATURES
  6
Continuous
 62
     3
100
AcDbLine
 10
76.5621199324
 20
41.8410102689
 30
0.0
 11
76.5621199324
 21
28.2410102689
 31
0.0
  0
LINE
  5
486
330
1B
100
AcDbEntity
 67
     1
  8
7_ALL_FEATURES
  6
Continuous
 62
     3
100
AcDbLine
 10
76.5621199324
 20
28.2410102689
 30
0.0
 11
76.5621199324
 21
27.8410102689
 31
0.0
  0
LINE
  5
487
330
1B
100
AcDbEntity
 67
     1
  8
7_ALL_FEATURES
  6
Continuous
 62
     9
100
AcDbLine
 10
77.7621199324
 20
101.8410102689
 30
0.0
 11
77.7621199324
 21
41.8410102689
 31
0.0
  0
LINE
  5
488
330
1B
100
AcDbEntity
 67
     1
  8
7_ALL_FEATURES
  6
Continuous
 62
     9
100
AcDbLine
 10
202.9621199324
 20
41.8410102689
 30
0.0
 11
202.9621199324
 21
101.8410102689
 31
0.0
  0
SPLINE
  5
489
330
1B
100
AcDbEntity
 67
     1
  8
06___PRT_ALL_SURFS
  6
Continuous
 62
     7
100
AcDbSpline
 70
     0
 71
     3
 72
    14
 73
    10
 74
     0
 42
0.000000001
 43
0.0000001
 40
0.0
 40
0.0
 40
0.0
 40
0.0
 40
0.1084579597
 40
0.2219648106
 40
0.3407574466
 40
0.4642973123
 40
0.5919431673
 40
0.7234030383
 40
1.0
 40
1.0
 40
1.0
 40
1.0
 10
327.0036822867
 20
162.9158473858
 30
0.0
 10
326.9905983522
 20
162.9336748529
 30
0.0
 10
326.9636740872
 20
162.9700712414
 30
0.0
 10
326.9189538368
 20
163.0232954658
 30
0.0
 10
326.8697768634
 20
163.0766632206
 30
0.0
 10
326.8165129849
 20
163.1301028219
 30
0.0
 10
326.7597855955
 20
163.183678058
 30
0.0
 10
326.6784550671
 20
163.2565967208
 30
0.0
 10
326.6139569882
 20
163.3092689207
 30
0.0
 10
326.5691638298
 20
163.3435328619
 30
0.0
  0
LINE
  5
48A
330
1B
100
AcDbEntity
 67
     1
  8
06___PRT_ALL_SURFS
  6
Continuous
 62
     7
100
AcDbLine
 10
326.9168672803
 20
162.5434966216
 30
0.0
 11
327.0036822867
 21
162.9158473858
 31
0.0
  0
SPLINE
  5
48B
330
1B
100
AcDbEntity
 67
     1
  8
06___PRT_ALL_SURFS
  6
Continuous
 62
     7
100
AcDbSpline
 70
     0
 71
     3
 72
    12
 73
     8
 74
     0
 42
0.000000001
 43
0.0000001
 40
0.0
 40
0.0
 40
0.0
 40
0.0
 40
0.1160263303
 40
0.2351585512
 40
0.4819175933
 40
0.7370850725
 40
1.0
 40
1.0
 40
1.0
 40
1.0
 10
326.1584003133
 20
162.9158473858
 30
0.0
 10
326.1289032171
 20
162.933596827
 30
0.0
 10
326.0690887282
 20
162.9695225356
 30
0.0
 10
325.9454279843
 20
163.0413195956
 30
0.0
 10
325.7844130364
 20
163.1309572827
 30
0.0
 10
325.5843994683
 20
163.2381763723
 30
0.0
 10
325.4477229221
 20
163.3085472247
 30
0.0
 10
325.3780000419
 20
163.3435328619
 30
0.0
  0
LINE
  5
48C
330
1B
100
AcDbEntity
 67
     1
  8
06___PRT_ALL_SURFS
  6
Continuous
 62
     7
100
AcDbLine
 10
326.0080323113
 20
162.5434966216
 30
0.0
 11
326.1584003133
 21
162.9158473858
 31
0.0
  0
LINE
  5
48D
330
1B
100
AcDbEntity
 67
     1
  8
7_ALL_FEATURES
  6
Continuous
 62
     7
100
AcDbLine
 10
324.5300058275
 20
163.0256592311
 30
0.0
 11
324.5691093828
 21
163.1224899299
 31
0.0
  0
ARC
  5
48E
330
1B
100
AcDbEntity
 67
     1
  8
7_ALL_FEATURES
  6
Continuous
 62
     7
100
AcDbCircle
 10
319.9749900743
 20
153.2586620983
 30
0.0
 40
10.7190354456
100
AcDbArc
 50
62.68371688
 51
63.60765680940001
  0
LINE
  5
48F
330
1B
100
AcDbEntity
 67
     1
  8
06___PRT_ALL_SURFS
  6
Continuous
 62
     7
100
AcDbLine
 10
323.4638093428
 20
162.9711458575
 30
0.0
 11
324.3809060886
 21
162.5434966216
 31
0.0
  0
LINE
  5
490
330
1B
100
AcDbEntity
 67
     1
  8
06___PRT_ALL_SURFS
  6
Continuous
 62
     7
100
AcDbLine
 10
324.7654980896
 20
162.9158473858
 30
0.0
 11
323.8484013438
 21
163.3434966216
 31
0.0
  0
LINE
  5
491
330
1B
100
AcDbEntity
 67
     1
  8
06___PRT_ALL_SURFS
  6
Continuous
 62
     7
100
AcDbLine
 10
324.5918680768
 20
162.5434966216
 30
0.0
 11
324.7654980896
 21
162.9158473858
 31
0.0
  0
LINE
  5
492
330
1B
100
AcDbEntity
 67
     1
  8
06___PRT_ALL_SURFS
  6
Continuous
 62
     7
100
AcDbLine
 10
323.4638093428
 20
162.9711458575
 30
0.0
 11
323.6374393556
 21
163.3434966216
 31
0.0
  0
SPLINE
  5
493
330
1B
100
AcDbEntity
 67
     1
  8
06___PRT_ALL_SURFS
  6
Continuous
 62
     7
100
AcDbSpline
 70
     0
 71
     3
 72
    12
 73
     8
 74
     0
 42
0.000000001
 43
0.0000001
 40
0.0
 40
0.0
 40
0.0
 40
0.0
 40
0.1160236383
 40
0.2351566999
 40
0.4819172091
 40
0.7370840952
 40
1.0
 40
1.0
 40
1.0
 40
1.0
 10
322.0709074184
 20
162.9711458575
 30
0.0
 10
322.1004036045
 20
162.9533963682
 30
0.0
 10
322.1602172357
 20
162.9174701167
 30
0.0
 10
322.2838786076
 20
162.8456739901
 30
0.0
 10
322.4448943798
 20
162.7560362895
 30
0.0
 10
322.6449083591
 20
162.6488161813
 30
0.0
 10
322.7815855772
 20
162.5784459495
 30
0.0
 10
322.8513089329
 20
162.5434603928
 30
0.0
  0
LINE
  5
494
330
1B
100
AcDbEntity
 67
     1
  8
06___PRT_ALL_SURFS
  6
Continuous
 62
     7
100
AcDbLine
 10
322.0709074184
 20
162.9711458575
 30
0.0
 11
322.2212754204
 21
163.3434966216
 31
0.0
  0
LINE
  5
495
330
1B
100
AcDbEntity
 67
     1
  8
7_ALL_FEATURES
  6
Continuous
 62
     7
100
AcDbLine
 10
323.6993008402
 20
162.8613343688
 30
0.0
 11
323.6601919488
 21
162.7644904566
 31
0.0
  0
ARC
  5
496
330
1B
100
AcDbEntity
 67
     1
  8
7_ALL_FEATURES
  6
Continuous
 62
     7
100
AcDbCircle
 10
328.2493632379
 20
172.6186571622
 30
0.0
 40
10.7081675407
100
AcDbArc
 50
242.68315079
 51
243.6083917587
  0
SPLINE
  5
497
330
1B
100
AcDbEntity
 67
     1
  8
06___PRT_ALL_SURFS
  6
Continuous
 62
     7
100
AcDbSpline
 70
     0
 71
     3
 72
    14
 73
    10
 74
     0
 42
0.000000001
 43
0.0000001
 40
0.0
 40
0.0
 40
0.0
 40
0.0
 40
0.1084535842
 40
0.2219617068
 40
0.3407563048
 40
0.4642962932
 40
0.5919413335
 40
0.7234005142
 40
1.0
 40
1.0
 40
1.0
 40
1.0
 10
321.2256256641
 20
162.9711458575
 30
0.0
 10
321.2387079931
 20
162.9533182312
 30
0.0
 10
321.2656300602
 20
162.916920756
 30
0.0
 10
321.3103520359
 20
162.8636979086
 30
0.0
 10
321.3595305965
 20
162.8103304267
 30
0.0
 10
321.4127948093
 20
162.7568904596
 30
0.0
 10
321.4695219229
 20
162.7033149848
 30
0.0
 10
321.5508525651
 20
162.6303955948
 30
0.0
 10
321.6153521902
 20
162.5777242353
 30
0.0
 10
321.6601462986
 20
162.5434603928
 30
0.0
  0
LINE
  5
498
330
1B
100
AcDbEntity
 67
     1
  8
06___PRT_ALL_SURFS
  6
Continuous
 62
     7
100
AcDbLine
 10
321.2256256641
 20
162.9711458575
 30
0.0
 11
321.3124406705
 21
163.3434966216
 31
0.0
  0
LINE
  5
499
330
1B
100
AcDbEntity
 67
     1
  8
06___PRT_ALL_SURFS
  6
Continuous
 62
     7
100
AcDbLine
 10
327.1243625461
 20
162.7169150685
 30
0.0
 11
327.1243625461
 21
163.170068962
 31
0.0
  0
SPLINE
  5
49A
330
1B
100
AcDbEntity
 67
     1
  8
06___PRT_ALL_SURFS
  6
Continuous
 62
     7
100
AcDbSpline
 70
     0
 71
     3
 72
     9
 73
     5
 74
     0
 42
0.000000001
 43
0.0000001
 40
0.0
 40
0.0
 40
0.0
 40
0.0
 40
0.4965966699
 40
1.0
 40
1.0
 40
1.0
 40
1.0
 10
327.1243625461
 20
162.7169150685
 30
0.0
 10
327.1243625461
 20
162.6879135915
 30
0.0
 10
327.1213244622
 20
162.6294428686
 30
0.0
 10
327.1103419166
 20
162.571832713
 30
0.0
 10
327.1026404878
 20
162.5434603928
 30
0.0
  0
SPLINE
  5
49B
330
1B
100
AcDbEntity
 67
     1
  8
06___PRT_ALL_SURFS
  6
Continuous
 62
     7
100
AcDbSpline
 70
     0
 71
     3
 72
     9
 73
     5
 74
     0
 42
0.000000001
 43
0.0000001
 40
0.0
 40
0.0
 40
0.0
 40
0.0
 40
0.4965981003
 40
1.0
 40
1.0
 40
1.0
 40
1.0
 10
327.1243625461
 20
163.170068962
 30
0.0
 10
327.1243625461
 20
163.1990719432
 30
0.0
 10
327.1213239295
 20
163.2575453709
 30
0.0
 10
327.1103444383
 20
163.3151589717
 30
0.0
 10
327.1026436149
 20
163.3435328619
 30
0.0
  0
LINE
  5
49C
330
1B
100
AcDbEntity
 67
     1
  8
06___PRT_ALL_SURFS
  6
Continuous
 62
     7
100
AcDbLine
 10
321.1049448863
 20
163.170068962
 30
0.0
 11
321.1049448863
 21
162.7169150685
 31
0.0
  0
SPLINE
  5
49D
330
1B
100
AcDbEntity
 67
     1
  8
06___PRT_ALL_SURFS
  6
Continuous
 62
     7
100
AcDbSpline
 70
     0
 71
     3
 72
     9
 73
     5
 74
     0
 42
0.000000001
 43
0.0000001
 40
0.0
 40
0.0
 40
0.0
 40
0.0
 40
0.4965981003
 40
1.0
 40
1.0
 40
1.0
 40
1.0
 10
321.1049448863
 20
163.170068962
 30
0.0
 10
321.1049448863
 20
163.1990719432
 30
0.0
 10
321.1079835029
 20
163.2575453709
 30
0.0
 10
321.1189629942
 20
163.3151589717
 30
0.0
 10
321.1266638175
 20
163.3435328619
 30
0.0
  0
SPLINE
  5
49E
330
1B
100
AcDbEntity
 67
     1
  8
06___PRT_ALL_SURFS
  6
Continuous
 62
     7
100
AcDbSpline
 70
     0
 71
     3
 72
     9
 73
     5
 74
     0
 42
0.000000001
 43
0.0000001
 40
0.0
 40
0.0
 40
0.0
 40
0.0
 40
0.4965966699
 40
1.0
 40
1.0
 40
1.0
 40
1.0
 10
321.1049448863
 20
162.7169150685
 30
0.0
 10
321.1049448863
 20
162.6879135915
 30
0.0
 10
321.1079829702
 20
162.6294428686
 30
0.0
 10
321.1189655158
 20
162.571832713
 30
0.0
 10
321.1266669446
 20
162.5434603928
 30
0.0
  0
SPLINE
  5
49F
330
1B
100
AcDbEntity
 67
     1
  8
06___PRT_ALL_SURFS
  6
Continuous
 62
     7
100
AcDbSpline
 70
     0
 71
     3
 72
    13
 73
     9
 74
     0
 42
0.000000001
 43
0.0000001
 40
0.0
 40
0.0
 40
0.0
 40
0.0
 40
0.1404032221
 40
0.2762318637
 40
0.5335654204
 40
0.6561867028
 40
0.7751792396
 40
1.0
 40
1.0
 40
1.0
 40
1.0
 10
321.8764695191
 20
162.9158473858
 30
0.0
 10
321.8517862628
 20
162.9333459573
 30
0.0
 10
321.8032581341
 20
162.9678326438
 30
0.0
 10
321.7118667999
 20
163.0376413601
 30
0.0
 10
321.626802404
 20
163.1093083482
 30
0.0
 10
321.5476615729
 20
163.1821127075
 30
0.0
 10
321.4755138446
 20
163.2520986143
 30
0.0
 10
321.424914347
 20
163.3063846565
 30
0.0
 10
321.3938135127
 20
163.3435328619
 30
0.0
  0
LINE
  5
4A0
330
1B
100
AcDbEntity
 67
     1
  8
06___PRT_ALL_SURFS
  6
Continuous
 62
     7
100
AcDbLine
 10
321.7896545127
 20
162.5434966216
 30
0.0
 11
321.8764695191
 21
162.9158473858
 31
0.0
  0
LINE
  5
4A1
330
1B
100
AcDbEntity
 67
     1
  8
06___PRT_ALL_SURFS
  6
Continuous
 62
     7
100
AcDbLine
 10
327.0748507892
 20
162.9711458575
 30
0.0
 11
326.9616109476
 21
162.9711458575
 31
0.0
  0
LINE
  5
4A2
330
1B
100
AcDbEntity
 67
     1
  8
06___PRT_ALL_SURFS
  6
Continuous
 62
     7
100
AcDbLine
 10
325.0311044914
 20
162.9711458575
 30
0.0
 11
325.1814724934
 21
163.3434966216
 31
0.0
  0
LINE
  5
4A3
330
1B
100
AcDbEntity
 67
     1
  8
06___PRT_ALL_SURFS
  6
Continuous
 62
     7
100
AcDbLine
 10
325.0311044914
 20
162.9711458575
 30
0.0
 11
324.6469101344
 21
162.9711458575
 31
0.0
  0
ELLIPSE
  5
4A4
330
1B
100
AcDbEntity
 67
     1
  8
7_ALL_FEATURES
  6
Continuous
 62
     7
100
AcDbEllipse
 10
324.1146537162
 20
164.3668861205
 30
0.0
 11
1.8099469758
 21
4.2738479352
 31
0.0
210
0.0
220
0.0
230
1.0
 40
0.1991029947
 41
-1.7810451461
 42
-1.7276078251
  0
ELLIPSE
  5
4A5
330
1B
100
AcDbEntity
 67
     1
  8
7_ALL_FEATURES
  6
Continuous
 62
     7
100
AcDbEllipse
 10
324.1146537162
 20
161.5201071228
 30
0.0
 11
1.1745833705
 21
4.265790834999999
 31
0.0
210
0.0
220
0.0
230
1.0
 40
0.3794725964
 41
1.4150562
 42
1.4339747831
  0
LINE
  5
4A6
330
1B
100
AcDbEntity
 67
     1
  8
06___PRT_ALL_SURFS
  6
Continuous
 62
     7
100
AcDbLine
 10
321.1544560447
 20
162.9158473858
 30
0.0
 11
321.2676938395
 21
162.9158473858
 31
0.0
  0
SPLINE
  5
4A7
330
1B
100
AcDbEntity
 67
     1
  8
06___PRT_ALL_SURFS
  6
Continuous
 62
     7
100
AcDbSpline
 70
     0
 71
     3
 72
    12
 73
     8
 74
     0
 42
0.000000001
 43
0.0000001
 40
0.0
 40
0.0
 40
0.0
 40
0.0
 40
0.1293635823
 40
0.2572550643
 40
0.5081269881
 40
0.7548702389
 40
1.0
 40
1.0
 40
1.0
 40
1.0
 10
321.1544560447
 20
162.9158473858
 30
0.0
 10
321.1503651444
 20
162.926318781
 30
0.0
 10
321.1422041299
 20
162.947135961
 30
0.0
 10
321.1280152559
 20
162.9889726538
 30
0.0
 10
321.1150845711
 20
163.041903893
 30
0.0
 10
321.1065794381
 20
163.1059919513
 30
0.0
 10
321.1049448863
 20
163.1487663539
 30
0.0
 10
321.1049448863
 20
163.170068962
 30
0.0
  0
LINE
  5
4A8
330
1B
100
AcDbEntity
 67
     1
  8
06___PRT_ALL_SURFS
  6
Continuous
 62
     7
100
AcDbLine
 10
321.1544560447
 20
162.5434966216
 30
0.0
 11
321.1544560447
 21
162.9158473858
 31
0.0
  0
ELLIPSE
  5
4A9
330
1B
100
AcDbEntity
 67
     1
  8
7_ALL_FEATURES
  6
Continuous
 62
     7
100
AcDbEllipse
 10
324.1146537162
 20
162.6676521419
 30
0.0
 11
1.992928022
 21
-0.8439921357
 31
0.0
210
0.0
220
0.0
230
1.0
 40
0.1991029947
 41
0.9977948254
 42
1.2546516394
  0
SPLINE
  5
4AA
330
1B
100
AcDbEntity
 67
     1
  8
06___PRT_ALL_SURFS
  6
Continuous
 62
     7
100
AcDbSpline
 70
     0
 71
     3
 72
    13
 73
     9
 74
     0
 42
0.000000001
 43
0.0000001
 40
0.0
 40
0.0
 40
0.0
 40
0.0
 40
0.1404073037
 40
0.2762348465
 40
0.5335672423
 40
0.6561893755
 40
0.7751823946
 40
1.0
 40
1.0
 40
1.0
 40
1.0
 10
326.3528373949
 20
162.9711458575
 30
0.0
 10
326.3775218838
 20
162.9536476105
 30
0.0
 10
326.4260515209
 20
162.9191621066
 30
0.0
 10
326.5174417288
 20
162.8493515981
 30
0.0
 10
326.6025050365
 20
162.7776842336
 30
0.0
 10
326.6816461044
 20
162.7048804088
 30
0.0
 10
326.7537937952
 20
162.6348953008
 30
0.0
 10
326.8043915527
 20
162.5806085768
 30
0.0
 10
326.8354911993
 20
162.5434603928
 30
0.0
  0
ELLIPSE
  5
4AB
330
1B
100
AcDbEntity
 67
     1
  8
7_ALL_FEATURES
  6
Continuous
 62
     7
100
AcDbEllipse
 10
324.1146537162
 20
164.3668861205
 30
0.0
 11
1.1745833705
 21
4.265790834999999
 31
0.0
210
0.0
220
0.0
230
1.0
 40
0.3794725964
 41
-1.7265364396
 42
-1.7076178705
  0
ELLIPSE
  5
4AC
330
1B
100
AcDbEntity
 67
     1
  8
7_ALL_FEATURES
  6
Continuous
 62
     7
100
AcDbEllipse
 10
324.1146537162
 20
163.2193411014
 30
0.0
 11
1.992928022
 21
-0.8439921357
 31
0.0
210
0.0
220
0.0
230
1.0
 40
0.1991029947
 41
-2.1437978282
 42
-1.8869740322
  0
LINE
  5
4AD
330
1B
100
AcDbEntity
 67
     1
  8
06___PRT_ALL_SURFS
  6
Continuous
 62
     7
100
AcDbLine
 10
323.1982026417
 20
162.9158473858
 30
0.0
 11
323.5823972981
 21
162.9158473858
 31
0.0
  0
SPLINE
  5
4AE
330
1B
100
AcDbEntity
 67
     1
  8
06___PRT_ALL_SURFS
  6
Continuous
 62
     7
100
AcDbSpline
 70
     0
 71
     3
 72
    12
 73
     8
 74
     0
 42
0.000000001
 43
0.0000001
 40
0.0
 40
0.0
 40
0.0
 40
0.0
 40
0.131683544
 40
0.2616823401
 40
0.5156688508
 40
0.7622767007
 40
1.0
 40
1.0
 40
1.0
 40
1.0
 10
323.1982026417
 20
162.9158473858
 30
0.0
 10
323.162113519
 20
162.9334300986
 30
0.0
 10
323.0904123363
 20
162.9684040761
 30
0.0
 10
322.9498939477
 20
163.0388939912
 30
0.0
 10
322.7793668846
 20
163.1276684677
 30
0.0
 10
322.5813371323
 20
163.2346651258
 30
0.0
 10
322.4526757965
 20
163.3071309791
 30
0.0
 10
322.3900101432
 20
163.3435328619
 30
0.0
  0
LINE
  5
4AF
330
1B
100
AcDbEntity
 67
     1
  8
06___PRT_ALL_SURFS
  6
Continuous
 62
     7
100
AcDbLine
 10
323.0478346398
 20
162.5434966216
 30
0.0
 11
323.1982026417
 21
162.9158473858
 31
0.0
  0
LINE
  5
4B0
330
1B
100
AcDbEntity
 67
     1
  8
06___PRT_ALL_SURFS
  6
Continuous
 62
     7
100
AcDbLine
 10
326.3528373949
 20
162.9711458575
 30
0.0
 11
326.4396524013
 21
163.3434966216
 31
0.0
  0
LINE
  5
4B1
330
1B
100
AcDbEntity
 67
     1
  8
06___PRT_ALL_SURFS
  6
Continuous
 62
     7
100
AcDbLine
 10
326.3528373949
 20
162.9711458575
 30
0.0
 11
326.0656436264
 21
162.9711458575
 31
0.0
  0
SPLINE
  5
4B2
330
1B
100
AcDbEntity
 67
     1
  8
06___PRT_ALL_SURFS
  6
Continuous
 62
     7
100
AcDbSpline
 70
     0
 71
     3
 72
    12
 73
     8
 74
     0
 42
0.000000001
 43
0.0000001
 40
0.0
 40
0.0
 40
0.0
 40
0.0
 40
0.1293667377
 40
0.2572588084
 40
0.5081281894
 40
0.754870567
 40
1.0
 40
1.0
 40
1.0
 40
1.0
 10
327.0748507892
 20
162.9711458575
 30
0.0
 10
327.0789429574
 20
162.9606742067
 30
0.0
 10
327.0871064764
 20
162.939856743
 30
0.0
 10
327.1012970083
 20
162.8980186523
 30
0.0
 10
327.1142241935
 20
162.8450846009
 30
0.0
 10
327.1227279251
 20
162.7809943679
 30
0.0
 10
327.1243625461
 20
162.7382184537
 30
0.0
 10
327.1243625461
 20
162.7169150685
 30
0.0
  0
ELLIPSE
  5
4B3
330
1B
100
AcDbEntity
 67
     1
  8
7_ALL_FEATURES
  6
Continuous
 62
     7
100
AcDbEllipse
 10
324.1146537162
 20
161.5201071228
 30
0.0
 11
1.8099469758
 21
4.2738479352
 31
0.0
210
0.0
220
0.0
230
1.0
 40
0.1991029947
 41
1.3605506398
 42
1.4139848285
  0
LINE
  5
4B4
330
1B
100
AcDbEntity
 67
     1
  8
06___PRT_ALL_SURFS
  6
Continuous
 62
     7
100
AcDbLine
 10
327.0748507892
 20
162.9711458575
 30
0.0
 11
327.0748507892
 21
163.3434966216
 31
0.0
  0
LINE
  5
4B5
330
1B
100
AcDbEntity
 67
     1
  8
06___PRT_ALL_SURFS
  6
Continuous
 62
     7
100
AcDbLine
 10
321.8764695191
 20
162.9158473858
 30
0.0
 11
322.1636622787
 21
162.9158473858
 31
0.0
  0
SPLINE
  5
4B6
330
1B
100
AcDbEntity
 67
     1
  8
06___PRT_ALL_SURFS
  6
Continuous
 62
     7
100
AcDbSpline
 70
     0
 71
     3
 72
    12
 73
     8
 74
     0
 42
0.000000001
 43
0.0000001
 40
0.0
 40
0.0
 40
0.0
 40
0.0
 40
0.1316850852
 40
0.2616835423
 40
0.5156699088
 40
0.7622785218
 40
1.0
 40
1.0
 40
1.0
 40
1.0
 10
325.0311044914
 20
162.9711458575
 30
0.0
 10
325.0671941811
 20
162.9535633462
 30
0.0
 10
325.1388959568
 20
162.9185899603
 30
0.0
 10
325.2794140523
 20
162.848099153
 30
0.0
 10
325.4499407474
 20
162.7593243125
 30
0.0
 10
325.6479703048
 20
162.6523286245
 30
0.0
 10
325.7766307737
 20
162.5798622403
 30
0.0
 10
325.8392957045
 20
162.5434603928
 30
0.0
  0
SPLINE
  5
4B7
330
1B
100
AcDbEntity
 67
     1
  8
06___PRT_ALL_SURFS
  6
Continuous
 62
     7
100
AcDbSpline
 70
     0
 71
     3
 72
    14
 73
    10
 74
     0
 42
0.000000001
 43
0.0000001
 40
0.0
 40
0.0
 40
0.0
 40
0.0
 40
0.1084579597
 40
0.2219648106
 40
0.3407574466
 40
0.4642973123
 40
0.5919431673
 40
0.7234030383
 40
1.0
 40
1.0
 40
1.0
 40
1.0
 10
258.0036822867
 20
162.9158473858
 30
0.0
 10
257.9905983522
 20
162.9336748529
 30
0.0
 10
257.9636740872
 20
162.9700712414
 30
0.0
 10
257.9189538368
 20
163.0232954658
 30
0.0
 10
257.8697768634
 20
163.0766632206
 30
0.0
 10
257.8165129849
 20
163.1301028219
 30
0.0
 10
257.7597855955
 20
163.183678058
 30
0.0
 10
257.6784550671
 20
163.2565967208
 30
0.0
 10
257.6139569882
 20
163.3092689207
 30
0.0
 10
257.5691638298
 20
163.3435328619
 30
0.0
  0
LINE
  5
4B8
330
1B
100
AcDbEntity
 67
     1
  8
06___PRT_ALL_SURFS
  6
Continuous
 62
     7
100
AcDbLine
 10
257.9168672803
 20
162.5434966216
 30
0.0
 11
258.0036822867
 21
162.9158473858
 31
0.0
  0
SPLINE
  5
4B9
330
1B
100
AcDbEntity
 67
     1
  8
06___PRT_ALL_SURFS
  6
Continuous
 62
     7
100
AcDbSpline
 70
     0
 71
     3
 72
    12
 73
     8
 74
     0
 42
0.000000001
 43
0.0000001
 40
0.0
 40
0.0
 40
0.0
 40
0.0
 40
0.1160263303
 40
0.2351585512
 40
0.4819175933
 40
0.7370850725
 40
1.0
 40
1.0
 40
1.0
 40
1.0
 10
257.1584003133
 20
162.9158473858
 30
0.0
 10
257.1289032171
 20
162.933596827
 30
0.0
 10
257.0690887282
 20
162.9695225356
 30
0.0
 10
256.9454279843
 20
163.0413195956
 30
0.0
 10
256.7844130364
 20
163.1309572827
 30
0.0
 10
256.5843994683
 20
163.2381763723
 30
0.0
 10
256.4477229221
 20
163.3085472247
 30
0.0
 10
256.3780000419
 20
163.3435328619
 30
0.0
  0
LINE
  5
4BA
330
1B
100
AcDbEntity
 67
     1
  8
06___PRT_ALL_SURFS
  6
Continuous
 62
     7
100
AcDbLine
 10
257.0080323113
 20
162.5434966216
 30
0.0
 11
257.1584003133
 21
162.9158473858
 31
0.0
  0
LINE
  5
4BB
330
1B
100
AcDbEntity
 67
     1
  8
7_ALL_FEATURES
  6
Continuous
 62
     7
100
AcDbLine
 10
255.5300058275
 20
163.0256592311
 30
0.0
 11
255.5691093828
 21
163.1224899299
 31
0.0
  0
ARC
  5
4BC
330
1B
100
AcDbEntity
 67
     1
  8
7_ALL_FEATURES
  6
Continuous
 62
     7
100
AcDbCircle
 10
250.9749900747
 20
153.2586620991
 30
0.0
 40
10.7190354447
100
AcDbArc
 50
62.68371688
 51
63.60765680940001
  0
LINE
  5
4BD
330
1B
100
AcDbEntity
 67
     1
  8
06___PRT_ALL_SURFS
  6
Continuous
 62
     7
100
AcDbLine
 10
254.4638093428
 20
162.9711458575
 30
0.0
 11
255.3809060886
 21
162.5434966216
 31
0.0
  0
LINE
  5
4BE
330
1B
100
AcDbEntity
 67
     1
  8
06___PRT_ALL_SURFS
  6
Continuous
 62
     7
100
AcDbLine
 10
255.7654980896
 20
162.9158473858
 30
0.0
 11
254.8484013438
 21
163.3434966216
 31
0.0
  0
LINE
  5
4BF
330
1B
100
AcDbEntity
 67
     1
  8
06___PRT_ALL_SURFS
  6
Continuous
 62
     7
100
AcDbLine
 10
255.5918680768
 20
162.5434966216
 30
0.0
 11
255.7654980896
 21
162.9158473858
 31
0.0
  0
LINE
  5
4C0
330
1B
100
AcDbEntity
 67
     1
  8
06___PRT_ALL_SURFS
  6
Continuous
 62
     7
100
AcDbLine
 10
254.4638093428
 20
162.9711458575
 30
0.0
 11
254.6374393556
 21
163.3434966216
 31
0.0
  0
SPLINE
  5
4C1
330
1B
100
AcDbEntity
 67
     1
  8
06___PRT_ALL_SURFS
  6
Continuous
 62
     7
100
AcDbSpline
 70
     0
 71
     3
 72
    12
 73
     8
 74
     0
 42
0.000000001
 43
0.0000001
 40
0.0
 40
0.0
 40
0.0
 40
0.0
 40
0.1160236383
 40
0.2351566999
 40
0.4819172091
 40
0.7370840952
 40
1.0
 40
1.0
 40
1.0
 40
1.0
 10
253.0709074184
 20
162.9711458575
 30
0.0
 10
253.1004036045
 20
162.9533963682
 30
0.0
 10
253.1602172357
 20
162.9174701167
 30
0.0
 10
253.2838786076
 20
162.8456739901
 30
0.0
 10
253.4448943798
 20
162.7560362895
 30
0.0
 10
253.6449083591
 20
162.6488161813
 30
0.0
 10
253.7815855772
 20
162.5784459495
 30
0.0
 10
253.8513089329
 20
162.5434603928
 30
0.0
  0
LINE
  5
4C2
330
1B
100
AcDbEntity
 67
     1
  8
06___PRT_ALL_SURFS
  6
Continuous
 62
     7
100
AcDbLine
 10
253.0709074184
 20
162.9711458575
 30
0.0
 11
253.2212754204
 21
163.3434966216
 31
0.0
  0
LINE
  5
4C3
330
1B
100
AcDbEntity
 67
     1
  8
7_ALL_FEATURES
  6
Continuous
 62
     7
100
AcDbLine
 10
254.6993008402
 20
162.8613343688
 30
0.0
 11
254.6601919488
 21
162.7644904566
 31
0.0
  0
ARC
  5
4C4
330
1B
100
AcDbEntity
 67
     1
  8
7_ALL_FEATURES
  6
Continuous
 62
     7
100
AcDbCircle
 10
259.249363238
 20
172.6186571624
 30
0.0
 40
10.708167541
100
AcDbArc
 50
242.68315079
 51
243.6083917587
  0
SPLINE
  5
4C5
330
1B
100
AcDbEntity
 67
     1
  8
06___PRT_ALL_SURFS
  6
Continuous
 62
     7
100
AcDbSpline
 70
     0
 71
     3
 72
    14
 73
    10
 74
     0
 42
0.000000001
 43
0.0000001
 40
0.0
 40
0.0
 40
0.0
 40
0.0
 40
0.1084535842
 40
0.2219617068
 40
0.3407563048
 40
0.4642962932
 40
0.5919413335
 40
0.7234005142
 40
1.0
 40
1.0
 40
1.0
 40
1.0
 10
252.2256256641
 20
162.9711458575
 30
0.0
 10
252.2387079931
 20
162.9533182312
 30
0.0
 10
252.2656300602
 20
162.916920756
 30
0.0
 10
252.3103520359
 20
162.8636979086
 30
0.0
 10
252.3595305965
 20
162.8103304267
 30
0.0
 10
252.4127948093
 20
162.7568904596
 30
0.0
 10
252.4695219229
 20
162.7033149848
 30
0.0
 10
252.5508525651
 20
162.6303955948
 30
0.0
 10
252.6153521902
 20
162.5777242353
 30
0.0
 10
252.6601462986
 20
162.5434603928
 30
0.0
  0
LINE
  5
4C6
330
1B
100
AcDbEntity
 67
     1
  8
06___PRT_ALL_SURFS
  6
Continuous
 62
     7
100
AcDbLine
 10
252.2256256641
 20
162.9711458575
 30
0.0
 11
252.3124406705
 21
163.3434966216
 31
0.0
  0
LINE
  5
4C7
330
1B
100
AcDbEntity
 67
     1
  8
06___PRT_ALL_SURFS
  6
Continuous
 62
     7
100
AcDbLine
 10
258.1243625461
 20
162.7169150685
 30
0.0
 11
258.1243625461
 21
163.170068962
 31
0.0
  0
SPLINE
  5
4C8
330
1B
100
AcDbEntity
 67
     1
  8
06___PRT_ALL_SURFS
  6
Continuous
 62
     7
100
AcDbSpline
 70
     0
 71
     3
 72
     9
 73
     5
 74
     0
 42
0.000000001
 43
0.0000001
 40
0.0
 40
0.0
 40
0.0
 40
0.0
 40
0.4965966699
 40
1.0
 40
1.0
 40
1.0
 40
1.0
 10
258.1243625461
 20
162.7169150685
 30
0.0
 10
258.1243625461
 20
162.6879135915
 30
0.0
 10
258.1213244622
 20
162.6294428686
 30
0.0
 10
258.1103419166
 20
162.571832713
 30
0.0
 10
258.1026404878
 20
162.5434603928
 30
0.0
  0
SPLINE
  5
4C9
330
1B
100
AcDbEntity
 67
     1
  8
06___PRT_ALL_SURFS
  6
Continuous
 62
     7
100
AcDbSpline
 70
     0
 71
     3
 72
     9
 73
     5
 74
     0
 42
0.000000001
 43
0.0000001
 40
0.0
 40
0.0
 40
0.0
 40
0.0
 40
0.4965981003
 40
1.0
 40
1.0
 40
1.0
 40
1.0
 10
258.1243625461
 20
163.170068962
 30
0.0
 10
258.1243625461
 20
163.1990719432
 30
0.0
 10
258.1213239295
 20
163.2575453709
 30
0.0
 10
258.1103444383
 20
163.3151589717
 30
0.0
 10
258.1026436149
 20
163.3435328619
 30
0.0
  0
LINE
  5
4CA
330
1B
100
AcDbEntity
 67
     1
  8
06___PRT_ALL_SURFS
  6
Continuous
 62
     7
100
AcDbLine
 10
252.1049448863
 20
163.170068962
 30
0.0
 11
252.1049448863
 21
162.7169150685
 31
0.0
  0
SPLINE
  5
4CB
330
1B
100
AcDbEntity
 67
     1
  8
06___PRT_ALL_SURFS
  6
Continuous
 62
     7
100
AcDbSpline
 70
     0
 71
     3
 72
     9
 73
     5
 74
     0
 42
0.000000001
 43
0.0000001
 40
0.0
 40
0.0
 40
0.0
 40
0.0
 40
0.4965981003
 40
1.0
 40
1.0
 40
1.0
 40
1.0
 10
252.1049448863
 20
163.170068962
 30
0.0
 10
252.1049448863
 20
163.1990719432
 30
0.0
 10
252.1079835029
 20
163.2575453709
 30
0.0
 10
252.1189629942
 20
163.3151589717
 30
0.0
 10
252.1266638175
 20
163.3435328619
 30
0.0
  0
SPLINE
  5
4CC
330
1B
100
AcDbEntity
 67
     1
  8
06___PRT_ALL_SURFS
  6
Continuous
 62
     7
100
AcDbSpline
 70
     0
 71
     3
 72
     9
 73
     5
 74
     0
 42
0.000000001
 43
0.0000001
 40
0.0
 40
0.0
 40
0.0
 40
0.0
 40
0.4965966699
 40
1.0
 40
1.0
 40
1.0
 40
1.0
 10
252.1049448863
 20
162.7169150685
 30
0.0
 10
252.1049448863
 20
162.6879135915
 30
0.0
 10
252.1079829702
 20
162.6294428686
 30
0.0
 10
252.1189655158
 20
162.571832713
 30
0.0
 10
252.1266669446
 20
162.5434603928
 30
0.0
  0
SPLINE
  5
4CD
330
1B
100
AcDbEntity
 67
     1
  8
06___PRT_ALL_SURFS
  6
Continuous
 62
     7
100
AcDbSpline
 70
     0
 71
     3
 72
    13
 73
     9
 74
     0
 42
0.000000001
 43
0.0000001
 40
0.0
 40
0.0
 40
0.0
 40
0.0
 40
0.1404032221
 40
0.2762318637
 40
0.5335654204
 40
0.6561867028
 40
0.7751792396
 40
1.0
 40
1.0
 40
1.0
 40
1.0
 10
252.8764695191
 20
162.9158473858
 30
0.0
 10
252.8517862628
 20
162.9333459573
 30
0.0
 10
252.8032581341
 20
162.9678326438
 30
0.0
 10
252.7118667999
 20
163.0376413601
 30
0.0
 10
252.626802404
 20
163.1093083482
 30
0.0
 10
252.5476615729
 20
163.1821127075
 30
0.0
 10
252.4755138446
 20
163.2520986143
 30
0.0
 10
252.424914347
 20
163.3063846565
 30
0.0
 10
252.3938135127
 20
163.3435328619
 30
0.0
  0
LINE
  5
4CE
330
1B
100
AcDbEntity
 67
     1
  8
06___PRT_ALL_SURFS
  6
Continuous
 62
     7
100
AcDbLine
 10
252.7896545127
 20
162.5434966216
 30
0.0
 11
252.8764695191
 21
162.9158473858
 31
0.0
  0
LINE
  5
4CF
330
1B
100
AcDbEntity
 67
     1
  8
06___PRT_ALL_SURFS
  6
Continuous
 62
     7
100
AcDbLine
 10
258.0748507892
 20
162.9711458575
 30
0.0
 11
257.9616109476
 21
162.9711458575
 31
0.0
  0
LINE
  5
4D0
330
1B
100
AcDbEntity
 67
     1
  8
06___PRT_ALL_SURFS
  6
Continuous
 62
     7
100
AcDbLine
 10
256.0311044914
 20
162.9711458575
 30
0.0
 11
256.1814724934
 21
163.3434966216
 31
0.0
  0
LINE
  5
4D1
330
1B
100
AcDbEntity
 67
     1
  8
06___PRT_ALL_SURFS
  6
Continuous
 62
     7
100
AcDbLine
 10
256.0311044914
 20
162.9711458575
 30
0.0
 11
255.6469101344
 21
162.9711458575
 31
0.0
  0
ELLIPSE
  5
4D2
330
1B
100
AcDbEntity
 67
     1
  8
7_ALL_FEATURES
  6
Continuous
 62
     7
100
AcDbEllipse
 10
255.1146537162
 20
164.3668861205
 30
0.0
 11
1.8099469758
 21
4.2738479352
 31
0.0
210
0.0
220
0.0
230
1.0
 40
0.1991029947
 41
-1.7810451461
 42
-1.7276078251
  0
ELLIPSE
  5
4D3
330
1B
100
AcDbEntity
 67
     1
  8
7_ALL_FEATURES
  6
Continuous
 62
     7
100
AcDbEllipse
 10
255.1146537162
 20
161.5201071228
 30
0.0
 11
1.1745833705
 21
4.265790834999999
 31
0.0
210
0.0
220
0.0
230
1.0
 40
0.3794725964
 41
1.4150562
 42
1.4339747831
  0
LINE
  5
4D4
330
1B
100
AcDbEntity
 67
     1
  8
06___PRT_ALL_SURFS
  6
Continuous
 62
     7
100
AcDbLine
 10
252.1544560447
 20
162.9158473858
 30
0.0
 11
252.2676938395
 21
162.9158473858
 31
0.0
  0
SPLINE
  5
4D5
330
1B
100
AcDbEntity
 67
     1
  8
06___PRT_ALL_SURFS
  6
Continuous
 62
     7
100
AcDbSpline
 70
     0
 71
     3
 72
    12
 73
     8
 74
     0
 42
0.000000001
 43
0.0000001
 40
0.0
 40
0.0
 40
0.0
 40
0.0
 40
0.1293635823
 40
0.2572550643
 40
0.5081269881
 40
0.7548702389
 40
1.0
 40
1.0
 40
1.0
 40
1.0
 10
252.1544560447
 20
162.9158473858
 30
0.0
 10
252.1503651444
 20
162.926318781
 30
0.0
 10
252.1422041299
 20
162.947135961
 30
0.0
 10
252.1280152559
 20
162.9889726538
 30
0.0
 10
252.1150845711
 20
163.041903893
 30
0.0
 10
252.1065794381
 20
163.1059919513
 30
0.0
 10
252.1049448863
 20
163.1487663539
 30
0.0
 10
252.1049448863
 20
163.170068962
 30
0.0
  0
LINE
  5
4D6
330
1B
100
AcDbEntity
 67
     1
  8
06___PRT_ALL_SURFS
  6
Continuous
 62
     7
100
AcDbLine
 10
252.1544560447
 20
162.5434966216
 30
0.0
 11
252.1544560447
 21
162.9158473858
 31
0.0
  0
ELLIPSE
  5
4D7
330
1B
100
AcDbEntity
 67
     1
  8
7_ALL_FEATURES
  6
Continuous
 62
     7
100
AcDbEllipse
 10
255.1146537162
 20
162.6676521419
 30
0.0
 11
1.992928022
 21
-0.8439921357
 31
0.0
210
0.0
220
0.0
230
1.0
 40
0.1991029947
 41
0.9977948254
 42
1.2546516394
  0
SPLINE
  5
4D8
330
1B
100
AcDbEntity
 67
     1
  8
06___PRT_ALL_SURFS
  6
Continuous
 62
     7
100
AcDbSpline
 70
     0
 71
     3
 72
    13
 73
     9
 74
     0
 42
0.000000001
 43
0.0000001
 40
0.0
 40
0.0
 40
0.0
 40
0.0
 40
0.1404073037
 40
0.2762348465
 40
0.5335672423
 40
0.6561893755
 40
0.7751823946
 40
1.0
 40
1.0
 40
1.0
 40
1.0
 10
257.3528373949
 20
162.9711458575
 30
0.0
 10
257.3775218838
 20
162.9536476105
 30
0.0
 10
257.4260515209
 20
162.9191621066
 30
0.0
 10
257.5174417288
 20
162.8493515981
 30
0.0
 10
257.6025050365
 20
162.7776842336
 30
0.0
 10
257.6816461044
 20
162.7048804088
 30
0.0
 10
257.7537937952
 20
162.6348953008
 30
0.0
 10
257.8043915527
 20
162.5806085768
 30
0.0
 10
257.8354911993
 20
162.5434603928
 30
0.0
  0
ELLIPSE
  5
4D9
330
1B
100
AcDbEntity
 67
     1
  8
7_ALL_FEATURES
  6
Continuous
 62
     7
100
AcDbEllipse
 10
255.1146537162
 20
164.3668861205
 30
0.0
 11
1.1745833705
 21
4.265790834999999
 31
0.0
210
0.0
220
0.0
230
1.0
 40
0.3794725964
 41
-1.7265364396
 42
-1.7076178705
  0
ELLIPSE
  5
4DA
330
1B
100
AcDbEntity
 67
     1
  8
7_ALL_FEATURES
  6
Continuous
 62
     7
100
AcDbEllipse
 10
255.1146537162
 20
163.2193411014
 30
0.0
 11
1.992928022
 21
-0.8439921357
 31
0.0
210
0.0
220
0.0
230
1.0
 40
0.1991029947
 41
-2.1437978282
 42
-1.8869740322
  0
LINE
  5
4DB
330
1B
100
AcDbEntity
 67
     1
  8
06___PRT_ALL_SURFS
  6
Continuous
 62
     7
100
AcDbLine
 10
254.1982026417
 20
162.9158473858
 30
0.0
 11
254.5823972981
 21
162.9158473858
 31
0.0
  0
SPLINE
  5
4DC
330
1B
100
AcDbEntity
 67
     1
  8
06___PRT_ALL_SURFS
  6
Continuous
 62
     7
100
AcDbSpline
 70
     0
 71
     3
 72
    12
 73
     8
 74
     0
 42
0.000000001
 43
0.0000001
 40
0.0
 40
0.0
 40
0.0
 40
0.0
 40
0.131683544
 40
0.2616823401
 40
0.5156688508
 40
0.7622767007
 40
1.0
 40
1.0
 40
1.0
 40
1.0
 10
254.1982026417
 20
162.9158473858
 30
0.0
 10
254.162113519
 20
162.9334300986
 30
0.0
 10
254.0904123363
 20
162.9684040761
 30
0.0
 10
253.9498939477
 20
163.0388939912
 30
0.0
 10
253.7793668846
 20
163.1276684677
 30
0.0
 10
253.5813371323
 20
163.2346651258
 30
0.0
 10
253.4526757965
 20
163.3071309791
 30
0.0
 10
253.3900101432
 20
163.3435328619
 30
0.0
  0
LINE
  5
4DD
330
1B
100
AcDbEntity
 67
     1
  8
06___PRT_ALL_SURFS
  6
Continuous
 62
     7
100
AcDbLine
 10
254.0478346398
 20
162.5434966216
 30
0.0
 11
254.1982026417
 21
162.9158473858
 31
0.0
  0
LINE
  5
4DE
330
1B
100
AcDbEntity
 67
     1
  8
06___PRT_ALL_SURFS
  6
Continuous
 62
     7
100
AcDbLine
 10
257.3528373949
 20
162.9711458575
 30
0.0
 11
257.4396524013
 21
163.3434966216
 31
0.0
  0
LINE
  5
4DF
330
1B
100
AcDbEntity
 67
     1
  8
06___PRT_ALL_SURFS
  6
Continuous
 62
     7
100
AcDbLine
 10
257.3528373949
 20
162.9711458575
 30
0.0
 11
257.0656436264
 21
162.9711458575
 31
0.0
  0
SPLINE
  5
4E0
330
1B
100
AcDbEntity
 67
     1
  8
06___PRT_ALL_SURFS
  6
Continuous
 62
     7
100
AcDbSpline
 70
     0
 71
     3
 72
    12
 73
     8
 74
     0
 42
0.000000001
 43
0.0000001
 40
0.0
 40
0.0
 40
0.0
 40
0.0
 40
0.1293667377
 40
0.2572588084
 40
0.5081281894
 40
0.754870567
 40
1.0
 40
1.0
 40
1.0
 40
1.0
 10
258.0748507892
 20
162.9711458575
 30
0.0
 10
258.0789429574
 20
162.9606742067
 30
0.0
 10
258.0871064764
 20
162.939856743
 30
0.0
 10
258.1012970083
 20
162.8980186523
 30
0.0
 10
258.1142241935
 20
162.8450846009
 30
0.0
 10
258.1227279251
 20
162.7809943679
 30
0.0
 10
258.1243625461
 20
162.7382184537
 30
0.0
 10
258.1243625461
 20
162.7169150685
 30
0.0
  0
ELLIPSE
  5
4E1
330
1B
100
AcDbEntity
 67
     1
  8
7_ALL_FEATURES
  6
Continuous
 62
     7
100
AcDbEllipse
 10
255.1146537162
 20
161.5201071228
 30
0.0
 11
1.8099469758
 21
4.2738479352
 31
0.0
210
0.0
220
0.0
230
1.0
 40
0.1991029947
 41
1.3605506398
 42
1.4139848285
  0
LINE
  5
4E2
330
1B
100
AcDbEntity
 67
     1
  8
06___PRT_ALL_SURFS
  6
Continuous
 62
     7
100
AcDbLine
 10
258.0748507892
 20
162.9711458575
 30
0.0
 11
258.0748507892
 21
163.3434966216
 31
0.0
  0
LINE
  5
4E3
330
1B
100
AcDbEntity
 67
     1
  8
06___PRT_ALL_SURFS
  6
Continuous
 62
     7
100
AcDbLine
 10
252.8764695191
 20
162.9158473858
 30
0.0
 11
253.1636622787
 21
162.9158473858
 31
0.0
  0
SPLINE
  5
4E4
330
1B
100
AcDbEntity
 67
     1
  8
06___PRT_ALL_SURFS
  6
Continuous
 62
     7
100
AcDbSpline
 70
     0
 71
     3
 72
    12
 73
     8
 74
     0
 42
0.000000001
 43
0.0000001
 40
0.0
 40
0.0
 40
0.0
 40
0.0
 40
0.1316850852
 40
0.2616835423
 40
0.5156699088
 40
0.7622785218
 40
1.0
 40
1.0
 40
1.0
 40
1.0
 10
256.0311044914
 20
162.9711458575
 30
0.0
 10
256.0671941811
 20
162.9535633462
 30
0.0
 10
256.1388959568
 20
162.9185899603
 30
0.0
 10
256.2794140523
 20
162.848099153
 30
0.0
 10
256.4499407474
 20
162.7593243125
 30
0.0
 10
256.6479703048
 20
162.6523286245
 30
0.0
 10
256.7766307737
 20
162.5798622403
 30
0.0
 10
256.8392957045
 20
162.5434603928
 30
0.0
  0
LINE
  5
4E5
330
1B
100
AcDbEntity
 67
     1
  8
02___PRT_ALL_AXES
  6
Continuous
 62
     7
100
AcDbLine
 10
324.1146537162
 20
175.3434966216
 30
0.0
 11
326.4986283124
 21
175.3434966216
 31
0.0
  0
LINE
  5
4E6
330
1B
100
AcDbEntity
 67
     1
  8
02___PRT_ALL_AXES
  6
Continuous
 62
     7
100
AcDbLine
 10
324.1146537162
 20
163.3434966216
 30
0.0
 11
323.8484013438
 21
163.3434966216
 31
0.0
  0
LINE
  5
4E7
330
1B
100
AcDbEntity
 67
     1
  8
02___PRT_ALL_AXES
  6
Continuous
 62
     7
100
AcDbLine
 10
323.8484013438
 20
163.3434966216
 30
0.0
 11
323.6374393556
 21
163.3434966216
 31
0.0
  0
LINE
  5
4E8
330
1B
100
AcDbEntity
 67
     1
  8
02___PRT_ALL_AXES
  6
Continuous
 62
     7
100
AcDbLine
 10
323.6374393556
 20
163.3434966216
 30
0.0
 11
322.8929733017
 21
163.3434966216
 31
0.0
  0
LINE
  5
4E9
330
1B
100
AcDbEntity
 67
     1
  8
02___PRT_ALL_AXES
  6
Continuous
 62
     7
100
AcDbLine
 10
322.8929733017
 20
163.3434966216
 30
0.0
 11
322.730257788
 21
163.3434966216
 31
0.0
  0
LINE
  5
4EA
330
1B
100
AcDbEntity
 67
     1
  8
02___PRT_ALL_AXES
  6
Continuous
 62
     7
100
AcDbLine
 10
322.730257788
 20
163.3434966216
 30
0.0
 11
322.7230687691
 21
163.3434966216
 31
0.0
  0
LINE
  5
4EB
330
1B
100
AcDbEntity
 67
     1
  8
02___PRT_ALL_AXES
  6
Continuous
 62
     7
100
AcDbLine
 10
322.7230687691
 20
163.3434966216
 30
0.0
 11
322.5146724637
 21
163.3434966216
 31
0.0
  0
LINE
  5
4EC
330
1B
100
AcDbEntity
 67
     1
  8
02___PRT_ALL_AXES
  6
Continuous
 62
     7
100
AcDbLine
 10
322.5146724637
 20
163.3434966216
 30
0.0
 11
322.26489354
 21
163.3434966216
 31
0.0
  0
LINE
  5
4ED
330
1B
100
AcDbEntity
 67
     1
  8
02___PRT_ALL_AXES
  6
Continuous
 62
     7
100
AcDbLine
 10
322.26489354
 20
163.3434966216
 30
0.0
 11
322.1940239913
 21
163.3434966216
 31
0.0
  0
LINE
  5
4EE
330
1B
100
AcDbEntity
 67
     1
  8
02___PRT_ALL_AXES
  6
Continuous
 62
     7
100
AcDbLine
 10
322.1940239913
 20
163.3434966216
 30
0.0
 11
322.1146538449
 21
163.3434966216
 31
0.0
  0
LINE
  5
4EF
330
1B
100
AcDbEntity
 67
     1
  8
02___PRT_ALL_AXES
  6
Continuous
 62
     7
100
AcDbLine
 10
322.1146538449
 20
163.3434966216
 30
0.0
 11
322.1124950508
 21
163.3434966216
 31
0.0
  0
LINE
  5
4F0
330
1B
100
AcDbEntity
 67
     1
  8
02___PRT_ALL_AXES
  6
Continuous
 62
     7
100
AcDbLine
 10
322.1124950508
 20
163.3434966216
 30
0.0
 11
322.0146540205
 21
163.3434966216
 31
0.0
  0
LINE
  5
4F1
330
1B
100
AcDbEntity
 67
     1
  8
02___PRT_ALL_AXES
  6
Continuous
 62
     7
100
AcDbLine
 10
322.0146540205
 20
163.3434966216
 30
0.0
 11
320.8646540082
 21
163.3434966216
 31
0.0
  0
LINE
  5
4F2
330
1B
100
AcDbEntity
 67
     1
  8
02___PRT_ALL_AXES
  6
Continuous
 62
     7
100
AcDbLine
 10
324.1146537162
 20
163.3434966216
 30
0.0
 11
324.6724901258
 21
163.3434966216
 31
0.0
  0
LINE
  5
4F3
330
1B
100
AcDbEntity
 67
     1
  8
02___PRT_ALL_AXES
  6
Continuous
 62
     7
100
AcDbLine
 10
324.6724901258
 20
163.3434966216
 30
0.0
 11
324.8751714941
 21
163.3434966216
 31
0.0
  0
LINE
  5
4F4
330
1B
100
AcDbEntity
 67
     1
  8
02___PRT_ALL_AXES
  6
Continuous
 62
     7
100
AcDbLine
 10
324.8751714941
 20
163.3434966216
 30
0.0
 11
325.5580690805
 21
163.3434966216
 31
0.0
  0
LINE
  5
4F5
330
1B
100
AcDbEntity
 67
     1
  8
02___PRT_ALL_AXES
  6
Continuous
 62
     7
100
AcDbLine
 10
325.5580690805
 20
163.3434966216
 30
0.0
 11
325.69816152
 21
163.3434966216
 31
0.0
  0
LINE
  5
4F6
330
1B
100
AcDbEntity
 67
     1
  8
02___PRT_ALL_AXES
  6
Continuous
 62
     7
100
AcDbLine
 10
325.69816152
 20
163.3434966216
 30
0.0
 11
325.7146349687
 21
163.3434966216
 31
0.0
  0
LINE
  5
4F7
330
1B
100
AcDbEntity
 67
     1
  8
02___PRT_ALL_AXES
  6
Continuous
 62
     7
100
AcDbLine
 10
325.7146349687
 20
163.3434966216
 30
0.0
 11
326.056886054
 21
163.3434966216
 31
0.0
  0
LINE
  5
4F8
330
1B
100
AcDbEntity
 67
     1
  8
02___PRT_ALL_AXES
  6
Continuous
 62
     7
100
AcDbLine
 10
326.056886054
 20
163.3434966216
 30
0.0
 11
326.0968519087
 21
163.3434966216
 31
0.0
  0
LINE
  5
4F9
330
1B
100
AcDbEntity
 67
     1
  8
02___PRT_ALL_AXES
  6
Continuous
 62
     7
100
AcDbLine
 10
326.0968519087
 20
163.3434966216
 30
0.0
 11
326.1146512711
 21
163.3434966216
 31
0.0
  0
LINE
  5
4FA
330
1B
100
AcDbEntity
 67
     1
  8
02___PRT_ALL_AXES
  6
Continuous
 62
     7
100
AcDbLine
 10
326.1146512711
 20
163.3434966216
 30
0.0
 11
326.1168123816
 21
163.3434966216
 31
0.0
  0
LINE
  5
4FB
330
1B
100
AcDbEntity
 67
     1
  8
02___PRT_ALL_AXES
  6
Continuous
 62
     7
100
AcDbLine
 10
326.1168123816
 20
163.3434966216
 30
0.0
 11
326.2146534119
 21
163.3434966216
 31
0.0
  0
LINE
  5
4FC
330
1B
100
AcDbEntity
 67
     1
  8
02___PRT_ALL_AXES
  6
Continuous
 62
     7
100
AcDbLine
 10
326.2146534119
 20
163.3434966216
 30
0.0
 11
327.3646534243
 21
163.3434966216
 31
0.0
  0
LINE
  5
4FD
330
1B
100
AcDbEntity
 67
     1
  8
02___PRT_ALL_AXES
  6
Continuous
 62
     7
100
AcDbLine
 10
324.1146537162
 20
175.3434966216
 30
0.0
 11
321.73067912
 21
175.3434966216
 31
0.0
  0
LINE
  5
4FE
330
1B
100
AcDbEntity
 67
     1
  8
02___PRT_ALL_AXES
  6
Continuous
 62
     7
100
AcDbLine
 10
327.3646537162
 20
173.8434966216
 30
0.0
 11
326.4986283124
 21
175.3434966216
 31
0.0
  0
LINE
  5
4FF
330
1B
100
AcDbEntity
 67
     1
  8
02___PRT_ALL_AXES
  6
Continuous
 62
     7
100
AcDbLine
 10
327.3646537162
 20
163.3434966216
 30
0.0
 11
327.3646537162
 21
173.8434966216
 31
0.0
  0
LINE
  5
500
330
1B
100
AcDbEntity
 67
     1
  8
02___PRT_ALL_AXES
  6
Continuous
 62
     7
100
AcDbLine
 10
320.8646537162
 20
173.8434966216
 30
0.0
 11
321.73067912
 21
175.3434966216
 31
0.0
  0
LINE
  5
501
330
1B
100
AcDbEntity
 67
     1
  8
02___PRT_ALL_AXES
  6
Continuous
 62
     7
100
AcDbLine
 10
320.8646537162
 20
163.3434966216
 30
0.0
 11
320.8646537162
 21
173.8434966216
 31
0.0
  0
LINE
  5
502
330
1B
100
AcDbEntity
 67
     1
  8
02___PRT_ALL_AXES
  6
Continuous
 62
     7
100
AcDbLine
 10
324.1146537162
 20
173.8434966216
 30
0.0
 11
320.8646537162
 21
173.8434966216
 31
0.0
  0
LINE
  5
503
330
1B
100
AcDbEntity
 67
     1
  8
02___PRT_ALL_AXES
  6
Continuous
 62
     7
100
AcDbLine
 10
324.1146537162
 20
173.8434966216
 30
0.0
 11
327.3646537162
 21
173.8434966216
 31
0.0
  0
LINE
  5
504
330
1B
100
AcDbEntity
 67
     1
  8
02___PRT_ALL_AXES
  6
Continuous
 62
     7
100
AcDbLine
 10
255.1146537162
 20
175.3434966216
 30
0.0
 11
257.4986283124
 21
175.3434966216
 31
0.0
  0
LINE
  5
505
330
1B
100
AcDbEntity
 67
     1
  8
02___PRT_ALL_AXES
  6
Continuous
 62
     7
100
AcDbLine
 10
255.1146537162
 20
163.3434966216
 30
0.0
 11
254.8484013438
 21
163.3434966216
 31
0.0
  0
LINE
  5
506
330
1B
100
AcDbEntity
 67
     1
  8
02___PRT_ALL_AXES
  6
Continuous
 62
     7
100
AcDbLine
 10
254.8484013438
 20
163.3434966216
 30
0.0
 11
254.6374393556
 21
163.3434966216
 31
0.0
  0
LINE
  5
507
330
1B
100
AcDbEntity
 67
     1
  8
02___PRT_ALL_AXES
  6
Continuous
 62
     7
100
AcDbLine
 10
254.6374393556
 20
163.3434966216
 30
0.0
 11
253.8929733017
 21
163.3434966216
 31
0.0
  0
LINE
  5
508
330
1B
100
AcDbEntity
 67
     1
  8
02___PRT_ALL_AXES
  6
Continuous
 62
     7
100
AcDbLine
 10
253.8929733017
 20
163.3434966216
 30
0.0
 11
253.730257788
 21
163.3434966216
 31
0.0
  0
LINE
  5
509
330
1B
100
AcDbEntity
 67
     1
  8
02___PRT_ALL_AXES
  6
Continuous
 62
     7
100
AcDbLine
 10
253.730257788
 20
163.3434966216
 30
0.0
 11
253.7230687691
 21
163.3434966216
 31
0.0
  0
LINE
  5
50A
330
1B
100
AcDbEntity
 67
     1
  8
02___PRT_ALL_AXES
  6
Continuous
 62
     7
100
AcDbLine
 10
253.7230687691
 20
163.3434966216
 30
0.0
 11
253.5146724637
 21
163.3434966216
 31
0.0
  0
LINE
  5
50B
330
1B
100
AcDbEntity
 67
     1
  8
02___PRT_ALL_AXES
  6
Continuous
 62
     7
100
AcDbLine
 10
253.5146724637
 20
163.3434966216
 30
0.0
 11
253.26489354
 21
163.3434966216
 31
0.0
  0
LINE
  5
50C
330
1B
100
AcDbEntity
 67
     1
  8
02___PRT_ALL_AXES
  6
Continuous
 62
     7
100
AcDbLine
 10
253.26489354
 20
163.3434966216
 30
0.0
 11
253.1940239913
 21
163.3434966216
 31
0.0
  0
LINE
  5
50D
330
1B
100
AcDbEntity
 67
     1
  8
02___PRT_ALL_AXES
  6
Continuous
 62
     7
100
AcDbLine
 10
253.1940239913
 20
163.3434966216
 30
0.0
 11
253.1146538449
 21
163.3434966216
 31
0.0
  0
LINE
  5
50E
330
1B
100
AcDbEntity
 67
     1
  8
02___PRT_ALL_AXES
  6
Continuous
 62
     7
100
AcDbLine
 10
253.1146538449
 20
163.3434966216
 30
0.0
 11
253.1124950508
 21
163.3434966216
 31
0.0
  0
LINE
  5
50F
330
1B
100
AcDbEntity
 67
     1
  8
02___PRT_ALL_AXES
  6
Continuous
 62
     7
100
AcDbLine
 10
253.1124950508
 20
163.3434966216
 30
0.0
 11
253.0146540205
 21
163.3434966216
 31
0.0
  0
LINE
  5
510
330
1B
100
AcDbEntity
 67
     1
  8
02___PRT_ALL_AXES
  6
Continuous
 62
     7
100
AcDbLine
 10
253.0146540205
 20
163.3434966216
 30
0.0
 11
251.8646540082
 21
163.3434966216
 31
0.0
  0
LINE
  5
511
330
1B
100
AcDbEntity
 67
     1
  8
02___PRT_ALL_AXES
  6
Continuous
 62
     7
100
AcDbLine
 10
255.1146537162
 20
163.3434966216
 30
0.0
 11
255.6724901258
 21
163.3434966216
 31
0.0
  0
LINE
  5
512
330
1B
100
AcDbEntity
 67
     1
  8
02___PRT_ALL_AXES
  6
Continuous
 62
     7
100
AcDbLine
 10
255.6724901258
 20
163.3434966216
 30
0.0
 11
255.8751714941
 21
163.3434966216
 31
0.0
  0
LINE
  5
513
330
1B
100
AcDbEntity
 67
     1
  8
02___PRT_ALL_AXES
  6
Continuous
 62
     7
100
AcDbLine
 10
255.8751714941
 20
163.3434966216
 30
0.0
 11
256.5580690805
 21
163.3434966216
 31
0.0
  0
LINE
  5
514
330
1B
100
AcDbEntity
 67
     1
  8
02___PRT_ALL_AXES
  6
Continuous
 62
     7
100
AcDbLine
 10
256.5580690805
 20
163.3434966216
 30
0.0
 11
256.69816152
 21
163.3434966216
 31
0.0
  0
LINE
  5
515
330
1B
100
AcDbEntity
 67
     1
  8
02___PRT_ALL_AXES
  6
Continuous
 62
     7
100
AcDbLine
 10
256.69816152
 20
163.3434966216
 30
0.0
 11
256.7146349687
 21
163.3434966216
 31
0.0
  0
LINE
  5
516
330
1B
100
AcDbEntity
 67
     1
  8
02___PRT_ALL_AXES
  6
Continuous
 62
     7
100
AcDbLine
 10
256.7146349687
 20
163.3434966216
 30
0.0
 11
257.056886054
 21
163.3434966216
 31
0.0
  0
LINE
  5
517
330
1B
100
AcDbEntity
 67
     1
  8
02___PRT_ALL_AXES
  6
Continuous
 62
     7
100
AcDbLine
 10
257.056886054
 20
163.3434966216
 30
0.0
 11
257.0968519087
 21
163.3434966216
 31
0.0
  0
LINE
  5
518
330
1B
100
AcDbEntity
 67
     1
  8
02___PRT_ALL_AXES
  6
Continuous
 62
     7
100
AcDbLine
 10
257.0968519087
 20
163.3434966216
 30
0.0
 11
257.1146512711
 21
163.3434966216
 31
0.0
  0
LINE
  5
519
330
1B
100
AcDbEntity
 67
     1
  8
02___PRT_ALL_AXES
  6
Continuous
 62
     7
100
AcDbLine
 10
257.1146512711
 20
163.3434966216
 30
0.0
 11
257.1168123816
 21
163.3434966216
 31
0.0
  0
LINE
  5
51A
330
1B
100
AcDbEntity
 67
     1
  8
02___PRT_ALL_AXES
  6
Continuous
 62
     7
100
AcDbLine
 10
257.1168123816
 20
163.3434966216
 30
0.0
 11
257.2146534119
 21
163.3434966216
 31
0.0
  0
LINE
  5
51B
330
1B
100
AcDbEntity
 67
     1
  8
02___PRT_ALL_AXES
  6
Continuous
 62
     7
100
AcDbLine
 10
257.2146534119
 20
163.3434966216
 30
0.0
 11
258.3646534243
 21
163.3434966216
 31
0.0
  0
LINE
  5
51C
330
1B
100
AcDbEntity
 67
     1
  8
02___PRT_ALL_AXES
  6
Continuous
 62
     7
100
AcDbLine
 10
255.1146537162
 20
175.3434966216
 30
0.0
 11
252.73067912
 21
175.3434966216
 31
0.0
  0
LINE
  5
51D
330
1B
100
AcDbEntity
 67
     1
  8
02___PRT_ALL_AXES
  6
Continuous
 62
     7
100
AcDbLine
 10
258.3646537162
 20
173.8434966216
 30
0.0
 11
257.4986283124
 21
175.3434966216
 31
0.0
  0
LINE
  5
51E
330
1B
100
AcDbEntity
 67
     1
  8
02___PRT_ALL_AXES
  6
Continuous
 62
     7
100
AcDbLine
 10
258.3646537162
 20
163.3434966216
 30
0.0
 11
258.3646537162
 21
173.8434966216
 31
0.0
  0
LINE
  5
51F
330
1B
100
AcDbEntity
 67
     1
  8
02___PRT_ALL_AXES
  6
Continuous
 62
     7
100
AcDbLine
 10
251.8646537162
 20
173.8434966216
 30
0.0
 11
252.73067912
 21
175.3434966216
 31
0.0
  0
LINE
  5
520
330
1B
100
AcDbEntity
 67
     1
  8
02___PRT_ALL_AXES
  6
Continuous
 62
     7
100
AcDbLine
 10
251.8646537162
 20
163.3434966216
 30
0.0
 11
251.8646537162
 21
173.8434966216
 31
0.0
  0
LINE
  5
521
330
1B
100
AcDbEntity
 67
     1
  8
02___PRT_ALL_AXES
  6
Continuous
 62
     7
100
AcDbLine
 10
255.1146537162
 20
173.8434966216
 30
0.0
 11
251.8646537162
 21
173.8434966216
 31
0.0
  0
LINE
  5
522
330
1B
100
AcDbEntity
 67
     1
  8
02___PRT_ALL_AXES
  6
Continuous
 62
     7
100
AcDbLine
 10
255.1146537162
 20
173.8434966216
 30
0.0
 11
258.3646537162
 21
173.8434966216
 31
0.0
  0
ARC
  5
523
330
1B
100
AcDbEntity
 67
     1
  8
7_ALL_FEATURES
  6
Continuous
 62
     7
100
AcDbCircle
 10
333.2146537162
 20
129.9434966216
 30
0.0
 40
2.4
100
AcDbArc
 50
270.0
 51
360.0
  0
LINE
  5
524
330
1B
100
AcDbEntity
 67
     1
  8
7_ALL_FEATURES
  6
Continuous
 62
     7
100
AcDbLine
 10
333.6146537162
 20
162.5434966216
 30
0.0
 11
245.6146537162
 21
162.5434966216
 31
0.0
  0
SPLINE
  5
525
330
1B
100
AcDbEntity
 67
     1
  8
7_ALL_FEATURES
  6
Continuous
 62
     7
100
AcDbSpline
 70
     0
 71
     3
 72
    18
 73
    14
 74
     0
 42
0.000000001
 43
0.0000001
 40
0.0
 40
0.0
 40
0.0
 40
0.0
 40
0.1583652646
 40
0.3124406791
 40
0.4582580039
 40
0.5925223703
 40
0.6546017462
 40
0.7130939612
 40
0.7679932197
 40
0.8194448606
 40
0.9133179651
 40
0.9571552356
 40
1.0
 40
1.0
 40
1.0
 40
1.0
 10
335.6146537162
 20
129.9434966216
 30
0.0
 10
335.5151096637
 20
129.7871331896
 30
0.0
 10
335.3187289351
 20
129.4786354978
 30
0.0
 10
335.0228245063
 20
129.0311854032
 30
0.0
 10
334.7269148148
 20
128.6178788033
 30
0.0
 10
334.4739348616
 20
128.3067879164
 30
0.0
 10
334.2691143655
 20
128.0897549142
 30
0.0
 10
334.1194220945
 20
127.9489425663
 30
0.0
 10
333.9694907739
 20
127.8270976146
 30
0.0
 10
333.7753590208
 20
127.6956124375
 30
0.0
 10
333.5728871615
 20
127.5995999243
 30
0.0
 10
333.3664312406
 20
127.5514343057
 30
0.0
 10
333.2648018974
 20
127.5434966216
 30
0.0
 10
333.2146537162
 20
127.5434966216
 30
0.0
  0
LINE
  5
526
330
1B
100
AcDbEntity
 67
     1
  8
7_ALL_FEATURES
  6
Continuous
 62
     7
100
AcDbLine
 10
246.0146537162
 20
127.5434966216
 30
0.0
 11
333.2146537162
 21
127.5434966216
 31
0.0
  0
SPLINE
  5
527
330
1B
100
AcDbEntity
 67
     1
  8
7_ALL_FEATURES
  6
Continuous
 62
     7
100
AcDbSpline
 70
     0
 71
     3
 72
    18
 73
    14
 74
     0
 42
0.000000001
 43
0.0000001
 40
0.0
 40
0.0
 40
0.0
 40
0.0
 40
0.1583652646
 40
0.3124406791
 40
0.4582580039
 40
0.5925223703
 40
0.6546017462
 40
0.7130939612
 40
0.7679932197
 40
0.8194448606
 40
0.9133179651
 40
0.9571552356
 40
1.0
 40
1.0
 40
1.0
 40
1.0
 10
243.6146537162
 20
129.9434966216
 30
0.0
 10
243.7141977687
 20
129.7871331896
 30
0.0
 10
243.9105784974
 20
129.4786354978
 30
0.0
 10
244.2064829261
 20
129.0311854032
 30
0.0
 10
244.5023926176
 20
128.6178788033
 30
0.0
 10
244.7553725709
 20
128.3067879164
 30
0.0
 10
244.960193067
 20
128.0897549142
 30
0.0
 10
245.1098853379
 20
127.9489425663
 30
0.0
 10
245.2598166585
 20
127.8270976146
 30
0.0
 10
245.4539484116
 20
127.6956124375
 30
0.0
 10
245.6564202709
 20
127.5995999243
 30
0.0
 10
245.8628761919
 20
127.5514343057
 30
0.0
 10
245.964505535
 20
127.5434966216
 30
0.0
 10
246.0146537162
 20
127.5434966216
 30
0.0
  0
ARC
  5
528
330
1B
100
AcDbEntity
 67
     1
  8
7_ALL_FEATURES
  6
Continuous
 62
     7
100
AcDbCircle
 10
245.6146537162
 20
160.5434966216
 30
0.0
 40
2.0
100
AcDbArc
 50
90.0
 51
180.0
  0
ARC
  5
529
330
1B
100
AcDbEntity
 67
     1
  8
7_ALL_FEATURES
  6
Continuous
 62
     7
100
AcDbCircle
 10
333.6146537162
 20
160.5434966216
 30
0.0
 40
2.0
100
AcDbArc
 50
0.0
 51
90.0
  0
LINE
  5
52A
330
1B
100
AcDbEntity
 67
     1
  8
7_ALL_FEATURES
  6
Continuous
 62
     7
100
AcDbLine
 10
335.6146537162
 20
129.9434966216
 30
0.0
 11
335.6146537162
 21
160.5434966216
 31
0.0
  0
LINE
  5
52B
330
1B
100
AcDbEntity
 67
     1
  8
7_ALL_FEATURES
  6
Continuous
 62
     7
100
AcDbLine
 10
243.6146537162
 20
129.9434966216
 30
0.0
 11
243.6146537162
 21
160.5434966216
 31
0.0
  0
ARC
  5
52C
330
1B
100
AcDbEntity
 67
     1
  8
7_ALL_FEATURES
  6
Continuous
 62
     7
100
AcDbCircle
 10
246.0146537162
 20
129.9434966216
 30
0.0
 40
2.4
100
AcDbArc
 50
180.0
 51
270.0
  0
LINE
  5
52D
330
1B
100
AcDbEntity
 67
     1
  8
7_ALL_FEATURES
  6
Continuous
 62
     9
100
AcDbLine
 10
335.6146537162
 20
129.9434966216
 30
0.0
 11
243.6146537162
 21
129.9434966216
 31
0.0
  0
DIMENSION
  5
52E
330
1B
100
AcDbEntity
 67
     1
  8
0
  6
Continuous
 62
     2
100
AcDbDimension
280
     0
  2
*D1
 10
60.8978402351
 20
162.5434966216
 30
0.0
 11
60.8978402351
 21
144.6149232671
 31
0.0
 70
   160
 71
     5
 42
-1.0
 73
     0
 74
     0
 75
     0
  3
DIMSTYLE_1
100
AcDbAlignedDimension
 13
70.2429847973
 23
127.5434966216
 33
0.0
 14
70.9323375324
 24
162.5434966216
 34
0.0
 50
90.0
100
AcDbRotatedDimension
  0
DIMENSION
  5
52F
330
1B
100
AcDbEntity
 67
     1
  8
0
  6
Continuous
 62
     2
100
AcDbDimension
280
     0
  2
*D2
 10
60.8978402351
 20
175.3434966216
 30
0.0
 11
60.8978402351
 21
168.5149225477
 31
0.0
 70
   160
 71
     5
 42
-1.0
 73
     0
 74
     0
 75
     0
  3
DIMSTYLE_2
100
AcDbAlignedDimension
 13
70.9323375324
 23
162.5434966216
 33
0.0
 14
70.9323375324
 24
175.3434966216
 34
0.0
 50
90.0
100
AcDbRotatedDimension
  0
DIMENSION
  5
530
330
1B
100
AcDbEntity
 67
     1
  8
0
  6
Continuous
 62
     2
100
AcDbDimension
280
     0
  2
*D3
 10
222.5054304446
 20
25.8410102689
 30
0.0
 11
222.5054304446
 21
71.4124414838
 31
0.0
 70
   160
 71
     5
 42
-1.0
 73
     0
 74
     0
 75
     0
  3
DIMSTYLE_1
100
AcDbAlignedDimension
 13
210.9463260135
 23
117.8410102689
 33
0.0
 14
208.5755253378
 24
25.8410102689
 34
0.0
 50
270.0
100
AcDbRotatedDimension
  0
DIMENSION
  5
531
330
1B
100
AcDbEntity
 67
     1
  8
0
  6
Continuous
 62
     2
100
AcDbDimension
280
     0
  2
*D4
 10
205.3621199324
 20
15.5245502676
 30
0.0
 11
139.9335525513
 21
15.5245502676
 31
0.0
 70
   160
 71
     5
 42
-1.0
 73
     0
 74
     0
 75
     0
  3
DIMSTYLE_3
100
AcDbAlignedDimension
 13
75.3621199324
 23
23.591064323
 33
0.0
 14
205.3621199324
 24
22.9372264851
 34
0.0
100
AcDbRotatedDimension
  0
DIMENSION
  5
532
330
1B
100
AcDbEntity
 67
     1
  8
0
  6
Continuous
 62
     2
100
AcDbDimension
280
     0
  2
*D5
 10
52.7879254878
 20
175.3434966216
 30
0.0
 11
52.7879254878
 21
151.0149260576
 31
0.0
 70
   160
 71
     5
 42
-1.0
 73
     0
 74
     0
 75
     0
  3
DIMSTYLE_1
100
AcDbAlignedDimension
 13
57.3296875
 23
127.5434966216
 33
0.0
 14
58.8030102011
 24
175.3434966216
 34
0.0
 50
90.0
100
AcDbRotatedDimension
  0
LINE
  5
533
330
1B
100
AcDbEntity
 67
     1
  8
0
  6
Continuous
 62
     2
100
AcDbLine
 10
279.7706874699
 20
76.2616107985
 30
0.0
 11
409.7706874699
 21
76.2616107985
 31
0.0
  0
LINE
  5
534
330
1B
100
AcDbEntity
 67
     1
  8
0
  6
Continuous
 62
     2
100
AcDbLine
 10
279.7706874699
 20
76.2616107985
 30
0.0
 11
279.7706874699
 21
10.2616107985
 31
0.0
  0
LINE
  5
535
330
1B
100
AcDbEntity
 67
     1
  8
0
  6
Continuous
 62
     2
100
AcDbLine
 10
309.7706874699
 20
68.2616107985
 30
0.0
 11
409.7706874699
 21
68.2616107985
 31
0.0
  0
LINE
  5
536
330
1B
100
AcDbEntity
 67
     1
  8
0
  6
Continuous
 62
     2
100
AcDbLine
 10
279.7706874699
 20
60.2616107985
 30
0.0
 11
409.7706874699
 21
60.2616107985
 31
0.0
  0
LINE
  5
537
330
1B
100
AcDbEntity
 67
     1
  8
0
  6
Continuous
 62
     2
100
AcDbLine
 10
309.7706874699
 20
54.2616107985
 30
0.0
 11
409.7706874699
 21
54.2616107985
 31
0.0
  0
LINE
  5
538
330
1B
100
AcDbEntity
 67
     1
  8
0
  6
Continuous
 62
     2
100
AcDbLine
 10
309.7706874699
 20
48.2616107985
 30
0.0
 11
409.7706874699
 21
48.2616107985
 31
0.0
  0
LINE
  5
539
330
1B
100
AcDbEntity
 67
     1
  8
0
  6
Continuous
 62
     2
100
AcDbLine
 10
309.7706874699
 20
42.2616107985
 30
0.0
 11
409.7706874699
 21
42.2616107985
 31
0.0
  0
LINE
  5
53A
330
1B
100
AcDbEntity
 67
     1
  8
0
  6
Continuous
 62
     2
100
AcDbLine
 10
309.7706874699
 20
36.2616107985
 30
0.0
 11
409.7706874699
 21
36.2616107985
 31
0.0
  0
LINE
  5
53B
330
1B
100
AcDbEntity
 67
     1
  8
0
  6
Continuous
 62
     2
100
AcDbLine
 10
309.7706874699
 20
30.2616107985
 30
0.0
 11
409.7706874699
 21
30.2616107985
 31
0.0
  0
LINE
  5
53C
330
1B
100
AcDbEntity
 67
     1
  8
0
  6
Continuous
 62
     2
100
AcDbLine
 10
279.7706874699
 20
24.2616107985
 30
0.0
 11
409.7706874699
 21
24.2616107985
 31
0.0
  0
LINE
  5
53D
330
1B
100
AcDbEntity
 67
     1
  8
0
  6
Continuous
 62
     2
100
AcDbLine
 10
279.7706874699
 20
18.2616107985
 30
0.0
 11
409.7706874699
 21
18.2616107985
 31
0.0
  0
LINE
  5
53E
330
1B
100
AcDbEntity
 67
     1
  8
0
  6
Continuous
 62
     2
100
AcDbLine
 10
279.7706874699
 20
14.2616107985
 30
0.0
 11
409.7706874699
 21
14.2616107985
 31
0.0
  0
LINE
  5
53F
330
1B
100
AcDbEntity
 67
     1
  8
0
  6
Continuous
 62
     2
100
AcDbLine
 10
279.7706874699
 20
10.2616107985
 30
0.0
 11
409.7706874699
 21
10.2616107985
 31
0.0
  0
LINE
  5
540
330
1B
100
AcDbEntity
 67
     1
  8
0
  6
Continuous
 62
     2
100
AcDbLine
 10
309.7706874699
 20
76.2616107985
 30
0.0
 11
309.7706874699
 21
18.2616107985
 31
0.0
  0
LINE
  5
541
330
1B
100
AcDbEntity
 67
     1
  8
0
  6
Continuous
 62
     2
100
AcDbLine
 10
329.7706874699
 20
60.2616107985
 30
0.0
 11
329.7706874699
 21
54.2616107985
 31
0.0
  0
LINE
  5
542
330
1B
100
AcDbEntity
 67
     1
  8
0
  6
Continuous
 62
     2
100
AcDbLine
 10
359.7706874699
 20
30.2616107985
 30
0.0
 11
359.7706874699
 21
18.2616107985
 31
0.0
  0
LINE
  5
543
330
1B
100
AcDbEntity
 67
     1
  8
0
  6
Continuous
 62
     2
100
AcDbLine
 10
369.7706874699
 20
60.2616107985
 30
0.0
 11
369.7706874699
 21
54.2616107985
 31
0.0
  0
LINE
  5
544
330
1B
100
AcDbEntity
 67
     1
  8
0
  6
Continuous
 62
     2
100
AcDbLine
 10
369.7706874699
 20
48.2616107985
 30
0.0
 11
369.7706874699
 21
42.2616107985
 31
0.0
  0
LINE
  5
545
330
1B
100
AcDbEntity
 67
     1
  8
0
  6
Continuous
 62
     2
100
AcDbLine
 10
389.7706874699
 20
60.2616107985
 30
0.0
 11
389.7706874699
 21
54.2616107985
 31
0.0
  0
LINE
  5
546
330
1B
100
AcDbEntity
 67
     1
  8
0
  6
Continuous
 62
     2
100
AcDbLine
 10
399.7706874699
 20
48.2616107985
 30
0.0
 11
399.7706874699
 21
42.2616107985
 31
0.0
  0
LINE
  5
547
330
1B
100
AcDbEntity
 67
     1
  8
0
  6
Continuous
 62
     2
100
AcDbLine
 10
409.7706874699
 20
76.2616107985
 30
0.0
 11
409.7706874699
 21
10.2616107985
 31
0.0
  0
INSERT
  5
548
330
1B
100
AcDbEntity
 67
     1
  8
0
  6
Continuous
 62
     2
100
AcDbBlockReference
  2
PROIEZIONE_EU_BL0
 10
294.7706874699
 20
67.8866107985
 30
0.0
  0
MTEXT
  5
549
330
1B
100
AcDbEntity
 67
     1
  8
9_SOLID
  6
Continuous
 62
     2
100
AcDbMText
 10
311.2581874699
 20
74.6366107985
 30
0.0
 40
1.9
 41
142.3642857143
 46
0.0
 71
     1
 72
     1
  1
EN: Chamfer/radii unlisted 0.3x45°. Remove sharp edges.\PGen. tol.: hole H11, shaft h11, lenght Js12. UNI EN 22768 Medium Grande.
 73
     1
 44
1.0
  0
MTEXT
  5
54A
330
1B
100
AcDbEntity
 67
     1
  8
9_SOLID
  6
Continuous
 62
     2
100
AcDbMText
 10
311.2581874699
 20
66.6366107985
 30
0.0
 40
1.9
 41
148.2678571429
 46
0.0
 71
     1
 72
     1
  1
IT: Sm./rac. non quotati 0.3x45°. Eliminare spigoli taglienti.\PToll. gen.: foro H11, albero h11, lunghezza Js12. UNI EN 22768 Grado Medio.
 73
     1
 44
1.0
  0
INSERT
  5
54B
330
1B
100
AcDbEntity
 67
     1
  8
0
  6
Continuous
 62
     2
100
AcDbBlockReference
  2
LOGO2_BL1
 10
293.5967345147
 20
42.2616107985
 30
0.0
  0
MTEXT
  5
54C
330
1B
100
AcDbEntity
 67
     1
  8
9_SOLID
  6
Continuous
 62
     2
100
AcDbMText
 10
311.2581874699
 20
58.5116107985
 30
0.0
 40
3.0
 41
22.0714285714
 46
0.0
 71
     1
 72
     1
  1
Pj: YJ7
 73
     1
 44
1.0
  0
MTEXT
  5
54D
330
1B
100
AcDbEntity
 67
     1
  8
9_SOLID
  6
Continuous
 62
     2
100
AcDbMText
 10
331.2581874699
 20
58.5116107985
 30
0.0
 40
3.0
 41
38.0357142857
 46
0.0
 71
     1
 72
     1
  1
% Check: %
 73
     1
 44
1.0
  0
MTEXT
  5
54E
330
1B
100
AcDbEntity
 67
     1
  8
9_SOLID
  6
Continuous
 62
     2
100
AcDbMText
 10
371.2581874699
 20
58.5116107985
 30
0.0
 40
3.0
 41
19.5
 46
0.0
 71
     1
 72
     1
  1
Rev:00
 73
     1
 44
1.0
  0
MTEXT
  5
54F
330
1B
100
AcDbEntity
 67
     1
  8
9_SOLID
  6
Continuous
 62
     2
100
AcDbMText
 10
391.2581874699
 20
58.7616107985
 30
0.0
 40
3.0
 41
19.7142857143
 46
0.0
 71
     1
 72
     1
  1
Ver: A
 73
     1
 44
1.0
  0
MTEXT
  5
550
330
1B
100
AcDbEntity
 67
     1
  8
9_SOLID
  6
Continuous
 62
     2
100
AcDbMText
 10
311.2581874699
 20
52.5116107985
 30
0.0
 40
3.0
 41
74.3571428571
 46
0.0
 71
     1
 72
     1
  1
Neutral code: YJ7_C_003
 73
     1
 44
1.0
  0
MTEXT
  5
551
330
1B
100
AcDbEntity
 67
     1
  8
9_SOLID
  6
Continuous
 62
     2
100
AcDbMText
 10
311.2581874699
 20
46.5116107985
 30
0.0
 40
3.0
 41
19.3928571429
 46
0.0
 71
     1
 72
     1
  1
Code: 
 73
     1
 44
1.0
  0
MTEXT
  5
552
330
1B
100
AcDbEntity
 67
     1
  8
9_SOLID
  6
Continuous
 62
     2
100
AcDbMText
 10
371.2581874699
 20
46.7616107985
 30
0.0
 40
3.0
 41
27.8571428571
 46
0.0
 71
     1
 72
     1
  1
Scale: 1:1
 73
     1
 44
1.0
  0
MTEXT
  5
553
330
1B
100
AcDbEntity
 67
     1
  8
9_SOLID
  6
Continuous
 62
     2
100
AcDbMText
 10
404.7706874699
 20
46.7616107985
 30
0.0
 40
3.0
 41
7.9285714286
 46
0.0
 71
     2
 72
     1
  1
A3
 73
     1
 44
1.0
  0
MTEXT
  5
554
330
1B
100
AcDbEntity
 67
     1
  8
9_SOLID
  6
Continuous
 62
     2
100
AcDbMText
 10
311.2581874699
 20
40.7616107985
 30
0.0
 40
3.0
 41
127.3928571429
 46
0.0
 71
     1
 72
     1
  1
It descr.: DISTANZIALE LYSS 1 130x92x35
 73
     1
 44
1.0
  0
MTEXT
  5
555
330
1B
100
AcDbEntity
 67
     1
  8
9_SOLID
  6
Continuous
 62
     2
100
AcDbMText
 10
311.2581874699
 20
34.7616107985
 30
0.0
 40
3.0
 41
33.9642857143
 46
0.0
 71
     1
 72
     1
  1
En descr.: 
 73
     1
 44
1.0
  0
MTEXT
  5
556
330
1B
100
AcDbEntity
 67
     1
  8
9_SOLID
  6
Continuous
 62
     2
100
AcDbMText
 10
311.2581874699
 20
28.7616107985
 30
0.0
 40
3.0
 41
31.6071428571
 46
0.0
 71
     1
 72
     1
  1
Des.: A.G.
 73
     1
 44
1.0
  0
MTEXT
  5
557
330
1B
100
AcDbEntity
 67
     1
  8
9_SOLID
  6
Continuous
 62
     2
100
AcDbMText
 10
361.2581874699
 20
28.7616107985
 30
0.0
 40
3.0
 41
22.2857142857
 46
0.0
 71
     1
 72
     1
  1
Check: 
 73
     1
 44
1.0
  0
MTEXT
  5
558
330
1B
100
AcDbEntity
 67
     1
  8
9_SOLID
  6
Continuous
 62
     2
100
AcDbMText
 10
281.2581874699
 20
22.7616107985
 30
0.0
 40
3.0
 41
42.5357142857
 46
0.0
 71
     1
 72
     1
  1
Date: 12.12.18
 73
     1
 44
1.0
  0
MTEXT
  5
559
330
1B
100
AcDbEntity
 67
     1
  8
9_SOLID
  6
Continuous
 62
     2
100
AcDbMText
 10
311.2581874699
 20
22.7616107985
 30
0.0
 40
3.0
 41
18.2142857143
 46
0.0
 71
     1
 72
     1
  1
Mat.: 
 73
     1
 44
1.0
  0
MTEXT
  5
55A
330
1B
100
AcDbEntity
 67
     1
  8
9_SOLID
  6
Continuous
 62
     2
100
AcDbMText
 10
361.2581874699
 20
22.2616107985
 30
0.0
 40
2.0
 41
42.3571428571
 46
0.0
 71
     1
 72
     1
  1
Disegno per catalogo
 73
     1
 44
1.0
  0
MTEXT
  5
55B
330
1B
100
AcDbEntity
 67
     1
  8
9_SOLID
  6
Continuous
 62
     2
100
AcDbMText
 10
281.2581874699
 20
17.1616107985
 30
0.0
 40
1.8
 41
176.2071428571
 46
0.0
 71
     1
 72
     1
  1
It: A norma di legge si diffida da qualsiasi riproduzione senza nostra autorizzazione esplicita.
 73
     1
 44
1.0
  0
MTEXT
  5
55C
330
1B
100
AcDbEntity
 67
     1
  8
9_SOLID
  6
Continuous
 62
     2
100
AcDbMText
 10
281.2581874699
 20
13.1616107985
 30
0.0
 40
1.8
 41
158.1428571429
 46
0.0
 71
     1
 72
     1
  1
En: According to the law, beware of any reproduction made without our authorization.
 73
     1
 44
1.0
  0
ENDSEC
  0
SECTION
  2
OBJECTS
  0
DICTIONARY
  5
55D
330
0
100
AcDbDictionary
281
     1
  3
ACAD_DETAILVIEWSTYLE
350
5B3
  3
ACAD_GROUP
350
55E
  3
ACAD_LAYOUT
350
586
  3
ACAD_MATERIAL
350
5A2
  3
ACAD_MLEADERSTYLE
350
5A8
  3
ACAD_MLINESTYLE
350
55F
  3
ACAD_PLOTSETTINGS
350
561
  3
ACAD_PLOTSTYLENAME
350
562
  3
ACAD_SCALELIST
350
564
  3
ACAD_SECTIONVIEWSTYLE
350
5B4
  3
ACAD_TABLESTYLE
350
5A6
  3
ACAD_VISUALSTYLE
350
589
  3
ACDB_RECOMPOSE_DATA
350
5AF
  3
AcDbVariableDictionary
350
5AB
  3
APPDATA
350
5AA
  0
DICTIONARY
  5
5B3
102
{ACAD_REACTORS
330
55D
102
}
330
55D
100
AcDbDictionary
281
     1
  0
DICTIONARY
  5
55E
102
{ACAD_REACTORS
330
55D
102
}
330
55D
100
AcDbDictionary
281
     1
  0
DICTIONARY
  5
586
102
{ACAD_REACTORS
330
55D
102
}
330
55D
100
AcDbDictionary
281
     1
  3
Foglio 1
350
588
  3
Model
350
587
  0
DICTIONARY
  5
5A2
102
{ACAD_REACTORS
330
55D
102
}
330
55D
100
AcDbDictionary
281
     1
  3
ByBlock
350
5A4
  3
ByLayer
350
5A3
  3
Global
350
5A5
  0
DICTIONARY
  5
5A8
102
{ACAD_REACTORS
330
55D
102
}
330
55D
100
AcDbDictionary
281
     1
  3
Standard
350
5A9
  0
DICTIONARY
  5
55F
102
{ACAD_REACTORS
330
55D
102
}
330
55D
100
AcDbDictionary
281
     1
  3
STANDARD
350
560
  0
DICTIONARY
  5
561
102
{ACAD_REACTORS
330
55D
102
}
330
55D
100
AcDbDictionary
281
     1
  0
ACDBDICTIONARYWDFLT
  5
562
102
{ACAD_REACTORS
330
55D
102
}
330
55D
100
AcDbDictionary
281
     1
  3
Normal
350
563
100
AcDbDictionaryWithDefault
340
563
  0
DICTIONARY
  5
564
102
{ACAD_REACTORS
330
55D
102
}
330
55D
100
AcDbDictionary
281
     1
  3
A0
350
565
  3
A1
350
566
  3
A2
350
567
  3
A3
350
568
  3
A4
350
569
  3
A5
350
56A
  3
A6
350
56B
  3
A7
350
56C
  3
A8
350
56D
  3
A9
350
56E
  3
B0
350
56F
  3
B1
350
570
  3
B2
350
571
  3
B3
350
572
  3
B4
350
573
  3
B5
350
574
  3
B6
350
575
  3
B7
350
576
  3
B8
350
577
  3
B9
350
578
  3
C0
350
579
  3
C1
350
57A
  3
C2
350
57B
  3
C3
350
57C
  3
C4
350
57D
  3
C5
350
57E
  3
C6
350
57F
  3
C7
350
580
  3
C8
350
581
  3
C9
350
582
  3
D0
350
583
  3
D1
350
584
  3
D2
350
585
  0
DICTIONARY
  5
5B4
102
{ACAD_REACTORS
330
55D
102
}
330
55D
100
AcDbDictionary
281
     1
  0
DICTIONARY
  5
5A6
102
{ACAD_REACTORS
330
55D
102
}
330
55D
100
AcDbDictionary
281
     1
  3
Standard
350
5A7
  0
DICTIONARY
  5
589
102
{ACAD_REACTORS
330
55D
102
}
330
55D
100
AcDbDictionary
281
     1
  3
2dWireframe
350
58E
  3
Basic
350
591
  3
Brighten
350
595
  3
ColorChange
350
599
  3
Conceptual
350
593
  3
Dim
350
594
  3
EdgeColorOff
350
59C
  3
Facepattern
350
598
  3
Flat
350
58A
  3
FlatWithEdges
350
58B
  3
Gouraud
350
58C
  3
GouraudWithEdges
350
58D
  3
Hidden
350
590
  3
JitterOff
350
59A
  3
Linepattern
350
597
  3
OverhangOff
350
59B
  3
Realistic
350
592
  3
Shaded
350
5A1
  3
Shaded with edges
350
5A0
  3
Shades of Gray
350
59D
  3
Sketchy
350
59E
  3
Thicken
350
596
  3
Wireframe
350
58F
  3
X-Ray
350
59F
  0
XRECORD
  5
5AF
102
{ACAD_REACTORS
330
55D
102
}
330
55D
100
AcDbXrecord
280
     1
 90
        1
330
5A7
  0
DICTIONARY
  5
5AB
102
{ACAD_REACTORS
330
55D
102
}
330
55D
100
AcDbDictionary
281
     1
  3
CANNOSCALE
350
5AC
  3
CMLEADERSTYLE
350
5B1
  3
CTABLESTYLE
350
5B0
  3
MSLTSCALE
350
5B2
  0
DICTIONARY
  5
5AA
102
{ACAD_REACTORS
330
55D
102
}
330
55D
100
AcDbDictionary
281
     1
  0
LAYOUT
  5
588
102
{ACAD_REACTORS
330
586
102
}
330
586
100
AcDbPlotSettings
  1

  2
none_device
  4
ISO_A3_(420.00_x_297.00_MM)
  6

 40
7.5
 41
20.0
 42
7.5
 43
20.0
 44
420.0
 45
297.0
 46
0.0
 47
0.0
 48
0.0
 49
0.0
140
0.0
141
0.0
142
1.0
143
1.155642023346303
 70
   688
 72
     1
 73
     0
 74
     1
  7

 75
     0
 76
     0
 77
     2
 78
   300
147
0.8653198653198654
148
0.0
149
0.0
100
AcDbLayout
  1
Foglio 1
 70
     1
 71
     1
 10
0.0
 20
0.0
 11
412.5
 21
277.0
 12
0.0
 22
0.0
 32
0.0
 14
0.0
 24
0.0
 34
0.0
 15
420.0
 25
297.0
 35
0.0
146
0.0
 13
0.0
 23
0.0
 33
0.0
 16
1.0
 26
0.0
 36
0.0
 17
0.0
 27
1.0
 37
0.0
 76
     0
330
1B
331
2D4
  0
LAYOUT
  5
587
102
{ACAD_REACTORS
330
586
102
}
330
586
100
AcDbPlotSettings
  1

  2
none_device
  4
Letter_(8.50_x_11.00_Inches)
  6

 40
6.35
 41
6.35
 42
6.35
 43
6.35
 44
215.9
 45
279.4
 46
0.0
 47
0.0
 48
0.0
 49
0.0
140
0.0
141
0.0
142
1.0
143
52.49999999846251
 70
  1712
 72
     0
 73
     0
 74
     0
  7

 75
     0
 76
     0
 77
     2
 78
   300
147
0.0190476190481769
148
-0.0000001562100806
149
0.0
100
AcDbLayout
  1
Model
 70
     1
 71
     0
 10
0.0
 20
0.0
 11
420.0
 21
297.0
 12
0.0
 22
0.0
 32
0.0
 14
0.0
 24
0.0
 34
0.0
 15
420.0
 25
297.0
 35
0.0
146
0.0
 13
0.0
 23
0.0
 33
0.0
 16
1.0
 26
0.0
 36
0.0
 17
0.0
 27
1.0
 37
0.0
 76
     0
330
1F
331
1F4
  0
MATERIAL
  5
5A4
102
{ACAD_REACTORS
330
5A2
102
}
330
5A2
100
AcDbMaterial
  1
ByBlock
 72
     1
 94
      127
  0
MATERIAL
  5
5A3
102
{ACAD_REACTORS
330
5A2
102
}
330
5A2
100
AcDbMaterial
  1
ByLayer
 72
     1
 94
      127
  0
MATERIAL
  5
5A5
102
{ACAD_REACTORS
330
5A2
102
}
330
5A2
100
AcDbMaterial
  1
Global
 72
     1
 94
      127
  0
MLEADERSTYLE
  5
5A9
102
{ACAD_REACTORS
330
5A8
102
}
330
5A8
100
AcDbMLeaderStyle
179
     2
170
     2
171
     1
172
     0
 90
        2
 40
0.0
 41
0.0
173
     1
 91
-1056964608
340
14
 92
       -2
290
     1
 42
2.0
291
     1
 43
8.0
  3
Standard
341
0
 44
4.0
300

342
11
174
     1
178
     1
175
     1
176
     0
 93
-1056964608
 45
4.0
292
     0
297
     0
 46
4.0
343
0
 94
-1056964608
 47
1.0
 49
1.0
140
1.0
293
     1
141
0.0
294
     1
177
     0
142
1.0
295
     0
296
     0
143
3.75
271
     0
272
     9
273
     9
298
     0
  0
MLINESTYLE
  5
560
102
{ACAD_REACTORS
330
55F
102
}
330
55F
100
AcDbMlineStyle
  2
STANDARD
 70
     0
  3

 62
   256
 51
90.0
 52
90.0
 71
     2
 49
0.5
 62
   256
  6
BYLAYER
 49
-0.5
 62
   256
  6
BYLAYER
  0
ACDBPLACEHOLDER
  5
563
102
{ACAD_REACTORS
330
562
102
}
330
562
  0
SCALE
  5
565
102
{ACAD_REACTORS
330
564
102
}
330
564
100
AcDbScale
 70
     0
300
1:1
140
1.0
141
1.0
290
     1
  0
SCALE
  5
566
102
{ACAD_REACTORS
330
564
102
}
330
564
100
AcDbScale
 70
     0
300
1:2
140
1.0
141
2.0
290
     0
  0
SCALE
  5
567
102
{ACAD_REACTORS
330
564
102
}
330
564
100
AcDbScale
 70
     0
300
1:4
140
1.0
141
4.0
290
     0
  0
SCALE
  5
568
102
{ACAD_REACTORS
330
564
102
}
330
564
100
AcDbScale
 70
     0
300
1:5
140
1.0
141
5.0
290
     0
  0
SCALE
  5
569
102
{ACAD_REACTORS
330
564
102
}
330
564
100
AcDbScale
 70
     0
300
1:8
140
1.0
141
8.0
290
     0
  0
SCALE
  5
56A
102
{ACAD_REACTORS
330
564
102
}
330
564
100
AcDbScale
 70
     0
300
1:10
140
1.0
141
10.0
290
     0
  0
SCALE
  5
56B
102
{ACAD_REACTORS
330
564
102
}
330
564
100
AcDbScale
 70
     0
300
1:16
140
1.0
141
16.0
290
     0
  0
SCALE
  5
56C
102
{ACAD_REACTORS
330
564
102
}
330
564
100
AcDbScale
 70
     0
300
1:20
140
1.0
141
20.0
290
     0
  0
SCALE
  5
56D
102
{ACAD_REACTORS
330
564
102
}
330
564
100
AcDbScale
 70
     0
300
1:30
140
1.0
141
30.0
290
     0
  0
SCALE
  5
56E
102
{ACAD_REACTORS
330
564
102
}
330
564
100
AcDbScale
 70
     0
300
1:40
140
1.0
141
40.0
290
     0
  0
SCALE
  5
56F
102
{ACAD_REACTORS
330
564
102
}
330
564
100
AcDbScale
 70
     0
300
1:50
140
1.0
141
50.0
290
     0
  0
SCALE
  5
570
102
{ACAD_REACTORS
330
564
102
}
330
564
100
AcDbScale
 70
     0
300
1:100
140
1.0
141
100.0
290
     0
  0
SCALE
  5
571
102
{ACAD_REACTORS
330
564
102
}
330
564
100
AcDbScale
 70
     0
300
2:1
140
2.0
141
1.0
290
     0
  0
SCALE
  5
572
102
{ACAD_REACTORS
330
564
102
}
330
564
100
AcDbScale
 70
     0
300
4:1
140
4.0
141
1.0
290
     0
  0
SCALE
  5
573
102
{ACAD_REACTORS
330
564
102
}
330
564
100
AcDbScale
 70
     0
300
8:1
140
8.0
141
1.0
290
     0
  0
SCALE
  5
574
102
{ACAD_REACTORS
330
564
102
}
330
564
100
AcDbScale
 70
     0
300
10:1
140
10.0
141
1.0
290
     0
  0
SCALE
  5
575
102
{ACAD_REACTORS
330
564
102
}
330
564
100
AcDbScale
 70
     0
300
100:1
140
100.0
141
1.0
290
     0
  0
SCALE
  5
576
102
{ACAD_REACTORS
330
564
102
}
330
564
100
AcDbScale
 70
     0
300
1/128" = 1'-0"
140
0.0078125
141
12.0
290
     0
  0
SCALE
  5
577
102
{ACAD_REACTORS
330
564
102
}
330
564
100
AcDbScale
 70
     0
300
1/64" = 1'-0"
140
0.015625
141
12.0
290
     0
  0
SCALE
  5
578
102
{ACAD_REACTORS
330
564
102
}
330
564
100
AcDbScale
 70
     0
300
1/32" = 1'-0"
140
0.03125
141
12.0
290
     0
  0
SCALE
  5
579
102
{ACAD_REACTORS
330
564
102
}
330
564
100
AcDbScale
 70
     0
300
1/16" = 1'-0"
140
0.0625
141
12.0
290
     0
  0
SCALE
  5
57A
102
{ACAD_REACTORS
330
564
102
}
330
564
100
AcDbScale
 70
     0
300
3/32" = 1'-0"
140
0.09375
141
12.0
290
     0
  0
SCALE
  5
57B
102
{ACAD_REACTORS
330
564
102
}
330
564
100
AcDbScale
 70
     0
300
1/8" = 1'-0"
140
0.125
141
12.0
290
     0
  0
SCALE
  5
57C
102
{ACAD_REACTORS
330
564
102
}
330
564
100
AcDbScale
 70
     0
300
3/16" = 1'-0"
140
0.1875
141
12.0
290
     0
  0
SCALE
  5
57D
102
{ACAD_REACTORS
330
564
102
}
330
564
100
AcDbScale
 70
     0
300
1/4" = 1'-0"
140
0.25
141
12.0
290
     0
  0
SCALE
  5
57E
102
{ACAD_REACTORS
330
564
102
}
330
564
100
AcDbScale
 70
     0
300
3/8" = 1'-0"
140
0.375
141
12.0
290
     0
  0
SCALE
  5
57F
102
{ACAD_REACTORS
330
564
102
}
330
564
100
AcDbScale
 70
     0
300
1/2" = 1'-0"
140
0.5
141
12.0
290
     0
  0
SCALE
  5
580
102
{ACAD_REACTORS
330
564
102
}
330
564
100
AcDbScale
 70
     0
300
3/4" = 1'-0"
140
0.75
141
12.0
290
     0
  0
SCALE
  5
581
102
{ACAD_REACTORS
330
564
102
}
330
564
100
AcDbScale
 70
     0
300
1" = 1'-0"
140
1.0
141
12.0
290
     0
  0
SCALE
  5
582
102
{ACAD_REACTORS
330
564
102
}
330
564
100
AcDbScale
 70
     0
300
1-1/2" = 1'-0"
140
1.5
141
12.0
290
     0
  0
SCALE
  5
583
102
{ACAD_REACTORS
330
564
102
}
330
564
100
AcDbScale
 70
     0
300
3" = 1'-0"
140
3.0
141
12.0
290
     0
  0
SCALE
  5
584
102
{ACAD_REACTORS
330
564
102
}
330
564
100
AcDbScale
 70
     0
300
6" = 1'-0"
140
6.0
141
12.0
290
     0
  0
SCALE
  5
585
102
{ACAD_REACTORS
330
564
102
}
330
564
100
AcDbScale
 70
     0
300
1'-0" = 1'-0"
140
12.0
141
12.0
290
     0
  0
TABLESTYLE
  5
5A7
102
{ACAD_REACTORS
330
5A6
102
}
102
{ACAD_XDICTIONARY
360
5AD
102
}
330
5A6
100
AcDbTableStyle
  3
Standard
 70
     0
 71
     0
 40
0.06
 41
0.06
280
     0
281
     0
  7
STANDARD
140
4.5
170
     2
 62
     0
 63
   257
283
     0
 90
        4
 91
        0
  1

274
    -2
284
     1
 64
     0
275
    -2
285
     1
 65
     0
276
    -2
286
     1
 66
     0
277
    -2
287
     1
 67
     0
278
    -2
288
     1
 68
     0
279
    -2
289
     1
 69
     0
  7
STANDARD
140
6.0
170
     5
 62
     0
 63
   257
283
     0
 90
        4
 91
        0
  1

274
    -2
284
     1
 64
     0
275
    -2
285
     1
 65
     0
276
    -2
286
     1
 66
     0
277
    -2
287
     1
 67
     0
278
    -2
288
     1
 68
     0
279
    -2
289
     1
 69
     0
  7
STANDARD
140
4.5
170
     5
 62
     0
 63
   257
283
     0
 90
        4
 91
        0
  1

274
    -2
284
     1
 64
     0
275
    -2
285
     1
 65
     0
276
    -2
286
     1
 66
     0
277
    -2
287
     1
 67
     0
278
    -2
288
     1
 68
     0
279
    -2
289
     1
 69
     0
  0
VISUALSTYLE
  5
58E
102
{ACAD_REACTORS
330
589
102
}
330
589
100
AcDbVisualStyle
  2
2dWireframe
 70
     4
177
     3
291
     0
 70
    58
 90
        0
176
     1
 90
        2
176
     1
 90
        0
176
     1
 90
        0
176
     1
 40
0.6
176
     1
 40
30.0
176
     1
 62
     7
420
 16777215
176
     1
 90
        1
176
     1
 90
        4
176
     1
 62
     7
176
     1
 62
   257
176
     1
 90
        1
176
     1
 90
        1
176
     1
 40
1.0
176
     1
 90
        0
176
     1
 62
   257
176
     1
 40
1.0
176
     1
 90
        1
176
     1
 90
        6
176
     1
 90
        2
176
     1
 62
     7
176
     1
 90
        5
176
     1
 90
        0
176
     1
 90
        0
176
     1
290
     0
176
     1
 90
        1
176
     1
 40
0.0
176
     1
 90
        0
176
     1
290
     1
176
     1
290
     1
176
     1
290
     0
176
     1
290
     0
176
     1
290
     0
176
     1
290
     0
176
     1
290
     0
176
     1
290
     0
176
     1
290
     0
176
     1
 90
       50
176
     1
 40
0.0
176
     1
 40
1.0
176
     1
 90
        0
176
     1
 62
    18
420
        0
176
     1
 90
       50
176
     1
 90
        3
176
     1
 62
     5
420
      255
176
     1
290
     0
176
     1
 90
       50
176
     1
 90
       50
176
     1
 90
       50
176
     1
290
     0
176
     1
 90
       50
176
     1
 62
   256
176
     0
 40
1.0
176
     0
 90
        2
176
     1
  1
strokes_ogs.tif
176
     1
290
     0
176
     1
 40
1.0
176
     1
 40
1.0
176
     1
  0
VISUALSTYLE
  5
591
102
{ACAD_REACTORS
330
589
102
}
330
589
100
AcDbVisualStyle
  2
Basic
 70
     7
177
     3
291
     1
 70
    58
 90
        1
176
     1
 90
        0
176
     1
 90
        1
176
     1
 90
        0
176
     1
 40
0.6
176
     1
 40
30.0
176
     1
 62
     7
420
 16777215
176
     1
 90
        0
176
     1
 90
        4
176
     1
 62
     7
176
     1
 62
   257
176
     1
 90
        1
176
     1
 90
        1
176
     1
 40
1.0
176
     1
 90
        8
176
     1
 62
     7
176
     1
 40
1.0
176
     1
 90
        1
176
     1
 90
        6
176
     1
 90
        2
176
     1
 62
     7
176
     1
 90
        5
176
     1
 90
        0
176
     1
 90
        0
176
     1
290
     0
176
     1
 90
        1
176
     1
 40
0.0
176
     1
 90
        0
176
     1
290
     0
176
     1
290
     1
176
     1
290
     1
176
     1
290
     0
176
     1
290
     0
176
     1
290
     0
176
     1
290
     0
176
     1
290
     0
176
     1
290
     0
176
     1
 90
       50
176
     1
 40
0.0
176
     1
 40
1.0
176
     1
 90
        0
176
     1
 62
    18
420
        0
176
     1
 90
       50
176
     1
 90
        3
176
     1
 62
     5
420
      255
176
     1
290
     0
176
     1
 90
       50
176
     1
 90
       50
176
     1
 90
       50
176
     1
290
     0
176
     1
 90
       50
176
     1
 62
   256
176
     0
 40
1.0
176
     0
 90
        2
176
     1
  1
strokes_ogs.tif
176
     1
290
     0
176
     1
 40
1.0
176
     1
 40
1.0
176
     1
  0
VISUALSTYLE
  5
595
102
{ACAD_REACTORS
330
589
102
}
330
589
100
AcDbVisualStyle
  2
Brighten
 70
    12
177
     3
291
     1
 70
    58
 90
        2
176
     1
 90
        2
176
     1
 90
        0
176
     1
 90
        0
176
     1
 40
0.6
176
     1
 40
30.0
176
     1
 62
     7
420
 16777215
176
     1
 90
        1
176
     1
 90
        4
176
     1
 62
     7
176
     1
 62
   257
176
     1
 90
        1
176
     1
 90
        1
176
     1
 40
1.0
176
     1
 90
        8
176
     1
 62
     7
176
     1
 40
1.0
176
     1
 90
        1
176
     1
 90
        6
176
     1
 90
        2
176
     1
 62
     7
176
     1
 90
        5
176
     1
 90
        0
176
     1
 90
        0
176
     1
290
     0
176
     1
 90
        1
176
     1
 40
50.0
176
     1
 90
        0
176
     1
290
     0
176
     1
290
     1
176
     1
290
     1
176
     1
290
     0
176
     1
290
     0
176
     1
290
     0
176
     1
290
     0
176
     1
290
     0
176
     1
290
     0
176
     1
 90
       50
176
     1
 40
0.0
176
     1
 40
1.0
176
     1
 90
        0
176
     1
 62
    18
420
        0
176
     1
 90
       50
176
     1
 90
        3
176
     1
 62
     5
420
      255
176
     1
290
     0
176
     1
 90
       50
176
     1
 90
       50
176
     1
 90
       50
176
     1
290
     0
176
     1
 90
       50
176
     1
 62
   256
176
     0
 40
1.0
176
     0
 90
        2
176
     1
  1
strokes_ogs.tif
176
     1
290
     0
176
     1
 40
1.0
176
     1
 40
1.0
176
     1
  0
VISUALSTYLE
  5
599
102
{ACAD_REACTORS
330
589
102
}
330
589
100
AcDbVisualStyle
  2
ColorChange
 70
    16
177
     3
291
     1
 70
    58
 90
        2
176
     1
 90
        2
176
     1
 90
        3
176
     1
 90
        0
176
     1
 40
0.6
176
     1
 40
30.0
176
     1
 62
     8
420
  8421504
176
     1
 90
        1
176
     1
 90
        4
176
     1
 62
     7
176
     1
 62
   257
176
     1
 90
        1
176
     1
 90
        1
176
     1
 40
1.0
176
     1
 90
        8
176
     1
 62
     8
420
  8421504
176
     1
 40
1.0
176
     1
 90
        1
176
     1
 90
        6
176
     1
 90
        2
176
     1
 62
     7
176
     1
 90
        5
176
     1
 90
        0
176
     1
 90
        0
176
     1
290
     0
176
     1
 90
        1
176
     1
 40
0.0
176
     1
 90
        0
176
     1
290
     0
176
     1
290
     1
176
     1
290
     1
176
     1
290
     0
176
     1
290
     0
176
     1
290
     0
176
     1
290
     0
176
     1
290
     0
176
     1
290
     0
176
     1
 90
       50
176
     1
 40
0.0
176
     1
 40
1.0
176
     1
 90
        0
176
     1
 62
    18
420
        0
176
     1
 90
       50
176
     1
 90
        3
176
     1
 62
     5
420
      255
176
     1
290
     0
176
     1
 90
       50
176
     1
 90
       50
176
     1
 90
       50
176
     1
290
     0
176
     1
 90
       50
176
     1
 62
   256
176
     0
 40
1.0
176
     0
 90
        2
176
     1
  1
strokes_ogs.tif
176
     1
290
     0
176
     1
 40
1.0
176
     1
 40
1.0
176
     1
  0
VISUALSTYLE
  5
593
102
{ACAD_REACTORS
330
589
102
}
330
589
100
AcDbVisualStyle
  2
Conceptual
 70
     9
177
     3
291
     0
 70
    58
 90
        3
176
     1
 90
        2
176
     1
 90
        0
176
     1
 90
        0
176
     1
 40
0.6
176
     1
 40
30.0
176
     1
 62
     7
420
 16777215
176
     1
 90
        2
176
     1
 90
        2
176
     1
 62
     7
176
     1
 62
   257
176
     1
 90
        1
176
     1
 90
        1
176
     1
 40
179.0
176
     1
 90
        8
176
     1
 62
     7
176
     1
 40
1.0
176
     1
 90
        1
176
     1
 90
        6
176
     1
 90
        2
176
     1
 62
     7
176
     1
 90
        3
176
     1
 90
        0
176
     1
 90
        0
176
     1
290
     0
176
     1
 90
        1
176
     1
 40
0.0
176
     1
 90
        0
176
     1
290
     0
176
     1
290
     1
176
     1
290
     1
176
     1
290
     0
176
     1
290
     0
176
     1
290
     0
176
     1
290
     0
176
     1
290
     0
176
     1
290
     0
176
     1
 90
       50
176
     1
 40
0.0
176
     1
 40
1.0
176
     1
 90
        0
176
     1
 62
    18
420
        0
176
     1
 90
       50
176
     1
 90
        3
176
     1
 62
     5
420
      255
176
     1
290
     0
176
     1
 90
       50
176
     1
 90
       50
176
     1
 90
       50
176
     1
290
     0
176
     1
 90
       50
176
     1
 62
   256
176
     0
 40
1.0
176
     0
 90
        2
176
     1
  1
strokes_ogs.tif
176
     1
290
     0
176
     1
 40
1.0
176
     1
 40
1.0
176
     1
  0
VISUALSTYLE
  5
594
102
{ACAD_REACTORS
330
589
102
}
330
589
100
AcDbVisualStyle
  2
Dim
 70
    11
177
     3
291
     1
 70
    58
 90
        2
176
     1
 90
        2
176
     1
 90
        0
176
     1
 90
        0
176
     1
 40
0.6
176
     1
 40
30.0
176
     1
 62
     7
420
 16777215
176
     1
 90
        1
176
     1
 90
        4
176
     1
 62
     7
176
     1
 62
   257
176
     1
 90
        1
176
     1
 90
        1
176
     1
 40
1.0
176
     1
 90
        8
176
     1
 62
     7
176
     1
 40
1.0
176
     1
 90
        1
176
     1
 90
        6
176
     1
 90
        2
176
     1
 62
     7
176
     1
 90
        5
176
     1
 90
        0
176
     1
 90
        0
176
     1
290
     0
176
     1
 90
        1
176
     1
 40
-50.0
176
     1
 90
        0
176
     1
290
     0
176
     1
290
     1
176
     1
290
     1
176
     1
290
     0
176
     1
290
     0
176
     1
290
     0
176
     1
290
     0
176
     1
290
     0
176
     1
290
     0
176
     1
 90
       50
176
     1
 40
0.0
176
     1
 40
1.0
176
     1
 90
        0
176
     1
 62
    18
420
        0
176
     1
 90
       50
176
     1
 90
        3
176
     1
 62
     5
420
      255
176
     1
290
     0
176
     1
 90
       50
176
     1
 90
       50
176
     1
 90
       50
176
     1
290
     0
176
     1
 90
       50
176
     1
 62
   256
176
     0
 40
1.0
176
     0
 90
        2
176
     1
  1
strokes_ogs.tif
176
     1
290
     0
176
     1
 40
1.0
176
     1
 40
1.0
176
     1
  0
VISUALSTYLE
  5
59C
102
{ACAD_REACTORS
330
589
102
}
330
589
100
AcDbVisualStyle
  2
EdgeColorOff
 70
    22
177
     3
291
     1
 70
    58
 90
        2
176
     0
 90
        2
176
     0
 90
        0
176
     0
 90
        0
176
     0
 40
0.6
176
     0
 40
30.0
176
     0
 62
     7
420
 16777215
176
     0
 90
        1
176
     0
 90
        4
176
     0
 62
     7
176
     0
 62
   257
176
     0
 90
        1
176
     0
 90
        1
176
     0
 40
1.0
176
     0
 90
        8
176
     2
 62
     7
176
     0
 40
1.0
176
     0
 90
        1
176
     0
 90
        6
176
     0
 90
        2
176
     0
 62
     7
176
     0
 90
        5
176
     0
 90
        0
176
     0
 90
        0
176
     0
290
     0
176
     0
 90
        1
176
     0
 40
0.0
176
     0
 90
        0
176
     0
290
     0
176
     0
290
     1
176
     0
290
     1
176
     0
290
     0
176
     0
290
     0
176
     0
290
     0
176
     0
290
     0
176
     0
290
     0
176
     0
290
     0
176
     0
 90
       50
176
     0
 40
0.0
176
     0
 40
1.0
176
     0
 90
        0
176
     0
 62
    18
420
        0
176
     0
 90
       50
176
     0
 90
        3
176
     0
 62
     5
420
      255
176
     0
290
     0
176
     0
 90
       50
176
     0
 90
       50
176
     0
 90
       50
176
     0
290
     0
176
     0
 90
       50
176
     0
 62
   256
176
     0
 40
1.0
176
     0
 90
        2
176
     0
  1
strokes_ogs.tif
176
     0
290
     0
176
     0
 40
1.0
176
     0
 40
1.0
176
     0
  0
VISUALSTYLE
  5
598
102
{ACAD_REACTORS
330
589
102
}
330
589
100
AcDbVisualStyle
  2
Facepattern
 70
    15
177
     3
291
     1
 70
    58
 90
        2
176
     1
 90
        2
176
     1
 90
        0
176
     1
 90
        0
176
     1
 40
0.6
176
     1
 40
30.0
176
     1
 62
     7
420
 16777215
176
     1
 90
        1
176
     1
 90
        4
176
     1
 62
     7
176
     1
 62
   257
176
     1
 90
        1
176
     1
 90
        1
176
     1
 40
1.0
176
     1
 90
        8
176
     1
 62
     7
176
     1
 40
1.0
176
     1
 90
        1
176
     1
 90
        6
176
     1
 90
        2
176
     1
 62
     7
176
     1
 90
        5
176
     1
 90
        0
176
     1
 90
        0
176
     1
290
     0
176
     1
 90
        1
176
     1
 40
0.0
176
     1
 90
        0
176
     1
290
     0
176
     1
290
     1
176
     1
290
     1
176
     1
290
     0
176
     1
290
     0
176
     1
290
     0
176
     1
290
     0
176
     1
290
     0
176
     1
290
     0
176
     1
 90
       50
176
     1
 40
0.0
176
     1
 40
1.0
176
     1
 90
        0
176
     1
 62
    18
420
        0
176
     1
 90
       50
176
     1
 90
        3
176
     1
 62
     5
420
      255
176
     1
290
     0
176
     1
 90
       50
176
     1
 90
       50
176
     1
 90
       50
176
     1
290
     0
176
     1
 90
       50
176
     1
 62
   256
176
     0
 40
1.0
176
     0
 90
        2
176
     1
  1
strokes_ogs.tif
176
     1
290
     0
176
     1
 40
1.0
176
     1
 40
1.0
176
     1
  0
VISUALSTYLE
  5
58A
102
{ACAD_REACTORS
330
589
102
}
330
589
100
AcDbVisualStyle
  2
Flat
 70
     0
177
     3
291
     1
 70
    58
 90
        2
176
     1
 90
        1
176
     1
 90
        1
176
     1
 90
        2
176
     1
 40
0.6
176
     1
 40
30.0
176
     1
 62
     7
420
 16777215
176
     1
 90
        0
176
     1
 90
        0
176
     1
 62
     7
176
     1
 62
   257
176
     1
 90
        1
176
     1
 90
        1
176
     1
 40
1.0
176
     1
 90
        8
176
     1
 62
     7
176
     1
 40
1.0
176
     1
 90
        1
176
     1
 90
        6
176
     1
 90
        2
176
     1
 62
     7
176
     1
 90
        5
176
     1
 90
        0
176
     1
 90
        0
176
     1
290
     0
176
     1
 90
       13
176
     1
 40
0.0
176
     1
 90
        0
176
     1
290
     0
176
     1
290
     1
176
     1
290
     1
176
     1
290
     0
176
     1
290
     0
176
     1
290
     0
176
     1
290
     0
176
     1
290
     0
176
     1
290
     0
176
     1
 90
       50
176
     1
 40
0.0
176
     1
 40
1.0
176
     1
 90
        0
176
     1
 62
    18
420
        0
176
     1
 90
       50
176
     1
 90
        3
176
     1
 62
     5
420
      255
176
     1
290
     0
176
     1
 90
       50
176
     1
 90
       50
176
     1
 90
       50
176
     1
290
     0
176
     1
 90
       50
176
     1
 62
   256
176
     0
 40
1.0
176
     0
 90
        2
176
     1
  1
strokes_ogs.tif
176
     1
290
     0
176
     1
 40
1.0
176
     1
 40
1.0
176
     1
  0
VISUALSTYLE
  5
58B
102
{ACAD_REACTORS
330
589
102
}
330
589
100
AcDbVisualStyle
  2
FlatWithEdges
 70
     1
177
     3
291
     1
 70
    58
 90
        2
176
     1
 90
        1
176
     1
 90
        1
176
     1
 90
        2
176
     1
 40
0.6
176
     1
 40
30.0
176
     1
 62
     7
420
 16777215
176
     1
 90
        1
176
     1
 90
        0
176
     1
 62
     7
176
     1
 62
   257
176
     1
 90
        1
176
     1
 90
        1
176
     1
 40
1.0
176
     1
 90
        0
176
     1
 62
   257
176
     1
 40
1.0
176
     1
 90
        1
176
     1
 90
        6
176
     1
 90
        2
176
     1
 62
     7
176
     1
 90
        5
176
     1
 90
        0
176
     1
 90
        0
176
     1
290
     0
176
     1
 90
       13
176
     1
 40
0.0
176
     1
 90
        0
176
     1
290
     0
176
     1
290
     1
176
     1
290
     1
176
     1
290
     0
176
     1
290
     0
176
     1
290
     0
176
     1
290
     0
176
     1
290
     0
176
     1
290
     0
176
     1
 90
       50
176
     1
 40
0.0
176
     1
 40
1.0
176
     1
 90
        0
176
     1
 62
    18
420
        0
176
     1
 90
       50
176
     1
 90
        3
176
     1
 62
     5
420
      255
176
     1
290
     0
176
     1
 90
       50
176
     1
 90
       50
176
     1
 90
       50
176
     1
290
     0
176
     1
 90
       50
176
     1
 62
   256
176
     0
 40
1.0
176
     0
 90
        2
176
     1
  1
strokes_ogs.tif
176
     1
290
     0
176
     1
 40
1.0
176
     1
 40
1.0
176
     1
  0
VISUALSTYLE
  5
58C
102
{ACAD_REACTORS
330
589
102
}
330
589
100
AcDbVisualStyle
  2
Gouraud
 70
     2
177
     3
291
     1
 70
    58
 90
        2
176
     1
 90
        2
176
     1
 90
        1
176
     1
 90
        2
176
     1
 40
0.6
176
     1
 40
30.0
176
     1
 62
     7
420
 16777215
176
     1
 90
        0
176
     1
 90
        0
176
     1
 62
     7
176
     1
 62
   257
176
     1
 90
        1
176
     1
 90
        1
176
     1
 40
1.0
176
     1
 90
        0
176
     1
 62
     7
176
     1
 40
1.0
176
     1
 90
        1
176
     1
 90
        6
176
     1
 90
        2
176
     1
 62
     7
176
     1
 90
        5
176
     1
 90
        0
176
     1
 90
        0
176
     1
290
     0
176
     1
 90
       13
176
     1
 40
0.0
176
     1
 90
        0
176
     1
290
     0
176
     1
290
     1
176
     1
290
     1
176
     1
290
     0
176
     1
290
     0
176
     1
290
     0
176
     1
290
     0
176
     1
290
     0
176
     1
290
     0
176
     1
 90
       50
176
     1
 40
0.0
176
     1
 40
1.0
176
     1
 90
        0
176
     1
 62
    18
420
        0
176
     1
 90
       50
176
     1
 90
        3
176
     1
 62
     5
420
      255
176
     1
290
     0
176
     1
 90
       50
176
     1
 90
       50
176
     1
 90
       50
176
     1
290
     0
176
     1
 90
       50
176
     1
 62
   256
176
     0
 40
1.0
176
     0
 90
        2
176
     1
  1
strokes_ogs.tif
176
     1
290
     0
176
     1
 40
1.0
176
     1
 40
1.0
176
     1
  0
VISUALSTYLE
  5
58D
102
{ACAD_REACTORS
330
589
102
}
330
589
100
AcDbVisualStyle
  2
GouraudWithEdges
 70
     3
177
     3
291
     1
 70
    58
 90
        2
176
     1
 90
        2
176
     1
 90
        1
176
     1
 90
        2
176
     1
 40
0.6
176
     1
 40
30.0
176
     1
 62
     7
420
 16777215
176
     1
 90
        1
176
     1
 90
        0
176
     1
 62
     7
176
     1
 62
   257
176
     1
 90
        1
176
     1
 90
        1
176
     1
 40
1.0
176
     1
 90
        0
176
     1
 62
   257
176
     1
 40
1.0
176
     1
 90
        1
176
     1
 90
        6
176
     1
 90
        2
176
     1
 62
     7
176
     1
 90
        5
176
     1
 90
        0
176
     1
 90
        0
176
     1
290
     0
176
     1
 90
       13
176
     1
 40
0.0
176
     1
 90
        0
176
     1
290
     0
176
     1
290
     1
176
     1
290
     1
176
     1
290
     0
176
     1
290
     0
176
     1
290
     0
176
     1
290
     0
176
     1
290
     0
176
     1
290
     0
176
     1
 90
       50
176
     1
 40
0.0
176
     1
 40
1.0
176
     1
 90
        0
176
     1
 62
    18
420
        0
176
     1
 90
       50
176
     1
 90
        3
176
     1
 62
     5
420
      255
176
     1
290
     0
176
     1
 90
       50
176
     1
 90
       50
176
     1
 90
       50
176
     1
290
     0
176
     1
 90
       50
176
     1
 62
   256
176
     0
 40
1.0
176
     0
 90
        2
176
     1
  1
strokes_ogs.tif
176
     1
290
     0
176
     1
 40
1.0
176
     1
 40
1.0
176
     1
  0
VISUALSTYLE
  5
590
102
{ACAD_REACTORS
330
589
102
}
330
589
100
AcDbVisualStyle
  2
Hidden
 70
     6
177
     3
291
     0
 70
    58
 90
        1
176
     1
 90
        2
176
     1
 90
        2
176
     1
 90
        0
176
     1
 40
0.6
176
     1
 40
30.0
176
     1
 62
     7
420
 16777215
176
     1
 90
        2
176
     1
 90
        2
176
     1
 62
     7
176
     1
 62
   257
176
     1
 90
        2
176
     1
 90
        1
176
     1
 40
40.0
176
     1
 90
        0
176
     1
 62
   257
176
     1
 40
1.0
176
     1
 90
        1
176
     1
 90
        6
176
     1
 90
        2
176
     1
 62
     7
176
     1
 90
        3
176
     1
 90
        0
176
     1
 90
        0
176
     1
290
     0
176
     1
 90
        1
176
     1
 40
0.0
176
     1
 90
        0
176
     1
290
     0
176
     1
290
     1
176
     1
290
     1
176
     1
290
     0
176
     1
290
     0
176
     1
290
     0
176
     1
290
     0
176
     1
290
     0
176
     1
290
     0
176
     1
 90
       50
176
     1
 40
0.0
176
     1
 40
1.0
176
     1
 90
        0
176
     1
 62
    18
420
        0
176
     1
 90
       50
176
     1
 90
        3
176
     1
 62
     5
420
      255
176
     1
290
     0
176
     1
 90
       50
176
     1
 90
       50
176
     1
 90
       50
176
     1
290
     0
176
     1
 90
       50
176
     1
 62
   256
176
     0
 40
1.0
176
     0
 90
        2
176
     1
  1
strokes_ogs.tif
176
     1
290
     0
176
     1
 40
1.0
176
     1
 40
1.0
176
     1
  0
VISUALSTYLE
  5
59A
102
{ACAD_REACTORS
330
589
102
}
330
589
100
AcDbVisualStyle
  2
JitterOff
 70
    20
177
     3
291
     1
 70
    58
 90
        2
176
     0
 90
        2
176
     0
 90
        0
176
     0
 90
        0
176
     0
 40
0.6
176
     0
 40
30.0
176
     0
 62
     7
420
 16777215
176
     0
 90
        1
176
     0
 90
        4
176
     0
 62
     7
176
     0
 62
   257
176
     0
 90
        1
176
     0
 90
        1
176
     0
 40
1.0
176
     0
 90
       10
176
     2
 62
     7
176
     0
 40
1.0
176
     0
 90
        1
176
     0
 90
        6
176
     0
 90
        2
176
     0
 62
     7
176
     0
 90
        5
176
     0
 90
        0
176
     0
 90
        0
176
     0
290
     0
176
     0
 90
        1
176
     0
 40
0.0
176
     0
 90
        0
176
     0
290
     0
176
     0
290
     1
176
     0
290
     1
176
     0
290
     0
176
     0
290
     0
176
     0
290
     0
176
     0
290
     0
176
     0
290
     0
176
     0
290
     0
176
     0
 90
       50
176
     0
 40
0.0
176
     0
 40
1.0
176
     0
 90
        0
176
     0
 62
    18
420
        0
176
     0
 90
       50
176
     0
 90
        3
176
     0
 62
     5
420
      255
176
     0
290
     0
176
     0
 90
       50
176
     0
 90
       50
176
     0
 90
       50
176
     0
290
     0
176
     0
 90
       50
176
     0
 62
   256
176
     0
 40
1.0
176
     0
 90
        2
176
     0
  1
strokes_ogs.tif
176
     0
290
     0
176
     0
 40
1.0
176
     0
 40
1.0
176
     0
  0
VISUALSTYLE
  5
597
102
{ACAD_REACTORS
330
589
102
}
330
589
100
AcDbVisualStyle
  2
Linepattern
 70
    14
177
     3
291
     1
 70
    58
 90
        2
176
     1
 90
        2
176
     1
 90
        0
176
     1
 90
        0
176
     1
 40
0.6
176
     1
 40
30.0
176
     1
 62
     7
420
 16777215
176
     1
 90
        1
176
     1
 90
        4
176
     1
 62
     7
176
     1
 62
   257
176
     1
 90
        7
176
     1
 90
        7
176
     1
 40
1.0
176
     1
 90
        8
176
     1
 62
     7
176
     1
 40
1.0
176
     1
 90
        1
176
     1
 90
        6
176
     1
 90
        2
176
     1
 62
     7
176
     1
 90
        5
176
     1
 90
        0
176
     1
 90
        0
176
     1
290
     0
176
     1
 90
        1
176
     1
 40
0.0
176
     1
 90
        0
176
     1
290
     0
176
     1
290
     1
176
     1
290
     1
176
     1
290
     0
176
     1
290
     0
176
     1
290
     0
176
     1
290
     0
176
     1
290
     0
176
     1
290
     0
176
     1
 90
       50
176
     1
 40
0.0
176
     1
 40
1.0
176
     1
 90
        0
176
     1
 62
    18
420
        0
176
     1
 90
       50
176
     1
 90
        3
176
     1
 62
     5
420
      255
176
     1
290
     0
176
     1
 90
       50
176
     1
 90
       50
176
     1
 90
       50
176
     1
290
     0
176
     1
 90
       50
176
     1
 62
   256
176
     0
 40
1.0
176
     0
 90
        2
176
     1
  1
strokes_ogs.tif
176
     1
290
     0
176
     1
 40
1.0
176
     1
 40
1.0
176
     1
  0
VISUALSTYLE
  5
59B
102
{ACAD_REACTORS
330
589
102
}
330
589
100
AcDbVisualStyle
  2
OverhangOff
 70
    21
177
     3
291
     1
 70
    58
 90
        2
176
     0
 90
        2
176
     0
 90
        0
176
     0
 90
        0
176
     0
 40
0.6
176
     0
 40
30.0
176
     0
 62
     7
420
 16777215
176
     0
 90
        1
176
     0
 90
        4
176
     0
 62
     7
176
     0
 62
   257
176
     0
 90
        1
176
     0
 90
        1
176
     0
 40
1.0
176
     0
 90
        9
176
     2
 62
     7
176
     0
 40
1.0
176
     0
 90
        1
176
     0
 90
        6
176
     0
 90
        2
176
     0
 62
     7
176
     0
 90
        5
176
     0
 90
        0
176
     0
 90
        0
176
     0
290
     0
176
     0
 90
        1
176
     0
 40
0.0
176
     0
 90
        0
176
     0
290
     0
176
     0
290
     1
176
     0
290
     1
176
     0
290
     0
176
     0
290
     0
176
     0
290
     0
176
     0
290
     0
176
     0
290
     0
176
     0
290
     0
176
     0
 90
       50
176
     0
 40
0.0
176
     0
 40
1.0
176
     0
 90
        0
176
     0
 62
    18
420
        0
176
     0
 90
       50
176
     0
 90
        3
176
     0
 62
     5
420
      255
176
     0
290
     0
176
     0
 90
       50
176
     0
 90
       50
176
     0
 90
       50
176
     0
290
     0
176
     0
 90
       50
176
     0
 62
   256
176
     0
 40
1.0
176
     0
 90
        2
176
     0
  1
strokes_ogs.tif
176
     0
290
     0
176
     0
 40
1.0
176
     0
 40
1.0
176
     0
  0
VISUALSTYLE
  5
592
102
{ACAD_REACTORS
330
589
102
}
330
589
100
AcDbVisualStyle
  2
Realistic
 70
     8
177
     3
291
     0
 70
    58
 90
        2
176
     1
 90
        3
176
     1
 90
        0
176
     1
 90
        2
176
     1
 40
0.6
176
     1
 40
30.0
176
     1
 62
     7
420
 16777215
176
     1
 90
        0
176
     1
 90
        0
176
     1
 62
     7
176
     1
 62
   257
176
     1
 90
        1
176
     1
 90
        1
176
     1
 40
1.0
176
     1
 90
        8
176
     1
 62
   257
176
     1
 40
1.0
176
     1
 90
        1
176
     1
 90
        6
176
     1
 90
        2
176
     1
 62
     7
176
     1
 90
        3
176
     1
 90
        0
176
     1
 90
        0
176
     1
290
     0
176
     1
 90
       13
176
     1
 40
0.0
176
     1
 90
        0
176
     1
290
     0
176
     1
290
     1
176
     1
290
     1
176
     1
290
     0
176
     1
290
     0
176
     1
290
     0
176
     1
290
     0
176
     1
290
     0
176
     1
290
     0
176
     1
 90
       50
176
     1
 40
0.0
176
     1
 40
1.0
176
     1
 90
        0
176
     1
 62
    18
420
        0
176
     1
 90
       50
176
     1
 90
        3
176
     1
 62
     5
420
      255
176
     1
290
     0
176
     1
 90
       50
176
     1
 90
       50
176
     1
 90
       50
176
     1
290
     0
176
     1
 90
       50
176
     1
 62
   256
176
     0
 40
1.0
176
     0
 90
        2
176
     1
  1
strokes_ogs.tif
176
     1
290
     0
176
     1
 40
1.0
176
     1
 40
1.0
176
     1
  0
VISUALSTYLE
  5
5A1
102
{ACAD_REACTORS
330
589
102
}
330
589
100
AcDbVisualStyle
  2
Shaded
 70
    27
177
     3
291
     0
 70
    58
 90
        2
176
     1
 90
        2
176
     1
 90
        1
176
     1
 90
        2
176
     1
 40
0.6
176
     1
 40
30.0
176
     1
 62
     7
420
 16777215
176
     1
 90
        0
176
     1
 90
        4
176
     1
 62
     7
176
     1
 62
   257
176
     1
 90
        1
176
     1
 90
        1
176
     1
 40
1.0
176
     1
 90
        8
176
     1
 62
   257
176
     1
 40
1.0
176
     1
 90
        1
176
     1
 90
        6
176
     1
 90
        2
176
     1
 62
     8
420
  7895160
176
     1
 90
        3
176
     1
 90
        0
176
     1
 90
        0
176
     1
290
     0
176
     1
 90
        5
176
     1
 40
0.0
176
     1
 90
        0
176
     1
290
     0
176
     1
290
     1
176
     1
290
     1
176
     1
290
     0
176
     1
290
     0
176
     1
290
     0
176
     1
290
     0
176
     1
290
     0
176
     1
290
     0
176
     1
 90
       50
176
     1
 40
0.0
176
     1
 40
1.0
176
     1
 90
        0
176
     1
 62
    18
420
        0
176
     1
 90
       50
176
     1
 90
        3
176
     1
 62
     5
420
      255
176
     1
290
     0
176
     1
 90
       50
176
     1
 90
       50
176
     1
 90
       50
176
     1
290
     0
176
     1
 90
       50
176
     1
 62
   256
176
     0
 40
1.0
176
     0
 90
        2
176
     1
  1
strokes_ogs.tif
176
     1
290
     0
176
     1
 40
1.0
176
     1
 40
1.0
176
     1
  0
VISUALSTYLE
  5
5A0
102
{ACAD_REACTORS
330
589
102
}
330
589
100
AcDbVisualStyle
  2
Shaded with edges
 70
    26
177
     3
291
     0
 70
    58
 90
        2
176
     1
 90
        2
176
     1
 90
        1
176
     1
 90
        2
176
     1
 40
0.6
176
     1
 40
30.0
176
     1
 62
     7
420
 16777215
176
     1
 90
        1
176
     1
 90
       10
176
     1
 62
     7
176
     1
 62
   257
176
     1
 90
        2
176
     1
 90
        1
176
     1
 40
1.0
176
     1
 90
        8
176
     1
 62
   257
176
     1
 40
1.0
176
     1
 90
        1
176
     1
 90
        6
176
     1
 90
        2
176
     1
 62
     7
176
     1
 90
        3
176
     1
 90
        0
176
     1
 90
        0
176
     1
290
     0
176
     1
 90
        5
176
     1
 40
0.0
176
     1
 90
        0
176
     1
290
     0
176
     1
290
     1
176
     1
290
     1
176
     1
290
     0
176
     1
290
     0
176
     1
290
     0
176
     1
290
     0
176
     1
290
     0
176
     1
290
     0
176
     1
 90
       50
176
     1
 40
0.0
176
     1
 40
1.0
176
     1
 90
        0
176
     1
 62
    18
420
        0
176
     1
 90
       50
176
     1
 90
        3
176
     1
 62
     5
420
      255
176
     1
290
     0
176
     1
 90
       50
176
     1
 90
       50
176
     1
 90
       50
176
     1
290
     0
176
     1
 90
       50
176
     1
 62
   256
176
     0
 40
1.0
176
     0
 90
        2
176
     1
  1
strokes_ogs.tif
176
     1
290
     0
176
     1
 40
1.0
176
     1
 40
1.0
176
     1
  0
VISUALSTYLE
  5
59D
102
{ACAD_REACTORS
330
589
102
}
330
589
100
AcDbVisualStyle
  2
Shades of Gray
 70
    23
177
     3
291
     0
 70
    58
 90
        2
176
     1
 90
        2
176
     1
 90
        3
176
     1
 90
        0
176
     1
 40
0.6
176
     1
 40
30.0
176
     1
 62
     7
420
 16777215
176
     1
 90
        2
176
     1
 90
        2
176
     1
 62
     7
176
     1
 62
     7
176
     1
 90
        1
176
     1
 90
        1
176
     1
 40
40.0
176
     1
 90
        8
176
     1
 62
     7
176
     1
 40
1.0
176
     1
 90
        1
176
     1
 90
        6
176
     1
 90
        2
176
     1
 62
     7
176
     1
 90
        3
176
     1
 90
        0
176
     1
 90
        0
176
     1
290
     0
176
     1
 90
        1
176
     1
 40
0.0
176
     1
 90
        0
176
     1
290
     0
176
     1
290
     1
176
     1
290
     1
176
     1
290
     0
176
     1
290
     0
176
     1
290
     0
176
     1
290
     0
176
     1
290
     0
176
     1
290
     0
176
     1
 90
       50
176
     1
 40
0.0
176
     1
 40
1.0
176
     1
 90
        0
176
     1
 62
    18
420
        0
176
     1
 90
       50
176
     1
 90
        3
176
     1
 62
     5
420
      255
176
     1
290
     0
176
     1
 90
       50
176
     1
 90
       50
176
     1
 90
       50
176
     1
290
     0
176
     1
 90
       50
176
     1
 62
   256
176
     0
 40
1.0
176
     0
 90
        2
176
     1
  1
strokes_ogs.tif
176
     1
290
     0
176
     1
 40
1.0
176
     1
 40
1.0
176
     1
  0
VISUALSTYLE
  5
59E
102
{ACAD_REACTORS
330
589
102
}
330
589
100
AcDbVisualStyle
  2
Sketchy
 70
    24
177
     3
291
     0
 70
    58
 90
        1
176
     1
 90
        2
176
     1
 90
        2
176
     1
 90
        0
176
     1
 40
0.6
176
     1
 40
30.0
176
     1
 62
     7
420
 16777215
176
     1
 90
        2
176
     1
 90
        2
176
     1
 62
     7
176
     1
 62
     7
176
     1
 90
        1
176
     1
 90
        1
176
     1
 40
40.0
176
     1
 90
       11
176
     1
 62
     7
176
     1
 40
1.0
176
     1
 90
        1
176
     1
 90
        6
176
     1
 90
        2
176
     1
 62
     7
176
     1
 90
        6
176
     1
 90
        0
176
     1
 90
        0
176
     1
290
     0
176
     1
 90
        1
176
     1
 40
0.0
176
     1
 90
        0
176
     1
290
     0
176
     1
290
     1
176
     1
290
     1
176
     1
290
     0
176
     1
290
     0
176
     1
290
     0
176
     1
290
     0
176
     1
290
     0
176
     1
290
     0
176
     1
 90
       50
176
     1
 40
0.0
176
     1
 40
1.0
176
     1
 90
        0
176
     1
 62
    18
420
        0
176
     1
 90
       50
176
     1
 90
        3
176
     1
 62
     5
420
      255
176
     1
290
     0
176
     1
 90
       50
176
     1
 90
       50
176
     1
 90
       50
176
     1
290
     0
176
     1
 90
       50
176
     1
 62
   256
176
     0
 40
1.0
176
     0
 90
        2
176
     1
  1
strokes_ogs.tif
176
     1
290
     0
176
     1
 40
1.0
176
     1
 40
1.0
176
     1
  0
VISUALSTYLE
  5
596
102
{ACAD_REACTORS
330
589
102
}
330
589
100
AcDbVisualStyle
  2
Thicken
 70
    13
177
     3
291
     1
 70
    58
 90
        2
176
     1
 90
        2
176
     1
 90
        0
176
     1
 90
        0
176
     1
 40
0.6
176
     1
 40
30.0
176
     1
 62
     7
420
 16777215
176
     1
 90
        1
176
     1
 90
        4
176
     1
 62
     7
176
     1
 62
   257
176
     1
 90
        1
176
     1
 90
        1
176
     1
 40
1.0
176
     1
 90
       12
176
     1
 62
     7
176
     1
 40
1.0
176
     1
 90
        1
176
     1
 90
        6
176
     1
 90
        2
176
     1
 62
     7
176
     1
 90
        5
176
     1
 90
        0
176
     1
 90
        0
176
     1
290
     0
176
     1
 90
        1
176
     1
 40
0.0
176
     1
 90
        0
176
     1
290
     0
176
     1
290
     1
176
     1
290
     1
176
     1
290
     0
176
     1
290
     0
176
     1
290
     0
176
     1
290
     0
176
     1
290
     0
176
     1
290
     0
176
     1
 90
       50
176
     1
 40
0.0
176
     1
 40
1.0
176
     1
 90
        0
176
     1
 62
    18
420
        0
176
     1
 90
       50
176
     1
 90
        3
176
     1
 62
     5
420
      255
176
     1
290
     0
176
     1
 90
       50
176
     1
 90
       50
176
     1
 90
       50
176
     1
290
     0
176
     1
 90
       50
176
     1
 62
   256
176
     0
 40
1.0
176
     0
 90
        2
176
     1
  1
strokes_ogs.tif
176
     1
290
     0
176
     1
 40
1.0
176
     1
 40
1.0
176
     1
  0
VISUALSTYLE
  5
58F
102
{ACAD_REACTORS
330
589
102
}
330
589
100
AcDbVisualStyle
  2
Wireframe
 70
     5
177
     3
291
     0
 70
    58
 90
        0
176
     1
 90
        2
176
     1
 90
        0
176
     1
 90
        0
176
     1
 40
0.6
176
     1
 40
30.0
176
     1
 62
     7
420
 16777215
176
     1
 90
        1
176
     1
 90
        4
176
     1
 62
     7
176
     1
 62
   257
176
     1
 90
        1
176
     1
 90
        1
176
     1
 40
1.0
176
     1
 90
        0
176
     1
 62
   257
176
     1
 40
1.0
176
     1
 90
        1
176
     1
 90
        6
176
     1
 90
        2
176
     1
 62
     7
176
     1
 90
        3
176
     1
 90
        0
176
     1
 90
        0
176
     1
290
     0
176
     1
 90
        1
176
     1
 40
0.0
176
     1
 90
        0
176
     1
290
     0
176
     1
290
     1
176
     1
290
     1
176
     1
290
     0
176
     1
290
     0
176
     1
290
     0
176
     1
290
     0
176
     1
290
     0
176
     1
290
     0
176
     1
 90
       50
176
     1
 40
0.0
176
     1
 40
1.0
176
     1
 90
        0
176
     1
 62
    18
420
        0
176
     1
 90
       50
176
     1
 90
        3
176
     1
 62
     5
420
      255
176
     1
290
     0
176
     1
 90
       50
176
     1
 90
       50
176
     1
 90
       50
176
     1
290
     0
176
     1
 90
       50
176
     1
 62
   256
176
     0
 40
1.0
176
     0
 90
        2
176
     1
  1
strokes_ogs.tif
176
     1
290
     0
176
     1
 40
1.0
176
     1
 40
1.0
176
     1
  0
VISUALSTYLE
  5
59F
102
{ACAD_REACTORS
330
589
102
}
330
589
100
AcDbVisualStyle
  2
X-Ray
 70
    25
177
     3
291
     0
 70
    58
 90
        2
176
     1
 90
        2
176
     1
 90
        1
176
     1
 90
        1
176
     1
 40
0.5
176
     1
 40
30.0
176
     1
 62
     7
420
 16777215
176
     1
 90
        1
176
     1
 90
        0
176
     1
 62
     7
176
     1
 62
   257
176
     1
 90
        1
176
     1
 90
        1
176
     1
 40
1.0
176
     1
 90
        8
176
     1
 62
     7
176
     1
 40
1.0
176
     1
 90
        1
176
     1
 90
        6
176
     1
 90
        2
176
     1
 62
     7
176
     1
 90
        3
176
     1
 90
        0
176
     1
 90
        0
176
     1
290
     0
176
     1
 90
       13
176
     1
 40
0.0
176
     1
 90
        0
176
     1
290
     0
176
     1
290
     1
176
     1
290
     1
176
     1
290
     0
176
     1
290
     0
176
     1
290
     0
176
     1
290
     0
176
     1
290
     0
176
     1
290
     0
176
     1
 90
       50
176
     1
 40
0.0
176
     1
 40
1.0
176
     1
 90
        0
176
     1
 62
    18
420
        0
176
     1
 90
       50
176
     1
 90
        3
176
     1
 62
     5
420
      255
176
     1
290
     0
176
     1
 90
       50
176
     1
 90
       50
176
     1
 90
       50
176
     1
290
     0
176
     1
 90
       50
176
     1
 62
   256
176
     0
 40
1.0
176
     0
 90
        2
176
     1
  1
strokes_ogs.tif
176
     1
290
     0
176
     1
 40
1.0
176
     1
 40
1.0
176
     1
  0
DICTIONARYVAR
  5
5AC
102
{ACAD_REACTORS
330
5AB
102
}
330
5AB
100
DictionaryVariables
280
     0
  1
1:1
  0
DICTIONARYVAR
  5
5B1
102
{ACAD_REACTORS
330
5AB
102
}
330
5AB
100
DictionaryVariables
280
     0
  1
Standard
  0
DICTIONARYVAR
  5
5B0
102
{ACAD_REACTORS
330
5AB
102
}
330
5AB
100
DictionaryVariables
280
     0
  1
Standard
  0
DICTIONARYVAR
  5
5B2
102
{ACAD_REACTORS
330
5AB
102
}
330
5AB
100
DictionaryVariables
280
     0
  1
0
  0
DICTIONARY
  5
5AD
330
5A7
100
AcDbDictionary
280
     1
281
     1
  3
ACAD_ROUNDTRIP_2008_TABLESTYLE_CELLSTYLEMAP
360
5AE
  0
CELLSTYLEMAP
  5
5AE
102
{ACAD_REACTORS
330
5AD
102
}
330
5AD
100
AcDbCellStyleMap
 90
        3
300
CELLSTYLE
  1
TABLEFORMAT_BEGIN
 90
        5
170
     1
 91
        0
 92
    32768
 62
   257
 93
        1
300
CONTENTFORMAT
  1
CONTENTFORMAT_BEGIN
 90
        0
 91
        0
 92
        4
 93
        0
300

 40
0.0
140
1.0
 94
        5
 62
     0
340
11
144
6.0
309
CONTENTFORMAT_END
171
     1
301
MARGIN
  1
CELLMARGIN_BEGIN
 40
1.5
 40
1.5
 40
1.5
 40
1.5
 40
1.5
 40
1.5
309
CELLMARGIN_END
 94
        6
 95
        1
302
GRIDFORMAT
  1
GRIDFORMAT_BEGIN
 90
        0
 91
        1
 62
     0
 92
       -2
340
14
 93
        0
 40
0.045
309
GRIDFORMAT_END
 95
        2
302
GRIDFORMAT
  1
GRIDFORMAT_BEGIN
 90
        0
 91
        1
 62
     0
 92
       -2
340
14
 93
        0
 40
0.045
309
GRIDFORMAT_END
 95
        4
302
GRIDFORMAT
  1
GRIDFORMAT_BEGIN
 90
        0
 91
        1
 62
     0
 92
       -2
340
14
 93
        0
 40
0.045
309
GRIDFORMAT_END
 95
        8
302
GRIDFORMAT
  1
GRIDFORMAT_BEGIN
 90
        0
 91
        1
 62
     0
 92
       -2
340
14
 93
        0
 40
0.045
309
GRIDFORMAT_END
 95
       16
302
GRIDFORMAT
  1
GRIDFORMAT_BEGIN
 90
        0
 91
        1
 62
     0
 92
       -2
340
14
 93
        0
 40
0.045
309
GRIDFORMAT_END
 95
       32
302
GRIDFORMAT
  1
GRIDFORMAT_BEGIN
 90
        0
 91
        1
 62
     0
 92
       -2
340
14
 93
        0
 40
0.045
309
GRIDFORMAT_END
309
TABLEFORMAT_END
  1
CELLSTYLE_BEGIN
 90
        1
 91
        1
300
_TITLE
309
CELLSTYLE_END
300
CELLSTYLE
  1
TABLEFORMAT_BEGIN
 90
        5
170
     1
 91
        0
 92
        0
 62
   257
 93
        1
300
CONTENTFORMAT
  1
CONTENTFORMAT_BEGIN
 90
        0
 91
        0
 92
        4
 93
        0
300

 40
0.0
140
1.0
 94
        5
 62
     0
340
11
144
4.5
309
CONTENTFORMAT_END
171
     1
301
MARGIN
  1
CELLMARGIN_BEGIN
 40
1.5
 40
1.5
 40
1.5
 40
1.5
 40
1.5
 40
1.5
309
CELLMARGIN_END
 94
        6
 95
        1
302
GRIDFORMAT
  1
GRIDFORMAT_BEGIN
 90
        0
 91
        1
 62
     0
 92
       -2
340
14
 93
        0
 40
0.045
309
GRIDFORMAT_END
 95
        2
302
GRIDFORMAT
  1
GRIDFORMAT_BEGIN
 90
        0
 91
        1
 62
     0
 92
       -2
340
14
 93
        0
 40
0.045
309
GRIDFORMAT_END
 95
        4
302
GRIDFORMAT
  1
GRIDFORMAT_BEGIN
 90
        0
 91
        1
 62
     0
 92
       -2
340
14
 93
        0
 40
0.045
309
GRIDFORMAT_END
 95
        8
302
GRIDFORMAT
  1
GRIDFORMAT_BEGIN
 90
        0
 91
        1
 62
     0
 92
       -2
340
14
 93
        0
 40
0.045
309
GRIDFORMAT_END
 95
       16
302
GRIDFORMAT
  1
GRIDFORMAT_BEGIN
 90
        0
 91
        1
 62
     0
 92
       -2
340
14
 93
        0
 40
0.045
309
GRIDFORMAT_END
 95
       32
302
GRIDFORMAT
  1
GRIDFORMAT_BEGIN
 90
        0
 91
        1
 62
     0
 92
       -2
340
14
 93
        0
 40
0.045
309
GRIDFORMAT_END
309
TABLEFORMAT_END
  1
CELLSTYLE_BEGIN
 90
        2
 91
        1
300
_HEADER
309
CELLSTYLE_END
300
CELLSTYLE
  1
TABLEFORMAT_BEGIN
 90
        5
170
     1
 91
        0
 92
        0
 62
   257
 93
        1
300
CONTENTFORMAT
  1
CONTENTFORMAT_BEGIN
 90
        0
 91
        0
 92
        4
 93
        0
300

 40
0.0
140
1.0
 94
        2
 62
     0
340
11
144
4.5
309
CONTENTFORMAT_END
171
     1
301
MARGIN
  1
CELLMARGIN_BEGIN
 40
1.5
 40
1.5
 40
1.5
 40
1.5
 40
1.5
 40
1.5
309
CELLMARGIN_END
 94
        6
 95
        1
302
GRIDFORMAT
  1
GRIDFORMAT_BEGIN
 90
        0
 91
        1
 62
     0
 92
       -2
340
14
 93
        0
 40
0.045
309
GRIDFORMAT_END
 95
        2
302
GRIDFORMAT
  1
GRIDFORMAT_BEGIN
 90
        0
 91
        1
 62
     0
 92
       -2
340
14
 93
        0
 40
0.045
309
GRIDFORMAT_END
 95
        4
302
GRIDFORMAT
  1
GRIDFORMAT_BEGIN
 90
        0
 91
        1
 62
     0
 92
       -2
340
14
 93
        0
 40
0.045
309
GRIDFORMAT_END
 95
        8
302
GRIDFORMAT
  1
GRIDFORMAT_BEGIN
 90
        0
 91
        1
 62
     0
 92
       -2
340
14
 93
        0
 40
0.045
309
GRIDFORMAT_END
 95
       16
302
GRIDFORMAT
  1
GRIDFORMAT_BEGIN
 90
        0
 91
        1
 62
     0
 92
       -2
340
14
 93
        0
 40
0.045
309
GRIDFORMAT_END
 95
       32
302
GRIDFORMAT
  1
GRIDFORMAT_BEGIN
 90
        0
 91
        1
 62
     0
 92
       -2
340
14
 93
        0
 40
0.045
309
GRIDFORMAT_END
309
TABLEFORMAT_END
  1
CELLSTYLE_BEGIN
 90
        3
 91
        2
300
_DATA
309
CELLSTYLE_END
  0
ENDSEC
  0
EOF
