  0
SECTION
  2
HEADER
  9
$ACADVER
  1
AC1027
  9
$ACADMAINTVER
 70
   105
  9
$DWGCODEPAGE
  3
ANSI_1252
  9
$REQUIREDVERSIONS
160
                 0
  9
$LASTSAVEDBY
  1
andrea.zolin
  9
$INSBASE
 10
0.0
 20
0.0
 30
0.0
  9
$EXTMIN
 10
0.0
 20
0.0
 30
0.0
  9
$EXTMAX
 10
420.0
 20
297.0
 30
0.0
  9
$LIMMIN
 10
0.0
 20
0.0
  9
$LIMMAX
 10
420.0
 20
297.0
  9
$ORTHOMODE
 70
     0
  9
$REGENMODE
 70
     1
  9
$FILLMODE
 70
     1
  9
$QTEXTMODE
 70
     0
  9
$MIRRTEXT
 70
     1
  9
$LTSCALE
 40
23.1
  9
$ATTMODE
 70
     1
  9
$TEXTSIZE
 40
0.2
  9
$TRACEWID
 40
0.05
  9
$TEXTSTYLE
  7
STANDARD
  9
$CLAYER
  8
0
  9
$CELTYPE
  6
BYLAYER
  9
$CECOLOR
 62
   256
  9
$CELTSCALE
 40
1.0
  9
$DISPSILH
 70
     0
  9
$DIMSCALE
 40
1.0
  9
$DIMASZ
 40
2.5
  9
$DIMEXO
 40
0.75
  9
$DIMDLI
 40
15.96
  9
$DIMRND
 40
0.0
  9
$DIMDLE
 40
0.0
  9
$DIMEXE
 40
0.75
  9
$DIMTP
 40
0.01
  9
$DIMTM
 40
0.01
  9
$DIMTXT
 40
3.0
  9
$DIMCEN
 40
3.78
  9
$DIMTSZ
 40
0.0
  9
$DIMTOL
 70
     1
  9
$DIMLIM
 70
     0
  9
$DIMTIH
 70
     1
  9
$DIMTOH
 70
     1
  9
$DIMSE1
 70
     0
  9
$DIMSE2
 70
     0
  9
$DIMTAD
 70
     0
  9
$DIMZIN
 70
     0
  9
$DIMBLK
  1
CLOSED
  9
$DIMASO
 70
     1
  9
$DIMSHO
 70
     1
  9
$DIMPOST
  1

  9
$DIMAPOST
  1

  9
$DIMALT
 70
     0
  9
$DIMALTD
 70
     2
  9
$DIMALTF
 40
25.4
  9
$DIMLFAC
 40
1.0
  9
$DIMTOFL
 70
     0
  9
$DIMTVP
 40
0.0
  9
$DIMTIX
 70
     0
  9
$DIMSOXD
 70
     0
  9
$DIMSAH
 70
     0
  9
$DIMBLK1
  1

  9
$DIMBLK2
  1

  9
$DIMSTYLE
  2
STANDARD
  9
$DIMCLRD
 70
     0
  9
$DIMCLRE
 70
     0
  9
$DIMCLRT
 70
     0
  9
$DIMTFAC
 40
1.0
  9
$DIMGAP
 40
0.625
  9
$DIMJUST
 70
     0
  9
$DIMSD1
 70
     0
  9
$DIMSD2
 70
     0
  9
$DIMTOLJ
 70
     1
  9
$DIMTZIN
 70
     0
  9
$DIMALTZ
 70
     0
  9
$DIMALTTZ
 70
     0
  9
$DIMUPT
 70
     0
  9
$DIMDEC
 70
     4
  9
$DIMTDEC
 70
     4
  9
$DIMALTU
 70
     2
  9
$DIMALTTD
 70
     2
  9
$DIMTXSTY
  7
STANDARD
  9
$DIMAUNIT
 70
     0
  9
$DIMADEC
 70
     0
  9
$DIMALTRND
 40
0.0
  9
$DIMAZIN
 70
     0
  9
$DIMDSEP
 70
    46
  9
$DIMATFIT
 70
     3
  9
$DIMFRAC
 70
     0
  9
$DIMLDRBLK
  1

  9
$DIMLUNIT
 70
     2
  9
$DIMLWD
 70
    -2
  9
$DIMLWE
 70
    -2
  9
$DIMTMOVE
 70
     2
  9
$DIMFXL
 40
1.0
  9
$DIMFXLON
 70
     0
  9
$DIMJOGANG
 40
0.7853981633974483
  9
$DIMTFILL
 70
     0
  9
$DIMTFILLCLR
 70
     0
  9
$DIMARCSYM
 70
     0
  9
$DIMLTYPE
  6

  9
$DIMLTEX1
  6

  9
$DIMLTEX2
  6

  9
$DIMTXTDIRECTION
 70
     0
  9
$LUNITS
 70
     2
  9
$LUPREC
 70
     4
  9
$SKETCHINC
 40
0.1
  9
$FILLETRAD
 40
0.5
  9
$AUNITS
 70
     0
  9
$AUPREC
 70
     0
  9
$MENU
  1
.
  9
$ELEVATION
 40
0.0
  9
$PELEVATION
 40
0.0
  9
$THICKNESS
 40
0.0
  9
$LIMCHECK
 70
     0
  9
$CHAMFERA
 40
0.0
  9
$CHAMFERB
 40
0.0
  9
$CHAMFERC
 40
0.0
  9
$CHAMFERD
 40
0.0
  9
$SKPOLY
 70
     0
  9
$TDCREATE
 40
2447893.041666667
  9
$TDUCREATE
 40
0.0
  9
$TDUPDATE
 40
2458466.645644306
  9
$TDUUPDATE
 40
2458466.603977639
  9
$TDINDWG
 40
0.0001639468
  9
$TDUSRTIMER
 40
0.0001639468
  9
$USRTIMER
 70
     1
  9
$ANGBASE
 50
0.0
  9
$ANGDIR
 70
     0
  9
$PDMODE
 70
     3
  9
$PDSIZE
 40
0.3125
  9
$PLINEWID
 40
0.0
  9
$SPLFRAME
 70
     0
  9
$SPLINETYPE
 70
     6
  9
$SPLINESEGS
 70
     8
  9
$HANDSEED
  5
4AB
  9
$SURFTAB1
 70
     6
  9
$SURFTAB2
 70
     6
  9
$SURFTYPE
 70
     6
  9
$SURFU
 70
     6
  9
$SURFV
 70
     6
  9
$UCSBASE
  2

  9
$UCSNAME
  2

  9
$UCSORG
 10
0.0
 20
0.0
 30
0.0
  9
$UCSXDIR
 10
1.0
 20
0.0
 30
0.0
  9
$UCSYDIR
 10
0.0
 20
1.0
 30
0.0
  9
$UCSORTHOREF
  2

  9
$UCSORTHOVIEW
 70
     0
  9
$UCSORGTOP
 10
0.0
 20
0.0
 30
0.0
  9
$UCSORGBOTTOM
 10
0.0
 20
0.0
 30
0.0
  9
$UCSORGLEFT
 10
0.0
 20
0.0
 30
0.0
  9
$UCSORGRIGHT
 10
0.0
 20
0.0
 30
0.0
  9
$UCSORGFRONT
 10
0.0
 20
0.0
 30
0.0
  9
$UCSORGBACK
 10
0.0
 20
0.0
 30
0.0
  9
$PUCSBASE
  2

  9
$PUCSNAME
  2

  9
$PUCSORG
 10
0.0
 20
0.0
 30
0.0
  9
$PUCSXDIR
 10
1.0
 20
0.0
 30
0.0
  9
$PUCSYDIR
 10
0.0
 20
1.0
 30
0.0
  9
$PUCSORTHOREF
  2

  9
$PUCSORTHOVIEW
 70
     0
  9
$PUCSORGTOP
 10
0.0
 20
0.0
 30
0.0
  9
$PUCSORGBOTTOM
 10
0.0
 20
0.0
 30
0.0
  9
$PUCSORGLEFT
 10
0.0
 20
0.0
 30
0.0
  9
$PUCSORGRIGHT
 10
0.0
 20
0.0
 30
0.0
  9
$PUCSORGFRONT
 10
0.0
 20
0.0
 30
0.0
  9
$PUCSORGBACK
 10
0.0
 20
0.0
 30
0.0
  9
$USERI1
 70
     0
  9
$USERI2
 70
     0
  9
$USERI3
 70
     0
  9
$USERI4
 70
     0
  9
$USERI5
 70
     0
  9
$USERR1
 40
0.0
  9
$USERR2
 40
0.0
  9
$USERR3
 40
0.0
  9
$USERR4
 40
0.0
  9
$USERR5
 40
0.0
  9
$WORLDVIEW
 70
     1
  9
$SHADEDGE
 70
     3
  9
$SHADEDIF
 70
    70
  9
$TILEMODE
 70
     0
  9
$MAXACTVP
 70
    64
  9
$PINSBASE
 10
0.0
 20
0.0
 30
0.0
  9
$PLIMCHECK
 70
     0
  9
$PEXTMIN
 10
0.0
 20
0.0
 30
0.0
  9
$PEXTMAX
 10
420.0
 20
297.0
 30
0.0
  9
$PLIMMIN
 10
-8.667315175097276
 20
-23.11284046692607
  9
$PLIMMAX
 10
476.7023346303502
 20
320.1128404669261
  9
$UNITMODE
 70
     0
  9
$VISRETAIN
 70
     1
  9
$PLINEGEN
 70
     0
  9
$PSLTSCALE
 70
     1
  9
$TREEDEPTH
 70
  3020
  9
$CMLSTYLE
  2
STANDARD
  9
$CMLJUST
 70
     0
  9
$CMLSCALE
 40
1.0
  9
$PROXYGRAPHICS
 70
     1
  9
$MEASUREMENT
 70
     1
  9
$CELWEIGHT
370
    -1
  9
$ENDCAPS
280
     0
  9
$JOINSTYLE
280
     0
  9
$LWDISPLAY
290
     0
  9
$INSUNITS
 70
     0
  9
$HYPERLINKBASE
  1

  9
$STYLESHEET
  1

  9
$XEDIT
290
     1
  9
$CEPSNTYPE
380
     0
  9
$PSTYLEMODE
290
     1
  9
$FINGERPRINTGUID
  2
{49034BE2-765E-45AC-B5D5-32F7ED92F148}
  9
$VERSIONGUID
  2
{FAEB1C32-E019-11D5-929B-00C0DF256EC4}
  9
$EXTNAMES
290
     1
  9
$PSVPSCALE
 40
0.0
  9
$OLESTARTUP
290
     0
  9
$SORTENTS
280
   127
  9
$INDEXCTL
280
     0
  9
$HIDETEXT
280
     1
  9
$XCLIPFRAME
280
     2
  9
$HALOGAP
280
     0
  9
$OBSCOLOR
 70
   257
  9
$OBSLTYPE
280
     0
  9
$INTERSECTIONDISPLAY
280
     0
  9
$INTERSECTIONCOLOR
 70
   257
  9
$DIMASSOC
280
     2
  9
$PROJECTNAME
  1

  9
$CAMERADISPLAY
290
     0
  9
$LENSLENGTH
 40
50.0
  9
$CAMERAHEIGHT
 40
0.0
  9
$STEPSPERSEC
 40
2.0
  9
$STEPSIZE
 40
6.0
  9
$3DDWFPREC
 40
2.0
  9
$PSOLWIDTH
 40
0.25
  9
$PSOLHEIGHT
 40
4.0
  9
$LOFTANG1
 40
1.570796326794897
  9
$LOFTANG2
 40
1.570796326794897
  9
$LOFTMAG1
 40
0.0
  9
$LOFTMAG2
 40
0.0
  9
$LOFTPARAM
 70
     7
  9
$LOFTNORMALS
280
     1
  9
$LATITUDE
 40
37.795
  9
$LONGITUDE
 40
-122.394
  9
$NORTHDIRECTION
 40
0.0
  9
$TIMEZONE
 70
 -8000
  9
$LIGHTGLYPHDISPLAY
280
     1
  9
$TILEMODELIGHTSYNCH
280
     1
  9
$SOLIDHIST
280
     0
  9
$SHOWHIST
280
     1
  9
$DWFFRAME
280
     2
  9
$DGNFRAME
280
     2
  9
$REALWORLDSCALE
290
     1
  9
$INTERFERECOLOR
 62
   256
  9
$CSHADOW
280
     0
  9
$SHADOWPLANELOCATION
 40
0.0
  0
ENDSEC
  0
SECTION
  2
CLASSES
  0
CLASS
  1
ACDBDICTIONARYWDFLT
  2
AcDbDictionaryWithDefault
  3
ObjectDBX Classes
 90
        0
 91
        4
280
     0
281
     0
  0
CLASS
  1
SCALE
  2
AcDbScale
  3
ObjectDBX Classes
 90
     1153
 91
        4
280
     0
281
     0
  0
CLASS
  1
VISUALSTYLE
  2
AcDbVisualStyle
  3
ObjectDBX Classes
 90
     4095
 91
        4
280
     0
281
     0
  0
CLASS
  1
MATERIAL
  2
AcDbMaterial
  3
ObjectDBX Classes
 90
     1153
 91
        4
280
     0
281
     0
  0
CLASS
  1
TABLESTYLE
  2
AcDbTableStyle
  3
ObjectDBX Classes
 90
     4095
 91
        4
280
     0
281
     0
  0
CLASS
  1
MLEADERSTYLE
  2
AcDbMLeaderStyle
  3
ACDB_MLEADERSTYLE_CLASS
 90
     4095
 91
        4
280
     0
281
     0
  0
CLASS
  1
DICTIONARYVAR
  2
AcDbDictionaryVar
  3
ObjectDBX Classes
 90
        0
 91
        4
280
     0
281
     0
  0
CLASS
  1
CELLSTYLEMAP
  2
AcDbCellStyleMap
  3
ObjectDBX Classes
 90
     1152
 91
        4
280
     0
281
     0
  0
ENDSEC
  0
SECTION
  2
TABLES
  0
TABLE
  2
VPORT
  5
8
330
0
100
AcDbSymbolTable
 70
     1
  0
VPORT
  5
1F4
330
8
100
AcDbSymbolTableRecord
100
AcDbViewportTableRecord
  2
*ACTIVE
 70
     0
 10
0.0
 20
0.0
 11
1.0
 21
1.0
 12
210.0
 22
148.5
 13
0.0
 23
0.0
 14
1.0
 24
1.0
 15
0.0
 25
0.0
 16
0.0
 26
0.0
 36
1.0
 17
0.0
 27
0.0
 37
0.0
 40
297.0
 41
1.4141414141
 42
50.0
 43
0.0
 44
0.0
 50
0.0
 51
0.0
 71
     0
 72
   100
 73
     1
 74
     1
 75
     0
 76
     0
 77
     0
 78
     0
281
     0
 65
     1
110
0.0
120
0.0
130
0.0
111
1.0
121
0.0
131
0.0
112
0.0
122
1.0
132
0.0
 79
     0
146
0.0
348
484
 60
     3
 61
     5
292
     1
282
     1
141
0.0
142
0.0
 63
   256
  0
ENDTAB
  0
TABLE
  2
LTYPE
  5
5
330
0
100
AcDbSymbolTable
 70
     6
  0
LTYPE
  5
14
330
5
100
AcDbSymbolTableRecord
100
AcDbLinetypeTableRecord
  2
BYBLOCK
 70
     0
  3

 72
    65
 73
     0
 40
0.0
  0
LTYPE
  5
15
330
5
100
AcDbSymbolTableRecord
100
AcDbLinetypeTableRecord
  2
BYLAYER
 70
     0
  3

 72
    65
 73
     0
 40
0.0
  0
LTYPE
  5
16
330
5
100
AcDbSymbolTableRecord
100
AcDbLinetypeTableRecord
  2
CONTINUOUS
 70
     0
  3
Solid line
 72
    65
 73
     0
 40
0.0
  0
LTYPE
  5
1F5
330
5
100
AcDbSymbolTableRecord
100
AcDbLinetypeTableRecord
  2
CENTER
 70
     0
  3
____ _ ____ _ ____ _ ____ _ ____ _ ____ _ ____
 72
    65
 73
     4
 40
0.6
 49
0.375
 74
     0
 49
-0.075
 74
     0
 49
0.075
 74
     0
 49
-0.075
 74
     0
  0
LTYPE
  5
1F6
330
5
100
AcDbSymbolTableRecord
100
AcDbLinetypeTableRecord
  2
HIDDEN
 70
     0
  3
- - - - - - - - - - - - - - - - - - - -
 72
    65
 73
     2
 40
0.2
 49
0.1
 74
     0
 49
-0.1
 74
     0
  0
LTYPE
  5
1F7
330
5
100
AcDbSymbolTableRecord
100
AcDbLinetypeTableRecord
  2
PHANTOM
 70
     0
  3
_____ _ _ _____ _ _ _____ _ _ _____
 72
    65
 73
     6
 40
0.8
 49
0.45
 74
     0
 49
-0.05
 74
     0
 49
0.1
 74
     0
 49
-0.05
 74
     0
 49
0.1
 74
     0
 49
-0.05
 74
     0
  0
LTYPE
  5
1F8
330
5
100
AcDbSymbolTableRecord
100
AcDbLinetypeTableRecord
  2
DOT
 70
     0
  3
. . . . . . . . . . . . . . . . . . . .
 72
    65
 73
     2
 40
0.2
 49
0.1
 74
     0
 49
-0.1
 74
     0
  0
LTYPE
  5
1F9
330
5
100
AcDbSymbolTableRecord
100
AcDbLinetypeTableRecord
  2
DASHED
 70
     0
  3
- - - - - - - - - - - - - - - - - - - -
 72
    65
 73
     2
 40
0.2
 49
0.1
 74
     0
 49
-0.1
 74
     0
  0
ENDTAB
  0
TABLE
  2
LAYER
  5
2
330
0
100
AcDbSymbolTable
 70
    36
  0
LAYER
  5
10
330
2
100
AcDbSymbolTableRecord
100
AcDbLayerTableRecord
  2
0
 70
     0
 62
     7
  6
CONTINUOUS
370
    -3
390
459
347
49B
348
0
  0
LAYER
  5
1FA
330
2
100
AcDbSymbolTableRecord
100
AcDbLayerTableRecord
  2
DEFAULT_1
 70
     0
 62
     7
  6
CENTER
370
    -3
390
459
347
49B
348
0
  0
LAYER
  5
1FB
330
2
100
AcDbSymbolTableRecord
100
AcDbLayerTableRecord
  2
DEFAULT_2
 70
     0
 62
     8
  6
HIDDEN
370
    -3
390
459
347
49B
348
0
  0
LAYER
  5
1FC
330
2
100
AcDbSymbolTableRecord
100
AcDbLayerTableRecord
  2
DEFAULT_3
 70
     0
 62
     7
  6
PHANTOM
370
    -3
390
459
347
49B
348
0
  0
LAYER
  5
1FD
330
2
100
AcDbSymbolTableRecord
100
AcDbLayerTableRecord
  2
01_ALL_DTM_PLN
 70
     0
 62
     7
  6
CONTINUOUS
370
    -3
390
459
347
49B
348
0
  0
LAYER
  5
1FE
330
2
100
AcDbSymbolTableRecord
100
AcDbLayerTableRecord
  2
01__ASM_ALL_DTM_PLN
 70
     0
 62
     7
  6
CONTINUOUS
370
    -3
390
459
347
49B
348
0
  0
LAYER
  5
1FF
330
2
100
AcDbSymbolTableRecord
100
AcDbLayerTableRecord
  2
01__ASM_DEF_DTM_PLN
 70
     0
 62
     7
  6
CONTINUOUS
370
    -3
390
459
347
49B
348
0
  0
LAYER
  5
200
330
2
100
AcDbSymbolTableRecord
100
AcDbLayerTableRecord
  2
01___PRT_ALL_DTM_PLN
 70
     0
 62
     7
  6
CONTINUOUS
370
    -3
390
459
347
49B
348
0
  0
LAYER
  5
201
330
2
100
AcDbSymbolTableRecord
100
AcDbLayerTableRecord
  2
01___PRT_DEF_DTM_PLN
 70
     0
 62
     7
  6
CONTINUOUS
370
    -3
390
459
347
49B
348
0
  0
LAYER
  5
202
330
2
100
AcDbSymbolTableRecord
100
AcDbLayerTableRecord
  2
02_ALL_AXES
 70
     0
 62
     7
  6
CONTINUOUS
370
    -3
390
459
347
49B
348
0
  0
LAYER
  5
203
330
2
100
AcDbSymbolTableRecord
100
AcDbLayerTableRecord
  2
02__ASM_ALL_AXES
 70
     0
 62
     7
  6
CONTINUOUS
370
    -3
390
459
347
49B
348
0
  0
LAYER
  5
204
330
2
100
AcDbSymbolTableRecord
100
AcDbLayerTableRecord
  2
02___PRT_ALL_AXES
 70
     0
 62
     7
  6
CONTINUOUS
370
    -3
390
459
347
49B
348
0
  0
LAYER
  5
205
330
2
100
AcDbSymbolTableRecord
100
AcDbLayerTableRecord
  2
03_ALL_CURVES
 70
     0
 62
     7
  6
CONTINUOUS
370
    -3
390
459
347
49B
348
0
  0
LAYER
  5
206
330
2
100
AcDbSymbolTableRecord
100
AcDbLayerTableRecord
  2
03__ASM_ALL_CURVES
 70
     0
 62
     7
  6
CONTINUOUS
370
    -3
390
459
347
49B
348
0
  0
LAYER
  5
207
330
2
100
AcDbSymbolTableRecord
100
AcDbLayerTableRecord
  2
03___PRT_ALL_CURVES
 70
     0
 62
     7
  6
CONTINUOUS
370
    -3
390
459
347
49B
348
0
  0
LAYER
  5
208
330
2
100
AcDbSymbolTableRecord
100
AcDbLayerTableRecord
  2
04_ALL_DTM_PNT
 70
     0
 62
     7
  6
CONTINUOUS
370
    -3
390
459
347
49B
348
0
  0
LAYER
  5
209
330
2
100
AcDbSymbolTableRecord
100
AcDbLayerTableRecord
  2
04__ASM_ALL_DTM_PNT
 70
     0
 62
     7
  6
CONTINUOUS
370
    -3
390
459
347
49B
348
0
  0
LAYER
  5
20A
330
2
100
AcDbSymbolTableRecord
100
AcDbLayerTableRecord
  2
04___PRT_ALL_DTM_PNT
 70
     0
 62
     7
  6
CONTINUOUS
370
    -3
390
459
347
49B
348
0
  0
LAYER
  5
20B
330
2
100
AcDbSymbolTableRecord
100
AcDbLayerTableRecord
  2
05_ALL_DTM_CSYS
 70
     0
 62
     7
  6
CONTINUOUS
370
    -3
390
459
347
49B
348
0
  0
LAYER
  5
20C
330
2
100
AcDbSymbolTableRecord
100
AcDbLayerTableRecord
  2
05__ASM_ALL_DTM_CSYS
 70
     0
 62
     7
  6
CONTINUOUS
370
    -3
390
459
347
49B
348
0
  0
LAYER
  5
20D
330
2
100
AcDbSymbolTableRecord
100
AcDbLayerTableRecord
  2
05__ASM_DEF_DTM_CSYS
 70
     0
 62
     7
  6
CONTINUOUS
370
    -3
390
459
347
49B
348
0
  0
LAYER
  5
20E
330
2
100
AcDbSymbolTableRecord
100
AcDbLayerTableRecord
  2
05___PRT_ALL_DTM_CSYS
 70
     0
 62
     7
  6
CONTINUOUS
370
    -3
390
459
347
49B
348
0
  0
LAYER
  5
20F
330
2
100
AcDbSymbolTableRecord
100
AcDbLayerTableRecord
  2
05___PRT_DEF_DTM_CSYS
 70
     0
 62
     7
  6
CONTINUOUS
370
    -3
390
459
347
49B
348
0
  0
LAYER
  5
210
330
2
100
AcDbSymbolTableRecord
100
AcDbLayerTableRecord
  2
06_ALL_SURFS
 70
     0
 62
     7
  6
CONTINUOUS
370
    -3
390
459
347
49B
348
0
  0
LAYER
  5
211
330
2
100
AcDbSymbolTableRecord
100
AcDbLayerTableRecord
  2
06__ASM_ALL_SURFS
 70
     0
 62
     7
  6
CONTINUOUS
370
    -3
390
459
347
49B
348
0
  0
LAYER
  5
212
330
2
100
AcDbSymbolTableRecord
100
AcDbLayerTableRecord
  2
06___PRT_ALL_SURFS
 70
     0
 62
     7
  6
CONTINUOUS
370
    -3
390
459
347
49B
348
0
  0
LAYER
  5
213
330
2
100
AcDbSymbolTableRecord
100
AcDbLayerTableRecord
  2
07__ASM_ALL_SKELETONS
 70
     0
 62
     7
  6
CONTINUOUS
370
    -3
390
459
347
49B
348
0
  0
LAYER
  5
214
330
2
100
AcDbSymbolTableRecord
100
AcDbLayerTableRecord
  2
1_ALL_PLANES
 70
     0
 62
     7
  6
CONTINUOUS
370
    -3
390
459
347
49B
348
0
  0
LAYER
  5
215
330
2
100
AcDbSymbolTableRecord
100
AcDbLayerTableRecord
  2
2_ALL_CSYS
 70
     0
 62
     7
  6
CONTINUOUS
370
    -3
390
459
347
49B
348
0
  0
LAYER
  5
216
330
2
100
AcDbSymbolTableRecord
100
AcDbLayerTableRecord
  2
3_ALL_AXES
 70
     0
 62
     7
  6
CONTINUOUS
370
    -3
390
459
347
49B
348
0
  0
LAYER
  5
217
330
2
100
AcDbSymbolTableRecord
100
AcDbLayerTableRecord
  2
4_ALL_POINTS
 70
     0
 62
     7
  6
CONTINUOUS
370
    -3
390
459
347
49B
348
0
  0
LAYER
  5
218
330
2
100
AcDbSymbolTableRecord
100
AcDbLayerTableRecord
  2
5_ALL_CURVES
 70
     0
 62
     7
  6
CONTINUOUS
370
    -3
390
459
347
49B
348
0
  0
LAYER
  5
219
330
2
100
AcDbSymbolTableRecord
100
AcDbLayerTableRecord
  2
6_ALL_SURFS
 70
     0
 62
     7
  6
CONTINUOUS
370
    -3
390
459
347
49B
348
0
  0
LAYER
  5
21A
330
2
100
AcDbSymbolTableRecord
100
AcDbLayerTableRecord
  2
7_ALL_FEATURES
 70
     0
 62
     7
  6
CONTINUOUS
370
    -3
390
459
347
49B
348
0
  0
LAYER
  5
21B
330
2
100
AcDbSymbolTableRecord
100
AcDbLayerTableRecord
  2
8_ALL_NOTES_BALLOONS_SYMBOLS_GT
 70
     0
 62
     7
  6
CONTINUOUS
370
    -3
390
459
347
49B
348
0
  0
LAYER
  5
21C
330
2
100
AcDbSymbolTableRecord
100
AcDbLayerTableRecord
  2
9_SOLID
 70
     0
 62
     7
  6
CONTINUOUS
370
    -3
390
459
347
49B
348
0
  0
ENDTAB
  0
TABLE
  2
STYLE
  5
3
330
0
100
AcDbSymbolTable
 70
     5
  0
STYLE
  5
11
330
3
100
AcDbSymbolTableRecord
100
AcDbTextStyleTableRecord
  2
STANDARD
 70
     0
 40
0.0
 41
0.85
 50
0.0
 71
     0
 42
0.2
  3
txt
  4

  0
STYLE
  5
21D
330
3
100
AcDbSymbolTableRecord
100
AcDbTextStyleTableRecord
  2
TEXTSTYLE_1
 70
     0
 40
0.0
 41
0.8
 50
0.0
 71
     0
 42
0.2
  3
gdt
  4

  0
STYLE
  5
21E
330
3
100
AcDbSymbolTableRecord
100
AcDbTextStyleTableRecord
  2
TEXTSTYLE_2
 70
     0
 40
0.0
 41
0.9
 50
0.0
 71
     0
 42
0.2
  3
txt
  4

  0
STYLE
  5
21F
330
3
100
AcDbSymbolTableRecord
100
AcDbTextStyleTableRecord
  2
TEXTSTYLE_3
 70
     0
 40
0.0
 41
0.9
 50
0.0
 71
     0
 42
0.2
  3
txt
  4

  0
STYLE
  5
220
330
3
100
AcDbSymbolTableRecord
100
AcDbTextStyleTableRecord
  2
TEXTSTYLE_4
 70
     0
 40
0.0
 41
2.0
 50
0.0
 71
     0
 42
0.2
  3
txt
  4

  0
ENDTAB
  0
TABLE
  2
VIEW
  5
6
330
0
100
AcDbSymbolTable
 70
     0
  0
ENDTAB
  0
TABLE
  2
UCS
  5
7
330
0
100
AcDbSymbolTable
 70
     0
  0
ENDTAB
  0
TABLE
  2
APPID
  5
9
330
0
100
AcDbSymbolTable
 70
     1
  0
APPID
  5
221
330
9
100
AcDbSymbolTableRecord
100
AcDbRegAppTableRecord
  2
ACAD
 70
     0
  0
ENDTAB
  0
TABLE
  2
DIMSTYLE
  5
A
330
0
100
AcDbSymbolTable
 70
     5
100
AcDbDimStyleTable
  0
DIMSTYLE
105
22C
330
A
100
AcDbSymbolTableRecord
100
AcDbDimStyleTableRecord
  2
STANDARD
 70
     0
 41
2.5
 42
0.75
 44
0.75
 47
0.01
 48
0.01
 71
     1
 73
     0
 74
     0
 77
     1
 78
     8
 79
     2
140
3.0
147
0.625
171
     1
178
     0
179
     2
271
     2
272
     2
284
     8
340
11
341
222
342
222
343
222
344
222
  0
DIMSTYLE
105
22D
330
A
100
AcDbSymbolTableRecord
100
AcDbDimStyleTableRecord
  2
DIMSTYLE_1
 70
     0
 41
2.5
 42
0.75
 44
0.75
 47
0.3
 48
0.3
 73
     0
 74
     0
 77
     1
 78
     8
 79
     2
140
3.0
147
0.75
171
     1
178
     0
179
     2
271
     2
272
     2
284
     8
340
11
341
222
342
222
343
222
344
222
  0
DIMSTYLE
105
22E
330
A
100
AcDbSymbolTableRecord
100
AcDbDimStyleTableRecord
  2
DIMSTYLE_2
 70
     0
 41
2.5
 42
0.75
 44
0.75
 47
0.5
 48
0.5
 73
     0
 74
     0
 77
     1
 78
     8
 79
     2
140
3.0
147
0.75
171
     1
178
     0
179
     2
271
     2
272
     2
284
     8
340
11
341
222
342
222
343
222
344
222
  0
DIMSTYLE
105
22F
330
A
100
AcDbSymbolTableRecord
100
AcDbDimStyleTableRecord
  2
DIMSTYLE_3
 70
     0
 41
2.5
 42
0.75
 44
0.75
 47
0.1
 48
0.1
 73
     0
 74
     0
 77
     1
 78
     8
 79
     2
140
3.0
147
0.75
171
     1
178
     0
179
     2
271
     2
272
     2
284
     8
340
11
341
222
342
222
343
222
344
222
  0
DIMSTYLE
105
230
330
A
100
AcDbSymbolTableRecord
100
AcDbDimStyleTableRecord
  2
DIMSTYLE_4
 70
     0
 41
2.5
 42
0.75
 44
0.75
 47
0.2
 48
0.2
 73
     0
 74
     0
 77
     1
 78
     8
 79
     2
140
3.0
147
0.75
171
     1
178
     0
179
     2
271
     2
272
     2
284
     8
340
11
341
222
342
222
343
222
344
222
  0
ENDTAB
  0
TABLE
  2
BLOCK_RECORD
  5
1
330
0
100
AcDbSymbolTable
 70
    10
  0
BLOCK_RECORD
  5
1F
330
1
100
AcDbSymbolTableRecord
100
AcDbBlockTableRecord
  2
*MODEL_SPACE
340
47D
 70
     0
280
     1
281
     0
  0
BLOCK_RECORD
  5
1B
330
1
100
AcDbSymbolTableRecord
100
AcDbBlockTableRecord
  2
*PAPER_SPACE
340
47E
 70
     0
280
     1
281
     0
  0
BLOCK_RECORD
  5
222
330
1
100
AcDbSymbolTableRecord
100
AcDbBlockTableRecord
  2
_CLOSED
340
0
102
{BLKREFS
331
283
331
284
331
28C
331
28D
331
295
331
296
331
29E
331
29F
331
2A9
331
2AA
331
2B2
331
2B3
331
2BB
331
2BC
102
}
 70
     0
280
     1
281
     0
  0
BLOCK_RECORD
  5
223
330
1
100
AcDbSymbolTableRecord
100
AcDbBlockTableRecord
  2
*D1
340
0
 70
     0
280
     1
281
     0
  0
BLOCK_RECORD
  5
224
330
1
100
AcDbSymbolTableRecord
100
AcDbBlockTableRecord
  2
*D2
340
0
 70
     0
280
     1
281
     0
  0
BLOCK_RECORD
  5
225
330
1
100
AcDbSymbolTableRecord
100
AcDbBlockTableRecord
  2
*D3
340
0
 70
     0
280
     1
281
     0
  0
BLOCK_RECORD
  5
226
330
1
100
AcDbSymbolTableRecord
100
AcDbBlockTableRecord
  2
*D4
340
0
 70
     0
280
     1
281
     0
  0
BLOCK_RECORD
  5
227
330
1
100
AcDbSymbolTableRecord
100
AcDbBlockTableRecord
  2
*D5
340
0
 70
     0
280
     1
281
     0
  0
BLOCK_RECORD
  5
228
330
1
100
AcDbSymbolTableRecord
100
AcDbBlockTableRecord
  2
*D6
340
0
 70
     0
280
     1
281
     0
  0
BLOCK_RECORD
  5
229
330
1
100
AcDbSymbolTableRecord
100
AcDbBlockTableRecord
  2
*D7
340
0
 70
     0
280
     1
281
     0
  0
BLOCK_RECORD
  5
22A
330
1
100
AcDbSymbolTableRecord
100
AcDbBlockTableRecord
  2
LOGO2_BL1
340
0
102
{BLKREFS
331
441
102
}
 70
     0
280
     1
281
     0
  0
BLOCK_RECORD
  5
22B
330
1
100
AcDbSymbolTableRecord
100
AcDbBlockTableRecord
  2
PROIEZIONE_EU_BL0
340
0
102
{BLKREFS
331
43E
102
}
 70
     0
280
     1
281
     0
  0
ENDTAB
  0
ENDSEC
  0
SECTION
  2
BLOCKS
  0
BLOCK
  5
20
330
1F
100
AcDbEntity
  8
0
100
AcDbBlockBegin
  2
*MODEL_SPACE
 70
     0
 10
0.0
 20
0.0
 30
0.0
  3
*MODEL_SPACE
  1

  0
ENDBLK
  5
21
330
1F
100
AcDbEntity
  8
0
100
AcDbBlockEnd
  0
BLOCK
  5
1C
330
1B
100
AcDbEntity
 67
     1
  8
0
100
AcDbBlockBegin
  2
*PAPER_SPACE
 70
     0
 10
0.0
 20
0.0
 30
0.0
  3
*PAPER_SPACE
  1

  0
ENDBLK
  5
1D
330
1B
100
AcDbEntity
 67
     1
  8
0
100
AcDbBlockEnd
  0
BLOCK
  5
277
330
222
100
AcDbEntity
  8
0
100
AcDbBlockBegin
  2
_CLOSED
 70
     0
 10
0.0
 20
0.0
 30
0.0
  3
_CLOSED
  1

  0
LINE
  5
278
330
222
100
AcDbEntity
  8
0
  6
ByBlock
 62
     0
100
AcDbLine
 10
0.0
 20
0.0
 30
0.0
 11
-1.0
 21
0.2
 31
0.0
  0
LINE
  5
279
330
222
100
AcDbEntity
  8
0
  6
ByBlock
 62
     0
100
AcDbLine
 10
-1.0
 20
0.2
 30
0.0
 11
-1.0
 21
-0.2
 31
0.0
  0
LINE
  5
27A
330
222
100
AcDbEntity
  8
0
  6
ByBlock
 62
     0
100
AcDbLine
 10
-1.0
 20
-0.2
 30
0.0
 11
0.0
 21
0.0
 31
0.0
  0
LINE
  5
27B
330
222
100
AcDbEntity
  8
0
  6
ByBlock
 62
     0
100
AcDbLine
 10
-1.0
 20
0.0
 30
0.0
 11
0.0
 21
0.0
 31
0.0
  0
ENDBLK
  5
27C
330
222
100
AcDbEntity
  8
0
  6
ByBlock
 62
     0
100
AcDbBlockEnd
  0
BLOCK
  5
27D
330
223
100
AcDbEntity
  8
0
100
AcDbBlockBegin
  2
*D1
 70
     1
 10
0.0
 20
0.0
 30
0.0
  3
*D1
  1

  0
MTEXT
  5
27E
330
223
100
AcDbEntity
  8
0
  6
Continuous
 62
     2
100
AcDbMText
 10
232.3891469595
 20
97.019847973
 30
0.0
 40
3.0
 41
7.0714285714
 46
0.0
 71
     2
 72
     1
  1
92
 11
0.0
 21
1.0
 31
0.0
 73
     1
 44
1.0
  0
LINE
  5
27F
330
223
100
AcDbEntity
  8
0
  6
Continuous
 62
     2
100
AcDbLine
 10
204.2409206081
 20
143.019847973
 30
0.0
 11
236.8891469595
 21
143.019847973
 31
0.0
  0
LINE
  5
280
330
223
100
AcDbEntity
  8
0
  6
Continuous
 62
     2
100
AcDbLine
 10
204.2409206081
 20
51.019847973
 30
0.0
 11
236.8891469595
 21
51.019847973
 31
0.0
  0
LINE
  5
281
330
223
100
AcDbEntity
  8
0
  6
Continuous
 62
     2
100
AcDbLine
 10
236.1391469595
 20
143.019847973
 30
0.0
 11
236.1391469595
 21
97.019847973
 31
0.0
  0
LINE
  5
282
330
223
100
AcDbEntity
  8
0
  6
Continuous
 62
     2
100
AcDbLine
 10
236.1391469595
 20
51.019847973
 30
0.0
 11
236.1391469595
 21
97.019847973
 31
0.0
  0
INSERT
  5
283
330
223
100
AcDbEntity
  8
0
  6
Continuous
 62
     2
100
AcDbBlockReference
  2
_CLOSED
 10
236.1391469595
 20
143.019847973
 30
0.0
 41
2.5
 42
2.5
 43
2.5
 50
90.0
  0
INSERT
  5
284
330
223
100
AcDbEntity
  8
0
  6
Continuous
 62
     2
100
AcDbBlockReference
  2
_CLOSED
 10
236.1391469595
 20
51.019847973
 30
0.0
 41
2.5
 42
2.5
 43
2.5
 50
270.0
  0
ENDBLK
  5
285
330
223
100
AcDbEntity
  8
0
  6
ByBlock
 62
     0
100
AcDbBlockEnd
  0
BLOCK
  5
286
330
224
100
AcDbEntity
  8
0
100
AcDbBlockBegin
  2
*D2
 70
     1
 10
0.0
 20
0.0
 30
0.0
  3
*D2
  1

  0
MTEXT
  5
287
330
224
100
AcDbEntity
  8
0
  6
Continuous
 62
     2
100
AcDbMText
 10
127.9909206081
 20
32.5287162162
 30
0.0
 40
3.0
 41
8.6785714286
 46
0.0
 71
     2
 72
     1
  1
161
 73
     1
 44
1.0
  0
LINE
  5
288
330
224
100
AcDbEntity
  8
0
  6
Continuous
 62
     2
100
AcDbLine
 10
208.4909206081
 20
55.269847973
 30
0.0
 11
208.4909206081
 21
28.0287162162
 31
0.0
  0
LINE
  5
289
330
224
100
AcDbEntity
  8
0
  6
Continuous
 62
     2
100
AcDbLine
 10
47.4909206081
 20
55.269847973
 30
0.0
 11
47.4909206081
 21
28.0287162162
 31
0.0
  0
LINE
  5
28A
330
224
100
AcDbEntity
  8
0
  6
Continuous
 62
     2
100
AcDbLine
 10
208.4909206081
 20
28.7787162162
 30
0.0
 11
127.9909206081
 21
28.7787162162
 31
0.0
  0
LINE
  5
28B
330
224
100
AcDbEntity
  8
0
  6
Continuous
 62
     2
100
AcDbLine
 10
47.4909206081
 20
28.7787162162
 30
0.0
 11
127.9909206081
 21
28.7787162162
 31
0.0
  0
INSERT
  5
28C
330
224
100
AcDbEntity
  8
0
  6
Continuous
 62
     2
100
AcDbBlockReference
  2
_CLOSED
 10
208.4909206081
 20
28.7787162162
 30
0.0
 41
2.5
 42
2.5
 43
2.5
  0
INSERT
  5
28D
330
224
100
AcDbEntity
  8
0
  6
Continuous
 62
     2
100
AcDbBlockReference
  2
_CLOSED
 10
47.4909206081
 20
28.7787162162
 30
0.0
 41
2.5
 42
2.5
 43
2.5
 50
180.0
  0
ENDBLK
  5
28E
330
224
100
AcDbEntity
  8
0
  6
ByBlock
 62
     0
100
AcDbBlockEnd
  0
BLOCK
  5
28F
330
225
100
AcDbEntity
  8
0
100
AcDbBlockBegin
  2
*D3
 70
     1
 10
0.0
 20
0.0
 30
0.0
  3
*D3
  1

  0
MTEXT
  5
290
330
225
100
AcDbEntity
  8
0
  6
Continuous
 62
     2
100
AcDbMText
 10
218.0407373311
 20
214.9771959459
 30
0.0
 40
3.0
 41
7.0714285714
 46
0.0
 71
     2
 72
     1
  1
40
 11
0.0
 21
1.0
 31
0.0
 73
     1
 44
1.0
  0
LINE
  5
291
330
225
100
AcDbEntity
  8
0
  6
Continuous
 62
     2
100
AcDbLine
 10
212.4479476352
 20
194.9771959459
 30
0.0
 11
222.5407373311
 21
194.9771959459
 31
0.0
  0
LINE
  5
292
330
225
100
AcDbEntity
  8
0
  6
Continuous
 62
     2
100
AcDbLine
 10
213.2091157095
 20
234.9771959459
 30
0.0
 11
222.5407373311
 21
234.9771959459
 31
0.0
  0
LINE
  5
293
330
225
100
AcDbEntity
  8
0
  6
Continuous
 62
     2
100
AcDbLine
 10
221.7907373311
 20
194.9771959459
 30
0.0
 11
221.7907373311
 21
214.9771959459
 31
0.0
  0
LINE
  5
294
330
225
100
AcDbEntity
  8
0
  6
Continuous
 62
     2
100
AcDbLine
 10
221.7907373311
 20
234.9771959459
 30
0.0
 11
221.7907373311
 21
214.9771959459
 31
0.0
  0
INSERT
  5
295
330
225
100
AcDbEntity
  8
0
  6
Continuous
 62
     2
100
AcDbBlockReference
  2
_CLOSED
 10
221.7907373311
 20
194.9771959459
 30
0.0
 41
2.5
 42
2.5
 43
2.5
 50
270.0
  0
INSERT
  5
296
330
225
100
AcDbEntity
  8
0
  6
Continuous
 62
     2
100
AcDbBlockReference
  2
_CLOSED
 10
221.7907373311
 20
234.9771959459
 30
0.0
 41
2.5
 42
2.5
 43
2.5
 50
90.0
  0
ENDBLK
  5
297
330
225
100
AcDbEntity
  8
0
  6
ByBlock
 62
     0
100
AcDbBlockEnd
  0
BLOCK
  5
298
330
226
100
AcDbEntity
  8
0
100
AcDbBlockBegin
  2
*D4
 70
     1
 10
0.0
 20
0.0
 30
0.0
  3
*D4
  1

  0
MTEXT
  5
299
330
226
100
AcDbEntity
  8
0
  6
Continuous
 62
     2
100
AcDbMText
 10
28.4865608108
 20
222.7271959459
 30
0.0
 40
3.0
 41
12.2142857143
 46
0.0
 71
     2
 72
     1
  1
55,5
 11
0.0
 21
1.0
 31
0.0
 73
     1
 44
1.0
  0
LINE
  5
29A
330
226
100
AcDbEntity
  8
0
  6
Continuous
 62
     2
100
AcDbLine
 10
54.8696368243
 20
194.9771959459
 30
0.0
 11
31.4865608108
 21
194.9771959459
 31
0.0
  0
LINE
  5
29B
330
226
100
AcDbEntity
  8
0
  6
Continuous
 62
     2
100
AcDbLine
 10
53.3836206054
 20
250.4771959459
 30
0.0
 11
31.4865608108
 21
250.4771959459
 31
0.0
  0
LINE
  5
29C
330
226
100
AcDbEntity
  8
0
  6
Continuous
 62
     2
100
AcDbLine
 10
32.2365608108
 20
194.9771959459
 30
0.0
 11
32.2365608108
 21
222.7271959459
 31
0.0
  0
LINE
  5
29D
330
226
100
AcDbEntity
  8
0
  6
Continuous
 62
     2
100
AcDbLine
 10
32.2365608108
 20
250.4771959459
 30
0.0
 11
32.2365608108
 21
222.7271959459
 31
0.0
  0
INSERT
  5
29E
330
226
100
AcDbEntity
  8
0
  6
Continuous
 62
     2
100
AcDbBlockReference
  2
_CLOSED
 10
32.2365608108
 20
194.9771959459
 30
0.0
 41
2.5
 42
2.5
 43
2.5
 50
270.0
  0
INSERT
  5
29F
330
226
100
AcDbEntity
  8
0
  6
Continuous
 62
     2
100
AcDbBlockReference
  2
_CLOSED
 10
32.2365608108
 20
250.4771959459
 30
0.0
 41
2.5
 42
2.5
 43
2.5
 50
90.0
  0
ENDBLK
  5
2A0
330
226
100
AcDbEntity
  8
0
  6
ByBlock
 62
     0
100
AcDbBlockEnd
  0
BLOCK
  5
2A1
330
227
100
AcDbEntity
  8
0
100
AcDbBlockBegin
  2
*D5
 70
     1
 10
0.0
 20
0.0
 30
0.0
  3
*D5
  1

  0
MTEXT
  5
2A2
330
227
100
AcDbEntity
  8
0
  6
Continuous
 62
     2
100
AcDbMText
 10
218.0407373311
 20
240.2352950169
 30
0.0
 40
3.0
 41
8.3571428571
 46
0.0
 71
     1
 72
     1
  1
1,5
 11
0.0
 21
1.0
 31
0.0
 73
     1
 44
1.0
  0
LINE
  5
2A3
330
227
100
AcDbEntity
  8
0
  6
Continuous
 62
     2
100
AcDbLine
 10
213.2091157095
 20
234.9771959459
 30
0.0
 11
222.5407373311
 21
234.9771959459
 31
0.0
  0
LINE
  5
2A4
330
227
100
AcDbEntity
  8
0
  6
Continuous
 62
     2
100
AcDbLine
 10
213.2091157095
 20
236.4771959459
 30
0.0
 11
222.5407373311
 21
236.4771959459
 31
0.0
  0
LINE
  5
2A5
330
227
100
AcDbEntity
  8
0
  6
Continuous
 62
     2
100
AcDbLine
 10
221.7907373311
 20
234.9771959459
 30
0.0
 11
221.7907373311
 21
233.9771959459
 31
0.0
  0
LINE
  5
2A6
330
227
100
AcDbEntity
  8
0
  6
Continuous
 62
     2
100
AcDbLine
 10
221.7907373311
 20
233.9771959459
 30
0.0
 11
221.7907373311
 21
235.7271959459
 31
0.0
  0
LINE
  5
2A7
330
227
100
AcDbEntity
  8
0
  6
Continuous
 62
     2
100
AcDbLine
 10
221.7907373311
 20
236.4771959459
 30
0.0
 11
221.7907373311
 21
245.8067235883
 31
0.0
  0
LINE
  5
2A8
330
227
100
AcDbEntity
  8
0
  6
Continuous
 62
     2
100
AcDbLine
 10
221.7907373311
 20
245.8067235883
 30
0.0
 11
221.7907373311
 21
235.7271959459
 31
0.0
  0
INSERT
  5
2A9
330
227
100
AcDbEntity
  8
0
  6
Continuous
 62
     2
100
AcDbBlockReference
  2
_CLOSED
 10
221.7907373311
 20
234.9771959459
 30
0.0
 41
2.5
 42
2.5
 43
2.5
 50
90.0
  0
INSERT
  5
2AA
330
227
100
AcDbEntity
  8
0
  6
Continuous
 62
     2
100
AcDbBlockReference
  2
_CLOSED
 10
221.7907373311
 20
236.4771959459
 30
0.0
 41
2.5
 42
2.5
 43
2.5
 50
270.0
  0
ENDBLK
  5
2AB
330
227
100
AcDbEntity
  8
0
  6
ByBlock
 62
     0
100
AcDbBlockEnd
  0
BLOCK
  5
2AC
330
228
100
AcDbEntity
  8
0
100
AcDbBlockBegin
  2
*D6
 70
     1
 10
0.0
 20
0.0
 30
0.0
  3
*D6
  1

  0
MTEXT
  5
2AD
330
228
100
AcDbEntity
  8
0
  6
Continuous
 62
     2
100
AcDbMText
 10
311.0692270395
 20
263.8527116948
 30
0.0
 40
3.0
 41
13.1785714286
 46
0.0
 71
     2
 72
     1
  1
77,7
 73
     1
 44
1.0
  0
LINE
  5
2AE
330
228
100
AcDbEntity
  8
0
  6
Continuous
 62
     2
100
AcDbLine
 10
272.2192270395
 20
259.0143921658
 30
0.0
 11
272.2192270395
 21
260.8527116948
 31
0.0
  0
LINE
  5
2AF
330
228
100
AcDbEntity
  8
0
  6
Continuous
 62
     2
100
AcDbLine
 10
349.9192270395
 20
258.7239567035
 30
0.0
 11
349.9192270395
 21
260.8527116948
 31
0.0
  0
LINE
  5
2B0
330
228
100
AcDbEntity
  8
0
  6
Continuous
 62
     2
100
AcDbLine
 10
272.2192270395
 20
260.1027116948
 30
0.0
 11
311.0692270395
 21
260.1027116948
 31
0.0
  0
LINE
  5
2B1
330
228
100
AcDbEntity
  8
0
  6
Continuous
 62
     2
100
AcDbLine
 10
349.9192270395
 20
260.1027116948
 30
0.0
 11
311.0692270395
 21
260.1027116948
 31
0.0
  0
INSERT
  5
2B2
330
228
100
AcDbEntity
  8
0
  6
Continuous
 62
     2
100
AcDbBlockReference
  2
_CLOSED
 10
272.2192270395
 20
260.1027116948
 30
0.0
 41
2.5
 42
2.5
 43
2.5
 50
180.0
  0
INSERT
  5
2B3
330
228
100
AcDbEntity
  8
0
  6
Continuous
 62
     2
100
AcDbBlockReference
  2
_CLOSED
 10
349.9192270395
 20
260.1027116948
 30
0.0
 41
2.5
 42
2.5
 43
2.5
  0
ENDBLK
  5
2B4
330
228
100
AcDbEntity
  8
0
  6
ByBlock
 62
     0
100
AcDbBlockEnd
  0
BLOCK
  5
2B5
330
229
100
AcDbEntity
  8
0
100
AcDbBlockBegin
  2
*D7
 70
     1
 10
0.0
 20
0.0
 30
0.0
  3
*D7
  1

  0
MTEXT
  5
2B6
330
229
100
AcDbEntity
  8
0
  6
Continuous
 62
     2
100
AcDbMText
 10
229.322305374
 20
243.4771959459
 30
0.0
 40
3.0
 41
6.1071428571
 46
0.0
 71
     2
 72
     1
  1
14
 11
0.0
 21
1.0
 31
0.0
 73
     1
 44
1.0
  0
LINE
  5
2B7
330
229
100
AcDbEntity
  8
0
  6
Continuous
 62
     2
100
AcDbLine
 10
224.5554245652
 20
236.4771959459
 30
0.0
 11
233.822305374
 21
236.4771959459
 31
0.0
  0
LINE
  5
2B8
330
229
100
AcDbEntity
  8
0
  6
Continuous
 62
     2
100
AcDbLine
 10
143.5230371754
 20
250.4771959459
 30
0.0
 11
233.822305374
 21
250.4771959459
 31
0.0
  0
LINE
  5
2B9
330
229
100
AcDbEntity
  8
0
  6
Continuous
 62
     2
100
AcDbLine
 10
233.072305374
 20
236.4771959459
 30
0.0
 11
233.072305374
 21
243.4771959459
 31
0.0
  0
LINE
  5
2BA
330
229
100
AcDbEntity
  8
0
  6
Continuous
 62
     2
100
AcDbLine
 10
233.072305374
 20
250.4771959459
 30
0.0
 11
233.072305374
 21
243.4771959459
 31
0.0
  0
INSERT
  5
2BB
330
229
100
AcDbEntity
  8
0
  6
Continuous
 62
     2
100
AcDbBlockReference
  2
_CLOSED
 10
233.072305374
 20
236.4771959459
 30
0.0
 41
2.5
 42
2.5
 43
2.5
 50
270.0
  0
INSERT
  5
2BC
330
229
100
AcDbEntity
  8
0
  6
Continuous
 62
     2
100
AcDbBlockReference
  2
_CLOSED
 10
233.072305374
 20
250.4771959459
 30
0.0
 41
2.5
 42
2.5
 43
2.5
 50
90.0
  0
ENDBLK
  5
2BD
330
229
100
AcDbEntity
  8
0
  6
ByBlock
 62
     0
100
AcDbBlockEnd
  0
BLOCK
  5
231
330
22A
100
AcDbEntity
  8
0
100
AcDbBlockBegin
  2
LOGO2_BL1
 70
     0
 10
293.5867865711
 20
42.3231311552
 30
0.0
  3
LOGO2_BL1
  1

  0
LINE
  5
232
330
22A
100
AcDbEntity
  8
0
  6
Continuous
 62
     7
100
AcDbLine
 10
285.3297117993
 20
45.5186224941
 30
0.0
 11
284.0253708699
 21
45.5186224941
 31
0.0
  0
LINE
  5
233
330
22A
100
AcDbEntity
  8
0
  6
Continuous
 62
     7
100
AcDbLine
 10
284.0253708699
 20
45.5186224941
 30
0.0
 11
284.0253708699
 21
35.0595564342
 31
0.0
  0
LINE
  5
234
330
22A
100
AcDbEntity
  8
0
  6
Continuous
 62
     7
100
AcDbLine
 10
284.0253708699
 20
35.0595564342
 30
0.0
 11
288.5064257582
 21
35.0595564342
 31
0.0
  0
LINE
  5
235
330
22A
100
AcDbEntity
  8
0
  6
Continuous
 62
     7
100
AcDbLine
 10
288.5064257582
 20
35.0595564342
 30
0.0
 11
288.5064257582
 21
36.2524107593
 31
0.0
  0
LINE
  5
236
330
22A
100
AcDbEntity
  8
0
  6
Continuous
 62
     7
100
AcDbLine
 10
288.5064257582
 20
36.2524107593
 30
0.0
 11
285.3297117993
 21
36.2524107593
 31
0.0
  0
LINE
  5
237
330
22A
100
AcDbEntity
  8
0
  6
Continuous
 62
     7
100
AcDbLine
 10
285.3297117993
 20
36.2524107593
 30
0.0
 11
285.3297117993
 21
45.5186224941
 31
0.0
  0
LINE
  5
238
330
22A
100
AcDbEntity
  8
0
  6
Continuous
 62
     7
100
AcDbLine
 10
300.2660380156
 20
45.5186224941
 30
0.0
 11
298.9622204975
 21
45.5186224941
 31
0.0
  0
LINE
  5
239
330
22A
100
AcDbEntity
  8
0
  6
Continuous
 62
     7
100
AcDbLine
 10
298.9622204975
 20
45.5186224941
 30
0.0
 11
298.9622204975
 21
35.0595564342
 31
0.0
  0
LINE
  5
23A
330
22A
100
AcDbEntity
  8
0
  6
Continuous
 62
     7
100
AcDbLine
 10
298.9622204975
 20
35.0595564342
 30
0.0
 11
303.4434062386
 21
35.0595564342
 31
0.0
  0
LINE
  5
23B
330
22A
100
AcDbEntity
  8
0
  6
Continuous
 62
     7
100
AcDbLine
 10
303.4434062386
 20
35.0595564342
 30
0.0
 11
303.4434062386
 21
36.2524107593
 31
0.0
  0
LINE
  5
23C
330
22A
100
AcDbEntity
  8
0
  6
Continuous
 62
     7
100
AcDbLine
 10
303.4434062386
 20
36.2524107593
 30
0.0
 11
300.2660380156
 21
36.2524107593
 31
0.0
  0
LINE
  5
23D
330
22A
100
AcDbEntity
  8
0
  6
Continuous
 62
     7
100
AcDbLine
 10
300.2660380156
 20
36.2524107593
 30
0.0
 11
300.2660380156
 21
45.5186224941
 31
0.0
  0
LWPOLYLINE
  5
23E
330
22A
100
AcDbEntity
  8
0
  6
Continuous
 62
     7
100
AcDbPolyline
 90
        2
 70
     0
 43
0.2
 10
282.3797657808
 20
31.7160051273
 10
282.3797657808
 20
29.8589418779
  0
LWPOLYLINE
  5
23F
330
22A
100
AcDbEntity
  8
0
  6
Continuous
 62
     7
100
AcDbPolyline
 90
        2
 70
     0
 43
0.2
 10
282.3797657808
 20
29.8589418779
 10
283.1754817912
 20
29.8589418779
  0
LWPOLYLINE
  5
240
330
22A
100
AcDbEntity
  8
0
  6
Continuous
 62
     7
100
AcDbPolyline
 90
        2
 70
     0
 43
0.2
 10
283.1754817912
 20
29.8589418779
 10
283.1754817912
 20
30.0709234495
  0
LWPOLYLINE
  5
241
330
22A
100
AcDbEntity
  8
0
  6
Continuous
 62
     7
100
AcDbPolyline
 90
        2
 70
     0
 43
0.2
 10
283.1754817912
 20
30.0709234495
 10
282.6113752757
 20
30.0709234495
  0
LWPOLYLINE
  5
242
330
22A
100
AcDbEntity
  8
0
  6
Continuous
 62
     7
100
AcDbPolyline
 90
        2
 70
     0
 43
0.2
 10
282.6113752757
 20
30.0709234495
 10
282.6113752757
 20
31.7160051273
  0
LWPOLYLINE
  5
243
330
22A
100
AcDbEntity
  8
0
  6
Continuous
 62
     7
100
AcDbPolyline
 90
        2
 70
     0
 43
0.2
 10
282.6113752757
 20
31.7160051273
 10
282.3797657808
 20
31.7160051273
  0
SPLINE
  5
244
330
22A
100
AcDbEntity
  8
0
  6
Continuous
 62
     7
100
AcDbSpline
 70
     3
 71
     3
 72
    35
 73
    31
 74
     0
 42
0.000000001
 43
0.0000001
 40
0.0
 40
0.0
 40
0.0
 40
0.0
 40
1.0
 40
1.0
 40
1.0
 40
2.0
 40
2.0
 40
2.0
 40
3.0
 40
3.0
 40
3.0
 40
4.0
 40
4.0
 40
4.0
 40
5.0
 40
5.0
 40
5.0
 40
6.0
 40
6.0
 40
6.0
 40
7.0
 40
7.0
 40
7.0
 40
8.0
 40
8.0
 40
8.0
 40
9.0
 40
9.0
 40
9.0
 40
10.0
 40
10.0
 40
10.0
 40
10.0
 10
284.5737750468
 20
31.0114935338
 30
0.0
 10
284.5737750468
 20
31.0114935338
 30
0.0
 10
284.5737750468
 20
30.3493782547
 30
0.0
 10
284.5737750468
 20
30.3493782547
 30
0.0
 10
284.5737750468
 20
30.0342846594
 30
0.0
 10
284.7216387356
 20
29.8196860314
 30
0.0
 10
285.0617252199
 20
29.8196860314
 30
0.0
 10
285.4012882929
 20
29.8196860314
 30
0.0
 10
285.5494136874
 20
30.0342846594
 30
0.0
 10
285.5494136874
 20
30.3493782547
 30
0.0
 10
285.5494136874
 20
30.3493782547
 30
0.0
 10
285.5494136874
 20
31.0114935338
 30
0.0
 10
285.5494136874
 20
31.0114935338
 30
0.0
 10
285.5494136874
 20
31.0114935338
 30
0.0
 10
285.3273564485
 20
31.0114935338
 30
0.0
 10
285.3273564485
 20
31.0114935338
 30
0.0
 10
285.3273564485
 20
31.0114935338
 30
0.0
 10
285.3273564485
 20
30.3745019965
 30
0.0
 10
285.3273564485
 20
30.3745019965
 30
0.0
 10
285.3273564485
 20
30.1886909893
 30
0.0
 10
285.280641991
 20
30.0259100788
 30
0.0
 10
285.0617252199
 20
30.0259100788
 30
0.0
 10
284.8422850374
 20
30.0259100788
 30
0.0
 10
284.79557058
 20
30.1886909893
 30
0.0
 10
284.79557058
 20
30.3745019965
 30
0.0
 10
284.79557058
 20
30.3745019965
 30
0.0
 10
284.79557058
 20
31.0114935338
 30
0.0
 10
284.79557058
 20
31.0114935338
 30
0.0
 10
284.79557058
 20
31.0114935338
 30
0.0
 10
284.5737750468
 20
31.0114935338
 30
0.0
 10
284.5737750468
 20
31.0114935338
 30
0.0
  0
SPLINE
  5
245
330
22A
100
AcDbEntity
  8
0
  6
Continuous
 62
     7
100
AcDbSpline
 70
     3
 71
     3
 72
    35
 73
    31
 74
     0
 42
0.000000001
 43
0.0000001
 40
0.0
 40
0.0
 40
0.0
 40
0.0
 40
1.0
 40
1.0
 40
1.0
 40
2.0
 40
2.0
 40
2.0
 40
3.0
 40
3.0
 40
3.0
 40
4.0
 40
4.0
 40
4.0
 40
5.0
 40
5.0
 40
5.0
 40
6.0
 40
6.0
 40
6.0
 40
7.0
 40
7.0
 40
7.0
 40
8.0
 40
8.0
 40
8.0
 40
9.0
 40
9.0
 40
9.0
 40
10.0
 40
10.0
 40
10.0
 40
10.0
 10
287.9725462446
 20
30.9701440421
 30
0.0
 10
287.8840897369
 20
31.0214383483
 30
0.0
 10
287.7706403403
 20
31.0465620901
 30
0.0
 10
287.6670049053
 20
31.0465620901
 30
0.0
 10
287.3121320521
 20
31.0465620901
 30
0.0
 10
287.0366868618
 20
30.782762801
 30
0.0
 10
287.0366868618
 20
30.4252728914
 30
0.0
 10
287.0366868618
 20
30.0803448527
 30
0.0
 10
287.315141667
 20
29.8202094426
 30
0.0
 10
287.65470474
 20
29.8202094426
 30
0.0
 10
287.7706403403
 20
29.8202094426
 30
0.0
 10
287.8713970132
 20
29.8421927167
 30
0.0
 10
287.9725462446
 20
29.8961040794
 30
0.0
 10
287.9725462446
 20
29.8961040794
 30
0.0
 10
287.9725462446
 20
30.1787461748
 30
0.0
 10
287.9725462446
 20
30.1787461748
 30
0.0
 10
287.8886695857
 20
30.0855789656
 30
0.0
 10
287.7851650035
 20
30.0264334901
 30
0.0
 10
287.6570600908
 20
30.0264334901
 30
0.0
 10
287.4233569508
 20
30.0264334901
 30
0.0
 10
287.2580898366
 20
30.1986358038
 30
0.0
 10
287.2580898366
 20
30.4352177059
 30
0.0
 10
287.2580898366
 20
30.6471992775
 30
0.0
 10
287.4258431544
 20
30.8392912201
 30
0.0
 10
287.6426662804
 20
30.8392912201
 30
0.0
 10
287.7754818947
 20
30.8392912201
 30
0.0
 10
287.8840897369
 20
30.7853798575
 30
0.0
 10
287.9725462446
 20
30.6843614789
 30
0.0
 10
287.9725462446
 20
30.6843614789
 30
0.0
 10
287.9725462446
 20
30.9701440421
 30
0.0
 10
287.9725462446
 20
30.9701440421
 30
0.0
  0
SPLINE
  5
246
330
22A
100
AcDbEntity
  8
0
  6
Continuous
 62
     7
100
AcDbSpline
 70
     3
 71
     3
 72
    32
 73
    28
 74
     0
 42
0.000000001
 43
0.0000001
 40
0.0
 40
0.0
 40
0.0
 40
0.0
 40
1.0
 40
1.0
 40
1.0
 40
2.0
 40
2.0
 40
2.0
 40
3.0
 40
3.0
 40
3.0
 40
4.0
 40
4.0
 40
4.0
 40
5.0
 40
5.0
 40
5.0
 40
6.0
 40
6.0
 40
6.0
 40
7.0
 40
7.0
 40
7.0
 40
8.0
 40
8.0
 40
8.0
 40
9.0
 40
9.0
 40
9.0
 40
9.0
 10
290.5044174968
 20
30.3985789157
 30
0.0
 10
290.5044174968
 20
30.3985789157
 30
0.0
 10
290.5044174968
 20
30.4326006495
 30
0.0
 10
290.5044174968
 20
30.4326006495
 30
0.0
 10
290.5044174968
 20
30.7749116317
 30
0.0
 10
290.331560919
 20
31.0465620901
 30
0.0
 10
289.9649113118
 20
31.0465620901
 30
0.0
 10
289.5932892974
 20
31.0465620901
 30
0.0
 10
289.4035527056
 20
30.7801457446
 30
0.0
 10
289.4035527056
 20
30.4252728914
 30
0.0
 10
289.4035527056
 20
30.0855789656
 30
0.0
 10
289.6176279223
 20
29.8196860314
 30
0.0
 10
289.9697528662
 20
29.8196860314
 30
0.0
 10
290.1937728975
 20
29.8196860314
 30
0.0
 10
290.3959405074
 20
29.935359926
 30
0.0
 10
290.5044174968
 20
30.1347796267
 30
0.0
 10
290.5044174968
 20
30.1347796267
 30
0.0
 10
290.3167745501
 20
30.2415555294
 30
0.0
 10
290.3167745501
 20
30.2415555294
 30
0.0
 10
290.2332904497
 20
30.1028515381
 30
0.0
 10
290.1420860328
 20
30.0170120869
 30
0.0
 10
289.9725007755
 20
30.0170120869
 30
0.0
 10
289.7605192039
 20
30.0170120869
 30
0.0
 10
289.6275727368
 20
30.2017762715
 30
0.0
 10
289.625217386
 20
30.3985789157
 30
0.0
 10
289.625217386
 20
30.3985789157
 30
0.0
 10
290.5044174968
 20
30.3985789157
 30
0.0
 10
290.5044174968
 20
30.3985789157
 30
0.0
  0
SPLINE
  5
247
330
22A
100
AcDbEntity
  8
0
  6
Continuous
 62
     7
100
AcDbSpline
 70
     3
 71
     3
 72
    14
 73
    10
 74
     0
 42
0.000000001
 43
0.0000001
 40
0.0
 40
0.0
 40
0.0
 40
0.0
 40
1.0
 40
1.0
 40
1.0
 40
2.0
 40
2.0
 40
2.0
 40
3.0
 40
3.0
 40
3.0
 40
3.0
 10
289.6372558456
 20
30.5660705279
 30
0.0
 10
289.6648657911
 20
30.7309450835
 30
0.0
 10
289.7927089981
 20
30.8539467362
 30
0.0
 10
289.9649113118
 20
30.8539467362
 30
0.0
 10
290.1420860328
 20
30.8539467362
 30
0.0
 10
290.2555354294
 20
30.7382728416
 30
0.0
 10
290.2827528164
 20
30.5660705279
 30
0.0
 10
290.2827528164
 20
30.5660705279
 30
0.0
 10
289.6372558456
 20
30.5660705279
 30
0.0
 10
289.6372558456
 20
30.5660705279
 30
0.0
  0
SPLINE
  5
248
330
22A
100
AcDbEntity
  8
0
  6
Continuous
 62
     7
100
AcDbSpline
 70
     3
 71
     3
 72
    20
 73
    16
 74
     0
 42
0.000000001
 43
0.0000001
 40
0.0
 40
0.0
 40
0.0
 40
0.0
 40
1.0
 40
1.0
 40
1.0
 40
2.0
 40
2.0
 40
2.0
 40
3.0
 40
3.0
 40
3.0
 40
4.0
 40
4.0
 40
4.0
 40
5.0
 40
5.0
 40
5.0
 40
5.0
 10
292.528448947
 20
30.775435043
 30
0.0
 10
292.528448947
 20
30.775435043
 30
0.0
 10
292.9395885136
 20
30.2729602067
 30
0.0
 10
292.9395885136
 20
30.2729602067
 30
0.0
 10
292.8235220605
 20
30.157286312
 30
0.0
 10
292.685734039
 20
30.0269569014
 30
0.0
 10
292.5137934309
 20
30.0269569014
 30
0.0
 10
292.3363570043
 20
30.0269569014
 30
0.0
 10
292.1688653922
 20
30.1913080457
 30
0.0
 10
292.1688653922
 20
30.368221061
 30
0.0
 10
292.1688653922
 20
30.5461808989
 30
0.0
 10
292.3786224658
 20
30.6723230193
 30
0.0
 10
292.5062039673
 20
30.7602561157
 30
0.0
 10
292.5062039673
 20
30.7602561157
 30
0.0
 10
292.528448947
 20
30.775435043
 30
0.0
 10
292.528448947
 20
30.775435043
 30
0.0
  0
SPLINE
  5
249
330
22A
100
AcDbEntity
  8
0
  6
Continuous
 62
     7
100
AcDbSpline
 70
     3
 71
     3
 72
    23
 73
    19
 74
     0
 42
0.000000001
 43
0.0000001
 40
0.0
 40
0.0
 40
0.0
 40
0.0
 40
1.0
 40
1.0
 40
1.0
 40
2.0
 40
2.0
 40
2.0
 40
3.0
 40
3.0
 40
3.0
 40
4.0
 40
4.0
 40
4.0
 40
5.0
 40
5.0
 40
5.0
 40
6.0
 40
6.0
 40
6.0
 40
6.0
 10
292.5777804609
 20
31.0664517191
 30
0.0
 10
292.5777804609
 20
31.0664517191
 30
0.0
 10
292.5161487817
 20
31.1449634122
 30
0.0
 10
292.5161487817
 20
31.1449634122
 30
0.0
 10
292.4622374191
 20
31.213530291
 30
0.0
 10
292.4054472943
 20
31.282620581
 30
0.0
 10
292.4054472943
 20
31.3763112015
 30
0.0
 10
292.4054472943
 20
31.4951255638
 30
0.0
 10
292.5013624128
 20
31.5725904344
 30
0.0
 10
292.6123256059
 20
31.5725904344
 30
0.0
 10
292.7355889642
 20
31.5725904344
 30
0.0
 10
292.8288870262
 20
31.5014064993
 30
0.0
 10
292.8288870262
 20
31.3710770886
 30
0.0
 10
292.8288870262
 20
31.2360369763
 30
0.0
 10
292.7007821135
 20
31.1596189283
 30
0.0
 10
292.6072223458
 20
31.0858179367
 30
0.0
 10
292.6072223458
 20
31.0858179367
 30
0.0
 10
292.5777804609
 20
31.0664517191
 30
0.0
 10
292.5777804609
 20
31.0664517191
 30
0.0
  0
SPLINE
  5
24A
330
22A
100
AcDbEntity
  8
0
  6
Continuous
 62
     7
100
AcDbSpline
 70
     3
 71
     3
 72
    50
 73
    46
 74
     0
 42
0.000000001
 43
0.0000001
 40
0.0
 40
0.0
 40
0.0
 40
0.0
 40
1.0
 40
1.0
 40
1.0
 40
2.0
 40
2.0
 40
2.0
 40
3.0
 40
3.0
 40
3.0
 40
4.0
 40
4.0
 40
4.0
 40
5.0
 40
5.0
 40
5.0
 40
6.0
 40
6.0
 40
6.0
 40
7.0
 40
7.0
 40
7.0
 40
8.0
 40
8.0
 40
8.0
 40
9.0
 40
9.0
 40
9.0
 40
10.0
 40
10.0
 40
10.0
 40
11.0
 40
11.0
 40
11.0
 40
12.0
 40
12.0
 40
12.0
 40
13.0
 40
13.0
 40
13.0
 40
14.0
 40
14.0
 40
14.0
 40
15.0
 40
15.0
 40
15.0
 40
15.0
 10
293.2799367036
 20
29.8594652892
 30
0.0
 10
293.2799367036
 20
29.8594652892
 30
0.0
 10
293.5653267083
 20
29.8594652892
 30
0.0
 10
293.5653267083
 20
29.8594652892
 30
0.0
 10
293.5653267083
 20
29.8594652892
 30
0.0
 10
293.2329605405
 20
30.2703431502
 30
0.0
 10
293.2329605405
 20
30.2703431502
 30
0.0
 10
293.2329605405
 20
30.2703431502
 30
0.0
 10
293.4594667753
 20
30.5362360845
 30
0.0
 10
293.4594667753
 20
30.5362360845
 30
0.0
 10
293.4594667753
 20
30.5362360845
 30
0.0
 10
293.311210528
 20
30.6890721805
 30
0.0
 10
293.311210528
 20
30.6890721805
 30
0.0
 10
293.311210528
 20
30.6890721805
 30
0.0
 10
293.0953033718
 20
30.4378347623
 30
0.0
 10
293.0953033718
 20
30.4378347623
 30
0.0
 10
293.0953033718
 20
30.4378347623
 30
0.0
 10
292.7082407244
 20
30.9057644537
 30
0.0
 10
292.7082407244
 20
30.9057644537
 30
0.0
 10
292.8636938769
 20
31.0198681144
 30
0.0
 10
293.0459718579
 20
31.1596189283
 30
0.0
 10
293.0459718579
 20
31.3689834435
 30
0.0
 10
293.0459718579
 20
31.6128931036
 30
0.0
 10
292.8439351008
 20
31.7563077965
 30
0.0
 10
292.6174288659
 20
31.7563077965
 30
0.0
 10
292.3732575001
 20
31.7563077965
 30
0.0
 10
292.188885874
 20
31.6055653456
 30
0.0
 10
292.188885874
 20
31.3490938145
 30
0.0
 10
292.188885874
 20
31.1915470169
 30
0.0
 10
292.2875489018
 20
31.0538898482
 30
0.0
 10
292.3928854234
 20
30.9429266551
 30
0.0
 10
292.3928854234
 20
30.9429266551
 30
0.0
 10
292.2773423816
 20
30.8591808491
 30
0.0
 10
292.2773423816
 20
30.8591808491
 30
0.0
 10
292.0996442494
 20
30.7309450835
 30
0.0
 10
291.9523039719
 20
30.6032327293
 30
0.0
 10
291.9523039719
 20
30.3661274159
 30
0.0
 10
291.9523039719
 20
30.0457997077
 30
0.0
 10
292.2108691481
 20
29.8196860314
 30
0.0
 10
292.5212520418
 20
29.8196860314
 30
0.0
 10
292.7401688129
 20
29.8196860314
 30
0.0
 10
292.9373640156
 20
29.9447813292
 30
0.0
 10
293.0776382408
 20
30.1107027074
 30
0.0
 10
293.0776382408
 20
30.1107027074
 30
0.0
 10
293.2799367036
 20
29.8594652892
 30
0.0
 10
293.2799367036
 20
29.8594652892
 30
0.0
  0
LWPOLYLINE
  5
24B
330
22A
100
AcDbEntity
  8
0
  6
Continuous
 62
     7
100
AcDbPolyline
 90
        2
 70
     0
 43
0.2
 10
295.2153807933
 20
31.7160051273
 10
294.984033004
 20
31.7160051273
  0
LWPOLYLINE
  5
24C
330
22A
100
AcDbEntity
  8
0
  6
Continuous
 62
     7
100
AcDbPolyline
 90
        2
 70
     0
 43
0.2
 10
294.984033004
 20
31.7160051273
 10
294.984033004
 20
29.8589418779
  0
LWPOLYLINE
  5
24D
330
22A
100
AcDbEntity
  8
0
  6
Continuous
 62
     7
100
AcDbPolyline
 90
        2
 70
     0
 43
0.2
 10
294.984033004
 20
29.8589418779
 10
295.779356456
 20
29.8589418779
  0
LWPOLYLINE
  5
24E
330
22A
100
AcDbEntity
  8
0
  6
Continuous
 62
     7
100
AcDbPolyline
 90
        2
 70
     0
 43
0.2
 10
295.779356456
 20
29.8589418779
 10
295.779356456
 20
30.0709234495
  0
LWPOLYLINE
  5
24F
330
22A
100
AcDbEntity
  8
0
  6
Continuous
 62
     7
100
AcDbPolyline
 90
        2
 70
     0
 43
0.2
 10
295.779356456
 20
30.0709234495
 10
295.2153807933
 20
30.0709234495
  0
LWPOLYLINE
  5
250
330
22A
100
AcDbEntity
  8
0
  6
Continuous
 62
     7
100
AcDbPolyline
 90
        2
 70
     0
 43
0.2
 10
295.2153807933
 20
30.0709234495
 10
295.2153807933
 20
31.7160051273
  0
LWPOLYLINE
  5
251
330
22A
100
AcDbEntity
  8
0
  6
Continuous
 62
     7
100
AcDbPolyline
 90
        2
 70
     0
 43
0.2
 10
297.4584598674
 20
31.0114935338
 10
297.2373185983
 20
31.0114935338
  0
LWPOLYLINE
  5
252
330
22A
100
AcDbEntity
  8
0
  6
Continuous
 62
     7
100
AcDbPolyline
 90
        2
 70
     0
 43
0.2
 10
297.2373185983
 20
31.0114935338
 10
297.2373185983
 20
29.8594652892
  0
LWPOLYLINE
  5
253
330
22A
100
AcDbEntity
  8
0
  6
Continuous
 62
     7
100
AcDbPolyline
 90
        2
 70
     0
 43
0.2
 10
297.2373185983
 20
29.8594652892
 10
297.4584598674
 20
29.8594652892
  0
LWPOLYLINE
  5
254
330
22A
100
AcDbEntity
  8
0
  6
Continuous
 62
     7
100
AcDbPolyline
 90
        2
 70
     0
 43
0.2
 10
297.4584598674
 20
29.8594652892
 10
297.4584598674
 20
31.0114935338
  0
LWPOLYLINE
  5
255
330
22A
100
AcDbEntity
  8
0
  6
Continuous
 62
     7
100
AcDbPolyline
 90
        2
 70
     1
 43
0.2
 10
297.1954365902
 20
31.5414474628
 42
1.0
 10
297.5006035812
 20
31.5414474628
 42
1.0
  0
SPLINE
  5
256
330
22A
100
AcDbEntity
  8
0
  6
Continuous
 62
     7
100
AcDbSpline
 70
     3
 71
     3
 72
    17
 73
    13
 74
     0
 42
0.000000001
 43
0.0000001
 40
0.0
 40
0.0
 40
0.0
 40
0.0
 40
1.0
 40
1.0
 40
1.0
 40
2.0
 40
2.0
 40
2.0
 40
3.0
 40
3.0
 40
3.0
 40
4.0
 40
4.0
 40
4.0
 40
4.0
 10
299.5887438091
 20
30.0170120869
 30
0.0
 10
299.3547789634
 20
30.0170120869
 30
0.0
 10
299.2244495527
 20
30.219048844
 30
0.0
 10
299.2244495527
 20
30.4352177059
 30
0.0
 10
299.2244495527
 20
30.6498163339
 30
0.0
 10
299.3602747819
 20
30.8487126233
 30
0.0
 10
299.5887438091
 20
30.8487126233
 30
0.0
 10
299.8282044733
 20
30.8487126233
 30
0.0
 10
299.9637679968
 20
30.6597611484
 30
0.0
 10
299.9637679968
 20
30.4352177059
 30
0.0
 10
299.9637679968
 20
30.2091040295
 30
0.0
 10
299.8305598241
 20
30.0170120869
 30
0.0
 10
299.5887438091
 20
30.0170120869
 30
0.0
  0
SPLINE
  5
257
330
22A
100
AcDbEntity
  8
0
  6
Continuous
 62
     7
100
AcDbSpline
 70
     3
 71
     3
 72
    50
 73
    46
 74
     0
 42
0.000000001
 43
0.0000001
 40
0.0
 40
0.0
 40
0.0
 40
0.0
 40
1.0
 40
1.0
 40
1.0
 40
2.0
 40
2.0
 40
2.0
 40
3.0
 40
3.0
 40
3.0
 40
4.0
 40
4.0
 40
4.0
 40
5.0
 40
5.0
 40
5.0
 40
6.0
 40
6.0
 40
6.0
 40
7.0
 40
7.0
 40
7.0
 40
8.0
 40
8.0
 40
8.0
 40
9.0
 40
9.0
 40
9.0
 40
10.0
 40
10.0
 40
10.0
 40
11.0
 40
11.0
 40
11.0
 40
12.0
 40
12.0
 40
12.0
 40
13.0
 40
13.0
 40
13.0
 40
14.0
 40
14.0
 40
14.0
 40
15.0
 40
15.0
 40
15.0
 40
15.0
 10
300.1728708063
 20
31.0120169451
 30
0.0
 10
300.1728708063
 20
31.0120169451
 30
0.0
 10
299.9512061259
 20
31.0120169451
 30
0.0
 10
299.9512061259
 20
31.0120169451
 30
0.0
 10
299.9512061259
 20
31.0120169451
 30
0.0
 10
299.9512061259
 20
30.8146908896
 30
0.0
 10
299.9512061259
 20
30.8146908896
 30
0.0
 10
299.9512061259
 20
30.8146908896
 30
0.0
 10
299.9464954243
 20
30.8146908896
 30
0.0
 10
299.9464954243
 20
30.8146908896
 30
0.0
 10
299.8551601546
 20
30.9575821712
 30
0.0
 10
299.7172412802
 20
31.0460386788
 30
0.0
 10
299.5445155553
 20
31.0460386788
 30
0.0
 10
299.2121493875
 20
31.0460386788
 30
0.0
 10
299.0030465779
 20
30.7581624705
 30
0.0
 10
299.0030465779
 20
30.4425454639
 30
0.0
 10
299.0030465779
 20
30.1127963526
 30
0.0
 10
299.2001109278
 20
29.8196860314
 30
0.0
 10
299.554983781
 20
29.8196860314
 30
0.0
 10
299.7172412802
 20
29.8196860314
 30
0.0
 10
299.8572537998
 20
29.908142539
 30
0.0
 10
299.9464954243
 20
30.038995361
 30
0.0
 10
299.9464954243
 20
30.038995361
 30
0.0
 10
299.9512061259
 20
30.038995361
 30
0.0
 10
299.9512061259
 20
30.038995361
 30
0.0
 10
299.9512061259
 20
30.038995361
 30
0.0
 10
299.9512061259
 20
29.8196860314
 30
0.0
 10
299.9512061259
 20
29.8196860314
 30
0.0
 10
299.9512061259
 20
29.5831041292
 30
0.0
 10
299.8946777068
 20
29.3962462995
 30
0.0
 10
299.6214570146
 20
29.3962462995
 30
0.0
 10
299.4191585518
 20
29.3962462995
 30
0.0
 10
299.2765289759
 20
29.5145372505
 30
0.0
 10
299.2765289759
 20
29.7207612979
 30
0.0
 10
299.2765289759
 20
29.7207612979
 30
0.0
 10
299.0548642954
 20
29.7207612979
 30
0.0
 10
299.0548642954
 20
29.7207612979
 30
0.0
 10
299.0598367027
 20
29.3962462995
 30
0.0
 10
299.2909227863
 20
29.1994436552
 30
0.0
 10
299.6112504945
 20
29.1994436552
 30
0.0
 10
300.0592905569
 20
29.1994436552
 30
0.0
 10
300.1728708063
 20
29.4847028071
 30
0.0
 10
300.1728708063
 20
29.8814485633
 30
0.0
 10
300.1728708063
 20
29.8814485633
 30
0.0
 10
300.1728708063
 20
31.0120169451
 30
0.0
 10
300.1728708063
 20
31.0120169451
 30
0.0
  0
SPLINE
  5
258
330
22A
100
AcDbEntity
  8
0
  6
Continuous
 62
     7
100
AcDbSpline
 70
     3
 71
     3
 72
    44
 73
    40
 74
     0
 42
0.000000001
 43
0.0000001
 40
0.0
 40
0.0
 40
0.0
 40
0.0
 40
1.0
 40
1.0
 40
1.0
 40
2.0
 40
2.0
 40
2.0
 40
3.0
 40
3.0
 40
3.0
 40
4.0
 40
4.0
 40
4.0
 40
5.0
 40
5.0
 40
5.0
 40
6.0
 40
6.0
 40
6.0
 40
7.0
 40
7.0
 40
7.0
 40
8.0
 40
8.0
 40
8.0
 40
9.0
 40
9.0
 40
9.0
 40
10.0
 40
10.0
 40
10.0
 40
11.0
 40
11.0
 40
11.0
 40
12.0
 40
12.0
 40
12.0
 40
13.0
 40
13.0
 40
13.0
 40
13.0
 10
301.7417961417
 20
31.9970769889
 30
0.0
 10
301.7417961417
 20
31.9970769889
 30
0.0
 10
301.7417961417
 20
29.8589418779
 30
0.0
 10
301.7417961417
 20
29.8589418779
 30
0.0
 10
301.7417961417
 20
29.8589418779
 30
0.0
 10
301.9631991165
 20
29.8589418779
 30
0.0
 10
301.9631991165
 20
29.8589418779
 30
0.0
 10
301.9631991165
 20
29.8589418779
 30
0.0
 10
301.9631991165
 20
30.3886341013
 30
0.0
 10
301.9631991165
 20
30.3886341013
 30
0.0
 10
301.9631991165
 20
30.5985220277
 30
0.0
 10
301.9631991165
 20
30.8492360346
 30
0.0
 10
302.2484582684
 20
30.8492360346
 30
0.0
 10
302.4753570617
 20
30.8492360346
 30
0.0
 10
302.502312743
 20
30.7162895675
 30
0.0
 10
302.502312743
 20
30.5200103345
 30
0.0
 10
302.502312743
 20
30.5200103345
 30
0.0
 10
302.502312743
 20
29.8589418779
 30
0.0
 10
302.502312743
 20
29.8589418779
 30
0.0
 10
302.502312743
 20
29.8589418779
 30
0.0
 10
302.7242391291
 20
29.8589418779
 30
0.0
 10
302.7242391291
 20
29.8589418779
 30
0.0
 10
302.7242391291
 20
29.8589418779
 30
0.0
 10
302.7242391291
 20
30.5461808989
 30
0.0
 10
302.7242391291
 20
30.5461808989
 30
0.0
 10
302.7242391291
 20
30.8267293492
 30
0.0
 10
302.6402316174
 20
31.0465620901
 30
0.0
 10
302.3151932076
 20
31.0465620901
 30
0.0
 10
302.1754423937
 20
31.0465620901
 30
0.0
 10
302.0372618137
 20
30.9800888566
 30
0.0
 10
301.9679098181
 20
30.8570872039
 30
0.0
 10
301.9679098181
 20
30.8570872039
 30
0.0
 10
301.9631991165
 20
30.8570872039
 30
0.0
 10
301.9631991165
 20
30.8570872039
 30
0.0
 10
301.9631991165
 20
30.8570872039
 30
0.0
 10
301.9631991165
 20
31.9970769889
 30
0.0
 10
301.9631991165
 20
31.9970769889
 30
0.0
 10
301.9631991165
 20
31.9970769889
 30
0.0
 10
301.7417961417
 20
31.9970769889
 30
0.0
 10
301.7417961417
 20
31.9970769889
 30
0.0
  0
LWPOLYLINE
  5
259
330
22A
100
AcDbEntity
  8
0
  6
Continuous
 62
     7
100
AcDbPolyline
 90
        2
 70
     0
 43
0.2
 10
304.5640298059
 20
30.8047460751
 10
304.7804603735
 20
30.8047460751
  0
LWPOLYLINE
  5
25A
330
22A
100
AcDbEntity
  8
0
  6
Continuous
 62
     7
100
AcDbPolyline
 90
        2
 70
     0
 43
0.2
 10
304.7804603735
 20
30.8047460751
 10
304.7804603735
 20
31.0114935338
  0
LWPOLYLINE
  5
25B
330
22A
100
AcDbEntity
  8
0
  6
Continuous
 62
     7
100
AcDbPolyline
 90
        2
 70
     0
 43
0.2
 10
304.7804603735
 20
31.0114935338
 10
304.5640298059
 20
31.0114935338
  0
LWPOLYLINE
  5
25C
330
22A
100
AcDbEntity
  8
0
  6
Continuous
 62
     7
100
AcDbPolyline
 90
        2
 70
     0
 43
0.2
 10
304.5640298059
 20
31.0114935338
 10
304.5640298059
 20
31.4522058382
  0
LWPOLYLINE
  5
25D
330
22A
100
AcDbEntity
  8
0
  6
Continuous
 62
     7
100
AcDbPolyline
 90
        2
 70
     0
 43
0.2
 10
304.5640298059
 20
31.4522058382
 10
304.3423651255
 20
31.4522058382
  0
LWPOLYLINE
  5
25E
330
22A
100
AcDbEntity
  8
0
  6
Continuous
 62
     7
100
AcDbPolyline
 90
        2
 70
     0
 43
0.2
 10
304.3423651255
 20
31.4522058382
 10
304.3423651255
 20
31.0114935338
  0
LWPOLYLINE
  5
25F
330
22A
100
AcDbEntity
  8
0
  6
Continuous
 62
     7
100
AcDbPolyline
 90
        2
 70
     0
 43
0.2
 10
304.3423651255
 20
31.0114935338
 10
304.2217188237
 20
31.0114935338
  0
LWPOLYLINE
  5
260
330
22A
100
AcDbEntity
  8
0
  6
Continuous
 62
     7
100
AcDbPolyline
 90
        2
 70
     0
 43
0.2
 10
304.2217188237
 20
31.0114935338
 10
304.2217188237
 20
30.8047460751
  0
LWPOLYLINE
  5
261
330
22A
100
AcDbEntity
  8
0
  6
Continuous
 62
     7
100
AcDbPolyline
 90
        2
 70
     0
 43
0.2
 10
304.2217188237
 20
30.8047460751
 10
304.3423651255
 20
30.8047460751
  0
LWPOLYLINE
  5
262
330
22A
100
AcDbEntity
  8
0
  6
Continuous
 62
     7
100
AcDbPolyline
 90
        2
 70
     0
 43
0.2
 10
304.3423651255
 20
30.8047460751
 10
304.3423651255
 20
29.8589418779
  0
LWPOLYLINE
  5
263
330
22A
100
AcDbEntity
  8
0
  6
Continuous
 62
     7
100
AcDbPolyline
 90
        2
 70
     0
 43
0.2
 10
304.3423651255
 20
29.8589418779
 10
304.5640298059
 20
29.8589418779
  0
LWPOLYLINE
  5
264
330
22A
100
AcDbEntity
  8
0
  6
Continuous
 62
     7
100
AcDbPolyline
 90
        2
 70
     0
 43
0.2
 10
304.5640298059
 20
29.8589418779
 10
304.5640298059
 20
30.8047460751
  0
SPLINE
  5
265
330
22A
100
AcDbEntity
  8
0
  6
Continuous
 62
     7
100
AcDbSpline
 70
     3
 71
     3
 72
    20
 73
    16
 74
     0
 42
0.000000001
 43
0.0000001
 40
0.0
 40
0.0
 40
0.0
 40
0.0
 40
1.0
 40
1.0
 40
1.0
 40
2.0
 40
2.0
 40
2.0
 40
3.0
 40
3.0
 40
3.0
 40
4.0
 40
4.0
 40
4.0
 40
5.0
 40
5.0
 40
5.0
 40
5.0
 10
292.3460401132
 20
40.2198683213
 30
0.0
 10
292.3460401132
 20
40.2198683213
 30
0.0
 10
294.6623967676
 20
37.3903068991
 30
0.0
 10
294.6623967676
 20
37.3903068991
 30
0.0
 10
294.0107497142
 20
36.7381364344
 30
0.0
 10
293.2338765102
 20
36.0022201637
 30
0.0
 10
292.2626868656
 20
36.0022201637
 30
0.0
 10
291.2641489811
 20
36.0022201637
 30
0.0
 10
290.3208309876
 20
36.9317986109
 30
0.0
 10
290.3208309876
 20
37.9309907595
 30
0.0
 10
290.3208309876
 20
38.930182908
 30
0.0
 10
291.4996840607
 20
39.6367881466
 30
0.0
 10
292.221206521
 20
40.1366459266
 30
0.0
 10
292.221206521
 20
40.1366459266
 30
0.0
 10
292.3460401132
 20
40.2198683213
 30
0.0
 10
292.3460401132
 20
40.2198683213
 30
0.0
  0
SPLINE
  5
266
330
22A
100
AcDbEntity
  8
0
  6
Continuous
 62
     7
100
AcDbSpline
 70
     3
 71
     3
 72
    23
 73
    19
 74
     0
 42
0.000000001
 43
0.0000001
 40
0.0
 40
0.0
 40
0.0
 40
0.0
 40
1.0
 40
1.0
 40
1.0
 40
2.0
 40
2.0
 40
2.0
 40
3.0
 40
3.0
 40
3.0
 40
4.0
 40
4.0
 40
4.0
 40
5.0
 40
5.0
 40
5.0
 40
6.0
 40
6.0
 40
6.0
 40
6.0
 10
292.6234480957
 20
41.8576222411
 30
0.0
 10
292.6234480957
 20
41.8576222411
 30
0.0
 10
292.2769498232
 20
42.3009516019
 30
0.0
 10
292.2769498232
 20
42.3009516019
 30
0.0
 10
291.9711467782
 20
42.6890610719
 30
0.0
 10
291.6522584511
 20
43.0775631003
 30
0.0
 10
291.6522584511
 20
43.6045074143
 30
0.0
 10
291.6522584511
 20
44.270679131
 30
0.0
 10
292.1935965756
 20
44.7144010503
 30
0.0
 10
292.8175028307
 20
44.7144010503
 30
0.0
 10
293.5112844928
 20
44.7144010503
 30
0.0
 10
294.0384905125
 20
44.3121594755
 30
0.0
 10
294.0384905125
 20
43.5771591746
 30
0.0
 10
294.0384905125
 20
42.813894664
 30
0.0
 10
293.3172297578
 20
42.3837814382
 30
0.0
 10
292.7901545909
 20
41.9680620228
 30
0.0
 10
292.7901545909
 20
41.9680620228
 30
0.0
 10
292.6234480957
 20
41.8576222411
 30
0.0
 10
292.6234480957
 20
41.8576222411
 30
0.0
  0
SPLINE
  5
267
330
22A
100
AcDbEntity
  8
0
  6
Continuous
 62
     7
100
AcDbSpline
 70
     3
 71
     3
 72
    50
 73
    46
 74
     0
 42
0.000000001
 43
0.0000001
 40
0.0
 40
0.0
 40
0.0
 40
0.0
 40
1.0
 40
1.0
 40
1.0
 40
2.0
 40
2.0
 40
2.0
 40
3.0
 40
3.0
 40
3.0
 40
4.0
 40
4.0
 40
4.0
 40
5.0
 40
5.0
 40
5.0
 40
6.0
 40
6.0
 40
6.0
 40
7.0
 40
7.0
 40
7.0
 40
8.0
 40
8.0
 40
8.0
 40
9.0
 40
9.0
 40
9.0
 40
10.0
 40
10.0
 40
10.0
 40
11.0
 40
11.0
 40
11.0
 40
12.0
 40
12.0
 40
12.0
 40
13.0
 40
13.0
 40
13.0
 40
14.0
 40
14.0
 40
14.0
 40
15.0
 40
15.0
 40
15.0
 40
15.0
 10
296.5770352587
 20
35.0590330229
 30
0.0
 10
296.5770352587
 20
35.0590330229
 30
0.0
 10
298.1862632632
 20
35.0590330229
 30
0.0
 10
298.1862632632
 20
35.0590330229
 30
0.0
 10
298.1862632632
 20
35.0590330229
 30
0.0
 10
296.3132359696
 20
37.3761747943
 30
0.0
 10
296.3132359696
 20
37.3761747943
 30
0.0
 10
296.3132359696
 20
37.3761747943
 30
0.0
 10
297.5895743951
 20
38.8736544889
 30
0.0
 10
297.5895743951
 20
38.8736544889
 30
0.0
 10
297.5895743951
 20
38.8736544889
 30
0.0
 10
296.7573504473
 20
39.7346660575
 30
0.0
 10
296.7573504473
 20
39.7346660575
 30
0.0
 10
296.7573504473
 20
39.7346660575
 30
0.0
 10
295.536755324
 20
38.3193619351
 30
0.0
 10
295.536755324
 20
38.3193619351
 30
0.0
 10
295.536755324
 20
38.3193619351
 30
0.0
 10
293.3588409552
 20
40.9547377695
 30
0.0
 10
293.3588409552
 20
40.9547377695
 30
0.0
 10
294.2324143947
 20
41.5927761294
 30
0.0
 10
295.2590856358
 20
42.3837814382
 30
0.0
 10
295.2590856358
 20
43.5626345113
 30
0.0
 10
295.2590856358
 20
44.9363274363
 30
0.0
 10
294.121189496
 20
45.7408105858
 30
0.0
 10
292.8458978931
 20
45.7408105858
 30
0.0
 10
291.4724666737
 20
45.7408105858
 30
0.0
 10
290.431532475
 20
44.8945853861
 30
0.0
 10
290.431532475
 20
43.4519330239
 30
0.0
 10
290.431532475
 20
42.5643583325
 30
0.0
 10
290.9868718514
 20
41.7874851285
 30
0.0
 10
291.5830373083
 20
41.1630554621
 30
0.0
 10
291.5830373083
 20
41.1630554621
 30
0.0
 10
290.9311285492
 20
40.6914618917
 30
0.0
 10
290.9311285492
 20
40.6914618917
 30
0.0
 10
289.9325906648
 20
39.970201137
 30
0.0
 10
289.099712453
 20
39.2489403823
 30
0.0
 10
289.099712453
 20
37.917382066
 30
0.0
 10
289.099712453
 20
36.113706768
 30
0.0
 10
290.5567586256
 20
34.8371066369
 30
0.0
 10
292.304298063
 20
34.8371066369
 30
0.0
 10
293.5391561439
 20
34.8371066369
 30
0.0
 10
294.6485263685
 20
35.5452821094
 30
0.0
 10
295.4394008245
 20
36.473813734
 30
0.0
 10
295.4394008245
 20
36.473813734
 30
0.0
 10
296.5770352587
 20
35.0590330229
 30
0.0
 10
296.5770352587
 20
35.0590330229
 30
0.0
  0
LINE
  5
268
330
22A
100
AcDbEntity
  8
0
  6
Continuous
 62
     7
100
AcDbLine
 10
282.3798966337
 20
33.0329079276
 30
0.0
 11
304.7938073613
 21
33.0329079276
 31
0.0
  0
LINE
  5
269
330
22A
100
AcDbEntity
  8
0
  6
Continuous
 62
     7
100
AcDbLine
 10
304.7938073613
 20
33.0329079276
 30
0.0
 11
304.7938073613
 21
55.4468186552
 31
0.0
  0
LINE
  5
26A
330
22A
100
AcDbEntity
  8
0
  6
Continuous
 62
     7
100
AcDbLine
 10
304.7938073613
 20
55.4468186552
 30
0.0
 11
282.3798966337
 21
55.4468186552
 31
0.0
  0
LINE
  5
26B
330
22A
100
AcDbEntity
  8
0
  6
Continuous
 62
     7
100
AcDbLine
 10
282.3798966337
 20
55.4468186552
 30
0.0
 11
282.3798966337
 21
33.0329079276
 31
0.0
  0
ENDBLK
  5
26C
330
22A
100
AcDbEntity
  8
0
  6
ByBlock
 62
     0
100
AcDbBlockEnd
  0
BLOCK
  5
26D
330
22B
100
AcDbEntity
  8
0
100
AcDbBlockBegin
  2
PROIEZIONE_EU_BL0
 70
     0
 10
294.7607395263
 20
67.9481311552
 30
0.0
  3
PROIEZIONE_EU_BL0
  1

  0
LWPOLYLINE
  5
26E
330
22B
100
AcDbEntity
  8
DEFAULT_1
  6
CENTER
 62
     7
100
AcDbPolyline
 90
        2
 70
     0
 43
0.25
 10
300.887360188
 20
72.9478252871
 10
300.8874011703
 20
62.9484370233
  0
LWPOLYLINE
  5
26F
330
22B
100
AcDbEntity
  8
DEFAULT_1
  6
CENTER
 62
     7
100
AcDbPolyline
 90
        2
 70
     0
 43
0.25
 10
306.887390013
 20
67.9484022903
 10
282.6340890396
 20
67.9481316299
  0
LWPOLYLINE
  5
270
330
22B
100
AcDbEntity
  8
0
  6
Continuous
 62
     7
100
AcDbPolyline
 90
        2
 70
     1
 43
0.25
 10
297.3402500122
 20
67.929583401
 42
1.0
 10
304.4465791108
 20
67.929583401
 42
1.0
  0
LWPOLYLINE
  5
271
330
22B
100
AcDbEntity
  8
0
  6
Continuous
 62
     7
100
AcDbPolyline
 90
        2
 70
     1
 43
0.25
 10
298.8899938405
 20
67.9474814456
 42
1.0
 10
302.9017455906
 20
67.9474814456
 42
1.0
  0
LWPOLYLINE
  5
272
330
22B
100
AcDbEntity
  8
0
  6
Continuous
 62
     7
100
AcDbPolyline
 90
        2
 70
     0
 43
0.25
 10
294.887387807
 20
71.5233346504
 10
294.8873874524
 20
64.4231317421
  0
LWPOLYLINE
  5
273
330
22B
100
AcDbEntity
  8
0
  6
Continuous
 62
     7
100
AcDbPolyline
 90
        2
 70
     0
 43
0.25
 10
294.8874158888
 20
64.4231033058
 10
284.8928586177
 20
65.9431967186
  0
LWPOLYLINE
  5
274
330
22B
100
AcDbEntity
  8
0
  6
Continuous
 62
     7
100
AcDbPolyline
 90
        2
 70
     0
 43
0.25
 10
284.890548632
 20
65.9425191771
 10
284.887881728
 20
69.9481577885
  0
LWPOLYLINE
  5
275
330
22B
100
AcDbEntity
  8
0
  6
Continuous
 62
     7
100
AcDbPolyline
 90
        2
 70
     0
 43
0.25
 10
284.8878734519
 20
69.9481495124
 10
294.8876166892
 20
71.5233067325
  0
ENDBLK
  5
276
330
22B
100
AcDbEntity
  8
0
  6
ByBlock
 62
     0
100
AcDbBlockEnd
  0
ENDSEC
  0
SECTION
  2
ENTITIES
  0
LINE
  5
2BE
330
1B
100
AcDbEntity
 67
     1
  8
0
  6
Continuous
 62
     7
100
AcDbLine
 10
0.0
 20
0.0
 30
0.0
 11
420.0
 21
0.0
 31
0.0
  0
LINE
  5
2BF
330
1B
100
AcDbEntity
 67
     1
  8
0
  6
Continuous
 62
     7
100
AcDbLine
 10
420.0
 20
0.0
 30
0.0
 11
420.0
 21
297.0
 31
0.0
  0
LINE
  5
2C0
330
1B
100
AcDbEntity
 67
     1
  8
0
  6
Continuous
 62
     7
100
AcDbLine
 10
0.0
 20
297.0
 30
0.0
 11
420.0
 21
297.0
 31
0.0
  0
LINE
  5
2C1
330
1B
100
AcDbEntity
 67
     1
  8
0
  6
Continuous
 62
     7
100
AcDbLine
 10
0.0
 20
0.0
 30
0.0
 11
0.0
 21
297.0
 31
0.0
  0
LWPOLYLINE
  5
2C2
330
1B
100
AcDbEntity
 67
     1
  8
0
  6
Continuous
 62
     7
100
AcDbPolyline
 90
        2
 70
     0
 43
0.5
 10
410.0
 20
10.0318435754
 10
410.0
 20
287.0
  0
LWPOLYLINE
  5
2C3
330
1B
100
AcDbEntity
 67
     1
  8
0
  6
Continuous
 62
     7
100
AcDbPolyline
 90
        2
 70
     0
 43
0.5
 10
10.0536312849
 20
10.0318435754
 10
10.0536312849
 20
287.0
  0
LWPOLYLINE
  5
2C4
330
1B
100
AcDbEntity
 67
     1
  8
0
  6
Continuous
 62
     7
100
AcDbPolyline
 90
        2
 70
     0
 43
0.5
 10
10.0536312849
 20
10.0318435754
 10
410.0
 20
10.0318435754
  0
LWPOLYLINE
  5
2C5
330
1B
100
AcDbEntity
 67
     1
  8
0
  6
Continuous
 62
     7
100
AcDbPolyline
 90
        2
 70
     0
 43
0.1
 10
210.0
 20
10.0
 10
210.0
 20
0.0
  0
LWPOLYLINE
  5
2C6
330
1B
100
AcDbEntity
 67
     1
  8
0
  6
Continuous
 62
     7
100
AcDbPolyline
 90
        2
 70
     0
 43
0.1
 10
210.0
 20
287.0
 10
210.0
 20
297.0
  0
LWPOLYLINE
  5
2C7
330
1B
100
AcDbEntity
 67
     1
  8
0
  6
Continuous
 62
     7
100
AcDbPolyline
 90
        2
 70
     0
 43
0.1
 10
410.0
 20
148.5
 10
420.0
 20
148.5
  0
LWPOLYLINE
  5
2C8
330
1B
100
AcDbEntity
 67
     1
  8
0
  6
Continuous
 62
     7
100
AcDbPolyline
 90
        2
 70
     0
 43
0.1
 10
10.0
 20
148.5
 10
0.0
 20
148.5
  0
LWPOLYLINE
  5
2C9
330
1B
100
AcDbEntity
 67
     1
  8
0
  6
Continuous
 62
     7
100
AcDbPolyline
 90
        2
 70
     0
 43
0.5
 10
10.0536312849
 20
287.0
 10
410.0
 20
287.0
  0
LWPOLYLINE
  5
2CA
330
1B
100
AcDbEntity
 67
     1
  8
0
  6
Continuous
 62
     7
100
AcDbPolyline
 90
        2
 70
     0
 43
0.1
 10
0.0
 20
290.0
 10
420.0
 20
290.0
  0
LWPOLYLINE
  5
2CB
330
1B
100
AcDbEntity
 67
     1
  8
0
  6
Continuous
 62
     7
100
AcDbPolyline
 90
        2
 70
     0
 43
0.1
 10
7.0536312849
 20
0.0
 10
7.0536312849
 20
297.0
  0
LWPOLYLINE
  5
2CC
330
1B
100
AcDbEntity
 67
     1
  8
0
  6
Continuous
 62
     7
100
AcDbPolyline
 90
        2
 70
     0
 43
0.1
 10
413.0
 20
0.0
 10
413.0
 20
297.0
  0
LWPOLYLINE
  5
2CD
330
1B
100
AcDbEntity
 67
     1
  8
0
  6
Continuous
 62
     7
100
AcDbPolyline
 90
        2
 70
     0
 43
0.1
 10
0.0
 20
7.0318435754
 10
420.0
 20
7.0318435754
  0
LWPOLYLINE
  5
2CE
330
1B
100
AcDbEntity
 67
     1
  8
0
  6
Continuous
 62
     7
100
AcDbPolyline
 90
        2
 70
     0
 43
0.1
 10
10.0
 20
202.9681564246
 10
0.0
 20
202.9681564246
  0
LINE
  5
2CF
330
1B
100
AcDbEntity
 67
     1
  8
0
  6
Continuous
 62
     7
100
AcDbLine
 10
0.0
 20
99.9681564246
 30
0.0
 11
7.0
 21
99.9681564246
 31
0.0
  0
LINE
  5
2D0
330
1B
100
AcDbEntity
 67
     1
  8
0
  6
Continuous
 62
     7
100
AcDbLine
 10
0.0
 20
199.9681564246
 30
0.0
 11
7.0
 21
199.9681564246
 31
0.0
  0
LWPOLYLINE
  5
2D1
330
1B
100
AcDbEntity
 67
     1
  8
0
  6
Continuous
 62
     7
100
AcDbPolyline
 90
        2
 70
     0
 43
0.1
 10
410.0
 20
210.0
 10
420.0
 20
210.0
  0
LINE
  5
2D2
330
1B
100
AcDbEntity
 67
     1
  8
0
  6
Continuous
 62
     7
100
AcDbLine
 10
413.0
 20
107.0
 30
0.0
 11
420.0
 21
107.0
 31
0.0
  0
LWPOLYLINE
  5
2D3
330
1B
100
AcDbEntity
 67
     1
  8
0
  6
Continuous
 62
     7
100
AcDbPolyline
 90
        2
 70
     0
 43
0.1
 10
123.0
 20
10.0
 10
123.0
 20
0.0
  0
LINE
  5
2D4
330
1B
100
AcDbEntity
 67
     1
  8
0
  6
Continuous
 62
     7
100
AcDbLine
 10
210.0
 20
0.0
 30
0.0
 11
210.0
 21
10.0
 31
0.0
  0
LINE
  5
2D5
330
1B
100
AcDbEntity
 67
     1
  8
0
  6
Continuous
 62
     7
100
AcDbLine
 10
313.0
 20
7.0
 30
0.0
 11
313.0
 21
0.0
 31
0.0
  0
LINE
  5
2D6
330
1B
100
AcDbEntity
 67
     1
  8
0
  6
Continuous
 62
     7
100
AcDbLine
 10
113.0
 20
7.0
 30
0.0
 11
113.0
 21
0.0
 31
0.0
  0
LWPOLYLINE
  5
2D7
330
1B
100
AcDbEntity
 67
     1
  8
0
  6
Continuous
 62
     7
100
AcDbPolyline
 90
        2
 70
     0
 43
0.1
 10
123.0
 20
287.0
 10
123.0
 20
297.0
  0
LINE
  5
2D8
330
1B
100
AcDbEntity
 67
     1
  8
0
  6
Continuous
 62
     7
100
AcDbLine
 10
210.0
 20
287.0
 30
0.0
 11
210.0
 21
297.0
 31
0.0
  0
LINE
  5
2D9
330
1B
100
AcDbEntity
 67
     1
  8
0
  6
Continuous
 62
     7
100
AcDbLine
 10
313.0
 20
297.0
 30
0.0
 11
313.0
 21
290.0
 31
0.0
  0
LINE
  5
2DA
330
1B
100
AcDbEntity
 67
     1
  8
0
  6
Continuous
 62
     7
100
AcDbLine
 10
113.0
 20
297.0
 30
0.0
 11
113.0
 21
290.0
 31
0.0
  0
MTEXT
  5
2DB
330
1B
100
AcDbEntity
 67
     1
  8
0
  6
Continuous
 62
     2
100
AcDbMText
 10
1.6467220993
 20
53.595027386
 30
0.0
 40
4.0
 41
3.4285714286
 46
0.0
 71
     1
 72
     1
  1
1
  7
TEXTSTYLE_2
 73
     1
 44
1.0
  0
MTEXT
  5
2DC
330
1B
100
AcDbEntity
 67
     1
  8
0
  6
Continuous
 62
     2
100
AcDbMText
 10
1.6467220993
 20
153.595027386
 30
0.0
 40
4.0
 41
4.7142857143
 46
0.0
 71
     1
 72
     1
  1
2
  7
TEXTSTYLE_2
 73
     1
 44
1.0
  0
MTEXT
  5
2DD
330
1B
100
AcDbEntity
 67
     1
  8
0
  6
Continuous
 62
     2
100
AcDbMText
 10
1.6467220993
 20
253.595027386
 30
0.0
 40
4.0
 41
4.2857142857
 46
0.0
 71
     1
 72
     1
  1
3
  7
TEXTSTYLE_2
 73
     1
 44
1.0
  0
MTEXT
  5
2DE
330
1B
100
AcDbEntity
 67
     1
  8
0
  6
Continuous
 62
     2
100
AcDbMText
 10
414.6467220993
 20
60.6268709614
 30
0.0
 40
4.0
 41
3.4285714286
 46
0.0
 71
     1
 72
     1
  1
1
  7
TEXTSTYLE_2
 73
     1
 44
1.0
  0
MTEXT
  5
2DF
330
1B
100
AcDbEntity
 67
     1
  8
0
  6
Continuous
 62
     2
100
AcDbMText
 10
414.6467220993
 20
160.6268709614
 30
0.0
 40
4.0
 41
4.7142857143
 46
0.0
 71
     1
 72
     1
  1
2
  7
TEXTSTYLE_2
 73
     1
 44
1.0
  0
MTEXT
  5
2E0
330
1B
100
AcDbEntity
 67
     1
  8
0
  6
Continuous
 62
     2
100
AcDbMText
 10
414.6467220993
 20
260.6268709614
 30
0.0
 40
4.0
 41
4.2857142857
 46
0.0
 71
     1
 72
     1
  1
3
  7
TEXTSTYLE_2
 73
     1
 44
1.0
  0
MTEXT
  5
2E1
330
1B
100
AcDbEntity
 67
     1
  8
0
  6
Continuous
 62
     2
100
AcDbMText
 10
362.154890719
 20
5.35876025
 30
0.0
 40
4.0
 41
3.6
 46
0.0
 71
     1
 72
     1
  1
A
  7
TEXTSTYLE_3
 73
     1
 44
1.0
  0
MTEXT
  5
2E2
330
1B
100
AcDbEntity
 67
     1
  8
0
  6
Continuous
 62
     2
100
AcDbMText
 10
262.154890719
 20
5.35876025
 30
0.0
 40
4.0
 41
3.6
 46
0.0
 71
     1
 72
     1
  1
B
  7
TEXTSTYLE_3
 73
     1
 44
1.0
  0
MTEXT
  5
2E3
330
1B
100
AcDbEntity
 67
     1
  8
0
  6
Continuous
 62
     2
100
AcDbMText
 10
162.154890719
 20
5.35876025
 30
0.0
 40
4.0
 41
3.6
 46
0.0
 71
     1
 72
     1
  1
C
  7
TEXTSTYLE_3
 73
     1
 44
1.0
  0
MTEXT
  5
2E4
330
1B
100
AcDbEntity
 67
     1
  8
0
  6
Continuous
 62
     2
100
AcDbMText
 10
55.7978688212
 20
5.5353441916
 30
0.0
 40
4.0
 41
3.6
 46
0.0
 71
     1
 72
     1
  1
D
  7
TEXTSTYLE_3
 73
     1
 44
1.0
  0
MTEXT
  5
2E5
330
1B
100
AcDbEntity
 67
     1
  8
0
  6
Continuous
 62
     2
100
AcDbMText
 10
362.154890719
 20
295.35876025
 30
0.0
 40
4.0
 41
3.6
 46
0.0
 71
     1
 72
     1
  1
A
  7
TEXTSTYLE_3
 73
     1
 44
1.0
  0
MTEXT
  5
2E6
330
1B
100
AcDbEntity
 67
     1
  8
0
  6
Continuous
 62
     2
100
AcDbMText
 10
262.154890719
 20
295.35876025
 30
0.0
 40
4.0
 41
3.6
 46
0.0
 71
     1
 72
     1
  1
B
  7
TEXTSTYLE_3
 73
     1
 44
1.0
  0
MTEXT
  5
2E7
330
1B
100
AcDbEntity
 67
     1
  8
0
  6
Continuous
 62
     2
100
AcDbMText
 10
162.154890719
 20
295.35876025
 30
0.0
 40
4.0
 41
3.6
 46
0.0
 71
     1
 72
     1
  1
C
  7
TEXTSTYLE_3
 73
     1
 44
1.0
  0
MTEXT
  5
2E8
330
1B
100
AcDbEntity
 67
     1
  8
0
  6
Continuous
 62
     2
100
AcDbMText
 10
53.9878834197
 20
295.579490177
 30
0.0
 40
4.0
 41
3.6
 46
0.0
 71
     1
 72
     1
  1
D
  7
TEXTSTYLE_3
 73
     1
 44
1.0
  0
VIEWPORT
  5
2E9
330
1B
100
AcDbEntity
 67
     1
  8
0
100
AcDbViewport
 10
0.0
 20
0.0
 30
0.0
 40
495.0770428015564
 41
350.0901945525292
 68
     1
 69
     1
 12
234.0175097276264
 22
148.5
 13
0.0
 23
0.0
 14
1.0
 24
1.0
 15
0.0
 25
0.0
 16
0.0
 26
0.0
 36
1.0
 17
0.0
 27
0.0
 37
0.0
 42
50.0
 43
0.0
 44
0.0
 45
350.0901945525292
 50
0.0
 51
0.0
 72
   100
 90
   557216
  1

281
     0
 71
     1
 74
     0
110
0.0
120
0.0
130
0.0
111
1.0
121
0.0
131
0.0
112
0.0
122
1.0
132
0.0
 79
     0
146
0.0
170
     0
 61
     5
348
484
292
     1
282
     1
141
0.0
142
0.0
 63
   256
  0
ARC
  5
2EA
330
1B
100
AcDbEntity
 67
     1
  8
3_ALL_AXES
  6
Continuous
 62
     7
100
AcDbCircle
 10
128.6909206081
 20
136.019847973
 30
0.0
 40
4.7
100
AcDbArc
 50
0.0
 51
180.0
  0
ARC
  5
2EB
330
1B
100
AcDbEntity
 67
     1
  8
3_ALL_AXES
  6
Continuous
 62
     7
100
AcDbCircle
 10
128.6909206081
 20
136.019847973
 30
0.0
 40
4.7
100
AcDbArc
 50
180.0
 51
360.0
  0
ARC
  5
2EC
330
1B
100
AcDbEntity
 67
     1
  8
3_ALL_AXES
  6
Continuous
 62
     7
100
AcDbCircle
 10
128.6909206081
 20
136.019847973
 30
0.0
 40
3.256624327
100
AcDbArc
 50
180.0
 51
360.0
  0
ARC
  5
2ED
330
1B
100
AcDbEntity
 67
     1
  8
3_ALL_AXES
  6
Continuous
 62
     7
100
AcDbCircle
 10
128.6909206081
 20
136.019847973
 30
0.0
 40
3.256624327
100
AcDbArc
 50
0.0
 51
180.0
  0
ARC
  5
2EE
330
1B
100
AcDbEntity
 67
     1
  8
3_ALL_AXES
  6
Continuous
 62
     7
100
AcDbCircle
 10
128.6909206081
 20
58.319847973
 30
0.0
 40
4.7
100
AcDbArc
 50
0.0
 51
180.0
  0
ARC
  5
2EF
330
1B
100
AcDbEntity
 67
     1
  8
3_ALL_AXES
  6
Continuous
 62
     7
100
AcDbCircle
 10
128.6909206081
 20
58.319847973
 30
0.0
 40
4.7
100
AcDbArc
 50
180.0
 51
360.0
  0
ARC
  5
2F0
330
1B
100
AcDbEntity
 67
     1
  8
3_ALL_AXES
  6
Continuous
 62
     7
100
AcDbCircle
 10
128.6909206081
 20
58.319847973
 30
0.0
 40
3.256624327
100
AcDbArc
 50
180.0
 51
360.0
  0
ARC
  5
2F1
330
1B
100
AcDbEntity
 67
     1
  8
3_ALL_AXES
  6
Continuous
 62
     7
100
AcDbCircle
 10
128.6909206081
 20
58.319847973
 30
0.0
 40
3.256624327
100
AcDbArc
 50
0.0
 51
180.0
  0
LINE
  5
2F2
330
1B
100
AcDbEntity
 67
     1
  8
03__ASM_ALL_CURVES
  6
Continuous
 62
    40
100
AcDbLine
 10
94.4909206081
 20
69.519847973
 30
0.0
 11
94.4909206081
 21
69.269847973
 31
0.0
  0
LINE
  5
2F3
330
1B
100
AcDbEntity
 67
     1
  8
03__ASM_ALL_CURVES
  6
Continuous
 62
    40
100
AcDbLine
 10
94.4909206081
 20
74.769847973
 30
0.0
 11
94.4909206081
 21
74.519847973
 31
0.0
  0
LINE
  5
2F4
330
1B
100
AcDbEntity
 67
     1
  8
03__ASM_ALL_CURVES
  6
Continuous
 62
    40
100
AcDbLine
 10
94.4909206081
 20
119.519847973
 30
0.0
 11
94.4909206081
 21
119.269847973
 31
0.0
  0
LINE
  5
2F5
330
1B
100
AcDbEntity
 67
     1
  8
03__ASM_ALL_CURVES
  6
Continuous
 62
    40
100
AcDbLine
 10
94.4909206081
 20
124.769847973
 30
0.0
 11
94.4909206081
 21
124.519847973
 31
0.0
  0
LINE
  5
2F6
330
1B
100
AcDbEntity
 67
     1
  8
7_ALL_FEATURES
  6
Continuous
 62
     7
100
AcDbLine
 10
95.9909206081
 20
69.269847973
 30
0.0
 11
95.9909206081
 21
69.519847973
 31
0.0
  0
LINE
  5
2F7
330
1B
100
AcDbEntity
 67
     1
  8
7_ALL_FEATURES
  6
Continuous
 62
     7
100
AcDbLine
 10
95.9909206081
 20
69.519847973
 30
0.0
 11
95.9909206081
 21
74.519847973
 31
0.0
  0
LINE
  5
2F8
330
1B
100
AcDbEntity
 67
     1
  8
7_ALL_FEATURES
  6
Continuous
 62
     7
100
AcDbLine
 10
95.9909206081
 20
74.519847973
 30
0.0
 11
95.9909206081
 21
74.769847973
 31
0.0
  0
LINE
  5
2F9
330
1B
100
AcDbEntity
 67
     1
  8
7_ALL_FEATURES
  6
Continuous
 62
     7
100
AcDbLine
 10
95.9909206081
 20
119.269847973
 30
0.0
 11
95.9909206081
 21
119.519847973
 31
0.0
  0
LINE
  5
2FA
330
1B
100
AcDbEntity
 67
     1
  8
7_ALL_FEATURES
  6
Continuous
 62
     7
100
AcDbLine
 10
95.9909206081
 20
119.519847973
 30
0.0
 11
95.9909206081
 21
124.519847973
 31
0.0
  0
LINE
  5
2FB
330
1B
100
AcDbEntity
 67
     1
  8
7_ALL_FEATURES
  6
Continuous
 62
     7
100
AcDbLine
 10
95.9909206081
 20
124.519847973
 30
0.0
 11
95.9909206081
 21
124.769847973
 31
0.0
  0
LINE
  5
2FC
330
1B
100
AcDbEntity
 67
     1
  8
7_ALL_FEATURES
  6
Continuous
 62
     7
100
AcDbLine
 10
161.4909206081
 20
124.519847973
 30
0.0
 11
159.9909206081
 21
124.519847973
 31
0.0
  0
LINE
  5
2FD
330
1B
100
AcDbEntity
 67
     1
  8
7_ALL_FEATURES
  6
Continuous
 62
     7
100
AcDbLine
 10
161.4909206081
 20
119.519847973
 30
0.0
 11
159.9909206081
 21
119.519847973
 31
0.0
  0
LINE
  5
2FE
330
1B
100
AcDbEntity
 67
     1
  8
7_ALL_FEATURES
  6
Continuous
 62
     7
100
AcDbLine
 10
161.4909206081
 20
74.519847973
 30
0.0
 11
159.9909206081
 21
74.519847973
 31
0.0
  0
LINE
  5
2FF
330
1B
100
AcDbEntity
 67
     1
  8
7_ALL_FEATURES
  6
Continuous
 62
     7
100
AcDbLine
 10
161.4909206081
 20
69.519847973
 30
0.0
 11
159.9909206081
 21
69.519847973
 31
0.0
  0
LINE
  5
300
330
1B
100
AcDbEntity
 67
     1
  8
7_ALL_FEATURES
  6
Continuous
 62
     7
100
AcDbLine
 10
94.4909206081
 20
69.519847973
 30
0.0
 11
95.9909206081
 21
69.519847973
 31
0.0
  0
LINE
  5
301
330
1B
100
AcDbEntity
 67
     1
  8
7_ALL_FEATURES
  6
Continuous
 62
     7
100
AcDbLine
 10
94.4909206081
 20
74.519847973
 30
0.0
 11
95.9909206081
 21
74.519847973
 31
0.0
  0
LINE
  5
302
330
1B
100
AcDbEntity
 67
     1
  8
7_ALL_FEATURES
  6
Continuous
 62
     7
100
AcDbLine
 10
94.4909206081
 20
119.519847973
 30
0.0
 11
95.9909206081
 21
119.519847973
 31
0.0
  0
LINE
  5
303
330
1B
100
AcDbEntity
 67
     1
  8
7_ALL_FEATURES
  6
Continuous
 62
     7
100
AcDbLine
 10
94.4909206081
 20
124.519847973
 30
0.0
 11
95.9909206081
 21
124.519847973
 31
0.0
  0
LINE
  5
304
330
1B
100
AcDbEntity
 67
     1
  8
7_ALL_FEATURES
  6
Continuous
 62
     7
100
AcDbLine
 10
100.4909206081
 20
130.519847973
 30
0.0
 11
100.4909206081
 21
129.019847973
 31
0.0
  0
LINE
  5
305
330
1B
100
AcDbEntity
 67
     1
  8
7_ALL_FEATURES
  6
Continuous
 62
     7
100
AcDbLine
 10
155.4909206081
 20
65.019847973
 30
0.0
 11
155.7409206081
 21
65.019847973
 31
0.0
  0
LINE
  5
306
330
1B
100
AcDbEntity
 67
     1
  8
7_ALL_FEATURES
  6
Continuous
 62
     7
100
AcDbLine
 10
105.4909206081
 20
130.519847973
 30
0.0
 11
105.4909206081
 21
129.019847973
 31
0.0
  0
LINE
  5
307
330
1B
100
AcDbEntity
 67
     1
  8
7_ALL_FEATURES
  6
Continuous
 62
     7
100
AcDbLine
 10
150.4909206081
 20
65.019847973
 30
0.0
 11
155.4909206081
 21
65.019847973
 31
0.0
  0
LINE
  5
308
330
1B
100
AcDbEntity
 67
     1
  8
7_ALL_FEATURES
  6
Continuous
 62
     7
100
AcDbLine
 10
150.4909206081
 20
130.519847973
 30
0.0
 11
150.4909206081
 21
129.019847973
 31
0.0
  0
LINE
  5
309
330
1B
100
AcDbEntity
 67
     1
  8
7_ALL_FEATURES
  6
Continuous
 62
     7
100
AcDbLine
 10
105.4909206081
 20
65.019847973
 30
0.0
 11
105.7409206081
 21
65.019847973
 31
0.0
  0
LINE
  5
30A
330
1B
100
AcDbEntity
 67
     1
  8
7_ALL_FEATURES
  6
Continuous
 62
     7
100
AcDbLine
 10
150.2409206081
 20
65.019847973
 30
0.0
 11
150.4909206081
 21
65.019847973
 31
0.0
  0
LINE
  5
30B
330
1B
100
AcDbEntity
 67
     1
  8
7_ALL_FEATURES
  6
Continuous
 62
     7
100
AcDbLine
 10
155.4909206081
 20
130.519847973
 30
0.0
 11
155.4909206081
 21
129.019847973
 31
0.0
  0
LINE
  5
30C
330
1B
100
AcDbEntity
 67
     1
  8
7_ALL_FEATURES
  6
Continuous
 62
     7
100
AcDbLine
 10
100.4909206081
 20
65.019847973
 30
0.0
 11
105.4909206081
 21
65.019847973
 31
0.0
  0
LINE
  5
30D
330
1B
100
AcDbEntity
 67
     1
  8
7_ALL_FEATURES
  6
Continuous
 62
     7
100
AcDbLine
 10
100.2409206081
 20
65.019847973
 30
0.0
 11
100.4909206081
 21
65.019847973
 31
0.0
  0
LINE
  5
30E
330
1B
100
AcDbEntity
 67
     1
  8
7_ALL_FEATURES
  6
Continuous
 62
     7
100
AcDbLine
 10
100.4909206081
 20
65.019847973
 30
0.0
 11
100.4909206081
 21
63.519847973
 31
0.0
  0
LINE
  5
30F
330
1B
100
AcDbEntity
 67
     1
  8
7_ALL_FEATURES
  6
Continuous
 62
     7
100
AcDbLine
 10
105.4909206081
 20
65.019847973
 30
0.0
 11
105.4909206081
 21
63.519847973
 31
0.0
  0
LINE
  5
310
330
1B
100
AcDbEntity
 67
     1
  8
7_ALL_FEATURES
  6
Continuous
 62
     7
100
AcDbLine
 10
150.4909206081
 20
65.019847973
 30
0.0
 11
150.4909206081
 21
63.519847973
 31
0.0
  0
LINE
  5
311
330
1B
100
AcDbEntity
 67
     1
  8
7_ALL_FEATURES
  6
Continuous
 62
     7
100
AcDbLine
 10
155.4909206081
 20
65.019847973
 30
0.0
 11
155.4909206081
 21
63.519847973
 31
0.0
  0
LINE
  5
312
330
1B
100
AcDbEntity
 67
     1
  8
7_ALL_FEATURES
  6
Continuous
 62
     7
100
AcDbLine
 10
159.9909206081
 20
69.519847973
 30
0.0
 11
159.9909206081
 21
69.269847973
 31
0.0
  0
LINE
  5
313
330
1B
100
AcDbEntity
 67
     1
  8
7_ALL_FEATURES
  6
Continuous
 62
     7
100
AcDbLine
 10
159.9909206081
 20
74.519847973
 30
0.0
 11
159.9909206081
 21
69.519847973
 31
0.0
  0
LINE
  5
314
330
1B
100
AcDbEntity
 67
     1
  8
7_ALL_FEATURES
  6
Continuous
 62
     7
100
AcDbLine
 10
159.9909206081
 20
119.519847973
 30
0.0
 11
159.9909206081
 21
119.269847973
 31
0.0
  0
LINE
  5
315
330
1B
100
AcDbEntity
 67
     1
  8
7_ALL_FEATURES
  6
Continuous
 62
     7
100
AcDbLine
 10
159.9909206081
 20
74.769847973
 30
0.0
 11
159.9909206081
 21
74.519847973
 31
0.0
  0
LINE
  5
316
330
1B
100
AcDbEntity
 67
     1
  8
7_ALL_FEATURES
  6
Continuous
 62
     7
100
AcDbLine
 10
159.9909206081
 20
124.519847973
 30
0.0
 11
159.9909206081
 21
119.519847973
 31
0.0
  0
LINE
  5
317
330
1B
100
AcDbEntity
 67
     1
  8
7_ALL_FEATURES
  6
Continuous
 62
     7
100
AcDbLine
 10
159.9909206081
 20
124.769847973
 30
0.0
 11
159.9909206081
 21
124.519847973
 31
0.0
  0
ARC
  5
318
330
1B
100
AcDbEntity
 67
     1
  8
02___PRT_ALL_AXES
  6
Continuous
 62
     7
100
AcDbCircle
 10
127.9909206081
 20
97.019847973
 30
0.0
 40
20.0
100
AcDbArc
 50
180.0
 51
360.0
  0
ARC
  5
319
330
1B
100
AcDbEntity
 67
     1
  8
02___PRT_ALL_AXES
  6
Continuous
 62
     7
100
AcDbCircle
 10
127.9909206081
 20
97.019847973
 30
0.0
 40
20.0
100
AcDbArc
 50
0.0
 51
180.0
  0
ARC
  5
31A
330
1B
100
AcDbEntity
 67
     1
  8
02___PRT_ALL_AXES
  6
Continuous
 62
     7
100
AcDbCircle
 10
104.8331735242
 20
80.933168701
 30
0.0
 40
2.75
100
AcDbArc
 50
45.0
 51
225.0
  0
LINE
  5
31B
330
1B
100
AcDbEntity
 67
     1
  8
02___PRT_ALL_AXES
  6
Continuous
 62
     7
100
AcDbLine
 10
113.8487849844
 20
75.8066445374
 30
0.0
 11
106.7777171725
 21
82.8777123492
 31
0.0
  0
ARC
  5
31C
330
1B
100
AcDbEntity
 67
     1
  8
02___PRT_ALL_AXES
  6
Continuous
 62
     7
100
AcDbCircle
 10
111.9042413361
 20
73.8621008891
 30
0.0
 40
2.75
100
AcDbArc
 50
225.0
 51
45.0
  0
LINE
  5
31D
330
1B
100
AcDbEntity
 67
     1
  8
02___PRT_ALL_AXES
  6
Continuous
 62
     7
100
AcDbLine
 10
102.888629876
 20
78.9886250527
 30
0.0
 11
109.9596976879
 21
71.9175572409
 31
0.0
  0
LINE
  5
31E
330
1B
100
AcDbEntity
 67
     1
  8
02___PRT_ALL_AXES
  6
Continuous
 62
     7
100
AcDbLine
 10
146.0221435284
 20
71.9175572409
 30
0.0
 11
153.0932113402
 21
78.9886250527
 31
0.0
  0
LINE
  5
31F
330
1B
100
AcDbEntity
 67
     1
  8
7_ALL_FEATURES
  6
Continuous
 62
     7
100
AcDbLine
 10
100.2409206081
 20
129.019847973
 30
0.0
 11
100.4909206081
 21
129.019847973
 31
0.0
  0
ARC
  5
320
330
1B
100
AcDbEntity
 67
     1
  8
02___PRT_ALL_AXES
  6
Continuous
 62
     7
100
AcDbCircle
 10
144.0775998801
 20
73.8621008891
 30
0.0
 40
2.75
100
AcDbArc
 50
135.0
 51
315.0
  0
LINE
  5
321
330
1B
100
AcDbEntity
 67
     1
  8
7_ALL_FEATURES
  6
Continuous
 62
     7
100
AcDbLine
 10
100.4909206081
 20
129.019847973
 30
0.0
 11
105.4909206081
 21
129.019847973
 31
0.0
  0
LINE
  5
322
330
1B
100
AcDbEntity
 67
     1
  8
02___PRT_ALL_AXES
  6
Continuous
 62
     7
100
AcDbLine
 10
149.2041240437
 20
82.8777123492
 30
0.0
 11
142.1330562318
 21
75.8066445374
 31
0.0
  0
LINE
  5
323
330
1B
100
AcDbEntity
 67
     1
  8
7_ALL_FEATURES
  6
Continuous
 62
     7
100
AcDbLine
 10
105.4909206081
 20
129.019847973
 30
0.0
 11
105.7409206081
 21
129.019847973
 31
0.0
  0
LINE
  5
324
330
1B
100
AcDbEntity
 67
     1
  8
7_ALL_FEATURES
  6
Continuous
 62
     7
100
AcDbLine
 10
150.2409206081
 20
129.019847973
 30
0.0
 11
150.4909206081
 21
129.019847973
 31
0.0
  0
ARC
  5
325
330
1B
100
AcDbEntity
 67
     1
  8
02___PRT_ALL_AXES
  6
Continuous
 62
     7
100
AcDbCircle
 10
151.148667692
 20
80.933168701
 30
0.0
 40
2.75
100
AcDbArc
 50
315.0
 51
135.0
  0
LINE
  5
326
330
1B
100
AcDbEntity
 67
     1
  8
7_ALL_FEATURES
  6
Continuous
 62
     7
100
AcDbLine
 10
150.4909206081
 20
129.019847973
 30
0.0
 11
155.4909206081
 21
129.019847973
 31
0.0
  0
ARC
  5
327
330
1B
100
AcDbEntity
 67
     1
  8
02___PRT_ALL_AXES
  6
Continuous
 62
     7
100
AcDbCircle
 10
151.148667692
 20
113.106527245
 30
0.0
 40
2.75
100
AcDbArc
 50
225.0
 51
45.0
  0
LINE
  5
328
330
1B
100
AcDbEntity
 67
     1
  8
7_ALL_FEATURES
  6
Continuous
 62
     7
100
AcDbLine
 10
155.4909206081
 20
129.019847973
 30
0.0
 11
155.7409206081
 21
129.019847973
 31
0.0
  0
LINE
  5
329
330
1B
100
AcDbEntity
 67
     1
  8
02___PRT_ALL_AXES
  6
Continuous
 62
     7
100
AcDbLine
 10
142.1330562318
 20
118.2330514086
 30
0.0
 11
149.2041240437
 21
111.1619835967
 31
0.0
  0
ARC
  5
32A
330
1B
100
AcDbEntity
 67
     1
  8
02___PRT_ALL_AXES
  6
Continuous
 62
     7
100
AcDbCircle
 10
144.0775998801
 20
120.1775950568
 30
0.0
 40
2.75
100
AcDbArc
 50
45.0
 51
225.0
  0
LINE
  5
32B
330
1B
100
AcDbEntity
 67
     1
  8
02___PRT_ALL_AXES
  6
Continuous
 62
     7
100
AcDbLine
 10
153.0932113402
 20
115.0510708932
 30
0.0
 11
146.0221435284
 21
122.1221387051
 31
0.0
  0
LINE
  5
32C
330
1B
100
AcDbEntity
 67
     1
  8
02___PRT_ALL_AXES
  6
Continuous
 62
     7
100
AcDbLine
 10
109.9596976879
 20
122.1221387051
 30
0.0
 11
102.888629876
 21
115.0510708932
 31
0.0
  0
ARC
  5
32D
330
1B
100
AcDbEntity
 67
     1
  8
02___PRT_ALL_AXES
  6
Continuous
 62
     7
100
AcDbCircle
 10
111.9042413361
 20
120.1775950568
 30
0.0
 40
2.75
100
AcDbArc
 50
315.0
 51
135.0
  0
LINE
  5
32E
330
1B
100
AcDbEntity
 67
     1
  8
02___PRT_ALL_AXES
  6
Continuous
 62
     7
100
AcDbLine
 10
106.7777171725
 20
111.1619835967
 30
0.0
 11
113.8487849844
 21
118.2330514086
 31
0.0
  0
ARC
  5
32F
330
1B
100
AcDbEntity
 67
     1
  8
02___PRT_ALL_AXES
  6
Continuous
 62
     7
100
AcDbCircle
 10
104.8331735242
 20
113.106527245
 30
0.0
 40
2.75
100
AcDbArc
 50
135.0
 51
315.0
  0
LINE
  5
330
330
1B
100
AcDbEntity
 67
     1
  8
7_ALL_FEATURES
  6
Continuous
 62
     7
100
AcDbLine
 10
105.7409206081
 20
65.269847973
 30
0.0
 11
100.2409206081
 21
65.269847973
 31
0.0
  0
LINE
  5
331
330
1B
100
AcDbEntity
 67
     1
  8
7_ALL_FEATURES
  6
Continuous
 62
     7
100
AcDbLine
 10
105.7409206081
 20
63.269847973
 30
0.0
 11
105.7409206081
 21
65.269847973
 31
0.0
  0
LINE
  5
332
330
1B
100
AcDbEntity
 67
     1
  8
7_ALL_FEATURES
  6
Continuous
 62
     7
100
AcDbLine
 10
100.2409206081
 20
63.269847973
 30
0.0
 11
105.7409206081
 21
63.269847973
 31
0.0
  0
LINE
  5
333
330
1B
100
AcDbEntity
 67
     1
  8
7_ALL_FEATURES
  6
Continuous
 62
     7
100
AcDbLine
 10
100.2409206081
 20
65.269847973
 30
0.0
 11
100.2409206081
 21
63.269847973
 31
0.0
  0
LINE
  5
334
330
1B
100
AcDbEntity
 67
     1
  8
7_ALL_FEATURES
  6
Continuous
 62
     7
100
AcDbLine
 10
150.2409206081
 20
63.269847973
 30
0.0
 11
155.7409206081
 21
63.269847973
 31
0.0
  0
LINE
  5
335
330
1B
100
AcDbEntity
 67
     1
  8
7_ALL_FEATURES
  6
Continuous
 62
     7
100
AcDbLine
 10
150.2409206081
 20
65.269847973
 30
0.0
 11
150.2409206081
 21
63.269847973
 31
0.0
  0
LINE
  5
336
330
1B
100
AcDbEntity
 67
     1
  8
7_ALL_FEATURES
  6
Continuous
 62
     7
100
AcDbLine
 10
155.7409206081
 20
65.269847973
 30
0.0
 11
150.2409206081
 21
65.269847973
 31
0.0
  0
LINE
  5
337
330
1B
100
AcDbEntity
 67
     1
  8
7_ALL_FEATURES
  6
Continuous
 62
     7
100
AcDbLine
 10
155.7409206081
 20
63.269847973
 30
0.0
 11
155.7409206081
 21
65.269847973
 31
0.0
  0
LINE
  5
338
330
1B
100
AcDbEntity
 67
     1
  8
7_ALL_FEATURES
  6
Continuous
 62
     7
100
AcDbLine
 10
96.2409206081
 20
119.269847973
 30
0.0
 11
96.2409206081
 21
124.769847973
 31
0.0
  0
LINE
  5
339
330
1B
100
AcDbEntity
 67
     1
  8
7_ALL_FEATURES
  6
Continuous
 62
     7
100
AcDbLine
 10
94.2409206081
 20
119.269847973
 30
0.0
 11
96.2409206081
 21
119.269847973
 31
0.0
  0
LINE
  5
33A
330
1B
100
AcDbEntity
 67
     1
  8
7_ALL_FEATURES
  6
Continuous
 62
     7
100
AcDbLine
 10
94.2409206081
 20
124.769847973
 30
0.0
 11
94.2409206081
 21
119.269847973
 31
0.0
  0
LINE
  5
33B
330
1B
100
AcDbEntity
 67
     1
  8
7_ALL_FEATURES
  6
Continuous
 62
     7
100
AcDbLine
 10
96.2409206081
 20
124.769847973
 30
0.0
 11
94.2409206081
 21
124.769847973
 31
0.0
  0
LINE
  5
33C
330
1B
100
AcDbEntity
 67
     1
  8
7_ALL_FEATURES
  6
Continuous
 62
     7
100
AcDbLine
 10
94.2409206081
 20
74.769847973
 30
0.0
 11
94.2409206081
 21
69.269847973
 31
0.0
  0
LINE
  5
33D
330
1B
100
AcDbEntity
 67
     1
  8
7_ALL_FEATURES
  6
Continuous
 62
     7
100
AcDbLine
 10
96.2409206081
 20
74.769847973
 30
0.0
 11
94.2409206081
 21
74.769847973
 31
0.0
  0
LINE
  5
33E
330
1B
100
AcDbEntity
 67
     1
  8
7_ALL_FEATURES
  6
Continuous
 62
     7
100
AcDbLine
 10
96.2409206081
 20
69.269847973
 30
0.0
 11
96.2409206081
 21
74.769847973
 31
0.0
  0
LINE
  5
33F
330
1B
100
AcDbEntity
 67
     1
  8
7_ALL_FEATURES
  6
Continuous
 62
     7
100
AcDbLine
 10
94.2409206081
 20
69.269847973
 30
0.0
 11
96.2409206081
 21
69.269847973
 31
0.0
  0
LINE
  5
340
330
1B
100
AcDbEntity
 67
     1
  8
7_ALL_FEATURES
  6
Continuous
 62
     7
100
AcDbLine
 10
150.2409206081
 20
128.769847973
 30
0.0
 11
155.7409206081
 21
128.769847973
 31
0.0
  0
LINE
  5
341
330
1B
100
AcDbEntity
 67
     1
  8
7_ALL_FEATURES
  6
Continuous
 62
     7
100
AcDbLine
 10
150.2409206081
 20
130.769847973
 30
0.0
 11
150.2409206081
 21
128.769847973
 31
0.0
  0
LINE
  5
342
330
1B
100
AcDbEntity
 67
     1
  8
7_ALL_FEATURES
  6
Continuous
 62
     7
100
AcDbLine
 10
155.7409206081
 20
130.769847973
 30
0.0
 11
150.2409206081
 21
130.769847973
 31
0.0
  0
LINE
  5
343
330
1B
100
AcDbEntity
 67
     1
  8
7_ALL_FEATURES
  6
Continuous
 62
     7
100
AcDbLine
 10
155.7409206081
 20
128.769847973
 30
0.0
 11
155.7409206081
 21
130.769847973
 31
0.0
  0
LINE
  5
344
330
1B
100
AcDbEntity
 67
     1
  8
7_ALL_FEATURES
  6
Continuous
 62
     7
100
AcDbLine
 10
105.7409206081
 20
130.769847973
 30
0.0
 11
100.2409206081
 21
130.769847973
 31
0.0
  0
LINE
  5
345
330
1B
100
AcDbEntity
 67
     1
  8
7_ALL_FEATURES
  6
Continuous
 62
     7
100
AcDbLine
 10
105.7409206081
 20
128.769847973
 30
0.0
 11
105.7409206081
 21
130.769847973
 31
0.0
  0
LINE
  5
346
330
1B
100
AcDbEntity
 67
     1
  8
7_ALL_FEATURES
  6
Continuous
 62
     7
100
AcDbLine
 10
100.2409206081
 20
128.769847973
 30
0.0
 11
105.7409206081
 21
128.769847973
 31
0.0
  0
LINE
  5
347
330
1B
100
AcDbEntity
 67
     1
  8
7_ALL_FEATURES
  6
Continuous
 62
     7
100
AcDbLine
 10
100.2409206081
 20
130.769847973
 30
0.0
 11
100.2409206081
 21
128.769847973
 31
0.0
  0
LINE
  5
348
330
1B
100
AcDbEntity
 67
     1
  8
7_ALL_FEATURES
  6
Continuous
 62
     7
100
AcDbLine
 10
159.7409206081
 20
74.769847973
 30
0.0
 11
159.7409206081
 21
69.269847973
 31
0.0
  0
LINE
  5
349
330
1B
100
AcDbEntity
 67
     1
  8
7_ALL_FEATURES
  6
Continuous
 62
     7
100
AcDbLine
 10
161.7409206081
 20
74.769847973
 30
0.0
 11
159.7409206081
 21
74.769847973
 31
0.0
  0
LINE
  5
34A
330
1B
100
AcDbEntity
 67
     1
  8
7_ALL_FEATURES
  6
Continuous
 62
     7
100
AcDbLine
 10
161.7409206081
 20
69.269847973
 30
0.0
 11
161.7409206081
 21
74.769847973
 31
0.0
  0
LINE
  5
34B
330
1B
100
AcDbEntity
 67
     1
  8
7_ALL_FEATURES
  6
Continuous
 62
     7
100
AcDbLine
 10
159.7409206081
 20
69.269847973
 30
0.0
 11
161.7409206081
 21
69.269847973
 31
0.0
  0
LINE
  5
34C
330
1B
100
AcDbEntity
 67
     1
  8
7_ALL_FEATURES
  6
Continuous
 62
     7
100
AcDbLine
 10
161.7409206081
 20
119.269847973
 30
0.0
 11
161.7409206081
 21
124.769847973
 31
0.0
  0
LINE
  5
34D
330
1B
100
AcDbEntity
 67
     1
  8
7_ALL_FEATURES
  6
Continuous
 62
     7
100
AcDbLine
 10
159.7409206081
 20
119.269847973
 30
0.0
 11
161.7409206081
 21
119.269847973
 31
0.0
  0
LINE
  5
34E
330
1B
100
AcDbEntity
 67
     1
  8
7_ALL_FEATURES
  6
Continuous
 62
     7
100
AcDbLine
 10
159.7409206081
 20
124.769847973
 30
0.0
 11
159.7409206081
 21
119.269847973
 31
0.0
  0
LINE
  5
34F
330
1B
100
AcDbEntity
 67
     1
  8
7_ALL_FEATURES
  6
Continuous
 62
     7
100
AcDbLine
 10
161.7409206081
 20
124.769847973
 30
0.0
 11
159.7409206081
 21
124.769847973
 31
0.0
  0
LINE
  5
350
330
1B
100
AcDbEntity
 67
     1
  8
7_ALL_FEATURES
  6
Continuous
 62
     7
100
AcDbLine
 10
156.4909206081
 20
68.519847973
 30
0.0
 11
156.4909206081
 21
125.519847973
 31
0.0
  0
LINE
  5
351
330
1B
100
AcDbEntity
 67
     1
  8
7_ALL_FEATURES
  6
Continuous
 62
     7
100
AcDbLine
 10
99.4909206081
 20
68.519847973
 30
0.0
 11
156.4909206081
 21
68.519847973
 31
0.0
  0
LINE
  5
352
330
1B
100
AcDbEntity
 67
     1
  8
7_ALL_FEATURES
  6
Continuous
 62
     7
100
AcDbLine
 10
99.4909206081
 20
125.519847973
 30
0.0
 11
99.4909206081
 21
68.519847973
 31
0.0
  0
LINE
  5
353
330
1B
100
AcDbEntity
 67
     1
  8
7_ALL_FEATURES
  6
Continuous
 62
     7
100
AcDbLine
 10
156.4909206081
 20
125.519847973
 30
0.0
 11
99.4909206081
 21
125.519847973
 31
0.0
  0
LINE
  5
354
330
1B
100
AcDbEntity
 67
     1
  8
7_ALL_FEATURES
  6
Continuous
 62
     7
100
AcDbLine
 10
47.4909206081
 20
138.019847973
 30
0.0
 11
47.4909206081
 21
56.019847973
 31
0.0
  0
ARC
  5
355
330
1B
100
AcDbEntity
 67
     1
  8
7_ALL_FEATURES
  6
Continuous
 62
     7
100
AcDbCircle
 10
52.4909206081
 20
56.019847973
 30
0.0
 40
5.0
100
AcDbArc
 50
180.0
 51
270.0
  0
LINE
  5
356
330
1B
100
AcDbEntity
 67
     1
  8
7_ALL_FEATURES
  6
Continuous
 62
     7
100
AcDbLine
 10
52.4909206081
 20
51.019847973
 30
0.0
 11
203.4909206081
 21
51.019847973
 31
0.0
  0
ARC
  5
357
330
1B
100
AcDbEntity
 67
     1
  8
7_ALL_FEATURES
  6
Continuous
 62
     7
100
AcDbCircle
 10
203.4909206081
 20
56.019847973
 30
0.0
 40
5.0
100
AcDbArc
 50
270.0
 51
360.0
  0
LINE
  5
358
330
1B
100
AcDbEntity
 67
     1
  8
7_ALL_FEATURES
  6
Continuous
 62
     7
100
AcDbLine
 10
208.4909206081
 20
56.019847973
 30
0.0
 11
208.4909206081
 21
138.019847973
 31
0.0
  0
ARC
  5
359
330
1B
100
AcDbEntity
 67
     1
  8
7_ALL_FEATURES
  6
Continuous
 62
     7
100
AcDbCircle
 10
203.4909206081
 20
138.019847973
 30
0.0
 40
5.0
100
AcDbArc
 50
0.0
 51
90.0
  0
LINE
  5
35A
330
1B
100
AcDbEntity
 67
     1
  8
7_ALL_FEATURES
  6
Continuous
 62
     7
100
AcDbLine
 10
203.4909206081
 20
143.019847973
 30
0.0
 11
52.4909206081
 21
143.019847973
 31
0.0
  0
ARC
  5
35B
330
1B
100
AcDbEntity
 67
     1
  8
7_ALL_FEATURES
  6
Continuous
 62
     7
100
AcDbCircle
 10
52.4909206081
 20
138.019847973
 30
0.0
 40
5.0
100
AcDbArc
 50
90.0
 51
180.0
  0
LINE
  5
35C
330
1B
100
AcDbEntity
 67
     1
  8
7_ALL_FEATURES
  6
Continuous
 62
     3
100
AcDbLine
 10
94.4909206081
 20
124.519847973
 30
0.0
 11
94.4909206081
 21
124.769847973
 31
0.0
  0
LINE
  5
35D
330
1B
100
AcDbEntity
 67
     1
  8
7_ALL_FEATURES
  6
Continuous
 62
     3
100
AcDbLine
 10
94.4909206081
 20
119.519847973
 30
0.0
 11
94.4909206081
 21
124.519847973
 31
0.0
  0
LINE
  5
35E
330
1B
100
AcDbEntity
 67
     1
  8
7_ALL_FEATURES
  6
Continuous
 62
     3
100
AcDbLine
 10
94.4909206081
 20
74.519847973
 30
0.0
 11
94.4909206081
 21
74.769847973
 31
0.0
  0
LINE
  5
35F
330
1B
100
AcDbEntity
 67
     1
  8
7_ALL_FEATURES
  6
Continuous
 62
     3
100
AcDbLine
 10
94.4909206081
 20
119.269847973
 30
0.0
 11
94.4909206081
 21
119.519847973
 31
0.0
  0
LINE
  5
360
330
1B
100
AcDbEntity
 67
     1
  8
7_ALL_FEATURES
  6
Continuous
 62
     3
100
AcDbLine
 10
94.4909206081
 20
69.519847973
 30
0.0
 11
94.4909206081
 21
74.519847973
 31
0.0
  0
LINE
  5
361
330
1B
100
AcDbEntity
 67
     1
  8
7_ALL_FEATURES
  6
Continuous
 62
     3
100
AcDbLine
 10
94.4909206081
 20
69.269847973
 30
0.0
 11
94.4909206081
 21
69.519847973
 31
0.0
  0
LINE
  5
362
330
1B
100
AcDbEntity
 67
     1
  8
7_ALL_FEATURES
  6
Continuous
 62
     3
100
AcDbLine
 10
100.2409206081
 20
63.519847973
 30
0.0
 11
100.4909206081
 21
63.519847973
 31
0.0
  0
LINE
  5
363
330
1B
100
AcDbEntity
 67
     1
  8
7_ALL_FEATURES
  6
Continuous
 62
     3
100
AcDbLine
 10
100.4909206081
 20
63.519847973
 30
0.0
 11
105.4909206081
 21
63.519847973
 31
0.0
  0
LINE
  5
364
330
1B
100
AcDbEntity
 67
     1
  8
7_ALL_FEATURES
  6
Continuous
 62
     3
100
AcDbLine
 10
105.4909206081
 20
63.519847973
 30
0.0
 11
105.7409206081
 21
63.519847973
 31
0.0
  0
LINE
  5
365
330
1B
100
AcDbEntity
 67
     1
  8
7_ALL_FEATURES
  6
Continuous
 62
     3
100
AcDbLine
 10
150.2409206081
 20
63.519847973
 30
0.0
 11
150.4909206081
 21
63.519847973
 31
0.0
  0
LINE
  5
366
330
1B
100
AcDbEntity
 67
     1
  8
7_ALL_FEATURES
  6
Continuous
 62
     3
100
AcDbLine
 10
150.4909206081
 20
63.519847973
 30
0.0
 11
155.4909206081
 21
63.519847973
 31
0.0
  0
LINE
  5
367
330
1B
100
AcDbEntity
 67
     1
  8
7_ALL_FEATURES
  6
Continuous
 62
     3
100
AcDbLine
 10
155.4909206081
 20
63.519847973
 30
0.0
 11
155.7409206081
 21
63.519847973
 31
0.0
  0
LINE
  5
368
330
1B
100
AcDbEntity
 67
     1
  8
7_ALL_FEATURES
  6
Continuous
 62
     3
100
AcDbLine
 10
161.4909206081
 20
124.769847973
 30
0.0
 11
161.4909206081
 21
124.519847973
 31
0.0
  0
LINE
  5
369
330
1B
100
AcDbEntity
 67
     1
  8
7_ALL_FEATURES
  6
Continuous
 62
     3
100
AcDbLine
 10
161.4909206081
 20
124.519847973
 30
0.0
 11
161.4909206081
 21
119.519847973
 31
0.0
  0
LINE
  5
36A
330
1B
100
AcDbEntity
 67
     1
  8
7_ALL_FEATURES
  6
Continuous
 62
     3
100
AcDbLine
 10
161.4909206081
 20
119.519847973
 30
0.0
 11
161.4909206081
 21
119.269847973
 31
0.0
  0
LINE
  5
36B
330
1B
100
AcDbEntity
 67
     1
  8
7_ALL_FEATURES
  6
Continuous
 62
     3
100
AcDbLine
 10
161.4909206081
 20
74.769847973
 30
0.0
 11
161.4909206081
 21
74.519847973
 31
0.0
  0
LINE
  5
36C
330
1B
100
AcDbEntity
 67
     1
  8
7_ALL_FEATURES
  6
Continuous
 62
     3
100
AcDbLine
 10
161.4909206081
 20
74.519847973
 30
0.0
 11
161.4909206081
 21
69.519847973
 31
0.0
  0
LINE
  5
36D
330
1B
100
AcDbEntity
 67
     1
  8
7_ALL_FEATURES
  6
Continuous
 62
     3
100
AcDbLine
 10
161.4909206081
 20
69.519847973
 30
0.0
 11
161.4909206081
 21
69.269847973
 31
0.0
  0
LINE
  5
36E
330
1B
100
AcDbEntity
 67
     1
  8
7_ALL_FEATURES
  6
Continuous
 62
     3
100
AcDbLine
 10
100.2409206081
 20
130.519847973
 30
0.0
 11
100.4909206081
 21
130.519847973
 31
0.0
  0
LINE
  5
36F
330
1B
100
AcDbEntity
 67
     1
  8
7_ALL_FEATURES
  6
Continuous
 62
     3
100
AcDbLine
 10
100.4909206081
 20
130.519847973
 30
0.0
 11
105.4909206081
 21
130.519847973
 31
0.0
  0
LINE
  5
370
330
1B
100
AcDbEntity
 67
     1
  8
7_ALL_FEATURES
  6
Continuous
 62
     3
100
AcDbLine
 10
105.4909206081
 20
130.519847973
 30
0.0
 11
105.7409206081
 21
130.519847973
 31
0.0
  0
LINE
  5
371
330
1B
100
AcDbEntity
 67
     1
  8
7_ALL_FEATURES
  6
Continuous
 62
     3
100
AcDbLine
 10
150.2409206081
 20
130.519847973
 30
0.0
 11
150.4909206081
 21
130.519847973
 31
0.0
  0
LINE
  5
372
330
1B
100
AcDbEntity
 67
     1
  8
7_ALL_FEATURES
  6
Continuous
 62
     3
100
AcDbLine
 10
150.4909206081
 20
130.519847973
 30
0.0
 11
155.4909206081
 21
130.519847973
 31
0.0
  0
LINE
  5
373
330
1B
100
AcDbEntity
 67
     1
  8
7_ALL_FEATURES
  6
Continuous
 62
     3
100
AcDbLine
 10
155.4909206081
 20
130.519847973
 30
0.0
 11
155.7409206081
 21
130.519847973
 31
0.0
  0
LINE
  5
374
330
1B
100
AcDbEntity
 67
     1
  8
3_ALL_AXES
  6
Continuous
 62
     7
100
AcDbLine
 10
132.4909206081
 20
234.9771959459
 30
0.0
 11
132.4909206081
 21
234.5971959459
 31
0.0
  0
ARC
  5
375
330
1B
100
AcDbEntity
 67
     1
  8
3_ALL_AXES
  6
Continuous
 62
     7
100
AcDbCircle
 10
128.8333634055
 20
236.4498360376
 30
0.0
 40
4.1
100
AcDbArc
 50
296.3930257743
 51
333.1366968699
  0
LINE
  5
376
330
1B
100
AcDbEntity
 67
     1
  8
3_ALL_AXES
  6
Continuous
 62
     7
100
AcDbLine
 10
124.8909206081
 20
234.9771959459
 30
0.0
 11
124.8909206081
 21
234.5971959459
 31
0.0
  0
ARC
  5
377
330
1B
100
AcDbEntity
 67
     1
  8
3_ALL_AXES
  6
Continuous
 62
     7
100
AcDbCircle
 10
128.5484778108
 20
236.4498360376
 30
0.0
 40
4.1
100
AcDbArc
 50
206.8633031301
 51
243.6069742257
  0
ARC
  5
378
330
1B
100
AcDbEntity
 67
     1
  8
3_ALL_AXES
  6
Continuous
 62
     7
100
AcDbCircle
 10
128.8333634055
 20
236.4498360376
 30
0.0
 40
4.1
100
AcDbArc
 50
296.3930257743
 51
333.1366968699
  0
LINE
  5
379
330
1B
100
AcDbEntity
 67
     1
  8
3_ALL_AXES
  6
Continuous
 62
     7
100
AcDbLine
 10
126.7259206081
 20
232.7771959459
 30
0.0
 11
127.2475449351
 21
232.7771959459
 31
0.0
  0
LINE
  5
37A
330
1B
100
AcDbEntity
 67
     1
  8
3_ALL_AXES
  6
Continuous
 62
     7
100
AcDbLine
 10
127.2475449351
 20
232.7771959459
 30
0.0
 11
127.9692327716
 21
232.7771959459
 31
0.0
  0
LINE
  5
37B
330
1B
100
AcDbEntity
 67
     1
  8
3_ALL_AXES
  6
Continuous
 62
     7
100
AcDbLine
 10
127.9692327716
 20
232.7771959459
 30
0.0
 11
129.4126084446
 21
232.7771959459
 31
0.0
  0
LINE
  5
37C
330
1B
100
AcDbEntity
 67
     1
  8
3_ALL_AXES
  6
Continuous
 62
     7
100
AcDbLine
 10
129.4126084446
 20
232.7771959459
 30
0.0
 11
130.1342962811
 21
232.7771959459
 31
0.0
  0
LINE
  5
37D
330
1B
100
AcDbEntity
 67
     1
  8
3_ALL_AXES
  6
Continuous
 62
     7
100
AcDbLine
 10
130.1342962811
 20
232.7771959459
 30
0.0
 11
130.6559206081
 21
232.7771959459
 31
0.0
  0
LINE
  5
37E
330
1B
100
AcDbEntity
 67
     1
  8
3_ALL_AXES
  6
Continuous
 62
     7
100
AcDbLine
 10
124.8909206081
 20
234.5971959459
 30
0.0
 11
124.8909206081
 21
234.9771959459
 31
0.0
  0
LINE
  5
37F
330
1B
100
AcDbEntity
 67
     1
  8
3_ALL_AXES
  6
Continuous
 62
     7
100
AcDbLine
 10
132.4909206081
 20
234.5971959459
 30
0.0
 11
132.4909206081
 21
234.9771959459
 31
0.0
  0
ARC
  5
380
330
1B
100
AcDbEntity
 67
     1
  8
3_ALL_AXES
  6
Continuous
 62
     7
100
AcDbCircle
 10
128.5484778108
 20
236.4498360376
 30
0.0
 40
4.1
100
AcDbArc
 50
206.8633031301
 51
243.6069742257
  0
LINE
  5
381
330
1B
100
AcDbEntity
 67
     1
  8
3_ALL_AXES
  6
Continuous
 62
     7
100
AcDbLine
 10
124.8909206081
 20
234.5971959459
 30
0.0
 11
132.4909206081
 21
234.5971959459
 31
0.0
  0
LINE
  5
382
330
1B
100
AcDbEntity
 67
     1
  8
3_ALL_AXES
  6
Continuous
 62
     7
100
AcDbLine
 10
131.9475449351
 20
250.4771959459
 30
0.0
 11
133.3909206081
 21
247.9771959459
 31
0.0
  0
LINE
  5
383
330
1B
100
AcDbEntity
 67
     1
  8
3_ALL_AXES
  6
Continuous
 62
     7
100
AcDbLine
 10
125.4342962811
 20
250.4771959459
 30
0.0
 11
123.9909206081
 21
247.9771959459
 31
0.0
  0
LINE
  5
384
330
1B
100
AcDbEntity
 67
     1
  8
3_ALL_AXES
  6
Continuous
 62
     7
100
AcDbLine
 10
131.9475449351
 20
250.4771959459
 30
0.0
 11
125.4342962811
 21
250.4771959459
 31
0.0
  0
LINE
  5
385
330
1B
100
AcDbEntity
 67
     1
  8
3_ALL_AXES
  6
Continuous
 62
     7
100
AcDbLine
 10
133.3909206081
 20
247.9771959459
 30
0.0
 11
133.3909206081
 21
244.0521959459
 31
0.0
  0
LINE
  5
386
330
1B
100
AcDbEntity
 67
     1
  8
3_ALL_AXES
  6
Continuous
 62
     7
100
AcDbLine
 10
123.9909206081
 20
247.9771959459
 30
0.0
 11
123.9909206081
 21
244.0521959459
 31
0.0
  0
LINE
  5
387
330
1B
100
AcDbEntity
 67
     1
  8
3_ALL_AXES
  6
Continuous
 62
     7
100
AcDbLine
 10
133.3909206081
 20
244.0521959459
 30
0.0
 11
132.0659206081
 21
242.7271959459
 31
0.0
  0
LINE
  5
388
330
1B
100
AcDbEntity
 67
     1
  8
3_ALL_AXES
  6
Continuous
 62
     7
100
AcDbLine
 10
123.9909206081
 20
244.0521959459
 30
0.0
 11
125.3159206081
 21
242.7271959459
 31
0.0
  0
LINE
  5
389
330
1B
100
AcDbEntity
 67
     1
  8
3_ALL_AXES
  6
Continuous
 62
     7
100
AcDbLine
 10
132.0659206081
 20
242.7271959459
 30
0.0
 11
133.3909206081
 21
241.4021959459
 31
0.0
  0
LINE
  5
38A
330
1B
100
AcDbEntity
 67
     1
  8
3_ALL_AXES
  6
Continuous
 62
     7
100
AcDbLine
 10
125.3159206081
 20
242.7271959459
 30
0.0
 11
123.9909206081
 21
241.4021959459
 31
0.0
  0
LINE
  5
38B
330
1B
100
AcDbEntity
 67
     1
  8
7_ALL_FEATURES
  6
Continuous
 62
     7
100
AcDbLine
 10
123.9909206081
 20
241.4021959459
 30
0.0
 11
123.9909206081
 21
236.9771959459
 31
0.0
  0
LINE
  5
38C
330
1B
100
AcDbEntity
 67
     1
  8
7_ALL_FEATURES
  6
Continuous
 62
     7
100
AcDbLine
 10
133.3909206081
 20
241.4021959459
 30
0.0
 11
133.3909206081
 21
236.9771959459
 31
0.0
  0
LINE
  5
38D
330
1B
100
AcDbEntity
 67
     1
  8
7_ALL_FEATURES
  6
Continuous
 62
     7
100
AcDbLine
 10
132.8909206081
 20
236.4771959459
 30
0.0
 11
133.3909206081
 21
236.9771959459
 31
0.0
  0
LINE
  5
38E
330
1B
100
AcDbEntity
 67
     1
  8
7_ALL_FEATURES
  6
Continuous
 62
     7
100
AcDbLine
 10
124.4909206081
 20
236.4771959459
 30
0.0
 11
123.9909206082
 21
236.9771959459
 31
0.0
  0
LINE
  5
38F
330
1B
100
AcDbEntity
 67
     1
  8
7_ALL_FEATURES
  6
Continuous
 62
     7
100
AcDbLine
 10
132.8909206081
 20
236.4771959459
 30
0.0
 11
133.3909206081
 21
236.9771959459
 31
0.0
  0
LINE
  5
390
330
1B
100
AcDbEntity
 67
     1
  8
7_ALL_FEATURES
  6
Continuous
 62
     7
100
AcDbLine
 10
124.4909206081
 20
236.4771959459
 30
0.0
 11
123.9909206081
 21
236.9771959459
 31
0.0
  0
LINE
  5
391
330
1B
100
AcDbEntity
 67
     1
  8
3_ALL_AXES
  6
Continuous
 62
     7
100
AcDbLine
 10
123.9909206081
 20
236.9771959459
 30
0.0
 11
123.9909206081
 21
241.4021959459
 31
0.0
  0
LINE
  5
392
330
1B
100
AcDbEntity
 67
     1
  8
3_ALL_AXES
  6
Continuous
 62
     7
100
AcDbLine
 10
123.9909206081
 20
241.4021959459
 30
0.0
 11
125.3159206081
 21
242.7271959459
 31
0.0
  0
LINE
  5
393
330
1B
100
AcDbEntity
 67
     1
  8
3_ALL_AXES
  6
Continuous
 62
     7
100
AcDbLine
 10
133.3909206081
 20
247.9771959459
 30
0.0
 11
131.9475449351
 21
250.4771959459
 31
0.0
  0
LINE
  5
394
330
1B
100
AcDbEntity
 67
     1
  8
3_ALL_AXES
  6
Continuous
 62
     7
100
AcDbLine
 10
125.3159206081
 20
242.7271959459
 30
0.0
 11
123.9909206081
 21
244.0521959459
 31
0.0
  0
LINE
  5
395
330
1B
100
AcDbEntity
 67
     1
  8
3_ALL_AXES
  6
Continuous
 62
     7
100
AcDbLine
 10
133.3909206081
 20
244.0521959459
 30
0.0
 11
133.3909206081
 21
247.9771959459
 31
0.0
  0
LINE
  5
396
330
1B
100
AcDbEntity
 67
     1
  8
3_ALL_AXES
  6
Continuous
 62
     7
100
AcDbLine
 10
123.9909206081
 20
244.0521959459
 30
0.0
 11
123.9909206081
 21
247.9771959459
 31
0.0
  0
LINE
  5
397
330
1B
100
AcDbEntity
 67
     1
  8
3_ALL_AXES
  6
Continuous
 62
     7
100
AcDbLine
 10
132.0659206081
 20
242.7271959459
 30
0.0
 11
133.3909206081
 21
244.0521959459
 31
0.0
  0
LINE
  5
398
330
1B
100
AcDbEntity
 67
     1
  8
3_ALL_AXES
  6
Continuous
 62
     7
100
AcDbLine
 10
123.9909206081
 20
247.9771959459
 30
0.0
 11
125.4342962811
 21
250.4771959459
 31
0.0
  0
LINE
  5
399
330
1B
100
AcDbEntity
 67
     1
  8
3_ALL_AXES
  6
Continuous
 62
     7
100
AcDbLine
 10
133.3909206081
 20
236.9771959459
 30
0.0
 11
133.3909206081
 21
241.4021959459
 31
0.0
  0
LINE
  5
39A
330
1B
100
AcDbEntity
 67
     1
  8
3_ALL_AXES
  6
Continuous
 62
     7
100
AcDbLine
 10
133.3909206081
 20
241.4021959459
 30
0.0
 11
132.0659206081
 21
242.7271959459
 31
0.0
  0
LINE
  5
39B
330
1B
100
AcDbEntity
 67
     1
  8
3_ALL_AXES
  6
Continuous
 62
     7
100
AcDbLine
 10
133.3909206081
 20
247.9771959459
 30
0.0
 11
123.9909206081
 21
247.9771959459
 31
0.0
  0
LINE
  5
39C
330
1B
100
AcDbEntity
 67
     1
  8
3_ALL_AXES
  6
Continuous
 62
     7
100
AcDbLine
 10
133.3909206081
 20
244.0521959459
 30
0.0
 11
123.9909206081
 21
244.0521959459
 31
0.0
  0
LINE
  5
39D
330
1B
100
AcDbEntity
 67
     1
  8
7_ALL_FEATURES
  6
Continuous
 62
     7
100
AcDbLine
 10
133.3909206081
 20
236.9771959459
 30
0.0
 11
123.9909206081
 21
236.9771959459
 31
0.0
  0
LINE
  5
39E
330
1B
100
AcDbEntity
 67
     1
  8
3_ALL_AXES
  6
Continuous
 62
     7
100
AcDbLine
 10
133.3909206081
 20
241.4021959459
 30
0.0
 11
123.9909206081
 21
241.4021959459
 31
0.0
  0
LINE
  5
39F
330
1B
100
AcDbEntity
 67
     1
  8
3_ALL_AXES
  6
Continuous
 62
     7
100
AcDbLine
 10
132.0659206081
 20
242.7271959459
 30
0.0
 11
125.3159206081
 21
242.7271959459
 31
0.0
  0
LINE
  5
3A0
330
1B
100
AcDbEntity
 67
     1
  8
7_ALL_FEATURES
  6
Continuous
 62
     7
100
AcDbLine
 10
52.4909206081
 20
234.9771959459
 30
0.0
 11
47.4909206081
 21
234.9771959459
 31
0.0
  0
LINE
  5
3A1
330
1B
100
AcDbEntity
 67
     1
  8
7_ALL_FEATURES
  6
Continuous
 62
     7
100
AcDbLine
 10
52.4909206081
 20
234.9771959459
 30
0.0
 11
203.4909206081
 21
234.9771959459
 31
0.0
  0
LINE
  5
3A2
330
1B
100
AcDbEntity
 67
     1
  8
7_ALL_FEATURES
  6
Continuous
 62
     7
100
AcDbLine
 10
208.4909206081
 20
234.9771959459
 30
0.0
 11
203.4909206081
 21
234.9771959459
 31
0.0
  0
LINE
  5
3A3
330
1B
100
AcDbEntity
 67
     1
  8
7_ALL_FEATURES
  6
Continuous
 62
     7
100
AcDbLine
 10
208.4909206081
 20
236.4771959459
 30
0.0
 11
208.4909206081
 21
234.9771959459
 31
0.0
  0
LINE
  5
3A4
330
1B
100
AcDbEntity
 67
     1
  8
7_ALL_FEATURES
  6
Continuous
 62
     7
100
AcDbLine
 10
208.4909206081
 20
236.4771959459
 30
0.0
 11
208.4909206081
 21
234.9771959459
 31
0.0
  0
LINE
  5
3A5
330
1B
100
AcDbEntity
 67
     1
  8
7_ALL_FEATURES
  6
Continuous
 62
     7
100
AcDbLine
 10
47.4909206081
 20
236.4771959459
 30
0.0
 11
47.4909206081
 21
234.9771959459
 31
0.0
  0
LINE
  5
3A6
330
1B
100
AcDbEntity
 67
     1
  8
7_ALL_FEATURES
  6
Continuous
 62
     7
100
AcDbLine
 10
47.4909206081
 20
236.4771959459
 30
0.0
 11
52.4909206081
 21
236.4771959459
 31
0.0
  0
LINE
  5
3A7
330
1B
100
AcDbEntity
 67
     1
  8
7_ALL_FEATURES
  6
Continuous
 62
     7
100
AcDbLine
 10
52.4909206081
 20
236.4771959459
 30
0.0
 11
203.4909206081
 21
236.4771959459
 31
0.0
  0
LINE
  5
3A8
330
1B
100
AcDbEntity
 67
     1
  8
7_ALL_FEATURES
  6
Continuous
 62
     7
100
AcDbLine
 10
203.4909206081
 20
236.4771959459
 30
0.0
 11
208.4909206081
 21
236.4771959459
 31
0.0
  0
LINE
  5
3A9
330
1B
100
AcDbEntity
 67
     1
  8
7_ALL_FEATURES
  6
Continuous
 62
     9
100
AcDbLine
 10
203.4909206081
 20
236.4771959459
 30
0.0
 11
203.4909206081
 21
234.9771959459
 31
0.0
  0
LINE
  5
3AA
330
1B
100
AcDbEntity
 67
     1
  8
7_ALL_FEATURES
  6
Continuous
 62
     9
100
AcDbLine
 10
52.4909206081
 20
236.4771959459
 30
0.0
 11
52.4909206081
 21
234.9771959459
 31
0.0
  0
LINE
  5
3AB
330
1B
100
AcDbEntity
 67
     1
  8
03__ASM_ALL_CURVES
  6
Continuous
 62
    40
100
AcDbLine
 10
94.4909206081
 20
194.9771959459
 30
0.0
 11
94.4909206081
 21
197.0771959459
 31
0.0
  0
LINE
  5
3AC
330
1B
100
AcDbEntity
 67
     1
  8
03__ASM_ALL_CURVES
  6
Continuous
 62
    40
100
AcDbLine
 10
159.3909206081
 20
194.9771959459
 30
0.0
 11
161.4909206081
 21
194.9771959459
 31
0.0
  0
LINE
  5
3AD
330
1B
100
AcDbEntity
 67
     1
  8
03__ASM_ALL_CURVES
  6
Continuous
 62
    40
100
AcDbLine
 10
96.5909206081
 20
194.9771959459
 30
0.0
 11
159.3909206081
 21
194.9771959459
 31
0.0
  0
LINE
  5
3AE
330
1B
100
AcDbEntity
 67
     1
  8
03__ASM_ALL_CURVES
  6
Continuous
 62
    40
100
AcDbLine
 10
94.4909206081
 20
194.9771959459
 30
0.0
 11
96.5909206081
 21
194.9771959459
 31
0.0
  0
LINE
  5
3AF
330
1B
100
AcDbEntity
 67
     1
  8
03__ASM_ALL_CURVES
  6
Continuous
 62
    40
100
AcDbLine
 10
94.4909206081
 20
197.0771959459
 30
0.0
 11
94.4909206081
 21
194.9771959459
 31
0.0
  0
LINE
  5
3B0
330
1B
100
AcDbEntity
 67
     1
  8
03__ASM_ALL_CURVES
  6
Continuous
 62
    40
100
AcDbLine
 10
94.4909206081
 20
234.9771959459
 30
0.0
 11
94.4909206081
 21
197.0771959459
 31
0.0
  0
LINE
  5
3B1
330
1B
100
AcDbEntity
 67
     1
  8
03__ASM_ALL_CURVES
  6
Continuous
 62
    40
100
AcDbLine
 10
96.5909206081
 20
194.9771959459
 30
0.0
 11
94.4909206081
 21
194.9771959459
 31
0.0
  0
LINE
  5
3B2
330
1B
100
AcDbEntity
 67
     1
  8
03__ASM_ALL_CURVES
  6
Continuous
 62
    40
100
AcDbLine
 10
161.4909206081
 20
194.9771959459
 30
0.0
 11
159.3909206081
 21
194.9771959459
 31
0.0
  0
LINE
  5
3B3
330
1B
100
AcDbEntity
 67
     1
  8
7_ALL_FEATURES
  6
Continuous
 62
     7
100
AcDbLine
 10
95.9909206081
 20
197.0771959459
 30
0.0
 11
95.9909206081
 21
234.9771959459
 31
0.0
  0
LINE
  5
3B4
330
1B
100
AcDbEntity
 67
     1
  8
7_ALL_FEATURES
  6
Continuous
 62
     7
100
AcDbLine
 10
159.9909206081
 20
197.0771959459
 30
0.0
 11
159.9909206081
 21
234.9771959459
 31
0.0
  0
LINE
  5
3B5
330
1B
100
AcDbEntity
 67
     1
  8
7_ALL_FEATURES
  6
Continuous
 62
     7
100
AcDbLine
 10
95.9909206081
 20
197.0771959459
 30
0.0
 11
94.4909206081
 21
197.0771959459
 31
0.0
  0
LINE
  5
3B6
330
1B
100
AcDbEntity
 67
     1
  8
7_ALL_FEATURES
  6
Continuous
 62
     7
100
AcDbLine
 10
159.9909206081
 20
197.0771959459
 30
0.0
 11
161.4909206081
 21
197.0771959459
 31
0.0
  0
ARC
  5
3B7
330
1B
100
AcDbEntity
 67
     1
  8
7_ALL_FEATURES
  6
Continuous
 62
     3
100
AcDbCircle
 10
96.5909206081
 20
197.0771959459
 30
0.0
 40
2.1
100
AcDbArc
 50
180.0
 51
270.0
  0
LINE
  5
3B8
330
1B
100
AcDbEntity
 67
     1
  8
7_ALL_FEATURES
  6
Continuous
 62
     3
100
AcDbLine
 10
94.4909206081
 20
197.0771959459
 30
0.0
 11
94.4909206081
 21
234.9771959459
 31
0.0
  0
LINE
  5
3B9
330
1B
100
AcDbEntity
 67
     1
  8
7_ALL_FEATURES
  6
Continuous
 62
     3
100
AcDbLine
 10
161.4909206081
 20
197.0771959459
 30
0.0
 11
161.4909206081
 21
234.9771959459
 31
0.0
  0
ARC
  5
3BA
330
1B
100
AcDbEntity
 67
     1
  8
7_ALL_FEATURES
  6
Continuous
 62
     3
100
AcDbCircle
 10
159.3909206081
 20
197.0771959459
 30
0.0
 40
2.1
100
AcDbArc
 50
270.0
 51
360.0
  0
SPLINE
  5
3BB
330
1B
100
AcDbEntity
 67
     1
  8
7_ALL_FEATURES
  6
Continuous
 62
     3
100
AcDbSpline
 70
     0
 71
     3
 72
    16
 73
    12
 74
     0
 42
0.000000001
 43
0.0000001
 40
0.0
 40
0.0
 40
0.0
 40
0.0
 40
0.3679649703
 40
0.5348407848
 40
0.6819873464
 40
0.8043025964
 40
0.8548747142
 40
0.8979864182
 40
0.9335128607
 40
0.961655716
 40
1.0
 40
1.0
 40
1.0
 40
1.0
 10
159.9909206081
 20
197.0771959459
 30
0.0
 10
159.9421555457
 20
196.8090960126
 30
0.0
 10
159.8715307349
 20
196.4193416931
 30
0.0
 10
159.7705471077
 20
195.9244498928
 30
0.0
 10
159.6975475834
 20
195.6096282773
 30
0.0
 10
159.6341574263
 20
195.3811011662
 30
0.0
 10
159.5813236208
 20
195.2299805171
 30
0.0
 10
159.5446154698
 20
195.1417009106
 30
0.0
 10
159.5073221909
 20
195.0712610824
 30
0.0
 10
159.4648862437
 20
195.0103182757
 30
0.0
 10
159.4193167135
 20
194.9771959459
 30
0.0
 10
159.3909206081
 20
194.9771959459
 30
0.0
  0
LINE
  5
3BC
330
1B
100
AcDbEntity
 67
     1
  8
7_ALL_FEATURES
  6
Continuous
 62
     3
100
AcDbLine
 10
96.5909206081
 20
194.9771959459
 30
0.0
 11
159.3909206081
 21
194.9771959459
 31
0.0
  0
SPLINE
  5
3BD
330
1B
100
AcDbEntity
 67
     1
  8
7_ALL_FEATURES
  6
Continuous
 62
     3
100
AcDbSpline
 70
     0
 71
     3
 72
    16
 73
    12
 74
     0
 42
0.000000001
 43
0.0000001
 40
0.0
 40
0.0
 40
0.0
 40
0.0
 40
0.3679649703
 40
0.5348407848
 40
0.6819873464
 40
0.8043025964
 40
0.8548747142
 40
0.8979864182
 40
0.9335128607
 40
0.961655716
 40
1.0
 40
1.0
 40
1.0
 40
1.0
 10
95.9909206081
 20
197.0771959459
 30
0.0
 10
96.0396856705
 20
196.8090960126
 30
0.0
 10
96.1103104813
 20
196.4193416931
 30
0.0
 10
96.2112941086
 20
195.9244498928
 30
0.0
 10
96.2842936328
 20
195.6096282773
 30
0.0
 10
96.3476837899
 20
195.3811011662
 30
0.0
 10
96.4005175954
 20
195.2299805171
 30
0.0
 10
96.4372257464
 20
195.1417009106
 30
0.0
 10
96.4745190253
 20
195.0712610824
 30
0.0
 10
96.5169549726
 20
195.0103182757
 30
0.0
 10
96.5625245028
 20
194.9771959459
 30
0.0
 10
96.5909206081
 20
194.9771959459
 30
0.0
  0
LINE
  5
3BE
330
1B
100
AcDbEntity
 67
     1
  8
7_ALL_FEATURES
  6
Continuous
 62
     3
100
AcDbLine
 10
95.9909206081
 20
197.0771959459
 30
0.0
 11
95.9909206081
 21
234.9771959459
 31
0.0
  0
LINE
  5
3BF
330
1B
100
AcDbEntity
 67
     1
  8
7_ALL_FEATURES
  6
Continuous
 62
     3
100
AcDbLine
 10
159.9909206081
 20
197.0771959459
 30
0.0
 11
159.9909206081
 21
234.9771959459
 31
0.0
  0
LINE
  5
3C0
330
1B
100
AcDbEntity
 67
     1
  8
7_ALL_FEATURES
  6
Continuous
 62
     9
100
AcDbLine
 10
159.9909206081
 20
197.0771959459
 30
0.0
 11
95.9909206081
 21
197.0771959459
 31
0.0
  0
LINE
  5
3C1
330
1B
100
AcDbEntity
 67
     1
  8
3_ALL_AXES
  6
Continuous
 62
     7
100
AcDbLine
 10
272.2192270395
 20
232.7771959459
 30
0.0
 11
270.2542270395
 21
232.7771959459
 31
0.0
  0
LINE
  5
3C2
330
1B
100
AcDbEntity
 67
     1
  8
3_ALL_AXES
  6
Continuous
 62
     7
100
AcDbLine
 10
272.2192270395
 20
232.7771959459
 30
0.0
 11
274.1842270395
 21
232.7771959459
 31
0.0
  0
ARC
  5
3C3
330
1B
100
AcDbEntity
 67
     1
  8
3_ALL_AXES
  6
Continuous
 62
     7
100
AcDbCircle
 10
272.0767842422
 20
236.4498360376
 30
0.0
 40
4.1
100
AcDbArc
 50
206.8633031301
 51
243.6069742257
  0
LINE
  5
3C4
330
1B
100
AcDbEntity
 67
     1
  8
3_ALL_AXES
  6
Continuous
 62
     7
100
AcDbLine
 10
268.4192270395
 20
234.9771959459
 30
0.0
 11
268.4192270395
 21
234.5971959459
 31
0.0
  0
ARC
  5
3C5
330
1B
100
AcDbEntity
 67
     1
  8
3_ALL_AXES
  6
Continuous
 62
     7
100
AcDbCircle
 10
272.3616698369
 20
236.4498360376
 30
0.0
 40
4.1
100
AcDbArc
 50
296.3930257743
 51
333.1366968699
  0
LINE
  5
3C6
330
1B
100
AcDbEntity
 67
     1
  8
3_ALL_AXES
  6
Continuous
 62
     7
100
AcDbLine
 10
276.0192270395
 20
234.9771959459
 30
0.0
 11
276.0192270395
 21
234.5971959459
 31
0.0
  0
LINE
  5
3C7
330
1B
100
AcDbEntity
 67
     1
  8
3_ALL_AXES
  6
Continuous
 62
     7
100
AcDbLine
 10
272.2192270395
 20
234.5971959459
 30
0.0
 11
268.4192270395
 21
234.5971959459
 31
0.0
  0
LINE
  5
3C8
330
1B
100
AcDbEntity
 67
     1
  8
3_ALL_AXES
  6
Continuous
 62
     7
100
AcDbLine
 10
272.2192270395
 20
234.5971959459
 30
0.0
 11
276.0192270395
 21
234.5971959459
 31
0.0
  0
LINE
  5
3C9
330
1B
100
AcDbEntity
 67
     1
  8
3_ALL_AXES
  6
Continuous
 62
     7
100
AcDbLine
 10
349.9192270395
 20
232.7771959459
 30
0.0
 11
347.9542270395
 21
232.7771959459
 31
0.0
  0
LINE
  5
3CA
330
1B
100
AcDbEntity
 67
     1
  8
3_ALL_AXES
  6
Continuous
 62
     7
100
AcDbLine
 10
349.9192270395
 20
232.7771959459
 30
0.0
 11
351.8842270395
 21
232.7771959459
 31
0.0
  0
ARC
  5
3CB
330
1B
100
AcDbEntity
 67
     1
  8
3_ALL_AXES
  6
Continuous
 62
     7
100
AcDbCircle
 10
349.7767842422
 20
236.4498360376
 30
0.0
 40
4.1
100
AcDbArc
 50
206.8633031301
 51
243.6069742257
  0
LINE
  5
3CC
330
1B
100
AcDbEntity
 67
     1
  8
3_ALL_AXES
  6
Continuous
 62
     7
100
AcDbLine
 10
346.1192270395
 20
234.9771959459
 30
0.0
 11
346.1192270395
 21
234.5971959459
 31
0.0
  0
ARC
  5
3CD
330
1B
100
AcDbEntity
 67
     1
  8
3_ALL_AXES
  6
Continuous
 62
     7
100
AcDbCircle
 10
350.0616698369
 20
236.4498360376
 30
0.0
 40
4.1
100
AcDbArc
 50
296.3930257743
 51
333.1366968699
  0
LINE
  5
3CE
330
1B
100
AcDbEntity
 67
     1
  8
3_ALL_AXES
  6
Continuous
 62
     7
100
AcDbLine
 10
353.7192270395
 20
234.9771959459
 30
0.0
 11
353.7192270395
 21
234.5971959459
 31
0.0
  0
LINE
  5
3CF
330
1B
100
AcDbEntity
 67
     1
  8
3_ALL_AXES
  6
Continuous
 62
     7
100
AcDbLine
 10
349.9192270395
 20
234.5971959459
 30
0.0
 11
346.1192270395
 21
234.5971959459
 31
0.0
  0
LINE
  5
3D0
330
1B
100
AcDbEntity
 67
     1
  8
3_ALL_AXES
  6
Continuous
 62
     7
100
AcDbLine
 10
349.9192270395
 20
234.5971959459
 30
0.0
 11
353.7192270395
 21
234.5971959459
 31
0.0
  0
LINE
  5
3D1
330
1B
100
AcDbEntity
 67
     1
  8
3_ALL_AXES
  6
Continuous
 62
     7
100
AcDbLine
 10
267.5192270395
 20
247.9771959459
 30
0.0
 11
268.9626027125
 21
250.4771959459
 31
0.0
  0
LINE
  5
3D2
330
1B
100
AcDbEntity
 67
     1
  8
3_ALL_AXES
  6
Continuous
 62
     7
100
AcDbLine
 10
268.9626596338
 20
250.4771959459
 30
0.0
 11
272.2192270395
 21
250.4771959459
 31
0.0
  0
LINE
  5
3D3
330
1B
100
AcDbEntity
 67
     1
  8
3_ALL_AXES
  6
Continuous
 62
     7
100
AcDbLine
 10
267.5192270395
 20
244.0521959459
 30
0.0
 11
267.5192270395
 21
247.9771959459
 31
0.0
  0
LINE
  5
3D4
330
1B
100
AcDbEntity
 67
     1
  8
3_ALL_AXES
  6
Continuous
 62
     7
100
AcDbLine
 10
268.8442270395
 20
242.7271959459
 30
0.0
 11
267.5192270395
 21
244.0521959459
 31
0.0
  0
LINE
  5
3D5
330
1B
100
AcDbEntity
 67
     1
  8
3_ALL_AXES
  6
Continuous
 62
     7
100
AcDbLine
 10
267.5192270395
 20
241.4021959459
 30
0.0
 11
268.8442270395
 21
242.7271959459
 31
0.0
  0
LINE
  5
3D6
330
1B
100
AcDbEntity
 67
     1
  8
3_ALL_AXES
  6
Continuous
 62
     7
100
AcDbLine
 10
267.5192270395
 20
236.9771959459
 30
0.0
 11
267.5192270395
 21
241.4021959459
 31
0.0
  0
LINE
  5
3D7
330
1B
100
AcDbEntity
 67
     1
  8
3_ALL_AXES
  6
Continuous
 62
     7
100
AcDbLine
 10
276.9192270395
 20
247.9771959459
 30
0.0
 11
275.4758513666
 21
250.4771959459
 31
0.0
  0
LINE
  5
3D8
330
1B
100
AcDbEntity
 67
     1
  8
3_ALL_AXES
  6
Continuous
 62
     7
100
AcDbLine
 10
275.4757944453
 20
250.4771959459
 30
0.0
 11
272.2192270395
 21
250.4771959459
 31
0.0
  0
LINE
  5
3D9
330
1B
100
AcDbEntity
 67
     1
  8
3_ALL_AXES
  6
Continuous
 62
     7
100
AcDbLine
 10
276.9192270395
 20
244.0521959459
 30
0.0
 11
276.9192270395
 21
247.9771959459
 31
0.0
  0
LINE
  5
3DA
330
1B
100
AcDbEntity
 67
     1
  8
3_ALL_AXES
  6
Continuous
 62
     7
100
AcDbLine
 10
275.5942270395
 20
242.7271959459
 30
0.0
 11
276.9192270395
 21
244.0521959459
 31
0.0
  0
LINE
  5
3DB
330
1B
100
AcDbEntity
 67
     1
  8
3_ALL_AXES
  6
Continuous
 62
     7
100
AcDbLine
 10
276.9192270395
 20
241.4021959459
 30
0.0
 11
275.5942270395
 21
242.7271959459
 31
0.0
  0
LINE
  5
3DC
330
1B
100
AcDbEntity
 67
     1
  8
3_ALL_AXES
  6
Continuous
 62
     7
100
AcDbLine
 10
276.9192270395
 20
236.9771959459
 30
0.0
 11
276.9192270395
 21
241.4021959459
 31
0.0
  0
LINE
  5
3DD
330
1B
100
AcDbEntity
 67
     1
  8
7_ALL_FEATURES
  6
Continuous
 62
     7
100
AcDbLine
 10
276.4192270395
 20
236.4771959459
 30
0.0
 11
276.9192270395
 21
236.9771959459
 31
0.0
  0
LINE
  5
3DE
330
1B
100
AcDbEntity
 67
     1
  8
7_ALL_FEATURES
  6
Continuous
 62
     7
100
AcDbLine
 10
268.0192270395
 20
236.4771959459
 30
0.0
 11
267.5192270395
 21
236.9771959459
 31
0.0
  0
LINE
  5
3DF
330
1B
100
AcDbEntity
 67
     1
  8
3_ALL_AXES
  6
Continuous
 62
     7
100
AcDbLine
 10
276.9192270395
 20
247.9771959459
 30
0.0
 11
272.2192270395
 21
247.9771959459
 31
0.0
  0
LINE
  5
3E0
330
1B
100
AcDbEntity
 67
     1
  8
3_ALL_AXES
  6
Continuous
 62
     7
100
AcDbLine
 10
276.9192270395
 20
244.0521959459
 30
0.0
 11
272.2192270395
 21
244.0521959459
 31
0.0
  0
LINE
  5
3E1
330
1B
100
AcDbEntity
 67
     1
  8
3_ALL_AXES
  6
Continuous
 62
     7
100
AcDbLine
 10
275.5942270395
 20
242.7271959459
 30
0.0
 11
272.2192270395
 21
242.7271959459
 31
0.0
  0
LINE
  5
3E2
330
1B
100
AcDbEntity
 67
     1
  8
3_ALL_AXES
  6
Continuous
 62
     7
100
AcDbLine
 10
276.9192270395
 20
241.4021959459
 30
0.0
 11
272.2192270395
 21
241.4021959459
 31
0.0
  0
LINE
  5
3E3
330
1B
100
AcDbEntity
 67
     1
  8
7_ALL_FEATURES
  6
Continuous
 62
     7
100
AcDbLine
 10
276.9192270395
 20
236.9771959459
 30
0.0
 11
272.2192270395
 21
236.9771959459
 31
0.0
  0
LINE
  5
3E4
330
1B
100
AcDbEntity
 67
     1
  8
7_ALL_FEATURES
  6
Continuous
 62
     7
100
AcDbLine
 10
272.2192270395
 20
236.9771959459
 30
0.0
 11
267.5192270395
 21
236.9771959459
 31
0.0
  0
LINE
  5
3E5
330
1B
100
AcDbEntity
 67
     1
  8
3_ALL_AXES
  6
Continuous
 62
     7
100
AcDbLine
 10
267.5192270395
 20
247.9771959459
 30
0.0
 11
272.2192270395
 21
247.9771959459
 31
0.0
  0
LINE
  5
3E6
330
1B
100
AcDbEntity
 67
     1
  8
3_ALL_AXES
  6
Continuous
 62
     7
100
AcDbLine
 10
267.5192270395
 20
244.0521959459
 30
0.0
 11
272.2192270395
 21
244.0521959459
 31
0.0
  0
LINE
  5
3E7
330
1B
100
AcDbEntity
 67
     1
  8
3_ALL_AXES
  6
Continuous
 62
     7
100
AcDbLine
 10
268.8442270395
 20
242.7271959459
 30
0.0
 11
272.2192270395
 21
242.7271959459
 31
0.0
  0
LINE
  5
3E8
330
1B
100
AcDbEntity
 67
     1
  8
3_ALL_AXES
  6
Continuous
 62
     7
100
AcDbLine
 10
267.5192270395
 20
241.4021959459
 30
0.0
 11
272.2192270395
 21
241.4021959459
 31
0.0
  0
LINE
  5
3E9
330
1B
100
AcDbEntity
 67
     1
  8
3_ALL_AXES
  6
Continuous
 62
     7
100
AcDbLine
 10
345.2192270395
 20
247.9771959459
 30
0.0
 11
346.6626027125
 21
250.4771959459
 31
0.0
  0
LINE
  5
3EA
330
1B
100
AcDbEntity
 67
     1
  8
3_ALL_AXES
  6
Continuous
 62
     7
100
AcDbLine
 10
346.6626596338
 20
250.4771959459
 30
0.0
 11
349.9192270395
 21
250.4771959459
 31
0.0
  0
LINE
  5
3EB
330
1B
100
AcDbEntity
 67
     1
  8
3_ALL_AXES
  6
Continuous
 62
     7
100
AcDbLine
 10
345.2192270395
 20
244.0521959459
 30
0.0
 11
345.2192270395
 21
247.9771959459
 31
0.0
  0
LINE
  5
3EC
330
1B
100
AcDbEntity
 67
     1
  8
3_ALL_AXES
  6
Continuous
 62
     7
100
AcDbLine
 10
346.5442270395
 20
242.7271959459
 30
0.0
 11
345.2192270395
 21
244.0521959459
 31
0.0
  0
LINE
  5
3ED
330
1B
100
AcDbEntity
 67
     1
  8
3_ALL_AXES
  6
Continuous
 62
     7
100
AcDbLine
 10
345.2192270395
 20
241.4021959459
 30
0.0
 11
346.5442270395
 21
242.7271959459
 31
0.0
  0
LINE
  5
3EE
330
1B
100
AcDbEntity
 67
     1
  8
3_ALL_AXES
  6
Continuous
 62
     7
100
AcDbLine
 10
345.2192270395
 20
236.9771959459
 30
0.0
 11
345.2192270395
 21
241.4021959459
 31
0.0
  0
LINE
  5
3EF
330
1B
100
AcDbEntity
 67
     1
  8
3_ALL_AXES
  6
Continuous
 62
     7
100
AcDbLine
 10
354.6192270395
 20
247.9771959459
 30
0.0
 11
353.1758513666
 21
250.4771959459
 31
0.0
  0
LINE
  5
3F0
330
1B
100
AcDbEntity
 67
     1
  8
3_ALL_AXES
  6
Continuous
 62
     7
100
AcDbLine
 10
353.1757944453
 20
250.4771959459
 30
0.0
 11
349.9192270395
 21
250.4771959459
 31
0.0
  0
LINE
  5
3F1
330
1B
100
AcDbEntity
 67
     1
  8
3_ALL_AXES
  6
Continuous
 62
     7
100
AcDbLine
 10
354.6192270395
 20
244.0521959459
 30
0.0
 11
354.6192270395
 21
247.9771959459
 31
0.0
  0
LINE
  5
3F2
330
1B
100
AcDbEntity
 67
     1
  8
3_ALL_AXES
  6
Continuous
 62
     7
100
AcDbLine
 10
353.2942270395
 20
242.7271959459
 30
0.0
 11
354.6192270395
 21
244.0521959459
 31
0.0
  0
LINE
  5
3F3
330
1B
100
AcDbEntity
 67
     1
  8
3_ALL_AXES
  6
Continuous
 62
     7
100
AcDbLine
 10
354.6192270395
 20
241.4021959459
 30
0.0
 11
353.2942270395
 21
242.7271959459
 31
0.0
  0
LINE
  5
3F4
330
1B
100
AcDbEntity
 67
     1
  8
3_ALL_AXES
  6
Continuous
 62
     7
100
AcDbLine
 10
354.6192270395
 20
236.9771959459
 30
0.0
 11
354.6192270395
 21
241.4021959459
 31
0.0
  0
LINE
  5
3F5
330
1B
100
AcDbEntity
 67
     1
  8
7_ALL_FEATURES
  6
Continuous
 62
     7
100
AcDbLine
 10
354.1192270395
 20
236.4771959459
 30
0.0
 11
354.6192270395
 21
236.9771959459
 31
0.0
  0
LINE
  5
3F6
330
1B
100
AcDbEntity
 67
     1
  8
7_ALL_FEATURES
  6
Continuous
 62
     7
100
AcDbLine
 10
345.7192270395
 20
236.4771959459
 30
0.0
 11
345.2192270395
 21
236.9771959459
 31
0.0
  0
LINE
  5
3F7
330
1B
100
AcDbEntity
 67
     1
  8
3_ALL_AXES
  6
Continuous
 62
     7
100
AcDbLine
 10
354.6192270395
 20
247.9771959459
 30
0.0
 11
349.9192270395
 21
247.9771959459
 31
0.0
  0
LINE
  5
3F8
330
1B
100
AcDbEntity
 67
     1
  8
3_ALL_AXES
  6
Continuous
 62
     7
100
AcDbLine
 10
354.6192270395
 20
244.0521959459
 30
0.0
 11
349.9192270395
 21
244.0521959459
 31
0.0
  0
LINE
  5
3F9
330
1B
100
AcDbEntity
 67
     1
  8
3_ALL_AXES
  6
Continuous
 62
     7
100
AcDbLine
 10
353.2942270395
 20
242.7271959459
 30
0.0
 11
349.9192270395
 21
242.7271959459
 31
0.0
  0
LINE
  5
3FA
330
1B
100
AcDbEntity
 67
     1
  8
3_ALL_AXES
  6
Continuous
 62
     7
100
AcDbLine
 10
354.6192270395
 20
241.4021959459
 30
0.0
 11
349.9192270395
 21
241.4021959459
 31
0.0
  0
LINE
  5
3FB
330
1B
100
AcDbEntity
 67
     1
  8
7_ALL_FEATURES
  6
Continuous
 62
     7
100
AcDbLine
 10
354.6192270395
 20
236.9771959459
 30
0.0
 11
349.9192270395
 21
236.9771959459
 31
0.0
  0
LINE
  5
3FC
330
1B
100
AcDbEntity
 67
     1
  8
7_ALL_FEATURES
  6
Continuous
 62
     7
100
AcDbLine
 10
349.9192270395
 20
236.9771959459
 30
0.0
 11
345.2192270395
 21
236.9771959459
 31
0.0
  0
LINE
  5
3FD
330
1B
100
AcDbEntity
 67
     1
  8
3_ALL_AXES
  6
Continuous
 62
     7
100
AcDbLine
 10
345.2192270395
 20
247.9771959459
 30
0.0
 11
349.9192270395
 21
247.9771959459
 31
0.0
  0
LINE
  5
3FE
330
1B
100
AcDbEntity
 67
     1
  8
3_ALL_AXES
  6
Continuous
 62
     7
100
AcDbLine
 10
345.2192270395
 20
244.0521959459
 30
0.0
 11
349.9192270395
 21
244.0521959459
 31
0.0
  0
LINE
  5
3FF
330
1B
100
AcDbEntity
 67
     1
  8
3_ALL_AXES
  6
Continuous
 62
     7
100
AcDbLine
 10
346.5442270395
 20
242.7271959459
 30
0.0
 11
349.9192270395
 21
242.7271959459
 31
0.0
  0
LINE
  5
400
330
1B
100
AcDbEntity
 67
     1
  8
3_ALL_AXES
  6
Continuous
 62
     7
100
AcDbLine
 10
345.2192270395
 20
241.4021959459
 30
0.0
 11
349.9192270395
 21
241.4021959459
 31
0.0
  0
LINE
  5
401
330
1B
100
AcDbEntity
 67
     1
  8
7_ALL_FEATURES
  6
Continuous
 62
     7
100
AcDbLine
 10
270.2192270395
 20
234.9771959459
 30
0.0
 11
265.2192270395
 21
234.9771959459
 31
0.0
  0
LINE
  5
402
330
1B
100
AcDbEntity
 67
     1
  8
7_ALL_FEATURES
  6
Continuous
 62
     7
100
AcDbLine
 10
270.2192270395
 20
234.9771959459
 30
0.0
 11
352.2192270395
 21
234.9771959459
 31
0.0
  0
LINE
  5
403
330
1B
100
AcDbEntity
 67
     1
  8
7_ALL_FEATURES
  6
Continuous
 62
     7
100
AcDbLine
 10
357.2192270395
 20
234.9771959459
 30
0.0
 11
352.2192270395
 21
234.9771959459
 31
0.0
  0
LINE
  5
404
330
1B
100
AcDbEntity
 67
     1
  8
7_ALL_FEATURES
  6
Continuous
 62
     7
100
AcDbLine
 10
357.2192270395
 20
236.4771959459
 30
0.0
 11
357.2192270395
 21
234.9771959459
 31
0.0
  0
LINE
  5
405
330
1B
100
AcDbEntity
 67
     1
  8
7_ALL_FEATURES
  6
Continuous
 62
     7
100
AcDbLine
 10
265.2192270395
 20
236.4771959459
 30
0.0
 11
265.2192270395
 21
234.9771959459
 31
0.0
  0
LINE
  5
406
330
1B
100
AcDbEntity
 67
     1
  8
7_ALL_FEATURES
  6
Continuous
 62
     7
100
AcDbLine
 10
357.2192270395
 20
236.4771959459
 30
0.0
 11
357.2192270395
 21
234.9771959459
 31
0.0
  0
LINE
  5
407
330
1B
100
AcDbEntity
 67
     1
  8
7_ALL_FEATURES
  6
Continuous
 62
     7
100
AcDbLine
 10
270.2192270395
 20
236.4771959459
 30
0.0
 11
352.2192270395
 21
236.4771959459
 31
0.0
  0
LINE
  5
408
330
1B
100
AcDbEntity
 67
     1
  8
7_ALL_FEATURES
  6
Continuous
 62
     7
100
AcDbLine
 10
352.2192270395
 20
236.4771959459
 30
0.0
 11
357.2192270395
 21
236.4771959459
 31
0.0
  0
LINE
  5
409
330
1B
100
AcDbEntity
 67
     1
  8
7_ALL_FEATURES
  6
Continuous
 62
     7
100
AcDbLine
 10
265.2192270395
 20
236.4771959459
 30
0.0
 11
270.2192270395
 21
236.4771959459
 31
0.0
  0
LINE
  5
40A
330
1B
100
AcDbEntity
 67
     1
  8
7_ALL_FEATURES
  6
Continuous
 62
     9
100
AcDbLine
 10
270.2192270395
 20
236.4771959459
 30
0.0
 11
270.2192270395
 21
234.9771959459
 31
0.0
  0
LINE
  5
40B
330
1B
100
AcDbEntity
 67
     1
  8
7_ALL_FEATURES
  6
Continuous
 62
     9
100
AcDbLine
 10
352.2192270395
 20
236.4771959459
 30
0.0
 11
352.2192270395
 21
234.9771959459
 31
0.0
  0
LINE
  5
40C
330
1B
100
AcDbEntity
 67
     1
  8
03__ASM_ALL_CURVES
  6
Continuous
 62
    40
100
AcDbLine
 10
279.8192270395
 20
194.9771959459
 30
0.0
 11
277.7192270395
 21
194.9771959459
 31
0.0
  0
LINE
  5
40D
330
1B
100
AcDbEntity
 67
     1
  8
03__ASM_ALL_CURVES
  6
Continuous
 62
    40
100
AcDbLine
 10
344.7192270395
 20
194.9771959459
 30
0.0
 11
342.6192270395
 21
194.9771959459
 31
0.0
  0
LINE
  5
40E
330
1B
100
AcDbEntity
 67
     1
  8
03__ASM_ALL_CURVES
  6
Continuous
 62
    40
100
AcDbLine
 10
277.7192270395
 20
197.0771959459
 30
0.0
 11
277.7192270395
 21
234.9771959459
 31
0.0
  0
LINE
  5
40F
330
1B
100
AcDbEntity
 67
     1
  8
03__ASM_ALL_CURVES
  6
Continuous
 62
    40
100
AcDbLine
 10
277.7192270395
 20
194.9771959459
 30
0.0
 11
277.7192270395
 21
197.0771959459
 31
0.0
  0
LINE
  5
410
330
1B
100
AcDbEntity
 67
     1
  8
03__ASM_ALL_CURVES
  6
Continuous
 62
    40
100
AcDbLine
 10
342.6192270395
 20
194.9771959459
 30
0.0
 11
344.7192270395
 21
194.9771959459
 31
0.0
  0
LINE
  5
411
330
1B
100
AcDbEntity
 67
     1
  8
03__ASM_ALL_CURVES
  6
Continuous
 62
    40
100
AcDbLine
 10
279.8192270395
 20
194.9771959459
 30
0.0
 11
342.6192270395
 21
194.9771959459
 31
0.0
  0
LINE
  5
412
330
1B
100
AcDbEntity
 67
     1
  8
03__ASM_ALL_CURVES
  6
Continuous
 62
    40
100
AcDbLine
 10
277.7192270395
 20
194.9771959459
 30
0.0
 11
279.8192270395
 21
194.9771959459
 31
0.0
  0
LINE
  5
413
330
1B
100
AcDbEntity
 67
     1
  8
03__ASM_ALL_CURVES
  6
Continuous
 62
    40
100
AcDbLine
 10
279.8192270395
 20
194.9771959459
 30
0.0
 11
277.7192270395
 21
194.9771959459
 31
0.0
  0
LINE
  5
414
330
1B
100
AcDbEntity
 67
     1
  8
03__ASM_ALL_CURVES
  6
Continuous
 62
    40
100
AcDbLine
 10
342.6192270395
 20
194.9771959459
 30
0.0
 11
279.8192270395
 21
194.9771959459
 31
0.0
  0
LINE
  5
415
330
1B
100
AcDbEntity
 67
     1
  8
03__ASM_ALL_CURVES
  6
Continuous
 62
    40
100
AcDbLine
 10
344.7192270395
 20
194.9771959459
 30
0.0
 11
342.6192270395
 21
194.9771959459
 31
0.0
  0
LINE
  5
416
330
1B
100
AcDbEntity
 67
     1
  8
03__ASM_ALL_CURVES
  6
Continuous
 62
    40
100
AcDbLine
 10
344.7192270395
 20
197.0771959459
 30
0.0
 11
344.7192270395
 21
194.9771959459
 31
0.0
  0
LINE
  5
417
330
1B
100
AcDbEntity
 67
     1
  8
03__ASM_ALL_CURVES
  6
Continuous
 62
    40
100
AcDbLine
 10
344.7192270395
 20
234.9771959459
 30
0.0
 11
344.7192270395
 21
197.0771959459
 31
0.0
  0
SPLINE
  5
418
330
1B
100
AcDbEntity
 67
     1
  8
7_ALL_FEATURES
  6
Continuous
 62
     3
100
AcDbSpline
 70
     0
 71
     3
 72
    14
 73
    10
 74
     0
 42
0.000000001
 43
0.0000001
 40
0.0
 40
0.0
 40
0.0
 40
0.0
 40
0.3125618488
 40
0.4584204907
 40
0.5927622594
 40
0.7133059606
 40
0.8196213019
 40
0.9135166149
 40
1.0
 40
1.0
 40
1.0
 40
1.0
 10
344.7192270395
 20
197.0771959459
 30
0.0
 10
344.5473912341
 20
196.807276894
 30
0.0
 10
344.2958239997
 20
196.410872909
 30
0.0
 10
343.9423987777
 20
195.9173234989
 30
0.0
 10
343.6833785711
 20
195.5986640985
 30
0.0
 10
343.4232216648
 20
195.3348087455
 30
0.0
 10
343.1609155044
 20
195.1345812303
 30
0.0
 10
342.8932939262
 20
195.0075191139
 30
0.0
 10
342.7077615147
 20
194.9771959459
 30
0.0
 10
342.6192270395
 20
194.9771959459
 30
0.0
  0
LINE
  5
419
330
1B
100
AcDbEntity
 67
     1
  8
7_ALL_FEATURES
  6
Continuous
 62
     3
100
AcDbLine
 10
279.8192270395
 20
194.9771959459
 30
0.0
 11
342.6192270395
 21
194.9771959459
 31
0.0
  0
SPLINE
  5
41A
330
1B
100
AcDbEntity
 67
     1
  8
7_ALL_FEATURES
  6
Continuous
 62
     3
100
AcDbSpline
 70
     0
 71
     3
 72
    14
 73
    10
 74
     0
 42
0.000000001
 43
0.0000001
 40
0.0
 40
0.0
 40
0.0
 40
0.0
 40
0.3125618488
 40
0.4584204907
 40
0.5927622594
 40
0.7133059606
 40
0.8196213019
 40
0.9135166149
 40
1.0
 40
1.0
 40
1.0
 40
1.0
 10
277.7192270395
 20
197.0771959459
 30
0.0
 10
277.8910628449
 20
196.807276894
 30
0.0
 10
278.1426300794
 20
196.410872909
 30
0.0
 10
278.4960553013
 20
195.9173234989
 30
0.0
 10
278.755075508
 20
195.5986640985
 30
0.0
 10
279.0152324143
 20
195.3348087455
 30
0.0
 10
279.2775385746
 20
195.1345812303
 30
0.0
 10
279.5451601528
 20
195.0075191139
 30
0.0
 10
279.7306925644
 20
194.9771959459
 30
0.0
 10
279.8192270395
 20
194.9771959459
 30
0.0
  0
LINE
  5
41B
330
1B
100
AcDbEntity
 67
     1
  8
7_ALL_FEATURES
  6
Continuous
 62
     3
100
AcDbLine
 10
277.7192270395
 20
197.0771959459
 30
0.0
 11
277.7192270395
 21
234.9771959459
 31
0.0
  0
LINE
  5
41C
330
1B
100
AcDbEntity
 67
     1
  8
7_ALL_FEATURES
  6
Continuous
 62
     3
100
AcDbLine
 10
344.7192270395
 20
197.0771959459
 30
0.0
 11
344.7192270395
 21
234.9771959459
 31
0.0
  0
ARC
  5
41D
330
1B
100
AcDbEntity
 67
     1
  8
7_ALL_FEATURES
  6
Continuous
 62
     3
100
AcDbCircle
 10
342.6192270395
 20
197.0771959459
 30
0.0
 40
2.1
100
AcDbArc
 50
270.0
 51
360.0
  0
ARC
  5
41E
330
1B
100
AcDbEntity
 67
     1
  8
7_ALL_FEATURES
  6
Continuous
 62
     3
100
AcDbCircle
 10
279.8192270395
 20
197.0771959459
 30
0.0
 40
2.1
100
AcDbArc
 50
180.0
 51
270.0
  0
LINE
  5
41F
330
1B
100
AcDbEntity
 67
     1
  8
7_ALL_FEATURES
  6
Continuous
 62
     9
100
AcDbLine
 10
344.7192270395
 20
197.0771959459
 30
0.0
 11
277.7192270395
 21
197.0771959459
 31
0.0
  0
DIMENSION
  5
420
330
1B
100
AcDbEntity
 67
     1
  8
0
  6
Continuous
 62
     2
100
AcDbDimension
280
     0
  2
*D1
 10
236.1391469595
 20
51.019847973
 30
0.0
 11
236.1391469595
 21
96.5912845968
 31
0.0
 70
   160
 71
     5
 42
-1.0
 73
     0
 74
     0
 75
     0
  3
DIMSTYLE_1
100
AcDbAlignedDimension
 13
203.4909206081
 23
143.019847973
 33
0.0
 14
203.4909206081
 24
51.019847973
 34
0.0
 50
270.0
100
AcDbRotatedDimension
  0
DIMENSION
  5
421
330
1B
100
AcDbEntity
 67
     1
  8
0
  6
Continuous
 62
     2
100
AcDbDimension
280
     0
  2
*D2
 10
47.4909206081
 20
28.7787162162
 30
0.0
 11
127.5623492432
 21
28.7787162162
 31
0.0
 70
   160
 71
     5
 42
-1.0
 73
     0
 74
     0
 75
     0
  3
DIMSTYLE_2
100
AcDbAlignedDimension
 13
208.4909206081
 23
56.019847973
 33
0.0
 14
47.4909206081
 24
56.019847973
 34
0.0
 50
180.0
100
AcDbRotatedDimension
  0
DIMENSION
  5
422
330
1B
100
AcDbEntity
 67
     1
  8
0
  6
Continuous
 62
     2
100
AcDbDimension
280
     0
  2
*D3
 10
221.7907373311
 20
234.9771959459
 30
0.0
 11
221.7907373311
 21
214.5486230087
 31
0.0
 70
   160
 71
     5
 42
-1.0
 73
     0
 74
     0
 75
     0
  3
DIMSTYLE_1
100
AcDbAlignedDimension
 13
211.6979476352
 23
194.9771959459
 33
0.0
 14
212.4591157095
 24
234.9771959459
 34
0.0
 50
90.0
100
AcDbRotatedDimension
  0
DIMENSION
  5
423
330
1B
100
AcDbEntity
 67
     1
  8
0
  6
Continuous
 62
     2
100
AcDbDimension
280
     0
  2
*D4
 10
32.2365608108
 20
250.4771959459
 30
0.0
 11
32.2365608108
 21
222.2986247461
 31
0.0
 70
   160
 71
     5
 42
-1.0
 73
     0
 74
     0
 75
     0
  3
DIMSTYLE_1
100
AcDbAlignedDimension
 13
55.6196368243
 23
194.9771959459
 33
0.0
 14
54.1336206054
 24
250.4771959459
 34
0.0
 50
90.0
100
AcDbRotatedDimension
  0
DIMENSION
  5
424
330
1B
100
AcDbEntity
 67
     1
  8
0
  6
Continuous
 62
     2
100
AcDbDimension
280
     0
  2
*D5
 10
221.7907373311
 20
236.4771959459
 30
0.0
 11
221.7907373311
 21
242.5924397659
 31
0.0
 70
   160
 71
     5
 42
-1.0
 73
     0
 74
     0
 75
     0
  3
DIMSTYLE_3
100
AcDbAlignedDimension
 13
212.4591157095
 23
234.9771959459
 33
0.0
 14
212.4591157095
 24
236.4771959459
 34
0.0
 50
90.0
100
AcDbRotatedDimension
  0
DIMENSION
  5
425
330
1B
100
AcDbEntity
 67
     1
  8
0
  6
Continuous
 62
     2
100
AcDbDimension
280
     0
  2
*D6
 10
349.9192270395
 20
260.1027116948
 30
0.0
 11
310.6406542969
 21
260.1027116948
 31
0.0
 70
   160
 71
     5
 42
-1.0
 73
     0
 74
     0
 75
     0
  3
DIMSTYLE_1
100
AcDbAlignedDimension
 13
272.2192270395
 23
258.2643921658
 33
0.0
 14
349.9192270395
 24
257.9739567035
 34
0.0
100
AcDbRotatedDimension
  0
DIMENSION
  5
426
330
1B
100
AcDbEntity
 67
     1
  8
0
  6
Continuous
 62
     2
100
AcDbDimension
280
     0
  2
*D7
 10
233.072305374
 20
250.4771959459
 30
0.0
 11
233.072305374
 21
243.0486275802
 31
0.0
 70
   160
 71
     5
 42
-1.0
 73
     0
 74
     0
 75
     0
  3
DIMSTYLE_4
100
AcDbAlignedDimension
 13
223.8054245652
 23
236.4771959459
 33
0.0
 14
142.7730371754
 24
250.4771959459
 34
0.0
 50
90.0
100
AcDbRotatedDimension
  0
LINE
  5
427
330
1B
100
AcDbEntity
 67
     1
  8
3_ALL_AXES
  6
CENTER
 62
     2
100
AcDbLine
 10
272.2192270395
 20
230.7771959459
 30
0.0
 11
272.2192270395
 21
261.0542248506
 31
0.0
  0
LINE
  5
428
330
1B
100
AcDbEntity
 67
     1
  8
3_ALL_AXES
  6
CENTER
 62
     2
100
AcDbLine
 10
349.9192270395
 20
230.7771959459
 30
0.0
 11
349.9192270395
 21
262.3302429952
 31
0.0
  0
LINE
  5
429
330
1B
100
AcDbEntity
 67
     1
  8
0
  6
Continuous
 62
     2
100
AcDbLine
 10
279.7607395263
 20
76.3231311552
 30
0.0
 11
409.7607395263
 21
76.3231311552
 31
0.0
  0
LINE
  5
42A
330
1B
100
AcDbEntity
 67
     1
  8
0
  6
Continuous
 62
     2
100
AcDbLine
 10
279.7607395263
 20
76.3231311552
 30
0.0
 11
279.7607395263
 21
10.3231311552
 31
0.0
  0
LINE
  5
42B
330
1B
100
AcDbEntity
 67
     1
  8
0
  6
Continuous
 62
     2
100
AcDbLine
 10
309.7607395263
 20
68.3231311552
 30
0.0
 11
409.7607395263
 21
68.3231311552
 31
0.0
  0
LINE
  5
42C
330
1B
100
AcDbEntity
 67
     1
  8
0
  6
Continuous
 62
     2
100
AcDbLine
 10
279.7607395263
 20
60.3231311552
 30
0.0
 11
409.7607395263
 21
60.3231311552
 31
0.0
  0
LINE
  5
42D
330
1B
100
AcDbEntity
 67
     1
  8
0
  6
Continuous
 62
     2
100
AcDbLine
 10
309.7607395263
 20
54.3231311552
 30
0.0
 11
409.7607395263
 21
54.3231311552
 31
0.0
  0
LINE
  5
42E
330
1B
100
AcDbEntity
 67
     1
  8
0
  6
Continuous
 62
     2
100
AcDbLine
 10
309.7607395263
 20
48.3231311552
 30
0.0
 11
409.7607395263
 21
48.3231311552
 31
0.0
  0
LINE
  5
42F
330
1B
100
AcDbEntity
 67
     1
  8
0
  6
Continuous
 62
     2
100
AcDbLine
 10
309.7607395263
 20
42.3231311552
 30
0.0
 11
409.7607395263
 21
42.3231311552
 31
0.0
  0
LINE
  5
430
330
1B
100
AcDbEntity
 67
     1
  8
0
  6
Continuous
 62
     2
100
AcDbLine
 10
309.7607395263
 20
36.3231311552
 30
0.0
 11
409.7607395263
 21
36.3231311552
 31
0.0
  0
LINE
  5
431
330
1B
100
AcDbEntity
 67
     1
  8
0
  6
Continuous
 62
     2
100
AcDbLine
 10
309.7607395263
 20
30.3231311552
 30
0.0
 11
409.7607395263
 21
30.3231311552
 31
0.0
  0
LINE
  5
432
330
1B
100
AcDbEntity
 67
     1
  8
0
  6
Continuous
 62
     2
100
AcDbLine
 10
279.7607395263
 20
24.3231311552
 30
0.0
 11
409.7607395263
 21
24.3231311552
 31
0.0
  0
LINE
  5
433
330
1B
100
AcDbEntity
 67
     1
  8
0
  6
Continuous
 62
     2
100
AcDbLine
 10
279.7607395263
 20
18.3231311552
 30
0.0
 11
409.7607395263
 21
18.3231311552
 31
0.0
  0
LINE
  5
434
330
1B
100
AcDbEntity
 67
     1
  8
0
  6
Continuous
 62
     2
100
AcDbLine
 10
279.7607395263
 20
14.3231311552
 30
0.0
 11
409.7607395263
 21
14.3231311552
 31
0.0
  0
LINE
  5
435
330
1B
100
AcDbEntity
 67
     1
  8
0
  6
Continuous
 62
     2
100
AcDbLine
 10
279.7607395263
 20
10.3231311552
 30
0.0
 11
409.7607395263
 21
10.3231311552
 31
0.0
  0
LINE
  5
436
330
1B
100
AcDbEntity
 67
     1
  8
0
  6
Continuous
 62
     2
100
AcDbLine
 10
309.7607395263
 20
76.3231311552
 30
0.0
 11
309.7607395263
 21
18.3231311552
 31
0.0
  0
LINE
  5
437
330
1B
100
AcDbEntity
 67
     1
  8
0
  6
Continuous
 62
     2
100
AcDbLine
 10
329.7607395263
 20
60.3231311552
 30
0.0
 11
329.7607395263
 21
54.3231311552
 31
0.0
  0
LINE
  5
438
330
1B
100
AcDbEntity
 67
     1
  8
0
  6
Continuous
 62
     2
100
AcDbLine
 10
359.7607395263
 20
30.3231311552
 30
0.0
 11
359.7607395263
 21
18.3231311552
 31
0.0
  0
LINE
  5
439
330
1B
100
AcDbEntity
 67
     1
  8
0
  6
Continuous
 62
     2
100
AcDbLine
 10
369.7607395263
 20
60.3231311552
 30
0.0
 11
369.7607395263
 21
54.3231311552
 31
0.0
  0
LINE
  5
43A
330
1B
100
AcDbEntity
 67
     1
  8
0
  6
Continuous
 62
     2
100
AcDbLine
 10
369.7607395263
 20
48.3231311552
 30
0.0
 11
369.7607395263
 21
42.3231311552
 31
0.0
  0
LINE
  5
43B
330
1B
100
AcDbEntity
 67
     1
  8
0
  6
Continuous
 62
     2
100
AcDbLine
 10
389.7607395263
 20
60.3231311552
 30
0.0
 11
389.7607395263
 21
54.3231311552
 31
0.0
  0
LINE
  5
43C
330
1B
100
AcDbEntity
 67
     1
  8
0
  6
Continuous
 62
     2
100
AcDbLine
 10
399.7607395263
 20
48.3231311552
 30
0.0
 11
399.7607395263
 21
42.3231311552
 31
0.0
  0
LINE
  5
43D
330
1B
100
AcDbEntity
 67
     1
  8
0
  6
Continuous
 62
     2
100
AcDbLine
 10
409.7607395263
 20
76.3231311552
 30
0.0
 11
409.7607395263
 21
10.3231311552
 31
0.0
  0
INSERT
  5
43E
330
1B
100
AcDbEntity
 67
     1
  8
0
  6
Continuous
 62
     2
100
AcDbBlockReference
  2
PROIEZIONE_EU_BL0
 10
294.7607395263
 20
67.9481311552
 30
0.0
  0
MTEXT
  5
43F
330
1B
100
AcDbEntity
 67
     1
  8
9_SOLID
  6
Continuous
 62
     2
100
AcDbMText
 10
311.2482395263
 20
74.6981311552
 30
0.0
 40
1.9
 41
142.3642857143
 46
0.0
 71
     1
 72
     1
  1
EN: Chamfer/radii unlisted 0.3x45°. Remove sharp edges.\PGen. tol.: hole H11, shaft h11, lenght Js12. UNI EN 22768 Medium Grande.
 73
     1
 44
1.0
  0
MTEXT
  5
440
330
1B
100
AcDbEntity
 67
     1
  8
9_SOLID
  6
Continuous
 62
     2
100
AcDbMText
 10
311.2482395263
 20
66.6981311552
 30
0.0
 40
1.9
 41
148.2678571429
 46
0.0
 71
     1
 72
     1
  1
IT: Sm./rac. non quotati 0.3x45°. Eliminare spigoli taglienti.\PToll. gen.: foro H11, albero h11, lunghezza Js12. UNI EN 22768 Grado Medio.
 73
     1
 44
1.0
  0
INSERT
  5
441
330
1B
100
AcDbEntity
 67
     1
  8
0
  6
Continuous
 62
     2
100
AcDbBlockReference
  2
LOGO2_BL1
 10
293.5867865711
 20
42.3231311552
 30
0.0
  0
MTEXT
  5
442
330
1B
100
AcDbEntity
 67
     1
  8
9_SOLID
  6
Continuous
 62
     2
100
AcDbMText
 10
311.2482395263
 20
58.5731311552
 30
0.0
 40
3.0
 41
22.7142857143
 46
0.0
 71
     1
 72
     1
  1
Pj: YG9
 73
     1
 44
1.0
  0
MTEXT
  5
443
330
1B
100
AcDbEntity
 67
     1
  8
9_SOLID
  6
Continuous
 62
     2
100
AcDbMText
 10
331.2482395263
 20
58.5731311552
 30
0.0
 40
3.0
 41
38.0357142857
 46
0.0
 71
     1
 72
     1
  1
% Check: %
 73
     1
 44
1.0
  0
MTEXT
  5
444
330
1B
100
AcDbEntity
 67
     1
  8
9_SOLID
  6
Continuous
 62
     2
100
AcDbMText
 10
371.2482395263
 20
58.5731311552
 30
0.0
 40
3.0
 41
19.5
 46
0.0
 71
     1
 72
     1
  1
Rev:00
 73
     1
 44
1.0
  0
MTEXT
  5
445
330
1B
100
AcDbEntity
 67
     1
  8
9_SOLID
  6
Continuous
 62
     2
100
AcDbMText
 10
391.2482395263
 20
58.8231311552
 30
0.0
 40
3.0
 41
19.7142857143
 46
0.0
 71
     1
 72
     1
  1
Ver: A
 73
     1
 44
1.0
  0
MTEXT
  5
446
330
1B
100
AcDbEntity
 67
     1
  8
9_SOLID
  6
Continuous
 62
     2
100
AcDbMText
 10
311.2482395263
 20
52.5731311552
 30
0.0
 40
3.0
 41
75.3214285714
 46
0.0
 71
     1
 72
     1
  1
Neutral code: YG9_C_002
 73
     1
 44
1.0
  0
MTEXT
  5
447
330
1B
100
AcDbEntity
 67
     1
  8
9_SOLID
  6
Continuous
 62
     2
100
AcDbMText
 10
311.2482395263
 20
46.5731311552
 30
0.0
 40
3.0
 41
19.3928571429
 46
0.0
 71
     1
 72
     1
  1
Code: 
 73
     1
 44
1.0
  0
MTEXT
  5
448
330
1B
100
AcDbEntity
 67
     1
  8
9_SOLID
  6
Continuous
 62
     2
100
AcDbMText
 10
371.2482395263
 20
46.8231311552
 30
0.0
 40
3.0
 41
27.8571428571
 46
0.0
 71
     1
 72
     1
  1
Scale: 1:1
 73
     1
 44
1.0
  0
MTEXT
  5
449
330
1B
100
AcDbEntity
 67
     1
  8
9_SOLID
  6
Continuous
 62
     2
100
AcDbMText
 10
404.7607395263
 20
46.8231311552
 30
0.0
 40
3.0
 41
7.9285714286
 46
0.0
 71
     2
 72
     1
  1
A3
 73
     1
 44
1.0
  0
MTEXT
  5
44A
330
1B
100
AcDbEntity
 67
     1
  8
9_SOLID
  6
Continuous
 62
     2
100
AcDbMText
 10
311.2482395263
 20
40.8231311552
 30
0.0
 40
3.0
 41
115.8214285714
 46
0.0
 71
     1
 72
     1
  1
It descr.: DISTANZIALE PER GEKO 5-6
 73
     1
 44
1.0
  0
MTEXT
  5
44B
330
1B
100
AcDbEntity
 67
     1
  8
9_SOLID
  6
Continuous
 62
     2
100
AcDbMText
 10
311.2482395263
 20
34.8231311552
 30
0.0
 40
3.0
 41
33.9642857143
 46
0.0
 71
     1
 72
     1
  1
En descr.: 
 73
     1
 44
1.0
  0
MTEXT
  5
44C
330
1B
100
AcDbEntity
 67
     1
  8
9_SOLID
  6
Continuous
 62
     2
100
AcDbMText
 10
311.2482395263
 20
28.8231311552
 30
0.0
 40
3.0
 41
31.6071428571
 46
0.0
 71
     1
 72
     1
  1
Des.: A.G.
 73
     1
 44
1.0
  0
MTEXT
  5
44D
330
1B
100
AcDbEntity
 67
     1
  8
9_SOLID
  6
Continuous
 62
     2
100
AcDbMText
 10
361.2482395263
 20
28.8231311552
 30
0.0
 40
3.0
 41
22.2857142857
 46
0.0
 71
     1
 72
     1
  1
Check: 
 73
     1
 44
1.0
  0
MTEXT
  5
44E
330
1B
100
AcDbEntity
 67
     1
  8
9_SOLID
  6
Continuous
 62
     2
100
AcDbMText
 10
281.2482395263
 20
22.8231311552
 30
0.0
 40
3.0
 41
41.5714285714
 46
0.0
 71
     1
 72
     1
  1
Date: 11.12.18
 73
     1
 44
1.0
  0
MTEXT
  5
44F
330
1B
100
AcDbEntity
 67
     1
  8
9_SOLID
  6
Continuous
 62
     2
100
AcDbMText
 10
311.2482395263
 20
22.8231311552
 30
0.0
 40
3.0
 41
18.2142857143
 46
0.0
 71
     1
 72
     1
  1
Mat.: 
 73
     1
 44
1.0
  0
MTEXT
  5
450
330
1B
100
AcDbEntity
 67
     1
  8
9_SOLID
  6
Continuous
 62
     2
100
AcDbMText
 10
361.2482395263
 20
22.3231311552
 30
0.0
 40
2.0
 41
42.3571428571
 46
0.0
 71
     1
 72
     1
  1
Disegno per catalogo
 73
     1
 44
1.0
  0
MTEXT
  5
451
330
1B
100
AcDbEntity
 67
     1
  8
9_SOLID
  6
Continuous
 62
     2
100
AcDbMText
 10
281.2482395263
 20
17.2231311552
 30
0.0
 40
1.8
 41
176.2071428571
 46
0.0
 71
     1
 72
     1
  1
It: A norma di legge si diffida da qualsiasi riproduzione senza nostra autorizzazione esplicita.
 73
     1
 44
1.0
  0
MTEXT
  5
452
330
1B
100
AcDbEntity
 67
     1
  8
9_SOLID
  6
Continuous
 62
     2
100
AcDbMText
 10
281.2482395263
 20
13.2231311552
 30
0.0
 40
1.8
 41
158.1428571429
 46
0.0
 71
     1
 72
     1
  1
En: According to the law, beware of any reproduction made without our authorization.
 73
     1
 44
1.0
  0
ENDSEC
  0
SECTION
  2
OBJECTS
  0
DICTIONARY
  5
453
330
0
100
AcDbDictionary
281
     1
  3
ACAD_DETAILVIEWSTYLE
350
4A9
  3
ACAD_GROUP
350
454
  3
ACAD_LAYOUT
350
47C
  3
ACAD_MATERIAL
350
498
  3
ACAD_MLEADERSTYLE
350
49E
  3
ACAD_MLINESTYLE
350
455
  3
ACAD_PLOTSETTINGS
350
457
  3
ACAD_PLOTSTYLENAME
350
458
  3
ACAD_SCALELIST
350
45A
  3
ACAD_SECTIONVIEWSTYLE
350
4AA
  3
ACAD_TABLESTYLE
350
49C
  3
ACAD_VISUALSTYLE
350
47F
  3
ACDB_RECOMPOSE_DATA
350
4A5
  3
AcDbVariableDictionary
350
4A1
  3
APPDATA
350
4A0
  0
DICTIONARY
  5
4A9
102
{ACAD_REACTORS
330
453
102
}
330
453
100
AcDbDictionary
281
     1
  0
DICTIONARY
  5
454
102
{ACAD_REACTORS
330
453
102
}
330
453
100
AcDbDictionary
281
     1
  0
DICTIONARY
  5
47C
102
{ACAD_REACTORS
330
453
102
}
330
453
100
AcDbDictionary
281
     1
  3
Foglio 1
350
47E
  3
Model
350
47D
  0
DICTIONARY
  5
498
102
{ACAD_REACTORS
330
453
102
}
330
453
100
AcDbDictionary
281
     1
  3
ByBlock
350
49A
  3
ByLayer
350
499
  3
Global
350
49B
  0
DICTIONARY
  5
49E
102
{ACAD_REACTORS
330
453
102
}
330
453
100
AcDbDictionary
281
     1
  3
Standard
350
49F
  0
DICTIONARY
  5
455
102
{ACAD_REACTORS
330
453
102
}
330
453
100
AcDbDictionary
281
     1
  3
STANDARD
350
456
  0
DICTIONARY
  5
457
102
{ACAD_REACTORS
330
453
102
}
330
453
100
AcDbDictionary
281
     1
  0
ACDBDICTIONARYWDFLT
  5
458
102
{ACAD_REACTORS
330
453
102
}
330
453
100
AcDbDictionary
281
     1
  3
Normal
350
459
100
AcDbDictionaryWithDefault
340
459
  0
DICTIONARY
  5
45A
102
{ACAD_REACTORS
330
453
102
}
330
453
100
AcDbDictionary
281
     1
  3
A0
350
45B
  3
A1
350
45C
  3
A2
350
45D
  3
A3
350
45E
  3
A4
350
45F
  3
A5
350
460
  3
A6
350
461
  3
A7
350
462
  3
A8
350
463
  3
A9
350
464
  3
B0
350
465
  3
B1
350
466
  3
B2
350
467
  3
B3
350
468
  3
B4
350
469
  3
B5
350
46A
  3
B6
350
46B
  3
B7
350
46C
  3
B8
350
46D
  3
B9
350
46E
  3
C0
350
46F
  3
C1
350
470
  3
C2
350
471
  3
C3
350
472
  3
C4
350
473
  3
C5
350
474
  3
C6
350
475
  3
C7
350
476
  3
C8
350
477
  3
C9
350
478
  3
D0
350
479
  3
D1
350
47A
  3
D2
350
47B
  0
DICTIONARY
  5
4AA
102
{ACAD_REACTORS
330
453
102
}
330
453
100
AcDbDictionary
281
     1
  0
DICTIONARY
  5
49C
102
{ACAD_REACTORS
330
453
102
}
330
453
100
AcDbDictionary
281
     1
  3
Standard
350
49D
  0
DICTIONARY
  5
47F
102
{ACAD_REACTORS
330
453
102
}
330
453
100
AcDbDictionary
281
     1
  3
2dWireframe
350
484
  3
Basic
350
487
  3
Brighten
350
48B
  3
ColorChange
350
48F
  3
Conceptual
350
489
  3
Dim
350
48A
  3
EdgeColorOff
350
492
  3
Facepattern
350
48E
  3
Flat
350
480
  3
FlatWithEdges
350
481
  3
Gouraud
350
482
  3
GouraudWithEdges
350
483
  3
Hidden
350
486
  3
JitterOff
350
490
  3
Linepattern
350
48D
  3
OverhangOff
350
491
  3
Realistic
350
488
  3
Shaded
350
497
  3
Shaded with edges
350
496
  3
Shades of Gray
350
493
  3
Sketchy
350
494
  3
Thicken
350
48C
  3
Wireframe
350
485
  3
X-Ray
350
495
  0
XRECORD
  5
4A5
102
{ACAD_REACTORS
330
453
102
}
330
453
100
AcDbXrecord
280
     1
 90
        1
330
49D
  0
DICTIONARY
  5
4A1
102
{ACAD_REACTORS
330
453
102
}
330
453
100
AcDbDictionary
281
     1
  3
CANNOSCALE
350
4A2
  3
CMLEADERSTYLE
350
4A7
  3
CTABLESTYLE
350
4A6
  3
MSLTSCALE
350
4A8
  0
DICTIONARY
  5
4A0
102
{ACAD_REACTORS
330
453
102
}
330
453
100
AcDbDictionary
281
     1
  0
LAYOUT
  5
47E
102
{ACAD_REACTORS
330
47C
102
}
330
47C
100
AcDbPlotSettings
  1

  2
none_device
  4
ISO_A3_(420.00_x_297.00_MM)
  6

 40
7.5
 41
20.0
 42
7.5
 43
20.0
 44
420.0
 45
297.0
 46
0.0
 47
0.0
 48
0.0
 49
0.0
140
0.0
141
0.0
142
1.0
143
1.155642023346303
 70
   688
 72
     1
 73
     0
 74
     1
  7

 75
     0
 76
     0
 77
     2
 78
   300
147
0.8653198653198654
148
0.0
149
0.0
100
AcDbLayout
  1
Foglio 1
 70
     1
 71
     1
 10
0.0
 20
0.0
 11
412.5
 21
277.0
 12
0.0
 22
0.0
 32
0.0
 14
0.0
 24
0.0
 34
0.0
 15
420.0
 25
297.0
 35
0.0
146
0.0
 13
0.0
 23
0.0
 33
0.0
 16
1.0
 26
0.0
 36
0.0
 17
0.0
 27
1.0
 37
0.0
 76
     0
330
1B
331
2E9
  0
LAYOUT
  5
47D
102
{ACAD_REACTORS
330
47C
102
}
330
47C
100
AcDbPlotSettings
  1

  2
none_device
  4
Letter_(8.50_x_11.00_Inches)
  6

 40
6.35
 41
6.35
 42
6.35
 43
6.35
 44
215.9
 45
279.4
 46
0.0
 47
0.0
 48
0.0
 49
0.0
140
0.0
141
0.0
142
1.0
143
52.49999999846251
 70
  1712
 72
     0
 73
     0
 74
     0
  7

 75
     0
 76
     0
 77
     2
 78
   300
147
0.0190476190481769
148
-0.0000001562100806
149
0.0
100
AcDbLayout
  1
Model
 70
     1
 71
     0
 10
0.0
 20
0.0
 11
420.0
 21
297.0
 12
0.0
 22
0.0
 32
0.0
 14
0.0
 24
0.0
 34
0.0
 15
420.0
 25
297.0
 35
0.0
146
0.0
 13
0.0
 23
0.0
 33
0.0
 16
1.0
 26
0.0
 36
0.0
 17
0.0
 27
1.0
 37
0.0
 76
     0
330
1F
331
1F4
  0
MATERIAL
  5
49A
102
{ACAD_REACTORS
330
498
102
}
330
498
100
AcDbMaterial
  1
ByBlock
 72
     1
 94
      127
  0
MATERIAL
  5
499
102
{ACAD_REACTORS
330
498
102
}
330
498
100
AcDbMaterial
  1
ByLayer
 72
     1
 94
      127
  0
MATERIAL
  5
49B
102
{ACAD_REACTORS
330
498
102
}
330
498
100
AcDbMaterial
  1
Global
 72
     1
 94
      127
  0
MLEADERSTYLE
  5
49F
102
{ACAD_REACTORS
330
49E
102
}
330
49E
100
AcDbMLeaderStyle
179
     2
170
     2
171
     1
172
     0
 90
        2
 40
0.0
 41
0.0
173
     1
 91
-1056964608
340
14
 92
       -2
290
     1
 42
2.0
291
     1
 43
8.0
  3
Standard
341
0
 44
4.0
300

342
11
174
     1
178
     1
175
     1
176
     0
 93
-1056964608
 45
4.0
292
     0
297
     0
 46
4.0
343
0
 94
-1056964608
 47
1.0
 49
1.0
140
1.0
293
     1
141
0.0
294
     1
177
     0
142
1.0
295
     0
296
     0
143
3.75
271
     0
272
     9
273
     9
298
     0
  0
MLINESTYLE
  5
456
102
{ACAD_REACTORS
330
455
102
}
330
455
100
AcDbMlineStyle
  2
STANDARD
 70
     0
  3

 62
   256
 51
90.0
 52
90.0
 71
     2
 49
0.5
 62
   256
  6
BYLAYER
 49
-0.5
 62
   256
  6
BYLAYER
  0
ACDBPLACEHOLDER
  5
459
102
{ACAD_REACTORS
330
458
102
}
330
458
  0
SCALE
  5
45B
102
{ACAD_REACTORS
330
45A
102
}
330
45A
100
AcDbScale
 70
     0
300
1:1
140
1.0
141
1.0
290
     1
  0
SCALE
  5
45C
102
{ACAD_REACTORS
330
45A
102
}
330
45A
100
AcDbScale
 70
     0
300
1:2
140
1.0
141
2.0
290
     0
  0
SCALE
  5
45D
102
{ACAD_REACTORS
330
45A
102
}
330
45A
100
AcDbScale
 70
     0
300
1:4
140
1.0
141
4.0
290
     0
  0
SCALE
  5
45E
102
{ACAD_REACTORS
330
45A
102
}
330
45A
100
AcDbScale
 70
     0
300
1:5
140
1.0
141
5.0
290
     0
  0
SCALE
  5
45F
102
{ACAD_REACTORS
330
45A
102
}
330
45A
100
AcDbScale
 70
     0
300
1:8
140
1.0
141
8.0
290
     0
  0
SCALE
  5
460
102
{ACAD_REACTORS
330
45A
102
}
330
45A
100
AcDbScale
 70
     0
300
1:10
140
1.0
141
10.0
290
     0
  0
SCALE
  5
461
102
{ACAD_REACTORS
330
45A
102
}
330
45A
100
AcDbScale
 70
     0
300
1:16
140
1.0
141
16.0
290
     0
  0
SCALE
  5
462
102
{ACAD_REACTORS
330
45A
102
}
330
45A
100
AcDbScale
 70
     0
300
1:20
140
1.0
141
20.0
290
     0
  0
SCALE
  5
463
102
{ACAD_REACTORS
330
45A
102
}
330
45A
100
AcDbScale
 70
     0
300
1:30
140
1.0
141
30.0
290
     0
  0
SCALE
  5
464
102
{ACAD_REACTORS
330
45A
102
}
330
45A
100
AcDbScale
 70
     0
300
1:40
140
1.0
141
40.0
290
     0
  0
SCALE
  5
465
102
{ACAD_REACTORS
330
45A
102
}
330
45A
100
AcDbScale
 70
     0
300
1:50
140
1.0
141
50.0
290
     0
  0
SCALE
  5
466
102
{ACAD_REACTORS
330
45A
102
}
330
45A
100
AcDbScale
 70
     0
300
1:100
140
1.0
141
100.0
290
     0
  0
SCALE
  5
467
102
{ACAD_REACTORS
330
45A
102
}
330
45A
100
AcDbScale
 70
     0
300
2:1
140
2.0
141
1.0
290
     0
  0
SCALE
  5
468
102
{ACAD_REACTORS
330
45A
102
}
330
45A
100
AcDbScale
 70
     0
300
4:1
140
4.0
141
1.0
290
     0
  0
SCALE
  5
469
102
{ACAD_REACTORS
330
45A
102
}
330
45A
100
AcDbScale
 70
     0
300
8:1
140
8.0
141
1.0
290
     0
  0
SCALE
  5
46A
102
{ACAD_REACTORS
330
45A
102
}
330
45A
100
AcDbScale
 70
     0
300
10:1
140
10.0
141
1.0
290
     0
  0
SCALE
  5
46B
102
{ACAD_REACTORS
330
45A
102
}
330
45A
100
AcDbScale
 70
     0
300
100:1
140
100.0
141
1.0
290
     0
  0
SCALE
  5
46C
102
{ACAD_REACTORS
330
45A
102
}
330
45A
100
AcDbScale
 70
     0
300
1/128" = 1'-0"
140
0.0078125
141
12.0
290
     0
  0
SCALE
  5
46D
102
{ACAD_REACTORS
330
45A
102
}
330
45A
100
AcDbScale
 70
     0
300
1/64" = 1'-0"
140
0.015625
141
12.0
290
     0
  0
SCALE
  5
46E
102
{ACAD_REACTORS
330
45A
102
}
330
45A
100
AcDbScale
 70
     0
300
1/32" = 1'-0"
140
0.03125
141
12.0
290
     0
  0
SCALE
  5
46F
102
{ACAD_REACTORS
330
45A
102
}
330
45A
100
AcDbScale
 70
     0
300
1/16" = 1'-0"
140
0.0625
141
12.0
290
     0
  0
SCALE
  5
470
102
{ACAD_REACTORS
330
45A
102
}
330
45A
100
AcDbScale
 70
     0
300
3/32" = 1'-0"
140
0.09375
141
12.0
290
     0
  0
SCALE
  5
471
102
{ACAD_REACTORS
330
45A
102
}
330
45A
100
AcDbScale
 70
     0
300
1/8" = 1'-0"
140
0.125
141
12.0
290
     0
  0
SCALE
  5
472
102
{ACAD_REACTORS
330
45A
102
}
330
45A
100
AcDbScale
 70
     0
300
3/16" = 1'-0"
140
0.1875
141
12.0
290
     0
  0
SCALE
  5
473
102
{ACAD_REACTORS
330
45A
102
}
330
45A
100
AcDbScale
 70
     0
300
1/4" = 1'-0"
140
0.25
141
12.0
290
     0
  0
SCALE
  5
474
102
{ACAD_REACTORS
330
45A
102
}
330
45A
100
AcDbScale
 70
     0
300
3/8" = 1'-0"
140
0.375
141
12.0
290
     0
  0
SCALE
  5
475
102
{ACAD_REACTORS
330
45A
102
}
330
45A
100
AcDbScale
 70
     0
300
1/2" = 1'-0"
140
0.5
141
12.0
290
     0
  0
SCALE
  5
476
102
{ACAD_REACTORS
330
45A
102
}
330
45A
100
AcDbScale
 70
     0
300
3/4" = 1'-0"
140
0.75
141
12.0
290
     0
  0
SCALE
  5
477
102
{ACAD_REACTORS
330
45A
102
}
330
45A
100
AcDbScale
 70
     0
300
1" = 1'-0"
140
1.0
141
12.0
290
     0
  0
SCALE
  5
478
102
{ACAD_REACTORS
330
45A
102
}
330
45A
100
AcDbScale
 70
     0
300
1-1/2" = 1'-0"
140
1.5
141
12.0
290
     0
  0
SCALE
  5
479
102
{ACAD_REACTORS
330
45A
102
}
330
45A
100
AcDbScale
 70
     0
300
3" = 1'-0"
140
3.0
141
12.0
290
     0
  0
SCALE
  5
47A
102
{ACAD_REACTORS
330
45A
102
}
330
45A
100
AcDbScale
 70
     0
300
6" = 1'-0"
140
6.0
141
12.0
290
     0
  0
SCALE
  5
47B
102
{ACAD_REACTORS
330
45A
102
}
330
45A
100
AcDbScale
 70
     0
300
1'-0" = 1'-0"
140
12.0
141
12.0
290
     0
  0
TABLESTYLE
  5
49D
102
{ACAD_REACTORS
330
49C
102
}
102
{ACAD_XDICTIONARY
360
4A3
102
}
330
49C
100
AcDbTableStyle
  3
Standard
 70
     0
 71
     0
 40
0.06
 41
0.06
280
     0
281
     0
  7
STANDARD
140
4.5
170
     2
 62
     0
 63
   257
283
     0
 90
        4
 91
        0
  1

274
    -2
284
     1
 64
     0
275
    -2
285
     1
 65
     0
276
    -2
286
     1
 66
     0
277
    -2
287
     1
 67
     0
278
    -2
288
     1
 68
     0
279
    -2
289
     1
 69
     0
  7
STANDARD
140
6.0
170
     5
 62
     0
 63
   257
283
     0
 90
        4
 91
        0
  1

274
    -2
284
     1
 64
     0
275
    -2
285
     1
 65
     0
276
    -2
286
     1
 66
     0
277
    -2
287
     1
 67
     0
278
    -2
288
     1
 68
     0
279
    -2
289
     1
 69
     0
  7
STANDARD
140
4.5
170
     5
 62
     0
 63
   257
283
     0
 90
        4
 91
        0
  1

274
    -2
284
     1
 64
     0
275
    -2
285
     1
 65
     0
276
    -2
286
     1
 66
     0
277
    -2
287
     1
 67
     0
278
    -2
288
     1
 68
     0
279
    -2
289
     1
 69
     0
  0
VISUALSTYLE
  5
484
102
{ACAD_REACTORS
330
47F
102
}
330
47F
100
AcDbVisualStyle
  2
2dWireframe
 70
     4
177
     3
291
     0
 70
    58
 90
        0
176
     1
 90
        2
176
     1
 90
        0
176
     1
 90
        0
176
     1
 40
0.6
176
     1
 40
30.0
176
     1
 62
     7
420
 16777215
176
     1
 90
        1
176
     1
 90
        4
176
     1
 62
     7
176
     1
 62
   257
176
     1
 90
        1
176
     1
 90
        1
176
     1
 40
1.0
176
     1
 90
        0
176
     1
 62
   257
176
     1
 40
1.0
176
     1
 90
        1
176
     1
 90
        6
176
     1
 90
        2
176
     1
 62
     7
176
     1
 90
        5
176
     1
 90
        0
176
     1
 90
        0
176
     1
290
     0
176
     1
 90
        1
176
     1
 40
0.0
176
     1
 90
        0
176
     1
290
     1
176
     1
290
     1
176
     1
290
     0
176
     1
290
     0
176
     1
290
     0
176
     1
290
     0
176
     1
290
     0
176
     1
290
     0
176
     1
290
     0
176
     1
 90
       50
176
     1
 40
0.0
176
     1
 40
1.0
176
     1
 90
        0
176
     1
 62
    18
420
        0
176
     1
 90
       50
176
     1
 90
        3
176
     1
 62
     5
420
      255
176
     1
290
     0
176
     1
 90
       50
176
     1
 90
       50
176
     1
 90
       50
176
     1
290
     0
176
     1
 90
       50
176
     1
 62
   256
176
     0
 40
1.0
176
     0
 90
        2
176
     1
  1
strokes_ogs.tif
176
     1
290
     0
176
     1
 40
1.0
176
     1
 40
1.0
176
     1
  0
VISUALSTYLE
  5
487
102
{ACAD_REACTORS
330
47F
102
}
330
47F
100
AcDbVisualStyle
  2
Basic
 70
     7
177
     3
291
     1
 70
    58
 90
        1
176
     1
 90
        0
176
     1
 90
        1
176
     1
 90
        0
176
     1
 40
0.6
176
     1
 40
30.0
176
     1
 62
     7
420
 16777215
176
     1
 90
        0
176
     1
 90
        4
176
     1
 62
     7
176
     1
 62
   257
176
     1
 90
        1
176
     1
 90
        1
176
     1
 40
1.0
176
     1
 90
        8
176
     1
 62
     7
176
     1
 40
1.0
176
     1
 90
        1
176
     1
 90
        6
176
     1
 90
        2
176
     1
 62
     7
176
     1
 90
        5
176
     1
 90
        0
176
     1
 90
        0
176
     1
290
     0
176
     1
 90
        1
176
     1
 40
0.0
176
     1
 90
        0
176
     1
290
     0
176
     1
290
     1
176
     1
290
     1
176
     1
290
     0
176
     1
290
     0
176
     1
290
     0
176
     1
290
     0
176
     1
290
     0
176
     1
290
     0
176
     1
 90
       50
176
     1
 40
0.0
176
     1
 40
1.0
176
     1
 90
        0
176
     1
 62
    18
420
        0
176
     1
 90
       50
176
     1
 90
        3
176
     1
 62
     5
420
      255
176
     1
290
     0
176
     1
 90
       50
176
     1
 90
       50
176
     1
 90
       50
176
     1
290
     0
176
     1
 90
       50
176
     1
 62
   256
176
     0
 40
1.0
176
     0
 90
        2
176
     1
  1
strokes_ogs.tif
176
     1
290
     0
176
     1
 40
1.0
176
     1
 40
1.0
176
     1
  0
VISUALSTYLE
  5
48B
102
{ACAD_REACTORS
330
47F
102
}
330
47F
100
AcDbVisualStyle
  2
Brighten
 70
    12
177
     3
291
     1
 70
    58
 90
        2
176
     1
 90
        2
176
     1
 90
        0
176
     1
 90
        0
176
     1
 40
0.6
176
     1
 40
30.0
176
     1
 62
     7
420
 16777215
176
     1
 90
        1
176
     1
 90
        4
176
     1
 62
     7
176
     1
 62
   257
176
     1
 90
        1
176
     1
 90
        1
176
     1
 40
1.0
176
     1
 90
        8
176
     1
 62
     7
176
     1
 40
1.0
176
     1
 90
        1
176
     1
 90
        6
176
     1
 90
        2
176
     1
 62
     7
176
     1
 90
        5
176
     1
 90
        0
176
     1
 90
        0
176
     1
290
     0
176
     1
 90
        1
176
     1
 40
50.0
176
     1
 90
        0
176
     1
290
     0
176
     1
290
     1
176
     1
290
     1
176
     1
290
     0
176
     1
290
     0
176
     1
290
     0
176
     1
290
     0
176
     1
290
     0
176
     1
290
     0
176
     1
 90
       50
176
     1
 40
0.0
176
     1
 40
1.0
176
     1
 90
        0
176
     1
 62
    18
420
        0
176
     1
 90
       50
176
     1
 90
        3
176
     1
 62
     5
420
      255
176
     1
290
     0
176
     1
 90
       50
176
     1
 90
       50
176
     1
 90
       50
176
     1
290
     0
176
     1
 90
       50
176
     1
 62
   256
176
     0
 40
1.0
176
     0
 90
        2
176
     1
  1
strokes_ogs.tif
176
     1
290
     0
176
     1
 40
1.0
176
     1
 40
1.0
176
     1
  0
VISUALSTYLE
  5
48F
102
{ACAD_REACTORS
330
47F
102
}
330
47F
100
AcDbVisualStyle
  2
ColorChange
 70
    16
177
     3
291
     1
 70
    58
 90
        2
176
     1
 90
        2
176
     1
 90
        3
176
     1
 90
        0
176
     1
 40
0.6
176
     1
 40
30.0
176
     1
 62
     8
420
  8421504
176
     1
 90
        1
176
     1
 90
        4
176
     1
 62
     7
176
     1
 62
   257
176
     1
 90
        1
176
     1
 90
        1
176
     1
 40
1.0
176
     1
 90
        8
176
     1
 62
     8
420
  8421504
176
     1
 40
1.0
176
     1
 90
        1
176
     1
 90
        6
176
     1
 90
        2
176
     1
 62
     7
176
     1
 90
        5
176
     1
 90
        0
176
     1
 90
        0
176
     1
290
     0
176
     1
 90
        1
176
     1
 40
0.0
176
     1
 90
        0
176
     1
290
     0
176
     1
290
     1
176
     1
290
     1
176
     1
290
     0
176
     1
290
     0
176
     1
290
     0
176
     1
290
     0
176
     1
290
     0
176
     1
290
     0
176
     1
 90
       50
176
     1
 40
0.0
176
     1
 40
1.0
176
     1
 90
        0
176
     1
 62
    18
420
        0
176
     1
 90
       50
176
     1
 90
        3
176
     1
 62
     5
420
      255
176
     1
290
     0
176
     1
 90
       50
176
     1
 90
       50
176
     1
 90
       50
176
     1
290
     0
176
     1
 90
       50
176
     1
 62
   256
176
     0
 40
1.0
176
     0
 90
        2
176
     1
  1
strokes_ogs.tif
176
     1
290
     0
176
     1
 40
1.0
176
     1
 40
1.0
176
     1
  0
VISUALSTYLE
  5
489
102
{ACAD_REACTORS
330
47F
102
}
330
47F
100
AcDbVisualStyle
  2
Conceptual
 70
     9
177
     3
291
     0
 70
    58
 90
        3
176
     1
 90
        2
176
     1
 90
        0
176
     1
 90
        0
176
     1
 40
0.6
176
     1
 40
30.0
176
     1
 62
     7
420
 16777215
176
     1
 90
        2
176
     1
 90
        2
176
     1
 62
     7
176
     1
 62
   257
176
     1
 90
        1
176
     1
 90
        1
176
     1
 40
179.0
176
     1
 90
        8
176
     1
 62
     7
176
     1
 40
1.0
176
     1
 90
        1
176
     1
 90
        6
176
     1
 90
        2
176
     1
 62
     7
176
     1
 90
        3
176
     1
 90
        0
176
     1
 90
        0
176
     1
290
     0
176
     1
 90
        1
176
     1
 40
0.0
176
     1
 90
        0
176
     1
290
     0
176
     1
290
     1
176
     1
290
     1
176
     1
290
     0
176
     1
290
     0
176
     1
290
     0
176
     1
290
     0
176
     1
290
     0
176
     1
290
     0
176
     1
 90
       50
176
     1
 40
0.0
176
     1
 40
1.0
176
     1
 90
        0
176
     1
 62
    18
420
        0
176
     1
 90
       50
176
     1
 90
        3
176
     1
 62
     5
420
      255
176
     1
290
     0
176
     1
 90
       50
176
     1
 90
       50
176
     1
 90
       50
176
     1
290
     0
176
     1
 90
       50
176
     1
 62
   256
176
     0
 40
1.0
176
     0
 90
        2
176
     1
  1
strokes_ogs.tif
176
     1
290
     0
176
     1
 40
1.0
176
     1
 40
1.0
176
     1
  0
VISUALSTYLE
  5
48A
102
{ACAD_REACTORS
330
47F
102
}
330
47F
100
AcDbVisualStyle
  2
Dim
 70
    11
177
     3
291
     1
 70
    58
 90
        2
176
     1
 90
        2
176
     1
 90
        0
176
     1
 90
        0
176
     1
 40
0.6
176
     1
 40
30.0
176
     1
 62
     7
420
 16777215
176
     1
 90
        1
176
     1
 90
        4
176
     1
 62
     7
176
     1
 62
   257
176
     1
 90
        1
176
     1
 90
        1
176
     1
 40
1.0
176
     1
 90
        8
176
     1
 62
     7
176
     1
 40
1.0
176
     1
 90
        1
176
     1
 90
        6
176
     1
 90
        2
176
     1
 62
     7
176
     1
 90
        5
176
     1
 90
        0
176
     1
 90
        0
176
     1
290
     0
176
     1
 90
        1
176
     1
 40
-50.0
176
     1
 90
        0
176
     1
290
     0
176
     1
290
     1
176
     1
290
     1
176
     1
290
     0
176
     1
290
     0
176
     1
290
     0
176
     1
290
     0
176
     1
290
     0
176
     1
290
     0
176
     1
 90
       50
176
     1
 40
0.0
176
     1
 40
1.0
176
     1
 90
        0
176
     1
 62
    18
420
        0
176
     1
 90
       50
176
     1
 90
        3
176
     1
 62
     5
420
      255
176
     1
290
     0
176
     1
 90
       50
176
     1
 90
       50
176
     1
 90
       50
176
     1
290
     0
176
     1
 90
       50
176
     1
 62
   256
176
     0
 40
1.0
176
     0
 90
        2
176
     1
  1
strokes_ogs.tif
176
     1
290
     0
176
     1
 40
1.0
176
     1
 40
1.0
176
     1
  0
VISUALSTYLE
  5
492
102
{ACAD_REACTORS
330
47F
102
}
330
47F
100
AcDbVisualStyle
  2
EdgeColorOff
 70
    22
177
     3
291
     1
 70
    58
 90
        2
176
     0
 90
        2
176
     0
 90
        0
176
     0
 90
        0
176
     0
 40
0.6
176
     0
 40
30.0
176
     0
 62
     7
420
 16777215
176
     0
 90
        1
176
     0
 90
        4
176
     0
 62
     7
176
     0
 62
   257
176
     0
 90
        1
176
     0
 90
        1
176
     0
 40
1.0
176
     0
 90
        8
176
     2
 62
     7
176
     0
 40
1.0
176
     0
 90
        1
176
     0
 90
        6
176
     0
 90
        2
176
     0
 62
     7
176
     0
 90
        5
176
     0
 90
        0
176
     0
 90
        0
176
     0
290
     0
176
     0
 90
        1
176
     0
 40
0.0
176
     0
 90
        0
176
     0
290
     0
176
     0
290
     1
176
     0
290
     1
176
     0
290
     0
176
     0
290
     0
176
     0
290
     0
176
     0
290
     0
176
     0
290
     0
176
     0
290
     0
176
     0
 90
       50
176
     0
 40
0.0
176
     0
 40
1.0
176
     0
 90
        0
176
     0
 62
    18
420
        0
176
     0
 90
       50
176
     0
 90
        3
176
     0
 62
     5
420
      255
176
     0
290
     0
176
     0
 90
       50
176
     0
 90
       50
176
     0
 90
       50
176
     0
290
     0
176
     0
 90
       50
176
     0
 62
   256
176
     0
 40
1.0
176
     0
 90
        2
176
     0
  1
strokes_ogs.tif
176
     0
290
     0
176
     0
 40
1.0
176
     0
 40
1.0
176
     0
  0
VISUALSTYLE
  5
48E
102
{ACAD_REACTORS
330
47F
102
}
330
47F
100
AcDbVisualStyle
  2
Facepattern
 70
    15
177
     3
291
     1
 70
    58
 90
        2
176
     1
 90
        2
176
     1
 90
        0
176
     1
 90
        0
176
     1
 40
0.6
176
     1
 40
30.0
176
     1
 62
     7
420
 16777215
176
     1
 90
        1
176
     1
 90
        4
176
     1
 62
     7
176
     1
 62
   257
176
     1
 90
        1
176
     1
 90
        1
176
     1
 40
1.0
176
     1
 90
        8
176
     1
 62
     7
176
     1
 40
1.0
176
     1
 90
        1
176
     1
 90
        6
176
     1
 90
        2
176
     1
 62
     7
176
     1
 90
        5
176
     1
 90
        0
176
     1
 90
        0
176
     1
290
     0
176
     1
 90
        1
176
     1
 40
0.0
176
     1
 90
        0
176
     1
290
     0
176
     1
290
     1
176
     1
290
     1
176
     1
290
     0
176
     1
290
     0
176
     1
290
     0
176
     1
290
     0
176
     1
290
     0
176
     1
290
     0
176
     1
 90
       50
176
     1
 40
0.0
176
     1
 40
1.0
176
     1
 90
        0
176
     1
 62
    18
420
        0
176
     1
 90
       50
176
     1
 90
        3
176
     1
 62
     5
420
      255
176
     1
290
     0
176
     1
 90
       50
176
     1
 90
       50
176
     1
 90
       50
176
     1
290
     0
176
     1
 90
       50
176
     1
 62
   256
176
     0
 40
1.0
176
     0
 90
        2
176
     1
  1
strokes_ogs.tif
176
     1
290
     0
176
     1
 40
1.0
176
     1
 40
1.0
176
     1
  0
VISUALSTYLE
  5
480
102
{ACAD_REACTORS
330
47F
102
}
330
47F
100
AcDbVisualStyle
  2
Flat
 70
     0
177
     3
291
     1
 70
    58
 90
        2
176
     1
 90
        1
176
     1
 90
        1
176
     1
 90
        2
176
     1
 40
0.6
176
     1
 40
30.0
176
     1
 62
     7
420
 16777215
176
     1
 90
        0
176
     1
 90
        0
176
     1
 62
     7
176
     1
 62
   257
176
     1
 90
        1
176
     1
 90
        1
176
     1
 40
1.0
176
     1
 90
        8
176
     1
 62
     7
176
     1
 40
1.0
176
     1
 90
        1
176
     1
 90
        6
176
     1
 90
        2
176
     1
 62
     7
176
     1
 90
        5
176
     1
 90
        0
176
     1
 90
        0
176
     1
290
     0
176
     1
 90
       13
176
     1
 40
0.0
176
     1
 90
        0
176
     1
290
     0
176
     1
290
     1
176
     1
290
     1
176
     1
290
     0
176
     1
290
     0
176
     1
290
     0
176
     1
290
     0
176
     1
290
     0
176
     1
290
     0
176
     1
 90
       50
176
     1
 40
0.0
176
     1
 40
1.0
176
     1
 90
        0
176
     1
 62
    18
420
        0
176
     1
 90
       50
176
     1
 90
        3
176
     1
 62
     5
420
      255
176
     1
290
     0
176
     1
 90
       50
176
     1
 90
       50
176
     1
 90
       50
176
     1
290
     0
176
     1
 90
       50
176
     1
 62
   256
176
     0
 40
1.0
176
     0
 90
        2
176
     1
  1
strokes_ogs.tif
176
     1
290
     0
176
     1
 40
1.0
176
     1
 40
1.0
176
     1
  0
VISUALSTYLE
  5
481
102
{ACAD_REACTORS
330
47F
102
}
330
47F
100
AcDbVisualStyle
  2
FlatWithEdges
 70
     1
177
     3
291
     1
 70
    58
 90
        2
176
     1
 90
        1
176
     1
 90
        1
176
     1
 90
        2
176
     1
 40
0.6
176
     1
 40
30.0
176
     1
 62
     7
420
 16777215
176
     1
 90
        1
176
     1
 90
        0
176
     1
 62
     7
176
     1
 62
   257
176
     1
 90
        1
176
     1
 90
        1
176
     1
 40
1.0
176
     1
 90
        0
176
     1
 62
   257
176
     1
 40
1.0
176
     1
 90
        1
176
     1
 90
        6
176
     1
 90
        2
176
     1
 62
     7
176
     1
 90
        5
176
     1
 90
        0
176
     1
 90
        0
176
     1
290
     0
176
     1
 90
       13
176
     1
 40
0.0
176
     1
 90
        0
176
     1
290
     0
176
     1
290
     1
176
     1
290
     1
176
     1
290
     0
176
     1
290
     0
176
     1
290
     0
176
     1
290
     0
176
     1
290
     0
176
     1
290
     0
176
     1
 90
       50
176
     1
 40
0.0
176
     1
 40
1.0
176
     1
 90
        0
176
     1
 62
    18
420
        0
176
     1
 90
       50
176
     1
 90
        3
176
     1
 62
     5
420
      255
176
     1
290
     0
176
     1
 90
       50
176
     1
 90
       50
176
     1
 90
       50
176
     1
290
     0
176
     1
 90
       50
176
     1
 62
   256
176
     0
 40
1.0
176
     0
 90
        2
176
     1
  1
strokes_ogs.tif
176
     1
290
     0
176
     1
 40
1.0
176
     1
 40
1.0
176
     1
  0
VISUALSTYLE
  5
482
102
{ACAD_REACTORS
330
47F
102
}
330
47F
100
AcDbVisualStyle
  2
Gouraud
 70
     2
177
     3
291
     1
 70
    58
 90
        2
176
     1
 90
        2
176
     1
 90
        1
176
     1
 90
        2
176
     1
 40
0.6
176
     1
 40
30.0
176
     1
 62
     7
420
 16777215
176
     1
 90
        0
176
     1
 90
        0
176
     1
 62
     7
176
     1
 62
   257
176
     1
 90
        1
176
     1
 90
        1
176
     1
 40
1.0
176
     1
 90
        0
176
     1
 62
     7
176
     1
 40
1.0
176
     1
 90
        1
176
     1
 90
        6
176
     1
 90
        2
176
     1
 62
     7
176
     1
 90
        5
176
     1
 90
        0
176
     1
 90
        0
176
     1
290
     0
176
     1
 90
       13
176
     1
 40
0.0
176
     1
 90
        0
176
     1
290
     0
176
     1
290
     1
176
     1
290
     1
176
     1
290
     0
176
     1
290
     0
176
     1
290
     0
176
     1
290
     0
176
     1
290
     0
176
     1
290
     0
176
     1
 90
       50
176
     1
 40
0.0
176
     1
 40
1.0
176
     1
 90
        0
176
     1
 62
    18
420
        0
176
     1
 90
       50
176
     1
 90
        3
176
     1
 62
     5
420
      255
176
     1
290
     0
176
     1
 90
       50
176
     1
 90
       50
176
     1
 90
       50
176
     1
290
     0
176
     1
 90
       50
176
     1
 62
   256
176
     0
 40
1.0
176
     0
 90
        2
176
     1
  1
strokes_ogs.tif
176
     1
290
     0
176
     1
 40
1.0
176
     1
 40
1.0
176
     1
  0
VISUALSTYLE
  5
483
102
{ACAD_REACTORS
330
47F
102
}
330
47F
100
AcDbVisualStyle
  2
GouraudWithEdges
 70
     3
177
     3
291
     1
 70
    58
 90
        2
176
     1
 90
        2
176
     1
 90
        1
176
     1
 90
        2
176
     1
 40
0.6
176
     1
 40
30.0
176
     1
 62
     7
420
 16777215
176
     1
 90
        1
176
     1
 90
        0
176
     1
 62
     7
176
     1
 62
   257
176
     1
 90
        1
176
     1
 90
        1
176
     1
 40
1.0
176
     1
 90
        0
176
     1
 62
   257
176
     1
 40
1.0
176
     1
 90
        1
176
     1
 90
        6
176
     1
 90
        2
176
     1
 62
     7
176
     1
 90
        5
176
     1
 90
        0
176
     1
 90
        0
176
     1
290
     0
176
     1
 90
       13
176
     1
 40
0.0
176
     1
 90
        0
176
     1
290
     0
176
     1
290
     1
176
     1
290
     1
176
     1
290
     0
176
     1
290
     0
176
     1
290
     0
176
     1
290
     0
176
     1
290
     0
176
     1
290
     0
176
     1
 90
       50
176
     1
 40
0.0
176
     1
 40
1.0
176
     1
 90
        0
176
     1
 62
    18
420
        0
176
     1
 90
       50
176
     1
 90
        3
176
     1
 62
     5
420
      255
176
     1
290
     0
176
     1
 90
       50
176
     1
 90
       50
176
     1
 90
       50
176
     1
290
     0
176
     1
 90
       50
176
     1
 62
   256
176
     0
 40
1.0
176
     0
 90
        2
176
     1
  1
strokes_ogs.tif
176
     1
290
     0
176
     1
 40
1.0
176
     1
 40
1.0
176
     1
  0
VISUALSTYLE
  5
486
102
{ACAD_REACTORS
330
47F
102
}
330
47F
100
AcDbVisualStyle
  2
Hidden
 70
     6
177
     3
291
     0
 70
    58
 90
        1
176
     1
 90
        2
176
     1
 90
        2
176
     1
 90
        0
176
     1
 40
0.6
176
     1
 40
30.0
176
     1
 62
     7
420
 16777215
176
     1
 90
        2
176
     1
 90
        2
176
     1
 62
     7
176
     1
 62
   257
176
     1
 90
        2
176
     1
 90
        1
176
     1
 40
40.0
176
     1
 90
        0
176
     1
 62
   257
176
     1
 40
1.0
176
     1
 90
        1
176
     1
 90
        6
176
     1
 90
        2
176
     1
 62
     7
176
     1
 90
        3
176
     1
 90
        0
176
     1
 90
        0
176
     1
290
     0
176
     1
 90
        1
176
     1
 40
0.0
176
     1
 90
        0
176
     1
290
     0
176
     1
290
     1
176
     1
290
     1
176
     1
290
     0
176
     1
290
     0
176
     1
290
     0
176
     1
290
     0
176
     1
290
     0
176
     1
290
     0
176
     1
 90
       50
176
     1
 40
0.0
176
     1
 40
1.0
176
     1
 90
        0
176
     1
 62
    18
420
        0
176
     1
 90
       50
176
     1
 90
        3
176
     1
 62
     5
420
      255
176
     1
290
     0
176
     1
 90
       50
176
     1
 90
       50
176
     1
 90
       50
176
     1
290
     0
176
     1
 90
       50
176
     1
 62
   256
176
     0
 40
1.0
176
     0
 90
        2
176
     1
  1
strokes_ogs.tif
176
     1
290
     0
176
     1
 40
1.0
176
     1
 40
1.0
176
     1
  0
VISUALSTYLE
  5
490
102
{ACAD_REACTORS
330
47F
102
}
330
47F
100
AcDbVisualStyle
  2
JitterOff
 70
    20
177
     3
291
     1
 70
    58
 90
        2
176
     0
 90
        2
176
     0
 90
        0
176
     0
 90
        0
176
     0
 40
0.6
176
     0
 40
30.0
176
     0
 62
     7
420
 16777215
176
     0
 90
        1
176
     0
 90
        4
176
     0
 62
     7
176
     0
 62
   257
176
     0
 90
        1
176
     0
 90
        1
176
     0
 40
1.0
176
     0
 90
       10
176
     2
 62
     7
176
     0
 40
1.0
176
     0
 90
        1
176
     0
 90
        6
176
     0
 90
        2
176
     0
 62
     7
176
     0
 90
        5
176
     0
 90
        0
176
     0
 90
        0
176
     0
290
     0
176
     0
 90
        1
176
     0
 40
0.0
176
     0
 90
        0
176
     0
290
     0
176
     0
290
     1
176
     0
290
     1
176
     0
290
     0
176
     0
290
     0
176
     0
290
     0
176
     0
290
     0
176
     0
290
     0
176
     0
290
     0
176
     0
 90
       50
176
     0
 40
0.0
176
     0
 40
1.0
176
     0
 90
        0
176
     0
 62
    18
420
        0
176
     0
 90
       50
176
     0
 90
        3
176
     0
 62
     5
420
      255
176
     0
290
     0
176
     0
 90
       50
176
     0
 90
       50
176
     0
 90
       50
176
     0
290
     0
176
     0
 90
       50
176
     0
 62
   256
176
     0
 40
1.0
176
     0
 90
        2
176
     0
  1
strokes_ogs.tif
176
     0
290
     0
176
     0
 40
1.0
176
     0
 40
1.0
176
     0
  0
VISUALSTYLE
  5
48D
102
{ACAD_REACTORS
330
47F
102
}
330
47F
100
AcDbVisualStyle
  2
Linepattern
 70
    14
177
     3
291
     1
 70
    58
 90
        2
176
     1
 90
        2
176
     1
 90
        0
176
     1
 90
        0
176
     1
 40
0.6
176
     1
 40
30.0
176
     1
 62
     7
420
 16777215
176
     1
 90
        1
176
     1
 90
        4
176
     1
 62
     7
176
     1
 62
   257
176
     1
 90
        7
176
     1
 90
        7
176
     1
 40
1.0
176
     1
 90
        8
176
     1
 62
     7
176
     1
 40
1.0
176
     1
 90
        1
176
     1
 90
        6
176
     1
 90
        2
176
     1
 62
     7
176
     1
 90
        5
176
     1
 90
        0
176
     1
 90
        0
176
     1
290
     0
176
     1
 90
        1
176
     1
 40
0.0
176
     1
 90
        0
176
     1
290
     0
176
     1
290
     1
176
     1
290
     1
176
     1
290
     0
176
     1
290
     0
176
     1
290
     0
176
     1
290
     0
176
     1
290
     0
176
     1
290
     0
176
     1
 90
       50
176
     1
 40
0.0
176
     1
 40
1.0
176
     1
 90
        0
176
     1
 62
    18
420
        0
176
     1
 90
       50
176
     1
 90
        3
176
     1
 62
     5
420
      255
176
     1
290
     0
176
     1
 90
       50
176
     1
 90
       50
176
     1
 90
       50
176
     1
290
     0
176
     1
 90
       50
176
     1
 62
   256
176
     0
 40
1.0
176
     0
 90
        2
176
     1
  1
strokes_ogs.tif
176
     1
290
     0
176
     1
 40
1.0
176
     1
 40
1.0
176
     1
  0
VISUALSTYLE
  5
491
102
{ACAD_REACTORS
330
47F
102
}
330
47F
100
AcDbVisualStyle
  2
OverhangOff
 70
    21
177
     3
291
     1
 70
    58
 90
        2
176
     0
 90
        2
176
     0
 90
        0
176
     0
 90
        0
176
     0
 40
0.6
176
     0
 40
30.0
176
     0
 62
     7
420
 16777215
176
     0
 90
        1
176
     0
 90
        4
176
     0
 62
     7
176
     0
 62
   257
176
     0
 90
        1
176
     0
 90
        1
176
     0
 40
1.0
176
     0
 90
        9
176
     2
 62
     7
176
     0
 40
1.0
176
     0
 90
        1
176
     0
 90
        6
176
     0
 90
        2
176
     0
 62
     7
176
     0
 90
        5
176
     0
 90
        0
176
     0
 90
        0
176
     0
290
     0
176
     0
 90
        1
176
     0
 40
0.0
176
     0
 90
        0
176
     0
290
     0
176
     0
290
     1
176
     0
290
     1
176
     0
290
     0
176
     0
290
     0
176
     0
290
     0
176
     0
290
     0
176
     0
290
     0
176
     0
290
     0
176
     0
 90
       50
176
     0
 40
0.0
176
     0
 40
1.0
176
     0
 90
        0
176
     0
 62
    18
420
        0
176
     0
 90
       50
176
     0
 90
        3
176
     0
 62
     5
420
      255
176
     0
290
     0
176
     0
 90
       50
176
     0
 90
       50
176
     0
 90
       50
176
     0
290
     0
176
     0
 90
       50
176
     0
 62
   256
176
     0
 40
1.0
176
     0
 90
        2
176
     0
  1
strokes_ogs.tif
176
     0
290
     0
176
     0
 40
1.0
176
     0
 40
1.0
176
     0
  0
VISUALSTYLE
  5
488
102
{ACAD_REACTORS
330
47F
102
}
330
47F
100
AcDbVisualStyle
  2
Realistic
 70
     8
177
     3
291
     0
 70
    58
 90
        2
176
     1
 90
        3
176
     1
 90
        0
176
     1
 90
        2
176
     1
 40
0.6
176
     1
 40
30.0
176
     1
 62
     7
420
 16777215
176
     1
 90
        0
176
     1
 90
        0
176
     1
 62
     7
176
     1
 62
   257
176
     1
 90
        1
176
     1
 90
        1
176
     1
 40
1.0
176
     1
 90
        8
176
     1
 62
   257
176
     1
 40
1.0
176
     1
 90
        1
176
     1
 90
        6
176
     1
 90
        2
176
     1
 62
     7
176
     1
 90
        3
176
     1
 90
        0
176
     1
 90
        0
176
     1
290
     0
176
     1
 90
       13
176
     1
 40
0.0
176
     1
 90
        0
176
     1
290
     0
176
     1
290
     1
176
     1
290
     1
176
     1
290
     0
176
     1
290
     0
176
     1
290
     0
176
     1
290
     0
176
     1
290
     0
176
     1
290
     0
176
     1
 90
       50
176
     1
 40
0.0
176
     1
 40
1.0
176
     1
 90
        0
176
     1
 62
    18
420
        0
176
     1
 90
       50
176
     1
 90
        3
176
     1
 62
     5
420
      255
176
     1
290
     0
176
     1
 90
       50
176
     1
 90
       50
176
     1
 90
       50
176
     1
290
     0
176
     1
 90
       50
176
     1
 62
   256
176
     0
 40
1.0
176
     0
 90
        2
176
     1
  1
strokes_ogs.tif
176
     1
290
     0
176
     1
 40
1.0
176
     1
 40
1.0
176
     1
  0
VISUALSTYLE
  5
497
102
{ACAD_REACTORS
330
47F
102
}
330
47F
100
AcDbVisualStyle
  2
Shaded
 70
    27
177
     3
291
     0
 70
    58
 90
        2
176
     1
 90
        2
176
     1
 90
        1
176
     1
 90
        2
176
     1
 40
0.6
176
     1
 40
30.0
176
     1
 62
     7
420
 16777215
176
     1
 90
        0
176
     1
 90
        4
176
     1
 62
     7
176
     1
 62
   257
176
     1
 90
        1
176
     1
 90
        1
176
     1
 40
1.0
176
     1
 90
        8
176
     1
 62
   257
176
     1
 40
1.0
176
     1
 90
        1
176
     1
 90
        6
176
     1
 90
        2
176
     1
 62
     8
420
  7895160
176
     1
 90
        3
176
     1
 90
        0
176
     1
 90
        0
176
     1
290
     0
176
     1
 90
        5
176
     1
 40
0.0
176
     1
 90
        0
176
     1
290
     0
176
     1
290
     1
176
     1
290
     1
176
     1
290
     0
176
     1
290
     0
176
     1
290
     0
176
     1
290
     0
176
     1
290
     0
176
     1
290
     0
176
     1
 90
       50
176
     1
 40
0.0
176
     1
 40
1.0
176
     1
 90
        0
176
     1
 62
    18
420
        0
176
     1
 90
       50
176
     1
 90
        3
176
     1
 62
     5
420
      255
176
     1
290
     0
176
     1
 90
       50
176
     1
 90
       50
176
     1
 90
       50
176
     1
290
     0
176
     1
 90
       50
176
     1
 62
   256
176
     0
 40
1.0
176
     0
 90
        2
176
     1
  1
strokes_ogs.tif
176
     1
290
     0
176
     1
 40
1.0
176
     1
 40
1.0
176
     1
  0
VISUALSTYLE
  5
496
102
{ACAD_REACTORS
330
47F
102
}
330
47F
100
AcDbVisualStyle
  2
Shaded with edges
 70
    26
177
     3
291
     0
 70
    58
 90
        2
176
     1
 90
        2
176
     1
 90
        1
176
     1
 90
        2
176
     1
 40
0.6
176
     1
 40
30.0
176
     1
 62
     7
420
 16777215
176
     1
 90
        1
176
     1
 90
       10
176
     1
 62
     7
176
     1
 62
   257
176
     1
 90
        2
176
     1
 90
        1
176
     1
 40
1.0
176
     1
 90
        8
176
     1
 62
   257
176
     1
 40
1.0
176
     1
 90
        1
176
     1
 90
        6
176
     1
 90
        2
176
     1
 62
     7
176
     1
 90
        3
176
     1
 90
        0
176
     1
 90
        0
176
     1
290
     0
176
     1
 90
        5
176
     1
 40
0.0
176
     1
 90
        0
176
     1
290
     0
176
     1
290
     1
176
     1
290
     1
176
     1
290
     0
176
     1
290
     0
176
     1
290
     0
176
     1
290
     0
176
     1
290
     0
176
     1
290
     0
176
     1
 90
       50
176
     1
 40
0.0
176
     1
 40
1.0
176
     1
 90
        0
176
     1
 62
    18
420
        0
176
     1
 90
       50
176
     1
 90
        3
176
     1
 62
     5
420
      255
176
     1
290
     0
176
     1
 90
       50
176
     1
 90
       50
176
     1
 90
       50
176
     1
290
     0
176
     1
 90
       50
176
     1
 62
   256
176
     0
 40
1.0
176
     0
 90
        2
176
     1
  1
strokes_ogs.tif
176
     1
290
     0
176
     1
 40
1.0
176
     1
 40
1.0
176
     1
  0
VISUALSTYLE
  5
493
102
{ACAD_REACTORS
330
47F
102
}
330
47F
100
AcDbVisualStyle
  2
Shades of Gray
 70
    23
177
     3
291
     0
 70
    58
 90
        2
176
     1
 90
        2
176
     1
 90
        3
176
     1
 90
        0
176
     1
 40
0.6
176
     1
 40
30.0
176
     1
 62
     7
420
 16777215
176
     1
 90
        2
176
     1
 90
        2
176
     1
 62
     7
176
     1
 62
     7
176
     1
 90
        1
176
     1
 90
        1
176
     1
 40
40.0
176
     1
 90
        8
176
     1
 62
     7
176
     1
 40
1.0
176
     1
 90
        1
176
     1
 90
        6
176
     1
 90
        2
176
     1
 62
     7
176
     1
 90
        3
176
     1
 90
        0
176
     1
 90
        0
176
     1
290
     0
176
     1
 90
        1
176
     1
 40
0.0
176
     1
 90
        0
176
     1
290
     0
176
     1
290
     1
176
     1
290
     1
176
     1
290
     0
176
     1
290
     0
176
     1
290
     0
176
     1
290
     0
176
     1
290
     0
176
     1
290
     0
176
     1
 90
       50
176
     1
 40
0.0
176
     1
 40
1.0
176
     1
 90
        0
176
     1
 62
    18
420
        0
176
     1
 90
       50
176
     1
 90
        3
176
     1
 62
     5
420
      255
176
     1
290
     0
176
     1
 90
       50
176
     1
 90
       50
176
     1
 90
       50
176
     1
290
     0
176
     1
 90
       50
176
     1
 62
   256
176
     0
 40
1.0
176
     0
 90
        2
176
     1
  1
strokes_ogs.tif
176
     1
290
     0
176
     1
 40
1.0
176
     1
 40
1.0
176
     1
  0
VISUALSTYLE
  5
494
102
{ACAD_REACTORS
330
47F
102
}
330
47F
100
AcDbVisualStyle
  2
Sketchy
 70
    24
177
     3
291
     0
 70
    58
 90
        1
176
     1
 90
        2
176
     1
 90
        2
176
     1
 90
        0
176
     1
 40
0.6
176
     1
 40
30.0
176
     1
 62
     7
420
 16777215
176
     1
 90
        2
176
     1
 90
        2
176
     1
 62
     7
176
     1
 62
     7
176
     1
 90
        1
176
     1
 90
        1
176
     1
 40
40.0
176
     1
 90
       11
176
     1
 62
     7
176
     1
 40
1.0
176
     1
 90
        1
176
     1
 90
        6
176
     1
 90
        2
176
     1
 62
     7
176
     1
 90
        6
176
     1
 90
        0
176
     1
 90
        0
176
     1
290
     0
176
     1
 90
        1
176
     1
 40
0.0
176
     1
 90
        0
176
     1
290
     0
176
     1
290
     1
176
     1
290
     1
176
     1
290
     0
176
     1
290
     0
176
     1
290
     0
176
     1
290
     0
176
     1
290
     0
176
     1
290
     0
176
     1
 90
       50
176
     1
 40
0.0
176
     1
 40
1.0
176
     1
 90
        0
176
     1
 62
    18
420
        0
176
     1
 90
       50
176
     1
 90
        3
176
     1
 62
     5
420
      255
176
     1
290
     0
176
     1
 90
       50
176
     1
 90
       50
176
     1
 90
       50
176
     1
290
     0
176
     1
 90
       50
176
     1
 62
   256
176
     0
 40
1.0
176
     0
 90
        2
176
     1
  1
strokes_ogs.tif
176
     1
290
     0
176
     1
 40
1.0
176
     1
 40
1.0
176
     1
  0
VISUALSTYLE
  5
48C
102
{ACAD_REACTORS
330
47F
102
}
330
47F
100
AcDbVisualStyle
  2
Thicken
 70
    13
177
     3
291
     1
 70
    58
 90
        2
176
     1
 90
        2
176
     1
 90
        0
176
     1
 90
        0
176
     1
 40
0.6
176
     1
 40
30.0
176
     1
 62
     7
420
 16777215
176
     1
 90
        1
176
     1
 90
        4
176
     1
 62
     7
176
     1
 62
   257
176
     1
 90
        1
176
     1
 90
        1
176
     1
 40
1.0
176
     1
 90
       12
176
     1
 62
     7
176
     1
 40
1.0
176
     1
 90
        1
176
     1
 90
        6
176
     1
 90
        2
176
     1
 62
     7
176
     1
 90
        5
176
     1
 90
        0
176
     1
 90
        0
176
     1
290
     0
176
     1
 90
        1
176
     1
 40
0.0
176
     1
 90
        0
176
     1
290
     0
176
     1
290
     1
176
     1
290
     1
176
     1
290
     0
176
     1
290
     0
176
     1
290
     0
176
     1
290
     0
176
     1
290
     0
176
     1
290
     0
176
     1
 90
       50
176
     1
 40
0.0
176
     1
 40
1.0
176
     1
 90
        0
176
     1
 62
    18
420
        0
176
     1
 90
       50
176
     1
 90
        3
176
     1
 62
     5
420
      255
176
     1
290
     0
176
     1
 90
       50
176
     1
 90
       50
176
     1
 90
       50
176
     1
290
     0
176
     1
 90
       50
176
     1
 62
   256
176
     0
 40
1.0
176
     0
 90
        2
176
     1
  1
strokes_ogs.tif
176
     1
290
     0
176
     1
 40
1.0
176
     1
 40
1.0
176
     1
  0
VISUALSTYLE
  5
485
102
{ACAD_REACTORS
330
47F
102
}
330
47F
100
AcDbVisualStyle
  2
Wireframe
 70
     5
177
     3
291
     0
 70
    58
 90
        0
176
     1
 90
        2
176
     1
 90
        0
176
     1
 90
        0
176
     1
 40
0.6
176
     1
 40
30.0
176
     1
 62
     7
420
 16777215
176
     1
 90
        1
176
     1
 90
        4
176
     1
 62
     7
176
     1
 62
   257
176
     1
 90
        1
176
     1
 90
        1
176
     1
 40
1.0
176
     1
 90
        0
176
     1
 62
   257
176
     1
 40
1.0
176
     1
 90
        1
176
     1
 90
        6
176
     1
 90
        2
176
     1
 62
     7
176
     1
 90
        3
176
     1
 90
        0
176
     1
 90
        0
176
     1
290
     0
176
     1
 90
        1
176
     1
 40
0.0
176
     1
 90
        0
176
     1
290
     0
176
     1
290
     1
176
     1
290
     1
176
     1
290
     0
176
     1
290
     0
176
     1
290
     0
176
     1
290
     0
176
     1
290
     0
176
     1
290
     0
176
     1
 90
       50
176
     1
 40
0.0
176
     1
 40
1.0
176
     1
 90
        0
176
     1
 62
    18
420
        0
176
     1
 90
       50
176
     1
 90
        3
176
     1
 62
     5
420
      255
176
     1
290
     0
176
     1
 90
       50
176
     1
 90
       50
176
     1
 90
       50
176
     1
290
     0
176
     1
 90
       50
176
     1
 62
   256
176
     0
 40
1.0
176
     0
 90
        2
176
     1
  1
strokes_ogs.tif
176
     1
290
     0
176
     1
 40
1.0
176
     1
 40
1.0
176
     1
  0
VISUALSTYLE
  5
495
102
{ACAD_REACTORS
330
47F
102
}
330
47F
100
AcDbVisualStyle
  2
X-Ray
 70
    25
177
     3
291
     0
 70
    58
 90
        2
176
     1
 90
        2
176
     1
 90
        1
176
     1
 90
        1
176
     1
 40
0.5
176
     1
 40
30.0
176
     1
 62
     7
420
 16777215
176
     1
 90
        1
176
     1
 90
        0
176
     1
 62
     7
176
     1
 62
   257
176
     1
 90
        1
176
     1
 90
        1
176
     1
 40
1.0
176
     1
 90
        8
176
     1
 62
     7
176
     1
 40
1.0
176
     1
 90
        1
176
     1
 90
        6
176
     1
 90
        2
176
     1
 62
     7
176
     1
 90
        3
176
     1
 90
        0
176
     1
 90
        0
176
     1
290
     0
176
     1
 90
       13
176
     1
 40
0.0
176
     1
 90
        0
176
     1
290
     0
176
     1
290
     1
176
     1
290
     1
176
     1
290
     0
176
     1
290
     0
176
     1
290
     0
176
     1
290
     0
176
     1
290
     0
176
     1
290
     0
176
     1
 90
       50
176
     1
 40
0.0
176
     1
 40
1.0
176
     1
 90
        0
176
     1
 62
    18
420
        0
176
     1
 90
       50
176
     1
 90
        3
176
     1
 62
     5
420
      255
176
     1
290
     0
176
     1
 90
       50
176
     1
 90
       50
176
     1
 90
       50
176
     1
290
     0
176
     1
 90
       50
176
     1
 62
   256
176
     0
 40
1.0
176
     0
 90
        2
176
     1
  1
strokes_ogs.tif
176
     1
290
     0
176
     1
 40
1.0
176
     1
 40
1.0
176
     1
  0
DICTIONARYVAR
  5
4A2
102
{ACAD_REACTORS
330
4A1
102
}
330
4A1
100
DictionaryVariables
280
     0
  1
1:1
  0
DICTIONARYVAR
  5
4A7
102
{ACAD_REACTORS
330
4A1
102
}
330
4A1
100
DictionaryVariables
280
     0
  1
Standard
  0
DICTIONARYVAR
  5
4A6
102
{ACAD_REACTORS
330
4A1
102
}
330
4A1
100
DictionaryVariables
280
     0
  1
Standard
  0
DICTIONARYVAR
  5
4A8
102
{ACAD_REACTORS
330
4A1
102
}
330
4A1
100
DictionaryVariables
280
     0
  1
0
  0
DICTIONARY
  5
4A3
330
49D
100
AcDbDictionary
280
     1
281
     1
  3
ACAD_ROUNDTRIP_2008_TABLESTYLE_CELLSTYLEMAP
360
4A4
  0
CELLSTYLEMAP
  5
4A4
102
{ACAD_REACTORS
330
4A3
102
}
330
4A3
100
AcDbCellStyleMap
 90
        3
300
CELLSTYLE
  1
TABLEFORMAT_BEGIN
 90
        5
170
     1
 91
        0
 92
    32768
 62
   257
 93
        1
300
CONTENTFORMAT
  1
CONTENTFORMAT_BEGIN
 90
        0
 91
        0
 92
        4
 93
        0
300

 40
0.0
140
1.0
 94
        5
 62
     0
340
11
144
6.0
309
CONTENTFORMAT_END
171
     1
301
MARGIN
  1
CELLMARGIN_BEGIN
 40
1.5
 40
1.5
 40
1.5
 40
1.5
 40
1.5
 40
1.5
309
CELLMARGIN_END
 94
        6
 95
        1
302
GRIDFORMAT
  1
GRIDFORMAT_BEGIN
 90
        0
 91
        1
 62
     0
 92
       -2
340
14
 93
        0
 40
0.045
309
GRIDFORMAT_END
 95
        2
302
GRIDFORMAT
  1
GRIDFORMAT_BEGIN
 90
        0
 91
        1
 62
     0
 92
       -2
340
14
 93
        0
 40
0.045
309
GRIDFORMAT_END
 95
        4
302
GRIDFORMAT
  1
GRIDFORMAT_BEGIN
 90
        0
 91
        1
 62
     0
 92
       -2
340
14
 93
        0
 40
0.045
309
GRIDFORMAT_END
 95
        8
302
GRIDFORMAT
  1
GRIDFORMAT_BEGIN
 90
        0
 91
        1
 62
     0
 92
       -2
340
14
 93
        0
 40
0.045
309
GRIDFORMAT_END
 95
       16
302
GRIDFORMAT
  1
GRIDFORMAT_BEGIN
 90
        0
 91
        1
 62
     0
 92
       -2
340
14
 93
        0
 40
0.045
309
GRIDFORMAT_END
 95
       32
302
GRIDFORMAT
  1
GRIDFORMAT_BEGIN
 90
        0
 91
        1
 62
     0
 92
       -2
340
14
 93
        0
 40
0.045
309
GRIDFORMAT_END
309
TABLEFORMAT_END
  1
CELLSTYLE_BEGIN
 90
        1
 91
        1
300
_TITLE
309
CELLSTYLE_END
300
CELLSTYLE
  1
TABLEFORMAT_BEGIN
 90
        5
170
     1
 91
        0
 92
        0
 62
   257
 93
        1
300
CONTENTFORMAT
  1
CONTENTFORMAT_BEGIN
 90
        0
 91
        0
 92
        4
 93
        0
300

 40
0.0
140
1.0
 94
        5
 62
     0
340
11
144
4.5
309
CONTENTFORMAT_END
171
     1
301
MARGIN
  1
CELLMARGIN_BEGIN
 40
1.5
 40
1.5
 40
1.5
 40
1.5
 40
1.5
 40
1.5
309
CELLMARGIN_END
 94
        6
 95
        1
302
GRIDFORMAT
  1
GRIDFORMAT_BEGIN
 90
        0
 91
        1
 62
     0
 92
       -2
340
14
 93
        0
 40
0.045
309
GRIDFORMAT_END
 95
        2
302
GRIDFORMAT
  1
GRIDFORMAT_BEGIN
 90
        0
 91
        1
 62
     0
 92
       -2
340
14
 93
        0
 40
0.045
309
GRIDFORMAT_END
 95
        4
302
GRIDFORMAT
  1
GRIDFORMAT_BEGIN
 90
        0
 91
        1
 62
     0
 92
       -2
340
14
 93
        0
 40
0.045
309
GRIDFORMAT_END
 95
        8
302
GRIDFORMAT
  1
GRIDFORMAT_BEGIN
 90
        0
 91
        1
 62
     0
 92
       -2
340
14
 93
        0
 40
0.045
309
GRIDFORMAT_END
 95
       16
302
GRIDFORMAT
  1
GRIDFORMAT_BEGIN
 90
        0
 91
        1
 62
     0
 92
       -2
340
14
 93
        0
 40
0.045
309
GRIDFORMAT_END
 95
       32
302
GRIDFORMAT
  1
GRIDFORMAT_BEGIN
 90
        0
 91
        1
 62
     0
 92
       -2
340
14
 93
        0
 40
0.045
309
GRIDFORMAT_END
309
TABLEFORMAT_END
  1
CELLSTYLE_BEGIN
 90
        2
 91
        1
300
_HEADER
309
CELLSTYLE_END
300
CELLSTYLE
  1
TABLEFORMAT_BEGIN
 90
        5
170
     1
 91
        0
 92
        0
 62
   257
 93
        1
300
CONTENTFORMAT
  1
CONTENTFORMAT_BEGIN
 90
        0
 91
        0
 92
        4
 93
        0
300

 40
0.0
140
1.0
 94
        2
 62
     0
340
11
144
4.5
309
CONTENTFORMAT_END
171
     1
301
MARGIN
  1
CELLMARGIN_BEGIN
 40
1.5
 40
1.5
 40
1.5
 40
1.5
 40
1.5
 40
1.5
309
CELLMARGIN_END
 94
        6
 95
        1
302
GRIDFORMAT
  1
GRIDFORMAT_BEGIN
 90
        0
 91
        1
 62
     0
 92
       -2
340
14
 93
        0
 40
0.045
309
GRIDFORMAT_END
 95
        2
302
GRIDFORMAT
  1
GRIDFORMAT_BEGIN
 90
        0
 91
        1
 62
     0
 92
       -2
340
14
 93
        0
 40
0.045
309
GRIDFORMAT_END
 95
        4
302
GRIDFORMAT
  1
GRIDFORMAT_BEGIN
 90
        0
 91
        1
 62
     0
 92
       -2
340
14
 93
        0
 40
0.045
309
GRIDFORMAT_END
 95
        8
302
GRIDFORMAT
  1
GRIDFORMAT_BEGIN
 90
        0
 91
        1
 62
     0
 92
       -2
340
14
 93
        0
 40
0.045
309
GRIDFORMAT_END
 95
       16
302
GRIDFORMAT
  1
GRIDFORMAT_BEGIN
 90
        0
 91
        1
 62
     0
 92
       -2
340
14
 93
        0
 40
0.045
309
GRIDFORMAT_END
 95
       32
302
GRIDFORMAT
  1
GRIDFORMAT_BEGIN
 90
        0
 91
        1
 62
     0
 92
       -2
340
14
 93
        0
 40
0.045
309
GRIDFORMAT_END
309
TABLEFORMAT_END
  1
CELLSTYLE_BEGIN
 90
        3
 91
        2
300
_DATA
309
CELLSTYLE_END
  0
ENDSEC
  0
EOF
