  0
SECTION
  2
HEADER
  9
$ACADVER
  1
AC1024
  9
$ACADMAINTVER
 70
     6
  9
$DWGCODEPAGE
  3
ANSI_1252
  9
$INSBASE
 10
0.0
 20
0.0
 30
0.0
  9
$EXTMIN
 10
0.0
 20
0.0
 30
0.0
  9
$EXTMAX
 10
841.0
 20
594.0
 30
0.0
  9
$LIMMIN
 10
0.0
 20
0.0
  9
$LIMMAX
 10
841.0
 20
594.0
  9
$ORTHOMODE
 70
     0
  9
$REGENMODE
 70
     1
  9
$FILLMODE
 70
     1
  9
$QTEXTMODE
 70
     0
  9
$MIRRTEXT
 70
     1
  9
$LTSCALE
 40
46.255
  9
$ATTMODE
 70
     1
  9
$TEXTSIZE
 40
0.2
  9
$TRACEWID
 40
0.05
  9
$TEXTSTYLE
  7
STANDARD
  9
$CLAYER
  8
0
  9
$CELTYPE
  6
BYLAYER
  9
$CECOLOR
 62
   256
  9
$CELTSCALE
 40
1.0
  9
$DISPSILH
 70
     0
  9
$DIMSCALE
 40
1.0
  9
$DIMASZ
 40
2.5
  9
$DIMEXO
 40
0.75
  9
$DIMDLI
 40
31.958
  9
$DIMRND
 40
0.0
  9
$DIMDLE
 40
0.0
  9
$DIMEXE
 40
0.75
  9
$DIMTP
 40
0.01
  9
$DIMTM
 40
0.01
  9
$DIMTXT
 40
3.0
  9
$DIMCEN
 40
7.569
  9
$DIMTSZ
 40
0.0
  9
$DIMTOL
 70
     1
  9
$DIMLIM
 70
     0
  9
$DIMTIH
 70
     1
  9
$DIMTOH
 70
     1
  9
$DIMSE1
 70
     0
  9
$DIMSE2
 70
     0
  9
$DIMTAD
 70
     0
  9
$DIMZIN
 70
     0
  9
$DIMBLK
  1
CLOSED
  9
$DIMASO
 70
     1
  9
$DIMSHO
 70
     1
  9
$DIMPOST
  1

  9
$DIMAPOST
  1

  9
$DIMALT
 70
     0
  9
$DIMALTD
 70
     2
  9
$DIMALTF
 40
25.4
  9
$DIMLFAC
 40
1.0
  9
$DIMTOFL
 70
     0
  9
$DIMTVP
 40
0.0
  9
$DIMTIX
 70
     0
  9
$DIMSOXD
 70
     0
  9
$DIMSAH
 70
     0
  9
$DIMBLK1
  1

  9
$DIMBLK2
  1

  9
$DIMSTYLE
  2
STANDARD
  9
$DIMCLRD
 70
     0
  9
$DIMCLRE
 70
     0
  9
$DIMCLRT
 70
     0
  9
$DIMTFAC
 40
1.0
  9
$DIMGAP
 40
0.625
  9
$DIMJUST
 70
     0
  9
$DIMSD1
 70
     0
  9
$DIMSD2
 70
     0
  9
$DIMTOLJ
 70
     1
  9
$DIMTZIN
 70
     0
  9
$DIMALTZ
 70
     0
  9
$DIMALTTZ
 70
     0
  9
$DIMUPT
 70
     0
  9
$DIMDEC
 70
     4
  9
$DIMTDEC
 70
     4
  9
$DIMALTU
 70
     2
  9
$DIMALTTD
 70
     2
  9
$DIMTXSTY
  7
STANDARD
  9
$DIMAUNIT
 70
     0
  9
$DIMADEC
 70
     0
  9
$DIMALTRND
 40
0.0
  9
$DIMAZIN
 70
     0
  9
$DIMDSEP
 70
    44
  9
$DIMATFIT
 70
     3
  9
$DIMFRAC
 70
     0
  9
$DIMLDRBLK
  1

  9
$DIMLUNIT
 70
     2
  9
$DIMLWD
 70
    -2
  9
$DIMLWE
 70
    -2
  9
$DIMTMOVE
 70
     0
  9
$DIMFXL
 40
1.0
  9
$DIMFXLON
 70
     0
  9
$DIMJOGANG
 40
0.785398
  9
$DIMTFILL
 70
     0
  9
$DIMTFILLCLR
 70
     0
  9
$DIMARCSYM
 70
     0
  9
$DIMLTYPE
  6

  9
$DIMLTEX1
  6

  9
$DIMLTEX2
  6

  9
$DIMTXTDIRECTION
 70
     0
  9
$LUNITS
 70
     2
  9
$LUPREC
 70
     4
  9
$SKETCHINC
 40
0.1
  9
$FILLETRAD
 40
0.5
  9
$AUNITS
 70
     0
  9
$AUPREC
 70
     0
  9
$MENU
  1
.
  9
$ELEVATION
 40
0.0
  9
$PELEVATION
 40
0.0
  9
$THICKNESS
 40
0.0
  9
$LIMCHECK
 70
     0
  9
$CHAMFERA
 40
0.0
  9
$CHAMFERB
 40
0.0
  9
$CHAMFERC
 40
0.0
  9
$CHAMFERD
 40
0.0
  9
$SKPOLY
 70
     0
  9
$TDCREATE
 40
2447893.041666667
  9
$TDUCREATE
 40
0.0
  9
$TDUPDATE
 40
2459278.479339109
  9
$TDUUPDATE
 40
2459278.437672442
  9
$TDINDWG
 40
0.0
  9
$TDUSRTIMER
 40
0.0
  9
$USRTIMER
 70
     1
  9
$ANGBASE
 50
0.0
  9
$ANGDIR
 70
     0
  9
$PDMODE
 70
     3
  9
$PDSIZE
 40
0.3125
  9
$PLINEWID
 40
0.0
  9
$SPLFRAME
 70
     0
  9
$SPLINETYPE
 70
     6
  9
$SPLINESEGS
 70
     8
  9
$HANDSEED
  5
5D2
  9
$SURFTAB1
 70
     6
  9
$SURFTAB2
 70
     6
  9
$SURFTYPE
 70
     6
  9
$SURFU
 70
     6
  9
$SURFV
 70
     6
  9
$UCSBASE
  2

  9
$UCSNAME
  2

  9
$UCSORG
 10
0.0
 20
0.0
 30
0.0
  9
$UCSXDIR
 10
1.0
 20
0.0
 30
0.0
  9
$UCSYDIR
 10
0.0
 20
1.0
 30
0.0
  9
$UCSORTHOREF
  2

  9
$UCSORTHOVIEW
 70
     0
  9
$UCSORGTOP
 10
0.0
 20
0.0
 30
0.0
  9
$UCSORGBOTTOM
 10
0.0
 20
0.0
 30
0.0
  9
$UCSORGLEFT
 10
0.0
 20
0.0
 30
0.0
  9
$UCSORGRIGHT
 10
0.0
 20
0.0
 30
0.0
  9
$UCSORGFRONT
 10
0.0
 20
0.0
 30
0.0
  9
$UCSORGBACK
 10
0.0
 20
0.0
 30
0.0
  9
$PUCSBASE
  2

  9
$PUCSNAME
  2

  9
$PUCSORG
 10
0.0
 20
0.0
 30
0.0
  9
$PUCSXDIR
 10
1.0
 20
0.0
 30
0.0
  9
$PUCSYDIR
 10
0.0
 20
1.0
 30
0.0
  9
$PUCSORTHOREF
  2

  9
$PUCSORTHOVIEW
 70
     0
  9
$PUCSORGTOP
 10
0.0
 20
0.0
 30
0.0
  9
$PUCSORGBOTTOM
 10
0.0
 20
0.0
 30
0.0
  9
$PUCSORGLEFT
 10
0.0
 20
0.0
 30
0.0
  9
$PUCSORGRIGHT
 10
0.0
 20
0.0
 30
0.0
  9
$PUCSORGFRONT
 10
0.0
 20
0.0
 30
0.0
  9
$PUCSORGBACK
 10
0.0
 20
0.0
 30
0.0
  9
$USERI1
 70
     0
  9
$USERI2
 70
     0
  9
$USERI3
 70
     0
  9
$USERI4
 70
     0
  9
$USERI5
 70
     0
  9
$USERR1
 40
0.0
  9
$USERR2
 40
0.0
  9
$USERR3
 40
0.0
  9
$USERR4
 40
0.0
  9
$USERR5
 40
0.0
  9
$WORLDVIEW
 70
     1
  9
$SHADEDGE
 70
     3
  9
$SHADEDIF
 70
    70
  9
$TILEMODE
 70
     1
  9
$MAXACTVP
 70
    64
  9
$PINSBASE
 10
0.0
 20
0.0
 30
0.0
  9
$PLIMCHECK
 70
     0
  9
$PEXTMIN
 10
1.000000E+20
 20
1.000000E+20
 30
1.000000E+20
  9
$PEXTMAX
 10
-1.000000E+20
 20
-1.000000E+20
 30
-1.000000E+20
  9
$PLIMMIN
 10
0.0
 20
0.0
  9
$PLIMMAX
 10
12.0
 20
9.0
  9
$UNITMODE
 70
     0
  9
$VISRETAIN
 70
     1
  9
$PLINEGEN
 70
     0
  9
$PSLTSCALE
 70
     0
  9
$TREEDEPTH
 70
  3020
  9
$CMLSTYLE
  2

  9
$CMLJUST
 70
     0
  9
$CMLSCALE
 40
1.0
  9
$PROXYGRAPHICS
 70
     1
  9
$MEASUREMENT
 70
     1
  9
$CELWEIGHT
370
    -1
  9
$ENDCAPS
280
     0
  9
$JOINSTYLE
280
     0
  9
$LWDISPLAY
290
     0
  9
$INSUNITS
 70
     4
  9
$HYPERLINKBASE
  1

  9
$STYLESHEET
  1

  9
$XEDIT
290
     1
  9
$CEPSNTYPE
380
     0
  9
$PSTYLEMODE
290
     1
  9
$FINGERPRINTGUID
  2
{5DE3DF7B-52B3-4BB0-9979-88D3F3117160}
  9
$VERSIONGUID
  2
{FAEB1C32-E019-11D5-929B-00C0DF256EC4}
  9
$EXTNAMES
290
     1
  9
$PSVPSCALE
 40
0.0
  9
$OLESTARTUP
290
     0
  9
$SORTENTS
280
   127
  9
$INDEXCTL
280
     0
  9
$HIDETEXT
280
     1
  9
$XCLIPFRAME
280
     2
  9
$HALOGAP
280
     0
  9
$OBSCOLOR
 70
   257
  9
$OBSLTYPE
280
     0
  9
$INTERSECTIONDISPLAY
280
     0
  9
$INTERSECTIONCOLOR
 70
   257
  9
$DIMASSOC
280
     2
  9
$PROJECTNAME
  1

  9
$CAMERADISPLAY
290
     0
  9
$LENSLENGTH
 40
50.0
  9
$CAMERAHEIGHT
 40
0.0
  9
$STEPSPERSEC
 40
2.0
  9
$STEPSIZE
 40
6.0
  9
$3DDWFPREC
 40
2.0
  9
$PSOLWIDTH
 40
0.25
  9
$PSOLHEIGHT
 40
4.0
  9
$LOFTANG1
 40
1.570796
  9
$LOFTANG2
 40
1.570796
  9
$LOFTMAG1
 40
0.0
  9
$LOFTMAG2
 40
0.0
  9
$LOFTPARAM
 70
     7
  9
$LOFTNORMALS
280
     1
  9
$LATITUDE
 40
37.795
  9
$LONGITUDE
 40
-122.394
  9
$NORTHDIRECTION
 40
0.0
  9
$TIMEZONE
 70
 -8000
  9
$LIGHTGLYPHDISPLAY
280
     1
  9
$TILEMODELIGHTSYNCH
280
     1
  9
$SOLIDHIST
280
     1
  9
$SHOWHIST
280
     1
  9
$DWFFRAME
280
     2
  9
$DGNFRAME
280
     2
  9
$REALWORLDSCALE
290
     1
  9
$INTERFERECOLOR
 62
   256
  9
$CSHADOW
280
     0
  9
$SHADOWPLANELOCATION
 40
0.0
  0
ENDSEC
  0
SECTION
  2
CLASSES
  0
CLASS
  1
ACDBDICTIONARYWDFLT
  2
AcDbDictionaryWithDefault
  3
ObjectDBX Classes
 90
        0
 91
        6
280
     0
281
     0
  0
CLASS
  1
ACDBPLACEHOLDER
  2
AcDbPlaceHolder
  3
ObjectDBX Classes
 90
        0
 91
        1
280
     0
281
     0
  0
CLASS
  1
LAYOUT
  2
AcDbLayout
  3
ObjectDBX Classes
 90
        0
 91
        1
280
     0
281
     0
  0
CLASS
  1
TABLESTYLE
  2
AcDbTableStyle
  3
ObjectDBX Classes
 90
     4095
 91
        5
280
     0
281
     0
  0
CLASS
  1
ACAD_TABLE
  2
AcDbTable
  3
ObjectDBX Classes
 90
     1025
 91
        5
280
     0
281
     1
  0
CLASS
  1
SCALE
  2
AcDbScale
  3
ObjectDBX Classes
 90
     1153
 91
        5
280
     0
281
     0
  0
CLASS
  1
TABLEGEOMETRY
  2
AcDbTableGeometry
  3
ObjectDBX Classes
 90
     1152
 91
        4
280
     0
281
     0
  0
CLASS
  1
VISUALSTYLE
  2
AcDbVisualStyle
  3
ObjectDBX Classes
 90
     4095
 91
        5
280
     0
281
     0
  0
CLASS
  1
MATERIAL
  2
AcDbMaterial
  3
ObjectDBX Classes
 90
     1153
 91
        5
280
     0
281
     0
  0
CLASS
  1
SUN
  2
AcDbSun
  3
SCENEOE
 90
     1153
 91
        5
280
     0
281
     0
  0
CLASS
  1
CSACDOCUMENTOPTIONS
  2
CDocDataContainer
  3
"DERU003_CSAPP"
 90
     4095
 91
        4
280
     0
281
     0
  0
CLASS
  1
TABLECONTENT
  2
AcDbTableContent
  3
ObjectDBX Classes
 90
     1152
 91
        4
280
     0
281
     0
  0
CLASS
  1
DICTIONARYVAR
  2
AcDbDictionaryVar
  3
ObjectDBX Classes
 90
        0
 91
        4
280
     0
281
     0
  0
CLASS
  1
CELLSTYLEMAP
  2
AcDbCellStyleMap
  3
ObjectDBX Classes
 90
     1152
 91
        4
280
     0
281
     0
  0
ENDSEC
  0
SECTION
  2
TABLES
  0
TABLE
  2
VPORT
  5
8
330
0
100
AcDbSymbolTable
 70
     1
  0
VPORT
  5
1F4
330
8
100
AcDbSymbolTableRecord
100
AcDbViewportTableRecord
  2
*ACTIVE
 70
     0
 10
0.0
 20
0.0
 11
1.0
 21
1.0
 12
420.5
 22
297.0
 13
0.0
 23
0.0
 14
1.0
 24
1.0
 15
0.0
 25
0.0
 16
0.0
 26
0.0
 36
1.0
 17
0.0
 27
0.0
 37
0.0
 40
594.0
 41
2.107285
 42
50.0
 43
0.0
 44
0.0
 50
0.0
 51
0.0
 71
    16
 72
   100
 73
     1
 74
     1
 75
     0
 76
     0
 77
     0
 78
     0
281
     0
 65
     1
110
0.0
120
0.0
130
0.0
111
1.0
121
0.0
131
0.0
112
0.0
122
1.0
132
0.0
 79
     0
146
0.0
 60
     3
 61
     5
292
     1
282
     1
141
0.0
142
0.0
 63
   256
361
58D
  0
ENDTAB
  0
TABLE
  2
LTYPE
  5
5
330
0
100
AcDbSymbolTable
 70
     6
  0
LTYPE
  5
14
330
5
100
AcDbSymbolTableRecord
100
AcDbLinetypeTableRecord
  2
BYBLOCK
 70
     0
  3

 72
    65
 73
     0
 40
0.0
  0
LTYPE
  5
15
330
5
100
AcDbSymbolTableRecord
100
AcDbLinetypeTableRecord
  2
BYLAYER
 70
     0
  3

 72
    65
 73
     0
 40
0.0
  0
LTYPE
  5
16
330
5
100
AcDbSymbolTableRecord
100
AcDbLinetypeTableRecord
  2
CONTINUOUS
 70
     0
  3
Solid line
 72
    65
 73
     0
 40
0.0
  0
LTYPE
  5
1F5
330
5
100
AcDbSymbolTableRecord
100
AcDbLinetypeTableRecord
  2
CENTER
 70
     0
  3
____ _ ____ _ ____ _ ____ _ ____ _ ____ _ ____
 72
    65
 73
     4
 40
0.6
 49
0.375
 74
     0
 49
-0.075
 74
     0
 49
0.075
 74
     0
 49
-0.075
 74
     0
  0
LTYPE
  5
1F6
330
5
100
AcDbSymbolTableRecord
100
AcDbLinetypeTableRecord
  2
HIDDEN
 70
     0
  3
- - - - - - - - - - - - - - - - - - - -
 72
    65
 73
     2
 40
0.2
 49
0.1
 74
     0
 49
-0.1
 74
     0
  0
LTYPE
  5
1F7
330
5
100
AcDbSymbolTableRecord
100
AcDbLinetypeTableRecord
  2
PHANTOM
 70
     0
  3
_____ _ _ _____ _ _ _____ _ _ _____
 72
    65
 73
     6
 40
0.8
 49
0.45
 74
     0
 49
-0.05
 74
     0
 49
0.1
 74
     0
 49
-0.05
 74
     0
 49
0.1
 74
     0
 49
-0.05
 74
     0
  0
LTYPE
  5
1F8
330
5
100
AcDbSymbolTableRecord
100
AcDbLinetypeTableRecord
  2
DOT
 70
     0
  3
. . . . . . . . . . . . . . . . . . . .
 72
    65
 73
     2
 40
0.2
 49
0.1
 74
     0
 49
-0.1
 74
     0
  0
LTYPE
  5
1F9
330
5
100
AcDbSymbolTableRecord
100
AcDbLinetypeTableRecord
  2
DASHED
 70
     0
  3
- - - - - - - - - - - - - - - - - - - -
 72
    65
 73
     2
 40
0.2
 49
0.1
 74
     0
 49
-0.1
 74
     0
  0
ENDTAB
  0
TABLE
  2
LAYER
  5
2
330
0
100
AcDbSymbolTable
 70
    12
  0
LAYER
  5
10
330
2
100
AcDbSymbolTableRecord
100
AcDbLayerTableRecord
  2
0
 70
     0
 62
     7
  6
CONTINUOUS
370
    -3
390
F
347
587
  0
LAYER
  5
1FA
330
2
100
AcDbSymbolTableRecord
100
AcDbLayerTableRecord
  2
DEFAULT_1
 70
     0
 62
     7
  6
CENTER
370
    -3
390
F
347
587
  0
LAYER
  5
1FB
330
2
100
AcDbSymbolTableRecord
100
AcDbLayerTableRecord
  2
DEFAULT_2
 70
     0
 62
     8
  6
HIDDEN
370
    -3
390
F
347
587
  0
LAYER
  5
1FC
330
2
100
AcDbSymbolTableRecord
100
AcDbLayerTableRecord
  2
DEFAULT_3
 70
     0
 62
     7
  6
PHANTOM
370
    -3
390
F
347
587
  0
LAYER
  5
1FD
330
2
100
AcDbSymbolTableRecord
100
AcDbLayerTableRecord
  2
1_ALL_PLANES
 70
     0
 62
     7
  6
CONTINUOUS
370
    -3
390
F
347
587
  0
LAYER
  5
1FE
330
2
100
AcDbSymbolTableRecord
100
AcDbLayerTableRecord
  2
2_ALL_CSYS
 70
     0
 62
     7
  6
CONTINUOUS
370
    -3
390
F
347
587
  0
LAYER
  5
1FF
330
2
100
AcDbSymbolTableRecord
100
AcDbLayerTableRecord
  2
3_ALL_AXES
 70
     0
 62
     7
  6
CONTINUOUS
370
    -3
390
F
347
587
  0
LAYER
  5
200
330
2
100
AcDbSymbolTableRecord
100
AcDbLayerTableRecord
  2
4_ALL_POINTS
 70
     0
 62
     7
  6
CONTINUOUS
370
    -3
390
F
347
587
  0
LAYER
  5
201
330
2
100
AcDbSymbolTableRecord
100
AcDbLayerTableRecord
  2
5_ALL_CURVES
 70
     0
 62
     7
  6
CONTINUOUS
370
    -3
390
F
347
587
  0
LAYER
  5
202
330
2
100
AcDbSymbolTableRecord
100
AcDbLayerTableRecord
  2
6_ALL_SURFS
 70
     0
 62
     7
  6
CONTINUOUS
370
    -3
390
F
347
587
  0
LAYER
  5
203
330
2
100
AcDbSymbolTableRecord
100
AcDbLayerTableRecord
  2
7_ALL_FEATURES
 70
     0
 62
     7
  6
CONTINUOUS
370
    -3
390
F
347
587
  0
LAYER
  5
204
330
2
100
AcDbSymbolTableRecord
100
AcDbLayerTableRecord
  2
9_SOLID
 70
     0
 62
     7
  6
CONTINUOUS
370
    -3
390
F
347
587
  0
ENDTAB
  0
TABLE
  2
STYLE
  5
3
330
0
100
AcDbSymbolTable
 70
     4
  0
STYLE
  5
11
330
3
100
AcDbSymbolTableRecord
100
AcDbTextStyleTableRecord
  2
STANDARD
 70
     0
 40
0.0
 41
1.0
 50
0.0
 71
     0
 42
0.2
  3
arial.ttf
  4

  0
STYLE
  5
205
330
3
100
AcDbSymbolTableRecord
100
AcDbTextStyleTableRecord
  2
TEXTSTYLE_1
 70
     0
 40
0.0
 41
0.8
 50
0.0
 71
     0
 42
0.2
  3
gdt
  4

  0
STYLE
  5
206
330
3
100
AcDbSymbolTableRecord
100
AcDbTextStyleTableRecord
  2
TEXTSTYLE_2
 70
     0
 40
0.0
 41
0.9
 50
0.0
 71
     0
 42
0.2
  3
txt
  4

  0
STYLE
  5
207
330
3
100
AcDbSymbolTableRecord
100
AcDbTextStyleTableRecord
  2
TEXTSTYLE_3
 70
     0
 40
0.0
 41
0.9
 50
0.0
 71
     0
 42
0.2
  3
txt
  4

  0
ENDTAB
  0
TABLE
  2
VIEW
  5
6
330
0
100
AcDbSymbolTable
 70
     0
  0
ENDTAB
  0
TABLE
  2
UCS
  5
7
330
0
100
AcDbSymbolTable
 70
     0
  0
ENDTAB
  0
TABLE
  2
APPID
  5
9
330
0
100
AcDbSymbolTable
 70
     6
  0
APPID
  5
208
330
9
100
AcDbSymbolTableRecord
100
AcDbRegAppTableRecord
  2
ACAD
 70
     0
  0
APPID
  5
588
330
9
100
AcDbSymbolTableRecord
100
AcDbRegAppTableRecord
  2
MCS_DIM1
 70
     0
  0
APPID
  5
589
330
9
100
AcDbSymbolTableRecord
100
AcDbRegAppTableRecord
  2
McsXdata5
 70
     0
  0
APPID
  5
58C
330
9
100
AcDbSymbolTableRecord
100
AcDbRegAppTableRecord
  2
MCS_DOCUMENT_ID
 70
     0
  0
APPID
  5
592
330
9
100
AcDbSymbolTableRecord
100
AcDbRegAppTableRecord
  2
MCS_PARAMS_DATA
 70
     0
  0
APPID
  5
594
330
9
100
AcDbSymbolTableRecord
100
AcDbRegAppTableRecord
  2
MC_VERSION_DATA
 70
     0
  0
ENDTAB
  0
TABLE
  2
DIMSTYLE
  5
A
330
0
100
AcDbSymbolTable
 70
     4
100
AcDbDimStyleTable
  0
DIMSTYLE
105
211
330
A
100
AcDbSymbolTableRecord
100
AcDbDimStyleTableRecord
  2
STANDARD
 70
     0
 41
2.5
 42
0.75
 44
0.75
 47
0.01
 48
0.01
 71
     1
 73
     0
 74
     0
 77
     1
 78
     8
 79
     2
140
3.0
147
0.625
171
     1
178
     0
179
     2
271
     2
272
     2
278
    44
284
     8
340
11
341
20B
342
20B
343
20B
344
20B
  0
DIMSTYLE
105
212
330
A
100
AcDbSymbolTableRecord
100
AcDbDimStyleTableRecord
  2
DIMSTYLE_1
 70
     0
 41
2.5
 42
0.75
 44
0.75
 47
0.8
 48
0.8
 73
     0
 74
     0
 77
     1
 78
     8
 79
     2
140
5.0
147
1.25
171
     1
178
     0
179
     2
271
     2
272
     2
278
    44
284
     8
340
11
341
20B
342
20B
343
20B
344
20B
  0
DIMSTYLE
105
213
330
A
100
AcDbSymbolTableRecord
100
AcDbDimStyleTableRecord
  2
DIMSTYLE_2
 70
     0
 41
2.5
 42
0.75
 44
0.75
 47
0.5
 48
0.5
 73
     0
 74
     0
 77
     1
 78
     8
 79
     2
140
5.0
147
1.25
171
     1
178
     0
179
     2
271
     2
272
     2
278
    44
284
     8
340
11
341
20B
342
20B
343
20B
344
20B
  0
DIMSTYLE
105
214
330
A
100
AcDbSymbolTableRecord
100
AcDbDimStyleTableRecord
  2
DIMSTYLE_3
 70
     0
 41
2.5
 42
0.75
 44
0.75
 47
0.3
 48
0.3
 73
     0
 74
     0
 77
     1
 78
     8
 79
     2
140
5.0
147
1.25
171
     1
178
     0
179
     2
271
     2
272
     2
278
    44
284
     8
340
11
341
20B
342
20B
343
20B
344
20B
  0
ENDTAB
  0
TABLE
  2
BLOCK_RECORD
  5
1
330
0
100
AcDbSymbolTable
 70
     6
  0
BLOCK_RECORD
  5
209
330
1
100
AcDbSymbolTableRecord
100
AcDbBlockTableRecord
  2
*Model_Space
340
542
 70
     0
280
     1
281
     0
  0
BLOCK_RECORD
  5
20A
330
1
100
AcDbSymbolTableRecord
100
AcDbBlockTableRecord
  2
*Paper_Space
340
543
 70
     0
280
     1
281
     0
  0
BLOCK_RECORD
  5
20B
330
1
100
AcDbSymbolTableRecord
100
AcDbBlockTableRecord
  2
_CLOSED
340
0
102
{BLKREFS
331
25D
331
25E
331
266
331
267
331
26F
331
270
102
}
 70
     0
280
     1
281
     0
  0
BLOCK_RECORD
  5
20C
330
1
100
AcDbSymbolTableRecord
100
AcDbBlockTableRecord
  2
*D1
340
0
 70
     0
280
     1
281
     0
  0
BLOCK_RECORD
  5
20D
330
1
100
AcDbSymbolTableRecord
100
AcDbBlockTableRecord
  2
*D2
340
0
 70
     0
280
     1
281
     0
  0
BLOCK_RECORD
  5
20E
330
1
100
AcDbSymbolTableRecord
100
AcDbBlockTableRecord
  2
*D3
340
0
 70
     0
280
     1
281
     0
  0
BLOCK_RECORD
  5
20F
330
1
100
AcDbSymbolTableRecord
100
AcDbBlockTableRecord
  2
LOGO2_BL0
340
0
102
{BLKREFS
331
53F
102
}
 70
     0
280
     1
281
     0
  0
BLOCK_RECORD
  5
210
330
1
100
AcDbSymbolTableRecord
100
AcDbBlockTableRecord
  2
*T5
340
0
102
{BLKREFS
331
540
102
}
 70
     0
280
     1
281
     0
  0
ENDTAB
  0
ENDSEC
  0
SECTION
  2
BLOCKS
  0
BLOCK
  5
20
330
209
100
AcDbEntity
  8
0
100
AcDbBlockBegin
  2
*Model_Space
 70
     0
 10
0.0
 20
0.0
 30
0.0
  3
*Model_Space
  1
*Model_Space
  0
ENDBLK
  5
21
330
209
100
AcDbEntity
  8
0
100
AcDbBlockEnd
  0
BLOCK
  5
1C
330
20A
100
AcDbEntity
 67
     1
  8
0
100
AcDbBlockBegin
  2
*Paper_Space
 70
     0
 10
0.0
 20
0.0
 30
0.0
  3
*Paper_Space
  1
*Paper_Space
  0
ENDBLK
  5
1D
330
20A
100
AcDbEntity
 67
     1
  8
0
100
AcDbBlockEnd
  0
BLOCK
  5
251
330
20B
100
AcDbEntity
  8
0
100
AcDbBlockBegin
  2
_CLOSED
 70
     0
 10
0.0
 20
0.0
 30
0.0
  3
_CLOSED
  1
_CLOSED
  0
LINE
  5
252
330
20B
100
AcDbEntity
  8
0
  6
ByBlock
 62
     0
100
AcDbLine
 10
0.0
 20
0.0
 30
0.0
 11
-1.0
 21
0.2
 31
0.0
  0
LINE
  5
253
330
20B
100
AcDbEntity
  8
0
  6
ByBlock
 62
     0
100
AcDbLine
 10
-1.0
 20
0.2
 30
0.0
 11
-1.0
 21
-0.2
 31
0.0
  0
LINE
  5
254
330
20B
100
AcDbEntity
  8
0
  6
ByBlock
 62
     0
100
AcDbLine
 10
-1.0
 20
-0.2
 30
0.0
 11
0.0
 21
0.0
 31
0.0
  0
LINE
  5
255
330
20B
100
AcDbEntity
  8
0
  6
ByBlock
 62
     0
100
AcDbLine
 10
-1.0
 20
0.0
 30
0.0
 11
0.0
 21
0.0
 31
0.0
  0
ENDBLK
  5
256
330
20B
100
AcDbEntity
  8
0
  6
ByBlock
 62
     0
100
AcDbBlockEnd
  0
BLOCK
  5
257
330
20C
100
AcDbEntity
  8
0
100
AcDbBlockBegin
  2
*D1
 70
     1
 10
0.0
 20
0.0
 30
0.0
  3
*D1
  1
*D1
  0
MTEXT
  5
258
330
20C
100
AcDbEntity
  8
0
  6
Continuous
 62
     7
100
AcDbMText
 10
339.448118
 20
470.211176
 30
0.0
 40
5.0
 41
11.654275
 46
0.0
 71
     2
 72
     1
  1
563
 73
     1
 44
0.9
  0
LINE
  5
259
330
20C
100
AcDbEntity
  8
0
  6
Continuous
 62
     7
100
AcDbLine
 10
57.948118
 20
451.767509
 30
0.0
 11
57.948118
 21
464.711176
 31
0.0
  0
LINE
  5
25A
330
20C
100
AcDbEntity
  8
0
  6
Continuous
 62
     7
100
AcDbLine
 10
620.948118
 20
451.767509
 30
0.0
 11
620.948118
 21
464.711176
 31
0.0
  0
LINE
  5
25B
330
20C
100
AcDbEntity
  8
0
  6
Continuous
 62
     7
100
AcDbLine
 10
57.948118
 20
463.961176
 30
0.0
 11
339.448118
 21
463.961176
 31
0.0
  0
LINE
  5
25C
330
20C
100
AcDbEntity
  8
0
  6
Continuous
 62
     7
100
AcDbLine
 10
620.948118
 20
463.961176
 30
0.0
 11
339.448118
 21
463.961176
 31
0.0
  0
INSERT
  5
25D
330
20C
100
AcDbEntity
  8
0
  6
Continuous
 62
     7
100
AcDbBlockReference
  2
_CLOSED
 10
57.948118
 20
463.961176
 30
0.0
 41
2.5
 42
2.5
 43
2.5
 50
180.0
  0
INSERT
  5
25E
330
20C
100
AcDbEntity
  8
0
  6
Continuous
 62
     7
100
AcDbBlockReference
  2
_CLOSED
 10
620.948118
 20
463.961176
 30
0.0
 41
2.5
 42
2.5
 43
2.5
  0
ENDBLK
  5
25F
330
20C
100
AcDbEntity
  8
0
  6
ByBlock
 62
     0
100
AcDbBlockEnd
  0
BLOCK
  5
260
330
20D
100
AcDbEntity
  8
0
100
AcDbBlockBegin
  2
*D2
 70
     1
 10
0.0
 20
0.0
 30
0.0
  3
*D2
  1
*D2
  0
MTEXT
  5
261
330
20D
100
AcDbEntity
  8
0
  6
Continuous
 62
     7
100
AcDbMText
 10
668.016153
 20
367.570725
 30
0.0
 40
5.0
 41
11.654275
 46
0.0
 71
     2
 72
     1
  1
150
 11
0.0
 21
1.0
 31
0.0
 73
     1
 44
0.9
  0
LINE
  5
262
330
20D
100
AcDbEntity
  8
0
  6
Continuous
 62
     7
100
AcDbLine
 10
694.781118
 20
442.570725
 30
0.0
 11
673.516153
 21
442.570725
 31
0.0
  0
LINE
  5
263
330
20D
100
AcDbEntity
  8
0
  6
Continuous
 62
     7
100
AcDbLine
 10
694.317269
 20
292.570725
 30
0.0
 11
673.516153
 21
292.570725
 31
0.0
  0
LINE
  5
264
330
20D
100
AcDbEntity
  8
0
  6
Continuous
 62
     7
100
AcDbLine
 10
674.266153
 20
442.570725
 30
0.0
 11
674.266153
 21
367.570725
 31
0.0
  0
LINE
  5
265
330
20D
100
AcDbEntity
  8
0
  6
Continuous
 62
     7
100
AcDbLine
 10
674.266153
 20
292.570725
 30
0.0
 11
674.266153
 21
367.570725
 31
0.0
  0
INSERT
  5
266
330
20D
100
AcDbEntity
  8
0
  6
Continuous
 62
     7
100
AcDbBlockReference
  2
_CLOSED
 10
674.266153
 20
442.570725
 30
0.0
 41
2.5
 42
2.5
 43
2.5
 50
90.0
  0
INSERT
  5
267
330
20D
100
AcDbEntity
  8
0
  6
Continuous
 62
     7
100
AcDbBlockReference
  2
_CLOSED
 10
674.266153
 20
292.570725
 30
0.0
 41
2.5
 42
2.5
 43
2.5
 50
270.0
  0
ENDBLK
  5
268
330
20D
100
AcDbEntity
  8
0
  6
ByBlock
 62
     0
100
AcDbBlockEnd
  0
BLOCK
  5
269
330
20E
100
AcDbEntity
  8
0
100
AcDbBlockBegin
  2
*D3
 70
     1
 10
0.0
 20
0.0
 30
0.0
  3
*D3
  1
*D3
  0
MTEXT
  5
26A
330
20E
100
AcDbEntity
  8
0
  6
Continuous
 62
     7
100
AcDbMText
 10
737.796134
 20
470.211176
 30
0.0
 40
5.0
 41
7.769517
 46
0.0
 71
     2
 72
     1
  1
63
 73
     1
 44
0.9
  0
LINE
  5
26B
330
20E
100
AcDbEntity
  8
0
  6
Continuous
 62
     7
100
AcDbLine
 10
706.296134
 20
451.544431
 30
0.0
 11
706.296134
 21
464.711176
 31
0.0
  0
LINE
  5
26C
330
20E
100
AcDbEntity
  8
0
  6
Continuous
 62
     7
100
AcDbLine
 10
769.296134
 20
451.767509
 30
0.0
 11
769.296134
 21
464.711176
 31
0.0
  0
LINE
  5
26D
330
20E
100
AcDbEntity
  8
0
  6
Continuous
 62
     7
100
AcDbLine
 10
706.296134
 20
463.961176
 30
0.0
 11
737.796134
 21
463.961176
 31
0.0
  0
LINE
  5
26E
330
20E
100
AcDbEntity
  8
0
  6
Continuous
 62
     7
100
AcDbLine
 10
769.296134
 20
463.961176
 30
0.0
 11
737.796134
 21
463.961176
 31
0.0
  0
INSERT
  5
26F
330
20E
100
AcDbEntity
  8
0
  6
Continuous
 62
     7
100
AcDbBlockReference
  2
_CLOSED
 10
706.296134
 20
463.961176
 30
0.0
 41
2.5
 42
2.5
 43
2.5
 50
180.0
  0
INSERT
  5
270
330
20E
100
AcDbEntity
  8
0
  6
Continuous
 62
     7
100
AcDbBlockReference
  2
_CLOSED
 10
769.296134
 20
463.961176
 30
0.0
 41
2.5
 42
2.5
 43
2.5
  0
ENDBLK
  5
271
330
20E
100
AcDbEntity
  8
0
  6
ByBlock
 62
     0
100
AcDbBlockEnd
  0
BLOCK
  5
215
330
20F
100
AcDbEntity
  8
0
100
AcDbBlockBegin
  2
LOGO2_BL0
 70
     0
 10
754.83965
 20
36.500801
 30
0.0
  3
LOGO2_BL0
  1
LOGO2_BL0
  0
LINE
  5
216
330
20F
100
AcDbEntity
  8
0
  6
Continuous
 62
     7
100
AcDbLine
 10
746.582576
 20
39.696293
 30
0.0
 11
745.278235
 21
39.696293
 31
0.0
  0
LINE
  5
217
330
20F
100
AcDbEntity
  8
0
  6
Continuous
 62
     7
100
AcDbLine
 10
745.278235
 20
39.696293
 30
0.0
 11
745.278235
 21
29.237226
 31
0.0
  0
LINE
  5
218
330
20F
100
AcDbEntity
  8
0
  6
Continuous
 62
     7
100
AcDbLine
 10
745.278235
 20
29.237226
 30
0.0
 11
749.759289
 21
29.237226
 31
0.0
  0
LINE
  5
219
330
20F
100
AcDbEntity
  8
0
  6
Continuous
 62
     7
100
AcDbLine
 10
749.759289
 20
29.237226
 30
0.0
 11
749.759289
 21
30.430081
 31
0.0
  0
LINE
  5
21A
330
20F
100
AcDbEntity
  8
0
  6
Continuous
 62
     7
100
AcDbLine
 10
749.759289
 20
30.430081
 30
0.0
 11
746.582576
 21
30.430081
 31
0.0
  0
LINE
  5
21B
330
20F
100
AcDbEntity
  8
0
  6
Continuous
 62
     7
100
AcDbLine
 10
746.582576
 20
30.430081
 30
0.0
 11
746.582576
 21
39.696293
 31
0.0
  0
LINE
  5
21C
330
20F
100
AcDbEntity
  8
0
  6
Continuous
 62
     7
100
AcDbLine
 10
761.518902
 20
39.696293
 30
0.0
 11
760.215084
 21
39.696293
 31
0.0
  0
LINE
  5
21D
330
20F
100
AcDbEntity
  8
0
  6
Continuous
 62
     7
100
AcDbLine
 10
760.215084
 20
39.696293
 30
0.0
 11
760.215084
 21
29.237226
 31
0.0
  0
LINE
  5
21E
330
20F
100
AcDbEntity
  8
0
  6
Continuous
 62
     7
100
AcDbLine
 10
760.215084
 20
29.237226
 30
0.0
 11
764.69627
 21
29.237226
 31
0.0
  0
LINE
  5
21F
330
20F
100
AcDbEntity
  8
0
  6
Continuous
 62
     7
100
AcDbLine
 10
764.69627
 20
29.237226
 30
0.0
 11
764.69627
 21
30.430081
 31
0.0
  0
LINE
  5
220
330
20F
100
AcDbEntity
  8
0
  6
Continuous
 62
     7
100
AcDbLine
 10
764.69627
 20
30.430081
 30
0.0
 11
761.518902
 21
30.430081
 31
0.0
  0
LINE
  5
221
330
20F
100
AcDbEntity
  8
0
  6
Continuous
 62
     7
100
AcDbLine
 10
761.518902
 20
30.430081
 30
0.0
 11
761.518902
 21
39.696293
 31
0.0
  0
LWPOLYLINE
  5
222
330
20F
100
AcDbEntity
  8
0
  6
Continuous
 62
     7
100
AcDbPolyline
 90
        2
 70
     0
 43
0.2
 10
743.632629
 20
25.893675
 10
743.632629
 20
24.036612
  0
LWPOLYLINE
  5
223
330
20F
100
AcDbEntity
  8
0
  6
Continuous
 62
     7
100
AcDbPolyline
 90
        2
 70
     0
 43
0.2
 10
743.632629
 20
24.036612
 10
744.428346
 20
24.036612
  0
LWPOLYLINE
  5
224
330
20F
100
AcDbEntity
  8
0
  6
Continuous
 62
     7
100
AcDbPolyline
 90
        2
 70
     0
 43
0.2
 10
744.428346
 20
24.036612
 10
744.428346
 20
24.248593
  0
LWPOLYLINE
  5
225
330
20F
100
AcDbEntity
  8
0
  6
Continuous
 62
     7
100
AcDbPolyline
 90
        2
 70
     0
 43
0.2
 10
744.428346
 20
24.248593
 10
743.864239
 20
24.248593
  0
LWPOLYLINE
  5
226
330
20F
100
AcDbEntity
  8
0
  6
Continuous
 62
     7
100
AcDbPolyline
 90
        2
 70
     0
 43
0.2
 10
743.864239
 20
24.248593
 10
743.864239
 20
25.893675
  0
LWPOLYLINE
  5
227
330
20F
100
AcDbEntity
  8
0
  6
Continuous
 62
     7
100
AcDbPolyline
 90
        2
 70
     0
 43
0.2
 10
743.864239
 20
25.893675
 10
743.632629
 20
25.893675
  0
SPLINE
  5
228
330
20F
100
AcDbEntity
  8
0
  6
Continuous
 62
     7
100
AcDbSpline
 70
     3
 71
     3
 72
    35
 73
    31
 74
     0
 42
0.000000001
 43
0.0000001
 40
0.0
 40
0.0
 40
0.0
 40
0.0
 40
1.0
 40
1.0
 40
1.0
 40
2.0
 40
2.0
 40
2.0
 40
3.0
 40
3.0
 40
3.0
 40
4.0
 40
4.0
 40
4.0
 40
5.0
 40
5.0
 40
5.0
 40
6.0
 40
6.0
 40
6.0
 40
7.0
 40
7.0
 40
7.0
 40
8.0
 40
8.0
 40
8.0
 40
9.0
 40
9.0
 40
9.0
 40
10.0
 40
10.0
 40
10.0
 40
10.0
 10
745.8266387567
 20
25.1891635712
 30
0.0
 10
745.8266387567
 20
25.1891635712
 30
0.0
 10
745.8266387567
 20
24.527048292
 30
0.0
 10
745.8266387567
 20
24.527048292
 30
0.0
 10
745.8266387567
 20
24.2119546967
 30
0.0
 10
745.9745024456
 20
23.9973560687
 30
0.0
 10
746.3145889299
 20
23.9973560687
 30
0.0
 10
746.6541520029
 20
23.9973560687
 30
0.0
 10
746.8022773973
 20
24.2119546967
 30
0.0
 10
746.8022773973
 20
24.527048292
 30
0.0
 10
746.8022773973
 20
24.527048292
 30
0.0
 10
746.8022773973
 20
25.1891635712
 30
0.0
 10
746.8022773973
 20
25.1891635712
 30
0.0
 10
746.8022773973
 20
25.1891635712
 30
0.0
 10
746.5802201584
 20
25.1891635712
 30
0.0
 10
746.5802201584
 20
25.1891635712
 30
0.0
 10
746.5802201584
 20
25.1891635712
 30
0.0
 10
746.5802201584
 20
24.5521720338
 30
0.0
 10
746.5802201584
 20
24.5521720338
 30
0.0
 10
746.5802201584
 20
24.3663610267
 30
0.0
 10
746.533505701
 20
24.2035801161
 30
0.0
 10
746.3145889299
 20
24.2035801161
 30
0.0
 10
746.0951487474
 20
24.2035801161
 30
0.0
 10
746.04843429
 20
24.3663610267
 30
0.0
 10
746.04843429
 20
24.5521720338
 30
0.0
 10
746.04843429
 20
24.5521720338
 30
0.0
 10
746.04843429
 20
25.1891635712
 30
0.0
 10
746.04843429
 20
25.1891635712
 30
0.0
 10
746.04843429
 20
25.1891635712
 30
0.0
 10
745.8266387567
 20
25.1891635712
 30
0.0
 10
745.8266387567
 20
25.1891635712
 30
0.0
  0
SPLINE
  5
229
330
20F
100
AcDbEntity
  8
0
  6
Continuous
 62
     7
100
AcDbSpline
 70
     3
 71
     3
 72
    35
 73
    31
 74
     0
 42
0.000000001
 43
0.0000001
 40
0.0
 40
0.0
 40
0.0
 40
0.0
 40
1.0
 40
1.0
 40
1.0
 40
2.0
 40
2.0
 40
2.0
 40
3.0
 40
3.0
 40
3.0
 40
4.0
 40
4.0
 40
4.0
 40
5.0
 40
5.0
 40
5.0
 40
6.0
 40
6.0
 40
6.0
 40
7.0
 40
7.0
 40
7.0
 40
8.0
 40
8.0
 40
8.0
 40
9.0
 40
9.0
 40
9.0
 40
10.0
 40
10.0
 40
10.0
 40
10.0
 10
749.2254099545
 20
25.1478140794
 30
0.0
 10
749.1369534469
 20
25.1991083857
 30
0.0
 10
749.0235040502
 20
25.2242321275
 30
0.0
 10
748.9198686152
 20
25.2242321275
 30
0.0
 10
748.5649957621
 20
25.2242321275
 30
0.0
 10
748.2895505718
 20
24.9604328384
 30
0.0
 10
748.2895505718
 20
24.6029429288
 30
0.0
 10
748.2895505718
 20
24.2580148901
 30
0.0
 10
748.568005377
 20
23.99787948
 30
0.0
 10
748.90756845
 20
23.99787948
 30
0.0
 10
749.0235040502
 20
23.99787948
 30
0.0
 10
749.1242607231
 20
24.0198627541
 30
0.0
 10
749.2254099545
 20
24.0737741167
 30
0.0
 10
749.2254099545
 20
24.0737741167
 30
0.0
 10
749.2254099545
 20
24.3564162122
 30
0.0
 10
749.2254099545
 20
24.3564162122
 30
0.0
 10
749.1415332956
 20
24.2632490029
 30
0.0
 10
749.0380287135
 20
24.2041035274
 30
0.0
 10
748.9099238008
 20
24.2041035274
 30
0.0
 10
748.6762206607
 20
24.2041035274
 30
0.0
 10
748.5109535466
 20
24.3763058411
 30
0.0
 10
748.5109535466
 20
24.6128877432
 30
0.0
 10
748.5109535466
 20
24.8248693148
 30
0.0
 10
748.6787068643
 20
25.0169612575
 30
0.0
 10
748.8955299903
 20
25.0169612575
 30
0.0
 10
749.0283456046
 20
25.0169612575
 30
0.0
 10
749.1369534469
 20
24.9630498948
 30
0.0
 10
749.2254099545
 20
24.8620315163
 30
0.0
 10
749.2254099545
 20
24.8620315163
 30
0.0
 10
749.2254099545
 20
25.1478140794
 30
0.0
 10
749.2254099545
 20
25.1478140794
 30
0.0
  0
SPLINE
  5
22A
330
20F
100
AcDbEntity
  8
0
  6
Continuous
 62
     7
100
AcDbSpline
 70
     3
 71
     3
 72
    32
 73
    28
 74
     0
 42
0.000000001
 43
0.0000001
 40
0.0
 40
0.0
 40
0.0
 40
0.0
 40
1.0
 40
1.0
 40
1.0
 40
2.0
 40
2.0
 40
2.0
 40
3.0
 40
3.0
 40
3.0
 40
4.0
 40
4.0
 40
4.0
 40
5.0
 40
5.0
 40
5.0
 40
6.0
 40
6.0
 40
6.0
 40
7.0
 40
7.0
 40
7.0
 40
8.0
 40
8.0
 40
8.0
 40
9.0
 40
9.0
 40
9.0
 40
9.0
 10
751.7572812068
 20
24.5762489531
 30
0.0
 10
751.7572812068
 20
24.5762489531
 30
0.0
 10
751.7572812068
 20
24.6102706868
 30
0.0
 10
751.7572812068
 20
24.6102706868
 30
0.0
 10
751.7572812068
 20
24.9525816691
 30
0.0
 10
751.584424629
 20
25.2242321275
 30
0.0
 10
751.2177750218
 20
25.2242321275
 30
0.0
 10
750.8461530074
 20
25.2242321275
 30
0.0
 10
750.6564164156
 20
24.9578157819
 30
0.0
 10
750.6564164156
 20
24.6029429288
 30
0.0
 10
750.6564164156
 20
24.2632490029
 30
0.0
 10
750.8704916323
 20
23.9973560687
 30
0.0
 10
751.2226165762
 20
23.9973560687
 30
0.0
 10
751.4466366074
 20
23.9973560687
 30
0.0
 10
751.6488042174
 20
24.1130299633
 30
0.0
 10
751.7572812068
 20
24.312449664
 30
0.0
 10
751.7572812068
 20
24.312449664
 30
0.0
 10
751.5696382601
 20
24.4192255667
 30
0.0
 10
751.5696382601
 20
24.4192255667
 30
0.0
 10
751.4861541597
 20
24.2805215754
 30
0.0
 10
751.3949497427
 20
24.1946821242
 30
0.0
 10
751.2253644855
 20
24.1946821242
 30
0.0
 10
751.0133829139
 20
24.1946821242
 30
0.0
 10
750.8804364468
 20
24.3794463088
 30
0.0
 10
750.878081096
 20
24.5762489531
 30
0.0
 10
750.878081096
 20
24.5762489531
 30
0.0
 10
751.7572812068
 20
24.5762489531
 30
0.0
 10
751.7572812068
 20
24.5762489531
 30
0.0
  0
SPLINE
  5
22B
330
20F
100
AcDbEntity
  8
0
  6
Continuous
 62
     7
100
AcDbSpline
 70
     3
 71
     3
 72
    14
 73
    10
 74
     0
 42
0.000000001
 43
0.0000001
 40
0.0
 40
0.0
 40
0.0
 40
0.0
 40
1.0
 40
1.0
 40
1.0
 40
2.0
 40
2.0
 40
2.0
 40
3.0
 40
3.0
 40
3.0
 40
3.0
 10
750.8901195556
 20
24.7437405652
 30
0.0
 10
750.917729501
 20
24.9086151209
 30
0.0
 10
751.0455727081
 20
25.0316167735
 30
0.0
 10
751.2177750218
 20
25.0316167735
 30
0.0
 10
751.3949497427
 20
25.0316167735
 30
0.0
 10
751.5083991394
 20
24.9159428789
 30
0.0
 10
751.5356165264
 20
24.7437405652
 30
0.0
 10
751.5356165264
 20
24.7437405652
 30
0.0
 10
750.8901195556
 20
24.7437405652
 30
0.0
 10
750.8901195556
 20
24.7437405652
 30
0.0
  0
SPLINE
  5
22C
330
20F
100
AcDbEntity
  8
0
  6
Continuous
 62
     7
100
AcDbSpline
 70
     3
 71
     3
 72
    20
 73
    16
 74
     0
 42
0.000000001
 43
0.0000001
 40
0.0
 40
0.0
 40
0.0
 40
0.0
 40
1.0
 40
1.0
 40
1.0
 40
2.0
 40
2.0
 40
2.0
 40
3.0
 40
3.0
 40
3.0
 40
4.0
 40
4.0
 40
4.0
 40
5.0
 40
5.0
 40
5.0
 40
5.0
 10
753.781312657
 20
24.9531050804
 30
0.0
 10
753.781312657
 20
24.9531050804
 30
0.0
 10
754.1924522236
 20
24.450630244
 30
0.0
 10
754.1924522236
 20
24.450630244
 30
0.0
 10
754.0763857705
 20
24.3349563494
 30
0.0
 10
753.938597749
 20
24.2046269387
 30
0.0
 10
753.7666571409
 20
24.2046269387
 30
0.0
 10
753.5892207143
 20
24.2046269387
 30
0.0
 10
753.4217291022
 20
24.3689780831
 30
0.0
 10
753.4217291022
 20
24.5458910984
 30
0.0
 10
753.4217291022
 20
24.7238509363
 30
0.0
 10
753.6314861758
 20
24.8499930566
 30
0.0
 10
753.7590676772
 20
24.937926153
 30
0.0
 10
753.7590676772
 20
24.937926153
 30
0.0
 10
753.781312657
 20
24.9531050804
 30
0.0
 10
753.781312657
 20
24.9531050804
 30
0.0
  0
SPLINE
  5
22D
330
20F
100
AcDbEntity
  8
0
  6
Continuous
 62
     7
100
AcDbSpline
 70
     3
 71
     3
 72
    23
 73
    19
 74
     0
 42
0.000000001
 43
0.0000001
 40
0.0
 40
0.0
 40
0.0
 40
0.0
 40
1.0
 40
1.0
 40
1.0
 40
2.0
 40
2.0
 40
2.0
 40
3.0
 40
3.0
 40
3.0
 40
4.0
 40
4.0
 40
4.0
 40
5.0
 40
5.0
 40
5.0
 40
6.0
 40
6.0
 40
6.0
 40
6.0
 10
753.8306441708
 20
25.2441217564
 30
0.0
 10
753.8306441708
 20
25.2441217564
 30
0.0
 10
753.7690124917
 20
25.3226334496
 30
0.0
 10
753.7690124917
 20
25.3226334496
 30
0.0
 10
753.7151011291
 20
25.3912003283
 30
0.0
 10
753.6583110043
 20
25.4602906183
 30
0.0
 10
753.6583110043
 20
25.5539812388
 30
0.0
 10
753.6583110043
 20
25.6727956012
 30
0.0
 10
753.7542261228
 20
25.7502604718
 30
0.0
 10
753.8651893158
 20
25.7502604718
 30
0.0
 10
753.9884526741
 20
25.7502604718
 30
0.0
 10
754.0817507362
 20
25.6790765366
 30
0.0
 10
754.0817507362
 20
25.548747126
 30
0.0
 10
754.0817507362
 20
25.4137070137
 30
0.0
 10
753.9536458235
 20
25.3372889657
 30
0.0
 10
753.8600860558
 20
25.2634879741
 30
0.0
 10
753.8600860558
 20
25.2634879741
 30
0.0
 10
753.8306441708
 20
25.2441217564
 30
0.0
 10
753.8306441708
 20
25.2441217564
 30
0.0
  0
SPLINE
  5
22E
330
20F
100
AcDbEntity
  8
0
  6
Continuous
 62
     7
100
AcDbSpline
 70
     3
 71
     3
 72
    50
 73
    46
 74
     0
 42
0.000000001
 43
0.0000001
 40
0.0
 40
0.0
 40
0.0
 40
0.0
 40
1.0
 40
1.0
 40
1.0
 40
2.0
 40
2.0
 40
2.0
 40
3.0
 40
3.0
 40
3.0
 40
4.0
 40
4.0
 40
4.0
 40
5.0
 40
5.0
 40
5.0
 40
6.0
 40
6.0
 40
6.0
 40
7.0
 40
7.0
 40
7.0
 40
8.0
 40
8.0
 40
8.0
 40
9.0
 40
9.0
 40
9.0
 40
10.0
 40
10.0
 40
10.0
 40
11.0
 40
11.0
 40
11.0
 40
12.0
 40
12.0
 40
12.0
 40
13.0
 40
13.0
 40
13.0
 40
14.0
 40
14.0
 40
14.0
 40
15.0
 40
15.0
 40
15.0
 40
15.0
 10
754.5328004135
 20
24.0371353266
 30
0.0
 10
754.5328004135
 20
24.0371353266
 30
0.0
 10
754.8181904182
 20
24.0371353266
 30
0.0
 10
754.8181904182
 20
24.0371353266
 30
0.0
 10
754.8181904182
 20
24.0371353266
 30
0.0
 10
754.4858242504
 20
24.4480131876
 30
0.0
 10
754.4858242504
 20
24.4480131876
 30
0.0
 10
754.4858242504
 20
24.4480131876
 30
0.0
 10
754.7123304853
 20
24.7139061218
 30
0.0
 10
754.7123304853
 20
24.7139061218
 30
0.0
 10
754.7123304853
 20
24.7139061218
 30
0.0
 10
754.564074238
 20
24.8667422179
 30
0.0
 10
754.564074238
 20
24.8667422179
 30
0.0
 10
754.564074238
 20
24.8667422179
 30
0.0
 10
754.3481670817
 20
24.6155047997
 30
0.0
 10
754.3481670817
 20
24.6155047997
 30
0.0
 10
754.3481670817
 20
24.6155047997
 30
0.0
 10
753.9611044343
 20
25.083434491
 30
0.0
 10
753.9611044343
 20
25.083434491
 30
0.0
 10
754.1165575868
 20
25.1975381518
 30
0.0
 10
754.2988355678
 20
25.3372889657
 30
0.0
 10
754.2988355678
 20
25.5466534808
 30
0.0
 10
754.2988355678
 20
25.7905631409
 30
0.0
 10
754.0967988107
 20
25.9339778338
 30
0.0
 10
753.8702925759
 20
25.9339778338
 30
0.0
 10
753.6261212101
 20
25.9339778338
 30
0.0
 10
753.441749584
 20
25.7832353829
 30
0.0
 10
753.441749584
 20
25.5267638519
 30
0.0
 10
753.441749584
 20
25.3692170542
 30
0.0
 10
753.5404126117
 20
25.2315598855
 30
0.0
 10
753.6457491334
 20
25.1205966925
 30
0.0
 10
753.6457491334
 20
25.1205966925
 30
0.0
 10
753.5302060916
 20
25.0368508864
 30
0.0
 10
753.5302060916
 20
25.0368508864
 30
0.0
 10
753.3525079594
 20
24.9086151209
 30
0.0
 10
753.2051676818
 20
24.7809027666
 30
0.0
 10
753.2051676818
 20
24.5437974532
 30
0.0
 10
753.2051676818
 20
24.2234697451
 30
0.0
 10
753.4637328581
 20
23.9973560687
 30
0.0
 10
753.7741157518
 20
23.9973560687
 30
0.0
 10
753.9930325229
 20
23.9973560687
 30
0.0
 10
754.1902277256
 20
24.1224513665
 30
0.0
 10
754.3305019508
 20
24.2883727448
 30
0.0
 10
754.3305019508
 20
24.2883727448
 30
0.0
 10
754.5328004135
 20
24.0371353266
 30
0.0
 10
754.5328004135
 20
24.0371353266
 30
0.0
  0
LWPOLYLINE
  5
22F
330
20F
100
AcDbEntity
  8
0
  6
Continuous
 62
     7
100
AcDbPolyline
 90
        2
 70
     0
 43
0.2
 10
756.468245
 20
25.893675
 10
756.236897
 20
25.893675
  0
LWPOLYLINE
  5
230
330
20F
100
AcDbEntity
  8
0
  6
Continuous
 62
     7
100
AcDbPolyline
 90
        2
 70
     0
 43
0.2
 10
756.236897
 20
25.893675
 10
756.236897
 20
24.036612
  0
LWPOLYLINE
  5
231
330
20F
100
AcDbEntity
  8
0
  6
Continuous
 62
     7
100
AcDbPolyline
 90
        2
 70
     0
 43
0.2
 10
756.236897
 20
24.036612
 10
757.03222
 20
24.036612
  0
LWPOLYLINE
  5
232
330
20F
100
AcDbEntity
  8
0
  6
Continuous
 62
     7
100
AcDbPolyline
 90
        2
 70
     0
 43
0.2
 10
757.03222
 20
24.036612
 10
757.03222
 20
24.248593
  0
LWPOLYLINE
  5
233
330
20F
100
AcDbEntity
  8
0
  6
Continuous
 62
     7
100
AcDbPolyline
 90
        2
 70
     0
 43
0.2
 10
757.03222
 20
24.248593
 10
756.468245
 20
24.248593
  0
LWPOLYLINE
  5
234
330
20F
100
AcDbEntity
  8
0
  6
Continuous
 62
     7
100
AcDbPolyline
 90
        2
 70
     0
 43
0.2
 10
756.468245
 20
24.248593
 10
756.468245
 20
25.893675
  0
LWPOLYLINE
  5
235
330
20F
100
AcDbEntity
  8
0
  6
Continuous
 62
     7
100
AcDbPolyline
 90
        2
 70
     0
 43
0.2
 10
758.711324
 20
25.189164
 10
758.490182
 20
25.189164
  0
LWPOLYLINE
  5
236
330
20F
100
AcDbEntity
  8
0
  6
Continuous
 62
     7
100
AcDbPolyline
 90
        2
 70
     0
 43
0.2
 10
758.490182
 20
25.189164
 10
758.490182
 20
24.037135
  0
LWPOLYLINE
  5
237
330
20F
100
AcDbEntity
  8
0
  6
Continuous
 62
     7
100
AcDbPolyline
 90
        2
 70
     0
 43
0.2
 10
758.490182
 20
24.037135
 10
758.711324
 20
24.037135
  0
LWPOLYLINE
  5
238
330
20F
100
AcDbEntity
  8
0
  6
Continuous
 62
     7
100
AcDbPolyline
 90
        2
 70
     0
 43
0.2
 10
758.711324
 20
24.037135
 10
758.711324
 20
25.189164
  0
LWPOLYLINE
  5
239
330
20F
100
AcDbEntity
  8
0
  6
Continuous
 62
     7
100
AcDbPolyline
 90
        2
 70
     1
 43
0.2
 10
758.4483
 20
25.719118
 42
1.0
 10
758.753467
 20
25.719118
 42
1.0
  0
SPLINE
  5
23A
330
20F
100
AcDbEntity
  8
0
  6
Continuous
 62
     7
100
AcDbSpline
 70
     3
 71
     3
 72
    17
 73
    13
 74
     0
 42
0.000000001
 43
0.0000001
 40
0.0
 40
0.0
 40
0.0
 40
0.0
 40
1.0
 40
1.0
 40
1.0
 40
2.0
 40
2.0
 40
2.0
 40
3.0
 40
3.0
 40
3.0
 40
4.0
 40
4.0
 40
4.0
 40
4.0
 10
760.841607519
 20
24.1946821242
 30
0.0
 10
760.6076426734
 20
24.1946821242
 30
0.0
 10
760.4773132627
 20
24.3967188813
 30
0.0
 10
760.4773132627
 20
24.6128877432
 30
0.0
 10
760.4773132627
 20
24.8274863713
 30
0.0
 10
760.6131384919
 20
25.0263826607
 30
0.0
 10
760.841607519
 20
25.0263826607
 30
0.0
 10
761.0810681832
 20
25.0263826607
 30
0.0
 10
761.2166317068
 20
24.8374311857
 30
0.0
 10
761.2166317068
 20
24.6128877432
 30
0.0
 10
761.2166317068
 20
24.3867740669
 30
0.0
 10
761.083423534
 20
24.1946821242
 30
0.0
 10
760.841607519
 20
24.1946821242
 30
0.0
  0
SPLINE
  5
23B
330
20F
100
AcDbEntity
  8
0
  6
Continuous
 62
     7
100
AcDbSpline
 70
     3
 71
     3
 72
    50
 73
    46
 74
     0
 42
0.000000001
 43
0.0000001
 40
0.0
 40
0.0
 40
0.0
 40
0.0
 40
1.0
 40
1.0
 40
1.0
 40
2.0
 40
2.0
 40
2.0
 40
3.0
 40
3.0
 40
3.0
 40
4.0
 40
4.0
 40
4.0
 40
5.0
 40
5.0
 40
5.0
 40
6.0
 40
6.0
 40
6.0
 40
7.0
 40
7.0
 40
7.0
 40
8.0
 40
8.0
 40
8.0
 40
9.0
 40
9.0
 40
9.0
 40
10.0
 40
10.0
 40
10.0
 40
11.0
 40
11.0
 40
11.0
 40
12.0
 40
12.0
 40
12.0
 40
13.0
 40
13.0
 40
13.0
 40
14.0
 40
14.0
 40
14.0
 40
15.0
 40
15.0
 40
15.0
 40
15.0
 10
761.4257345163
 20
25.1896869825
 30
0.0
 10
761.4257345163
 20
25.1896869825
 30
0.0
 10
761.2040698359
 20
25.1896869825
 30
0.0
 10
761.2040698359
 20
25.1896869825
 30
0.0
 10
761.2040698359
 20
25.1896869825
 30
0.0
 10
761.2040698359
 20
24.9923609269
 30
0.0
 10
761.2040698359
 20
24.9923609269
 30
0.0
 10
761.2040698359
 20
24.9923609269
 30
0.0
 10
761.1993591343
 20
24.9923609269
 30
0.0
 10
761.1993591343
 20
24.9923609269
 30
0.0
 10
761.1080238646
 20
25.1352522085
 30
0.0
 10
760.9701049902
 20
25.2237087162
 30
0.0
 10
760.7973792652
 20
25.2237087162
 30
0.0
 10
760.4650130974
 20
25.2237087162
 30
0.0
 10
760.2559102879
 20
24.9358325079
 30
0.0
 10
760.2559102879
 20
24.6202155013
 30
0.0
 10
760.2559102879
 20
24.2904663899
 30
0.0
 10
760.4529746378
 20
23.9973560687
 30
0.0
 10
760.807847491
 20
23.9973560687
 30
0.0
 10
760.9701049902
 20
23.9973560687
 30
0.0
 10
761.1101175097
 20
24.0858125764
 30
0.0
 10
761.1993591343
 20
24.2166653983
 30
0.0
 10
761.1993591343
 20
24.2166653983
 30
0.0
 10
761.2040698359
 20
24.2166653983
 30
0.0
 10
761.2040698359
 20
24.2166653983
 30
0.0
 10
761.2040698359
 20
24.2166653983
 30
0.0
 10
761.2040698359
 20
23.9973560687
 30
0.0
 10
761.2040698359
 20
23.9973560687
 30
0.0
 10
761.2040698359
 20
23.7607741666
 30
0.0
 10
761.1475414168
 20
23.5739163368
 30
0.0
 10
760.8743207245
 20
23.5739163368
 30
0.0
 10
760.6720222618
 20
23.5739163368
 30
0.0
 10
760.5293926858
 20
23.6922072879
 30
0.0
 10
760.5293926858
 20
23.8984313353
 30
0.0
 10
760.5293926858
 20
23.8984313353
 30
0.0
 10
760.3077280054
 20
23.8984313353
 30
0.0
 10
760.3077280054
 20
23.8984313353
 30
0.0
 10
760.3127004127
 20
23.5739163368
 30
0.0
 10
760.5437864962
 20
23.3771136926
 30
0.0
 10
760.8641142044
 20
23.3771136926
 30
0.0
 10
761.3121542668
 20
23.3771136926
 30
0.0
 10
761.4257345163
 20
23.6623728445
 30
0.0
 10
761.4257345163
 20
24.0591186007
 30
0.0
 10
761.4257345163
 20
24.0591186007
 30
0.0
 10
761.4257345163
 20
25.1896869825
 30
0.0
 10
761.4257345163
 20
25.1896869825
 30
0.0
  0
SPLINE
  5
23C
330
20F
100
AcDbEntity
  8
0
  6
Continuous
 62
     7
100
AcDbSpline
 70
     3
 71
     3
 72
    44
 73
    40
 74
     0
 42
0.000000001
 43
0.0000001
 40
0.0
 40
0.0
 40
0.0
 40
0.0
 40
1.0
 40
1.0
 40
1.0
 40
2.0
 40
2.0
 40
2.0
 40
3.0
 40
3.0
 40
3.0
 40
4.0
 40
4.0
 40
4.0
 40
5.0
 40
5.0
 40
5.0
 40
6.0
 40
6.0
 40
6.0
 40
7.0
 40
7.0
 40
7.0
 40
8.0
 40
8.0
 40
8.0
 40
9.0
 40
9.0
 40
9.0
 40
10.0
 40
10.0
 40
10.0
 40
11.0
 40
11.0
 40
11.0
 40
12.0
 40
12.0
 40
12.0
 40
13.0
 40
13.0
 40
13.0
 40
13.0
 10
762.9946598517
 20
26.1747470262
 30
0.0
 10
762.9946598517
 20
26.1747470262
 30
0.0
 10
762.9946598517
 20
24.0366119153
 30
0.0
 10
762.9946598517
 20
24.0366119153
 30
0.0
 10
762.9946598517
 20
24.0366119153
 30
0.0
 10
763.2160628265
 20
24.0366119153
 30
0.0
 10
763.2160628265
 20
24.0366119153
 30
0.0
 10
763.2160628265
 20
24.0366119153
 30
0.0
 10
763.2160628265
 20
24.5663041386
 30
0.0
 10
763.2160628265
 20
24.5663041386
 30
0.0
 10
763.2160628265
 20
24.7761920651
 30
0.0
 10
763.2160628265
 20
25.0269060719
 30
0.0
 10
763.5013219784
 20
25.0269060719
 30
0.0
 10
763.7282207717
 20
25.0269060719
 30
0.0
 10
763.755176453
 20
24.8939596048
 30
0.0
 10
763.755176453
 20
24.6976803719
 30
0.0
 10
763.755176453
 20
24.6976803719
 30
0.0
 10
763.755176453
 20
24.0366119153
 30
0.0
 10
763.755176453
 20
24.0366119153
 30
0.0
 10
763.755176453
 20
24.0366119153
 30
0.0
 10
763.977102839
 20
24.0366119153
 30
0.0
 10
763.977102839
 20
24.0366119153
 30
0.0
 10
763.977102839
 20
24.0366119153
 30
0.0
 10
763.977102839
 20
24.7238509363
 30
0.0
 10
763.977102839
 20
24.7238509363
 30
0.0
 10
763.977102839
 20
25.0043993866
 30
0.0
 10
763.8930953273
 20
25.2242321275
 30
0.0
 10
763.5680569176
 20
25.2242321275
 30
0.0
 10
763.4283061037
 20
25.2242321275
 30
0.0
 10
763.2901255237
 20
25.1577588939
 30
0.0
 10
763.2207735281
 20
25.0347572413
 30
0.0
 10
763.2207735281
 20
25.0347572413
 30
0.0
 10
763.2160628265
 20
25.0347572413
 30
0.0
 10
763.2160628265
 20
25.0347572413
 30
0.0
 10
763.2160628265
 20
25.0347572413
 30
0.0
 10
763.2160628265
 20
26.1747470262
 30
0.0
 10
763.2160628265
 20
26.1747470262
 30
0.0
 10
763.2160628265
 20
26.1747470262
 30
0.0
 10
762.9946598517
 20
26.1747470262
 30
0.0
 10
762.9946598517
 20
26.1747470262
 30
0.0
  0
LWPOLYLINE
  5
23D
330
20F
100
AcDbEntity
  8
0
  6
Continuous
 62
     7
100
AcDbPolyline
 90
        2
 70
     0
 43
0.2
 10
765.816894
 20
24.982416
 10
766.033324
 20
24.982416
  0
LWPOLYLINE
  5
23E
330
20F
100
AcDbEntity
  8
0
  6
Continuous
 62
     7
100
AcDbPolyline
 90
        2
 70
     0
 43
0.2
 10
766.033324
 20
24.982416
 10
766.033324
 20
25.189164
  0
LWPOLYLINE
  5
23F
330
20F
100
AcDbEntity
  8
0
  6
Continuous
 62
     7
100
AcDbPolyline
 90
        2
 70
     0
 43
0.2
 10
766.033324
 20
25.189164
 10
765.816894
 20
25.189164
  0
LWPOLYLINE
  5
240
330
20F
100
AcDbEntity
  8
0
  6
Continuous
 62
     7
100
AcDbPolyline
 90
        2
 70
     0
 43
0.2
 10
765.816894
 20
25.189164
 10
765.816894
 20
25.629876
  0
LWPOLYLINE
  5
241
330
20F
100
AcDbEntity
  8
0
  6
Continuous
 62
     7
100
AcDbPolyline
 90
        2
 70
     0
 43
0.2
 10
765.816894
 20
25.629876
 10
765.595229
 20
25.629876
  0
LWPOLYLINE
  5
242
330
20F
100
AcDbEntity
  8
0
  6
Continuous
 62
     7
100
AcDbPolyline
 90
        2
 70
     0
 43
0.2
 10
765.595229
 20
25.629876
 10
765.595229
 20
25.189164
  0
LWPOLYLINE
  5
243
330
20F
100
AcDbEntity
  8
0
  6
Continuous
 62
     7
100
AcDbPolyline
 90
        2
 70
     0
 43
0.2
 10
765.595229
 20
25.189164
 10
765.474583
 20
25.189164
  0
LWPOLYLINE
  5
244
330
20F
100
AcDbEntity
  8
0
  6
Continuous
 62
     7
100
AcDbPolyline
 90
        2
 70
     0
 43
0.2
 10
765.474583
 20
25.189164
 10
765.474583
 20
24.982416
  0
LWPOLYLINE
  5
245
330
20F
100
AcDbEntity
  8
0
  6
Continuous
 62
     7
100
AcDbPolyline
 90
        2
 70
     0
 43
0.2
 10
765.474583
 20
24.982416
 10
765.595229
 20
24.982416
  0
LWPOLYLINE
  5
246
330
20F
100
AcDbEntity
  8
0
  6
Continuous
 62
     7
100
AcDbPolyline
 90
        2
 70
     0
 43
0.2
 10
765.595229
 20
24.982416
 10
765.595229
 20
24.036612
  0
LWPOLYLINE
  5
247
330
20F
100
AcDbEntity
  8
0
  6
Continuous
 62
     7
100
AcDbPolyline
 90
        2
 70
     0
 43
0.2
 10
765.595229
 20
24.036612
 10
765.816894
 20
24.036612
  0
LWPOLYLINE
  5
248
330
20F
100
AcDbEntity
  8
0
  6
Continuous
 62
     7
100
AcDbPolyline
 90
        2
 70
     0
 43
0.2
 10
765.816894
 20
24.036612
 10
765.816894
 20
24.982416
  0
SPLINE
  5
249
330
20F
100
AcDbEntity
  8
0
  6
Continuous
 62
     7
100
AcDbSpline
 70
     3
 71
     3
 72
    20
 73
    16
 74
     0
 42
0.000000001
 43
0.0000001
 40
0.0
 40
0.0
 40
0.0
 40
0.0
 40
1.0
 40
1.0
 40
1.0
 40
2.0
 40
2.0
 40
2.0
 40
3.0
 40
3.0
 40
3.0
 40
4.0
 40
4.0
 40
4.0
 40
5.0
 40
5.0
 40
5.0
 40
5.0
 10
753.5989038231
 20
34.3975383587
 30
0.0
 10
753.5989038231
 20
34.3975383587
 30
0.0
 10
755.9152604776
 20
31.5679769365
 30
0.0
 10
755.9152604776
 20
31.5679769365
 30
0.0
 10
755.2636134242
 20
30.9158064718
 30
0.0
 10
754.4867402202
 20
30.179890201
 30
0.0
 10
753.5155505756
 20
30.179890201
 30
0.0
 10
752.5170126911
 20
30.179890201
 30
0.0
 10
751.5736946976
 20
31.1094686483
 30
0.0
 10
751.5736946976
 20
32.1086607968
 30
0.0
 10
751.5736946976
 20
33.1078529454
 30
0.0
 10
752.7525477707
 20
33.814458184
 30
0.0
 10
753.474070231
 20
34.3143159639
 30
0.0
 10
753.474070231
 20
34.3143159639
 30
0.0
 10
753.5989038231
 20
34.3975383587
 30
0.0
 10
753.5989038231
 20
34.3975383587
 30
0.0
  0
SPLINE
  5
24A
330
20F
100
AcDbEntity
  8
0
  6
Continuous
 62
     7
100
AcDbSpline
 70
     3
 71
     3
 72
    23
 73
    19
 74
     0
 42
0.000000001
 43
0.0000001
 40
0.0
 40
0.0
 40
0.0
 40
0.0
 40
1.0
 40
1.0
 40
1.0
 40
2.0
 40
2.0
 40
2.0
 40
3.0
 40
3.0
 40
3.0
 40
4.0
 40
4.0
 40
4.0
 40
5.0
 40
5.0
 40
5.0
 40
6.0
 40
6.0
 40
6.0
 40
6.0
 10
753.8763118057
 20
36.0352922784
 30
0.0
 10
753.8763118057
 20
36.0352922784
 30
0.0
 10
753.5298135331
 20
36.4786216393
 30
0.0
 10
753.5298135331
 20
36.4786216393
 30
0.0
 10
753.2240104882
 20
36.8667311092
 30
0.0
 10
752.9051221611
 20
37.2552331376
 30
0.0
 10
752.9051221611
 20
37.7821774517
 30
0.0
 10
752.9051221611
 20
38.4483491683
 30
0.0
 10
753.4464602856
 20
38.8920710876
 30
0.0
 10
754.0703665407
 20
38.8920710876
 30
0.0
 10
754.7641482028
 20
38.8920710876
 30
0.0
 10
755.2913542225
 20
38.4898295129
 30
0.0
 10
755.2913542225
 20
37.7548292119
 30
0.0
 10
755.2913542225
 20
36.9915647014
 30
0.0
 10
754.5700934678
 20
36.5614514756
 30
0.0
 10
754.0430183009
 20
36.1457320602
 30
0.0
 10
754.0430183009
 20
36.1457320602
 30
0.0
 10
753.8763118057
 20
36.0352922784
 30
0.0
 10
753.8763118057
 20
36.0352922784
 30
0.0
  0
SPLINE
  5
24B
330
20F
100
AcDbEntity
  8
0
  6
Continuous
 62
     7
100
AcDbSpline
 70
     3
 71
     3
 72
    50
 73
    46
 74
     0
 42
0.000000001
 43
0.0000001
 40
0.0
 40
0.0
 40
0.0
 40
0.0
 40
1.0
 40
1.0
 40
1.0
 40
2.0
 40
2.0
 40
2.0
 40
3.0
 40
3.0
 40
3.0
 40
4.0
 40
4.0
 40
4.0
 40
5.0
 40
5.0
 40
5.0
 40
6.0
 40
6.0
 40
6.0
 40
7.0
 40
7.0
 40
7.0
 40
8.0
 40
8.0
 40
8.0
 40
9.0
 40
9.0
 40
9.0
 40
10.0
 40
10.0
 40
10.0
 40
11.0
 40
11.0
 40
11.0
 40
12.0
 40
12.0
 40
12.0
 40
13.0
 40
13.0
 40
13.0
 40
14.0
 40
14.0
 40
14.0
 40
15.0
 40
15.0
 40
15.0
 40
15.0
 10
757.8298989686
 20
29.2367030603
 30
0.0
 10
757.8298989686
 20
29.2367030603
 30
0.0
 10
759.4391269732
 20
29.2367030603
 30
0.0
 10
759.4391269732
 20
29.2367030603
 30
0.0
 10
759.4391269732
 20
29.2367030603
 30
0.0
 10
757.5660996796
 20
31.5538448317
 30
0.0
 10
757.5660996796
 20
31.5538448317
 30
0.0
 10
757.5660996796
 20
31.5538448317
 30
0.0
 10
758.842438105
 20
33.0513245263
 30
0.0
 10
758.842438105
 20
33.0513245263
 30
0.0
 10
758.842438105
 20
33.0513245263
 30
0.0
 10
758.0102141573
 20
33.9123360948
 30
0.0
 10
758.0102141573
 20
33.9123360948
 30
0.0
 10
758.0102141573
 20
33.9123360948
 30
0.0
 10
756.789619034
 20
32.4970319724
 30
0.0
 10
756.789619034
 20
32.4970319724
 30
0.0
 10
756.789619034
 20
32.4970319724
 30
0.0
 10
754.6117046652
 20
35.1324078069
 30
0.0
 10
754.6117046652
 20
35.1324078069
 30
0.0
 10
755.4852781046
 20
35.7704461668
 30
0.0
 10
756.5119493458
 20
36.5614514756
 30
0.0
 10
756.5119493458
 20
37.7403045487
 30
0.0
 10
756.5119493458
 20
39.1139974737
 30
0.0
 10
755.374053206
 20
39.9184806231
 30
0.0
 10
754.0987616031
 20
39.9184806231
 30
0.0
 10
752.7253303837
 20
39.9184806231
 30
0.0
 10
751.6843961849
 20
39.0722554235
 30
0.0
 10
751.6843961849
 20
37.6296030613
 30
0.0
 10
751.6843961849
 20
36.7420283699
 30
0.0
 10
752.2397355614
 20
35.9651551659
 30
0.0
 10
752.8359010183
 20
35.3407254994
 30
0.0
 10
752.8359010183
 20
35.3407254994
 30
0.0
 10
752.1839922592
 20
34.8691319291
 30
0.0
 10
752.1839922592
 20
34.8691319291
 30
0.0
 10
751.1854543748
 20
34.1478711744
 30
0.0
 10
750.352576163
 20
33.4266104197
 30
0.0
 10
750.352576163
 20
32.0950521033
 30
0.0
 10
750.352576163
 20
30.2913768053
 30
0.0
 10
751.8096223356
 20
29.0147766742
 30
0.0
 10
753.5571617729
 20
29.0147766742
 30
0.0
 10
754.7920198538
 20
29.0147766742
 30
0.0
 10
755.9013900785
 20
29.7229521467
 30
0.0
 10
756.6922645345
 20
30.6514837714
 30
0.0
 10
756.6922645345
 20
30.6514837714
 30
0.0
 10
757.8298989686
 20
29.2367030603
 30
0.0
 10
757.8298989686
 20
29.2367030603
 30
0.0
  0
LINE
  5
24C
330
20F
100
AcDbEntity
  8
0
  6
Continuous
 62
     7
100
AcDbLine
 10
743.63276
 20
27.210578
 30
0.0
 11
766.046671
 21
27.210578
 31
0.0
  0
LINE
  5
24D
330
20F
100
AcDbEntity
  8
0
  6
Continuous
 62
     7
100
AcDbLine
 10
766.046671
 20
27.210578
 30
0.0
 11
766.046671
 21
49.624489
 31
0.0
  0
LINE
  5
24E
330
20F
100
AcDbEntity
  8
0
  6
Continuous
 62
     7
100
AcDbLine
 10
766.046671
 20
49.624489
 30
0.0
 11
743.63276
 21
49.624489
 31
0.0
  0
LINE
  5
24F
330
20F
100
AcDbEntity
  8
0
  6
Continuous
 62
     7
100
AcDbLine
 10
743.63276
 20
49.624489
 30
0.0
 11
743.63276
 21
27.210578
 31
0.0
  0
ENDBLK
  5
250
330
20F
100
AcDbEntity
  8
0
  6
ByBlock
 62
     0
100
AcDbBlockEnd
  0
BLOCK
  5
272
330
210
100
AcDbEntity
  8
0
100
AcDbBlockBegin
  2
*T5
 70
     1
 10
0.0
 20
0.0
 30
0.0
  3
*T5
  1
*T5
  0
LINE
  5
273
330
210
100
AcDbEntity
  8
0
  6
Continuous
 62
     2
100
AcDbLine
 10
0.0
 20
0.0
 30
0.0
 11
90.0
 21
0.0
 31
0.0
  0
LINE
  5
274
330
210
100
AcDbEntity
  8
0
  6
Continuous
 62
     2
100
AcDbLine
 10
0.0
 20
0.0
 30
0.0
 11
0.0
 21
-40.0
 31
0.0
  0
LINE
  5
275
330
210
100
AcDbEntity
  8
0
  6
Continuous
 62
     2
100
AcDbLine
 10
30.0
 20
-6.0
 30
0.0
 11
90.0
 21
-6.0
 31
0.0
  0
LINE
  5
276
330
210
100
AcDbEntity
  8
0
  6
Continuous
 62
     2
100
AcDbLine
 10
30.0
 20
-12.0
 30
0.0
 11
90.0
 21
-12.0
 31
0.0
  0
LINE
  5
277
330
210
100
AcDbEntity
  8
0
  6
Continuous
 62
     2
100
AcDbLine
 10
30.0
 20
-22.0
 30
0.0
 11
90.0
 21
-22.0
 31
0.0
  0
LINE
  5
278
330
210
100
AcDbEntity
  8
0
  6
Continuous
 62
     2
100
AcDbLine
 10
0.0
 20
-27.0
 30
0.0
 11
90.0
 21
-27.0
 31
0.0
  0
LINE
  5
279
330
210
100
AcDbEntity
  8
0
  6
Continuous
 62
     2
100
AcDbLine
 10
0.0
 20
-40.0
 30
0.0
 11
90.0
 21
-40.0
 31
0.0
  0
LINE
  5
27A
330
210
100
AcDbEntity
  8
0
  6
Continuous
 62
     2
100
AcDbLine
 10
30.0
 20
0.0
 30
0.0
 11
30.0
 21
-27.0
 31
0.0
  0
LINE
  5
27B
330
210
100
AcDbEntity
  8
0
  6
Continuous
 62
     2
100
AcDbLine
 10
70.0
 20
0.0
 30
0.0
 11
70.0
 21
-12.0
 31
0.0
  0
LINE
  5
27C
330
210
100
AcDbEntity
  8
0
  6
Continuous
 62
     2
100
AcDbLine
 10
90.0
 20
0.0
 30
0.0
 11
90.0
 21
-40.0
 31
0.0
  0
MTEXT
  5
27D
330
210
100
AcDbEntity
  8
9_SOLID
  6
Continuous
 62
     2
100
AcDbMText
 10
31.4875
 20
-1.5
 30
0.0
 40
3.0
 41
48.914498
 46
0.0
 71
     1
 72
     1
  1
A115_C_402
 73
     1
 44
0.9
  0
MTEXT
  5
27E
330
210
100
AcDbEntity
  8
9_SOLID
  6
Continuous
 62
     2
100
AcDbMText
 10
71.4875
 20
-1.25
 30
0.0
 40
3.5
 41
30.966543
 46
0.0
 71
     1
 72
     1
  1
Rev:00
 73
     1
 44
0.9
  0
MTEXT
  5
27F
330
210
100
AcDbEntity
  8
9_SOLID
  6
Continuous
 62
     2
100
AcDbMText
 10
31.4875
 20
-7.75
 30
0.0
 40
3.5
 41
40.724907
 46
0.0
 71
     1
 72
     1
  1
Scale:1:1
 73
     1
 44
0.9
  0
MTEXT
  5
280
330
210
100
AcDbEntity
  8
9_SOLID
  6
Continuous
 62
     2
100
AcDbMText
 10
71.4875
 20
-7.25
 30
0.0
 40
3.5
 41
11.944238
 46
0.0
 71
     1
 72
     1
  1
A1
 73
     1
 44
0.9
  0
MTEXT
  5
281
330
210
100
AcDbEntity
  8
9_SOLID
  6
Continuous
 62
     2
100
AcDbMText
 10
31.4875
 20
-15.75
 30
0.0
 40
2.5
 41
115.241636
 46
0.0
 71
     1
 72
     1
  1
CASSAF.TAGO TRIM 1.1 L=563 mm
 73
     1
 44
0.9
  0
MTEXT
  5
282
330
210
100
AcDbEntity
  8
9_SOLID
  6
Continuous
 62
     2
100
AcDbMText
 10
31.4875
 20
-23.25
 30
0.0
 40
2.5
 41
47.695167
 46
0.0
 71
     1
 72
     1
  1
DATE:03.03.21
 73
     1
 44
0.9
  0
MTEXT
  5
283
330
210
100
AcDbEntity
  8
9_SOLID
  6
Continuous
 62
     2
100
AcDbMText
 10
1.4875
 20
-27.3125
 30
0.0
 40
2.25
 41
148.98513
 46
0.0
 71
     1
 72
     1
  1
Any integral or partial reproductions are prohibited \Pwithout prior authorisation of L & L Luce & Light s.r.l., \Pin accordance with the law in force. \PAll rights reserved.
 73
     1
 44
0.9
  0
ENDBLK
  5
284
330
210
100
AcDbEntity
  8
0
  6
ByBlock
 62
     0
100
AcDbBlockEnd
  0
ENDSEC
  0
SECTION
  2
ENTITIES
  0
LINE
  5
285
330
209
100
AcDbEntity
  8
0
  6
Continuous
 62
     7
100
AcDbLine
 10
0.0
 20
0.0
 30
0.0
 11
841.0
 21
0.0
 31
0.0
  0
LINE
  5
286
330
209
100
AcDbEntity
  8
0
  6
Continuous
 62
     7
100
AcDbLine
 10
841.0
 20
0.0
 30
0.0
 11
841.0
 21
594.0
 31
0.0
  0
LINE
  5
287
330
209
100
AcDbEntity
  8
0
  6
Continuous
 62
     7
100
AcDbLine
 10
0.0
 20
594.0
 30
0.0
 11
841.0
 21
594.0
 31
0.0
  0
LINE
  5
288
330
209
100
AcDbEntity
  8
0
  6
Continuous
 62
     7
100
AcDbLine
 10
0.0
 20
0.0
 30
0.0
 11
0.0
 21
594.0
 31
0.0
  0
LINE
  5
289
330
209
100
AcDbEntity
  8
0
  6
Continuous
 62
     7
100
AcDbLine
 10
0.0
 20
587.0
 30
0.0
 11
841.0
 21
587.0
 31
0.0
  0
LINE
  5
28A
330
209
100
AcDbEntity
  8
0
  6
Continuous
 62
     7
100
AcDbLine
 10
0.0
 20
7.0
 30
0.0
 11
834.0
 21
7.0
 31
0.0
  0
LINE
  5
28B
330
209
100
AcDbEntity
  8
0
  6
Continuous
 62
     7
100
AcDbLine
 10
7.0
 20
0.0
 30
0.0
 11
7.0
 21
594.0
 31
0.0
  0
LINE
  5
28C
330
209
100
AcDbEntity
  8
0
  6
Continuous
 62
     7
100
AcDbLine
 10
834.0
 20
7.0
 30
0.0
 11
834.0
 21
594.0
 31
0.0
  0
LINE
  5
28D
330
209
100
AcDbEntity
  8
0
  6
Continuous
 62
     7
100
AcDbLine
 10
10.0
 20
584.0
 30
0.0
 11
831.0
 21
584.0
 31
0.0
  0
LINE
  5
28E
330
209
100
AcDbEntity
  8
0
  6
Continuous
 62
     7
100
AcDbLine
 10
10.104533
 20
9.956445
 30
0.0
 11
831.001937
 21
10.000555
 31
0.0
  0
LINE
  5
28F
330
209
100
AcDbEntity
  8
0
  6
Continuous
 62
     7
100
AcDbLine
 10
10.0
 20
10.0
 30
0.0
 11
10.0
 21
584.0
 31
0.0
  0
LINE
  5
290
330
209
100
AcDbEntity
  8
0
  6
Continuous
 62
     7
100
AcDbLine
 10
831.0
 20
10.0
 30
0.0
 11
831.0
 21
584.0
 31
0.0
  0
LINE
  5
291
330
209
100
AcDbEntity
  8
0
  6
Continuous
 62
     7
100
AcDbLine
 10
420.5
 20
594.0
 30
0.0
 11
420.5
 21
584.0
 31
0.0
  0
LINE
  5
292
330
209
100
AcDbEntity
  8
0
  6
Continuous
 62
     7
100
AcDbLine
 10
420.5
 20
0.0
 30
0.0
 11
420.5
 21
10.0
 31
0.0
  0
LINE
  5
293
330
209
100
AcDbEntity
  8
0
  6
Continuous
 62
     7
100
AcDbLine
 10
841.0
 20
297.0
 30
0.0
 11
831.0
 21
297.0
 31
0.0
  0
LINE
  5
294
330
209
100
AcDbEntity
  8
0
  6
Continuous
 62
     7
100
AcDbLine
 10
0.0
 20
297.0
 30
0.0
 11
10.0
 21
297.0
 31
0.0
  0
LINE
  5
295
330
209
100
AcDbEntity
  8
0
  6
Continuous
 62
     7
100
AcDbLine
 10
841.0
 20
420.5
 30
0.0
 11
831.032471
 21
420.5
 31
0.0
  0
LINE
  5
296
330
209
100
AcDbEntity
  8
0
  6
Continuous
 62
     7
100
AcDbLine
 10
631.0
 20
0.0
 30
0.0
 11
631.0
 21
10.0
 31
0.0
  0
LINE
  5
297
330
209
100
AcDbEntity
  8
0
  6
Continuous
 62
     7
100
AcDbLine
 10
834.0
 20
7.0
 30
0.0
 11
834.0
 21
0.0
 31
0.0
  0
LINE
  5
298
330
209
100
AcDbEntity
  8
0
  6
Continuous
 62
     7
100
AcDbLine
 10
834.0
 20
7.0
 30
0.0
 11
841.0
 21
7.0
 31
0.0
  0
LINE
  5
299
330
209
100
AcDbEntity
  8
0
  6
Continuous
 62
     7
100
AcDbLine
 10
734.0
 20
7.0
 30
0.0
 11
734.0
 21
0.0
 31
0.0
  0
LINE
  5
29A
330
209
100
AcDbEntity
  8
0
  6
Continuous
 62
     7
100
AcDbLine
 10
534.0
 20
7.0
 30
0.0
 11
534.0
 21
0.0
 31
0.0
  0
LINE
  5
29B
330
209
100
AcDbEntity
  8
0
  6
Continuous
 62
     7
100
AcDbLine
 10
434.0
 20
7.0
 30
0.0
 11
434.0
 21
0.0
 31
0.0
  0
LINE
  5
29C
330
209
100
AcDbEntity
  8
0
  6
Continuous
 62
     7
100
AcDbLine
 10
834.0
 20
107.0
 30
0.0
 11
841.0
 21
107.0
 31
0.0
  0
LINE
  5
29D
330
209
100
AcDbEntity
  8
0
  6
Continuous
 62
     7
100
AcDbLine
 10
834.0
 20
207.0
 30
0.0
 11
841.0
 21
207.0
 31
0.0
  0
LINE
  5
29E
330
209
100
AcDbEntity
  8
0
  6
Continuous
 62
     7
100
AcDbLine
 10
834.0
 20
307.0
 30
0.0
 11
841.0
 21
307.0
 31
0.0
  0
LINE
  5
29F
330
209
100
AcDbEntity
  8
0
  6
Continuous
 62
     7
100
AcDbLine
 10
631.0
 20
584.0
 30
0.0
 11
631.0
 21
594.0
 31
0.0
  0
LINE
  5
2A0
330
209
100
AcDbEntity
  8
0
  6
Continuous
 62
     7
100
AcDbLine
 10
734.0
 20
594.0
 30
0.0
 11
734.0
 21
587.0
 31
0.0
  0
LINE
  5
2A1
330
209
100
AcDbEntity
  8
0
  6
Continuous
 62
     7
100
AcDbLine
 10
534.0
 20
594.0
 30
0.0
 11
534.0
 21
587.0
 31
0.0
  0
LINE
  5
2A2
330
209
100
AcDbEntity
  8
0
  6
Continuous
 62
     7
100
AcDbLine
 10
434.0
 20
594.0
 30
0.0
 11
434.0
 21
587.0
 31
0.0
  0
LINE
  5
2A3
330
209
100
AcDbEntity
  8
0
  6
Continuous
 62
     7
100
AcDbLine
 10
334.0
 20
594.0
 30
0.0
 11
334.0
 21
587.0
 31
0.0
  0
LINE
  5
2A4
330
209
100
AcDbEntity
  8
0
  6
Continuous
 62
     7
100
AcDbLine
 10
234.0
 20
594.0
 30
0.0
 11
234.0
 21
587.0
 31
0.0
  0
LINE
  5
2A5
330
209
100
AcDbEntity
  8
0
  6
Continuous
 62
     7
100
AcDbLine
 10
134.0
 20
594.0
 30
0.0
 11
134.0
 21
587.0
 31
0.0
  0
LINE
  5
2A6
330
209
100
AcDbEntity
  8
0
  6
Continuous
 62
     7
100
AcDbLine
 10
10.0
 20
420.5
 30
0.0
 11
0.0
 21
420.5
 31
0.0
  0
LINE
  5
2A7
330
209
100
AcDbEntity
  8
0
  6
Continuous
 62
     7
100
AcDbLine
 10
0.0
 20
107.0
 30
0.0
 11
7.0
 21
107.0
 31
0.0
  0
LINE
  5
2A8
330
209
100
AcDbEntity
  8
0
  6
Continuous
 62
     7
100
AcDbLine
 10
0.0
 20
207.0
 30
0.0
 11
7.0
 21
207.0
 31
0.0
  0
LINE
  5
2A9
330
209
100
AcDbEntity
  8
0
  6
Continuous
 62
     7
100
AcDbLine
 10
0.0
 20
307.0
 30
0.0
 11
7.0
 21
307.0
 31
0.0
  0
LINE
  5
2AA
330
209
100
AcDbEntity
  8
0
  6
Continuous
 62
     7
100
AcDbLine
 10
0.0
 20
507.0
 30
0.0
 11
7.0
 21
507.0
 31
0.0
  0
LINE
  5
2AB
330
209
100
AcDbEntity
  8
0
  6
Continuous
 62
     7
100
AcDbLine
 10
334.0
 20
7.0
 30
0.0
 11
334.0
 21
0.0
 31
0.0
  0
LINE
  5
2AC
330
209
100
AcDbEntity
  8
0
  6
Continuous
 62
     7
100
AcDbLine
 10
234.0
 20
7.0
 30
0.0
 11
234.0
 21
0.0
 31
0.0
  0
LINE
  5
2AD
330
209
100
AcDbEntity
  8
0
  6
Continuous
 62
     7
100
AcDbLine
 10
134.0
 20
7.0
 30
0.0
 11
134.0
 21
0.0
 31
0.0
  0
LINE
  5
2AE
330
209
100
AcDbEntity
  8
0
  6
Continuous
 62
     7
100
AcDbLine
 10
834.0
 20
507.0
 30
0.0
 11
841.0
 21
507.0
 31
0.0
  0
MTEXT
  5
2AF
330
209
100
AcDbEntity
  8
0
  6
Continuous
 62
     2
100
AcDbMText
 10
783.154891
 20
5.35876
 30
0.0
 40
4.0
 41
3.6
 46
0.0
 71
     1
 72
     1
  1
A
  7
TEXTSTYLE_2
 73
     1
 44
0.9
  0
MTEXT
  5
2B0
330
209
100
AcDbEntity
  8
0
  6
Continuous
 62
     2
100
AcDbMText
 10
683.154891
 20
5.35876
 30
0.0
 40
4.0
 41
3.6
 46
0.0
 71
     1
 72
     1
  1
B
  7
TEXTSTYLE_2
 73
     1
 44
0.9
  0
MTEXT
  5
2B1
330
209
100
AcDbEntity
  8
0
  6
Continuous
 62
     2
100
AcDbMText
 10
583.154891
 20
5.35876
 30
0.0
 40
4.0
 41
3.6
 46
0.0
 71
     1
 72
     1
  1
C
  7
TEXTSTYLE_2
 73
     1
 44
0.9
  0
MTEXT
  5
2B2
330
209
100
AcDbEntity
  8
0
  6
Continuous
 62
     2
100
AcDbMText
 10
483.154891
 20
5.35876
 30
0.0
 40
4.0
 41
3.6
 46
0.0
 71
     1
 72
     1
  1
D
  7
TEXTSTYLE_2
 73
     1
 44
0.9
  0
MTEXT
  5
2B3
330
209
100
AcDbEntity
  8
0
  6
Continuous
 62
     2
100
AcDbMText
 10
383.154891
 20
5.35876
 30
0.0
 40
4.0
 41
3.6
 46
0.0
 71
     1
 72
     1
  1
E
  7
TEXTSTYLE_2
 73
     1
 44
0.9
  0
MTEXT
  5
2B4
330
209
100
AcDbEntity
  8
0
  6
Continuous
 62
     2
100
AcDbMText
 10
835.646722
 20
60.626871
 30
0.0
 40
4.0
 41
3.428571
 46
0.0
 71
     1
 72
     1
  1
1
  7
TEXTSTYLE_3
 73
     1
 44
0.9
  0
MTEXT
  5
2B5
330
209
100
AcDbEntity
  8
0
  6
Continuous
 62
     2
100
AcDbMText
 10
835.646722
 20
160.626871
 30
0.0
 40
4.0
 41
4.714286
 46
0.0
 71
     1
 72
     1
  1
2
  7
TEXTSTYLE_3
 73
     1
 44
0.9
  0
MTEXT
  5
2B6
330
209
100
AcDbEntity
  8
0
  6
Continuous
 62
     2
100
AcDbMText
 10
835.646722
 20
260.626871
 30
0.0
 40
4.0
 41
4.285714
 46
0.0
 71
     1
 72
     1
  1
3
  7
TEXTSTYLE_3
 73
     1
 44
0.9
  0
MTEXT
  5
2B7
330
209
100
AcDbEntity
  8
0
  6
Continuous
 62
     2
100
AcDbMText
 10
835.646722
 20
360.626871
 30
0.0
 40
4.0
 41
4.714286
 46
0.0
 71
     1
 72
     1
  1
4
  7
TEXTSTYLE_3
 73
     1
 44
0.9
  0
MTEXT
  5
2B8
330
209
100
AcDbEntity
  8
0
  6
Continuous
 62
     2
100
AcDbMText
 10
835.646722
 20
460.626871
 30
0.0
 40
4.0
 41
4.285714
 46
0.0
 71
     1
 72
     1
  1
5
  7
TEXTSTYLE_3
 73
     1
 44
0.9
  0
MTEXT
  5
2B9
330
209
100
AcDbEntity
  8
0
  6
Continuous
 62
     2
100
AcDbMText
 10
783.154891
 20
592.35876
 30
0.0
 40
4.0
 41
3.6
 46
0.0
 71
     1
 72
     1
  1
A
  7
TEXTSTYLE_2
 73
     1
 44
0.9
  0
MTEXT
  5
2BA
330
209
100
AcDbEntity
  8
0
  6
Continuous
 62
     2
100
AcDbMText
 10
683.154891
 20
592.35876
 30
0.0
 40
4.0
 41
3.6
 46
0.0
 71
     1
 72
     1
  1
B
  7
TEXTSTYLE_2
 73
     1
 44
0.9
  0
MTEXT
  5
2BB
330
209
100
AcDbEntity
  8
0
  6
Continuous
 62
     2
100
AcDbMText
 10
583.154891
 20
592.35876
 30
0.0
 40
4.0
 41
3.6
 46
0.0
 71
     1
 72
     1
  1
C
  7
TEXTSTYLE_2
 73
     1
 44
0.9
  0
MTEXT
  5
2BC
330
209
100
AcDbEntity
  8
0
  6
Continuous
 62
     2
100
AcDbMText
 10
483.154891
 20
592.35876
 30
0.0
 40
4.0
 41
3.6
 46
0.0
 71
     1
 72
     1
  1
D
  7
TEXTSTYLE_2
 73
     1
 44
0.9
  0
MTEXT
  5
2BD
330
209
100
AcDbEntity
  8
0
  6
Continuous
 62
     2
100
AcDbMText
 10
383.154891
 20
592.35876
 30
0.0
 40
4.0
 41
3.6
 46
0.0
 71
     1
 72
     1
  1
E
  7
TEXTSTYLE_2
 73
     1
 44
0.9
  0
MTEXT
  5
2BE
330
209
100
AcDbEntity
  8
0
  6
Continuous
 62
     2
100
AcDbMText
 10
283.154891
 20
592.35876
 30
0.0
 40
4.0
 41
3.6
 46
0.0
 71
     1
 72
     1
  1
F
  7
TEXTSTYLE_2
 73
     1
 44
0.9
  0
MTEXT
  5
2BF
330
209
100
AcDbEntity
  8
0
  6
Continuous
 62
     2
100
AcDbMText
 10
183.154891
 20
592.35876
 30
0.0
 40
4.0
 41
3.6
 46
0.0
 71
     1
 72
     1
  1
G
  7
TEXTSTYLE_2
 73
     1
 44
0.9
  0
MTEXT
  5
2C0
330
209
100
AcDbEntity
  8
0
  6
Continuous
 62
     2
100
AcDbMText
 10
59.577736
 20
592.35876
 30
0.0
 40
4.0
 41
3.6
 46
0.0
 71
     1
 72
     1
  1
H
  7
TEXTSTYLE_2
 73
     1
 44
0.9
  0
MTEXT
  5
2C1
330
209
100
AcDbEntity
  8
0
  6
Continuous
 62
     2
100
AcDbMText
 10
1.646722
 20
60.626871
 30
0.0
 40
4.0
 41
3.428571
 46
0.0
 71
     1
 72
     1
  1
1
  7
TEXTSTYLE_3
 73
     1
 44
0.9
  0
MTEXT
  5
2C2
330
209
100
AcDbEntity
  8
0
  6
Continuous
 62
     2
100
AcDbMText
 10
1.646722
 20
160.626871
 30
0.0
 40
4.0
 41
4.714286
 46
0.0
 71
     1
 72
     1
  1
2
  7
TEXTSTYLE_3
 73
     1
 44
0.9
  0
MTEXT
  5
2C3
330
209
100
AcDbEntity
  8
0
  6
Continuous
 62
     2
100
AcDbMText
 10
1.646722
 20
260.626871
 30
0.0
 40
4.0
 41
4.285714
 46
0.0
 71
     1
 72
     1
  1
3
  7
TEXTSTYLE_3
 73
     1
 44
0.9
  0
MTEXT
  5
2C4
330
209
100
AcDbEntity
  8
0
  6
Continuous
 62
     2
100
AcDbMText
 10
1.646722
 20
360.626871
 30
0.0
 40
4.0
 41
4.714286
 46
0.0
 71
     1
 72
     1
  1
4
  7
TEXTSTYLE_3
 73
     1
 44
0.9
  0
MTEXT
  5
2C5
330
209
100
AcDbEntity
  8
0
  6
Continuous
 62
     2
100
AcDbMText
 10
1.646722
 20
460.626871
 30
0.0
 40
4.0
 41
4.285714
 46
0.0
 71
     1
 72
     1
  1
5
  7
TEXTSTYLE_3
 73
     1
 44
0.9
  0
MTEXT
  5
2C6
330
209
100
AcDbEntity
  8
0
  6
Continuous
 62
     2
100
AcDbMText
 10
1.646722
 20
560.626871
 30
0.0
 40
4.0
 41
4.714286
 46
0.0
 71
     1
 72
     1
  1
6
  7
TEXTSTYLE_3
 73
     1
 44
0.9
  0
MTEXT
  5
2C7
330
209
100
AcDbEntity
  8
0
  6
Continuous
 62
     2
100
AcDbMText
 10
283.154891
 20
5.35876
 30
0.0
 40
4.0
 41
3.6
 46
0.0
 71
     1
 72
     1
  1
F
  7
TEXTSTYLE_2
 73
     1
 44
0.9
  0
MTEXT
  5
2C8
330
209
100
AcDbEntity
  8
0
  6
Continuous
 62
     2
100
AcDbMText
 10
183.154891
 20
5.35876
 30
0.0
 40
4.0
 41
3.6
 46
0.0
 71
     1
 72
     1
  1
G
  7
TEXTSTYLE_2
 73
     1
 44
0.9
  0
MTEXT
  5
2C9
330
209
100
AcDbEntity
  8
0
  6
Continuous
 62
     2
100
AcDbMText
 10
59.577736
 20
5.35876
 30
0.0
 40
4.0
 41
3.6
 46
0.0
 71
     1
 72
     1
  1
H
  7
TEXTSTYLE_2
 73
     1
 44
0.9
  0
MTEXT
  5
2CA
330
209
100
AcDbEntity
  8
0
  6
Continuous
 62
     2
100
AcDbMText
 10
835.646722
 20
560.626871
 30
0.0
 40
4.0
 41
4.714286
 46
0.0
 71
     1
 72
     1
  1
6
  7
TEXTSTYLE_3
 73
     1
 44
0.9
  0
LINE
  5
2CB
330
209
100
AcDbEntity
  8
3_ALL_AXES
  6
Continuous
 62
     7
100
AcDbLine
 10
57.948118
 20
192.150662
 30
0.0
 11
57.242247
 21
192.150662
 31
0.0
  0
LINE
  5
2CC
330
209
100
AcDbEntity
  8
3_ALL_AXES
  6
Continuous
 62
     7
100
AcDbLine
 10
57.948118
 20
186.350662
 30
0.0
 11
57.242247
 21
186.350662
 31
0.0
  0
ARC
  5
2CD
330
209
100
AcDbEntity
  8
3_ALL_AXES
  6
Continuous
 62
     7
100
AcDbCircle
 10
64.698118
 20
189.250662
 30
0.0
 40
8.0
100
AcDbArc
 50
180.0
 51
201.253809
  0
ARC
  5
2CE
330
209
100
AcDbEntity
  8
3_ALL_AXES
  6
Continuous
 62
     7
100
AcDbCircle
 10
64.698118
 20
189.250662
 30
0.0
 40
8.0
100
AcDbArc
 50
158.746191
 51
180.0
  0
LINE
  5
2CF
330
209
100
AcDbEntity
  8
3_ALL_AXES
  6
Continuous
 62
     7
100
AcDbLine
 10
57.242247
 20
192.150662
 30
0.0
 11
57.242247
 21
186.350662
 31
0.0
  0
LINE
  5
2D0
330
209
100
AcDbEntity
  8
3_ALL_AXES
  6
Continuous
 62
     7
100
AcDbLine
 10
57.948118
 20
167.150662
 30
0.0
 11
57.242247
 21
167.150662
 31
0.0
  0
LINE
  5
2D1
330
209
100
AcDbEntity
  8
3_ALL_AXES
  6
Continuous
 62
     7
100
AcDbLine
 10
57.948118
 20
161.350662
 30
0.0
 11
57.242247
 21
161.350662
 31
0.0
  0
ARC
  5
2D2
330
209
100
AcDbEntity
  8
3_ALL_AXES
  6
Continuous
 62
     7
100
AcDbCircle
 10
64.698118
 20
164.250662
 30
0.0
 40
8.0
100
AcDbArc
 50
180.0
 51
201.253809
  0
ARC
  5
2D3
330
209
100
AcDbEntity
  8
3_ALL_AXES
  6
Continuous
 62
     7
100
AcDbCircle
 10
64.698118
 20
164.250662
 30
0.0
 40
8.0
100
AcDbArc
 50
158.746191
 51
180.0
  0
LINE
  5
2D4
330
209
100
AcDbEntity
  8
3_ALL_AXES
  6
Continuous
 62
     7
100
AcDbLine
 10
57.242247
 20
167.150662
 30
0.0
 11
57.242247
 21
161.350662
 31
0.0
  0
LINE
  5
2D5
330
209
100
AcDbEntity
  8
3_ALL_AXES
  6
Continuous
 62
     7
100
AcDbLine
 10
620.948118
 20
161.350662
 30
0.0
 11
621.653988
 21
161.350662
 31
0.0
  0
LINE
  5
2D6
330
209
100
AcDbEntity
  8
3_ALL_AXES
  6
Continuous
 62
     7
100
AcDbLine
 10
620.948118
 20
167.150662
 30
0.0
 11
621.653988
 21
167.150662
 31
0.0
  0
ARC
  5
2D7
330
209
100
AcDbEntity
  8
3_ALL_AXES
  6
Continuous
 62
     7
100
AcDbCircle
 10
614.198118
 20
164.250662
 30
0.0
 40
8.0
100
AcDbArc
 50
0.0
 51
21.253809
  0
ARC
  5
2D8
330
209
100
AcDbEntity
  8
3_ALL_AXES
  6
Continuous
 62
     7
100
AcDbCircle
 10
614.198118
 20
164.250662
 30
0.0
 40
8.0
100
AcDbArc
 50
338.746191
 51
360.0
  0
LINE
  5
2D9
330
209
100
AcDbEntity
  8
3_ALL_AXES
  6
Continuous
 62
     7
100
AcDbLine
 10
621.653988
 20
161.350662
 30
0.0
 11
621.653988
 21
167.150662
 31
0.0
  0
LINE
  5
2DA
330
209
100
AcDbEntity
  8
3_ALL_AXES
  6
Continuous
 62
     7
100
AcDbLine
 10
620.948118
 20
186.350662
 30
0.0
 11
621.653988
 21
186.350662
 31
0.0
  0
LINE
  5
2DB
330
209
100
AcDbEntity
  8
3_ALL_AXES
  6
Continuous
 62
     7
100
AcDbLine
 10
620.948118
 20
192.150662
 30
0.0
 11
621.653988
 21
192.150662
 31
0.0
  0
ARC
  5
2DC
330
209
100
AcDbEntity
  8
3_ALL_AXES
  6
Continuous
 62
     7
100
AcDbCircle
 10
614.198118
 20
189.250662
 30
0.0
 40
8.0
100
AcDbArc
 50
0.0
 51
21.253809
  0
ARC
  5
2DD
330
209
100
AcDbEntity
  8
3_ALL_AXES
  6
Continuous
 62
     7
100
AcDbCircle
 10
614.198118
 20
189.250662
 30
0.0
 40
8.0
100
AcDbArc
 50
338.746191
 51
360.0
  0
LINE
  5
2DE
330
209
100
AcDbEntity
  8
3_ALL_AXES
  6
Continuous
 62
     7
100
AcDbLine
 10
621.653988
 20
186.350662
 30
0.0
 11
621.653988
 21
192.150662
 31
0.0
  0
LINE
  5
2DF
330
209
100
AcDbEntity
  8
3_ALL_AXES
  6
Continuous
 62
     7
100
AcDbLine
 10
57.948118
 20
147.250662
 30
0.0
 11
57.948118
 21
146.750662
 31
0.0
  0
LINE
  5
2E0
330
209
100
AcDbEntity
  8
3_ALL_AXES
  6
Continuous
 62
     7
100
AcDbLine
 10
57.948118
 20
206.750662
 30
0.0
 11
57.948118
 21
206.250662
 31
0.0
  0
LINE
  5
2E1
330
209
100
AcDbEntity
  8
3_ALL_AXES
  6
Continuous
 62
     7
100
AcDbLine
 10
57.948118
 20
147.250662
 30
0.0
 11
57.948118
 21
206.250662
 31
0.0
  0
LINE
  5
2E2
330
209
100
AcDbEntity
  8
3_ALL_AXES
  6
Continuous
 62
     7
100
AcDbLine
 10
59.448118
 20
146.750662
 30
0.0
 11
57.948118
 21
146.750662
 31
0.0
  0
LINE
  5
2E3
330
209
100
AcDbEntity
  8
3_ALL_AXES
  6
Continuous
 62
     7
100
AcDbLine
 10
59.448118
 20
206.750662
 30
0.0
 11
57.948118
 21
206.750662
 31
0.0
  0
LINE
  5
2E4
330
209
100
AcDbEntity
  8
3_ALL_AXES
  6
Continuous
 62
     9
100
AcDbLine
 10
59.448118
 20
206.250662
 30
0.0
 11
57.948118
 21
206.250662
 31
0.0
  0
LINE
  5
2E5
330
209
100
AcDbEntity
  8
3_ALL_AXES
  6
Continuous
 62
     9
100
AcDbLine
 10
59.448118
 20
147.250662
 30
0.0
 11
57.948118
 21
147.250662
 31
0.0
  0
LINE
  5
2E6
330
209
100
AcDbEntity
  8
3_ALL_AXES
  6
Continuous
 62
     7
100
AcDbLine
 10
620.948118
 20
206.250662
 30
0.0
 11
620.948118
 21
206.750662
 31
0.0
  0
LINE
  5
2E7
330
209
100
AcDbEntity
  8
3_ALL_AXES
  6
Continuous
 62
     7
100
AcDbLine
 10
620.948118
 20
146.750662
 30
0.0
 11
620.948118
 21
147.250662
 31
0.0
  0
LINE
  5
2E8
330
209
100
AcDbEntity
  8
3_ALL_AXES
  6
Continuous
 62
     7
100
AcDbLine
 10
620.948118
 20
206.250662
 30
0.0
 11
620.948118
 21
147.250662
 31
0.0
  0
LINE
  5
2E9
330
209
100
AcDbEntity
  8
3_ALL_AXES
  6
Continuous
 62
     7
100
AcDbLine
 10
619.448118
 20
206.750662
 30
0.0
 11
620.948118
 21
206.750662
 31
0.0
  0
LINE
  5
2EA
330
209
100
AcDbEntity
  8
3_ALL_AXES
  6
Continuous
 62
     7
100
AcDbLine
 10
619.448118
 20
146.750662
 30
0.0
 11
620.948118
 21
146.750662
 31
0.0
  0
LINE
  5
2EB
330
209
100
AcDbEntity
  8
3_ALL_AXES
  6
Continuous
 62
     9
100
AcDbLine
 10
619.448118
 20
147.250662
 30
0.0
 11
620.948118
 21
147.250662
 31
0.0
  0
LINE
  5
2EC
330
209
100
AcDbEntity
  8
3_ALL_AXES
  6
Continuous
 62
     9
100
AcDbLine
 10
619.448118
 20
206.250662
 30
0.0
 11
620.948118
 21
206.250662
 31
0.0
  0
LINE
  5
2ED
330
209
100
AcDbEntity
  8
3_ALL_AXES
  6
Continuous
 62
     7
100
AcDbLine
 10
619.448118
 20
205.250662
 30
0.0
 11
619.448118
 21
205.350662
 31
0.0
  0
LINE
  5
2EE
330
209
100
AcDbEntity
  8
3_ALL_AXES
  6
Continuous
 62
     7
100
AcDbLine
 10
619.448118
 20
205.350662
 30
0.0
 11
619.448118
 21
206.250662
 31
0.0
  0
LINE
  5
2EF
330
209
100
AcDbEntity
  8
3_ALL_AXES
  6
Continuous
 62
     7
100
AcDbLine
 10
619.448118
 20
206.250662
 30
0.0
 11
619.448118
 21
206.550662
 31
0.0
  0
LINE
  5
2F0
330
209
100
AcDbEntity
  8
3_ALL_AXES
  6
Continuous
 62
     7
100
AcDbLine
 10
619.448118
 20
206.550662
 30
0.0
 11
619.448118
 21
206.723867
 31
0.0
  0
LINE
  5
2F1
330
209
100
AcDbEntity
  8
3_ALL_AXES
  6
Continuous
 62
     7
100
AcDbLine
 10
619.448118
 20
206.723867
 30
0.0
 11
619.448118
 21
206.750662
 31
0.0
  0
LINE
  5
2F2
330
209
100
AcDbEntity
  8
3_ALL_AXES
  6
Continuous
 62
     7
100
AcDbLine
 10
619.448118
 20
206.850662
 30
0.0
 11
619.448118
 21
206.950662
 31
0.0
  0
LINE
  5
2F3
330
209
100
AcDbEntity
  8
3_ALL_AXES
  6
Continuous
 62
     7
100
AcDbLine
 10
619.448118
 20
206.950662
 30
0.0
 11
619.448118
 21
207.526649
 31
0.0
  0
LINE
  5
2F4
330
209
100
AcDbEntity
  8
3_ALL_AXES
  6
Continuous
 62
     7
100
AcDbLine
 10
619.448118
 20
207.526649
 30
0.0
 11
619.448118
 21
208.250662
 31
0.0
  0
LINE
  5
2F5
330
209
100
AcDbEntity
  8
3_ALL_AXES
  6
Continuous
 62
     7
100
AcDbLine
 10
619.448118
 20
145.250662
 30
0.0
 11
619.448118
 21
145.974675
 31
0.0
  0
LINE
  5
2F6
330
209
100
AcDbEntity
  8
3_ALL_AXES
  6
Continuous
 62
     7
100
AcDbLine
 10
619.448118
 20
145.974675
 30
0.0
 11
619.448118
 21
146.550662
 31
0.0
  0
LINE
  5
2F7
330
209
100
AcDbEntity
  8
3_ALL_AXES
  6
Continuous
 62
     7
100
AcDbLine
 10
619.448118
 20
146.550662
 30
0.0
 11
619.448118
 21
146.750662
 31
0.0
  0
LINE
  5
2F8
330
209
100
AcDbEntity
  8
3_ALL_AXES
  6
Continuous
 62
     7
100
AcDbLine
 10
619.448118
 20
146.750662
 30
0.0
 11
619.448118
 21
146.950662
 31
0.0
  0
LINE
  5
2F9
330
209
100
AcDbEntity
  8
3_ALL_AXES
  6
Continuous
 62
     7
100
AcDbLine
 10
619.448118
 20
146.950662
 30
0.0
 11
619.448118
 21
147.250662
 31
0.0
  0
LINE
  5
2FA
330
209
100
AcDbEntity
  8
3_ALL_AXES
  6
Continuous
 62
     7
100
AcDbLine
 10
619.448118
 20
147.250662
 30
0.0
 11
619.448118
 21
148.150662
 31
0.0
  0
LINE
  5
2FB
330
209
100
AcDbEntity
  8
3_ALL_AXES
  6
Continuous
 62
     7
100
AcDbLine
 10
619.448118
 20
148.150662
 30
0.0
 11
619.448118
 21
148.250662
 31
0.0
  0
ARC
  5
2FC
330
209
100
AcDbEntity
  8
3_ALL_AXES
  6
Continuous
 62
     7
100
AcDbCircle
 10
599.448118
 20
176.750662
 30
0.0
 40
5.0
100
AcDbArc
 50
270.0
 51
90.0
  0
ARC
  5
2FD
330
209
100
AcDbEntity
  8
3_ALL_AXES
  6
Continuous
 62
     7
100
AcDbCircle
 10
599.448118
 20
176.750662
 30
0.0
 40
5.0
100
AcDbArc
 50
90.0
 51
270.0
  0
LINE
  5
2FE
330
209
100
AcDbEntity
  8
3_ALL_AXES
  6
Continuous
 62
     7
100
AcDbLine
 10
619.448118
 20
148.250662
 30
0.0
 11
59.448118
 21
148.250662
 31
0.0
  0
LINE
  5
2FF
330
209
100
AcDbEntity
  8
3_ALL_AXES
  6
Continuous
 62
     7
100
AcDbLine
 10
619.448118
 20
146.750662
 30
0.0
 11
59.448118
 21
146.750662
 31
0.0
  0
LINE
  5
300
330
209
100
AcDbEntity
  8
3_ALL_AXES
  6
Continuous
 62
     7
100
AcDbLine
 10
619.448118
 20
145.250662
 30
0.0
 11
59.448118
 21
145.250662
 31
0.0
  0
LINE
  5
301
330
209
100
AcDbEntity
  8
3_ALL_AXES
  6
Continuous
 62
     7
100
AcDbLine
 10
59.448118
 20
148.150662
 30
0.0
 11
59.448118
 21
148.250662
 31
0.0
  0
LINE
  5
302
330
209
100
AcDbEntity
  8
3_ALL_AXES
  6
Continuous
 62
     7
100
AcDbLine
 10
59.448118
 20
146.950662
 30
0.0
 11
59.448118
 21
147.250662
 31
0.0
  0
LINE
  5
303
330
209
100
AcDbEntity
  8
3_ALL_AXES
  6
Continuous
 62
     7
100
AcDbLine
 10
59.448118
 20
147.250662
 30
0.0
 11
59.448118
 21
148.150662
 31
0.0
  0
LINE
  5
304
330
209
100
AcDbEntity
  8
3_ALL_AXES
  6
Continuous
 62
     7
100
AcDbLine
 10
59.448118
 20
146.750662
 30
0.0
 11
59.448118
 21
146.950662
 31
0.0
  0
LINE
  5
305
330
209
100
AcDbEntity
  8
3_ALL_AXES
  6
Continuous
 62
     7
100
AcDbLine
 10
59.448118
 20
146.550662
 30
0.0
 11
59.448118
 21
146.750662
 31
0.0
  0
LINE
  5
306
330
209
100
AcDbEntity
  8
3_ALL_AXES
  6
Continuous
 62
     7
100
AcDbLine
 10
59.448118
 20
145.974675
 30
0.0
 11
59.448118
 21
146.550662
 31
0.0
  0
LINE
  5
307
330
209
100
AcDbEntity
  8
3_ALL_AXES
  6
Continuous
 62
     7
100
AcDbLine
 10
59.448118
 20
145.250662
 30
0.0
 11
59.448118
 21
145.974675
 31
0.0
  0
LINE
  5
308
330
209
100
AcDbEntity
  8
3_ALL_AXES
  6
Continuous
 62
     7
100
AcDbLine
 10
619.448118
 20
208.250662
 30
0.0
 11
59.448118
 21
208.250662
 31
0.0
  0
LINE
  5
309
330
209
100
AcDbEntity
  8
3_ALL_AXES
  6
Continuous
 62
     7
100
AcDbLine
 10
619.448118
 20
206.750662
 30
0.0
 11
59.448118
 21
206.750662
 31
0.0
  0
LINE
  5
30A
330
209
100
AcDbEntity
  8
3_ALL_AXES
  6
Continuous
 62
     7
100
AcDbLine
 10
619.448118
 20
205.250662
 30
0.0
 11
59.448118
 21
205.250662
 31
0.0
  0
LINE
  5
30B
330
209
100
AcDbEntity
  8
3_ALL_AXES
  6
Continuous
 62
     7
100
AcDbLine
 10
59.448118
 20
207.526649
 30
0.0
 11
59.448118
 21
208.250662
 31
0.0
  0
LINE
  5
30C
330
209
100
AcDbEntity
  8
3_ALL_AXES
  6
Continuous
 62
     7
100
AcDbLine
 10
59.448118
 20
206.950662
 30
0.0
 11
59.448118
 21
207.526649
 31
0.0
  0
LINE
  5
30D
330
209
100
AcDbEntity
  8
3_ALL_AXES
  6
Continuous
 62
     7
100
AcDbLine
 10
59.448118
 20
206.850662
 30
0.0
 11
59.448118
 21
206.950662
 31
0.0
  0
LINE
  5
30E
330
209
100
AcDbEntity
  8
3_ALL_AXES
  6
Continuous
 62
     7
100
AcDbLine
 10
59.448118
 20
206.550662
 30
0.0
 11
59.448118
 21
206.723867
 31
0.0
  0
LINE
  5
30F
330
209
100
AcDbEntity
  8
3_ALL_AXES
  6
Continuous
 62
     7
100
AcDbLine
 10
59.448118
 20
206.723867
 30
0.0
 11
59.448118
 21
206.750662
 31
0.0
  0
LINE
  5
310
330
209
100
AcDbEntity
  8
3_ALL_AXES
  6
Continuous
 62
     7
100
AcDbLine
 10
59.448118
 20
205.350662
 30
0.0
 11
59.448118
 21
206.250662
 31
0.0
  0
LINE
  5
311
330
209
100
AcDbEntity
  8
3_ALL_AXES
  6
Continuous
 62
     7
100
AcDbLine
 10
59.448118
 20
206.250662
 30
0.0
 11
59.448118
 21
206.550662
 31
0.0
  0
LINE
  5
312
330
209
100
AcDbEntity
  8
3_ALL_AXES
  6
Continuous
 62
     7
100
AcDbLine
 10
59.448118
 20
205.250662
 30
0.0
 11
59.448118
 21
205.350662
 31
0.0
  0
LINE
  5
313
330
209
100
AcDbEntity
  8
3_ALL_AXES
  6
Continuous
 62
     9
100
AcDbLine
 10
619.448118
 20
207.526648
 30
0.0
 11
59.448118
 21
207.526648
 31
0.0
  0
LINE
  5
314
330
209
100
AcDbEntity
  8
3_ALL_AXES
  6
Continuous
 62
     9
100
AcDbLine
 10
619.448118
 20
206.950662
 30
0.0
 11
59.448118
 21
206.950662
 31
0.0
  0
LINE
  5
315
330
209
100
AcDbEntity
  8
3_ALL_AXES
  6
Continuous
 62
     9
100
AcDbLine
 10
619.448118
 20
206.550662
 30
0.0
 11
59.448118
 21
206.550662
 31
0.0
  0
LINE
  5
316
330
209
100
AcDbEntity
  8
3_ALL_AXES
  6
Continuous
 62
     9
100
AcDbLine
 10
619.448118
 20
205.350662
 30
0.0
 11
59.448118
 21
205.350662
 31
0.0
  0
LINE
  5
317
330
209
100
AcDbEntity
  8
3_ALL_AXES
  6
Continuous
 62
     9
100
AcDbLine
 10
619.448118
 20
149.384637
 30
0.0
 11
59.448118
 21
149.384637
 31
0.0
  0
LINE
  5
318
330
209
100
AcDbEntity
  8
3_ALL_AXES
  6
Continuous
 62
     9
100
AcDbLine
 10
619.448118
 20
148.884637
 30
0.0
 11
59.448118
 21
148.884637
 31
0.0
  0
LINE
  5
319
330
209
100
AcDbEntity
  8
3_ALL_AXES
  6
Continuous
 62
     9
100
AcDbLine
 10
619.448118
 20
204.616687
 30
0.0
 11
59.448118
 21
204.616687
 31
0.0
  0
LINE
  5
31A
330
209
100
AcDbEntity
  8
3_ALL_AXES
  6
Continuous
 62
     9
100
AcDbLine
 10
619.448118
 20
204.116687
 30
0.0
 11
59.448118
 21
204.116687
 31
0.0
  0
LINE
  5
31B
330
209
100
AcDbEntity
  8
3_ALL_AXES
  6
Continuous
 62
     9
100
AcDbLine
 10
619.448118
 20
148.150662
 30
0.0
 11
59.448118
 21
148.150662
 31
0.0
  0
LINE
  5
31C
330
209
100
AcDbEntity
  8
3_ALL_AXES
  6
Continuous
 62
     9
100
AcDbLine
 10
619.448118
 20
146.950662
 30
0.0
 11
59.448118
 21
146.950662
 31
0.0
  0
LINE
  5
31D
330
209
100
AcDbEntity
  8
3_ALL_AXES
  6
Continuous
 62
     9
100
AcDbLine
 10
619.448118
 20
146.550662
 30
0.0
 11
59.448118
 21
146.550662
 31
0.0
  0
LINE
  5
31E
330
209
100
AcDbEntity
  8
3_ALL_AXES
  6
Continuous
 62
     9
100
AcDbLine
 10
619.448118
 20
145.974676
 30
0.0
 11
59.448118
 21
145.974676
 31
0.0
  0
LINE
  5
31F
330
209
100
AcDbEntity
  8
3_ALL_AXES
  6
Continuous
 62
     3
100
AcDbLine
 10
59.448118
 20
147.250662
 30
0.0
 11
59.448118
 21
146.789345
 31
0.0
  0
LINE
  5
320
330
209
100
AcDbEntity
  8
3_ALL_AXES
  6
Continuous
 62
     3
100
AcDbLine
 10
59.448118
 20
206.443483
 30
0.0
 11
59.448118
 21
206.250662
 31
0.0
  0
LINE
  5
321
330
209
100
AcDbEntity
  8
3_ALL_AXES
  6
Continuous
 62
     3
100
AcDbLine
 10
59.448118
 20
147.250662
 30
0.0
 11
59.448118
 21
148.150662
 31
0.0
  0
LINE
  5
322
330
209
100
AcDbEntity
  8
3_ALL_AXES
  6
Continuous
 62
     3
100
AcDbLine
 10
59.448118
 20
148.150662
 30
0.0
 11
59.448118
 21
148.250662
 31
0.0
  0
LINE
  5
323
330
209
100
AcDbEntity
  8
3_ALL_AXES
  6
Continuous
 62
     3
100
AcDbLine
 10
59.448118
 20
148.250662
 30
0.0
 11
59.448118
 21
205.250662
 31
0.0
  0
LINE
  5
324
330
209
100
AcDbEntity
  8
3_ALL_AXES
  6
Continuous
 62
     3
100
AcDbLine
 10
59.448118
 20
205.250662
 30
0.0
 11
59.448118
 21
205.350662
 31
0.0
  0
LINE
  5
325
330
209
100
AcDbEntity
  8
3_ALL_AXES
  6
Continuous
 62
     3
100
AcDbLine
 10
59.448118
 20
205.350662
 30
0.0
 11
59.448118
 21
206.250662
 31
0.0
  0
LINE
  5
326
330
209
100
AcDbEntity
  8
3_ALL_AXES
  6
Continuous
 62
     3
100
AcDbLine
 10
619.448118
 20
206.250662
 30
0.0
 11
619.448118
 21
206.711979
 31
0.0
  0
LINE
  5
327
330
209
100
AcDbEntity
  8
3_ALL_AXES
  6
Continuous
 62
     3
100
AcDbLine
 10
619.448118
 20
147.057842
 30
0.0
 11
619.448118
 21
147.250662
 31
0.0
  0
LINE
  5
328
330
209
100
AcDbEntity
  8
3_ALL_AXES
  6
Continuous
 62
     3
100
AcDbLine
 10
619.448118
 20
206.250662
 30
0.0
 11
619.448118
 21
205.350662
 31
0.0
  0
LINE
  5
329
330
209
100
AcDbEntity
  8
3_ALL_AXES
  6
Continuous
 62
     3
100
AcDbLine
 10
619.448118
 20
205.350662
 30
0.0
 11
619.448118
 21
205.250662
 31
0.0
  0
LINE
  5
32A
330
209
100
AcDbEntity
  8
3_ALL_AXES
  6
Continuous
 62
     3
100
AcDbLine
 10
619.448118
 20
205.250662
 30
0.0
 11
619.448118
 21
148.250662
 31
0.0
  0
LINE
  5
32B
330
209
100
AcDbEntity
  8
3_ALL_AXES
  6
Continuous
 62
     3
100
AcDbLine
 10
619.448118
 20
148.250662
 30
0.0
 11
619.448118
 21
148.150662
 31
0.0
  0
LINE
  5
32C
330
209
100
AcDbEntity
  8
3_ALL_AXES
  6
Continuous
 62
     3
100
AcDbLine
 10
619.448118
 20
148.150662
 30
0.0
 11
619.448118
 21
147.250662
 31
0.0
  0
LINE
  5
32D
330
209
100
AcDbEntity
  8
7_ALL_FEATURES
  6
Continuous
 62
     7
100
AcDbLine
 10
69.806923
 20
425.195725
 30
0.0
 11
68.931923
 21
425.195725
 31
0.0
  0
LINE
  5
32E
330
209
100
AcDbEntity
  8
7_ALL_FEATURES
  6
Continuous
 62
     7
100
AcDbLine
 10
68.931923
 20
425.195725
 30
0.0
 11
68.931923
 21
426.070725
 31
0.0
  0
LINE
  5
32F
330
209
100
AcDbEntity
  8
7_ALL_FEATURES
  6
Continuous
 62
     7
100
AcDbLine
 10
68.181923
 20
426.070725
 30
0.0
 11
68.181923
 21
425.195725
 31
0.0
  0
LINE
  5
330
330
209
100
AcDbEntity
  8
7_ALL_FEATURES
  6
Continuous
 62
     7
100
AcDbLine
 10
68.181923
 20
425.195725
 30
0.0
 11
67.306923
 21
425.195725
 31
0.0
  0
LINE
  5
331
330
209
100
AcDbEntity
  8
7_ALL_FEATURES
  6
Continuous
 62
     7
100
AcDbLine
 10
67.306923
 20
424.445725
 30
0.0
 11
68.181923
 21
424.445725
 31
0.0
  0
LINE
  5
332
330
209
100
AcDbEntity
  8
7_ALL_FEATURES
  6
Continuous
 62
     7
100
AcDbLine
 10
68.181923
 20
424.445725
 30
0.0
 11
68.181923
 21
423.570725
 31
0.0
  0
LINE
  5
333
330
209
100
AcDbEntity
  8
7_ALL_FEATURES
  6
Continuous
 62
     7
100
AcDbLine
 10
68.931923
 20
423.570725
 30
0.0
 11
68.931923
 21
424.445725
 31
0.0
  0
LINE
  5
334
330
209
100
AcDbEntity
  8
7_ALL_FEATURES
  6
Continuous
 62
     7
100
AcDbLine
 10
68.931923
 20
424.445725
 30
0.0
 11
69.806923
 21
424.445725
 31
0.0
  0
ARC
  5
335
330
209
100
AcDbEntity
  8
3_ALL_AXES
  6
Continuous
 62
     7
100
AcDbCircle
 10
68.556923
 20
424.820725
 30
0.0
 40
2.15
100
AcDbArc
 50
90.0
 51
270.0
  0
LINE
  5
336
330
209
100
AcDbEntity
  8
7_ALL_FEATURES
  6
Continuous
 62
     7
100
AcDbLine
 10
67.306923
 20
424.445725
 30
0.0
 11
67.306923
 21
425.195725
 31
0.0
  0
LINE
  5
337
330
209
100
AcDbEntity
  8
7_ALL_FEATURES
  6
Continuous
 62
     7
100
AcDbLine
 10
68.181923
 20
426.070725
 30
0.0
 11
68.931923
 21
426.070725
 31
0.0
  0
LINE
  5
338
330
209
100
AcDbEntity
  8
7_ALL_FEATURES
  6
Continuous
 62
     7
100
AcDbLine
 10
69.806923
 20
425.195725
 30
0.0
 11
69.806923
 21
424.445725
 31
0.0
  0
LINE
  5
339
330
209
100
AcDbEntity
  8
7_ALL_FEATURES
  6
Continuous
 62
     7
100
AcDbLine
 10
68.931923
 20
423.570725
 30
0.0
 11
68.181923
 21
423.570725
 31
0.0
  0
ARC
  5
33A
330
209
100
AcDbEntity
  8
3_ALL_AXES
  6
Continuous
 62
     7
100
AcDbCircle
 10
68.556923
 20
424.820725
 30
0.0
 40
2.15
100
AcDbArc
 50
270.0
 51
90.0
  0
LINE
  5
33B
330
209
100
AcDbEntity
  8
7_ALL_FEATURES
  6
Continuous
 62
     7
100
AcDbLine
 10
611.589312
 20
425.195725
 30
0.0
 11
610.714312
 21
425.195725
 31
0.0
  0
LINE
  5
33C
330
209
100
AcDbEntity
  8
7_ALL_FEATURES
  6
Continuous
 62
     7
100
AcDbLine
 10
610.714312
 20
425.195725
 30
0.0
 11
610.714312
 21
426.070725
 31
0.0
  0
LINE
  5
33D
330
209
100
AcDbEntity
  8
7_ALL_FEATURES
  6
Continuous
 62
     7
100
AcDbLine
 10
609.964312
 20
426.070725
 30
0.0
 11
609.964312
 21
425.195725
 31
0.0
  0
LINE
  5
33E
330
209
100
AcDbEntity
  8
7_ALL_FEATURES
  6
Continuous
 62
     7
100
AcDbLine
 10
609.964312
 20
425.195725
 30
0.0
 11
609.089312
 21
425.195725
 31
0.0
  0
LINE
  5
33F
330
209
100
AcDbEntity
  8
7_ALL_FEATURES
  6
Continuous
 62
     7
100
AcDbLine
 10
609.089312
 20
424.445725
 30
0.0
 11
609.964312
 21
424.445725
 31
0.0
  0
LINE
  5
340
330
209
100
AcDbEntity
  8
7_ALL_FEATURES
  6
Continuous
 62
     7
100
AcDbLine
 10
609.964312
 20
424.445725
 30
0.0
 11
609.964312
 21
423.570725
 31
0.0
  0
LINE
  5
341
330
209
100
AcDbEntity
  8
7_ALL_FEATURES
  6
Continuous
 62
     7
100
AcDbLine
 10
610.714312
 20
423.570725
 30
0.0
 11
610.714312
 21
424.445725
 31
0.0
  0
LINE
  5
342
330
209
100
AcDbEntity
  8
7_ALL_FEATURES
  6
Continuous
 62
     7
100
AcDbLine
 10
610.714312
 20
424.445725
 30
0.0
 11
611.589312
 21
424.445725
 31
0.0
  0
ARC
  5
343
330
209
100
AcDbEntity
  8
3_ALL_AXES
  6
Continuous
 62
     7
100
AcDbCircle
 10
610.339312
 20
424.820725
 30
0.0
 40
2.15
100
AcDbArc
 50
90.0
 51
270.0
  0
LINE
  5
344
330
209
100
AcDbEntity
  8
7_ALL_FEATURES
  6
Continuous
 62
     7
100
AcDbLine
 10
609.089312
 20
424.445725
 30
0.0
 11
609.089312
 21
425.195725
 31
0.0
  0
LINE
  5
345
330
209
100
AcDbEntity
  8
7_ALL_FEATURES
  6
Continuous
 62
     7
100
AcDbLine
 10
609.964312
 20
426.070725
 30
0.0
 11
610.714312
 21
426.070725
 31
0.0
  0
LINE
  5
346
330
209
100
AcDbEntity
  8
7_ALL_FEATURES
  6
Continuous
 62
     7
100
AcDbLine
 10
611.589312
 20
425.195725
 30
0.0
 11
611.589312
 21
424.445725
 31
0.0
  0
LINE
  5
347
330
209
100
AcDbEntity
  8
7_ALL_FEATURES
  6
Continuous
 62
     7
100
AcDbLine
 10
610.714312
 20
423.570725
 30
0.0
 11
609.964312
 21
423.570725
 31
0.0
  0
ARC
  5
348
330
209
100
AcDbEntity
  8
3_ALL_AXES
  6
Continuous
 62
     7
100
AcDbCircle
 10
610.339312
 20
424.820725
 30
0.0
 40
2.15
100
AcDbArc
 50
270.0
 51
90.0
  0
ARC
  5
349
330
209
100
AcDbEntity
  8
3_ALL_AXES
  6
Continuous
 62
     7
100
AcDbCircle
 10
614.198118
 20
421.820725
 30
0.0
 40
8.0
100
AcDbArc
 50
338.746191
 51
360.0
  0
LINE
  5
34A
330
209
100
AcDbEntity
  8
3_ALL_AXES
  6
Continuous
 62
     7
100
AcDbLine
 10
621.653988
 20
424.720725
 30
0.0
 11
620.948118
 21
424.720725
 31
0.0
  0
LINE
  5
34B
330
209
100
AcDbEntity
  8
3_ALL_AXES
  6
Continuous
 62
     7
100
AcDbLine
 10
621.653988
 20
418.920725
 30
0.0
 11
620.948118
 21
418.920725
 31
0.0
  0
ARC
  5
34C
330
209
100
AcDbEntity
  8
3_ALL_AXES
  6
Continuous
 62
     7
100
AcDbCircle
 10
614.198118
 20
421.820725
 30
0.0
 40
8.0
100
AcDbArc
 50
0.0
 51
21.253809
  0
LINE
  5
34D
330
209
100
AcDbEntity
  8
3_ALL_AXES
  6
Continuous
 62
     7
100
AcDbLine
 10
621.653988
 20
421.820725
 30
0.0
 11
621.653988
 21
418.920725
 31
0.0
  0
LINE
  5
34E
330
209
100
AcDbEntity
  8
3_ALL_AXES
  6
Continuous
 62
     7
100
AcDbLine
 10
621.653988
 20
421.820725
 30
0.0
 11
621.653988
 21
424.720725
 31
0.0
  0
ARC
  5
34F
330
209
100
AcDbEntity
  8
3_ALL_AXES
  6
Continuous
 62
     7
100
AcDbCircle
 10
64.698118
 20
421.820725
 30
0.0
 40
8.0
100
AcDbArc
 50
180.0
 51
201.253809
  0
LINE
  5
350
330
209
100
AcDbEntity
  8
3_ALL_AXES
  6
Continuous
 62
     7
100
AcDbLine
 10
57.242247
 20
418.920725
 30
0.0
 11
57.948118
 21
418.920725
 31
0.0
  0
LINE
  5
351
330
209
100
AcDbEntity
  8
3_ALL_AXES
  6
Continuous
 62
     7
100
AcDbLine
 10
57.242247
 20
424.720725
 30
0.0
 11
57.948118
 21
424.720725
 31
0.0
  0
ARC
  5
352
330
209
100
AcDbEntity
  8
3_ALL_AXES
  6
Continuous
 62
     7
100
AcDbCircle
 10
64.698118
 20
421.820725
 30
0.0
 40
8.0
100
AcDbArc
 50
158.746191
 51
180.0
  0
LINE
  5
353
330
209
100
AcDbEntity
  8
3_ALL_AXES
  6
Continuous
 62
     7
100
AcDbLine
 10
57.242247
 20
418.920725
 30
0.0
 11
57.242247
 21
421.820725
 31
0.0
  0
LINE
  5
354
330
209
100
AcDbEntity
  8
3_ALL_AXES
  6
Continuous
 62
     7
100
AcDbLine
 10
57.242247
 20
424.720725
 30
0.0
 11
57.242247
 21
421.820725
 31
0.0
  0
SPLINE
  5
355
330
209
100
AcDbEntity
  8
7_ALL_FEATURES
  6
Continuous
 62
     7
100
AcDbSpline
 70
     0
 71
     3
 72
    19
 73
    15
 74
     0
 42
0.000000001
 43
0.0000001
 40
0.0
 40
0.0
 40
0.0
 40
0.0
 40
0.0942191692
 40
0.2164788453
 40
0.2861879669
 40
0.3592719887
 40
0.4317288339
 40
0.5002782342
 40
0.5687600876
 40
0.6411451214
 40
0.7140339027
 40
0.7836668666
 40
0.9056994874
 40
1.0
 40
1.0
 40
1.0
 40
1.0
 10
58.8267971787
 20
311.3207248853
 30
0.0
 10
58.990434181
 20
311.3207248853
 30
0.0
 10
59.3659170255
 20
311.3889748574
 30
0.0
 10
59.8240886956
 20
311.5943429751
 30
0.0
 10
60.2003725384
 20
311.8623701472
 30
0.0
 10
60.4635584985
 20
312.1315984609
 30
0.0
 10
60.6543305606
 20
312.4567721331
 30
0.0
 10
60.7269735715
 20
312.8221154415
 30
0.0
 10
60.6533392204
 20
313.1870969181
 30
0.0
 10
60.462258103
 20
313.5113636588
 30
0.0
 10
60.1992954739
 20
313.7799323362
 30
0.0
 10
59.8236201888
 20
314.0473196755
 30
0.0
 10
59.3658048883
 20
314.2524584809
 30
0.0
 10
58.9905754557
 20
314.3207248853
 30
0.0
 10
58.8267971787
 20
314.3207248853
 30
0.0
  0
LINE
  5
356
330
209
100
AcDbEntity
  8
7_ALL_FEATURES
  6
Continuous
 62
     7
100
AcDbLine
 10
57.948118
 20
309.320725
 30
0.0
 11
57.948118
 21
316.320725
 31
0.0
  0
LINE
  5
357
330
209
100
AcDbEntity
  8
7_ALL_FEATURES
  6
Continuous
 62
     7
100
AcDbLine
 10
59.448118
 20
316.320725
 30
0.0
 11
57.948118
 21
316.320725
 31
0.0
  0
LINE
  5
358
330
209
100
AcDbEntity
  8
7_ALL_FEATURES
  6
Continuous
 62
     7
100
AcDbLine
 10
57.948118
 20
309.320725
 30
0.0
 11
59.448118
 21
309.320725
 31
0.0
  0
SPLINE
  5
359
330
209
100
AcDbEntity
  8
7_ALL_FEATURES
  6
Continuous
 62
     7
100
AcDbSpline
 70
     0
 71
     3
 72
    19
 73
    15
 74
     0
 42
0.000000001
 43
0.0000001
 40
0.0
 40
0.0
 40
0.0
 40
0.0
 40
0.0942191692
 40
0.2164788453
 40
0.2861879669
 40
0.3592719887
 40
0.4317288339
 40
0.5002782342
 40
0.5687600876
 40
0.6411451214
 40
0.7140339027
 40
0.7836668666
 40
0.9056994874
 40
1.0
 40
1.0
 40
1.0
 40
1.0
 10
58.8267971787
 20
423.3207248853
 30
0.0
 10
58.990434181
 20
423.3207248853
 30
0.0
 10
59.3659170255
 20
423.3889748574
 30
0.0
 10
59.8240886956
 20
423.5943429751
 30
0.0
 10
60.2003725384
 20
423.8623701472
 30
0.0
 10
60.4635584985
 20
424.1315984609
 30
0.0
 10
60.6543305606
 20
424.4567721331
 30
0.0
 10
60.7269735715
 20
424.8221154415
 30
0.0
 10
60.6533392204
 20
425.1870969182
 30
0.0
 10
60.462258103
 20
425.5113636588
 30
0.0
 10
60.1992954739
 20
425.7799323362
 30
0.0
 10
59.8236201888
 20
426.0473196755
 30
0.0
 10
59.3658048882
 20
426.2524584809
 30
0.0
 10
58.9905754557
 20
426.3207248853
 30
0.0
 10
58.8267971787
 20
426.3207248853
 30
0.0
  0
LINE
  5
35A
330
209
100
AcDbEntity
  8
7_ALL_FEATURES
  6
Continuous
 62
     7
100
AcDbLine
 10
57.948118
 20
421.320725
 30
0.0
 11
57.948118
 21
428.320725
 31
0.0
  0
LINE
  5
35B
330
209
100
AcDbEntity
  8
7_ALL_FEATURES
  6
Continuous
 62
     7
100
AcDbLine
 10
59.448118
 20
428.320725
 30
0.0
 11
57.948118
 21
428.320725
 31
0.0
  0
LINE
  5
35C
330
209
100
AcDbEntity
  8
7_ALL_FEATURES
  6
Continuous
 62
     7
100
AcDbLine
 10
57.948118
 20
421.320725
 30
0.0
 11
59.448118
 21
421.320725
 31
0.0
  0
LINE
  5
35D
330
209
100
AcDbEntity
  8
3_ALL_AXES
  6
Continuous
 62
     7
100
AcDbLine
 10
57.948118
 20
294.570725
 30
0.0
 11
57.948118
 21
292.570725
 31
0.0
  0
LINE
  5
35E
330
209
100
AcDbEntity
  8
3_ALL_AXES
  6
Continuous
 62
     7
100
AcDbLine
 10
57.948118
 20
307.070725
 30
0.0
 11
57.948118
 21
306.570725
 31
0.0
  0
LINE
  5
35F
330
209
100
AcDbEntity
  8
3_ALL_AXES
  6
Continuous
 62
     7
100
AcDbLine
 10
57.948118
 20
307.570725
 30
0.0
 11
57.948118
 21
307.070725
 31
0.0
  0
LINE
  5
360
330
209
100
AcDbEntity
  8
3_ALL_AXES
  6
Continuous
 62
     7
100
AcDbLine
 10
57.948118
 20
318.570725
 30
0.0
 11
57.948118
 21
318.070725
 31
0.0
  0
LINE
  5
361
330
209
100
AcDbEntity
  8
3_ALL_AXES
  6
Continuous
 62
     7
100
AcDbLine
 10
57.948118
 20
319.070725
 30
0.0
 11
57.948118
 21
318.570725
 31
0.0
  0
LINE
  5
362
330
209
100
AcDbEntity
  8
3_ALL_AXES
  6
Continuous
 62
     7
100
AcDbLine
 10
57.948118
 20
419.070725
 30
0.0
 11
57.948118
 21
418.570725
 31
0.0
  0
LINE
  5
363
330
209
100
AcDbEntity
  8
3_ALL_AXES
  6
Continuous
 62
     7
100
AcDbLine
 10
57.948118
 20
419.570725
 30
0.0
 11
57.948118
 21
419.070725
 31
0.0
  0
LINE
  5
364
330
209
100
AcDbEntity
  8
3_ALL_AXES
  6
Continuous
 62
     7
100
AcDbLine
 10
57.948118
 20
430.570725
 30
0.0
 11
57.948118
 21
430.070725
 31
0.0
  0
LINE
  5
365
330
209
100
AcDbEntity
  8
3_ALL_AXES
  6
Continuous
 62
     7
100
AcDbLine
 10
57.948118
 20
431.070725
 30
0.0
 11
57.948118
 21
430.570725
 31
0.0
  0
LINE
  5
366
330
209
100
AcDbEntity
  8
3_ALL_AXES
  6
Continuous
 62
     7
100
AcDbLine
 10
57.948118
 20
442.570725
 30
0.0
 11
57.948118
 21
442.070725
 31
0.0
  0
LINE
  5
367
330
209
100
AcDbEntity
  8
3_ALL_AXES
  6
Continuous
 62
     7
100
AcDbLine
 10
59.448118
 20
442.570725
 30
0.0
 11
57.948118
 21
442.570725
 31
0.0
  0
LINE
  5
368
330
209
100
AcDbEntity
  8
3_ALL_AXES
  6
Continuous
 62
     7
100
AcDbLine
 10
57.948118
 20
431.070725
 30
0.0
 11
57.948118
 21
442.070725
 31
0.0
  0
LINE
  5
369
330
209
100
AcDbEntity
  8
3_ALL_AXES
  6
Continuous
 62
     7
100
AcDbLine
 10
59.448118
 20
430.570725
 30
0.0
 11
57.948118
 21
430.570725
 31
0.0
  0
LINE
  5
36A
330
209
100
AcDbEntity
  8
3_ALL_AXES
  6
Continuous
 62
     7
100
AcDbLine
 10
57.948118
 20
428.320725
 30
0.0
 11
57.948118
 21
430.070725
 31
0.0
  0
LINE
  5
36B
330
209
100
AcDbEntity
  8
3_ALL_AXES
  6
Continuous
 62
     7
100
AcDbLine
 10
57.948118
 20
419.570725
 30
0.0
 11
57.948118
 21
421.320725
 31
0.0
  0
LINE
  5
36C
330
209
100
AcDbEntity
  8
3_ALL_AXES
  6
Continuous
 62
     7
100
AcDbLine
 10
59.448118
 20
419.070725
 30
0.0
 11
57.948118
 21
419.070725
 31
0.0
  0
LINE
  5
36D
330
209
100
AcDbEntity
  8
3_ALL_AXES
  6
Continuous
 62
     7
100
AcDbLine
 10
57.948118
 20
319.070725
 30
0.0
 11
57.948118
 21
418.570725
 31
0.0
  0
LINE
  5
36E
330
209
100
AcDbEntity
  8
3_ALL_AXES
  6
Continuous
 62
     7
100
AcDbLine
 10
59.448118
 20
318.570725
 30
0.0
 11
57.948118
 21
318.570725
 31
0.0
  0
LINE
  5
36F
330
209
100
AcDbEntity
  8
3_ALL_AXES
  6
Continuous
 62
     7
100
AcDbLine
 10
57.948118
 20
316.320725
 30
0.0
 11
57.948118
 21
318.070725
 31
0.0
  0
LINE
  5
370
330
209
100
AcDbEntity
  8
3_ALL_AXES
  6
Continuous
 62
     7
100
AcDbLine
 10
57.948118
 20
307.570725
 30
0.0
 11
57.948118
 21
309.320725
 31
0.0
  0
LINE
  5
371
330
209
100
AcDbEntity
  8
3_ALL_AXES
  6
Continuous
 62
     7
100
AcDbLine
 10
59.448118
 20
307.070725
 30
0.0
 11
57.948118
 21
307.070725
 31
0.0
  0
LINE
  5
372
330
209
100
AcDbEntity
  8
3_ALL_AXES
  6
Continuous
 62
     7
100
AcDbLine
 10
57.948118
 20
294.570725
 30
0.0
 11
57.948118
 21
306.570725
 31
0.0
  0
LINE
  5
373
330
209
100
AcDbEntity
  8
3_ALL_AXES
  6
Continuous
 62
     7
100
AcDbLine
 10
59.448118
 20
292.570725
 30
0.0
 11
57.948118
 21
292.570725
 31
0.0
  0
ARC
  5
374
330
209
100
AcDbEntity
  8
3_ALL_AXES
  6
Continuous
 62
     7
100
AcDbCircle
 10
68.556923
 20
312.820725
 30
0.0
 40
0.95
100
AcDbArc
 50
0.0
 51
180.0
  0
ARC
  5
375
330
209
100
AcDbEntity
  8
3_ALL_AXES
  6
Continuous
 62
     7
100
AcDbCircle
 10
68.556923
 20
312.820725
 30
0.0
 40
0.95
100
AcDbArc
 50
180.0
 51
360.0
  0
LINE
  5
376
330
209
100
AcDbEntity
  8
3_ALL_AXES
  6
Continuous
 62
     7
100
AcDbLine
 10
72.948118
 20
426.820725
 30
0.0
 11
72.948118
 21
422.820725
 31
0.0
  0
ARC
  5
377
330
209
100
AcDbEntity
  8
3_ALL_AXES
  6
Continuous
 62
     7
100
AcDbCircle
 10
71.448118
 20
422.820725
 30
0.0
 40
1.5
100
AcDbArc
 50
350.17331
 51
360.0
  0
ARC
  5
378
330
209
100
AcDbEntity
  8
3_ALL_AXES
  6
Continuous
 62
     7
100
AcDbCircle
 10
71.448118
 20
426.820725
 30
0.0
 40
1.5
100
AcDbArc
 50
0.0
 51
9.826481
  0
ARC
  5
379
330
209
100
AcDbEntity
  8
3_ALL_AXES
  6
Continuous
 62
     7
100
AcDbCircle
 10
71.448118
 20
314.820725
 30
0.0
 40
1.5
100
AcDbArc
 50
0.0
 51
9.826481
  0
LINE
  5
37A
330
209
100
AcDbEntity
  8
3_ALL_AXES
  6
Continuous
 62
     7
100
AcDbLine
 10
72.948118
 20
314.820725
 30
0.0
 11
72.948118
 21
310.820725
 31
0.0
  0
ARC
  5
37B
330
209
100
AcDbEntity
  8
3_ALL_AXES
  6
Continuous
 62
     7
100
AcDbCircle
 10
71.448118
 20
310.820725
 30
0.0
 40
1.5
100
AcDbArc
 50
350.17331
 51
360.0
  0
LINE
  5
37C
330
209
100
AcDbEntity
  8
3_ALL_AXES
  6
Continuous
 62
     9
100
AcDbLine
 10
59.448118
 20
419.570725
 30
0.0
 11
57.948118
 21
419.570725
 31
0.0
  0
LINE
  5
37D
330
209
100
AcDbEntity
  8
7_ALL_FEATURES
  6
Continuous
 62
     9
100
AcDbLine
 10
60.948118
 20
427.070725
 30
0.0
 11
60.948118
 21
422.570725
 31
0.0
  0
LINE
  5
37E
330
209
100
AcDbEntity
  8
3_ALL_AXES
  6
Continuous
 62
     9
100
AcDbLine
 10
59.448118
 20
418.570725
 30
0.0
 11
57.948118
 21
418.570725
 31
0.0
  0
LINE
  5
37F
330
209
100
AcDbEntity
  8
3_ALL_AXES
  6
Continuous
 62
     9
100
AcDbLine
 10
59.448118
 20
319.070725
 30
0.0
 11
57.948118
 21
319.070725
 31
0.0
  0
LINE
  5
380
330
209
100
AcDbEntity
  8
3_ALL_AXES
  6
Continuous
 62
     9
100
AcDbLine
 10
59.448118
 20
318.070725
 30
0.0
 11
57.948118
 21
318.070725
 31
0.0
  0
SPLINE
  5
381
330
209
100
AcDbEntity
  8
7_ALL_FEATURES
  6
Continuous
 62
     7
100
AcDbSpline
 70
     0
 71
     3
 72
    19
 73
    15
 74
     0
 42
0.000000001
 43
0.0000001
 40
0.0
 40
0.0
 40
0.0
 40
0.0
 40
0.1115961705
 40
0.1612444441
 40
0.2118623076
 40
0.2683243429
 40
0.3346347971
 40
0.499993497
 40
0.6653567389
 40
0.7316751579
 40
0.7881360967
 40
0.8387536535
 40
0.8884031707
 40
1.0
 40
1.0
 40
1.0
 40
1.0
 10
58.8267971787
 20
423.3207248853
 30
0.0
 10
58.6789384125
 20
423.3207248853
 30
0.0
 10
58.4565446497
 20
423.3586589212
 30
0.0
 10
58.2261533672
 20
423.5266331384
 30
0.0
 10
58.1035039998
 20
423.6981452094
 30
0.0
 10
58.0239452761
 20
423.9157681804
 30
0.0
 10
57.9615732826
 20
424.2936499903
 30
0.0
 10
57.9556843807
 20
424.8207060653
 30
0.0
 10
57.9615867216
 20
425.347768168
 30
0.0
 10
58.0239296964
 20
425.7256708621
 30
0.0
 10
58.1034980885
 20
425.9433013379
 30
0.0
 10
58.2261534657
 20
426.1148070366
 30
0.0
 10
58.4565383391
 20
426.2827928229
 30
0.0
 10
58.6789375395
 20
426.3207248853
 30
0.0
 10
58.8267971787
 20
426.3207248853
 30
0.0
  0
LINE
  5
382
330
209
100
AcDbEntity
  8
3_ALL_AXES
  6
Continuous
 62
     9
100
AcDbLine
 10
59.448118
 20
442.070725
 30
0.0
 11
57.948118
 21
442.070725
 31
0.0
  0
LINE
  5
383
330
209
100
AcDbEntity
  8
3_ALL_AXES
  6
Continuous
 62
     9
100
AcDbLine
 10
59.448118
 20
431.070725
 30
0.0
 11
57.948118
 21
431.070725
 31
0.0
  0
LINE
  5
384
330
209
100
AcDbEntity
  8
3_ALL_AXES
  6
Continuous
 62
     9
100
AcDbLine
 10
59.448118
 20
307.570725
 30
0.0
 11
57.948118
 21
307.570725
 31
0.0
  0
SPLINE
  5
385
330
209
100
AcDbEntity
  8
7_ALL_FEATURES
  6
Continuous
 62
     7
100
AcDbSpline
 70
     0
 71
     3
 72
    19
 73
    15
 74
     0
 42
0.000000001
 43
0.0000001
 40
0.0
 40
0.0
 40
0.0
 40
0.0
 40
0.1115961705
 40
0.1612444441
 40
0.2118623076
 40
0.2683243429
 40
0.3346347972
 40
0.499993497
 40
0.6653567388
 40
0.7316751579
 40
0.7881360967
 40
0.8387536535
 40
0.8884031707
 40
1.0
 40
1.0
 40
1.0
 40
1.0
 10
58.8267971787
 20
311.3207248853
 30
0.0
 10
58.6789384125
 20
311.3207248853
 30
0.0
 10
58.4565446497
 20
311.3586589212
 30
0.0
 10
58.2261533672
 20
311.5266331384
 30
0.0
 10
58.1035039998
 20
311.6981452094
 30
0.0
 10
58.0239452761
 20
311.9157681804
 30
0.0
 10
57.9615732826
 20
312.2936499904
 30
0.0
 10
57.9556843806
 20
312.8207060652
 30
0.0
 10
57.9615867217
 20
313.3477681678
 30
0.0
 10
58.0239296964
 20
313.725670862
 30
0.0
 10
58.1034980884
 20
313.9433013379
 30
0.0
 10
58.2261534657
 20
314.1148070367
 30
0.0
 10
58.4565383391
 20
314.282792823
 30
0.0
 10
58.6789375396
 20
314.3207248853
 30
0.0
 10
58.8267971787
 20
314.3207248853
 30
0.0
  0
LINE
  5
386
330
209
100
AcDbEntity
  8
3_ALL_AXES
  6
Continuous
 62
     9
100
AcDbLine
 10
59.448118
 20
306.570725
 30
0.0
 11
57.948118
 21
306.570725
 31
0.0
  0
LINE
  5
387
330
209
100
AcDbEntity
  8
3_ALL_AXES
  6
Continuous
 62
     9
100
AcDbLine
 10
59.448118
 20
430.070725
 30
0.0
 11
57.948118
 21
430.070725
 31
0.0
  0
LINE
  5
388
330
209
100
AcDbEntity
  8
3_ALL_AXES
  6
Continuous
 62
     9
100
AcDbLine
 10
59.448118
 20
294.570725
 30
0.0
 11
57.948118
 21
294.570725
 31
0.0
  0
LINE
  5
389
330
209
100
AcDbEntity
  8
7_ALL_FEATURES
  6
Continuous
 62
     9
100
AcDbLine
 10
60.948118
 20
315.070725
 30
0.0
 11
60.948118
 21
310.570725
 31
0.0
  0
SPLINE
  5
38A
330
209
100
AcDbEntity
  8
7_ALL_FEATURES
  6
Continuous
 62
     7
100
AcDbSpline
 70
     0
 71
     3
 72
    19
 73
    15
 74
     0
 42
0.000000001
 43
0.0000001
 40
0.0
 40
0.0
 40
0.0
 40
0.0
 40
0.0942191692
 40
0.2164788453
 40
0.2861879669
 40
0.3592719887
 40
0.4317288339
 40
0.5002782342
 40
0.5687600876
 40
0.6411451214
 40
0.7140339027
 40
0.7836668666
 40
0.9056994874
 40
1.0
 40
1.0
 40
1.0
 40
1.0
 10
620.0694378658
 20
314.3207248853
 30
0.0
 10
619.9058008635
 20
314.3207248853
 30
0.0
 10
619.530318019
 20
314.2524749133
 30
0.0
 10
619.0721463488
 20
314.0471067956
 30
0.0
 10
618.6958625061
 20
313.7790796235
 30
0.0
 10
618.432676546
 20
313.5098513098
 30
0.0
 10
618.2419044838
 20
313.1846776376
 30
0.0
 10
618.169261473
 20
312.8193343292
 30
0.0
 10
618.2428958241
 20
312.4543528525
 30
0.0
 10
618.4339769414
 20
312.1300861119
 30
0.0
 10
618.6969395706
 20
311.8615174345
 30
0.0
 10
619.0726148557
 20
311.5941300952
 30
0.0
 10
619.5304301562
 20
311.3889912898
 30
0.0
 10
619.9056595888
 20
311.3207248853
 30
0.0
 10
620.0694378658
 20
311.3207248853
 30
0.0
  0
LINE
  5
38B
330
209
100
AcDbEntity
  8
7_ALL_FEATURES
  6
Continuous
 62
     7
100
AcDbLine
 10
620.948118
 20
316.320725
 30
0.0
 11
620.948118
 21
309.320725
 31
0.0
  0
LINE
  5
38C
330
209
100
AcDbEntity
  8
7_ALL_FEATURES
  6
Continuous
 62
     7
100
AcDbLine
 10
619.448118
 20
309.320725
 30
0.0
 11
620.948118
 21
309.320725
 31
0.0
  0
LINE
  5
38D
330
209
100
AcDbEntity
  8
7_ALL_FEATURES
  6
Continuous
 62
     7
100
AcDbLine
 10
620.948118
 20
316.320725
 30
0.0
 11
619.448118
 21
316.320725
 31
0.0
  0
SPLINE
  5
38E
330
209
100
AcDbEntity
  8
7_ALL_FEATURES
  6
Continuous
 62
     7
100
AcDbSpline
 70
     0
 71
     3
 72
    19
 73
    15
 74
     0
 42
0.000000001
 43
0.0000001
 40
0.0
 40
0.0
 40
0.0
 40
0.0
 40
0.0942191692
 40
0.2164788453
 40
0.2861879669
 40
0.3592719887
 40
0.4317288339
 40
0.5002782342
 40
0.5687600876
 40
0.6411451214
 40
0.7140339027
 40
0.7836668666
 40
0.9056994874
 40
1.0
 40
1.0
 40
1.0
 40
1.0
 10
620.0694378658
 20
426.3207248853
 30
0.0
 10
619.9058008635
 20
426.3207248853
 30
0.0
 10
619.530318019
 20
426.2524749133
 30
0.0
 10
619.0721463488
 20
426.0471067956
 30
0.0
 10
618.6958625061
 20
425.7790796235
 30
0.0
 10
618.432676546
 20
425.5098513098
 30
0.0
 10
618.2419044838
 20
425.1846776376
 30
0.0
 10
618.169261473
 20
424.8193343292
 30
0.0
 10
618.242895824
 20
424.4543528525
 30
0.0
 10
618.4339769414
 20
424.1300861119
 30
0.0
 10
618.6969395706
 20
423.8615174345
 30
0.0
 10
619.0726148557
 20
423.5941300952
 30
0.0
 10
619.5304301562
 20
423.3889912898
 30
0.0
 10
619.9056595888
 20
423.3207248853
 30
0.0
 10
620.0694378658
 20
423.3207248853
 30
0.0
  0
LINE
  5
38F
330
209
100
AcDbEntity
  8
7_ALL_FEATURES
  6
Continuous
 62
     7
100
AcDbLine
 10
620.948118
 20
428.320725
 30
0.0
 11
620.948118
 21
421.320725
 31
0.0
  0
LINE
  5
390
330
209
100
AcDbEntity
  8
7_ALL_FEATURES
  6
Continuous
 62
     7
100
AcDbLine
 10
619.448118
 20
421.320725
 30
0.0
 11
620.948118
 21
421.320725
 31
0.0
  0
LINE
  5
391
330
209
100
AcDbEntity
  8
7_ALL_FEATURES
  6
Continuous
 62
     7
100
AcDbLine
 10
620.948118
 20
428.320725
 30
0.0
 11
619.448118
 21
428.320725
 31
0.0
  0
LINE
  5
392
330
209
100
AcDbEntity
  8
3_ALL_AXES
  6
Continuous
 62
     7
100
AcDbLine
 10
605.948118
 20
314.820725
 30
0.0
 11
605.948118
 21
310.820725
 31
0.0
  0
LINE
  5
393
330
209
100
AcDbEntity
  8
3_ALL_AXES
  6
Continuous
 62
     7
100
AcDbLine
 10
620.948118
 20
430.570725
 30
0.0
 11
620.948118
 21
431.070725
 31
0.0
  0
LINE
  5
394
330
209
100
AcDbEntity
  8
3_ALL_AXES
  6
Continuous
 62
     7
100
AcDbLine
 10
620.948118
 20
430.070725
 30
0.0
 11
620.948118
 21
430.570725
 31
0.0
  0
LINE
  5
395
330
209
100
AcDbEntity
  8
3_ALL_AXES
  6
Continuous
 62
     7
100
AcDbLine
 10
620.948118
 20
419.070725
 30
0.0
 11
620.948118
 21
419.570725
 31
0.0
  0
LINE
  5
396
330
209
100
AcDbEntity
  8
3_ALL_AXES
  6
Continuous
 62
     7
100
AcDbLine
 10
620.948118
 20
418.570725
 30
0.0
 11
620.948118
 21
419.070725
 31
0.0
  0
LINE
  5
397
330
209
100
AcDbEntity
  8
3_ALL_AXES
  6
Continuous
 62
     7
100
AcDbLine
 10
620.948118
 20
318.570725
 30
0.0
 11
620.948118
 21
319.070725
 31
0.0
  0
LINE
  5
398
330
209
100
AcDbEntity
  8
3_ALL_AXES
  6
Continuous
 62
     7
100
AcDbLine
 10
620.948118
 20
318.070725
 30
0.0
 11
620.948118
 21
318.570725
 31
0.0
  0
LINE
  5
399
330
209
100
AcDbEntity
  8
3_ALL_AXES
  6
Continuous
 62
     7
100
AcDbLine
 10
620.948118
 20
307.070725
 30
0.0
 11
620.948118
 21
307.570725
 31
0.0
  0
LINE
  5
39A
330
209
100
AcDbEntity
  8
3_ALL_AXES
  6
Continuous
 62
     7
100
AcDbLine
 10
620.948118
 20
306.570725
 30
0.0
 11
620.948118
 21
307.070725
 31
0.0
  0
LINE
  5
39B
330
209
100
AcDbEntity
  8
3_ALL_AXES
  6
Continuous
 62
     7
100
AcDbLine
 10
620.948118
 20
292.570725
 30
0.0
 11
620.948118
 21
294.570725
 31
0.0
  0
LINE
  5
39C
330
209
100
AcDbEntity
  8
3_ALL_AXES
  6
Continuous
 62
     7
100
AcDbLine
 10
620.948118
 20
442.070725
 30
0.0
 11
620.948118
 21
442.570725
 31
0.0
  0
LINE
  5
39D
330
209
100
AcDbEntity
  8
3_ALL_AXES
  6
Continuous
 62
     7
100
AcDbLine
 10
619.448118
 20
442.570725
 30
0.0
 11
620.948118
 21
442.570725
 31
0.0
  0
LINE
  5
39E
330
209
100
AcDbEntity
  8
3_ALL_AXES
  6
Continuous
 62
     7
100
AcDbLine
 10
619.448118
 20
292.570725
 30
0.0
 11
620.948118
 21
292.570725
 31
0.0
  0
LINE
  5
39F
330
209
100
AcDbEntity
  8
3_ALL_AXES
  6
Continuous
 62
     7
100
AcDbLine
 10
620.948118
 20
306.570725
 30
0.0
 11
620.948118
 21
294.570725
 31
0.0
  0
LINE
  5
3A0
330
209
100
AcDbEntity
  8
3_ALL_AXES
  6
Continuous
 62
     7
100
AcDbLine
 10
619.448118
 20
307.070725
 30
0.0
 11
620.948118
 21
307.070725
 31
0.0
  0
LINE
  5
3A1
330
209
100
AcDbEntity
  8
3_ALL_AXES
  6
Continuous
 62
     7
100
AcDbLine
 10
620.948118
 20
309.320725
 30
0.0
 11
620.948118
 21
307.570725
 31
0.0
  0
LINE
  5
3A2
330
209
100
AcDbEntity
  8
3_ALL_AXES
  6
Continuous
 62
     7
100
AcDbLine
 10
620.948118
 20
318.070725
 30
0.0
 11
620.948118
 21
316.320725
 31
0.0
  0
LINE
  5
3A3
330
209
100
AcDbEntity
  8
3_ALL_AXES
  6
Continuous
 62
     7
100
AcDbLine
 10
605.948118
 20
426.820725
 30
0.0
 11
605.948118
 21
422.820725
 31
0.0
  0
LINE
  5
3A4
330
209
100
AcDbEntity
  8
3_ALL_AXES
  6
Continuous
 62
     7
100
AcDbLine
 10
619.448118
 20
318.570725
 30
0.0
 11
620.948118
 21
318.570725
 31
0.0
  0
LINE
  5
3A5
330
209
100
AcDbEntity
  8
3_ALL_AXES
  6
Continuous
 62
     7
100
AcDbLine
 10
620.948118
 20
418.570725
 30
0.0
 11
620.948118
 21
319.070725
 31
0.0
  0
LINE
  5
3A6
330
209
100
AcDbEntity
  8
3_ALL_AXES
  6
Continuous
 62
     7
100
AcDbLine
 10
619.448118
 20
419.070725
 30
0.0
 11
620.948118
 21
419.070725
 31
0.0
  0
LINE
  5
3A7
330
209
100
AcDbEntity
  8
3_ALL_AXES
  6
Continuous
 62
     7
100
AcDbLine
 10
620.948118
 20
421.320725
 30
0.0
 11
620.948118
 21
419.570725
 31
0.0
  0
ARC
  5
3A8
330
209
100
AcDbEntity
  8
3_ALL_AXES
  6
Continuous
 62
     7
100
AcDbCircle
 10
607.448118
 20
422.820725
 30
0.0
 40
1.5
100
AcDbArc
 50
180.0
 51
189.826481
  0
ARC
  5
3A9
330
209
100
AcDbEntity
  8
3_ALL_AXES
  6
Continuous
 62
     7
100
AcDbCircle
 10
607.448118
 20
426.820725
 30
0.0
 40
1.5
100
AcDbArc
 50
170.17331
 51
180.0
  0
LINE
  5
3AA
330
209
100
AcDbEntity
  8
3_ALL_AXES
  6
Continuous
 62
     7
100
AcDbLine
 10
620.948118
 20
430.070725
 30
0.0
 11
620.948118
 21
428.320725
 31
0.0
  0
LINE
  5
3AB
330
209
100
AcDbEntity
  8
3_ALL_AXES
  6
Continuous
 62
     7
100
AcDbLine
 10
619.448118
 20
430.570725
 30
0.0
 11
620.948118
 21
430.570725
 31
0.0
  0
LINE
  5
3AC
330
209
100
AcDbEntity
  8
3_ALL_AXES
  6
Continuous
 62
     7
100
AcDbLine
 10
620.948118
 20
442.070725
 30
0.0
 11
620.948118
 21
431.070725
 31
0.0
  0
ARC
  5
3AD
330
209
100
AcDbEntity
  8
3_ALL_AXES
  6
Continuous
 62
     7
100
AcDbCircle
 10
610.339312
 20
312.820725
 30
0.0
 40
0.95
100
AcDbArc
 50
0.0
 51
180.0
  0
ARC
  5
3AE
330
209
100
AcDbEntity
  8
3_ALL_AXES
  6
Continuous
 62
     7
100
AcDbCircle
 10
610.339312
 20
312.820725
 30
0.0
 40
0.95
100
AcDbArc
 50
180.0
 51
360.0
  0
ARC
  5
3AF
330
209
100
AcDbEntity
  8
3_ALL_AXES
  6
Continuous
 62
     7
100
AcDbCircle
 10
607.448118
 20
310.820725
 30
0.0
 40
1.5
100
AcDbArc
 50
180.0
 51
189.826481
  0
ARC
  5
3B0
330
209
100
AcDbEntity
  8
3_ALL_AXES
  6
Continuous
 62
     7
100
AcDbCircle
 10
607.448118
 20
314.820725
 30
0.0
 40
1.5
100
AcDbArc
 50
170.17331
 51
180.0
  0
LINE
  5
3B1
330
209
100
AcDbEntity
  8
3_ALL_AXES
  6
Continuous
 62
     9
100
AcDbLine
 10
619.448118
 20
319.070725
 30
0.0
 11
620.948118
 21
319.070725
 31
0.0
  0
LINE
  5
3B2
330
209
100
AcDbEntity
  8
3_ALL_AXES
  6
Continuous
 62
     9
100
AcDbLine
 10
619.448118
 20
430.070725
 30
0.0
 11
620.948118
 21
430.070725
 31
0.0
  0
LINE
  5
3B3
330
209
100
AcDbEntity
  8
3_ALL_AXES
  6
Continuous
 62
     9
100
AcDbLine
 10
619.448118
 20
418.570725
 30
0.0
 11
620.948118
 21
418.570725
 31
0.0
  0
LINE
  5
3B4
330
209
100
AcDbEntity
  8
7_ALL_FEATURES
  6
Continuous
 62
     9
100
AcDbLine
 10
617.948118
 20
422.570725
 30
0.0
 11
617.948118
 21
427.070725
 31
0.0
  0
LINE
  5
3B5
330
209
100
AcDbEntity
  8
3_ALL_AXES
  6
Continuous
 62
     9
100
AcDbLine
 10
619.448118
 20
431.070725
 30
0.0
 11
620.948118
 21
431.070725
 31
0.0
  0
LINE
  5
3B6
330
209
100
AcDbEntity
  8
3_ALL_AXES
  6
Continuous
 62
     9
100
AcDbLine
 10
619.448118
 20
294.570725
 30
0.0
 11
620.948118
 21
294.570725
 31
0.0
  0
LINE
  5
3B7
330
209
100
AcDbEntity
  8
3_ALL_AXES
  6
Continuous
 62
     9
100
AcDbLine
 10
619.448118
 20
442.070725
 30
0.0
 11
620.948118
 21
442.070725
 31
0.0
  0
LINE
  5
3B8
330
209
100
AcDbEntity
  8
3_ALL_AXES
  6
Continuous
 62
     9
100
AcDbLine
 10
619.448118
 20
419.570725
 30
0.0
 11
620.948118
 21
419.570725
 31
0.0
  0
LINE
  5
3B9
330
209
100
AcDbEntity
  8
3_ALL_AXES
  6
Continuous
 62
     9
100
AcDbLine
 10
619.448118
 20
306.570725
 30
0.0
 11
620.948118
 21
306.570725
 31
0.0
  0
LINE
  5
3BA
330
209
100
AcDbEntity
  8
7_ALL_FEATURES
  6
Continuous
 62
     9
100
AcDbLine
 10
617.948118
 20
310.570725
 30
0.0
 11
617.948118
 21
315.070725
 31
0.0
  0
LINE
  5
3BB
330
209
100
AcDbEntity
  8
3_ALL_AXES
  6
Continuous
 62
     9
100
AcDbLine
 10
619.448118
 20
307.570725
 30
0.0
 11
620.948118
 21
307.570725
 31
0.0
  0
SPLINE
  5
3BC
330
209
100
AcDbEntity
  8
7_ALL_FEATURES
  6
Continuous
 62
     7
100
AcDbSpline
 70
     0
 71
     3
 72
    19
 73
    15
 74
     0
 42
0.000000001
 43
0.0000001
 40
0.0
 40
0.0
 40
0.0
 40
0.0
 40
0.1115961705
 40
0.1612444441
 40
0.2118623076
 40
0.2683243429
 40
0.3346347971
 40
0.499993497
 40
0.6653567389
 40
0.7316751579
 40
0.7881360967
 40
0.8387536535
 40
0.8884031707
 40
1.0
 40
1.0
 40
1.0
 40
1.0
 10
620.0694378658
 20
314.3207248853
 30
0.0
 10
620.217296632
 20
314.3207248853
 30
0.0
 10
620.4396903948
 20
314.2827908495
 30
0.0
 10
620.6700816772
 20
314.1148166323
 30
0.0
 10
620.7927310447
 20
313.9433045613
 30
0.0
 10
620.8722897683
 20
313.7256815903
 30
0.0
 10
620.9346617619
 20
313.3477997804
 30
0.0
 10
620.9405506637
 20
312.8207437054
 30
0.0
 10
620.9346483229
 20
312.2936816027
 30
0.0
 10
620.872305348
 20
311.9157789086
 30
0.0
 10
620.792736956
 20
311.6981484328
 30
0.0
 10
620.6700815787
 20
311.5266427341
 30
0.0
 10
620.4396967054
 20
311.3586569478
 30
0.0
 10
620.2172975049
 20
311.3207248853
 30
0.0
 10
620.0694378658
 20
311.3207248853
 30
0.0
  0
LINE
  5
3BD
330
209
100
AcDbEntity
  8
3_ALL_AXES
  6
Continuous
 62
     9
100
AcDbLine
 10
619.448118
 20
318.070725
 30
0.0
 11
620.948118
 21
318.070725
 31
0.0
  0
SPLINE
  5
3BE
330
209
100
AcDbEntity
  8
7_ALL_FEATURES
  6
Continuous
 62
     7
100
AcDbSpline
 70
     0
 71
     3
 72
    19
 73
    15
 74
     0
 42
0.000000001
 43
0.0000001
 40
0.0
 40
0.0
 40
0.0
 40
0.0
 40
0.1115961705
 40
0.1612444441
 40
0.2118623076
 40
0.2683243429
 40
0.3346347971
 40
0.499993497
 40
0.6653567389
 40
0.7316751579
 40
0.7881360967
 40
0.8387536535
 40
0.8884031707
 40
1.0
 40
1.0
 40
1.0
 40
1.0
 10
620.0694378658
 20
426.3207248853
 30
0.0
 10
620.217296632
 20
426.3207248854
 30
0.0
 10
620.4396903947
 20
426.2827908494
 30
0.0
 10
620.6700816772
 20
426.1148166323
 30
0.0
 10
620.7927310447
 20
425.9433045613
 30
0.0
 10
620.8722897683
 20
425.7256815903
 30
0.0
 10
620.9346617619
 20
425.3477997804
 30
0.0
 10
620.9405506637
 20
424.8207437054
 30
0.0
 10
620.9346483229
 20
424.2936816027
 30
0.0
 10
620.872305348
 20
423.9157789086
 30
0.0
 10
620.792736956
 20
423.6981484328
 30
0.0
 10
620.6700815787
 20
423.5266427341
 30
0.0
 10
620.4396967054
 20
423.3586569478
 30
0.0
 10
620.2172975049
 20
423.3207248853
 30
0.0
 10
620.0694378658
 20
423.3207248853
 30
0.0
  0
LINE
  5
3BF
330
209
100
AcDbEntity
  8
3_ALL_AXES
  6
Continuous
 62
     7
100
AcDbLine
 10
619.448118
 20
292.570725
 30
0.0
 11
619.448118
 21
293.570725
 31
0.0
  0
LINE
  5
3C0
330
209
100
AcDbEntity
  8
3_ALL_AXES
  6
Continuous
 62
     7
100
AcDbLine
 10
619.448118
 20
293.570725
 30
0.0
 11
619.448118
 21
294.570725
 31
0.0
  0
LINE
  5
3C1
330
209
100
AcDbEntity
  8
3_ALL_AXES
  6
Continuous
 62
     7
100
AcDbLine
 10
619.448118
 20
294.570725
 30
0.0
 11
619.448118
 21
306.570725
 31
0.0
  0
LINE
  5
3C2
330
209
100
AcDbEntity
  8
3_ALL_AXES
  6
Continuous
 62
     7
100
AcDbLine
 10
619.448118
 20
306.570725
 30
0.0
 11
619.448118
 21
306.870725
 31
0.0
  0
LINE
  5
3C3
330
209
100
AcDbEntity
  8
3_ALL_AXES
  6
Continuous
 62
     7
100
AcDbLine
 10
619.448118
 20
306.870725
 30
0.0
 11
619.448118
 21
307.04393
 31
0.0
  0
LINE
  5
3C4
330
209
100
AcDbEntity
  8
3_ALL_AXES
  6
Continuous
 62
     7
100
AcDbLine
 10
619.448118
 20
307.04393
 30
0.0
 11
619.448118
 21
307.070725
 31
0.0
  0
LINE
  5
3C5
330
209
100
AcDbEntity
  8
3_ALL_AXES
  6
Continuous
 62
     7
100
AcDbLine
 10
619.448118
 20
307.070725
 30
0.0
 11
619.448118
 21
307.320725
 31
0.0
  0
LINE
  5
3C6
330
209
100
AcDbEntity
  8
3_ALL_AXES
  6
Continuous
 62
     7
100
AcDbLine
 10
619.448118
 20
307.320725
 30
0.0
 11
619.448118
 21
307.570725
 31
0.0
  0
LINE
  5
3C7
330
209
100
AcDbEntity
  8
3_ALL_AXES
  6
Continuous
 62
     7
100
AcDbLine
 10
619.448118
 20
307.570725
 30
0.0
 11
619.448118
 21
309.070725
 31
0.0
  0
LINE
  5
3C8
330
209
100
AcDbEntity
  8
3_ALL_AXES
  6
Continuous
 62
     7
100
AcDbLine
 10
619.448118
 20
309.070725
 30
0.0
 11
619.448118
 21
310.070725
 31
0.0
  0
LINE
  5
3C9
330
209
100
AcDbEntity
  8
3_ALL_AXES
  6
Continuous
 62
     7
100
AcDbLine
 10
619.448118
 20
310.070725
 30
0.0
 11
619.448118
 21
310.570725
 31
0.0
  0
LINE
  5
3CA
330
209
100
AcDbEntity
  8
3_ALL_AXES
  6
Continuous
 62
     7
100
AcDbLine
 10
619.448118
 20
315.070725
 30
0.0
 11
619.448118
 21
315.570725
 31
0.0
  0
LINE
  5
3CB
330
209
100
AcDbEntity
  8
3_ALL_AXES
  6
Continuous
 62
     7
100
AcDbLine
 10
619.448118
 20
315.570725
 30
0.0
 11
619.448118
 21
316.570725
 31
0.0
  0
LINE
  5
3CC
330
209
100
AcDbEntity
  8
3_ALL_AXES
  6
Continuous
 62
     7
100
AcDbLine
 10
619.448118
 20
316.570725
 30
0.0
 11
619.448118
 21
318.070725
 31
0.0
  0
LINE
  5
3CD
330
209
100
AcDbEntity
  8
3_ALL_AXES
  6
Continuous
 62
     7
100
AcDbLine
 10
619.448118
 20
318.070725
 30
0.0
 11
619.448118
 21
318.570725
 31
0.0
  0
LINE
  5
3CE
330
209
100
AcDbEntity
  8
3_ALL_AXES
  6
Continuous
 62
     7
100
AcDbLine
 10
619.448118
 20
318.59752
 30
0.0
 11
619.448118
 21
318.670725
 31
0.0
  0
LINE
  5
3CF
330
209
100
AcDbEntity
  8
3_ALL_AXES
  6
Continuous
 62
     7
100
AcDbLine
 10
619.448118
 20
318.670725
 30
0.0
 11
619.448118
 21
318.770725
 31
0.0
  0
LINE
  5
3D0
330
209
100
AcDbEntity
  8
3_ALL_AXES
  6
Continuous
 62
     7
100
AcDbLine
 10
619.448118
 20
318.770725
 30
0.0
 11
619.448118
 21
319.070725
 31
0.0
  0
LINE
  5
3D1
330
209
100
AcDbEntity
  8
3_ALL_AXES
  6
Continuous
 62
     7
100
AcDbLine
 10
619.448118
 20
319.070725
 30
0.0
 11
619.448118
 21
418.570725
 31
0.0
  0
LINE
  5
3D2
330
209
100
AcDbEntity
  8
3_ALL_AXES
  6
Continuous
 62
     7
100
AcDbLine
 10
619.448118
 20
418.570725
 30
0.0
 11
619.448118
 21
418.870725
 31
0.0
  0
LINE
  5
3D3
330
209
100
AcDbEntity
  8
3_ALL_AXES
  6
Continuous
 62
     7
100
AcDbLine
 10
619.448118
 20
418.870725
 30
0.0
 11
619.448118
 21
419.04393
 31
0.0
  0
LINE
  5
3D4
330
209
100
AcDbEntity
  8
3_ALL_AXES
  6
Continuous
 62
     7
100
AcDbLine
 10
619.448118
 20
419.04393
 30
0.0
 11
619.448118
 21
419.070725
 31
0.0
  0
LINE
  5
3D5
330
209
100
AcDbEntity
  8
3_ALL_AXES
  6
Continuous
 62
     7
100
AcDbLine
 10
619.448118
 20
419.070725
 30
0.0
 11
619.448118
 21
419.320725
 31
0.0
  0
LINE
  5
3D6
330
209
100
AcDbEntity
  8
3_ALL_AXES
  6
Continuous
 62
     7
100
AcDbLine
 10
619.448118
 20
419.320725
 30
0.0
 11
619.448118
 21
419.570725
 31
0.0
  0
LINE
  5
3D7
330
209
100
AcDbEntity
  8
3_ALL_AXES
  6
Continuous
 62
     7
100
AcDbLine
 10
619.448118
 20
419.570725
 30
0.0
 11
619.448118
 21
421.070725
 31
0.0
  0
LINE
  5
3D8
330
209
100
AcDbEntity
  8
3_ALL_AXES
  6
Continuous
 62
     7
100
AcDbLine
 10
619.448118
 20
421.070725
 30
0.0
 11
619.448118
 21
422.070725
 31
0.0
  0
LINE
  5
3D9
330
209
100
AcDbEntity
  8
3_ALL_AXES
  6
Continuous
 62
     7
100
AcDbLine
 10
619.448118
 20
422.070725
 30
0.0
 11
619.448118
 21
422.570725
 31
0.0
  0
LINE
  5
3DA
330
209
100
AcDbEntity
  8
3_ALL_AXES
  6
Continuous
 62
     7
100
AcDbLine
 10
619.448118
 20
427.070725
 30
0.0
 11
619.448118
 21
427.570725
 31
0.0
  0
LINE
  5
3DB
330
209
100
AcDbEntity
  8
3_ALL_AXES
  6
Continuous
 62
     7
100
AcDbLine
 10
619.448118
 20
427.570725
 30
0.0
 11
619.448118
 21
428.570725
 31
0.0
  0
LINE
  5
3DC
330
209
100
AcDbEntity
  8
3_ALL_AXES
  6
Continuous
 62
     7
100
AcDbLine
 10
619.448118
 20
428.570725
 30
0.0
 11
619.448118
 21
429.846712
 31
0.0
  0
LINE
  5
3DD
330
209
100
AcDbEntity
  8
3_ALL_AXES
  6
Continuous
 62
     7
100
AcDbLine
 10
619.448118
 20
429.846712
 30
0.0
 11
619.448118
 21
430.570725
 31
0.0
  0
LINE
  5
3DE
330
209
100
AcDbEntity
  8
3_ALL_AXES
  6
Continuous
 62
     7
100
AcDbLine
 10
619.448118
 20
430.770725
 30
0.0
 11
619.448118
 21
431.070725
 31
0.0
  0
LINE
  5
3DF
330
209
100
AcDbEntity
  8
3_ALL_AXES
  6
Continuous
 62
     7
100
AcDbLine
 10
619.448118
 20
431.070725
 30
0.0
 11
619.448118
 21
442.070725
 31
0.0
  0
LINE
  5
3E0
330
209
100
AcDbEntity
  8
3_ALL_AXES
  6
Continuous
 62
     7
100
AcDbLine
 10
619.448118
 20
442.070725
 30
0.0
 11
619.448118
 21
442.370725
 31
0.0
  0
LINE
  5
3E1
330
209
100
AcDbEntity
  8
3_ALL_AXES
  6
Continuous
 62
     7
100
AcDbLine
 10
619.448118
 20
442.370725
 30
0.0
 11
619.448118
 21
442.54393
 31
0.0
  0
LINE
  5
3E2
330
209
100
AcDbEntity
  8
3_ALL_AXES
  6
Continuous
 62
     7
100
AcDbLine
 10
619.448118
 20
442.54393
 30
0.0
 11
619.448118
 21
442.570725
 31
0.0
  0
LINE
  5
3E3
330
209
100
AcDbEntity
  8
3_ALL_AXES
  6
Continuous
 62
     7
100
AcDbLine
 10
619.448118
 20
442.570725
 30
0.0
 11
59.448118
 21
442.570725
 31
0.0
  0
LINE
  5
3E4
330
209
100
AcDbEntity
  8
3_ALL_AXES
  6
Continuous
 62
     7
100
AcDbLine
 10
619.448118
 20
430.570725
 30
0.0
 11
59.448118
 21
430.570725
 31
0.0
  0
LINE
  5
3E5
330
209
100
AcDbEntity
  8
3_ALL_AXES
  6
Continuous
 62
     7
100
AcDbLine
 10
619.448118
 20
427.070725
 30
0.0
 11
59.448118
 21
427.070725
 31
0.0
  0
LINE
  5
3E6
330
209
100
AcDbEntity
  8
3_ALL_AXES
  6
Continuous
 62
     7
100
AcDbLine
 10
619.448118
 20
422.570725
 30
0.0
 11
59.448118
 21
422.570725
 31
0.0
  0
LINE
  5
3E7
330
209
100
AcDbEntity
  8
3_ALL_AXES
  6
Continuous
 62
     7
100
AcDbLine
 10
619.448118
 20
419.070725
 30
0.0
 11
59.448118
 21
419.070725
 31
0.0
  0
LINE
  5
3E8
330
209
100
AcDbEntity
  8
3_ALL_AXES
  6
Continuous
 62
     7
100
AcDbLine
 10
619.448118
 20
318.570725
 30
0.0
 11
59.448118
 21
318.570725
 31
0.0
  0
LINE
  5
3E9
330
209
100
AcDbEntity
  8
3_ALL_AXES
  6
Continuous
 62
     7
100
AcDbLine
 10
619.448118
 20
315.070725
 30
0.0
 11
59.448118
 21
315.070725
 31
0.0
  0
LINE
  5
3EA
330
209
100
AcDbEntity
  8
3_ALL_AXES
  6
Continuous
 62
     7
100
AcDbLine
 10
59.448118
 20
442.370725
 30
0.0
 11
59.448118
 21
442.54393
 31
0.0
  0
LINE
  5
3EB
330
209
100
AcDbEntity
  8
3_ALL_AXES
  6
Continuous
 62
     7
100
AcDbLine
 10
59.448118
 20
442.54393
 30
0.0
 11
59.448118
 21
442.570725
 31
0.0
  0
LINE
  5
3EC
330
209
100
AcDbEntity
  8
3_ALL_AXES
  6
Continuous
 62
     7
100
AcDbLine
 10
59.448118
 20
430.770725
 30
0.0
 11
59.448118
 21
431.070725
 31
0.0
  0
LINE
  5
3ED
330
209
100
AcDbEntity
  8
3_ALL_AXES
  6
Continuous
 62
     7
100
AcDbLine
 10
59.448118
 20
431.070725
 30
0.0
 11
59.448118
 21
440.770725
 31
0.0
  0
LINE
  5
3EE
330
209
100
AcDbEntity
  8
3_ALL_AXES
  6
Continuous
 62
     7
100
AcDbLine
 10
59.448118
 20
440.770725
 30
0.0
 11
59.448118
 21
442.070725
 31
0.0
  0
LINE
  5
3EF
330
209
100
AcDbEntity
  8
3_ALL_AXES
  6
Continuous
 62
     7
100
AcDbLine
 10
59.448118
 20
442.070725
 30
0.0
 11
59.448118
 21
442.370725
 31
0.0
  0
LINE
  5
3F0
330
209
100
AcDbEntity
  8
3_ALL_AXES
  6
Continuous
 62
     7
100
AcDbLine
 10
59.448118
 20
429.846712
 30
0.0
 11
59.448118
 21
430.570725
 31
0.0
  0
LINE
  5
3F1
330
209
100
AcDbEntity
  8
3_ALL_AXES
  6
Continuous
 62
     7
100
AcDbLine
 10
59.448118
 20
427.570725
 30
0.0
 11
59.448118
 21
428.570725
 31
0.0
  0
LINE
  5
3F2
330
209
100
AcDbEntity
  8
3_ALL_AXES
  6
Continuous
 62
     7
100
AcDbLine
 10
59.448118
 20
428.570725
 30
0.0
 11
59.448118
 21
429.846712
 31
0.0
  0
LINE
  5
3F3
330
209
100
AcDbEntity
  8
3_ALL_AXES
  6
Continuous
 62
     7
100
AcDbLine
 10
59.448118
 20
427.070725
 30
0.0
 11
59.448118
 21
427.570725
 31
0.0
  0
LINE
  5
3F4
330
209
100
AcDbEntity
  8
3_ALL_AXES
  6
Continuous
 62
     7
100
AcDbLine
 10
619.448118
 20
310.570725
 30
0.0
 11
59.448118
 21
310.570725
 31
0.0
  0
LINE
  5
3F5
330
209
100
AcDbEntity
  8
3_ALL_AXES
  6
Continuous
 62
     7
100
AcDbLine
 10
619.448118
 20
307.070725
 30
0.0
 11
59.448118
 21
307.070725
 31
0.0
  0
LINE
  5
3F6
330
209
100
AcDbEntity
  8
3_ALL_AXES
  6
Continuous
 62
     7
100
AcDbLine
 10
59.448118
 20
422.070725
 30
0.0
 11
59.448118
 21
422.570725
 31
0.0
  0
LINE
  5
3F7
330
209
100
AcDbEntity
  8
3_ALL_AXES
  6
Continuous
 62
     7
100
AcDbLine
 10
59.448118
 20
419.570725
 30
0.0
 11
59.448118
 21
421.070725
 31
0.0
  0
LINE
  5
3F8
330
209
100
AcDbEntity
  8
3_ALL_AXES
  6
Continuous
 62
     7
100
AcDbLine
 10
59.448118
 20
421.070725
 30
0.0
 11
59.448118
 21
422.070725
 31
0.0
  0
LINE
  5
3F9
330
209
100
AcDbEntity
  8
3_ALL_AXES
  6
Continuous
 62
     7
100
AcDbLine
 10
59.448118
 20
419.070725
 30
0.0
 11
59.448118
 21
419.320725
 31
0.0
  0
LINE
  5
3FA
330
209
100
AcDbEntity
  8
3_ALL_AXES
  6
Continuous
 62
     7
100
AcDbLine
 10
59.448118
 20
419.320725
 30
0.0
 11
59.448118
 21
419.570725
 31
0.0
  0
LINE
  5
3FB
330
209
100
AcDbEntity
  8
3_ALL_AXES
  6
Continuous
 62
     7
100
AcDbLine
 10
59.448118
 20
418.870725
 30
0.0
 11
59.448118
 21
419.04393
 31
0.0
  0
LINE
  5
3FC
330
209
100
AcDbEntity
  8
3_ALL_AXES
  6
Continuous
 62
     7
100
AcDbLine
 10
59.448118
 20
419.04393
 30
0.0
 11
59.448118
 21
419.070725
 31
0.0
  0
LINE
  5
3FD
330
209
100
AcDbEntity
  8
3_ALL_AXES
  6
Continuous
 62
     7
100
AcDbLine
 10
59.448118
 20
318.770725
 30
0.0
 11
59.448118
 21
319.070725
 31
0.0
  0
LINE
  5
3FE
330
209
100
AcDbEntity
  8
3_ALL_AXES
  6
Continuous
 62
     7
100
AcDbLine
 10
59.448118
 20
319.070725
 30
0.0
 11
59.448118
 21
418.570725
 31
0.0
  0
LINE
  5
3FF
330
209
100
AcDbEntity
  8
3_ALL_AXES
  6
Continuous
 62
     7
100
AcDbLine
 10
59.448118
 20
418.570725
 30
0.0
 11
59.448118
 21
418.870725
 31
0.0
  0
LINE
  5
400
330
209
100
AcDbEntity
  8
3_ALL_AXES
  6
Continuous
 62
     7
100
AcDbLine
 10
59.448118
 20
318.59752
 30
0.0
 11
59.448118
 21
318.670725
 31
0.0
  0
LINE
  5
401
330
209
100
AcDbEntity
  8
3_ALL_AXES
  6
Continuous
 62
     7
100
AcDbLine
 10
59.448118
 20
318.670725
 30
0.0
 11
59.448118
 21
318.770725
 31
0.0
  0
LINE
  5
402
330
209
100
AcDbEntity
  8
3_ALL_AXES
  6
Continuous
 62
     7
100
AcDbLine
 10
59.448118
 20
318.070725
 30
0.0
 11
59.448118
 21
318.570725
 31
0.0
  0
LINE
  5
403
330
209
100
AcDbEntity
  8
3_ALL_AXES
  6
Continuous
 62
     7
100
AcDbLine
 10
59.448118
 20
315.570725
 30
0.0
 11
59.448118
 21
316.570725
 31
0.0
  0
LINE
  5
404
330
209
100
AcDbEntity
  8
3_ALL_AXES
  6
Continuous
 62
     7
100
AcDbLine
 10
59.448118
 20
316.570725
 30
0.0
 11
59.448118
 21
318.070725
 31
0.0
  0
LINE
  5
405
330
209
100
AcDbEntity
  8
3_ALL_AXES
  6
Continuous
 62
     7
100
AcDbLine
 10
59.448118
 20
315.070725
 30
0.0
 11
59.448118
 21
315.570725
 31
0.0
  0
LINE
  5
406
330
209
100
AcDbEntity
  8
3_ALL_AXES
  6
Continuous
 62
     7
100
AcDbLine
 10
619.448118
 20
292.570725
 30
0.0
 11
59.448118
 21
292.570725
 31
0.0
  0
LINE
  5
407
330
209
100
AcDbEntity
  8
3_ALL_AXES
  6
Continuous
 62
     7
100
AcDbLine
 10
59.448118
 20
310.070725
 30
0.0
 11
59.448118
 21
310.570725
 31
0.0
  0
LINE
  5
408
330
209
100
AcDbEntity
  8
3_ALL_AXES
  6
Continuous
 62
     7
100
AcDbLine
 10
59.448118
 20
307.570725
 30
0.0
 11
59.448118
 21
309.070725
 31
0.0
  0
LINE
  5
409
330
209
100
AcDbEntity
  8
3_ALL_AXES
  6
Continuous
 62
     7
100
AcDbLine
 10
59.448118
 20
309.070725
 30
0.0
 11
59.448118
 21
310.070725
 31
0.0
  0
LINE
  5
40A
330
209
100
AcDbEntity
  8
3_ALL_AXES
  6
Continuous
 62
     7
100
AcDbLine
 10
59.448118
 20
307.070725
 30
0.0
 11
59.448118
 21
307.320725
 31
0.0
  0
LINE
  5
40B
330
209
100
AcDbEntity
  8
3_ALL_AXES
  6
Continuous
 62
     7
100
AcDbLine
 10
59.448118
 20
307.320725
 30
0.0
 11
59.448118
 21
307.570725
 31
0.0
  0
LINE
  5
40C
330
209
100
AcDbEntity
  8
3_ALL_AXES
  6
Continuous
 62
     7
100
AcDbLine
 10
59.448118
 20
306.870725
 30
0.0
 11
59.448118
 21
307.04393
 31
0.0
  0
LINE
  5
40D
330
209
100
AcDbEntity
  8
3_ALL_AXES
  6
Continuous
 62
     7
100
AcDbLine
 10
59.448118
 20
307.04393
 30
0.0
 11
59.448118
 21
307.070725
 31
0.0
  0
LINE
  5
40E
330
209
100
AcDbEntity
  8
3_ALL_AXES
  6
Continuous
 62
     7
100
AcDbLine
 10
59.448118
 20
293.570725
 30
0.0
 11
59.448118
 21
294.570725
 31
0.0
  0
LINE
  5
40F
330
209
100
AcDbEntity
  8
3_ALL_AXES
  6
Continuous
 62
     7
100
AcDbLine
 10
59.448118
 20
294.570725
 30
0.0
 11
59.448118
 21
306.570725
 31
0.0
  0
LINE
  5
410
330
209
100
AcDbEntity
  8
3_ALL_AXES
  6
Continuous
 62
     7
100
AcDbLine
 10
59.448118
 20
306.570725
 30
0.0
 11
59.448118
 21
306.870725
 31
0.0
  0
LINE
  5
411
330
209
100
AcDbEntity
  8
3_ALL_AXES
  6
Continuous
 62
     7
100
AcDbLine
 10
59.448118
 20
292.570725
 30
0.0
 11
59.448118
 21
293.570725
 31
0.0
  0
LINE
  5
412
330
209
100
AcDbEntity
  8
3_ALL_AXES
  6
Continuous
 62
     9
100
AcDbLine
 10
619.448118
 20
419.570725
 30
0.0
 11
59.448118
 21
419.570725
 31
0.0
  0
LINE
  5
413
330
209
100
AcDbEntity
  8
3_ALL_AXES
  6
Continuous
 62
     9
100
AcDbLine
 10
619.448118
 20
306.870725
 30
0.0
 11
59.448118
 21
306.870725
 31
0.0
  0
LINE
  5
414
330
209
100
AcDbEntity
  8
3_ALL_AXES
  6
Continuous
 62
     9
100
AcDbLine
 10
619.448118
 20
442.370725
 30
0.0
 11
59.448118
 21
442.370725
 31
0.0
  0
LINE
  5
415
330
209
100
AcDbEntity
  8
3_ALL_AXES
  6
Continuous
 62
     9
100
AcDbLine
 10
619.448118
 20
430.770725
 30
0.0
 11
59.448118
 21
430.770725
 31
0.0
  0
LINE
  5
416
330
209
100
AcDbEntity
  8
3_ALL_AXES
  6
Continuous
 62
     9
100
AcDbLine
 10
619.448118
 20
293.570725
 30
0.0
 11
59.448118
 21
293.570725
 31
0.0
  0
LINE
  5
417
330
209
100
AcDbEntity
  8
3_ALL_AXES
  6
Continuous
 62
     9
100
AcDbLine
 10
619.448118
 20
429.846711
 30
0.0
 11
59.448118
 21
429.846711
 31
0.0
  0
LINE
  5
418
330
209
100
AcDbEntity
  8
3_ALL_AXES
  6
Continuous
 62
     9
100
AcDbLine
 10
619.448118
 20
427.570725
 30
0.0
 11
59.448118
 21
427.570725
 31
0.0
  0
LINE
  5
419
330
209
100
AcDbEntity
  8
3_ALL_AXES
  6
Continuous
 62
     9
100
AcDbLine
 10
619.448118
 20
418.870725
 30
0.0
 11
59.448118
 21
418.870725
 31
0.0
  0
LINE
  5
41A
330
209
100
AcDbEntity
  8
3_ALL_AXES
  6
Continuous
 62
     9
100
AcDbLine
 10
619.448118
 20
318.770725
 30
0.0
 11
59.448118
 21
318.770725
 31
0.0
  0
LINE
  5
41B
330
209
100
AcDbEntity
  8
3_ALL_AXES
  6
Continuous
 62
     9
100
AcDbLine
 10
619.448118
 20
318.070725
 30
0.0
 11
59.448118
 21
318.070725
 31
0.0
  0
LINE
  5
41C
330
209
100
AcDbEntity
  8
3_ALL_AXES
  6
Continuous
 62
     9
100
AcDbLine
 10
619.448118
 20
315.570725
 30
0.0
 11
59.448118
 21
315.570725
 31
0.0
  0
LINE
  5
41D
330
209
100
AcDbEntity
  8
3_ALL_AXES
  6
Continuous
 62
     9
100
AcDbLine
 10
619.448118
 20
422.070725
 30
0.0
 11
59.448118
 21
422.070725
 31
0.0
  0
LINE
  5
41E
330
209
100
AcDbEntity
  8
3_ALL_AXES
  6
Continuous
 62
     9
100
AcDbLine
 10
619.448118
 20
310.070725
 30
0.0
 11
59.448118
 21
310.070725
 31
0.0
  0
LINE
  5
41F
330
209
100
AcDbEntity
  8
3_ALL_AXES
  6
Continuous
 62
     9
100
AcDbLine
 10
619.448118
 20
307.570725
 30
0.0
 11
59.448118
 21
307.570725
 31
0.0
  0
LINE
  5
420
330
209
100
AcDbEntity
  8
3_ALL_AXES
  6
Continuous
 62
     3
100
AcDbLine
 10
59.448118
 20
294.570725
 30
0.0
 11
59.448118
 21
293.95072
 31
0.0
  0
LINE
  5
421
330
209
100
AcDbEntity
  8
3_ALL_AXES
  6
Continuous
 62
     3
100
AcDbLine
 10
59.448118
 20
306.763545
 30
0.0
 11
59.448118
 21
306.570725
 31
0.0
  0
LINE
  5
422
330
209
100
AcDbEntity
  8
3_ALL_AXES
  6
Continuous
 62
     3
100
AcDbLine
 10
59.448118
 20
319.070725
 30
0.0
 11
59.448118
 21
318.609408
 31
0.0
  0
LINE
  5
423
330
209
100
AcDbEntity
  8
3_ALL_AXES
  6
Continuous
 62
     3
100
AcDbLine
 10
59.448118
 20
418.763545
 30
0.0
 11
59.448118
 21
418.570725
 31
0.0
  0
LINE
  5
424
330
209
100
AcDbEntity
  8
3_ALL_AXES
  6
Continuous
 62
     3
100
AcDbLine
 10
59.448118
 20
431.070725
 30
0.0
 11
59.448118
 21
430.609408
 31
0.0
  0
LINE
  5
425
330
209
100
AcDbEntity
  8
3_ALL_AXES
  6
Continuous
 62
     3
100
AcDbLine
 10
59.448118
 20
442.263545
 30
0.0
 11
59.448118
 21
442.070725
 31
0.0
  0
SPLINE
  5
426
330
209
100
AcDbEntity
  8
7_ALL_FEATURES
  6
Continuous
 62
     3
100
AcDbSpline
 70
     0
 71
     3
 72
    13
 73
     9
 74
     0
 42
0.000000001
 43
0.0000001
 40
0.0
 40
0.0
 40
0.0
 40
0.0
 40
0.0890224478
 40
0.2016269096
 40
0.499776536
 40
0.7984038393
 40
0.910967891
 40
1.0
 40
1.0
 40
1.0
 40
1.0
 10
59.6005737821
 20
311.5156504523
 30
0.0
 10
59.5631402243
 20
311.5846311531
 30
0.0
 10
59.509035839
 20
311.7566938055
 30
0.0
 10
59.4529995908
 20
312.1940795625
 30
0.0
 10
59.453143423
 20
312.820547629
 30
0.0
 10
59.4529319204
 20
313.4469880907
 30
0.0
 10
59.5090474685
 20
313.8847598779
 30
0.0
 10
59.5631346381
 20
314.0567978686
 30
0.0
 10
59.6005666473
 20
314.1257891002
 30
0.0
  0
SPLINE
  5
427
330
209
100
AcDbEntity
  8
7_ALL_FEATURES
  6
Continuous
 62
     3
100
AcDbSpline
 70
     0
 71
     3
 72
    13
 73
     9
 74
     0
 42
0.000000001
 43
0.0000001
 40
0.0
 40
0.0
 40
0.0
 40
0.0
 40
0.0890224485
 40
0.2016269112
 40
0.4997765416
 40
0.7984038418
 40
0.9109678918
 40
1.0
 40
1.0
 40
1.0
 40
1.0
 10
59.6005737821
 20
423.5156504523
 30
0.0
 10
59.563140224
 20
423.5846311537
 30
0.0
 10
59.5090358384
 20
423.7566938075
 30
0.0
 10
59.4529995903
 20
424.1940795696
 30
0.0
 10
59.453143423
 20
424.8205476378
 30
0.0
 10
59.4529319209
 20
425.4469880986
 30
0.0
 10
59.5090474692
 20
425.8847598808
 30
0.0
 10
59.5631346383
 20
426.0567978693
 30
0.0
 10
59.6005666474
 20
426.1257891002
 30
0.0
  0
LINE
  5
428
330
209
100
AcDbEntity
  8
3_ALL_AXES
  6
Continuous
 62
     3
100
AcDbLine
 10
59.448118
 20
431.070725
 30
0.0
 11
59.448118
 21
442.070725
 31
0.0
  0
LINE
  5
429
330
209
100
AcDbEntity
  8
3_ALL_AXES
  6
Continuous
 62
     3
100
AcDbLine
 10
59.448118
 20
319.070725
 30
0.0
 11
59.448118
 21
418.570725
 31
0.0
  0
LINE
  5
42A
330
209
100
AcDbEntity
  8
3_ALL_AXES
  6
Continuous
 62
     3
100
AcDbLine
 10
59.448118
 20
294.570725
 30
0.0
 11
59.448118
 21
306.570725
 31
0.0
  0
LINE
  5
42B
330
209
100
AcDbEntity
  8
3_ALL_AXES
  6
Continuous
 62
     3
100
AcDbLine
 10
619.448118
 20
430.877905
 30
0.0
 11
619.448118
 21
431.070725
 31
0.0
  0
LINE
  5
42C
330
209
100
AcDbEntity
  8
3_ALL_AXES
  6
Continuous
 62
     3
100
AcDbLine
 10
619.448118
 20
418.570725
 30
0.0
 11
619.448118
 21
419.032042
 31
0.0
  0
LINE
  5
42D
330
209
100
AcDbEntity
  8
3_ALL_AXES
  6
Continuous
 62
     3
100
AcDbLine
 10
619.448118
 20
318.877905
 30
0.0
 11
619.448118
 21
319.070725
 31
0.0
  0
LINE
  5
42E
330
209
100
AcDbEntity
  8
3_ALL_AXES
  6
Continuous
 62
     3
100
AcDbLine
 10
619.448118
 20
306.570725
 30
0.0
 11
619.448118
 21
307.032042
 31
0.0
  0
LINE
  5
42F
330
209
100
AcDbEntity
  8
3_ALL_AXES
  6
Continuous
 62
     3
100
AcDbLine
 10
619.448118
 20
293.950794
 30
0.0
 11
619.448118
 21
294.570725
 31
0.0
  0
LINE
  5
430
330
209
100
AcDbEntity
  8
3_ALL_AXES
  6
Continuous
 62
     3
100
AcDbLine
 10
619.448118
 20
442.070725
 30
0.0
 11
619.448118
 21
442.532042
 31
0.0
  0
SPLINE
  5
431
330
209
100
AcDbEntity
  8
7_ALL_FEATURES
  6
Continuous
 62
     3
100
AcDbSpline
 70
     0
 71
     3
 72
    13
 73
     9
 74
     0
 42
0.000000001
 43
0.0000001
 40
0.0
 40
0.0
 40
0.0
 40
0.0
 40
0.0890224485
 40
0.2016269112
 40
0.4997765416
 40
0.7984038418
 40
0.9109678918
 40
1.0
 40
1.0
 40
1.0
 40
1.0
 10
619.2956612624
 20
314.1257993184
 30
0.0
 10
619.3330948204
 20
314.056818617
 30
0.0
 10
619.387199206
 20
313.8847559632
 30
0.0
 10
619.4432354541
 20
313.4473702011
 30
0.0
 10
619.4430916214
 20
312.8209021329
 30
0.0
 10
619.4433031235
 20
312.194461672
 30
0.0
 10
619.3871875753
 20
311.7566898899
 30
0.0
 10
619.3331004061
 20
311.5846519014
 30
0.0
 10
619.2956683971
 20
311.5156606704
 30
0.0
  0
SPLINE
  5
432
330
209
100
AcDbEntity
  8
7_ALL_FEATURES
  6
Continuous
 62
     3
100
AcDbSpline
 70
     0
 71
     3
 72
    13
 73
     9
 74
     0
 42
0.000000001
 43
0.0000001
 40
0.0
 40
0.0
 40
0.0
 40
0.0
 40
0.0890224485
 40
0.2016269113
 40
0.4997765417
 40
0.7984038418
 40
0.9109678918
 40
1.0
 40
1.0
 40
1.0
 40
1.0
 10
619.2956612624
 20
426.1257993184
 30
0.0
 10
619.3330948204
 20
426.056818617
 30
0.0
 10
619.3871992061
 20
425.8847559631
 30
0.0
 10
619.4432354541
 20
425.447370201
 30
0.0
 10
619.4430916214
 20
424.8209021328
 30
0.0
 10
619.4433031235
 20
424.194461672
 30
0.0
 10
619.3871875753
 20
423.7566898899
 30
0.0
 10
619.3331004061
 20
423.5846519014
 30
0.0
 10
619.2956683971
 20
423.5156606704
 30
0.0
  0
LINE
  5
433
330
209
100
AcDbEntity
  8
3_ALL_AXES
  6
Continuous
 62
     3
100
AcDbLine
 10
619.448118
 20
306.570725
 30
0.0
 11
619.448118
 21
294.570725
 31
0.0
  0
LINE
  5
434
330
209
100
AcDbEntity
  8
3_ALL_AXES
  6
Continuous
 62
     3
100
AcDbLine
 10
619.448118
 20
418.570725
 30
0.0
 11
619.448118
 21
319.070725
 31
0.0
  0
LINE
  5
435
330
209
100
AcDbEntity
  8
3_ALL_AXES
  6
Continuous
 62
     3
100
AcDbLine
 10
619.448118
 20
442.070725
 30
0.0
 11
619.448118
 21
431.070725
 31
0.0
  0
LINE
  5
436
330
209
100
AcDbEntity
  8
3_ALL_AXES
  6
Continuous
 62
     7
100
AcDbLine
 10
766.21139
 20
423.720725
 30
0.0
 11
765.770993
 21
423.720725
 31
0.0
  0
LINE
  5
437
330
209
100
AcDbEntity
  8
3_ALL_AXES
  6
Continuous
 62
     7
100
AcDbLine
 10
769.096134
 20
426.970725
 30
0.0
 11
769.096134
 21
422.670725
 31
0.0
  0
LINE
  5
438
330
209
100
AcDbEntity
  8
3_ALL_AXES
  6
Continuous
 62
     7
100
AcDbLine
 10
766.211336
 20
425.920725
 30
0.0
 11
765.771053
 21
425.920725
 31
0.0
  0
LINE
  5
439
330
209
100
AcDbEntity
  8
3_ALL_AXES
  6
Continuous
 62
     7
100
AcDbLine
 10
769.096134
 20
426.970725
 30
0.0
 11
769.047475
 21
426.970725
 31
0.0
  0
LINE
  5
43A
330
209
100
AcDbEntity
  8
3_ALL_AXES
  6
Continuous
 62
     7
100
AcDbLine
 10
769.096134
 20
422.670725
 30
0.0
 11
769.047475
 21
422.670725
 31
0.0
  0
LINE
  5
43B
330
209
100
AcDbEntity
  8
3_ALL_AXES
  6
Continuous
 62
     7
100
AcDbLine
 10
769.047475
 20
422.670725
 30
0.0
 11
767.796134
 21
423.720725
 31
0.0
  0
LINE
  5
43C
330
209
100
AcDbEntity
  8
3_ALL_AXES
  6
Continuous
 62
     7
100
AcDbLine
 10
769.047475
 20
426.970725
 30
0.0
 11
767.796134
 21
425.920725
 31
0.0
  0
LINE
  5
43D
330
209
100
AcDbEntity
  8
3_ALL_AXES
  6
Continuous
 62
     7
100
AcDbLine
 10
769.047475
 20
426.970725
 30
0.0
 11
769.047475
 21
422.670725
 31
0.0
  0
LINE
  5
43E
330
209
100
AcDbEntity
  8
3_ALL_AXES
  6
Continuous
 62
     7
100
AcDbLine
 10
709.380878
 20
425.920725
 30
0.0
 11
709.821276
 21
425.920725
 31
0.0
  0
LINE
  5
43F
330
209
100
AcDbEntity
  8
3_ALL_AXES
  6
Continuous
 62
     7
100
AcDbLine
 10
706.496134
 20
422.670725
 30
0.0
 11
706.496134
 21
426.970725
 31
0.0
  0
LINE
  5
440
330
209
100
AcDbEntity
  8
3_ALL_AXES
  6
Continuous
 62
     7
100
AcDbLine
 10
709.380932
 20
423.720725
 30
0.0
 11
709.821216
 21
423.720725
 31
0.0
  0
LINE
  5
441
330
209
100
AcDbEntity
  8
3_ALL_AXES
  6
Continuous
 62
     7
100
AcDbLine
 10
706.496134
 20
422.670725
 30
0.0
 11
706.544793
 21
422.670725
 31
0.0
  0
LINE
  5
442
330
209
100
AcDbEntity
  8
3_ALL_AXES
  6
Continuous
 62
     7
100
AcDbLine
 10
706.496134
 20
426.970725
 30
0.0
 11
706.544793
 21
426.970725
 31
0.0
  0
LINE
  5
443
330
209
100
AcDbEntity
  8
3_ALL_AXES
  6
Continuous
 62
     7
100
AcDbLine
 10
706.544793
 20
426.970725
 30
0.0
 11
707.796134
 21
425.920725
 31
0.0
  0
LINE
  5
444
330
209
100
AcDbEntity
  8
3_ALL_AXES
  6
Continuous
 62
     7
100
AcDbLine
 10
706.544793
 20
422.670725
 30
0.0
 11
707.796134
 21
423.720725
 31
0.0
  0
LINE
  5
445
330
209
100
AcDbEntity
  8
3_ALL_AXES
  6
Continuous
 62
     7
100
AcDbLine
 10
706.544793
 20
422.670725
 30
0.0
 11
706.544793
 21
426.970725
 31
0.0
  0
ARC
  5
446
330
209
100
AcDbEntity
  8
3_ALL_AXES
  6
Continuous
 62
     7
100
AcDbCircle
 10
725.296134
 20
421.820725
 30
0.0
 40
2.9
100
AcDbArc
 50
180.0
 51
360.0
  0
ARC
  5
447
330
209
100
AcDbEntity
  8
3_ALL_AXES
  6
Continuous
 62
     7
100
AcDbCircle
 10
725.296134
 20
421.820725
 30
0.0
 40
2.9
100
AcDbArc
 50
0.0
 51
180.0
  0
ARC
  5
448
330
209
100
AcDbEntity
  8
3_ALL_AXES
  6
Continuous
 62
     7
100
AcDbCircle
 10
750.296134
 20
421.820725
 30
0.0
 40
2.9
100
AcDbArc
 50
180.0
 51
360.0
  0
ARC
  5
449
330
209
100
AcDbEntity
  8
3_ALL_AXES
  6
Continuous
 62
     7
100
AcDbCircle
 10
750.296134
 20
421.820725
 30
0.0
 40
2.9
100
AcDbArc
 50
0.0
 51
180.0
  0
SPLINE
  5
44A
330
209
100
AcDbEntity
  8
7_ALL_FEATURES
  6
Continuous
 62
     7
100
AcDbSpline
 70
     0
 71
     3
 72
    19
 73
    15
 74
     0
 42
0.000000001
 43
0.0000001
 40
0.0
 40
0.0
 40
0.0
 40
0.0
 40
0.1068368076
 40
0.2311794724
 40
0.2972245578
 40
0.3644456546
 40
0.4322330359
 40
0.4999965791
 40
0.5677552722
 40
0.6355474043
 40
0.7027703164
 40
0.7688165891
 40
0.8931624808
 40
1.0
 40
1.0
 40
1.0
 40
1.0
 10
708.6748137835
 20
314.3207248853
 30
0.0
 10
708.8603022914
 20
314.3207248853
 30
0.0
 10
709.2608288216
 20
314.2388006139
 30
0.0
 10
709.7306987379
 20
314.0139611404
 30
0.0
 10
710.0887026423
 20
313.7429310596
 30
0.0
 10
710.3268825774
 20
313.4847796573
 30
0.0
 10
710.5037492584
 20
313.1752905989
 30
0.0
 10
710.5723488757
 20
312.8207548449
 30
0.0
 10
710.5036924893
 20
312.4662365734
 30
0.0
 10
710.3269036687
 20
312.1567073098
 30
0.0
 10
710.088743546
 20
311.8985095722
 30
0.0
 10
709.7307089439
 20
311.6275008662
 30
0.0
 10
709.2608381583
 20
311.4026510814
 30
0.0
 10
708.8603035269
 20
311.3207248853
 30
0.0
 10
708.6748137835
 20
311.3207248853
 30
0.0
  0
LINE
  5
44B
330
209
100
AcDbEntity
  8
7_ALL_FEATURES
  6
Continuous
 62
     7
100
AcDbLine
 10
707.796134
 20
310.370725
 30
0.0
 11
707.796134
 21
315.270725
 31
0.0
  0
LINE
  5
44C
330
209
100
AcDbEntity
  8
7_ALL_FEATURES
  6
Continuous
 62
     7
100
AcDbLine
 10
707.796134
 20
309.320725
 30
0.0
 11
708.198058
 21
309.320725
 31
0.0
  0
LINE
  5
44D
330
209
100
AcDbEntity
  8
7_ALL_FEATURES
  6
Continuous
 62
     7
100
AcDbLine
 10
708.198058
 20
309.320725
 30
0.0
 11
709.296134
 21
309.320725
 31
0.0
  0
LINE
  5
44E
330
209
100
AcDbEntity
  8
7_ALL_FEATURES
  6
Continuous
 62
     7
100
AcDbLine
 10
709.296134
 20
309.320725
 30
0.0
 11
710.796134
 21
309.320725
 31
0.0
  0
LINE
  5
44F
330
209
100
AcDbEntity
  8
7_ALL_FEATURES
  6
Continuous
 62
     7
100
AcDbLine
 10
710.796134
 20
316.320725
 30
0.0
 11
709.296134
 21
316.320725
 31
0.0
  0
LINE
  5
450
330
209
100
AcDbEntity
  8
7_ALL_FEATURES
  6
Continuous
 62
     7
100
AcDbLine
 10
709.296134
 20
316.320725
 30
0.0
 11
707.796134
 21
316.320725
 31
0.0
  0
SPLINE
  5
451
330
209
100
AcDbEntity
  8
7_ALL_FEATURES
  6
Continuous
 62
     7
100
AcDbSpline
 70
     0
 71
     3
 72
    19
 73
    15
 74
     0
 42
0.000000001
 43
0.0000001
 40
0.0
 40
0.0
 40
0.0
 40
0.0
 40
0.1068368076
 40
0.2311794724
 40
0.2972245578
 40
0.3644456546
 40
0.4322330359
 40
0.4999965791
 40
0.5677552722
 40
0.6355474043
 40
0.7027703164
 40
0.7688165891
 40
0.8931624808
 40
1.0
 40
1.0
 40
1.0
 40
1.0
 10
766.9174544707
 20
311.3207248853
 30
0.0
 10
766.7319659628
 20
311.3207248853
 30
0.0
 10
766.3314394325
 20
311.4026491568
 30
0.0
 10
765.8615695163
 20
311.6274886303
 30
0.0
 10
765.5035656119
 20
311.8985187112
 30
0.0
 10
765.2653856767
 20
312.1566701135
 30
0.0
 10
765.088518996
 20
312.4661591719
 30
0.0
 10
765.0199193777
 20
312.8206949257
 30
0.0
 10
765.0885757647
 20
313.1752131973
 30
0.0
 10
765.2653645859
 20
313.4847424603
 30
0.0
 10
765.5035247081
 20
313.7429401984
 30
0.0
 10
765.8615593103
 20
314.0139489046
 30
0.0
 10
766.3314300959
 20
314.2387986894
 30
0.0
 10
766.7319647273
 20
314.3207248853
 30
0.0
 10
766.9174544707
 20
314.3207248853
 30
0.0
  0
LINE
  5
452
330
209
100
AcDbEntity
  8
7_ALL_FEATURES
  6
Continuous
 62
     7
100
AcDbLine
 10
767.796134
 20
315.270725
 30
0.0
 11
767.796134
 21
310.370725
 31
0.0
  0
LINE
  5
453
330
209
100
AcDbEntity
  8
7_ALL_FEATURES
  6
Continuous
 62
     7
100
AcDbLine
 10
767.796134
 20
316.320725
 30
0.0
 11
767.39421
 21
316.320725
 31
0.0
  0
LINE
  5
454
330
209
100
AcDbEntity
  8
7_ALL_FEATURES
  6
Continuous
 62
     7
100
AcDbLine
 10
767.39421
 20
316.320725
 30
0.0
 11
766.296134
 21
316.320725
 31
0.0
  0
LINE
  5
455
330
209
100
AcDbEntity
  8
7_ALL_FEATURES
  6
Continuous
 62
     7
100
AcDbLine
 10
766.296134
 20
316.320725
 30
0.0
 11
764.796134
 21
316.320725
 31
0.0
  0
LINE
  5
456
330
209
100
AcDbEntity
  8
7_ALL_FEATURES
  6
Continuous
 62
     7
100
AcDbLine
 10
764.796134
 20
309.320725
 30
0.0
 11
766.296134
 21
309.320725
 31
0.0
  0
LINE
  5
457
330
209
100
AcDbEntity
  8
7_ALL_FEATURES
  6
Continuous
 62
     7
100
AcDbLine
 10
766.296134
 20
309.320725
 30
0.0
 11
767.796134
 21
309.320725
 31
0.0
  0
SPLINE
  5
458
330
209
100
AcDbEntity
  8
7_ALL_FEATURES
  6
Continuous
 62
     7
100
AcDbSpline
 70
     0
 71
     3
 72
    19
 73
    15
 74
     0
 42
0.000000001
 43
0.0000001
 40
0.0
 40
0.0
 40
0.0
 40
0.0
 40
0.1068368076
 40
0.2311794724
 40
0.2972245578
 40
0.3644456546
 40
0.4322330359
 40
0.4999965791
 40
0.5677552722
 40
0.6355474043
 40
0.7027703164
 40
0.7688165891
 40
0.8931624808
 40
1.0
 40
1.0
 40
1.0
 40
1.0
 10
766.9174544707
 20
423.3207248853
 30
0.0
 10
766.7319659628
 20
423.3207248853
 30
0.0
 10
766.3314394325
 20
423.4026491568
 30
0.0
 10
765.8615695163
 20
423.6274886303
 30
0.0
 10
765.5035656119
 20
423.8985187111
 30
0.0
 10
765.2653856768
 20
424.1566701134
 30
0.0
 10
765.0885189958
 20
424.4661591718
 30
0.0
 10
765.0199193785
 20
424.8206949258
 30
0.0
 10
765.0885757649
 20
425.1752131973
 30
0.0
 10
765.2653645855
 20
425.4847424608
 30
0.0
 10
765.5035247082
 20
425.7429401985
 30
0.0
 10
765.8615593103
 20
426.0139489045
 30
0.0
 10
766.3314300959
 20
426.2387986893
 30
0.0
 10
766.7319647273
 20
426.3207248853
 30
0.0
 10
766.9174544707
 20
426.3207248853
 30
0.0
  0
LINE
  5
459
330
209
100
AcDbEntity
  8
7_ALL_FEATURES
  6
Continuous
 62
     7
100
AcDbLine
 10
767.796134
 20
427.270725
 30
0.0
 11
767.796134
 21
422.370725
 31
0.0
  0
LINE
  5
45A
330
209
100
AcDbEntity
  8
7_ALL_FEATURES
  6
Continuous
 62
     7
100
AcDbLine
 10
767.796134
 20
428.320725
 30
0.0
 11
767.39421
 21
428.320725
 31
0.0
  0
LINE
  5
45B
330
209
100
AcDbEntity
  8
7_ALL_FEATURES
  6
Continuous
 62
     7
100
AcDbLine
 10
767.39421
 20
428.320725
 30
0.0
 11
766.296134
 21
428.320725
 31
0.0
  0
LINE
  5
45C
330
209
100
AcDbEntity
  8
7_ALL_FEATURES
  6
Continuous
 62
     7
100
AcDbLine
 10
766.296134
 20
428.320725
 30
0.0
 11
764.796134
 21
428.320725
 31
0.0
  0
LINE
  5
45D
330
209
100
AcDbEntity
  8
7_ALL_FEATURES
  6
Continuous
 62
     7
100
AcDbLine
 10
764.796134
 20
421.320725
 30
0.0
 11
766.296134
 21
421.320725
 31
0.0
  0
LINE
  5
45E
330
209
100
AcDbEntity
  8
7_ALL_FEATURES
  6
Continuous
 62
     7
100
AcDbLine
 10
766.296134
 20
421.320725
 30
0.0
 11
767.796134
 21
421.320725
 31
0.0
  0
SPLINE
  5
45F
330
209
100
AcDbEntity
  8
7_ALL_FEATURES
  6
Continuous
 62
     7
100
AcDbSpline
 70
     0
 71
     3
 72
    19
 73
    15
 74
     0
 42
0.000000001
 43
0.0000001
 40
0.0
 40
0.0
 40
0.0
 40
0.0
 40
0.1068368076
 40
0.2311794724
 40
0.2972245578
 40
0.3644456546
 40
0.4322330359
 40
0.4999965791
 40
0.5677552722
 40
0.6355474043
 40
0.7027703164
 40
0.7688165891
 40
0.8931624808
 40
1.0
 40
1.0
 40
1.0
 40
1.0
 10
708.6748137835
 20
426.3207248853
 30
0.0
 10
708.8603022914
 20
426.3207248854
 30
0.0
 10
709.2608288216
 20
426.2388006139
 30
0.0
 10
709.7306987379
 20
426.0139611404
 30
0.0
 10
710.0887026423
 20
425.7429310596
 30
0.0
 10
710.3268825774
 20
425.4847796573
 30
0.0
 10
710.5037492583
 20
425.1752905989
 30
0.0
 10
710.5723488757
 20
424.8207548449
 30
0.0
 10
710.5036924893
 20
424.4662365734
 30
0.0
 10
710.3269036687
 20
424.1567073098
 30
0.0
 10
710.088743546
 20
423.8985095722
 30
0.0
 10
709.7307089439
 20
423.6275008662
 30
0.0
 10
709.2608381583
 20
423.4026510814
 30
0.0
 10
708.8603035269
 20
423.3207248853
 30
0.0
 10
708.6748137835
 20
423.3207248853
 30
0.0
  0
LINE
  5
460
330
209
100
AcDbEntity
  8
7_ALL_FEATURES
  6
Continuous
 62
     7
100
AcDbLine
 10
707.796134
 20
422.370725
 30
0.0
 11
707.796134
 21
427.270725
 31
0.0
  0
LINE
  5
461
330
209
100
AcDbEntity
  8
7_ALL_FEATURES
  6
Continuous
 62
     7
100
AcDbLine
 10
707.796134
 20
421.320725
 30
0.0
 11
708.198058
 21
421.320725
 31
0.0
  0
LINE
  5
462
330
209
100
AcDbEntity
  8
7_ALL_FEATURES
  6
Continuous
 62
     7
100
AcDbLine
 10
708.198058
 20
421.320725
 30
0.0
 11
709.296134
 21
421.320725
 31
0.0
  0
LINE
  5
463
330
209
100
AcDbEntity
  8
7_ALL_FEATURES
  6
Continuous
 62
     7
100
AcDbLine
 10
709.296134
 20
421.320725
 30
0.0
 11
710.796134
 21
421.320725
 31
0.0
  0
LINE
  5
464
330
209
100
AcDbEntity
  8
7_ALL_FEATURES
  6
Continuous
 62
     7
100
AcDbLine
 10
710.796134
 20
428.320725
 30
0.0
 11
709.296134
 21
428.320725
 31
0.0
  0
LINE
  5
465
330
209
100
AcDbEntity
  8
7_ALL_FEATURES
  6
Continuous
 62
     7
100
AcDbLine
 10
709.296134
 20
428.320725
 30
0.0
 11
707.796134
 21
428.320725
 31
0.0
  0
ARC
  5
466
330
209
100
AcDbEntity
  8
3_ALL_AXES
  6
Continuous
 62
     7
100
AcDbCircle
 10
725.068212
 20
313.570725
 30
0.0
 40
0.25
100
AcDbArc
 50
270.0
 51
356.627713
  0
ARC
  5
467
330
209
100
AcDbEntity
  8
3_ALL_AXES
  6
Continuous
 62
     7
100
AcDbCircle
 10
724.567378
 20
313.570725
 30
0.0
 40
0.25
100
AcDbArc
 50
176.755108
 51
270.0
  0
ARC
  5
468
330
209
100
AcDbEntity
  8
3_ALL_AXES
  6
Continuous
 62
     7
100
AcDbCircle
 10
737.796134
 20
312.820725
 30
0.0
 40
13.5
100
AcDbArc
 50
3.244892
 51
176.755108
  0
ARC
  5
469
330
209
100
AcDbEntity
  8
3_ALL_AXES
  6
Continuous
 62
     7
100
AcDbCircle
 10
751.024891
 20
313.570725
 30
0.0
 40
0.25
100
AcDbArc
 50
270.0
 51
3.244892
  0
ARC
  5
46A
330
209
100
AcDbEntity
  8
3_ALL_AXES
  6
Continuous
 62
     7
100
AcDbCircle
 10
750.524056
 20
313.570725
 30
0.0
 40
0.25
100
AcDbArc
 50
183.372287
 51
270.0
  0
ARC
  5
46B
330
209
100
AcDbEntity
  8
3_ALL_AXES
  6
Continuous
 62
     7
100
AcDbCircle
 10
737.796134
 20
312.820725
 30
0.0
 40
12.5
100
AcDbArc
 50
3.372287
 51
176.627713
  0
SPLINE
  5
46C
330
209
100
AcDbEntity
  8
3_ALL_AXES
  6
Continuous
 62
     7
100
AcDbSpline
 70
     0
 71
     3
 72
     9
 73
     5
 74
     0
 42
0.000000001
 43
0.0000001
 40
0.0
 40
0.0
 40
0.0
 40
0.0
 40
0.4932353882
 40
1.0
 40
1.0
 40
1.0
 40
1.0
 10
738.2961341271
 20
299.59196833
 30
0.0
 10
738.2961341271
 20
299.5284584292
 30
0.0
 10
738.3509641004
 20
299.3968561404
 30
0.0
 10
738.4850698761
 20
299.3371758331
 30
0.0
 10
738.5502172077
 20
299.3408693397
 30
0.0
  0
ARC
  5
46D
330
209
100
AcDbEntity
  8
3_ALL_AXES
  6
Continuous
 62
     7
100
AcDbCircle
 10
738.546134
 20
300.092803
 30
0.0
 40
0.25
100
AcDbArc
 50
93.372287
 51
180.0
  0
ARC
  5
46E
330
209
100
AcDbEntity
  8
3_ALL_AXES
  6
Continuous
 62
     7
100
AcDbCircle
 10
737.796134
 20
312.820725
 30
0.0
 40
12.5
100
AcDbArc
 50
273.372287
 51
356.627713
  0
ARC
  5
46F
330
209
100
AcDbEntity
  8
3_ALL_AXES
  6
Continuous
 62
     7
100
AcDbCircle
 10
750.524056
 20
312.070725
 30
0.0
 40
0.25
100
AcDbArc
 50
90.0
 51
176.627713
  0
ARC
  5
470
330
209
100
AcDbEntity
  8
3_ALL_AXES
  6
Continuous
 62
     7
100
AcDbCircle
 10
751.024891
 20
312.070725
 30
0.0
 40
0.25
100
AcDbArc
 50
356.755108
 51
90.0
  0
ARC
  5
471
330
209
100
AcDbEntity
  8
3_ALL_AXES
  6
Continuous
 62
     7
100
AcDbCircle
 10
737.796134
 20
312.820725
 30
0.0
 40
13.5
100
AcDbArc
 50
273.201874
 51
356.755108
  0
ARC
  5
472
330
209
100
AcDbEntity
  8
3_ALL_AXES
  6
Continuous
 62
     7
100
AcDbCircle
 10
724.567378
 20
312.070725
 30
0.0
 40
0.25
100
AcDbArc
 50
90.0
 51
183.244892
  0
LINE
  5
473
330
209
100
AcDbEntity
  8
3_ALL_AXES
  6
Continuous
 62
     7
100
AcDbLine
 10
725.068212
 20
312.320725
 30
0.0
 11
724.567378
 21
312.320725
 31
0.0
  0
ARC
  5
474
330
209
100
AcDbEntity
  8
3_ALL_AXES
  6
Continuous
 62
     7
100
AcDbCircle
 10
725.068212
 20
312.070725
 30
0.0
 40
0.25
100
AcDbArc
 50
3.372287
 51
90.0
  0
ARC
  5
475
330
209
100
AcDbEntity
  8
3_ALL_AXES
  6
Continuous
 62
     7
100
AcDbCircle
 10
737.796134
 20
312.820725
 30
0.0
 40
12.5
100
AcDbArc
 50
183.372287
 51
266.627713
  0
ARC
  5
476
330
209
100
AcDbEntity
  8
3_ALL_AXES
  6
Continuous
 62
     7
100
AcDbCircle
 10
737.046134
 20
300.092803
 30
0.0
 40
0.25
100
AcDbArc
 50
0.0
 51
86.627713
  0
LINE
  5
477
330
209
100
AcDbEntity
  8
3_ALL_AXES
  6
Continuous
 62
     7
100
AcDbLine
 10
737.296134
 20
299.591968
 30
0.0
 11
737.296134
 21
300.092803
 31
0.0
  0
SPLINE
  5
478
330
209
100
AcDbEntity
  8
3_ALL_AXES
  6
Continuous
 62
     7
100
AcDbSpline
 70
     0
 71
     3
 72
     9
 73
     5
 74
     0
 42
0.000000001
 43
0.0000001
 40
0.0
 40
0.0
 40
0.0
 40
0.0
 40
0.5066311484
 40
1.0
 40
1.0
 40
1.0
 40
1.0
 10
737.0420500651
 20
299.3408695152
 30
0.0
 10
737.1071804074
 20
299.3371769719
 30
0.0
 10
737.241283837
 20
299.3968360673
 30
0.0
 10
737.2961341271
 20
299.5284410802
 30
0.0
 10
737.2961341271
 20
299.59196833
 30
0.0
  0
ARC
  5
479
330
209
100
AcDbEntity
  8
3_ALL_AXES
  6
Continuous
 62
     7
100
AcDbCircle
 10
737.796134
 20
312.820725
 30
0.0
 40
13.5
100
AcDbArc
 50
183.244892
 51
266.798122
  0
ARC
  5
47A
330
209
100
AcDbEntity
  8
3_ALL_AXES
  6
Continuous
 62
     7
100
AcDbCircle
 10
708.296134
 20
431.070725
 30
0.0
 40
0.5
100
AcDbArc
 50
180.0
 51
270.0
  0
ARC
  5
47B
330
209
100
AcDbEntity
  8
3_ALL_AXES
  6
Continuous
 62
     7
100
AcDbCircle
 10
710.296134
 20
430.070725
 30
0.0
 40
0.5
100
AcDbArc
 50
0.0
 51
90.0
  0
ARC
  5
47C
330
209
100
AcDbEntity
  8
3_ALL_AXES
  6
Continuous
 62
     7
100
AcDbCircle
 10
710.296134
 20
419.570725
 30
0.0
 40
0.5
100
AcDbArc
 50
270.0
 51
360.0
  0
ARC
  5
47D
330
209
100
AcDbEntity
  8
3_ALL_AXES
  6
Continuous
 62
     7
100
AcDbCircle
 10
708.296134
 20
418.570725
 30
0.0
 40
0.5
100
AcDbArc
 50
90.0
 51
180.0
  0
ARC
  5
47E
330
209
100
AcDbEntity
  8
3_ALL_AXES
  6
Continuous
 62
     7
100
AcDbCircle
 10
708.296134
 20
319.070725
 30
0.0
 40
0.5
100
AcDbArc
 50
180.0
 51
270.0
  0
ARC
  5
47F
330
209
100
AcDbEntity
  8
3_ALL_AXES
  6
Continuous
 62
     7
100
AcDbCircle
 10
710.296134
 20
318.070725
 30
0.0
 40
0.5
100
AcDbArc
 50
0.0
 51
90.0
  0
ARC
  5
480
330
209
100
AcDbEntity
  8
3_ALL_AXES
  6
Continuous
 62
     7
100
AcDbCircle
 10
710.296134
 20
307.570725
 30
0.0
 40
0.5
100
AcDbArc
 50
270.0
 51
360.0
  0
ARC
  5
481
330
209
100
AcDbEntity
  8
3_ALL_AXES
  6
Continuous
 62
     7
100
AcDbCircle
 10
708.296134
 20
306.570725
 30
0.0
 40
0.5
100
AcDbArc
 50
90.0
 51
180.0
  0
ARC
  5
482
330
209
100
AcDbEntity
  8
3_ALL_AXES
  6
Continuous
 62
     7
100
AcDbCircle
 10
709.796134
 20
294.570725
 30
0.0
 40
2.0
100
AcDbArc
 50
180.0
 51
270.0
  0
ARC
  5
483
330
209
100
AcDbEntity
  8
3_ALL_AXES
  6
Continuous
 62
     7
100
AcDbCircle
 10
765.796134
 20
294.570725
 30
0.0
 40
2.0
100
AcDbArc
 50
270.0
 51
360.0
  0
ARC
  5
484
330
209
100
AcDbEntity
  8
3_ALL_AXES
  6
Continuous
 62
     7
100
AcDbCircle
 10
767.296134
 20
306.570725
 30
0.0
 40
0.5
100
AcDbArc
 50
0.0
 51
90.0
  0
ARC
  5
485
330
209
100
AcDbEntity
  8
3_ALL_AXES
  6
Continuous
 62
     7
100
AcDbCircle
 10
765.296134
 20
307.570725
 30
0.0
 40
0.5
100
AcDbArc
 50
180.0
 51
270.0
  0
ARC
  5
486
330
209
100
AcDbEntity
  8
3_ALL_AXES
  6
Continuous
 62
     7
100
AcDbCircle
 10
765.296134
 20
318.070725
 30
0.0
 40
0.5
100
AcDbArc
 50
90.0
 51
180.0
  0
ARC
  5
487
330
209
100
AcDbEntity
  8
3_ALL_AXES
  6
Continuous
 62
     7
100
AcDbCircle
 10
767.296134
 20
319.070725
 30
0.0
 40
0.5
100
AcDbArc
 50
270.0
 51
360.0
  0
ARC
  5
488
330
209
100
AcDbEntity
  8
3_ALL_AXES
  6
Continuous
 62
     7
100
AcDbCircle
 10
767.296134
 20
418.570725
 30
0.0
 40
0.5
100
AcDbArc
 50
0.0
 51
90.0
  0
ARC
  5
489
330
209
100
AcDbEntity
  8
3_ALL_AXES
  6
Continuous
 62
     7
100
AcDbCircle
 10
765.296134
 20
419.570725
 30
0.0
 40
0.5
100
AcDbArc
 50
180.0
 51
270.0
  0
ARC
  5
48A
330
209
100
AcDbEntity
  8
3_ALL_AXES
  6
Continuous
 62
     7
100
AcDbCircle
 10
765.296134
 20
430.070725
 30
0.0
 40
0.5
100
AcDbArc
 50
90.0
 51
180.0
  0
ARC
  5
48B
330
209
100
AcDbEntity
  8
3_ALL_AXES
  6
Continuous
 62
     7
100
AcDbCircle
 10
767.296134
 20
431.070725
 30
0.0
 40
0.5
100
AcDbArc
 50
270.0
 51
360.0
  0
ARC
  5
48C
330
209
100
AcDbEntity
  8
3_ALL_AXES
  6
Continuous
 62
     7
100
AcDbCircle
 10
767.296134
 20
442.070725
 30
0.0
 40
0.5
100
AcDbArc
 50
0.0
 51
90.0
  0
ARC
  5
48D
330
209
100
AcDbEntity
  8
3_ALL_AXES
  6
Continuous
 62
     7
100
AcDbCircle
 10
708.296134
 20
442.070725
 30
0.0
 40
0.5
100
AcDbArc
 50
90.0
 51
180.0
  0
LINE
  5
48E
330
209
100
AcDbEntity
  8
3_ALL_AXES
  6
Continuous
 62
     7
100
AcDbLine
 10
751.024891
 20
313.320725
 30
0.0
 11
750.524056
 21
313.320725
 31
0.0
  0
LINE
  5
48F
330
209
100
AcDbEntity
  8
3_ALL_AXES
  6
Continuous
 62
     7
100
AcDbLine
 10
725.068212
 20
313.320725
 30
0.0
 11
724.567378
 21
313.320725
 31
0.0
  0
LINE
  5
490
330
209
100
AcDbEntity
  8
3_ALL_AXES
  6
Continuous
 62
     7
100
AcDbLine
 10
750.524056
 20
312.320725
 30
0.0
 11
751.024891
 21
312.320725
 31
0.0
  0
LINE
  5
491
330
209
100
AcDbEntity
  8
3_ALL_AXES
  6
Continuous
 62
     7
100
AcDbLine
 10
738.296134
 20
299.591968
 30
0.0
 11
738.296134
 21
300.092803
 31
0.0
  0
LINE
  5
492
330
209
100
AcDbEntity
  8
3_ALL_AXES
  6
Continuous
 62
     7
100
AcDbLine
 10
767.296134
 20
442.570725
 30
0.0
 11
708.296134
 21
442.570725
 31
0.0
  0
LINE
  5
493
330
209
100
AcDbEntity
  8
3_ALL_AXES
  6
Continuous
 62
     7
100
AcDbLine
 10
767.796134
 20
431.070725
 30
0.0
 11
767.796134
 21
442.070725
 31
0.0
  0
LINE
  5
494
330
209
100
AcDbEntity
  8
3_ALL_AXES
  6
Continuous
 62
     7
100
AcDbLine
 10
765.296134
 20
430.570725
 30
0.0
 11
767.296134
 21
430.570725
 31
0.0
  0
LINE
  5
495
330
209
100
AcDbEntity
  8
3_ALL_AXES
  6
Continuous
 62
     7
100
AcDbLine
 10
764.796134
 20
428.320725
 30
0.0
 11
764.796134
 21
430.070725
 31
0.0
  0
LINE
  5
496
330
209
100
AcDbEntity
  8
3_ALL_AXES
  6
Continuous
 62
     7
100
AcDbLine
 10
764.796134
 20
419.570725
 30
0.0
 11
764.796134
 21
421.320725
 31
0.0
  0
LINE
  5
497
330
209
100
AcDbEntity
  8
3_ALL_AXES
  6
Continuous
 62
     7
100
AcDbLine
 10
767.296134
 20
419.070725
 30
0.0
 11
765.296134
 21
419.070725
 31
0.0
  0
LINE
  5
498
330
209
100
AcDbEntity
  8
3_ALL_AXES
  6
Continuous
 62
     7
100
AcDbLine
 10
767.796134
 20
319.070725
 30
0.0
 11
767.796134
 21
418.570725
 31
0.0
  0
LINE
  5
499
330
209
100
AcDbEntity
  8
3_ALL_AXES
  6
Continuous
 62
     7
100
AcDbLine
 10
765.296134
 20
318.570725
 30
0.0
 11
767.296134
 21
318.570725
 31
0.0
  0
LINE
  5
49A
330
209
100
AcDbEntity
  8
3_ALL_AXES
  6
Continuous
 62
     7
100
AcDbLine
 10
764.796134
 20
316.320725
 30
0.0
 11
764.796134
 21
318.070725
 31
0.0
  0
LINE
  5
49B
330
209
100
AcDbEntity
  8
3_ALL_AXES
  6
Continuous
 62
     7
100
AcDbLine
 10
764.796134
 20
307.570725
 30
0.0
 11
764.796134
 21
309.320725
 31
0.0
  0
LINE
  5
49C
330
209
100
AcDbEntity
  8
3_ALL_AXES
  6
Continuous
 62
     7
100
AcDbLine
 10
767.296134
 20
307.070725
 30
0.0
 11
765.296134
 21
307.070725
 31
0.0
  0
LINE
  5
49D
330
209
100
AcDbEntity
  8
3_ALL_AXES
  6
Continuous
 62
     7
100
AcDbLine
 10
767.796134
 20
294.570725
 30
0.0
 11
767.796134
 21
306.570725
 31
0.0
  0
LINE
  5
49E
330
209
100
AcDbEntity
  8
3_ALL_AXES
  6
Continuous
 62
     7
100
AcDbLine
 10
709.796134
 20
292.570725
 30
0.0
 11
765.796134
 21
292.570725
 31
0.0
  0
LINE
  5
49F
330
209
100
AcDbEntity
  8
3_ALL_AXES
  6
Continuous
 62
     7
100
AcDbLine
 10
707.796134
 20
306.570725
 30
0.0
 11
707.796134
 21
294.570725
 31
0.0
  0
LINE
  5
4A0
330
209
100
AcDbEntity
  8
3_ALL_AXES
  6
Continuous
 62
     7
100
AcDbLine
 10
710.296134
 20
307.070725
 30
0.0
 11
708.296134
 21
307.070725
 31
0.0
  0
LINE
  5
4A1
330
209
100
AcDbEntity
  8
3_ALL_AXES
  6
Continuous
 62
     7
100
AcDbLine
 10
710.796134
 20
309.320725
 30
0.0
 11
710.796134
 21
307.570725
 31
0.0
  0
LINE
  5
4A2
330
209
100
AcDbEntity
  8
3_ALL_AXES
  6
Continuous
 62
     7
100
AcDbLine
 10
710.796134
 20
318.070725
 30
0.0
 11
710.796134
 21
316.320725
 31
0.0
  0
LINE
  5
4A3
330
209
100
AcDbEntity
  8
3_ALL_AXES
  6
Continuous
 62
     7
100
AcDbLine
 10
708.296134
 20
318.570725
 30
0.0
 11
710.296134
 21
318.570725
 31
0.0
  0
LINE
  5
4A4
330
209
100
AcDbEntity
  8
3_ALL_AXES
  6
Continuous
 62
     7
100
AcDbLine
 10
707.796134
 20
418.570725
 30
0.0
 11
707.796134
 21
319.070725
 31
0.0
  0
LINE
  5
4A5
330
209
100
AcDbEntity
  8
3_ALL_AXES
  6
Continuous
 62
     7
100
AcDbLine
 10
710.296134
 20
419.070725
 30
0.0
 11
708.296134
 21
419.070725
 31
0.0
  0
LINE
  5
4A6
330
209
100
AcDbEntity
  8
3_ALL_AXES
  6
Continuous
 62
     7
100
AcDbLine
 10
710.796134
 20
421.320725
 30
0.0
 11
710.796134
 21
419.570725
 31
0.0
  0
LINE
  5
4A7
330
209
100
AcDbEntity
  8
3_ALL_AXES
  6
Continuous
 62
     7
100
AcDbLine
 10
710.796134
 20
430.070725
 30
0.0
 11
710.796134
 21
428.320725
 31
0.0
  0
LINE
  5
4A8
330
209
100
AcDbEntity
  8
3_ALL_AXES
  6
Continuous
 62
     7
100
AcDbLine
 10
708.296134
 20
430.570725
 30
0.0
 11
710.296134
 21
430.570725
 31
0.0
  0
LINE
  5
4A9
330
209
100
AcDbEntity
  8
3_ALL_AXES
  6
Continuous
 62
     7
100
AcDbLine
 10
707.796134
 20
442.070725
 30
0.0
 11
707.796134
 21
431.070725
 31
0.0
  0
SPLINE
  5
4AA
330
209
100
AcDbEntity
  8
7_ALL_FEATURES
  6
Continuous
 62
     7
100
AcDbSpline
 70
     0
 71
     3
 72
    19
 73
    15
 74
     0
 42
0.000000001
 43
0.0000001
 40
0.0
 40
0.0
 40
0.0
 40
0.0
 40
0.1006774367
 40
0.1491619529
 40
0.2002833937
 40
0.2585998998
 40
0.3292130444
 40
0.5003695149
 40
0.6712250962
 40
0.7415975177
 40
0.7998344075
 40
0.8508224637
 40
0.8992508074
 40
1.0
 40
1.0
 40
1.0
 40
1.0
 10
766.9174544707
 20
423.3207248853
 30
0.0
 10
767.0509194905
 20
423.3207248853
 30
0.0
 10
767.2545337266
 20
423.3516577374
 30
0.0
 10
767.483155727
 20
423.4938498205
 30
0.0
 10
767.6193578044
 20
423.6575785762
 30
0.0
 10
767.7121430075
 20
423.8804165061
 30
0.0
 10
767.7833768238
 20
424.2735627595
 30
0.0
 10
767.7880903615
 20
424.8217895726
 30
0.0
 10
767.7832382622
 20
425.369721381
 30
0.0
 10
767.7118254153
 20
425.7619912367
 30
0.0
 10
767.6191281673
 20
425.9842087963
 30
0.0
 10
767.4831041781
 20
426.1475915188
 30
0.0
 10
767.2546631848
 20
426.2897558351
 30
0.0
 10
767.0510146152
 20
426.3207248853
 30
0.0
 10
766.9174544707
 20
426.3207248853
 30
0.0
  0
LINE
  5
4AB
330
209
100
AcDbEntity
  8
3_ALL_AXES
  6
Continuous
 62
     9
100
AcDbLine
 10
709.296134
 20
309.220725
 30
0.0
 11
707.996134
 21
309.220725
 31
0.0
  0
LINE
  5
4AC
330
209
100
AcDbEntity
  8
3_ALL_AXES
  6
Continuous
 62
     9
100
AcDbLine
 10
707.996134
 20
309.220725
 30
0.0
 11
707.796134
 21
309.220725
 31
0.0
  0
LINE
  5
4AD
330
209
100
AcDbEntity
  8
3_ALL_AXES
  6
Continuous
 62
     9
100
AcDbLine
 10
766.296134
 20
428.420725
 30
0.0
 11
767.596134
 21
428.420725
 31
0.0
  0
LINE
  5
4AE
330
209
100
AcDbEntity
  8
3_ALL_AXES
  6
Continuous
 62
     9
100
AcDbLine
 10
767.596134
 20
428.420725
 30
0.0
 11
767.796134
 21
428.420725
 31
0.0
  0
LINE
  5
4AF
330
209
100
AcDbEntity
  8
3_ALL_AXES
  6
Continuous
 62
     9
100
AcDbLine
 10
766.296134
 20
309.220725
 30
0.0
 11
767.596134
 21
309.220725
 31
0.0
  0
LINE
  5
4B0
330
209
100
AcDbEntity
  8
3_ALL_AXES
  6
Continuous
 62
     9
100
AcDbLine
 10
767.596134
 20
309.220725
 30
0.0
 11
767.796134
 21
309.220725
 31
0.0
  0
SPLINE
  5
4B1
330
209
100
AcDbEntity
  8
7_ALL_FEATURES
  6
Continuous
 62
     7
100
AcDbSpline
 70
     0
 71
     3
 72
    19
 73
    15
 74
     0
 42
0.000000001
 43
0.0000001
 40
0.0
 40
0.0
 40
0.0
 40
0.0
 40
0.1006774367
 40
0.1491619529
 40
0.2002833937
 40
0.2585998998
 40
0.3292130444
 40
0.5003695149
 40
0.6712250962
 40
0.7415975177
 40
0.7998344075
 40
0.8508224637
 40
0.8992508074
 40
1.0
 40
1.0
 40
1.0
 40
1.0
 10
766.9174544707
 20
311.3207248853
 30
0.0
 10
767.0509194905
 20
311.3207248853
 30
0.0
 10
767.2545337266
 20
311.3516577374
 30
0.0
 10
767.483155727
 20
311.4938498205
 30
0.0
 10
767.6193578044
 20
311.6575785762
 30
0.0
 10
767.7121430075
 20
311.8804165061
 30
0.0
 10
767.7833768238
 20
312.2735627595
 30
0.0
 10
767.7880903615
 20
312.8217895726
 30
0.0
 10
767.7832382622
 20
313.369721381
 30
0.0
 10
767.7118254153
 20
313.7619912367
 30
0.0
 10
767.6191281672
 20
313.9842087963
 30
0.0
 10
767.4831041781
 20
314.1475915188
 30
0.0
 10
767.2546631848
 20
314.2897558351
 30
0.0
 10
767.0510146152
 20
314.3207248853
 30
0.0
 10
766.9174544707
 20
314.3207248853
 30
0.0
  0
LINE
  5
4B2
330
209
100
AcDbEntity
  8
3_ALL_AXES
  6
Continuous
 62
     9
100
AcDbLine
 10
766.296134
 20
421.220725
 30
0.0
 11
767.596134
 21
421.220725
 31
0.0
  0
LINE
  5
4B3
330
209
100
AcDbEntity
  8
3_ALL_AXES
  6
Continuous
 62
     9
100
AcDbLine
 10
767.596134
 20
421.220725
 30
0.0
 11
767.796134
 21
421.220725
 31
0.0
  0
LINE
  5
4B4
330
209
100
AcDbEntity
  8
7_ALL_FEATURES
  6
Continuous
 62
     9
100
AcDbLine
 10
764.796134
 20
421.320725
 30
0.0
 11
764.796134
 21
428.320725
 31
0.0
  0
SPLINE
  5
4B5
330
209
100
AcDbEntity
  8
7_ALL_FEATURES
  6
Continuous
 62
     7
100
AcDbSpline
 70
     0
 71
     3
 72
    19
 73
    15
 74
     0
 42
0.000000001
 43
0.0000001
 40
0.0
 40
0.0
 40
0.0
 40
0.0
 40
0.1006774367
 40
0.1491619529
 40
0.2002833937
 40
0.2585998998
 40
0.3292130444
 40
0.5003695149
 40
0.6712250962
 40
0.7415975177
 40
0.7998344075
 40
0.8508224637
 40
0.8992508074
 40
1.0
 40
1.0
 40
1.0
 40
1.0
 10
708.6748137835
 20
426.3207248853
 30
0.0
 10
708.5413487637
 20
426.3207248853
 30
0.0
 10
708.3377345276
 20
426.2897920333
 30
0.0
 10
708.1091125272
 20
426.1475999502
 30
0.0
 10
707.9729104498
 20
425.9838711944
 30
0.0
 10
707.8801252467
 20
425.7610332646
 30
0.0
 10
707.8088914303
 20
425.3678870112
 30
0.0
 10
707.8041778927
 20
424.8196601981
 30
0.0
 10
707.809029992
 20
424.2717283897
 30
0.0
 10
707.8804428388
 20
423.879458534
 30
0.0
 10
707.9731400869
 20
423.6572409744
 30
0.0
 10
708.1091640761
 20
423.4938582519
 30
0.0
 10
708.3376050694
 20
423.3516939356
 30
0.0
 10
708.541253639
 20
423.3207248853
 30
0.0
 10
708.6748137835
 20
423.3207248853
 30
0.0
  0
LINE
  5
4B6
330
209
100
AcDbEntity
  8
7_ALL_FEATURES
  6
Continuous
 62
     9
100
AcDbLine
 10
710.796134
 20
316.320725
 30
0.0
 11
710.796134
 21
309.320725
 31
0.0
  0
LINE
  5
4B7
330
209
100
AcDbEntity
  8
7_ALL_FEATURES
  6
Continuous
 62
     9
100
AcDbLine
 10
764.796134
 20
309.320725
 30
0.0
 11
764.796134
 21
316.320725
 31
0.0
  0
LINE
  5
4B8
330
209
100
AcDbEntity
  8
7_ALL_FEATURES
  6
Continuous
 62
     9
100
AcDbLine
 10
710.796134
 20
428.320725
 30
0.0
 11
710.796134
 21
421.320725
 31
0.0
  0
SPLINE
  5
4B9
330
209
100
AcDbEntity
  8
7_ALL_FEATURES
  6
Continuous
 62
     7
100
AcDbSpline
 70
     0
 71
     3
 72
    19
 73
    15
 74
     0
 42
0.000000001
 43
0.0000001
 40
0.0
 40
0.0
 40
0.0
 40
0.0
 40
0.1006774367
 40
0.1491619529
 40
0.2002833937
 40
0.2585998998
 40
0.3292130444
 40
0.5003695149
 40
0.6712250962
 40
0.7415975177
 40
0.7998344075
 40
0.8508224637
 40
0.8992508074
 40
1.0
 40
1.0
 40
1.0
 40
1.0
 10
708.6748137835
 20
314.3207248853
 30
0.0
 10
708.5413487637
 20
314.3207248853
 30
0.0
 10
708.3377345276
 20
314.2897920333
 30
0.0
 10
708.1091125272
 20
314.1475999502
 30
0.0
 10
707.9729104498
 20
313.9838711944
 30
0.0
 10
707.8801252467
 20
313.7610332646
 30
0.0
 10
707.8088914303
 20
313.3678870112
 30
0.0
 10
707.8041778927
 20
312.8196601981
 30
0.0
 10
707.809029992
 20
312.2717283897
 30
0.0
 10
707.8804428389
 20
311.879458534
 30
0.0
 10
707.9731400869
 20
311.6572409744
 30
0.0
 10
708.1091640761
 20
311.4938582519
 30
0.0
 10
708.3376050694
 20
311.3516939356
 30
0.0
 10
708.541253639
 20
311.3207248853
 30
0.0
 10
708.6748137835
 20
311.3207248853
 30
0.0
  0
LINE
  5
4BA
330
209
100
AcDbEntity
  8
3_ALL_AXES
  6
Continuous
 62
     9
100
AcDbLine
 10
709.296134
 20
316.420725
 30
0.0
 11
707.996134
 21
316.420725
 31
0.0
  0
LINE
  5
4BB
330
209
100
AcDbEntity
  8
3_ALL_AXES
  6
Continuous
 62
     9
100
AcDbLine
 10
707.996134
 20
316.420725
 30
0.0
 11
707.796134
 21
316.420725
 31
0.0
  0
LINE
  5
4BC
330
209
100
AcDbEntity
  8
3_ALL_AXES
  6
Continuous
 62
     9
100
AcDbLine
 10
709.296134
 20
421.220725
 30
0.0
 11
707.996134
 21
421.220725
 31
0.0
  0
LINE
  5
4BD
330
209
100
AcDbEntity
  8
3_ALL_AXES
  6
Continuous
 62
     9
100
AcDbLine
 10
707.996134
 20
421.220725
 30
0.0
 11
707.796134
 21
421.220725
 31
0.0
  0
LINE
  5
4BE
330
209
100
AcDbEntity
  8
3_ALL_AXES
  6
Continuous
 62
     9
100
AcDbLine
 10
766.296134
 20
316.420725
 30
0.0
 11
767.596134
 21
316.420725
 31
0.0
  0
LINE
  5
4BF
330
209
100
AcDbEntity
  8
3_ALL_AXES
  6
Continuous
 62
     9
100
AcDbLine
 10
767.596134
 20
316.420725
 30
0.0
 11
767.796134
 21
316.420725
 31
0.0
  0
LINE
  5
4C0
330
209
100
AcDbEntity
  8
3_ALL_AXES
  6
Continuous
 62
     9
100
AcDbLine
 10
709.296134
 20
428.420725
 30
0.0
 11
707.996134
 21
428.420725
 31
0.0
  0
LINE
  5
4C1
330
209
100
AcDbEntity
  8
3_ALL_AXES
  6
Continuous
 62
     9
100
AcDbLine
 10
707.996134
 20
428.420725
 30
0.0
 11
707.796134
 21
428.420725
 31
0.0
  0
LINE
  5
4C2
330
209
100
AcDbEntity
  8
3_ALL_AXES
  6
Continuous
 62
     7
100
AcDbLine
 10
708.296134
 20
442.570725
 30
0.0
 11
707.996134
 21
442.570725
 31
0.0
  0
ARC
  5
4C3
330
209
100
AcDbEntity
  8
3_ALL_AXES
  6
Continuous
 62
     7
100
AcDbCircle
 10
707.996134
 20
442.370725
 30
0.0
 40
0.2
100
AcDbArc
 50
90.0
 51
150.0
  0
ARC
  5
4C4
330
209
100
AcDbEntity
  8
3_ALL_AXES
  6
Continuous
 62
     7
100
AcDbCircle
 10
707.996134
 20
442.370725
 30
0.0
 40
0.2
100
AcDbArc
 50
150.0
 51
180.0
  0
LINE
  5
4C5
330
209
100
AcDbEntity
  8
3_ALL_AXES
  6
Continuous
 62
     7
100
AcDbLine
 10
707.796134
 20
442.370725
 30
0.0
 11
707.796134
 21
442.070725
 31
0.0
  0
LINE
  5
4C6
330
209
100
AcDbEntity
  8
3_ALL_AXES
  6
Continuous
 62
     7
100
AcDbLine
 10
707.796134
 20
431.070725
 30
0.0
 11
707.796134
 21
430.770725
 31
0.0
  0
ARC
  5
4C7
330
209
100
AcDbEntity
  8
3_ALL_AXES
  6
Continuous
 62
     7
100
AcDbCircle
 10
707.596134
 20
430.770725
 30
0.0
 40
0.2
100
AcDbArc
 50
300.0
 51
360.0
  0
ARC
  5
4C8
330
209
100
AcDbEntity
  8
3_ALL_AXES
  6
Continuous
 62
     7
100
AcDbCircle
 10
707.596134
 20
430.770725
 30
0.0
 40
0.2
100
AcDbArc
 50
270.0
 51
300.0
  0
LINE
  5
4C9
330
209
100
AcDbEntity
  8
3_ALL_AXES
  6
Continuous
 62
     7
100
AcDbLine
 10
707.596134
 20
430.570725
 30
0.0
 11
707.020147
 21
430.570725
 31
0.0
  0
ARC
  5
4CA
330
209
100
AcDbEntity
  8
3_ALL_AXES
  6
Continuous
 62
     7
100
AcDbCircle
 10
707.020148
 20
429.846711
 30
0.0
 40
0.7240143391
100
AcDbArc
 50
90.0001
 51
179.9999
  0
LINE
  5
4CB
330
209
100
AcDbEntity
  8
3_ALL_AXES
  6
Continuous
 62
     7
100
AcDbLine
 10
706.296134
 20
429.846712
 30
0.0
 11
706.296134
 21
427.570725
 31
0.0
  0
ARC
  5
4CC
330
209
100
AcDbEntity
  8
3_ALL_AXES
  6
Continuous
 62
     7
100
AcDbCircle
 10
706.796134
 20
427.570725
 30
0.0
 40
0.5
100
AcDbArc
 50
180.0
 51
270.0
  0
LINE
  5
4CD
330
209
100
AcDbEntity
  8
3_ALL_AXES
  6
Continuous
 62
     7
100
AcDbLine
 10
706.796134
 20
427.070725
 30
0.0
 11
707.596134
 21
427.070725
 31
0.0
  0
ARC
  5
4CE
330
209
100
AcDbEntity
  8
3_ALL_AXES
  6
Continuous
 62
     7
100
AcDbCircle
 10
707.596134
 20
427.270725
 30
0.0
 40
0.2
100
AcDbArc
 50
270.0
 51
360.0
  0
LINE
  5
4CF
330
209
100
AcDbEntity
  8
3_ALL_AXES
  6
Continuous
 62
     7
100
AcDbLine
 10
707.796134
 20
427.270725
 30
0.0
 11
707.796134
 21
428.370725
 31
0.0
  0
ARC
  5
4D0
330
209
100
AcDbEntity
  8
3_ALL_AXES
  6
Continuous
 62
     7
100
AcDbCircle
 10
707.996134
 20
428.370725
 30
0.0
 40
0.2
100
AcDbArc
 50
90.0
 51
180.0
  0
LINE
  5
4D1
330
209
100
AcDbEntity
  8
3_ALL_AXES
  6
Continuous
 62
     7
100
AcDbLine
 10
707.996134
 20
428.570725
 30
0.0
 11
710.796134
 21
428.570725
 31
0.0
  0
LINE
  5
4D2
330
209
100
AcDbEntity
  8
3_ALL_AXES
  6
Continuous
 62
     7
100
AcDbLine
 10
710.796134
 20
421.070725
 30
0.0
 11
707.996134
 21
421.070725
 31
0.0
  0
ARC
  5
4D3
330
209
100
AcDbEntity
  8
3_ALL_AXES
  6
Continuous
 62
     7
100
AcDbCircle
 10
707.996134
 20
421.270725
 30
0.0
 40
0.2
100
AcDbArc
 50
180.0
 51
270.0
  0
LINE
  5
4D4
330
209
100
AcDbEntity
  8
3_ALL_AXES
  6
Continuous
 62
     7
100
AcDbLine
 10
707.796134
 20
421.270725
 30
0.0
 11
707.796134
 21
422.370725
 31
0.0
  0
ARC
  5
4D5
330
209
100
AcDbEntity
  8
3_ALL_AXES
  6
Continuous
 62
     7
100
AcDbCircle
 10
707.596134
 20
422.370725
 30
0.0
 40
0.2
100
AcDbArc
 50
0.0
 51
90.0
  0
LINE
  5
4D6
330
209
100
AcDbEntity
  8
3_ALL_AXES
  6
Continuous
 62
     7
100
AcDbLine
 10
707.596134
 20
422.570725
 30
0.0
 11
706.796134
 21
422.570725
 31
0.0
  0
ARC
  5
4D7
330
209
100
AcDbEntity
  8
3_ALL_AXES
  6
Continuous
 62
     7
100
AcDbCircle
 10
706.796134
 20
422.070725
 30
0.0
 40
0.5
100
AcDbArc
 50
90.0
 51
180.0
  0
LINE
  5
4D8
330
209
100
AcDbEntity
  8
3_ALL_AXES
  6
Continuous
 62
     7
100
AcDbLine
 10
706.296134
 20
422.070725
 30
0.0
 11
706.296134
 21
419.570725
 31
0.0
  0
ARC
  5
4D9
330
209
100
AcDbEntity
  8
3_ALL_AXES
  6
Continuous
 62
     7
100
AcDbCircle
 10
706.796134
 20
419.570725
 30
0.0
 40
0.5
100
AcDbArc
 50
180.0
 51
270.0
  0
LINE
  5
4DA
330
209
100
AcDbEntity
  8
3_ALL_AXES
  6
Continuous
 62
     7
100
AcDbLine
 10
706.796134
 20
419.070725
 30
0.0
 11
707.596134
 21
419.070725
 31
0.0
  0
ARC
  5
4DB
330
209
100
AcDbEntity
  8
3_ALL_AXES
  6
Continuous
 62
     7
100
AcDbCircle
 10
707.596134
 20
418.870725
 30
0.0
 40
0.2
100
AcDbArc
 50
0.0
 51
90.0
  0
LINE
  5
4DC
330
209
100
AcDbEntity
  8
3_ALL_AXES
  6
Continuous
 62
     7
100
AcDbLine
 10
707.796134
 20
418.870725
 30
0.0
 11
707.796134
 21
418.570725
 31
0.0
  0
LINE
  5
4DD
330
209
100
AcDbEntity
  8
3_ALL_AXES
  6
Continuous
 62
     7
100
AcDbLine
 10
707.796134
 20
319.070725
 30
0.0
 11
707.796134
 21
318.770725
 31
0.0
  0
ARC
  5
4DE
330
209
100
AcDbEntity
  8
3_ALL_AXES
  6
Continuous
 62
     7
100
AcDbCircle
 10
707.596134
 20
318.770725
 30
0.0
 40
0.2
100
AcDbArc
 50
300.0
 51
360.0
  0
ARC
  5
4DF
330
209
100
AcDbEntity
  8
3_ALL_AXES
  6
Continuous
 62
     7
100
AcDbCircle
 10
707.596134
 20
318.770725
 30
0.0
 40
0.2
100
AcDbArc
 50
270.0
 51
300.0
  0
LINE
  5
4E0
330
209
100
AcDbEntity
  8
3_ALL_AXES
  6
Continuous
 62
     7
100
AcDbLine
 10
707.596134
 20
318.570725
 30
0.0
 11
706.796134
 21
318.570725
 31
0.0
  0
ARC
  5
4E1
330
209
100
AcDbEntity
  8
3_ALL_AXES
  6
Continuous
 62
     7
100
AcDbCircle
 10
706.796134
 20
318.070725
 30
0.0
 40
0.5
100
AcDbArc
 50
90.0
 51
180.0
  0
LINE
  5
4E2
330
209
100
AcDbEntity
  8
3_ALL_AXES
  6
Continuous
 62
     7
100
AcDbLine
 10
706.296134
 20
318.070725
 30
0.0
 11
706.296134
 21
315.570725
 31
0.0
  0
ARC
  5
4E3
330
209
100
AcDbEntity
  8
3_ALL_AXES
  6
Continuous
 62
     7
100
AcDbCircle
 10
706.796134
 20
315.570725
 30
0.0
 40
0.5
100
AcDbArc
 50
180.0
 51
270.0
  0
LINE
  5
4E4
330
209
100
AcDbEntity
  8
3_ALL_AXES
  6
Continuous
 62
     7
100
AcDbLine
 10
706.796134
 20
315.070725
 30
0.0
 11
707.596134
 21
315.070725
 31
0.0
  0
ARC
  5
4E5
330
209
100
AcDbEntity
  8
3_ALL_AXES
  6
Continuous
 62
     7
100
AcDbCircle
 10
707.596134
 20
315.270725
 30
0.0
 40
0.2
100
AcDbArc
 50
270.0
 51
360.0
  0
LINE
  5
4E6
330
209
100
AcDbEntity
  8
3_ALL_AXES
  6
Continuous
 62
     7
100
AcDbLine
 10
707.796134
 20
315.270725
 30
0.0
 11
707.796134
 21
316.370725
 31
0.0
  0
ARC
  5
4E7
330
209
100
AcDbEntity
  8
3_ALL_AXES
  6
Continuous
 62
     7
100
AcDbCircle
 10
707.996134
 20
316.370725
 30
0.0
 40
0.2
100
AcDbArc
 50
90.0
 51
180.0
  0
LINE
  5
4E8
330
209
100
AcDbEntity
  8
3_ALL_AXES
  6
Continuous
 62
     7
100
AcDbLine
 10
707.996134
 20
316.570725
 30
0.0
 11
710.796134
 21
316.570725
 31
0.0
  0
LINE
  5
4E9
330
209
100
AcDbEntity
  8
3_ALL_AXES
  6
Continuous
 62
     7
100
AcDbLine
 10
710.796134
 20
309.070725
 30
0.0
 11
707.996134
 21
309.070725
 31
0.0
  0
ARC
  5
4EA
330
209
100
AcDbEntity
  8
3_ALL_AXES
  6
Continuous
 62
     7
100
AcDbCircle
 10
707.996134
 20
309.270725
 30
0.0
 40
0.2
100
AcDbArc
 50
180.0
 51
270.0
  0
LINE
  5
4EB
330
209
100
AcDbEntity
  8
3_ALL_AXES
  6
Continuous
 62
     7
100
AcDbLine
 10
707.796134
 20
309.270725
 30
0.0
 11
707.796134
 21
310.370725
 31
0.0
  0
ARC
  5
4EC
330
209
100
AcDbEntity
  8
3_ALL_AXES
  6
Continuous
 62
     7
100
AcDbCircle
 10
707.596134
 20
310.370725
 30
0.0
 40
0.2
100
AcDbArc
 50
0.0
 51
90.0
  0
LINE
  5
4ED
330
209
100
AcDbEntity
  8
3_ALL_AXES
  6
Continuous
 62
     7
100
AcDbLine
 10
707.596134
 20
310.570725
 30
0.0
 11
706.796134
 21
310.570725
 31
0.0
  0
ARC
  5
4EE
330
209
100
AcDbEntity
  8
3_ALL_AXES
  6
Continuous
 62
     7
100
AcDbCircle
 10
706.796134
 20
310.070725
 30
0.0
 40
0.5
100
AcDbArc
 50
90.0
 51
180.0
  0
LINE
  5
4EF
330
209
100
AcDbEntity
  8
3_ALL_AXES
  6
Continuous
 62
     7
100
AcDbLine
 10
706.296134
 20
310.070725
 30
0.0
 11
706.296134
 21
307.570725
 31
0.0
  0
ARC
  5
4F0
330
209
100
AcDbEntity
  8
3_ALL_AXES
  6
Continuous
 62
     7
100
AcDbCircle
 10
706.796134
 20
307.570725
 30
0.0
 40
0.5
100
AcDbArc
 50
180.0
 51
270.0
  0
LINE
  5
4F1
330
209
100
AcDbEntity
  8
3_ALL_AXES
  6
Continuous
 62
     7
100
AcDbLine
 10
706.796134
 20
307.070725
 30
0.0
 11
707.596134
 21
307.070725
 31
0.0
  0
ARC
  5
4F2
330
209
100
AcDbEntity
  8
3_ALL_AXES
  6
Continuous
 62
     7
100
AcDbCircle
 10
707.596134
 20
306.870725
 30
0.0
 40
0.2
100
AcDbArc
 50
0.0
 51
90.0
  0
LINE
  5
4F3
330
209
100
AcDbEntity
  8
3_ALL_AXES
  6
Continuous
 62
     7
100
AcDbLine
 10
707.796134
 20
306.870725
 30
0.0
 11
707.796134
 21
306.570725
 31
0.0
  0
LINE
  5
4F4
330
209
100
AcDbEntity
  8
3_ALL_AXES
  6
Continuous
 62
     7
100
AcDbLine
 10
707.796134
 20
294.570725
 30
0.0
 11
707.796134
 21
293.570725
 31
0.0
  0
ARC
  5
4F5
330
209
100
AcDbEntity
  8
3_ALL_AXES
  6
Continuous
 62
     7
100
AcDbCircle
 10
708.796134
 20
293.570725
 30
0.0
 40
1.0
100
AcDbArc
 50
180.0
 51
270.0
  0
LINE
  5
4F6
330
209
100
AcDbEntity
  8
3_ALL_AXES
  6
Continuous
 62
     7
100
AcDbLine
 10
708.796134
 20
292.570725
 30
0.0
 11
709.796134
 21
292.570725
 31
0.0
  0
LINE
  5
4F7
330
209
100
AcDbEntity
  8
3_ALL_AXES
  6
Continuous
 62
     7
100
AcDbLine
 10
765.796134
 20
292.570725
 30
0.0
 11
766.796134
 21
292.570725
 31
0.0
  0
ARC
  5
4F8
330
209
100
AcDbEntity
  8
3_ALL_AXES
  6
Continuous
 62
     7
100
AcDbCircle
 10
766.796134
 20
293.570725
 30
0.0
 40
1.0
100
AcDbArc
 50
270.0
 51
360.0
  0
LINE
  5
4F9
330
209
100
AcDbEntity
  8
3_ALL_AXES
  6
Continuous
 62
     7
100
AcDbLine
 10
767.796134
 20
293.570725
 30
0.0
 11
767.796134
 21
294.570725
 31
0.0
  0
LINE
  5
4FA
330
209
100
AcDbEntity
  8
3_ALL_AXES
  6
Continuous
 62
     7
100
AcDbLine
 10
767.796134
 20
306.570725
 30
0.0
 11
767.796134
 21
306.870725
 31
0.0
  0
ARC
  5
4FB
330
209
100
AcDbEntity
  8
3_ALL_AXES
  6
Continuous
 62
     7
100
AcDbCircle
 10
767.996134
 20
306.870725
 30
0.0
 40
0.2
100
AcDbArc
 50
120.0
 51
180.0
  0
ARC
  5
4FC
330
209
100
AcDbEntity
  8
3_ALL_AXES
  6
Continuous
 62
     7
100
AcDbCircle
 10
767.996134
 20
306.870725
 30
0.0
 40
0.2
100
AcDbArc
 50
90.0
 51
120.0
  0
LINE
  5
4FD
330
209
100
AcDbEntity
  8
3_ALL_AXES
  6
Continuous
 62
     7
100
AcDbLine
 10
767.996134
 20
307.070725
 30
0.0
 11
768.796134
 21
307.070725
 31
0.0
  0
ARC
  5
4FE
330
209
100
AcDbEntity
  8
3_ALL_AXES
  6
Continuous
 62
     7
100
AcDbCircle
 10
768.796134
 20
307.570725
 30
0.0
 40
0.5
100
AcDbArc
 50
270.0
 51
360.0
  0
LINE
  5
4FF
330
209
100
AcDbEntity
  8
3_ALL_AXES
  6
Continuous
 62
     7
100
AcDbLine
 10
769.296134
 20
307.570725
 30
0.0
 11
769.296134
 21
310.070725
 31
0.0
  0
ARC
  5
500
330
209
100
AcDbEntity
  8
3_ALL_AXES
  6
Continuous
 62
     7
100
AcDbCircle
 10
768.796134
 20
310.070725
 30
0.0
 40
0.5
100
AcDbArc
 50
0.0
 51
90.0
  0
LINE
  5
501
330
209
100
AcDbEntity
  8
3_ALL_AXES
  6
Continuous
 62
     7
100
AcDbLine
 10
768.796134
 20
310.570725
 30
0.0
 11
767.996134
 21
310.570725
 31
0.0
  0
ARC
  5
502
330
209
100
AcDbEntity
  8
3_ALL_AXES
  6
Continuous
 62
     7
100
AcDbCircle
 10
767.996134
 20
310.370725
 30
0.0
 40
0.2
100
AcDbArc
 50
90.0
 51
180.0
  0
LINE
  5
503
330
209
100
AcDbEntity
  8
3_ALL_AXES
  6
Continuous
 62
     7
100
AcDbLine
 10
767.796134
 20
310.370725
 30
0.0
 11
767.796134
 21
309.270725
 31
0.0
  0
ARC
  5
504
330
209
100
AcDbEntity
  8
3_ALL_AXES
  6
Continuous
 62
     7
100
AcDbCircle
 10
767.596134
 20
309.270725
 30
0.0
 40
0.2
100
AcDbArc
 50
270.0
 51
360.0
  0
LINE
  5
505
330
209
100
AcDbEntity
  8
3_ALL_AXES
  6
Continuous
 62
     7
100
AcDbLine
 10
767.596134
 20
309.070725
 30
0.0
 11
764.796134
 21
309.070725
 31
0.0
  0
LINE
  5
506
330
209
100
AcDbEntity
  8
3_ALL_AXES
  6
Continuous
 62
     7
100
AcDbLine
 10
764.796134
 20
316.570725
 30
0.0
 11
767.596134
 21
316.570725
 31
0.0
  0
ARC
  5
507
330
209
100
AcDbEntity
  8
3_ALL_AXES
  6
Continuous
 62
     7
100
AcDbCircle
 10
767.596134
 20
316.370725
 30
0.0
 40
0.2
100
AcDbArc
 50
0.0
 51
90.0
  0
LINE
  5
508
330
209
100
AcDbEntity
  8
3_ALL_AXES
  6
Continuous
 62
     7
100
AcDbLine
 10
767.796134
 20
316.370725
 30
0.0
 11
767.796134
 21
315.270725
 31
0.0
  0
ARC
  5
509
330
209
100
AcDbEntity
  8
3_ALL_AXES
  6
Continuous
 62
     7
100
AcDbCircle
 10
767.996134
 20
315.270725
 30
0.0
 40
0.2
100
AcDbArc
 50
180.0
 51
270.0
  0
LINE
  5
50A
330
209
100
AcDbEntity
  8
3_ALL_AXES
  6
Continuous
 62
     7
100
AcDbLine
 10
767.996134
 20
315.070725
 30
0.0
 11
768.796134
 21
315.070725
 31
0.0
  0
ARC
  5
50B
330
209
100
AcDbEntity
  8
3_ALL_AXES
  6
Continuous
 62
     7
100
AcDbCircle
 10
768.796134
 20
315.570725
 30
0.0
 40
0.5
100
AcDbArc
 50
270.0
 51
360.0
  0
LINE
  5
50C
330
209
100
AcDbEntity
  8
3_ALL_AXES
  6
Continuous
 62
     7
100
AcDbLine
 10
769.296134
 20
315.570725
 30
0.0
 11
769.296134
 21
318.070725
 31
0.0
  0
ARC
  5
50D
330
209
100
AcDbEntity
  8
3_ALL_AXES
  6
Continuous
 62
     7
100
AcDbCircle
 10
768.796134
 20
318.070725
 30
0.0
 40
0.5
100
AcDbArc
 50
0.0
 51
90.0
  0
LINE
  5
50E
330
209
100
AcDbEntity
  8
3_ALL_AXES
  6
Continuous
 62
     7
100
AcDbLine
 10
768.796134
 20
318.570725
 30
0.0
 11
767.996134
 21
318.570725
 31
0.0
  0
ARC
  5
50F
330
209
100
AcDbEntity
  8
3_ALL_AXES
  6
Continuous
 62
     7
100
AcDbCircle
 10
767.996134
 20
318.770725
 30
0.0
 40
0.2
100
AcDbArc
 50
180.0
 51
270.0
  0
LINE
  5
510
330
209
100
AcDbEntity
  8
3_ALL_AXES
  6
Continuous
 62
     7
100
AcDbLine
 10
767.796134
 20
318.770725
 30
0.0
 11
767.796134
 21
319.070725
 31
0.0
  0
LINE
  5
511
330
209
100
AcDbEntity
  8
3_ALL_AXES
  6
Continuous
 62
     7
100
AcDbLine
 10
767.796134
 20
418.570725
 30
0.0
 11
767.796134
 21
418.870725
 31
0.0
  0
ARC
  5
512
330
209
100
AcDbEntity
  8
3_ALL_AXES
  6
Continuous
 62
     7
100
AcDbCircle
 10
767.996134
 20
418.870725
 30
0.0
 40
0.2
100
AcDbArc
 50
120.0
 51
180.0
  0
ARC
  5
513
330
209
100
AcDbEntity
  8
3_ALL_AXES
  6
Continuous
 62
     7
100
AcDbCircle
 10
767.996134
 20
418.870725
 30
0.0
 40
0.2
100
AcDbArc
 50
90.0
 51
120.0
  0
LINE
  5
514
330
209
100
AcDbEntity
  8
3_ALL_AXES
  6
Continuous
 62
     7
100
AcDbLine
 10
767.996134
 20
419.070725
 30
0.0
 11
768.796134
 21
419.070725
 31
0.0
  0
ARC
  5
515
330
209
100
AcDbEntity
  8
3_ALL_AXES
  6
Continuous
 62
     7
100
AcDbCircle
 10
768.796134
 20
419.570725
 30
0.0
 40
0.5
100
AcDbArc
 50
270.0
 51
360.0
  0
LINE
  5
516
330
209
100
AcDbEntity
  8
3_ALL_AXES
  6
Continuous
 62
     7
100
AcDbLine
 10
769.296134
 20
419.570725
 30
0.0
 11
769.296134
 21
422.070725
 31
0.0
  0
ARC
  5
517
330
209
100
AcDbEntity
  8
3_ALL_AXES
  6
Continuous
 62
     7
100
AcDbCircle
 10
768.796134
 20
422.070725
 30
0.0
 40
0.5
100
AcDbArc
 50
0.0
 51
90.0
  0
LINE
  5
518
330
209
100
AcDbEntity
  8
3_ALL_AXES
  6
Continuous
 62
     7
100
AcDbLine
 10
767.596134
 20
442.570725
 30
0.0
 11
767.296134
 21
442.570725
 31
0.0
  0
ARC
  5
519
330
209
100
AcDbEntity
  8
3_ALL_AXES
  6
Continuous
 62
     7
100
AcDbCircle
 10
767.596134
 20
442.370725
 30
0.0
 40
0.2
100
AcDbArc
 50
0.0
 51
60.0
  0
ARC
  5
51A
330
209
100
AcDbEntity
  8
3_ALL_AXES
  6
Continuous
 62
     7
100
AcDbCircle
 10
767.596134
 20
442.370725
 30
0.0
 40
0.2
100
AcDbArc
 50
60.0
 51
90.0
  0
LINE
  5
51B
330
209
100
AcDbEntity
  8
3_ALL_AXES
  6
Continuous
 62
     7
100
AcDbLine
 10
767.796134
 20
430.770725
 30
0.0
 11
767.796134
 21
431.070725
 31
0.0
  0
LINE
  5
51C
330
209
100
AcDbEntity
  8
3_ALL_AXES
  6
Continuous
 62
     7
100
AcDbLine
 10
767.796134
 20
442.070725
 30
0.0
 11
767.796134
 21
442.370725
 31
0.0
  0
ARC
  5
51D
330
209
100
AcDbEntity
  8
3_ALL_AXES
  6
Continuous
 62
     7
100
AcDbCircle
 10
767.996134
 20
430.770725
 30
0.0
 40
0.2
100
AcDbArc
 50
180.0
 51
270.0
  0
LINE
  5
51E
330
209
100
AcDbEntity
  8
3_ALL_AXES
  6
Continuous
 62
     7
100
AcDbLine
 10
768.572121
 20
430.570725
 30
0.0
 11
767.996134
 21
430.570725
 31
0.0
  0
ARC
  5
51F
330
209
100
AcDbEntity
  8
3_ALL_AXES
  6
Continuous
 62
     7
100
AcDbCircle
 10
768.57212
 20
429.846711
 30
0.0
 40
0.7240143391
100
AcDbArc
 50
0.0001
 51
89.9999
  0
LINE
  5
520
330
209
100
AcDbEntity
  8
3_ALL_AXES
  6
Continuous
 62
     7
100
AcDbLine
 10
769.296134
 20
427.570725
 30
0.0
 11
769.296134
 21
429.846712
 31
0.0
  0
ARC
  5
521
330
209
100
AcDbEntity
  8
3_ALL_AXES
  6
Continuous
 62
     7
100
AcDbCircle
 10
768.796134
 20
427.570725
 30
0.0
 40
0.5
100
AcDbArc
 50
270.0
 51
360.0
  0
LINE
  5
522
330
209
100
AcDbEntity
  8
3_ALL_AXES
  6
Continuous
 62
     7
100
AcDbLine
 10
767.996134
 20
427.070725
 30
0.0
 11
768.796134
 21
427.070725
 31
0.0
  0
ARC
  5
523
330
209
100
AcDbEntity
  8
3_ALL_AXES
  6
Continuous
 62
     7
100
AcDbCircle
 10
767.996134
 20
427.270725
 30
0.0
 40
0.2
100
AcDbArc
 50
180.0
 51
270.0
  0
LINE
  5
524
330
209
100
AcDbEntity
  8
3_ALL_AXES
  6
Continuous
 62
     7
100
AcDbLine
 10
767.796134
 20
428.370725
 30
0.0
 11
767.796134
 21
427.270725
 31
0.0
  0
ARC
  5
525
330
209
100
AcDbEntity
  8
3_ALL_AXES
  6
Continuous
 62
     7
100
AcDbCircle
 10
767.596134
 20
428.370725
 30
0.0
 40
0.2
100
AcDbArc
 50
0.0
 51
90.0
  0
LINE
  5
526
330
209
100
AcDbEntity
  8
3_ALL_AXES
  6
Continuous
 62
     7
100
AcDbLine
 10
764.796134
 20
428.570725
 30
0.0
 11
767.596134
 21
428.570725
 31
0.0
  0
LINE
  5
527
330
209
100
AcDbEntity
  8
3_ALL_AXES
  6
Continuous
 62
     7
100
AcDbLine
 10
767.596134
 20
421.070725
 30
0.0
 11
764.796134
 21
421.070725
 31
0.0
  0
ARC
  5
528
330
209
100
AcDbEntity
  8
3_ALL_AXES
  6
Continuous
 62
     7
100
AcDbCircle
 10
767.596134
 20
421.270725
 30
0.0
 40
0.2
100
AcDbArc
 50
270.0
 51
360.0
  0
LINE
  5
529
330
209
100
AcDbEntity
  8
3_ALL_AXES
  6
Continuous
 62
     7
100
AcDbLine
 10
767.796134
 20
422.370725
 30
0.0
 11
767.796134
 21
421.270725
 31
0.0
  0
ARC
  5
52A
330
209
100
AcDbEntity
  8
3_ALL_AXES
  6
Continuous
 62
     7
100
AcDbCircle
 10
767.996134
 20
422.370725
 30
0.0
 40
0.2
100
AcDbArc
 50
90.0
 51
180.0
  0
LINE
  5
52B
330
209
100
AcDbEntity
  8
3_ALL_AXES
  6
Continuous
 62
     7
100
AcDbLine
 10
768.796134
 20
422.570725
 30
0.0
 11
767.996134
 21
422.570725
 31
0.0
  0
SPLINE
  5
52C
330
209
100
AcDbEntity
  8
7_ALL_FEATURES
  6
Continuous
 62
     3
100
AcDbSpline
 70
     0
 71
     3
 72
    13
 73
     9
 74
     0
 42
0.000000001
 43
0.0000001
 40
0.0
 40
0.0
 40
0.0
 40
0.0
 40
0.0825551016
 40
0.1945708706
 40
0.5005595375
 40
0.8059234727
 40
0.9176656355
 40
1.0
 40
1.0
 40
1.0
 40
1.0
 10
709.4485934313
 20
314.1259769355
 30
0.0
 10
709.4141118535
 20
314.0618700799
 30
0.0
 10
709.359701698
 20
313.8968507121
 30
0.0
 10
709.3004660659
 20
313.45871967
 30
0.0
 10
709.3015899142
 20
312.8198260403
 30
0.0
 10
709.3005295973
 20
312.1811605807
 30
0.0
 10
709.359864388
 20
311.7440366589
 30
0.0
 10
709.4141839232
 20
311.579460883
 30
0.0
 10
709.4485705357
 20
311.5155239485
 30
0.0
  0
SPLINE
  5
52D
330
209
100
AcDbEntity
  8
7_ALL_FEATURES
  6
Continuous
 62
     3
100
AcDbSpline
 70
     0
 71
     3
 72
    13
 73
     9
 74
     0
 42
0.000000001
 43
0.0000001
 40
0.0
 40
0.0
 40
0.0
 40
0.0
 40
0.0825551017
 40
0.1945708706
 40
0.5005595376
 40
0.8059234727
 40
0.9176656355
 40
1.0
 40
1.0
 40
1.0
 40
1.0
 10
766.1436748229
 20
311.5154728352
 30
0.0
 10
766.1781564008
 20
311.5795796909
 30
0.0
 10
766.2325665562
 20
311.7445990586
 30
0.0
 10
766.2918021883
 20
312.1827301008
 30
0.0
 10
766.2906783399
 20
312.8216237306
 30
0.0
 10
766.2917386569
 20
313.4602891901
 30
0.0
 10
766.2324038661
 20
313.8974131119
 30
0.0
 10
766.178084331
 20
314.0619888879
 30
0.0
 10
766.1436977184
 20
314.1259258223
 30
0.0
  0
SPLINE
  5
52E
330
209
100
AcDbEntity
  8
7_ALL_FEATURES
  6
Continuous
 62
     3
100
AcDbSpline
 70
     0
 71
     3
 72
    13
 73
     9
 74
     0
 42
0.000000001
 43
0.0000001
 40
0.0
 40
0.0
 40
0.0
 40
0.0
 40
0.0825551016
 40
0.1945708706
 40
0.5005595375
 40
0.8059234727
 40
0.9176656355
 40
1.0
 40
1.0
 40
1.0
 40
1.0
 10
766.1436748229
 20
423.5154728352
 30
0.0
 10
766.1781564007
 20
423.5795796908
 30
0.0
 10
766.2325665562
 20
423.7445990586
 30
0.0
 10
766.2918021883
 20
424.1827301006
 30
0.0
 10
766.29067834
 20
424.8216237304
 30
0.0
 10
766.2917386569
 20
425.46028919
 30
0.0
 10
766.2324038661
 20
425.8974131118
 30
0.0
 10
766.178084331
 20
426.0619888877
 30
0.0
 10
766.1436977184
 20
426.1259258222
 30
0.0
  0
LINE
  5
52F
330
209
100
AcDbEntity
  8
3_ALL_AXES
  6
Continuous
 62
     3
100
AcDbLine
 10
709.296134
 20
316.420725
 30
0.0
 11
709.296134
 21
316.320725
 31
0.0
  0
LINE
  5
530
330
209
100
AcDbEntity
  8
3_ALL_AXES
  6
Continuous
 62
     3
100
AcDbLine
 10
709.296134
 20
316.570725
 30
0.0
 11
709.296134
 21
316.420725
 31
0.0
  0
SPLINE
  5
531
330
209
100
AcDbEntity
  8
7_ALL_FEATURES
  6
Continuous
 62
     3
100
AcDbSpline
 70
     0
 71
     3
 72
    13
 73
     9
 74
     0
 42
0.000000001
 43
0.0000001
 40
0.0
 40
0.0
 40
0.0
 40
0.0
 40
0.0825551016
 40
0.1945708706
 40
0.5005595375
 40
0.8059234727
 40
0.9176656355
 40
1.0
 40
1.0
 40
1.0
 40
1.0
 10
709.4485934313
 20
426.1259769355
 30
0.0
 10
709.4141118535
 20
426.0618700799
 30
0.0
 10
709.359701698
 20
425.8968507121
 30
0.0
 10
709.3004660659
 20
425.45871967
 30
0.0
 10
709.3015899142
 20
424.8198260403
 30
0.0
 10
709.3005295973
 20
424.1811605807
 30
0.0
 10
709.359864388
 20
423.7440366589
 30
0.0
 10
709.4141839232
 20
423.579460883
 30
0.0
 10
709.4485705357
 20
423.5155239485
 30
0.0
  0
LINE
  5
532
330
209
100
AcDbEntity
  8
3_ALL_AXES
  6
Continuous
 62
     3
100
AcDbLine
 10
766.296134
 20
309.220725
 30
0.0
 11
766.296134
 21
309.320725
 31
0.0
  0
LINE
  5
533
330
209
100
AcDbEntity
  8
3_ALL_AXES
  6
Continuous
 62
     3
100
AcDbLine
 10
766.296134
 20
309.070725
 30
0.0
 11
766.296134
 21
309.220725
 31
0.0
  0
LINE
  5
534
330
209
100
AcDbEntity
  8
3_ALL_AXES
  6
Continuous
 62
     3
100
AcDbLine
 10
766.296134
 20
421.220725
 30
0.0
 11
766.296134
 21
421.320725
 31
0.0
  0
LINE
  5
535
330
209
100
AcDbEntity
  8
3_ALL_AXES
  6
Continuous
 62
     3
100
AcDbLine
 10
766.296134
 20
421.070725
 30
0.0
 11
766.296134
 21
421.220725
 31
0.0
  0
LINE
  5
536
330
209
100
AcDbEntity
  8
3_ALL_AXES
  6
Continuous
 62
     3
100
AcDbLine
 10
709.296134
 20
428.420725
 30
0.0
 11
709.296134
 21
428.320725
 31
0.0
  0
LINE
  5
537
330
209
100
AcDbEntity
  8
3_ALL_AXES
  6
Continuous
 62
     3
100
AcDbLine
 10
709.296134
 20
428.570725
 30
0.0
 11
709.296134
 21
428.420725
 31
0.0
  0
LINE
  5
538
330
209
100
AcDbEntity
  8
3_ALL_AXES
  6
Continuous
 62
     3
100
AcDbLine
 10
709.296134
 20
309.070725
 30
0.0
 11
709.296134
 21
309.220725
 31
0.0
  0
LINE
  5
539
330
209
100
AcDbEntity
  8
3_ALL_AXES
  6
Continuous
 62
     3
100
AcDbLine
 10
766.296134
 20
316.570725
 30
0.0
 11
766.296134
 21
316.420725
 31
0.0
  0
LINE
  5
53A
330
209
100
AcDbEntity
  8
3_ALL_AXES
  6
Continuous
 62
     3
100
AcDbLine
 10
766.296134
 20
428.570725
 30
0.0
 11
766.296134
 21
428.420725
 31
0.0
  0
LINE
  5
53B
330
209
100
AcDbEntity
  8
3_ALL_AXES
  6
Continuous
 62
     3
100
AcDbLine
 10
709.296134
 20
421.070725
 30
0.0
 11
709.296134
 21
421.220725
 31
0.0
  0
DIMENSION
  5
53C
330
209
100
AcDbEntity
  8
0
  6
Continuous
 62
     7
100
AcDbDimension
280
     0
  2
*D1
 10
620.948118
 20
463.961176
 30
0.0
 11
339.430595
 21
463.961176
 31
0.0
 70
   160
 71
     2
 42
563.0
 73
     0
 74
     0
 75
     0
  3
DIMSTYLE_1
100
AcDbAlignedDimension
 13
57.948118
 23
451.017509
 33
0.0
 14
620.948118
 24
451.017509
 34
0.0
100
AcDbRotatedDimension
  0
DIMENSION
  5
53D
330
209
100
AcDbEntity
  8
0
  6
Continuous
 62
     7
100
AcDbDimension
280
     0
  2
*D2
 10
674.266153
 20
292.570725
 30
0.0
 11
674.266153
 21
367.785554
 31
0.0
 70
   160
 71
     2
 42
150.0
 73
     0
 74
     0
 75
     0
  3
DIMSTYLE_2
100
AcDbAlignedDimension
 13
695.531118
 23
442.570725
 33
0.0
 14
695.067269
 24
292.570725
 34
0.0
 50
270.0
100
AcDbRotatedDimension
  0
DIMENSION
  5
53E
330
209
100
AcDbEntity
  8
0
  6
Continuous
 62
     7
100
AcDbDimension
280
     0
  2
*D3
 10
769.296134
 20
463.961176
 30
0.0
 11
737.764145
 21
463.961176
 31
0.0
 70
   160
 71
     2
 42
63.0
 73
     0
 74
     0
 75
     0
  3
DIMSTYLE_3
100
AcDbAlignedDimension
 13
706.296134
 23
450.794431
 33
0.0
 14
769.296134
 24
451.017509
 34
0.0
100
AcDbRotatedDimension
  0
INSERT
  5
53F
330
209
100
AcDbEntity
  8
0
  6
Continuous
 62
     2
100
AcDbBlockReference
  2
LOGO2_BL0
 10
754.83965
 20
36.500801
 30
0.0
  0
ACAD_TABLE
  5
540
102
{ACAD_XDICTIONARY
360
597
102
}
330
209
100
AcDbEntity
  8
0
  6
Continuous
 62
     2
160
              3344
310
100D000017000000880000001D000000000000000000F03F000000000000000000000000000000003A7803DC1B2887400000000000000000000000000000F03F0000000000000000E501E4401A00494000000000000000000000000000000000000000000000F03F0000000000000000000000000000000000000000000000
310
000000000000000000000000000000F03F54000000200000000200000000000000000000000000000000000000000000000000000000000000008056400000000000000000000000000000000000000000000000000000000000000000000000000000F03F5400000020000000020000000000000000000000000000000000
310
00000000000000000000000000000000000000000000000044C0000000000000000000000000000000000000000000000000000000000000F03F5400000020000000020000000000000000003E4000000000000018C00000000000000000000000000080564000000000000018C00000000000000000000000000000000000
310
00000000000000000000000000F03F5400000020000000020000000000000000003E4000000000000028C00000000000000000000000000080564000000000000028C0000000000000000000000000000000000000000000000000000000000000F03F5400000020000000020000000000000000003E4000000000000036C0
310
0000000000000000000000000080564000000000000036C0000000000000000000000000000000000000000000000000000000000000F03F54000000200000000200000000000000000000000000000000003BC0000000000000000000000000008056400000000000003BC000000000000000000000000000000000000000
310
0000000000000000000000F03F540000002000000002000000000000000000000000000000000044C00000000000000000000000000080564000000000000044C0000000000000000000000000000000000000000000000000000000000000F03F5400000020000000020000000000000000003E4000000000000000000000
310
0000000000000000000000003E400000000000003BC0000000000000000000000000000000000000000000000000000000000000F03F540000002000000002000000000000000080514000000000000000000000000000000000000000000080514000000000000028C0000000000000000000000000000000000000000000
310
000000000000000000F03F540000002000000002000000000000000080564000000000000000000000000000000000000000000080564000000000000044C0000000000000000000000000000000000000000000000000000000000000F03F0C000000100000000B000000D000000026000000CDCCCCCCCC7C3F404E621058
310
393412C0000000000000000000000000000000000000000000000000000000000000F03F000000000000F03F0000000000000000000000000000000041003100310035005F0043005F003400300032000000000014000000010000000000000000000840000000000000F03F0000000000000000000000000000F03F000000
310
0000000000000000000000000000000000000000000000000000000000000000000000000061007200690061006C002E00740074006600000000000000C800000026000000C2F5285C8FC6514075931804560E13C0000000000000000000000000000000000000000000000000000000000000F03F000000000000F03F0000
310
00000000000000000000000000005200650076003A0030003000000000000C000000010000000000000000000C40000000000000F03F0000000000000000000000000000F03F0000000000000000000000000000000000000000000000000000000000000000000000000000000061007200690061006C002E007400740066
310
00000000000000CC00000026000000FA7E6ABC74433F405839B4C8769E26C0000000000000000000000000000000000000000000000000000000000000F03F000000000000F03F000000000000000000000000000000005300630061006C0065003A0031003A003100000012000000010000000000000000000C4000000000
310
0000F03F0000000000000000000000000000F03F0000000000000000000000000000000000000000000000000000000000000000000000000000000061007200690061006C002E00740074006600000000000000C0000000260000003333333333DF5140BA490C022B8725C000000000000000000000000000000000000000
310
0000000000000000000000F03F000000000000F03F00000000000000000000000000000000410031000000000004000000010000000000000000000C40000000000000F03F0000000000000000000000000000F03F000000000000000000000000000000000000000000000000000000000000000000000000000000006100
310
7200690061006C002E00740074006600000000000000F4000000260000000000000000503F407B14AE47E14A32C0000000000000000000000000000000000000000000000000000000000000F03F000000000000F03F000000000000000000000000000000004300410053005300410046002E005400410047004F00200054
310
00520049004D00200031002E00310020004C003D0035003600330020006D006D0000003A000000010000000000000000000440000000000000F03F0000000000000000000000000000F03F0000000000000000000000000000000000000000000000000000000000000000000000000000000061007200690061006C002E00
310
740074006600000000000000D40000002600000048E17A14AE373F40C3F5285C8FC239C0000000000000000000000000000000000000000000000000000000000000F03F000000000000F03F0000000000000000000000000000000044004100540045003A00300033002E00300033002E003200310000001A000000010000
310
000000000000000440000000000000F03F0000000000000000000000000000F03F0000000000000000000000000000000000000000000000000000000000000000000000000000000061007200690061006C002E007400740066000000000000002401000026000000CDCCCCCCCCCCF73F0000000000903DC0000000000000
310
000000000000000000000000000000000000000000000000F03F000000000000F03F0000000000000000000000000000000041006E007900200069006E00740065006700720061006C0020006F00720020007000610072007400690061006C00200072006500700072006F00640075006300740069006F006E007300200061
310
00720065002000700072006F0068006900620069007400650064000000000068000000010000000000000000000240000000000000F03F0000000000000000000000000000F03F0000000000000000000000000000000000000000000000000000000000000000000000000000000061007200690061006C002E0074007400
310
66000000000000002C01000026000000FED478E926B1F73F37894160E57C40C0000000000000000000000000000000000000000000000000000000000000F03F000000000000F03F0000000000000000000000000000000077006900740068006F007500740020007000720069006F007200200061007500740068006F0072
310
00690073006100740069006F006E0020006F00660020004C002000260020004C0020004C007500630065002000260020004C006900670068007400200073002E0072002E006C002E002C00000072000000010000000000000000000240000000000000F03F0000000000000000000000000000F03F00000000000000000000
310
00000000000000000000000000000000000000000000000000000000000061007200690061006C002E007400740066000000000000000401000026000000C1CAA145B673F43F4F1E166A4D3142C0000000000000000000000000000000000000000000000000000000000000F03F000000000000F03F000000000000000000
310
0000000000000069006E0020006100630063006F007200640061006E006300650020007700690074006800200074006800650020006C0061007700200069006E00200066006F007200630065002E000000000048000000010000000000000000000240000000000000F03F0000000000000000000000000000F03F00000000
310
00000000000000000000000000000000000000000000000000000000000000000000000061007200690061006C002E00740074006600000000000000E400000026000000CDCCCCCCCCCCF73F302AA913D0E043C0000000000000000000000000000000000000000000000000000000000000F03F000000000000F03F000000
310
0000000000000000000000000041006C006C0020007200690067006800740073002000720065007300650072007600650064002E000000000028000000010000000000000000000240000000000000F03F0000000000000000000000000000F03F000000000000000000000000000000000000000000000000000000000000
310
0000000000000000000061007200690061006C002E00740074006600000000000000080000001F000000
100
AcDbBlockReference
  2
*T5
 10
741.013603
 20
50.000801
 30
0.0
100
AcDbTable
342
569
343
210
 11
1.0
 21
0.0
 31
0.0
 90
       22
 91
        5
 92
        5
 93
        0
 94
        0
 95
        0
 96
        0
141
6.0
141
6.0
141
10.0
141
5.0
141
13.0
142
10.0
142
10.0
142
10.0
142
40.0
142
20.0
171
     1
172
     0
173
     0
174
     0
175
     3
176
     4
 91
       32
178
     0
145
0.0
140
3.5
 92
        0
301
CELL_VALUE
 93
        2
 90
        4
  1
 
 94
        0
300

302
 
304
ACVALUE_END
171
     1
172
     0
173
     1
174
     0
175
     1
176
     1
 91
        0
178
     0
145
0.0
 92
        0
301
CELL_VALUE
 93
        3
 90
        0
 91
        0
 94
        0
300

302

304
ACVALUE_END
171
     1
172
     0
173
     1
174
     0
175
     1
176
     1
 91
        0
178
     0
145
0.0
 92
        0
301
CELL_VALUE
 93
        3
 90
        0
 91
        0
 94
        0
300

302

304
ACVALUE_END
171
     1
172
     0
173
     0
174
     0
175
     1
176
     1
 91
       33
178
     0
145
0.0
170
     4
140
3.0
 92
        0
301
CELL_VALUE
 93
        2
 90
        4
  1
A115_C_402
 94
        0
300

302
A115_C_402
304
ACVALUE_END
171
     1
172
     0
173
     0
174
     0
175
     1
176
     1
 91
       33
178
     0
145
0.0
170
     4
140
3.5
 92
        0
301
CELL_VALUE
 93
        2
 90
        4
  1
Rev:00
 94
        0
300

302
Rev:00
304
ACVALUE_END
171
     1
172
     0
173
     1
174
     0
175
     1
176
     1
 91
        0
178
     0
145
0.0
 92
        0
301
CELL_VALUE
 93
        3
 90
        0
 91
        0
 94
        0
300

302

304
ACVALUE_END
171
     1
172
     0
173
     1
174
     0
175
     1
176
     1
 91
        0
178
     0
145
0.0
 92
        0
301
CELL_VALUE
 93
        3
 90
        0
 91
        0
 94
        0
300

302

304
ACVALUE_END
171
     1
172
     0
173
     1
174
     0
175
     1
176
     1
 91
        0
178
     0
145
0.0
 92
        0
301
CELL_VALUE
 93
        3
 90
        0
 91
        0
 94
        0
300

302

304
ACVALUE_END
171
     1
172
     0
173
     0
174
     0
175
     1
176
     1
 91
       33
178
     0
145
0.0
170
     1
140
3.5
 92
        0
301
CELL_VALUE
 93
        2
 90
        4
  1
Scale:1:1
 94
        0
300

302
Scale:1:1
304
ACVALUE_END
171
     1
172
     0
173
     0
174
     0
175
     1
176
     1
 91
       33
178
     0
145
0.0
170
     4
140
3.5
 92
        0
301
CELL_VALUE
 93
        2
 90
        4
  1
A1
 94
        0
300

302
A1
304
ACVALUE_END
171
     1
172
     0
173
     1
174
     0
175
     1
176
     1
 91
        0
178
     0
145
0.0
 92
        0
301
CELL_VALUE
 93
        3
 90
        0
 91
        0
 94
        0
300

302

304
ACVALUE_END
171
     1
172
     0
173
     1
174
     0
175
     1
176
     1
 91
        0
178
     0
145
0.0
 92
        0
301
CELL_VALUE
 93
        3
 90
        0
 91
        0
 94
        0
300

302

304
ACVALUE_END
171
     1
172
     0
173
     1
174
     0
175
     1
176
     1
 91
        0
178
     0
145
0.0
 92
        0
301
CELL_VALUE
 93
        3
 90
        0
 91
        0
 94
        0
300

302

304
ACVALUE_END
171
     1
172
     0
173
     0
174
     0
175
     2
176
     1
 91
       33
178
     0
145
0.0
170
     4
140
2.5
 92
        0
301
CELL_VALUE
 93
        2
 90
        4
  1
CASSAF.TAGO TRIM 1.1 L=563 mm
 94
        0
300

302
CASSAF.TAGO TRIM 1.1 L=563 mm
304
ACVALUE_END
171
     1
172
     0
173
     1
174
     0
175
     1
176
     1
 91
        0
178
     0
145
0.0
 92
        0
301
CELL_VALUE
 93
        3
 90
        0
 91
        0
 94
        0
300

302

304
ACVALUE_END
171
     1
172
     0
173
     1
174
     0
175
     1
176
     1
 91
        0
178
     0
145
0.0
 92
        0
301
CELL_VALUE
 93
        3
 90
        0
 91
        0
 94
        0
300

302

304
ACVALUE_END
171
     1
172
     0
173
     1
174
     0
175
     1
176
     1
 91
        0
178
     0
145
0.0
 92
        0
301
CELL_VALUE
 93
        3
 90
        0
 91
        0
 94
        0
300

302

304
ACVALUE_END
171
     1
172
     0
173
     1
174
     0
175
     1
176
     1
 91
        0
178
     0
145
0.0
 92
        0
301
CELL_VALUE
 93
        3
 90
        0
 91
        0
 94
        0
300

302

304
ACVALUE_END
171
     1
172
     0
173
     0
174
     0
175
     2
176
     1
 91
       33
178
     0
145
0.0
170
     4
140
2.5
 92
        0
301
CELL_VALUE
 93
        2
 90
        4
  1
DATE:03.03.21
 94
        0
300

302
DATE:03.03.21
304
ACVALUE_END
171
     1
172
     0
173
     1
174
     0
175
     1
176
     1
 91
        0
178
     0
145
0.0
 92
        0
301
CELL_VALUE
 93
        3
 90
        0
 91
        0
 94
        0
300

302

304
ACVALUE_END
171
     1
172
     0
173
     0
174
     0
175
     5
176
     1
 91
       33
178
     0
145
0.0
170
     4
140
2.25
 92
        0
301
CELL_VALUE
 93
        2
 90
        4
  1
Any integral or partial reproductions are prohibited \Pwithout prior authorisation of L & L Luce & Light s.r.l., \Pin accordance with the law in force. \PAll rights reserved.
 94
        0
300

302
Any integral or partial reproductions are prohibited \Pwithout prior authorisation of L & L Luce & Light s.r.l., \Pin accordance with the law in force. \PAll rights reserved.
304
ACVALUE_END
171
     1
172
     0
173
     1
174
     0
175
     1
176
     1
 91
        0
178
     0
145
0.0
 92
        0
301
CELL_VALUE
 93
        3
 90
        0
 91
        0
 94
        0
300

302

304
ACVALUE_END
171
     1
172
     0
173
     1
174
     0
175
     1
176
     1
 91
        0
178
     0
145
0.0
 92
        0
301
CELL_VALUE
 93
        3
 90
        0
 91
        0
 94
        0
300

302

304
ACVALUE_END
171
     1
172
     0
173
     1
174
     0
175
     1
176
     1
 91
        0
178
     0
145
0.0
 92
        0
301
CELL_VALUE
 93
        3
 90
        0
 91
        0
 94
        0
300

302

304
ACVALUE_END
171
     1
172
     0
173
     1
174
     0
175
     1
176
     1
 91
        0
178
     0
145
0.0
 92
        0
301
CELL_VALUE
 93
        3
 90
        0
 91
        0
 94
        0
300

302

304
ACVALUE_END
  0
ENDSEC
  0
SECTION
  2
OBJECTS
  0
DICTIONARY
  5
C
330
0
100
AcDbDictionary
281
     1
  3
ACAD_DETAILVIEWSTYLE
350
5D0
  3
ACAD_GROUP
350
D
  3
ACAD_IMAGE_DICT
350
590
  3
ACAD_LAYOUT
350
1A
  3
ACAD_MATERIAL
350
584
  3
ACAD_MLEADERSTYLE
350
5CF
  3
ACAD_MLINESTYLE
350
17
  3
ACAD_PLOTSETTINGS
350
19
  3
ACAD_PLOTSTYLENAME
350
E
  3
ACAD_SCALELIST
350
546
  3
ACAD_SECTIONVIEWSTYLE
350
5D1
  3
ACAD_TABLESTYLE
350
568
  3
ACAD_VISUALSTYLE
350
56B
  3
ACDB_RECOMPOSE_DATA
350
5CD
  3
AcDbVariableDictionary
350
599
  3
HOST_DOC_SETTINGS
350
58E
  3
MCS_STREAM_DICT
350
58A
  0
SUN
  5
58D
330
1F4
100
AcDbSun
 90
        1
290
     0
 63
     7
421
 16777215
 40
1.0
291
     1
 91
  2455826
 92
 54000000
292
     0
 70
     2
 71
   256
280
     1
  0
DICTIONARY
  5
597
330
540
100
AcDbDictionary
280
     1
281
     1
  3
ACAD_XREC_ROUNDTRIP
360
598
  0
DICTIONARY
  5
5D0
102
{ACAD_REACTORS
330
C
102
}
330
C
100
AcDbDictionary
281
     1
  0
DICTIONARY
  5
D
102
{ACAD_REACTORS
330
C
102
}
330
C
100
AcDbDictionary
281
     1
  0
DICTIONARY
  5
590
102
{ACAD_REACTORS
330
C
102
}
330
C
100
AcDbDictionary
281
     1
  0
DICTIONARY
  5
1A
102
{ACAD_REACTORS
330
C
102
}
330
C
100
AcDbDictionary
281
     1
  3
Layout1
350
543
  3
Model
350
542
  0
DICTIONARY
  5
584
102
{ACAD_REACTORS
330
C
102
}
330
C
100
AcDbDictionary
281
     1
  3
ByBlock
350
586
  3
ByLayer
350
585
  3
Global
350
587
  0
DICTIONARY
  5
5CF
102
{ACAD_REACTORS
330
C
102
}
330
C
100
AcDbDictionary
281
     1
  0
DICTIONARY
  5
17
102
{ACAD_REACTORS
330
C
102
}
330
C
100
AcDbDictionary
281
     1
  3
Standard
350
18
  0
DICTIONARY
  5
19
102
{ACAD_REACTORS
330
C
102
}
330
C
100
AcDbDictionary
281
     1
  0
ACDBDICTIONARYWDFLT
  5
E
102
{ACAD_REACTORS
330
C
102
}
330
C
100
AcDbDictionary
281
     1
  3
Normal
350
F
100
AcDbDictionaryWithDefault
340
F
  0
DICTIONARY
  5
546
102
{ACAD_REACTORS
330
C
102
}
330
C
100
AcDbDictionary
281
     1
  3
A0
350
547
  3
A1
350
548
  3
A2
350
549
  3
A3
350
54A
  3
A4
350
54B
  3
A5
350
54C
  3
A6
350
54D
  3
A7
350
54E
  3
A8
350
54F
  3
A9
350
550
  3
B0
350
551
  3
B1
350
552
  3
B2
350
553
  3
B3
350
554
  3
B4
350
555
  3
B5
350
556
  3
B6
350
557
  3
B7
350
558
  3
B8
350
559
  3
B9
350
55A
  3
C0
350
55B
  3
C1
350
55C
  3
C2
350
55D
  3
C3
350
55E
  3
C4
350
55F
  3
C5
350
560
  3
C6
350
561
  3
C7
350
562
  3
C8
350
563
  3
C9
350
564
  3
D0
350
565
  3
D1
350
566
  3
D2
350
567
  0
DICTIONARY
  5
5D1
102
{ACAD_REACTORS
330
C
102
}
330
C
100
AcDbDictionary
281
     1
  0
DICTIONARY
  5
568
102
{ACAD_REACTORS
330
C
102
}
330
C
100
AcDbDictionary
281
     1
  3
Standard
350
569
  0
DICTIONARY
  5
56B
102
{ACAD_REACTORS
330
C
102
}
330
C
100
AcDbDictionary
281
     1
  3
2dWireframe
350
570
  3
Basic
350
573
  3
Brighten
350
577
  3
ColorChange
350
57B
  3
Conceptual
350
575
  3
Dim
350
576
  3
EdgeColorOff
350
57E
  3
Facepattern
350
57A
  3
Flat
350
56C
  3
FlatWithEdges
350
56D
  3
Gouraud
350
56E
  3
GouraudWithEdges
350
56F
  3
Hidden
350
572
  3
JitterOff
350
57C
  3
Linepattern
350
579
  3
OverhangOff
350
57D
  3
Realistic
350
574
  3
Shaded
350
583
  3
Shaded with edges
350
582
  3
Shades of Gray
350
57F
  3
Sketchy
350
580
  3
Thicken
350
578
  3
Wireframe
350
571
  3
X-Ray
350
581
  0
XRECORD
  5
5CD
102
{ACAD_REACTORS
330
C
102
}
330
C
100
AcDbXrecord
280
     1
 90
        1
330
540
330
569
  0
DICTIONARY
  5
599
102
{ACAD_REACTORS
330
C
102
}
330
C
100
AcDbDictionary
281
     1
  3
CANNOSCALE
350
59A
  3
CTABLESTYLE
350
5CE
  0
DICTIONARY
  5
58E
102
{ACAD_REACTORS
330
C
102
}
330
C
100
AcDbDictionary
281
     1
  3
NCDocParameters
350
58F
  0
DICTIONARY
  5
58A
102
{ACAD_REACTORS
330
C
102
}
330
C
100
AcDbDictionary
281
     1
  3
MC_VERSION_DATA
350
593
  3
MCS_DOCUMENT_ID
350
58B
  3
MCS_PARAMS_DATA
350
591
  0
XRECORD
  5
598
102
{ACAD_REACTORS
330
597
102
}
330
597
100
AcDbXrecord
280
     1
102
ACAD_ROUNDTRIP_2008_TABLE_ENTITY
360
595
 70
     2
 90
        1
 10
0.0
 20
0.0
 30
0.0
 90
        0
 90
        4
361
596
  0
LAYOUT
  5
543
102
{ACAD_REACTORS
330
1A
102
}
330
1A
100
AcDbPlotSettings
  1

  2
none_device
  4
ISO_A1_(594.00_x_841.00_MM)
  6

 40
0.0
 41
0.0
 42
0.0
 43
0.0
 44
841.0
 45
594.0
 46
0.0
 47
0.0
 48
0.0
 49
0.0
140
0.0
141
0.0
142
1.0
143
1.0
 70
     0
 72
     1
 73
     0
 74
     0
  7

 75
     0
 76
     0
 77
     2
 78
   300
147
1.0
148
0.0
149
0.0
100
AcDbLayout
  1
Layout1
 70
     0
 71
     1
 10
0.0
 20
0.0
 11
841.0
 21
594.0
 12
0.0
 22
0.0
 32
0.0
 14
0.0
 24
0.0
 34
0.0
 15
0.0
 25
0.0
 35
0.0
146
0.0
 13
0.0
 23
0.0
 33
0.0
 16
1.0
 26
0.0
 36
0.0
 17
0.0
 27
1.0
 37
0.0
 76
     0
330
20A
  0
LAYOUT
  5
542
102
{ACAD_REACTORS
330
1A
102
}
330
1A
100
AcDbPlotSettings
  1

  2
none_device
  4
ISO_A1_(594.00_x_841.00_MM)
  6

 40
0.0
 41
0.0
 42
0.0
 43
0.0
 44
841.0
 45
594.0
 46
0.0
 47
0.0
 48
0.0
 49
0.0
140
0.0
141
0.0
142
1.0
143
1.0
 70
  1024
 72
     1
 73
     0
 74
     0
  7

 75
     0
 76
     0
 77
     2
 78
   300
147
1.0
148
0.0
149
0.0
100
AcDbLayout
  1
Model
 70
     0
 71
     0
 10
0.0
 20
0.0
 11
841.0
 21
594.0
 12
0.0
 22
0.0
 32
0.0
 14
0.0
 24
0.0
 34
0.0
 15
0.0
 25
0.0
 35
0.0
146
0.0
 13
0.0
 23
0.0
 33
0.0
 16
1.0
 26
0.0
 36
0.0
 17
0.0
 27
1.0
 37
0.0
 76
     0
330
209
331
1F4
  0
MATERIAL
  5
586
102
{ACAD_REACTORS
330
584
102
}
330
584
100
AcDbMaterial
  1
ByBlock
 72
     1
 94
      127
  0
MATERIAL
  5
585
102
{ACAD_REACTORS
330
584
102
}
330
584
100
AcDbMaterial
  1
ByLayer
 72
     1
 94
      127
  0
MATERIAL
  5
587
102
{ACAD_REACTORS
330
584
102
}
330
584
100
AcDbMaterial
  1
Global
 72
     1
 94
      127
  0
MLINESTYLE
  5
18
102
{ACAD_REACTORS
330
17
102
}
330
17
100
AcDbMlineStyle
  2
STANDARD
 70
     0
  3

 62
   256
 51
90.0
 52
90.0
 71
     2
 49
0.5
 62
   256
  6
BYLAYER
 49
-0.5
 62
   256
  6
BYLAYER
  0
ACDBPLACEHOLDER
  5
F
102
{ACAD_REACTORS
330
E
102
}
330
E
  0
SCALE
  5
547
102
{ACAD_REACTORS
330
546
102
}
330
546
100
AcDbScale
 70
     0
300
1:1
140
1.0
141
1.0
290
     1
  0
SCALE
  5
548
102
{ACAD_REACTORS
330
546
102
}
330
546
100
AcDbScale
 70
     0
300
1:2
140
1.0
141
2.0
290
     0
  0
SCALE
  5
549
102
{ACAD_REACTORS
330
546
102
}
330
546
100
AcDbScale
 70
     0
300
1:4
140
1.0
141
4.0
290
     0
  0
SCALE
  5
54A
102
{ACAD_REACTORS
330
546
102
}
330
546
100
AcDbScale
 70
     0
300
1:5
140
1.0
141
5.0
290
     0
  0
SCALE
  5
54B
102
{ACAD_REACTORS
330
546
102
}
330
546
100
AcDbScale
 70
     0
300
1:8
140
1.0
141
8.0
290
     0
  0
SCALE
  5
54C
102
{ACAD_REACTORS
330
546
102
}
330
546
100
AcDbScale
 70
     0
300
1:10
140
1.0
141
10.0
290
     0
  0
SCALE
  5
54D
102
{ACAD_REACTORS
330
546
102
}
330
546
100
AcDbScale
 70
     0
300
1:16
140
1.0
141
16.0
290
     0
  0
SCALE
  5
54E
102
{ACAD_REACTORS
330
546
102
}
330
546
100
AcDbScale
 70
     0
300
1:20
140
1.0
141
20.0
290
     0
  0
SCALE
  5
54F
102
{ACAD_REACTORS
330
546
102
}
330
546
100
AcDbScale
 70
     0
300
1:30
140
1.0
141
30.0
290
     0
  0
SCALE
  5
550
102
{ACAD_REACTORS
330
546
102
}
330
546
100
AcDbScale
 70
     0
300
1:40
140
1.0
141
40.0
290
     0
  0
SCALE
  5
551
102
{ACAD_REACTORS
330
546
102
}
330
546
100
AcDbScale
 70
     0
300
1:50
140
1.0
141
50.0
290
     0
  0
SCALE
  5
552
102
{ACAD_REACTORS
330
546
102
}
330
546
100
AcDbScale
 70
     0
300
1:100
140
1.0
141
100.0
290
     0
  0
SCALE
  5
553
102
{ACAD_REACTORS
330
546
102
}
330
546
100
AcDbScale
 70
     0
300
2:1
140
2.0
141
1.0
290
     0
  0
SCALE
  5
554
102
{ACAD_REACTORS
330
546
102
}
330
546
100
AcDbScale
 70
     0
300
4:1
140
4.0
141
1.0
290
     0
  0
SCALE
  5
555
102
{ACAD_REACTORS
330
546
102
}
330
546
100
AcDbScale
 70
     0
300
8:1
140
8.0
141
1.0
290
     0
  0
SCALE
  5
556
102
{ACAD_REACTORS
330
546
102
}
330
546
100
AcDbScale
 70
     0
300
10:1
140
10.0
141
1.0
290
     0
  0
SCALE
  5
557
102
{ACAD_REACTORS
330
546
102
}
330
546
100
AcDbScale
 70
     0
300
100:1
140
100.0
141
1.0
290
     0
  0
SCALE
  5
558
102
{ACAD_REACTORS
330
546
102
}
330
546
100
AcDbScale
 70
     0
300
1/128" = 1'-0"
140
0.007812
141
12.0
290
     0
  0
SCALE
  5
559
102
{ACAD_REACTORS
330
546
102
}
330
546
100
AcDbScale
 70
     0
300
1/64" = 1'-0"
140
0.015625
141
12.0
290
     0
  0
SCALE
  5
55A
102
{ACAD_REACTORS
330
546
102
}
330
546
100
AcDbScale
 70
     0
300
1/32" = 1'-0"
140
0.03125
141
12.0
290
     0
  0
SCALE
  5
55B
102
{ACAD_REACTORS
330
546
102
}
330
546
100
AcDbScale
 70
     0
300
1/16" = 1'-0"
140
0.0625
141
12.0
290
     0
  0
SCALE
  5
55C
102
{ACAD_REACTORS
330
546
102
}
330
546
100
AcDbScale
 70
     0
300
3/32" = 1'-0"
140
0.09375
141
12.0
290
     0
  0
SCALE
  5
55D
102
{ACAD_REACTORS
330
546
102
}
330
546
100
AcDbScale
 70
     0
300
1/8" = 1'-0"
140
0.125
141
12.0
290
     0
  0
SCALE
  5
55E
102
{ACAD_REACTORS
330
546
102
}
330
546
100
AcDbScale
 70
     0
300
3/16" = 1'-0"
140
0.1875
141
12.0
290
     0
  0
SCALE
  5
55F
102
{ACAD_REACTORS
330
546
102
}
330
546
100
AcDbScale
 70
     0
300
1/4" = 1'-0"
140
0.25
141
12.0
290
     0
  0
SCALE
  5
560
102
{ACAD_REACTORS
330
546
102
}
330
546
100
AcDbScale
 70
     0
300
3/8" = 1'-0"
140
0.375
141
12.0
290
     0
  0
SCALE
  5
561
102
{ACAD_REACTORS
330
546
102
}
330
546
100
AcDbScale
 70
     0
300
1/2" = 1'-0"
140
0.5
141
12.0
290
     0
  0
SCALE
  5
562
102
{ACAD_REACTORS
330
546
102
}
330
546
100
AcDbScale
 70
     0
300
3/4" = 1'-0"
140
0.75
141
12.0
290
     0
  0
SCALE
  5
563
102
{ACAD_REACTORS
330
546
102
}
330
546
100
AcDbScale
 70
     0
300
1" = 1'-0"
140
1.0
141
12.0
290
     0
  0
SCALE
  5
564
102
{ACAD_REACTORS
330
546
102
}
330
546
100
AcDbScale
 70
     0
300
1-1/2" = 1'-0"
140
1.5
141
12.0
290
     0
  0
SCALE
  5
565
102
{ACAD_REACTORS
330
546
102
}
330
546
100
AcDbScale
 70
     0
300
3" = 1'-0"
140
3.0
141
12.0
290
     0
  0
SCALE
  5
566
102
{ACAD_REACTORS
330
546
102
}
330
546
100
AcDbScale
 70
     0
300
6" = 1'-0"
140
6.0
141
12.0
290
     0
  0
SCALE
  5
567
102
{ACAD_REACTORS
330
546
102
}
330
546
100
AcDbScale
 70
     0
300
1'-0" = 1'-0"
140
12.0
141
12.0
290
     0
  0
TABLESTYLE
  5
569
102
{ACAD_REACTORS
330
568
102
}
102
{ACAD_XDICTIONARY
360
59B
102
}
330
568
100
AcDbTableStyle
  3
Standard
 70
     0
 71
     0
 40
0.06
 41
0.06
280
     0
281
     0
  7
STANDARD
140
4.5
170
     2
 62
     0
 63
   257
283
     0
 90
        4
 91
        0
  1

274
    -2
284
     1
 64
     0
275
    -2
285
     1
 65
     0
276
    -2
286
     1
 66
     0
277
    -2
287
     1
 67
     0
278
    -2
288
     1
 68
     0
279
    -2
289
     1
 69
     0
  7
STANDARD
140
6.0
170
     5
 62
     0
 63
   257
283
     0
 90
        4
 91
        0
  1

274
    -2
284
     1
 64
     0
275
    -2
285
     1
 65
     0
276
    -2
286
     1
 66
     0
277
    -2
287
     1
 67
     0
278
    -2
288
     1
 68
     0
279
    -2
289
     1
 69
     0
  7
STANDARD
140
4.5
170
     5
 62
     0
 63
   257
283
     0
 90
        4
 91
        0
  1

274
    -2
284
     1
 64
     0
275
    -2
285
     1
 65
     0
276
    -2
286
     1
 66
     0
277
    -2
287
     1
 67
     0
278
    -2
288
     1
 68
     0
279
    -2
289
     1
 69
     0
  0
VISUALSTYLE
  5
570
102
{ACAD_REACTORS
330
56B
102
}
102
{ACAD_XDICTIONARY
360
5A5
102
}
330
56B
100
AcDbVisualStyle
  2
2dWireframe
 70
     4
177
     2
291
     0
 71
     0
176
     1
 72
     2
176
     1
 73
     0
176
     1
 90
        0
176
     1
 40
0.6
176
     1
 41
30.0
176
     1
 62
     5
 63
     7
421
 16777215
176
     1
 74
     1
176
     1
 91
        4
176
     1
 64
     7
176
     1
 65
   257
176
     1
 75
     1
176
     1
175
     1
176
     1
 42
1.0
176
     1
 92
        0
176
     1
 66
   257
176
     1
 43
1.0
176
     1
 76
     1
176
     1
 77
     6
176
     1
 78
     2
176
     1
 67
     7
176
     1
 79
     5
176
     1
170
     0
176
     1
171
     0
176
     1
290
     0
176
     1
 93
        1
176
     1
 44
0.0
176
     1
173
     0
176
     1
  0
VISUALSTYLE
  5
573
102
{ACAD_REACTORS
330
56B
102
}
102
{ACAD_XDICTIONARY
360
5AB
102
}
330
56B
100
AcDbVisualStyle
  2
Basic
 70
     7
177
     2
291
     1
 71
     1
176
     1
 72
     0
176
     1
 73
     1
176
     1
 90
        0
176
     1
 40
0.6
176
     1
 41
30.0
176
     1
 62
     5
 63
     7
421
 16777215
176
     1
 74
     0
176
     1
 91
        4
176
     1
 64
     7
176
     1
 65
   257
176
     1
 75
     1
176
     1
175
     1
176
     1
 42
1.0
176
     1
 92
        8
176
     1
 66
     7
176
     1
 43
1.0
176
     1
 76
     1
176
     1
 77
     6
176
     1
 78
     2
176
     1
 67
     7
176
     1
 79
     5
176
     1
170
     0
176
     1
171
     0
176
     1
290
     0
176
     1
 93
        1
176
     1
 44
0.0
176
     1
173
     0
176
     1
  0
VISUALSTYLE
  5
577
102
{ACAD_REACTORS
330
56B
102
}
102
{ACAD_XDICTIONARY
360
5B3
102
}
330
56B
100
AcDbVisualStyle
  2
Brighten
 70
    12
177
     2
291
     1
 71
     2
176
     1
 72
     2
176
     1
 73
     0
176
     1
 90
        0
176
     1
 40
0.6
176
     1
 41
30.0
176
     1
 62
     5
 63
     7
421
 16777215
176
     1
 74
     1
176
     1
 91
        4
176
     1
 64
     7
176
     1
 65
   257
176
     1
 75
     1
176
     1
175
     1
176
     1
 42
1.0
176
     1
 92
        8
176
     1
 66
     7
176
     1
 43
1.0
176
     1
 76
     1
176
     1
 77
     6
176
     1
 78
     2
176
     1
 67
     7
176
     1
 79
     5
176
     1
170
     0
176
     1
171
     0
176
     1
290
     0
176
     1
 93
        1
176
     1
 44
50.0
176
     1
173
     0
176
     1
  0
VISUALSTYLE
  5
57B
102
{ACAD_REACTORS
330
56B
102
}
102
{ACAD_XDICTIONARY
360
5BB
102
}
330
56B
100
AcDbVisualStyle
  2
ColorChange
 70
    16
177
     2
291
     1
 71
     2
176
     1
 72
     2
176
     1
 73
     3
176
     1
 90
        0
176
     1
 40
0.6
176
     1
 41
30.0
176
     1
 62
     5
 63
     8
421
  8421504
176
     1
 74
     1
176
     1
 91
        4
176
     1
 64
     7
176
     1
 65
   257
176
     1
 75
     1
176
     1
175
     1
176
     1
 42
1.0
176
     1
 92
        8
176
     1
 66
     8
424
  8421504
176
     1
 43
1.0
176
     1
 76
     1
176
     1
 77
     6
176
     1
 78
     2
176
     1
 67
     7
176
     1
 79
     5
176
     1
170
     0
176
     1
171
     0
176
     1
290
     0
176
     1
 93
        1
176
     1
 44
0.0
176
     1
173
     0
176
     1
  0
VISUALSTYLE
  5
575
102
{ACAD_REACTORS
330
56B
102
}
102
{ACAD_XDICTIONARY
360
5AF
102
}
330
56B
100
AcDbVisualStyle
  2
Conceptual
 70
     9
177
     2
291
     0
 71
     3
176
     1
 72
     2
176
     1
 73
     0
176
     1
 90
        0
176
     1
 40
0.6
176
     1
 41
30.0
176
     1
 62
     5
 63
     7
421
 16777215
176
     1
 74
     2
176
     1
 91
        2
176
     1
 64
     7
176
     1
 65
   257
176
     1
 75
     1
176
     1
175
     1
176
     1
 42
179.0
176
     1
 92
        8
176
     1
 66
     7
176
     1
 43
1.0
176
     1
 76
     1
176
     1
 77
     6
176
     1
 78
     2
176
     1
 67
     7
176
     1
 79
     3
176
     1
170
     0
176
     1
171
     0
176
     1
290
     0
176
     1
 93
        1
176
     1
 44
0.0
176
     1
173
     0
176
     1
  0
VISUALSTYLE
  5
576
102
{ACAD_REACTORS
330
56B
102
}
102
{ACAD_XDICTIONARY
360
5B1
102
}
330
56B
100
AcDbVisualStyle
  2
Dim
 70
    11
177
     2
291
     1
 71
     2
176
     1
 72
     2
176
     1
 73
     0
176
     1
 90
        0
176
     1
 40
0.6
176
     1
 41
30.0
176
     1
 62
     5
 63
     7
421
 16777215
176
     1
 74
     1
176
     1
 91
        4
176
     1
 64
     7
176
     1
 65
   257
176
     1
 75
     1
176
     1
175
     1
176
     1
 42
1.0
176
     1
 92
        8
176
     1
 66
     7
176
     1
 43
1.0
176
     1
 76
     1
176
     1
 77
     6
176
     1
 78
     2
176
     1
 67
     7
176
     1
 79
     5
176
     1
170
     0
176
     1
171
     0
176
     1
290
     0
176
     1
 93
        1
176
     1
 44
-50.0
176
     1
173
     0
176
     1
  0
VISUALSTYLE
  5
57E
102
{ACAD_REACTORS
330
56B
102
}
102
{ACAD_XDICTIONARY
360
5C1
102
}
330
56B
100
AcDbVisualStyle
  2
EdgeColorOff
 70
    22
177
     2
291
     1
 71
     2
176
     0
 72
     2
176
     0
 73
     0
176
     0
 90
        0
176
     0
 40
0.6
176
     0
 41
30.0
176
     0
 62
     5
 63
     7
421
 16777215
176
     0
 74
     1
176
     0
 91
        4
176
     0
 64
     7
176
     0
 65
   257
176
     0
 75
     1
176
     0
175
     1
176
     0
 42
1.0
176
     0
 92
        8
176
     2
 66
     7
176
     0
 43
1.0
176
     0
 76
     1
176
     0
 77
     6
176
     0
 78
     2
176
     0
 67
     7
176
     0
 79
     5
176
     0
170
     0
176
     0
171
     0
176
     0
290
     0
176
     0
 93
        1
176
     0
 44
0.0
176
     0
173
     0
176
     0
  0
VISUALSTYLE
  5
57A
102
{ACAD_REACTORS
330
56B
102
}
102
{ACAD_XDICTIONARY
360
5B9
102
}
330
56B
100
AcDbVisualStyle
  2
Facepattern
 70
    15
177
     2
291
     1
 71
     2
176
     1
 72
     2
176
     1
 73
     0
176
     1
 90
        0
176
     1
 40
0.6
176
     1
 41
30.0
176
     1
 62
     5
 63
     7
421
 16777215
176
     1
 74
     1
176
     1
 91
        4
176
     1
 64
     7
176
     1
 65
   257
176
     1
 75
     1
176
     1
175
     1
176
     1
 42
1.0
176
     1
 92
        8
176
     1
 66
     7
176
     1
 43
1.0
176
     1
 76
     1
176
     1
 77
     6
176
     1
 78
     2
176
     1
 67
     7
176
     1
 79
     5
176
     1
170
     0
176
     1
171
     0
176
     1
290
     0
176
     1
 93
        1
176
     1
 44
0.0
176
     1
173
     0
176
     1
  0
VISUALSTYLE
  5
56C
102
{ACAD_REACTORS
330
56B
102
}
102
{ACAD_XDICTIONARY
360
59D
102
}
330
56B
100
AcDbVisualStyle
  2
Flat
 70
     0
177
     2
291
     1
 71
     2
176
     1
 72
     1
176
     1
 73
     1
176
     1
 90
        2
176
     1
 40
0.6
176
     1
 41
30.0
176
     1
 62
     5
 63
     7
421
 16777215
176
     1
 74
     0
176
     1
 91
        0
176
     1
 64
     7
176
     1
 65
   257
176
     1
 75
     1
176
     1
175
     1
176
     1
 42
1.0
176
     1
 92
        8
176
     1
 66
     7
176
     1
 43
1.0
176
     1
 76
     1
176
     1
 77
     6
176
     1
 78
     2
176
     1
 67
     7
176
     1
 79
     5
176
     1
170
     0
176
     1
171
     0
176
     1
290
     0
176
     1
 93
       13
176
     1
 44
0.0
176
     1
173
     0
176
     1
  0
VISUALSTYLE
  5
56D
102
{ACAD_REACTORS
330
56B
102
}
102
{ACAD_XDICTIONARY
360
59F
102
}
330
56B
100
AcDbVisualStyle
  2
FlatWithEdges
 70
     1
177
     2
291
     1
 71
     2
176
     1
 72
     1
176
     1
 73
     1
176
     1
 90
        2
176
     1
 40
0.6
176
     1
 41
30.0
176
     1
 62
     5
 63
     7
421
 16777215
176
     1
 74
     1
176
     1
 91
        0
176
     1
 64
     7
176
     1
 65
   257
176
     1
 75
     1
176
     1
175
     1
176
     1
 42
1.0
176
     1
 92
        0
176
     1
 66
   257
176
     1
 43
1.0
176
     1
 76
     1
176
     1
 77
     6
176
     1
 78
     2
176
     1
 67
     7
176
     1
 79
     5
176
     1
170
     0
176
     1
171
     0
176
     1
290
     0
176
     1
 93
       13
176
     1
 44
0.0
176
     1
173
     0
176
     1
  0
VISUALSTYLE
  5
56E
102
{ACAD_REACTORS
330
56B
102
}
102
{ACAD_XDICTIONARY
360
5A1
102
}
330
56B
100
AcDbVisualStyle
  2
Gouraud
 70
     2
177
     2
291
     1
 71
     2
176
     1
 72
     2
176
     1
 73
     1
176
     1
 90
        2
176
     1
 40
0.6
176
     1
 41
30.0
176
     1
 62
     5
 63
     7
421
 16777215
176
     1
 74
     0
176
     1
 91
        0
176
     1
 64
     7
176
     1
 65
   257
176
     1
 75
     1
176
     1
175
     1
176
     1
 42
1.0
176
     1
 92
        0
176
     1
 66
     7
176
     1
 43
1.0
176
     1
 76
     1
176
     1
 77
     6
176
     1
 78
     2
176
     1
 67
     7
176
     1
 79
     5
176
     1
170
     0
176
     1
171
     0
176
     1
290
     0
176
     1
 93
       13
176
     1
 44
0.0
176
     1
173
     0
176
     1
  0
VISUALSTYLE
  5
56F
102
{ACAD_REACTORS
330
56B
102
}
102
{ACAD_XDICTIONARY
360
5A3
102
}
330
56B
100
AcDbVisualStyle
  2
GouraudWithEdges
 70
     3
177
     2
291
     1
 71
     2
176
     1
 72
     2
176
     1
 73
     1
176
     1
 90
        2
176
     1
 40
0.6
176
     1
 41
30.0
176
     1
 62
     5
 63
     7
421
 16777215
176
     1
 74
     1
176
     1
 91
        0
176
     1
 64
     7
176
     1
 65
   257
176
     1
 75
     1
176
     1
175
     1
176
     1
 42
1.0
176
     1
 92
        0
176
     1
 66
   257
176
     1
 43
1.0
176
     1
 76
     1
176
     1
 77
     6
176
     1
 78
     2
176
     1
 67
     7
176
     1
 79
     5
176
     1
170
     0
176
     1
171
     0
176
     1
290
     0
176
     1
 93
       13
176
     1
 44
0.0
176
     1
173
     0
176
     1
  0
VISUALSTYLE
  5
572
102
{ACAD_REACTORS
330
56B
102
}
102
{ACAD_XDICTIONARY
360
5A9
102
}
330
56B
100
AcDbVisualStyle
  2
Hidden
 70
     6
177
     2
291
     0
 71
     1
176
     1
 72
     2
176
     1
 73
     2
176
     1
 90
        0
176
     1
 40
0.6
176
     1
 41
30.0
176
     1
 62
     5
 63
     7
421
 16777215
176
     1
 74
     2
176
     1
 91
        2
176
     1
 64
     7
176
     1
 65
   257
176
     1
 75
     2
176
     1
175
     1
176
     1
 42
40.0
176
     1
 92
        0
176
     1
 66
   257
176
     1
 43
1.0
176
     1
 76
     1
176
     1
 77
     6
176
     1
 78
     2
176
     1
 67
     7
176
     1
 79
     3
176
     1
170
     0
176
     1
171
     0
176
     1
290
     0
176
     1
 93
        1
176
     1
 44
0.0
176
     1
173
     0
176
     1
  0
VISUALSTYLE
  5
57C
102
{ACAD_REACTORS
330
56B
102
}
102
{ACAD_XDICTIONARY
360
5BD
102
}
330
56B
100
AcDbVisualStyle
  2
JitterOff
 70
    20
177
     2
291
     1
 71
     2
176
     0
 72
     2
176
     0
 73
     0
176
     0
 90
        0
176
     0
 40
0.6
176
     0
 41
30.0
176
     0
 62
     5
 63
     7
421
 16777215
176
     0
 74
     1
176
     0
 91
        4
176
     0
 64
     7
176
     0
 65
   257
176
     0
 75
     1
176
     0
175
     1
176
     0
 42
1.0
176
     0
 92
       10
176
     2
 66
     7
176
     0
 43
1.0
176
     0
 76
     1
176
     0
 77
     6
176
     0
 78
     2
176
     0
 67
     7
176
     0
 79
     5
176
     0
170
     0
176
     0
171
     0
176
     0
290
     0
176
     0
 93
        1
176
     0
 44
0.0
176
     0
173
     0
176
     0
  0
VISUALSTYLE
  5
579
102
{ACAD_REACTORS
330
56B
102
}
102
{ACAD_XDICTIONARY
360
5B7
102
}
330
56B
100
AcDbVisualStyle
  2
Linepattern
 70
    14
177
     2
291
     1
 71
     2
176
     1
 72
     2
176
     1
 73
     0
176
     1
 90
        0
176
     1
 40
0.6
176
     1
 41
30.0
176
     1
 62
     5
 63
     7
421
 16777215
176
     1
 74
     1
176
     1
 91
        4
176
     1
 64
     7
176
     1
 65
   257
176
     1
 75
     7
176
     1
175
     7
176
     1
 42
1.0
176
     1
 92
        8
176
     1
 66
     7
176
     1
 43
1.0
176
     1
 76
     1
176
     1
 77
     6
176
     1
 78
     2
176
     1
 67
     7
176
     1
 79
     5
176
     1
170
     0
176
     1
171
     0
176
     1
290
     0
176
     1
 93
        1
176
     1
 44
0.0
176
     1
173
     0
176
     1
  0
VISUALSTYLE
  5
57D
102
{ACAD_REACTORS
330
56B
102
}
102
{ACAD_XDICTIONARY
360
5BF
102
}
330
56B
100
AcDbVisualStyle
  2
OverhangOff
 70
    21
177
     2
291
     1
 71
     2
176
     0
 72
     2
176
     0
 73
     0
176
     0
 90
        0
176
     0
 40
0.6
176
     0
 41
30.0
176
     0
 62
     5
 63
     7
421
 16777215
176
     0
 74
     1
176
     0
 91
        4
176
     0
 64
     7
176
     0
 65
   257
176
     0
 75
     1
176
     0
175
     1
176
     0
 42
1.0
176
     0
 92
        9
176
     2
 66
     7
176
     0
 43
1.0
176
     0
 76
     1
176
     0
 77
     6
176
     0
 78
     2
176
     0
 67
     7
176
     0
 79
     5
176
     0
170
     0
176
     0
171
     0
176
     0
290
     0
176
     0
 93
        1
176
     0
 44
0.0
176
     0
173
     0
176
     0
  0
VISUALSTYLE
  5
574
102
{ACAD_REACTORS
330
56B
102
}
102
{ACAD_XDICTIONARY
360
5AD
102
}
330
56B
100
AcDbVisualStyle
  2
Realistic
 70
     8
177
     2
291
     0
 71
     2
176
     1
 72
     3
176
     1
 73
     0
176
     1
 90
        2
176
     1
 40
0.6
176
     1
 41
30.0
176
     1
 62
     5
 63
     7
421
 16777215
176
     1
 74
     0
176
     1
 91
        0
176
     1
 64
     7
176
     1
 65
   257
176
     1
 75
     1
176
     1
175
     1
176
     1
 42
1.0
176
     1
 92
        8
176
     1
 66
   257
176
     1
 43
1.0
176
     1
 76
     1
176
     1
 77
     6
176
     1
 78
     2
176
     1
 67
     7
176
     1
 79
     3
176
     1
170
     0
176
     1
171
     0
176
     1
290
     0
176
     1
 93
       13
176
     1
 44
0.0
176
     1
173
     0
176
     1
  0
VISUALSTYLE
  5
583
102
{ACAD_REACTORS
330
56B
102
}
102
{ACAD_XDICTIONARY
360
5CB
102
}
330
56B
100
AcDbVisualStyle
  2
Shaded
 70
    27
177
     2
291
     0
 71
     2
176
     1
 72
     2
176
     1
 73
     1
176
     1
 90
        2
176
     1
 40
0.6
176
     1
 41
30.0
176
     1
 62
     5
 63
     7
421
 16777215
176
     1
 74
     0
176
     1
 91
        4
176
     1
 64
     7
176
     1
 65
   257
176
     1
 75
     1
176
     1
175
     1
176
     1
 42
1.0
176
     1
 92
        8
176
     1
 66
   257
176
     1
 43
1.0
176
     1
 76
     1
176
     1
 77
     6
176
     1
 78
     2
176
     1
 67
     8
425
  7895160
176
     1
 79
     3
176
     1
170
     0
176
     1
171
     0
176
     1
290
     0
176
     1
 93
        5
176
     1
 44
0.0
176
     1
173
     0
176
     1
  0
VISUALSTYLE
  5
582
102
{ACAD_REACTORS
330
56B
102
}
102
{ACAD_XDICTIONARY
360
5C9
102
}
330
56B
100
AcDbVisualStyle
  2
Shaded with edges
 70
    26
177
     2
291
     0
 71
     2
176
     1
 72
     2
176
     1
 73
     1
176
     1
 90
        2
176
     1
 40
0.6
176
     1
 41
30.0
176
     1
 62
     5
 63
     7
421
 16777215
176
     1
 74
     1
176
     1
 91
       10
176
     1
 64
     7
176
     1
 65
   257
176
     1
 75
     2
176
     1
175
     1
176
     1
 42
1.0
176
     1
 92
        8
176
     1
 66
   257
176
     1
 43
1.0
176
     1
 76
     1
176
     1
 77
     6
176
     1
 78
     2
176
     1
 67
     7
176
     1
 79
     3
176
     1
170
     0
176
     1
171
     0
176
     1
290
     0
176
     1
 93
        5
176
     1
 44
0.0
176
     1
173
     0
176
     1
  0
VISUALSTYLE
  5
57F
102
{ACAD_REACTORS
330
56B
102
}
102
{ACAD_XDICTIONARY
360
5C3
102
}
330
56B
100
AcDbVisualStyle
  2
Shades of Gray
 70
    23
177
     2
291
     0
 71
     2
176
     1
 72
     2
176
     1
 73
     3
176
     1
 90
        0
176
     1
 40
0.6
176
     1
 41
30.0
176
     1
 62
     5
 63
     7
421
 16777215
176
     1
 74
     2
176
     1
 91
        2
176
     1
 64
     7
176
     1
 65
     7
176
     1
 75
     1
176
     1
175
     1
176
     1
 42
40.0
176
     1
 92
        8
176
     1
 66
     7
176
     1
 43
1.0
176
     1
 76
     1
176
     1
 77
     6
176
     1
 78
     2
176
     1
 67
     7
176
     1
 79
     3
176
     1
170
     0
176
     1
171
     0
176
     1
290
     0
176
     1
 93
        1
176
     1
 44
0.0
176
     1
173
     0
176
     1
  0
VISUALSTYLE
  5
580
102
{ACAD_REACTORS
330
56B
102
}
102
{ACAD_XDICTIONARY
360
5C5
102
}
330
56B
100
AcDbVisualStyle
  2
Sketchy
 70
    24
177
     2
291
     0
 71
     1
176
     1
 72
     2
176
     1
 73
     2
176
     1
 90
        0
176
     1
 40
0.6
176
     1
 41
30.0
176
     1
 62
     5
 63
     7
421
 16777215
176
     1
 74
     2
176
     1
 91
        2
176
     1
 64
     7
176
     1
 65
     7
176
     1
 75
     1
176
     1
175
     1
176
     1
 42
40.0
176
     1
 92
       11
176
     1
 66
     7
176
     1
 43
1.0
176
     1
 76
     1
176
     1
 77
     6
176
     1
 78
     2
176
     1
 67
     7
176
     1
 79
     6
176
     1
170
     0
176
     1
171
     0
176
     1
290
     0
176
     1
 93
        1
176
     1
 44
0.0
176
     1
173
     0
176
     1
  0
VISUALSTYLE
  5
578
102
{ACAD_REACTORS
330
56B
102
}
102
{ACAD_XDICTIONARY
360
5B5
102
}
330
56B
100
AcDbVisualStyle
  2
Thicken
 70
    13
177
     2
291
     1
 71
     2
176
     1
 72
     2
176
     1
 73
     0
176
     1
 90
        0
176
     1
 40
0.6
176
     1
 41
30.0
176
     1
 62
     5
 63
     7
421
 16777215
176
     1
 74
     1
176
     1
 91
        4
176
     1
 64
     7
176
     1
 65
   257
176
     1
 75
     1
176
     1
175
     1
176
     1
 42
1.0
176
     1
 92
       12
176
     1
 66
     7
176
     1
 43
1.0
176
     1
 76
     1
176
     1
 77
     6
176
     1
 78
     2
176
     1
 67
     7
176
     1
 79
     5
176
     1
170
     0
176
     1
171
     0
176
     1
290
     0
176
     1
 93
        1
176
     1
 44
0.0
176
     1
173
     0
176
     1
  0
VISUALSTYLE
  5
571
102
{ACAD_REACTORS
330
56B
102
}
102
{ACAD_XDICTIONARY
360
5A7
102
}
330
56B
100
AcDbVisualStyle
  2
Wireframe
 70
     5
177
     2
291
     0
 71
     0
176
     1
 72
     2
176
     1
 73
     0
176
     1
 90
        0
176
     1
 40
0.6
176
     1
 41
30.0
176
     1
 62
     5
 63
     7
421
 16777215
176
     1
 74
     1
176
     1
 91
        4
176
     1
 64
     7
176
     1
 65
   257
176
     1
 75
     1
176
     1
175
     1
176
     1
 42
1.0
176
     1
 92
        0
176
     1
 66
   257
176
     1
 43
1.0
176
     1
 76
     1
176
     1
 77
     6
176
     1
 78
     2
176
     1
 67
     7
176
     1
 79
     3
176
     1
170
     0
176
     1
171
     0
176
     1
290
     0
176
     1
 93
        1
176
     1
 44
0.0
176
     1
173
     0
176
     1
  0
VISUALSTYLE
  5
581
102
{ACAD_REACTORS
330
56B
102
}
102
{ACAD_XDICTIONARY
360
5C7
102
}
330
56B
100
AcDbVisualStyle
  2
X-Ray
 70
    25
177
     2
291
     0
 71
     2
176
     1
 72
     2
176
     1
 73
     1
176
     1
 90
        1
176
     1
 40
0.5
176
     1
 41
30.0
176
     1
 62
     5
 63
     7
421
 16777215
176
     1
 74
     1
176
     1
 91
        0
176
     1
 64
     7
176
     1
 65
   257
176
     1
 75
     1
176
     1
175
     1
176
     1
 42
1.0
176
     1
 92
        8
176
     1
 66
     7
176
     1
 43
1.0
176
     1
 76
     1
176
     1
 77
     6
176
     1
 78
     2
176
     1
 67
     7
176
     1
 79
     3
176
     1
170
     0
176
     1
171
     0
176
     1
290
     0
176
     1
 93
       13
176
     1
 44
0.0
176
     1
173
     0
176
     1
  0
DICTIONARYVAR
  5
59A
102
{ACAD_REACTORS
330
599
102
}
330
599
100
DictionaryVariables
280
     0
  1
1:1
  0
DICTIONARYVAR
  5
5CE
102
{ACAD_REACTORS
330
599
102
}
330
599
100
DictionaryVariables
280
     0
  1
Standard
  0
CSACDOCUMENTOPTIONS
  5
58F
102
{ACAD_REACTORS
330
58E
102
}
330
58E
  0
XRECORD
  5
593
102
{ACAD_REACTORS
330
58A
102
}
330
58A
100
AcDbXrecord
280
     1
300
MC_VERSION_DATA
 90
       95
310
0600000002000000570000001C000000E404000000000000000000007801936764E5D8CF7A8393818115C460606066E0646662626666706006F214793899F8DE3171E725E6E53B3BBA2878E6951050AF75FEFFFFFF520032DE0F3057000000
  0
XRECORD
  5
58B
102
{ACAD_REACTORS
330
58A
102
}
330
58A
100
AcDbXrecord
280
     1
300
MCS_DOCUMENT_ID
 90
       60
310
0600000002000000150000001C000000E404000000000000000000007801E30D79B057AF729ABB4BCFF99FEED54DECC9FF8100006F810BC515000000
  0
XRECORD
  5
591
102
{ACAD_REACTORS
330
58A
102
}
330
58A
100
AcDbXrecord
280
     1
300
MCS_PARAMS_DATA
 90
     3313
310
0600000002000000F64B00001C000000E404000000000000000000007801C55C5B905C45199EE99EBDCCE67E5DA218172C303B91307B4B8C459531245054850D55591F78B236BB49B9BAC9E6B22A082A9655BE5865596569A965F9209288CF16503EC8834088C10B092404211702988430422E9084CDAEFFD7A7FBF4DFA7CF
310
D9D99D9D39930798FF3F7DCEF7DFFAFBBBFBCC6CDBFC46297252EECB48F9CDF5ED5234493921A5206D76815820B252E4F3225F128D7D5F59BF69E3162948D9A2D485B3131313747328BF06593E960915079422437734AA3BDAA5CCD053F5ED4FD2557D257BAB94DF007A03479F859BB2B22193C9108EC1CDCADC0464C27506
310
28605703E48886E0B986E10F03BF91E33707F8E3140E7A9091C8268236920C1C662240B94888A1C8E07600AE99C32D5131CA8B3925D172EFE62D7D6D9DABBA8ADDD6F17CE16D13F0457AE8AC9268DE32DABF73B07FCFA013F9BF8491D7C17E2550D8E8FFCA8DFE4E98B3929B331718B291824FFF72EB941D9E8E2211D5A93C
310
784A44C557923911258BD0C8640531AEEC61A924855B11378280384364A422680C0A928DB9C10CD89D581114199665B722B26E4590C82B0222AB08FAA8A60626C028E0044F81BA246F5360E167F2D27C56A10E05C058C13C59DEC6207679103AFC5DEADF992F2B284F67B31C8EE359B64A9665A62453228F64269D98455E3B
310
A4B35817F7EC92C86FB8EFFE8DBD5BEEDBDCAB0CD3B5FC8E99065A7E55D536E39DE7826237F1C8BBBCB3CFADFC93302087C80397EE69C2FF69CA32234F0763E41851010DA578E8294D435524988818E84710A7B2643B4F7C034F6CE5C9368F203BE8094C6268541D70D35EE4B585DAE170F4942EB8D2D422560A9917F34B62
310
CE86919D9F1F6DDBB36DD770FFC0B6BC682E898607BEB5737424F8D83B323AF07529CFC0B69BB96D9FD3CFF9B410ED79B1A42416161FEA29AEEDEEEC5ADF532C76DEF3C5AEEEB5CAECF97A60330D2C1C3579EAD0DA7621F20269BD6768746FDBF0D0DE51F3B0EE356B3ABBD6F474F7740D76770EACED08FCFC92BEAF13F701
310
B5AF7FEBF0B6B691ED6D7D23C3DBF6F4EF840FDA9AD583C58E81E240FFEAADDD5BD70EAC0E669D2A25F27FB610851F9335859F059541B9E5971EC7A5A7E83F2CE53DB9A4040555A2661A4DDBF2C560B2E54E7D5483931EF871F7C88E5DFDA3435B878687461F6EDB313248FE3596847C70DBDEBC682809D13B22E56A5856E4
310
E9998738519B6E2A89DCE6EDDBDB542AF4E4380F8F61A4965F57116093E5A052A06AF588670205D9A715FB49B140D81A90855F902680EBB8B3A3187EEA96F2B224E392BAF898328CB1AD47DA34C1601A1B421AD816D190715CC3F276A5DE067C546F03AED6DB808FEB6DC0B57A1BB00853B49EB3E0937A47E07ABD0D188301
310
71CB797197D3603B1D06BFCB6DB024827C0C834324E60945463B3712E196397079076E990B47228783C8E09631B8F129C211385B3E540C97413DC70673C524DEAD70BD23917B079179B782793791AE77D944EFDCDC5529988B13E1069D6092C472A7F777A6F648E4C184C88239C8822913E16AE29D48176E29E0727C316496
310
EF2A967C95165E504B0C2B218EEE82DD5C63513CD614C5091F6D6FA7551865CC5C5030A1E0A3E84BEC86CFD04EC5DD01AA74CBDB05AB8C403295A124BB2908C4B032B4682A032283FB103E391B4E03172C7199C4E0F88E871E8855ADA1482D3238FA1846E0B807A77785BFF935FE1D74369F5647D0D171CA5F4F09337C2559
310
105132935A503D6DBC7A94B54D2B6DF1E0339960F436A97441791E5EC104D40283580888C4FDED577B1FD8B4B9AF6FE30605D8AAD7F1F34A62F6DD5BBEC62E92057A31FEA25A9DB3F5FBD3C1729D9CD723B0BF0DE8402BB05A67160DDE4416E59079C0D9EAA575B7321F67115FC018C76AB5B3A33D06B68CBD9BFBDC93C073
310
800CC384FD360C544F539B6F02B1820953BE9D01DE01C0D85A6C50369A5AC4065C7760793B965800321749E4B50891C0C2AB0CAE9808178444974C70F875952A9381563C01BE9D08EAFA481283ABD8C7EF7870DAABE068E68833DFAC8EA0A3E3F87C0B07AA507B2311F0889285BDC333294C4E2DB27C67BA70ABD2857B688A
310
70552AA7873DB8489E55063D5D2DCBE9BB9E49F1E554A5083C922EDCA3E9C27D2F5DB8EF7B705EE9D87E1E920E88313AAE6AECF4FBD668D3D30DB4E51ADA9BEDB0D7AFCEB4DDED85F7C4ECF6551B3BCE2AFF6E835E49458EC94883D6E73C45753FAE614C3C0A0362777435D915EC025C33F7578776011DE6F3D066954C59D6
310
D76F86AC9CD58A53F4122CF0552BAE070AEA3B5AF15752304F1F47569D50AB71F41A31FA5A51C904CD43C6B0F51D2ACEFC112ACC4CC1B0FF086CE7AD5A4D096A005126387AAD451EE384D9C035A925859E39C1AA865EE9A9B8DA21CEE289167F7CF1D4C4BC7A125EC5AED5D8BB0B5A9D9144D134CFA71BF85A8D44BE568348
310
F6AA55A2F3CAEA4F6982FD21118CC249D3CBF852A586F244BA70FBD285DB9F085793EDE56E143F0AD06C6B4CB2242BDD3DD1419166C2865E81F9CE1648F3CBD84597B22E28992A3DDCE24C77F3F311A01C8A722828EC3CF15F7D987933F818F8E59BC138E5CD4CE8AC24C94E68BA32F5C3CBAB808B6B06B9936E642F9F804C
310
903AF2F3709D37832318A078E4B37AEBDCFAA66859945B9EBB25776BAE2DD3995995E9CA1433DDFA4DAC7ECE6FE93696E96BB06712968ED2661884A9EE40230F60D0D73DE8C858453B9E8E4212D5A9B0784A762662599FEDD18C9299F4094C728A91F536658E91CDA6DFC8E89F363B15B4CB31404FD2581CF722BBF229B517
310
430944E56AB2E2A8E3461950730F2B7ECA7BC570E389706E8BA9D241C744225C40C29385944F707279EA277D998065D9EAD604B1263E66D38513E9C2490F4EE7CC6E8AA89C3D9DA588701CA708AB6414C194931EE3FC0D4515D71A4FBFE712F8CB4A26532A6E8DCF01CA61A3745BE3F3C09F6E6B442F0CD7BAD36A8D2F002E
310
AE359E3BE646F6B8926D6BBC0CD9926FBEF08C5220B9BAE91D0E14769FF44B52301E3C00E8FA74C117BD24F396E22C7F1005F2DA2902EB76053DE720B0D3EE397F2F036AE8B24A3DE750225C4DF8F8A544B81AF69C7F2482D6C4C77F067093EF36FE359541FF8E0E8A50399BA22F63681CEF0EBDEBB2C3834A9E09EF1E0654
310
1D79F708F0A7CBBB956F495E015C1CEFEE3EEC46B65FC996771F856C09285F58A7148C77872F6104D6DC9A8897D30896D457015D1FDE3DEA25B91CEFF2EBD6EB0A68F718A0D3A6DDD7CA805699768F27C2D584925E4F84AB9476A39B03E744D09CD6610FF59F44E89A78FA46BA70DDDE0ADC144A4DBCEBF1E0221D416DC23D
310
1D715254A766A8A7AC60C1FF26021ED7783E889CD89C52F24C1ACF0940D5B1F19C047E7A8DE714E0E21ACFD5436EE339AB64DB78E44B91C6730003ECCB897CE1D28548E3798246B0C6731AD0536D3CB3E90740046E0B5FD5161351555C247A084506FA9607AAEBD39C44F1E2B63A5BDCA18E17B755B2E2664A322602C34C3A
310
0393625B51C09BC60D77315EF1E1C8DB80730A9C37D5B8CD0EBF3EA3A6FB4EA2A7C18B1B2746D53A5F7BB70C687C78291FE10E3A386EE3054657F9CB297E9CF703B0E71DFC4DA3397B4068C3CF33A1A81F02C2C920DB8E7ABF712005813923946BAE06DE453454B45CC32AF6311810C751E3F85A979E7874424F9299B34AB2
310
210DC430A45A3473162283FB2F3218C7FE178FBB1CF59692CDAD957C0DECAC3739580882F7E26636C4FC0874E66F42CE013F2EB274A4C323CBB88082C5B980AE4CFD4DC879C0C5B1FFF5E7DDC89E57324556799F2F34BC006EC70CD18A8318C0D9FF0AB6807CDBB19F46B0A4BE07E8B4D9FF8207EA504E3D7E65FA3E4C7226
310
B329B0E8D703AAFEBAA304E869379E693123CD68457958A4FF2F11AE86ECFF4119D078F6E7138AD87FF2370F86D6E1E38789702D76FED2134932CCA824CB8C811832A3160D33426421BD980847AF6F0C11D33DEECB1CFE9B7175D1F926045DE5BD8DBFBDBE94081764D0049324E6DDB40A8607F372225C4D16463974B5B836
310
F393232E193EA2E499B49986C93A780A6DA631A981D7A6CD34012EAECDFCFC5937B23F52B26D33BF83CCDBCC56A5C0ECD07DE7A7A7226D661D8D6033A419D0536D33E07F56B8C4CA7C0D48229F9610695A461A0883CE7B494E8DD95B004DF38E8247AB09FE45AC1A52EDAC32A0861DD8DA85D8A76276989D08579353913989
310
700119397510D9BB4CAB9DF096393711B4263ECE4B176E7EBA700B3C389DB3F0B5335AA6A7234288EA142D784A9083AFB414616018456CF24C3293C4CD2F49D3E5A5F0410CEE7E0F2E6A6FEA11580893E29AEE529C2FC11C4DF48D4AA628982DB44A422820F8563073C8F989CF2240392BED74F7768B819FDEDE6E09E0E29A
310
EE72FA030B3CB273954C91D5916E87CC9BEEFB4FAB1E6B73B10CFB6CBEB73B4423589D2D05F4CC9AAE2E4C768646F0614DBB4BD40606DDEA2539B5A67B13A0D36EBACBCA809A9055A7E9E24B8E0D79912B896C91FE0C1655C17843E129FA335B3277F4E8510807513CB9CC44868E210AF7FE19028691B0917E39482B125CF8
310
D4FF01F0B312DAF64B0000
  0
TABLECONTENT
  5
595
330
598
100
AcDbLinkedData
  1

300

100
AcDbLinkedTableData
 90
        5
300
COLUMN
  1
LINKEDTABLEDATACOLUMN_BEGIN
300

 91
        0
301
CUSTOMDATA
  1
DATAMAP_BEGIN
 90
        0
309
DATAMAP_END
309
LINKEDTABLEDATACOLUMN_END
  1
FORMATTEDTABLEDATACOLUMN_BEGIN
300
COLUMNTABLEFORMAT
  1
TABLEFORMAT_BEGIN
 90
        3
170
     0
309
TABLEFORMAT_END
309
FORMATTEDTABLEDATACOLUMN_END
  1
TABLECOLUMN_BEGIN
 90
        0
 40
10.0
309
TABLECOLUMN_END
300
COLUMN
  1
LINKEDTABLEDATACOLUMN_BEGIN
300

 91
        0
301
CUSTOMDATA
  1
DATAMAP_BEGIN
 90
        0
309
DATAMAP_END
309
LINKEDTABLEDATACOLUMN_END
  1
FORMATTEDTABLEDATACOLUMN_BEGIN
300
COLUMNTABLEFORMAT
  1
TABLEFORMAT_BEGIN
 90
        3
170
     0
309
TABLEFORMAT_END
309
FORMATTEDTABLEDATACOLUMN_END
  1
TABLECOLUMN_BEGIN
 90
        0
 40
10.0
309
TABLECOLUMN_END
300
COLUMN
  1
LINKEDTABLEDATACOLUMN_BEGIN
300

 91
        0
301
CUSTOMDATA
  1
DATAMAP_BEGIN
 90
        0
309
DATAMAP_END
309
LINKEDTABLEDATACOLUMN_END
  1
FORMATTEDTABLEDATACOLUMN_BEGIN
300
COLUMNTABLEFORMAT
  1
TABLEFORMAT_BEGIN
 90
        3
170
     0
309
TABLEFORMAT_END
309
FORMATTEDTABLEDATACOLUMN_END
  1
TABLECOLUMN_BEGIN
 90
        0
 40
10.0
309
TABLECOLUMN_END
300
COLUMN
  1
LINKEDTABLEDATACOLUMN_BEGIN
300

 91
        0
301
CUSTOMDATA
  1
DATAMAP_BEGIN
 90
        0
309
DATAMAP_END
309
LINKEDTABLEDATACOLUMN_END
  1
FORMATTEDTABLEDATACOLUMN_BEGIN
300
COLUMNTABLEFORMAT
  1
TABLEFORMAT_BEGIN
 90
        3
170
     0
309
TABLEFORMAT_END
309
FORMATTEDTABLEDATACOLUMN_END
  1
TABLECOLUMN_BEGIN
 90
        0
 40
40.0
309
TABLECOLUMN_END
300
COLUMN
  1
LINKEDTABLEDATACOLUMN_BEGIN
300

 91
        0
301
CUSTOMDATA
  1
DATAMAP_BEGIN
 90
        0
309
DATAMAP_END
309
LINKEDTABLEDATACOLUMN_END
  1
FORMATTEDTABLEDATACOLUMN_BEGIN
300
COLUMNTABLEFORMAT
  1
TABLEFORMAT_BEGIN
 90
        3
170
     0
309
TABLEFORMAT_END
309
FORMATTEDTABLEDATACOLUMN_END
  1
TABLECOLUMN_BEGIN
 90
        0
 40
20.0
309
TABLECOLUMN_END
 91
        5
301
ROW
  1
LINKEDTABLEDATAROW_BEGIN
 90
        5
300
CELL
  1
LINKEDTABLEDATACELL_BEGIN
 90
        0
300

 91
        0
301
CUSTOMDATA
  1
DATAMAP_BEGIN
 90
        1
300
ACAD_ROUNDTRIP_2008_CELL_CHECKSUM
301
DATAMAP_VALUE
 93
        2
 90
        2
140
32.0
 94
        0
300

302

304
ACVALUE_END
309
DATAMAP_END
 92
        0
 95
        1
302
CONTENT
  1
CELLCONTENT_BEGIN
 90
        1
300
VALUE
 93
        2
 90
        4
  1
 
 94
        0
300

302
 
304
ACVALUE_END
 91
        0
309
CELLCONTENT_END
  1
FORMATTEDCELLCONTENT_BEGIN
170
     1
300
CONTENTFORMAT
  1
CONTENTFORMAT_BEGIN
 90
      132
 91
        0
 92
      512
 93
        0
300

 40
0.0
140
1.0
 94
        1
 62
     0
340
0
144
3.5
309
CONTENTFORMAT_END
309
FORMATTEDCELLCONTENT_END
309
LINKEDTABLEDATACELL_END
  1
FORMATTEDTABLEDATACELL_BEGIN
300
CELLTABLEFORMAT
  1
TABLEFORMAT_BEGIN
 90
        1
170
     1
 91
        0
 92
        0
 62
   257
 93
        1
300
CONTENTFORMAT
  1
CONTENTFORMAT_BEGIN
 90
        0
 91
        0
 92
      512
 93
        0
300

 40
0.0
140
1.0
 94
        1
 62
     0
340
0
144
0.18
309
CONTENTFORMAT_END
171
     0
 94
        0
309
TABLEFORMAT_END
309
FORMATTEDTABLEDATACELL_END
  1
TABLECELL_BEGIN
 90
        0
 91
        0
309
TABLECELL_END
300
CELL
  1
LINKEDTABLEDATACELL_BEGIN
 90
        0
300

 91
        0
301
CUSTOMDATA
  1
DATAMAP_BEGIN
 90
        0
309
DATAMAP_END
 92
        0
 95
        0
309
LINKEDTABLEDATACELL_END
  1
FORMATTEDTABLEDATACELL_BEGIN
300
CELLTABLEFORMAT
  1
TABLEFORMAT_BEGIN
 90
        1
170
     1
 91
        0
 92
        0
 62
   257
 93
        1
300
CONTENTFORMAT
  1
CONTENTFORMAT_BEGIN
 90
        0
 91
        0
 92
      512
 93
        0
300

 40
0.0
140
1.0
 94
        1
 62
     0
340
0
144
0.18
309
CONTENTFORMAT_END
171
     0
 94
        0
309
TABLEFORMAT_END
309
FORMATTEDTABLEDATACELL_END
  1
TABLECELL_BEGIN
 90
        0
 91
        0
309
TABLECELL_END
300
CELL
  1
LINKEDTABLEDATACELL_BEGIN
 90
        0
300

 91
        0
301
CUSTOMDATA
  1
DATAMAP_BEGIN
 90
        0
309
DATAMAP_END
 92
        0
 95
        0
309
LINKEDTABLEDATACELL_END
  1
FORMATTEDTABLEDATACELL_BEGIN
300
CELLTABLEFORMAT
  1
TABLEFORMAT_BEGIN
 90
        1
170
     1
 91
        0
 92
        0
 62
   257
 93
        1
300
CONTENTFORMAT
  1
CONTENTFORMAT_BEGIN
 90
        0
 91
        0
 92
      512
 93
        0
300

 40
0.0
140
1.0
 94
        1
 62
     0
340
0
144
0.18
309
CONTENTFORMAT_END
171
     0
 94
        0
309
TABLEFORMAT_END
309
FORMATTEDTABLEDATACELL_END
  1
TABLECELL_BEGIN
 90
        0
 91
        0
309
TABLECELL_END
300
CELL
  1
LINKEDTABLEDATACELL_BEGIN
 90
        0
300

 91
        0
301
CUSTOMDATA
  1
DATAMAP_BEGIN
 90
        1
300
ACAD_ROUNDTRIP_2008_CELL_CHECKSUM
301
DATAMAP_VALUE
 93
        2
 90
        2
140
3412.0
 94
        0
300

302

304
ACVALUE_END
309
DATAMAP_END
 92
        0
 95
        1
302
CONTENT
  1
CELLCONTENT_BEGIN
 90
        1
300
VALUE
 93
        2
 90
        4
  1
A115_C_402
 94
        0
300

302
A115_C_402
304
ACVALUE_END
 91
        0
309
CELLCONTENT_END
  1
FORMATTEDCELLCONTENT_BEGIN
170
     1
300
CONTENTFORMAT
  1
CONTENTFORMAT_BEGIN
 90
      132
 91
        0
 92
      512
 93
        0
300

 40
0.0
140
1.0
 94
        1
 62
     0
340
0
144
3.0
309
CONTENTFORMAT_END
309
FORMATTEDCELLCONTENT_END
309
LINKEDTABLEDATACELL_END
  1
FORMATTEDTABLEDATACELL_BEGIN
300
CELLTABLEFORMAT
  1
TABLEFORMAT_BEGIN
 90
        1
170
     1
 91
       16
 92
        0
 62
   257
 93
        1
300
CONTENTFORMAT
  1
CONTENTFORMAT_BEGIN
 90
       16
 91
        0
 92
      512
 93
        0
300

 40
0.0
140
1.0
 94
        4
 62
     0
340
0
144
0.18
309
CONTENTFORMAT_END
171
     0
 94
        4
 95
        1
302
GRIDFORMAT
  1
GRIDFORMAT_BEGIN
 90
       26
 91
        1
 62
     0
 92
       -2
340
0
 93
        0
 40
0.045
309
GRIDFORMAT_END
 95
        4
302
GRIDFORMAT
  1
GRIDFORMAT_BEGIN
 90
       26
 91
        1
 62
     0
 92
       -2
340
0
 93
        0
 40
0.045
309
GRIDFORMAT_END
 95
        8
302
GRIDFORMAT
  1
GRIDFORMAT_BEGIN
 90
       26
 91
        1
 62
     0
 92
       -2
340
0
 93
        0
 40
0.045
309
GRIDFORMAT_END
 95
       32
302
GRIDFORMAT
  1
GRIDFORMAT_BEGIN
 90
       26
 91
        1
 62
     0
 92
       -2
340
0
 93
        0
 40
0.045
309
GRIDFORMAT_END
309
TABLEFORMAT_END
309
FORMATTEDTABLEDATACELL_END
  1
TABLECELL_BEGIN
 90
        0
 91
        0
309
TABLECELL_END
300
CELL
  1
LINKEDTABLEDATACELL_BEGIN
 90
        0
300

 91
        0
301
CUSTOMDATA
  1
DATAMAP_BEGIN
 90
        1
300
ACAD_ROUNDTRIP_2008_CELL_CHECKSUM
301
DATAMAP_VALUE
 93
        2
 90
        2
140
1398.0
 94
        0
300

302

304
ACVALUE_END
309
DATAMAP_END
 92
        0
 95
        1
302
CONTENT
  1
CELLCONTENT_BEGIN
 90
        1
300
VALUE
 93
        2
 90
        4
  1
Rev:00
 94
        0
300

302
Rev:00
304
ACVALUE_END
 91
        0
309
CELLCONTENT_END
  1
FORMATTEDCELLCONTENT_BEGIN
170
     1
300
CONTENTFORMAT
  1
CONTENTFORMAT_BEGIN
 90
      132
 91
        0
 92
      512
 93
        0
300

 40
0.0
140
1.0
 94
        1
 62
     0
340
0
144
3.5
309
CONTENTFORMAT_END
309
FORMATTEDCELLCONTENT_END
309
LINKEDTABLEDATACELL_END
  1
FORMATTEDTABLEDATACELL_BEGIN
300
CELLTABLEFORMAT
  1
TABLEFORMAT_BEGIN
 90
        1
170
     1
 91
       16
 92
        0
 62
   257
 93
        1
300
CONTENTFORMAT
  1
CONTENTFORMAT_BEGIN
 90
       16
 91
        0
 92
      512
 93
        0
300

 40
0.0
140
1.0
 94
        4
 62
     0
340
0
144
0.18
309
CONTENTFORMAT_END
171
     0
 94
        4
 95
        1
302
GRIDFORMAT
  1
GRIDFORMAT_BEGIN
 90
       26
 91
        1
 62
     0
 92
       -2
340
0
 93
        0
 40
0.045
309
GRIDFORMAT_END
 95
        4
302
GRIDFORMAT
  1
GRIDFORMAT_BEGIN
 90
       26
 91
        1
 62
     0
 92
       -2
340
0
 93
        0
 40
0.045
309
GRIDFORMAT_END
 95
        8
302
GRIDFORMAT
  1
GRIDFORMAT_BEGIN
 90
       26
 91
        1
 62
     0
 92
       -2
340
0
 93
        0
 40
0.045
309
GRIDFORMAT_END
 95
       32
302
GRIDFORMAT
  1
GRIDFORMAT_BEGIN
 90
       26
 91
        1
 62
     0
 92
       -2
340
0
 93
        0
 40
0.045
309
GRIDFORMAT_END
309
TABLEFORMAT_END
309
FORMATTEDTABLEDATACELL_END
  1
TABLECELL_BEGIN
 90
        0
 91
        0
309
TABLECELL_END
 91
        0
301
CUSTOMDATA
  1
DATAMAP_BEGIN
 90
        0
309
DATAMAP_END
309
LINKEDTABLEDATAROW_END
  1
FORMATTEDTABLEDATAROW_BEGIN
300
ROWTABLEFORMAT
  1
TABLEFORMAT_BEGIN
 90
        2
170
     0
309
TABLEFORMAT_END
309
FORMATTEDTABLEDATAROW_END
  1
TABLEROW_BEGIN
 90
        1
 40
6.0
309
TABLEROW_END
301
ROW
  1
LINKEDTABLEDATAROW_BEGIN
 90
        5
300
CELL
  1
LINKEDTABLEDATACELL_BEGIN
 90
        0
300

 91
        0
301
CUSTOMDATA
  1
DATAMAP_BEGIN
 90
        0
309
DATAMAP_END
 92
        0
 95
        0
309
LINKEDTABLEDATACELL_END
  1
FORMATTEDTABLEDATACELL_BEGIN
300
CELLTABLEFORMAT
  1
TABLEFORMAT_BEGIN
 90
        1
170
     1
 91
        0
 92
        0
 62
   257
 93
        1
300
CONTENTFORMAT
  1
CONTENTFORMAT_BEGIN
 90
        0
 91
        0
 92
      512
 93
        0
300

 40
0.0
140
1.0
 94
        1
 62
     0
340
0
144
0.18
309
CONTENTFORMAT_END
171
     0
 94
        0
309
TABLEFORMAT_END
309
FORMATTEDTABLEDATACELL_END
  1
TABLECELL_BEGIN
 90
        0
 91
        0
309
TABLECELL_END
300
CELL
  1
LINKEDTABLEDATACELL_BEGIN
 90
        0
300

 91
        0
301
CUSTOMDATA
  1
DATAMAP_BEGIN
 90
        0
309
DATAMAP_END
 92
        0
 95
        0
309
LINKEDTABLEDATACELL_END
  1
FORMATTEDTABLEDATACELL_BEGIN
300
CELLTABLEFORMAT
  1
TABLEFORMAT_BEGIN
 90
        1
170
     1
 91
        0
 92
        0
 62
   257
 93
        1
300
CONTENTFORMAT
  1
CONTENTFORMAT_BEGIN
 90
        0
 91
        0
 92
      512
 93
        0
300

 40
0.0
140
1.0
 94
        1
 62
     0
340
0
144
0.18
309
CONTENTFORMAT_END
171
     0
 94
        0
309
TABLEFORMAT_END
309
FORMATTEDTABLEDATACELL_END
  1
TABLECELL_BEGIN
 90
        0
 91
        0
309
TABLECELL_END
300
CELL
  1
LINKEDTABLEDATACELL_BEGIN
 90
        0
300

 91
        0
301
CUSTOMDATA
  1
DATAMAP_BEGIN
 90
        0
309
DATAMAP_END
 92
        0
 95
        0
309
LINKEDTABLEDATACELL_END
  1
FORMATTEDTABLEDATACELL_BEGIN
300
CELLTABLEFORMAT
  1
TABLEFORMAT_BEGIN
 90
        1
170
     1
 91
        0
 92
        0
 62
   257
 93
        1
300
CONTENTFORMAT
  1
CONTENTFORMAT_BEGIN
 90
        0
 91
        0
 92
      512
 93
        0
300

 40
0.0
140
1.0
 94
        1
 62
     0
340
0
144
0.18
309
CONTENTFORMAT_END
171
     0
 94
        0
309
TABLEFORMAT_END
309
FORMATTEDTABLEDATACELL_END
  1
TABLECELL_BEGIN
 90
        0
 91
        0
309
TABLECELL_END
300
CELL
  1
LINKEDTABLEDATACELL_BEGIN
 90
        0
300

 91
        0
301
CUSTOMDATA
  1
DATAMAP_BEGIN
 90
        1
300
ACAD_ROUNDTRIP_2008_CELL_CHECKSUM
301
DATAMAP_VALUE
 93
        2
 90
        2
140
3105.0
 94
        0
300

302

304
ACVALUE_END
309
DATAMAP_END
 92
        0
 95
        1
302
CONTENT
  1
CELLCONTENT_BEGIN
 90
        1
300
VALUE
 93
        2
 90
        4
  1
Scale:1:1
 94
        0
300

302
Scale:1:1
304
ACVALUE_END
 91
        0
309
CELLCONTENT_END
  1
FORMATTEDCELLCONTENT_BEGIN
170
     1
300
CONTENTFORMAT
  1
CONTENTFORMAT_BEGIN
 90
      132
 91
        0
 92
      512
 93
        0
300

 40
0.0
140
1.0
 94
        1
 62
     0
340
0
144
3.5
309
CONTENTFORMAT_END
309
FORMATTEDCELLCONTENT_END
309
LINKEDTABLEDATACELL_END
  1
FORMATTEDTABLEDATACELL_BEGIN
300
CELLTABLEFORMAT
  1
TABLEFORMAT_BEGIN
 90
        1
170
     1
 91
       16
 92
        0
 62
   257
 93
        1
300
CONTENTFORMAT
  1
CONTENTFORMAT_BEGIN
 90
       16
 91
        0
 92
      512
 93
        0
300

 40
0.0
140
1.0
 94
        1
 62
     0
340
0
144
0.18
309
CONTENTFORMAT_END
171
     0
 94
        4
 95
        1
302
GRIDFORMAT
  1
GRIDFORMAT_BEGIN
 90
       26
 91
        1
 62
     0
 92
       -2
340
0
 93
        0
 40
0.045
309
GRIDFORMAT_END
 95
        4
302
GRIDFORMAT
  1
GRIDFORMAT_BEGIN
 90
       26
 91
        1
 62
     0
 92
       -2
340
0
 93
        0
 40
0.045
309
GRIDFORMAT_END
 95
        8
302
GRIDFORMAT
  1
GRIDFORMAT_BEGIN
 90
       26
 91
        1
 62
     0
 92
       -2
340
0
 93
        0
 40
0.045
309
GRIDFORMAT_END
 95
       32
302
GRIDFORMAT
  1
GRIDFORMAT_BEGIN
 90
       26
 91
        1
 62
     0
 92
       -2
340
0
 93
        0
 40
0.045
309
GRIDFORMAT_END
309
TABLEFORMAT_END
309
FORMATTEDTABLEDATACELL_END
  1
TABLECELL_BEGIN
 90
        0
 91
        0
309
TABLECELL_END
300
CELL
  1
LINKEDTABLEDATACELL_BEGIN
 90
        0
300

 91
        0
301
CUSTOMDATA
  1
DATAMAP_BEGIN
 90
        1
300
ACAD_ROUNDTRIP_2008_CELL_CHECKSUM
301
DATAMAP_VALUE
 93
        2
 90
        2
140
163.0
 94
        0
300

302

304
ACVALUE_END
309
DATAMAP_END
 92
        0
 95
        1
302
CONTENT
  1
CELLCONTENT_BEGIN
 90
        1
300
VALUE
 93
        2
 90
        4
  1
A1
 94
        0
300

302
A1
304
ACVALUE_END
 91
        0
309
CELLCONTENT_END
  1
FORMATTEDCELLCONTENT_BEGIN
170
     1
300
CONTENTFORMAT
  1
CONTENTFORMAT_BEGIN
 90
      132
 91
        0
 92
      512
 93
        0
300

 40
0.0
140
1.0
 94
        1
 62
     0
340
0
144
3.5
309
CONTENTFORMAT_END
309
FORMATTEDCELLCONTENT_END
309
LINKEDTABLEDATACELL_END
  1
FORMATTEDTABLEDATACELL_BEGIN
300
CELLTABLEFORMAT
  1
TABLEFORMAT_BEGIN
 90
        1
170
     1
 91
       16
 92
        0
 62
   257
 93
        1
300
CONTENTFORMAT
  1
CONTENTFORMAT_BEGIN
 90
       16
 91
        0
 92
      512
 93
        0
300

 40
0.0
140
1.0
 94
        4
 62
     0
340
0
144
0.18
309
CONTENTFORMAT_END
171
     0
 94
        4
 95
        1
302
GRIDFORMAT
  1
GRIDFORMAT_BEGIN
 90
       26
 91
        1
 62
     0
 92
       -2
340
0
 93
        0
 40
0.045
309
GRIDFORMAT_END
 95
        4
302
GRIDFORMAT
  1
GRIDFORMAT_BEGIN
 90
       26
 91
        1
 62
     0
 92
       -2
340
0
 93
        0
 40
0.045
309
GRIDFORMAT_END
 95
        8
302
GRIDFORMAT
  1
GRIDFORMAT_BEGIN
 90
       26
 91
        1
 62
     0
 92
       -2
340
0
 93
        0
 40
0.045
309
GRIDFORMAT_END
 95
       32
302
GRIDFORMAT
  1
GRIDFORMAT_BEGIN
 90
       26
 91
        1
 62
     0
 92
       -2
340
0
 93
        0
 40
0.045
309
GRIDFORMAT_END
309
TABLEFORMAT_END
309
FORMATTEDTABLEDATACELL_END
  1
TABLECELL_BEGIN
 90
        0
 91
        0
309
TABLECELL_END
 91
        0
301
CUSTOMDATA
  1
DATAMAP_BEGIN
 90
        0
309
DATAMAP_END
309
LINKEDTABLEDATAROW_END
  1
FORMATTEDTABLEDATAROW_BEGIN
300
ROWTABLEFORMAT
  1
TABLEFORMAT_BEGIN
 90
        2
170
     0
309
TABLEFORMAT_END
309
FORMATTEDTABLEDATAROW_END
  1
TABLEROW_BEGIN
 90
        2
 40
6.0
309
TABLEROW_END
301
ROW
  1
LINKEDTABLEDATAROW_BEGIN
 90
        5
300
CELL
  1
LINKEDTABLEDATACELL_BEGIN
 90
        0
300

 91
        0
301
CUSTOMDATA
  1
DATAMAP_BEGIN
 90
        0
309
DATAMAP_END
 92
        0
 95
        0
309
LINKEDTABLEDATACELL_END
  1
FORMATTEDTABLEDATACELL_BEGIN
300
CELLTABLEFORMAT
  1
TABLEFORMAT_BEGIN
 90
        1
170
     1
 91
        0
 92
        0
 62
   257
 93
        1
300
CONTENTFORMAT
  1
CONTENTFORMAT_BEGIN
 90
        0
 91
        0
 92
      512
 93
        0
300

 40
0.0
140
1.0
 94
        1
 62
     0
340
0
144
0.18
309
CONTENTFORMAT_END
171
     0
 94
        0
309
TABLEFORMAT_END
309
FORMATTEDTABLEDATACELL_END
  1
TABLECELL_BEGIN
 90
        0
 91
        0
309
TABLECELL_END
300
CELL
  1
LINKEDTABLEDATACELL_BEGIN
 90
        0
300

 91
        0
301
CUSTOMDATA
  1
DATAMAP_BEGIN
 90
        0
309
DATAMAP_END
 92
        0
 95
        0
309
LINKEDTABLEDATACELL_END
  1
FORMATTEDTABLEDATACELL_BEGIN
300
CELLTABLEFORMAT
  1
TABLEFORMAT_BEGIN
 90
        1
170
     1
 91
        0
 92
        0
 62
   257
 93
        1
300
CONTENTFORMAT
  1
CONTENTFORMAT_BEGIN
 90
        0
 91
        0
 92
      512
 93
        0
300

 40
0.0
140
1.0
 94
        1
 62
     0
340
0
144
0.18
309
CONTENTFORMAT_END
171
     0
 94
        0
309
TABLEFORMAT_END
309
FORMATTEDTABLEDATACELL_END
  1
TABLECELL_BEGIN
 90
        0
 91
        0
309
TABLECELL_END
300
CELL
  1
LINKEDTABLEDATACELL_BEGIN
 90
        0
300

 91
        0
301
CUSTOMDATA
  1
DATAMAP_BEGIN
 90
        0
309
DATAMAP_END
 92
        0
 95
        0
309
LINKEDTABLEDATACELL_END
  1
FORMATTEDTABLEDATACELL_BEGIN
300
CELLTABLEFORMAT
  1
TABLEFORMAT_BEGIN
 90
        1
170
     1
 91
        0
 92
        0
 62
   257
 93
        1
300
CONTENTFORMAT
  1
CONTENTFORMAT_BEGIN
 90
        0
 91
        0
 92
      512
 93
        0
300

 40
0.0
140
1.0
 94
        1
 62
     0
340
0
144
0.18
309
CONTENTFORMAT_END
171
     0
 94
        0
309
TABLEFORMAT_END
309
FORMATTEDTABLEDATACELL_END
  1
TABLECELL_BEGIN
 90
        0
 91
        0
309
TABLECELL_END
300
CELL
  1
LINKEDTABLEDATACELL_BEGIN
 90
        0
300

 91
        0
301
CUSTOMDATA
  1
DATAMAP_BEGIN
 90
        1
300
ACAD_ROUNDTRIP_2008_CELL_CHECKSUM
301
DATAMAP_VALUE
 93
        2
 90
        2
140
27684.0
 94
        0
300

302

304
ACVALUE_END
309
DATAMAP_END
 92
        0
 95
        1
302
CONTENT
  1
CELLCONTENT_BEGIN
 90
        1
300
VALUE
 93
        2
 90
        4
  1
CASSAF.TAGO TRIM 1.1 L=563 mm
 94
        0
300

302
CASSAF.TAGO TRIM 1.1 L=563 mm
304
ACVALUE_END
 91
        0
309
CELLCONTENT_END
  1
FORMATTEDCELLCONTENT_BEGIN
170
     1
300
CONTENTFORMAT
  1
CONTENTFORMAT_BEGIN
 90
      132
 91
        0
 92
      512
 93
        0
300

 40
0.0
140
1.0
 94
        1
 62
     0
340
0
144
2.5
309
CONTENTFORMAT_END
309
FORMATTEDCELLCONTENT_END
309
LINKEDTABLEDATACELL_END
  1
FORMATTEDTABLEDATACELL_BEGIN
300
CELLTABLEFORMAT
  1
TABLEFORMAT_BEGIN
 90
        1
170
     1
 91
       16
 92
        0
 62
   257
 93
        1
300
CONTENTFORMAT
  1
CONTENTFORMAT_BEGIN
 90
       16
 91
        0
 92
      512
 93
        0
300

 40
0.0
140
1.0
 94
        4
 62
     0
340
0
144
0.18
309
CONTENTFORMAT_END
171
     0
 94
        4
 95
        1
302
GRIDFORMAT
  1
GRIDFORMAT_BEGIN
 90
       26
 91
        1
 62
     0
 92
       -2
340
0
 93
        0
 40
0.045
309
GRIDFORMAT_END
 95
        4
302
GRIDFORMAT
  1
GRIDFORMAT_BEGIN
 90
       26
 91
        1
 62
     0
 92
       -2
340
0
 93
        0
 40
0.045
309
GRIDFORMAT_END
 95
        8
302
GRIDFORMAT
  1
GRIDFORMAT_BEGIN
 90
       26
 91
        1
 62
     0
 92
       -2
340
0
 93
        0
 40
0.045
309
GRIDFORMAT_END
 95
       32
302
GRIDFORMAT
  1
GRIDFORMAT_BEGIN
 90
       26
 91
        1
 62
     0
 92
       -2
340
0
 93
        0
 40
0.045
309
GRIDFORMAT_END
309
TABLEFORMAT_END
309
FORMATTEDTABLEDATACELL_END
  1
TABLECELL_BEGIN
 90
        0
 91
        0
309
TABLECELL_END
300
CELL
  1
LINKEDTABLEDATACELL_BEGIN
 90
        0
300

 91
        0
301
CUSTOMDATA
  1
DATAMAP_BEGIN
 90
        0
309
DATAMAP_END
 92
        0
 95
        0
309
LINKEDTABLEDATACELL_END
  1
FORMATTEDTABLEDATACELL_BEGIN
300
CELLTABLEFORMAT
  1
TABLEFORMAT_BEGIN
 90
        1
170
     1
 91
        0
 92
        0
 62
   257
 93
        1
300
CONTENTFORMAT
  1
CONTENTFORMAT_BEGIN
 90
        0
 91
        0
 92
      512
 93
        0
300

 40
0.0
140
1.0
 94
        1
 62
     0
340
0
144
0.18
309
CONTENTFORMAT_END
171
     0
 94
        0
309
TABLEFORMAT_END
309
FORMATTEDTABLEDATACELL_END
  1
TABLECELL_BEGIN
 90
        0
 91
        0
309
TABLECELL_END
 91
        0
301
CUSTOMDATA
  1
DATAMAP_BEGIN
 90
        0
309
DATAMAP_END
309
LINKEDTABLEDATAROW_END
  1
FORMATTEDTABLEDATAROW_BEGIN
300
ROWTABLEFORMAT
  1
TABLEFORMAT_BEGIN
 90
        2
170
     0
309
TABLEFORMAT_END
309
FORMATTEDTABLEDATAROW_END
  1
TABLEROW_BEGIN
 90
        3
 40
10.0
309
TABLEROW_END
301
ROW
  1
LINKEDTABLEDATAROW_BEGIN
 90
        5
300
CELL
  1
LINKEDTABLEDATACELL_BEGIN
 90
        0
300

 91
        0
301
CUSTOMDATA
  1
DATAMAP_BEGIN
 90
        0
309
DATAMAP_END
 92
        0
 95
        0
309
LINKEDTABLEDATACELL_END
  1
FORMATTEDTABLEDATACELL_BEGIN
300
CELLTABLEFORMAT
  1
TABLEFORMAT_BEGIN
 90
        1
170
     1
 91
        0
 92
        0
 62
   257
 93
        1
300
CONTENTFORMAT
  1
CONTENTFORMAT_BEGIN
 90
        0
 91
        0
 92
      512
 93
        0
300

 40
0.0
140
1.0
 94
        1
 62
     0
340
0
144
0.18
309
CONTENTFORMAT_END
171
     0
 94
        0
309
TABLEFORMAT_END
309
FORMATTEDTABLEDATACELL_END
  1
TABLECELL_BEGIN
 90
        0
 91
        0
309
TABLECELL_END
300
CELL
  1
LINKEDTABLEDATACELL_BEGIN
 90
        0
300

 91
        0
301
CUSTOMDATA
  1
DATAMAP_BEGIN
 90
        0
309
DATAMAP_END
 92
        0
 95
        0
309
LINKEDTABLEDATACELL_END
  1
FORMATTEDTABLEDATACELL_BEGIN
300
CELLTABLEFORMAT
  1
TABLEFORMAT_BEGIN
 90
        1
170
     1
 91
        0
 92
        0
 62
   257
 93
        1
300
CONTENTFORMAT
  1
CONTENTFORMAT_BEGIN
 90
        0
 91
        0
 92
      512
 93
        0
300

 40
0.0
140
1.0
 94
        1
 62
     0
340
0
144
0.18
309
CONTENTFORMAT_END
171
     0
 94
        0
309
TABLEFORMAT_END
309
FORMATTEDTABLEDATACELL_END
  1
TABLECELL_BEGIN
 90
        0
 91
        0
309
TABLECELL_END
300
CELL
  1
LINKEDTABLEDATACELL_BEGIN
 90
        0
300

 91
        0
301
CUSTOMDATA
  1
DATAMAP_BEGIN
 90
        0
309
DATAMAP_END
 92
        0
 95
        0
309
LINKEDTABLEDATACELL_END
  1
FORMATTEDTABLEDATACELL_BEGIN
300
CELLTABLEFORMAT
  1
TABLEFORMAT_BEGIN
 90
        1
170
     1
 91
        0
 92
        0
 62
   257
 93
        1
300
CONTENTFORMAT
  1
CONTENTFORMAT_BEGIN
 90
        0
 91
        0
 92
      512
 93
        0
300

 40
0.0
140
1.0
 94
        1
 62
     0
340
0
144
0.18
309
CONTENTFORMAT_END
171
     0
 94
        0
309
TABLEFORMAT_END
309
FORMATTEDTABLEDATACELL_END
  1
TABLECELL_BEGIN
 90
        0
 91
        0
309
TABLECELL_END
300
CELL
  1
LINKEDTABLEDATACELL_BEGIN
 90
        0
300

 91
        0
301
CUSTOMDATA
  1
DATAMAP_BEGIN
 90
        1
300
ACAD_ROUNDTRIP_2008_CELL_CHECKSUM
301
DATAMAP_VALUE
 93
        2
 90
        2
140
4714.0
 94
        0
300

302

304
ACVALUE_END
309
DATAMAP_END
 92
        0
 95
        1
302
CONTENT
  1
CELLCONTENT_BEGIN
 90
        1
300
VALUE
 93
        2
 90
        4
  1
DATE:03.03.21
 94
        0
300

302
DATE:03.03.21
304
ACVALUE_END
 91
        0
309
CELLCONTENT_END
  1
FORMATTEDCELLCONTENT_BEGIN
170
     1
300
CONTENTFORMAT
  1
CONTENTFORMAT_BEGIN
 90
      132
 91
        0
 92
      512
 93
        0
300

 40
0.0
140
1.0
 94
        1
 62
     0
340
0
144
2.5
309
CONTENTFORMAT_END
309
FORMATTEDCELLCONTENT_END
309
LINKEDTABLEDATACELL_END
  1
FORMATTEDTABLEDATACELL_BEGIN
300
CELLTABLEFORMAT
  1
TABLEFORMAT_BEGIN
 90
        1
170
     1
 91
       16
 92
        0
 62
   257
 93
        1
300
CONTENTFORMAT
  1
CONTENTFORMAT_BEGIN
 90
       16
 91
        0
 92
      512
 93
        0
300

 40
0.0
140
1.0
 94
        4
 62
     0
340
0
144
0.18
309
CONTENTFORMAT_END
171
     0
 94
        4
 95
        1
302
GRIDFORMAT
  1
GRIDFORMAT_BEGIN
 90
       26
 91
        1
 62
     0
 92
       -2
340
0
 93
        0
 40
0.045
309
GRIDFORMAT_END
 95
        4
302
GRIDFORMAT
  1
GRIDFORMAT_BEGIN
 90
       26
 91
        1
 62
     0
 92
       -2
340
0
 93
        0
 40
0.045
309
GRIDFORMAT_END
 95
        8
302
GRIDFORMAT
  1
GRIDFORMAT_BEGIN
 90
       26
 91
        1
 62
     0
 92
       -2
340
0
 93
        0
 40
0.045
309
GRIDFORMAT_END
 95
       32
302
GRIDFORMAT
  1
GRIDFORMAT_BEGIN
 90
       26
 91
        1
 62
     0
 92
       -2
340
0
 93
        0
 40
0.045
309
GRIDFORMAT_END
309
TABLEFORMAT_END
309
FORMATTEDTABLEDATACELL_END
  1
TABLECELL_BEGIN
 90
        0
 91
        0
309
TABLECELL_END
300
CELL
  1
LINKEDTABLEDATACELL_BEGIN
 90
        0
300

 91
        0
301
CUSTOMDATA
  1
DATAMAP_BEGIN
 90
        0
309
DATAMAP_END
 92
        0
 95
        0
309
LINKEDTABLEDATACELL_END
  1
FORMATTEDTABLEDATACELL_BEGIN
300
CELLTABLEFORMAT
  1
TABLEFORMAT_BEGIN
 90
        1
170
     1
 91
        0
 92
        0
 62
   257
 93
        1
300
CONTENTFORMAT
  1
CONTENTFORMAT_BEGIN
 90
        0
 91
        0
 92
      512
 93
        0
300

 40
0.0
140
1.0
 94
        1
 62
     0
340
0
144
0.18
309
CONTENTFORMAT_END
171
     0
 94
        0
309
TABLEFORMAT_END
309
FORMATTEDTABLEDATACELL_END
  1
TABLECELL_BEGIN
 90
        0
 91
        0
309
TABLECELL_END
 91
        0
301
CUSTOMDATA
  1
DATAMAP_BEGIN
 90
        0
309
DATAMAP_END
309
LINKEDTABLEDATAROW_END
  1
FORMATTEDTABLEDATAROW_BEGIN
300
ROWTABLEFORMAT
  1
TABLEFORMAT_BEGIN
 90
        2
170
     0
309
TABLEFORMAT_END
309
FORMATTEDTABLEDATAROW_END
  1
TABLEROW_BEGIN
 90
        3
 40
5.0
309
TABLEROW_END
301
ROW
  1
LINKEDTABLEDATAROW_BEGIN
 90
        5
300
CELL
  1
LINKEDTABLEDATACELL_BEGIN
 90
        0
300

 91
        0
301
CUSTOMDATA
  1
DATAMAP_BEGIN
 90
        1
300
ACAD_ROUNDTRIP_2008_CELL_CHECKSUM
301
DATAMAP_VALUE
 93
        2
 90
        2
140
1361482.0
 94
        0
300

302

304
ACVALUE_END
309
DATAMAP_END
 92
        0
 95
        1
302
CONTENT
  1
CELLCONTENT_BEGIN
 90
        1
300
VALUE
 93
        2
 90
        4
  1
Any integral or partial reproductions are prohibited \Pwithout prior authorisation of L & L Luce & Light s.r.l., \Pin accordance with the law in force. \PAll rights reserved.
 94
        0
300

302
Any integral or partial reproductions are prohibited \Pwithout prior authorisation of L & L Luce & Light s.r.l., \Pin accordance with the law in force. \PAll rights reserved.
304
ACVALUE_END
 91
        0
309
CELLCONTENT_END
  1
FORMATTEDCELLCONTENT_BEGIN
170
     1
300
CONTENTFORMAT
  1
CONTENTFORMAT_BEGIN
 90
      132
 91
        0
 92
      512
 93
        0
300

 40
0.0
140
1.0
 94
        1
 62
     0
340
0
144
2.25
309
CONTENTFORMAT_END
309
FORMATTEDCELLCONTENT_END
309
LINKEDTABLEDATACELL_END
  1
FORMATTEDTABLEDATACELL_BEGIN
300
CELLTABLEFORMAT
  1
TABLEFORMAT_BEGIN
 90
        1
170
     1
 91
       16
 92
        0
 62
   257
 93
        1
300
CONTENTFORMAT
  1
CONTENTFORMAT_BEGIN
 90
       16
 91
        0
 92
      512
 93
        0
300

 40
0.0
140
1.0
 94
        4
 62
     0
340
0
144
0.18
309
CONTENTFORMAT_END
171
     0
 94
        4
 95
        1
302
GRIDFORMAT
  1
GRIDFORMAT_BEGIN
 90
       26
 91
        1
 62
     0
 92
       -2
340
0
 93
        0
 40
0.045
309
GRIDFORMAT_END
 95
        4
302
GRIDFORMAT
  1
GRIDFORMAT_BEGIN
 90
       26
 91
        1
 62
     0
 92
       -2
340
0
 93
        0
 40
0.045
309
GRIDFORMAT_END
 95
        8
302
GRIDFORMAT
  1
GRIDFORMAT_BEGIN
 90
       26
 91
        1
 62
     0
 92
       -2
340
0
 93
        0
 40
0.045
309
GRIDFORMAT_END
 95
       32
302
GRIDFORMAT
  1
GRIDFORMAT_BEGIN
 90
       26
 91
        1
 62
     0
 92
       -2
340
0
 93
        0
 40
0.045
309
GRIDFORMAT_END
309
TABLEFORMAT_END
309
FORMATTEDTABLEDATACELL_END
  1
TABLECELL_BEGIN
 90
        0
 91
        0
309
TABLECELL_END
300
CELL
  1
LINKEDTABLEDATACELL_BEGIN
 90
        0
300

 91
        0
301
CUSTOMDATA
  1
DATAMAP_BEGIN
 90
        0
309
DATAMAP_END
 92
        0
 95
        0
309
LINKEDTABLEDATACELL_END
  1
FORMATTEDTABLEDATACELL_BEGIN
300
CELLTABLEFORMAT
  1
TABLEFORMAT_BEGIN
 90
        1
170
     1
 91
        0
 92
        0
 62
   257
 93
        1
300
CONTENTFORMAT
  1
CONTENTFORMAT_BEGIN
 90
        0
 91
        0
 92
      512
 93
        0
300

 40
0.0
140
1.0
 94
        1
 62
     0
340
0
144
0.18
309
CONTENTFORMAT_END
171
     0
 94
        0
309
TABLEFORMAT_END
309
FORMATTEDTABLEDATACELL_END
  1
TABLECELL_BEGIN
 90
        0
 91
        0
309
TABLECELL_END
300
CELL
  1
LINKEDTABLEDATACELL_BEGIN
 90
        0
300

 91
        0
301
CUSTOMDATA
  1
DATAMAP_BEGIN
 90
        0
309
DATAMAP_END
 92
        0
 95
        0
309
LINKEDTABLEDATACELL_END
  1
FORMATTEDTABLEDATACELL_BEGIN
300
CELLTABLEFORMAT
  1
TABLEFORMAT_BEGIN
 90
        1
170
     1
 91
        0
 92
        0
 62
   257
 93
        1
300
CONTENTFORMAT
  1
CONTENTFORMAT_BEGIN
 90
        0
 91
        0
 92
      512
 93
        0
300

 40
0.0
140
1.0
 94
        1
 62
     0
340
0
144
0.18
309
CONTENTFORMAT_END
171
     0
 94
        0
309
TABLEFORMAT_END
309
FORMATTEDTABLEDATACELL_END
  1
TABLECELL_BEGIN
 90
        0
 91
        0
309
TABLECELL_END
300
CELL
  1
LINKEDTABLEDATACELL_BEGIN
 90
        0
300

 91
        0
301
CUSTOMDATA
  1
DATAMAP_BEGIN
 90
        0
309
DATAMAP_END
 92
        0
 95
        0
309
LINKEDTABLEDATACELL_END
  1
FORMATTEDTABLEDATACELL_BEGIN
300
CELLTABLEFORMAT
  1
TABLEFORMAT_BEGIN
 90
        1
170
     1
 91
        0
 92
        0
 62
   257
 93
        1
300
CONTENTFORMAT
  1
CONTENTFORMAT_BEGIN
 90
        0
 91
        0
 92
      512
 93
        0
300

 40
0.0
140
1.0
 94
        1
 62
     0
340
0
144
0.18
309
CONTENTFORMAT_END
171
     0
 94
        0
309
TABLEFORMAT_END
309
FORMATTEDTABLEDATACELL_END
  1
TABLECELL_BEGIN
 90
        0
 91
        0
309
TABLECELL_END
300
CELL
  1
LINKEDTABLEDATACELL_BEGIN
 90
        0
300

 91
        0
301
CUSTOMDATA
  1
DATAMAP_BEGIN
 90
        0
309
DATAMAP_END
 92
        0
 95
        0
309
LINKEDTABLEDATACELL_END
  1
FORMATTEDTABLEDATACELL_BEGIN
300
CELLTABLEFORMAT
  1
TABLEFORMAT_BEGIN
 90
        1
170
     1
 91
        0
 92
        0
 62
   257
 93
        1
300
CONTENTFORMAT
  1
CONTENTFORMAT_BEGIN
 90
        0
 91
        0
 92
      512
 93
        0
300

 40
0.0
140
1.0
 94
        1
 62
     0
340
0
144
0.18
309
CONTENTFORMAT_END
171
     0
 94
        0
309
TABLEFORMAT_END
309
FORMATTEDTABLEDATACELL_END
  1
TABLECELL_BEGIN
 90
        0
 91
        0
309
TABLECELL_END
 91
        0
301
CUSTOMDATA
  1
DATAMAP_BEGIN
 90
        0
309
DATAMAP_END
309
LINKEDTABLEDATAROW_END
  1
FORMATTEDTABLEDATAROW_BEGIN
300
ROWTABLEFORMAT
  1
TABLEFORMAT_BEGIN
 90
        2
170
     0
309
TABLEFORMAT_END
309
FORMATTEDTABLEDATAROW_END
  1
TABLEROW_BEGIN
 90
        3
 40
13.0
309
TABLEROW_END
100
AcDbFormattedTableData
300
TABLEFORMAT
  1
TABLEFORMAT_BEGIN
 90
        4
170
     1
 91
    15360
 92
        0
 62
   257
 93
        1
300
CONTENTFORMAT
  1
CONTENTFORMAT_BEGIN
 90
        0
 91
        0
 92
      512
 93
        0
300

 40
0.0
140
1.0
 94
        1
 62
     0
340
0
144
0.18
309
CONTENTFORMAT_END
171
     1
301
MARGIN
  1
CELLMARGIN_BEGIN
 40
0.06
 40
0.06
 40
0.06
 40
0.06
 40
0.06
 40
0.06
309
CELLMARGIN_END
 94
        0
309
TABLEFORMAT_END
 90
        4
 91
        0
 92
        0
 93
        3
 94
        2
 91
        2
 92
        3
 93
        2
 94
        4
 91
        3
 92
        3
 93
        3
 94
        4
 91
        4
 92
        0
 93
        4
 94
        4
100
AcDbTableContent
340
569
  0
TABLEGEOMETRY
  5
596
330
598
100
AcDbTableGeometry
 90
        5
 91
        5
 92
       25
 93
        0
 40
0.0
 41
0.0
330
0
 94
        0
 93
        0
 40
0.0
 41
0.0
330
0
 94
        0
 93
        0
 40
0.0
 41
0.0
330
0
 94
        0
 93
        0
 40
0.0
 41
0.0
330
0
 94
        0
 93
        0
 40
0.0
 41
0.0
330
0
 94
        0
 93
        0
 40
0.0
 41
0.0
330
0
 94
        0
 93
        0
 40
0.0
 41
0.0
330
0
 94
        0
 93
        0
 40
0.0
 41
0.0
330
0
 94
        0
 93
        0
 40
0.0
 41
0.0
330
0
 94
        0
 93
        0
 40
0.0
 41
0.0
330
0
 94
        0
 93
        0
 40
0.0
 41
0.0
330
0
 94
        0
 93
        0
 40
0.0
 41
0.0
330
0
 94
        0
 93
        0
 40
0.0
 41
0.0
330
0
 94
        0
 93
        0
 40
0.0
 41
0.0
330
0
 94
        0
 93
        0
 40
0.0
 41
0.0
330
0
 94
        0
 93
        0
 40
0.0
 41
0.0
330
0
 94
        0
 93
        0
 40
0.0
 41
0.0
330
0
 94
        0
 93
        0
 40
0.0
 41
0.0
330
0
 94
        0
 93
        0
 40
0.0
 41
0.0
330
0
 94
        0
 93
        0
 40
0.0
 41
0.0
330
0
 94
        0
 93
        0
 40
0.0
 41
0.0
330
0
 94
        0
 93
        0
 40
0.0
 41
0.0
330
0
 94
        0
 93
        0
 40
0.0
 41
0.0
330
0
 94
        0
 93
        0
 40
0.0
 41
0.0
330
0
 94
        0
 93
        0
 40
0.0
 41
0.0
330
0
 94
        0
  0
DICTIONARY
  5
59B
330
569
100
AcDbDictionary
280
     1
281
     1
  3
ACAD_ROUNDTRIP_2008_TABLESTYLE_CELLSTYLEMAP
360
59C
  0
DICTIONARY
  5
5A5
330
570
100
AcDbDictionary
280
     1
281
     1
  3
ACAD_XREC_ROUNDTRIP
360
5A6
  0
DICTIONARY
  5
5AB
330
573
100
AcDbDictionary
280
     1
281
     1
  3
ACAD_XREC_ROUNDTRIP
360
5AC
  0
DICTIONARY
  5
5B3
330
577
100
AcDbDictionary
280
     1
281
     1
  3
ACAD_XREC_ROUNDTRIP
360
5B4
  0
DICTIONARY
  5
5BB
330
57B
100
AcDbDictionary
280
     1
281
     1
  3
ACAD_XREC_ROUNDTRIP
360
5BC
  0
DICTIONARY
  5
5AF
330
575
100
AcDbDictionary
280
     1
281
     1
  3
ACAD_XREC_ROUNDTRIP
360
5B0
  0
DICTIONARY
  5
5B1
330
576
100
AcDbDictionary
280
     1
281
     1
  3
ACAD_XREC_ROUNDTRIP
360
5B2
  0
DICTIONARY
  5
5C1
330
57E
100
AcDbDictionary
280
     1
281
     1
  3
ACAD_XREC_ROUNDTRIP
360
5C2
  0
DICTIONARY
  5
5B9
330
57A
100
AcDbDictionary
280
     1
281
     1
  3
ACAD_XREC_ROUNDTRIP
360
5BA
  0
DICTIONARY
  5
59D
330
56C
100
AcDbDictionary
280
     1
281
     1
  3
ACAD_XREC_ROUNDTRIP
360
59E
  0
DICTIONARY
  5
59F
330
56D
100
AcDbDictionary
280
     1
281
     1
  3
ACAD_XREC_ROUNDTRIP
360
5A0
  0
DICTIONARY
  5
5A1
330
56E
100
AcDbDictionary
280
     1
281
     1
  3
ACAD_XREC_ROUNDTRIP
360
5A2
  0
DICTIONARY
  5
5A3
330
56F
100
AcDbDictionary
280
     1
281
     1
  3
ACAD_XREC_ROUNDTRIP
360
5A4
  0
DICTIONARY
  5
5A9
330
572
100
AcDbDictionary
280
     1
281
     1
  3
ACAD_XREC_ROUNDTRIP
360
5AA
  0
DICTIONARY
  5
5BD
330
57C
100
AcDbDictionary
280
     1
281
     1
  3
ACAD_XREC_ROUNDTRIP
360
5BE
  0
DICTIONARY
  5
5B7
330
579
100
AcDbDictionary
280
     1
281
     1
  3
ACAD_XREC_ROUNDTRIP
360
5B8
  0
DICTIONARY
  5
5BF
330
57D
100
AcDbDictionary
280
     1
281
     1
  3
ACAD_XREC_ROUNDTRIP
360
5C0
  0
DICTIONARY
  5
5AD
330
574
100
AcDbDictionary
280
     1
281
     1
  3
ACAD_XREC_ROUNDTRIP
360
5AE
  0
DICTIONARY
  5
5CB
330
583
100
AcDbDictionary
280
     1
281
     1
  3
ACAD_XREC_ROUNDTRIP
360
5CC
  0
DICTIONARY
  5
5C9
330
582
100
AcDbDictionary
280
     1
281
     1
  3
ACAD_XREC_ROUNDTRIP
360
5CA
  0
DICTIONARY
  5
5C3
330
57F
100
AcDbDictionary
280
     1
281
     1
  3
ACAD_XREC_ROUNDTRIP
360
5C4
  0
DICTIONARY
  5
5C5
330
580
100
AcDbDictionary
280
     1
281
     1
  3
ACAD_XREC_ROUNDTRIP
360
5C6
  0
DICTIONARY
  5
5B5
330
578
100
AcDbDictionary
280
     1
281
     1
  3
ACAD_XREC_ROUNDTRIP
360
5B6
  0
DICTIONARY
  5
5A7
330
571
100
AcDbDictionary
280
     1
281
     1
  3
ACAD_XREC_ROUNDTRIP
360
5A8
  0
DICTIONARY
  5
5C7
330
581
100
AcDbDictionary
280
     1
281
     1
  3
ACAD_XREC_ROUNDTRIP
360
5C8
  0
CELLSTYLEMAP
  5
59C
102
{ACAD_REACTORS
330
59B
102
}
330
59B
100
AcDbCellStyleMap
 90
        3
300
CELLSTYLE
  1
TABLEFORMAT_BEGIN
 90
        5
170
     1
 91
        0
 92
        0
 62
   257
 93
        1
300
CONTENTFORMAT
  1
CONTENTFORMAT_BEGIN
 90
        0
 91
        0
 92
        4
 93
        0
300

 40
0.0
140
1.0
 94
        5
 62
     0
340
11
144
6.0
309
CONTENTFORMAT_END
171
     1
301
MARGIN
  1
CELLMARGIN_BEGIN
 40
1.5
 40
1.5
 40
1.5
 40
1.5
 40
1.5
 40
1.5
309
CELLMARGIN_END
 94
        6
 95
        1
302
GRIDFORMAT
  1
GRIDFORMAT_BEGIN
 90
        0
 91
        1
 62
     0
 92
       -2
340
14
 93
        0
 40
0.045
309
GRIDFORMAT_END
 95
        2
302
GRIDFORMAT
  1
GRIDFORMAT_BEGIN
 90
        0
 91
        1
 62
     0
 92
       -2
340
14
 93
        0
 40
0.045
309
GRIDFORMAT_END
 95
        4
302
GRIDFORMAT
  1
GRIDFORMAT_BEGIN
 90
        0
 91
        1
 62
     0
 92
       -2
340
14
 93
        0
 40
0.045
309
GRIDFORMAT_END
 95
        8
302
GRIDFORMAT
  1
GRIDFORMAT_BEGIN
 90
        0
 91
        1
 62
     0
 92
       -2
340
14
 93
        0
 40
0.045
309
GRIDFORMAT_END
 95
       16
302
GRIDFORMAT
  1
GRIDFORMAT_BEGIN
 90
        0
 91
        1
 62
     0
 92
       -2
340
14
 93
        0
 40
0.045
309
GRIDFORMAT_END
 95
       32
302
GRIDFORMAT
  1
GRIDFORMAT_BEGIN
 90
        0
 91
        1
 62
     0
 92
       -2
340
14
 93
        0
 40
0.045
309
GRIDFORMAT_END
309
TABLEFORMAT_END
  1
CELLSTYLE_BEGIN
 90
        1
 91
        1
300
_TITLE
309
CELLSTYLE_END
300
CELLSTYLE
  1
TABLEFORMAT_BEGIN
 90
        5
170
     1
 91
        0
 92
        0
 62
   257
 93
        1
300
CONTENTFORMAT
  1
CONTENTFORMAT_BEGIN
 90
        0
 91
        0
 92
        4
 93
        0
300

 40
0.0
140
1.0
 94
        5
 62
     0
340
11
144
4.5
309
CONTENTFORMAT_END
171
     1
301
MARGIN
  1
CELLMARGIN_BEGIN
 40
1.5
 40
1.5
 40
1.5
 40
1.5
 40
1.5
 40
1.5
309
CELLMARGIN_END
 94
        6
 95
        1
302
GRIDFORMAT
  1
GRIDFORMAT_BEGIN
 90
        0
 91
        1
 62
     0
 92
       -2
340
14
 93
        0
 40
0.045
309
GRIDFORMAT_END
 95
        2
302
GRIDFORMAT
  1
GRIDFORMAT_BEGIN
 90
        0
 91
        1
 62
     0
 92
       -2
340
14
 93
        0
 40
0.045
309
GRIDFORMAT_END
 95
        4
302
GRIDFORMAT
  1
GRIDFORMAT_BEGIN
 90
        0
 91
        1
 62
     0
 92
       -2
340
14
 93
        0
 40
0.045
309
GRIDFORMAT_END
 95
        8
302
GRIDFORMAT
  1
GRIDFORMAT_BEGIN
 90
        0
 91
        1
 62
     0
 92
       -2
340
14
 93
        0
 40
0.045
309
GRIDFORMAT_END
 95
       16
302
GRIDFORMAT
  1
GRIDFORMAT_BEGIN
 90
        0
 91
        1
 62
     0
 92
       -2
340
14
 93
        0
 40
0.045
309
GRIDFORMAT_END
 95
       32
302
GRIDFORMAT
  1
GRIDFORMAT_BEGIN
 90
        0
 91
        1
 62
     0
 92
       -2
340
14
 93
        0
 40
0.045
309
GRIDFORMAT_END
309
TABLEFORMAT_END
  1
CELLSTYLE_BEGIN
 90
        2
 91
        1
300
_HEADER
309
CELLSTYLE_END
300
CELLSTYLE
  1
TABLEFORMAT_BEGIN
 90
        5
170
     1
 91
        0
 92
        0
 62
   257
 93
        1
300
CONTENTFORMAT
  1
CONTENTFORMAT_BEGIN
 90
        0
 91
        0
 92
        4
 93
        0
300

 40
0.0
140
1.0
 94
        2
 62
     0
340
11
144
4.5
309
CONTENTFORMAT_END
171
     1
301
MARGIN
  1
CELLMARGIN_BEGIN
 40
1.5
 40
1.5
 40
1.5
 40
1.5
 40
1.5
 40
1.5
309
CELLMARGIN_END
 94
        6
 95
        1
302
GRIDFORMAT
  1
GRIDFORMAT_BEGIN
 90
        0
 91
        1
 62
     0
 92
       -2
340
14
 93
        0
 40
0.045
309
GRIDFORMAT_END
 95
        2
302
GRIDFORMAT
  1
GRIDFORMAT_BEGIN
 90
        0
 91
        1
 62
     0
 92
       -2
340
14
 93
        0
 40
0.045
309
GRIDFORMAT_END
 95
        4
302
GRIDFORMAT
  1
GRIDFORMAT_BEGIN
 90
        0
 91
        1
 62
     0
 92
       -2
340
14
 93
        0
 40
0.045
309
GRIDFORMAT_END
 95
        8
302
GRIDFORMAT
  1
GRIDFORMAT_BEGIN
 90
        0
 91
        1
 62
     0
 92
       -2
340
14
 93
        0
 40
0.045
309
GRIDFORMAT_END
 95
       16
302
GRIDFORMAT
  1
GRIDFORMAT_BEGIN
 90
        0
 91
        1
 62
     0
 92
       -2
340
14
 93
        0
 40
0.045
309
GRIDFORMAT_END
 95
       32
302
GRIDFORMAT
  1
GRIDFORMAT_BEGIN
 90
        0
 91
        1
 62
     0
 92
       -2
340
14
 93
        0
 40
0.045
309
GRIDFORMAT_END
309
TABLEFORMAT_END
  1
CELLSTYLE_BEGIN
 90
        3
 91
        2
300
_DATA
309
CELLSTYLE_END
  0
XRECORD
  5
5A6
102
{ACAD_REACTORS
330
5A5
102
}
330
5A5
100
AcDbXrecord
280
     1
102
RTVSPost2010Prop28
280
     1
102
RTVSPost2010PropOp28
 70
     1
102
RTVSPost2010Prop29
280
     1
102
RTVSPost2010PropOp29
 70
     1
102
RTVSPost2010Prop30
280
     0
102
RTVSPost2010PropOp30
 70
     1
102
RTVSPost2010Prop31
280
     0
102
RTVSPost2010PropOp31
 70
     1
102
RTVSPost2010Prop32
280
     0
102
RTVSPost2010PropOp32
 70
     1
102
RTVSPost2010Prop33
280
     0
102
RTVSPost2010PropOp33
 70
     1
102
RTVSPost2010Prop34
280
     0
102
RTVSPost2010PropOp34
 70
     1
102
RTVSPost2010Prop35
280
     0
102
RTVSPost2010PropOp35
 70
     1
102
RTVSPost2010Prop36
280
     0
102
RTVSPost2010PropOp36
 70
     1
102
RTVSPost2010Prop37
 90
       50
102
RTVSPost2010PropOp37
 70
     1
102
RTVSPost2010Prop38
140
0.0
102
RTVSPost2010PropOp38
 70
     1
102
RTVSPost2010Prop39
140
1.0
102
RTVSPost2010PropOp39
 70
     1
102
RTVSPost2010Prop40
 90
        0
102
RTVSPost2010PropOp40
 70
     1
102
RTVSPost2010Prop41ColorIndex
 90
       18
102
RTVSPost2010Prop41ColorRGB
 90
        0
102
RTVSPost2010PropOp41
 70
     1
102
RTVSPost2010Prop42
 90
       50
102
RTVSPost2010PropOp42
 70
     1
102
RTVSPost2010Prop43
 90
        3
102
RTVSPost2010PropOp43
 70
     1
102
RTVSPost2010Prop44ColorIndex
 90
        5
102
RTVSPost2010Prop44ColorRGB
 90
      255
102
RTVSPost2010PropOp44
 70
     1
102
RTVSPost2010Prop45
280
     0
102
RTVSPost2010PropOp45
 70
     1
102
RTVSPost2010Prop46
 90
       50
102
RTVSPost2010PropOp46
 70
     1
102
RTVSPost2010Prop47
 90
       50
102
RTVSPost2010PropOp47
 70
     1
102
RTVSPost2010Prop48
 90
       50
102
RTVSPost2010PropOp48
 70
     1
102
RTVSPost2010Prop49
280
     0
102
RTVSPost2010PropOp49
 70
     1
102
RTVSPost2010Prop50
 90
       50
102
RTVSPost2010PropOp50
 70
     1
102
RTVSPost2010Prop51ColorIndex
 90
      256
102
RTVSPost2010Prop51ColorRGB
 90
-16777216
102
RTVSPost2010PropOp51
 70
     0
102
RTVSPost2010Prop52
140
1.0
102
RTVSPost2010PropOp52
 70
     0
102
RTVSPost2010Prop53
 90
        2
102
RTVSPost2010PropOp53
 70
     1
102
RTVSPost2010Prop54
  1
strokes_ogs.tif
102
RTVSPost2010PropOp54
 70
     1
102
RTVSPost2010Prop55
280
     0
102
RTVSPost2010PropOp55
 70
     1
102
RTVSPost2010Prop56
140
1.0
102
RTVSPost2010PropOp56
 70
     1
102
RTVSPost2010Prop57
140
1.0
102
RTVSPost2010PropOp57
 70
     1
  0
XRECORD
  5
5AC
102
{ACAD_REACTORS
330
5AB
102
}
330
5AB
100
AcDbXrecord
280
     1
102
RTVSPost2010Prop28
280
     0
102
RTVSPost2010PropOp28
 70
     1
102
RTVSPost2010Prop29
280
     1
102
RTVSPost2010PropOp29
 70
     1
102
RTVSPost2010Prop30
280
     1
102
RTVSPost2010PropOp30
 70
     1
102
RTVSPost2010Prop31
280
     0
102
RTVSPost2010PropOp31
 70
     1
102
RTVSPost2010Prop32
280
     0
102
RTVSPost2010PropOp32
 70
     1
102
RTVSPost2010Prop33
280
     0
102
RTVSPost2010PropOp33
 70
     1
102
RTVSPost2010Prop34
280
     0
102
RTVSPost2010PropOp34
 70
     1
102
RTVSPost2010Prop35
280
     0
102
RTVSPost2010PropOp35
 70
     1
102
RTVSPost2010Prop36
280
     0
102
RTVSPost2010PropOp36
 70
     1
102
RTVSPost2010Prop37
 90
       50
102
RTVSPost2010PropOp37
 70
     1
102
RTVSPost2010Prop38
140
0.0
102
RTVSPost2010PropOp38
 70
     1
102
RTVSPost2010Prop39
140
1.0
102
RTVSPost2010PropOp39
 70
     1
102
RTVSPost2010Prop40
 90
        0
102
RTVSPost2010PropOp40
 70
     1
102
RTVSPost2010Prop41ColorIndex
 90
       18
102
RTVSPost2010Prop41ColorRGB
 90
        0
102
RTVSPost2010PropOp41
 70
     1
102
RTVSPost2010Prop42
 90
       50
102
RTVSPost2010PropOp42
 70
     1
102
RTVSPost2010Prop43
 90
        3
102
RTVSPost2010PropOp43
 70
     1
102
RTVSPost2010Prop44ColorIndex
 90
        5
102
RTVSPost2010Prop44ColorRGB
 90
      255
102
RTVSPost2010PropOp44
 70
     1
102
RTVSPost2010Prop45
280
     0
102
RTVSPost2010PropOp45
 70
     1
102
RTVSPost2010Prop46
 90
       50
102
RTVSPost2010PropOp46
 70
     1
102
RTVSPost2010Prop47
 90
       50
102
RTVSPost2010PropOp47
 70
     1
102
RTVSPost2010Prop48
 90
       50
102
RTVSPost2010PropOp48
 70
     1
102
RTVSPost2010Prop49
280
     0
102
RTVSPost2010PropOp49
 70
     1
102
RTVSPost2010Prop50
 90
       50
102
RTVSPost2010PropOp50
 70
     1
102
RTVSPost2010Prop51ColorIndex
 90
      256
102
RTVSPost2010Prop51ColorRGB
 90
-16777216
102
RTVSPost2010PropOp51
 70
     0
102
RTVSPost2010Prop52
140
1.0
102
RTVSPost2010PropOp52
 70
     0
102
RTVSPost2010Prop53
 90
        2
102
RTVSPost2010PropOp53
 70
     1
102
RTVSPost2010Prop54
  1
strokes_ogs.tif
102
RTVSPost2010PropOp54
 70
     1
102
RTVSPost2010Prop55
280
     0
102
RTVSPost2010PropOp55
 70
     1
102
RTVSPost2010Prop56
140
1.0
102
RTVSPost2010PropOp56
 70
     1
102
RTVSPost2010Prop57
140
1.0
102
RTVSPost2010PropOp57
 70
     1
  0
XRECORD
  5
5B4
102
{ACAD_REACTORS
330
5B3
102
}
330
5B3
100
AcDbXrecord
280
     1
102
RTVSPost2010Prop28
280
     0
102
RTVSPost2010PropOp28
 70
     1
102
RTVSPost2010Prop29
280
     1
102
RTVSPost2010PropOp29
 70
     1
102
RTVSPost2010Prop30
280
     1
102
RTVSPost2010PropOp30
 70
     1
102
RTVSPost2010Prop31
280
     0
102
RTVSPost2010PropOp31
 70
     1
102
RTVSPost2010Prop32
280
     0
102
RTVSPost2010PropOp32
 70
     1
102
RTVSPost2010Prop33
280
     0
102
RTVSPost2010PropOp33
 70
     1
102
RTVSPost2010Prop34
280
     0
102
RTVSPost2010PropOp34
 70
     1
102
RTVSPost2010Prop35
280
     0
102
RTVSPost2010PropOp35
 70
     1
102
RTVSPost2010Prop36
280
     0
102
RTVSPost2010PropOp36
 70
     1
102
RTVSPost2010Prop37
 90
       50
102
RTVSPost2010PropOp37
 70
     1
102
RTVSPost2010Prop38
140
0.0
102
RTVSPost2010PropOp38
 70
     1
102
RTVSPost2010Prop39
140
1.0
102
RTVSPost2010PropOp39
 70
     1
102
RTVSPost2010Prop40
 90
        0
102
RTVSPost2010PropOp40
 70
     1
102
RTVSPost2010Prop41ColorIndex
 90
       18
102
RTVSPost2010Prop41ColorRGB
 90
        0
102
RTVSPost2010PropOp41
 70
     1
102
RTVSPost2010Prop42
 90
       50
102
RTVSPost2010PropOp42
 70
     1
102
RTVSPost2010Prop43
 90
        3
102
RTVSPost2010PropOp43
 70
     1
102
RTVSPost2010Prop44ColorIndex
 90
        5
102
RTVSPost2010Prop44ColorRGB
 90
      255
102
RTVSPost2010PropOp44
 70
     1
102
RTVSPost2010Prop45
280
     0
102
RTVSPost2010PropOp45
 70
     1
102
RTVSPost2010Prop46
 90
       50
102
RTVSPost2010PropOp46
 70
     1
102
RTVSPost2010Prop47
 90
       50
102
RTVSPost2010PropOp47
 70
     1
102
RTVSPost2010Prop48
 90
       50
102
RTVSPost2010PropOp48
 70
     1
102
RTVSPost2010Prop49
280
     0
102
RTVSPost2010PropOp49
 70
     1
102
RTVSPost2010Prop50
 90
       50
102
RTVSPost2010PropOp50
 70
     1
102
RTVSPost2010Prop51ColorIndex
 90
      256
102
RTVSPost2010Prop51ColorRGB
 90
-16777216
102
RTVSPost2010PropOp51
 70
     0
102
RTVSPost2010Prop52
140
1.0
102
RTVSPost2010PropOp52
 70
     0
102
RTVSPost2010Prop53
 90
        2
102
RTVSPost2010PropOp53
 70
     1
102
RTVSPost2010Prop54
  1
strokes_ogs.tif
102
RTVSPost2010PropOp54
 70
     1
102
RTVSPost2010Prop55
280
     0
102
RTVSPost2010PropOp55
 70
     1
102
RTVSPost2010Prop56
140
1.0
102
RTVSPost2010PropOp56
 70
     1
102
RTVSPost2010Prop57
140
1.0
102
RTVSPost2010PropOp57
 70
     1
  0
XRECORD
  5
5BC
102
{ACAD_REACTORS
330
5BB
102
}
330
5BB
100
AcDbXrecord
280
     1
102
RTVSPost2010Prop28
280
     0
102
RTVSPost2010PropOp28
 70
     1
102
RTVSPost2010Prop29
280
     1
102
RTVSPost2010PropOp29
 70
     1
102
RTVSPost2010Prop30
280
     1
102
RTVSPost2010PropOp30
 70
     1
102
RTVSPost2010Prop31
280
     0
102
RTVSPost2010PropOp31
 70
     1
102
RTVSPost2010Prop32
280
     0
102
RTVSPost2010PropOp32
 70
     1
102
RTVSPost2010Prop33
280
     0
102
RTVSPost2010PropOp33
 70
     1
102
RTVSPost2010Prop34
280
     0
102
RTVSPost2010PropOp34
 70
     1
102
RTVSPost2010Prop35
280
     0
102
RTVSPost2010PropOp35
 70
     1
102
RTVSPost2010Prop36
280
     0
102
RTVSPost2010PropOp36
 70
     1
102
RTVSPost2010Prop37
 90
       50
102
RTVSPost2010PropOp37
 70
     1
102
RTVSPost2010Prop38
140
0.0
102
RTVSPost2010PropOp38
 70
     1
102
RTVSPost2010Prop39
140
1.0
102
RTVSPost2010PropOp39
 70
     1
102
RTVSPost2010Prop40
 90
        0
102
RTVSPost2010PropOp40
 70
     1
102
RTVSPost2010Prop41ColorIndex
 90
       18
102
RTVSPost2010Prop41ColorRGB
 90
        0
102
RTVSPost2010PropOp41
 70
     1
102
RTVSPost2010Prop42
 90
       50
102
RTVSPost2010PropOp42
 70
     1
102
RTVSPost2010Prop43
 90
        3
102
RTVSPost2010PropOp43
 70
     1
102
RTVSPost2010Prop44ColorIndex
 90
        5
102
RTVSPost2010Prop44ColorRGB
 90
      255
102
RTVSPost2010PropOp44
 70
     1
102
RTVSPost2010Prop45
280
     0
102
RTVSPost2010PropOp45
 70
     1
102
RTVSPost2010Prop46
 90
       50
102
RTVSPost2010PropOp46
 70
     1
102
RTVSPost2010Prop47
 90
       50
102
RTVSPost2010PropOp47
 70
     1
102
RTVSPost2010Prop48
 90
       50
102
RTVSPost2010PropOp48
 70
     1
102
RTVSPost2010Prop49
280
     0
102
RTVSPost2010PropOp49
 70
     1
102
RTVSPost2010Prop50
 90
       50
102
RTVSPost2010PropOp50
 70
     1
102
RTVSPost2010Prop51ColorIndex
 90
      256
102
RTVSPost2010Prop51ColorRGB
 90
-16777216
102
RTVSPost2010PropOp51
 70
     0
102
RTVSPost2010Prop52
140
1.0
102
RTVSPost2010PropOp52
 70
     0
102
RTVSPost2010Prop53
 90
        2
102
RTVSPost2010PropOp53
 70
     1
102
RTVSPost2010Prop54
  1
strokes_ogs.tif
102
RTVSPost2010PropOp54
 70
     1
102
RTVSPost2010Prop55
280
     0
102
RTVSPost2010PropOp55
 70
     1
102
RTVSPost2010Prop56
140
1.0
102
RTVSPost2010PropOp56
 70
     1
102
RTVSPost2010Prop57
140
1.0
102
RTVSPost2010PropOp57
 70
     1
  0
XRECORD
  5
5B0
102
{ACAD_REACTORS
330
5AF
102
}
330
5AF
100
AcDbXrecord
280
     1
102
RTVSPost2010Prop28
280
     0
102
RTVSPost2010PropOp28
 70
     1
102
RTVSPost2010Prop29
280
     1
102
RTVSPost2010PropOp29
 70
     1
102
RTVSPost2010Prop30
280
     1
102
RTVSPost2010PropOp30
 70
     1
102
RTVSPost2010Prop31
280
     0
102
RTVSPost2010PropOp31
 70
     1
102
RTVSPost2010Prop32
280
     0
102
RTVSPost2010PropOp32
 70
     1
102
RTVSPost2010Prop33
280
     0
102
RTVSPost2010PropOp33
 70
     1
102
RTVSPost2010Prop34
280
     0
102
RTVSPost2010PropOp34
 70
     1
102
RTVSPost2010Prop35
280
     0
102
RTVSPost2010PropOp35
 70
     1
102
RTVSPost2010Prop36
280
     0
102
RTVSPost2010PropOp36
 70
     1
102
RTVSPost2010Prop37
 90
       50
102
RTVSPost2010PropOp37
 70
     1
102
RTVSPost2010Prop38
140
0.0
102
RTVSPost2010PropOp38
 70
     1
102
RTVSPost2010Prop39
140
1.0
102
RTVSPost2010PropOp39
 70
     1
102
RTVSPost2010Prop40
 90
        0
102
RTVSPost2010PropOp40
 70
     1
102
RTVSPost2010Prop41ColorIndex
 90
       18
102
RTVSPost2010Prop41ColorRGB
 90
        0
102
RTVSPost2010PropOp41
 70
     1
102
RTVSPost2010Prop42
 90
       50
102
RTVSPost2010PropOp42
 70
     1
102
RTVSPost2010Prop43
 90
        3
102
RTVSPost2010PropOp43
 70
     1
102
RTVSPost2010Prop44ColorIndex
 90
        5
102
RTVSPost2010Prop44ColorRGB
 90
      255
102
RTVSPost2010PropOp44
 70
     1
102
RTVSPost2010Prop45
280
     0
102
RTVSPost2010PropOp45
 70
     1
102
RTVSPost2010Prop46
 90
       50
102
RTVSPost2010PropOp46
 70
     1
102
RTVSPost2010Prop47
 90
       50
102
RTVSPost2010PropOp47
 70
     1
102
RTVSPost2010Prop48
 90
       50
102
RTVSPost2010PropOp48
 70
     1
102
RTVSPost2010Prop49
280
     0
102
RTVSPost2010PropOp49
 70
     1
102
RTVSPost2010Prop50
 90
       50
102
RTVSPost2010PropOp50
 70
     1
102
RTVSPost2010Prop51ColorIndex
 90
      256
102
RTVSPost2010Prop51ColorRGB
 90
-16777216
102
RTVSPost2010PropOp51
 70
     0
102
RTVSPost2010Prop52
140
1.0
102
RTVSPost2010PropOp52
 70
     0
102
RTVSPost2010Prop53
 90
        2
102
RTVSPost2010PropOp53
 70
     1
102
RTVSPost2010Prop54
  1
strokes_ogs.tif
102
RTVSPost2010PropOp54
 70
     1
102
RTVSPost2010Prop55
280
     0
102
RTVSPost2010PropOp55
 70
     1
102
RTVSPost2010Prop56
140
1.0
102
RTVSPost2010PropOp56
 70
     1
102
RTVSPost2010Prop57
140
1.0
102
RTVSPost2010PropOp57
 70
     1
  0
XRECORD
  5
5B2
102
{ACAD_REACTORS
330
5B1
102
}
330
5B1
100
AcDbXrecord
280
     1
102
RTVSPost2010Prop28
280
     0
102
RTVSPost2010PropOp28
 70
     1
102
RTVSPost2010Prop29
280
     1
102
RTVSPost2010PropOp29
 70
     1
102
RTVSPost2010Prop30
280
     1
102
RTVSPost2010PropOp30
 70
     1
102
RTVSPost2010Prop31
280
     0
102
RTVSPost2010PropOp31
 70
     1
102
RTVSPost2010Prop32
280
     0
102
RTVSPost2010PropOp32
 70
     1
102
RTVSPost2010Prop33
280
     0
102
RTVSPost2010PropOp33
 70
     1
102
RTVSPost2010Prop34
280
     0
102
RTVSPost2010PropOp34
 70
     1
102
RTVSPost2010Prop35
280
     0
102
RTVSPost2010PropOp35
 70
     1
102
RTVSPost2010Prop36
280
     0
102
RTVSPost2010PropOp36
 70
     1
102
RTVSPost2010Prop37
 90
       50
102
RTVSPost2010PropOp37
 70
     1
102
RTVSPost2010Prop38
140
0.0
102
RTVSPost2010PropOp38
 70
     1
102
RTVSPost2010Prop39
140
1.0
102
RTVSPost2010PropOp39
 70
     1
102
RTVSPost2010Prop40
 90
        0
102
RTVSPost2010PropOp40
 70
     1
102
RTVSPost2010Prop41ColorIndex
 90
       18
102
RTVSPost2010Prop41ColorRGB
 90
        0
102
RTVSPost2010PropOp41
 70
     1
102
RTVSPost2010Prop42
 90
       50
102
RTVSPost2010PropOp42
 70
     1
102
RTVSPost2010Prop43
 90
        3
102
RTVSPost2010PropOp43
 70
     1
102
RTVSPost2010Prop44ColorIndex
 90
        5
102
RTVSPost2010Prop44ColorRGB
 90
      255
102
RTVSPost2010PropOp44
 70
     1
102
RTVSPost2010Prop45
280
     0
102
RTVSPost2010PropOp45
 70
     1
102
RTVSPost2010Prop46
 90
       50
102
RTVSPost2010PropOp46
 70
     1
102
RTVSPost2010Prop47
 90
       50
102
RTVSPost2010PropOp47
 70
     1
102
RTVSPost2010Prop48
 90
       50
102
RTVSPost2010PropOp48
 70
     1
102
RTVSPost2010Prop49
280
     0
102
RTVSPost2010PropOp49
 70
     1
102
RTVSPost2010Prop50
 90
       50
102
RTVSPost2010PropOp50
 70
     1
102
RTVSPost2010Prop51ColorIndex
 90
      256
102
RTVSPost2010Prop51ColorRGB
 90
-16777216
102
RTVSPost2010PropOp51
 70
     0
102
RTVSPost2010Prop52
140
1.0
102
RTVSPost2010PropOp52
 70
     0
102
RTVSPost2010Prop53
 90
        2
102
RTVSPost2010PropOp53
 70
     1
102
RTVSPost2010Prop54
  1
strokes_ogs.tif
102
RTVSPost2010PropOp54
 70
     1
102
RTVSPost2010Prop55
280
     0
102
RTVSPost2010PropOp55
 70
     1
102
RTVSPost2010Prop56
140
1.0
102
RTVSPost2010PropOp56
 70
     1
102
RTVSPost2010Prop57
140
1.0
102
RTVSPost2010PropOp57
 70
     1
  0
XRECORD
  5
5C2
102
{ACAD_REACTORS
330
5C1
102
}
330
5C1
100
AcDbXrecord
280
     1
102
RTVSPost2010Prop28
280
     0
102
RTVSPost2010PropOp28
 70
     0
102
RTVSPost2010Prop29
280
     1
102
RTVSPost2010PropOp29
 70
     0
102
RTVSPost2010Prop30
280
     1
102
RTVSPost2010PropOp30
 70
     0
102
RTVSPost2010Prop31
280
     0
102
RTVSPost2010PropOp31
 70
     0
102
RTVSPost2010Prop32
280
     0
102
RTVSPost2010PropOp32
 70
     0
102
RTVSPost2010Prop33
280
     0
102
RTVSPost2010PropOp33
 70
     0
102
RTVSPost2010Prop34
280
     0
102
RTVSPost2010PropOp34
 70
     0
102
RTVSPost2010Prop35
280
     0
102
RTVSPost2010PropOp35
 70
     0
102
RTVSPost2010Prop36
280
     0
102
RTVSPost2010PropOp36
 70
     0
102
RTVSPost2010Prop37
 90
       50
102
RTVSPost2010PropOp37
 70
     0
102
RTVSPost2010Prop38
140
0.0
102
RTVSPost2010PropOp38
 70
     0
102
RTVSPost2010Prop39
140
1.0
102
RTVSPost2010PropOp39
 70
     0
102
RTVSPost2010Prop40
 90
        0
102
RTVSPost2010PropOp40
 70
     0
102
RTVSPost2010Prop41ColorIndex
 90
       18
102
RTVSPost2010Prop41ColorRGB
 90
        0
102
RTVSPost2010PropOp41
 70
     0
102
RTVSPost2010Prop42
 90
       50
102
RTVSPost2010PropOp42
 70
     0
102
RTVSPost2010Prop43
 90
        3
102
RTVSPost2010PropOp43
 70
     0
102
RTVSPost2010Prop44ColorIndex
 90
        5
102
RTVSPost2010Prop44ColorRGB
 90
      255
102
RTVSPost2010PropOp44
 70
     0
102
RTVSPost2010Prop45
280
     0
102
RTVSPost2010PropOp45
 70
     0
102
RTVSPost2010Prop46
 90
       50
102
RTVSPost2010PropOp46
 70
     0
102
RTVSPost2010Prop47
 90
       50
102
RTVSPost2010PropOp47
 70
     0
102
RTVSPost2010Prop48
 90
       50
102
RTVSPost2010PropOp48
 70
     0
102
RTVSPost2010Prop49
280
     0
102
RTVSPost2010PropOp49
 70
     0
102
RTVSPost2010Prop50
 90
       50
102
RTVSPost2010PropOp50
 70
     0
102
RTVSPost2010Prop51ColorIndex
 90
      256
102
RTVSPost2010Prop51ColorRGB
 90
-16777216
102
RTVSPost2010PropOp51
 70
     0
102
RTVSPost2010Prop52
140
1.0
102
RTVSPost2010PropOp52
 70
     0
102
RTVSPost2010Prop53
 90
        2
102
RTVSPost2010PropOp53
 70
     0
102
RTVSPost2010Prop54
  1
strokes_ogs.tif
102
RTVSPost2010PropOp54
 70
     0
102
RTVSPost2010Prop55
280
     0
102
RTVSPost2010PropOp55
 70
     0
102
RTVSPost2010Prop56
140
1.0
102
RTVSPost2010PropOp56
 70
     0
102
RTVSPost2010Prop57
140
1.0
102
RTVSPost2010PropOp57
 70
     0
  0
XRECORD
  5
5BA
102
{ACAD_REACTORS
330
5B9
102
}
330
5B9
100
AcDbXrecord
280
     1
102
RTVSPost2010Prop28
280
     0
102
RTVSPost2010PropOp28
 70
     1
102
RTVSPost2010Prop29
280
     1
102
RTVSPost2010PropOp29
 70
     1
102
RTVSPost2010Prop30
280
     1
102
RTVSPost2010PropOp30
 70
     1
102
RTVSPost2010Prop31
280
     0
102
RTVSPost2010PropOp31
 70
     1
102
RTVSPost2010Prop32
280
     0
102
RTVSPost2010PropOp32
 70
     1
102
RTVSPost2010Prop33
280
     0
102
RTVSPost2010PropOp33
 70
     1
102
RTVSPost2010Prop34
280
     0
102
RTVSPost2010PropOp34
 70
     1
102
RTVSPost2010Prop35
280
     0
102
RTVSPost2010PropOp35
 70
     1
102
RTVSPost2010Prop36
280
     0
102
RTVSPost2010PropOp36
 70
     1
102
RTVSPost2010Prop37
 90
       50
102
RTVSPost2010PropOp37
 70
     1
102
RTVSPost2010Prop38
140
0.0
102
RTVSPost2010PropOp38
 70
     1
102
RTVSPost2010Prop39
140
1.0
102
RTVSPost2010PropOp39
 70
     1
102
RTVSPost2010Prop40
 90
        0
102
RTVSPost2010PropOp40
 70
     1
102
RTVSPost2010Prop41ColorIndex
 90
       18
102
RTVSPost2010Prop41ColorRGB
 90
        0
102
RTVSPost2010PropOp41
 70
     1
102
RTVSPost2010Prop42
 90
       50
102
RTVSPost2010PropOp42
 70
     1
102
RTVSPost2010Prop43
 90
        3
102
RTVSPost2010PropOp43
 70
     1
102
RTVSPost2010Prop44ColorIndex
 90
        5
102
RTVSPost2010Prop44ColorRGB
 90
      255
102
RTVSPost2010PropOp44
 70
     1
102
RTVSPost2010Prop45
280
     0
102
RTVSPost2010PropOp45
 70
     1
102
RTVSPost2010Prop46
 90
       50
102
RTVSPost2010PropOp46
 70
     1
102
RTVSPost2010Prop47
 90
       50
102
RTVSPost2010PropOp47
 70
     1
102
RTVSPost2010Prop48
 90
       50
102
RTVSPost2010PropOp48
 70
     1
102
RTVSPost2010Prop49
280
     0
102
RTVSPost2010PropOp49
 70
     1
102
RTVSPost2010Prop50
 90
       50
102
RTVSPost2010PropOp50
 70
     1
102
RTVSPost2010Prop51ColorIndex
 90
      256
102
RTVSPost2010Prop51ColorRGB
 90
-16777216
102
RTVSPost2010PropOp51
 70
     0
102
RTVSPost2010Prop52
140
1.0
102
RTVSPost2010PropOp52
 70
     0
102
RTVSPost2010Prop53
 90
        2
102
RTVSPost2010PropOp53
 70
     1
102
RTVSPost2010Prop54
  1
strokes_ogs.tif
102
RTVSPost2010PropOp54
 70
     1
102
RTVSPost2010Prop55
280
     0
102
RTVSPost2010PropOp55
 70
     1
102
RTVSPost2010Prop56
140
1.0
102
RTVSPost2010PropOp56
 70
     1
102
RTVSPost2010Prop57
140
1.0
102
RTVSPost2010PropOp57
 70
     1
  0
XRECORD
  5
59E
102
{ACAD_REACTORS
330
59D
102
}
330
59D
100
AcDbXrecord
280
     1
102
RTVSPost2010Prop28
280
     0
102
RTVSPost2010PropOp28
 70
     1
102
RTVSPost2010Prop29
280
     1
102
RTVSPost2010PropOp29
 70
     1
102
RTVSPost2010Prop30
280
     1
102
RTVSPost2010PropOp30
 70
     1
102
RTVSPost2010Prop31
280
     0
102
RTVSPost2010PropOp31
 70
     1
102
RTVSPost2010Prop32
280
     0
102
RTVSPost2010PropOp32
 70
     1
102
RTVSPost2010Prop33
280
     0
102
RTVSPost2010PropOp33
 70
     1
102
RTVSPost2010Prop34
280
     0
102
RTVSPost2010PropOp34
 70
     1
102
RTVSPost2010Prop35
280
     0
102
RTVSPost2010PropOp35
 70
     1
102
RTVSPost2010Prop36
280
     0
102
RTVSPost2010PropOp36
 70
     1
102
RTVSPost2010Prop37
 90
       50
102
RTVSPost2010PropOp37
 70
     1
102
RTVSPost2010Prop38
140
0.0
102
RTVSPost2010PropOp38
 70
     1
102
RTVSPost2010Prop39
140
1.0
102
RTVSPost2010PropOp39
 70
     1
102
RTVSPost2010Prop40
 90
        0
102
RTVSPost2010PropOp40
 70
     1
102
RTVSPost2010Prop41ColorIndex
 90
       18
102
RTVSPost2010Prop41ColorRGB
 90
        0
102
RTVSPost2010PropOp41
 70
     1
102
RTVSPost2010Prop42
 90
       50
102
RTVSPost2010PropOp42
 70
     1
102
RTVSPost2010Prop43
 90
        3
102
RTVSPost2010PropOp43
 70
     1
102
RTVSPost2010Prop44ColorIndex
 90
        5
102
RTVSPost2010Prop44ColorRGB
 90
      255
102
RTVSPost2010PropOp44
 70
     1
102
RTVSPost2010Prop45
280
     0
102
RTVSPost2010PropOp45
 70
     1
102
RTVSPost2010Prop46
 90
       50
102
RTVSPost2010PropOp46
 70
     1
102
RTVSPost2010Prop47
 90
       50
102
RTVSPost2010PropOp47
 70
     1
102
RTVSPost2010Prop48
 90
       50
102
RTVSPost2010PropOp48
 70
     1
102
RTVSPost2010Prop49
280
     0
102
RTVSPost2010PropOp49
 70
     1
102
RTVSPost2010Prop50
 90
       50
102
RTVSPost2010PropOp50
 70
     1
102
RTVSPost2010Prop51ColorIndex
 90
      256
102
RTVSPost2010Prop51ColorRGB
 90
-16777216
102
RTVSPost2010PropOp51
 70
     0
102
RTVSPost2010Prop52
140
1.0
102
RTVSPost2010PropOp52
 70
     0
102
RTVSPost2010Prop53
 90
        2
102
RTVSPost2010PropOp53
 70
     1
102
RTVSPost2010Prop54
  1
strokes_ogs.tif
102
RTVSPost2010PropOp54
 70
     1
102
RTVSPost2010Prop55
280
     0
102
RTVSPost2010PropOp55
 70
     1
102
RTVSPost2010Prop56
140
1.0
102
RTVSPost2010PropOp56
 70
     1
102
RTVSPost2010Prop57
140
1.0
102
RTVSPost2010PropOp57
 70
     1
  0
XRECORD
  5
5A0
102
{ACAD_REACTORS
330
59F
102
}
330
59F
100
AcDbXrecord
280
     1
102
RTVSPost2010Prop28
280
     0
102
RTVSPost2010PropOp28
 70
     1
102
RTVSPost2010Prop29
280
     1
102
RTVSPost2010PropOp29
 70
     1
102
RTVSPost2010Prop30
280
     1
102
RTVSPost2010PropOp30
 70
     1
102
RTVSPost2010Prop31
280
     0
102
RTVSPost2010PropOp31
 70
     1
102
RTVSPost2010Prop32
280
     0
102
RTVSPost2010PropOp32
 70
     1
102
RTVSPost2010Prop33
280
     0
102
RTVSPost2010PropOp33
 70
     1
102
RTVSPost2010Prop34
280
     0
102
RTVSPost2010PropOp34
 70
     1
102
RTVSPost2010Prop35
280
     0
102
RTVSPost2010PropOp35
 70
     1
102
RTVSPost2010Prop36
280
     0
102
RTVSPost2010PropOp36
 70
     1
102
RTVSPost2010Prop37
 90
       50
102
RTVSPost2010PropOp37
 70
     1
102
RTVSPost2010Prop38
140
0.0
102
RTVSPost2010PropOp38
 70
     1
102
RTVSPost2010Prop39
140
1.0
102
RTVSPost2010PropOp39
 70
     1
102
RTVSPost2010Prop40
 90
        0
102
RTVSPost2010PropOp40
 70
     1
102
RTVSPost2010Prop41ColorIndex
 90
       18
102
RTVSPost2010Prop41ColorRGB
 90
        0
102
RTVSPost2010PropOp41
 70
     1
102
RTVSPost2010Prop42
 90
       50
102
RTVSPost2010PropOp42
 70
     1
102
RTVSPost2010Prop43
 90
        3
102
RTVSPost2010PropOp43
 70
     1
102
RTVSPost2010Prop44ColorIndex
 90
        5
102
RTVSPost2010Prop44ColorRGB
 90
      255
102
RTVSPost2010PropOp44
 70
     1
102
RTVSPost2010Prop45
280
     0
102
RTVSPost2010PropOp45
 70
     1
102
RTVSPost2010Prop46
 90
       50
102
RTVSPost2010PropOp46
 70
     1
102
RTVSPost2010Prop47
 90
       50
102
RTVSPost2010PropOp47
 70
     1
102
RTVSPost2010Prop48
 90
       50
102
RTVSPost2010PropOp48
 70
     1
102
RTVSPost2010Prop49
280
     0
102
RTVSPost2010PropOp49
 70
     1
102
RTVSPost2010Prop50
 90
       50
102
RTVSPost2010PropOp50
 70
     1
102
RTVSPost2010Prop51ColorIndex
 90
      256
102
RTVSPost2010Prop51ColorRGB
 90
-16777216
102
RTVSPost2010PropOp51
 70
     0
102
RTVSPost2010Prop52
140
1.0
102
RTVSPost2010PropOp52
 70
     0
102
RTVSPost2010Prop53
 90
        2
102
RTVSPost2010PropOp53
 70
     1
102
RTVSPost2010Prop54
  1
strokes_ogs.tif
102
RTVSPost2010PropOp54
 70
     1
102
RTVSPost2010Prop55
280
     0
102
RTVSPost2010PropOp55
 70
     1
102
RTVSPost2010Prop56
140
1.0
102
RTVSPost2010PropOp56
 70
     1
102
RTVSPost2010Prop57
140
1.0
102
RTVSPost2010PropOp57
 70
     1
  0
XRECORD
  5
5A2
102
{ACAD_REACTORS
330
5A1
102
}
330
5A1
100
AcDbXrecord
280
     1
102
RTVSPost2010Prop28
280
     0
102
RTVSPost2010PropOp28
 70
     1
102
RTVSPost2010Prop29
280
     1
102
RTVSPost2010PropOp29
 70
     1
102
RTVSPost2010Prop30
280
     1
102
RTVSPost2010PropOp30
 70
     1
102
RTVSPost2010Prop31
280
     0
102
RTVSPost2010PropOp31
 70
     1
102
RTVSPost2010Prop32
280
     0
102
RTVSPost2010PropOp32
 70
     1
102
RTVSPost2010Prop33
280
     0
102
RTVSPost2010PropOp33
 70
     1
102
RTVSPost2010Prop34
280
     0
102
RTVSPost2010PropOp34
 70
     1
102
RTVSPost2010Prop35
280
     0
102
RTVSPost2010PropOp35
 70
     1
102
RTVSPost2010Prop36
280
     0
102
RTVSPost2010PropOp36
 70
     1
102
RTVSPost2010Prop37
 90
       50
102
RTVSPost2010PropOp37
 70
     1
102
RTVSPost2010Prop38
140
0.0
102
RTVSPost2010PropOp38
 70
     1
102
RTVSPost2010Prop39
140
1.0
102
RTVSPost2010PropOp39
 70
     1
102
RTVSPost2010Prop40
 90
        0
102
RTVSPost2010PropOp40
 70
     1
102
RTVSPost2010Prop41ColorIndex
 90
       18
102
RTVSPost2010Prop41ColorRGB
 90
        0
102
RTVSPost2010PropOp41
 70
     1
102
RTVSPost2010Prop42
 90
       50
102
RTVSPost2010PropOp42
 70
     1
102
RTVSPost2010Prop43
 90
        3
102
RTVSPost2010PropOp43
 70
     1
102
RTVSPost2010Prop44ColorIndex
 90
        5
102
RTVSPost2010Prop44ColorRGB
 90
      255
102
RTVSPost2010PropOp44
 70
     1
102
RTVSPost2010Prop45
280
     0
102
RTVSPost2010PropOp45
 70
     1
102
RTVSPost2010Prop46
 90
       50
102
RTVSPost2010PropOp46
 70
     1
102
RTVSPost2010Prop47
 90
       50
102
RTVSPost2010PropOp47
 70
     1
102
RTVSPost2010Prop48
 90
       50
102
RTVSPost2010PropOp48
 70
     1
102
RTVSPost2010Prop49
280
     0
102
RTVSPost2010PropOp49
 70
     1
102
RTVSPost2010Prop50
 90
       50
102
RTVSPost2010PropOp50
 70
     1
102
RTVSPost2010Prop51ColorIndex
 90
      256
102
RTVSPost2010Prop51ColorRGB
 90
-16777216
102
RTVSPost2010PropOp51
 70
     0
102
RTVSPost2010Prop52
140
1.0
102
RTVSPost2010PropOp52
 70
     0
102
RTVSPost2010Prop53
 90
        2
102
RTVSPost2010PropOp53
 70
     1
102
RTVSPost2010Prop54
  1
strokes_ogs.tif
102
RTVSPost2010PropOp54
 70
     1
102
RTVSPost2010Prop55
280
     0
102
RTVSPost2010PropOp55
 70
     1
102
RTVSPost2010Prop56
140
1.0
102
RTVSPost2010PropOp56
 70
     1
102
RTVSPost2010Prop57
140
1.0
102
RTVSPost2010PropOp57
 70
     1
  0
XRECORD
  5
5A4
102
{ACAD_REACTORS
330
5A3
102
}
330
5A3
100
AcDbXrecord
280
     1
102
RTVSPost2010Prop28
280
     0
102
RTVSPost2010PropOp28
 70
     1
102
RTVSPost2010Prop29
280
     1
102
RTVSPost2010PropOp29
 70
     1
102
RTVSPost2010Prop30
280
     1
102
RTVSPost2010PropOp30
 70
     1
102
RTVSPost2010Prop31
280
     0
102
RTVSPost2010PropOp31
 70
     1
102
RTVSPost2010Prop32
280
     0
102
RTVSPost2010PropOp32
 70
     1
102
RTVSPost2010Prop33
280
     0
102
RTVSPost2010PropOp33
 70
     1
102
RTVSPost2010Prop34
280
     0
102
RTVSPost2010PropOp34
 70
     1
102
RTVSPost2010Prop35
280
     0
102
RTVSPost2010PropOp35
 70
     1
102
RTVSPost2010Prop36
280
     0
102
RTVSPost2010PropOp36
 70
     1
102
RTVSPost2010Prop37
 90
       50
102
RTVSPost2010PropOp37
 70
     1
102
RTVSPost2010Prop38
140
0.0
102
RTVSPost2010PropOp38
 70
     1
102
RTVSPost2010Prop39
140
1.0
102
RTVSPost2010PropOp39
 70
     1
102
RTVSPost2010Prop40
 90
        0
102
RTVSPost2010PropOp40
 70
     1
102
RTVSPost2010Prop41ColorIndex
 90
       18
102
RTVSPost2010Prop41ColorRGB
 90
        0
102
RTVSPost2010PropOp41
 70
     1
102
RTVSPost2010Prop42
 90
       50
102
RTVSPost2010PropOp42
 70
     1
102
RTVSPost2010Prop43
 90
        3
102
RTVSPost2010PropOp43
 70
     1
102
RTVSPost2010Prop44ColorIndex
 90
        5
102
RTVSPost2010Prop44ColorRGB
 90
      255
102
RTVSPost2010PropOp44
 70
     1
102
RTVSPost2010Prop45
280
     0
102
RTVSPost2010PropOp45
 70
     1
102
RTVSPost2010Prop46
 90
       50
102
RTVSPost2010PropOp46
 70
     1
102
RTVSPost2010Prop47
 90
       50
102
RTVSPost2010PropOp47
 70
     1
102
RTVSPost2010Prop48
 90
       50
102
RTVSPost2010PropOp48
 70
     1
102
RTVSPost2010Prop49
280
     0
102
RTVSPost2010PropOp49
 70
     1
102
RTVSPost2010Prop50
 90
       50
102
RTVSPost2010PropOp50
 70
     1
102
RTVSPost2010Prop51ColorIndex
 90
      256
102
RTVSPost2010Prop51ColorRGB
 90
-16777216
102
RTVSPost2010PropOp51
 70
     0
102
RTVSPost2010Prop52
140
1.0
102
RTVSPost2010PropOp52
 70
     0
102
RTVSPost2010Prop53
 90
        2
102
RTVSPost2010PropOp53
 70
     1
102
RTVSPost2010Prop54
  1
strokes_ogs.tif
102
RTVSPost2010PropOp54
 70
     1
102
RTVSPost2010Prop55
280
     0
102
RTVSPost2010PropOp55
 70
     1
102
RTVSPost2010Prop56
140
1.0
102
RTVSPost2010PropOp56
 70
     1
102
RTVSPost2010Prop57
140
1.0
102
RTVSPost2010PropOp57
 70
     1
  0
XRECORD
  5
5AA
102
{ACAD_REACTORS
330
5A9
102
}
330
5A9
100
AcDbXrecord
280
     1
102
RTVSPost2010Prop28
280
     0
102
RTVSPost2010PropOp28
 70
     1
102
RTVSPost2010Prop29
280
     1
102
RTVSPost2010PropOp29
 70
     1
102
RTVSPost2010Prop30
280
     1
102
RTVSPost2010PropOp30
 70
     1
102
RTVSPost2010Prop31
280
     0
102
RTVSPost2010PropOp31
 70
     1
102
RTVSPost2010Prop32
280
     0
102
RTVSPost2010PropOp32
 70
     1
102
RTVSPost2010Prop33
280
     0
102
RTVSPost2010PropOp33
 70
     1
102
RTVSPost2010Prop34
280
     0
102
RTVSPost2010PropOp34
 70
     1
102
RTVSPost2010Prop35
280
     0
102
RTVSPost2010PropOp35
 70
     1
102
RTVSPost2010Prop36
280
     0
102
RTVSPost2010PropOp36
 70
     1
102
RTVSPost2010Prop37
 90
       50
102
RTVSPost2010PropOp37
 70
     1
102
RTVSPost2010Prop38
140
0.0
102
RTVSPost2010PropOp38
 70
     1
102
RTVSPost2010Prop39
140
1.0
102
RTVSPost2010PropOp39
 70
     1
102
RTVSPost2010Prop40
 90
        0
102
RTVSPost2010PropOp40
 70
     1
102
RTVSPost2010Prop41ColorIndex
 90
       18
102
RTVSPost2010Prop41ColorRGB
 90
        0
102
RTVSPost2010PropOp41
 70
     1
102
RTVSPost2010Prop42
 90
       50
102
RTVSPost2010PropOp42
 70
     1
102
RTVSPost2010Prop43
 90
        3
102
RTVSPost2010PropOp43
 70
     1
102
RTVSPost2010Prop44ColorIndex
 90
        5
102
RTVSPost2010Prop44ColorRGB
 90
      255
102
RTVSPost2010PropOp44
 70
     1
102
RTVSPost2010Prop45
280
     0
102
RTVSPost2010PropOp45
 70
     1
102
RTVSPost2010Prop46
 90
       50
102
RTVSPost2010PropOp46
 70
     1
102
RTVSPost2010Prop47
 90
       50
102
RTVSPost2010PropOp47
 70
     1
102
RTVSPost2010Prop48
 90
       50
102
RTVSPost2010PropOp48
 70
     1
102
RTVSPost2010Prop49
280
     0
102
RTVSPost2010PropOp49
 70
     1
102
RTVSPost2010Prop50
 90
       50
102
RTVSPost2010PropOp50
 70
     1
102
RTVSPost2010Prop51ColorIndex
 90
      256
102
RTVSPost2010Prop51ColorRGB
 90
-16777216
102
RTVSPost2010PropOp51
 70
     0
102
RTVSPost2010Prop52
140
1.0
102
RTVSPost2010PropOp52
 70
     0
102
RTVSPost2010Prop53
 90
        2
102
RTVSPost2010PropOp53
 70
     1
102
RTVSPost2010Prop54
  1
strokes_ogs.tif
102
RTVSPost2010PropOp54
 70
     1
102
RTVSPost2010Prop55
280
     0
102
RTVSPost2010PropOp55
 70
     1
102
RTVSPost2010Prop56
140
1.0
102
RTVSPost2010PropOp56
 70
     1
102
RTVSPost2010Prop57
140
1.0
102
RTVSPost2010PropOp57
 70
     1
  0
XRECORD
  5
5BE
102
{ACAD_REACTORS
330
5BD
102
}
330
5BD
100
AcDbXrecord
280
     1
102
RTVSPost2010Prop28
280
     0
102
RTVSPost2010PropOp28
 70
     0
102
RTVSPost2010Prop29
280
     1
102
RTVSPost2010PropOp29
 70
     0
102
RTVSPost2010Prop30
280
     1
102
RTVSPost2010PropOp30
 70
     0
102
RTVSPost2010Prop31
280
     0
102
RTVSPost2010PropOp31
 70
     0
102
RTVSPost2010Prop32
280
     0
102
RTVSPost2010PropOp32
 70
     0
102
RTVSPost2010Prop33
280
     0
102
RTVSPost2010PropOp33
 70
     0
102
RTVSPost2010Prop34
280
     0
102
RTVSPost2010PropOp34
 70
     0
102
RTVSPost2010Prop35
280
     0
102
RTVSPost2010PropOp35
 70
     0
102
RTVSPost2010Prop36
280
     0
102
RTVSPost2010PropOp36
 70
     0
102
RTVSPost2010Prop37
 90
       50
102
RTVSPost2010PropOp37
 70
     0
102
RTVSPost2010Prop38
140
0.0
102
RTVSPost2010PropOp38
 70
     0
102
RTVSPost2010Prop39
140
1.0
102
RTVSPost2010PropOp39
 70
     0
102
RTVSPost2010Prop40
 90
        0
102
RTVSPost2010PropOp40
 70
     0
102
RTVSPost2010Prop41ColorIndex
 90
       18
102
RTVSPost2010Prop41ColorRGB
 90
        0
102
RTVSPost2010PropOp41
 70
     0
102
RTVSPost2010Prop42
 90
       50
102
RTVSPost2010PropOp42
 70
     0
102
RTVSPost2010Prop43
 90
        3
102
RTVSPost2010PropOp43
 70
     0
102
RTVSPost2010Prop44ColorIndex
 90
        5
102
RTVSPost2010Prop44ColorRGB
 90
      255
102
RTVSPost2010PropOp44
 70
     0
102
RTVSPost2010Prop45
280
     0
102
RTVSPost2010PropOp45
 70
     0
102
RTVSPost2010Prop46
 90
       50
102
RTVSPost2010PropOp46
 70
     0
102
RTVSPost2010Prop47
 90
       50
102
RTVSPost2010PropOp47
 70
     0
102
RTVSPost2010Prop48
 90
       50
102
RTVSPost2010PropOp48
 70
     0
102
RTVSPost2010Prop49
280
     0
102
RTVSPost2010PropOp49
 70
     0
102
RTVSPost2010Prop50
 90
       50
102
RTVSPost2010PropOp50
 70
     0
102
RTVSPost2010Prop51ColorIndex
 90
      256
102
RTVSPost2010Prop51ColorRGB
 90
-16777216
102
RTVSPost2010PropOp51
 70
     0
102
RTVSPost2010Prop52
140
1.0
102
RTVSPost2010PropOp52
 70
     0
102
RTVSPost2010Prop53
 90
        2
102
RTVSPost2010PropOp53
 70
     0
102
RTVSPost2010Prop54
  1
strokes_ogs.tif
102
RTVSPost2010PropOp54
 70
     0
102
RTVSPost2010Prop55
280
     0
102
RTVSPost2010PropOp55
 70
     0
102
RTVSPost2010Prop56
140
1.0
102
RTVSPost2010PropOp56
 70
     0
102
RTVSPost2010Prop57
140
1.0
102
RTVSPost2010PropOp57
 70
     0
  0
XRECORD
  5
5B8
102
{ACAD_REACTORS
330
5B7
102
}
330
5B7
100
AcDbXrecord
280
     1
102
RTVSPost2010Prop28
280
     0
102
RTVSPost2010PropOp28
 70
     1
102
RTVSPost2010Prop29
280
     1
102
RTVSPost2010PropOp29
 70
     1
102
RTVSPost2010Prop30
280
     1
102
RTVSPost2010PropOp30
 70
     1
102
RTVSPost2010Prop31
280
     0
102
RTVSPost2010PropOp31
 70
     1
102
RTVSPost2010Prop32
280
     0
102
RTVSPost2010PropOp32
 70
     1
102
RTVSPost2010Prop33
280
     0
102
RTVSPost2010PropOp33
 70
     1
102
RTVSPost2010Prop34
280
     0
102
RTVSPost2010PropOp34
 70
     1
102
RTVSPost2010Prop35
280
     0
102
RTVSPost2010PropOp35
 70
     1
102
RTVSPost2010Prop36
280
     0
102
RTVSPost2010PropOp36
 70
     1
102
RTVSPost2010Prop37
 90
       50
102
RTVSPost2010PropOp37
 70
     1
102
RTVSPost2010Prop38
140
0.0
102
RTVSPost2010PropOp38
 70
     1
102
RTVSPost2010Prop39
140
1.0
102
RTVSPost2010PropOp39
 70
     1
102
RTVSPost2010Prop40
 90
        0
102
RTVSPost2010PropOp40
 70
     1
102
RTVSPost2010Prop41ColorIndex
 90
       18
102
RTVSPost2010Prop41ColorRGB
 90
        0
102
RTVSPost2010PropOp41
 70
     1
102
RTVSPost2010Prop42
 90
       50
102
RTVSPost2010PropOp42
 70
     1
102
RTVSPost2010Prop43
 90
        3
102
RTVSPost2010PropOp43
 70
     1
102
RTVSPost2010Prop44ColorIndex
 90
        5
102
RTVSPost2010Prop44ColorRGB
 90
      255
102
RTVSPost2010PropOp44
 70
     1
102
RTVSPost2010Prop45
280
     0
102
RTVSPost2010PropOp45
 70
     1
102
RTVSPost2010Prop46
 90
       50
102
RTVSPost2010PropOp46
 70
     1
102
RTVSPost2010Prop47
 90
       50
102
RTVSPost2010PropOp47
 70
     1
102
RTVSPost2010Prop48
 90
       50
102
RTVSPost2010PropOp48
 70
     1
102
RTVSPost2010Prop49
280
     0
102
RTVSPost2010PropOp49
 70
     1
102
RTVSPost2010Prop50
 90
       50
102
RTVSPost2010PropOp50
 70
     1
102
RTVSPost2010Prop51ColorIndex
 90
      256
102
RTVSPost2010Prop51ColorRGB
 90
-16777216
102
RTVSPost2010PropOp51
 70
     0
102
RTVSPost2010Prop52
140
1.0
102
RTVSPost2010PropOp52
 70
     0
102
RTVSPost2010Prop53
 90
        2
102
RTVSPost2010PropOp53
 70
     1
102
RTVSPost2010Prop54
  1
strokes_ogs.tif
102
RTVSPost2010PropOp54
 70
     1
102
RTVSPost2010Prop55
280
     0
102
RTVSPost2010PropOp55
 70
     1
102
RTVSPost2010Prop56
140
1.0
102
RTVSPost2010PropOp56
 70
     1
102
RTVSPost2010Prop57
140
1.0
102
RTVSPost2010PropOp57
 70
     1
  0
XRECORD
  5
5C0
102
{ACAD_REACTORS
330
5BF
102
}
330
5BF
100
AcDbXrecord
280
     1
102
RTVSPost2010Prop28
280
     0
102
RTVSPost2010PropOp28
 70
     0
102
RTVSPost2010Prop29
280
     1
102
RTVSPost2010PropOp29
 70
     0
102
RTVSPost2010Prop30
280
     1
102
RTVSPost2010PropOp30
 70
     0
102
RTVSPost2010Prop31
280
     0
102
RTVSPost2010PropOp31
 70
     0
102
RTVSPost2010Prop32
280
     0
102
RTVSPost2010PropOp32
 70
     0
102
RTVSPost2010Prop33
280
     0
102
RTVSPost2010PropOp33
 70
     0
102
RTVSPost2010Prop34
280
     0
102
RTVSPost2010PropOp34
 70
     0
102
RTVSPost2010Prop35
280
     0
102
RTVSPost2010PropOp35
 70
     0
102
RTVSPost2010Prop36
280
     0
102
RTVSPost2010PropOp36
 70
     0
102
RTVSPost2010Prop37
 90
       50
102
RTVSPost2010PropOp37
 70
     0
102
RTVSPost2010Prop38
140
0.0
102
RTVSPost2010PropOp38
 70
     0
102
RTVSPost2010Prop39
140
1.0
102
RTVSPost2010PropOp39
 70
     0
102
RTVSPost2010Prop40
 90
        0
102
RTVSPost2010PropOp40
 70
     0
102
RTVSPost2010Prop41ColorIndex
 90
       18
102
RTVSPost2010Prop41ColorRGB
 90
        0
102
RTVSPost2010PropOp41
 70
     0
102
RTVSPost2010Prop42
 90
       50
102
RTVSPost2010PropOp42
 70
     0
102
RTVSPost2010Prop43
 90
        3
102
RTVSPost2010PropOp43
 70
     0
102
RTVSPost2010Prop44ColorIndex
 90
        5
102
RTVSPost2010Prop44ColorRGB
 90
      255
102
RTVSPost2010PropOp44
 70
     0
102
RTVSPost2010Prop45
280
     0
102
RTVSPost2010PropOp45
 70
     0
102
RTVSPost2010Prop46
 90
       50
102
RTVSPost2010PropOp46
 70
     0
102
RTVSPost2010Prop47
 90
       50
102
RTVSPost2010PropOp47
 70
     0
102
RTVSPost2010Prop48
 90
       50
102
RTVSPost2010PropOp48
 70
     0
102
RTVSPost2010Prop49
280
     0
102
RTVSPost2010PropOp49
 70
     0
102
RTVSPost2010Prop50
 90
       50
102
RTVSPost2010PropOp50
 70
     0
102
RTVSPost2010Prop51ColorIndex
 90
      256
102
RTVSPost2010Prop51ColorRGB
 90
-16777216
102
RTVSPost2010PropOp51
 70
     0
102
RTVSPost2010Prop52
140
1.0
102
RTVSPost2010PropOp52
 70
     0
102
RTVSPost2010Prop53
 90
        2
102
RTVSPost2010PropOp53
 70
     0
102
RTVSPost2010Prop54
  1
strokes_ogs.tif
102
RTVSPost2010PropOp54
 70
     0
102
RTVSPost2010Prop55
280
     0
102
RTVSPost2010PropOp55
 70
     0
102
RTVSPost2010Prop56
140
1.0
102
RTVSPost2010PropOp56
 70
     0
102
RTVSPost2010Prop57
140
1.0
102
RTVSPost2010PropOp57
 70
     0
  0
XRECORD
  5
5AE
102
{ACAD_REACTORS
330
5AD
102
}
330
5AD
100
AcDbXrecord
280
     1
102
RTVSPost2010Prop28
280
     0
102
RTVSPost2010PropOp28
 70
     1
102
RTVSPost2010Prop29
280
     1
102
RTVSPost2010PropOp29
 70
     1
102
RTVSPost2010Prop30
280
     1
102
RTVSPost2010PropOp30
 70
     1
102
RTVSPost2010Prop31
280
     0
102
RTVSPost2010PropOp31
 70
     1
102
RTVSPost2010Prop32
280
     0
102
RTVSPost2010PropOp32
 70
     1
102
RTVSPost2010Prop33
280
     0
102
RTVSPost2010PropOp33
 70
     1
102
RTVSPost2010Prop34
280
     0
102
RTVSPost2010PropOp34
 70
     1
102
RTVSPost2010Prop35
280
     0
102
RTVSPost2010PropOp35
 70
     1
102
RTVSPost2010Prop36
280
     0
102
RTVSPost2010PropOp36
 70
     1
102
RTVSPost2010Prop37
 90
       50
102
RTVSPost2010PropOp37
 70
     1
102
RTVSPost2010Prop38
140
0.0
102
RTVSPost2010PropOp38
 70
     1
102
RTVSPost2010Prop39
140
1.0
102
RTVSPost2010PropOp39
 70
     1
102
RTVSPost2010Prop40
 90
        0
102
RTVSPost2010PropOp40
 70
     1
102
RTVSPost2010Prop41ColorIndex
 90
       18
102
RTVSPost2010Prop41ColorRGB
 90
        0
102
RTVSPost2010PropOp41
 70
     1
102
RTVSPost2010Prop42
 90
       50
102
RTVSPost2010PropOp42
 70
     1
102
RTVSPost2010Prop43
 90
        3
102
RTVSPost2010PropOp43
 70
     1
102
RTVSPost2010Prop44ColorIndex
 90
        5
102
RTVSPost2010Prop44ColorRGB
 90
      255
102
RTVSPost2010PropOp44
 70
     1
102
RTVSPost2010Prop45
280
     0
102
RTVSPost2010PropOp45
 70
     1
102
RTVSPost2010Prop46
 90
       50
102
RTVSPost2010PropOp46
 70
     1
102
RTVSPost2010Prop47
 90
       50
102
RTVSPost2010PropOp47
 70
     1
102
RTVSPost2010Prop48
 90
       50
102
RTVSPost2010PropOp48
 70
     1
102
RTVSPost2010Prop49
280
     0
102
RTVSPost2010PropOp49
 70
     1
102
RTVSPost2010Prop50
 90
       50
102
RTVSPost2010PropOp50
 70
     1
102
RTVSPost2010Prop51ColorIndex
 90
      256
102
RTVSPost2010Prop51ColorRGB
 90
-16777216
102
RTVSPost2010PropOp51
 70
     0
102
RTVSPost2010Prop52
140
1.0
102
RTVSPost2010PropOp52
 70
     0
102
RTVSPost2010Prop53
 90
        2
102
RTVSPost2010PropOp53
 70
     1
102
RTVSPost2010Prop54
  1
strokes_ogs.tif
102
RTVSPost2010PropOp54
 70
     1
102
RTVSPost2010Prop55
280
     0
102
RTVSPost2010PropOp55
 70
     1
102
RTVSPost2010Prop56
140
1.0
102
RTVSPost2010PropOp56
 70
     1
102
RTVSPost2010Prop57
140
1.0
102
RTVSPost2010PropOp57
 70
     1
  0
XRECORD
  5
5CC
102
{ACAD_REACTORS
330
5CB
102
}
330
5CB
100
AcDbXrecord
280
     1
102
RTVSPost2010Prop28
280
     0
102
RTVSPost2010PropOp28
 70
     1
102
RTVSPost2010Prop29
280
     1
102
RTVSPost2010PropOp29
 70
     1
102
RTVSPost2010Prop30
280
     1
102
RTVSPost2010PropOp30
 70
     1
102
RTVSPost2010Prop31
280
     0
102
RTVSPost2010PropOp31
 70
     1
102
RTVSPost2010Prop32
280
     0
102
RTVSPost2010PropOp32
 70
     1
102
RTVSPost2010Prop33
280
     0
102
RTVSPost2010PropOp33
 70
     1
102
RTVSPost2010Prop34
280
     0
102
RTVSPost2010PropOp34
 70
     1
102
RTVSPost2010Prop35
280
     0
102
RTVSPost2010PropOp35
 70
     1
102
RTVSPost2010Prop36
280
     0
102
RTVSPost2010PropOp36
 70
     1
102
RTVSPost2010Prop37
 90
       50
102
RTVSPost2010PropOp37
 70
     1
102
RTVSPost2010Prop38
140
0.0
102
RTVSPost2010PropOp38
 70
     1
102
RTVSPost2010Prop39
140
1.0
102
RTVSPost2010PropOp39
 70
     1
102
RTVSPost2010Prop40
 90
        0
102
RTVSPost2010PropOp40
 70
     1
102
RTVSPost2010Prop41ColorIndex
 90
       18
102
RTVSPost2010Prop41ColorRGB
 90
        0
102
RTVSPost2010PropOp41
 70
     1
102
RTVSPost2010Prop42
 90
       50
102
RTVSPost2010PropOp42
 70
     1
102
RTVSPost2010Prop43
 90
        3
102
RTVSPost2010PropOp43
 70
     1
102
RTVSPost2010Prop44ColorIndex
 90
        5
102
RTVSPost2010Prop44ColorRGB
 90
      255
102
RTVSPost2010PropOp44
 70
     1
102
RTVSPost2010Prop45
280
     0
102
RTVSPost2010PropOp45
 70
     1
102
RTVSPost2010Prop46
 90
       50
102
RTVSPost2010PropOp46
 70
     1
102
RTVSPost2010Prop47
 90
       50
102
RTVSPost2010PropOp47
 70
     1
102
RTVSPost2010Prop48
 90
       50
102
RTVSPost2010PropOp48
 70
     1
102
RTVSPost2010Prop49
280
     0
102
RTVSPost2010PropOp49
 70
     1
102
RTVSPost2010Prop50
 90
       50
102
RTVSPost2010PropOp50
 70
     1
102
RTVSPost2010Prop51ColorIndex
 90
      256
102
RTVSPost2010Prop51ColorRGB
 90
-16777216
102
RTVSPost2010PropOp51
 70
     0
102
RTVSPost2010Prop52
140
1.0
102
RTVSPost2010PropOp52
 70
     0
102
RTVSPost2010Prop53
 90
        2
102
RTVSPost2010PropOp53
 70
     1
102
RTVSPost2010Prop54
  1
strokes_ogs.tif
102
RTVSPost2010PropOp54
 70
     1
102
RTVSPost2010Prop55
280
     0
102
RTVSPost2010PropOp55
 70
     1
102
RTVSPost2010Prop56
140
1.0
102
RTVSPost2010PropOp56
 70
     1
102
RTVSPost2010Prop57
140
1.0
102
RTVSPost2010PropOp57
 70
     1
  0
XRECORD
  5
5CA
102
{ACAD_REACTORS
330
5C9
102
}
330
5C9
100
AcDbXrecord
280
     1
102
RTVSPost2010Prop28
280
     0
102
RTVSPost2010PropOp28
 70
     1
102
RTVSPost2010Prop29
280
     1
102
RTVSPost2010PropOp29
 70
     1
102
RTVSPost2010Prop30
280
     1
102
RTVSPost2010PropOp30
 70
     1
102
RTVSPost2010Prop31
280
     0
102
RTVSPost2010PropOp31
 70
     1
102
RTVSPost2010Prop32
280
     0
102
RTVSPost2010PropOp32
 70
     1
102
RTVSPost2010Prop33
280
     0
102
RTVSPost2010PropOp33
 70
     1
102
RTVSPost2010Prop34
280
     0
102
RTVSPost2010PropOp34
 70
     1
102
RTVSPost2010Prop35
280
     0
102
RTVSPost2010PropOp35
 70
     1
102
RTVSPost2010Prop36
280
     0
102
RTVSPost2010PropOp36
 70
     1
102
RTVSPost2010Prop37
 90
       50
102
RTVSPost2010PropOp37
 70
     1
102
RTVSPost2010Prop38
140
0.0
102
RTVSPost2010PropOp38
 70
     1
102
RTVSPost2010Prop39
140
1.0
102
RTVSPost2010PropOp39
 70
     1
102
RTVSPost2010Prop40
 90
        0
102
RTVSPost2010PropOp40
 70
     1
102
RTVSPost2010Prop41ColorIndex
 90
       18
102
RTVSPost2010Prop41ColorRGB
 90
        0
102
RTVSPost2010PropOp41
 70
     1
102
RTVSPost2010Prop42
 90
       50
102
RTVSPost2010PropOp42
 70
     1
102
RTVSPost2010Prop43
 90
        3
102
RTVSPost2010PropOp43
 70
     1
102
RTVSPost2010Prop44ColorIndex
 90
        5
102
RTVSPost2010Prop44ColorRGB
 90
      255
102
RTVSPost2010PropOp44
 70
     1
102
RTVSPost2010Prop45
280
     0
102
RTVSPost2010PropOp45
 70
     1
102
RTVSPost2010Prop46
 90
       50
102
RTVSPost2010PropOp46
 70
     1
102
RTVSPost2010Prop47
 90
       50
102
RTVSPost2010PropOp47
 70
     1
102
RTVSPost2010Prop48
 90
       50
102
RTVSPost2010PropOp48
 70
     1
102
RTVSPost2010Prop49
280
     0
102
RTVSPost2010PropOp49
 70
     1
102
RTVSPost2010Prop50
 90
       50
102
RTVSPost2010PropOp50
 70
     1
102
RTVSPost2010Prop51ColorIndex
 90
      256
102
RTVSPost2010Prop51ColorRGB
 90
-16777216
102
RTVSPost2010PropOp51
 70
     0
102
RTVSPost2010Prop52
140
1.0
102
RTVSPost2010PropOp52
 70
     0
102
RTVSPost2010Prop53
 90
        2
102
RTVSPost2010PropOp53
 70
     1
102
RTVSPost2010Prop54
  1
strokes_ogs.tif
102
RTVSPost2010PropOp54
 70
     1
102
RTVSPost2010Prop55
280
     0
102
RTVSPost2010PropOp55
 70
     1
102
RTVSPost2010Prop56
140
1.0
102
RTVSPost2010PropOp56
 70
     1
102
RTVSPost2010Prop57
140
1.0
102
RTVSPost2010PropOp57
 70
     1
  0
XRECORD
  5
5C4
102
{ACAD_REACTORS
330
5C3
102
}
330
5C3
100
AcDbXrecord
280
     1
102
RTVSPost2010Prop28
280
     0
102
RTVSPost2010PropOp28
 70
     1
102
RTVSPost2010Prop29
280
     1
102
RTVSPost2010PropOp29
 70
     1
102
RTVSPost2010Prop30
280
     1
102
RTVSPost2010PropOp30
 70
     1
102
RTVSPost2010Prop31
280
     0
102
RTVSPost2010PropOp31
 70
     1
102
RTVSPost2010Prop32
280
     0
102
RTVSPost2010PropOp32
 70
     1
102
RTVSPost2010Prop33
280
     0
102
RTVSPost2010PropOp33
 70
     1
102
RTVSPost2010Prop34
280
     0
102
RTVSPost2010PropOp34
 70
     1
102
RTVSPost2010Prop35
280
     0
102
RTVSPost2010PropOp35
 70
     1
102
RTVSPost2010Prop36
280
     0
102
RTVSPost2010PropOp36
 70
     1
102
RTVSPost2010Prop37
 90
       50
102
RTVSPost2010PropOp37
 70
     1
102
RTVSPost2010Prop38
140
0.0
102
RTVSPost2010PropOp38
 70
     1
102
RTVSPost2010Prop39
140
1.0
102
RTVSPost2010PropOp39
 70
     1
102
RTVSPost2010Prop40
 90
        0
102
RTVSPost2010PropOp40
 70
     1
102
RTVSPost2010Prop41ColorIndex
 90
       18
102
RTVSPost2010Prop41ColorRGB
 90
        0
102
RTVSPost2010PropOp41
 70
     1
102
RTVSPost2010Prop42
 90
       50
102
RTVSPost2010PropOp42
 70
     1
102
RTVSPost2010Prop43
 90
        3
102
RTVSPost2010PropOp43
 70
     1
102
RTVSPost2010Prop44ColorIndex
 90
        5
102
RTVSPost2010Prop44ColorRGB
 90
      255
102
RTVSPost2010PropOp44
 70
     1
102
RTVSPost2010Prop45
280
     0
102
RTVSPost2010PropOp45
 70
     1
102
RTVSPost2010Prop46
 90
       50
102
RTVSPost2010PropOp46
 70
     1
102
RTVSPost2010Prop47
 90
       50
102
RTVSPost2010PropOp47
 70
     1
102
RTVSPost2010Prop48
 90
       50
102
RTVSPost2010PropOp48
 70
     1
102
RTVSPost2010Prop49
280
     0
102
RTVSPost2010PropOp49
 70
     1
102
RTVSPost2010Prop50
 90
       50
102
RTVSPost2010PropOp50
 70
     1
102
RTVSPost2010Prop51ColorIndex
 90
      256
102
RTVSPost2010Prop51ColorRGB
 90
-16777216
102
RTVSPost2010PropOp51
 70
     0
102
RTVSPost2010Prop52
140
1.0
102
RTVSPost2010PropOp52
 70
     0
102
RTVSPost2010Prop53
 90
        2
102
RTVSPost2010PropOp53
 70
     1
102
RTVSPost2010Prop54
  1
strokes_ogs.tif
102
RTVSPost2010PropOp54
 70
     1
102
RTVSPost2010Prop55
280
     0
102
RTVSPost2010PropOp55
 70
     1
102
RTVSPost2010Prop56
140
1.0
102
RTVSPost2010PropOp56
 70
     1
102
RTVSPost2010Prop57
140
1.0
102
RTVSPost2010PropOp57
 70
     1
  0
XRECORD
  5
5C6
102
{ACAD_REACTORS
330
5C5
102
}
330
5C5
100
AcDbXrecord
280
     1
102
RTVSPost2010Prop28
280
     0
102
RTVSPost2010PropOp28
 70
     1
102
RTVSPost2010Prop29
280
     1
102
RTVSPost2010PropOp29
 70
     1
102
RTVSPost2010Prop30
280
     1
102
RTVSPost2010PropOp30
 70
     1
102
RTVSPost2010Prop31
280
     0
102
RTVSPost2010PropOp31
 70
     1
102
RTVSPost2010Prop32
280
     0
102
RTVSPost2010PropOp32
 70
     1
102
RTVSPost2010Prop33
280
     0
102
RTVSPost2010PropOp33
 70
     1
102
RTVSPost2010Prop34
280
     0
102
RTVSPost2010PropOp34
 70
     1
102
RTVSPost2010Prop35
280
     0
102
RTVSPost2010PropOp35
 70
     1
102
RTVSPost2010Prop36
280
     0
102
RTVSPost2010PropOp36
 70
     1
102
RTVSPost2010Prop37
 90
       50
102
RTVSPost2010PropOp37
 70
     1
102
RTVSPost2010Prop38
140
0.0
102
RTVSPost2010PropOp38
 70
     1
102
RTVSPost2010Prop39
140
1.0
102
RTVSPost2010PropOp39
 70
     1
102
RTVSPost2010Prop40
 90
        0
102
RTVSPost2010PropOp40
 70
     1
102
RTVSPost2010Prop41ColorIndex
 90
       18
102
RTVSPost2010Prop41ColorRGB
 90
        0
102
RTVSPost2010PropOp41
 70
     1
102
RTVSPost2010Prop42
 90
       50
102
RTVSPost2010PropOp42
 70
     1
102
RTVSPost2010Prop43
 90
        3
102
RTVSPost2010PropOp43
 70
     1
102
RTVSPost2010Prop44ColorIndex
 90
        5
102
RTVSPost2010Prop44ColorRGB
 90
      255
102
RTVSPost2010PropOp44
 70
     1
102
RTVSPost2010Prop45
280
     0
102
RTVSPost2010PropOp45
 70
     1
102
RTVSPost2010Prop46
 90
       50
102
RTVSPost2010PropOp46
 70
     1
102
RTVSPost2010Prop47
 90
       50
102
RTVSPost2010PropOp47
 70
     1
102
RTVSPost2010Prop48
 90
       50
102
RTVSPost2010PropOp48
 70
     1
102
RTVSPost2010Prop49
280
     0
102
RTVSPost2010PropOp49
 70
     1
102
RTVSPost2010Prop50
 90
       50
102
RTVSPost2010PropOp50
 70
     1
102
RTVSPost2010Prop51ColorIndex
 90
      256
102
RTVSPost2010Prop51ColorRGB
 90
-16777216
102
RTVSPost2010PropOp51
 70
     0
102
RTVSPost2010Prop52
140
1.0
102
RTVSPost2010PropOp52
 70
     0
102
RTVSPost2010Prop53
 90
        2
102
RTVSPost2010PropOp53
 70
     1
102
RTVSPost2010Prop54
  1
strokes_ogs.tif
102
RTVSPost2010PropOp54
 70
     1
102
RTVSPost2010Prop55
280
     0
102
RTVSPost2010PropOp55
 70
     1
102
RTVSPost2010Prop56
140
1.0
102
RTVSPost2010PropOp56
 70
     1
102
RTVSPost2010Prop57
140
1.0
102
RTVSPost2010PropOp57
 70
     1
  0
XRECORD
  5
5B6
102
{ACAD_REACTORS
330
5B5
102
}
330
5B5
100
AcDbXrecord
280
     1
102
RTVSPost2010Prop28
280
     0
102
RTVSPost2010PropOp28
 70
     1
102
RTVSPost2010Prop29
280
     1
102
RTVSPost2010PropOp29
 70
     1
102
RTVSPost2010Prop30
280
     1
102
RTVSPost2010PropOp30
 70
     1
102
RTVSPost2010Prop31
280
     0
102
RTVSPost2010PropOp31
 70
     1
102
RTVSPost2010Prop32
280
     0
102
RTVSPost2010PropOp32
 70
     1
102
RTVSPost2010Prop33
280
     0
102
RTVSPost2010PropOp33
 70
     1
102
RTVSPost2010Prop34
280
     0
102
RTVSPost2010PropOp34
 70
     1
102
RTVSPost2010Prop35
280
     0
102
RTVSPost2010PropOp35
 70
     1
102
RTVSPost2010Prop36
280
     0
102
RTVSPost2010PropOp36
 70
     1
102
RTVSPost2010Prop37
 90
       50
102
RTVSPost2010PropOp37
 70
     1
102
RTVSPost2010Prop38
140
0.0
102
RTVSPost2010PropOp38
 70
     1
102
RTVSPost2010Prop39
140
1.0
102
RTVSPost2010PropOp39
 70
     1
102
RTVSPost2010Prop40
 90
        0
102
RTVSPost2010PropOp40
 70
     1
102
RTVSPost2010Prop41ColorIndex
 90
       18
102
RTVSPost2010Prop41ColorRGB
 90
        0
102
RTVSPost2010PropOp41
 70
     1
102
RTVSPost2010Prop42
 90
       50
102
RTVSPost2010PropOp42
 70
     1
102
RTVSPost2010Prop43
 90
        3
102
RTVSPost2010PropOp43
 70
     1
102
RTVSPost2010Prop44ColorIndex
 90
        5
102
RTVSPost2010Prop44ColorRGB
 90
      255
102
RTVSPost2010PropOp44
 70
     1
102
RTVSPost2010Prop45
280
     0
102
RTVSPost2010PropOp45
 70
     1
102
RTVSPost2010Prop46
 90
       50
102
RTVSPost2010PropOp46
 70
     1
102
RTVSPost2010Prop47
 90
       50
102
RTVSPost2010PropOp47
 70
     1
102
RTVSPost2010Prop48
 90
       50
102
RTVSPost2010PropOp48
 70
     1
102
RTVSPost2010Prop49
280
     0
102
RTVSPost2010PropOp49
 70
     1
102
RTVSPost2010Prop50
 90
       50
102
RTVSPost2010PropOp50
 70
     1
102
RTVSPost2010Prop51ColorIndex
 90
      256
102
RTVSPost2010Prop51ColorRGB
 90
-16777216
102
RTVSPost2010PropOp51
 70
     0
102
RTVSPost2010Prop52
140
1.0
102
RTVSPost2010PropOp52
 70
     0
102
RTVSPost2010Prop53
 90
        2
102
RTVSPost2010PropOp53
 70
     1
102
RTVSPost2010Prop54
  1
strokes_ogs.tif
102
RTVSPost2010PropOp54
 70
     1
102
RTVSPost2010Prop55
280
     0
102
RTVSPost2010PropOp55
 70
     1
102
RTVSPost2010Prop56
140
1.0
102
RTVSPost2010PropOp56
 70
     1
102
RTVSPost2010Prop57
140
1.0
102
RTVSPost2010PropOp57
 70
     1
  0
XRECORD
  5
5A8
102
{ACAD_REACTORS
330
5A7
102
}
330
5A7
100
AcDbXrecord
280
     1
102
RTVSPost2010Prop28
280
     0
102
RTVSPost2010PropOp28
 70
     1
102
RTVSPost2010Prop29
280
     1
102
RTVSPost2010PropOp29
 70
     1
102
RTVSPost2010Prop30
280
     1
102
RTVSPost2010PropOp30
 70
     1
102
RTVSPost2010Prop31
280
     0
102
RTVSPost2010PropOp31
 70
     1
102
RTVSPost2010Prop32
280
     0
102
RTVSPost2010PropOp32
 70
     1
102
RTVSPost2010Prop33
280
     0
102
RTVSPost2010PropOp33
 70
     1
102
RTVSPost2010Prop34
280
     0
102
RTVSPost2010PropOp34
 70
     1
102
RTVSPost2010Prop35
280
     0
102
RTVSPost2010PropOp35
 70
     1
102
RTVSPost2010Prop36
280
     0
102
RTVSPost2010PropOp36
 70
     1
102
RTVSPost2010Prop37
 90
       50
102
RTVSPost2010PropOp37
 70
     1
102
RTVSPost2010Prop38
140
0.0
102
RTVSPost2010PropOp38
 70
     1
102
RTVSPost2010Prop39
140
1.0
102
RTVSPost2010PropOp39
 70
     1
102
RTVSPost2010Prop40
 90
        0
102
RTVSPost2010PropOp40
 70
     1
102
RTVSPost2010Prop41ColorIndex
 90
       18
102
RTVSPost2010Prop41ColorRGB
 90
        0
102
RTVSPost2010PropOp41
 70
     1
102
RTVSPost2010Prop42
 90
       50
102
RTVSPost2010PropOp42
 70
     1
102
RTVSPost2010Prop43
 90
        3
102
RTVSPost2010PropOp43
 70
     1
102
RTVSPost2010Prop44ColorIndex
 90
        5
102
RTVSPost2010Prop44ColorRGB
 90
      255
102
RTVSPost2010PropOp44
 70
     1
102
RTVSPost2010Prop45
280
     0
102
RTVSPost2010PropOp45
 70
     1
102
RTVSPost2010Prop46
 90
       50
102
RTVSPost2010PropOp46
 70
     1
102
RTVSPost2010Prop47
 90
       50
102
RTVSPost2010PropOp47
 70
     1
102
RTVSPost2010Prop48
 90
       50
102
RTVSPost2010PropOp48
 70
     1
102
RTVSPost2010Prop49
280
     0
102
RTVSPost2010PropOp49
 70
     1
102
RTVSPost2010Prop50
 90
       50
102
RTVSPost2010PropOp50
 70
     1
102
RTVSPost2010Prop51ColorIndex
 90
      256
102
RTVSPost2010Prop51ColorRGB
 90
-16777216
102
RTVSPost2010PropOp51
 70
     0
102
RTVSPost2010Prop52
140
1.0
102
RTVSPost2010PropOp52
 70
     0
102
RTVSPost2010Prop53
 90
        2
102
RTVSPost2010PropOp53
 70
     1
102
RTVSPost2010Prop54
  1
strokes_ogs.tif
102
RTVSPost2010PropOp54
 70
     1
102
RTVSPost2010Prop55
280
     0
102
RTVSPost2010PropOp55
 70
     1
102
RTVSPost2010Prop56
140
1.0
102
RTVSPost2010PropOp56
 70
     1
102
RTVSPost2010Prop57
140
1.0
102
RTVSPost2010PropOp57
 70
     1
  0
XRECORD
  5
5C8
102
{ACAD_REACTORS
330
5C7
102
}
330
5C7
100
AcDbXrecord
280
     1
102
RTVSPost2010Prop28
280
     0
102
RTVSPost2010PropOp28
 70
     1
102
RTVSPost2010Prop29
280
     1
102
RTVSPost2010PropOp29
 70
     1
102
RTVSPost2010Prop30
280
     1
102
RTVSPost2010PropOp30
 70
     1
102
RTVSPost2010Prop31
280
     0
102
RTVSPost2010PropOp31
 70
     1
102
RTVSPost2010Prop32
280
     0
102
RTVSPost2010PropOp32
 70
     1
102
RTVSPost2010Prop33
280
     0
102
RTVSPost2010PropOp33
 70
     1
102
RTVSPost2010Prop34
280
     0
102
RTVSPost2010PropOp34
 70
     1
102
RTVSPost2010Prop35
280
     0
102
RTVSPost2010PropOp35
 70
     1
102
RTVSPost2010Prop36
280
     0
102
RTVSPost2010PropOp36
 70
     1
102
RTVSPost2010Prop37
 90
       50
102
RTVSPost2010PropOp37
 70
     1
102
RTVSPost2010Prop38
140
0.0
102
RTVSPost2010PropOp38
 70
     1
102
RTVSPost2010Prop39
140
1.0
102
RTVSPost2010PropOp39
 70
     1
102
RTVSPost2010Prop40
 90
        0
102
RTVSPost2010PropOp40
 70
     1
102
RTVSPost2010Prop41ColorIndex
 90
       18
102
RTVSPost2010Prop41ColorRGB
 90
        0
102
RTVSPost2010PropOp41
 70
     1
102
RTVSPost2010Prop42
 90
       50
102
RTVSPost2010PropOp42
 70
     1
102
RTVSPost2010Prop43
 90
        3
102
RTVSPost2010PropOp43
 70
     1
102
RTVSPost2010Prop44ColorIndex
 90
        5
102
RTVSPost2010Prop44ColorRGB
 90
      255
102
RTVSPost2010PropOp44
 70
     1
102
RTVSPost2010Prop45
280
     0
102
RTVSPost2010PropOp45
 70
     1
102
RTVSPost2010Prop46
 90
       50
102
RTVSPost2010PropOp46
 70
     1
102
RTVSPost2010Prop47
 90
       50
102
RTVSPost2010PropOp47
 70
     1
102
RTVSPost2010Prop48
 90
       50
102
RTVSPost2010PropOp48
 70
     1
102
RTVSPost2010Prop49
280
     0
102
RTVSPost2010PropOp49
 70
     1
102
RTVSPost2010Prop50
 90
       50
102
RTVSPost2010PropOp50
 70
     1
102
RTVSPost2010Prop51ColorIndex
 90
      256
102
RTVSPost2010Prop51ColorRGB
 90
-16777216
102
RTVSPost2010PropOp51
 70
     0
102
RTVSPost2010Prop52
140
1.0
102
RTVSPost2010PropOp52
 70
     0
102
RTVSPost2010Prop53
 90
        2
102
RTVSPost2010PropOp53
 70
     1
102
RTVSPost2010Prop54
  1
strokes_ogs.tif
102
RTVSPost2010PropOp54
 70
     1
102
RTVSPost2010Prop55
280
     0
102
RTVSPost2010PropOp55
 70
     1
102
RTVSPost2010Prop56
140
1.0
102
RTVSPost2010PropOp56
 70
     1
102
RTVSPost2010Prop57
140
1.0
102
RTVSPost2010PropOp57
 70
     1
  0
ENDSEC
  0
EOF
