  0
SECTION
  2
HEADER
  9
$ACADVER
  1
AC1024
  9
$ACADMAINTVER
 70
     6
  9
$DWGCODEPAGE
  3
ANSI_1252
  9
$INSBASE
 10
0.0
 20
0.0
 30
0.0
  9
$EXTMIN
 10
0.0
 20
0.0
 30
0.0
  9
$EXTMAX
 10
594.0
 20
420.0
 30
0.0
  9
$LIMMIN
 10
0.0
 20
0.0
  9
$LIMMAX
 10
594.0
 20
420.0
  9
$ORTHOMODE
 70
     0
  9
$REGENMODE
 70
     1
  9
$FILLMODE
 70
     1
  9
$QTEXTMODE
 70
     0
  9
$MIRRTEXT
 70
     1
  9
$LTSCALE
 40
32.67
  9
$ATTMODE
 70
     1
  9
$TEXTSIZE
 40
0.2
  9
$TRACEWID
 40
0.05
  9
$TEXTSTYLE
  7
STANDARD
  9
$CLAYER
  8
0
  9
$CELTYPE
  6
BYLAYER
  9
$CECOLOR
 62
   256
  9
$CELTSCALE
 40
1.0
  9
$DISPSILH
 70
     0
  9
$DIMSCALE
 40
1.0
  9
$DIMASZ
 40
2.5
  9
$DIMEXO
 40
0.75
  9
$DIMDLI
 40
22.572
  9
$DIMRND
 40
0.0
  9
$DIMDLE
 40
0.0
  9
$DIMEXE
 40
0.75
  9
$DIMTP
 40
0.01
  9
$DIMTM
 40
0.01
  9
$DIMTXT
 40
3.0
  9
$DIMCEN
 40
5.346
  9
$DIMTSZ
 40
0.0
  9
$DIMTOL
 70
     1
  9
$DIMLIM
 70
     0
  9
$DIMTIH
 70
     1
  9
$DIMTOH
 70
     1
  9
$DIMSE1
 70
     0
  9
$DIMSE2
 70
     0
  9
$DIMTAD
 70
     0
  9
$DIMZIN
 70
     0
  9
$DIMBLK
  1
CLOSED
  9
$DIMASO
 70
     1
  9
$DIMSHO
 70
     1
  9
$DIMPOST
  1

  9
$DIMAPOST
  1

  9
$DIMALT
 70
     0
  9
$DIMALTD
 70
     2
  9
$DIMALTF
 40
25.4
  9
$DIMLFAC
 40
1.0
  9
$DIMTOFL
 70
     0
  9
$DIMTVP
 40
0.0
  9
$DIMTIX
 70
     0
  9
$DIMSOXD
 70
     0
  9
$DIMSAH
 70
     0
  9
$DIMBLK1
  1

  9
$DIMBLK2
  1

  9
$DIMSTYLE
  2
STANDARD
  9
$DIMCLRD
 70
     0
  9
$DIMCLRE
 70
     0
  9
$DIMCLRT
 70
     0
  9
$DIMTFAC
 40
1.0
  9
$DIMGAP
 40
0.625
  9
$DIMJUST
 70
     0
  9
$DIMSD1
 70
     0
  9
$DIMSD2
 70
     0
  9
$DIMTOLJ
 70
     1
  9
$DIMTZIN
 70
     0
  9
$DIMALTZ
 70
     0
  9
$DIMALTTZ
 70
     0
  9
$DIMUPT
 70
     0
  9
$DIMDEC
 70
     4
  9
$DIMTDEC
 70
     4
  9
$DIMALTU
 70
     2
  9
$DIMALTTD
 70
     2
  9
$DIMTXSTY
  7
STANDARD
  9
$DIMAUNIT
 70
     0
  9
$DIMADEC
 70
     0
  9
$DIMALTRND
 40
0.0
  9
$DIMAZIN
 70
     0
  9
$DIMDSEP
 70
    44
  9
$DIMATFIT
 70
     3
  9
$DIMFRAC
 70
     0
  9
$DIMLDRBLK
  1

  9
$DIMLUNIT
 70
     2
  9
$DIMLWD
 70
    -2
  9
$DIMLWE
 70
    -2
  9
$DIMTMOVE
 70
     0
  9
$DIMFXL
 40
1.0
  9
$DIMFXLON
 70
     0
  9
$DIMJOGANG
 40
0.785398
  9
$DIMTFILL
 70
     0
  9
$DIMTFILLCLR
 70
     0
  9
$DIMARCSYM
 70
     0
  9
$DIMLTYPE
  6

  9
$DIMLTEX1
  6

  9
$DIMLTEX2
  6

  9
$DIMTXTDIRECTION
 70
     0
  9
$LUNITS
 70
     2
  9
$LUPREC
 70
     4
  9
$SKETCHINC
 40
0.1
  9
$FILLETRAD
 40
0.5
  9
$AUNITS
 70
     0
  9
$AUPREC
 70
     0
  9
$MENU
  1
.
  9
$ELEVATION
 40
0.0
  9
$PELEVATION
 40
0.0
  9
$THICKNESS
 40
0.0
  9
$LIMCHECK
 70
     0
  9
$CHAMFERA
 40
0.0
  9
$CHAMFERB
 40
0.0
  9
$CHAMFERC
 40
0.0
  9
$CHAMFERD
 40
0.0
  9
$SKPOLY
 70
     0
  9
$TDCREATE
 40
2447893.041666667
  9
$TDUCREATE
 40
0.0
  9
$TDUPDATE
 40
2459278.476869676
  9
$TDUUPDATE
 40
2459278.435203009
  9
$TDINDWG
 40
0.0
  9
$TDUSRTIMER
 40
0.0
  9
$USRTIMER
 70
     1
  9
$ANGBASE
 50
0.0
  9
$ANGDIR
 70
     0
  9
$PDMODE
 70
     3
  9
$PDSIZE
 40
0.3125
  9
$PLINEWID
 40
0.0
  9
$SPLFRAME
 70
     0
  9
$SPLINETYPE
 70
     6
  9
$SPLINESEGS
 70
     8
  9
$HANDSEED
  5
590
  9
$SURFTAB1
 70
     6
  9
$SURFTAB2
 70
     6
  9
$SURFTYPE
 70
     6
  9
$SURFU
 70
     6
  9
$SURFV
 70
     6
  9
$UCSBASE
  2

  9
$UCSNAME
  2

  9
$UCSORG
 10
0.0
 20
0.0
 30
0.0
  9
$UCSXDIR
 10
1.0
 20
0.0
 30
0.0
  9
$UCSYDIR
 10
0.0
 20
1.0
 30
0.0
  9
$UCSORTHOREF
  2

  9
$UCSORTHOVIEW
 70
     0
  9
$UCSORGTOP
 10
0.0
 20
0.0
 30
0.0
  9
$UCSORGBOTTOM
 10
0.0
 20
0.0
 30
0.0
  9
$UCSORGLEFT
 10
0.0
 20
0.0
 30
0.0
  9
$UCSORGRIGHT
 10
0.0
 20
0.0
 30
0.0
  9
$UCSORGFRONT
 10
0.0
 20
0.0
 30
0.0
  9
$UCSORGBACK
 10
0.0
 20
0.0
 30
0.0
  9
$PUCSBASE
  2

  9
$PUCSNAME
  2

  9
$PUCSORG
 10
0.0
 20
0.0
 30
0.0
  9
$PUCSXDIR
 10
1.0
 20
0.0
 30
0.0
  9
$PUCSYDIR
 10
0.0
 20
1.0
 30
0.0
  9
$PUCSORTHOREF
  2

  9
$PUCSORTHOVIEW
 70
     0
  9
$PUCSORGTOP
 10
0.0
 20
0.0
 30
0.0
  9
$PUCSORGBOTTOM
 10
0.0
 20
0.0
 30
0.0
  9
$PUCSORGLEFT
 10
0.0
 20
0.0
 30
0.0
  9
$PUCSORGRIGHT
 10
0.0
 20
0.0
 30
0.0
  9
$PUCSORGFRONT
 10
0.0
 20
0.0
 30
0.0
  9
$PUCSORGBACK
 10
0.0
 20
0.0
 30
0.0
  9
$USERI1
 70
     0
  9
$USERI2
 70
     0
  9
$USERI3
 70
     0
  9
$USERI4
 70
     0
  9
$USERI5
 70
     0
  9
$USERR1
 40
0.0
  9
$USERR2
 40
0.0
  9
$USERR3
 40
0.0
  9
$USERR4
 40
0.0
  9
$USERR5
 40
0.0
  9
$WORLDVIEW
 70
     1
  9
$SHADEDGE
 70
     3
  9
$SHADEDIF
 70
    70
  9
$TILEMODE
 70
     1
  9
$MAXACTVP
 70
    64
  9
$PINSBASE
 10
0.0
 20
0.0
 30
0.0
  9
$PLIMCHECK
 70
     0
  9
$PEXTMIN
 10
1.000000E+20
 20
1.000000E+20
 30
1.000000E+20
  9
$PEXTMAX
 10
-1.000000E+20
 20
-1.000000E+20
 30
-1.000000E+20
  9
$PLIMMIN
 10
0.0
 20
0.0
  9
$PLIMMAX
 10
12.0
 20
9.0
  9
$UNITMODE
 70
     0
  9
$VISRETAIN
 70
     1
  9
$PLINEGEN
 70
     0
  9
$PSLTSCALE
 70
     0
  9
$TREEDEPTH
 70
  3020
  9
$CMLSTYLE
  2

  9
$CMLJUST
 70
     0
  9
$CMLSCALE
 40
1.0
  9
$PROXYGRAPHICS
 70
     1
  9
$MEASUREMENT
 70
     1
  9
$CELWEIGHT
370
    -1
  9
$ENDCAPS
280
     0
  9
$JOINSTYLE
280
     0
  9
$LWDISPLAY
290
     0
  9
$INSUNITS
 70
     4
  9
$HYPERLINKBASE
  1

  9
$STYLESHEET
  1

  9
$XEDIT
290
     1
  9
$CEPSNTYPE
380
     0
  9
$PSTYLEMODE
290
     1
  9
$FINGERPRINTGUID
  2
{0CF133DF-25C0-46DD-9C27-92F687DBB68F}
  9
$VERSIONGUID
  2
{FAEB1C32-E019-11D5-929B-00C0DF256EC4}
  9
$EXTNAMES
290
     1
  9
$PSVPSCALE
 40
0.0
  9
$OLESTARTUP
290
     0
  9
$SORTENTS
280
   127
  9
$INDEXCTL
280
     0
  9
$HIDETEXT
280
     1
  9
$XCLIPFRAME
280
     2
  9
$HALOGAP
280
     0
  9
$OBSCOLOR
 70
   257
  9
$OBSLTYPE
280
     0
  9
$INTERSECTIONDISPLAY
280
     0
  9
$INTERSECTIONCOLOR
 70
   257
  9
$DIMASSOC
280
     2
  9
$PROJECTNAME
  1

  9
$CAMERADISPLAY
290
     0
  9
$LENSLENGTH
 40
50.0
  9
$CAMERAHEIGHT
 40
0.0
  9
$STEPSPERSEC
 40
2.0
  9
$STEPSIZE
 40
6.0
  9
$3DDWFPREC
 40
2.0
  9
$PSOLWIDTH
 40
0.25
  9
$PSOLHEIGHT
 40
4.0
  9
$LOFTANG1
 40
1.570796
  9
$LOFTANG2
 40
1.570796
  9
$LOFTMAG1
 40
0.0
  9
$LOFTMAG2
 40
0.0
  9
$LOFTPARAM
 70
     7
  9
$LOFTNORMALS
280
     1
  9
$LATITUDE
 40
37.795
  9
$LONGITUDE
 40
-122.394
  9
$NORTHDIRECTION
 40
0.0
  9
$TIMEZONE
 70
 -8000
  9
$LIGHTGLYPHDISPLAY
280
     1
  9
$TILEMODELIGHTSYNCH
280
     1
  9
$SOLIDHIST
280
     1
  9
$SHOWHIST
280
     1
  9
$DWFFRAME
280
     2
  9
$DGNFRAME
280
     2
  9
$REALWORLDSCALE
290
     1
  9
$INTERFERECOLOR
 62
   256
  9
$CSHADOW
280
     0
  9
$SHADOWPLANELOCATION
 40
0.0
  0
ENDSEC
  0
SECTION
  2
CLASSES
  0
CLASS
  1
ACDBDICTIONARYWDFLT
  2
AcDbDictionaryWithDefault
  3
ObjectDBX Classes
 90
        0
 91
        6
280
     0
281
     0
  0
CLASS
  1
ACDBPLACEHOLDER
  2
AcDbPlaceHolder
  3
ObjectDBX Classes
 90
        0
 91
        1
280
     0
281
     0
  0
CLASS
  1
LAYOUT
  2
AcDbLayout
  3
ObjectDBX Classes
 90
        0
 91
        1
280
     0
281
     0
  0
CLASS
  1
TABLESTYLE
  2
AcDbTableStyle
  3
ObjectDBX Classes
 90
     4095
 91
        5
280
     0
281
     0
  0
CLASS
  1
ACAD_TABLE
  2
AcDbTable
  3
ObjectDBX Classes
 90
     1025
 91
        5
280
     0
281
     1
  0
CLASS
  1
SCALE
  2
AcDbScale
  3
ObjectDBX Classes
 90
     1153
 91
        5
280
     0
281
     0
  0
CLASS
  1
TABLEGEOMETRY
  2
AcDbTableGeometry
  3
ObjectDBX Classes
 90
     1152
 91
        4
280
     0
281
     0
  0
CLASS
  1
VISUALSTYLE
  2
AcDbVisualStyle
  3
ObjectDBX Classes
 90
     4095
 91
        5
280
     0
281
     0
  0
CLASS
  1
MATERIAL
  2
AcDbMaterial
  3
ObjectDBX Classes
 90
     1153
 91
        5
280
     0
281
     0
  0
CLASS
  1
SUN
  2
AcDbSun
  3
SCENEOE
 90
     1153
 91
        5
280
     0
281
     0
  0
CLASS
  1
CSACDOCUMENTOPTIONS
  2
CDocDataContainer
  3
"DERU003_CSAPP"
 90
     4095
 91
        4
280
     0
281
     0
  0
CLASS
  1
TABLECONTENT
  2
AcDbTableContent
  3
ObjectDBX Classes
 90
     1152
 91
        4
280
     0
281
     0
  0
CLASS
  1
DICTIONARYVAR
  2
AcDbDictionaryVar
  3
ObjectDBX Classes
 90
        0
 91
        4
280
     0
281
     0
  0
CLASS
  1
CELLSTYLEMAP
  2
AcDbCellStyleMap
  3
ObjectDBX Classes
 90
     1152
 91
        4
280
     0
281
     0
  0
ENDSEC
  0
SECTION
  2
TABLES
  0
TABLE
  2
VPORT
  5
8
330
0
100
AcDbSymbolTable
 70
     1
  0
VPORT
  5
1F4
330
8
100
AcDbSymbolTableRecord
100
AcDbViewportTableRecord
  2
*ACTIVE
 70
     0
 10
0.0
 20
0.0
 11
1.0
 21
1.0
 12
297.0
 22
210.0
 13
0.0
 23
0.0
 14
1.0
 24
1.0
 15
0.0
 25
0.0
 16
0.0
 26
0.0
 36
1.0
 17
0.0
 27
0.0
 37
0.0
 40
420.0
 41
2.107285
 42
50.0
 43
0.0
 44
0.0
 50
0.0
 51
0.0
 71
    16
 72
   100
 73
     1
 74
     1
 75
     0
 76
     0
 77
     0
 78
     0
281
     0
 65
     1
110
0.0
120
0.0
130
0.0
111
1.0
121
0.0
131
0.0
112
0.0
122
1.0
132
0.0
 79
     0
146
0.0
 60
     3
 61
     5
292
     1
282
     1
141
0.0
142
0.0
 63
   256
361
54B
  0
ENDTAB
  0
TABLE
  2
LTYPE
  5
5
330
0
100
AcDbSymbolTable
 70
     6
  0
LTYPE
  5
14
330
5
100
AcDbSymbolTableRecord
100
AcDbLinetypeTableRecord
  2
BYBLOCK
 70
     0
  3

 72
    65
 73
     0
 40
0.0
  0
LTYPE
  5
15
330
5
100
AcDbSymbolTableRecord
100
AcDbLinetypeTableRecord
  2
BYLAYER
 70
     0
  3

 72
    65
 73
     0
 40
0.0
  0
LTYPE
  5
16
330
5
100
AcDbSymbolTableRecord
100
AcDbLinetypeTableRecord
  2
CONTINUOUS
 70
     0
  3
Solid line
 72
    65
 73
     0
 40
0.0
  0
LTYPE
  5
1F5
330
5
100
AcDbSymbolTableRecord
100
AcDbLinetypeTableRecord
  2
CENTER
 70
     0
  3
____ _ ____ _ ____ _ ____ _ ____ _ ____ _ ____
 72
    65
 73
     4
 40
0.6
 49
0.375
 74
     0
 49
-0.075
 74
     0
 49
0.075
 74
     0
 49
-0.075
 74
     0
  0
LTYPE
  5
1F6
330
5
100
AcDbSymbolTableRecord
100
AcDbLinetypeTableRecord
  2
HIDDEN
 70
     0
  3
- - - - - - - - - - - - - - - - - - - -
 72
    65
 73
     2
 40
0.2
 49
0.1
 74
     0
 49
-0.1
 74
     0
  0
LTYPE
  5
1F7
330
5
100
AcDbSymbolTableRecord
100
AcDbLinetypeTableRecord
  2
PHANTOM
 70
     0
  3
_____ _ _ _____ _ _ _____ _ _ _____
 72
    65
 73
     6
 40
0.8
 49
0.45
 74
     0
 49
-0.05
 74
     0
 49
0.1
 74
     0
 49
-0.05
 74
     0
 49
0.1
 74
     0
 49
-0.05
 74
     0
  0
LTYPE
  5
1F8
330
5
100
AcDbSymbolTableRecord
100
AcDbLinetypeTableRecord
  2
DOT
 70
     0
  3
. . . . . . . . . . . . . . . . . . . .
 72
    65
 73
     2
 40
0.2
 49
0.1
 74
     0
 49
-0.1
 74
     0
  0
LTYPE
  5
1F9
330
5
100
AcDbSymbolTableRecord
100
AcDbLinetypeTableRecord
  2
DASHED
 70
     0
  3
- - - - - - - - - - - - - - - - - - - -
 72
    65
 73
     2
 40
0.2
 49
0.1
 74
     0
 49
-0.1
 74
     0
  0
ENDTAB
  0
TABLE
  2
LAYER
  5
2
330
0
100
AcDbSymbolTable
 70
    12
  0
LAYER
  5
10
330
2
100
AcDbSymbolTableRecord
100
AcDbLayerTableRecord
  2
0
 70
     0
 62
     7
  6
CONTINUOUS
370
    -3
390
F
347
545
  0
LAYER
  5
1FA
330
2
100
AcDbSymbolTableRecord
100
AcDbLayerTableRecord
  2
DEFAULT_1
 70
     0
 62
     7
  6
CENTER
370
    -3
390
F
347
545
  0
LAYER
  5
1FB
330
2
100
AcDbSymbolTableRecord
100
AcDbLayerTableRecord
  2
DEFAULT_2
 70
     0
 62
     8
  6
HIDDEN
370
    -3
390
F
347
545
  0
LAYER
  5
1FC
330
2
100
AcDbSymbolTableRecord
100
AcDbLayerTableRecord
  2
DEFAULT_3
 70
     0
 62
     7
  6
PHANTOM
370
    -3
390
F
347
545
  0
LAYER
  5
1FD
330
2
100
AcDbSymbolTableRecord
100
AcDbLayerTableRecord
  2
1_ALL_PLANES
 70
     0
 62
     7
  6
CONTINUOUS
370
    -3
390
F
347
545
  0
LAYER
  5
1FE
330
2
100
AcDbSymbolTableRecord
100
AcDbLayerTableRecord
  2
2_ALL_CSYS
 70
     0
 62
     7
  6
CONTINUOUS
370
    -3
390
F
347
545
  0
LAYER
  5
1FF
330
2
100
AcDbSymbolTableRecord
100
AcDbLayerTableRecord
  2
3_ALL_AXES
 70
     0
 62
     7
  6
CONTINUOUS
370
    -3
390
F
347
545
  0
LAYER
  5
200
330
2
100
AcDbSymbolTableRecord
100
AcDbLayerTableRecord
  2
4_ALL_POINTS
 70
     0
 62
     7
  6
CONTINUOUS
370
    -3
390
F
347
545
  0
LAYER
  5
201
330
2
100
AcDbSymbolTableRecord
100
AcDbLayerTableRecord
  2
5_ALL_CURVES
 70
     0
 62
     7
  6
CONTINUOUS
370
    -3
390
F
347
545
  0
LAYER
  5
202
330
2
100
AcDbSymbolTableRecord
100
AcDbLayerTableRecord
  2
6_ALL_SURFS
 70
     0
 62
     7
  6
CONTINUOUS
370
    -3
390
F
347
545
  0
LAYER
  5
203
330
2
100
AcDbSymbolTableRecord
100
AcDbLayerTableRecord
  2
7_ALL_FEATURES
 70
     0
 62
     7
  6
CONTINUOUS
370
    -3
390
F
347
545
  0
LAYER
  5
204
330
2
100
AcDbSymbolTableRecord
100
AcDbLayerTableRecord
  2
9_SOLID
 70
     0
 62
     7
  6
CONTINUOUS
370
    -3
390
F
347
545
  0
ENDTAB
  0
TABLE
  2
STYLE
  5
3
330
0
100
AcDbSymbolTable
 70
     2
  0
STYLE
  5
11
330
3
100
AcDbSymbolTableRecord
100
AcDbTextStyleTableRecord
  2
STANDARD
 70
     0
 40
0.0
 41
1.0
 50
0.0
 71
     0
 42
0.2
  3
arial.ttf
  4

  0
STYLE
  5
205
330
3
100
AcDbSymbolTableRecord
100
AcDbTextStyleTableRecord
  2
TEXTSTYLE_1
 70
     0
 40
0.0
 41
0.8
 50
0.0
 71
     0
 42
0.2
  3
gdt
  4

  0
ENDTAB
  0
TABLE
  2
VIEW
  5
6
330
0
100
AcDbSymbolTable
 70
     0
  0
ENDTAB
  0
TABLE
  2
UCS
  5
7
330
0
100
AcDbSymbolTable
 70
     0
  0
ENDTAB
  0
TABLE
  2
APPID
  5
9
330
0
100
AcDbSymbolTable
 70
     6
  0
APPID
  5
206
330
9
100
AcDbSymbolTableRecord
100
AcDbRegAppTableRecord
  2
ACAD
 70
     0
  0
APPID
  5
546
330
9
100
AcDbSymbolTableRecord
100
AcDbRegAppTableRecord
  2
MCS_DIM1
 70
     0
  0
APPID
  5
547
330
9
100
AcDbSymbolTableRecord
100
AcDbRegAppTableRecord
  2
McsXdata5
 70
     0
  0
APPID
  5
54A
330
9
100
AcDbSymbolTableRecord
100
AcDbRegAppTableRecord
  2
MCS_DOCUMENT_ID
 70
     0
  0
APPID
  5
550
330
9
100
AcDbSymbolTableRecord
100
AcDbRegAppTableRecord
  2
MCS_PARAMS_DATA
 70
     0
  0
APPID
  5
552
330
9
100
AcDbSymbolTableRecord
100
AcDbRegAppTableRecord
  2
MC_VERSION_DATA
 70
     0
  0
ENDTAB
  0
TABLE
  2
DIMSTYLE
  5
A
330
0
100
AcDbSymbolTable
 70
     3
100
AcDbDimStyleTable
  0
DIMSTYLE
105
20F
330
A
100
AcDbSymbolTableRecord
100
AcDbDimStyleTableRecord
  2
STANDARD
 70
     0
 41
2.5
 42
0.75
 44
0.75
 47
0.01
 48
0.01
 71
     1
 73
     0
 74
     0
 77
     1
 78
     8
 79
     2
140
3.0
147
0.625
171
     1
178
     0
179
     2
271
     2
272
     2
278
    44
284
     8
340
11
341
209
342
209
343
209
344
209
  0
DIMSTYLE
105
210
330
A
100
AcDbSymbolTableRecord
100
AcDbDimStyleTableRecord
  2
DIMSTYLE_1
 70
     0
 41
2.5
 42
0.75
 44
0.75
 47
0.5
 48
0.5
 73
     0
 74
     0
 77
     1
 78
     8
 79
     2
140
7.0
147
1.75
171
     1
178
     0
179
     2
271
     2
272
     2
278
    44
284
     8
340
11
341
209
342
209
343
209
344
209
  0
DIMSTYLE
105
211
330
A
100
AcDbSymbolTableRecord
100
AcDbDimStyleTableRecord
  2
DIMSTYLE_2
 70
     0
 41
2.5
 42
0.75
 44
0.75
 47
0.3
 48
0.3
 73
     0
 74
     0
 77
     1
 78
     8
 79
     2
140
7.0
147
1.75
171
     1
178
     0
179
     2
271
     2
272
     2
278
    44
284
     8
340
11
341
209
342
209
343
209
344
209
  0
ENDTAB
  0
TABLE
  2
BLOCK_RECORD
  5
1
330
0
100
AcDbSymbolTable
 70
     6
  0
BLOCK_RECORD
  5
207
330
1
100
AcDbSymbolTableRecord
100
AcDbBlockTableRecord
  2
*Model_Space
340
500
 70
     0
280
     1
281
     0
  0
BLOCK_RECORD
  5
208
330
1
100
AcDbSymbolTableRecord
100
AcDbBlockTableRecord
  2
*Paper_Space
340
501
 70
     0
280
     1
281
     0
  0
BLOCK_RECORD
  5
209
330
1
100
AcDbSymbolTableRecord
100
AcDbBlockTableRecord
  2
_CLOSED
340
0
102
{BLKREFS
331
25A
331
25B
331
263
331
264
331
26C
331
26D
102
}
 70
     0
280
     1
281
     0
  0
BLOCK_RECORD
  5
20A
330
1
100
AcDbSymbolTableRecord
100
AcDbBlockTableRecord
  2
*D1
340
0
 70
     0
280
     1
281
     0
  0
BLOCK_RECORD
  5
20B
330
1
100
AcDbSymbolTableRecord
100
AcDbBlockTableRecord
  2
*D2
340
0
 70
     0
280
     1
281
     0
  0
BLOCK_RECORD
  5
20C
330
1
100
AcDbSymbolTableRecord
100
AcDbBlockTableRecord
  2
*D3
340
0
 70
     0
280
     1
281
     0
  0
BLOCK_RECORD
  5
20D
330
1
100
AcDbSymbolTableRecord
100
AcDbBlockTableRecord
  2
LOGO2_BL0
340
0
102
{BLKREFS
331
4FD
102
}
 70
     0
280
     1
281
     0
  0
BLOCK_RECORD
  5
20E
330
1
100
AcDbSymbolTableRecord
100
AcDbBlockTableRecord
  2
*T5
340
0
102
{BLKREFS
331
4FE
102
}
 70
     0
280
     1
281
     0
  0
ENDTAB
  0
ENDSEC
  0
SECTION
  2
BLOCKS
  0
BLOCK
  5
20
330
207
100
AcDbEntity
  8
0
100
AcDbBlockBegin
  2
*Model_Space
 70
     0
 10
0.0
 20
0.0
 30
0.0
  3
*Model_Space
  1
*Model_Space
  0
ENDBLK
  5
21
330
207
100
AcDbEntity
  8
0
100
AcDbBlockEnd
  0
BLOCK
  5
1C
330
208
100
AcDbEntity
 67
     1
  8
0
100
AcDbBlockBegin
  2
*Paper_Space
 70
     0
 10
0.0
 20
0.0
 30
0.0
  3
*Paper_Space
  1
*Paper_Space
  0
ENDBLK
  5
1D
330
208
100
AcDbEntity
 67
     1
  8
0
100
AcDbBlockEnd
  0
BLOCK
  5
24E
330
209
100
AcDbEntity
  8
0
100
AcDbBlockBegin
  2
_CLOSED
 70
     0
 10
0.0
 20
0.0
 30
0.0
  3
_CLOSED
  1
_CLOSED
  0
LINE
  5
24F
330
209
100
AcDbEntity
  8
0
  6
ByBlock
 62
     0
100
AcDbLine
 10
0.0
 20
0.0
 30
0.0
 11
-1.0
 21
0.2
 31
0.0
  0
LINE
  5
250
330
209
100
AcDbEntity
  8
0
  6
ByBlock
 62
     0
100
AcDbLine
 10
-1.0
 20
0.2
 30
0.0
 11
-1.0
 21
-0.2
 31
0.0
  0
LINE
  5
251
330
209
100
AcDbEntity
  8
0
  6
ByBlock
 62
     0
100
AcDbLine
 10
-1.0
 20
-0.2
 30
0.0
 11
0.0
 21
0.0
 31
0.0
  0
LINE
  5
252
330
209
100
AcDbEntity
  8
0
  6
ByBlock
 62
     0
100
AcDbLine
 10
-1.0
 20
0.0
 30
0.0
 11
0.0
 21
0.0
 31
0.0
  0
ENDBLK
  5
253
330
209
100
AcDbEntity
  8
0
  6
ByBlock
 62
     0
100
AcDbBlockEnd
  0
BLOCK
  5
254
330
20A
100
AcDbEntity
  8
0
100
AcDbBlockBegin
  2
*D1
 70
     1
 10
0.0
 20
0.0
 30
0.0
  3
*D1
  1
*D1
  0
MTEXT
  5
255
330
20A
100
AcDbEntity
  8
0
  6
Continuous
 62
     7
100
AcDbMText
 10
199.743877
 20
383.262479
 30
0.0
 40
7.0
 41
16.315985
 46
0.0
 71
     2
 72
     1
  1
313
 73
     1
 44
0.9
  0
LINE
  5
256
330
20A
100
AcDbEntity
  8
0
  6
Continuous
 62
     7
100
AcDbLine
 10
356.243877
 20
363.826442
 30
0.0
 11
356.243877
 21
375.262479
 31
0.0
  0
LINE
  5
257
330
20A
100
AcDbEntity
  8
0
  6
Continuous
 62
     7
100
AcDbLine
 10
43.243877
 20
362.65642
 30
0.0
 11
43.243877
 21
375.262479
 31
0.0
  0
LINE
  5
258
330
20A
100
AcDbEntity
  8
0
  6
Continuous
 62
     7
100
AcDbLine
 10
356.243877
 20
374.512479
 30
0.0
 11
199.743877
 21
374.512479
 31
0.0
  0
LINE
  5
259
330
20A
100
AcDbEntity
  8
0
  6
Continuous
 62
     7
100
AcDbLine
 10
43.243877
 20
374.512479
 30
0.0
 11
199.743877
 21
374.512479
 31
0.0
  0
INSERT
  5
25A
330
20A
100
AcDbEntity
  8
0
  6
Continuous
 62
     7
100
AcDbBlockReference
  2
_CLOSED
 10
356.243877
 20
374.512479
 30
0.0
 41
2.5
 42
2.5
 43
2.5
  0
INSERT
  5
25B
330
20A
100
AcDbEntity
  8
0
  6
Continuous
 62
     7
100
AcDbBlockReference
  2
_CLOSED
 10
43.243877
 20
374.512479
 30
0.0
 41
2.5
 42
2.5
 43
2.5
 50
180.0
  0
ENDBLK
  5
25C
330
20A
100
AcDbEntity
  8
0
  6
ByBlock
 62
     0
100
AcDbBlockEnd
  0
BLOCK
  5
25D
330
20B
100
AcDbEntity
  8
0
100
AcDbBlockBegin
  2
*D2
 70
     1
 10
0.0
 20
0.0
 30
0.0
  3
*D2
  1
*D2
  0
MTEXT
  5
25E
330
20B
100
AcDbEntity
  8
0
  6
Continuous
 62
     7
100
AcDbMText
 10
483.811817
 20
382.727333
 30
0.0
 40
7.0
 41
10.877323
 46
0.0
 71
     2
 72
     1
  1
63
 73
     1
 44
0.9
  0
LINE
  5
25F
330
20B
100
AcDbEntity
  8
0
  6
Continuous
 62
     7
100
AcDbLine
 10
452.311817
 20
362.65642
 30
0.0
 11
452.311817
 21
374.727333
 31
0.0
  0
LINE
  5
260
330
20B
100
AcDbEntity
  8
0
  6
Continuous
 62
     7
100
AcDbLine
 10
515.311817
 20
362.65642
 30
0.0
 11
515.311817
 21
374.727333
 31
0.0
  0
LINE
  5
261
330
20B
100
AcDbEntity
  8
0
  6
Continuous
 62
     7
100
AcDbLine
 10
452.311817
 20
373.977333
 30
0.0
 11
483.811817
 21
373.977333
 31
0.0
  0
LINE
  5
262
330
20B
100
AcDbEntity
  8
0
  6
Continuous
 62
     7
100
AcDbLine
 10
515.311817
 20
373.977333
 30
0.0
 11
483.811817
 21
373.977333
 31
0.0
  0
INSERT
  5
263
330
20B
100
AcDbEntity
  8
0
  6
Continuous
 62
     7
100
AcDbBlockReference
  2
_CLOSED
 10
452.311817
 20
373.977333
 30
0.0
 41
2.5
 42
2.5
 43
2.5
 50
180.0
  0
INSERT
  5
264
330
20B
100
AcDbEntity
  8
0
  6
Continuous
 62
     7
100
AcDbBlockReference
  2
_CLOSED
 10
515.311817
 20
373.977333
 30
0.0
 41
2.5
 42
2.5
 43
2.5
  0
ENDBLK
  5
265
330
20B
100
AcDbEntity
  8
0
  6
ByBlock
 62
     0
100
AcDbBlockEnd
  0
BLOCK
  5
266
330
20C
100
AcDbEntity
  8
0
100
AcDbBlockBegin
  2
*D3
 70
     1
 10
0.0
 20
0.0
 30
0.0
  3
*D3
  1
*D3
  0
MTEXT
  5
267
330
20C
100
AcDbEntity
  8
0
  6
Continuous
 62
     7
100
AcDbMText
 10
423.030462
 20
279.539089
 30
0.0
 40
7.0
 41
16.315985
 46
0.0
 71
     2
 72
     1
  1
150
 11
0.0
 21
1.0
 31
0.0
 73
     1
 44
0.9
  0
LINE
  5
268
330
20C
100
AcDbEntity
  8
0
  6
Continuous
 62
     7
100
AcDbLine
 10
440.803201
 20
354.539089
 30
0.0
 11
431.030462
 21
354.539089
 31
0.0
  0
LINE
  5
269
330
20C
100
AcDbEntity
  8
0
  6
Continuous
 62
     7
100
AcDbLine
 10
442.83481
 20
204.539089
 30
0.0
 11
431.030462
 21
204.539089
 31
0.0
  0
LINE
  5
26A
330
20C
100
AcDbEntity
  8
0
  6
Continuous
 62
     7
100
AcDbLine
 10
431.780462
 20
354.539089
 30
0.0
 11
431.780462
 21
279.539089
 31
0.0
  0
LINE
  5
26B
330
20C
100
AcDbEntity
  8
0
  6
Continuous
 62
     7
100
AcDbLine
 10
431.780462
 20
204.539089
 30
0.0
 11
431.780462
 21
279.539089
 31
0.0
  0
INSERT
  5
26C
330
20C
100
AcDbEntity
  8
0
  6
Continuous
 62
     7
100
AcDbBlockReference
  2
_CLOSED
 10
431.780462
 20
354.539089
 30
0.0
 41
2.5
 42
2.5
 43
2.5
 50
90.0
  0
INSERT
  5
26D
330
20C
100
AcDbEntity
  8
0
  6
Continuous
 62
     7
100
AcDbBlockReference
  2
_CLOSED
 10
431.780462
 20
204.539089
 30
0.0
 41
2.5
 42
2.5
 43
2.5
 50
270.0
  0
ENDBLK
  5
26E
330
20C
100
AcDbEntity
  8
0
  6
ByBlock
 62
     0
100
AcDbBlockEnd
  0
BLOCK
  5
212
330
20D
100
AcDbEntity
  8
0
100
AcDbBlockBegin
  2
LOGO2_BL0
 70
     0
 10
507.922935
 20
36.880038
 30
0.0
  3
LOGO2_BL0
  1
LOGO2_BL0
  0
LINE
  5
213
330
20D
100
AcDbEntity
  8
0
  6
Continuous
 62
     7
100
AcDbLine
 10
499.66586
 20
40.075529
 30
0.0
 11
498.361519
 21
40.075529
 31
0.0
  0
LINE
  5
214
330
20D
100
AcDbEntity
  8
0
  6
Continuous
 62
     7
100
AcDbLine
 10
498.361519
 20
40.075529
 30
0.0
 11
498.361519
 21
29.616463
 31
0.0
  0
LINE
  5
215
330
20D
100
AcDbEntity
  8
0
  6
Continuous
 62
     7
100
AcDbLine
 10
498.361519
 20
29.616463
 30
0.0
 11
502.842574
 21
29.616463
 31
0.0
  0
LINE
  5
216
330
20D
100
AcDbEntity
  8
0
  6
Continuous
 62
     7
100
AcDbLine
 10
502.842574
 20
29.616463
 30
0.0
 11
502.842574
 21
30.809318
 31
0.0
  0
LINE
  5
217
330
20D
100
AcDbEntity
  8
0
  6
Continuous
 62
     7
100
AcDbLine
 10
502.842574
 20
30.809318
 30
0.0
 11
499.66586
 21
30.809318
 31
0.0
  0
LINE
  5
218
330
20D
100
AcDbEntity
  8
0
  6
Continuous
 62
     7
100
AcDbLine
 10
499.66586
 20
30.809318
 30
0.0
 11
499.66586
 21
40.075529
 31
0.0
  0
LINE
  5
219
330
20D
100
AcDbEntity
  8
0
  6
Continuous
 62
     7
100
AcDbLine
 10
514.602186
 20
40.075529
 30
0.0
 11
513.298369
 21
40.075529
 31
0.0
  0
LINE
  5
21A
330
20D
100
AcDbEntity
  8
0
  6
Continuous
 62
     7
100
AcDbLine
 10
513.298369
 20
40.075529
 30
0.0
 11
513.298369
 21
29.616463
 31
0.0
  0
LINE
  5
21B
330
20D
100
AcDbEntity
  8
0
  6
Continuous
 62
     7
100
AcDbLine
 10
513.298369
 20
29.616463
 30
0.0
 11
517.779555
 21
29.616463
 31
0.0
  0
LINE
  5
21C
330
20D
100
AcDbEntity
  8
0
  6
Continuous
 62
     7
100
AcDbLine
 10
517.779555
 20
29.616463
 30
0.0
 11
517.779555
 21
30.809318
 31
0.0
  0
LINE
  5
21D
330
20D
100
AcDbEntity
  8
0
  6
Continuous
 62
     7
100
AcDbLine
 10
517.779555
 20
30.809318
 30
0.0
 11
514.602186
 21
30.809318
 31
0.0
  0
LINE
  5
21E
330
20D
100
AcDbEntity
  8
0
  6
Continuous
 62
     7
100
AcDbLine
 10
514.602186
 20
30.809318
 30
0.0
 11
514.602186
 21
40.075529
 31
0.0
  0
LWPOLYLINE
  5
21F
330
20D
100
AcDbEntity
  8
0
  6
Continuous
 62
     7
100
AcDbPolyline
 90
        2
 70
     0
 43
0.2
 10
496.715914
 20
26.272912
 10
496.715914
 20
24.415849
  0
LWPOLYLINE
  5
220
330
20D
100
AcDbEntity
  8
0
  6
Continuous
 62
     7
100
AcDbPolyline
 90
        2
 70
     0
 43
0.2
 10
496.715914
 20
24.415849
 10
497.51163
 20
24.415849
  0
LWPOLYLINE
  5
221
330
20D
100
AcDbEntity
  8
0
  6
Continuous
 62
     7
100
AcDbPolyline
 90
        2
 70
     0
 43
0.2
 10
497.51163
 20
24.415849
 10
497.51163
 20
24.62783
  0
LWPOLYLINE
  5
222
330
20D
100
AcDbEntity
  8
0
  6
Continuous
 62
     7
100
AcDbPolyline
 90
        2
 70
     0
 43
0.2
 10
497.51163
 20
24.62783
 10
496.947524
 20
24.62783
  0
LWPOLYLINE
  5
223
330
20D
100
AcDbEntity
  8
0
  6
Continuous
 62
     7
100
AcDbPolyline
 90
        2
 70
     0
 43
0.2
 10
496.947524
 20
24.62783
 10
496.947524
 20
26.272912
  0
LWPOLYLINE
  5
224
330
20D
100
AcDbEntity
  8
0
  6
Continuous
 62
     7
100
AcDbPolyline
 90
        2
 70
     0
 43
0.2
 10
496.947524
 20
26.272912
 10
496.715914
 20
26.272912
  0
SPLINE
  5
225
330
20D
100
AcDbEntity
  8
0
  6
Continuous
 62
     7
100
AcDbSpline
 70
     3
 71
     3
 72
    35
 73
    31
 74
     0
 42
0.000000001
 43
0.0000001
 40
0.0
 40
0.0
 40
0.0
 40
0.0
 40
1.0
 40
1.0
 40
1.0
 40
2.0
 40
2.0
 40
2.0
 40
3.0
 40
3.0
 40
3.0
 40
4.0
 40
4.0
 40
4.0
 40
5.0
 40
5.0
 40
5.0
 40
6.0
 40
6.0
 40
6.0
 40
7.0
 40
7.0
 40
7.0
 40
8.0
 40
8.0
 40
8.0
 40
9.0
 40
9.0
 40
9.0
 40
10.0
 40
10.0
 40
10.0
 40
10.0
 10
498.9099234723
 20
25.5684003304
 30
0.0
 10
498.9099234723
 20
25.5684003304
 30
0.0
 10
498.9099234723
 20
24.9062850513
 30
0.0
 10
498.9099234723
 20
24.9062850513
 30
0.0
 10
498.9099234723
 20
24.591191456
 30
0.0
 10
499.0577871611
 20
24.3765928279
 30
0.0
 10
499.3978736454
 20
24.3765928279
 30
0.0
 10
499.7374367184
 20
24.3765928279
 30
0.0
 10
499.8855621129
 20
24.591191456
 30
0.0
 10
499.8855621129
 20
24.9062850513
 30
0.0
 10
499.8855621129
 20
24.9062850513
 30
0.0
 10
499.8855621129
 20
25.5684003304
 30
0.0
 10
499.8855621129
 20
25.5684003304
 30
0.0
 10
499.8855621129
 20
25.5684003304
 30
0.0
 10
499.663504874
 20
25.5684003304
 30
0.0
 10
499.663504874
 20
25.5684003304
 30
0.0
 10
499.663504874
 20
25.5684003304
 30
0.0
 10
499.663504874
 20
24.9314087931
 30
0.0
 10
499.663504874
 20
24.9314087931
 30
0.0
 10
499.663504874
 20
24.7455977859
 30
0.0
 10
499.6167904166
 20
24.5828168754
 30
0.0
 10
499.3978736454
 20
24.5828168754
 30
0.0
 10
499.178433463
 20
24.5828168754
 30
0.0
 10
499.1317190055
 20
24.7455977859
 30
0.0
 10
499.1317190055
 20
24.9314087931
 30
0.0
 10
499.1317190055
 20
24.9314087931
 30
0.0
 10
499.1317190055
 20
25.5684003304
 30
0.0
 10
499.1317190055
 20
25.5684003304
 30
0.0
 10
499.1317190055
 20
25.5684003304
 30
0.0
 10
498.9099234723
 20
25.5684003304
 30
0.0
 10
498.9099234723
 20
25.5684003304
 30
0.0
  0
SPLINE
  5
226
330
20D
100
AcDbEntity
  8
0
  6
Continuous
 62
     7
100
AcDbSpline
 70
     3
 71
     3
 72
    35
 73
    31
 74
     0
 42
0.000000001
 43
0.0000001
 40
0.0
 40
0.0
 40
0.0
 40
0.0
 40
1.0
 40
1.0
 40
1.0
 40
2.0
 40
2.0
 40
2.0
 40
3.0
 40
3.0
 40
3.0
 40
4.0
 40
4.0
 40
4.0
 40
5.0
 40
5.0
 40
5.0
 40
6.0
 40
6.0
 40
6.0
 40
7.0
 40
7.0
 40
7.0
 40
8.0
 40
8.0
 40
8.0
 40
9.0
 40
9.0
 40
9.0
 40
10.0
 40
10.0
 40
10.0
 40
10.0
 10
502.3086946701
 20
25.5270508387
 30
0.0
 10
502.2202381624
 20
25.5783451449
 30
0.0
 10
502.1067887658
 20
25.6034688867
 30
0.0
 10
502.0031533308
 20
25.6034688867
 30
0.0
 10
501.6482804776
 20
25.6034688867
 30
0.0
 10
501.3728352874
 20
25.3396695976
 30
0.0
 10
501.3728352874
 20
24.982179688
 30
0.0
 10
501.3728352874
 20
24.6372516493
 30
0.0
 10
501.6512900925
 20
24.3771162392
 30
0.0
 10
501.9908531655
 20
24.3771162392
 30
0.0
 10
502.1067887658
 20
24.3771162392
 30
0.0
 10
502.2075454387
 20
24.3990995133
 30
0.0
 10
502.3086946701
 20
24.453010876
 30
0.0
 10
502.3086946701
 20
24.453010876
 30
0.0
 10
502.3086946701
 20
24.7356529714
 30
0.0
 10
502.3086946701
 20
24.7356529714
 30
0.0
 10
502.2248180112
 20
24.6424857622
 30
0.0
 10
502.121313429
 20
24.5833402866
 30
0.0
 10
501.9932085163
 20
24.5833402866
 30
0.0
 10
501.7595053763
 20
24.5833402866
 30
0.0
 10
501.5942382621
 20
24.7555426004
 30
0.0
 10
501.5942382621
 20
24.9921245025
 30
0.0
 10
501.5942382621
 20
25.2041060741
 30
0.0
 10
501.7619915799
 20
25.3961980167
 30
0.0
 10
501.9788147059
 20
25.3961980167
 30
0.0
 10
502.1116303202
 20
25.3961980167
 30
0.0
 10
502.2202381624
 20
25.3422866541
 30
0.0
 10
502.3086946701
 20
25.2412682755
 30
0.0
 10
502.3086946701
 20
25.2412682755
 30
0.0
 10
502.3086946701
 20
25.5270508387
 30
0.0
 10
502.3086946701
 20
25.5270508387
 30
0.0
  0
SPLINE
  5
227
330
20D
100
AcDbEntity
  8
0
  6
Continuous
 62
     7
100
AcDbSpline
 70
     3
 71
     3
 72
    32
 73
    28
 74
     0
 42
0.000000001
 43
0.0000001
 40
0.0
 40
0.0
 40
0.0
 40
0.0
 40
1.0
 40
1.0
 40
1.0
 40
2.0
 40
2.0
 40
2.0
 40
3.0
 40
3.0
 40
3.0
 40
4.0
 40
4.0
 40
4.0
 40
5.0
 40
5.0
 40
5.0
 40
6.0
 40
6.0
 40
6.0
 40
7.0
 40
7.0
 40
7.0
 40
8.0
 40
8.0
 40
8.0
 40
9.0
 40
9.0
 40
9.0
 40
9.0
 10
504.8405659223
 20
24.9554857123
 30
0.0
 10
504.8405659223
 20
24.9554857123
 30
0.0
 10
504.8405659223
 20
24.989507446
 30
0.0
 10
504.8405659223
 20
24.989507446
 30
0.0
 10
504.8405659223
 20
25.3318184283
 30
0.0
 10
504.6677093445
 20
25.6034688867
 30
0.0
 10
504.3010597373
 20
25.6034688867
 30
0.0
 10
503.929437723
 20
25.6034688867
 30
0.0
 10
503.7397011311
 20
25.3370525412
 30
0.0
 10
503.7397011311
 20
24.982179688
 30
0.0
 10
503.7397011311
 20
24.6424857622
 30
0.0
 10
503.9537763478
 20
24.3765928279
 30
0.0
 10
504.3059012918
 20
24.3765928279
 30
0.0
 10
504.529921323
 20
24.3765928279
 30
0.0
 10
504.7320889329
 20
24.4922667226
 30
0.0
 10
504.8405659223
 20
24.6916864232
 30
0.0
 10
504.8405659223
 20
24.6916864232
 30
0.0
 10
504.6529229756
 20
24.798462326
 30
0.0
 10
504.6529229756
 20
24.798462326
 30
0.0
 10
504.5694388752
 20
24.6597583347
 30
0.0
 10
504.4782344583
 20
24.5739188835
 30
0.0
 10
504.308649201
 20
24.5739188835
 30
0.0
 10
504.0966676294
 20
24.5739188835
 30
0.0
 10
503.9637211623
 20
24.7586830681
 30
0.0
 10
503.9613658115
 20
24.9554857123
 30
0.0
 10
503.9613658115
 20
24.9554857123
 30
0.0
 10
504.8405659223
 20
24.9554857123
 30
0.0
 10
504.8405659223
 20
24.9554857123
 30
0.0
  0
SPLINE
  5
228
330
20D
100
AcDbEntity
  8
0
  6
Continuous
 62
     7
100
AcDbSpline
 70
     3
 71
     3
 72
    14
 73
    10
 74
     0
 42
0.000000001
 43
0.0000001
 40
0.0
 40
0.0
 40
0.0
 40
0.0
 40
1.0
 40
1.0
 40
1.0
 40
2.0
 40
2.0
 40
2.0
 40
3.0
 40
3.0
 40
3.0
 40
3.0
 10
503.9734042711
 20
25.1229773244
 30
0.0
 10
504.0010142166
 20
25.2878518801
 30
0.0
 10
504.1288574236
 20
25.4108535328
 30
0.0
 10
504.3010597373
 20
25.4108535328
 30
0.0
 10
504.4782344583
 20
25.4108535328
 30
0.0
 10
504.5916838549
 20
25.2951796381
 30
0.0
 10
504.6189012419
 20
25.1229773244
 30
0.0
 10
504.6189012419
 20
25.1229773244
 30
0.0
 10
503.9734042711
 20
25.1229773244
 30
0.0
 10
503.9734042711
 20
25.1229773244
 30
0.0
  0
SPLINE
  5
229
330
20D
100
AcDbEntity
  8
0
  6
Continuous
 62
     7
100
AcDbSpline
 70
     3
 71
     3
 72
    20
 73
    16
 74
     0
 42
0.000000001
 43
0.0000001
 40
0.0
 40
0.0
 40
0.0
 40
0.0
 40
1.0
 40
1.0
 40
1.0
 40
2.0
 40
2.0
 40
2.0
 40
3.0
 40
3.0
 40
3.0
 40
4.0
 40
4.0
 40
4.0
 40
5.0
 40
5.0
 40
5.0
 40
5.0
 10
506.8645973725
 20
25.3323418396
 30
0.0
 10
506.8645973725
 20
25.3323418396
 30
0.0
 10
507.2757369391
 20
24.8298670032
 30
0.0
 10
507.2757369391
 20
24.8298670032
 30
0.0
 10
507.159670486
 20
24.7141931086
 30
0.0
 10
507.0218824645
 20
24.5838636979
 30
0.0
 10
506.8499418565
 20
24.5838636979
 30
0.0
 10
506.6725054299
 20
24.5838636979
 30
0.0
 10
506.5050138177
 20
24.7482148423
 30
0.0
 10
506.5050138177
 20
24.9251278576
 30
0.0
 10
506.5050138177
 20
25.1030876955
 30
0.0
 10
506.7147708914
 20
25.2292298159
 30
0.0
 10
506.8423523928
 20
25.3171629122
 30
0.0
 10
506.8423523928
 20
25.3171629122
 30
0.0
 10
506.8645973725
 20
25.3323418396
 30
0.0
 10
506.8645973725
 20
25.3323418396
 30
0.0
  0
SPLINE
  5
22A
330
20D
100
AcDbEntity
  8
0
  6
Continuous
 62
     7
100
AcDbSpline
 70
     3
 71
     3
 72
    23
 73
    19
 74
     0
 42
0.000000001
 43
0.0000001
 40
0.0
 40
0.0
 40
0.0
 40
0.0
 40
1.0
 40
1.0
 40
1.0
 40
2.0
 40
2.0
 40
2.0
 40
3.0
 40
3.0
 40
3.0
 40
4.0
 40
4.0
 40
4.0
 40
5.0
 40
5.0
 40
5.0
 40
6.0
 40
6.0
 40
6.0
 40
6.0
 10
506.9139288864
 20
25.6233585156
 30
0.0
 10
506.9139288864
 20
25.6233585156
 30
0.0
 10
506.8522972072
 20
25.7018702088
 30
0.0
 10
506.8522972072
 20
25.7018702088
 30
0.0
 10
506.7983858446
 20
25.7704370875
 30
0.0
 10
506.7415957199
 20
25.8395273775
 30
0.0
 10
506.7415957199
 20
25.9332179981
 30
0.0
 10
506.7415957199
 20
26.0520323604
 30
0.0
 10
506.8375108384
 20
26.129497231
 30
0.0
 10
506.9484740314
 20
26.129497231
 30
0.0
 10
507.0717373897
 20
26.129497231
 30
0.0
 10
507.1650354517
 20
26.0583132959
 30
0.0
 10
507.1650354517
 20
25.9279838852
 30
0.0
 10
507.1650354517
 20
25.7929437729
 30
0.0
 10
507.036930539
 20
25.7165257249
 30
0.0
 10
506.9433707713
 20
25.6427247333
 30
0.0
 10
506.9433707713
 20
25.6427247333
 30
0.0
 10
506.9139288864
 20
25.6233585156
 30
0.0
 10
506.9139288864
 20
25.6233585156
 30
0.0
  0
SPLINE
  5
22B
330
20D
100
AcDbEntity
  8
0
  6
Continuous
 62
     7
100
AcDbSpline
 70
     3
 71
     3
 72
    50
 73
    46
 74
     0
 42
0.000000001
 43
0.0000001
 40
0.0
 40
0.0
 40
0.0
 40
0.0
 40
1.0
 40
1.0
 40
1.0
 40
2.0
 40
2.0
 40
2.0
 40
3.0
 40
3.0
 40
3.0
 40
4.0
 40
4.0
 40
4.0
 40
5.0
 40
5.0
 40
5.0
 40
6.0
 40
6.0
 40
6.0
 40
7.0
 40
7.0
 40
7.0
 40
8.0
 40
8.0
 40
8.0
 40
9.0
 40
9.0
 40
9.0
 40
10.0
 40
10.0
 40
10.0
 40
11.0
 40
11.0
 40
11.0
 40
12.0
 40
12.0
 40
12.0
 40
13.0
 40
13.0
 40
13.0
 40
14.0
 40
14.0
 40
14.0
 40
15.0
 40
15.0
 40
15.0
 40
15.0
 10
507.6160851291
 20
24.4163720858
 30
0.0
 10
507.6160851291
 20
24.4163720858
 30
0.0
 10
507.9014751338
 20
24.4163720858
 30
0.0
 10
507.9014751338
 20
24.4163720858
 30
0.0
 10
507.9014751338
 20
24.4163720858
 30
0.0
 10
507.569108966
 20
24.8272499468
 30
0.0
 10
507.569108966
 20
24.8272499468
 30
0.0
 10
507.569108966
 20
24.8272499468
 30
0.0
 10
507.7956152008
 20
25.093142881
 30
0.0
 10
507.7956152008
 20
25.093142881
 30
0.0
 10
507.7956152008
 20
25.093142881
 30
0.0
 10
507.6473589535
 20
25.2459789771
 30
0.0
 10
507.6473589535
 20
25.2459789771
 30
0.0
 10
507.6473589535
 20
25.2459789771
 30
0.0
 10
507.4314517973
 20
24.9947415589
 30
0.0
 10
507.4314517973
 20
24.9947415589
 30
0.0
 10
507.4314517973
 20
24.9947415589
 30
0.0
 10
507.0443891499
 20
25.4626712503
 30
0.0
 10
507.0443891499
 20
25.4626712503
 30
0.0
 10
507.1998423024
 20
25.576774911
 30
0.0
 10
507.3821202834
 20
25.7165257249
 30
0.0
 10
507.3821202834
 20
25.92589024
 30
0.0
 10
507.3821202834
 20
26.1697999002
 30
0.0
 10
507.1800835263
 20
26.3132145931
 30
0.0
 10
506.9535772914
 20
26.3132145931
 30
0.0
 10
506.7094059257
 20
26.3132145931
 30
0.0
 10
506.5250342995
 20
26.1624721421
 30
0.0
 10
506.5250342995
 20
25.9060006111
 30
0.0
 10
506.5250342995
 20
25.7484538134
 30
0.0
 10
506.6236973273
 20
25.6107966447
 30
0.0
 10
506.729033849
 20
25.4998334517
 30
0.0
 10
506.729033849
 20
25.4998334517
 30
0.0
 10
506.6134908072
 20
25.4160876456
 30
0.0
 10
506.6134908072
 20
25.4160876456
 30
0.0
 10
506.4357926749
 20
25.2878518801
 30
0.0
 10
506.2884523974
 20
25.1601395259
 30
0.0
 10
506.2884523974
 20
24.9230342125
 30
0.0
 10
506.2884523974
 20
24.6027065043
 30
0.0
 10
506.5470175736
 20
24.3765928279
 30
0.0
 10
506.8574004673
 20
24.3765928279
 30
0.0
 10
507.0763172385
 20
24.3765928279
 30
0.0
 10
507.2735124412
 20
24.5016881257
 30
0.0
 10
507.4137866663
 20
24.667609504
 30
0.0
 10
507.4137866663
 20
24.667609504
 30
0.0
 10
507.6160851291
 20
24.4163720858
 30
0.0
 10
507.6160851291
 20
24.4163720858
 30
0.0
  0
LWPOLYLINE
  5
22C
330
20D
100
AcDbEntity
  8
0
  6
Continuous
 62
     7
100
AcDbPolyline
 90
        2
 70
     0
 43
0.2
 10
509.551529
 20
26.272912
 10
509.320181
 20
26.272912
  0
LWPOLYLINE
  5
22D
330
20D
100
AcDbEntity
  8
0
  6
Continuous
 62
     7
100
AcDbPolyline
 90
        2
 70
     0
 43
0.2
 10
509.320181
 20
26.272912
 10
509.320181
 20
24.415849
  0
LWPOLYLINE
  5
22E
330
20D
100
AcDbEntity
  8
0
  6
Continuous
 62
     7
100
AcDbPolyline
 90
        2
 70
     0
 43
0.2
 10
509.320181
 20
24.415849
 10
510.115505
 20
24.415849
  0
LWPOLYLINE
  5
22F
330
20D
100
AcDbEntity
  8
0
  6
Continuous
 62
     7
100
AcDbPolyline
 90
        2
 70
     0
 43
0.2
 10
510.115505
 20
24.415849
 10
510.115505
 20
24.62783
  0
LWPOLYLINE
  5
230
330
20D
100
AcDbEntity
  8
0
  6
Continuous
 62
     7
100
AcDbPolyline
 90
        2
 70
     0
 43
0.2
 10
510.115505
 20
24.62783
 10
509.551529
 20
24.62783
  0
LWPOLYLINE
  5
231
330
20D
100
AcDbEntity
  8
0
  6
Continuous
 62
     7
100
AcDbPolyline
 90
        2
 70
     0
 43
0.2
 10
509.551529
 20
24.62783
 10
509.551529
 20
26.272912
  0
LWPOLYLINE
  5
232
330
20D
100
AcDbEntity
  8
0
  6
Continuous
 62
     7
100
AcDbPolyline
 90
        2
 70
     0
 43
0.2
 10
511.794608
 20
25.5684
 10
511.573467
 20
25.5684
  0
LWPOLYLINE
  5
233
330
20D
100
AcDbEntity
  8
0
  6
Continuous
 62
     7
100
AcDbPolyline
 90
        2
 70
     0
 43
0.2
 10
511.573467
 20
25.5684
 10
511.573467
 20
24.416372
  0
LWPOLYLINE
  5
234
330
20D
100
AcDbEntity
  8
0
  6
Continuous
 62
     7
100
AcDbPolyline
 90
        2
 70
     0
 43
0.2
 10
511.573467
 20
24.416372
 10
511.794608
 20
24.416372
  0
LWPOLYLINE
  5
235
330
20D
100
AcDbEntity
  8
0
  6
Continuous
 62
     7
100
AcDbPolyline
 90
        2
 70
     0
 43
0.2
 10
511.794608
 20
24.416372
 10
511.794608
 20
25.5684
  0
LWPOLYLINE
  5
236
330
20D
100
AcDbEntity
  8
0
  6
Continuous
 62
     7
100
AcDbPolyline
 90
        2
 70
     1
 43
0.2
 10
511.531585
 20
26.098354
 42
1.0
 10
511.836752
 20
26.098354
 42
1.0
  0
SPLINE
  5
237
330
20D
100
AcDbEntity
  8
0
  6
Continuous
 62
     7
100
AcDbSpline
 70
     3
 71
     3
 72
    17
 73
    13
 74
     0
 42
0.000000001
 43
0.0000001
 40
0.0
 40
0.0
 40
0.0
 40
0.0
 40
1.0
 40
1.0
 40
1.0
 40
2.0
 40
2.0
 40
2.0
 40
3.0
 40
3.0
 40
3.0
 40
4.0
 40
4.0
 40
4.0
 40
4.0
 10
513.9248922346
 20
24.5739188835
 30
0.0
 10
513.6909273889
 20
24.5739188835
 30
0.0
 10
513.5605979782
 20
24.7759556406
 30
0.0
 10
513.5605979782
 20
24.9921245025
 30
0.0
 10
513.5605979782
 20
25.2067231305
 30
0.0
 10
513.6964232074
 20
25.4056194199
 30
0.0
 10
513.9248922346
 20
25.4056194199
 30
0.0
 10
514.1643528988
 20
25.4056194199
 30
0.0
 10
514.2999164223
 20
25.216667945
 30
0.0
 10
514.2999164223
 20
24.9921245025
 30
0.0
 10
514.2999164223
 20
24.7660108261
 30
0.0
 10
514.1667082496
 20
24.5739188835
 30
0.0
 10
513.9248922346
 20
24.5739188835
 30
0.0
  0
SPLINE
  5
238
330
20D
100
AcDbEntity
  8
0
  6
Continuous
 62
     7
100
AcDbSpline
 70
     3
 71
     3
 72
    50
 73
    46
 74
     0
 42
0.000000001
 43
0.0000001
 40
0.0
 40
0.0
 40
0.0
 40
0.0
 40
1.0
 40
1.0
 40
1.0
 40
2.0
 40
2.0
 40
2.0
 40
3.0
 40
3.0
 40
3.0
 40
4.0
 40
4.0
 40
4.0
 40
5.0
 40
5.0
 40
5.0
 40
6.0
 40
6.0
 40
6.0
 40
7.0
 40
7.0
 40
7.0
 40
8.0
 40
8.0
 40
8.0
 40
9.0
 40
9.0
 40
9.0
 40
10.0
 40
10.0
 40
10.0
 40
11.0
 40
11.0
 40
11.0
 40
12.0
 40
12.0
 40
12.0
 40
13.0
 40
13.0
 40
13.0
 40
14.0
 40
14.0
 40
14.0
 40
15.0
 40
15.0
 40
15.0
 40
15.0
 10
514.5090192319
 20
25.5689237417
 30
0.0
 10
514.5090192319
 20
25.5689237417
 30
0.0
 10
514.2873545514
 20
25.5689237417
 30
0.0
 10
514.2873545514
 20
25.5689237417
 30
0.0
 10
514.2873545514
 20
25.5689237417
 30
0.0
 10
514.2873545514
 20
25.3715976862
 30
0.0
 10
514.2873545514
 20
25.3715976862
 30
0.0
 10
514.2873545514
 20
25.3715976862
 30
0.0
 10
514.2826438499
 20
25.3715976862
 30
0.0
 10
514.2826438499
 20
25.3715976862
 30
0.0
 10
514.1913085801
 20
25.5144889678
 30
0.0
 10
514.0533897058
 20
25.6029454754
 30
0.0
 10
513.8806639808
 20
25.6029454754
 30
0.0
 10
513.548297813
 20
25.6029454754
 30
0.0
 10
513.3391950035
 20
25.3150692671
 30
0.0
 10
513.3391950035
 20
24.9994522605
 30
0.0
 10
513.3391950035
 20
24.6697031491
 30
0.0
 10
513.5362593533
 20
24.3765928279
 30
0.0
 10
513.8911322065
 20
24.3765928279
 30
0.0
 10
514.0533897058
 20
24.3765928279
 30
0.0
 10
514.1934022253
 20
24.4650493356
 30
0.0
 10
514.2826438499
 20
24.5959021576
 30
0.0
 10
514.2826438499
 20
24.5959021576
 30
0.0
 10
514.2873545514
 20
24.5959021576
 30
0.0
 10
514.2873545514
 20
24.5959021576
 30
0.0
 10
514.2873545514
 20
24.5959021576
 30
0.0
 10
514.2873545514
 20
24.3765928279
 30
0.0
 10
514.2873545514
 20
24.3765928279
 30
0.0
 10
514.2873545514
 20
24.1400109258
 30
0.0
 10
514.2308261324
 20
23.953153096
 30
0.0
 10
513.9576054401
 20
23.953153096
 30
0.0
 10
513.7553069773
 20
23.953153096
 30
0.0
 10
513.6126774014
 20
24.0714440471
 30
0.0
 10
513.6126774014
 20
24.2776680945
 30
0.0
 10
513.6126774014
 20
24.2776680945
 30
0.0
 10
513.391012721
 20
24.2776680945
 30
0.0
 10
513.391012721
 20
24.2776680945
 30
0.0
 10
513.3959851282
 20
23.953153096
 30
0.0
 10
513.6270712118
 20
23.7563504518
 30
0.0
 10
513.94739892
 20
23.7563504518
 30
0.0
 10
514.3954389824
 20
23.7563504518
 30
0.0
 10
514.5090192319
 20
24.0416096037
 30
0.0
 10
514.5090192319
 20
24.4383553599
 30
0.0
 10
514.5090192319
 20
24.4383553599
 30
0.0
 10
514.5090192319
 20
25.5689237417
 30
0.0
 10
514.5090192319
 20
25.5689237417
 30
0.0
  0
SPLINE
  5
239
330
20D
100
AcDbEntity
  8
0
  6
Continuous
 62
     7
100
AcDbSpline
 70
     3
 71
     3
 72
    44
 73
    40
 74
     0
 42
0.000000001
 43
0.0000001
 40
0.0
 40
0.0
 40
0.0
 40
0.0
 40
1.0
 40
1.0
 40
1.0
 40
2.0
 40
2.0
 40
2.0
 40
3.0
 40
3.0
 40
3.0
 40
4.0
 40
4.0
 40
4.0
 40
5.0
 40
5.0
 40
5.0
 40
6.0
 40
6.0
 40
6.0
 40
7.0
 40
7.0
 40
7.0
 40
8.0
 40
8.0
 40
8.0
 40
9.0
 40
9.0
 40
9.0
 40
10.0
 40
10.0
 40
10.0
 40
11.0
 40
11.0
 40
11.0
 40
12.0
 40
12.0
 40
12.0
 40
13.0
 40
13.0
 40
13.0
 40
13.0
 10
516.0779445672
 20
26.5539837855
 30
0.0
 10
516.0779445672
 20
26.5539837855
 30
0.0
 10
516.0779445672
 20
24.4158486745
 30
0.0
 10
516.0779445672
 20
24.4158486745
 30
0.0
 10
516.0779445672
 20
24.4158486745
 30
0.0
 10
516.299347542
 20
24.4158486745
 30
0.0
 10
516.299347542
 20
24.4158486745
 30
0.0
 10
516.299347542
 20
24.4158486745
 30
0.0
 10
516.299347542
 20
24.9455408978
 30
0.0
 10
516.299347542
 20
24.9455408978
 30
0.0
 10
516.299347542
 20
25.1554288243
 30
0.0
 10
516.299347542
 20
25.4061428312
 30
0.0
 10
516.5846066939
 20
25.4061428312
 30
0.0
 10
516.8115054872
 20
25.4061428312
 30
0.0
 10
516.8384611685
 20
25.2731963641
 30
0.0
 10
516.8384611685
 20
25.0769171311
 30
0.0
 10
516.8384611685
 20
25.0769171311
 30
0.0
 10
516.8384611685
 20
24.4158486745
 30
0.0
 10
516.8384611685
 20
24.4158486745
 30
0.0
 10
516.8384611685
 20
24.4158486745
 30
0.0
 10
517.0603875546
 20
24.4158486745
 30
0.0
 10
517.0603875546
 20
24.4158486745
 30
0.0
 10
517.0603875546
 20
24.4158486745
 30
0.0
 10
517.0603875546
 20
25.1030876955
 30
0.0
 10
517.0603875546
 20
25.1030876955
 30
0.0
 10
517.0603875546
 20
25.3836361458
 30
0.0
 10
516.9763800429
 20
25.6034688867
 30
0.0
 10
516.6513416331
 20
25.6034688867
 30
0.0
 10
516.5115908192
 20
25.6034688867
 30
0.0
 10
516.3734102392
 20
25.5369956531
 30
0.0
 10
516.3040582436
 20
25.4139940005
 30
0.0
 10
516.3040582436
 20
25.4139940005
 30
0.0
 10
516.299347542
 20
25.4139940005
 30
0.0
 10
516.299347542
 20
25.4139940005
 30
0.0
 10
516.299347542
 20
25.4139940005
 30
0.0
 10
516.299347542
 20
26.5539837855
 30
0.0
 10
516.299347542
 20
26.5539837855
 30
0.0
 10
516.299347542
 20
26.5539837855
 30
0.0
 10
516.0779445672
 20
26.5539837855
 30
0.0
 10
516.0779445672
 20
26.5539837855
 30
0.0
  0
LWPOLYLINE
  5
23A
330
20D
100
AcDbEntity
  8
0
  6
Continuous
 62
     7
100
AcDbPolyline
 90
        2
 70
     0
 43
0.2
 10
518.900178
 20
25.361653
 10
519.116609
 20
25.361653
  0
LWPOLYLINE
  5
23B
330
20D
100
AcDbEntity
  8
0
  6
Continuous
 62
     7
100
AcDbPolyline
 90
        2
 70
     0
 43
0.2
 10
519.116609
 20
25.361653
 10
519.116609
 20
25.5684
  0
LWPOLYLINE
  5
23C
330
20D
100
AcDbEntity
  8
0
  6
Continuous
 62
     7
100
AcDbPolyline
 90
        2
 70
     0
 43
0.2
 10
519.116609
 20
25.5684
 10
518.900178
 20
25.5684
  0
LWPOLYLINE
  5
23D
330
20D
100
AcDbEntity
  8
0
  6
Continuous
 62
     7
100
AcDbPolyline
 90
        2
 70
     0
 43
0.2
 10
518.900178
 20
25.5684
 10
518.900178
 20
26.009113
  0
LWPOLYLINE
  5
23E
330
20D
100
AcDbEntity
  8
0
  6
Continuous
 62
     7
100
AcDbPolyline
 90
        2
 70
     0
 43
0.2
 10
518.900178
 20
26.009113
 10
518.678514
 20
26.009113
  0
LWPOLYLINE
  5
23F
330
20D
100
AcDbEntity
  8
0
  6
Continuous
 62
     7
100
AcDbPolyline
 90
        2
 70
     0
 43
0.2
 10
518.678514
 20
26.009113
 10
518.678514
 20
25.5684
  0
LWPOLYLINE
  5
240
330
20D
100
AcDbEntity
  8
0
  6
Continuous
 62
     7
100
AcDbPolyline
 90
        2
 70
     0
 43
0.2
 10
518.678514
 20
25.5684
 10
518.557867
 20
25.5684
  0
LWPOLYLINE
  5
241
330
20D
100
AcDbEntity
  8
0
  6
Continuous
 62
     7
100
AcDbPolyline
 90
        2
 70
     0
 43
0.2
 10
518.557867
 20
25.5684
 10
518.557867
 20
25.361653
  0
LWPOLYLINE
  5
242
330
20D
100
AcDbEntity
  8
0
  6
Continuous
 62
     7
100
AcDbPolyline
 90
        2
 70
     0
 43
0.2
 10
518.557867
 20
25.361653
 10
518.678514
 20
25.361653
  0
LWPOLYLINE
  5
243
330
20D
100
AcDbEntity
  8
0
  6
Continuous
 62
     7
100
AcDbPolyline
 90
        2
 70
     0
 43
0.2
 10
518.678514
 20
25.361653
 10
518.678514
 20
24.415849
  0
LWPOLYLINE
  5
244
330
20D
100
AcDbEntity
  8
0
  6
Continuous
 62
     7
100
AcDbPolyline
 90
        2
 70
     0
 43
0.2
 10
518.678514
 20
24.415849
 10
518.900178
 20
24.415849
  0
LWPOLYLINE
  5
245
330
20D
100
AcDbEntity
  8
0
  6
Continuous
 62
     7
100
AcDbPolyline
 90
        2
 70
     0
 43
0.2
 10
518.900178
 20
24.415849
 10
518.900178
 20
25.361653
  0
SPLINE
  5
246
330
20D
100
AcDbEntity
  8
0
  6
Continuous
 62
     7
100
AcDbSpline
 70
     3
 71
     3
 72
    20
 73
    16
 74
     0
 42
0.000000001
 43
0.0000001
 40
0.0
 40
0.0
 40
0.0
 40
0.0
 40
1.0
 40
1.0
 40
1.0
 40
2.0
 40
2.0
 40
2.0
 40
3.0
 40
3.0
 40
3.0
 40
4.0
 40
4.0
 40
4.0
 40
5.0
 40
5.0
 40
5.0
 40
5.0
 10
506.6821885387
 20
34.7767751179
 30
0.0
 10
506.6821885387
 20
34.7767751179
 30
0.0
 10
508.9985451932
 20
31.9472136957
 30
0.0
 10
508.9985451932
 20
31.9472136957
 30
0.0
 10
508.3468981398
 20
31.295043231
 30
0.0
 10
507.5700249357
 20
30.5591269603
 30
0.0
 10
506.5988352911
 20
30.5591269603
 30
0.0
 10
505.6002974067
 20
30.5591269603
 30
0.0
 10
504.6569794131
 20
31.4887054075
 30
0.0
 10
504.6569794131
 20
32.4878975561
 30
0.0
 10
504.6569794131
 20
33.4870897046
 30
0.0
 10
505.8358324862
 20
34.1936949432
 30
0.0
 10
506.5573549465
 20
34.6935527231
 30
0.0
 10
506.5573549465
 20
34.6935527231
 30
0.0
 10
506.6821885387
 20
34.7767751179
 30
0.0
 10
506.6821885387
 20
34.7767751179
 30
0.0
  0
SPLINE
  5
247
330
20D
100
AcDbEntity
  8
0
  6
Continuous
 62
     7
100
AcDbSpline
 70
     3
 71
     3
 72
    23
 73
    19
 74
     0
 42
0.000000001
 43
0.0000001
 40
0.0
 40
0.0
 40
0.0
 40
0.0
 40
1.0
 40
1.0
 40
1.0
 40
2.0
 40
2.0
 40
2.0
 40
3.0
 40
3.0
 40
3.0
 40
4.0
 40
4.0
 40
4.0
 40
5.0
 40
5.0
 40
5.0
 40
6.0
 40
6.0
 40
6.0
 40
6.0
 10
506.9595965213
 20
36.4145290377
 30
0.0
 10
506.9595965213
 20
36.4145290377
 30
0.0
 10
506.6130982487
 20
36.8578583985
 30
0.0
 10
506.6130982487
 20
36.8578583985
 30
0.0
 10
506.3072952038
 20
37.2459678684
 30
0.0
 10
505.9884068766
 20
37.6344698969
 30
0.0
 10
505.9884068766
 20
38.1614142109
 30
0.0
 10
505.9884068766
 20
38.8275859276
 30
0.0
 10
506.5297450011
 20
39.2713078469
 30
0.0
 10
507.1536512562
 20
39.2713078469
 30
0.0
 10
507.8474329183
 20
39.2713078469
 30
0.0
 10
508.374638938
 20
38.8690662721
 30
0.0
 10
508.374638938
 20
38.1340659711
 30
0.0
 10
508.374638938
 20
37.3708014606
 30
0.0
 10
507.6533781833
 20
36.9406882348
 30
0.0
 10
507.1263030164
 20
36.5249688194
 30
0.0
 10
507.1263030164
 20
36.5249688194
 30
0.0
 10
506.9595965213
 20
36.4145290377
 30
0.0
 10
506.9595965213
 20
36.4145290377
 30
0.0
  0
SPLINE
  5
248
330
20D
100
AcDbEntity
  8
0
  6
Continuous
 62
     7
100
AcDbSpline
 70
     3
 71
     3
 72
    50
 73
    46
 74
     0
 42
0.000000001
 43
0.0000001
 40
0.0
 40
0.0
 40
0.0
 40
0.0
 40
1.0
 40
1.0
 40
1.0
 40
2.0
 40
2.0
 40
2.0
 40
3.0
 40
3.0
 40
3.0
 40
4.0
 40
4.0
 40
4.0
 40
5.0
 40
5.0
 40
5.0
 40
6.0
 40
6.0
 40
6.0
 40
7.0
 40
7.0
 40
7.0
 40
8.0
 40
8.0
 40
8.0
 40
9.0
 40
9.0
 40
9.0
 40
10.0
 40
10.0
 40
10.0
 40
11.0
 40
11.0
 40
11.0
 40
12.0
 40
12.0
 40
12.0
 40
13.0
 40
13.0
 40
13.0
 40
14.0
 40
14.0
 40
14.0
 40
15.0
 40
15.0
 40
15.0
 40
15.0
 10
510.9131836842
 20
29.6159398195
 30
0.0
 10
510.9131836842
 20
29.6159398195
 30
0.0
 10
512.5224116887
 20
29.6159398195
 30
0.0
 10
512.5224116887
 20
29.6159398195
 30
0.0
 10
512.5224116887
 20
29.6159398195
 30
0.0
 10
510.6493843951
 20
31.9330815909
 30
0.0
 10
510.6493843951
 20
31.9330815909
 30
0.0
 10
510.6493843951
 20
31.9330815909
 30
0.0
 10
511.9257228206
 20
33.4305612855
 30
0.0
 10
511.9257228206
 20
33.4305612855
 30
0.0
 10
511.9257228206
 20
33.4305612855
 30
0.0
 10
511.0934988729
 20
34.2915728541
 30
0.0
 10
511.0934988729
 20
34.2915728541
 30
0.0
 10
511.0934988729
 20
34.2915728541
 30
0.0
 10
509.8729037495
 20
32.8762687317
 30
0.0
 10
509.8729037495
 20
32.8762687317
 30
0.0
 10
509.8729037495
 20
32.8762687317
 30
0.0
 10
507.6949893807
 20
35.5116445661
 30
0.0
 10
507.6949893807
 20
35.5116445661
 30
0.0
 10
508.5685628202
 20
36.149682926
 30
0.0
 10
509.5952340613
 20
36.9406882348
 30
0.0
 10
509.5952340613
 20
38.1195413079
 30
0.0
 10
509.5952340613
 20
39.4932342329
 30
0.0
 10
508.4573379215
 20
40.2977173824
 30
0.0
 10
507.1820463186
 20
40.2977173824
 30
0.0
 10
505.8086150992
 20
40.2977173824
 30
0.0
 10
504.7676809005
 20
39.4514921827
 30
0.0
 10
504.7676809005
 20
38.0088398205
 30
0.0
 10
504.7676809005
 20
37.1212651291
 30
0.0
 10
505.3230202769
 20
36.3443919251
 30
0.0
 10
505.9191857338
 20
35.7199622587
 30
0.0
 10
505.9191857338
 20
35.7199622587
 30
0.0
 10
505.2672769748
 20
35.2483686883
 30
0.0
 10
505.2672769748
 20
35.2483686883
 30
0.0
 10
504.2687390903
 20
34.5271079336
 30
0.0
 10
503.4358608785
 20
33.8058471789
 30
0.0
 10
503.4358608785
 20
32.4742888626
 30
0.0
 10
503.4358608785
 20
30.6706135646
 30
0.0
 10
504.8929070511
 20
29.3940134335
 30
0.0
 10
506.6404464885
 20
29.3940134335
 30
0.0
 10
507.8753045694
 20
29.3940134335
 30
0.0
 10
508.984674794
 20
30.1021889059
 30
0.0
 10
509.77554925
 20
31.0307205306
 30
0.0
 10
509.77554925
 20
31.0307205306
 30
0.0
 10
510.9131836842
 20
29.6159398195
 30
0.0
 10
510.9131836842
 20
29.6159398195
 30
0.0
  0
LINE
  5
249
330
20D
100
AcDbEntity
  8
0
  6
Continuous
 62
     7
100
AcDbLine
 10
496.716045
 20
27.589815
 30
0.0
 11
519.129956
 21
27.589815
 31
0.0
  0
LINE
  5
24A
330
20D
100
AcDbEntity
  8
0
  6
Continuous
 62
     7
100
AcDbLine
 10
519.129956
 20
27.589815
 30
0.0
 11
519.129956
 21
50.003725
 31
0.0
  0
LINE
  5
24B
330
20D
100
AcDbEntity
  8
0
  6
Continuous
 62
     7
100
AcDbLine
 10
519.129956
 20
50.003725
 30
0.0
 11
496.716045
 21
50.003725
 31
0.0
  0
LINE
  5
24C
330
20D
100
AcDbEntity
  8
0
  6
Continuous
 62
     7
100
AcDbLine
 10
496.716045
 20
50.003725
 30
0.0
 11
496.716045
 21
27.589815
 31
0.0
  0
ENDBLK
  5
24D
330
20D
100
AcDbEntity
  8
0
  6
ByBlock
 62
     0
100
AcDbBlockEnd
  0
BLOCK
  5
26F
330
20E
100
AcDbEntity
  8
0
100
AcDbBlockBegin
  2
*T5
 70
     1
 10
0.0
 20
0.0
 30
0.0
  3
*T5
  1
*T5
  0
LINE
  5
270
330
20E
100
AcDbEntity
  8
0
  6
Continuous
 62
     2
100
AcDbLine
 10
0.0
 20
0.0
 30
0.0
 11
90.0
 21
0.0
 31
0.0
  0
LINE
  5
271
330
20E
100
AcDbEntity
  8
0
  6
Continuous
 62
     2
100
AcDbLine
 10
0.0
 20
0.0
 30
0.0
 11
0.0
 21
-40.0
 31
0.0
  0
LINE
  5
272
330
20E
100
AcDbEntity
  8
0
  6
Continuous
 62
     2
100
AcDbLine
 10
30.0
 20
-6.0
 30
0.0
 11
90.0
 21
-6.0
 31
0.0
  0
LINE
  5
273
330
20E
100
AcDbEntity
  8
0
  6
Continuous
 62
     2
100
AcDbLine
 10
30.0
 20
-12.0
 30
0.0
 11
90.0
 21
-12.0
 31
0.0
  0
LINE
  5
274
330
20E
100
AcDbEntity
  8
0
  6
Continuous
 62
     2
100
AcDbLine
 10
30.0
 20
-22.0
 30
0.0
 11
90.0
 21
-22.0
 31
0.0
  0
LINE
  5
275
330
20E
100
AcDbEntity
  8
0
  6
Continuous
 62
     2
100
AcDbLine
 10
0.0
 20
-27.0
 30
0.0
 11
90.0
 21
-27.0
 31
0.0
  0
LINE
  5
276
330
20E
100
AcDbEntity
  8
0
  6
Continuous
 62
     2
100
AcDbLine
 10
0.0
 20
-40.0
 30
0.0
 11
90.0
 21
-40.0
 31
0.0
  0
LINE
  5
277
330
20E
100
AcDbEntity
  8
0
  6
Continuous
 62
     2
100
AcDbLine
 10
30.0
 20
0.0
 30
0.0
 11
30.0
 21
-27.0
 31
0.0
  0
LINE
  5
278
330
20E
100
AcDbEntity
  8
0
  6
Continuous
 62
     2
100
AcDbLine
 10
70.0
 20
0.0
 30
0.0
 11
70.0
 21
-12.0
 31
0.0
  0
LINE
  5
279
330
20E
100
AcDbEntity
  8
0
  6
Continuous
 62
     2
100
AcDbLine
 10
90.0
 20
0.0
 30
0.0
 11
90.0
 21
-40.0
 31
0.0
  0
MTEXT
  5
27A
330
20E
100
AcDbEntity
  8
9_SOLID
  6
Continuous
 62
     2
100
AcDbMText
 10
31.4875
 20
-1.5
 30
0.0
 40
3.0
 41
27.97026
 46
0.0
 71
     1
 72
     1
  1
194321
 73
     1
 44
0.9
  0
MTEXT
  5
27B
330
20E
100
AcDbEntity
  8
9_SOLID
  6
Continuous
 62
     2
100
AcDbMText
 10
71.4875
 20
-1.75
 30
0.0
 40
3.5
 41
30.966543
 46
0.0
 71
     1
 72
     1
  1
Rev:00
 73
     1
 44
0.9
  0
MTEXT
  5
27C
330
20E
100
AcDbEntity
  8
9_SOLID
  6
Continuous
 62
     2
100
AcDbMText
 10
31.4875
 20
-7.75
 30
0.0
 40
3.5
 41
40.724907
 46
0.0
 71
     1
 72
     1
  1
Scale:1:1
 73
     1
 44
0.9
  0
MTEXT
  5
27D
330
20E
100
AcDbEntity
  8
9_SOLID
  6
Continuous
 62
     2
100
AcDbMText
 10
71.4875
 20
-7.25
 30
0.0
 40
3.5
 41
11.944238
 46
0.0
 71
     1
 72
     1
  1
A2
 73
     1
 44
0.9
  0
MTEXT
  5
27E
330
20E
100
AcDbEntity
  8
9_SOLID
  6
Continuous
 62
     2
100
AcDbMText
 10
31.4875
 20
-15.75
 30
0.0
 40
2.5
 41
115.241636
 46
0.0
 71
     1
 72
     1
  1
CASSAF.TAGO TRIM 1.0 L=313 mm
 73
     1
 44
0.9
  0
MTEXT
  5
27F
330
20E
100
AcDbEntity
  8
9_SOLID
  6
Continuous
 62
     2
100
AcDbMText
 10
31.4875
 20
-23.25
 30
0.0
 40
2.5
 41
47.695167
 46
0.0
 71
     1
 72
     1
  1
DATE:03.03.21
 73
     1
 44
0.9
  0
MTEXT
  5
280
330
20E
100
AcDbEntity
  8
9_SOLID
  6
Continuous
 62
     2
100
AcDbMText
 10
1.4875
 20
-27.3125
 30
0.0
 40
2.25
 41
148.98513
 46
0.0
 71
     1
 72
     1
  1
Any integral or partial reproductions are prohibited \Pwithout prior authorisation of L & L Luce & Light s.r.l., \Pin accordance with the law in force. \PAll rights reserved.
 73
     1
 44
0.9
  0
ENDBLK
  5
281
330
20E
100
AcDbEntity
  8
0
  6
ByBlock
 62
     0
100
AcDbBlockEnd
  0
ENDSEC
  0
SECTION
  2
ENTITIES
  0
LINE
  5
282
330
207
100
AcDbEntity
  8
0
  6
Continuous
 62
     7
100
AcDbLine
 10
0.0
 20
0.0
 30
0.0
 11
594.0
 21
0.0
 31
0.0
  0
LINE
  5
283
330
207
100
AcDbEntity
  8
0
  6
Continuous
 62
     7
100
AcDbLine
 10
594.0
 20
0.0
 30
0.0
 11
594.0
 21
420.0
 31
0.0
  0
LINE
  5
284
330
207
100
AcDbEntity
  8
0
  6
Continuous
 62
     7
100
AcDbLine
 10
0.0
 20
420.0
 30
0.0
 11
594.0
 21
420.0
 31
0.0
  0
LINE
  5
285
330
207
100
AcDbEntity
  8
0
  6
Continuous
 62
     7
100
AcDbLine
 10
0.0
 20
0.0
 30
0.0
 11
0.0
 21
420.0
 31
0.0
  0
LINE
  5
286
330
207
100
AcDbEntity
  8
3_ALL_AXES
  6
Continuous
 62
     7
100
AcDbLine
 10
43.243877
 20
99.372023
 30
0.0
 11
42.538007
 21
99.372023
 31
0.0
  0
LINE
  5
287
330
207
100
AcDbEntity
  8
3_ALL_AXES
  6
Continuous
 62
     7
100
AcDbLine
 10
43.243877
 20
93.572023
 30
0.0
 11
42.538007
 21
93.572023
 31
0.0
  0
ARC
  5
288
330
207
100
AcDbEntity
  8
3_ALL_AXES
  6
Continuous
 62
     7
100
AcDbCircle
 10
49.993877
 20
96.472023
 30
0.0
 40
8.0
100
AcDbArc
 50
180.0
 51
201.253809
  0
ARC
  5
289
330
207
100
AcDbEntity
  8
3_ALL_AXES
  6
Continuous
 62
     7
100
AcDbCircle
 10
49.993877
 20
96.472023
 30
0.0
 40
8.0
100
AcDbArc
 50
158.746191
 51
180.0
  0
LINE
  5
28A
330
207
100
AcDbEntity
  8
3_ALL_AXES
  6
Continuous
 62
     7
100
AcDbLine
 10
42.538007
 20
99.372023
 30
0.0
 11
42.538007
 21
93.572023
 31
0.0
  0
LINE
  5
28B
330
207
100
AcDbEntity
  8
3_ALL_AXES
  6
Continuous
 62
     7
100
AcDbLine
 10
43.243877
 20
124.372023
 30
0.0
 11
42.538007
 21
124.372023
 31
0.0
  0
LINE
  5
28C
330
207
100
AcDbEntity
  8
3_ALL_AXES
  6
Continuous
 62
     7
100
AcDbLine
 10
43.243877
 20
118.572023
 30
0.0
 11
42.538007
 21
118.572023
 31
0.0
  0
ARC
  5
28D
330
207
100
AcDbEntity
  8
3_ALL_AXES
  6
Continuous
 62
     7
100
AcDbCircle
 10
49.993877
 20
121.472023
 30
0.0
 40
8.0
100
AcDbArc
 50
180.0
 51
201.253809
  0
ARC
  5
28E
330
207
100
AcDbEntity
  8
3_ALL_AXES
  6
Continuous
 62
     7
100
AcDbCircle
 10
49.993877
 20
121.472023
 30
0.0
 40
8.0
100
AcDbArc
 50
158.746191
 51
180.0
  0
LINE
  5
28F
330
207
100
AcDbEntity
  8
3_ALL_AXES
  6
Continuous
 62
     7
100
AcDbLine
 10
42.538007
 20
124.372023
 30
0.0
 11
42.538007
 21
118.572023
 31
0.0
  0
LINE
  5
290
330
207
100
AcDbEntity
  8
3_ALL_AXES
  6
Continuous
 62
     7
100
AcDbLine
 10
356.243877
 20
93.572023
 30
0.0
 11
356.949747
 21
93.572023
 31
0.0
  0
LINE
  5
291
330
207
100
AcDbEntity
  8
3_ALL_AXES
  6
Continuous
 62
     7
100
AcDbLine
 10
356.243877
 20
99.372023
 30
0.0
 11
356.949747
 21
99.372023
 31
0.0
  0
ARC
  5
292
330
207
100
AcDbEntity
  8
3_ALL_AXES
  6
Continuous
 62
     7
100
AcDbCircle
 10
349.493877
 20
96.472023
 30
0.0
 40
8.0
100
AcDbArc
 50
0.0
 51
21.253809
  0
ARC
  5
293
330
207
100
AcDbEntity
  8
3_ALL_AXES
  6
Continuous
 62
     7
100
AcDbCircle
 10
349.493877
 20
96.472023
 30
0.0
 40
8.0
100
AcDbArc
 50
338.746191
 51
360.0
  0
LINE
  5
294
330
207
100
AcDbEntity
  8
3_ALL_AXES
  6
Continuous
 62
     7
100
AcDbLine
 10
356.949747
 20
93.572023
 30
0.0
 11
356.949747
 21
99.372023
 31
0.0
  0
LINE
  5
295
330
207
100
AcDbEntity
  8
3_ALL_AXES
  6
Continuous
 62
     7
100
AcDbLine
 10
356.243877
 20
118.572023
 30
0.0
 11
356.949747
 21
118.572023
 31
0.0
  0
LINE
  5
296
330
207
100
AcDbEntity
  8
3_ALL_AXES
  6
Continuous
 62
     7
100
AcDbLine
 10
356.243877
 20
124.372023
 30
0.0
 11
356.949747
 21
124.372023
 31
0.0
  0
ARC
  5
297
330
207
100
AcDbEntity
  8
3_ALL_AXES
  6
Continuous
 62
     7
100
AcDbCircle
 10
349.493877
 20
121.472023
 30
0.0
 40
8.0
100
AcDbArc
 50
0.0
 51
21.253809
  0
ARC
  5
298
330
207
100
AcDbEntity
  8
3_ALL_AXES
  6
Continuous
 62
     7
100
AcDbCircle
 10
349.493877
 20
121.472023
 30
0.0
 40
8.0
100
AcDbArc
 50
338.746191
 51
360.0
  0
LINE
  5
299
330
207
100
AcDbEntity
  8
3_ALL_AXES
  6
Continuous
 62
     7
100
AcDbLine
 10
356.949747
 20
118.572023
 30
0.0
 11
356.949747
 21
124.372023
 31
0.0
  0
LINE
  5
29A
330
207
100
AcDbEntity
  8
3_ALL_AXES
  6
Continuous
 62
     7
100
AcDbLine
 10
43.243877
 20
79.472023
 30
0.0
 11
43.243877
 21
78.972023
 31
0.0
  0
LINE
  5
29B
330
207
100
AcDbEntity
  8
3_ALL_AXES
  6
Continuous
 62
     7
100
AcDbLine
 10
43.243877
 20
138.972023
 30
0.0
 11
43.243877
 21
138.472023
 31
0.0
  0
LINE
  5
29C
330
207
100
AcDbEntity
  8
3_ALL_AXES
  6
Continuous
 62
     7
100
AcDbLine
 10
43.243877
 20
79.472023
 30
0.0
 11
43.243877
 21
138.472023
 31
0.0
  0
LINE
  5
29D
330
207
100
AcDbEntity
  8
3_ALL_AXES
  6
Continuous
 62
     7
100
AcDbLine
 10
44.743877
 20
78.972023
 30
0.0
 11
43.243877
 21
78.972023
 31
0.0
  0
LINE
  5
29E
330
207
100
AcDbEntity
  8
3_ALL_AXES
  6
Continuous
 62
     7
100
AcDbLine
 10
44.743877
 20
138.972023
 30
0.0
 11
43.243877
 21
138.972023
 31
0.0
  0
LINE
  5
29F
330
207
100
AcDbEntity
  8
3_ALL_AXES
  6
Continuous
 62
     9
100
AcDbLine
 10
44.743877
 20
138.472023
 30
0.0
 11
43.243877
 21
138.472023
 31
0.0
  0
LINE
  5
2A0
330
207
100
AcDbEntity
  8
3_ALL_AXES
  6
Continuous
 62
     9
100
AcDbLine
 10
44.743877
 20
79.472023
 30
0.0
 11
43.243877
 21
79.472023
 31
0.0
  0
LINE
  5
2A1
330
207
100
AcDbEntity
  8
3_ALL_AXES
  6
Continuous
 62
     7
100
AcDbLine
 10
356.243877
 20
138.472023
 30
0.0
 11
356.243877
 21
138.972023
 31
0.0
  0
LINE
  5
2A2
330
207
100
AcDbEntity
  8
3_ALL_AXES
  6
Continuous
 62
     7
100
AcDbLine
 10
356.243877
 20
78.972023
 30
0.0
 11
356.243877
 21
79.472023
 31
0.0
  0
LINE
  5
2A3
330
207
100
AcDbEntity
  8
3_ALL_AXES
  6
Continuous
 62
     7
100
AcDbLine
 10
356.243877
 20
138.472023
 30
0.0
 11
356.243877
 21
79.472023
 31
0.0
  0
LINE
  5
2A4
330
207
100
AcDbEntity
  8
3_ALL_AXES
  6
Continuous
 62
     7
100
AcDbLine
 10
354.743877
 20
138.972023
 30
0.0
 11
356.243877
 21
138.972023
 31
0.0
  0
LINE
  5
2A5
330
207
100
AcDbEntity
  8
3_ALL_AXES
  6
Continuous
 62
     7
100
AcDbLine
 10
354.743877
 20
78.972023
 30
0.0
 11
356.243877
 21
78.972023
 31
0.0
  0
LINE
  5
2A6
330
207
100
AcDbEntity
  8
3_ALL_AXES
  6
Continuous
 62
     9
100
AcDbLine
 10
354.743877
 20
79.472023
 30
0.0
 11
356.243877
 21
79.472023
 31
0.0
  0
LINE
  5
2A7
330
207
100
AcDbEntity
  8
3_ALL_AXES
  6
Continuous
 62
     9
100
AcDbLine
 10
354.743877
 20
138.472023
 30
0.0
 11
356.243877
 21
138.472023
 31
0.0
  0
LINE
  5
2A8
330
207
100
AcDbEntity
  8
3_ALL_AXES
  6
Continuous
 62
     7
100
AcDbLine
 10
354.743877
 20
137.472023
 30
0.0
 11
354.743877
 21
137.572023
 31
0.0
  0
LINE
  5
2A9
330
207
100
AcDbEntity
  8
3_ALL_AXES
  6
Continuous
 62
     7
100
AcDbLine
 10
354.743877
 20
137.572023
 30
0.0
 11
354.743877
 21
138.472023
 31
0.0
  0
LINE
  5
2AA
330
207
100
AcDbEntity
  8
3_ALL_AXES
  6
Continuous
 62
     7
100
AcDbLine
 10
354.743877
 20
138.472023
 30
0.0
 11
354.743877
 21
138.772023
 31
0.0
  0
LINE
  5
2AB
330
207
100
AcDbEntity
  8
3_ALL_AXES
  6
Continuous
 62
     7
100
AcDbLine
 10
354.743877
 20
138.772023
 30
0.0
 11
354.743877
 21
138.945228
 31
0.0
  0
LINE
  5
2AC
330
207
100
AcDbEntity
  8
3_ALL_AXES
  6
Continuous
 62
     7
100
AcDbLine
 10
354.743877
 20
138.945228
 30
0.0
 11
354.743877
 21
138.972023
 31
0.0
  0
LINE
  5
2AD
330
207
100
AcDbEntity
  8
3_ALL_AXES
  6
Continuous
 62
     7
100
AcDbLine
 10
354.743877
 20
139.072023
 30
0.0
 11
354.743877
 21
139.172023
 31
0.0
  0
LINE
  5
2AE
330
207
100
AcDbEntity
  8
3_ALL_AXES
  6
Continuous
 62
     7
100
AcDbLine
 10
354.743877
 20
139.172023
 30
0.0
 11
354.743877
 21
139.74801
 31
0.0
  0
LINE
  5
2AF
330
207
100
AcDbEntity
  8
3_ALL_AXES
  6
Continuous
 62
     7
100
AcDbLine
 10
354.743877
 20
139.74801
 30
0.0
 11
354.743877
 21
140.472023
 31
0.0
  0
ARC
  5
2B0
330
207
100
AcDbEntity
  8
3_ALL_AXES
  6
Continuous
 62
     7
100
AcDbCircle
 10
334.743877
 20
108.972023
 30
0.0
 40
5.0
100
AcDbArc
 50
270.0
 51
90.0
  0
ARC
  5
2B1
330
207
100
AcDbEntity
  8
3_ALL_AXES
  6
Continuous
 62
     7
100
AcDbCircle
 10
334.743877
 20
108.972023
 30
0.0
 40
5.0
100
AcDbArc
 50
90.0
 51
270.0
  0
LINE
  5
2B2
330
207
100
AcDbEntity
  8
3_ALL_AXES
  6
Continuous
 62
     7
100
AcDbLine
 10
354.743877
 20
77.472023
 30
0.0
 11
354.743877
 21
78.196036
 31
0.0
  0
LINE
  5
2B3
330
207
100
AcDbEntity
  8
3_ALL_AXES
  6
Continuous
 62
     7
100
AcDbLine
 10
354.743877
 20
78.196036
 30
0.0
 11
354.743877
 21
78.772023
 31
0.0
  0
LINE
  5
2B4
330
207
100
AcDbEntity
  8
3_ALL_AXES
  6
Continuous
 62
     7
100
AcDbLine
 10
354.743877
 20
78.772023
 30
0.0
 11
354.743877
 21
78.972023
 31
0.0
  0
LINE
  5
2B5
330
207
100
AcDbEntity
  8
3_ALL_AXES
  6
Continuous
 62
     7
100
AcDbLine
 10
354.743877
 20
78.972023
 30
0.0
 11
354.743877
 21
79.172023
 31
0.0
  0
LINE
  5
2B6
330
207
100
AcDbEntity
  8
3_ALL_AXES
  6
Continuous
 62
     7
100
AcDbLine
 10
354.743877
 20
79.172023
 30
0.0
 11
354.743877
 21
79.472023
 31
0.0
  0
LINE
  5
2B7
330
207
100
AcDbEntity
  8
3_ALL_AXES
  6
Continuous
 62
     7
100
AcDbLine
 10
354.743877
 20
79.472023
 30
0.0
 11
354.743877
 21
80.372023
 31
0.0
  0
LINE
  5
2B8
330
207
100
AcDbEntity
  8
3_ALL_AXES
  6
Continuous
 62
     7
100
AcDbLine
 10
354.743877
 20
80.372023
 30
0.0
 11
354.743877
 21
80.472023
 31
0.0
  0
LINE
  5
2B9
330
207
100
AcDbEntity
  8
3_ALL_AXES
  6
Continuous
 62
     7
100
AcDbLine
 10
354.743877
 20
80.472023
 30
0.0
 11
44.743877
 21
80.472023
 31
0.0
  0
LINE
  5
2BA
330
207
100
AcDbEntity
  8
3_ALL_AXES
  6
Continuous
 62
     7
100
AcDbLine
 10
354.743877
 20
78.972023
 30
0.0
 11
44.743877
 21
78.972023
 31
0.0
  0
LINE
  5
2BB
330
207
100
AcDbEntity
  8
3_ALL_AXES
  6
Continuous
 62
     7
100
AcDbLine
 10
354.743877
 20
77.472023
 30
0.0
 11
44.743877
 21
77.472023
 31
0.0
  0
LINE
  5
2BC
330
207
100
AcDbEntity
  8
3_ALL_AXES
  6
Continuous
 62
     7
100
AcDbLine
 10
44.743877
 20
80.372023
 30
0.0
 11
44.743877
 21
80.472023
 31
0.0
  0
LINE
  5
2BD
330
207
100
AcDbEntity
  8
3_ALL_AXES
  6
Continuous
 62
     7
100
AcDbLine
 10
44.743877
 20
79.172023
 30
0.0
 11
44.743877
 21
79.472023
 31
0.0
  0
LINE
  5
2BE
330
207
100
AcDbEntity
  8
3_ALL_AXES
  6
Continuous
 62
     7
100
AcDbLine
 10
44.743877
 20
79.472023
 30
0.0
 11
44.743877
 21
80.372023
 31
0.0
  0
LINE
  5
2BF
330
207
100
AcDbEntity
  8
3_ALL_AXES
  6
Continuous
 62
     7
100
AcDbLine
 10
44.743877
 20
78.972023
 30
0.0
 11
44.743877
 21
79.172023
 31
0.0
  0
LINE
  5
2C0
330
207
100
AcDbEntity
  8
3_ALL_AXES
  6
Continuous
 62
     7
100
AcDbLine
 10
44.743877
 20
78.772023
 30
0.0
 11
44.743877
 21
78.972023
 31
0.0
  0
LINE
  5
2C1
330
207
100
AcDbEntity
  8
3_ALL_AXES
  6
Continuous
 62
     7
100
AcDbLine
 10
44.743877
 20
78.196036
 30
0.0
 11
44.743877
 21
78.772023
 31
0.0
  0
LINE
  5
2C2
330
207
100
AcDbEntity
  8
3_ALL_AXES
  6
Continuous
 62
     7
100
AcDbLine
 10
44.743877
 20
77.472023
 30
0.0
 11
44.743877
 21
78.196036
 31
0.0
  0
LINE
  5
2C3
330
207
100
AcDbEntity
  8
3_ALL_AXES
  6
Continuous
 62
     7
100
AcDbLine
 10
354.743877
 20
140.472023
 30
0.0
 11
44.743877
 21
140.472023
 31
0.0
  0
LINE
  5
2C4
330
207
100
AcDbEntity
  8
3_ALL_AXES
  6
Continuous
 62
     7
100
AcDbLine
 10
354.743877
 20
138.972023
 30
0.0
 11
44.743877
 21
138.972023
 31
0.0
  0
LINE
  5
2C5
330
207
100
AcDbEntity
  8
3_ALL_AXES
  6
Continuous
 62
     7
100
AcDbLine
 10
354.743877
 20
137.472023
 30
0.0
 11
44.743877
 21
137.472023
 31
0.0
  0
LINE
  5
2C6
330
207
100
AcDbEntity
  8
3_ALL_AXES
  6
Continuous
 62
     7
100
AcDbLine
 10
44.743877
 20
139.74801
 30
0.0
 11
44.743877
 21
140.472023
 31
0.0
  0
LINE
  5
2C7
330
207
100
AcDbEntity
  8
3_ALL_AXES
  6
Continuous
 62
     7
100
AcDbLine
 10
44.743877
 20
139.172023
 30
0.0
 11
44.743877
 21
139.74801
 31
0.0
  0
LINE
  5
2C8
330
207
100
AcDbEntity
  8
3_ALL_AXES
  6
Continuous
 62
     7
100
AcDbLine
 10
44.743877
 20
139.072023
 30
0.0
 11
44.743877
 21
139.172023
 31
0.0
  0
LINE
  5
2C9
330
207
100
AcDbEntity
  8
3_ALL_AXES
  6
Continuous
 62
     7
100
AcDbLine
 10
44.743877
 20
138.772023
 30
0.0
 11
44.743877
 21
138.945228
 31
0.0
  0
LINE
  5
2CA
330
207
100
AcDbEntity
  8
3_ALL_AXES
  6
Continuous
 62
     7
100
AcDbLine
 10
44.743877
 20
138.945228
 30
0.0
 11
44.743877
 21
138.972023
 31
0.0
  0
LINE
  5
2CB
330
207
100
AcDbEntity
  8
3_ALL_AXES
  6
Continuous
 62
     7
100
AcDbLine
 10
44.743877
 20
137.572023
 30
0.0
 11
44.743877
 21
138.472023
 31
0.0
  0
LINE
  5
2CC
330
207
100
AcDbEntity
  8
3_ALL_AXES
  6
Continuous
 62
     7
100
AcDbLine
 10
44.743877
 20
138.472023
 30
0.0
 11
44.743877
 21
138.772023
 31
0.0
  0
LINE
  5
2CD
330
207
100
AcDbEntity
  8
3_ALL_AXES
  6
Continuous
 62
     7
100
AcDbLine
 10
44.743877
 20
137.472023
 30
0.0
 11
44.743877
 21
137.572023
 31
0.0
  0
LINE
  5
2CE
330
207
100
AcDbEntity
  8
3_ALL_AXES
  6
Continuous
 62
     9
100
AcDbLine
 10
354.743877
 20
81.605998
 30
0.0
 11
44.743877
 21
81.605998
 31
0.0
  0
LINE
  5
2CF
330
207
100
AcDbEntity
  8
3_ALL_AXES
  6
Continuous
 62
     9
100
AcDbLine
 10
354.743877
 20
78.772023
 30
0.0
 11
44.743877
 21
78.772023
 31
0.0
  0
LINE
  5
2D0
330
207
100
AcDbEntity
  8
3_ALL_AXES
  6
Continuous
 62
     9
100
AcDbLine
 10
354.743877
 20
78.196037
 30
0.0
 11
44.743877
 21
78.196037
 31
0.0
  0
LINE
  5
2D1
330
207
100
AcDbEntity
  8
3_ALL_AXES
  6
Continuous
 62
     9
100
AcDbLine
 10
354.743877
 20
139.748009
 30
0.0
 11
44.743877
 21
139.748009
 31
0.0
  0
LINE
  5
2D2
330
207
100
AcDbEntity
  8
3_ALL_AXES
  6
Continuous
 62
     9
100
AcDbLine
 10
354.743877
 20
139.172023
 30
0.0
 11
44.743877
 21
139.172023
 31
0.0
  0
LINE
  5
2D3
330
207
100
AcDbEntity
  8
3_ALL_AXES
  6
Continuous
 62
     9
100
AcDbLine
 10
354.743877
 20
138.772023
 30
0.0
 11
44.743877
 21
138.772023
 31
0.0
  0
LINE
  5
2D4
330
207
100
AcDbEntity
  8
3_ALL_AXES
  6
Continuous
 62
     9
100
AcDbLine
 10
354.743877
 20
81.105998
 30
0.0
 11
44.743877
 21
81.105998
 31
0.0
  0
LINE
  5
2D5
330
207
100
AcDbEntity
  8
3_ALL_AXES
  6
Continuous
 62
     9
100
AcDbLine
 10
354.743877
 20
137.572023
 30
0.0
 11
44.743877
 21
137.572023
 31
0.0
  0
LINE
  5
2D6
330
207
100
AcDbEntity
  8
3_ALL_AXES
  6
Continuous
 62
     9
100
AcDbLine
 10
354.743877
 20
136.338048
 30
0.0
 11
44.743877
 21
136.338048
 31
0.0
  0
LINE
  5
2D7
330
207
100
AcDbEntity
  8
3_ALL_AXES
  6
Continuous
 62
     9
100
AcDbLine
 10
354.743877
 20
80.372023
 30
0.0
 11
44.743877
 21
80.372023
 31
0.0
  0
LINE
  5
2D8
330
207
100
AcDbEntity
  8
3_ALL_AXES
  6
Continuous
 62
     9
100
AcDbLine
 10
354.743877
 20
79.172023
 30
0.0
 11
44.743877
 21
79.172023
 31
0.0
  0
LINE
  5
2D9
330
207
100
AcDbEntity
  8
3_ALL_AXES
  6
Continuous
 62
     9
100
AcDbLine
 10
354.743877
 20
136.838048
 30
0.0
 11
44.743877
 21
136.838048
 31
0.0
  0
LINE
  5
2DA
330
207
100
AcDbEntity
  8
3_ALL_AXES
  6
Continuous
 62
     3
100
AcDbLine
 10
44.743877
 20
79.472023
 30
0.0
 11
44.743877
 21
79.010706
 31
0.0
  0
LINE
  5
2DB
330
207
100
AcDbEntity
  8
3_ALL_AXES
  6
Continuous
 62
     3
100
AcDbLine
 10
44.743877
 20
138.664843
 30
0.0
 11
44.743877
 21
138.472023
 31
0.0
  0
LINE
  5
2DC
330
207
100
AcDbEntity
  8
3_ALL_AXES
  6
Continuous
 62
     3
100
AcDbLine
 10
44.743877
 20
79.472023
 30
0.0
 11
44.743877
 21
80.372023
 31
0.0
  0
LINE
  5
2DD
330
207
100
AcDbEntity
  8
3_ALL_AXES
  6
Continuous
 62
     3
100
AcDbLine
 10
44.743877
 20
80.372023
 30
0.0
 11
44.743877
 21
80.472023
 31
0.0
  0
LINE
  5
2DE
330
207
100
AcDbEntity
  8
3_ALL_AXES
  6
Continuous
 62
     3
100
AcDbLine
 10
44.743877
 20
80.472023
 30
0.0
 11
44.743877
 21
137.472023
 31
0.0
  0
LINE
  5
2DF
330
207
100
AcDbEntity
  8
3_ALL_AXES
  6
Continuous
 62
     3
100
AcDbLine
 10
44.743877
 20
137.472023
 30
0.0
 11
44.743877
 21
137.572023
 31
0.0
  0
LINE
  5
2E0
330
207
100
AcDbEntity
  8
3_ALL_AXES
  6
Continuous
 62
     3
100
AcDbLine
 10
44.743877
 20
137.572023
 30
0.0
 11
44.743877
 21
138.472023
 31
0.0
  0
LINE
  5
2E1
330
207
100
AcDbEntity
  8
3_ALL_AXES
  6
Continuous
 62
     3
100
AcDbLine
 10
354.743877
 20
138.472023
 30
0.0
 11
354.743877
 21
138.93334
 31
0.0
  0
LINE
  5
2E2
330
207
100
AcDbEntity
  8
3_ALL_AXES
  6
Continuous
 62
     3
100
AcDbLine
 10
354.743877
 20
79.279202
 30
0.0
 11
354.743877
 21
79.472023
 31
0.0
  0
LINE
  5
2E3
330
207
100
AcDbEntity
  8
3_ALL_AXES
  6
Continuous
 62
     3
100
AcDbLine
 10
354.743877
 20
138.472023
 30
0.0
 11
354.743877
 21
137.572023
 31
0.0
  0
LINE
  5
2E4
330
207
100
AcDbEntity
  8
3_ALL_AXES
  6
Continuous
 62
     3
100
AcDbLine
 10
354.743877
 20
137.572023
 30
0.0
 11
354.743877
 21
137.472023
 31
0.0
  0
LINE
  5
2E5
330
207
100
AcDbEntity
  8
3_ALL_AXES
  6
Continuous
 62
     3
100
AcDbLine
 10
354.743877
 20
137.472023
 30
0.0
 11
354.743877
 21
80.472023
 31
0.0
  0
LINE
  5
2E6
330
207
100
AcDbEntity
  8
3_ALL_AXES
  6
Continuous
 62
     3
100
AcDbLine
 10
354.743877
 20
80.472023
 30
0.0
 11
354.743877
 21
80.372023
 31
0.0
  0
LINE
  5
2E7
330
207
100
AcDbEntity
  8
3_ALL_AXES
  6
Continuous
 62
     3
100
AcDbLine
 10
354.743877
 20
80.372023
 30
0.0
 11
354.743877
 21
79.472023
 31
0.0
  0
LINE
  5
2E8
330
207
100
AcDbEntity
  8
7_ALL_FEATURES
  6
Continuous
 62
     7
100
AcDbLine
 10
55.102682
 20
337.164089
 30
0.0
 11
54.227682
 21
337.164089
 31
0.0
  0
LINE
  5
2E9
330
207
100
AcDbEntity
  8
7_ALL_FEATURES
  6
Continuous
 62
     7
100
AcDbLine
 10
54.227682
 20
337.164089
 30
0.0
 11
54.227682
 21
338.039089
 31
0.0
  0
LINE
  5
2EA
330
207
100
AcDbEntity
  8
7_ALL_FEATURES
  6
Continuous
 62
     7
100
AcDbLine
 10
53.477682
 20
338.039089
 30
0.0
 11
53.477682
 21
337.164089
 31
0.0
  0
LINE
  5
2EB
330
207
100
AcDbEntity
  8
7_ALL_FEATURES
  6
Continuous
 62
     7
100
AcDbLine
 10
53.477682
 20
337.164089
 30
0.0
 11
52.602682
 21
337.164089
 31
0.0
  0
LINE
  5
2EC
330
207
100
AcDbEntity
  8
7_ALL_FEATURES
  6
Continuous
 62
     7
100
AcDbLine
 10
52.602682
 20
336.414089
 30
0.0
 11
53.477682
 21
336.414089
 31
0.0
  0
LINE
  5
2ED
330
207
100
AcDbEntity
  8
7_ALL_FEATURES
  6
Continuous
 62
     7
100
AcDbLine
 10
53.477682
 20
336.414089
 30
0.0
 11
53.477682
 21
335.539089
 31
0.0
  0
LINE
  5
2EE
330
207
100
AcDbEntity
  8
7_ALL_FEATURES
  6
Continuous
 62
     7
100
AcDbLine
 10
54.227682
 20
335.539089
 30
0.0
 11
54.227682
 21
336.414089
 31
0.0
  0
LINE
  5
2EF
330
207
100
AcDbEntity
  8
7_ALL_FEATURES
  6
Continuous
 62
     7
100
AcDbLine
 10
54.227682
 20
336.414089
 30
0.0
 11
55.102682
 21
336.414089
 31
0.0
  0
ARC
  5
2F0
330
207
100
AcDbEntity
  8
3_ALL_AXES
  6
Continuous
 62
     7
100
AcDbCircle
 10
53.852682
 20
336.789089
 30
0.0
 40
2.15
100
AcDbArc
 50
90.0
 51
270.0
  0
LINE
  5
2F1
330
207
100
AcDbEntity
  8
7_ALL_FEATURES
  6
Continuous
 62
     7
100
AcDbLine
 10
52.602682
 20
336.414089
 30
0.0
 11
52.602682
 21
337.164089
 31
0.0
  0
LINE
  5
2F2
330
207
100
AcDbEntity
  8
7_ALL_FEATURES
  6
Continuous
 62
     7
100
AcDbLine
 10
53.477682
 20
338.039089
 30
0.0
 11
54.227682
 21
338.039089
 31
0.0
  0
LINE
  5
2F3
330
207
100
AcDbEntity
  8
7_ALL_FEATURES
  6
Continuous
 62
     7
100
AcDbLine
 10
55.102682
 20
337.164089
 30
0.0
 11
55.102682
 21
336.414089
 31
0.0
  0
LINE
  5
2F4
330
207
100
AcDbEntity
  8
7_ALL_FEATURES
  6
Continuous
 62
     7
100
AcDbLine
 10
54.227682
 20
335.539089
 30
0.0
 11
53.477682
 21
335.539089
 31
0.0
  0
ARC
  5
2F5
330
207
100
AcDbEntity
  8
3_ALL_AXES
  6
Continuous
 62
     7
100
AcDbCircle
 10
53.852682
 20
336.789089
 30
0.0
 40
2.15
100
AcDbArc
 50
270.0
 51
90.0
  0
LINE
  5
2F6
330
207
100
AcDbEntity
  8
7_ALL_FEATURES
  6
Continuous
 62
     7
100
AcDbLine
 10
346.885071
 20
337.164089
 30
0.0
 11
346.010071
 21
337.164089
 31
0.0
  0
LINE
  5
2F7
330
207
100
AcDbEntity
  8
7_ALL_FEATURES
  6
Continuous
 62
     7
100
AcDbLine
 10
346.010071
 20
337.164089
 30
0.0
 11
346.010071
 21
338.039089
 31
0.0
  0
LINE
  5
2F8
330
207
100
AcDbEntity
  8
7_ALL_FEATURES
  6
Continuous
 62
     7
100
AcDbLine
 10
345.260071
 20
338.039089
 30
0.0
 11
345.260071
 21
337.164089
 31
0.0
  0
LINE
  5
2F9
330
207
100
AcDbEntity
  8
7_ALL_FEATURES
  6
Continuous
 62
     7
100
AcDbLine
 10
345.260071
 20
337.164089
 30
0.0
 11
344.385071
 21
337.164089
 31
0.0
  0
LINE
  5
2FA
330
207
100
AcDbEntity
  8
7_ALL_FEATURES
  6
Continuous
 62
     7
100
AcDbLine
 10
344.385071
 20
336.414089
 30
0.0
 11
345.260071
 21
336.414089
 31
0.0
  0
LINE
  5
2FB
330
207
100
AcDbEntity
  8
7_ALL_FEATURES
  6
Continuous
 62
     7
100
AcDbLine
 10
345.260071
 20
336.414089
 30
0.0
 11
345.260071
 21
335.539089
 31
0.0
  0
LINE
  5
2FC
330
207
100
AcDbEntity
  8
7_ALL_FEATURES
  6
Continuous
 62
     7
100
AcDbLine
 10
346.010071
 20
335.539089
 30
0.0
 11
346.010071
 21
336.414089
 31
0.0
  0
LINE
  5
2FD
330
207
100
AcDbEntity
  8
7_ALL_FEATURES
  6
Continuous
 62
     7
100
AcDbLine
 10
346.010071
 20
336.414089
 30
0.0
 11
346.885071
 21
336.414089
 31
0.0
  0
ARC
  5
2FE
330
207
100
AcDbEntity
  8
3_ALL_AXES
  6
Continuous
 62
     7
100
AcDbCircle
 10
345.635071
 20
336.789089
 30
0.0
 40
2.15
100
AcDbArc
 50
90.0
 51
270.0
  0
LINE
  5
2FF
330
207
100
AcDbEntity
  8
7_ALL_FEATURES
  6
Continuous
 62
     7
100
AcDbLine
 10
344.385071
 20
336.414089
 30
0.0
 11
344.385071
 21
337.164089
 31
0.0
  0
LINE
  5
300
330
207
100
AcDbEntity
  8
7_ALL_FEATURES
  6
Continuous
 62
     7
100
AcDbLine
 10
345.260071
 20
338.039089
 30
0.0
 11
346.010071
 21
338.039089
 31
0.0
  0
LINE
  5
301
330
207
100
AcDbEntity
  8
7_ALL_FEATURES
  6
Continuous
 62
     7
100
AcDbLine
 10
346.885071
 20
337.164089
 30
0.0
 11
346.885071
 21
336.414089
 31
0.0
  0
LINE
  5
302
330
207
100
AcDbEntity
  8
7_ALL_FEATURES
  6
Continuous
 62
     7
100
AcDbLine
 10
346.010071
 20
335.539089
 30
0.0
 11
345.260071
 21
335.539089
 31
0.0
  0
ARC
  5
303
330
207
100
AcDbEntity
  8
3_ALL_AXES
  6
Continuous
 62
     7
100
AcDbCircle
 10
345.635071
 20
336.789089
 30
0.0
 40
2.15
100
AcDbArc
 50
270.0
 51
90.0
  0
ARC
  5
304
330
207
100
AcDbEntity
  8
3_ALL_AXES
  6
Continuous
 62
     7
100
AcDbCircle
 10
49.993877
 20
333.789089
 30
0.0
 40
8.0
100
AcDbArc
 50
180.0
 51
201.253809
  0
LINE
  5
305
330
207
100
AcDbEntity
  8
3_ALL_AXES
  6
Continuous
 62
     7
100
AcDbLine
 10
42.538007
 20
330.889089
 30
0.0
 11
43.243877
 21
330.889089
 31
0.0
  0
LINE
  5
306
330
207
100
AcDbEntity
  8
3_ALL_AXES
  6
Continuous
 62
     7
100
AcDbLine
 10
42.538007
 20
336.689089
 30
0.0
 11
43.243877
 21
336.689089
 31
0.0
  0
ARC
  5
307
330
207
100
AcDbEntity
  8
3_ALL_AXES
  6
Continuous
 62
     7
100
AcDbCircle
 10
49.993877
 20
333.789089
 30
0.0
 40
8.0
100
AcDbArc
 50
158.746191
 51
180.0
  0
LINE
  5
308
330
207
100
AcDbEntity
  8
3_ALL_AXES
  6
Continuous
 62
     7
100
AcDbLine
 10
42.538007
 20
330.889089
 30
0.0
 11
42.538007
 21
333.789089
 31
0.0
  0
LINE
  5
309
330
207
100
AcDbEntity
  8
3_ALL_AXES
  6
Continuous
 62
     7
100
AcDbLine
 10
42.538007
 20
336.689089
 30
0.0
 11
42.538007
 21
333.789089
 31
0.0
  0
ARC
  5
30A
330
207
100
AcDbEntity
  8
3_ALL_AXES
  6
Continuous
 62
     7
100
AcDbCircle
 10
349.493877
 20
333.789089
 30
0.0
 40
8.0
100
AcDbArc
 50
338.746191
 51
360.0
  0
LINE
  5
30B
330
207
100
AcDbEntity
  8
3_ALL_AXES
  6
Continuous
 62
     7
100
AcDbLine
 10
356.949747
 20
336.689089
 30
0.0
 11
356.243877
 21
336.689089
 31
0.0
  0
LINE
  5
30C
330
207
100
AcDbEntity
  8
3_ALL_AXES
  6
Continuous
 62
     7
100
AcDbLine
 10
356.949747
 20
330.889089
 30
0.0
 11
356.243877
 21
330.889089
 31
0.0
  0
ARC
  5
30D
330
207
100
AcDbEntity
  8
3_ALL_AXES
  6
Continuous
 62
     7
100
AcDbCircle
 10
349.493877
 20
333.789089
 30
0.0
 40
8.0
100
AcDbArc
 50
0.0
 51
21.253809
  0
LINE
  5
30E
330
207
100
AcDbEntity
  8
3_ALL_AXES
  6
Continuous
 62
     7
100
AcDbLine
 10
356.949747
 20
333.789089
 30
0.0
 11
356.949747
 21
330.889089
 31
0.0
  0
LINE
  5
30F
330
207
100
AcDbEntity
  8
3_ALL_AXES
  6
Continuous
 62
     7
100
AcDbLine
 10
356.949747
 20
333.789089
 30
0.0
 11
356.949747
 21
336.689089
 31
0.0
  0
SPLINE
  5
310
330
207
100
AcDbEntity
  8
7_ALL_FEATURES
  6
Continuous
 62
     7
100
AcDbSpline
 70
     0
 71
     3
 72
    19
 73
    15
 74
     0
 42
0.000000001
 43
0.0000001
 40
0.0
 40
0.0
 40
0.0
 40
0.0
 40
0.0942191692
 40
0.2164788453
 40
0.2861879669
 40
0.3592719887
 40
0.4317288339
 40
0.5002782342
 40
0.5687600876
 40
0.6411451214
 40
0.7140339027
 40
0.7836668666
 40
0.9056994874
 40
1.0
 40
1.0
 40
1.0
 40
1.0
 10
44.1225563456
 20
223.2890887961
 30
0.0
 10
44.2861933479
 20
223.2890887961
 30
0.0
 10
44.6616761925
 20
223.3573387682
 30
0.0
 10
45.1198478626
 20
223.5627068858
 30
0.0
 10
45.4961317053
 20
223.830734058
 30
0.0
 10
45.7593176654
 20
224.0999623717
 30
0.0
 10
45.9500897276
 20
224.4251360438
 30
0.0
 10
46.0227327384
 20
224.7904793523
 30
0.0
 10
45.9490983874
 20
225.1554608289
 30
0.0
 10
45.75801727
 20
225.4797275696
 30
0.0
 10
45.4950546408
 20
225.7482962469
 30
0.0
 10
45.1193793557
 20
226.0156835863
 30
0.0
 10
44.6615640552
 20
226.2208223916
 30
0.0
 10
44.2863346226
 20
226.2890887961
 30
0.0
 10
44.1225563456
 20
226.2890887961
 30
0.0
  0
LINE
  5
311
330
207
100
AcDbEntity
  8
7_ALL_FEATURES
  6
Continuous
 62
     7
100
AcDbLine
 10
43.243877
 20
221.289089
 30
0.0
 11
43.243877
 21
228.289089
 31
0.0
  0
LINE
  5
312
330
207
100
AcDbEntity
  8
7_ALL_FEATURES
  6
Continuous
 62
     7
100
AcDbLine
 10
44.743877
 20
228.289089
 30
0.0
 11
43.243877
 21
228.289089
 31
0.0
  0
LINE
  5
313
330
207
100
AcDbEntity
  8
7_ALL_FEATURES
  6
Continuous
 62
     7
100
AcDbLine
 10
43.243877
 20
221.289089
 30
0.0
 11
44.743877
 21
221.289089
 31
0.0
  0
SPLINE
  5
314
330
207
100
AcDbEntity
  8
7_ALL_FEATURES
  6
Continuous
 62
     7
100
AcDbSpline
 70
     0
 71
     3
 72
    19
 73
    15
 74
     0
 42
0.000000001
 43
0.0000001
 40
0.0
 40
0.0
 40
0.0
 40
0.0
 40
0.0942191692
 40
0.2164788453
 40
0.2861879669
 40
0.3592719887
 40
0.4317288339
 40
0.5002782342
 40
0.5687600876
 40
0.6411451214
 40
0.7140339027
 40
0.7836668666
 40
0.9056994874
 40
1.0
 40
1.0
 40
1.0
 40
1.0
 10
44.1225563456
 20
335.2890887961
 30
0.0
 10
44.2861933479
 20
335.2890887961
 30
0.0
 10
44.6616761925
 20
335.3573387682
 30
0.0
 10
45.1198478626
 20
335.5627068858
 30
0.0
 10
45.4961317053
 20
335.830734058
 30
0.0
 10
45.7593176654
 20
336.0999623717
 30
0.0
 10
45.9500897276
 20
336.4251360438
 30
0.0
 10
46.0227327384
 20
336.7904793523
 30
0.0
 10
45.9490983874
 20
337.1554608289
 30
0.0
 10
45.75801727
 20
337.4797275696
 30
0.0
 10
45.4950546408
 20
337.7482962469
 30
0.0
 10
45.1193793557
 20
338.0156835863
 30
0.0
 10
44.6615640552
 20
338.2208223916
 30
0.0
 10
44.2863346226
 20
338.2890887961
 30
0.0
 10
44.1225563456
 20
338.2890887961
 30
0.0
  0
LINE
  5
315
330
207
100
AcDbEntity
  8
7_ALL_FEATURES
  6
Continuous
 62
     7
100
AcDbLine
 10
43.243877
 20
333.289089
 30
0.0
 11
43.243877
 21
340.289089
 31
0.0
  0
LINE
  5
316
330
207
100
AcDbEntity
  8
7_ALL_FEATURES
  6
Continuous
 62
     7
100
AcDbLine
 10
44.743877
 20
340.289089
 30
0.0
 11
43.243877
 21
340.289089
 31
0.0
  0
LINE
  5
317
330
207
100
AcDbEntity
  8
7_ALL_FEATURES
  6
Continuous
 62
     7
100
AcDbLine
 10
43.243877
 20
333.289089
 30
0.0
 11
44.743877
 21
333.289089
 31
0.0
  0
LINE
  5
318
330
207
100
AcDbEntity
  8
3_ALL_AXES
  6
Continuous
 62
     7
100
AcDbLine
 10
43.243877
 20
206.539089
 30
0.0
 11
43.243877
 21
204.539089
 31
0.0
  0
LINE
  5
319
330
207
100
AcDbEntity
  8
3_ALL_AXES
  6
Continuous
 62
     7
100
AcDbLine
 10
43.243877
 20
219.039089
 30
0.0
 11
43.243877
 21
218.539089
 31
0.0
  0
LINE
  5
31A
330
207
100
AcDbEntity
  8
3_ALL_AXES
  6
Continuous
 62
     7
100
AcDbLine
 10
43.243877
 20
219.539089
 30
0.0
 11
43.243877
 21
219.039089
 31
0.0
  0
LINE
  5
31B
330
207
100
AcDbEntity
  8
3_ALL_AXES
  6
Continuous
 62
     7
100
AcDbLine
 10
43.243877
 20
230.539089
 30
0.0
 11
43.243877
 21
230.039089
 31
0.0
  0
LINE
  5
31C
330
207
100
AcDbEntity
  8
3_ALL_AXES
  6
Continuous
 62
     7
100
AcDbLine
 10
43.243877
 20
231.039089
 30
0.0
 11
43.243877
 21
230.539089
 31
0.0
  0
LINE
  5
31D
330
207
100
AcDbEntity
  8
3_ALL_AXES
  6
Continuous
 62
     7
100
AcDbLine
 10
43.243877
 20
331.039089
 30
0.0
 11
43.243877
 21
330.539089
 31
0.0
  0
LINE
  5
31E
330
207
100
AcDbEntity
  8
3_ALL_AXES
  6
Continuous
 62
     7
100
AcDbLine
 10
43.243877
 20
331.539089
 30
0.0
 11
43.243877
 21
331.039089
 31
0.0
  0
LINE
  5
31F
330
207
100
AcDbEntity
  8
3_ALL_AXES
  6
Continuous
 62
     7
100
AcDbLine
 10
43.243877
 20
342.539089
 30
0.0
 11
43.243877
 21
342.039089
 31
0.0
  0
LINE
  5
320
330
207
100
AcDbEntity
  8
3_ALL_AXES
  6
Continuous
 62
     7
100
AcDbLine
 10
43.243877
 20
343.039089
 30
0.0
 11
43.243877
 21
342.539089
 31
0.0
  0
LINE
  5
321
330
207
100
AcDbEntity
  8
3_ALL_AXES
  6
Continuous
 62
     7
100
AcDbLine
 10
43.243877
 20
354.539089
 30
0.0
 11
43.243877
 21
354.039089
 31
0.0
  0
LINE
  5
322
330
207
100
AcDbEntity
  8
3_ALL_AXES
  6
Continuous
 62
     7
100
AcDbLine
 10
44.743877
 20
354.539089
 30
0.0
 11
43.243877
 21
354.539089
 31
0.0
  0
LINE
  5
323
330
207
100
AcDbEntity
  8
3_ALL_AXES
  6
Continuous
 62
     7
100
AcDbLine
 10
43.243877
 20
343.039089
 30
0.0
 11
43.243877
 21
354.039089
 31
0.0
  0
LINE
  5
324
330
207
100
AcDbEntity
  8
3_ALL_AXES
  6
Continuous
 62
     7
100
AcDbLine
 10
44.743877
 20
342.539089
 30
0.0
 11
43.243877
 21
342.539089
 31
0.0
  0
LINE
  5
325
330
207
100
AcDbEntity
  8
3_ALL_AXES
  6
Continuous
 62
     7
100
AcDbLine
 10
43.243877
 20
340.289089
 30
0.0
 11
43.243877
 21
342.039089
 31
0.0
  0
LINE
  5
326
330
207
100
AcDbEntity
  8
3_ALL_AXES
  6
Continuous
 62
     7
100
AcDbLine
 10
43.243877
 20
331.539089
 30
0.0
 11
43.243877
 21
333.289089
 31
0.0
  0
LINE
  5
327
330
207
100
AcDbEntity
  8
3_ALL_AXES
  6
Continuous
 62
     7
100
AcDbLine
 10
44.743877
 20
331.039089
 30
0.0
 11
43.243877
 21
331.039089
 31
0.0
  0
LINE
  5
328
330
207
100
AcDbEntity
  8
3_ALL_AXES
  6
Continuous
 62
     7
100
AcDbLine
 10
43.243877
 20
231.039089
 30
0.0
 11
43.243877
 21
330.539089
 31
0.0
  0
LINE
  5
329
330
207
100
AcDbEntity
  8
3_ALL_AXES
  6
Continuous
 62
     7
100
AcDbLine
 10
44.743877
 20
230.539089
 30
0.0
 11
43.243877
 21
230.539089
 31
0.0
  0
LINE
  5
32A
330
207
100
AcDbEntity
  8
3_ALL_AXES
  6
Continuous
 62
     7
100
AcDbLine
 10
43.243877
 20
228.289089
 30
0.0
 11
43.243877
 21
230.039089
 31
0.0
  0
LINE
  5
32B
330
207
100
AcDbEntity
  8
3_ALL_AXES
  6
Continuous
 62
     7
100
AcDbLine
 10
43.243877
 20
219.539089
 30
0.0
 11
43.243877
 21
221.289089
 31
0.0
  0
LINE
  5
32C
330
207
100
AcDbEntity
  8
3_ALL_AXES
  6
Continuous
 62
     7
100
AcDbLine
 10
44.743877
 20
219.039089
 30
0.0
 11
43.243877
 21
219.039089
 31
0.0
  0
LINE
  5
32D
330
207
100
AcDbEntity
  8
3_ALL_AXES
  6
Continuous
 62
     7
100
AcDbLine
 10
43.243877
 20
206.539089
 30
0.0
 11
43.243877
 21
218.539089
 31
0.0
  0
LINE
  5
32E
330
207
100
AcDbEntity
  8
3_ALL_AXES
  6
Continuous
 62
     7
100
AcDbLine
 10
44.743877
 20
204.539089
 30
0.0
 11
43.243877
 21
204.539089
 31
0.0
  0
ARC
  5
32F
330
207
100
AcDbEntity
  8
3_ALL_AXES
  6
Continuous
 62
     7
100
AcDbCircle
 10
53.852682
 20
224.789089
 30
0.0
 40
0.95
100
AcDbArc
 50
0.0
 51
180.0
  0
ARC
  5
330
330
207
100
AcDbEntity
  8
3_ALL_AXES
  6
Continuous
 62
     7
100
AcDbCircle
 10
53.852682
 20
224.789089
 30
0.0
 40
0.95
100
AcDbArc
 50
180.0
 51
360.0
  0
LINE
  5
331
330
207
100
AcDbEntity
  8
3_ALL_AXES
  6
Continuous
 62
     7
100
AcDbLine
 10
58.243877
 20
338.789089
 30
0.0
 11
58.243877
 21
334.789089
 31
0.0
  0
ARC
  5
332
330
207
100
AcDbEntity
  8
3_ALL_AXES
  6
Continuous
 62
     7
100
AcDbCircle
 10
56.743877
 20
334.789089
 30
0.0
 40
1.5
100
AcDbArc
 50
350.17331
 51
360.0
  0
ARC
  5
333
330
207
100
AcDbEntity
  8
3_ALL_AXES
  6
Continuous
 62
     7
100
AcDbCircle
 10
56.743877
 20
338.789089
 30
0.0
 40
1.5
100
AcDbArc
 50
0.0
 51
9.826481
  0
ARC
  5
334
330
207
100
AcDbEntity
  8
3_ALL_AXES
  6
Continuous
 62
     7
100
AcDbCircle
 10
56.743877
 20
226.789089
 30
0.0
 40
1.5
100
AcDbArc
 50
0.0
 51
9.826481
  0
LINE
  5
335
330
207
100
AcDbEntity
  8
3_ALL_AXES
  6
Continuous
 62
     7
100
AcDbLine
 10
58.243877
 20
226.789089
 30
0.0
 11
58.243877
 21
222.789089
 31
0.0
  0
ARC
  5
336
330
207
100
AcDbEntity
  8
3_ALL_AXES
  6
Continuous
 62
     7
100
AcDbCircle
 10
56.743877
 20
222.789089
 30
0.0
 40
1.5
100
AcDbArc
 50
350.17331
 51
360.0
  0
LINE
  5
337
330
207
100
AcDbEntity
  8
3_ALL_AXES
  6
Continuous
 62
     9
100
AcDbLine
 10
44.743877
 20
331.539089
 30
0.0
 11
43.243877
 21
331.539089
 31
0.0
  0
LINE
  5
338
330
207
100
AcDbEntity
  8
7_ALL_FEATURES
  6
Continuous
 62
     9
100
AcDbLine
 10
46.243877
 20
339.039089
 30
0.0
 11
46.243877
 21
334.539089
 31
0.0
  0
LINE
  5
339
330
207
100
AcDbEntity
  8
3_ALL_AXES
  6
Continuous
 62
     9
100
AcDbLine
 10
44.743877
 20
330.539089
 30
0.0
 11
43.243877
 21
330.539089
 31
0.0
  0
LINE
  5
33A
330
207
100
AcDbEntity
  8
3_ALL_AXES
  6
Continuous
 62
     9
100
AcDbLine
 10
44.743877
 20
231.039089
 30
0.0
 11
43.243877
 21
231.039089
 31
0.0
  0
LINE
  5
33B
330
207
100
AcDbEntity
  8
3_ALL_AXES
  6
Continuous
 62
     9
100
AcDbLine
 10
44.743877
 20
230.039089
 30
0.0
 11
43.243877
 21
230.039089
 31
0.0
  0
SPLINE
  5
33C
330
207
100
AcDbEntity
  8
7_ALL_FEATURES
  6
Continuous
 62
     7
100
AcDbSpline
 70
     0
 71
     3
 72
    19
 73
    15
 74
     0
 42
0.000000001
 43
0.0000001
 40
0.0
 40
0.0
 40
0.0
 40
0.0
 40
0.1115961705
 40
0.1612444441
 40
0.2118623076
 40
0.2683243429
 40
0.3346347971
 40
0.499993497
 40
0.6653567389
 40
0.7316751579
 40
0.7881360967
 40
0.8387536535
 40
0.8884031707
 40
1.0
 40
1.0
 40
1.0
 40
1.0
 10
44.1225563456
 20
335.2890887961
 30
0.0
 10
43.9746975794
 20
335.2890887961
 30
0.0
 10
43.7523038167
 20
335.327022832
 30
0.0
 10
43.5219125342
 20
335.4949970491
 30
0.0
 10
43.3992631668
 20
335.6665091201
 30
0.0
 10
43.3197044431
 20
335.8841320911
 30
0.0
 10
43.2573324495
 20
336.2620139011
 30
0.0
 10
43.2514435477
 20
336.789069976
 30
0.0
 10
43.2573458885
 20
337.3161320788
 30
0.0
 10
43.3196888634
 20
337.6940347729
 30
0.0
 10
43.3992572554
 20
337.9116652487
 30
0.0
 10
43.5219126327
 20
338.0831709474
 30
0.0
 10
43.7522975061
 20
338.2511567336
 30
0.0
 10
43.9746967065
 20
338.2890887961
 30
0.0
 10
44.1225563456
 20
338.2890887961
 30
0.0
  0
LINE
  5
33D
330
207
100
AcDbEntity
  8
3_ALL_AXES
  6
Continuous
 62
     9
100
AcDbLine
 10
44.743877
 20
354.039089
 30
0.0
 11
43.243877
 21
354.039089
 31
0.0
  0
LINE
  5
33E
330
207
100
AcDbEntity
  8
3_ALL_AXES
  6
Continuous
 62
     9
100
AcDbLine
 10
44.743877
 20
343.039089
 30
0.0
 11
43.243877
 21
343.039089
 31
0.0
  0
LINE
  5
33F
330
207
100
AcDbEntity
  8
3_ALL_AXES
  6
Continuous
 62
     9
100
AcDbLine
 10
44.743877
 20
219.539089
 30
0.0
 11
43.243877
 21
219.539089
 31
0.0
  0
SPLINE
  5
340
330
207
100
AcDbEntity
  8
7_ALL_FEATURES
  6
Continuous
 62
     7
100
AcDbSpline
 70
     0
 71
     3
 72
    19
 73
    15
 74
     0
 42
0.000000001
 43
0.0000001
 40
0.0
 40
0.0
 40
0.0
 40
0.0
 40
0.1115961705
 40
0.1612444441
 40
0.2118623076
 40
0.2683243429
 40
0.3346347972
 40
0.499993497
 40
0.6653567388
 40
0.7316751579
 40
0.7881360967
 40
0.8387536535
 40
0.8884031707
 40
1.0
 40
1.0
 40
1.0
 40
1.0
 10
44.1225563456
 20
223.2890887961
 30
0.0
 10
43.9746975794
 20
223.2890887961
 30
0.0
 10
43.7523038167
 20
223.327022832
 30
0.0
 10
43.5219125342
 20
223.4949970491
 30
0.0
 10
43.3992631668
 20
223.6665091202
 30
0.0
 10
43.3197044431
 20
223.8841320912
 30
0.0
 10
43.2573324496
 20
224.2620139011
 30
0.0
 10
43.2514435476
 20
224.789069976
 30
0.0
 10
43.2573458887
 20
225.3161320786
 30
0.0
 10
43.3196888634
 20
225.6940347727
 30
0.0
 10
43.3992572554
 20
225.9116652487
 30
0.0
 10
43.5219126327
 20
226.0831709474
 30
0.0
 10
43.7522975061
 20
226.2511567338
 30
0.0
 10
43.9746967065
 20
226.2890887961
 30
0.0
 10
44.1225563456
 20
226.2890887961
 30
0.0
  0
LINE
  5
341
330
207
100
AcDbEntity
  8
3_ALL_AXES
  6
Continuous
 62
     9
100
AcDbLine
 10
44.743877
 20
218.539089
 30
0.0
 11
43.243877
 21
218.539089
 31
0.0
  0
LINE
  5
342
330
207
100
AcDbEntity
  8
3_ALL_AXES
  6
Continuous
 62
     9
100
AcDbLine
 10
44.743877
 20
342.039089
 30
0.0
 11
43.243877
 21
342.039089
 31
0.0
  0
LINE
  5
343
330
207
100
AcDbEntity
  8
3_ALL_AXES
  6
Continuous
 62
     9
100
AcDbLine
 10
44.743877
 20
206.539089
 30
0.0
 11
43.243877
 21
206.539089
 31
0.0
  0
LINE
  5
344
330
207
100
AcDbEntity
  8
7_ALL_FEATURES
  6
Continuous
 62
     9
100
AcDbLine
 10
46.243877
 20
227.039089
 30
0.0
 11
46.243877
 21
222.539089
 31
0.0
  0
SPLINE
  5
345
330
207
100
AcDbEntity
  8
7_ALL_FEATURES
  6
Continuous
 62
     7
100
AcDbSpline
 70
     0
 71
     3
 72
    19
 73
    15
 74
     0
 42
0.000000001
 43
0.0000001
 40
0.0
 40
0.0
 40
0.0
 40
0.0
 40
0.0942191692
 40
0.2164788453
 40
0.2861879669
 40
0.3592719887
 40
0.4317288339
 40
0.5002782342
 40
0.5687600876
 40
0.6411451214
 40
0.7140339027
 40
0.7836668666
 40
0.9056994874
 40
1.0
 40
1.0
 40
1.0
 40
1.0
 10
355.3651970328
 20
226.2890887961
 30
0.0
 10
355.2015600305
 20
226.2890887961
 30
0.0
 10
354.8260771859
 20
226.220838824
 30
0.0
 10
354.3679055158
 20
226.0154707064
 30
0.0
 10
353.991621673
 20
225.7474435343
 30
0.0
 10
353.728435713
 20
225.4782152205
 30
0.0
 10
353.5376636508
 20
225.1530415484
 30
0.0
 10
353.4650206399
 20
224.7876982399
 30
0.0
 10
353.538654991
 20
224.4227167633
 30
0.0
 10
353.7297361084
 20
224.0984500226
 30
0.0
 10
353.9926987375
 20
223.8298813453
 30
0.0
 10
354.3683740227
 20
223.5624940059
 30
0.0
 10
354.8261893232
 20
223.3573552006
 30
0.0
 10
355.2014187558
 20
223.2890887961
 30
0.0
 10
355.3651970327
 20
223.2890887961
 30
0.0
  0
LINE
  5
346
330
207
100
AcDbEntity
  8
7_ALL_FEATURES
  6
Continuous
 62
     7
100
AcDbLine
 10
356.243877
 20
228.289089
 30
0.0
 11
356.243877
 21
221.289089
 31
0.0
  0
LINE
  5
347
330
207
100
AcDbEntity
  8
7_ALL_FEATURES
  6
Continuous
 62
     7
100
AcDbLine
 10
354.743877
 20
221.289089
 30
0.0
 11
356.243877
 21
221.289089
 31
0.0
  0
LINE
  5
348
330
207
100
AcDbEntity
  8
7_ALL_FEATURES
  6
Continuous
 62
     7
100
AcDbLine
 10
356.243877
 20
228.289089
 30
0.0
 11
354.743877
 21
228.289089
 31
0.0
  0
SPLINE
  5
349
330
207
100
AcDbEntity
  8
7_ALL_FEATURES
  6
Continuous
 62
     7
100
AcDbSpline
 70
     0
 71
     3
 72
    19
 73
    15
 74
     0
 42
0.000000001
 43
0.0000001
 40
0.0
 40
0.0
 40
0.0
 40
0.0
 40
0.0942191692
 40
0.2164788453
 40
0.2861879669
 40
0.3592719887
 40
0.4317288339
 40
0.5002782342
 40
0.5687600876
 40
0.6411451214
 40
0.7140339027
 40
0.7836668666
 40
0.9056994874
 40
1.0
 40
1.0
 40
1.0
 40
1.0
 10
355.3651970327
 20
338.2890887961
 30
0.0
 10
355.2015600305
 20
338.2890887961
 30
0.0
 10
354.8260771859
 20
338.220838824
 30
0.0
 10
354.3679055158
 20
338.0154707064
 30
0.0
 10
353.991621673
 20
337.7474435343
 30
0.0
 10
353.728435713
 20
337.4782152205
 30
0.0
 10
353.5376636508
 20
337.1530415484
 30
0.0
 10
353.4650206399
 20
336.7876982399
 30
0.0
 10
353.538654991
 20
336.4227167633
 30
0.0
 10
353.7297361084
 20
336.0984500226
 30
0.0
 10
353.9926987375
 20
335.8298813453
 30
0.0
 10
354.3683740227
 20
335.5624940059
 30
0.0
 10
354.8261893232
 20
335.3573552006
 30
0.0
 10
355.2014187558
 20
335.2890887961
 30
0.0
 10
355.3651970327
 20
335.2890887961
 30
0.0
  0
LINE
  5
34A
330
207
100
AcDbEntity
  8
7_ALL_FEATURES
  6
Continuous
 62
     7
100
AcDbLine
 10
356.243877
 20
340.289089
 30
0.0
 11
356.243877
 21
333.289089
 31
0.0
  0
LINE
  5
34B
330
207
100
AcDbEntity
  8
7_ALL_FEATURES
  6
Continuous
 62
     7
100
AcDbLine
 10
354.743877
 20
333.289089
 30
0.0
 11
356.243877
 21
333.289089
 31
0.0
  0
LINE
  5
34C
330
207
100
AcDbEntity
  8
7_ALL_FEATURES
  6
Continuous
 62
     7
100
AcDbLine
 10
356.243877
 20
340.289089
 30
0.0
 11
354.743877
 21
340.289089
 31
0.0
  0
LINE
  5
34D
330
207
100
AcDbEntity
  8
3_ALL_AXES
  6
Continuous
 62
     7
100
AcDbLine
 10
341.243877
 20
226.789089
 30
0.0
 11
341.243877
 21
222.789089
 31
0.0
  0
LINE
  5
34E
330
207
100
AcDbEntity
  8
3_ALL_AXES
  6
Continuous
 62
     7
100
AcDbLine
 10
356.243877
 20
342.539089
 30
0.0
 11
356.243877
 21
343.039089
 31
0.0
  0
LINE
  5
34F
330
207
100
AcDbEntity
  8
3_ALL_AXES
  6
Continuous
 62
     7
100
AcDbLine
 10
356.243877
 20
342.039089
 30
0.0
 11
356.243877
 21
342.539089
 31
0.0
  0
LINE
  5
350
330
207
100
AcDbEntity
  8
3_ALL_AXES
  6
Continuous
 62
     7
100
AcDbLine
 10
356.243877
 20
331.039089
 30
0.0
 11
356.243877
 21
331.539089
 31
0.0
  0
LINE
  5
351
330
207
100
AcDbEntity
  8
3_ALL_AXES
  6
Continuous
 62
     7
100
AcDbLine
 10
356.243877
 20
330.539089
 30
0.0
 11
356.243877
 21
331.039089
 31
0.0
  0
LINE
  5
352
330
207
100
AcDbEntity
  8
3_ALL_AXES
  6
Continuous
 62
     7
100
AcDbLine
 10
356.243877
 20
230.539089
 30
0.0
 11
356.243877
 21
231.039089
 31
0.0
  0
LINE
  5
353
330
207
100
AcDbEntity
  8
3_ALL_AXES
  6
Continuous
 62
     7
100
AcDbLine
 10
356.243877
 20
230.039089
 30
0.0
 11
356.243877
 21
230.539089
 31
0.0
  0
LINE
  5
354
330
207
100
AcDbEntity
  8
3_ALL_AXES
  6
Continuous
 62
     7
100
AcDbLine
 10
356.243877
 20
219.039089
 30
0.0
 11
356.243877
 21
219.539089
 31
0.0
  0
LINE
  5
355
330
207
100
AcDbEntity
  8
3_ALL_AXES
  6
Continuous
 62
     7
100
AcDbLine
 10
356.243877
 20
218.539089
 30
0.0
 11
356.243877
 21
219.039089
 31
0.0
  0
LINE
  5
356
330
207
100
AcDbEntity
  8
3_ALL_AXES
  6
Continuous
 62
     7
100
AcDbLine
 10
356.243877
 20
204.539089
 30
0.0
 11
356.243877
 21
206.539089
 31
0.0
  0
LINE
  5
357
330
207
100
AcDbEntity
  8
3_ALL_AXES
  6
Continuous
 62
     7
100
AcDbLine
 10
356.243877
 20
354.039089
 30
0.0
 11
356.243877
 21
354.539089
 31
0.0
  0
LINE
  5
358
330
207
100
AcDbEntity
  8
3_ALL_AXES
  6
Continuous
 62
     7
100
AcDbLine
 10
354.743877
 20
354.539089
 30
0.0
 11
356.243877
 21
354.539089
 31
0.0
  0
LINE
  5
359
330
207
100
AcDbEntity
  8
3_ALL_AXES
  6
Continuous
 62
     7
100
AcDbLine
 10
354.743877
 20
204.539089
 30
0.0
 11
356.243877
 21
204.539089
 31
0.0
  0
LINE
  5
35A
330
207
100
AcDbEntity
  8
3_ALL_AXES
  6
Continuous
 62
     7
100
AcDbLine
 10
356.243877
 20
218.539089
 30
0.0
 11
356.243877
 21
206.539089
 31
0.0
  0
LINE
  5
35B
330
207
100
AcDbEntity
  8
3_ALL_AXES
  6
Continuous
 62
     7
100
AcDbLine
 10
354.743877
 20
219.039089
 30
0.0
 11
356.243877
 21
219.039089
 31
0.0
  0
LINE
  5
35C
330
207
100
AcDbEntity
  8
3_ALL_AXES
  6
Continuous
 62
     7
100
AcDbLine
 10
356.243877
 20
221.289089
 30
0.0
 11
356.243877
 21
219.539089
 31
0.0
  0
LINE
  5
35D
330
207
100
AcDbEntity
  8
3_ALL_AXES
  6
Continuous
 62
     7
100
AcDbLine
 10
356.243877
 20
230.039089
 30
0.0
 11
356.243877
 21
228.289089
 31
0.0
  0
LINE
  5
35E
330
207
100
AcDbEntity
  8
3_ALL_AXES
  6
Continuous
 62
     7
100
AcDbLine
 10
341.243877
 20
338.789089
 30
0.0
 11
341.243877
 21
334.789089
 31
0.0
  0
LINE
  5
35F
330
207
100
AcDbEntity
  8
3_ALL_AXES
  6
Continuous
 62
     7
100
AcDbLine
 10
354.743877
 20
230.539089
 30
0.0
 11
356.243877
 21
230.539089
 31
0.0
  0
LINE
  5
360
330
207
100
AcDbEntity
  8
3_ALL_AXES
  6
Continuous
 62
     7
100
AcDbLine
 10
356.243877
 20
330.539089
 30
0.0
 11
356.243877
 21
231.039089
 31
0.0
  0
LINE
  5
361
330
207
100
AcDbEntity
  8
3_ALL_AXES
  6
Continuous
 62
     7
100
AcDbLine
 10
354.743877
 20
331.039089
 30
0.0
 11
356.243877
 21
331.039089
 31
0.0
  0
LINE
  5
362
330
207
100
AcDbEntity
  8
3_ALL_AXES
  6
Continuous
 62
     7
100
AcDbLine
 10
356.243877
 20
333.289089
 30
0.0
 11
356.243877
 21
331.539089
 31
0.0
  0
ARC
  5
363
330
207
100
AcDbEntity
  8
3_ALL_AXES
  6
Continuous
 62
     7
100
AcDbCircle
 10
342.743877
 20
334.789089
 30
0.0
 40
1.5
100
AcDbArc
 50
180.0
 51
189.826481
  0
ARC
  5
364
330
207
100
AcDbEntity
  8
3_ALL_AXES
  6
Continuous
 62
     7
100
AcDbCircle
 10
342.743877
 20
338.789089
 30
0.0
 40
1.5
100
AcDbArc
 50
170.17331
 51
180.0
  0
LINE
  5
365
330
207
100
AcDbEntity
  8
3_ALL_AXES
  6
Continuous
 62
     7
100
AcDbLine
 10
356.243877
 20
342.039089
 30
0.0
 11
356.243877
 21
340.289089
 31
0.0
  0
LINE
  5
366
330
207
100
AcDbEntity
  8
3_ALL_AXES
  6
Continuous
 62
     7
100
AcDbLine
 10
354.743877
 20
342.539089
 30
0.0
 11
356.243877
 21
342.539089
 31
0.0
  0
LINE
  5
367
330
207
100
AcDbEntity
  8
3_ALL_AXES
  6
Continuous
 62
     7
100
AcDbLine
 10
356.243877
 20
354.039089
 30
0.0
 11
356.243877
 21
343.039089
 31
0.0
  0
ARC
  5
368
330
207
100
AcDbEntity
  8
3_ALL_AXES
  6
Continuous
 62
     7
100
AcDbCircle
 10
345.635071
 20
224.789089
 30
0.0
 40
0.95
100
AcDbArc
 50
0.0
 51
180.0
  0
ARC
  5
369
330
207
100
AcDbEntity
  8
3_ALL_AXES
  6
Continuous
 62
     7
100
AcDbCircle
 10
345.635071
 20
224.789089
 30
0.0
 40
0.95
100
AcDbArc
 50
180.0
 51
360.0
  0
ARC
  5
36A
330
207
100
AcDbEntity
  8
3_ALL_AXES
  6
Continuous
 62
     7
100
AcDbCircle
 10
342.743877
 20
222.789089
 30
0.0
 40
1.5
100
AcDbArc
 50
180.0
 51
189.826481
  0
ARC
  5
36B
330
207
100
AcDbEntity
  8
3_ALL_AXES
  6
Continuous
 62
     7
100
AcDbCircle
 10
342.743877
 20
226.789089
 30
0.0
 40
1.5
100
AcDbArc
 50
170.17331
 51
180.0
  0
LINE
  5
36C
330
207
100
AcDbEntity
  8
3_ALL_AXES
  6
Continuous
 62
     9
100
AcDbLine
 10
354.743877
 20
231.039089
 30
0.0
 11
356.243877
 21
231.039089
 31
0.0
  0
LINE
  5
36D
330
207
100
AcDbEntity
  8
3_ALL_AXES
  6
Continuous
 62
     9
100
AcDbLine
 10
354.743877
 20
342.039089
 30
0.0
 11
356.243877
 21
342.039089
 31
0.0
  0
LINE
  5
36E
330
207
100
AcDbEntity
  8
3_ALL_AXES
  6
Continuous
 62
     9
100
AcDbLine
 10
354.743877
 20
330.539089
 30
0.0
 11
356.243877
 21
330.539089
 31
0.0
  0
LINE
  5
36F
330
207
100
AcDbEntity
  8
7_ALL_FEATURES
  6
Continuous
 62
     9
100
AcDbLine
 10
353.243877
 20
334.539089
 30
0.0
 11
353.243877
 21
339.039089
 31
0.0
  0
LINE
  5
370
330
207
100
AcDbEntity
  8
3_ALL_AXES
  6
Continuous
 62
     9
100
AcDbLine
 10
354.743877
 20
343.039089
 30
0.0
 11
356.243877
 21
343.039089
 31
0.0
  0
LINE
  5
371
330
207
100
AcDbEntity
  8
3_ALL_AXES
  6
Continuous
 62
     9
100
AcDbLine
 10
354.743877
 20
206.539089
 30
0.0
 11
356.243877
 21
206.539089
 31
0.0
  0
LINE
  5
372
330
207
100
AcDbEntity
  8
3_ALL_AXES
  6
Continuous
 62
     9
100
AcDbLine
 10
354.743877
 20
354.039089
 30
0.0
 11
356.243877
 21
354.039089
 31
0.0
  0
LINE
  5
373
330
207
100
AcDbEntity
  8
3_ALL_AXES
  6
Continuous
 62
     9
100
AcDbLine
 10
354.743877
 20
331.539089
 30
0.0
 11
356.243877
 21
331.539089
 31
0.0
  0
LINE
  5
374
330
207
100
AcDbEntity
  8
3_ALL_AXES
  6
Continuous
 62
     9
100
AcDbLine
 10
354.743877
 20
218.539089
 30
0.0
 11
356.243877
 21
218.539089
 31
0.0
  0
LINE
  5
375
330
207
100
AcDbEntity
  8
7_ALL_FEATURES
  6
Continuous
 62
     9
100
AcDbLine
 10
353.243877
 20
222.539089
 30
0.0
 11
353.243877
 21
227.039089
 31
0.0
  0
LINE
  5
376
330
207
100
AcDbEntity
  8
3_ALL_AXES
  6
Continuous
 62
     9
100
AcDbLine
 10
354.743877
 20
219.539089
 30
0.0
 11
356.243877
 21
219.539089
 31
0.0
  0
SPLINE
  5
377
330
207
100
AcDbEntity
  8
7_ALL_FEATURES
  6
Continuous
 62
     7
100
AcDbSpline
 70
     0
 71
     3
 72
    19
 73
    15
 74
     0
 42
0.000000001
 43
0.0000001
 40
0.0
 40
0.0
 40
0.0
 40
0.0
 40
0.1115961705
 40
0.1612444441
 40
0.2118623076
 40
0.2683243429
 40
0.3346347971
 40
0.499993497
 40
0.6653567389
 40
0.7316751579
 40
0.7881360967
 40
0.8387536535
 40
0.8884031707
 40
1.0
 40
1.0
 40
1.0
 40
1.0
 10
355.3651970328
 20
226.2890887961
 30
0.0
 10
355.5130557989
 20
226.2890887961
 30
0.0
 10
355.7354495617
 20
226.2511547602
 30
0.0
 10
355.9658408442
 20
226.0831805431
 30
0.0
 10
356.0884902116
 20
225.9116684721
 30
0.0
 10
356.1680489353
 20
225.6940455011
 30
0.0
 10
356.2304209288
 20
225.3161636912
 30
0.0
 10
356.2363098307
 20
224.7891076162
 30
0.0
 10
356.2304074899
 20
224.2620455135
 30
0.0
 10
356.168064515
 20
223.8841428193
 30
0.0
 10
356.0884961229
 20
223.6665123436
 30
0.0
 10
355.9658407457
 20
223.4950066448
 30
0.0
 10
355.7354558723
 20
223.3270208586
 30
0.0
 10
355.5130566719
 20
223.2890887961
 30
0.0
 10
355.3651970327
 20
223.2890887961
 30
0.0
  0
LINE
  5
378
330
207
100
AcDbEntity
  8
3_ALL_AXES
  6
Continuous
 62
     9
100
AcDbLine
 10
354.743877
 20
230.039089
 30
0.0
 11
356.243877
 21
230.039089
 31
0.0
  0
SPLINE
  5
379
330
207
100
AcDbEntity
  8
7_ALL_FEATURES
  6
Continuous
 62
     7
100
AcDbSpline
 70
     0
 71
     3
 72
    19
 73
    15
 74
     0
 42
0.000000001
 43
0.0000001
 40
0.0
 40
0.0
 40
0.0
 40
0.0
 40
0.1115961705
 40
0.1612444441
 40
0.2118623076
 40
0.2683243429
 40
0.3346347971
 40
0.499993497
 40
0.6653567389
 40
0.7316751579
 40
0.7881360967
 40
0.8387536535
 40
0.8884031707
 40
1.0
 40
1.0
 40
1.0
 40
1.0
 10
355.3651970327
 20
338.2890887961
 30
0.0
 10
355.5130557989
 20
338.2890887961
 30
0.0
 10
355.7354495617
 20
338.2511547602
 30
0.0
 10
355.9658408442
 20
338.0831805431
 30
0.0
 10
356.0884902116
 20
337.9116684721
 30
0.0
 10
356.1680489353
 20
337.6940455011
 30
0.0
 10
356.2304209288
 20
337.3161636912
 30
0.0
 10
356.2363098307
 20
336.7891076162
 30
0.0
 10
356.2304074899
 20
336.2620455135
 30
0.0
 10
356.168064515
 20
335.8841428193
 30
0.0
 10
356.0884961229
 20
335.6665123436
 30
0.0
 10
355.9658407457
 20
335.4950066448
 30
0.0
 10
355.7354558723
 20
335.3270208586
 30
0.0
 10
355.5130566719
 20
335.2890887961
 30
0.0
 10
355.3651970327
 20
335.2890887961
 30
0.0
  0
LINE
  5
37A
330
207
100
AcDbEntity
  8
3_ALL_AXES
  6
Continuous
 62
     7
100
AcDbLine
 10
354.743877
 20
204.539089
 30
0.0
 11
354.743877
 21
205.539089
 31
0.0
  0
LINE
  5
37B
330
207
100
AcDbEntity
  8
3_ALL_AXES
  6
Continuous
 62
     7
100
AcDbLine
 10
354.743877
 20
205.539089
 30
0.0
 11
354.743877
 21
206.539089
 31
0.0
  0
LINE
  5
37C
330
207
100
AcDbEntity
  8
3_ALL_AXES
  6
Continuous
 62
     7
100
AcDbLine
 10
354.743877
 20
206.539089
 30
0.0
 11
354.743877
 21
218.539089
 31
0.0
  0
LINE
  5
37D
330
207
100
AcDbEntity
  8
3_ALL_AXES
  6
Continuous
 62
     7
100
AcDbLine
 10
354.743877
 20
218.539089
 30
0.0
 11
354.743877
 21
218.839089
 31
0.0
  0
LINE
  5
37E
330
207
100
AcDbEntity
  8
3_ALL_AXES
  6
Continuous
 62
     7
100
AcDbLine
 10
354.743877
 20
218.839089
 30
0.0
 11
354.743877
 21
219.012294
 31
0.0
  0
LINE
  5
37F
330
207
100
AcDbEntity
  8
3_ALL_AXES
  6
Continuous
 62
     7
100
AcDbLine
 10
354.743877
 20
219.012294
 30
0.0
 11
354.743877
 21
219.039089
 31
0.0
  0
LINE
  5
380
330
207
100
AcDbEntity
  8
3_ALL_AXES
  6
Continuous
 62
     7
100
AcDbLine
 10
354.743877
 20
219.039089
 30
0.0
 11
354.743877
 21
219.539089
 31
0.0
  0
LINE
  5
381
330
207
100
AcDbEntity
  8
3_ALL_AXES
  6
Continuous
 62
     7
100
AcDbLine
 10
354.743877
 20
219.539089
 30
0.0
 11
354.743877
 21
222.039089
 31
0.0
  0
LINE
  5
382
330
207
100
AcDbEntity
  8
3_ALL_AXES
  6
Continuous
 62
     7
100
AcDbLine
 10
354.743877
 20
222.039089
 30
0.0
 11
354.743877
 21
222.539089
 31
0.0
  0
LINE
  5
383
330
207
100
AcDbEntity
  8
3_ALL_AXES
  6
Continuous
 62
     7
100
AcDbLine
 10
354.743877
 20
227.039089
 30
0.0
 11
354.743877
 21
227.539089
 31
0.0
  0
LINE
  5
384
330
207
100
AcDbEntity
  8
3_ALL_AXES
  6
Continuous
 62
     7
100
AcDbLine
 10
354.743877
 20
227.539089
 30
0.0
 11
354.743877
 21
230.039089
 31
0.0
  0
LINE
  5
385
330
207
100
AcDbEntity
  8
3_ALL_AXES
  6
Continuous
 62
     7
100
AcDbLine
 10
354.743877
 20
230.039089
 30
0.0
 11
354.743877
 21
230.539089
 31
0.0
  0
LINE
  5
386
330
207
100
AcDbEntity
  8
3_ALL_AXES
  6
Continuous
 62
     7
100
AcDbLine
 10
354.743877
 20
230.739089
 30
0.0
 11
354.743877
 21
231.039089
 31
0.0
  0
LINE
  5
387
330
207
100
AcDbEntity
  8
3_ALL_AXES
  6
Continuous
 62
     7
100
AcDbLine
 10
354.743877
 20
231.039089
 30
0.0
 11
354.743877
 21
330.539089
 31
0.0
  0
LINE
  5
388
330
207
100
AcDbEntity
  8
3_ALL_AXES
  6
Continuous
 62
     7
100
AcDbLine
 10
354.743877
 20
330.539089
 30
0.0
 11
354.743877
 21
330.839089
 31
0.0
  0
LINE
  5
389
330
207
100
AcDbEntity
  8
3_ALL_AXES
  6
Continuous
 62
     7
100
AcDbLine
 10
354.743877
 20
330.839089
 30
0.0
 11
354.743877
 21
331.012294
 31
0.0
  0
LINE
  5
38A
330
207
100
AcDbEntity
  8
3_ALL_AXES
  6
Continuous
 62
     7
100
AcDbLine
 10
354.743877
 20
331.012294
 30
0.0
 11
354.743877
 21
331.039089
 31
0.0
  0
LINE
  5
38B
330
207
100
AcDbEntity
  8
3_ALL_AXES
  6
Continuous
 62
     7
100
AcDbLine
 10
354.743877
 20
331.039089
 30
0.0
 11
354.743877
 21
331.539089
 31
0.0
  0
LINE
  5
38C
330
207
100
AcDbEntity
  8
3_ALL_AXES
  6
Continuous
 62
     7
100
AcDbLine
 10
354.743877
 20
331.539089
 30
0.0
 11
354.743877
 21
334.039089
 31
0.0
  0
LINE
  5
38D
330
207
100
AcDbEntity
  8
3_ALL_AXES
  6
Continuous
 62
     7
100
AcDbLine
 10
354.743877
 20
334.039089
 30
0.0
 11
354.743877
 21
334.539089
 31
0.0
  0
LINE
  5
38E
330
207
100
AcDbEntity
  8
3_ALL_AXES
  6
Continuous
 62
     7
100
AcDbLine
 10
354.743877
 20
339.039089
 30
0.0
 11
354.743877
 21
339.539089
 31
0.0
  0
LINE
  5
38F
330
207
100
AcDbEntity
  8
3_ALL_AXES
  6
Continuous
 62
     7
100
AcDbLine
 10
354.743877
 20
339.539089
 30
0.0
 11
354.743877
 21
341.815076
 31
0.0
  0
LINE
  5
390
330
207
100
AcDbEntity
  8
3_ALL_AXES
  6
Continuous
 62
     7
100
AcDbLine
 10
354.743877
 20
341.815076
 30
0.0
 11
354.743877
 21
342.539089
 31
0.0
  0
LINE
  5
391
330
207
100
AcDbEntity
  8
3_ALL_AXES
  6
Continuous
 62
     7
100
AcDbLine
 10
354.743877
 20
342.739089
 30
0.0
 11
354.743877
 21
343.039089
 31
0.0
  0
LINE
  5
392
330
207
100
AcDbEntity
  8
3_ALL_AXES
  6
Continuous
 62
     7
100
AcDbLine
 10
354.743877
 20
343.039089
 30
0.0
 11
354.743877
 21
354.039089
 31
0.0
  0
LINE
  5
393
330
207
100
AcDbEntity
  8
3_ALL_AXES
  6
Continuous
 62
     7
100
AcDbLine
 10
354.743877
 20
354.039089
 30
0.0
 11
354.743877
 21
354.339089
 31
0.0
  0
LINE
  5
394
330
207
100
AcDbEntity
  8
3_ALL_AXES
  6
Continuous
 62
     7
100
AcDbLine
 10
354.743877
 20
354.339089
 30
0.0
 11
354.743877
 21
354.512294
 31
0.0
  0
LINE
  5
395
330
207
100
AcDbEntity
  8
3_ALL_AXES
  6
Continuous
 62
     7
100
AcDbLine
 10
354.743877
 20
354.512294
 30
0.0
 11
354.743877
 21
354.539089
 31
0.0
  0
LINE
  5
396
330
207
100
AcDbEntity
  8
3_ALL_AXES
  6
Continuous
 62
     7
100
AcDbLine
 10
354.743877
 20
354.539089
 30
0.0
 11
44.743877
 21
354.539089
 31
0.0
  0
LINE
  5
397
330
207
100
AcDbEntity
  8
3_ALL_AXES
  6
Continuous
 62
     7
100
AcDbLine
 10
354.743877
 20
342.539089
 30
0.0
 11
44.743877
 21
342.539089
 31
0.0
  0
LINE
  5
398
330
207
100
AcDbEntity
  8
3_ALL_AXES
  6
Continuous
 62
     7
100
AcDbLine
 10
354.743877
 20
339.039089
 30
0.0
 11
44.743877
 21
339.039089
 31
0.0
  0
LINE
  5
399
330
207
100
AcDbEntity
  8
3_ALL_AXES
  6
Continuous
 62
     7
100
AcDbLine
 10
354.743877
 20
334.539089
 30
0.0
 11
44.743877
 21
334.539089
 31
0.0
  0
LINE
  5
39A
330
207
100
AcDbEntity
  8
3_ALL_AXES
  6
Continuous
 62
     7
100
AcDbLine
 10
354.743877
 20
331.039089
 30
0.0
 11
44.743877
 21
331.039089
 31
0.0
  0
LINE
  5
39B
330
207
100
AcDbEntity
  8
3_ALL_AXES
  6
Continuous
 62
     7
100
AcDbLine
 10
354.743877
 20
230.539089
 30
0.0
 11
44.743877
 21
230.539089
 31
0.0
  0
LINE
  5
39C
330
207
100
AcDbEntity
  8
3_ALL_AXES
  6
Continuous
 62
     7
100
AcDbLine
 10
354.743877
 20
227.039089
 30
0.0
 11
44.743877
 21
227.039089
 31
0.0
  0
LINE
  5
39D
330
207
100
AcDbEntity
  8
3_ALL_AXES
  6
Continuous
 62
     7
100
AcDbLine
 10
44.743877
 20
354.339089
 30
0.0
 11
44.743877
 21
354.512294
 31
0.0
  0
LINE
  5
39E
330
207
100
AcDbEntity
  8
3_ALL_AXES
  6
Continuous
 62
     7
100
AcDbLine
 10
44.743877
 20
354.512294
 30
0.0
 11
44.743877
 21
354.539089
 31
0.0
  0
LINE
  5
39F
330
207
100
AcDbEntity
  8
3_ALL_AXES
  6
Continuous
 62
     7
100
AcDbLine
 10
44.743877
 20
342.739089
 30
0.0
 11
44.743877
 21
343.039089
 31
0.0
  0
LINE
  5
3A0
330
207
100
AcDbEntity
  8
3_ALL_AXES
  6
Continuous
 62
     7
100
AcDbLine
 10
44.743877
 20
343.039089
 30
0.0
 11
44.743877
 21
354.039089
 31
0.0
  0
LINE
  5
3A1
330
207
100
AcDbEntity
  8
3_ALL_AXES
  6
Continuous
 62
     7
100
AcDbLine
 10
44.743877
 20
354.039089
 30
0.0
 11
44.743877
 21
354.339089
 31
0.0
  0
LINE
  5
3A2
330
207
100
AcDbEntity
  8
3_ALL_AXES
  6
Continuous
 62
     7
100
AcDbLine
 10
44.743877
 20
341.815076
 30
0.0
 11
44.743877
 21
342.539089
 31
0.0
  0
LINE
  5
3A3
330
207
100
AcDbEntity
  8
3_ALL_AXES
  6
Continuous
 62
     7
100
AcDbLine
 10
44.743877
 20
339.539089
 30
0.0
 11
44.743877
 21
341.815076
 31
0.0
  0
LINE
  5
3A4
330
207
100
AcDbEntity
  8
3_ALL_AXES
  6
Continuous
 62
     7
100
AcDbLine
 10
44.743877
 20
339.039089
 30
0.0
 11
44.743877
 21
339.539089
 31
0.0
  0
LINE
  5
3A5
330
207
100
AcDbEntity
  8
3_ALL_AXES
  6
Continuous
 62
     7
100
AcDbLine
 10
354.743877
 20
222.539089
 30
0.0
 11
44.743877
 21
222.539089
 31
0.0
  0
LINE
  5
3A6
330
207
100
AcDbEntity
  8
3_ALL_AXES
  6
Continuous
 62
     7
100
AcDbLine
 10
44.743877
 20
334.039089
 30
0.0
 11
44.743877
 21
334.539089
 31
0.0
  0
LINE
  5
3A7
330
207
100
AcDbEntity
  8
3_ALL_AXES
  6
Continuous
 62
     7
100
AcDbLine
 10
44.743877
 20
331.539089
 30
0.0
 11
44.743877
 21
334.039089
 31
0.0
  0
LINE
  5
3A8
330
207
100
AcDbEntity
  8
3_ALL_AXES
  6
Continuous
 62
     7
100
AcDbLine
 10
44.743877
 20
331.039089
 30
0.0
 11
44.743877
 21
331.539089
 31
0.0
  0
LINE
  5
3A9
330
207
100
AcDbEntity
  8
3_ALL_AXES
  6
Continuous
 62
     7
100
AcDbLine
 10
354.743877
 20
219.039089
 30
0.0
 11
44.743877
 21
219.039089
 31
0.0
  0
LINE
  5
3AA
330
207
100
AcDbEntity
  8
3_ALL_AXES
  6
Continuous
 62
     7
100
AcDbLine
 10
44.743877
 20
330.839089
 30
0.0
 11
44.743877
 21
331.012294
 31
0.0
  0
LINE
  5
3AB
330
207
100
AcDbEntity
  8
3_ALL_AXES
  6
Continuous
 62
     7
100
AcDbLine
 10
44.743877
 20
331.012294
 30
0.0
 11
44.743877
 21
331.039089
 31
0.0
  0
LINE
  5
3AC
330
207
100
AcDbEntity
  8
3_ALL_AXES
  6
Continuous
 62
     7
100
AcDbLine
 10
44.743877
 20
230.739089
 30
0.0
 11
44.743877
 21
231.039089
 31
0.0
  0
LINE
  5
3AD
330
207
100
AcDbEntity
  8
3_ALL_AXES
  6
Continuous
 62
     7
100
AcDbLine
 10
44.743877
 20
231.039089
 30
0.0
 11
44.743877
 21
330.539089
 31
0.0
  0
LINE
  5
3AE
330
207
100
AcDbEntity
  8
3_ALL_AXES
  6
Continuous
 62
     7
100
AcDbLine
 10
44.743877
 20
330.539089
 30
0.0
 11
44.743877
 21
330.839089
 31
0.0
  0
LINE
  5
3AF
330
207
100
AcDbEntity
  8
3_ALL_AXES
  6
Continuous
 62
     7
100
AcDbLine
 10
44.743877
 20
230.039089
 30
0.0
 11
44.743877
 21
230.539089
 31
0.0
  0
LINE
  5
3B0
330
207
100
AcDbEntity
  8
3_ALL_AXES
  6
Continuous
 62
     7
100
AcDbLine
 10
44.743877
 20
227.539089
 30
0.0
 11
44.743877
 21
230.039089
 31
0.0
  0
LINE
  5
3B1
330
207
100
AcDbEntity
  8
3_ALL_AXES
  6
Continuous
 62
     7
100
AcDbLine
 10
44.743877
 20
227.039089
 30
0.0
 11
44.743877
 21
227.539089
 31
0.0
  0
LINE
  5
3B2
330
207
100
AcDbEntity
  8
3_ALL_AXES
  6
Continuous
 62
     7
100
AcDbLine
 10
354.743877
 20
204.539089
 30
0.0
 11
44.743877
 21
204.539089
 31
0.0
  0
LINE
  5
3B3
330
207
100
AcDbEntity
  8
3_ALL_AXES
  6
Continuous
 62
     7
100
AcDbLine
 10
44.743877
 20
222.039089
 30
0.0
 11
44.743877
 21
222.539089
 31
0.0
  0
LINE
  5
3B4
330
207
100
AcDbEntity
  8
3_ALL_AXES
  6
Continuous
 62
     7
100
AcDbLine
 10
44.743877
 20
219.539089
 30
0.0
 11
44.743877
 21
222.039089
 31
0.0
  0
LINE
  5
3B5
330
207
100
AcDbEntity
  8
3_ALL_AXES
  6
Continuous
 62
     7
100
AcDbLine
 10
44.743877
 20
219.039089
 30
0.0
 11
44.743877
 21
219.539089
 31
0.0
  0
LINE
  5
3B6
330
207
100
AcDbEntity
  8
3_ALL_AXES
  6
Continuous
 62
     7
100
AcDbLine
 10
44.743877
 20
218.839089
 30
0.0
 11
44.743877
 21
219.012294
 31
0.0
  0
LINE
  5
3B7
330
207
100
AcDbEntity
  8
3_ALL_AXES
  6
Continuous
 62
     7
100
AcDbLine
 10
44.743877
 20
219.012294
 30
0.0
 11
44.743877
 21
219.039089
 31
0.0
  0
LINE
  5
3B8
330
207
100
AcDbEntity
  8
3_ALL_AXES
  6
Continuous
 62
     7
100
AcDbLine
 10
44.743877
 20
205.539089
 30
0.0
 11
44.743877
 21
206.539089
 31
0.0
  0
LINE
  5
3B9
330
207
100
AcDbEntity
  8
3_ALL_AXES
  6
Continuous
 62
     7
100
AcDbLine
 10
44.743877
 20
206.539089
 30
0.0
 11
44.743877
 21
218.539089
 31
0.0
  0
LINE
  5
3BA
330
207
100
AcDbEntity
  8
3_ALL_AXES
  6
Continuous
 62
     7
100
AcDbLine
 10
44.743877
 20
218.539089
 30
0.0
 11
44.743877
 21
218.839089
 31
0.0
  0
LINE
  5
3BB
330
207
100
AcDbEntity
  8
3_ALL_AXES
  6
Continuous
 62
     7
100
AcDbLine
 10
44.743877
 20
204.539089
 30
0.0
 11
44.743877
 21
205.539089
 31
0.0
  0
LINE
  5
3BC
330
207
100
AcDbEntity
  8
3_ALL_AXES
  6
Continuous
 62
     9
100
AcDbLine
 10
354.743877
 20
334.039089
 30
0.0
 11
44.743877
 21
334.039089
 31
0.0
  0
LINE
  5
3BD
330
207
100
AcDbEntity
  8
3_ALL_AXES
  6
Continuous
 62
     9
100
AcDbLine
 10
354.743877
 20
354.339089
 30
0.0
 11
44.743877
 21
354.339089
 31
0.0
  0
LINE
  5
3BE
330
207
100
AcDbEntity
  8
3_ALL_AXES
  6
Continuous
 62
     9
100
AcDbLine
 10
354.743877
 20
342.739089
 30
0.0
 11
44.743877
 21
342.739089
 31
0.0
  0
LINE
  5
3BF
330
207
100
AcDbEntity
  8
3_ALL_AXES
  6
Continuous
 62
     9
100
AcDbLine
 10
354.743877
 20
331.539089
 30
0.0
 11
44.743877
 21
331.539089
 31
0.0
  0
LINE
  5
3C0
330
207
100
AcDbEntity
  8
3_ALL_AXES
  6
Continuous
 62
     9
100
AcDbLine
 10
354.743877
 20
341.815075
 30
0.0
 11
44.743877
 21
341.815075
 31
0.0
  0
LINE
  5
3C1
330
207
100
AcDbEntity
  8
3_ALL_AXES
  6
Continuous
 62
     9
100
AcDbLine
 10
354.743877
 20
218.839089
 30
0.0
 11
44.743877
 21
218.839089
 31
0.0
  0
LINE
  5
3C2
330
207
100
AcDbEntity
  8
3_ALL_AXES
  6
Continuous
 62
     9
100
AcDbLine
 10
354.743877
 20
205.539089
 30
0.0
 11
44.743877
 21
205.539089
 31
0.0
  0
LINE
  5
3C3
330
207
100
AcDbEntity
  8
3_ALL_AXES
  6
Continuous
 62
     9
100
AcDbLine
 10
354.743877
 20
339.539089
 30
0.0
 11
44.743877
 21
339.539089
 31
0.0
  0
LINE
  5
3C4
330
207
100
AcDbEntity
  8
3_ALL_AXES
  6
Continuous
 62
     9
100
AcDbLine
 10
354.743877
 20
330.839089
 30
0.0
 11
44.743877
 21
330.839089
 31
0.0
  0
LINE
  5
3C5
330
207
100
AcDbEntity
  8
3_ALL_AXES
  6
Continuous
 62
     9
100
AcDbLine
 10
354.743877
 20
230.739089
 30
0.0
 11
44.743877
 21
230.739089
 31
0.0
  0
LINE
  5
3C6
330
207
100
AcDbEntity
  8
3_ALL_AXES
  6
Continuous
 62
     9
100
AcDbLine
 10
354.743877
 20
230.039089
 30
0.0
 11
44.743877
 21
230.039089
 31
0.0
  0
LINE
  5
3C7
330
207
100
AcDbEntity
  8
3_ALL_AXES
  6
Continuous
 62
     9
100
AcDbLine
 10
354.743877
 20
227.539089
 30
0.0
 11
44.743877
 21
227.539089
 31
0.0
  0
LINE
  5
3C8
330
207
100
AcDbEntity
  8
3_ALL_AXES
  6
Continuous
 62
     9
100
AcDbLine
 10
354.743877
 20
222.039089
 30
0.0
 11
44.743877
 21
222.039089
 31
0.0
  0
LINE
  5
3C9
330
207
100
AcDbEntity
  8
3_ALL_AXES
  6
Continuous
 62
     9
100
AcDbLine
 10
354.743877
 20
219.539089
 30
0.0
 11
44.743877
 21
219.539089
 31
0.0
  0
LINE
  5
3CA
330
207
100
AcDbEntity
  8
3_ALL_AXES
  6
Continuous
 62
     3
100
AcDbLine
 10
44.743877
 20
206.539089
 30
0.0
 11
44.743877
 21
205.919084
 31
0.0
  0
LINE
  5
3CB
330
207
100
AcDbEntity
  8
3_ALL_AXES
  6
Continuous
 62
     3
100
AcDbLine
 10
44.743877
 20
218.731909
 30
0.0
 11
44.743877
 21
218.539089
 31
0.0
  0
LINE
  5
3CC
330
207
100
AcDbEntity
  8
3_ALL_AXES
  6
Continuous
 62
     3
100
AcDbLine
 10
44.743877
 20
231.039089
 30
0.0
 11
44.743877
 21
230.577772
 31
0.0
  0
LINE
  5
3CD
330
207
100
AcDbEntity
  8
3_ALL_AXES
  6
Continuous
 62
     3
100
AcDbLine
 10
44.743877
 20
330.731909
 30
0.0
 11
44.743877
 21
330.539089
 31
0.0
  0
LINE
  5
3CE
330
207
100
AcDbEntity
  8
3_ALL_AXES
  6
Continuous
 62
     3
100
AcDbLine
 10
44.743877
 20
343.039089
 30
0.0
 11
44.743877
 21
342.577772
 31
0.0
  0
LINE
  5
3CF
330
207
100
AcDbEntity
  8
3_ALL_AXES
  6
Continuous
 62
     3
100
AcDbLine
 10
44.743877
 20
354.231909
 30
0.0
 11
44.743877
 21
354.039089
 31
0.0
  0
SPLINE
  5
3D0
330
207
100
AcDbEntity
  8
7_ALL_FEATURES
  6
Continuous
 62
     3
100
AcDbSpline
 70
     0
 71
     3
 72
    15
 73
    11
 74
     0
 42
0.000000001
 43
0.0000001
 40
0.0
 40
0.0
 40
0.0
 40
0.0
 40
0.0890107825
 40
0.2016004889
 40
0.3384119563
 40
0.4997765543
 40
0.6613653617
 40
0.798430256
 40
0.9109795576
 40
1.0
 40
1.0
 40
1.0
 40
1.0
 10
44.8963329491
 20
223.484014363
 30
0.0
 10
44.8588993913
 20
223.5529950639
 30
0.0
 10
44.8048757355
 20
223.7250805482
 30
0.0
 10
44.7664487917
 20
224.0211495819
 30
0.0
 10
44.75076486
 20
224.3833347419
 30
0.0
 10
44.7477806421
 20
224.7886893185
 30
0.0
 10
44.7507615433
 20
225.1942658956
 30
0.0
 10
44.7664083798
 20
225.5568409923
 30
0.0
 10
44.8048888018
 20
225.8531008639
 30
0.0
 10
44.858893805
 20
226.0251617794
 30
0.0
 10
44.8963258143
 20
226.094153011
 30
0.0
  0
SPLINE
  5
3D1
330
207
100
AcDbEntity
  8
7_ALL_FEATURES
  6
Continuous
 62
     3
100
AcDbSpline
 70
     0
 71
     3
 72
    15
 73
    11
 74
     0
 42
0.000000001
 43
0.0000001
 40
0.0
 40
0.0
 40
0.0
 40
0.0
 40
0.0890107832
 40
0.2016004905
 40
0.3384119587
 40
0.4997765599
 40
0.661365368
 40
0.7984302585
 40
0.9109795584
 40
1.0
 40
1.0
 40
1.0
 40
1.0
 10
44.8963329491
 20
335.4840143631
 30
0.0
 10
44.858899391
 20
335.5529950644
 30
0.0
 10
44.804875735
 20
335.7250805502
 30
0.0
 10
44.7664487914
 20
336.0211495862
 30
0.0
 10
44.7507648597
 20
336.3833347506
 30
0.0
 10
44.7477806422
 20
336.7886893314
 30
0.0
 10
44.7507615434
 20
337.1942659085
 30
0.0
 10
44.7664083808
 20
337.5568410008
 30
0.0
 10
44.8048888025
 20
337.8531008668
 30
0.0
 10
44.8588938053
 20
338.0251617801
 30
0.0
 10
44.8963258144
 20
338.094153011
 30
0.0
  0
LINE
  5
3D2
330
207
100
AcDbEntity
  8
3_ALL_AXES
  6
Continuous
 62
     3
100
AcDbLine
 10
44.743877
 20
343.039089
 30
0.0
 11
44.743877
 21
354.039089
 31
0.0
  0
LINE
  5
3D3
330
207
100
AcDbEntity
  8
3_ALL_AXES
  6
Continuous
 62
     3
100
AcDbLine
 10
44.743877
 20
231.039089
 30
0.0
 11
44.743877
 21
330.539089
 31
0.0
  0
LINE
  5
3D4
330
207
100
AcDbEntity
  8
3_ALL_AXES
  6
Continuous
 62
     3
100
AcDbLine
 10
44.743877
 20
206.539089
 30
0.0
 11
44.743877
 21
218.539089
 31
0.0
  0
LINE
  5
3D5
330
207
100
AcDbEntity
  8
3_ALL_AXES
  6
Continuous
 62
     3
100
AcDbLine
 10
354.743877
 20
342.846268
 30
0.0
 11
354.743877
 21
343.039089
 31
0.0
  0
LINE
  5
3D6
330
207
100
AcDbEntity
  8
3_ALL_AXES
  6
Continuous
 62
     3
100
AcDbLine
 10
354.743877
 20
330.539089
 30
0.0
 11
354.743877
 21
331.000406
 31
0.0
  0
LINE
  5
3D7
330
207
100
AcDbEntity
  8
3_ALL_AXES
  6
Continuous
 62
     3
100
AcDbLine
 10
354.743877
 20
230.846268
 30
0.0
 11
354.743877
 21
231.039089
 31
0.0
  0
LINE
  5
3D8
330
207
100
AcDbEntity
  8
3_ALL_AXES
  6
Continuous
 62
     3
100
AcDbLine
 10
354.743877
 20
218.539089
 30
0.0
 11
354.743877
 21
219.000406
 31
0.0
  0
LINE
  5
3D9
330
207
100
AcDbEntity
  8
3_ALL_AXES
  6
Continuous
 62
     3
100
AcDbLine
 10
354.743877
 20
205.919158
 30
0.0
 11
354.743877
 21
206.539089
 31
0.0
  0
LINE
  5
3DA
330
207
100
AcDbEntity
  8
3_ALL_AXES
  6
Continuous
 62
     3
100
AcDbLine
 10
354.743877
 20
354.039089
 30
0.0
 11
354.743877
 21
354.500406
 31
0.0
  0
SPLINE
  5
3DB
330
207
100
AcDbEntity
  8
7_ALL_FEATURES
  6
Continuous
 62
     3
100
AcDbSpline
 70
     0
 71
     3
 72
    15
 73
    11
 74
     0
 42
0.000000001
 43
0.0000001
 40
0.0
 40
0.0
 40
0.0
 40
0.0
 40
0.0890107832
 40
0.2016004905
 40
0.3384119587
 40
0.4997765599
 40
0.661365368
 40
0.7984302585
 40
0.9109795584
 40
1.0
 40
1.0
 40
1.0
 40
1.0
 10
354.5914204293
 20
226.0941632292
 30
0.0
 10
354.6288539874
 20
226.0251825278
 30
0.0
 10
354.6828776434
 20
225.853097042
 30
0.0
 10
354.721304587
 20
225.557028006
 30
0.0
 10
354.7369885187
 20
225.1948428416
 30
0.0
 10
354.7399727362
 20
224.7894882608
 30
0.0
 10
354.736991835
 20
224.3839116837
 30
0.0
 10
354.7213449976
 20
224.0213365914
 30
0.0
 10
354.6828645759
 20
223.7250767255
 30
0.0
 10
354.6288595731
 20
223.5530158122
 30
0.0
 10
354.591427564
 20
223.4840245812
 30
0.0
  0
SPLINE
  5
3DC
330
207
100
AcDbEntity
  8
7_ALL_FEATURES
  6
Continuous
 62
     3
100
AcDbSpline
 70
     0
 71
     3
 72
    15
 73
    11
 74
     0
 42
0.000000001
 43
0.0000001
 40
0.0
 40
0.0
 40
0.0
 40
0.0
 40
0.0890107832
 40
0.2016004905
 40
0.3384119588
 40
0.49977656
 40
0.6613653681
 40
0.7984302585
 40
0.9109795584
 40
1.0
 40
1.0
 40
1.0
 40
1.0
 10
354.5914204293
 20
338.0941632291
 30
0.0
 10
354.6288539874
 20
338.0251825278
 30
0.0
 10
354.6828776434
 20
337.853097042
 30
0.0
 10
354.721304587
 20
337.557028006
 30
0.0
 10
354.7369885187
 20
337.1948428415
 30
0.0
 10
354.7399727362
 20
336.7894882607
 30
0.0
 10
354.736991835
 20
336.3839116836
 30
0.0
 10
354.7213449976
 20
336.0213365913
 30
0.0
 10
354.6828645759
 20
335.7250767254
 30
0.0
 10
354.6288595731
 20
335.5530158121
 30
0.0
 10
354.591427564
 20
335.4840245812
 30
0.0
  0
LINE
  5
3DD
330
207
100
AcDbEntity
  8
3_ALL_AXES
  6
Continuous
 62
     3
100
AcDbLine
 10
354.743877
 20
218.539089
 30
0.0
 11
354.743877
 21
206.539089
 31
0.0
  0
LINE
  5
3DE
330
207
100
AcDbEntity
  8
3_ALL_AXES
  6
Continuous
 62
     3
100
AcDbLine
 10
354.743877
 20
330.539089
 30
0.0
 11
354.743877
 21
231.039089
 31
0.0
  0
LINE
  5
3DF
330
207
100
AcDbEntity
  8
3_ALL_AXES
  6
Continuous
 62
     3
100
AcDbLine
 10
354.743877
 20
354.039089
 30
0.0
 11
354.743877
 21
343.039089
 31
0.0
  0
LINE
  5
3E0
330
207
100
AcDbEntity
  8
3_ALL_AXES
  6
Continuous
 62
     7
100
AcDbLine
 10
512.227073
 20
335.689089
 30
0.0
 11
511.786675
 21
335.689089
 31
0.0
  0
LINE
  5
3E1
330
207
100
AcDbEntity
  8
3_ALL_AXES
  6
Continuous
 62
     7
100
AcDbLine
 10
515.111817
 20
338.939089
 30
0.0
 11
515.111817
 21
334.639089
 31
0.0
  0
LINE
  5
3E2
330
207
100
AcDbEntity
  8
3_ALL_AXES
  6
Continuous
 62
     7
100
AcDbLine
 10
512.227019
 20
337.889089
 30
0.0
 11
511.786735
 21
337.889089
 31
0.0
  0
LINE
  5
3E3
330
207
100
AcDbEntity
  8
3_ALL_AXES
  6
Continuous
 62
     7
100
AcDbLine
 10
515.111817
 20
338.939089
 30
0.0
 11
515.063158
 21
338.939089
 31
0.0
  0
LINE
  5
3E4
330
207
100
AcDbEntity
  8
3_ALL_AXES
  6
Continuous
 62
     7
100
AcDbLine
 10
515.111817
 20
334.639089
 30
0.0
 11
515.063158
 21
334.639089
 31
0.0
  0
LINE
  5
3E5
330
207
100
AcDbEntity
  8
3_ALL_AXES
  6
Continuous
 62
     7
100
AcDbLine
 10
515.063158
 20
334.639089
 30
0.0
 11
513.811817
 21
335.689089
 31
0.0
  0
LINE
  5
3E6
330
207
100
AcDbEntity
  8
3_ALL_AXES
  6
Continuous
 62
     7
100
AcDbLine
 10
515.063158
 20
338.939089
 30
0.0
 11
513.811817
 21
337.889089
 31
0.0
  0
LINE
  5
3E7
330
207
100
AcDbEntity
  8
3_ALL_AXES
  6
Continuous
 62
     7
100
AcDbLine
 10
515.063158
 20
338.939089
 30
0.0
 11
515.063158
 21
334.639089
 31
0.0
  0
LINE
  5
3E8
330
207
100
AcDbEntity
  8
3_ALL_AXES
  6
Continuous
 62
     7
100
AcDbLine
 10
455.396561
 20
337.889089
 30
0.0
 11
455.836959
 21
337.889089
 31
0.0
  0
LINE
  5
3E9
330
207
100
AcDbEntity
  8
3_ALL_AXES
  6
Continuous
 62
     7
100
AcDbLine
 10
452.511817
 20
334.639089
 30
0.0
 11
452.511817
 21
338.939089
 31
0.0
  0
LINE
  5
3EA
330
207
100
AcDbEntity
  8
3_ALL_AXES
  6
Continuous
 62
     7
100
AcDbLine
 10
455.396615
 20
335.689089
 30
0.0
 11
455.836899
 21
335.689089
 31
0.0
  0
LINE
  5
3EB
330
207
100
AcDbEntity
  8
3_ALL_AXES
  6
Continuous
 62
     7
100
AcDbLine
 10
452.511817
 20
334.639089
 30
0.0
 11
452.560476
 21
334.639089
 31
0.0
  0
LINE
  5
3EC
330
207
100
AcDbEntity
  8
3_ALL_AXES
  6
Continuous
 62
     7
100
AcDbLine
 10
452.511817
 20
338.939089
 30
0.0
 11
452.560476
 21
338.939089
 31
0.0
  0
LINE
  5
3ED
330
207
100
AcDbEntity
  8
3_ALL_AXES
  6
Continuous
 62
     7
100
AcDbLine
 10
452.560476
 20
338.939089
 30
0.0
 11
453.811817
 21
337.889089
 31
0.0
  0
LINE
  5
3EE
330
207
100
AcDbEntity
  8
3_ALL_AXES
  6
Continuous
 62
     7
100
AcDbLine
 10
452.560476
 20
334.639089
 30
0.0
 11
453.811817
 21
335.689089
 31
0.0
  0
LINE
  5
3EF
330
207
100
AcDbEntity
  8
3_ALL_AXES
  6
Continuous
 62
     7
100
AcDbLine
 10
452.560476
 20
334.639089
 30
0.0
 11
452.560476
 21
338.939089
 31
0.0
  0
ARC
  5
3F0
330
207
100
AcDbEntity
  8
3_ALL_AXES
  6
Continuous
 62
     7
100
AcDbCircle
 10
496.311817
 20
333.789089
 30
0.0
 40
2.9
100
AcDbArc
 50
180.0
 51
360.0
  0
ARC
  5
3F1
330
207
100
AcDbEntity
  8
3_ALL_AXES
  6
Continuous
 62
     7
100
AcDbCircle
 10
496.311817
 20
333.789089
 30
0.0
 40
2.9
100
AcDbArc
 50
0.0
 51
180.0
  0
ARC
  5
3F2
330
207
100
AcDbEntity
  8
3_ALL_AXES
  6
Continuous
 62
     7
100
AcDbCircle
 10
471.311817
 20
333.789089
 30
0.0
 40
2.9
100
AcDbArc
 50
180.0
 51
360.0
  0
ARC
  5
3F3
330
207
100
AcDbEntity
  8
3_ALL_AXES
  6
Continuous
 62
     7
100
AcDbCircle
 10
471.311817
 20
333.789089
 30
0.0
 40
2.9
100
AcDbArc
 50
0.0
 51
180.0
  0
SPLINE
  5
3F4
330
207
100
AcDbEntity
  8
7_ALL_FEATURES
  6
Continuous
 62
     7
100
AcDbSpline
 70
     0
 71
     3
 72
    19
 73
    15
 74
     0
 42
0.000000001
 43
0.0000001
 40
0.0
 40
0.0
 40
0.0
 40
0.0
 40
0.1068368076
 40
0.2311794724
 40
0.2972245578
 40
0.3644456546
 40
0.4322330359
 40
0.4999965791
 40
0.5677552722
 40
0.6355474043
 40
0.7027703164
 40
0.7688165891
 40
0.8931624808
 40
1.0
 40
1.0
 40
1.0
 40
1.0
 10
454.6904967254
 20
226.2890887961
 30
0.0
 10
454.8759852333
 20
226.2890887961
 30
0.0
 10
455.2765117635
 20
226.2071645247
 30
0.0
 10
455.7463816797
 20
225.9823250512
 30
0.0
 10
456.1043855842
 20
225.7112949704
 30
0.0
 10
456.3425655193
 20
225.4531435681
 30
0.0
 10
456.5194322002
 20
225.1436545097
 30
0.0
 10
456.5880318176
 20
224.7891187556
 30
0.0
 10
456.5193754311
 20
224.4346004841
 30
0.0
 10
456.3425866105
 20
224.1250712206
 30
0.0
 10
456.1044264879
 20
223.866873483
 30
0.0
 10
455.7463918858
 20
223.5958647769
 30
0.0
 10
455.2765211001
 20
223.3710149922
 30
0.0
 10
454.8759864687
 20
223.2890887961
 30
0.0
 10
454.6904967254
 20
223.2890887961
 30
0.0
  0
LINE
  5
3F5
330
207
100
AcDbEntity
  8
7_ALL_FEATURES
  6
Continuous
 62
     7
100
AcDbLine
 10
453.811817
 20
222.339089
 30
0.0
 11
453.811817
 21
227.239089
 31
0.0
  0
LINE
  5
3F6
330
207
100
AcDbEntity
  8
7_ALL_FEATURES
  6
Continuous
 62
     7
100
AcDbLine
 10
453.811817
 20
221.289089
 30
0.0
 11
453.91404
 21
221.289089
 31
0.0
  0
LINE
  5
3F7
330
207
100
AcDbEntity
  8
7_ALL_FEATURES
  6
Continuous
 62
     7
100
AcDbLine
 10
453.91404
 20
221.289089
 30
0.0
 11
454.213741
 21
221.289089
 31
0.0
  0
LINE
  5
3F8
330
207
100
AcDbEntity
  8
7_ALL_FEATURES
  6
Continuous
 62
     7
100
AcDbLine
 10
454.213741
 20
221.289089
 30
0.0
 11
455.311817
 21
221.289089
 31
0.0
  0
LINE
  5
3F9
330
207
100
AcDbEntity
  8
7_ALL_FEATURES
  6
Continuous
 62
     7
100
AcDbLine
 10
455.311817
 20
221.289089
 30
0.0
 11
456.811817
 21
221.289089
 31
0.0
  0
LINE
  5
3FA
330
207
100
AcDbEntity
  8
7_ALL_FEATURES
  6
Continuous
 62
     7
100
AcDbLine
 10
456.811817
 20
228.289089
 30
0.0
 11
455.311817
 21
228.289089
 31
0.0
  0
LINE
  5
3FB
330
207
100
AcDbEntity
  8
7_ALL_FEATURES
  6
Continuous
 62
     7
100
AcDbLine
 10
455.311817
 20
228.289089
 30
0.0
 11
454.213741
 21
228.289089
 31
0.0
  0
LINE
  5
3FC
330
207
100
AcDbEntity
  8
7_ALL_FEATURES
  6
Continuous
 62
     7
100
AcDbLine
 10
454.213741
 20
228.289089
 30
0.0
 11
453.811817
 21
228.289089
 31
0.0
  0
SPLINE
  5
3FD
330
207
100
AcDbEntity
  8
7_ALL_FEATURES
  6
Continuous
 62
     7
100
AcDbSpline
 70
     0
 71
     3
 72
    19
 73
    15
 74
     0
 42
0.000000001
 43
0.0000001
 40
0.0
 40
0.0
 40
0.0
 40
0.0
 40
0.1068368076
 40
0.2311794724
 40
0.2972245578
 40
0.3644456546
 40
0.4322330359
 40
0.4999965791
 40
0.5677552722
 40
0.6355474043
 40
0.7027703164
 40
0.7688165891
 40
0.8931624808
 40
1.0
 40
1.0
 40
1.0
 40
1.0
 10
512.9331374125
 20
223.2890887961
 30
0.0
 10
512.7476489046
 20
223.2890887961
 30
0.0
 10
512.3471223744
 20
223.3710130675
 30
0.0
 10
511.8772524581
 20
223.595852541
 30
0.0
 10
511.5192485537
 20
223.8668826219
 30
0.0
 10
511.2810686186
 20
224.1250340242
 30
0.0
 10
511.1042019379
 20
224.4345230827
 30
0.0
 10
511.0356023196
 20
224.7890588365
 30
0.0
 10
511.1042587065
 20
225.143577108
 30
0.0
 10
511.2810475278
 20
225.453106371
 30
0.0
 10
511.5192076499
 20
225.7113041092
 30
0.0
 10
511.8772422521
 20
225.9823128153
 30
0.0
 10
512.3471130377
 20
226.2071626002
 30
0.0
 10
512.7476476692
 20
226.2890887961
 30
0.0
 10
512.9331374125
 20
226.2890887961
 30
0.0
  0
LINE
  5
3FE
330
207
100
AcDbEntity
  8
7_ALL_FEATURES
  6
Continuous
 62
     7
100
AcDbLine
 10
513.811817
 20
227.239089
 30
0.0
 11
513.811817
 21
222.339089
 31
0.0
  0
LINE
  5
3FF
330
207
100
AcDbEntity
  8
7_ALL_FEATURES
  6
Continuous
 62
     7
100
AcDbLine
 10
513.811817
 20
228.289089
 30
0.0
 11
513.709595
 21
228.289089
 31
0.0
  0
LINE
  5
400
330
207
100
AcDbEntity
  8
7_ALL_FEATURES
  6
Continuous
 62
     7
100
AcDbLine
 10
513.709595
 20
228.289089
 30
0.0
 11
513.409893
 21
228.289089
 31
0.0
  0
LINE
  5
401
330
207
100
AcDbEntity
  8
7_ALL_FEATURES
  6
Continuous
 62
     7
100
AcDbLine
 10
513.409893
 20
228.289089
 30
0.0
 11
512.311817
 21
228.289089
 31
0.0
  0
LINE
  5
402
330
207
100
AcDbEntity
  8
7_ALL_FEATURES
  6
Continuous
 62
     7
100
AcDbLine
 10
512.311817
 20
228.289089
 30
0.0
 11
510.811817
 21
228.289089
 31
0.0
  0
LINE
  5
403
330
207
100
AcDbEntity
  8
7_ALL_FEATURES
  6
Continuous
 62
     7
100
AcDbLine
 10
510.811817
 20
221.289089
 30
0.0
 11
512.311817
 21
221.289089
 31
0.0
  0
LINE
  5
404
330
207
100
AcDbEntity
  8
7_ALL_FEATURES
  6
Continuous
 62
     7
100
AcDbLine
 10
512.311817
 20
221.289089
 30
0.0
 11
513.409893
 21
221.289089
 31
0.0
  0
LINE
  5
405
330
207
100
AcDbEntity
  8
7_ALL_FEATURES
  6
Continuous
 62
     7
100
AcDbLine
 10
513.409893
 20
221.289089
 30
0.0
 11
513.811817
 21
221.289089
 31
0.0
  0
SPLINE
  5
406
330
207
100
AcDbEntity
  8
7_ALL_FEATURES
  6
Continuous
 62
     7
100
AcDbSpline
 70
     0
 71
     3
 72
    19
 73
    15
 74
     0
 42
0.000000001
 43
0.0000001
 40
0.0
 40
0.0
 40
0.0
 40
0.0
 40
0.1068368076
 40
0.2311794724
 40
0.2972245578
 40
0.3644456546
 40
0.4322330359
 40
0.4999965791
 40
0.5677552722
 40
0.6355474043
 40
0.7027703164
 40
0.7688165891
 40
0.8931624808
 40
1.0
 40
1.0
 40
1.0
 40
1.0
 10
512.9331374125
 20
335.2890887961
 30
0.0
 10
512.7476489046
 20
335.2890887961
 30
0.0
 10
512.3471223744
 20
335.3710130675
 30
0.0
 10
511.8772524582
 20
335.5958525411
 30
0.0
 10
511.5192485537
 20
335.8668826219
 30
0.0
 10
511.2810686186
 20
336.1250340242
 30
0.0
 10
511.1042019377
 20
336.4345230826
 30
0.0
 10
511.0356023203
 20
336.7890588366
 30
0.0
 10
511.1042587068
 20
337.1435771081
 30
0.0
 10
511.2810475273
 20
337.4531063716
 30
0.0
 10
511.51920765
 20
337.7113041092
 30
0.0
 10
511.8772422521
 20
337.9823128153
 30
0.0
 10
512.3471130378
 20
338.2071626
 30
0.0
 10
512.7476476691
 20
338.2890887961
 30
0.0
 10
512.9331374125
 20
338.2890887961
 30
0.0
  0
LINE
  5
407
330
207
100
AcDbEntity
  8
7_ALL_FEATURES
  6
Continuous
 62
     7
100
AcDbLine
 10
513.811817
 20
339.239089
 30
0.0
 11
513.811817
 21
334.339089
 31
0.0
  0
LINE
  5
408
330
207
100
AcDbEntity
  8
7_ALL_FEATURES
  6
Continuous
 62
     7
100
AcDbLine
 10
513.811817
 20
340.289089
 30
0.0
 11
513.709595
 21
340.289089
 31
0.0
  0
LINE
  5
409
330
207
100
AcDbEntity
  8
7_ALL_FEATURES
  6
Continuous
 62
     7
100
AcDbLine
 10
513.709595
 20
340.289089
 30
0.0
 11
513.409893
 21
340.289089
 31
0.0
  0
LINE
  5
40A
330
207
100
AcDbEntity
  8
7_ALL_FEATURES
  6
Continuous
 62
     7
100
AcDbLine
 10
513.409893
 20
340.289089
 30
0.0
 11
512.311817
 21
340.289089
 31
0.0
  0
LINE
  5
40B
330
207
100
AcDbEntity
  8
7_ALL_FEATURES
  6
Continuous
 62
     7
100
AcDbLine
 10
512.311817
 20
340.289089
 30
0.0
 11
510.811817
 21
340.289089
 31
0.0
  0
LINE
  5
40C
330
207
100
AcDbEntity
  8
7_ALL_FEATURES
  6
Continuous
 62
     7
100
AcDbLine
 10
510.811817
 20
333.289089
 30
0.0
 11
512.311817
 21
333.289089
 31
0.0
  0
LINE
  5
40D
330
207
100
AcDbEntity
  8
7_ALL_FEATURES
  6
Continuous
 62
     7
100
AcDbLine
 10
512.311817
 20
333.289089
 30
0.0
 11
513.409893
 21
333.289089
 31
0.0
  0
LINE
  5
40E
330
207
100
AcDbEntity
  8
7_ALL_FEATURES
  6
Continuous
 62
     7
100
AcDbLine
 10
513.409893
 20
333.289089
 30
0.0
 11
513.811817
 21
333.289089
 31
0.0
  0
SPLINE
  5
40F
330
207
100
AcDbEntity
  8
7_ALL_FEATURES
  6
Continuous
 62
     7
100
AcDbSpline
 70
     0
 71
     3
 72
    19
 73
    15
 74
     0
 42
0.000000001
 43
0.0000001
 40
0.0
 40
0.0
 40
0.0
 40
0.0
 40
0.1068368076
 40
0.2311794724
 40
0.2972245578
 40
0.3644456546
 40
0.4322330359
 40
0.4999965791
 40
0.5677552722
 40
0.6355474043
 40
0.7027703164
 40
0.7688165891
 40
0.8931624808
 40
1.0
 40
1.0
 40
1.0
 40
1.0
 10
454.6904967254
 20
338.2890887961
 30
0.0
 10
454.8759852333
 20
338.2890887961
 30
0.0
 10
455.2765117635
 20
338.2071645247
 30
0.0
 10
455.7463816797
 20
337.9823250512
 30
0.0
 10
456.1043855842
 20
337.7112949704
 30
0.0
 10
456.3425655193
 20
337.4531435681
 30
0.0
 10
456.5194322002
 20
337.1436545097
 30
0.0
 10
456.5880318175
 20
336.7891187556
 30
0.0
 10
456.5193754311
 20
336.4346004841
 30
0.0
 10
456.3425866105
 20
336.1250712206
 30
0.0
 10
456.1044264879
 20
335.866873483
 30
0.0
 10
455.7463918858
 20
335.5958647769
 30
0.0
 10
455.2765211001
 20
335.3710149922
 30
0.0
 10
454.8759864687
 20
335.2890887961
 30
0.0
 10
454.6904967254
 20
335.2890887961
 30
0.0
  0
LINE
  5
410
330
207
100
AcDbEntity
  8
7_ALL_FEATURES
  6
Continuous
 62
     7
100
AcDbLine
 10
453.811817
 20
334.339089
 30
0.0
 11
453.811817
 21
339.239089
 31
0.0
  0
LINE
  5
411
330
207
100
AcDbEntity
  8
7_ALL_FEATURES
  6
Continuous
 62
     7
100
AcDbLine
 10
453.811817
 20
333.289089
 30
0.0
 11
453.91404
 21
333.289089
 31
0.0
  0
LINE
  5
412
330
207
100
AcDbEntity
  8
7_ALL_FEATURES
  6
Continuous
 62
     7
100
AcDbLine
 10
453.91404
 20
333.289089
 30
0.0
 11
454.213741
 21
333.289089
 31
0.0
  0
LINE
  5
413
330
207
100
AcDbEntity
  8
7_ALL_FEATURES
  6
Continuous
 62
     7
100
AcDbLine
 10
454.213741
 20
333.289089
 30
0.0
 11
455.311817
 21
333.289089
 31
0.0
  0
LINE
  5
414
330
207
100
AcDbEntity
  8
7_ALL_FEATURES
  6
Continuous
 62
     7
100
AcDbLine
 10
455.311817
 20
333.289089
 30
0.0
 11
456.811817
 21
333.289089
 31
0.0
  0
LINE
  5
415
330
207
100
AcDbEntity
  8
7_ALL_FEATURES
  6
Continuous
 62
     7
100
AcDbLine
 10
456.811817
 20
340.289089
 30
0.0
 11
455.311817
 21
340.289089
 31
0.0
  0
LINE
  5
416
330
207
100
AcDbEntity
  8
7_ALL_FEATURES
  6
Continuous
 62
     7
100
AcDbLine
 10
455.311817
 20
340.289089
 30
0.0
 11
454.213741
 21
340.289089
 31
0.0
  0
LINE
  5
417
330
207
100
AcDbEntity
  8
7_ALL_FEATURES
  6
Continuous
 62
     7
100
AcDbLine
 10
454.213741
 20
340.289089
 30
0.0
 11
453.811817
 21
340.289089
 31
0.0
  0
ARC
  5
418
330
207
100
AcDbEntity
  8
3_ALL_AXES
  6
Continuous
 62
     7
100
AcDbCircle
 10
471.083895
 20
225.539089
 30
0.0
 40
0.25
100
AcDbArc
 50
270.0
 51
356.627713
  0
ARC
  5
419
330
207
100
AcDbEntity
  8
3_ALL_AXES
  6
Continuous
 62
     7
100
AcDbCircle
 10
470.583061
 20
225.539089
 30
0.0
 40
0.25
100
AcDbArc
 50
176.755108
 51
270.0
  0
ARC
  5
41A
330
207
100
AcDbEntity
  8
3_ALL_AXES
  6
Continuous
 62
     7
100
AcDbCircle
 10
483.811817
 20
224.789089
 30
0.0
 40
13.5
100
AcDbArc
 50
3.244892
 51
176.755108
  0
ARC
  5
41B
330
207
100
AcDbEntity
  8
3_ALL_AXES
  6
Continuous
 62
     7
100
AcDbCircle
 10
497.040574
 20
225.539089
 30
0.0
 40
0.25
100
AcDbArc
 50
270.0
 51
3.244892
  0
ARC
  5
41C
330
207
100
AcDbEntity
  8
3_ALL_AXES
  6
Continuous
 62
     7
100
AcDbCircle
 10
496.539739
 20
225.539089
 30
0.0
 40
0.25
100
AcDbArc
 50
183.372287
 51
270.0
  0
ARC
  5
41D
330
207
100
AcDbEntity
  8
3_ALL_AXES
  6
Continuous
 62
     7
100
AcDbCircle
 10
483.811817
 20
224.789089
 30
0.0
 40
12.5
100
AcDbArc
 50
3.372287
 51
176.627713
  0
SPLINE
  5
41E
330
207
100
AcDbEntity
  8
3_ALL_AXES
  6
Continuous
 62
     7
100
AcDbSpline
 70
     0
 71
     3
 72
    10
 73
     6
 74
     0
 42
0.000000001
 43
0.0000001
 40
0.0
 40
0.0
 40
0.0
 40
0.0
 40
0.2537340801
 40
0.4984388445
 40
1.0
 40
1.0
 40
1.0
 40
1.0
 10
484.3118170689
 20
211.5603322408
 30
0.0
 10
484.3118170689
 20
211.5273220226
 30
0.0
 10
484.3243601796
 20
211.4612017608
 30
0.0
 10
484.3997412707
 20
211.3532275659
 30
0.0
 10
484.500752818
 20
211.3055397439
 30
0.0
 10
484.5659001496
 20
211.3092332504
 30
0.0
  0
ARC
  5
41F
330
207
100
AcDbEntity
  8
3_ALL_AXES
  6
Continuous
 62
     7
100
AcDbCircle
 10
484.561817
 20
212.061167
 30
0.0
 40
0.25
100
AcDbArc
 50
93.372287
 51
180.0
  0
ARC
  5
420
330
207
100
AcDbEntity
  8
3_ALL_AXES
  6
Continuous
 62
     7
100
AcDbCircle
 10
483.811817
 20
224.789089
 30
0.0
 40
12.5
100
AcDbArc
 50
273.372287
 51
356.627713
  0
ARC
  5
421
330
207
100
AcDbEntity
  8
3_ALL_AXES
  6
Continuous
 62
     7
100
AcDbCircle
 10
496.539739
 20
224.039089
 30
0.0
 40
0.25
100
AcDbArc
 50
90.0
 51
176.627713
  0
ARC
  5
422
330
207
100
AcDbEntity
  8
3_ALL_AXES
  6
Continuous
 62
     7
100
AcDbCircle
 10
497.040574
 20
224.039089
 30
0.0
 40
0.25
100
AcDbArc
 50
356.755108
 51
90.0
  0
ARC
  5
423
330
207
100
AcDbEntity
  8
3_ALL_AXES
  6
Continuous
 62
     7
100
AcDbCircle
 10
483.811817
 20
224.789089
 30
0.0
 40
13.5
100
AcDbArc
 50
273.201874
 51
356.755108
  0
ARC
  5
424
330
207
100
AcDbEntity
  8
3_ALL_AXES
  6
Continuous
 62
     7
100
AcDbCircle
 10
470.583061
 20
224.039089
 30
0.0
 40
0.25
100
AcDbArc
 50
90.0
 51
183.244892
  0
LINE
  5
425
330
207
100
AcDbEntity
  8
3_ALL_AXES
  6
Continuous
 62
     7
100
AcDbLine
 10
471.083895
 20
224.289089
 30
0.0
 11
470.583061
 21
224.289089
 31
0.0
  0
ARC
  5
426
330
207
100
AcDbEntity
  8
3_ALL_AXES
  6
Continuous
 62
     7
100
AcDbCircle
 10
471.083895
 20
224.039089
 30
0.0
 40
0.25
100
AcDbArc
 50
3.372287
 51
90.0
  0
ARC
  5
427
330
207
100
AcDbEntity
  8
3_ALL_AXES
  6
Continuous
 62
     7
100
AcDbCircle
 10
483.811817
 20
224.789089
 30
0.0
 40
12.5
100
AcDbArc
 50
183.372287
 51
266.627713
  0
ARC
  5
428
330
207
100
AcDbEntity
  8
3_ALL_AXES
  6
Continuous
 62
     7
100
AcDbCircle
 10
483.061817
 20
212.061167
 30
0.0
 40
0.25
100
AcDbArc
 50
0.0
 51
86.627713
  0
LINE
  5
429
330
207
100
AcDbEntity
  8
3_ALL_AXES
  6
Continuous
 62
     7
100
AcDbLine
 10
483.311817
 20
211.560332
 30
0.0
 11
483.311817
 21
212.061167
 31
0.0
  0
SPLINE
  5
42A
330
207
100
AcDbEntity
  8
3_ALL_AXES
  6
Continuous
 62
     7
100
AcDbSpline
 70
     0
 71
     3
 72
    10
 73
     6
 74
     0
 42
0.000000001
 43
0.0000001
 40
0.0
 40
0.0
 40
0.0
 40
0.0
 40
0.5014249077
 40
0.7461630307
 40
1.0
 40
1.0
 40
1.0
 40
1.0
 10
483.0577330069
 20
211.309233426
 30
0.0
 10
483.1228633492
 20
211.3055408826
 30
0.0
 10
483.2238601715
 20
211.3532074388
 30
0.0
 10
483.2992643088
 20
211.4611683955
 30
0.0
 10
483.3118170689
 20
211.5273082781
 30
0.0
 10
483.3118170689
 20
211.5603322408
 30
0.0
  0
ARC
  5
42B
330
207
100
AcDbEntity
  8
3_ALL_AXES
  6
Continuous
 62
     7
100
AcDbCircle
 10
483.811817
 20
224.789089
 30
0.0
 40
13.5
100
AcDbArc
 50
183.244892
 51
266.798122
  0
ARC
  5
42C
330
207
100
AcDbEntity
  8
3_ALL_AXES
  6
Continuous
 62
     7
100
AcDbCircle
 10
454.311817
 20
343.039089
 30
0.0
 40
0.5
100
AcDbArc
 50
180.0
 51
270.0
  0
ARC
  5
42D
330
207
100
AcDbEntity
  8
3_ALL_AXES
  6
Continuous
 62
     7
100
AcDbCircle
 10
456.311817
 20
342.039089
 30
0.0
 40
0.5
100
AcDbArc
 50
0.0
 51
90.0
  0
ARC
  5
42E
330
207
100
AcDbEntity
  8
3_ALL_AXES
  6
Continuous
 62
     7
100
AcDbCircle
 10
456.311817
 20
331.539089
 30
0.0
 40
0.5
100
AcDbArc
 50
270.0
 51
360.0
  0
ARC
  5
42F
330
207
100
AcDbEntity
  8
3_ALL_AXES
  6
Continuous
 62
     7
100
AcDbCircle
 10
454.311817
 20
330.539089
 30
0.0
 40
0.5
100
AcDbArc
 50
90.0
 51
180.0
  0
ARC
  5
430
330
207
100
AcDbEntity
  8
3_ALL_AXES
  6
Continuous
 62
     7
100
AcDbCircle
 10
454.311817
 20
231.039089
 30
0.0
 40
0.5
100
AcDbArc
 50
180.0
 51
270.0
  0
ARC
  5
431
330
207
100
AcDbEntity
  8
3_ALL_AXES
  6
Continuous
 62
     7
100
AcDbCircle
 10
456.311817
 20
230.039089
 30
0.0
 40
0.5
100
AcDbArc
 50
0.0
 51
90.0
  0
ARC
  5
432
330
207
100
AcDbEntity
  8
3_ALL_AXES
  6
Continuous
 62
     7
100
AcDbCircle
 10
456.311817
 20
219.539089
 30
0.0
 40
0.5
100
AcDbArc
 50
270.0
 51
360.0
  0
ARC
  5
433
330
207
100
AcDbEntity
  8
3_ALL_AXES
  6
Continuous
 62
     7
100
AcDbCircle
 10
454.311817
 20
218.539089
 30
0.0
 40
0.5
100
AcDbArc
 50
90.0
 51
180.0
  0
ARC
  5
434
330
207
100
AcDbEntity
  8
3_ALL_AXES
  6
Continuous
 62
     7
100
AcDbCircle
 10
455.811817
 20
206.539089
 30
0.0
 40
2.0
100
AcDbArc
 50
180.0
 51
270.0
  0
ARC
  5
435
330
207
100
AcDbEntity
  8
3_ALL_AXES
  6
Continuous
 62
     7
100
AcDbCircle
 10
511.811817
 20
206.539089
 30
0.0
 40
2.0
100
AcDbArc
 50
270.0
 51
360.0
  0
ARC
  5
436
330
207
100
AcDbEntity
  8
3_ALL_AXES
  6
Continuous
 62
     7
100
AcDbCircle
 10
513.311817
 20
218.539089
 30
0.0
 40
0.5
100
AcDbArc
 50
0.0
 51
90.0
  0
ARC
  5
437
330
207
100
AcDbEntity
  8
3_ALL_AXES
  6
Continuous
 62
     7
100
AcDbCircle
 10
511.311817
 20
219.539089
 30
0.0
 40
0.5
100
AcDbArc
 50
180.0
 51
270.0
  0
ARC
  5
438
330
207
100
AcDbEntity
  8
3_ALL_AXES
  6
Continuous
 62
     7
100
AcDbCircle
 10
511.311817
 20
230.039089
 30
0.0
 40
0.5
100
AcDbArc
 50
90.0
 51
180.0
  0
ARC
  5
439
330
207
100
AcDbEntity
  8
3_ALL_AXES
  6
Continuous
 62
     7
100
AcDbCircle
 10
513.311817
 20
231.039089
 30
0.0
 40
0.5
100
AcDbArc
 50
270.0
 51
360.0
  0
ARC
  5
43A
330
207
100
AcDbEntity
  8
3_ALL_AXES
  6
Continuous
 62
     7
100
AcDbCircle
 10
513.311817
 20
330.539089
 30
0.0
 40
0.5
100
AcDbArc
 50
0.0
 51
90.0
  0
ARC
  5
43B
330
207
100
AcDbEntity
  8
3_ALL_AXES
  6
Continuous
 62
     7
100
AcDbCircle
 10
511.311817
 20
331.539089
 30
0.0
 40
0.5
100
AcDbArc
 50
180.0
 51
270.0
  0
ARC
  5
43C
330
207
100
AcDbEntity
  8
3_ALL_AXES
  6
Continuous
 62
     7
100
AcDbCircle
 10
511.311817
 20
342.039089
 30
0.0
 40
0.5
100
AcDbArc
 50
90.0
 51
180.0
  0
ARC
  5
43D
330
207
100
AcDbEntity
  8
3_ALL_AXES
  6
Continuous
 62
     7
100
AcDbCircle
 10
513.311817
 20
343.039089
 30
0.0
 40
0.5
100
AcDbArc
 50
270.0
 51
360.0
  0
ARC
  5
43E
330
207
100
AcDbEntity
  8
3_ALL_AXES
  6
Continuous
 62
     7
100
AcDbCircle
 10
513.311817
 20
354.039089
 30
0.0
 40
0.5
100
AcDbArc
 50
0.0
 51
90.0
  0
ARC
  5
43F
330
207
100
AcDbEntity
  8
3_ALL_AXES
  6
Continuous
 62
     7
100
AcDbCircle
 10
454.311817
 20
354.039089
 30
0.0
 40
0.5
100
AcDbArc
 50
90.0
 51
180.0
  0
LINE
  5
440
330
207
100
AcDbEntity
  8
3_ALL_AXES
  6
Continuous
 62
     7
100
AcDbLine
 10
497.040574
 20
225.289089
 30
0.0
 11
496.539739
 21
225.289089
 31
0.0
  0
LINE
  5
441
330
207
100
AcDbEntity
  8
3_ALL_AXES
  6
Continuous
 62
     7
100
AcDbLine
 10
471.083895
 20
225.289089
 30
0.0
 11
470.583061
 21
225.289089
 31
0.0
  0
LINE
  5
442
330
207
100
AcDbEntity
  8
3_ALL_AXES
  6
Continuous
 62
     7
100
AcDbLine
 10
496.539739
 20
224.289089
 30
0.0
 11
497.040574
 21
224.289089
 31
0.0
  0
LINE
  5
443
330
207
100
AcDbEntity
  8
3_ALL_AXES
  6
Continuous
 62
     7
100
AcDbLine
 10
484.311817
 20
211.560332
 30
0.0
 11
484.311817
 21
212.061167
 31
0.0
  0
LINE
  5
444
330
207
100
AcDbEntity
  8
3_ALL_AXES
  6
Continuous
 62
     7
100
AcDbLine
 10
513.311817
 20
354.539089
 30
0.0
 11
454.311817
 21
354.539089
 31
0.0
  0
LINE
  5
445
330
207
100
AcDbEntity
  8
3_ALL_AXES
  6
Continuous
 62
     7
100
AcDbLine
 10
513.811817
 20
343.039089
 30
0.0
 11
513.811817
 21
354.039089
 31
0.0
  0
LINE
  5
446
330
207
100
AcDbEntity
  8
3_ALL_AXES
  6
Continuous
 62
     7
100
AcDbLine
 10
511.311817
 20
342.539089
 30
0.0
 11
513.311817
 21
342.539089
 31
0.0
  0
LINE
  5
447
330
207
100
AcDbEntity
  8
3_ALL_AXES
  6
Continuous
 62
     7
100
AcDbLine
 10
510.811817
 20
340.289089
 30
0.0
 11
510.811817
 21
342.039089
 31
0.0
  0
LINE
  5
448
330
207
100
AcDbEntity
  8
3_ALL_AXES
  6
Continuous
 62
     7
100
AcDbLine
 10
510.811817
 20
331.539089
 30
0.0
 11
510.811817
 21
333.289089
 31
0.0
  0
LINE
  5
449
330
207
100
AcDbEntity
  8
3_ALL_AXES
  6
Continuous
 62
     7
100
AcDbLine
 10
513.311817
 20
331.039089
 30
0.0
 11
511.311817
 21
331.039089
 31
0.0
  0
LINE
  5
44A
330
207
100
AcDbEntity
  8
3_ALL_AXES
  6
Continuous
 62
     7
100
AcDbLine
 10
513.811817
 20
231.039089
 30
0.0
 11
513.811817
 21
330.539089
 31
0.0
  0
LINE
  5
44B
330
207
100
AcDbEntity
  8
3_ALL_AXES
  6
Continuous
 62
     7
100
AcDbLine
 10
511.311817
 20
230.539089
 30
0.0
 11
513.311817
 21
230.539089
 31
0.0
  0
LINE
  5
44C
330
207
100
AcDbEntity
  8
3_ALL_AXES
  6
Continuous
 62
     7
100
AcDbLine
 10
510.811817
 20
228.289089
 30
0.0
 11
510.811817
 21
230.039089
 31
0.0
  0
LINE
  5
44D
330
207
100
AcDbEntity
  8
3_ALL_AXES
  6
Continuous
 62
     7
100
AcDbLine
 10
510.811817
 20
219.539089
 30
0.0
 11
510.811817
 21
221.289089
 31
0.0
  0
LINE
  5
44E
330
207
100
AcDbEntity
  8
3_ALL_AXES
  6
Continuous
 62
     7
100
AcDbLine
 10
513.311817
 20
219.039089
 30
0.0
 11
511.311817
 21
219.039089
 31
0.0
  0
LINE
  5
44F
330
207
100
AcDbEntity
  8
3_ALL_AXES
  6
Continuous
 62
     7
100
AcDbLine
 10
513.811817
 20
206.539089
 30
0.0
 11
513.811817
 21
218.539089
 31
0.0
  0
LINE
  5
450
330
207
100
AcDbEntity
  8
3_ALL_AXES
  6
Continuous
 62
     7
100
AcDbLine
 10
455.811817
 20
204.539089
 30
0.0
 11
511.811817
 21
204.539089
 31
0.0
  0
LINE
  5
451
330
207
100
AcDbEntity
  8
3_ALL_AXES
  6
Continuous
 62
     7
100
AcDbLine
 10
453.811817
 20
218.539089
 30
0.0
 11
453.811817
 21
206.539089
 31
0.0
  0
LINE
  5
452
330
207
100
AcDbEntity
  8
3_ALL_AXES
  6
Continuous
 62
     7
100
AcDbLine
 10
456.311817
 20
219.039089
 30
0.0
 11
454.311817
 21
219.039089
 31
0.0
  0
LINE
  5
453
330
207
100
AcDbEntity
  8
3_ALL_AXES
  6
Continuous
 62
     7
100
AcDbLine
 10
456.811817
 20
221.289089
 30
0.0
 11
456.811817
 21
219.539089
 31
0.0
  0
LINE
  5
454
330
207
100
AcDbEntity
  8
3_ALL_AXES
  6
Continuous
 62
     7
100
AcDbLine
 10
456.811817
 20
230.039089
 30
0.0
 11
456.811817
 21
228.289089
 31
0.0
  0
LINE
  5
455
330
207
100
AcDbEntity
  8
3_ALL_AXES
  6
Continuous
 62
     7
100
AcDbLine
 10
454.311817
 20
230.539089
 30
0.0
 11
456.311817
 21
230.539089
 31
0.0
  0
LINE
  5
456
330
207
100
AcDbEntity
  8
3_ALL_AXES
  6
Continuous
 62
     7
100
AcDbLine
 10
453.811817
 20
330.539089
 30
0.0
 11
453.811817
 21
231.039089
 31
0.0
  0
LINE
  5
457
330
207
100
AcDbEntity
  8
3_ALL_AXES
  6
Continuous
 62
     7
100
AcDbLine
 10
456.311817
 20
331.039089
 30
0.0
 11
454.311817
 21
331.039089
 31
0.0
  0
LINE
  5
458
330
207
100
AcDbEntity
  8
3_ALL_AXES
  6
Continuous
 62
     7
100
AcDbLine
 10
456.811817
 20
333.289089
 30
0.0
 11
456.811817
 21
331.539089
 31
0.0
  0
LINE
  5
459
330
207
100
AcDbEntity
  8
3_ALL_AXES
  6
Continuous
 62
     7
100
AcDbLine
 10
456.811817
 20
342.039089
 30
0.0
 11
456.811817
 21
340.289089
 31
0.0
  0
LINE
  5
45A
330
207
100
AcDbEntity
  8
3_ALL_AXES
  6
Continuous
 62
     7
100
AcDbLine
 10
454.311817
 20
342.539089
 30
0.0
 11
456.311817
 21
342.539089
 31
0.0
  0
LINE
  5
45B
330
207
100
AcDbEntity
  8
3_ALL_AXES
  6
Continuous
 62
     7
100
AcDbLine
 10
453.811817
 20
354.039089
 30
0.0
 11
453.811817
 21
343.039089
 31
0.0
  0
SPLINE
  5
45C
330
207
100
AcDbEntity
  8
7_ALL_FEATURES
  6
Continuous
 62
     7
100
AcDbSpline
 70
     0
 71
     3
 72
    21
 73
    17
 74
     0
 42
0.000000001
 43
0.0000001
 40
0.0
 40
0.0
 40
0.0
 40
0.0
 40
0.1006623537
 40
0.1491396062
 40
0.2002533884
 40
0.2585611577
 40
0.3291637235
 40
0.4120852589
 40
0.5003691643
 40
0.5885214465
 40
0.6712743515
 40
0.7416362302
 40
0.7998643952
 40
0.8508448127
 40
0.8992659011
 40
1.0
 40
1.0
 40
1.0
 40
1.0
 10
512.9331374125
 20
335.2890887961
 30
0.0
 10
513.0666024324
 20
335.2890887961
 30
0.0
 10
513.2702193599
 20
335.3200210286
 30
0.0
 10
513.4988342657
 20
335.4622147448
 30
0.0
 10
513.6350595878
 20
335.62593815
 30
0.0
 10
513.727737217
 20
335.8488008415
 30
0.0
 10
513.77855607
 20
336.126244445
 30
0.0
 10
513.7988243602
 20
336.4464923668
 30
0.0
 10
513.8033387133
 20
336.7903840647
 30
0.0
 10
513.7987527905
 20
337.1340511268
 30
0.0
 10
513.7783478641
 20
337.4535762225
 30
0.0
 10
513.7274204877
 20
337.7303346203
 30
0.0
 10
513.6348297584
 20
337.9525770638
 30
0.0
 10
513.4987827572
 20
338.1159544104
 30
0.0
 10
513.2703488003
 20
338.2581203705
 30
0.0
 10
513.0666975571
 20
338.2890887961
 30
0.0
 10
512.9331374125
 20
338.2890887961
 30
0.0
  0
LINE
  5
45D
330
207
100
AcDbEntity
  8
3_ALL_AXES
  6
Continuous
 62
     9
100
AcDbLine
 10
455.311817
 20
221.189089
 30
0.0
 11
454.011817
 21
221.189089
 31
0.0
  0
LINE
  5
45E
330
207
100
AcDbEntity
  8
3_ALL_AXES
  6
Continuous
 62
     9
100
AcDbLine
 10
454.011817
 20
221.189089
 30
0.0
 11
453.811817
 21
221.189089
 31
0.0
  0
LINE
  5
45F
330
207
100
AcDbEntity
  8
3_ALL_AXES
  6
Continuous
 62
     9
100
AcDbLine
 10
512.311817
 20
340.389089
 30
0.0
 11
513.611817
 21
340.389089
 31
0.0
  0
LINE
  5
460
330
207
100
AcDbEntity
  8
3_ALL_AXES
  6
Continuous
 62
     9
100
AcDbLine
 10
513.611817
 20
340.389089
 30
0.0
 11
513.811817
 21
340.389089
 31
0.0
  0
LINE
  5
461
330
207
100
AcDbEntity
  8
3_ALL_AXES
  6
Continuous
 62
     9
100
AcDbLine
 10
512.311817
 20
221.189089
 30
0.0
 11
513.611817
 21
221.189089
 31
0.0
  0
LINE
  5
462
330
207
100
AcDbEntity
  8
3_ALL_AXES
  6
Continuous
 62
     9
100
AcDbLine
 10
513.611817
 20
221.189089
 30
0.0
 11
513.811817
 21
221.189089
 31
0.0
  0
SPLINE
  5
463
330
207
100
AcDbEntity
  8
7_ALL_FEATURES
  6
Continuous
 62
     7
100
AcDbSpline
 70
     0
 71
     3
 72
    21
 73
    17
 74
     0
 42
0.000000001
 43
0.0000001
 40
0.0
 40
0.0
 40
0.0
 40
0.0
 40
0.1006623537
 40
0.1491396062
 40
0.2002533884
 40
0.2585611577
 40
0.3291637235
 40
0.4120852589
 40
0.5003691643
 40
0.5885214465
 40
0.6712743515
 40
0.7416362302
 40
0.7998643952
 40
0.8508448127
 40
0.8992659011
 40
1.0
 40
1.0
 40
1.0
 40
1.0
 10
512.9331374125
 20
223.2890887961
 30
0.0
 10
513.0666024324
 20
223.2890887961
 30
0.0
 10
513.2702193599
 20
223.3200210286
 30
0.0
 10
513.4988342657
 20
223.4622147448
 30
0.0
 10
513.6350595878
 20
223.62593815
 30
0.0
 10
513.727737217
 20
223.8488008415
 30
0.0
 10
513.77855607
 20
224.126244445
 30
0.0
 10
513.7988243602
 20
224.4464923668
 30
0.0
 10
513.8033387133
 20
224.7903840647
 30
0.0
 10
513.7987527905
 20
225.1340511268
 30
0.0
 10
513.7783478641
 20
225.4535762225
 30
0.0
 10
513.7274204877
 20
225.7303346203
 30
0.0
 10
513.6348297584
 20
225.9525770638
 30
0.0
 10
513.4987827572
 20
226.1159544104
 30
0.0
 10
513.2703488003
 20
226.2581203705
 30
0.0
 10
513.0666975571
 20
226.2890887961
 30
0.0
 10
512.9331374125
 20
226.2890887961
 30
0.0
  0
LINE
  5
464
330
207
100
AcDbEntity
  8
3_ALL_AXES
  6
Continuous
 62
     9
100
AcDbLine
 10
512.311817
 20
333.189089
 30
0.0
 11
513.611817
 21
333.189089
 31
0.0
  0
LINE
  5
465
330
207
100
AcDbEntity
  8
3_ALL_AXES
  6
Continuous
 62
     9
100
AcDbLine
 10
513.611817
 20
333.189089
 30
0.0
 11
513.811817
 21
333.189089
 31
0.0
  0
LINE
  5
466
330
207
100
AcDbEntity
  8
7_ALL_FEATURES
  6
Continuous
 62
     9
100
AcDbLine
 10
510.811817
 20
333.289089
 30
0.0
 11
510.811817
 21
340.289089
 31
0.0
  0
SPLINE
  5
467
330
207
100
AcDbEntity
  8
7_ALL_FEATURES
  6
Continuous
 62
     7
100
AcDbSpline
 70
     0
 71
     3
 72
    21
 73
    17
 74
     0
 42
0.000000001
 43
0.0000001
 40
0.0
 40
0.0
 40
0.0
 40
0.0
 40
0.1006623537
 40
0.1491396062
 40
0.2002533884
 40
0.2585611577
 40
0.3291637235
 40
0.4120852589
 40
0.5003691643
 40
0.5885214465
 40
0.6712743515
 40
0.7416362302
 40
0.7998643952
 40
0.8508448127
 40
0.8992659011
 40
1.0
 40
1.0
 40
1.0
 40
1.0
 10
454.6904967254
 20
338.2890887961
 30
0.0
 10
454.5570317055
 20
338.2890887961
 30
0.0
 10
454.353414778
 20
338.2581565636
 30
0.0
 10
454.1247998722
 20
338.1159628475
 30
0.0
 10
453.9885745501
 20
337.9522394422
 30
0.0
 10
453.8958969209
 20
337.7293767507
 30
0.0
 10
453.8450780679
 20
337.4519331473
 30
0.0
 10
453.8248097777
 20
337.1316852254
 30
0.0
 10
453.8202954246
 20
336.7877935275
 30
0.0
 10
453.8248813473
 20
336.4441264654
 30
0.0
 10
453.8452862738
 20
336.1246013697
 30
0.0
 10
453.8962136501
 20
335.847842972
 30
0.0
 10
453.9888043794
 20
335.6256005285
 30
0.0
 10
454.1248513807
 20
335.4622231819
 30
0.0
 10
454.3532853376
 20
335.3200572217
 30
0.0
 10
454.5569365808
 20
335.2890887961
 30
0.0
 10
454.6904967254
 20
335.2890887961
 30
0.0
  0
LINE
  5
468
330
207
100
AcDbEntity
  8
7_ALL_FEATURES
  6
Continuous
 62
     9
100
AcDbLine
 10
456.811817
 20
228.289089
 30
0.0
 11
456.811817
 21
221.289089
 31
0.0
  0
LINE
  5
469
330
207
100
AcDbEntity
  8
7_ALL_FEATURES
  6
Continuous
 62
     9
100
AcDbLine
 10
510.811817
 20
221.289089
 30
0.0
 11
510.811817
 21
228.289089
 31
0.0
  0
LINE
  5
46A
330
207
100
AcDbEntity
  8
7_ALL_FEATURES
  6
Continuous
 62
     9
100
AcDbLine
 10
456.811817
 20
340.289089
 30
0.0
 11
456.811817
 21
333.289089
 31
0.0
  0
SPLINE
  5
46B
330
207
100
AcDbEntity
  8
7_ALL_FEATURES
  6
Continuous
 62
     7
100
AcDbSpline
 70
     0
 71
     3
 72
    21
 73
    17
 74
     0
 42
0.000000001
 43
0.0000001
 40
0.0
 40
0.0
 40
0.0
 40
0.0
 40
0.1006623537
 40
0.1491396062
 40
0.2002533884
 40
0.2585611577
 40
0.3291637235
 40
0.4120852589
 40
0.5003691643
 40
0.5885214465
 40
0.6712743515
 40
0.7416362302
 40
0.7998643952
 40
0.8508448127
 40
0.8992659011
 40
1.0
 40
1.0
 40
1.0
 40
1.0
 10
454.6904967254
 20
226.2890887961
 30
0.0
 10
454.5570317055
 20
226.2890887961
 30
0.0
 10
454.353414778
 20
226.2581565636
 30
0.0
 10
454.1247998722
 20
226.1159628475
 30
0.0
 10
453.9885745501
 20
225.9522394422
 30
0.0
 10
453.8958969209
 20
225.7293767507
 30
0.0
 10
453.8450780679
 20
225.4519331473
 30
0.0
 10
453.8248097777
 20
225.1316852254
 30
0.0
 10
453.8202954246
 20
224.7877935275
 30
0.0
 10
453.8248813473
 20
224.4441264654
 30
0.0
 10
453.8452862738
 20
224.1246013697
 30
0.0
 10
453.8962136501
 20
223.847842972
 30
0.0
 10
453.9888043794
 20
223.6256005285
 30
0.0
 10
454.1248513807
 20
223.4622231819
 30
0.0
 10
454.3532853376
 20
223.3200572217
 30
0.0
 10
454.5569365808
 20
223.2890887961
 30
0.0
 10
454.6904967254
 20
223.2890887961
 30
0.0
  0
LINE
  5
46C
330
207
100
AcDbEntity
  8
3_ALL_AXES
  6
Continuous
 62
     9
100
AcDbLine
 10
455.311817
 20
228.389089
 30
0.0
 11
454.011817
 21
228.389089
 31
0.0
  0
LINE
  5
46D
330
207
100
AcDbEntity
  8
3_ALL_AXES
  6
Continuous
 62
     9
100
AcDbLine
 10
454.011817
 20
228.389089
 30
0.0
 11
453.811817
 21
228.389089
 31
0.0
  0
LINE
  5
46E
330
207
100
AcDbEntity
  8
3_ALL_AXES
  6
Continuous
 62
     9
100
AcDbLine
 10
455.311817
 20
333.189089
 30
0.0
 11
454.011817
 21
333.189089
 31
0.0
  0
LINE
  5
46F
330
207
100
AcDbEntity
  8
3_ALL_AXES
  6
Continuous
 62
     9
100
AcDbLine
 10
454.011817
 20
333.189089
 30
0.0
 11
453.811817
 21
333.189089
 31
0.0
  0
LINE
  5
470
330
207
100
AcDbEntity
  8
3_ALL_AXES
  6
Continuous
 62
     9
100
AcDbLine
 10
512.311817
 20
228.389089
 30
0.0
 11
513.611817
 21
228.389089
 31
0.0
  0
LINE
  5
471
330
207
100
AcDbEntity
  8
3_ALL_AXES
  6
Continuous
 62
     9
100
AcDbLine
 10
513.611817
 20
228.389089
 30
0.0
 11
513.811817
 21
228.389089
 31
0.0
  0
LINE
  5
472
330
207
100
AcDbEntity
  8
3_ALL_AXES
  6
Continuous
 62
     9
100
AcDbLine
 10
455.311817
 20
340.389089
 30
0.0
 11
454.011817
 21
340.389089
 31
0.0
  0
LINE
  5
473
330
207
100
AcDbEntity
  8
3_ALL_AXES
  6
Continuous
 62
     9
100
AcDbLine
 10
454.011817
 20
340.389089
 30
0.0
 11
453.811817
 21
340.389089
 31
0.0
  0
LINE
  5
474
330
207
100
AcDbEntity
  8
3_ALL_AXES
  6
Continuous
 62
     7
100
AcDbLine
 10
454.311817
 20
354.539089
 30
0.0
 11
454.011817
 21
354.539089
 31
0.0
  0
ARC
  5
475
330
207
100
AcDbEntity
  8
3_ALL_AXES
  6
Continuous
 62
     7
100
AcDbCircle
 10
454.011817
 20
354.339089
 30
0.0
 40
0.2
100
AcDbArc
 50
90.0
 51
150.0
  0
ARC
  5
476
330
207
100
AcDbEntity
  8
3_ALL_AXES
  6
Continuous
 62
     7
100
AcDbCircle
 10
454.011817
 20
354.339089
 30
0.0
 40
0.2
100
AcDbArc
 50
150.0
 51
180.0
  0
LINE
  5
477
330
207
100
AcDbEntity
  8
3_ALL_AXES
  6
Continuous
 62
     7
100
AcDbLine
 10
453.811817
 20
354.339089
 30
0.0
 11
453.811817
 21
354.039089
 31
0.0
  0
LINE
  5
478
330
207
100
AcDbEntity
  8
3_ALL_AXES
  6
Continuous
 62
     7
100
AcDbLine
 10
453.811817
 20
343.039089
 30
0.0
 11
453.811817
 21
342.739089
 31
0.0
  0
ARC
  5
479
330
207
100
AcDbEntity
  8
3_ALL_AXES
  6
Continuous
 62
     7
100
AcDbCircle
 10
453.611817
 20
342.739089
 30
0.0
 40
0.2
100
AcDbArc
 50
300.0
 51
360.0
  0
ARC
  5
47A
330
207
100
AcDbEntity
  8
3_ALL_AXES
  6
Continuous
 62
     7
100
AcDbCircle
 10
453.611817
 20
342.739089
 30
0.0
 40
0.2
100
AcDbArc
 50
270.0
 51
300.0
  0
LINE
  5
47B
330
207
100
AcDbEntity
  8
3_ALL_AXES
  6
Continuous
 62
     7
100
AcDbLine
 10
453.611817
 20
342.539089
 30
0.0
 11
453.03583
 21
342.539089
 31
0.0
  0
ARC
  5
47C
330
207
100
AcDbEntity
  8
3_ALL_AXES
  6
Continuous
 62
     7
100
AcDbCircle
 10
453.035831
 20
341.815075
 30
0.0
 40
0.7240143391
100
AcDbArc
 50
90.0001
 51
179.9999
  0
LINE
  5
47D
330
207
100
AcDbEntity
  8
3_ALL_AXES
  6
Continuous
 62
     7
100
AcDbLine
 10
452.311817
 20
341.815076
 30
0.0
 11
452.311817
 21
339.539089
 31
0.0
  0
ARC
  5
47E
330
207
100
AcDbEntity
  8
3_ALL_AXES
  6
Continuous
 62
     7
100
AcDbCircle
 10
452.811817
 20
339.539089
 30
0.0
 40
0.5
100
AcDbArc
 50
180.0
 51
270.0
  0
LINE
  5
47F
330
207
100
AcDbEntity
  8
3_ALL_AXES
  6
Continuous
 62
     7
100
AcDbLine
 10
452.811817
 20
339.039089
 30
0.0
 11
453.611817
 21
339.039089
 31
0.0
  0
ARC
  5
480
330
207
100
AcDbEntity
  8
3_ALL_AXES
  6
Continuous
 62
     7
100
AcDbCircle
 10
453.611817
 20
339.239089
 30
0.0
 40
0.2
100
AcDbArc
 50
270.0
 51
360.0
  0
LINE
  5
481
330
207
100
AcDbEntity
  8
3_ALL_AXES
  6
Continuous
 62
     7
100
AcDbLine
 10
453.811817
 20
339.239089
 30
0.0
 11
453.811817
 21
340.289089
 31
0.0
  0
LINE
  5
482
330
207
100
AcDbEntity
  8
3_ALL_AXES
  6
Continuous
 62
     7
100
AcDbLine
 10
453.811817
 20
340.289089
 30
0.0
 11
453.811817
 21
340.339089
 31
0.0
  0
ARC
  5
483
330
207
100
AcDbEntity
  8
3_ALL_AXES
  6
Continuous
 62
     7
100
AcDbCircle
 10
454.011817
 20
340.339089
 30
0.0
 40
0.2
100
AcDbArc
 50
150.0
 51
180.0
  0
ARC
  5
484
330
207
100
AcDbEntity
  8
3_ALL_AXES
  6
Continuous
 62
     7
100
AcDbCircle
 10
454.011817
 20
340.339089
 30
0.0
 40
0.2
100
AcDbArc
 50
90.0
 51
150.0
  0
LINE
  5
485
330
207
100
AcDbEntity
  8
3_ALL_AXES
  6
Continuous
 62
     7
100
AcDbLine
 10
454.011817
 20
340.539089
 30
0.0
 11
456.811817
 21
340.539089
 31
0.0
  0
LINE
  5
486
330
207
100
AcDbEntity
  8
3_ALL_AXES
  6
Continuous
 62
     7
100
AcDbLine
 10
456.811817
 20
333.039089
 30
0.0
 11
454.011817
 21
333.039089
 31
0.0
  0
ARC
  5
487
330
207
100
AcDbEntity
  8
3_ALL_AXES
  6
Continuous
 62
     7
100
AcDbCircle
 10
454.011817
 20
333.239089
 30
0.0
 40
0.2
100
AcDbArc
 50
180.0
 51
270.0
  0
LINE
  5
488
330
207
100
AcDbEntity
  8
3_ALL_AXES
  6
Continuous
 62
     7
100
AcDbLine
 10
453.811817
 20
333.239089
 30
0.0
 11
453.811817
 21
333.289089
 31
0.0
  0
LINE
  5
489
330
207
100
AcDbEntity
  8
3_ALL_AXES
  6
Continuous
 62
     7
100
AcDbLine
 10
453.811817
 20
333.289089
 30
0.0
 11
453.811817
 21
334.339089
 31
0.0
  0
ARC
  5
48A
330
207
100
AcDbEntity
  8
3_ALL_AXES
  6
Continuous
 62
     7
100
AcDbCircle
 10
453.611817
 20
334.339089
 30
0.0
 40
0.2
100
AcDbArc
 50
0.0
 51
90.0
  0
LINE
  5
48B
330
207
100
AcDbEntity
  8
3_ALL_AXES
  6
Continuous
 62
     7
100
AcDbLine
 10
453.611817
 20
334.539089
 30
0.0
 11
452.811817
 21
334.539089
 31
0.0
  0
ARC
  5
48C
330
207
100
AcDbEntity
  8
3_ALL_AXES
  6
Continuous
 62
     7
100
AcDbCircle
 10
452.811817
 20
334.039089
 30
0.0
 40
0.5
100
AcDbArc
 50
90.0
 51
180.0
  0
LINE
  5
48D
330
207
100
AcDbEntity
  8
3_ALL_AXES
  6
Continuous
 62
     7
100
AcDbLine
 10
452.311817
 20
334.039089
 30
0.0
 11
452.311817
 21
331.539089
 31
0.0
  0
ARC
  5
48E
330
207
100
AcDbEntity
  8
3_ALL_AXES
  6
Continuous
 62
     7
100
AcDbCircle
 10
452.811817
 20
331.539089
 30
0.0
 40
0.5
100
AcDbArc
 50
180.0
 51
270.0
  0
LINE
  5
48F
330
207
100
AcDbEntity
  8
3_ALL_AXES
  6
Continuous
 62
     7
100
AcDbLine
 10
452.811817
 20
331.039089
 30
0.0
 11
453.611817
 21
331.039089
 31
0.0
  0
ARC
  5
490
330
207
100
AcDbEntity
  8
3_ALL_AXES
  6
Continuous
 62
     7
100
AcDbCircle
 10
453.611817
 20
330.839089
 30
0.0
 40
0.2
100
AcDbArc
 50
0.0
 51
90.0
  0
LINE
  5
491
330
207
100
AcDbEntity
  8
3_ALL_AXES
  6
Continuous
 62
     7
100
AcDbLine
 10
453.811817
 20
330.839089
 30
0.0
 11
453.811817
 21
330.539089
 31
0.0
  0
LINE
  5
492
330
207
100
AcDbEntity
  8
3_ALL_AXES
  6
Continuous
 62
     7
100
AcDbLine
 10
453.811817
 20
231.039089
 30
0.0
 11
453.811817
 21
230.739089
 31
0.0
  0
ARC
  5
493
330
207
100
AcDbEntity
  8
3_ALL_AXES
  6
Continuous
 62
     7
100
AcDbCircle
 10
453.611817
 20
230.739089
 30
0.0
 40
0.2
100
AcDbArc
 50
300.0
 51
360.0
  0
ARC
  5
494
330
207
100
AcDbEntity
  8
3_ALL_AXES
  6
Continuous
 62
     7
100
AcDbCircle
 10
453.611817
 20
230.739089
 30
0.0
 40
0.2
100
AcDbArc
 50
270.0
 51
300.0
  0
LINE
  5
495
330
207
100
AcDbEntity
  8
3_ALL_AXES
  6
Continuous
 62
     7
100
AcDbLine
 10
453.611817
 20
230.539089
 30
0.0
 11
452.811817
 21
230.539089
 31
0.0
  0
ARC
  5
496
330
207
100
AcDbEntity
  8
3_ALL_AXES
  6
Continuous
 62
     7
100
AcDbCircle
 10
452.811817
 20
230.039089
 30
0.0
 40
0.5
100
AcDbArc
 50
90.0
 51
180.0
  0
LINE
  5
497
330
207
100
AcDbEntity
  8
3_ALL_AXES
  6
Continuous
 62
     7
100
AcDbLine
 10
452.311817
 20
230.039089
 30
0.0
 11
452.311817
 21
227.539089
 31
0.0
  0
ARC
  5
498
330
207
100
AcDbEntity
  8
3_ALL_AXES
  6
Continuous
 62
     7
100
AcDbCircle
 10
452.811817
 20
227.539089
 30
0.0
 40
0.5
100
AcDbArc
 50
180.0
 51
270.0
  0
LINE
  5
499
330
207
100
AcDbEntity
  8
3_ALL_AXES
  6
Continuous
 62
     7
100
AcDbLine
 10
452.811817
 20
227.039089
 30
0.0
 11
453.611817
 21
227.039089
 31
0.0
  0
ARC
  5
49A
330
207
100
AcDbEntity
  8
3_ALL_AXES
  6
Continuous
 62
     7
100
AcDbCircle
 10
453.611817
 20
227.239089
 30
0.0
 40
0.2
100
AcDbArc
 50
270.0
 51
360.0
  0
LINE
  5
49B
330
207
100
AcDbEntity
  8
3_ALL_AXES
  6
Continuous
 62
     7
100
AcDbLine
 10
453.811817
 20
227.239089
 30
0.0
 11
453.811817
 21
228.289089
 31
0.0
  0
LINE
  5
49C
330
207
100
AcDbEntity
  8
3_ALL_AXES
  6
Continuous
 62
     7
100
AcDbLine
 10
453.811817
 20
228.289089
 30
0.0
 11
453.811817
 21
228.339089
 31
0.0
  0
ARC
  5
49D
330
207
100
AcDbEntity
  8
3_ALL_AXES
  6
Continuous
 62
     7
100
AcDbCircle
 10
454.011817
 20
228.339089
 30
0.0
 40
0.2
100
AcDbArc
 50
150.0
 51
180.0
  0
ARC
  5
49E
330
207
100
AcDbEntity
  8
3_ALL_AXES
  6
Continuous
 62
     7
100
AcDbCircle
 10
454.011817
 20
228.339089
 30
0.0
 40
0.2
100
AcDbArc
 50
90.0
 51
150.0
  0
LINE
  5
49F
330
207
100
AcDbEntity
  8
3_ALL_AXES
  6
Continuous
 62
     7
100
AcDbLine
 10
454.011817
 20
228.539089
 30
0.0
 11
456.811817
 21
228.539089
 31
0.0
  0
LINE
  5
4A0
330
207
100
AcDbEntity
  8
3_ALL_AXES
  6
Continuous
 62
     7
100
AcDbLine
 10
456.811817
 20
221.039089
 30
0.0
 11
454.011817
 21
221.039089
 31
0.0
  0
ARC
  5
4A1
330
207
100
AcDbEntity
  8
3_ALL_AXES
  6
Continuous
 62
     7
100
AcDbCircle
 10
454.011817
 20
221.239089
 30
0.0
 40
0.2
100
AcDbArc
 50
180.0
 51
270.0
  0
LINE
  5
4A2
330
207
100
AcDbEntity
  8
3_ALL_AXES
  6
Continuous
 62
     7
100
AcDbLine
 10
453.811817
 20
221.239089
 30
0.0
 11
453.811817
 21
221.289089
 31
0.0
  0
LINE
  5
4A3
330
207
100
AcDbEntity
  8
3_ALL_AXES
  6
Continuous
 62
     7
100
AcDbLine
 10
453.811817
 20
221.289089
 30
0.0
 11
453.811817
 21
222.339089
 31
0.0
  0
ARC
  5
4A4
330
207
100
AcDbEntity
  8
3_ALL_AXES
  6
Continuous
 62
     7
100
AcDbCircle
 10
453.611817
 20
222.339089
 30
0.0
 40
0.2
100
AcDbArc
 50
0.0
 51
90.0
  0
LINE
  5
4A5
330
207
100
AcDbEntity
  8
3_ALL_AXES
  6
Continuous
 62
     7
100
AcDbLine
 10
453.611817
 20
222.539089
 30
0.0
 11
452.811817
 21
222.539089
 31
0.0
  0
ARC
  5
4A6
330
207
100
AcDbEntity
  8
3_ALL_AXES
  6
Continuous
 62
     7
100
AcDbCircle
 10
452.811817
 20
222.039089
 30
0.0
 40
0.5
100
AcDbArc
 50
90.0
 51
180.0
  0
LINE
  5
4A7
330
207
100
AcDbEntity
  8
3_ALL_AXES
  6
Continuous
 62
     7
100
AcDbLine
 10
452.311817
 20
222.039089
 30
0.0
 11
452.311817
 21
219.539089
 31
0.0
  0
ARC
  5
4A8
330
207
100
AcDbEntity
  8
3_ALL_AXES
  6
Continuous
 62
     7
100
AcDbCircle
 10
452.811817
 20
219.539089
 30
0.0
 40
0.5
100
AcDbArc
 50
180.0
 51
270.0
  0
LINE
  5
4A9
330
207
100
AcDbEntity
  8
3_ALL_AXES
  6
Continuous
 62
     7
100
AcDbLine
 10
452.811817
 20
219.039089
 30
0.0
 11
453.611817
 21
219.039089
 31
0.0
  0
ARC
  5
4AA
330
207
100
AcDbEntity
  8
3_ALL_AXES
  6
Continuous
 62
     7
100
AcDbCircle
 10
453.611817
 20
218.839089
 30
0.0
 40
0.2
100
AcDbArc
 50
0.0
 51
90.0
  0
LINE
  5
4AB
330
207
100
AcDbEntity
  8
3_ALL_AXES
  6
Continuous
 62
     7
100
AcDbLine
 10
453.811817
 20
218.839089
 30
0.0
 11
453.811817
 21
218.539089
 31
0.0
  0
LINE
  5
4AC
330
207
100
AcDbEntity
  8
3_ALL_AXES
  6
Continuous
 62
     7
100
AcDbLine
 10
453.811817
 20
206.539089
 30
0.0
 11
453.811817
 21
205.539089
 31
0.0
  0
ARC
  5
4AD
330
207
100
AcDbEntity
  8
3_ALL_AXES
  6
Continuous
 62
     7
100
AcDbCircle
 10
454.811817
 20
205.539089
 30
0.0
 40
1.0
100
AcDbArc
 50
180.0
 51
270.0
  0
LINE
  5
4AE
330
207
100
AcDbEntity
  8
3_ALL_AXES
  6
Continuous
 62
     7
100
AcDbLine
 10
454.811817
 20
204.539089
 30
0.0
 11
455.811817
 21
204.539089
 31
0.0
  0
LINE
  5
4AF
330
207
100
AcDbEntity
  8
3_ALL_AXES
  6
Continuous
 62
     7
100
AcDbLine
 10
511.811817
 20
204.539089
 30
0.0
 11
512.811817
 21
204.539089
 31
0.0
  0
ARC
  5
4B0
330
207
100
AcDbEntity
  8
3_ALL_AXES
  6
Continuous
 62
     7
100
AcDbCircle
 10
512.811817
 20
205.539089
 30
0.0
 40
1.0
100
AcDbArc
 50
270.0
 51
360.0
  0
LINE
  5
4B1
330
207
100
AcDbEntity
  8
3_ALL_AXES
  6
Continuous
 62
     7
100
AcDbLine
 10
513.811817
 20
205.539089
 30
0.0
 11
513.811817
 21
206.539089
 31
0.0
  0
LINE
  5
4B2
330
207
100
AcDbEntity
  8
3_ALL_AXES
  6
Continuous
 62
     7
100
AcDbLine
 10
513.811817
 20
218.539089
 30
0.0
 11
513.811817
 21
218.839089
 31
0.0
  0
ARC
  5
4B3
330
207
100
AcDbEntity
  8
3_ALL_AXES
  6
Continuous
 62
     7
100
AcDbCircle
 10
514.011817
 20
218.839089
 30
0.0
 40
0.2
100
AcDbArc
 50
120.0
 51
180.0
  0
ARC
  5
4B4
330
207
100
AcDbEntity
  8
3_ALL_AXES
  6
Continuous
 62
     7
100
AcDbCircle
 10
514.011817
 20
218.839089
 30
0.0
 40
0.2
100
AcDbArc
 50
90.0
 51
120.0
  0
LINE
  5
4B5
330
207
100
AcDbEntity
  8
3_ALL_AXES
  6
Continuous
 62
     7
100
AcDbLine
 10
514.011817
 20
219.039089
 30
0.0
 11
514.811817
 21
219.039089
 31
0.0
  0
ARC
  5
4B6
330
207
100
AcDbEntity
  8
3_ALL_AXES
  6
Continuous
 62
     7
100
AcDbCircle
 10
514.811817
 20
219.539089
 30
0.0
 40
0.5
100
AcDbArc
 50
270.0
 51
360.0
  0
LINE
  5
4B7
330
207
100
AcDbEntity
  8
3_ALL_AXES
  6
Continuous
 62
     7
100
AcDbLine
 10
515.311817
 20
219.539089
 30
0.0
 11
515.311817
 21
222.039089
 31
0.0
  0
ARC
  5
4B8
330
207
100
AcDbEntity
  8
3_ALL_AXES
  6
Continuous
 62
     7
100
AcDbCircle
 10
514.811817
 20
222.039089
 30
0.0
 40
0.5
100
AcDbArc
 50
0.0
 51
90.0
  0
LINE
  5
4B9
330
207
100
AcDbEntity
  8
3_ALL_AXES
  6
Continuous
 62
     7
100
AcDbLine
 10
514.811817
 20
222.539089
 30
0.0
 11
514.011817
 21
222.539089
 31
0.0
  0
ARC
  5
4BA
330
207
100
AcDbEntity
  8
3_ALL_AXES
  6
Continuous
 62
     7
100
AcDbCircle
 10
514.011817
 20
222.339089
 30
0.0
 40
0.2
100
AcDbArc
 50
90.0
 51
180.0
  0
LINE
  5
4BB
330
207
100
AcDbEntity
  8
3_ALL_AXES
  6
Continuous
 62
     7
100
AcDbLine
 10
513.811817
 20
222.339089
 30
0.0
 11
513.811817
 21
221.289089
 31
0.0
  0
LINE
  5
4BC
330
207
100
AcDbEntity
  8
3_ALL_AXES
  6
Continuous
 62
     7
100
AcDbLine
 10
513.811817
 20
221.289089
 30
0.0
 11
513.811817
 21
221.239089
 31
0.0
  0
ARC
  5
4BD
330
207
100
AcDbEntity
  8
3_ALL_AXES
  6
Continuous
 62
     7
100
AcDbCircle
 10
513.611817
 20
221.239089
 30
0.0
 40
0.2
100
AcDbArc
 50
330.0
 51
360.0
  0
ARC
  5
4BE
330
207
100
AcDbEntity
  8
3_ALL_AXES
  6
Continuous
 62
     7
100
AcDbCircle
 10
513.611817
 20
221.239089
 30
0.0
 40
0.2
100
AcDbArc
 50
270.0
 51
330.0
  0
LINE
  5
4BF
330
207
100
AcDbEntity
  8
3_ALL_AXES
  6
Continuous
 62
     7
100
AcDbLine
 10
513.611817
 20
221.039089
 30
0.0
 11
510.811817
 21
221.039089
 31
0.0
  0
LINE
  5
4C0
330
207
100
AcDbEntity
  8
3_ALL_AXES
  6
Continuous
 62
     7
100
AcDbLine
 10
510.811817
 20
228.539089
 30
0.0
 11
513.611817
 21
228.539089
 31
0.0
  0
ARC
  5
4C1
330
207
100
AcDbEntity
  8
3_ALL_AXES
  6
Continuous
 62
     7
100
AcDbCircle
 10
513.611817
 20
228.339089
 30
0.0
 40
0.2
100
AcDbArc
 50
0.0
 51
90.0
  0
LINE
  5
4C2
330
207
100
AcDbEntity
  8
3_ALL_AXES
  6
Continuous
 62
     7
100
AcDbLine
 10
513.811817
 20
228.339089
 30
0.0
 11
513.811817
 21
228.289089
 31
0.0
  0
LINE
  5
4C3
330
207
100
AcDbEntity
  8
3_ALL_AXES
  6
Continuous
 62
     7
100
AcDbLine
 10
513.811817
 20
228.289089
 30
0.0
 11
513.811817
 21
227.239089
 31
0.0
  0
ARC
  5
4C4
330
207
100
AcDbEntity
  8
3_ALL_AXES
  6
Continuous
 62
     7
100
AcDbCircle
 10
514.011817
 20
227.239089
 30
0.0
 40
0.2
100
AcDbArc
 50
180.0
 51
270.0
  0
LINE
  5
4C5
330
207
100
AcDbEntity
  8
3_ALL_AXES
  6
Continuous
 62
     7
100
AcDbLine
 10
514.011817
 20
227.039089
 30
0.0
 11
514.811817
 21
227.039089
 31
0.0
  0
ARC
  5
4C6
330
207
100
AcDbEntity
  8
3_ALL_AXES
  6
Continuous
 62
     7
100
AcDbCircle
 10
514.811817
 20
227.539089
 30
0.0
 40
0.5
100
AcDbArc
 50
270.0
 51
360.0
  0
LINE
  5
4C7
330
207
100
AcDbEntity
  8
3_ALL_AXES
  6
Continuous
 62
     7
100
AcDbLine
 10
515.311817
 20
227.539089
 30
0.0
 11
515.311817
 21
230.039089
 31
0.0
  0
ARC
  5
4C8
330
207
100
AcDbEntity
  8
3_ALL_AXES
  6
Continuous
 62
     7
100
AcDbCircle
 10
514.811817
 20
230.039089
 30
0.0
 40
0.5
100
AcDbArc
 50
0.0
 51
90.0
  0
LINE
  5
4C9
330
207
100
AcDbEntity
  8
3_ALL_AXES
  6
Continuous
 62
     7
100
AcDbLine
 10
514.811817
 20
230.539089
 30
0.0
 11
514.011817
 21
230.539089
 31
0.0
  0
ARC
  5
4CA
330
207
100
AcDbEntity
  8
3_ALL_AXES
  6
Continuous
 62
     7
100
AcDbCircle
 10
514.011817
 20
230.739089
 30
0.0
 40
0.2
100
AcDbArc
 50
180.0
 51
270.0
  0
LINE
  5
4CB
330
207
100
AcDbEntity
  8
3_ALL_AXES
  6
Continuous
 62
     7
100
AcDbLine
 10
513.811817
 20
230.739089
 30
0.0
 11
513.811817
 21
231.039089
 31
0.0
  0
LINE
  5
4CC
330
207
100
AcDbEntity
  8
3_ALL_AXES
  6
Continuous
 62
     7
100
AcDbLine
 10
513.811817
 20
330.539089
 30
0.0
 11
513.811817
 21
330.839089
 31
0.0
  0
ARC
  5
4CD
330
207
100
AcDbEntity
  8
3_ALL_AXES
  6
Continuous
 62
     7
100
AcDbCircle
 10
514.011817
 20
330.839089
 30
0.0
 40
0.2
100
AcDbArc
 50
120.0
 51
180.0
  0
ARC
  5
4CE
330
207
100
AcDbEntity
  8
3_ALL_AXES
  6
Continuous
 62
     7
100
AcDbCircle
 10
514.011817
 20
330.839089
 30
0.0
 40
0.2
100
AcDbArc
 50
90.0
 51
120.0
  0
LINE
  5
4CF
330
207
100
AcDbEntity
  8
3_ALL_AXES
  6
Continuous
 62
     7
100
AcDbLine
 10
514.011817
 20
331.039089
 30
0.0
 11
514.811817
 21
331.039089
 31
0.0
  0
ARC
  5
4D0
330
207
100
AcDbEntity
  8
3_ALL_AXES
  6
Continuous
 62
     7
100
AcDbCircle
 10
514.811817
 20
331.539089
 30
0.0
 40
0.5
100
AcDbArc
 50
270.0
 51
360.0
  0
LINE
  5
4D1
330
207
100
AcDbEntity
  8
3_ALL_AXES
  6
Continuous
 62
     7
100
AcDbLine
 10
515.311817
 20
331.539089
 30
0.0
 11
515.311817
 21
334.039089
 31
0.0
  0
ARC
  5
4D2
330
207
100
AcDbEntity
  8
3_ALL_AXES
  6
Continuous
 62
     7
100
AcDbCircle
 10
514.811817
 20
334.039089
 30
0.0
 40
0.5
100
AcDbArc
 50
0.0
 51
90.0
  0
LINE
  5
4D3
330
207
100
AcDbEntity
  8
3_ALL_AXES
  6
Continuous
 62
     7
100
AcDbLine
 10
513.611817
 20
354.539089
 30
0.0
 11
513.311817
 21
354.539089
 31
0.0
  0
ARC
  5
4D4
330
207
100
AcDbEntity
  8
3_ALL_AXES
  6
Continuous
 62
     7
100
AcDbCircle
 10
513.611817
 20
354.339089
 30
0.0
 40
0.2
100
AcDbArc
 50
0.0
 51
60.0
  0
ARC
  5
4D5
330
207
100
AcDbEntity
  8
3_ALL_AXES
  6
Continuous
 62
     7
100
AcDbCircle
 10
513.611817
 20
354.339089
 30
0.0
 40
0.2
100
AcDbArc
 50
60.0
 51
90.0
  0
LINE
  5
4D6
330
207
100
AcDbEntity
  8
3_ALL_AXES
  6
Continuous
 62
     7
100
AcDbLine
 10
513.811817
 20
342.739089
 30
0.0
 11
513.811817
 21
343.039089
 31
0.0
  0
LINE
  5
4D7
330
207
100
AcDbEntity
  8
3_ALL_AXES
  6
Continuous
 62
     7
100
AcDbLine
 10
513.811817
 20
354.039089
 30
0.0
 11
513.811817
 21
354.339089
 31
0.0
  0
ARC
  5
4D8
330
207
100
AcDbEntity
  8
3_ALL_AXES
  6
Continuous
 62
     7
100
AcDbCircle
 10
514.011817
 20
342.739089
 30
0.0
 40
0.2
100
AcDbArc
 50
180.0
 51
270.0
  0
LINE
  5
4D9
330
207
100
AcDbEntity
  8
3_ALL_AXES
  6
Continuous
 62
     7
100
AcDbLine
 10
514.587804
 20
342.539089
 30
0.0
 11
514.011817
 21
342.539089
 31
0.0
  0
ARC
  5
4DA
330
207
100
AcDbEntity
  8
3_ALL_AXES
  6
Continuous
 62
     7
100
AcDbCircle
 10
514.587803
 20
341.815075
 30
0.0
 40
0.7240143391
100
AcDbArc
 50
0.0001
 51
89.9999
  0
LINE
  5
4DB
330
207
100
AcDbEntity
  8
3_ALL_AXES
  6
Continuous
 62
     7
100
AcDbLine
 10
515.311817
 20
339.539089
 30
0.0
 11
515.311817
 21
341.815076
 31
0.0
  0
ARC
  5
4DC
330
207
100
AcDbEntity
  8
3_ALL_AXES
  6
Continuous
 62
     7
100
AcDbCircle
 10
514.811817
 20
339.539089
 30
0.0
 40
0.5
100
AcDbArc
 50
270.0
 51
360.0
  0
LINE
  5
4DD
330
207
100
AcDbEntity
  8
3_ALL_AXES
  6
Continuous
 62
     7
100
AcDbLine
 10
514.011817
 20
339.039089
 30
0.0
 11
514.811817
 21
339.039089
 31
0.0
  0
ARC
  5
4DE
330
207
100
AcDbEntity
  8
3_ALL_AXES
  6
Continuous
 62
     7
100
AcDbCircle
 10
514.011817
 20
339.239089
 30
0.0
 40
0.2
100
AcDbArc
 50
180.0
 51
270.0
  0
LINE
  5
4DF
330
207
100
AcDbEntity
  8
3_ALL_AXES
  6
Continuous
 62
     7
100
AcDbLine
 10
513.811817
 20
340.339089
 30
0.0
 11
513.811817
 21
340.289089
 31
0.0
  0
LINE
  5
4E0
330
207
100
AcDbEntity
  8
3_ALL_AXES
  6
Continuous
 62
     7
100
AcDbLine
 10
513.811817
 20
340.289089
 30
0.0
 11
513.811817
 21
339.239089
 31
0.0
  0
ARC
  5
4E1
330
207
100
AcDbEntity
  8
3_ALL_AXES
  6
Continuous
 62
     7
100
AcDbCircle
 10
513.611817
 20
340.339089
 30
0.0
 40
0.2
100
AcDbArc
 50
0.0
 51
90.0
  0
LINE
  5
4E2
330
207
100
AcDbEntity
  8
3_ALL_AXES
  6
Continuous
 62
     7
100
AcDbLine
 10
510.811817
 20
340.539089
 30
0.0
 11
513.611817
 21
340.539089
 31
0.0
  0
LINE
  5
4E3
330
207
100
AcDbEntity
  8
3_ALL_AXES
  6
Continuous
 62
     7
100
AcDbLine
 10
513.611817
 20
333.039089
 30
0.0
 11
510.811817
 21
333.039089
 31
0.0
  0
ARC
  5
4E4
330
207
100
AcDbEntity
  8
3_ALL_AXES
  6
Continuous
 62
     7
100
AcDbCircle
 10
513.611817
 20
333.239089
 30
0.0
 40
0.2
100
AcDbArc
 50
330.0
 51
360.0
  0
ARC
  5
4E5
330
207
100
AcDbEntity
  8
3_ALL_AXES
  6
Continuous
 62
     7
100
AcDbCircle
 10
513.611817
 20
333.239089
 30
0.0
 40
0.2
100
AcDbArc
 50
270.0
 51
330.0
  0
LINE
  5
4E6
330
207
100
AcDbEntity
  8
3_ALL_AXES
  6
Continuous
 62
     7
100
AcDbLine
 10
513.811817
 20
334.339089
 30
0.0
 11
513.811817
 21
333.289089
 31
0.0
  0
LINE
  5
4E7
330
207
100
AcDbEntity
  8
3_ALL_AXES
  6
Continuous
 62
     7
100
AcDbLine
 10
513.811817
 20
333.289089
 30
0.0
 11
513.811817
 21
333.239089
 31
0.0
  0
ARC
  5
4E8
330
207
100
AcDbEntity
  8
3_ALL_AXES
  6
Continuous
 62
     7
100
AcDbCircle
 10
514.011817
 20
334.339089
 30
0.0
 40
0.2
100
AcDbArc
 50
90.0
 51
180.0
  0
LINE
  5
4E9
330
207
100
AcDbEntity
  8
3_ALL_AXES
  6
Continuous
 62
     7
100
AcDbLine
 10
514.811817
 20
334.539089
 30
0.0
 11
514.011817
 21
334.539089
 31
0.0
  0
SPLINE
  5
4EA
330
207
100
AcDbEntity
  8
7_ALL_FEATURES
  6
Continuous
 62
     3
100
AcDbSpline
 70
     0
 71
     3
 72
    15
 73
    11
 74
     0
 42
0.000000001
 43
0.0000001
 40
0.0
 40
0.0
 40
0.0
 40
0.0
 40
0.0825429352
 40
0.1945421959
 40
0.3393480347
 40
0.5005593226
 40
0.6614747441
 40
0.8059520745
 40
0.9176777694
 40
1.0
 40
1.0
 40
1.0
 40
1.0
 10
455.4642763732
 20
226.0943408463
 30
0.0
 10
455.4297947953
 20
226.0302339907
 30
0.0
 10
455.3754646372
 20
225.8651959311
 30
0.0
 10
455.3347824444
 20
225.5682478139
 30
0.0
 10
455.3187897178
 20
225.1996453777
 30
0.0
 10
455.3157557105
 20
224.7878960757
 30
0.0
 10
455.3188399429
 20
224.3764372899
 30
0.0
 10
455.3348837323
 20
224.0086281502
 30
0.0
 10
455.3756276264
 20
223.7124192988
 30
0.0
 10
455.429866865
 20
223.5478247937
 30
0.0
 10
455.4642534776
 20
223.4838878593
 30
0.0
  0
SPLINE
  5
4EB
330
207
100
AcDbEntity
  8
7_ALL_FEATURES
  6
Continuous
 62
     3
100
AcDbSpline
 70
     0
 71
     3
 72
    15
 73
    11
 74
     0
 42
0.000000001
 43
0.0000001
 40
0.0
 40
0.0
 40
0.0
 40
0.0
 40
0.0825429352
 40
0.194542196
 40
0.3393480347
 40
0.5005593227
 40
0.6614747442
 40
0.8059520745
 40
0.9176777694
 40
1.0
 40
1.0
 40
1.0
 40
1.0
 10
512.1593577647
 20
223.483836746
 30
0.0
 10
512.1938393426
 20
223.5479436016
 30
0.0
 10
512.2481695007
 20
223.7129816612
 30
0.0
 10
512.2888516935
 20
224.0099297785
 30
0.0
 10
512.3048444201
 20
224.3785322147
 30
0.0
 10
512.3078784274
 20
224.7902815167
 30
0.0
 10
512.304794195
 20
225.2017403026
 30
0.0
 10
512.2887504055
 20
225.5695494423
 30
0.0
 10
512.2480065115
 20
225.8657582936
 30
0.0
 10
512.1937672728
 20
226.0303527986
 30
0.0
 10
512.1593806602
 20
226.0942897331
 30
0.0
  0
SPLINE
  5
4EC
330
207
100
AcDbEntity
  8
7_ALL_FEATURES
  6
Continuous
 62
     3
100
AcDbSpline
 70
     0
 71
     3
 72
    15
 73
    11
 74
     0
 42
0.000000001
 43
0.0000001
 40
0.0
 40
0.0
 40
0.0
 40
0.0
 40
0.0825429352
 40
0.1945421959
 40
0.3393480347
 40
0.5005593226
 40
0.6614747441
 40
0.8059520745
 40
0.9176777694
 40
1.0
 40
1.0
 40
1.0
 40
1.0
 10
512.1593577647
 20
335.4838367459
 30
0.0
 10
512.1938393426
 20
335.5479436016
 30
0.0
 10
512.2481695007
 20
335.7129816611
 30
0.0
 10
512.2888516935
 20
336.0099297783
 30
0.0
 10
512.3048444201
 20
336.3785322145
 30
0.0
 10
512.3078784274
 20
336.7902815165
 30
0.0
 10
512.304794195
 20
337.2017403024
 30
0.0
 10
512.2887504055
 20
337.5695494421
 30
0.0
 10
512.2480065115
 20
337.8657582935
 30
0.0
 10
512.1937672729
 20
338.0303527985
 30
0.0
 10
512.1593806603
 20
338.094289733
 30
0.0
  0
LINE
  5
4ED
330
207
100
AcDbEntity
  8
3_ALL_AXES
  6
Continuous
 62
     3
100
AcDbLine
 10
455.311817
 20
228.389089
 30
0.0
 11
455.311817
 21
228.289089
 31
0.0
  0
LINE
  5
4EE
330
207
100
AcDbEntity
  8
3_ALL_AXES
  6
Continuous
 62
     3
100
AcDbLine
 10
455.311817
 20
228.539089
 30
0.0
 11
455.311817
 21
228.389089
 31
0.0
  0
SPLINE
  5
4EF
330
207
100
AcDbEntity
  8
7_ALL_FEATURES
  6
Continuous
 62
     3
100
AcDbSpline
 70
     0
 71
     3
 72
    15
 73
    11
 74
     0
 42
0.000000001
 43
0.0000001
 40
0.0
 40
0.0
 40
0.0
 40
0.0
 40
0.0825429352
 40
0.1945421959
 40
0.3393480347
 40
0.5005593226
 40
0.6614747441
 40
0.8059520745
 40
0.9176777694
 40
1.0
 40
1.0
 40
1.0
 40
1.0
 10
455.4642763732
 20
338.0943408463
 30
0.0
 10
455.4297947953
 20
338.0302339907
 30
0.0
 10
455.3754646372
 20
337.8651959311
 30
0.0
 10
455.3347824444
 20
337.5682478139
 30
0.0
 10
455.3187897177
 20
337.1996453777
 30
0.0
 10
455.3157557105
 20
336.7878960757
 30
0.0
 10
455.3188399429
 20
336.3764372899
 30
0.0
 10
455.3348837323
 20
336.0086281502
 30
0.0
 10
455.3756276264
 20
335.7124192988
 30
0.0
 10
455.429866865
 20
335.5478247937
 30
0.0
 10
455.4642534776
 20
335.4838878593
 30
0.0
  0
LINE
  5
4F0
330
207
100
AcDbEntity
  8
3_ALL_AXES
  6
Continuous
 62
     3
100
AcDbLine
 10
512.311817
 20
221.189089
 30
0.0
 11
512.311817
 21
221.289089
 31
0.0
  0
LINE
  5
4F1
330
207
100
AcDbEntity
  8
3_ALL_AXES
  6
Continuous
 62
     3
100
AcDbLine
 10
512.311817
 20
221.039089
 30
0.0
 11
512.311817
 21
221.189089
 31
0.0
  0
LINE
  5
4F2
330
207
100
AcDbEntity
  8
3_ALL_AXES
  6
Continuous
 62
     3
100
AcDbLine
 10
512.311817
 20
333.189089
 30
0.0
 11
512.311817
 21
333.289089
 31
0.0
  0
LINE
  5
4F3
330
207
100
AcDbEntity
  8
3_ALL_AXES
  6
Continuous
 62
     3
100
AcDbLine
 10
512.311817
 20
333.039089
 30
0.0
 11
512.311817
 21
333.189089
 31
0.0
  0
LINE
  5
4F4
330
207
100
AcDbEntity
  8
3_ALL_AXES
  6
Continuous
 62
     3
100
AcDbLine
 10
455.311817
 20
340.389089
 30
0.0
 11
455.311817
 21
340.289089
 31
0.0
  0
LINE
  5
4F5
330
207
100
AcDbEntity
  8
3_ALL_AXES
  6
Continuous
 62
     3
100
AcDbLine
 10
455.311817
 20
340.539089
 30
0.0
 11
455.311817
 21
340.389089
 31
0.0
  0
LINE
  5
4F6
330
207
100
AcDbEntity
  8
3_ALL_AXES
  6
Continuous
 62
     3
100
AcDbLine
 10
455.311817
 20
221.039089
 30
0.0
 11
455.311817
 21
221.189089
 31
0.0
  0
LINE
  5
4F7
330
207
100
AcDbEntity
  8
3_ALL_AXES
  6
Continuous
 62
     3
100
AcDbLine
 10
512.311817
 20
228.539089
 30
0.0
 11
512.311817
 21
228.389089
 31
0.0
  0
LINE
  5
4F8
330
207
100
AcDbEntity
  8
3_ALL_AXES
  6
Continuous
 62
     3
100
AcDbLine
 10
512.311817
 20
340.539089
 30
0.0
 11
512.311817
 21
340.389089
 31
0.0
  0
LINE
  5
4F9
330
207
100
AcDbEntity
  8
3_ALL_AXES
  6
Continuous
 62
     3
100
AcDbLine
 10
455.311817
 20
333.039089
 30
0.0
 11
455.311817
 21
333.189089
 31
0.0
  0
DIMENSION
  5
4FA
330
207
100
AcDbEntity
  8
0
  6
Continuous
 62
     7
100
AcDbDimension
280
     0
  2
*D1
 10
43.243877
 20
374.512479
 30
0.0
 11
199.732355
 21
374.512479
 31
0.0
 70
   160
 71
     2
 42
313.0
 73
     0
 74
     0
 75
     0
  3
DIMSTYLE_1
100
AcDbAlignedDimension
 13
356.243877
 23
363.076442
 33
0.0
 14
43.243877
 24
361.90642
 34
0.0
 50
180.0
100
AcDbRotatedDimension
  0
DIMENSION
  5
4FB
330
207
100
AcDbEntity
  8
0
  6
Continuous
 62
     7
100
AcDbDimension
280
     0
  2
*D2
 10
515.311817
 20
373.977333
 30
0.0
 11
483.767011
 21
373.977333
 31
0.0
 70
   160
 71
     2
 42
63.0
 73
     0
 74
     0
 75
     0
  3
DIMSTYLE_2
100
AcDbAlignedDimension
 13
452.311817
 23
361.90642
 33
0.0
 14
515.311817
 24
361.90642
 34
0.0
100
AcDbRotatedDimension
  0
DIMENSION
  5
4FC
330
207
100
AcDbEntity
  8
0
  6
Continuous
 62
     7
100
AcDbDimension
280
     0
  2
*D3
 10
431.780462
 20
204.539089
 30
0.0
 11
431.780462
 21
279.839828
 31
0.0
 70
   160
 71
     2
 42
150.0
 73
     0
 74
     0
 75
     0
  3
DIMSTYLE_1
100
AcDbAlignedDimension
 13
441.553201
 23
354.539089
 33
0.0
 14
443.58481
 24
204.539089
 34
0.0
 50
270.0
100
AcDbRotatedDimension
  0
INSERT
  5
4FD
330
207
100
AcDbEntity
  8
0
  6
Continuous
 62
     2
100
AcDbBlockReference
  2
LOGO2_BL0
 10
507.922935
 20
36.880038
 30
0.0
  0
ACAD_TABLE
  5
4FE
102
{ACAD_XDICTIONARY
360
555
102
}
330
207
100
AcDbEntity
  8
0
  6
Continuous
 62
     2
160
              3336
310
080D000017000000880000001D000000000000000000F03F00000000000000000000000000000000B88561DA8CE17E400000000000000000000000000000F03F0000000000000000231C6715A530494000000000000000000000000000000000000000000000F03F0000000000000000000000000000000000000000000000
310
000000000000000000000000000000F03F54000000200000000200000000000000000000000000000000000000000000000000000000000000008056400000000000000000000000000000000000000000000000000000000000000000000000000000F03F5400000020000000020000000000000000000000000000000000
310
00000000000000000000000000000000000000000000000044C0000000000000000000000000000000000000000000000000000000000000F03F5400000020000000020000000000000000003E4000000000000018C00000000000000000000000000080564000000000000018C00000000000000000000000000000000000
310
00000000000000000000000000F03F5400000020000000020000000000000000003E4000000000000028C00000000000000000000000000080564000000000000028C0000000000000000000000000000000000000000000000000000000000000F03F5400000020000000020000000000000000003E4000000000000036C0
310
0000000000000000000000000080564000000000000036C0000000000000000000000000000000000000000000000000000000000000F03F54000000200000000200000000000000000000000000000000003BC0000000000000000000000000008056400000000000003BC000000000000000000000000000000000000000
310
0000000000000000000000F03F540000002000000002000000000000000000000000000000000044C00000000000000000000000000080564000000000000044C0000000000000000000000000000000000000000000000000000000000000F03F5400000020000000020000000000000000003E4000000000000000000000
310
0000000000000000000000003E400000000000003BC0000000000000000000000000000000000000000000000000000000000000F03F540000002000000002000000000000000080514000000000000000000000000000000000000000000080514000000000000028C0000000000000000000000000000000000000000000
310
000000000000000000F03F540000002000000002000000000000000080564000000000000000000000000000000000000000000080564000000000000044C0000000000000000000000000000000000000000000000000000000000000F03F0C000000100000000B000000C800000026000000F2D24D6210083F4040355EBA
310
490C12C0000000000000000000000000000000000000000000000000000000000000F03F000000000000F03F00000000000000000000000000000000310039003400330032003100000000000C000000010000000000000000000840000000000000F03F0000000000000000000000000000F03F0000000000000000000000
310
000000000000000000000000000000000000000000000000000000000061007200690061006C002E00740074006600000000000000C800000026000000C2F5285C8FC6514075931804560E15C0000000000000000000000000000000000000000000000000000000000000F03F000000000000F03F00000000000000000000
310
0000000000005200650076003A0030003000000000000C000000010000000000000000000C40000000000000F03F0000000000000000000000000000F03F0000000000000000000000000000000000000000000000000000000000000000000000000000000061007200690061006C002E00740074006600000000000000CC
310
00000026000000FA7E6ABC74433F405839B4C8769E26C0000000000000000000000000000000000000000000000000000000000000F03F000000000000F03F000000000000000000000000000000005300630061006C0065003A0031003A003100000012000000010000000000000000000C40000000000000F03F00000000
310
00000000000000000000F03F0000000000000000000000000000000000000000000000000000000000000000000000000000000061007200690061006C002E00740074006600000000000000C0000000260000003333333333DF5140BA490C022B8725C0000000000000000000000000000000000000000000000000000000
310
000000F03F000000000000F03F00000000000000000000000000000000410032000000000004000000010000000000000000000C40000000000000F03F0000000000000000000000000000F03F0000000000000000000000000000000000000000000000000000000000000000000000000000000061007200690061006C00
310
2E00740074006600000000000000F4000000260000000000000000503F407B14AE47E14A32C0000000000000000000000000000000000000000000000000000000000000F03F000000000000F03F000000000000000000000000000000004300410053005300410046002E005400410047004F0020005400520049004D0020
310
0031002E00300020004C003D0033003100330020006D006D0000003A000000010000000000000000000440000000000000F03F0000000000000000000000000000F03F0000000000000000000000000000000000000000000000000000000000000000000000000000000061007200690061006C002E007400740066000000
310
00000000D40000002600000048E17A14AE373F40C3F5285C8FC239C0000000000000000000000000000000000000000000000000000000000000F03F000000000000F03F0000000000000000000000000000000044004100540045003A00300033002E00300033002E003200310000001A0000000100000000000000000004
310
40000000000000F03F0000000000000000000000000000F03F0000000000000000000000000000000000000000000000000000000000000000000000000000000061007200690061006C002E007400740066000000000000002401000026000000CDCCCCCCCCCCF73F0000000000903DC00000000000000000000000000000
310
00000000000000000000000000000000F03F000000000000F03F0000000000000000000000000000000041006E007900200069006E00740065006700720061006C0020006F00720020007000610072007400690061006C00200072006500700072006F00640075006300740069006F006E0073002000610072006500200070
310
0072006F0068006900620069007400650064000000000068000000010000000000000000000240000000000000F03F0000000000000000000000000000F03F0000000000000000000000000000000000000000000000000000000000000000000000000000000061007200690061006C002E00740074006600000000000000
310
2C01000026000000FED478E926B1F73F37894160E57C40C0000000000000000000000000000000000000000000000000000000000000F03F000000000000F03F0000000000000000000000000000000077006900740068006F007500740020007000720069006F007200200061007500740068006F00720069007300610074
310
0069006F006E0020006F00660020004C002000260020004C0020004C007500630065002000260020004C006900670068007400200073002E0072002E006C002E002C00000072000000010000000000000000000240000000000000F03F0000000000000000000000000000F03F000000000000000000000000000000000000
310
0000000000000000000000000000000000000000000061007200690061006C002E007400740066000000000000000401000026000000C1CAA145B673F43F4F1E166A4D3142C0000000000000000000000000000000000000000000000000000000000000F03F000000000000F03F0000000000000000000000000000000069
310
006E0020006100630063006F007200640061006E006300650020007700690074006800200074006800650020006C0061007700200069006E00200066006F007200630065002E000000000048000000010000000000000000000240000000000000F03F0000000000000000000000000000F03F000000000000000000000000
310
0000000000000000000000000000000000000000000000000000000061007200690061006C002E00740074006600000000000000E400000026000000CDCCCCCCCCCCF73F302AA913D0E043C0000000000000000000000000000000000000000000000000000000000000F03F000000000000F03F0000000000000000000000
310
000000000041006C006C0020007200690067006800740073002000720065007300650072007600650064002E000000000028000000010000000000000000000240000000000000F03F0000000000000000000000000000F03F0000000000000000000000000000000000000000000000000000000000000000000000000000
310
000061007200690061006C002E00740074006600000000000000080000001F000000
100
AcDbBlockReference
  2
*T5
 10
494.096888
 20
50.380038
 30
0.0
100
AcDbTable
342
527
343
20E
 11
1.0
 21
0.0
 31
0.0
 90
       22
 91
        5
 92
        5
 93
        0
 94
        0
 95
        0
 96
        0
141
6.0
141
6.0
141
10.0
141
5.0
141
13.0
142
10.0
142
10.0
142
10.0
142
40.0
142
20.0
171
     1
172
     0
173
     0
174
     0
175
     3
176
     4
 91
       32
178
     0
145
0.0
140
3.5
 92
        0
301
CELL_VALUE
 93
        2
 90
        4
  1
 
 94
        0
300

302
 
304
ACVALUE_END
171
     1
172
     0
173
     1
174
     0
175
     1
176
     1
 91
        0
178
     0
145
0.0
 92
        0
301
CELL_VALUE
 93
        3
 90
        0
 91
        0
 94
        0
300

302

304
ACVALUE_END
171
     1
172
     0
173
     1
174
     0
175
     1
176
     1
 91
        0
178
     0
145
0.0
 92
        0
301
CELL_VALUE
 93
        3
 90
        0
 91
        0
 94
        0
300

302

304
ACVALUE_END
171
     1
172
     0
173
     0
174
     0
175
     1
176
     1
 91
       33
178
     0
145
0.0
170
     4
140
3.0
 92
        0
301
CELL_VALUE
 93
        2
 90
        4
  1
194321
 94
        0
300

302
194321
304
ACVALUE_END
171
     1
172
     0
173
     0
174
     0
175
     1
176
     1
 91
       33
178
     0
145
0.0
170
     1
140
3.5
 92
        0
301
CELL_VALUE
 93
        2
 90
        4
  1
Rev:00
 94
        0
300

302
Rev:00
304
ACVALUE_END
171
     1
172
     0
173
     1
174
     0
175
     1
176
     1
 91
        0
178
     0
145
0.0
 92
        0
301
CELL_VALUE
 93
        3
 90
        0
 91
        0
 94
        0
300

302

304
ACVALUE_END
171
     1
172
     0
173
     1
174
     0
175
     1
176
     1
 91
        0
178
     0
145
0.0
 92
        0
301
CELL_VALUE
 93
        3
 90
        0
 91
        0
 94
        0
300

302

304
ACVALUE_END
171
     1
172
     0
173
     1
174
     0
175
     1
176
     1
 91
        0
178
     0
145
0.0
 92
        0
301
CELL_VALUE
 93
        3
 90
        0
 91
        0
 94
        0
300

302

304
ACVALUE_END
171
     1
172
     0
173
     0
174
     0
175
     1
176
     1
 91
       33
178
     0
145
0.0
170
     1
140
3.5
 92
        0
301
CELL_VALUE
 93
        2
 90
        4
  1
Scale:1:1
 94
        0
300

302
Scale:1:1
304
ACVALUE_END
171
     1
172
     0
173
     0
174
     0
175
     1
176
     1
 91
       33
178
     0
145
0.0
170
     4
140
3.5
 92
        0
301
CELL_VALUE
 93
        2
 90
        4
  1
A2
 94
        0
300

302
A2
304
ACVALUE_END
171
     1
172
     0
173
     1
174
     0
175
     1
176
     1
 91
        0
178
     0
145
0.0
 92
        0
301
CELL_VALUE
 93
        3
 90
        0
 91
        0
 94
        0
300

302

304
ACVALUE_END
171
     1
172
     0
173
     1
174
     0
175
     1
176
     1
 91
        0
178
     0
145
0.0
 92
        0
301
CELL_VALUE
 93
        3
 90
        0
 91
        0
 94
        0
300

302

304
ACVALUE_END
171
     1
172
     0
173
     1
174
     0
175
     1
176
     1
 91
        0
178
     0
145
0.0
 92
        0
301
CELL_VALUE
 93
        3
 90
        0
 91
        0
 94
        0
300

302

304
ACVALUE_END
171
     1
172
     0
173
     0
174
     0
175
     2
176
     1
 91
       33
178
     0
145
0.0
170
     4
140
2.5
 92
        0
301
CELL_VALUE
 93
        2
 90
        4
  1
CASSAF.TAGO TRIM 1.0 L=313 mm
 94
        0
300

302
CASSAF.TAGO TRIM 1.0 L=313 mm
304
ACVALUE_END
171
     1
172
     0
173
     1
174
     0
175
     1
176
     1
 91
        0
178
     0
145
0.0
 92
        0
301
CELL_VALUE
 93
        3
 90
        0
 91
        0
 94
        0
300

302

304
ACVALUE_END
171
     1
172
     0
173
     1
174
     0
175
     1
176
     1
 91
        0
178
     0
145
0.0
 92
        0
301
CELL_VALUE
 93
        3
 90
        0
 91
        0
 94
        0
300

302

304
ACVALUE_END
171
     1
172
     0
173
     1
174
     0
175
     1
176
     1
 91
        0
178
     0
145
0.0
 92
        0
301
CELL_VALUE
 93
        3
 90
        0
 91
        0
 94
        0
300

302

304
ACVALUE_END
171
     1
172
     0
173
     1
174
     0
175
     1
176
     1
 91
        0
178
     0
145
0.0
 92
        0
301
CELL_VALUE
 93
        3
 90
        0
 91
        0
 94
        0
300

302

304
ACVALUE_END
171
     1
172
     0
173
     0
174
     0
175
     2
176
     1
 91
       33
178
     0
145
0.0
170
     4
140
2.5
 92
        0
301
CELL_VALUE
 93
        2
 90
        4
  1
DATE:03.03.21
 94
        0
300

302
DATE:03.03.21
304
ACVALUE_END
171
     1
172
     0
173
     1
174
     0
175
     1
176
     1
 91
        0
178
     0
145
0.0
 92
        0
301
CELL_VALUE
 93
        3
 90
        0
 91
        0
 94
        0
300

302

304
ACVALUE_END
171
     1
172
     0
173
     0
174
     0
175
     5
176
     1
 91
       33
178
     0
145
0.0
170
     4
140
2.25
 92
        0
301
CELL_VALUE
 93
        2
 90
        4
  1
Any integral or partial reproductions are prohibited \Pwithout prior authorisation of L & L Luce & Light s.r.l., \Pin accordance with the law in force. \PAll rights reserved.
 94
        0
300

302
Any integral or partial reproductions are prohibited \Pwithout prior authorisation of L & L Luce & Light s.r.l., \Pin accordance with the law in force. \PAll rights reserved.
304
ACVALUE_END
171
     1
172
     0
173
     1
174
     0
175
     1
176
     1
 91
        0
178
     0
145
0.0
 92
        0
301
CELL_VALUE
 93
        3
 90
        0
 91
        0
 94
        0
300

302

304
ACVALUE_END
171
     1
172
     0
173
     1
174
     0
175
     1
176
     1
 91
        0
178
     0
145
0.0
 92
        0
301
CELL_VALUE
 93
        3
 90
        0
 91
        0
 94
        0
300

302

304
ACVALUE_END
171
     1
172
     0
173
     1
174
     0
175
     1
176
     1
 91
        0
178
     0
145
0.0
 92
        0
301
CELL_VALUE
 93
        3
 90
        0
 91
        0
 94
        0
300

302

304
ACVALUE_END
171
     1
172
     0
173
     1
174
     0
175
     1
176
     1
 91
        0
178
     0
145
0.0
 92
        0
301
CELL_VALUE
 93
        3
 90
        0
 91
        0
 94
        0
300

302

304
ACVALUE_END
  0
ENDSEC
  0
SECTION
  2
OBJECTS
  0
DICTIONARY
  5
C
330
0
100
AcDbDictionary
281
     1
  3
ACAD_DETAILVIEWSTYLE
350
58E
  3
ACAD_GROUP
350
D
  3
ACAD_IMAGE_DICT
350
54E
  3
ACAD_LAYOUT
350
1A
  3
ACAD_MATERIAL
350
542
  3
ACAD_MLEADERSTYLE
350
58D
  3
ACAD_MLINESTYLE
350
17
  3
ACAD_PLOTSETTINGS
350
19
  3
ACAD_PLOTSTYLENAME
350
E
  3
ACAD_SCALELIST
350
504
  3
ACAD_SECTIONVIEWSTYLE
350
58F
  3
ACAD_TABLESTYLE
350
526
  3
ACAD_VISUALSTYLE
350
529
  3
ACDB_RECOMPOSE_DATA
350
58B
  3
AcDbVariableDictionary
350
557
  3
HOST_DOC_SETTINGS
350
54C
  3
MCS_STREAM_DICT
350
548
  0
SUN
  5
54B
330
1F4
100
AcDbSun
 90
        1
290
     0
 63
     7
421
 16777215
 40
1.0
291
     1
 91
  2455826
 92
 54000000
292
     0
 70
     2
 71
   256
280
     1
  0
DICTIONARY
  5
555
330
4FE
100
AcDbDictionary
280
     1
281
     1
  3
ACAD_XREC_ROUNDTRIP
360
556
  0
DICTIONARY
  5
58E
102
{ACAD_REACTORS
330
C
102
}
330
C
100
AcDbDictionary
281
     1
  0
DICTIONARY
  5
D
102
{ACAD_REACTORS
330
C
102
}
330
C
100
AcDbDictionary
281
     1
  0
DICTIONARY
  5
54E
102
{ACAD_REACTORS
330
C
102
}
330
C
100
AcDbDictionary
281
     1
  0
DICTIONARY
  5
1A
102
{ACAD_REACTORS
330
C
102
}
330
C
100
AcDbDictionary
281
     1
  3
Layout1
350
501
  3
Model
350
500
  0
DICTIONARY
  5
542
102
{ACAD_REACTORS
330
C
102
}
330
C
100
AcDbDictionary
281
     1
  3
ByBlock
350
544
  3
ByLayer
350
543
  3
Global
350
545
  0
DICTIONARY
  5
58D
102
{ACAD_REACTORS
330
C
102
}
330
C
100
AcDbDictionary
281
     1
  0
DICTIONARY
  5
17
102
{ACAD_REACTORS
330
C
102
}
330
C
100
AcDbDictionary
281
     1
  3
Standard
350
18
  0
DICTIONARY
  5
19
102
{ACAD_REACTORS
330
C
102
}
330
C
100
AcDbDictionary
281
     1
  0
ACDBDICTIONARYWDFLT
  5
E
102
{ACAD_REACTORS
330
C
102
}
330
C
100
AcDbDictionary
281
     1
  3
Normal
350
F
100
AcDbDictionaryWithDefault
340
F
  0
DICTIONARY
  5
504
102
{ACAD_REACTORS
330
C
102
}
330
C
100
AcDbDictionary
281
     1
  3
A0
350
505
  3
A1
350
506
  3
A2
350
507
  3
A3
350
508
  3
A4
350
509
  3
A5
350
50A
  3
A6
350
50B
  3
A7
350
50C
  3
A8
350
50D
  3
A9
350
50E
  3
B0
350
50F
  3
B1
350
510
  3
B2
350
511
  3
B3
350
512
  3
B4
350
513
  3
B5
350
514
  3
B6
350
515
  3
B7
350
516
  3
B8
350
517
  3
B9
350
518
  3
C0
350
519
  3
C1
350
51A
  3
C2
350
51B
  3
C3
350
51C
  3
C4
350
51D
  3
C5
350
51E
  3
C6
350
51F
  3
C7
350
520
  3
C8
350
521
  3
C9
350
522
  3
D0
350
523
  3
D1
350
524
  3
D2
350
525
  0
DICTIONARY
  5
58F
102
{ACAD_REACTORS
330
C
102
}
330
C
100
AcDbDictionary
281
     1
  0
DICTIONARY
  5
526
102
{ACAD_REACTORS
330
C
102
}
330
C
100
AcDbDictionary
281
     1
  3
Standard
350
527
  0
DICTIONARY
  5
529
102
{ACAD_REACTORS
330
C
102
}
330
C
100
AcDbDictionary
281
     1
  3
2dWireframe
350
52E
  3
Basic
350
531
  3
Brighten
350
535
  3
ColorChange
350
539
  3
Conceptual
350
533
  3
Dim
350
534
  3
EdgeColorOff
350
53C
  3
Facepattern
350
538
  3
Flat
350
52A
  3
FlatWithEdges
350
52B
  3
Gouraud
350
52C
  3
GouraudWithEdges
350
52D
  3
Hidden
350
530
  3
JitterOff
350
53A
  3
Linepattern
350
537
  3
OverhangOff
350
53B
  3
Realistic
350
532
  3
Shaded
350
541
  3
Shaded with edges
350
540
  3
Shades of Gray
350
53D
  3
Sketchy
350
53E
  3
Thicken
350
536
  3
Wireframe
350
52F
  3
X-Ray
350
53F
  0
XRECORD
  5
58B
102
{ACAD_REACTORS
330
C
102
}
330
C
100
AcDbXrecord
280
     1
 90
        1
330
4FE
330
527
  0
DICTIONARY
  5
557
102
{ACAD_REACTORS
330
C
102
}
330
C
100
AcDbDictionary
281
     1
  3
CANNOSCALE
350
558
  3
CTABLESTYLE
350
58C
  0
DICTIONARY
  5
54C
102
{ACAD_REACTORS
330
C
102
}
330
C
100
AcDbDictionary
281
     1
  3
NCDocParameters
350
54D
  0
DICTIONARY
  5
548
102
{ACAD_REACTORS
330
C
102
}
330
C
100
AcDbDictionary
281
     1
  3
MC_VERSION_DATA
350
551
  3
MCS_DOCUMENT_ID
350
549
  3
MCS_PARAMS_DATA
350
54F
  0
XRECORD
  5
556
102
{ACAD_REACTORS
330
555
102
}
330
555
100
AcDbXrecord
280
     1
102
ACAD_ROUNDTRIP_2008_TABLE_ENTITY
360
553
 70
     2
 90
        1
 10
0.0
 20
0.0
 30
0.0
 90
        0
 90
        4
361
554
  0
LAYOUT
  5
501
102
{ACAD_REACTORS
330
1A
102
}
330
1A
100
AcDbPlotSettings
  1

  2
none_device
  4
ISO_A2_(594.00_x_420.00_MM)
  6

 40
0.0
 41
0.0
 42
0.0
 43
0.0
 44
594.0
 45
420.0
 46
0.0
 47
0.0
 48
0.0
 49
0.0
140
0.0
141
0.0
142
1.0
143
1.0
 70
     0
 72
     1
 73
     0
 74
     0
  7

 75
     0
 76
     0
 77
     2
 78
   300
147
1.0
148
0.0
149
0.0
100
AcDbLayout
  1
Layout1
 70
     0
 71
     1
 10
0.0
 20
0.0
 11
594.0
 21
420.0
 12
0.0
 22
0.0
 32
0.0
 14
0.0
 24
0.0
 34
0.0
 15
0.0
 25
0.0
 35
0.0
146
0.0
 13
0.0
 23
0.0
 33
0.0
 16
1.0
 26
0.0
 36
0.0
 17
0.0
 27
1.0
 37
0.0
 76
     0
330
208
  0
LAYOUT
  5
500
102
{ACAD_REACTORS
330
1A
102
}
330
1A
100
AcDbPlotSettings
  1

  2
none_device
  4
ISO_A2_(594.00_x_420.00_MM)
  6

 40
0.0
 41
0.0
 42
0.0
 43
0.0
 44
594.0
 45
420.0
 46
0.0
 47
0.0
 48
0.0
 49
0.0
140
0.0
141
0.0
142
1.0
143
1.0
 70
  1024
 72
     1
 73
     0
 74
     0
  7

 75
     0
 76
     0
 77
     2
 78
   300
147
1.0
148
0.0
149
0.0
100
AcDbLayout
  1
Model
 70
     0
 71
     0
 10
0.0
 20
0.0
 11
594.0
 21
420.0
 12
0.0
 22
0.0
 32
0.0
 14
0.0
 24
0.0
 34
0.0
 15
0.0
 25
0.0
 35
0.0
146
0.0
 13
0.0
 23
0.0
 33
0.0
 16
1.0
 26
0.0
 36
0.0
 17
0.0
 27
1.0
 37
0.0
 76
     0
330
207
331
1F4
  0
MATERIAL
  5
544
102
{ACAD_REACTORS
330
542
102
}
330
542
100
AcDbMaterial
  1
ByBlock
 72
     1
 94
      127
  0
MATERIAL
  5
543
102
{ACAD_REACTORS
330
542
102
}
330
542
100
AcDbMaterial
  1
ByLayer
 72
     1
 94
      127
  0
MATERIAL
  5
545
102
{ACAD_REACTORS
330
542
102
}
330
542
100
AcDbMaterial
  1
Global
 72
     1
 94
      127
  0
MLINESTYLE
  5
18
102
{ACAD_REACTORS
330
17
102
}
330
17
100
AcDbMlineStyle
  2
STANDARD
 70
     0
  3

 62
   256
 51
90.0
 52
90.0
 71
     2
 49
0.5
 62
   256
  6
BYLAYER
 49
-0.5
 62
   256
  6
BYLAYER
  0
ACDBPLACEHOLDER
  5
F
102
{ACAD_REACTORS
330
E
102
}
330
E
  0
SCALE
  5
505
102
{ACAD_REACTORS
330
504
102
}
330
504
100
AcDbScale
 70
     0
300
1:1
140
1.0
141
1.0
290
     1
  0
SCALE
  5
506
102
{ACAD_REACTORS
330
504
102
}
330
504
100
AcDbScale
 70
     0
300
1:2
140
1.0
141
2.0
290
     0
  0
SCALE
  5
507
102
{ACAD_REACTORS
330
504
102
}
330
504
100
AcDbScale
 70
     0
300
1:4
140
1.0
141
4.0
290
     0
  0
SCALE
  5
508
102
{ACAD_REACTORS
330
504
102
}
330
504
100
AcDbScale
 70
     0
300
1:5
140
1.0
141
5.0
290
     0
  0
SCALE
  5
509
102
{ACAD_REACTORS
330
504
102
}
330
504
100
AcDbScale
 70
     0
300
1:8
140
1.0
141
8.0
290
     0
  0
SCALE
  5
50A
102
{ACAD_REACTORS
330
504
102
}
330
504
100
AcDbScale
 70
     0
300
1:10
140
1.0
141
10.0
290
     0
  0
SCALE
  5
50B
102
{ACAD_REACTORS
330
504
102
}
330
504
100
AcDbScale
 70
     0
300
1:16
140
1.0
141
16.0
290
     0
  0
SCALE
  5
50C
102
{ACAD_REACTORS
330
504
102
}
330
504
100
AcDbScale
 70
     0
300
1:20
140
1.0
141
20.0
290
     0
  0
SCALE
  5
50D
102
{ACAD_REACTORS
330
504
102
}
330
504
100
AcDbScale
 70
     0
300
1:30
140
1.0
141
30.0
290
     0
  0
SCALE
  5
50E
102
{ACAD_REACTORS
330
504
102
}
330
504
100
AcDbScale
 70
     0
300
1:40
140
1.0
141
40.0
290
     0
  0
SCALE
  5
50F
102
{ACAD_REACTORS
330
504
102
}
330
504
100
AcDbScale
 70
     0
300
1:50
140
1.0
141
50.0
290
     0
  0
SCALE
  5
510
102
{ACAD_REACTORS
330
504
102
}
330
504
100
AcDbScale
 70
     0
300
1:100
140
1.0
141
100.0
290
     0
  0
SCALE
  5
511
102
{ACAD_REACTORS
330
504
102
}
330
504
100
AcDbScale
 70
     0
300
2:1
140
2.0
141
1.0
290
     0
  0
SCALE
  5
512
102
{ACAD_REACTORS
330
504
102
}
330
504
100
AcDbScale
 70
     0
300
4:1
140
4.0
141
1.0
290
     0
  0
SCALE
  5
513
102
{ACAD_REACTORS
330
504
102
}
330
504
100
AcDbScale
 70
     0
300
8:1
140
8.0
141
1.0
290
     0
  0
SCALE
  5
514
102
{ACAD_REACTORS
330
504
102
}
330
504
100
AcDbScale
 70
     0
300
10:1
140
10.0
141
1.0
290
     0
  0
SCALE
  5
515
102
{ACAD_REACTORS
330
504
102
}
330
504
100
AcDbScale
 70
     0
300
100:1
140
100.0
141
1.0
290
     0
  0
SCALE
  5
516
102
{ACAD_REACTORS
330
504
102
}
330
504
100
AcDbScale
 70
     0
300
1/128" = 1'-0"
140
0.007812
141
12.0
290
     0
  0
SCALE
  5
517
102
{ACAD_REACTORS
330
504
102
}
330
504
100
AcDbScale
 70
     0
300
1/64" = 1'-0"
140
0.015625
141
12.0
290
     0
  0
SCALE
  5
518
102
{ACAD_REACTORS
330
504
102
}
330
504
100
AcDbScale
 70
     0
300
1/32" = 1'-0"
140
0.03125
141
12.0
290
     0
  0
SCALE
  5
519
102
{ACAD_REACTORS
330
504
102
}
330
504
100
AcDbScale
 70
     0
300
1/16" = 1'-0"
140
0.0625
141
12.0
290
     0
  0
SCALE
  5
51A
102
{ACAD_REACTORS
330
504
102
}
330
504
100
AcDbScale
 70
     0
300
3/32" = 1'-0"
140
0.09375
141
12.0
290
     0
  0
SCALE
  5
51B
102
{ACAD_REACTORS
330
504
102
}
330
504
100
AcDbScale
 70
     0
300
1/8" = 1'-0"
140
0.125
141
12.0
290
     0
  0
SCALE
  5
51C
102
{ACAD_REACTORS
330
504
102
}
330
504
100
AcDbScale
 70
     0
300
3/16" = 1'-0"
140
0.1875
141
12.0
290
     0
  0
SCALE
  5
51D
102
{ACAD_REACTORS
330
504
102
}
330
504
100
AcDbScale
 70
     0
300
1/4" = 1'-0"
140
0.25
141
12.0
290
     0
  0
SCALE
  5
51E
102
{ACAD_REACTORS
330
504
102
}
330
504
100
AcDbScale
 70
     0
300
3/8" = 1'-0"
140
0.375
141
12.0
290
     0
  0
SCALE
  5
51F
102
{ACAD_REACTORS
330
504
102
}
330
504
100
AcDbScale
 70
     0
300
1/2" = 1'-0"
140
0.5
141
12.0
290
     0
  0
SCALE
  5
520
102
{ACAD_REACTORS
330
504
102
}
330
504
100
AcDbScale
 70
     0
300
3/4" = 1'-0"
140
0.75
141
12.0
290
     0
  0
SCALE
  5
521
102
{ACAD_REACTORS
330
504
102
}
330
504
100
AcDbScale
 70
     0
300
1" = 1'-0"
140
1.0
141
12.0
290
     0
  0
SCALE
  5
522
102
{ACAD_REACTORS
330
504
102
}
330
504
100
AcDbScale
 70
     0
300
1-1/2" = 1'-0"
140
1.5
141
12.0
290
     0
  0
SCALE
  5
523
102
{ACAD_REACTORS
330
504
102
}
330
504
100
AcDbScale
 70
     0
300
3" = 1'-0"
140
3.0
141
12.0
290
     0
  0
SCALE
  5
524
102
{ACAD_REACTORS
330
504
102
}
330
504
100
AcDbScale
 70
     0
300
6" = 1'-0"
140
6.0
141
12.0
290
     0
  0
SCALE
  5
525
102
{ACAD_REACTORS
330
504
102
}
330
504
100
AcDbScale
 70
     0
300
1'-0" = 1'-0"
140
12.0
141
12.0
290
     0
  0
TABLESTYLE
  5
527
102
{ACAD_REACTORS
330
526
102
}
102
{ACAD_XDICTIONARY
360
559
102
}
330
526
100
AcDbTableStyle
  3
Standard
 70
     0
 71
     0
 40
0.06
 41
0.06
280
     0
281
     0
  7
STANDARD
140
4.5
170
     2
 62
     0
 63
   257
283
     0
 90
        4
 91
        0
  1

274
    -2
284
     1
 64
     0
275
    -2
285
     1
 65
     0
276
    -2
286
     1
 66
     0
277
    -2
287
     1
 67
     0
278
    -2
288
     1
 68
     0
279
    -2
289
     1
 69
     0
  7
STANDARD
140
6.0
170
     5
 62
     0
 63
   257
283
     0
 90
        4
 91
        0
  1

274
    -2
284
     1
 64
     0
275
    -2
285
     1
 65
     0
276
    -2
286
     1
 66
     0
277
    -2
287
     1
 67
     0
278
    -2
288
     1
 68
     0
279
    -2
289
     1
 69
     0
  7
STANDARD
140
4.5
170
     5
 62
     0
 63
   257
283
     0
 90
        4
 91
        0
  1

274
    -2
284
     1
 64
     0
275
    -2
285
     1
 65
     0
276
    -2
286
     1
 66
     0
277
    -2
287
     1
 67
     0
278
    -2
288
     1
 68
     0
279
    -2
289
     1
 69
     0
  0
VISUALSTYLE
  5
52E
102
{ACAD_REACTORS
330
529
102
}
102
{ACAD_XDICTIONARY
360
563
102
}
330
529
100
AcDbVisualStyle
  2
2dWireframe
 70
     4
177
     2
291
     0
 71
     0
176
     1
 72
     2
176
     1
 73
     0
176
     1
 90
        0
176
     1
 40
0.6
176
     1
 41
30.0
176
     1
 62
     5
 63
     7
421
 16777215
176
     1
 74
     1
176
     1
 91
        4
176
     1
 64
     7
176
     1
 65
   257
176
     1
 75
     1
176
     1
175
     1
176
     1
 42
1.0
176
     1
 92
        0
176
     1
 66
   257
176
     1
 43
1.0
176
     1
 76
     1
176
     1
 77
     6
176
     1
 78
     2
176
     1
 67
     7
176
     1
 79
     5
176
     1
170
     0
176
     1
171
     0
176
     1
290
     0
176
     1
 93
        1
176
     1
 44
0.0
176
     1
173
     0
176
     1
  0
VISUALSTYLE
  5
531
102
{ACAD_REACTORS
330
529
102
}
102
{ACAD_XDICTIONARY
360
569
102
}
330
529
100
AcDbVisualStyle
  2
Basic
 70
     7
177
     2
291
     1
 71
     1
176
     1
 72
     0
176
     1
 73
     1
176
     1
 90
        0
176
     1
 40
0.6
176
     1
 41
30.0
176
     1
 62
     5
 63
     7
421
 16777215
176
     1
 74
     0
176
     1
 91
        4
176
     1
 64
     7
176
     1
 65
   257
176
     1
 75
     1
176
     1
175
     1
176
     1
 42
1.0
176
     1
 92
        8
176
     1
 66
     7
176
     1
 43
1.0
176
     1
 76
     1
176
     1
 77
     6
176
     1
 78
     2
176
     1
 67
     7
176
     1
 79
     5
176
     1
170
     0
176
     1
171
     0
176
     1
290
     0
176
     1
 93
        1
176
     1
 44
0.0
176
     1
173
     0
176
     1
  0
VISUALSTYLE
  5
535
102
{ACAD_REACTORS
330
529
102
}
102
{ACAD_XDICTIONARY
360
571
102
}
330
529
100
AcDbVisualStyle
  2
Brighten
 70
    12
177
     2
291
     1
 71
     2
176
     1
 72
     2
176
     1
 73
     0
176
     1
 90
        0
176
     1
 40
0.6
176
     1
 41
30.0
176
     1
 62
     5
 63
     7
421
 16777215
176
     1
 74
     1
176
     1
 91
        4
176
     1
 64
     7
176
     1
 65
   257
176
     1
 75
     1
176
     1
175
     1
176
     1
 42
1.0
176
     1
 92
        8
176
     1
 66
     7
176
     1
 43
1.0
176
     1
 76
     1
176
     1
 77
     6
176
     1
 78
     2
176
     1
 67
     7
176
     1
 79
     5
176
     1
170
     0
176
     1
171
     0
176
     1
290
     0
176
     1
 93
        1
176
     1
 44
50.0
176
     1
173
     0
176
     1
  0
VISUALSTYLE
  5
539
102
{ACAD_REACTORS
330
529
102
}
102
{ACAD_XDICTIONARY
360
579
102
}
330
529
100
AcDbVisualStyle
  2
ColorChange
 70
    16
177
     2
291
     1
 71
     2
176
     1
 72
     2
176
     1
 73
     3
176
     1
 90
        0
176
     1
 40
0.6
176
     1
 41
30.0
176
     1
 62
     5
 63
     8
421
  8421504
176
     1
 74
     1
176
     1
 91
        4
176
     1
 64
     7
176
     1
 65
   257
176
     1
 75
     1
176
     1
175
     1
176
     1
 42
1.0
176
     1
 92
        8
176
     1
 66
     8
424
  8421504
176
     1
 43
1.0
176
     1
 76
     1
176
     1
 77
     6
176
     1
 78
     2
176
     1
 67
     7
176
     1
 79
     5
176
     1
170
     0
176
     1
171
     0
176
     1
290
     0
176
     1
 93
        1
176
     1
 44
0.0
176
     1
173
     0
176
     1
  0
VISUALSTYLE
  5
533
102
{ACAD_REACTORS
330
529
102
}
102
{ACAD_XDICTIONARY
360
56D
102
}
330
529
100
AcDbVisualStyle
  2
Conceptual
 70
     9
177
     2
291
     0
 71
     3
176
     1
 72
     2
176
     1
 73
     0
176
     1
 90
        0
176
     1
 40
0.6
176
     1
 41
30.0
176
     1
 62
     5
 63
     7
421
 16777215
176
     1
 74
     2
176
     1
 91
        2
176
     1
 64
     7
176
     1
 65
   257
176
     1
 75
     1
176
     1
175
     1
176
     1
 42
179.0
176
     1
 92
        8
176
     1
 66
     7
176
     1
 43
1.0
176
     1
 76
     1
176
     1
 77
     6
176
     1
 78
     2
176
     1
 67
     7
176
     1
 79
     3
176
     1
170
     0
176
     1
171
     0
176
     1
290
     0
176
     1
 93
        1
176
     1
 44
0.0
176
     1
173
     0
176
     1
  0
VISUALSTYLE
  5
534
102
{ACAD_REACTORS
330
529
102
}
102
{ACAD_XDICTIONARY
360
56F
102
}
330
529
100
AcDbVisualStyle
  2
Dim
 70
    11
177
     2
291
     1
 71
     2
176
     1
 72
     2
176
     1
 73
     0
176
     1
 90
        0
176
     1
 40
0.6
176
     1
 41
30.0
176
     1
 62
     5
 63
     7
421
 16777215
176
     1
 74
     1
176
     1
 91
        4
176
     1
 64
     7
176
     1
 65
   257
176
     1
 75
     1
176
     1
175
     1
176
     1
 42
1.0
176
     1
 92
        8
176
     1
 66
     7
176
     1
 43
1.0
176
     1
 76
     1
176
     1
 77
     6
176
     1
 78
     2
176
     1
 67
     7
176
     1
 79
     5
176
     1
170
     0
176
     1
171
     0
176
     1
290
     0
176
     1
 93
        1
176
     1
 44
-50.0
176
     1
173
     0
176
     1
  0
VISUALSTYLE
  5
53C
102
{ACAD_REACTORS
330
529
102
}
102
{ACAD_XDICTIONARY
360
57F
102
}
330
529
100
AcDbVisualStyle
  2
EdgeColorOff
 70
    22
177
     2
291
     1
 71
     2
176
     0
 72
     2
176
     0
 73
     0
176
     0
 90
        0
176
     0
 40
0.6
176
     0
 41
30.0
176
     0
 62
     5
 63
     7
421
 16777215
176
     0
 74
     1
176
     0
 91
        4
176
     0
 64
     7
176
     0
 65
   257
176
     0
 75
     1
176
     0
175
     1
176
     0
 42
1.0
176
     0
 92
        8
176
     2
 66
     7
176
     0
 43
1.0
176
     0
 76
     1
176
     0
 77
     6
176
     0
 78
     2
176
     0
 67
     7
176
     0
 79
     5
176
     0
170
     0
176
     0
171
     0
176
     0
290
     0
176
     0
 93
        1
176
     0
 44
0.0
176
     0
173
     0
176
     0
  0
VISUALSTYLE
  5
538
102
{ACAD_REACTORS
330
529
102
}
102
{ACAD_XDICTIONARY
360
577
102
}
330
529
100
AcDbVisualStyle
  2
Facepattern
 70
    15
177
     2
291
     1
 71
     2
176
     1
 72
     2
176
     1
 73
     0
176
     1
 90
        0
176
     1
 40
0.6
176
     1
 41
30.0
176
     1
 62
     5
 63
     7
421
 16777215
176
     1
 74
     1
176
     1
 91
        4
176
     1
 64
     7
176
     1
 65
   257
176
     1
 75
     1
176
     1
175
     1
176
     1
 42
1.0
176
     1
 92
        8
176
     1
 66
     7
176
     1
 43
1.0
176
     1
 76
     1
176
     1
 77
     6
176
     1
 78
     2
176
     1
 67
     7
176
     1
 79
     5
176
     1
170
     0
176
     1
171
     0
176
     1
290
     0
176
     1
 93
        1
176
     1
 44
0.0
176
     1
173
     0
176
     1
  0
VISUALSTYLE
  5
52A
102
{ACAD_REACTORS
330
529
102
}
102
{ACAD_XDICTIONARY
360
55B
102
}
330
529
100
AcDbVisualStyle
  2
Flat
 70
     0
177
     2
291
     1
 71
     2
176
     1
 72
     1
176
     1
 73
     1
176
     1
 90
        2
176
     1
 40
0.6
176
     1
 41
30.0
176
     1
 62
     5
 63
     7
421
 16777215
176
     1
 74
     0
176
     1
 91
        0
176
     1
 64
     7
176
     1
 65
   257
176
     1
 75
     1
176
     1
175
     1
176
     1
 42
1.0
176
     1
 92
        8
176
     1
 66
     7
176
     1
 43
1.0
176
     1
 76
     1
176
     1
 77
     6
176
     1
 78
     2
176
     1
 67
     7
176
     1
 79
     5
176
     1
170
     0
176
     1
171
     0
176
     1
290
     0
176
     1
 93
       13
176
     1
 44
0.0
176
     1
173
     0
176
     1
  0
VISUALSTYLE
  5
52B
102
{ACAD_REACTORS
330
529
102
}
102
{ACAD_XDICTIONARY
360
55D
102
}
330
529
100
AcDbVisualStyle
  2
FlatWithEdges
 70
     1
177
     2
291
     1
 71
     2
176
     1
 72
     1
176
     1
 73
     1
176
     1
 90
        2
176
     1
 40
0.6
176
     1
 41
30.0
176
     1
 62
     5
 63
     7
421
 16777215
176
     1
 74
     1
176
     1
 91
        0
176
     1
 64
     7
176
     1
 65
   257
176
     1
 75
     1
176
     1
175
     1
176
     1
 42
1.0
176
     1
 92
        0
176
     1
 66
   257
176
     1
 43
1.0
176
     1
 76
     1
176
     1
 77
     6
176
     1
 78
     2
176
     1
 67
     7
176
     1
 79
     5
176
     1
170
     0
176
     1
171
     0
176
     1
290
     0
176
     1
 93
       13
176
     1
 44
0.0
176
     1
173
     0
176
     1
  0
VISUALSTYLE
  5
52C
102
{ACAD_REACTORS
330
529
102
}
102
{ACAD_XDICTIONARY
360
55F
102
}
330
529
100
AcDbVisualStyle
  2
Gouraud
 70
     2
177
     2
291
     1
 71
     2
176
     1
 72
     2
176
     1
 73
     1
176
     1
 90
        2
176
     1
 40
0.6
176
     1
 41
30.0
176
     1
 62
     5
 63
     7
421
 16777215
176
     1
 74
     0
176
     1
 91
        0
176
     1
 64
     7
176
     1
 65
   257
176
     1
 75
     1
176
     1
175
     1
176
     1
 42
1.0
176
     1
 92
        0
176
     1
 66
     7
176
     1
 43
1.0
176
     1
 76
     1
176
     1
 77
     6
176
     1
 78
     2
176
     1
 67
     7
176
     1
 79
     5
176
     1
170
     0
176
     1
171
     0
176
     1
290
     0
176
     1
 93
       13
176
     1
 44
0.0
176
     1
173
     0
176
     1
  0
VISUALSTYLE
  5
52D
102
{ACAD_REACTORS
330
529
102
}
102
{ACAD_XDICTIONARY
360
561
102
}
330
529
100
AcDbVisualStyle
  2
GouraudWithEdges
 70
     3
177
     2
291
     1
 71
     2
176
     1
 72
     2
176
     1
 73
     1
176
     1
 90
        2
176
     1
 40
0.6
176
     1
 41
30.0
176
     1
 62
     5
 63
     7
421
 16777215
176
     1
 74
     1
176
     1
 91
        0
176
     1
 64
     7
176
     1
 65
   257
176
     1
 75
     1
176
     1
175
     1
176
     1
 42
1.0
176
     1
 92
        0
176
     1
 66
   257
176
     1
 43
1.0
176
     1
 76
     1
176
     1
 77
     6
176
     1
 78
     2
176
     1
 67
     7
176
     1
 79
     5
176
     1
170
     0
176
     1
171
     0
176
     1
290
     0
176
     1
 93
       13
176
     1
 44
0.0
176
     1
173
     0
176
     1
  0
VISUALSTYLE
  5
530
102
{ACAD_REACTORS
330
529
102
}
102
{ACAD_XDICTIONARY
360
567
102
}
330
529
100
AcDbVisualStyle
  2
Hidden
 70
     6
177
     2
291
     0
 71
     1
176
     1
 72
     2
176
     1
 73
     2
176
     1
 90
        0
176
     1
 40
0.6
176
     1
 41
30.0
176
     1
 62
     5
 63
     7
421
 16777215
176
     1
 74
     2
176
     1
 91
        2
176
     1
 64
     7
176
     1
 65
   257
176
     1
 75
     2
176
     1
175
     1
176
     1
 42
40.0
176
     1
 92
        0
176
     1
 66
   257
176
     1
 43
1.0
176
     1
 76
     1
176
     1
 77
     6
176
     1
 78
     2
176
     1
 67
     7
176
     1
 79
     3
176
     1
170
     0
176
     1
171
     0
176
     1
290
     0
176
     1
 93
        1
176
     1
 44
0.0
176
     1
173
     0
176
     1
  0
VISUALSTYLE
  5
53A
102
{ACAD_REACTORS
330
529
102
}
102
{ACAD_XDICTIONARY
360
57B
102
}
330
529
100
AcDbVisualStyle
  2
JitterOff
 70
    20
177
     2
291
     1
 71
     2
176
     0
 72
     2
176
     0
 73
     0
176
     0
 90
        0
176
     0
 40
0.6
176
     0
 41
30.0
176
     0
 62
     5
 63
     7
421
 16777215
176
     0
 74
     1
176
     0
 91
        4
176
     0
 64
     7
176
     0
 65
   257
176
     0
 75
     1
176
     0
175
     1
176
     0
 42
1.0
176
     0
 92
       10
176
     2
 66
     7
176
     0
 43
1.0
176
     0
 76
     1
176
     0
 77
     6
176
     0
 78
     2
176
     0
 67
     7
176
     0
 79
     5
176
     0
170
     0
176
     0
171
     0
176
     0
290
     0
176
     0
 93
        1
176
     0
 44
0.0
176
     0
173
     0
176
     0
  0
VISUALSTYLE
  5
537
102
{ACAD_REACTORS
330
529
102
}
102
{ACAD_XDICTIONARY
360
575
102
}
330
529
100
AcDbVisualStyle
  2
Linepattern
 70
    14
177
     2
291
     1
 71
     2
176
     1
 72
     2
176
     1
 73
     0
176
     1
 90
        0
176
     1
 40
0.6
176
     1
 41
30.0
176
     1
 62
     5
 63
     7
421
 16777215
176
     1
 74
     1
176
     1
 91
        4
176
     1
 64
     7
176
     1
 65
   257
176
     1
 75
     7
176
     1
175
     7
176
     1
 42
1.0
176
     1
 92
        8
176
     1
 66
     7
176
     1
 43
1.0
176
     1
 76
     1
176
     1
 77
     6
176
     1
 78
     2
176
     1
 67
     7
176
     1
 79
     5
176
     1
170
     0
176
     1
171
     0
176
     1
290
     0
176
     1
 93
        1
176
     1
 44
0.0
176
     1
173
     0
176
     1
  0
VISUALSTYLE
  5
53B
102
{ACAD_REACTORS
330
529
102
}
102
{ACAD_XDICTIONARY
360
57D
102
}
330
529
100
AcDbVisualStyle
  2
OverhangOff
 70
    21
177
     2
291
     1
 71
     2
176
     0
 72
     2
176
     0
 73
     0
176
     0
 90
        0
176
     0
 40
0.6
176
     0
 41
30.0
176
     0
 62
     5
 63
     7
421
 16777215
176
     0
 74
     1
176
     0
 91
        4
176
     0
 64
     7
176
     0
 65
   257
176
     0
 75
     1
176
     0
175
     1
176
     0
 42
1.0
176
     0
 92
        9
176
     2
 66
     7
176
     0
 43
1.0
176
     0
 76
     1
176
     0
 77
     6
176
     0
 78
     2
176
     0
 67
     7
176
     0
 79
     5
176
     0
170
     0
176
     0
171
     0
176
     0
290
     0
176
     0
 93
        1
176
     0
 44
0.0
176
     0
173
     0
176
     0
  0
VISUALSTYLE
  5
532
102
{ACAD_REACTORS
330
529
102
}
102
{ACAD_XDICTIONARY
360
56B
102
}
330
529
100
AcDbVisualStyle
  2
Realistic
 70
     8
177
     2
291
     0
 71
     2
176
     1
 72
     3
176
     1
 73
     0
176
     1
 90
        2
176
     1
 40
0.6
176
     1
 41
30.0
176
     1
 62
     5
 63
     7
421
 16777215
176
     1
 74
     0
176
     1
 91
        0
176
     1
 64
     7
176
     1
 65
   257
176
     1
 75
     1
176
     1
175
     1
176
     1
 42
1.0
176
     1
 92
        8
176
     1
 66
   257
176
     1
 43
1.0
176
     1
 76
     1
176
     1
 77
     6
176
     1
 78
     2
176
     1
 67
     7
176
     1
 79
     3
176
     1
170
     0
176
     1
171
     0
176
     1
290
     0
176
     1
 93
       13
176
     1
 44
0.0
176
     1
173
     0
176
     1
  0
VISUALSTYLE
  5
541
102
{ACAD_REACTORS
330
529
102
}
102
{ACAD_XDICTIONARY
360
589
102
}
330
529
100
AcDbVisualStyle
  2
Shaded
 70
    27
177
     2
291
     0
 71
     2
176
     1
 72
     2
176
     1
 73
     1
176
     1
 90
        2
176
     1
 40
0.6
176
     1
 41
30.0
176
     1
 62
     5
 63
     7
421
 16777215
176
     1
 74
     0
176
     1
 91
        4
176
     1
 64
     7
176
     1
 65
   257
176
     1
 75
     1
176
     1
175
     1
176
     1
 42
1.0
176
     1
 92
        8
176
     1
 66
   257
176
     1
 43
1.0
176
     1
 76
     1
176
     1
 77
     6
176
     1
 78
     2
176
     1
 67
     8
425
  7895160
176
     1
 79
     3
176
     1
170
     0
176
     1
171
     0
176
     1
290
     0
176
     1
 93
        5
176
     1
 44
0.0
176
     1
173
     0
176
     1
  0
VISUALSTYLE
  5
540
102
{ACAD_REACTORS
330
529
102
}
102
{ACAD_XDICTIONARY
360
587
102
}
330
529
100
AcDbVisualStyle
  2
Shaded with edges
 70
    26
177
     2
291
     0
 71
     2
176
     1
 72
     2
176
     1
 73
     1
176
     1
 90
        2
176
     1
 40
0.6
176
     1
 41
30.0
176
     1
 62
     5
 63
     7
421
 16777215
176
     1
 74
     1
176
     1
 91
       10
176
     1
 64
     7
176
     1
 65
   257
176
     1
 75
     2
176
     1
175
     1
176
     1
 42
1.0
176
     1
 92
        8
176
     1
 66
   257
176
     1
 43
1.0
176
     1
 76
     1
176
     1
 77
     6
176
     1
 78
     2
176
     1
 67
     7
176
     1
 79
     3
176
     1
170
     0
176
     1
171
     0
176
     1
290
     0
176
     1
 93
        5
176
     1
 44
0.0
176
     1
173
     0
176
     1
  0
VISUALSTYLE
  5
53D
102
{ACAD_REACTORS
330
529
102
}
102
{ACAD_XDICTIONARY
360
581
102
}
330
529
100
AcDbVisualStyle
  2
Shades of Gray
 70
    23
177
     2
291
     0
 71
     2
176
     1
 72
     2
176
     1
 73
     3
176
     1
 90
        0
176
     1
 40
0.6
176
     1
 41
30.0
176
     1
 62
     5
 63
     7
421
 16777215
176
     1
 74
     2
176
     1
 91
        2
176
     1
 64
     7
176
     1
 65
     7
176
     1
 75
     1
176
     1
175
     1
176
     1
 42
40.0
176
     1
 92
        8
176
     1
 66
     7
176
     1
 43
1.0
176
     1
 76
     1
176
     1
 77
     6
176
     1
 78
     2
176
     1
 67
     7
176
     1
 79
     3
176
     1
170
     0
176
     1
171
     0
176
     1
290
     0
176
     1
 93
        1
176
     1
 44
0.0
176
     1
173
     0
176
     1
  0
VISUALSTYLE
  5
53E
102
{ACAD_REACTORS
330
529
102
}
102
{ACAD_XDICTIONARY
360
583
102
}
330
529
100
AcDbVisualStyle
  2
Sketchy
 70
    24
177
     2
291
     0
 71
     1
176
     1
 72
     2
176
     1
 73
     2
176
     1
 90
        0
176
     1
 40
0.6
176
     1
 41
30.0
176
     1
 62
     5
 63
     7
421
 16777215
176
     1
 74
     2
176
     1
 91
        2
176
     1
 64
     7
176
     1
 65
     7
176
     1
 75
     1
176
     1
175
     1
176
     1
 42
40.0
176
     1
 92
       11
176
     1
 66
     7
176
     1
 43
1.0
176
     1
 76
     1
176
     1
 77
     6
176
     1
 78
     2
176
     1
 67
     7
176
     1
 79
     6
176
     1
170
     0
176
     1
171
     0
176
     1
290
     0
176
     1
 93
        1
176
     1
 44
0.0
176
     1
173
     0
176
     1
  0
VISUALSTYLE
  5
536
102
{ACAD_REACTORS
330
529
102
}
102
{ACAD_XDICTIONARY
360
573
102
}
330
529
100
AcDbVisualStyle
  2
Thicken
 70
    13
177
     2
291
     1
 71
     2
176
     1
 72
     2
176
     1
 73
     0
176
     1
 90
        0
176
     1
 40
0.6
176
     1
 41
30.0
176
     1
 62
     5
 63
     7
421
 16777215
176
     1
 74
     1
176
     1
 91
        4
176
     1
 64
     7
176
     1
 65
   257
176
     1
 75
     1
176
     1
175
     1
176
     1
 42
1.0
176
     1
 92
       12
176
     1
 66
     7
176
     1
 43
1.0
176
     1
 76
     1
176
     1
 77
     6
176
     1
 78
     2
176
     1
 67
     7
176
     1
 79
     5
176
     1
170
     0
176
     1
171
     0
176
     1
290
     0
176
     1
 93
        1
176
     1
 44
0.0
176
     1
173
     0
176
     1
  0
VISUALSTYLE
  5
52F
102
{ACAD_REACTORS
330
529
102
}
102
{ACAD_XDICTIONARY
360
565
102
}
330
529
100
AcDbVisualStyle
  2
Wireframe
 70
     5
177
     2
291
     0
 71
     0
176
     1
 72
     2
176
     1
 73
     0
176
     1
 90
        0
176
     1
 40
0.6
176
     1
 41
30.0
176
     1
 62
     5
 63
     7
421
 16777215
176
     1
 74
     1
176
     1
 91
        4
176
     1
 64
     7
176
     1
 65
   257
176
     1
 75
     1
176
     1
175
     1
176
     1
 42
1.0
176
     1
 92
        0
176
     1
 66
   257
176
     1
 43
1.0
176
     1
 76
     1
176
     1
 77
     6
176
     1
 78
     2
176
     1
 67
     7
176
     1
 79
     3
176
     1
170
     0
176
     1
171
     0
176
     1
290
     0
176
     1
 93
        1
176
     1
 44
0.0
176
     1
173
     0
176
     1
  0
VISUALSTYLE
  5
53F
102
{ACAD_REACTORS
330
529
102
}
102
{ACAD_XDICTIONARY
360
585
102
}
330
529
100
AcDbVisualStyle
  2
X-Ray
 70
    25
177
     2
291
     0
 71
     2
176
     1
 72
     2
176
     1
 73
     1
176
     1
 90
        1
176
     1
 40
0.5
176
     1
 41
30.0
176
     1
 62
     5
 63
     7
421
 16777215
176
     1
 74
     1
176
     1
 91
        0
176
     1
 64
     7
176
     1
 65
   257
176
     1
 75
     1
176
     1
175
     1
176
     1
 42
1.0
176
     1
 92
        8
176
     1
 66
     7
176
     1
 43
1.0
176
     1
 76
     1
176
     1
 77
     6
176
     1
 78
     2
176
     1
 67
     7
176
     1
 79
     3
176
     1
170
     0
176
     1
171
     0
176
     1
290
     0
176
     1
 93
       13
176
     1
 44
0.0
176
     1
173
     0
176
     1
  0
DICTIONARYVAR
  5
558
102
{ACAD_REACTORS
330
557
102
}
330
557
100
DictionaryVariables
280
     0
  1
1:1
  0
DICTIONARYVAR
  5
58C
102
{ACAD_REACTORS
330
557
102
}
330
557
100
DictionaryVariables
280
     0
  1
Standard
  0
CSACDOCUMENTOPTIONS
  5
54D
102
{ACAD_REACTORS
330
54C
102
}
330
54C
  0
XRECORD
  5
551
102
{ACAD_REACTORS
330
548
102
}
330
548
100
AcDbXrecord
280
     1
300
MC_VERSION_DATA
 90
       95
310
0600000002000000570000001C000000E404000000000000000000007801936764E5D8CF7A8393818115C460606066E0646662626666706006F214793899F8DE3171E725E6E53B3BBA2878E6951050AF75FEFFFFFF520032DE0F3057000000
  0
XRECORD
  5
549
102
{ACAD_REACTORS
330
548
102
}
330
548
100
AcDbXrecord
280
     1
300
MCS_DOCUMENT_ID
 90
       60
310
0600000002000000150000001C000000E404000000000000000000007801E33D5731DB91EFEB23A7BDB76A7C5425E29FFD070200748A0C3415000000
  0
XRECORD
  5
54F
102
{ACAD_REACTORS
330
548
102
}
330
548
100
AcDbXrecord
280
     1
300
MCS_PARAMS_DATA
 90
     3313
310
0600000002000000F64B00001C000000E404000000000000000000007801C55C5B905C45199EE99EBDCCE67E5DA218172C303B91307B4B8C459531245054850D55591F78B236BB49B9BAC9E6B22A082A9655BE5865596569A965F9209288CF16503EC8834088C10B092404211702988430422E9084CDAEFFD7A7FBF4DFA7CF
310
D9D99D9D39930798FF3F7DCEF7DFFAFBBBFBCC6CDBFC46297252EECB48F9CDF5ED5234493921A5206D76815820B252E4F3225F128D7D5F59BF69E3162948D9A2D485B3131313747328BF06593E960915079422437734AA3BDAA5CCD053F5ED4FD2557D257BAB94DF007A03479F859BB2B22193C9108EC1CDCADC0464C27506
310
28605703E48886E0B986E10F03BF91E33707F8E3140E7A9091C8268236920C1C662240B94888A1C8E07600AE99C32D5131CA8B3925D172EFE62D7D6D9DABBA8ADDD6F17CE16D13F0457AE8AC9268DE32DABF73B07FCFA013F9BF8491D7C17E2550D8E8FFCA8DFE4E98B3929B331718B291824FFF72EB941D9E8E2211D5A93C
310
784A44C557923911258BD0C8640531AEEC61A924855B11378280384364A422680C0A928DB9C10CD89D581114199665B722B26E4590C82B0222AB08FAA8A60626C028E0044F81BA246F5360E167F2D27C56A10E05C058C13C59DEC6207679103AFC5DEADF992F2B284F67B31C8EE359B64A9665A62453228F64269D98455E3B
310
A4B35817F7EC92C86FB8EFFE8DBD5BEEDBDCAB0CD3B5FC8E99065A7E55D536E39DE7826237F1C8BBBCB3CFADFC93302087C80397EE69C2FF69CA32234F0763E41851010DA578E8294D435524988818E84710A7B2643B4F7C034F6CE5C9368F203BE8094C6268541D70D35EE4B585DAE170F4942EB8D2D422560A9917F34B62
310
CE86919D9F1F6DDBB36DD770FFC0B6BC682E898607BEB5737424F8D83B323AF07529CFC0B69BB96D9FD3CFF9B410ED79B1A42416161FEA29AEEDEEEC5ADF532C76DEF3C5AEEEB5CAECF97A60330D2C1C3579EAD0DA7621F20269BD6768746FDBF0D0DE51F3B0EE356B3ABBD6F474F7740D76770EACED08FCFC92BEAF13F701
310
B5AF7FEBF0B6B691ED6D7D23C3DBF6F4EF840FDA9AD583C58E81E240FFEAADDD5BD70EAC0E669D2A25F27FB610851F9335859F059541B9E5971EC7A5A7E83F2CE53DB9A4040555A2661A4DDBF2C560B2E54E7D5483931EF871F7C88E5DFDA3435B878687461F6EDB313248FE3596847C70DBDEBC682809D13B22E56A5856E4
310
E9998738519B6E2A89DCE6EDDBDB542AF4E4380F8F61A4965F57116093E5A052A06AF588670205D9A715FB49B140D81A90855F902680EBB8B3A3187EEA96F2B224E392BAF898328CB1AD47DA34C1601A1B421AD816D190715CC3F276A5DE067C546F03AED6DB808FEB6DC0B57A1BB00853B49EB3E0937A47E07ABD0D188301
310
71CB797197D3603B1D06BFCB6DB024827C0C834324E60945463B3712E196397079076E990B47228783C8E09631B8F129C211385B3E540C97413DC70673C524DEAD70BD23917B079179B782793791AE77D944EFDCDC5529988B13E1069D6092C472A7F777A6F648E4C184C88239C8822913E16AE29D48176E29E0727C316496
310
EF2A967C95165E504B0C2B218EEE82DD5C63513CD614C5091F6D6FA7551865CC5C5030A1E0A3E84BEC86CFD04EC5DD01AA74CBDB05AB8C403295A124BB2908C4B032B4682A032283FB103E391B4E03172C7199C4E0F88E871E8855ADA1482D3238FA1846E0B807A77785BFF935FE1D74369F5647D0D171CA5F4F09337C2559
310
105132935A503D6DBC7A94B54D2B6DF1E0339960F436A97441791E5EC104D40283580888C4FDED577B1FD8B4B9AF6FE30605D8AAD7F1F34A62F6DD5BBEC62E92057A31FEA25A9DB3F5FBD3C1729D9CD723B0BF0DE8402BB05A67160DDE4416E59079C0D9EAA575B7321F67115FC018C76AB5B3A33D06B68CBD9BFBDC93C073
310
800CC384FD360C544F539B6F02B1820953BE9D01DE01C0D85A6C50369A5AC4065C7760793B965800321749E4B50891C0C2AB0CAE9808178444974C70F875952A9381563C01BE9D08EAFA481283ABD8C7EF7870DAABE068E68833DFAC8EA0A3E3F87C0B07AA507B2311F0889285BDC333294C4E2DB27C67BA70ABD2857B688A
310
70552AA7873DB8489E55063D5D2DCBE9BB9E49F1E554A5083C922EDCA3E9C27D2F5DB8EF7B705EE9D87E1E920E88313AAE6AECF4FBD668D3D30DB4E51ADA9BEDB0D7AFCEB4DDED85F7C4ECF6551B3BCE2AFF6E835E49458EC94883D6E73C45753FAE614C3C0A0362777435D915EC025C33F7578776011DE6F3D066954C59D6
310
D76F86AC9CD58A53F4122CF0552BAE070AEA3B5AF15752304F1F47569D50AB71F41A31FA5A51C904CD43C6B0F51D2ACEFC112ACC4CC1B0FF086CE7AD5A4D096A005126387AAD451EE384D9C035A925859E39C1AA865EE9A9B8DA21CEE289167F7CF1D4C4BC7A125EC5AED5D8BB0B5A9D9144D134CFA71BF85A8D44BE568348
310
F6AA55A2F3CAEA4F6982FD21118CC249D3CBF852A586F244BA70FBD285DB9F085793EDE56E143F0AD06C6B4CB2242BDD3DD1419166C2865E81F9CE1648F3CBD84597B22E28992A3DDCE24C77F3F311A01C8A722828EC3CF15F7D987933F818F8E59BC138E5CD4CE8AC24C94E68BA32F5C3CBAB808B6B06B9936E642F9F804C
310
903AF2F3709D37832318A078E4B37AEBDCFAA66859945B9EBB25776BAE2DD3995995E9CA1433DDFA4DAC7ECE6FE93696E96BB06712968ED2661884A9EE40230F60D0D73DE8C858453B9E8E4212D5A9B0784A762662599FEDD18C9299F4094C728A91F536658E91CDA6DFC8E89F363B15B4CB31404FD2581CF722BBF229B517
310
430944E56AB2E2A8E3461950730F2B7ECA7BC570E389706E8BA9D241C744225C40C29385944F707279EA277D998065D9EAD604B1263E66D38513E9C2490F4EE7CC6E8AA89C3D9DA588701CA708AB6414C194931EE3FC0D4515D71A4FBFE712F8CB4A26532A6E8DCF01CA61A3745BE3F3C09F6E6B442F0CD7BAD36A8D2F002E
310
AE359E3BE646F6B8926D6BBC0CD9926FBEF08C5220B9BAE91D0E14769FF44B52301E3C00E8FA74C117BD24F396E22C7F1005F2DA2902EB76053DE720B0D3EE397F2F036AE8B24A3DE750225C4DF8F8A544B81AF69C7F2482D6C4C77F067093EF36FE359541FF8E0E8A50399BA22F63681CEF0EBDEBB2C3834A9E09EF1E0654
310
1D79F708F0A7CBBB956F495E015C1CEFEE3EEC46B65FC996771F856C09285F58A7148C77872F6104D6DC9A8897D30896D457015D1FDE3DEA25B91CEFF2EBD6EB0A68F718A0D3A6DDD7CA805699768F27C2D584925E4F84AB9476A39B03E744D09CD6610FF59F44E89A78FA46BA70DDDE0ADC144A4DBCEBF1E0221D416DC23D
310
1D715254A766A8A7AC60C1FF26021ED7783E889CD89C52F24C1ACF0940D5B1F19C047E7A8DE714E0E21ACFD5436EE339AB64DB78E44B91C6730003ECCB897CE1D28548E3798246B0C6731AD0536D3CB3E90740046E0B5FD5161351555C247A084506FA9607AAEBD39C44F1E2B63A5BDCA18E17B755B2E2664A322602C34C3A
310
0393625B51C09BC60D77315EF1E1C8DB80730A9C37D5B8CD0EBF3EA3A6FB4EA2A7C18B1B2746D53A5F7BB70C687C78291FE10E3A386EE3054657F9CB297E9CF703B0E71DFC4DA3397B4068C3CF33A1A81F02C2C920DB8E7ABF712005813923946BAE06DE453454B45CC32AF6311810C751E3F85A979E7874424F9299B34AB2
310
210DC430A45A3473162283FB2F3218C7FE178FBB1CF59692CDAD957C0DECAC3739580882F7E26636C4FC0874E66F42CE013F2EB274A4C323CBB88082C5B980AE4CFD4DC879C0C5B1FFF5E7DDC89E57324556799F2F34BC006EC70CD18A8318C0D9FF0AB6807CDBB19F46B0A4BE07E8B4D9FF8207EA504E3D7E65FA3E4C7226
310
B329B0E8D703AAFEBAA304E869379E693123CD68457958A4FF2F11AE86ECFF4119D078F6E7138AD87FF2370F86D6E1E38789702D76FED2134932CCA824CB8C811832A3160D33426421BD980847AF6F0C11D33DEECB1CFE9B7175D1F926045DE5BD8DBFBDBE94081764D0049324E6DDB40A8607F372225C4D16463974B5B836
310
F393232E193EA2E499B49986C93A780A6DA631A981D7A6CD34012EAECDFCFC5937B23F52B26D33BF83CCDBCC56A5C0ECD07DE7A7A7226D661D8D6033A419D0536D33E07F56B8C4CA7C0D48229F9610695A461A0883CE7B494E8DD95B004DF38E8247AB09FE45AC1A52EDAC32A0861DD8DA85D8A76276989D08579353913989
310
700119397510D9BB4CAB9DF096393711B4263ECE4B176E7EBA700B3C389DB3F0B5335AA6A7234288EA142D784A9083AFB414616018456CF24C3293C4CD2F49D3E5A5F0410CEE7E0F2E6A6FEA11580893E29AEE529C2FC11C4DF48D4AA628982DB44A422820F8563073C8F989CF2240392BED74F7768B819FDEDE6E09E0E29A
310
EE72FA030B3CB273954C91D5916E87CC9BEEFB4FAB1E6B73B10CFB6CBEB73B4423589D2D05F4CC9AAE2E4C768646F0614DBB4BD40606DDEA2539B5A67B13A0D36EBACBCA809A9055A7E9E24B8E0D79912B896C91FE0C1655C17843E129FA335B3277F4E8510807513CB9CC44868E210AF7FE19028691B0917E39482B125CF8
310
D4FF01F0B312DAF64B0000
  0
TABLECONTENT
  5
553
330
556
100
AcDbLinkedData
  1

300

100
AcDbLinkedTableData
 90
        5
300
COLUMN
  1
LINKEDTABLEDATACOLUMN_BEGIN
300

 91
        0
301
CUSTOMDATA
  1
DATAMAP_BEGIN
 90
        0
309
DATAMAP_END
309
LINKEDTABLEDATACOLUMN_END
  1
FORMATTEDTABLEDATACOLUMN_BEGIN
300
COLUMNTABLEFORMAT
  1
TABLEFORMAT_BEGIN
 90
        3
170
     0
309
TABLEFORMAT_END
309
FORMATTEDTABLEDATACOLUMN_END
  1
TABLECOLUMN_BEGIN
 90
        0
 40
10.0
309
TABLECOLUMN_END
300
COLUMN
  1
LINKEDTABLEDATACOLUMN_BEGIN
300

 91
        0
301
CUSTOMDATA
  1
DATAMAP_BEGIN
 90
        0
309
DATAMAP_END
309
LINKEDTABLEDATACOLUMN_END
  1
FORMATTEDTABLEDATACOLUMN_BEGIN
300
COLUMNTABLEFORMAT
  1
TABLEFORMAT_BEGIN
 90
        3
170
     0
309
TABLEFORMAT_END
309
FORMATTEDTABLEDATACOLUMN_END
  1
TABLECOLUMN_BEGIN
 90
        0
 40
10.0
309
TABLECOLUMN_END
300
COLUMN
  1
LINKEDTABLEDATACOLUMN_BEGIN
300

 91
        0
301
CUSTOMDATA
  1
DATAMAP_BEGIN
 90
        0
309
DATAMAP_END
309
LINKEDTABLEDATACOLUMN_END
  1
FORMATTEDTABLEDATACOLUMN_BEGIN
300
COLUMNTABLEFORMAT
  1
TABLEFORMAT_BEGIN
 90
        3
170
     0
309
TABLEFORMAT_END
309
FORMATTEDTABLEDATACOLUMN_END
  1
TABLECOLUMN_BEGIN
 90
        0
 40
10.0
309
TABLECOLUMN_END
300
COLUMN
  1
LINKEDTABLEDATACOLUMN_BEGIN
300

 91
        0
301
CUSTOMDATA
  1
DATAMAP_BEGIN
 90
        0
309
DATAMAP_END
309
LINKEDTABLEDATACOLUMN_END
  1
FORMATTEDTABLEDATACOLUMN_BEGIN
300
COLUMNTABLEFORMAT
  1
TABLEFORMAT_BEGIN
 90
        3
170
     0
309
TABLEFORMAT_END
309
FORMATTEDTABLEDATACOLUMN_END
  1
TABLECOLUMN_BEGIN
 90
        0
 40
40.0
309
TABLECOLUMN_END
300
COLUMN
  1
LINKEDTABLEDATACOLUMN_BEGIN
300

 91
        0
301
CUSTOMDATA
  1
DATAMAP_BEGIN
 90
        0
309
DATAMAP_END
309
LINKEDTABLEDATACOLUMN_END
  1
FORMATTEDTABLEDATACOLUMN_BEGIN
300
COLUMNTABLEFORMAT
  1
TABLEFORMAT_BEGIN
 90
        3
170
     0
309
TABLEFORMAT_END
309
FORMATTEDTABLEDATACOLUMN_END
  1
TABLECOLUMN_BEGIN
 90
        0
 40
20.0
309
TABLECOLUMN_END
 91
        5
301
ROW
  1
LINKEDTABLEDATAROW_BEGIN
 90
        5
300
CELL
  1
LINKEDTABLEDATACELL_BEGIN
 90
        0
300

 91
        0
301
CUSTOMDATA
  1
DATAMAP_BEGIN
 90
        1
300
ACAD_ROUNDTRIP_2008_CELL_CHECKSUM
301
DATAMAP_VALUE
 93
        2
 90
        2
140
32.0
 94
        0
300

302

304
ACVALUE_END
309
DATAMAP_END
 92
        0
 95
        1
302
CONTENT
  1
CELLCONTENT_BEGIN
 90
        1
300
VALUE
 93
        2
 90
        4
  1
 
 94
        0
300

302
 
304
ACVALUE_END
 91
        0
309
CELLCONTENT_END
  1
FORMATTEDCELLCONTENT_BEGIN
170
     1
300
CONTENTFORMAT
  1
CONTENTFORMAT_BEGIN
 90
      132
 91
        0
 92
      512
 93
        0
300

 40
0.0
140
1.0
 94
        1
 62
     0
340
0
144
3.5
309
CONTENTFORMAT_END
309
FORMATTEDCELLCONTENT_END
309
LINKEDTABLEDATACELL_END
  1
FORMATTEDTABLEDATACELL_BEGIN
300
CELLTABLEFORMAT
  1
TABLEFORMAT_BEGIN
 90
        1
170
     1
 91
        0
 92
        0
 62
   257
 93
        1
300
CONTENTFORMAT
  1
CONTENTFORMAT_BEGIN
 90
        0
 91
        0
 92
      512
 93
        0
300

 40
0.0
140
1.0
 94
        1
 62
     0
340
0
144
0.18
309
CONTENTFORMAT_END
171
     0
 94
        0
309
TABLEFORMAT_END
309
FORMATTEDTABLEDATACELL_END
  1
TABLECELL_BEGIN
 90
        0
 91
        0
309
TABLECELL_END
300
CELL
  1
LINKEDTABLEDATACELL_BEGIN
 90
        0
300

 91
        0
301
CUSTOMDATA
  1
DATAMAP_BEGIN
 90
        0
309
DATAMAP_END
 92
        0
 95
        0
309
LINKEDTABLEDATACELL_END
  1
FORMATTEDTABLEDATACELL_BEGIN
300
CELLTABLEFORMAT
  1
TABLEFORMAT_BEGIN
 90
        1
170
     1
 91
        0
 92
        0
 62
   257
 93
        1
300
CONTENTFORMAT
  1
CONTENTFORMAT_BEGIN
 90
        0
 91
        0
 92
      512
 93
        0
300

 40
0.0
140
1.0
 94
        1
 62
     0
340
0
144
0.18
309
CONTENTFORMAT_END
171
     0
 94
        0
309
TABLEFORMAT_END
309
FORMATTEDTABLEDATACELL_END
  1
TABLECELL_BEGIN
 90
        0
 91
        0
309
TABLECELL_END
300
CELL
  1
LINKEDTABLEDATACELL_BEGIN
 90
        0
300

 91
        0
301
CUSTOMDATA
  1
DATAMAP_BEGIN
 90
        0
309
DATAMAP_END
 92
        0
 95
        0
309
LINKEDTABLEDATACELL_END
  1
FORMATTEDTABLEDATACELL_BEGIN
300
CELLTABLEFORMAT
  1
TABLEFORMAT_BEGIN
 90
        1
170
     1
 91
        0
 92
        0
 62
   257
 93
        1
300
CONTENTFORMAT
  1
CONTENTFORMAT_BEGIN
 90
        0
 91
        0
 92
      512
 93
        0
300

 40
0.0
140
1.0
 94
        1
 62
     0
340
0
144
0.18
309
CONTENTFORMAT_END
171
     0
 94
        0
309
TABLEFORMAT_END
309
FORMATTEDTABLEDATACELL_END
  1
TABLECELL_BEGIN
 90
        0
 91
        0
309
TABLECELL_END
300
CELL
  1
LINKEDTABLEDATACELL_BEGIN
 90
        0
300

 91
        0
301
CUSTOMDATA
  1
DATAMAP_BEGIN
 90
        1
300
ACAD_ROUNDTRIP_2008_CELL_CHECKSUM
301
DATAMAP_VALUE
 93
        2
 90
        2
140
1067.0
 94
        0
300

302

304
ACVALUE_END
309
DATAMAP_END
 92
        0
 95
        1
302
CONTENT
  1
CELLCONTENT_BEGIN
 90
        1
300
VALUE
 93
        2
 90
        4
  1
194321
 94
        0
300

302
194321
304
ACVALUE_END
 91
        0
309
CELLCONTENT_END
  1
FORMATTEDCELLCONTENT_BEGIN
170
     1
300
CONTENTFORMAT
  1
CONTENTFORMAT_BEGIN
 90
      132
 91
        0
 92
      512
 93
        0
300

 40
0.0
140
1.0
 94
        1
 62
     0
340
0
144
3.0
309
CONTENTFORMAT_END
309
FORMATTEDCELLCONTENT_END
309
LINKEDTABLEDATACELL_END
  1
FORMATTEDTABLEDATACELL_BEGIN
300
CELLTABLEFORMAT
  1
TABLEFORMAT_BEGIN
 90
        1
170
     1
 91
       16
 92
        0
 62
   257
 93
        1
300
CONTENTFORMAT
  1
CONTENTFORMAT_BEGIN
 90
       16
 91
        0
 92
      512
 93
        0
300

 40
0.0
140
1.0
 94
        4
 62
     0
340
0
144
0.18
309
CONTENTFORMAT_END
171
     0
 94
        4
 95
        1
302
GRIDFORMAT
  1
GRIDFORMAT_BEGIN
 90
       26
 91
        1
 62
     0
 92
       -2
340
0
 93
        0
 40
0.045
309
GRIDFORMAT_END
 95
        4
302
GRIDFORMAT
  1
GRIDFORMAT_BEGIN
 90
       26
 91
        1
 62
     0
 92
       -2
340
0
 93
        0
 40
0.045
309
GRIDFORMAT_END
 95
        8
302
GRIDFORMAT
  1
GRIDFORMAT_BEGIN
 90
       26
 91
        1
 62
     0
 92
       -2
340
0
 93
        0
 40
0.045
309
GRIDFORMAT_END
 95
       32
302
GRIDFORMAT
  1
GRIDFORMAT_BEGIN
 90
       26
 91
        1
 62
     0
 92
       -2
340
0
 93
        0
 40
0.045
309
GRIDFORMAT_END
309
TABLEFORMAT_END
309
FORMATTEDTABLEDATACELL_END
  1
TABLECELL_BEGIN
 90
        0
 91
        0
309
TABLECELL_END
300
CELL
  1
LINKEDTABLEDATACELL_BEGIN
 90
        0
300

 91
        0
301
CUSTOMDATA
  1
DATAMAP_BEGIN
 90
        1
300
ACAD_ROUNDTRIP_2008_CELL_CHECKSUM
301
DATAMAP_VALUE
 93
        2
 90
        2
140
1398.0
 94
        0
300

302

304
ACVALUE_END
309
DATAMAP_END
 92
        0
 95
        1
302
CONTENT
  1
CELLCONTENT_BEGIN
 90
        1
300
VALUE
 93
        2
 90
        4
  1
Rev:00
 94
        0
300

302
Rev:00
304
ACVALUE_END
 91
        0
309
CELLCONTENT_END
  1
FORMATTEDCELLCONTENT_BEGIN
170
     1
300
CONTENTFORMAT
  1
CONTENTFORMAT_BEGIN
 90
      132
 91
        0
 92
      512
 93
        0
300

 40
0.0
140
1.0
 94
        1
 62
     0
340
0
144
3.5
309
CONTENTFORMAT_END
309
FORMATTEDCELLCONTENT_END
309
LINKEDTABLEDATACELL_END
  1
FORMATTEDTABLEDATACELL_BEGIN
300
CELLTABLEFORMAT
  1
TABLEFORMAT_BEGIN
 90
        1
170
     1
 91
       16
 92
        0
 62
   257
 93
        1
300
CONTENTFORMAT
  1
CONTENTFORMAT_BEGIN
 90
       16
 91
        0
 92
      512
 93
        0
300

 40
0.0
140
1.0
 94
        1
 62
     0
340
0
144
0.18
309
CONTENTFORMAT_END
171
     0
 94
        4
 95
        1
302
GRIDFORMAT
  1
GRIDFORMAT_BEGIN
 90
       26
 91
        1
 62
     0
 92
       -2
340
0
 93
        0
 40
0.045
309
GRIDFORMAT_END
 95
        4
302
GRIDFORMAT
  1
GRIDFORMAT_BEGIN
 90
       26
 91
        1
 62
     0
 92
       -2
340
0
 93
        0
 40
0.045
309
GRIDFORMAT_END
 95
        8
302
GRIDFORMAT
  1
GRIDFORMAT_BEGIN
 90
       26
 91
        1
 62
     0
 92
       -2
340
0
 93
        0
 40
0.045
309
GRIDFORMAT_END
 95
       32
302
GRIDFORMAT
  1
GRIDFORMAT_BEGIN
 90
       26
 91
        1
 62
     0
 92
       -2
340
0
 93
        0
 40
0.045
309
GRIDFORMAT_END
309
TABLEFORMAT_END
309
FORMATTEDTABLEDATACELL_END
  1
TABLECELL_BEGIN
 90
        0
 91
        0
309
TABLECELL_END
 91
        0
301
CUSTOMDATA
  1
DATAMAP_BEGIN
 90
        0
309
DATAMAP_END
309
LINKEDTABLEDATAROW_END
  1
FORMATTEDTABLEDATAROW_BEGIN
300
ROWTABLEFORMAT
  1
TABLEFORMAT_BEGIN
 90
        2
170
     0
309
TABLEFORMAT_END
309
FORMATTEDTABLEDATAROW_END
  1
TABLEROW_BEGIN
 90
        1
 40
6.0
309
TABLEROW_END
301
ROW
  1
LINKEDTABLEDATAROW_BEGIN
 90
        5
300
CELL
  1
LINKEDTABLEDATACELL_BEGIN
 90
        0
300

 91
        0
301
CUSTOMDATA
  1
DATAMAP_BEGIN
 90
        0
309
DATAMAP_END
 92
        0
 95
        0
309
LINKEDTABLEDATACELL_END
  1
FORMATTEDTABLEDATACELL_BEGIN
300
CELLTABLEFORMAT
  1
TABLEFORMAT_BEGIN
 90
        1
170
     1
 91
        0
 92
        0
 62
   257
 93
        1
300
CONTENTFORMAT
  1
CONTENTFORMAT_BEGIN
 90
        0
 91
        0
 92
      512
 93
        0
300

 40
0.0
140
1.0
 94
        1
 62
     0
340
0
144
0.18
309
CONTENTFORMAT_END
171
     0
 94
        0
309
TABLEFORMAT_END
309
FORMATTEDTABLEDATACELL_END
  1
TABLECELL_BEGIN
 90
        0
 91
        0
309
TABLECELL_END
300
CELL
  1
LINKEDTABLEDATACELL_BEGIN
 90
        0
300

 91
        0
301
CUSTOMDATA
  1
DATAMAP_BEGIN
 90
        0
309
DATAMAP_END
 92
        0
 95
        0
309
LINKEDTABLEDATACELL_END
  1
FORMATTEDTABLEDATACELL_BEGIN
300
CELLTABLEFORMAT
  1
TABLEFORMAT_BEGIN
 90
        1
170
     1
 91
        0
 92
        0
 62
   257
 93
        1
300
CONTENTFORMAT
  1
CONTENTFORMAT_BEGIN
 90
        0
 91
        0
 92
      512
 93
        0
300

 40
0.0
140
1.0
 94
        1
 62
     0
340
0
144
0.18
309
CONTENTFORMAT_END
171
     0
 94
        0
309
TABLEFORMAT_END
309
FORMATTEDTABLEDATACELL_END
  1
TABLECELL_BEGIN
 90
        0
 91
        0
309
TABLECELL_END
300
CELL
  1
LINKEDTABLEDATACELL_BEGIN
 90
        0
300

 91
        0
301
CUSTOMDATA
  1
DATAMAP_BEGIN
 90
        0
309
DATAMAP_END
 92
        0
 95
        0
309
LINKEDTABLEDATACELL_END
  1
FORMATTEDTABLEDATACELL_BEGIN
300
CELLTABLEFORMAT
  1
TABLEFORMAT_BEGIN
 90
        1
170
     1
 91
        0
 92
        0
 62
   257
 93
        1
300
CONTENTFORMAT
  1
CONTENTFORMAT_BEGIN
 90
        0
 91
        0
 92
      512
 93
        0
300

 40
0.0
140
1.0
 94
        1
 62
     0
340
0
144
0.18
309
CONTENTFORMAT_END
171
     0
 94
        0
309
TABLEFORMAT_END
309
FORMATTEDTABLEDATACELL_END
  1
TABLECELL_BEGIN
 90
        0
 91
        0
309
TABLECELL_END
300
CELL
  1
LINKEDTABLEDATACELL_BEGIN
 90
        0
300

 91
        0
301
CUSTOMDATA
  1
DATAMAP_BEGIN
 90
        1
300
ACAD_ROUNDTRIP_2008_CELL_CHECKSUM
301
DATAMAP_VALUE
 93
        2
 90
        2
140
3105.0
 94
        0
300

302

304
ACVALUE_END
309
DATAMAP_END
 92
        0
 95
        1
302
CONTENT
  1
CELLCONTENT_BEGIN
 90
        1
300
VALUE
 93
        2
 90
        4
  1
Scale:1:1
 94
        0
300

302
Scale:1:1
304
ACVALUE_END
 91
        0
309
CELLCONTENT_END
  1
FORMATTEDCELLCONTENT_BEGIN
170
     1
300
CONTENTFORMAT
  1
CONTENTFORMAT_BEGIN
 90
      132
 91
        0
 92
      512
 93
        0
300

 40
0.0
140
1.0
 94
        1
 62
     0
340
0
144
3.5
309
CONTENTFORMAT_END
309
FORMATTEDCELLCONTENT_END
309
LINKEDTABLEDATACELL_END
  1
FORMATTEDTABLEDATACELL_BEGIN
300
CELLTABLEFORMAT
  1
TABLEFORMAT_BEGIN
 90
        1
170
     1
 91
       16
 92
        0
 62
   257
 93
        1
300
CONTENTFORMAT
  1
CONTENTFORMAT_BEGIN
 90
       16
 91
        0
 92
      512
 93
        0
300

 40
0.0
140
1.0
 94
        1
 62
     0
340
0
144
0.18
309
CONTENTFORMAT_END
171
     0
 94
        4
 95
        1
302
GRIDFORMAT
  1
GRIDFORMAT_BEGIN
 90
       26
 91
        1
 62
     0
 92
       -2
340
0
 93
        0
 40
0.045
309
GRIDFORMAT_END
 95
        4
302
GRIDFORMAT
  1
GRIDFORMAT_BEGIN
 90
       26
 91
        1
 62
     0
 92
       -2
340
0
 93
        0
 40
0.045
309
GRIDFORMAT_END
 95
        8
302
GRIDFORMAT
  1
GRIDFORMAT_BEGIN
 90
       26
 91
        1
 62
     0
 92
       -2
340
0
 93
        0
 40
0.045
309
GRIDFORMAT_END
 95
       32
302
GRIDFORMAT
  1
GRIDFORMAT_BEGIN
 90
       26
 91
        1
 62
     0
 92
       -2
340
0
 93
        0
 40
0.045
309
GRIDFORMAT_END
309
TABLEFORMAT_END
309
FORMATTEDTABLEDATACELL_END
  1
TABLECELL_BEGIN
 90
        0
 91
        0
309
TABLECELL_END
300
CELL
  1
LINKEDTABLEDATACELL_BEGIN
 90
        0
300

 91
        0
301
CUSTOMDATA
  1
DATAMAP_BEGIN
 90
        1
300
ACAD_ROUNDTRIP_2008_CELL_CHECKSUM
301
DATAMAP_VALUE
 93
        2
 90
        2
140
165.0
 94
        0
300

302

304
ACVALUE_END
309
DATAMAP_END
 92
        0
 95
        1
302
CONTENT
  1
CELLCONTENT_BEGIN
 90
        1
300
VALUE
 93
        2
 90
        4
  1
A2
 94
        0
300

302
A2
304
ACVALUE_END
 91
        0
309
CELLCONTENT_END
  1
FORMATTEDCELLCONTENT_BEGIN
170
     1
300
CONTENTFORMAT
  1
CONTENTFORMAT_BEGIN
 90
      132
 91
        0
 92
      512
 93
        0
300

 40
0.0
140
1.0
 94
        1
 62
     0
340
0
144
3.5
309
CONTENTFORMAT_END
309
FORMATTEDCELLCONTENT_END
309
LINKEDTABLEDATACELL_END
  1
FORMATTEDTABLEDATACELL_BEGIN
300
CELLTABLEFORMAT
  1
TABLEFORMAT_BEGIN
 90
        1
170
     1
 91
       16
 92
        0
 62
   257
 93
        1
300
CONTENTFORMAT
  1
CONTENTFORMAT_BEGIN
 90
       16
 91
        0
 92
      512
 93
        0
300

 40
0.0
140
1.0
 94
        4
 62
     0
340
0
144
0.18
309
CONTENTFORMAT_END
171
     0
 94
        4
 95
        1
302
GRIDFORMAT
  1
GRIDFORMAT_BEGIN
 90
       26
 91
        1
 62
     0
 92
       -2
340
0
 93
        0
 40
0.045
309
GRIDFORMAT_END
 95
        4
302
GRIDFORMAT
  1
GRIDFORMAT_BEGIN
 90
       26
 91
        1
 62
     0
 92
       -2
340
0
 93
        0
 40
0.045
309
GRIDFORMAT_END
 95
        8
302
GRIDFORMAT
  1
GRIDFORMAT_BEGIN
 90
       26
 91
        1
 62
     0
 92
       -2
340
0
 93
        0
 40
0.045
309
GRIDFORMAT_END
 95
       32
302
GRIDFORMAT
  1
GRIDFORMAT_BEGIN
 90
       26
 91
        1
 62
     0
 92
       -2
340
0
 93
        0
 40
0.045
309
GRIDFORMAT_END
309
TABLEFORMAT_END
309
FORMATTEDTABLEDATACELL_END
  1
TABLECELL_BEGIN
 90
        0
 91
        0
309
TABLECELL_END
 91
        0
301
CUSTOMDATA
  1
DATAMAP_BEGIN
 90
        0
309
DATAMAP_END
309
LINKEDTABLEDATAROW_END
  1
FORMATTEDTABLEDATAROW_BEGIN
300
ROWTABLEFORMAT
  1
TABLEFORMAT_BEGIN
 90
        2
170
     0
309
TABLEFORMAT_END
309
FORMATTEDTABLEDATAROW_END
  1
TABLEROW_BEGIN
 90
        2
 40
6.0
309
TABLEROW_END
301
ROW
  1
LINKEDTABLEDATAROW_BEGIN
 90
        5
300
CELL
  1
LINKEDTABLEDATACELL_BEGIN
 90
        0
300

 91
        0
301
CUSTOMDATA
  1
DATAMAP_BEGIN
 90
        0
309
DATAMAP_END
 92
        0
 95
        0
309
LINKEDTABLEDATACELL_END
  1
FORMATTEDTABLEDATACELL_BEGIN
300
CELLTABLEFORMAT
  1
TABLEFORMAT_BEGIN
 90
        1
170
     1
 91
        0
 92
        0
 62
   257
 93
        1
300
CONTENTFORMAT
  1
CONTENTFORMAT_BEGIN
 90
        0
 91
        0
 92
      512
 93
        0
300

 40
0.0
140
1.0
 94
        1
 62
     0
340
0
144
0.18
309
CONTENTFORMAT_END
171
     0
 94
        0
309
TABLEFORMAT_END
309
FORMATTEDTABLEDATACELL_END
  1
TABLECELL_BEGIN
 90
        0
 91
        0
309
TABLECELL_END
300
CELL
  1
LINKEDTABLEDATACELL_BEGIN
 90
        0
300

 91
        0
301
CUSTOMDATA
  1
DATAMAP_BEGIN
 90
        0
309
DATAMAP_END
 92
        0
 95
        0
309
LINKEDTABLEDATACELL_END
  1
FORMATTEDTABLEDATACELL_BEGIN
300
CELLTABLEFORMAT
  1
TABLEFORMAT_BEGIN
 90
        1
170
     1
 91
        0
 92
        0
 62
   257
 93
        1
300
CONTENTFORMAT
  1
CONTENTFORMAT_BEGIN
 90
        0
 91
        0
 92
      512
 93
        0
300

 40
0.0
140
1.0
 94
        1
 62
     0
340
0
144
0.18
309
CONTENTFORMAT_END
171
     0
 94
        0
309
TABLEFORMAT_END
309
FORMATTEDTABLEDATACELL_END
  1
TABLECELL_BEGIN
 90
        0
 91
        0
309
TABLECELL_END
300
CELL
  1
LINKEDTABLEDATACELL_BEGIN
 90
        0
300

 91
        0
301
CUSTOMDATA
  1
DATAMAP_BEGIN
 90
        0
309
DATAMAP_END
 92
        0
 95
        0
309
LINKEDTABLEDATACELL_END
  1
FORMATTEDTABLEDATACELL_BEGIN
300
CELLTABLEFORMAT
  1
TABLEFORMAT_BEGIN
 90
        1
170
     1
 91
        0
 92
        0
 62
   257
 93
        1
300
CONTENTFORMAT
  1
CONTENTFORMAT_BEGIN
 90
        0
 91
        0
 92
      512
 93
        0
300

 40
0.0
140
1.0
 94
        1
 62
     0
340
0
144
0.18
309
CONTENTFORMAT_END
171
     0
 94
        0
309
TABLEFORMAT_END
309
FORMATTEDTABLEDATACELL_END
  1
TABLECELL_BEGIN
 90
        0
 91
        0
309
TABLECELL_END
300
CELL
  1
LINKEDTABLEDATACELL_BEGIN
 90
        0
300

 91
        0
301
CUSTOMDATA
  1
DATAMAP_BEGIN
 90
        1
300
ACAD_ROUNDTRIP_2008_CELL_CHECKSUM
301
DATAMAP_VALUE
 93
        2
 90
        2
140
27491.0
 94
        0
300

302

304
ACVALUE_END
309
DATAMAP_END
 92
        0
 95
        1
302
CONTENT
  1
CELLCONTENT_BEGIN
 90
        1
300
VALUE
 93
        2
 90
        4
  1
CASSAF.TAGO TRIM 1.0 L=313 mm
 94
        0
300

302
CASSAF.TAGO TRIM 1.0 L=313 mm
304
ACVALUE_END
 91
        0
309
CELLCONTENT_END
  1
FORMATTEDCELLCONTENT_BEGIN
170
     1
300
CONTENTFORMAT
  1
CONTENTFORMAT_BEGIN
 90
      132
 91
        0
 92
      512
 93
        0
300

 40
0.0
140
1.0
 94
        1
 62
     0
340
0
144
2.5
309
CONTENTFORMAT_END
309
FORMATTEDCELLCONTENT_END
309
LINKEDTABLEDATACELL_END
  1
FORMATTEDTABLEDATACELL_BEGIN
300
CELLTABLEFORMAT
  1
TABLEFORMAT_BEGIN
 90
        1
170
     1
 91
       16
 92
        0
 62
   257
 93
        1
300
CONTENTFORMAT
  1
CONTENTFORMAT_BEGIN
 90
       16
 91
        0
 92
      512
 93
        0
300

 40
0.0
140
1.0
 94
        4
 62
     0
340
0
144
0.18
309
CONTENTFORMAT_END
171
     0
 94
        4
 95
        1
302
GRIDFORMAT
  1
GRIDFORMAT_BEGIN
 90
       26
 91
        1
 62
     0
 92
       -2
340
0
 93
        0
 40
0.045
309
GRIDFORMAT_END
 95
        4
302
GRIDFORMAT
  1
GRIDFORMAT_BEGIN
 90
       26
 91
        1
 62
     0
 92
       -2
340
0
 93
        0
 40
0.045
309
GRIDFORMAT_END
 95
        8
302
GRIDFORMAT
  1
GRIDFORMAT_BEGIN
 90
       26
 91
        1
 62
     0
 92
       -2
340
0
 93
        0
 40
0.045
309
GRIDFORMAT_END
 95
       32
302
GRIDFORMAT
  1
GRIDFORMAT_BEGIN
 90
       26
 91
        1
 62
     0
 92
       -2
340
0
 93
        0
 40
0.045
309
GRIDFORMAT_END
309
TABLEFORMAT_END
309
FORMATTEDTABLEDATACELL_END
  1
TABLECELL_BEGIN
 90
        0
 91
        0
309
TABLECELL_END
300
CELL
  1
LINKEDTABLEDATACELL_BEGIN
 90
        0
300

 91
        0
301
CUSTOMDATA
  1
DATAMAP_BEGIN
 90
        0
309
DATAMAP_END
 92
        0
 95
        0
309
LINKEDTABLEDATACELL_END
  1
FORMATTEDTABLEDATACELL_BEGIN
300
CELLTABLEFORMAT
  1
TABLEFORMAT_BEGIN
 90
        1
170
     1
 91
        0
 92
        0
 62
   257
 93
        1
300
CONTENTFORMAT
  1
CONTENTFORMAT_BEGIN
 90
        0
 91
        0
 92
      512
 93
        0
300

 40
0.0
140
1.0
 94
        1
 62
     0
340
0
144
0.18
309
CONTENTFORMAT_END
171
     0
 94
        0
309
TABLEFORMAT_END
309
FORMATTEDTABLEDATACELL_END
  1
TABLECELL_BEGIN
 90
        0
 91
        0
309
TABLECELL_END
 91
        0
301
CUSTOMDATA
  1
DATAMAP_BEGIN
 90
        0
309
DATAMAP_END
309
LINKEDTABLEDATAROW_END
  1
FORMATTEDTABLEDATAROW_BEGIN
300
ROWTABLEFORMAT
  1
TABLEFORMAT_BEGIN
 90
        2
170
     0
309
TABLEFORMAT_END
309
FORMATTEDTABLEDATAROW_END
  1
TABLEROW_BEGIN
 90
        3
 40
10.0
309
TABLEROW_END
301
ROW
  1
LINKEDTABLEDATAROW_BEGIN
 90
        5
300
CELL
  1
LINKEDTABLEDATACELL_BEGIN
 90
        0
300

 91
        0
301
CUSTOMDATA
  1
DATAMAP_BEGIN
 90
        0
309
DATAMAP_END
 92
        0
 95
        0
309
LINKEDTABLEDATACELL_END
  1
FORMATTEDTABLEDATACELL_BEGIN
300
CELLTABLEFORMAT
  1
TABLEFORMAT_BEGIN
 90
        1
170
     1
 91
        0
 92
        0
 62
   257
 93
        1
300
CONTENTFORMAT
  1
CONTENTFORMAT_BEGIN
 90
        0
 91
        0
 92
      512
 93
        0
300

 40
0.0
140
1.0
 94
        1
 62
     0
340
0
144
0.18
309
CONTENTFORMAT_END
171
     0
 94
        0
309
TABLEFORMAT_END
309
FORMATTEDTABLEDATACELL_END
  1
TABLECELL_BEGIN
 90
        0
 91
        0
309
TABLECELL_END
300
CELL
  1
LINKEDTABLEDATACELL_BEGIN
 90
        0
300

 91
        0
301
CUSTOMDATA
  1
DATAMAP_BEGIN
 90
        0
309
DATAMAP_END
 92
        0
 95
        0
309
LINKEDTABLEDATACELL_END
  1
FORMATTEDTABLEDATACELL_BEGIN
300
CELLTABLEFORMAT
  1
TABLEFORMAT_BEGIN
 90
        1
170
     1
 91
        0
 92
        0
 62
   257
 93
        1
300
CONTENTFORMAT
  1
CONTENTFORMAT_BEGIN
 90
        0
 91
        0
 92
      512
 93
        0
300

 40
0.0
140
1.0
 94
        1
 62
     0
340
0
144
0.18
309
CONTENTFORMAT_END
171
     0
 94
        0
309
TABLEFORMAT_END
309
FORMATTEDTABLEDATACELL_END
  1
TABLECELL_BEGIN
 90
        0
 91
        0
309
TABLECELL_END
300
CELL
  1
LINKEDTABLEDATACELL_BEGIN
 90
        0
300

 91
        0
301
CUSTOMDATA
  1
DATAMAP_BEGIN
 90
        0
309
DATAMAP_END
 92
        0
 95
        0
309
LINKEDTABLEDATACELL_END
  1
FORMATTEDTABLEDATACELL_BEGIN
300
CELLTABLEFORMAT
  1
TABLEFORMAT_BEGIN
 90
        1
170
     1
 91
        0
 92
        0
 62
   257
 93
        1
300
CONTENTFORMAT
  1
CONTENTFORMAT_BEGIN
 90
        0
 91
        0
 92
      512
 93
        0
300

 40
0.0
140
1.0
 94
        1
 62
     0
340
0
144
0.18
309
CONTENTFORMAT_END
171
     0
 94
        0
309
TABLEFORMAT_END
309
FORMATTEDTABLEDATACELL_END
  1
TABLECELL_BEGIN
 90
        0
 91
        0
309
TABLECELL_END
300
CELL
  1
LINKEDTABLEDATACELL_BEGIN
 90
        0
300

 91
        0
301
CUSTOMDATA
  1
DATAMAP_BEGIN
 90
        1
300
ACAD_ROUNDTRIP_2008_CELL_CHECKSUM
301
DATAMAP_VALUE
 93
        2
 90
        2
140
4714.0
 94
        0
300

302

304
ACVALUE_END
309
DATAMAP_END
 92
        0
 95
        1
302
CONTENT
  1
CELLCONTENT_BEGIN
 90
        1
300
VALUE
 93
        2
 90
        4
  1
DATE:03.03.21
 94
        0
300

302
DATE:03.03.21
304
ACVALUE_END
 91
        0
309
CELLCONTENT_END
  1
FORMATTEDCELLCONTENT_BEGIN
170
     1
300
CONTENTFORMAT
  1
CONTENTFORMAT_BEGIN
 90
      132
 91
        0
 92
      512
 93
        0
300

 40
0.0
140
1.0
 94
        1
 62
     0
340
0
144
2.5
309
CONTENTFORMAT_END
309
FORMATTEDCELLCONTENT_END
309
LINKEDTABLEDATACELL_END
  1
FORMATTEDTABLEDATACELL_BEGIN
300
CELLTABLEFORMAT
  1
TABLEFORMAT_BEGIN
 90
        1
170
     1
 91
       16
 92
        0
 62
   257
 93
        1
300
CONTENTFORMAT
  1
CONTENTFORMAT_BEGIN
 90
       16
 91
        0
 92
      512
 93
        0
300

 40
0.0
140
1.0
 94
        4
 62
     0
340
0
144
0.18
309
CONTENTFORMAT_END
171
     0
 94
        4
 95
        1
302
GRIDFORMAT
  1
GRIDFORMAT_BEGIN
 90
       26
 91
        1
 62
     0
 92
       -2
340
0
 93
        0
 40
0.045
309
GRIDFORMAT_END
 95
        4
302
GRIDFORMAT
  1
GRIDFORMAT_BEGIN
 90
       26
 91
        1
 62
     0
 92
       -2
340
0
 93
        0
 40
0.045
309
GRIDFORMAT_END
 95
        8
302
GRIDFORMAT
  1
GRIDFORMAT_BEGIN
 90
       26
 91
        1
 62
     0
 92
       -2
340
0
 93
        0
 40
0.045
309
GRIDFORMAT_END
 95
       32
302
GRIDFORMAT
  1
GRIDFORMAT_BEGIN
 90
       26
 91
        1
 62
     0
 92
       -2
340
0
 93
        0
 40
0.045
309
GRIDFORMAT_END
309
TABLEFORMAT_END
309
FORMATTEDTABLEDATACELL_END
  1
TABLECELL_BEGIN
 90
        0
 91
        0
309
TABLECELL_END
300
CELL
  1
LINKEDTABLEDATACELL_BEGIN
 90
        0
300

 91
        0
301
CUSTOMDATA
  1
DATAMAP_BEGIN
 90
        0
309
DATAMAP_END
 92
        0
 95
        0
309
LINKEDTABLEDATACELL_END
  1
FORMATTEDTABLEDATACELL_BEGIN
300
CELLTABLEFORMAT
  1
TABLEFORMAT_BEGIN
 90
        1
170
     1
 91
        0
 92
        0
 62
   257
 93
        1
300
CONTENTFORMAT
  1
CONTENTFORMAT_BEGIN
 90
        0
 91
        0
 92
      512
 93
        0
300

 40
0.0
140
1.0
 94
        1
 62
     0
340
0
144
0.18
309
CONTENTFORMAT_END
171
     0
 94
        0
309
TABLEFORMAT_END
309
FORMATTEDTABLEDATACELL_END
  1
TABLECELL_BEGIN
 90
        0
 91
        0
309
TABLECELL_END
 91
        0
301
CUSTOMDATA
  1
DATAMAP_BEGIN
 90
        0
309
DATAMAP_END
309
LINKEDTABLEDATAROW_END
  1
FORMATTEDTABLEDATAROW_BEGIN
300
ROWTABLEFORMAT
  1
TABLEFORMAT_BEGIN
 90
        2
170
     0
309
TABLEFORMAT_END
309
FORMATTEDTABLEDATAROW_END
  1
TABLEROW_BEGIN
 90
        3
 40
5.0
309
TABLEROW_END
301
ROW
  1
LINKEDTABLEDATAROW_BEGIN
 90
        5
300
CELL
  1
LINKEDTABLEDATACELL_BEGIN
 90
        0
300

 91
        0
301
CUSTOMDATA
  1
DATAMAP_BEGIN
 90
        1
300
ACAD_ROUNDTRIP_2008_CELL_CHECKSUM
301
DATAMAP_VALUE
 93
        2
 90
        2
140
1361482.0
 94
        0
300

302

304
ACVALUE_END
309
DATAMAP_END
 92
        0
 95
        1
302
CONTENT
  1
CELLCONTENT_BEGIN
 90
        1
300
VALUE
 93
        2
 90
        4
  1
Any integral or partial reproductions are prohibited \Pwithout prior authorisation of L & L Luce & Light s.r.l., \Pin accordance with the law in force. \PAll rights reserved.
 94
        0
300

302
Any integral or partial reproductions are prohibited \Pwithout prior authorisation of L & L Luce & Light s.r.l., \Pin accordance with the law in force. \PAll rights reserved.
304
ACVALUE_END
 91
        0
309
CELLCONTENT_END
  1
FORMATTEDCELLCONTENT_BEGIN
170
     1
300
CONTENTFORMAT
  1
CONTENTFORMAT_BEGIN
 90
      132
 91
        0
 92
      512
 93
        0
300

 40
0.0
140
1.0
 94
        1
 62
     0
340
0
144
2.25
309
CONTENTFORMAT_END
309
FORMATTEDCELLCONTENT_END
309
LINKEDTABLEDATACELL_END
  1
FORMATTEDTABLEDATACELL_BEGIN
300
CELLTABLEFORMAT
  1
TABLEFORMAT_BEGIN
 90
        1
170
     1
 91
       16
 92
        0
 62
   257
 93
        1
300
CONTENTFORMAT
  1
CONTENTFORMAT_BEGIN
 90
       16
 91
        0
 92
      512
 93
        0
300

 40
0.0
140
1.0
 94
        4
 62
     0
340
0
144
0.18
309
CONTENTFORMAT_END
171
     0
 94
        4
 95
        1
302
GRIDFORMAT
  1
GRIDFORMAT_BEGIN
 90
       26
 91
        1
 62
     0
 92
       -2
340
0
 93
        0
 40
0.045
309
GRIDFORMAT_END
 95
        4
302
GRIDFORMAT
  1
GRIDFORMAT_BEGIN
 90
       26
 91
        1
 62
     0
 92
       -2
340
0
 93
        0
 40
0.045
309
GRIDFORMAT_END
 95
        8
302
GRIDFORMAT
  1
GRIDFORMAT_BEGIN
 90
       26
 91
        1
 62
     0
 92
       -2
340
0
 93
        0
 40
0.045
309
GRIDFORMAT_END
 95
       32
302
GRIDFORMAT
  1
GRIDFORMAT_BEGIN
 90
       26
 91
        1
 62
     0
 92
       -2
340
0
 93
        0
 40
0.045
309
GRIDFORMAT_END
309
TABLEFORMAT_END
309
FORMATTEDTABLEDATACELL_END
  1
TABLECELL_BEGIN
 90
        0
 91
        0
309
TABLECELL_END
300
CELL
  1
LINKEDTABLEDATACELL_BEGIN
 90
        0
300

 91
        0
301
CUSTOMDATA
  1
DATAMAP_BEGIN
 90
        0
309
DATAMAP_END
 92
        0
 95
        0
309
LINKEDTABLEDATACELL_END
  1
FORMATTEDTABLEDATACELL_BEGIN
300
CELLTABLEFORMAT
  1
TABLEFORMAT_BEGIN
 90
        1
170
     1
 91
        0
 92
        0
 62
   257
 93
        1
300
CONTENTFORMAT
  1
CONTENTFORMAT_BEGIN
 90
        0
 91
        0
 92
      512
 93
        0
300

 40
0.0
140
1.0
 94
        1
 62
     0
340
0
144
0.18
309
CONTENTFORMAT_END
171
     0
 94
        0
309
TABLEFORMAT_END
309
FORMATTEDTABLEDATACELL_END
  1
TABLECELL_BEGIN
 90
        0
 91
        0
309
TABLECELL_END
300
CELL
  1
LINKEDTABLEDATACELL_BEGIN
 90
        0
300

 91
        0
301
CUSTOMDATA
  1
DATAMAP_BEGIN
 90
        0
309
DATAMAP_END
 92
        0
 95
        0
309
LINKEDTABLEDATACELL_END
  1
FORMATTEDTABLEDATACELL_BEGIN
300
CELLTABLEFORMAT
  1
TABLEFORMAT_BEGIN
 90
        1
170
     1
 91
        0
 92
        0
 62
   257
 93
        1
300
CONTENTFORMAT
  1
CONTENTFORMAT_BEGIN
 90
        0
 91
        0
 92
      512
 93
        0
300

 40
0.0
140
1.0
 94
        1
 62
     0
340
0
144
0.18
309
CONTENTFORMAT_END
171
     0
 94
        0
309
TABLEFORMAT_END
309
FORMATTEDTABLEDATACELL_END
  1
TABLECELL_BEGIN
 90
        0
 91
        0
309
TABLECELL_END
300
CELL
  1
LINKEDTABLEDATACELL_BEGIN
 90
        0
300

 91
        0
301
CUSTOMDATA
  1
DATAMAP_BEGIN
 90
        0
309
DATAMAP_END
 92
        0
 95
        0
309
LINKEDTABLEDATACELL_END
  1
FORMATTEDTABLEDATACELL_BEGIN
300
CELLTABLEFORMAT
  1
TABLEFORMAT_BEGIN
 90
        1
170
     1
 91
        0
 92
        0
 62
   257
 93
        1
300
CONTENTFORMAT
  1
CONTENTFORMAT_BEGIN
 90
        0
 91
        0
 92
      512
 93
        0
300

 40
0.0
140
1.0
 94
        1
 62
     0
340
0
144
0.18
309
CONTENTFORMAT_END
171
     0
 94
        0
309
TABLEFORMAT_END
309
FORMATTEDTABLEDATACELL_END
  1
TABLECELL_BEGIN
 90
        0
 91
        0
309
TABLECELL_END
300
CELL
  1
LINKEDTABLEDATACELL_BEGIN
 90
        0
300

 91
        0
301
CUSTOMDATA
  1
DATAMAP_BEGIN
 90
        0
309
DATAMAP_END
 92
        0
 95
        0
309
LINKEDTABLEDATACELL_END
  1
FORMATTEDTABLEDATACELL_BEGIN
300
CELLTABLEFORMAT
  1
TABLEFORMAT_BEGIN
 90
        1
170
     1
 91
        0
 92
        0
 62
   257
 93
        1
300
CONTENTFORMAT
  1
CONTENTFORMAT_BEGIN
 90
        0
 91
        0
 92
      512
 93
        0
300

 40
0.0
140
1.0
 94
        1
 62
     0
340
0
144
0.18
309
CONTENTFORMAT_END
171
     0
 94
        0
309
TABLEFORMAT_END
309
FORMATTEDTABLEDATACELL_END
  1
TABLECELL_BEGIN
 90
        0
 91
        0
309
TABLECELL_END
 91
        0
301
CUSTOMDATA
  1
DATAMAP_BEGIN
 90
        0
309
DATAMAP_END
309
LINKEDTABLEDATAROW_END
  1
FORMATTEDTABLEDATAROW_BEGIN
300
ROWTABLEFORMAT
  1
TABLEFORMAT_BEGIN
 90
        2
170
     0
309
TABLEFORMAT_END
309
FORMATTEDTABLEDATAROW_END
  1
TABLEROW_BEGIN
 90
        3
 40
13.0
309
TABLEROW_END
100
AcDbFormattedTableData
300
TABLEFORMAT
  1
TABLEFORMAT_BEGIN
 90
        4
170
     1
 91
    15360
 92
        0
 62
   257
 93
        1
300
CONTENTFORMAT
  1
CONTENTFORMAT_BEGIN
 90
        0
 91
        0
 92
      512
 93
        0
300

 40
0.0
140
1.0
 94
        1
 62
     0
340
0
144
0.18
309
CONTENTFORMAT_END
171
     1
301
MARGIN
  1
CELLMARGIN_BEGIN
 40
0.06
 40
0.06
 40
0.06
 40
0.06
 40
0.06
 40
0.06
309
CELLMARGIN_END
 94
        0
309
TABLEFORMAT_END
 90
        4
 91
        0
 92
        0
 93
        3
 94
        2
 91
        2
 92
        3
 93
        2
 94
        4
 91
        3
 92
        3
 93
        3
 94
        4
 91
        4
 92
        0
 93
        4
 94
        4
100
AcDbTableContent
340
527
  0
TABLEGEOMETRY
  5
554
330
556
100
AcDbTableGeometry
 90
        5
 91
        5
 92
       25
 93
        0
 40
0.0
 41
0.0
330
0
 94
        0
 93
        0
 40
0.0
 41
0.0
330
0
 94
        0
 93
        0
 40
0.0
 41
0.0
330
0
 94
        0
 93
        0
 40
0.0
 41
0.0
330
0
 94
        0
 93
        0
 40
0.0
 41
0.0
330
0
 94
        0
 93
        0
 40
0.0
 41
0.0
330
0
 94
        0
 93
        0
 40
0.0
 41
0.0
330
0
 94
        0
 93
        0
 40
0.0
 41
0.0
330
0
 94
        0
 93
        0
 40
0.0
 41
0.0
330
0
 94
        0
 93
        0
 40
0.0
 41
0.0
330
0
 94
        0
 93
        0
 40
0.0
 41
0.0
330
0
 94
        0
 93
        0
 40
0.0
 41
0.0
330
0
 94
        0
 93
        0
 40
0.0
 41
0.0
330
0
 94
        0
 93
        0
 40
0.0
 41
0.0
330
0
 94
        0
 93
        0
 40
0.0
 41
0.0
330
0
 94
        0
 93
        0
 40
0.0
 41
0.0
330
0
 94
        0
 93
        0
 40
0.0
 41
0.0
330
0
 94
        0
 93
        0
 40
0.0
 41
0.0
330
0
 94
        0
 93
        0
 40
0.0
 41
0.0
330
0
 94
        0
 93
        0
 40
0.0
 41
0.0
330
0
 94
        0
 93
        0
 40
0.0
 41
0.0
330
0
 94
        0
 93
        0
 40
0.0
 41
0.0
330
0
 94
        0
 93
        0
 40
0.0
 41
0.0
330
0
 94
        0
 93
        0
 40
0.0
 41
0.0
330
0
 94
        0
 93
        0
 40
0.0
 41
0.0
330
0
 94
        0
  0
DICTIONARY
  5
559
330
527
100
AcDbDictionary
280
     1
281
     1
  3
ACAD_ROUNDTRIP_2008_TABLESTYLE_CELLSTYLEMAP
360
55A
  0
DICTIONARY
  5
563
330
52E
100
AcDbDictionary
280
     1
281
     1
  3
ACAD_XREC_ROUNDTRIP
360
564
  0
DICTIONARY
  5
569
330
531
100
AcDbDictionary
280
     1
281
     1
  3
ACAD_XREC_ROUNDTRIP
360
56A
  0
DICTIONARY
  5
571
330
535
100
AcDbDictionary
280
     1
281
     1
  3
ACAD_XREC_ROUNDTRIP
360
572
  0
DICTIONARY
  5
579
330
539
100
AcDbDictionary
280
     1
281
     1
  3
ACAD_XREC_ROUNDTRIP
360
57A
  0
DICTIONARY
  5
56D
330
533
100
AcDbDictionary
280
     1
281
     1
  3
ACAD_XREC_ROUNDTRIP
360
56E
  0
DICTIONARY
  5
56F
330
534
100
AcDbDictionary
280
     1
281
     1
  3
ACAD_XREC_ROUNDTRIP
360
570
  0
DICTIONARY
  5
57F
330
53C
100
AcDbDictionary
280
     1
281
     1
  3
ACAD_XREC_ROUNDTRIP
360
580
  0
DICTIONARY
  5
577
330
538
100
AcDbDictionary
280
     1
281
     1
  3
ACAD_XREC_ROUNDTRIP
360
578
  0
DICTIONARY
  5
55B
330
52A
100
AcDbDictionary
280
     1
281
     1
  3
ACAD_XREC_ROUNDTRIP
360
55C
  0
DICTIONARY
  5
55D
330
52B
100
AcDbDictionary
280
     1
281
     1
  3
ACAD_XREC_ROUNDTRIP
360
55E
  0
DICTIONARY
  5
55F
330
52C
100
AcDbDictionary
280
     1
281
     1
  3
ACAD_XREC_ROUNDTRIP
360
560
  0
DICTIONARY
  5
561
330
52D
100
AcDbDictionary
280
     1
281
     1
  3
ACAD_XREC_ROUNDTRIP
360
562
  0
DICTIONARY
  5
567
330
530
100
AcDbDictionary
280
     1
281
     1
  3
ACAD_XREC_ROUNDTRIP
360
568
  0
DICTIONARY
  5
57B
330
53A
100
AcDbDictionary
280
     1
281
     1
  3
ACAD_XREC_ROUNDTRIP
360
57C
  0
DICTIONARY
  5
575
330
537
100
AcDbDictionary
280
     1
281
     1
  3
ACAD_XREC_ROUNDTRIP
360
576
  0
DICTIONARY
  5
57D
330
53B
100
AcDbDictionary
280
     1
281
     1
  3
ACAD_XREC_ROUNDTRIP
360
57E
  0
DICTIONARY
  5
56B
330
532
100
AcDbDictionary
280
     1
281
     1
  3
ACAD_XREC_ROUNDTRIP
360
56C
  0
DICTIONARY
  5
589
330
541
100
AcDbDictionary
280
     1
281
     1
  3
ACAD_XREC_ROUNDTRIP
360
58A
  0
DICTIONARY
  5
587
330
540
100
AcDbDictionary
280
     1
281
     1
  3
ACAD_XREC_ROUNDTRIP
360
588
  0
DICTIONARY
  5
581
330
53D
100
AcDbDictionary
280
     1
281
     1
  3
ACAD_XREC_ROUNDTRIP
360
582
  0
DICTIONARY
  5
583
330
53E
100
AcDbDictionary
280
     1
281
     1
  3
ACAD_XREC_ROUNDTRIP
360
584
  0
DICTIONARY
  5
573
330
536
100
AcDbDictionary
280
     1
281
     1
  3
ACAD_XREC_ROUNDTRIP
360
574
  0
DICTIONARY
  5
565
330
52F
100
AcDbDictionary
280
     1
281
     1
  3
ACAD_XREC_ROUNDTRIP
360
566
  0
DICTIONARY
  5
585
330
53F
100
AcDbDictionary
280
     1
281
     1
  3
ACAD_XREC_ROUNDTRIP
360
586
  0
CELLSTYLEMAP
  5
55A
102
{ACAD_REACTORS
330
559
102
}
330
559
100
AcDbCellStyleMap
 90
        3
300
CELLSTYLE
  1
TABLEFORMAT_BEGIN
 90
        5
170
     1
 91
        0
 92
        0
 62
   257
 93
        1
300
CONTENTFORMAT
  1
CONTENTFORMAT_BEGIN
 90
        0
 91
        0
 92
        4
 93
        0
300

 40
0.0
140
1.0
 94
        5
 62
     0
340
11
144
6.0
309
CONTENTFORMAT_END
171
     1
301
MARGIN
  1
CELLMARGIN_BEGIN
 40
1.5
 40
1.5
 40
1.5
 40
1.5
 40
1.5
 40
1.5
309
CELLMARGIN_END
 94
        6
 95
        1
302
GRIDFORMAT
  1
GRIDFORMAT_BEGIN
 90
        0
 91
        1
 62
     0
 92
       -2
340
14
 93
        0
 40
0.045
309
GRIDFORMAT_END
 95
        2
302
GRIDFORMAT
  1
GRIDFORMAT_BEGIN
 90
        0
 91
        1
 62
     0
 92
       -2
340
14
 93
        0
 40
0.045
309
GRIDFORMAT_END
 95
        4
302
GRIDFORMAT
  1
GRIDFORMAT_BEGIN
 90
        0
 91
        1
 62
     0
 92
       -2
340
14
 93
        0
 40
0.045
309
GRIDFORMAT_END
 95
        8
302
GRIDFORMAT
  1
GRIDFORMAT_BEGIN
 90
        0
 91
        1
 62
     0
 92
       -2
340
14
 93
        0
 40
0.045
309
GRIDFORMAT_END
 95
       16
302
GRIDFORMAT
  1
GRIDFORMAT_BEGIN
 90
        0
 91
        1
 62
     0
 92
       -2
340
14
 93
        0
 40
0.045
309
GRIDFORMAT_END
 95
       32
302
GRIDFORMAT
  1
GRIDFORMAT_BEGIN
 90
        0
 91
        1
 62
     0
 92
       -2
340
14
 93
        0
 40
0.045
309
GRIDFORMAT_END
309
TABLEFORMAT_END
  1
CELLSTYLE_BEGIN
 90
        1
 91
        1
300
_TITLE
309
CELLSTYLE_END
300
CELLSTYLE
  1
TABLEFORMAT_BEGIN
 90
        5
170
     1
 91
        0
 92
        0
 62
   257
 93
        1
300
CONTENTFORMAT
  1
CONTENTFORMAT_BEGIN
 90
        0
 91
        0
 92
        4
 93
        0
300

 40
0.0
140
1.0
 94
        5
 62
     0
340
11
144
4.5
309
CONTENTFORMAT_END
171
     1
301
MARGIN
  1
CELLMARGIN_BEGIN
 40
1.5
 40
1.5
 40
1.5
 40
1.5
 40
1.5
 40
1.5
309
CELLMARGIN_END
 94
        6
 95
        1
302
GRIDFORMAT
  1
GRIDFORMAT_BEGIN
 90
        0
 91
        1
 62
     0
 92
       -2
340
14
 93
        0
 40
0.045
309
GRIDFORMAT_END
 95
        2
302
GRIDFORMAT
  1
GRIDFORMAT_BEGIN
 90
        0
 91
        1
 62
     0
 92
       -2
340
14
 93
        0
 40
0.045
309
GRIDFORMAT_END
 95
        4
302
GRIDFORMAT
  1
GRIDFORMAT_BEGIN
 90
        0
 91
        1
 62
     0
 92
       -2
340
14
 93
        0
 40
0.045
309
GRIDFORMAT_END
 95
        8
302
GRIDFORMAT
  1
GRIDFORMAT_BEGIN
 90
        0
 91
        1
 62
     0
 92
       -2
340
14
 93
        0
 40
0.045
309
GRIDFORMAT_END
 95
       16
302
GRIDFORMAT
  1
GRIDFORMAT_BEGIN
 90
        0
 91
        1
 62
     0
 92
       -2
340
14
 93
        0
 40
0.045
309
GRIDFORMAT_END
 95
       32
302
GRIDFORMAT
  1
GRIDFORMAT_BEGIN
 90
        0
 91
        1
 62
     0
 92
       -2
340
14
 93
        0
 40
0.045
309
GRIDFORMAT_END
309
TABLEFORMAT_END
  1
CELLSTYLE_BEGIN
 90
        2
 91
        1
300
_HEADER
309
CELLSTYLE_END
300
CELLSTYLE
  1
TABLEFORMAT_BEGIN
 90
        5
170
     1
 91
        0
 92
        0
 62
   257
 93
        1
300
CONTENTFORMAT
  1
CONTENTFORMAT_BEGIN
 90
        0
 91
        0
 92
        4
 93
        0
300

 40
0.0
140
1.0
 94
        2
 62
     0
340
11
144
4.5
309
CONTENTFORMAT_END
171
     1
301
MARGIN
  1
CELLMARGIN_BEGIN
 40
1.5
 40
1.5
 40
1.5
 40
1.5
 40
1.5
 40
1.5
309
CELLMARGIN_END
 94
        6
 95
        1
302
GRIDFORMAT
  1
GRIDFORMAT_BEGIN
 90
        0
 91
        1
 62
     0
 92
       -2
340
14
 93
        0
 40
0.045
309
GRIDFORMAT_END
 95
        2
302
GRIDFORMAT
  1
GRIDFORMAT_BEGIN
 90
        0
 91
        1
 62
     0
 92
       -2
340
14
 93
        0
 40
0.045
309
GRIDFORMAT_END
 95
        4
302
GRIDFORMAT
  1
GRIDFORMAT_BEGIN
 90
        0
 91
        1
 62
     0
 92
       -2
340
14
 93
        0
 40
0.045
309
GRIDFORMAT_END
 95
        8
302
GRIDFORMAT
  1
GRIDFORMAT_BEGIN
 90
        0
 91
        1
 62
     0
 92
       -2
340
14
 93
        0
 40
0.045
309
GRIDFORMAT_END
 95
       16
302
GRIDFORMAT
  1
GRIDFORMAT_BEGIN
 90
        0
 91
        1
 62
     0
 92
       -2
340
14
 93
        0
 40
0.045
309
GRIDFORMAT_END
 95
       32
302
GRIDFORMAT
  1
GRIDFORMAT_BEGIN
 90
        0
 91
        1
 62
     0
 92
       -2
340
14
 93
        0
 40
0.045
309
GRIDFORMAT_END
309
TABLEFORMAT_END
  1
CELLSTYLE_BEGIN
 90
        3
 91
        2
300
_DATA
309
CELLSTYLE_END
  0
XRECORD
  5
564
102
{ACAD_REACTORS
330
563
102
}
330
563
100
AcDbXrecord
280
     1
102
RTVSPost2010Prop28
280
     1
102
RTVSPost2010PropOp28
 70
     1
102
RTVSPost2010Prop29
280
     1
102
RTVSPost2010PropOp29
 70
     1
102
RTVSPost2010Prop30
280
     0
102
RTVSPost2010PropOp30
 70
     1
102
RTVSPost2010Prop31
280
     0
102
RTVSPost2010PropOp31
 70
     1
102
RTVSPost2010Prop32
280
     0
102
RTVSPost2010PropOp32
 70
     1
102
RTVSPost2010Prop33
280
     0
102
RTVSPost2010PropOp33
 70
     1
102
RTVSPost2010Prop34
280
     0
102
RTVSPost2010PropOp34
 70
     1
102
RTVSPost2010Prop35
280
     0
102
RTVSPost2010PropOp35
 70
     1
102
RTVSPost2010Prop36
280
     0
102
RTVSPost2010PropOp36
 70
     1
102
RTVSPost2010Prop37
 90
       50
102
RTVSPost2010PropOp37
 70
     1
102
RTVSPost2010Prop38
140
0.0
102
RTVSPost2010PropOp38
 70
     1
102
RTVSPost2010Prop39
140
1.0
102
RTVSPost2010PropOp39
 70
     1
102
RTVSPost2010Prop40
 90
        0
102
RTVSPost2010PropOp40
 70
     1
102
RTVSPost2010Prop41ColorIndex
 90
       18
102
RTVSPost2010Prop41ColorRGB
 90
        0
102
RTVSPost2010PropOp41
 70
     1
102
RTVSPost2010Prop42
 90
       50
102
RTVSPost2010PropOp42
 70
     1
102
RTVSPost2010Prop43
 90
        3
102
RTVSPost2010PropOp43
 70
     1
102
RTVSPost2010Prop44ColorIndex
 90
        5
102
RTVSPost2010Prop44ColorRGB
 90
      255
102
RTVSPost2010PropOp44
 70
     1
102
RTVSPost2010Prop45
280
     0
102
RTVSPost2010PropOp45
 70
     1
102
RTVSPost2010Prop46
 90
       50
102
RTVSPost2010PropOp46
 70
     1
102
RTVSPost2010Prop47
 90
       50
102
RTVSPost2010PropOp47
 70
     1
102
RTVSPost2010Prop48
 90
       50
102
RTVSPost2010PropOp48
 70
     1
102
RTVSPost2010Prop49
280
     0
102
RTVSPost2010PropOp49
 70
     1
102
RTVSPost2010Prop50
 90
       50
102
RTVSPost2010PropOp50
 70
     1
102
RTVSPost2010Prop51ColorIndex
 90
      256
102
RTVSPost2010Prop51ColorRGB
 90
-16777216
102
RTVSPost2010PropOp51
 70
     0
102
RTVSPost2010Prop52
140
1.0
102
RTVSPost2010PropOp52
 70
     0
102
RTVSPost2010Prop53
 90
        2
102
RTVSPost2010PropOp53
 70
     1
102
RTVSPost2010Prop54
  1
strokes_ogs.tif
102
RTVSPost2010PropOp54
 70
     1
102
RTVSPost2010Prop55
280
     0
102
RTVSPost2010PropOp55
 70
     1
102
RTVSPost2010Prop56
140
1.0
102
RTVSPost2010PropOp56
 70
     1
102
RTVSPost2010Prop57
140
1.0
102
RTVSPost2010PropOp57
 70
     1
  0
XRECORD
  5
56A
102
{ACAD_REACTORS
330
569
102
}
330
569
100
AcDbXrecord
280
     1
102
RTVSPost2010Prop28
280
     0
102
RTVSPost2010PropOp28
 70
     1
102
RTVSPost2010Prop29
280
     1
102
RTVSPost2010PropOp29
 70
     1
102
RTVSPost2010Prop30
280
     1
102
RTVSPost2010PropOp30
 70
     1
102
RTVSPost2010Prop31
280
     0
102
RTVSPost2010PropOp31
 70
     1
102
RTVSPost2010Prop32
280
     0
102
RTVSPost2010PropOp32
 70
     1
102
RTVSPost2010Prop33
280
     0
102
RTVSPost2010PropOp33
 70
     1
102
RTVSPost2010Prop34
280
     0
102
RTVSPost2010PropOp34
 70
     1
102
RTVSPost2010Prop35
280
     0
102
RTVSPost2010PropOp35
 70
     1
102
RTVSPost2010Prop36
280
     0
102
RTVSPost2010PropOp36
 70
     1
102
RTVSPost2010Prop37
 90
       50
102
RTVSPost2010PropOp37
 70
     1
102
RTVSPost2010Prop38
140
0.0
102
RTVSPost2010PropOp38
 70
     1
102
RTVSPost2010Prop39
140
1.0
102
RTVSPost2010PropOp39
 70
     1
102
RTVSPost2010Prop40
 90
        0
102
RTVSPost2010PropOp40
 70
     1
102
RTVSPost2010Prop41ColorIndex
 90
       18
102
RTVSPost2010Prop41ColorRGB
 90
        0
102
RTVSPost2010PropOp41
 70
     1
102
RTVSPost2010Prop42
 90
       50
102
RTVSPost2010PropOp42
 70
     1
102
RTVSPost2010Prop43
 90
        3
102
RTVSPost2010PropOp43
 70
     1
102
RTVSPost2010Prop44ColorIndex
 90
        5
102
RTVSPost2010Prop44ColorRGB
 90
      255
102
RTVSPost2010PropOp44
 70
     1
102
RTVSPost2010Prop45
280
     0
102
RTVSPost2010PropOp45
 70
     1
102
RTVSPost2010Prop46
 90
       50
102
RTVSPost2010PropOp46
 70
     1
102
RTVSPost2010Prop47
 90
       50
102
RTVSPost2010PropOp47
 70
     1
102
RTVSPost2010Prop48
 90
       50
102
RTVSPost2010PropOp48
 70
     1
102
RTVSPost2010Prop49
280
     0
102
RTVSPost2010PropOp49
 70
     1
102
RTVSPost2010Prop50
 90
       50
102
RTVSPost2010PropOp50
 70
     1
102
RTVSPost2010Prop51ColorIndex
 90
      256
102
RTVSPost2010Prop51ColorRGB
 90
-16777216
102
RTVSPost2010PropOp51
 70
     0
102
RTVSPost2010Prop52
140
1.0
102
RTVSPost2010PropOp52
 70
     0
102
RTVSPost2010Prop53
 90
        2
102
RTVSPost2010PropOp53
 70
     1
102
RTVSPost2010Prop54
  1
strokes_ogs.tif
102
RTVSPost2010PropOp54
 70
     1
102
RTVSPost2010Prop55
280
     0
102
RTVSPost2010PropOp55
 70
     1
102
RTVSPost2010Prop56
140
1.0
102
RTVSPost2010PropOp56
 70
     1
102
RTVSPost2010Prop57
140
1.0
102
RTVSPost2010PropOp57
 70
     1
  0
XRECORD
  5
572
102
{ACAD_REACTORS
330
571
102
}
330
571
100
AcDbXrecord
280
     1
102
RTVSPost2010Prop28
280
     0
102
RTVSPost2010PropOp28
 70
     1
102
RTVSPost2010Prop29
280
     1
102
RTVSPost2010PropOp29
 70
     1
102
RTVSPost2010Prop30
280
     1
102
RTVSPost2010PropOp30
 70
     1
102
RTVSPost2010Prop31
280
     0
102
RTVSPost2010PropOp31
 70
     1
102
RTVSPost2010Prop32
280
     0
102
RTVSPost2010PropOp32
 70
     1
102
RTVSPost2010Prop33
280
     0
102
RTVSPost2010PropOp33
 70
     1
102
RTVSPost2010Prop34
280
     0
102
RTVSPost2010PropOp34
 70
     1
102
RTVSPost2010Prop35
280
     0
102
RTVSPost2010PropOp35
 70
     1
102
RTVSPost2010Prop36
280
     0
102
RTVSPost2010PropOp36
 70
     1
102
RTVSPost2010Prop37
 90
       50
102
RTVSPost2010PropOp37
 70
     1
102
RTVSPost2010Prop38
140
0.0
102
RTVSPost2010PropOp38
 70
     1
102
RTVSPost2010Prop39
140
1.0
102
RTVSPost2010PropOp39
 70
     1
102
RTVSPost2010Prop40
 90
        0
102
RTVSPost2010PropOp40
 70
     1
102
RTVSPost2010Prop41ColorIndex
 90
       18
102
RTVSPost2010Prop41ColorRGB
 90
        0
102
RTVSPost2010PropOp41
 70
     1
102
RTVSPost2010Prop42
 90
       50
102
RTVSPost2010PropOp42
 70
     1
102
RTVSPost2010Prop43
 90
        3
102
RTVSPost2010PropOp43
 70
     1
102
RTVSPost2010Prop44ColorIndex
 90
        5
102
RTVSPost2010Prop44ColorRGB
 90
      255
102
RTVSPost2010PropOp44
 70
     1
102
RTVSPost2010Prop45
280
     0
102
RTVSPost2010PropOp45
 70
     1
102
RTVSPost2010Prop46
 90
       50
102
RTVSPost2010PropOp46
 70
     1
102
RTVSPost2010Prop47
 90
       50
102
RTVSPost2010PropOp47
 70
     1
102
RTVSPost2010Prop48
 90
       50
102
RTVSPost2010PropOp48
 70
     1
102
RTVSPost2010Prop49
280
     0
102
RTVSPost2010PropOp49
 70
     1
102
RTVSPost2010Prop50
 90
       50
102
RTVSPost2010PropOp50
 70
     1
102
RTVSPost2010Prop51ColorIndex
 90
      256
102
RTVSPost2010Prop51ColorRGB
 90
-16777216
102
RTVSPost2010PropOp51
 70
     0
102
RTVSPost2010Prop52
140
1.0
102
RTVSPost2010PropOp52
 70
     0
102
RTVSPost2010Prop53
 90
        2
102
RTVSPost2010PropOp53
 70
     1
102
RTVSPost2010Prop54
  1
strokes_ogs.tif
102
RTVSPost2010PropOp54
 70
     1
102
RTVSPost2010Prop55
280
     0
102
RTVSPost2010PropOp55
 70
     1
102
RTVSPost2010Prop56
140
1.0
102
RTVSPost2010PropOp56
 70
     1
102
RTVSPost2010Prop57
140
1.0
102
RTVSPost2010PropOp57
 70
     1
  0
XRECORD
  5
57A
102
{ACAD_REACTORS
330
579
102
}
330
579
100
AcDbXrecord
280
     1
102
RTVSPost2010Prop28
280
     0
102
RTVSPost2010PropOp28
 70
     1
102
RTVSPost2010Prop29
280
     1
102
RTVSPost2010PropOp29
 70
     1
102
RTVSPost2010Prop30
280
     1
102
RTVSPost2010PropOp30
 70
     1
102
RTVSPost2010Prop31
280
     0
102
RTVSPost2010PropOp31
 70
     1
102
RTVSPost2010Prop32
280
     0
102
RTVSPost2010PropOp32
 70
     1
102
RTVSPost2010Prop33
280
     0
102
RTVSPost2010PropOp33
 70
     1
102
RTVSPost2010Prop34
280
     0
102
RTVSPost2010PropOp34
 70
     1
102
RTVSPost2010Prop35
280
     0
102
RTVSPost2010PropOp35
 70
     1
102
RTVSPost2010Prop36
280
     0
102
RTVSPost2010PropOp36
 70
     1
102
RTVSPost2010Prop37
 90
       50
102
RTVSPost2010PropOp37
 70
     1
102
RTVSPost2010Prop38
140
0.0
102
RTVSPost2010PropOp38
 70
     1
102
RTVSPost2010Prop39
140
1.0
102
RTVSPost2010PropOp39
 70
     1
102
RTVSPost2010Prop40
 90
        0
102
RTVSPost2010PropOp40
 70
     1
102
RTVSPost2010Prop41ColorIndex
 90
       18
102
RTVSPost2010Prop41ColorRGB
 90
        0
102
RTVSPost2010PropOp41
 70
     1
102
RTVSPost2010Prop42
 90
       50
102
RTVSPost2010PropOp42
 70
     1
102
RTVSPost2010Prop43
 90
        3
102
RTVSPost2010PropOp43
 70
     1
102
RTVSPost2010Prop44ColorIndex
 90
        5
102
RTVSPost2010Prop44ColorRGB
 90
      255
102
RTVSPost2010PropOp44
 70
     1
102
RTVSPost2010Prop45
280
     0
102
RTVSPost2010PropOp45
 70
     1
102
RTVSPost2010Prop46
 90
       50
102
RTVSPost2010PropOp46
 70
     1
102
RTVSPost2010Prop47
 90
       50
102
RTVSPost2010PropOp47
 70
     1
102
RTVSPost2010Prop48
 90
       50
102
RTVSPost2010PropOp48
 70
     1
102
RTVSPost2010Prop49
280
     0
102
RTVSPost2010PropOp49
 70
     1
102
RTVSPost2010Prop50
 90
       50
102
RTVSPost2010PropOp50
 70
     1
102
RTVSPost2010Prop51ColorIndex
 90
      256
102
RTVSPost2010Prop51ColorRGB
 90
-16777216
102
RTVSPost2010PropOp51
 70
     0
102
RTVSPost2010Prop52
140
1.0
102
RTVSPost2010PropOp52
 70
     0
102
RTVSPost2010Prop53
 90
        2
102
RTVSPost2010PropOp53
 70
     1
102
RTVSPost2010Prop54
  1
strokes_ogs.tif
102
RTVSPost2010PropOp54
 70
     1
102
RTVSPost2010Prop55
280
     0
102
RTVSPost2010PropOp55
 70
     1
102
RTVSPost2010Prop56
140
1.0
102
RTVSPost2010PropOp56
 70
     1
102
RTVSPost2010Prop57
140
1.0
102
RTVSPost2010PropOp57
 70
     1
  0
XRECORD
  5
56E
102
{ACAD_REACTORS
330
56D
102
}
330
56D
100
AcDbXrecord
280
     1
102
RTVSPost2010Prop28
280
     0
102
RTVSPost2010PropOp28
 70
     1
102
RTVSPost2010Prop29
280
     1
102
RTVSPost2010PropOp29
 70
     1
102
RTVSPost2010Prop30
280
     1
102
RTVSPost2010PropOp30
 70
     1
102
RTVSPost2010Prop31
280
     0
102
RTVSPost2010PropOp31
 70
     1
102
RTVSPost2010Prop32
280
     0
102
RTVSPost2010PropOp32
 70
     1
102
RTVSPost2010Prop33
280
     0
102
RTVSPost2010PropOp33
 70
     1
102
RTVSPost2010Prop34
280
     0
102
RTVSPost2010PropOp34
 70
     1
102
RTVSPost2010Prop35
280
     0
102
RTVSPost2010PropOp35
 70
     1
102
RTVSPost2010Prop36
280
     0
102
RTVSPost2010PropOp36
 70
     1
102
RTVSPost2010Prop37
 90
       50
102
RTVSPost2010PropOp37
 70
     1
102
RTVSPost2010Prop38
140
0.0
102
RTVSPost2010PropOp38
 70
     1
102
RTVSPost2010Prop39
140
1.0
102
RTVSPost2010PropOp39
 70
     1
102
RTVSPost2010Prop40
 90
        0
102
RTVSPost2010PropOp40
 70
     1
102
RTVSPost2010Prop41ColorIndex
 90
       18
102
RTVSPost2010Prop41ColorRGB
 90
        0
102
RTVSPost2010PropOp41
 70
     1
102
RTVSPost2010Prop42
 90
       50
102
RTVSPost2010PropOp42
 70
     1
102
RTVSPost2010Prop43
 90
        3
102
RTVSPost2010PropOp43
 70
     1
102
RTVSPost2010Prop44ColorIndex
 90
        5
102
RTVSPost2010Prop44ColorRGB
 90
      255
102
RTVSPost2010PropOp44
 70
     1
102
RTVSPost2010Prop45
280
     0
102
RTVSPost2010PropOp45
 70
     1
102
RTVSPost2010Prop46
 90
       50
102
RTVSPost2010PropOp46
 70
     1
102
RTVSPost2010Prop47
 90
       50
102
RTVSPost2010PropOp47
 70
     1
102
RTVSPost2010Prop48
 90
       50
102
RTVSPost2010PropOp48
 70
     1
102
RTVSPost2010Prop49
280
     0
102
RTVSPost2010PropOp49
 70
     1
102
RTVSPost2010Prop50
 90
       50
102
RTVSPost2010PropOp50
 70
     1
102
RTVSPost2010Prop51ColorIndex
 90
      256
102
RTVSPost2010Prop51ColorRGB
 90
-16777216
102
RTVSPost2010PropOp51
 70
     0
102
RTVSPost2010Prop52
140
1.0
102
RTVSPost2010PropOp52
 70
     0
102
RTVSPost2010Prop53
 90
        2
102
RTVSPost2010PropOp53
 70
     1
102
RTVSPost2010Prop54
  1
strokes_ogs.tif
102
RTVSPost2010PropOp54
 70
     1
102
RTVSPost2010Prop55
280
     0
102
RTVSPost2010PropOp55
 70
     1
102
RTVSPost2010Prop56
140
1.0
102
RTVSPost2010PropOp56
 70
     1
102
RTVSPost2010Prop57
140
1.0
102
RTVSPost2010PropOp57
 70
     1
  0
XRECORD
  5
570
102
{ACAD_REACTORS
330
56F
102
}
330
56F
100
AcDbXrecord
280
     1
102
RTVSPost2010Prop28
280
     0
102
RTVSPost2010PropOp28
 70
     1
102
RTVSPost2010Prop29
280
     1
102
RTVSPost2010PropOp29
 70
     1
102
RTVSPost2010Prop30
280
     1
102
RTVSPost2010PropOp30
 70
     1
102
RTVSPost2010Prop31
280
     0
102
RTVSPost2010PropOp31
 70
     1
102
RTVSPost2010Prop32
280
     0
102
RTVSPost2010PropOp32
 70
     1
102
RTVSPost2010Prop33
280
     0
102
RTVSPost2010PropOp33
 70
     1
102
RTVSPost2010Prop34
280
     0
102
RTVSPost2010PropOp34
 70
     1
102
RTVSPost2010Prop35
280
     0
102
RTVSPost2010PropOp35
 70
     1
102
RTVSPost2010Prop36
280
     0
102
RTVSPost2010PropOp36
 70
     1
102
RTVSPost2010Prop37
 90
       50
102
RTVSPost2010PropOp37
 70
     1
102
RTVSPost2010Prop38
140
0.0
102
RTVSPost2010PropOp38
 70
     1
102
RTVSPost2010Prop39
140
1.0
102
RTVSPost2010PropOp39
 70
     1
102
RTVSPost2010Prop40
 90
        0
102
RTVSPost2010PropOp40
 70
     1
102
RTVSPost2010Prop41ColorIndex
 90
       18
102
RTVSPost2010Prop41ColorRGB
 90
        0
102
RTVSPost2010PropOp41
 70
     1
102
RTVSPost2010Prop42
 90
       50
102
RTVSPost2010PropOp42
 70
     1
102
RTVSPost2010Prop43
 90
        3
102
RTVSPost2010PropOp43
 70
     1
102
RTVSPost2010Prop44ColorIndex
 90
        5
102
RTVSPost2010Prop44ColorRGB
 90
      255
102
RTVSPost2010PropOp44
 70
     1
102
RTVSPost2010Prop45
280
     0
102
RTVSPost2010PropOp45
 70
     1
102
RTVSPost2010Prop46
 90
       50
102
RTVSPost2010PropOp46
 70
     1
102
RTVSPost2010Prop47
 90
       50
102
RTVSPost2010PropOp47
 70
     1
102
RTVSPost2010Prop48
 90
       50
102
RTVSPost2010PropOp48
 70
     1
102
RTVSPost2010Prop49
280
     0
102
RTVSPost2010PropOp49
 70
     1
102
RTVSPost2010Prop50
 90
       50
102
RTVSPost2010PropOp50
 70
     1
102
RTVSPost2010Prop51ColorIndex
 90
      256
102
RTVSPost2010Prop51ColorRGB
 90
-16777216
102
RTVSPost2010PropOp51
 70
     0
102
RTVSPost2010Prop52
140
1.0
102
RTVSPost2010PropOp52
 70
     0
102
RTVSPost2010Prop53
 90
        2
102
RTVSPost2010PropOp53
 70
     1
102
RTVSPost2010Prop54
  1
strokes_ogs.tif
102
RTVSPost2010PropOp54
 70
     1
102
RTVSPost2010Prop55
280
     0
102
RTVSPost2010PropOp55
 70
     1
102
RTVSPost2010Prop56
140
1.0
102
RTVSPost2010PropOp56
 70
     1
102
RTVSPost2010Prop57
140
1.0
102
RTVSPost2010PropOp57
 70
     1
  0
XRECORD
  5
580
102
{ACAD_REACTORS
330
57F
102
}
330
57F
100
AcDbXrecord
280
     1
102
RTVSPost2010Prop28
280
     0
102
RTVSPost2010PropOp28
 70
     0
102
RTVSPost2010Prop29
280
     1
102
RTVSPost2010PropOp29
 70
     0
102
RTVSPost2010Prop30
280
     1
102
RTVSPost2010PropOp30
 70
     0
102
RTVSPost2010Prop31
280
     0
102
RTVSPost2010PropOp31
 70
     0
102
RTVSPost2010Prop32
280
     0
102
RTVSPost2010PropOp32
 70
     0
102
RTVSPost2010Prop33
280
     0
102
RTVSPost2010PropOp33
 70
     0
102
RTVSPost2010Prop34
280
     0
102
RTVSPost2010PropOp34
 70
     0
102
RTVSPost2010Prop35
280
     0
102
RTVSPost2010PropOp35
 70
     0
102
RTVSPost2010Prop36
280
     0
102
RTVSPost2010PropOp36
 70
     0
102
RTVSPost2010Prop37
 90
       50
102
RTVSPost2010PropOp37
 70
     0
102
RTVSPost2010Prop38
140
0.0
102
RTVSPost2010PropOp38
 70
     0
102
RTVSPost2010Prop39
140
1.0
102
RTVSPost2010PropOp39
 70
     0
102
RTVSPost2010Prop40
 90
        0
102
RTVSPost2010PropOp40
 70
     0
102
RTVSPost2010Prop41ColorIndex
 90
       18
102
RTVSPost2010Prop41ColorRGB
 90
        0
102
RTVSPost2010PropOp41
 70
     0
102
RTVSPost2010Prop42
 90
       50
102
RTVSPost2010PropOp42
 70
     0
102
RTVSPost2010Prop43
 90
        3
102
RTVSPost2010PropOp43
 70
     0
102
RTVSPost2010Prop44ColorIndex
 90
        5
102
RTVSPost2010Prop44ColorRGB
 90
      255
102
RTVSPost2010PropOp44
 70
     0
102
RTVSPost2010Prop45
280
     0
102
RTVSPost2010PropOp45
 70
     0
102
RTVSPost2010Prop46
 90
       50
102
RTVSPost2010PropOp46
 70
     0
102
RTVSPost2010Prop47
 90
       50
102
RTVSPost2010PropOp47
 70
     0
102
RTVSPost2010Prop48
 90
       50
102
RTVSPost2010PropOp48
 70
     0
102
RTVSPost2010Prop49
280
     0
102
RTVSPost2010PropOp49
 70
     0
102
RTVSPost2010Prop50
 90
       50
102
RTVSPost2010PropOp50
 70
     0
102
RTVSPost2010Prop51ColorIndex
 90
      256
102
RTVSPost2010Prop51ColorRGB
 90
-16777216
102
RTVSPost2010PropOp51
 70
     0
102
RTVSPost2010Prop52
140
1.0
102
RTVSPost2010PropOp52
 70
     0
102
RTVSPost2010Prop53
 90
        2
102
RTVSPost2010PropOp53
 70
     0
102
RTVSPost2010Prop54
  1
strokes_ogs.tif
102
RTVSPost2010PropOp54
 70
     0
102
RTVSPost2010Prop55
280
     0
102
RTVSPost2010PropOp55
 70
     0
102
RTVSPost2010Prop56
140
1.0
102
RTVSPost2010PropOp56
 70
     0
102
RTVSPost2010Prop57
140
1.0
102
RTVSPost2010PropOp57
 70
     0
  0
XRECORD
  5
578
102
{ACAD_REACTORS
330
577
102
}
330
577
100
AcDbXrecord
280
     1
102
RTVSPost2010Prop28
280
     0
102
RTVSPost2010PropOp28
 70
     1
102
RTVSPost2010Prop29
280
     1
102
RTVSPost2010PropOp29
 70
     1
102
RTVSPost2010Prop30
280
     1
102
RTVSPost2010PropOp30
 70
     1
102
RTVSPost2010Prop31
280
     0
102
RTVSPost2010PropOp31
 70
     1
102
RTVSPost2010Prop32
280
     0
102
RTVSPost2010PropOp32
 70
     1
102
RTVSPost2010Prop33
280
     0
102
RTVSPost2010PropOp33
 70
     1
102
RTVSPost2010Prop34
280
     0
102
RTVSPost2010PropOp34
 70
     1
102
RTVSPost2010Prop35
280
     0
102
RTVSPost2010PropOp35
 70
     1
102
RTVSPost2010Prop36
280
     0
102
RTVSPost2010PropOp36
 70
     1
102
RTVSPost2010Prop37
 90
       50
102
RTVSPost2010PropOp37
 70
     1
102
RTVSPost2010Prop38
140
0.0
102
RTVSPost2010PropOp38
 70
     1
102
RTVSPost2010Prop39
140
1.0
102
RTVSPost2010PropOp39
 70
     1
102
RTVSPost2010Prop40
 90
        0
102
RTVSPost2010PropOp40
 70
     1
102
RTVSPost2010Prop41ColorIndex
 90
       18
102
RTVSPost2010Prop41ColorRGB
 90
        0
102
RTVSPost2010PropOp41
 70
     1
102
RTVSPost2010Prop42
 90
       50
102
RTVSPost2010PropOp42
 70
     1
102
RTVSPost2010Prop43
 90
        3
102
RTVSPost2010PropOp43
 70
     1
102
RTVSPost2010Prop44ColorIndex
 90
        5
102
RTVSPost2010Prop44ColorRGB
 90
      255
102
RTVSPost2010PropOp44
 70
     1
102
RTVSPost2010Prop45
280
     0
102
RTVSPost2010PropOp45
 70
     1
102
RTVSPost2010Prop46
 90
       50
102
RTVSPost2010PropOp46
 70
     1
102
RTVSPost2010Prop47
 90
       50
102
RTVSPost2010PropOp47
 70
     1
102
RTVSPost2010Prop48
 90
       50
102
RTVSPost2010PropOp48
 70
     1
102
RTVSPost2010Prop49
280
     0
102
RTVSPost2010PropOp49
 70
     1
102
RTVSPost2010Prop50
 90
       50
102
RTVSPost2010PropOp50
 70
     1
102
RTVSPost2010Prop51ColorIndex
 90
      256
102
RTVSPost2010Prop51ColorRGB
 90
-16777216
102
RTVSPost2010PropOp51
 70
     0
102
RTVSPost2010Prop52
140
1.0
102
RTVSPost2010PropOp52
 70
     0
102
RTVSPost2010Prop53
 90
        2
102
RTVSPost2010PropOp53
 70
     1
102
RTVSPost2010Prop54
  1
strokes_ogs.tif
102
RTVSPost2010PropOp54
 70
     1
102
RTVSPost2010Prop55
280
     0
102
RTVSPost2010PropOp55
 70
     1
102
RTVSPost2010Prop56
140
1.0
102
RTVSPost2010PropOp56
 70
     1
102
RTVSPost2010Prop57
140
1.0
102
RTVSPost2010PropOp57
 70
     1
  0
XRECORD
  5
55C
102
{ACAD_REACTORS
330
55B
102
}
330
55B
100
AcDbXrecord
280
     1
102
RTVSPost2010Prop28
280
     0
102
RTVSPost2010PropOp28
 70
     1
102
RTVSPost2010Prop29
280
     1
102
RTVSPost2010PropOp29
 70
     1
102
RTVSPost2010Prop30
280
     1
102
RTVSPost2010PropOp30
 70
     1
102
RTVSPost2010Prop31
280
     0
102
RTVSPost2010PropOp31
 70
     1
102
RTVSPost2010Prop32
280
     0
102
RTVSPost2010PropOp32
 70
     1
102
RTVSPost2010Prop33
280
     0
102
RTVSPost2010PropOp33
 70
     1
102
RTVSPost2010Prop34
280
     0
102
RTVSPost2010PropOp34
 70
     1
102
RTVSPost2010Prop35
280
     0
102
RTVSPost2010PropOp35
 70
     1
102
RTVSPost2010Prop36
280
     0
102
RTVSPost2010PropOp36
 70
     1
102
RTVSPost2010Prop37
 90
       50
102
RTVSPost2010PropOp37
 70
     1
102
RTVSPost2010Prop38
140
0.0
102
RTVSPost2010PropOp38
 70
     1
102
RTVSPost2010Prop39
140
1.0
102
RTVSPost2010PropOp39
 70
     1
102
RTVSPost2010Prop40
 90
        0
102
RTVSPost2010PropOp40
 70
     1
102
RTVSPost2010Prop41ColorIndex
 90
       18
102
RTVSPost2010Prop41ColorRGB
 90
        0
102
RTVSPost2010PropOp41
 70
     1
102
RTVSPost2010Prop42
 90
       50
102
RTVSPost2010PropOp42
 70
     1
102
RTVSPost2010Prop43
 90
        3
102
RTVSPost2010PropOp43
 70
     1
102
RTVSPost2010Prop44ColorIndex
 90
        5
102
RTVSPost2010Prop44ColorRGB
 90
      255
102
RTVSPost2010PropOp44
 70
     1
102
RTVSPost2010Prop45
280
     0
102
RTVSPost2010PropOp45
 70
     1
102
RTVSPost2010Prop46
 90
       50
102
RTVSPost2010PropOp46
 70
     1
102
RTVSPost2010Prop47
 90
       50
102
RTVSPost2010PropOp47
 70
     1
102
RTVSPost2010Prop48
 90
       50
102
RTVSPost2010PropOp48
 70
     1
102
RTVSPost2010Prop49
280
     0
102
RTVSPost2010PropOp49
 70
     1
102
RTVSPost2010Prop50
 90
       50
102
RTVSPost2010PropOp50
 70
     1
102
RTVSPost2010Prop51ColorIndex
 90
      256
102
RTVSPost2010Prop51ColorRGB
 90
-16777216
102
RTVSPost2010PropOp51
 70
     0
102
RTVSPost2010Prop52
140
1.0
102
RTVSPost2010PropOp52
 70
     0
102
RTVSPost2010Prop53
 90
        2
102
RTVSPost2010PropOp53
 70
     1
102
RTVSPost2010Prop54
  1
strokes_ogs.tif
102
RTVSPost2010PropOp54
 70
     1
102
RTVSPost2010Prop55
280
     0
102
RTVSPost2010PropOp55
 70
     1
102
RTVSPost2010Prop56
140
1.0
102
RTVSPost2010PropOp56
 70
     1
102
RTVSPost2010Prop57
140
1.0
102
RTVSPost2010PropOp57
 70
     1
  0
XRECORD
  5
55E
102
{ACAD_REACTORS
330
55D
102
}
330
55D
100
AcDbXrecord
280
     1
102
RTVSPost2010Prop28
280
     0
102
RTVSPost2010PropOp28
 70
     1
102
RTVSPost2010Prop29
280
     1
102
RTVSPost2010PropOp29
 70
     1
102
RTVSPost2010Prop30
280
     1
102
RTVSPost2010PropOp30
 70
     1
102
RTVSPost2010Prop31
280
     0
102
RTVSPost2010PropOp31
 70
     1
102
RTVSPost2010Prop32
280
     0
102
RTVSPost2010PropOp32
 70
     1
102
RTVSPost2010Prop33
280
     0
102
RTVSPost2010PropOp33
 70
     1
102
RTVSPost2010Prop34
280
     0
102
RTVSPost2010PropOp34
 70
     1
102
RTVSPost2010Prop35
280
     0
102
RTVSPost2010PropOp35
 70
     1
102
RTVSPost2010Prop36
280
     0
102
RTVSPost2010PropOp36
 70
     1
102
RTVSPost2010Prop37
 90
       50
102
RTVSPost2010PropOp37
 70
     1
102
RTVSPost2010Prop38
140
0.0
102
RTVSPost2010PropOp38
 70
     1
102
RTVSPost2010Prop39
140
1.0
102
RTVSPost2010PropOp39
 70
     1
102
RTVSPost2010Prop40
 90
        0
102
RTVSPost2010PropOp40
 70
     1
102
RTVSPost2010Prop41ColorIndex
 90
       18
102
RTVSPost2010Prop41ColorRGB
 90
        0
102
RTVSPost2010PropOp41
 70
     1
102
RTVSPost2010Prop42
 90
       50
102
RTVSPost2010PropOp42
 70
     1
102
RTVSPost2010Prop43
 90
        3
102
RTVSPost2010PropOp43
 70
     1
102
RTVSPost2010Prop44ColorIndex
 90
        5
102
RTVSPost2010Prop44ColorRGB
 90
      255
102
RTVSPost2010PropOp44
 70
     1
102
RTVSPost2010Prop45
280
     0
102
RTVSPost2010PropOp45
 70
     1
102
RTVSPost2010Prop46
 90
       50
102
RTVSPost2010PropOp46
 70
     1
102
RTVSPost2010Prop47
 90
       50
102
RTVSPost2010PropOp47
 70
     1
102
RTVSPost2010Prop48
 90
       50
102
RTVSPost2010PropOp48
 70
     1
102
RTVSPost2010Prop49
280
     0
102
RTVSPost2010PropOp49
 70
     1
102
RTVSPost2010Prop50
 90
       50
102
RTVSPost2010PropOp50
 70
     1
102
RTVSPost2010Prop51ColorIndex
 90
      256
102
RTVSPost2010Prop51ColorRGB
 90
-16777216
102
RTVSPost2010PropOp51
 70
     0
102
RTVSPost2010Prop52
140
1.0
102
RTVSPost2010PropOp52
 70
     0
102
RTVSPost2010Prop53
 90
        2
102
RTVSPost2010PropOp53
 70
     1
102
RTVSPost2010Prop54
  1
strokes_ogs.tif
102
RTVSPost2010PropOp54
 70
     1
102
RTVSPost2010Prop55
280
     0
102
RTVSPost2010PropOp55
 70
     1
102
RTVSPost2010Prop56
140
1.0
102
RTVSPost2010PropOp56
 70
     1
102
RTVSPost2010Prop57
140
1.0
102
RTVSPost2010PropOp57
 70
     1
  0
XRECORD
  5
560
102
{ACAD_REACTORS
330
55F
102
}
330
55F
100
AcDbXrecord
280
     1
102
RTVSPost2010Prop28
280
     0
102
RTVSPost2010PropOp28
 70
     1
102
RTVSPost2010Prop29
280
     1
102
RTVSPost2010PropOp29
 70
     1
102
RTVSPost2010Prop30
280
     1
102
RTVSPost2010PropOp30
 70
     1
102
RTVSPost2010Prop31
280
     0
102
RTVSPost2010PropOp31
 70
     1
102
RTVSPost2010Prop32
280
     0
102
RTVSPost2010PropOp32
 70
     1
102
RTVSPost2010Prop33
280
     0
102
RTVSPost2010PropOp33
 70
     1
102
RTVSPost2010Prop34
280
     0
102
RTVSPost2010PropOp34
 70
     1
102
RTVSPost2010Prop35
280
     0
102
RTVSPost2010PropOp35
 70
     1
102
RTVSPost2010Prop36
280
     0
102
RTVSPost2010PropOp36
 70
     1
102
RTVSPost2010Prop37
 90
       50
102
RTVSPost2010PropOp37
 70
     1
102
RTVSPost2010Prop38
140
0.0
102
RTVSPost2010PropOp38
 70
     1
102
RTVSPost2010Prop39
140
1.0
102
RTVSPost2010PropOp39
 70
     1
102
RTVSPost2010Prop40
 90
        0
102
RTVSPost2010PropOp40
 70
     1
102
RTVSPost2010Prop41ColorIndex
 90
       18
102
RTVSPost2010Prop41ColorRGB
 90
        0
102
RTVSPost2010PropOp41
 70
     1
102
RTVSPost2010Prop42
 90
       50
102
RTVSPost2010PropOp42
 70
     1
102
RTVSPost2010Prop43
 90
        3
102
RTVSPost2010PropOp43
 70
     1
102
RTVSPost2010Prop44ColorIndex
 90
        5
102
RTVSPost2010Prop44ColorRGB
 90
      255
102
RTVSPost2010PropOp44
 70
     1
102
RTVSPost2010Prop45
280
     0
102
RTVSPost2010PropOp45
 70
     1
102
RTVSPost2010Prop46
 90
       50
102
RTVSPost2010PropOp46
 70
     1
102
RTVSPost2010Prop47
 90
       50
102
RTVSPost2010PropOp47
 70
     1
102
RTVSPost2010Prop48
 90
       50
102
RTVSPost2010PropOp48
 70
     1
102
RTVSPost2010Prop49
280
     0
102
RTVSPost2010PropOp49
 70
     1
102
RTVSPost2010Prop50
 90
       50
102
RTVSPost2010PropOp50
 70
     1
102
RTVSPost2010Prop51ColorIndex
 90
      256
102
RTVSPost2010Prop51ColorRGB
 90
-16777216
102
RTVSPost2010PropOp51
 70
     0
102
RTVSPost2010Prop52
140
1.0
102
RTVSPost2010PropOp52
 70
     0
102
RTVSPost2010Prop53
 90
        2
102
RTVSPost2010PropOp53
 70
     1
102
RTVSPost2010Prop54
  1
strokes_ogs.tif
102
RTVSPost2010PropOp54
 70
     1
102
RTVSPost2010Prop55
280
     0
102
RTVSPost2010PropOp55
 70
     1
102
RTVSPost2010Prop56
140
1.0
102
RTVSPost2010PropOp56
 70
     1
102
RTVSPost2010Prop57
140
1.0
102
RTVSPost2010PropOp57
 70
     1
  0
XRECORD
  5
562
102
{ACAD_REACTORS
330
561
102
}
330
561
100
AcDbXrecord
280
     1
102
RTVSPost2010Prop28
280
     0
102
RTVSPost2010PropOp28
 70
     1
102
RTVSPost2010Prop29
280
     1
102
RTVSPost2010PropOp29
 70
     1
102
RTVSPost2010Prop30
280
     1
102
RTVSPost2010PropOp30
 70
     1
102
RTVSPost2010Prop31
280
     0
102
RTVSPost2010PropOp31
 70
     1
102
RTVSPost2010Prop32
280
     0
102
RTVSPost2010PropOp32
 70
     1
102
RTVSPost2010Prop33
280
     0
102
RTVSPost2010PropOp33
 70
     1
102
RTVSPost2010Prop34
280
     0
102
RTVSPost2010PropOp34
 70
     1
102
RTVSPost2010Prop35
280
     0
102
RTVSPost2010PropOp35
 70
     1
102
RTVSPost2010Prop36
280
     0
102
RTVSPost2010PropOp36
 70
     1
102
RTVSPost2010Prop37
 90
       50
102
RTVSPost2010PropOp37
 70
     1
102
RTVSPost2010Prop38
140
0.0
102
RTVSPost2010PropOp38
 70
     1
102
RTVSPost2010Prop39
140
1.0
102
RTVSPost2010PropOp39
 70
     1
102
RTVSPost2010Prop40
 90
        0
102
RTVSPost2010PropOp40
 70
     1
102
RTVSPost2010Prop41ColorIndex
 90
       18
102
RTVSPost2010Prop41ColorRGB
 90
        0
102
RTVSPost2010PropOp41
 70
     1
102
RTVSPost2010Prop42
 90
       50
102
RTVSPost2010PropOp42
 70
     1
102
RTVSPost2010Prop43
 90
        3
102
RTVSPost2010PropOp43
 70
     1
102
RTVSPost2010Prop44ColorIndex
 90
        5
102
RTVSPost2010Prop44ColorRGB
 90
      255
102
RTVSPost2010PropOp44
 70
     1
102
RTVSPost2010Prop45
280
     0
102
RTVSPost2010PropOp45
 70
     1
102
RTVSPost2010Prop46
 90
       50
102
RTVSPost2010PropOp46
 70
     1
102
RTVSPost2010Prop47
 90
       50
102
RTVSPost2010PropOp47
 70
     1
102
RTVSPost2010Prop48
 90
       50
102
RTVSPost2010PropOp48
 70
     1
102
RTVSPost2010Prop49
280
     0
102
RTVSPost2010PropOp49
 70
     1
102
RTVSPost2010Prop50
 90
       50
102
RTVSPost2010PropOp50
 70
     1
102
RTVSPost2010Prop51ColorIndex
 90
      256
102
RTVSPost2010Prop51ColorRGB
 90
-16777216
102
RTVSPost2010PropOp51
 70
     0
102
RTVSPost2010Prop52
140
1.0
102
RTVSPost2010PropOp52
 70
     0
102
RTVSPost2010Prop53
 90
        2
102
RTVSPost2010PropOp53
 70
     1
102
RTVSPost2010Prop54
  1
strokes_ogs.tif
102
RTVSPost2010PropOp54
 70
     1
102
RTVSPost2010Prop55
280
     0
102
RTVSPost2010PropOp55
 70
     1
102
RTVSPost2010Prop56
140
1.0
102
RTVSPost2010PropOp56
 70
     1
102
RTVSPost2010Prop57
140
1.0
102
RTVSPost2010PropOp57
 70
     1
  0
XRECORD
  5
568
102
{ACAD_REACTORS
330
567
102
}
330
567
100
AcDbXrecord
280
     1
102
RTVSPost2010Prop28
280
     0
102
RTVSPost2010PropOp28
 70
     1
102
RTVSPost2010Prop29
280
     1
102
RTVSPost2010PropOp29
 70
     1
102
RTVSPost2010Prop30
280
     1
102
RTVSPost2010PropOp30
 70
     1
102
RTVSPost2010Prop31
280
     0
102
RTVSPost2010PropOp31
 70
     1
102
RTVSPost2010Prop32
280
     0
102
RTVSPost2010PropOp32
 70
     1
102
RTVSPost2010Prop33
280
     0
102
RTVSPost2010PropOp33
 70
     1
102
RTVSPost2010Prop34
280
     0
102
RTVSPost2010PropOp34
 70
     1
102
RTVSPost2010Prop35
280
     0
102
RTVSPost2010PropOp35
 70
     1
102
RTVSPost2010Prop36
280
     0
102
RTVSPost2010PropOp36
 70
     1
102
RTVSPost2010Prop37
 90
       50
102
RTVSPost2010PropOp37
 70
     1
102
RTVSPost2010Prop38
140
0.0
102
RTVSPost2010PropOp38
 70
     1
102
RTVSPost2010Prop39
140
1.0
102
RTVSPost2010PropOp39
 70
     1
102
RTVSPost2010Prop40
 90
        0
102
RTVSPost2010PropOp40
 70
     1
102
RTVSPost2010Prop41ColorIndex
 90
       18
102
RTVSPost2010Prop41ColorRGB
 90
        0
102
RTVSPost2010PropOp41
 70
     1
102
RTVSPost2010Prop42
 90
       50
102
RTVSPost2010PropOp42
 70
     1
102
RTVSPost2010Prop43
 90
        3
102
RTVSPost2010PropOp43
 70
     1
102
RTVSPost2010Prop44ColorIndex
 90
        5
102
RTVSPost2010Prop44ColorRGB
 90
      255
102
RTVSPost2010PropOp44
 70
     1
102
RTVSPost2010Prop45
280
     0
102
RTVSPost2010PropOp45
 70
     1
102
RTVSPost2010Prop46
 90
       50
102
RTVSPost2010PropOp46
 70
     1
102
RTVSPost2010Prop47
 90
       50
102
RTVSPost2010PropOp47
 70
     1
102
RTVSPost2010Prop48
 90
       50
102
RTVSPost2010PropOp48
 70
     1
102
RTVSPost2010Prop49
280
     0
102
RTVSPost2010PropOp49
 70
     1
102
RTVSPost2010Prop50
 90
       50
102
RTVSPost2010PropOp50
 70
     1
102
RTVSPost2010Prop51ColorIndex
 90
      256
102
RTVSPost2010Prop51ColorRGB
 90
-16777216
102
RTVSPost2010PropOp51
 70
     0
102
RTVSPost2010Prop52
140
1.0
102
RTVSPost2010PropOp52
 70
     0
102
RTVSPost2010Prop53
 90
        2
102
RTVSPost2010PropOp53
 70
     1
102
RTVSPost2010Prop54
  1
strokes_ogs.tif
102
RTVSPost2010PropOp54
 70
     1
102
RTVSPost2010Prop55
280
     0
102
RTVSPost2010PropOp55
 70
     1
102
RTVSPost2010Prop56
140
1.0
102
RTVSPost2010PropOp56
 70
     1
102
RTVSPost2010Prop57
140
1.0
102
RTVSPost2010PropOp57
 70
     1
  0
XRECORD
  5
57C
102
{ACAD_REACTORS
330
57B
102
}
330
57B
100
AcDbXrecord
280
     1
102
RTVSPost2010Prop28
280
     0
102
RTVSPost2010PropOp28
 70
     0
102
RTVSPost2010Prop29
280
     1
102
RTVSPost2010PropOp29
 70
     0
102
RTVSPost2010Prop30
280
     1
102
RTVSPost2010PropOp30
 70
     0
102
RTVSPost2010Prop31
280
     0
102
RTVSPost2010PropOp31
 70
     0
102
RTVSPost2010Prop32
280
     0
102
RTVSPost2010PropOp32
 70
     0
102
RTVSPost2010Prop33
280
     0
102
RTVSPost2010PropOp33
 70
     0
102
RTVSPost2010Prop34
280
     0
102
RTVSPost2010PropOp34
 70
     0
102
RTVSPost2010Prop35
280
     0
102
RTVSPost2010PropOp35
 70
     0
102
RTVSPost2010Prop36
280
     0
102
RTVSPost2010PropOp36
 70
     0
102
RTVSPost2010Prop37
 90
       50
102
RTVSPost2010PropOp37
 70
     0
102
RTVSPost2010Prop38
140
0.0
102
RTVSPost2010PropOp38
 70
     0
102
RTVSPost2010Prop39
140
1.0
102
RTVSPost2010PropOp39
 70
     0
102
RTVSPost2010Prop40
 90
        0
102
RTVSPost2010PropOp40
 70
     0
102
RTVSPost2010Prop41ColorIndex
 90
       18
102
RTVSPost2010Prop41ColorRGB
 90
        0
102
RTVSPost2010PropOp41
 70
     0
102
RTVSPost2010Prop42
 90
       50
102
RTVSPost2010PropOp42
 70
     0
102
RTVSPost2010Prop43
 90
        3
102
RTVSPost2010PropOp43
 70
     0
102
RTVSPost2010Prop44ColorIndex
 90
        5
102
RTVSPost2010Prop44ColorRGB
 90
      255
102
RTVSPost2010PropOp44
 70
     0
102
RTVSPost2010Prop45
280
     0
102
RTVSPost2010PropOp45
 70
     0
102
RTVSPost2010Prop46
 90
       50
102
RTVSPost2010PropOp46
 70
     0
102
RTVSPost2010Prop47
 90
       50
102
RTVSPost2010PropOp47
 70
     0
102
RTVSPost2010Prop48
 90
       50
102
RTVSPost2010PropOp48
 70
     0
102
RTVSPost2010Prop49
280
     0
102
RTVSPost2010PropOp49
 70
     0
102
RTVSPost2010Prop50
 90
       50
102
RTVSPost2010PropOp50
 70
     0
102
RTVSPost2010Prop51ColorIndex
 90
      256
102
RTVSPost2010Prop51ColorRGB
 90
-16777216
102
RTVSPost2010PropOp51
 70
     0
102
RTVSPost2010Prop52
140
1.0
102
RTVSPost2010PropOp52
 70
     0
102
RTVSPost2010Prop53
 90
        2
102
RTVSPost2010PropOp53
 70
     0
102
RTVSPost2010Prop54
  1
strokes_ogs.tif
102
RTVSPost2010PropOp54
 70
     0
102
RTVSPost2010Prop55
280
     0
102
RTVSPost2010PropOp55
 70
     0
102
RTVSPost2010Prop56
140
1.0
102
RTVSPost2010PropOp56
 70
     0
102
RTVSPost2010Prop57
140
1.0
102
RTVSPost2010PropOp57
 70
     0
  0
XRECORD
  5
576
102
{ACAD_REACTORS
330
575
102
}
330
575
100
AcDbXrecord
280
     1
102
RTVSPost2010Prop28
280
     0
102
RTVSPost2010PropOp28
 70
     1
102
RTVSPost2010Prop29
280
     1
102
RTVSPost2010PropOp29
 70
     1
102
RTVSPost2010Prop30
280
     1
102
RTVSPost2010PropOp30
 70
     1
102
RTVSPost2010Prop31
280
     0
102
RTVSPost2010PropOp31
 70
     1
102
RTVSPost2010Prop32
280
     0
102
RTVSPost2010PropOp32
 70
     1
102
RTVSPost2010Prop33
280
     0
102
RTVSPost2010PropOp33
 70
     1
102
RTVSPost2010Prop34
280
     0
102
RTVSPost2010PropOp34
 70
     1
102
RTVSPost2010Prop35
280
     0
102
RTVSPost2010PropOp35
 70
     1
102
RTVSPost2010Prop36
280
     0
102
RTVSPost2010PropOp36
 70
     1
102
RTVSPost2010Prop37
 90
       50
102
RTVSPost2010PropOp37
 70
     1
102
RTVSPost2010Prop38
140
0.0
102
RTVSPost2010PropOp38
 70
     1
102
RTVSPost2010Prop39
140
1.0
102
RTVSPost2010PropOp39
 70
     1
102
RTVSPost2010Prop40
 90
        0
102
RTVSPost2010PropOp40
 70
     1
102
RTVSPost2010Prop41ColorIndex
 90
       18
102
RTVSPost2010Prop41ColorRGB
 90
        0
102
RTVSPost2010PropOp41
 70
     1
102
RTVSPost2010Prop42
 90
       50
102
RTVSPost2010PropOp42
 70
     1
102
RTVSPost2010Prop43
 90
        3
102
RTVSPost2010PropOp43
 70
     1
102
RTVSPost2010Prop44ColorIndex
 90
        5
102
RTVSPost2010Prop44ColorRGB
 90
      255
102
RTVSPost2010PropOp44
 70
     1
102
RTVSPost2010Prop45
280
     0
102
RTVSPost2010PropOp45
 70
     1
102
RTVSPost2010Prop46
 90
       50
102
RTVSPost2010PropOp46
 70
     1
102
RTVSPost2010Prop47
 90
       50
102
RTVSPost2010PropOp47
 70
     1
102
RTVSPost2010Prop48
 90
       50
102
RTVSPost2010PropOp48
 70
     1
102
RTVSPost2010Prop49
280
     0
102
RTVSPost2010PropOp49
 70
     1
102
RTVSPost2010Prop50
 90
       50
102
RTVSPost2010PropOp50
 70
     1
102
RTVSPost2010Prop51ColorIndex
 90
      256
102
RTVSPost2010Prop51ColorRGB
 90
-16777216
102
RTVSPost2010PropOp51
 70
     0
102
RTVSPost2010Prop52
140
1.0
102
RTVSPost2010PropOp52
 70
     0
102
RTVSPost2010Prop53
 90
        2
102
RTVSPost2010PropOp53
 70
     1
102
RTVSPost2010Prop54
  1
strokes_ogs.tif
102
RTVSPost2010PropOp54
 70
     1
102
RTVSPost2010Prop55
280
     0
102
RTVSPost2010PropOp55
 70
     1
102
RTVSPost2010Prop56
140
1.0
102
RTVSPost2010PropOp56
 70
     1
102
RTVSPost2010Prop57
140
1.0
102
RTVSPost2010PropOp57
 70
     1
  0
XRECORD
  5
57E
102
{ACAD_REACTORS
330
57D
102
}
330
57D
100
AcDbXrecord
280
     1
102
RTVSPost2010Prop28
280
     0
102
RTVSPost2010PropOp28
 70
     0
102
RTVSPost2010Prop29
280
     1
102
RTVSPost2010PropOp29
 70
     0
102
RTVSPost2010Prop30
280
     1
102
RTVSPost2010PropOp30
 70
     0
102
RTVSPost2010Prop31
280
     0
102
RTVSPost2010PropOp31
 70
     0
102
RTVSPost2010Prop32
280
     0
102
RTVSPost2010PropOp32
 70
     0
102
RTVSPost2010Prop33
280
     0
102
RTVSPost2010PropOp33
 70
     0
102
RTVSPost2010Prop34
280
     0
102
RTVSPost2010PropOp34
 70
     0
102
RTVSPost2010Prop35
280
     0
102
RTVSPost2010PropOp35
 70
     0
102
RTVSPost2010Prop36
280
     0
102
RTVSPost2010PropOp36
 70
     0
102
RTVSPost2010Prop37
 90
       50
102
RTVSPost2010PropOp37
 70
     0
102
RTVSPost2010Prop38
140
0.0
102
RTVSPost2010PropOp38
 70
     0
102
RTVSPost2010Prop39
140
1.0
102
RTVSPost2010PropOp39
 70
     0
102
RTVSPost2010Prop40
 90
        0
102
RTVSPost2010PropOp40
 70
     0
102
RTVSPost2010Prop41ColorIndex
 90
       18
102
RTVSPost2010Prop41ColorRGB
 90
        0
102
RTVSPost2010PropOp41
 70
     0
102
RTVSPost2010Prop42
 90
       50
102
RTVSPost2010PropOp42
 70
     0
102
RTVSPost2010Prop43
 90
        3
102
RTVSPost2010PropOp43
 70
     0
102
RTVSPost2010Prop44ColorIndex
 90
        5
102
RTVSPost2010Prop44ColorRGB
 90
      255
102
RTVSPost2010PropOp44
 70
     0
102
RTVSPost2010Prop45
280
     0
102
RTVSPost2010PropOp45
 70
     0
102
RTVSPost2010Prop46
 90
       50
102
RTVSPost2010PropOp46
 70
     0
102
RTVSPost2010Prop47
 90
       50
102
RTVSPost2010PropOp47
 70
     0
102
RTVSPost2010Prop48
 90
       50
102
RTVSPost2010PropOp48
 70
     0
102
RTVSPost2010Prop49
280
     0
102
RTVSPost2010PropOp49
 70
     0
102
RTVSPost2010Prop50
 90
       50
102
RTVSPost2010PropOp50
 70
     0
102
RTVSPost2010Prop51ColorIndex
 90
      256
102
RTVSPost2010Prop51ColorRGB
 90
-16777216
102
RTVSPost2010PropOp51
 70
     0
102
RTVSPost2010Prop52
140
1.0
102
RTVSPost2010PropOp52
 70
     0
102
RTVSPost2010Prop53
 90
        2
102
RTVSPost2010PropOp53
 70
     0
102
RTVSPost2010Prop54
  1
strokes_ogs.tif
102
RTVSPost2010PropOp54
 70
     0
102
RTVSPost2010Prop55
280
     0
102
RTVSPost2010PropOp55
 70
     0
102
RTVSPost2010Prop56
140
1.0
102
RTVSPost2010PropOp56
 70
     0
102
RTVSPost2010Prop57
140
1.0
102
RTVSPost2010PropOp57
 70
     0
  0
XRECORD
  5
56C
102
{ACAD_REACTORS
330
56B
102
}
330
56B
100
AcDbXrecord
280
     1
102
RTVSPost2010Prop28
280
     0
102
RTVSPost2010PropOp28
 70
     1
102
RTVSPost2010Prop29
280
     1
102
RTVSPost2010PropOp29
 70
     1
102
RTVSPost2010Prop30
280
     1
102
RTVSPost2010PropOp30
 70
     1
102
RTVSPost2010Prop31
280
     0
102
RTVSPost2010PropOp31
 70
     1
102
RTVSPost2010Prop32
280
     0
102
RTVSPost2010PropOp32
 70
     1
102
RTVSPost2010Prop33
280
     0
102
RTVSPost2010PropOp33
 70
     1
102
RTVSPost2010Prop34
280
     0
102
RTVSPost2010PropOp34
 70
     1
102
RTVSPost2010Prop35
280
     0
102
RTVSPost2010PropOp35
 70
     1
102
RTVSPost2010Prop36
280
     0
102
RTVSPost2010PropOp36
 70
     1
102
RTVSPost2010Prop37
 90
       50
102
RTVSPost2010PropOp37
 70
     1
102
RTVSPost2010Prop38
140
0.0
102
RTVSPost2010PropOp38
 70
     1
102
RTVSPost2010Prop39
140
1.0
102
RTVSPost2010PropOp39
 70
     1
102
RTVSPost2010Prop40
 90
        0
102
RTVSPost2010PropOp40
 70
     1
102
RTVSPost2010Prop41ColorIndex
 90
       18
102
RTVSPost2010Prop41ColorRGB
 90
        0
102
RTVSPost2010PropOp41
 70
     1
102
RTVSPost2010Prop42
 90
       50
102
RTVSPost2010PropOp42
 70
     1
102
RTVSPost2010Prop43
 90
        3
102
RTVSPost2010PropOp43
 70
     1
102
RTVSPost2010Prop44ColorIndex
 90
        5
102
RTVSPost2010Prop44ColorRGB
 90
      255
102
RTVSPost2010PropOp44
 70
     1
102
RTVSPost2010Prop45
280
     0
102
RTVSPost2010PropOp45
 70
     1
102
RTVSPost2010Prop46
 90
       50
102
RTVSPost2010PropOp46
 70
     1
102
RTVSPost2010Prop47
 90
       50
102
RTVSPost2010PropOp47
 70
     1
102
RTVSPost2010Prop48
 90
       50
102
RTVSPost2010PropOp48
 70
     1
102
RTVSPost2010Prop49
280
     0
102
RTVSPost2010PropOp49
 70
     1
102
RTVSPost2010Prop50
 90
       50
102
RTVSPost2010PropOp50
 70
     1
102
RTVSPost2010Prop51ColorIndex
 90
      256
102
RTVSPost2010Prop51ColorRGB
 90
-16777216
102
RTVSPost2010PropOp51
 70
     0
102
RTVSPost2010Prop52
140
1.0
102
RTVSPost2010PropOp52
 70
     0
102
RTVSPost2010Prop53
 90
        2
102
RTVSPost2010PropOp53
 70
     1
102
RTVSPost2010Prop54
  1
strokes_ogs.tif
102
RTVSPost2010PropOp54
 70
     1
102
RTVSPost2010Prop55
280
     0
102
RTVSPost2010PropOp55
 70
     1
102
RTVSPost2010Prop56
140
1.0
102
RTVSPost2010PropOp56
 70
     1
102
RTVSPost2010Prop57
140
1.0
102
RTVSPost2010PropOp57
 70
     1
  0
XRECORD
  5
58A
102
{ACAD_REACTORS
330
589
102
}
330
589
100
AcDbXrecord
280
     1
102
RTVSPost2010Prop28
280
     0
102
RTVSPost2010PropOp28
 70
     1
102
RTVSPost2010Prop29
280
     1
102
RTVSPost2010PropOp29
 70
     1
102
RTVSPost2010Prop30
280
     1
102
RTVSPost2010PropOp30
 70
     1
102
RTVSPost2010Prop31
280
     0
102
RTVSPost2010PropOp31
 70
     1
102
RTVSPost2010Prop32
280
     0
102
RTVSPost2010PropOp32
 70
     1
102
RTVSPost2010Prop33
280
     0
102
RTVSPost2010PropOp33
 70
     1
102
RTVSPost2010Prop34
280
     0
102
RTVSPost2010PropOp34
 70
     1
102
RTVSPost2010Prop35
280
     0
102
RTVSPost2010PropOp35
 70
     1
102
RTVSPost2010Prop36
280
     0
102
RTVSPost2010PropOp36
 70
     1
102
RTVSPost2010Prop37
 90
       50
102
RTVSPost2010PropOp37
 70
     1
102
RTVSPost2010Prop38
140
0.0
102
RTVSPost2010PropOp38
 70
     1
102
RTVSPost2010Prop39
140
1.0
102
RTVSPost2010PropOp39
 70
     1
102
RTVSPost2010Prop40
 90
        0
102
RTVSPost2010PropOp40
 70
     1
102
RTVSPost2010Prop41ColorIndex
 90
       18
102
RTVSPost2010Prop41ColorRGB
 90
        0
102
RTVSPost2010PropOp41
 70
     1
102
RTVSPost2010Prop42
 90
       50
102
RTVSPost2010PropOp42
 70
     1
102
RTVSPost2010Prop43
 90
        3
102
RTVSPost2010PropOp43
 70
     1
102
RTVSPost2010Prop44ColorIndex
 90
        5
102
RTVSPost2010Prop44ColorRGB
 90
      255
102
RTVSPost2010PropOp44
 70
     1
102
RTVSPost2010Prop45
280
     0
102
RTVSPost2010PropOp45
 70
     1
102
RTVSPost2010Prop46
 90
       50
102
RTVSPost2010PropOp46
 70
     1
102
RTVSPost2010Prop47
 90
       50
102
RTVSPost2010PropOp47
 70
     1
102
RTVSPost2010Prop48
 90
       50
102
RTVSPost2010PropOp48
 70
     1
102
RTVSPost2010Prop49
280
     0
102
RTVSPost2010PropOp49
 70
     1
102
RTVSPost2010Prop50
 90
       50
102
RTVSPost2010PropOp50
 70
     1
102
RTVSPost2010Prop51ColorIndex
 90
      256
102
RTVSPost2010Prop51ColorRGB
 90
-16777216
102
RTVSPost2010PropOp51
 70
     0
102
RTVSPost2010Prop52
140
1.0
102
RTVSPost2010PropOp52
 70
     0
102
RTVSPost2010Prop53
 90
        2
102
RTVSPost2010PropOp53
 70
     1
102
RTVSPost2010Prop54
  1
strokes_ogs.tif
102
RTVSPost2010PropOp54
 70
     1
102
RTVSPost2010Prop55
280
     0
102
RTVSPost2010PropOp55
 70
     1
102
RTVSPost2010Prop56
140
1.0
102
RTVSPost2010PropOp56
 70
     1
102
RTVSPost2010Prop57
140
1.0
102
RTVSPost2010PropOp57
 70
     1
  0
XRECORD
  5
588
102
{ACAD_REACTORS
330
587
102
}
330
587
100
AcDbXrecord
280
     1
102
RTVSPost2010Prop28
280
     0
102
RTVSPost2010PropOp28
 70
     1
102
RTVSPost2010Prop29
280
     1
102
RTVSPost2010PropOp29
 70
     1
102
RTVSPost2010Prop30
280
     1
102
RTVSPost2010PropOp30
 70
     1
102
RTVSPost2010Prop31
280
     0
102
RTVSPost2010PropOp31
 70
     1
102
RTVSPost2010Prop32
280
     0
102
RTVSPost2010PropOp32
 70
     1
102
RTVSPost2010Prop33
280
     0
102
RTVSPost2010PropOp33
 70
     1
102
RTVSPost2010Prop34
280
     0
102
RTVSPost2010PropOp34
 70
     1
102
RTVSPost2010Prop35
280
     0
102
RTVSPost2010PropOp35
 70
     1
102
RTVSPost2010Prop36
280
     0
102
RTVSPost2010PropOp36
 70
     1
102
RTVSPost2010Prop37
 90
       50
102
RTVSPost2010PropOp37
 70
     1
102
RTVSPost2010Prop38
140
0.0
102
RTVSPost2010PropOp38
 70
     1
102
RTVSPost2010Prop39
140
1.0
102
RTVSPost2010PropOp39
 70
     1
102
RTVSPost2010Prop40
 90
        0
102
RTVSPost2010PropOp40
 70
     1
102
RTVSPost2010Prop41ColorIndex
 90
       18
102
RTVSPost2010Prop41ColorRGB
 90
        0
102
RTVSPost2010PropOp41
 70
     1
102
RTVSPost2010Prop42
 90
       50
102
RTVSPost2010PropOp42
 70
     1
102
RTVSPost2010Prop43
 90
        3
102
RTVSPost2010PropOp43
 70
     1
102
RTVSPost2010Prop44ColorIndex
 90
        5
102
RTVSPost2010Prop44ColorRGB
 90
      255
102
RTVSPost2010PropOp44
 70
     1
102
RTVSPost2010Prop45
280
     0
102
RTVSPost2010PropOp45
 70
     1
102
RTVSPost2010Prop46
 90
       50
102
RTVSPost2010PropOp46
 70
     1
102
RTVSPost2010Prop47
 90
       50
102
RTVSPost2010PropOp47
 70
     1
102
RTVSPost2010Prop48
 90
       50
102
RTVSPost2010PropOp48
 70
     1
102
RTVSPost2010Prop49
280
     0
102
RTVSPost2010PropOp49
 70
     1
102
RTVSPost2010Prop50
 90
       50
102
RTVSPost2010PropOp50
 70
     1
102
RTVSPost2010Prop51ColorIndex
 90
      256
102
RTVSPost2010Prop51ColorRGB
 90
-16777216
102
RTVSPost2010PropOp51
 70
     0
102
RTVSPost2010Prop52
140
1.0
102
RTVSPost2010PropOp52
 70
     0
102
RTVSPost2010Prop53
 90
        2
102
RTVSPost2010PropOp53
 70
     1
102
RTVSPost2010Prop54
  1
strokes_ogs.tif
102
RTVSPost2010PropOp54
 70
     1
102
RTVSPost2010Prop55
280
     0
102
RTVSPost2010PropOp55
 70
     1
102
RTVSPost2010Prop56
140
1.0
102
RTVSPost2010PropOp56
 70
     1
102
RTVSPost2010Prop57
140
1.0
102
RTVSPost2010PropOp57
 70
     1
  0
XRECORD
  5
582
102
{ACAD_REACTORS
330
581
102
}
330
581
100
AcDbXrecord
280
     1
102
RTVSPost2010Prop28
280
     0
102
RTVSPost2010PropOp28
 70
     1
102
RTVSPost2010Prop29
280
     1
102
RTVSPost2010PropOp29
 70
     1
102
RTVSPost2010Prop30
280
     1
102
RTVSPost2010PropOp30
 70
     1
102
RTVSPost2010Prop31
280
     0
102
RTVSPost2010PropOp31
 70
     1
102
RTVSPost2010Prop32
280
     0
102
RTVSPost2010PropOp32
 70
     1
102
RTVSPost2010Prop33
280
     0
102
RTVSPost2010PropOp33
 70
     1
102
RTVSPost2010Prop34
280
     0
102
RTVSPost2010PropOp34
 70
     1
102
RTVSPost2010Prop35
280
     0
102
RTVSPost2010PropOp35
 70
     1
102
RTVSPost2010Prop36
280
     0
102
RTVSPost2010PropOp36
 70
     1
102
RTVSPost2010Prop37
 90
       50
102
RTVSPost2010PropOp37
 70
     1
102
RTVSPost2010Prop38
140
0.0
102
RTVSPost2010PropOp38
 70
     1
102
RTVSPost2010Prop39
140
1.0
102
RTVSPost2010PropOp39
 70
     1
102
RTVSPost2010Prop40
 90
        0
102
RTVSPost2010PropOp40
 70
     1
102
RTVSPost2010Prop41ColorIndex
 90
       18
102
RTVSPost2010Prop41ColorRGB
 90
        0
102
RTVSPost2010PropOp41
 70
     1
102
RTVSPost2010Prop42
 90
       50
102
RTVSPost2010PropOp42
 70
     1
102
RTVSPost2010Prop43
 90
        3
102
RTVSPost2010PropOp43
 70
     1
102
RTVSPost2010Prop44ColorIndex
 90
        5
102
RTVSPost2010Prop44ColorRGB
 90
      255
102
RTVSPost2010PropOp44
 70
     1
102
RTVSPost2010Prop45
280
     0
102
RTVSPost2010PropOp45
 70
     1
102
RTVSPost2010Prop46
 90
       50
102
RTVSPost2010PropOp46
 70
     1
102
RTVSPost2010Prop47
 90
       50
102
RTVSPost2010PropOp47
 70
     1
102
RTVSPost2010Prop48
 90
       50
102
RTVSPost2010PropOp48
 70
     1
102
RTVSPost2010Prop49
280
     0
102
RTVSPost2010PropOp49
 70
     1
102
RTVSPost2010Prop50
 90
       50
102
RTVSPost2010PropOp50
 70
     1
102
RTVSPost2010Prop51ColorIndex
 90
      256
102
RTVSPost2010Prop51ColorRGB
 90
-16777216
102
RTVSPost2010PropOp51
 70
     0
102
RTVSPost2010Prop52
140
1.0
102
RTVSPost2010PropOp52
 70
     0
102
RTVSPost2010Prop53
 90
        2
102
RTVSPost2010PropOp53
 70
     1
102
RTVSPost2010Prop54
  1
strokes_ogs.tif
102
RTVSPost2010PropOp54
 70
     1
102
RTVSPost2010Prop55
280
     0
102
RTVSPost2010PropOp55
 70
     1
102
RTVSPost2010Prop56
140
1.0
102
RTVSPost2010PropOp56
 70
     1
102
RTVSPost2010Prop57
140
1.0
102
RTVSPost2010PropOp57
 70
     1
  0
XRECORD
  5
584
102
{ACAD_REACTORS
330
583
102
}
330
583
100
AcDbXrecord
280
     1
102
RTVSPost2010Prop28
280
     0
102
RTVSPost2010PropOp28
 70
     1
102
RTVSPost2010Prop29
280
     1
102
RTVSPost2010PropOp29
 70
     1
102
RTVSPost2010Prop30
280
     1
102
RTVSPost2010PropOp30
 70
     1
102
RTVSPost2010Prop31
280
     0
102
RTVSPost2010PropOp31
 70
     1
102
RTVSPost2010Prop32
280
     0
102
RTVSPost2010PropOp32
 70
     1
102
RTVSPost2010Prop33
280
     0
102
RTVSPost2010PropOp33
 70
     1
102
RTVSPost2010Prop34
280
     0
102
RTVSPost2010PropOp34
 70
     1
102
RTVSPost2010Prop35
280
     0
102
RTVSPost2010PropOp35
 70
     1
102
RTVSPost2010Prop36
280
     0
102
RTVSPost2010PropOp36
 70
     1
102
RTVSPost2010Prop37
 90
       50
102
RTVSPost2010PropOp37
 70
     1
102
RTVSPost2010Prop38
140
0.0
102
RTVSPost2010PropOp38
 70
     1
102
RTVSPost2010Prop39
140
1.0
102
RTVSPost2010PropOp39
 70
     1
102
RTVSPost2010Prop40
 90
        0
102
RTVSPost2010PropOp40
 70
     1
102
RTVSPost2010Prop41ColorIndex
 90
       18
102
RTVSPost2010Prop41ColorRGB
 90
        0
102
RTVSPost2010PropOp41
 70
     1
102
RTVSPost2010Prop42
 90
       50
102
RTVSPost2010PropOp42
 70
     1
102
RTVSPost2010Prop43
 90
        3
102
RTVSPost2010PropOp43
 70
     1
102
RTVSPost2010Prop44ColorIndex
 90
        5
102
RTVSPost2010Prop44ColorRGB
 90
      255
102
RTVSPost2010PropOp44
 70
     1
102
RTVSPost2010Prop45
280
     0
102
RTVSPost2010PropOp45
 70
     1
102
RTVSPost2010Prop46
 90
       50
102
RTVSPost2010PropOp46
 70
     1
102
RTVSPost2010Prop47
 90
       50
102
RTVSPost2010PropOp47
 70
     1
102
RTVSPost2010Prop48
 90
       50
102
RTVSPost2010PropOp48
 70
     1
102
RTVSPost2010Prop49
280
     0
102
RTVSPost2010PropOp49
 70
     1
102
RTVSPost2010Prop50
 90
       50
102
RTVSPost2010PropOp50
 70
     1
102
RTVSPost2010Prop51ColorIndex
 90
      256
102
RTVSPost2010Prop51ColorRGB
 90
-16777216
102
RTVSPost2010PropOp51
 70
     0
102
RTVSPost2010Prop52
140
1.0
102
RTVSPost2010PropOp52
 70
     0
102
RTVSPost2010Prop53
 90
        2
102
RTVSPost2010PropOp53
 70
     1
102
RTVSPost2010Prop54
  1
strokes_ogs.tif
102
RTVSPost2010PropOp54
 70
     1
102
RTVSPost2010Prop55
280
     0
102
RTVSPost2010PropOp55
 70
     1
102
RTVSPost2010Prop56
140
1.0
102
RTVSPost2010PropOp56
 70
     1
102
RTVSPost2010Prop57
140
1.0
102
RTVSPost2010PropOp57
 70
     1
  0
XRECORD
  5
574
102
{ACAD_REACTORS
330
573
102
}
330
573
100
AcDbXrecord
280
     1
102
RTVSPost2010Prop28
280
     0
102
RTVSPost2010PropOp28
 70
     1
102
RTVSPost2010Prop29
280
     1
102
RTVSPost2010PropOp29
 70
     1
102
RTVSPost2010Prop30
280
     1
102
RTVSPost2010PropOp30
 70
     1
102
RTVSPost2010Prop31
280
     0
102
RTVSPost2010PropOp31
 70
     1
102
RTVSPost2010Prop32
280
     0
102
RTVSPost2010PropOp32
 70
     1
102
RTVSPost2010Prop33
280
     0
102
RTVSPost2010PropOp33
 70
     1
102
RTVSPost2010Prop34
280
     0
102
RTVSPost2010PropOp34
 70
     1
102
RTVSPost2010Prop35
280
     0
102
RTVSPost2010PropOp35
 70
     1
102
RTVSPost2010Prop36
280
     0
102
RTVSPost2010PropOp36
 70
     1
102
RTVSPost2010Prop37
 90
       50
102
RTVSPost2010PropOp37
 70
     1
102
RTVSPost2010Prop38
140
0.0
102
RTVSPost2010PropOp38
 70
     1
102
RTVSPost2010Prop39
140
1.0
102
RTVSPost2010PropOp39
 70
     1
102
RTVSPost2010Prop40
 90
        0
102
RTVSPost2010PropOp40
 70
     1
102
RTVSPost2010Prop41ColorIndex
 90
       18
102
RTVSPost2010Prop41ColorRGB
 90
        0
102
RTVSPost2010PropOp41
 70
     1
102
RTVSPost2010Prop42
 90
       50
102
RTVSPost2010PropOp42
 70
     1
102
RTVSPost2010Prop43
 90
        3
102
RTVSPost2010PropOp43
 70
     1
102
RTVSPost2010Prop44ColorIndex
 90
        5
102
RTVSPost2010Prop44ColorRGB
 90
      255
102
RTVSPost2010PropOp44
 70
     1
102
RTVSPost2010Prop45
280
     0
102
RTVSPost2010PropOp45
 70
     1
102
RTVSPost2010Prop46
 90
       50
102
RTVSPost2010PropOp46
 70
     1
102
RTVSPost2010Prop47
 90
       50
102
RTVSPost2010PropOp47
 70
     1
102
RTVSPost2010Prop48
 90
       50
102
RTVSPost2010PropOp48
 70
     1
102
RTVSPost2010Prop49
280
     0
102
RTVSPost2010PropOp49
 70
     1
102
RTVSPost2010Prop50
 90
       50
102
RTVSPost2010PropOp50
 70
     1
102
RTVSPost2010Prop51ColorIndex
 90
      256
102
RTVSPost2010Prop51ColorRGB
 90
-16777216
102
RTVSPost2010PropOp51
 70
     0
102
RTVSPost2010Prop52
140
1.0
102
RTVSPost2010PropOp52
 70
     0
102
RTVSPost2010Prop53
 90
        2
102
RTVSPost2010PropOp53
 70
     1
102
RTVSPost2010Prop54
  1
strokes_ogs.tif
102
RTVSPost2010PropOp54
 70
     1
102
RTVSPost2010Prop55
280
     0
102
RTVSPost2010PropOp55
 70
     1
102
RTVSPost2010Prop56
140
1.0
102
RTVSPost2010PropOp56
 70
     1
102
RTVSPost2010Prop57
140
1.0
102
RTVSPost2010PropOp57
 70
     1
  0
XRECORD
  5
566
102
{ACAD_REACTORS
330
565
102
}
330
565
100
AcDbXrecord
280
     1
102
RTVSPost2010Prop28
280
     0
102
RTVSPost2010PropOp28
 70
     1
102
RTVSPost2010Prop29
280
     1
102
RTVSPost2010PropOp29
 70
     1
102
RTVSPost2010Prop30
280
     1
102
RTVSPost2010PropOp30
 70
     1
102
RTVSPost2010Prop31
280
     0
102
RTVSPost2010PropOp31
 70
     1
102
RTVSPost2010Prop32
280
     0
102
RTVSPost2010PropOp32
 70
     1
102
RTVSPost2010Prop33
280
     0
102
RTVSPost2010PropOp33
 70
     1
102
RTVSPost2010Prop34
280
     0
102
RTVSPost2010PropOp34
 70
     1
102
RTVSPost2010Prop35
280
     0
102
RTVSPost2010PropOp35
 70
     1
102
RTVSPost2010Prop36
280
     0
102
RTVSPost2010PropOp36
 70
     1
102
RTVSPost2010Prop37
 90
       50
102
RTVSPost2010PropOp37
 70
     1
102
RTVSPost2010Prop38
140
0.0
102
RTVSPost2010PropOp38
 70
     1
102
RTVSPost2010Prop39
140
1.0
102
RTVSPost2010PropOp39
 70
     1
102
RTVSPost2010Prop40
 90
        0
102
RTVSPost2010PropOp40
 70
     1
102
RTVSPost2010Prop41ColorIndex
 90
       18
102
RTVSPost2010Prop41ColorRGB
 90
        0
102
RTVSPost2010PropOp41
 70
     1
102
RTVSPost2010Prop42
 90
       50
102
RTVSPost2010PropOp42
 70
     1
102
RTVSPost2010Prop43
 90
        3
102
RTVSPost2010PropOp43
 70
     1
102
RTVSPost2010Prop44ColorIndex
 90
        5
102
RTVSPost2010Prop44ColorRGB
 90
      255
102
RTVSPost2010PropOp44
 70
     1
102
RTVSPost2010Prop45
280
     0
102
RTVSPost2010PropOp45
 70
     1
102
RTVSPost2010Prop46
 90
       50
102
RTVSPost2010PropOp46
 70
     1
102
RTVSPost2010Prop47
 90
       50
102
RTVSPost2010PropOp47
 70
     1
102
RTVSPost2010Prop48
 90
       50
102
RTVSPost2010PropOp48
 70
     1
102
RTVSPost2010Prop49
280
     0
102
RTVSPost2010PropOp49
 70
     1
102
RTVSPost2010Prop50
 90
       50
102
RTVSPost2010PropOp50
 70
     1
102
RTVSPost2010Prop51ColorIndex
 90
      256
102
RTVSPost2010Prop51ColorRGB
 90
-16777216
102
RTVSPost2010PropOp51
 70
     0
102
RTVSPost2010Prop52
140
1.0
102
RTVSPost2010PropOp52
 70
     0
102
RTVSPost2010Prop53
 90
        2
102
RTVSPost2010PropOp53
 70
     1
102
RTVSPost2010Prop54
  1
strokes_ogs.tif
102
RTVSPost2010PropOp54
 70
     1
102
RTVSPost2010Prop55
280
     0
102
RTVSPost2010PropOp55
 70
     1
102
RTVSPost2010Prop56
140
1.0
102
RTVSPost2010PropOp56
 70
     1
102
RTVSPost2010Prop57
140
1.0
102
RTVSPost2010PropOp57
 70
     1
  0
XRECORD
  5
586
102
{ACAD_REACTORS
330
585
102
}
330
585
100
AcDbXrecord
280
     1
102
RTVSPost2010Prop28
280
     0
102
RTVSPost2010PropOp28
 70
     1
102
RTVSPost2010Prop29
280
     1
102
RTVSPost2010PropOp29
 70
     1
102
RTVSPost2010Prop30
280
     1
102
RTVSPost2010PropOp30
 70
     1
102
RTVSPost2010Prop31
280
     0
102
RTVSPost2010PropOp31
 70
     1
102
RTVSPost2010Prop32
280
     0
102
RTVSPost2010PropOp32
 70
     1
102
RTVSPost2010Prop33
280
     0
102
RTVSPost2010PropOp33
 70
     1
102
RTVSPost2010Prop34
280
     0
102
RTVSPost2010PropOp34
 70
     1
102
RTVSPost2010Prop35
280
     0
102
RTVSPost2010PropOp35
 70
     1
102
RTVSPost2010Prop36
280
     0
102
RTVSPost2010PropOp36
 70
     1
102
RTVSPost2010Prop37
 90
       50
102
RTVSPost2010PropOp37
 70
     1
102
RTVSPost2010Prop38
140
0.0
102
RTVSPost2010PropOp38
 70
     1
102
RTVSPost2010Prop39
140
1.0
102
RTVSPost2010PropOp39
 70
     1
102
RTVSPost2010Prop40
 90
        0
102
RTVSPost2010PropOp40
 70
     1
102
RTVSPost2010Prop41ColorIndex
 90
       18
102
RTVSPost2010Prop41ColorRGB
 90
        0
102
RTVSPost2010PropOp41
 70
     1
102
RTVSPost2010Prop42
 90
       50
102
RTVSPost2010PropOp42
 70
     1
102
RTVSPost2010Prop43
 90
        3
102
RTVSPost2010PropOp43
 70
     1
102
RTVSPost2010Prop44ColorIndex
 90
        5
102
RTVSPost2010Prop44ColorRGB
 90
      255
102
RTVSPost2010PropOp44
 70
     1
102
RTVSPost2010Prop45
280
     0
102
RTVSPost2010PropOp45
 70
     1
102
RTVSPost2010Prop46
 90
       50
102
RTVSPost2010PropOp46
 70
     1
102
RTVSPost2010Prop47
 90
       50
102
RTVSPost2010PropOp47
 70
     1
102
RTVSPost2010Prop48
 90
       50
102
RTVSPost2010PropOp48
 70
     1
102
RTVSPost2010Prop49
280
     0
102
RTVSPost2010PropOp49
 70
     1
102
RTVSPost2010Prop50
 90
       50
102
RTVSPost2010PropOp50
 70
     1
102
RTVSPost2010Prop51ColorIndex
 90
      256
102
RTVSPost2010Prop51ColorRGB
 90
-16777216
102
RTVSPost2010PropOp51
 70
     0
102
RTVSPost2010Prop52
140
1.0
102
RTVSPost2010PropOp52
 70
     0
102
RTVSPost2010Prop53
 90
        2
102
RTVSPost2010PropOp53
 70
     1
102
RTVSPost2010Prop54
  1
strokes_ogs.tif
102
RTVSPost2010PropOp54
 70
     1
102
RTVSPost2010Prop55
280
     0
102
RTVSPost2010PropOp55
 70
     1
102
RTVSPost2010Prop56
140
1.0
102
RTVSPost2010PropOp56
 70
     1
102
RTVSPost2010Prop57
140
1.0
102
RTVSPost2010PropOp57
 70
     1
  0
ENDSEC
  0
EOF
