  0
SECTION
  2
HEADER
  9
$ACADVER
  1
AC1024
  9
$ACADMAINTVER
 70
     6
  9
$DWGCODEPAGE
  3
ANSI_1252
  9
$INSBASE
 10
0.0
 20
0.0
 30
0.0
  9
$EXTMIN
 10
0.0
 20
0.0
 30
0.0
  9
$EXTMAX
 10
3200.0
 20
2500.0
 30
0.0
  9
$LIMMIN
 10
0.0
 20
0.0
  9
$LIMMAX
 10
3200.0
 20
2500.0
  9
$ORTHOMODE
 70
     0
  9
$REGENMODE
 70
     1
  9
$FILLMODE
 70
     1
  9
$QTEXTMODE
 70
     0
  9
$MIRRTEXT
 70
     1
  9
$LTSCALE
 40
176.0
  9
$ATTMODE
 70
     1
  9
$TEXTSIZE
 40
0.2
  9
$TRACEWID
 40
0.05
  9
$TEXTSTYLE
  7
STANDARD
  9
$CLAYER
  8
0
  9
$CELTYPE
  6
BYLAYER
  9
$CECOLOR
 62
   256
  9
$CELTSCALE
 40
1.0
  9
$DISPSILH
 70
     0
  9
$DIMSCALE
 40
1.0
  9
$DIMASZ
 40
2.5
  9
$DIMEXO
 40
0.75
  9
$DIMDLI
 40
121.6
  9
$DIMRND
 40
0.0
  9
$DIMDLE
 40
0.0
  9
$DIMEXE
 40
0.75
  9
$DIMTP
 40
0.01
  9
$DIMTM
 40
0.01
  9
$DIMTXT
 40
3.0
  9
$DIMCEN
 40
28.8
  9
$DIMTSZ
 40
0.0
  9
$DIMTOL
 70
     1
  9
$DIMLIM
 70
     0
  9
$DIMTIH
 70
     1
  9
$DIMTOH
 70
     1
  9
$DIMSE1
 70
     0
  9
$DIMSE2
 70
     0
  9
$DIMTAD
 70
     0
  9
$DIMZIN
 70
     0
  9
$DIMBLK
  1
CLOSED
  9
$DIMASO
 70
     1
  9
$DIMSHO
 70
     1
  9
$DIMPOST
  1

  9
$DIMAPOST
  1

  9
$DIMALT
 70
     0
  9
$DIMALTD
 70
     2
  9
$DIMALTF
 40
25.4
  9
$DIMLFAC
 40
1.0
  9
$DIMTOFL
 70
     0
  9
$DIMTVP
 40
0.0
  9
$DIMTIX
 70
     0
  9
$DIMSOXD
 70
     0
  9
$DIMSAH
 70
     0
  9
$DIMBLK1
  1

  9
$DIMBLK2
  1

  9
$DIMSTYLE
  2
STANDARD
  9
$DIMCLRD
 70
     0
  9
$DIMCLRE
 70
     0
  9
$DIMCLRT
 70
     0
  9
$DIMTFAC
 40
1.0
  9
$DIMGAP
 40
0.625
  9
$DIMJUST
 70
     0
  9
$DIMSD1
 70
     0
  9
$DIMSD2
 70
     0
  9
$DIMTOLJ
 70
     1
  9
$DIMTZIN
 70
     0
  9
$DIMALTZ
 70
     0
  9
$DIMALTTZ
 70
     0
  9
$DIMUPT
 70
     0
  9
$DIMDEC
 70
     4
  9
$DIMTDEC
 70
     4
  9
$DIMALTU
 70
     2
  9
$DIMALTTD
 70
     2
  9
$DIMTXSTY
  7
STANDARD
  9
$DIMAUNIT
 70
     0
  9
$DIMADEC
 70
     0
  9
$DIMALTRND
 40
0.0
  9
$DIMAZIN
 70
     0
  9
$DIMDSEP
 70
    44
  9
$DIMATFIT
 70
     3
  9
$DIMFRAC
 70
     0
  9
$DIMLDRBLK
  1

  9
$DIMLUNIT
 70
     2
  9
$DIMLWD
 70
    -2
  9
$DIMLWE
 70
    -2
  9
$DIMTMOVE
 70
     0
  9
$DIMFXL
 40
1.0
  9
$DIMFXLON
 70
     0
  9
$DIMJOGANG
 40
0.785398
  9
$DIMTFILL
 70
     0
  9
$DIMTFILLCLR
 70
     0
  9
$DIMARCSYM
 70
     0
  9
$DIMLTYPE
  6

  9
$DIMLTEX1
  6

  9
$DIMLTEX2
  6

  9
$DIMTXTDIRECTION
 70
     0
  9
$LUNITS
 70
     2
  9
$LUPREC
 70
     4
  9
$SKETCHINC
 40
0.1
  9
$FILLETRAD
 40
0.5
  9
$AUNITS
 70
     0
  9
$AUPREC
 70
     0
  9
$MENU
  1
.
  9
$ELEVATION
 40
0.0
  9
$PELEVATION
 40
0.0
  9
$THICKNESS
 40
0.0
  9
$LIMCHECK
 70
     0
  9
$CHAMFERA
 40
0.0
  9
$CHAMFERB
 40
0.0
  9
$CHAMFERC
 40
0.0
  9
$CHAMFERD
 40
0.0
  9
$SKPOLY
 70
     0
  9
$TDCREATE
 40
2447893.083333333
  9
$TDUCREATE
 40
0.0
  9
$TDUPDATE
 40
2459822.393979514
  9
$TDUUPDATE
 40
2459822.310646181
  9
$TDINDWG
 40
0.0
  9
$TDUSRTIMER
 40
0.0
  9
$USRTIMER
 70
     1
  9
$ANGBASE
 50
0.0
  9
$ANGDIR
 70
     0
  9
$PDMODE
 70
     3
  9
$PDSIZE
 40
0.3125
  9
$PLINEWID
 40
0.0
  9
$SPLFRAME
 70
     0
  9
$SPLINETYPE
 70
     6
  9
$SPLINESEGS
 70
     8
  9
$HANDSEED
  5
565
  9
$SURFTAB1
 70
     6
  9
$SURFTAB2
 70
     6
  9
$SURFTYPE
 70
     6
  9
$SURFU
 70
     6
  9
$SURFV
 70
     6
  9
$UCSBASE
  2

  9
$UCSNAME
  2

  9
$UCSORG
 10
0.0
 20
0.0
 30
0.0
  9
$UCSXDIR
 10
1.0
 20
0.0
 30
0.0
  9
$UCSYDIR
 10
0.0
 20
1.0
 30
0.0
  9
$UCSORTHOREF
  2

  9
$UCSORTHOVIEW
 70
     0
  9
$UCSORGTOP
 10
0.0
 20
0.0
 30
0.0
  9
$UCSORGBOTTOM
 10
0.0
 20
0.0
 30
0.0
  9
$UCSORGLEFT
 10
0.0
 20
0.0
 30
0.0
  9
$UCSORGRIGHT
 10
0.0
 20
0.0
 30
0.0
  9
$UCSORGFRONT
 10
0.0
 20
0.0
 30
0.0
  9
$UCSORGBACK
 10
0.0
 20
0.0
 30
0.0
  9
$PUCSBASE
  2

  9
$PUCSNAME
  2

  9
$PUCSORG
 10
0.0
 20
0.0
 30
0.0
  9
$PUCSXDIR
 10
1.0
 20
0.0
 30
0.0
  9
$PUCSYDIR
 10
0.0
 20
1.0
 30
0.0
  9
$PUCSORTHOREF
  2

  9
$PUCSORTHOVIEW
 70
     0
  9
$PUCSORGTOP
 10
0.0
 20
0.0
 30
0.0
  9
$PUCSORGBOTTOM
 10
0.0
 20
0.0
 30
0.0
  9
$PUCSORGLEFT
 10
0.0
 20
0.0
 30
0.0
  9
$PUCSORGRIGHT
 10
0.0
 20
0.0
 30
0.0
  9
$PUCSORGFRONT
 10
0.0
 20
0.0
 30
0.0
  9
$PUCSORGBACK
 10
0.0
 20
0.0
 30
0.0
  9
$USERI1
 70
     0
  9
$USERI2
 70
     0
  9
$USERI3
 70
     0
  9
$USERI4
 70
     0
  9
$USERI5
 70
     0
  9
$USERR1
 40
0.0
  9
$USERR2
 40
0.0
  9
$USERR3
 40
0.0
  9
$USERR4
 40
0.0
  9
$USERR5
 40
0.0
  9
$WORLDVIEW
 70
     1
  9
$SHADEDGE
 70
     3
  9
$SHADEDIF
 70
    70
  9
$TILEMODE
 70
     1
  9
$MAXACTVP
 70
    64
  9
$PINSBASE
 10
0.0
 20
0.0
 30
0.0
  9
$PLIMCHECK
 70
     0
  9
$PEXTMIN
 10
1.000000E+20
 20
1.000000E+20
 30
1.000000E+20
  9
$PEXTMAX
 10
-1.000000E+20
 20
-1.000000E+20
 30
-1.000000E+20
  9
$PLIMMIN
 10
0.0
 20
0.0
  9
$PLIMMAX
 10
12.0
 20
9.0
  9
$UNITMODE
 70
     0
  9
$VISRETAIN
 70
     1
  9
$PLINEGEN
 70
     0
  9
$PSLTSCALE
 70
     0
  9
$TREEDEPTH
 70
  3020
  9
$CMLSTYLE
  2

  9
$CMLJUST
 70
     0
  9
$CMLSCALE
 40
1.0
  9
$PROXYGRAPHICS
 70
     1
  9
$MEASUREMENT
 70
     1
  9
$CELWEIGHT
370
    -1
  9
$ENDCAPS
280
     0
  9
$JOINSTYLE
280
     0
  9
$LWDISPLAY
290
     0
  9
$INSUNITS
 70
     4
  9
$HYPERLINKBASE
  1

  9
$STYLESHEET
  1

  9
$XEDIT
290
     1
  9
$CEPSNTYPE
380
     0
  9
$PSTYLEMODE
290
     1
  9
$FINGERPRINTGUID
  2
{7C2C1FE0-4FC3-4371-A5CA-5C74B4CA8BA0}
  9
$VERSIONGUID
  2
{FAEB1C32-E019-11D5-929B-00C0DF256EC4}
  9
$EXTNAMES
290
     1
  9
$PSVPSCALE
 40
0.0
  9
$OLESTARTUP
290
     0
  9
$SORTENTS
280
   127
  9
$INDEXCTL
280
     0
  9
$HIDETEXT
280
     1
  9
$XCLIPFRAME
280
     2
  9
$HALOGAP
280
     0
  9
$OBSCOLOR
 70
   257
  9
$OBSLTYPE
280
     0
  9
$INTERSECTIONDISPLAY
280
     0
  9
$INTERSECTIONCOLOR
 70
   257
  9
$DIMASSOC
280
     2
  9
$PROJECTNAME
  1

  9
$CAMERADISPLAY
290
     0
  9
$LENSLENGTH
 40
50.0
  9
$CAMERAHEIGHT
 40
0.0
  9
$STEPSPERSEC
 40
2.0
  9
$STEPSIZE
 40
6.0
  9
$3DDWFPREC
 40
2.0
  9
$PSOLWIDTH
 40
0.25
  9
$PSOLHEIGHT
 40
4.0
  9
$LOFTANG1
 40
1.570796
  9
$LOFTANG2
 40
1.570796
  9
$LOFTMAG1
 40
0.0
  9
$LOFTMAG2
 40
0.0
  9
$LOFTPARAM
 70
     7
  9
$LOFTNORMALS
280
     1
  9
$LATITUDE
 40
37.795
  9
$LONGITUDE
 40
-122.394
  9
$NORTHDIRECTION
 40
0.0
  9
$TIMEZONE
 70
 -8000
  9
$LIGHTGLYPHDISPLAY
280
     1
  9
$TILEMODELIGHTSYNCH
280
     1
  9
$SOLIDHIST
280
     1
  9
$SHOWHIST
280
     1
  9
$DWFFRAME
280
     2
  9
$DGNFRAME
280
     2
  9
$REALWORLDSCALE
290
     1
  9
$INTERFERECOLOR
 62
   256
  9
$CSHADOW
280
     0
  9
$SHADOWPLANELOCATION
 40
0.0
  0
ENDSEC
  0
SECTION
  2
CLASSES
  0
CLASS
  1
ACDBDICTIONARYWDFLT
  2
AcDbDictionaryWithDefault
  3
ObjectDBX Classes
 90
        0
 91
        6
280
     0
281
     0
  0
CLASS
  1
ACDBPLACEHOLDER
  2
AcDbPlaceHolder
  3
ObjectDBX Classes
 90
        0
 91
        1
280
     0
281
     0
  0
CLASS
  1
LAYOUT
  2
AcDbLayout
  3
ObjectDBX Classes
 90
        0
 91
        1
280
     0
281
     0
  0
CLASS
  1
TABLESTYLE
  2
AcDbTableStyle
  3
ObjectDBX Classes
 90
     4095
 91
        5
280
     0
281
     0
  0
CLASS
  1
ACAD_TABLE
  2
AcDbTable
  3
ObjectDBX Classes
 90
     1025
 91
        5
280
     0
281
     1
  0
CLASS
  1
SCALE
  2
AcDbScale
  3
ObjectDBX Classes
 90
     1153
 91
        5
280
     0
281
     0
  0
CLASS
  1
TABLEGEOMETRY
  2
AcDbTableGeometry
  3
ObjectDBX Classes
 90
     1152
 91
        4
280
     0
281
     0
  0
CLASS
  1
VISUALSTYLE
  2
AcDbVisualStyle
  3
ObjectDBX Classes
 90
     4095
 91
        5
280
     0
281
     0
  0
CLASS
  1
MATERIAL
  2
AcDbMaterial
  3
ObjectDBX Classes
 90
     1153
 91
        5
280
     0
281
     0
  0
CLASS
  1
SUN
  2
AcDbSun
  3
SCENEOE
 90
     1153
 91
        5
280
     0
281
     0
  0
CLASS
  1
CSACDOCUMENTOPTIONS
  2
CDocDataContainer
  3
"DERU003_CSAPP"
 90
     4095
 91
        4
280
     0
281
     0
  0
CLASS
  1
TABLECONTENT
  2
AcDbTableContent
  3
ObjectDBX Classes
 90
     1152
 91
        4
280
     0
281
     0
  0
CLASS
  1
DICTIONARYVAR
  2
AcDbDictionaryVar
  3
ObjectDBX Classes
 90
        0
 91
        4
280
     0
281
     0
  0
CLASS
  1
CELLSTYLEMAP
  2
AcDbCellStyleMap
  3
ObjectDBX Classes
 90
     1152
 91
        4
280
     0
281
     0
  0
ENDSEC
  0
SECTION
  2
TABLES
  0
TABLE
  2
VPORT
  5
8
330
0
100
AcDbSymbolTable
 70
     1
  0
VPORT
  5
1F4
330
8
100
AcDbSymbolTableRecord
100
AcDbViewportTableRecord
  2
*ACTIVE
 70
     0
 10
0.0
 20
0.0
 11
1.0
 21
1.0
 12
1600.0
 22
1250.0
 13
0.0
 23
0.0
 14
1.0
 24
1.0
 15
0.0
 25
0.0
 16
0.0
 26
0.0
 36
1.0
 17
0.0
 27
0.0
 37
0.0
 40
2500.0
 41
2.176471
 42
50.0
 43
0.0
 44
0.0
 50
0.0
 51
0.0
 71
    16
 72
   100
 73
     1
 74
     1
 75
     0
 76
     0
 77
     0
 78
     0
281
     0
 65
     1
110
0.0
120
0.0
130
0.0
111
1.0
121
0.0
131
0.0
112
0.0
122
1.0
132
0.0
 79
     0
146
0.0
 60
     3
 61
     5
292
     1
282
     1
141
0.0
142
0.0
 63
   256
361
520
  0
ENDTAB
  0
TABLE
  2
LTYPE
  5
5
330
0
100
AcDbSymbolTable
 70
     6
  0
LTYPE
  5
14
330
5
100
AcDbSymbolTableRecord
100
AcDbLinetypeTableRecord
  2
BYBLOCK
 70
     0
  3

 72
    65
 73
     0
 40
0.0
  0
LTYPE
  5
15
330
5
100
AcDbSymbolTableRecord
100
AcDbLinetypeTableRecord
  2
BYLAYER
 70
     0
  3

 72
    65
 73
     0
 40
0.0
  0
LTYPE
  5
16
330
5
100
AcDbSymbolTableRecord
100
AcDbLinetypeTableRecord
  2
CONTINUOUS
 70
     0
  3
Solid line
 72
    65
 73
     0
 40
0.0
  0
LTYPE
  5
1F5
330
5
100
AcDbSymbolTableRecord
100
AcDbLinetypeTableRecord
  2
CENTER
 70
     0
  3
____ _ ____ _ ____ _ ____ _ ____ _ ____ _ ____
 72
    65
 73
     4
 40
0.6
 49
0.375
 74
     0
 49
-0.075
 74
     0
 49
0.075
 74
     0
 49
-0.075
 74
     0
  0
LTYPE
  5
1F6
330
5
100
AcDbSymbolTableRecord
100
AcDbLinetypeTableRecord
  2
HIDDEN
 70
     0
  3
- - - - - - - - - - - - - - - - - - - -
 72
    65
 73
     2
 40
0.2
 49
0.1
 74
     0
 49
-0.1
 74
     0
  0
LTYPE
  5
1F7
330
5
100
AcDbSymbolTableRecord
100
AcDbLinetypeTableRecord
  2
PHANTOM
 70
     0
  3
_____ _ _ _____ _ _ _____ _ _ _____
 72
    65
 73
     6
 40
0.8
 49
0.45
 74
     0
 49
-0.05
 74
     0
 49
0.1
 74
     0
 49
-0.05
 74
     0
 49
0.1
 74
     0
 49
-0.05
 74
     0
  0
LTYPE
  5
1F8
330
5
100
AcDbSymbolTableRecord
100
AcDbLinetypeTableRecord
  2
DOT
 70
     0
  3
. . . . . . . . . . . . . . . . . . . .
 72
    65
 73
     2
 40
0.2
 49
0.1
 74
     0
 49
-0.1
 74
     0
  0
LTYPE
  5
1F9
330
5
100
AcDbSymbolTableRecord
100
AcDbLinetypeTableRecord
  2
DASHED
 70
     0
  3
- - - - - - - - - - - - - - - - - - - -
 72
    65
 73
     2
 40
0.2
 49
0.1
 74
     0
 49
-0.1
 74
     0
  0
ENDTAB
  0
TABLE
  2
LAYER
  5
2
330
0
100
AcDbSymbolTable
 70
    12
  0
LAYER
  5
10
330
2
100
AcDbSymbolTableRecord
100
AcDbLayerTableRecord
  2
0
 70
     0
 62
     7
  6
CONTINUOUS
370
    -3
390
F
347
51A
  0
LAYER
  5
1FA
330
2
100
AcDbSymbolTableRecord
100
AcDbLayerTableRecord
  2
DEFAULT_1
 70
     0
 62
     7
  6
CENTER
370
    -3
390
F
347
51A
  0
LAYER
  5
1FB
330
2
100
AcDbSymbolTableRecord
100
AcDbLayerTableRecord
  2
DEFAULT_2
 70
     0
 62
     8
  6
HIDDEN
370
    -3
390
F
347
51A
  0
LAYER
  5
1FC
330
2
100
AcDbSymbolTableRecord
100
AcDbLayerTableRecord
  2
DEFAULT_3
 70
     0
 62
     7
  6
PHANTOM
370
    -3
390
F
347
51A
  0
LAYER
  5
1FD
330
2
100
AcDbSymbolTableRecord
100
AcDbLayerTableRecord
  2
1_ALL_PLANES
 70
     0
 62
     7
  6
CONTINUOUS
370
    -3
390
F
347
51A
  0
LAYER
  5
1FE
330
2
100
AcDbSymbolTableRecord
100
AcDbLayerTableRecord
  2
2_ALL_CSYS
 70
     0
 62
     7
  6
CONTINUOUS
370
    -3
390
F
347
51A
  0
LAYER
  5
1FF
330
2
100
AcDbSymbolTableRecord
100
AcDbLayerTableRecord
  2
3_ALL_AXES
 70
     0
 62
     7
  6
CONTINUOUS
370
    -3
390
F
347
51A
  0
LAYER
  5
200
330
2
100
AcDbSymbolTableRecord
100
AcDbLayerTableRecord
  2
4_ALL_POINTS
 70
     0
 62
     7
  6
CONTINUOUS
370
    -3
390
F
347
51A
  0
LAYER
  5
201
330
2
100
AcDbSymbolTableRecord
100
AcDbLayerTableRecord
  2
5_ALL_CURVES
 70
     0
 62
     7
  6
CONTINUOUS
370
    -3
390
F
347
51A
  0
LAYER
  5
202
330
2
100
AcDbSymbolTableRecord
100
AcDbLayerTableRecord
  2
6_ALL_SURFS
 70
     0
 62
     7
  6
CONTINUOUS
370
    -3
390
F
347
51A
  0
LAYER
  5
203
330
2
100
AcDbSymbolTableRecord
100
AcDbLayerTableRecord
  2
7_ALL_FEATURES
 70
     0
 62
     7
  6
CONTINUOUS
370
    -3
390
F
347
51A
  0
LAYER
  5
204
330
2
100
AcDbSymbolTableRecord
100
AcDbLayerTableRecord
  2
9_SOLID
 70
     0
 62
     7
  6
CONTINUOUS
370
    -3
390
F
347
51A
  0
ENDTAB
  0
TABLE
  2
STYLE
  5
3
330
0
100
AcDbSymbolTable
 70
     2
  0
STYLE
  5
11
330
3
100
AcDbSymbolTableRecord
100
AcDbTextStyleTableRecord
  2
STANDARD
 70
     0
 40
0.0
 41
1.0
 50
0.0
 71
     0
 42
0.2
  3
arial.ttf
  4

  0
STYLE
  5
205
330
3
100
AcDbSymbolTableRecord
100
AcDbTextStyleTableRecord
  2
TEXTSTYLE_1
 70
     0
 40
0.0
 41
0.8
 50
0.0
 71
     0
 42
0.2
  3
gdt
  4

  0
ENDTAB
  0
TABLE
  2
VIEW
  5
6
330
0
100
AcDbSymbolTable
 70
     0
  0
ENDTAB
  0
TABLE
  2
UCS
  5
7
330
0
100
AcDbSymbolTable
 70
     0
  0
ENDTAB
  0
TABLE
  2
APPID
  5
9
330
0
100
AcDbSymbolTable
 70
     6
  0
APPID
  5
206
330
9
100
AcDbSymbolTableRecord
100
AcDbRegAppTableRecord
  2
ACAD
 70
     0
  0
APPID
  5
51B
330
9
100
AcDbSymbolTableRecord
100
AcDbRegAppTableRecord
  2
MCS_DIM1
 70
     0
  0
APPID
  5
51C
330
9
100
AcDbSymbolTableRecord
100
AcDbRegAppTableRecord
  2
McsXdata5
 70
     0
  0
APPID
  5
51F
330
9
100
AcDbSymbolTableRecord
100
AcDbRegAppTableRecord
  2
MCS_DOCUMENT_ID
 70
     0
  0
APPID
  5
525
330
9
100
AcDbSymbolTableRecord
100
AcDbRegAppTableRecord
  2
MCS_PARAMS_DATA
 70
     0
  0
APPID
  5
527
330
9
100
AcDbSymbolTableRecord
100
AcDbRegAppTableRecord
  2
MC_VERSION_DATA
 70
     0
  0
ENDTAB
  0
TABLE
  2
DIMSTYLE
  5
A
330
0
100
AcDbSymbolTable
 70
     4
100
AcDbDimStyleTable
  0
DIMSTYLE
105
20F
330
A
100
AcDbSymbolTableRecord
100
AcDbDimStyleTableRecord
  2
STANDARD
 70
     0
 41
2.5
 42
0.75
 44
0.75
 47
0.01
 48
0.01
 71
     1
 73
     0
 74
     0
 77
     1
 78
     8
 79
     2
140
3.0
147
0.625
171
     1
178
     0
179
     2
271
     2
272
     2
278
    44
284
     8
340
11
341
209
342
209
343
209
344
209
  0
DIMSTYLE
105
210
330
A
100
AcDbSymbolTableRecord
100
AcDbDimStyleTableRecord
  2
DIMSTYLE_1
 70
     0
 41
2.5
 42
0.75
 44
0.75
 47
0.3
 48
0.3
 73
     0
 74
     0
 77
     1
 78
     8
 79
     2
140
10.0
147
2.5
171
     1
178
     0
179
     2
271
     2
272
     2
278
    44
284
     8
340
11
341
209
342
209
343
209
344
209
  0
DIMSTYLE
105
211
330
A
100
AcDbSymbolTableRecord
100
AcDbDimStyleTableRecord
  2
DIMSTYLE_2
 70
     0
 41
2.5
 42
0.75
 44
0.75
 47
0.5
 48
0.5
 73
     0
 74
     0
 77
     1
 78
     8
 79
     2
140
10.0
147
2.5
171
     1
178
     0
179
     2
271
     2
272
     2
278
    44
284
     8
340
11
341
209
342
209
343
209
344
209
  0
DIMSTYLE
105
212
330
A
100
AcDbSymbolTableRecord
100
AcDbDimStyleTableRecord
  2
DIMSTYLE_3
 70
     0
 41
2.5
 42
0.75
 44
0.75
 47
0.8
 48
0.8
 73
     0
 74
     0
 77
     1
 78
     8
 79
     2
140
10.0
147
2.5
171
     1
178
     0
179
     2
271
     2
272
     2
278
    44
284
     8
340
11
341
209
342
209
343
209
344
209
  0
ENDTAB
  0
TABLE
  2
BLOCK_RECORD
  5
1
330
0
100
AcDbSymbolTable
 70
     6
  0
BLOCK_RECORD
  5
207
330
1
100
AcDbSymbolTableRecord
100
AcDbBlockTableRecord
  2
*Model_Space
340
4D5
 70
     0
280
     1
281
     0
  0
BLOCK_RECORD
  5
208
330
1
100
AcDbSymbolTableRecord
100
AcDbBlockTableRecord
  2
*Paper_Space
340
4D6
 70
     0
280
     1
281
     0
  0
BLOCK_RECORD
  5
209
330
1
100
AcDbSymbolTableRecord
100
AcDbBlockTableRecord
  2
_CLOSED
340
0
102
{BLKREFS
331
25B
331
25C
331
264
331
265
331
26D
331
26E
102
}
 70
     0
280
     1
281
     0
  0
BLOCK_RECORD
  5
20A
330
1
100
AcDbSymbolTableRecord
100
AcDbBlockTableRecord
  2
*D1
340
0
 70
     0
280
     1
281
     0
  0
BLOCK_RECORD
  5
20B
330
1
100
AcDbSymbolTableRecord
100
AcDbBlockTableRecord
  2
*D2
340
0
 70
     0
280
     1
281
     0
  0
BLOCK_RECORD
  5
20C
330
1
100
AcDbSymbolTableRecord
100
AcDbBlockTableRecord
  2
*D3
340
0
 70
     0
280
     1
281
     0
  0
BLOCK_RECORD
  5
20D
330
1
100
AcDbSymbolTableRecord
100
AcDbBlockTableRecord
  2
LOGO2_BL0
340
0
102
{BLKREFS
331
4D2
102
}
 70
     0
280
     1
281
     0
  0
BLOCK_RECORD
  5
20E
330
1
100
AcDbSymbolTableRecord
100
AcDbBlockTableRecord
  2
*T5
340
0
102
{BLKREFS
331
4D3
102
}
 70
     0
280
     1
281
     0
  0
ENDTAB
  0
ENDSEC
  0
SECTION
  2
BLOCKS
  0
BLOCK
  5
20
330
207
100
AcDbEntity
  8
0
100
AcDbBlockBegin
  2
*Model_Space
 70
     0
 10
0.0
 20
0.0
 30
0.0
  3
*Model_Space
  1
*Model_Space
  0
ENDBLK
  5
21
330
207
100
AcDbEntity
  8
0
100
AcDbBlockEnd
  0
BLOCK
  5
1C
330
208
100
AcDbEntity
 67
     1
  8
0
100
AcDbBlockBegin
  2
*Paper_Space
 70
     0
 10
0.0
 20
0.0
 30
0.0
  3
*Paper_Space
  1
*Paper_Space
  0
ENDBLK
  5
1D
330
208
100
AcDbEntity
 67
     1
  8
0
100
AcDbBlockEnd
  0
BLOCK
  5
24F
330
209
100
AcDbEntity
  8
0
100
AcDbBlockBegin
  2
_CLOSED
 70
     0
 10
0.0
 20
0.0
 30
0.0
  3
_CLOSED
  1
_CLOSED
  0
LINE
  5
250
330
209
100
AcDbEntity
  8
0
  6
ByBlock
 62
     0
100
AcDbLine
 10
0.0
 20
0.0
 30
0.0
 11
-1.0
 21
0.2
 31
0.0
  0
LINE
  5
251
330
209
100
AcDbEntity
  8
0
  6
ByBlock
 62
     0
100
AcDbLine
 10
-1.0
 20
0.2
 30
0.0
 11
-1.0
 21
-0.2
 31
0.0
  0
LINE
  5
252
330
209
100
AcDbEntity
  8
0
  6
ByBlock
 62
     0
100
AcDbLine
 10
-1.0
 20
-0.2
 30
0.0
 11
0.0
 21
0.0
 31
0.0
  0
LINE
  5
253
330
209
100
AcDbEntity
  8
0
  6
ByBlock
 62
     0
100
AcDbLine
 10
-1.0
 20
0.0
 30
0.0
 11
0.0
 21
0.0
 31
0.0
  0
ENDBLK
  5
254
330
209
100
AcDbEntity
  8
0
  6
ByBlock
 62
     0
100
AcDbBlockEnd
  0
BLOCK
  5
255
330
20A
100
AcDbEntity
  8
0
100
AcDbBlockBegin
  2
*D1
 70
     1
 10
0.0
 20
0.0
 30
0.0
  3
*D1
  1
*D1
  0
MTEXT
  5
256
330
20A
100
AcDbEntity
  8
0
  6
Continuous
 62
     2
100
AcDbMText
 10
1866.158537
 20
2041.510223
 30
0.0
 40
10.0
 41
34.944238
 46
0.0
 71
     2
 72
     1
  1
101,4
 73
     1
 44
0.9
  0
LINE
  5
257
330
20A
100
AcDbEntity
  8
0
  6
Continuous
 62
     2
100
AcDbLine
 10
1815.458537
 20
2000.51797
 30
0.0
 11
1815.458537
 21
2029.760223
 31
0.0
  0
LINE
  5
258
330
20A
100
AcDbEntity
  8
0
  6
Continuous
 62
     2
100
AcDbLine
 10
1916.858537
 20
2000.266557
 30
0.0
 11
1916.858537
 21
2029.760223
 31
0.0
  0
LINE
  5
259
330
20A
100
AcDbEntity
  8
0
  6
Continuous
 62
     2
100
AcDbLine
 10
1815.458537
 20
2029.010223
 30
0.0
 11
1866.158537
 21
2029.010223
 31
0.0
  0
LINE
  5
25A
330
20A
100
AcDbEntity
  8
0
  6
Continuous
 62
     2
100
AcDbLine
 10
1916.858537
 20
2029.010223
 30
0.0
 11
1866.158537
 21
2029.010223
 31
0.0
  0
INSERT
  5
25B
330
20A
100
AcDbEntity
  8
0
  6
Continuous
 62
     2
100
AcDbBlockReference
  2
_CLOSED
 10
1815.458537
 20
2029.010223
 30
0.0
 41
2.5
 42
2.5
 43
2.5
 50
180.0
  0
INSERT
  5
25C
330
20A
100
AcDbEntity
  8
0
  6
Continuous
 62
     2
100
AcDbBlockReference
  2
_CLOSED
 10
1916.858537
 20
2029.010223
 30
0.0
 41
2.5
 42
2.5
 43
2.5
  0
ENDBLK
  5
25D
330
20A
100
AcDbEntity
  8
0
  6
ByBlock
 62
     0
100
AcDbBlockEnd
  0
BLOCK
  5
25E
330
20B
100
AcDbEntity
  8
0
100
AcDbBlockBegin
  2
*D2
 70
     1
 10
0.0
 20
0.0
 30
0.0
  3
*D2
  1
*D2
  0
MTEXT
  5
25F
330
20B
100
AcDbEntity
  8
0
  6
Continuous
 62
     2
100
AcDbMText
 10
1383.193304
 20
1890.243902
 30
0.0
 40
10.0
 41
34.944238
 46
0.0
 71
     2
 72
     1
  1
150,5
 11
0.0
 21
1.0
 31
0.0
 73
     1
 44
0.9
  0
LINE
  5
260
330
20B
100
AcDbEntity
  8
0
  6
Continuous
 62
     2
100
AcDbLine
 10
1358.174036
 20
1965.493902
 30
0.0
 11
1396.443304
 21
1965.493902
 31
0.0
  0
LINE
  5
261
330
20B
100
AcDbEntity
  8
0
  6
Continuous
 62
     2
100
AcDbLine
 10
1358.174036
 20
1814.993902
 30
0.0
 11
1396.443304
 21
1814.993902
 31
0.0
  0
LINE
  5
262
330
20B
100
AcDbEntity
  8
0
  6
Continuous
 62
     2
100
AcDbLine
 10
1395.693304
 20
1965.493902
 30
0.0
 11
1395.693304
 21
1890.243902
 31
0.0
  0
LINE
  5
263
330
20B
100
AcDbEntity
  8
0
  6
Continuous
 62
     2
100
AcDbLine
 10
1395.693304
 20
1814.993902
 30
0.0
 11
1395.693304
 21
1890.243902
 31
0.0
  0
INSERT
  5
264
330
20B
100
AcDbEntity
  8
0
  6
Continuous
 62
     2
100
AcDbBlockReference
  2
_CLOSED
 10
1395.693304
 20
1965.493902
 30
0.0
 41
2.5
 42
2.5
 43
2.5
 50
90.0
  0
INSERT
  5
265
330
20B
100
AcDbEntity
  8
0
  6
Continuous
 62
     2
100
AcDbBlockReference
  2
_CLOSED
 10
1395.693304
 20
1814.993902
 30
0.0
 41
2.5
 42
2.5
 43
2.5
 50
270.0
  0
ENDBLK
  5
266
330
20B
100
AcDbEntity
  8
0
  6
ByBlock
 62
     0
100
AcDbBlockEnd
  0
BLOCK
  5
267
330
20C
100
AcDbEntity
  8
0
100
AcDbBlockBegin
  2
*D3
 70
     1
 10
0.0
 20
0.0
 30
0.0
  3
*D3
  1
*D3
  0
MTEXT
  5
268
330
20C
100
AcDbEntity
  8
0
  6
Continuous
 62
     2
100
AcDbMText
 10
866.463415
 20
1568.062911
 30
0.0
 40
10.0
 41
34.944238
 46
0.0
 71
     2
 72
     1
  1
936,5
 73
     1
 44
0.9
  0
LINE
  5
269
330
20C
100
AcDbEntity
  8
0
  6
Continuous
 62
     2
100
AcDbLine
 10
1334.713415
 20
1504.836619
 30
0.0
 11
1334.713415
 21
1556.312911
 31
0.0
  0
LINE
  5
26A
330
20C
100
AcDbEntity
  8
0
  6
Continuous
 62
     2
100
AcDbLine
 10
398.213415
 20
1508.212522
 30
0.0
 11
398.213415
 21
1556.312911
 31
0.0
  0
LINE
  5
26B
330
20C
100
AcDbEntity
  8
0
  6
Continuous
 62
     2
100
AcDbLine
 10
1334.713415
 20
1555.562911
 30
0.0
 11
866.463415
 21
1555.562911
 31
0.0
  0
LINE
  5
26C
330
20C
100
AcDbEntity
  8
0
  6
Continuous
 62
     2
100
AcDbLine
 10
398.213415
 20
1555.562911
 30
0.0
 11
866.463415
 21
1555.562911
 31
0.0
  0
INSERT
  5
26D
330
20C
100
AcDbEntity
  8
0
  6
Continuous
 62
     2
100
AcDbBlockReference
  2
_CLOSED
 10
1334.713415
 20
1555.562911
 30
0.0
 41
2.5
 42
2.5
 43
2.5
  0
INSERT
  5
26E
330
20C
100
AcDbEntity
  8
0
  6
Continuous
 62
     2
100
AcDbBlockReference
  2
_CLOSED
 10
398.213415
 20
1555.562911
 30
0.0
 41
2.5
 42
2.5
 43
2.5
 50
180.0
  0
ENDBLK
  5
26F
330
20C
100
AcDbEntity
  8
0
  6
ByBlock
 62
     0
100
AcDbBlockEnd
  0
BLOCK
  5
213
330
20D
100
AcDbEntity
  8
0
100
AcDbBlockBegin
  2
LOGO2_BL0
 70
     0
 10
3120.873154
 20
30.322557
 30
0.0
  3
LOGO2_BL0
  1
LOGO2_BL0
  0
LINE
  5
214
330
20D
100
AcDbEntity
  8
0
  6
Continuous
 62
     7
100
AcDbLine
 10
3112.616079
 20
33.518049
 30
0.0
 11
3111.311738
 21
33.518049
 31
0.0
  0
LINE
  5
215
330
20D
100
AcDbEntity
  8
0
  6
Continuous
 62
     7
100
AcDbLine
 10
3111.311738
 20
33.518049
 30
0.0
 11
3111.311738
 21
23.058982
 31
0.0
  0
LINE
  5
216
330
20D
100
AcDbEntity
  8
0
  6
Continuous
 62
     7
100
AcDbLine
 10
3111.311738
 20
23.058982
 30
0.0
 11
3115.792793
 21
23.058982
 31
0.0
  0
LINE
  5
217
330
20D
100
AcDbEntity
  8
0
  6
Continuous
 62
     7
100
AcDbLine
 10
3115.792793
 20
23.058982
 30
0.0
 11
3115.792793
 21
24.251837
 31
0.0
  0
LINE
  5
218
330
20D
100
AcDbEntity
  8
0
  6
Continuous
 62
     7
100
AcDbLine
 10
3115.792793
 20
24.251837
 30
0.0
 11
3112.616079
 21
24.251837
 31
0.0
  0
LINE
  5
219
330
20D
100
AcDbEntity
  8
0
  6
Continuous
 62
     7
100
AcDbLine
 10
3112.616079
 20
24.251837
 30
0.0
 11
3112.616079
 21
33.518049
 31
0.0
  0
LINE
  5
21A
330
20D
100
AcDbEntity
  8
0
  6
Continuous
 62
     7
100
AcDbLine
 10
3127.552406
 20
33.518049
 30
0.0
 11
3126.248588
 21
33.518049
 31
0.0
  0
LINE
  5
21B
330
20D
100
AcDbEntity
  8
0
  6
Continuous
 62
     7
100
AcDbLine
 10
3126.248588
 20
33.518049
 30
0.0
 11
3126.248588
 21
23.058982
 31
0.0
  0
LINE
  5
21C
330
20D
100
AcDbEntity
  8
0
  6
Continuous
 62
     7
100
AcDbLine
 10
3126.248588
 20
23.058982
 30
0.0
 11
3130.729774
 21
23.058982
 31
0.0
  0
LINE
  5
21D
330
20D
100
AcDbEntity
  8
0
  6
Continuous
 62
     7
100
AcDbLine
 10
3130.729774
 20
23.058982
 30
0.0
 11
3130.729774
 21
24.251837
 31
0.0
  0
LINE
  5
21E
330
20D
100
AcDbEntity
  8
0
  6
Continuous
 62
     7
100
AcDbLine
 10
3130.729774
 20
24.251837
 30
0.0
 11
3127.552406
 21
24.251837
 31
0.0
  0
LINE
  5
21F
330
20D
100
AcDbEntity
  8
0
  6
Continuous
 62
     7
100
AcDbLine
 10
3127.552406
 20
24.251837
 30
0.0
 11
3127.552406
 21
33.518049
 31
0.0
  0
LWPOLYLINE
  5
220
330
20D
100
AcDbEntity
  8
0
  6
Continuous
 62
     7
100
AcDbPolyline
 90
        2
 70
     0
 43
0.2
 10
3109.666133
 20
19.715431
 10
3109.666133
 20
17.858368
  0
LWPOLYLINE
  5
221
330
20D
100
AcDbEntity
  8
0
  6
Continuous
 62
     7
100
AcDbPolyline
 90
        2
 70
     0
 43
0.2
 10
3109.666133
 20
17.858368
 10
3110.461849
 20
17.858368
  0
LWPOLYLINE
  5
222
330
20D
100
AcDbEntity
  8
0
  6
Continuous
 62
     7
100
AcDbPolyline
 90
        2
 70
     0
 43
0.2
 10
3110.461849
 20
17.858368
 10
3110.461849
 20
18.070349
  0
LWPOLYLINE
  5
223
330
20D
100
AcDbEntity
  8
0
  6
Continuous
 62
     7
100
AcDbPolyline
 90
        2
 70
     0
 43
0.2
 10
3110.461849
 20
18.070349
 10
3109.897743
 20
18.070349
  0
LWPOLYLINE
  5
224
330
20D
100
AcDbEntity
  8
0
  6
Continuous
 62
     7
100
AcDbPolyline
 90
        2
 70
     0
 43
0.2
 10
3109.897743
 20
18.070349
 10
3109.897743
 20
19.715431
  0
LWPOLYLINE
  5
225
330
20D
100
AcDbEntity
  8
0
  6
Continuous
 62
     7
100
AcDbPolyline
 90
        2
 70
     0
 43
0.2
 10
3109.897743
 20
19.715431
 10
3109.666133
 20
19.715431
  0
SPLINE
  5
226
330
20D
100
AcDbEntity
  8
0
  6
Continuous
 62
     7
100
AcDbSpline
 70
     3
 71
     3
 72
    35
 73
    31
 74
     0
 42
0.000000001
 43
0.0000001
 40
0.0
 40
0.0
 40
0.0
 40
0.0
 40
1.0
 40
1.0
 40
1.0
 40
2.0
 40
2.0
 40
2.0
 40
3.0
 40
3.0
 40
3.0
 40
4.0
 40
4.0
 40
4.0
 40
5.0
 40
5.0
 40
5.0
 40
6.0
 40
6.0
 40
6.0
 40
7.0
 40
7.0
 40
7.0
 40
8.0
 40
8.0
 40
8.0
 40
9.0
 40
9.0
 40
9.0
 40
10.0
 40
10.0
 40
10.0
 40
10.0
 10
3111.8601425411
 20
19.0109195604
 30
0.0
 10
3111.8601425411
 20
19.0109195604
 30
0.0
 10
3111.8601425411
 20
18.3488042813
 30
0.0
 10
3111.8601425411
 20
18.3488042813
 30
0.0
 10
3111.8601425411
 20
18.033710686
 30
0.0
 10
3112.0080062299
 20
17.8191120579
 30
0.0
 10
3112.3480927142
 20
17.8191120579
 30
0.0
 10
3112.6876557872
 20
17.8191120579
 30
0.0
 10
3112.8357811817
 20
18.033710686
 30
0.0
 10
3112.8357811817
 20
18.3488042813
 30
0.0
 10
3112.8357811817
 20
18.3488042813
 30
0.0
 10
3112.8357811817
 20
19.0109195604
 30
0.0
 10
3112.8357811817
 20
19.0109195604
 30
0.0
 10
3112.8357811817
 20
19.0109195604
 30
0.0
 10
3112.6137239428
 20
19.0109195604
 30
0.0
 10
3112.6137239428
 20
19.0109195604
 30
0.0
 10
3112.6137239428
 20
19.0109195604
 30
0.0
 10
3112.6137239428
 20
18.3739280231
 30
0.0
 10
3112.6137239428
 20
18.3739280231
 30
0.0
 10
3112.6137239428
 20
18.1881170159
 30
0.0
 10
3112.5670094853
 20
18.0253361054
 30
0.0
 10
3112.3480927142
 20
18.0253361054
 30
0.0
 10
3112.1286525317
 20
18.0253361054
 30
0.0
 10
3112.0819380743
 20
18.1881170159
 30
0.0
 10
3112.0819380743
 20
18.3739280231
 30
0.0
 10
3112.0819380743
 20
18.3739280231
 30
0.0
 10
3112.0819380743
 20
19.0109195604
 30
0.0
 10
3112.0819380743
 20
19.0109195604
 30
0.0
 10
3112.0819380743
 20
19.0109195604
 30
0.0
 10
3111.8601425411
 20
19.0109195604
 30
0.0
 10
3111.8601425411
 20
19.0109195604
 30
0.0
  0
SPLINE
  5
227
330
20D
100
AcDbEntity
  8
0
  6
Continuous
 62
     7
100
AcDbSpline
 70
     3
 71
     3
 72
    35
 73
    31
 74
     0
 42
0.000000001
 43
0.0000001
 40
0.0
 40
0.0
 40
0.0
 40
0.0
 40
1.0
 40
1.0
 40
1.0
 40
2.0
 40
2.0
 40
2.0
 40
3.0
 40
3.0
 40
3.0
 40
4.0
 40
4.0
 40
4.0
 40
5.0
 40
5.0
 40
5.0
 40
6.0
 40
6.0
 40
6.0
 40
7.0
 40
7.0
 40
7.0
 40
8.0
 40
8.0
 40
8.0
 40
9.0
 40
9.0
 40
9.0
 40
10.0
 40
10.0
 40
10.0
 40
10.0
 10
3115.2589137388
 20
18.9695700687
 30
0.0
 10
3115.1704572312
 20
19.0208643749
 30
0.0
 10
3115.0570078346
 20
19.0459881167
 30
0.0
 10
3114.9533723996
 20
19.0459881167
 30
0.0
 10
3114.5984995464
 20
19.0459881167
 30
0.0
 10
3114.3230543561
 20
18.7821888276
 30
0.0
 10
3114.3230543561
 20
18.424698918
 30
0.0
 10
3114.3230543561
 20
18.0797708793
 30
0.0
 10
3114.6015091613
 20
17.8196354692
 30
0.0
 10
3114.9410722343
 20
17.8196354692
 30
0.0
 10
3115.0570078346
 20
17.8196354692
 30
0.0
 10
3115.1577645075
 20
17.8416187433
 30
0.0
 10
3115.2589137388
 20
17.895530106
 30
0.0
 10
3115.2589137388
 20
17.895530106
 30
0.0
 10
3115.2589137388
 20
18.1781722014
 30
0.0
 10
3115.2589137388
 20
18.1781722014
 30
0.0
 10
3115.17503708
 20
18.0850049922
 30
0.0
 10
3115.0715324978
 20
18.0258595166
 30
0.0
 10
3114.9434275851
 20
18.0258595166
 30
0.0
 10
3114.7097244451
 20
18.0258595166
 30
0.0
 10
3114.5444573309
 20
18.1980618304
 30
0.0
 10
3114.5444573309
 20
18.4346437325
 30
0.0
 10
3114.5444573309
 20
18.6466253041
 30
0.0
 10
3114.7122106487
 20
18.8387172467
 30
0.0
 10
3114.9290337747
 20
18.8387172467
 30
0.0
 10
3115.061849389
 20
18.8387172467
 30
0.0
 10
3115.1704572312
 20
18.7848058841
 30
0.0
 10
3115.2589137388
 20
18.6837875055
 30
0.0
 10
3115.2589137388
 20
18.6837875055
 30
0.0
 10
3115.2589137388
 20
18.9695700687
 30
0.0
 10
3115.2589137388
 20
18.9695700687
 30
0.0
  0
SPLINE
  5
228
330
20D
100
AcDbEntity
  8
0
  6
Continuous
 62
     7
100
AcDbSpline
 70
     3
 71
     3
 72
    32
 73
    28
 74
     0
 42
0.000000001
 43
0.0000001
 40
0.0
 40
0.0
 40
0.0
 40
0.0
 40
1.0
 40
1.0
 40
1.0
 40
2.0
 40
2.0
 40
2.0
 40
3.0
 40
3.0
 40
3.0
 40
4.0
 40
4.0
 40
4.0
 40
5.0
 40
5.0
 40
5.0
 40
6.0
 40
6.0
 40
6.0
 40
7.0
 40
7.0
 40
7.0
 40
8.0
 40
8.0
 40
8.0
 40
9.0
 40
9.0
 40
9.0
 40
9.0
 10
3117.7907849911
 20
18.3980049423
 30
0.0
 10
3117.7907849911
 20
18.3980049423
 30
0.0
 10
3117.7907849911
 20
18.432026676
 30
0.0
 10
3117.7907849911
 20
18.432026676
 30
0.0
 10
3117.7907849911
 20
18.7743376583
 30
0.0
 10
3117.6179284133
 20
19.0459881167
 30
0.0
 10
3117.2512788061
 20
19.0459881167
 30
0.0
 10
3116.8796567917
 20
19.0459881167
 30
0.0
 10
3116.6899201999
 20
18.7795717712
 30
0.0
 10
3116.6899201999
 20
18.424698918
 30
0.0
 10
3116.6899201999
 20
18.0850049922
 30
0.0
 10
3116.9039954166
 20
17.8191120579
 30
0.0
 10
3117.2561203605
 20
17.8191120579
 30
0.0
 10
3117.4801403917
 20
17.8191120579
 30
0.0
 10
3117.6823080017
 20
17.9347859526
 30
0.0
 10
3117.7907849911
 20
18.1342056532
 30
0.0
 10
3117.7907849911
 20
18.1342056532
 30
0.0
 10
3117.6031420444
 20
18.240981556
 30
0.0
 10
3117.6031420444
 20
18.240981556
 30
0.0
 10
3117.519657944
 20
18.1022775647
 30
0.0
 10
3117.4284535271
 20
18.0164381135
 30
0.0
 10
3117.2588682698
 20
18.0164381135
 30
0.0
 10
3117.0468866982
 20
18.0164381135
 30
0.0
 10
3116.9139402311
 20
18.2012022981
 30
0.0
 10
3116.9115848803
 20
18.3980049423
 30
0.0
 10
3116.9115848803
 20
18.3980049423
 30
0.0
 10
3117.7907849911
 20
18.3980049423
 30
0.0
 10
3117.7907849911
 20
18.3980049423
 30
0.0
  0
SPLINE
  5
229
330
20D
100
AcDbEntity
  8
0
  6
Continuous
 62
     7
100
AcDbSpline
 70
     3
 71
     3
 72
    14
 73
    10
 74
     0
 42
0.000000001
 43
0.0000001
 40
0.0
 40
0.0
 40
0.0
 40
0.0
 40
1.0
 40
1.0
 40
1.0
 40
2.0
 40
2.0
 40
2.0
 40
3.0
 40
3.0
 40
3.0
 40
3.0
 10
3116.9236233399
 20
18.5654965544
 30
0.0
 10
3116.9512332854
 20
18.7303711101
 30
0.0
 10
3117.0790764924
 20
18.8533727628
 30
0.0
 10
3117.2512788061
 20
18.8533727628
 30
0.0
 10
3117.4284535271
 20
18.8533727628
 30
0.0
 10
3117.5419029237
 20
18.7376988682
 30
0.0
 10
3117.5691203107
 20
18.5654965544
 30
0.0
 10
3117.5691203107
 20
18.5654965544
 30
0.0
 10
3116.9236233399
 20
18.5654965544
 30
0.0
 10
3116.9236233399
 20
18.5654965544
 30
0.0
  0
SPLINE
  5
22A
330
20D
100
AcDbEntity
  8
0
  6
Continuous
 62
     7
100
AcDbSpline
 70
     3
 71
     3
 72
    20
 73
    16
 74
     0
 42
0.000000001
 43
0.0000001
 40
0.0
 40
0.0
 40
0.0
 40
0.0
 40
1.0
 40
1.0
 40
1.0
 40
2.0
 40
2.0
 40
2.0
 40
3.0
 40
3.0
 40
3.0
 40
4.0
 40
4.0
 40
4.0
 40
5.0
 40
5.0
 40
5.0
 40
5.0
 10
3119.8148164413
 20
18.7748610696
 30
0.0
 10
3119.8148164413
 20
18.7748610696
 30
0.0
 10
3120.2259560079
 20
18.2723862332
 30
0.0
 10
3120.2259560079
 20
18.2723862332
 30
0.0
 10
3120.1098895548
 20
18.1567123386
 30
0.0
 10
3119.9721015333
 20
18.0263829279
 30
0.0
 10
3119.8001609252
 20
18.0263829279
 30
0.0
 10
3119.6227244986
 20
18.0263829279
 30
0.0
 10
3119.4552328865
 20
18.1907340723
 30
0.0
 10
3119.4552328865
 20
18.3676470876
 30
0.0
 10
3119.4552328865
 20
18.5456069255
 30
0.0
 10
3119.6649899601
 20
18.6717490459
 30
0.0
 10
3119.7925714616
 20
18.7596821422
 30
0.0
 10
3119.7925714616
 20
18.7596821422
 30
0.0
 10
3119.8148164413
 20
18.7748610696
 30
0.0
 10
3119.8148164413
 20
18.7748610696
 30
0.0
  0
SPLINE
  5
22B
330
20D
100
AcDbEntity
  8
0
  6
Continuous
 62
     7
100
AcDbSpline
 70
     3
 71
     3
 72
    23
 73
    19
 74
     0
 42
0.000000001
 43
0.0000001
 40
0.0
 40
0.0
 40
0.0
 40
0.0
 40
1.0
 40
1.0
 40
1.0
 40
2.0
 40
2.0
 40
2.0
 40
3.0
 40
3.0
 40
3.0
 40
4.0
 40
4.0
 40
4.0
 40
5.0
 40
5.0
 40
5.0
 40
6.0
 40
6.0
 40
6.0
 40
6.0
 10
3119.8641479552
 20
19.0658777456
 30
0.0
 10
3119.8641479552
 20
19.0658777456
 30
0.0
 10
3119.802516276
 20
19.1443894388
 30
0.0
 10
3119.802516276
 20
19.1443894388
 30
0.0
 10
3119.7486049134
 20
19.2129563175
 30
0.0
 10
3119.6918147886
 20
19.2820466075
 30
0.0
 10
3119.6918147886
 20
19.3757372281
 30
0.0
 10
3119.6918147886
 20
19.4945515904
 30
0.0
 10
3119.7877299071
 20
19.572016461
 30
0.0
 10
3119.8986931002
 20
19.572016461
 30
0.0
 10
3120.0219564585
 20
19.572016461
 30
0.0
 10
3120.1152545205
 20
19.5008325259
 30
0.0
 10
3120.1152545205
 20
19.3705031152
 30
0.0
 10
3120.1152545205
 20
19.2354630029
 30
0.0
 10
3119.9871496078
 20
19.1590449549
 30
0.0
 10
3119.8935898401
 20
19.0852439633
 30
0.0
 10
3119.8935898401
 20
19.0852439633
 30
0.0
 10
3119.8641479552
 20
19.0658777456
 30
0.0
 10
3119.8641479552
 20
19.0658777456
 30
0.0
  0
SPLINE
  5
22C
330
20D
100
AcDbEntity
  8
0
  6
Continuous
 62
     7
100
AcDbSpline
 70
     3
 71
     3
 72
    50
 73
    46
 74
     0
 42
0.000000001
 43
0.0000001
 40
0.0
 40
0.0
 40
0.0
 40
0.0
 40
1.0
 40
1.0
 40
1.0
 40
2.0
 40
2.0
 40
2.0
 40
3.0
 40
3.0
 40
3.0
 40
4.0
 40
4.0
 40
4.0
 40
5.0
 40
5.0
 40
5.0
 40
6.0
 40
6.0
 40
6.0
 40
7.0
 40
7.0
 40
7.0
 40
8.0
 40
8.0
 40
8.0
 40
9.0
 40
9.0
 40
9.0
 40
10.0
 40
10.0
 40
10.0
 40
11.0
 40
11.0
 40
11.0
 40
12.0
 40
12.0
 40
12.0
 40
13.0
 40
13.0
 40
13.0
 40
14.0
 40
14.0
 40
14.0
 40
15.0
 40
15.0
 40
15.0
 40
15.0
 10
3120.5663041979
 20
17.8588913158
 30
0.0
 10
3120.5663041979
 20
17.8588913158
 30
0.0
 10
3120.8516942026
 20
17.8588913158
 30
0.0
 10
3120.8516942026
 20
17.8588913158
 30
0.0
 10
3120.8516942026
 20
17.8588913158
 30
0.0
 10
3120.5193280348
 20
18.2697691768
 30
0.0
 10
3120.5193280348
 20
18.2697691768
 30
0.0
 10
3120.5193280348
 20
18.2697691768
 30
0.0
 10
3120.7458342696
 20
18.535662111
 30
0.0
 10
3120.7458342696
 20
18.535662111
 30
0.0
 10
3120.7458342696
 20
18.535662111
 30
0.0
 10
3120.5975780223
 20
18.6884982071
 30
0.0
 10
3120.5975780223
 20
18.6884982071
 30
0.0
 10
3120.5975780223
 20
18.6884982071
 30
0.0
 10
3120.3816708661
 20
18.4372607889
 30
0.0
 10
3120.3816708661
 20
18.4372607889
 30
0.0
 10
3120.3816708661
 20
18.4372607889
 30
0.0
 10
3119.9946082187
 20
18.9051904803
 30
0.0
 10
3119.9946082187
 20
18.9051904803
 30
0.0
 10
3120.1500613712
 20
19.019294141
 30
0.0
 10
3120.3323393522
 20
19.1590449549
 30
0.0
 10
3120.3323393522
 20
19.36840947
 30
0.0
 10
3120.3323393522
 20
19.6123191302
 30
0.0
 10
3120.1303025951
 20
19.7557338231
 30
0.0
 10
3119.9037963602
 20
19.7557338231
 30
0.0
 10
3119.6596249944
 20
19.7557338231
 30
0.0
 10
3119.4752533683
 20
19.6049913722
 30
0.0
 10
3119.4752533683
 20
19.3485198411
 30
0.0
 10
3119.4752533683
 20
19.1909730434
 30
0.0
 10
3119.5739163961
 20
19.0533158747
 30
0.0
 10
3119.6792529177
 20
18.9423526817
 30
0.0
 10
3119.6792529177
 20
18.9423526817
 30
0.0
 10
3119.5637098759
 20
18.8586068757
 30
0.0
 10
3119.5637098759
 20
18.8586068757
 30
0.0
 10
3119.3860117437
 20
18.7303711101
 30
0.0
 10
3119.2386714662
 20
18.6026587559
 30
0.0
 10
3119.2386714662
 20
18.3655534425
 30
0.0
 10
3119.2386714662
 20
18.0452257343
 30
0.0
 10
3119.4972366424
 20
17.8191120579
 30
0.0
 10
3119.8076195361
 20
17.8191120579
 30
0.0
 10
3120.0265363072
 20
17.8191120579
 30
0.0
 10
3120.2237315099
 20
17.9442073557
 30
0.0
 10
3120.3640057351
 20
18.110128734
 30
0.0
 10
3120.3640057351
 20
18.110128734
 30
0.0
 10
3120.5663041979
 20
17.8588913158
 30
0.0
 10
3120.5663041979
 20
17.8588913158
 30
0.0
  0
LWPOLYLINE
  5
22D
330
20D
100
AcDbEntity
  8
0
  6
Continuous
 62
     7
100
AcDbPolyline
 90
        2
 70
     0
 43
0.2
 10
3122.501748
 20
19.715431
 10
3122.2704
 20
19.715431
  0
LWPOLYLINE
  5
22E
330
20D
100
AcDbEntity
  8
0
  6
Continuous
 62
     7
100
AcDbPolyline
 90
        2
 70
     0
 43
0.2
 10
3122.2704
 20
19.715431
 10
3122.2704
 20
17.858368
  0
LWPOLYLINE
  5
22F
330
20D
100
AcDbEntity
  8
0
  6
Continuous
 62
     7
100
AcDbPolyline
 90
        2
 70
     0
 43
0.2
 10
3122.2704
 20
17.858368
 10
3123.065724
 20
17.858368
  0
LWPOLYLINE
  5
230
330
20D
100
AcDbEntity
  8
0
  6
Continuous
 62
     7
100
AcDbPolyline
 90
        2
 70
     0
 43
0.2
 10
3123.065724
 20
17.858368
 10
3123.065724
 20
18.070349
  0
LWPOLYLINE
  5
231
330
20D
100
AcDbEntity
  8
0
  6
Continuous
 62
     7
100
AcDbPolyline
 90
        2
 70
     0
 43
0.2
 10
3123.065724
 20
18.070349
 10
3122.501748
 20
18.070349
  0
LWPOLYLINE
  5
232
330
20D
100
AcDbEntity
  8
0
  6
Continuous
 62
     7
100
AcDbPolyline
 90
        2
 70
     0
 43
0.2
 10
3122.501748
 20
18.070349
 10
3122.501748
 20
19.715431
  0
LWPOLYLINE
  5
233
330
20D
100
AcDbEntity
  8
0
  6
Continuous
 62
     7
100
AcDbPolyline
 90
        2
 70
     0
 43
0.2
 10
3124.744827
 20
19.01092
 10
3124.523686
 20
19.01092
  0
LWPOLYLINE
  5
234
330
20D
100
AcDbEntity
  8
0
  6
Continuous
 62
     7
100
AcDbPolyline
 90
        2
 70
     0
 43
0.2
 10
3124.523686
 20
19.01092
 10
3124.523686
 20
17.858891
  0
LWPOLYLINE
  5
235
330
20D
100
AcDbEntity
  8
0
  6
Continuous
 62
     7
100
AcDbPolyline
 90
        2
 70
     0
 43
0.2
 10
3124.523686
 20
17.858891
 10
3124.744827
 20
17.858891
  0
LWPOLYLINE
  5
236
330
20D
100
AcDbEntity
  8
0
  6
Continuous
 62
     7
100
AcDbPolyline
 90
        2
 70
     0
 43
0.2
 10
3124.744827
 20
17.858891
 10
3124.744827
 20
19.01092
  0
LWPOLYLINE
  5
237
330
20D
100
AcDbEntity
  8
0
  6
Continuous
 62
     7
100
AcDbPolyline
 90
        2
 70
     1
 43
0.2
 10
3124.481804
 20
19.540873
 42
1.0
 10
3124.786971
 20
19.540873
 42
1.0
  0
SPLINE
  5
238
330
20D
100
AcDbEntity
  8
0
  6
Continuous
 62
     7
100
AcDbSpline
 70
     3
 71
     3
 72
    17
 73
    13
 74
     0
 42
0.000000001
 43
0.0000001
 40
0.0
 40
0.0
 40
0.0
 40
0.0
 40
1.0
 40
1.0
 40
1.0
 40
2.0
 40
2.0
 40
2.0
 40
3.0
 40
3.0
 40
3.0
 40
4.0
 40
4.0
 40
4.0
 40
4.0
 10
3126.8751113034
 20
18.0164381135
 30
0.0
 10
3126.6411464577
 20
18.0164381135
 30
0.0
 10
3126.510817047
 20
18.2184748706
 30
0.0
 10
3126.510817047
 20
18.4346437325
 30
0.0
 10
3126.510817047
 20
18.6492423605
 30
0.0
 10
3126.6466422762
 20
18.8481386499
 30
0.0
 10
3126.8751113034
 20
18.8481386499
 30
0.0
 10
3127.1145719676
 20
18.8481386499
 30
0.0
 10
3127.2501354911
 20
18.659187175
 30
0.0
 10
3127.2501354911
 20
18.4346437325
 30
0.0
 10
3127.2501354911
 20
18.2085300561
 30
0.0
 10
3127.1169273184
 20
18.0164381135
 30
0.0
 10
3126.8751113034
 20
18.0164381135
 30
0.0
  0
SPLINE
  5
239
330
20D
100
AcDbEntity
  8
0
  6
Continuous
 62
     7
100
AcDbSpline
 70
     3
 71
     3
 72
    50
 73
    46
 74
     0
 42
0.000000001
 43
0.0000001
 40
0.0
 40
0.0
 40
0.0
 40
0.0
 40
1.0
 40
1.0
 40
1.0
 40
2.0
 40
2.0
 40
2.0
 40
3.0
 40
3.0
 40
3.0
 40
4.0
 40
4.0
 40
4.0
 40
5.0
 40
5.0
 40
5.0
 40
6.0
 40
6.0
 40
6.0
 40
7.0
 40
7.0
 40
7.0
 40
8.0
 40
8.0
 40
8.0
 40
9.0
 40
9.0
 40
9.0
 40
10.0
 40
10.0
 40
10.0
 40
11.0
 40
11.0
 40
11.0
 40
12.0
 40
12.0
 40
12.0
 40
13.0
 40
13.0
 40
13.0
 40
14.0
 40
14.0
 40
14.0
 40
15.0
 40
15.0
 40
15.0
 40
15.0
 10
3127.4592383006
 20
19.0114429717
 30
0.0
 10
3127.4592383006
 20
19.0114429717
 30
0.0
 10
3127.2375736202
 20
19.0114429717
 30
0.0
 10
3127.2375736202
 20
19.0114429717
 30
0.0
 10
3127.2375736202
 20
19.0114429717
 30
0.0
 10
3127.2375736202
 20
18.8141169162
 30
0.0
 10
3127.2375736202
 20
18.8141169162
 30
0.0
 10
3127.2375736202
 20
18.8141169162
 30
0.0
 10
3127.2328629186
 20
18.8141169162
 30
0.0
 10
3127.2328629186
 20
18.8141169162
 30
0.0
 10
3127.1415276489
 20
18.9570081978
 30
0.0
 10
3127.0036087745
 20
19.0454647054
 30
0.0
 10
3126.8308830495
 20
19.0454647054
 30
0.0
 10
3126.4985168818
 20
19.0454647054
 30
0.0
 10
3126.2894140722
 20
18.7575884971
 30
0.0
 10
3126.2894140722
 20
18.4419714905
 30
0.0
 10
3126.2894140722
 20
18.1122223791
 30
0.0
 10
3126.4864784221
 20
17.8191120579
 30
0.0
 10
3126.8413512753
 20
17.8191120579
 30
0.0
 10
3127.0036087745
 20
17.8191120579
 30
0.0
 10
3127.1436212941
 20
17.9075685656
 30
0.0
 10
3127.2328629186
 20
18.0384213876
 30
0.0
 10
3127.2328629186
 20
18.0384213876
 30
0.0
 10
3127.2375736202
 20
18.0384213876
 30
0.0
 10
3127.2375736202
 20
18.0384213876
 30
0.0
 10
3127.2375736202
 20
18.0384213876
 30
0.0
 10
3127.2375736202
 20
17.8191120579
 30
0.0
 10
3127.2375736202
 20
17.8191120579
 30
0.0
 10
3127.2375736202
 20
17.5825301558
 30
0.0
 10
3127.1810452011
 20
17.3956723261
 30
0.0
 10
3126.9078245089
 20
17.3956723261
 30
0.0
 10
3126.7055260461
 20
17.3956723261
 30
0.0
 10
3126.5628964702
 20
17.5139632771
 30
0.0
 10
3126.5628964702
 20
17.7201873245
 30
0.0
 10
3126.5628964702
 20
17.7201873245
 30
0.0
 10
3126.3412317897
 20
17.7201873245
 30
0.0
 10
3126.3412317897
 20
17.7201873245
 30
0.0
 10
3126.346204197
 20
17.3956723261
 30
0.0
 10
3126.5772902806
 20
17.1988696818
 30
0.0
 10
3126.8976179888
 20
17.1988696818
 30
0.0
 10
3127.3456580512
 20
17.1988696818
 30
0.0
 10
3127.4592383006
 20
17.4841288337
 30
0.0
 10
3127.4592383006
 20
17.8808745899
 30
0.0
 10
3127.4592383006
 20
17.8808745899
 30
0.0
 10
3127.4592383006
 20
19.0114429717
 30
0.0
 10
3127.4592383006
 20
19.0114429717
 30
0.0
  0
SPLINE
  5
23A
330
20D
100
AcDbEntity
  8
0
  6
Continuous
 62
     7
100
AcDbSpline
 70
     3
 71
     3
 72
    44
 73
    40
 74
     0
 42
0.000000001
 43
0.0000001
 40
0.0
 40
0.0
 40
0.0
 40
0.0
 40
1.0
 40
1.0
 40
1.0
 40
2.0
 40
2.0
 40
2.0
 40
3.0
 40
3.0
 40
3.0
 40
4.0
 40
4.0
 40
4.0
 40
5.0
 40
5.0
 40
5.0
 40
6.0
 40
6.0
 40
6.0
 40
7.0
 40
7.0
 40
7.0
 40
8.0
 40
8.0
 40
8.0
 40
9.0
 40
9.0
 40
9.0
 40
10.0
 40
10.0
 40
10.0
 40
11.0
 40
11.0
 40
11.0
 40
12.0
 40
12.0
 40
12.0
 40
13.0
 40
13.0
 40
13.0
 40
13.0
 10
3129.028163636
 20
19.9965030155
 30
0.0
 10
3129.028163636
 20
19.9965030155
 30
0.0
 10
3129.028163636
 20
17.8583679045
 30
0.0
 10
3129.028163636
 20
17.8583679045
 30
0.0
 10
3129.028163636
 20
17.8583679045
 30
0.0
 10
3129.2495666108
 20
17.8583679045
 30
0.0
 10
3129.2495666108
 20
17.8583679045
 30
0.0
 10
3129.2495666108
 20
17.8583679045
 30
0.0
 10
3129.2495666108
 20
18.3880601279
 30
0.0
 10
3129.2495666108
 20
18.3880601279
 30
0.0
 10
3129.2495666108
 20
18.5979480543
 30
0.0
 10
3129.2495666108
 20
18.8486620612
 30
0.0
 10
3129.5348257627
 20
18.8486620612
 30
0.0
 10
3129.761724556
 20
18.8486620612
 30
0.0
 10
3129.7886802373
 20
18.7157155941
 30
0.0
 10
3129.7886802373
 20
18.5194363611
 30
0.0
 10
3129.7886802373
 20
18.5194363611
 30
0.0
 10
3129.7886802373
 20
17.8583679045
 30
0.0
 10
3129.7886802373
 20
17.8583679045
 30
0.0
 10
3129.7886802373
 20
17.8583679045
 30
0.0
 10
3130.0106066234
 20
17.8583679045
 30
0.0
 10
3130.0106066234
 20
17.8583679045
 30
0.0
 10
3130.0106066234
 20
17.8583679045
 30
0.0
 10
3130.0106066234
 20
18.5456069255
 30
0.0
 10
3130.0106066234
 20
18.5456069255
 30
0.0
 10
3130.0106066234
 20
18.8261553758
 30
0.0
 10
3129.9265991117
 20
19.0459881167
 30
0.0
 10
3129.6015607019
 20
19.0459881167
 30
0.0
 10
3129.461809888
 20
19.0459881167
 30
0.0
 10
3129.323629308
 20
18.9795148831
 30
0.0
 10
3129.2542773124
 20
18.8565132305
 30
0.0
 10
3129.2542773124
 20
18.8565132305
 30
0.0
 10
3129.2495666108
 20
18.8565132305
 30
0.0
 10
3129.2495666108
 20
18.8565132305
 30
0.0
 10
3129.2495666108
 20
18.8565132305
 30
0.0
 10
3129.2495666108
 20
19.9965030155
 30
0.0
 10
3129.2495666108
 20
19.9965030155
 30
0.0
 10
3129.2495666108
 20
19.9965030155
 30
0.0
 10
3129.028163636
 20
19.9965030155
 30
0.0
 10
3129.028163636
 20
19.9965030155
 30
0.0
  0
LWPOLYLINE
  5
23B
330
20D
100
AcDbEntity
  8
0
  6
Continuous
 62
     7
100
AcDbPolyline
 90
        2
 70
     0
 43
0.2
 10
3131.850397
 20
18.804172
 10
3132.066828
 20
18.804172
  0
LWPOLYLINE
  5
23C
330
20D
100
AcDbEntity
  8
0
  6
Continuous
 62
     7
100
AcDbPolyline
 90
        2
 70
     0
 43
0.2
 10
3132.066828
 20
18.804172
 10
3132.066828
 20
19.01092
  0
LWPOLYLINE
  5
23D
330
20D
100
AcDbEntity
  8
0
  6
Continuous
 62
     7
100
AcDbPolyline
 90
        2
 70
     0
 43
0.2
 10
3132.066828
 20
19.01092
 10
3131.850397
 20
19.01092
  0
LWPOLYLINE
  5
23E
330
20D
100
AcDbEntity
  8
0
  6
Continuous
 62
     7
100
AcDbPolyline
 90
        2
 70
     0
 43
0.2
 10
3131.850397
 20
19.01092
 10
3131.850397
 20
19.451632
  0
LWPOLYLINE
  5
23F
330
20D
100
AcDbEntity
  8
0
  6
Continuous
 62
     7
100
AcDbPolyline
 90
        2
 70
     0
 43
0.2
 10
3131.850397
 20
19.451632
 10
3131.628733
 20
19.451632
  0
LWPOLYLINE
  5
240
330
20D
100
AcDbEntity
  8
0
  6
Continuous
 62
     7
100
AcDbPolyline
 90
        2
 70
     0
 43
0.2
 10
3131.628733
 20
19.451632
 10
3131.628733
 20
19.01092
  0
LWPOLYLINE
  5
241
330
20D
100
AcDbEntity
  8
0
  6
Continuous
 62
     7
100
AcDbPolyline
 90
        2
 70
     0
 43
0.2
 10
3131.628733
 20
19.01092
 10
3131.508086
 20
19.01092
  0
LWPOLYLINE
  5
242
330
20D
100
AcDbEntity
  8
0
  6
Continuous
 62
     7
100
AcDbPolyline
 90
        2
 70
     0
 43
0.2
 10
3131.508086
 20
19.01092
 10
3131.508086
 20
18.804172
  0
LWPOLYLINE
  5
243
330
20D
100
AcDbEntity
  8
0
  6
Continuous
 62
     7
100
AcDbPolyline
 90
        2
 70
     0
 43
0.2
 10
3131.508086
 20
18.804172
 10
3131.628733
 20
18.804172
  0
LWPOLYLINE
  5
244
330
20D
100
AcDbEntity
  8
0
  6
Continuous
 62
     7
100
AcDbPolyline
 90
        2
 70
     0
 43
0.2
 10
3131.628733
 20
18.804172
 10
3131.628733
 20
17.858368
  0
LWPOLYLINE
  5
245
330
20D
100
AcDbEntity
  8
0
  6
Continuous
 62
     7
100
AcDbPolyline
 90
        2
 70
     0
 43
0.2
 10
3131.628733
 20
17.858368
 10
3131.850397
 20
17.858368
  0
LWPOLYLINE
  5
246
330
20D
100
AcDbEntity
  8
0
  6
Continuous
 62
     7
100
AcDbPolyline
 90
        2
 70
     0
 43
0.2
 10
3131.850397
 20
17.858368
 10
3131.850397
 20
18.804172
  0
SPLINE
  5
247
330
20D
100
AcDbEntity
  8
0
  6
Continuous
 62
     7
100
AcDbSpline
 70
     3
 71
     3
 72
    20
 73
    16
 74
     0
 42
0.000000001
 43
0.0000001
 40
0.0
 40
0.0
 40
0.0
 40
0.0
 40
1.0
 40
1.0
 40
1.0
 40
2.0
 40
2.0
 40
2.0
 40
3.0
 40
3.0
 40
3.0
 40
4.0
 40
4.0
 40
4.0
 40
5.0
 40
5.0
 40
5.0
 40
5.0
 10
3119.6324076075
 20
28.2192943479
 30
0.0
 10
3119.6324076075
 20
28.2192943479
 30
0.0
 10
3121.9487642619
 20
25.3897329257
 30
0.0
 10
3121.9487642619
 20
25.3897329257
 30
0.0
 10
3121.2971172085
 20
24.737562461
 30
0.0
 10
3120.5202440045
 20
24.0016461903
 30
0.0
 10
3119.5490543599
 20
24.0016461903
 30
0.0
 10
3118.5505164754
 20
24.0016461903
 30
0.0
 10
3117.6071984819
 20
24.9312246375
 30
0.0
 10
3117.6071984819
 20
25.9304167861
 30
0.0
 10
3117.6071984819
 20
26.9296089346
 30
0.0
 10
3118.786051555
 20
27.6362141732
 30
0.0
 10
3119.5075740153
 20
28.1360719531
 30
0.0
 10
3119.5075740153
 20
28.1360719531
 30
0.0
 10
3119.6324076075
 20
28.2192943479
 30
0.0
 10
3119.6324076075
 20
28.2192943479
 30
0.0
  0
SPLINE
  5
248
330
20D
100
AcDbEntity
  8
0
  6
Continuous
 62
     7
100
AcDbSpline
 70
     3
 71
     3
 72
    23
 73
    19
 74
     0
 42
0.000000001
 43
0.0000001
 40
0.0
 40
0.0
 40
0.0
 40
0.0
 40
1.0
 40
1.0
 40
1.0
 40
2.0
 40
2.0
 40
2.0
 40
3.0
 40
3.0
 40
3.0
 40
4.0
 40
4.0
 40
4.0
 40
5.0
 40
5.0
 40
5.0
 40
6.0
 40
6.0
 40
6.0
 40
6.0
 10
3119.90981559
 20
29.8570482677
 30
0.0
 10
3119.90981559
 20
29.8570482677
 30
0.0
 10
3119.5633173175
 20
30.3003776285
 30
0.0
 10
3119.5633173175
 20
30.3003776285
 30
0.0
 10
3119.2575142725
 20
30.6884870984
 30
0.0
 10
3118.9386259454
 20
31.0769891269
 30
0.0
 10
3118.9386259454
 20
31.6039334409
 30
0.0
 10
3118.9386259454
 20
32.2701051576
 30
0.0
 10
3119.4799640699
 20
32.7138270769
 30
0.0
 10
3120.103870325
 20
32.7138270769
 30
0.0
 10
3120.7976519871
 20
32.7138270769
 30
0.0
 10
3121.3248580068
 20
32.3115855021
 30
0.0
 10
3121.3248580068
 20
31.5765852011
 30
0.0
 10
3121.3248580068
 20
30.8133206906
 30
0.0
 10
3120.6035972521
 20
30.3832074648
 30
0.0
 10
3120.0765220852
 20
29.9674880494
 30
0.0
 10
3120.0765220852
 20
29.9674880494
 30
0.0
 10
3119.90981559
 20
29.8570482677
 30
0.0
 10
3119.90981559
 20
29.8570482677
 30
0.0
  0
SPLINE
  5
249
330
20D
100
AcDbEntity
  8
0
  6
Continuous
 62
     7
100
AcDbSpline
 70
     3
 71
     3
 72
    50
 73
    46
 74
     0
 42
0.000000001
 43
0.0000001
 40
0.0
 40
0.0
 40
0.0
 40
0.0
 40
1.0
 40
1.0
 40
1.0
 40
2.0
 40
2.0
 40
2.0
 40
3.0
 40
3.0
 40
3.0
 40
4.0
 40
4.0
 40
4.0
 40
5.0
 40
5.0
 40
5.0
 40
6.0
 40
6.0
 40
6.0
 40
7.0
 40
7.0
 40
7.0
 40
8.0
 40
8.0
 40
8.0
 40
9.0
 40
9.0
 40
9.0
 40
10.0
 40
10.0
 40
10.0
 40
11.0
 40
11.0
 40
11.0
 40
12.0
 40
12.0
 40
12.0
 40
13.0
 40
13.0
 40
13.0
 40
14.0
 40
14.0
 40
14.0
 40
15.0
 40
15.0
 40
15.0
 40
15.0
 10
3123.863402753
 20
23.0584590495
 30
0.0
 10
3123.863402753
 20
23.0584590495
 30
0.0
 10
3125.4726307575
 20
23.0584590495
 30
0.0
 10
3125.4726307575
 20
23.0584590495
 30
0.0
 10
3125.4726307575
 20
23.0584590495
 30
0.0
 10
3123.5996034639
 20
25.3756008209
 30
0.0
 10
3123.5996034639
 20
25.3756008209
 30
0.0
 10
3123.5996034639
 20
25.3756008209
 30
0.0
 10
3124.8759418894
 20
26.8730805155
 30
0.0
 10
3124.8759418894
 20
26.8730805155
 30
0.0
 10
3124.8759418894
 20
26.8730805155
 30
0.0
 10
3124.0437179416
 20
27.7340920841
 30
0.0
 10
3124.0437179416
 20
27.7340920841
 30
0.0
 10
3124.0437179416
 20
27.7340920841
 30
0.0
 10
3122.8231228183
 20
26.3187879617
 30
0.0
 10
3122.8231228183
 20
26.3187879617
 30
0.0
 10
3122.8231228183
 20
26.3187879617
 30
0.0
 10
3120.6452084495
 20
28.9541637961
 30
0.0
 10
3120.6452084495
 20
28.9541637961
 30
0.0
 10
3121.518781889
 20
29.592202156
 30
0.0
 10
3122.5454531301
 20
30.3832074648
 30
0.0
 10
3122.5454531301
 20
31.5620605379
 30
0.0
 10
3122.5454531301
 20
32.9357534629
 30
0.0
 10
3121.4075569903
 20
33.7402366124
 30
0.0
 10
3120.1322653874
 20
33.7402366124
 30
0.0
 10
3118.758834168
 20
33.7402366124
 30
0.0
 10
3117.7178999693
 20
32.8940114127
 30
0.0
 10
3117.7178999693
 20
31.4513590505
 30
0.0
 10
3117.7178999693
 20
30.5637843591
 30
0.0
 10
3118.2732393457
 20
29.7869111551
 30
0.0
 10
3118.8694048026
 20
29.1624814887
 30
0.0
 10
3118.8694048026
 20
29.1624814887
 30
0.0
 10
3118.2174960435
 20
28.6908879183
 30
0.0
 10
3118.2174960435
 20
28.6908879183
 30
0.0
 10
3117.2189581591
 20
27.9696271636
 30
0.0
 10
3116.3860799473
 20
27.2483664089
 30
0.0
 10
3116.3860799473
 20
25.9168080926
 30
0.0
 10
3116.3860799473
 20
24.1131327946
 30
0.0
 10
3117.8431261199
 20
22.8365326635
 30
0.0
 10
3119.5906655573
 20
22.8365326635
 30
0.0
 10
3120.8255236382
 20
22.8365326635
 30
0.0
 10
3121.9348938628
 20
23.544708136
 30
0.0
 10
3122.7257683188
 20
24.4732397606
 30
0.0
 10
3122.7257683188
 20
24.4732397606
 30
0.0
 10
3123.863402753
 20
23.0584590495
 30
0.0
 10
3123.863402753
 20
23.0584590495
 30
0.0
  0
LINE
  5
24A
330
20D
100
AcDbEntity
  8
0
  6
Continuous
 62
     7
100
AcDbLine
 10
3109.666264
 20
21.032334
 30
0.0
 11
3132.080175
 21
21.032334
 31
0.0
  0
LINE
  5
24B
330
20D
100
AcDbEntity
  8
0
  6
Continuous
 62
     7
100
AcDbLine
 10
3132.080175
 20
21.032334
 30
0.0
 11
3132.080175
 21
43.446245
 31
0.0
  0
LINE
  5
24C
330
20D
100
AcDbEntity
  8
0
  6
Continuous
 62
     7
100
AcDbLine
 10
3132.080175
 20
43.446245
 30
0.0
 11
3109.666264
 21
43.446245
 31
0.0
  0
LINE
  5
24D
330
20D
100
AcDbEntity
  8
0
  6
Continuous
 62
     7
100
AcDbLine
 10
3109.666264
 20
43.446245
 30
0.0
 11
3109.666264
 21
21.032334
 31
0.0
  0
ENDBLK
  5
24E
330
20D
100
AcDbEntity
  8
0
  6
ByBlock
 62
     0
100
AcDbBlockEnd
  0
BLOCK
  5
270
330
20E
100
AcDbEntity
  8
0
100
AcDbBlockBegin
  2
*T5
 70
     1
 10
0.0
 20
0.0
 30
0.0
  3
*T5
  1
*T5
  0
LINE
  5
271
330
20E
100
AcDbEntity
  8
0
  6
Continuous
 62
     2
100
AcDbLine
 10
0.0
 20
0.0
 30
0.0
 11
90.0
 21
0.0
 31
0.0
  0
LINE
  5
272
330
20E
100
AcDbEntity
  8
0
  6
Continuous
 62
     2
100
AcDbLine
 10
0.0
 20
0.0
 30
0.0
 11
0.0
 21
-40.0
 31
0.0
  0
LINE
  5
273
330
20E
100
AcDbEntity
  8
0
  6
Continuous
 62
     2
100
AcDbLine
 10
30.0
 20
-6.0
 30
0.0
 11
90.0
 21
-6.0
 31
0.0
  0
LINE
  5
274
330
20E
100
AcDbEntity
  8
0
  6
Continuous
 62
     2
100
AcDbLine
 10
30.0
 20
-12.0
 30
0.0
 11
90.0
 21
-12.0
 31
0.0
  0
LINE
  5
275
330
20E
100
AcDbEntity
  8
0
  6
Continuous
 62
     2
100
AcDbLine
 10
30.0
 20
-22.0
 30
0.0
 11
90.0
 21
-22.0
 31
0.0
  0
LINE
  5
276
330
20E
100
AcDbEntity
  8
0
  6
Continuous
 62
     2
100
AcDbLine
 10
0.0
 20
-27.0
 30
0.0
 11
90.0
 21
-27.0
 31
0.0
  0
LINE
  5
277
330
20E
100
AcDbEntity
  8
0
  6
Continuous
 62
     2
100
AcDbLine
 10
0.0
 20
-40.0
 30
0.0
 11
90.0
 21
-40.0
 31
0.0
  0
LINE
  5
278
330
20E
100
AcDbEntity
  8
0
  6
Continuous
 62
     2
100
AcDbLine
 10
30.0
 20
0.0
 30
0.0
 11
30.0
 21
-27.0
 31
0.0
  0
LINE
  5
279
330
20E
100
AcDbEntity
  8
0
  6
Continuous
 62
     2
100
AcDbLine
 10
70.0
 20
0.0
 30
0.0
 11
70.0
 21
-12.0
 31
0.0
  0
LINE
  5
27A
330
20E
100
AcDbEntity
  8
0
  6
Continuous
 62
     2
100
AcDbLine
 10
90.0
 20
0.0
 30
0.0
 11
90.0
 21
-40.0
 31
0.0
  0
MTEXT
  5
27B
330
20E
100
AcDbEntity
  8
9_SOLID
  6
Continuous
 62
     2
100
AcDbMText
 10
31.4875
 20
-1.5
 30
0.0
 40
3.0
 41
48.914498
 46
0.0
 71
     1
 72
     1
  1
A173_C_402
 73
     1
 44
0.9
  0
MTEXT
  5
27C
330
20E
100
AcDbEntity
  8
9_SOLID
  6
Continuous
 62
     2
100
AcDbMText
 10
71.4875
 20
-1.25
 30
0.0
 40
3.5
 41
30.966543
 46
0.0
 71
     1
 72
     1
  1
Rev:00
 73
     1
 44
0.9
  0
MTEXT
  5
27D
330
20E
100
AcDbEntity
  8
9_SOLID
  6
Continuous
 62
     2
100
AcDbMText
 10
31.4875
 20
-7.75
 30
0.0
 40
3.5
 41
40.724907
 46
0.0
 71
     1
 72
     1
  1
Scale:1:1
 73
     1
 44
0.9
  0
MTEXT
  5
27E
330
20E
100
AcDbEntity
  8
9_SOLID
  6
Continuous
 62
     2
100
AcDbMText
 10
71.4875
 20
-8.05
 30
0.0
 40
1.9
 41
32.165799
 46
0.0
 71
     1
 72
     1
  1
3200 by 2500
 73
     1
 44
0.9
  0
MTEXT
  5
27F
330
20E
100
AcDbEntity
  8
9_SOLID
  6
Continuous
 62
     2
100
AcDbMText
 10
31.4875
 20
-16.0
 30
0.0
 40
2.0
 41
111.256506
 46
0.0
 71
     1
 72
     1
  1
CASSAFORMA TRIMLESS COLORADO 2.1
 73
     1
 44
0.9
  0
MTEXT
  5
280
330
20E
100
AcDbEntity
  8
9_SOLID
  6
Continuous
 62
     2
100
AcDbMText
 10
31.4875
 20
-23.25
 30
0.0
 40
2.5
 41
47.695167
 46
0.0
 71
     1
 72
     1
  1
DATE:30.08.22
 73
     1
 44
0.9
  0
MTEXT
  5
281
330
20E
100
AcDbEntity
  8
9_SOLID
  6
Continuous
 62
     2
100
AcDbMText
 10
1.4875
 20
-27.3125
 30
0.0
 40
2.25
 41
148.98513
 46
0.0
 71
     1
 72
     1
  1
Any integral or partial reproductions are prohibited \Pwithout prior authorisation of L & L Luce & Light s.r.l., \Pin accordance with the law in force. \PAll rights reserved.
 73
     1
 44
0.9
  0
ENDBLK
  5
282
330
20E
100
AcDbEntity
  8
0
  6
ByBlock
 62
     0
100
AcDbBlockEnd
  0
ENDSEC
  0
SECTION
  2
ENTITIES
  0
LINE
  5
283
330
207
100
AcDbEntity
  8
0
  6
Continuous
 62
     7
100
AcDbLine
 10
0.0
 20
0.0
 30
0.0
 11
3200.0
 21
0.0
 31
0.0
  0
LINE
  5
284
330
207
100
AcDbEntity
  8
0
  6
Continuous
 62
     7
100
AcDbLine
 10
3200.0
 20
0.0
 30
0.0
 11
3200.0
 21
2500.0
 31
0.0
  0
LINE
  5
285
330
207
100
AcDbEntity
  8
0
  6
Continuous
 62
     7
100
AcDbLine
 10
0.0
 20
2500.0
 30
0.0
 11
3200.0
 21
2500.0
 31
0.0
  0
LINE
  5
286
330
207
100
AcDbEntity
  8
0
  6
Continuous
 62
     7
100
AcDbLine
 10
0.0
 20
0.0
 30
0.0
 11
0.0
 21
2500.0
 31
0.0
  0
SPLINE
  5
287
330
207
100
AcDbEntity
  8
7_ALL_FEATURES
  6
Continuous
 62
     7
100
AcDbSpline
 70
     0
 71
     3
 72
     9
 73
     5
 74
     0
 42
0.000000001
 43
0.0000001
 40
0.0
 40
0.0
 40
0.0
 40
0.0
 40
0.228676813
 40
1.0
 40
1.0
 40
1.0
 40
1.0
 10
1333.8557758408
 20
1944.243902439
 30
0.0
 10
1333.8058535161
 20
1944.243902439
 30
0.0
 10
1333.5875847998
 20
1944.2553437866
 30
0.0
 10
1333.3724125241
 20
1944.3073197646
 30
0.0
 10
1333.2136238596
 20
1944.363359096
 30
0.0
  0
ARC
  5
288
330
207
100
AcDbEntity
  8
7_ALL_FEATURES
  6
Continuous
 62
     7
100
AcDbCircle
 10
1333.989706
 20
1946.562324
 30
0.0
 40
2.3318986514
100
AcDbArc
 50
246.671647
 51
250.560494
  0
SPLINE
  5
289
330
207
100
AcDbEntity
  8
7_ALL_FEATURES
  6
Continuous
 62
     7
100
AcDbSpline
 70
     0
 71
     3
 72
     9
 73
     5
 74
     0
 42
0.000000001
 43
0.0000001
 40
0.0
 40
0.0
 40
0.0
 40
0.0
 40
0.4930611892
 40
1.0
 40
1.0
 40
1.0
 40
1.0
 10
1333.0662745778
 20
1944.4210569771
 30
0.0
 10
1332.8004994738
 20
1944.535676264
 30
0.0
 10
1332.2904960723
 20
1944.8583730685
 30
0.0
 10
1332.0146132092
 20
1945.4463186186
 30
0.0
 10
1332.0146132092
 20
1945.743902439
 30
0.0
  0
SPLINE
  5
28A
330
207
100
AcDbEntity
  8
7_ALL_FEATURES
  6
Continuous
 62
     7
100
AcDbSpline
 70
     0
 71
     3
 72
     9
 73
     5
 74
     0
 42
0.000000001
 43
0.0000001
 40
0.0
 40
0.0
 40
0.0
 40
0.0
 40
0.228676813
 40
1.0
 40
1.0
 40
1.0
 40
1.0
 10
1333.8557758408
 20
1837.243902439
 30
0.0
 10
1333.8058535161
 20
1837.243902439
 30
0.0
 10
1333.5875847998
 20
1837.2553437866
 30
0.0
 10
1333.3724125241
 20
1837.3073197646
 30
0.0
 10
1333.2136238596
 20
1837.363359096
 30
0.0
  0
ARC
  5
28B
330
207
100
AcDbEntity
  8
7_ALL_FEATURES
  6
Continuous
 62
     7
100
AcDbCircle
 10
1333.989706
 20
1839.562324
 30
0.0
 40
2.3318986515
100
AcDbArc
 50
246.671647
 51
250.560494
  0
SPLINE
  5
28C
330
207
100
AcDbEntity
  8
7_ALL_FEATURES
  6
Continuous
 62
     7
100
AcDbSpline
 70
     0
 71
     3
 72
     9
 73
     5
 74
     0
 42
0.000000001
 43
0.0000001
 40
0.0
 40
0.0
 40
0.0
 40
0.0
 40
0.4930611892
 40
1.0
 40
1.0
 40
1.0
 40
1.0
 10
1333.0662745778
 20
1837.4210569771
 30
0.0
 10
1332.8004994738
 20
1837.535676264
 30
0.0
 10
1332.2904960723
 20
1837.8583730685
 30
0.0
 10
1332.0146132092
 20
1838.4463186186
 30
0.0
 10
1332.0146132092
 20
1838.743902439
 30
0.0
  0
LINE
  5
28D
330
207
100
AcDbEntity
  8
7_ALL_FEATURES
  6
Continuous
 62
     7
100
AcDbLine
 10
1334.713415
 20
1835.243902
 30
0.0
 11
1334.713415
 21
1833.493902
 31
0.0
  0
LINE
  5
28E
330
207
100
AcDbEntity
  8
7_ALL_FEATURES
  6
Continuous
 62
     7
100
AcDbLine
 10
1334.713415
 20
1833.493902
 30
0.0
 11
1334.713415
 21
1832.993902
 31
0.0
  0
LINE
  5
28F
330
207
100
AcDbEntity
  8
7_ALL_FEATURES
  6
Continuous
 62
     7
100
AcDbLine
 10
1334.713415
 20
1832.993902
 30
0.0
 11
1334.713415
 21
1832.493902
 31
0.0
  0
LINE
  5
290
330
207
100
AcDbEntity
  8
7_ALL_FEATURES
  6
Continuous
 62
     7
100
AcDbLine
 10
1334.713415
 20
1832.493902
 30
0.0
 11
1334.713415
 21
1816.993902
 31
0.0
  0
LINE
  5
291
330
207
100
AcDbEntity
  8
7_ALL_FEATURES
  6
Continuous
 62
     7
100
AcDbLine
 10
1334.713415
 20
1816.993902
 30
0.0
 11
1334.713415
 21
1814.993902
 31
0.0
  0
LINE
  5
292
330
207
100
AcDbEntity
  8
7_ALL_FEATURES
  6
Continuous
 62
     7
100
AcDbLine
 10
1334.713415
 20
1965.493902
 30
0.0
 11
1334.713415
 21
1964.493902
 31
0.0
  0
LINE
  5
293
330
207
100
AcDbEntity
  8
7_ALL_FEATURES
  6
Continuous
 62
     7
100
AcDbLine
 10
1334.713415
 20
1964.493902
 30
0.0
 11
1334.713415
 21
1951.993902
 31
0.0
  0
LINE
  5
294
330
207
100
AcDbEntity
  8
7_ALL_FEATURES
  6
Continuous
 62
     7
100
AcDbLine
 10
1334.713415
 20
1951.993902
 30
0.0
 11
1334.713415
 21
1951.493902
 31
0.0
  0
LINE
  5
295
330
207
100
AcDbEntity
  8
7_ALL_FEATURES
  6
Continuous
 62
     7
100
AcDbLine
 10
1334.713415
 20
1951.493902
 30
0.0
 11
1334.713415
 21
1950.993902
 31
0.0
  0
LINE
  5
296
330
207
100
AcDbEntity
  8
7_ALL_FEATURES
  6
Continuous
 62
     7
100
AcDbLine
 10
1334.713415
 20
1950.993902
 30
0.0
 11
1334.713415
 21
1949.243902
 31
0.0
  0
ARC
  5
297
330
207
100
AcDbEntity
  8
7_ALL_FEATURES
  6
Continuous
 62
     7
100
AcDbCircle
 10
1321.256457
 20
1836.743902
 30
0.0
 40
1.5
100
AcDbArc
 50
180.0
 51
189.648474
  0
LINE
  5
298
330
207
100
AcDbEntity
  8
7_ALL_FEATURES
  6
Continuous
 62
     7
100
AcDbLine
 10
1319.756457
 20
1840.743902
 30
0.0
 11
1319.756457
 21
1836.743902
 31
0.0
  0
ARC
  5
299
330
207
100
AcDbEntity
  8
7_ALL_FEATURES
  6
Continuous
 62
     7
100
AcDbCircle
 10
1321.256457
 20
1840.743902
 30
0.0
 40
1.5
100
AcDbArc
 50
170.351526
 51
180.0
  0
LINE
  5
29A
330
207
100
AcDbEntity
  8
7_ALL_FEATURES
  6
Continuous
 62
     7
100
AcDbLine
 10
1334.713415
 20
1942.243902
 30
0.0
 11
1334.713415
 21
1945.743902
 31
0.0
  0
LINE
  5
29B
330
207
100
AcDbEntity
  8
7_ALL_FEATURES
  6
Continuous
 62
     7
100
AcDbLine
 10
1334.713415
 20
1945.743902
 30
0.0
 11
1334.713415
 21
1949.243902
 31
0.0
  0
LINE
  5
29C
330
207
100
AcDbEntity
  8
7_ALL_FEATURES
  6
Continuous
 62
     7
100
AcDbLine
 10
1334.713415
 20
1942.243902
 30
0.0
 11
1334.713415
 21
1940.493902
 31
0.0
  0
LINE
  5
29D
330
207
100
AcDbEntity
  8
7_ALL_FEATURES
  6
Continuous
 62
     7
100
AcDbLine
 10
1334.713415
 20
1940.493902
 30
0.0
 11
1334.713415
 21
1939.993902
 31
0.0
  0
LINE
  5
29E
330
207
100
AcDbEntity
  8
7_ALL_FEATURES
  6
Continuous
 62
     7
100
AcDbLine
 10
1334.713415
 20
1939.993902
 30
0.0
 11
1334.713415
 21
1939.493902
 31
0.0
  0
LINE
  5
29F
330
207
100
AcDbEntity
  8
7_ALL_FEATURES
  6
Continuous
 62
     7
100
AcDbLine
 10
1334.713415
 20
1939.493902
 30
0.0
 11
1334.713415
 21
1844.993902
 31
0.0
  0
LINE
  5
2A0
330
207
100
AcDbEntity
  8
7_ALL_FEATURES
  6
Continuous
 62
     7
100
AcDbLine
 10
1334.713415
 20
1844.993902
 30
0.0
 11
1334.713415
 21
1844.493902
 31
0.0
  0
LINE
  5
2A1
330
207
100
AcDbEntity
  8
7_ALL_FEATURES
  6
Continuous
 62
     7
100
AcDbLine
 10
1334.713415
 20
1844.493902
 30
0.0
 11
1334.713415
 21
1843.993902
 31
0.0
  0
LINE
  5
2A2
330
207
100
AcDbEntity
  8
7_ALL_FEATURES
  6
Continuous
 62
     7
100
AcDbLine
 10
1334.713415
 20
1843.993902
 30
0.0
 11
1334.713415
 21
1842.243902
 31
0.0
  0
LINE
  5
2A3
330
207
100
AcDbEntity
  8
7_ALL_FEATURES
  6
Continuous
 62
     7
100
AcDbLine
 10
1334.713415
 20
1835.243902
 30
0.0
 11
1334.713415
 21
1838.743902
 31
0.0
  0
LINE
  5
2A4
330
207
100
AcDbEntity
  8
7_ALL_FEATURES
  6
Continuous
 62
     7
100
AcDbLine
 10
1334.713415
 20
1838.743902
 30
0.0
 11
1334.713415
 21
1842.243902
 31
0.0
  0
LINE
  5
2A5
330
207
100
AcDbEntity
  8
7_ALL_FEATURES
  6
Continuous
 62
     7
100
AcDbLine
 10
1333.213415
 20
1814.993902
 30
0.0
 11
1334.713415
 21
1814.993902
 31
0.0
  0
LINE
  5
2A6
330
207
100
AcDbEntity
  8
7_ALL_FEATURES
  6
Continuous
 62
     7
100
AcDbLine
 10
1333.213415
 20
1832.993902
 30
0.0
 11
1334.713415
 21
1832.993902
 31
0.0
  0
LINE
  5
2A7
330
207
100
AcDbEntity
  8
7_ALL_FEATURES
  6
Continuous
 62
     7
100
AcDbLine
 10
1334.713415
 20
1842.243902
 30
0.0
 11
1333.213415
 21
1842.243902
 31
0.0
  0
LINE
  5
2A8
330
207
100
AcDbEntity
  8
7_ALL_FEATURES
  6
Continuous
 62
     7
100
AcDbLine
 10
1333.213415
 20
1835.243902
 30
0.0
 11
1334.01092
 21
1835.243902
 31
0.0
  0
LINE
  5
2A9
330
207
100
AcDbEntity
  8
7_ALL_FEATURES
  6
Continuous
 62
     7
100
AcDbLine
 10
1334.01092
 20
1835.243902
 30
0.0
 11
1334.713415
 21
1835.243902
 31
0.0
  0
SPLINE
  5
2AA
330
207
100
AcDbEntity
  8
7_ALL_FEATURES
  6
Continuous
 62
     7
100
AcDbSpline
 70
     0
 71
     3
 72
     9
 73
     5
 74
     0
 42
0.000000001
 43
0.0000001
 40
0.0
 40
0.0
 40
0.0
 40
0.0
 40
0.5069388108
 40
1.0
 40
1.0
 40
1.0
 40
1.0
 10
1332.0146132092
 20
1838.743902439
 30
0.0
 10
1332.0146132092
 20
1839.0414862595
 30
0.0
 10
1332.2904960723
 20
1839.6294318095
 30
0.0
 10
1332.8004994738
 20
1839.9521286141
 30
0.0
 10
1333.0662745778
 20
1840.066747901
 30
0.0
  0
ARC
  5
2AB
330
207
100
AcDbEntity
  8
7_ALL_FEATURES
  6
Continuous
 62
     7
100
AcDbCircle
 10
1333.989706
 20
1837.925481
 30
0.0
 40
2.3318986516
100
AcDbArc
 50
109.439506
 51
113.328353
  0
SPLINE
  5
2AC
330
207
100
AcDbEntity
  8
7_ALL_FEATURES
  6
Continuous
 62
     7
100
AcDbSpline
 70
     0
 71
     3
 72
     9
 73
     5
 74
     0
 42
0.000000001
 43
0.0000001
 40
0.0
 40
0.0
 40
0.0
 40
0.0
 40
0.2711791142
 40
1.0
 40
1.0
 40
1.0
 40
1.0
 10
1333.2136238596
 20
1840.124445782
 30
0.0
 10
1333.2694417744
 20
1840.1441449126
 30
0.0
 10
1333.4778139377
 20
1840.2088532738
 30
0.0
 10
1333.6966913869
 20
1840.243902439
 30
0.0
 10
1333.8557758408
 20
1840.243902439
 30
0.0
  0
LINE
  5
2AD
330
207
100
AcDbEntity
  8
7_ALL_FEATURES
  6
Continuous
 62
     7
100
AcDbLine
 10
1333.213415
 20
1844.493902
 30
0.0
 11
1334.713415
 21
1844.493902
 31
0.0
  0
ARC
  5
2AE
330
207
100
AcDbEntity
  8
7_ALL_FEATURES
  6
Continuous
 62
     7
100
AcDbCircle
 10
1321.256457
 20
1943.743902
 30
0.0
 40
1.5
100
AcDbArc
 50
180.0
 51
189.648474
  0
LINE
  5
2AF
330
207
100
AcDbEntity
  8
7_ALL_FEATURES
  6
Continuous
 62
     7
100
AcDbLine
 10
1319.756457
 20
1947.743902
 30
0.0
 11
1319.756457
 21
1943.743902
 31
0.0
  0
ARC
  5
2B0
330
207
100
AcDbEntity
  8
7_ALL_FEATURES
  6
Continuous
 62
     7
100
AcDbCircle
 10
1321.256457
 20
1947.743902
 30
0.0
 40
1.5
100
AcDbArc
 50
170.351526
 51
180.0
  0
LINE
  5
2B1
330
207
100
AcDbEntity
  8
7_ALL_FEATURES
  6
Continuous
 62
     7
100
AcDbLine
 10
1333.213415
 20
1939.993902
 30
0.0
 11
1334.713415
 21
1939.993902
 31
0.0
  0
LINE
  5
2B2
330
207
100
AcDbEntity
  8
7_ALL_FEATURES
  6
Continuous
 62
     7
100
AcDbLine
 10
1333.213415
 20
1951.493902
 30
0.0
 11
1334.713415
 21
1951.493902
 31
0.0
  0
LINE
  5
2B3
330
207
100
AcDbEntity
  8
7_ALL_FEATURES
  6
Continuous
 62
     7
100
AcDbLine
 10
1333.213415
 20
1965.493902
 30
0.0
 11
1334.713415
 21
1965.493902
 31
0.0
  0
LINE
  5
2B4
330
207
100
AcDbEntity
  8
7_ALL_FEATURES
  6
Continuous
 62
     7
100
AcDbLine
 10
1334.713415
 20
1949.243902
 30
0.0
 11
1333.213415
 21
1949.243902
 31
0.0
  0
LINE
  5
2B5
330
207
100
AcDbEntity
  8
7_ALL_FEATURES
  6
Continuous
 62
     7
100
AcDbLine
 10
1333.213415
 20
1942.243902
 30
0.0
 11
1334.01092
 21
1942.243902
 31
0.0
  0
LINE
  5
2B6
330
207
100
AcDbEntity
  8
7_ALL_FEATURES
  6
Continuous
 62
     7
100
AcDbLine
 10
1334.01092
 20
1942.243902
 30
0.0
 11
1334.713415
 21
1942.243902
 31
0.0
  0
SPLINE
  5
2B7
330
207
100
AcDbEntity
  8
7_ALL_FEATURES
  6
Continuous
 62
     7
100
AcDbSpline
 70
     0
 71
     3
 72
     9
 73
     5
 74
     0
 42
0.000000001
 43
0.0000001
 40
0.0
 40
0.0
 40
0.0
 40
0.0
 40
0.5069388108
 40
1.0
 40
1.0
 40
1.0
 40
1.0
 10
1332.0146132092
 20
1945.743902439
 30
0.0
 10
1332.0146132092
 20
1946.0414862595
 30
0.0
 10
1332.2904960723
 20
1946.6294318095
 30
0.0
 10
1332.8004994738
 20
1946.9521286141
 30
0.0
 10
1333.0662745778
 20
1947.066747901
 30
0.0
  0
ARC
  5
2B8
330
207
100
AcDbEntity
  8
7_ALL_FEATURES
  6
Continuous
 62
     7
100
AcDbCircle
 10
1333.989706
 20
1944.925481
 30
0.0
 40
2.3318986515
100
AcDbArc
 50
109.439506
 51
113.328353
  0
SPLINE
  5
2B9
330
207
100
AcDbEntity
  8
7_ALL_FEATURES
  6
Continuous
 62
     7
100
AcDbSpline
 70
     0
 71
     3
 72
     9
 73
     5
 74
     0
 42
0.000000001
 43
0.0000001
 40
0.0
 40
0.0
 40
0.0
 40
0.0
 40
0.2711791142
 40
1.0
 40
1.0
 40
1.0
 40
1.0
 10
1333.2136238596
 20
1947.124445782
 30
0.0
 10
1333.2694417744
 20
1947.1441449126
 30
0.0
 10
1333.4778139377
 20
1947.2088532738
 30
0.0
 10
1333.6966913869
 20
1947.243902439
 30
0.0
 10
1333.8557758408
 20
1947.243902439
 30
0.0
  0
LINE
  5
2BA
330
207
100
AcDbEntity
  8
7_ALL_FEATURES
  6
Continuous
 62
     9
100
AcDbLine
 10
1333.213415
 20
1964.493902
 30
0.0
 11
1334.713415
 21
1964.493902
 31
0.0
  0
SPLINE
  5
2BB
330
207
100
AcDbEntity
  8
7_ALL_FEATURES
  6
Continuous
 62
     7
100
AcDbSpline
 70
     0
 71
     3
 72
    11
 73
     7
 74
     0
 42
0.000000001
 43
0.0000001
 40
0.0
 40
0.0
 40
0.0
 40
0.0
 40
0.3359600091
 40
0.584878125
 40
0.7792806499
 40
1.0
 40
1.0
 40
1.0
 40
1.0
 10
1334.7036676983
 20
1838.743902439
 30
0.0
 10
1334.7036676983
 20
1838.5223120511
 30
0.0
 10
1334.6973549524
 20
1838.1403134691
 30
0.0
 10
1334.6167378022
 20
1837.6157678018
 30
0.0
 10
1334.2887606023
 20
1837.2797096858
 30
0.0
 10
1334.0013565203
 20
1837.243902439
 30
0.0
 10
1333.8557758408
 20
1837.243902439
 30
0.0
  0
SPLINE
  5
2BC
330
207
100
AcDbEntity
  8
7_ALL_FEATURES
  6
Continuous
 62
     7
100
AcDbSpline
 70
     0
 71
     3
 72
    11
 73
     7
 74
     0
 42
0.000000001
 43
0.0000001
 40
0.0
 40
0.0
 40
0.0
 40
0.0
 40
0.2207193501
 40
0.415121875
 40
0.6640399909
 40
1.0
 40
1.0
 40
1.0
 40
1.0
 10
1333.8557758408
 20
1840.243902439
 30
0.0
 10
1334.0013565203
 20
1840.243902439
 30
0.0
 10
1334.2887606023
 20
1840.2080951923
 30
0.0
 10
1334.6167378022
 20
1839.8720370762
 30
0.0
 10
1334.6973549524
 20
1839.3474914089
 30
0.0
 10
1334.7036676983
 20
1838.9654928269
 30
0.0
 10
1334.7036676983
 20
1838.743902439
 30
0.0
  0
LINE
  5
2BD
330
207
100
AcDbEntity
  8
7_ALL_FEATURES
  6
Continuous
 62
     9
100
AcDbLine
 10
1333.213415
 20
1816.993902
 30
0.0
 11
1334.713415
 21
1816.993902
 31
0.0
  0
LINE
  5
2BE
330
207
100
AcDbEntity
  8
7_ALL_FEATURES
  6
Continuous
 62
     9
100
AcDbLine
 10
1333.213415
 20
1833.493902
 30
0.0
 11
1334.713415
 21
1833.493902
 31
0.0
  0
LINE
  5
2BF
330
207
100
AcDbEntity
  8
7_ALL_FEATURES
  6
Continuous
 62
     9
100
AcDbLine
 10
1333.213415
 20
1843.993902
 30
0.0
 11
1334.713415
 21
1843.993902
 31
0.0
  0
LINE
  5
2C0
330
207
100
AcDbEntity
  8
7_ALL_FEATURES
  6
Continuous
 62
     9
100
AcDbLine
 10
1333.213415
 20
1844.993902
 30
0.0
 11
1334.713415
 21
1844.993902
 31
0.0
  0
LINE
  5
2C1
330
207
100
AcDbEntity
  8
7_ALL_FEATURES
  6
Continuous
 62
     9
100
AcDbLine
 10
1331.713415
 20
1943.493902
 30
0.0
 11
1331.713415
 21
1947.993902
 31
0.0
  0
LINE
  5
2C2
330
207
100
AcDbEntity
  8
7_ALL_FEATURES
  6
Continuous
 62
     9
100
AcDbLine
 10
1333.213415
 20
1939.493902
 30
0.0
 11
1334.713415
 21
1939.493902
 31
0.0
  0
LINE
  5
2C3
330
207
100
AcDbEntity
  8
7_ALL_FEATURES
  6
Continuous
 62
     9
100
AcDbLine
 10
1333.213415
 20
1832.493902
 30
0.0
 11
1334.713415
 21
1832.493902
 31
0.0
  0
SPLINE
  5
2C4
330
207
100
AcDbEntity
  8
7_ALL_FEATURES
  6
Continuous
 62
     7
100
AcDbSpline
 70
     0
 71
     3
 72
    11
 73
     7
 74
     0
 42
0.000000001
 43
0.0000001
 40
0.0
 40
0.0
 40
0.0
 40
0.0
 40
0.3359600091
 40
0.584878125
 40
0.7792806499
 40
1.0
 40
1.0
 40
1.0
 40
1.0
 10
1334.7036676983
 20
1945.743902439
 30
0.0
 10
1334.7036676983
 20
1945.5223120511
 30
0.0
 10
1334.6973549524
 20
1945.1403134691
 30
0.0
 10
1334.6167378022
 20
1944.6157678018
 30
0.0
 10
1334.2887606023
 20
1944.2797096858
 30
0.0
 10
1334.0013565203
 20
1944.243902439
 30
0.0
 10
1333.8557758408
 20
1944.243902439
 30
0.0
  0
SPLINE
  5
2C5
330
207
100
AcDbEntity
  8
7_ALL_FEATURES
  6
Continuous
 62
     7
100
AcDbSpline
 70
     0
 71
     3
 72
    11
 73
     7
 74
     0
 42
0.000000001
 43
0.0000001
 40
0.0
 40
0.0
 40
0.0
 40
0.0
 40
0.2207193501
 40
0.415121875
 40
0.6640399909
 40
1.0
 40
1.0
 40
1.0
 40
1.0
 10
1333.8557758408
 20
1947.243902439
 30
0.0
 10
1334.0013565203
 20
1947.243902439
 30
0.0
 10
1334.2887606023
 20
1947.2080951923
 30
0.0
 10
1334.6167378022
 20
1946.8720370762
 30
0.0
 10
1334.6973549524
 20
1946.3474914089
 30
0.0
 10
1334.7036676983
 20
1945.9654928269
 30
0.0
 10
1334.7036676983
 20
1945.743902439
 30
0.0
  0
LINE
  5
2C6
330
207
100
AcDbEntity
  8
7_ALL_FEATURES
  6
Continuous
 62
     9
100
AcDbLine
 10
1333.213415
 20
1940.493902
 30
0.0
 11
1334.713415
 21
1940.493902
 31
0.0
  0
LINE
  5
2C7
330
207
100
AcDbEntity
  8
7_ALL_FEATURES
  6
Continuous
 62
     9
100
AcDbLine
 10
1333.213415
 20
1950.993902
 30
0.0
 11
1334.713415
 21
1950.993902
 31
0.0
  0
LINE
  5
2C8
330
207
100
AcDbEntity
  8
7_ALL_FEATURES
  6
Continuous
 62
     9
100
AcDbLine
 10
1331.713415
 20
1836.493902
 30
0.0
 11
1331.713415
 21
1840.993902
 31
0.0
  0
LINE
  5
2C9
330
207
100
AcDbEntity
  8
7_ALL_FEATURES
  6
Continuous
 62
     9
100
AcDbLine
 10
1333.213415
 20
1951.993902
 30
0.0
 11
1334.713415
 21
1951.993902
 31
0.0
  0
LINE
  5
2CA
330
207
100
AcDbEntity
  8
7_ALL_FEATURES
  6
Continuous
 62
     9
100
AcDbLine
 10
1333.208541
 20
1945.743902
 30
0.0
 11
1334.703668
 21
1945.743902
 31
0.0
  0
LINE
  5
2CB
330
207
100
AcDbEntity
  8
7_ALL_FEATURES
  6
Continuous
 62
     9
100
AcDbLine
 10
1333.208541
 20
1838.743902
 30
0.0
 11
1334.703668
 21
1838.743902
 31
0.0
  0
SPLINE
  5
2CC
330
207
100
AcDbEntity
  8
7_ALL_FEATURES
  6
Continuous
 62
     7
100
AcDbSpline
 70
     0
 71
     3
 72
     9
 73
     5
 74
     0
 42
0.000000001
 43
0.0000001
 40
0.0
 40
0.0
 40
0.0
 40
0.0
 40
0.2286771163
 40
1.0
 40
1.0
 40
1.0
 40
1.0
 10
399.0710534275
 20
1837.243902439
 30
0.0
 10
399.1209757753
 20
1837.243902439
 30
0.0
 10
399.3392443036
 20
1837.2553437507
 30
0.0
 10
399.5544164038
 20
1837.3073196545
 30
0.0
 10
399.7132048649
 20
1837.3633589269
 30
0.0
  0
ARC
  5
2CD
330
207
100
AcDbEntity
  8
7_ALL_FEATURES
  6
Continuous
 62
     7
100
AcDbCircle
 10
398.937122
 20
1839.562325
 30
0.0
 40
2.3318998721
100
AcDbArc
 50
289.439509
 51
293.329434
  0
SPLINE
  5
2CE
330
207
100
AcDbEntity
  8
7_ALL_FEATURES
  6
Continuous
 62
     7
100
AcDbSpline
 70
     0
 71
     3
 72
     9
 73
     5
 74
     0
 42
0.000000001
 43
0.0000001
 40
0.0
 40
0.0
 40
0.0
 40
0.0
 40
0.4930580325
 40
1.0
 40
1.0
 40
1.0
 40
1.0
 10
399.8605945116
 20
1837.4210742218
 30
0.0
 10
400.1263594511
 20
1837.5356950835
 30
0.0
 10
400.6363459981
 20
1837.8583908251
 30
0.0
 10
400.9122160591
 20
1838.4463238155
 30
0.0
 10
400.9122160591
 20
1838.743902439
 30
0.0
  0
SPLINE
  5
2CF
330
207
100
AcDbEntity
  8
7_ALL_FEATURES
  6
Continuous
 62
     7
100
AcDbSpline
 70
     0
 71
     3
 72
     9
 73
     5
 74
     0
 42
0.000000001
 43
0.0000001
 40
0.0
 40
0.0
 40
0.0
 40
0.0
 40
0.2286770931
 40
1.0
 40
1.0
 40
1.0
 40
1.0
 10
399.0710534275
 20
1944.243902439
 30
0.0
 10
399.1209757736
 20
1944.243902439
 30
0.0
 10
399.3392443162
 20
1944.2553437534
 30
0.0
 10
399.5544164298
 20
1944.3073196629
 30
0.0
 10
399.7132049064
 20
1944.3633589398
 30
0.0
  0
ARC
  5
2D0
330
207
100
AcDbEntity
  8
7_ALL_FEATURES
  6
Continuous
 62
     7
100
AcDbCircle
 10
398.937122
 20
1946.562325
 30
0.0
 40
2.3318997836
100
AcDbArc
 50
289.439508
 51
293.329352
  0
SPLINE
  5
2D1
330
207
100
AcDbEntity
  8
7_ALL_FEATURES
  6
Continuous
 62
     7
100
AcDbSpline
 70
     0
 71
     3
 72
     9
 73
     5
 74
     0
 42
0.000000001
 43
0.0000001
 40
0.0
 40
0.0
 40
0.0
 40
0.0
 40
0.4930582757
 40
1.0
 40
1.0
 40
1.0
 40
1.0
 10
399.8605914865
 20
1944.4210729116
 30
0.0
 10
400.1263571999
 20
1944.5356936543
 30
0.0
 10
400.6363450255
 20
1944.8583894795
 30
0.0
 10
400.9122160591
 20
1945.4463234227
 30
0.0
 10
400.9122160591
 20
1945.743902439
 30
0.0
  0
LINE
  5
2D2
330
207
100
AcDbEntity
  8
7_ALL_FEATURES
  6
Continuous
 62
     7
100
AcDbLine
 10
398.213415
 20
1816.993902
 30
0.0
 11
398.213415
 21
1814.993902
 31
0.0
  0
LINE
  5
2D3
330
207
100
AcDbEntity
  8
7_ALL_FEATURES
  6
Continuous
 62
     7
100
AcDbLine
 10
398.213415
 20
1832.493902
 30
0.0
 11
398.213415
 21
1816.993902
 31
0.0
  0
LINE
  5
2D4
330
207
100
AcDbEntity
  8
7_ALL_FEATURES
  6
Continuous
 62
     7
100
AcDbLine
 10
398.213415
 20
1832.993902
 30
0.0
 11
398.213415
 21
1832.493902
 31
0.0
  0
LINE
  5
2D5
330
207
100
AcDbEntity
  8
7_ALL_FEATURES
  6
Continuous
 62
     7
100
AcDbLine
 10
398.213415
 20
1833.493902
 30
0.0
 11
398.213415
 21
1832.993902
 31
0.0
  0
LINE
  5
2D6
330
207
100
AcDbEntity
  8
7_ALL_FEATURES
  6
Continuous
 62
     7
100
AcDbLine
 10
398.213415
 20
1835.243902
 30
0.0
 11
398.213415
 21
1833.493902
 31
0.0
  0
LINE
  5
2D7
330
207
100
AcDbEntity
  8
7_ALL_FEATURES
  6
Continuous
 62
     7
100
AcDbLine
 10
398.213415
 20
1835.243902
 30
0.0
 11
398.213415
 21
1838.743902
 31
0.0
  0
LINE
  5
2D8
330
207
100
AcDbEntity
  8
7_ALL_FEATURES
  6
Continuous
 62
     7
100
AcDbLine
 10
398.213415
 20
1838.743902
 30
0.0
 11
398.213415
 21
1842.243902
 31
0.0
  0
LINE
  5
2D9
330
207
100
AcDbEntity
  8
7_ALL_FEATURES
  6
Continuous
 62
     7
100
AcDbLine
 10
398.213415
 20
1843.993902
 30
0.0
 11
398.213415
 21
1842.243902
 31
0.0
  0
LINE
  5
2DA
330
207
100
AcDbEntity
  8
7_ALL_FEATURES
  6
Continuous
 62
     7
100
AcDbLine
 10
398.213415
 20
1844.493902
 30
0.0
 11
398.213415
 21
1843.993902
 31
0.0
  0
LINE
  5
2DB
330
207
100
AcDbEntity
  8
7_ALL_FEATURES
  6
Continuous
 62
     7
100
AcDbLine
 10
398.213415
 20
1844.993902
 30
0.0
 11
398.213415
 21
1844.493902
 31
0.0
  0
LINE
  5
2DC
330
207
100
AcDbEntity
  8
7_ALL_FEATURES
  6
Continuous
 62
     7
100
AcDbLine
 10
398.213415
 20
1939.493902
 30
0.0
 11
398.213415
 21
1844.993902
 31
0.0
  0
LINE
  5
2DD
330
207
100
AcDbEntity
  8
7_ALL_FEATURES
  6
Continuous
 62
     7
100
AcDbLine
 10
398.213415
 20
1939.993902
 30
0.0
 11
398.213415
 21
1939.493902
 31
0.0
  0
LINE
  5
2DE
330
207
100
AcDbEntity
  8
7_ALL_FEATURES
  6
Continuous
 62
     7
100
AcDbLine
 10
398.213415
 20
1940.493902
 30
0.0
 11
398.213415
 21
1939.993902
 31
0.0
  0
LINE
  5
2DF
330
207
100
AcDbEntity
  8
7_ALL_FEATURES
  6
Continuous
 62
     7
100
AcDbLine
 10
398.213415
 20
1942.243902
 30
0.0
 11
398.213415
 21
1940.493902
 31
0.0
  0
LINE
  5
2E0
330
207
100
AcDbEntity
  8
7_ALL_FEATURES
  6
Continuous
 62
     7
100
AcDbLine
 10
398.213415
 20
1942.243902
 30
0.0
 11
398.213415
 21
1945.743902
 31
0.0
  0
LINE
  5
2E1
330
207
100
AcDbEntity
  8
7_ALL_FEATURES
  6
Continuous
 62
     7
100
AcDbLine
 10
398.213415
 20
1945.743902
 30
0.0
 11
398.213415
 21
1949.243902
 31
0.0
  0
LINE
  5
2E2
330
207
100
AcDbEntity
  8
7_ALL_FEATURES
  6
Continuous
 62
     7
100
AcDbLine
 10
398.213415
 20
1950.993902
 30
0.0
 11
398.213415
 21
1949.243902
 31
0.0
  0
LINE
  5
2E3
330
207
100
AcDbEntity
  8
7_ALL_FEATURES
  6
Continuous
 62
     7
100
AcDbLine
 10
398.213415
 20
1951.493902
 30
0.0
 11
398.213415
 21
1950.993902
 31
0.0
  0
LINE
  5
2E4
330
207
100
AcDbEntity
  8
7_ALL_FEATURES
  6
Continuous
 62
     7
100
AcDbLine
 10
398.213415
 20
1951.993902
 30
0.0
 11
398.213415
 21
1951.493902
 31
0.0
  0
LINE
  5
2E5
330
207
100
AcDbEntity
  8
7_ALL_FEATURES
  6
Continuous
 62
     7
100
AcDbLine
 10
398.213415
 20
1964.493902
 30
0.0
 11
398.213415
 21
1951.993902
 31
0.0
  0
LINE
  5
2E6
330
207
100
AcDbEntity
  8
7_ALL_FEATURES
  6
Continuous
 62
     7
100
AcDbLine
 10
398.213415
 20
1965.493902
 30
0.0
 11
398.213415
 21
1964.493902
 31
0.0
  0
LINE
  5
2E7
330
207
100
AcDbEntity
  8
7_ALL_FEATURES
  6
Continuous
 62
     7
100
AcDbLine
 10
399.713415
 20
1832.993902
 30
0.0
 11
398.213415
 21
1832.993902
 31
0.0
  0
LINE
  5
2E8
330
207
100
AcDbEntity
  8
7_ALL_FEATURES
  6
Continuous
 62
     7
100
AcDbLine
 10
399.713415
 20
1814.993902
 30
0.0
 11
398.213415
 21
1814.993902
 31
0.0
  0
LINE
  5
2E9
330
207
100
AcDbEntity
  8
7_ALL_FEATURES
  6
Continuous
 62
     7
100
AcDbLine
 10
399.713415
 20
1965.493902
 30
0.0
 11
398.213415
 21
1965.493902
 31
0.0
  0
LINE
  5
2EA
330
207
100
AcDbEntity
  8
7_ALL_FEATURES
  6
Continuous
 62
     7
100
AcDbLine
 10
399.713415
 20
1951.493902
 30
0.0
 11
398.213415
 21
1951.493902
 31
0.0
  0
LINE
  5
2EB
330
207
100
AcDbEntity
  8
7_ALL_FEATURES
  6
Continuous
 62
     7
100
AcDbLine
 10
399.713415
 20
1939.993902
 30
0.0
 11
398.213415
 21
1939.993902
 31
0.0
  0
LINE
  5
2EC
330
207
100
AcDbEntity
  8
7_ALL_FEATURES
  6
Continuous
 62
     7
100
AcDbLine
 10
399.713415
 20
1844.493902
 30
0.0
 11
398.213415
 21
1844.493902
 31
0.0
  0
ARC
  5
2ED
330
207
100
AcDbEntity
  8
7_ALL_FEATURES
  6
Continuous
 62
     7
100
AcDbCircle
 10
411.670372
 20
1840.743902
 30
0.0
 40
1.5
100
AcDbArc
 50
0.0
 51
9.648474
  0
LINE
  5
2EE
330
207
100
AcDbEntity
  8
7_ALL_FEATURES
  6
Continuous
 62
     7
100
AcDbLine
 10
413.170372
 20
1840.743902
 30
0.0
 11
413.170372
 21
1836.743902
 31
0.0
  0
ARC
  5
2EF
330
207
100
AcDbEntity
  8
7_ALL_FEATURES
  6
Continuous
 62
     7
100
AcDbCircle
 10
411.670372
 20
1836.743902
 30
0.0
 40
1.5
100
AcDbArc
 50
350.351526
 51
360.0
  0
SPLINE
  5
2F0
330
207
100
AcDbEntity
  8
7_ALL_FEATURES
  6
Continuous
 62
     7
100
AcDbSpline
 70
     0
 71
     3
 72
     9
 73
     5
 74
     0
 42
0.000000001
 43
0.0000001
 40
0.0
 40
0.0
 40
0.0
 40
0.0
 40
0.5069417243
 40
1.0
 40
1.0
 40
1.0
 40
1.0
 10
400.9122160591
 20
1945.743902439
 30
0.0
 10
400.9122160591
 20
1946.0414814553
 30
0.0
 10
400.6363450255
 20
1946.6294153986
 30
0.0
 10
400.1263571999
 20
1946.9521112238
 30
0.0
 10
399.8605914865
 20
1947.0667319665
 30
0.0
  0
ARC
  5
2F1
330
207
100
AcDbEntity
  8
7_ALL_FEATURES
  6
Continuous
 62
     7
100
AcDbCircle
 10
398.937122
 20
1944.92548
 30
0.0
 40
2.3318997836
100
AcDbArc
 50
66.670648
 51
70.560492
  0
SPLINE
  5
2F2
330
207
100
AcDbEntity
  8
7_ALL_FEATURES
  6
Continuous
 62
     7
100
AcDbSpline
 70
     0
 71
     3
 72
     9
 73
     5
 74
     0
 42
0.000000001
 43
0.0000001
 40
0.0
 40
0.0
 40
0.0
 40
0.0
 40
0.2711786875
 40
1.0
 40
1.0
 40
1.0
 40
1.0
 10
399.7132049064
 20
1947.1244459383
 30
0.0
 10
399.657387125
 20
1947.1441450259
 30
0.0
 10
399.4490151462
 20
1947.2088534054
 30
0.0
 10
399.2301378484
 20
1947.243902439
 30
0.0
 10
399.0710534275
 20
1947.243902439
 30
0.0
  0
LINE
  5
2F3
330
207
100
AcDbEntity
  8
7_ALL_FEATURES
  6
Continuous
 62
     7
100
AcDbLine
 10
398.213415
 20
1949.243902
 30
0.0
 11
399.713415
 21
1949.243902
 31
0.0
  0
LINE
  5
2F4
330
207
100
AcDbEntity
  8
7_ALL_FEATURES
  6
Continuous
 62
     7
100
AcDbLine
 10
399.713415
 20
1942.243902
 30
0.0
 11
398.91591
 21
1942.243902
 31
0.0
  0
LINE
  5
2F5
330
207
100
AcDbEntity
  8
7_ALL_FEATURES
  6
Continuous
 62
     7
100
AcDbLine
 10
398.91591
 20
1942.243902
 30
0.0
 11
398.213415
 21
1942.243902
 31
0.0
  0
LINE
  5
2F6
330
207
100
AcDbEntity
  8
7_ALL_FEATURES
  6
Continuous
 62
     7
100
AcDbLine
 10
399.713415
 20
1835.243902
 30
0.0
 11
398.91591
 21
1835.243902
 31
0.0
  0
LINE
  5
2F7
330
207
100
AcDbEntity
  8
7_ALL_FEATURES
  6
Continuous
 62
     7
100
AcDbLine
 10
398.91591
 20
1835.243902
 30
0.0
 11
398.213415
 21
1835.243902
 31
0.0
  0
LINE
  5
2F8
330
207
100
AcDbEntity
  8
7_ALL_FEATURES
  6
Continuous
 62
     7
100
AcDbLine
 10
398.213415
 20
1842.243902
 30
0.0
 11
399.713415
 21
1842.243902
 31
0.0
  0
SPLINE
  5
2F9
330
207
100
AcDbEntity
  8
7_ALL_FEATURES
  6
Continuous
 62
     7
100
AcDbSpline
 70
     0
 71
     3
 72
     9
 73
     5
 74
     0
 42
0.000000001
 43
0.0000001
 40
0.0
 40
0.0
 40
0.0
 40
0.0
 40
0.5069419675
 40
1.0
 40
1.0
 40
1.0
 40
1.0
 10
400.9122160591
 20
1838.743902439
 30
0.0
 10
400.9122160591
 20
1839.0414810625
 30
0.0
 10
400.6363459981
 20
1839.629414053
 30
0.0
 10
400.1263594511
 20
1839.9521097946
 30
0.0
 10
399.8605945116
 20
1840.0667306563
 30
0.0
  0
ARC
  5
2FA
330
207
100
AcDbEntity
  8
7_ALL_FEATURES
  6
Continuous
 62
     7
100
AcDbCircle
 10
398.937122
 20
1837.92548
 30
0.0
 40
2.3318998724
100
AcDbArc
 50
66.670566
 51
70.560491
  0
SPLINE
  5
2FB
330
207
100
AcDbEntity
  8
7_ALL_FEATURES
  6
Continuous
 62
     7
100
AcDbSpline
 70
     0
 71
     3
 72
     9
 73
     5
 74
     0
 42
0.000000001
 43
0.0000001
 40
0.0
 40
0.0
 40
0.0
 40
0.0
 40
0.2711786521
 40
1.0
 40
1.0
 40
1.0
 40
1.0
 10
399.7132048649
 20
1840.1244459512
 30
0.0
 10
399.6573870945
 20
1840.1441450352
 30
0.0
 10
399.449015131
 20
1840.2088534162
 30
0.0
 10
399.2301378457
 20
1840.243902439
 30
0.0
 10
399.0710534275
 20
1840.243902439
 30
0.0
  0
ARC
  5
2FC
330
207
100
AcDbEntity
  8
7_ALL_FEATURES
  6
Continuous
 62
     7
100
AcDbCircle
 10
411.670372
 20
1943.743902
 30
0.0
 40
1.5
100
AcDbArc
 50
350.351526
 51
360.0
  0
LINE
  5
2FD
330
207
100
AcDbEntity
  8
7_ALL_FEATURES
  6
Continuous
 62
     7
100
AcDbLine
 10
413.170372
 20
1947.743902
 30
0.0
 11
413.170372
 21
1943.743902
 31
0.0
  0
ARC
  5
2FE
330
207
100
AcDbEntity
  8
7_ALL_FEATURES
  6
Continuous
 62
     7
100
AcDbCircle
 10
411.670372
 20
1947.743902
 30
0.0
 40
1.5
100
AcDbArc
 50
0.0
 51
9.648474
  0
LINE
  5
2FF
330
207
100
AcDbEntity
  8
7_ALL_FEATURES
  6
Continuous
 62
     9
100
AcDbLine
 10
401.213415
 20
1943.493902
 30
0.0
 11
401.213415
 21
1947.993902
 31
0.0
  0
LINE
  5
300
330
207
100
AcDbEntity
  8
7_ALL_FEATURES
  6
Continuous
 62
     9
100
AcDbLine
 10
399.713415
 20
1832.493902
 30
0.0
 11
398.213415
 21
1832.493902
 31
0.0
  0
LINE
  5
301
330
207
100
AcDbEntity
  8
7_ALL_FEATURES
  6
Continuous
 62
     9
100
AcDbLine
 10
399.713415
 20
1844.993902
 30
0.0
 11
398.213415
 21
1844.993902
 31
0.0
  0
LINE
  5
302
330
207
100
AcDbEntity
  8
7_ALL_FEATURES
  6
Continuous
 62
     9
100
AcDbLine
 10
399.713415
 20
1816.993902
 30
0.0
 11
398.213415
 21
1816.993902
 31
0.0
  0
LINE
  5
303
330
207
100
AcDbEntity
  8
7_ALL_FEATURES
  6
Continuous
 62
     9
100
AcDbLine
 10
401.213415
 20
1836.493902
 30
0.0
 11
401.213415
 21
1840.993902
 31
0.0
  0
LINE
  5
304
330
207
100
AcDbEntity
  8
7_ALL_FEATURES
  6
Continuous
 62
     9
100
AcDbLine
 10
399.713415
 20
1843.993902
 30
0.0
 11
398.213415
 21
1843.993902
 31
0.0
  0
LINE
  5
305
330
207
100
AcDbEntity
  8
7_ALL_FEATURES
  6
Continuous
 62
     9
100
AcDbLine
 10
399.713415
 20
1964.493902
 30
0.0
 11
398.213415
 21
1964.493902
 31
0.0
  0
SPLINE
  5
306
330
207
100
AcDbEntity
  8
7_ALL_FEATURES
  6
Continuous
 62
     7
100
AcDbSpline
 70
     0
 71
     3
 72
    11
 73
     7
 74
     0
 42
0.000000001
 43
0.0000001
 40
0.0
 40
0.0
 40
0.0
 40
0.0
 40
0.3359656143
 40
0.5848788136
 40
0.7792805509
 40
1.0
 40
1.0
 40
1.0
 40
1.0
 10
398.2231615699
 20
1838.743902439
 30
0.0
 10
398.2231615699
 20
1838.522308346
 30
0.0
 10
398.2294741644
 20
1838.1403091382
 30
0.0
 10
398.3100943092
 20
1837.6157644323
 30
0.0
 10
398.6380690814
 20
1837.2797096495
 30
0.0
 10
398.9254726774
 20
1837.243902439
 30
0.0
 10
399.0710534275
 20
1837.243902439
 30
0.0
  0
LINE
  5
307
330
207
100
AcDbEntity
  8
7_ALL_FEATURES
  6
Continuous
 62
     9
100
AcDbLine
 10
399.713415
 20
1951.993902
 30
0.0
 11
398.213415
 21
1951.993902
 31
0.0
  0
SPLINE
  5
308
330
207
100
AcDbEntity
  8
7_ALL_FEATURES
  6
Continuous
 62
     7
100
AcDbSpline
 70
     0
 71
     3
 72
    11
 73
     7
 74
     0
 42
0.000000001
 43
0.0000001
 40
0.0
 40
0.0
 40
0.0
 40
0.0
 40
0.2207194418
 40
0.4151212398
 40
0.6640348165
 40
1.0
 40
1.0
 40
1.0
 40
1.0
 10
399.0710534275
 20
1947.243902439
 30
0.0
 10
398.9254726826
 20
1947.243902439
 30
0.0
 10
398.6380690488
 20
1947.2080952257
 30
0.0
 10
398.3100940906
 20
1946.8720401861
 30
0.0
 10
398.2294741764
 20
1946.3474954068
 30
0.0
 10
398.2231615699
 20
1945.9654962473
 30
0.0
 10
398.2231615699
 20
1945.743902439
 30
0.0
  0
LINE
  5
309
330
207
100
AcDbEntity
  8
7_ALL_FEATURES
  6
Continuous
 62
     9
100
AcDbLine
 10
399.713415
 20
1950.993902
 30
0.0
 11
398.213415
 21
1950.993902
 31
0.0
  0
LINE
  5
30A
330
207
100
AcDbEntity
  8
7_ALL_FEATURES
  6
Continuous
 62
     9
100
AcDbLine
 10
399.713415
 20
1940.493902
 30
0.0
 11
398.213415
 21
1940.493902
 31
0.0
  0
LINE
  5
30B
330
207
100
AcDbEntity
  8
7_ALL_FEATURES
  6
Continuous
 62
     9
100
AcDbLine
 10
399.713415
 20
1833.493902
 30
0.0
 11
398.213415
 21
1833.493902
 31
0.0
  0
LINE
  5
30C
330
207
100
AcDbEntity
  8
7_ALL_FEATURES
  6
Continuous
 62
     9
100
AcDbLine
 10
399.718288
 20
1838.743902
 30
0.0
 11
398.223162
 21
1838.743902
 31
0.0
  0
LINE
  5
30D
330
207
100
AcDbEntity
  8
7_ALL_FEATURES
  6
Continuous
 62
     9
100
AcDbLine
 10
399.718288
 20
1945.743902
 30
0.0
 11
398.223162
 21
1945.743902
 31
0.0
  0
SPLINE
  5
30E
330
207
100
AcDbEntity
  8
7_ALL_FEATURES
  6
Continuous
 62
     7
100
AcDbSpline
 70
     0
 71
     3
 72
    11
 73
     7
 74
     0
 42
0.000000001
 43
0.0000001
 40
0.0
 40
0.0
 40
0.0
 40
0.0
 40
0.2207194491
 40
0.4151211864
 40
0.6640343857
 40
1.0
 40
1.0
 40
1.0
 40
1.0
 10
399.0710534275
 20
1840.243902439
 30
0.0
 10
398.9254726774
 20
1840.243902439
 30
0.0
 10
398.6380690814
 20
1840.2080952285
 30
0.0
 10
398.3100943092
 20
1839.8720404457
 30
0.0
 10
398.2294741644
 20
1839.3474957399
 30
0.0
 10
398.2231615699
 20
1838.965496532
 30
0.0
 10
398.2231615699
 20
1838.743902439
 30
0.0
  0
LINE
  5
30F
330
207
100
AcDbEntity
  8
7_ALL_FEATURES
  6
Continuous
 62
     9
100
AcDbLine
 10
399.713415
 20
1939.493902
 30
0.0
 11
398.213415
 21
1939.493902
 31
0.0
  0
SPLINE
  5
310
330
207
100
AcDbEntity
  8
7_ALL_FEATURES
  6
Continuous
 62
     7
100
AcDbSpline
 70
     0
 71
     3
 72
    11
 73
     7
 74
     0
 42
0.000000001
 43
0.0000001
 40
0.0
 40
0.0
 40
0.0
 40
0.0
 40
0.3359651835
 40
0.5848787602
 40
0.7792805582
 40
1.0
 40
1.0
 40
1.0
 40
1.0
 10
398.2231615699
 20
1945.743902439
 30
0.0
 10
398.2231615699
 20
1945.5223086307
 30
0.0
 10
398.2294741764
 20
1945.1403094713
 30
0.0
 10
398.3100940906
 20
1944.6157646919
 30
0.0
 10
398.6380690488
 20
1944.2797096524
 30
0.0
 10
398.9254726826
 20
1944.243902439
 30
0.0
 10
399.0710534275
 20
1944.243902439
 30
0.0
  0
LINE
  5
311
330
207
100
AcDbEntity
  8
7_ALL_FEATURES
  6
Continuous
 62
     7
100
AcDbLine
 10
399.713415
 20
1965.493902
 30
0.0
 11
1333.213415
 21
1965.493902
 31
0.0
  0
LINE
  5
312
330
207
100
AcDbEntity
  8
7_ALL_FEATURES
  6
Continuous
 62
     7
100
AcDbLine
 10
399.713415
 20
1947.993902
 30
0.0
 11
413.170372
 21
1947.993902
 31
0.0
  0
LINE
  5
313
330
207
100
AcDbEntity
  8
7_ALL_FEATURES
  6
Continuous
 62
     7
100
AcDbLine
 10
413.170372
 20
1947.993902
 30
0.0
 11
1319.756457
 21
1947.993902
 31
0.0
  0
LINE
  5
314
330
207
100
AcDbEntity
  8
7_ALL_FEATURES
  6
Continuous
 62
     7
100
AcDbLine
 10
1319.756457
 20
1947.993902
 30
0.0
 11
1333.213415
 21
1947.993902
 31
0.0
  0
LINE
  5
315
330
207
100
AcDbEntity
  8
7_ALL_FEATURES
  6
Continuous
 62
     7
100
AcDbLine
 10
399.713415
 20
1943.493902
 30
0.0
 11
413.170372
 21
1943.493902
 31
0.0
  0
LINE
  5
316
330
207
100
AcDbEntity
  8
7_ALL_FEATURES
  6
Continuous
 62
     7
100
AcDbLine
 10
413.170372
 20
1943.493902
 30
0.0
 11
1319.756457
 21
1943.493902
 31
0.0
  0
LINE
  5
317
330
207
100
AcDbEntity
  8
7_ALL_FEATURES
  6
Continuous
 62
     7
100
AcDbLine
 10
1319.756457
 20
1943.493902
 30
0.0
 11
1333.213415
 21
1943.493902
 31
0.0
  0
LINE
  5
318
330
207
100
AcDbEntity
  8
7_ALL_FEATURES
  6
Continuous
 62
     7
100
AcDbLine
 10
399.713415
 20
1939.993902
 30
0.0
 11
1333.213415
 21
1939.993902
 31
0.0
  0
LINE
  5
319
330
207
100
AcDbEntity
  8
7_ALL_FEATURES
  6
Continuous
 62
     7
100
AcDbLine
 10
399.713415
 20
1844.493902
 30
0.0
 11
1333.213415
 21
1844.493902
 31
0.0
  0
LINE
  5
31A
330
207
100
AcDbEntity
  8
7_ALL_FEATURES
  6
Continuous
 62
     7
100
AcDbLine
 10
399.713415
 20
1840.993902
 30
0.0
 11
413.170372
 21
1840.993902
 31
0.0
  0
LINE
  5
31B
330
207
100
AcDbEntity
  8
7_ALL_FEATURES
  6
Continuous
 62
     7
100
AcDbLine
 10
413.170372
 20
1840.993902
 30
0.0
 11
1319.756457
 21
1840.993902
 31
0.0
  0
LINE
  5
31C
330
207
100
AcDbEntity
  8
7_ALL_FEATURES
  6
Continuous
 62
     7
100
AcDbLine
 10
1319.756457
 20
1840.993902
 30
0.0
 11
1333.213415
 21
1840.993902
 31
0.0
  0
LINE
  5
31D
330
207
100
AcDbEntity
  8
7_ALL_FEATURES
  6
Continuous
 62
     7
100
AcDbLine
 10
399.713415
 20
1836.493902
 30
0.0
 11
413.170372
 21
1836.493902
 31
0.0
  0
LINE
  5
31E
330
207
100
AcDbEntity
  8
7_ALL_FEATURES
  6
Continuous
 62
     7
100
AcDbLine
 10
413.170372
 20
1836.493902
 30
0.0
 11
1319.756457
 21
1836.493902
 31
0.0
  0
LINE
  5
31F
330
207
100
AcDbEntity
  8
7_ALL_FEATURES
  6
Continuous
 62
     7
100
AcDbLine
 10
1319.756457
 20
1836.493902
 30
0.0
 11
1333.213415
 21
1836.493902
 31
0.0
  0
LINE
  5
320
330
207
100
AcDbEntity
  8
7_ALL_FEATURES
  6
Continuous
 62
     7
100
AcDbLine
 10
399.713415
 20
1832.993902
 30
0.0
 11
1333.213415
 21
1832.993902
 31
0.0
  0
LINE
  5
321
330
207
100
AcDbEntity
  8
7_ALL_FEATURES
  6
Continuous
 62
     7
100
AcDbLine
 10
399.713415
 20
1814.993902
 30
0.0
 11
1333.213415
 21
1814.993902
 31
0.0
  0
LINE
  5
322
330
207
100
AcDbEntity
  8
7_ALL_FEATURES
  6
Continuous
 62
     7
100
AcDbLine
 10
1333.213415
 20
1965.493902
 30
0.0
 11
1333.213415
 21
1965.293902
 31
0.0
  0
LINE
  5
323
330
207
100
AcDbEntity
  8
7_ALL_FEATURES
  6
Continuous
 62
     7
100
AcDbLine
 10
1333.213415
 20
1965.293902
 30
0.0
 11
1333.213415
 21
1964.493902
 31
0.0
  0
LINE
  5
324
330
207
100
AcDbEntity
  8
7_ALL_FEATURES
  6
Continuous
 62
     7
100
AcDbLine
 10
1333.213415
 20
1964.493902
 30
0.0
 11
1333.213415
 21
1963.493902
 31
0.0
  0
LINE
  5
325
330
207
100
AcDbEntity
  8
7_ALL_FEATURES
  6
Continuous
 62
     7
100
AcDbLine
 10
1333.213415
 20
1963.493902
 30
0.0
 11
1333.213415
 21
1963.093902
 31
0.0
  0
LINE
  5
326
330
207
100
AcDbEntity
  8
7_ALL_FEATURES
  6
Continuous
 62
     7
100
AcDbLine
 10
1333.213415
 20
1963.093902
 30
0.0
 11
1333.213415
 21
1962.893902
 31
0.0
  0
LINE
  5
327
330
207
100
AcDbEntity
  8
7_ALL_FEATURES
  6
Continuous
 62
     7
100
AcDbLine
 10
1333.213415
 20
1962.893902
 30
0.0
 11
1333.213415
 21
1962.493902
 31
0.0
  0
LINE
  5
328
330
207
100
AcDbEntity
  8
7_ALL_FEATURES
  6
Continuous
 62
     7
100
AcDbLine
 10
1333.213415
 20
1962.493902
 30
0.0
 11
1333.213415
 21
1951.993902
 31
0.0
  0
LINE
  5
329
330
207
100
AcDbEntity
  8
7_ALL_FEATURES
  6
Continuous
 62
     7
100
AcDbLine
 10
1333.213415
 20
1951.993902
 30
0.0
 11
1333.213415
 21
1951.693902
 31
0.0
  0
LINE
  5
32A
330
207
100
AcDbEntity
  8
7_ALL_FEATURES
  6
Continuous
 62
     7
100
AcDbLine
 10
1333.213415
 20
1951.693902
 30
0.0
 11
1333.213415
 21
1951.493902
 31
0.0
  0
LINE
  5
32B
330
207
100
AcDbEntity
  8
7_ALL_FEATURES
  6
Continuous
 62
     7
100
AcDbLine
 10
1333.213415
 20
1951.493902
 30
0.0
 11
1333.213415
 21
1951.347456
 31
0.0
  0
LINE
  5
32C
330
207
100
AcDbEntity
  8
7_ALL_FEATURES
  6
Continuous
 62
     7
100
AcDbLine
 10
1333.213415
 20
1951.347456
 30
0.0
 11
1333.213415
 21
1950.993902
 31
0.0
  0
LINE
  5
32D
330
207
100
AcDbEntity
  8
7_ALL_FEATURES
  6
Continuous
 62
     7
100
AcDbLine
 10
1333.213415
 20
1950.993902
 30
0.0
 11
1333.213415
 21
1949.493902
 31
0.0
  0
LINE
  5
32E
330
207
100
AcDbEntity
  8
7_ALL_FEATURES
  6
Continuous
 62
     7
100
AcDbLine
 10
1333.213415
 20
1949.493902
 30
0.0
 11
1333.213415
 21
1948.493902
 31
0.0
  0
LINE
  5
32F
330
207
100
AcDbEntity
  8
7_ALL_FEATURES
  6
Continuous
 62
     7
100
AcDbLine
 10
1333.213415
 20
1948.493902
 30
0.0
 11
1333.213415
 21
1947.993902
 31
0.0
  0
LINE
  5
330
330
207
100
AcDbEntity
  8
7_ALL_FEATURES
  6
Continuous
 62
     7
100
AcDbLine
 10
1333.213415
 20
1943.493902
 30
0.0
 11
1333.213415
 21
1942.993902
 31
0.0
  0
LINE
  5
331
330
207
100
AcDbEntity
  8
7_ALL_FEATURES
  6
Continuous
 62
     7
100
AcDbLine
 10
1333.213415
 20
1942.993902
 30
0.0
 11
1333.213415
 21
1941.993902
 31
0.0
  0
LINE
  5
332
330
207
100
AcDbEntity
  8
7_ALL_FEATURES
  6
Continuous
 62
     7
100
AcDbLine
 10
1333.213415
 20
1941.993902
 30
0.0
 11
1333.213415
 21
1940.493902
 31
0.0
  0
LINE
  5
333
330
207
100
AcDbEntity
  8
7_ALL_FEATURES
  6
Continuous
 62
     7
100
AcDbLine
 10
1333.213415
 20
1940.493902
 30
0.0
 11
1333.213415
 21
1939.993902
 31
0.0
  0
LINE
  5
334
330
207
100
AcDbEntity
  8
7_ALL_FEATURES
  6
Continuous
 62
     7
100
AcDbLine
 10
1333.213415
 20
1939.793902
 30
0.0
 11
1333.213415
 21
1939.493902
 31
0.0
  0
LINE
  5
335
330
207
100
AcDbEntity
  8
7_ALL_FEATURES
  6
Continuous
 62
     7
100
AcDbLine
 10
1333.213415
 20
1939.493902
 30
0.0
 11
1333.213415
 21
1918.493902
 31
0.0
  0
LINE
  5
336
330
207
100
AcDbEntity
  8
7_ALL_FEATURES
  6
Continuous
 62
     7
100
AcDbLine
 10
1333.213415
 20
1918.493902
 30
0.0
 11
1333.213415
 21
1916.993902
 31
0.0
  0
LINE
  5
337
330
207
100
AcDbEntity
  8
7_ALL_FEATURES
  6
Continuous
 62
     7
100
AcDbLine
 10
1333.213415
 20
1916.993902
 30
0.0
 11
1333.213415
 21
1844.993902
 31
0.0
  0
LINE
  5
338
330
207
100
AcDbEntity
  8
7_ALL_FEATURES
  6
Continuous
 62
     7
100
AcDbLine
 10
1333.213415
 20
1844.993902
 30
0.0
 11
1333.213415
 21
1844.693902
 31
0.0
  0
LINE
  5
339
330
207
100
AcDbEntity
  8
7_ALL_FEATURES
  6
Continuous
 62
     7
100
AcDbLine
 10
1333.213415
 20
1844.693902
 30
0.0
 11
1333.213415
 21
1844.493902
 31
0.0
  0
LINE
  5
33A
330
207
100
AcDbEntity
  8
7_ALL_FEATURES
  6
Continuous
 62
     7
100
AcDbLine
 10
1333.213415
 20
1844.493902
 30
0.0
 11
1333.213415
 21
1844.347456
 31
0.0
  0
LINE
  5
33B
330
207
100
AcDbEntity
  8
7_ALL_FEATURES
  6
Continuous
 62
     7
100
AcDbLine
 10
1333.213415
 20
1844.347456
 30
0.0
 11
1333.213415
 21
1843.993902
 31
0.0
  0
LINE
  5
33C
330
207
100
AcDbEntity
  8
7_ALL_FEATURES
  6
Continuous
 62
     7
100
AcDbLine
 10
399.713415
 20
1951.493902
 30
0.0
 11
1333.213415
 21
1951.493902
 31
0.0
  0
LINE
  5
33D
330
207
100
AcDbEntity
  8
7_ALL_FEATURES
  6
Continuous
 62
     7
100
AcDbLine
 10
1333.213415
 20
1843.993902
 30
0.0
 11
1333.213415
 21
1842.493902
 31
0.0
  0
LINE
  5
33E
330
207
100
AcDbEntity
  8
7_ALL_FEATURES
  6
Continuous
 62
     7
100
AcDbLine
 10
1333.213415
 20
1842.493902
 30
0.0
 11
1333.213415
 21
1841.493902
 31
0.0
  0
LINE
  5
33F
330
207
100
AcDbEntity
  8
7_ALL_FEATURES
  6
Continuous
 62
     7
100
AcDbLine
 10
1333.213415
 20
1841.493902
 30
0.0
 11
1333.213415
 21
1840.993902
 31
0.0
  0
LINE
  5
340
330
207
100
AcDbEntity
  8
7_ALL_FEATURES
  6
Continuous
 62
     7
100
AcDbLine
 10
1333.213415
 20
1836.493902
 30
0.0
 11
1333.213415
 21
1835.993902
 31
0.0
  0
LINE
  5
341
330
207
100
AcDbEntity
  8
7_ALL_FEATURES
  6
Continuous
 62
     7
100
AcDbLine
 10
1333.213415
 20
1835.993902
 30
0.0
 11
1333.213415
 21
1834.993902
 31
0.0
  0
LINE
  5
342
330
207
100
AcDbEntity
  8
7_ALL_FEATURES
  6
Continuous
 62
     7
100
AcDbLine
 10
1333.213415
 20
1834.993902
 30
0.0
 11
1333.213415
 21
1833.493902
 31
0.0
  0
LINE
  5
343
330
207
100
AcDbEntity
  8
7_ALL_FEATURES
  6
Continuous
 62
     7
100
AcDbLine
 10
1333.213415
 20
1833.493902
 30
0.0
 11
1333.213415
 21
1832.993902
 31
0.0
  0
LINE
  5
344
330
207
100
AcDbEntity
  8
7_ALL_FEATURES
  6
Continuous
 62
     7
100
AcDbLine
 10
1333.213415
 20
1832.793902
 30
0.0
 11
1333.213415
 21
1832.493902
 31
0.0
  0
LINE
  5
345
330
207
100
AcDbEntity
  8
7_ALL_FEATURES
  6
Continuous
 62
     7
100
AcDbLine
 10
1333.213415
 20
1832.493902
 30
0.0
 11
1333.213415
 21
1816.993902
 31
0.0
  0
LINE
  5
346
330
207
100
AcDbEntity
  8
7_ALL_FEATURES
  6
Continuous
 62
     7
100
AcDbLine
 10
1333.213415
 20
1816.993902
 30
0.0
 11
1333.213415
 21
1815.993902
 31
0.0
  0
LINE
  5
347
330
207
100
AcDbEntity
  8
7_ALL_FEATURES
  6
Continuous
 62
     7
100
AcDbLine
 10
1333.213415
 20
1815.993902
 30
0.0
 11
1333.213415
 21
1814.993902
 31
0.0
  0
LINE
  5
348
330
207
100
AcDbEntity
  8
7_ALL_FEATURES
  6
Continuous
 62
     7
100
AcDbLine
 10
399.713415
 20
1815.993902
 30
0.0
 11
399.713415
 21
1814.993902
 31
0.0
  0
LINE
  5
349
330
207
100
AcDbEntity
  8
7_ALL_FEATURES
  6
Continuous
 62
     7
100
AcDbLine
 10
399.713415
 20
1832.793902
 30
0.0
 11
399.713415
 21
1832.493902
 31
0.0
  0
LINE
  5
34A
330
207
100
AcDbEntity
  8
7_ALL_FEATURES
  6
Continuous
 62
     7
100
AcDbLine
 10
399.713415
 20
1832.493902
 30
0.0
 11
399.713415
 21
1816.993902
 31
0.0
  0
LINE
  5
34B
330
207
100
AcDbEntity
  8
7_ALL_FEATURES
  6
Continuous
 62
     7
100
AcDbLine
 10
399.713415
 20
1816.993902
 30
0.0
 11
399.713415
 21
1815.993902
 31
0.0
  0
LINE
  5
34C
330
207
100
AcDbEntity
  8
7_ALL_FEATURES
  6
Continuous
 62
     7
100
AcDbLine
 10
399.713415
 20
1833.493902
 30
0.0
 11
399.713415
 21
1832.993902
 31
0.0
  0
LINE
  5
34D
330
207
100
AcDbEntity
  8
7_ALL_FEATURES
  6
Continuous
 62
     7
100
AcDbLine
 10
399.713415
 20
1835.993902
 30
0.0
 11
399.713415
 21
1834.993902
 31
0.0
  0
LINE
  5
34E
330
207
100
AcDbEntity
  8
7_ALL_FEATURES
  6
Continuous
 62
     7
100
AcDbLine
 10
399.713415
 20
1834.993902
 30
0.0
 11
399.713415
 21
1833.493902
 31
0.0
  0
LINE
  5
34F
330
207
100
AcDbEntity
  8
7_ALL_FEATURES
  6
Continuous
 62
     7
100
AcDbLine
 10
399.713415
 20
1836.493902
 30
0.0
 11
399.713415
 21
1835.993902
 31
0.0
  0
LINE
  5
350
330
207
100
AcDbEntity
  8
7_ALL_FEATURES
  6
Continuous
 62
     7
100
AcDbLine
 10
399.713415
 20
1841.493902
 30
0.0
 11
399.713415
 21
1840.993902
 31
0.0
  0
LINE
  5
351
330
207
100
AcDbEntity
  8
7_ALL_FEATURES
  6
Continuous
 62
     7
100
AcDbLine
 10
399.713415
 20
1843.993902
 30
0.0
 11
399.713415
 21
1842.493902
 31
0.0
  0
LINE
  5
352
330
207
100
AcDbEntity
  8
7_ALL_FEATURES
  6
Continuous
 62
     7
100
AcDbLine
 10
399.713415
 20
1842.493902
 30
0.0
 11
399.713415
 21
1841.493902
 31
0.0
  0
LINE
  5
353
330
207
100
AcDbEntity
  8
7_ALL_FEATURES
  6
Continuous
 62
     7
100
AcDbLine
 10
399.713415
 20
1844.493902
 30
0.0
 11
399.713415
 21
1844.314166
 31
0.0
  0
LINE
  5
354
330
207
100
AcDbEntity
  8
7_ALL_FEATURES
  6
Continuous
 62
     7
100
AcDbLine
 10
399.713415
 20
1844.314166
 30
0.0
 11
399.713415
 21
1843.993902
 31
0.0
  0
LINE
  5
355
330
207
100
AcDbEntity
  8
7_ALL_FEATURES
  6
Continuous
 62
     7
100
AcDbLine
 10
399.713415
 20
1844.693902
 30
0.0
 11
399.713415
 21
1844.493902
 31
0.0
  0
LINE
  5
356
330
207
100
AcDbEntity
  8
7_ALL_FEATURES
  6
Continuous
 62
     7
100
AcDbLine
 10
399.713415
 20
1939.793902
 30
0.0
 11
399.713415
 21
1939.493902
 31
0.0
  0
LINE
  5
357
330
207
100
AcDbEntity
  8
7_ALL_FEATURES
  6
Continuous
 62
     7
100
AcDbLine
 10
399.713415
 20
1939.493902
 30
0.0
 11
399.713415
 21
1844.993902
 31
0.0
  0
LINE
  5
358
330
207
100
AcDbEntity
  8
7_ALL_FEATURES
  6
Continuous
 62
     7
100
AcDbLine
 10
399.713415
 20
1844.993902
 30
0.0
 11
399.713415
 21
1844.693902
 31
0.0
  0
LINE
  5
359
330
207
100
AcDbEntity
  8
7_ALL_FEATURES
  6
Continuous
 62
     7
100
AcDbLine
 10
399.713415
 20
1940.493902
 30
0.0
 11
399.713415
 21
1939.993902
 31
0.0
  0
LINE
  5
35A
330
207
100
AcDbEntity
  8
7_ALL_FEATURES
  6
Continuous
 62
     7
100
AcDbLine
 10
399.713415
 20
1942.993902
 30
0.0
 11
399.713415
 21
1941.993902
 31
0.0
  0
LINE
  5
35B
330
207
100
AcDbEntity
  8
7_ALL_FEATURES
  6
Continuous
 62
     7
100
AcDbLine
 10
399.713415
 20
1941.993902
 30
0.0
 11
399.713415
 21
1940.493902
 31
0.0
  0
LINE
  5
35C
330
207
100
AcDbEntity
  8
7_ALL_FEATURES
  6
Continuous
 62
     7
100
AcDbLine
 10
399.713415
 20
1943.493902
 30
0.0
 11
399.713415
 21
1942.993902
 31
0.0
  0
LINE
  5
35D
330
207
100
AcDbEntity
  8
7_ALL_FEATURES
  6
Continuous
 62
     7
100
AcDbLine
 10
399.713415
 20
1948.493902
 30
0.0
 11
399.713415
 21
1947.993902
 31
0.0
  0
LINE
  5
35E
330
207
100
AcDbEntity
  8
7_ALL_FEATURES
  6
Continuous
 62
     7
100
AcDbLine
 10
399.713415
 20
1950.993902
 30
0.0
 11
399.713415
 21
1949.493902
 31
0.0
  0
LINE
  5
35F
330
207
100
AcDbEntity
  8
7_ALL_FEATURES
  6
Continuous
 62
     7
100
AcDbLine
 10
399.713415
 20
1949.493902
 30
0.0
 11
399.713415
 21
1948.493902
 31
0.0
  0
LINE
  5
360
330
207
100
AcDbEntity
  8
7_ALL_FEATURES
  6
Continuous
 62
     7
100
AcDbLine
 10
399.713415
 20
1951.493902
 30
0.0
 11
399.713415
 21
1951.314166
 31
0.0
  0
LINE
  5
361
330
207
100
AcDbEntity
  8
7_ALL_FEATURES
  6
Continuous
 62
     7
100
AcDbLine
 10
399.713415
 20
1951.314166
 30
0.0
 11
399.713415
 21
1950.993902
 31
0.0
  0
LINE
  5
362
330
207
100
AcDbEntity
  8
7_ALL_FEATURES
  6
Continuous
 62
     7
100
AcDbLine
 10
399.713415
 20
1951.693902
 30
0.0
 11
399.713415
 21
1951.493902
 31
0.0
  0
LINE
  5
363
330
207
100
AcDbEntity
  8
7_ALL_FEATURES
  6
Continuous
 62
     7
100
AcDbLine
 10
399.713415
 20
1965.493902
 30
0.0
 11
399.713415
 21
1965.293902
 31
0.0
  0
LINE
  5
364
330
207
100
AcDbEntity
  8
7_ALL_FEATURES
  6
Continuous
 62
     7
100
AcDbLine
 10
399.713415
 20
1965.293902
 30
0.0
 11
399.713415
 21
1964.493902
 31
0.0
  0
LINE
  5
365
330
207
100
AcDbEntity
  8
7_ALL_FEATURES
  6
Continuous
 62
     7
100
AcDbLine
 10
399.713415
 20
1964.493902
 30
0.0
 11
399.713415
 21
1963.493902
 31
0.0
  0
LINE
  5
366
330
207
100
AcDbEntity
  8
7_ALL_FEATURES
  6
Continuous
 62
     7
100
AcDbLine
 10
399.713415
 20
1963.493902
 30
0.0
 11
399.713415
 21
1963.093902
 31
0.0
  0
LINE
  5
367
330
207
100
AcDbEntity
  8
7_ALL_FEATURES
  6
Continuous
 62
     7
100
AcDbLine
 10
399.713415
 20
1963.093902
 30
0.0
 11
399.713415
 21
1962.893902
 31
0.0
  0
LINE
  5
368
330
207
100
AcDbEntity
  8
7_ALL_FEATURES
  6
Continuous
 62
     7
100
AcDbLine
 10
399.713415
 20
1962.893902
 30
0.0
 11
399.713415
 21
1962.493902
 31
0.0
  0
LINE
  5
369
330
207
100
AcDbEntity
  8
7_ALL_FEATURES
  6
Continuous
 62
     7
100
AcDbLine
 10
399.713415
 20
1962.493902
 30
0.0
 11
399.713415
 21
1951.993902
 31
0.0
  0
LINE
  5
36A
330
207
100
AcDbEntity
  8
7_ALL_FEATURES
  6
Continuous
 62
     7
100
AcDbLine
 10
399.713415
 20
1951.993902
 30
0.0
 11
399.713415
 21
1951.693902
 31
0.0
  0
LINE
  5
36B
330
207
100
AcDbEntity
  8
7_ALL_FEATURES
  6
Continuous
 62
     9
100
AcDbLine
 10
399.713415
 20
1950.993902
 30
0.0
 11
1333.213415
 21
1950.993902
 31
0.0
  0
LINE
  5
36C
330
207
100
AcDbEntity
  8
7_ALL_FEATURES
  6
Continuous
 62
     9
100
AcDbLine
 10
399.713415
 20
1948.493902
 30
0.0
 11
1333.213415
 21
1948.493902
 31
0.0
  0
LINE
  5
36D
330
207
100
AcDbEntity
  8
7_ALL_FEATURES
  6
Continuous
 62
     9
100
AcDbLine
 10
399.713415
 20
1939.793902
 30
0.0
 11
1333.213415
 21
1939.793902
 31
0.0
  0
LINE
  5
36E
330
207
100
AcDbEntity
  8
7_ALL_FEATURES
  6
Continuous
 62
     9
100
AcDbLine
 10
399.713415
 20
1844.693902
 30
0.0
 11
1333.213415
 21
1844.693902
 31
0.0
  0
LINE
  5
36F
330
207
100
AcDbEntity
  8
7_ALL_FEATURES
  6
Continuous
 62
     9
100
AcDbLine
 10
399.713415
 20
1951.693902
 30
0.0
 11
1333.213415
 21
1951.693902
 31
0.0
  0
LINE
  5
370
330
207
100
AcDbEntity
  8
7_ALL_FEATURES
  6
Continuous
 62
     9
100
AcDbLine
 10
399.713415
 20
1843.993902
 30
0.0
 11
1333.213415
 21
1843.993902
 31
0.0
  0
LINE
  5
371
330
207
100
AcDbEntity
  8
7_ALL_FEATURES
  6
Continuous
 62
     9
100
AcDbLine
 10
399.713415
 20
1841.493902
 30
0.0
 11
1333.213415
 21
1841.493902
 31
0.0
  0
LINE
  5
372
330
207
100
AcDbEntity
  8
7_ALL_FEATURES
  6
Continuous
 62
     9
100
AcDbLine
 10
399.713415
 20
1835.993902
 30
0.0
 11
1333.213415
 21
1835.993902
 31
0.0
  0
LINE
  5
373
330
207
100
AcDbEntity
  8
7_ALL_FEATURES
  6
Continuous
 62
     9
100
AcDbLine
 10
399.713415
 20
1833.493902
 30
0.0
 11
1333.213415
 21
1833.493902
 31
0.0
  0
LINE
  5
374
330
207
100
AcDbEntity
  8
7_ALL_FEATURES
  6
Continuous
 62
     9
100
AcDbLine
 10
399.713415
 20
1965.293902
 30
0.0
 11
1333.213415
 21
1965.293902
 31
0.0
  0
LINE
  5
375
330
207
100
AcDbEntity
  8
7_ALL_FEATURES
  6
Continuous
 62
     9
100
AcDbLine
 10
399.713415
 20
1942.993902
 30
0.0
 11
1333.213415
 21
1942.993902
 31
0.0
  0
LINE
  5
376
330
207
100
AcDbEntity
  8
7_ALL_FEATURES
  6
Continuous
 62
     9
100
AcDbLine
 10
399.713415
 20
1832.793902
 30
0.0
 11
1333.213415
 21
1832.793902
 31
0.0
  0
LINE
  5
377
330
207
100
AcDbEntity
  8
7_ALL_FEATURES
  6
Continuous
 62
     9
100
AcDbLine
 10
399.713415
 20
1815.993902
 30
0.0
 11
1333.213415
 21
1815.993902
 31
0.0
  0
LINE
  5
378
330
207
100
AcDbEntity
  8
7_ALL_FEATURES
  6
Continuous
 62
     9
100
AcDbLine
 10
399.713415
 20
1940.493902
 30
0.0
 11
1333.213415
 21
1940.493902
 31
0.0
  0
LINE
  5
379
330
207
100
AcDbEntity
  8
7_ALL_FEATURES
  6
Continuous
 62
     3
100
AcDbLine
 10
1333.213415
 20
1832.584679
 30
0.0
 11
1333.213415
 21
1832.493902
 31
0.0
  0
LINE
  5
37A
330
207
100
AcDbEntity
  8
7_ALL_FEATURES
  6
Continuous
 62
     3
100
AcDbLine
 10
1333.213415
 20
1832.493902
 30
0.0
 11
1333.213415
 21
1816.993902
 31
0.0
  0
LINE
  5
37B
330
207
100
AcDbEntity
  8
7_ALL_FEATURES
  6
Continuous
 62
     3
100
AcDbLine
 10
1333.213415
 20
1816.993902
 30
0.0
 11
1333.213415
 21
1815.993902
 31
0.0
  0
SPLINE
  5
37C
330
207
100
AcDbEntity
  8
7_ALL_FEATURES
  6
Continuous
 62
     3
100
AcDbSpline
 70
     0
 71
     3
 72
     9
 73
     5
 74
     0
 42
0.000000001
 43
0.0000001
 40
0.0
 40
0.0
 40
0.0
 40
0.0
 40
0.4580857352
 40
1.0
 40
1.0
 40
1.0
 40
1.0
 10
1333.0667322599
 20
1947.0646000759
 30
0.0
 10
1333.1657799177
 20
1946.8866091059
 30
0.0
 10
1333.2018693879
 20
1946.4218435242
 30
0.0
 10
1333.2085411662
 20
1945.9848718621
 30
0.0
 10
1333.2085411662
 20
1945.743902439
 30
0.0
  0
SPLINE
  5
37D
330
207
100
AcDbEntity
  8
7_ALL_FEATURES
  6
Continuous
 62
     3
100
AcDbSpline
 70
     0
 71
     3
 72
     9
 73
     5
 74
     0
 42
0.000000001
 43
0.0000001
 40
0.0
 40
0.0
 40
0.0
 40
0.0
 40
0.4580857352
 40
1.0
 40
1.0
 40
1.0
 40
1.0
 10
1333.0667322599
 20
1840.0646000759
 30
0.0
 10
1333.1657799177
 20
1839.8866091059
 30
0.0
 10
1333.2018693879
 20
1839.4218435242
 30
0.0
 10
1333.2085411662
 20
1838.9848718621
 30
0.0
 10
1333.2085411662
 20
1838.743902439
 30
0.0
  0
LINE
  5
37E
330
207
100
AcDbEntity
  8
7_ALL_FEATURES
  6
Continuous
 62
     3
100
AcDbLine
 10
1333.213415
 20
1964.675455
 30
0.0
 11
1333.213415
 21
1964.493902
 31
0.0
  0
LINE
  5
37F
330
207
100
AcDbEntity
  8
7_ALL_FEATURES
  6
Continuous
 62
     3
100
AcDbLine
 10
1333.213415
 20
1964.493902
 30
0.0
 11
1333.213415
 21
1951.993902
 31
0.0
  0
LINE
  5
380
330
207
100
AcDbEntity
  8
7_ALL_FEATURES
  6
Continuous
 62
     3
100
AcDbLine
 10
1333.213415
 20
1939.584679
 30
0.0
 11
1333.213415
 21
1939.493902
 31
0.0
  0
LINE
  5
381
330
207
100
AcDbEntity
  8
7_ALL_FEATURES
  6
Continuous
 62
     3
100
AcDbLine
 10
1333.213415
 20
1939.493902
 30
0.0
 11
1333.213415
 21
1844.993902
 31
0.0
  0
SPLINE
  5
382
330
207
100
AcDbEntity
  8
7_ALL_FEATURES
  6
Continuous
 62
     3
100
AcDbSpline
 70
     0
 71
     3
 72
     9
 73
     5
 74
     0
 42
0.000000001
 43
0.0000001
 40
0.0
 40
0.0
 40
0.0
 40
0.0
 40
0.5419142648
 40
1.0
 40
1.0
 40
1.0
 40
1.0
 10
1333.2085411662
 20
1838.743902439
 30
0.0
 10
1333.2085411662
 20
1838.5029330159
 30
0.0
 10
1333.2018693879
 20
1838.0659613539
 30
0.0
 10
1333.1657799177
 20
1837.6011957721
 30
0.0
 10
1333.0667322599
 20
1837.4232048022
 30
0.0
  0
SPLINE
  5
383
330
207
100
AcDbEntity
  8
7_ALL_FEATURES
  6
Continuous
 62
     3
100
AcDbSpline
 70
     0
 71
     3
 72
     9
 73
     5
 74
     0
 42
0.000000001
 43
0.0000001
 40
0.0
 40
0.0
 40
0.0
 40
0.0
 40
0.5419142648
 40
1.0
 40
1.0
 40
1.0
 40
1.0
 10
1333.2085411662
 20
1945.743902439
 30
0.0
 10
1333.2085411662
 20
1945.5029330159
 30
0.0
 10
1333.2018693879
 20
1945.0659613539
 30
0.0
 10
1333.1657799177
 20
1944.6011957721
 30
0.0
 10
1333.0667322599
 20
1944.4232048022
 30
0.0
  0
LINE
  5
384
330
207
100
AcDbEntity
  8
7_ALL_FEATURES
  6
Continuous
 62
     3
100
AcDbLine
 10
399.713415
 20
1816.993902
 30
0.0
 11
399.713415
 21
1815.993902
 31
0.0
  0
LINE
  5
385
330
207
100
AcDbEntity
  8
7_ALL_FEATURES
  6
Continuous
 62
     3
100
AcDbLine
 10
399.713415
 20
1832.493902
 30
0.0
 11
399.713415
 21
1816.993902
 31
0.0
  0
LINE
  5
386
330
207
100
AcDbEntity
  8
7_ALL_FEATURES
  6
Continuous
 62
     3
100
AcDbLine
 10
399.713415
 20
1832.584679
 30
0.0
 11
399.713415
 21
1832.493902
 31
0.0
  0
LINE
  5
387
330
207
100
AcDbEntity
  8
7_ALL_FEATURES
  6
Continuous
 62
     3
100
AcDbLine
 10
399.713415
 20
1939.493902
 30
0.0
 11
399.713415
 21
1844.993902
 31
0.0
  0
LINE
  5
388
330
207
100
AcDbEntity
  8
7_ALL_FEATURES
  6
Continuous
 62
     3
100
AcDbLine
 10
399.713415
 20
1939.584679
 30
0.0
 11
399.713415
 21
1939.493902
 31
0.0
  0
SPLINE
  5
389
330
207
100
AcDbEntity
  8
7_ALL_FEATURES
  6
Continuous
 62
     3
100
AcDbSpline
 70
     0
 71
     3
 72
     9
 73
     5
 74
     0
 42
0.000000001
 43
0.0000001
 40
0.0
 40
0.0
 40
0.0
 40
0.0
 40
0.4580852749
 40
1.0
 40
1.0
 40
1.0
 40
1.0
 10
399.8601074222
 20
1840.0646199377
 30
0.0
 10
399.7610460084
 20
1839.8866330898
 30
0.0
 10
399.7249649001
 20
1839.4218514747
 30
0.0
 10
399.718288102
 20
1838.9848759614
 30
0.0
 10
399.718288102
 20
1838.743902439
 30
0.0
  0
LINE
  5
38A
330
207
100
AcDbEntity
  8
7_ALL_FEATURES
  6
Continuous
 62
     3
100
AcDbLine
 10
399.713415
 20
1964.493902
 30
0.0
 11
399.713415
 21
1951.993902
 31
0.0
  0
LINE
  5
38B
330
207
100
AcDbEntity
  8
7_ALL_FEATURES
  6
Continuous
 62
     3
100
AcDbLine
 10
399.713415
 20
1964.675455
 30
0.0
 11
399.713415
 21
1964.493902
 31
0.0
  0
SPLINE
  5
38C
330
207
100
AcDbEntity
  8
7_ALL_FEATURES
  6
Continuous
 62
     3
100
AcDbSpline
 70
     0
 71
     3
 72
     9
 73
     5
 74
     0
 42
0.000000001
 43
0.0000001
 40
0.0
 40
0.0
 40
0.0
 40
0.0
 40
0.4580853095
 40
1.0
 40
1.0
 40
1.0
 40
1.0
 10
399.8601066293
 20
1947.0646184272
 30
0.0
 10
399.7610462667
 20
1946.8866312633
 30
0.0
 10
399.7249645151
 20
1946.4218508717
 30
0.0
 10
399.718288102
 20
1945.9848756498
 30
0.0
 10
399.718288102
 20
1945.743902439
 30
0.0
  0
SPLINE
  5
38D
330
207
100
AcDbEntity
  8
7_ALL_FEATURES
  6
Continuous
 62
     3
100
AcDbSpline
 70
     0
 71
     3
 72
     9
 73
     5
 74
     0
 42
0.000000001
 43
0.0000001
 40
0.0
 40
0.0
 40
0.0
 40
0.0
 40
0.5419146905
 40
1.0
 40
1.0
 40
1.0
 40
1.0
 10
399.718288102
 20
1945.743902439
 30
0.0
 10
399.718288102
 20
1945.5029292283
 30
0.0
 10
399.7249645151
 20
1945.0659540063
 30
0.0
 10
399.7610462667
 20
1944.6011736148
 30
0.0
 10
399.8601066293
 20
1944.4231864509
 30
0.0
  0
SPLINE
  5
38E
330
207
100
AcDbEntity
  8
7_ALL_FEATURES
  6
Continuous
 62
     3
100
AcDbSpline
 70
     0
 71
     3
 72
     9
 73
     5
 74
     0
 42
0.000000001
 43
0.0000001
 40
0.0
 40
0.0
 40
0.0
 40
0.0
 40
0.5419147251
 40
1.0
 40
1.0
 40
1.0
 40
1.0
 10
399.718288102
 20
1838.743902439
 30
0.0
 10
399.718288102
 20
1838.5029289167
 30
0.0
 10
399.7249649001
 20
1838.0659534034
 30
0.0
 10
399.7610460084
 20
1837.6011717882
 30
0.0
 10
399.8601074222
 20
1837.4231849404
 30
0.0
  0
LINE
  5
38F
330
207
100
AcDbEntity
  8
7_ALL_FEATURES
  6
Continuous
 62
     7
100
AcDbLine
 10
1334.713415
 20
1455.517073
 30
0.0
 11
1334.713415
 21
1456.517073
 31
0.0
  0
LINE
  5
390
330
207
100
AcDbEntity
  8
7_ALL_FEATURES
  6
Continuous
 62
     7
100
AcDbLine
 10
1334.713415
 20
1359.117073
 30
0.0
 11
1334.713415
 21
1358.117073
 31
0.0
  0
LINE
  5
391
330
207
100
AcDbEntity
  8
7_ALL_FEATURES
  6
Continuous
 62
     7
100
AcDbLine
 10
1333.213415
 20
1358.117073
 30
0.0
 11
1334.713415
 21
1358.117073
 31
0.0
  0
LINE
  5
392
330
207
100
AcDbEntity
  8
7_ALL_FEATURES
  6
Continuous
 62
     7
100
AcDbLine
 10
1334.713415
 20
1455.517073
 30
0.0
 11
1334.713415
 21
1359.117073
 31
0.0
  0
LINE
  5
393
330
207
100
AcDbEntity
  8
7_ALL_FEATURES
  6
Continuous
 62
     7
100
AcDbLine
 10
1333.213415
 20
1456.517073
 30
0.0
 11
1334.713415
 21
1456.517073
 31
0.0
  0
LINE
  5
394
330
207
100
AcDbEntity
  8
7_ALL_FEATURES
  6
Continuous
 62
     9
100
AcDbLine
 10
1333.213415
 20
1359.117073
 30
0.0
 11
1334.713415
 21
1359.117073
 31
0.0
  0
LINE
  5
395
330
207
100
AcDbEntity
  8
7_ALL_FEATURES
  6
Continuous
 62
     9
100
AcDbLine
 10
1333.213415
 20
1455.517073
 30
0.0
 11
1334.713415
 21
1455.517073
 31
0.0
  0
LINE
  5
396
330
207
100
AcDbEntity
  8
7_ALL_FEATURES
  6
Continuous
 62
     7
100
AcDbLine
 10
398.213415
 20
1359.117073
 30
0.0
 11
398.213415
 21
1358.117073
 31
0.0
  0
LINE
  5
397
330
207
100
AcDbEntity
  8
7_ALL_FEATURES
  6
Continuous
 62
     7
100
AcDbLine
 10
398.213415
 20
1455.517073
 30
0.0
 11
398.213415
 21
1456.517073
 31
0.0
  0
LINE
  5
398
330
207
100
AcDbEntity
  8
7_ALL_FEATURES
  6
Continuous
 62
     7
100
AcDbLine
 10
399.713415
 20
1456.517073
 30
0.0
 11
398.213415
 21
1456.517073
 31
0.0
  0
LINE
  5
399
330
207
100
AcDbEntity
  8
7_ALL_FEATURES
  6
Continuous
 62
     7
100
AcDbLine
 10
398.213415
 20
1359.117073
 30
0.0
 11
398.213415
 21
1455.517073
 31
0.0
  0
LINE
  5
39A
330
207
100
AcDbEntity
  8
7_ALL_FEATURES
  6
Continuous
 62
     7
100
AcDbLine
 10
399.713415
 20
1358.117073
 30
0.0
 11
398.213415
 21
1358.117073
 31
0.0
  0
LINE
  5
39B
330
207
100
AcDbEntity
  8
7_ALL_FEATURES
  6
Continuous
 62
     9
100
AcDbLine
 10
399.713415
 20
1455.517073
 30
0.0
 11
398.213415
 21
1455.517073
 31
0.0
  0
LINE
  5
39C
330
207
100
AcDbEntity
  8
7_ALL_FEATURES
  6
Continuous
 62
     9
100
AcDbLine
 10
399.713415
 20
1359.117073
 30
0.0
 11
398.213415
 21
1359.117073
 31
0.0
  0
ARC
  5
39D
330
207
100
AcDbEntity
  8
3_ALL_AXES
  6
Continuous
 62
     7
100
AcDbCircle
 10
1313.213415
 20
1407.317073
 30
0.0
 40
5.0
100
AcDbArc
 50
0.0
 51
180.0
  0
ARC
  5
39E
330
207
100
AcDbEntity
  8
3_ALL_AXES
  6
Continuous
 62
     7
100
AcDbCircle
 10
1313.213415
 20
1407.317073
 30
0.0
 40
5.0
100
AcDbArc
 50
180.0
 51
360.0
  0
LINE
  5
39F
330
207
100
AcDbEntity
  8
7_ALL_FEATURES
  6
Continuous
 62
     7
100
AcDbLine
 10
399.713415
 20
1359.617073
 30
0.0
 11
1333.213415
 21
1359.617073
 31
0.0
  0
LINE
  5
3A0
330
207
100
AcDbEntity
  8
7_ALL_FEATURES
  6
Continuous
 62
     7
100
AcDbLine
 10
399.713415
 20
1358.117073
 30
0.0
 11
1333.213415
 21
1358.117073
 31
0.0
  0
LINE
  5
3A1
330
207
100
AcDbEntity
  8
7_ALL_FEATURES
  6
Continuous
 62
     7
100
AcDbLine
 10
399.713415
 20
1356.617073
 30
0.0
 11
1333.213415
 21
1356.617073
 31
0.0
  0
LINE
  5
3A2
330
207
100
AcDbEntity
  8
7_ALL_FEATURES
  6
Continuous
 62
     7
100
AcDbLine
 10
1333.213415
 20
1457.517073
 30
0.0
 11
1333.213415
 21
1457.648106
 31
0.0
  0
LINE
  5
3A3
330
207
100
AcDbEntity
  8
7_ALL_FEATURES
  6
Continuous
 62
     7
100
AcDbLine
 10
1333.213415
 20
1457.648106
 30
0.0
 11
1333.213415
 21
1458.017073
 31
0.0
  0
LINE
  5
3A4
330
207
100
AcDbEntity
  8
7_ALL_FEATURES
  6
Continuous
 62
     7
100
AcDbLine
 10
399.713415
 20
1455.017073
 30
0.0
 11
1333.213415
 21
1455.017073
 31
0.0
  0
LINE
  5
3A5
330
207
100
AcDbEntity
  8
7_ALL_FEATURES
  6
Continuous
 62
     7
100
AcDbLine
 10
399.713415
 20
1456.517073
 30
0.0
 11
1333.213415
 21
1456.517073
 31
0.0
  0
LINE
  5
3A6
330
207
100
AcDbEntity
  8
7_ALL_FEATURES
  6
Continuous
 62
     7
100
AcDbLine
 10
399.713415
 20
1458.017073
 30
0.0
 11
1333.213415
 21
1458.017073
 31
0.0
  0
LINE
  5
3A7
330
207
100
AcDbEntity
  8
7_ALL_FEATURES
  6
Continuous
 62
     7
100
AcDbLine
 10
1333.213415
 20
1456.717073
 30
0.0
 11
1333.213415
 21
1457.517073
 31
0.0
  0
LINE
  5
3A8
330
207
100
AcDbEntity
  8
7_ALL_FEATURES
  6
Continuous
 62
     7
100
AcDbLine
 10
1333.213415
 20
1456.317073
 30
0.0
 11
1333.213415
 21
1456.517073
 31
0.0
  0
LINE
  5
3A9
330
207
100
AcDbEntity
  8
7_ALL_FEATURES
  6
Continuous
 62
     7
100
AcDbLine
 10
1333.213415
 20
1455.117073
 30
0.0
 11
1333.213415
 21
1455.517073
 31
0.0
  0
LINE
  5
3AA
330
207
100
AcDbEntity
  8
7_ALL_FEATURES
  6
Continuous
 62
     7
100
AcDbLine
 10
1333.213415
 20
1455.517073
 30
0.0
 11
1333.213415
 21
1456.317073
 31
0.0
  0
LINE
  5
3AB
330
207
100
AcDbEntity
  8
7_ALL_FEATURES
  6
Continuous
 62
     7
100
AcDbLine
 10
1333.213415
 20
1455.017073
 30
0.0
 11
1333.213415
 21
1455.117073
 31
0.0
  0
LINE
  5
3AC
330
207
100
AcDbEntity
  8
7_ALL_FEATURES
  6
Continuous
 62
     7
100
AcDbLine
 10
1333.213415
 20
1359.617073
 30
0.0
 11
1333.213415
 21
1359.517073
 31
0.0
  0
LINE
  5
3AD
330
207
100
AcDbEntity
  8
7_ALL_FEATURES
  6
Continuous
 62
     7
100
AcDbLine
 10
1333.213415
 20
1359.517073
 30
0.0
 11
1333.213415
 21
1359.117073
 31
0.0
  0
LINE
  5
3AE
330
207
100
AcDbEntity
  8
7_ALL_FEATURES
  6
Continuous
 62
     7
100
AcDbLine
 10
1333.213415
 20
1359.117073
 30
0.0
 11
1333.213415
 21
1358.317073
 31
0.0
  0
LINE
  5
3AF
330
207
100
AcDbEntity
  8
7_ALL_FEATURES
  6
Continuous
 62
     7
100
AcDbLine
 10
1333.213415
 20
1358.317073
 30
0.0
 11
1333.213415
 21
1358.117073
 31
0.0
  0
LINE
  5
3B0
330
207
100
AcDbEntity
  8
7_ALL_FEATURES
  6
Continuous
 62
     7
100
AcDbLine
 10
1333.213415
 20
1357.917073
 30
0.0
 11
1333.213415
 21
1357.117073
 31
0.0
  0
LINE
  5
3B1
330
207
100
AcDbEntity
  8
7_ALL_FEATURES
  6
Continuous
 62
     7
100
AcDbLine
 10
1333.213415
 20
1357.117073
 30
0.0
 11
1333.213415
 21
1356.986041
 31
0.0
  0
LINE
  5
3B2
330
207
100
AcDbEntity
  8
7_ALL_FEATURES
  6
Continuous
 62
     7
100
AcDbLine
 10
1333.213415
 20
1356.986041
 30
0.0
 11
1333.213415
 21
1356.617073
 31
0.0
  0
LINE
  5
3B3
330
207
100
AcDbEntity
  8
7_ALL_FEATURES
  6
Continuous
 62
     7
100
AcDbLine
 10
399.713415
 20
1455.017073
 30
0.0
 11
399.713415
 21
1455.117073
 31
0.0
  0
LINE
  5
3B4
330
207
100
AcDbEntity
  8
7_ALL_FEATURES
  6
Continuous
 62
     7
100
AcDbLine
 10
399.713415
 20
1455.117073
 30
0.0
 11
399.713415
 21
1455.517073
 31
0.0
  0
LINE
  5
3B5
330
207
100
AcDbEntity
  8
7_ALL_FEATURES
  6
Continuous
 62
     7
100
AcDbLine
 10
399.713415
 20
1455.517073
 30
0.0
 11
399.713415
 21
1456.317073
 31
0.0
  0
LINE
  5
3B6
330
207
100
AcDbEntity
  8
7_ALL_FEATURES
  6
Continuous
 62
     7
100
AcDbLine
 10
399.713415
 20
1456.317073
 30
0.0
 11
399.713415
 21
1456.517073
 31
0.0
  0
LINE
  5
3B7
330
207
100
AcDbEntity
  8
7_ALL_FEATURES
  6
Continuous
 62
     7
100
AcDbLine
 10
399.713415
 20
1456.717073
 30
0.0
 11
399.713415
 21
1457.517073
 31
0.0
  0
LINE
  5
3B8
330
207
100
AcDbEntity
  8
7_ALL_FEATURES
  6
Continuous
 62
     7
100
AcDbLine
 10
399.713415
 20
1457.517073
 30
0.0
 11
399.713415
 21
1458.017073
 31
0.0
  0
LINE
  5
3B9
330
207
100
AcDbEntity
  8
7_ALL_FEATURES
  6
Continuous
 62
     7
100
AcDbLine
 10
399.713415
 20
1357.117073
 30
0.0
 11
399.713415
 21
1356.617073
 31
0.0
  0
LINE
  5
3BA
330
207
100
AcDbEntity
  8
7_ALL_FEATURES
  6
Continuous
 62
     7
100
AcDbLine
 10
399.713415
 20
1357.917073
 30
0.0
 11
399.713415
 21
1357.117073
 31
0.0
  0
LINE
  5
3BB
330
207
100
AcDbEntity
  8
7_ALL_FEATURES
  6
Continuous
 62
     7
100
AcDbLine
 10
399.713415
 20
1358.317073
 30
0.0
 11
399.713415
 21
1358.117073
 31
0.0
  0
LINE
  5
3BC
330
207
100
AcDbEntity
  8
7_ALL_FEATURES
  6
Continuous
 62
     7
100
AcDbLine
 10
399.713415
 20
1359.517073
 30
0.0
 11
399.713415
 21
1359.117073
 31
0.0
  0
LINE
  5
3BD
330
207
100
AcDbEntity
  8
7_ALL_FEATURES
  6
Continuous
 62
     7
100
AcDbLine
 10
399.713415
 20
1359.117073
 30
0.0
 11
399.713415
 21
1358.317073
 31
0.0
  0
LINE
  5
3BE
330
207
100
AcDbEntity
  8
7_ALL_FEATURES
  6
Continuous
 62
     7
100
AcDbLine
 10
399.713415
 20
1359.617073
 30
0.0
 11
399.713415
 21
1359.517073
 31
0.0
  0
LINE
  5
3BF
330
207
100
AcDbEntity
  8
7_ALL_FEATURES
  6
Continuous
 62
     9
100
AcDbLine
 10
399.713415
 20
1359.517073
 30
0.0
 11
1333.213415
 21
1359.517073
 31
0.0
  0
LINE
  5
3C0
330
207
100
AcDbEntity
  8
7_ALL_FEATURES
  6
Continuous
 62
     9
100
AcDbLine
 10
399.713415
 20
1358.317073
 30
0.0
 11
1333.213415
 21
1358.317073
 31
0.0
  0
LINE
  5
3C1
330
207
100
AcDbEntity
  8
7_ALL_FEATURES
  6
Continuous
 62
     9
100
AcDbLine
 10
399.713415
 20
1455.117073
 30
0.0
 11
1333.213415
 21
1455.117073
 31
0.0
  0
LINE
  5
3C2
330
207
100
AcDbEntity
  8
7_ALL_FEATURES
  6
Continuous
 62
     9
100
AcDbLine
 10
399.713415
 20
1456.317073
 30
0.0
 11
1333.213415
 21
1456.317073
 31
0.0
  0
LINE
  5
3C3
330
207
100
AcDbEntity
  8
7_ALL_FEATURES
  6
Continuous
 62
     9
100
AcDbLine
 10
399.713415
 20
1357.917073
 30
0.0
 11
1333.213415
 21
1357.917073
 31
0.0
  0
LINE
  5
3C4
330
207
100
AcDbEntity
  8
7_ALL_FEATURES
  6
Continuous
 62
     9
100
AcDbLine
 10
399.713415
 20
1456.717073
 30
0.0
 11
1333.213415
 21
1456.717073
 31
0.0
  0
LINE
  5
3C5
330
207
100
AcDbEntity
  8
7_ALL_FEATURES
  6
Continuous
 62
     7
100
AcDbLine
 10
399.713415
 20
1361.059893
 30
0.0
 11
1333.213415
 21
1361.059893
 31
0.0
  0
LINE
  5
3C6
330
207
100
AcDbEntity
  8
7_ALL_FEATURES
  6
Continuous
 62
     7
100
AcDbLine
 10
399.713415
 20
1453.574253
 30
0.0
 11
1333.213415
 21
1453.574253
 31
0.0
  0
LINE
  5
3C7
330
207
100
AcDbEntity
  8
7_ALL_FEATURES
  6
Continuous
 62
     9
100
AcDbLine
 10
399.713415
 20
1357.117073
 30
0.0
 11
1333.213415
 21
1357.117073
 31
0.0
  0
LINE
  5
3C8
330
207
100
AcDbEntity
  8
7_ALL_FEATURES
  6
Continuous
 62
     9
100
AcDbLine
 10
399.713415
 20
1457.517073
 30
0.0
 11
1333.213415
 21
1457.517073
 31
0.0
  0
LINE
  5
3C9
330
207
100
AcDbEntity
  8
7_ALL_FEATURES
  6
Continuous
 62
     3
100
AcDbLine
 10
1333.213415
 20
1455.517073
 30
0.0
 11
1333.213415
 21
1455.117073
 31
0.0
  0
LINE
  5
3CA
330
207
100
AcDbEntity
  8
7_ALL_FEATURES
  6
Continuous
 62
     3
100
AcDbLine
 10
1333.213415
 20
1455.117073
 30
0.0
 11
1333.213415
 21
1455.017073
 31
0.0
  0
LINE
  5
3CB
330
207
100
AcDbEntity
  8
7_ALL_FEATURES
  6
Continuous
 62
     3
100
AcDbLine
 10
1333.213415
 20
1455.017073
 30
0.0
 11
1333.213415
 21
1359.617073
 31
0.0
  0
LINE
  5
3CC
330
207
100
AcDbEntity
  8
7_ALL_FEATURES
  6
Continuous
 62
     3
100
AcDbLine
 10
1333.213415
 20
1359.617073
 30
0.0
 11
1333.213415
 21
1359.517073
 31
0.0
  0
LINE
  5
3CD
330
207
100
AcDbEntity
  8
7_ALL_FEATURES
  6
Continuous
 62
     3
100
AcDbLine
 10
1333.213415
 20
1359.517073
 30
0.0
 11
1333.213415
 21
1359.117073
 31
0.0
  0
LINE
  5
3CE
330
207
100
AcDbEntity
  8
7_ALL_FEATURES
  6
Continuous
 62
     3
100
AcDbLine
 10
399.713415
 20
1359.117073
 30
0.0
 11
399.713415
 21
1359.517073
 31
0.0
  0
LINE
  5
3CF
330
207
100
AcDbEntity
  8
7_ALL_FEATURES
  6
Continuous
 62
     3
100
AcDbLine
 10
399.713415
 20
1359.517073
 30
0.0
 11
399.713415
 21
1359.617073
 31
0.0
  0
LINE
  5
3D0
330
207
100
AcDbEntity
  8
7_ALL_FEATURES
  6
Continuous
 62
     3
100
AcDbLine
 10
399.713415
 20
1359.617073
 30
0.0
 11
399.713415
 21
1455.017073
 31
0.0
  0
LINE
  5
3D1
330
207
100
AcDbEntity
  8
7_ALL_FEATURES
  6
Continuous
 62
     3
100
AcDbLine
 10
399.713415
 20
1455.017073
 30
0.0
 11
399.713415
 21
1455.117073
 31
0.0
  0
LINE
  5
3D2
330
207
100
AcDbEntity
  8
7_ALL_FEATURES
  6
Continuous
 62
     3
100
AcDbLine
 10
399.713415
 20
1455.117073
 30
0.0
 11
399.713415
 21
1455.517073
 31
0.0
  0
SPLINE
  5
3D3
330
207
100
AcDbEntity
  8
7_ALL_FEATURES
  6
Continuous
 62
     7
100
AcDbSpline
 70
     0
 71
     3
 72
     9
 73
     5
 74
     0
 42
0.000000001
 43
0.0000001
 40
0.0
 40
0.0
 40
0.0
 40
0.0
 40
0.230771402
 40
1.0
 40
1.0
 40
1.0
 40
1.0
 10
1817.8584679055
 20
1947.243902439
 30
0.0
 10
1817.9053708628
 20
1947.243902439
 30
0.0
 10
1818.1085847062
 20
1947.2342927489
 30
0.0
 10
1818.3094281388
 20
1947.1900216961
 30
0.0
 10
1818.4582060378
 20
1947.1419828344
 30
0.0
  0
ARC
  5
3D4
330
207
100
AcDbEntity
  8
7_ALL_FEATURES
  6
Continuous
 62
     7
100
AcDbCircle
 10
1817.73456
 20
1944.901088
 30
0.0
 40
2.3548402279
100
AcDbArc
 50
67.7089
 51
72.103329
  0
SPLINE
  5
3D5
330
207
100
AcDbEntity
  8
7_ALL_FEATURES
  6
Continuous
 62
     7
100
AcDbSpline
 70
     0
 71
     3
 72
     9
 73
     5
 74
     0
 42
0.000000001
 43
0.0000001
 40
0.0
 40
0.0
 40
0.0
 40
0.0
 40
0.4936197828
 40
1.0
 40
1.0
 40
1.0
 40
1.0
 10
1818.6277806658
 20
1947.0799478522
 30
0.0
 10
1818.9015735568
 20
1946.9677086568
 30
0.0
 10
1819.4281818786
 20
1946.6470918126
 30
0.0
 10
1819.7169033674
 20
1946.0474575204
 30
0.0
 10
1819.7169033674
 20
1945.743902439
 30
0.0
  0
SPLINE
  5
3D6
330
207
100
AcDbEntity
  8
7_ALL_FEATURES
  6
Continuous
 62
     7
100
AcDbSpline
 70
     0
 71
     3
 72
     9
 73
     5
 74
     0
 42
0.000000001
 43
0.0000001
 40
0.0
 40
0.0
 40
0.0
 40
0.0
 40
0.230771402
 40
1.0
 40
1.0
 40
1.0
 40
1.0
 10
1817.8584679055
 20
1840.243902439
 30
0.0
 10
1817.9053708628
 20
1840.243902439
 30
0.0
 10
1818.1085847062
 20
1840.2342927489
 30
0.0
 10
1818.3094281388
 20
1840.1900216961
 30
0.0
 10
1818.4582060378
 20
1840.1419828344
 30
0.0
  0
ARC
  5
3D7
330
207
100
AcDbEntity
  8
7_ALL_FEATURES
  6
Continuous
 62
     7
100
AcDbCircle
 10
1817.73456
 20
1837.901088
 30
0.0
 40
2.3548402278
100
AcDbArc
 50
67.7089
 51
72.103329
  0
SPLINE
  5
3D8
330
207
100
AcDbEntity
  8
7_ALL_FEATURES
  6
Continuous
 62
     7
100
AcDbSpline
 70
     0
 71
     3
 72
     9
 73
     5
 74
     0
 42
0.000000001
 43
0.0000001
 40
0.0
 40
0.0
 40
0.0
 40
0.0
 40
0.4936197828
 40
1.0
 40
1.0
 40
1.0
 40
1.0
 10
1818.6277806658
 20
1840.0799478522
 30
0.0
 10
1818.9015735568
 20
1839.9677086568
 30
0.0
 10
1819.4281818786
 20
1839.6470918126
 30
0.0
 10
1819.7169033674
 20
1839.0474575204
 30
0.0
 10
1819.7169033674
 20
1838.743902439
 30
0.0
  0
SPLINE
  5
3D9
330
207
100
AcDbEntity
  8
7_ALL_FEATURES
  6
Continuous
 62
     7
100
AcDbSpline
 70
     0
 71
     3
 72
     9
 73
     5
 74
     0
 42
0.000000001
 43
0.0000001
 40
0.0
 40
0.0
 40
0.0
 40
0.0
 40
0.230771657
 40
1.0
 40
1.0
 40
1.0
 40
1.0
 10
1914.4586052653
 20
1840.243902439
 30
0.0
 10
1914.411702268
 20
1840.243902439
 30
0.0
 10
1914.2084884766
 20
1840.2342927657
 30
0.0
 10
1914.0076450817
 20
1840.190021756
 30
0.0
 10
1913.8588672833
 20
1840.1419828799
 30
0.0
  0
ARC
  5
3DA
330
207
100
AcDbEntity
  8
7_ALL_FEATURES
  6
Continuous
 62
     7
100
AcDbCircle
 10
1914.582514
 20
1837.901086
 30
0.0
 40
2.3548430789
100
AcDbArc
 50
107.896687
 51
112.291646
  0
SPLINE
  5
3DB
330
207
100
AcDbEntity
  8
7_ALL_FEATURES
  6
Continuous
 62
     7
100
AcDbSpline
 70
     0
 71
     3
 72
     9
 73
     5
 74
     0
 42
0.000000001
 43
0.0000001
 40
0.0
 40
0.0
 40
0.0
 40
0.0
 40
0.4936163856
 40
1.0
 40
1.0
 40
1.0
 40
1.0
 10
1913.6892722674
 20
1840.0799394954
 30
0.0
 10
1913.4154855564
 20
1839.9676997741
 30
0.0
 10
1912.888885874
 20
1839.6470838647
 30
0.0
 10
1912.6001698034
 20
1839.0474559848
 30
0.0
 10
1912.6001698034
 20
1838.743902439
 30
0.0
  0
SPLINE
  5
3DC
330
207
100
AcDbEntity
  8
7_ALL_FEATURES
  6
Continuous
 62
     7
100
AcDbSpline
 70
     0
 71
     3
 72
     9
 73
     5
 74
     0
 42
0.000000001
 43
0.0000001
 40
0.0
 40
0.0
 40
0.0
 40
0.0
 40
0.2307716374
 40
1.0
 40
1.0
 40
1.0
 40
1.0
 10
1914.4586052653
 20
1947.243902439
 30
0.0
 10
1914.411702271
 20
1947.243902439
 30
0.0
 10
1914.2084884757
 20
1947.2342927644
 30
0.0
 10
1914.0076450779
 20
1947.1900217514
 30
0.0
 10
1913.8588672717
 20
1947.1419828764
 30
0.0
  0
ARC
  5
3DD
330
207
100
AcDbEntity
  8
7_ALL_FEATURES
  6
Continuous
 62
     7
100
AcDbCircle
 10
1914.582514
 20
1944.901086
 30
0.0
 40
2.3548428679
100
AcDbArc
 50
107.896686
 51
112.291605
  0
SPLINE
  5
3DE
330
207
100
AcDbEntity
  8
7_ALL_FEATURES
  6
Continuous
 62
     7
100
AcDbSpline
 70
     0
 71
     3
 72
     9
 73
     5
 74
     0
 42
0.000000001
 43
0.0000001
 40
0.0
 40
0.0
 40
0.0
 40
0.0
 40
0.4936166471
 40
1.0
 40
1.0
 40
1.0
 40
1.0
 10
1913.6892737906
 20
1947.0799401245
 30
0.0
 10
1913.4154866112
 20
1946.9677004417
 30
0.0
 10
1912.8888862801
 20
1946.6470844583
 30
0.0
 10
1912.6001698034
 20
1946.0474560968
 30
0.0
 10
1912.6001698034
 20
1945.743902439
 30
0.0
  0
LINE
  5
3DF
330
207
100
AcDbEntity
  8
7_ALL_FEATURES
  6
Continuous
 62
     7
100
AcDbLine
 10
1850.666603
 20
1843.993902
 30
0.0
 11
1849.666114
 21
1843.993902
 31
0.0
  0
LINE
  5
3E0
330
207
100
AcDbEntity
  8
7_ALL_FEATURES
  6
Continuous
 62
     7
100
AcDbLine
 10
1881.65047
 20
1843.993902
 30
0.0
 11
1882.650959
 21
1843.993902
 31
0.0
  0
LINE
  5
3E1
330
207
100
AcDbEntity
  8
7_ALL_FEATURES
  6
Continuous
 62
     7
100
AcDbLine
 10
1849.666114
 20
1842.993902
 30
0.0
 11
1850.666604
 21
1842.993902
 31
0.0
  0
LINE
  5
3E2
330
207
100
AcDbEntity
  8
7_ALL_FEATURES
  6
Continuous
 62
     7
100
AcDbLine
 10
1882.65096
 20
1842.993902
 30
0.0
 11
1881.65047
 21
1842.993902
 31
0.0
  0
LINE
  5
3E3
330
207
100
AcDbEntity
  8
7_ALL_FEATURES
  6
Continuous
 62
     7
100
AcDbLine
 10
1819.958537
 20
1835.243902
 30
0.0
 11
1819.958537
 21
1833.493902
 31
0.0
  0
ARC
  5
3E4
330
207
100
AcDbEntity
  8
7_ALL_FEATURES
  6
Continuous
 62
     7
100
AcDbCircle
 10
1819.458537
 20
1833.493902
 30
0.0
 40
0.5
100
AcDbArc
 50
270.0
 51
360.0
  0
LINE
  5
3E5
330
207
100
AcDbEntity
  8
7_ALL_FEATURES
  6
Continuous
 62
     7
100
AcDbLine
 10
1819.458537
 20
1832.993902
 30
0.0
 11
1817.458537
 21
1832.993902
 31
0.0
  0
ARC
  5
3E6
330
207
100
AcDbEntity
  8
7_ALL_FEATURES
  6
Continuous
 62
     7
100
AcDbCircle
 10
1817.458537
 20
1832.493902
 30
0.0
 40
0.5
100
AcDbArc
 50
90.0
 51
180.0
  0
LINE
  5
3E7
330
207
100
AcDbEntity
  8
7_ALL_FEATURES
  6
Continuous
 62
     7
100
AcDbLine
 10
1816.958537
 20
1832.493902
 30
0.0
 11
1816.958537
 21
1816.993902
 31
0.0
  0
ARC
  5
3E8
330
207
100
AcDbEntity
  8
7_ALL_FEATURES
  6
Continuous
 62
     7
100
AcDbCircle
 10
1818.958537
 20
1816.993902
 30
0.0
 40
2.0
100
AcDbArc
 50
180.0
 51
270.0
  0
ARC
  5
3E9
330
207
100
AcDbEntity
  8
7_ALL_FEATURES
  6
Continuous
 62
     7
100
AcDbCircle
 10
1913.358537
 20
1816.993902
 30
0.0
 40
2.0
100
AcDbArc
 50
270.0
 51
360.0
  0
LINE
  5
3EA
330
207
100
AcDbEntity
  8
7_ALL_FEATURES
  6
Continuous
 62
     7
100
AcDbLine
 10
1915.358537
 20
1832.493902
 30
0.0
 11
1915.358537
 21
1816.993902
 31
0.0
  0
ARC
  5
3EB
330
207
100
AcDbEntity
  8
7_ALL_FEATURES
  6
Continuous
 62
     7
100
AcDbCircle
 10
1914.858537
 20
1832.493902
 30
0.0
 40
0.5
100
AcDbArc
 50
0.0
 51
90.0
  0
LINE
  5
3EC
330
207
100
AcDbEntity
  8
7_ALL_FEATURES
  6
Continuous
 62
     7
100
AcDbLine
 10
1912.858537
 20
1832.993902
 30
0.0
 11
1914.858537
 21
1832.993902
 31
0.0
  0
ARC
  5
3ED
330
207
100
AcDbEntity
  8
7_ALL_FEATURES
  6
Continuous
 62
     7
100
AcDbCircle
 10
1912.858537
 20
1833.493902
 30
0.0
 40
0.5
100
AcDbArc
 50
180.0
 51
270.0
  0
LINE
  5
3EE
330
207
100
AcDbEntity
  8
7_ALL_FEATURES
  6
Continuous
 62
     7
100
AcDbLine
 10
1912.358537
 20
1835.243902
 30
0.0
 11
1912.358537
 21
1833.493902
 31
0.0
  0
LINE
  5
3EF
330
207
100
AcDbEntity
  8
7_ALL_FEATURES
  6
Continuous
 62
     7
100
AcDbLine
 10
1912.358537
 20
1843.993902
 30
0.0
 11
1912.358537
 21
1842.243902
 31
0.0
  0
ARC
  5
3F0
330
207
100
AcDbEntity
  8
7_ALL_FEATURES
  6
Continuous
 62
     7
100
AcDbCircle
 10
1912.858537
 20
1843.993902
 30
0.0
 40
0.5
100
AcDbArc
 50
90.0
 51
180.0
  0
LINE
  5
3F1
330
207
100
AcDbEntity
  8
7_ALL_FEATURES
  6
Continuous
 62
     7
100
AcDbLine
 10
1914.858537
 20
1844.493902
 30
0.0
 11
1912.858537
 21
1844.493902
 31
0.0
  0
ARC
  5
3F2
330
207
100
AcDbEntity
  8
7_ALL_FEATURES
  6
Continuous
 62
     7
100
AcDbCircle
 10
1914.858537
 20
1844.993902
 30
0.0
 40
0.5
100
AcDbArc
 50
270.0
 51
360.0
  0
LINE
  5
3F3
330
207
100
AcDbEntity
  8
7_ALL_FEATURES
  6
Continuous
 62
     7
100
AcDbLine
 10
1915.358537
 20
1939.493902
 30
0.0
 11
1915.358537
 21
1844.993902
 31
0.0
  0
ARC
  5
3F4
330
207
100
AcDbEntity
  8
7_ALL_FEATURES
  6
Continuous
 62
     7
100
AcDbCircle
 10
1914.858537
 20
1939.493902
 30
0.0
 40
0.5
100
AcDbArc
 50
0.0
 51
90.0
  0
LINE
  5
3F5
330
207
100
AcDbEntity
  8
7_ALL_FEATURES
  6
Continuous
 62
     7
100
AcDbLine
 10
1912.858537
 20
1939.993902
 30
0.0
 11
1914.858537
 21
1939.993902
 31
0.0
  0
ARC
  5
3F6
330
207
100
AcDbEntity
  8
7_ALL_FEATURES
  6
Continuous
 62
     7
100
AcDbCircle
 10
1912.858537
 20
1940.493902
 30
0.0
 40
0.5
100
AcDbArc
 50
180.0
 51
270.0
  0
LINE
  5
3F7
330
207
100
AcDbEntity
  8
7_ALL_FEATURES
  6
Continuous
 62
     7
100
AcDbLine
 10
1912.358537
 20
1942.243902
 30
0.0
 11
1912.358537
 21
1940.493902
 31
0.0
  0
LINE
  5
3F8
330
207
100
AcDbEntity
  8
7_ALL_FEATURES
  6
Continuous
 62
     7
100
AcDbLine
 10
1912.358537
 20
1950.993902
 30
0.0
 11
1912.358537
 21
1949.243902
 31
0.0
  0
ARC
  5
3F9
330
207
100
AcDbEntity
  8
7_ALL_FEATURES
  6
Continuous
 62
     7
100
AcDbCircle
 10
1912.858537
 20
1950.993902
 30
0.0
 40
0.5
100
AcDbArc
 50
90.0
 51
180.0
  0
LINE
  5
3FA
330
207
100
AcDbEntity
  8
7_ALL_FEATURES
  6
Continuous
 62
     7
100
AcDbLine
 10
1914.858537
 20
1951.493902
 30
0.0
 11
1912.858537
 21
1951.493902
 31
0.0
  0
ARC
  5
3FB
330
207
100
AcDbEntity
  8
7_ALL_FEATURES
  6
Continuous
 62
     7
100
AcDbCircle
 10
1914.858537
 20
1951.993902
 30
0.0
 40
0.5
100
AcDbArc
 50
270.0
 51
360.0
  0
LINE
  5
3FC
330
207
100
AcDbEntity
  8
7_ALL_FEATURES
  6
Continuous
 62
     7
100
AcDbLine
 10
1915.358537
 20
1964.493902
 30
0.0
 11
1915.358537
 21
1951.993902
 31
0.0
  0
ARC
  5
3FD
330
207
100
AcDbEntity
  8
7_ALL_FEATURES
  6
Continuous
 62
     7
100
AcDbCircle
 10
1914.358537
 20
1964.493902
 30
0.0
 40
1.0
100
AcDbArc
 50
0.0
 51
90.0
  0
ARC
  5
3FE
330
207
100
AcDbEntity
  8
7_ALL_FEATURES
  6
Continuous
 62
     7
100
AcDbCircle
 10
1817.958537
 20
1964.493902
 30
0.0
 40
1.0
100
AcDbArc
 50
90.0
 51
180.0
  0
LINE
  5
3FF
330
207
100
AcDbEntity
  8
7_ALL_FEATURES
  6
Continuous
 62
     7
100
AcDbLine
 10
1816.958537
 20
1964.493902
 30
0.0
 11
1816.958537
 21
1951.993902
 31
0.0
  0
ARC
  5
400
330
207
100
AcDbEntity
  8
7_ALL_FEATURES
  6
Continuous
 62
     7
100
AcDbCircle
 10
1817.458537
 20
1951.993902
 30
0.0
 40
0.5
100
AcDbArc
 50
180.0
 51
270.0
  0
LINE
  5
401
330
207
100
AcDbEntity
  8
7_ALL_FEATURES
  6
Continuous
 62
     7
100
AcDbLine
 10
1816.958537
 20
1836.293902
 30
0.0
 11
1816.958537
 21
1838.743902
 31
0.0
  0
LINE
  5
402
330
207
100
AcDbEntity
  8
7_ALL_FEATURES
  6
Continuous
 62
     7
100
AcDbLine
 10
1816.958537
 20
1838.743902
 30
0.0
 11
1816.958537
 21
1841.193902
 31
0.0
  0
LINE
  5
403
330
207
100
AcDbEntity
  8
7_ALL_FEATURES
  6
Continuous
 62
     7
100
AcDbLine
 10
1819.958537
 20
1842.243902
 30
0.0
 11
1818.458537
 21
1842.243902
 31
0.0
  0
LINE
  5
404
330
207
100
AcDbEntity
  8
7_ALL_FEATURES
  6
Continuous
 62
     7
100
AcDbLine
 10
1818.458537
 20
1842.243902
 30
0.0
 11
1816.958537
 21
1842.243902
 31
0.0
  0
LINE
  5
405
330
207
100
AcDbEntity
  8
7_ALL_FEATURES
  6
Continuous
 62
     7
100
AcDbLine
 10
1816.958537
 20
1835.243902
 30
0.0
 11
1817.837216
 21
1835.243902
 31
0.0
  0
LINE
  5
406
330
207
100
AcDbEntity
  8
7_ALL_FEATURES
  6
Continuous
 62
     7
100
AcDbLine
 10
1817.837216
 20
1835.243902
 30
0.0
 11
1818.029829
 21
1835.243902
 31
0.0
  0
LINE
  5
407
330
207
100
AcDbEntity
  8
7_ALL_FEATURES
  6
Continuous
 62
     7
100
AcDbLine
 10
1818.029829
 20
1835.243902
 30
0.0
 11
1818.458537
 21
1835.243902
 31
0.0
  0
LINE
  5
408
330
207
100
AcDbEntity
  8
7_ALL_FEATURES
  6
Continuous
 62
     7
100
AcDbLine
 10
1818.458537
 20
1835.243902
 30
0.0
 11
1819.958537
 21
1835.243902
 31
0.0
  0
SPLINE
  5
409
330
207
100
AcDbEntity
  8
7_ALL_FEATURES
  6
Continuous
 62
     7
100
AcDbSpline
 70
     0
 71
     3
 72
     9
 73
     5
 74
     0
 42
0.000000001
 43
0.0000001
 40
0.0
 40
0.0
 40
0.0
 40
0.0
 40
0.5063802172
 40
1.0
 40
1.0
 40
1.0
 40
1.0
 10
1819.7169033674
 20
1838.743902439
 30
0.0
 10
1819.7169033674
 20
1838.4403473576
 30
0.0
 10
1819.4281818786
 20
1837.8407130654
 30
0.0
 10
1818.9015735568
 20
1837.5200962212
 30
0.0
 10
1818.6277806658
 20
1837.4078570258
 30
0.0
  0
ARC
  5
40A
330
207
100
AcDbEntity
  8
7_ALL_FEATURES
  6
Continuous
 62
     7
100
AcDbCircle
 10
1817.73456
 20
1839.586717
 30
0.0
 40
2.3548402279
100
AcDbArc
 50
287.896671
 51
292.2911
  0
SPLINE
  5
40B
330
207
100
AcDbEntity
  8
7_ALL_FEATURES
  6
Continuous
 62
     7
100
AcDbSpline
 70
     0
 71
     3
 72
     9
 73
     5
 74
     0
 42
0.000000001
 43
0.0000001
 40
0.0
 40
0.0
 40
0.0
 40
0.0
 40
0.2691084694
 40
1.0
 40
1.0
 40
1.0
 40
1.0
 10
1818.4582060378
 20
1837.3458220437
 30
0.0
 10
1818.4061636211
 20
1837.3290180797
 30
0.0
 10
1818.2107716094
 20
1837.2733713011
 30
0.0
 10
1818.0069992997
 20
1837.243902439
 30
0.0
 10
1817.8584679055
 20
1837.243902439
 30
0.0
  0
LINE
  5
40C
330
207
100
AcDbEntity
  8
7_ALL_FEATURES
  6
Continuous
 62
     7
100
AcDbLine
 10
1817.458537
 20
1951.493902
 30
0.0
 11
1819.458537
 21
1951.493902
 31
0.0
  0
ARC
  5
40D
330
207
100
AcDbEntity
  8
7_ALL_FEATURES
  6
Continuous
 62
     7
100
AcDbCircle
 10
1819.458537
 20
1950.993902
 30
0.0
 40
0.5
100
AcDbArc
 50
0.0
 51
90.0
  0
LINE
  5
40E
330
207
100
AcDbEntity
  8
7_ALL_FEATURES
  6
Continuous
 62
     7
100
AcDbLine
 10
1819.958537
 20
1950.993902
 30
0.0
 11
1819.958537
 21
1949.243902
 31
0.0
  0
LINE
  5
40F
330
207
100
AcDbEntity
  8
7_ALL_FEATURES
  6
Continuous
 62
     7
100
AcDbLine
 10
1819.958537
 20
1942.243902
 30
0.0
 11
1819.958537
 21
1940.493902
 31
0.0
  0
ARC
  5
410
330
207
100
AcDbEntity
  8
7_ALL_FEATURES
  6
Continuous
 62
     7
100
AcDbCircle
 10
1819.458537
 20
1940.493902
 30
0.0
 40
0.5
100
AcDbArc
 50
270.0
 51
360.0
  0
LINE
  5
411
330
207
100
AcDbEntity
  8
7_ALL_FEATURES
  6
Continuous
 62
     7
100
AcDbLine
 10
1819.458537
 20
1939.993902
 30
0.0
 11
1817.458537
 21
1939.993902
 31
0.0
  0
ARC
  5
412
330
207
100
AcDbEntity
  8
7_ALL_FEATURES
  6
Continuous
 62
     7
100
AcDbCircle
 10
1817.458537
 20
1939.493902
 30
0.0
 40
0.5
100
AcDbArc
 50
90.0
 51
180.0
  0
LINE
  5
413
330
207
100
AcDbEntity
  8
7_ALL_FEATURES
  6
Continuous
 62
     7
100
AcDbLine
 10
1816.958537
 20
1939.493902
 30
0.0
 11
1816.958537
 21
1844.993902
 31
0.0
  0
ARC
  5
414
330
207
100
AcDbEntity
  8
7_ALL_FEATURES
  6
Continuous
 62
     7
100
AcDbCircle
 10
1817.458537
 20
1844.993902
 30
0.0
 40
0.5
100
AcDbArc
 50
180.0
 51
270.0
  0
LINE
  5
415
330
207
100
AcDbEntity
  8
7_ALL_FEATURES
  6
Continuous
 62
     7
100
AcDbLine
 10
1817.458537
 20
1844.493902
 30
0.0
 11
1819.458537
 21
1844.493902
 31
0.0
  0
ARC
  5
416
330
207
100
AcDbEntity
  8
7_ALL_FEATURES
  6
Continuous
 62
     7
100
AcDbCircle
 10
1819.458537
 20
1843.993902
 30
0.0
 40
0.5
100
AcDbArc
 50
0.0
 51
90.0
  0
LINE
  5
417
330
207
100
AcDbEntity
  8
7_ALL_FEATURES
  6
Continuous
 62
     7
100
AcDbLine
 10
1819.958537
 20
1843.993902
 30
0.0
 11
1819.958537
 21
1842.243902
 31
0.0
  0
LINE
  5
418
330
207
100
AcDbEntity
  8
7_ALL_FEATURES
  6
Continuous
 62
     7
100
AcDbLine
 10
1818.958537
 20
1814.993902
 30
0.0
 11
1913.358537
 21
1814.993902
 31
0.0
  0
LINE
  5
419
330
207
100
AcDbEntity
  8
7_ALL_FEATURES
  6
Continuous
 62
     7
100
AcDbLine
 10
1816.958537
 20
1943.293902
 30
0.0
 11
1816.958537
 21
1945.743902
 31
0.0
  0
LINE
  5
41A
330
207
100
AcDbEntity
  8
7_ALL_FEATURES
  6
Continuous
 62
     7
100
AcDbLine
 10
1816.958537
 20
1945.743902
 30
0.0
 11
1816.958537
 21
1948.193902
 31
0.0
  0
LINE
  5
41B
330
207
100
AcDbEntity
  8
7_ALL_FEATURES
  6
Continuous
 62
     7
100
AcDbLine
 10
1819.958537
 20
1949.243902
 30
0.0
 11
1818.458537
 21
1949.243902
 31
0.0
  0
LINE
  5
41C
330
207
100
AcDbEntity
  8
7_ALL_FEATURES
  6
Continuous
 62
     7
100
AcDbLine
 10
1818.458537
 20
1949.243902
 30
0.0
 11
1816.958537
 21
1949.243902
 31
0.0
  0
LINE
  5
41D
330
207
100
AcDbEntity
  8
7_ALL_FEATURES
  6
Continuous
 62
     7
100
AcDbLine
 10
1816.958537
 20
1942.243902
 30
0.0
 11
1817.837216
 21
1942.243902
 31
0.0
  0
LINE
  5
41E
330
207
100
AcDbEntity
  8
7_ALL_FEATURES
  6
Continuous
 62
     7
100
AcDbLine
 10
1817.837216
 20
1942.243902
 30
0.0
 11
1818.029829
 21
1942.243902
 31
0.0
  0
LINE
  5
41F
330
207
100
AcDbEntity
  8
7_ALL_FEATURES
  6
Continuous
 62
     7
100
AcDbLine
 10
1818.029829
 20
1942.243902
 30
0.0
 11
1818.458537
 21
1942.243902
 31
0.0
  0
LINE
  5
420
330
207
100
AcDbEntity
  8
7_ALL_FEATURES
  6
Continuous
 62
     7
100
AcDbLine
 10
1818.458537
 20
1942.243902
 30
0.0
 11
1819.958537
 21
1942.243902
 31
0.0
  0
SPLINE
  5
421
330
207
100
AcDbEntity
  8
7_ALL_FEATURES
  6
Continuous
 62
     7
100
AcDbSpline
 70
     0
 71
     3
 72
     9
 73
     5
 74
     0
 42
0.000000001
 43
0.0000001
 40
0.0
 40
0.0
 40
0.0
 40
0.0
 40
0.5063802172
 40
1.0
 40
1.0
 40
1.0
 40
1.0
 10
1819.7169033674
 20
1945.743902439
 30
0.0
 10
1819.7169033674
 20
1945.4403473576
 30
0.0
 10
1819.4281818786
 20
1944.8407130654
 30
0.0
 10
1818.9015735568
 20
1944.5200962212
 30
0.0
 10
1818.6277806658
 20
1944.4078570258
 30
0.0
  0
ARC
  5
422
330
207
100
AcDbEntity
  8
7_ALL_FEATURES
  6
Continuous
 62
     7
100
AcDbCircle
 10
1817.73456
 20
1946.586717
 30
0.0
 40
2.3548402281
100
AcDbArc
 50
287.896671
 51
292.2911
  0
SPLINE
  5
423
330
207
100
AcDbEntity
  8
7_ALL_FEATURES
  6
Continuous
 62
     7
100
AcDbSpline
 70
     0
 71
     3
 72
     9
 73
     5
 74
     0
 42
0.000000001
 43
0.0000001
 40
0.0
 40
0.0
 40
0.0
 40
0.0
 40
0.2691084694
 40
1.0
 40
1.0
 40
1.0
 40
1.0
 10
1818.4582060378
 20
1944.3458220437
 30
0.0
 10
1818.4061636211
 20
1944.3290180797
 30
0.0
 10
1818.2107716094
 20
1944.2733713011
 30
0.0
 10
1818.0069992997
 20
1944.243902439
 30
0.0
 10
1817.8584679055
 20
1944.243902439
 30
0.0
  0
LINE
  5
424
330
207
100
AcDbEntity
  8
7_ALL_FEATURES
  6
Continuous
 62
     7
100
AcDbLine
 10
1914.358537
 20
1965.493902
 30
0.0
 11
1817.958537
 21
1965.493902
 31
0.0
  0
ARC
  5
425
330
207
100
AcDbEntity
  8
7_ALL_FEATURES
  6
Continuous
 62
     7
100
AcDbCircle
 10
1866.158537
 20
1843.493902
 30
0.0
 40
16.5
100
AcDbArc
 50
1.736502
 51
178.263498
  0
ARC
  5
426
330
207
100
AcDbEntity
  8
7_ALL_FEATURES
  6
Continuous
 62
     7
100
AcDbCircle
 10
1866.158537
 20
1843.493902
 30
0.0
 40
15.5
100
AcDbArc
 50
1.848572
 51
178.151428
  0
ARC
  5
427
330
207
100
AcDbEntity
  8
7_ALL_FEATURES
  6
Continuous
 62
     7
100
AcDbCircle
 10
1866.158537
 20
1843.493902
 30
0.0
 40
15.4999996154
100
AcDbArc
 50
181.848572
 51
358.151428
  0
ARC
  5
428
330
207
100
AcDbEntity
  8
7_ALL_FEATURES
  6
Continuous
 62
     7
100
AcDbCircle
 10
1866.158537
 20
1843.493902
 30
0.0
 40
16.5000004973
100
AcDbArc
 50
181.736502
 51
358.263498
  0
SPLINE
  5
429
330
207
100
AcDbEntity
  8
7_ALL_FEATURES
  6
Continuous
 62
     7
100
AcDbSpline
 70
     0
 71
     3
 72
     9
 73
     5
 74
     0
 42
0.000000001
 43
0.0000001
 40
0.0
 40
0.0
 40
0.0
 40
0.0
 40
0.5063833529
 40
1.0
 40
1.0
 40
1.0
 40
1.0
 10
1912.6001698034
 20
1945.743902439
 30
0.0
 10
1912.6001698034
 20
1945.4403487812
 30
0.0
 10
1912.8888862801
 20
1944.8407204198
 30
0.0
 10
1913.4154866112
 20
1944.5201044363
 30
0.0
 10
1913.6892737906
 20
1944.4078647535
 30
0.0
  0
ARC
  5
42A
330
207
100
AcDbEntity
  8
7_ALL_FEATURES
  6
Continuous
 62
     7
100
AcDbCircle
 10
1914.582514
 20
1946.586719
 30
0.0
 40
2.3548428678
100
AcDbArc
 50
247.708395
 51
252.103314
  0
SPLINE
  5
42B
330
207
100
AcDbEntity
  8
7_ALL_FEATURES
  6
Continuous
 62
     7
100
AcDbSpline
 70
     0
 71
     3
 72
     9
 73
     5
 74
     0
 42
0.000000001
 43
0.0000001
 40
0.0
 40
0.0
 40
0.0
 40
0.0
 40
0.2691080917
 40
1.0
 40
1.0
 40
1.0
 40
1.0
 10
1913.8588672717
 20
1944.3458220016
 30
0.0
 10
1913.9109095991
 20
1944.3290180513
 30
0.0
 10
1914.1063015481
 20
1944.2733712137
 30
0.0
 10
1914.3100738282
 20
1944.243902439
 30
0.0
 10
1914.4586052653
 20
1944.243902439
 30
0.0
  0
LINE
  5
42C
330
207
100
AcDbEntity
  8
7_ALL_FEATURES
  6
Continuous
 62
     7
100
AcDbLine
 10
1912.358537
 20
1949.243902
 30
0.0
 11
1913.858537
 21
1949.243902
 31
0.0
  0
LINE
  5
42D
330
207
100
AcDbEntity
  8
7_ALL_FEATURES
  6
Continuous
 62
     7
100
AcDbLine
 10
1913.858537
 20
1949.243902
 30
0.0
 11
1915.358537
 21
1949.243902
 31
0.0
  0
LINE
  5
42E
330
207
100
AcDbEntity
  8
7_ALL_FEATURES
  6
Continuous
 62
     7
100
AcDbLine
 10
1915.358537
 20
1942.243902
 30
0.0
 11
1914.479857
 21
1942.243902
 31
0.0
  0
LINE
  5
42F
330
207
100
AcDbEntity
  8
7_ALL_FEATURES
  6
Continuous
 62
     7
100
AcDbLine
 10
1914.479857
 20
1942.243902
 30
0.0
 11
1914.287245
 21
1942.243902
 31
0.0
  0
LINE
  5
430
330
207
100
AcDbEntity
  8
7_ALL_FEATURES
  6
Continuous
 62
     7
100
AcDbLine
 10
1914.287245
 20
1942.243902
 30
0.0
 11
1913.858537
 21
1942.243902
 31
0.0
  0
LINE
  5
431
330
207
100
AcDbEntity
  8
7_ALL_FEATURES
  6
Continuous
 62
     7
100
AcDbLine
 10
1913.858537
 20
1942.243902
 30
0.0
 11
1912.358537
 21
1942.243902
 31
0.0
  0
LINE
  5
432
330
207
100
AcDbEntity
  8
7_ALL_FEATURES
  6
Continuous
 62
     7
100
AcDbLine
 10
1915.358537
 20
1836.293902
 30
0.0
 11
1915.358537
 21
1838.743902
 31
0.0
  0
LINE
  5
433
330
207
100
AcDbEntity
  8
7_ALL_FEATURES
  6
Continuous
 62
     7
100
AcDbLine
 10
1915.358537
 20
1838.743902
 30
0.0
 11
1915.358537
 21
1841.193902
 31
0.0
  0
LINE
  5
434
330
207
100
AcDbEntity
  8
7_ALL_FEATURES
  6
Continuous
 62
     7
100
AcDbLine
 10
1915.358537
 20
1835.243902
 30
0.0
 11
1914.479857
 21
1835.243902
 31
0.0
  0
LINE
  5
435
330
207
100
AcDbEntity
  8
7_ALL_FEATURES
  6
Continuous
 62
     7
100
AcDbLine
 10
1914.479857
 20
1835.243902
 30
0.0
 11
1914.287245
 21
1835.243902
 31
0.0
  0
LINE
  5
436
330
207
100
AcDbEntity
  8
7_ALL_FEATURES
  6
Continuous
 62
     7
100
AcDbLine
 10
1914.287245
 20
1835.243902
 30
0.0
 11
1913.858537
 21
1835.243902
 31
0.0
  0
LINE
  5
437
330
207
100
AcDbEntity
  8
7_ALL_FEATURES
  6
Continuous
 62
     7
100
AcDbLine
 10
1913.858537
 20
1835.243902
 30
0.0
 11
1912.358537
 21
1835.243902
 31
0.0
  0
LINE
  5
438
330
207
100
AcDbEntity
  8
7_ALL_FEATURES
  6
Continuous
 62
     7
100
AcDbLine
 10
1912.358537
 20
1842.243902
 30
0.0
 11
1913.858537
 21
1842.243902
 31
0.0
  0
LINE
  5
439
330
207
100
AcDbEntity
  8
7_ALL_FEATURES
  6
Continuous
 62
     7
100
AcDbLine
 10
1913.858537
 20
1842.243902
 30
0.0
 11
1915.358537
 21
1842.243902
 31
0.0
  0
SPLINE
  5
43A
330
207
100
AcDbEntity
  8
7_ALL_FEATURES
  6
Continuous
 62
     7
100
AcDbSpline
 70
     0
 71
     3
 72
     9
 73
     5
 74
     0
 42
0.000000001
 43
0.0000001
 40
0.0
 40
0.0
 40
0.0
 40
0.0
 40
0.5063836144
 40
1.0
 40
1.0
 40
1.0
 40
1.0
 10
1912.6001698034
 20
1838.743902439
 30
0.0
 10
1912.6001698034
 20
1838.4403488933
 30
0.0
 10
1912.888885874
 20
1837.8407210133
 30
0.0
 10
1913.4154855564
 20
1837.5201051039
 30
0.0
 10
1913.6892722674
 20
1837.4078653827
 30
0.0
  0
ARC
  5
43B
330
207
100
AcDbEntity
  8
7_ALL_FEATURES
  6
Continuous
 62
     7
100
AcDbCircle
 10
1914.582514
 20
1839.586719
 30
0.0
 40
2.3548430791
100
AcDbArc
 50
247.708354
 51
252.103313
  0
SPLINE
  5
43C
330
207
100
AcDbEntity
  8
7_ALL_FEATURES
  6
Continuous
 62
     7
100
AcDbSpline
 70
     0
 71
     3
 72
     9
 73
     5
 74
     0
 42
0.000000001
 43
0.0000001
 40
0.0
 40
0.0
 40
0.0
 40
0.0
 40
0.2691080604
 40
1.0
 40
1.0
 40
1.0
 40
1.0
 10
1913.8588672833
 20
1837.3458219981
 30
0.0
 10
1913.9109096032
 20
1837.329018049
 30
0.0
 10
1914.106301547
 20
1837.2733712066
 30
0.0
 10
1914.3100738246
 20
1837.243902439
 30
0.0
 10
1914.4586052653
 20
1837.243902439
 30
0.0
  0
LINE
  5
43D
330
207
100
AcDbEntity
  8
7_ALL_FEATURES
  6
Continuous
 62
     7
100
AcDbLine
 10
1915.358537
 20
1943.293902
 30
0.0
 11
1915.358537
 21
1945.743902
 31
0.0
  0
LINE
  5
43E
330
207
100
AcDbEntity
  8
7_ALL_FEATURES
  6
Continuous
 62
     7
100
AcDbLine
 10
1915.358537
 20
1945.743902
 30
0.0
 11
1915.358537
 21
1948.193902
 31
0.0
  0
SPLINE
  5
43F
330
207
100
AcDbEntity
  8
7_ALL_FEATURES
  6
Continuous
 62
     7
100
AcDbSpline
 70
     0
 71
     3
 72
    11
 73
     7
 74
     0
 42
0.000000001
 43
0.0000001
 40
0.0
 40
0.0
 40
0.0
 40
0.0
 40
0.332378075
 40
0.5798594952
 40
0.7763316305
 40
1.0
 40
1.0
 40
1.0
 40
1.0
 10
1816.9736949784
 20
1945.743902439
 30
0.0
 10
1816.9736949784
 20
1945.9655511359
 30
0.0
 10
1816.981643273
 20
1946.3485818822
 30
0.0
 10
1817.0749483782
 20
1946.8758075627
 30
0.0
 10
1817.4164926539
 20
1947.2079222536
 30
0.0
 10
1817.7093130533
 20
1947.243902439
 30
0.0
 10
1817.8584679055
 20
1947.243902439
 30
0.0
  0
LINE
  5
440
330
207
100
AcDbEntity
  8
7_ALL_FEATURES
  6
Continuous
 62
     9
100
AcDbLine
 10
1912.358537
 20
1942.243902
 30
0.0
 11
1912.358537
 21
1949.243902
 31
0.0
  0
LINE
  5
441
330
207
100
AcDbEntity
  8
7_ALL_FEATURES
  6
Continuous
 62
     9
100
AcDbLine
 10
1819.958537
 20
1835.243902
 30
0.0
 11
1819.958537
 21
1842.243902
 31
0.0
  0
SPLINE
  5
442
330
207
100
AcDbEntity
  8
7_ALL_FEATURES
  6
Continuous
 62
     7
100
AcDbSpline
 70
     0
 71
     3
 72
    11
 73
     7
 74
     0
 42
0.000000001
 43
0.0000001
 40
0.0
 40
0.0
 40
0.0
 40
0.0
 40
0.2236683695
 40
0.4201405048
 40
0.667621925
 40
1.0
 40
1.0
 40
1.0
 40
1.0
 10
1817.8584679055
 20
1837.243902439
 30
0.0
 10
1817.7093130533
 20
1837.243902439
 30
0.0
 10
1817.4164926539
 20
1837.2798826244
 30
0.0
 10
1817.0749483782
 20
1837.6119973153
 30
0.0
 10
1816.981643273
 20
1838.1392229958
 30
0.0
 10
1816.9736949784
 20
1838.5222537421
 30
0.0
 10
1816.9736949784
 20
1838.743902439
 30
0.0
  0
SPLINE
  5
443
330
207
100
AcDbEntity
  8
7_ALL_FEATURES
  6
Continuous
 62
     7
100
AcDbSpline
 70
     0
 71
     3
 72
    11
 73
     7
 74
     0
 42
0.000000001
 43
0.0000001
 40
0.0
 40
0.0
 40
0.0
 40
0.0
 40
0.3323831949
 40
0.5798601401
 40
0.7763315386
 40
1.0
 40
1.0
 40
1.0
 40
1.0
 10
1915.3433781923
 20
1945.743902439
 30
0.0
 10
1915.3433781923
 20
1945.9655545589
 30
0.0
 10
1915.3354301518
 20
1946.3485859391
 30
0.0
 10
1915.2421220365
 20
1946.875810582
 30
0.0
 10
1914.9005801425
 20
1947.2079222906
 30
0.0
 10
1914.6077601846
 20
1947.243902439
 30
0.0
 10
1914.4586052653
 20
1947.243902439
 30
0.0
  0
LINE
  5
444
330
207
100
AcDbEntity
  8
7_ALL_FEATURES
  6
Continuous
 62
     9
100
AcDbLine
 10
1913.858537
 20
1949.343902
 30
0.0
 11
1915.158537
 21
1949.343902
 31
0.0
  0
LINE
  5
445
330
207
100
AcDbEntity
  8
7_ALL_FEATURES
  6
Continuous
 62
     9
100
AcDbLine
 10
1915.158537
 20
1949.343902
 30
0.0
 11
1915.358537
 21
1949.343902
 31
0.0
  0
LINE
  5
446
330
207
100
AcDbEntity
  8
7_ALL_FEATURES
  6
Continuous
 62
     9
100
AcDbLine
 10
1912.358537
 20
1835.243902
 30
0.0
 11
1912.358537
 21
1842.243902
 31
0.0
  0
SPLINE
  5
447
330
207
100
AcDbEntity
  8
7_ALL_FEATURES
  6
Continuous
 62
     7
100
AcDbSpline
 70
     0
 71
     3
 72
    11
 73
     7
 74
     0
 42
0.000000001
 43
0.0000001
 40
0.0
 40
0.0
 40
0.0
 40
0.0
 40
0.2236683695
 40
0.4201405048
 40
0.667621925
 40
1.0
 40
1.0
 40
1.0
 40
1.0
 10
1817.8584679055
 20
1944.243902439
 30
0.0
 10
1817.7093130533
 20
1944.243902439
 30
0.0
 10
1817.4164926539
 20
1944.2798826244
 30
0.0
 10
1817.0749483782
 20
1944.6119973153
 30
0.0
 10
1816.981643273
 20
1945.1392229958
 30
0.0
 10
1816.9736949784
 20
1945.5222537421
 30
0.0
 10
1816.9736949784
 20
1945.743902439
 30
0.0
  0
LINE
  5
448
330
207
100
AcDbEntity
  8
7_ALL_FEATURES
  6
Continuous
 62
     9
100
AcDbLine
 10
1819.958537
 20
1942.243902
 30
0.0
 11
1819.958537
 21
1949.243902
 31
0.0
  0
LINE
  5
449
330
207
100
AcDbEntity
  8
7_ALL_FEATURES
  6
Continuous
 62
     9
100
AcDbLine
 10
1818.458537
 20
1835.143902
 30
0.0
 11
1817.158537
 21
1835.143902
 31
0.0
  0
LINE
  5
44A
330
207
100
AcDbEntity
  8
7_ALL_FEATURES
  6
Continuous
 62
     9
100
AcDbLine
 10
1817.158537
 20
1835.143902
 30
0.0
 11
1816.958537
 21
1835.143902
 31
0.0
  0
LINE
  5
44B
330
207
100
AcDbEntity
  8
7_ALL_FEATURES
  6
Continuous
 62
     9
100
AcDbLine
 10
1818.458537
 20
1842.343902
 30
0.0
 11
1817.158537
 21
1842.343902
 31
0.0
  0
LINE
  5
44C
330
207
100
AcDbEntity
  8
7_ALL_FEATURES
  6
Continuous
 62
     9
100
AcDbLine
 10
1817.158537
 20
1842.343902
 30
0.0
 11
1816.958537
 21
1842.343902
 31
0.0
  0
SPLINE
  5
44D
330
207
100
AcDbEntity
  8
7_ALL_FEATURES
  6
Continuous
 62
     7
100
AcDbSpline
 70
     0
 71
     3
 72
    11
 73
     7
 74
     0
 42
0.000000001
 43
0.0000001
 40
0.0
 40
0.0
 40
0.0
 40
0.0
 40
0.2236684614
 40
0.4201398599
 40
0.6676168051
 40
1.0
 40
1.0
 40
1.0
 40
1.0
 10
1914.4586052653
 20
1944.243902439
 30
0.0
 10
1914.6077601846
 20
1944.243902439
 30
0.0
 10
1914.9005801425
 20
1944.2798825875
 30
0.0
 10
1915.2421220365
 20
1944.6119942961
 30
0.0
 10
1915.3354301518
 20
1945.139218939
 30
0.0
 10
1915.3433781923
 20
1945.5222503192
 30
0.0
 10
1915.3433781923
 20
1945.743902439
 30
0.0
  0
SPLINE
  5
44E
330
207
100
AcDbEntity
  8
7_ALL_FEATURES
  6
Continuous
 62
     7
100
AcDbSpline
 70
     0
 71
     3
 72
    11
 73
     7
 74
     0
 42
0.000000001
 43
0.0000001
 40
0.0
 40
0.0
 40
0.0
 40
0.0
 40
0.3323836211
 40
0.5798601943
 40
0.7763315314
 40
1.0
 40
1.0
 40
1.0
 40
1.0
 10
1915.3433781923
 20
1838.743902439
 30
0.0
 10
1915.3433781923
 20
1838.9655548438
 30
0.0
 10
1915.3354301733
 20
1839.3485862771
 30
0.0
 10
1915.2421218068
 20
1839.875810834
 30
0.0
 10
1914.9005801106
 20
1840.2079222937
 30
0.0
 10
1914.6077601899
 20
1840.243902439
 30
0.0
 10
1914.4586052653
 20
1840.243902439
 30
0.0
  0
LINE
  5
44F
330
207
100
AcDbEntity
  8
7_ALL_FEATURES
  6
Continuous
 62
     9
100
AcDbLine
 10
1913.858537
 20
1842.343902
 30
0.0
 11
1915.158537
 21
1842.343902
 31
0.0
  0
LINE
  5
450
330
207
100
AcDbEntity
  8
7_ALL_FEATURES
  6
Continuous
 62
     9
100
AcDbLine
 10
1915.158537
 20
1842.343902
 30
0.0
 11
1915.358537
 21
1842.343902
 31
0.0
  0
LINE
  5
451
330
207
100
AcDbEntity
  8
7_ALL_FEATURES
  6
Continuous
 62
     9
100
AcDbLine
 10
1818.458537
 20
1942.143902
 30
0.0
 11
1817.158537
 21
1942.143902
 31
0.0
  0
LINE
  5
452
330
207
100
AcDbEntity
  8
7_ALL_FEATURES
  6
Continuous
 62
     9
100
AcDbLine
 10
1817.158537
 20
1942.143902
 30
0.0
 11
1816.958537
 21
1942.143902
 31
0.0
  0
LINE
  5
453
330
207
100
AcDbEntity
  8
7_ALL_FEATURES
  6
Continuous
 62
     9
100
AcDbLine
 10
1913.858537
 20
1942.143902
 30
0.0
 11
1915.158537
 21
1942.143902
 31
0.0
  0
LINE
  5
454
330
207
100
AcDbEntity
  8
7_ALL_FEATURES
  6
Continuous
 62
     9
100
AcDbLine
 10
1915.158537
 20
1942.143902
 30
0.0
 11
1915.358537
 21
1942.143902
 31
0.0
  0
SPLINE
  5
455
330
207
100
AcDbEntity
  8
7_ALL_FEATURES
  6
Continuous
 62
     7
100
AcDbSpline
 70
     0
 71
     3
 72
    11
 73
     7
 74
     0
 42
0.000000001
 43
0.0000001
 40
0.0
 40
0.0
 40
0.0
 40
0.0
 40
0.2236684686
 40
0.4201398057
 40
0.6676163789
 40
1.0
 40
1.0
 40
1.0
 40
1.0
 10
1914.4586052653
 20
1837.243902439
 30
0.0
 10
1914.6077601899
 20
1837.243902439
 30
0.0
 10
1914.9005801106
 20
1837.2798825843
 30
0.0
 10
1915.2421218068
 20
1837.6119940441
 30
0.0
 10
1915.3354301733
 20
1838.1392186009
 30
0.0
 10
1915.3433781923
 20
1838.5222500343
 30
0.0
 10
1915.3433781923
 20
1838.743902439
 30
0.0
  0
LINE
  5
456
330
207
100
AcDbEntity
  8
7_ALL_FEATURES
  6
Continuous
 62
     9
100
AcDbLine
 10
1913.858537
 20
1835.143902
 30
0.0
 11
1915.158537
 21
1835.143902
 31
0.0
  0
LINE
  5
457
330
207
100
AcDbEntity
  8
7_ALL_FEATURES
  6
Continuous
 62
     9
100
AcDbLine
 10
1915.158537
 20
1835.143902
 30
0.0
 11
1915.358537
 21
1835.143902
 31
0.0
  0
LINE
  5
458
330
207
100
AcDbEntity
  8
7_ALL_FEATURES
  6
Continuous
 62
     9
100
AcDbLine
 10
1818.458537
 20
1949.343902
 30
0.0
 11
1817.158537
 21
1949.343902
 31
0.0
  0
LINE
  5
459
330
207
100
AcDbEntity
  8
7_ALL_FEATURES
  6
Continuous
 62
     9
100
AcDbLine
 10
1817.158537
 20
1949.343902
 30
0.0
 11
1816.958537
 21
1949.343902
 31
0.0
  0
LINE
  5
45A
330
207
100
AcDbEntity
  8
7_ALL_FEATURES
  6
Continuous
 62
     9
100
AcDbLine
 10
1818.466116
 20
1945.743902
 30
0.0
 11
1816.973695
 21
1945.743902
 31
0.0
  0
LINE
  5
45B
330
207
100
AcDbEntity
  8
7_ALL_FEATURES
  6
Continuous
 62
     9
100
AcDbLine
 10
1818.466116
 20
1838.743902
 30
0.0
 11
1816.973695
 21
1838.743902
 31
0.0
  0
SPLINE
  5
45C
330
207
100
AcDbEntity
  8
7_ALL_FEATURES
  6
Continuous
 62
     7
100
AcDbSpline
 70
     0
 71
     3
 72
    11
 73
     7
 74
     0
 42
0.000000001
 43
0.0000001
 40
0.0
 40
0.0
 40
0.0
 40
0.0
 40
0.332378075
 40
0.5798594952
 40
0.7763316305
 40
1.0
 40
1.0
 40
1.0
 40
1.0
 10
1816.9736949784
 20
1838.743902439
 30
0.0
 10
1816.9736949784
 20
1838.9655511359
 30
0.0
 10
1816.981643273
 20
1839.3485818822
 30
0.0
 10
1817.0749483782
 20
1839.8758075627
 30
0.0
 10
1817.4164926539
 20
1840.2079222536
 30
0.0
 10
1817.7093130533
 20
1840.243902439
 30
0.0
 10
1817.8584679055
 20
1840.243902439
 30
0.0
  0
LINE
  5
45D
330
207
100
AcDbEntity
  8
7_ALL_FEATURES
  6
Continuous
 62
     9
100
AcDbLine
 10
1913.850957
 20
1838.743902
 30
0.0
 11
1915.343378
 21
1838.743902
 31
0.0
  0
LINE
  5
45E
330
207
100
AcDbEntity
  8
7_ALL_FEATURES
  6
Continuous
 62
     9
100
AcDbLine
 10
1913.850957
 20
1945.743902
 30
0.0
 11
1915.343378
 21
1945.743902
 31
0.0
  0
LINE
  5
45F
330
207
100
AcDbEntity
  8
7_ALL_FEATURES
  6
Continuous
 62
     7
100
AcDbLine
 10
1817.958537
 20
1965.493902
 30
0.0
 11
1817.158537
 21
1965.493902
 31
0.0
  0
ARC
  5
460
330
207
100
AcDbEntity
  8
7_ALL_FEATURES
  6
Continuous
 62
     7
100
AcDbCircle
 10
1817.158537
 20
1965.293902
 30
0.0
 40
0.2
100
AcDbArc
 50
90.0
 51
180.0
  0
LINE
  5
461
330
207
100
AcDbEntity
  8
7_ALL_FEATURES
  6
Continuous
 62
     7
100
AcDbLine
 10
1816.958537
 20
1965.293902
 30
0.0
 11
1816.958537
 21
1964.493902
 31
0.0
  0
LINE
  5
462
330
207
100
AcDbEntity
  8
7_ALL_FEATURES
  6
Continuous
 62
     7
100
AcDbLine
 10
1816.958537
 20
1951.993902
 30
0.0
 11
1816.958537
 21
1951.693902
 31
0.0
  0
ARC
  5
463
330
207
100
AcDbEntity
  8
7_ALL_FEATURES
  6
Continuous
 62
     7
100
AcDbCircle
 10
1816.758537
 20
1951.693902
 30
0.0
 40
0.2
100
AcDbArc
 50
270.0
 51
360.0
  0
LINE
  5
464
330
207
100
AcDbEntity
  8
7_ALL_FEATURES
  6
Continuous
 62
     7
100
AcDbLine
 10
1816.758537
 20
1951.493902
 30
0.0
 11
1815.958537
 21
1951.493902
 31
0.0
  0
ARC
  5
465
330
207
100
AcDbEntity
  8
7_ALL_FEATURES
  6
Continuous
 62
     7
100
AcDbCircle
 10
1815.958537
 20
1950.993902
 30
0.0
 40
0.5
100
AcDbArc
 50
90.0
 51
180.0
  0
LINE
  5
466
330
207
100
AcDbEntity
  8
7_ALL_FEATURES
  6
Continuous
 62
     7
100
AcDbLine
 10
1815.458537
 20
1950.993902
 30
0.0
 11
1815.458537
 21
1948.493902
 31
0.0
  0
ARC
  5
467
330
207
100
AcDbEntity
  8
7_ALL_FEATURES
  6
Continuous
 62
     7
100
AcDbCircle
 10
1815.958537
 20
1948.493902
 30
0.0
 40
0.5
100
AcDbArc
 50
180.0
 51
270.0
  0
LINE
  5
468
330
207
100
AcDbEntity
  8
7_ALL_FEATURES
  6
Continuous
 62
     7
100
AcDbLine
 10
1815.958537
 20
1947.993902
 30
0.0
 11
1816.758537
 21
1947.993902
 31
0.0
  0
ARC
  5
469
330
207
100
AcDbEntity
  8
7_ALL_FEATURES
  6
Continuous
 62
     7
100
AcDbCircle
 10
1816.758537
 20
1948.193902
 30
0.0
 40
0.2
100
AcDbArc
 50
270.0
 51
360.0
  0
LINE
  5
46A
330
207
100
AcDbEntity
  8
7_ALL_FEATURES
  6
Continuous
 62
     7
100
AcDbLine
 10
1816.958537
 20
1948.193902
 30
0.0
 11
1816.958537
 21
1949.293902
 31
0.0
  0
ARC
  5
46B
330
207
100
AcDbEntity
  8
7_ALL_FEATURES
  6
Continuous
 62
     7
100
AcDbCircle
 10
1817.158537
 20
1949.293902
 30
0.0
 40
0.2
100
AcDbArc
 50
90.0
 51
180.0
  0
LINE
  5
46C
330
207
100
AcDbEntity
  8
7_ALL_FEATURES
  6
Continuous
 62
     7
100
AcDbLine
 10
1817.158537
 20
1949.493902
 30
0.0
 11
1819.958537
 21
1949.493902
 31
0.0
  0
LINE
  5
46D
330
207
100
AcDbEntity
  8
7_ALL_FEATURES
  6
Continuous
 62
     7
100
AcDbLine
 10
1819.958537
 20
1941.993902
 30
0.0
 11
1817.158537
 21
1941.993902
 31
0.0
  0
ARC
  5
46E
330
207
100
AcDbEntity
  8
7_ALL_FEATURES
  6
Continuous
 62
     7
100
AcDbCircle
 10
1817.158537
 20
1942.193902
 30
0.0
 40
0.2
100
AcDbArc
 50
180.0
 51
270.0
  0
LINE
  5
46F
330
207
100
AcDbEntity
  8
7_ALL_FEATURES
  6
Continuous
 62
     7
100
AcDbLine
 10
1816.958537
 20
1942.193902
 30
0.0
 11
1816.958537
 21
1943.293902
 31
0.0
  0
ARC
  5
470
330
207
100
AcDbEntity
  8
7_ALL_FEATURES
  6
Continuous
 62
     7
100
AcDbCircle
 10
1816.758537
 20
1943.293902
 30
0.0
 40
0.2
100
AcDbArc
 50
0.0
 51
90.0
  0
LINE
  5
471
330
207
100
AcDbEntity
  8
7_ALL_FEATURES
  6
Continuous
 62
     7
100
AcDbLine
 10
1816.758537
 20
1943.493902
 30
0.0
 11
1815.958537
 21
1943.493902
 31
0.0
  0
ARC
  5
472
330
207
100
AcDbEntity
  8
7_ALL_FEATURES
  6
Continuous
 62
     7
100
AcDbCircle
 10
1815.958537
 20
1942.993902
 30
0.0
 40
0.5
100
AcDbArc
 50
90.0
 51
180.0
  0
LINE
  5
473
330
207
100
AcDbEntity
  8
7_ALL_FEATURES
  6
Continuous
 62
     7
100
AcDbLine
 10
1815.458537
 20
1942.993902
 30
0.0
 11
1815.458537
 21
1940.493902
 31
0.0
  0
ARC
  5
474
330
207
100
AcDbEntity
  8
7_ALL_FEATURES
  6
Continuous
 62
     7
100
AcDbCircle
 10
1815.958537
 20
1940.493902
 30
0.0
 40
0.5
100
AcDbArc
 50
180.0
 51
270.0
  0
LINE
  5
475
330
207
100
AcDbEntity
  8
7_ALL_FEATURES
  6
Continuous
 62
     7
100
AcDbLine
 10
1815.958537
 20
1939.993902
 30
0.0
 11
1816.758537
 21
1939.993902
 31
0.0
  0
ARC
  5
476
330
207
100
AcDbEntity
  8
7_ALL_FEATURES
  6
Continuous
 62
     7
100
AcDbCircle
 10
1816.758537
 20
1939.793902
 30
0.0
 40
0.2
100
AcDbArc
 50
0.0
 51
90.0
  0
LINE
  5
477
330
207
100
AcDbEntity
  8
7_ALL_FEATURES
  6
Continuous
 62
     7
100
AcDbLine
 10
1816.958537
 20
1939.793902
 30
0.0
 11
1816.958537
 21
1939.493902
 31
0.0
  0
LINE
  5
478
330
207
100
AcDbEntity
  8
7_ALL_FEATURES
  6
Continuous
 62
     7
100
AcDbLine
 10
1816.958537
 20
1844.993902
 30
0.0
 11
1816.958537
 21
1844.693902
 31
0.0
  0
ARC
  5
479
330
207
100
AcDbEntity
  8
7_ALL_FEATURES
  6
Continuous
 62
     7
100
AcDbCircle
 10
1816.758537
 20
1844.693902
 30
0.0
 40
0.2
100
AcDbArc
 50
270.0
 51
360.0
  0
LINE
  5
47A
330
207
100
AcDbEntity
  8
7_ALL_FEATURES
  6
Continuous
 62
     7
100
AcDbLine
 10
1816.758537
 20
1844.493902
 30
0.0
 11
1815.958537
 21
1844.493902
 31
0.0
  0
ARC
  5
47B
330
207
100
AcDbEntity
  8
7_ALL_FEATURES
  6
Continuous
 62
     7
100
AcDbCircle
 10
1815.958537
 20
1843.993902
 30
0.0
 40
0.5
100
AcDbArc
 50
90.0
 51
180.0
  0
LINE
  5
47C
330
207
100
AcDbEntity
  8
7_ALL_FEATURES
  6
Continuous
 62
     7
100
AcDbLine
 10
1815.458537
 20
1843.993902
 30
0.0
 11
1815.458537
 21
1841.493902
 31
0.0
  0
ARC
  5
47D
330
207
100
AcDbEntity
  8
7_ALL_FEATURES
  6
Continuous
 62
     7
100
AcDbCircle
 10
1815.958537
 20
1841.493902
 30
0.0
 40
0.5
100
AcDbArc
 50
180.0
 51
270.0
  0
LINE
  5
47E
330
207
100
AcDbEntity
  8
7_ALL_FEATURES
  6
Continuous
 62
     7
100
AcDbLine
 10
1815.958537
 20
1840.993902
 30
0.0
 11
1816.758537
 21
1840.993902
 31
0.0
  0
ARC
  5
47F
330
207
100
AcDbEntity
  8
7_ALL_FEATURES
  6
Continuous
 62
     7
100
AcDbCircle
 10
1816.758537
 20
1841.193902
 30
0.0
 40
0.2
100
AcDbArc
 50
270.0
 51
360.0
  0
LINE
  5
480
330
207
100
AcDbEntity
  8
7_ALL_FEATURES
  6
Continuous
 62
     7
100
AcDbLine
 10
1816.958537
 20
1841.193902
 30
0.0
 11
1816.958537
 21
1842.293902
 31
0.0
  0
ARC
  5
481
330
207
100
AcDbEntity
  8
7_ALL_FEATURES
  6
Continuous
 62
     7
100
AcDbCircle
 10
1817.158537
 20
1842.293902
 30
0.0
 40
0.2
100
AcDbArc
 50
90.0
 51
180.0
  0
LINE
  5
482
330
207
100
AcDbEntity
  8
7_ALL_FEATURES
  6
Continuous
 62
     7
100
AcDbLine
 10
1817.158537
 20
1842.493902
 30
0.0
 11
1819.958537
 21
1842.493902
 31
0.0
  0
LINE
  5
483
330
207
100
AcDbEntity
  8
7_ALL_FEATURES
  6
Continuous
 62
     7
100
AcDbLine
 10
1819.958537
 20
1834.993902
 30
0.0
 11
1817.158537
 21
1834.993902
 31
0.0
  0
ARC
  5
484
330
207
100
AcDbEntity
  8
7_ALL_FEATURES
  6
Continuous
 62
     7
100
AcDbCircle
 10
1817.158537
 20
1835.193902
 30
0.0
 40
0.2
100
AcDbArc
 50
180.0
 51
270.0
  0
LINE
  5
485
330
207
100
AcDbEntity
  8
7_ALL_FEATURES
  6
Continuous
 62
     7
100
AcDbLine
 10
1816.958537
 20
1835.193902
 30
0.0
 11
1816.958537
 21
1836.293902
 31
0.0
  0
ARC
  5
486
330
207
100
AcDbEntity
  8
7_ALL_FEATURES
  6
Continuous
 62
     7
100
AcDbCircle
 10
1816.758537
 20
1836.293902
 30
0.0
 40
0.2
100
AcDbArc
 50
0.0
 51
90.0
  0
LINE
  5
487
330
207
100
AcDbEntity
  8
7_ALL_FEATURES
  6
Continuous
 62
     7
100
AcDbLine
 10
1816.758537
 20
1836.493902
 30
0.0
 11
1815.958537
 21
1836.493902
 31
0.0
  0
ARC
  5
488
330
207
100
AcDbEntity
  8
7_ALL_FEATURES
  6
Continuous
 62
     7
100
AcDbCircle
 10
1815.958537
 20
1835.993902
 30
0.0
 40
0.5
100
AcDbArc
 50
90.0
 51
180.0
  0
LINE
  5
489
330
207
100
AcDbEntity
  8
7_ALL_FEATURES
  6
Continuous
 62
     7
100
AcDbLine
 10
1815.458537
 20
1835.993902
 30
0.0
 11
1815.458537
 21
1833.493902
 31
0.0
  0
ARC
  5
48A
330
207
100
AcDbEntity
  8
7_ALL_FEATURES
  6
Continuous
 62
     7
100
AcDbCircle
 10
1815.958537
 20
1833.493902
 30
0.0
 40
0.5
100
AcDbArc
 50
180.0
 51
270.0
  0
LINE
  5
48B
330
207
100
AcDbEntity
  8
7_ALL_FEATURES
  6
Continuous
 62
     7
100
AcDbLine
 10
1815.958537
 20
1832.993902
 30
0.0
 11
1816.758537
 21
1832.993902
 31
0.0
  0
ARC
  5
48C
330
207
100
AcDbEntity
  8
7_ALL_FEATURES
  6
Continuous
 62
     7
100
AcDbCircle
 10
1816.758537
 20
1832.793902
 30
0.0
 40
0.2
100
AcDbArc
 50
0.0
 51
90.0
  0
LINE
  5
48D
330
207
100
AcDbEntity
  8
7_ALL_FEATURES
  6
Continuous
 62
     7
100
AcDbLine
 10
1816.958537
 20
1832.793902
 30
0.0
 11
1816.958537
 21
1832.493902
 31
0.0
  0
LINE
  5
48E
330
207
100
AcDbEntity
  8
7_ALL_FEATURES
  6
Continuous
 62
     7
100
AcDbLine
 10
1816.958537
 20
1816.993902
 30
0.0
 11
1816.958537
 21
1815.993902
 31
0.0
  0
ARC
  5
48F
330
207
100
AcDbEntity
  8
7_ALL_FEATURES
  6
Continuous
 62
     7
100
AcDbCircle
 10
1817.958537
 20
1815.993902
 30
0.0
 40
1.0
100
AcDbArc
 50
180.0
 51
270.0
  0
LINE
  5
490
330
207
100
AcDbEntity
  8
7_ALL_FEATURES
  6
Continuous
 62
     7
100
AcDbLine
 10
1817.958537
 20
1814.993902
 30
0.0
 11
1818.958537
 21
1814.993902
 31
0.0
  0
LINE
  5
491
330
207
100
AcDbEntity
  8
7_ALL_FEATURES
  6
Continuous
 62
     7
100
AcDbLine
 10
1914.358537
 20
1814.993902
 30
0.0
 11
1913.358537
 21
1814.993902
 31
0.0
  0
ARC
  5
492
330
207
100
AcDbEntity
  8
7_ALL_FEATURES
  6
Continuous
 62
     7
100
AcDbCircle
 10
1914.358537
 20
1815.993902
 30
0.0
 40
1.0
100
AcDbArc
 50
270.0
 51
360.0
  0
LINE
  5
493
330
207
100
AcDbEntity
  8
7_ALL_FEATURES
  6
Continuous
 62
     7
100
AcDbLine
 10
1915.358537
 20
1832.793902
 30
0.0
 11
1915.358537
 21
1832.493902
 31
0.0
  0
LINE
  5
494
330
207
100
AcDbEntity
  8
7_ALL_FEATURES
  6
Continuous
 62
     7
100
AcDbLine
 10
1915.358537
 20
1816.993902
 30
0.0
 11
1915.358537
 21
1815.993902
 31
0.0
  0
ARC
  5
495
330
207
100
AcDbEntity
  8
7_ALL_FEATURES
  6
Continuous
 62
     7
100
AcDbCircle
 10
1915.558537
 20
1832.793902
 30
0.0
 40
0.2
100
AcDbArc
 50
90.0
 51
180.0
  0
LINE
  5
496
330
207
100
AcDbEntity
  8
7_ALL_FEATURES
  6
Continuous
 62
     7
100
AcDbLine
 10
1916.358537
 20
1832.993902
 30
0.0
 11
1915.558537
 21
1832.993902
 31
0.0
  0
ARC
  5
497
330
207
100
AcDbEntity
  8
7_ALL_FEATURES
  6
Continuous
 62
     7
100
AcDbCircle
 10
1916.358537
 20
1833.493902
 30
0.0
 40
0.5
100
AcDbArc
 50
270.0
 51
360.0
  0
LINE
  5
498
330
207
100
AcDbEntity
  8
7_ALL_FEATURES
  6
Continuous
 62
     7
100
AcDbLine
 10
1916.858537
 20
1835.993902
 30
0.0
 11
1916.858537
 21
1833.493902
 31
0.0
  0
ARC
  5
499
330
207
100
AcDbEntity
  8
7_ALL_FEATURES
  6
Continuous
 62
     7
100
AcDbCircle
 10
1916.358537
 20
1835.993902
 30
0.0
 40
0.5
100
AcDbArc
 50
0.0
 51
90.0
  0
LINE
  5
49A
330
207
100
AcDbEntity
  8
7_ALL_FEATURES
  6
Continuous
 62
     7
100
AcDbLine
 10
1915.558537
 20
1836.493902
 30
0.0
 11
1916.358537
 21
1836.493902
 31
0.0
  0
ARC
  5
49B
330
207
100
AcDbEntity
  8
7_ALL_FEATURES
  6
Continuous
 62
     7
100
AcDbCircle
 10
1915.558537
 20
1836.293902
 30
0.0
 40
0.2
100
AcDbArc
 50
90.0
 51
180.0
  0
LINE
  5
49C
330
207
100
AcDbEntity
  8
7_ALL_FEATURES
  6
Continuous
 62
     7
100
AcDbLine
 10
1915.358537
 20
1835.193902
 30
0.0
 11
1915.358537
 21
1836.293902
 31
0.0
  0
ARC
  5
49D
330
207
100
AcDbEntity
  8
7_ALL_FEATURES
  6
Continuous
 62
     7
100
AcDbCircle
 10
1915.158537
 20
1835.193902
 30
0.0
 40
0.2
100
AcDbArc
 50
270.0
 51
360.0
  0
LINE
  5
49E
330
207
100
AcDbEntity
  8
7_ALL_FEATURES
  6
Continuous
 62
     7
100
AcDbLine
 10
1912.358537
 20
1834.993902
 30
0.0
 11
1915.158537
 21
1834.993902
 31
0.0
  0
LINE
  5
49F
330
207
100
AcDbEntity
  8
7_ALL_FEATURES
  6
Continuous
 62
     7
100
AcDbLine
 10
1915.158537
 20
1842.493902
 30
0.0
 11
1912.358537
 21
1842.493902
 31
0.0
  0
ARC
  5
4A0
330
207
100
AcDbEntity
  8
7_ALL_FEATURES
  6
Continuous
 62
     7
100
AcDbCircle
 10
1915.158537
 20
1842.293902
 30
0.0
 40
0.2
100
AcDbArc
 50
0.0
 51
90.0
  0
LINE
  5
4A1
330
207
100
AcDbEntity
  8
7_ALL_FEATURES
  6
Continuous
 62
     7
100
AcDbLine
 10
1915.358537
 20
1841.193902
 30
0.0
 11
1915.358537
 21
1842.293902
 31
0.0
  0
ARC
  5
4A2
330
207
100
AcDbEntity
  8
7_ALL_FEATURES
  6
Continuous
 62
     7
100
AcDbCircle
 10
1915.558537
 20
1841.193902
 30
0.0
 40
0.2
100
AcDbArc
 50
180.0
 51
270.0
  0
LINE
  5
4A3
330
207
100
AcDbEntity
  8
7_ALL_FEATURES
  6
Continuous
 62
     7
100
AcDbLine
 10
1916.358537
 20
1840.993902
 30
0.0
 11
1915.558537
 21
1840.993902
 31
0.0
  0
ARC
  5
4A4
330
207
100
AcDbEntity
  8
7_ALL_FEATURES
  6
Continuous
 62
     7
100
AcDbCircle
 10
1916.358537
 20
1841.493902
 30
0.0
 40
0.5
100
AcDbArc
 50
270.0
 51
360.0
  0
LINE
  5
4A5
330
207
100
AcDbEntity
  8
7_ALL_FEATURES
  6
Continuous
 62
     7
100
AcDbLine
 10
1916.858537
 20
1843.993902
 30
0.0
 11
1916.858537
 21
1841.493902
 31
0.0
  0
ARC
  5
4A6
330
207
100
AcDbEntity
  8
7_ALL_FEATURES
  6
Continuous
 62
     7
100
AcDbCircle
 10
1916.358537
 20
1843.993902
 30
0.0
 40
0.5
100
AcDbArc
 50
0.0
 51
90.0
  0
LINE
  5
4A7
330
207
100
AcDbEntity
  8
7_ALL_FEATURES
  6
Continuous
 62
     7
100
AcDbLine
 10
1915.558537
 20
1844.493902
 30
0.0
 11
1916.358537
 21
1844.493902
 31
0.0
  0
ARC
  5
4A8
330
207
100
AcDbEntity
  8
7_ALL_FEATURES
  6
Continuous
 62
     7
100
AcDbCircle
 10
1915.558537
 20
1844.693902
 30
0.0
 40
0.2
100
AcDbArc
 50
180.0
 51
270.0
  0
LINE
  5
4A9
330
207
100
AcDbEntity
  8
7_ALL_FEATURES
  6
Continuous
 62
     7
100
AcDbLine
 10
1915.358537
 20
1939.793902
 30
0.0
 11
1915.358537
 21
1939.493902
 31
0.0
  0
LINE
  5
4AA
330
207
100
AcDbEntity
  8
7_ALL_FEATURES
  6
Continuous
 62
     7
100
AcDbLine
 10
1915.358537
 20
1844.993902
 30
0.0
 11
1915.358537
 21
1844.693902
 31
0.0
  0
ARC
  5
4AB
330
207
100
AcDbEntity
  8
7_ALL_FEATURES
  6
Continuous
 62
     7
100
AcDbCircle
 10
1915.558537
 20
1939.793902
 30
0.0
 40
0.2
100
AcDbArc
 50
90.0
 51
180.0
  0
LINE
  5
4AC
330
207
100
AcDbEntity
  8
7_ALL_FEATURES
  6
Continuous
 62
     7
100
AcDbLine
 10
1916.358537
 20
1939.993902
 30
0.0
 11
1915.558537
 21
1939.993902
 31
0.0
  0
ARC
  5
4AD
330
207
100
AcDbEntity
  8
7_ALL_FEATURES
  6
Continuous
 62
     7
100
AcDbCircle
 10
1916.358537
 20
1940.493902
 30
0.0
 40
0.5
100
AcDbArc
 50
270.0
 51
360.0
  0
LINE
  5
4AE
330
207
100
AcDbEntity
  8
7_ALL_FEATURES
  6
Continuous
 62
     7
100
AcDbLine
 10
1916.858537
 20
1942.993902
 30
0.0
 11
1916.858537
 21
1940.493902
 31
0.0
  0
ARC
  5
4AF
330
207
100
AcDbEntity
  8
7_ALL_FEATURES
  6
Continuous
 62
     7
100
AcDbCircle
 10
1916.358537
 20
1942.993902
 30
0.0
 40
0.5
100
AcDbArc
 50
0.0
 51
90.0
  0
LINE
  5
4B0
330
207
100
AcDbEntity
  8
7_ALL_FEATURES
  6
Continuous
 62
     7
100
AcDbLine
 10
1915.558537
 20
1943.493902
 30
0.0
 11
1916.358537
 21
1943.493902
 31
0.0
  0
ARC
  5
4B1
330
207
100
AcDbEntity
  8
7_ALL_FEATURES
  6
Continuous
 62
     7
100
AcDbCircle
 10
1915.558537
 20
1943.293902
 30
0.0
 40
0.2
100
AcDbArc
 50
90.0
 51
180.0
  0
LINE
  5
4B2
330
207
100
AcDbEntity
  8
7_ALL_FEATURES
  6
Continuous
 62
     7
100
AcDbLine
 10
1915.358537
 20
1942.193902
 30
0.0
 11
1915.358537
 21
1943.293902
 31
0.0
  0
ARC
  5
4B3
330
207
100
AcDbEntity
  8
7_ALL_FEATURES
  6
Continuous
 62
     7
100
AcDbCircle
 10
1915.158537
 20
1942.193902
 30
0.0
 40
0.2
100
AcDbArc
 50
270.0
 51
360.0
  0
LINE
  5
4B4
330
207
100
AcDbEntity
  8
7_ALL_FEATURES
  6
Continuous
 62
     7
100
AcDbLine
 10
1912.358537
 20
1941.993902
 30
0.0
 11
1915.158537
 21
1941.993902
 31
0.0
  0
LINE
  5
4B5
330
207
100
AcDbEntity
  8
7_ALL_FEATURES
  6
Continuous
 62
     7
100
AcDbLine
 10
1915.158537
 20
1949.493902
 30
0.0
 11
1912.358537
 21
1949.493902
 31
0.0
  0
ARC
  5
4B6
330
207
100
AcDbEntity
  8
7_ALL_FEATURES
  6
Continuous
 62
     7
100
AcDbCircle
 10
1915.158537
 20
1949.293902
 30
0.0
 40
0.2
100
AcDbArc
 50
0.0
 51
90.0
  0
LINE
  5
4B7
330
207
100
AcDbEntity
  8
7_ALL_FEATURES
  6
Continuous
 62
     7
100
AcDbLine
 10
1915.358537
 20
1948.193902
 30
0.0
 11
1915.358537
 21
1949.293902
 31
0.0
  0
ARC
  5
4B8
330
207
100
AcDbEntity
  8
7_ALL_FEATURES
  6
Continuous
 62
     7
100
AcDbCircle
 10
1915.558537
 20
1948.193902
 30
0.0
 40
0.2
100
AcDbArc
 50
180.0
 51
270.0
  0
LINE
  5
4B9
330
207
100
AcDbEntity
  8
7_ALL_FEATURES
  6
Continuous
 62
     7
100
AcDbLine
 10
1916.358537
 20
1947.993902
 30
0.0
 11
1915.558537
 21
1947.993902
 31
0.0
  0
ARC
  5
4BA
330
207
100
AcDbEntity
  8
7_ALL_FEATURES
  6
Continuous
 62
     7
100
AcDbCircle
 10
1916.358537
 20
1948.493902
 30
0.0
 40
0.5
100
AcDbArc
 50
270.0
 51
360.0
  0
LINE
  5
4BB
330
207
100
AcDbEntity
  8
7_ALL_FEATURES
  6
Continuous
 62
     7
100
AcDbLine
 10
1916.858537
 20
1950.993902
 30
0.0
 11
1916.858537
 21
1948.493902
 31
0.0
  0
ARC
  5
4BC
330
207
100
AcDbEntity
  8
7_ALL_FEATURES
  6
Continuous
 62
     7
100
AcDbCircle
 10
1916.358537
 20
1950.993902
 30
0.0
 40
0.5
100
AcDbArc
 50
0.0
 51
90.0
  0
LINE
  5
4BD
330
207
100
AcDbEntity
  8
7_ALL_FEATURES
  6
Continuous
 62
     7
100
AcDbLine
 10
1915.558537
 20
1951.493902
 30
0.0
 11
1916.358537
 21
1951.493902
 31
0.0
  0
ARC
  5
4BE
330
207
100
AcDbEntity
  8
7_ALL_FEATURES
  6
Continuous
 62
     7
100
AcDbCircle
 10
1915.558537
 20
1951.693902
 30
0.0
 40
0.2
100
AcDbArc
 50
180.0
 51
270.0
  0
LINE
  5
4BF
330
207
100
AcDbEntity
  8
7_ALL_FEATURES
  6
Continuous
 62
     7
100
AcDbLine
 10
1915.358537
 20
1965.293902
 30
0.0
 11
1915.358537
 21
1964.493902
 31
0.0
  0
LINE
  5
4C0
330
207
100
AcDbEntity
  8
7_ALL_FEATURES
  6
Continuous
 62
     7
100
AcDbLine
 10
1915.358537
 20
1951.993902
 30
0.0
 11
1915.358537
 21
1951.693902
 31
0.0
  0
ARC
  5
4C1
330
207
100
AcDbEntity
  8
7_ALL_FEATURES
  6
Continuous
 62
     7
100
AcDbCircle
 10
1915.158537
 20
1965.293902
 30
0.0
 40
0.2
100
AcDbArc
 50
0.0
 51
90.0
  0
LINE
  5
4C2
330
207
100
AcDbEntity
  8
7_ALL_FEATURES
  6
Continuous
 62
     7
100
AcDbLine
 10
1914.358537
 20
1965.493902
 30
0.0
 11
1915.158537
 21
1965.493902
 31
0.0
  0
SPLINE
  5
4C3
330
207
100
AcDbEntity
  8
7_ALL_FEATURES
  6
Continuous
 62
     3
100
AcDbSpline
 70
     0
 71
     3
 72
     9
 73
     5
 74
     0
 42
0.000000001
 43
0.0000001
 40
0.0
 40
0.0
 40
0.0
 40
0.0
 40
0.4570044503
 40
1.0
 40
1.0
 40
1.0
 40
1.0
 10
1818.6268389168
 20
1944.4091509527
 30
0.0
 10
1818.5178432496
 20
1944.5838010307
 30
0.0
 10
1818.4740816288
 20
1945.05795899
 30
0.0
 10
1818.4661157819
 20
1945.4992947088
 30
0.0
 10
1818.4661157819
 20
1945.743902439
 30
0.0
  0
SPLINE
  5
4C4
330
207
100
AcDbEntity
  8
7_ALL_FEATURES
  6
Continuous
 62
     3
100
AcDbSpline
 70
     0
 71
     3
 72
     9
 73
     5
 74
     0
 42
0.000000001
 43
0.0000001
 40
0.0
 40
0.0
 40
0.0
 40
0.0
 40
0.4570044503
 40
1.0
 40
1.0
 40
1.0
 40
1.0
 10
1818.6268389168
 20
1837.4091509527
 30
0.0
 10
1818.5178432496
 20
1837.5838010307
 30
0.0
 10
1818.4740816288
 20
1838.05795899
 30
0.0
 10
1818.4661157819
 20
1838.4992947088
 30
0.0
 10
1818.4661157819
 20
1838.743902439
 30
0.0
  0
SPLINE
  5
4C5
330
207
100
AcDbEntity
  8
7_ALL_FEATURES
  6
Continuous
 62
     3
100
AcDbSpline
 70
     0
 71
     3
 72
     9
 73
     5
 74
     0
 42
0.000000001
 43
0.0000001
 40
0.0
 40
0.0
 40
0.0
 40
0.0
 40
0.4570049342
 40
1.0
 40
1.0
 40
1.0
 40
1.0
 10
1913.6902275469
 20
1837.40913998
 30
0.0
 10
1913.7992340579
 20
1837.5837857241
 30
0.0
 10
1913.8429865537
 20
1838.0579561345
 30
0.0
 10
1913.8509573888
 20
1838.4992927325
 30
0.0
 10
1913.8509573888
 20
1838.743902439
 30
0.0
  0
SPLINE
  5
4C6
330
207
100
AcDbEntity
  8
7_ALL_FEATURES
  6
Continuous
 62
     3
100
AcDbSpline
 70
     0
 71
     3
 72
     9
 73
     5
 74
     0
 42
0.000000001
 43
0.0000001
 40
0.0
 40
0.0
 40
0.0
 40
0.0
 40
0.4570048962
 40
1.0
 40
1.0
 40
1.0
 40
1.0
 10
1913.6902280543
 20
1944.4091408079
 30
0.0
 10
1913.7992337389
 20
1944.5837868833
 30
0.0
 10
1913.8429869357
 20
1945.0579563464
 30
0.0
 10
1913.8509573888
 20
1945.4992928809
 30
0.0
 10
1913.8509573888
 20
1945.743902439
 30
0.0
  0
LINE
  5
4C7
330
207
100
AcDbEntity
  8
7_ALL_FEATURES
  6
Continuous
 62
     3
100
AcDbLine
 10
1818.458537
 20
1835.143902
 30
0.0
 11
1818.458537
 21
1835.243902
 31
0.0
  0
SPLINE
  5
4C8
330
207
100
AcDbEntity
  8
7_ALL_FEATURES
  6
Continuous
 62
     3
100
AcDbSpline
 70
     0
 71
     3
 72
     9
 73
     5
 74
     0
 42
0.000000001
 43
0.0000001
 40
0.0
 40
0.0
 40
0.0
 40
0.0
 40
0.5429955497
 40
1.0
 40
1.0
 40
1.0
 40
1.0
 10
1818.4661157819
 20
1838.743902439
 30
0.0
 10
1818.4661157819
 20
1838.9885101693
 30
0.0
 10
1818.4740816288
 20
1839.4298458881
 30
0.0
 10
1818.5178432496
 20
1839.9040038473
 30
0.0
 10
1818.6268389168
 20
1840.0786539254
 30
0.0
  0
LINE
  5
4C9
330
207
100
AcDbEntity
  8
7_ALL_FEATURES
  6
Continuous
 62
     3
100
AcDbLine
 10
1818.458537
 20
1942.143902
 30
0.0
 11
1818.458537
 21
1942.243902
 31
0.0
  0
SPLINE
  5
4CA
330
207
100
AcDbEntity
  8
7_ALL_FEATURES
  6
Continuous
 62
     3
100
AcDbSpline
 70
     0
 71
     3
 72
     9
 73
     5
 74
     0
 42
0.000000001
 43
0.0000001
 40
0.0
 40
0.0
 40
0.0
 40
0.0
 40
0.5429955497
 40
1.0
 40
1.0
 40
1.0
 40
1.0
 10
1818.4661157819
 20
1945.743902439
 30
0.0
 10
1818.4661157819
 20
1945.9885101693
 30
0.0
 10
1818.4740816288
 20
1946.4298458881
 30
0.0
 10
1818.5178432496
 20
1946.9040038473
 30
0.0
 10
1818.6268389168
 20
1947.0786539254
 30
0.0
  0
LINE
  5
4CB
330
207
100
AcDbEntity
  8
7_ALL_FEATURES
  6
Continuous
 62
     3
100
AcDbLine
 10
1913.858537
 20
1835.143902
 30
0.0
 11
1913.858537
 21
1835.243902
 31
0.0
  0
SPLINE
  5
4CC
330
207
100
AcDbEntity
  8
7_ALL_FEATURES
  6
Continuous
 62
     3
100
AcDbSpline
 70
     0
 71
     3
 72
     9
 73
     5
 74
     0
 42
0.000000001
 43
0.0000001
 40
0.0
 40
0.0
 40
0.0
 40
0.0
 40
0.5429951038
 40
1.0
 40
1.0
 40
1.0
 40
1.0
 10
1913.8509573888
 20
1945.743902439
 30
0.0
 10
1913.8509573888
 20
1945.9885119971
 30
0.0
 10
1913.8429869357
 20
1946.4298485317
 30
0.0
 10
1913.7992337389
 20
1946.9040179948
 30
0.0
 10
1913.6902280543
 20
1947.0786640702
 30
0.0
  0
SPLINE
  5
4CD
330
207
100
AcDbEntity
  8
7_ALL_FEATURES
  6
Continuous
 62
     3
100
AcDbSpline
 70
     0
 71
     3
 72
     9
 73
     5
 74
     0
 42
0.000000001
 43
0.0000001
 40
0.0
 40
0.0
 40
0.0
 40
0.0
 40
0.5429950658
 40
1.0
 40
1.0
 40
1.0
 40
1.0
 10
1913.8509573888
 20
1838.743902439
 30
0.0
 10
1913.8509573888
 20
1838.9885121455
 30
0.0
 10
1913.8429865537
 20
1839.4298487435
 30
0.0
 10
1913.7992340579
 20
1839.9040191539
 30
0.0
 10
1913.6902275469
 20
1840.0786648981
 30
0.0
  0
LINE
  5
4CE
330
207
100
AcDbEntity
  8
7_ALL_FEATURES
  6
Continuous
 62
     3
100
AcDbLine
 10
1913.858537
 20
1942.143902
 30
0.0
 11
1913.858537
 21
1942.243902
 31
0.0
  0
DIMENSION
  5
4CF
330
207
100
AcDbEntity
  8
0
  6
Continuous
 62
     2
100
AcDbDimension
280
     0
  2
*D1
 10
1916.858537
 20
2029.010223
 30
0.0
 11
1866.583398
 21
2029.010223
 31
0.0
 70
   160
 71
     2
 42
101.4
 73
     0
 74
     0
 75
     0
  3
DIMSTYLE_1
100
AcDbAlignedDimension
 13
1815.458537
 23
1999.76797
 33
0.0
 14
1916.858537
 24
1999.516557
 34
0.0
100
AcDbRotatedDimension
  0
DIMENSION
  5
4D0
330
207
100
AcDbEntity
  8
0
  6
Continuous
 62
     2
100
AcDbDimension
280
     0
  2
*D2
 10
1395.693304
 20
1814.993902
 30
0.0
 11
1395.693304
 21
1890.70597
 31
0.0
 70
   160
 71
     2
 42
150.5
 73
     0
 74
     0
 75
     0
  3
DIMSTYLE_2
100
AcDbAlignedDimension
 13
1357.424036
 23
1965.493902
 33
0.0
 14
1357.424036
 24
1814.993902
 34
0.0
 50
270.0
100
AcDbRotatedDimension
  0
DIMENSION
  5
4D1
330
207
100
AcDbEntity
  8
0
  6
Continuous
 62
     2
100
AcDbDimension
280
     0
  2
*D3
 10
398.213415
 20
1555.562911
 30
0.0
 11
866.460791
 21
1555.562911
 31
0.0
 70
   160
 71
     2
 42
936.5
 73
     0
 74
     0
 75
     0
  3
DIMSTYLE_3
100
AcDbAlignedDimension
 13
1334.713415
 23
1504.086619
 33
0.0
 14
398.213415
 24
1507.462522
 34
0.0
 50
180.0
100
AcDbRotatedDimension
  0
INSERT
  5
4D2
330
207
100
AcDbEntity
  8
0
  6
Continuous
 62
     2
100
AcDbBlockReference
  2
LOGO2_BL0
 10
3120.873154
 20
30.322557
 30
0.0
  0
ACAD_TABLE
  5
4D3
102
{ACAD_XDICTIONARY
360
52A
102
}
330
207
100
AcDbEntity
  8
0
  6
Continuous
 62
     2
160
              3372
310
2C0D000017000000880000001D000000000000000000F03F00000000000000000000000000000000C751691E1846A8400000000000000000000000000000F03F0000000000000000E175C18D49E9454000000000000000000000000000000000000000000000F03F0000000000000000000000000000000000000000000000
310
000000000000000000000000000000F03F54000000200000000200000000000000000000000000000000000000000000000000000000000000008056400000000000000000000000000000000000000000000000000000000000000000000000000000F03F5400000020000000020000000000000000000000000000000000
310
00000000000000000000000000000000000000000000000044C0000000000000000000000000000000000000000000000000000000000000F03F5400000020000000020000000000000000003E4000000000000018C00000000000000000000000000080564000000000000018C00000000000000000000000000000000000
310
00000000000000000000000000F03F5400000020000000020000000000000000003E4000000000000028C00000000000000000000000000080564000000000000028C0000000000000000000000000000000000000000000000000000000000000F03F5400000020000000020000000000000000003E4000000000000036C0
310
0000000000000000000000000080564000000000000036C0000000000000000000000000000000000000000000000000000000000000F03F54000000200000000200000000000000000000000000000000003BC0000000000000000000000000008056400000000000003BC000000000000000000000000000000000000000
310
0000000000000000000000F03F540000002000000002000000000000000000000000000000000044C00000000000000000000000000080564000000000000044C0000000000000000000000000000000000000000000000000000000000000F03F5400000020000000020000000000000000003E4000000000000000000000
310
0000000000000000000000003E400000000000003BC0000000000000000000000000000000000000000000000000000000000000F03F540000002000000002000000000000000080514000000000000000000000000000000000000000000080514000000000000028C0000000000000000000000000000000000000000000
310
000000000000000000F03F540000002000000002000000000000000080564000000000000000000000000000000000000000000080564000000000000044C0000000000000000000000000000000000000000000000000000000000000F03F0C000000100000000B000000D000000026000000CDCCCCCCCC7C3F404E621058
310
393412C0000000000000000000000000000000000000000000000000000000000000F03F000000000000F03F0000000000000000000000000000000041003100370033005F0043005F003400300032000000000014000000010000000000000000000840000000000000F03F0000000000000000000000000000F03F000000
310
0000000000000000000000000000000000000000000000000000000000000000000000000061007200690061006C002E00740074006600000000000000C800000026000000C2F5285C8FC6514075931804560E13C0000000000000000000000000000000000000000000000000000000000000F03F000000000000F03F0000
310
00000000000000000000000000005200650076003A0030003000000000000C000000010000000000000000000C40000000000000F03F0000000000000000000000000000F03F0000000000000000000000000000000000000000000000000000000000000000000000000000000061007200690061006C002E007400740066
310
00000000000000CC00000026000000FA7E6ABC74433F405839B4C8769E26C0000000000000000000000000000000000000000000000000000000000000F03F000000000000F03F000000000000000000000000000000005300630061006C0065003A0031003A003100000012000000010000000000000000000C4000000000
310
0000F03F0000000000000000000000000000F03F0000000000000000000000000000000000000000000000000000000000000000000000000000000061007200690061006C002E00740074006600000000000000D400000026000000C7BAB88D06D85140994C158C4AEA23C000000000000000000000000000000000000000
310
0000000000000000000000F03F000000000000F03F00000000000000000000000000000000330032003000300020006200790020003200350030003000000000001800000001000000666666666666FE3F000000000000F03F0000000000000000000000000000F03F00000000000000000000000000000000000000000000
310
00000000000000000000000000000000000061007200690061006C002E00740074006600000000000000FC00000026000000295C8FC2F5583F4062105839B40832C0000000000000000000000000000000000000000000000000000000000000F03F000000000000F03F000000000000000000000000000000004300410053
310
005300410046004F0052004D00410020005400520049004D004C00450053005300200043004F004C004F005200410044004F00200032002E0031000000000040000000010000000000000000000040000000000000F03F0000000000000000000000000000F03F000000000000000000000000000000000000000000000000
310
0000000000000000000000000000000061007200690061006C002E00740074006600000000000000D40000002600000048E17A14AE373F40C3F5285C8FC239C0000000000000000000000000000000000000000000000000000000000000F03F000000000000F03F0000000000000000000000000000000044004100540045
310
003A00330030002E00300038002E003200320000001A000000010000000000000000000440000000000000F03F0000000000000000000000000000F03F0000000000000000000000000000000000000000000000000000000000000000000000000000000061007200690061006C002E007400740066000000000000002401
310
000026000000CDCCCCCCCCCCF73F0000000000903DC0000000000000000000000000000000000000000000000000000000000000F03F000000000000F03F0000000000000000000000000000000041006E007900200069006E00740065006700720061006C0020006F00720020007000610072007400690061006C00200072
310
006500700072006F00640075006300740069006F006E00730020006100720065002000700072006F0068006900620069007400650064000000000068000000010000000000000000000240000000000000F03F0000000000000000000000000000F03F00000000000000000000000000000000000000000000000000000000
310
00000000000000000000000061007200690061006C002E007400740066000000000000002C01000026000000FED478E926B1F73F37894160E57C40C0000000000000000000000000000000000000000000000000000000000000F03F000000000000F03F0000000000000000000000000000000077006900740068006F0075
310
00740020007000720069006F007200200061007500740068006F007200690073006100740069006F006E0020006F00660020004C002000260020004C0020004C007500630065002000260020004C006900670068007400200073002E0072002E006C002E002C00000072000000010000000000000000000240000000000000
310
F03F0000000000000000000000000000F03F0000000000000000000000000000000000000000000000000000000000000000000000000000000061007200690061006C002E007400740066000000000000000401000026000000C1CAA145B673F43F4F1E166A4D3142C0000000000000000000000000000000000000000000
310
000000000000000000F03F000000000000F03F0000000000000000000000000000000069006E0020006100630063006F007200640061006E006300650020007700690074006800200074006800650020006C0061007700200069006E00200066006F007200630065002E000000000048000000010000000000000000000240
310
000000000000F03F0000000000000000000000000000F03F0000000000000000000000000000000000000000000000000000000000000000000000000000000061007200690061006C002E00740074006600000000000000E400000026000000CDCCCCCCCCCCF73F302AA913D0E043C0000000000000000000000000000000
310
000000000000000000000000000000F03F000000000000F03F0000000000000000000000000000000041006C006C0020007200690067006800740073002000720065007300650072007600650064002E000000000028000000010000000000000000000240000000000000F03F0000000000000000000000000000F03F0000
310
000000000000000000000000000000000000000000000000000000000000000000000000000061007200690061006C002E00740074006600000000000000080000001F000000
100
AcDbBlockReference
  2
*T5
 10
3107.047107
 20
43.822557
 30
0.0
100
AcDbTable
342
4FC
343
20E
 11
1.0
 21
0.0
 31
0.0
 90
       22
 91
        5
 92
        5
 93
        0
 94
        0
 95
        0
 96
        0
141
6.0
141
6.0
141
10.0
141
5.0
141
13.0
142
10.0
142
10.0
142
10.0
142
40.0
142
20.0
171
     1
172
     0
173
     0
174
     0
175
     3
176
     4
 91
       32
178
     0
145
0.0
140
3.5
 92
        0
301
CELL_VALUE
 93
        2
 90
        4
  1
 
 94
        0
300

302
 
304
ACVALUE_END
171
     1
172
     0
173
     1
174
     0
175
     1
176
     1
 91
        0
178
     0
145
0.0
 92
        0
301
CELL_VALUE
 93
        3
 90
        0
 91
        0
 94
        0
300

302

304
ACVALUE_END
171
     1
172
     0
173
     1
174
     0
175
     1
176
     1
 91
        0
178
     0
145
0.0
 92
        0
301
CELL_VALUE
 93
        3
 90
        0
 91
        0
 94
        0
300

302

304
ACVALUE_END
171
     1
172
     0
173
     0
174
     0
175
     1
176
     1
 91
       33
178
     0
145
0.0
170
     4
140
3.0
 92
        0
301
CELL_VALUE
 93
        2
 90
        4
  1
A173_C_402
 94
        0
300

302
A173_C_402
304
ACVALUE_END
171
     1
172
     0
173
     0
174
     0
175
     1
176
     1
 91
       33
178
     0
145
0.0
170
     4
140
3.5
 92
        0
301
CELL_VALUE
 93
        2
 90
        4
  1
Rev:00
 94
        0
300

302
Rev:00
304
ACVALUE_END
171
     1
172
     0
173
     1
174
     0
175
     1
176
     1
 91
        0
178
     0
145
0.0
 92
        0
301
CELL_VALUE
 93
        3
 90
        0
 91
        0
 94
        0
300

302

304
ACVALUE_END
171
     1
172
     0
173
     1
174
     0
175
     1
176
     1
 91
        0
178
     0
145
0.0
 92
        0
301
CELL_VALUE
 93
        3
 90
        0
 91
        0
 94
        0
300

302

304
ACVALUE_END
171
     1
172
     0
173
     1
174
     0
175
     1
176
     1
 91
        0
178
     0
145
0.0
 92
        0
301
CELL_VALUE
 93
        3
 90
        0
 91
        0
 94
        0
300

302

304
ACVALUE_END
171
     1
172
     0
173
     0
174
     0
175
     1
176
     1
 91
       33
178
     0
145
0.0
170
     1
140
3.5
 92
        0
301
CELL_VALUE
 93
        2
 90
        4
  1
Scale:1:1
 94
        0
300

302
Scale:1:1
304
ACVALUE_END
171
     1
172
     0
173
     0
174
     0
175
     1
176
     1
 91
       33
178
     0
145
0.0
170
     4
140
1.9
 92
        0
301
CELL_VALUE
 93
        2
 90
        4
  1
3200 by 2500
 94
        0
300

302
3200 by 2500
304
ACVALUE_END
171
     1
172
     0
173
     1
174
     0
175
     1
176
     1
 91
        0
178
     0
145
0.0
 92
        0
301
CELL_VALUE
 93
        3
 90
        0
 91
        0
 94
        0
300

302

304
ACVALUE_END
171
     1
172
     0
173
     1
174
     0
175
     1
176
     1
 91
        0
178
     0
145
0.0
 92
        0
301
CELL_VALUE
 93
        3
 90
        0
 91
        0
 94
        0
300

302

304
ACVALUE_END
171
     1
172
     0
173
     1
174
     0
175
     1
176
     1
 91
        0
178
     0
145
0.0
 92
        0
301
CELL_VALUE
 93
        3
 90
        0
 91
        0
 94
        0
300

302

304
ACVALUE_END
171
     1
172
     0
173
     0
174
     0
175
     2
176
     1
 91
       33
178
     0
145
0.0
170
     4
140
2.0
 92
        0
301
CELL_VALUE
 93
        2
 90
        4
  1
CASSAFORMA TRIMLESS COLORADO 2.1
 94
        0
300

302
CASSAFORMA TRIMLESS COLORADO 2.1
304
ACVALUE_END
171
     1
172
     0
173
     1
174
     0
175
     1
176
     1
 91
        0
178
     0
145
0.0
 92
        0
301
CELL_VALUE
 93
        3
 90
        0
 91
        0
 94
        0
300

302

304
ACVALUE_END
171
     1
172
     0
173
     1
174
     0
175
     1
176
     1
 91
        0
178
     0
145
0.0
 92
        0
301
CELL_VALUE
 93
        3
 90
        0
 91
        0
 94
        0
300

302

304
ACVALUE_END
171
     1
172
     0
173
     1
174
     0
175
     1
176
     1
 91
        0
178
     0
145
0.0
 92
        0
301
CELL_VALUE
 93
        3
 90
        0
 91
        0
 94
        0
300

302

304
ACVALUE_END
171
     1
172
     0
173
     1
174
     0
175
     1
176
     1
 91
        0
178
     0
145
0.0
 92
        0
301
CELL_VALUE
 93
        3
 90
        0
 91
        0
 94
        0
300

302

304
ACVALUE_END
171
     1
172
     0
173
     0
174
     0
175
     2
176
     1
 91
       33
178
     0
145
0.0
170
     4
140
2.5
 92
        0
301
CELL_VALUE
 93
        2
 90
        4
  1
DATE:30.08.22
 94
        0
300

302
DATE:30.08.22
304
ACVALUE_END
171
     1
172
     0
173
     1
174
     0
175
     1
176
     1
 91
        0
178
     0
145
0.0
 92
        0
301
CELL_VALUE
 93
        3
 90
        0
 91
        0
 94
        0
300

302

304
ACVALUE_END
171
     1
172
     0
173
     0
174
     0
175
     5
176
     1
 91
       33
178
     0
145
0.0
170
     4
140
2.25
 92
        0
301
CELL_VALUE
 93
        2
 90
        4
  1
Any integral or partial reproductions are prohibited \Pwithout prior authorisation of L & L Luce & Light s.r.l., \Pin accordance with the law in force. \PAll rights reserved.
 94
        0
300

302
Any integral or partial reproductions are prohibited \Pwithout prior authorisation of L & L Luce & Light s.r.l., \Pin accordance with the law in force. \PAll rights reserved.
304
ACVALUE_END
171
     1
172
     0
173
     1
174
     0
175
     1
176
     1
 91
        0
178
     0
145
0.0
 92
        0
301
CELL_VALUE
 93
        3
 90
        0
 91
        0
 94
        0
300

302

304
ACVALUE_END
171
     1
172
     0
173
     1
174
     0
175
     1
176
     1
 91
        0
178
     0
145
0.0
 92
        0
301
CELL_VALUE
 93
        3
 90
        0
 91
        0
 94
        0
300

302

304
ACVALUE_END
171
     1
172
     0
173
     1
174
     0
175
     1
176
     1
 91
        0
178
     0
145
0.0
 92
        0
301
CELL_VALUE
 93
        3
 90
        0
 91
        0
 94
        0
300

302

304
ACVALUE_END
171
     1
172
     0
173
     1
174
     0
175
     1
176
     1
 91
        0
178
     0
145
0.0
 92
        0
301
CELL_VALUE
 93
        3
 90
        0
 91
        0
 94
        0
300

302

304
ACVALUE_END
  0
ENDSEC
  0
SECTION
  2
OBJECTS
  0
DICTIONARY
  5
C
330
0
100
AcDbDictionary
281
     1
  3
ACAD_DETAILVIEWSTYLE
350
563
  3
ACAD_GROUP
350
D
  3
ACAD_IMAGE_DICT
350
523
  3
ACAD_LAYOUT
350
1A
  3
ACAD_MATERIAL
350
517
  3
ACAD_MLEADERSTYLE
350
562
  3
ACAD_MLINESTYLE
350
17
  3
ACAD_PLOTSETTINGS
350
19
  3
ACAD_PLOTSTYLENAME
350
E
  3
ACAD_SCALELIST
350
4D9
  3
ACAD_SECTIONVIEWSTYLE
350
564
  3
ACAD_TABLESTYLE
350
4FB
  3
ACAD_VISUALSTYLE
350
4FE
  3
ACDB_RECOMPOSE_DATA
350
560
  3
AcDbVariableDictionary
350
52C
  3
HOST_DOC_SETTINGS
350
521
  3
MCS_STREAM_DICT
350
51D
  0
SUN
  5
520
330
1F4
100
AcDbSun
 90
        1
290
     0
 63
     7
421
 16777215
 40
1.0
291
     1
 91
  2455826
 92
 54000000
292
     0
 70
     2
 71
   256
280
     1
  0
DICTIONARY
  5
52A
330
4D3
100
AcDbDictionary
280
     1
281
     1
  3
ACAD_XREC_ROUNDTRIP
360
52B
  0
DICTIONARY
  5
563
102
{ACAD_REACTORS
330
C
102
}
330
C
100
AcDbDictionary
281
     1
  0
DICTIONARY
  5
D
102
{ACAD_REACTORS
330
C
102
}
330
C
100
AcDbDictionary
281
     1
  0
DICTIONARY
  5
523
102
{ACAD_REACTORS
330
C
102
}
330
C
100
AcDbDictionary
281
     1
  0
DICTIONARY
  5
1A
102
{ACAD_REACTORS
330
C
102
}
330
C
100
AcDbDictionary
281
     1
  3
Layout1
350
4D6
  3
Model
350
4D5
  0
DICTIONARY
  5
517
102
{ACAD_REACTORS
330
C
102
}
330
C
100
AcDbDictionary
281
     1
  3
ByBlock
350
519
  3
ByLayer
350
518
  3
Global
350
51A
  0
DICTIONARY
  5
562
102
{ACAD_REACTORS
330
C
102
}
330
C
100
AcDbDictionary
281
     1
  0
DICTIONARY
  5
17
102
{ACAD_REACTORS
330
C
102
}
330
C
100
AcDbDictionary
281
     1
  3
Standard
350
18
  0
DICTIONARY
  5
19
102
{ACAD_REACTORS
330
C
102
}
330
C
100
AcDbDictionary
281
     1
  0
ACDBDICTIONARYWDFLT
  5
E
102
{ACAD_REACTORS
330
C
102
}
330
C
100
AcDbDictionary
281
     1
  3
Normal
350
F
100
AcDbDictionaryWithDefault
340
F
  0
DICTIONARY
  5
4D9
102
{ACAD_REACTORS
330
C
102
}
330
C
100
AcDbDictionary
281
     1
  3
A0
350
4DA
  3
A1
350
4DB
  3
A2
350
4DC
  3
A3
350
4DD
  3
A4
350
4DE
  3
A5
350
4DF
  3
A6
350
4E0
  3
A7
350
4E1
  3
A8
350
4E2
  3
A9
350
4E3
  3
B0
350
4E4
  3
B1
350
4E5
  3
B2
350
4E6
  3
B3
350
4E7
  3
B4
350
4E8
  3
B5
350
4E9
  3
B6
350
4EA
  3
B7
350
4EB
  3
B8
350
4EC
  3
B9
350
4ED
  3
C0
350
4EE
  3
C1
350
4EF
  3
C2
350
4F0
  3
C3
350
4F1
  3
C4
350
4F2
  3
C5
350
4F3
  3
C6
350
4F4
  3
C7
350
4F5
  3
C8
350
4F6
  3
C9
350
4F7
  3
D0
350
4F8
  3
D1
350
4F9
  3
D2
350
4FA
  0
DICTIONARY
  5
564
102
{ACAD_REACTORS
330
C
102
}
330
C
100
AcDbDictionary
281
     1
  0
DICTIONARY
  5
4FB
102
{ACAD_REACTORS
330
C
102
}
330
C
100
AcDbDictionary
281
     1
  3
Standard
350
4FC
  0
DICTIONARY
  5
4FE
102
{ACAD_REACTORS
330
C
102
}
330
C
100
AcDbDictionary
281
     1
  3
2dWireframe
350
503
  3
Basic
350
506
  3
Brighten
350
50A
  3
ColorChange
350
50E
  3
Conceptual
350
508
  3
Dim
350
509
  3
EdgeColorOff
350
511
  3
Facepattern
350
50D
  3
Flat
350
4FF
  3
FlatWithEdges
350
500
  3
Gouraud
350
501
  3
GouraudWithEdges
350
502
  3
Hidden
350
505
  3
JitterOff
350
50F
  3
Linepattern
350
50C
  3
OverhangOff
350
510
  3
Realistic
350
507
  3
Shaded
350
516
  3
Shaded with edges
350
515
  3
Shades of Gray
350
512
  3
Sketchy
350
513
  3
Thicken
350
50B
  3
Wireframe
350
504
  3
X-Ray
350
514
  0
XRECORD
  5
560
102
{ACAD_REACTORS
330
C
102
}
330
C
100
AcDbXrecord
280
     1
 90
        1
330
4D3
330
4FC
  0
DICTIONARY
  5
52C
102
{ACAD_REACTORS
330
C
102
}
330
C
100
AcDbDictionary
281
     1
  3
CANNOSCALE
350
52D
  3
CTABLESTYLE
350
561
  0
DICTIONARY
  5
521
102
{ACAD_REACTORS
330
C
102
}
330
C
100
AcDbDictionary
281
     1
  3
NCDocParameters
350
522
  0
DICTIONARY
  5
51D
102
{ACAD_REACTORS
330
C
102
}
330
C
100
AcDbDictionary
281
     1
  3
MC_VERSION_DATA
350
526
  3
MCS_DOCUMENT_ID
350
51E
  3
MCS_PARAMS_DATA
350
524
  0
XRECORD
  5
52B
102
{ACAD_REACTORS
330
52A
102
}
330
52A
100
AcDbXrecord
280
     1
102
ACAD_ROUNDTRIP_2008_TABLE_ENTITY
360
528
 70
     2
 90
        1
 10
0.0
 20
0.0
 30
0.0
 90
        0
 90
        4
361
529
  0
LAYOUT
  5
4D6
102
{ACAD_REACTORS
330
1A
102
}
330
1A
100
AcDbPlotSettings
  1

  2
none_device
  4

  6

 40
0.0
 41
0.0
 42
0.0
 43
0.0
 44
3200.0
 45
2500.0
 46
0.0
 47
0.0
 48
0.0
 49
0.0
140
0.0
141
0.0
142
1.0
143
1.0
 70
     0
 72
     1
 73
     0
 74
     0
  7

 75
     0
 76
     0
 77
     2
 78
   300
147
1.0
148
0.0
149
0.0
100
AcDbLayout
  1
Layout1
 70
     0
 71
     1
 10
0.0
 20
0.0
 11
3200.0
 21
2500.0
 12
0.0
 22
0.0
 32
0.0
 14
0.0
 24
0.0
 34
0.0
 15
0.0
 25
0.0
 35
0.0
146
0.0
 13
0.0
 23
0.0
 33
0.0
 16
1.0
 26
0.0
 36
0.0
 17
0.0
 27
1.0
 37
0.0
 76
     0
330
208
  0
LAYOUT
  5
4D5
102
{ACAD_REACTORS
330
1A
102
}
330
1A
100
AcDbPlotSettings
  1

  2
none_device
  4

  6

 40
0.0
 41
0.0
 42
0.0
 43
0.0
 44
3200.0
 45
2500.0
 46
0.0
 47
0.0
 48
0.0
 49
0.0
140
0.0
141
0.0
142
1.0
143
1.0
 70
  1024
 72
     1
 73
     0
 74
     0
  7

 75
     0
 76
     0
 77
     2
 78
   300
147
1.0
148
0.0
149
0.0
100
AcDbLayout
  1
Model
 70
     0
 71
     0
 10
0.0
 20
0.0
 11
3200.0
 21
2500.0
 12
0.0
 22
0.0
 32
0.0
 14
0.0
 24
0.0
 34
0.0
 15
0.0
 25
0.0
 35
0.0
146
0.0
 13
0.0
 23
0.0
 33
0.0
 16
1.0
 26
0.0
 36
0.0
 17
0.0
 27
1.0
 37
0.0
 76
     0
330
207
331
1F4
  0
MATERIAL
  5
519
102
{ACAD_REACTORS
330
517
102
}
330
517
100
AcDbMaterial
  1
ByBlock
 72
     1
 94
      127
  0
MATERIAL
  5
518
102
{ACAD_REACTORS
330
517
102
}
330
517
100
AcDbMaterial
  1
ByLayer
 72
     1
 94
      127
  0
MATERIAL
  5
51A
102
{ACAD_REACTORS
330
517
102
}
330
517
100
AcDbMaterial
  1
Global
 72
     1
 94
      127
  0
MLINESTYLE
  5
18
102
{ACAD_REACTORS
330
17
102
}
330
17
100
AcDbMlineStyle
  2
STANDARD
 70
     0
  3

 62
   256
 51
90.0
 52
90.0
 71
     2
 49
0.5
 62
   256
  6
BYLAYER
 49
-0.5
 62
   256
  6
BYLAYER
  0
ACDBPLACEHOLDER
  5
F
102
{ACAD_REACTORS
330
E
102
}
330
E
  0
SCALE
  5
4DA
102
{ACAD_REACTORS
330
4D9
102
}
330
4D9
100
AcDbScale
 70
     0
300
1:1
140
1.0
141
1.0
290
     1
  0
SCALE
  5
4DB
102
{ACAD_REACTORS
330
4D9
102
}
330
4D9
100
AcDbScale
 70
     0
300
1:2
140
1.0
141
2.0
290
     0
  0
SCALE
  5
4DC
102
{ACAD_REACTORS
330
4D9
102
}
330
4D9
100
AcDbScale
 70
     0
300
1:4
140
1.0
141
4.0
290
     0
  0
SCALE
  5
4DD
102
{ACAD_REACTORS
330
4D9
102
}
330
4D9
100
AcDbScale
 70
     0
300
1:5
140
1.0
141
5.0
290
     0
  0
SCALE
  5
4DE
102
{ACAD_REACTORS
330
4D9
102
}
330
4D9
100
AcDbScale
 70
     0
300
1:8
140
1.0
141
8.0
290
     0
  0
SCALE
  5
4DF
102
{ACAD_REACTORS
330
4D9
102
}
330
4D9
100
AcDbScale
 70
     0
300
1:10
140
1.0
141
10.0
290
     0
  0
SCALE
  5
4E0
102
{ACAD_REACTORS
330
4D9
102
}
330
4D9
100
AcDbScale
 70
     0
300
1:16
140
1.0
141
16.0
290
     0
  0
SCALE
  5
4E1
102
{ACAD_REACTORS
330
4D9
102
}
330
4D9
100
AcDbScale
 70
     0
300
1:20
140
1.0
141
20.0
290
     0
  0
SCALE
  5
4E2
102
{ACAD_REACTORS
330
4D9
102
}
330
4D9
100
AcDbScale
 70
     0
300
1:30
140
1.0
141
30.0
290
     0
  0
SCALE
  5
4E3
102
{ACAD_REACTORS
330
4D9
102
}
330
4D9
100
AcDbScale
 70
     0
300
1:40
140
1.0
141
40.0
290
     0
  0
SCALE
  5
4E4
102
{ACAD_REACTORS
330
4D9
102
}
330
4D9
100
AcDbScale
 70
     0
300
1:50
140
1.0
141
50.0
290
     0
  0
SCALE
  5
4E5
102
{ACAD_REACTORS
330
4D9
102
}
330
4D9
100
AcDbScale
 70
     0
300
1:100
140
1.0
141
100.0
290
     0
  0
SCALE
  5
4E6
102
{ACAD_REACTORS
330
4D9
102
}
330
4D9
100
AcDbScale
 70
     0
300
2:1
140
2.0
141
1.0
290
     0
  0
SCALE
  5
4E7
102
{ACAD_REACTORS
330
4D9
102
}
330
4D9
100
AcDbScale
 70
     0
300
4:1
140
4.0
141
1.0
290
     0
  0
SCALE
  5
4E8
102
{ACAD_REACTORS
330
4D9
102
}
330
4D9
100
AcDbScale
 70
     0
300
8:1
140
8.0
141
1.0
290
     0
  0
SCALE
  5
4E9
102
{ACAD_REACTORS
330
4D9
102
}
330
4D9
100
AcDbScale
 70
     0
300
10:1
140
10.0
141
1.0
290
     0
  0
SCALE
  5
4EA
102
{ACAD_REACTORS
330
4D9
102
}
330
4D9
100
AcDbScale
 70
     0
300
100:1
140
100.0
141
1.0
290
     0
  0
SCALE
  5
4EB
102
{ACAD_REACTORS
330
4D9
102
}
330
4D9
100
AcDbScale
 70
     0
300
1/128" = 1'-0"
140
0.007812
141
12.0
290
     0
  0
SCALE
  5
4EC
102
{ACAD_REACTORS
330
4D9
102
}
330
4D9
100
AcDbScale
 70
     0
300
1/64" = 1'-0"
140
0.015625
141
12.0
290
     0
  0
SCALE
  5
4ED
102
{ACAD_REACTORS
330
4D9
102
}
330
4D9
100
AcDbScale
 70
     0
300
1/32" = 1'-0"
140
0.03125
141
12.0
290
     0
  0
SCALE
  5
4EE
102
{ACAD_REACTORS
330
4D9
102
}
330
4D9
100
AcDbScale
 70
     0
300
1/16" = 1'-0"
140
0.0625
141
12.0
290
     0
  0
SCALE
  5
4EF
102
{ACAD_REACTORS
330
4D9
102
}
330
4D9
100
AcDbScale
 70
     0
300
3/32" = 1'-0"
140
0.09375
141
12.0
290
     0
  0
SCALE
  5
4F0
102
{ACAD_REACTORS
330
4D9
102
}
330
4D9
100
AcDbScale
 70
     0
300
1/8" = 1'-0"
140
0.125
141
12.0
290
     0
  0
SCALE
  5
4F1
102
{ACAD_REACTORS
330
4D9
102
}
330
4D9
100
AcDbScale
 70
     0
300
3/16" = 1'-0"
140
0.1875
141
12.0
290
     0
  0
SCALE
  5
4F2
102
{ACAD_REACTORS
330
4D9
102
}
330
4D9
100
AcDbScale
 70
     0
300
1/4" = 1'-0"
140
0.25
141
12.0
290
     0
  0
SCALE
  5
4F3
102
{ACAD_REACTORS
330
4D9
102
}
330
4D9
100
AcDbScale
 70
     0
300
3/8" = 1'-0"
140
0.375
141
12.0
290
     0
  0
SCALE
  5
4F4
102
{ACAD_REACTORS
330
4D9
102
}
330
4D9
100
AcDbScale
 70
     0
300
1/2" = 1'-0"
140
0.5
141
12.0
290
     0
  0
SCALE
  5
4F5
102
{ACAD_REACTORS
330
4D9
102
}
330
4D9
100
AcDbScale
 70
     0
300
3/4" = 1'-0"
140
0.75
141
12.0
290
     0
  0
SCALE
  5
4F6
102
{ACAD_REACTORS
330
4D9
102
}
330
4D9
100
AcDbScale
 70
     0
300
1" = 1'-0"
140
1.0
141
12.0
290
     0
  0
SCALE
  5
4F7
102
{ACAD_REACTORS
330
4D9
102
}
330
4D9
100
AcDbScale
 70
     0
300
1-1/2" = 1'-0"
140
1.5
141
12.0
290
     0
  0
SCALE
  5
4F8
102
{ACAD_REACTORS
330
4D9
102
}
330
4D9
100
AcDbScale
 70
     0
300
3" = 1'-0"
140
3.0
141
12.0
290
     0
  0
SCALE
  5
4F9
102
{ACAD_REACTORS
330
4D9
102
}
330
4D9
100
AcDbScale
 70
     0
300
6" = 1'-0"
140
6.0
141
12.0
290
     0
  0
SCALE
  5
4FA
102
{ACAD_REACTORS
330
4D9
102
}
330
4D9
100
AcDbScale
 70
     0
300
1'-0" = 1'-0"
140
12.0
141
12.0
290
     0
  0
TABLESTYLE
  5
4FC
102
{ACAD_REACTORS
330
4FB
102
}
102
{ACAD_XDICTIONARY
360
52E
102
}
330
4FB
100
AcDbTableStyle
  3
Standard
 70
     0
 71
     0
 40
0.06
 41
0.06
280
     0
281
     0
  7
STANDARD
140
4.5
170
     2
 62
     0
 63
   257
283
     0
 90
        4
 91
        0
  1

274
    -2
284
     1
 64
     0
275
    -2
285
     1
 65
     0
276
    -2
286
     1
 66
     0
277
    -2
287
     1
 67
     0
278
    -2
288
     1
 68
     0
279
    -2
289
     1
 69
     0
  7
STANDARD
140
6.0
170
     5
 62
     0
 63
   257
283
     0
 90
        4
 91
        0
  1

274
    -2
284
     1
 64
     0
275
    -2
285
     1
 65
     0
276
    -2
286
     1
 66
     0
277
    -2
287
     1
 67
     0
278
    -2
288
     1
 68
     0
279
    -2
289
     1
 69
     0
  7
STANDARD
140
4.5
170
     5
 62
     0
 63
   257
283
     0
 90
        4
 91
        0
  1

274
    -2
284
     1
 64
     0
275
    -2
285
     1
 65
     0
276
    -2
286
     1
 66
     0
277
    -2
287
     1
 67
     0
278
    -2
288
     1
 68
     0
279
    -2
289
     1
 69
     0
  0
VISUALSTYLE
  5
503
102
{ACAD_REACTORS
330
4FE
102
}
102
{ACAD_XDICTIONARY
360
538
102
}
330
4FE
100
AcDbVisualStyle
  2
2dWireframe
 70
     4
177
     2
291
     0
 71
     0
176
     1
 72
     2
176
     1
 73
     0
176
     1
 90
        0
176
     1
 40
0.6
176
     1
 41
30.0
176
     1
 62
     5
 63
     7
421
 16777215
176
     1
 74
     1
176
     1
 91
        4
176
     1
 64
     7
176
     1
 65
   257
176
     1
 75
     1
176
     1
175
     1
176
     1
 42
1.0
176
     1
 92
        0
176
     1
 66
   257
176
     1
 43
1.0
176
     1
 76
     1
176
     1
 77
     6
176
     1
 78
     2
176
     1
 67
     7
176
     1
 79
     5
176
     1
170
     0
176
     1
171
     0
176
     1
290
     0
176
     1
 93
        1
176
     1
 44
0.0
176
     1
173
     0
176
     1
  0
VISUALSTYLE
  5
506
102
{ACAD_REACTORS
330
4FE
102
}
102
{ACAD_XDICTIONARY
360
53E
102
}
330
4FE
100
AcDbVisualStyle
  2
Basic
 70
     7
177
     2
291
     1
 71
     1
176
     1
 72
     0
176
     1
 73
     1
176
     1
 90
        0
176
     1
 40
0.6
176
     1
 41
30.0
176
     1
 62
     5
 63
     7
421
 16777215
176
     1
 74
     0
176
     1
 91
        4
176
     1
 64
     7
176
     1
 65
   257
176
     1
 75
     1
176
     1
175
     1
176
     1
 42
1.0
176
     1
 92
        8
176
     1
 66
     7
176
     1
 43
1.0
176
     1
 76
     1
176
     1
 77
     6
176
     1
 78
     2
176
     1
 67
     7
176
     1
 79
     5
176
     1
170
     0
176
     1
171
     0
176
     1
290
     0
176
     1
 93
        1
176
     1
 44
0.0
176
     1
173
     0
176
     1
  0
VISUALSTYLE
  5
50A
102
{ACAD_REACTORS
330
4FE
102
}
102
{ACAD_XDICTIONARY
360
546
102
}
330
4FE
100
AcDbVisualStyle
  2
Brighten
 70
    12
177
     2
291
     1
 71
     2
176
     1
 72
     2
176
     1
 73
     0
176
     1
 90
        0
176
     1
 40
0.6
176
     1
 41
30.0
176
     1
 62
     5
 63
     7
421
 16777215
176
     1
 74
     1
176
     1
 91
        4
176
     1
 64
     7
176
     1
 65
   257
176
     1
 75
     1
176
     1
175
     1
176
     1
 42
1.0
176
     1
 92
        8
176
     1
 66
     7
176
     1
 43
1.0
176
     1
 76
     1
176
     1
 77
     6
176
     1
 78
     2
176
     1
 67
     7
176
     1
 79
     5
176
     1
170
     0
176
     1
171
     0
176
     1
290
     0
176
     1
 93
        1
176
     1
 44
50.0
176
     1
173
     0
176
     1
  0
VISUALSTYLE
  5
50E
102
{ACAD_REACTORS
330
4FE
102
}
102
{ACAD_XDICTIONARY
360
54E
102
}
330
4FE
100
AcDbVisualStyle
  2
ColorChange
 70
    16
177
     2
291
     1
 71
     2
176
     1
 72
     2
176
     1
 73
     3
176
     1
 90
        0
176
     1
 40
0.6
176
     1
 41
30.0
176
     1
 62
     5
 63
     8
421
  8421504
176
     1
 74
     1
176
     1
 91
        4
176
     1
 64
     7
176
     1
 65
   257
176
     1
 75
     1
176
     1
175
     1
176
     1
 42
1.0
176
     1
 92
        8
176
     1
 66
     8
424
  8421504
176
     1
 43
1.0
176
     1
 76
     1
176
     1
 77
     6
176
     1
 78
     2
176
     1
 67
     7
176
     1
 79
     5
176
     1
170
     0
176
     1
171
     0
176
     1
290
     0
176
     1
 93
        1
176
     1
 44
0.0
176
     1
173
     0
176
     1
  0
VISUALSTYLE
  5
508
102
{ACAD_REACTORS
330
4FE
102
}
102
{ACAD_XDICTIONARY
360
542
102
}
330
4FE
100
AcDbVisualStyle
  2
Conceptual
 70
     9
177
     2
291
     0
 71
     3
176
     1
 72
     2
176
     1
 73
     0
176
     1
 90
        0
176
     1
 40
0.6
176
     1
 41
30.0
176
     1
 62
     5
 63
     7
421
 16777215
176
     1
 74
     2
176
     1
 91
        2
176
     1
 64
     7
176
     1
 65
   257
176
     1
 75
     1
176
     1
175
     1
176
     1
 42
179.0
176
     1
 92
        8
176
     1
 66
     7
176
     1
 43
1.0
176
     1
 76
     1
176
     1
 77
     6
176
     1
 78
     2
176
     1
 67
     7
176
     1
 79
     3
176
     1
170
     0
176
     1
171
     0
176
     1
290
     0
176
     1
 93
        1
176
     1
 44
0.0
176
     1
173
     0
176
     1
  0
VISUALSTYLE
  5
509
102
{ACAD_REACTORS
330
4FE
102
}
102
{ACAD_XDICTIONARY
360
544
102
}
330
4FE
100
AcDbVisualStyle
  2
Dim
 70
    11
177
     2
291
     1
 71
     2
176
     1
 72
     2
176
     1
 73
     0
176
     1
 90
        0
176
     1
 40
0.6
176
     1
 41
30.0
176
     1
 62
     5
 63
     7
421
 16777215
176
     1
 74
     1
176
     1
 91
        4
176
     1
 64
     7
176
     1
 65
   257
176
     1
 75
     1
176
     1
175
     1
176
     1
 42
1.0
176
     1
 92
        8
176
     1
 66
     7
176
     1
 43
1.0
176
     1
 76
     1
176
     1
 77
     6
176
     1
 78
     2
176
     1
 67
     7
176
     1
 79
     5
176
     1
170
     0
176
     1
171
     0
176
     1
290
     0
176
     1
 93
        1
176
     1
 44
-50.0
176
     1
173
     0
176
     1
  0
VISUALSTYLE
  5
511
102
{ACAD_REACTORS
330
4FE
102
}
102
{ACAD_XDICTIONARY
360
554
102
}
330
4FE
100
AcDbVisualStyle
  2
EdgeColorOff
 70
    22
177
     2
291
     1
 71
     2
176
     0
 72
     2
176
     0
 73
     0
176
     0
 90
        0
176
     0
 40
0.6
176
     0
 41
30.0
176
     0
 62
     5
 63
     7
421
 16777215
176
     0
 74
     1
176
     0
 91
        4
176
     0
 64
     7
176
     0
 65
   257
176
     0
 75
     1
176
     0
175
     1
176
     0
 42
1.0
176
     0
 92
        8
176
     2
 66
     7
176
     0
 43
1.0
176
     0
 76
     1
176
     0
 77
     6
176
     0
 78
     2
176
     0
 67
     7
176
     0
 79
     5
176
     0
170
     0
176
     0
171
     0
176
     0
290
     0
176
     0
 93
        1
176
     0
 44
0.0
176
     0
173
     0
176
     0
  0
VISUALSTYLE
  5
50D
102
{ACAD_REACTORS
330
4FE
102
}
102
{ACAD_XDICTIONARY
360
54C
102
}
330
4FE
100
AcDbVisualStyle
  2
Facepattern
 70
    15
177
     2
291
     1
 71
     2
176
     1
 72
     2
176
     1
 73
     0
176
     1
 90
        0
176
     1
 40
0.6
176
     1
 41
30.0
176
     1
 62
     5
 63
     7
421
 16777215
176
     1
 74
     1
176
     1
 91
        4
176
     1
 64
     7
176
     1
 65
   257
176
     1
 75
     1
176
     1
175
     1
176
     1
 42
1.0
176
     1
 92
        8
176
     1
 66
     7
176
     1
 43
1.0
176
     1
 76
     1
176
     1
 77
     6
176
     1
 78
     2
176
     1
 67
     7
176
     1
 79
     5
176
     1
170
     0
176
     1
171
     0
176
     1
290
     0
176
     1
 93
        1
176
     1
 44
0.0
176
     1
173
     0
176
     1
  0
VISUALSTYLE
  5
4FF
102
{ACAD_REACTORS
330
4FE
102
}
102
{ACAD_XDICTIONARY
360
530
102
}
330
4FE
100
AcDbVisualStyle
  2
Flat
 70
     0
177
     2
291
     1
 71
     2
176
     1
 72
     1
176
     1
 73
     1
176
     1
 90
        2
176
     1
 40
0.6
176
     1
 41
30.0
176
     1
 62
     5
 63
     7
421
 16777215
176
     1
 74
     0
176
     1
 91
        0
176
     1
 64
     7
176
     1
 65
   257
176
     1
 75
     1
176
     1
175
     1
176
     1
 42
1.0
176
     1
 92
        8
176
     1
 66
     7
176
     1
 43
1.0
176
     1
 76
     1
176
     1
 77
     6
176
     1
 78
     2
176
     1
 67
     7
176
     1
 79
     5
176
     1
170
     0
176
     1
171
     0
176
     1
290
     0
176
     1
 93
       13
176
     1
 44
0.0
176
     1
173
     0
176
     1
  0
VISUALSTYLE
  5
500
102
{ACAD_REACTORS
330
4FE
102
}
102
{ACAD_XDICTIONARY
360
532
102
}
330
4FE
100
AcDbVisualStyle
  2
FlatWithEdges
 70
     1
177
     2
291
     1
 71
     2
176
     1
 72
     1
176
     1
 73
     1
176
     1
 90
        2
176
     1
 40
0.6
176
     1
 41
30.0
176
     1
 62
     5
 63
     7
421
 16777215
176
     1
 74
     1
176
     1
 91
        0
176
     1
 64
     7
176
     1
 65
   257
176
     1
 75
     1
176
     1
175
     1
176
     1
 42
1.0
176
     1
 92
        0
176
     1
 66
   257
176
     1
 43
1.0
176
     1
 76
     1
176
     1
 77
     6
176
     1
 78
     2
176
     1
 67
     7
176
     1
 79
     5
176
     1
170
     0
176
     1
171
     0
176
     1
290
     0
176
     1
 93
       13
176
     1
 44
0.0
176
     1
173
     0
176
     1
  0
VISUALSTYLE
  5
501
102
{ACAD_REACTORS
330
4FE
102
}
102
{ACAD_XDICTIONARY
360
534
102
}
330
4FE
100
AcDbVisualStyle
  2
Gouraud
 70
     2
177
     2
291
     1
 71
     2
176
     1
 72
     2
176
     1
 73
     1
176
     1
 90
        2
176
     1
 40
0.6
176
     1
 41
30.0
176
     1
 62
     5
 63
     7
421
 16777215
176
     1
 74
     0
176
     1
 91
        0
176
     1
 64
     7
176
     1
 65
   257
176
     1
 75
     1
176
     1
175
     1
176
     1
 42
1.0
176
     1
 92
        0
176
     1
 66
     7
176
     1
 43
1.0
176
     1
 76
     1
176
     1
 77
     6
176
     1
 78
     2
176
     1
 67
     7
176
     1
 79
     5
176
     1
170
     0
176
     1
171
     0
176
     1
290
     0
176
     1
 93
       13
176
     1
 44
0.0
176
     1
173
     0
176
     1
  0
VISUALSTYLE
  5
502
102
{ACAD_REACTORS
330
4FE
102
}
102
{ACAD_XDICTIONARY
360
536
102
}
330
4FE
100
AcDbVisualStyle
  2
GouraudWithEdges
 70
     3
177
     2
291
     1
 71
     2
176
     1
 72
     2
176
     1
 73
     1
176
     1
 90
        2
176
     1
 40
0.6
176
     1
 41
30.0
176
     1
 62
     5
 63
     7
421
 16777215
176
     1
 74
     1
176
     1
 91
        0
176
     1
 64
     7
176
     1
 65
   257
176
     1
 75
     1
176
     1
175
     1
176
     1
 42
1.0
176
     1
 92
        0
176
     1
 66
   257
176
     1
 43
1.0
176
     1
 76
     1
176
     1
 77
     6
176
     1
 78
     2
176
     1
 67
     7
176
     1
 79
     5
176
     1
170
     0
176
     1
171
     0
176
     1
290
     0
176
     1
 93
       13
176
     1
 44
0.0
176
     1
173
     0
176
     1
  0
VISUALSTYLE
  5
505
102
{ACAD_REACTORS
330
4FE
102
}
102
{ACAD_XDICTIONARY
360
53C
102
}
330
4FE
100
AcDbVisualStyle
  2
Hidden
 70
     6
177
     2
291
     0
 71
     1
176
     1
 72
     2
176
     1
 73
     2
176
     1
 90
        0
176
     1
 40
0.6
176
     1
 41
30.0
176
     1
 62
     5
 63
     7
421
 16777215
176
     1
 74
     2
176
     1
 91
        2
176
     1
 64
     7
176
     1
 65
   257
176
     1
 75
     2
176
     1
175
     1
176
     1
 42
40.0
176
     1
 92
        0
176
     1
 66
   257
176
     1
 43
1.0
176
     1
 76
     1
176
     1
 77
     6
176
     1
 78
     2
176
     1
 67
     7
176
     1
 79
     3
176
     1
170
     0
176
     1
171
     0
176
     1
290
     0
176
     1
 93
        1
176
     1
 44
0.0
176
     1
173
     0
176
     1
  0
VISUALSTYLE
  5
50F
102
{ACAD_REACTORS
330
4FE
102
}
102
{ACAD_XDICTIONARY
360
550
102
}
330
4FE
100
AcDbVisualStyle
  2
JitterOff
 70
    20
177
     2
291
     1
 71
     2
176
     0
 72
     2
176
     0
 73
     0
176
     0
 90
        0
176
     0
 40
0.6
176
     0
 41
30.0
176
     0
 62
     5
 63
     7
421
 16777215
176
     0
 74
     1
176
     0
 91
        4
176
     0
 64
     7
176
     0
 65
   257
176
     0
 75
     1
176
     0
175
     1
176
     0
 42
1.0
176
     0
 92
       10
176
     2
 66
     7
176
     0
 43
1.0
176
     0
 76
     1
176
     0
 77
     6
176
     0
 78
     2
176
     0
 67
     7
176
     0
 79
     5
176
     0
170
     0
176
     0
171
     0
176
     0
290
     0
176
     0
 93
        1
176
     0
 44
0.0
176
     0
173
     0
176
     0
  0
VISUALSTYLE
  5
50C
102
{ACAD_REACTORS
330
4FE
102
}
102
{ACAD_XDICTIONARY
360
54A
102
}
330
4FE
100
AcDbVisualStyle
  2
Linepattern
 70
    14
177
     2
291
     1
 71
     2
176
     1
 72
     2
176
     1
 73
     0
176
     1
 90
        0
176
     1
 40
0.6
176
     1
 41
30.0
176
     1
 62
     5
 63
     7
421
 16777215
176
     1
 74
     1
176
     1
 91
        4
176
     1
 64
     7
176
     1
 65
   257
176
     1
 75
     7
176
     1
175
     7
176
     1
 42
1.0
176
     1
 92
        8
176
     1
 66
     7
176
     1
 43
1.0
176
     1
 76
     1
176
     1
 77
     6
176
     1
 78
     2
176
     1
 67
     7
176
     1
 79
     5
176
     1
170
     0
176
     1
171
     0
176
     1
290
     0
176
     1
 93
        1
176
     1
 44
0.0
176
     1
173
     0
176
     1
  0
VISUALSTYLE
  5
510
102
{ACAD_REACTORS
330
4FE
102
}
102
{ACAD_XDICTIONARY
360
552
102
}
330
4FE
100
AcDbVisualStyle
  2
OverhangOff
 70
    21
177
     2
291
     1
 71
     2
176
     0
 72
     2
176
     0
 73
     0
176
     0
 90
        0
176
     0
 40
0.6
176
     0
 41
30.0
176
     0
 62
     5
 63
     7
421
 16777215
176
     0
 74
     1
176
     0
 91
        4
176
     0
 64
     7
176
     0
 65
   257
176
     0
 75
     1
176
     0
175
     1
176
     0
 42
1.0
176
     0
 92
        9
176
     2
 66
     7
176
     0
 43
1.0
176
     0
 76
     1
176
     0
 77
     6
176
     0
 78
     2
176
     0
 67
     7
176
     0
 79
     5
176
     0
170
     0
176
     0
171
     0
176
     0
290
     0
176
     0
 93
        1
176
     0
 44
0.0
176
     0
173
     0
176
     0
  0
VISUALSTYLE
  5
507
102
{ACAD_REACTORS
330
4FE
102
}
102
{ACAD_XDICTIONARY
360
540
102
}
330
4FE
100
AcDbVisualStyle
  2
Realistic
 70
     8
177
     2
291
     0
 71
     2
176
     1
 72
     3
176
     1
 73
     0
176
     1
 90
        2
176
     1
 40
0.6
176
     1
 41
30.0
176
     1
 62
     5
 63
     7
421
 16777215
176
     1
 74
     0
176
     1
 91
        0
176
     1
 64
     7
176
     1
 65
   257
176
     1
 75
     1
176
     1
175
     1
176
     1
 42
1.0
176
     1
 92
        8
176
     1
 66
   257
176
     1
 43
1.0
176
     1
 76
     1
176
     1
 77
     6
176
     1
 78
     2
176
     1
 67
     7
176
     1
 79
     3
176
     1
170
     0
176
     1
171
     0
176
     1
290
     0
176
     1
 93
       13
176
     1
 44
0.0
176
     1
173
     0
176
     1
  0
VISUALSTYLE
  5
516
102
{ACAD_REACTORS
330
4FE
102
}
102
{ACAD_XDICTIONARY
360
55E
102
}
330
4FE
100
AcDbVisualStyle
  2
Shaded
 70
    27
177
     2
291
     0
 71
     2
176
     1
 72
     2
176
     1
 73
     1
176
     1
 90
        2
176
     1
 40
0.6
176
     1
 41
30.0
176
     1
 62
     5
 63
     7
421
 16777215
176
     1
 74
     0
176
     1
 91
        4
176
     1
 64
     7
176
     1
 65
   257
176
     1
 75
     1
176
     1
175
     1
176
     1
 42
1.0
176
     1
 92
        8
176
     1
 66
   257
176
     1
 43
1.0
176
     1
 76
     1
176
     1
 77
     6
176
     1
 78
     2
176
     1
 67
     8
425
  7895160
176
     1
 79
     3
176
     1
170
     0
176
     1
171
     0
176
     1
290
     0
176
     1
 93
        5
176
     1
 44
0.0
176
     1
173
     0
176
     1
  0
VISUALSTYLE
  5
515
102
{ACAD_REACTORS
330
4FE
102
}
102
{ACAD_XDICTIONARY
360
55C
102
}
330
4FE
100
AcDbVisualStyle
  2
Shaded with edges
 70
    26
177
     2
291
     0
 71
     2
176
     1
 72
     2
176
     1
 73
     1
176
     1
 90
        2
176
     1
 40
0.6
176
     1
 41
30.0
176
     1
 62
     5
 63
     7
421
 16777215
176
     1
 74
     1
176
     1
 91
       10
176
     1
 64
     7
176
     1
 65
   257
176
     1
 75
     2
176
     1
175
     1
176
     1
 42
1.0
176
     1
 92
        8
176
     1
 66
   257
176
     1
 43
1.0
176
     1
 76
     1
176
     1
 77
     6
176
     1
 78
     2
176
     1
 67
     7
176
     1
 79
     3
176
     1
170
     0
176
     1
171
     0
176
     1
290
     0
176
     1
 93
        5
176
     1
 44
0.0
176
     1
173
     0
176
     1
  0
VISUALSTYLE
  5
512
102
{ACAD_REACTORS
330
4FE
102
}
102
{ACAD_XDICTIONARY
360
556
102
}
330
4FE
100
AcDbVisualStyle
  2
Shades of Gray
 70
    23
177
     2
291
     0
 71
     2
176
     1
 72
     2
176
     1
 73
     3
176
     1
 90
        0
176
     1
 40
0.6
176
     1
 41
30.0
176
     1
 62
     5
 63
     7
421
 16777215
176
     1
 74
     2
176
     1
 91
        2
176
     1
 64
     7
176
     1
 65
     7
176
     1
 75
     1
176
     1
175
     1
176
     1
 42
40.0
176
     1
 92
        8
176
     1
 66
     7
176
     1
 43
1.0
176
     1
 76
     1
176
     1
 77
     6
176
     1
 78
     2
176
     1
 67
     7
176
     1
 79
     3
176
     1
170
     0
176
     1
171
     0
176
     1
290
     0
176
     1
 93
        1
176
     1
 44
0.0
176
     1
173
     0
176
     1
  0
VISUALSTYLE
  5
513
102
{ACAD_REACTORS
330
4FE
102
}
102
{ACAD_XDICTIONARY
360
558
102
}
330
4FE
100
AcDbVisualStyle
  2
Sketchy
 70
    24
177
     2
291
     0
 71
     1
176
     1
 72
     2
176
     1
 73
     2
176
     1
 90
        0
176
     1
 40
0.6
176
     1
 41
30.0
176
     1
 62
     5
 63
     7
421
 16777215
176
     1
 74
     2
176
     1
 91
        2
176
     1
 64
     7
176
     1
 65
     7
176
     1
 75
     1
176
     1
175
     1
176
     1
 42
40.0
176
     1
 92
       11
176
     1
 66
     7
176
     1
 43
1.0
176
     1
 76
     1
176
     1
 77
     6
176
     1
 78
     2
176
     1
 67
     7
176
     1
 79
     6
176
     1
170
     0
176
     1
171
     0
176
     1
290
     0
176
     1
 93
        1
176
     1
 44
0.0
176
     1
173
     0
176
     1
  0
VISUALSTYLE
  5
50B
102
{ACAD_REACTORS
330
4FE
102
}
102
{ACAD_XDICTIONARY
360
548
102
}
330
4FE
100
AcDbVisualStyle
  2
Thicken
 70
    13
177
     2
291
     1
 71
     2
176
     1
 72
     2
176
     1
 73
     0
176
     1
 90
        0
176
     1
 40
0.6
176
     1
 41
30.0
176
     1
 62
     5
 63
     7
421
 16777215
176
     1
 74
     1
176
     1
 91
        4
176
     1
 64
     7
176
     1
 65
   257
176
     1
 75
     1
176
     1
175
     1
176
     1
 42
1.0
176
     1
 92
       12
176
     1
 66
     7
176
     1
 43
1.0
176
     1
 76
     1
176
     1
 77
     6
176
     1
 78
     2
176
     1
 67
     7
176
     1
 79
     5
176
     1
170
     0
176
     1
171
     0
176
     1
290
     0
176
     1
 93
        1
176
     1
 44
0.0
176
     1
173
     0
176
     1
  0
VISUALSTYLE
  5
504
102
{ACAD_REACTORS
330
4FE
102
}
102
{ACAD_XDICTIONARY
360
53A
102
}
330
4FE
100
AcDbVisualStyle
  2
Wireframe
 70
     5
177
     2
291
     0
 71
     0
176
     1
 72
     2
176
     1
 73
     0
176
     1
 90
        0
176
     1
 40
0.6
176
     1
 41
30.0
176
     1
 62
     5
 63
     7
421
 16777215
176
     1
 74
     1
176
     1
 91
        4
176
     1
 64
     7
176
     1
 65
   257
176
     1
 75
     1
176
     1
175
     1
176
     1
 42
1.0
176
     1
 92
        0
176
     1
 66
   257
176
     1
 43
1.0
176
     1
 76
     1
176
     1
 77
     6
176
     1
 78
     2
176
     1
 67
     7
176
     1
 79
     3
176
     1
170
     0
176
     1
171
     0
176
     1
290
     0
176
     1
 93
        1
176
     1
 44
0.0
176
     1
173
     0
176
     1
  0
VISUALSTYLE
  5
514
102
{ACAD_REACTORS
330
4FE
102
}
102
{ACAD_XDICTIONARY
360
55A
102
}
330
4FE
100
AcDbVisualStyle
  2
X-Ray
 70
    25
177
     2
291
     0
 71
     2
176
     1
 72
     2
176
     1
 73
     1
176
     1
 90
        1
176
     1
 40
0.5
176
     1
 41
30.0
176
     1
 62
     5
 63
     7
421
 16777215
176
     1
 74
     1
176
     1
 91
        0
176
     1
 64
     7
176
     1
 65
   257
176
     1
 75
     1
176
     1
175
     1
176
     1
 42
1.0
176
     1
 92
        8
176
     1
 66
     7
176
     1
 43
1.0
176
     1
 76
     1
176
     1
 77
     6
176
     1
 78
     2
176
     1
 67
     7
176
     1
 79
     3
176
     1
170
     0
176
     1
171
     0
176
     1
290
     0
176
     1
 93
       13
176
     1
 44
0.0
176
     1
173
     0
176
     1
  0
DICTIONARYVAR
  5
52D
102
{ACAD_REACTORS
330
52C
102
}
330
52C
100
DictionaryVariables
280
     0
  1
1:1
  0
DICTIONARYVAR
  5
561
102
{ACAD_REACTORS
330
52C
102
}
330
52C
100
DictionaryVariables
280
     0
  1
Standard
  0
CSACDOCUMENTOPTIONS
  5
522
102
{ACAD_REACTORS
330
521
102
}
330
521
  0
XRECORD
  5
526
102
{ACAD_REACTORS
330
51D
102
}
330
51D
100
AcDbXrecord
280
     1
300
MC_VERSION_DATA
 90
       95
310
0600000002000000570000001C000000E404000000000000000000007801936764E5D8CF7A8393818115C460606066E0646662626666706006F214793899F8DE3171E725E6E53B3BBA2878E6951050AF75FEFFFFFF520032DE0F3057000000
  0
XRECORD
  5
51E
102
{ACAD_REACTORS
330
51D
102
}
330
51D
100
AcDbXrecord
280
     1
300
MCS_DOCUMENT_ID
 90
       60
310
0600000002000000150000001C000000E404000000000000000000007801E3753D67E12773F291D79C8BE7935B739FD6FC07020071560CA615000000
  0
XRECORD
  5
524
102
{ACAD_REACTORS
330
51D
102
}
330
51D
100
AcDbXrecord
280
     1
300
MCS_PARAMS_DATA
 90
     3313
310
0600000002000000F64B00001C000000E404000000000000000000007801C55C5B905C45199EE99EBDCCE67E5DA218172C303B91307B4B8C459531245054850D55591F78B236BB49B9BAC9E6B22A082A9655BE5865596569A965F9209288CF16503EC8834088C10B092404211702988430422E9084CDAEFFD7A7FBF4DFA7CF
310
D9D99D9D39930798FF3F7DCEF7DFFAFBBBFBCC6CDBFC46297252EECB48F9CDF5ED5234493921A5206D76815820B252E4F3225F128D7D5F59BF69E3162948D9A2D485B3131313747328BF06593E960915079422437734AA3BDAA5CCD053F5ED4FD2557D257BAB94DF007A03479F859BB2B22193C9108EC1CDCADC0464C27506
310
28605703E48886E0B986E10F03BF91E33707F8E3140E7A9091C8268236920C1C662240B94888A1C8E07600AE99C32D5131CA8B3925D172EFE62D7D6D9DABBA8ADDD6F17CE16D13F0457AE8AC9268DE32DABF73B07FCFA013F9BF8491D7C17E2550D8E8FFCA8DFE4E98B3929B331718B291824FFF72EB941D9E8E2211D5A93C
310
784A44C557923911258BD0C8640531AEEC61A924855B11378280384364A422680C0A928DB9C10CD89D581114199665B722B26E4590C82B0222AB08FAA8A60626C028E0044F81BA246F5360E167F2D27C56A10E05C058C13C59DEC6207679103AFC5DEADF992F2B284F67B31C8EE359B64A9665A62453228F64269D98455E3B
310
A4B35817F7EC92C86FB8EFFE8DBD5BEEDBDCAB0CD3B5FC8E99065A7E55D536E39DE7826237F1C8BBBCB3CFADFC93302087C80397EE69C2FF69CA32234F0763E41851010DA578E8294D435524988818E84710A7B2643B4F7C034F6CE5C9368F203BE8094C6268541D70D35EE4B585DAE170F4942EB8D2D422560A9917F34B62
310
CE86919D9F1F6DDBB36DD770FFC0B6BC682E898607BEB5737424F8D83B323AF07529CFC0B69BB96D9FD3CFF9B410ED79B1A42416161FEA29AEEDEEEC5ADF532C76DEF3C5AEEEB5CAECF97A60330D2C1C3579EAD0DA7621F20269BD6768746FDBF0D0DE51F3B0EE356B3ABBD6F474F7740D76770EACED08FCFC92BEAF13F701
310
B5AF7FEBF0B6B691ED6D7D23C3DBF6F4EF840FDA9AD583C58E81E240FFEAADDD5BD70EAC0E669D2A25F27FB610851F9335859F059541B9E5971EC7A5A7E83F2CE53DB9A4040555A2661A4DDBF2C560B2E54E7D5483931EF871F7C88E5DFDA3435B878687461F6EDB313248FE3596847C70DBDEBC682809D13B22E56A5856E4
310
E9998738519B6E2A89DCE6EDDBDB542AF4E4380F8F61A4965F57116093E5A052A06AF588670205D9A715FB49B140D81A90855F902680EBB8B3A3187EEA96F2B224E392BAF898328CB1AD47DA34C1601A1B421AD816D190715CC3F276A5DE067C546F03AED6DB808FEB6DC0B57A1BB00853B49EB3E0937A47E07ABD0D188301
310
71CB797197D3603B1D06BFCB6DB024827C0C834324E60945463B3712E196397079076E990B47228783C8E09631B8F129C211385B3E540C97413DC70673C524DEAD70BD23917B079179B782793791AE77D944EFDCDC5529988B13E1069D6092C472A7F777A6F648E4C184C88239C8822913E16AE29D48176E29E0727C316496
310
EF2A967C95165E504B0C2B218EEE82DD5C63513CD614C5091F6D6FA7551865CC5C5030A1E0A3E84BEC86CFD04EC5DD01AA74CBDB05AB8C403295A124BB2908C4B032B4682A032283FB103E391B4E03172C7199C4E0F88E871E8855ADA1482D3238FA1846E0B807A77785BFF935FE1D74369F5647D0D171CA5F4F09337C2559
310
105132935A503D6DBC7A94B54D2B6DF1E0339960F436A97441791E5EC104D40283580888C4FDED577B1FD8B4B9AF6FE30605D8AAD7F1F34A62F6DD5BBEC62E92057A31FEA25A9DB3F5FBD3C1729D9CD723B0BF0DE8402BB05A67160DDE4416E59079C0D9EAA575B7321F67115FC018C76AB5B3A33D06B68CBD9BFBDC93C073
310
800CC384FD360C544F539B6F02B1820953BE9D01DE01C0D85A6C50369A5AC4065C7760793B965800321749E4B50891C0C2AB0CAE9808178444974C70F875952A9381563C01BE9D08EAFA481283ABD8C7EF7870DAABE068E68833DFAC8EA0A3E3F87C0B07AA507B2311F0889285BDC333294C4E2DB27C67BA70ABD2857B688A
310
70552AA7873DB8489E55063D5D2DCBE9BB9E49F1E554A5083C922EDCA3E9C27D2F5DB8EF7B705EE9D87E1E920E88313AAE6AECF4FBD668D3D30DB4E51ADA9BEDB0D7AFCEB4DDED85F7C4ECF6551B3BCE2AFF6E835E49458EC94883D6E73C45753FAE614C3C0A0362777435D915EC025C33F7578776011DE6F3D066954C59D6
310
D76F86AC9CD58A53F4122CF0552BAE070AEA3B5AF15752304F1F47569D50AB71F41A31FA5A51C904CD43C6B0F51D2ACEFC112ACC4CC1B0FF086CE7AD5A4D096A005126387AAD451EE384D9C035A925859E39C1AA865EE9A9B8DA21CEE289167F7CF1D4C4BC7A125EC5AED5D8BB0B5A9D9144D134CFA71BF85A8D44BE568348
310
F6AA55A2F3CAEA4F6982FD21118CC249D3CBF852A586F244BA70FBD285DB9F085793EDE56E143F0AD06C6B4CB2242BDD3DD1419166C2865E81F9CE1648F3CBD84597B22E28992A3DDCE24C77F3F311A01C8A722828EC3CF15F7D987933F818F8E59BC138E5CD4CE8AC24C94E68BA32F5C3CBAB808B6B06B9936E642F9F804C
310
903AF2F3709D37832318A078E4B37AEBDCFAA66859945B9EBB25776BAE2DD3995995E9CA1433DDFA4DAC7ECE6FE93696E96BB06712968ED2661884A9EE40230F60D0D73DE8C858453B9E8E4212D5A9B0784A762662599FEDD18C9299F4094C728A91F536658E91CDA6DFC8E89F363B15B4CB31404FD2581CF722BBF229B517
310
430944E56AB2E2A8E3461950730F2B7ECA7BC570E389706E8BA9D241C744225C40C29385944F707279EA277D998065D9EAD604B1263E66D38513E9C2490F4EE7CC6E8AA89C3D9DA588701CA708AB6414C194931EE3FC0D4515D71A4FBFE712F8CB4A26532A6E8DCF01CA61A3745BE3F3C09F6E6B442F0CD7BAD36A8D2F002E
310
AE359E3BE646F6B8926D6BBC0CD9926FBEF08C5220B9BAE91D0E14769FF44B52301E3C00E8FA74C117BD24F396E22C7F1005F2DA2902EB76053DE720B0D3EE397F2F036AE8B24A3DE750225C4DF8F8A544B81AF69C7F2482D6C4C77F067093EF36FE359541FF8E0E8A50399BA22F63681CEF0EBDEBB2C3834A9E09EF1E0654
310
1D79F708F0A7CBBB956F495E015C1CEFEE3EEC46B65FC996771F856C09285F58A7148C77872F6104D6DC9A8897D30896D457015D1FDE3DEA25B91CEFF2EBD6EB0A68F718A0D3A6DDD7CA805699768F27C2D584925E4F84AB9476A39B03E744D09CD6610FF59F44E89A78FA46BA70DDDE0ADC144A4DBCEBF1E0221D416DC23D
310
1D715254A766A8A7AC60C1FF26021ED7783E889CD89C52F24C1ACF0940D5B1F19C047E7A8DE714E0E21ACFD5436EE339AB64DB78E44B91C6730003ECCB897CE1D28548E3798246B0C6731AD0536D3CB3E90740046E0B5FD5161351555C247A084506FA9607AAEBD39C44F1E2B63A5BDCA18E17B755B2E2664A322602C34C3A
310
0393625B51C09BC60D77315EF1E1C8DB80730A9C37D5B8CD0EBF3EA3A6FB4EA2A7C18B1B2746D53A5F7BB70C687C78291FE10E3A386EE3054657F9CB297E9CF703B0E71DFC4DA3397B4068C3CF33A1A81F02C2C920DB8E7ABF712005813923946BAE06DE453454B45CC32AF6311810C751E3F85A979E7874424F9299B34AB2
310
210DC430A45A3473162283FB2F3218C7FE178FBB1CF59692CDAD957C0DECAC3739580882F7E26636C4FC0874E66F42CE013F2EB274A4C323CBB88082C5B980AE4CFD4DC879C0C5B1FFF5E7DDC89E57324556799F2F34BC006EC70CD18A8318C0D9FF0AB6807CDBB19F46B0A4BE07E8B4D9FF8207EA504E3D7E65FA3E4C7226
310
B329B0E8D703AAFEBAA304E869379E693123CD68457958A4FF2F11AE86ECFF4119D078F6E7138AD87FF2370F86D6E1E38789702D76FED2134932CCA824CB8C811832A3160D33426421BD980847AF6F0C11D33DEECB1CFE9B7175D1F926045DE5BD8DBFBDBE94081764D0049324E6DDB40A8607F372225C4D16463974B5B836
310
F393232E193EA2E499B49986C93A780A6DA631A981D7A6CD34012EAECDFCFC5937B23F52B26D33BF83CCDBCC56A5C0ECD07DE7A7A7226D661D8D6033A419D0536D33E07F56B8C4CA7C0D48229F9610695A461A0883CE7B494E8DD95B004DF38E8247AB09FE45AC1A52EDAC32A0861DD8DA85D8A76276989D08579353913989
310
700119397510D9BB4CAB9DF096393711B4263ECE4B176E7EBA700B3C389DB3F0B5335AA6A7234288EA142D784A9083AFB414616018456CF24C3293C4CD2F49D3E5A5F0410CEE7E0F2E6A6FEA11580893E29AEE529C2FC11C4DF48D4AA628982DB44A422820F8563073C8F989CF2240392BED74F7768B819FDEDE6E09E0E29A
310
EE72FA030B3CB273954C91D5916E87CC9BEEFB4FAB1E6B73B10CFB6CBEB73B4423589D2D05F4CC9AAE2E4C768646F0614DBB4BD40606DDEA2539B5A67B13A0D36EBACBCA809A9055A7E9E24B8E0D79912B896C91FE0C1655C17843E129FA335B3277F4E8510807513CB9CC44868E210AF7FE19028691B0917E39482B125CF8
310
D4FF01F0B312DAF64B0000
  0
TABLECONTENT
  5
528
330
52B
100
AcDbLinkedData
  1

300

100
AcDbLinkedTableData
 90
        5
300
COLUMN
  1
LINKEDTABLEDATACOLUMN_BEGIN
300

 91
        0
301
CUSTOMDATA
  1
DATAMAP_BEGIN
 90
        0
309
DATAMAP_END
309
LINKEDTABLEDATACOLUMN_END
  1
FORMATTEDTABLEDATACOLUMN_BEGIN
300
COLUMNTABLEFORMAT
  1
TABLEFORMAT_BEGIN
 90
        3
170
     0
309
TABLEFORMAT_END
309
FORMATTEDTABLEDATACOLUMN_END
  1
TABLECOLUMN_BEGIN
 90
        0
 40
10.0
309
TABLECOLUMN_END
300
COLUMN
  1
LINKEDTABLEDATACOLUMN_BEGIN
300

 91
        0
301
CUSTOMDATA
  1
DATAMAP_BEGIN
 90
        0
309
DATAMAP_END
309
LINKEDTABLEDATACOLUMN_END
  1
FORMATTEDTABLEDATACOLUMN_BEGIN
300
COLUMNTABLEFORMAT
  1
TABLEFORMAT_BEGIN
 90
        3
170
     0
309
TABLEFORMAT_END
309
FORMATTEDTABLEDATACOLUMN_END
  1
TABLECOLUMN_BEGIN
 90
        0
 40
10.0
309
TABLECOLUMN_END
300
COLUMN
  1
LINKEDTABLEDATACOLUMN_BEGIN
300

 91
        0
301
CUSTOMDATA
  1
DATAMAP_BEGIN
 90
        0
309
DATAMAP_END
309
LINKEDTABLEDATACOLUMN_END
  1
FORMATTEDTABLEDATACOLUMN_BEGIN
300
COLUMNTABLEFORMAT
  1
TABLEFORMAT_BEGIN
 90
        3
170
     0
309
TABLEFORMAT_END
309
FORMATTEDTABLEDATACOLUMN_END
  1
TABLECOLUMN_BEGIN
 90
        0
 40
10.0
309
TABLECOLUMN_END
300
COLUMN
  1
LINKEDTABLEDATACOLUMN_BEGIN
300

 91
        0
301
CUSTOMDATA
  1
DATAMAP_BEGIN
 90
        0
309
DATAMAP_END
309
LINKEDTABLEDATACOLUMN_END
  1
FORMATTEDTABLEDATACOLUMN_BEGIN
300
COLUMNTABLEFORMAT
  1
TABLEFORMAT_BEGIN
 90
        3
170
     0
309
TABLEFORMAT_END
309
FORMATTEDTABLEDATACOLUMN_END
  1
TABLECOLUMN_BEGIN
 90
        0
 40
40.0
309
TABLECOLUMN_END
300
COLUMN
  1
LINKEDTABLEDATACOLUMN_BEGIN
300

 91
        0
301
CUSTOMDATA
  1
DATAMAP_BEGIN
 90
        0
309
DATAMAP_END
309
LINKEDTABLEDATACOLUMN_END
  1
FORMATTEDTABLEDATACOLUMN_BEGIN
300
COLUMNTABLEFORMAT
  1
TABLEFORMAT_BEGIN
 90
        3
170
     0
309
TABLEFORMAT_END
309
FORMATTEDTABLEDATACOLUMN_END
  1
TABLECOLUMN_BEGIN
 90
        0
 40
20.0
309
TABLECOLUMN_END
 91
        5
301
ROW
  1
LINKEDTABLEDATAROW_BEGIN
 90
        5
300
CELL
  1
LINKEDTABLEDATACELL_BEGIN
 90
        0
300

 91
        0
301
CUSTOMDATA
  1
DATAMAP_BEGIN
 90
        1
300
ACAD_ROUNDTRIP_2008_CELL_CHECKSUM
301
DATAMAP_VALUE
 93
        2
 90
        2
140
32.0
 94
        0
300

302

304
ACVALUE_END
309
DATAMAP_END
 92
        0
 95
        1
302
CONTENT
  1
CELLCONTENT_BEGIN
 90
        1
300
VALUE
 93
        2
 90
        4
  1
 
 94
        0
300

302
 
304
ACVALUE_END
 91
        0
309
CELLCONTENT_END
  1
FORMATTEDCELLCONTENT_BEGIN
170
     1
300
CONTENTFORMAT
  1
CONTENTFORMAT_BEGIN
 90
      132
 91
        0
 92
      512
 93
        0
300

 40
0.0
140
1.0
 94
        1
 62
     0
340
0
144
3.5
309
CONTENTFORMAT_END
309
FORMATTEDCELLCONTENT_END
309
LINKEDTABLEDATACELL_END
  1
FORMATTEDTABLEDATACELL_BEGIN
300
CELLTABLEFORMAT
  1
TABLEFORMAT_BEGIN
 90
        1
170
     1
 91
        0
 92
        0
 62
   257
 93
        1
300
CONTENTFORMAT
  1
CONTENTFORMAT_BEGIN
 90
        0
 91
        0
 92
      512
 93
        0
300

 40
0.0
140
1.0
 94
        1
 62
     0
340
0
144
0.18
309
CONTENTFORMAT_END
171
     0
 94
        0
309
TABLEFORMAT_END
309
FORMATTEDTABLEDATACELL_END
  1
TABLECELL_BEGIN
 90
        0
 91
        0
309
TABLECELL_END
300
CELL
  1
LINKEDTABLEDATACELL_BEGIN
 90
        0
300

 91
        0
301
CUSTOMDATA
  1
DATAMAP_BEGIN
 90
        0
309
DATAMAP_END
 92
        0
 95
        0
309
LINKEDTABLEDATACELL_END
  1
FORMATTEDTABLEDATACELL_BEGIN
300
CELLTABLEFORMAT
  1
TABLEFORMAT_BEGIN
 90
        1
170
     1
 91
        0
 92
        0
 62
   257
 93
        1
300
CONTENTFORMAT
  1
CONTENTFORMAT_BEGIN
 90
        0
 91
        0
 92
      512
 93
        0
300

 40
0.0
140
1.0
 94
        1
 62
     0
340
0
144
0.18
309
CONTENTFORMAT_END
171
     0
 94
        0
309
TABLEFORMAT_END
309
FORMATTEDTABLEDATACELL_END
  1
TABLECELL_BEGIN
 90
        0
 91
        0
309
TABLECELL_END
300
CELL
  1
LINKEDTABLEDATACELL_BEGIN
 90
        0
300

 91
        0
301
CUSTOMDATA
  1
DATAMAP_BEGIN
 90
        0
309
DATAMAP_END
 92
        0
 95
        0
309
LINKEDTABLEDATACELL_END
  1
FORMATTEDTABLEDATACELL_BEGIN
300
CELLTABLEFORMAT
  1
TABLEFORMAT_BEGIN
 90
        1
170
     1
 91
        0
 92
        0
 62
   257
 93
        1
300
CONTENTFORMAT
  1
CONTENTFORMAT_BEGIN
 90
        0
 91
        0
 92
      512
 93
        0
300

 40
0.0
140
1.0
 94
        1
 62
     0
340
0
144
0.18
309
CONTENTFORMAT_END
171
     0
 94
        0
309
TABLEFORMAT_END
309
FORMATTEDTABLEDATACELL_END
  1
TABLECELL_BEGIN
 90
        0
 91
        0
309
TABLECELL_END
300
CELL
  1
LINKEDTABLEDATACELL_BEGIN
 90
        0
300

 91
        0
301
CUSTOMDATA
  1
DATAMAP_BEGIN
 90
        1
300
ACAD_ROUNDTRIP_2008_CELL_CHECKSUM
301
DATAMAP_VALUE
 93
        2
 90
        2
140
3422.0
 94
        0
300

302

304
ACVALUE_END
309
DATAMAP_END
 92
        0
 95
        1
302
CONTENT
  1
CELLCONTENT_BEGIN
 90
        1
300
VALUE
 93
        2
 90
        4
  1
A173_C_402
 94
        0
300

302
A173_C_402
304
ACVALUE_END
 91
        0
309
CELLCONTENT_END
  1
FORMATTEDCELLCONTENT_BEGIN
170
     1
300
CONTENTFORMAT
  1
CONTENTFORMAT_BEGIN
 90
      132
 91
        0
 92
      512
 93
        0
300

 40
0.0
140
1.0
 94
        1
 62
     0
340
0
144
3.0
309
CONTENTFORMAT_END
309
FORMATTEDCELLCONTENT_END
309
LINKEDTABLEDATACELL_END
  1
FORMATTEDTABLEDATACELL_BEGIN
300
CELLTABLEFORMAT
  1
TABLEFORMAT_BEGIN
 90
        1
170
     1
 91
       16
 92
        0
 62
   257
 93
        1
300
CONTENTFORMAT
  1
CONTENTFORMAT_BEGIN
 90
       16
 91
        0
 92
      512
 93
        0
300

 40
0.0
140
1.0
 94
        4
 62
     0
340
0
144
0.18
309
CONTENTFORMAT_END
171
     0
 94
        4
 95
        1
302
GRIDFORMAT
  1
GRIDFORMAT_BEGIN
 90
       26
 91
        1
 62
     0
 92
       -2
340
0
 93
        0
 40
0.045
309
GRIDFORMAT_END
 95
        4
302
GRIDFORMAT
  1
GRIDFORMAT_BEGIN
 90
       26
 91
        1
 62
     0
 92
       -2
340
0
 93
        0
 40
0.045
309
GRIDFORMAT_END
 95
        8
302
GRIDFORMAT
  1
GRIDFORMAT_BEGIN
 90
       26
 91
        1
 62
     0
 92
       -2
340
0
 93
        0
 40
0.045
309
GRIDFORMAT_END
 95
       32
302
GRIDFORMAT
  1
GRIDFORMAT_BEGIN
 90
       26
 91
        1
 62
     0
 92
       -2
340
0
 93
        0
 40
0.045
309
GRIDFORMAT_END
309
TABLEFORMAT_END
309
FORMATTEDTABLEDATACELL_END
  1
TABLECELL_BEGIN
 90
        0
 91
        0
309
TABLECELL_END
300
CELL
  1
LINKEDTABLEDATACELL_BEGIN
 90
        0
300

 91
        0
301
CUSTOMDATA
  1
DATAMAP_BEGIN
 90
        1
300
ACAD_ROUNDTRIP_2008_CELL_CHECKSUM
301
DATAMAP_VALUE
 93
        2
 90
        2
140
1398.0
 94
        0
300

302

304
ACVALUE_END
309
DATAMAP_END
 92
        0
 95
        1
302
CONTENT
  1
CELLCONTENT_BEGIN
 90
        1
300
VALUE
 93
        2
 90
        4
  1
Rev:00
 94
        0
300

302
Rev:00
304
ACVALUE_END
 91
        0
309
CELLCONTENT_END
  1
FORMATTEDCELLCONTENT_BEGIN
170
     1
300
CONTENTFORMAT
  1
CONTENTFORMAT_BEGIN
 90
      132
 91
        0
 92
      512
 93
        0
300

 40
0.0
140
1.0
 94
        1
 62
     0
340
0
144
3.5
309
CONTENTFORMAT_END
309
FORMATTEDCELLCONTENT_END
309
LINKEDTABLEDATACELL_END
  1
FORMATTEDTABLEDATACELL_BEGIN
300
CELLTABLEFORMAT
  1
TABLEFORMAT_BEGIN
 90
        1
170
     1
 91
       16
 92
        0
 62
   257
 93
        1
300
CONTENTFORMAT
  1
CONTENTFORMAT_BEGIN
 90
       16
 91
        0
 92
      512
 93
        0
300

 40
0.0
140
1.0
 94
        4
 62
     0
340
0
144
0.18
309
CONTENTFORMAT_END
171
     0
 94
        4
 95
        1
302
GRIDFORMAT
  1
GRIDFORMAT_BEGIN
 90
       26
 91
        1
 62
     0
 92
       -2
340
0
 93
        0
 40
0.045
309
GRIDFORMAT_END
 95
        4
302
GRIDFORMAT
  1
GRIDFORMAT_BEGIN
 90
       26
 91
        1
 62
     0
 92
       -2
340
0
 93
        0
 40
0.045
309
GRIDFORMAT_END
 95
        8
302
GRIDFORMAT
  1
GRIDFORMAT_BEGIN
 90
       26
 91
        1
 62
     0
 92
       -2
340
0
 93
        0
 40
0.045
309
GRIDFORMAT_END
 95
       32
302
GRIDFORMAT
  1
GRIDFORMAT_BEGIN
 90
       26
 91
        1
 62
     0
 92
       -2
340
0
 93
        0
 40
0.045
309
GRIDFORMAT_END
309
TABLEFORMAT_END
309
FORMATTEDTABLEDATACELL_END
  1
TABLECELL_BEGIN
 90
        0
 91
        0
309
TABLECELL_END
 91
        0
301
CUSTOMDATA
  1
DATAMAP_BEGIN
 90
        0
309
DATAMAP_END
309
LINKEDTABLEDATAROW_END
  1
FORMATTEDTABLEDATAROW_BEGIN
300
ROWTABLEFORMAT
  1
TABLEFORMAT_BEGIN
 90
        2
170
     0
309
TABLEFORMAT_END
309
FORMATTEDTABLEDATAROW_END
  1
TABLEROW_BEGIN
 90
        1
 40
6.0
309
TABLEROW_END
301
ROW
  1
LINKEDTABLEDATAROW_BEGIN
 90
        5
300
CELL
  1
LINKEDTABLEDATACELL_BEGIN
 90
        0
300

 91
        0
301
CUSTOMDATA
  1
DATAMAP_BEGIN
 90
        0
309
DATAMAP_END
 92
        0
 95
        0
309
LINKEDTABLEDATACELL_END
  1
FORMATTEDTABLEDATACELL_BEGIN
300
CELLTABLEFORMAT
  1
TABLEFORMAT_BEGIN
 90
        1
170
     1
 91
        0
 92
        0
 62
   257
 93
        1
300
CONTENTFORMAT
  1
CONTENTFORMAT_BEGIN
 90
        0
 91
        0
 92
      512
 93
        0
300

 40
0.0
140
1.0
 94
        1
 62
     0
340
0
144
0.18
309
CONTENTFORMAT_END
171
     0
 94
        0
309
TABLEFORMAT_END
309
FORMATTEDTABLEDATACELL_END
  1
TABLECELL_BEGIN
 90
        0
 91
        0
309
TABLECELL_END
300
CELL
  1
LINKEDTABLEDATACELL_BEGIN
 90
        0
300

 91
        0
301
CUSTOMDATA
  1
DATAMAP_BEGIN
 90
        0
309
DATAMAP_END
 92
        0
 95
        0
309
LINKEDTABLEDATACELL_END
  1
FORMATTEDTABLEDATACELL_BEGIN
300
CELLTABLEFORMAT
  1
TABLEFORMAT_BEGIN
 90
        1
170
     1
 91
        0
 92
        0
 62
   257
 93
        1
300
CONTENTFORMAT
  1
CONTENTFORMAT_BEGIN
 90
        0
 91
        0
 92
      512
 93
        0
300

 40
0.0
140
1.0
 94
        1
 62
     0
340
0
144
0.18
309
CONTENTFORMAT_END
171
     0
 94
        0
309
TABLEFORMAT_END
309
FORMATTEDTABLEDATACELL_END
  1
TABLECELL_BEGIN
 90
        0
 91
        0
309
TABLECELL_END
300
CELL
  1
LINKEDTABLEDATACELL_BEGIN
 90
        0
300

 91
        0
301
CUSTOMDATA
  1
DATAMAP_BEGIN
 90
        0
309
DATAMAP_END
 92
        0
 95
        0
309
LINKEDTABLEDATACELL_END
  1
FORMATTEDTABLEDATACELL_BEGIN
300
CELLTABLEFORMAT
  1
TABLEFORMAT_BEGIN
 90
        1
170
     1
 91
        0
 92
        0
 62
   257
 93
        1
300
CONTENTFORMAT
  1
CONTENTFORMAT_BEGIN
 90
        0
 91
        0
 92
      512
 93
        0
300

 40
0.0
140
1.0
 94
        1
 62
     0
340
0
144
0.18
309
CONTENTFORMAT_END
171
     0
 94
        0
309
TABLEFORMAT_END
309
FORMATTEDTABLEDATACELL_END
  1
TABLECELL_BEGIN
 90
        0
 91
        0
309
TABLECELL_END
300
CELL
  1
LINKEDTABLEDATACELL_BEGIN
 90
        0
300

 91
        0
301
CUSTOMDATA
  1
DATAMAP_BEGIN
 90
        1
300
ACAD_ROUNDTRIP_2008_CELL_CHECKSUM
301
DATAMAP_VALUE
 93
        2
 90
        2
140
3105.0
 94
        0
300

302

304
ACVALUE_END
309
DATAMAP_END
 92
        0
 95
        1
302
CONTENT
  1
CELLCONTENT_BEGIN
 90
        1
300
VALUE
 93
        2
 90
        4
  1
Scale:1:1
 94
        0
300

302
Scale:1:1
304
ACVALUE_END
 91
        0
309
CELLCONTENT_END
  1
FORMATTEDCELLCONTENT_BEGIN
170
     1
300
CONTENTFORMAT
  1
CONTENTFORMAT_BEGIN
 90
      132
 91
        0
 92
      512
 93
        0
300

 40
0.0
140
1.0
 94
        1
 62
     0
340
0
144
3.5
309
CONTENTFORMAT_END
309
FORMATTEDCELLCONTENT_END
309
LINKEDTABLEDATACELL_END
  1
FORMATTEDTABLEDATACELL_BEGIN
300
CELLTABLEFORMAT
  1
TABLEFORMAT_BEGIN
 90
        1
170
     1
 91
       16
 92
        0
 62
   257
 93
        1
300
CONTENTFORMAT
  1
CONTENTFORMAT_BEGIN
 90
       16
 91
        0
 92
      512
 93
        0
300

 40
0.0
140
1.0
 94
        1
 62
     0
340
0
144
0.18
309
CONTENTFORMAT_END
171
     0
 94
        4
 95
        1
302
GRIDFORMAT
  1
GRIDFORMAT_BEGIN
 90
       26
 91
        1
 62
     0
 92
       -2
340
0
 93
        0
 40
0.045
309
GRIDFORMAT_END
 95
        4
302
GRIDFORMAT
  1
GRIDFORMAT_BEGIN
 90
       26
 91
        1
 62
     0
 92
       -2
340
0
 93
        0
 40
0.045
309
GRIDFORMAT_END
 95
        8
302
GRIDFORMAT
  1
GRIDFORMAT_BEGIN
 90
       26
 91
        1
 62
     0
 92
       -2
340
0
 93
        0
 40
0.045
309
GRIDFORMAT_END
 95
       32
302
GRIDFORMAT
  1
GRIDFORMAT_BEGIN
 90
       26
 91
        1
 62
     0
 92
       -2
340
0
 93
        0
 40
0.045
309
GRIDFORMAT_END
309
TABLEFORMAT_END
309
FORMATTEDTABLEDATACELL_END
  1
TABLECELL_BEGIN
 90
        0
 91
        0
309
TABLECELL_END
300
CELL
  1
LINKEDTABLEDATACELL_BEGIN
 90
        0
300

 91
        0
301
CUSTOMDATA
  1
DATAMAP_BEGIN
 90
        1
300
ACAD_ROUNDTRIP_2008_CELL_CHECKSUM
301
DATAMAP_VALUE
 93
        2
 90
        2
140
4422.0
 94
        0
300

302

304
ACVALUE_END
309
DATAMAP_END
 92
        0
 95
        1
302
CONTENT
  1
CELLCONTENT_BEGIN
 90
        1
300
VALUE
 93
        2
 90
        4
  1
3200 by 2500
 94
        0
300

302
3200 by 2500
304
ACVALUE_END
 91
        0
309
CELLCONTENT_END
  1
FORMATTEDCELLCONTENT_BEGIN
170
     1
300
CONTENTFORMAT
  1
CONTENTFORMAT_BEGIN
 90
      132
 91
        0
 92
      512
 93
        0
300

 40
0.0
140
1.0
 94
        1
 62
     0
340
0
144
1.9
309
CONTENTFORMAT_END
309
FORMATTEDCELLCONTENT_END
309
LINKEDTABLEDATACELL_END
  1
FORMATTEDTABLEDATACELL_BEGIN
300
CELLTABLEFORMAT
  1
TABLEFORMAT_BEGIN
 90
        1
170
     1
 91
       16
 92
        0
 62
   257
 93
        1
300
CONTENTFORMAT
  1
CONTENTFORMAT_BEGIN
 90
       16
 91
        0
 92
      512
 93
        0
300

 40
0.0
140
1.0
 94
        4
 62
     0
340
0
144
0.18
309
CONTENTFORMAT_END
171
     0
 94
        4
 95
        1
302
GRIDFORMAT
  1
GRIDFORMAT_BEGIN
 90
       26
 91
        1
 62
     0
 92
       -2
340
0
 93
        0
 40
0.045
309
GRIDFORMAT_END
 95
        4
302
GRIDFORMAT
  1
GRIDFORMAT_BEGIN
 90
       26
 91
        1
 62
     0
 92
       -2
340
0
 93
        0
 40
0.045
309
GRIDFORMAT_END
 95
        8
302
GRIDFORMAT
  1
GRIDFORMAT_BEGIN
 90
       26
 91
        1
 62
     0
 92
       -2
340
0
 93
        0
 40
0.045
309
GRIDFORMAT_END
 95
       32
302
GRIDFORMAT
  1
GRIDFORMAT_BEGIN
 90
       26
 91
        1
 62
     0
 92
       -2
340
0
 93
        0
 40
0.045
309
GRIDFORMAT_END
309
TABLEFORMAT_END
309
FORMATTEDTABLEDATACELL_END
  1
TABLECELL_BEGIN
 90
        0
 91
        0
309
TABLECELL_END
 91
        0
301
CUSTOMDATA
  1
DATAMAP_BEGIN
 90
        0
309
DATAMAP_END
309
LINKEDTABLEDATAROW_END
  1
FORMATTEDTABLEDATAROW_BEGIN
300
ROWTABLEFORMAT
  1
TABLEFORMAT_BEGIN
 90
        2
170
     0
309
TABLEFORMAT_END
309
FORMATTEDTABLEDATAROW_END
  1
TABLEROW_BEGIN
 90
        2
 40
6.0
309
TABLEROW_END
301
ROW
  1
LINKEDTABLEDATAROW_BEGIN
 90
        5
300
CELL
  1
LINKEDTABLEDATACELL_BEGIN
 90
        0
300

 91
        0
301
CUSTOMDATA
  1
DATAMAP_BEGIN
 90
        0
309
DATAMAP_END
 92
        0
 95
        0
309
LINKEDTABLEDATACELL_END
  1
FORMATTEDTABLEDATACELL_BEGIN
300
CELLTABLEFORMAT
  1
TABLEFORMAT_BEGIN
 90
        1
170
     1
 91
        0
 92
        0
 62
   257
 93
        1
300
CONTENTFORMAT
  1
CONTENTFORMAT_BEGIN
 90
        0
 91
        0
 92
      512
 93
        0
300

 40
0.0
140
1.0
 94
        1
 62
     0
340
0
144
0.18
309
CONTENTFORMAT_END
171
     0
 94
        0
309
TABLEFORMAT_END
309
FORMATTEDTABLEDATACELL_END
  1
TABLECELL_BEGIN
 90
        0
 91
        0
309
TABLECELL_END
300
CELL
  1
LINKEDTABLEDATACELL_BEGIN
 90
        0
300

 91
        0
301
CUSTOMDATA
  1
DATAMAP_BEGIN
 90
        0
309
DATAMAP_END
 92
        0
 95
        0
309
LINKEDTABLEDATACELL_END
  1
FORMATTEDTABLEDATACELL_BEGIN
300
CELLTABLEFORMAT
  1
TABLEFORMAT_BEGIN
 90
        1
170
     1
 91
        0
 92
        0
 62
   257
 93
        1
300
CONTENTFORMAT
  1
CONTENTFORMAT_BEGIN
 90
        0
 91
        0
 92
      512
 93
        0
300

 40
0.0
140
1.0
 94
        1
 62
     0
340
0
144
0.18
309
CONTENTFORMAT_END
171
     0
 94
        0
309
TABLEFORMAT_END
309
FORMATTEDTABLEDATACELL_END
  1
TABLECELL_BEGIN
 90
        0
 91
        0
309
TABLECELL_END
300
CELL
  1
LINKEDTABLEDATACELL_BEGIN
 90
        0
300

 91
        0
301
CUSTOMDATA
  1
DATAMAP_BEGIN
 90
        0
309
DATAMAP_END
 92
        0
 95
        0
309
LINKEDTABLEDATACELL_END
  1
FORMATTEDTABLEDATACELL_BEGIN
300
CELLTABLEFORMAT
  1
TABLEFORMAT_BEGIN
 90
        1
170
     1
 91
        0
 92
        0
 62
   257
 93
        1
300
CONTENTFORMAT
  1
CONTENTFORMAT_BEGIN
 90
        0
 91
        0
 92
      512
 93
        0
300

 40
0.0
140
1.0
 94
        1
 62
     0
340
0
144
0.18
309
CONTENTFORMAT_END
171
     0
 94
        0
309
TABLEFORMAT_END
309
FORMATTEDTABLEDATACELL_END
  1
TABLECELL_BEGIN
 90
        0
 91
        0
309
TABLECELL_END
300
CELL
  1
LINKEDTABLEDATACELL_BEGIN
 90
        0
300

 91
        0
301
CUSTOMDATA
  1
DATAMAP_BEGIN
 90
        1
300
ACAD_ROUNDTRIP_2008_CELL_CHECKSUM
301
DATAMAP_VALUE
 93
        2
 90
        2
140
34777.0
 94
        0
300

302

304
ACVALUE_END
309
DATAMAP_END
 92
        0
 95
        1
302
CONTENT
  1
CELLCONTENT_BEGIN
 90
        1
300
VALUE
 93
        2
 90
        4
  1
CASSAFORMA TRIMLESS COLORADO 2.1
 94
        0
300

302
CASSAFORMA TRIMLESS COLORADO 2.1
304
ACVALUE_END
 91
        0
309
CELLCONTENT_END
  1
FORMATTEDCELLCONTENT_BEGIN
170
     1
300
CONTENTFORMAT
  1
CONTENTFORMAT_BEGIN
 90
      132
 91
        0
 92
      512
 93
        0
300

 40
0.0
140
1.0
 94
        1
 62
     0
340
0
144
2.0
309
CONTENTFORMAT_END
309
FORMATTEDCELLCONTENT_END
309
LINKEDTABLEDATACELL_END
  1
FORMATTEDTABLEDATACELL_BEGIN
300
CELLTABLEFORMAT
  1
TABLEFORMAT_BEGIN
 90
        1
170
     1
 91
       16
 92
        0
 62
   257
 93
        1
300
CONTENTFORMAT
  1
CONTENTFORMAT_BEGIN
 90
       16
 91
        0
 92
      512
 93
        0
300

 40
0.0
140
1.0
 94
        4
 62
     0
340
0
144
0.18
309
CONTENTFORMAT_END
171
     0
 94
        4
 95
        1
302
GRIDFORMAT
  1
GRIDFORMAT_BEGIN
 90
       26
 91
        1
 62
     0
 92
       -2
340
0
 93
        0
 40
0.045
309
GRIDFORMAT_END
 95
        4
302
GRIDFORMAT
  1
GRIDFORMAT_BEGIN
 90
       26
 91
        1
 62
     0
 92
       -2
340
0
 93
        0
 40
0.045
309
GRIDFORMAT_END
 95
        8
302
GRIDFORMAT
  1
GRIDFORMAT_BEGIN
 90
       26
 91
        1
 62
     0
 92
       -2
340
0
 93
        0
 40
0.045
309
GRIDFORMAT_END
 95
       32
302
GRIDFORMAT
  1
GRIDFORMAT_BEGIN
 90
       26
 91
        1
 62
     0
 92
       -2
340
0
 93
        0
 40
0.045
309
GRIDFORMAT_END
309
TABLEFORMAT_END
309
FORMATTEDTABLEDATACELL_END
  1
TABLECELL_BEGIN
 90
        0
 91
        0
309
TABLECELL_END
300
CELL
  1
LINKEDTABLEDATACELL_BEGIN
 90
        0
300

 91
        0
301
CUSTOMDATA
  1
DATAMAP_BEGIN
 90
        0
309
DATAMAP_END
 92
        0
 95
        0
309
LINKEDTABLEDATACELL_END
  1
FORMATTEDTABLEDATACELL_BEGIN
300
CELLTABLEFORMAT
  1
TABLEFORMAT_BEGIN
 90
        1
170
     1
 91
        0
 92
        0
 62
   257
 93
        1
300
CONTENTFORMAT
  1
CONTENTFORMAT_BEGIN
 90
        0
 91
        0
 92
      512
 93
        0
300

 40
0.0
140
1.0
 94
        1
 62
     0
340
0
144
0.18
309
CONTENTFORMAT_END
171
     0
 94
        0
309
TABLEFORMAT_END
309
FORMATTEDTABLEDATACELL_END
  1
TABLECELL_BEGIN
 90
        0
 91
        0
309
TABLECELL_END
 91
        0
301
CUSTOMDATA
  1
DATAMAP_BEGIN
 90
        0
309
DATAMAP_END
309
LINKEDTABLEDATAROW_END
  1
FORMATTEDTABLEDATAROW_BEGIN
300
ROWTABLEFORMAT
  1
TABLEFORMAT_BEGIN
 90
        2
170
     0
309
TABLEFORMAT_END
309
FORMATTEDTABLEDATAROW_END
  1
TABLEROW_BEGIN
 90
        3
 40
10.0
309
TABLEROW_END
301
ROW
  1
LINKEDTABLEDATAROW_BEGIN
 90
        5
300
CELL
  1
LINKEDTABLEDATACELL_BEGIN
 90
        0
300

 91
        0
301
CUSTOMDATA
  1
DATAMAP_BEGIN
 90
        0
309
DATAMAP_END
 92
        0
 95
        0
309
LINKEDTABLEDATACELL_END
  1
FORMATTEDTABLEDATACELL_BEGIN
300
CELLTABLEFORMAT
  1
TABLEFORMAT_BEGIN
 90
        1
170
     1
 91
        0
 92
        0
 62
   257
 93
        1
300
CONTENTFORMAT
  1
CONTENTFORMAT_BEGIN
 90
        0
 91
        0
 92
      512
 93
        0
300

 40
0.0
140
1.0
 94
        1
 62
     0
340
0
144
0.18
309
CONTENTFORMAT_END
171
     0
 94
        0
309
TABLEFORMAT_END
309
FORMATTEDTABLEDATACELL_END
  1
TABLECELL_BEGIN
 90
        0
 91
        0
309
TABLECELL_END
300
CELL
  1
LINKEDTABLEDATACELL_BEGIN
 90
        0
300

 91
        0
301
CUSTOMDATA
  1
DATAMAP_BEGIN
 90
        0
309
DATAMAP_END
 92
        0
 95
        0
309
LINKEDTABLEDATACELL_END
  1
FORMATTEDTABLEDATACELL_BEGIN
300
CELLTABLEFORMAT
  1
TABLEFORMAT_BEGIN
 90
        1
170
     1
 91
        0
 92
        0
 62
   257
 93
        1
300
CONTENTFORMAT
  1
CONTENTFORMAT_BEGIN
 90
        0
 91
        0
 92
      512
 93
        0
300

 40
0.0
140
1.0
 94
        1
 62
     0
340
0
144
0.18
309
CONTENTFORMAT_END
171
     0
 94
        0
309
TABLEFORMAT_END
309
FORMATTEDTABLEDATACELL_END
  1
TABLECELL_BEGIN
 90
        0
 91
        0
309
TABLECELL_END
300
CELL
  1
LINKEDTABLEDATACELL_BEGIN
 90
        0
300

 91
        0
301
CUSTOMDATA
  1
DATAMAP_BEGIN
 90
        0
309
DATAMAP_END
 92
        0
 95
        0
309
LINKEDTABLEDATACELL_END
  1
FORMATTEDTABLEDATACELL_BEGIN
300
CELLTABLEFORMAT
  1
TABLEFORMAT_BEGIN
 90
        1
170
     1
 91
        0
 92
        0
 62
   257
 93
        1
300
CONTENTFORMAT
  1
CONTENTFORMAT_BEGIN
 90
        0
 91
        0
 92
      512
 93
        0
300

 40
0.0
140
1.0
 94
        1
 62
     0
340
0
144
0.18
309
CONTENTFORMAT_END
171
     0
 94
        0
309
TABLEFORMAT_END
309
FORMATTEDTABLEDATACELL_END
  1
TABLECELL_BEGIN
 90
        0
 91
        0
309
TABLECELL_END
300
CELL
  1
LINKEDTABLEDATACELL_BEGIN
 90
        0
300

 91
        0
301
CUSTOMDATA
  1
DATAMAP_BEGIN
 90
        1
300
ACAD_ROUNDTRIP_2008_CELL_CHECKSUM
301
DATAMAP_VALUE
 93
        2
 90
        2
140
4774.0
 94
        0
300

302

304
ACVALUE_END
309
DATAMAP_END
 92
        0
 95
        1
302
CONTENT
  1
CELLCONTENT_BEGIN
 90
        1
300
VALUE
 93
        2
 90
        4
  1
DATE:30.08.22
 94
        0
300

302
DATE:30.08.22
304
ACVALUE_END
 91
        0
309
CELLCONTENT_END
  1
FORMATTEDCELLCONTENT_BEGIN
170
     1
300
CONTENTFORMAT
  1
CONTENTFORMAT_BEGIN
 90
      132
 91
        0
 92
      512
 93
        0
300

 40
0.0
140
1.0
 94
        1
 62
     0
340
0
144
2.5
309
CONTENTFORMAT_END
309
FORMATTEDCELLCONTENT_END
309
LINKEDTABLEDATACELL_END
  1
FORMATTEDTABLEDATACELL_BEGIN
300
CELLTABLEFORMAT
  1
TABLEFORMAT_BEGIN
 90
        1
170
     1
 91
       16
 92
        0
 62
   257
 93
        1
300
CONTENTFORMAT
  1
CONTENTFORMAT_BEGIN
 90
       16
 91
        0
 92
      512
 93
        0
300

 40
0.0
140
1.0
 94
        4
 62
     0
340
0
144
0.18
309
CONTENTFORMAT_END
171
     0
 94
        4
 95
        1
302
GRIDFORMAT
  1
GRIDFORMAT_BEGIN
 90
       26
 91
        1
 62
     0
 92
       -2
340
0
 93
        0
 40
0.045
309
GRIDFORMAT_END
 95
        4
302
GRIDFORMAT
  1
GRIDFORMAT_BEGIN
 90
       26
 91
        1
 62
     0
 92
       -2
340
0
 93
        0
 40
0.045
309
GRIDFORMAT_END
 95
        8
302
GRIDFORMAT
  1
GRIDFORMAT_BEGIN
 90
       26
 91
        1
 62
     0
 92
       -2
340
0
 93
        0
 40
0.045
309
GRIDFORMAT_END
 95
       32
302
GRIDFORMAT
  1
GRIDFORMAT_BEGIN
 90
       26
 91
        1
 62
     0
 92
       -2
340
0
 93
        0
 40
0.045
309
GRIDFORMAT_END
309
TABLEFORMAT_END
309
FORMATTEDTABLEDATACELL_END
  1
TABLECELL_BEGIN
 90
        0
 91
        0
309
TABLECELL_END
300
CELL
  1
LINKEDTABLEDATACELL_BEGIN
 90
        0
300

 91
        0
301
CUSTOMDATA
  1
DATAMAP_BEGIN
 90
        0
309
DATAMAP_END
 92
        0
 95
        0
309
LINKEDTABLEDATACELL_END
  1
FORMATTEDTABLEDATACELL_BEGIN
300
CELLTABLEFORMAT
  1
TABLEFORMAT_BEGIN
 90
        1
170
     1
 91
        0
 92
        0
 62
   257
 93
        1
300
CONTENTFORMAT
  1
CONTENTFORMAT_BEGIN
 90
        0
 91
        0
 92
      512
 93
        0
300

 40
0.0
140
1.0
 94
        1
 62
     0
340
0
144
0.18
309
CONTENTFORMAT_END
171
     0
 94
        0
309
TABLEFORMAT_END
309
FORMATTEDTABLEDATACELL_END
  1
TABLECELL_BEGIN
 90
        0
 91
        0
309
TABLECELL_END
 91
        0
301
CUSTOMDATA
  1
DATAMAP_BEGIN
 90
        0
309
DATAMAP_END
309
LINKEDTABLEDATAROW_END
  1
FORMATTEDTABLEDATAROW_BEGIN
300
ROWTABLEFORMAT
  1
TABLEFORMAT_BEGIN
 90
        2
170
     0
309
TABLEFORMAT_END
309
FORMATTEDTABLEDATAROW_END
  1
TABLEROW_BEGIN
 90
        3
 40
5.0
309
TABLEROW_END
301
ROW
  1
LINKEDTABLEDATAROW_BEGIN
 90
        5
300
CELL
  1
LINKEDTABLEDATACELL_BEGIN
 90
        0
300

 91
        0
301
CUSTOMDATA
  1
DATAMAP_BEGIN
 90
        1
300
ACAD_ROUNDTRIP_2008_CELL_CHECKSUM
301
DATAMAP_VALUE
 93
        2
 90
        2
140
1361482.0
 94
        0
300

302

304
ACVALUE_END
309
DATAMAP_END
 92
        0
 95
        1
302
CONTENT
  1
CELLCONTENT_BEGIN
 90
        1
300
VALUE
 93
        2
 90
        4
  1
Any integral or partial reproductions are prohibited \Pwithout prior authorisation of L & L Luce & Light s.r.l., \Pin accordance with the law in force. \PAll rights reserved.
 94
        0
300

302
Any integral or partial reproductions are prohibited \Pwithout prior authorisation of L & L Luce & Light s.r.l., \Pin accordance with the law in force. \PAll rights reserved.
304
ACVALUE_END
 91
        0
309
CELLCONTENT_END
  1
FORMATTEDCELLCONTENT_BEGIN
170
     1
300
CONTENTFORMAT
  1
CONTENTFORMAT_BEGIN
 90
      132
 91
        0
 92
      512
 93
        0
300

 40
0.0
140
1.0
 94
        1
 62
     0
340
0
144
2.25
309
CONTENTFORMAT_END
309
FORMATTEDCELLCONTENT_END
309
LINKEDTABLEDATACELL_END
  1
FORMATTEDTABLEDATACELL_BEGIN
300
CELLTABLEFORMAT
  1
TABLEFORMAT_BEGIN
 90
        1
170
     1
 91
       16
 92
        0
 62
   257
 93
        1
300
CONTENTFORMAT
  1
CONTENTFORMAT_BEGIN
 90
       16
 91
        0
 92
      512
 93
        0
300

 40
0.0
140
1.0
 94
        4
 62
     0
340
0
144
0.18
309
CONTENTFORMAT_END
171
     0
 94
        4
 95
        1
302
GRIDFORMAT
  1
GRIDFORMAT_BEGIN
 90
       26
 91
        1
 62
     0
 92
       -2
340
0
 93
        0
 40
0.045
309
GRIDFORMAT_END
 95
        4
302
GRIDFORMAT
  1
GRIDFORMAT_BEGIN
 90
       26
 91
        1
 62
     0
 92
       -2
340
0
 93
        0
 40
0.045
309
GRIDFORMAT_END
 95
        8
302
GRIDFORMAT
  1
GRIDFORMAT_BEGIN
 90
       26
 91
        1
 62
     0
 92
       -2
340
0
 93
        0
 40
0.045
309
GRIDFORMAT_END
 95
       32
302
GRIDFORMAT
  1
GRIDFORMAT_BEGIN
 90
       26
 91
        1
 62
     0
 92
       -2
340
0
 93
        0
 40
0.045
309
GRIDFORMAT_END
309
TABLEFORMAT_END
309
FORMATTEDTABLEDATACELL_END
  1
TABLECELL_BEGIN
 90
        0
 91
        0
309
TABLECELL_END
300
CELL
  1
LINKEDTABLEDATACELL_BEGIN
 90
        0
300

 91
        0
301
CUSTOMDATA
  1
DATAMAP_BEGIN
 90
        0
309
DATAMAP_END
 92
        0
 95
        0
309
LINKEDTABLEDATACELL_END
  1
FORMATTEDTABLEDATACELL_BEGIN
300
CELLTABLEFORMAT
  1
TABLEFORMAT_BEGIN
 90
        1
170
     1
 91
        0
 92
        0
 62
   257
 93
        1
300
CONTENTFORMAT
  1
CONTENTFORMAT_BEGIN
 90
        0
 91
        0
 92
      512
 93
        0
300

 40
0.0
140
1.0
 94
        1
 62
     0
340
0
144
0.18
309
CONTENTFORMAT_END
171
     0
 94
        0
309
TABLEFORMAT_END
309
FORMATTEDTABLEDATACELL_END
  1
TABLECELL_BEGIN
 90
        0
 91
        0
309
TABLECELL_END
300
CELL
  1
LINKEDTABLEDATACELL_BEGIN
 90
        0
300

 91
        0
301
CUSTOMDATA
  1
DATAMAP_BEGIN
 90
        0
309
DATAMAP_END
 92
        0
 95
        0
309
LINKEDTABLEDATACELL_END
  1
FORMATTEDTABLEDATACELL_BEGIN
300
CELLTABLEFORMAT
  1
TABLEFORMAT_BEGIN
 90
        1
170
     1
 91
        0
 92
        0
 62
   257
 93
        1
300
CONTENTFORMAT
  1
CONTENTFORMAT_BEGIN
 90
        0
 91
        0
 92
      512
 93
        0
300

 40
0.0
140
1.0
 94
        1
 62
     0
340
0
144
0.18
309
CONTENTFORMAT_END
171
     0
 94
        0
309
TABLEFORMAT_END
309
FORMATTEDTABLEDATACELL_END
  1
TABLECELL_BEGIN
 90
        0
 91
        0
309
TABLECELL_END
300
CELL
  1
LINKEDTABLEDATACELL_BEGIN
 90
        0
300

 91
        0
301
CUSTOMDATA
  1
DATAMAP_BEGIN
 90
        0
309
DATAMAP_END
 92
        0
 95
        0
309
LINKEDTABLEDATACELL_END
  1
FORMATTEDTABLEDATACELL_BEGIN
300
CELLTABLEFORMAT
  1
TABLEFORMAT_BEGIN
 90
        1
170
     1
 91
        0
 92
        0
 62
   257
 93
        1
300
CONTENTFORMAT
  1
CONTENTFORMAT_BEGIN
 90
        0
 91
        0
 92
      512
 93
        0
300

 40
0.0
140
1.0
 94
        1
 62
     0
340
0
144
0.18
309
CONTENTFORMAT_END
171
     0
 94
        0
309
TABLEFORMAT_END
309
FORMATTEDTABLEDATACELL_END
  1
TABLECELL_BEGIN
 90
        0
 91
        0
309
TABLECELL_END
300
CELL
  1
LINKEDTABLEDATACELL_BEGIN
 90
        0
300

 91
        0
301
CUSTOMDATA
  1
DATAMAP_BEGIN
 90
        0
309
DATAMAP_END
 92
        0
 95
        0
309
LINKEDTABLEDATACELL_END
  1
FORMATTEDTABLEDATACELL_BEGIN
300
CELLTABLEFORMAT
  1
TABLEFORMAT_BEGIN
 90
        1
170
     1
 91
        0
 92
        0
 62
   257
 93
        1
300
CONTENTFORMAT
  1
CONTENTFORMAT_BEGIN
 90
        0
 91
        0
 92
      512
 93
        0
300

 40
0.0
140
1.0
 94
        1
 62
     0
340
0
144
0.18
309
CONTENTFORMAT_END
171
     0
 94
        0
309
TABLEFORMAT_END
309
FORMATTEDTABLEDATACELL_END
  1
TABLECELL_BEGIN
 90
        0
 91
        0
309
TABLECELL_END
 91
        0
301
CUSTOMDATA
  1
DATAMAP_BEGIN
 90
        0
309
DATAMAP_END
309
LINKEDTABLEDATAROW_END
  1
FORMATTEDTABLEDATAROW_BEGIN
300
ROWTABLEFORMAT
  1
TABLEFORMAT_BEGIN
 90
        2
170
     0
309
TABLEFORMAT_END
309
FORMATTEDTABLEDATAROW_END
  1
TABLEROW_BEGIN
 90
        3
 40
13.0
309
TABLEROW_END
100
AcDbFormattedTableData
300
TABLEFORMAT
  1
TABLEFORMAT_BEGIN
 90
        4
170
     1
 91
    15360
 92
        0
 62
   257
 93
        1
300
CONTENTFORMAT
  1
CONTENTFORMAT_BEGIN
 90
        0
 91
        0
 92
      512
 93
        0
300

 40
0.0
140
1.0
 94
        1
 62
     0
340
0
144
0.18
309
CONTENTFORMAT_END
171
     1
301
MARGIN
  1
CELLMARGIN_BEGIN
 40
0.06
 40
0.06
 40
0.06
 40
0.06
 40
0.06
 40
0.06
309
CELLMARGIN_END
 94
        0
309
TABLEFORMAT_END
 90
        4
 91
        0
 92
        0
 93
        3
 94
        2
 91
        2
 92
        3
 93
        2
 94
        4
 91
        3
 92
        3
 93
        3
 94
        4
 91
        4
 92
        0
 93
        4
 94
        4
100
AcDbTableContent
340
4FC
  0
TABLEGEOMETRY
  5
529
330
52B
100
AcDbTableGeometry
 90
        5
 91
        5
 92
       25
 93
        0
 40
0.0
 41
0.0
330
0
 94
        0
 93
        0
 40
0.0
 41
0.0
330
0
 94
        0
 93
        0
 40
0.0
 41
0.0
330
0
 94
        0
 93
        0
 40
0.0
 41
0.0
330
0
 94
        0
 93
        0
 40
0.0
 41
0.0
330
0
 94
        0
 93
        0
 40
0.0
 41
0.0
330
0
 94
        0
 93
        0
 40
0.0
 41
0.0
330
0
 94
        0
 93
        0
 40
0.0
 41
0.0
330
0
 94
        0
 93
        0
 40
0.0
 41
0.0
330
0
 94
        0
 93
        0
 40
0.0
 41
0.0
330
0
 94
        0
 93
        0
 40
0.0
 41
0.0
330
0
 94
        0
 93
        0
 40
0.0
 41
0.0
330
0
 94
        0
 93
        0
 40
0.0
 41
0.0
330
0
 94
        0
 93
        0
 40
0.0
 41
0.0
330
0
 94
        0
 93
        0
 40
0.0
 41
0.0
330
0
 94
        0
 93
        0
 40
0.0
 41
0.0
330
0
 94
        0
 93
        0
 40
0.0
 41
0.0
330
0
 94
        0
 93
        0
 40
0.0
 41
0.0
330
0
 94
        0
 93
        0
 40
0.0
 41
0.0
330
0
 94
        0
 93
        0
 40
0.0
 41
0.0
330
0
 94
        0
 93
        0
 40
0.0
 41
0.0
330
0
 94
        0
 93
        0
 40
0.0
 41
0.0
330
0
 94
        0
 93
        0
 40
0.0
 41
0.0
330
0
 94
        0
 93
        0
 40
0.0
 41
0.0
330
0
 94
        0
 93
        0
 40
0.0
 41
0.0
330
0
 94
        0
  0
DICTIONARY
  5
52E
330
4FC
100
AcDbDictionary
280
     1
281
     1
  3
ACAD_ROUNDTRIP_2008_TABLESTYLE_CELLSTYLEMAP
360
52F
  0
DICTIONARY
  5
538
330
503
100
AcDbDictionary
280
     1
281
     1
  3
ACAD_XREC_ROUNDTRIP
360
539
  0
DICTIONARY
  5
53E
330
506
100
AcDbDictionary
280
     1
281
     1
  3
ACAD_XREC_ROUNDTRIP
360
53F
  0
DICTIONARY
  5
546
330
50A
100
AcDbDictionary
280
     1
281
     1
  3
ACAD_XREC_ROUNDTRIP
360
547
  0
DICTIONARY
  5
54E
330
50E
100
AcDbDictionary
280
     1
281
     1
  3
ACAD_XREC_ROUNDTRIP
360
54F
  0
DICTIONARY
  5
542
330
508
100
AcDbDictionary
280
     1
281
     1
  3
ACAD_XREC_ROUNDTRIP
360
543
  0
DICTIONARY
  5
544
330
509
100
AcDbDictionary
280
     1
281
     1
  3
ACAD_XREC_ROUNDTRIP
360
545
  0
DICTIONARY
  5
554
330
511
100
AcDbDictionary
280
     1
281
     1
  3
ACAD_XREC_ROUNDTRIP
360
555
  0
DICTIONARY
  5
54C
330
50D
100
AcDbDictionary
280
     1
281
     1
  3
ACAD_XREC_ROUNDTRIP
360
54D
  0
DICTIONARY
  5
530
330
4FF
100
AcDbDictionary
280
     1
281
     1
  3
ACAD_XREC_ROUNDTRIP
360
531
  0
DICTIONARY
  5
532
330
500
100
AcDbDictionary
280
     1
281
     1
  3
ACAD_XREC_ROUNDTRIP
360
533
  0
DICTIONARY
  5
534
330
501
100
AcDbDictionary
280
     1
281
     1
  3
ACAD_XREC_ROUNDTRIP
360
535
  0
DICTIONARY
  5
536
330
502
100
AcDbDictionary
280
     1
281
     1
  3
ACAD_XREC_ROUNDTRIP
360
537
  0
DICTIONARY
  5
53C
330
505
100
AcDbDictionary
280
     1
281
     1
  3
ACAD_XREC_ROUNDTRIP
360
53D
  0
DICTIONARY
  5
550
330
50F
100
AcDbDictionary
280
     1
281
     1
  3
ACAD_XREC_ROUNDTRIP
360
551
  0
DICTIONARY
  5
54A
330
50C
100
AcDbDictionary
280
     1
281
     1
  3
ACAD_XREC_ROUNDTRIP
360
54B
  0
DICTIONARY
  5
552
330
510
100
AcDbDictionary
280
     1
281
     1
  3
ACAD_XREC_ROUNDTRIP
360
553
  0
DICTIONARY
  5
540
330
507
100
AcDbDictionary
280
     1
281
     1
  3
ACAD_XREC_ROUNDTRIP
360
541
  0
DICTIONARY
  5
55E
330
516
100
AcDbDictionary
280
     1
281
     1
  3
ACAD_XREC_ROUNDTRIP
360
55F
  0
DICTIONARY
  5
55C
330
515
100
AcDbDictionary
280
     1
281
     1
  3
ACAD_XREC_ROUNDTRIP
360
55D
  0
DICTIONARY
  5
556
330
512
100
AcDbDictionary
280
     1
281
     1
  3
ACAD_XREC_ROUNDTRIP
360
557
  0
DICTIONARY
  5
558
330
513
100
AcDbDictionary
280
     1
281
     1
  3
ACAD_XREC_ROUNDTRIP
360
559
  0
DICTIONARY
  5
548
330
50B
100
AcDbDictionary
280
     1
281
     1
  3
ACAD_XREC_ROUNDTRIP
360
549
  0
DICTIONARY
  5
53A
330
504
100
AcDbDictionary
280
     1
281
     1
  3
ACAD_XREC_ROUNDTRIP
360
53B
  0
DICTIONARY
  5
55A
330
514
100
AcDbDictionary
280
     1
281
     1
  3
ACAD_XREC_ROUNDTRIP
360
55B
  0
CELLSTYLEMAP
  5
52F
102
{ACAD_REACTORS
330
52E
102
}
330
52E
100
AcDbCellStyleMap
 90
        3
300
CELLSTYLE
  1
TABLEFORMAT_BEGIN
 90
        5
170
     1
 91
        0
 92
        0
 62
   257
 93
        1
300
CONTENTFORMAT
  1
CONTENTFORMAT_BEGIN
 90
        0
 91
        0
 92
        4
 93
        0
300

 40
0.0
140
1.0
 94
        5
 62
     0
340
11
144
6.0
309
CONTENTFORMAT_END
171
     1
301
MARGIN
  1
CELLMARGIN_BEGIN
 40
1.5
 40
1.5
 40
1.5
 40
1.5
 40
1.5
 40
1.5
309
CELLMARGIN_END
 94
        6
 95
        1
302
GRIDFORMAT
  1
GRIDFORMAT_BEGIN
 90
        0
 91
        1
 62
     0
 92
       -2
340
14
 93
        0
 40
0.045
309
GRIDFORMAT_END
 95
        2
302
GRIDFORMAT
  1
GRIDFORMAT_BEGIN
 90
        0
 91
        1
 62
     0
 92
       -2
340
14
 93
        0
 40
0.045
309
GRIDFORMAT_END
 95
        4
302
GRIDFORMAT
  1
GRIDFORMAT_BEGIN
 90
        0
 91
        1
 62
     0
 92
       -2
340
14
 93
        0
 40
0.045
309
GRIDFORMAT_END
 95
        8
302
GRIDFORMAT
  1
GRIDFORMAT_BEGIN
 90
        0
 91
        1
 62
     0
 92
       -2
340
14
 93
        0
 40
0.045
309
GRIDFORMAT_END
 95
       16
302
GRIDFORMAT
  1
GRIDFORMAT_BEGIN
 90
        0
 91
        1
 62
     0
 92
       -2
340
14
 93
        0
 40
0.045
309
GRIDFORMAT_END
 95
       32
302
GRIDFORMAT
  1
GRIDFORMAT_BEGIN
 90
        0
 91
        1
 62
     0
 92
       -2
340
14
 93
        0
 40
0.045
309
GRIDFORMAT_END
309
TABLEFORMAT_END
  1
CELLSTYLE_BEGIN
 90
        1
 91
        1
300
_TITLE
309
CELLSTYLE_END
300
CELLSTYLE
  1
TABLEFORMAT_BEGIN
 90
        5
170
     1
 91
        0
 92
        0
 62
   257
 93
        1
300
CONTENTFORMAT
  1
CONTENTFORMAT_BEGIN
 90
        0
 91
        0
 92
        4
 93
        0
300

 40
0.0
140
1.0
 94
        5
 62
     0
340
11
144
4.5
309
CONTENTFORMAT_END
171
     1
301
MARGIN
  1
CELLMARGIN_BEGIN
 40
1.5
 40
1.5
 40
1.5
 40
1.5
 40
1.5
 40
1.5
309
CELLMARGIN_END
 94
        6
 95
        1
302
GRIDFORMAT
  1
GRIDFORMAT_BEGIN
 90
        0
 91
        1
 62
     0
 92
       -2
340
14
 93
        0
 40
0.045
309
GRIDFORMAT_END
 95
        2
302
GRIDFORMAT
  1
GRIDFORMAT_BEGIN
 90
        0
 91
        1
 62
     0
 92
       -2
340
14
 93
        0
 40
0.045
309
GRIDFORMAT_END
 95
        4
302
GRIDFORMAT
  1
GRIDFORMAT_BEGIN
 90
        0
 91
        1
 62
     0
 92
       -2
340
14
 93
        0
 40
0.045
309
GRIDFORMAT_END
 95
        8
302
GRIDFORMAT
  1
GRIDFORMAT_BEGIN
 90
        0
 91
        1
 62
     0
 92
       -2
340
14
 93
        0
 40
0.045
309
GRIDFORMAT_END
 95
       16
302
GRIDFORMAT
  1
GRIDFORMAT_BEGIN
 90
        0
 91
        1
 62
     0
 92
       -2
340
14
 93
        0
 40
0.045
309
GRIDFORMAT_END
 95
       32
302
GRIDFORMAT
  1
GRIDFORMAT_BEGIN
 90
        0
 91
        1
 62
     0
 92
       -2
340
14
 93
        0
 40
0.045
309
GRIDFORMAT_END
309
TABLEFORMAT_END
  1
CELLSTYLE_BEGIN
 90
        2
 91
        1
300
_HEADER
309
CELLSTYLE_END
300
CELLSTYLE
  1
TABLEFORMAT_BEGIN
 90
        5
170
     1
 91
        0
 92
        0
 62
   257
 93
        1
300
CONTENTFORMAT
  1
CONTENTFORMAT_BEGIN
 90
        0
 91
        0
 92
        4
 93
        0
300

 40
0.0
140
1.0
 94
        2
 62
     0
340
11
144
4.5
309
CONTENTFORMAT_END
171
     1
301
MARGIN
  1
CELLMARGIN_BEGIN
 40
1.5
 40
1.5
 40
1.5
 40
1.5
 40
1.5
 40
1.5
309
CELLMARGIN_END
 94
        6
 95
        1
302
GRIDFORMAT
  1
GRIDFORMAT_BEGIN
 90
        0
 91
        1
 62
     0
 92
       -2
340
14
 93
        0
 40
0.045
309
GRIDFORMAT_END
 95
        2
302
GRIDFORMAT
  1
GRIDFORMAT_BEGIN
 90
        0
 91
        1
 62
     0
 92
       -2
340
14
 93
        0
 40
0.045
309
GRIDFORMAT_END
 95
        4
302
GRIDFORMAT
  1
GRIDFORMAT_BEGIN
 90
        0
 91
        1
 62
     0
 92
       -2
340
14
 93
        0
 40
0.045
309
GRIDFORMAT_END
 95
        8
302
GRIDFORMAT
  1
GRIDFORMAT_BEGIN
 90
        0
 91
        1
 62
     0
 92
       -2
340
14
 93
        0
 40
0.045
309
GRIDFORMAT_END
 95
       16
302
GRIDFORMAT
  1
GRIDFORMAT_BEGIN
 90
        0
 91
        1
 62
     0
 92
       -2
340
14
 93
        0
 40
0.045
309
GRIDFORMAT_END
 95
       32
302
GRIDFORMAT
  1
GRIDFORMAT_BEGIN
 90
        0
 91
        1
 62
     0
 92
       -2
340
14
 93
        0
 40
0.045
309
GRIDFORMAT_END
309
TABLEFORMAT_END
  1
CELLSTYLE_BEGIN
 90
        3
 91
        2
300
_DATA
309
CELLSTYLE_END
  0
XRECORD
  5
539
102
{ACAD_REACTORS
330
538
102
}
330
538
100
AcDbXrecord
280
     1
102
RTVSPost2010Prop28
280
     1
102
RTVSPost2010PropOp28
 70
     1
102
RTVSPost2010Prop29
280
     1
102
RTVSPost2010PropOp29
 70
     1
102
RTVSPost2010Prop30
280
     0
102
RTVSPost2010PropOp30
 70
     1
102
RTVSPost2010Prop31
280
     0
102
RTVSPost2010PropOp31
 70
     1
102
RTVSPost2010Prop32
280
     0
102
RTVSPost2010PropOp32
 70
     1
102
RTVSPost2010Prop33
280
     0
102
RTVSPost2010PropOp33
 70
     1
102
RTVSPost2010Prop34
280
     0
102
RTVSPost2010PropOp34
 70
     1
102
RTVSPost2010Prop35
280
     0
102
RTVSPost2010PropOp35
 70
     1
102
RTVSPost2010Prop36
280
     0
102
RTVSPost2010PropOp36
 70
     1
102
RTVSPost2010Prop37
 90
       50
102
RTVSPost2010PropOp37
 70
     1
102
RTVSPost2010Prop38
140
0.0
102
RTVSPost2010PropOp38
 70
     1
102
RTVSPost2010Prop39
140
1.0
102
RTVSPost2010PropOp39
 70
     1
102
RTVSPost2010Prop40
 90
        0
102
RTVSPost2010PropOp40
 70
     1
102
RTVSPost2010Prop41ColorIndex
 90
       18
102
RTVSPost2010Prop41ColorRGB
 90
        0
102
RTVSPost2010PropOp41
 70
     1
102
RTVSPost2010Prop42
 90
       50
102
RTVSPost2010PropOp42
 70
     1
102
RTVSPost2010Prop43
 90
        3
102
RTVSPost2010PropOp43
 70
     1
102
RTVSPost2010Prop44ColorIndex
 90
        5
102
RTVSPost2010Prop44ColorRGB
 90
      255
102
RTVSPost2010PropOp44
 70
     1
102
RTVSPost2010Prop45
280
     0
102
RTVSPost2010PropOp45
 70
     1
102
RTVSPost2010Prop46
 90
       50
102
RTVSPost2010PropOp46
 70
     1
102
RTVSPost2010Prop47
 90
       50
102
RTVSPost2010PropOp47
 70
     1
102
RTVSPost2010Prop48
 90
       50
102
RTVSPost2010PropOp48
 70
     1
102
RTVSPost2010Prop49
280
     0
102
RTVSPost2010PropOp49
 70
     1
102
RTVSPost2010Prop50
 90
       50
102
RTVSPost2010PropOp50
 70
     1
102
RTVSPost2010Prop51ColorIndex
 90
      256
102
RTVSPost2010Prop51ColorRGB
 90
-16777216
102
RTVSPost2010PropOp51
 70
     0
102
RTVSPost2010Prop52
140
1.0
102
RTVSPost2010PropOp52
 70
     0
102
RTVSPost2010Prop53
 90
        2
102
RTVSPost2010PropOp53
 70
     1
102
RTVSPost2010Prop54
  1
strokes_ogs.tif
102
RTVSPost2010PropOp54
 70
     1
102
RTVSPost2010Prop55
280
     0
102
RTVSPost2010PropOp55
 70
     1
102
RTVSPost2010Prop56
140
1.0
102
RTVSPost2010PropOp56
 70
     1
102
RTVSPost2010Prop57
140
1.0
102
RTVSPost2010PropOp57
 70
     1
  0
XRECORD
  5
53F
102
{ACAD_REACTORS
330
53E
102
}
330
53E
100
AcDbXrecord
280
     1
102
RTVSPost2010Prop28
280
     0
102
RTVSPost2010PropOp28
 70
     1
102
RTVSPost2010Prop29
280
     1
102
RTVSPost2010PropOp29
 70
     1
102
RTVSPost2010Prop30
280
     1
102
RTVSPost2010PropOp30
 70
     1
102
RTVSPost2010Prop31
280
     0
102
RTVSPost2010PropOp31
 70
     1
102
RTVSPost2010Prop32
280
     0
102
RTVSPost2010PropOp32
 70
     1
102
RTVSPost2010Prop33
280
     0
102
RTVSPost2010PropOp33
 70
     1
102
RTVSPost2010Prop34
280
     0
102
RTVSPost2010PropOp34
 70
     1
102
RTVSPost2010Prop35
280
     0
102
RTVSPost2010PropOp35
 70
     1
102
RTVSPost2010Prop36
280
     0
102
RTVSPost2010PropOp36
 70
     1
102
RTVSPost2010Prop37
 90
       50
102
RTVSPost2010PropOp37
 70
     1
102
RTVSPost2010Prop38
140
0.0
102
RTVSPost2010PropOp38
 70
     1
102
RTVSPost2010Prop39
140
1.0
102
RTVSPost2010PropOp39
 70
     1
102
RTVSPost2010Prop40
 90
        0
102
RTVSPost2010PropOp40
 70
     1
102
RTVSPost2010Prop41ColorIndex
 90
       18
102
RTVSPost2010Prop41ColorRGB
 90
        0
102
RTVSPost2010PropOp41
 70
     1
102
RTVSPost2010Prop42
 90
       50
102
RTVSPost2010PropOp42
 70
     1
102
RTVSPost2010Prop43
 90
        3
102
RTVSPost2010PropOp43
 70
     1
102
RTVSPost2010Prop44ColorIndex
 90
        5
102
RTVSPost2010Prop44ColorRGB
 90
      255
102
RTVSPost2010PropOp44
 70
     1
102
RTVSPost2010Prop45
280
     0
102
RTVSPost2010PropOp45
 70
     1
102
RTVSPost2010Prop46
 90
       50
102
RTVSPost2010PropOp46
 70
     1
102
RTVSPost2010Prop47
 90
       50
102
RTVSPost2010PropOp47
 70
     1
102
RTVSPost2010Prop48
 90
       50
102
RTVSPost2010PropOp48
 70
     1
102
RTVSPost2010Prop49
280
     0
102
RTVSPost2010PropOp49
 70
     1
102
RTVSPost2010Prop50
 90
       50
102
RTVSPost2010PropOp50
 70
     1
102
RTVSPost2010Prop51ColorIndex
 90
      256
102
RTVSPost2010Prop51ColorRGB
 90
-16777216
102
RTVSPost2010PropOp51
 70
     0
102
RTVSPost2010Prop52
140
1.0
102
RTVSPost2010PropOp52
 70
     0
102
RTVSPost2010Prop53
 90
        2
102
RTVSPost2010PropOp53
 70
     1
102
RTVSPost2010Prop54
  1
strokes_ogs.tif
102
RTVSPost2010PropOp54
 70
     1
102
RTVSPost2010Prop55
280
     0
102
RTVSPost2010PropOp55
 70
     1
102
RTVSPost2010Prop56
140
1.0
102
RTVSPost2010PropOp56
 70
     1
102
RTVSPost2010Prop57
140
1.0
102
RTVSPost2010PropOp57
 70
     1
  0
XRECORD
  5
547
102
{ACAD_REACTORS
330
546
102
}
330
546
100
AcDbXrecord
280
     1
102
RTVSPost2010Prop28
280
     0
102
RTVSPost2010PropOp28
 70
     1
102
RTVSPost2010Prop29
280
     1
102
RTVSPost2010PropOp29
 70
     1
102
RTVSPost2010Prop30
280
     1
102
RTVSPost2010PropOp30
 70
     1
102
RTVSPost2010Prop31
280
     0
102
RTVSPost2010PropOp31
 70
     1
102
RTVSPost2010Prop32
280
     0
102
RTVSPost2010PropOp32
 70
     1
102
RTVSPost2010Prop33
280
     0
102
RTVSPost2010PropOp33
 70
     1
102
RTVSPost2010Prop34
280
     0
102
RTVSPost2010PropOp34
 70
     1
102
RTVSPost2010Prop35
280
     0
102
RTVSPost2010PropOp35
 70
     1
102
RTVSPost2010Prop36
280
     0
102
RTVSPost2010PropOp36
 70
     1
102
RTVSPost2010Prop37
 90
       50
102
RTVSPost2010PropOp37
 70
     1
102
RTVSPost2010Prop38
140
0.0
102
RTVSPost2010PropOp38
 70
     1
102
RTVSPost2010Prop39
140
1.0
102
RTVSPost2010PropOp39
 70
     1
102
RTVSPost2010Prop40
 90
        0
102
RTVSPost2010PropOp40
 70
     1
102
RTVSPost2010Prop41ColorIndex
 90
       18
102
RTVSPost2010Prop41ColorRGB
 90
        0
102
RTVSPost2010PropOp41
 70
     1
102
RTVSPost2010Prop42
 90
       50
102
RTVSPost2010PropOp42
 70
     1
102
RTVSPost2010Prop43
 90
        3
102
RTVSPost2010PropOp43
 70
     1
102
RTVSPost2010Prop44ColorIndex
 90
        5
102
RTVSPost2010Prop44ColorRGB
 90
      255
102
RTVSPost2010PropOp44
 70
     1
102
RTVSPost2010Prop45
280
     0
102
RTVSPost2010PropOp45
 70
     1
102
RTVSPost2010Prop46
 90
       50
102
RTVSPost2010PropOp46
 70
     1
102
RTVSPost2010Prop47
 90
       50
102
RTVSPost2010PropOp47
 70
     1
102
RTVSPost2010Prop48
 90
       50
102
RTVSPost2010PropOp48
 70
     1
102
RTVSPost2010Prop49
280
     0
102
RTVSPost2010PropOp49
 70
     1
102
RTVSPost2010Prop50
 90
       50
102
RTVSPost2010PropOp50
 70
     1
102
RTVSPost2010Prop51ColorIndex
 90
      256
102
RTVSPost2010Prop51ColorRGB
 90
-16777216
102
RTVSPost2010PropOp51
 70
     0
102
RTVSPost2010Prop52
140
1.0
102
RTVSPost2010PropOp52
 70
     0
102
RTVSPost2010Prop53
 90
        2
102
RTVSPost2010PropOp53
 70
     1
102
RTVSPost2010Prop54
  1
strokes_ogs.tif
102
RTVSPost2010PropOp54
 70
     1
102
RTVSPost2010Prop55
280
     0
102
RTVSPost2010PropOp55
 70
     1
102
RTVSPost2010Prop56
140
1.0
102
RTVSPost2010PropOp56
 70
     1
102
RTVSPost2010Prop57
140
1.0
102
RTVSPost2010PropOp57
 70
     1
  0
XRECORD
  5
54F
102
{ACAD_REACTORS
330
54E
102
}
330
54E
100
AcDbXrecord
280
     1
102
RTVSPost2010Prop28
280
     0
102
RTVSPost2010PropOp28
 70
     1
102
RTVSPost2010Prop29
280
     1
102
RTVSPost2010PropOp29
 70
     1
102
RTVSPost2010Prop30
280
     1
102
RTVSPost2010PropOp30
 70
     1
102
RTVSPost2010Prop31
280
     0
102
RTVSPost2010PropOp31
 70
     1
102
RTVSPost2010Prop32
280
     0
102
RTVSPost2010PropOp32
 70
     1
102
RTVSPost2010Prop33
280
     0
102
RTVSPost2010PropOp33
 70
     1
102
RTVSPost2010Prop34
280
     0
102
RTVSPost2010PropOp34
 70
     1
102
RTVSPost2010Prop35
280
     0
102
RTVSPost2010PropOp35
 70
     1
102
RTVSPost2010Prop36
280
     0
102
RTVSPost2010PropOp36
 70
     1
102
RTVSPost2010Prop37
 90
       50
102
RTVSPost2010PropOp37
 70
     1
102
RTVSPost2010Prop38
140
0.0
102
RTVSPost2010PropOp38
 70
     1
102
RTVSPost2010Prop39
140
1.0
102
RTVSPost2010PropOp39
 70
     1
102
RTVSPost2010Prop40
 90
        0
102
RTVSPost2010PropOp40
 70
     1
102
RTVSPost2010Prop41ColorIndex
 90
       18
102
RTVSPost2010Prop41ColorRGB
 90
        0
102
RTVSPost2010PropOp41
 70
     1
102
RTVSPost2010Prop42
 90
       50
102
RTVSPost2010PropOp42
 70
     1
102
RTVSPost2010Prop43
 90
        3
102
RTVSPost2010PropOp43
 70
     1
102
RTVSPost2010Prop44ColorIndex
 90
        5
102
RTVSPost2010Prop44ColorRGB
 90
      255
102
RTVSPost2010PropOp44
 70
     1
102
RTVSPost2010Prop45
280
     0
102
RTVSPost2010PropOp45
 70
     1
102
RTVSPost2010Prop46
 90
       50
102
RTVSPost2010PropOp46
 70
     1
102
RTVSPost2010Prop47
 90
       50
102
RTVSPost2010PropOp47
 70
     1
102
RTVSPost2010Prop48
 90
       50
102
RTVSPost2010PropOp48
 70
     1
102
RTVSPost2010Prop49
280
     0
102
RTVSPost2010PropOp49
 70
     1
102
RTVSPost2010Prop50
 90
       50
102
RTVSPost2010PropOp50
 70
     1
102
RTVSPost2010Prop51ColorIndex
 90
      256
102
RTVSPost2010Prop51ColorRGB
 90
-16777216
102
RTVSPost2010PropOp51
 70
     0
102
RTVSPost2010Prop52
140
1.0
102
RTVSPost2010PropOp52
 70
     0
102
RTVSPost2010Prop53
 90
        2
102
RTVSPost2010PropOp53
 70
     1
102
RTVSPost2010Prop54
  1
strokes_ogs.tif
102
RTVSPost2010PropOp54
 70
     1
102
RTVSPost2010Prop55
280
     0
102
RTVSPost2010PropOp55
 70
     1
102
RTVSPost2010Prop56
140
1.0
102
RTVSPost2010PropOp56
 70
     1
102
RTVSPost2010Prop57
140
1.0
102
RTVSPost2010PropOp57
 70
     1
  0
XRECORD
  5
543
102
{ACAD_REACTORS
330
542
102
}
330
542
100
AcDbXrecord
280
     1
102
RTVSPost2010Prop28
280
     0
102
RTVSPost2010PropOp28
 70
     1
102
RTVSPost2010Prop29
280
     1
102
RTVSPost2010PropOp29
 70
     1
102
RTVSPost2010Prop30
280
     1
102
RTVSPost2010PropOp30
 70
     1
102
RTVSPost2010Prop31
280
     0
102
RTVSPost2010PropOp31
 70
     1
102
RTVSPost2010Prop32
280
     0
102
RTVSPost2010PropOp32
 70
     1
102
RTVSPost2010Prop33
280
     0
102
RTVSPost2010PropOp33
 70
     1
102
RTVSPost2010Prop34
280
     0
102
RTVSPost2010PropOp34
 70
     1
102
RTVSPost2010Prop35
280
     0
102
RTVSPost2010PropOp35
 70
     1
102
RTVSPost2010Prop36
280
     0
102
RTVSPost2010PropOp36
 70
     1
102
RTVSPost2010Prop37
 90
       50
102
RTVSPost2010PropOp37
 70
     1
102
RTVSPost2010Prop38
140
0.0
102
RTVSPost2010PropOp38
 70
     1
102
RTVSPost2010Prop39
140
1.0
102
RTVSPost2010PropOp39
 70
     1
102
RTVSPost2010Prop40
 90
        0
102
RTVSPost2010PropOp40
 70
     1
102
RTVSPost2010Prop41ColorIndex
 90
       18
102
RTVSPost2010Prop41ColorRGB
 90
        0
102
RTVSPost2010PropOp41
 70
     1
102
RTVSPost2010Prop42
 90
       50
102
RTVSPost2010PropOp42
 70
     1
102
RTVSPost2010Prop43
 90
        3
102
RTVSPost2010PropOp43
 70
     1
102
RTVSPost2010Prop44ColorIndex
 90
        5
102
RTVSPost2010Prop44ColorRGB
 90
      255
102
RTVSPost2010PropOp44
 70
     1
102
RTVSPost2010Prop45
280
     0
102
RTVSPost2010PropOp45
 70
     1
102
RTVSPost2010Prop46
 90
       50
102
RTVSPost2010PropOp46
 70
     1
102
RTVSPost2010Prop47
 90
       50
102
RTVSPost2010PropOp47
 70
     1
102
RTVSPost2010Prop48
 90
       50
102
RTVSPost2010PropOp48
 70
     1
102
RTVSPost2010Prop49
280
     0
102
RTVSPost2010PropOp49
 70
     1
102
RTVSPost2010Prop50
 90
       50
102
RTVSPost2010PropOp50
 70
     1
102
RTVSPost2010Prop51ColorIndex
 90
      256
102
RTVSPost2010Prop51ColorRGB
 90
-16777216
102
RTVSPost2010PropOp51
 70
     0
102
RTVSPost2010Prop52
140
1.0
102
RTVSPost2010PropOp52
 70
     0
102
RTVSPost2010Prop53
 90
        2
102
RTVSPost2010PropOp53
 70
     1
102
RTVSPost2010Prop54
  1
strokes_ogs.tif
102
RTVSPost2010PropOp54
 70
     1
102
RTVSPost2010Prop55
280
     0
102
RTVSPost2010PropOp55
 70
     1
102
RTVSPost2010Prop56
140
1.0
102
RTVSPost2010PropOp56
 70
     1
102
RTVSPost2010Prop57
140
1.0
102
RTVSPost2010PropOp57
 70
     1
  0
XRECORD
  5
545
102
{ACAD_REACTORS
330
544
102
}
330
544
100
AcDbXrecord
280
     1
102
RTVSPost2010Prop28
280
     0
102
RTVSPost2010PropOp28
 70
     1
102
RTVSPost2010Prop29
280
     1
102
RTVSPost2010PropOp29
 70
     1
102
RTVSPost2010Prop30
280
     1
102
RTVSPost2010PropOp30
 70
     1
102
RTVSPost2010Prop31
280
     0
102
RTVSPost2010PropOp31
 70
     1
102
RTVSPost2010Prop32
280
     0
102
RTVSPost2010PropOp32
 70
     1
102
RTVSPost2010Prop33
280
     0
102
RTVSPost2010PropOp33
 70
     1
102
RTVSPost2010Prop34
280
     0
102
RTVSPost2010PropOp34
 70
     1
102
RTVSPost2010Prop35
280
     0
102
RTVSPost2010PropOp35
 70
     1
102
RTVSPost2010Prop36
280
     0
102
RTVSPost2010PropOp36
 70
     1
102
RTVSPost2010Prop37
 90
       50
102
RTVSPost2010PropOp37
 70
     1
102
RTVSPost2010Prop38
140
0.0
102
RTVSPost2010PropOp38
 70
     1
102
RTVSPost2010Prop39
140
1.0
102
RTVSPost2010PropOp39
 70
     1
102
RTVSPost2010Prop40
 90
        0
102
RTVSPost2010PropOp40
 70
     1
102
RTVSPost2010Prop41ColorIndex
 90
       18
102
RTVSPost2010Prop41ColorRGB
 90
        0
102
RTVSPost2010PropOp41
 70
     1
102
RTVSPost2010Prop42
 90
       50
102
RTVSPost2010PropOp42
 70
     1
102
RTVSPost2010Prop43
 90
        3
102
RTVSPost2010PropOp43
 70
     1
102
RTVSPost2010Prop44ColorIndex
 90
        5
102
RTVSPost2010Prop44ColorRGB
 90
      255
102
RTVSPost2010PropOp44
 70
     1
102
RTVSPost2010Prop45
280
     0
102
RTVSPost2010PropOp45
 70
     1
102
RTVSPost2010Prop46
 90
       50
102
RTVSPost2010PropOp46
 70
     1
102
RTVSPost2010Prop47
 90
       50
102
RTVSPost2010PropOp47
 70
     1
102
RTVSPost2010Prop48
 90
       50
102
RTVSPost2010PropOp48
 70
     1
102
RTVSPost2010Prop49
280
     0
102
RTVSPost2010PropOp49
 70
     1
102
RTVSPost2010Prop50
 90
       50
102
RTVSPost2010PropOp50
 70
     1
102
RTVSPost2010Prop51ColorIndex
 90
      256
102
RTVSPost2010Prop51ColorRGB
 90
-16777216
102
RTVSPost2010PropOp51
 70
     0
102
RTVSPost2010Prop52
140
1.0
102
RTVSPost2010PropOp52
 70
     0
102
RTVSPost2010Prop53
 90
        2
102
RTVSPost2010PropOp53
 70
     1
102
RTVSPost2010Prop54
  1
strokes_ogs.tif
102
RTVSPost2010PropOp54
 70
     1
102
RTVSPost2010Prop55
280
     0
102
RTVSPost2010PropOp55
 70
     1
102
RTVSPost2010Prop56
140
1.0
102
RTVSPost2010PropOp56
 70
     1
102
RTVSPost2010Prop57
140
1.0
102
RTVSPost2010PropOp57
 70
     1
  0
XRECORD
  5
555
102
{ACAD_REACTORS
330
554
102
}
330
554
100
AcDbXrecord
280
     1
102
RTVSPost2010Prop28
280
     0
102
RTVSPost2010PropOp28
 70
     0
102
RTVSPost2010Prop29
280
     1
102
RTVSPost2010PropOp29
 70
     0
102
RTVSPost2010Prop30
280
     1
102
RTVSPost2010PropOp30
 70
     0
102
RTVSPost2010Prop31
280
     0
102
RTVSPost2010PropOp31
 70
     0
102
RTVSPost2010Prop32
280
     0
102
RTVSPost2010PropOp32
 70
     0
102
RTVSPost2010Prop33
280
     0
102
RTVSPost2010PropOp33
 70
     0
102
RTVSPost2010Prop34
280
     0
102
RTVSPost2010PropOp34
 70
     0
102
RTVSPost2010Prop35
280
     0
102
RTVSPost2010PropOp35
 70
     0
102
RTVSPost2010Prop36
280
     0
102
RTVSPost2010PropOp36
 70
     0
102
RTVSPost2010Prop37
 90
       50
102
RTVSPost2010PropOp37
 70
     0
102
RTVSPost2010Prop38
140
0.0
102
RTVSPost2010PropOp38
 70
     0
102
RTVSPost2010Prop39
140
1.0
102
RTVSPost2010PropOp39
 70
     0
102
RTVSPost2010Prop40
 90
        0
102
RTVSPost2010PropOp40
 70
     0
102
RTVSPost2010Prop41ColorIndex
 90
       18
102
RTVSPost2010Prop41ColorRGB
 90
        0
102
RTVSPost2010PropOp41
 70
     0
102
RTVSPost2010Prop42
 90
       50
102
RTVSPost2010PropOp42
 70
     0
102
RTVSPost2010Prop43
 90
        3
102
RTVSPost2010PropOp43
 70
     0
102
RTVSPost2010Prop44ColorIndex
 90
        5
102
RTVSPost2010Prop44ColorRGB
 90
      255
102
RTVSPost2010PropOp44
 70
     0
102
RTVSPost2010Prop45
280
     0
102
RTVSPost2010PropOp45
 70
     0
102
RTVSPost2010Prop46
 90
       50
102
RTVSPost2010PropOp46
 70
     0
102
RTVSPost2010Prop47
 90
       50
102
RTVSPost2010PropOp47
 70
     0
102
RTVSPost2010Prop48
 90
       50
102
RTVSPost2010PropOp48
 70
     0
102
RTVSPost2010Prop49
280
     0
102
RTVSPost2010PropOp49
 70
     0
102
RTVSPost2010Prop50
 90
       50
102
RTVSPost2010PropOp50
 70
     0
102
RTVSPost2010Prop51ColorIndex
 90
      256
102
RTVSPost2010Prop51ColorRGB
 90
-16777216
102
RTVSPost2010PropOp51
 70
     0
102
RTVSPost2010Prop52
140
1.0
102
RTVSPost2010PropOp52
 70
     0
102
RTVSPost2010Prop53
 90
        2
102
RTVSPost2010PropOp53
 70
     0
102
RTVSPost2010Prop54
  1
strokes_ogs.tif
102
RTVSPost2010PropOp54
 70
     0
102
RTVSPost2010Prop55
280
     0
102
RTVSPost2010PropOp55
 70
     0
102
RTVSPost2010Prop56
140
1.0
102
RTVSPost2010PropOp56
 70
     0
102
RTVSPost2010Prop57
140
1.0
102
RTVSPost2010PropOp57
 70
     0
  0
XRECORD
  5
54D
102
{ACAD_REACTORS
330
54C
102
}
330
54C
100
AcDbXrecord
280
     1
102
RTVSPost2010Prop28
280
     0
102
RTVSPost2010PropOp28
 70
     1
102
RTVSPost2010Prop29
280
     1
102
RTVSPost2010PropOp29
 70
     1
102
RTVSPost2010Prop30
280
     1
102
RTVSPost2010PropOp30
 70
     1
102
RTVSPost2010Prop31
280
     0
102
RTVSPost2010PropOp31
 70
     1
102
RTVSPost2010Prop32
280
     0
102
RTVSPost2010PropOp32
 70
     1
102
RTVSPost2010Prop33
280
     0
102
RTVSPost2010PropOp33
 70
     1
102
RTVSPost2010Prop34
280
     0
102
RTVSPost2010PropOp34
 70
     1
102
RTVSPost2010Prop35
280
     0
102
RTVSPost2010PropOp35
 70
     1
102
RTVSPost2010Prop36
280
     0
102
RTVSPost2010PropOp36
 70
     1
102
RTVSPost2010Prop37
 90
       50
102
RTVSPost2010PropOp37
 70
     1
102
RTVSPost2010Prop38
140
0.0
102
RTVSPost2010PropOp38
 70
     1
102
RTVSPost2010Prop39
140
1.0
102
RTVSPost2010PropOp39
 70
     1
102
RTVSPost2010Prop40
 90
        0
102
RTVSPost2010PropOp40
 70
     1
102
RTVSPost2010Prop41ColorIndex
 90
       18
102
RTVSPost2010Prop41ColorRGB
 90
        0
102
RTVSPost2010PropOp41
 70
     1
102
RTVSPost2010Prop42
 90
       50
102
RTVSPost2010PropOp42
 70
     1
102
RTVSPost2010Prop43
 90
        3
102
RTVSPost2010PropOp43
 70
     1
102
RTVSPost2010Prop44ColorIndex
 90
        5
102
RTVSPost2010Prop44ColorRGB
 90
      255
102
RTVSPost2010PropOp44
 70
     1
102
RTVSPost2010Prop45
280
     0
102
RTVSPost2010PropOp45
 70
     1
102
RTVSPost2010Prop46
 90
       50
102
RTVSPost2010PropOp46
 70
     1
102
RTVSPost2010Prop47
 90
       50
102
RTVSPost2010PropOp47
 70
     1
102
RTVSPost2010Prop48
 90
       50
102
RTVSPost2010PropOp48
 70
     1
102
RTVSPost2010Prop49
280
     0
102
RTVSPost2010PropOp49
 70
     1
102
RTVSPost2010Prop50
 90
       50
102
RTVSPost2010PropOp50
 70
     1
102
RTVSPost2010Prop51ColorIndex
 90
      256
102
RTVSPost2010Prop51ColorRGB
 90
-16777216
102
RTVSPost2010PropOp51
 70
     0
102
RTVSPost2010Prop52
140
1.0
102
RTVSPost2010PropOp52
 70
     0
102
RTVSPost2010Prop53
 90
        2
102
RTVSPost2010PropOp53
 70
     1
102
RTVSPost2010Prop54
  1
strokes_ogs.tif
102
RTVSPost2010PropOp54
 70
     1
102
RTVSPost2010Prop55
280
     0
102
RTVSPost2010PropOp55
 70
     1
102
RTVSPost2010Prop56
140
1.0
102
RTVSPost2010PropOp56
 70
     1
102
RTVSPost2010Prop57
140
1.0
102
RTVSPost2010PropOp57
 70
     1
  0
XRECORD
  5
531
102
{ACAD_REACTORS
330
530
102
}
330
530
100
AcDbXrecord
280
     1
102
RTVSPost2010Prop28
280
     0
102
RTVSPost2010PropOp28
 70
     1
102
RTVSPost2010Prop29
280
     1
102
RTVSPost2010PropOp29
 70
     1
102
RTVSPost2010Prop30
280
     1
102
RTVSPost2010PropOp30
 70
     1
102
RTVSPost2010Prop31
280
     0
102
RTVSPost2010PropOp31
 70
     1
102
RTVSPost2010Prop32
280
     0
102
RTVSPost2010PropOp32
 70
     1
102
RTVSPost2010Prop33
280
     0
102
RTVSPost2010PropOp33
 70
     1
102
RTVSPost2010Prop34
280
     0
102
RTVSPost2010PropOp34
 70
     1
102
RTVSPost2010Prop35
280
     0
102
RTVSPost2010PropOp35
 70
     1
102
RTVSPost2010Prop36
280
     0
102
RTVSPost2010PropOp36
 70
     1
102
RTVSPost2010Prop37
 90
       50
102
RTVSPost2010PropOp37
 70
     1
102
RTVSPost2010Prop38
140
0.0
102
RTVSPost2010PropOp38
 70
     1
102
RTVSPost2010Prop39
140
1.0
102
RTVSPost2010PropOp39
 70
     1
102
RTVSPost2010Prop40
 90
        0
102
RTVSPost2010PropOp40
 70
     1
102
RTVSPost2010Prop41ColorIndex
 90
       18
102
RTVSPost2010Prop41ColorRGB
 90
        0
102
RTVSPost2010PropOp41
 70
     1
102
RTVSPost2010Prop42
 90
       50
102
RTVSPost2010PropOp42
 70
     1
102
RTVSPost2010Prop43
 90
        3
102
RTVSPost2010PropOp43
 70
     1
102
RTVSPost2010Prop44ColorIndex
 90
        5
102
RTVSPost2010Prop44ColorRGB
 90
      255
102
RTVSPost2010PropOp44
 70
     1
102
RTVSPost2010Prop45
280
     0
102
RTVSPost2010PropOp45
 70
     1
102
RTVSPost2010Prop46
 90
       50
102
RTVSPost2010PropOp46
 70
     1
102
RTVSPost2010Prop47
 90
       50
102
RTVSPost2010PropOp47
 70
     1
102
RTVSPost2010Prop48
 90
       50
102
RTVSPost2010PropOp48
 70
     1
102
RTVSPost2010Prop49
280
     0
102
RTVSPost2010PropOp49
 70
     1
102
RTVSPost2010Prop50
 90
       50
102
RTVSPost2010PropOp50
 70
     1
102
RTVSPost2010Prop51ColorIndex
 90
      256
102
RTVSPost2010Prop51ColorRGB
 90
-16777216
102
RTVSPost2010PropOp51
 70
     0
102
RTVSPost2010Prop52
140
1.0
102
RTVSPost2010PropOp52
 70
     0
102
RTVSPost2010Prop53
 90
        2
102
RTVSPost2010PropOp53
 70
     1
102
RTVSPost2010Prop54
  1
strokes_ogs.tif
102
RTVSPost2010PropOp54
 70
     1
102
RTVSPost2010Prop55
280
     0
102
RTVSPost2010PropOp55
 70
     1
102
RTVSPost2010Prop56
140
1.0
102
RTVSPost2010PropOp56
 70
     1
102
RTVSPost2010Prop57
140
1.0
102
RTVSPost2010PropOp57
 70
     1
  0
XRECORD
  5
533
102
{ACAD_REACTORS
330
532
102
}
330
532
100
AcDbXrecord
280
     1
102
RTVSPost2010Prop28
280
     0
102
RTVSPost2010PropOp28
 70
     1
102
RTVSPost2010Prop29
280
     1
102
RTVSPost2010PropOp29
 70
     1
102
RTVSPost2010Prop30
280
     1
102
RTVSPost2010PropOp30
 70
     1
102
RTVSPost2010Prop31
280
     0
102
RTVSPost2010PropOp31
 70
     1
102
RTVSPost2010Prop32
280
     0
102
RTVSPost2010PropOp32
 70
     1
102
RTVSPost2010Prop33
280
     0
102
RTVSPost2010PropOp33
 70
     1
102
RTVSPost2010Prop34
280
     0
102
RTVSPost2010PropOp34
 70
     1
102
RTVSPost2010Prop35
280
     0
102
RTVSPost2010PropOp35
 70
     1
102
RTVSPost2010Prop36
280
     0
102
RTVSPost2010PropOp36
 70
     1
102
RTVSPost2010Prop37
 90
       50
102
RTVSPost2010PropOp37
 70
     1
102
RTVSPost2010Prop38
140
0.0
102
RTVSPost2010PropOp38
 70
     1
102
RTVSPost2010Prop39
140
1.0
102
RTVSPost2010PropOp39
 70
     1
102
RTVSPost2010Prop40
 90
        0
102
RTVSPost2010PropOp40
 70
     1
102
RTVSPost2010Prop41ColorIndex
 90
       18
102
RTVSPost2010Prop41ColorRGB
 90
        0
102
RTVSPost2010PropOp41
 70
     1
102
RTVSPost2010Prop42
 90
       50
102
RTVSPost2010PropOp42
 70
     1
102
RTVSPost2010Prop43
 90
        3
102
RTVSPost2010PropOp43
 70
     1
102
RTVSPost2010Prop44ColorIndex
 90
        5
102
RTVSPost2010Prop44ColorRGB
 90
      255
102
RTVSPost2010PropOp44
 70
     1
102
RTVSPost2010Prop45
280
     0
102
RTVSPost2010PropOp45
 70
     1
102
RTVSPost2010Prop46
 90
       50
102
RTVSPost2010PropOp46
 70
     1
102
RTVSPost2010Prop47
 90
       50
102
RTVSPost2010PropOp47
 70
     1
102
RTVSPost2010Prop48
 90
       50
102
RTVSPost2010PropOp48
 70
     1
102
RTVSPost2010Prop49
280
     0
102
RTVSPost2010PropOp49
 70
     1
102
RTVSPost2010Prop50
 90
       50
102
RTVSPost2010PropOp50
 70
     1
102
RTVSPost2010Prop51ColorIndex
 90
      256
102
RTVSPost2010Prop51ColorRGB
 90
-16777216
102
RTVSPost2010PropOp51
 70
     0
102
RTVSPost2010Prop52
140
1.0
102
RTVSPost2010PropOp52
 70
     0
102
RTVSPost2010Prop53
 90
        2
102
RTVSPost2010PropOp53
 70
     1
102
RTVSPost2010Prop54
  1
strokes_ogs.tif
102
RTVSPost2010PropOp54
 70
     1
102
RTVSPost2010Prop55
280
     0
102
RTVSPost2010PropOp55
 70
     1
102
RTVSPost2010Prop56
140
1.0
102
RTVSPost2010PropOp56
 70
     1
102
RTVSPost2010Prop57
140
1.0
102
RTVSPost2010PropOp57
 70
     1
  0
XRECORD
  5
535
102
{ACAD_REACTORS
330
534
102
}
330
534
100
AcDbXrecord
280
     1
102
RTVSPost2010Prop28
280
     0
102
RTVSPost2010PropOp28
 70
     1
102
RTVSPost2010Prop29
280
     1
102
RTVSPost2010PropOp29
 70
     1
102
RTVSPost2010Prop30
280
     1
102
RTVSPost2010PropOp30
 70
     1
102
RTVSPost2010Prop31
280
     0
102
RTVSPost2010PropOp31
 70
     1
102
RTVSPost2010Prop32
280
     0
102
RTVSPost2010PropOp32
 70
     1
102
RTVSPost2010Prop33
280
     0
102
RTVSPost2010PropOp33
 70
     1
102
RTVSPost2010Prop34
280
     0
102
RTVSPost2010PropOp34
 70
     1
102
RTVSPost2010Prop35
280
     0
102
RTVSPost2010PropOp35
 70
     1
102
RTVSPost2010Prop36
280
     0
102
RTVSPost2010PropOp36
 70
     1
102
RTVSPost2010Prop37
 90
       50
102
RTVSPost2010PropOp37
 70
     1
102
RTVSPost2010Prop38
140
0.0
102
RTVSPost2010PropOp38
 70
     1
102
RTVSPost2010Prop39
140
1.0
102
RTVSPost2010PropOp39
 70
     1
102
RTVSPost2010Prop40
 90
        0
102
RTVSPost2010PropOp40
 70
     1
102
RTVSPost2010Prop41ColorIndex
 90
       18
102
RTVSPost2010Prop41ColorRGB
 90
        0
102
RTVSPost2010PropOp41
 70
     1
102
RTVSPost2010Prop42
 90
       50
102
RTVSPost2010PropOp42
 70
     1
102
RTVSPost2010Prop43
 90
        3
102
RTVSPost2010PropOp43
 70
     1
102
RTVSPost2010Prop44ColorIndex
 90
        5
102
RTVSPost2010Prop44ColorRGB
 90
      255
102
RTVSPost2010PropOp44
 70
     1
102
RTVSPost2010Prop45
280
     0
102
RTVSPost2010PropOp45
 70
     1
102
RTVSPost2010Prop46
 90
       50
102
RTVSPost2010PropOp46
 70
     1
102
RTVSPost2010Prop47
 90
       50
102
RTVSPost2010PropOp47
 70
     1
102
RTVSPost2010Prop48
 90
       50
102
RTVSPost2010PropOp48
 70
     1
102
RTVSPost2010Prop49
280
     0
102
RTVSPost2010PropOp49
 70
     1
102
RTVSPost2010Prop50
 90
       50
102
RTVSPost2010PropOp50
 70
     1
102
RTVSPost2010Prop51ColorIndex
 90
      256
102
RTVSPost2010Prop51ColorRGB
 90
-16777216
102
RTVSPost2010PropOp51
 70
     0
102
RTVSPost2010Prop52
140
1.0
102
RTVSPost2010PropOp52
 70
     0
102
RTVSPost2010Prop53
 90
        2
102
RTVSPost2010PropOp53
 70
     1
102
RTVSPost2010Prop54
  1
strokes_ogs.tif
102
RTVSPost2010PropOp54
 70
     1
102
RTVSPost2010Prop55
280
     0
102
RTVSPost2010PropOp55
 70
     1
102
RTVSPost2010Prop56
140
1.0
102
RTVSPost2010PropOp56
 70
     1
102
RTVSPost2010Prop57
140
1.0
102
RTVSPost2010PropOp57
 70
     1
  0
XRECORD
  5
537
102
{ACAD_REACTORS
330
536
102
}
330
536
100
AcDbXrecord
280
     1
102
RTVSPost2010Prop28
280
     0
102
RTVSPost2010PropOp28
 70
     1
102
RTVSPost2010Prop29
280
     1
102
RTVSPost2010PropOp29
 70
     1
102
RTVSPost2010Prop30
280
     1
102
RTVSPost2010PropOp30
 70
     1
102
RTVSPost2010Prop31
280
     0
102
RTVSPost2010PropOp31
 70
     1
102
RTVSPost2010Prop32
280
     0
102
RTVSPost2010PropOp32
 70
     1
102
RTVSPost2010Prop33
280
     0
102
RTVSPost2010PropOp33
 70
     1
102
RTVSPost2010Prop34
280
     0
102
RTVSPost2010PropOp34
 70
     1
102
RTVSPost2010Prop35
280
     0
102
RTVSPost2010PropOp35
 70
     1
102
RTVSPost2010Prop36
280
     0
102
RTVSPost2010PropOp36
 70
     1
102
RTVSPost2010Prop37
 90
       50
102
RTVSPost2010PropOp37
 70
     1
102
RTVSPost2010Prop38
140
0.0
102
RTVSPost2010PropOp38
 70
     1
102
RTVSPost2010Prop39
140
1.0
102
RTVSPost2010PropOp39
 70
     1
102
RTVSPost2010Prop40
 90
        0
102
RTVSPost2010PropOp40
 70
     1
102
RTVSPost2010Prop41ColorIndex
 90
       18
102
RTVSPost2010Prop41ColorRGB
 90
        0
102
RTVSPost2010PropOp41
 70
     1
102
RTVSPost2010Prop42
 90
       50
102
RTVSPost2010PropOp42
 70
     1
102
RTVSPost2010Prop43
 90
        3
102
RTVSPost2010PropOp43
 70
     1
102
RTVSPost2010Prop44ColorIndex
 90
        5
102
RTVSPost2010Prop44ColorRGB
 90
      255
102
RTVSPost2010PropOp44
 70
     1
102
RTVSPost2010Prop45
280
     0
102
RTVSPost2010PropOp45
 70
     1
102
RTVSPost2010Prop46
 90
       50
102
RTVSPost2010PropOp46
 70
     1
102
RTVSPost2010Prop47
 90
       50
102
RTVSPost2010PropOp47
 70
     1
102
RTVSPost2010Prop48
 90
       50
102
RTVSPost2010PropOp48
 70
     1
102
RTVSPost2010Prop49
280
     0
102
RTVSPost2010PropOp49
 70
     1
102
RTVSPost2010Prop50
 90
       50
102
RTVSPost2010PropOp50
 70
     1
102
RTVSPost2010Prop51ColorIndex
 90
      256
102
RTVSPost2010Prop51ColorRGB
 90
-16777216
102
RTVSPost2010PropOp51
 70
     0
102
RTVSPost2010Prop52
140
1.0
102
RTVSPost2010PropOp52
 70
     0
102
RTVSPost2010Prop53
 90
        2
102
RTVSPost2010PropOp53
 70
     1
102
RTVSPost2010Prop54
  1
strokes_ogs.tif
102
RTVSPost2010PropOp54
 70
     1
102
RTVSPost2010Prop55
280
     0
102
RTVSPost2010PropOp55
 70
     1
102
RTVSPost2010Prop56
140
1.0
102
RTVSPost2010PropOp56
 70
     1
102
RTVSPost2010Prop57
140
1.0
102
RTVSPost2010PropOp57
 70
     1
  0
XRECORD
  5
53D
102
{ACAD_REACTORS
330
53C
102
}
330
53C
100
AcDbXrecord
280
     1
102
RTVSPost2010Prop28
280
     0
102
RTVSPost2010PropOp28
 70
     1
102
RTVSPost2010Prop29
280
     1
102
RTVSPost2010PropOp29
 70
     1
102
RTVSPost2010Prop30
280
     1
102
RTVSPost2010PropOp30
 70
     1
102
RTVSPost2010Prop31
280
     0
102
RTVSPost2010PropOp31
 70
     1
102
RTVSPost2010Prop32
280
     0
102
RTVSPost2010PropOp32
 70
     1
102
RTVSPost2010Prop33
280
     0
102
RTVSPost2010PropOp33
 70
     1
102
RTVSPost2010Prop34
280
     0
102
RTVSPost2010PropOp34
 70
     1
102
RTVSPost2010Prop35
280
     0
102
RTVSPost2010PropOp35
 70
     1
102
RTVSPost2010Prop36
280
     0
102
RTVSPost2010PropOp36
 70
     1
102
RTVSPost2010Prop37
 90
       50
102
RTVSPost2010PropOp37
 70
     1
102
RTVSPost2010Prop38
140
0.0
102
RTVSPost2010PropOp38
 70
     1
102
RTVSPost2010Prop39
140
1.0
102
RTVSPost2010PropOp39
 70
     1
102
RTVSPost2010Prop40
 90
        0
102
RTVSPost2010PropOp40
 70
     1
102
RTVSPost2010Prop41ColorIndex
 90
       18
102
RTVSPost2010Prop41ColorRGB
 90
        0
102
RTVSPost2010PropOp41
 70
     1
102
RTVSPost2010Prop42
 90
       50
102
RTVSPost2010PropOp42
 70
     1
102
RTVSPost2010Prop43
 90
        3
102
RTVSPost2010PropOp43
 70
     1
102
RTVSPost2010Prop44ColorIndex
 90
        5
102
RTVSPost2010Prop44ColorRGB
 90
      255
102
RTVSPost2010PropOp44
 70
     1
102
RTVSPost2010Prop45
280
     0
102
RTVSPost2010PropOp45
 70
     1
102
RTVSPost2010Prop46
 90
       50
102
RTVSPost2010PropOp46
 70
     1
102
RTVSPost2010Prop47
 90
       50
102
RTVSPost2010PropOp47
 70
     1
102
RTVSPost2010Prop48
 90
       50
102
RTVSPost2010PropOp48
 70
     1
102
RTVSPost2010Prop49
280
     0
102
RTVSPost2010PropOp49
 70
     1
102
RTVSPost2010Prop50
 90
       50
102
RTVSPost2010PropOp50
 70
     1
102
RTVSPost2010Prop51ColorIndex
 90
      256
102
RTVSPost2010Prop51ColorRGB
 90
-16777216
102
RTVSPost2010PropOp51
 70
     0
102
RTVSPost2010Prop52
140
1.0
102
RTVSPost2010PropOp52
 70
     0
102
RTVSPost2010Prop53
 90
        2
102
RTVSPost2010PropOp53
 70
     1
102
RTVSPost2010Prop54
  1
strokes_ogs.tif
102
RTVSPost2010PropOp54
 70
     1
102
RTVSPost2010Prop55
280
     0
102
RTVSPost2010PropOp55
 70
     1
102
RTVSPost2010Prop56
140
1.0
102
RTVSPost2010PropOp56
 70
     1
102
RTVSPost2010Prop57
140
1.0
102
RTVSPost2010PropOp57
 70
     1
  0
XRECORD
  5
551
102
{ACAD_REACTORS
330
550
102
}
330
550
100
AcDbXrecord
280
     1
102
RTVSPost2010Prop28
280
     0
102
RTVSPost2010PropOp28
 70
     0
102
RTVSPost2010Prop29
280
     1
102
RTVSPost2010PropOp29
 70
     0
102
RTVSPost2010Prop30
280
     1
102
RTVSPost2010PropOp30
 70
     0
102
RTVSPost2010Prop31
280
     0
102
RTVSPost2010PropOp31
 70
     0
102
RTVSPost2010Prop32
280
     0
102
RTVSPost2010PropOp32
 70
     0
102
RTVSPost2010Prop33
280
     0
102
RTVSPost2010PropOp33
 70
     0
102
RTVSPost2010Prop34
280
     0
102
RTVSPost2010PropOp34
 70
     0
102
RTVSPost2010Prop35
280
     0
102
RTVSPost2010PropOp35
 70
     0
102
RTVSPost2010Prop36
280
     0
102
RTVSPost2010PropOp36
 70
     0
102
RTVSPost2010Prop37
 90
       50
102
RTVSPost2010PropOp37
 70
     0
102
RTVSPost2010Prop38
140
0.0
102
RTVSPost2010PropOp38
 70
     0
102
RTVSPost2010Prop39
140
1.0
102
RTVSPost2010PropOp39
 70
     0
102
RTVSPost2010Prop40
 90
        0
102
RTVSPost2010PropOp40
 70
     0
102
RTVSPost2010Prop41ColorIndex
 90
       18
102
RTVSPost2010Prop41ColorRGB
 90
        0
102
RTVSPost2010PropOp41
 70
     0
102
RTVSPost2010Prop42
 90
       50
102
RTVSPost2010PropOp42
 70
     0
102
RTVSPost2010Prop43
 90
        3
102
RTVSPost2010PropOp43
 70
     0
102
RTVSPost2010Prop44ColorIndex
 90
        5
102
RTVSPost2010Prop44ColorRGB
 90
      255
102
RTVSPost2010PropOp44
 70
     0
102
RTVSPost2010Prop45
280
     0
102
RTVSPost2010PropOp45
 70
     0
102
RTVSPost2010Prop46
 90
       50
102
RTVSPost2010PropOp46
 70
     0
102
RTVSPost2010Prop47
 90
       50
102
RTVSPost2010PropOp47
 70
     0
102
RTVSPost2010Prop48
 90
       50
102
RTVSPost2010PropOp48
 70
     0
102
RTVSPost2010Prop49
280
     0
102
RTVSPost2010PropOp49
 70
     0
102
RTVSPost2010Prop50
 90
       50
102
RTVSPost2010PropOp50
 70
     0
102
RTVSPost2010Prop51ColorIndex
 90
      256
102
RTVSPost2010Prop51ColorRGB
 90
-16777216
102
RTVSPost2010PropOp51
 70
     0
102
RTVSPost2010Prop52
140
1.0
102
RTVSPost2010PropOp52
 70
     0
102
RTVSPost2010Prop53
 90
        2
102
RTVSPost2010PropOp53
 70
     0
102
RTVSPost2010Prop54
  1
strokes_ogs.tif
102
RTVSPost2010PropOp54
 70
     0
102
RTVSPost2010Prop55
280
     0
102
RTVSPost2010PropOp55
 70
     0
102
RTVSPost2010Prop56
140
1.0
102
RTVSPost2010PropOp56
 70
     0
102
RTVSPost2010Prop57
140
1.0
102
RTVSPost2010PropOp57
 70
     0
  0
XRECORD
  5
54B
102
{ACAD_REACTORS
330
54A
102
}
330
54A
100
AcDbXrecord
280
     1
102
RTVSPost2010Prop28
280
     0
102
RTVSPost2010PropOp28
 70
     1
102
RTVSPost2010Prop29
280
     1
102
RTVSPost2010PropOp29
 70
     1
102
RTVSPost2010Prop30
280
     1
102
RTVSPost2010PropOp30
 70
     1
102
RTVSPost2010Prop31
280
     0
102
RTVSPost2010PropOp31
 70
     1
102
RTVSPost2010Prop32
280
     0
102
RTVSPost2010PropOp32
 70
     1
102
RTVSPost2010Prop33
280
     0
102
RTVSPost2010PropOp33
 70
     1
102
RTVSPost2010Prop34
280
     0
102
RTVSPost2010PropOp34
 70
     1
102
RTVSPost2010Prop35
280
     0
102
RTVSPost2010PropOp35
 70
     1
102
RTVSPost2010Prop36
280
     0
102
RTVSPost2010PropOp36
 70
     1
102
RTVSPost2010Prop37
 90
       50
102
RTVSPost2010PropOp37
 70
     1
102
RTVSPost2010Prop38
140
0.0
102
RTVSPost2010PropOp38
 70
     1
102
RTVSPost2010Prop39
140
1.0
102
RTVSPost2010PropOp39
 70
     1
102
RTVSPost2010Prop40
 90
        0
102
RTVSPost2010PropOp40
 70
     1
102
RTVSPost2010Prop41ColorIndex
 90
       18
102
RTVSPost2010Prop41ColorRGB
 90
        0
102
RTVSPost2010PropOp41
 70
     1
102
RTVSPost2010Prop42
 90
       50
102
RTVSPost2010PropOp42
 70
     1
102
RTVSPost2010Prop43
 90
        3
102
RTVSPost2010PropOp43
 70
     1
102
RTVSPost2010Prop44ColorIndex
 90
        5
102
RTVSPost2010Prop44ColorRGB
 90
      255
102
RTVSPost2010PropOp44
 70
     1
102
RTVSPost2010Prop45
280
     0
102
RTVSPost2010PropOp45
 70
     1
102
RTVSPost2010Prop46
 90
       50
102
RTVSPost2010PropOp46
 70
     1
102
RTVSPost2010Prop47
 90
       50
102
RTVSPost2010PropOp47
 70
     1
102
RTVSPost2010Prop48
 90
       50
102
RTVSPost2010PropOp48
 70
     1
102
RTVSPost2010Prop49
280
     0
102
RTVSPost2010PropOp49
 70
     1
102
RTVSPost2010Prop50
 90
       50
102
RTVSPost2010PropOp50
 70
     1
102
RTVSPost2010Prop51ColorIndex
 90
      256
102
RTVSPost2010Prop51ColorRGB
 90
-16777216
102
RTVSPost2010PropOp51
 70
     0
102
RTVSPost2010Prop52
140
1.0
102
RTVSPost2010PropOp52
 70
     0
102
RTVSPost2010Prop53
 90
        2
102
RTVSPost2010PropOp53
 70
     1
102
RTVSPost2010Prop54
  1
strokes_ogs.tif
102
RTVSPost2010PropOp54
 70
     1
102
RTVSPost2010Prop55
280
     0
102
RTVSPost2010PropOp55
 70
     1
102
RTVSPost2010Prop56
140
1.0
102
RTVSPost2010PropOp56
 70
     1
102
RTVSPost2010Prop57
140
1.0
102
RTVSPost2010PropOp57
 70
     1
  0
XRECORD
  5
553
102
{ACAD_REACTORS
330
552
102
}
330
552
100
AcDbXrecord
280
     1
102
RTVSPost2010Prop28
280
     0
102
RTVSPost2010PropOp28
 70
     0
102
RTVSPost2010Prop29
280
     1
102
RTVSPost2010PropOp29
 70
     0
102
RTVSPost2010Prop30
280
     1
102
RTVSPost2010PropOp30
 70
     0
102
RTVSPost2010Prop31
280
     0
102
RTVSPost2010PropOp31
 70
     0
102
RTVSPost2010Prop32
280
     0
102
RTVSPost2010PropOp32
 70
     0
102
RTVSPost2010Prop33
280
     0
102
RTVSPost2010PropOp33
 70
     0
102
RTVSPost2010Prop34
280
     0
102
RTVSPost2010PropOp34
 70
     0
102
RTVSPost2010Prop35
280
     0
102
RTVSPost2010PropOp35
 70
     0
102
RTVSPost2010Prop36
280
     0
102
RTVSPost2010PropOp36
 70
     0
102
RTVSPost2010Prop37
 90
       50
102
RTVSPost2010PropOp37
 70
     0
102
RTVSPost2010Prop38
140
0.0
102
RTVSPost2010PropOp38
 70
     0
102
RTVSPost2010Prop39
140
1.0
102
RTVSPost2010PropOp39
 70
     0
102
RTVSPost2010Prop40
 90
        0
102
RTVSPost2010PropOp40
 70
     0
102
RTVSPost2010Prop41ColorIndex
 90
       18
102
RTVSPost2010Prop41ColorRGB
 90
        0
102
RTVSPost2010PropOp41
 70
     0
102
RTVSPost2010Prop42
 90
       50
102
RTVSPost2010PropOp42
 70
     0
102
RTVSPost2010Prop43
 90
        3
102
RTVSPost2010PropOp43
 70
     0
102
RTVSPost2010Prop44ColorIndex
 90
        5
102
RTVSPost2010Prop44ColorRGB
 90
      255
102
RTVSPost2010PropOp44
 70
     0
102
RTVSPost2010Prop45
280
     0
102
RTVSPost2010PropOp45
 70
     0
102
RTVSPost2010Prop46
 90
       50
102
RTVSPost2010PropOp46
 70
     0
102
RTVSPost2010Prop47
 90
       50
102
RTVSPost2010PropOp47
 70
     0
102
RTVSPost2010Prop48
 90
       50
102
RTVSPost2010PropOp48
 70
     0
102
RTVSPost2010Prop49
280
     0
102
RTVSPost2010PropOp49
 70
     0
102
RTVSPost2010Prop50
 90
       50
102
RTVSPost2010PropOp50
 70
     0
102
RTVSPost2010Prop51ColorIndex
 90
      256
102
RTVSPost2010Prop51ColorRGB
 90
-16777216
102
RTVSPost2010PropOp51
 70
     0
102
RTVSPost2010Prop52
140
1.0
102
RTVSPost2010PropOp52
 70
     0
102
RTVSPost2010Prop53
 90
        2
102
RTVSPost2010PropOp53
 70
     0
102
RTVSPost2010Prop54
  1
strokes_ogs.tif
102
RTVSPost2010PropOp54
 70
     0
102
RTVSPost2010Prop55
280
     0
102
RTVSPost2010PropOp55
 70
     0
102
RTVSPost2010Prop56
140
1.0
102
RTVSPost2010PropOp56
 70
     0
102
RTVSPost2010Prop57
140
1.0
102
RTVSPost2010PropOp57
 70
     0
  0
XRECORD
  5
541
102
{ACAD_REACTORS
330
540
102
}
330
540
100
AcDbXrecord
280
     1
102
RTVSPost2010Prop28
280
     0
102
RTVSPost2010PropOp28
 70
     1
102
RTVSPost2010Prop29
280
     1
102
RTVSPost2010PropOp29
 70
     1
102
RTVSPost2010Prop30
280
     1
102
RTVSPost2010PropOp30
 70
     1
102
RTVSPost2010Prop31
280
     0
102
RTVSPost2010PropOp31
 70
     1
102
RTVSPost2010Prop32
280
     0
102
RTVSPost2010PropOp32
 70
     1
102
RTVSPost2010Prop33
280
     0
102
RTVSPost2010PropOp33
 70
     1
102
RTVSPost2010Prop34
280
     0
102
RTVSPost2010PropOp34
 70
     1
102
RTVSPost2010Prop35
280
     0
102
RTVSPost2010PropOp35
 70
     1
102
RTVSPost2010Prop36
280
     0
102
RTVSPost2010PropOp36
 70
     1
102
RTVSPost2010Prop37
 90
       50
102
RTVSPost2010PropOp37
 70
     1
102
RTVSPost2010Prop38
140
0.0
102
RTVSPost2010PropOp38
 70
     1
102
RTVSPost2010Prop39
140
1.0
102
RTVSPost2010PropOp39
 70
     1
102
RTVSPost2010Prop40
 90
        0
102
RTVSPost2010PropOp40
 70
     1
102
RTVSPost2010Prop41ColorIndex
 90
       18
102
RTVSPost2010Prop41ColorRGB
 90
        0
102
RTVSPost2010PropOp41
 70
     1
102
RTVSPost2010Prop42
 90
       50
102
RTVSPost2010PropOp42
 70
     1
102
RTVSPost2010Prop43
 90
        3
102
RTVSPost2010PropOp43
 70
     1
102
RTVSPost2010Prop44ColorIndex
 90
        5
102
RTVSPost2010Prop44ColorRGB
 90
      255
102
RTVSPost2010PropOp44
 70
     1
102
RTVSPost2010Prop45
280
     0
102
RTVSPost2010PropOp45
 70
     1
102
RTVSPost2010Prop46
 90
       50
102
RTVSPost2010PropOp46
 70
     1
102
RTVSPost2010Prop47
 90
       50
102
RTVSPost2010PropOp47
 70
     1
102
RTVSPost2010Prop48
 90
       50
102
RTVSPost2010PropOp48
 70
     1
102
RTVSPost2010Prop49
280
     0
102
RTVSPost2010PropOp49
 70
     1
102
RTVSPost2010Prop50
 90
       50
102
RTVSPost2010PropOp50
 70
     1
102
RTVSPost2010Prop51ColorIndex
 90
      256
102
RTVSPost2010Prop51ColorRGB
 90
-16777216
102
RTVSPost2010PropOp51
 70
     0
102
RTVSPost2010Prop52
140
1.0
102
RTVSPost2010PropOp52
 70
     0
102
RTVSPost2010Prop53
 90
        2
102
RTVSPost2010PropOp53
 70
     1
102
RTVSPost2010Prop54
  1
strokes_ogs.tif
102
RTVSPost2010PropOp54
 70
     1
102
RTVSPost2010Prop55
280
     0
102
RTVSPost2010PropOp55
 70
     1
102
RTVSPost2010Prop56
140
1.0
102
RTVSPost2010PropOp56
 70
     1
102
RTVSPost2010Prop57
140
1.0
102
RTVSPost2010PropOp57
 70
     1
  0
XRECORD
  5
55F
102
{ACAD_REACTORS
330
55E
102
}
330
55E
100
AcDbXrecord
280
     1
102
RTVSPost2010Prop28
280
     0
102
RTVSPost2010PropOp28
 70
     1
102
RTVSPost2010Prop29
280
     1
102
RTVSPost2010PropOp29
 70
     1
102
RTVSPost2010Prop30
280
     1
102
RTVSPost2010PropOp30
 70
     1
102
RTVSPost2010Prop31
280
     0
102
RTVSPost2010PropOp31
 70
     1
102
RTVSPost2010Prop32
280
     0
102
RTVSPost2010PropOp32
 70
     1
102
RTVSPost2010Prop33
280
     0
102
RTVSPost2010PropOp33
 70
     1
102
RTVSPost2010Prop34
280
     0
102
RTVSPost2010PropOp34
 70
     1
102
RTVSPost2010Prop35
280
     0
102
RTVSPost2010PropOp35
 70
     1
102
RTVSPost2010Prop36
280
     0
102
RTVSPost2010PropOp36
 70
     1
102
RTVSPost2010Prop37
 90
       50
102
RTVSPost2010PropOp37
 70
     1
102
RTVSPost2010Prop38
140
0.0
102
RTVSPost2010PropOp38
 70
     1
102
RTVSPost2010Prop39
140
1.0
102
RTVSPost2010PropOp39
 70
     1
102
RTVSPost2010Prop40
 90
        0
102
RTVSPost2010PropOp40
 70
     1
102
RTVSPost2010Prop41ColorIndex
 90
       18
102
RTVSPost2010Prop41ColorRGB
 90
        0
102
RTVSPost2010PropOp41
 70
     1
102
RTVSPost2010Prop42
 90
       50
102
RTVSPost2010PropOp42
 70
     1
102
RTVSPost2010Prop43
 90
        3
102
RTVSPost2010PropOp43
 70
     1
102
RTVSPost2010Prop44ColorIndex
 90
        5
102
RTVSPost2010Prop44ColorRGB
 90
      255
102
RTVSPost2010PropOp44
 70
     1
102
RTVSPost2010Prop45
280
     0
102
RTVSPost2010PropOp45
 70
     1
102
RTVSPost2010Prop46
 90
       50
102
RTVSPost2010PropOp46
 70
     1
102
RTVSPost2010Prop47
 90
       50
102
RTVSPost2010PropOp47
 70
     1
102
RTVSPost2010Prop48
 90
       50
102
RTVSPost2010PropOp48
 70
     1
102
RTVSPost2010Prop49
280
     0
102
RTVSPost2010PropOp49
 70
     1
102
RTVSPost2010Prop50
 90
       50
102
RTVSPost2010PropOp50
 70
     1
102
RTVSPost2010Prop51ColorIndex
 90
      256
102
RTVSPost2010Prop51ColorRGB
 90
-16777216
102
RTVSPost2010PropOp51
 70
     0
102
RTVSPost2010Prop52
140
1.0
102
RTVSPost2010PropOp52
 70
     0
102
RTVSPost2010Prop53
 90
        2
102
RTVSPost2010PropOp53
 70
     1
102
RTVSPost2010Prop54
  1
strokes_ogs.tif
102
RTVSPost2010PropOp54
 70
     1
102
RTVSPost2010Prop55
280
     0
102
RTVSPost2010PropOp55
 70
     1
102
RTVSPost2010Prop56
140
1.0
102
RTVSPost2010PropOp56
 70
     1
102
RTVSPost2010Prop57
140
1.0
102
RTVSPost2010PropOp57
 70
     1
  0
XRECORD
  5
55D
102
{ACAD_REACTORS
330
55C
102
}
330
55C
100
AcDbXrecord
280
     1
102
RTVSPost2010Prop28
280
     0
102
RTVSPost2010PropOp28
 70
     1
102
RTVSPost2010Prop29
280
     1
102
RTVSPost2010PropOp29
 70
     1
102
RTVSPost2010Prop30
280
     1
102
RTVSPost2010PropOp30
 70
     1
102
RTVSPost2010Prop31
280
     0
102
RTVSPost2010PropOp31
 70
     1
102
RTVSPost2010Prop32
280
     0
102
RTVSPost2010PropOp32
 70
     1
102
RTVSPost2010Prop33
280
     0
102
RTVSPost2010PropOp33
 70
     1
102
RTVSPost2010Prop34
280
     0
102
RTVSPost2010PropOp34
 70
     1
102
RTVSPost2010Prop35
280
     0
102
RTVSPost2010PropOp35
 70
     1
102
RTVSPost2010Prop36
280
     0
102
RTVSPost2010PropOp36
 70
     1
102
RTVSPost2010Prop37
 90
       50
102
RTVSPost2010PropOp37
 70
     1
102
RTVSPost2010Prop38
140
0.0
102
RTVSPost2010PropOp38
 70
     1
102
RTVSPost2010Prop39
140
1.0
102
RTVSPost2010PropOp39
 70
     1
102
RTVSPost2010Prop40
 90
        0
102
RTVSPost2010PropOp40
 70
     1
102
RTVSPost2010Prop41ColorIndex
 90
       18
102
RTVSPost2010Prop41ColorRGB
 90
        0
102
RTVSPost2010PropOp41
 70
     1
102
RTVSPost2010Prop42
 90
       50
102
RTVSPost2010PropOp42
 70
     1
102
RTVSPost2010Prop43
 90
        3
102
RTVSPost2010PropOp43
 70
     1
102
RTVSPost2010Prop44ColorIndex
 90
        5
102
RTVSPost2010Prop44ColorRGB
 90
      255
102
RTVSPost2010PropOp44
 70
     1
102
RTVSPost2010Prop45
280
     0
102
RTVSPost2010PropOp45
 70
     1
102
RTVSPost2010Prop46
 90
       50
102
RTVSPost2010PropOp46
 70
     1
102
RTVSPost2010Prop47
 90
       50
102
RTVSPost2010PropOp47
 70
     1
102
RTVSPost2010Prop48
 90
       50
102
RTVSPost2010PropOp48
 70
     1
102
RTVSPost2010Prop49
280
     0
102
RTVSPost2010PropOp49
 70
     1
102
RTVSPost2010Prop50
 90
       50
102
RTVSPost2010PropOp50
 70
     1
102
RTVSPost2010Prop51ColorIndex
 90
      256
102
RTVSPost2010Prop51ColorRGB
 90
-16777216
102
RTVSPost2010PropOp51
 70
     0
102
RTVSPost2010Prop52
140
1.0
102
RTVSPost2010PropOp52
 70
     0
102
RTVSPost2010Prop53
 90
        2
102
RTVSPost2010PropOp53
 70
     1
102
RTVSPost2010Prop54
  1
strokes_ogs.tif
102
RTVSPost2010PropOp54
 70
     1
102
RTVSPost2010Prop55
280
     0
102
RTVSPost2010PropOp55
 70
     1
102
RTVSPost2010Prop56
140
1.0
102
RTVSPost2010PropOp56
 70
     1
102
RTVSPost2010Prop57
140
1.0
102
RTVSPost2010PropOp57
 70
     1
  0
XRECORD
  5
557
102
{ACAD_REACTORS
330
556
102
}
330
556
100
AcDbXrecord
280
     1
102
RTVSPost2010Prop28
280
     0
102
RTVSPost2010PropOp28
 70
     1
102
RTVSPost2010Prop29
280
     1
102
RTVSPost2010PropOp29
 70
     1
102
RTVSPost2010Prop30
280
     1
102
RTVSPost2010PropOp30
 70
     1
102
RTVSPost2010Prop31
280
     0
102
RTVSPost2010PropOp31
 70
     1
102
RTVSPost2010Prop32
280
     0
102
RTVSPost2010PropOp32
 70
     1
102
RTVSPost2010Prop33
280
     0
102
RTVSPost2010PropOp33
 70
     1
102
RTVSPost2010Prop34
280
     0
102
RTVSPost2010PropOp34
 70
     1
102
RTVSPost2010Prop35
280
     0
102
RTVSPost2010PropOp35
 70
     1
102
RTVSPost2010Prop36
280
     0
102
RTVSPost2010PropOp36
 70
     1
102
RTVSPost2010Prop37
 90
       50
102
RTVSPost2010PropOp37
 70
     1
102
RTVSPost2010Prop38
140
0.0
102
RTVSPost2010PropOp38
 70
     1
102
RTVSPost2010Prop39
140
1.0
102
RTVSPost2010PropOp39
 70
     1
102
RTVSPost2010Prop40
 90
        0
102
RTVSPost2010PropOp40
 70
     1
102
RTVSPost2010Prop41ColorIndex
 90
       18
102
RTVSPost2010Prop41ColorRGB
 90
        0
102
RTVSPost2010PropOp41
 70
     1
102
RTVSPost2010Prop42
 90
       50
102
RTVSPost2010PropOp42
 70
     1
102
RTVSPost2010Prop43
 90
        3
102
RTVSPost2010PropOp43
 70
     1
102
RTVSPost2010Prop44ColorIndex
 90
        5
102
RTVSPost2010Prop44ColorRGB
 90
      255
102
RTVSPost2010PropOp44
 70
     1
102
RTVSPost2010Prop45
280
     0
102
RTVSPost2010PropOp45
 70
     1
102
RTVSPost2010Prop46
 90
       50
102
RTVSPost2010PropOp46
 70
     1
102
RTVSPost2010Prop47
 90
       50
102
RTVSPost2010PropOp47
 70
     1
102
RTVSPost2010Prop48
 90
       50
102
RTVSPost2010PropOp48
 70
     1
102
RTVSPost2010Prop49
280
     0
102
RTVSPost2010PropOp49
 70
     1
102
RTVSPost2010Prop50
 90
       50
102
RTVSPost2010PropOp50
 70
     1
102
RTVSPost2010Prop51ColorIndex
 90
      256
102
RTVSPost2010Prop51ColorRGB
 90
-16777216
102
RTVSPost2010PropOp51
 70
     0
102
RTVSPost2010Prop52
140
1.0
102
RTVSPost2010PropOp52
 70
     0
102
RTVSPost2010Prop53
 90
        2
102
RTVSPost2010PropOp53
 70
     1
102
RTVSPost2010Prop54
  1
strokes_ogs.tif
102
RTVSPost2010PropOp54
 70
     1
102
RTVSPost2010Prop55
280
     0
102
RTVSPost2010PropOp55
 70
     1
102
RTVSPost2010Prop56
140
1.0
102
RTVSPost2010PropOp56
 70
     1
102
RTVSPost2010Prop57
140
1.0
102
RTVSPost2010PropOp57
 70
     1
  0
XRECORD
  5
559
102
{ACAD_REACTORS
330
558
102
}
330
558
100
AcDbXrecord
280
     1
102
RTVSPost2010Prop28
280
     0
102
RTVSPost2010PropOp28
 70
     1
102
RTVSPost2010Prop29
280
     1
102
RTVSPost2010PropOp29
 70
     1
102
RTVSPost2010Prop30
280
     1
102
RTVSPost2010PropOp30
 70
     1
102
RTVSPost2010Prop31
280
     0
102
RTVSPost2010PropOp31
 70
     1
102
RTVSPost2010Prop32
280
     0
102
RTVSPost2010PropOp32
 70
     1
102
RTVSPost2010Prop33
280
     0
102
RTVSPost2010PropOp33
 70
     1
102
RTVSPost2010Prop34
280
     0
102
RTVSPost2010PropOp34
 70
     1
102
RTVSPost2010Prop35
280
     0
102
RTVSPost2010PropOp35
 70
     1
102
RTVSPost2010Prop36
280
     0
102
RTVSPost2010PropOp36
 70
     1
102
RTVSPost2010Prop37
 90
       50
102
RTVSPost2010PropOp37
 70
     1
102
RTVSPost2010Prop38
140
0.0
102
RTVSPost2010PropOp38
 70
     1
102
RTVSPost2010Prop39
140
1.0
102
RTVSPost2010PropOp39
 70
     1
102
RTVSPost2010Prop40
 90
        0
102
RTVSPost2010PropOp40
 70
     1
102
RTVSPost2010Prop41ColorIndex
 90
       18
102
RTVSPost2010Prop41ColorRGB
 90
        0
102
RTVSPost2010PropOp41
 70
     1
102
RTVSPost2010Prop42
 90
       50
102
RTVSPost2010PropOp42
 70
     1
102
RTVSPost2010Prop43
 90
        3
102
RTVSPost2010PropOp43
 70
     1
102
RTVSPost2010Prop44ColorIndex
 90
        5
102
RTVSPost2010Prop44ColorRGB
 90
      255
102
RTVSPost2010PropOp44
 70
     1
102
RTVSPost2010Prop45
280
     0
102
RTVSPost2010PropOp45
 70
     1
102
RTVSPost2010Prop46
 90
       50
102
RTVSPost2010PropOp46
 70
     1
102
RTVSPost2010Prop47
 90
       50
102
RTVSPost2010PropOp47
 70
     1
102
RTVSPost2010Prop48
 90
       50
102
RTVSPost2010PropOp48
 70
     1
102
RTVSPost2010Prop49
280
     0
102
RTVSPost2010PropOp49
 70
     1
102
RTVSPost2010Prop50
 90
       50
102
RTVSPost2010PropOp50
 70
     1
102
RTVSPost2010Prop51ColorIndex
 90
      256
102
RTVSPost2010Prop51ColorRGB
 90
-16777216
102
RTVSPost2010PropOp51
 70
     0
102
RTVSPost2010Prop52
140
1.0
102
RTVSPost2010PropOp52
 70
     0
102
RTVSPost2010Prop53
 90
        2
102
RTVSPost2010PropOp53
 70
     1
102
RTVSPost2010Prop54
  1
strokes_ogs.tif
102
RTVSPost2010PropOp54
 70
     1
102
RTVSPost2010Prop55
280
     0
102
RTVSPost2010PropOp55
 70
     1
102
RTVSPost2010Prop56
140
1.0
102
RTVSPost2010PropOp56
 70
     1
102
RTVSPost2010Prop57
140
1.0
102
RTVSPost2010PropOp57
 70
     1
  0
XRECORD
  5
549
102
{ACAD_REACTORS
330
548
102
}
330
548
100
AcDbXrecord
280
     1
102
RTVSPost2010Prop28
280
     0
102
RTVSPost2010PropOp28
 70
     1
102
RTVSPost2010Prop29
280
     1
102
RTVSPost2010PropOp29
 70
     1
102
RTVSPost2010Prop30
280
     1
102
RTVSPost2010PropOp30
 70
     1
102
RTVSPost2010Prop31
280
     0
102
RTVSPost2010PropOp31
 70
     1
102
RTVSPost2010Prop32
280
     0
102
RTVSPost2010PropOp32
 70
     1
102
RTVSPost2010Prop33
280
     0
102
RTVSPost2010PropOp33
 70
     1
102
RTVSPost2010Prop34
280
     0
102
RTVSPost2010PropOp34
 70
     1
102
RTVSPost2010Prop35
280
     0
102
RTVSPost2010PropOp35
 70
     1
102
RTVSPost2010Prop36
280
     0
102
RTVSPost2010PropOp36
 70
     1
102
RTVSPost2010Prop37
 90
       50
102
RTVSPost2010PropOp37
 70
     1
102
RTVSPost2010Prop38
140
0.0
102
RTVSPost2010PropOp38
 70
     1
102
RTVSPost2010Prop39
140
1.0
102
RTVSPost2010PropOp39
 70
     1
102
RTVSPost2010Prop40
 90
        0
102
RTVSPost2010PropOp40
 70
     1
102
RTVSPost2010Prop41ColorIndex
 90
       18
102
RTVSPost2010Prop41ColorRGB
 90
        0
102
RTVSPost2010PropOp41
 70
     1
102
RTVSPost2010Prop42
 90
       50
102
RTVSPost2010PropOp42
 70
     1
102
RTVSPost2010Prop43
 90
        3
102
RTVSPost2010PropOp43
 70
     1
102
RTVSPost2010Prop44ColorIndex
 90
        5
102
RTVSPost2010Prop44ColorRGB
 90
      255
102
RTVSPost2010PropOp44
 70
     1
102
RTVSPost2010Prop45
280
     0
102
RTVSPost2010PropOp45
 70
     1
102
RTVSPost2010Prop46
 90
       50
102
RTVSPost2010PropOp46
 70
     1
102
RTVSPost2010Prop47
 90
       50
102
RTVSPost2010PropOp47
 70
     1
102
RTVSPost2010Prop48
 90
       50
102
RTVSPost2010PropOp48
 70
     1
102
RTVSPost2010Prop49
280
     0
102
RTVSPost2010PropOp49
 70
     1
102
RTVSPost2010Prop50
 90
       50
102
RTVSPost2010PropOp50
 70
     1
102
RTVSPost2010Prop51ColorIndex
 90
      256
102
RTVSPost2010Prop51ColorRGB
 90
-16777216
102
RTVSPost2010PropOp51
 70
     0
102
RTVSPost2010Prop52
140
1.0
102
RTVSPost2010PropOp52
 70
     0
102
RTVSPost2010Prop53
 90
        2
102
RTVSPost2010PropOp53
 70
     1
102
RTVSPost2010Prop54
  1
strokes_ogs.tif
102
RTVSPost2010PropOp54
 70
     1
102
RTVSPost2010Prop55
280
     0
102
RTVSPost2010PropOp55
 70
     1
102
RTVSPost2010Prop56
140
1.0
102
RTVSPost2010PropOp56
 70
     1
102
RTVSPost2010Prop57
140
1.0
102
RTVSPost2010PropOp57
 70
     1
  0
XRECORD
  5
53B
102
{ACAD_REACTORS
330
53A
102
}
330
53A
100
AcDbXrecord
280
     1
102
RTVSPost2010Prop28
280
     0
102
RTVSPost2010PropOp28
 70
     1
102
RTVSPost2010Prop29
280
     1
102
RTVSPost2010PropOp29
 70
     1
102
RTVSPost2010Prop30
280
     1
102
RTVSPost2010PropOp30
 70
     1
102
RTVSPost2010Prop31
280
     0
102
RTVSPost2010PropOp31
 70
     1
102
RTVSPost2010Prop32
280
     0
102
RTVSPost2010PropOp32
 70
     1
102
RTVSPost2010Prop33
280
     0
102
RTVSPost2010PropOp33
 70
     1
102
RTVSPost2010Prop34
280
     0
102
RTVSPost2010PropOp34
 70
     1
102
RTVSPost2010Prop35
280
     0
102
RTVSPost2010PropOp35
 70
     1
102
RTVSPost2010Prop36
280
     0
102
RTVSPost2010PropOp36
 70
     1
102
RTVSPost2010Prop37
 90
       50
102
RTVSPost2010PropOp37
 70
     1
102
RTVSPost2010Prop38
140
0.0
102
RTVSPost2010PropOp38
 70
     1
102
RTVSPost2010Prop39
140
1.0
102
RTVSPost2010PropOp39
 70
     1
102
RTVSPost2010Prop40
 90
        0
102
RTVSPost2010PropOp40
 70
     1
102
RTVSPost2010Prop41ColorIndex
 90
       18
102
RTVSPost2010Prop41ColorRGB
 90
        0
102
RTVSPost2010PropOp41
 70
     1
102
RTVSPost2010Prop42
 90
       50
102
RTVSPost2010PropOp42
 70
     1
102
RTVSPost2010Prop43
 90
        3
102
RTVSPost2010PropOp43
 70
     1
102
RTVSPost2010Prop44ColorIndex
 90
        5
102
RTVSPost2010Prop44ColorRGB
 90
      255
102
RTVSPost2010PropOp44
 70
     1
102
RTVSPost2010Prop45
280
     0
102
RTVSPost2010PropOp45
 70
     1
102
RTVSPost2010Prop46
 90
       50
102
RTVSPost2010PropOp46
 70
     1
102
RTVSPost2010Prop47
 90
       50
102
RTVSPost2010PropOp47
 70
     1
102
RTVSPost2010Prop48
 90
       50
102
RTVSPost2010PropOp48
 70
     1
102
RTVSPost2010Prop49
280
     0
102
RTVSPost2010PropOp49
 70
     1
102
RTVSPost2010Prop50
 90
       50
102
RTVSPost2010PropOp50
 70
     1
102
RTVSPost2010Prop51ColorIndex
 90
      256
102
RTVSPost2010Prop51ColorRGB
 90
-16777216
102
RTVSPost2010PropOp51
 70
     0
102
RTVSPost2010Prop52
140
1.0
102
RTVSPost2010PropOp52
 70
     0
102
RTVSPost2010Prop53
 90
        2
102
RTVSPost2010PropOp53
 70
     1
102
RTVSPost2010Prop54
  1
strokes_ogs.tif
102
RTVSPost2010PropOp54
 70
     1
102
RTVSPost2010Prop55
280
     0
102
RTVSPost2010PropOp55
 70
     1
102
RTVSPost2010Prop56
140
1.0
102
RTVSPost2010PropOp56
 70
     1
102
RTVSPost2010Prop57
140
1.0
102
RTVSPost2010PropOp57
 70
     1
  0
XRECORD
  5
55B
102
{ACAD_REACTORS
330
55A
102
}
330
55A
100
AcDbXrecord
280
     1
102
RTVSPost2010Prop28
280
     0
102
RTVSPost2010PropOp28
 70
     1
102
RTVSPost2010Prop29
280
     1
102
RTVSPost2010PropOp29
 70
     1
102
RTVSPost2010Prop30
280
     1
102
RTVSPost2010PropOp30
 70
     1
102
RTVSPost2010Prop31
280
     0
102
RTVSPost2010PropOp31
 70
     1
102
RTVSPost2010Prop32
280
     0
102
RTVSPost2010PropOp32
 70
     1
102
RTVSPost2010Prop33
280
     0
102
RTVSPost2010PropOp33
 70
     1
102
RTVSPost2010Prop34
280
     0
102
RTVSPost2010PropOp34
 70
     1
102
RTVSPost2010Prop35
280
     0
102
RTVSPost2010PropOp35
 70
     1
102
RTVSPost2010Prop36
280
     0
102
RTVSPost2010PropOp36
 70
     1
102
RTVSPost2010Prop37
 90
       50
102
RTVSPost2010PropOp37
 70
     1
102
RTVSPost2010Prop38
140
0.0
102
RTVSPost2010PropOp38
 70
     1
102
RTVSPost2010Prop39
140
1.0
102
RTVSPost2010PropOp39
 70
     1
102
RTVSPost2010Prop40
 90
        0
102
RTVSPost2010PropOp40
 70
     1
102
RTVSPost2010Prop41ColorIndex
 90
       18
102
RTVSPost2010Prop41ColorRGB
 90
        0
102
RTVSPost2010PropOp41
 70
     1
102
RTVSPost2010Prop42
 90
       50
102
RTVSPost2010PropOp42
 70
     1
102
RTVSPost2010Prop43
 90
        3
102
RTVSPost2010PropOp43
 70
     1
102
RTVSPost2010Prop44ColorIndex
 90
        5
102
RTVSPost2010Prop44ColorRGB
 90
      255
102
RTVSPost2010PropOp44
 70
     1
102
RTVSPost2010Prop45
280
     0
102
RTVSPost2010PropOp45
 70
     1
102
RTVSPost2010Prop46
 90
       50
102
RTVSPost2010PropOp46
 70
     1
102
RTVSPost2010Prop47
 90
       50
102
RTVSPost2010PropOp47
 70
     1
102
RTVSPost2010Prop48
 90
       50
102
RTVSPost2010PropOp48
 70
     1
102
RTVSPost2010Prop49
280
     0
102
RTVSPost2010PropOp49
 70
     1
102
RTVSPost2010Prop50
 90
       50
102
RTVSPost2010PropOp50
 70
     1
102
RTVSPost2010Prop51ColorIndex
 90
      256
102
RTVSPost2010Prop51ColorRGB
 90
-16777216
102
RTVSPost2010PropOp51
 70
     0
102
RTVSPost2010Prop52
140
1.0
102
RTVSPost2010PropOp52
 70
     0
102
RTVSPost2010Prop53
 90
        2
102
RTVSPost2010PropOp53
 70
     1
102
RTVSPost2010Prop54
  1
strokes_ogs.tif
102
RTVSPost2010PropOp54
 70
     1
102
RTVSPost2010Prop55
280
     0
102
RTVSPost2010PropOp55
 70
     1
102
RTVSPost2010Prop56
140
1.0
102
RTVSPost2010PropOp56
 70
     1
102
RTVSPost2010Prop57
140
1.0
102
RTVSPost2010PropOp57
 70
     1
  0
ENDSEC
  0
EOF
