  0
SECTION
  2
HEADER
  9
$ACADVER
  1
AC1024
  9
$ACADMAINTVER
 70
     6
  9
$DWGCODEPAGE
  3
ANSI_1252
  9
$INSBASE
 10
0.0
 20
0.0
 30
0.0
  9
$EXTMIN
 10
0.0
 20
0.0
 30
0.0
  9
$EXTMAX
 10
3200.0
 20
2500.0
 30
0.0
  9
$LIMMIN
 10
0.0
 20
0.0
  9
$LIMMAX
 10
3200.0
 20
2500.0
  9
$ORTHOMODE
 70
     0
  9
$REGENMODE
 70
     1
  9
$FILLMODE
 70
     1
  9
$QTEXTMODE
 70
     0
  9
$MIRRTEXT
 70
     1
  9
$LTSCALE
 40
176.0
  9
$ATTMODE
 70
     1
  9
$TEXTSIZE
 40
0.2
  9
$TRACEWID
 40
0.05
  9
$TEXTSTYLE
  7
STANDARD
  9
$CLAYER
  8
0
  9
$CELTYPE
  6
BYLAYER
  9
$CECOLOR
 62
   256
  9
$CELTSCALE
 40
1.0
  9
$DISPSILH
 70
     0
  9
$DIMSCALE
 40
1.0
  9
$DIMASZ
 40
2.5
  9
$DIMEXO
 40
0.75
  9
$DIMDLI
 40
121.6
  9
$DIMRND
 40
0.0
  9
$DIMDLE
 40
0.0
  9
$DIMEXE
 40
0.75
  9
$DIMTP
 40
0.01
  9
$DIMTM
 40
0.01
  9
$DIMTXT
 40
3.0
  9
$DIMCEN
 40
28.8
  9
$DIMTSZ
 40
0.0
  9
$DIMTOL
 70
     1
  9
$DIMLIM
 70
     0
  9
$DIMTIH
 70
     1
  9
$DIMTOH
 70
     1
  9
$DIMSE1
 70
     0
  9
$DIMSE2
 70
     0
  9
$DIMTAD
 70
     0
  9
$DIMZIN
 70
     0
  9
$DIMBLK
  1
CLOSED
  9
$DIMASO
 70
     1
  9
$DIMSHO
 70
     1
  9
$DIMPOST
  1

  9
$DIMAPOST
  1

  9
$DIMALT
 70
     0
  9
$DIMALTD
 70
     2
  9
$DIMALTF
 40
25.4
  9
$DIMLFAC
 40
1.0
  9
$DIMTOFL
 70
     0
  9
$DIMTVP
 40
0.0
  9
$DIMTIX
 70
     0
  9
$DIMSOXD
 70
     0
  9
$DIMSAH
 70
     0
  9
$DIMBLK1
  1

  9
$DIMBLK2
  1

  9
$DIMSTYLE
  2
STANDARD
  9
$DIMCLRD
 70
     0
  9
$DIMCLRE
 70
     0
  9
$DIMCLRT
 70
     0
  9
$DIMTFAC
 40
1.0
  9
$DIMGAP
 40
0.625
  9
$DIMJUST
 70
     0
  9
$DIMSD1
 70
     0
  9
$DIMSD2
 70
     0
  9
$DIMTOLJ
 70
     1
  9
$DIMTZIN
 70
     0
  9
$DIMALTZ
 70
     0
  9
$DIMALTTZ
 70
     0
  9
$DIMUPT
 70
     0
  9
$DIMDEC
 70
     4
  9
$DIMTDEC
 70
     4
  9
$DIMALTU
 70
     2
  9
$DIMALTTD
 70
     2
  9
$DIMTXSTY
  7
STANDARD
  9
$DIMAUNIT
 70
     0
  9
$DIMADEC
 70
     0
  9
$DIMALTRND
 40
0.0
  9
$DIMAZIN
 70
     0
  9
$DIMDSEP
 70
    44
  9
$DIMATFIT
 70
     3
  9
$DIMFRAC
 70
     0
  9
$DIMLDRBLK
  1

  9
$DIMLUNIT
 70
     2
  9
$DIMLWD
 70
    -2
  9
$DIMLWE
 70
    -2
  9
$DIMTMOVE
 70
     0
  9
$DIMFXL
 40
1.0
  9
$DIMFXLON
 70
     0
  9
$DIMJOGANG
 40
0.785398
  9
$DIMTFILL
 70
     0
  9
$DIMTFILLCLR
 70
     0
  9
$DIMARCSYM
 70
     0
  9
$DIMLTYPE
  6

  9
$DIMLTEX1
  6

  9
$DIMLTEX2
  6

  9
$DIMTXTDIRECTION
 70
     0
  9
$LUNITS
 70
     2
  9
$LUPREC
 70
     4
  9
$SKETCHINC
 40
0.1
  9
$FILLETRAD
 40
0.5
  9
$AUNITS
 70
     0
  9
$AUPREC
 70
     0
  9
$MENU
  1
.
  9
$ELEVATION
 40
0.0
  9
$PELEVATION
 40
0.0
  9
$THICKNESS
 40
0.0
  9
$LIMCHECK
 70
     0
  9
$CHAMFERA
 40
0.0
  9
$CHAMFERB
 40
0.0
  9
$CHAMFERC
 40
0.0
  9
$CHAMFERD
 40
0.0
  9
$SKPOLY
 70
     0
  9
$TDCREATE
 40
2447893.083333333
  9
$TDUCREATE
 40
0.0
  9
$TDUPDATE
 40
2459822.392510845
  9
$TDUUPDATE
 40
2459822.309177511
  9
$TDINDWG
 40
0.0
  9
$TDUSRTIMER
 40
0.0
  9
$USRTIMER
 70
     1
  9
$ANGBASE
 50
0.0
  9
$ANGDIR
 70
     0
  9
$PDMODE
 70
     3
  9
$PDSIZE
 40
0.3125
  9
$PLINEWID
 40
0.0
  9
$SPLFRAME
 70
     0
  9
$SPLINETYPE
 70
     6
  9
$SPLINESEGS
 70
     8
  9
$HANDSEED
  5
5A8
  9
$SURFTAB1
 70
     6
  9
$SURFTAB2
 70
     6
  9
$SURFTYPE
 70
     6
  9
$SURFU
 70
     6
  9
$SURFV
 70
     6
  9
$UCSBASE
  2

  9
$UCSNAME
  2

  9
$UCSORG
 10
0.0
 20
0.0
 30
0.0
  9
$UCSXDIR
 10
1.0
 20
0.0
 30
0.0
  9
$UCSYDIR
 10
0.0
 20
1.0
 30
0.0
  9
$UCSORTHOREF
  2

  9
$UCSORTHOVIEW
 70
     0
  9
$UCSORGTOP
 10
0.0
 20
0.0
 30
0.0
  9
$UCSORGBOTTOM
 10
0.0
 20
0.0
 30
0.0
  9
$UCSORGLEFT
 10
0.0
 20
0.0
 30
0.0
  9
$UCSORGRIGHT
 10
0.0
 20
0.0
 30
0.0
  9
$UCSORGFRONT
 10
0.0
 20
0.0
 30
0.0
  9
$UCSORGBACK
 10
0.0
 20
0.0
 30
0.0
  9
$PUCSBASE
  2

  9
$PUCSNAME
  2

  9
$PUCSORG
 10
0.0
 20
0.0
 30
0.0
  9
$PUCSXDIR
 10
1.0
 20
0.0
 30
0.0
  9
$PUCSYDIR
 10
0.0
 20
1.0
 30
0.0
  9
$PUCSORTHOREF
  2

  9
$PUCSORTHOVIEW
 70
     0
  9
$PUCSORGTOP
 10
0.0
 20
0.0
 30
0.0
  9
$PUCSORGBOTTOM
 10
0.0
 20
0.0
 30
0.0
  9
$PUCSORGLEFT
 10
0.0
 20
0.0
 30
0.0
  9
$PUCSORGRIGHT
 10
0.0
 20
0.0
 30
0.0
  9
$PUCSORGFRONT
 10
0.0
 20
0.0
 30
0.0
  9
$PUCSORGBACK
 10
0.0
 20
0.0
 30
0.0
  9
$USERI1
 70
     0
  9
$USERI2
 70
     0
  9
$USERI3
 70
     0
  9
$USERI4
 70
     0
  9
$USERI5
 70
     0
  9
$USERR1
 40
0.0
  9
$USERR2
 40
0.0
  9
$USERR3
 40
0.0
  9
$USERR4
 40
0.0
  9
$USERR5
 40
0.0
  9
$WORLDVIEW
 70
     1
  9
$SHADEDGE
 70
     3
  9
$SHADEDIF
 70
    70
  9
$TILEMODE
 70
     1
  9
$MAXACTVP
 70
    64
  9
$PINSBASE
 10
0.0
 20
0.0
 30
0.0
  9
$PLIMCHECK
 70
     0
  9
$PEXTMIN
 10
1.000000E+20
 20
1.000000E+20
 30
1.000000E+20
  9
$PEXTMAX
 10
-1.000000E+20
 20
-1.000000E+20
 30
-1.000000E+20
  9
$PLIMMIN
 10
0.0
 20
0.0
  9
$PLIMMAX
 10
12.0
 20
9.0
  9
$UNITMODE
 70
     0
  9
$VISRETAIN
 70
     1
  9
$PLINEGEN
 70
     0
  9
$PSLTSCALE
 70
     0
  9
$TREEDEPTH
 70
  3020
  9
$CMLSTYLE
  2

  9
$CMLJUST
 70
     0
  9
$CMLSCALE
 40
1.0
  9
$PROXYGRAPHICS
 70
     1
  9
$MEASUREMENT
 70
     1
  9
$CELWEIGHT
370
    -1
  9
$ENDCAPS
280
     0
  9
$JOINSTYLE
280
     0
  9
$LWDISPLAY
290
     0
  9
$INSUNITS
 70
     4
  9
$HYPERLINKBASE
  1

  9
$STYLESHEET
  1

  9
$XEDIT
290
     1
  9
$CEPSNTYPE
380
     0
  9
$PSTYLEMODE
290
     1
  9
$FINGERPRINTGUID
  2
{046DE86D-BDBC-44A2-9709-AECAF4D62F14}
  9
$VERSIONGUID
  2
{FAEB1C32-E019-11D5-929B-00C0DF256EC4}
  9
$EXTNAMES
290
     1
  9
$PSVPSCALE
 40
0.0
  9
$OLESTARTUP
290
     0
  9
$SORTENTS
280
   127
  9
$INDEXCTL
280
     0
  9
$HIDETEXT
280
     1
  9
$XCLIPFRAME
280
     2
  9
$HALOGAP
280
     0
  9
$OBSCOLOR
 70
   257
  9
$OBSLTYPE
280
     0
  9
$INTERSECTIONDISPLAY
280
     0
  9
$INTERSECTIONCOLOR
 70
   257
  9
$DIMASSOC
280
     2
  9
$PROJECTNAME
  1

  9
$CAMERADISPLAY
290
     0
  9
$LENSLENGTH
 40
50.0
  9
$CAMERAHEIGHT
 40
0.0
  9
$STEPSPERSEC
 40
2.0
  9
$STEPSIZE
 40
6.0
  9
$3DDWFPREC
 40
2.0
  9
$PSOLWIDTH
 40
0.25
  9
$PSOLHEIGHT
 40
4.0
  9
$LOFTANG1
 40
1.570796
  9
$LOFTANG2
 40
1.570796
  9
$LOFTMAG1
 40
0.0
  9
$LOFTMAG2
 40
0.0
  9
$LOFTPARAM
 70
     7
  9
$LOFTNORMALS
280
     1
  9
$LATITUDE
 40
37.795
  9
$LONGITUDE
 40
-122.394
  9
$NORTHDIRECTION
 40
0.0
  9
$TIMEZONE
 70
 -8000
  9
$LIGHTGLYPHDISPLAY
280
     1
  9
$TILEMODELIGHTSYNCH
280
     1
  9
$SOLIDHIST
280
     1
  9
$SHOWHIST
280
     1
  9
$DWFFRAME
280
     2
  9
$DGNFRAME
280
     2
  9
$REALWORLDSCALE
290
     1
  9
$INTERFERECOLOR
 62
   256
  9
$CSHADOW
280
     0
  9
$SHADOWPLANELOCATION
 40
0.0
  0
ENDSEC
  0
SECTION
  2
CLASSES
  0
CLASS
  1
ACDBDICTIONARYWDFLT
  2
AcDbDictionaryWithDefault
  3
ObjectDBX Classes
 90
        0
 91
        6
280
     0
281
     0
  0
CLASS
  1
ACDBPLACEHOLDER
  2
AcDbPlaceHolder
  3
ObjectDBX Classes
 90
        0
 91
        1
280
     0
281
     0
  0
CLASS
  1
LAYOUT
  2
AcDbLayout
  3
ObjectDBX Classes
 90
        0
 91
        1
280
     0
281
     0
  0
CLASS
  1
TABLESTYLE
  2
AcDbTableStyle
  3
ObjectDBX Classes
 90
     4095
 91
        5
280
     0
281
     0
  0
CLASS
  1
ACAD_TABLE
  2
AcDbTable
  3
ObjectDBX Classes
 90
     1025
 91
        5
280
     0
281
     1
  0
CLASS
  1
SCALE
  2
AcDbScale
  3
ObjectDBX Classes
 90
     1153
 91
        5
280
     0
281
     0
  0
CLASS
  1
TABLEGEOMETRY
  2
AcDbTableGeometry
  3
ObjectDBX Classes
 90
     1152
 91
        4
280
     0
281
     0
  0
CLASS
  1
VISUALSTYLE
  2
AcDbVisualStyle
  3
ObjectDBX Classes
 90
     4095
 91
        5
280
     0
281
     0
  0
CLASS
  1
MATERIAL
  2
AcDbMaterial
  3
ObjectDBX Classes
 90
     1153
 91
        5
280
     0
281
     0
  0
CLASS
  1
SUN
  2
AcDbSun
  3
SCENEOE
 90
     1153
 91
        5
280
     0
281
     0
  0
CLASS
  1
CSACDOCUMENTOPTIONS
  2
CDocDataContainer
  3
"DERU003_CSAPP"
 90
     4095
 91
        4
280
     0
281
     0
  0
CLASS
  1
TABLECONTENT
  2
AcDbTableContent
  3
ObjectDBX Classes
 90
     1152
 91
        4
280
     0
281
     0
  0
CLASS
  1
DICTIONARYVAR
  2
AcDbDictionaryVar
  3
ObjectDBX Classes
 90
        0
 91
        4
280
     0
281
     0
  0
CLASS
  1
CELLSTYLEMAP
  2
AcDbCellStyleMap
  3
ObjectDBX Classes
 90
     1152
 91
        4
280
     0
281
     0
  0
ENDSEC
  0
SECTION
  2
TABLES
  0
TABLE
  2
VPORT
  5
8
330
0
100
AcDbSymbolTable
 70
     1
  0
VPORT
  5
1F4
330
8
100
AcDbSymbolTableRecord
100
AcDbViewportTableRecord
  2
*ACTIVE
 70
     0
 10
0.0
 20
0.0
 11
1.0
 21
1.0
 12
1600.0
 22
1250.0
 13
0.0
 23
0.0
 14
1.0
 24
1.0
 15
0.0
 25
0.0
 16
0.0
 26
0.0
 36
1.0
 17
0.0
 27
0.0
 37
0.0
 40
2500.0
 41
2.176471
 42
50.0
 43
0.0
 44
0.0
 50
0.0
 51
0.0
 71
    16
 72
   100
 73
     1
 74
     1
 75
     0
 76
     0
 77
     0
 78
     0
281
     0
 65
     1
110
0.0
120
0.0
130
0.0
111
1.0
121
0.0
131
0.0
112
0.0
122
1.0
132
0.0
 79
     0
146
0.0
 60
     3
 61
     5
292
     1
282
     1
141
0.0
142
0.0
 63
   256
361
563
  0
ENDTAB
  0
TABLE
  2
LTYPE
  5
5
330
0
100
AcDbSymbolTable
 70
     6
  0
LTYPE
  5
14
330
5
100
AcDbSymbolTableRecord
100
AcDbLinetypeTableRecord
  2
BYBLOCK
 70
     0
  3

 72
    65
 73
     0
 40
0.0
  0
LTYPE
  5
15
330
5
100
AcDbSymbolTableRecord
100
AcDbLinetypeTableRecord
  2
BYLAYER
 70
     0
  3

 72
    65
 73
     0
 40
0.0
  0
LTYPE
  5
16
330
5
100
AcDbSymbolTableRecord
100
AcDbLinetypeTableRecord
  2
CONTINUOUS
 70
     0
  3
Solid line
 72
    65
 73
     0
 40
0.0
  0
LTYPE
  5
1F5
330
5
100
AcDbSymbolTableRecord
100
AcDbLinetypeTableRecord
  2
CENTER
 70
     0
  3
____ _ ____ _ ____ _ ____ _ ____ _ ____ _ ____
 72
    65
 73
     4
 40
0.6
 49
0.375
 74
     0
 49
-0.075
 74
     0
 49
0.075
 74
     0
 49
-0.075
 74
     0
  0
LTYPE
  5
1F6
330
5
100
AcDbSymbolTableRecord
100
AcDbLinetypeTableRecord
  2
HIDDEN
 70
     0
  3
- - - - - - - - - - - - - - - - - - - -
 72
    65
 73
     2
 40
0.2
 49
0.1
 74
     0
 49
-0.1
 74
     0
  0
LTYPE
  5
1F7
330
5
100
AcDbSymbolTableRecord
100
AcDbLinetypeTableRecord
  2
PHANTOM
 70
     0
  3
_____ _ _ _____ _ _ _____ _ _ _____
 72
    65
 73
     6
 40
0.8
 49
0.45
 74
     0
 49
-0.05
 74
     0
 49
0.1
 74
     0
 49
-0.05
 74
     0
 49
0.1
 74
     0
 49
-0.05
 74
     0
  0
LTYPE
  5
1F8
330
5
100
AcDbSymbolTableRecord
100
AcDbLinetypeTableRecord
  2
DOT
 70
     0
  3
. . . . . . . . . . . . . . . . . . . .
 72
    65
 73
     2
 40
0.2
 49
0.1
 74
     0
 49
-0.1
 74
     0
  0
LTYPE
  5
1F9
330
5
100
AcDbSymbolTableRecord
100
AcDbLinetypeTableRecord
  2
DASHED
 70
     0
  3
- - - - - - - - - - - - - - - - - - - -
 72
    65
 73
     2
 40
0.2
 49
0.1
 74
     0
 49
-0.1
 74
     0
  0
ENDTAB
  0
TABLE
  2
LAYER
  5
2
330
0
100
AcDbSymbolTable
 70
    12
  0
LAYER
  5
10
330
2
100
AcDbSymbolTableRecord
100
AcDbLayerTableRecord
  2
0
 70
     0
 62
     7
  6
CONTINUOUS
370
    -3
390
F
347
55D
  0
LAYER
  5
1FA
330
2
100
AcDbSymbolTableRecord
100
AcDbLayerTableRecord
  2
DEFAULT_1
 70
     0
 62
     7
  6
CENTER
370
    -3
390
F
347
55D
  0
LAYER
  5
1FB
330
2
100
AcDbSymbolTableRecord
100
AcDbLayerTableRecord
  2
DEFAULT_2
 70
     0
 62
     8
  6
HIDDEN
370
    -3
390
F
347
55D
  0
LAYER
  5
1FC
330
2
100
AcDbSymbolTableRecord
100
AcDbLayerTableRecord
  2
DEFAULT_3
 70
     0
 62
     7
  6
PHANTOM
370
    -3
390
F
347
55D
  0
LAYER
  5
1FD
330
2
100
AcDbSymbolTableRecord
100
AcDbLayerTableRecord
  2
1_ALL_PLANES
 70
     0
 62
     7
  6
CONTINUOUS
370
    -3
390
F
347
55D
  0
LAYER
  5
1FE
330
2
100
AcDbSymbolTableRecord
100
AcDbLayerTableRecord
  2
2_ALL_CSYS
 70
     0
 62
     7
  6
CONTINUOUS
370
    -3
390
F
347
55D
  0
LAYER
  5
1FF
330
2
100
AcDbSymbolTableRecord
100
AcDbLayerTableRecord
  2
3_ALL_AXES
 70
     0
 62
     7
  6
CONTINUOUS
370
    -3
390
F
347
55D
  0
LAYER
  5
200
330
2
100
AcDbSymbolTableRecord
100
AcDbLayerTableRecord
  2
4_ALL_POINTS
 70
     0
 62
     7
  6
CONTINUOUS
370
    -3
390
F
347
55D
  0
LAYER
  5
201
330
2
100
AcDbSymbolTableRecord
100
AcDbLayerTableRecord
  2
5_ALL_CURVES
 70
     0
 62
     7
  6
CONTINUOUS
370
    -3
390
F
347
55D
  0
LAYER
  5
202
330
2
100
AcDbSymbolTableRecord
100
AcDbLayerTableRecord
  2
6_ALL_SURFS
 70
     0
 62
     7
  6
CONTINUOUS
370
    -3
390
F
347
55D
  0
LAYER
  5
203
330
2
100
AcDbSymbolTableRecord
100
AcDbLayerTableRecord
  2
7_ALL_FEATURES
 70
     0
 62
     7
  6
CONTINUOUS
370
    -3
390
F
347
55D
  0
LAYER
  5
204
330
2
100
AcDbSymbolTableRecord
100
AcDbLayerTableRecord
  2
9_SOLID
 70
     0
 62
     7
  6
CONTINUOUS
370
    -3
390
F
347
55D
  0
ENDTAB
  0
TABLE
  2
STYLE
  5
3
330
0
100
AcDbSymbolTable
 70
     2
  0
STYLE
  5
11
330
3
100
AcDbSymbolTableRecord
100
AcDbTextStyleTableRecord
  2
STANDARD
 70
     0
 40
0.0
 41
1.0
 50
0.0
 71
     0
 42
0.2
  3
arial.ttf
  4

  0
STYLE
  5
205
330
3
100
AcDbSymbolTableRecord
100
AcDbTextStyleTableRecord
  2
TEXTSTYLE_1
 70
     0
 40
0.0
 41
0.8
 50
0.0
 71
     0
 42
0.2
  3
gdt
  4

  0
ENDTAB
  0
TABLE
  2
VIEW
  5
6
330
0
100
AcDbSymbolTable
 70
     0
  0
ENDTAB
  0
TABLE
  2
UCS
  5
7
330
0
100
AcDbSymbolTable
 70
     0
  0
ENDTAB
  0
TABLE
  2
APPID
  5
9
330
0
100
AcDbSymbolTable
 70
     6
  0
APPID
  5
206
330
9
100
AcDbSymbolTableRecord
100
AcDbRegAppTableRecord
  2
ACAD
 70
     0
  0
APPID
  5
55E
330
9
100
AcDbSymbolTableRecord
100
AcDbRegAppTableRecord
  2
MCS_DIM1
 70
     0
  0
APPID
  5
55F
330
9
100
AcDbSymbolTableRecord
100
AcDbRegAppTableRecord
  2
McsXdata5
 70
     0
  0
APPID
  5
562
330
9
100
AcDbSymbolTableRecord
100
AcDbRegAppTableRecord
  2
MCS_DOCUMENT_ID
 70
     0
  0
APPID
  5
568
330
9
100
AcDbSymbolTableRecord
100
AcDbRegAppTableRecord
  2
MCS_PARAMS_DATA
 70
     0
  0
APPID
  5
56A
330
9
100
AcDbSymbolTableRecord
100
AcDbRegAppTableRecord
  2
MC_VERSION_DATA
 70
     0
  0
ENDTAB
  0
TABLE
  2
DIMSTYLE
  5
A
330
0
100
AcDbSymbolTable
 70
     4
100
AcDbDimStyleTable
  0
DIMSTYLE
105
20F
330
A
100
AcDbSymbolTableRecord
100
AcDbDimStyleTableRecord
  2
STANDARD
 70
     0
 41
2.5
 42
0.75
 44
0.75
 47
0.01
 48
0.01
 71
     1
 73
     0
 74
     0
 77
     1
 78
     8
 79
     2
140
3.0
147
0.625
171
     1
178
     0
179
     2
271
     2
272
     2
278
    44
284
     8
340
11
341
209
342
209
343
209
344
209
  0
DIMSTYLE
105
210
330
A
100
AcDbSymbolTableRecord
100
AcDbDimStyleTableRecord
  2
DIMSTYLE_1
 70
     0
 41
2.5
 42
0.75
 44
0.75
 47
0.3
 48
0.3
 73
     0
 74
     0
 77
     1
 78
     8
 79
     2
140
10.0
147
2.5
171
     1
178
     0
179
     2
271
     2
272
     2
278
    44
284
     8
340
11
341
209
342
209
343
209
344
209
  0
DIMSTYLE
105
211
330
A
100
AcDbSymbolTableRecord
100
AcDbDimStyleTableRecord
  2
DIMSTYLE_2
 70
     0
 41
2.5
 42
0.75
 44
0.75
 47
0.5
 48
0.5
 73
     0
 74
     0
 77
     1
 78
     8
 79
     2
140
10.0
147
2.5
171
     1
178
     0
179
     2
271
     2
272
     2
278
    44
284
     8
340
11
341
209
342
209
343
209
344
209
  0
DIMSTYLE
105
212
330
A
100
AcDbSymbolTableRecord
100
AcDbDimStyleTableRecord
  2
DIMSTYLE_3
 70
     0
 41
2.5
 42
0.75
 44
0.75
 47
1.2
 48
1.2
 73
     0
 74
     0
 77
     1
 78
     8
 79
     2
140
10.0
147
2.5
171
     1
178
     0
179
     2
271
     2
272
     2
278
    44
284
     8
340
11
341
209
342
209
343
209
344
209
  0
ENDTAB
  0
TABLE
  2
BLOCK_RECORD
  5
1
330
0
100
AcDbSymbolTable
 70
     6
  0
BLOCK_RECORD
  5
207
330
1
100
AcDbSymbolTableRecord
100
AcDbBlockTableRecord
  2
*Model_Space
340
518
 70
     0
280
     1
281
     0
  0
BLOCK_RECORD
  5
208
330
1
100
AcDbSymbolTableRecord
100
AcDbBlockTableRecord
  2
*Paper_Space
340
519
 70
     0
280
     1
281
     0
  0
BLOCK_RECORD
  5
209
330
1
100
AcDbSymbolTableRecord
100
AcDbBlockTableRecord
  2
_CLOSED
340
0
102
{BLKREFS
331
25B
331
25C
331
264
331
265
331
26D
331
26E
102
}
 70
     0
280
     1
281
     0
  0
BLOCK_RECORD
  5
20A
330
1
100
AcDbSymbolTableRecord
100
AcDbBlockTableRecord
  2
*D1
340
0
 70
     0
280
     1
281
     0
  0
BLOCK_RECORD
  5
20B
330
1
100
AcDbSymbolTableRecord
100
AcDbBlockTableRecord
  2
*D2
340
0
 70
     0
280
     1
281
     0
  0
BLOCK_RECORD
  5
20C
330
1
100
AcDbSymbolTableRecord
100
AcDbBlockTableRecord
  2
*D3
340
0
 70
     0
280
     1
281
     0
  0
BLOCK_RECORD
  5
20D
330
1
100
AcDbSymbolTableRecord
100
AcDbBlockTableRecord
  2
LOGO2_BL0
340
0
102
{BLKREFS
331
515
102
}
 70
     0
280
     1
281
     0
  0
BLOCK_RECORD
  5
20E
330
1
100
AcDbSymbolTableRecord
100
AcDbBlockTableRecord
  2
*T5
340
0
102
{BLKREFS
331
516
102
}
 70
     0
280
     1
281
     0
  0
ENDTAB
  0
ENDSEC
  0
SECTION
  2
BLOCKS
  0
BLOCK
  5
20
330
207
100
AcDbEntity
  8
0
100
AcDbBlockBegin
  2
*Model_Space
 70
     0
 10
0.0
 20
0.0
 30
0.0
  3
*Model_Space
  1
*Model_Space
  0
ENDBLK
  5
21
330
207
100
AcDbEntity
  8
0
100
AcDbBlockEnd
  0
BLOCK
  5
1C
330
208
100
AcDbEntity
 67
     1
  8
0
100
AcDbBlockBegin
  2
*Paper_Space
 70
     0
 10
0.0
 20
0.0
 30
0.0
  3
*Paper_Space
  1
*Paper_Space
  0
ENDBLK
  5
1D
330
208
100
AcDbEntity
 67
     1
  8
0
100
AcDbBlockEnd
  0
BLOCK
  5
24F
330
209
100
AcDbEntity
  8
0
100
AcDbBlockBegin
  2
_CLOSED
 70
     0
 10
0.0
 20
0.0
 30
0.0
  3
_CLOSED
  1
_CLOSED
  0
LINE
  5
250
330
209
100
AcDbEntity
  8
0
  6
ByBlock
 62
     0
100
AcDbLine
 10
0.0
 20
0.0
 30
0.0
 11
-1.0
 21
0.2
 31
0.0
  0
LINE
  5
251
330
209
100
AcDbEntity
  8
0
  6
ByBlock
 62
     0
100
AcDbLine
 10
-1.0
 20
0.2
 30
0.0
 11
-1.0
 21
-0.2
 31
0.0
  0
LINE
  5
252
330
209
100
AcDbEntity
  8
0
  6
ByBlock
 62
     0
100
AcDbLine
 10
-1.0
 20
-0.2
 30
0.0
 11
0.0
 21
0.0
 31
0.0
  0
LINE
  5
253
330
209
100
AcDbEntity
  8
0
  6
ByBlock
 62
     0
100
AcDbLine
 10
-1.0
 20
0.0
 30
0.0
 11
0.0
 21
0.0
 31
0.0
  0
ENDBLK
  5
254
330
209
100
AcDbEntity
  8
0
  6
ByBlock
 62
     0
100
AcDbBlockEnd
  0
BLOCK
  5
255
330
20A
100
AcDbEntity
  8
0
100
AcDbBlockBegin
  2
*D1
 70
     1
 10
0.0
 20
0.0
 30
0.0
  3
*D1
  1
*D1
  0
MTEXT
  5
256
330
20A
100
AcDbEntity
  8
0
  6
Continuous
 62
     2
100
AcDbMText
 10
2042.682927
 20
2079.64471
 30
0.0
 40
10.0
 41
34.944238
 46
0.0
 71
     2
 72
     1
  1
101,4
 73
     1
 44
0.9
  0
LINE
  5
257
330
20A
100
AcDbEntity
  8
0
  6
Continuous
 62
     2
100
AcDbLine
 10
1991.982927
 20
2040.070488
 30
0.0
 11
1991.982927
 21
2067.89471
 31
0.0
  0
LINE
  5
258
330
20A
100
AcDbEntity
  8
0
  6
Continuous
 62
     2
100
AcDbLine
 10
2093.382927
 20
2039.756222
 30
0.0
 11
2093.382927
 21
2067.89471
 31
0.0
  0
LINE
  5
259
330
20A
100
AcDbEntity
  8
0
  6
Continuous
 62
     2
100
AcDbLine
 10
1991.982927
 20
2067.14471
 30
0.0
 11
2042.682927
 21
2067.14471
 31
0.0
  0
LINE
  5
25A
330
20A
100
AcDbEntity
  8
0
  6
Continuous
 62
     2
100
AcDbLine
 10
2093.382927
 20
2067.14471
 30
0.0
 11
2042.682927
 21
2067.14471
 31
0.0
  0
INSERT
  5
25B
330
20A
100
AcDbEntity
  8
0
  6
Continuous
 62
     2
100
AcDbBlockReference
  2
_CLOSED
 10
1991.982927
 20
2067.14471
 30
0.0
 41
2.5
 42
2.5
 43
2.5
 50
180.0
  0
INSERT
  5
25C
330
20A
100
AcDbEntity
  8
0
  6
Continuous
 62
     2
100
AcDbBlockReference
  2
_CLOSED
 10
2093.382927
 20
2067.14471
 30
0.0
 41
2.5
 42
2.5
 43
2.5
  0
ENDBLK
  5
25D
330
20A
100
AcDbEntity
  8
0
  6
ByBlock
 62
     0
100
AcDbBlockEnd
  0
BLOCK
  5
25E
330
20B
100
AcDbEntity
  8
0
100
AcDbBlockBegin
  2
*D2
 70
     1
 10
0.0
 20
0.0
 30
0.0
  3
*D2
  1
*D2
  0
MTEXT
  5
25F
330
20B
100
AcDbEntity
  8
0
  6
Continuous
 62
     2
100
AcDbMText
 10
1639.248466
 20
1930.487805
 30
0.0
 40
10.0
 41
34.944238
 46
0.0
 71
     2
 72
     1
  1
150,5
 11
0.0
 21
1.0
 31
0.0
 73
     1
 44
0.9
  0
LINE
  5
260
330
20B
100
AcDbEntity
  8
0
  6
Continuous
 62
     2
100
AcDbLine
 10
1624.500161
 20
2005.737805
 30
0.0
 11
1652.498466
 21
2005.737805
 31
0.0
  0
LINE
  5
261
330
20B
100
AcDbEntity
  8
0
  6
Continuous
 62
     2
100
AcDbLine
 10
1624.107329
 20
1855.237805
 30
0.0
 11
1652.498466
 21
1855.237805
 31
0.0
  0
LINE
  5
262
330
20B
100
AcDbEntity
  8
0
  6
Continuous
 62
     2
100
AcDbLine
 10
1651.748466
 20
2005.737805
 30
0.0
 11
1651.748466
 21
1930.487805
 31
0.0
  0
LINE
  5
263
330
20B
100
AcDbEntity
  8
0
  6
Continuous
 62
     2
100
AcDbLine
 10
1651.748466
 20
1855.237805
 30
0.0
 11
1651.748466
 21
1930.487805
 31
0.0
  0
INSERT
  5
264
330
20B
100
AcDbEntity
  8
0
  6
Continuous
 62
     2
100
AcDbBlockReference
  2
_CLOSED
 10
1651.748466
 20
2005.737805
 30
0.0
 41
2.5
 42
2.5
 43
2.5
 50
90.0
  0
INSERT
  5
265
330
20B
100
AcDbEntity
  8
0
  6
Continuous
 62
     2
100
AcDbBlockReference
  2
_CLOSED
 10
1651.748466
 20
1855.237805
 30
0.0
 41
2.5
 42
2.5
 43
2.5
 50
270.0
  0
ENDBLK
  5
266
330
20B
100
AcDbEntity
  8
0
  6
ByBlock
 62
     0
100
AcDbBlockEnd
  0
BLOCK
  5
267
330
20C
100
AcDbEntity
  8
0
100
AcDbBlockBegin
  2
*D3
 70
     1
 10
0.0
 20
0.0
 30
0.0
  3
*D3
  1
*D3
  0
MTEXT
  5
268
330
20C
100
AcDbEntity
  8
0
  6
Continuous
 62
     2
100
AcDbMText
 10
950.609756
 20
1567.282592
 30
0.0
 40
10.0
 41
42.713755
 46
0.0
 71
     2
 72
     1
  1
1268,5
 73
     1
 44
0.9
  0
LINE
  5
269
330
20C
100
AcDbEntity
  8
0
  6
Continuous
 62
     2
100
AcDbLine
 10
316.359756
 20
1497.121824
 30
0.0
 11
316.359756
 21
1555.532592
 31
0.0
  0
LINE
  5
26A
330
20C
100
AcDbEntity
  8
0
  6
Continuous
 62
     2
100
AcDbLine
 10
1584.859756
 20
1500.766265
 30
0.0
 11
1584.859756
 21
1555.532592
 31
0.0
  0
LINE
  5
26B
330
20C
100
AcDbEntity
  8
0
  6
Continuous
 62
     2
100
AcDbLine
 10
316.359756
 20
1554.782592
 30
0.0
 11
950.609756
 21
1554.782592
 31
0.0
  0
LINE
  5
26C
330
20C
100
AcDbEntity
  8
0
  6
Continuous
 62
     2
100
AcDbLine
 10
1584.859756
 20
1554.782592
 30
0.0
 11
950.609756
 21
1554.782592
 31
0.0
  0
INSERT
  5
26D
330
20C
100
AcDbEntity
  8
0
  6
Continuous
 62
     2
100
AcDbBlockReference
  2
_CLOSED
 10
316.359756
 20
1554.782592
 30
0.0
 41
2.5
 42
2.5
 43
2.5
 50
180.0
  0
INSERT
  5
26E
330
20C
100
AcDbEntity
  8
0
  6
Continuous
 62
     2
100
AcDbBlockReference
  2
_CLOSED
 10
1584.859756
 20
1554.782592
 30
0.0
 41
2.5
 42
2.5
 43
2.5
  0
ENDBLK
  5
26F
330
20C
100
AcDbEntity
  8
0
  6
ByBlock
 62
     0
100
AcDbBlockEnd
  0
BLOCK
  5
213
330
20D
100
AcDbEntity
  8
0
100
AcDbBlockBegin
  2
LOGO2_BL0
 70
     0
 10
3120.873154
 20
30.322557
 30
0.0
  3
LOGO2_BL0
  1
LOGO2_BL0
  0
LINE
  5
214
330
20D
100
AcDbEntity
  8
0
  6
Continuous
 62
     7
100
AcDbLine
 10
3112.616079
 20
33.518049
 30
0.0
 11
3111.311738
 21
33.518049
 31
0.0
  0
LINE
  5
215
330
20D
100
AcDbEntity
  8
0
  6
Continuous
 62
     7
100
AcDbLine
 10
3111.311738
 20
33.518049
 30
0.0
 11
3111.311738
 21
23.058982
 31
0.0
  0
LINE
  5
216
330
20D
100
AcDbEntity
  8
0
  6
Continuous
 62
     7
100
AcDbLine
 10
3111.311738
 20
23.058982
 30
0.0
 11
3115.792793
 21
23.058982
 31
0.0
  0
LINE
  5
217
330
20D
100
AcDbEntity
  8
0
  6
Continuous
 62
     7
100
AcDbLine
 10
3115.792793
 20
23.058982
 30
0.0
 11
3115.792793
 21
24.251837
 31
0.0
  0
LINE
  5
218
330
20D
100
AcDbEntity
  8
0
  6
Continuous
 62
     7
100
AcDbLine
 10
3115.792793
 20
24.251837
 30
0.0
 11
3112.616079
 21
24.251837
 31
0.0
  0
LINE
  5
219
330
20D
100
AcDbEntity
  8
0
  6
Continuous
 62
     7
100
AcDbLine
 10
3112.616079
 20
24.251837
 30
0.0
 11
3112.616079
 21
33.518049
 31
0.0
  0
LINE
  5
21A
330
20D
100
AcDbEntity
  8
0
  6
Continuous
 62
     7
100
AcDbLine
 10
3127.552406
 20
33.518049
 30
0.0
 11
3126.248588
 21
33.518049
 31
0.0
  0
LINE
  5
21B
330
20D
100
AcDbEntity
  8
0
  6
Continuous
 62
     7
100
AcDbLine
 10
3126.248588
 20
33.518049
 30
0.0
 11
3126.248588
 21
23.058982
 31
0.0
  0
LINE
  5
21C
330
20D
100
AcDbEntity
  8
0
  6
Continuous
 62
     7
100
AcDbLine
 10
3126.248588
 20
23.058982
 30
0.0
 11
3130.729774
 21
23.058982
 31
0.0
  0
LINE
  5
21D
330
20D
100
AcDbEntity
  8
0
  6
Continuous
 62
     7
100
AcDbLine
 10
3130.729774
 20
23.058982
 30
0.0
 11
3130.729774
 21
24.251837
 31
0.0
  0
LINE
  5
21E
330
20D
100
AcDbEntity
  8
0
  6
Continuous
 62
     7
100
AcDbLine
 10
3130.729774
 20
24.251837
 30
0.0
 11
3127.552406
 21
24.251837
 31
0.0
  0
LINE
  5
21F
330
20D
100
AcDbEntity
  8
0
  6
Continuous
 62
     7
100
AcDbLine
 10
3127.552406
 20
24.251837
 30
0.0
 11
3127.552406
 21
33.518049
 31
0.0
  0
LWPOLYLINE
  5
220
330
20D
100
AcDbEntity
  8
0
  6
Continuous
 62
     7
100
AcDbPolyline
 90
        2
 70
     0
 43
0.2
 10
3109.666133
 20
19.715431
 10
3109.666133
 20
17.858368
  0
LWPOLYLINE
  5
221
330
20D
100
AcDbEntity
  8
0
  6
Continuous
 62
     7
100
AcDbPolyline
 90
        2
 70
     0
 43
0.2
 10
3109.666133
 20
17.858368
 10
3110.461849
 20
17.858368
  0
LWPOLYLINE
  5
222
330
20D
100
AcDbEntity
  8
0
  6
Continuous
 62
     7
100
AcDbPolyline
 90
        2
 70
     0
 43
0.2
 10
3110.461849
 20
17.858368
 10
3110.461849
 20
18.070349
  0
LWPOLYLINE
  5
223
330
20D
100
AcDbEntity
  8
0
  6
Continuous
 62
     7
100
AcDbPolyline
 90
        2
 70
     0
 43
0.2
 10
3110.461849
 20
18.070349
 10
3109.897743
 20
18.070349
  0
LWPOLYLINE
  5
224
330
20D
100
AcDbEntity
  8
0
  6
Continuous
 62
     7
100
AcDbPolyline
 90
        2
 70
     0
 43
0.2
 10
3109.897743
 20
18.070349
 10
3109.897743
 20
19.715431
  0
LWPOLYLINE
  5
225
330
20D
100
AcDbEntity
  8
0
  6
Continuous
 62
     7
100
AcDbPolyline
 90
        2
 70
     0
 43
0.2
 10
3109.897743
 20
19.715431
 10
3109.666133
 20
19.715431
  0
SPLINE
  5
226
330
20D
100
AcDbEntity
  8
0
  6
Continuous
 62
     7
100
AcDbSpline
 70
     3
 71
     3
 72
    35
 73
    31
 74
     0
 42
0.000000001
 43
0.0000001
 40
0.0
 40
0.0
 40
0.0
 40
0.0
 40
1.0
 40
1.0
 40
1.0
 40
2.0
 40
2.0
 40
2.0
 40
3.0
 40
3.0
 40
3.0
 40
4.0
 40
4.0
 40
4.0
 40
5.0
 40
5.0
 40
5.0
 40
6.0
 40
6.0
 40
6.0
 40
7.0
 40
7.0
 40
7.0
 40
8.0
 40
8.0
 40
8.0
 40
9.0
 40
9.0
 40
9.0
 40
10.0
 40
10.0
 40
10.0
 40
10.0
 10
3111.8601425411
 20
19.0109195604
 30
0.0
 10
3111.8601425411
 20
19.0109195604
 30
0.0
 10
3111.8601425411
 20
18.3488042813
 30
0.0
 10
3111.8601425411
 20
18.3488042813
 30
0.0
 10
3111.8601425411
 20
18.033710686
 30
0.0
 10
3112.0080062299
 20
17.8191120579
 30
0.0
 10
3112.3480927142
 20
17.8191120579
 30
0.0
 10
3112.6876557872
 20
17.8191120579
 30
0.0
 10
3112.8357811817
 20
18.033710686
 30
0.0
 10
3112.8357811817
 20
18.3488042813
 30
0.0
 10
3112.8357811817
 20
18.3488042813
 30
0.0
 10
3112.8357811817
 20
19.0109195604
 30
0.0
 10
3112.8357811817
 20
19.0109195604
 30
0.0
 10
3112.8357811817
 20
19.0109195604
 30
0.0
 10
3112.6137239428
 20
19.0109195604
 30
0.0
 10
3112.6137239428
 20
19.0109195604
 30
0.0
 10
3112.6137239428
 20
19.0109195604
 30
0.0
 10
3112.6137239428
 20
18.3739280231
 30
0.0
 10
3112.6137239428
 20
18.3739280231
 30
0.0
 10
3112.6137239428
 20
18.1881170159
 30
0.0
 10
3112.5670094853
 20
18.0253361054
 30
0.0
 10
3112.3480927142
 20
18.0253361054
 30
0.0
 10
3112.1286525317
 20
18.0253361054
 30
0.0
 10
3112.0819380743
 20
18.1881170159
 30
0.0
 10
3112.0819380743
 20
18.3739280231
 30
0.0
 10
3112.0819380743
 20
18.3739280231
 30
0.0
 10
3112.0819380743
 20
19.0109195604
 30
0.0
 10
3112.0819380743
 20
19.0109195604
 30
0.0
 10
3112.0819380743
 20
19.0109195604
 30
0.0
 10
3111.8601425411
 20
19.0109195604
 30
0.0
 10
3111.8601425411
 20
19.0109195604
 30
0.0
  0
SPLINE
  5
227
330
20D
100
AcDbEntity
  8
0
  6
Continuous
 62
     7
100
AcDbSpline
 70
     3
 71
     3
 72
    35
 73
    31
 74
     0
 42
0.000000001
 43
0.0000001
 40
0.0
 40
0.0
 40
0.0
 40
0.0
 40
1.0
 40
1.0
 40
1.0
 40
2.0
 40
2.0
 40
2.0
 40
3.0
 40
3.0
 40
3.0
 40
4.0
 40
4.0
 40
4.0
 40
5.0
 40
5.0
 40
5.0
 40
6.0
 40
6.0
 40
6.0
 40
7.0
 40
7.0
 40
7.0
 40
8.0
 40
8.0
 40
8.0
 40
9.0
 40
9.0
 40
9.0
 40
10.0
 40
10.0
 40
10.0
 40
10.0
 10
3115.2589137388
 20
18.9695700687
 30
0.0
 10
3115.1704572312
 20
19.0208643749
 30
0.0
 10
3115.0570078346
 20
19.0459881167
 30
0.0
 10
3114.9533723996
 20
19.0459881167
 30
0.0
 10
3114.5984995464
 20
19.0459881167
 30
0.0
 10
3114.3230543561
 20
18.7821888276
 30
0.0
 10
3114.3230543561
 20
18.424698918
 30
0.0
 10
3114.3230543561
 20
18.0797708793
 30
0.0
 10
3114.6015091613
 20
17.8196354692
 30
0.0
 10
3114.9410722343
 20
17.8196354692
 30
0.0
 10
3115.0570078346
 20
17.8196354692
 30
0.0
 10
3115.1577645075
 20
17.8416187433
 30
0.0
 10
3115.2589137388
 20
17.895530106
 30
0.0
 10
3115.2589137388
 20
17.895530106
 30
0.0
 10
3115.2589137388
 20
18.1781722014
 30
0.0
 10
3115.2589137388
 20
18.1781722014
 30
0.0
 10
3115.17503708
 20
18.0850049922
 30
0.0
 10
3115.0715324978
 20
18.0258595166
 30
0.0
 10
3114.9434275851
 20
18.0258595166
 30
0.0
 10
3114.7097244451
 20
18.0258595166
 30
0.0
 10
3114.5444573309
 20
18.1980618304
 30
0.0
 10
3114.5444573309
 20
18.4346437325
 30
0.0
 10
3114.5444573309
 20
18.6466253041
 30
0.0
 10
3114.7122106487
 20
18.8387172467
 30
0.0
 10
3114.9290337747
 20
18.8387172467
 30
0.0
 10
3115.061849389
 20
18.8387172467
 30
0.0
 10
3115.1704572312
 20
18.7848058841
 30
0.0
 10
3115.2589137388
 20
18.6837875055
 30
0.0
 10
3115.2589137388
 20
18.6837875055
 30
0.0
 10
3115.2589137388
 20
18.9695700687
 30
0.0
 10
3115.2589137388
 20
18.9695700687
 30
0.0
  0
SPLINE
  5
228
330
20D
100
AcDbEntity
  8
0
  6
Continuous
 62
     7
100
AcDbSpline
 70
     3
 71
     3
 72
    32
 73
    28
 74
     0
 42
0.000000001
 43
0.0000001
 40
0.0
 40
0.0
 40
0.0
 40
0.0
 40
1.0
 40
1.0
 40
1.0
 40
2.0
 40
2.0
 40
2.0
 40
3.0
 40
3.0
 40
3.0
 40
4.0
 40
4.0
 40
4.0
 40
5.0
 40
5.0
 40
5.0
 40
6.0
 40
6.0
 40
6.0
 40
7.0
 40
7.0
 40
7.0
 40
8.0
 40
8.0
 40
8.0
 40
9.0
 40
9.0
 40
9.0
 40
9.0
 10
3117.7907849911
 20
18.3980049423
 30
0.0
 10
3117.7907849911
 20
18.3980049423
 30
0.0
 10
3117.7907849911
 20
18.432026676
 30
0.0
 10
3117.7907849911
 20
18.432026676
 30
0.0
 10
3117.7907849911
 20
18.7743376583
 30
0.0
 10
3117.6179284133
 20
19.0459881167
 30
0.0
 10
3117.2512788061
 20
19.0459881167
 30
0.0
 10
3116.8796567917
 20
19.0459881167
 30
0.0
 10
3116.6899201999
 20
18.7795717712
 30
0.0
 10
3116.6899201999
 20
18.424698918
 30
0.0
 10
3116.6899201999
 20
18.0850049922
 30
0.0
 10
3116.9039954166
 20
17.8191120579
 30
0.0
 10
3117.2561203605
 20
17.8191120579
 30
0.0
 10
3117.4801403917
 20
17.8191120579
 30
0.0
 10
3117.6823080017
 20
17.9347859526
 30
0.0
 10
3117.7907849911
 20
18.1342056532
 30
0.0
 10
3117.7907849911
 20
18.1342056532
 30
0.0
 10
3117.6031420444
 20
18.240981556
 30
0.0
 10
3117.6031420444
 20
18.240981556
 30
0.0
 10
3117.519657944
 20
18.1022775647
 30
0.0
 10
3117.4284535271
 20
18.0164381135
 30
0.0
 10
3117.2588682698
 20
18.0164381135
 30
0.0
 10
3117.0468866982
 20
18.0164381135
 30
0.0
 10
3116.9139402311
 20
18.2012022981
 30
0.0
 10
3116.9115848803
 20
18.3980049423
 30
0.0
 10
3116.9115848803
 20
18.3980049423
 30
0.0
 10
3117.7907849911
 20
18.3980049423
 30
0.0
 10
3117.7907849911
 20
18.3980049423
 30
0.0
  0
SPLINE
  5
229
330
20D
100
AcDbEntity
  8
0
  6
Continuous
 62
     7
100
AcDbSpline
 70
     3
 71
     3
 72
    14
 73
    10
 74
     0
 42
0.000000001
 43
0.0000001
 40
0.0
 40
0.0
 40
0.0
 40
0.0
 40
1.0
 40
1.0
 40
1.0
 40
2.0
 40
2.0
 40
2.0
 40
3.0
 40
3.0
 40
3.0
 40
3.0
 10
3116.9236233399
 20
18.5654965544
 30
0.0
 10
3116.9512332854
 20
18.7303711101
 30
0.0
 10
3117.0790764924
 20
18.8533727628
 30
0.0
 10
3117.2512788061
 20
18.8533727628
 30
0.0
 10
3117.4284535271
 20
18.8533727628
 30
0.0
 10
3117.5419029237
 20
18.7376988682
 30
0.0
 10
3117.5691203107
 20
18.5654965544
 30
0.0
 10
3117.5691203107
 20
18.5654965544
 30
0.0
 10
3116.9236233399
 20
18.5654965544
 30
0.0
 10
3116.9236233399
 20
18.5654965544
 30
0.0
  0
SPLINE
  5
22A
330
20D
100
AcDbEntity
  8
0
  6
Continuous
 62
     7
100
AcDbSpline
 70
     3
 71
     3
 72
    20
 73
    16
 74
     0
 42
0.000000001
 43
0.0000001
 40
0.0
 40
0.0
 40
0.0
 40
0.0
 40
1.0
 40
1.0
 40
1.0
 40
2.0
 40
2.0
 40
2.0
 40
3.0
 40
3.0
 40
3.0
 40
4.0
 40
4.0
 40
4.0
 40
5.0
 40
5.0
 40
5.0
 40
5.0
 10
3119.8148164413
 20
18.7748610696
 30
0.0
 10
3119.8148164413
 20
18.7748610696
 30
0.0
 10
3120.2259560079
 20
18.2723862332
 30
0.0
 10
3120.2259560079
 20
18.2723862332
 30
0.0
 10
3120.1098895548
 20
18.1567123386
 30
0.0
 10
3119.9721015333
 20
18.0263829279
 30
0.0
 10
3119.8001609252
 20
18.0263829279
 30
0.0
 10
3119.6227244986
 20
18.0263829279
 30
0.0
 10
3119.4552328865
 20
18.1907340723
 30
0.0
 10
3119.4552328865
 20
18.3676470876
 30
0.0
 10
3119.4552328865
 20
18.5456069255
 30
0.0
 10
3119.6649899601
 20
18.6717490459
 30
0.0
 10
3119.7925714616
 20
18.7596821422
 30
0.0
 10
3119.7925714616
 20
18.7596821422
 30
0.0
 10
3119.8148164413
 20
18.7748610696
 30
0.0
 10
3119.8148164413
 20
18.7748610696
 30
0.0
  0
SPLINE
  5
22B
330
20D
100
AcDbEntity
  8
0
  6
Continuous
 62
     7
100
AcDbSpline
 70
     3
 71
     3
 72
    23
 73
    19
 74
     0
 42
0.000000001
 43
0.0000001
 40
0.0
 40
0.0
 40
0.0
 40
0.0
 40
1.0
 40
1.0
 40
1.0
 40
2.0
 40
2.0
 40
2.0
 40
3.0
 40
3.0
 40
3.0
 40
4.0
 40
4.0
 40
4.0
 40
5.0
 40
5.0
 40
5.0
 40
6.0
 40
6.0
 40
6.0
 40
6.0
 10
3119.8641479552
 20
19.0658777456
 30
0.0
 10
3119.8641479552
 20
19.0658777456
 30
0.0
 10
3119.802516276
 20
19.1443894388
 30
0.0
 10
3119.802516276
 20
19.1443894388
 30
0.0
 10
3119.7486049134
 20
19.2129563175
 30
0.0
 10
3119.6918147886
 20
19.2820466075
 30
0.0
 10
3119.6918147886
 20
19.3757372281
 30
0.0
 10
3119.6918147886
 20
19.4945515904
 30
0.0
 10
3119.7877299071
 20
19.572016461
 30
0.0
 10
3119.8986931002
 20
19.572016461
 30
0.0
 10
3120.0219564585
 20
19.572016461
 30
0.0
 10
3120.1152545205
 20
19.5008325259
 30
0.0
 10
3120.1152545205
 20
19.3705031152
 30
0.0
 10
3120.1152545205
 20
19.2354630029
 30
0.0
 10
3119.9871496078
 20
19.1590449549
 30
0.0
 10
3119.8935898401
 20
19.0852439633
 30
0.0
 10
3119.8935898401
 20
19.0852439633
 30
0.0
 10
3119.8641479552
 20
19.0658777456
 30
0.0
 10
3119.8641479552
 20
19.0658777456
 30
0.0
  0
SPLINE
  5
22C
330
20D
100
AcDbEntity
  8
0
  6
Continuous
 62
     7
100
AcDbSpline
 70
     3
 71
     3
 72
    50
 73
    46
 74
     0
 42
0.000000001
 43
0.0000001
 40
0.0
 40
0.0
 40
0.0
 40
0.0
 40
1.0
 40
1.0
 40
1.0
 40
2.0
 40
2.0
 40
2.0
 40
3.0
 40
3.0
 40
3.0
 40
4.0
 40
4.0
 40
4.0
 40
5.0
 40
5.0
 40
5.0
 40
6.0
 40
6.0
 40
6.0
 40
7.0
 40
7.0
 40
7.0
 40
8.0
 40
8.0
 40
8.0
 40
9.0
 40
9.0
 40
9.0
 40
10.0
 40
10.0
 40
10.0
 40
11.0
 40
11.0
 40
11.0
 40
12.0
 40
12.0
 40
12.0
 40
13.0
 40
13.0
 40
13.0
 40
14.0
 40
14.0
 40
14.0
 40
15.0
 40
15.0
 40
15.0
 40
15.0
 10
3120.5663041979
 20
17.8588913158
 30
0.0
 10
3120.5663041979
 20
17.8588913158
 30
0.0
 10
3120.8516942026
 20
17.8588913158
 30
0.0
 10
3120.8516942026
 20
17.8588913158
 30
0.0
 10
3120.8516942026
 20
17.8588913158
 30
0.0
 10
3120.5193280348
 20
18.2697691768
 30
0.0
 10
3120.5193280348
 20
18.2697691768
 30
0.0
 10
3120.5193280348
 20
18.2697691768
 30
0.0
 10
3120.7458342696
 20
18.535662111
 30
0.0
 10
3120.7458342696
 20
18.535662111
 30
0.0
 10
3120.7458342696
 20
18.535662111
 30
0.0
 10
3120.5975780223
 20
18.6884982071
 30
0.0
 10
3120.5975780223
 20
18.6884982071
 30
0.0
 10
3120.5975780223
 20
18.6884982071
 30
0.0
 10
3120.3816708661
 20
18.4372607889
 30
0.0
 10
3120.3816708661
 20
18.4372607889
 30
0.0
 10
3120.3816708661
 20
18.4372607889
 30
0.0
 10
3119.9946082187
 20
18.9051904803
 30
0.0
 10
3119.9946082187
 20
18.9051904803
 30
0.0
 10
3120.1500613712
 20
19.019294141
 30
0.0
 10
3120.3323393522
 20
19.1590449549
 30
0.0
 10
3120.3323393522
 20
19.36840947
 30
0.0
 10
3120.3323393522
 20
19.6123191302
 30
0.0
 10
3120.1303025951
 20
19.7557338231
 30
0.0
 10
3119.9037963602
 20
19.7557338231
 30
0.0
 10
3119.6596249944
 20
19.7557338231
 30
0.0
 10
3119.4752533683
 20
19.6049913722
 30
0.0
 10
3119.4752533683
 20
19.3485198411
 30
0.0
 10
3119.4752533683
 20
19.1909730434
 30
0.0
 10
3119.5739163961
 20
19.0533158747
 30
0.0
 10
3119.6792529177
 20
18.9423526817
 30
0.0
 10
3119.6792529177
 20
18.9423526817
 30
0.0
 10
3119.5637098759
 20
18.8586068757
 30
0.0
 10
3119.5637098759
 20
18.8586068757
 30
0.0
 10
3119.3860117437
 20
18.7303711101
 30
0.0
 10
3119.2386714662
 20
18.6026587559
 30
0.0
 10
3119.2386714662
 20
18.3655534425
 30
0.0
 10
3119.2386714662
 20
18.0452257343
 30
0.0
 10
3119.4972366424
 20
17.8191120579
 30
0.0
 10
3119.8076195361
 20
17.8191120579
 30
0.0
 10
3120.0265363072
 20
17.8191120579
 30
0.0
 10
3120.2237315099
 20
17.9442073557
 30
0.0
 10
3120.3640057351
 20
18.110128734
 30
0.0
 10
3120.3640057351
 20
18.110128734
 30
0.0
 10
3120.5663041979
 20
17.8588913158
 30
0.0
 10
3120.5663041979
 20
17.8588913158
 30
0.0
  0
LWPOLYLINE
  5
22D
330
20D
100
AcDbEntity
  8
0
  6
Continuous
 62
     7
100
AcDbPolyline
 90
        2
 70
     0
 43
0.2
 10
3122.501748
 20
19.715431
 10
3122.2704
 20
19.715431
  0
LWPOLYLINE
  5
22E
330
20D
100
AcDbEntity
  8
0
  6
Continuous
 62
     7
100
AcDbPolyline
 90
        2
 70
     0
 43
0.2
 10
3122.2704
 20
19.715431
 10
3122.2704
 20
17.858368
  0
LWPOLYLINE
  5
22F
330
20D
100
AcDbEntity
  8
0
  6
Continuous
 62
     7
100
AcDbPolyline
 90
        2
 70
     0
 43
0.2
 10
3122.2704
 20
17.858368
 10
3123.065724
 20
17.858368
  0
LWPOLYLINE
  5
230
330
20D
100
AcDbEntity
  8
0
  6
Continuous
 62
     7
100
AcDbPolyline
 90
        2
 70
     0
 43
0.2
 10
3123.065724
 20
17.858368
 10
3123.065724
 20
18.070349
  0
LWPOLYLINE
  5
231
330
20D
100
AcDbEntity
  8
0
  6
Continuous
 62
     7
100
AcDbPolyline
 90
        2
 70
     0
 43
0.2
 10
3123.065724
 20
18.070349
 10
3122.501748
 20
18.070349
  0
LWPOLYLINE
  5
232
330
20D
100
AcDbEntity
  8
0
  6
Continuous
 62
     7
100
AcDbPolyline
 90
        2
 70
     0
 43
0.2
 10
3122.501748
 20
18.070349
 10
3122.501748
 20
19.715431
  0
LWPOLYLINE
  5
233
330
20D
100
AcDbEntity
  8
0
  6
Continuous
 62
     7
100
AcDbPolyline
 90
        2
 70
     0
 43
0.2
 10
3124.744827
 20
19.01092
 10
3124.523686
 20
19.01092
  0
LWPOLYLINE
  5
234
330
20D
100
AcDbEntity
  8
0
  6
Continuous
 62
     7
100
AcDbPolyline
 90
        2
 70
     0
 43
0.2
 10
3124.523686
 20
19.01092
 10
3124.523686
 20
17.858891
  0
LWPOLYLINE
  5
235
330
20D
100
AcDbEntity
  8
0
  6
Continuous
 62
     7
100
AcDbPolyline
 90
        2
 70
     0
 43
0.2
 10
3124.523686
 20
17.858891
 10
3124.744827
 20
17.858891
  0
LWPOLYLINE
  5
236
330
20D
100
AcDbEntity
  8
0
  6
Continuous
 62
     7
100
AcDbPolyline
 90
        2
 70
     0
 43
0.2
 10
3124.744827
 20
17.858891
 10
3124.744827
 20
19.01092
  0
LWPOLYLINE
  5
237
330
20D
100
AcDbEntity
  8
0
  6
Continuous
 62
     7
100
AcDbPolyline
 90
        2
 70
     1
 43
0.2
 10
3124.481804
 20
19.540873
 42
1.0
 10
3124.786971
 20
19.540873
 42
1.0
  0
SPLINE
  5
238
330
20D
100
AcDbEntity
  8
0
  6
Continuous
 62
     7
100
AcDbSpline
 70
     3
 71
     3
 72
    17
 73
    13
 74
     0
 42
0.000000001
 43
0.0000001
 40
0.0
 40
0.0
 40
0.0
 40
0.0
 40
1.0
 40
1.0
 40
1.0
 40
2.0
 40
2.0
 40
2.0
 40
3.0
 40
3.0
 40
3.0
 40
4.0
 40
4.0
 40
4.0
 40
4.0
 10
3126.8751113034
 20
18.0164381135
 30
0.0
 10
3126.6411464577
 20
18.0164381135
 30
0.0
 10
3126.510817047
 20
18.2184748706
 30
0.0
 10
3126.510817047
 20
18.4346437325
 30
0.0
 10
3126.510817047
 20
18.6492423605
 30
0.0
 10
3126.6466422762
 20
18.8481386499
 30
0.0
 10
3126.8751113034
 20
18.8481386499
 30
0.0
 10
3127.1145719676
 20
18.8481386499
 30
0.0
 10
3127.2501354911
 20
18.659187175
 30
0.0
 10
3127.2501354911
 20
18.4346437325
 30
0.0
 10
3127.2501354911
 20
18.2085300561
 30
0.0
 10
3127.1169273184
 20
18.0164381135
 30
0.0
 10
3126.8751113034
 20
18.0164381135
 30
0.0
  0
SPLINE
  5
239
330
20D
100
AcDbEntity
  8
0
  6
Continuous
 62
     7
100
AcDbSpline
 70
     3
 71
     3
 72
    50
 73
    46
 74
     0
 42
0.000000001
 43
0.0000001
 40
0.0
 40
0.0
 40
0.0
 40
0.0
 40
1.0
 40
1.0
 40
1.0
 40
2.0
 40
2.0
 40
2.0
 40
3.0
 40
3.0
 40
3.0
 40
4.0
 40
4.0
 40
4.0
 40
5.0
 40
5.0
 40
5.0
 40
6.0
 40
6.0
 40
6.0
 40
7.0
 40
7.0
 40
7.0
 40
8.0
 40
8.0
 40
8.0
 40
9.0
 40
9.0
 40
9.0
 40
10.0
 40
10.0
 40
10.0
 40
11.0
 40
11.0
 40
11.0
 40
12.0
 40
12.0
 40
12.0
 40
13.0
 40
13.0
 40
13.0
 40
14.0
 40
14.0
 40
14.0
 40
15.0
 40
15.0
 40
15.0
 40
15.0
 10
3127.4592383006
 20
19.0114429717
 30
0.0
 10
3127.4592383006
 20
19.0114429717
 30
0.0
 10
3127.2375736202
 20
19.0114429717
 30
0.0
 10
3127.2375736202
 20
19.0114429717
 30
0.0
 10
3127.2375736202
 20
19.0114429717
 30
0.0
 10
3127.2375736202
 20
18.8141169162
 30
0.0
 10
3127.2375736202
 20
18.8141169162
 30
0.0
 10
3127.2375736202
 20
18.8141169162
 30
0.0
 10
3127.2328629186
 20
18.8141169162
 30
0.0
 10
3127.2328629186
 20
18.8141169162
 30
0.0
 10
3127.1415276489
 20
18.9570081978
 30
0.0
 10
3127.0036087745
 20
19.0454647054
 30
0.0
 10
3126.8308830495
 20
19.0454647054
 30
0.0
 10
3126.4985168818
 20
19.0454647054
 30
0.0
 10
3126.2894140722
 20
18.7575884971
 30
0.0
 10
3126.2894140722
 20
18.4419714905
 30
0.0
 10
3126.2894140722
 20
18.1122223791
 30
0.0
 10
3126.4864784221
 20
17.8191120579
 30
0.0
 10
3126.8413512753
 20
17.8191120579
 30
0.0
 10
3127.0036087745
 20
17.8191120579
 30
0.0
 10
3127.1436212941
 20
17.9075685656
 30
0.0
 10
3127.2328629186
 20
18.0384213876
 30
0.0
 10
3127.2328629186
 20
18.0384213876
 30
0.0
 10
3127.2375736202
 20
18.0384213876
 30
0.0
 10
3127.2375736202
 20
18.0384213876
 30
0.0
 10
3127.2375736202
 20
18.0384213876
 30
0.0
 10
3127.2375736202
 20
17.8191120579
 30
0.0
 10
3127.2375736202
 20
17.8191120579
 30
0.0
 10
3127.2375736202
 20
17.5825301558
 30
0.0
 10
3127.1810452011
 20
17.3956723261
 30
0.0
 10
3126.9078245089
 20
17.3956723261
 30
0.0
 10
3126.7055260461
 20
17.3956723261
 30
0.0
 10
3126.5628964702
 20
17.5139632771
 30
0.0
 10
3126.5628964702
 20
17.7201873245
 30
0.0
 10
3126.5628964702
 20
17.7201873245
 30
0.0
 10
3126.3412317897
 20
17.7201873245
 30
0.0
 10
3126.3412317897
 20
17.7201873245
 30
0.0
 10
3126.346204197
 20
17.3956723261
 30
0.0
 10
3126.5772902806
 20
17.1988696818
 30
0.0
 10
3126.8976179888
 20
17.1988696818
 30
0.0
 10
3127.3456580512
 20
17.1988696818
 30
0.0
 10
3127.4592383006
 20
17.4841288337
 30
0.0
 10
3127.4592383006
 20
17.8808745899
 30
0.0
 10
3127.4592383006
 20
17.8808745899
 30
0.0
 10
3127.4592383006
 20
19.0114429717
 30
0.0
 10
3127.4592383006
 20
19.0114429717
 30
0.0
  0
SPLINE
  5
23A
330
20D
100
AcDbEntity
  8
0
  6
Continuous
 62
     7
100
AcDbSpline
 70
     3
 71
     3
 72
    44
 73
    40
 74
     0
 42
0.000000001
 43
0.0000001
 40
0.0
 40
0.0
 40
0.0
 40
0.0
 40
1.0
 40
1.0
 40
1.0
 40
2.0
 40
2.0
 40
2.0
 40
3.0
 40
3.0
 40
3.0
 40
4.0
 40
4.0
 40
4.0
 40
5.0
 40
5.0
 40
5.0
 40
6.0
 40
6.0
 40
6.0
 40
7.0
 40
7.0
 40
7.0
 40
8.0
 40
8.0
 40
8.0
 40
9.0
 40
9.0
 40
9.0
 40
10.0
 40
10.0
 40
10.0
 40
11.0
 40
11.0
 40
11.0
 40
12.0
 40
12.0
 40
12.0
 40
13.0
 40
13.0
 40
13.0
 40
13.0
 10
3129.028163636
 20
19.9965030155
 30
0.0
 10
3129.028163636
 20
19.9965030155
 30
0.0
 10
3129.028163636
 20
17.8583679045
 30
0.0
 10
3129.028163636
 20
17.8583679045
 30
0.0
 10
3129.028163636
 20
17.8583679045
 30
0.0
 10
3129.2495666108
 20
17.8583679045
 30
0.0
 10
3129.2495666108
 20
17.8583679045
 30
0.0
 10
3129.2495666108
 20
17.8583679045
 30
0.0
 10
3129.2495666108
 20
18.3880601279
 30
0.0
 10
3129.2495666108
 20
18.3880601279
 30
0.0
 10
3129.2495666108
 20
18.5979480543
 30
0.0
 10
3129.2495666108
 20
18.8486620612
 30
0.0
 10
3129.5348257627
 20
18.8486620612
 30
0.0
 10
3129.761724556
 20
18.8486620612
 30
0.0
 10
3129.7886802373
 20
18.7157155941
 30
0.0
 10
3129.7886802373
 20
18.5194363611
 30
0.0
 10
3129.7886802373
 20
18.5194363611
 30
0.0
 10
3129.7886802373
 20
17.8583679045
 30
0.0
 10
3129.7886802373
 20
17.8583679045
 30
0.0
 10
3129.7886802373
 20
17.8583679045
 30
0.0
 10
3130.0106066234
 20
17.8583679045
 30
0.0
 10
3130.0106066234
 20
17.8583679045
 30
0.0
 10
3130.0106066234
 20
17.8583679045
 30
0.0
 10
3130.0106066234
 20
18.5456069255
 30
0.0
 10
3130.0106066234
 20
18.5456069255
 30
0.0
 10
3130.0106066234
 20
18.8261553758
 30
0.0
 10
3129.9265991117
 20
19.0459881167
 30
0.0
 10
3129.6015607019
 20
19.0459881167
 30
0.0
 10
3129.461809888
 20
19.0459881167
 30
0.0
 10
3129.323629308
 20
18.9795148831
 30
0.0
 10
3129.2542773124
 20
18.8565132305
 30
0.0
 10
3129.2542773124
 20
18.8565132305
 30
0.0
 10
3129.2495666108
 20
18.8565132305
 30
0.0
 10
3129.2495666108
 20
18.8565132305
 30
0.0
 10
3129.2495666108
 20
18.8565132305
 30
0.0
 10
3129.2495666108
 20
19.9965030155
 30
0.0
 10
3129.2495666108
 20
19.9965030155
 30
0.0
 10
3129.2495666108
 20
19.9965030155
 30
0.0
 10
3129.028163636
 20
19.9965030155
 30
0.0
 10
3129.028163636
 20
19.9965030155
 30
0.0
  0
LWPOLYLINE
  5
23B
330
20D
100
AcDbEntity
  8
0
  6
Continuous
 62
     7
100
AcDbPolyline
 90
        2
 70
     0
 43
0.2
 10
3131.850397
 20
18.804172
 10
3132.066828
 20
18.804172
  0
LWPOLYLINE
  5
23C
330
20D
100
AcDbEntity
  8
0
  6
Continuous
 62
     7
100
AcDbPolyline
 90
        2
 70
     0
 43
0.2
 10
3132.066828
 20
18.804172
 10
3132.066828
 20
19.01092
  0
LWPOLYLINE
  5
23D
330
20D
100
AcDbEntity
  8
0
  6
Continuous
 62
     7
100
AcDbPolyline
 90
        2
 70
     0
 43
0.2
 10
3132.066828
 20
19.01092
 10
3131.850397
 20
19.01092
  0
LWPOLYLINE
  5
23E
330
20D
100
AcDbEntity
  8
0
  6
Continuous
 62
     7
100
AcDbPolyline
 90
        2
 70
     0
 43
0.2
 10
3131.850397
 20
19.01092
 10
3131.850397
 20
19.451632
  0
LWPOLYLINE
  5
23F
330
20D
100
AcDbEntity
  8
0
  6
Continuous
 62
     7
100
AcDbPolyline
 90
        2
 70
     0
 43
0.2
 10
3131.850397
 20
19.451632
 10
3131.628733
 20
19.451632
  0
LWPOLYLINE
  5
240
330
20D
100
AcDbEntity
  8
0
  6
Continuous
 62
     7
100
AcDbPolyline
 90
        2
 70
     0
 43
0.2
 10
3131.628733
 20
19.451632
 10
3131.628733
 20
19.01092
  0
LWPOLYLINE
  5
241
330
20D
100
AcDbEntity
  8
0
  6
Continuous
 62
     7
100
AcDbPolyline
 90
        2
 70
     0
 43
0.2
 10
3131.628733
 20
19.01092
 10
3131.508086
 20
19.01092
  0
LWPOLYLINE
  5
242
330
20D
100
AcDbEntity
  8
0
  6
Continuous
 62
     7
100
AcDbPolyline
 90
        2
 70
     0
 43
0.2
 10
3131.508086
 20
19.01092
 10
3131.508086
 20
18.804172
  0
LWPOLYLINE
  5
243
330
20D
100
AcDbEntity
  8
0
  6
Continuous
 62
     7
100
AcDbPolyline
 90
        2
 70
     0
 43
0.2
 10
3131.508086
 20
18.804172
 10
3131.628733
 20
18.804172
  0
LWPOLYLINE
  5
244
330
20D
100
AcDbEntity
  8
0
  6
Continuous
 62
     7
100
AcDbPolyline
 90
        2
 70
     0
 43
0.2
 10
3131.628733
 20
18.804172
 10
3131.628733
 20
17.858368
  0
LWPOLYLINE
  5
245
330
20D
100
AcDbEntity
  8
0
  6
Continuous
 62
     7
100
AcDbPolyline
 90
        2
 70
     0
 43
0.2
 10
3131.628733
 20
17.858368
 10
3131.850397
 20
17.858368
  0
LWPOLYLINE
  5
246
330
20D
100
AcDbEntity
  8
0
  6
Continuous
 62
     7
100
AcDbPolyline
 90
        2
 70
     0
 43
0.2
 10
3131.850397
 20
17.858368
 10
3131.850397
 20
18.804172
  0
SPLINE
  5
247
330
20D
100
AcDbEntity
  8
0
  6
Continuous
 62
     7
100
AcDbSpline
 70
     3
 71
     3
 72
    20
 73
    16
 74
     0
 42
0.000000001
 43
0.0000001
 40
0.0
 40
0.0
 40
0.0
 40
0.0
 40
1.0
 40
1.0
 40
1.0
 40
2.0
 40
2.0
 40
2.0
 40
3.0
 40
3.0
 40
3.0
 40
4.0
 40
4.0
 40
4.0
 40
5.0
 40
5.0
 40
5.0
 40
5.0
 10
3119.6324076075
 20
28.2192943479
 30
0.0
 10
3119.6324076075
 20
28.2192943479
 30
0.0
 10
3121.9487642619
 20
25.3897329257
 30
0.0
 10
3121.9487642619
 20
25.3897329257
 30
0.0
 10
3121.2971172085
 20
24.737562461
 30
0.0
 10
3120.5202440045
 20
24.0016461903
 30
0.0
 10
3119.5490543599
 20
24.0016461903
 30
0.0
 10
3118.5505164754
 20
24.0016461903
 30
0.0
 10
3117.6071984819
 20
24.9312246375
 30
0.0
 10
3117.6071984819
 20
25.9304167861
 30
0.0
 10
3117.6071984819
 20
26.9296089346
 30
0.0
 10
3118.786051555
 20
27.6362141732
 30
0.0
 10
3119.5075740153
 20
28.1360719531
 30
0.0
 10
3119.5075740153
 20
28.1360719531
 30
0.0
 10
3119.6324076075
 20
28.2192943479
 30
0.0
 10
3119.6324076075
 20
28.2192943479
 30
0.0
  0
SPLINE
  5
248
330
20D
100
AcDbEntity
  8
0
  6
Continuous
 62
     7
100
AcDbSpline
 70
     3
 71
     3
 72
    23
 73
    19
 74
     0
 42
0.000000001
 43
0.0000001
 40
0.0
 40
0.0
 40
0.0
 40
0.0
 40
1.0
 40
1.0
 40
1.0
 40
2.0
 40
2.0
 40
2.0
 40
3.0
 40
3.0
 40
3.0
 40
4.0
 40
4.0
 40
4.0
 40
5.0
 40
5.0
 40
5.0
 40
6.0
 40
6.0
 40
6.0
 40
6.0
 10
3119.90981559
 20
29.8570482677
 30
0.0
 10
3119.90981559
 20
29.8570482677
 30
0.0
 10
3119.5633173175
 20
30.3003776285
 30
0.0
 10
3119.5633173175
 20
30.3003776285
 30
0.0
 10
3119.2575142725
 20
30.6884870984
 30
0.0
 10
3118.9386259454
 20
31.0769891269
 30
0.0
 10
3118.9386259454
 20
31.6039334409
 30
0.0
 10
3118.9386259454
 20
32.2701051576
 30
0.0
 10
3119.4799640699
 20
32.7138270769
 30
0.0
 10
3120.103870325
 20
32.7138270769
 30
0.0
 10
3120.7976519871
 20
32.7138270769
 30
0.0
 10
3121.3248580068
 20
32.3115855021
 30
0.0
 10
3121.3248580068
 20
31.5765852011
 30
0.0
 10
3121.3248580068
 20
30.8133206906
 30
0.0
 10
3120.6035972521
 20
30.3832074648
 30
0.0
 10
3120.0765220852
 20
29.9674880494
 30
0.0
 10
3120.0765220852
 20
29.9674880494
 30
0.0
 10
3119.90981559
 20
29.8570482677
 30
0.0
 10
3119.90981559
 20
29.8570482677
 30
0.0
  0
SPLINE
  5
249
330
20D
100
AcDbEntity
  8
0
  6
Continuous
 62
     7
100
AcDbSpline
 70
     3
 71
     3
 72
    50
 73
    46
 74
     0
 42
0.000000001
 43
0.0000001
 40
0.0
 40
0.0
 40
0.0
 40
0.0
 40
1.0
 40
1.0
 40
1.0
 40
2.0
 40
2.0
 40
2.0
 40
3.0
 40
3.0
 40
3.0
 40
4.0
 40
4.0
 40
4.0
 40
5.0
 40
5.0
 40
5.0
 40
6.0
 40
6.0
 40
6.0
 40
7.0
 40
7.0
 40
7.0
 40
8.0
 40
8.0
 40
8.0
 40
9.0
 40
9.0
 40
9.0
 40
10.0
 40
10.0
 40
10.0
 40
11.0
 40
11.0
 40
11.0
 40
12.0
 40
12.0
 40
12.0
 40
13.0
 40
13.0
 40
13.0
 40
14.0
 40
14.0
 40
14.0
 40
15.0
 40
15.0
 40
15.0
 40
15.0
 10
3123.863402753
 20
23.0584590495
 30
0.0
 10
3123.863402753
 20
23.0584590495
 30
0.0
 10
3125.4726307575
 20
23.0584590495
 30
0.0
 10
3125.4726307575
 20
23.0584590495
 30
0.0
 10
3125.4726307575
 20
23.0584590495
 30
0.0
 10
3123.5996034639
 20
25.3756008209
 30
0.0
 10
3123.5996034639
 20
25.3756008209
 30
0.0
 10
3123.5996034639
 20
25.3756008209
 30
0.0
 10
3124.8759418894
 20
26.8730805155
 30
0.0
 10
3124.8759418894
 20
26.8730805155
 30
0.0
 10
3124.8759418894
 20
26.8730805155
 30
0.0
 10
3124.0437179416
 20
27.7340920841
 30
0.0
 10
3124.0437179416
 20
27.7340920841
 30
0.0
 10
3124.0437179416
 20
27.7340920841
 30
0.0
 10
3122.8231228183
 20
26.3187879617
 30
0.0
 10
3122.8231228183
 20
26.3187879617
 30
0.0
 10
3122.8231228183
 20
26.3187879617
 30
0.0
 10
3120.6452084495
 20
28.9541637961
 30
0.0
 10
3120.6452084495
 20
28.9541637961
 30
0.0
 10
3121.518781889
 20
29.592202156
 30
0.0
 10
3122.5454531301
 20
30.3832074648
 30
0.0
 10
3122.5454531301
 20
31.5620605379
 30
0.0
 10
3122.5454531301
 20
32.9357534629
 30
0.0
 10
3121.4075569903
 20
33.7402366124
 30
0.0
 10
3120.1322653874
 20
33.7402366124
 30
0.0
 10
3118.758834168
 20
33.7402366124
 30
0.0
 10
3117.7178999693
 20
32.8940114127
 30
0.0
 10
3117.7178999693
 20
31.4513590505
 30
0.0
 10
3117.7178999693
 20
30.5637843591
 30
0.0
 10
3118.2732393457
 20
29.7869111551
 30
0.0
 10
3118.8694048026
 20
29.1624814887
 30
0.0
 10
3118.8694048026
 20
29.1624814887
 30
0.0
 10
3118.2174960435
 20
28.6908879183
 30
0.0
 10
3118.2174960435
 20
28.6908879183
 30
0.0
 10
3117.2189581591
 20
27.9696271636
 30
0.0
 10
3116.3860799473
 20
27.2483664089
 30
0.0
 10
3116.3860799473
 20
25.9168080926
 30
0.0
 10
3116.3860799473
 20
24.1131327946
 30
0.0
 10
3117.8431261199
 20
22.8365326635
 30
0.0
 10
3119.5906655573
 20
22.8365326635
 30
0.0
 10
3120.8255236382
 20
22.8365326635
 30
0.0
 10
3121.9348938628
 20
23.544708136
 30
0.0
 10
3122.7257683188
 20
24.4732397606
 30
0.0
 10
3122.7257683188
 20
24.4732397606
 30
0.0
 10
3123.863402753
 20
23.0584590495
 30
0.0
 10
3123.863402753
 20
23.0584590495
 30
0.0
  0
LINE
  5
24A
330
20D
100
AcDbEntity
  8
0
  6
Continuous
 62
     7
100
AcDbLine
 10
3109.666264
 20
21.032334
 30
0.0
 11
3132.080175
 21
21.032334
 31
0.0
  0
LINE
  5
24B
330
20D
100
AcDbEntity
  8
0
  6
Continuous
 62
     7
100
AcDbLine
 10
3132.080175
 20
21.032334
 30
0.0
 11
3132.080175
 21
43.446245
 31
0.0
  0
LINE
  5
24C
330
20D
100
AcDbEntity
  8
0
  6
Continuous
 62
     7
100
AcDbLine
 10
3132.080175
 20
43.446245
 30
0.0
 11
3109.666264
 21
43.446245
 31
0.0
  0
LINE
  5
24D
330
20D
100
AcDbEntity
  8
0
  6
Continuous
 62
     7
100
AcDbLine
 10
3109.666264
 20
43.446245
 30
0.0
 11
3109.666264
 21
21.032334
 31
0.0
  0
ENDBLK
  5
24E
330
20D
100
AcDbEntity
  8
0
  6
ByBlock
 62
     0
100
AcDbBlockEnd
  0
BLOCK
  5
270
330
20E
100
AcDbEntity
  8
0
100
AcDbBlockBegin
  2
*T5
 70
     1
 10
0.0
 20
0.0
 30
0.0
  3
*T5
  1
*T5
  0
LINE
  5
271
330
20E
100
AcDbEntity
  8
0
  6
Continuous
 62
     2
100
AcDbLine
 10
0.0
 20
0.0
 30
0.0
 11
90.0
 21
0.0
 31
0.0
  0
LINE
  5
272
330
20E
100
AcDbEntity
  8
0
  6
Continuous
 62
     2
100
AcDbLine
 10
0.0
 20
0.0
 30
0.0
 11
0.0
 21
-40.0
 31
0.0
  0
LINE
  5
273
330
20E
100
AcDbEntity
  8
0
  6
Continuous
 62
     2
100
AcDbLine
 10
30.0
 20
-6.0
 30
0.0
 11
90.0
 21
-6.0
 31
0.0
  0
LINE
  5
274
330
20E
100
AcDbEntity
  8
0
  6
Continuous
 62
     2
100
AcDbLine
 10
30.0
 20
-12.0
 30
0.0
 11
90.0
 21
-12.0
 31
0.0
  0
LINE
  5
275
330
20E
100
AcDbEntity
  8
0
  6
Continuous
 62
     2
100
AcDbLine
 10
30.0
 20
-22.0
 30
0.0
 11
90.0
 21
-22.0
 31
0.0
  0
LINE
  5
276
330
20E
100
AcDbEntity
  8
0
  6
Continuous
 62
     2
100
AcDbLine
 10
0.0
 20
-27.0
 30
0.0
 11
90.0
 21
-27.0
 31
0.0
  0
LINE
  5
277
330
20E
100
AcDbEntity
  8
0
  6
Continuous
 62
     2
100
AcDbLine
 10
0.0
 20
-40.0
 30
0.0
 11
90.0
 21
-40.0
 31
0.0
  0
LINE
  5
278
330
20E
100
AcDbEntity
  8
0
  6
Continuous
 62
     2
100
AcDbLine
 10
30.0
 20
0.0
 30
0.0
 11
30.0
 21
-27.0
 31
0.0
  0
LINE
  5
279
330
20E
100
AcDbEntity
  8
0
  6
Continuous
 62
     2
100
AcDbLine
 10
70.0
 20
0.0
 30
0.0
 11
70.0
 21
-12.0
 31
0.0
  0
LINE
  5
27A
330
20E
100
AcDbEntity
  8
0
  6
Continuous
 62
     2
100
AcDbLine
 10
90.0
 20
0.0
 30
0.0
 11
90.0
 21
-40.0
 31
0.0
  0
MTEXT
  5
27B
330
20E
100
AcDbEntity
  8
9_SOLID
  6
Continuous
 62
     2
100
AcDbMText
 10
31.4875
 20
-1.5
 30
0.0
 40
3.0
 41
48.914498
 46
0.0
 71
     1
 72
     1
  1
A180_C_402
 73
     1
 44
0.9
  0
MTEXT
  5
27C
330
20E
100
AcDbEntity
  8
9_SOLID
  6
Continuous
 62
     2
100
AcDbMText
 10
71.4875
 20
-1.25
 30
0.0
 40
3.5
 41
30.966543
 46
0.0
 71
     1
 72
     1
  1
Rev:00
 73
     1
 44
0.9
  0
MTEXT
  5
27D
330
20E
100
AcDbEntity
  8
9_SOLID
  6
Continuous
 62
     2
100
AcDbMText
 10
31.4875
 20
-7.75
 30
0.0
 40
3.5
 41
40.724907
 46
0.0
 71
     1
 72
     1
  1
Scale:1:1
 73
     1
 44
0.9
  0
MTEXT
  5
27E
330
20E
100
AcDbEntity
  8
9_SOLID
  6
Continuous
 62
     2
100
AcDbMText
 10
71.4875
 20
-8.05
 30
0.0
 40
1.9
 41
32.165799
 46
0.0
 71
     1
 72
     1
  1
3200 by 2500
 73
     1
 44
0.9
  0
MTEXT
  5
27F
330
20E
100
AcDbEntity
  8
9_SOLID
  6
Continuous
 62
     2
100
AcDbMText
 10
31.4875
 20
-15.25
 30
0.0
 40
3.5
 41
169.743494
 46
0.0
 71
     1
 72
     1
  1
CASSAFORMA TRIM COLORADO 1.2
 73
     1
 44
0.9
  0
MTEXT
  5
280
330
20E
100
AcDbEntity
  8
9_SOLID
  6
Continuous
 62
     2
100
AcDbMText
 10
31.4875
 20
-23.25
 30
0.0
 40
2.5
 41
47.695167
 46
0.0
 71
     1
 72
     1
  1
DATE:30.08.22
 73
     1
 44
0.9
  0
MTEXT
  5
281
330
20E
100
AcDbEntity
  8
9_SOLID
  6
Continuous
 62
     2
100
AcDbMText
 10
1.4875
 20
-27.3125
 30
0.0
 40
2.25
 41
148.98513
 46
0.0
 71
     1
 72
     1
  1
Any integral or partial reproductions are prohibited \Pwithout prior authorisation of L & L Luce & Light s.r.l., \Pin accordance with the law in force. \PAll rights reserved.
 73
     1
 44
0.9
  0
ENDBLK
  5
282
330
20E
100
AcDbEntity
  8
0
  6
ByBlock
 62
     0
100
AcDbBlockEnd
  0
ENDSEC
  0
SECTION
  2
ENTITIES
  0
LINE
  5
283
330
207
100
AcDbEntity
  8
0
  6
Continuous
 62
     7
100
AcDbLine
 10
0.0
 20
0.0
 30
0.0
 11
3200.0
 21
0.0
 31
0.0
  0
LINE
  5
284
330
207
100
AcDbEntity
  8
0
  6
Continuous
 62
     7
100
AcDbLine
 10
3200.0
 20
0.0
 30
0.0
 11
3200.0
 21
2500.0
 31
0.0
  0
LINE
  5
285
330
207
100
AcDbEntity
  8
0
  6
Continuous
 62
     7
100
AcDbLine
 10
0.0
 20
2500.0
 30
0.0
 11
3200.0
 21
2500.0
 31
0.0
  0
LINE
  5
286
330
207
100
AcDbEntity
  8
0
  6
Continuous
 62
     7
100
AcDbLine
 10
0.0
 20
0.0
 30
0.0
 11
0.0
 21
2500.0
 31
0.0
  0
ARC
  5
287
330
207
100
AcDbEntity
  8
3_ALL_AXES
  6
Continuous
 62
     7
100
AcDbCircle
 10
1578.109756
 20
1984.987805
 30
0.0
 40
8.0
100
AcDbArc
 50
338.746191
 51
360.0
  0
LINE
  5
288
330
207
100
AcDbEntity
  8
3_ALL_AXES
  6
Continuous
 62
     7
100
AcDbLine
 10
1585.565626
 20
1987.887805
 30
0.0
 11
1584.859756
 21
1987.887805
 31
0.0
  0
LINE
  5
289
330
207
100
AcDbEntity
  8
3_ALL_AXES
  6
Continuous
 62
     7
100
AcDbLine
 10
1585.565626
 20
1982.087805
 30
0.0
 11
1584.859756
 21
1982.087805
 31
0.0
  0
ARC
  5
28A
330
207
100
AcDbEntity
  8
3_ALL_AXES
  6
Continuous
 62
     7
100
AcDbCircle
 10
1578.109756
 20
1984.987805
 30
0.0
 40
8.0
100
AcDbArc
 50
0.0
 51
21.253809
  0
LINE
  5
28B
330
207
100
AcDbEntity
  8
3_ALL_AXES
  6
Continuous
 62
     7
100
AcDbLine
 10
1585.565626
 20
1984.987805
 30
0.0
 11
1585.565626
 21
1982.087805
 31
0.0
  0
LINE
  5
28C
330
207
100
AcDbEntity
  8
3_ALL_AXES
  6
Continuous
 62
     7
100
AcDbLine
 10
1585.565626
 20
1984.987805
 30
0.0
 11
1585.565626
 21
1987.887805
 31
0.0
  0
ARC
  5
28D
330
207
100
AcDbEntity
  8
3_ALL_AXES
  6
Continuous
 62
     7
100
AcDbCircle
 10
323.109756
 20
1984.987805
 30
0.0
 40
8.0
100
AcDbArc
 50
180.0
 51
201.253809
  0
LINE
  5
28E
330
207
100
AcDbEntity
  8
3_ALL_AXES
  6
Continuous
 62
     7
100
AcDbLine
 10
315.653886
 20
1982.087805
 30
0.0
 11
316.359756
 21
1982.087805
 31
0.0
  0
LINE
  5
28F
330
207
100
AcDbEntity
  8
3_ALL_AXES
  6
Continuous
 62
     7
100
AcDbLine
 10
315.653886
 20
1987.887805
 30
0.0
 11
316.359756
 21
1987.887805
 31
0.0
  0
ARC
  5
290
330
207
100
AcDbEntity
  8
3_ALL_AXES
  6
Continuous
 62
     7
100
AcDbCircle
 10
323.109756
 20
1984.987805
 30
0.0
 40
8.0
100
AcDbArc
 50
158.746191
 51
180.0
  0
LINE
  5
291
330
207
100
AcDbEntity
  8
3_ALL_AXES
  6
Continuous
 62
     7
100
AcDbLine
 10
315.653886
 20
1982.087805
 30
0.0
 11
315.653886
 21
1984.987805
 31
0.0
  0
LINE
  5
292
330
207
100
AcDbEntity
  8
3_ALL_AXES
  6
Continuous
 62
     7
100
AcDbLine
 10
315.653886
 20
1987.887805
 30
0.0
 11
315.653886
 21
1984.987805
 31
0.0
  0
SPLINE
  5
293
330
207
100
AcDbEntity
  8
7_ALL_FEATURES
  6
Continuous
 62
     7
100
AcDbSpline
 70
     0
 71
     3
 72
     9
 73
     5
 74
     0
 42
0.000000001
 43
0.0000001
 40
0.0
 40
0.0
 40
0.0
 40
0.0
 40
0.228676813
 40
1.0
 40
1.0
 40
1.0
 40
1.0
 10
1584.0021173042
 20
1984.487804878
 30
0.0
 10
1583.9521949795
 20
1984.487804878
 30
0.0
 10
1583.7339262633
 20
1984.4992462256
 30
0.0
 10
1583.5187539875
 20
1984.5512222036
 30
0.0
 10
1583.359965323
 20
1984.6072615351
 30
0.0
  0
ARC
  5
294
330
207
100
AcDbEntity
  8
7_ALL_FEATURES
  6
Continuous
 62
     7
100
AcDbCircle
 10
1584.136048
 20
1986.806227
 30
0.0
 40
2.3318986516
100
AcDbArc
 50
246.671647
 51
250.560494
  0
SPLINE
  5
295
330
207
100
AcDbEntity
  8
7_ALL_FEATURES
  6
Continuous
 62
     7
100
AcDbSpline
 70
     0
 71
     3
 72
     9
 73
     5
 74
     0
 42
0.000000001
 43
0.0000001
 40
0.0
 40
0.0
 40
0.0
 40
0.0
 40
0.4930611892
 40
1.0
 40
1.0
 40
1.0
 40
1.0
 10
1583.2126160412
 20
1984.6649594161
 30
0.0
 10
1582.9468409372
 20
1984.779578703
 30
0.0
 10
1582.4368375357
 20
1985.1022755075
 30
0.0
 10
1582.1609546726
 20
1985.6902210576
 30
0.0
 10
1582.1609546726
 20
1985.987804878
 30
0.0
  0
SPLINE
  5
296
330
207
100
AcDbEntity
  8
7_ALL_FEATURES
  6
Continuous
 62
     7
100
AcDbSpline
 70
     0
 71
     3
 72
     9
 73
     5
 74
     0
 42
0.000000001
 43
0.0000001
 40
0.0
 40
0.0
 40
0.0
 40
0.0
 40
0.228676813
 40
1.0
 40
1.0
 40
1.0
 40
1.0
 10
1584.0021173042
 20
1877.487804878
 30
0.0
 10
1583.9521949795
 20
1877.487804878
 30
0.0
 10
1583.7339262633
 20
1877.4992462256
 30
0.0
 10
1583.5187539875
 20
1877.5512222036
 30
0.0
 10
1583.359965323
 20
1877.6072615351
 30
0.0
  0
ARC
  5
297
330
207
100
AcDbEntity
  8
7_ALL_FEATURES
  6
Continuous
 62
     7
100
AcDbCircle
 10
1584.136048
 20
1879.806227
 30
0.0
 40
2.3318986517
100
AcDbArc
 50
246.671647
 51
250.560494
  0
SPLINE
  5
298
330
207
100
AcDbEntity
  8
7_ALL_FEATURES
  6
Continuous
 62
     7
100
AcDbSpline
 70
     0
 71
     3
 72
     9
 73
     5
 74
     0
 42
0.000000001
 43
0.0000001
 40
0.0
 40
0.0
 40
0.0
 40
0.0
 40
0.4930611892
 40
1.0
 40
1.0
 40
1.0
 40
1.0
 10
1583.2126160412
 20
1877.6649594161
 30
0.0
 10
1582.9468409372
 20
1877.779578703
 30
0.0
 10
1582.4368375357
 20
1878.1022755075
 30
0.0
 10
1582.1609546726
 20
1878.6902210576
 30
0.0
 10
1582.1609546726
 20
1878.987804878
 30
0.0
  0
LINE
  5
299
330
207
100
AcDbEntity
  8
7_ALL_FEATURES
  6
Continuous
 62
     7
100
AcDbLine
 10
1584.859756
 20
1875.487805
 30
0.0
 11
1584.859756
 21
1873.737805
 31
0.0
  0
LINE
  5
29A
330
207
100
AcDbEntity
  8
7_ALL_FEATURES
  6
Continuous
 62
     7
100
AcDbLine
 10
1584.859756
 20
1873.737805
 30
0.0
 11
1584.859756
 21
1873.237805
 31
0.0
  0
LINE
  5
29B
330
207
100
AcDbEntity
  8
7_ALL_FEATURES
  6
Continuous
 62
     7
100
AcDbLine
 10
1584.859756
 20
1873.237805
 30
0.0
 11
1584.859756
 21
1872.737805
 31
0.0
  0
LINE
  5
29C
330
207
100
AcDbEntity
  8
7_ALL_FEATURES
  6
Continuous
 62
     7
100
AcDbLine
 10
1584.859756
 20
1872.737805
 30
0.0
 11
1584.859756
 21
1857.237805
 31
0.0
  0
LINE
  5
29D
330
207
100
AcDbEntity
  8
7_ALL_FEATURES
  6
Continuous
 62
     7
100
AcDbLine
 10
1584.859756
 20
1857.237805
 30
0.0
 11
1584.859756
 21
1855.237805
 31
0.0
  0
LINE
  5
29E
330
207
100
AcDbEntity
  8
7_ALL_FEATURES
  6
Continuous
 62
     7
100
AcDbLine
 10
1584.859756
 20
2005.737805
 30
0.0
 11
1584.859756
 21
2004.737805
 31
0.0
  0
ARC
  5
29F
330
207
100
AcDbEntity
  8
7_ALL_FEATURES
  6
Continuous
 62
     7
100
AcDbCircle
 10
1571.402799
 20
1876.987805
 30
0.0
 40
1.5
100
AcDbArc
 50
180.0
 51
189.648474
  0
LINE
  5
2A0
330
207
100
AcDbEntity
  8
7_ALL_FEATURES
  6
Continuous
 62
     7
100
AcDbLine
 10
1569.902799
 20
1880.987805
 30
0.0
 11
1569.902799
 21
1876.987805
 31
0.0
  0
ARC
  5
2A1
330
207
100
AcDbEntity
  8
7_ALL_FEATURES
  6
Continuous
 62
     7
100
AcDbCircle
 10
1571.402799
 20
1880.987805
 30
0.0
 40
1.5
100
AcDbArc
 50
170.351526
 51
180.0
  0
ARC
  5
2A2
330
207
100
AcDbEntity
  8
3_ALL_AXES
  6
Continuous
 62
     7
100
AcDbCircle
 10
1574.250951
 20
1878.987805
 30
0.0
 40
0.95
100
AcDbArc
 50
180.0
 51
360.0
  0
ARC
  5
2A3
330
207
100
AcDbEntity
  8
3_ALL_AXES
  6
Continuous
 62
     7
100
AcDbCircle
 10
1574.250951
 20
1878.987805
 30
0.0
 40
0.95
100
AcDbArc
 50
0.0
 51
180.0
  0
LINE
  5
2A4
330
207
100
AcDbEntity
  8
7_ALL_FEATURES
  6
Continuous
 62
     7
100
AcDbLine
 10
1584.859756
 20
2004.737805
 30
0.0
 11
1584.859756
 21
1992.237805
 31
0.0
  0
LINE
  5
2A5
330
207
100
AcDbEntity
  8
7_ALL_FEATURES
  6
Continuous
 62
     7
100
AcDbLine
 10
1584.859756
 20
1992.237805
 30
0.0
 11
1584.859756
 21
1991.737805
 31
0.0
  0
LINE
  5
2A6
330
207
100
AcDbEntity
  8
7_ALL_FEATURES
  6
Continuous
 62
     7
100
AcDbLine
 10
1584.859756
 20
1991.737805
 30
0.0
 11
1584.859756
 21
1991.237805
 31
0.0
  0
LINE
  5
2A7
330
207
100
AcDbEntity
  8
7_ALL_FEATURES
  6
Continuous
 62
     7
100
AcDbLine
 10
1584.859756
 20
1991.237805
 30
0.0
 11
1584.859756
 21
1989.487805
 31
0.0
  0
LINE
  5
2A8
330
207
100
AcDbEntity
  8
7_ALL_FEATURES
  6
Continuous
 62
     7
100
AcDbLine
 10
1584.859756
 20
1982.487805
 30
0.0
 11
1584.859756
 21
1985.987805
 31
0.0
  0
LINE
  5
2A9
330
207
100
AcDbEntity
  8
7_ALL_FEATURES
  6
Continuous
 62
     7
100
AcDbLine
 10
1584.859756
 20
1985.987805
 30
0.0
 11
1584.859756
 21
1989.487805
 31
0.0
  0
LINE
  5
2AA
330
207
100
AcDbEntity
  8
7_ALL_FEATURES
  6
Continuous
 62
     7
100
AcDbLine
 10
1584.859756
 20
1982.487805
 30
0.0
 11
1584.859756
 21
1980.737805
 31
0.0
  0
LINE
  5
2AB
330
207
100
AcDbEntity
  8
7_ALL_FEATURES
  6
Continuous
 62
     7
100
AcDbLine
 10
1584.859756
 20
1980.737805
 30
0.0
 11
1584.859756
 21
1980.237805
 31
0.0
  0
LINE
  5
2AC
330
207
100
AcDbEntity
  8
7_ALL_FEATURES
  6
Continuous
 62
     7
100
AcDbLine
 10
1584.859756
 20
1980.237805
 30
0.0
 11
1584.859756
 21
1979.737805
 31
0.0
  0
LINE
  5
2AD
330
207
100
AcDbEntity
  8
7_ALL_FEATURES
  6
Continuous
 62
     7
100
AcDbLine
 10
1584.859756
 20
1979.737805
 30
0.0
 11
1584.859756
 21
1885.237805
 31
0.0
  0
LINE
  5
2AE
330
207
100
AcDbEntity
  8
7_ALL_FEATURES
  6
Continuous
 62
     7
100
AcDbLine
 10
1584.859756
 20
1885.237805
 30
0.0
 11
1584.859756
 21
1884.737805
 31
0.0
  0
LINE
  5
2AF
330
207
100
AcDbEntity
  8
7_ALL_FEATURES
  6
Continuous
 62
     7
100
AcDbLine
 10
1584.859756
 20
1884.737805
 30
0.0
 11
1584.859756
 21
1884.237805
 31
0.0
  0
LINE
  5
2B0
330
207
100
AcDbEntity
  8
7_ALL_FEATURES
  6
Continuous
 62
     7
100
AcDbLine
 10
1584.859756
 20
1884.237805
 30
0.0
 11
1584.859756
 21
1882.487805
 31
0.0
  0
LINE
  5
2B1
330
207
100
AcDbEntity
  8
7_ALL_FEATURES
  6
Continuous
 62
     7
100
AcDbLine
 10
1584.859756
 20
1875.487805
 30
0.0
 11
1584.859756
 21
1878.987805
 31
0.0
  0
LINE
  5
2B2
330
207
100
AcDbEntity
  8
7_ALL_FEATURES
  6
Continuous
 62
     7
100
AcDbLine
 10
1584.859756
 20
1878.987805
 30
0.0
 11
1584.859756
 21
1882.487805
 31
0.0
  0
LINE
  5
2B3
330
207
100
AcDbEntity
  8
7_ALL_FEATURES
  6
Continuous
 62
     7
100
AcDbLine
 10
1584.859756
 20
1882.487805
 30
0.0
 11
1583.359756
 21
1882.487805
 31
0.0
  0
LINE
  5
2B4
330
207
100
AcDbEntity
  8
7_ALL_FEATURES
  6
Continuous
 62
     7
100
AcDbLine
 10
1583.359756
 20
1875.487805
 30
0.0
 11
1584.578162
 21
1875.487805
 31
0.0
  0
LINE
  5
2B5
330
207
100
AcDbEntity
  8
7_ALL_FEATURES
  6
Continuous
 62
     7
100
AcDbLine
 10
1584.578162
 20
1875.487805
 30
0.0
 11
1584.859756
 21
1875.487805
 31
0.0
  0
SPLINE
  5
2B6
330
207
100
AcDbEntity
  8
7_ALL_FEATURES
  6
Continuous
 62
     7
100
AcDbSpline
 70
     0
 71
     3
 72
     9
 73
     5
 74
     0
 42
0.000000001
 43
0.0000001
 40
0.0
 40
0.0
 40
0.0
 40
0.0
 40
0.5069388108
 40
1.0
 40
1.0
 40
1.0
 40
1.0
 10
1582.1609546726
 20
1878.987804878
 30
0.0
 10
1582.1609546726
 20
1879.2853886985
 30
0.0
 10
1582.4368375357
 20
1879.8733342486
 30
0.0
 10
1582.9468409372
 20
1880.1960310531
 30
0.0
 10
1583.2126160412
 20
1880.31065034
 30
0.0
  0
ARC
  5
2B7
330
207
100
AcDbEntity
  8
7_ALL_FEATURES
  6
Continuous
 62
     7
100
AcDbCircle
 10
1584.136048
 20
1878.169383
 30
0.0
 40
2.3318986514
100
AcDbArc
 50
109.439506
 51
113.328353
  0
SPLINE
  5
2B8
330
207
100
AcDbEntity
  8
7_ALL_FEATURES
  6
Continuous
 62
     7
100
AcDbSpline
 70
     0
 71
     3
 72
     9
 73
     5
 74
     0
 42
0.000000001
 43
0.0000001
 40
0.0
 40
0.0
 40
0.0
 40
0.0
 40
0.2711791142
 40
1.0
 40
1.0
 40
1.0
 40
1.0
 10
1583.359965323
 20
1880.368348221
 30
0.0
 10
1583.4157832379
 20
1880.3880473516
 30
0.0
 10
1583.6241554012
 20
1880.4527557128
 30
0.0
 10
1583.8430328504
 20
1880.487804878
 30
0.0
 10
1584.0021173042
 20
1880.487804878
 30
0.0
  0
ARC
  5
2B9
330
207
100
AcDbEntity
  8
7_ALL_FEATURES
  6
Continuous
 62
     7
100
AcDbCircle
 10
1571.402799
 20
1983.987805
 30
0.0
 40
1.5
100
AcDbArc
 50
180.0
 51
189.648474
  0
LINE
  5
2BA
330
207
100
AcDbEntity
  8
7_ALL_FEATURES
  6
Continuous
 62
     7
100
AcDbLine
 10
1569.902799
 20
1987.987805
 30
0.0
 11
1569.902799
 21
1983.987805
 31
0.0
  0
ARC
  5
2BB
330
207
100
AcDbEntity
  8
7_ALL_FEATURES
  6
Continuous
 62
     7
100
AcDbCircle
 10
1571.402799
 20
1987.987805
 30
0.0
 40
1.5
100
AcDbArc
 50
170.351526
 51
180.0
  0
ARC
  5
2BC
330
207
100
AcDbEntity
  8
3_ALL_AXES
  6
Continuous
 62
     7
100
AcDbCircle
 10
1574.250951
 20
1985.987805
 30
0.0
 40
0.95
100
AcDbArc
 50
180.0
 51
360.0
  0
ARC
  5
2BD
330
207
100
AcDbEntity
  8
3_ALL_AXES
  6
Continuous
 62
     7
100
AcDbCircle
 10
1574.250951
 20
1985.987805
 30
0.0
 40
0.95
100
AcDbArc
 50
0.0
 51
180.0
  0
LINE
  5
2BE
330
207
100
AcDbEntity
  8
7_ALL_FEATURES
  6
Continuous
 62
     7
100
AcDbLine
 10
1583.359756
 20
1855.237805
 30
0.0
 11
1584.859756
 21
1855.237805
 31
0.0
  0
LINE
  5
2BF
330
207
100
AcDbEntity
  8
7_ALL_FEATURES
  6
Continuous
 62
     7
100
AcDbLine
 10
1583.359756
 20
1873.237805
 30
0.0
 11
1584.859756
 21
1873.237805
 31
0.0
  0
LINE
  5
2C0
330
207
100
AcDbEntity
  8
7_ALL_FEATURES
  6
Continuous
 62
     7
100
AcDbLine
 10
1584.859756
 20
1989.487805
 30
0.0
 11
1583.359756
 21
1989.487805
 31
0.0
  0
LINE
  5
2C1
330
207
100
AcDbEntity
  8
7_ALL_FEATURES
  6
Continuous
 62
     7
100
AcDbLine
 10
1583.359756
 20
1982.487805
 30
0.0
 11
1584.578162
 21
1982.487805
 31
0.0
  0
LINE
  5
2C2
330
207
100
AcDbEntity
  8
7_ALL_FEATURES
  6
Continuous
 62
     7
100
AcDbLine
 10
1584.578162
 20
1982.487805
 30
0.0
 11
1584.859756
 21
1982.487805
 31
0.0
  0
SPLINE
  5
2C3
330
207
100
AcDbEntity
  8
7_ALL_FEATURES
  6
Continuous
 62
     7
100
AcDbSpline
 70
     0
 71
     3
 72
     9
 73
     5
 74
     0
 42
0.000000001
 43
0.0000001
 40
0.0
 40
0.0
 40
0.0
 40
0.0
 40
0.5069388108
 40
1.0
 40
1.0
 40
1.0
 40
1.0
 10
1582.1609546726
 20
1985.987804878
 30
0.0
 10
1582.1609546726
 20
1986.2853886985
 30
0.0
 10
1582.4368375357
 20
1986.8733342486
 30
0.0
 10
1582.9468409372
 20
1987.1960310531
 30
0.0
 10
1583.2126160412
 20
1987.31065034
 30
0.0
  0
ARC
  5
2C4
330
207
100
AcDbEntity
  8
7_ALL_FEATURES
  6
Continuous
 62
     7
100
AcDbCircle
 10
1584.136048
 20
1985.169383
 30
0.0
 40
2.3318986516
100
AcDbArc
 50
109.439506
 51
113.328353
  0
SPLINE
  5
2C5
330
207
100
AcDbEntity
  8
7_ALL_FEATURES
  6
Continuous
 62
     7
100
AcDbSpline
 70
     0
 71
     3
 72
     9
 73
     5
 74
     0
 42
0.000000001
 43
0.0000001
 40
0.0
 40
0.0
 40
0.0
 40
0.0
 40
0.2711791142
 40
1.0
 40
1.0
 40
1.0
 40
1.0
 10
1583.359965323
 20
1987.368348221
 30
0.0
 10
1583.4157832379
 20
1987.3880473516
 30
0.0
 10
1583.6241554012
 20
1987.4527557128
 30
0.0
 10
1583.8430328504
 20
1987.487804878
 30
0.0
 10
1584.0021173042
 20
1987.487804878
 30
0.0
  0
LINE
  5
2C6
330
207
100
AcDbEntity
  8
7_ALL_FEATURES
  6
Continuous
 62
     7
100
AcDbLine
 10
1583.359756
 20
1884.737805
 30
0.0
 11
1584.859756
 21
1884.737805
 31
0.0
  0
LINE
  5
2C7
330
207
100
AcDbEntity
  8
7_ALL_FEATURES
  6
Continuous
 62
     7
100
AcDbLine
 10
1583.359756
 20
1980.237805
 30
0.0
 11
1584.859756
 21
1980.237805
 31
0.0
  0
LINE
  5
2C8
330
207
100
AcDbEntity
  8
7_ALL_FEATURES
  6
Continuous
 62
     7
100
AcDbLine
 10
1583.359756
 20
1991.737805
 30
0.0
 11
1584.859756
 21
1991.737805
 31
0.0
  0
LINE
  5
2C9
330
207
100
AcDbEntity
  8
7_ALL_FEATURES
  6
Continuous
 62
     7
100
AcDbLine
 10
1583.359756
 20
2005.737805
 30
0.0
 11
1584.859756
 21
2005.737805
 31
0.0
  0
LINE
  5
2CA
330
207
100
AcDbEntity
  8
7_ALL_FEATURES
  6
Continuous
 62
     9
100
AcDbLine
 10
1583.359756
 20
1992.237805
 30
0.0
 11
1584.859756
 21
1992.237805
 31
0.0
  0
LINE
  5
2CB
330
207
100
AcDbEntity
  8
7_ALL_FEATURES
  6
Continuous
 62
     9
100
AcDbLine
 10
1583.359756
 20
2004.737805
 30
0.0
 11
1584.859756
 21
2004.737805
 31
0.0
  0
LINE
  5
2CC
330
207
100
AcDbEntity
  8
7_ALL_FEATURES
  6
Continuous
 62
     9
100
AcDbLine
 10
1583.359756
 20
1857.237805
 30
0.0
 11
1584.859756
 21
1857.237805
 31
0.0
  0
LINE
  5
2CD
330
207
100
AcDbEntity
  8
7_ALL_FEATURES
  6
Continuous
 62
     9
100
AcDbLine
 10
1583.359756
 20
1872.737805
 30
0.0
 11
1584.859756
 21
1872.737805
 31
0.0
  0
LINE
  5
2CE
330
207
100
AcDbEntity
  8
7_ALL_FEATURES
  6
Continuous
 62
     9
100
AcDbLine
 10
1583.354883
 20
1985.987805
 30
0.0
 11
1584.850009
 21
1985.987805
 31
0.0
  0
LINE
  5
2CF
330
207
100
AcDbEntity
  8
7_ALL_FEATURES
  6
Continuous
 62
     9
100
AcDbLine
 10
1583.359756
 20
1873.737805
 30
0.0
 11
1584.859756
 21
1873.737805
 31
0.0
  0
LINE
  5
2D0
330
207
100
AcDbEntity
  8
7_ALL_FEATURES
  6
Continuous
 62
     9
100
AcDbLine
 10
1583.359756
 20
1884.237805
 30
0.0
 11
1584.859756
 21
1884.237805
 31
0.0
  0
LINE
  5
2D1
330
207
100
AcDbEntity
  8
7_ALL_FEATURES
  6
Continuous
 62
     9
100
AcDbLine
 10
1581.859756
 20
1983.737805
 30
0.0
 11
1581.859756
 21
1988.237805
 31
0.0
  0
LINE
  5
2D2
330
207
100
AcDbEntity
  8
7_ALL_FEATURES
  6
Continuous
 62
     9
100
AcDbLine
 10
1583.354883
 20
1878.987805
 30
0.0
 11
1584.850009
 21
1878.987805
 31
0.0
  0
SPLINE
  5
2D3
330
207
100
AcDbEntity
  8
7_ALL_FEATURES
  6
Continuous
 62
     7
100
AcDbSpline
 70
     0
 71
     3
 72
    11
 73
     7
 74
     0
 42
0.000000001
 43
0.0000001
 40
0.0
 40
0.0
 40
0.0
 40
0.0
 40
0.3359600091
 40
0.584878125
 40
0.7792806499
 40
1.0
 40
1.0
 40
1.0
 40
1.0
 10
1584.8500091618
 20
1985.987804878
 30
0.0
 10
1584.8500091618
 20
1985.7662144901
 30
0.0
 10
1584.8436964158
 20
1985.3842159082
 30
0.0
 10
1584.7630792657
 20
1984.8596702409
 30
0.0
 10
1584.4351020657
 20
1984.5236121248
 30
0.0
 10
1584.1476979837
 20
1984.487804878
 30
0.0
 10
1584.0021173042
 20
1984.487804878
 30
0.0
  0
LINE
  5
2D4
330
207
100
AcDbEntity
  8
7_ALL_FEATURES
  6
Continuous
 62
     9
100
AcDbLine
 10
1581.859756
 20
1876.737805
 30
0.0
 11
1581.859756
 21
1881.237805
 31
0.0
  0
SPLINE
  5
2D5
330
207
100
AcDbEntity
  8
7_ALL_FEATURES
  6
Continuous
 62
     7
100
AcDbSpline
 70
     0
 71
     3
 72
    11
 73
     7
 74
     0
 42
0.000000001
 43
0.0000001
 40
0.0
 40
0.0
 40
0.0
 40
0.0
 40
0.2207193501
 40
0.415121875
 40
0.6640399909
 40
1.0
 40
1.0
 40
1.0
 40
1.0
 10
1584.0021173042
 20
1880.487804878
 30
0.0
 10
1584.1476979837
 20
1880.487804878
 30
0.0
 10
1584.4351020657
 20
1880.4519976313
 30
0.0
 10
1584.7630792657
 20
1880.1159395152
 30
0.0
 10
1584.8436964158
 20
1879.5913938479
 30
0.0
 10
1584.8500091618
 20
1879.209395266
 30
0.0
 10
1584.8500091618
 20
1878.987804878
 30
0.0
  0
LINE
  5
2D6
330
207
100
AcDbEntity
  8
7_ALL_FEATURES
  6
Continuous
 62
     9
100
AcDbLine
 10
1583.359756
 20
1885.237805
 30
0.0
 11
1584.859756
 21
1885.237805
 31
0.0
  0
LINE
  5
2D7
330
207
100
AcDbEntity
  8
7_ALL_FEATURES
  6
Continuous
 62
     9
100
AcDbLine
 10
1583.359756
 20
1979.737805
 30
0.0
 11
1584.859756
 21
1979.737805
 31
0.0
  0
SPLINE
  5
2D8
330
207
100
AcDbEntity
  8
7_ALL_FEATURES
  6
Continuous
 62
     7
100
AcDbSpline
 70
     0
 71
     3
 72
    11
 73
     7
 74
     0
 42
0.000000001
 43
0.0000001
 40
0.0
 40
0.0
 40
0.0
 40
0.0
 40
0.3359600091
 40
0.584878125
 40
0.7792806499
 40
1.0
 40
1.0
 40
1.0
 40
1.0
 10
1584.8500091618
 20
1878.987804878
 30
0.0
 10
1584.8500091618
 20
1878.7662144901
 30
0.0
 10
1584.8436964158
 20
1878.3842159082
 30
0.0
 10
1584.7630792657
 20
1877.8596702409
 30
0.0
 10
1584.4351020657
 20
1877.5236121248
 30
0.0
 10
1584.1476979837
 20
1877.487804878
 30
0.0
 10
1584.0021173042
 20
1877.487804878
 30
0.0
  0
LINE
  5
2D9
330
207
100
AcDbEntity
  8
7_ALL_FEATURES
  6
Continuous
 62
     9
100
AcDbLine
 10
1583.359756
 20
1980.737805
 30
0.0
 11
1584.859756
 21
1980.737805
 31
0.0
  0
LINE
  5
2DA
330
207
100
AcDbEntity
  8
7_ALL_FEATURES
  6
Continuous
 62
     9
100
AcDbLine
 10
1583.359756
 20
1991.237805
 30
0.0
 11
1584.859756
 21
1991.237805
 31
0.0
  0
SPLINE
  5
2DB
330
207
100
AcDbEntity
  8
7_ALL_FEATURES
  6
Continuous
 62
     7
100
AcDbSpline
 70
     0
 71
     3
 72
    11
 73
     7
 74
     0
 42
0.000000001
 43
0.0000001
 40
0.0
 40
0.0
 40
0.0
 40
0.0
 40
0.2207193501
 40
0.415121875
 40
0.6640399909
 40
1.0
 40
1.0
 40
1.0
 40
1.0
 10
1584.0021173042
 20
1987.487804878
 30
0.0
 10
1584.1476979837
 20
1987.487804878
 30
0.0
 10
1584.4351020657
 20
1987.4519976313
 30
0.0
 10
1584.7630792657
 20
1987.1159395152
 30
0.0
 10
1584.8436964158
 20
1986.5913938479
 30
0.0
 10
1584.8500091618
 20
1986.209395266
 30
0.0
 10
1584.8500091618
 20
1985.987804878
 30
0.0
  0
SPLINE
  5
2DC
330
207
100
AcDbEntity
  8
7_ALL_FEATURES
  6
Continuous
 62
     7
100
AcDbSpline
 70
     0
 71
     3
 72
     9
 73
     5
 74
     0
 42
0.000000001
 43
0.0000001
 40
0.0
 40
0.0
 40
0.0
 40
0.0
 40
0.2286771163
 40
1.0
 40
1.0
 40
1.0
 40
1.0
 10
317.2173948909
 20
1877.487804878
 30
0.0
 10
317.2673172388
 20
1877.487804878
 30
0.0
 10
317.485585767
 20
1877.4992461897
 30
0.0
 10
317.7007578672
 20
1877.5512220935
 30
0.0
 10
317.8595463284
 20
1877.6072613659
 30
0.0
  0
ARC
  5
2DD
330
207
100
AcDbEntity
  8
7_ALL_FEATURES
  6
Continuous
 62
     7
100
AcDbCircle
 10
317.083463
 20
1879.806228
 30
0.0
 40
2.3318998727
100
AcDbArc
 50
289.439509
 51
293.329434
  0
SPLINE
  5
2DE
330
207
100
AcDbEntity
  8
7_ALL_FEATURES
  6
Continuous
 62
     7
100
AcDbSpline
 70
     0
 71
     3
 72
     9
 73
     5
 74
     0
 42
0.000000001
 43
0.0000001
 40
0.0
 40
0.0
 40
0.0
 40
0.0
 40
0.4930580325
 40
1.0
 40
1.0
 40
1.0
 40
1.0
 10
318.006935975
 20
1877.6649766608
 30
0.0
 10
318.2727009145
 20
1877.7795975225
 30
0.0
 10
318.7826874615
 20
1878.1022932641
 30
0.0
 10
319.0585575225
 20
1878.6902262545
 30
0.0
 10
319.0585575225
 20
1878.987804878
 30
0.0
  0
SPLINE
  5
2DF
330
207
100
AcDbEntity
  8
7_ALL_FEATURES
  6
Continuous
 62
     7
100
AcDbSpline
 70
     0
 71
     3
 72
     9
 73
     5
 74
     0
 42
0.000000001
 43
0.0000001
 40
0.0
 40
0.0
 40
0.0
 40
0.0
 40
0.2286770931
 40
1.0
 40
1.0
 40
1.0
 40
1.0
 10
317.2173948909
 20
1984.487804878
 30
0.0
 10
317.267317237
 20
1984.487804878
 30
0.0
 10
317.4855857796
 20
1984.4992461924
 30
0.0
 10
317.7007578932
 20
1984.5512221019
 30
0.0
 10
317.8595463699
 20
1984.6072613788
 30
0.0
  0
ARC
  5
2E0
330
207
100
AcDbEntity
  8
7_ALL_FEATURES
  6
Continuous
 62
     7
100
AcDbCircle
 10
317.083463
 20
1986.806227
 30
0.0
 40
2.3318997833
100
AcDbArc
 50
289.439508
 51
293.329352
  0
SPLINE
  5
2E1
330
207
100
AcDbEntity
  8
7_ALL_FEATURES
  6
Continuous
 62
     7
100
AcDbSpline
 70
     0
 71
     3
 72
     9
 73
     5
 74
     0
 42
0.000000001
 43
0.0000001
 40
0.0
 40
0.0
 40
0.0
 40
0.0
 40
0.4930582757
 40
1.0
 40
1.0
 40
1.0
 40
1.0
 10
318.0069329499
 20
1984.6649753506
 30
0.0
 10
318.2726986633
 20
1984.7795960933
 30
0.0
 10
318.7826864889
 20
1985.1022919185
 30
0.0
 10
319.0585575225
 20
1985.6902258618
 30
0.0
 10
319.0585575225
 20
1985.987804878
 30
0.0
  0
LINE
  5
2E2
330
207
100
AcDbEntity
  8
7_ALL_FEATURES
  6
Continuous
 62
     7
100
AcDbLine
 10
316.359756
 20
1857.237805
 30
0.0
 11
316.359756
 21
1855.237805
 31
0.0
  0
LINE
  5
2E3
330
207
100
AcDbEntity
  8
7_ALL_FEATURES
  6
Continuous
 62
     7
100
AcDbLine
 10
316.359756
 20
1872.737805
 30
0.0
 11
316.359756
 21
1857.237805
 31
0.0
  0
LINE
  5
2E4
330
207
100
AcDbEntity
  8
7_ALL_FEATURES
  6
Continuous
 62
     7
100
AcDbLine
 10
316.359756
 20
1873.237805
 30
0.0
 11
316.359756
 21
1872.737805
 31
0.0
  0
LINE
  5
2E5
330
207
100
AcDbEntity
  8
7_ALL_FEATURES
  6
Continuous
 62
     7
100
AcDbLine
 10
316.359756
 20
1873.737805
 30
0.0
 11
316.359756
 21
1873.237805
 31
0.0
  0
LINE
  5
2E6
330
207
100
AcDbEntity
  8
7_ALL_FEATURES
  6
Continuous
 62
     7
100
AcDbLine
 10
316.359756
 20
1875.487805
 30
0.0
 11
316.359756
 21
1873.737805
 31
0.0
  0
LINE
  5
2E7
330
207
100
AcDbEntity
  8
7_ALL_FEATURES
  6
Continuous
 62
     7
100
AcDbLine
 10
316.359756
 20
1875.487805
 30
0.0
 11
316.359756
 21
1878.987805
 31
0.0
  0
LINE
  5
2E8
330
207
100
AcDbEntity
  8
7_ALL_FEATURES
  6
Continuous
 62
     7
100
AcDbLine
 10
316.359756
 20
1878.987805
 30
0.0
 11
316.359756
 21
1882.487805
 31
0.0
  0
LINE
  5
2E9
330
207
100
AcDbEntity
  8
7_ALL_FEATURES
  6
Continuous
 62
     7
100
AcDbLine
 10
316.359756
 20
1884.237805
 30
0.0
 11
316.359756
 21
1882.487805
 31
0.0
  0
LINE
  5
2EA
330
207
100
AcDbEntity
  8
7_ALL_FEATURES
  6
Continuous
 62
     7
100
AcDbLine
 10
316.359756
 20
1884.737805
 30
0.0
 11
316.359756
 21
1884.237805
 31
0.0
  0
LINE
  5
2EB
330
207
100
AcDbEntity
  8
7_ALL_FEATURES
  6
Continuous
 62
     7
100
AcDbLine
 10
316.359756
 20
1885.237805
 30
0.0
 11
316.359756
 21
1884.737805
 31
0.0
  0
LINE
  5
2EC
330
207
100
AcDbEntity
  8
7_ALL_FEATURES
  6
Continuous
 62
     7
100
AcDbLine
 10
316.359756
 20
1979.737805
 30
0.0
 11
316.359756
 21
1885.237805
 31
0.0
  0
LINE
  5
2ED
330
207
100
AcDbEntity
  8
7_ALL_FEATURES
  6
Continuous
 62
     7
100
AcDbLine
 10
316.359756
 20
1980.237805
 30
0.0
 11
316.359756
 21
1979.737805
 31
0.0
  0
LINE
  5
2EE
330
207
100
AcDbEntity
  8
7_ALL_FEATURES
  6
Continuous
 62
     7
100
AcDbLine
 10
316.359756
 20
1980.737805
 30
0.0
 11
316.359756
 21
1980.237805
 31
0.0
  0
LINE
  5
2EF
330
207
100
AcDbEntity
  8
7_ALL_FEATURES
  6
Continuous
 62
     7
100
AcDbLine
 10
316.359756
 20
1982.487805
 30
0.0
 11
316.359756
 21
1980.737805
 31
0.0
  0
LINE
  5
2F0
330
207
100
AcDbEntity
  8
7_ALL_FEATURES
  6
Continuous
 62
     7
100
AcDbLine
 10
316.359756
 20
1982.487805
 30
0.0
 11
316.359756
 21
1985.987805
 31
0.0
  0
LINE
  5
2F1
330
207
100
AcDbEntity
  8
7_ALL_FEATURES
  6
Continuous
 62
     7
100
AcDbLine
 10
316.359756
 20
1985.987805
 30
0.0
 11
316.359756
 21
1989.487805
 31
0.0
  0
LINE
  5
2F2
330
207
100
AcDbEntity
  8
7_ALL_FEATURES
  6
Continuous
 62
     7
100
AcDbLine
 10
316.359756
 20
1991.237805
 30
0.0
 11
316.359756
 21
1989.487805
 31
0.0
  0
LINE
  5
2F3
330
207
100
AcDbEntity
  8
7_ALL_FEATURES
  6
Continuous
 62
     7
100
AcDbLine
 10
316.359756
 20
1991.737805
 30
0.0
 11
316.359756
 21
1991.237805
 31
0.0
  0
LINE
  5
2F4
330
207
100
AcDbEntity
  8
7_ALL_FEATURES
  6
Continuous
 62
     7
100
AcDbLine
 10
316.359756
 20
1992.237805
 30
0.0
 11
316.359756
 21
1991.737805
 31
0.0
  0
LINE
  5
2F5
330
207
100
AcDbEntity
  8
7_ALL_FEATURES
  6
Continuous
 62
     7
100
AcDbLine
 10
316.359756
 20
2004.737805
 30
0.0
 11
316.359756
 21
1992.237805
 31
0.0
  0
LINE
  5
2F6
330
207
100
AcDbEntity
  8
7_ALL_FEATURES
  6
Continuous
 62
     7
100
AcDbLine
 10
316.359756
 20
2005.737805
 30
0.0
 11
316.359756
 21
2004.737805
 31
0.0
  0
LINE
  5
2F7
330
207
100
AcDbEntity
  8
7_ALL_FEATURES
  6
Continuous
 62
     7
100
AcDbLine
 10
317.859756
 20
1991.737805
 30
0.0
 11
316.359756
 21
1991.737805
 31
0.0
  0
LINE
  5
2F8
330
207
100
AcDbEntity
  8
7_ALL_FEATURES
  6
Continuous
 62
     7
100
AcDbLine
 10
317.859756
 20
1980.237805
 30
0.0
 11
316.359756
 21
1980.237805
 31
0.0
  0
LINE
  5
2F9
330
207
100
AcDbEntity
  8
7_ALL_FEATURES
  6
Continuous
 62
     7
100
AcDbLine
 10
317.859756
 20
1884.737805
 30
0.0
 11
316.359756
 21
1884.737805
 31
0.0
  0
LINE
  5
2FA
330
207
100
AcDbEntity
  8
7_ALL_FEATURES
  6
Continuous
 62
     7
100
AcDbLine
 10
317.859756
 20
1873.237805
 30
0.0
 11
316.359756
 21
1873.237805
 31
0.0
  0
LINE
  5
2FB
330
207
100
AcDbEntity
  8
7_ALL_FEATURES
  6
Continuous
 62
     7
100
AcDbLine
 10
317.859756
 20
1855.237805
 30
0.0
 11
316.359756
 21
1855.237805
 31
0.0
  0
ARC
  5
2FC
330
207
100
AcDbEntity
  8
7_ALL_FEATURES
  6
Continuous
 62
     7
100
AcDbCircle
 10
329.816714
 20
1880.987805
 30
0.0
 40
1.5
100
AcDbArc
 50
0.0
 51
9.648474
  0
LINE
  5
2FD
330
207
100
AcDbEntity
  8
7_ALL_FEATURES
  6
Continuous
 62
     7
100
AcDbLine
 10
331.316714
 20
1880.987805
 30
0.0
 11
331.316714
 21
1876.987805
 31
0.0
  0
ARC
  5
2FE
330
207
100
AcDbEntity
  8
7_ALL_FEATURES
  6
Continuous
 62
     7
100
AcDbCircle
 10
329.816714
 20
1876.987805
 30
0.0
 40
1.5
100
AcDbArc
 50
350.351526
 51
360.0
  0
ARC
  5
2FF
330
207
100
AcDbEntity
  8
3_ALL_AXES
  6
Continuous
 62
     7
100
AcDbCircle
 10
326.968562
 20
1878.987805
 30
0.0
 40
0.95
100
AcDbArc
 50
180.0
 51
360.0
  0
ARC
  5
300
330
207
100
AcDbEntity
  8
3_ALL_AXES
  6
Continuous
 62
     7
100
AcDbCircle
 10
326.968562
 20
1878.987805
 30
0.0
 40
0.95
100
AcDbArc
 50
0.0
 51
180.0
  0
LINE
  5
301
330
207
100
AcDbEntity
  8
7_ALL_FEATURES
  6
Continuous
 62
     7
100
AcDbLine
 10
317.859756
 20
2005.737805
 30
0.0
 11
316.359756
 21
2005.737805
 31
0.0
  0
SPLINE
  5
302
330
207
100
AcDbEntity
  8
7_ALL_FEATURES
  6
Continuous
 62
     7
100
AcDbSpline
 70
     0
 71
     3
 72
     9
 73
     5
 74
     0
 42
0.000000001
 43
0.0000001
 40
0.0
 40
0.0
 40
0.0
 40
0.0
 40
0.5069417243
 40
1.0
 40
1.0
 40
1.0
 40
1.0
 10
319.0585575225
 20
1985.987804878
 30
0.0
 10
319.0585575225
 20
1986.2853838943
 30
0.0
 10
318.7826864889
 20
1986.8733178376
 30
0.0
 10
318.2726986633
 20
1987.1960136628
 30
0.0
 10
318.0069329499
 20
1987.3106344055
 30
0.0
  0
ARC
  5
303
330
207
100
AcDbEntity
  8
7_ALL_FEATURES
  6
Continuous
 62
     7
100
AcDbCircle
 10
317.083463
 20
1985.169382
 30
0.0
 40
2.3318997836
100
AcDbArc
 50
66.670648
 51
70.560492
  0
SPLINE
  5
304
330
207
100
AcDbEntity
  8
7_ALL_FEATURES
  6
Continuous
 62
     7
100
AcDbSpline
 70
     0
 71
     3
 72
     9
 73
     5
 74
     0
 42
0.000000001
 43
0.0000001
 40
0.0
 40
0.0
 40
0.0
 40
0.0
 40
0.2711786875
 40
1.0
 40
1.0
 40
1.0
 40
1.0
 10
317.8595463699
 20
1987.3683483773
 30
0.0
 10
317.8037285884
 20
1987.3880474649
 30
0.0
 10
317.5953566097
 20
1987.4527558444
 30
0.0
 10
317.3764793118
 20
1987.487804878
 30
0.0
 10
317.2173948909
 20
1987.487804878
 30
0.0
  0
LINE
  5
305
330
207
100
AcDbEntity
  8
7_ALL_FEATURES
  6
Continuous
 62
     7
100
AcDbLine
 10
316.359756
 20
1989.487805
 30
0.0
 11
317.859756
 21
1989.487805
 31
0.0
  0
LINE
  5
306
330
207
100
AcDbEntity
  8
7_ALL_FEATURES
  6
Continuous
 62
     7
100
AcDbLine
 10
317.859756
 20
1982.487805
 30
0.0
 11
316.64135
 21
1982.487805
 31
0.0
  0
LINE
  5
307
330
207
100
AcDbEntity
  8
7_ALL_FEATURES
  6
Continuous
 62
     7
100
AcDbLine
 10
316.64135
 20
1982.487805
 30
0.0
 11
316.359756
 21
1982.487805
 31
0.0
  0
ARC
  5
308
330
207
100
AcDbEntity
  8
3_ALL_AXES
  6
Continuous
 62
     7
100
AcDbCircle
 10
326.968562
 20
1985.987805
 30
0.0
 40
0.95
100
AcDbArc
 50
0.0
 51
180.0
  0
ARC
  5
309
330
207
100
AcDbEntity
  8
3_ALL_AXES
  6
Continuous
 62
     7
100
AcDbCircle
 10
326.968562
 20
1985.987805
 30
0.0
 40
0.95
100
AcDbArc
 50
180.0
 51
360.0
  0
LINE
  5
30A
330
207
100
AcDbEntity
  8
7_ALL_FEATURES
  6
Continuous
 62
     7
100
AcDbLine
 10
317.859756
 20
1875.487805
 30
0.0
 11
316.64135
 21
1875.487805
 31
0.0
  0
LINE
  5
30B
330
207
100
AcDbEntity
  8
7_ALL_FEATURES
  6
Continuous
 62
     7
100
AcDbLine
 10
316.64135
 20
1875.487805
 30
0.0
 11
316.359756
 21
1875.487805
 31
0.0
  0
LINE
  5
30C
330
207
100
AcDbEntity
  8
7_ALL_FEATURES
  6
Continuous
 62
     7
100
AcDbLine
 10
316.359756
 20
1882.487805
 30
0.0
 11
317.859756
 21
1882.487805
 31
0.0
  0
SPLINE
  5
30D
330
207
100
AcDbEntity
  8
7_ALL_FEATURES
  6
Continuous
 62
     7
100
AcDbSpline
 70
     0
 71
     3
 72
     9
 73
     5
 74
     0
 42
0.000000001
 43
0.0000001
 40
0.0
 40
0.0
 40
0.0
 40
0.0
 40
0.5069419675
 40
1.0
 40
1.0
 40
1.0
 40
1.0
 10
319.0585575225
 20
1878.987804878
 30
0.0
 10
319.0585575225
 20
1879.2853835016
 30
0.0
 10
318.7826874615
 20
1879.873316492
 30
0.0
 10
318.2727009145
 20
1880.1960122336
 30
0.0
 10
318.006935975
 20
1880.3106330953
 30
0.0
  0
ARC
  5
30E
330
207
100
AcDbEntity
  8
7_ALL_FEATURES
  6
Continuous
 62
     7
100
AcDbCircle
 10
317.083463
 20
1878.169382
 30
0.0
 40
2.3318998723
100
AcDbArc
 50
66.670566
 51
70.560491
  0
SPLINE
  5
30F
330
207
100
AcDbEntity
  8
7_ALL_FEATURES
  6
Continuous
 62
     7
100
AcDbSpline
 70
     0
 71
     3
 72
     9
 73
     5
 74
     0
 42
0.000000001
 43
0.0000001
 40
0.0
 40
0.0
 40
0.0
 40
0.0
 40
0.2711786521
 40
1.0
 40
1.0
 40
1.0
 40
1.0
 10
317.8595463284
 20
1880.3683483902
 30
0.0
 10
317.8037285579
 20
1880.3880474742
 30
0.0
 10
317.5953565945
 20
1880.4527558552
 30
0.0
 10
317.3764793091
 20
1880.487804878
 30
0.0
 10
317.2173948909
 20
1880.487804878
 30
0.0
  0
ARC
  5
310
330
207
100
AcDbEntity
  8
7_ALL_FEATURES
  6
Continuous
 62
     7
100
AcDbCircle
 10
329.816714
 20
1987.987805
 30
0.0
 40
1.5
100
AcDbArc
 50
0.0
 51
9.648474
  0
LINE
  5
311
330
207
100
AcDbEntity
  8
7_ALL_FEATURES
  6
Continuous
 62
     7
100
AcDbLine
 10
331.316714
 20
1987.987805
 30
0.0
 11
331.316714
 21
1983.987805
 31
0.0
  0
ARC
  5
312
330
207
100
AcDbEntity
  8
7_ALL_FEATURES
  6
Continuous
 62
     7
100
AcDbCircle
 10
329.816714
 20
1983.987805
 30
0.0
 40
1.5
100
AcDbArc
 50
350.351526
 51
360.0
  0
LINE
  5
313
330
207
100
AcDbEntity
  8
7_ALL_FEATURES
  6
Continuous
 62
     9
100
AcDbLine
 10
317.86463
 20
1878.987805
 30
0.0
 11
316.369503
 21
1878.987805
 31
0.0
  0
LINE
  5
314
330
207
100
AcDbEntity
  8
7_ALL_FEATURES
  6
Continuous
 62
     9
100
AcDbLine
 10
317.86463
 20
1985.987805
 30
0.0
 11
316.369503
 21
1985.987805
 31
0.0
  0
LINE
  5
315
330
207
100
AcDbEntity
  8
7_ALL_FEATURES
  6
Continuous
 62
     9
100
AcDbLine
 10
319.359756
 20
1983.737805
 30
0.0
 11
319.359756
 21
1988.237805
 31
0.0
  0
LINE
  5
316
330
207
100
AcDbEntity
  8
7_ALL_FEATURES
  6
Continuous
 62
     9
100
AcDbLine
 10
317.859756
 20
1884.237805
 30
0.0
 11
316.359756
 21
1884.237805
 31
0.0
  0
LINE
  5
317
330
207
100
AcDbEntity
  8
7_ALL_FEATURES
  6
Continuous
 62
     9
100
AcDbLine
 10
317.859756
 20
1873.737805
 30
0.0
 11
316.359756
 21
1873.737805
 31
0.0
  0
LINE
  5
318
330
207
100
AcDbEntity
  8
7_ALL_FEATURES
  6
Continuous
 62
     9
100
AcDbLine
 10
319.359756
 20
1876.737805
 30
0.0
 11
319.359756
 21
1881.237805
 31
0.0
  0
LINE
  5
319
330
207
100
AcDbEntity
  8
7_ALL_FEATURES
  6
Continuous
 62
     9
100
AcDbLine
 10
317.859756
 20
1872.737805
 30
0.0
 11
316.359756
 21
1872.737805
 31
0.0
  0
LINE
  5
31A
330
207
100
AcDbEntity
  8
7_ALL_FEATURES
  6
Continuous
 62
     9
100
AcDbLine
 10
317.859756
 20
1857.237805
 30
0.0
 11
316.359756
 21
1857.237805
 31
0.0
  0
SPLINE
  5
31B
330
207
100
AcDbEntity
  8
7_ALL_FEATURES
  6
Continuous
 62
     7
100
AcDbSpline
 70
     0
 71
     3
 72
    11
 73
     7
 74
     0
 42
0.000000001
 43
0.0000001
 40
0.0
 40
0.0
 40
0.0
 40
0.0
 40
0.3359656143
 40
0.5848788136
 40
0.7792805509
 40
1.0
 40
1.0
 40
1.0
 40
1.0
 10
316.3695030334
 20
1878.987804878
 30
0.0
 10
316.3695030334
 20
1878.766210785
 30
0.0
 10
316.3758156278
 20
1878.3842115772
 30
0.0
 10
316.4564357726
 20
1877.8596668714
 30
0.0
 10
316.7844105448
 20
1877.5236120885
 30
0.0
 10
317.0718141408
 20
1877.487804878
 30
0.0
 10
317.2173948909
 20
1877.487804878
 30
0.0
  0
SPLINE
  5
31C
330
207
100
AcDbEntity
  8
7_ALL_FEATURES
  6
Continuous
 62
     7
100
AcDbSpline
 70
     0
 71
     3
 72
    11
 73
     7
 74
     0
 42
0.000000001
 43
0.0000001
 40
0.0
 40
0.0
 40
0.0
 40
0.0
 40
0.2207194418
 40
0.4151212398
 40
0.6640348165
 40
1.0
 40
1.0
 40
1.0
 40
1.0
 10
317.2173948909
 20
1987.487804878
 30
0.0
 10
317.071814146
 20
1987.487804878
 30
0.0
 10
316.7844105122
 20
1987.4519976647
 30
0.0
 10
316.456435554
 20
1987.1159426252
 30
0.0
 10
316.3758156398
 20
1986.5913978458
 30
0.0
 10
316.3695030334
 20
1986.2093986863
 30
0.0
 10
316.3695030334
 20
1985.987804878
 30
0.0
  0
LINE
  5
31D
330
207
100
AcDbEntity
  8
7_ALL_FEATURES
  6
Continuous
 62
     9
100
AcDbLine
 10
317.859756
 20
2004.737805
 30
0.0
 11
316.359756
 21
2004.737805
 31
0.0
  0
LINE
  5
31E
330
207
100
AcDbEntity
  8
7_ALL_FEATURES
  6
Continuous
 62
     9
100
AcDbLine
 10
317.859756
 20
1992.237805
 30
0.0
 11
316.359756
 21
1992.237805
 31
0.0
  0
SPLINE
  5
31F
330
207
100
AcDbEntity
  8
7_ALL_FEATURES
  6
Continuous
 62
     7
100
AcDbSpline
 70
     0
 71
     3
 72
    11
 73
     7
 74
     0
 42
0.000000001
 43
0.0000001
 40
0.0
 40
0.0
 40
0.0
 40
0.0
 40
0.2207194491
 40
0.4151211864
 40
0.6640343857
 40
1.0
 40
1.0
 40
1.0
 40
1.0
 10
317.2173948909
 20
1880.487804878
 30
0.0
 10
317.0718141408
 20
1880.487804878
 30
0.0
 10
316.7844105448
 20
1880.4519976676
 30
0.0
 10
316.4564357726
 20
1880.1159428847
 30
0.0
 10
316.3758156278
 20
1879.5913981789
 30
0.0
 10
316.3695030334
 20
1879.2093989711
 30
0.0
 10
316.3695030334
 20
1878.987804878
 30
0.0
  0
LINE
  5
320
330
207
100
AcDbEntity
  8
7_ALL_FEATURES
  6
Continuous
 62
     9
100
AcDbLine
 10
317.859756
 20
1991.237805
 30
0.0
 11
316.359756
 21
1991.237805
 31
0.0
  0
LINE
  5
321
330
207
100
AcDbEntity
  8
7_ALL_FEATURES
  6
Continuous
 62
     9
100
AcDbLine
 10
317.859756
 20
1980.737805
 30
0.0
 11
316.359756
 21
1980.737805
 31
0.0
  0
LINE
  5
322
330
207
100
AcDbEntity
  8
7_ALL_FEATURES
  6
Continuous
 62
     9
100
AcDbLine
 10
317.859756
 20
1979.737805
 30
0.0
 11
316.359756
 21
1979.737805
 31
0.0
  0
LINE
  5
323
330
207
100
AcDbEntity
  8
7_ALL_FEATURES
  6
Continuous
 62
     9
100
AcDbLine
 10
317.859756
 20
1885.237805
 30
0.0
 11
316.359756
 21
1885.237805
 31
0.0
  0
SPLINE
  5
324
330
207
100
AcDbEntity
  8
7_ALL_FEATURES
  6
Continuous
 62
     7
100
AcDbSpline
 70
     0
 71
     3
 72
    11
 73
     7
 74
     0
 42
0.000000001
 43
0.0000001
 40
0.0
 40
0.0
 40
0.0
 40
0.0
 40
0.3359651835
 40
0.5848787602
 40
0.7792805582
 40
1.0
 40
1.0
 40
1.0
 40
1.0
 10
316.3695030334
 20
1985.987804878
 30
0.0
 10
316.3695030334
 20
1985.7662110698
 30
0.0
 10
316.3758156398
 20
1985.3842119103
 30
0.0
 10
316.456435554
 20
1984.8596671309
 30
0.0
 10
316.7844105122
 20
1984.5236120914
 30
0.0
 10
317.071814146
 20
1984.487804878
 30
0.0
 10
317.2173948909
 20
1984.487804878
 30
0.0
  0
LINE
  5
325
330
207
100
AcDbEntity
  8
7_ALL_FEATURES
  6
Continuous
 62
     7
100
AcDbLine
 10
317.859756
 20
2005.737805
 30
0.0
 11
1583.359756
 21
2005.737805
 31
0.0
  0
LINE
  5
326
330
207
100
AcDbEntity
  8
7_ALL_FEATURES
  6
Continuous
 62
     7
100
AcDbLine
 10
317.859756
 20
1988.237805
 30
0.0
 11
329.816714
 21
1988.237805
 31
0.0
  0
LINE
  5
327
330
207
100
AcDbEntity
  8
7_ALL_FEATURES
  6
Continuous
 62
     7
100
AcDbLine
 10
329.816714
 20
1988.237805
 30
0.0
 11
331.316714
 21
1988.237805
 31
0.0
  0
LINE
  5
328
330
207
100
AcDbEntity
  8
7_ALL_FEATURES
  6
Continuous
 62
     7
100
AcDbLine
 10
331.316714
 20
1988.237805
 30
0.0
 11
1569.902799
 21
1988.237805
 31
0.0
  0
LINE
  5
329
330
207
100
AcDbEntity
  8
7_ALL_FEATURES
  6
Continuous
 62
     7
100
AcDbLine
 10
1569.902799
 20
1988.237805
 30
0.0
 11
1571.402799
 21
1988.237805
 31
0.0
  0
LINE
  5
32A
330
207
100
AcDbEntity
  8
7_ALL_FEATURES
  6
Continuous
 62
     7
100
AcDbLine
 10
1571.402799
 20
1988.237805
 30
0.0
 11
1583.359756
 21
1988.237805
 31
0.0
  0
LINE
  5
32B
330
207
100
AcDbEntity
  8
7_ALL_FEATURES
  6
Continuous
 62
     7
100
AcDbLine
 10
317.859756
 20
1983.737805
 30
0.0
 11
329.816714
 21
1983.737805
 31
0.0
  0
LINE
  5
32C
330
207
100
AcDbEntity
  8
7_ALL_FEATURES
  6
Continuous
 62
     7
100
AcDbLine
 10
329.816714
 20
1983.737805
 30
0.0
 11
331.316714
 21
1983.737805
 31
0.0
  0
LINE
  5
32D
330
207
100
AcDbEntity
  8
7_ALL_FEATURES
  6
Continuous
 62
     7
100
AcDbLine
 10
331.316714
 20
1983.737805
 30
0.0
 11
1569.902799
 21
1983.737805
 31
0.0
  0
LINE
  5
32E
330
207
100
AcDbEntity
  8
7_ALL_FEATURES
  6
Continuous
 62
     7
100
AcDbLine
 10
1569.902799
 20
1983.737805
 30
0.0
 11
1571.402799
 21
1983.737805
 31
0.0
  0
LINE
  5
32F
330
207
100
AcDbEntity
  8
7_ALL_FEATURES
  6
Continuous
 62
     7
100
AcDbLine
 10
1571.402799
 20
1983.737805
 30
0.0
 11
1583.359756
 21
1983.737805
 31
0.0
  0
LINE
  5
330
330
207
100
AcDbEntity
  8
7_ALL_FEATURES
  6
Continuous
 62
     7
100
AcDbLine
 10
317.859756
 20
1980.237805
 30
0.0
 11
1583.359756
 21
1980.237805
 31
0.0
  0
LINE
  5
331
330
207
100
AcDbEntity
  8
7_ALL_FEATURES
  6
Continuous
 62
     7
100
AcDbLine
 10
317.859756
 20
1884.737805
 30
0.0
 11
1583.359756
 21
1884.737805
 31
0.0
  0
LINE
  5
332
330
207
100
AcDbEntity
  8
7_ALL_FEATURES
  6
Continuous
 62
     7
100
AcDbLine
 10
317.859756
 20
1881.237805
 30
0.0
 11
329.816714
 21
1881.237805
 31
0.0
  0
LINE
  5
333
330
207
100
AcDbEntity
  8
7_ALL_FEATURES
  6
Continuous
 62
     7
100
AcDbLine
 10
329.816714
 20
1881.237805
 30
0.0
 11
331.316714
 21
1881.237805
 31
0.0
  0
LINE
  5
334
330
207
100
AcDbEntity
  8
7_ALL_FEATURES
  6
Continuous
 62
     7
100
AcDbLine
 10
331.316714
 20
1881.237805
 30
0.0
 11
1569.902799
 21
1881.237805
 31
0.0
  0
LINE
  5
335
330
207
100
AcDbEntity
  8
7_ALL_FEATURES
  6
Continuous
 62
     7
100
AcDbLine
 10
1569.902799
 20
1881.237805
 30
0.0
 11
1571.402799
 21
1881.237805
 31
0.0
  0
LINE
  5
336
330
207
100
AcDbEntity
  8
7_ALL_FEATURES
  6
Continuous
 62
     7
100
AcDbLine
 10
1571.402799
 20
1881.237805
 30
0.0
 11
1583.359756
 21
1881.237805
 31
0.0
  0
LINE
  5
337
330
207
100
AcDbEntity
  8
7_ALL_FEATURES
  6
Continuous
 62
     7
100
AcDbLine
 10
317.859756
 20
1876.737805
 30
0.0
 11
329.816714
 21
1876.737805
 31
0.0
  0
LINE
  5
338
330
207
100
AcDbEntity
  8
7_ALL_FEATURES
  6
Continuous
 62
     7
100
AcDbLine
 10
329.816714
 20
1876.737805
 30
0.0
 11
331.316714
 21
1876.737805
 31
0.0
  0
LINE
  5
339
330
207
100
AcDbEntity
  8
7_ALL_FEATURES
  6
Continuous
 62
     7
100
AcDbLine
 10
331.316714
 20
1876.737805
 30
0.0
 11
1569.902799
 21
1876.737805
 31
0.0
  0
LINE
  5
33A
330
207
100
AcDbEntity
  8
7_ALL_FEATURES
  6
Continuous
 62
     7
100
AcDbLine
 10
1569.902799
 20
1876.737805
 30
0.0
 11
1571.402799
 21
1876.737805
 31
0.0
  0
LINE
  5
33B
330
207
100
AcDbEntity
  8
7_ALL_FEATURES
  6
Continuous
 62
     7
100
AcDbLine
 10
1571.402799
 20
1876.737805
 30
0.0
 11
1583.359756
 21
1876.737805
 31
0.0
  0
LINE
  5
33C
330
207
100
AcDbEntity
  8
7_ALL_FEATURES
  6
Continuous
 62
     7
100
AcDbLine
 10
317.859756
 20
1873.237805
 30
0.0
 11
1583.359756
 21
1873.237805
 31
0.0
  0
LINE
  5
33D
330
207
100
AcDbEntity
  8
7_ALL_FEATURES
  6
Continuous
 62
     7
100
AcDbLine
 10
317.859756
 20
1855.237805
 30
0.0
 11
1583.359756
 21
1855.237805
 31
0.0
  0
LINE
  5
33E
330
207
100
AcDbEntity
  8
7_ALL_FEATURES
  6
Continuous
 62
     7
100
AcDbLine
 10
1583.359756
 20
2005.737805
 30
0.0
 11
1583.359756
 21
2005.537805
 31
0.0
  0
LINE
  5
33F
330
207
100
AcDbEntity
  8
7_ALL_FEATURES
  6
Continuous
 62
     7
100
AcDbLine
 10
1583.359756
 20
2005.537805
 30
0.0
 11
1583.359756
 21
2004.737805
 31
0.0
  0
LINE
  5
340
330
207
100
AcDbEntity
  8
7_ALL_FEATURES
  6
Continuous
 62
     7
100
AcDbLine
 10
1583.359756
 20
2004.737805
 30
0.0
 11
1583.359756
 21
2003.737805
 31
0.0
  0
LINE
  5
341
330
207
100
AcDbEntity
  8
7_ALL_FEATURES
  6
Continuous
 62
     7
100
AcDbLine
 10
1583.359756
 20
2003.737805
 30
0.0
 11
1583.359756
 21
2003.337805
 31
0.0
  0
LINE
  5
342
330
207
100
AcDbEntity
  8
7_ALL_FEATURES
  6
Continuous
 62
     7
100
AcDbLine
 10
1583.359756
 20
2003.337805
 30
0.0
 11
1583.359756
 21
2003.137805
 31
0.0
  0
LINE
  5
343
330
207
100
AcDbEntity
  8
7_ALL_FEATURES
  6
Continuous
 62
     7
100
AcDbLine
 10
1583.359756
 20
2003.137805
 30
0.0
 11
1583.359756
 21
2002.737805
 31
0.0
  0
LINE
  5
344
330
207
100
AcDbEntity
  8
7_ALL_FEATURES
  6
Continuous
 62
     7
100
AcDbLine
 10
1583.359756
 20
2002.737805
 30
0.0
 11
1583.359756
 21
1992.237805
 31
0.0
  0
LINE
  5
345
330
207
100
AcDbEntity
  8
7_ALL_FEATURES
  6
Continuous
 62
     7
100
AcDbLine
 10
1583.359756
 20
1992.237805
 30
0.0
 11
1583.359756
 21
1991.937805
 31
0.0
  0
LINE
  5
346
330
207
100
AcDbEntity
  8
7_ALL_FEATURES
  6
Continuous
 62
     7
100
AcDbLine
 10
1583.359756
 20
1991.737805
 30
0.0
 11
1583.359756
 21
1991.591358
 31
0.0
  0
LINE
  5
347
330
207
100
AcDbEntity
  8
7_ALL_FEATURES
  6
Continuous
 62
     7
100
AcDbLine
 10
1583.359756
 20
1991.591358
 30
0.0
 11
1583.359756
 21
1991.237805
 31
0.0
  0
LINE
  5
348
330
207
100
AcDbEntity
  8
7_ALL_FEATURES
  6
Continuous
 62
     7
100
AcDbLine
 10
1583.359756
 20
1991.237805
 30
0.0
 11
1583.359756
 21
1989.737805
 31
0.0
  0
LINE
  5
349
330
207
100
AcDbEntity
  8
7_ALL_FEATURES
  6
Continuous
 62
     7
100
AcDbLine
 10
1583.359756
 20
1989.737805
 30
0.0
 11
1583.359756
 21
1988.737805
 31
0.0
  0
LINE
  5
34A
330
207
100
AcDbEntity
  8
7_ALL_FEATURES
  6
Continuous
 62
     7
100
AcDbLine
 10
1583.359756
 20
1988.737805
 30
0.0
 11
1583.359756
 21
1988.488032
 31
0.0
  0
LINE
  5
34B
330
207
100
AcDbEntity
  8
7_ALL_FEATURES
  6
Continuous
 62
     7
100
AcDbLine
 10
1583.359756
 20
1988.488032
 30
0.0
 11
1583.359756
 21
1988.237805
 31
0.0
  0
LINE
  5
34C
330
207
100
AcDbEntity
  8
7_ALL_FEATURES
  6
Continuous
 62
     7
100
AcDbLine
 10
1583.359756
 20
1983.737805
 30
0.0
 11
1583.359756
 21
1983.237805
 31
0.0
  0
LINE
  5
34D
330
207
100
AcDbEntity
  8
7_ALL_FEATURES
  6
Continuous
 62
     7
100
AcDbLine
 10
1583.359756
 20
1983.237805
 30
0.0
 11
1583.359756
 21
1982.237805
 31
0.0
  0
LINE
  5
34E
330
207
100
AcDbEntity
  8
7_ALL_FEATURES
  6
Continuous
 62
     7
100
AcDbLine
 10
1583.359756
 20
1982.237805
 30
0.0
 11
1583.359756
 21
1980.737805
 31
0.0
  0
LINE
  5
34F
330
207
100
AcDbEntity
  8
7_ALL_FEATURES
  6
Continuous
 62
     7
100
AcDbLine
 10
1583.359756
 20
1980.737805
 30
0.0
 11
1583.359756
 21
1980.237805
 31
0.0
  0
LINE
  5
350
330
207
100
AcDbEntity
  8
7_ALL_FEATURES
  6
Continuous
 62
     7
100
AcDbLine
 10
1583.359756
 20
1980.037805
 30
0.0
 11
1583.359756
 21
1979.737805
 31
0.0
  0
LINE
  5
351
330
207
100
AcDbEntity
  8
7_ALL_FEATURES
  6
Continuous
 62
     7
100
AcDbLine
 10
1583.359756
 20
1979.737805
 30
0.0
 11
1583.359756
 21
1958.737805
 31
0.0
  0
LINE
  5
352
330
207
100
AcDbEntity
  8
7_ALL_FEATURES
  6
Continuous
 62
     7
100
AcDbLine
 10
1583.359756
 20
1958.737805
 30
0.0
 11
1583.359756
 21
1957.237805
 31
0.0
  0
LINE
  5
353
330
207
100
AcDbEntity
  8
7_ALL_FEATURES
  6
Continuous
 62
     7
100
AcDbLine
 10
1583.359756
 20
1957.237805
 30
0.0
 11
1583.359756
 21
1885.237805
 31
0.0
  0
LINE
  5
354
330
207
100
AcDbEntity
  8
7_ALL_FEATURES
  6
Continuous
 62
     7
100
AcDbLine
 10
1583.359756
 20
1885.237805
 30
0.0
 11
1583.359756
 21
1884.937805
 31
0.0
  0
LINE
  5
355
330
207
100
AcDbEntity
  8
7_ALL_FEATURES
  6
Continuous
 62
     7
100
AcDbLine
 10
1583.359756
 20
1884.737805
 30
0.0
 11
1583.359756
 21
1884.591358
 31
0.0
  0
LINE
  5
356
330
207
100
AcDbEntity
  8
7_ALL_FEATURES
  6
Continuous
 62
     7
100
AcDbLine
 10
1583.359756
 20
1884.591358
 30
0.0
 11
1583.359756
 21
1884.237805
 31
0.0
  0
LINE
  5
357
330
207
100
AcDbEntity
  8
7_ALL_FEATURES
  6
Continuous
 62
     7
100
AcDbLine
 10
1583.359756
 20
1884.237805
 30
0.0
 11
1583.359756
 21
1882.737805
 31
0.0
  0
LINE
  5
358
330
207
100
AcDbEntity
  8
7_ALL_FEATURES
  6
Continuous
 62
     7
100
AcDbLine
 10
1583.359756
 20
1882.737805
 30
0.0
 11
1583.359756
 21
1881.737805
 31
0.0
  0
LINE
  5
359
330
207
100
AcDbEntity
  8
7_ALL_FEATURES
  6
Continuous
 62
     7
100
AcDbLine
 10
1583.359756
 20
1881.737805
 30
0.0
 11
1583.359756
 21
1881.488032
 31
0.0
  0
LINE
  5
35A
330
207
100
AcDbEntity
  8
7_ALL_FEATURES
  6
Continuous
 62
     7
100
AcDbLine
 10
1583.359756
 20
1881.488032
 30
0.0
 11
1583.359756
 21
1881.237805
 31
0.0
  0
LINE
  5
35B
330
207
100
AcDbEntity
  8
7_ALL_FEATURES
  6
Continuous
 62
     7
100
AcDbLine
 10
1583.359756
 20
1876.737805
 30
0.0
 11
1583.359756
 21
1876.237805
 31
0.0
  0
LINE
  5
35C
330
207
100
AcDbEntity
  8
7_ALL_FEATURES
  6
Continuous
 62
     7
100
AcDbLine
 10
1583.359756
 20
1876.237805
 30
0.0
 11
1583.359756
 21
1875.237805
 31
0.0
  0
LINE
  5
35D
330
207
100
AcDbEntity
  8
7_ALL_FEATURES
  6
Continuous
 62
     7
100
AcDbLine
 10
1583.359756
 20
1875.237805
 30
0.0
 11
1583.359756
 21
1873.737805
 31
0.0
  0
LINE
  5
35E
330
207
100
AcDbEntity
  8
7_ALL_FEATURES
  6
Continuous
 62
     7
100
AcDbLine
 10
1583.359756
 20
1873.737805
 30
0.0
 11
1583.359756
 21
1873.237805
 31
0.0
  0
LINE
  5
35F
330
207
100
AcDbEntity
  8
7_ALL_FEATURES
  6
Continuous
 62
     7
100
AcDbLine
 10
1583.359756
 20
1873.037805
 30
0.0
 11
1583.359756
 21
1872.737805
 31
0.0
  0
LINE
  5
360
330
207
100
AcDbEntity
  8
7_ALL_FEATURES
  6
Continuous
 62
     7
100
AcDbLine
 10
1583.359756
 20
1872.737805
 30
0.0
 11
1583.359756
 21
1857.170764
 31
0.0
  0
LINE
  5
361
330
207
100
AcDbEntity
  8
7_ALL_FEATURES
  6
Continuous
 62
     7
100
AcDbLine
 10
1583.359756
 20
1857.170764
 30
0.0
 11
1583.359756
 21
1856.237805
 31
0.0
  0
LINE
  5
362
330
207
100
AcDbEntity
  8
7_ALL_FEATURES
  6
Continuous
 62
     7
100
AcDbLine
 10
1583.359756
 20
1856.237805
 30
0.0
 11
1583.359756
 21
1855.916285
 31
0.0
  0
LINE
  5
363
330
207
100
AcDbEntity
  8
7_ALL_FEATURES
  6
Continuous
 62
     7
100
AcDbLine
 10
1583.359756
 20
1855.916285
 30
0.0
 11
1583.359756
 21
1855.530698
 31
0.0
  0
LINE
  5
364
330
207
100
AcDbEntity
  8
7_ALL_FEATURES
  6
Continuous
 62
     7
100
AcDbLine
 10
1583.359756
 20
1855.530698
 30
0.0
 11
1583.359756
 21
1855.237805
 31
0.0
  0
LINE
  5
365
330
207
100
AcDbEntity
  8
7_ALL_FEATURES
  6
Continuous
 62
     7
100
AcDbLine
 10
317.859756
 20
1991.737805
 30
0.0
 11
1583.359756
 21
1991.737805
 31
0.0
  0
LINE
  5
366
330
207
100
AcDbEntity
  8
7_ALL_FEATURES
  6
Continuous
 62
     7
100
AcDbLine
 10
317.859756
 20
1856.237805
 30
0.0
 11
317.859756
 21
1856.056252
 31
0.0
  0
LINE
  5
367
330
207
100
AcDbEntity
  8
7_ALL_FEATURES
  6
Continuous
 62
     7
100
AcDbLine
 10
317.859756
 20
1856.056252
 30
0.0
 11
317.859756
 21
1855.597278
 31
0.0
  0
LINE
  5
368
330
207
100
AcDbEntity
  8
7_ALL_FEATURES
  6
Continuous
 62
     7
100
AcDbLine
 10
317.859756
 20
1855.597278
 30
0.0
 11
317.859756
 21
1855.237805
 31
0.0
  0
LINE
  5
369
330
207
100
AcDbEntity
  8
7_ALL_FEATURES
  6
Continuous
 62
     7
100
AcDbLine
 10
317.859756
 20
1873.037805
 30
0.0
 11
317.859756
 21
1872.737805
 31
0.0
  0
LINE
  5
36A
330
207
100
AcDbEntity
  8
7_ALL_FEATURES
  6
Continuous
 62
     7
100
AcDbLine
 10
317.859756
 20
1872.737805
 30
0.0
 11
317.859756
 21
1857.237805
 31
0.0
  0
LINE
  5
36B
330
207
100
AcDbEntity
  8
7_ALL_FEATURES
  6
Continuous
 62
     7
100
AcDbLine
 10
317.859756
 20
1857.237805
 30
0.0
 11
317.859756
 21
1856.237805
 31
0.0
  0
LINE
  5
36C
330
207
100
AcDbEntity
  8
7_ALL_FEATURES
  6
Continuous
 62
     7
100
AcDbLine
 10
317.859756
 20
1873.737805
 30
0.0
 11
317.859756
 21
1873.237805
 31
0.0
  0
LINE
  5
36D
330
207
100
AcDbEntity
  8
7_ALL_FEATURES
  6
Continuous
 62
     7
100
AcDbLine
 10
317.859756
 20
1876.237805
 30
0.0
 11
317.859756
 21
1875.237805
 31
0.0
  0
LINE
  5
36E
330
207
100
AcDbEntity
  8
7_ALL_FEATURES
  6
Continuous
 62
     7
100
AcDbLine
 10
317.859756
 20
1875.237805
 30
0.0
 11
317.859756
 21
1873.737805
 31
0.0
  0
LINE
  5
36F
330
207
100
AcDbEntity
  8
7_ALL_FEATURES
  6
Continuous
 62
     7
100
AcDbLine
 10
317.859756
 20
1876.737805
 30
0.0
 11
317.859756
 21
1876.237805
 31
0.0
  0
LINE
  5
370
330
207
100
AcDbEntity
  8
7_ALL_FEATURES
  6
Continuous
 62
     7
100
AcDbLine
 10
317.859756
 20
1881.737805
 30
0.0
 11
317.859756
 21
1881.487805
 31
0.0
  0
LINE
  5
371
330
207
100
AcDbEntity
  8
7_ALL_FEATURES
  6
Continuous
 62
     7
100
AcDbLine
 10
317.859756
 20
1881.487805
 30
0.0
 11
317.859756
 21
1881.237805
 31
0.0
  0
LINE
  5
372
330
207
100
AcDbEntity
  8
7_ALL_FEATURES
  6
Continuous
 62
     7
100
AcDbLine
 10
317.859756
 20
1884.237805
 30
0.0
 11
317.859756
 21
1882.737805
 31
0.0
  0
LINE
  5
373
330
207
100
AcDbEntity
  8
7_ALL_FEATURES
  6
Continuous
 62
     7
100
AcDbLine
 10
317.859756
 20
1882.737805
 30
0.0
 11
317.859756
 21
1881.737805
 31
0.0
  0
LINE
  5
374
330
207
100
AcDbEntity
  8
7_ALL_FEATURES
  6
Continuous
 62
     7
100
AcDbLine
 10
317.859756
 20
1884.737805
 30
0.0
 11
317.859756
 21
1884.558068
 31
0.0
  0
LINE
  5
375
330
207
100
AcDbEntity
  8
7_ALL_FEATURES
  6
Continuous
 62
     7
100
AcDbLine
 10
317.859756
 20
1884.558068
 30
0.0
 11
317.859756
 21
1884.237805
 31
0.0
  0
LINE
  5
376
330
207
100
AcDbEntity
  8
7_ALL_FEATURES
  6
Continuous
 62
     7
100
AcDbLine
 10
317.859756
 20
1980.037805
 30
0.0
 11
317.859756
 21
1979.737805
 31
0.0
  0
LINE
  5
377
330
207
100
AcDbEntity
  8
7_ALL_FEATURES
  6
Continuous
 62
     7
100
AcDbLine
 10
317.859756
 20
1979.737805
 30
0.0
 11
317.859756
 21
1958.737805
 31
0.0
  0
LINE
  5
378
330
207
100
AcDbEntity
  8
7_ALL_FEATURES
  6
Continuous
 62
     7
100
AcDbLine
 10
317.859756
 20
1958.737805
 30
0.0
 11
317.859756
 21
1957.237805
 31
0.0
  0
LINE
  5
379
330
207
100
AcDbEntity
  8
7_ALL_FEATURES
  6
Continuous
 62
     7
100
AcDbLine
 10
317.859756
 20
1957.237805
 30
0.0
 11
317.859756
 21
1885.237805
 31
0.0
  0
LINE
  5
37A
330
207
100
AcDbEntity
  8
7_ALL_FEATURES
  6
Continuous
 62
     7
100
AcDbLine
 10
317.859756
 20
1885.237805
 30
0.0
 11
317.859756
 21
1884.937805
 31
0.0
  0
LINE
  5
37B
330
207
100
AcDbEntity
  8
7_ALL_FEATURES
  6
Continuous
 62
     7
100
AcDbLine
 10
317.859756
 20
1980.737805
 30
0.0
 11
317.859756
 21
1980.237805
 31
0.0
  0
LINE
  5
37C
330
207
100
AcDbEntity
  8
7_ALL_FEATURES
  6
Continuous
 62
     7
100
AcDbLine
 10
317.859756
 20
1983.237805
 30
0.0
 11
317.859756
 21
1982.237805
 31
0.0
  0
LINE
  5
37D
330
207
100
AcDbEntity
  8
7_ALL_FEATURES
  6
Continuous
 62
     7
100
AcDbLine
 10
317.859756
 20
1982.237805
 30
0.0
 11
317.859756
 21
1980.737805
 31
0.0
  0
LINE
  5
37E
330
207
100
AcDbEntity
  8
7_ALL_FEATURES
  6
Continuous
 62
     7
100
AcDbLine
 10
317.859756
 20
1983.737805
 30
0.0
 11
317.859756
 21
1983.237805
 31
0.0
  0
LINE
  5
37F
330
207
100
AcDbEntity
  8
7_ALL_FEATURES
  6
Continuous
 62
     7
100
AcDbLine
 10
317.859756
 20
1988.737805
 30
0.0
 11
317.859756
 21
1988.487805
 31
0.0
  0
LINE
  5
380
330
207
100
AcDbEntity
  8
7_ALL_FEATURES
  6
Continuous
 62
     7
100
AcDbLine
 10
317.859756
 20
1988.487805
 30
0.0
 11
317.859756
 21
1988.237805
 31
0.0
  0
LINE
  5
381
330
207
100
AcDbEntity
  8
7_ALL_FEATURES
  6
Continuous
 62
     7
100
AcDbLine
 10
317.859756
 20
1991.237805
 30
0.0
 11
317.859756
 21
1989.737805
 31
0.0
  0
LINE
  5
382
330
207
100
AcDbEntity
  8
7_ALL_FEATURES
  6
Continuous
 62
     7
100
AcDbLine
 10
317.859756
 20
1989.737805
 30
0.0
 11
317.859756
 21
1988.737805
 31
0.0
  0
LINE
  5
383
330
207
100
AcDbEntity
  8
7_ALL_FEATURES
  6
Continuous
 62
     7
100
AcDbLine
 10
317.859756
 20
1991.737805
 30
0.0
 11
317.859756
 21
1991.558068
 31
0.0
  0
LINE
  5
384
330
207
100
AcDbEntity
  8
7_ALL_FEATURES
  6
Continuous
 62
     7
100
AcDbLine
 10
317.859756
 20
1991.558068
 30
0.0
 11
317.859756
 21
1991.237805
 31
0.0
  0
LINE
  5
385
330
207
100
AcDbEntity
  8
7_ALL_FEATURES
  6
Continuous
 62
     7
100
AcDbLine
 10
317.859756
 20
2005.537805
 30
0.0
 11
317.859756
 21
2004.737805
 31
0.0
  0
LINE
  5
386
330
207
100
AcDbEntity
  8
7_ALL_FEATURES
  6
Continuous
 62
     7
100
AcDbLine
 10
317.859756
 20
2004.737805
 30
0.0
 11
317.859756
 21
2003.737805
 31
0.0
  0
LINE
  5
387
330
207
100
AcDbEntity
  8
7_ALL_FEATURES
  6
Continuous
 62
     7
100
AcDbLine
 10
317.859756
 20
2003.737805
 30
0.0
 11
317.859756
 21
2003.337805
 31
0.0
  0
LINE
  5
388
330
207
100
AcDbEntity
  8
7_ALL_FEATURES
  6
Continuous
 62
     7
100
AcDbLine
 10
317.859756
 20
2003.337805
 30
0.0
 11
317.859756
 21
2003.137805
 31
0.0
  0
LINE
  5
389
330
207
100
AcDbEntity
  8
7_ALL_FEATURES
  6
Continuous
 62
     7
100
AcDbLine
 10
317.859756
 20
2003.137805
 30
0.0
 11
317.859756
 21
2002.737805
 31
0.0
  0
LINE
  5
38A
330
207
100
AcDbEntity
  8
7_ALL_FEATURES
  6
Continuous
 62
     7
100
AcDbLine
 10
317.859756
 20
2002.737805
 30
0.0
 11
317.859756
 21
1992.237805
 31
0.0
  0
LINE
  5
38B
330
207
100
AcDbEntity
  8
7_ALL_FEATURES
  6
Continuous
 62
     7
100
AcDbLine
 10
317.859756
 20
1992.237805
 30
0.0
 11
317.859756
 21
1991.937805
 31
0.0
  0
LINE
  5
38C
330
207
100
AcDbEntity
  8
7_ALL_FEATURES
  6
Continuous
 62
     7
100
AcDbLine
 10
317.859756
 20
2005.737805
 30
0.0
 11
317.859756
 21
2005.537805
 31
0.0
  0
LINE
  5
38D
330
207
100
AcDbEntity
  8
7_ALL_FEATURES
  6
Continuous
 62
     9
100
AcDbLine
 10
317.859756
 20
1873.037805
 30
0.0
 11
1583.359756
 21
1873.037805
 31
0.0
  0
LINE
  5
38E
330
207
100
AcDbEntity
  8
7_ALL_FEATURES
  6
Continuous
 62
     9
100
AcDbLine
 10
317.859756
 20
1856.237805
 30
0.0
 11
1583.359756
 21
1856.237805
 31
0.0
  0
LINE
  5
38F
330
207
100
AcDbEntity
  8
7_ALL_FEATURES
  6
Continuous
 62
     9
100
AcDbLine
 10
317.859756
 20
1980.737805
 30
0.0
 11
1583.359756
 21
1980.737805
 31
0.0
  0
LINE
  5
390
330
207
100
AcDbEntity
  8
7_ALL_FEATURES
  6
Continuous
 62
     9
100
AcDbLine
 10
317.859756
 20
1991.237805
 30
0.0
 11
1583.359756
 21
1991.237805
 31
0.0
  0
LINE
  5
391
330
207
100
AcDbEntity
  8
7_ALL_FEATURES
  6
Continuous
 62
     9
100
AcDbLine
 10
317.859756
 20
1988.737805
 30
0.0
 11
1583.359756
 21
1988.737805
 31
0.0
  0
LINE
  5
392
330
207
100
AcDbEntity
  8
7_ALL_FEATURES
  6
Continuous
 62
     9
100
AcDbLine
 10
317.859756
 20
1980.037805
 30
0.0
 11
1583.359756
 21
1980.037805
 31
0.0
  0
LINE
  5
393
330
207
100
AcDbEntity
  8
7_ALL_FEATURES
  6
Continuous
 62
     9
100
AcDbLine
 10
317.859756
 20
1884.937805
 30
0.0
 11
1583.359756
 21
1884.937805
 31
0.0
  0
LINE
  5
394
330
207
100
AcDbEntity
  8
7_ALL_FEATURES
  6
Continuous
 62
     9
100
AcDbLine
 10
317.859756
 20
1991.937805
 30
0.0
 11
1583.359756
 21
1991.937805
 31
0.0
  0
LINE
  5
395
330
207
100
AcDbEntity
  8
7_ALL_FEATURES
  6
Continuous
 62
     9
100
AcDbLine
 10
317.859756
 20
1884.237805
 30
0.0
 11
1583.359756
 21
1884.237805
 31
0.0
  0
LINE
  5
396
330
207
100
AcDbEntity
  8
7_ALL_FEATURES
  6
Continuous
 62
     9
100
AcDbLine
 10
317.859756
 20
1881.737805
 30
0.0
 11
1583.359756
 21
1881.737805
 31
0.0
  0
LINE
  5
397
330
207
100
AcDbEntity
  8
7_ALL_FEATURES
  6
Continuous
 62
     9
100
AcDbLine
 10
317.859756
 20
1876.237805
 30
0.0
 11
1583.359756
 21
1876.237805
 31
0.0
  0
LINE
  5
398
330
207
100
AcDbEntity
  8
7_ALL_FEATURES
  6
Continuous
 62
     9
100
AcDbLine
 10
317.859756
 20
1873.737805
 30
0.0
 11
1583.359756
 21
1873.737805
 31
0.0
  0
LINE
  5
399
330
207
100
AcDbEntity
  8
7_ALL_FEATURES
  6
Continuous
 62
     9
100
AcDbLine
 10
317.859756
 20
2005.537805
 30
0.0
 11
1583.359756
 21
2005.537805
 31
0.0
  0
LINE
  5
39A
330
207
100
AcDbEntity
  8
7_ALL_FEATURES
  6
Continuous
 62
     9
100
AcDbLine
 10
317.859756
 20
1983.237805
 30
0.0
 11
1583.359756
 21
1983.237805
 31
0.0
  0
LINE
  5
39B
330
207
100
AcDbEntity
  8
7_ALL_FEATURES
  6
Continuous
 62
     3
100
AcDbLine
 10
1583.359756
 20
1872.828581
 30
0.0
 11
1583.359756
 21
1872.737805
 31
0.0
  0
LINE
  5
39C
330
207
100
AcDbEntity
  8
7_ALL_FEATURES
  6
Continuous
 62
     3
100
AcDbLine
 10
1583.359756
 20
1872.737805
 30
0.0
 11
1583.359756
 21
1857.237805
 31
0.0
  0
LINE
  5
39D
330
207
100
AcDbEntity
  8
7_ALL_FEATURES
  6
Continuous
 62
     3
100
AcDbLine
 10
1583.359756
 20
1857.237805
 30
0.0
 11
1583.359756
 21
1857.170764
 31
0.0
  0
SPLINE
  5
39E
330
207
100
AcDbEntity
  8
7_ALL_FEATURES
  6
Continuous
 62
     3
100
AcDbSpline
 70
     0
 71
     3
 72
     9
 73
     5
 74
     0
 42
0.000000001
 43
0.0000001
 40
0.0
 40
0.0
 40
0.0
 40
0.0
 40
0.4580857352
 40
1.0
 40
1.0
 40
1.0
 40
1.0
 10
1583.2130737233
 20
1987.3085025149
 30
0.0
 10
1583.3121213812
 20
1987.1305115449
 30
0.0
 10
1583.3482108513
 20
1986.6657459632
 30
0.0
 10
1583.3548826297
 20
1986.2287743012
 30
0.0
 10
1583.3548826297
 20
1985.987804878
 30
0.0
  0
SPLINE
  5
39F
330
207
100
AcDbEntity
  8
7_ALL_FEATURES
  6
Continuous
 62
     3
100
AcDbSpline
 70
     0
 71
     3
 72
     9
 73
     5
 74
     0
 42
0.000000001
 43
0.0000001
 40
0.0
 40
0.0
 40
0.0
 40
0.0
 40
0.4580857352
 40
1.0
 40
1.0
 40
1.0
 40
1.0
 10
1583.2130737233
 20
1880.3085025149
 30
0.0
 10
1583.3121213812
 20
1880.1305115449
 30
0.0
 10
1583.3482108513
 20
1879.6657459632
 30
0.0
 10
1583.3548826297
 20
1879.2287743012
 30
0.0
 10
1583.3548826297
 20
1878.987804878
 30
0.0
  0
LINE
  5
3A0
330
207
100
AcDbEntity
  8
7_ALL_FEATURES
  6
Continuous
 62
     3
100
AcDbLine
 10
1583.359756
 20
2004.919358
 30
0.0
 11
1583.359756
 21
2004.737805
 31
0.0
  0
LINE
  5
3A1
330
207
100
AcDbEntity
  8
7_ALL_FEATURES
  6
Continuous
 62
     3
100
AcDbLine
 10
1583.359756
 20
2004.737805
 30
0.0
 11
1583.359756
 21
2003.737805
 31
0.0
  0
LINE
  5
3A2
330
207
100
AcDbEntity
  8
7_ALL_FEATURES
  6
Continuous
 62
     3
100
AcDbLine
 10
1583.359756
 20
2003.737805
 30
0.0
 11
1583.359756
 21
2003.337805
 31
0.0
  0
LINE
  5
3A3
330
207
100
AcDbEntity
  8
7_ALL_FEATURES
  6
Continuous
 62
     3
100
AcDbLine
 10
1583.359756
 20
2003.337805
 30
0.0
 11
1583.359756
 21
2003.137805
 31
0.0
  0
LINE
  5
3A4
330
207
100
AcDbEntity
  8
7_ALL_FEATURES
  6
Continuous
 62
     3
100
AcDbLine
 10
1583.359756
 20
2003.137805
 30
0.0
 11
1583.359756
 21
2002.737805
 31
0.0
  0
LINE
  5
3A5
330
207
100
AcDbEntity
  8
7_ALL_FEATURES
  6
Continuous
 62
     3
100
AcDbLine
 10
1583.359756
 20
2002.737805
 30
0.0
 11
1583.359756
 21
1992.237805
 31
0.0
  0
LINE
  5
3A6
330
207
100
AcDbEntity
  8
7_ALL_FEATURES
  6
Continuous
 62
     3
100
AcDbLine
 10
1583.359756
 20
1979.828581
 30
0.0
 11
1583.359756
 21
1979.737805
 31
0.0
  0
LINE
  5
3A7
330
207
100
AcDbEntity
  8
7_ALL_FEATURES
  6
Continuous
 62
     3
100
AcDbLine
 10
1583.359756
 20
1979.737805
 30
0.0
 11
1583.359756
 21
1885.237805
 31
0.0
  0
SPLINE
  5
3A8
330
207
100
AcDbEntity
  8
7_ALL_FEATURES
  6
Continuous
 62
     3
100
AcDbSpline
 70
     0
 71
     3
 72
     9
 73
     5
 74
     0
 42
0.000000001
 43
0.0000001
 40
0.0
 40
0.0
 40
0.0
 40
0.0
 40
0.5419142648
 40
1.0
 40
1.0
 40
1.0
 40
1.0
 10
1583.3548826297
 20
1878.987804878
 30
0.0
 10
1583.3548826297
 20
1878.7468354549
 30
0.0
 10
1583.3482108513
 20
1878.3098637929
 30
0.0
 10
1583.3121213812
 20
1877.8450982112
 30
0.0
 10
1583.2130737233
 20
1877.6671072412
 30
0.0
  0
SPLINE
  5
3A9
330
207
100
AcDbEntity
  8
7_ALL_FEATURES
  6
Continuous
 62
     3
100
AcDbSpline
 70
     0
 71
     3
 72
     9
 73
     5
 74
     0
 42
0.000000001
 43
0.0000001
 40
0.0
 40
0.0
 40
0.0
 40
0.0
 40
0.5419142648
 40
1.0
 40
1.0
 40
1.0
 40
1.0
 10
1583.3548826297
 20
1985.987804878
 30
0.0
 10
1583.3548826297
 20
1985.7468354549
 30
0.0
 10
1583.3482108513
 20
1985.3098637929
 30
0.0
 10
1583.3121213812
 20
1984.8450982112
 30
0.0
 10
1583.2130737233
 20
1984.6671072412
 30
0.0
  0
LINE
  5
3AA
330
207
100
AcDbEntity
  8
7_ALL_FEATURES
  6
Continuous
 62
     3
100
AcDbLine
 10
317.859756
 20
1872.737805
 30
0.0
 11
317.859756
 21
1857.237805
 31
0.0
  0
LINE
  5
3AB
330
207
100
AcDbEntity
  8
7_ALL_FEATURES
  6
Continuous
 62
     3
100
AcDbLine
 10
317.859756
 20
1872.828581
 30
0.0
 11
317.859756
 21
1872.737805
 31
0.0
  0
LINE
  5
3AC
330
207
100
AcDbEntity
  8
7_ALL_FEATURES
  6
Continuous
 62
     3
100
AcDbLine
 10
317.859756
 20
1979.737805
 30
0.0
 11
317.859756
 21
1885.237805
 31
0.0
  0
LINE
  5
3AD
330
207
100
AcDbEntity
  8
7_ALL_FEATURES
  6
Continuous
 62
     3
100
AcDbLine
 10
317.859756
 20
1979.828581
 30
0.0
 11
317.859756
 21
1979.737805
 31
0.0
  0
LINE
  5
3AE
330
207
100
AcDbEntity
  8
7_ALL_FEATURES
  6
Continuous
 62
     3
100
AcDbLine
 10
317.859756
 20
2004.737805
 30
0.0
 11
317.859756
 21
2003.737805
 31
0.0
  0
LINE
  5
3AF
330
207
100
AcDbEntity
  8
7_ALL_FEATURES
  6
Continuous
 62
     3
100
AcDbLine
 10
317.859756
 20
2003.737805
 30
0.0
 11
317.859756
 21
2003.337805
 31
0.0
  0
LINE
  5
3B0
330
207
100
AcDbEntity
  8
7_ALL_FEATURES
  6
Continuous
 62
     3
100
AcDbLine
 10
317.859756
 20
2003.337805
 30
0.0
 11
317.859756
 21
2003.137805
 31
0.0
  0
LINE
  5
3B1
330
207
100
AcDbEntity
  8
7_ALL_FEATURES
  6
Continuous
 62
     3
100
AcDbLine
 10
317.859756
 20
2003.137805
 30
0.0
 11
317.859756
 21
2002.737805
 31
0.0
  0
LINE
  5
3B2
330
207
100
AcDbEntity
  8
7_ALL_FEATURES
  6
Continuous
 62
     3
100
AcDbLine
 10
317.859756
 20
2002.737805
 30
0.0
 11
317.859756
 21
1992.237805
 31
0.0
  0
LINE
  5
3B3
330
207
100
AcDbEntity
  8
7_ALL_FEATURES
  6
Continuous
 62
     3
100
AcDbLine
 10
317.859756
 20
2004.919358
 30
0.0
 11
317.859756
 21
2004.737805
 31
0.0
  0
SPLINE
  5
3B4
330
207
100
AcDbEntity
  8
7_ALL_FEATURES
  6
Continuous
 62
     3
100
AcDbSpline
 70
     0
 71
     3
 72
     9
 73
     5
 74
     0
 42
0.000000001
 43
0.0000001
 40
0.0
 40
0.0
 40
0.0
 40
0.0
 40
0.4580852749
 40
1.0
 40
1.0
 40
1.0
 40
1.0
 10
318.0064488856
 20
1880.3085223767
 30
0.0
 10
317.9073874718
 20
1880.1305355288
 30
0.0
 10
317.8713063635
 20
1879.6657539137
 30
0.0
 10
317.8646295655
 20
1879.2287784004
 30
0.0
 10
317.8646295655
 20
1878.987804878
 30
0.0
  0
SPLINE
  5
3B5
330
207
100
AcDbEntity
  8
7_ALL_FEATURES
  6
Continuous
 62
     3
100
AcDbSpline
 70
     0
 71
     3
 72
     9
 73
     5
 74
     0
 42
0.000000001
 43
0.0000001
 40
0.0
 40
0.0
 40
0.0
 40
0.0
 40
0.4580853095
 40
1.0
 40
1.0
 40
1.0
 40
1.0
 10
318.0064480927
 20
1987.3085208662
 30
0.0
 10
317.9073877301
 20
1987.1305337023
 30
0.0
 10
317.8713059785
 20
1986.6657533108
 30
0.0
 10
317.8646295655
 20
1986.2287780888
 30
0.0
 10
317.8646295655
 20
1985.987804878
 30
0.0
  0
SPLINE
  5
3B6
330
207
100
AcDbEntity
  8
7_ALL_FEATURES
  6
Continuous
 62
     3
100
AcDbSpline
 70
     0
 71
     3
 72
     9
 73
     5
 74
     0
 42
0.000000001
 43
0.0000001
 40
0.0
 40
0.0
 40
0.0
 40
0.0
 40
0.5419146905
 40
1.0
 40
1.0
 40
1.0
 40
1.0
 10
317.8646295655
 20
1985.987804878
 30
0.0
 10
317.8646295655
 20
1985.7468316673
 30
0.0
 10
317.8713059785
 20
1985.3098564453
 30
0.0
 10
317.9073877301
 20
1984.8450760538
 30
0.0
 10
318.0064480927
 20
1984.6670888899
 30
0.0
  0
SPLINE
  5
3B7
330
207
100
AcDbEntity
  8
7_ALL_FEATURES
  6
Continuous
 62
     3
100
AcDbSpline
 70
     0
 71
     3
 72
     9
 73
     5
 74
     0
 42
0.000000001
 43
0.0000001
 40
0.0
 40
0.0
 40
0.0
 40
0.0
 40
0.5419147251
 40
1.0
 40
1.0
 40
1.0
 40
1.0
 10
317.8646295655
 20
1878.987804878
 30
0.0
 10
317.8646295655
 20
1878.7468313557
 30
0.0
 10
317.8713063635
 20
1878.3098558424
 30
0.0
 10
317.9073874718
 20
1877.8450742273
 30
0.0
 10
318.0064488856
 20
1877.6670873794
 30
0.0
  0
LINE
  5
3B8
330
207
100
AcDbEntity
  8
3_ALL_AXES
  6
Continuous
 62
     7
100
AcDbLine
 10
316.359756
 20
1411.741463
 30
0.0
 11
315.653886
 21
1411.741463
 31
0.0
  0
LINE
  5
3B9
330
207
100
AcDbEntity
  8
3_ALL_AXES
  6
Continuous
 62
     7
100
AcDbLine
 10
316.359756
 20
1405.941463
 30
0.0
 11
315.653886
 21
1405.941463
 31
0.0
  0
ARC
  5
3BA
330
207
100
AcDbEntity
  8
3_ALL_AXES
  6
Continuous
 62
     7
100
AcDbCircle
 10
323.109756
 20
1408.841463
 30
0.0
 40
8.0
100
AcDbArc
 50
180.0
 51
201.253809
  0
ARC
  5
3BB
330
207
100
AcDbEntity
  8
3_ALL_AXES
  6
Continuous
 62
     7
100
AcDbCircle
 10
323.109756
 20
1408.841463
 30
0.0
 40
8.0
100
AcDbArc
 50
158.746191
 51
180.0
  0
LINE
  5
3BC
330
207
100
AcDbEntity
  8
3_ALL_AXES
  6
Continuous
 62
     7
100
AcDbLine
 10
315.653886
 20
1411.741463
 30
0.0
 11
315.653886
 21
1405.941463
 31
0.0
  0
LINE
  5
3BD
330
207
100
AcDbEntity
  8
3_ALL_AXES
  6
Continuous
 62
     7
100
AcDbLine
 10
1584.859756
 20
1380.941463
 30
0.0
 11
1585.565626
 21
1380.941463
 31
0.0
  0
LINE
  5
3BE
330
207
100
AcDbEntity
  8
3_ALL_AXES
  6
Continuous
 62
     7
100
AcDbLine
 10
1584.859756
 20
1386.741463
 30
0.0
 11
1585.565626
 21
1386.741463
 31
0.0
  0
ARC
  5
3BF
330
207
100
AcDbEntity
  8
3_ALL_AXES
  6
Continuous
 62
     7
100
AcDbCircle
 10
1578.109756
 20
1383.841463
 30
0.0
 40
8.0
100
AcDbArc
 50
0.0
 51
21.253809
  0
ARC
  5
3C0
330
207
100
AcDbEntity
  8
3_ALL_AXES
  6
Continuous
 62
     7
100
AcDbCircle
 10
1578.109756
 20
1383.841463
 30
0.0
 40
8.0
100
AcDbArc
 50
338.746191
 51
360.0
  0
LINE
  5
3C1
330
207
100
AcDbEntity
  8
3_ALL_AXES
  6
Continuous
 62
     7
100
AcDbLine
 10
1585.565626
 20
1380.941463
 30
0.0
 11
1585.565626
 21
1386.741463
 31
0.0
  0
LINE
  5
3C2
330
207
100
AcDbEntity
  8
3_ALL_AXES
  6
Continuous
 62
     7
100
AcDbLine
 10
316.359756
 20
1386.741463
 30
0.0
 11
315.653886
 21
1386.741463
 31
0.0
  0
LINE
  5
3C3
330
207
100
AcDbEntity
  8
3_ALL_AXES
  6
Continuous
 62
     7
100
AcDbLine
 10
316.359756
 20
1380.941463
 30
0.0
 11
315.653886
 21
1380.941463
 31
0.0
  0
ARC
  5
3C4
330
207
100
AcDbEntity
  8
3_ALL_AXES
  6
Continuous
 62
     7
100
AcDbCircle
 10
323.109756
 20
1383.841463
 30
0.0
 40
8.0
100
AcDbArc
 50
180.0
 51
201.253809
  0
ARC
  5
3C5
330
207
100
AcDbEntity
  8
3_ALL_AXES
  6
Continuous
 62
     7
100
AcDbCircle
 10
323.109756
 20
1383.841463
 30
0.0
 40
8.0
100
AcDbArc
 50
158.746191
 51
180.0
  0
LINE
  5
3C6
330
207
100
AcDbEntity
  8
3_ALL_AXES
  6
Continuous
 62
     7
100
AcDbLine
 10
315.653886
 20
1386.741463
 30
0.0
 11
315.653886
 21
1380.941463
 31
0.0
  0
LINE
  5
3C7
330
207
100
AcDbEntity
  8
3_ALL_AXES
  6
Continuous
 62
     7
100
AcDbLine
 10
1584.859756
 20
1405.941463
 30
0.0
 11
1585.565626
 21
1405.941463
 31
0.0
  0
LINE
  5
3C8
330
207
100
AcDbEntity
  8
3_ALL_AXES
  6
Continuous
 62
     7
100
AcDbLine
 10
1584.859756
 20
1411.741463
 30
0.0
 11
1585.565626
 21
1411.741463
 31
0.0
  0
ARC
  5
3C9
330
207
100
AcDbEntity
  8
3_ALL_AXES
  6
Continuous
 62
     7
100
AcDbCircle
 10
1578.109756
 20
1408.841463
 30
0.0
 40
8.0
100
AcDbArc
 50
0.0
 51
21.253809
  0
ARC
  5
3CA
330
207
100
AcDbEntity
  8
3_ALL_AXES
  6
Continuous
 62
     7
100
AcDbCircle
 10
1578.109756
 20
1408.841463
 30
0.0
 40
8.0
100
AcDbArc
 50
338.746191
 51
360.0
  0
LINE
  5
3CB
330
207
100
AcDbEntity
  8
3_ALL_AXES
  6
Continuous
 62
     7
100
AcDbLine
 10
1585.565626
 20
1405.941463
 30
0.0
 11
1585.565626
 21
1411.741463
 31
0.0
  0
LINE
  5
3CC
330
207
100
AcDbEntity
  8
7_ALL_FEATURES
  6
Continuous
 62
     7
100
AcDbLine
 10
316.359756
 20
1348.141463
 30
0.0
 11
316.359756
 21
1347.141463
 31
0.0
  0
LINE
  5
3CD
330
207
100
AcDbEntity
  8
7_ALL_FEATURES
  6
Continuous
 62
     7
100
AcDbLine
 10
316.359756
 20
1444.541463
 30
0.0
 11
316.359756
 21
1445.541463
 31
0.0
  0
LINE
  5
3CE
330
207
100
AcDbEntity
  8
7_ALL_FEATURES
  6
Continuous
 62
     7
100
AcDbLine
 10
317.859756
 20
1347.141463
 30
0.0
 11
316.359756
 21
1347.141463
 31
0.0
  0
LINE
  5
3CF
330
207
100
AcDbEntity
  8
7_ALL_FEATURES
  6
Continuous
 62
     7
100
AcDbLine
 10
317.859756
 20
1445.541463
 30
0.0
 11
316.359756
 21
1445.541463
 31
0.0
  0
LINE
  5
3D0
330
207
100
AcDbEntity
  8
7_ALL_FEATURES
  6
Continuous
 62
     7
100
AcDbLine
 10
316.359756
 20
1348.141463
 30
0.0
 11
316.359756
 21
1444.541463
 31
0.0
  0
LINE
  5
3D1
330
207
100
AcDbEntity
  8
7_ALL_FEATURES
  6
Continuous
 62
     9
100
AcDbLine
 10
317.859756
 20
1444.541463
 30
0.0
 11
316.359756
 21
1444.541463
 31
0.0
  0
LINE
  5
3D2
330
207
100
AcDbEntity
  8
7_ALL_FEATURES
  6
Continuous
 62
     9
100
AcDbLine
 10
317.859756
 20
1348.141463
 30
0.0
 11
316.359756
 21
1348.141463
 31
0.0
  0
LINE
  5
3D3
330
207
100
AcDbEntity
  8
7_ALL_FEATURES
  6
Continuous
 62
     7
100
AcDbLine
 10
1584.859756
 20
1444.541463
 30
0.0
 11
1584.859756
 21
1445.541463
 31
0.0
  0
LINE
  5
3D4
330
207
100
AcDbEntity
  8
7_ALL_FEATURES
  6
Continuous
 62
     7
100
AcDbLine
 10
1584.859756
 20
1348.141463
 30
0.0
 11
1584.859756
 21
1347.141463
 31
0.0
  0
LINE
  5
3D5
330
207
100
AcDbEntity
  8
7_ALL_FEATURES
  6
Continuous
 62
     7
100
AcDbLine
 10
1583.359756
 20
1445.541463
 30
0.0
 11
1584.859756
 21
1445.541463
 31
0.0
  0
LINE
  5
3D6
330
207
100
AcDbEntity
  8
7_ALL_FEATURES
  6
Continuous
 62
     7
100
AcDbLine
 10
1583.359756
 20
1347.141463
 30
0.0
 11
1584.859756
 21
1347.141463
 31
0.0
  0
LINE
  5
3D7
330
207
100
AcDbEntity
  8
7_ALL_FEATURES
  6
Continuous
 62
     7
100
AcDbLine
 10
1584.859756
 20
1444.541463
 30
0.0
 11
1584.859756
 21
1348.141463
 31
0.0
  0
LINE
  5
3D8
330
207
100
AcDbEntity
  8
7_ALL_FEATURES
  6
Continuous
 62
     9
100
AcDbLine
 10
1583.359756
 20
1348.141463
 30
0.0
 11
1584.859756
 21
1348.141463
 31
0.0
  0
LINE
  5
3D9
330
207
100
AcDbEntity
  8
7_ALL_FEATURES
  6
Continuous
 62
     9
100
AcDbLine
 10
1583.359756
 20
1444.541463
 30
0.0
 11
1584.859756
 21
1444.541463
 31
0.0
  0
ARC
  5
3DA
330
207
100
AcDbEntity
  8
3_ALL_AXES
  6
Continuous
 62
     7
100
AcDbCircle
 10
1563.359756
 20
1396.341463
 30
0.0
 40
5.0
100
AcDbArc
 50
180.0
 51
360.0
  0
ARC
  5
3DB
330
207
100
AcDbEntity
  8
3_ALL_AXES
  6
Continuous
 62
     7
100
AcDbCircle
 10
1563.359756
 20
1396.341463
 30
0.0
 40
5.0
100
AcDbArc
 50
0.0
 51
180.0
  0
LINE
  5
3DC
330
207
100
AcDbEntity
  8
7_ALL_FEATURES
  6
Continuous
 62
     7
100
AcDbLine
 10
317.859756
 20
1348.641463
 30
0.0
 11
1583.359756
 21
1348.641463
 31
0.0
  0
LINE
  5
3DD
330
207
100
AcDbEntity
  8
7_ALL_FEATURES
  6
Continuous
 62
     7
100
AcDbLine
 10
317.859756
 20
1347.141463
 30
0.0
 11
1583.359756
 21
1347.141463
 31
0.0
  0
LINE
  5
3DE
330
207
100
AcDbEntity
  8
7_ALL_FEATURES
  6
Continuous
 62
     7
100
AcDbLine
 10
317.859756
 20
1345.641463
 30
0.0
 11
1583.359756
 21
1345.641463
 31
0.0
  0
LINE
  5
3DF
330
207
100
AcDbEntity
  8
7_ALL_FEATURES
  6
Continuous
 62
     7
100
AcDbLine
 10
1583.359756
 20
1446.541463
 30
0.0
 11
1583.359756
 21
1446.791236
 31
0.0
  0
LINE
  5
3E0
330
207
100
AcDbEntity
  8
7_ALL_FEATURES
  6
Continuous
 62
     7
100
AcDbLine
 10
1583.359756
 20
1446.791236
 30
0.0
 11
1583.359756
 21
1447.003294
 31
0.0
  0
LINE
  5
3E1
330
207
100
AcDbEntity
  8
7_ALL_FEATURES
  6
Continuous
 62
     7
100
AcDbLine
 10
1583.359756
 20
1447.003294
 30
0.0
 11
1583.359756
 21
1447.041463
 31
0.0
  0
LINE
  5
3E2
330
207
100
AcDbEntity
  8
7_ALL_FEATURES
  6
Continuous
 62
     7
100
AcDbLine
 10
1583.359756
 20
1445.741463
 30
0.0
 11
1583.359756
 21
1446.541463
 31
0.0
  0
LINE
  5
3E3
330
207
100
AcDbEntity
  8
7_ALL_FEATURES
  6
Continuous
 62
     7
100
AcDbLine
 10
1583.359756
 20
1445.341463
 30
0.0
 11
1583.359756
 21
1445.541463
 31
0.0
  0
LINE
  5
3E4
330
207
100
AcDbEntity
  8
7_ALL_FEATURES
  6
Continuous
 62
     7
100
AcDbLine
 10
1583.359756
 20
1444.141463
 30
0.0
 11
1583.359756
 21
1444.541463
 31
0.0
  0
LINE
  5
3E5
330
207
100
AcDbEntity
  8
7_ALL_FEATURES
  6
Continuous
 62
     7
100
AcDbLine
 10
1583.359756
 20
1444.541463
 30
0.0
 11
1583.359756
 21
1445.341463
 31
0.0
  0
LINE
  5
3E6
330
207
100
AcDbEntity
  8
7_ALL_FEATURES
  6
Continuous
 62
     7
100
AcDbLine
 10
1583.359756
 20
1444.041463
 30
0.0
 11
1583.359756
 21
1444.141463
 31
0.0
  0
LINE
  5
3E7
330
207
100
AcDbEntity
  8
7_ALL_FEATURES
  6
Continuous
 62
     7
100
AcDbLine
 10
1583.359756
 20
1348.641463
 30
0.0
 11
1583.359756
 21
1348.541463
 31
0.0
  0
LINE
  5
3E8
330
207
100
AcDbEntity
  8
7_ALL_FEATURES
  6
Continuous
 62
     7
100
AcDbLine
 10
1583.359756
 20
1348.541463
 30
0.0
 11
1583.359756
 21
1348.141463
 31
0.0
  0
LINE
  5
3E9
330
207
100
AcDbEntity
  8
7_ALL_FEATURES
  6
Continuous
 62
     7
100
AcDbLine
 10
1583.359756
 20
1348.141463
 30
0.0
 11
1583.359756
 21
1347.341463
 31
0.0
  0
LINE
  5
3EA
330
207
100
AcDbEntity
  8
7_ALL_FEATURES
  6
Continuous
 62
     7
100
AcDbLine
 10
1583.359756
 20
1347.341463
 30
0.0
 11
1583.359756
 21
1347.141463
 31
0.0
  0
LINE
  5
3EB
330
207
100
AcDbEntity
  8
7_ALL_FEATURES
  6
Continuous
 62
     7
100
AcDbLine
 10
1583.359756
 20
1346.941463
 30
0.0
 11
1583.359756
 21
1346.141463
 31
0.0
  0
LINE
  5
3EC
330
207
100
AcDbEntity
  8
7_ALL_FEATURES
  6
Continuous
 62
     7
100
AcDbLine
 10
1583.359756
 20
1346.141463
 30
0.0
 11
1583.359756
 21
1345.891691
 31
0.0
  0
LINE
  5
3ED
330
207
100
AcDbEntity
  8
7_ALL_FEATURES
  6
Continuous
 62
     7
100
AcDbLine
 10
1583.359756
 20
1345.891691
 30
0.0
 11
1583.359756
 21
1345.679633
 31
0.0
  0
LINE
  5
3EE
330
207
100
AcDbEntity
  8
7_ALL_FEATURES
  6
Continuous
 62
     7
100
AcDbLine
 10
1583.359756
 20
1345.679633
 30
0.0
 11
1583.359756
 21
1345.641463
 31
0.0
  0
LINE
  5
3EF
330
207
100
AcDbEntity
  8
7_ALL_FEATURES
  6
Continuous
 62
     7
100
AcDbLine
 10
317.859756
 20
1444.041463
 30
0.0
 11
1583.359756
 21
1444.041463
 31
0.0
  0
LINE
  5
3F0
330
207
100
AcDbEntity
  8
7_ALL_FEATURES
  6
Continuous
 62
     7
100
AcDbLine
 10
317.859756
 20
1445.541463
 30
0.0
 11
1583.359756
 21
1445.541463
 31
0.0
  0
LINE
  5
3F1
330
207
100
AcDbEntity
  8
7_ALL_FEATURES
  6
Continuous
 62
     7
100
AcDbLine
 10
317.859756
 20
1447.041463
 30
0.0
 11
1583.359756
 21
1447.041463
 31
0.0
  0
LINE
  5
3F2
330
207
100
AcDbEntity
  8
7_ALL_FEATURES
  6
Continuous
 62
     7
100
AcDbLine
 10
317.859756
 20
1444.041463
 30
0.0
 11
317.859756
 21
1444.141463
 31
0.0
  0
LINE
  5
3F3
330
207
100
AcDbEntity
  8
7_ALL_FEATURES
  6
Continuous
 62
     7
100
AcDbLine
 10
317.859756
 20
1444.141463
 30
0.0
 11
317.859756
 21
1444.541463
 31
0.0
  0
LINE
  5
3F4
330
207
100
AcDbEntity
  8
7_ALL_FEATURES
  6
Continuous
 62
     7
100
AcDbLine
 10
317.859756
 20
1444.541463
 30
0.0
 11
317.859756
 21
1445.341463
 31
0.0
  0
LINE
  5
3F5
330
207
100
AcDbEntity
  8
7_ALL_FEATURES
  6
Continuous
 62
     7
100
AcDbLine
 10
317.859756
 20
1445.341463
 30
0.0
 11
317.859756
 21
1445.541463
 31
0.0
  0
LINE
  5
3F6
330
207
100
AcDbEntity
  8
7_ALL_FEATURES
  6
Continuous
 62
     7
100
AcDbLine
 10
317.859756
 20
1445.741463
 30
0.0
 11
317.859756
 21
1446.541463
 31
0.0
  0
LINE
  5
3F7
330
207
100
AcDbEntity
  8
7_ALL_FEATURES
  6
Continuous
 62
     7
100
AcDbLine
 10
317.859756
 20
1446.541463
 30
0.0
 11
317.859756
 21
1446.791463
 31
0.0
  0
LINE
  5
3F8
330
207
100
AcDbEntity
  8
7_ALL_FEATURES
  6
Continuous
 62
     7
100
AcDbLine
 10
317.859756
 20
1446.791463
 30
0.0
 11
317.859756
 21
1447.009697
 31
0.0
  0
LINE
  5
3F9
330
207
100
AcDbEntity
  8
7_ALL_FEATURES
  6
Continuous
 62
     7
100
AcDbLine
 10
317.859756
 20
1447.009697
 30
0.0
 11
317.859756
 21
1447.041463
 31
0.0
  0
LINE
  5
3FA
330
207
100
AcDbEntity
  8
7_ALL_FEATURES
  6
Continuous
 62
     7
100
AcDbLine
 10
317.859756
 20
1346.141463
 30
0.0
 11
317.859756
 21
1345.891463
 31
0.0
  0
LINE
  5
3FB
330
207
100
AcDbEntity
  8
7_ALL_FEATURES
  6
Continuous
 62
     7
100
AcDbLine
 10
317.859756
 20
1345.891463
 30
0.0
 11
317.859756
 21
1345.67323
 31
0.0
  0
LINE
  5
3FC
330
207
100
AcDbEntity
  8
7_ALL_FEATURES
  6
Continuous
 62
     7
100
AcDbLine
 10
317.859756
 20
1345.67323
 30
0.0
 11
317.859756
 21
1345.641463
 31
0.0
  0
LINE
  5
3FD
330
207
100
AcDbEntity
  8
7_ALL_FEATURES
  6
Continuous
 62
     7
100
AcDbLine
 10
317.859756
 20
1346.941463
 30
0.0
 11
317.859756
 21
1346.141463
 31
0.0
  0
LINE
  5
3FE
330
207
100
AcDbEntity
  8
7_ALL_FEATURES
  6
Continuous
 62
     7
100
AcDbLine
 10
317.859756
 20
1347.341463
 30
0.0
 11
317.859756
 21
1347.141463
 31
0.0
  0
LINE
  5
3FF
330
207
100
AcDbEntity
  8
7_ALL_FEATURES
  6
Continuous
 62
     7
100
AcDbLine
 10
317.859756
 20
1348.541463
 30
0.0
 11
317.859756
 21
1348.141463
 31
0.0
  0
LINE
  5
400
330
207
100
AcDbEntity
  8
7_ALL_FEATURES
  6
Continuous
 62
     7
100
AcDbLine
 10
317.859756
 20
1348.141463
 30
0.0
 11
317.859756
 21
1347.341463
 31
0.0
  0
LINE
  5
401
330
207
100
AcDbEntity
  8
7_ALL_FEATURES
  6
Continuous
 62
     7
100
AcDbLine
 10
317.859756
 20
1348.641463
 30
0.0
 11
317.859756
 21
1348.541463
 31
0.0
  0
LINE
  5
402
330
207
100
AcDbEntity
  8
7_ALL_FEATURES
  6
Continuous
 62
     9
100
AcDbLine
 10
317.859756
 20
1347.341463
 30
0.0
 11
1583.359756
 21
1347.341463
 31
0.0
  0
LINE
  5
403
330
207
100
AcDbEntity
  8
7_ALL_FEATURES
  6
Continuous
 62
     9
100
AcDbLine
 10
317.859756
 20
1346.941463
 30
0.0
 11
1583.359756
 21
1346.941463
 31
0.0
  0
LINE
  5
404
330
207
100
AcDbEntity
  8
7_ALL_FEATURES
  6
Continuous
 62
     9
100
AcDbLine
 10
317.859756
 20
1346.141463
 30
0.0
 11
1583.359756
 21
1346.141463
 31
0.0
  0
LINE
  5
405
330
207
100
AcDbEntity
  8
7_ALL_FEATURES
  6
Continuous
 62
     9
100
AcDbLine
 10
317.859756
 20
1446.541463
 30
0.0
 11
1583.359756
 21
1446.541463
 31
0.0
  0
LINE
  5
406
330
207
100
AcDbEntity
  8
7_ALL_FEATURES
  6
Continuous
 62
     7
100
AcDbLine
 10
317.859756
 20
1350.084283
 30
0.0
 11
1583.359756
 21
1350.084283
 31
0.0
  0
LINE
  5
407
330
207
100
AcDbEntity
  8
7_ALL_FEATURES
  6
Continuous
 62
     7
100
AcDbLine
 10
317.859756
 20
1442.598643
 30
0.0
 11
1583.359756
 21
1442.598643
 31
0.0
  0
LINE
  5
408
330
207
100
AcDbEntity
  8
7_ALL_FEATURES
  6
Continuous
 62
     9
100
AcDbLine
 10
317.859756
 20
1444.141463
 30
0.0
 11
1583.359756
 21
1444.141463
 31
0.0
  0
LINE
  5
409
330
207
100
AcDbEntity
  8
7_ALL_FEATURES
  6
Continuous
 62
     9
100
AcDbLine
 10
317.859756
 20
1445.341463
 30
0.0
 11
1583.359756
 21
1445.341463
 31
0.0
  0
LINE
  5
40A
330
207
100
AcDbEntity
  8
7_ALL_FEATURES
  6
Continuous
 62
     9
100
AcDbLine
 10
317.859756
 20
1445.741463
 30
0.0
 11
1583.359756
 21
1445.741463
 31
0.0
  0
LINE
  5
40B
330
207
100
AcDbEntity
  8
7_ALL_FEATURES
  6
Continuous
 62
     9
100
AcDbLine
 10
317.859756
 20
1348.541463
 30
0.0
 11
1583.359756
 21
1348.541463
 31
0.0
  0
LINE
  5
40C
330
207
100
AcDbEntity
  8
7_ALL_FEATURES
  6
Continuous
 62
     3
100
AcDbLine
 10
317.859756
 20
1348.141463
 30
0.0
 11
317.859756
 21
1348.541463
 31
0.0
  0
LINE
  5
40D
330
207
100
AcDbEntity
  8
7_ALL_FEATURES
  6
Continuous
 62
     3
100
AcDbLine
 10
317.859756
 20
1348.541463
 30
0.0
 11
317.859756
 21
1348.641463
 31
0.0
  0
LINE
  5
40E
330
207
100
AcDbEntity
  8
7_ALL_FEATURES
  6
Continuous
 62
     3
100
AcDbLine
 10
317.859756
 20
1348.641463
 30
0.0
 11
317.859756
 21
1444.041463
 31
0.0
  0
LINE
  5
40F
330
207
100
AcDbEntity
  8
7_ALL_FEATURES
  6
Continuous
 62
     3
100
AcDbLine
 10
317.859756
 20
1444.041463
 30
0.0
 11
317.859756
 21
1444.141463
 31
0.0
  0
LINE
  5
410
330
207
100
AcDbEntity
  8
7_ALL_FEATURES
  6
Continuous
 62
     3
100
AcDbLine
 10
317.859756
 20
1444.141463
 30
0.0
 11
317.859756
 21
1444.541463
 31
0.0
  0
LINE
  5
411
330
207
100
AcDbEntity
  8
7_ALL_FEATURES
  6
Continuous
 62
     3
100
AcDbLine
 10
1583.359756
 20
1444.541463
 30
0.0
 11
1583.359756
 21
1444.141463
 31
0.0
  0
LINE
  5
412
330
207
100
AcDbEntity
  8
7_ALL_FEATURES
  6
Continuous
 62
     3
100
AcDbLine
 10
1583.359756
 20
1444.141463
 30
0.0
 11
1583.359756
 21
1444.041463
 31
0.0
  0
LINE
  5
413
330
207
100
AcDbEntity
  8
7_ALL_FEATURES
  6
Continuous
 62
     3
100
AcDbLine
 10
1583.359756
 20
1444.041463
 30
0.0
 11
1583.359756
 21
1348.641463
 31
0.0
  0
LINE
  5
414
330
207
100
AcDbEntity
  8
7_ALL_FEATURES
  6
Continuous
 62
     3
100
AcDbLine
 10
1583.359756
 20
1348.641463
 30
0.0
 11
1583.359756
 21
1348.541463
 31
0.0
  0
LINE
  5
415
330
207
100
AcDbEntity
  8
7_ALL_FEATURES
  6
Continuous
 62
     3
100
AcDbLine
 10
1583.359756
 20
1348.541463
 30
0.0
 11
1583.359756
 21
1348.141463
 31
0.0
  0
ARC
  5
416
330
207
100
AcDbEntity
  8
3_ALL_AXES
  6
Continuous
 62
     7
100
AcDbCircle
 10
2030.182927
 20
1984.987805
 30
0.0
 40
2.9
100
AcDbArc
 50
180.0
 51
360.0
  0
ARC
  5
417
330
207
100
AcDbEntity
  8
3_ALL_AXES
  6
Continuous
 62
     7
100
AcDbCircle
 10
2030.182927
 20
1984.987805
 30
0.0
 40
2.9
100
AcDbArc
 50
0.0
 51
180.0
  0
ARC
  5
418
330
207
100
AcDbEntity
  8
3_ALL_AXES
  6
Continuous
 62
     7
100
AcDbCircle
 10
2055.182927
 20
1984.987805
 30
0.0
 40
2.9
100
AcDbArc
 50
180.0
 51
360.0
  0
ARC
  5
419
330
207
100
AcDbEntity
  8
3_ALL_AXES
  6
Continuous
 62
     7
100
AcDbCircle
 10
2055.182927
 20
1984.987805
 30
0.0
 40
2.9
100
AcDbArc
 50
0.0
 51
180.0
  0
SPLINE
  5
41A
330
207
100
AcDbEntity
  8
7_ALL_FEATURES
  6
Continuous
 62
     7
100
AcDbSpline
 70
     0
 71
     3
 72
     9
 73
     5
 74
     0
 42
0.000000001
 43
0.0000001
 40
0.0
 40
0.0
 40
0.0
 40
0.0
 40
0.230771402
 40
1.0
 40
1.0
 40
1.0
 40
1.0
 10
1994.3828581494
 20
1987.487804878
 30
0.0
 10
1994.4297611067
 20
1987.487804878
 30
0.0
 10
1994.6329749501
 20
1987.4781951879
 30
0.0
 10
1994.8338183827
 20
1987.4339241351
 30
0.0
 10
1994.9825962817
 20
1987.3858852734
 30
0.0
  0
ARC
  5
41B
330
207
100
AcDbEntity
  8
7_ALL_FEATURES
  6
Continuous
 62
     7
100
AcDbCircle
 10
1994.258951
 20
1985.14499
 30
0.0
 40
2.3548402278
100
AcDbArc
 50
67.7089
 51
72.103329
  0
SPLINE
  5
41C
330
207
100
AcDbEntity
  8
7_ALL_FEATURES
  6
Continuous
 62
     7
100
AcDbSpline
 70
     0
 71
     3
 72
     9
 73
     5
 74
     0
 42
0.000000001
 43
0.0000001
 40
0.0
 40
0.0
 40
0.0
 40
0.0
 40
0.4936197828
 40
1.0
 40
1.0
 40
1.0
 40
1.0
 10
1995.1521709097
 20
1987.3238502912
 30
0.0
 10
1995.4259638007
 20
1987.2116110958
 30
0.0
 10
1995.9525721225
 20
1986.8909942516
 30
0.0
 10
1996.2412936113
 20
1986.2913599595
 30
0.0
 10
1996.2412936113
 20
1985.987804878
 30
0.0
  0
SPLINE
  5
41D
330
207
100
AcDbEntity
  8
7_ALL_FEATURES
  6
Continuous
 62
     7
100
AcDbSpline
 70
     0
 71
     3
 72
     9
 73
     5
 74
     0
 42
0.000000001
 43
0.0000001
 40
0.0
 40
0.0
 40
0.0
 40
0.0
 40
0.230771402
 40
1.0
 40
1.0
 40
1.0
 40
1.0
 10
1994.3828581494
 20
1880.487804878
 30
0.0
 10
1994.4297611067
 20
1880.487804878
 30
0.0
 10
1994.6329749502
 20
1880.4781951879
 30
0.0
 10
1994.8338183827
 20
1880.4339241351
 30
0.0
 10
1994.9825962817
 20
1880.3858852734
 30
0.0
  0
ARC
  5
41E
330
207
100
AcDbEntity
  8
7_ALL_FEATURES
  6
Continuous
 62
     7
100
AcDbCircle
 10
1994.258951
 20
1878.14499
 30
0.0
 40
2.3548402278
100
AcDbArc
 50
67.7089
 51
72.103329
  0
SPLINE
  5
41F
330
207
100
AcDbEntity
  8
7_ALL_FEATURES
  6
Continuous
 62
     7
100
AcDbSpline
 70
     0
 71
     3
 72
     9
 73
     5
 74
     0
 42
0.000000001
 43
0.0000001
 40
0.0
 40
0.0
 40
0.0
 40
0.0
 40
0.4936197828
 40
1.0
 40
1.0
 40
1.0
 40
1.0
 10
1995.1521709097
 20
1880.3238502912
 30
0.0
 10
1995.4259638007
 20
1880.2116110958
 30
0.0
 10
1995.9525721225
 20
1879.8909942516
 30
0.0
 10
1996.2412936113
 20
1879.2913599595
 30
0.0
 10
1996.2412936113
 20
1878.987804878
 30
0.0
  0
SPLINE
  5
420
330
207
100
AcDbEntity
  8
7_ALL_FEATURES
  6
Continuous
 62
     7
100
AcDbSpline
 70
     0
 71
     3
 72
     9
 73
     5
 74
     0
 42
0.000000001
 43
0.0000001
 40
0.0
 40
0.0
 40
0.0
 40
0.0
 40
0.230771657
 40
1.0
 40
1.0
 40
1.0
 40
1.0
 10
2090.9829955092
 20
1880.487804878
 30
0.0
 10
2090.9360925119
 20
1880.487804878
 30
0.0
 10
2090.7328787205
 20
1880.4781952047
 30
0.0
 10
2090.5320353256
 20
1880.433924195
 30
0.0
 10
2090.3832575272
 20
1880.3858853189
 30
0.0
  0
ARC
  5
421
330
207
100
AcDbEntity
  8
7_ALL_FEATURES
  6
Continuous
 62
     7
100
AcDbCircle
 10
2091.106905
 20
1878.144988
 30
0.0
 40
2.3548430791
100
AcDbArc
 50
107.896687
 51
112.291646
  0
SPLINE
  5
422
330
207
100
AcDbEntity
  8
7_ALL_FEATURES
  6
Continuous
 62
     7
100
AcDbSpline
 70
     0
 71
     3
 72
     9
 73
     5
 74
     0
 42
0.000000001
 43
0.0000001
 40
0.0
 40
0.0
 40
0.0
 40
0.0
 40
0.4936163856
 40
1.0
 40
1.0
 40
1.0
 40
1.0
 10
2090.2136625113
 20
1880.3238419344
 30
0.0
 10
2089.9398758003
 20
1880.2116022132
 30
0.0
 10
2089.4132761179
 20
1879.8909863037
 30
0.0
 10
2089.1245600473
 20
1879.2913584238
 30
0.0
 10
2089.1245600473
 20
1878.987804878
 30
0.0
  0
SPLINE
  5
423
330
207
100
AcDbEntity
  8
7_ALL_FEATURES
  6
Continuous
 62
     7
100
AcDbSpline
 70
     0
 71
     3
 72
     9
 73
     5
 74
     0
 42
0.000000001
 43
0.0000001
 40
0.0
 40
0.0
 40
0.0
 40
0.0
 40
0.2307716374
 40
1.0
 40
1.0
 40
1.0
 40
1.0
 10
2090.9829955092
 20
1987.487804878
 30
0.0
 10
2090.9360925149
 20
1987.487804878
 30
0.0
 10
2090.7328787196
 20
1987.4781952035
 30
0.0
 10
2090.5320353218
 20
1987.4339241904
 30
0.0
 10
2090.3832575156
 20
1987.3858853155
 30
0.0
  0
ARC
  5
424
330
207
100
AcDbEntity
  8
7_ALL_FEATURES
  6
Continuous
 62
     7
100
AcDbCircle
 10
2091.106904
 20
1985.144988
 30
0.0
 40
2.3548428683
100
AcDbArc
 50
107.896686
 51
112.291605
  0
SPLINE
  5
425
330
207
100
AcDbEntity
  8
7_ALL_FEATURES
  6
Continuous
 62
     7
100
AcDbSpline
 70
     0
 71
     3
 72
     9
 73
     5
 74
     0
 42
0.000000001
 43
0.0000001
 40
0.0
 40
0.0
 40
0.0
 40
0.0
 40
0.4936166471
 40
1.0
 40
1.0
 40
1.0
 40
1.0
 10
2090.2136640345
 20
1987.3238425635
 30
0.0
 10
2089.9398768551
 20
1987.2116028807
 30
0.0
 10
2089.413276524
 20
1986.8909868973
 30
0.0
 10
2089.1245600473
 20
1986.2913585359
 30
0.0
 10
2089.1245600473
 20
1985.987804878
 30
0.0
  0
LINE
  5
426
330
207
100
AcDbEntity
  8
7_ALL_FEATURES
  6
Continuous
 62
     7
100
AcDbLine
 10
2027.190993
 20
1884.237805
 30
0.0
 11
2026.190504
 21
1884.237805
 31
0.0
  0
LINE
  5
427
330
207
100
AcDbEntity
  8
7_ALL_FEATURES
  6
Continuous
 62
     7
100
AcDbLine
 10
2058.17486
 20
1884.237805
 30
0.0
 11
2059.175349
 21
1884.237805
 31
0.0
  0
LINE
  5
428
330
207
100
AcDbEntity
  8
7_ALL_FEATURES
  6
Continuous
 62
     7
100
AcDbLine
 10
2026.190504
 20
1883.237805
 30
0.0
 11
2027.190994
 21
1883.237805
 31
0.0
  0
LINE
  5
429
330
207
100
AcDbEntity
  8
7_ALL_FEATURES
  6
Continuous
 62
     7
100
AcDbLine
 10
2059.17535
 20
1883.237805
 30
0.0
 11
2058.17486
 21
1883.237805
 31
0.0
  0
LINE
  5
42A
330
207
100
AcDbEntity
  8
7_ALL_FEATURES
  6
Continuous
 62
     7
100
AcDbLine
 10
1996.482927
 20
1875.487805
 30
0.0
 11
1996.482927
 21
1873.737805
 31
0.0
  0
ARC
  5
42B
330
207
100
AcDbEntity
  8
7_ALL_FEATURES
  6
Continuous
 62
     7
100
AcDbCircle
 10
1995.982927
 20
1873.737805
 30
0.0
 40
0.5
100
AcDbArc
 50
270.0
 51
360.0
  0
LINE
  5
42C
330
207
100
AcDbEntity
  8
7_ALL_FEATURES
  6
Continuous
 62
     7
100
AcDbLine
 10
1995.982927
 20
1873.237805
 30
0.0
 11
1993.982927
 21
1873.237805
 31
0.0
  0
ARC
  5
42D
330
207
100
AcDbEntity
  8
7_ALL_FEATURES
  6
Continuous
 62
     7
100
AcDbCircle
 10
1993.982927
 20
1872.737805
 30
0.0
 40
0.5
100
AcDbArc
 50
90.0
 51
180.0
  0
LINE
  5
42E
330
207
100
AcDbEntity
  8
7_ALL_FEATURES
  6
Continuous
 62
     7
100
AcDbLine
 10
1993.482927
 20
1872.737805
 30
0.0
 11
1993.482927
 21
1857.237805
 31
0.0
  0
ARC
  5
42F
330
207
100
AcDbEntity
  8
7_ALL_FEATURES
  6
Continuous
 62
     7
100
AcDbCircle
 10
1995.482927
 20
1857.237805
 30
0.0
 40
2.0
100
AcDbArc
 50
180.0
 51
270.0
  0
ARC
  5
430
330
207
100
AcDbEntity
  8
7_ALL_FEATURES
  6
Continuous
 62
     7
100
AcDbCircle
 10
2089.882927
 20
1857.237805
 30
0.0
 40
2.0
100
AcDbArc
 50
270.0
 51
360.0
  0
LINE
  5
431
330
207
100
AcDbEntity
  8
7_ALL_FEATURES
  6
Continuous
 62
     7
100
AcDbLine
 10
2091.882927
 20
1872.737805
 30
0.0
 11
2091.882927
 21
1857.237805
 31
0.0
  0
ARC
  5
432
330
207
100
AcDbEntity
  8
7_ALL_FEATURES
  6
Continuous
 62
     7
100
AcDbCircle
 10
2091.382927
 20
1872.737805
 30
0.0
 40
0.5
100
AcDbArc
 50
0.0
 51
90.0
  0
LINE
  5
433
330
207
100
AcDbEntity
  8
7_ALL_FEATURES
  6
Continuous
 62
     7
100
AcDbLine
 10
2089.382927
 20
1873.237805
 30
0.0
 11
2091.382927
 21
1873.237805
 31
0.0
  0
ARC
  5
434
330
207
100
AcDbEntity
  8
7_ALL_FEATURES
  6
Continuous
 62
     7
100
AcDbCircle
 10
2089.382927
 20
1873.737805
 30
0.0
 40
0.5
100
AcDbArc
 50
180.0
 51
270.0
  0
LINE
  5
435
330
207
100
AcDbEntity
  8
7_ALL_FEATURES
  6
Continuous
 62
     7
100
AcDbLine
 10
2088.882927
 20
1875.487805
 30
0.0
 11
2088.882927
 21
1873.737805
 31
0.0
  0
LINE
  5
436
330
207
100
AcDbEntity
  8
7_ALL_FEATURES
  6
Continuous
 62
     7
100
AcDbLine
 10
2088.882927
 20
1884.237805
 30
0.0
 11
2088.882927
 21
1882.487805
 31
0.0
  0
ARC
  5
437
330
207
100
AcDbEntity
  8
7_ALL_FEATURES
  6
Continuous
 62
     7
100
AcDbCircle
 10
2089.382927
 20
1884.237805
 30
0.0
 40
0.5
100
AcDbArc
 50
90.0
 51
180.0
  0
LINE
  5
438
330
207
100
AcDbEntity
  8
7_ALL_FEATURES
  6
Continuous
 62
     7
100
AcDbLine
 10
2091.382927
 20
1884.737805
 30
0.0
 11
2089.382927
 21
1884.737805
 31
0.0
  0
ARC
  5
439
330
207
100
AcDbEntity
  8
7_ALL_FEATURES
  6
Continuous
 62
     7
100
AcDbCircle
 10
2091.382927
 20
1885.237805
 30
0.0
 40
0.5
100
AcDbArc
 50
270.0
 51
360.0
  0
LINE
  5
43A
330
207
100
AcDbEntity
  8
7_ALL_FEATURES
  6
Continuous
 62
     7
100
AcDbLine
 10
2091.882927
 20
1979.737805
 30
0.0
 11
2091.882927
 21
1885.237805
 31
0.0
  0
ARC
  5
43B
330
207
100
AcDbEntity
  8
7_ALL_FEATURES
  6
Continuous
 62
     7
100
AcDbCircle
 10
2091.382927
 20
1979.737805
 30
0.0
 40
0.5
100
AcDbArc
 50
0.0
 51
90.0
  0
LINE
  5
43C
330
207
100
AcDbEntity
  8
7_ALL_FEATURES
  6
Continuous
 62
     7
100
AcDbLine
 10
2089.382927
 20
1980.237805
 30
0.0
 11
2091.382927
 21
1980.237805
 31
0.0
  0
ARC
  5
43D
330
207
100
AcDbEntity
  8
7_ALL_FEATURES
  6
Continuous
 62
     7
100
AcDbCircle
 10
2089.382927
 20
1980.737805
 30
0.0
 40
0.5
100
AcDbArc
 50
180.0
 51
270.0
  0
LINE
  5
43E
330
207
100
AcDbEntity
  8
7_ALL_FEATURES
  6
Continuous
 62
     7
100
AcDbLine
 10
2088.882927
 20
1982.487805
 30
0.0
 11
2088.882927
 21
1980.737805
 31
0.0
  0
LINE
  5
43F
330
207
100
AcDbEntity
  8
7_ALL_FEATURES
  6
Continuous
 62
     7
100
AcDbLine
 10
2088.882927
 20
1991.237805
 30
0.0
 11
2088.882927
 21
1989.487805
 31
0.0
  0
ARC
  5
440
330
207
100
AcDbEntity
  8
7_ALL_FEATURES
  6
Continuous
 62
     7
100
AcDbCircle
 10
2089.382927
 20
1991.237805
 30
0.0
 40
0.5
100
AcDbArc
 50
90.0
 51
180.0
  0
LINE
  5
441
330
207
100
AcDbEntity
  8
7_ALL_FEATURES
  6
Continuous
 62
     7
100
AcDbLine
 10
2091.382927
 20
1991.737805
 30
0.0
 11
2089.382927
 21
1991.737805
 31
0.0
  0
ARC
  5
442
330
207
100
AcDbEntity
  8
7_ALL_FEATURES
  6
Continuous
 62
     7
100
AcDbCircle
 10
2091.382927
 20
1992.237805
 30
0.0
 40
0.5
100
AcDbArc
 50
270.0
 51
360.0
  0
LINE
  5
443
330
207
100
AcDbEntity
  8
7_ALL_FEATURES
  6
Continuous
 62
     7
100
AcDbLine
 10
2091.882927
 20
2004.737805
 30
0.0
 11
2091.882927
 21
1992.237805
 31
0.0
  0
ARC
  5
444
330
207
100
AcDbEntity
  8
7_ALL_FEATURES
  6
Continuous
 62
     7
100
AcDbCircle
 10
2090.882927
 20
2004.737805
 30
0.0
 40
1.0
100
AcDbArc
 50
0.0
 51
90.0
  0
ARC
  5
445
330
207
100
AcDbEntity
  8
7_ALL_FEATURES
  6
Continuous
 62
     7
100
AcDbCircle
 10
1994.482927
 20
2004.737805
 30
0.0
 40
1.0
100
AcDbArc
 50
90.0
 51
180.0
  0
LINE
  5
446
330
207
100
AcDbEntity
  8
7_ALL_FEATURES
  6
Continuous
 62
     7
100
AcDbLine
 10
1993.482927
 20
2004.737805
 30
0.0
 11
1993.482927
 21
1992.237805
 31
0.0
  0
ARC
  5
447
330
207
100
AcDbEntity
  8
7_ALL_FEATURES
  6
Continuous
 62
     7
100
AcDbCircle
 10
1993.982927
 20
1992.237805
 30
0.0
 40
0.5
100
AcDbArc
 50
180.0
 51
270.0
  0
LINE
  5
448
330
207
100
AcDbEntity
  8
7_ALL_FEATURES
  6
Continuous
 62
     7
100
AcDbLine
 10
1993.982927
 20
1991.737805
 30
0.0
 11
1995.982927
 21
1991.737805
 31
0.0
  0
ARC
  5
449
330
207
100
AcDbEntity
  8
7_ALL_FEATURES
  6
Continuous
 62
     7
100
AcDbCircle
 10
1995.982927
 20
1991.237805
 30
0.0
 40
0.5
100
AcDbArc
 50
0.0
 51
90.0
  0
LINE
  5
44A
330
207
100
AcDbEntity
  8
7_ALL_FEATURES
  6
Continuous
 62
     7
100
AcDbLine
 10
1996.482927
 20
1991.237805
 30
0.0
 11
1996.482927
 21
1989.487805
 31
0.0
  0
LINE
  5
44B
330
207
100
AcDbEntity
  8
7_ALL_FEATURES
  6
Continuous
 62
     7
100
AcDbLine
 10
1996.482927
 20
1982.487805
 30
0.0
 11
1996.482927
 21
1980.737805
 31
0.0
  0
ARC
  5
44C
330
207
100
AcDbEntity
  8
7_ALL_FEATURES
  6
Continuous
 62
     7
100
AcDbCircle
 10
1995.982927
 20
1980.737805
 30
0.0
 40
0.5
100
AcDbArc
 50
270.0
 51
360.0
  0
LINE
  5
44D
330
207
100
AcDbEntity
  8
7_ALL_FEATURES
  6
Continuous
 62
     7
100
AcDbLine
 10
1995.982927
 20
1980.237805
 30
0.0
 11
1993.982927
 21
1980.237805
 31
0.0
  0
ARC
  5
44E
330
207
100
AcDbEntity
  8
7_ALL_FEATURES
  6
Continuous
 62
     7
100
AcDbCircle
 10
1993.982927
 20
1979.737805
 30
0.0
 40
0.5
100
AcDbArc
 50
90.0
 51
180.0
  0
LINE
  5
44F
330
207
100
AcDbEntity
  8
7_ALL_FEATURES
  6
Continuous
 62
     7
100
AcDbLine
 10
1993.482927
 20
1979.737805
 30
0.0
 11
1993.482927
 21
1885.237805
 31
0.0
  0
ARC
  5
450
330
207
100
AcDbEntity
  8
7_ALL_FEATURES
  6
Continuous
 62
     7
100
AcDbCircle
 10
1993.982927
 20
1885.237805
 30
0.0
 40
0.5
100
AcDbArc
 50
180.0
 51
270.0
  0
LINE
  5
451
330
207
100
AcDbEntity
  8
7_ALL_FEATURES
  6
Continuous
 62
     7
100
AcDbLine
 10
1993.982927
 20
1884.737805
 30
0.0
 11
1995.982927
 21
1884.737805
 31
0.0
  0
ARC
  5
452
330
207
100
AcDbEntity
  8
7_ALL_FEATURES
  6
Continuous
 62
     7
100
AcDbCircle
 10
1995.982927
 20
1884.237805
 30
0.0
 40
0.5
100
AcDbArc
 50
0.0
 51
90.0
  0
LINE
  5
453
330
207
100
AcDbEntity
  8
7_ALL_FEATURES
  6
Continuous
 62
     7
100
AcDbLine
 10
1996.482927
 20
1884.237805
 30
0.0
 11
1996.482927
 21
1882.487805
 31
0.0
  0
LINE
  5
454
330
207
100
AcDbEntity
  8
7_ALL_FEATURES
  6
Continuous
 62
     7
100
AcDbLine
 10
1993.482927
 20
1876.537805
 30
0.0
 11
1993.482927
 21
1878.987805
 31
0.0
  0
LINE
  5
455
330
207
100
AcDbEntity
  8
7_ALL_FEATURES
  6
Continuous
 62
     7
100
AcDbLine
 10
1993.482927
 20
1878.987805
 30
0.0
 11
1993.482927
 21
1881.437805
 31
0.0
  0
LINE
  5
456
330
207
100
AcDbEntity
  8
7_ALL_FEATURES
  6
Continuous
 62
     7
100
AcDbLine
 10
1996.482927
 20
1882.487805
 30
0.0
 11
1994.982927
 21
1882.487805
 31
0.0
  0
LINE
  5
457
330
207
100
AcDbEntity
  8
7_ALL_FEATURES
  6
Continuous
 62
     7
100
AcDbLine
 10
1994.982927
 20
1882.487805
 30
0.0
 11
1993.482927
 21
1882.487805
 31
0.0
  0
LINE
  5
458
330
207
100
AcDbEntity
  8
7_ALL_FEATURES
  6
Continuous
 62
     7
100
AcDbLine
 10
1993.482927
 20
1875.487805
 30
0.0
 11
1994.554219
 21
1875.487805
 31
0.0
  0
LINE
  5
459
330
207
100
AcDbEntity
  8
7_ALL_FEATURES
  6
Continuous
 62
     7
100
AcDbLine
 10
1994.554219
 20
1875.487805
 30
0.0
 11
1994.762894
 21
1875.487805
 31
0.0
  0
LINE
  5
45A
330
207
100
AcDbEntity
  8
7_ALL_FEATURES
  6
Continuous
 62
     7
100
AcDbLine
 10
1994.762894
 20
1875.487805
 30
0.0
 11
1994.982927
 21
1875.487805
 31
0.0
  0
LINE
  5
45B
330
207
100
AcDbEntity
  8
7_ALL_FEATURES
  6
Continuous
 62
     7
100
AcDbLine
 10
1994.982927
 20
1875.487805
 30
0.0
 11
1996.482927
 21
1875.487805
 31
0.0
  0
SPLINE
  5
45C
330
207
100
AcDbEntity
  8
7_ALL_FEATURES
  6
Continuous
 62
     7
100
AcDbSpline
 70
     0
 71
     3
 72
     9
 73
     5
 74
     0
 42
0.000000001
 43
0.0000001
 40
0.0
 40
0.0
 40
0.0
 40
0.0
 40
0.5063802172
 40
1.0
 40
1.0
 40
1.0
 40
1.0
 10
1996.2412936113
 20
1878.987804878
 30
0.0
 10
1996.2412936113
 20
1878.6842497966
 30
0.0
 10
1995.9525721225
 20
1878.0846155045
 30
0.0
 10
1995.4259638007
 20
1877.7639986603
 30
0.0
 10
1995.1521709097
 20
1877.6517594649
 30
0.0
  0
ARC
  5
45D
330
207
100
AcDbEntity
  8
7_ALL_FEATURES
  6
Continuous
 62
     7
100
AcDbCircle
 10
1994.258951
 20
1879.830619
 30
0.0
 40
2.3548402279
100
AcDbArc
 50
287.896671
 51
292.2911
  0
SPLINE
  5
45E
330
207
100
AcDbEntity
  8
7_ALL_FEATURES
  6
Continuous
 62
     7
100
AcDbSpline
 70
     0
 71
     3
 72
     9
 73
     5
 74
     0
 42
0.000000001
 43
0.0000001
 40
0.0
 40
0.0
 40
0.0
 40
0.0
 40
0.2691084694
 40
1.0
 40
1.0
 40
1.0
 40
1.0
 10
1994.9825962817
 20
1877.5897244827
 30
0.0
 10
1994.930553865
 20
1877.5729205187
 30
0.0
 10
1994.7351618533
 20
1877.5172737402
 30
0.0
 10
1994.5313895436
 20
1877.487804878
 30
0.0
 10
1994.3828581494
 20
1877.487804878
 30
0.0
  0
ARC
  5
45F
330
207
100
AcDbEntity
  8
7_ALL_FEATURES
  6
Continuous
 62
     7
100
AcDbCircle
 10
2042.682927
 20
1883.737805
 30
0.0
 40
16.5
100
AcDbArc
 50
1.736502
 51
178.263498
  0
ARC
  5
460
330
207
100
AcDbEntity
  8
7_ALL_FEATURES
  6
Continuous
 62
     7
100
AcDbCircle
 10
2042.682927
 20
1883.737805
 30
0.0
 40
15.5
100
AcDbArc
 50
1.848572
 51
178.151428
  0
ARC
  5
461
330
207
100
AcDbEntity
  8
7_ALL_FEATURES
  6
Continuous
 62
     7
100
AcDbCircle
 10
2042.682927
 20
1883.737805
 30
0.0
 40
15.4999996154
100
AcDbArc
 50
181.848572
 51
358.151428
  0
ARC
  5
462
330
207
100
AcDbEntity
  8
7_ALL_FEATURES
  6
Continuous
 62
     7
100
AcDbCircle
 10
2042.682927
 20
1883.737805
 30
0.0
 40
16.5000004973
100
AcDbArc
 50
181.736502
 51
358.263498
  0
LINE
  5
463
330
207
100
AcDbEntity
  8
7_ALL_FEATURES
  6
Continuous
 62
     7
100
AcDbLine
 10
1993.482927
 20
1983.537805
 30
0.0
 11
1993.482927
 21
1985.987805
 31
0.0
  0
LINE
  5
464
330
207
100
AcDbEntity
  8
7_ALL_FEATURES
  6
Continuous
 62
     7
100
AcDbLine
 10
1993.482927
 20
1985.987805
 30
0.0
 11
1993.482927
 21
1988.437805
 31
0.0
  0
LINE
  5
465
330
207
100
AcDbEntity
  8
7_ALL_FEATURES
  6
Continuous
 62
     7
100
AcDbLine
 10
1996.482927
 20
1989.487805
 30
0.0
 11
1994.982927
 21
1989.487805
 31
0.0
  0
LINE
  5
466
330
207
100
AcDbEntity
  8
7_ALL_FEATURES
  6
Continuous
 62
     7
100
AcDbLine
 10
1994.982927
 20
1989.487805
 30
0.0
 11
1993.482927
 21
1989.487805
 31
0.0
  0
LINE
  5
467
330
207
100
AcDbEntity
  8
7_ALL_FEATURES
  6
Continuous
 62
     7
100
AcDbLine
 10
1993.482927
 20
1982.487805
 30
0.0
 11
1994.554219
 21
1982.487805
 31
0.0
  0
LINE
  5
468
330
207
100
AcDbEntity
  8
7_ALL_FEATURES
  6
Continuous
 62
     7
100
AcDbLine
 10
1994.554219
 20
1982.487805
 30
0.0
 11
1994.762894
 21
1982.487805
 31
0.0
  0
LINE
  5
469
330
207
100
AcDbEntity
  8
7_ALL_FEATURES
  6
Continuous
 62
     7
100
AcDbLine
 10
1994.762894
 20
1982.487805
 30
0.0
 11
1994.982927
 21
1982.487805
 31
0.0
  0
LINE
  5
46A
330
207
100
AcDbEntity
  8
7_ALL_FEATURES
  6
Continuous
 62
     7
100
AcDbLine
 10
1994.982927
 20
1982.487805
 30
0.0
 11
1996.482927
 21
1982.487805
 31
0.0
  0
SPLINE
  5
46B
330
207
100
AcDbEntity
  8
7_ALL_FEATURES
  6
Continuous
 62
     7
100
AcDbSpline
 70
     0
 71
     3
 72
     9
 73
     5
 74
     0
 42
0.000000001
 43
0.0000001
 40
0.0
 40
0.0
 40
0.0
 40
0.0
 40
0.5063802172
 40
1.0
 40
1.0
 40
1.0
 40
1.0
 10
1996.2412936113
 20
1985.987804878
 30
0.0
 10
1996.2412936113
 20
1985.6842497966
 30
0.0
 10
1995.9525721225
 20
1985.0846155045
 30
0.0
 10
1995.4259638007
 20
1984.7639986603
 30
0.0
 10
1995.1521709097
 20
1984.6517594649
 30
0.0
  0
ARC
  5
46C
330
207
100
AcDbEntity
  8
7_ALL_FEATURES
  6
Continuous
 62
     7
100
AcDbCircle
 10
1994.258951
 20
1986.830619
 30
0.0
 40
2.3548402277
100
AcDbArc
 50
287.896671
 51
292.2911
  0
SPLINE
  5
46D
330
207
100
AcDbEntity
  8
7_ALL_FEATURES
  6
Continuous
 62
     7
100
AcDbSpline
 70
     0
 71
     3
 72
     9
 73
     5
 74
     0
 42
0.000000001
 43
0.0000001
 40
0.0
 40
0.0
 40
0.0
 40
0.0
 40
0.2691084694
 40
1.0
 40
1.0
 40
1.0
 40
1.0
 10
1994.9825962817
 20
1984.5897244827
 30
0.0
 10
1994.930553865
 20
1984.5729205187
 30
0.0
 10
1994.7351618533
 20
1984.5172737402
 30
0.0
 10
1994.5313895436
 20
1984.487804878
 30
0.0
 10
1994.3828581494
 20
1984.487804878
 30
0.0
  0
LINE
  5
46E
330
207
100
AcDbEntity
  8
7_ALL_FEATURES
  6
Continuous
 62
     7
100
AcDbLine
 10
1995.482927
 20
1855.237805
 30
0.0
 11
2089.882927
 21
1855.237805
 31
0.0
  0
LINE
  5
46F
330
207
100
AcDbEntity
  8
7_ALL_FEATURES
  6
Continuous
 62
     7
100
AcDbLine
 10
2090.882927
 20
2005.737805
 30
0.0
 11
1994.482927
 21
2005.737805
 31
0.0
  0
LINE
  5
470
330
207
100
AcDbEntity
  8
7_ALL_FEATURES
  6
Continuous
 62
     7
100
AcDbLine
 10
2091.882927
 20
1876.537805
 30
0.0
 11
2091.882927
 21
1878.987805
 31
0.0
  0
LINE
  5
471
330
207
100
AcDbEntity
  8
7_ALL_FEATURES
  6
Continuous
 62
     7
100
AcDbLine
 10
2091.882927
 20
1878.987805
 30
0.0
 11
2091.882927
 21
1881.437805
 31
0.0
  0
LINE
  5
472
330
207
100
AcDbEntity
  8
7_ALL_FEATURES
  6
Continuous
 62
     7
100
AcDbLine
 10
2091.882927
 20
1875.487805
 30
0.0
 11
2090.811635
 21
1875.487805
 31
0.0
  0
LINE
  5
473
330
207
100
AcDbEntity
  8
7_ALL_FEATURES
  6
Continuous
 62
     7
100
AcDbLine
 10
2090.811635
 20
1875.487805
 30
0.0
 11
2090.60296
 21
1875.487805
 31
0.0
  0
LINE
  5
474
330
207
100
AcDbEntity
  8
7_ALL_FEATURES
  6
Continuous
 62
     7
100
AcDbLine
 10
2090.60296
 20
1875.487805
 30
0.0
 11
2090.382927
 21
1875.487805
 31
0.0
  0
LINE
  5
475
330
207
100
AcDbEntity
  8
7_ALL_FEATURES
  6
Continuous
 62
     7
100
AcDbLine
 10
2090.382927
 20
1875.487805
 30
0.0
 11
2088.882927
 21
1875.487805
 31
0.0
  0
LINE
  5
476
330
207
100
AcDbEntity
  8
7_ALL_FEATURES
  6
Continuous
 62
     7
100
AcDbLine
 10
2088.882927
 20
1882.487805
 30
0.0
 11
2090.382927
 21
1882.487805
 31
0.0
  0
LINE
  5
477
330
207
100
AcDbEntity
  8
7_ALL_FEATURES
  6
Continuous
 62
     7
100
AcDbLine
 10
2090.382927
 20
1882.487805
 30
0.0
 11
2091.882927
 21
1882.487805
 31
0.0
  0
SPLINE
  5
478
330
207
100
AcDbEntity
  8
7_ALL_FEATURES
  6
Continuous
 62
     7
100
AcDbSpline
 70
     0
 71
     3
 72
     9
 73
     5
 74
     0
 42
0.000000001
 43
0.0000001
 40
0.0
 40
0.0
 40
0.0
 40
0.0
 40
0.5063836144
 40
1.0
 40
1.0
 40
1.0
 40
1.0
 10
2089.1245600473
 20
1878.987804878
 30
0.0
 10
2089.1245600473
 20
1878.6842513323
 30
0.0
 10
2089.4132761179
 20
1878.0846234524
 30
0.0
 10
2089.9398758003
 20
1877.7640075429
 30
0.0
 10
2090.2136625113
 20
1877.6517678217
 30
0.0
  0
ARC
  5
479
330
207
100
AcDbEntity
  8
7_ALL_FEATURES
  6
Continuous
 62
     7
100
AcDbCircle
 10
2091.106905
 20
1879.830622
 30
0.0
 40
2.3548430789
100
AcDbArc
 50
247.708354
 51
252.103313
  0
SPLINE
  5
47A
330
207
100
AcDbEntity
  8
7_ALL_FEATURES
  6
Continuous
 62
     7
100
AcDbSpline
 70
     0
 71
     3
 72
     9
 73
     5
 74
     0
 42
0.000000001
 43
0.0000001
 40
0.0
 40
0.0
 40
0.0
 40
0.0
 40
0.2691080604
 40
1.0
 40
1.0
 40
1.0
 40
1.0
 10
2090.3832575272
 20
1877.5897244372
 30
0.0
 10
2090.4352998471
 20
1877.572920488
 30
0.0
 10
2090.6306917909
 20
1877.5172736456
 30
0.0
 10
2090.8344640685
 20
1877.487804878
 30
0.0
 10
2090.9829955092
 20
1877.487804878
 30
0.0
  0
SPLINE
  5
47B
330
207
100
AcDbEntity
  8
7_ALL_FEATURES
  6
Continuous
 62
     7
100
AcDbSpline
 70
     0
 71
     3
 72
     9
 73
     5
 74
     0
 42
0.000000001
 43
0.0000001
 40
0.0
 40
0.0
 40
0.0
 40
0.0
 40
0.5063833529
 40
1.0
 40
1.0
 40
1.0
 40
1.0
 10
2089.1245600473
 20
1985.987804878
 30
0.0
 10
2089.1245600473
 20
1985.6842512202
 30
0.0
 10
2089.413276524
 20
1985.0846228588
 30
0.0
 10
2089.9398768551
 20
1984.7640068754
 30
0.0
 10
2090.2136640345
 20
1984.6517671926
 30
0.0
  0
ARC
  5
47C
330
207
100
AcDbEntity
  8
7_ALL_FEATURES
  6
Continuous
 62
     7
100
AcDbCircle
 10
2091.106904
 20
1986.830622
 30
0.0
 40
2.354842868
100
AcDbArc
 50
247.708395
 51
252.103314
  0
SPLINE
  5
47D
330
207
100
AcDbEntity
  8
7_ALL_FEATURES
  6
Continuous
 62
     7
100
AcDbSpline
 70
     0
 71
     3
 72
     9
 73
     5
 74
     0
 42
0.000000001
 43
0.0000001
 40
0.0
 40
0.0
 40
0.0
 40
0.0
 40
0.2691080917
 40
1.0
 40
1.0
 40
1.0
 40
1.0
 10
2090.3832575156
 20
1984.5897244406
 30
0.0
 10
2090.435299843
 20
1984.5729204904
 30
0.0
 10
2090.630691792
 20
1984.5172736528
 30
0.0
 10
2090.8344640721
 20
1984.487804878
 30
0.0
 10
2090.9829955092
 20
1984.487804878
 30
0.0
  0
LINE
  5
47E
330
207
100
AcDbEntity
  8
7_ALL_FEATURES
  6
Continuous
 62
     7
100
AcDbLine
 10
2088.882927
 20
1989.487805
 30
0.0
 11
2090.382927
 21
1989.487805
 31
0.0
  0
LINE
  5
47F
330
207
100
AcDbEntity
  8
7_ALL_FEATURES
  6
Continuous
 62
     7
100
AcDbLine
 10
2090.382927
 20
1989.487805
 30
0.0
 11
2091.882927
 21
1989.487805
 31
0.0
  0
LINE
  5
480
330
207
100
AcDbEntity
  8
7_ALL_FEATURES
  6
Continuous
 62
     7
100
AcDbLine
 10
2091.882927
 20
1982.487805
 30
0.0
 11
2090.811635
 21
1982.487805
 31
0.0
  0
LINE
  5
481
330
207
100
AcDbEntity
  8
7_ALL_FEATURES
  6
Continuous
 62
     7
100
AcDbLine
 10
2090.811635
 20
1982.487805
 30
0.0
 11
2090.60296
 21
1982.487805
 31
0.0
  0
LINE
  5
482
330
207
100
AcDbEntity
  8
7_ALL_FEATURES
  6
Continuous
 62
     7
100
AcDbLine
 10
2090.60296
 20
1982.487805
 30
0.0
 11
2090.382927
 21
1982.487805
 31
0.0
  0
LINE
  5
483
330
207
100
AcDbEntity
  8
7_ALL_FEATURES
  6
Continuous
 62
     7
100
AcDbLine
 10
2090.382927
 20
1982.487805
 30
0.0
 11
2088.882927
 21
1982.487805
 31
0.0
  0
LINE
  5
484
330
207
100
AcDbEntity
  8
7_ALL_FEATURES
  6
Continuous
 62
     7
100
AcDbLine
 10
2091.882927
 20
1983.537805
 30
0.0
 11
2091.882927
 21
1985.987805
 31
0.0
  0
LINE
  5
485
330
207
100
AcDbEntity
  8
7_ALL_FEATURES
  6
Continuous
 62
     7
100
AcDbLine
 10
2091.882927
 20
1985.987805
 30
0.0
 11
2091.882927
 21
1988.437805
 31
0.0
  0
LINE
  5
486
330
207
100
AcDbEntity
  8
7_ALL_FEATURES
  6
Continuous
 62
     9
100
AcDbLine
 10
1994.982927
 20
1989.587805
 30
0.0
 11
1993.682927
 21
1989.587805
 31
0.0
  0
SPLINE
  5
487
330
207
100
AcDbEntity
  8
7_ALL_FEATURES
  6
Continuous
 62
     7
100
AcDbSpline
 70
     0
 71
     3
 72
    11
 73
     7
 74
     0
 42
0.000000001
 43
0.0000001
 40
0.0
 40
0.0
 40
0.0
 40
0.0
 40
0.2236683695
 40
0.4201405048
 40
0.667621925
 40
1.0
 40
1.0
 40
1.0
 40
1.0
 10
1994.3828581494
 20
1877.487804878
 30
0.0
 10
1994.2337032972
 20
1877.487804878
 30
0.0
 10
1993.9408828978
 20
1877.5237850634
 30
0.0
 10
1993.5993386221
 20
1877.8558997543
 30
0.0
 10
1993.5060335169
 20
1878.3831254348
 30
0.0
 10
1993.4980852224
 20
1878.7661561812
 30
0.0
 10
1993.4980852224
 20
1878.987804878
 30
0.0
  0
LINE
  5
488
330
207
100
AcDbEntity
  8
7_ALL_FEATURES
  6
Continuous
 62
     9
100
AcDbLine
 10
1996.482927
 20
1875.487805
 30
0.0
 11
1996.482927
 21
1882.487805
 31
0.0
  0
LINE
  5
489
330
207
100
AcDbEntity
  8
7_ALL_FEATURES
  6
Continuous
 62
     9
100
AcDbLine
 10
2090.382927
 20
1982.387805
 30
0.0
 11
2091.682927
 21
1982.387805
 31
0.0
  0
LINE
  5
48A
330
207
100
AcDbEntity
  8
7_ALL_FEATURES
  6
Continuous
 62
     9
100
AcDbLine
 10
2090.375348
 20
1878.987805
 30
0.0
 11
2091.867768
 21
1878.987805
 31
0.0
  0
LINE
  5
48B
330
207
100
AcDbEntity
  8
7_ALL_FEATURES
  6
Continuous
 62
     9
100
AcDbLine
 10
2090.382927
 20
1882.587805
 30
0.0
 11
2091.682927
 21
1882.587805
 31
0.0
  0
LINE
  5
48C
330
207
100
AcDbEntity
  8
7_ALL_FEATURES
  6
Continuous
 62
     9
100
AcDbLine
 10
1994.982927
 20
1875.387805
 30
0.0
 11
1993.682927
 21
1875.387805
 31
0.0
  0
LINE
  5
48D
330
207
100
AcDbEntity
  8
7_ALL_FEATURES
  6
Continuous
 62
     9
100
AcDbLine
 10
2090.375348
 20
1985.987805
 30
0.0
 11
2091.867768
 21
1985.987805
 31
0.0
  0
SPLINE
  5
48E
330
207
100
AcDbEntity
  8
7_ALL_FEATURES
  6
Continuous
 62
     7
100
AcDbSpline
 70
     0
 71
     3
 72
    11
 73
     7
 74
     0
 42
0.000000001
 43
0.0000001
 40
0.0
 40
0.0
 40
0.0
 40
0.0
 40
0.3323836211
 40
0.5798601943
 40
0.7763315314
 40
1.0
 40
1.0
 40
1.0
 40
1.0
 10
2091.8677684362
 20
1878.987804878
 30
0.0
 10
2091.8677684362
 20
1879.2094572828
 30
0.0
 10
2091.8598204172
 20
1879.5924887162
 30
0.0
 10
2091.7665120507
 20
1880.119713273
 30
0.0
 10
2091.4249703545
 20
1880.4518247327
 30
0.0
 10
2091.1321504338
 20
1880.487804878
 30
0.0
 10
2090.9829955092
 20
1880.487804878
 30
0.0
  0
SPLINE
  5
48F
330
207
100
AcDbEntity
  8
7_ALL_FEATURES
  6
Continuous
 62
     7
100
AcDbSpline
 70
     0
 71
     3
 72
    11
 73
     7
 74
     0
 42
0.000000001
 43
0.0000001
 40
0.0
 40
0.0
 40
0.0
 40
0.0
 40
0.2236683695
 40
0.4201405048
 40
0.667621925
 40
1.0
 40
1.0
 40
1.0
 40
1.0
 10
1994.3828581494
 20
1984.487804878
 30
0.0
 10
1994.2337032972
 20
1984.487804878
 30
0.0
 10
1993.9408828978
 20
1984.5237850634
 30
0.0
 10
1993.5993386221
 20
1984.8558997543
 30
0.0
 10
1993.5060335169
 20
1985.3831254348
 30
0.0
 10
1993.4980852224
 20
1985.7661561812
 30
0.0
 10
1993.4980852224
 20
1985.987804878
 30
0.0
  0
SPLINE
  5
490
330
207
100
AcDbEntity
  8
7_ALL_FEATURES
  6
Continuous
 62
     7
100
AcDbSpline
 70
     0
 71
     3
 72
    11
 73
     7
 74
     0
 42
0.000000001
 43
0.0000001
 40
0.0
 40
0.0
 40
0.0
 40
0.0
 40
0.2236684614
 40
0.4201398599
 40
0.6676168051
 40
1.0
 40
1.0
 40
1.0
 40
1.0
 10
2090.9829955092
 20
1984.487804878
 30
0.0
 10
2091.1321504285
 20
1984.487804878
 30
0.0
 10
2091.4249703864
 20
1984.5237850265
 30
0.0
 10
2091.7665122804
 20
1984.8558967351
 30
0.0
 10
2091.8598203957
 20
1985.383121378
 30
0.0
 10
2091.8677684362
 20
1985.7661527582
 30
0.0
 10
2091.8677684362
 20
1985.987804878
 30
0.0
  0
LINE
  5
491
330
207
100
AcDbEntity
  8
7_ALL_FEATURES
  6
Continuous
 62
     9
100
AcDbLine
 10
2090.382927
 20
1989.587805
 30
0.0
 11
2091.682927
 21
1989.587805
 31
0.0
  0
SPLINE
  5
492
330
207
100
AcDbEntity
  8
7_ALL_FEATURES
  6
Continuous
 62
     7
100
AcDbSpline
 70
     0
 71
     3
 72
    11
 73
     7
 74
     0
 42
0.000000001
 43
0.0000001
 40
0.0
 40
0.0
 40
0.0
 40
0.0
 40
0.3323831949
 40
0.5798601401
 40
0.7763315386
 40
1.0
 40
1.0
 40
1.0
 40
1.0
 10
2091.8677684362
 20
1985.987804878
 30
0.0
 10
2091.8677684362
 20
1986.2094569979
 30
0.0
 10
2091.8598203957
 20
1986.5924883781
 30
0.0
 10
2091.7665122804
 20
1987.119713021
 30
0.0
 10
2091.4249703864
 20
1987.4518247296
 30
0.0
 10
2091.1321504285
 20
1987.487804878
 30
0.0
 10
2090.9829955092
 20
1987.487804878
 30
0.0
  0
SPLINE
  5
493
330
207
100
AcDbEntity
  8
7_ALL_FEATURES
  6
Continuous
 62
     7
100
AcDbSpline
 70
     0
 71
     3
 72
    11
 73
     7
 74
     0
 42
0.000000001
 43
0.0000001
 40
0.0
 40
0.0
 40
0.0
 40
0.0
 40
0.2236684686
 40
0.4201398057
 40
0.6676163789
 40
1.0
 40
1.0
 40
1.0
 40
1.0
 10
2090.9829955092
 20
1877.487804878
 30
0.0
 10
2091.1321504338
 20
1877.487804878
 30
0.0
 10
2091.4249703545
 20
1877.5237850234
 30
0.0
 10
2091.7665120507
 20
1877.8558964831
 30
0.0
 10
2091.8598204172
 20
1878.3831210399
 30
0.0
 10
2091.8677684362
 20
1878.7661524733
 30
0.0
 10
2091.8677684362
 20
1878.987804878
 30
0.0
  0
LINE
  5
494
330
207
100
AcDbEntity
  8
7_ALL_FEATURES
  6
Continuous
 62
     9
100
AcDbLine
 10
2088.882927
 20
1875.487805
 30
0.0
 11
2088.882927
 21
1882.487805
 31
0.0
  0
SPLINE
  5
495
330
207
100
AcDbEntity
  8
7_ALL_FEATURES
  6
Continuous
 62
     7
100
AcDbSpline
 70
     0
 71
     3
 72
    11
 73
     7
 74
     0
 42
0.000000001
 43
0.0000001
 40
0.0
 40
0.0
 40
0.0
 40
0.0
 40
0.332378075
 40
0.5798594952
 40
0.7763316305
 40
1.0
 40
1.0
 40
1.0
 40
1.0
 10
1993.4980852224
 20
1878.987804878
 30
0.0
 10
1993.4980852224
 20
1879.2094535749
 30
0.0
 10
1993.5060335169
 20
1879.5924843213
 30
0.0
 10
1993.5993386221
 20
1880.1197100018
 30
0.0
 10
1993.9408828978
 20
1880.4518246927
 30
0.0
 10
1994.2337032972
 20
1880.487804878
 30
0.0
 10
1994.3828581494
 20
1880.487804878
 30
0.0
  0
LINE
  5
496
330
207
100
AcDbEntity
  8
7_ALL_FEATURES
  6
Continuous
 62
     9
100
AcDbLine
 10
1994.982927
 20
1882.587805
 30
0.0
 11
1993.682927
 21
1882.587805
 31
0.0
  0
LINE
  5
497
330
207
100
AcDbEntity
  8
7_ALL_FEATURES
  6
Continuous
 62
     9
100
AcDbLine
 10
2088.882927
 20
1982.487805
 30
0.0
 11
2088.882927
 21
1989.487805
 31
0.0
  0
LINE
  5
498
330
207
100
AcDbEntity
  8
7_ALL_FEATURES
  6
Continuous
 62
     9
100
AcDbLine
 10
1994.982927
 20
1982.387805
 30
0.0
 11
1993.682927
 21
1982.387805
 31
0.0
  0
LINE
  5
499
330
207
100
AcDbEntity
  8
7_ALL_FEATURES
  6
Continuous
 62
     9
100
AcDbLine
 10
1994.990506
 20
1985.987805
 30
0.0
 11
1993.498085
 21
1985.987805
 31
0.0
  0
LINE
  5
49A
330
207
100
AcDbEntity
  8
7_ALL_FEATURES
  6
Continuous
 62
     9
100
AcDbLine
 10
1996.482927
 20
1982.487805
 30
0.0
 11
1996.482927
 21
1989.487805
 31
0.0
  0
SPLINE
  5
49B
330
207
100
AcDbEntity
  8
7_ALL_FEATURES
  6
Continuous
 62
     7
100
AcDbSpline
 70
     0
 71
     3
 72
    11
 73
     7
 74
     0
 42
0.000000001
 43
0.0000001
 40
0.0
 40
0.0
 40
0.0
 40
0.0
 40
0.332378075
 40
0.5798594952
 40
0.7763316305
 40
1.0
 40
1.0
 40
1.0
 40
1.0
 10
1993.4980852224
 20
1985.987804878
 30
0.0
 10
1993.4980852224
 20
1986.2094535749
 30
0.0
 10
1993.5060335169
 20
1986.5924843213
 30
0.0
 10
1993.5993386221
 20
1987.1197100018
 30
0.0
 10
1993.9408828978
 20
1987.4518246927
 30
0.0
 10
1994.2337032972
 20
1987.487804878
 30
0.0
 10
1994.3828581494
 20
1987.487804878
 30
0.0
  0
LINE
  5
49C
330
207
100
AcDbEntity
  8
7_ALL_FEATURES
  6
Continuous
 62
     9
100
AcDbLine
 10
1994.990506
 20
1878.987805
 30
0.0
 11
1993.498085
 21
1878.987805
 31
0.0
  0
LINE
  5
49D
330
207
100
AcDbEntity
  8
7_ALL_FEATURES
  6
Continuous
 62
     9
100
AcDbLine
 10
2090.382927
 20
1875.387805
 30
0.0
 11
2091.682927
 21
1875.387805
 31
0.0
  0
LINE
  5
49E
330
207
100
AcDbEntity
  8
7_ALL_FEATURES
  6
Continuous
 62
     7
100
AcDbLine
 10
1994.482927
 20
2005.737805
 30
0.0
 11
1993.682927
 21
2005.737805
 31
0.0
  0
ARC
  5
49F
330
207
100
AcDbEntity
  8
7_ALL_FEATURES
  6
Continuous
 62
     7
100
AcDbCircle
 10
1993.682927
 20
2005.537805
 30
0.0
 40
0.2
100
AcDbArc
 50
90.0
 51
180.0
  0
LINE
  5
4A0
330
207
100
AcDbEntity
  8
7_ALL_FEATURES
  6
Continuous
 62
     7
100
AcDbLine
 10
1993.482927
 20
2005.537805
 30
0.0
 11
1993.482927
 21
2004.737805
 31
0.0
  0
LINE
  5
4A1
330
207
100
AcDbEntity
  8
7_ALL_FEATURES
  6
Continuous
 62
     7
100
AcDbLine
 10
1993.482927
 20
1992.237805
 30
0.0
 11
1993.482927
 21
1991.937805
 31
0.0
  0
ARC
  5
4A2
330
207
100
AcDbEntity
  8
7_ALL_FEATURES
  6
Continuous
 62
     7
100
AcDbCircle
 10
1993.282927
 20
1991.937805
 30
0.0
 40
0.2
100
AcDbArc
 50
270.0
 51
360.0
  0
LINE
  5
4A3
330
207
100
AcDbEntity
  8
7_ALL_FEATURES
  6
Continuous
 62
     7
100
AcDbLine
 10
1993.282927
 20
1991.737805
 30
0.0
 11
1992.482927
 21
1991.737805
 31
0.0
  0
ARC
  5
4A4
330
207
100
AcDbEntity
  8
7_ALL_FEATURES
  6
Continuous
 62
     7
100
AcDbCircle
 10
1992.482927
 20
1991.237805
 30
0.0
 40
0.5
100
AcDbArc
 50
90.0
 51
180.0
  0
LINE
  5
4A5
330
207
100
AcDbEntity
  8
7_ALL_FEATURES
  6
Continuous
 62
     7
100
AcDbLine
 10
1991.982927
 20
1991.237805
 30
0.0
 11
1991.982927
 21
1988.737805
 31
0.0
  0
ARC
  5
4A6
330
207
100
AcDbEntity
  8
7_ALL_FEATURES
  6
Continuous
 62
     7
100
AcDbCircle
 10
1992.482927
 20
1988.737805
 30
0.0
 40
0.5
100
AcDbArc
 50
180.0
 51
270.0
  0
LINE
  5
4A7
330
207
100
AcDbEntity
  8
7_ALL_FEATURES
  6
Continuous
 62
     7
100
AcDbLine
 10
1992.482927
 20
1988.237805
 30
0.0
 11
1993.282927
 21
1988.237805
 31
0.0
  0
ARC
  5
4A8
330
207
100
AcDbEntity
  8
7_ALL_FEATURES
  6
Continuous
 62
     7
100
AcDbCircle
 10
1993.282927
 20
1988.437805
 30
0.0
 40
0.2
100
AcDbArc
 50
270.0
 51
360.0
  0
LINE
  5
4A9
330
207
100
AcDbEntity
  8
7_ALL_FEATURES
  6
Continuous
 62
     7
100
AcDbLine
 10
1993.482927
 20
1988.437805
 30
0.0
 11
1993.482927
 21
1989.537805
 31
0.0
  0
ARC
  5
4AA
330
207
100
AcDbEntity
  8
7_ALL_FEATURES
  6
Continuous
 62
     7
100
AcDbCircle
 10
1993.682927
 20
1989.537805
 30
0.0
 40
0.2
100
AcDbArc
 50
90.0
 51
180.0
  0
LINE
  5
4AB
330
207
100
AcDbEntity
  8
7_ALL_FEATURES
  6
Continuous
 62
     7
100
AcDbLine
 10
1993.682927
 20
1989.737805
 30
0.0
 11
1996.482927
 21
1989.737805
 31
0.0
  0
LINE
  5
4AC
330
207
100
AcDbEntity
  8
7_ALL_FEATURES
  6
Continuous
 62
     7
100
AcDbLine
 10
1996.482927
 20
1982.237805
 30
0.0
 11
1993.682927
 21
1982.237805
 31
0.0
  0
ARC
  5
4AD
330
207
100
AcDbEntity
  8
7_ALL_FEATURES
  6
Continuous
 62
     7
100
AcDbCircle
 10
1993.682927
 20
1982.437805
 30
0.0
 40
0.2
100
AcDbArc
 50
180.0
 51
270.0
  0
LINE
  5
4AE
330
207
100
AcDbEntity
  8
7_ALL_FEATURES
  6
Continuous
 62
     7
100
AcDbLine
 10
1993.482927
 20
1982.437805
 30
0.0
 11
1993.482927
 21
1983.537805
 31
0.0
  0
ARC
  5
4AF
330
207
100
AcDbEntity
  8
7_ALL_FEATURES
  6
Continuous
 62
     7
100
AcDbCircle
 10
1993.282927
 20
1983.537805
 30
0.0
 40
0.2
100
AcDbArc
 50
0.0
 51
90.0
  0
LINE
  5
4B0
330
207
100
AcDbEntity
  8
7_ALL_FEATURES
  6
Continuous
 62
     7
100
AcDbLine
 10
1993.282927
 20
1983.737805
 30
0.0
 11
1992.482927
 21
1983.737805
 31
0.0
  0
ARC
  5
4B1
330
207
100
AcDbEntity
  8
7_ALL_FEATURES
  6
Continuous
 62
     7
100
AcDbCircle
 10
1992.482927
 20
1983.237805
 30
0.0
 40
0.5
100
AcDbArc
 50
90.0
 51
180.0
  0
LINE
  5
4B2
330
207
100
AcDbEntity
  8
7_ALL_FEATURES
  6
Continuous
 62
     7
100
AcDbLine
 10
1991.982927
 20
1983.237805
 30
0.0
 11
1991.982927
 21
1980.737805
 31
0.0
  0
ARC
  5
4B3
330
207
100
AcDbEntity
  8
7_ALL_FEATURES
  6
Continuous
 62
     7
100
AcDbCircle
 10
1992.482927
 20
1980.737805
 30
0.0
 40
0.5
100
AcDbArc
 50
180.0
 51
270.0
  0
LINE
  5
4B4
330
207
100
AcDbEntity
  8
7_ALL_FEATURES
  6
Continuous
 62
     7
100
AcDbLine
 10
1992.482927
 20
1980.237805
 30
0.0
 11
1993.282927
 21
1980.237805
 31
0.0
  0
ARC
  5
4B5
330
207
100
AcDbEntity
  8
7_ALL_FEATURES
  6
Continuous
 62
     7
100
AcDbCircle
 10
1993.282927
 20
1980.037805
 30
0.0
 40
0.2
100
AcDbArc
 50
0.0
 51
90.0
  0
LINE
  5
4B6
330
207
100
AcDbEntity
  8
7_ALL_FEATURES
  6
Continuous
 62
     7
100
AcDbLine
 10
1993.482927
 20
1980.037805
 30
0.0
 11
1993.482927
 21
1979.737805
 31
0.0
  0
LINE
  5
4B7
330
207
100
AcDbEntity
  8
7_ALL_FEATURES
  6
Continuous
 62
     7
100
AcDbLine
 10
1993.482927
 20
1885.237805
 30
0.0
 11
1993.482927
 21
1884.937805
 31
0.0
  0
ARC
  5
4B8
330
207
100
AcDbEntity
  8
7_ALL_FEATURES
  6
Continuous
 62
     7
100
AcDbCircle
 10
1993.282927
 20
1884.937805
 30
0.0
 40
0.2
100
AcDbArc
 50
270.0
 51
360.0
  0
LINE
  5
4B9
330
207
100
AcDbEntity
  8
7_ALL_FEATURES
  6
Continuous
 62
     7
100
AcDbLine
 10
1993.282927
 20
1884.737805
 30
0.0
 11
1992.482927
 21
1884.737805
 31
0.0
  0
ARC
  5
4BA
330
207
100
AcDbEntity
  8
7_ALL_FEATURES
  6
Continuous
 62
     7
100
AcDbCircle
 10
1992.482927
 20
1884.237805
 30
0.0
 40
0.5
100
AcDbArc
 50
90.0
 51
180.0
  0
LINE
  5
4BB
330
207
100
AcDbEntity
  8
7_ALL_FEATURES
  6
Continuous
 62
     7
100
AcDbLine
 10
1991.982927
 20
1884.237805
 30
0.0
 11
1991.982927
 21
1881.737805
 31
0.0
  0
ARC
  5
4BC
330
207
100
AcDbEntity
  8
7_ALL_FEATURES
  6
Continuous
 62
     7
100
AcDbCircle
 10
1992.482927
 20
1881.737805
 30
0.0
 40
0.5
100
AcDbArc
 50
180.0
 51
270.0
  0
LINE
  5
4BD
330
207
100
AcDbEntity
  8
7_ALL_FEATURES
  6
Continuous
 62
     7
100
AcDbLine
 10
1992.482927
 20
1881.237805
 30
0.0
 11
1993.282927
 21
1881.237805
 31
0.0
  0
ARC
  5
4BE
330
207
100
AcDbEntity
  8
7_ALL_FEATURES
  6
Continuous
 62
     7
100
AcDbCircle
 10
1993.282927
 20
1881.437805
 30
0.0
 40
0.2
100
AcDbArc
 50
270.0
 51
360.0
  0
LINE
  5
4BF
330
207
100
AcDbEntity
  8
7_ALL_FEATURES
  6
Continuous
 62
     7
100
AcDbLine
 10
1993.482927
 20
1881.437805
 30
0.0
 11
1993.482927
 21
1882.537805
 31
0.0
  0
ARC
  5
4C0
330
207
100
AcDbEntity
  8
7_ALL_FEATURES
  6
Continuous
 62
     7
100
AcDbCircle
 10
1993.682927
 20
1882.537805
 30
0.0
 40
0.2
100
AcDbArc
 50
90.0
 51
180.0
  0
LINE
  5
4C1
330
207
100
AcDbEntity
  8
7_ALL_FEATURES
  6
Continuous
 62
     7
100
AcDbLine
 10
1993.682927
 20
1882.737805
 30
0.0
 11
1996.482927
 21
1882.737805
 31
0.0
  0
LINE
  5
4C2
330
207
100
AcDbEntity
  8
7_ALL_FEATURES
  6
Continuous
 62
     7
100
AcDbLine
 10
1996.482927
 20
1875.237805
 30
0.0
 11
1993.682927
 21
1875.237805
 31
0.0
  0
ARC
  5
4C3
330
207
100
AcDbEntity
  8
7_ALL_FEATURES
  6
Continuous
 62
     7
100
AcDbCircle
 10
1993.682927
 20
1875.437805
 30
0.0
 40
0.2
100
AcDbArc
 50
180.0
 51
270.0
  0
LINE
  5
4C4
330
207
100
AcDbEntity
  8
7_ALL_FEATURES
  6
Continuous
 62
     7
100
AcDbLine
 10
1993.482927
 20
1875.437805
 30
0.0
 11
1993.482927
 21
1876.537805
 31
0.0
  0
ARC
  5
4C5
330
207
100
AcDbEntity
  8
7_ALL_FEATURES
  6
Continuous
 62
     7
100
AcDbCircle
 10
1993.282927
 20
1876.537805
 30
0.0
 40
0.2
100
AcDbArc
 50
0.0
 51
90.0
  0
LINE
  5
4C6
330
207
100
AcDbEntity
  8
7_ALL_FEATURES
  6
Continuous
 62
     7
100
AcDbLine
 10
1993.282927
 20
1876.737805
 30
0.0
 11
1992.482927
 21
1876.737805
 31
0.0
  0
ARC
  5
4C7
330
207
100
AcDbEntity
  8
7_ALL_FEATURES
  6
Continuous
 62
     7
100
AcDbCircle
 10
1992.482927
 20
1876.237805
 30
0.0
 40
0.5
100
AcDbArc
 50
90.0
 51
180.0
  0
LINE
  5
4C8
330
207
100
AcDbEntity
  8
7_ALL_FEATURES
  6
Continuous
 62
     7
100
AcDbLine
 10
1991.982927
 20
1876.237805
 30
0.0
 11
1991.982927
 21
1873.737805
 31
0.0
  0
ARC
  5
4C9
330
207
100
AcDbEntity
  8
7_ALL_FEATURES
  6
Continuous
 62
     7
100
AcDbCircle
 10
1992.482927
 20
1873.737805
 30
0.0
 40
0.5
100
AcDbArc
 50
180.0
 51
270.0
  0
LINE
  5
4CA
330
207
100
AcDbEntity
  8
7_ALL_FEATURES
  6
Continuous
 62
     7
100
AcDbLine
 10
1992.482927
 20
1873.237805
 30
0.0
 11
1993.282927
 21
1873.237805
 31
0.0
  0
ARC
  5
4CB
330
207
100
AcDbEntity
  8
7_ALL_FEATURES
  6
Continuous
 62
     7
100
AcDbCircle
 10
1993.282927
 20
1873.037805
 30
0.0
 40
0.2
100
AcDbArc
 50
0.0
 51
90.0
  0
LINE
  5
4CC
330
207
100
AcDbEntity
  8
7_ALL_FEATURES
  6
Continuous
 62
     7
100
AcDbLine
 10
1993.482927
 20
1873.037805
 30
0.0
 11
1993.482927
 21
1872.737805
 31
0.0
  0
LINE
  5
4CD
330
207
100
AcDbEntity
  8
7_ALL_FEATURES
  6
Continuous
 62
     7
100
AcDbLine
 10
1993.482927
 20
1857.237805
 30
0.0
 11
1993.482927
 21
1856.237805
 31
0.0
  0
ARC
  5
4CE
330
207
100
AcDbEntity
  8
7_ALL_FEATURES
  6
Continuous
 62
     7
100
AcDbCircle
 10
1994.482927
 20
1856.237805
 30
0.0
 40
1.0
100
AcDbArc
 50
180.0
 51
219.896091
  0
ARC
  5
4CF
330
207
100
AcDbEntity
  8
7_ALL_FEATURES
  6
Continuous
 62
     7
100
AcDbCircle
 10
1994.482927
 20
1856.237805
 30
0.0
 40
1.0
100
AcDbArc
 50
219.896091
 51
230.103909
  0
ARC
  5
4D0
330
207
100
AcDbEntity
  8
7_ALL_FEATURES
  6
Continuous
 62
     7
100
AcDbCircle
 10
1994.482927
 20
1856.237805
 30
0.0
 40
1.0
100
AcDbArc
 50
230.103909
 51
270.0
  0
LINE
  5
4D1
330
207
100
AcDbEntity
  8
7_ALL_FEATURES
  6
Continuous
 62
     7
100
AcDbLine
 10
1994.482927
 20
1855.237805
 30
0.0
 11
1995.482927
 21
1855.237805
 31
0.0
  0
LINE
  5
4D2
330
207
100
AcDbEntity
  8
7_ALL_FEATURES
  6
Continuous
 62
     7
100
AcDbLine
 10
2090.882927
 20
1855.237805
 30
0.0
 11
2089.882927
 21
1855.237805
 31
0.0
  0
ARC
  5
4D3
330
207
100
AcDbEntity
  8
7_ALL_FEATURES
  6
Continuous
 62
     7
100
AcDbCircle
 10
2090.882927
 20
1856.237805
 30
0.0
 40
1.0
100
AcDbArc
 50
320.103909
 51
360.0
  0
ARC
  5
4D4
330
207
100
AcDbEntity
  8
7_ALL_FEATURES
  6
Continuous
 62
     7
100
AcDbCircle
 10
2090.882927
 20
1856.237805
 30
0.0
 40
1.0
100
AcDbArc
 50
309.896091
 51
320.103909
  0
ARC
  5
4D5
330
207
100
AcDbEntity
  8
7_ALL_FEATURES
  6
Continuous
 62
     7
100
AcDbCircle
 10
2090.882927
 20
1856.237805
 30
0.0
 40
1.0
100
AcDbArc
 50
270.0
 51
309.896091
  0
LINE
  5
4D6
330
207
100
AcDbEntity
  8
7_ALL_FEATURES
  6
Continuous
 62
     7
100
AcDbLine
 10
2091.882927
 20
1873.037805
 30
0.0
 11
2091.882927
 21
1872.737805
 31
0.0
  0
LINE
  5
4D7
330
207
100
AcDbEntity
  8
7_ALL_FEATURES
  6
Continuous
 62
     7
100
AcDbLine
 10
2091.882927
 20
1857.237805
 30
0.0
 11
2091.882927
 21
1856.237805
 31
0.0
  0
ARC
  5
4D8
330
207
100
AcDbEntity
  8
7_ALL_FEATURES
  6
Continuous
 62
     7
100
AcDbCircle
 10
2092.082927
 20
1873.037805
 30
0.0
 40
0.2
100
AcDbArc
 50
90.0
 51
180.0
  0
LINE
  5
4D9
330
207
100
AcDbEntity
  8
7_ALL_FEATURES
  6
Continuous
 62
     7
100
AcDbLine
 10
2092.882927
 20
1873.237805
 30
0.0
 11
2092.082927
 21
1873.237805
 31
0.0
  0
ARC
  5
4DA
330
207
100
AcDbEntity
  8
7_ALL_FEATURES
  6
Continuous
 62
     7
100
AcDbCircle
 10
2092.882927
 20
1873.737805
 30
0.0
 40
0.5
100
AcDbArc
 50
270.0
 51
360.0
  0
LINE
  5
4DB
330
207
100
AcDbEntity
  8
7_ALL_FEATURES
  6
Continuous
 62
     7
100
AcDbLine
 10
2093.382927
 20
1876.237805
 30
0.0
 11
2093.382927
 21
1873.737805
 31
0.0
  0
ARC
  5
4DC
330
207
100
AcDbEntity
  8
7_ALL_FEATURES
  6
Continuous
 62
     7
100
AcDbCircle
 10
2092.882927
 20
1876.237805
 30
0.0
 40
0.5
100
AcDbArc
 50
0.0
 51
90.0
  0
LINE
  5
4DD
330
207
100
AcDbEntity
  8
7_ALL_FEATURES
  6
Continuous
 62
     7
100
AcDbLine
 10
2092.082927
 20
1876.737805
 30
0.0
 11
2092.882927
 21
1876.737805
 31
0.0
  0
ARC
  5
4DE
330
207
100
AcDbEntity
  8
7_ALL_FEATURES
  6
Continuous
 62
     7
100
AcDbCircle
 10
2092.082927
 20
1876.537805
 30
0.0
 40
0.2
100
AcDbArc
 50
90.0
 51
180.0
  0
LINE
  5
4DF
330
207
100
AcDbEntity
  8
7_ALL_FEATURES
  6
Continuous
 62
     7
100
AcDbLine
 10
2091.882927
 20
1875.437805
 30
0.0
 11
2091.882927
 21
1876.537805
 31
0.0
  0
ARC
  5
4E0
330
207
100
AcDbEntity
  8
7_ALL_FEATURES
  6
Continuous
 62
     7
100
AcDbCircle
 10
2091.682927
 20
1875.437805
 30
0.0
 40
0.2
100
AcDbArc
 50
270.0
 51
360.0
  0
LINE
  5
4E1
330
207
100
AcDbEntity
  8
7_ALL_FEATURES
  6
Continuous
 62
     7
100
AcDbLine
 10
2088.882927
 20
1875.237805
 30
0.0
 11
2091.682927
 21
1875.237805
 31
0.0
  0
LINE
  5
4E2
330
207
100
AcDbEntity
  8
7_ALL_FEATURES
  6
Continuous
 62
     7
100
AcDbLine
 10
2091.682927
 20
1882.737805
 30
0.0
 11
2088.882927
 21
1882.737805
 31
0.0
  0
ARC
  5
4E3
330
207
100
AcDbEntity
  8
7_ALL_FEATURES
  6
Continuous
 62
     7
100
AcDbCircle
 10
2091.682927
 20
1882.537805
 30
0.0
 40
0.2
100
AcDbArc
 50
0.0
 51
90.0
  0
LINE
  5
4E4
330
207
100
AcDbEntity
  8
7_ALL_FEATURES
  6
Continuous
 62
     7
100
AcDbLine
 10
2091.882927
 20
1881.437805
 30
0.0
 11
2091.882927
 21
1882.537805
 31
0.0
  0
ARC
  5
4E5
330
207
100
AcDbEntity
  8
7_ALL_FEATURES
  6
Continuous
 62
     7
100
AcDbCircle
 10
2092.082927
 20
1881.437805
 30
0.0
 40
0.2
100
AcDbArc
 50
180.0
 51
270.0
  0
LINE
  5
4E6
330
207
100
AcDbEntity
  8
7_ALL_FEATURES
  6
Continuous
 62
     7
100
AcDbLine
 10
2092.882927
 20
1881.237805
 30
0.0
 11
2092.082927
 21
1881.237805
 31
0.0
  0
ARC
  5
4E7
330
207
100
AcDbEntity
  8
7_ALL_FEATURES
  6
Continuous
 62
     7
100
AcDbCircle
 10
2092.882927
 20
1881.737805
 30
0.0
 40
0.5
100
AcDbArc
 50
270.0
 51
360.0
  0
LINE
  5
4E8
330
207
100
AcDbEntity
  8
7_ALL_FEATURES
  6
Continuous
 62
     7
100
AcDbLine
 10
2093.382927
 20
1884.237805
 30
0.0
 11
2093.382927
 21
1881.737805
 31
0.0
  0
ARC
  5
4E9
330
207
100
AcDbEntity
  8
7_ALL_FEATURES
  6
Continuous
 62
     7
100
AcDbCircle
 10
2092.882927
 20
1884.237805
 30
0.0
 40
0.5
100
AcDbArc
 50
0.0
 51
90.0
  0
LINE
  5
4EA
330
207
100
AcDbEntity
  8
7_ALL_FEATURES
  6
Continuous
 62
     7
100
AcDbLine
 10
2092.082927
 20
1884.737805
 30
0.0
 11
2092.882927
 21
1884.737805
 31
0.0
  0
ARC
  5
4EB
330
207
100
AcDbEntity
  8
7_ALL_FEATURES
  6
Continuous
 62
     7
100
AcDbCircle
 10
2092.082927
 20
1884.937805
 30
0.0
 40
0.2
100
AcDbArc
 50
180.0
 51
270.0
  0
LINE
  5
4EC
330
207
100
AcDbEntity
  8
7_ALL_FEATURES
  6
Continuous
 62
     7
100
AcDbLine
 10
2091.882927
 20
1980.037805
 30
0.0
 11
2091.882927
 21
1979.737805
 31
0.0
  0
LINE
  5
4ED
330
207
100
AcDbEntity
  8
7_ALL_FEATURES
  6
Continuous
 62
     7
100
AcDbLine
 10
2091.882927
 20
1885.237805
 30
0.0
 11
2091.882927
 21
1884.937805
 31
0.0
  0
ARC
  5
4EE
330
207
100
AcDbEntity
  8
7_ALL_FEATURES
  6
Continuous
 62
     7
100
AcDbCircle
 10
2092.082927
 20
1980.037805
 30
0.0
 40
0.2
100
AcDbArc
 50
90.0
 51
180.0
  0
LINE
  5
4EF
330
207
100
AcDbEntity
  8
7_ALL_FEATURES
  6
Continuous
 62
     7
100
AcDbLine
 10
2092.882927
 20
1980.237805
 30
0.0
 11
2092.082927
 21
1980.237805
 31
0.0
  0
ARC
  5
4F0
330
207
100
AcDbEntity
  8
7_ALL_FEATURES
  6
Continuous
 62
     7
100
AcDbCircle
 10
2092.882927
 20
1980.737805
 30
0.0
 40
0.5
100
AcDbArc
 50
270.0
 51
360.0
  0
LINE
  5
4F1
330
207
100
AcDbEntity
  8
7_ALL_FEATURES
  6
Continuous
 62
     7
100
AcDbLine
 10
2093.382927
 20
1983.237805
 30
0.0
 11
2093.382927
 21
1980.737805
 31
0.0
  0
ARC
  5
4F2
330
207
100
AcDbEntity
  8
7_ALL_FEATURES
  6
Continuous
 62
     7
100
AcDbCircle
 10
2092.882927
 20
1983.237805
 30
0.0
 40
0.5
100
AcDbArc
 50
0.0
 51
90.0
  0
LINE
  5
4F3
330
207
100
AcDbEntity
  8
7_ALL_FEATURES
  6
Continuous
 62
     7
100
AcDbLine
 10
2092.082927
 20
1983.737805
 30
0.0
 11
2092.882927
 21
1983.737805
 31
0.0
  0
ARC
  5
4F4
330
207
100
AcDbEntity
  8
7_ALL_FEATURES
  6
Continuous
 62
     7
100
AcDbCircle
 10
2092.082927
 20
1983.537805
 30
0.0
 40
0.2
100
AcDbArc
 50
90.0
 51
180.0
  0
LINE
  5
4F5
330
207
100
AcDbEntity
  8
7_ALL_FEATURES
  6
Continuous
 62
     7
100
AcDbLine
 10
2091.882927
 20
1982.437805
 30
0.0
 11
2091.882927
 21
1983.537805
 31
0.0
  0
ARC
  5
4F6
330
207
100
AcDbEntity
  8
7_ALL_FEATURES
  6
Continuous
 62
     7
100
AcDbCircle
 10
2091.682927
 20
1982.437805
 30
0.0
 40
0.2
100
AcDbArc
 50
270.0
 51
360.0
  0
LINE
  5
4F7
330
207
100
AcDbEntity
  8
7_ALL_FEATURES
  6
Continuous
 62
     7
100
AcDbLine
 10
2088.882927
 20
1982.237805
 30
0.0
 11
2091.682927
 21
1982.237805
 31
0.0
  0
LINE
  5
4F8
330
207
100
AcDbEntity
  8
7_ALL_FEATURES
  6
Continuous
 62
     7
100
AcDbLine
 10
2091.682927
 20
1989.737805
 30
0.0
 11
2088.882927
 21
1989.737805
 31
0.0
  0
ARC
  5
4F9
330
207
100
AcDbEntity
  8
7_ALL_FEATURES
  6
Continuous
 62
     7
100
AcDbCircle
 10
2091.682927
 20
1989.537805
 30
0.0
 40
0.2
100
AcDbArc
 50
0.0
 51
90.0
  0
LINE
  5
4FA
330
207
100
AcDbEntity
  8
7_ALL_FEATURES
  6
Continuous
 62
     7
100
AcDbLine
 10
2091.882927
 20
1988.437805
 30
0.0
 11
2091.882927
 21
1989.537805
 31
0.0
  0
ARC
  5
4FB
330
207
100
AcDbEntity
  8
7_ALL_FEATURES
  6
Continuous
 62
     7
100
AcDbCircle
 10
2092.082927
 20
1988.437805
 30
0.0
 40
0.2
100
AcDbArc
 50
180.0
 51
270.0
  0
LINE
  5
4FC
330
207
100
AcDbEntity
  8
7_ALL_FEATURES
  6
Continuous
 62
     7
100
AcDbLine
 10
2092.882927
 20
1988.237805
 30
0.0
 11
2092.082927
 21
1988.237805
 31
0.0
  0
ARC
  5
4FD
330
207
100
AcDbEntity
  8
7_ALL_FEATURES
  6
Continuous
 62
     7
100
AcDbCircle
 10
2092.882927
 20
1988.737805
 30
0.0
 40
0.5
100
AcDbArc
 50
270.0
 51
360.0
  0
LINE
  5
4FE
330
207
100
AcDbEntity
  8
7_ALL_FEATURES
  6
Continuous
 62
     7
100
AcDbLine
 10
2093.382927
 20
1991.237805
 30
0.0
 11
2093.382927
 21
1988.737805
 31
0.0
  0
ARC
  5
4FF
330
207
100
AcDbEntity
  8
7_ALL_FEATURES
  6
Continuous
 62
     7
100
AcDbCircle
 10
2092.882927
 20
1991.237805
 30
0.0
 40
0.5
100
AcDbArc
 50
0.0
 51
90.0
  0
LINE
  5
500
330
207
100
AcDbEntity
  8
7_ALL_FEATURES
  6
Continuous
 62
     7
100
AcDbLine
 10
2092.082927
 20
1991.737805
 30
0.0
 11
2092.882927
 21
1991.737805
 31
0.0
  0
ARC
  5
501
330
207
100
AcDbEntity
  8
7_ALL_FEATURES
  6
Continuous
 62
     7
100
AcDbCircle
 10
2092.082927
 20
1991.937805
 30
0.0
 40
0.2
100
AcDbArc
 50
180.0
 51
270.0
  0
LINE
  5
502
330
207
100
AcDbEntity
  8
7_ALL_FEATURES
  6
Continuous
 62
     7
100
AcDbLine
 10
2091.882927
 20
2005.537805
 30
0.0
 11
2091.882927
 21
2004.737805
 31
0.0
  0
LINE
  5
503
330
207
100
AcDbEntity
  8
7_ALL_FEATURES
  6
Continuous
 62
     7
100
AcDbLine
 10
2091.882927
 20
1992.237805
 30
0.0
 11
2091.882927
 21
1991.937805
 31
0.0
  0
ARC
  5
504
330
207
100
AcDbEntity
  8
7_ALL_FEATURES
  6
Continuous
 62
     7
100
AcDbCircle
 10
2091.682927
 20
2005.537805
 30
0.0
 40
0.2
100
AcDbArc
 50
0.0
 51
90.0
  0
LINE
  5
505
330
207
100
AcDbEntity
  8
7_ALL_FEATURES
  6
Continuous
 62
     7
100
AcDbLine
 10
2090.882927
 20
2005.737805
 30
0.0
 11
2091.682927
 21
2005.737805
 31
0.0
  0
SPLINE
  5
506
330
207
100
AcDbEntity
  8
7_ALL_FEATURES
  6
Continuous
 62
     3
100
AcDbSpline
 70
     0
 71
     3
 72
     9
 73
     5
 74
     0
 42
0.000000001
 43
0.0000001
 40
0.0
 40
0.0
 40
0.0
 40
0.0
 40
0.4570044503
 40
1.0
 40
1.0
 40
1.0
 40
1.0
 10
1995.1512291607
 20
1984.6530533917
 30
0.0
 10
1995.0422334935
 20
1984.8277034698
 30
0.0
 10
1994.9984718727
 20
1985.301861429
 30
0.0
 10
1994.9905060258
 20
1985.7431971478
 30
0.0
 10
1994.9905060258
 20
1985.987804878
 30
0.0
  0
SPLINE
  5
507
330
207
100
AcDbEntity
  8
7_ALL_FEATURES
  6
Continuous
 62
     3
100
AcDbSpline
 70
     0
 71
     3
 72
     9
 73
     5
 74
     0
 42
0.000000001
 43
0.0000001
 40
0.0
 40
0.0
 40
0.0
 40
0.0
 40
0.4570044503
 40
1.0
 40
1.0
 40
1.0
 40
1.0
 10
1995.1512291607
 20
1877.6530533917
 30
0.0
 10
1995.0422334935
 20
1877.8277034698
 30
0.0
 10
1994.9984718727
 20
1878.301861429
 30
0.0
 10
1994.9905060258
 20
1878.7431971478
 30
0.0
 10
1994.9905060258
 20
1878.987804878
 30
0.0
  0
SPLINE
  5
508
330
207
100
AcDbEntity
  8
7_ALL_FEATURES
  6
Continuous
 62
     3
100
AcDbSpline
 70
     0
 71
     3
 72
     9
 73
     5
 74
     0
 42
0.000000001
 43
0.0000001
 40
0.0
 40
0.0
 40
0.0
 40
0.0
 40
0.4570049342
 40
1.0
 40
1.0
 40
1.0
 40
1.0
 10
2090.2146177908
 20
1877.653042419
 30
0.0
 10
2090.3236243018
 20
1877.8276881632
 30
0.0
 10
2090.3673767976
 20
1878.3018585735
 30
0.0
 10
2090.3753476327
 20
1878.7431951715
 30
0.0
 10
2090.3753476327
 20
1878.987804878
 30
0.0
  0
SPLINE
  5
509
330
207
100
AcDbEntity
  8
7_ALL_FEATURES
  6
Continuous
 62
     3
100
AcDbSpline
 70
     0
 71
     3
 72
     9
 73
     5
 74
     0
 42
0.000000001
 43
0.0000001
 40
0.0
 40
0.0
 40
0.0
 40
0.0
 40
0.4570048962
 40
1.0
 40
1.0
 40
1.0
 40
1.0
 10
2090.2146182982
 20
1984.6530432469
 30
0.0
 10
2090.3236239828
 20
1984.8276893223
 30
0.0
 10
2090.3673771796
 20
1985.3018587854
 30
0.0
 10
2090.3753476327
 20
1985.74319532
 30
0.0
 10
2090.3753476327
 20
1985.987804878
 30
0.0
  0
LINE
  5
50A
330
207
100
AcDbEntity
  8
7_ALL_FEATURES
  6
Continuous
 62
     3
100
AcDbLine
 10
1994.982927
 20
1875.387805
 30
0.0
 11
1994.982927
 21
1875.487805
 31
0.0
  0
SPLINE
  5
50B
330
207
100
AcDbEntity
  8
7_ALL_FEATURES
  6
Continuous
 62
     3
100
AcDbSpline
 70
     0
 71
     3
 72
     9
 73
     5
 74
     0
 42
0.000000001
 43
0.0000001
 40
0.0
 40
0.0
 40
0.0
 40
0.0
 40
0.5429955497
 40
1.0
 40
1.0
 40
1.0
 40
1.0
 10
1994.9905060258
 20
1878.987804878
 30
0.0
 10
1994.9905060258
 20
1879.2324126083
 30
0.0
 10
1994.9984718727
 20
1879.6737483271
 30
0.0
 10
1995.0422334935
 20
1880.1479062863
 30
0.0
 10
1995.1512291607
 20
1880.3225563644
 30
0.0
  0
LINE
  5
50C
330
207
100
AcDbEntity
  8
7_ALL_FEATURES
  6
Continuous
 62
     3
100
AcDbLine
 10
1994.982927
 20
1982.387805
 30
0.0
 11
1994.982927
 21
1982.487805
 31
0.0
  0
SPLINE
  5
50D
330
207
100
AcDbEntity
  8
7_ALL_FEATURES
  6
Continuous
 62
     3
100
AcDbSpline
 70
     0
 71
     3
 72
     9
 73
     5
 74
     0
 42
0.000000001
 43
0.0000001
 40
0.0
 40
0.0
 40
0.0
 40
0.0
 40
0.5429955497
 40
1.0
 40
1.0
 40
1.0
 40
1.0
 10
1994.9905060258
 20
1985.987804878
 30
0.0
 10
1994.9905060258
 20
1986.2324126083
 30
0.0
 10
1994.9984718727
 20
1986.6737483271
 30
0.0
 10
1995.0422334935
 20
1987.1479062863
 30
0.0
 10
1995.1512291607
 20
1987.3225563644
 30
0.0
  0
LINE
  5
50E
330
207
100
AcDbEntity
  8
7_ALL_FEATURES
  6
Continuous
 62
     3
100
AcDbLine
 10
2090.382927
 20
1875.387805
 30
0.0
 11
2090.382927
 21
1875.487805
 31
0.0
  0
SPLINE
  5
50F
330
207
100
AcDbEntity
  8
7_ALL_FEATURES
  6
Continuous
 62
     3
100
AcDbSpline
 70
     0
 71
     3
 72
     9
 73
     5
 74
     0
 42
0.000000001
 43
0.0000001
 40
0.0
 40
0.0
 40
0.0
 40
0.0
 40
0.5429951038
 40
1.0
 40
1.0
 40
1.0
 40
1.0
 10
2090.3753476327
 20
1985.987804878
 30
0.0
 10
2090.3753476327
 20
1986.2324144361
 30
0.0
 10
2090.3673771796
 20
1986.6737509707
 30
0.0
 10
2090.3236239828
 20
1987.1479204338
 30
0.0
 10
2090.2146182982
 20
1987.3225665092
 30
0.0
  0
SPLINE
  5
510
330
207
100
AcDbEntity
  8
7_ALL_FEATURES
  6
Continuous
 62
     3
100
AcDbSpline
 70
     0
 71
     3
 72
     9
 73
     5
 74
     0
 42
0.000000001
 43
0.0000001
 40
0.0
 40
0.0
 40
0.0
 40
0.0
 40
0.5429950658
 40
1.0
 40
1.0
 40
1.0
 40
1.0
 10
2090.3753476327
 20
1878.987804878
 30
0.0
 10
2090.3753476327
 20
1879.2324145846
 30
0.0
 10
2090.3673767976
 20
1879.6737511826
 30
0.0
 10
2090.3236243018
 20
1880.1479215929
 30
0.0
 10
2090.2146177908
 20
1880.3225673371
 30
0.0
  0
LINE
  5
511
330
207
100
AcDbEntity
  8
7_ALL_FEATURES
  6
Continuous
 62
     3
100
AcDbLine
 10
2090.382927
 20
1982.387805
 30
0.0
 11
2090.382927
 21
1982.487805
 31
0.0
  0
DIMENSION
  5
512
330
207
100
AcDbEntity
  8
0
  6
Continuous
 62
     2
100
AcDbDimension
280
     0
  2
*D1
 10
2093.382927
 20
2067.14471
 30
0.0
 11
2043.107812
 21
2067.14471
 31
0.0
 70
   160
 71
     2
 42
101.4
 73
     0
 74
     0
 75
     0
  3
DIMSTYLE_1
100
AcDbAlignedDimension
 13
1991.982927
 23
2039.320488
 33
0.0
 14
2093.382927
 24
2039.006222
 34
0.0
100
AcDbRotatedDimension
  0
DIMENSION
  5
513
330
207
100
AcDbEntity
  8
0
  6
Continuous
 62
     2
100
AcDbDimension
280
     0
  2
*D2
 10
1651.748466
 20
1855.237805
 30
0.0
 11
1651.748466
 21
1930.949838
 31
0.0
 70
   160
 71
     2
 42
150.5
 73
     0
 74
     0
 75
     0
  3
DIMSTYLE_2
100
AcDbAlignedDimension
 13
1623.750161
 23
2005.737805
 33
0.0
 14
1623.357329
 24
1855.237805
 34
0.0
 50
270.0
100
AcDbRotatedDimension
  0
DIMENSION
  5
514
330
207
100
AcDbEntity
  8
0
  6
Continuous
 62
     2
100
AcDbDimension
280
     0
  2
*D3
 10
1584.859756
 20
1554.782592
 30
0.0
 11
951.063574
 21
1554.782592
 31
0.0
 70
   160
 71
     2
 42
1268.5
 73
     0
 74
     0
 75
     0
  3
DIMSTYLE_3
100
AcDbAlignedDimension
 13
316.359756
 23
1496.371824
 33
0.0
 14
1584.859756
 24
1500.016265
 34
0.0
100
AcDbRotatedDimension
  0
INSERT
  5
515
330
207
100
AcDbEntity
  8
0
  6
Continuous
 62
     2
100
AcDbBlockReference
  2
LOGO2_BL0
 10
3120.873154
 20
30.322557
 30
0.0
  0
ACAD_TABLE
  5
516
102
{ACAD_XDICTIONARY
360
56D
102
}
330
207
100
AcDbEntity
  8
0
  6
Continuous
 62
     2
160
              3364
310
240D000017000000880000001D000000000000000000F03F00000000000000000000000000000000C751691E1846A8400000000000000000000000000000F03F0000000000000000E175C18D49E9454000000000000000000000000000000000000000000000F03F0000000000000000000000000000000000000000000000
310
000000000000000000000000000000F03F54000000200000000200000000000000000000000000000000000000000000000000000000000000008056400000000000000000000000000000000000000000000000000000000000000000000000000000F03F5400000020000000020000000000000000000000000000000000
310
00000000000000000000000000000000000000000000000044C0000000000000000000000000000000000000000000000000000000000000F03F5400000020000000020000000000000000003E4000000000000018C00000000000000000000000000080564000000000000018C00000000000000000000000000000000000
310
00000000000000000000000000F03F5400000020000000020000000000000000003E4000000000000028C00000000000000000000000000080564000000000000028C0000000000000000000000000000000000000000000000000000000000000F03F5400000020000000020000000000000000003E4000000000000036C0
310
0000000000000000000000000080564000000000000036C0000000000000000000000000000000000000000000000000000000000000F03F54000000200000000200000000000000000000000000000000003BC0000000000000000000000000008056400000000000003BC000000000000000000000000000000000000000
310
0000000000000000000000F03F540000002000000002000000000000000000000000000000000044C00000000000000000000000000080564000000000000044C0000000000000000000000000000000000000000000000000000000000000F03F5400000020000000020000000000000000003E4000000000000000000000
310
0000000000000000000000003E400000000000003BC0000000000000000000000000000000000000000000000000000000000000F03F540000002000000002000000000000000080514000000000000000000000000000000000000000000080514000000000000028C0000000000000000000000000000000000000000000
310
000000000000000000F03F540000002000000002000000000000000080564000000000000000000000000000000000000000000080564000000000000044C0000000000000000000000000000000000000000000000000000000000000F03F0C000000100000000B000000D000000026000000CDCCCCCCCC7C3F404E621058
310
393412C0000000000000000000000000000000000000000000000000000000000000F03F000000000000F03F0000000000000000000000000000000041003100380030005F0043005F003400300032000000000014000000010000000000000000000840000000000000F03F0000000000000000000000000000F03F000000
310
0000000000000000000000000000000000000000000000000000000000000000000000000061007200690061006C002E00740074006600000000000000C800000026000000C2F5285C8FC6514075931804560E13C0000000000000000000000000000000000000000000000000000000000000F03F000000000000F03F0000
310
00000000000000000000000000005200650076003A0030003000000000000C000000010000000000000000000C40000000000000F03F0000000000000000000000000000F03F0000000000000000000000000000000000000000000000000000000000000000000000000000000061007200690061006C002E007400740066
310
00000000000000CC00000026000000FA7E6ABC74433F405839B4C8769E26C0000000000000000000000000000000000000000000000000000000000000F03F000000000000F03F000000000000000000000000000000005300630061006C0065003A0031003A003100000012000000010000000000000000000C4000000000
310
0000F03F0000000000000000000000000000F03F0000000000000000000000000000000000000000000000000000000000000000000000000000000061007200690061006C002E00740074006600000000000000D400000026000000C7BAB88D06D85140994C158C4AEA23C000000000000000000000000000000000000000
310
0000000000000000000000F03F000000000000F03F00000000000000000000000000000000330032003000300020006200790020003200350030003000000000001800000001000000666666666666FE3F000000000000F03F0000000000000000000000000000F03F00000000000000000000000000000000000000000000
310
00000000000000000000000000000000000061007200690061006C002E00740074006600000000000000F400000026000000AE47E17A143E3F40AC1C5A643BCF32C0000000000000000000000000000000000000000000000000000000000000F03F000000000000F03F000000000000000000000000000000004300410053
310
005300410046004F0052004D00410020005400520049004D00200043004F004C004F005200410044004F00200031002E0032000000000038000000010000000000000000000C40000000000000F03F0000000000000000000000000000F03F0000000000000000000000000000000000000000000000000000000000000000
310
000000000000000061007200690061006C002E00740074006600000000000000D40000002600000048E17A14AE373F40C3F5285C8FC239C0000000000000000000000000000000000000000000000000000000000000F03F000000000000F03F0000000000000000000000000000000044004100540045003A00330030002E
310
00300038002E003200320000001A000000010000000000000000000440000000000000F03F0000000000000000000000000000F03F0000000000000000000000000000000000000000000000000000000000000000000000000000000061007200690061006C002E007400740066000000000000002401000026000000CDCC
310
CCCCCCCCF73F0000000000903DC0000000000000000000000000000000000000000000000000000000000000F03F000000000000F03F0000000000000000000000000000000041006E007900200069006E00740065006700720061006C0020006F00720020007000610072007400690061006C00200072006500700072006F
310
00640075006300740069006F006E00730020006100720065002000700072006F0068006900620069007400650064000000000068000000010000000000000000000240000000000000F03F0000000000000000000000000000F03F000000000000000000000000000000000000000000000000000000000000000000000000
310
0000000061007200690061006C002E007400740066000000000000002C01000026000000FED478E926B1F73F37894160E57C40C0000000000000000000000000000000000000000000000000000000000000F03F000000000000F03F0000000000000000000000000000000077006900740068006F00750074002000700072
310
0069006F007200200061007500740068006F007200690073006100740069006F006E0020006F00660020004C002000260020004C0020004C007500630065002000260020004C006900670068007400200073002E0072002E006C002E002C00000072000000010000000000000000000240000000000000F03F000000000000
310
0000000000000000F03F0000000000000000000000000000000000000000000000000000000000000000000000000000000061007200690061006C002E007400740066000000000000000401000026000000C1CAA145B673F43F4F1E166A4D3142C00000000000000000000000000000000000000000000000000000000000
310
00F03F000000000000F03F0000000000000000000000000000000069006E0020006100630063006F007200640061006E006300650020007700690074006800200074006800650020006C0061007700200069006E00200066006F007200630065002E000000000048000000010000000000000000000240000000000000F03F
310
0000000000000000000000000000F03F0000000000000000000000000000000000000000000000000000000000000000000000000000000061007200690061006C002E00740074006600000000000000E400000026000000CDCCCCCCCCCCF73F302AA913D0E043C00000000000000000000000000000000000000000000000
310
00000000000000F03F000000000000F03F0000000000000000000000000000000041006C006C0020007200690067006800740073002000720065007300650072007600650064002E000000000028000000010000000000000000000240000000000000F03F0000000000000000000000000000F03F00000000000000000000
310
00000000000000000000000000000000000000000000000000000000000061007200690061006C002E00740074006600000000000000080000001F000000
100
AcDbBlockReference
  2
*T5
 10
3107.047107
 20
43.822557
 30
0.0
100
AcDbTable
342
53F
343
20E
 11
1.0
 21
0.0
 31
0.0
 90
       22
 91
        5
 92
        5
 93
        0
 94
        0
 95
        0
 96
        0
141
6.0
141
6.0
141
10.0
141
5.0
141
13.0
142
10.0
142
10.0
142
10.0
142
40.0
142
20.0
171
     1
172
     0
173
     0
174
     0
175
     3
176
     4
 91
       32
178
     0
145
0.0
140
3.5
 92
        0
301
CELL_VALUE
 93
        2
 90
        4
  1
 
 94
        0
300

302
 
304
ACVALUE_END
171
     1
172
     0
173
     1
174
     0
175
     1
176
     1
 91
        0
178
     0
145
0.0
 92
        0
301
CELL_VALUE
 93
        3
 90
        0
 91
        0
 94
        0
300

302

304
ACVALUE_END
171
     1
172
     0
173
     1
174
     0
175
     1
176
     1
 91
        0
178
     0
145
0.0
 92
        0
301
CELL_VALUE
 93
        3
 90
        0
 91
        0
 94
        0
300

302

304
ACVALUE_END
171
     1
172
     0
173
     0
174
     0
175
     1
176
     1
 91
       33
178
     0
145
0.0
170
     4
140
3.0
 92
        0
301
CELL_VALUE
 93
        2
 90
        4
  1
A180_C_402
 94
        0
300

302
A180_C_402
304
ACVALUE_END
171
     1
172
     0
173
     0
174
     0
175
     1
176
     1
 91
       33
178
     0
145
0.0
170
     4
140
3.5
 92
        0
301
CELL_VALUE
 93
        2
 90
        4
  1
Rev:00
 94
        0
300

302
Rev:00
304
ACVALUE_END
171
     1
172
     0
173
     1
174
     0
175
     1
176
     1
 91
        0
178
     0
145
0.0
 92
        0
301
CELL_VALUE
 93
        3
 90
        0
 91
        0
 94
        0
300

302

304
ACVALUE_END
171
     1
172
     0
173
     1
174
     0
175
     1
176
     1
 91
        0
178
     0
145
0.0
 92
        0
301
CELL_VALUE
 93
        3
 90
        0
 91
        0
 94
        0
300

302

304
ACVALUE_END
171
     1
172
     0
173
     1
174
     0
175
     1
176
     1
 91
        0
178
     0
145
0.0
 92
        0
301
CELL_VALUE
 93
        3
 90
        0
 91
        0
 94
        0
300

302

304
ACVALUE_END
171
     1
172
     0
173
     0
174
     0
175
     1
176
     1
 91
       33
178
     0
145
0.0
170
     1
140
3.5
 92
        0
301
CELL_VALUE
 93
        2
 90
        4
  1
Scale:1:1
 94
        0
300

302
Scale:1:1
304
ACVALUE_END
171
     1
172
     0
173
     0
174
     0
175
     1
176
     1
 91
       33
178
     0
145
0.0
170
     4
140
1.9
 92
        0
301
CELL_VALUE
 93
        2
 90
        4
  1
3200 by 2500
 94
        0
300

302
3200 by 2500
304
ACVALUE_END
171
     1
172
     0
173
     1
174
     0
175
     1
176
     1
 91
        0
178
     0
145
0.0
 92
        0
301
CELL_VALUE
 93
        3
 90
        0
 91
        0
 94
        0
300

302

304
ACVALUE_END
171
     1
172
     0
173
     1
174
     0
175
     1
176
     1
 91
        0
178
     0
145
0.0
 92
        0
301
CELL_VALUE
 93
        3
 90
        0
 91
        0
 94
        0
300

302

304
ACVALUE_END
171
     1
172
     0
173
     1
174
     0
175
     1
176
     1
 91
        0
178
     0
145
0.0
 92
        0
301
CELL_VALUE
 93
        3
 90
        0
 91
        0
 94
        0
300

302

304
ACVALUE_END
171
     1
172
     0
173
     0
174
     0
175
     2
176
     1
 91
       33
178
     0
145
0.0
170
     4
140
3.5
 92
        0
301
CELL_VALUE
 93
        2
 90
        4
  1
CASSAFORMA TRIM COLORADO 1.2
 94
        0
300

302
CASSAFORMA TRIM COLORADO 1.2
304
ACVALUE_END
171
     1
172
     0
173
     1
174
     0
175
     1
176
     1
 91
        0
178
     0
145
0.0
 92
        0
301
CELL_VALUE
 93
        3
 90
        0
 91
        0
 94
        0
300

302

304
ACVALUE_END
171
     1
172
     0
173
     1
174
     0
175
     1
176
     1
 91
        0
178
     0
145
0.0
 92
        0
301
CELL_VALUE
 93
        3
 90
        0
 91
        0
 94
        0
300

302

304
ACVALUE_END
171
     1
172
     0
173
     1
174
     0
175
     1
176
     1
 91
        0
178
     0
145
0.0
 92
        0
301
CELL_VALUE
 93
        3
 90
        0
 91
        0
 94
        0
300

302

304
ACVALUE_END
171
     1
172
     0
173
     1
174
     0
175
     1
176
     1
 91
        0
178
     0
145
0.0
 92
        0
301
CELL_VALUE
 93
        3
 90
        0
 91
        0
 94
        0
300

302

304
ACVALUE_END
171
     1
172
     0
173
     0
174
     0
175
     2
176
     1
 91
       33
178
     0
145
0.0
170
     4
140
2.5
 92
        0
301
CELL_VALUE
 93
        2
 90
        4
  1
DATE:30.08.22
 94
        0
300

302
DATE:30.08.22
304
ACVALUE_END
171
     1
172
     0
173
     1
174
     0
175
     1
176
     1
 91
        0
178
     0
145
0.0
 92
        0
301
CELL_VALUE
 93
        3
 90
        0
 91
        0
 94
        0
300

302

304
ACVALUE_END
171
     1
172
     0
173
     0
174
     0
175
     5
176
     1
 91
       33
178
     0
145
0.0
170
     4
140
2.25
 92
        0
301
CELL_VALUE
 93
        2
 90
        4
  1
Any integral or partial reproductions are prohibited \Pwithout prior authorisation of L & L Luce & Light s.r.l., \Pin accordance with the law in force. \PAll rights reserved.
 94
        0
300

302
Any integral or partial reproductions are prohibited \Pwithout prior authorisation of L & L Luce & Light s.r.l., \Pin accordance with the law in force. \PAll rights reserved.
304
ACVALUE_END
171
     1
172
     0
173
     1
174
     0
175
     1
176
     1
 91
        0
178
     0
145
0.0
 92
        0
301
CELL_VALUE
 93
        3
 90
        0
 91
        0
 94
        0
300

302

304
ACVALUE_END
171
     1
172
     0
173
     1
174
     0
175
     1
176
     1
 91
        0
178
     0
145
0.0
 92
        0
301
CELL_VALUE
 93
        3
 90
        0
 91
        0
 94
        0
300

302

304
ACVALUE_END
171
     1
172
     0
173
     1
174
     0
175
     1
176
     1
 91
        0
178
     0
145
0.0
 92
        0
301
CELL_VALUE
 93
        3
 90
        0
 91
        0
 94
        0
300

302

304
ACVALUE_END
171
     1
172
     0
173
     1
174
     0
175
     1
176
     1
 91
        0
178
     0
145
0.0
 92
        0
301
CELL_VALUE
 93
        3
 90
        0
 91
        0
 94
        0
300

302

304
ACVALUE_END
  0
ENDSEC
  0
SECTION
  2
OBJECTS
  0
DICTIONARY
  5
C
330
0
100
AcDbDictionary
281
     1
  3
ACAD_DETAILVIEWSTYLE
350
5A6
  3
ACAD_GROUP
350
D
  3
ACAD_IMAGE_DICT
350
566
  3
ACAD_LAYOUT
350
1A
  3
ACAD_MATERIAL
350
55A
  3
ACAD_MLEADERSTYLE
350
5A5
  3
ACAD_MLINESTYLE
350
17
  3
ACAD_PLOTSETTINGS
350
19
  3
ACAD_PLOTSTYLENAME
350
E
  3
ACAD_SCALELIST
350
51C
  3
ACAD_SECTIONVIEWSTYLE
350
5A7
  3
ACAD_TABLESTYLE
350
53E
  3
ACAD_VISUALSTYLE
350
541
  3
ACDB_RECOMPOSE_DATA
350
5A3
  3
AcDbVariableDictionary
350
56F
  3
HOST_DOC_SETTINGS
350
564
  3
MCS_STREAM_DICT
350
560
  0
SUN
  5
563
330
1F4
100
AcDbSun
 90
        1
290
     0
 63
     7
421
 16777215
 40
1.0
291
     1
 91
  2455826
 92
 54000000
292
     0
 70
     2
 71
   256
280
     1
  0
DICTIONARY
  5
56D
330
516
100
AcDbDictionary
280
     1
281
     1
  3
ACAD_XREC_ROUNDTRIP
360
56E
  0
DICTIONARY
  5
5A6
102
{ACAD_REACTORS
330
C
102
}
330
C
100
AcDbDictionary
281
     1
  0
DICTIONARY
  5
D
102
{ACAD_REACTORS
330
C
102
}
330
C
100
AcDbDictionary
281
     1
  0
DICTIONARY
  5
566
102
{ACAD_REACTORS
330
C
102
}
330
C
100
AcDbDictionary
281
     1
  0
DICTIONARY
  5
1A
102
{ACAD_REACTORS
330
C
102
}
330
C
100
AcDbDictionary
281
     1
  3
Layout1
350
519
  3
Model
350
518
  0
DICTIONARY
  5
55A
102
{ACAD_REACTORS
330
C
102
}
330
C
100
AcDbDictionary
281
     1
  3
ByBlock
350
55C
  3
ByLayer
350
55B
  3
Global
350
55D
  0
DICTIONARY
  5
5A5
102
{ACAD_REACTORS
330
C
102
}
330
C
100
AcDbDictionary
281
     1
  0
DICTIONARY
  5
17
102
{ACAD_REACTORS
330
C
102
}
330
C
100
AcDbDictionary
281
     1
  3
Standard
350
18
  0
DICTIONARY
  5
19
102
{ACAD_REACTORS
330
C
102
}
330
C
100
AcDbDictionary
281
     1
  0
ACDBDICTIONARYWDFLT
  5
E
102
{ACAD_REACTORS
330
C
102
}
330
C
100
AcDbDictionary
281
     1
  3
Normal
350
F
100
AcDbDictionaryWithDefault
340
F
  0
DICTIONARY
  5
51C
102
{ACAD_REACTORS
330
C
102
}
330
C
100
AcDbDictionary
281
     1
  3
A0
350
51D
  3
A1
350
51E
  3
A2
350
51F
  3
A3
350
520
  3
A4
350
521
  3
A5
350
522
  3
A6
350
523
  3
A7
350
524
  3
A8
350
525
  3
A9
350
526
  3
B0
350
527
  3
B1
350
528
  3
B2
350
529
  3
B3
350
52A
  3
B4
350
52B
  3
B5
350
52C
  3
B6
350
52D
  3
B7
350
52E
  3
B8
350
52F
  3
B9
350
530
  3
C0
350
531
  3
C1
350
532
  3
C2
350
533
  3
C3
350
534
  3
C4
350
535
  3
C5
350
536
  3
C6
350
537
  3
C7
350
538
  3
C8
350
539
  3
C9
350
53A
  3
D0
350
53B
  3
D1
350
53C
  3
D2
350
53D
  0
DICTIONARY
  5
5A7
102
{ACAD_REACTORS
330
C
102
}
330
C
100
AcDbDictionary
281
     1
  0
DICTIONARY
  5
53E
102
{ACAD_REACTORS
330
C
102
}
330
C
100
AcDbDictionary
281
     1
  3
Standard
350
53F
  0
DICTIONARY
  5
541
102
{ACAD_REACTORS
330
C
102
}
330
C
100
AcDbDictionary
281
     1
  3
2dWireframe
350
546
  3
Basic
350
549
  3
Brighten
350
54D
  3
ColorChange
350
551
  3
Conceptual
350
54B
  3
Dim
350
54C
  3
EdgeColorOff
350
554
  3
Facepattern
350
550
  3
Flat
350
542
  3
FlatWithEdges
350
543
  3
Gouraud
350
544
  3
GouraudWithEdges
350
545
  3
Hidden
350
548
  3
JitterOff
350
552
  3
Linepattern
350
54F
  3
OverhangOff
350
553
  3
Realistic
350
54A
  3
Shaded
350
559
  3
Shaded with edges
350
558
  3
Shades of Gray
350
555
  3
Sketchy
350
556
  3
Thicken
350
54E
  3
Wireframe
350
547
  3
X-Ray
350
557
  0
XRECORD
  5
5A3
102
{ACAD_REACTORS
330
C
102
}
330
C
100
AcDbXrecord
280
     1
 90
        1
330
516
330
53F
  0
DICTIONARY
  5
56F
102
{ACAD_REACTORS
330
C
102
}
330
C
100
AcDbDictionary
281
     1
  3
CANNOSCALE
350
570
  3
CTABLESTYLE
350
5A4
  0
DICTIONARY
  5
564
102
{ACAD_REACTORS
330
C
102
}
330
C
100
AcDbDictionary
281
     1
  3
NCDocParameters
350
565
  0
DICTIONARY
  5
560
102
{ACAD_REACTORS
330
C
102
}
330
C
100
AcDbDictionary
281
     1
  3
MC_VERSION_DATA
350
569
  3
MCS_DOCUMENT_ID
350
561
  3
MCS_PARAMS_DATA
350
567
  0
XRECORD
  5
56E
102
{ACAD_REACTORS
330
56D
102
}
330
56D
100
AcDbXrecord
280
     1
102
ACAD_ROUNDTRIP_2008_TABLE_ENTITY
360
56B
 70
     2
 90
        1
 10
0.0
 20
0.0
 30
0.0
 90
        0
 90
        4
361
56C
  0
LAYOUT
  5
519
102
{ACAD_REACTORS
330
1A
102
}
330
1A
100
AcDbPlotSettings
  1

  2
none_device
  4

  6

 40
0.0
 41
0.0
 42
0.0
 43
0.0
 44
3200.0
 45
2500.0
 46
0.0
 47
0.0
 48
0.0
 49
0.0
140
0.0
141
0.0
142
1.0
143
1.0
 70
     0
 72
     1
 73
     0
 74
     0
  7

 75
     0
 76
     0
 77
     2
 78
   300
147
1.0
148
0.0
149
0.0
100
AcDbLayout
  1
Layout1
 70
     0
 71
     1
 10
0.0
 20
0.0
 11
3200.0
 21
2500.0
 12
0.0
 22
0.0
 32
0.0
 14
0.0
 24
0.0
 34
0.0
 15
0.0
 25
0.0
 35
0.0
146
0.0
 13
0.0
 23
0.0
 33
0.0
 16
1.0
 26
0.0
 36
0.0
 17
0.0
 27
1.0
 37
0.0
 76
     0
330
208
  0
LAYOUT
  5
518
102
{ACAD_REACTORS
330
1A
102
}
330
1A
100
AcDbPlotSettings
  1

  2
none_device
  4

  6

 40
0.0
 41
0.0
 42
0.0
 43
0.0
 44
3200.0
 45
2500.0
 46
0.0
 47
0.0
 48
0.0
 49
0.0
140
0.0
141
0.0
142
1.0
143
1.0
 70
  1024
 72
     1
 73
     0
 74
     0
  7

 75
     0
 76
     0
 77
     2
 78
   300
147
1.0
148
0.0
149
0.0
100
AcDbLayout
  1
Model
 70
     0
 71
     0
 10
0.0
 20
0.0
 11
3200.0
 21
2500.0
 12
0.0
 22
0.0
 32
0.0
 14
0.0
 24
0.0
 34
0.0
 15
0.0
 25
0.0
 35
0.0
146
0.0
 13
0.0
 23
0.0
 33
0.0
 16
1.0
 26
0.0
 36
0.0
 17
0.0
 27
1.0
 37
0.0
 76
     0
330
207
331
1F4
  0
MATERIAL
  5
55C
102
{ACAD_REACTORS
330
55A
102
}
330
55A
100
AcDbMaterial
  1
ByBlock
 72
     1
 94
      127
  0
MATERIAL
  5
55B
102
{ACAD_REACTORS
330
55A
102
}
330
55A
100
AcDbMaterial
  1
ByLayer
 72
     1
 94
      127
  0
MATERIAL
  5
55D
102
{ACAD_REACTORS
330
55A
102
}
330
55A
100
AcDbMaterial
  1
Global
 72
     1
 94
      127
  0
MLINESTYLE
  5
18
102
{ACAD_REACTORS
330
17
102
}
330
17
100
AcDbMlineStyle
  2
STANDARD
 70
     0
  3

 62
   256
 51
90.0
 52
90.0
 71
     2
 49
0.5
 62
   256
  6
BYLAYER
 49
-0.5
 62
   256
  6
BYLAYER
  0
ACDBPLACEHOLDER
  5
F
102
{ACAD_REACTORS
330
E
102
}
330
E
  0
SCALE
  5
51D
102
{ACAD_REACTORS
330
51C
102
}
330
51C
100
AcDbScale
 70
     0
300
1:1
140
1.0
141
1.0
290
     1
  0
SCALE
  5
51E
102
{ACAD_REACTORS
330
51C
102
}
330
51C
100
AcDbScale
 70
     0
300
1:2
140
1.0
141
2.0
290
     0
  0
SCALE
  5
51F
102
{ACAD_REACTORS
330
51C
102
}
330
51C
100
AcDbScale
 70
     0
300
1:4
140
1.0
141
4.0
290
     0
  0
SCALE
  5
520
102
{ACAD_REACTORS
330
51C
102
}
330
51C
100
AcDbScale
 70
     0
300
1:5
140
1.0
141
5.0
290
     0
  0
SCALE
  5
521
102
{ACAD_REACTORS
330
51C
102
}
330
51C
100
AcDbScale
 70
     0
300
1:8
140
1.0
141
8.0
290
     0
  0
SCALE
  5
522
102
{ACAD_REACTORS
330
51C
102
}
330
51C
100
AcDbScale
 70
     0
300
1:10
140
1.0
141
10.0
290
     0
  0
SCALE
  5
523
102
{ACAD_REACTORS
330
51C
102
}
330
51C
100
AcDbScale
 70
     0
300
1:16
140
1.0
141
16.0
290
     0
  0
SCALE
  5
524
102
{ACAD_REACTORS
330
51C
102
}
330
51C
100
AcDbScale
 70
     0
300
1:20
140
1.0
141
20.0
290
     0
  0
SCALE
  5
525
102
{ACAD_REACTORS
330
51C
102
}
330
51C
100
AcDbScale
 70
     0
300
1:30
140
1.0
141
30.0
290
     0
  0
SCALE
  5
526
102
{ACAD_REACTORS
330
51C
102
}
330
51C
100
AcDbScale
 70
     0
300
1:40
140
1.0
141
40.0
290
     0
  0
SCALE
  5
527
102
{ACAD_REACTORS
330
51C
102
}
330
51C
100
AcDbScale
 70
     0
300
1:50
140
1.0
141
50.0
290
     0
  0
SCALE
  5
528
102
{ACAD_REACTORS
330
51C
102
}
330
51C
100
AcDbScale
 70
     0
300
1:100
140
1.0
141
100.0
290
     0
  0
SCALE
  5
529
102
{ACAD_REACTORS
330
51C
102
}
330
51C
100
AcDbScale
 70
     0
300
2:1
140
2.0
141
1.0
290
     0
  0
SCALE
  5
52A
102
{ACAD_REACTORS
330
51C
102
}
330
51C
100
AcDbScale
 70
     0
300
4:1
140
4.0
141
1.0
290
     0
  0
SCALE
  5
52B
102
{ACAD_REACTORS
330
51C
102
}
330
51C
100
AcDbScale
 70
     0
300
8:1
140
8.0
141
1.0
290
     0
  0
SCALE
  5
52C
102
{ACAD_REACTORS
330
51C
102
}
330
51C
100
AcDbScale
 70
     0
300
10:1
140
10.0
141
1.0
290
     0
  0
SCALE
  5
52D
102
{ACAD_REACTORS
330
51C
102
}
330
51C
100
AcDbScale
 70
     0
300
100:1
140
100.0
141
1.0
290
     0
  0
SCALE
  5
52E
102
{ACAD_REACTORS
330
51C
102
}
330
51C
100
AcDbScale
 70
     0
300
1/128" = 1'-0"
140
0.007812
141
12.0
290
     0
  0
SCALE
  5
52F
102
{ACAD_REACTORS
330
51C
102
}
330
51C
100
AcDbScale
 70
     0
300
1/64" = 1'-0"
140
0.015625
141
12.0
290
     0
  0
SCALE
  5
530
102
{ACAD_REACTORS
330
51C
102
}
330
51C
100
AcDbScale
 70
     0
300
1/32" = 1'-0"
140
0.03125
141
12.0
290
     0
  0
SCALE
  5
531
102
{ACAD_REACTORS
330
51C
102
}
330
51C
100
AcDbScale
 70
     0
300
1/16" = 1'-0"
140
0.0625
141
12.0
290
     0
  0
SCALE
  5
532
102
{ACAD_REACTORS
330
51C
102
}
330
51C
100
AcDbScale
 70
     0
300
3/32" = 1'-0"
140
0.09375
141
12.0
290
     0
  0
SCALE
  5
533
102
{ACAD_REACTORS
330
51C
102
}
330
51C
100
AcDbScale
 70
     0
300
1/8" = 1'-0"
140
0.125
141
12.0
290
     0
  0
SCALE
  5
534
102
{ACAD_REACTORS
330
51C
102
}
330
51C
100
AcDbScale
 70
     0
300
3/16" = 1'-0"
140
0.1875
141
12.0
290
     0
  0
SCALE
  5
535
102
{ACAD_REACTORS
330
51C
102
}
330
51C
100
AcDbScale
 70
     0
300
1/4" = 1'-0"
140
0.25
141
12.0
290
     0
  0
SCALE
  5
536
102
{ACAD_REACTORS
330
51C
102
}
330
51C
100
AcDbScale
 70
     0
300
3/8" = 1'-0"
140
0.375
141
12.0
290
     0
  0
SCALE
  5
537
102
{ACAD_REACTORS
330
51C
102
}
330
51C
100
AcDbScale
 70
     0
300
1/2" = 1'-0"
140
0.5
141
12.0
290
     0
  0
SCALE
  5
538
102
{ACAD_REACTORS
330
51C
102
}
330
51C
100
AcDbScale
 70
     0
300
3/4" = 1'-0"
140
0.75
141
12.0
290
     0
  0
SCALE
  5
539
102
{ACAD_REACTORS
330
51C
102
}
330
51C
100
AcDbScale
 70
     0
300
1" = 1'-0"
140
1.0
141
12.0
290
     0
  0
SCALE
  5
53A
102
{ACAD_REACTORS
330
51C
102
}
330
51C
100
AcDbScale
 70
     0
300
1-1/2" = 1'-0"
140
1.5
141
12.0
290
     0
  0
SCALE
  5
53B
102
{ACAD_REACTORS
330
51C
102
}
330
51C
100
AcDbScale
 70
     0
300
3" = 1'-0"
140
3.0
141
12.0
290
     0
  0
SCALE
  5
53C
102
{ACAD_REACTORS
330
51C
102
}
330
51C
100
AcDbScale
 70
     0
300
6" = 1'-0"
140
6.0
141
12.0
290
     0
  0
SCALE
  5
53D
102
{ACAD_REACTORS
330
51C
102
}
330
51C
100
AcDbScale
 70
     0
300
1'-0" = 1'-0"
140
12.0
141
12.0
290
     0
  0
TABLESTYLE
  5
53F
102
{ACAD_REACTORS
330
53E
102
}
102
{ACAD_XDICTIONARY
360
571
102
}
330
53E
100
AcDbTableStyle
  3
Standard
 70
     0
 71
     0
 40
0.06
 41
0.06
280
     0
281
     0
  7
STANDARD
140
4.5
170
     2
 62
     0
 63
   257
283
     0
 90
        4
 91
        0
  1

274
    -2
284
     1
 64
     0
275
    -2
285
     1
 65
     0
276
    -2
286
     1
 66
     0
277
    -2
287
     1
 67
     0
278
    -2
288
     1
 68
     0
279
    -2
289
     1
 69
     0
  7
STANDARD
140
6.0
170
     5
 62
     0
 63
   257
283
     0
 90
        4
 91
        0
  1

274
    -2
284
     1
 64
     0
275
    -2
285
     1
 65
     0
276
    -2
286
     1
 66
     0
277
    -2
287
     1
 67
     0
278
    -2
288
     1
 68
     0
279
    -2
289
     1
 69
     0
  7
STANDARD
140
4.5
170
     5
 62
     0
 63
   257
283
     0
 90
        4
 91
        0
  1

274
    -2
284
     1
 64
     0
275
    -2
285
     1
 65
     0
276
    -2
286
     1
 66
     0
277
    -2
287
     1
 67
     0
278
    -2
288
     1
 68
     0
279
    -2
289
     1
 69
     0
  0
VISUALSTYLE
  5
546
102
{ACAD_REACTORS
330
541
102
}
102
{ACAD_XDICTIONARY
360
57B
102
}
330
541
100
AcDbVisualStyle
  2
2dWireframe
 70
     4
177
     2
291
     0
 71
     0
176
     1
 72
     2
176
     1
 73
     0
176
     1
 90
        0
176
     1
 40
0.6
176
     1
 41
30.0
176
     1
 62
     5
 63
     7
421
 16777215
176
     1
 74
     1
176
     1
 91
        4
176
     1
 64
     7
176
     1
 65
   257
176
     1
 75
     1
176
     1
175
     1
176
     1
 42
1.0
176
     1
 92
        0
176
     1
 66
   257
176
     1
 43
1.0
176
     1
 76
     1
176
     1
 77
     6
176
     1
 78
     2
176
     1
 67
     7
176
     1
 79
     5
176
     1
170
     0
176
     1
171
     0
176
     1
290
     0
176
     1
 93
        1
176
     1
 44
0.0
176
     1
173
     0
176
     1
  0
VISUALSTYLE
  5
549
102
{ACAD_REACTORS
330
541
102
}
102
{ACAD_XDICTIONARY
360
581
102
}
330
541
100
AcDbVisualStyle
  2
Basic
 70
     7
177
     2
291
     1
 71
     1
176
     1
 72
     0
176
     1
 73
     1
176
     1
 90
        0
176
     1
 40
0.6
176
     1
 41
30.0
176
     1
 62
     5
 63
     7
421
 16777215
176
     1
 74
     0
176
     1
 91
        4
176
     1
 64
     7
176
     1
 65
   257
176
     1
 75
     1
176
     1
175
     1
176
     1
 42
1.0
176
     1
 92
        8
176
     1
 66
     7
176
     1
 43
1.0
176
     1
 76
     1
176
     1
 77
     6
176
     1
 78
     2
176
     1
 67
     7
176
     1
 79
     5
176
     1
170
     0
176
     1
171
     0
176
     1
290
     0
176
     1
 93
        1
176
     1
 44
0.0
176
     1
173
     0
176
     1
  0
VISUALSTYLE
  5
54D
102
{ACAD_REACTORS
330
541
102
}
102
{ACAD_XDICTIONARY
360
589
102
}
330
541
100
AcDbVisualStyle
  2
Brighten
 70
    12
177
     2
291
     1
 71
     2
176
     1
 72
     2
176
     1
 73
     0
176
     1
 90
        0
176
     1
 40
0.6
176
     1
 41
30.0
176
     1
 62
     5
 63
     7
421
 16777215
176
     1
 74
     1
176
     1
 91
        4
176
     1
 64
     7
176
     1
 65
   257
176
     1
 75
     1
176
     1
175
     1
176
     1
 42
1.0
176
     1
 92
        8
176
     1
 66
     7
176
     1
 43
1.0
176
     1
 76
     1
176
     1
 77
     6
176
     1
 78
     2
176
     1
 67
     7
176
     1
 79
     5
176
     1
170
     0
176
     1
171
     0
176
     1
290
     0
176
     1
 93
        1
176
     1
 44
50.0
176
     1
173
     0
176
     1
  0
VISUALSTYLE
  5
551
102
{ACAD_REACTORS
330
541
102
}
102
{ACAD_XDICTIONARY
360
591
102
}
330
541
100
AcDbVisualStyle
  2
ColorChange
 70
    16
177
     2
291
     1
 71
     2
176
     1
 72
     2
176
     1
 73
     3
176
     1
 90
        0
176
     1
 40
0.6
176
     1
 41
30.0
176
     1
 62
     5
 63
     8
421
  8421504
176
     1
 74
     1
176
     1
 91
        4
176
     1
 64
     7
176
     1
 65
   257
176
     1
 75
     1
176
     1
175
     1
176
     1
 42
1.0
176
     1
 92
        8
176
     1
 66
     8
424
  8421504
176
     1
 43
1.0
176
     1
 76
     1
176
     1
 77
     6
176
     1
 78
     2
176
     1
 67
     7
176
     1
 79
     5
176
     1
170
     0
176
     1
171
     0
176
     1
290
     0
176
     1
 93
        1
176
     1
 44
0.0
176
     1
173
     0
176
     1
  0
VISUALSTYLE
  5
54B
102
{ACAD_REACTORS
330
541
102
}
102
{ACAD_XDICTIONARY
360
585
102
}
330
541
100
AcDbVisualStyle
  2
Conceptual
 70
     9
177
     2
291
     0
 71
     3
176
     1
 72
     2
176
     1
 73
     0
176
     1
 90
        0
176
     1
 40
0.6
176
     1
 41
30.0
176
     1
 62
     5
 63
     7
421
 16777215
176
     1
 74
     2
176
     1
 91
        2
176
     1
 64
     7
176
     1
 65
   257
176
     1
 75
     1
176
     1
175
     1
176
     1
 42
179.0
176
     1
 92
        8
176
     1
 66
     7
176
     1
 43
1.0
176
     1
 76
     1
176
     1
 77
     6
176
     1
 78
     2
176
     1
 67
     7
176
     1
 79
     3
176
     1
170
     0
176
     1
171
     0
176
     1
290
     0
176
     1
 93
        1
176
     1
 44
0.0
176
     1
173
     0
176
     1
  0
VISUALSTYLE
  5
54C
102
{ACAD_REACTORS
330
541
102
}
102
{ACAD_XDICTIONARY
360
587
102
}
330
541
100
AcDbVisualStyle
  2
Dim
 70
    11
177
     2
291
     1
 71
     2
176
     1
 72
     2
176
     1
 73
     0
176
     1
 90
        0
176
     1
 40
0.6
176
     1
 41
30.0
176
     1
 62
     5
 63
     7
421
 16777215
176
     1
 74
     1
176
     1
 91
        4
176
     1
 64
     7
176
     1
 65
   257
176
     1
 75
     1
176
     1
175
     1
176
     1
 42
1.0
176
     1
 92
        8
176
     1
 66
     7
176
     1
 43
1.0
176
     1
 76
     1
176
     1
 77
     6
176
     1
 78
     2
176
     1
 67
     7
176
     1
 79
     5
176
     1
170
     0
176
     1
171
     0
176
     1
290
     0
176
     1
 93
        1
176
     1
 44
-50.0
176
     1
173
     0
176
     1
  0
VISUALSTYLE
  5
554
102
{ACAD_REACTORS
330
541
102
}
102
{ACAD_XDICTIONARY
360
597
102
}
330
541
100
AcDbVisualStyle
  2
EdgeColorOff
 70
    22
177
     2
291
     1
 71
     2
176
     0
 72
     2
176
     0
 73
     0
176
     0
 90
        0
176
     0
 40
0.6
176
     0
 41
30.0
176
     0
 62
     5
 63
     7
421
 16777215
176
     0
 74
     1
176
     0
 91
        4
176
     0
 64
     7
176
     0
 65
   257
176
     0
 75
     1
176
     0
175
     1
176
     0
 42
1.0
176
     0
 92
        8
176
     2
 66
     7
176
     0
 43
1.0
176
     0
 76
     1
176
     0
 77
     6
176
     0
 78
     2
176
     0
 67
     7
176
     0
 79
     5
176
     0
170
     0
176
     0
171
     0
176
     0
290
     0
176
     0
 93
        1
176
     0
 44
0.0
176
     0
173
     0
176
     0
  0
VISUALSTYLE
  5
550
102
{ACAD_REACTORS
330
541
102
}
102
{ACAD_XDICTIONARY
360
58F
102
}
330
541
100
AcDbVisualStyle
  2
Facepattern
 70
    15
177
     2
291
     1
 71
     2
176
     1
 72
     2
176
     1
 73
     0
176
     1
 90
        0
176
     1
 40
0.6
176
     1
 41
30.0
176
     1
 62
     5
 63
     7
421
 16777215
176
     1
 74
     1
176
     1
 91
        4
176
     1
 64
     7
176
     1
 65
   257
176
     1
 75
     1
176
     1
175
     1
176
     1
 42
1.0
176
     1
 92
        8
176
     1
 66
     7
176
     1
 43
1.0
176
     1
 76
     1
176
     1
 77
     6
176
     1
 78
     2
176
     1
 67
     7
176
     1
 79
     5
176
     1
170
     0
176
     1
171
     0
176
     1
290
     0
176
     1
 93
        1
176
     1
 44
0.0
176
     1
173
     0
176
     1
  0
VISUALSTYLE
  5
542
102
{ACAD_REACTORS
330
541
102
}
102
{ACAD_XDICTIONARY
360
573
102
}
330
541
100
AcDbVisualStyle
  2
Flat
 70
     0
177
     2
291
     1
 71
     2
176
     1
 72
     1
176
     1
 73
     1
176
     1
 90
        2
176
     1
 40
0.6
176
     1
 41
30.0
176
     1
 62
     5
 63
     7
421
 16777215
176
     1
 74
     0
176
     1
 91
        0
176
     1
 64
     7
176
     1
 65
   257
176
     1
 75
     1
176
     1
175
     1
176
     1
 42
1.0
176
     1
 92
        8
176
     1
 66
     7
176
     1
 43
1.0
176
     1
 76
     1
176
     1
 77
     6
176
     1
 78
     2
176
     1
 67
     7
176
     1
 79
     5
176
     1
170
     0
176
     1
171
     0
176
     1
290
     0
176
     1
 93
       13
176
     1
 44
0.0
176
     1
173
     0
176
     1
  0
VISUALSTYLE
  5
543
102
{ACAD_REACTORS
330
541
102
}
102
{ACAD_XDICTIONARY
360
575
102
}
330
541
100
AcDbVisualStyle
  2
FlatWithEdges
 70
     1
177
     2
291
     1
 71
     2
176
     1
 72
     1
176
     1
 73
     1
176
     1
 90
        2
176
     1
 40
0.6
176
     1
 41
30.0
176
     1
 62
     5
 63
     7
421
 16777215
176
     1
 74
     1
176
     1
 91
        0
176
     1
 64
     7
176
     1
 65
   257
176
     1
 75
     1
176
     1
175
     1
176
     1
 42
1.0
176
     1
 92
        0
176
     1
 66
   257
176
     1
 43
1.0
176
     1
 76
     1
176
     1
 77
     6
176
     1
 78
     2
176
     1
 67
     7
176
     1
 79
     5
176
     1
170
     0
176
     1
171
     0
176
     1
290
     0
176
     1
 93
       13
176
     1
 44
0.0
176
     1
173
     0
176
     1
  0
VISUALSTYLE
  5
544
102
{ACAD_REACTORS
330
541
102
}
102
{ACAD_XDICTIONARY
360
577
102
}
330
541
100
AcDbVisualStyle
  2
Gouraud
 70
     2
177
     2
291
     1
 71
     2
176
     1
 72
     2
176
     1
 73
     1
176
     1
 90
        2
176
     1
 40
0.6
176
     1
 41
30.0
176
     1
 62
     5
 63
     7
421
 16777215
176
     1
 74
     0
176
     1
 91
        0
176
     1
 64
     7
176
     1
 65
   257
176
     1
 75
     1
176
     1
175
     1
176
     1
 42
1.0
176
     1
 92
        0
176
     1
 66
     7
176
     1
 43
1.0
176
     1
 76
     1
176
     1
 77
     6
176
     1
 78
     2
176
     1
 67
     7
176
     1
 79
     5
176
     1
170
     0
176
     1
171
     0
176
     1
290
     0
176
     1
 93
       13
176
     1
 44
0.0
176
     1
173
     0
176
     1
  0
VISUALSTYLE
  5
545
102
{ACAD_REACTORS
330
541
102
}
102
{ACAD_XDICTIONARY
360
579
102
}
330
541
100
AcDbVisualStyle
  2
GouraudWithEdges
 70
     3
177
     2
291
     1
 71
     2
176
     1
 72
     2
176
     1
 73
     1
176
     1
 90
        2
176
     1
 40
0.6
176
     1
 41
30.0
176
     1
 62
     5
 63
     7
421
 16777215
176
     1
 74
     1
176
     1
 91
        0
176
     1
 64
     7
176
     1
 65
   257
176
     1
 75
     1
176
     1
175
     1
176
     1
 42
1.0
176
     1
 92
        0
176
     1
 66
   257
176
     1
 43
1.0
176
     1
 76
     1
176
     1
 77
     6
176
     1
 78
     2
176
     1
 67
     7
176
     1
 79
     5
176
     1
170
     0
176
     1
171
     0
176
     1
290
     0
176
     1
 93
       13
176
     1
 44
0.0
176
     1
173
     0
176
     1
  0
VISUALSTYLE
  5
548
102
{ACAD_REACTORS
330
541
102
}
102
{ACAD_XDICTIONARY
360
57F
102
}
330
541
100
AcDbVisualStyle
  2
Hidden
 70
     6
177
     2
291
     0
 71
     1
176
     1
 72
     2
176
     1
 73
     2
176
     1
 90
        0
176
     1
 40
0.6
176
     1
 41
30.0
176
     1
 62
     5
 63
     7
421
 16777215
176
     1
 74
     2
176
     1
 91
        2
176
     1
 64
     7
176
     1
 65
   257
176
     1
 75
     2
176
     1
175
     1
176
     1
 42
40.0
176
     1
 92
        0
176
     1
 66
   257
176
     1
 43
1.0
176
     1
 76
     1
176
     1
 77
     6
176
     1
 78
     2
176
     1
 67
     7
176
     1
 79
     3
176
     1
170
     0
176
     1
171
     0
176
     1
290
     0
176
     1
 93
        1
176
     1
 44
0.0
176
     1
173
     0
176
     1
  0
VISUALSTYLE
  5
552
102
{ACAD_REACTORS
330
541
102
}
102
{ACAD_XDICTIONARY
360
593
102
}
330
541
100
AcDbVisualStyle
  2
JitterOff
 70
    20
177
     2
291
     1
 71
     2
176
     0
 72
     2
176
     0
 73
     0
176
     0
 90
        0
176
     0
 40
0.6
176
     0
 41
30.0
176
     0
 62
     5
 63
     7
421
 16777215
176
     0
 74
     1
176
     0
 91
        4
176
     0
 64
     7
176
     0
 65
   257
176
     0
 75
     1
176
     0
175
     1
176
     0
 42
1.0
176
     0
 92
       10
176
     2
 66
     7
176
     0
 43
1.0
176
     0
 76
     1
176
     0
 77
     6
176
     0
 78
     2
176
     0
 67
     7
176
     0
 79
     5
176
     0
170
     0
176
     0
171
     0
176
     0
290
     0
176
     0
 93
        1
176
     0
 44
0.0
176
     0
173
     0
176
     0
  0
VISUALSTYLE
  5
54F
102
{ACAD_REACTORS
330
541
102
}
102
{ACAD_XDICTIONARY
360
58D
102
}
330
541
100
AcDbVisualStyle
  2
Linepattern
 70
    14
177
     2
291
     1
 71
     2
176
     1
 72
     2
176
     1
 73
     0
176
     1
 90
        0
176
     1
 40
0.6
176
     1
 41
30.0
176
     1
 62
     5
 63
     7
421
 16777215
176
     1
 74
     1
176
     1
 91
        4
176
     1
 64
     7
176
     1
 65
   257
176
     1
 75
     7
176
     1
175
     7
176
     1
 42
1.0
176
     1
 92
        8
176
     1
 66
     7
176
     1
 43
1.0
176
     1
 76
     1
176
     1
 77
     6
176
     1
 78
     2
176
     1
 67
     7
176
     1
 79
     5
176
     1
170
     0
176
     1
171
     0
176
     1
290
     0
176
     1
 93
        1
176
     1
 44
0.0
176
     1
173
     0
176
     1
  0
VISUALSTYLE
  5
553
102
{ACAD_REACTORS
330
541
102
}
102
{ACAD_XDICTIONARY
360
595
102
}
330
541
100
AcDbVisualStyle
  2
OverhangOff
 70
    21
177
     2
291
     1
 71
     2
176
     0
 72
     2
176
     0
 73
     0
176
     0
 90
        0
176
     0
 40
0.6
176
     0
 41
30.0
176
     0
 62
     5
 63
     7
421
 16777215
176
     0
 74
     1
176
     0
 91
        4
176
     0
 64
     7
176
     0
 65
   257
176
     0
 75
     1
176
     0
175
     1
176
     0
 42
1.0
176
     0
 92
        9
176
     2
 66
     7
176
     0
 43
1.0
176
     0
 76
     1
176
     0
 77
     6
176
     0
 78
     2
176
     0
 67
     7
176
     0
 79
     5
176
     0
170
     0
176
     0
171
     0
176
     0
290
     0
176
     0
 93
        1
176
     0
 44
0.0
176
     0
173
     0
176
     0
  0
VISUALSTYLE
  5
54A
102
{ACAD_REACTORS
330
541
102
}
102
{ACAD_XDICTIONARY
360
583
102
}
330
541
100
AcDbVisualStyle
  2
Realistic
 70
     8
177
     2
291
     0
 71
     2
176
     1
 72
     3
176
     1
 73
     0
176
     1
 90
        2
176
     1
 40
0.6
176
     1
 41
30.0
176
     1
 62
     5
 63
     7
421
 16777215
176
     1
 74
     0
176
     1
 91
        0
176
     1
 64
     7
176
     1
 65
   257
176
     1
 75
     1
176
     1
175
     1
176
     1
 42
1.0
176
     1
 92
        8
176
     1
 66
   257
176
     1
 43
1.0
176
     1
 76
     1
176
     1
 77
     6
176
     1
 78
     2
176
     1
 67
     7
176
     1
 79
     3
176
     1
170
     0
176
     1
171
     0
176
     1
290
     0
176
     1
 93
       13
176
     1
 44
0.0
176
     1
173
     0
176
     1
  0
VISUALSTYLE
  5
559
102
{ACAD_REACTORS
330
541
102
}
102
{ACAD_XDICTIONARY
360
5A1
102
}
330
541
100
AcDbVisualStyle
  2
Shaded
 70
    27
177
     2
291
     0
 71
     2
176
     1
 72
     2
176
     1
 73
     1
176
     1
 90
        2
176
     1
 40
0.6
176
     1
 41
30.0
176
     1
 62
     5
 63
     7
421
 16777215
176
     1
 74
     0
176
     1
 91
        4
176
     1
 64
     7
176
     1
 65
   257
176
     1
 75
     1
176
     1
175
     1
176
     1
 42
1.0
176
     1
 92
        8
176
     1
 66
   257
176
     1
 43
1.0
176
     1
 76
     1
176
     1
 77
     6
176
     1
 78
     2
176
     1
 67
     8
425
  7895160
176
     1
 79
     3
176
     1
170
     0
176
     1
171
     0
176
     1
290
     0
176
     1
 93
        5
176
     1
 44
0.0
176
     1
173
     0
176
     1
  0
VISUALSTYLE
  5
558
102
{ACAD_REACTORS
330
541
102
}
102
{ACAD_XDICTIONARY
360
59F
102
}
330
541
100
AcDbVisualStyle
  2
Shaded with edges
 70
    26
177
     2
291
     0
 71
     2
176
     1
 72
     2
176
     1
 73
     1
176
     1
 90
        2
176
     1
 40
0.6
176
     1
 41
30.0
176
     1
 62
     5
 63
     7
421
 16777215
176
     1
 74
     1
176
     1
 91
       10
176
     1
 64
     7
176
     1
 65
   257
176
     1
 75
     2
176
     1
175
     1
176
     1
 42
1.0
176
     1
 92
        8
176
     1
 66
   257
176
     1
 43
1.0
176
     1
 76
     1
176
     1
 77
     6
176
     1
 78
     2
176
     1
 67
     7
176
     1
 79
     3
176
     1
170
     0
176
     1
171
     0
176
     1
290
     0
176
     1
 93
        5
176
     1
 44
0.0
176
     1
173
     0
176
     1
  0
VISUALSTYLE
  5
555
102
{ACAD_REACTORS
330
541
102
}
102
{ACAD_XDICTIONARY
360
599
102
}
330
541
100
AcDbVisualStyle
  2
Shades of Gray
 70
    23
177
     2
291
     0
 71
     2
176
     1
 72
     2
176
     1
 73
     3
176
     1
 90
        0
176
     1
 40
0.6
176
     1
 41
30.0
176
     1
 62
     5
 63
     7
421
 16777215
176
     1
 74
     2
176
     1
 91
        2
176
     1
 64
     7
176
     1
 65
     7
176
     1
 75
     1
176
     1
175
     1
176
     1
 42
40.0
176
     1
 92
        8
176
     1
 66
     7
176
     1
 43
1.0
176
     1
 76
     1
176
     1
 77
     6
176
     1
 78
     2
176
     1
 67
     7
176
     1
 79
     3
176
     1
170
     0
176
     1
171
     0
176
     1
290
     0
176
     1
 93
        1
176
     1
 44
0.0
176
     1
173
     0
176
     1
  0
VISUALSTYLE
  5
556
102
{ACAD_REACTORS
330
541
102
}
102
{ACAD_XDICTIONARY
360
59B
102
}
330
541
100
AcDbVisualStyle
  2
Sketchy
 70
    24
177
     2
291
     0
 71
     1
176
     1
 72
     2
176
     1
 73
     2
176
     1
 90
        0
176
     1
 40
0.6
176
     1
 41
30.0
176
     1
 62
     5
 63
     7
421
 16777215
176
     1
 74
     2
176
     1
 91
        2
176
     1
 64
     7
176
     1
 65
     7
176
     1
 75
     1
176
     1
175
     1
176
     1
 42
40.0
176
     1
 92
       11
176
     1
 66
     7
176
     1
 43
1.0
176
     1
 76
     1
176
     1
 77
     6
176
     1
 78
     2
176
     1
 67
     7
176
     1
 79
     6
176
     1
170
     0
176
     1
171
     0
176
     1
290
     0
176
     1
 93
        1
176
     1
 44
0.0
176
     1
173
     0
176
     1
  0
VISUALSTYLE
  5
54E
102
{ACAD_REACTORS
330
541
102
}
102
{ACAD_XDICTIONARY
360
58B
102
}
330
541
100
AcDbVisualStyle
  2
Thicken
 70
    13
177
     2
291
     1
 71
     2
176
     1
 72
     2
176
     1
 73
     0
176
     1
 90
        0
176
     1
 40
0.6
176
     1
 41
30.0
176
     1
 62
     5
 63
     7
421
 16777215
176
     1
 74
     1
176
     1
 91
        4
176
     1
 64
     7
176
     1
 65
   257
176
     1
 75
     1
176
     1
175
     1
176
     1
 42
1.0
176
     1
 92
       12
176
     1
 66
     7
176
     1
 43
1.0
176
     1
 76
     1
176
     1
 77
     6
176
     1
 78
     2
176
     1
 67
     7
176
     1
 79
     5
176
     1
170
     0
176
     1
171
     0
176
     1
290
     0
176
     1
 93
        1
176
     1
 44
0.0
176
     1
173
     0
176
     1
  0
VISUALSTYLE
  5
547
102
{ACAD_REACTORS
330
541
102
}
102
{ACAD_XDICTIONARY
360
57D
102
}
330
541
100
AcDbVisualStyle
  2
Wireframe
 70
     5
177
     2
291
     0
 71
     0
176
     1
 72
     2
176
     1
 73
     0
176
     1
 90
        0
176
     1
 40
0.6
176
     1
 41
30.0
176
     1
 62
     5
 63
     7
421
 16777215
176
     1
 74
     1
176
     1
 91
        4
176
     1
 64
     7
176
     1
 65
   257
176
     1
 75
     1
176
     1
175
     1
176
     1
 42
1.0
176
     1
 92
        0
176
     1
 66
   257
176
     1
 43
1.0
176
     1
 76
     1
176
     1
 77
     6
176
     1
 78
     2
176
     1
 67
     7
176
     1
 79
     3
176
     1
170
     0
176
     1
171
     0
176
     1
290
     0
176
     1
 93
        1
176
     1
 44
0.0
176
     1
173
     0
176
     1
  0
VISUALSTYLE
  5
557
102
{ACAD_REACTORS
330
541
102
}
102
{ACAD_XDICTIONARY
360
59D
102
}
330
541
100
AcDbVisualStyle
  2
X-Ray
 70
    25
177
     2
291
     0
 71
     2
176
     1
 72
     2
176
     1
 73
     1
176
     1
 90
        1
176
     1
 40
0.5
176
     1
 41
30.0
176
     1
 62
     5
 63
     7
421
 16777215
176
     1
 74
     1
176
     1
 91
        0
176
     1
 64
     7
176
     1
 65
   257
176
     1
 75
     1
176
     1
175
     1
176
     1
 42
1.0
176
     1
 92
        8
176
     1
 66
     7
176
     1
 43
1.0
176
     1
 76
     1
176
     1
 77
     6
176
     1
 78
     2
176
     1
 67
     7
176
     1
 79
     3
176
     1
170
     0
176
     1
171
     0
176
     1
290
     0
176
     1
 93
       13
176
     1
 44
0.0
176
     1
173
     0
176
     1
  0
DICTIONARYVAR
  5
570
102
{ACAD_REACTORS
330
56F
102
}
330
56F
100
DictionaryVariables
280
     0
  1
1:1
  0
DICTIONARYVAR
  5
5A4
102
{ACAD_REACTORS
330
56F
102
}
330
56F
100
DictionaryVariables
280
     0
  1
Standard
  0
CSACDOCUMENTOPTIONS
  5
565
102
{ACAD_REACTORS
330
564
102
}
330
564
  0
XRECORD
  5
569
102
{ACAD_REACTORS
330
560
102
}
330
560
100
AcDbXrecord
280
     1
300
MC_VERSION_DATA
 90
       95
310
0600000002000000570000001C000000E404000000000000000000007801936764E5D8CF7A8393818115C460606066E0646662626666706006F214793899F8DE3171E725E6E53B3BBA2878E6951050AF75FEFFFFFF520032DE0F3057000000
  0
XRECORD
  5
561
102
{ACAD_REACTORS
330
560
102
}
330
560
100
AcDbXrecord
280
     1
300
MCS_DOCUMENT_ID
 90
       60
310
0600000002000000150000001C000000E404000000000000000000007801E335B37709DAB5B1D87F65D7754E1FAD3289FF4000005BDA0A5915000000
  0
XRECORD
  5
567
102
{ACAD_REACTORS
330
560
102
}
330
560
100
AcDbXrecord
280
     1
300
MCS_PARAMS_DATA
 90
     3313
310
0600000002000000F64B00001C000000E404000000000000000000007801C55C5B905C45199EE99EBDCCE67E5DA218172C303B91307B4B8C459531245054850D55591F78B236BB49B9BAC9E6B22A082A9655BE5865596569A965F9209288CF16503EC8834088C10B092404211702988430422E9084CDAEFFD7A7FBF4DFA7CF
310
D9D99D9D39930798FF3F7DCEF7DFFAFBBBFBCC6CDBFC46297252EECB48F9CDF5ED5234493921A5206D76815820B252E4F3225F128D7D5F59BF69E3162948D9A2D485B3131313747328BF06593E960915079422437734AA3BDAA5CCD053F5ED4FD2557D257BAB94DF007A03479F859BB2B22193C9108EC1CDCADC0464C27506
310
28605703E48886E0B986E10F03BF91E33707F8E3140E7A9091C8268236920C1C662240B94888A1C8E07600AE99C32D5131CA8B3925D172EFE62D7D6D9DABBA8ADDD6F17CE16D13F0457AE8AC9268DE32DABF73B07FCFA013F9BF8491D7C17E2550D8E8FFCA8DFE4E98B3929B331718B291824FFF72EB941D9E8E2211D5A93C
310
784A44C557923911258BD0C8640531AEEC61A924855B11378280384364A422680C0A928DB9C10CD89D581114199665B722B26E4590C82B0222AB08FAA8A60626C028E0044F81BA246F5360E167F2D27C56A10E05C058C13C59DEC6207679103AFC5DEADF992F2B284F67B31C8EE359B64A9665A62453228F64269D98455E3B
310
A4B35817F7EC92C86FB8EFFE8DBD5BEEDBDCAB0CD3B5FC8E99065A7E55D536E39DE7826237F1C8BBBCB3CFADFC93302087C80397EE69C2FF69CA32234F0763E41851010DA578E8294D435524988818E84710A7B2643B4F7C034F6CE5C9368F203BE8094C6268541D70D35EE4B585DAE170F4942EB8D2D422560A9917F34B62
310
CE86919D9F1F6DDBB36DD770FFC0B6BC682E898607BEB5737424F8D83B323AF07529CFC0B69BB96D9FD3CFF9B410ED79B1A42416161FEA29AEEDEEEC5ADF532C76DEF3C5AEEEB5CAECF97A60330D2C1C3579EAD0DA7621F20269BD6768746FDBF0D0DE51F3B0EE356B3ABBD6F474F7740D76770EACED08FCFC92BEAF13F701
310
B5AF7FEBF0B6B691ED6D7D23C3DBF6F4EF840FDA9AD583C58E81E240FFEAADDD5BD70EAC0E669D2A25F27FB610851F9335859F059541B9E5971EC7A5A7E83F2CE53DB9A4040555A2661A4DDBF2C560B2E54E7D5483931EF871F7C88E5DFDA3435B878687461F6EDB313248FE3596847C70DBDEBC682809D13B22E56A5856E4
310
E9998738519B6E2A89DCE6EDDBDB542AF4E4380F8F61A4965F57116093E5A052A06AF588670205D9A715FB49B140D81A90855F902680EBB8B3A3187EEA96F2B224E392BAF898328CB1AD47DA34C1601A1B421AD816D190715CC3F276A5DE067C546F03AED6DB808FEB6DC0B57A1BB00853B49EB3E0937A47E07ABD0D188301
310
71CB797197D3603B1D06BFCB6DB024827C0C834324E60945463B3712E196397079076E990B47228783C8E09631B8F129C211385B3E540C97413DC70673C524DEAD70BD23917B079179B782793791AE77D944EFDCDC5529988B13E1069D6092C472A7F777A6F648E4C184C88239C8822913E16AE29D48176E29E0727C316496
310
EF2A967C95165E504B0C2B218EEE82DD5C63513CD614C5091F6D6FA7551865CC5C5030A1E0A3E84BEC86CFD04EC5DD01AA74CBDB05AB8C403295A124BB2908C4B032B4682A032283FB103E391B4E03172C7199C4E0F88E871E8855ADA1482D3238FA1846E0B807A77785BFF935FE1D74369F5647D0D171CA5F4F09337C2559
310
105132935A503D6DBC7A94B54D2B6DF1E0339960F436A97441791E5EC104D40283580888C4FDED577B1FD8B4B9AF6FE30605D8AAD7F1F34A62F6DD5BBEC62E92057A31FEA25A9DB3F5FBD3C1729D9CD723B0BF0DE8402BB05A67160DDE4416E59079C0D9EAA575B7321F67115FC018C76AB5B3A33D06B68CBD9BFBDC93C073
310
800CC384FD360C544F539B6F02B1820953BE9D01DE01C0D85A6C50369A5AC4065C7760793B965800321749E4B50891C0C2AB0CAE9808178444974C70F875952A9381563C01BE9D08EAFA481283ABD8C7EF7870DAABE068E68833DFAC8EA0A3E3F87C0B07AA507B2311F0889285BDC333294C4E2DB27C67BA70ABD2857B688A
310
70552AA7873DB8489E55063D5D2DCBE9BB9E49F1E554A5083C922EDCA3E9C27D2F5DB8EF7B705EE9D87E1E920E88313AAE6AECF4FBD668D3D30DB4E51ADA9BEDB0D7AFCEB4DDED85F7C4ECF6551B3BCE2AFF6E835E49458EC94883D6E73C45753FAE614C3C0A0362777435D915EC025C33F7578776011DE6F3D066954C59D6
310
D76F86AC9CD58A53F4122CF0552BAE070AEA3B5AF15752304F1F47569D50AB71F41A31FA5A51C904CD43C6B0F51D2ACEFC112ACC4CC1B0FF086CE7AD5A4D096A005126387AAD451EE384D9C035A925859E39C1AA865EE9A9B8DA21CEE289167F7CF1D4C4BC7A125EC5AED5D8BB0B5A9D9144D134CFA71BF85A8D44BE568348
310
F6AA55A2F3CAEA4F6982FD21118CC249D3CBF852A586F244BA70FBD285DB9F085793EDE56E143F0AD06C6B4CB2242BDD3DD1419166C2865E81F9CE1648F3CBD84597B22E28992A3DDCE24C77F3F311A01C8A722828EC3CF15F7D987933F818F8E59BC138E5CD4CE8AC24C94E68BA32F5C3CBAB808B6B06B9936E642F9F804C
310
903AF2F3709D37832318A078E4B37AEBDCFAA66859945B9EBB25776BAE2DD3995995E9CA1433DDFA4DAC7ECE6FE93696E96BB06712968ED2661884A9EE40230F60D0D73DE8C858453B9E8E4212D5A9B0784A762662599FEDD18C9299F4094C728A91F536658E91CDA6DFC8E89F363B15B4CB31404FD2581CF722BBF229B517
310
430944E56AB2E2A8E3461950730F2B7ECA7BC570E389706E8BA9D241C744225C40C29385944F707279EA277D998065D9EAD604B1263E66D38513E9C2490F4EE7CC6E8AA89C3D9DA588701CA708AB6414C194931EE3FC0D4515D71A4FBFE712F8CB4A26532A6E8DCF01CA61A3745BE3F3C09F6E6B442F0CD7BAD36A8D2F002E
310
AE359E3BE646F6B8926D6BBC0CD9926FBEF08C5220B9BAE91D0E14769FF44B52301E3C00E8FA74C117BD24F396E22C7F1005F2DA2902EB76053DE720B0D3EE397F2F036AE8B24A3DE750225C4DF8F8A544B81AF69C7F2482D6C4C77F067093EF36FE359541FF8E0E8A50399BA22F63681CEF0EBDEBB2C3834A9E09EF1E0654
310
1D79F708F0A7CBBB956F495E015C1CEFEE3EEC46B65FC996771F856C09285F58A7148C77872F6104D6DC9A8897D30896D457015D1FDE3DEA25B91CEFF2EBD6EB0A68F718A0D3A6DDD7CA805699768F27C2D584925E4F84AB9476A39B03E744D09CD6610FF59F44E89A78FA46BA70DDDE0ADC144A4DBCEBF1E0221D416DC23D
310
1D715254A766A8A7AC60C1FF26021ED7783E889CD89C52F24C1ACF0940D5B1F19C047E7A8DE714E0E21ACFD5436EE339AB64DB78E44B91C6730003ECCB897CE1D28548E3798246B0C6731AD0536D3CB3E90740046E0B5FD5161351555C247A084506FA9607AAEBD39C44F1E2B63A5BDCA18E17B755B2E2664A322602C34C3A
310
0393625B51C09BC60D77315EF1E1C8DB80730A9C37D5B8CD0EBF3EA3A6FB4EA2A7C18B1B2746D53A5F7BB70C687C78291FE10E3A386EE3054657F9CB297E9CF703B0E71DFC4DA3397B4068C3CF33A1A81F02C2C920DB8E7ABF712005813923946BAE06DE453454B45CC32AF6311810C751E3F85A979E7874424F9299B34AB2
310
210DC430A45A3473162283FB2F3218C7FE178FBB1CF59692CDAD957C0DECAC3739580882F7E26636C4FC0874E66F42CE013F2EB274A4C323CBB88082C5B980AE4CFD4DC879C0C5B1FFF5E7DDC89E57324556799F2F34BC006EC70CD18A8318C0D9FF0AB6807CDBB19F46B0A4BE07E8B4D9FF8207EA504E3D7E65FA3E4C7226
310
B329B0E8D703AAFEBAA304E869379E693123CD68457958A4FF2F11AE86ECFF4119D078F6E7138AD87FF2370F86D6E1E38789702D76FED2134932CCA824CB8C811832A3160D33426421BD980847AF6F0C11D33DEECB1CFE9B7175D1F926045DE5BD8DBFBDBE94081764D0049324E6DDB40A8607F372225C4D16463974B5B836
310
F393232E193EA2E499B49986C93A780A6DA631A981D7A6CD34012EAECDFCFC5937B23F52B26D33BF83CCDBCC56A5C0ECD07DE7A7A7226D661D8D6033A419D0536D33E07F56B8C4CA7C0D48229F9610695A461A0883CE7B494E8DD95B004DF38E8247AB09FE45AC1A52EDAC32A0861DD8DA85D8A76276989D08579353913989
310
700119397510D9BB4CAB9DF096393711B4263ECE4B176E7EBA700B3C389DB3F0B5335AA6A7234288EA142D784A9083AFB414616018456CF24C3293C4CD2F49D3E5A5F0410CEE7E0F2E6A6FEA11580893E29AEE529C2FC11C4DF48D4AA628982DB44A422820F8563073C8F989CF2240392BED74F7768B819FDEDE6E09E0E29A
310
EE72FA030B3CB273954C91D5916E87CC9BEEFB4FAB1E6B73B10CFB6CBEB73B4423589D2D05F4CC9AAE2E4C768646F0614DBB4BD40606DDEA2539B5A67B13A0D36EBACBCA809A9055A7E9E24B8E0D79912B896C91FE0C1655C17843E129FA335B3277F4E8510807513CB9CC44868E210AF7FE19028691B0917E39482B125CF8
310
D4FF01F0B312DAF64B0000
  0
TABLECONTENT
  5
56B
330
56E
100
AcDbLinkedData
  1

300

100
AcDbLinkedTableData
 90
        5
300
COLUMN
  1
LINKEDTABLEDATACOLUMN_BEGIN
300

 91
        0
301
CUSTOMDATA
  1
DATAMAP_BEGIN
 90
        0
309
DATAMAP_END
309
LINKEDTABLEDATACOLUMN_END
  1
FORMATTEDTABLEDATACOLUMN_BEGIN
300
COLUMNTABLEFORMAT
  1
TABLEFORMAT_BEGIN
 90
        3
170
     0
309
TABLEFORMAT_END
309
FORMATTEDTABLEDATACOLUMN_END
  1
TABLECOLUMN_BEGIN
 90
        0
 40
10.0
309
TABLECOLUMN_END
300
COLUMN
  1
LINKEDTABLEDATACOLUMN_BEGIN
300

 91
        0
301
CUSTOMDATA
  1
DATAMAP_BEGIN
 90
        0
309
DATAMAP_END
309
LINKEDTABLEDATACOLUMN_END
  1
FORMATTEDTABLEDATACOLUMN_BEGIN
300
COLUMNTABLEFORMAT
  1
TABLEFORMAT_BEGIN
 90
        3
170
     0
309
TABLEFORMAT_END
309
FORMATTEDTABLEDATACOLUMN_END
  1
TABLECOLUMN_BEGIN
 90
        0
 40
10.0
309
TABLECOLUMN_END
300
COLUMN
  1
LINKEDTABLEDATACOLUMN_BEGIN
300

 91
        0
301
CUSTOMDATA
  1
DATAMAP_BEGIN
 90
        0
309
DATAMAP_END
309
LINKEDTABLEDATACOLUMN_END
  1
FORMATTEDTABLEDATACOLUMN_BEGIN
300
COLUMNTABLEFORMAT
  1
TABLEFORMAT_BEGIN
 90
        3
170
     0
309
TABLEFORMAT_END
309
FORMATTEDTABLEDATACOLUMN_END
  1
TABLECOLUMN_BEGIN
 90
        0
 40
10.0
309
TABLECOLUMN_END
300
COLUMN
  1
LINKEDTABLEDATACOLUMN_BEGIN
300

 91
        0
301
CUSTOMDATA
  1
DATAMAP_BEGIN
 90
        0
309
DATAMAP_END
309
LINKEDTABLEDATACOLUMN_END
  1
FORMATTEDTABLEDATACOLUMN_BEGIN
300
COLUMNTABLEFORMAT
  1
TABLEFORMAT_BEGIN
 90
        3
170
     0
309
TABLEFORMAT_END
309
FORMATTEDTABLEDATACOLUMN_END
  1
TABLECOLUMN_BEGIN
 90
        0
 40
40.0
309
TABLECOLUMN_END
300
COLUMN
  1
LINKEDTABLEDATACOLUMN_BEGIN
300

 91
        0
301
CUSTOMDATA
  1
DATAMAP_BEGIN
 90
        0
309
DATAMAP_END
309
LINKEDTABLEDATACOLUMN_END
  1
FORMATTEDTABLEDATACOLUMN_BEGIN
300
COLUMNTABLEFORMAT
  1
TABLEFORMAT_BEGIN
 90
        3
170
     0
309
TABLEFORMAT_END
309
FORMATTEDTABLEDATACOLUMN_END
  1
TABLECOLUMN_BEGIN
 90
        0
 40
20.0
309
TABLECOLUMN_END
 91
        5
301
ROW
  1
LINKEDTABLEDATAROW_BEGIN
 90
        5
300
CELL
  1
LINKEDTABLEDATACELL_BEGIN
 90
        0
300

 91
        0
301
CUSTOMDATA
  1
DATAMAP_BEGIN
 90
        1
300
ACAD_ROUNDTRIP_2008_CELL_CHECKSUM
301
DATAMAP_VALUE
 93
        2
 90
        2
140
32.0
 94
        0
300

302

304
ACVALUE_END
309
DATAMAP_END
 92
        0
 95
        1
302
CONTENT
  1
CELLCONTENT_BEGIN
 90
        1
300
VALUE
 93
        2
 90
        4
  1
 
 94
        0
300

302
 
304
ACVALUE_END
 91
        0
309
CELLCONTENT_END
  1
FORMATTEDCELLCONTENT_BEGIN
170
     1
300
CONTENTFORMAT
  1
CONTENTFORMAT_BEGIN
 90
      132
 91
        0
 92
      512
 93
        0
300

 40
0.0
140
1.0
 94
        1
 62
     0
340
0
144
3.5
309
CONTENTFORMAT_END
309
FORMATTEDCELLCONTENT_END
309
LINKEDTABLEDATACELL_END
  1
FORMATTEDTABLEDATACELL_BEGIN
300
CELLTABLEFORMAT
  1
TABLEFORMAT_BEGIN
 90
        1
170
     1
 91
        0
 92
        0
 62
   257
 93
        1
300
CONTENTFORMAT
  1
CONTENTFORMAT_BEGIN
 90
        0
 91
        0
 92
      512
 93
        0
300

 40
0.0
140
1.0
 94
        1
 62
     0
340
0
144
0.18
309
CONTENTFORMAT_END
171
     0
 94
        0
309
TABLEFORMAT_END
309
FORMATTEDTABLEDATACELL_END
  1
TABLECELL_BEGIN
 90
        0
 91
        0
309
TABLECELL_END
300
CELL
  1
LINKEDTABLEDATACELL_BEGIN
 90
        0
300

 91
        0
301
CUSTOMDATA
  1
DATAMAP_BEGIN
 90
        0
309
DATAMAP_END
 92
        0
 95
        0
309
LINKEDTABLEDATACELL_END
  1
FORMATTEDTABLEDATACELL_BEGIN
300
CELLTABLEFORMAT
  1
TABLEFORMAT_BEGIN
 90
        1
170
     1
 91
        0
 92
        0
 62
   257
 93
        1
300
CONTENTFORMAT
  1
CONTENTFORMAT_BEGIN
 90
        0
 91
        0
 92
      512
 93
        0
300

 40
0.0
140
1.0
 94
        1
 62
     0
340
0
144
0.18
309
CONTENTFORMAT_END
171
     0
 94
        0
309
TABLEFORMAT_END
309
FORMATTEDTABLEDATACELL_END
  1
TABLECELL_BEGIN
 90
        0
 91
        0
309
TABLECELL_END
300
CELL
  1
LINKEDTABLEDATACELL_BEGIN
 90
        0
300

 91
        0
301
CUSTOMDATA
  1
DATAMAP_BEGIN
 90
        0
309
DATAMAP_END
 92
        0
 95
        0
309
LINKEDTABLEDATACELL_END
  1
FORMATTEDTABLEDATACELL_BEGIN
300
CELLTABLEFORMAT
  1
TABLEFORMAT_BEGIN
 90
        1
170
     1
 91
        0
 92
        0
 62
   257
 93
        1
300
CONTENTFORMAT
  1
CONTENTFORMAT_BEGIN
 90
        0
 91
        0
 92
      512
 93
        0
300

 40
0.0
140
1.0
 94
        1
 62
     0
340
0
144
0.18
309
CONTENTFORMAT_END
171
     0
 94
        0
309
TABLEFORMAT_END
309
FORMATTEDTABLEDATACELL_END
  1
TABLECELL_BEGIN
 90
        0
 91
        0
309
TABLECELL_END
300
CELL
  1
LINKEDTABLEDATACELL_BEGIN
 90
        0
300

 91
        0
301
CUSTOMDATA
  1
DATAMAP_BEGIN
 90
        1
300
ACAD_ROUNDTRIP_2008_CELL_CHECKSUM
301
DATAMAP_VALUE
 93
        2
 90
        2
140
3413.0
 94
        0
300

302

304
ACVALUE_END
309
DATAMAP_END
 92
        0
 95
        1
302
CONTENT
  1
CELLCONTENT_BEGIN
 90
        1
300
VALUE
 93
        2
 90
        4
  1
A180_C_402
 94
        0
300

302
A180_C_402
304
ACVALUE_END
 91
        0
309
CELLCONTENT_END
  1
FORMATTEDCELLCONTENT_BEGIN
170
     1
300
CONTENTFORMAT
  1
CONTENTFORMAT_BEGIN
 90
      132
 91
        0
 92
      512
 93
        0
300

 40
0.0
140
1.0
 94
        1
 62
     0
340
0
144
3.0
309
CONTENTFORMAT_END
309
FORMATTEDCELLCONTENT_END
309
LINKEDTABLEDATACELL_END
  1
FORMATTEDTABLEDATACELL_BEGIN
300
CELLTABLEFORMAT
  1
TABLEFORMAT_BEGIN
 90
        1
170
     1
 91
       16
 92
        0
 62
   257
 93
        1
300
CONTENTFORMAT
  1
CONTENTFORMAT_BEGIN
 90
       16
 91
        0
 92
      512
 93
        0
300

 40
0.0
140
1.0
 94
        4
 62
     0
340
0
144
0.18
309
CONTENTFORMAT_END
171
     0
 94
        4
 95
        1
302
GRIDFORMAT
  1
GRIDFORMAT_BEGIN
 90
       26
 91
        1
 62
     0
 92
       -2
340
0
 93
        0
 40
0.045
309
GRIDFORMAT_END
 95
        4
302
GRIDFORMAT
  1
GRIDFORMAT_BEGIN
 90
       26
 91
        1
 62
     0
 92
       -2
340
0
 93
        0
 40
0.045
309
GRIDFORMAT_END
 95
        8
302
GRIDFORMAT
  1
GRIDFORMAT_BEGIN
 90
       26
 91
        1
 62
     0
 92
       -2
340
0
 93
        0
 40
0.045
309
GRIDFORMAT_END
 95
       32
302
GRIDFORMAT
  1
GRIDFORMAT_BEGIN
 90
       26
 91
        1
 62
     0
 92
       -2
340
0
 93
        0
 40
0.045
309
GRIDFORMAT_END
309
TABLEFORMAT_END
309
FORMATTEDTABLEDATACELL_END
  1
TABLECELL_BEGIN
 90
        0
 91
        0
309
TABLECELL_END
300
CELL
  1
LINKEDTABLEDATACELL_BEGIN
 90
        0
300

 91
        0
301
CUSTOMDATA
  1
DATAMAP_BEGIN
 90
        1
300
ACAD_ROUNDTRIP_2008_CELL_CHECKSUM
301
DATAMAP_VALUE
 93
        2
 90
        2
140
1398.0
 94
        0
300

302

304
ACVALUE_END
309
DATAMAP_END
 92
        0
 95
        1
302
CONTENT
  1
CELLCONTENT_BEGIN
 90
        1
300
VALUE
 93
        2
 90
        4
  1
Rev:00
 94
        0
300

302
Rev:00
304
ACVALUE_END
 91
        0
309
CELLCONTENT_END
  1
FORMATTEDCELLCONTENT_BEGIN
170
     1
300
CONTENTFORMAT
  1
CONTENTFORMAT_BEGIN
 90
      132
 91
        0
 92
      512
 93
        0
300

 40
0.0
140
1.0
 94
        1
 62
     0
340
0
144
3.5
309
CONTENTFORMAT_END
309
FORMATTEDCELLCONTENT_END
309
LINKEDTABLEDATACELL_END
  1
FORMATTEDTABLEDATACELL_BEGIN
300
CELLTABLEFORMAT
  1
TABLEFORMAT_BEGIN
 90
        1
170
     1
 91
       16
 92
        0
 62
   257
 93
        1
300
CONTENTFORMAT
  1
CONTENTFORMAT_BEGIN
 90
       16
 91
        0
 92
      512
 93
        0
300

 40
0.0
140
1.0
 94
        4
 62
     0
340
0
144
0.18
309
CONTENTFORMAT_END
171
     0
 94
        4
 95
        1
302
GRIDFORMAT
  1
GRIDFORMAT_BEGIN
 90
       26
 91
        1
 62
     0
 92
       -2
340
0
 93
        0
 40
0.045
309
GRIDFORMAT_END
 95
        4
302
GRIDFORMAT
  1
GRIDFORMAT_BEGIN
 90
       26
 91
        1
 62
     0
 92
       -2
340
0
 93
        0
 40
0.045
309
GRIDFORMAT_END
 95
        8
302
GRIDFORMAT
  1
GRIDFORMAT_BEGIN
 90
       26
 91
        1
 62
     0
 92
       -2
340
0
 93
        0
 40
0.045
309
GRIDFORMAT_END
 95
       32
302
GRIDFORMAT
  1
GRIDFORMAT_BEGIN
 90
       26
 91
        1
 62
     0
 92
       -2
340
0
 93
        0
 40
0.045
309
GRIDFORMAT_END
309
TABLEFORMAT_END
309
FORMATTEDTABLEDATACELL_END
  1
TABLECELL_BEGIN
 90
        0
 91
        0
309
TABLECELL_END
 91
        0
301
CUSTOMDATA
  1
DATAMAP_BEGIN
 90
        0
309
DATAMAP_END
309
LINKEDTABLEDATAROW_END
  1
FORMATTEDTABLEDATAROW_BEGIN
300
ROWTABLEFORMAT
  1
TABLEFORMAT_BEGIN
 90
        2
170
     0
309
TABLEFORMAT_END
309
FORMATTEDTABLEDATAROW_END
  1
TABLEROW_BEGIN
 90
        1
 40
6.0
309
TABLEROW_END
301
ROW
  1
LINKEDTABLEDATAROW_BEGIN
 90
        5
300
CELL
  1
LINKEDTABLEDATACELL_BEGIN
 90
        0
300

 91
        0
301
CUSTOMDATA
  1
DATAMAP_BEGIN
 90
        0
309
DATAMAP_END
 92
        0
 95
        0
309
LINKEDTABLEDATACELL_END
  1
FORMATTEDTABLEDATACELL_BEGIN
300
CELLTABLEFORMAT
  1
TABLEFORMAT_BEGIN
 90
        1
170
     1
 91
        0
 92
        0
 62
   257
 93
        1
300
CONTENTFORMAT
  1
CONTENTFORMAT_BEGIN
 90
        0
 91
        0
 92
      512
 93
        0
300

 40
0.0
140
1.0
 94
        1
 62
     0
340
0
144
0.18
309
CONTENTFORMAT_END
171
     0
 94
        0
309
TABLEFORMAT_END
309
FORMATTEDTABLEDATACELL_END
  1
TABLECELL_BEGIN
 90
        0
 91
        0
309
TABLECELL_END
300
CELL
  1
LINKEDTABLEDATACELL_BEGIN
 90
        0
300

 91
        0
301
CUSTOMDATA
  1
DATAMAP_BEGIN
 90
        0
309
DATAMAP_END
 92
        0
 95
        0
309
LINKEDTABLEDATACELL_END
  1
FORMATTEDTABLEDATACELL_BEGIN
300
CELLTABLEFORMAT
  1
TABLEFORMAT_BEGIN
 90
        1
170
     1
 91
        0
 92
        0
 62
   257
 93
        1
300
CONTENTFORMAT
  1
CONTENTFORMAT_BEGIN
 90
        0
 91
        0
 92
      512
 93
        0
300

 40
0.0
140
1.0
 94
        1
 62
     0
340
0
144
0.18
309
CONTENTFORMAT_END
171
     0
 94
        0
309
TABLEFORMAT_END
309
FORMATTEDTABLEDATACELL_END
  1
TABLECELL_BEGIN
 90
        0
 91
        0
309
TABLECELL_END
300
CELL
  1
LINKEDTABLEDATACELL_BEGIN
 90
        0
300

 91
        0
301
CUSTOMDATA
  1
DATAMAP_BEGIN
 90
        0
309
DATAMAP_END
 92
        0
 95
        0
309
LINKEDTABLEDATACELL_END
  1
FORMATTEDTABLEDATACELL_BEGIN
300
CELLTABLEFORMAT
  1
TABLEFORMAT_BEGIN
 90
        1
170
     1
 91
        0
 92
        0
 62
   257
 93
        1
300
CONTENTFORMAT
  1
CONTENTFORMAT_BEGIN
 90
        0
 91
        0
 92
      512
 93
        0
300

 40
0.0
140
1.0
 94
        1
 62
     0
340
0
144
0.18
309
CONTENTFORMAT_END
171
     0
 94
        0
309
TABLEFORMAT_END
309
FORMATTEDTABLEDATACELL_END
  1
TABLECELL_BEGIN
 90
        0
 91
        0
309
TABLECELL_END
300
CELL
  1
LINKEDTABLEDATACELL_BEGIN
 90
        0
300

 91
        0
301
CUSTOMDATA
  1
DATAMAP_BEGIN
 90
        1
300
ACAD_ROUNDTRIP_2008_CELL_CHECKSUM
301
DATAMAP_VALUE
 93
        2
 90
        2
140
3105.0
 94
        0
300

302

304
ACVALUE_END
309
DATAMAP_END
 92
        0
 95
        1
302
CONTENT
  1
CELLCONTENT_BEGIN
 90
        1
300
VALUE
 93
        2
 90
        4
  1
Scale:1:1
 94
        0
300

302
Scale:1:1
304
ACVALUE_END
 91
        0
309
CELLCONTENT_END
  1
FORMATTEDCELLCONTENT_BEGIN
170
     1
300
CONTENTFORMAT
  1
CONTENTFORMAT_BEGIN
 90
      132
 91
        0
 92
      512
 93
        0
300

 40
0.0
140
1.0
 94
        1
 62
     0
340
0
144
3.5
309
CONTENTFORMAT_END
309
FORMATTEDCELLCONTENT_END
309
LINKEDTABLEDATACELL_END
  1
FORMATTEDTABLEDATACELL_BEGIN
300
CELLTABLEFORMAT
  1
TABLEFORMAT_BEGIN
 90
        1
170
     1
 91
       16
 92
        0
 62
   257
 93
        1
300
CONTENTFORMAT
  1
CONTENTFORMAT_BEGIN
 90
       16
 91
        0
 92
      512
 93
        0
300

 40
0.0
140
1.0
 94
        1
 62
     0
340
0
144
0.18
309
CONTENTFORMAT_END
171
     0
 94
        4
 95
        1
302
GRIDFORMAT
  1
GRIDFORMAT_BEGIN
 90
       26
 91
        1
 62
     0
 92
       -2
340
0
 93
        0
 40
0.045
309
GRIDFORMAT_END
 95
        4
302
GRIDFORMAT
  1
GRIDFORMAT_BEGIN
 90
       26
 91
        1
 62
     0
 92
       -2
340
0
 93
        0
 40
0.045
309
GRIDFORMAT_END
 95
        8
302
GRIDFORMAT
  1
GRIDFORMAT_BEGIN
 90
       26
 91
        1
 62
     0
 92
       -2
340
0
 93
        0
 40
0.045
309
GRIDFORMAT_END
 95
       32
302
GRIDFORMAT
  1
GRIDFORMAT_BEGIN
 90
       26
 91
        1
 62
     0
 92
       -2
340
0
 93
        0
 40
0.045
309
GRIDFORMAT_END
309
TABLEFORMAT_END
309
FORMATTEDTABLEDATACELL_END
  1
TABLECELL_BEGIN
 90
        0
 91
        0
309
TABLECELL_END
300
CELL
  1
LINKEDTABLEDATACELL_BEGIN
 90
        0
300

 91
        0
301
CUSTOMDATA
  1
DATAMAP_BEGIN
 90
        1
300
ACAD_ROUNDTRIP_2008_CELL_CHECKSUM
301
DATAMAP_VALUE
 93
        2
 90
        2
140
4422.0
 94
        0
300

302

304
ACVALUE_END
309
DATAMAP_END
 92
        0
 95
        1
302
CONTENT
  1
CELLCONTENT_BEGIN
 90
        1
300
VALUE
 93
        2
 90
        4
  1
3200 by 2500
 94
        0
300

302
3200 by 2500
304
ACVALUE_END
 91
        0
309
CELLCONTENT_END
  1
FORMATTEDCELLCONTENT_BEGIN
170
     1
300
CONTENTFORMAT
  1
CONTENTFORMAT_BEGIN
 90
      132
 91
        0
 92
      512
 93
        0
300

 40
0.0
140
1.0
 94
        1
 62
     0
340
0
144
1.9
309
CONTENTFORMAT_END
309
FORMATTEDCELLCONTENT_END
309
LINKEDTABLEDATACELL_END
  1
FORMATTEDTABLEDATACELL_BEGIN
300
CELLTABLEFORMAT
  1
TABLEFORMAT_BEGIN
 90
        1
170
     1
 91
       16
 92
        0
 62
   257
 93
        1
300
CONTENTFORMAT
  1
CONTENTFORMAT_BEGIN
 90
       16
 91
        0
 92
      512
 93
        0
300

 40
0.0
140
1.0
 94
        4
 62
     0
340
0
144
0.18
309
CONTENTFORMAT_END
171
     0
 94
        4
 95
        1
302
GRIDFORMAT
  1
GRIDFORMAT_BEGIN
 90
       26
 91
        1
 62
     0
 92
       -2
340
0
 93
        0
 40
0.045
309
GRIDFORMAT_END
 95
        4
302
GRIDFORMAT
  1
GRIDFORMAT_BEGIN
 90
       26
 91
        1
 62
     0
 92
       -2
340
0
 93
        0
 40
0.045
309
GRIDFORMAT_END
 95
        8
302
GRIDFORMAT
  1
GRIDFORMAT_BEGIN
 90
       26
 91
        1
 62
     0
 92
       -2
340
0
 93
        0
 40
0.045
309
GRIDFORMAT_END
 95
       32
302
GRIDFORMAT
  1
GRIDFORMAT_BEGIN
 90
       26
 91
        1
 62
     0
 92
       -2
340
0
 93
        0
 40
0.045
309
GRIDFORMAT_END
309
TABLEFORMAT_END
309
FORMATTEDTABLEDATACELL_END
  1
TABLECELL_BEGIN
 90
        0
 91
        0
309
TABLECELL_END
 91
        0
301
CUSTOMDATA
  1
DATAMAP_BEGIN
 90
        0
309
DATAMAP_END
309
LINKEDTABLEDATAROW_END
  1
FORMATTEDTABLEDATAROW_BEGIN
300
ROWTABLEFORMAT
  1
TABLEFORMAT_BEGIN
 90
        2
170
     0
309
TABLEFORMAT_END
309
FORMATTEDTABLEDATAROW_END
  1
TABLEROW_BEGIN
 90
        2
 40
6.0
309
TABLEROW_END
301
ROW
  1
LINKEDTABLEDATAROW_BEGIN
 90
        5
300
CELL
  1
LINKEDTABLEDATACELL_BEGIN
 90
        0
300

 91
        0
301
CUSTOMDATA
  1
DATAMAP_BEGIN
 90
        0
309
DATAMAP_END
 92
        0
 95
        0
309
LINKEDTABLEDATACELL_END
  1
FORMATTEDTABLEDATACELL_BEGIN
300
CELLTABLEFORMAT
  1
TABLEFORMAT_BEGIN
 90
        1
170
     1
 91
        0
 92
        0
 62
   257
 93
        1
300
CONTENTFORMAT
  1
CONTENTFORMAT_BEGIN
 90
        0
 91
        0
 92
      512
 93
        0
300

 40
0.0
140
1.0
 94
        1
 62
     0
340
0
144
0.18
309
CONTENTFORMAT_END
171
     0
 94
        0
309
TABLEFORMAT_END
309
FORMATTEDTABLEDATACELL_END
  1
TABLECELL_BEGIN
 90
        0
 91
        0
309
TABLECELL_END
300
CELL
  1
LINKEDTABLEDATACELL_BEGIN
 90
        0
300

 91
        0
301
CUSTOMDATA
  1
DATAMAP_BEGIN
 90
        0
309
DATAMAP_END
 92
        0
 95
        0
309
LINKEDTABLEDATACELL_END
  1
FORMATTEDTABLEDATACELL_BEGIN
300
CELLTABLEFORMAT
  1
TABLEFORMAT_BEGIN
 90
        1
170
     1
 91
        0
 92
        0
 62
   257
 93
        1
300
CONTENTFORMAT
  1
CONTENTFORMAT_BEGIN
 90
        0
 91
        0
 92
      512
 93
        0
300

 40
0.0
140
1.0
 94
        1
 62
     0
340
0
144
0.18
309
CONTENTFORMAT_END
171
     0
 94
        0
309
TABLEFORMAT_END
309
FORMATTEDTABLEDATACELL_END
  1
TABLECELL_BEGIN
 90
        0
 91
        0
309
TABLECELL_END
300
CELL
  1
LINKEDTABLEDATACELL_BEGIN
 90
        0
300

 91
        0
301
CUSTOMDATA
  1
DATAMAP_BEGIN
 90
        0
309
DATAMAP_END
 92
        0
 95
        0
309
LINKEDTABLEDATACELL_END
  1
FORMATTEDTABLEDATACELL_BEGIN
300
CELLTABLEFORMAT
  1
TABLEFORMAT_BEGIN
 90
        1
170
     1
 91
        0
 92
        0
 62
   257
 93
        1
300
CONTENTFORMAT
  1
CONTENTFORMAT_BEGIN
 90
        0
 91
        0
 92
      512
 93
        0
300

 40
0.0
140
1.0
 94
        1
 62
     0
340
0
144
0.18
309
CONTENTFORMAT_END
171
     0
 94
        0
309
TABLEFORMAT_END
309
FORMATTEDTABLEDATACELL_END
  1
TABLECELL_BEGIN
 90
        0
 91
        0
309
TABLECELL_END
300
CELL
  1
LINKEDTABLEDATACELL_BEGIN
 90
        0
300

 91
        0
301
CUSTOMDATA
  1
DATAMAP_BEGIN
 90
        1
300
ACAD_ROUNDTRIP_2008_CELL_CHECKSUM
301
DATAMAP_VALUE
 93
        2
 90
        2
140
26103.0
 94
        0
300

302

304
ACVALUE_END
309
DATAMAP_END
 92
        0
 95
        1
302
CONTENT
  1
CELLCONTENT_BEGIN
 90
        1
300
VALUE
 93
        2
 90
        4
  1
CASSAFORMA TRIM COLORADO 1.2
 94
        0
300

302
CASSAFORMA TRIM COLORADO 1.2
304
ACVALUE_END
 91
        0
309
CELLCONTENT_END
  1
FORMATTEDCELLCONTENT_BEGIN
170
     1
300
CONTENTFORMAT
  1
CONTENTFORMAT_BEGIN
 90
      132
 91
        0
 92
      512
 93
        0
300

 40
0.0
140
1.0
 94
        1
 62
     0
340
0
144
3.5
309
CONTENTFORMAT_END
309
FORMATTEDCELLCONTENT_END
309
LINKEDTABLEDATACELL_END
  1
FORMATTEDTABLEDATACELL_BEGIN
300
CELLTABLEFORMAT
  1
TABLEFORMAT_BEGIN
 90
        1
170
     1
 91
       16
 92
        0
 62
   257
 93
        1
300
CONTENTFORMAT
  1
CONTENTFORMAT_BEGIN
 90
       16
 91
        0
 92
      512
 93
        0
300

 40
0.0
140
1.0
 94
        4
 62
     0
340
0
144
0.18
309
CONTENTFORMAT_END
171
     0
 94
        4
 95
        1
302
GRIDFORMAT
  1
GRIDFORMAT_BEGIN
 90
       26
 91
        1
 62
     0
 92
       -2
340
0
 93
        0
 40
0.045
309
GRIDFORMAT_END
 95
        4
302
GRIDFORMAT
  1
GRIDFORMAT_BEGIN
 90
       26
 91
        1
 62
     0
 92
       -2
340
0
 93
        0
 40
0.045
309
GRIDFORMAT_END
 95
        8
302
GRIDFORMAT
  1
GRIDFORMAT_BEGIN
 90
       26
 91
        1
 62
     0
 92
       -2
340
0
 93
        0
 40
0.045
309
GRIDFORMAT_END
 95
       32
302
GRIDFORMAT
  1
GRIDFORMAT_BEGIN
 90
       26
 91
        1
 62
     0
 92
       -2
340
0
 93
        0
 40
0.045
309
GRIDFORMAT_END
309
TABLEFORMAT_END
309
FORMATTEDTABLEDATACELL_END
  1
TABLECELL_BEGIN
 90
        0
 91
        0
309
TABLECELL_END
300
CELL
  1
LINKEDTABLEDATACELL_BEGIN
 90
        0
300

 91
        0
301
CUSTOMDATA
  1
DATAMAP_BEGIN
 90
        0
309
DATAMAP_END
 92
        0
 95
        0
309
LINKEDTABLEDATACELL_END
  1
FORMATTEDTABLEDATACELL_BEGIN
300
CELLTABLEFORMAT
  1
TABLEFORMAT_BEGIN
 90
        1
170
     1
 91
        0
 92
        0
 62
   257
 93
        1
300
CONTENTFORMAT
  1
CONTENTFORMAT_BEGIN
 90
        0
 91
        0
 92
      512
 93
        0
300

 40
0.0
140
1.0
 94
        1
 62
     0
340
0
144
0.18
309
CONTENTFORMAT_END
171
     0
 94
        0
309
TABLEFORMAT_END
309
FORMATTEDTABLEDATACELL_END
  1
TABLECELL_BEGIN
 90
        0
 91
        0
309
TABLECELL_END
 91
        0
301
CUSTOMDATA
  1
DATAMAP_BEGIN
 90
        0
309
DATAMAP_END
309
LINKEDTABLEDATAROW_END
  1
FORMATTEDTABLEDATAROW_BEGIN
300
ROWTABLEFORMAT
  1
TABLEFORMAT_BEGIN
 90
        2
170
     0
309
TABLEFORMAT_END
309
FORMATTEDTABLEDATAROW_END
  1
TABLEROW_BEGIN
 90
        3
 40
10.0
309
TABLEROW_END
301
ROW
  1
LINKEDTABLEDATAROW_BEGIN
 90
        5
300
CELL
  1
LINKEDTABLEDATACELL_BEGIN
 90
        0
300

 91
        0
301
CUSTOMDATA
  1
DATAMAP_BEGIN
 90
        0
309
DATAMAP_END
 92
        0
 95
        0
309
LINKEDTABLEDATACELL_END
  1
FORMATTEDTABLEDATACELL_BEGIN
300
CELLTABLEFORMAT
  1
TABLEFORMAT_BEGIN
 90
        1
170
     1
 91
        0
 92
        0
 62
   257
 93
        1
300
CONTENTFORMAT
  1
CONTENTFORMAT_BEGIN
 90
        0
 91
        0
 92
      512
 93
        0
300

 40
0.0
140
1.0
 94
        1
 62
     0
340
0
144
0.18
309
CONTENTFORMAT_END
171
     0
 94
        0
309
TABLEFORMAT_END
309
FORMATTEDTABLEDATACELL_END
  1
TABLECELL_BEGIN
 90
        0
 91
        0
309
TABLECELL_END
300
CELL
  1
LINKEDTABLEDATACELL_BEGIN
 90
        0
300

 91
        0
301
CUSTOMDATA
  1
DATAMAP_BEGIN
 90
        0
309
DATAMAP_END
 92
        0
 95
        0
309
LINKEDTABLEDATACELL_END
  1
FORMATTEDTABLEDATACELL_BEGIN
300
CELLTABLEFORMAT
  1
TABLEFORMAT_BEGIN
 90
        1
170
     1
 91
        0
 92
        0
 62
   257
 93
        1
300
CONTENTFORMAT
  1
CONTENTFORMAT_BEGIN
 90
        0
 91
        0
 92
      512
 93
        0
300

 40
0.0
140
1.0
 94
        1
 62
     0
340
0
144
0.18
309
CONTENTFORMAT_END
171
     0
 94
        0
309
TABLEFORMAT_END
309
FORMATTEDTABLEDATACELL_END
  1
TABLECELL_BEGIN
 90
        0
 91
        0
309
TABLECELL_END
300
CELL
  1
LINKEDTABLEDATACELL_BEGIN
 90
        0
300

 91
        0
301
CUSTOMDATA
  1
DATAMAP_BEGIN
 90
        0
309
DATAMAP_END
 92
        0
 95
        0
309
LINKEDTABLEDATACELL_END
  1
FORMATTEDTABLEDATACELL_BEGIN
300
CELLTABLEFORMAT
  1
TABLEFORMAT_BEGIN
 90
        1
170
     1
 91
        0
 92
        0
 62
   257
 93
        1
300
CONTENTFORMAT
  1
CONTENTFORMAT_BEGIN
 90
        0
 91
        0
 92
      512
 93
        0
300

 40
0.0
140
1.0
 94
        1
 62
     0
340
0
144
0.18
309
CONTENTFORMAT_END
171
     0
 94
        0
309
TABLEFORMAT_END
309
FORMATTEDTABLEDATACELL_END
  1
TABLECELL_BEGIN
 90
        0
 91
        0
309
TABLECELL_END
300
CELL
  1
LINKEDTABLEDATACELL_BEGIN
 90
        0
300

 91
        0
301
CUSTOMDATA
  1
DATAMAP_BEGIN
 90
        1
300
ACAD_ROUNDTRIP_2008_CELL_CHECKSUM
301
DATAMAP_VALUE
 93
        2
 90
        2
140
4774.0
 94
        0
300

302

304
ACVALUE_END
309
DATAMAP_END
 92
        0
 95
        1
302
CONTENT
  1
CELLCONTENT_BEGIN
 90
        1
300
VALUE
 93
        2
 90
        4
  1
DATE:30.08.22
 94
        0
300

302
DATE:30.08.22
304
ACVALUE_END
 91
        0
309
CELLCONTENT_END
  1
FORMATTEDCELLCONTENT_BEGIN
170
     1
300
CONTENTFORMAT
  1
CONTENTFORMAT_BEGIN
 90
      132
 91
        0
 92
      512
 93
        0
300

 40
0.0
140
1.0
 94
        1
 62
     0
340
0
144
2.5
309
CONTENTFORMAT_END
309
FORMATTEDCELLCONTENT_END
309
LINKEDTABLEDATACELL_END
  1
FORMATTEDTABLEDATACELL_BEGIN
300
CELLTABLEFORMAT
  1
TABLEFORMAT_BEGIN
 90
        1
170
     1
 91
       16
 92
        0
 62
   257
 93
        1
300
CONTENTFORMAT
  1
CONTENTFORMAT_BEGIN
 90
       16
 91
        0
 92
      512
 93
        0
300

 40
0.0
140
1.0
 94
        4
 62
     0
340
0
144
0.18
309
CONTENTFORMAT_END
171
     0
 94
        4
 95
        1
302
GRIDFORMAT
  1
GRIDFORMAT_BEGIN
 90
       26
 91
        1
 62
     0
 92
       -2
340
0
 93
        0
 40
0.045
309
GRIDFORMAT_END
 95
        4
302
GRIDFORMAT
  1
GRIDFORMAT_BEGIN
 90
       26
 91
        1
 62
     0
 92
       -2
340
0
 93
        0
 40
0.045
309
GRIDFORMAT_END
 95
        8
302
GRIDFORMAT
  1
GRIDFORMAT_BEGIN
 90
       26
 91
        1
 62
     0
 92
       -2
340
0
 93
        0
 40
0.045
309
GRIDFORMAT_END
 95
       32
302
GRIDFORMAT
  1
GRIDFORMAT_BEGIN
 90
       26
 91
        1
 62
     0
 92
       -2
340
0
 93
        0
 40
0.045
309
GRIDFORMAT_END
309
TABLEFORMAT_END
309
FORMATTEDTABLEDATACELL_END
  1
TABLECELL_BEGIN
 90
        0
 91
        0
309
TABLECELL_END
300
CELL
  1
LINKEDTABLEDATACELL_BEGIN
 90
        0
300

 91
        0
301
CUSTOMDATA
  1
DATAMAP_BEGIN
 90
        0
309
DATAMAP_END
 92
        0
 95
        0
309
LINKEDTABLEDATACELL_END
  1
FORMATTEDTABLEDATACELL_BEGIN
300
CELLTABLEFORMAT
  1
TABLEFORMAT_BEGIN
 90
        1
170
     1
 91
        0
 92
        0
 62
   257
 93
        1
300
CONTENTFORMAT
  1
CONTENTFORMAT_BEGIN
 90
        0
 91
        0
 92
      512
 93
        0
300

 40
0.0
140
1.0
 94
        1
 62
     0
340
0
144
0.18
309
CONTENTFORMAT_END
171
     0
 94
        0
309
TABLEFORMAT_END
309
FORMATTEDTABLEDATACELL_END
  1
TABLECELL_BEGIN
 90
        0
 91
        0
309
TABLECELL_END
 91
        0
301
CUSTOMDATA
  1
DATAMAP_BEGIN
 90
        0
309
DATAMAP_END
309
LINKEDTABLEDATAROW_END
  1
FORMATTEDTABLEDATAROW_BEGIN
300
ROWTABLEFORMAT
  1
TABLEFORMAT_BEGIN
 90
        2
170
     0
309
TABLEFORMAT_END
309
FORMATTEDTABLEDATAROW_END
  1
TABLEROW_BEGIN
 90
        3
 40
5.0
309
TABLEROW_END
301
ROW
  1
LINKEDTABLEDATAROW_BEGIN
 90
        5
300
CELL
  1
LINKEDTABLEDATACELL_BEGIN
 90
        0
300

 91
        0
301
CUSTOMDATA
  1
DATAMAP_BEGIN
 90
        1
300
ACAD_ROUNDTRIP_2008_CELL_CHECKSUM
301
DATAMAP_VALUE
 93
        2
 90
        2
140
1361482.0
 94
        0
300

302

304
ACVALUE_END
309
DATAMAP_END
 92
        0
 95
        1
302
CONTENT
  1
CELLCONTENT_BEGIN
 90
        1
300
VALUE
 93
        2
 90
        4
  1
Any integral or partial reproductions are prohibited \Pwithout prior authorisation of L & L Luce & Light s.r.l., \Pin accordance with the law in force. \PAll rights reserved.
 94
        0
300

302
Any integral or partial reproductions are prohibited \Pwithout prior authorisation of L & L Luce & Light s.r.l., \Pin accordance with the law in force. \PAll rights reserved.
304
ACVALUE_END
 91
        0
309
CELLCONTENT_END
  1
FORMATTEDCELLCONTENT_BEGIN
170
     1
300
CONTENTFORMAT
  1
CONTENTFORMAT_BEGIN
 90
      132
 91
        0
 92
      512
 93
        0
300

 40
0.0
140
1.0
 94
        1
 62
     0
340
0
144
2.25
309
CONTENTFORMAT_END
309
FORMATTEDCELLCONTENT_END
309
LINKEDTABLEDATACELL_END
  1
FORMATTEDTABLEDATACELL_BEGIN
300
CELLTABLEFORMAT
  1
TABLEFORMAT_BEGIN
 90
        1
170
     1
 91
       16
 92
        0
 62
   257
 93
        1
300
CONTENTFORMAT
  1
CONTENTFORMAT_BEGIN
 90
       16
 91
        0
 92
      512
 93
        0
300

 40
0.0
140
1.0
 94
        4
 62
     0
340
0
144
0.18
309
CONTENTFORMAT_END
171
     0
 94
        4
 95
        1
302
GRIDFORMAT
  1
GRIDFORMAT_BEGIN
 90
       26
 91
        1
 62
     0
 92
       -2
340
0
 93
        0
 40
0.045
309
GRIDFORMAT_END
 95
        4
302
GRIDFORMAT
  1
GRIDFORMAT_BEGIN
 90
       26
 91
        1
 62
     0
 92
       -2
340
0
 93
        0
 40
0.045
309
GRIDFORMAT_END
 95
        8
302
GRIDFORMAT
  1
GRIDFORMAT_BEGIN
 90
       26
 91
        1
 62
     0
 92
       -2
340
0
 93
        0
 40
0.045
309
GRIDFORMAT_END
 95
       32
302
GRIDFORMAT
  1
GRIDFORMAT_BEGIN
 90
       26
 91
        1
 62
     0
 92
       -2
340
0
 93
        0
 40
0.045
309
GRIDFORMAT_END
309
TABLEFORMAT_END
309
FORMATTEDTABLEDATACELL_END
  1
TABLECELL_BEGIN
 90
        0
 91
        0
309
TABLECELL_END
300
CELL
  1
LINKEDTABLEDATACELL_BEGIN
 90
        0
300

 91
        0
301
CUSTOMDATA
  1
DATAMAP_BEGIN
 90
        0
309
DATAMAP_END
 92
        0
 95
        0
309
LINKEDTABLEDATACELL_END
  1
FORMATTEDTABLEDATACELL_BEGIN
300
CELLTABLEFORMAT
  1
TABLEFORMAT_BEGIN
 90
        1
170
     1
 91
        0
 92
        0
 62
   257
 93
        1
300
CONTENTFORMAT
  1
CONTENTFORMAT_BEGIN
 90
        0
 91
        0
 92
      512
 93
        0
300

 40
0.0
140
1.0
 94
        1
 62
     0
340
0
144
0.18
309
CONTENTFORMAT_END
171
     0
 94
        0
309
TABLEFORMAT_END
309
FORMATTEDTABLEDATACELL_END
  1
TABLECELL_BEGIN
 90
        0
 91
        0
309
TABLECELL_END
300
CELL
  1
LINKEDTABLEDATACELL_BEGIN
 90
        0
300

 91
        0
301
CUSTOMDATA
  1
DATAMAP_BEGIN
 90
        0
309
DATAMAP_END
 92
        0
 95
        0
309
LINKEDTABLEDATACELL_END
  1
FORMATTEDTABLEDATACELL_BEGIN
300
CELLTABLEFORMAT
  1
TABLEFORMAT_BEGIN
 90
        1
170
     1
 91
        0
 92
        0
 62
   257
 93
        1
300
CONTENTFORMAT
  1
CONTENTFORMAT_BEGIN
 90
        0
 91
        0
 92
      512
 93
        0
300

 40
0.0
140
1.0
 94
        1
 62
     0
340
0
144
0.18
309
CONTENTFORMAT_END
171
     0
 94
        0
309
TABLEFORMAT_END
309
FORMATTEDTABLEDATACELL_END
  1
TABLECELL_BEGIN
 90
        0
 91
        0
309
TABLECELL_END
300
CELL
  1
LINKEDTABLEDATACELL_BEGIN
 90
        0
300

 91
        0
301
CUSTOMDATA
  1
DATAMAP_BEGIN
 90
        0
309
DATAMAP_END
 92
        0
 95
        0
309
LINKEDTABLEDATACELL_END
  1
FORMATTEDTABLEDATACELL_BEGIN
300
CELLTABLEFORMAT
  1
TABLEFORMAT_BEGIN
 90
        1
170
     1
 91
        0
 92
        0
 62
   257
 93
        1
300
CONTENTFORMAT
  1
CONTENTFORMAT_BEGIN
 90
        0
 91
        0
 92
      512
 93
        0
300

 40
0.0
140
1.0
 94
        1
 62
     0
340
0
144
0.18
309
CONTENTFORMAT_END
171
     0
 94
        0
309
TABLEFORMAT_END
309
FORMATTEDTABLEDATACELL_END
  1
TABLECELL_BEGIN
 90
        0
 91
        0
309
TABLECELL_END
300
CELL
  1
LINKEDTABLEDATACELL_BEGIN
 90
        0
300

 91
        0
301
CUSTOMDATA
  1
DATAMAP_BEGIN
 90
        0
309
DATAMAP_END
 92
        0
 95
        0
309
LINKEDTABLEDATACELL_END
  1
FORMATTEDTABLEDATACELL_BEGIN
300
CELLTABLEFORMAT
  1
TABLEFORMAT_BEGIN
 90
        1
170
     1
 91
        0
 92
        0
 62
   257
 93
        1
300
CONTENTFORMAT
  1
CONTENTFORMAT_BEGIN
 90
        0
 91
        0
 92
      512
 93
        0
300

 40
0.0
140
1.0
 94
        1
 62
     0
340
0
144
0.18
309
CONTENTFORMAT_END
171
     0
 94
        0
309
TABLEFORMAT_END
309
FORMATTEDTABLEDATACELL_END
  1
TABLECELL_BEGIN
 90
        0
 91
        0
309
TABLECELL_END
 91
        0
301
CUSTOMDATA
  1
DATAMAP_BEGIN
 90
        0
309
DATAMAP_END
309
LINKEDTABLEDATAROW_END
  1
FORMATTEDTABLEDATAROW_BEGIN
300
ROWTABLEFORMAT
  1
TABLEFORMAT_BEGIN
 90
        2
170
     0
309
TABLEFORMAT_END
309
FORMATTEDTABLEDATAROW_END
  1
TABLEROW_BEGIN
 90
        3
 40
13.0
309
TABLEROW_END
100
AcDbFormattedTableData
300
TABLEFORMAT
  1
TABLEFORMAT_BEGIN
 90
        4
170
     1
 91
    15360
 92
        0
 62
   257
 93
        1
300
CONTENTFORMAT
  1
CONTENTFORMAT_BEGIN
 90
        0
 91
        0
 92
      512
 93
        0
300

 40
0.0
140
1.0
 94
        1
 62
     0
340
0
144
0.18
309
CONTENTFORMAT_END
171
     1
301
MARGIN
  1
CELLMARGIN_BEGIN
 40
0.06
 40
0.06
 40
0.06
 40
0.06
 40
0.06
 40
0.06
309
CELLMARGIN_END
 94
        0
309
TABLEFORMAT_END
 90
        4
 91
        0
 92
        0
 93
        3
 94
        2
 91
        2
 92
        3
 93
        2
 94
        4
 91
        3
 92
        3
 93
        3
 94
        4
 91
        4
 92
        0
 93
        4
 94
        4
100
AcDbTableContent
340
53F
  0
TABLEGEOMETRY
  5
56C
330
56E
100
AcDbTableGeometry
 90
        5
 91
        5
 92
       25
 93
        0
 40
0.0
 41
0.0
330
0
 94
        0
 93
        0
 40
0.0
 41
0.0
330
0
 94
        0
 93
        0
 40
0.0
 41
0.0
330
0
 94
        0
 93
        0
 40
0.0
 41
0.0
330
0
 94
        0
 93
        0
 40
0.0
 41
0.0
330
0
 94
        0
 93
        0
 40
0.0
 41
0.0
330
0
 94
        0
 93
        0
 40
0.0
 41
0.0
330
0
 94
        0
 93
        0
 40
0.0
 41
0.0
330
0
 94
        0
 93
        0
 40
0.0
 41
0.0
330
0
 94
        0
 93
        0
 40
0.0
 41
0.0
330
0
 94
        0
 93
        0
 40
0.0
 41
0.0
330
0
 94
        0
 93
        0
 40
0.0
 41
0.0
330
0
 94
        0
 93
        0
 40
0.0
 41
0.0
330
0
 94
        0
 93
        0
 40
0.0
 41
0.0
330
0
 94
        0
 93
        0
 40
0.0
 41
0.0
330
0
 94
        0
 93
        0
 40
0.0
 41
0.0
330
0
 94
        0
 93
        0
 40
0.0
 41
0.0
330
0
 94
        0
 93
        0
 40
0.0
 41
0.0
330
0
 94
        0
 93
        0
 40
0.0
 41
0.0
330
0
 94
        0
 93
        0
 40
0.0
 41
0.0
330
0
 94
        0
 93
        0
 40
0.0
 41
0.0
330
0
 94
        0
 93
        0
 40
0.0
 41
0.0
330
0
 94
        0
 93
        0
 40
0.0
 41
0.0
330
0
 94
        0
 93
        0
 40
0.0
 41
0.0
330
0
 94
        0
 93
        0
 40
0.0
 41
0.0
330
0
 94
        0
  0
DICTIONARY
  5
571
330
53F
100
AcDbDictionary
280
     1
281
     1
  3
ACAD_ROUNDTRIP_2008_TABLESTYLE_CELLSTYLEMAP
360
572
  0
DICTIONARY
  5
57B
330
546
100
AcDbDictionary
280
     1
281
     1
  3
ACAD_XREC_ROUNDTRIP
360
57C
  0
DICTIONARY
  5
581
330
549
100
AcDbDictionary
280
     1
281
     1
  3
ACAD_XREC_ROUNDTRIP
360
582
  0
DICTIONARY
  5
589
330
54D
100
AcDbDictionary
280
     1
281
     1
  3
ACAD_XREC_ROUNDTRIP
360
58A
  0
DICTIONARY
  5
591
330
551
100
AcDbDictionary
280
     1
281
     1
  3
ACAD_XREC_ROUNDTRIP
360
592
  0
DICTIONARY
  5
585
330
54B
100
AcDbDictionary
280
     1
281
     1
  3
ACAD_XREC_ROUNDTRIP
360
586
  0
DICTIONARY
  5
587
330
54C
100
AcDbDictionary
280
     1
281
     1
  3
ACAD_XREC_ROUNDTRIP
360
588
  0
DICTIONARY
  5
597
330
554
100
AcDbDictionary
280
     1
281
     1
  3
ACAD_XREC_ROUNDTRIP
360
598
  0
DICTIONARY
  5
58F
330
550
100
AcDbDictionary
280
     1
281
     1
  3
ACAD_XREC_ROUNDTRIP
360
590
  0
DICTIONARY
  5
573
330
542
100
AcDbDictionary
280
     1
281
     1
  3
ACAD_XREC_ROUNDTRIP
360
574
  0
DICTIONARY
  5
575
330
543
100
AcDbDictionary
280
     1
281
     1
  3
ACAD_XREC_ROUNDTRIP
360
576
  0
DICTIONARY
  5
577
330
544
100
AcDbDictionary
280
     1
281
     1
  3
ACAD_XREC_ROUNDTRIP
360
578
  0
DICTIONARY
  5
579
330
545
100
AcDbDictionary
280
     1
281
     1
  3
ACAD_XREC_ROUNDTRIP
360
57A
  0
DICTIONARY
  5
57F
330
548
100
AcDbDictionary
280
     1
281
     1
  3
ACAD_XREC_ROUNDTRIP
360
580
  0
DICTIONARY
  5
593
330
552
100
AcDbDictionary
280
     1
281
     1
  3
ACAD_XREC_ROUNDTRIP
360
594
  0
DICTIONARY
  5
58D
330
54F
100
AcDbDictionary
280
     1
281
     1
  3
ACAD_XREC_ROUNDTRIP
360
58E
  0
DICTIONARY
  5
595
330
553
100
AcDbDictionary
280
     1
281
     1
  3
ACAD_XREC_ROUNDTRIP
360
596
  0
DICTIONARY
  5
583
330
54A
100
AcDbDictionary
280
     1
281
     1
  3
ACAD_XREC_ROUNDTRIP
360
584
  0
DICTIONARY
  5
5A1
330
559
100
AcDbDictionary
280
     1
281
     1
  3
ACAD_XREC_ROUNDTRIP
360
5A2
  0
DICTIONARY
  5
59F
330
558
100
AcDbDictionary
280
     1
281
     1
  3
ACAD_XREC_ROUNDTRIP
360
5A0
  0
DICTIONARY
  5
599
330
555
100
AcDbDictionary
280
     1
281
     1
  3
ACAD_XREC_ROUNDTRIP
360
59A
  0
DICTIONARY
  5
59B
330
556
100
AcDbDictionary
280
     1
281
     1
  3
ACAD_XREC_ROUNDTRIP
360
59C
  0
DICTIONARY
  5
58B
330
54E
100
AcDbDictionary
280
     1
281
     1
  3
ACAD_XREC_ROUNDTRIP
360
58C
  0
DICTIONARY
  5
57D
330
547
100
AcDbDictionary
280
     1
281
     1
  3
ACAD_XREC_ROUNDTRIP
360
57E
  0
DICTIONARY
  5
59D
330
557
100
AcDbDictionary
280
     1
281
     1
  3
ACAD_XREC_ROUNDTRIP
360
59E
  0
CELLSTYLEMAP
  5
572
102
{ACAD_REACTORS
330
571
102
}
330
571
100
AcDbCellStyleMap
 90
        3
300
CELLSTYLE
  1
TABLEFORMAT_BEGIN
 90
        5
170
     1
 91
        0
 92
        0
 62
   257
 93
        1
300
CONTENTFORMAT
  1
CONTENTFORMAT_BEGIN
 90
        0
 91
        0
 92
        4
 93
        0
300

 40
0.0
140
1.0
 94
        5
 62
     0
340
11
144
6.0
309
CONTENTFORMAT_END
171
     1
301
MARGIN
  1
CELLMARGIN_BEGIN
 40
1.5
 40
1.5
 40
1.5
 40
1.5
 40
1.5
 40
1.5
309
CELLMARGIN_END
 94
        6
 95
        1
302
GRIDFORMAT
  1
GRIDFORMAT_BEGIN
 90
        0
 91
        1
 62
     0
 92
       -2
340
14
 93
        0
 40
0.045
309
GRIDFORMAT_END
 95
        2
302
GRIDFORMAT
  1
GRIDFORMAT_BEGIN
 90
        0
 91
        1
 62
     0
 92
       -2
340
14
 93
        0
 40
0.045
309
GRIDFORMAT_END
 95
        4
302
GRIDFORMAT
  1
GRIDFORMAT_BEGIN
 90
        0
 91
        1
 62
     0
 92
       -2
340
14
 93
        0
 40
0.045
309
GRIDFORMAT_END
 95
        8
302
GRIDFORMAT
  1
GRIDFORMAT_BEGIN
 90
        0
 91
        1
 62
     0
 92
       -2
340
14
 93
        0
 40
0.045
309
GRIDFORMAT_END
 95
       16
302
GRIDFORMAT
  1
GRIDFORMAT_BEGIN
 90
        0
 91
        1
 62
     0
 92
       -2
340
14
 93
        0
 40
0.045
309
GRIDFORMAT_END
 95
       32
302
GRIDFORMAT
  1
GRIDFORMAT_BEGIN
 90
        0
 91
        1
 62
     0
 92
       -2
340
14
 93
        0
 40
0.045
309
GRIDFORMAT_END
309
TABLEFORMAT_END
  1
CELLSTYLE_BEGIN
 90
        1
 91
        1
300
_TITLE
309
CELLSTYLE_END
300
CELLSTYLE
  1
TABLEFORMAT_BEGIN
 90
        5
170
     1
 91
        0
 92
        0
 62
   257
 93
        1
300
CONTENTFORMAT
  1
CONTENTFORMAT_BEGIN
 90
        0
 91
        0
 92
        4
 93
        0
300

 40
0.0
140
1.0
 94
        5
 62
     0
340
11
144
4.5
309
CONTENTFORMAT_END
171
     1
301
MARGIN
  1
CELLMARGIN_BEGIN
 40
1.5
 40
1.5
 40
1.5
 40
1.5
 40
1.5
 40
1.5
309
CELLMARGIN_END
 94
        6
 95
        1
302
GRIDFORMAT
  1
GRIDFORMAT_BEGIN
 90
        0
 91
        1
 62
     0
 92
       -2
340
14
 93
        0
 40
0.045
309
GRIDFORMAT_END
 95
        2
302
GRIDFORMAT
  1
GRIDFORMAT_BEGIN
 90
        0
 91
        1
 62
     0
 92
       -2
340
14
 93
        0
 40
0.045
309
GRIDFORMAT_END
 95
        4
302
GRIDFORMAT
  1
GRIDFORMAT_BEGIN
 90
        0
 91
        1
 62
     0
 92
       -2
340
14
 93
        0
 40
0.045
309
GRIDFORMAT_END
 95
        8
302
GRIDFORMAT
  1
GRIDFORMAT_BEGIN
 90
        0
 91
        1
 62
     0
 92
       -2
340
14
 93
        0
 40
0.045
309
GRIDFORMAT_END
 95
       16
302
GRIDFORMAT
  1
GRIDFORMAT_BEGIN
 90
        0
 91
        1
 62
     0
 92
       -2
340
14
 93
        0
 40
0.045
309
GRIDFORMAT_END
 95
       32
302
GRIDFORMAT
  1
GRIDFORMAT_BEGIN
 90
        0
 91
        1
 62
     0
 92
       -2
340
14
 93
        0
 40
0.045
309
GRIDFORMAT_END
309
TABLEFORMAT_END
  1
CELLSTYLE_BEGIN
 90
        2
 91
        1
300
_HEADER
309
CELLSTYLE_END
300
CELLSTYLE
  1
TABLEFORMAT_BEGIN
 90
        5
170
     1
 91
        0
 92
        0
 62
   257
 93
        1
300
CONTENTFORMAT
  1
CONTENTFORMAT_BEGIN
 90
        0
 91
        0
 92
        4
 93
        0
300

 40
0.0
140
1.0
 94
        2
 62
     0
340
11
144
4.5
309
CONTENTFORMAT_END
171
     1
301
MARGIN
  1
CELLMARGIN_BEGIN
 40
1.5
 40
1.5
 40
1.5
 40
1.5
 40
1.5
 40
1.5
309
CELLMARGIN_END
 94
        6
 95
        1
302
GRIDFORMAT
  1
GRIDFORMAT_BEGIN
 90
        0
 91
        1
 62
     0
 92
       -2
340
14
 93
        0
 40
0.045
309
GRIDFORMAT_END
 95
        2
302
GRIDFORMAT
  1
GRIDFORMAT_BEGIN
 90
        0
 91
        1
 62
     0
 92
       -2
340
14
 93
        0
 40
0.045
309
GRIDFORMAT_END
 95
        4
302
GRIDFORMAT
  1
GRIDFORMAT_BEGIN
 90
        0
 91
        1
 62
     0
 92
       -2
340
14
 93
        0
 40
0.045
309
GRIDFORMAT_END
 95
        8
302
GRIDFORMAT
  1
GRIDFORMAT_BEGIN
 90
        0
 91
        1
 62
     0
 92
       -2
340
14
 93
        0
 40
0.045
309
GRIDFORMAT_END
 95
       16
302
GRIDFORMAT
  1
GRIDFORMAT_BEGIN
 90
        0
 91
        1
 62
     0
 92
       -2
340
14
 93
        0
 40
0.045
309
GRIDFORMAT_END
 95
       32
302
GRIDFORMAT
  1
GRIDFORMAT_BEGIN
 90
        0
 91
        1
 62
     0
 92
       -2
340
14
 93
        0
 40
0.045
309
GRIDFORMAT_END
309
TABLEFORMAT_END
  1
CELLSTYLE_BEGIN
 90
        3
 91
        2
300
_DATA
309
CELLSTYLE_END
  0
XRECORD
  5
57C
102
{ACAD_REACTORS
330
57B
102
}
330
57B
100
AcDbXrecord
280
     1
102
RTVSPost2010Prop28
280
     1
102
RTVSPost2010PropOp28
 70
     1
102
RTVSPost2010Prop29
280
     1
102
RTVSPost2010PropOp29
 70
     1
102
RTVSPost2010Prop30
280
     0
102
RTVSPost2010PropOp30
 70
     1
102
RTVSPost2010Prop31
280
     0
102
RTVSPost2010PropOp31
 70
     1
102
RTVSPost2010Prop32
280
     0
102
RTVSPost2010PropOp32
 70
     1
102
RTVSPost2010Prop33
280
     0
102
RTVSPost2010PropOp33
 70
     1
102
RTVSPost2010Prop34
280
     0
102
RTVSPost2010PropOp34
 70
     1
102
RTVSPost2010Prop35
280
     0
102
RTVSPost2010PropOp35
 70
     1
102
RTVSPost2010Prop36
280
     0
102
RTVSPost2010PropOp36
 70
     1
102
RTVSPost2010Prop37
 90
       50
102
RTVSPost2010PropOp37
 70
     1
102
RTVSPost2010Prop38
140
0.0
102
RTVSPost2010PropOp38
 70
     1
102
RTVSPost2010Prop39
140
1.0
102
RTVSPost2010PropOp39
 70
     1
102
RTVSPost2010Prop40
 90
        0
102
RTVSPost2010PropOp40
 70
     1
102
RTVSPost2010Prop41ColorIndex
 90
       18
102
RTVSPost2010Prop41ColorRGB
 90
        0
102
RTVSPost2010PropOp41
 70
     1
102
RTVSPost2010Prop42
 90
       50
102
RTVSPost2010PropOp42
 70
     1
102
RTVSPost2010Prop43
 90
        3
102
RTVSPost2010PropOp43
 70
     1
102
RTVSPost2010Prop44ColorIndex
 90
        5
102
RTVSPost2010Prop44ColorRGB
 90
      255
102
RTVSPost2010PropOp44
 70
     1
102
RTVSPost2010Prop45
280
     0
102
RTVSPost2010PropOp45
 70
     1
102
RTVSPost2010Prop46
 90
       50
102
RTVSPost2010PropOp46
 70
     1
102
RTVSPost2010Prop47
 90
       50
102
RTVSPost2010PropOp47
 70
     1
102
RTVSPost2010Prop48
 90
       50
102
RTVSPost2010PropOp48
 70
     1
102
RTVSPost2010Prop49
280
     0
102
RTVSPost2010PropOp49
 70
     1
102
RTVSPost2010Prop50
 90
       50
102
RTVSPost2010PropOp50
 70
     1
102
RTVSPost2010Prop51ColorIndex
 90
      256
102
RTVSPost2010Prop51ColorRGB
 90
-16777216
102
RTVSPost2010PropOp51
 70
     0
102
RTVSPost2010Prop52
140
1.0
102
RTVSPost2010PropOp52
 70
     0
102
RTVSPost2010Prop53
 90
        2
102
RTVSPost2010PropOp53
 70
     1
102
RTVSPost2010Prop54
  1
strokes_ogs.tif
102
RTVSPost2010PropOp54
 70
     1
102
RTVSPost2010Prop55
280
     0
102
RTVSPost2010PropOp55
 70
     1
102
RTVSPost2010Prop56
140
1.0
102
RTVSPost2010PropOp56
 70
     1
102
RTVSPost2010Prop57
140
1.0
102
RTVSPost2010PropOp57
 70
     1
  0
XRECORD
  5
582
102
{ACAD_REACTORS
330
581
102
}
330
581
100
AcDbXrecord
280
     1
102
RTVSPost2010Prop28
280
     0
102
RTVSPost2010PropOp28
 70
     1
102
RTVSPost2010Prop29
280
     1
102
RTVSPost2010PropOp29
 70
     1
102
RTVSPost2010Prop30
280
     1
102
RTVSPost2010PropOp30
 70
     1
102
RTVSPost2010Prop31
280
     0
102
RTVSPost2010PropOp31
 70
     1
102
RTVSPost2010Prop32
280
     0
102
RTVSPost2010PropOp32
 70
     1
102
RTVSPost2010Prop33
280
     0
102
RTVSPost2010PropOp33
 70
     1
102
RTVSPost2010Prop34
280
     0
102
RTVSPost2010PropOp34
 70
     1
102
RTVSPost2010Prop35
280
     0
102
RTVSPost2010PropOp35
 70
     1
102
RTVSPost2010Prop36
280
     0
102
RTVSPost2010PropOp36
 70
     1
102
RTVSPost2010Prop37
 90
       50
102
RTVSPost2010PropOp37
 70
     1
102
RTVSPost2010Prop38
140
0.0
102
RTVSPost2010PropOp38
 70
     1
102
RTVSPost2010Prop39
140
1.0
102
RTVSPost2010PropOp39
 70
     1
102
RTVSPost2010Prop40
 90
        0
102
RTVSPost2010PropOp40
 70
     1
102
RTVSPost2010Prop41ColorIndex
 90
       18
102
RTVSPost2010Prop41ColorRGB
 90
        0
102
RTVSPost2010PropOp41
 70
     1
102
RTVSPost2010Prop42
 90
       50
102
RTVSPost2010PropOp42
 70
     1
102
RTVSPost2010Prop43
 90
        3
102
RTVSPost2010PropOp43
 70
     1
102
RTVSPost2010Prop44ColorIndex
 90
        5
102
RTVSPost2010Prop44ColorRGB
 90
      255
102
RTVSPost2010PropOp44
 70
     1
102
RTVSPost2010Prop45
280
     0
102
RTVSPost2010PropOp45
 70
     1
102
RTVSPost2010Prop46
 90
       50
102
RTVSPost2010PropOp46
 70
     1
102
RTVSPost2010Prop47
 90
       50
102
RTVSPost2010PropOp47
 70
     1
102
RTVSPost2010Prop48
 90
       50
102
RTVSPost2010PropOp48
 70
     1
102
RTVSPost2010Prop49
280
     0
102
RTVSPost2010PropOp49
 70
     1
102
RTVSPost2010Prop50
 90
       50
102
RTVSPost2010PropOp50
 70
     1
102
RTVSPost2010Prop51ColorIndex
 90
      256
102
RTVSPost2010Prop51ColorRGB
 90
-16777216
102
RTVSPost2010PropOp51
 70
     0
102
RTVSPost2010Prop52
140
1.0
102
RTVSPost2010PropOp52
 70
     0
102
RTVSPost2010Prop53
 90
        2
102
RTVSPost2010PropOp53
 70
     1
102
RTVSPost2010Prop54
  1
strokes_ogs.tif
102
RTVSPost2010PropOp54
 70
     1
102
RTVSPost2010Prop55
280
     0
102
RTVSPost2010PropOp55
 70
     1
102
RTVSPost2010Prop56
140
1.0
102
RTVSPost2010PropOp56
 70
     1
102
RTVSPost2010Prop57
140
1.0
102
RTVSPost2010PropOp57
 70
     1
  0
XRECORD
  5
58A
102
{ACAD_REACTORS
330
589
102
}
330
589
100
AcDbXrecord
280
     1
102
RTVSPost2010Prop28
280
     0
102
RTVSPost2010PropOp28
 70
     1
102
RTVSPost2010Prop29
280
     1
102
RTVSPost2010PropOp29
 70
     1
102
RTVSPost2010Prop30
280
     1
102
RTVSPost2010PropOp30
 70
     1
102
RTVSPost2010Prop31
280
     0
102
RTVSPost2010PropOp31
 70
     1
102
RTVSPost2010Prop32
280
     0
102
RTVSPost2010PropOp32
 70
     1
102
RTVSPost2010Prop33
280
     0
102
RTVSPost2010PropOp33
 70
     1
102
RTVSPost2010Prop34
280
     0
102
RTVSPost2010PropOp34
 70
     1
102
RTVSPost2010Prop35
280
     0
102
RTVSPost2010PropOp35
 70
     1
102
RTVSPost2010Prop36
280
     0
102
RTVSPost2010PropOp36
 70
     1
102
RTVSPost2010Prop37
 90
       50
102
RTVSPost2010PropOp37
 70
     1
102
RTVSPost2010Prop38
140
0.0
102
RTVSPost2010PropOp38
 70
     1
102
RTVSPost2010Prop39
140
1.0
102
RTVSPost2010PropOp39
 70
     1
102
RTVSPost2010Prop40
 90
        0
102
RTVSPost2010PropOp40
 70
     1
102
RTVSPost2010Prop41ColorIndex
 90
       18
102
RTVSPost2010Prop41ColorRGB
 90
        0
102
RTVSPost2010PropOp41
 70
     1
102
RTVSPost2010Prop42
 90
       50
102
RTVSPost2010PropOp42
 70
     1
102
RTVSPost2010Prop43
 90
        3
102
RTVSPost2010PropOp43
 70
     1
102
RTVSPost2010Prop44ColorIndex
 90
        5
102
RTVSPost2010Prop44ColorRGB
 90
      255
102
RTVSPost2010PropOp44
 70
     1
102
RTVSPost2010Prop45
280
     0
102
RTVSPost2010PropOp45
 70
     1
102
RTVSPost2010Prop46
 90
       50
102
RTVSPost2010PropOp46
 70
     1
102
RTVSPost2010Prop47
 90
       50
102
RTVSPost2010PropOp47
 70
     1
102
RTVSPost2010Prop48
 90
       50
102
RTVSPost2010PropOp48
 70
     1
102
RTVSPost2010Prop49
280
     0
102
RTVSPost2010PropOp49
 70
     1
102
RTVSPost2010Prop50
 90
       50
102
RTVSPost2010PropOp50
 70
     1
102
RTVSPost2010Prop51ColorIndex
 90
      256
102
RTVSPost2010Prop51ColorRGB
 90
-16777216
102
RTVSPost2010PropOp51
 70
     0
102
RTVSPost2010Prop52
140
1.0
102
RTVSPost2010PropOp52
 70
     0
102
RTVSPost2010Prop53
 90
        2
102
RTVSPost2010PropOp53
 70
     1
102
RTVSPost2010Prop54
  1
strokes_ogs.tif
102
RTVSPost2010PropOp54
 70
     1
102
RTVSPost2010Prop55
280
     0
102
RTVSPost2010PropOp55
 70
     1
102
RTVSPost2010Prop56
140
1.0
102
RTVSPost2010PropOp56
 70
     1
102
RTVSPost2010Prop57
140
1.0
102
RTVSPost2010PropOp57
 70
     1
  0
XRECORD
  5
592
102
{ACAD_REACTORS
330
591
102
}
330
591
100
AcDbXrecord
280
     1
102
RTVSPost2010Prop28
280
     0
102
RTVSPost2010PropOp28
 70
     1
102
RTVSPost2010Prop29
280
     1
102
RTVSPost2010PropOp29
 70
     1
102
RTVSPost2010Prop30
280
     1
102
RTVSPost2010PropOp30
 70
     1
102
RTVSPost2010Prop31
280
     0
102
RTVSPost2010PropOp31
 70
     1
102
RTVSPost2010Prop32
280
     0
102
RTVSPost2010PropOp32
 70
     1
102
RTVSPost2010Prop33
280
     0
102
RTVSPost2010PropOp33
 70
     1
102
RTVSPost2010Prop34
280
     0
102
RTVSPost2010PropOp34
 70
     1
102
RTVSPost2010Prop35
280
     0
102
RTVSPost2010PropOp35
 70
     1
102
RTVSPost2010Prop36
280
     0
102
RTVSPost2010PropOp36
 70
     1
102
RTVSPost2010Prop37
 90
       50
102
RTVSPost2010PropOp37
 70
     1
102
RTVSPost2010Prop38
140
0.0
102
RTVSPost2010PropOp38
 70
     1
102
RTVSPost2010Prop39
140
1.0
102
RTVSPost2010PropOp39
 70
     1
102
RTVSPost2010Prop40
 90
        0
102
RTVSPost2010PropOp40
 70
     1
102
RTVSPost2010Prop41ColorIndex
 90
       18
102
RTVSPost2010Prop41ColorRGB
 90
        0
102
RTVSPost2010PropOp41
 70
     1
102
RTVSPost2010Prop42
 90
       50
102
RTVSPost2010PropOp42
 70
     1
102
RTVSPost2010Prop43
 90
        3
102
RTVSPost2010PropOp43
 70
     1
102
RTVSPost2010Prop44ColorIndex
 90
        5
102
RTVSPost2010Prop44ColorRGB
 90
      255
102
RTVSPost2010PropOp44
 70
     1
102
RTVSPost2010Prop45
280
     0
102
RTVSPost2010PropOp45
 70
     1
102
RTVSPost2010Prop46
 90
       50
102
RTVSPost2010PropOp46
 70
     1
102
RTVSPost2010Prop47
 90
       50
102
RTVSPost2010PropOp47
 70
     1
102
RTVSPost2010Prop48
 90
       50
102
RTVSPost2010PropOp48
 70
     1
102
RTVSPost2010Prop49
280
     0
102
RTVSPost2010PropOp49
 70
     1
102
RTVSPost2010Prop50
 90
       50
102
RTVSPost2010PropOp50
 70
     1
102
RTVSPost2010Prop51ColorIndex
 90
      256
102
RTVSPost2010Prop51ColorRGB
 90
-16777216
102
RTVSPost2010PropOp51
 70
     0
102
RTVSPost2010Prop52
140
1.0
102
RTVSPost2010PropOp52
 70
     0
102
RTVSPost2010Prop53
 90
        2
102
RTVSPost2010PropOp53
 70
     1
102
RTVSPost2010Prop54
  1
strokes_ogs.tif
102
RTVSPost2010PropOp54
 70
     1
102
RTVSPost2010Prop55
280
     0
102
RTVSPost2010PropOp55
 70
     1
102
RTVSPost2010Prop56
140
1.0
102
RTVSPost2010PropOp56
 70
     1
102
RTVSPost2010Prop57
140
1.0
102
RTVSPost2010PropOp57
 70
     1
  0
XRECORD
  5
586
102
{ACAD_REACTORS
330
585
102
}
330
585
100
AcDbXrecord
280
     1
102
RTVSPost2010Prop28
280
     0
102
RTVSPost2010PropOp28
 70
     1
102
RTVSPost2010Prop29
280
     1
102
RTVSPost2010PropOp29
 70
     1
102
RTVSPost2010Prop30
280
     1
102
RTVSPost2010PropOp30
 70
     1
102
RTVSPost2010Prop31
280
     0
102
RTVSPost2010PropOp31
 70
     1
102
RTVSPost2010Prop32
280
     0
102
RTVSPost2010PropOp32
 70
     1
102
RTVSPost2010Prop33
280
     0
102
RTVSPost2010PropOp33
 70
     1
102
RTVSPost2010Prop34
280
     0
102
RTVSPost2010PropOp34
 70
     1
102
RTVSPost2010Prop35
280
     0
102
RTVSPost2010PropOp35
 70
     1
102
RTVSPost2010Prop36
280
     0
102
RTVSPost2010PropOp36
 70
     1
102
RTVSPost2010Prop37
 90
       50
102
RTVSPost2010PropOp37
 70
     1
102
RTVSPost2010Prop38
140
0.0
102
RTVSPost2010PropOp38
 70
     1
102
RTVSPost2010Prop39
140
1.0
102
RTVSPost2010PropOp39
 70
     1
102
RTVSPost2010Prop40
 90
        0
102
RTVSPost2010PropOp40
 70
     1
102
RTVSPost2010Prop41ColorIndex
 90
       18
102
RTVSPost2010Prop41ColorRGB
 90
        0
102
RTVSPost2010PropOp41
 70
     1
102
RTVSPost2010Prop42
 90
       50
102
RTVSPost2010PropOp42
 70
     1
102
RTVSPost2010Prop43
 90
        3
102
RTVSPost2010PropOp43
 70
     1
102
RTVSPost2010Prop44ColorIndex
 90
        5
102
RTVSPost2010Prop44ColorRGB
 90
      255
102
RTVSPost2010PropOp44
 70
     1
102
RTVSPost2010Prop45
280
     0
102
RTVSPost2010PropOp45
 70
     1
102
RTVSPost2010Prop46
 90
       50
102
RTVSPost2010PropOp46
 70
     1
102
RTVSPost2010Prop47
 90
       50
102
RTVSPost2010PropOp47
 70
     1
102
RTVSPost2010Prop48
 90
       50
102
RTVSPost2010PropOp48
 70
     1
102
RTVSPost2010Prop49
280
     0
102
RTVSPost2010PropOp49
 70
     1
102
RTVSPost2010Prop50
 90
       50
102
RTVSPost2010PropOp50
 70
     1
102
RTVSPost2010Prop51ColorIndex
 90
      256
102
RTVSPost2010Prop51ColorRGB
 90
-16777216
102
RTVSPost2010PropOp51
 70
     0
102
RTVSPost2010Prop52
140
1.0
102
RTVSPost2010PropOp52
 70
     0
102
RTVSPost2010Prop53
 90
        2
102
RTVSPost2010PropOp53
 70
     1
102
RTVSPost2010Prop54
  1
strokes_ogs.tif
102
RTVSPost2010PropOp54
 70
     1
102
RTVSPost2010Prop55
280
     0
102
RTVSPost2010PropOp55
 70
     1
102
RTVSPost2010Prop56
140
1.0
102
RTVSPost2010PropOp56
 70
     1
102
RTVSPost2010Prop57
140
1.0
102
RTVSPost2010PropOp57
 70
     1
  0
XRECORD
  5
588
102
{ACAD_REACTORS
330
587
102
}
330
587
100
AcDbXrecord
280
     1
102
RTVSPost2010Prop28
280
     0
102
RTVSPost2010PropOp28
 70
     1
102
RTVSPost2010Prop29
280
     1
102
RTVSPost2010PropOp29
 70
     1
102
RTVSPost2010Prop30
280
     1
102
RTVSPost2010PropOp30
 70
     1
102
RTVSPost2010Prop31
280
     0
102
RTVSPost2010PropOp31
 70
     1
102
RTVSPost2010Prop32
280
     0
102
RTVSPost2010PropOp32
 70
     1
102
RTVSPost2010Prop33
280
     0
102
RTVSPost2010PropOp33
 70
     1
102
RTVSPost2010Prop34
280
     0
102
RTVSPost2010PropOp34
 70
     1
102
RTVSPost2010Prop35
280
     0
102
RTVSPost2010PropOp35
 70
     1
102
RTVSPost2010Prop36
280
     0
102
RTVSPost2010PropOp36
 70
     1
102
RTVSPost2010Prop37
 90
       50
102
RTVSPost2010PropOp37
 70
     1
102
RTVSPost2010Prop38
140
0.0
102
RTVSPost2010PropOp38
 70
     1
102
RTVSPost2010Prop39
140
1.0
102
RTVSPost2010PropOp39
 70
     1
102
RTVSPost2010Prop40
 90
        0
102
RTVSPost2010PropOp40
 70
     1
102
RTVSPost2010Prop41ColorIndex
 90
       18
102
RTVSPost2010Prop41ColorRGB
 90
        0
102
RTVSPost2010PropOp41
 70
     1
102
RTVSPost2010Prop42
 90
       50
102
RTVSPost2010PropOp42
 70
     1
102
RTVSPost2010Prop43
 90
        3
102
RTVSPost2010PropOp43
 70
     1
102
RTVSPost2010Prop44ColorIndex
 90
        5
102
RTVSPost2010Prop44ColorRGB
 90
      255
102
RTVSPost2010PropOp44
 70
     1
102
RTVSPost2010Prop45
280
     0
102
RTVSPost2010PropOp45
 70
     1
102
RTVSPost2010Prop46
 90
       50
102
RTVSPost2010PropOp46
 70
     1
102
RTVSPost2010Prop47
 90
       50
102
RTVSPost2010PropOp47
 70
     1
102
RTVSPost2010Prop48
 90
       50
102
RTVSPost2010PropOp48
 70
     1
102
RTVSPost2010Prop49
280
     0
102
RTVSPost2010PropOp49
 70
     1
102
RTVSPost2010Prop50
 90
       50
102
RTVSPost2010PropOp50
 70
     1
102
RTVSPost2010Prop51ColorIndex
 90
      256
102
RTVSPost2010Prop51ColorRGB
 90
-16777216
102
RTVSPost2010PropOp51
 70
     0
102
RTVSPost2010Prop52
140
1.0
102
RTVSPost2010PropOp52
 70
     0
102
RTVSPost2010Prop53
 90
        2
102
RTVSPost2010PropOp53
 70
     1
102
RTVSPost2010Prop54
  1
strokes_ogs.tif
102
RTVSPost2010PropOp54
 70
     1
102
RTVSPost2010Prop55
280
     0
102
RTVSPost2010PropOp55
 70
     1
102
RTVSPost2010Prop56
140
1.0
102
RTVSPost2010PropOp56
 70
     1
102
RTVSPost2010Prop57
140
1.0
102
RTVSPost2010PropOp57
 70
     1
  0
XRECORD
  5
598
102
{ACAD_REACTORS
330
597
102
}
330
597
100
AcDbXrecord
280
     1
102
RTVSPost2010Prop28
280
     0
102
RTVSPost2010PropOp28
 70
     0
102
RTVSPost2010Prop29
280
     1
102
RTVSPost2010PropOp29
 70
     0
102
RTVSPost2010Prop30
280
     1
102
RTVSPost2010PropOp30
 70
     0
102
RTVSPost2010Prop31
280
     0
102
RTVSPost2010PropOp31
 70
     0
102
RTVSPost2010Prop32
280
     0
102
RTVSPost2010PropOp32
 70
     0
102
RTVSPost2010Prop33
280
     0
102
RTVSPost2010PropOp33
 70
     0
102
RTVSPost2010Prop34
280
     0
102
RTVSPost2010PropOp34
 70
     0
102
RTVSPost2010Prop35
280
     0
102
RTVSPost2010PropOp35
 70
     0
102
RTVSPost2010Prop36
280
     0
102
RTVSPost2010PropOp36
 70
     0
102
RTVSPost2010Prop37
 90
       50
102
RTVSPost2010PropOp37
 70
     0
102
RTVSPost2010Prop38
140
0.0
102
RTVSPost2010PropOp38
 70
     0
102
RTVSPost2010Prop39
140
1.0
102
RTVSPost2010PropOp39
 70
     0
102
RTVSPost2010Prop40
 90
        0
102
RTVSPost2010PropOp40
 70
     0
102
RTVSPost2010Prop41ColorIndex
 90
       18
102
RTVSPost2010Prop41ColorRGB
 90
        0
102
RTVSPost2010PropOp41
 70
     0
102
RTVSPost2010Prop42
 90
       50
102
RTVSPost2010PropOp42
 70
     0
102
RTVSPost2010Prop43
 90
        3
102
RTVSPost2010PropOp43
 70
     0
102
RTVSPost2010Prop44ColorIndex
 90
        5
102
RTVSPost2010Prop44ColorRGB
 90
      255
102
RTVSPost2010PropOp44
 70
     0
102
RTVSPost2010Prop45
280
     0
102
RTVSPost2010PropOp45
 70
     0
102
RTVSPost2010Prop46
 90
       50
102
RTVSPost2010PropOp46
 70
     0
102
RTVSPost2010Prop47
 90
       50
102
RTVSPost2010PropOp47
 70
     0
102
RTVSPost2010Prop48
 90
       50
102
RTVSPost2010PropOp48
 70
     0
102
RTVSPost2010Prop49
280
     0
102
RTVSPost2010PropOp49
 70
     0
102
RTVSPost2010Prop50
 90
       50
102
RTVSPost2010PropOp50
 70
     0
102
RTVSPost2010Prop51ColorIndex
 90
      256
102
RTVSPost2010Prop51ColorRGB
 90
-16777216
102
RTVSPost2010PropOp51
 70
     0
102
RTVSPost2010Prop52
140
1.0
102
RTVSPost2010PropOp52
 70
     0
102
RTVSPost2010Prop53
 90
        2
102
RTVSPost2010PropOp53
 70
     0
102
RTVSPost2010Prop54
  1
strokes_ogs.tif
102
RTVSPost2010PropOp54
 70
     0
102
RTVSPost2010Prop55
280
     0
102
RTVSPost2010PropOp55
 70
     0
102
RTVSPost2010Prop56
140
1.0
102
RTVSPost2010PropOp56
 70
     0
102
RTVSPost2010Prop57
140
1.0
102
RTVSPost2010PropOp57
 70
     0
  0
XRECORD
  5
590
102
{ACAD_REACTORS
330
58F
102
}
330
58F
100
AcDbXrecord
280
     1
102
RTVSPost2010Prop28
280
     0
102
RTVSPost2010PropOp28
 70
     1
102
RTVSPost2010Prop29
280
     1
102
RTVSPost2010PropOp29
 70
     1
102
RTVSPost2010Prop30
280
     1
102
RTVSPost2010PropOp30
 70
     1
102
RTVSPost2010Prop31
280
     0
102
RTVSPost2010PropOp31
 70
     1
102
RTVSPost2010Prop32
280
     0
102
RTVSPost2010PropOp32
 70
     1
102
RTVSPost2010Prop33
280
     0
102
RTVSPost2010PropOp33
 70
     1
102
RTVSPost2010Prop34
280
     0
102
RTVSPost2010PropOp34
 70
     1
102
RTVSPost2010Prop35
280
     0
102
RTVSPost2010PropOp35
 70
     1
102
RTVSPost2010Prop36
280
     0
102
RTVSPost2010PropOp36
 70
     1
102
RTVSPost2010Prop37
 90
       50
102
RTVSPost2010PropOp37
 70
     1
102
RTVSPost2010Prop38
140
0.0
102
RTVSPost2010PropOp38
 70
     1
102
RTVSPost2010Prop39
140
1.0
102
RTVSPost2010PropOp39
 70
     1
102
RTVSPost2010Prop40
 90
        0
102
RTVSPost2010PropOp40
 70
     1
102
RTVSPost2010Prop41ColorIndex
 90
       18
102
RTVSPost2010Prop41ColorRGB
 90
        0
102
RTVSPost2010PropOp41
 70
     1
102
RTVSPost2010Prop42
 90
       50
102
RTVSPost2010PropOp42
 70
     1
102
RTVSPost2010Prop43
 90
        3
102
RTVSPost2010PropOp43
 70
     1
102
RTVSPost2010Prop44ColorIndex
 90
        5
102
RTVSPost2010Prop44ColorRGB
 90
      255
102
RTVSPost2010PropOp44
 70
     1
102
RTVSPost2010Prop45
280
     0
102
RTVSPost2010PropOp45
 70
     1
102
RTVSPost2010Prop46
 90
       50
102
RTVSPost2010PropOp46
 70
     1
102
RTVSPost2010Prop47
 90
       50
102
RTVSPost2010PropOp47
 70
     1
102
RTVSPost2010Prop48
 90
       50
102
RTVSPost2010PropOp48
 70
     1
102
RTVSPost2010Prop49
280
     0
102
RTVSPost2010PropOp49
 70
     1
102
RTVSPost2010Prop50
 90
       50
102
RTVSPost2010PropOp50
 70
     1
102
RTVSPost2010Prop51ColorIndex
 90
      256
102
RTVSPost2010Prop51ColorRGB
 90
-16777216
102
RTVSPost2010PropOp51
 70
     0
102
RTVSPost2010Prop52
140
1.0
102
RTVSPost2010PropOp52
 70
     0
102
RTVSPost2010Prop53
 90
        2
102
RTVSPost2010PropOp53
 70
     1
102
RTVSPost2010Prop54
  1
strokes_ogs.tif
102
RTVSPost2010PropOp54
 70
     1
102
RTVSPost2010Prop55
280
     0
102
RTVSPost2010PropOp55
 70
     1
102
RTVSPost2010Prop56
140
1.0
102
RTVSPost2010PropOp56
 70
     1
102
RTVSPost2010Prop57
140
1.0
102
RTVSPost2010PropOp57
 70
     1
  0
XRECORD
  5
574
102
{ACAD_REACTORS
330
573
102
}
330
573
100
AcDbXrecord
280
     1
102
RTVSPost2010Prop28
280
     0
102
RTVSPost2010PropOp28
 70
     1
102
RTVSPost2010Prop29
280
     1
102
RTVSPost2010PropOp29
 70
     1
102
RTVSPost2010Prop30
280
     1
102
RTVSPost2010PropOp30
 70
     1
102
RTVSPost2010Prop31
280
     0
102
RTVSPost2010PropOp31
 70
     1
102
RTVSPost2010Prop32
280
     0
102
RTVSPost2010PropOp32
 70
     1
102
RTVSPost2010Prop33
280
     0
102
RTVSPost2010PropOp33
 70
     1
102
RTVSPost2010Prop34
280
     0
102
RTVSPost2010PropOp34
 70
     1
102
RTVSPost2010Prop35
280
     0
102
RTVSPost2010PropOp35
 70
     1
102
RTVSPost2010Prop36
280
     0
102
RTVSPost2010PropOp36
 70
     1
102
RTVSPost2010Prop37
 90
       50
102
RTVSPost2010PropOp37
 70
     1
102
RTVSPost2010Prop38
140
0.0
102
RTVSPost2010PropOp38
 70
     1
102
RTVSPost2010Prop39
140
1.0
102
RTVSPost2010PropOp39
 70
     1
102
RTVSPost2010Prop40
 90
        0
102
RTVSPost2010PropOp40
 70
     1
102
RTVSPost2010Prop41ColorIndex
 90
       18
102
RTVSPost2010Prop41ColorRGB
 90
        0
102
RTVSPost2010PropOp41
 70
     1
102
RTVSPost2010Prop42
 90
       50
102
RTVSPost2010PropOp42
 70
     1
102
RTVSPost2010Prop43
 90
        3
102
RTVSPost2010PropOp43
 70
     1
102
RTVSPost2010Prop44ColorIndex
 90
        5
102
RTVSPost2010Prop44ColorRGB
 90
      255
102
RTVSPost2010PropOp44
 70
     1
102
RTVSPost2010Prop45
280
     0
102
RTVSPost2010PropOp45
 70
     1
102
RTVSPost2010Prop46
 90
       50
102
RTVSPost2010PropOp46
 70
     1
102
RTVSPost2010Prop47
 90
       50
102
RTVSPost2010PropOp47
 70
     1
102
RTVSPost2010Prop48
 90
       50
102
RTVSPost2010PropOp48
 70
     1
102
RTVSPost2010Prop49
280
     0
102
RTVSPost2010PropOp49
 70
     1
102
RTVSPost2010Prop50
 90
       50
102
RTVSPost2010PropOp50
 70
     1
102
RTVSPost2010Prop51ColorIndex
 90
      256
102
RTVSPost2010Prop51ColorRGB
 90
-16777216
102
RTVSPost2010PropOp51
 70
     0
102
RTVSPost2010Prop52
140
1.0
102
RTVSPost2010PropOp52
 70
     0
102
RTVSPost2010Prop53
 90
        2
102
RTVSPost2010PropOp53
 70
     1
102
RTVSPost2010Prop54
  1
strokes_ogs.tif
102
RTVSPost2010PropOp54
 70
     1
102
RTVSPost2010Prop55
280
     0
102
RTVSPost2010PropOp55
 70
     1
102
RTVSPost2010Prop56
140
1.0
102
RTVSPost2010PropOp56
 70
     1
102
RTVSPost2010Prop57
140
1.0
102
RTVSPost2010PropOp57
 70
     1
  0
XRECORD
  5
576
102
{ACAD_REACTORS
330
575
102
}
330
575
100
AcDbXrecord
280
     1
102
RTVSPost2010Prop28
280
     0
102
RTVSPost2010PropOp28
 70
     1
102
RTVSPost2010Prop29
280
     1
102
RTVSPost2010PropOp29
 70
     1
102
RTVSPost2010Prop30
280
     1
102
RTVSPost2010PropOp30
 70
     1
102
RTVSPost2010Prop31
280
     0
102
RTVSPost2010PropOp31
 70
     1
102
RTVSPost2010Prop32
280
     0
102
RTVSPost2010PropOp32
 70
     1
102
RTVSPost2010Prop33
280
     0
102
RTVSPost2010PropOp33
 70
     1
102
RTVSPost2010Prop34
280
     0
102
RTVSPost2010PropOp34
 70
     1
102
RTVSPost2010Prop35
280
     0
102
RTVSPost2010PropOp35
 70
     1
102
RTVSPost2010Prop36
280
     0
102
RTVSPost2010PropOp36
 70
     1
102
RTVSPost2010Prop37
 90
       50
102
RTVSPost2010PropOp37
 70
     1
102
RTVSPost2010Prop38
140
0.0
102
RTVSPost2010PropOp38
 70
     1
102
RTVSPost2010Prop39
140
1.0
102
RTVSPost2010PropOp39
 70
     1
102
RTVSPost2010Prop40
 90
        0
102
RTVSPost2010PropOp40
 70
     1
102
RTVSPost2010Prop41ColorIndex
 90
       18
102
RTVSPost2010Prop41ColorRGB
 90
        0
102
RTVSPost2010PropOp41
 70
     1
102
RTVSPost2010Prop42
 90
       50
102
RTVSPost2010PropOp42
 70
     1
102
RTVSPost2010Prop43
 90
        3
102
RTVSPost2010PropOp43
 70
     1
102
RTVSPost2010Prop44ColorIndex
 90
        5
102
RTVSPost2010Prop44ColorRGB
 90
      255
102
RTVSPost2010PropOp44
 70
     1
102
RTVSPost2010Prop45
280
     0
102
RTVSPost2010PropOp45
 70
     1
102
RTVSPost2010Prop46
 90
       50
102
RTVSPost2010PropOp46
 70
     1
102
RTVSPost2010Prop47
 90
       50
102
RTVSPost2010PropOp47
 70
     1
102
RTVSPost2010Prop48
 90
       50
102
RTVSPost2010PropOp48
 70
     1
102
RTVSPost2010Prop49
280
     0
102
RTVSPost2010PropOp49
 70
     1
102
RTVSPost2010Prop50
 90
       50
102
RTVSPost2010PropOp50
 70
     1
102
RTVSPost2010Prop51ColorIndex
 90
      256
102
RTVSPost2010Prop51ColorRGB
 90
-16777216
102
RTVSPost2010PropOp51
 70
     0
102
RTVSPost2010Prop52
140
1.0
102
RTVSPost2010PropOp52
 70
     0
102
RTVSPost2010Prop53
 90
        2
102
RTVSPost2010PropOp53
 70
     1
102
RTVSPost2010Prop54
  1
strokes_ogs.tif
102
RTVSPost2010PropOp54
 70
     1
102
RTVSPost2010Prop55
280
     0
102
RTVSPost2010PropOp55
 70
     1
102
RTVSPost2010Prop56
140
1.0
102
RTVSPost2010PropOp56
 70
     1
102
RTVSPost2010Prop57
140
1.0
102
RTVSPost2010PropOp57
 70
     1
  0
XRECORD
  5
578
102
{ACAD_REACTORS
330
577
102
}
330
577
100
AcDbXrecord
280
     1
102
RTVSPost2010Prop28
280
     0
102
RTVSPost2010PropOp28
 70
     1
102
RTVSPost2010Prop29
280
     1
102
RTVSPost2010PropOp29
 70
     1
102
RTVSPost2010Prop30
280
     1
102
RTVSPost2010PropOp30
 70
     1
102
RTVSPost2010Prop31
280
     0
102
RTVSPost2010PropOp31
 70
     1
102
RTVSPost2010Prop32
280
     0
102
RTVSPost2010PropOp32
 70
     1
102
RTVSPost2010Prop33
280
     0
102
RTVSPost2010PropOp33
 70
     1
102
RTVSPost2010Prop34
280
     0
102
RTVSPost2010PropOp34
 70
     1
102
RTVSPost2010Prop35
280
     0
102
RTVSPost2010PropOp35
 70
     1
102
RTVSPost2010Prop36
280
     0
102
RTVSPost2010PropOp36
 70
     1
102
RTVSPost2010Prop37
 90
       50
102
RTVSPost2010PropOp37
 70
     1
102
RTVSPost2010Prop38
140
0.0
102
RTVSPost2010PropOp38
 70
     1
102
RTVSPost2010Prop39
140
1.0
102
RTVSPost2010PropOp39
 70
     1
102
RTVSPost2010Prop40
 90
        0
102
RTVSPost2010PropOp40
 70
     1
102
RTVSPost2010Prop41ColorIndex
 90
       18
102
RTVSPost2010Prop41ColorRGB
 90
        0
102
RTVSPost2010PropOp41
 70
     1
102
RTVSPost2010Prop42
 90
       50
102
RTVSPost2010PropOp42
 70
     1
102
RTVSPost2010Prop43
 90
        3
102
RTVSPost2010PropOp43
 70
     1
102
RTVSPost2010Prop44ColorIndex
 90
        5
102
RTVSPost2010Prop44ColorRGB
 90
      255
102
RTVSPost2010PropOp44
 70
     1
102
RTVSPost2010Prop45
280
     0
102
RTVSPost2010PropOp45
 70
     1
102
RTVSPost2010Prop46
 90
       50
102
RTVSPost2010PropOp46
 70
     1
102
RTVSPost2010Prop47
 90
       50
102
RTVSPost2010PropOp47
 70
     1
102
RTVSPost2010Prop48
 90
       50
102
RTVSPost2010PropOp48
 70
     1
102
RTVSPost2010Prop49
280
     0
102
RTVSPost2010PropOp49
 70
     1
102
RTVSPost2010Prop50
 90
       50
102
RTVSPost2010PropOp50
 70
     1
102
RTVSPost2010Prop51ColorIndex
 90
      256
102
RTVSPost2010Prop51ColorRGB
 90
-16777216
102
RTVSPost2010PropOp51
 70
     0
102
RTVSPost2010Prop52
140
1.0
102
RTVSPost2010PropOp52
 70
     0
102
RTVSPost2010Prop53
 90
        2
102
RTVSPost2010PropOp53
 70
     1
102
RTVSPost2010Prop54
  1
strokes_ogs.tif
102
RTVSPost2010PropOp54
 70
     1
102
RTVSPost2010Prop55
280
     0
102
RTVSPost2010PropOp55
 70
     1
102
RTVSPost2010Prop56
140
1.0
102
RTVSPost2010PropOp56
 70
     1
102
RTVSPost2010Prop57
140
1.0
102
RTVSPost2010PropOp57
 70
     1
  0
XRECORD
  5
57A
102
{ACAD_REACTORS
330
579
102
}
330
579
100
AcDbXrecord
280
     1
102
RTVSPost2010Prop28
280
     0
102
RTVSPost2010PropOp28
 70
     1
102
RTVSPost2010Prop29
280
     1
102
RTVSPost2010PropOp29
 70
     1
102
RTVSPost2010Prop30
280
     1
102
RTVSPost2010PropOp30
 70
     1
102
RTVSPost2010Prop31
280
     0
102
RTVSPost2010PropOp31
 70
     1
102
RTVSPost2010Prop32
280
     0
102
RTVSPost2010PropOp32
 70
     1
102
RTVSPost2010Prop33
280
     0
102
RTVSPost2010PropOp33
 70
     1
102
RTVSPost2010Prop34
280
     0
102
RTVSPost2010PropOp34
 70
     1
102
RTVSPost2010Prop35
280
     0
102
RTVSPost2010PropOp35
 70
     1
102
RTVSPost2010Prop36
280
     0
102
RTVSPost2010PropOp36
 70
     1
102
RTVSPost2010Prop37
 90
       50
102
RTVSPost2010PropOp37
 70
     1
102
RTVSPost2010Prop38
140
0.0
102
RTVSPost2010PropOp38
 70
     1
102
RTVSPost2010Prop39
140
1.0
102
RTVSPost2010PropOp39
 70
     1
102
RTVSPost2010Prop40
 90
        0
102
RTVSPost2010PropOp40
 70
     1
102
RTVSPost2010Prop41ColorIndex
 90
       18
102
RTVSPost2010Prop41ColorRGB
 90
        0
102
RTVSPost2010PropOp41
 70
     1
102
RTVSPost2010Prop42
 90
       50
102
RTVSPost2010PropOp42
 70
     1
102
RTVSPost2010Prop43
 90
        3
102
RTVSPost2010PropOp43
 70
     1
102
RTVSPost2010Prop44ColorIndex
 90
        5
102
RTVSPost2010Prop44ColorRGB
 90
      255
102
RTVSPost2010PropOp44
 70
     1
102
RTVSPost2010Prop45
280
     0
102
RTVSPost2010PropOp45
 70
     1
102
RTVSPost2010Prop46
 90
       50
102
RTVSPost2010PropOp46
 70
     1
102
RTVSPost2010Prop47
 90
       50
102
RTVSPost2010PropOp47
 70
     1
102
RTVSPost2010Prop48
 90
       50
102
RTVSPost2010PropOp48
 70
     1
102
RTVSPost2010Prop49
280
     0
102
RTVSPost2010PropOp49
 70
     1
102
RTVSPost2010Prop50
 90
       50
102
RTVSPost2010PropOp50
 70
     1
102
RTVSPost2010Prop51ColorIndex
 90
      256
102
RTVSPost2010Prop51ColorRGB
 90
-16777216
102
RTVSPost2010PropOp51
 70
     0
102
RTVSPost2010Prop52
140
1.0
102
RTVSPost2010PropOp52
 70
     0
102
RTVSPost2010Prop53
 90
        2
102
RTVSPost2010PropOp53
 70
     1
102
RTVSPost2010Prop54
  1
strokes_ogs.tif
102
RTVSPost2010PropOp54
 70
     1
102
RTVSPost2010Prop55
280
     0
102
RTVSPost2010PropOp55
 70
     1
102
RTVSPost2010Prop56
140
1.0
102
RTVSPost2010PropOp56
 70
     1
102
RTVSPost2010Prop57
140
1.0
102
RTVSPost2010PropOp57
 70
     1
  0
XRECORD
  5
580
102
{ACAD_REACTORS
330
57F
102
}
330
57F
100
AcDbXrecord
280
     1
102
RTVSPost2010Prop28
280
     0
102
RTVSPost2010PropOp28
 70
     1
102
RTVSPost2010Prop29
280
     1
102
RTVSPost2010PropOp29
 70
     1
102
RTVSPost2010Prop30
280
     1
102
RTVSPost2010PropOp30
 70
     1
102
RTVSPost2010Prop31
280
     0
102
RTVSPost2010PropOp31
 70
     1
102
RTVSPost2010Prop32
280
     0
102
RTVSPost2010PropOp32
 70
     1
102
RTVSPost2010Prop33
280
     0
102
RTVSPost2010PropOp33
 70
     1
102
RTVSPost2010Prop34
280
     0
102
RTVSPost2010PropOp34
 70
     1
102
RTVSPost2010Prop35
280
     0
102
RTVSPost2010PropOp35
 70
     1
102
RTVSPost2010Prop36
280
     0
102
RTVSPost2010PropOp36
 70
     1
102
RTVSPost2010Prop37
 90
       50
102
RTVSPost2010PropOp37
 70
     1
102
RTVSPost2010Prop38
140
0.0
102
RTVSPost2010PropOp38
 70
     1
102
RTVSPost2010Prop39
140
1.0
102
RTVSPost2010PropOp39
 70
     1
102
RTVSPost2010Prop40
 90
        0
102
RTVSPost2010PropOp40
 70
     1
102
RTVSPost2010Prop41ColorIndex
 90
       18
102
RTVSPost2010Prop41ColorRGB
 90
        0
102
RTVSPost2010PropOp41
 70
     1
102
RTVSPost2010Prop42
 90
       50
102
RTVSPost2010PropOp42
 70
     1
102
RTVSPost2010Prop43
 90
        3
102
RTVSPost2010PropOp43
 70
     1
102
RTVSPost2010Prop44ColorIndex
 90
        5
102
RTVSPost2010Prop44ColorRGB
 90
      255
102
RTVSPost2010PropOp44
 70
     1
102
RTVSPost2010Prop45
280
     0
102
RTVSPost2010PropOp45
 70
     1
102
RTVSPost2010Prop46
 90
       50
102
RTVSPost2010PropOp46
 70
     1
102
RTVSPost2010Prop47
 90
       50
102
RTVSPost2010PropOp47
 70
     1
102
RTVSPost2010Prop48
 90
       50
102
RTVSPost2010PropOp48
 70
     1
102
RTVSPost2010Prop49
280
     0
102
RTVSPost2010PropOp49
 70
     1
102
RTVSPost2010Prop50
 90
       50
102
RTVSPost2010PropOp50
 70
     1
102
RTVSPost2010Prop51ColorIndex
 90
      256
102
RTVSPost2010Prop51ColorRGB
 90
-16777216
102
RTVSPost2010PropOp51
 70
     0
102
RTVSPost2010Prop52
140
1.0
102
RTVSPost2010PropOp52
 70
     0
102
RTVSPost2010Prop53
 90
        2
102
RTVSPost2010PropOp53
 70
     1
102
RTVSPost2010Prop54
  1
strokes_ogs.tif
102
RTVSPost2010PropOp54
 70
     1
102
RTVSPost2010Prop55
280
     0
102
RTVSPost2010PropOp55
 70
     1
102
RTVSPost2010Prop56
140
1.0
102
RTVSPost2010PropOp56
 70
     1
102
RTVSPost2010Prop57
140
1.0
102
RTVSPost2010PropOp57
 70
     1
  0
XRECORD
  5
594
102
{ACAD_REACTORS
330
593
102
}
330
593
100
AcDbXrecord
280
     1
102
RTVSPost2010Prop28
280
     0
102
RTVSPost2010PropOp28
 70
     0
102
RTVSPost2010Prop29
280
     1
102
RTVSPost2010PropOp29
 70
     0
102
RTVSPost2010Prop30
280
     1
102
RTVSPost2010PropOp30
 70
     0
102
RTVSPost2010Prop31
280
     0
102
RTVSPost2010PropOp31
 70
     0
102
RTVSPost2010Prop32
280
     0
102
RTVSPost2010PropOp32
 70
     0
102
RTVSPost2010Prop33
280
     0
102
RTVSPost2010PropOp33
 70
     0
102
RTVSPost2010Prop34
280
     0
102
RTVSPost2010PropOp34
 70
     0
102
RTVSPost2010Prop35
280
     0
102
RTVSPost2010PropOp35
 70
     0
102
RTVSPost2010Prop36
280
     0
102
RTVSPost2010PropOp36
 70
     0
102
RTVSPost2010Prop37
 90
       50
102
RTVSPost2010PropOp37
 70
     0
102
RTVSPost2010Prop38
140
0.0
102
RTVSPost2010PropOp38
 70
     0
102
RTVSPost2010Prop39
140
1.0
102
RTVSPost2010PropOp39
 70
     0
102
RTVSPost2010Prop40
 90
        0
102
RTVSPost2010PropOp40
 70
     0
102
RTVSPost2010Prop41ColorIndex
 90
       18
102
RTVSPost2010Prop41ColorRGB
 90
        0
102
RTVSPost2010PropOp41
 70
     0
102
RTVSPost2010Prop42
 90
       50
102
RTVSPost2010PropOp42
 70
     0
102
RTVSPost2010Prop43
 90
        3
102
RTVSPost2010PropOp43
 70
     0
102
RTVSPost2010Prop44ColorIndex
 90
        5
102
RTVSPost2010Prop44ColorRGB
 90
      255
102
RTVSPost2010PropOp44
 70
     0
102
RTVSPost2010Prop45
280
     0
102
RTVSPost2010PropOp45
 70
     0
102
RTVSPost2010Prop46
 90
       50
102
RTVSPost2010PropOp46
 70
     0
102
RTVSPost2010Prop47
 90
       50
102
RTVSPost2010PropOp47
 70
     0
102
RTVSPost2010Prop48
 90
       50
102
RTVSPost2010PropOp48
 70
     0
102
RTVSPost2010Prop49
280
     0
102
RTVSPost2010PropOp49
 70
     0
102
RTVSPost2010Prop50
 90
       50
102
RTVSPost2010PropOp50
 70
     0
102
RTVSPost2010Prop51ColorIndex
 90
      256
102
RTVSPost2010Prop51ColorRGB
 90
-16777216
102
RTVSPost2010PropOp51
 70
     0
102
RTVSPost2010Prop52
140
1.0
102
RTVSPost2010PropOp52
 70
     0
102
RTVSPost2010Prop53
 90
        2
102
RTVSPost2010PropOp53
 70
     0
102
RTVSPost2010Prop54
  1
strokes_ogs.tif
102
RTVSPost2010PropOp54
 70
     0
102
RTVSPost2010Prop55
280
     0
102
RTVSPost2010PropOp55
 70
     0
102
RTVSPost2010Prop56
140
1.0
102
RTVSPost2010PropOp56
 70
     0
102
RTVSPost2010Prop57
140
1.0
102
RTVSPost2010PropOp57
 70
     0
  0
XRECORD
  5
58E
102
{ACAD_REACTORS
330
58D
102
}
330
58D
100
AcDbXrecord
280
     1
102
RTVSPost2010Prop28
280
     0
102
RTVSPost2010PropOp28
 70
     1
102
RTVSPost2010Prop29
280
     1
102
RTVSPost2010PropOp29
 70
     1
102
RTVSPost2010Prop30
280
     1
102
RTVSPost2010PropOp30
 70
     1
102
RTVSPost2010Prop31
280
     0
102
RTVSPost2010PropOp31
 70
     1
102
RTVSPost2010Prop32
280
     0
102
RTVSPost2010PropOp32
 70
     1
102
RTVSPost2010Prop33
280
     0
102
RTVSPost2010PropOp33
 70
     1
102
RTVSPost2010Prop34
280
     0
102
RTVSPost2010PropOp34
 70
     1
102
RTVSPost2010Prop35
280
     0
102
RTVSPost2010PropOp35
 70
     1
102
RTVSPost2010Prop36
280
     0
102
RTVSPost2010PropOp36
 70
     1
102
RTVSPost2010Prop37
 90
       50
102
RTVSPost2010PropOp37
 70
     1
102
RTVSPost2010Prop38
140
0.0
102
RTVSPost2010PropOp38
 70
     1
102
RTVSPost2010Prop39
140
1.0
102
RTVSPost2010PropOp39
 70
     1
102
RTVSPost2010Prop40
 90
        0
102
RTVSPost2010PropOp40
 70
     1
102
RTVSPost2010Prop41ColorIndex
 90
       18
102
RTVSPost2010Prop41ColorRGB
 90
        0
102
RTVSPost2010PropOp41
 70
     1
102
RTVSPost2010Prop42
 90
       50
102
RTVSPost2010PropOp42
 70
     1
102
RTVSPost2010Prop43
 90
        3
102
RTVSPost2010PropOp43
 70
     1
102
RTVSPost2010Prop44ColorIndex
 90
        5
102
RTVSPost2010Prop44ColorRGB
 90
      255
102
RTVSPost2010PropOp44
 70
     1
102
RTVSPost2010Prop45
280
     0
102
RTVSPost2010PropOp45
 70
     1
102
RTVSPost2010Prop46
 90
       50
102
RTVSPost2010PropOp46
 70
     1
102
RTVSPost2010Prop47
 90
       50
102
RTVSPost2010PropOp47
 70
     1
102
RTVSPost2010Prop48
 90
       50
102
RTVSPost2010PropOp48
 70
     1
102
RTVSPost2010Prop49
280
     0
102
RTVSPost2010PropOp49
 70
     1
102
RTVSPost2010Prop50
 90
       50
102
RTVSPost2010PropOp50
 70
     1
102
RTVSPost2010Prop51ColorIndex
 90
      256
102
RTVSPost2010Prop51ColorRGB
 90
-16777216
102
RTVSPost2010PropOp51
 70
     0
102
RTVSPost2010Prop52
140
1.0
102
RTVSPost2010PropOp52
 70
     0
102
RTVSPost2010Prop53
 90
        2
102
RTVSPost2010PropOp53
 70
     1
102
RTVSPost2010Prop54
  1
strokes_ogs.tif
102
RTVSPost2010PropOp54
 70
     1
102
RTVSPost2010Prop55
280
     0
102
RTVSPost2010PropOp55
 70
     1
102
RTVSPost2010Prop56
140
1.0
102
RTVSPost2010PropOp56
 70
     1
102
RTVSPost2010Prop57
140
1.0
102
RTVSPost2010PropOp57
 70
     1
  0
XRECORD
  5
596
102
{ACAD_REACTORS
330
595
102
}
330
595
100
AcDbXrecord
280
     1
102
RTVSPost2010Prop28
280
     0
102
RTVSPost2010PropOp28
 70
     0
102
RTVSPost2010Prop29
280
     1
102
RTVSPost2010PropOp29
 70
     0
102
RTVSPost2010Prop30
280
     1
102
RTVSPost2010PropOp30
 70
     0
102
RTVSPost2010Prop31
280
     0
102
RTVSPost2010PropOp31
 70
     0
102
RTVSPost2010Prop32
280
     0
102
RTVSPost2010PropOp32
 70
     0
102
RTVSPost2010Prop33
280
     0
102
RTVSPost2010PropOp33
 70
     0
102
RTVSPost2010Prop34
280
     0
102
RTVSPost2010PropOp34
 70
     0
102
RTVSPost2010Prop35
280
     0
102
RTVSPost2010PropOp35
 70
     0
102
RTVSPost2010Prop36
280
     0
102
RTVSPost2010PropOp36
 70
     0
102
RTVSPost2010Prop37
 90
       50
102
RTVSPost2010PropOp37
 70
     0
102
RTVSPost2010Prop38
140
0.0
102
RTVSPost2010PropOp38
 70
     0
102
RTVSPost2010Prop39
140
1.0
102
RTVSPost2010PropOp39
 70
     0
102
RTVSPost2010Prop40
 90
        0
102
RTVSPost2010PropOp40
 70
     0
102
RTVSPost2010Prop41ColorIndex
 90
       18
102
RTVSPost2010Prop41ColorRGB
 90
        0
102
RTVSPost2010PropOp41
 70
     0
102
RTVSPost2010Prop42
 90
       50
102
RTVSPost2010PropOp42
 70
     0
102
RTVSPost2010Prop43
 90
        3
102
RTVSPost2010PropOp43
 70
     0
102
RTVSPost2010Prop44ColorIndex
 90
        5
102
RTVSPost2010Prop44ColorRGB
 90
      255
102
RTVSPost2010PropOp44
 70
     0
102
RTVSPost2010Prop45
280
     0
102
RTVSPost2010PropOp45
 70
     0
102
RTVSPost2010Prop46
 90
       50
102
RTVSPost2010PropOp46
 70
     0
102
RTVSPost2010Prop47
 90
       50
102
RTVSPost2010PropOp47
 70
     0
102
RTVSPost2010Prop48
 90
       50
102
RTVSPost2010PropOp48
 70
     0
102
RTVSPost2010Prop49
280
     0
102
RTVSPost2010PropOp49
 70
     0
102
RTVSPost2010Prop50
 90
       50
102
RTVSPost2010PropOp50
 70
     0
102
RTVSPost2010Prop51ColorIndex
 90
      256
102
RTVSPost2010Prop51ColorRGB
 90
-16777216
102
RTVSPost2010PropOp51
 70
     0
102
RTVSPost2010Prop52
140
1.0
102
RTVSPost2010PropOp52
 70
     0
102
RTVSPost2010Prop53
 90
        2
102
RTVSPost2010PropOp53
 70
     0
102
RTVSPost2010Prop54
  1
strokes_ogs.tif
102
RTVSPost2010PropOp54
 70
     0
102
RTVSPost2010Prop55
280
     0
102
RTVSPost2010PropOp55
 70
     0
102
RTVSPost2010Prop56
140
1.0
102
RTVSPost2010PropOp56
 70
     0
102
RTVSPost2010Prop57
140
1.0
102
RTVSPost2010PropOp57
 70
     0
  0
XRECORD
  5
584
102
{ACAD_REACTORS
330
583
102
}
330
583
100
AcDbXrecord
280
     1
102
RTVSPost2010Prop28
280
     0
102
RTVSPost2010PropOp28
 70
     1
102
RTVSPost2010Prop29
280
     1
102
RTVSPost2010PropOp29
 70
     1
102
RTVSPost2010Prop30
280
     1
102
RTVSPost2010PropOp30
 70
     1
102
RTVSPost2010Prop31
280
     0
102
RTVSPost2010PropOp31
 70
     1
102
RTVSPost2010Prop32
280
     0
102
RTVSPost2010PropOp32
 70
     1
102
RTVSPost2010Prop33
280
     0
102
RTVSPost2010PropOp33
 70
     1
102
RTVSPost2010Prop34
280
     0
102
RTVSPost2010PropOp34
 70
     1
102
RTVSPost2010Prop35
280
     0
102
RTVSPost2010PropOp35
 70
     1
102
RTVSPost2010Prop36
280
     0
102
RTVSPost2010PropOp36
 70
     1
102
RTVSPost2010Prop37
 90
       50
102
RTVSPost2010PropOp37
 70
     1
102
RTVSPost2010Prop38
140
0.0
102
RTVSPost2010PropOp38
 70
     1
102
RTVSPost2010Prop39
140
1.0
102
RTVSPost2010PropOp39
 70
     1
102
RTVSPost2010Prop40
 90
        0
102
RTVSPost2010PropOp40
 70
     1
102
RTVSPost2010Prop41ColorIndex
 90
       18
102
RTVSPost2010Prop41ColorRGB
 90
        0
102
RTVSPost2010PropOp41
 70
     1
102
RTVSPost2010Prop42
 90
       50
102
RTVSPost2010PropOp42
 70
     1
102
RTVSPost2010Prop43
 90
        3
102
RTVSPost2010PropOp43
 70
     1
102
RTVSPost2010Prop44ColorIndex
 90
        5
102
RTVSPost2010Prop44ColorRGB
 90
      255
102
RTVSPost2010PropOp44
 70
     1
102
RTVSPost2010Prop45
280
     0
102
RTVSPost2010PropOp45
 70
     1
102
RTVSPost2010Prop46
 90
       50
102
RTVSPost2010PropOp46
 70
     1
102
RTVSPost2010Prop47
 90
       50
102
RTVSPost2010PropOp47
 70
     1
102
RTVSPost2010Prop48
 90
       50
102
RTVSPost2010PropOp48
 70
     1
102
RTVSPost2010Prop49
280
     0
102
RTVSPost2010PropOp49
 70
     1
102
RTVSPost2010Prop50
 90
       50
102
RTVSPost2010PropOp50
 70
     1
102
RTVSPost2010Prop51ColorIndex
 90
      256
102
RTVSPost2010Prop51ColorRGB
 90
-16777216
102
RTVSPost2010PropOp51
 70
     0
102
RTVSPost2010Prop52
140
1.0
102
RTVSPost2010PropOp52
 70
     0
102
RTVSPost2010Prop53
 90
        2
102
RTVSPost2010PropOp53
 70
     1
102
RTVSPost2010Prop54
  1
strokes_ogs.tif
102
RTVSPost2010PropOp54
 70
     1
102
RTVSPost2010Prop55
280
     0
102
RTVSPost2010PropOp55
 70
     1
102
RTVSPost2010Prop56
140
1.0
102
RTVSPost2010PropOp56
 70
     1
102
RTVSPost2010Prop57
140
1.0
102
RTVSPost2010PropOp57
 70
     1
  0
XRECORD
  5
5A2
102
{ACAD_REACTORS
330
5A1
102
}
330
5A1
100
AcDbXrecord
280
     1
102
RTVSPost2010Prop28
280
     0
102
RTVSPost2010PropOp28
 70
     1
102
RTVSPost2010Prop29
280
     1
102
RTVSPost2010PropOp29
 70
     1
102
RTVSPost2010Prop30
280
     1
102
RTVSPost2010PropOp30
 70
     1
102
RTVSPost2010Prop31
280
     0
102
RTVSPost2010PropOp31
 70
     1
102
RTVSPost2010Prop32
280
     0
102
RTVSPost2010PropOp32
 70
     1
102
RTVSPost2010Prop33
280
     0
102
RTVSPost2010PropOp33
 70
     1
102
RTVSPost2010Prop34
280
     0
102
RTVSPost2010PropOp34
 70
     1
102
RTVSPost2010Prop35
280
     0
102
RTVSPost2010PropOp35
 70
     1
102
RTVSPost2010Prop36
280
     0
102
RTVSPost2010PropOp36
 70
     1
102
RTVSPost2010Prop37
 90
       50
102
RTVSPost2010PropOp37
 70
     1
102
RTVSPost2010Prop38
140
0.0
102
RTVSPost2010PropOp38
 70
     1
102
RTVSPost2010Prop39
140
1.0
102
RTVSPost2010PropOp39
 70
     1
102
RTVSPost2010Prop40
 90
        0
102
RTVSPost2010PropOp40
 70
     1
102
RTVSPost2010Prop41ColorIndex
 90
       18
102
RTVSPost2010Prop41ColorRGB
 90
        0
102
RTVSPost2010PropOp41
 70
     1
102
RTVSPost2010Prop42
 90
       50
102
RTVSPost2010PropOp42
 70
     1
102
RTVSPost2010Prop43
 90
        3
102
RTVSPost2010PropOp43
 70
     1
102
RTVSPost2010Prop44ColorIndex
 90
        5
102
RTVSPost2010Prop44ColorRGB
 90
      255
102
RTVSPost2010PropOp44
 70
     1
102
RTVSPost2010Prop45
280
     0
102
RTVSPost2010PropOp45
 70
     1
102
RTVSPost2010Prop46
 90
       50
102
RTVSPost2010PropOp46
 70
     1
102
RTVSPost2010Prop47
 90
       50
102
RTVSPost2010PropOp47
 70
     1
102
RTVSPost2010Prop48
 90
       50
102
RTVSPost2010PropOp48
 70
     1
102
RTVSPost2010Prop49
280
     0
102
RTVSPost2010PropOp49
 70
     1
102
RTVSPost2010Prop50
 90
       50
102
RTVSPost2010PropOp50
 70
     1
102
RTVSPost2010Prop51ColorIndex
 90
      256
102
RTVSPost2010Prop51ColorRGB
 90
-16777216
102
RTVSPost2010PropOp51
 70
     0
102
RTVSPost2010Prop52
140
1.0
102
RTVSPost2010PropOp52
 70
     0
102
RTVSPost2010Prop53
 90
        2
102
RTVSPost2010PropOp53
 70
     1
102
RTVSPost2010Prop54
  1
strokes_ogs.tif
102
RTVSPost2010PropOp54
 70
     1
102
RTVSPost2010Prop55
280
     0
102
RTVSPost2010PropOp55
 70
     1
102
RTVSPost2010Prop56
140
1.0
102
RTVSPost2010PropOp56
 70
     1
102
RTVSPost2010Prop57
140
1.0
102
RTVSPost2010PropOp57
 70
     1
  0
XRECORD
  5
5A0
102
{ACAD_REACTORS
330
59F
102
}
330
59F
100
AcDbXrecord
280
     1
102
RTVSPost2010Prop28
280
     0
102
RTVSPost2010PropOp28
 70
     1
102
RTVSPost2010Prop29
280
     1
102
RTVSPost2010PropOp29
 70
     1
102
RTVSPost2010Prop30
280
     1
102
RTVSPost2010PropOp30
 70
     1
102
RTVSPost2010Prop31
280
     0
102
RTVSPost2010PropOp31
 70
     1
102
RTVSPost2010Prop32
280
     0
102
RTVSPost2010PropOp32
 70
     1
102
RTVSPost2010Prop33
280
     0
102
RTVSPost2010PropOp33
 70
     1
102
RTVSPost2010Prop34
280
     0
102
RTVSPost2010PropOp34
 70
     1
102
RTVSPost2010Prop35
280
     0
102
RTVSPost2010PropOp35
 70
     1
102
RTVSPost2010Prop36
280
     0
102
RTVSPost2010PropOp36
 70
     1
102
RTVSPost2010Prop37
 90
       50
102
RTVSPost2010PropOp37
 70
     1
102
RTVSPost2010Prop38
140
0.0
102
RTVSPost2010PropOp38
 70
     1
102
RTVSPost2010Prop39
140
1.0
102
RTVSPost2010PropOp39
 70
     1
102
RTVSPost2010Prop40
 90
        0
102
RTVSPost2010PropOp40
 70
     1
102
RTVSPost2010Prop41ColorIndex
 90
       18
102
RTVSPost2010Prop41ColorRGB
 90
        0
102
RTVSPost2010PropOp41
 70
     1
102
RTVSPost2010Prop42
 90
       50
102
RTVSPost2010PropOp42
 70
     1
102
RTVSPost2010Prop43
 90
        3
102
RTVSPost2010PropOp43
 70
     1
102
RTVSPost2010Prop44ColorIndex
 90
        5
102
RTVSPost2010Prop44ColorRGB
 90
      255
102
RTVSPost2010PropOp44
 70
     1
102
RTVSPost2010Prop45
280
     0
102
RTVSPost2010PropOp45
 70
     1
102
RTVSPost2010Prop46
 90
       50
102
RTVSPost2010PropOp46
 70
     1
102
RTVSPost2010Prop47
 90
       50
102
RTVSPost2010PropOp47
 70
     1
102
RTVSPost2010Prop48
 90
       50
102
RTVSPost2010PropOp48
 70
     1
102
RTVSPost2010Prop49
280
     0
102
RTVSPost2010PropOp49
 70
     1
102
RTVSPost2010Prop50
 90
       50
102
RTVSPost2010PropOp50
 70
     1
102
RTVSPost2010Prop51ColorIndex
 90
      256
102
RTVSPost2010Prop51ColorRGB
 90
-16777216
102
RTVSPost2010PropOp51
 70
     0
102
RTVSPost2010Prop52
140
1.0
102
RTVSPost2010PropOp52
 70
     0
102
RTVSPost2010Prop53
 90
        2
102
RTVSPost2010PropOp53
 70
     1
102
RTVSPost2010Prop54
  1
strokes_ogs.tif
102
RTVSPost2010PropOp54
 70
     1
102
RTVSPost2010Prop55
280
     0
102
RTVSPost2010PropOp55
 70
     1
102
RTVSPost2010Prop56
140
1.0
102
RTVSPost2010PropOp56
 70
     1
102
RTVSPost2010Prop57
140
1.0
102
RTVSPost2010PropOp57
 70
     1
  0
XRECORD
  5
59A
102
{ACAD_REACTORS
330
599
102
}
330
599
100
AcDbXrecord
280
     1
102
RTVSPost2010Prop28
280
     0
102
RTVSPost2010PropOp28
 70
     1
102
RTVSPost2010Prop29
280
     1
102
RTVSPost2010PropOp29
 70
     1
102
RTVSPost2010Prop30
280
     1
102
RTVSPost2010PropOp30
 70
     1
102
RTVSPost2010Prop31
280
     0
102
RTVSPost2010PropOp31
 70
     1
102
RTVSPost2010Prop32
280
     0
102
RTVSPost2010PropOp32
 70
     1
102
RTVSPost2010Prop33
280
     0
102
RTVSPost2010PropOp33
 70
     1
102
RTVSPost2010Prop34
280
     0
102
RTVSPost2010PropOp34
 70
     1
102
RTVSPost2010Prop35
280
     0
102
RTVSPost2010PropOp35
 70
     1
102
RTVSPost2010Prop36
280
     0
102
RTVSPost2010PropOp36
 70
     1
102
RTVSPost2010Prop37
 90
       50
102
RTVSPost2010PropOp37
 70
     1
102
RTVSPost2010Prop38
140
0.0
102
RTVSPost2010PropOp38
 70
     1
102
RTVSPost2010Prop39
140
1.0
102
RTVSPost2010PropOp39
 70
     1
102
RTVSPost2010Prop40
 90
        0
102
RTVSPost2010PropOp40
 70
     1
102
RTVSPost2010Prop41ColorIndex
 90
       18
102
RTVSPost2010Prop41ColorRGB
 90
        0
102
RTVSPost2010PropOp41
 70
     1
102
RTVSPost2010Prop42
 90
       50
102
RTVSPost2010PropOp42
 70
     1
102
RTVSPost2010Prop43
 90
        3
102
RTVSPost2010PropOp43
 70
     1
102
RTVSPost2010Prop44ColorIndex
 90
        5
102
RTVSPost2010Prop44ColorRGB
 90
      255
102
RTVSPost2010PropOp44
 70
     1
102
RTVSPost2010Prop45
280
     0
102
RTVSPost2010PropOp45
 70
     1
102
RTVSPost2010Prop46
 90
       50
102
RTVSPost2010PropOp46
 70
     1
102
RTVSPost2010Prop47
 90
       50
102
RTVSPost2010PropOp47
 70
     1
102
RTVSPost2010Prop48
 90
       50
102
RTVSPost2010PropOp48
 70
     1
102
RTVSPost2010Prop49
280
     0
102
RTVSPost2010PropOp49
 70
     1
102
RTVSPost2010Prop50
 90
       50
102
RTVSPost2010PropOp50
 70
     1
102
RTVSPost2010Prop51ColorIndex
 90
      256
102
RTVSPost2010Prop51ColorRGB
 90
-16777216
102
RTVSPost2010PropOp51
 70
     0
102
RTVSPost2010Prop52
140
1.0
102
RTVSPost2010PropOp52
 70
     0
102
RTVSPost2010Prop53
 90
        2
102
RTVSPost2010PropOp53
 70
     1
102
RTVSPost2010Prop54
  1
strokes_ogs.tif
102
RTVSPost2010PropOp54
 70
     1
102
RTVSPost2010Prop55
280
     0
102
RTVSPost2010PropOp55
 70
     1
102
RTVSPost2010Prop56
140
1.0
102
RTVSPost2010PropOp56
 70
     1
102
RTVSPost2010Prop57
140
1.0
102
RTVSPost2010PropOp57
 70
     1
  0
XRECORD
  5
59C
102
{ACAD_REACTORS
330
59B
102
}
330
59B
100
AcDbXrecord
280
     1
102
RTVSPost2010Prop28
280
     0
102
RTVSPost2010PropOp28
 70
     1
102
RTVSPost2010Prop29
280
     1
102
RTVSPost2010PropOp29
 70
     1
102
RTVSPost2010Prop30
280
     1
102
RTVSPost2010PropOp30
 70
     1
102
RTVSPost2010Prop31
280
     0
102
RTVSPost2010PropOp31
 70
     1
102
RTVSPost2010Prop32
280
     0
102
RTVSPost2010PropOp32
 70
     1
102
RTVSPost2010Prop33
280
     0
102
RTVSPost2010PropOp33
 70
     1
102
RTVSPost2010Prop34
280
     0
102
RTVSPost2010PropOp34
 70
     1
102
RTVSPost2010Prop35
280
     0
102
RTVSPost2010PropOp35
 70
     1
102
RTVSPost2010Prop36
280
     0
102
RTVSPost2010PropOp36
 70
     1
102
RTVSPost2010Prop37
 90
       50
102
RTVSPost2010PropOp37
 70
     1
102
RTVSPost2010Prop38
140
0.0
102
RTVSPost2010PropOp38
 70
     1
102
RTVSPost2010Prop39
140
1.0
102
RTVSPost2010PropOp39
 70
     1
102
RTVSPost2010Prop40
 90
        0
102
RTVSPost2010PropOp40
 70
     1
102
RTVSPost2010Prop41ColorIndex
 90
       18
102
RTVSPost2010Prop41ColorRGB
 90
        0
102
RTVSPost2010PropOp41
 70
     1
102
RTVSPost2010Prop42
 90
       50
102
RTVSPost2010PropOp42
 70
     1
102
RTVSPost2010Prop43
 90
        3
102
RTVSPost2010PropOp43
 70
     1
102
RTVSPost2010Prop44ColorIndex
 90
        5
102
RTVSPost2010Prop44ColorRGB
 90
      255
102
RTVSPost2010PropOp44
 70
     1
102
RTVSPost2010Prop45
280
     0
102
RTVSPost2010PropOp45
 70
     1
102
RTVSPost2010Prop46
 90
       50
102
RTVSPost2010PropOp46
 70
     1
102
RTVSPost2010Prop47
 90
       50
102
RTVSPost2010PropOp47
 70
     1
102
RTVSPost2010Prop48
 90
       50
102
RTVSPost2010PropOp48
 70
     1
102
RTVSPost2010Prop49
280
     0
102
RTVSPost2010PropOp49
 70
     1
102
RTVSPost2010Prop50
 90
       50
102
RTVSPost2010PropOp50
 70
     1
102
RTVSPost2010Prop51ColorIndex
 90
      256
102
RTVSPost2010Prop51ColorRGB
 90
-16777216
102
RTVSPost2010PropOp51
 70
     0
102
RTVSPost2010Prop52
140
1.0
102
RTVSPost2010PropOp52
 70
     0
102
RTVSPost2010Prop53
 90
        2
102
RTVSPost2010PropOp53
 70
     1
102
RTVSPost2010Prop54
  1
strokes_ogs.tif
102
RTVSPost2010PropOp54
 70
     1
102
RTVSPost2010Prop55
280
     0
102
RTVSPost2010PropOp55
 70
     1
102
RTVSPost2010Prop56
140
1.0
102
RTVSPost2010PropOp56
 70
     1
102
RTVSPost2010Prop57
140
1.0
102
RTVSPost2010PropOp57
 70
     1
  0
XRECORD
  5
58C
102
{ACAD_REACTORS
330
58B
102
}
330
58B
100
AcDbXrecord
280
     1
102
RTVSPost2010Prop28
280
     0
102
RTVSPost2010PropOp28
 70
     1
102
RTVSPost2010Prop29
280
     1
102
RTVSPost2010PropOp29
 70
     1
102
RTVSPost2010Prop30
280
     1
102
RTVSPost2010PropOp30
 70
     1
102
RTVSPost2010Prop31
280
     0
102
RTVSPost2010PropOp31
 70
     1
102
RTVSPost2010Prop32
280
     0
102
RTVSPost2010PropOp32
 70
     1
102
RTVSPost2010Prop33
280
     0
102
RTVSPost2010PropOp33
 70
     1
102
RTVSPost2010Prop34
280
     0
102
RTVSPost2010PropOp34
 70
     1
102
RTVSPost2010Prop35
280
     0
102
RTVSPost2010PropOp35
 70
     1
102
RTVSPost2010Prop36
280
     0
102
RTVSPost2010PropOp36
 70
     1
102
RTVSPost2010Prop37
 90
       50
102
RTVSPost2010PropOp37
 70
     1
102
RTVSPost2010Prop38
140
0.0
102
RTVSPost2010PropOp38
 70
     1
102
RTVSPost2010Prop39
140
1.0
102
RTVSPost2010PropOp39
 70
     1
102
RTVSPost2010Prop40
 90
        0
102
RTVSPost2010PropOp40
 70
     1
102
RTVSPost2010Prop41ColorIndex
 90
       18
102
RTVSPost2010Prop41ColorRGB
 90
        0
102
RTVSPost2010PropOp41
 70
     1
102
RTVSPost2010Prop42
 90
       50
102
RTVSPost2010PropOp42
 70
     1
102
RTVSPost2010Prop43
 90
        3
102
RTVSPost2010PropOp43
 70
     1
102
RTVSPost2010Prop44ColorIndex
 90
        5
102
RTVSPost2010Prop44ColorRGB
 90
      255
102
RTVSPost2010PropOp44
 70
     1
102
RTVSPost2010Prop45
280
     0
102
RTVSPost2010PropOp45
 70
     1
102
RTVSPost2010Prop46
 90
       50
102
RTVSPost2010PropOp46
 70
     1
102
RTVSPost2010Prop47
 90
       50
102
RTVSPost2010PropOp47
 70
     1
102
RTVSPost2010Prop48
 90
       50
102
RTVSPost2010PropOp48
 70
     1
102
RTVSPost2010Prop49
280
     0
102
RTVSPost2010PropOp49
 70
     1
102
RTVSPost2010Prop50
 90
       50
102
RTVSPost2010PropOp50
 70
     1
102
RTVSPost2010Prop51ColorIndex
 90
      256
102
RTVSPost2010Prop51ColorRGB
 90
-16777216
102
RTVSPost2010PropOp51
 70
     0
102
RTVSPost2010Prop52
140
1.0
102
RTVSPost2010PropOp52
 70
     0
102
RTVSPost2010Prop53
 90
        2
102
RTVSPost2010PropOp53
 70
     1
102
RTVSPost2010Prop54
  1
strokes_ogs.tif
102
RTVSPost2010PropOp54
 70
     1
102
RTVSPost2010Prop55
280
     0
102
RTVSPost2010PropOp55
 70
     1
102
RTVSPost2010Prop56
140
1.0
102
RTVSPost2010PropOp56
 70
     1
102
RTVSPost2010Prop57
140
1.0
102
RTVSPost2010PropOp57
 70
     1
  0
XRECORD
  5
57E
102
{ACAD_REACTORS
330
57D
102
}
330
57D
100
AcDbXrecord
280
     1
102
RTVSPost2010Prop28
280
     0
102
RTVSPost2010PropOp28
 70
     1
102
RTVSPost2010Prop29
280
     1
102
RTVSPost2010PropOp29
 70
     1
102
RTVSPost2010Prop30
280
     1
102
RTVSPost2010PropOp30
 70
     1
102
RTVSPost2010Prop31
280
     0
102
RTVSPost2010PropOp31
 70
     1
102
RTVSPost2010Prop32
280
     0
102
RTVSPost2010PropOp32
 70
     1
102
RTVSPost2010Prop33
280
     0
102
RTVSPost2010PropOp33
 70
     1
102
RTVSPost2010Prop34
280
     0
102
RTVSPost2010PropOp34
 70
     1
102
RTVSPost2010Prop35
280
     0
102
RTVSPost2010PropOp35
 70
     1
102
RTVSPost2010Prop36
280
     0
102
RTVSPost2010PropOp36
 70
     1
102
RTVSPost2010Prop37
 90
       50
102
RTVSPost2010PropOp37
 70
     1
102
RTVSPost2010Prop38
140
0.0
102
RTVSPost2010PropOp38
 70
     1
102
RTVSPost2010Prop39
140
1.0
102
RTVSPost2010PropOp39
 70
     1
102
RTVSPost2010Prop40
 90
        0
102
RTVSPost2010PropOp40
 70
     1
102
RTVSPost2010Prop41ColorIndex
 90
       18
102
RTVSPost2010Prop41ColorRGB
 90
        0
102
RTVSPost2010PropOp41
 70
     1
102
RTVSPost2010Prop42
 90
       50
102
RTVSPost2010PropOp42
 70
     1
102
RTVSPost2010Prop43
 90
        3
102
RTVSPost2010PropOp43
 70
     1
102
RTVSPost2010Prop44ColorIndex
 90
        5
102
RTVSPost2010Prop44ColorRGB
 90
      255
102
RTVSPost2010PropOp44
 70
     1
102
RTVSPost2010Prop45
280
     0
102
RTVSPost2010PropOp45
 70
     1
102
RTVSPost2010Prop46
 90
       50
102
RTVSPost2010PropOp46
 70
     1
102
RTVSPost2010Prop47
 90
       50
102
RTVSPost2010PropOp47
 70
     1
102
RTVSPost2010Prop48
 90
       50
102
RTVSPost2010PropOp48
 70
     1
102
RTVSPost2010Prop49
280
     0
102
RTVSPost2010PropOp49
 70
     1
102
RTVSPost2010Prop50
 90
       50
102
RTVSPost2010PropOp50
 70
     1
102
RTVSPost2010Prop51ColorIndex
 90
      256
102
RTVSPost2010Prop51ColorRGB
 90
-16777216
102
RTVSPost2010PropOp51
 70
     0
102
RTVSPost2010Prop52
140
1.0
102
RTVSPost2010PropOp52
 70
     0
102
RTVSPost2010Prop53
 90
        2
102
RTVSPost2010PropOp53
 70
     1
102
RTVSPost2010Prop54
  1
strokes_ogs.tif
102
RTVSPost2010PropOp54
 70
     1
102
RTVSPost2010Prop55
280
     0
102
RTVSPost2010PropOp55
 70
     1
102
RTVSPost2010Prop56
140
1.0
102
RTVSPost2010PropOp56
 70
     1
102
RTVSPost2010Prop57
140
1.0
102
RTVSPost2010PropOp57
 70
     1
  0
XRECORD
  5
59E
102
{ACAD_REACTORS
330
59D
102
}
330
59D
100
AcDbXrecord
280
     1
102
RTVSPost2010Prop28
280
     0
102
RTVSPost2010PropOp28
 70
     1
102
RTVSPost2010Prop29
280
     1
102
RTVSPost2010PropOp29
 70
     1
102
RTVSPost2010Prop30
280
     1
102
RTVSPost2010PropOp30
 70
     1
102
RTVSPost2010Prop31
280
     0
102
RTVSPost2010PropOp31
 70
     1
102
RTVSPost2010Prop32
280
     0
102
RTVSPost2010PropOp32
 70
     1
102
RTVSPost2010Prop33
280
     0
102
RTVSPost2010PropOp33
 70
     1
102
RTVSPost2010Prop34
280
     0
102
RTVSPost2010PropOp34
 70
     1
102
RTVSPost2010Prop35
280
     0
102
RTVSPost2010PropOp35
 70
     1
102
RTVSPost2010Prop36
280
     0
102
RTVSPost2010PropOp36
 70
     1
102
RTVSPost2010Prop37
 90
       50
102
RTVSPost2010PropOp37
 70
     1
102
RTVSPost2010Prop38
140
0.0
102
RTVSPost2010PropOp38
 70
     1
102
RTVSPost2010Prop39
140
1.0
102
RTVSPost2010PropOp39
 70
     1
102
RTVSPost2010Prop40
 90
        0
102
RTVSPost2010PropOp40
 70
     1
102
RTVSPost2010Prop41ColorIndex
 90
       18
102
RTVSPost2010Prop41ColorRGB
 90
        0
102
RTVSPost2010PropOp41
 70
     1
102
RTVSPost2010Prop42
 90
       50
102
RTVSPost2010PropOp42
 70
     1
102
RTVSPost2010Prop43
 90
        3
102
RTVSPost2010PropOp43
 70
     1
102
RTVSPost2010Prop44ColorIndex
 90
        5
102
RTVSPost2010Prop44ColorRGB
 90
      255
102
RTVSPost2010PropOp44
 70
     1
102
RTVSPost2010Prop45
280
     0
102
RTVSPost2010PropOp45
 70
     1
102
RTVSPost2010Prop46
 90
       50
102
RTVSPost2010PropOp46
 70
     1
102
RTVSPost2010Prop47
 90
       50
102
RTVSPost2010PropOp47
 70
     1
102
RTVSPost2010Prop48
 90
       50
102
RTVSPost2010PropOp48
 70
     1
102
RTVSPost2010Prop49
280
     0
102
RTVSPost2010PropOp49
 70
     1
102
RTVSPost2010Prop50
 90
       50
102
RTVSPost2010PropOp50
 70
     1
102
RTVSPost2010Prop51ColorIndex
 90
      256
102
RTVSPost2010Prop51ColorRGB
 90
-16777216
102
RTVSPost2010PropOp51
 70
     0
102
RTVSPost2010Prop52
140
1.0
102
RTVSPost2010PropOp52
 70
     0
102
RTVSPost2010Prop53
 90
        2
102
RTVSPost2010PropOp53
 70
     1
102
RTVSPost2010Prop54
  1
strokes_ogs.tif
102
RTVSPost2010PropOp54
 70
     1
102
RTVSPost2010Prop55
280
     0
102
RTVSPost2010PropOp55
 70
     1
102
RTVSPost2010Prop56
140
1.0
102
RTVSPost2010PropOp56
 70
     1
102
RTVSPost2010Prop57
140
1.0
102
RTVSPost2010PropOp57
 70
     1
  0
ENDSEC
  0
EOF
