  0
SECTION
  2
HEADER
  9
$ACADVER
  1
AC1024
  9
$ACADMAINTVER
 70
     6
  9
$DWGCODEPAGE
  3
ANSI_1252
  9
$INSBASE
 10
0.0
 20
0.0
 30
0.0
  9
$EXTMIN
 10
0.0
 20
0.0
 30
0.0
  9
$EXTMAX
 10
2500.0
 20
3200.0
 30
0.0
  9
$LIMMIN
 10
0.0
 20
0.0
  9
$LIMMAX
 10
2500.0
 20
3200.0
  9
$ORTHOMODE
 70
     0
  9
$REGENMODE
 70
     1
  9
$FILLMODE
 70
     1
  9
$QTEXTMODE
 70
     0
  9
$MIRRTEXT
 70
     1
  9
$LTSCALE
 40
208.592593
  9
$ATTMODE
 70
     1
  9
$TEXTSIZE
 40
0.2
  9
$TRACEWID
 40
0.05
  9
$TEXTSTYLE
  7
STANDARD
  9
$CLAYER
  8
0
  9
$CELTYPE
  6
BYLAYER
  9
$CECOLOR
 62
   256
  9
$CELTSCALE
 40
1.0
  9
$DISPSILH
 70
     0
  9
$DIMSCALE
 40
1.0
  9
$DIMASZ
 40
2.5
  9
$DIMEXO
 40
0.75
  9
$DIMDLI
 40
144.118519
  9
$DIMRND
 40
0.0
  9
$DIMDLE
 40
0.0
  9
$DIMEXE
 40
0.75
  9
$DIMTP
 40
0.01
  9
$DIMTM
 40
0.01
  9
$DIMTXT
 40
3.0
  9
$DIMCEN
 40
34.133333
  9
$DIMTSZ
 40
0.0
  9
$DIMTOL
 70
     1
  9
$DIMLIM
 70
     0
  9
$DIMTIH
 70
     1
  9
$DIMTOH
 70
     1
  9
$DIMSE1
 70
     0
  9
$DIMSE2
 70
     0
  9
$DIMTAD
 70
     0
  9
$DIMZIN
 70
     0
  9
$DIMBLK
  1
CLOSED
  9
$DIMASO
 70
     1
  9
$DIMSHO
 70
     1
  9
$DIMPOST
  1

  9
$DIMAPOST
  1

  9
$DIMALT
 70
     0
  9
$DIMALTD
 70
     2
  9
$DIMALTF
 40
25.4
  9
$DIMLFAC
 40
1.0
  9
$DIMTOFL
 70
     0
  9
$DIMTVP
 40
0.0
  9
$DIMTIX
 70
     0
  9
$DIMSOXD
 70
     0
  9
$DIMSAH
 70
     0
  9
$DIMBLK1
  1

  9
$DIMBLK2
  1

  9
$DIMSTYLE
  2
STANDARD
  9
$DIMCLRD
 70
     0
  9
$DIMCLRE
 70
     0
  9
$DIMCLRT
 70
     0
  9
$DIMTFAC
 40
1.0
  9
$DIMGAP
 40
0.625
  9
$DIMJUST
 70
     0
  9
$DIMSD1
 70
     0
  9
$DIMSD2
 70
     0
  9
$DIMTOLJ
 70
     1
  9
$DIMTZIN
 70
     0
  9
$DIMALTZ
 70
     0
  9
$DIMALTTZ
 70
     0
  9
$DIMUPT
 70
     0
  9
$DIMDEC
 70
     4
  9
$DIMTDEC
 70
     4
  9
$DIMALTU
 70
     2
  9
$DIMALTTD
 70
     2
  9
$DIMTXSTY
  7
STANDARD
  9
$DIMAUNIT
 70
     0
  9
$DIMADEC
 70
     0
  9
$DIMALTRND
 40
0.0
  9
$DIMAZIN
 70
     0
  9
$DIMDSEP
 70
    44
  9
$DIMATFIT
 70
     3
  9
$DIMFRAC
 70
     0
  9
$DIMLDRBLK
  1

  9
$DIMLUNIT
 70
     2
  9
$DIMLWD
 70
    -2
  9
$DIMLWE
 70
    -2
  9
$DIMTMOVE
 70
     0
  9
$DIMFXL
 40
1.0
  9
$DIMFXLON
 70
     0
  9
$DIMJOGANG
 40
0.785398
  9
$DIMTFILL
 70
     0
  9
$DIMTFILLCLR
 70
     0
  9
$DIMARCSYM
 70
     0
  9
$DIMLTYPE
  6

  9
$DIMLTEX1
  6

  9
$DIMLTEX2
  6

  9
$DIMTXTDIRECTION
 70
     0
  9
$LUNITS
 70
     2
  9
$LUPREC
 70
     4
  9
$SKETCHINC
 40
0.1
  9
$FILLETRAD
 40
0.5
  9
$AUNITS
 70
     0
  9
$AUPREC
 70
     0
  9
$MENU
  1
.
  9
$ELEVATION
 40
0.0
  9
$PELEVATION
 40
0.0
  9
$THICKNESS
 40
0.0
  9
$LIMCHECK
 70
     0
  9
$CHAMFERA
 40
0.0
  9
$CHAMFERB
 40
0.0
  9
$CHAMFERC
 40
0.0
  9
$CHAMFERD
 40
0.0
  9
$SKPOLY
 70
     0
  9
$TDCREATE
 40
2447893.083333333
  9
$TDUCREATE
 40
0.0
  9
$TDUPDATE
 40
2459822.391758021
  9
$TDUUPDATE
 40
2459822.308424687
  9
$TDINDWG
 40
0.0
  9
$TDUSRTIMER
 40
0.0
  9
$USRTIMER
 70
     1
  9
$ANGBASE
 50
0.0
  9
$ANGDIR
 70
     0
  9
$PDMODE
 70
     3
  9
$PDSIZE
 40
0.3125
  9
$PLINEWID
 40
0.0
  9
$SPLFRAME
 70
     0
  9
$SPLINETYPE
 70
     6
  9
$SPLINESEGS
 70
     8
  9
$HANDSEED
  5
58F
  9
$SURFTAB1
 70
     6
  9
$SURFTAB2
 70
     6
  9
$SURFTYPE
 70
     6
  9
$SURFU
 70
     6
  9
$SURFV
 70
     6
  9
$UCSBASE
  2

  9
$UCSNAME
  2

  9
$UCSORG
 10
0.0
 20
0.0
 30
0.0
  9
$UCSXDIR
 10
1.0
 20
0.0
 30
0.0
  9
$UCSYDIR
 10
0.0
 20
1.0
 30
0.0
  9
$UCSORTHOREF
  2

  9
$UCSORTHOVIEW
 70
     0
  9
$UCSORGTOP
 10
0.0
 20
0.0
 30
0.0
  9
$UCSORGBOTTOM
 10
0.0
 20
0.0
 30
0.0
  9
$UCSORGLEFT
 10
0.0
 20
0.0
 30
0.0
  9
$UCSORGRIGHT
 10
0.0
 20
0.0
 30
0.0
  9
$UCSORGFRONT
 10
0.0
 20
0.0
 30
0.0
  9
$UCSORGBACK
 10
0.0
 20
0.0
 30
0.0
  9
$PUCSBASE
  2

  9
$PUCSNAME
  2

  9
$PUCSORG
 10
0.0
 20
0.0
 30
0.0
  9
$PUCSXDIR
 10
1.0
 20
0.0
 30
0.0
  9
$PUCSYDIR
 10
0.0
 20
1.0
 30
0.0
  9
$PUCSORTHOREF
  2

  9
$PUCSORTHOVIEW
 70
     0
  9
$PUCSORGTOP
 10
0.0
 20
0.0
 30
0.0
  9
$PUCSORGBOTTOM
 10
0.0
 20
0.0
 30
0.0
  9
$PUCSORGLEFT
 10
0.0
 20
0.0
 30
0.0
  9
$PUCSORGRIGHT
 10
0.0
 20
0.0
 30
0.0
  9
$PUCSORGFRONT
 10
0.0
 20
0.0
 30
0.0
  9
$PUCSORGBACK
 10
0.0
 20
0.0
 30
0.0
  9
$USERI1
 70
     0
  9
$USERI2
 70
     0
  9
$USERI3
 70
     0
  9
$USERI4
 70
     0
  9
$USERI5
 70
     0
  9
$USERR1
 40
0.0
  9
$USERR2
 40
0.0
  9
$USERR3
 40
0.0
  9
$USERR4
 40
0.0
  9
$USERR5
 40
0.0
  9
$WORLDVIEW
 70
     1
  9
$SHADEDGE
 70
     3
  9
$SHADEDIF
 70
    70
  9
$TILEMODE
 70
     1
  9
$MAXACTVP
 70
    64
  9
$PINSBASE
 10
0.0
 20
0.0
 30
0.0
  9
$PLIMCHECK
 70
     0
  9
$PEXTMIN
 10
1.000000E+20
 20
1.000000E+20
 30
1.000000E+20
  9
$PEXTMAX
 10
-1.000000E+20
 20
-1.000000E+20
 30
-1.000000E+20
  9
$PLIMMIN
 10
0.0
 20
0.0
  9
$PLIMMAX
 10
12.0
 20
9.0
  9
$UNITMODE
 70
     0
  9
$VISRETAIN
 70
     1
  9
$PLINEGEN
 70
     0
  9
$PSLTSCALE
 70
     0
  9
$TREEDEPTH
 70
  3020
  9
$CMLSTYLE
  2

  9
$CMLJUST
 70
     0
  9
$CMLSCALE
 40
1.0
  9
$PROXYGRAPHICS
 70
     1
  9
$MEASUREMENT
 70
     1
  9
$CELWEIGHT
370
    -1
  9
$ENDCAPS
280
     0
  9
$JOINSTYLE
280
     0
  9
$LWDISPLAY
290
     0
  9
$INSUNITS
 70
     4
  9
$HYPERLINKBASE
  1

  9
$STYLESHEET
  1

  9
$XEDIT
290
     1
  9
$CEPSNTYPE
380
     0
  9
$PSTYLEMODE
290
     1
  9
$FINGERPRINTGUID
  2
{7197B585-9C67-4776-AB44-5AFC61E1BA8E}
  9
$VERSIONGUID
  2
{FAEB1C32-E019-11D5-929B-00C0DF256EC4}
  9
$EXTNAMES
290
     1
  9
$PSVPSCALE
 40
0.0
  9
$OLESTARTUP
290
     0
  9
$SORTENTS
280
   127
  9
$INDEXCTL
280
     0
  9
$HIDETEXT
280
     1
  9
$XCLIPFRAME
280
     2
  9
$HALOGAP
280
     0
  9
$OBSCOLOR
 70
   257
  9
$OBSLTYPE
280
     0
  9
$INTERSECTIONDISPLAY
280
     0
  9
$INTERSECTIONCOLOR
 70
   257
  9
$DIMASSOC
280
     2
  9
$PROJECTNAME
  1

  9
$CAMERADISPLAY
290
     0
  9
$LENSLENGTH
 40
50.0
  9
$CAMERAHEIGHT
 40
0.0
  9
$STEPSPERSEC
 40
2.0
  9
$STEPSIZE
 40
6.0
  9
$3DDWFPREC
 40
2.0
  9
$PSOLWIDTH
 40
0.25
  9
$PSOLHEIGHT
 40
4.0
  9
$LOFTANG1
 40
1.570796
  9
$LOFTANG2
 40
1.570796
  9
$LOFTMAG1
 40
0.0
  9
$LOFTMAG2
 40
0.0
  9
$LOFTPARAM
 70
     7
  9
$LOFTNORMALS
280
     1
  9
$LATITUDE
 40
37.795
  9
$LONGITUDE
 40
-122.394
  9
$NORTHDIRECTION
 40
0.0
  9
$TIMEZONE
 70
 -8000
  9
$LIGHTGLYPHDISPLAY
280
     1
  9
$TILEMODELIGHTSYNCH
280
     1
  9
$SOLIDHIST
280
     1
  9
$SHOWHIST
280
     1
  9
$DWFFRAME
280
     2
  9
$DGNFRAME
280
     2
  9
$REALWORLDSCALE
290
     1
  9
$INTERFERECOLOR
 62
   256
  9
$CSHADOW
280
     0
  9
$SHADOWPLANELOCATION
 40
0.0
  0
ENDSEC
  0
SECTION
  2
CLASSES
  0
CLASS
  1
ACDBDICTIONARYWDFLT
  2
AcDbDictionaryWithDefault
  3
ObjectDBX Classes
 90
        0
 91
        6
280
     0
281
     0
  0
CLASS
  1
ACDBPLACEHOLDER
  2
AcDbPlaceHolder
  3
ObjectDBX Classes
 90
        0
 91
        1
280
     0
281
     0
  0
CLASS
  1
LAYOUT
  2
AcDbLayout
  3
ObjectDBX Classes
 90
        0
 91
        1
280
     0
281
     0
  0
CLASS
  1
TABLESTYLE
  2
AcDbTableStyle
  3
ObjectDBX Classes
 90
     4095
 91
        5
280
     0
281
     0
  0
CLASS
  1
ACAD_TABLE
  2
AcDbTable
  3
ObjectDBX Classes
 90
     1025
 91
        5
280
     0
281
     1
  0
CLASS
  1
SCALE
  2
AcDbScale
  3
ObjectDBX Classes
 90
     1153
 91
        5
280
     0
281
     0
  0
CLASS
  1
TABLEGEOMETRY
  2
AcDbTableGeometry
  3
ObjectDBX Classes
 90
     1152
 91
        4
280
     0
281
     0
  0
CLASS
  1
VISUALSTYLE
  2
AcDbVisualStyle
  3
ObjectDBX Classes
 90
     4095
 91
        5
280
     0
281
     0
  0
CLASS
  1
MATERIAL
  2
AcDbMaterial
  3
ObjectDBX Classes
 90
     1153
 91
        5
280
     0
281
     0
  0
CLASS
  1
SUN
  2
AcDbSun
  3
SCENEOE
 90
     1153
 91
        5
280
     0
281
     0
  0
CLASS
  1
CSACDOCUMENTOPTIONS
  2
CDocDataContainer
  3
"DERU003_CSAPP"
 90
     4095
 91
        4
280
     0
281
     0
  0
CLASS
  1
TABLECONTENT
  2
AcDbTableContent
  3
ObjectDBX Classes
 90
     1152
 91
        4
280
     0
281
     0
  0
CLASS
  1
DICTIONARYVAR
  2
AcDbDictionaryVar
  3
ObjectDBX Classes
 90
        0
 91
        4
280
     0
281
     0
  0
CLASS
  1
CELLSTYLEMAP
  2
AcDbCellStyleMap
  3
ObjectDBX Classes
 90
     1152
 91
        4
280
     0
281
     0
  0
ENDSEC
  0
SECTION
  2
TABLES
  0
TABLE
  2
VPORT
  5
8
330
0
100
AcDbSymbolTable
 70
     1
  0
VPORT
  5
1F4
330
8
100
AcDbSymbolTableRecord
100
AcDbViewportTableRecord
  2
*ACTIVE
 70
     0
 10
0.0
 20
0.0
 11
1.0
 21
1.0
 12
1250.0
 22
1600.0
 13
0.0
 23
0.0
 14
1.0
 24
1.0
 15
0.0
 25
0.0
 16
0.0
 26
0.0
 36
1.0
 17
0.0
 27
0.0
 37
0.0
 40
3200.0
 41
2.176471
 42
50.0
 43
0.0
 44
0.0
 50
0.0
 51
0.0
 71
    16
 72
   100
 73
     1
 74
     1
 75
     0
 76
     0
 77
     0
 78
     0
281
     0
 65
     1
110
0.0
120
0.0
130
0.0
111
1.0
121
0.0
131
0.0
112
0.0
122
1.0
132
0.0
 79
     0
146
0.0
 60
     3
 61
     5
292
     1
282
     1
141
0.0
142
0.0
 63
   256
361
54A
  0
ENDTAB
  0
TABLE
  2
LTYPE
  5
5
330
0
100
AcDbSymbolTable
 70
     6
  0
LTYPE
  5
14
330
5
100
AcDbSymbolTableRecord
100
AcDbLinetypeTableRecord
  2
BYBLOCK
 70
     0
  3

 72
    65
 73
     0
 40
0.0
  0
LTYPE
  5
15
330
5
100
AcDbSymbolTableRecord
100
AcDbLinetypeTableRecord
  2
BYLAYER
 70
     0
  3

 72
    65
 73
     0
 40
0.0
  0
LTYPE
  5
16
330
5
100
AcDbSymbolTableRecord
100
AcDbLinetypeTableRecord
  2
CONTINUOUS
 70
     0
  3
Solid line
 72
    65
 73
     0
 40
0.0
  0
LTYPE
  5
1F5
330
5
100
AcDbSymbolTableRecord
100
AcDbLinetypeTableRecord
  2
CENTER
 70
     0
  3
____ _ ____ _ ____ _ ____ _ ____ _ ____ _ ____
 72
    65
 73
     4
 40
0.6
 49
0.375
 74
     0
 49
-0.075
 74
     0
 49
0.075
 74
     0
 49
-0.075
 74
     0
  0
LTYPE
  5
1F6
330
5
100
AcDbSymbolTableRecord
100
AcDbLinetypeTableRecord
  2
HIDDEN
 70
     0
  3
- - - - - - - - - - - - - - - - - - - -
 72
    65
 73
     2
 40
0.2
 49
0.1
 74
     0
 49
-0.1
 74
     0
  0
LTYPE
  5
1F7
330
5
100
AcDbSymbolTableRecord
100
AcDbLinetypeTableRecord
  2
PHANTOM
 70
     0
  3
_____ _ _ _____ _ _ _____ _ _ _____
 72
    65
 73
     6
 40
0.8
 49
0.45
 74
     0
 49
-0.05
 74
     0
 49
0.1
 74
     0
 49
-0.05
 74
     0
 49
0.1
 74
     0
 49
-0.05
 74
     0
  0
LTYPE
  5
1F8
330
5
100
AcDbSymbolTableRecord
100
AcDbLinetypeTableRecord
  2
DOT
 70
     0
  3
. . . . . . . . . . . . . . . . . . . .
 72
    65
 73
     2
 40
0.2
 49
0.1
 74
     0
 49
-0.1
 74
     0
  0
LTYPE
  5
1F9
330
5
100
AcDbSymbolTableRecord
100
AcDbLinetypeTableRecord
  2
DASHED
 70
     0
  3
- - - - - - - - - - - - - - - - - - - -
 72
    65
 73
     2
 40
0.2
 49
0.1
 74
     0
 49
-0.1
 74
     0
  0
ENDTAB
  0
TABLE
  2
LAYER
  5
2
330
0
100
AcDbSymbolTable
 70
    12
  0
LAYER
  5
10
330
2
100
AcDbSymbolTableRecord
100
AcDbLayerTableRecord
  2
0
 70
     0
 62
     7
  6
CONTINUOUS
370
    -3
390
F
347
544
  0
LAYER
  5
1FA
330
2
100
AcDbSymbolTableRecord
100
AcDbLayerTableRecord
  2
DEFAULT_1
 70
     0
 62
     7
  6
CENTER
370
    -3
390
F
347
544
  0
LAYER
  5
1FB
330
2
100
AcDbSymbolTableRecord
100
AcDbLayerTableRecord
  2
DEFAULT_2
 70
     0
 62
     8
  6
HIDDEN
370
    -3
390
F
347
544
  0
LAYER
  5
1FC
330
2
100
AcDbSymbolTableRecord
100
AcDbLayerTableRecord
  2
DEFAULT_3
 70
     0
 62
     7
  6
PHANTOM
370
    -3
390
F
347
544
  0
LAYER
  5
1FD
330
2
100
AcDbSymbolTableRecord
100
AcDbLayerTableRecord
  2
1_ALL_PLANES
 70
     0
 62
     7
  6
CONTINUOUS
370
    -3
390
F
347
544
  0
LAYER
  5
1FE
330
2
100
AcDbSymbolTableRecord
100
AcDbLayerTableRecord
  2
2_ALL_CSYS
 70
     0
 62
     7
  6
CONTINUOUS
370
    -3
390
F
347
544
  0
LAYER
  5
1FF
330
2
100
AcDbSymbolTableRecord
100
AcDbLayerTableRecord
  2
3_ALL_AXES
 70
     0
 62
     7
  6
CONTINUOUS
370
    -3
390
F
347
544
  0
LAYER
  5
200
330
2
100
AcDbSymbolTableRecord
100
AcDbLayerTableRecord
  2
4_ALL_POINTS
 70
     0
 62
     7
  6
CONTINUOUS
370
    -3
390
F
347
544
  0
LAYER
  5
201
330
2
100
AcDbSymbolTableRecord
100
AcDbLayerTableRecord
  2
5_ALL_CURVES
 70
     0
 62
     7
  6
CONTINUOUS
370
    -3
390
F
347
544
  0
LAYER
  5
202
330
2
100
AcDbSymbolTableRecord
100
AcDbLayerTableRecord
  2
6_ALL_SURFS
 70
     0
 62
     7
  6
CONTINUOUS
370
    -3
390
F
347
544
  0
LAYER
  5
203
330
2
100
AcDbSymbolTableRecord
100
AcDbLayerTableRecord
  2
7_ALL_FEATURES
 70
     0
 62
     7
  6
CONTINUOUS
370
    -3
390
F
347
544
  0
LAYER
  5
204
330
2
100
AcDbSymbolTableRecord
100
AcDbLayerTableRecord
  2
9_SOLID
 70
     0
 62
     7
  6
CONTINUOUS
370
    -3
390
F
347
544
  0
ENDTAB
  0
TABLE
  2
STYLE
  5
3
330
0
100
AcDbSymbolTable
 70
     3
  0
STYLE
  5
11
330
3
100
AcDbSymbolTableRecord
100
AcDbTextStyleTableRecord
  2
STANDARD
 70
     0
 40
0.0
 41
1.0
 50
0.0
 71
     0
 42
0.2
  3
arial.ttf
  4

  0
STYLE
  5
205
330
3
100
AcDbSymbolTableRecord
100
AcDbTextStyleTableRecord
  2
TEXTSTYLE_1
 70
     0
 40
0.0
 41
0.8
 50
0.0
 71
     0
 42
0.2
  3
gdt
  4

  0
STYLE
  5
206
330
3
100
AcDbSymbolTableRecord
100
AcDbTextStyleTableRecord
  2
TEXTSTYLE_2
 70
     0
 40
0.0
 41
0.85
 50
0.0
 71
     0
 42
0.2
  3
txt
  4

  0
ENDTAB
  0
TABLE
  2
VIEW
  5
6
330
0
100
AcDbSymbolTable
 70
     0
  0
ENDTAB
  0
TABLE
  2
UCS
  5
7
330
0
100
AcDbSymbolTable
 70
     0
  0
ENDTAB
  0
TABLE
  2
APPID
  5
9
330
0
100
AcDbSymbolTable
 70
     6
  0
APPID
  5
207
330
9
100
AcDbSymbolTableRecord
100
AcDbRegAppTableRecord
  2
ACAD
 70
     0
  0
APPID
  5
545
330
9
100
AcDbSymbolTableRecord
100
AcDbRegAppTableRecord
  2
MCS_DIM1
 70
     0
  0
APPID
  5
546
330
9
100
AcDbSymbolTableRecord
100
AcDbRegAppTableRecord
  2
McsXdata5
 70
     0
  0
APPID
  5
549
330
9
100
AcDbSymbolTableRecord
100
AcDbRegAppTableRecord
  2
MCS_DOCUMENT_ID
 70
     0
  0
APPID
  5
54F
330
9
100
AcDbSymbolTableRecord
100
AcDbRegAppTableRecord
  2
MCS_PARAMS_DATA
 70
     0
  0
APPID
  5
551
330
9
100
AcDbSymbolTableRecord
100
AcDbRegAppTableRecord
  2
MC_VERSION_DATA
 70
     0
  0
ENDTAB
  0
TABLE
  2
DIMSTYLE
  5
A
330
0
100
AcDbSymbolTable
 70
     4
100
AcDbDimStyleTable
  0
DIMSTYLE
105
210
330
A
100
AcDbSymbolTableRecord
100
AcDbDimStyleTableRecord
  2
STANDARD
 70
     0
 41
2.5
 42
0.75
 44
0.75
 47
0.01
 48
0.01
 71
     1
 73
     0
 74
     0
 77
     1
 78
     8
 79
     2
140
3.0
147
0.625
171
     1
178
     0
179
     2
271
     2
272
     2
278
    44
284
     8
340
11
341
20A
342
20A
343
20A
344
20A
  0
DIMSTYLE
105
211
330
A
100
AcDbSymbolTableRecord
100
AcDbDimStyleTableRecord
  2
DIMSTYLE_1
 70
     0
 41
2.5
 42
0.75
 44
0.75
 47
0.3
 48
0.3
 73
     0
 74
     0
 77
     1
 78
     8
 79
     2
140
10.0
147
2.5
171
     1
178
     0
179
     2
271
     2
272
     2
278
    44
284
     8
340
11
341
20A
342
20A
343
20A
344
20A
  0
DIMSTYLE
105
212
330
A
100
AcDbSymbolTableRecord
100
AcDbDimStyleTableRecord
  2
DIMSTYLE_2
 70
     0
 41
2.5
 42
0.75
 44
0.75
 47
0.5
 48
0.5
 73
     0
 74
     0
 77
     1
 78
     8
 79
     2
140
10.0
147
2.5
171
     1
178
     0
179
     2
271
     2
272
     2
278
    44
284
     8
340
11
341
20A
342
20A
343
20A
344
20A
  0
DIMSTYLE
105
213
330
A
100
AcDbSymbolTableRecord
100
AcDbDimStyleTableRecord
  2
DIMSTYLE_3
 70
     0
 41
2.5
 42
0.75
 44
0.75
 47
0.8
 48
0.8
 73
     0
 74
     0
 77
     1
 78
     8
 79
     2
140
10.0
147
2.5
171
     1
178
     0
179
     2
271
     2
272
     2
278
    44
284
     8
340
11
341
20A
342
20A
343
20A
344
20A
  0
ENDTAB
  0
TABLE
  2
BLOCK_RECORD
  5
1
330
0
100
AcDbSymbolTable
 70
     6
  0
BLOCK_RECORD
  5
208
330
1
100
AcDbSymbolTableRecord
100
AcDbBlockTableRecord
  2
*Model_Space
340
4FF
 70
     0
280
     1
281
     0
  0
BLOCK_RECORD
  5
209
330
1
100
AcDbSymbolTableRecord
100
AcDbBlockTableRecord
  2
*Paper_Space
340
500
 70
     0
280
     1
281
     0
  0
BLOCK_RECORD
  5
20A
330
1
100
AcDbSymbolTableRecord
100
AcDbBlockTableRecord
  2
_CLOSED
340
0
102
{BLKREFS
331
25C
331
25D
331
265
331
266
331
26E
331
26F
102
}
 70
     0
280
     1
281
     0
  0
BLOCK_RECORD
  5
20B
330
1
100
AcDbSymbolTableRecord
100
AcDbBlockTableRecord
  2
*D1
340
0
 70
     0
280
     1
281
     0
  0
BLOCK_RECORD
  5
20C
330
1
100
AcDbSymbolTableRecord
100
AcDbBlockTableRecord
  2
*D2
340
0
 70
     0
280
     1
281
     0
  0
BLOCK_RECORD
  5
20D
330
1
100
AcDbSymbolTableRecord
100
AcDbBlockTableRecord
  2
*D3
340
0
 70
     0
280
     1
281
     0
  0
BLOCK_RECORD
  5
20E
330
1
100
AcDbSymbolTableRecord
100
AcDbBlockTableRecord
  2
LOGO2_BL0
340
0
102
{BLKREFS
331
4FC
102
}
 70
     0
280
     1
281
     0
  0
BLOCK_RECORD
  5
20F
330
1
100
AcDbSymbolTableRecord
100
AcDbBlockTableRecord
  2
*T5
340
0
102
{BLKREFS
331
4FD
102
}
 70
     0
280
     1
281
     0
  0
ENDTAB
  0
ENDSEC
  0
SECTION
  2
BLOCKS
  0
BLOCK
  5
20
330
208
100
AcDbEntity
  8
0
100
AcDbBlockBegin
  2
*Model_Space
 70
     0
 10
0.0
 20
0.0
 30
0.0
  3
*Model_Space
  1
*Model_Space
  0
ENDBLK
  5
21
330
208
100
AcDbEntity
  8
0
100
AcDbBlockEnd
  0
BLOCK
  5
1C
330
209
100
AcDbEntity
 67
     1
  8
0
100
AcDbBlockBegin
  2
*Paper_Space
 70
     0
 10
0.0
 20
0.0
 30
0.0
  3
*Paper_Space
  1
*Paper_Space
  0
ENDBLK
  5
1D
330
209
100
AcDbEntity
 67
     1
  8
0
100
AcDbBlockEnd
  0
BLOCK
  5
250
330
20A
100
AcDbEntity
  8
0
100
AcDbBlockBegin
  2
_CLOSED
 70
     0
 10
0.0
 20
0.0
 30
0.0
  3
_CLOSED
  1
_CLOSED
  0
LINE
  5
251
330
20A
100
AcDbEntity
  8
0
  6
ByBlock
 62
     0
100
AcDbLine
 10
0.0
 20
0.0
 30
0.0
 11
-1.0
 21
0.2
 31
0.0
  0
LINE
  5
252
330
20A
100
AcDbEntity
  8
0
  6
ByBlock
 62
     0
100
AcDbLine
 10
-1.0
 20
0.2
 30
0.0
 11
-1.0
 21
-0.2
 31
0.0
  0
LINE
  5
253
330
20A
100
AcDbEntity
  8
0
  6
ByBlock
 62
     0
100
AcDbLine
 10
-1.0
 20
-0.2
 30
0.0
 11
0.0
 21
0.0
 31
0.0
  0
LINE
  5
254
330
20A
100
AcDbEntity
  8
0
  6
ByBlock
 62
     0
100
AcDbLine
 10
-1.0
 20
0.0
 30
0.0
 11
0.0
 21
0.0
 31
0.0
  0
ENDBLK
  5
255
330
20A
100
AcDbEntity
  8
0
  6
ByBlock
 62
     0
100
AcDbBlockEnd
  0
BLOCK
  5
256
330
20B
100
AcDbEntity
  8
0
100
AcDbBlockBegin
  2
*D1
 70
     1
 10
0.0
 20
0.0
 30
0.0
  3
*D1
  1
*D1
  0
MTEXT
  5
257
330
20B
100
AcDbEntity
  8
0
  6
Continuous
 62
     2
100
AcDbMText
 10
1850.825149
 20
1996.415808
 30
0.0
 40
10.0
 41
34.944238
 46
0.0
 71
     2
 72
     1
  1
101,4
 73
     1
 44
0.9
  0
LINE
  5
258
330
20B
100
AcDbEntity
  8
0
  6
Continuous
 62
     2
100
AcDbLine
 10
1800.125149
 20
1955.14477
 30
0.0
 11
1800.125149
 21
1984.665808
 31
0.0
  0
LINE
  5
259
330
20B
100
AcDbEntity
  8
0
  6
Continuous
 62
     2
100
AcDbLine
 10
1901.525149
 20
1956.065942
 30
0.0
 11
1901.525149
 21
1984.665808
 31
0.0
  0
LINE
  5
25A
330
20B
100
AcDbEntity
  8
0
  6
Continuous
 62
     2
100
AcDbLine
 10
1800.125149
 20
1983.915808
 30
0.0
 11
1850.825149
 21
1983.915808
 31
0.0
  0
LINE
  5
25B
330
20B
100
AcDbEntity
  8
0
  6
Continuous
 62
     2
100
AcDbLine
 10
1901.525149
 20
1983.915808
 30
0.0
 11
1850.825149
 21
1983.915808
 31
0.0
  0
INSERT
  5
25C
330
20B
100
AcDbEntity
  8
0
  6
Continuous
 62
     2
100
AcDbBlockReference
  2
_CLOSED
 10
1800.125149
 20
1983.915808
 30
0.0
 41
2.5
 42
2.5
 43
2.5
 50
180.0
  0
INSERT
  5
25D
330
20B
100
AcDbEntity
  8
0
  6
Continuous
 62
     2
100
AcDbBlockReference
  2
_CLOSED
 10
1901.525149
 20
1983.915808
 30
0.0
 41
2.5
 42
2.5
 43
2.5
  0
ENDBLK
  5
25E
330
20B
100
AcDbEntity
  8
0
  6
ByBlock
 62
     0
100
AcDbBlockEnd
  0
BLOCK
  5
25F
330
20C
100
AcDbEntity
  8
0
100
AcDbBlockBegin
  2
*D2
 70
     1
 10
0.0
 20
0.0
 30
0.0
  3
*D2
  1
*D2
  0
MTEXT
  5
260
330
20C
100
AcDbEntity
  8
0
  6
Continuous
 62
     2
100
AcDbMText
 10
1528.63084
 20
1845.283208
 30
0.0
 40
10.0
 41
34.944238
 46
0.0
 71
     2
 72
     1
  1
150,5
 11
0.0
 21
1.0
 31
0.0
 73
     1
 44
0.9
  0
LINE
  5
261
330
20C
100
AcDbEntity
  8
0
  6
Continuous
 62
     2
100
AcDbLine
 10
1514.096238
 20
1920.533208
 30
0.0
 11
1541.88084
 21
1920.533208
 31
0.0
  0
LINE
  5
262
330
20C
100
AcDbEntity
  8
0
  6
Continuous
 62
     2
100
AcDbLine
 10
1515.477997
 20
1770.033208
 30
0.0
 11
1541.88084
 21
1770.033208
 31
0.0
  0
LINE
  5
263
330
20C
100
AcDbEntity
  8
0
  6
Continuous
 62
     2
100
AcDbLine
 10
1541.13084
 20
1920.533208
 30
0.0
 11
1541.13084
 21
1845.283208
 31
0.0
  0
LINE
  5
264
330
20C
100
AcDbEntity
  8
0
  6
Continuous
 62
     2
100
AcDbLine
 10
1541.13084
 20
1770.033208
 30
0.0
 11
1541.13084
 21
1845.283208
 31
0.0
  0
INSERT
  5
265
330
20C
100
AcDbEntity
  8
0
  6
Continuous
 62
     2
100
AcDbBlockReference
  2
_CLOSED
 10
1541.13084
 20
1920.533208
 30
0.0
 41
2.5
 42
2.5
 43
2.5
 50
90.0
  0
INSERT
  5
266
330
20C
100
AcDbEntity
  8
0
  6
Continuous
 62
     2
100
AcDbBlockReference
  2
_CLOSED
 10
1541.13084
 20
1770.033208
 30
0.0
 41
2.5
 42
2.5
 43
2.5
 50
270.0
  0
ENDBLK
  5
267
330
20C
100
AcDbEntity
  8
0
  6
ByBlock
 62
     0
100
AcDbBlockEnd
  0
BLOCK
  5
268
330
20D
100
AcDbEntity
  8
0
100
AcDbBlockBegin
  2
*D3
 70
     1
 10
0.0
 20
0.0
 30
0.0
  3
*D3
  1
*D3
  0
MTEXT
  5
269
330
20D
100
AcDbEntity
  8
0
  6
Continuous
 62
     2
100
AcDbMText
 10
999.618714
 20
1481.178338
 30
0.0
 40
10.0
 41
34.944238
 46
0.0
 71
     2
 72
     1
  1
968,5
 73
     1
 44
0.9
  0
LINE
  5
26A
330
20D
100
AcDbEntity
  8
0
  6
Continuous
 62
     2
100
AcDbLine
 10
1483.868714
 20
1437.201214
 30
0.0
 11
1483.868714
 21
1469.428338
 31
0.0
  0
LINE
  5
26B
330
20D
100
AcDbEntity
  8
0
  6
Continuous
 62
     2
100
AcDbLine
 10
515.368714
 20
1437.201214
 30
0.0
 11
515.368714
 21
1469.428338
 31
0.0
  0
LINE
  5
26C
330
20D
100
AcDbEntity
  8
0
  6
Continuous
 62
     2
100
AcDbLine
 10
1483.868714
 20
1468.678338
 30
0.0
 11
999.618714
 21
1468.678338
 31
0.0
  0
LINE
  5
26D
330
20D
100
AcDbEntity
  8
0
  6
Continuous
 62
     2
100
AcDbLine
 10
515.368714
 20
1468.678338
 30
0.0
 11
999.618714
 21
1468.678338
 31
0.0
  0
INSERT
  5
26E
330
20D
100
AcDbEntity
  8
0
  6
Continuous
 62
     2
100
AcDbBlockReference
  2
_CLOSED
 10
1483.868714
 20
1468.678338
 30
0.0
 41
2.5
 42
2.5
 43
2.5
  0
INSERT
  5
26F
330
20D
100
AcDbEntity
  8
0
  6
Continuous
 62
     2
100
AcDbBlockReference
  2
_CLOSED
 10
515.368714
 20
1468.678338
 30
0.0
 41
2.5
 42
2.5
 43
2.5
 50
180.0
  0
ENDBLK
  5
270
330
20D
100
AcDbEntity
  8
0
  6
ByBlock
 62
     0
100
AcDbBlockEnd
  0
BLOCK
  5
214
330
20E
100
AcDbEntity
  8
0
100
AcDbBlockBegin
  2
LOGO2_BL0
 70
     0
 10
2412.690228
 20
39.387869
 30
0.0
  3
LOGO2_BL0
  1
LOGO2_BL0
  0
LINE
  5
215
330
20E
100
AcDbEntity
  8
0
  6
Continuous
 62
     7
100
AcDbLine
 10
2404.433153
 20
42.58336
 30
0.0
 11
2403.128813
 21
42.58336
 31
0.0
  0
LINE
  5
216
330
20E
100
AcDbEntity
  8
0
  6
Continuous
 62
     7
100
AcDbLine
 10
2403.128813
 20
42.58336
 30
0.0
 11
2403.128813
 21
32.124294
 31
0.0
  0
LINE
  5
217
330
20E
100
AcDbEntity
  8
0
  6
Continuous
 62
     7
100
AcDbLine
 10
2403.128813
 20
32.124294
 30
0.0
 11
2407.609867
 21
32.124294
 31
0.0
  0
LINE
  5
218
330
20E
100
AcDbEntity
  8
0
  6
Continuous
 62
     7
100
AcDbLine
 10
2407.609867
 20
32.124294
 30
0.0
 11
2407.609867
 21
33.317149
 31
0.0
  0
LINE
  5
219
330
20E
100
AcDbEntity
  8
0
  6
Continuous
 62
     7
100
AcDbLine
 10
2407.609867
 20
33.317149
 30
0.0
 11
2404.433153
 21
33.317149
 31
0.0
  0
LINE
  5
21A
330
20E
100
AcDbEntity
  8
0
  6
Continuous
 62
     7
100
AcDbLine
 10
2404.433153
 20
33.317149
 30
0.0
 11
2404.433153
 21
42.58336
 31
0.0
  0
LINE
  5
21B
330
20E
100
AcDbEntity
  8
0
  6
Continuous
 62
     7
100
AcDbLine
 10
2419.36948
 20
42.58336
 30
0.0
 11
2418.065662
 21
42.58336
 31
0.0
  0
LINE
  5
21C
330
20E
100
AcDbEntity
  8
0
  6
Continuous
 62
     7
100
AcDbLine
 10
2418.065662
 20
42.58336
 30
0.0
 11
2418.065662
 21
32.124294
 31
0.0
  0
LINE
  5
21D
330
20E
100
AcDbEntity
  8
0
  6
Continuous
 62
     7
100
AcDbLine
 10
2418.065662
 20
32.124294
 30
0.0
 11
2422.546848
 21
32.124294
 31
0.0
  0
LINE
  5
21E
330
20E
100
AcDbEntity
  8
0
  6
Continuous
 62
     7
100
AcDbLine
 10
2422.546848
 20
32.124294
 30
0.0
 11
2422.546848
 21
33.317149
 31
0.0
  0
LINE
  5
21F
330
20E
100
AcDbEntity
  8
0
  6
Continuous
 62
     7
100
AcDbLine
 10
2422.546848
 20
33.317149
 30
0.0
 11
2419.36948
 21
33.317149
 31
0.0
  0
LINE
  5
220
330
20E
100
AcDbEntity
  8
0
  6
Continuous
 62
     7
100
AcDbLine
 10
2419.36948
 20
33.317149
 30
0.0
 11
2419.36948
 21
42.58336
 31
0.0
  0
LWPOLYLINE
  5
221
330
20E
100
AcDbEntity
  8
0
  6
Continuous
 62
     7
100
AcDbPolyline
 90
        2
 70
     0
 43
0.2
 10
2401.483207
 20
28.780743
 10
2401.483207
 20
26.92368
  0
LWPOLYLINE
  5
222
330
20E
100
AcDbEntity
  8
0
  6
Continuous
 62
     7
100
AcDbPolyline
 90
        2
 70
     0
 43
0.2
 10
2401.483207
 20
26.92368
 10
2402.278923
 20
26.92368
  0
LWPOLYLINE
  5
223
330
20E
100
AcDbEntity
  8
0
  6
Continuous
 62
     7
100
AcDbPolyline
 90
        2
 70
     0
 43
0.2
 10
2402.278923
 20
26.92368
 10
2402.278923
 20
27.135661
  0
LWPOLYLINE
  5
224
330
20E
100
AcDbEntity
  8
0
  6
Continuous
 62
     7
100
AcDbPolyline
 90
        2
 70
     0
 43
0.2
 10
2402.278923
 20
27.135661
 10
2401.714817
 20
27.135661
  0
LWPOLYLINE
  5
225
330
20E
100
AcDbEntity
  8
0
  6
Continuous
 62
     7
100
AcDbPolyline
 90
        2
 70
     0
 43
0.2
 10
2401.714817
 20
27.135661
 10
2401.714817
 20
28.780743
  0
LWPOLYLINE
  5
226
330
20E
100
AcDbEntity
  8
0
  6
Continuous
 62
     7
100
AcDbPolyline
 90
        2
 70
     0
 43
0.2
 10
2401.714817
 20
28.780743
 10
2401.483207
 20
28.780743
  0
SPLINE
  5
227
330
20E
100
AcDbEntity
  8
0
  6
Continuous
 62
     7
100
AcDbSpline
 70
     3
 71
     3
 72
    35
 73
    31
 74
     0
 42
0.000000001
 43
0.0000001
 40
0.0
 40
0.0
 40
0.0
 40
0.0
 40
1.0
 40
1.0
 40
1.0
 40
2.0
 40
2.0
 40
2.0
 40
3.0
 40
3.0
 40
3.0
 40
4.0
 40
4.0
 40
4.0
 40
5.0
 40
5.0
 40
5.0
 40
6.0
 40
6.0
 40
6.0
 40
7.0
 40
7.0
 40
7.0
 40
8.0
 40
8.0
 40
8.0
 40
9.0
 40
9.0
 40
9.0
 40
10.0
 40
10.0
 40
10.0
 40
10.0
 10
2403.6772167071
 20
28.0762314499
 30
0.0
 10
2403.6772167071
 20
28.0762314499
 30
0.0
 10
2403.6772167071
 20
27.4141161707
 30
0.0
 10
2403.6772167071
 20
27.4141161707
 30
0.0
 10
2403.6772167071
 20
27.0990225754
 30
0.0
 10
2403.8250803959
 20
26.8844239474
 30
0.0
 10
2404.1651668802
 20
26.8844239474
 30
0.0
 10
2404.5047299532
 20
26.8844239474
 30
0.0
 10
2404.6528553477
 20
27.0990225754
 30
0.0
 10
2404.6528553477
 20
27.4141161707
 30
0.0
 10
2404.6528553477
 20
27.4141161707
 30
0.0
 10
2404.6528553477
 20
28.0762314499
 30
0.0
 10
2404.6528553477
 20
28.0762314499
 30
0.0
 10
2404.6528553477
 20
28.0762314499
 30
0.0
 10
2404.4307981088
 20
28.0762314499
 30
0.0
 10
2404.4307981088
 20
28.0762314499
 30
0.0
 10
2404.4307981088
 20
28.0762314499
 30
0.0
 10
2404.4307981088
 20
27.4392399126
 30
0.0
 10
2404.4307981088
 20
27.4392399126
 30
0.0
 10
2404.4307981088
 20
27.2534289054
 30
0.0
 10
2404.3840836513
 20
27.0906479948
 30
0.0
 10
2404.1651668802
 20
27.0906479948
 30
0.0
 10
2403.9457266977
 20
27.0906479948
 30
0.0
 10
2403.8990122403
 20
27.2534289054
 30
0.0
 10
2403.8990122403
 20
27.4392399126
 30
0.0
 10
2403.8990122403
 20
27.4392399126
 30
0.0
 10
2403.8990122403
 20
28.0762314499
 30
0.0
 10
2403.8990122403
 20
28.0762314499
 30
0.0
 10
2403.8990122403
 20
28.0762314499
 30
0.0
 10
2403.6772167071
 20
28.0762314499
 30
0.0
 10
2403.6772167071
 20
28.0762314499
 30
0.0
  0
SPLINE
  5
228
330
20E
100
AcDbEntity
  8
0
  6
Continuous
 62
     7
100
AcDbSpline
 70
     3
 71
     3
 72
    35
 73
    31
 74
     0
 42
0.000000001
 43
0.0000001
 40
0.0
 40
0.0
 40
0.0
 40
0.0
 40
1.0
 40
1.0
 40
1.0
 40
2.0
 40
2.0
 40
2.0
 40
3.0
 40
3.0
 40
3.0
 40
4.0
 40
4.0
 40
4.0
 40
5.0
 40
5.0
 40
5.0
 40
6.0
 40
6.0
 40
6.0
 40
7.0
 40
7.0
 40
7.0
 40
8.0
 40
8.0
 40
8.0
 40
9.0
 40
9.0
 40
9.0
 40
10.0
 40
10.0
 40
10.0
 40
10.0
 10
2407.0759879049
 20
28.0348819581
 30
0.0
 10
2406.9875313972
 20
28.0861762644
 30
0.0
 10
2406.8740820006
 20
28.1113000062
 30
0.0
 10
2406.7704465656
 20
28.1113000062
 30
0.0
 10
2406.4155737124
 20
28.1113000062
 30
0.0
 10
2406.1401285221
 20
27.8475007171
 30
0.0
 10
2406.1401285221
 20
27.4900108075
 30
0.0
 10
2406.1401285221
 20
27.1450827688
 30
0.0
 10
2406.4185833273
 20
26.8849473587
 30
0.0
 10
2406.7581464003
 20
26.8849473587
 30
0.0
 10
2406.8740820006
 20
26.8849473587
 30
0.0
 10
2406.9748386735
 20
26.9069306328
 30
0.0
 10
2407.0759879049
 20
26.9608419954
 30
0.0
 10
2407.0759879049
 20
26.9608419954
 30
0.0
 10
2407.0759879049
 20
27.2434840909
 30
0.0
 10
2407.0759879049
 20
27.2434840909
 30
0.0
 10
2406.992111246
 20
27.1503168816
 30
0.0
 10
2406.8886066638
 20
27.0911714061
 30
0.0
 10
2406.7605017511
 20
27.0911714061
 30
0.0
 10
2406.5267986111
 20
27.0911714061
 30
0.0
 10
2406.3615314969
 20
27.2633737198
 30
0.0
 10
2406.3615314969
 20
27.4999556219
 30
0.0
 10
2406.3615314969
 20
27.7119371935
 30
0.0
 10
2406.5292848147
 20
27.9040291362
 30
0.0
 10
2406.7461079407
 20
27.9040291362
 30
0.0
 10
2406.878923555
 20
27.9040291362
 30
0.0
 10
2406.9875313972
 20
27.8501177735
 30
0.0
 10
2407.0759879049
 20
27.749099395
 30
0.0
 10
2407.0759879049
 20
27.749099395
 30
0.0
 10
2407.0759879049
 20
28.0348819581
 30
0.0
 10
2407.0759879049
 20
28.0348819581
 30
0.0
  0
SPLINE
  5
229
330
20E
100
AcDbEntity
  8
0
  6
Continuous
 62
     7
100
AcDbSpline
 70
     3
 71
     3
 72
    32
 73
    28
 74
     0
 42
0.000000001
 43
0.0000001
 40
0.0
 40
0.0
 40
0.0
 40
0.0
 40
1.0
 40
1.0
 40
1.0
 40
2.0
 40
2.0
 40
2.0
 40
3.0
 40
3.0
 40
3.0
 40
4.0
 40
4.0
 40
4.0
 40
5.0
 40
5.0
 40
5.0
 40
6.0
 40
6.0
 40
6.0
 40
7.0
 40
7.0
 40
7.0
 40
8.0
 40
8.0
 40
8.0
 40
9.0
 40
9.0
 40
9.0
 40
9.0
 10
2409.6078591571
 20
27.4633168318
 30
0.0
 10
2409.6078591571
 20
27.4633168318
 30
0.0
 10
2409.6078591571
 20
27.4973385655
 30
0.0
 10
2409.6078591571
 20
27.4973385655
 30
0.0
 10
2409.6078591571
 20
27.8396495478
 30
0.0
 10
2409.4350025793
 20
28.1113000062
 30
0.0
 10
2409.0683529721
 20
28.1113000062
 30
0.0
 10
2408.6967309577
 20
28.1113000062
 30
0.0
 10
2408.5069943659
 20
27.8448836607
 30
0.0
 10
2408.5069943659
 20
27.4900108075
 30
0.0
 10
2408.5069943659
 20
27.1503168816
 30
0.0
 10
2408.7210695826
 20
26.8844239474
 30
0.0
 10
2409.0731945265
 20
26.8844239474
 30
0.0
 10
2409.2972145578
 20
26.8844239474
 30
0.0
 10
2409.4993821677
 20
27.000097842
 30
0.0
 10
2409.6078591571
 20
27.1995175427
 30
0.0
 10
2409.6078591571
 20
27.1995175427
 30
0.0
 10
2409.4202162104
 20
27.3062934454
 30
0.0
 10
2409.4202162104
 20
27.3062934454
 30
0.0
 10
2409.33673211
 20
27.1675894541
 30
0.0
 10
2409.2455276931
 20
27.0817500029
 30
0.0
 10
2409.0759424358
 20
27.0817500029
 30
0.0
 10
2408.8639608642
 20
27.0817500029
 30
0.0
 10
2408.7310143971
 20
27.2665141876
 30
0.0
 10
2408.7286590463
 20
27.4633168318
 30
0.0
 10
2408.7286590463
 20
27.4633168318
 30
0.0
 10
2409.6078591571
 20
27.4633168318
 30
0.0
 10
2409.6078591571
 20
27.4633168318
 30
0.0
  0
SPLINE
  5
22A
330
20E
100
AcDbEntity
  8
0
  6
Continuous
 62
     7
100
AcDbSpline
 70
     3
 71
     3
 72
    14
 73
    10
 74
     0
 42
0.000000001
 43
0.0000001
 40
0.0
 40
0.0
 40
0.0
 40
0.0
 40
1.0
 40
1.0
 40
1.0
 40
2.0
 40
2.0
 40
2.0
 40
3.0
 40
3.0
 40
3.0
 40
3.0
 10
2408.7406975059
 20
27.6308084439
 30
0.0
 10
2408.7683074514
 20
27.7956829996
 30
0.0
 10
2408.8961506584
 20
27.9186846522
 30
0.0
 10
2409.0683529721
 20
27.9186846522
 30
0.0
 10
2409.2455276931
 20
27.9186846522
 30
0.0
 10
2409.3589770897
 20
27.8030107576
 30
0.0
 10
2409.3861944767
 20
27.6308084439
 30
0.0
 10
2409.3861944767
 20
27.6308084439
 30
0.0
 10
2408.7406975059
 20
27.6308084439
 30
0.0
 10
2408.7406975059
 20
27.6308084439
 30
0.0
  0
SPLINE
  5
22B
330
20E
100
AcDbEntity
  8
0
  6
Continuous
 62
     7
100
AcDbSpline
 70
     3
 71
     3
 72
    20
 73
    16
 74
     0
 42
0.000000001
 43
0.0000001
 40
0.0
 40
0.0
 40
0.0
 40
0.0
 40
1.0
 40
1.0
 40
1.0
 40
2.0
 40
2.0
 40
2.0
 40
3.0
 40
3.0
 40
3.0
 40
4.0
 40
4.0
 40
4.0
 40
5.0
 40
5.0
 40
5.0
 40
5.0
 10
2411.6318906073
 20
27.8401729591
 30
0.0
 10
2411.6318906073
 20
27.8401729591
 30
0.0
 10
2412.0430301739
 20
27.3376981227
 30
0.0
 10
2412.0430301739
 20
27.3376981227
 30
0.0
 10
2411.9269637208
 20
27.2220242281
 30
0.0
 10
2411.7891756993
 20
27.0916948174
 30
0.0
 10
2411.6172350912
 20
27.0916948174
 30
0.0
 10
2411.4397986647
 20
27.0916948174
 30
0.0
 10
2411.2723070525
 20
27.2560459618
 30
0.0
 10
2411.2723070525
 20
27.4329589771
 30
0.0
 10
2411.2723070525
 20
27.610918815
 30
0.0
 10
2411.4820641261
 20
27.7370609354
 30
0.0
 10
2411.6096456276
 20
27.8249940317
 30
0.0
 10
2411.6096456276
 20
27.8249940317
 30
0.0
 10
2411.6318906073
 20
27.8401729591
 30
0.0
 10
2411.6318906073
 20
27.8401729591
 30
0.0
  0
SPLINE
  5
22C
330
20E
100
AcDbEntity
  8
0
  6
Continuous
 62
     7
100
AcDbSpline
 70
     3
 71
     3
 72
    23
 73
    19
 74
     0
 42
0.000000001
 43
0.0000001
 40
0.0
 40
0.0
 40
0.0
 40
0.0
 40
1.0
 40
1.0
 40
1.0
 40
2.0
 40
2.0
 40
2.0
 40
3.0
 40
3.0
 40
3.0
 40
4.0
 40
4.0
 40
4.0
 40
5.0
 40
5.0
 40
5.0
 40
6.0
 40
6.0
 40
6.0
 40
6.0
 10
2411.6812221212
 20
28.1311896351
 30
0.0
 10
2411.6812221212
 20
28.1311896351
 30
0.0
 10
2411.619590442
 20
28.2097013283
 30
0.0
 10
2411.619590442
 20
28.2097013283
 30
0.0
 10
2411.5656790794
 20
28.278268207
 30
0.0
 10
2411.5088889546
 20
28.347358497
 30
0.0
 10
2411.5088889546
 20
28.4410491175
 30
0.0
 10
2411.5088889546
 20
28.5598634799
 30
0.0
 10
2411.6048040732
 20
28.6373283505
 30
0.0
 10
2411.7157672662
 20
28.6373283505
 30
0.0
 10
2411.8390306245
 20
28.6373283505
 30
0.0
 10
2411.9323286865
 20
28.5661444153
 30
0.0
 10
2411.9323286865
 20
28.4358150047
 30
0.0
 10
2411.9323286865
 20
28.3007748924
 30
0.0
 10
2411.8042237738
 20
28.2243568444
 30
0.0
 10
2411.7106640061
 20
28.1505558528
 30
0.0
 10
2411.7106640061
 20
28.1505558528
 30
0.0
 10
2411.6812221212
 20
28.1311896351
 30
0.0
 10
2411.6812221212
 20
28.1311896351
 30
0.0
  0
SPLINE
  5
22D
330
20E
100
AcDbEntity
  8
0
  6
Continuous
 62
     7
100
AcDbSpline
 70
     3
 71
     3
 72
    50
 73
    46
 74
     0
 42
0.000000001
 43
0.0000001
 40
0.0
 40
0.0
 40
0.0
 40
0.0
 40
1.0
 40
1.0
 40
1.0
 40
2.0
 40
2.0
 40
2.0
 40
3.0
 40
3.0
 40
3.0
 40
4.0
 40
4.0
 40
4.0
 40
5.0
 40
5.0
 40
5.0
 40
6.0
 40
6.0
 40
6.0
 40
7.0
 40
7.0
 40
7.0
 40
8.0
 40
8.0
 40
8.0
 40
9.0
 40
9.0
 40
9.0
 40
10.0
 40
10.0
 40
10.0
 40
11.0
 40
11.0
 40
11.0
 40
12.0
 40
12.0
 40
12.0
 40
13.0
 40
13.0
 40
13.0
 40
14.0
 40
14.0
 40
14.0
 40
15.0
 40
15.0
 40
15.0
 40
15.0
 10
2412.3833783639
 20
26.9242032053
 30
0.0
 10
2412.3833783639
 20
26.9242032053
 30
0.0
 10
2412.6687683686
 20
26.9242032053
 30
0.0
 10
2412.6687683686
 20
26.9242032053
 30
0.0
 10
2412.6687683686
 20
26.9242032053
 30
0.0
 10
2412.3364022008
 20
27.3350810663
 30
0.0
 10
2412.3364022008
 20
27.3350810663
 30
0.0
 10
2412.3364022008
 20
27.3350810663
 30
0.0
 10
2412.5629084356
 20
27.6009740005
 30
0.0
 10
2412.5629084356
 20
27.6009740005
 30
0.0
 10
2412.5629084356
 20
27.6009740005
 30
0.0
 10
2412.4146521883
 20
27.7538100966
 30
0.0
 10
2412.4146521883
 20
27.7538100966
 30
0.0
 10
2412.4146521883
 20
27.7538100966
 30
0.0
 10
2412.1987450321
 20
27.5025726784
 30
0.0
 10
2412.1987450321
 20
27.5025726784
 30
0.0
 10
2412.1987450321
 20
27.5025726784
 30
0.0
 10
2411.8116823847
 20
27.9705023697
 30
0.0
 10
2411.8116823847
 20
27.9705023697
 30
0.0
 10
2411.9671355372
 20
28.0846060305
 30
0.0
 10
2412.1494135182
 20
28.2243568444
 30
0.0
 10
2412.1494135182
 20
28.4337213595
 30
0.0
 10
2412.1494135182
 20
28.6776310197
 30
0.0
 10
2411.9473767611
 20
28.8210457125
 30
0.0
 10
2411.7208705262
 20
28.8210457125
 30
0.0
 10
2411.4766991604
 20
28.8210457125
 30
0.0
 10
2411.2923275343
 20
28.6703032616
 30
0.0
 10
2411.2923275343
 20
28.4138317306
 30
0.0
 10
2411.2923275343
 20
28.2562849329
 30
0.0
 10
2411.3909905621
 20
28.1186277642
 30
0.0
 10
2411.4963270837
 20
28.0076645712
 30
0.0
 10
2411.4963270837
 20
28.0076645712
 30
0.0
 10
2411.3807840419
 20
27.9239187651
 30
0.0
 10
2411.3807840419
 20
27.9239187651
 30
0.0
 10
2411.2030859097
 20
27.7956829996
 30
0.0
 10
2411.0557456322
 20
27.6679706454
 30
0.0
 10
2411.0557456322
 20
27.4308653319
 30
0.0
 10
2411.0557456322
 20
27.1105376238
 30
0.0
 10
2411.3143108084
 20
26.8844239474
 30
0.0
 10
2411.6246937021
 20
26.8844239474
 30
0.0
 10
2411.8436104732
 20
26.8844239474
 30
0.0
 10
2412.0408056759
 20
27.0095192452
 30
0.0
 10
2412.1810799011
 20
27.1754406235
 30
0.0
 10
2412.1810799011
 20
27.1754406235
 30
0.0
 10
2412.3833783639
 20
26.9242032053
 30
0.0
 10
2412.3833783639
 20
26.9242032053
 30
0.0
  0
LWPOLYLINE
  5
22E
330
20E
100
AcDbEntity
  8
0
  6
Continuous
 62
     7
100
AcDbPolyline
 90
        2
 70
     0
 43
0.2
 10
2414.318822
 20
28.780743
 10
2414.087475
 20
28.780743
  0
LWPOLYLINE
  5
22F
330
20E
100
AcDbEntity
  8
0
  6
Continuous
 62
     7
100
AcDbPolyline
 90
        2
 70
     0
 43
0.2
 10
2414.087475
 20
28.780743
 10
2414.087475
 20
26.92368
  0
LWPOLYLINE
  5
230
330
20E
100
AcDbEntity
  8
0
  6
Continuous
 62
     7
100
AcDbPolyline
 90
        2
 70
     0
 43
0.2
 10
2414.087475
 20
26.92368
 10
2414.882798
 20
26.92368
  0
LWPOLYLINE
  5
231
330
20E
100
AcDbEntity
  8
0
  6
Continuous
 62
     7
100
AcDbPolyline
 90
        2
 70
     0
 43
0.2
 10
2414.882798
 20
26.92368
 10
2414.882798
 20
27.135661
  0
LWPOLYLINE
  5
232
330
20E
100
AcDbEntity
  8
0
  6
Continuous
 62
     7
100
AcDbPolyline
 90
        2
 70
     0
 43
0.2
 10
2414.882798
 20
27.135661
 10
2414.318822
 20
27.135661
  0
LWPOLYLINE
  5
233
330
20E
100
AcDbEntity
  8
0
  6
Continuous
 62
     7
100
AcDbPolyline
 90
        2
 70
     0
 43
0.2
 10
2414.318822
 20
27.135661
 10
2414.318822
 20
28.780743
  0
LWPOLYLINE
  5
234
330
20E
100
AcDbEntity
  8
0
  6
Continuous
 62
     7
100
AcDbPolyline
 90
        2
 70
     0
 43
0.2
 10
2416.561902
 20
28.076231
 10
2416.34076
 20
28.076231
  0
LWPOLYLINE
  5
235
330
20E
100
AcDbEntity
  8
0
  6
Continuous
 62
     7
100
AcDbPolyline
 90
        2
 70
     0
 43
0.2
 10
2416.34076
 20
28.076231
 10
2416.34076
 20
26.924203
  0
LWPOLYLINE
  5
236
330
20E
100
AcDbEntity
  8
0
  6
Continuous
 62
     7
100
AcDbPolyline
 90
        2
 70
     0
 43
0.2
 10
2416.34076
 20
26.924203
 10
2416.561902
 20
26.924203
  0
LWPOLYLINE
  5
237
330
20E
100
AcDbEntity
  8
0
  6
Continuous
 62
     7
100
AcDbPolyline
 90
        2
 70
     0
 43
0.2
 10
2416.561902
 20
26.924203
 10
2416.561902
 20
28.076231
  0
LWPOLYLINE
  5
238
330
20E
100
AcDbEntity
  8
0
  6
Continuous
 62
     7
100
AcDbPolyline
 90
        2
 70
     1
 43
0.2
 10
2416.298878
 20
28.606185
 42
1.0
 10
2416.604045
 20
28.606185
 42
1.0
  0
SPLINE
  5
239
330
20E
100
AcDbEntity
  8
0
  6
Continuous
 62
     7
100
AcDbSpline
 70
     3
 71
     3
 72
    17
 73
    13
 74
     0
 42
0.000000001
 43
0.0000001
 40
0.0
 40
0.0
 40
0.0
 40
0.0
 40
1.0
 40
1.0
 40
1.0
 40
2.0
 40
2.0
 40
2.0
 40
3.0
 40
3.0
 40
3.0
 40
4.0
 40
4.0
 40
4.0
 40
4.0
 10
2418.6921854694
 20
27.0817500029
 30
0.0
 10
2418.4582206237
 20
27.0817500029
 30
0.0
 10
2418.327891213
 20
27.2837867601
 30
0.0
 10
2418.327891213
 20
27.4999556219
 30
0.0
 10
2418.327891213
 20
27.71455425
 30
0.0
 10
2418.4637164422
 20
27.9134505394
 30
0.0
 10
2418.6921854694
 20
27.9134505394
 30
0.0
 10
2418.9316461336
 20
27.9134505394
 30
0.0
 10
2419.0672096571
 20
27.7244990644
 30
0.0
 10
2419.0672096571
 20
27.4999556219
 30
0.0
 10
2419.0672096571
 20
27.2738419456
 30
0.0
 10
2418.9340014844
 20
27.0817500029
 30
0.0
 10
2418.6921854694
 20
27.0817500029
 30
0.0
  0
SPLINE
  5
23A
330
20E
100
AcDbEntity
  8
0
  6
Continuous
 62
     7
100
AcDbSpline
 70
     3
 71
     3
 72
    50
 73
    46
 74
     0
 42
0.000000001
 43
0.0000001
 40
0.0
 40
0.0
 40
0.0
 40
0.0
 40
1.0
 40
1.0
 40
1.0
 40
2.0
 40
2.0
 40
2.0
 40
3.0
 40
3.0
 40
3.0
 40
4.0
 40
4.0
 40
4.0
 40
5.0
 40
5.0
 40
5.0
 40
6.0
 40
6.0
 40
6.0
 40
7.0
 40
7.0
 40
7.0
 40
8.0
 40
8.0
 40
8.0
 40
9.0
 40
9.0
 40
9.0
 40
10.0
 40
10.0
 40
10.0
 40
11.0
 40
11.0
 40
11.0
 40
12.0
 40
12.0
 40
12.0
 40
13.0
 40
13.0
 40
13.0
 40
14.0
 40
14.0
 40
14.0
 40
15.0
 40
15.0
 40
15.0
 40
15.0
 10
2419.2763124666
 20
28.0767548612
 30
0.0
 10
2419.2763124666
 20
28.0767548612
 30
0.0
 10
2419.0546477862
 20
28.0767548612
 30
0.0
 10
2419.0546477862
 20
28.0767548612
 30
0.0
 10
2419.0546477862
 20
28.0767548612
 30
0.0
 10
2419.0546477862
 20
27.8794288057
 30
0.0
 10
2419.0546477862
 20
27.8794288057
 30
0.0
 10
2419.0546477862
 20
27.8794288057
 30
0.0
 10
2419.0499370846
 20
27.8794288057
 30
0.0
 10
2419.0499370846
 20
27.8794288057
 30
0.0
 10
2418.9586018149
 20
28.0223200872
 30
0.0
 10
2418.8206829406
 20
28.1107765949
 30
0.0
 10
2418.6479572156
 20
28.1107765949
 30
0.0
 10
2418.3155910478
 20
28.1107765949
 30
0.0
 10
2418.1064882383
 20
27.8229003866
 30
0.0
 10
2418.1064882383
 20
27.50728338
 30
0.0
 10
2418.1064882383
 20
27.1775342686
 30
0.0
 10
2418.3035525881
 20
26.8844239474
 30
0.0
 10
2418.6584254413
 20
26.8844239474
 30
0.0
 10
2418.8206829406
 20
26.8844239474
 30
0.0
 10
2418.9606954601
 20
26.9728804551
 30
0.0
 10
2419.0499370846
 20
27.103733277
 30
0.0
 10
2419.0499370846
 20
27.103733277
 30
0.0
 10
2419.0546477862
 20
27.103733277
 30
0.0
 10
2419.0546477862
 20
27.103733277
 30
0.0
 10
2419.0546477862
 20
27.103733277
 30
0.0
 10
2419.0546477862
 20
26.8844239474
 30
0.0
 10
2419.0546477862
 20
26.8844239474
 30
0.0
 10
2419.0546477862
 20
26.6478420453
 30
0.0
 10
2418.9981193671
 20
26.4609842155
 30
0.0
 10
2418.7248986749
 20
26.4609842155
 30
0.0
 10
2418.5226002121
 20
26.4609842155
 30
0.0
 10
2418.3799706362
 20
26.5792751666
 30
0.0
 10
2418.3799706362
 20
26.785499214
 30
0.0
 10
2418.3799706362
 20
26.785499214
 30
0.0
 10
2418.1583059558
 20
26.785499214
 30
0.0
 10
2418.1583059558
 20
26.785499214
 30
0.0
 10
2418.163278363
 20
26.4609842155
 30
0.0
 10
2418.3943644466
 20
26.2641815713
 30
0.0
 10
2418.7146921548
 20
26.2641815713
 30
0.0
 10
2419.1627322172
 20
26.2641815713
 30
0.0
 10
2419.2763124666
 20
26.5494407232
 30
0.0
 10
2419.2763124666
 20
26.9461864794
 30
0.0
 10
2419.2763124666
 20
26.9461864794
 30
0.0
 10
2419.2763124666
 20
28.0767548612
 30
0.0
 10
2419.2763124666
 20
28.0767548612
 30
0.0
  0
SPLINE
  5
23B
330
20E
100
AcDbEntity
  8
0
  6
Continuous
 62
     7
100
AcDbSpline
 70
     3
 71
     3
 72
    44
 73
    40
 74
     0
 42
0.000000001
 43
0.0000001
 40
0.0
 40
0.0
 40
0.0
 40
0.0
 40
1.0
 40
1.0
 40
1.0
 40
2.0
 40
2.0
 40
2.0
 40
3.0
 40
3.0
 40
3.0
 40
4.0
 40
4.0
 40
4.0
 40
5.0
 40
5.0
 40
5.0
 40
6.0
 40
6.0
 40
6.0
 40
7.0
 40
7.0
 40
7.0
 40
8.0
 40
8.0
 40
8.0
 40
9.0
 40
9.0
 40
9.0
 40
10.0
 40
10.0
 40
10.0
 40
11.0
 40
11.0
 40
11.0
 40
12.0
 40
12.0
 40
12.0
 40
13.0
 40
13.0
 40
13.0
 40
13.0
 10
2420.845237802
 20
29.0618149049
 30
0.0
 10
2420.845237802
 20
29.0618149049
 30
0.0
 10
2420.845237802
 20
26.923679794
 30
0.0
 10
2420.845237802
 20
26.923679794
 30
0.0
 10
2420.845237802
 20
26.923679794
 30
0.0
 10
2421.0666407768
 20
26.923679794
 30
0.0
 10
2421.0666407768
 20
26.923679794
 30
0.0
 10
2421.0666407768
 20
26.923679794
 30
0.0
 10
2421.0666407768
 20
27.4533720173
 30
0.0
 10
2421.0666407768
 20
27.4533720173
 30
0.0
 10
2421.0666407768
 20
27.6632599438
 30
0.0
 10
2421.0666407768
 20
27.9139739507
 30
0.0
 10
2421.3518999287
 20
27.9139739507
 30
0.0
 10
2421.578798722
 20
27.9139739507
 30
0.0
 10
2421.6057544033
 20
27.7810274835
 30
0.0
 10
2421.6057544033
 20
27.5847482506
 30
0.0
 10
2421.6057544033
 20
27.5847482506
 30
0.0
 10
2421.6057544033
 20
26.923679794
 30
0.0
 10
2421.6057544033
 20
26.923679794
 30
0.0
 10
2421.6057544033
 20
26.923679794
 30
0.0
 10
2421.8276807894
 20
26.923679794
 30
0.0
 10
2421.8276807894
 20
26.923679794
 30
0.0
 10
2421.8276807894
 20
26.923679794
 30
0.0
 10
2421.8276807894
 20
27.610918815
 30
0.0
 10
2421.8276807894
 20
27.610918815
 30
0.0
 10
2421.8276807894
 20
27.8914672653
 30
0.0
 10
2421.7436732777
 20
28.1113000062
 30
0.0
 10
2421.4186348679
 20
28.1113000062
 30
0.0
 10
2421.278884054
 20
28.1113000062
 30
0.0
 10
2421.140703474
 20
28.0448267726
 30
0.0
 10
2421.0713514784
 20
27.92182512
 30
0.0
 10
2421.0713514784
 20
27.92182512
 30
0.0
 10
2421.0666407768
 20
27.92182512
 30
0.0
 10
2421.0666407768
 20
27.92182512
 30
0.0
 10
2421.0666407768
 20
27.92182512
 30
0.0
 10
2421.0666407768
 20
29.0618149049
 30
0.0
 10
2421.0666407768
 20
29.0618149049
 30
0.0
 10
2421.0666407768
 20
29.0618149049
 30
0.0
 10
2420.845237802
 20
29.0618149049
 30
0.0
 10
2420.845237802
 20
29.0618149049
 30
0.0
  0
LWPOLYLINE
  5
23C
330
20E
100
AcDbEntity
  8
0
  6
Continuous
 62
     7
100
AcDbPolyline
 90
        2
 70
     0
 43
0.2
 10
2423.667471
 20
27.869484
 10
2423.883902
 20
27.869484
  0
LWPOLYLINE
  5
23D
330
20E
100
AcDbEntity
  8
0
  6
Continuous
 62
     7
100
AcDbPolyline
 90
        2
 70
     0
 43
0.2
 10
2423.883902
 20
27.869484
 10
2423.883902
 20
28.076231
  0
LWPOLYLINE
  5
23E
330
20E
100
AcDbEntity
  8
0
  6
Continuous
 62
     7
100
AcDbPolyline
 90
        2
 70
     0
 43
0.2
 10
2423.883902
 20
28.076231
 10
2423.667471
 20
28.076231
  0
LWPOLYLINE
  5
23F
330
20E
100
AcDbEntity
  8
0
  6
Continuous
 62
     7
100
AcDbPolyline
 90
        2
 70
     0
 43
0.2
 10
2423.667471
 20
28.076231
 10
2423.667471
 20
28.516944
  0
LWPOLYLINE
  5
240
330
20E
100
AcDbEntity
  8
0
  6
Continuous
 62
     7
100
AcDbPolyline
 90
        2
 70
     0
 43
0.2
 10
2423.667471
 20
28.516944
 10
2423.445807
 20
28.516944
  0
LWPOLYLINE
  5
241
330
20E
100
AcDbEntity
  8
0
  6
Continuous
 62
     7
100
AcDbPolyline
 90
        2
 70
     0
 43
0.2
 10
2423.445807
 20
28.516944
 10
2423.445807
 20
28.076231
  0
LWPOLYLINE
  5
242
330
20E
100
AcDbEntity
  8
0
  6
Continuous
 62
     7
100
AcDbPolyline
 90
        2
 70
     0
 43
0.2
 10
2423.445807
 20
28.076231
 10
2423.32516
 20
28.076231
  0
LWPOLYLINE
  5
243
330
20E
100
AcDbEntity
  8
0
  6
Continuous
 62
     7
100
AcDbPolyline
 90
        2
 70
     0
 43
0.2
 10
2423.32516
 20
28.076231
 10
2423.32516
 20
27.869484
  0
LWPOLYLINE
  5
244
330
20E
100
AcDbEntity
  8
0
  6
Continuous
 62
     7
100
AcDbPolyline
 90
        2
 70
     0
 43
0.2
 10
2423.32516
 20
27.869484
 10
2423.445807
 20
27.869484
  0
LWPOLYLINE
  5
245
330
20E
100
AcDbEntity
  8
0
  6
Continuous
 62
     7
100
AcDbPolyline
 90
        2
 70
     0
 43
0.2
 10
2423.445807
 20
27.869484
 10
2423.445807
 20
26.92368
  0
LWPOLYLINE
  5
246
330
20E
100
AcDbEntity
  8
0
  6
Continuous
 62
     7
100
AcDbPolyline
 90
        2
 70
     0
 43
0.2
 10
2423.445807
 20
26.92368
 10
2423.667471
 20
26.92368
  0
LWPOLYLINE
  5
247
330
20E
100
AcDbEntity
  8
0
  6
Continuous
 62
     7
100
AcDbPolyline
 90
        2
 70
     0
 43
0.2
 10
2423.667471
 20
26.92368
 10
2423.667471
 20
27.869484
  0
SPLINE
  5
248
330
20E
100
AcDbEntity
  8
0
  6
Continuous
 62
     7
100
AcDbSpline
 70
     3
 71
     3
 72
    20
 73
    16
 74
     0
 42
0.000000001
 43
0.0000001
 40
0.0
 40
0.0
 40
0.0
 40
0.0
 40
1.0
 40
1.0
 40
1.0
 40
2.0
 40
2.0
 40
2.0
 40
3.0
 40
3.0
 40
3.0
 40
4.0
 40
4.0
 40
4.0
 40
5.0
 40
5.0
 40
5.0
 40
5.0
 10
2411.4494817735
 20
37.2846062374
 30
0.0
 10
2411.4494817735
 20
37.2846062374
 30
0.0
 10
2413.7658384279
 20
34.4550448152
 30
0.0
 10
2413.7658384279
 20
34.4550448152
 30
0.0
 10
2413.1141913745
 20
33.8028743505
 30
0.0
 10
2412.3373181705
 20
33.0669580797
 30
0.0
 10
2411.3661285259
 20
33.0669580797
 30
0.0
 10
2410.3675906414
 20
33.0669580797
 30
0.0
 10
2409.4242726479
 20
33.996536527
 30
0.0
 10
2409.4242726479
 20
34.9957286755
 30
0.0
 10
2409.4242726479
 20
35.9949208241
 30
0.0
 10
2410.603125721
 20
36.7015260627
 30
0.0
 10
2411.3246481813
 20
37.2013838426
 30
0.0
 10
2411.3246481813
 20
37.2013838426
 30
0.0
 10
2411.4494817735
 20
37.2846062374
 30
0.0
 10
2411.4494817735
 20
37.2846062374
 30
0.0
  0
SPLINE
  5
249
330
20E
100
AcDbEntity
  8
0
  6
Continuous
 62
     7
100
AcDbSpline
 70
     3
 71
     3
 72
    23
 73
    19
 74
     0
 42
0.000000001
 43
0.0000001
 40
0.0
 40
0.0
 40
0.0
 40
0.0
 40
1.0
 40
1.0
 40
1.0
 40
2.0
 40
2.0
 40
2.0
 40
3.0
 40
3.0
 40
3.0
 40
4.0
 40
4.0
 40
4.0
 40
5.0
 40
5.0
 40
5.0
 40
6.0
 40
6.0
 40
6.0
 40
6.0
 10
2411.726889756
 20
38.9223601571
 30
0.0
 10
2411.726889756
 20
38.9223601571
 30
0.0
 10
2411.3803914835
 20
39.365689518
 30
0.0
 10
2411.3803914835
 20
39.365689518
 30
0.0
 10
2411.0745884385
 20
39.7537989879
 30
0.0
 10
2410.7557001114
 20
40.1423010163
 30
0.0
 10
2410.7557001114
 20
40.6692453304
 30
0.0
 10
2410.7557001114
 20
41.335417047
 30
0.0
 10
2411.2970382359
 20
41.7791389663
 30
0.0
 10
2411.920944491
 20
41.7791389663
 30
0.0
 10
2412.6147261531
 20
41.7791389663
 30
0.0
 10
2413.1419321728
 20
41.3768973916
 30
0.0
 10
2413.1419321728
 20
40.6418970906
 30
0.0
 10
2413.1419321728
 20
39.8786325801
 30
0.0
 10
2412.4206714181
 20
39.4485193543
 30
0.0
 10
2411.8935962512
 20
39.0327999389
 30
0.0
 10
2411.8935962512
 20
39.0327999389
 30
0.0
 10
2411.726889756
 20
38.9223601571
 30
0.0
 10
2411.726889756
 20
38.9223601571
 30
0.0
  0
SPLINE
  5
24A
330
20E
100
AcDbEntity
  8
0
  6
Continuous
 62
     7
100
AcDbSpline
 70
     3
 71
     3
 72
    50
 73
    46
 74
     0
 42
0.000000001
 43
0.0000001
 40
0.0
 40
0.0
 40
0.0
 40
0.0
 40
1.0
 40
1.0
 40
1.0
 40
2.0
 40
2.0
 40
2.0
 40
3.0
 40
3.0
 40
3.0
 40
4.0
 40
4.0
 40
4.0
 40
5.0
 40
5.0
 40
5.0
 40
6.0
 40
6.0
 40
6.0
 40
7.0
 40
7.0
 40
7.0
 40
8.0
 40
8.0
 40
8.0
 40
9.0
 40
9.0
 40
9.0
 40
10.0
 40
10.0
 40
10.0
 40
11.0
 40
11.0
 40
11.0
 40
12.0
 40
12.0
 40
12.0
 40
13.0
 40
13.0
 40
13.0
 40
14.0
 40
14.0
 40
14.0
 40
15.0
 40
15.0
 40
15.0
 40
15.0
 10
2415.680476919
 20
32.123770939
 30
0.0
 10
2415.680476919
 20
32.123770939
 30
0.0
 10
2417.2897049235
 20
32.123770939
 30
0.0
 10
2417.2897049235
 20
32.123770939
 30
0.0
 10
2417.2897049235
 20
32.123770939
 30
0.0
 10
2415.4166776299
 20
34.4409127104
 30
0.0
 10
2415.4166776299
 20
34.4409127104
 30
0.0
 10
2415.4166776299
 20
34.4409127104
 30
0.0
 10
2416.6930160554
 20
35.938392405
 30
0.0
 10
2416.6930160554
 20
35.938392405
 30
0.0
 10
2416.6930160554
 20
35.938392405
 30
0.0
 10
2415.8607921076
 20
36.7994039735
 30
0.0
 10
2415.8607921076
 20
36.7994039735
 30
0.0
 10
2415.8607921076
 20
36.7994039735
 30
0.0
 10
2414.6401969843
 20
35.3840998511
 30
0.0
 10
2414.6401969843
 20
35.3840998511
 30
0.0
 10
2414.6401969843
 20
35.3840998511
 30
0.0
 10
2412.4622826155
 20
38.0194756856
 30
0.0
 10
2412.4622826155
 20
38.0194756856
 30
0.0
 10
2413.335856055
 20
38.6575140455
 30
0.0
 10
2414.3625272961
 20
39.4485193543
 30
0.0
 10
2414.3625272961
 20
40.6273724274
 30
0.0
 10
2414.3625272961
 20
42.0010653524
 30
0.0
 10
2413.2246311563
 20
42.8055485018
 30
0.0
 10
2411.9493395534
 20
42.8055485018
 30
0.0
 10
2410.575908334
 20
42.8055485018
 30
0.0
 10
2409.5349741353
 20
41.9593233022
 30
0.0
 10
2409.5349741353
 20
40.51667094
 30
0.0
 10
2409.5349741353
 20
39.6290962486
 30
0.0
 10
2410.0903135117
 20
38.8522230446
 30
0.0
 10
2410.6864789686
 20
38.2277933781
 30
0.0
 10
2410.6864789686
 20
38.2277933781
 30
0.0
 10
2410.0345702095
 20
37.7561998078
 30
0.0
 10
2410.0345702095
 20
37.7561998078
 30
0.0
 10
2409.0360323251
 20
37.0349390531
 30
0.0
 10
2408.2031541133
 20
36.3136782984
 30
0.0
 10
2408.2031541133
 20
34.982119982
 30
0.0
 10
2408.2031541133
 20
33.178444684
 30
0.0
 10
2409.6602002859
 20
31.9018445529
 30
0.0
 10
2411.4077397233
 20
31.9018445529
 30
0.0
 10
2412.6425978042
 20
31.9018445529
 30
0.0
 10
2413.7519680288
 20
32.6100200254
 30
0.0
 10
2414.5428424848
 20
33.5385516501
 30
0.0
 10
2414.5428424848
 20
33.5385516501
 30
0.0
 10
2415.680476919
 20
32.123770939
 30
0.0
 10
2415.680476919
 20
32.123770939
 30
0.0
  0
LINE
  5
24B
330
20E
100
AcDbEntity
  8
0
  6
Continuous
 62
     7
100
AcDbLine
 10
2401.483338
 20
30.097646
 30
0.0
 11
2423.897249
 21
30.097646
 31
0.0
  0
LINE
  5
24C
330
20E
100
AcDbEntity
  8
0
  6
Continuous
 62
     7
100
AcDbLine
 10
2423.897249
 20
30.097646
 30
0.0
 11
2423.897249
 21
52.511557
 31
0.0
  0
LINE
  5
24D
330
20E
100
AcDbEntity
  8
0
  6
Continuous
 62
     7
100
AcDbLine
 10
2423.897249
 20
52.511557
 30
0.0
 11
2401.483338
 21
52.511557
 31
0.0
  0
LINE
  5
24E
330
20E
100
AcDbEntity
  8
0
  6
Continuous
 62
     7
100
AcDbLine
 10
2401.483338
 20
52.511557
 30
0.0
 11
2401.483338
 21
30.097646
 31
0.0
  0
ENDBLK
  5
24F
330
20E
100
AcDbEntity
  8
0
  6
ByBlock
 62
     0
100
AcDbBlockEnd
  0
BLOCK
  5
271
330
20F
100
AcDbEntity
  8
0
100
AcDbBlockBegin
  2
*T5
 70
     1
 10
0.0
 20
0.0
 30
0.0
  3
*T5
  1
*T5
  0
LINE
  5
272
330
20F
100
AcDbEntity
  8
0
  6
Continuous
 62
     2
100
AcDbLine
 10
0.0
 20
0.0
 30
0.0
 11
90.0
 21
0.0
 31
0.0
  0
LINE
  5
273
330
20F
100
AcDbEntity
  8
0
  6
Continuous
 62
     2
100
AcDbLine
 10
0.0
 20
0.0
 30
0.0
 11
0.0
 21
-40.0
 31
0.0
  0
LINE
  5
274
330
20F
100
AcDbEntity
  8
0
  6
Continuous
 62
     2
100
AcDbLine
 10
30.0
 20
-6.0
 30
0.0
 11
90.0
 21
-6.0
 31
0.0
  0
LINE
  5
275
330
20F
100
AcDbEntity
  8
0
  6
Continuous
 62
     2
100
AcDbLine
 10
30.0
 20
-12.0
 30
0.0
 11
90.0
 21
-12.0
 31
0.0
  0
LINE
  5
276
330
20F
100
AcDbEntity
  8
0
  6
Continuous
 62
     2
100
AcDbLine
 10
30.0
 20
-22.0
 30
0.0
 11
90.0
 21
-22.0
 31
0.0
  0
LINE
  5
277
330
20F
100
AcDbEntity
  8
0
  6
Continuous
 62
     2
100
AcDbLine
 10
0.0
 20
-27.0
 30
0.0
 11
90.0
 21
-27.0
 31
0.0
  0
LINE
  5
278
330
20F
100
AcDbEntity
  8
0
  6
Continuous
 62
     2
100
AcDbLine
 10
0.0
 20
-40.0
 30
0.0
 11
90.0
 21
-40.0
 31
0.0
  0
LINE
  5
279
330
20F
100
AcDbEntity
  8
0
  6
Continuous
 62
     2
100
AcDbLine
 10
30.0
 20
0.0
 30
0.0
 11
30.0
 21
-27.0
 31
0.0
  0
LINE
  5
27A
330
20F
100
AcDbEntity
  8
0
  6
Continuous
 62
     2
100
AcDbLine
 10
70.0
 20
0.0
 30
0.0
 11
70.0
 21
-12.0
 31
0.0
  0
LINE
  5
27B
330
20F
100
AcDbEntity
  8
0
  6
Continuous
 62
     2
100
AcDbLine
 10
90.0
 20
0.0
 30
0.0
 11
90.0
 21
-40.0
 31
0.0
  0
MTEXT
  5
27C
330
20F
100
AcDbEntity
  8
9_SOLID
  6
Continuous
 62
     2
100
AcDbMText
 10
31.4875
 20
-1.5
 30
0.0
 40
3.0
 41
27.285714
 46
0.0
 71
     1
 72
     1
  1
215295
  7
TEXTSTYLE_2
 73
     1
 44
0.9
  0
MTEXT
  5
27D
330
20F
100
AcDbEntity
  8
9_SOLID
  6
Continuous
 62
     2
100
AcDbMText
 10
71.4875
 20
-1.75
 30
0.0
 40
3.5
 41
30.333333
 46
0.0
 71
     1
 72
     1
  1
Rev:00
  7
TEXTSTYLE_2
 73
     1
 44
0.9
  0
MTEXT
  5
27E
330
20F
100
AcDbEntity
  8
9_SOLID
  6
Continuous
 62
     2
100
AcDbMText
 10
31.4875
 20
-7.75
 30
0.0
 40
3.5
 41
37.833333
 46
0.0
 71
     1
 72
     1
  1
Scale:1:1
  7
TEXTSTYLE_2
 73
     1
 44
0.9
  0
MTEXT
  5
27F
330
20F
100
AcDbEntity
  8
9_SOLID
  6
Continuous
 62
     2
100
AcDbMText
 10
71.4875
 20
-8.05
 30
0.0
 40
1.9
 41
35.104762
 46
0.0
 71
     1
 72
     1
  1
2500 by 3200
  7
TEXTSTYLE_2
 73
     1
 44
0.9
  0
MTEXT
  5
280
330
20F
100
AcDbEntity
  8
9_SOLID
  6
Continuous
 62
     2
100
AcDbMText
 10
31.4875
 20
-15.75
 30
0.0
 40
2.5
 41
109.52381
 46
0.0
 71
     1
 72
     1
  1
CASSAFORMA TRIM COLORADO 1.1
  7
TEXTSTYLE_2
 73
     1
 44
0.9
  0
MTEXT
  5
281
330
20F
100
AcDbEntity
  8
9_SOLID
  6
Continuous
 62
     2
100
AcDbMText
 10
31.4875
 20
-23.25
 30
0.0
 40
2.5
 41
48.333333
 46
0.0
 71
     1
 72
     1
  1
DATE:30.08.22
  7
TEXTSTYLE_2
 73
     1
 44
0.9
  0
MTEXT
  5
282
330
20F
100
AcDbEntity
  8
9_SOLID
  6
Continuous
 62
     2
100
AcDbMText
 10
1.4875
 20
-27.3125
 30
0.0
 40
2.25
 41
179.464286
 46
0.0
 71
     1
 72
     1
  1
Any integral or partial reproductions are prohibited \Pwithout prior authorisation of L {\Ftxt.shx;\W0.190476;\H2.250000; }& L Luce & Light s.r.l., \Pin accordance with the law in force. \PAll rights reserved.
  7
TEXTSTYLE_2
 73
     1
 44
0.9
  0
ENDBLK
  5
283
330
20F
100
AcDbEntity
  8
0
  6
ByBlock
 62
     0
100
AcDbBlockEnd
  0
ENDSEC
  0
SECTION
  2
ENTITIES
  0
LINE
  5
284
330
208
100
AcDbEntity
  8
0
  6
Continuous
 62
     7
100
AcDbLine
 10
0.0
 20
0.0
 30
0.0
 11
2500.0
 21
0.0
 31
0.0
  0
LINE
  5
285
330
208
100
AcDbEntity
  8
0
  6
Continuous
 62
     7
100
AcDbLine
 10
2500.0
 20
0.0
 30
0.0
 11
2500.0
 21
3200.0
 31
0.0
  0
LINE
  5
286
330
208
100
AcDbEntity
  8
0
  6
Continuous
 62
     7
100
AcDbLine
 10
0.0
 20
3200.0
 30
0.0
 11
2500.0
 21
3200.0
 31
0.0
  0
LINE
  5
287
330
208
100
AcDbEntity
  8
0
  6
Continuous
 62
     7
100
AcDbLine
 10
0.0
 20
0.0
 30
0.0
 11
0.0
 21
3200.0
 31
0.0
  0
ARC
  5
288
330
208
100
AcDbEntity
  8
3_ALL_AXES
  6
Continuous
 62
     7
100
AcDbCircle
 10
1477.118714
 20
1899.783208
 30
0.0
 40
8.0
100
AcDbArc
 50
338.746191
 51
360.0
  0
LINE
  5
289
330
208
100
AcDbEntity
  8
3_ALL_AXES
  6
Continuous
 62
     7
100
AcDbLine
 10
1484.574585
 20
1902.683208
 30
0.0
 11
1483.868714
 21
1902.683208
 31
0.0
  0
LINE
  5
28A
330
208
100
AcDbEntity
  8
3_ALL_AXES
  6
Continuous
 62
     7
100
AcDbLine
 10
1484.574585
 20
1896.883208
 30
0.0
 11
1483.868714
 21
1896.883208
 31
0.0
  0
ARC
  5
28B
330
208
100
AcDbEntity
  8
3_ALL_AXES
  6
Continuous
 62
     7
100
AcDbCircle
 10
1477.118714
 20
1899.783208
 30
0.0
 40
8.0
100
AcDbArc
 50
0.0
 51
21.253809
  0
LINE
  5
28C
330
208
100
AcDbEntity
  8
3_ALL_AXES
  6
Continuous
 62
     7
100
AcDbLine
 10
1484.574585
 20
1899.783208
 30
0.0
 11
1484.574585
 21
1896.883208
 31
0.0
  0
LINE
  5
28D
330
208
100
AcDbEntity
  8
3_ALL_AXES
  6
Continuous
 62
     7
100
AcDbLine
 10
1484.574585
 20
1899.783208
 30
0.0
 11
1484.574585
 21
1902.683208
 31
0.0
  0
ARC
  5
28E
330
208
100
AcDbEntity
  8
3_ALL_AXES
  6
Continuous
 62
     7
100
AcDbCircle
 10
522.118714
 20
1899.783208
 30
0.0
 40
8.0
100
AcDbArc
 50
180.0
 51
201.253809
  0
LINE
  5
28F
330
208
100
AcDbEntity
  8
3_ALL_AXES
  6
Continuous
 62
     7
100
AcDbLine
 10
514.662844
 20
1896.883208
 30
0.0
 11
515.368714
 21
1896.883208
 31
0.0
  0
LINE
  5
290
330
208
100
AcDbEntity
  8
3_ALL_AXES
  6
Continuous
 62
     7
100
AcDbLine
 10
514.662844
 20
1902.683208
 30
0.0
 11
515.368714
 21
1902.683208
 31
0.0
  0
ARC
  5
291
330
208
100
AcDbEntity
  8
3_ALL_AXES
  6
Continuous
 62
     7
100
AcDbCircle
 10
522.118714
 20
1899.783208
 30
0.0
 40
8.0
100
AcDbArc
 50
158.746191
 51
180.0
  0
LINE
  5
292
330
208
100
AcDbEntity
  8
3_ALL_AXES
  6
Continuous
 62
     7
100
AcDbLine
 10
514.662844
 20
1896.883208
 30
0.0
 11
514.662844
 21
1899.783208
 31
0.0
  0
LINE
  5
293
330
208
100
AcDbEntity
  8
3_ALL_AXES
  6
Continuous
 62
     7
100
AcDbLine
 10
514.662844
 20
1902.683208
 30
0.0
 11
514.662844
 21
1899.783208
 31
0.0
  0
SPLINE
  5
294
330
208
100
AcDbEntity
  8
7_ALL_FEATURES
  6
Continuous
 62
     7
100
AcDbSpline
 70
     0
 71
     3
 72
     9
 73
     5
 74
     0
 42
0.000000001
 43
0.0000001
 40
0.0
 40
0.0
 40
0.0
 40
0.0
 40
0.2286771163
 40
1.0
 40
1.0
 40
1.0
 40
1.0
 10
516.2263532379
 20
1792.283207595
 30
0.0
 10
516.2762755857
 20
1792.283207595
 30
0.0
 10
516.494544114
 20
1792.2946489066
 30
0.0
 10
516.7097162142
 20
1792.3466248105
 30
0.0
 10
516.8685046753
 20
1792.4026640829
 30
0.0
  0
ARC
  5
295
330
208
100
AcDbEntity
  8
7_ALL_FEATURES
  6
Continuous
 62
     7
100
AcDbCircle
 10
516.092422
 20
1794.60163
 30
0.0
 40
2.3318998726
100
AcDbArc
 50
289.439509
 51
293.329434
  0
SPLINE
  5
296
330
208
100
AcDbEntity
  8
7_ALL_FEATURES
  6
Continuous
 62
     7
100
AcDbSpline
 70
     0
 71
     3
 72
     9
 73
     5
 74
     0
 42
0.000000001
 43
0.0000001
 40
0.0
 40
0.0
 40
0.0
 40
0.0
 40
0.4930580325
 40
1.0
 40
1.0
 40
1.0
 40
1.0
 10
517.015894322
 20
1792.4603793777
 30
0.0
 10
517.2816592614
 20
1792.5750002394
 30
0.0
 10
517.7916458084
 20
1792.897695981
 30
0.0
 10
518.0675158695
 20
1793.4856289715
 30
0.0
 10
518.0675158695
 20
1793.783207595
 30
0.0
  0
SPLINE
  5
297
330
208
100
AcDbEntity
  8
7_ALL_FEATURES
  6
Continuous
 62
     7
100
AcDbSpline
 70
     0
 71
     3
 72
     9
 73
     5
 74
     0
 42
0.000000001
 43
0.0000001
 40
0.0
 40
0.0
 40
0.0
 40
0.0
 40
0.2286770931
 40
1.0
 40
1.0
 40
1.0
 40
1.0
 10
516.2263532379
 20
1899.283207595
 30
0.0
 10
516.2762755839
 20
1899.283207595
 30
0.0
 10
516.4945441265
 20
1899.2946489094
 30
0.0
 10
516.7097162402
 20
1899.3466248189
 30
0.0
 10
516.8685047168
 20
1899.4026640957
 30
0.0
  0
ARC
  5
298
330
208
100
AcDbEntity
  8
7_ALL_FEATURES
  6
Continuous
 62
     7
100
AcDbCircle
 10
516.092422
 20
1901.60163
 30
0.0
 40
2.3318997835
100
AcDbArc
 50
289.439508
 51
293.329352
  0
SPLINE
  5
299
330
208
100
AcDbEntity
  8
7_ALL_FEATURES
  6
Continuous
 62
     7
100
AcDbSpline
 70
     0
 71
     3
 72
     9
 73
     5
 74
     0
 42
0.000000001
 43
0.0000001
 40
0.0
 40
0.0
 40
0.0
 40
0.0
 40
0.4930582757
 40
1.0
 40
1.0
 40
1.0
 40
1.0
 10
517.0158912968
 20
1899.4603780675
 30
0.0
 10
517.2816570103
 20
1899.5749988102
 30
0.0
 10
517.7916448359
 20
1899.8976946354
 30
0.0
 10
518.0675158695
 20
1900.4856285787
 30
0.0
 10
518.0675158695
 20
1900.783207595
 30
0.0
  0
LINE
  5
29A
330
208
100
AcDbEntity
  8
7_ALL_FEATURES
  6
Continuous
 62
     7
100
AcDbLine
 10
515.368714
 20
1772.033208
 30
0.0
 11
515.368714
 21
1770.033208
 31
0.0
  0
LINE
  5
29B
330
208
100
AcDbEntity
  8
7_ALL_FEATURES
  6
Continuous
 62
     7
100
AcDbLine
 10
515.368714
 20
1787.533208
 30
0.0
 11
515.368714
 21
1772.033208
 31
0.0
  0
LINE
  5
29C
330
208
100
AcDbEntity
  8
7_ALL_FEATURES
  6
Continuous
 62
     7
100
AcDbLine
 10
515.368714
 20
1788.033208
 30
0.0
 11
515.368714
 21
1787.533208
 31
0.0
  0
LINE
  5
29D
330
208
100
AcDbEntity
  8
7_ALL_FEATURES
  6
Continuous
 62
     7
100
AcDbLine
 10
515.368714
 20
1788.533208
 30
0.0
 11
515.368714
 21
1788.033208
 31
0.0
  0
LINE
  5
29E
330
208
100
AcDbEntity
  8
7_ALL_FEATURES
  6
Continuous
 62
     7
100
AcDbLine
 10
515.368714
 20
1790.283208
 30
0.0
 11
515.368714
 21
1788.533208
 31
0.0
  0
LINE
  5
29F
330
208
100
AcDbEntity
  8
7_ALL_FEATURES
  6
Continuous
 62
     7
100
AcDbLine
 10
515.368714
 20
1790.283208
 30
0.0
 11
515.368714
 21
1793.783208
 31
0.0
  0
LINE
  5
2A0
330
208
100
AcDbEntity
  8
7_ALL_FEATURES
  6
Continuous
 62
     7
100
AcDbLine
 10
515.368714
 20
1793.783208
 30
0.0
 11
515.368714
 21
1797.283208
 31
0.0
  0
LINE
  5
2A1
330
208
100
AcDbEntity
  8
7_ALL_FEATURES
  6
Continuous
 62
     7
100
AcDbLine
 10
515.368714
 20
1799.033208
 30
0.0
 11
515.368714
 21
1797.283208
 31
0.0
  0
LINE
  5
2A2
330
208
100
AcDbEntity
  8
7_ALL_FEATURES
  6
Continuous
 62
     7
100
AcDbLine
 10
515.368714
 20
1799.533208
 30
0.0
 11
515.368714
 21
1799.033208
 31
0.0
  0
LINE
  5
2A3
330
208
100
AcDbEntity
  8
7_ALL_FEATURES
  6
Continuous
 62
     7
100
AcDbLine
 10
515.368714
 20
1800.033208
 30
0.0
 11
515.368714
 21
1799.533208
 31
0.0
  0
LINE
  5
2A4
330
208
100
AcDbEntity
  8
7_ALL_FEATURES
  6
Continuous
 62
     7
100
AcDbLine
 10
515.368714
 20
1894.533208
 30
0.0
 11
515.368714
 21
1800.033208
 31
0.0
  0
LINE
  5
2A5
330
208
100
AcDbEntity
  8
7_ALL_FEATURES
  6
Continuous
 62
     7
100
AcDbLine
 10
515.368714
 20
1895.033208
 30
0.0
 11
515.368714
 21
1894.533208
 31
0.0
  0
LINE
  5
2A6
330
208
100
AcDbEntity
  8
7_ALL_FEATURES
  6
Continuous
 62
     7
100
AcDbLine
 10
515.368714
 20
1895.533208
 30
0.0
 11
515.368714
 21
1895.033208
 31
0.0
  0
LINE
  5
2A7
330
208
100
AcDbEntity
  8
7_ALL_FEATURES
  6
Continuous
 62
     7
100
AcDbLine
 10
515.368714
 20
1897.283208
 30
0.0
 11
515.368714
 21
1895.533208
 31
0.0
  0
LINE
  5
2A8
330
208
100
AcDbEntity
  8
7_ALL_FEATURES
  6
Continuous
 62
     7
100
AcDbLine
 10
515.368714
 20
1897.283208
 30
0.0
 11
515.368714
 21
1900.783208
 31
0.0
  0
LINE
  5
2A9
330
208
100
AcDbEntity
  8
7_ALL_FEATURES
  6
Continuous
 62
     7
100
AcDbLine
 10
515.368714
 20
1900.783208
 30
0.0
 11
515.368714
 21
1904.283208
 31
0.0
  0
LINE
  5
2AA
330
208
100
AcDbEntity
  8
7_ALL_FEATURES
  6
Continuous
 62
     7
100
AcDbLine
 10
515.368714
 20
1906.033208
 30
0.0
 11
515.368714
 21
1904.283208
 31
0.0
  0
LINE
  5
2AB
330
208
100
AcDbEntity
  8
7_ALL_FEATURES
  6
Continuous
 62
     7
100
AcDbLine
 10
515.368714
 20
1906.533208
 30
0.0
 11
515.368714
 21
1906.033208
 31
0.0
  0
LINE
  5
2AC
330
208
100
AcDbEntity
  8
7_ALL_FEATURES
  6
Continuous
 62
     7
100
AcDbLine
 10
515.368714
 20
1907.033208
 30
0.0
 11
515.368714
 21
1906.533208
 31
0.0
  0
LINE
  5
2AD
330
208
100
AcDbEntity
  8
7_ALL_FEATURES
  6
Continuous
 62
     7
100
AcDbLine
 10
515.368714
 20
1919.533208
 30
0.0
 11
515.368714
 21
1907.033208
 31
0.0
  0
LINE
  5
2AE
330
208
100
AcDbEntity
  8
7_ALL_FEATURES
  6
Continuous
 62
     7
100
AcDbLine
 10
515.368714
 20
1920.533208
 30
0.0
 11
515.368714
 21
1919.533208
 31
0.0
  0
LINE
  5
2AF
330
208
100
AcDbEntity
  8
7_ALL_FEATURES
  6
Continuous
 62
     7
100
AcDbLine
 10
516.868714
 20
1906.533208
 30
0.0
 11
515.368714
 21
1906.533208
 31
0.0
  0
LINE
  5
2B0
330
208
100
AcDbEntity
  8
7_ALL_FEATURES
  6
Continuous
 62
     7
100
AcDbLine
 10
516.868714
 20
1895.033208
 30
0.0
 11
515.368714
 21
1895.033208
 31
0.0
  0
LINE
  5
2B1
330
208
100
AcDbEntity
  8
7_ALL_FEATURES
  6
Continuous
 62
     7
100
AcDbLine
 10
516.868714
 20
1799.533208
 30
0.0
 11
515.368714
 21
1799.533208
 31
0.0
  0
LINE
  5
2B2
330
208
100
AcDbEntity
  8
7_ALL_FEATURES
  6
Continuous
 62
     7
100
AcDbLine
 10
516.868714
 20
1788.033208
 30
0.0
 11
515.368714
 21
1788.033208
 31
0.0
  0
LINE
  5
2B3
330
208
100
AcDbEntity
  8
7_ALL_FEATURES
  6
Continuous
 62
     7
100
AcDbLine
 10
516.868714
 20
1770.033208
 30
0.0
 11
515.368714
 21
1770.033208
 31
0.0
  0
ARC
  5
2B4
330
208
100
AcDbEntity
  8
7_ALL_FEATURES
  6
Continuous
 62
     7
100
AcDbCircle
 10
528.825672
 20
1795.783208
 30
0.0
 40
1.5
100
AcDbArc
 50
0.0
 51
9.648474
  0
LINE
  5
2B5
330
208
100
AcDbEntity
  8
7_ALL_FEATURES
  6
Continuous
 62
     7
100
AcDbLine
 10
530.325672
 20
1795.783208
 30
0.0
 11
530.325672
 21
1791.783208
 31
0.0
  0
ARC
  5
2B6
330
208
100
AcDbEntity
  8
7_ALL_FEATURES
  6
Continuous
 62
     7
100
AcDbCircle
 10
528.825672
 20
1791.783208
 30
0.0
 40
1.5
100
AcDbArc
 50
350.351526
 51
360.0
  0
ARC
  5
2B7
330
208
100
AcDbEntity
  8
3_ALL_AXES
  6
Continuous
 62
     7
100
AcDbCircle
 10
525.97752
 20
1793.783208
 30
0.0
 40
0.95
100
AcDbArc
 50
180.0
 51
360.0
  0
ARC
  5
2B8
330
208
100
AcDbEntity
  8
3_ALL_AXES
  6
Continuous
 62
     7
100
AcDbCircle
 10
525.97752
 20
1793.783208
 30
0.0
 40
0.95
100
AcDbArc
 50
0.0
 51
180.0
  0
LINE
  5
2B9
330
208
100
AcDbEntity
  8
7_ALL_FEATURES
  6
Continuous
 62
     7
100
AcDbLine
 10
516.868714
 20
1920.533208
 30
0.0
 11
515.368714
 21
1920.533208
 31
0.0
  0
SPLINE
  5
2BA
330
208
100
AcDbEntity
  8
7_ALL_FEATURES
  6
Continuous
 62
     7
100
AcDbSpline
 70
     0
 71
     3
 72
     9
 73
     5
 74
     0
 42
0.000000001
 43
0.0000001
 40
0.0
 40
0.0
 40
0.0
 40
0.0
 40
0.5069417243
 40
1.0
 40
1.0
 40
1.0
 40
1.0
 10
518.0675158695
 20
1900.783207595
 30
0.0
 10
518.0675158695
 20
1901.0807866113
 30
0.0
 10
517.7916448359
 20
1901.6687205545
 30
0.0
 10
517.2816570103
 20
1901.9914163797
 30
0.0
 10
517.0158912968
 20
1902.1060371224
 30
0.0
  0
ARC
  5
2BB
330
208
100
AcDbEntity
  8
7_ALL_FEATURES
  6
Continuous
 62
     7
100
AcDbCircle
 10
516.092422
 20
1899.964785
 30
0.0
 40
2.3318997835
100
AcDbArc
 50
66.670648
 51
70.560492
  0
SPLINE
  5
2BC
330
208
100
AcDbEntity
  8
7_ALL_FEATURES
  6
Continuous
 62
     7
100
AcDbSpline
 70
     0
 71
     3
 72
     9
 73
     5
 74
     0
 42
0.000000001
 43
0.0000001
 40
0.0
 40
0.0
 40
0.0
 40
0.0
 40
0.2711786875
 40
1.0
 40
1.0
 40
1.0
 40
1.0
 10
516.8685047168
 20
1902.1637510942
 30
0.0
 10
516.8126869353
 20
1902.1834501818
 30
0.0
 10
516.6043149566
 20
1902.2481585613
 30
0.0
 10
516.3854376587
 20
1902.283207595
 30
0.0
 10
516.2263532379
 20
1902.283207595
 30
0.0
  0
LINE
  5
2BD
330
208
100
AcDbEntity
  8
7_ALL_FEATURES
  6
Continuous
 62
     7
100
AcDbLine
 10
515.368714
 20
1904.283208
 30
0.0
 11
516.868714
 21
1904.283208
 31
0.0
  0
LINE
  5
2BE
330
208
100
AcDbEntity
  8
7_ALL_FEATURES
  6
Continuous
 62
     7
100
AcDbLine
 10
516.868714
 20
1897.283208
 30
0.0
 11
515.911087
 21
1897.283208
 31
0.0
  0
LINE
  5
2BF
330
208
100
AcDbEntity
  8
7_ALL_FEATURES
  6
Continuous
 62
     7
100
AcDbLine
 10
515.911087
 20
1897.283208
 30
0.0
 11
515.368714
 21
1897.283208
 31
0.0
  0
ARC
  5
2C0
330
208
100
AcDbEntity
  8
3_ALL_AXES
  6
Continuous
 62
     7
100
AcDbCircle
 10
525.97752
 20
1900.783208
 30
0.0
 40
0.95
100
AcDbArc
 50
0.0
 51
180.0
  0
ARC
  5
2C1
330
208
100
AcDbEntity
  8
3_ALL_AXES
  6
Continuous
 62
     7
100
AcDbCircle
 10
525.97752
 20
1900.783208
 30
0.0
 40
0.95
100
AcDbArc
 50
180.0
 51
360.0
  0
LINE
  5
2C2
330
208
100
AcDbEntity
  8
7_ALL_FEATURES
  6
Continuous
 62
     7
100
AcDbLine
 10
516.868714
 20
1790.283208
 30
0.0
 11
515.911087
 21
1790.283208
 31
0.0
  0
LINE
  5
2C3
330
208
100
AcDbEntity
  8
7_ALL_FEATURES
  6
Continuous
 62
     7
100
AcDbLine
 10
515.911087
 20
1790.283208
 30
0.0
 11
515.368714
 21
1790.283208
 31
0.0
  0
LINE
  5
2C4
330
208
100
AcDbEntity
  8
7_ALL_FEATURES
  6
Continuous
 62
     7
100
AcDbLine
 10
515.368714
 20
1797.283208
 30
0.0
 11
516.868714
 21
1797.283208
 31
0.0
  0
SPLINE
  5
2C5
330
208
100
AcDbEntity
  8
7_ALL_FEATURES
  6
Continuous
 62
     7
100
AcDbSpline
 70
     0
 71
     3
 72
     9
 73
     5
 74
     0
 42
0.000000001
 43
0.0000001
 40
0.0
 40
0.0
 40
0.0
 40
0.0
 40
0.5069419675
 40
1.0
 40
1.0
 40
1.0
 40
1.0
 10
518.0675158695
 20
1793.783207595
 30
0.0
 10
518.0675158695
 20
1794.0807862185
 30
0.0
 10
517.7916458084
 20
1794.6687192089
 30
0.0
 10
517.2816592614
 20
1794.9914149505
 30
0.0
 10
517.015894322
 20
1795.1060358122
 30
0.0
  0
ARC
  5
2C6
330
208
100
AcDbEntity
  8
7_ALL_FEATURES
  6
Continuous
 62
     7
100
AcDbCircle
 10
516.092422
 20
1792.964785
 30
0.0
 40
2.3318998722
100
AcDbArc
 50
66.670566
 51
70.560491
  0
SPLINE
  5
2C7
330
208
100
AcDbEntity
  8
7_ALL_FEATURES
  6
Continuous
 62
     7
100
AcDbSpline
 70
     0
 71
     3
 72
     9
 73
     5
 74
     0
 42
0.000000001
 43
0.0000001
 40
0.0
 40
0.0
 40
0.0
 40
0.0
 40
0.2711786521
 40
1.0
 40
1.0
 40
1.0
 40
1.0
 10
516.8685046753
 20
1795.1637511071
 30
0.0
 10
516.8126869049
 20
1795.1834501912
 30
0.0
 10
516.6043149414
 20
1795.2481585722
 30
0.0
 10
516.385437656
 20
1795.283207595
 30
0.0
 10
516.2263532379
 20
1795.283207595
 30
0.0
  0
ARC
  5
2C8
330
208
100
AcDbEntity
  8
7_ALL_FEATURES
  6
Continuous
 62
     7
100
AcDbCircle
 10
528.825672
 20
1902.783208
 30
0.0
 40
1.5
100
AcDbArc
 50
0.0
 51
9.648474
  0
LINE
  5
2C9
330
208
100
AcDbEntity
  8
7_ALL_FEATURES
  6
Continuous
 62
     7
100
AcDbLine
 10
530.325672
 20
1902.783208
 30
0.0
 11
530.325672
 21
1898.783208
 31
0.0
  0
ARC
  5
2CA
330
208
100
AcDbEntity
  8
7_ALL_FEATURES
  6
Continuous
 62
     7
100
AcDbCircle
 10
528.825672
 20
1898.783208
 30
0.0
 40
1.5
100
AcDbArc
 50
350.351526
 51
360.0
  0
LINE
  5
2CB
330
208
100
AcDbEntity
  8
7_ALL_FEATURES
  6
Continuous
 62
     9
100
AcDbLine
 10
516.873588
 20
1793.783208
 30
0.0
 11
515.378461
 21
1793.783208
 31
0.0
  0
LINE
  5
2CC
330
208
100
AcDbEntity
  8
7_ALL_FEATURES
  6
Continuous
 62
     9
100
AcDbLine
 10
516.873588
 20
1900.783208
 30
0.0
 11
515.378461
 21
1900.783208
 31
0.0
  0
LINE
  5
2CD
330
208
100
AcDbEntity
  8
7_ALL_FEATURES
  6
Continuous
 62
     9
100
AcDbLine
 10
518.368714
 20
1898.533208
 30
0.0
 11
518.368714
 21
1903.033208
 31
0.0
  0
LINE
  5
2CE
330
208
100
AcDbEntity
  8
7_ALL_FEATURES
  6
Continuous
 62
     9
100
AcDbLine
 10
516.868714
 20
1799.033208
 30
0.0
 11
515.368714
 21
1799.033208
 31
0.0
  0
LINE
  5
2CF
330
208
100
AcDbEntity
  8
7_ALL_FEATURES
  6
Continuous
 62
     9
100
AcDbLine
 10
516.868714
 20
1788.533208
 30
0.0
 11
515.368714
 21
1788.533208
 31
0.0
  0
LINE
  5
2D0
330
208
100
AcDbEntity
  8
7_ALL_FEATURES
  6
Continuous
 62
     9
100
AcDbLine
 10
518.368714
 20
1791.533208
 30
0.0
 11
518.368714
 21
1796.033208
 31
0.0
  0
LINE
  5
2D1
330
208
100
AcDbEntity
  8
7_ALL_FEATURES
  6
Continuous
 62
     9
100
AcDbLine
 10
516.868714
 20
1787.533208
 30
0.0
 11
515.368714
 21
1787.533208
 31
0.0
  0
LINE
  5
2D2
330
208
100
AcDbEntity
  8
7_ALL_FEATURES
  6
Continuous
 62
     9
100
AcDbLine
 10
516.868714
 20
1772.033208
 30
0.0
 11
515.368714
 21
1772.033208
 31
0.0
  0
SPLINE
  5
2D3
330
208
100
AcDbEntity
  8
7_ALL_FEATURES
  6
Continuous
 62
     7
100
AcDbSpline
 70
     0
 71
     3
 72
    11
 73
     7
 74
     0
 42
0.000000001
 43
0.0000001
 40
0.0
 40
0.0
 40
0.0
 40
0.0
 40
0.3359656143
 40
0.5848788136
 40
0.7792805509
 40
1.0
 40
1.0
 40
1.0
 40
1.0
 10
515.3784613803
 20
1793.783207595
 30
0.0
 10
515.3784613803
 20
1793.561613502
 30
0.0
 10
515.3847739748
 20
1793.1796142941
 30
0.0
 10
515.4653941196
 20
1792.6550695883
 30
0.0
 10
515.7933688918
 20
1792.3190148055
 30
0.0
 10
516.0807724878
 20
1792.283207595
 30
0.0
 10
516.2263532379
 20
1792.283207595
 30
0.0
  0
SPLINE
  5
2D4
330
208
100
AcDbEntity
  8
7_ALL_FEATURES
  6
Continuous
 62
     7
100
AcDbSpline
 70
     0
 71
     3
 72
    11
 73
     7
 74
     0
 42
0.000000001
 43
0.0000001
 40
0.0
 40
0.0
 40
0.0
 40
0.0
 40
0.2207194418
 40
0.4151212398
 40
0.6640348165
 40
1.0
 40
1.0
 40
1.0
 40
1.0
 10
516.2263532379
 20
1902.283207595
 30
0.0
 10
516.080772493
 20
1902.283207595
 30
0.0
 10
515.7933688592
 20
1902.2474003816
 30
0.0
 10
515.4653939009
 20
1901.9113453421
 30
0.0
 10
515.3847739867
 20
1901.3868005627
 30
0.0
 10
515.3784613803
 20
1901.0048014033
 30
0.0
 10
515.3784613803
 20
1900.783207595
 30
0.0
  0
LINE
  5
2D5
330
208
100
AcDbEntity
  8
7_ALL_FEATURES
  6
Continuous
 62
     9
100
AcDbLine
 10
516.868714
 20
1919.533208
 30
0.0
 11
515.368714
 21
1919.533208
 31
0.0
  0
LINE
  5
2D6
330
208
100
AcDbEntity
  8
7_ALL_FEATURES
  6
Continuous
 62
     9
100
AcDbLine
 10
516.868714
 20
1907.033208
 30
0.0
 11
515.368714
 21
1907.033208
 31
0.0
  0
SPLINE
  5
2D7
330
208
100
AcDbEntity
  8
7_ALL_FEATURES
  6
Continuous
 62
     7
100
AcDbSpline
 70
     0
 71
     3
 72
    11
 73
     7
 74
     0
 42
0.000000001
 43
0.0000001
 40
0.0
 40
0.0
 40
0.0
 40
0.0
 40
0.2207194491
 40
0.4151211864
 40
0.6640343857
 40
1.0
 40
1.0
 40
1.0
 40
1.0
 10
516.2263532379
 20
1795.283207595
 30
0.0
 10
516.0807724878
 20
1795.283207595
 30
0.0
 10
515.7933688918
 20
1795.2474003845
 30
0.0
 10
515.4653941196
 20
1794.9113456017
 30
0.0
 10
515.3847739748
 20
1794.3868008958
 30
0.0
 10
515.3784613803
 20
1794.004801688
 30
0.0
 10
515.3784613803
 20
1793.783207595
 30
0.0
  0
LINE
  5
2D8
330
208
100
AcDbEntity
  8
7_ALL_FEATURES
  6
Continuous
 62
     9
100
AcDbLine
 10
516.868714
 20
1906.033208
 30
0.0
 11
515.368714
 21
1906.033208
 31
0.0
  0
LINE
  5
2D9
330
208
100
AcDbEntity
  8
7_ALL_FEATURES
  6
Continuous
 62
     9
100
AcDbLine
 10
516.868714
 20
1895.533208
 30
0.0
 11
515.368714
 21
1895.533208
 31
0.0
  0
LINE
  5
2DA
330
208
100
AcDbEntity
  8
7_ALL_FEATURES
  6
Continuous
 62
     9
100
AcDbLine
 10
516.868714
 20
1894.533208
 30
0.0
 11
515.368714
 21
1894.533208
 31
0.0
  0
LINE
  5
2DB
330
208
100
AcDbEntity
  8
7_ALL_FEATURES
  6
Continuous
 62
     9
100
AcDbLine
 10
516.868714
 20
1800.033208
 30
0.0
 11
515.368714
 21
1800.033208
 31
0.0
  0
SPLINE
  5
2DC
330
208
100
AcDbEntity
  8
7_ALL_FEATURES
  6
Continuous
 62
     7
100
AcDbSpline
 70
     0
 71
     3
 72
    11
 73
     7
 74
     0
 42
0.000000001
 43
0.0000001
 40
0.0
 40
0.0
 40
0.0
 40
0.0
 40
0.3359651835
 40
0.5848787602
 40
0.7792805582
 40
1.0
 40
1.0
 40
1.0
 40
1.0
 10
515.3784613803
 20
1900.783207595
 30
0.0
 10
515.3784613803
 20
1900.5616137867
 30
0.0
 10
515.3847739867
 20
1900.1796146272
 30
0.0
 10
515.4653939009
 20
1899.6550698479
 30
0.0
 10
515.7933688592
 20
1899.3190148083
 30
0.0
 10
516.080772493
 20
1899.283207595
 30
0.0
 10
516.2263532379
 20
1899.283207595
 30
0.0
  0
SPLINE
  5
2DD
330
208
100
AcDbEntity
  8
7_ALL_FEATURES
  6
Continuous
 62
     7
100
AcDbSpline
 70
     0
 71
     3
 72
     9
 73
     5
 74
     0
 42
0.000000001
 43
0.0000001
 40
0.0
 40
0.0
 40
0.0
 40
0.0
 40
0.228676813
 40
1.0
 40
1.0
 40
1.0
 40
1.0
 10
1483.0110756511
 20
1899.283207595
 30
0.0
 10
1482.9611533265
 20
1899.283207595
 30
0.0
 10
1482.7428846102
 20
1899.2946489425
 30
0.0
 10
1482.5277123345
 20
1899.3466249205
 30
0.0
 10
1482.3689236699
 20
1899.402664252
 30
0.0
  0
ARC
  5
2DE
330
208
100
AcDbEntity
  8
7_ALL_FEATURES
  6
Continuous
 62
     7
100
AcDbCircle
 10
1483.145006
 20
1901.601629
 30
0.0
 40
2.3318986516
100
AcDbArc
 50
246.671647
 51
250.560494
  0
SPLINE
  5
2DF
330
208
100
AcDbEntity
  8
7_ALL_FEATURES
  6
Continuous
 62
     7
100
AcDbSpline
 70
     0
 71
     3
 72
     9
 73
     5
 74
     0
 42
0.000000001
 43
0.0000001
 40
0.0
 40
0.0
 40
0.0
 40
0.0
 40
0.4930611892
 40
1.0
 40
1.0
 40
1.0
 40
1.0
 10
1482.2215743882
 20
1899.460362133
 30
0.0
 10
1481.9557992841
 20
1899.5749814199
 30
0.0
 10
1481.4457958827
 20
1899.8976782245
 30
0.0
 10
1481.1699130196
 20
1900.4856237745
 30
0.0
 10
1481.1699130196
 20
1900.783207595
 30
0.0
  0
SPLINE
  5
2E0
330
208
100
AcDbEntity
  8
7_ALL_FEATURES
  6
Continuous
 62
     7
100
AcDbSpline
 70
     0
 71
     3
 72
     9
 73
     5
 74
     0
 42
0.000000001
 43
0.0000001
 40
0.0
 40
0.0
 40
0.0
 40
0.0
 40
0.228676813
 40
1.0
 40
1.0
 40
1.0
 40
1.0
 10
1483.0110756511
 20
1792.283207595
 30
0.0
 10
1482.9611533265
 20
1792.283207595
 30
0.0
 10
1482.7428846102
 20
1792.2946489425
 30
0.0
 10
1482.5277123345
 20
1792.3466249205
 30
0.0
 10
1482.3689236699
 20
1792.402664252
 30
0.0
  0
ARC
  5
2E1
330
208
100
AcDbEntity
  8
7_ALL_FEATURES
  6
Continuous
 62
     7
100
AcDbCircle
 10
1483.145006
 20
1794.601629
 30
0.0
 40
2.3318986517
100
AcDbArc
 50
246.671647
 51
250.560494
  0
SPLINE
  5
2E2
330
208
100
AcDbEntity
  8
7_ALL_FEATURES
  6
Continuous
 62
     7
100
AcDbSpline
 70
     0
 71
     3
 72
     9
 73
     5
 74
     0
 42
0.000000001
 43
0.0000001
 40
0.0
 40
0.0
 40
0.0
 40
0.0
 40
0.4930611892
 40
1.0
 40
1.0
 40
1.0
 40
1.0
 10
1482.2215743882
 20
1792.460362133
 30
0.0
 10
1481.9557992841
 20
1792.5749814199
 30
0.0
 10
1481.4457958827
 20
1792.8976782245
 30
0.0
 10
1481.1699130196
 20
1793.4856237745
 30
0.0
 10
1481.1699130196
 20
1793.783207595
 30
0.0
  0
LINE
  5
2E3
330
208
100
AcDbEntity
  8
7_ALL_FEATURES
  6
Continuous
 62
     7
100
AcDbLine
 10
1483.868714
 20
1790.283208
 30
0.0
 11
1483.868714
 21
1788.533208
 31
0.0
  0
LINE
  5
2E4
330
208
100
AcDbEntity
  8
7_ALL_FEATURES
  6
Continuous
 62
     7
100
AcDbLine
 10
1483.868714
 20
1788.533208
 30
0.0
 11
1483.868714
 21
1788.033208
 31
0.0
  0
LINE
  5
2E5
330
208
100
AcDbEntity
  8
7_ALL_FEATURES
  6
Continuous
 62
     7
100
AcDbLine
 10
1483.868714
 20
1788.033208
 30
0.0
 11
1483.868714
 21
1787.533208
 31
0.0
  0
LINE
  5
2E6
330
208
100
AcDbEntity
  8
7_ALL_FEATURES
  6
Continuous
 62
     7
100
AcDbLine
 10
1483.868714
 20
1787.533208
 30
0.0
 11
1483.868714
 21
1772.033208
 31
0.0
  0
LINE
  5
2E7
330
208
100
AcDbEntity
  8
7_ALL_FEATURES
  6
Continuous
 62
     7
100
AcDbLine
 10
1483.868714
 20
1772.033208
 30
0.0
 11
1483.868714
 21
1770.033208
 31
0.0
  0
ARC
  5
2E8
330
208
100
AcDbEntity
  8
7_ALL_FEATURES
  6
Continuous
 62
     7
100
AcDbCircle
 10
1470.411757
 20
1791.783208
 30
0.0
 40
1.5
100
AcDbArc
 50
180.0
 51
189.648474
  0
LINE
  5
2E9
330
208
100
AcDbEntity
  8
7_ALL_FEATURES
  6
Continuous
 62
     7
100
AcDbLine
 10
1468.911757
 20
1795.783208
 30
0.0
 11
1468.911757
 21
1791.783208
 31
0.0
  0
ARC
  5
2EA
330
208
100
AcDbEntity
  8
7_ALL_FEATURES
  6
Continuous
 62
     7
100
AcDbCircle
 10
1470.411757
 20
1795.783208
 30
0.0
 40
1.5
100
AcDbArc
 50
170.351526
 51
180.0
  0
ARC
  5
2EB
330
208
100
AcDbEntity
  8
3_ALL_AXES
  6
Continuous
 62
     7
100
AcDbCircle
 10
1473.259909
 20
1793.783208
 30
0.0
 40
0.95
100
AcDbArc
 50
180.0
 51
360.0
  0
ARC
  5
2EC
330
208
100
AcDbEntity
  8
3_ALL_AXES
  6
Continuous
 62
     7
100
AcDbCircle
 10
1473.259909
 20
1793.783208
 30
0.0
 40
0.95
100
AcDbArc
 50
0.0
 51
180.0
  0
LINE
  5
2ED
330
208
100
AcDbEntity
  8
7_ALL_FEATURES
  6
Continuous
 62
     7
100
AcDbLine
 10
1483.868714
 20
1920.533208
 30
0.0
 11
1483.868714
 21
1919.533208
 31
0.0
  0
LINE
  5
2EE
330
208
100
AcDbEntity
  8
7_ALL_FEATURES
  6
Continuous
 62
     7
100
AcDbLine
 10
1483.868714
 20
1919.533208
 30
0.0
 11
1483.868714
 21
1907.033208
 31
0.0
  0
LINE
  5
2EF
330
208
100
AcDbEntity
  8
7_ALL_FEATURES
  6
Continuous
 62
     7
100
AcDbLine
 10
1483.868714
 20
1907.033208
 30
0.0
 11
1483.868714
 21
1906.533208
 31
0.0
  0
LINE
  5
2F0
330
208
100
AcDbEntity
  8
7_ALL_FEATURES
  6
Continuous
 62
     7
100
AcDbLine
 10
1483.868714
 20
1906.533208
 30
0.0
 11
1483.868714
 21
1906.033208
 31
0.0
  0
LINE
  5
2F1
330
208
100
AcDbEntity
  8
7_ALL_FEATURES
  6
Continuous
 62
     7
100
AcDbLine
 10
1483.868714
 20
1906.033208
 30
0.0
 11
1483.868714
 21
1904.283208
 31
0.0
  0
LINE
  5
2F2
330
208
100
AcDbEntity
  8
7_ALL_FEATURES
  6
Continuous
 62
     7
100
AcDbLine
 10
1483.868714
 20
1897.283208
 30
0.0
 11
1483.868714
 21
1900.783208
 31
0.0
  0
LINE
  5
2F3
330
208
100
AcDbEntity
  8
7_ALL_FEATURES
  6
Continuous
 62
     7
100
AcDbLine
 10
1483.868714
 20
1900.783208
 30
0.0
 11
1483.868714
 21
1904.283208
 31
0.0
  0
LINE
  5
2F4
330
208
100
AcDbEntity
  8
7_ALL_FEATURES
  6
Continuous
 62
     7
100
AcDbLine
 10
1483.868714
 20
1897.283208
 30
0.0
 11
1483.868714
 21
1895.533208
 31
0.0
  0
LINE
  5
2F5
330
208
100
AcDbEntity
  8
7_ALL_FEATURES
  6
Continuous
 62
     7
100
AcDbLine
 10
1483.868714
 20
1895.533208
 30
0.0
 11
1483.868714
 21
1895.033208
 31
0.0
  0
LINE
  5
2F6
330
208
100
AcDbEntity
  8
7_ALL_FEATURES
  6
Continuous
 62
     7
100
AcDbLine
 10
1483.868714
 20
1895.033208
 30
0.0
 11
1483.868714
 21
1894.533208
 31
0.0
  0
LINE
  5
2F7
330
208
100
AcDbEntity
  8
7_ALL_FEATURES
  6
Continuous
 62
     7
100
AcDbLine
 10
1483.868714
 20
1894.533208
 30
0.0
 11
1483.868714
 21
1800.033208
 31
0.0
  0
LINE
  5
2F8
330
208
100
AcDbEntity
  8
7_ALL_FEATURES
  6
Continuous
 62
     7
100
AcDbLine
 10
1483.868714
 20
1800.033208
 30
0.0
 11
1483.868714
 21
1799.533208
 31
0.0
  0
LINE
  5
2F9
330
208
100
AcDbEntity
  8
7_ALL_FEATURES
  6
Continuous
 62
     7
100
AcDbLine
 10
1483.868714
 20
1799.533208
 30
0.0
 11
1483.868714
 21
1799.033208
 31
0.0
  0
LINE
  5
2FA
330
208
100
AcDbEntity
  8
7_ALL_FEATURES
  6
Continuous
 62
     7
100
AcDbLine
 10
1483.868714
 20
1799.033208
 30
0.0
 11
1483.868714
 21
1797.283208
 31
0.0
  0
LINE
  5
2FB
330
208
100
AcDbEntity
  8
7_ALL_FEATURES
  6
Continuous
 62
     7
100
AcDbLine
 10
1483.868714
 20
1790.283208
 30
0.0
 11
1483.868714
 21
1793.783208
 31
0.0
  0
LINE
  5
2FC
330
208
100
AcDbEntity
  8
7_ALL_FEATURES
  6
Continuous
 62
     7
100
AcDbLine
 10
1483.868714
 20
1793.783208
 30
0.0
 11
1483.868714
 21
1797.283208
 31
0.0
  0
LINE
  5
2FD
330
208
100
AcDbEntity
  8
7_ALL_FEATURES
  6
Continuous
 62
     7
100
AcDbLine
 10
1483.868714
 20
1797.283208
 30
0.0
 11
1482.368714
 21
1797.283208
 31
0.0
  0
LINE
  5
2FE
330
208
100
AcDbEntity
  8
7_ALL_FEATURES
  6
Continuous
 62
     7
100
AcDbLine
 10
1482.368714
 20
1790.283208
 30
0.0
 11
1483.326341
 21
1790.283208
 31
0.0
  0
LINE
  5
2FF
330
208
100
AcDbEntity
  8
7_ALL_FEATURES
  6
Continuous
 62
     7
100
AcDbLine
 10
1483.326341
 20
1790.283208
 30
0.0
 11
1483.868714
 21
1790.283208
 31
0.0
  0
SPLINE
  5
300
330
208
100
AcDbEntity
  8
7_ALL_FEATURES
  6
Continuous
 62
     7
100
AcDbSpline
 70
     0
 71
     3
 72
     9
 73
     5
 74
     0
 42
0.000000001
 43
0.0000001
 40
0.0
 40
0.0
 40
0.0
 40
0.0
 40
0.5069388108
 40
1.0
 40
1.0
 40
1.0
 40
1.0
 10
1481.1699130196
 20
1793.783207595
 30
0.0
 10
1481.1699130196
 20
1794.0807914154
 30
0.0
 10
1481.4457958827
 20
1794.6687369655
 30
0.0
 10
1481.9557992841
 20
1794.99143377
 30
0.0
 10
1482.2215743882
 20
1795.1060530569
 30
0.0
  0
ARC
  5
301
330
208
100
AcDbEntity
  8
7_ALL_FEATURES
  6
Continuous
 62
     7
100
AcDbCircle
 10
1483.145006
 20
1792.964786
 30
0.0
 40
2.3318986512
100
AcDbArc
 50
109.439506
 51
113.328353
  0
SPLINE
  5
302
330
208
100
AcDbEntity
  8
7_ALL_FEATURES
  6
Continuous
 62
     7
100
AcDbSpline
 70
     0
 71
     3
 72
     9
 73
     5
 74
     0
 42
0.000000001
 43
0.0000001
 40
0.0
 40
0.0
 40
0.0
 40
0.0
 40
0.2711791142
 40
1.0
 40
1.0
 40
1.0
 40
1.0
 10
1482.3689236699
 20
1795.163750938
 30
0.0
 10
1482.4247415848
 20
1795.1834500685
 30
0.0
 10
1482.6331137481
 20
1795.2481584298
 30
0.0
 10
1482.8519911973
 20
1795.283207595
 30
0.0
 10
1483.0110756511
 20
1795.283207595
 30
0.0
  0
ARC
  5
303
330
208
100
AcDbEntity
  8
7_ALL_FEATURES
  6
Continuous
 62
     7
100
AcDbCircle
 10
1470.411757
 20
1898.783208
 30
0.0
 40
1.5
100
AcDbArc
 50
180.0
 51
189.648474
  0
LINE
  5
304
330
208
100
AcDbEntity
  8
7_ALL_FEATURES
  6
Continuous
 62
     7
100
AcDbLine
 10
1468.911757
 20
1902.783208
 30
0.0
 11
1468.911757
 21
1898.783208
 31
0.0
  0
ARC
  5
305
330
208
100
AcDbEntity
  8
7_ALL_FEATURES
  6
Continuous
 62
     7
100
AcDbCircle
 10
1470.411757
 20
1902.783208
 30
0.0
 40
1.5
100
AcDbArc
 50
170.351526
 51
180.0
  0
ARC
  5
306
330
208
100
AcDbEntity
  8
3_ALL_AXES
  6
Continuous
 62
     7
100
AcDbCircle
 10
1473.259909
 20
1900.783208
 30
0.0
 40
0.95
100
AcDbArc
 50
180.0
 51
360.0
  0
ARC
  5
307
330
208
100
AcDbEntity
  8
3_ALL_AXES
  6
Continuous
 62
     7
100
AcDbCircle
 10
1473.259909
 20
1900.783208
 30
0.0
 40
0.95
100
AcDbArc
 50
0.0
 51
180.0
  0
LINE
  5
308
330
208
100
AcDbEntity
  8
7_ALL_FEATURES
  6
Continuous
 62
     7
100
AcDbLine
 10
1482.368714
 20
1770.033208
 30
0.0
 11
1483.868714
 21
1770.033208
 31
0.0
  0
LINE
  5
309
330
208
100
AcDbEntity
  8
7_ALL_FEATURES
  6
Continuous
 62
     7
100
AcDbLine
 10
1482.368714
 20
1788.033208
 30
0.0
 11
1483.868714
 21
1788.033208
 31
0.0
  0
LINE
  5
30A
330
208
100
AcDbEntity
  8
7_ALL_FEATURES
  6
Continuous
 62
     7
100
AcDbLine
 10
1483.868714
 20
1904.283208
 30
0.0
 11
1482.368714
 21
1904.283208
 31
0.0
  0
LINE
  5
30B
330
208
100
AcDbEntity
  8
7_ALL_FEATURES
  6
Continuous
 62
     7
100
AcDbLine
 10
1482.368714
 20
1897.283208
 30
0.0
 11
1483.326341
 21
1897.283208
 31
0.0
  0
LINE
  5
30C
330
208
100
AcDbEntity
  8
7_ALL_FEATURES
  6
Continuous
 62
     7
100
AcDbLine
 10
1483.326341
 20
1897.283208
 30
0.0
 11
1483.868714
 21
1897.283208
 31
0.0
  0
SPLINE
  5
30D
330
208
100
AcDbEntity
  8
7_ALL_FEATURES
  6
Continuous
 62
     7
100
AcDbSpline
 70
     0
 71
     3
 72
     9
 73
     5
 74
     0
 42
0.000000001
 43
0.0000001
 40
0.0
 40
0.0
 40
0.0
 40
0.0
 40
0.5069388108
 40
1.0
 40
1.0
 40
1.0
 40
1.0
 10
1481.1699130196
 20
1900.783207595
 30
0.0
 10
1481.1699130196
 20
1901.0807914154
 30
0.0
 10
1481.4457958827
 20
1901.6687369655
 30
0.0
 10
1481.9557992841
 20
1901.99143377
 30
0.0
 10
1482.2215743882
 20
1902.1060530569
 30
0.0
  0
ARC
  5
30E
330
208
100
AcDbEntity
  8
7_ALL_FEATURES
  6
Continuous
 62
     7
100
AcDbCircle
 10
1483.145006
 20
1899.964786
 30
0.0
 40
2.3318986516
100
AcDbArc
 50
109.439506
 51
113.328353
  0
SPLINE
  5
30F
330
208
100
AcDbEntity
  8
7_ALL_FEATURES
  6
Continuous
 62
     7
100
AcDbSpline
 70
     0
 71
     3
 72
     9
 73
     5
 74
     0
 42
0.000000001
 43
0.0000001
 40
0.0
 40
0.0
 40
0.0
 40
0.0
 40
0.2711791142
 40
1.0
 40
1.0
 40
1.0
 40
1.0
 10
1482.3689236699
 20
1902.163750938
 30
0.0
 10
1482.4247415848
 20
1902.1834500685
 30
0.0
 10
1482.6331137481
 20
1902.2481584298
 30
0.0
 10
1482.8519911973
 20
1902.283207595
 30
0.0
 10
1483.0110756511
 20
1902.283207595
 30
0.0
  0
LINE
  5
310
330
208
100
AcDbEntity
  8
7_ALL_FEATURES
  6
Continuous
 62
     7
100
AcDbLine
 10
1482.368714
 20
1799.533208
 30
0.0
 11
1483.868714
 21
1799.533208
 31
0.0
  0
LINE
  5
311
330
208
100
AcDbEntity
  8
7_ALL_FEATURES
  6
Continuous
 62
     7
100
AcDbLine
 10
1482.368714
 20
1895.033208
 30
0.0
 11
1483.868714
 21
1895.033208
 31
0.0
  0
LINE
  5
312
330
208
100
AcDbEntity
  8
7_ALL_FEATURES
  6
Continuous
 62
     7
100
AcDbLine
 10
1482.368714
 20
1906.533208
 30
0.0
 11
1483.868714
 21
1906.533208
 31
0.0
  0
LINE
  5
313
330
208
100
AcDbEntity
  8
7_ALL_FEATURES
  6
Continuous
 62
     7
100
AcDbLine
 10
1482.368714
 20
1920.533208
 30
0.0
 11
1483.868714
 21
1920.533208
 31
0.0
  0
LINE
  5
314
330
208
100
AcDbEntity
  8
7_ALL_FEATURES
  6
Continuous
 62
     9
100
AcDbLine
 10
1482.368714
 20
1907.033208
 30
0.0
 11
1483.868714
 21
1907.033208
 31
0.0
  0
LINE
  5
315
330
208
100
AcDbEntity
  8
7_ALL_FEATURES
  6
Continuous
 62
     9
100
AcDbLine
 10
1482.368714
 20
1919.533208
 30
0.0
 11
1483.868714
 21
1919.533208
 31
0.0
  0
LINE
  5
316
330
208
100
AcDbEntity
  8
7_ALL_FEATURES
  6
Continuous
 62
     9
100
AcDbLine
 10
1482.368714
 20
1772.033208
 30
0.0
 11
1483.868714
 21
1772.033208
 31
0.0
  0
LINE
  5
317
330
208
100
AcDbEntity
  8
7_ALL_FEATURES
  6
Continuous
 62
     9
100
AcDbLine
 10
1482.368714
 20
1787.533208
 30
0.0
 11
1483.868714
 21
1787.533208
 31
0.0
  0
SPLINE
  5
318
330
208
100
AcDbEntity
  8
7_ALL_FEATURES
  6
Continuous
 62
     7
100
AcDbSpline
 70
     0
 71
     3
 72
    11
 73
     7
 74
     0
 42
0.000000001
 43
0.0000001
 40
0.0
 40
0.0
 40
0.0
 40
0.0
 40
0.2207193501
 40
0.415121875
 40
0.6640399909
 40
1.0
 40
1.0
 40
1.0
 40
1.0
 10
1483.0110756511
 20
1795.283207595
 30
0.0
 10
1483.1566563307
 20
1795.283207595
 30
0.0
 10
1483.4440604126
 20
1795.2474003482
 30
0.0
 10
1483.7720376126
 20
1794.9113422322
 30
0.0
 10
1483.8526547628
 20
1794.3867965649
 30
0.0
 10
1483.8589675087
 20
1794.0047979829
 30
0.0
 10
1483.8589675087
 20
1793.783207595
 30
0.0
  0
LINE
  5
319
330
208
100
AcDbEntity
  8
7_ALL_FEATURES
  6
Continuous
 62
     9
100
AcDbLine
 10
1482.368714
 20
1788.533208
 30
0.0
 11
1483.868714
 21
1788.533208
 31
0.0
  0
LINE
  5
31A
330
208
100
AcDbEntity
  8
7_ALL_FEATURES
  6
Continuous
 62
     9
100
AcDbLine
 10
1482.368714
 20
1799.033208
 30
0.0
 11
1483.868714
 21
1799.033208
 31
0.0
  0
LINE
  5
31B
330
208
100
AcDbEntity
  8
7_ALL_FEATURES
  6
Continuous
 62
     9
100
AcDbLine
 10
1480.868714
 20
1898.533208
 30
0.0
 11
1480.868714
 21
1903.033208
 31
0.0
  0
LINE
  5
31C
330
208
100
AcDbEntity
  8
7_ALL_FEATURES
  6
Continuous
 62
     9
100
AcDbLine
 10
1482.363841
 20
1900.783208
 30
0.0
 11
1483.858968
 21
1900.783208
 31
0.0
  0
SPLINE
  5
31D
330
208
100
AcDbEntity
  8
7_ALL_FEATURES
  6
Continuous
 62
     7
100
AcDbSpline
 70
     0
 71
     3
 72
    11
 73
     7
 74
     0
 42
0.000000001
 43
0.0000001
 40
0.0
 40
0.0
 40
0.0
 40
0.0
 40
0.3359600091
 40
0.584878125
 40
0.7792806499
 40
1.0
 40
1.0
 40
1.0
 40
1.0
 10
1483.8589675087
 20
1900.783207595
 30
0.0
 10
1483.8589675087
 20
1900.5616172071
 30
0.0
 10
1483.8526547628
 20
1900.1796186251
 30
0.0
 10
1483.7720376126
 20
1899.6550729578
 30
0.0
 10
1483.4440604126
 20
1899.3190148417
 30
0.0
 10
1483.1566563307
 20
1899.283207595
 30
0.0
 10
1483.0110756511
 20
1899.283207595
 30
0.0
  0
LINE
  5
31E
330
208
100
AcDbEntity
  8
7_ALL_FEATURES
  6
Continuous
 62
     9
100
AcDbLine
 10
1482.363841
 20
1793.783208
 30
0.0
 11
1483.858968
 21
1793.783208
 31
0.0
  0
LINE
  5
31F
330
208
100
AcDbEntity
  8
7_ALL_FEATURES
  6
Continuous
 62
     9
100
AcDbLine
 10
1480.868714
 20
1791.533208
 30
0.0
 11
1480.868714
 21
1796.033208
 31
0.0
  0
LINE
  5
320
330
208
100
AcDbEntity
  8
7_ALL_FEATURES
  6
Continuous
 62
     9
100
AcDbLine
 10
1482.368714
 20
1800.033208
 30
0.0
 11
1483.868714
 21
1800.033208
 31
0.0
  0
LINE
  5
321
330
208
100
AcDbEntity
  8
7_ALL_FEATURES
  6
Continuous
 62
     9
100
AcDbLine
 10
1482.368714
 20
1894.533208
 30
0.0
 11
1483.868714
 21
1894.533208
 31
0.0
  0
SPLINE
  5
322
330
208
100
AcDbEntity
  8
7_ALL_FEATURES
  6
Continuous
 62
     7
100
AcDbSpline
 70
     0
 71
     3
 72
    11
 73
     7
 74
     0
 42
0.000000001
 43
0.0000001
 40
0.0
 40
0.0
 40
0.0
 40
0.0
 40
0.3359600091
 40
0.584878125
 40
0.7792806499
 40
1.0
 40
1.0
 40
1.0
 40
1.0
 10
1483.8589675087
 20
1793.783207595
 30
0.0
 10
1483.8589675087
 20
1793.5616172071
 30
0.0
 10
1483.8526547628
 20
1793.1796186251
 30
0.0
 10
1483.7720376126
 20
1792.6550729578
 30
0.0
 10
1483.4440604126
 20
1792.3190148417
 30
0.0
 10
1483.1566563307
 20
1792.283207595
 30
0.0
 10
1483.0110756511
 20
1792.283207595
 30
0.0
  0
SPLINE
  5
323
330
208
100
AcDbEntity
  8
7_ALL_FEATURES
  6
Continuous
 62
     7
100
AcDbSpline
 70
     0
 71
     3
 72
    11
 73
     7
 74
     0
 42
0.000000001
 43
0.0000001
 40
0.0
 40
0.0
 40
0.0
 40
0.0
 40
0.2207193501
 40
0.415121875
 40
0.6640399909
 40
1.0
 40
1.0
 40
1.0
 40
1.0
 10
1483.0110756511
 20
1902.283207595
 30
0.0
 10
1483.1566563307
 20
1902.283207595
 30
0.0
 10
1483.4440604126
 20
1902.2474003482
 30
0.0
 10
1483.7720376126
 20
1901.9113422322
 30
0.0
 10
1483.8526547628
 20
1901.3867965649
 30
0.0
 10
1483.8589675087
 20
1901.0047979829
 30
0.0
 10
1483.8589675087
 20
1900.783207595
 30
0.0
  0
LINE
  5
324
330
208
100
AcDbEntity
  8
7_ALL_FEATURES
  6
Continuous
 62
     9
100
AcDbLine
 10
1482.368714
 20
1895.533208
 30
0.0
 11
1483.868714
 21
1895.533208
 31
0.0
  0
LINE
  5
325
330
208
100
AcDbEntity
  8
7_ALL_FEATURES
  6
Continuous
 62
     9
100
AcDbLine
 10
1482.368714
 20
1906.033208
 30
0.0
 11
1483.868714
 21
1906.033208
 31
0.0
  0
LINE
  5
326
330
208
100
AcDbEntity
  8
7_ALL_FEATURES
  6
Continuous
 62
     7
100
AcDbLine
 10
516.868714
 20
1920.533208
 30
0.0
 11
1482.368714
 21
1920.533208
 31
0.0
  0
LINE
  5
327
330
208
100
AcDbEntity
  8
7_ALL_FEATURES
  6
Continuous
 62
     7
100
AcDbLine
 10
516.868714
 20
1903.033208
 30
0.0
 11
530.325672
 21
1903.033208
 31
0.0
  0
LINE
  5
328
330
208
100
AcDbEntity
  8
7_ALL_FEATURES
  6
Continuous
 62
     7
100
AcDbLine
 10
530.325672
 20
1903.033208
 30
0.0
 11
1468.911757
 21
1903.033208
 31
0.0
  0
LINE
  5
329
330
208
100
AcDbEntity
  8
7_ALL_FEATURES
  6
Continuous
 62
     7
100
AcDbLine
 10
1468.911757
 20
1903.033208
 30
0.0
 11
1482.368714
 21
1903.033208
 31
0.0
  0
LINE
  5
32A
330
208
100
AcDbEntity
  8
7_ALL_FEATURES
  6
Continuous
 62
     7
100
AcDbLine
 10
516.868714
 20
1898.533208
 30
0.0
 11
530.325672
 21
1898.533208
 31
0.0
  0
LINE
  5
32B
330
208
100
AcDbEntity
  8
7_ALL_FEATURES
  6
Continuous
 62
     7
100
AcDbLine
 10
530.325672
 20
1898.533208
 30
0.0
 11
1468.911757
 21
1898.533208
 31
0.0
  0
LINE
  5
32C
330
208
100
AcDbEntity
  8
7_ALL_FEATURES
  6
Continuous
 62
     7
100
AcDbLine
 10
1468.911757
 20
1898.533208
 30
0.0
 11
1482.368714
 21
1898.533208
 31
0.0
  0
LINE
  5
32D
330
208
100
AcDbEntity
  8
7_ALL_FEATURES
  6
Continuous
 62
     7
100
AcDbLine
 10
516.868714
 20
1895.033208
 30
0.0
 11
1482.368714
 21
1895.033208
 31
0.0
  0
LINE
  5
32E
330
208
100
AcDbEntity
  8
7_ALL_FEATURES
  6
Continuous
 62
     7
100
AcDbLine
 10
516.868714
 20
1799.533208
 30
0.0
 11
1482.368714
 21
1799.533208
 31
0.0
  0
LINE
  5
32F
330
208
100
AcDbEntity
  8
7_ALL_FEATURES
  6
Continuous
 62
     7
100
AcDbLine
 10
516.868714
 20
1796.033208
 30
0.0
 11
530.325672
 21
1796.033208
 31
0.0
  0
LINE
  5
330
330
208
100
AcDbEntity
  8
7_ALL_FEATURES
  6
Continuous
 62
     7
100
AcDbLine
 10
530.325672
 20
1796.033208
 30
0.0
 11
1468.911757
 21
1796.033208
 31
0.0
  0
LINE
  5
331
330
208
100
AcDbEntity
  8
7_ALL_FEATURES
  6
Continuous
 62
     7
100
AcDbLine
 10
1468.911757
 20
1796.033208
 30
0.0
 11
1482.368714
 21
1796.033208
 31
0.0
  0
LINE
  5
332
330
208
100
AcDbEntity
  8
7_ALL_FEATURES
  6
Continuous
 62
     7
100
AcDbLine
 10
516.868714
 20
1791.533208
 30
0.0
 11
530.325672
 21
1791.533208
 31
0.0
  0
LINE
  5
333
330
208
100
AcDbEntity
  8
7_ALL_FEATURES
  6
Continuous
 62
     7
100
AcDbLine
 10
530.325672
 20
1791.533208
 30
0.0
 11
1468.911757
 21
1791.533208
 31
0.0
  0
LINE
  5
334
330
208
100
AcDbEntity
  8
7_ALL_FEATURES
  6
Continuous
 62
     7
100
AcDbLine
 10
1468.911757
 20
1791.533208
 30
0.0
 11
1482.368714
 21
1791.533208
 31
0.0
  0
LINE
  5
335
330
208
100
AcDbEntity
  8
7_ALL_FEATURES
  6
Continuous
 62
     7
100
AcDbLine
 10
516.868714
 20
1788.033208
 30
0.0
 11
1482.368714
 21
1788.033208
 31
0.0
  0
LINE
  5
336
330
208
100
AcDbEntity
  8
7_ALL_FEATURES
  6
Continuous
 62
     7
100
AcDbLine
 10
516.868714
 20
1770.033208
 30
0.0
 11
1482.368714
 21
1770.033208
 31
0.0
  0
LINE
  5
337
330
208
100
AcDbEntity
  8
7_ALL_FEATURES
  6
Continuous
 62
     7
100
AcDbLine
 10
1482.368714
 20
1920.533208
 30
0.0
 11
1482.368714
 21
1920.333208
 31
0.0
  0
LINE
  5
338
330
208
100
AcDbEntity
  8
7_ALL_FEATURES
  6
Continuous
 62
     7
100
AcDbLine
 10
1482.368714
 20
1920.333208
 30
0.0
 11
1482.368714
 21
1919.533208
 31
0.0
  0
LINE
  5
339
330
208
100
AcDbEntity
  8
7_ALL_FEATURES
  6
Continuous
 62
     7
100
AcDbLine
 10
1482.368714
 20
1919.533208
 30
0.0
 11
1482.368714
 21
1918.533208
 31
0.0
  0
LINE
  5
33A
330
208
100
AcDbEntity
  8
7_ALL_FEATURES
  6
Continuous
 62
     7
100
AcDbLine
 10
1482.368714
 20
1918.533208
 30
0.0
 11
1482.368714
 21
1918.133208
 31
0.0
  0
LINE
  5
33B
330
208
100
AcDbEntity
  8
7_ALL_FEATURES
  6
Continuous
 62
     7
100
AcDbLine
 10
1482.368714
 20
1918.133208
 30
0.0
 11
1482.368714
 21
1917.933208
 31
0.0
  0
LINE
  5
33C
330
208
100
AcDbEntity
  8
7_ALL_FEATURES
  6
Continuous
 62
     7
100
AcDbLine
 10
1482.368714
 20
1917.933208
 30
0.0
 11
1482.368714
 21
1917.533208
 31
0.0
  0
LINE
  5
33D
330
208
100
AcDbEntity
  8
7_ALL_FEATURES
  6
Continuous
 62
     7
100
AcDbLine
 10
1482.368714
 20
1917.533208
 30
0.0
 11
1482.368714
 21
1907.033208
 31
0.0
  0
LINE
  5
33E
330
208
100
AcDbEntity
  8
7_ALL_FEATURES
  6
Continuous
 62
     7
100
AcDbLine
 10
1482.368714
 20
1907.033208
 30
0.0
 11
1482.368714
 21
1906.733208
 31
0.0
  0
LINE
  5
33F
330
208
100
AcDbEntity
  8
7_ALL_FEATURES
  6
Continuous
 62
     7
100
AcDbLine
 10
1482.368714
 20
1906.733208
 30
0.0
 11
1482.368714
 21
1906.533208
 31
0.0
  0
LINE
  5
340
330
208
100
AcDbEntity
  8
7_ALL_FEATURES
  6
Continuous
 62
     7
100
AcDbLine
 10
1482.368714
 20
1906.533208
 30
0.0
 11
1482.368714
 21
1906.386761
 31
0.0
  0
LINE
  5
341
330
208
100
AcDbEntity
  8
7_ALL_FEATURES
  6
Continuous
 62
     7
100
AcDbLine
 10
1482.368714
 20
1906.386761
 30
0.0
 11
1482.368714
 21
1906.033208
 31
0.0
  0
LINE
  5
342
330
208
100
AcDbEntity
  8
7_ALL_FEATURES
  6
Continuous
 62
     7
100
AcDbLine
 10
1482.368714
 20
1906.033208
 30
0.0
 11
1482.368714
 21
1904.533208
 31
0.0
  0
LINE
  5
343
330
208
100
AcDbEntity
  8
7_ALL_FEATURES
  6
Continuous
 62
     7
100
AcDbLine
 10
1482.368714
 20
1904.533208
 30
0.0
 11
1482.368714
 21
1903.533208
 31
0.0
  0
LINE
  5
344
330
208
100
AcDbEntity
  8
7_ALL_FEATURES
  6
Continuous
 62
     7
100
AcDbLine
 10
1482.368714
 20
1903.533208
 30
0.0
 11
1482.368714
 21
1903.033208
 31
0.0
  0
LINE
  5
345
330
208
100
AcDbEntity
  8
7_ALL_FEATURES
  6
Continuous
 62
     7
100
AcDbLine
 10
1482.368714
 20
1898.533208
 30
0.0
 11
1482.368714
 21
1898.033208
 31
0.0
  0
LINE
  5
346
330
208
100
AcDbEntity
  8
7_ALL_FEATURES
  6
Continuous
 62
     7
100
AcDbLine
 10
1482.368714
 20
1898.033208
 30
0.0
 11
1482.368714
 21
1897.033208
 31
0.0
  0
LINE
  5
347
330
208
100
AcDbEntity
  8
7_ALL_FEATURES
  6
Continuous
 62
     7
100
AcDbLine
 10
1482.368714
 20
1897.033208
 30
0.0
 11
1482.368714
 21
1895.533208
 31
0.0
  0
LINE
  5
348
330
208
100
AcDbEntity
  8
7_ALL_FEATURES
  6
Continuous
 62
     7
100
AcDbLine
 10
1482.368714
 20
1895.533208
 30
0.0
 11
1482.368714
 21
1895.033208
 31
0.0
  0
LINE
  5
349
330
208
100
AcDbEntity
  8
7_ALL_FEATURES
  6
Continuous
 62
     7
100
AcDbLine
 10
1482.368714
 20
1894.833208
 30
0.0
 11
1482.368714
 21
1894.533208
 31
0.0
  0
LINE
  5
34A
330
208
100
AcDbEntity
  8
7_ALL_FEATURES
  6
Continuous
 62
     7
100
AcDbLine
 10
1482.368714
 20
1894.533208
 30
0.0
 11
1482.368714
 21
1873.533208
 31
0.0
  0
LINE
  5
34B
330
208
100
AcDbEntity
  8
7_ALL_FEATURES
  6
Continuous
 62
     7
100
AcDbLine
 10
1482.368714
 20
1873.533208
 30
0.0
 11
1482.368714
 21
1800.033208
 31
0.0
  0
LINE
  5
34C
330
208
100
AcDbEntity
  8
7_ALL_FEATURES
  6
Continuous
 62
     7
100
AcDbLine
 10
1482.368714
 20
1800.033208
 30
0.0
 11
1482.368714
 21
1799.733208
 31
0.0
  0
LINE
  5
34D
330
208
100
AcDbEntity
  8
7_ALL_FEATURES
  6
Continuous
 62
     7
100
AcDbLine
 10
1482.368714
 20
1799.733208
 30
0.0
 11
1482.368714
 21
1799.533208
 31
0.0
  0
LINE
  5
34E
330
208
100
AcDbEntity
  8
7_ALL_FEATURES
  6
Continuous
 62
     7
100
AcDbLine
 10
1482.368714
 20
1799.533208
 30
0.0
 11
1482.368714
 21
1799.386761
 31
0.0
  0
LINE
  5
34F
330
208
100
AcDbEntity
  8
7_ALL_FEATURES
  6
Continuous
 62
     7
100
AcDbLine
 10
1482.368714
 20
1799.386761
 30
0.0
 11
1482.368714
 21
1799.033208
 31
0.0
  0
LINE
  5
350
330
208
100
AcDbEntity
  8
7_ALL_FEATURES
  6
Continuous
 62
     7
100
AcDbLine
 10
516.868714
 20
1906.533208
 30
0.0
 11
1482.368714
 21
1906.533208
 31
0.0
  0
LINE
  5
351
330
208
100
AcDbEntity
  8
7_ALL_FEATURES
  6
Continuous
 62
     7
100
AcDbLine
 10
1482.368714
 20
1799.033208
 30
0.0
 11
1482.368714
 21
1797.533208
 31
0.0
  0
LINE
  5
352
330
208
100
AcDbEntity
  8
7_ALL_FEATURES
  6
Continuous
 62
     7
100
AcDbLine
 10
1482.368714
 20
1797.533208
 30
0.0
 11
1482.368714
 21
1796.533208
 31
0.0
  0
LINE
  5
353
330
208
100
AcDbEntity
  8
7_ALL_FEATURES
  6
Continuous
 62
     7
100
AcDbLine
 10
1482.368714
 20
1796.533208
 30
0.0
 11
1482.368714
 21
1796.033208
 31
0.0
  0
LINE
  5
354
330
208
100
AcDbEntity
  8
7_ALL_FEATURES
  6
Continuous
 62
     7
100
AcDbLine
 10
1482.368714
 20
1791.533208
 30
0.0
 11
1482.368714
 21
1791.033208
 31
0.0
  0
LINE
  5
355
330
208
100
AcDbEntity
  8
7_ALL_FEATURES
  6
Continuous
 62
     7
100
AcDbLine
 10
1482.368714
 20
1791.033208
 30
0.0
 11
1482.368714
 21
1790.033208
 31
0.0
  0
LINE
  5
356
330
208
100
AcDbEntity
  8
7_ALL_FEATURES
  6
Continuous
 62
     7
100
AcDbLine
 10
1482.368714
 20
1790.033208
 30
0.0
 11
1482.368714
 21
1788.533208
 31
0.0
  0
LINE
  5
357
330
208
100
AcDbEntity
  8
7_ALL_FEATURES
  6
Continuous
 62
     7
100
AcDbLine
 10
1482.368714
 20
1788.533208
 30
0.0
 11
1482.368714
 21
1788.033208
 31
0.0
  0
LINE
  5
358
330
208
100
AcDbEntity
  8
7_ALL_FEATURES
  6
Continuous
 62
     7
100
AcDbLine
 10
1482.368714
 20
1787.833208
 30
0.0
 11
1482.368714
 21
1787.533208
 31
0.0
  0
LINE
  5
359
330
208
100
AcDbEntity
  8
7_ALL_FEATURES
  6
Continuous
 62
     7
100
AcDbLine
 10
1482.368714
 20
1787.533208
 30
0.0
 11
1482.368714
 21
1772.033208
 31
0.0
  0
LINE
  5
35A
330
208
100
AcDbEntity
  8
7_ALL_FEATURES
  6
Continuous
 62
     7
100
AcDbLine
 10
1482.368714
 20
1772.033208
 30
0.0
 11
1482.368714
 21
1771.033208
 31
0.0
  0
LINE
  5
35B
330
208
100
AcDbEntity
  8
7_ALL_FEATURES
  6
Continuous
 62
     7
100
AcDbLine
 10
1482.368714
 20
1771.033208
 30
0.0
 11
1482.368714
 21
1770.033208
 31
0.0
  0
LINE
  5
35C
330
208
100
AcDbEntity
  8
7_ALL_FEATURES
  6
Continuous
 62
     7
100
AcDbLine
 10
516.868714
 20
1771.033208
 30
0.0
 11
516.868714
 21
1770.033208
 31
0.0
  0
LINE
  5
35D
330
208
100
AcDbEntity
  8
7_ALL_FEATURES
  6
Continuous
 62
     7
100
AcDbLine
 10
516.868714
 20
1787.833208
 30
0.0
 11
516.868714
 21
1787.533208
 31
0.0
  0
LINE
  5
35E
330
208
100
AcDbEntity
  8
7_ALL_FEATURES
  6
Continuous
 62
     7
100
AcDbLine
 10
516.868714
 20
1787.533208
 30
0.0
 11
516.868714
 21
1772.033208
 31
0.0
  0
LINE
  5
35F
330
208
100
AcDbEntity
  8
7_ALL_FEATURES
  6
Continuous
 62
     7
100
AcDbLine
 10
516.868714
 20
1772.033208
 30
0.0
 11
516.868714
 21
1771.033208
 31
0.0
  0
LINE
  5
360
330
208
100
AcDbEntity
  8
7_ALL_FEATURES
  6
Continuous
 62
     7
100
AcDbLine
 10
516.868714
 20
1788.533208
 30
0.0
 11
516.868714
 21
1788.033208
 31
0.0
  0
LINE
  5
361
330
208
100
AcDbEntity
  8
7_ALL_FEATURES
  6
Continuous
 62
     7
100
AcDbLine
 10
516.868714
 20
1791.033208
 30
0.0
 11
516.868714
 21
1790.033208
 31
0.0
  0
LINE
  5
362
330
208
100
AcDbEntity
  8
7_ALL_FEATURES
  6
Continuous
 62
     7
100
AcDbLine
 10
516.868714
 20
1790.033208
 30
0.0
 11
516.868714
 21
1788.533208
 31
0.0
  0
LINE
  5
363
330
208
100
AcDbEntity
  8
7_ALL_FEATURES
  6
Continuous
 62
     7
100
AcDbLine
 10
516.868714
 20
1791.533208
 30
0.0
 11
516.868714
 21
1791.033208
 31
0.0
  0
LINE
  5
364
330
208
100
AcDbEntity
  8
7_ALL_FEATURES
  6
Continuous
 62
     7
100
AcDbLine
 10
516.868714
 20
1796.533208
 30
0.0
 11
516.868714
 21
1796.033208
 31
0.0
  0
LINE
  5
365
330
208
100
AcDbEntity
  8
7_ALL_FEATURES
  6
Continuous
 62
     7
100
AcDbLine
 10
516.868714
 20
1799.033208
 30
0.0
 11
516.868714
 21
1797.533208
 31
0.0
  0
LINE
  5
366
330
208
100
AcDbEntity
  8
7_ALL_FEATURES
  6
Continuous
 62
     7
100
AcDbLine
 10
516.868714
 20
1797.533208
 30
0.0
 11
516.868714
 21
1796.533208
 31
0.0
  0
LINE
  5
367
330
208
100
AcDbEntity
  8
7_ALL_FEATURES
  6
Continuous
 62
     7
100
AcDbLine
 10
516.868714
 20
1799.533208
 30
0.0
 11
516.868714
 21
1799.353471
 31
0.0
  0
LINE
  5
368
330
208
100
AcDbEntity
  8
7_ALL_FEATURES
  6
Continuous
 62
     7
100
AcDbLine
 10
516.868714
 20
1799.353471
 30
0.0
 11
516.868714
 21
1799.033208
 31
0.0
  0
LINE
  5
369
330
208
100
AcDbEntity
  8
7_ALL_FEATURES
  6
Continuous
 62
     7
100
AcDbLine
 10
516.868714
 20
1799.733208
 30
0.0
 11
516.868714
 21
1799.533208
 31
0.0
  0
LINE
  5
36A
330
208
100
AcDbEntity
  8
7_ALL_FEATURES
  6
Continuous
 62
     7
100
AcDbLine
 10
516.868714
 20
1894.833208
 30
0.0
 11
516.868714
 21
1894.533208
 31
0.0
  0
LINE
  5
36B
330
208
100
AcDbEntity
  8
7_ALL_FEATURES
  6
Continuous
 62
     7
100
AcDbLine
 10
516.868714
 20
1894.533208
 30
0.0
 11
516.868714
 21
1800.033208
 31
0.0
  0
LINE
  5
36C
330
208
100
AcDbEntity
  8
7_ALL_FEATURES
  6
Continuous
 62
     7
100
AcDbLine
 10
516.868714
 20
1800.033208
 30
0.0
 11
516.868714
 21
1799.733208
 31
0.0
  0
LINE
  5
36D
330
208
100
AcDbEntity
  8
7_ALL_FEATURES
  6
Continuous
 62
     7
100
AcDbLine
 10
516.868714
 20
1895.533208
 30
0.0
 11
516.868714
 21
1895.033208
 31
0.0
  0
LINE
  5
36E
330
208
100
AcDbEntity
  8
7_ALL_FEATURES
  6
Continuous
 62
     7
100
AcDbLine
 10
516.868714
 20
1898.033208
 30
0.0
 11
516.868714
 21
1897.033208
 31
0.0
  0
LINE
  5
36F
330
208
100
AcDbEntity
  8
7_ALL_FEATURES
  6
Continuous
 62
     7
100
AcDbLine
 10
516.868714
 20
1897.033208
 30
0.0
 11
516.868714
 21
1895.533208
 31
0.0
  0
LINE
  5
370
330
208
100
AcDbEntity
  8
7_ALL_FEATURES
  6
Continuous
 62
     7
100
AcDbLine
 10
516.868714
 20
1898.533208
 30
0.0
 11
516.868714
 21
1898.033208
 31
0.0
  0
LINE
  5
371
330
208
100
AcDbEntity
  8
7_ALL_FEATURES
  6
Continuous
 62
     7
100
AcDbLine
 10
516.868714
 20
1903.533208
 30
0.0
 11
516.868714
 21
1903.033208
 31
0.0
  0
LINE
  5
372
330
208
100
AcDbEntity
  8
7_ALL_FEATURES
  6
Continuous
 62
     7
100
AcDbLine
 10
516.868714
 20
1906.033208
 30
0.0
 11
516.868714
 21
1904.533208
 31
0.0
  0
LINE
  5
373
330
208
100
AcDbEntity
  8
7_ALL_FEATURES
  6
Continuous
 62
     7
100
AcDbLine
 10
516.868714
 20
1904.533208
 30
0.0
 11
516.868714
 21
1903.533208
 31
0.0
  0
LINE
  5
374
330
208
100
AcDbEntity
  8
7_ALL_FEATURES
  6
Continuous
 62
     7
100
AcDbLine
 10
516.868714
 20
1906.533208
 30
0.0
 11
516.868714
 21
1906.353471
 31
0.0
  0
LINE
  5
375
330
208
100
AcDbEntity
  8
7_ALL_FEATURES
  6
Continuous
 62
     7
100
AcDbLine
 10
516.868714
 20
1906.353471
 30
0.0
 11
516.868714
 21
1906.033208
 31
0.0
  0
LINE
  5
376
330
208
100
AcDbEntity
  8
7_ALL_FEATURES
  6
Continuous
 62
     7
100
AcDbLine
 10
516.868714
 20
1906.733208
 30
0.0
 11
516.868714
 21
1906.533208
 31
0.0
  0
LINE
  5
377
330
208
100
AcDbEntity
  8
7_ALL_FEATURES
  6
Continuous
 62
     7
100
AcDbLine
 10
516.868714
 20
1920.533208
 30
0.0
 11
516.868714
 21
1920.333208
 31
0.0
  0
LINE
  5
378
330
208
100
AcDbEntity
  8
7_ALL_FEATURES
  6
Continuous
 62
     7
100
AcDbLine
 10
516.868714
 20
1920.333208
 30
0.0
 11
516.868714
 21
1919.533208
 31
0.0
  0
LINE
  5
379
330
208
100
AcDbEntity
  8
7_ALL_FEATURES
  6
Continuous
 62
     7
100
AcDbLine
 10
516.868714
 20
1919.533208
 30
0.0
 11
516.868714
 21
1918.533208
 31
0.0
  0
LINE
  5
37A
330
208
100
AcDbEntity
  8
7_ALL_FEATURES
  6
Continuous
 62
     7
100
AcDbLine
 10
516.868714
 20
1918.533208
 30
0.0
 11
516.868714
 21
1918.133208
 31
0.0
  0
LINE
  5
37B
330
208
100
AcDbEntity
  8
7_ALL_FEATURES
  6
Continuous
 62
     7
100
AcDbLine
 10
516.868714
 20
1918.133208
 30
0.0
 11
516.868714
 21
1917.933208
 31
0.0
  0
LINE
  5
37C
330
208
100
AcDbEntity
  8
7_ALL_FEATURES
  6
Continuous
 62
     7
100
AcDbLine
 10
516.868714
 20
1917.933208
 30
0.0
 11
516.868714
 21
1917.533208
 31
0.0
  0
LINE
  5
37D
330
208
100
AcDbEntity
  8
7_ALL_FEATURES
  6
Continuous
 62
     7
100
AcDbLine
 10
516.868714
 20
1917.533208
 30
0.0
 11
516.868714
 21
1907.033208
 31
0.0
  0
LINE
  5
37E
330
208
100
AcDbEntity
  8
7_ALL_FEATURES
  6
Continuous
 62
     7
100
AcDbLine
 10
516.868714
 20
1907.033208
 30
0.0
 11
516.868714
 21
1906.733208
 31
0.0
  0
LINE
  5
37F
330
208
100
AcDbEntity
  8
7_ALL_FEATURES
  6
Continuous
 62
     9
100
AcDbLine
 10
516.868714
 20
1906.033208
 30
0.0
 11
1482.368714
 21
1906.033208
 31
0.0
  0
LINE
  5
380
330
208
100
AcDbEntity
  8
7_ALL_FEATURES
  6
Continuous
 62
     9
100
AcDbLine
 10
516.868714
 20
1903.533208
 30
0.0
 11
1482.368714
 21
1903.533208
 31
0.0
  0
LINE
  5
381
330
208
100
AcDbEntity
  8
7_ALL_FEATURES
  6
Continuous
 62
     9
100
AcDbLine
 10
516.868714
 20
1894.833208
 30
0.0
 11
1482.368714
 21
1894.833208
 31
0.0
  0
LINE
  5
382
330
208
100
AcDbEntity
  8
7_ALL_FEATURES
  6
Continuous
 62
     9
100
AcDbLine
 10
516.868714
 20
1799.733208
 30
0.0
 11
1482.368714
 21
1799.733208
 31
0.0
  0
LINE
  5
383
330
208
100
AcDbEntity
  8
7_ALL_FEATURES
  6
Continuous
 62
     9
100
AcDbLine
 10
516.868714
 20
1906.733208
 30
0.0
 11
1482.368714
 21
1906.733208
 31
0.0
  0
LINE
  5
384
330
208
100
AcDbEntity
  8
7_ALL_FEATURES
  6
Continuous
 62
     9
100
AcDbLine
 10
516.868714
 20
1799.033208
 30
0.0
 11
1482.368714
 21
1799.033208
 31
0.0
  0
LINE
  5
385
330
208
100
AcDbEntity
  8
7_ALL_FEATURES
  6
Continuous
 62
     9
100
AcDbLine
 10
516.868714
 20
1796.533208
 30
0.0
 11
1482.368714
 21
1796.533208
 31
0.0
  0
LINE
  5
386
330
208
100
AcDbEntity
  8
7_ALL_FEATURES
  6
Continuous
 62
     9
100
AcDbLine
 10
516.868714
 20
1791.033208
 30
0.0
 11
1482.368714
 21
1791.033208
 31
0.0
  0
LINE
  5
387
330
208
100
AcDbEntity
  8
7_ALL_FEATURES
  6
Continuous
 62
     9
100
AcDbLine
 10
516.868714
 20
1788.533208
 30
0.0
 11
1482.368714
 21
1788.533208
 31
0.0
  0
LINE
  5
388
330
208
100
AcDbEntity
  8
7_ALL_FEATURES
  6
Continuous
 62
     9
100
AcDbLine
 10
516.868714
 20
1920.333208
 30
0.0
 11
1482.368714
 21
1920.333208
 31
0.0
  0
LINE
  5
389
330
208
100
AcDbEntity
  8
7_ALL_FEATURES
  6
Continuous
 62
     9
100
AcDbLine
 10
516.868714
 20
1898.033208
 30
0.0
 11
1482.368714
 21
1898.033208
 31
0.0
  0
LINE
  5
38A
330
208
100
AcDbEntity
  8
7_ALL_FEATURES
  6
Continuous
 62
     9
100
AcDbLine
 10
516.868714
 20
1787.833208
 30
0.0
 11
1482.368714
 21
1787.833208
 31
0.0
  0
LINE
  5
38B
330
208
100
AcDbEntity
  8
7_ALL_FEATURES
  6
Continuous
 62
     9
100
AcDbLine
 10
516.868714
 20
1771.033208
 30
0.0
 11
1482.368714
 21
1771.033208
 31
0.0
  0
LINE
  5
38C
330
208
100
AcDbEntity
  8
7_ALL_FEATURES
  6
Continuous
 62
     9
100
AcDbLine
 10
516.868714
 20
1895.533208
 30
0.0
 11
1482.368714
 21
1895.533208
 31
0.0
  0
LINE
  5
38D
330
208
100
AcDbEntity
  8
7_ALL_FEATURES
  6
Continuous
 62
     3
100
AcDbLine
 10
516.868714
 20
1772.033208
 30
0.0
 11
516.868714
 21
1771.033208
 31
0.0
  0
LINE
  5
38E
330
208
100
AcDbEntity
  8
7_ALL_FEATURES
  6
Continuous
 62
     3
100
AcDbLine
 10
516.868714
 20
1787.533208
 30
0.0
 11
516.868714
 21
1772.033208
 31
0.0
  0
LINE
  5
38F
330
208
100
AcDbEntity
  8
7_ALL_FEATURES
  6
Continuous
 62
     3
100
AcDbLine
 10
516.868714
 20
1787.623984
 30
0.0
 11
516.868714
 21
1787.533208
 31
0.0
  0
LINE
  5
390
330
208
100
AcDbEntity
  8
7_ALL_FEATURES
  6
Continuous
 62
     3
100
AcDbLine
 10
516.868714
 20
1894.533208
 30
0.0
 11
516.868714
 21
1800.033208
 31
0.0
  0
LINE
  5
391
330
208
100
AcDbEntity
  8
7_ALL_FEATURES
  6
Continuous
 62
     3
100
AcDbLine
 10
516.868714
 20
1894.623984
 30
0.0
 11
516.868714
 21
1894.533208
 31
0.0
  0
LINE
  5
392
330
208
100
AcDbEntity
  8
7_ALL_FEATURES
  6
Continuous
 62
     3
100
AcDbLine
 10
516.868714
 20
1919.533208
 30
0.0
 11
516.868714
 21
1907.033208
 31
0.0
  0
LINE
  5
393
330
208
100
AcDbEntity
  8
7_ALL_FEATURES
  6
Continuous
 62
     3
100
AcDbLine
 10
516.868714
 20
1919.71476
 30
0.0
 11
516.868714
 21
1919.533208
 31
0.0
  0
SPLINE
  5
394
330
208
100
AcDbEntity
  8
7_ALL_FEATURES
  6
Continuous
 62
     3
100
AcDbSpline
 70
     0
 71
     3
 72
     9
 73
     5
 74
     0
 42
0.000000001
 43
0.0000001
 40
0.0
 40
0.0
 40
0.0
 40
0.0
 40
0.4580852749
 40
1.0
 40
1.0
 40
1.0
 40
1.0
 10
517.0154072325
 20
1795.1039250936
 30
0.0
 10
516.9163458188
 20
1794.9259382458
 30
0.0
 10
516.8802647105
 20
1794.4611566306
 30
0.0
 10
516.8735879124
 20
1794.0241811173
 30
0.0
 10
516.8735879124
 20
1793.783207595
 30
0.0
  0
SPLINE
  5
395
330
208
100
AcDbEntity
  8
7_ALL_FEATURES
  6
Continuous
 62
     3
100
AcDbSpline
 70
     0
 71
     3
 72
     9
 73
     5
 74
     0
 42
0.000000001
 43
0.0000001
 40
0.0
 40
0.0
 40
0.0
 40
0.0
 40
0.4580853095
 40
1.0
 40
1.0
 40
1.0
 40
1.0
 10
517.0154064397
 20
1902.1039235831
 30
0.0
 10
516.916346077
 20
1901.9259364192
 30
0.0
 10
516.8802643255
 20
1901.4611560277
 30
0.0
 10
516.8735879124
 20
1901.0241808057
 30
0.0
 10
516.8735879124
 20
1900.783207595
 30
0.0
  0
SPLINE
  5
396
330
208
100
AcDbEntity
  8
7_ALL_FEATURES
  6
Continuous
 62
     3
100
AcDbSpline
 70
     0
 71
     3
 72
     9
 73
     5
 74
     0
 42
0.000000001
 43
0.0000001
 40
0.0
 40
0.0
 40
0.0
 40
0.0
 40
0.5419146905
 40
1.0
 40
1.0
 40
1.0
 40
1.0
 10
516.8735879124
 20
1900.783207595
 30
0.0
 10
516.8735879124
 20
1900.5422343842
 30
0.0
 10
516.8802643255
 20
1900.1052591623
 30
0.0
 10
516.916346077
 20
1899.6404787707
 30
0.0
 10
517.0154064397
 20
1899.4624916068
 30
0.0
  0
SPLINE
  5
397
330
208
100
AcDbEntity
  8
7_ALL_FEATURES
  6
Continuous
 62
     3
100
AcDbSpline
 70
     0
 71
     3
 72
     9
 73
     5
 74
     0
 42
0.000000001
 43
0.0000001
 40
0.0
 40
0.0
 40
0.0
 40
0.0
 40
0.5419147251
 40
1.0
 40
1.0
 40
1.0
 40
1.0
 10
516.8735879124
 20
1793.783207595
 30
0.0
 10
516.8735879124
 20
1793.5422340726
 30
0.0
 10
516.8802647105
 20
1793.1052585593
 30
0.0
 10
516.9163458188
 20
1792.6404769442
 30
0.0
 10
517.0154072325
 20
1792.4624900964
 30
0.0
  0
LINE
  5
398
330
208
100
AcDbEntity
  8
7_ALL_FEATURES
  6
Continuous
 62
     3
100
AcDbLine
 10
1482.368714
 20
1787.623984
 30
0.0
 11
1482.368714
 21
1787.533208
 31
0.0
  0
LINE
  5
399
330
208
100
AcDbEntity
  8
7_ALL_FEATURES
  6
Continuous
 62
     3
100
AcDbLine
 10
1482.368714
 20
1787.533208
 30
0.0
 11
1482.368714
 21
1772.033208
 31
0.0
  0
LINE
  5
39A
330
208
100
AcDbEntity
  8
7_ALL_FEATURES
  6
Continuous
 62
     3
100
AcDbLine
 10
1482.368714
 20
1772.033208
 30
0.0
 11
1482.368714
 21
1771.033208
 31
0.0
  0
SPLINE
  5
39B
330
208
100
AcDbEntity
  8
7_ALL_FEATURES
  6
Continuous
 62
     3
100
AcDbSpline
 70
     0
 71
     3
 72
     9
 73
     5
 74
     0
 42
0.000000001
 43
0.0000001
 40
0.0
 40
0.0
 40
0.0
 40
0.0
 40
0.4580857352
 40
1.0
 40
1.0
 40
1.0
 40
1.0
 10
1482.2220320703
 20
1902.1039052318
 30
0.0
 10
1482.3210797281
 20
1901.9259142619
 30
0.0
 10
1482.3571691983
 20
1901.4611486801
 30
0.0
 10
1482.3638409766
 20
1901.0241770181
 30
0.0
 10
1482.3638409766
 20
1900.783207595
 30
0.0
  0
SPLINE
  5
39C
330
208
100
AcDbEntity
  8
7_ALL_FEATURES
  6
Continuous
 62
     3
100
AcDbSpline
 70
     0
 71
     3
 72
     9
 73
     5
 74
     0
 42
0.000000001
 43
0.0000001
 40
0.0
 40
0.0
 40
0.0
 40
0.0
 40
0.4580857352
 40
1.0
 40
1.0
 40
1.0
 40
1.0
 10
1482.2220320703
 20
1795.1039052318
 30
0.0
 10
1482.3210797281
 20
1794.9259142619
 30
0.0
 10
1482.3571691983
 20
1794.4611486801
 30
0.0
 10
1482.3638409766
 20
1794.0241770181
 30
0.0
 10
1482.3638409766
 20
1793.783207595
 30
0.0
  0
LINE
  5
39D
330
208
100
AcDbEntity
  8
7_ALL_FEATURES
  6
Continuous
 62
     3
100
AcDbLine
 10
1482.368714
 20
1919.71476
 30
0.0
 11
1482.368714
 21
1919.533208
 31
0.0
  0
LINE
  5
39E
330
208
100
AcDbEntity
  8
7_ALL_FEATURES
  6
Continuous
 62
     3
100
AcDbLine
 10
1482.368714
 20
1919.533208
 30
0.0
 11
1482.368714
 21
1907.033208
 31
0.0
  0
LINE
  5
39F
330
208
100
AcDbEntity
  8
7_ALL_FEATURES
  6
Continuous
 62
     3
100
AcDbLine
 10
1482.368714
 20
1894.623984
 30
0.0
 11
1482.368714
 21
1894.533208
 31
0.0
  0
LINE
  5
3A0
330
208
100
AcDbEntity
  8
7_ALL_FEATURES
  6
Continuous
 62
     3
100
AcDbLine
 10
1482.368714
 20
1894.533208
 30
0.0
 11
1482.368714
 21
1800.033208
 31
0.0
  0
SPLINE
  5
3A1
330
208
100
AcDbEntity
  8
7_ALL_FEATURES
  6
Continuous
 62
     3
100
AcDbSpline
 70
     0
 71
     3
 72
     9
 73
     5
 74
     0
 42
0.000000001
 43
0.0000001
 40
0.0
 40
0.0
 40
0.0
 40
0.0
 40
0.5419142648
 40
1.0
 40
1.0
 40
1.0
 40
1.0
 10
1482.3638409766
 20
1793.783207595
 30
0.0
 10
1482.3638409766
 20
1793.5422381719
 30
0.0
 10
1482.3571691983
 20
1793.1052665098
 30
0.0
 10
1482.3210797281
 20
1792.6405009281
 30
0.0
 10
1482.2220320703
 20
1792.4625099581
 30
0.0
  0
SPLINE
  5
3A2
330
208
100
AcDbEntity
  8
7_ALL_FEATURES
  6
Continuous
 62
     3
100
AcDbSpline
 70
     0
 71
     3
 72
     9
 73
     5
 74
     0
 42
0.000000001
 43
0.0000001
 40
0.0
 40
0.0
 40
0.0
 40
0.0
 40
0.5419142648
 40
1.0
 40
1.0
 40
1.0
 40
1.0
 10
1482.3638409766
 20
1900.783207595
 30
0.0
 10
1482.3638409766
 20
1900.5422381719
 30
0.0
 10
1482.3571691983
 20
1900.1052665098
 30
0.0
 10
1482.3210797281
 20
1899.6405009281
 30
0.0
 10
1482.2220320703
 20
1899.4625099581
 30
0.0
  0
ARC
  5
3A3
330
208
100
AcDbEntity
  8
3_ALL_AXES
  6
Continuous
 62
     7
100
AcDbCircle
 10
1838.325149
 20
1899.783208
 30
0.0
 40
2.9
100
AcDbArc
 50
180.0
 51
360.0
  0
ARC
  5
3A4
330
208
100
AcDbEntity
  8
3_ALL_AXES
  6
Continuous
 62
     7
100
AcDbCircle
 10
1838.325149
 20
1899.783208
 30
0.0
 40
2.9
100
AcDbArc
 50
0.0
 51
180.0
  0
ARC
  5
3A5
330
208
100
AcDbEntity
  8
3_ALL_AXES
  6
Continuous
 62
     7
100
AcDbCircle
 10
1863.325149
 20
1899.783208
 30
0.0
 40
2.9
100
AcDbArc
 50
180.0
 51
360.0
  0
ARC
  5
3A6
330
208
100
AcDbEntity
  8
3_ALL_AXES
  6
Continuous
 62
     7
100
AcDbCircle
 10
1863.325149
 20
1899.783208
 30
0.0
 40
2.9
100
AcDbArc
 50
0.0
 51
180.0
  0
SPLINE
  5
3A7
330
208
100
AcDbEntity
  8
7_ALL_FEATURES
  6
Continuous
 62
     7
100
AcDbSpline
 70
     0
 71
     3
 72
     9
 73
     5
 74
     0
 42
0.000000001
 43
0.0000001
 40
0.0
 40
0.0
 40
0.0
 40
0.0
 40
0.2307920406
 40
1.0
 40
1.0
 40
1.0
 40
1.0
 10
1802.525080081
 20
1902.283207595
 30
0.0
 10
1802.5719161175
 20
1902.283207595
 30
0.0
 10
1802.7748220016
 20
1902.2736262464
 30
0.0
 10
1802.9753672502
 20
1902.229479013
 30
0.0
 10
1803.1239345889
 20
1902.1815731104
 30
0.0
  0
ARC
  5
3A8
330
208
100
AcDbEntity
  8
7_ALL_FEATURES
  6
Continuous
 62
     7
100
AcDbCircle
 10
1802.401187
 20
1899.940431
 30
0.0
 40
2.354799285
100
AcDbArc
 50
67.719259
 51
72.125967
  0
SPLINE
  5
3A9
330
208
100
AcDbEntity
  8
7_ALL_FEATURES
  6
Continuous
 62
     7
100
AcDbSpline
 70
     0
 71
     3
 72
     9
 73
     5
 74
     0
 42
0.000000001
 43
0.0000001
 40
0.0
 40
0.0
 40
0.0
 40
0.0
 40
0.4936135015
 40
1.0
 40
1.0
 40
1.0
 40
1.0
 10
1803.2939978163
 20
1902.1194149036
 30
0.0
 10
1803.5678701063
 20
1902.0072012192
 30
0.0
 10
1804.0946508831
 20
1901.686596713
 30
0.0
 10
1804.3835155429
 20
1901.0868357493
 30
0.0
 10
1804.3835155429
 20
1900.783207595
 30
0.0
  0
SPLINE
  5
3AA
330
208
100
AcDbEntity
  8
7_ALL_FEATURES
  6
Continuous
 62
     7
100
AcDbSpline
 70
     0
 71
     3
 72
     9
 73
     5
 74
     0
 42
0.000000001
 43
0.0000001
 40
0.0
 40
0.0
 40
0.0
 40
0.0
 40
0.2307920406
 40
1.0
 40
1.0
 40
1.0
 40
1.0
 10
1802.525080081
 20
1795.283207595
 30
0.0
 10
1802.5719161175
 20
1795.283207595
 30
0.0
 10
1802.7748220016
 20
1795.2736262464
 30
0.0
 10
1802.9753672502
 20
1795.229479013
 30
0.0
 10
1803.1239345889
 20
1795.1815731104
 30
0.0
  0
ARC
  5
3AB
330
208
100
AcDbEntity
  8
7_ALL_FEATURES
  6
Continuous
 62
     7
100
AcDbCircle
 10
1802.401187
 20
1792.940431
 30
0.0
 40
2.3547992851
100
AcDbArc
 50
67.719259
 51
72.125967
  0
SPLINE
  5
3AC
330
208
100
AcDbEntity
  8
7_ALL_FEATURES
  6
Continuous
 62
     7
100
AcDbSpline
 70
     0
 71
     3
 72
     9
 73
     5
 74
     0
 42
0.000000001
 43
0.0000001
 40
0.0
 40
0.0
 40
0.0
 40
0.0
 40
0.4936135015
 40
1.0
 40
1.0
 40
1.0
 40
1.0
 10
1803.2939978163
 20
1795.1194149036
 30
0.0
 10
1803.5678701063
 20
1795.0072012192
 30
0.0
 10
1804.0946508831
 20
1794.686596713
 30
0.0
 10
1804.3835155429
 20
1794.0868357493
 30
0.0
 10
1804.3835155429
 20
1793.783207595
 30
0.0
  0
SPLINE
  5
3AD
330
208
100
AcDbEntity
  8
7_ALL_FEATURES
  6
Continuous
 62
     7
100
AcDbSpline
 70
     0
 71
     3
 72
     9
 73
     5
 74
     0
 42
0.000000001
 43
0.0000001
 40
0.0
 40
0.0
 40
0.0
 40
0.0
 40
0.2307922683
 40
1.0
 40
1.0
 40
1.0
 40
1.0
 10
1899.1252174408
 20
1795.283207595
 30
0.0
 10
1899.0783812783
 20
1795.283207595
 30
0.0
 10
1898.8754750495
 20
1795.2736262266
 30
0.0
 10
1898.6749294543
 20
1795.2294788774
 30
0.0
 10
1898.5263619446
 20
1795.1815727891
 30
0.0
  0
ARC
  5
3AE
330
208
100
AcDbEntity
  8
7_ALL_FEATURES
  6
Continuous
 62
     7
100
AcDbCircle
 10
1899.249112
 20
1792.940429
 30
0.0
 40
2.3548022662
100
AcDbArc
 50
107.874078
 51
112.279683
  0
SPLINE
  5
3AF
330
208
100
AcDbEntity
  8
7_ALL_FEATURES
  6
Continuous
 62
     7
100
AcDbSpline
 70
     0
 71
     3
 72
     9
 73
     5
 74
     0
 42
0.000000001
 43
0.0000001
 40
0.0
 40
0.0
 40
0.0
 40
0.0
 40
0.4936091347
 40
1.0
 40
1.0
 40
1.0
 40
1.0
 10
1898.3563405126
 20
1795.1194315627
 30
0.0
 10
1898.0824621334
 20
1795.0072212951
 30
0.0
 10
1897.5556633525
 20
1794.6866196263
 30
0.0
 10
1897.2667819789
 20
1794.0868455053
 30
0.0
 10
1897.2667819789
 20
1793.783207595
 30
0.0
  0
SPLINE
  5
3B0
330
208
100
AcDbEntity
  8
7_ALL_FEATURES
  6
Continuous
 62
     7
100
AcDbSpline
 70
     0
 71
     3
 72
     9
 73
     5
 74
     0
 42
0.000000001
 43
0.0000001
 40
0.0
 40
0.0
 40
0.0
 40
0.0
 40
0.2307922509
 40
1.0
 40
1.0
 40
1.0
 40
1.0
 10
1899.1252174408
 20
1902.283207595
 30
0.0
 10
1899.0783812879
 20
1902.283207595
 30
0.0
 10
1898.8754750853
 20
1902.2736262281
 30
0.0
 10
1898.6749295164
 20
1902.2294788877
 30
0.0
 10
1898.5263620197
 20
1902.1815728135
 30
0.0
  0
ARC
  5
3B1
330
208
100
AcDbEntity
  8
7_ALL_FEATURES
  6
Continuous
 62
     7
100
AcDbCircle
 10
1899.249112
 20
1899.940429
 30
0.0
 40
2.3548020457
100
AcDbArc
 50
107.874074
 51
112.279765
  0
SPLINE
  5
3B2
330
208
100
AcDbEntity
  8
7_ALL_FEATURES
  6
Continuous
 62
     7
100
AcDbSpline
 70
     0
 71
     3
 72
     9
 73
     5
 74
     0
 42
0.000000001
 43
0.0000001
 40
0.0
 40
0.0
 40
0.0
 40
0.0
 40
0.4936094706
 40
1.0
 40
1.0
 40
1.0
 40
1.0
 10
1898.3563373536
 20
1902.1194302731
 30
0.0
 10
1898.0824594471
 20
1902.0072197415
 30
0.0
 10
1897.555662061
 20
1901.6866178529
 30
0.0
 10
1897.2667819789
 20
1901.0868447513
 30
0.0
 10
1897.2667819789
 20
1900.783207595
 30
0.0
  0
LINE
  5
3B3
330
208
100
AcDbEntity
  8
7_ALL_FEATURES
  6
Continuous
 62
     7
100
AcDbLine
 10
1835.333215
 20
1799.033208
 30
0.0
 11
1834.332726
 21
1799.033208
 31
0.0
  0
LINE
  5
3B4
330
208
100
AcDbEntity
  8
7_ALL_FEATURES
  6
Continuous
 62
     7
100
AcDbLine
 10
1866.317082
 20
1799.033208
 30
0.0
 11
1867.317571
 21
1799.033208
 31
0.0
  0
LINE
  5
3B5
330
208
100
AcDbEntity
  8
7_ALL_FEATURES
  6
Continuous
 62
     7
100
AcDbLine
 10
1834.332726
 20
1798.033208
 30
0.0
 11
1835.333216
 21
1798.033208
 31
0.0
  0
LINE
  5
3B6
330
208
100
AcDbEntity
  8
7_ALL_FEATURES
  6
Continuous
 62
     7
100
AcDbLine
 10
1867.317572
 20
1798.033208
 30
0.0
 11
1866.317082
 21
1798.033208
 31
0.0
  0
LINE
  5
3B7
330
208
100
AcDbEntity
  8
7_ALL_FEATURES
  6
Continuous
 62
     7
100
AcDbLine
 10
1804.625149
 20
1790.283208
 30
0.0
 11
1804.625149
 21
1788.533208
 31
0.0
  0
ARC
  5
3B8
330
208
100
AcDbEntity
  8
7_ALL_FEATURES
  6
Continuous
 62
     7
100
AcDbCircle
 10
1804.125149
 20
1788.533208
 30
0.0
 40
0.5
100
AcDbArc
 50
270.0
 51
360.0
  0
LINE
  5
3B9
330
208
100
AcDbEntity
  8
7_ALL_FEATURES
  6
Continuous
 62
     7
100
AcDbLine
 10
1804.125149
 20
1788.033208
 30
0.0
 11
1802.125149
 21
1788.033208
 31
0.0
  0
ARC
  5
3BA
330
208
100
AcDbEntity
  8
7_ALL_FEATURES
  6
Continuous
 62
     7
100
AcDbCircle
 10
1802.125149
 20
1787.533208
 30
0.0
 40
0.5
100
AcDbArc
 50
90.0
 51
180.0
  0
LINE
  5
3BB
330
208
100
AcDbEntity
  8
7_ALL_FEATURES
  6
Continuous
 62
     7
100
AcDbLine
 10
1801.625149
 20
1787.533208
 30
0.0
 11
1801.625149
 21
1772.033208
 31
0.0
  0
ARC
  5
3BC
330
208
100
AcDbEntity
  8
7_ALL_FEATURES
  6
Continuous
 62
     7
100
AcDbCircle
 10
1803.625149
 20
1772.033208
 30
0.0
 40
2.0
100
AcDbArc
 50
180.0
 51
270.0
  0
ARC
  5
3BD
330
208
100
AcDbEntity
  8
7_ALL_FEATURES
  6
Continuous
 62
     7
100
AcDbCircle
 10
1898.025149
 20
1772.033208
 30
0.0
 40
2.0
100
AcDbArc
 50
270.0
 51
360.0
  0
LINE
  5
3BE
330
208
100
AcDbEntity
  8
7_ALL_FEATURES
  6
Continuous
 62
     7
100
AcDbLine
 10
1900.025149
 20
1787.533208
 30
0.0
 11
1900.025149
 21
1772.033208
 31
0.0
  0
ARC
  5
3BF
330
208
100
AcDbEntity
  8
7_ALL_FEATURES
  6
Continuous
 62
     7
100
AcDbCircle
 10
1899.525149
 20
1787.533208
 30
0.0
 40
0.5
100
AcDbArc
 50
0.0
 51
90.0
  0
LINE
  5
3C0
330
208
100
AcDbEntity
  8
7_ALL_FEATURES
  6
Continuous
 62
     7
100
AcDbLine
 10
1897.525149
 20
1788.033208
 30
0.0
 11
1899.525149
 21
1788.033208
 31
0.0
  0
ARC
  5
3C1
330
208
100
AcDbEntity
  8
7_ALL_FEATURES
  6
Continuous
 62
     7
100
AcDbCircle
 10
1897.525149
 20
1788.533208
 30
0.0
 40
0.5
100
AcDbArc
 50
180.0
 51
270.0
  0
LINE
  5
3C2
330
208
100
AcDbEntity
  8
7_ALL_FEATURES
  6
Continuous
 62
     7
100
AcDbLine
 10
1897.025149
 20
1790.283208
 30
0.0
 11
1897.025149
 21
1788.533208
 31
0.0
  0
LINE
  5
3C3
330
208
100
AcDbEntity
  8
7_ALL_FEATURES
  6
Continuous
 62
     7
100
AcDbLine
 10
1897.025149
 20
1799.033208
 30
0.0
 11
1897.025149
 21
1797.283208
 31
0.0
  0
ARC
  5
3C4
330
208
100
AcDbEntity
  8
7_ALL_FEATURES
  6
Continuous
 62
     7
100
AcDbCircle
 10
1897.525149
 20
1799.033208
 30
0.0
 40
0.5
100
AcDbArc
 50
90.0
 51
180.0
  0
LINE
  5
3C5
330
208
100
AcDbEntity
  8
7_ALL_FEATURES
  6
Continuous
 62
     7
100
AcDbLine
 10
1899.525149
 20
1799.533208
 30
0.0
 11
1897.525149
 21
1799.533208
 31
0.0
  0
ARC
  5
3C6
330
208
100
AcDbEntity
  8
7_ALL_FEATURES
  6
Continuous
 62
     7
100
AcDbCircle
 10
1899.525149
 20
1800.033208
 30
0.0
 40
0.5
100
AcDbArc
 50
270.0
 51
360.0
  0
LINE
  5
3C7
330
208
100
AcDbEntity
  8
7_ALL_FEATURES
  6
Continuous
 62
     7
100
AcDbLine
 10
1900.025149
 20
1894.533208
 30
0.0
 11
1900.025149
 21
1800.033208
 31
0.0
  0
ARC
  5
3C8
330
208
100
AcDbEntity
  8
7_ALL_FEATURES
  6
Continuous
 62
     7
100
AcDbCircle
 10
1899.525149
 20
1894.533208
 30
0.0
 40
0.5
100
AcDbArc
 50
0.0
 51
90.0
  0
LINE
  5
3C9
330
208
100
AcDbEntity
  8
7_ALL_FEATURES
  6
Continuous
 62
     7
100
AcDbLine
 10
1897.525149
 20
1895.033208
 30
0.0
 11
1899.525149
 21
1895.033208
 31
0.0
  0
ARC
  5
3CA
330
208
100
AcDbEntity
  8
7_ALL_FEATURES
  6
Continuous
 62
     7
100
AcDbCircle
 10
1897.525149
 20
1895.533208
 30
0.0
 40
0.5
100
AcDbArc
 50
180.0
 51
270.0
  0
LINE
  5
3CB
330
208
100
AcDbEntity
  8
7_ALL_FEATURES
  6
Continuous
 62
     7
100
AcDbLine
 10
1897.025149
 20
1897.283208
 30
0.0
 11
1897.025149
 21
1895.533208
 31
0.0
  0
LINE
  5
3CC
330
208
100
AcDbEntity
  8
7_ALL_FEATURES
  6
Continuous
 62
     7
100
AcDbLine
 10
1897.025149
 20
1906.033208
 30
0.0
 11
1897.025149
 21
1904.283208
 31
0.0
  0
ARC
  5
3CD
330
208
100
AcDbEntity
  8
7_ALL_FEATURES
  6
Continuous
 62
     7
100
AcDbCircle
 10
1897.525149
 20
1906.033208
 30
0.0
 40
0.5
100
AcDbArc
 50
90.0
 51
180.0
  0
LINE
  5
3CE
330
208
100
AcDbEntity
  8
7_ALL_FEATURES
  6
Continuous
 62
     7
100
AcDbLine
 10
1899.525149
 20
1906.533208
 30
0.0
 11
1897.525149
 21
1906.533208
 31
0.0
  0
ARC
  5
3CF
330
208
100
AcDbEntity
  8
7_ALL_FEATURES
  6
Continuous
 62
     7
100
AcDbCircle
 10
1899.525149
 20
1907.033208
 30
0.0
 40
0.5
100
AcDbArc
 50
270.0
 51
360.0
  0
LINE
  5
3D0
330
208
100
AcDbEntity
  8
7_ALL_FEATURES
  6
Continuous
 62
     7
100
AcDbLine
 10
1900.025149
 20
1919.533208
 30
0.0
 11
1900.025149
 21
1907.033208
 31
0.0
  0
ARC
  5
3D1
330
208
100
AcDbEntity
  8
7_ALL_FEATURES
  6
Continuous
 62
     7
100
AcDbCircle
 10
1899.025149
 20
1919.533208
 30
0.0
 40
1.0
100
AcDbArc
 50
0.0
 51
90.0
  0
ARC
  5
3D2
330
208
100
AcDbEntity
  8
7_ALL_FEATURES
  6
Continuous
 62
     7
100
AcDbCircle
 10
1802.625149
 20
1919.533208
 30
0.0
 40
1.0
100
AcDbArc
 50
90.0
 51
180.0
  0
LINE
  5
3D3
330
208
100
AcDbEntity
  8
7_ALL_FEATURES
  6
Continuous
 62
     7
100
AcDbLine
 10
1801.625149
 20
1919.533208
 30
0.0
 11
1801.625149
 21
1907.033208
 31
0.0
  0
ARC
  5
3D4
330
208
100
AcDbEntity
  8
7_ALL_FEATURES
  6
Continuous
 62
     7
100
AcDbCircle
 10
1802.125149
 20
1907.033208
 30
0.0
 40
0.5
100
AcDbArc
 50
180.0
 51
270.0
  0
LINE
  5
3D5
330
208
100
AcDbEntity
  8
7_ALL_FEATURES
  6
Continuous
 62
     7
100
AcDbLine
 10
1802.125149
 20
1906.533208
 30
0.0
 11
1804.125149
 21
1906.533208
 31
0.0
  0
ARC
  5
3D6
330
208
100
AcDbEntity
  8
7_ALL_FEATURES
  6
Continuous
 62
     7
100
AcDbCircle
 10
1804.125149
 20
1906.033208
 30
0.0
 40
0.5
100
AcDbArc
 50
0.0
 51
90.0
  0
LINE
  5
3D7
330
208
100
AcDbEntity
  8
7_ALL_FEATURES
  6
Continuous
 62
     7
100
AcDbLine
 10
1804.625149
 20
1906.033208
 30
0.0
 11
1804.625149
 21
1904.283208
 31
0.0
  0
LINE
  5
3D8
330
208
100
AcDbEntity
  8
7_ALL_FEATURES
  6
Continuous
 62
     7
100
AcDbLine
 10
1804.625149
 20
1897.283208
 30
0.0
 11
1804.625149
 21
1895.533208
 31
0.0
  0
ARC
  5
3D9
330
208
100
AcDbEntity
  8
7_ALL_FEATURES
  6
Continuous
 62
     7
100
AcDbCircle
 10
1804.125149
 20
1895.533208
 30
0.0
 40
0.5
100
AcDbArc
 50
270.0
 51
360.0
  0
LINE
  5
3DA
330
208
100
AcDbEntity
  8
7_ALL_FEATURES
  6
Continuous
 62
     7
100
AcDbLine
 10
1804.125149
 20
1895.033208
 30
0.0
 11
1802.125149
 21
1895.033208
 31
0.0
  0
ARC
  5
3DB
330
208
100
AcDbEntity
  8
7_ALL_FEATURES
  6
Continuous
 62
     7
100
AcDbCircle
 10
1802.125149
 20
1894.533208
 30
0.0
 40
0.5
100
AcDbArc
 50
90.0
 51
180.0
  0
LINE
  5
3DC
330
208
100
AcDbEntity
  8
7_ALL_FEATURES
  6
Continuous
 62
     7
100
AcDbLine
 10
1801.625149
 20
1894.533208
 30
0.0
 11
1801.625149
 21
1800.033208
 31
0.0
  0
ARC
  5
3DD
330
208
100
AcDbEntity
  8
7_ALL_FEATURES
  6
Continuous
 62
     7
100
AcDbCircle
 10
1802.125149
 20
1800.033208
 30
0.0
 40
0.5
100
AcDbArc
 50
180.0
 51
270.0
  0
LINE
  5
3DE
330
208
100
AcDbEntity
  8
7_ALL_FEATURES
  6
Continuous
 62
     7
100
AcDbLine
 10
1802.125149
 20
1799.533208
 30
0.0
 11
1804.125149
 21
1799.533208
 31
0.0
  0
ARC
  5
3DF
330
208
100
AcDbEntity
  8
7_ALL_FEATURES
  6
Continuous
 62
     7
100
AcDbCircle
 10
1804.125149
 20
1799.033208
 30
0.0
 40
0.5
100
AcDbArc
 50
0.0
 51
90.0
  0
LINE
  5
3E0
330
208
100
AcDbEntity
  8
7_ALL_FEATURES
  6
Continuous
 62
     7
100
AcDbLine
 10
1804.625149
 20
1799.033208
 30
0.0
 11
1804.625149
 21
1797.283208
 31
0.0
  0
LINE
  5
3E1
330
208
100
AcDbEntity
  8
7_ALL_FEATURES
  6
Continuous
 62
     7
100
AcDbLine
 10
1801.625149
 20
1791.333208
 30
0.0
 11
1801.625149
 21
1793.783208
 31
0.0
  0
LINE
  5
3E2
330
208
100
AcDbEntity
  8
7_ALL_FEATURES
  6
Continuous
 62
     7
100
AcDbLine
 10
1801.625149
 20
1793.783208
 30
0.0
 11
1801.625149
 21
1796.233208
 31
0.0
  0
LINE
  5
3E3
330
208
100
AcDbEntity
  8
7_ALL_FEATURES
  6
Continuous
 62
     7
100
AcDbLine
 10
1804.625149
 20
1797.283208
 30
0.0
 11
1803.125149
 21
1797.283208
 31
0.0
  0
LINE
  5
3E4
330
208
100
AcDbEntity
  8
7_ALL_FEATURES
  6
Continuous
 62
     7
100
AcDbLine
 10
1803.125149
 20
1797.283208
 30
0.0
 11
1802.503828
 21
1797.283208
 31
0.0
  0
LINE
  5
3E5
330
208
100
AcDbEntity
  8
7_ALL_FEATURES
  6
Continuous
 62
     7
100
AcDbLine
 10
1802.503828
 20
1797.283208
 30
0.0
 11
1801.625149
 21
1797.283208
 31
0.0
  0
LINE
  5
3E6
330
208
100
AcDbEntity
  8
7_ALL_FEATURES
  6
Continuous
 62
     7
100
AcDbLine
 10
1801.625149
 20
1790.283208
 30
0.0
 11
1802.503828
 21
1790.283208
 31
0.0
  0
LINE
  5
3E7
330
208
100
AcDbEntity
  8
7_ALL_FEATURES
  6
Continuous
 62
     7
100
AcDbLine
 10
1802.503828
 20
1790.283208
 30
0.0
 11
1803.125149
 21
1790.283208
 31
0.0
  0
LINE
  5
3E8
330
208
100
AcDbEntity
  8
7_ALL_FEATURES
  6
Continuous
 62
     7
100
AcDbLine
 10
1803.125149
 20
1790.283208
 30
0.0
 11
1804.625149
 21
1790.283208
 31
0.0
  0
SPLINE
  5
3E9
330
208
100
AcDbEntity
  8
7_ALL_FEATURES
  6
Continuous
 62
     7
100
AcDbSpline
 70
     0
 71
     3
 72
     9
 73
     5
 74
     0
 42
0.000000001
 43
0.0000001
 40
0.0
 40
0.0
 40
0.0
 40
0.0
 40
0.5063864985
 40
1.0
 40
1.0
 40
1.0
 40
1.0
 10
1804.3835155429
 20
1793.783207595
 30
0.0
 10
1804.3835155429
 20
1793.4795794407
 30
0.0
 10
1804.0946508831
 20
1792.8798184769
 30
0.0
 10
1803.5678701063
 20
1792.5592139708
 30
0.0
 10
1803.2939978163
 20
1792.4470002863
 30
0.0
  0
ARC
  5
3EA
330
208
100
AcDbEntity
  8
7_ALL_FEATURES
  6
Continuous
 62
     7
100
AcDbCircle
 10
1802.401187
 20
1794.625984
 30
0.0
 40
2.3547992852
100
AcDbArc
 50
287.874033
 51
292.280741
  0
SPLINE
  5
3EB
330
208
100
AcDbEntity
  8
7_ALL_FEATURES
  6
Continuous
 62
     7
100
AcDbSpline
 70
     0
 71
     3
 72
     9
 73
     5
 74
     0
 42
0.000000001
 43
0.0000001
 40
0.0
 40
0.0
 40
0.0
 40
0.0
 40
0.2690887157
 40
1.0
 40
1.0
 40
1.0
 40
1.0
 10
1803.1239345889
 20
1792.3848420796
 30
0.0
 10
1803.0719682319
 20
1792.3680854003
 30
0.0
 10
1802.87685312
 20
1792.3125899416
 30
0.0
 10
1802.6733903383
 20
1792.283207595
 30
0.0
 10
1802.525080081
 20
1792.283207595
 30
0.0
  0
ARC
  5
3EC
330
208
100
AcDbEntity
  8
7_ALL_FEATURES
  6
Continuous
 62
     7
100
AcDbCircle
 10
1850.825149
 20
1798.533208
 30
0.0
 40
16.5
100
AcDbArc
 50
1.736502
 51
178.263498
  0
ARC
  5
3ED
330
208
100
AcDbEntity
  8
7_ALL_FEATURES
  6
Continuous
 62
     7
100
AcDbCircle
 10
1850.825149
 20
1798.533208
 30
0.0
 40
15.5
100
AcDbArc
 50
1.848572
 51
178.151428
  0
ARC
  5
3EE
330
208
100
AcDbEntity
  8
7_ALL_FEATURES
  6
Continuous
 62
     7
100
AcDbCircle
 10
1850.825149
 20
1798.533208
 30
0.0
 40
15.4999996154
100
AcDbArc
 50
181.848572
 51
358.151428
  0
ARC
  5
3EF
330
208
100
AcDbEntity
  8
7_ALL_FEATURES
  6
Continuous
 62
     7
100
AcDbCircle
 10
1850.825149
 20
1798.533208
 30
0.0
 40
16.5000004973
100
AcDbArc
 50
181.736502
 51
358.263498
  0
LINE
  5
3F0
330
208
100
AcDbEntity
  8
7_ALL_FEATURES
  6
Continuous
 62
     7
100
AcDbLine
 10
1801.625149
 20
1898.333208
 30
0.0
 11
1801.625149
 21
1900.783208
 31
0.0
  0
LINE
  5
3F1
330
208
100
AcDbEntity
  8
7_ALL_FEATURES
  6
Continuous
 62
     7
100
AcDbLine
 10
1801.625149
 20
1900.783208
 30
0.0
 11
1801.625149
 21
1903.233208
 31
0.0
  0
LINE
  5
3F2
330
208
100
AcDbEntity
  8
7_ALL_FEATURES
  6
Continuous
 62
     7
100
AcDbLine
 10
1804.625149
 20
1904.283208
 30
0.0
 11
1803.125149
 21
1904.283208
 31
0.0
  0
LINE
  5
3F3
330
208
100
AcDbEntity
  8
7_ALL_FEATURES
  6
Continuous
 62
     7
100
AcDbLine
 10
1803.125149
 20
1904.283208
 30
0.0
 11
1802.503828
 21
1904.283208
 31
0.0
  0
LINE
  5
3F4
330
208
100
AcDbEntity
  8
7_ALL_FEATURES
  6
Continuous
 62
     7
100
AcDbLine
 10
1802.503828
 20
1904.283208
 30
0.0
 11
1801.625149
 21
1904.283208
 31
0.0
  0
LINE
  5
3F5
330
208
100
AcDbEntity
  8
7_ALL_FEATURES
  6
Continuous
 62
     7
100
AcDbLine
 10
1801.625149
 20
1897.283208
 30
0.0
 11
1802.503828
 21
1897.283208
 31
0.0
  0
LINE
  5
3F6
330
208
100
AcDbEntity
  8
7_ALL_FEATURES
  6
Continuous
 62
     7
100
AcDbLine
 10
1802.503828
 20
1897.283208
 30
0.0
 11
1803.125149
 21
1897.283208
 31
0.0
  0
LINE
  5
3F7
330
208
100
AcDbEntity
  8
7_ALL_FEATURES
  6
Continuous
 62
     7
100
AcDbLine
 10
1803.125149
 20
1897.283208
 30
0.0
 11
1804.625149
 21
1897.283208
 31
0.0
  0
SPLINE
  5
3F8
330
208
100
AcDbEntity
  8
7_ALL_FEATURES
  6
Continuous
 62
     7
100
AcDbSpline
 70
     0
 71
     3
 72
     9
 73
     5
 74
     0
 42
0.000000001
 43
0.0000001
 40
0.0
 40
0.0
 40
0.0
 40
0.0
 40
0.5063864985
 40
1.0
 40
1.0
 40
1.0
 40
1.0
 10
1804.3835155429
 20
1900.783207595
 30
0.0
 10
1804.3835155429
 20
1900.4795794407
 30
0.0
 10
1804.0946508831
 20
1899.8798184769
 30
0.0
 10
1803.5678701063
 20
1899.5592139708
 30
0.0
 10
1803.2939978163
 20
1899.4470002863
 30
0.0
  0
ARC
  5
3F9
330
208
100
AcDbEntity
  8
7_ALL_FEATURES
  6
Continuous
 62
     7
100
AcDbCircle
 10
1802.401187
 20
1901.625984
 30
0.0
 40
2.3547992853
100
AcDbArc
 50
287.874033
 51
292.280741
  0
SPLINE
  5
3FA
330
208
100
AcDbEntity
  8
7_ALL_FEATURES
  6
Continuous
 62
     7
100
AcDbSpline
 70
     0
 71
     3
 72
     9
 73
     5
 74
     0
 42
0.000000001
 43
0.0000001
 40
0.0
 40
0.0
 40
0.0
 40
0.0
 40
0.2690887157
 40
1.0
 40
1.0
 40
1.0
 40
1.0
 10
1803.1239345889
 20
1899.3848420796
 30
0.0
 10
1803.0719682319
 20
1899.3680854003
 30
0.0
 10
1802.87685312
 20
1899.3125899416
 30
0.0
 10
1802.6733903383
 20
1899.283207595
 30
0.0
 10
1802.525080081
 20
1899.283207595
 30
0.0
  0
LINE
  5
3FB
330
208
100
AcDbEntity
  8
7_ALL_FEATURES
  6
Continuous
 62
     7
100
AcDbLine
 10
1803.625149
 20
1770.033208
 30
0.0
 11
1898.025149
 21
1770.033208
 31
0.0
  0
LINE
  5
3FC
330
208
100
AcDbEntity
  8
7_ALL_FEATURES
  6
Continuous
 62
     7
100
AcDbLine
 10
1899.025149
 20
1920.533208
 30
0.0
 11
1802.625149
 21
1920.533208
 31
0.0
  0
LINE
  5
3FD
330
208
100
AcDbEntity
  8
7_ALL_FEATURES
  6
Continuous
 62
     7
100
AcDbLine
 10
1900.025149
 20
1791.333208
 30
0.0
 11
1900.025149
 21
1793.783208
 31
0.0
  0
LINE
  5
3FE
330
208
100
AcDbEntity
  8
7_ALL_FEATURES
  6
Continuous
 62
     7
100
AcDbLine
 10
1900.025149
 20
1793.783208
 30
0.0
 11
1900.025149
 21
1796.233208
 31
0.0
  0
LINE
  5
3FF
330
208
100
AcDbEntity
  8
7_ALL_FEATURES
  6
Continuous
 62
     7
100
AcDbLine
 10
1900.025149
 20
1790.283208
 30
0.0
 11
1899.146469
 21
1790.283208
 31
0.0
  0
LINE
  5
400
330
208
100
AcDbEntity
  8
7_ALL_FEATURES
  6
Continuous
 62
     7
100
AcDbLine
 10
1899.146469
 20
1790.283208
 30
0.0
 11
1898.525149
 21
1790.283208
 31
0.0
  0
LINE
  5
401
330
208
100
AcDbEntity
  8
7_ALL_FEATURES
  6
Continuous
 62
     7
100
AcDbLine
 10
1898.525149
 20
1790.283208
 30
0.0
 11
1897.025149
 21
1790.283208
 31
0.0
  0
LINE
  5
402
330
208
100
AcDbEntity
  8
7_ALL_FEATURES
  6
Continuous
 62
     7
100
AcDbLine
 10
1897.025149
 20
1797.283208
 30
0.0
 11
1898.525149
 21
1797.283208
 31
0.0
  0
LINE
  5
403
330
208
100
AcDbEntity
  8
7_ALL_FEATURES
  6
Continuous
 62
     7
100
AcDbLine
 10
1898.525149
 20
1797.283208
 30
0.0
 11
1899.146469
 21
1797.283208
 31
0.0
  0
LINE
  5
404
330
208
100
AcDbEntity
  8
7_ALL_FEATURES
  6
Continuous
 62
     7
100
AcDbLine
 10
1899.146469
 20
1797.283208
 30
0.0
 11
1900.025149
 21
1797.283208
 31
0.0
  0
SPLINE
  5
405
330
208
100
AcDbEntity
  8
7_ALL_FEATURES
  6
Continuous
 62
     7
100
AcDbSpline
 70
     0
 71
     3
 72
     9
 73
     5
 74
     0
 42
0.000000001
 43
0.0000001
 40
0.0
 40
0.0
 40
0.0
 40
0.0
 40
0.5063908653
 40
1.0
 40
1.0
 40
1.0
 40
1.0
 10
1897.2667819789
 20
1793.783207595
 30
0.0
 10
1897.2667819789
 20
1793.4795696847
 30
0.0
 10
1897.5556633525
 20
1792.8797955637
 30
0.0
 10
1898.0824621334
 20
1792.5591938949
 30
0.0
 10
1898.3563405126
 20
1792.4469836272
 30
0.0
  0
ARC
  5
406
330
208
100
AcDbEntity
  8
7_ALL_FEATURES
  6
Continuous
 62
     7
100
AcDbCircle
 10
1899.249112
 20
1794.625986
 30
0.0
 40
2.3548022667
100
AcDbArc
 50
247.720317
 51
252.125922
  0
SPLINE
  5
407
330
208
100
AcDbEntity
  8
7_ALL_FEATURES
  6
Continuous
 62
     7
100
AcDbSpline
 70
     0
 71
     3
 72
     9
 73
     5
 74
     0
 42
0.000000001
 43
0.0000001
 40
0.0
 40
0.0
 40
0.0
 40
0.0
 40
0.2690883329
 40
1.0
 40
1.0
 40
1.0
 40
1.0
 10
1898.5263619446
 20
1792.3848424009
 30
0.0
 10
1898.5783283032
 20
1792.3680856755
 30
0.0
 10
1898.7734437041
 20
1792.3125899586
 30
0.0
 10
1898.9769068525
 20
1792.283207595
 30
0.0
 10
1899.1252174408
 20
1792.283207595
 30
0.0
  0
SPLINE
  5
408
330
208
100
AcDbEntity
  8
7_ALL_FEATURES
  6
Continuous
 62
     7
100
AcDbSpline
 70
     0
 71
     3
 72
     9
 73
     5
 74
     0
 42
0.000000001
 43
0.0000001
 40
0.0
 40
0.0
 40
0.0
 40
0.0
 40
0.5063905294
 40
1.0
 40
1.0
 40
1.0
 40
1.0
 10
1897.2667819789
 20
1900.783207595
 30
0.0
 10
1897.2667819789
 20
1900.4795704387
 30
0.0
 10
1897.555662061
 20
1899.8797973371
 30
0.0
 10
1898.0824594471
 20
1899.5591954484
 30
0.0
 10
1898.3563373536
 20
1899.4469849168
 30
0.0
  0
ARC
  5
409
330
208
100
AcDbEntity
  8
7_ALL_FEATURES
  6
Continuous
 62
     7
100
AcDbCircle
 10
1899.249112
 20
1901.625986
 30
0.0
 40
2.3548020455
100
AcDbArc
 50
247.720235
 51
252.125926
  0
SPLINE
  5
40A
330
208
100
AcDbEntity
  8
7_ALL_FEATURES
  6
Continuous
 62
     7
100
AcDbSpline
 70
     0
 71
     3
 72
     9
 73
     5
 74
     0
 42
0.000000001
 43
0.0000001
 40
0.0
 40
0.0
 40
0.0
 40
0.0
 40
0.2690883622
 40
1.0
 40
1.0
 40
1.0
 40
1.0
 10
1898.5263620197
 20
1899.3848423765
 30
0.0
 10
1898.5783283782
 20
1899.3680856545
 30
0.0
 10
1898.7734437571
 20
1899.3125899573
 30
0.0
 10
1898.9769068777
 20
1899.283207595
 30
0.0
 10
1899.1252174408
 20
1899.283207595
 30
0.0
  0
LINE
  5
40B
330
208
100
AcDbEntity
  8
7_ALL_FEATURES
  6
Continuous
 62
     7
100
AcDbLine
 10
1897.025149
 20
1904.283208
 30
0.0
 11
1898.525149
 21
1904.283208
 31
0.0
  0
LINE
  5
40C
330
208
100
AcDbEntity
  8
7_ALL_FEATURES
  6
Continuous
 62
     7
100
AcDbLine
 10
1898.525149
 20
1904.283208
 30
0.0
 11
1899.146469
 21
1904.283208
 31
0.0
  0
LINE
  5
40D
330
208
100
AcDbEntity
  8
7_ALL_FEATURES
  6
Continuous
 62
     7
100
AcDbLine
 10
1899.146469
 20
1904.283208
 30
0.0
 11
1900.025149
 21
1904.283208
 31
0.0
  0
LINE
  5
40E
330
208
100
AcDbEntity
  8
7_ALL_FEATURES
  6
Continuous
 62
     7
100
AcDbLine
 10
1900.025149
 20
1897.283208
 30
0.0
 11
1899.146469
 21
1897.283208
 31
0.0
  0
LINE
  5
40F
330
208
100
AcDbEntity
  8
7_ALL_FEATURES
  6
Continuous
 62
     7
100
AcDbLine
 10
1899.146469
 20
1897.283208
 30
0.0
 11
1898.525149
 21
1897.283208
 31
0.0
  0
LINE
  5
410
330
208
100
AcDbEntity
  8
7_ALL_FEATURES
  6
Continuous
 62
     7
100
AcDbLine
 10
1898.525149
 20
1897.283208
 30
0.0
 11
1897.025149
 21
1897.283208
 31
0.0
  0
LINE
  5
411
330
208
100
AcDbEntity
  8
7_ALL_FEATURES
  6
Continuous
 62
     7
100
AcDbLine
 10
1900.025149
 20
1898.333208
 30
0.0
 11
1900.025149
 21
1900.783208
 31
0.0
  0
LINE
  5
412
330
208
100
AcDbEntity
  8
7_ALL_FEATURES
  6
Continuous
 62
     7
100
AcDbLine
 10
1900.025149
 20
1900.783208
 30
0.0
 11
1900.025149
 21
1903.233208
 31
0.0
  0
LINE
  5
413
330
208
100
AcDbEntity
  8
7_ALL_FEATURES
  6
Continuous
 62
     9
100
AcDbLine
 10
1803.125149
 20
1904.383208
 30
0.0
 11
1801.825149
 21
1904.383208
 31
0.0
  0
LINE
  5
414
330
208
100
AcDbEntity
  8
7_ALL_FEATURES
  6
Continuous
 62
     9
100
AcDbLine
 10
1801.825149
 20
1904.383208
 30
0.0
 11
1801.625149
 21
1904.383208
 31
0.0
  0
SPLINE
  5
415
330
208
100
AcDbEntity
  8
7_ALL_FEATURES
  6
Continuous
 62
     7
100
AcDbSpline
 70
     0
 71
     3
 72
    11
 73
     7
 74
     0
 42
0.000000001
 43
0.0000001
 40
0.0
 40
0.0
 40
0.0
 40
0.0
 40
0.2236683695
 40
0.4201405048
 40
0.667621925
 40
1.0
 40
1.0
 40
1.0
 40
1.0
 10
1802.525080081
 20
1792.283207595
 30
0.0
 10
1802.3759252288
 20
1792.283207595
 30
0.0
 10
1802.0831048294
 20
1792.3191877804
 30
0.0
 10
1801.7415605537
 20
1792.6513024713
 30
0.0
 10
1801.6482554485
 20
1793.1785281518
 30
0.0
 10
1801.640307154
 20
1793.5615588981
 30
0.0
 10
1801.640307154
 20
1793.783207595
 30
0.0
  0
LINE
  5
416
330
208
100
AcDbEntity
  8
7_ALL_FEATURES
  6
Continuous
 62
     9
100
AcDbLine
 10
1804.625149
 20
1790.283208
 30
0.0
 11
1804.625149
 21
1797.283208
 31
0.0
  0
LINE
  5
417
330
208
100
AcDbEntity
  8
7_ALL_FEATURES
  6
Continuous
 62
     9
100
AcDbLine
 10
1898.525149
 20
1897.183208
 30
0.0
 11
1899.825149
 21
1897.183208
 31
0.0
  0
LINE
  5
418
330
208
100
AcDbEntity
  8
7_ALL_FEATURES
  6
Continuous
 62
     9
100
AcDbLine
 10
1899.825149
 20
1897.183208
 30
0.0
 11
1900.025149
 21
1897.183208
 31
0.0
  0
LINE
  5
419
330
208
100
AcDbEntity
  8
7_ALL_FEATURES
  6
Continuous
 62
     9
100
AcDbLine
 10
1898.51757
 20
1793.783208
 30
0.0
 11
1900.00999
 21
1793.783208
 31
0.0
  0
LINE
  5
41A
330
208
100
AcDbEntity
  8
7_ALL_FEATURES
  6
Continuous
 62
     9
100
AcDbLine
 10
1898.525149
 20
1797.383208
 30
0.0
 11
1899.825149
 21
1797.383208
 31
0.0
  0
LINE
  5
41B
330
208
100
AcDbEntity
  8
7_ALL_FEATURES
  6
Continuous
 62
     9
100
AcDbLine
 10
1899.825149
 20
1797.383208
 30
0.0
 11
1900.025149
 21
1797.383208
 31
0.0
  0
LINE
  5
41C
330
208
100
AcDbEntity
  8
7_ALL_FEATURES
  6
Continuous
 62
     9
100
AcDbLine
 10
1803.125149
 20
1790.183208
 30
0.0
 11
1801.825149
 21
1790.183208
 31
0.0
  0
LINE
  5
41D
330
208
100
AcDbEntity
  8
7_ALL_FEATURES
  6
Continuous
 62
     9
100
AcDbLine
 10
1801.825149
 20
1790.183208
 30
0.0
 11
1801.625149
 21
1790.183208
 31
0.0
  0
LINE
  5
41E
330
208
100
AcDbEntity
  8
7_ALL_FEATURES
  6
Continuous
 62
     9
100
AcDbLine
 10
1898.51757
 20
1900.783208
 30
0.0
 11
1900.00999
 21
1900.783208
 31
0.0
  0
SPLINE
  5
41F
330
208
100
AcDbEntity
  8
7_ALL_FEATURES
  6
Continuous
 62
     7
100
AcDbSpline
 70
     0
 71
     3
 72
    11
 73
     7
 74
     0
 42
0.000000001
 43
0.0000001
 40
0.0
 40
0.0
 40
0.0
 40
0.0
 40
0.3323836211
 40
0.5798601943
 40
0.7763315314
 40
1.0
 40
1.0
 40
1.0
 40
1.0
 10
1900.0099903678
 20
1793.783207595
 30
0.0
 10
1900.0099903678
 20
1794.0048599997
 30
0.0
 10
1900.0020423488
 20
1794.3878914331
 30
0.0
 10
1899.9087339823
 20
1794.9151159899
 30
0.0
 10
1899.5671922861
 20
1795.2472274497
 30
0.0
 10
1899.2743723654
 20
1795.283207595
 30
0.0
 10
1899.1252174408
 20
1795.283207595
 30
0.0
  0
SPLINE
  5
420
330
208
100
AcDbEntity
  8
7_ALL_FEATURES
  6
Continuous
 62
     7
100
AcDbSpline
 70
     0
 71
     3
 72
    11
 73
     7
 74
     0
 42
0.000000001
 43
0.0000001
 40
0.0
 40
0.0
 40
0.0
 40
0.0
 40
0.2236683695
 40
0.4201405048
 40
0.667621925
 40
1.0
 40
1.0
 40
1.0
 40
1.0
 10
1802.525080081
 20
1899.283207595
 30
0.0
 10
1802.3759252288
 20
1899.283207595
 30
0.0
 10
1802.0831048294
 20
1899.3191877804
 30
0.0
 10
1801.7415605537
 20
1899.6513024713
 30
0.0
 10
1801.6482554485
 20
1900.1785281518
 30
0.0
 10
1801.640307154
 20
1900.5615588981
 30
0.0
 10
1801.640307154
 20
1900.783207595
 30
0.0
  0
SPLINE
  5
421
330
208
100
AcDbEntity
  8
7_ALL_FEATURES
  6
Continuous
 62
     7
100
AcDbSpline
 70
     0
 71
     3
 72
    11
 73
     7
 74
     0
 42
0.000000001
 43
0.0000001
 40
0.0
 40
0.0
 40
0.0
 40
0.0
 40
0.2236684614
 40
0.4201398599
 40
0.6676168051
 40
1.0
 40
1.0
 40
1.0
 40
1.0
 10
1899.1252174408
 20
1899.283207595
 30
0.0
 10
1899.2743723601
 20
1899.283207595
 30
0.0
 10
1899.567192318
 20
1899.3191877435
 30
0.0
 10
1899.908734212
 20
1899.651299452
 30
0.0
 10
1900.0020423273
 20
1900.1785240949
 30
0.0
 10
1900.0099903678
 20
1900.5615554751
 30
0.0
 10
1900.0099903678
 20
1900.783207595
 30
0.0
  0
LINE
  5
422
330
208
100
AcDbEntity
  8
7_ALL_FEATURES
  6
Continuous
 62
     9
100
AcDbLine
 10
1898.525149
 20
1904.383208
 30
0.0
 11
1899.825149
 21
1904.383208
 31
0.0
  0
LINE
  5
423
330
208
100
AcDbEntity
  8
7_ALL_FEATURES
  6
Continuous
 62
     9
100
AcDbLine
 10
1899.825149
 20
1904.383208
 30
0.0
 11
1900.025149
 21
1904.383208
 31
0.0
  0
SPLINE
  5
424
330
208
100
AcDbEntity
  8
7_ALL_FEATURES
  6
Continuous
 62
     7
100
AcDbSpline
 70
     0
 71
     3
 72
    11
 73
     7
 74
     0
 42
0.000000001
 43
0.0000001
 40
0.0
 40
0.0
 40
0.0
 40
0.0
 40
0.3323831949
 40
0.5798601401
 40
0.7763315386
 40
1.0
 40
1.0
 40
1.0
 40
1.0
 10
1900.0099903678
 20
1900.783207595
 30
0.0
 10
1900.0099903678
 20
1901.0048597148
 30
0.0
 10
1900.0020423273
 20
1901.387891095
 30
0.0
 10
1899.908734212
 20
1901.9151157379
 30
0.0
 10
1899.567192318
 20
1902.2472274465
 30
0.0
 10
1899.2743723601
 20
1902.283207595
 30
0.0
 10
1899.1252174408
 20
1902.283207595
 30
0.0
  0
SPLINE
  5
425
330
208
100
AcDbEntity
  8
7_ALL_FEATURES
  6
Continuous
 62
     7
100
AcDbSpline
 70
     0
 71
     3
 72
    11
 73
     7
 74
     0
 42
0.000000001
 43
0.0000001
 40
0.0
 40
0.0
 40
0.0
 40
0.0
 40
0.2236684686
 40
0.4201398057
 40
0.6676163789
 40
1.0
 40
1.0
 40
1.0
 40
1.0
 10
1899.1252174408
 20
1792.283207595
 30
0.0
 10
1899.2743723654
 20
1792.283207595
 30
0.0
 10
1899.5671922861
 20
1792.3191877403
 30
0.0
 10
1899.9087339823
 20
1792.6512992
 30
0.0
 10
1900.0020423488
 20
1793.1785237569
 30
0.0
 10
1900.0099903678
 20
1793.5615551902
 30
0.0
 10
1900.0099903678
 20
1793.783207595
 30
0.0
  0
LINE
  5
426
330
208
100
AcDbEntity
  8
7_ALL_FEATURES
  6
Continuous
 62
     9
100
AcDbLine
 10
1897.025149
 20
1790.283208
 30
0.0
 11
1897.025149
 21
1797.283208
 31
0.0
  0
SPLINE
  5
427
330
208
100
AcDbEntity
  8
7_ALL_FEATURES
  6
Continuous
 62
     7
100
AcDbSpline
 70
     0
 71
     3
 72
    11
 73
     7
 74
     0
 42
0.000000001
 43
0.0000001
 40
0.0
 40
0.0
 40
0.0
 40
0.0
 40
0.332378075
 40
0.5798594952
 40
0.7763316305
 40
1.0
 40
1.0
 40
1.0
 40
1.0
 10
1801.640307154
 20
1793.783207595
 30
0.0
 10
1801.640307154
 20
1794.0048562919
 30
0.0
 10
1801.6482554485
 20
1794.3878870382
 30
0.0
 10
1801.7415605537
 20
1794.9151127187
 30
0.0
 10
1802.0831048294
 20
1795.2472274096
 30
0.0
 10
1802.3759252288
 20
1795.283207595
 30
0.0
 10
1802.525080081
 20
1795.283207595
 30
0.0
  0
LINE
  5
428
330
208
100
AcDbEntity
  8
7_ALL_FEATURES
  6
Continuous
 62
     9
100
AcDbLine
 10
1803.125149
 20
1797.383208
 30
0.0
 11
1801.825149
 21
1797.383208
 31
0.0
  0
LINE
  5
429
330
208
100
AcDbEntity
  8
7_ALL_FEATURES
  6
Continuous
 62
     9
100
AcDbLine
 10
1801.825149
 20
1797.383208
 30
0.0
 11
1801.625149
 21
1797.383208
 31
0.0
  0
LINE
  5
42A
330
208
100
AcDbEntity
  8
7_ALL_FEATURES
  6
Continuous
 62
     9
100
AcDbLine
 10
1897.025149
 20
1897.283208
 30
0.0
 11
1897.025149
 21
1904.283208
 31
0.0
  0
LINE
  5
42B
330
208
100
AcDbEntity
  8
7_ALL_FEATURES
  6
Continuous
 62
     9
100
AcDbLine
 10
1803.125149
 20
1897.183208
 30
0.0
 11
1801.825149
 21
1897.183208
 31
0.0
  0
LINE
  5
42C
330
208
100
AcDbEntity
  8
7_ALL_FEATURES
  6
Continuous
 62
     9
100
AcDbLine
 10
1801.825149
 20
1897.183208
 30
0.0
 11
1801.625149
 21
1897.183208
 31
0.0
  0
LINE
  5
42D
330
208
100
AcDbEntity
  8
7_ALL_FEATURES
  6
Continuous
 62
     9
100
AcDbLine
 10
1803.132728
 20
1900.783208
 30
0.0
 11
1801.640307
 21
1900.783208
 31
0.0
  0
LINE
  5
42E
330
208
100
AcDbEntity
  8
7_ALL_FEATURES
  6
Continuous
 62
     9
100
AcDbLine
 10
1804.625149
 20
1897.283208
 30
0.0
 11
1804.625149
 21
1904.283208
 31
0.0
  0
SPLINE
  5
42F
330
208
100
AcDbEntity
  8
7_ALL_FEATURES
  6
Continuous
 62
     7
100
AcDbSpline
 70
     0
 71
     3
 72
    11
 73
     7
 74
     0
 42
0.000000001
 43
0.0000001
 40
0.0
 40
0.0
 40
0.0
 40
0.0
 40
0.332378075
 40
0.5798594952
 40
0.7763316305
 40
1.0
 40
1.0
 40
1.0
 40
1.0
 10
1801.640307154
 20
1900.783207595
 30
0.0
 10
1801.640307154
 20
1901.0048562919
 30
0.0
 10
1801.6482554485
 20
1901.3878870382
 30
0.0
 10
1801.7415605537
 20
1901.9151127187
 30
0.0
 10
1802.0831048294
 20
1902.2472274096
 30
0.0
 10
1802.3759252288
 20
1902.283207595
 30
0.0
 10
1802.525080081
 20
1902.283207595
 30
0.0
  0
LINE
  5
430
330
208
100
AcDbEntity
  8
7_ALL_FEATURES
  6
Continuous
 62
     9
100
AcDbLine
 10
1803.132728
 20
1793.783208
 30
0.0
 11
1801.640307
 21
1793.783208
 31
0.0
  0
LINE
  5
431
330
208
100
AcDbEntity
  8
7_ALL_FEATURES
  6
Continuous
 62
     9
100
AcDbLine
 10
1898.525149
 20
1790.183208
 30
0.0
 11
1899.825149
 21
1790.183208
 31
0.0
  0
LINE
  5
432
330
208
100
AcDbEntity
  8
7_ALL_FEATURES
  6
Continuous
 62
     9
100
AcDbLine
 10
1899.825149
 20
1790.183208
 30
0.0
 11
1900.025149
 21
1790.183208
 31
0.0
  0
LINE
  5
433
330
208
100
AcDbEntity
  8
7_ALL_FEATURES
  6
Continuous
 62
     7
100
AcDbLine
 10
1802.625149
 20
1920.533208
 30
0.0
 11
1801.825149
 21
1920.533208
 31
0.0
  0
ARC
  5
434
330
208
100
AcDbEntity
  8
7_ALL_FEATURES
  6
Continuous
 62
     7
100
AcDbCircle
 10
1801.825149
 20
1920.333208
 30
0.0
 40
0.2
100
AcDbArc
 50
90.0
 51
180.0
  0
LINE
  5
435
330
208
100
AcDbEntity
  8
7_ALL_FEATURES
  6
Continuous
 62
     7
100
AcDbLine
 10
1801.625149
 20
1920.333208
 30
0.0
 11
1801.625149
 21
1919.533208
 31
0.0
  0
LINE
  5
436
330
208
100
AcDbEntity
  8
7_ALL_FEATURES
  6
Continuous
 62
     7
100
AcDbLine
 10
1801.625149
 20
1907.033208
 30
0.0
 11
1801.625149
 21
1906.733208
 31
0.0
  0
ARC
  5
437
330
208
100
AcDbEntity
  8
7_ALL_FEATURES
  6
Continuous
 62
     7
100
AcDbCircle
 10
1801.425149
 20
1906.733208
 30
0.0
 40
0.2
100
AcDbArc
 50
270.0
 51
360.0
  0
LINE
  5
438
330
208
100
AcDbEntity
  8
7_ALL_FEATURES
  6
Continuous
 62
     7
100
AcDbLine
 10
1801.425149
 20
1906.533208
 30
0.0
 11
1800.625149
 21
1906.533208
 31
0.0
  0
ARC
  5
439
330
208
100
AcDbEntity
  8
7_ALL_FEATURES
  6
Continuous
 62
     7
100
AcDbCircle
 10
1800.625149
 20
1906.033208
 30
0.0
 40
0.5
100
AcDbArc
 50
90.0
 51
180.0
  0
LINE
  5
43A
330
208
100
AcDbEntity
  8
7_ALL_FEATURES
  6
Continuous
 62
     7
100
AcDbLine
 10
1800.125149
 20
1906.033208
 30
0.0
 11
1800.125149
 21
1903.533208
 31
0.0
  0
ARC
  5
43B
330
208
100
AcDbEntity
  8
7_ALL_FEATURES
  6
Continuous
 62
     7
100
AcDbCircle
 10
1800.625149
 20
1903.533208
 30
0.0
 40
0.5
100
AcDbArc
 50
180.0
 51
270.0
  0
LINE
  5
43C
330
208
100
AcDbEntity
  8
7_ALL_FEATURES
  6
Continuous
 62
     7
100
AcDbLine
 10
1800.625149
 20
1903.033208
 30
0.0
 11
1801.425149
 21
1903.033208
 31
0.0
  0
ARC
  5
43D
330
208
100
AcDbEntity
  8
7_ALL_FEATURES
  6
Continuous
 62
     7
100
AcDbCircle
 10
1801.425149
 20
1903.233208
 30
0.0
 40
0.2
100
AcDbArc
 50
270.0
 51
360.0
  0
LINE
  5
43E
330
208
100
AcDbEntity
  8
7_ALL_FEATURES
  6
Continuous
 62
     7
100
AcDbLine
 10
1801.625149
 20
1903.233208
 30
0.0
 11
1801.625149
 21
1904.333208
 31
0.0
  0
ARC
  5
43F
330
208
100
AcDbEntity
  8
7_ALL_FEATURES
  6
Continuous
 62
     7
100
AcDbCircle
 10
1801.825149
 20
1904.333208
 30
0.0
 40
0.2
100
AcDbArc
 50
90.0
 51
180.0
  0
LINE
  5
440
330
208
100
AcDbEntity
  8
7_ALL_FEATURES
  6
Continuous
 62
     7
100
AcDbLine
 10
1801.825149
 20
1904.533208
 30
0.0
 11
1804.625149
 21
1904.533208
 31
0.0
  0
LINE
  5
441
330
208
100
AcDbEntity
  8
7_ALL_FEATURES
  6
Continuous
 62
     7
100
AcDbLine
 10
1804.625149
 20
1897.033208
 30
0.0
 11
1801.825149
 21
1897.033208
 31
0.0
  0
ARC
  5
442
330
208
100
AcDbEntity
  8
7_ALL_FEATURES
  6
Continuous
 62
     7
100
AcDbCircle
 10
1801.825149
 20
1897.233208
 30
0.0
 40
0.2
100
AcDbArc
 50
180.0
 51
270.0
  0
LINE
  5
443
330
208
100
AcDbEntity
  8
7_ALL_FEATURES
  6
Continuous
 62
     7
100
AcDbLine
 10
1801.625149
 20
1897.233208
 30
0.0
 11
1801.625149
 21
1898.333208
 31
0.0
  0
ARC
  5
444
330
208
100
AcDbEntity
  8
7_ALL_FEATURES
  6
Continuous
 62
     7
100
AcDbCircle
 10
1801.425149
 20
1898.333208
 30
0.0
 40
0.2
100
AcDbArc
 50
0.0
 51
90.0
  0
LINE
  5
445
330
208
100
AcDbEntity
  8
7_ALL_FEATURES
  6
Continuous
 62
     7
100
AcDbLine
 10
1801.425149
 20
1898.533208
 30
0.0
 11
1800.625149
 21
1898.533208
 31
0.0
  0
ARC
  5
446
330
208
100
AcDbEntity
  8
7_ALL_FEATURES
  6
Continuous
 62
     7
100
AcDbCircle
 10
1800.625149
 20
1898.033208
 30
0.0
 40
0.5
100
AcDbArc
 50
90.0
 51
180.0
  0
LINE
  5
447
330
208
100
AcDbEntity
  8
7_ALL_FEATURES
  6
Continuous
 62
     7
100
AcDbLine
 10
1800.125149
 20
1898.033208
 30
0.0
 11
1800.125149
 21
1895.533208
 31
0.0
  0
ARC
  5
448
330
208
100
AcDbEntity
  8
7_ALL_FEATURES
  6
Continuous
 62
     7
100
AcDbCircle
 10
1800.625149
 20
1895.533208
 30
0.0
 40
0.5
100
AcDbArc
 50
180.0
 51
270.0
  0
LINE
  5
449
330
208
100
AcDbEntity
  8
7_ALL_FEATURES
  6
Continuous
 62
     7
100
AcDbLine
 10
1800.625149
 20
1895.033208
 30
0.0
 11
1801.425149
 21
1895.033208
 31
0.0
  0
ARC
  5
44A
330
208
100
AcDbEntity
  8
7_ALL_FEATURES
  6
Continuous
 62
     7
100
AcDbCircle
 10
1801.425149
 20
1894.833208
 30
0.0
 40
0.2
100
AcDbArc
 50
0.0
 51
90.0
  0
LINE
  5
44B
330
208
100
AcDbEntity
  8
7_ALL_FEATURES
  6
Continuous
 62
     7
100
AcDbLine
 10
1801.625149
 20
1894.833208
 30
0.0
 11
1801.625149
 21
1894.533208
 31
0.0
  0
LINE
  5
44C
330
208
100
AcDbEntity
  8
7_ALL_FEATURES
  6
Continuous
 62
     7
100
AcDbLine
 10
1801.625149
 20
1800.033208
 30
0.0
 11
1801.625149
 21
1799.733208
 31
0.0
  0
ARC
  5
44D
330
208
100
AcDbEntity
  8
7_ALL_FEATURES
  6
Continuous
 62
     7
100
AcDbCircle
 10
1801.425149
 20
1799.733208
 30
0.0
 40
0.2
100
AcDbArc
 50
270.0
 51
360.0
  0
LINE
  5
44E
330
208
100
AcDbEntity
  8
7_ALL_FEATURES
  6
Continuous
 62
     7
100
AcDbLine
 10
1801.425149
 20
1799.533208
 30
0.0
 11
1800.625149
 21
1799.533208
 31
0.0
  0
ARC
  5
44F
330
208
100
AcDbEntity
  8
7_ALL_FEATURES
  6
Continuous
 62
     7
100
AcDbCircle
 10
1800.625149
 20
1799.033208
 30
0.0
 40
0.5
100
AcDbArc
 50
90.0
 51
180.0
  0
LINE
  5
450
330
208
100
AcDbEntity
  8
7_ALL_FEATURES
  6
Continuous
 62
     7
100
AcDbLine
 10
1800.125149
 20
1799.033208
 30
0.0
 11
1800.125149
 21
1796.533208
 31
0.0
  0
ARC
  5
451
330
208
100
AcDbEntity
  8
7_ALL_FEATURES
  6
Continuous
 62
     7
100
AcDbCircle
 10
1800.625149
 20
1796.533208
 30
0.0
 40
0.5
100
AcDbArc
 50
180.0
 51
270.0
  0
LINE
  5
452
330
208
100
AcDbEntity
  8
7_ALL_FEATURES
  6
Continuous
 62
     7
100
AcDbLine
 10
1800.625149
 20
1796.033208
 30
0.0
 11
1801.425149
 21
1796.033208
 31
0.0
  0
ARC
  5
453
330
208
100
AcDbEntity
  8
7_ALL_FEATURES
  6
Continuous
 62
     7
100
AcDbCircle
 10
1801.425149
 20
1796.233208
 30
0.0
 40
0.2
100
AcDbArc
 50
270.0
 51
360.0
  0
LINE
  5
454
330
208
100
AcDbEntity
  8
7_ALL_FEATURES
  6
Continuous
 62
     7
100
AcDbLine
 10
1801.625149
 20
1796.233208
 30
0.0
 11
1801.625149
 21
1797.333208
 31
0.0
  0
ARC
  5
455
330
208
100
AcDbEntity
  8
7_ALL_FEATURES
  6
Continuous
 62
     7
100
AcDbCircle
 10
1801.825149
 20
1797.333208
 30
0.0
 40
0.2
100
AcDbArc
 50
90.0
 51
180.0
  0
LINE
  5
456
330
208
100
AcDbEntity
  8
7_ALL_FEATURES
  6
Continuous
 62
     7
100
AcDbLine
 10
1801.825149
 20
1797.533208
 30
0.0
 11
1804.625149
 21
1797.533208
 31
0.0
  0
LINE
  5
457
330
208
100
AcDbEntity
  8
7_ALL_FEATURES
  6
Continuous
 62
     7
100
AcDbLine
 10
1804.625149
 20
1790.033208
 30
0.0
 11
1801.825149
 21
1790.033208
 31
0.0
  0
ARC
  5
458
330
208
100
AcDbEntity
  8
7_ALL_FEATURES
  6
Continuous
 62
     7
100
AcDbCircle
 10
1801.825149
 20
1790.233208
 30
0.0
 40
0.2
100
AcDbArc
 50
180.0
 51
270.0
  0
LINE
  5
459
330
208
100
AcDbEntity
  8
7_ALL_FEATURES
  6
Continuous
 62
     7
100
AcDbLine
 10
1801.625149
 20
1790.233208
 30
0.0
 11
1801.625149
 21
1791.333208
 31
0.0
  0
ARC
  5
45A
330
208
100
AcDbEntity
  8
7_ALL_FEATURES
  6
Continuous
 62
     7
100
AcDbCircle
 10
1801.425149
 20
1791.333208
 30
0.0
 40
0.2
100
AcDbArc
 50
0.0
 51
90.0
  0
LINE
  5
45B
330
208
100
AcDbEntity
  8
7_ALL_FEATURES
  6
Continuous
 62
     7
100
AcDbLine
 10
1801.425149
 20
1791.533208
 30
0.0
 11
1800.625149
 21
1791.533208
 31
0.0
  0
ARC
  5
45C
330
208
100
AcDbEntity
  8
7_ALL_FEATURES
  6
Continuous
 62
     7
100
AcDbCircle
 10
1800.625149
 20
1791.033208
 30
0.0
 40
0.5
100
AcDbArc
 50
90.0
 51
180.0
  0
LINE
  5
45D
330
208
100
AcDbEntity
  8
7_ALL_FEATURES
  6
Continuous
 62
     7
100
AcDbLine
 10
1800.125149
 20
1791.033208
 30
0.0
 11
1800.125149
 21
1788.533208
 31
0.0
  0
ARC
  5
45E
330
208
100
AcDbEntity
  8
7_ALL_FEATURES
  6
Continuous
 62
     7
100
AcDbCircle
 10
1800.625149
 20
1788.533208
 30
0.0
 40
0.5
100
AcDbArc
 50
180.0
 51
270.0
  0
LINE
  5
45F
330
208
100
AcDbEntity
  8
7_ALL_FEATURES
  6
Continuous
 62
     7
100
AcDbLine
 10
1800.625149
 20
1788.033208
 30
0.0
 11
1801.425149
 21
1788.033208
 31
0.0
  0
ARC
  5
460
330
208
100
AcDbEntity
  8
7_ALL_FEATURES
  6
Continuous
 62
     7
100
AcDbCircle
 10
1801.425149
 20
1787.833208
 30
0.0
 40
0.2
100
AcDbArc
 50
0.0
 51
90.0
  0
LINE
  5
461
330
208
100
AcDbEntity
  8
7_ALL_FEATURES
  6
Continuous
 62
     7
100
AcDbLine
 10
1801.625149
 20
1787.833208
 30
0.0
 11
1801.625149
 21
1787.533208
 31
0.0
  0
LINE
  5
462
330
208
100
AcDbEntity
  8
7_ALL_FEATURES
  6
Continuous
 62
     7
100
AcDbLine
 10
1801.625149
 20
1772.033208
 30
0.0
 11
1801.625149
 21
1771.033208
 31
0.0
  0
ARC
  5
463
330
208
100
AcDbEntity
  8
7_ALL_FEATURES
  6
Continuous
 62
     7
100
AcDbCircle
 10
1802.625149
 20
1771.033208
 30
0.0
 40
1.0
100
AcDbArc
 50
180.0
 51
270.0
  0
LINE
  5
464
330
208
100
AcDbEntity
  8
7_ALL_FEATURES
  6
Continuous
 62
     7
100
AcDbLine
 10
1802.625149
 20
1770.033208
 30
0.0
 11
1803.625149
 21
1770.033208
 31
0.0
  0
LINE
  5
465
330
208
100
AcDbEntity
  8
7_ALL_FEATURES
  6
Continuous
 62
     7
100
AcDbLine
 10
1899.025149
 20
1770.033208
 30
0.0
 11
1898.025149
 21
1770.033208
 31
0.0
  0
ARC
  5
466
330
208
100
AcDbEntity
  8
7_ALL_FEATURES
  6
Continuous
 62
     7
100
AcDbCircle
 10
1899.025149
 20
1771.033208
 30
0.0
 40
1.0
100
AcDbArc
 50
270.0
 51
360.0
  0
LINE
  5
467
330
208
100
AcDbEntity
  8
7_ALL_FEATURES
  6
Continuous
 62
     7
100
AcDbLine
 10
1900.025149
 20
1787.833208
 30
0.0
 11
1900.025149
 21
1787.533208
 31
0.0
  0
LINE
  5
468
330
208
100
AcDbEntity
  8
7_ALL_FEATURES
  6
Continuous
 62
     7
100
AcDbLine
 10
1900.025149
 20
1772.033208
 30
0.0
 11
1900.025149
 21
1771.033208
 31
0.0
  0
ARC
  5
469
330
208
100
AcDbEntity
  8
7_ALL_FEATURES
  6
Continuous
 62
     7
100
AcDbCircle
 10
1900.225149
 20
1787.833208
 30
0.0
 40
0.2
100
AcDbArc
 50
90.0
 51
180.0
  0
LINE
  5
46A
330
208
100
AcDbEntity
  8
7_ALL_FEATURES
  6
Continuous
 62
     7
100
AcDbLine
 10
1901.025149
 20
1788.033208
 30
0.0
 11
1900.225149
 21
1788.033208
 31
0.0
  0
ARC
  5
46B
330
208
100
AcDbEntity
  8
7_ALL_FEATURES
  6
Continuous
 62
     7
100
AcDbCircle
 10
1901.025149
 20
1788.533208
 30
0.0
 40
0.5
100
AcDbArc
 50
270.0
 51
360.0
  0
LINE
  5
46C
330
208
100
AcDbEntity
  8
7_ALL_FEATURES
  6
Continuous
 62
     7
100
AcDbLine
 10
1901.525149
 20
1791.033208
 30
0.0
 11
1901.525149
 21
1788.533208
 31
0.0
  0
ARC
  5
46D
330
208
100
AcDbEntity
  8
7_ALL_FEATURES
  6
Continuous
 62
     7
100
AcDbCircle
 10
1901.025149
 20
1791.033208
 30
0.0
 40
0.5
100
AcDbArc
 50
0.0
 51
90.0
  0
LINE
  5
46E
330
208
100
AcDbEntity
  8
7_ALL_FEATURES
  6
Continuous
 62
     7
100
AcDbLine
 10
1900.225149
 20
1791.533208
 30
0.0
 11
1901.025149
 21
1791.533208
 31
0.0
  0
ARC
  5
46F
330
208
100
AcDbEntity
  8
7_ALL_FEATURES
  6
Continuous
 62
     7
100
AcDbCircle
 10
1900.225149
 20
1791.333208
 30
0.0
 40
0.2
100
AcDbArc
 50
90.0
 51
180.0
  0
LINE
  5
470
330
208
100
AcDbEntity
  8
7_ALL_FEATURES
  6
Continuous
 62
     7
100
AcDbLine
 10
1900.025149
 20
1790.233208
 30
0.0
 11
1900.025149
 21
1791.333208
 31
0.0
  0
ARC
  5
471
330
208
100
AcDbEntity
  8
7_ALL_FEATURES
  6
Continuous
 62
     7
100
AcDbCircle
 10
1899.825149
 20
1790.233208
 30
0.0
 40
0.2
100
AcDbArc
 50
270.0
 51
360.0
  0
LINE
  5
472
330
208
100
AcDbEntity
  8
7_ALL_FEATURES
  6
Continuous
 62
     7
100
AcDbLine
 10
1897.025149
 20
1790.033208
 30
0.0
 11
1899.825149
 21
1790.033208
 31
0.0
  0
LINE
  5
473
330
208
100
AcDbEntity
  8
7_ALL_FEATURES
  6
Continuous
 62
     7
100
AcDbLine
 10
1899.825149
 20
1797.533208
 30
0.0
 11
1897.025149
 21
1797.533208
 31
0.0
  0
ARC
  5
474
330
208
100
AcDbEntity
  8
7_ALL_FEATURES
  6
Continuous
 62
     7
100
AcDbCircle
 10
1899.825149
 20
1797.333208
 30
0.0
 40
0.2
100
AcDbArc
 50
0.0
 51
90.0
  0
LINE
  5
475
330
208
100
AcDbEntity
  8
7_ALL_FEATURES
  6
Continuous
 62
     7
100
AcDbLine
 10
1900.025149
 20
1796.233208
 30
0.0
 11
1900.025149
 21
1797.333208
 31
0.0
  0
ARC
  5
476
330
208
100
AcDbEntity
  8
7_ALL_FEATURES
  6
Continuous
 62
     7
100
AcDbCircle
 10
1900.225149
 20
1796.233208
 30
0.0
 40
0.2
100
AcDbArc
 50
180.0
 51
270.0
  0
LINE
  5
477
330
208
100
AcDbEntity
  8
7_ALL_FEATURES
  6
Continuous
 62
     7
100
AcDbLine
 10
1901.025149
 20
1796.033208
 30
0.0
 11
1900.225149
 21
1796.033208
 31
0.0
  0
ARC
  5
478
330
208
100
AcDbEntity
  8
7_ALL_FEATURES
  6
Continuous
 62
     7
100
AcDbCircle
 10
1901.025149
 20
1796.533208
 30
0.0
 40
0.5
100
AcDbArc
 50
270.0
 51
360.0
  0
LINE
  5
479
330
208
100
AcDbEntity
  8
7_ALL_FEATURES
  6
Continuous
 62
     7
100
AcDbLine
 10
1901.525149
 20
1799.033208
 30
0.0
 11
1901.525149
 21
1796.533208
 31
0.0
  0
ARC
  5
47A
330
208
100
AcDbEntity
  8
7_ALL_FEATURES
  6
Continuous
 62
     7
100
AcDbCircle
 10
1901.025149
 20
1799.033208
 30
0.0
 40
0.5
100
AcDbArc
 50
0.0
 51
90.0
  0
LINE
  5
47B
330
208
100
AcDbEntity
  8
7_ALL_FEATURES
  6
Continuous
 62
     7
100
AcDbLine
 10
1900.225149
 20
1799.533208
 30
0.0
 11
1901.025149
 21
1799.533208
 31
0.0
  0
ARC
  5
47C
330
208
100
AcDbEntity
  8
7_ALL_FEATURES
  6
Continuous
 62
     7
100
AcDbCircle
 10
1900.225149
 20
1799.733208
 30
0.0
 40
0.2
100
AcDbArc
 50
180.0
 51
270.0
  0
LINE
  5
47D
330
208
100
AcDbEntity
  8
7_ALL_FEATURES
  6
Continuous
 62
     7
100
AcDbLine
 10
1900.025149
 20
1894.833208
 30
0.0
 11
1900.025149
 21
1894.533208
 31
0.0
  0
LINE
  5
47E
330
208
100
AcDbEntity
  8
7_ALL_FEATURES
  6
Continuous
 62
     7
100
AcDbLine
 10
1900.025149
 20
1800.033208
 30
0.0
 11
1900.025149
 21
1799.733208
 31
0.0
  0
ARC
  5
47F
330
208
100
AcDbEntity
  8
7_ALL_FEATURES
  6
Continuous
 62
     7
100
AcDbCircle
 10
1900.225149
 20
1894.833208
 30
0.0
 40
0.2
100
AcDbArc
 50
90.0
 51
180.0
  0
LINE
  5
480
330
208
100
AcDbEntity
  8
7_ALL_FEATURES
  6
Continuous
 62
     7
100
AcDbLine
 10
1901.025149
 20
1895.033208
 30
0.0
 11
1900.225149
 21
1895.033208
 31
0.0
  0
ARC
  5
481
330
208
100
AcDbEntity
  8
7_ALL_FEATURES
  6
Continuous
 62
     7
100
AcDbCircle
 10
1901.025149
 20
1895.533208
 30
0.0
 40
0.5
100
AcDbArc
 50
270.0
 51
360.0
  0
LINE
  5
482
330
208
100
AcDbEntity
  8
7_ALL_FEATURES
  6
Continuous
 62
     7
100
AcDbLine
 10
1901.525149
 20
1898.033208
 30
0.0
 11
1901.525149
 21
1895.533208
 31
0.0
  0
ARC
  5
483
330
208
100
AcDbEntity
  8
7_ALL_FEATURES
  6
Continuous
 62
     7
100
AcDbCircle
 10
1901.025149
 20
1898.033208
 30
0.0
 40
0.5
100
AcDbArc
 50
0.0
 51
90.0
  0
LINE
  5
484
330
208
100
AcDbEntity
  8
7_ALL_FEATURES
  6
Continuous
 62
     7
100
AcDbLine
 10
1900.225149
 20
1898.533208
 30
0.0
 11
1901.025149
 21
1898.533208
 31
0.0
  0
ARC
  5
485
330
208
100
AcDbEntity
  8
7_ALL_FEATURES
  6
Continuous
 62
     7
100
AcDbCircle
 10
1900.225149
 20
1898.333208
 30
0.0
 40
0.2
100
AcDbArc
 50
90.0
 51
180.0
  0
LINE
  5
486
330
208
100
AcDbEntity
  8
7_ALL_FEATURES
  6
Continuous
 62
     7
100
AcDbLine
 10
1900.025149
 20
1897.233208
 30
0.0
 11
1900.025149
 21
1898.333208
 31
0.0
  0
ARC
  5
487
330
208
100
AcDbEntity
  8
7_ALL_FEATURES
  6
Continuous
 62
     7
100
AcDbCircle
 10
1899.825149
 20
1897.233208
 30
0.0
 40
0.2
100
AcDbArc
 50
270.0
 51
360.0
  0
LINE
  5
488
330
208
100
AcDbEntity
  8
7_ALL_FEATURES
  6
Continuous
 62
     7
100
AcDbLine
 10
1897.025149
 20
1897.033208
 30
0.0
 11
1899.825149
 21
1897.033208
 31
0.0
  0
LINE
  5
489
330
208
100
AcDbEntity
  8
7_ALL_FEATURES
  6
Continuous
 62
     7
100
AcDbLine
 10
1899.825149
 20
1904.533208
 30
0.0
 11
1897.025149
 21
1904.533208
 31
0.0
  0
ARC
  5
48A
330
208
100
AcDbEntity
  8
7_ALL_FEATURES
  6
Continuous
 62
     7
100
AcDbCircle
 10
1899.825149
 20
1904.333208
 30
0.0
 40
0.2
100
AcDbArc
 50
0.0
 51
90.0
  0
LINE
  5
48B
330
208
100
AcDbEntity
  8
7_ALL_FEATURES
  6
Continuous
 62
     7
100
AcDbLine
 10
1900.025149
 20
1903.233208
 30
0.0
 11
1900.025149
 21
1904.333208
 31
0.0
  0
ARC
  5
48C
330
208
100
AcDbEntity
  8
7_ALL_FEATURES
  6
Continuous
 62
     7
100
AcDbCircle
 10
1900.225149
 20
1903.233208
 30
0.0
 40
0.2
100
AcDbArc
 50
180.0
 51
270.0
  0
LINE
  5
48D
330
208
100
AcDbEntity
  8
7_ALL_FEATURES
  6
Continuous
 62
     7
100
AcDbLine
 10
1901.025149
 20
1903.033208
 30
0.0
 11
1900.225149
 21
1903.033208
 31
0.0
  0
ARC
  5
48E
330
208
100
AcDbEntity
  8
7_ALL_FEATURES
  6
Continuous
 62
     7
100
AcDbCircle
 10
1901.025149
 20
1903.533208
 30
0.0
 40
0.5
100
AcDbArc
 50
270.0
 51
360.0
  0
LINE
  5
48F
330
208
100
AcDbEntity
  8
7_ALL_FEATURES
  6
Continuous
 62
     7
100
AcDbLine
 10
1901.525149
 20
1906.033208
 30
0.0
 11
1901.525149
 21
1903.533208
 31
0.0
  0
ARC
  5
490
330
208
100
AcDbEntity
  8
7_ALL_FEATURES
  6
Continuous
 62
     7
100
AcDbCircle
 10
1901.025149
 20
1906.033208
 30
0.0
 40
0.5
100
AcDbArc
 50
0.0
 51
90.0
  0
LINE
  5
491
330
208
100
AcDbEntity
  8
7_ALL_FEATURES
  6
Continuous
 62
     7
100
AcDbLine
 10
1900.225149
 20
1906.533208
 30
0.0
 11
1901.025149
 21
1906.533208
 31
0.0
  0
ARC
  5
492
330
208
100
AcDbEntity
  8
7_ALL_FEATURES
  6
Continuous
 62
     7
100
AcDbCircle
 10
1900.225149
 20
1906.733208
 30
0.0
 40
0.2
100
AcDbArc
 50
180.0
 51
270.0
  0
LINE
  5
493
330
208
100
AcDbEntity
  8
7_ALL_FEATURES
  6
Continuous
 62
     7
100
AcDbLine
 10
1900.025149
 20
1920.333208
 30
0.0
 11
1900.025149
 21
1919.533208
 31
0.0
  0
LINE
  5
494
330
208
100
AcDbEntity
  8
7_ALL_FEATURES
  6
Continuous
 62
     7
100
AcDbLine
 10
1900.025149
 20
1907.033208
 30
0.0
 11
1900.025149
 21
1906.733208
 31
0.0
  0
ARC
  5
495
330
208
100
AcDbEntity
  8
7_ALL_FEATURES
  6
Continuous
 62
     7
100
AcDbCircle
 10
1899.825149
 20
1920.333208
 30
0.0
 40
0.2
100
AcDbArc
 50
0.0
 51
90.0
  0
LINE
  5
496
330
208
100
AcDbEntity
  8
7_ALL_FEATURES
  6
Continuous
 62
     7
100
AcDbLine
 10
1899.025149
 20
1920.533208
 30
0.0
 11
1899.825149
 21
1920.533208
 31
0.0
  0
SPLINE
  5
497
330
208
100
AcDbEntity
  8
7_ALL_FEATURES
  6
Continuous
 62
     3
100
AcDbSpline
 70
     0
 71
     3
 72
     9
 73
     5
 74
     0
 42
0.000000001
 43
0.0000001
 40
0.0
 40
0.0
 40
0.0
 40
0.0
 40
0.4582017085
 40
1.0
 40
1.0
 40
1.0
 40
1.0
 10
1803.2876316366
 20
1899.4580212318
 30
0.0
 10
1803.183161706
 20
1899.6341416594
 30
0.0
 10
1803.1405023182
 20
1900.1024034592
 30
0.0
 10
1803.1327279574
 20
1900.5410736716
 30
0.0
 10
1803.1327279574
 20
1900.783207595
 30
0.0
  0
SPLINE
  5
498
330
208
100
AcDbEntity
  8
7_ALL_FEATURES
  6
Continuous
 62
     3
100
AcDbSpline
 70
     0
 71
     3
 72
     9
 73
     5
 74
     0
 42
0.000000001
 43
0.0000001
 40
0.0
 40
0.0
 40
0.0
 40
0.0
 40
0.4582017085
 40
1.0
 40
1.0
 40
1.0
 40
1.0
 10
1803.2876316366
 20
1792.4580212318
 30
0.0
 10
1803.183161706
 20
1792.6341416594
 30
0.0
 10
1803.1405023182
 20
1793.1024034592
 30
0.0
 10
1803.1327279574
 20
1793.5410736716
 30
0.0
 10
1803.1327279574
 20
1793.783207595
 30
0.0
  0
SPLINE
  5
499
330
208
100
AcDbEntity
  8
7_ALL_FEATURES
  6
Continuous
 62
     3
100
AcDbSpline
 70
     0
 71
     3
 72
     9
 73
     5
 74
     0
 42
0.000000001
 43
0.0000001
 40
0.0
 40
0.0
 40
0.0
 40
0.0
 40
0.458204462
 40
1.0
 40
1.0
 40
1.0
 40
1.0
 10
1898.3626702956
 20
1792.4580278153
 30
0.0
 10
1898.4671422273
 20
1792.6341471314
 30
0.0
 10
1898.5097906848
 20
1793.1024098577
 30
0.0
 10
1898.5175695643
 20
1793.5410762806
 30
0.0
 10
1898.5175695643
 20
1793.783207595
 30
0.0
  0
SPLINE
  5
49A
330
208
100
AcDbEntity
  8
7_ALL_FEATURES
  6
Continuous
 62
     3
100
AcDbSpline
 70
     0
 71
     3
 72
     9
 73
     5
 74
     0
 42
0.000000001
 43
0.0000001
 40
0.0
 40
0.0
 40
0.0
 40
0.0
 40
0.4582042497
 40
1.0
 40
1.0
 40
1.0
 40
1.0
 10
1898.362669949
 20
1899.4580272941
 30
0.0
 10
1898.4671417331
 20
1899.6341466945
 30
0.0
 10
1898.5097910311
 20
1900.1024093584
 30
0.0
 10
1898.5175695643
 20
1900.5410760767
 30
0.0
 10
1898.5175695643
 20
1900.783207595
 30
0.0
  0
LINE
  5
49B
330
208
100
AcDbEntity
  8
7_ALL_FEATURES
  6
Continuous
 62
     3
100
AcDbLine
 10
1803.125149
 20
1790.183208
 30
0.0
 11
1803.125149
 21
1790.283208
 31
0.0
  0
SPLINE
  5
49C
330
208
100
AcDbEntity
  8
7_ALL_FEATURES
  6
Continuous
 62
     3
100
AcDbSpline
 70
     0
 71
     3
 72
     9
 73
     5
 74
     0
 42
0.000000001
 43
0.0000001
 40
0.0
 40
0.0
 40
0.0
 40
0.0
 40
0.5417982915
 40
1.0
 40
1.0
 40
1.0
 40
1.0
 10
1803.1327279574
 20
1793.783207595
 30
0.0
 10
1803.1327279574
 20
1794.0253415184
 30
0.0
 10
1803.1405023182
 20
1794.4640117307
 30
0.0
 10
1803.183161706
 20
1794.9322735305
 30
0.0
 10
1803.2876316366
 20
1795.1083939582
 30
0.0
  0
LINE
  5
49D
330
208
100
AcDbEntity
  8
7_ALL_FEATURES
  6
Continuous
 62
     3
100
AcDbLine
 10
1803.125149
 20
1897.183208
 30
0.0
 11
1803.125149
 21
1897.283208
 31
0.0
  0
SPLINE
  5
49E
330
208
100
AcDbEntity
  8
7_ALL_FEATURES
  6
Continuous
 62
     3
100
AcDbSpline
 70
     0
 71
     3
 72
     9
 73
     5
 74
     0
 42
0.000000001
 43
0.0000001
 40
0.0
 40
0.0
 40
0.0
 40
0.0
 40
0.5417982915
 40
1.0
 40
1.0
 40
1.0
 40
1.0
 10
1803.1327279574
 20
1900.783207595
 30
0.0
 10
1803.1327279574
 20
1901.0253415184
 30
0.0
 10
1803.1405023182
 20
1901.4640117307
 30
0.0
 10
1803.183161706
 20
1901.9322735305
 30
0.0
 10
1803.2876316366
 20
1902.1083939582
 30
0.0
  0
LINE
  5
49F
330
208
100
AcDbEntity
  8
7_ALL_FEATURES
  6
Continuous
 62
     3
100
AcDbLine
 10
1898.525149
 20
1790.183208
 30
0.0
 11
1898.525149
 21
1790.283208
 31
0.0
  0
SPLINE
  5
4A0
330
208
100
AcDbEntity
  8
7_ALL_FEATURES
  6
Continuous
 62
     3
100
AcDbSpline
 70
     0
 71
     3
 72
     9
 73
     5
 74
     0
 42
0.000000001
 43
0.0000001
 40
0.0
 40
0.0
 40
0.0
 40
0.0
 40
0.5417957503
 40
1.0
 40
1.0
 40
1.0
 40
1.0
 10
1898.5175695643
 20
1900.783207595
 30
0.0
 10
1898.5175695643
 20
1901.0253391132
 30
0.0
 10
1898.5097910311
 20
1901.4640058316
 30
0.0
 10
1898.4671417331
 20
1901.9322684955
 30
0.0
 10
1898.362669949
 20
1902.1083878959
 30
0.0
  0
SPLINE
  5
4A1
330
208
100
AcDbEntity
  8
7_ALL_FEATURES
  6
Continuous
 62
     3
100
AcDbSpline
 70
     0
 71
     3
 72
     9
 73
     5
 74
     0
 42
0.000000001
 43
0.0000001
 40
0.0
 40
0.0
 40
0.0
 40
0.0
 40
0.541795538
 40
1.0
 40
1.0
 40
1.0
 40
1.0
 10
1898.5175695643
 20
1793.783207595
 30
0.0
 10
1898.5175695643
 20
1794.0253389094
 30
0.0
 10
1898.5097906848
 20
1794.4640053322
 30
0.0
 10
1898.4671422273
 20
1794.9322680585
 30
0.0
 10
1898.3626702956
 20
1795.1083873746
 30
0.0
  0
LINE
  5
4A2
330
208
100
AcDbEntity
  8
7_ALL_FEATURES
  6
Continuous
 62
     3
100
AcDbLine
 10
1898.525149
 20
1897.183208
 30
0.0
 11
1898.525149
 21
1897.283208
 31
0.0
  0
LINE
  5
4A3
330
208
100
AcDbEntity
  8
3_ALL_AXES
  6
Continuous
 62
     7
100
AcDbLine
 10
515.368714
 20
1368.826907
 30
0.0
 11
514.662844
 21
1368.826907
 31
0.0
  0
LINE
  5
4A4
330
208
100
AcDbEntity
  8
3_ALL_AXES
  6
Continuous
 62
     7
100
AcDbLine
 10
515.368714
 20
1363.026907
 30
0.0
 11
514.662844
 21
1363.026907
 31
0.0
  0
ARC
  5
4A5
330
208
100
AcDbEntity
  8
3_ALL_AXES
  6
Continuous
 62
     7
100
AcDbCircle
 10
522.118714
 20
1365.926907
 30
0.0
 40
8.0
100
AcDbArc
 50
180.0
 51
201.253809
  0
ARC
  5
4A6
330
208
100
AcDbEntity
  8
3_ALL_AXES
  6
Continuous
 62
     7
100
AcDbCircle
 10
522.118714
 20
1365.926907
 30
0.0
 40
8.0
100
AcDbArc
 50
158.746191
 51
180.0
  0
LINE
  5
4A7
330
208
100
AcDbEntity
  8
3_ALL_AXES
  6
Continuous
 62
     7
100
AcDbLine
 10
514.662844
 20
1368.826907
 30
0.0
 11
514.662844
 21
1363.026907
 31
0.0
  0
LINE
  5
4A8
330
208
100
AcDbEntity
  8
3_ALL_AXES
  6
Continuous
 62
     7
100
AcDbLine
 10
1483.868714
 20
1338.026907
 30
0.0
 11
1484.574585
 21
1338.026907
 31
0.0
  0
LINE
  5
4A9
330
208
100
AcDbEntity
  8
3_ALL_AXES
  6
Continuous
 62
     7
100
AcDbLine
 10
1483.868714
 20
1343.826907
 30
0.0
 11
1484.574585
 21
1343.826907
 31
0.0
  0
ARC
  5
4AA
330
208
100
AcDbEntity
  8
3_ALL_AXES
  6
Continuous
 62
     7
100
AcDbCircle
 10
1477.118714
 20
1340.926907
 30
0.0
 40
8.0
100
AcDbArc
 50
0.0
 51
21.253809
  0
ARC
  5
4AB
330
208
100
AcDbEntity
  8
3_ALL_AXES
  6
Continuous
 62
     7
100
AcDbCircle
 10
1477.118714
 20
1340.926907
 30
0.0
 40
8.0
100
AcDbArc
 50
338.746191
 51
360.0
  0
LINE
  5
4AC
330
208
100
AcDbEntity
  8
3_ALL_AXES
  6
Continuous
 62
     7
100
AcDbLine
 10
1484.574585
 20
1338.026907
 30
0.0
 11
1484.574585
 21
1343.826907
 31
0.0
  0
LINE
  5
4AD
330
208
100
AcDbEntity
  8
3_ALL_AXES
  6
Continuous
 62
     7
100
AcDbLine
 10
515.368714
 20
1343.826907
 30
0.0
 11
514.662844
 21
1343.826907
 31
0.0
  0
LINE
  5
4AE
330
208
100
AcDbEntity
  8
3_ALL_AXES
  6
Continuous
 62
     7
100
AcDbLine
 10
515.368714
 20
1338.026907
 30
0.0
 11
514.662844
 21
1338.026907
 31
0.0
  0
ARC
  5
4AF
330
208
100
AcDbEntity
  8
3_ALL_AXES
  6
Continuous
 62
     7
100
AcDbCircle
 10
522.118714
 20
1340.926907
 30
0.0
 40
8.0
100
AcDbArc
 50
180.0
 51
201.253809
  0
ARC
  5
4B0
330
208
100
AcDbEntity
  8
3_ALL_AXES
  6
Continuous
 62
     7
100
AcDbCircle
 10
522.118714
 20
1340.926907
 30
0.0
 40
8.0
100
AcDbArc
 50
158.746191
 51
180.0
  0
LINE
  5
4B1
330
208
100
AcDbEntity
  8
3_ALL_AXES
  6
Continuous
 62
     7
100
AcDbLine
 10
514.662844
 20
1343.826907
 30
0.0
 11
514.662844
 21
1338.026907
 31
0.0
  0
LINE
  5
4B2
330
208
100
AcDbEntity
  8
3_ALL_AXES
  6
Continuous
 62
     7
100
AcDbLine
 10
1483.868714
 20
1363.026907
 30
0.0
 11
1484.574585
 21
1363.026907
 31
0.0
  0
LINE
  5
4B3
330
208
100
AcDbEntity
  8
3_ALL_AXES
  6
Continuous
 62
     7
100
AcDbLine
 10
1483.868714
 20
1368.826907
 30
0.0
 11
1484.574585
 21
1368.826907
 31
0.0
  0
ARC
  5
4B4
330
208
100
AcDbEntity
  8
3_ALL_AXES
  6
Continuous
 62
     7
100
AcDbCircle
 10
1477.118714
 20
1365.926907
 30
0.0
 40
8.0
100
AcDbArc
 50
0.0
 51
21.253809
  0
ARC
  5
4B5
330
208
100
AcDbEntity
  8
3_ALL_AXES
  6
Continuous
 62
     7
100
AcDbCircle
 10
1477.118714
 20
1365.926907
 30
0.0
 40
8.0
100
AcDbArc
 50
338.746191
 51
360.0
  0
LINE
  5
4B6
330
208
100
AcDbEntity
  8
3_ALL_AXES
  6
Continuous
 62
     7
100
AcDbLine
 10
1484.574585
 20
1363.026907
 30
0.0
 11
1484.574585
 21
1368.826907
 31
0.0
  0
LINE
  5
4B7
330
208
100
AcDbEntity
  8
7_ALL_FEATURES
  6
Continuous
 62
     7
100
AcDbLine
 10
515.368714
 20
1305.226907
 30
0.0
 11
515.368714
 21
1304.226907
 31
0.0
  0
LINE
  5
4B8
330
208
100
AcDbEntity
  8
7_ALL_FEATURES
  6
Continuous
 62
     7
100
AcDbLine
 10
515.368714
 20
1401.626907
 30
0.0
 11
515.368714
 21
1402.626907
 31
0.0
  0
LINE
  5
4B9
330
208
100
AcDbEntity
  8
7_ALL_FEATURES
  6
Continuous
 62
     7
100
AcDbLine
 10
516.868714
 20
1304.226907
 30
0.0
 11
515.368714
 21
1304.226907
 31
0.0
  0
LINE
  5
4BA
330
208
100
AcDbEntity
  8
7_ALL_FEATURES
  6
Continuous
 62
     7
100
AcDbLine
 10
516.868714
 20
1402.626907
 30
0.0
 11
515.368714
 21
1402.626907
 31
0.0
  0
LINE
  5
4BB
330
208
100
AcDbEntity
  8
7_ALL_FEATURES
  6
Continuous
 62
     7
100
AcDbLine
 10
515.368714
 20
1305.226907
 30
0.0
 11
515.368714
 21
1401.626907
 31
0.0
  0
LINE
  5
4BC
330
208
100
AcDbEntity
  8
7_ALL_FEATURES
  6
Continuous
 62
     9
100
AcDbLine
 10
516.868714
 20
1401.626907
 30
0.0
 11
515.368714
 21
1401.626907
 31
0.0
  0
LINE
  5
4BD
330
208
100
AcDbEntity
  8
7_ALL_FEATURES
  6
Continuous
 62
     9
100
AcDbLine
 10
516.868714
 20
1305.226907
 30
0.0
 11
515.368714
 21
1305.226907
 31
0.0
  0
LINE
  5
4BE
330
208
100
AcDbEntity
  8
7_ALL_FEATURES
  6
Continuous
 62
     7
100
AcDbLine
 10
1483.868714
 20
1401.626907
 30
0.0
 11
1483.868714
 21
1402.626907
 31
0.0
  0
LINE
  5
4BF
330
208
100
AcDbEntity
  8
7_ALL_FEATURES
  6
Continuous
 62
     7
100
AcDbLine
 10
1483.868714
 20
1305.226907
 30
0.0
 11
1483.868714
 21
1304.226907
 31
0.0
  0
LINE
  5
4C0
330
208
100
AcDbEntity
  8
7_ALL_FEATURES
  6
Continuous
 62
     7
100
AcDbLine
 10
1482.368714
 20
1402.626907
 30
0.0
 11
1483.868714
 21
1402.626907
 31
0.0
  0
LINE
  5
4C1
330
208
100
AcDbEntity
  8
7_ALL_FEATURES
  6
Continuous
 62
     7
100
AcDbLine
 10
1482.368714
 20
1304.226907
 30
0.0
 11
1483.868714
 21
1304.226907
 31
0.0
  0
LINE
  5
4C2
330
208
100
AcDbEntity
  8
7_ALL_FEATURES
  6
Continuous
 62
     7
100
AcDbLine
 10
1483.868714
 20
1401.626907
 30
0.0
 11
1483.868714
 21
1305.226907
 31
0.0
  0
LINE
  5
4C3
330
208
100
AcDbEntity
  8
7_ALL_FEATURES
  6
Continuous
 62
     9
100
AcDbLine
 10
1482.368714
 20
1305.226907
 30
0.0
 11
1483.868714
 21
1305.226907
 31
0.0
  0
LINE
  5
4C4
330
208
100
AcDbEntity
  8
7_ALL_FEATURES
  6
Continuous
 62
     9
100
AcDbLine
 10
1482.368714
 20
1401.626907
 30
0.0
 11
1483.868714
 21
1401.626907
 31
0.0
  0
ARC
  5
4C5
330
208
100
AcDbEntity
  8
3_ALL_AXES
  6
Continuous
 62
     7
100
AcDbCircle
 10
1462.368714
 20
1353.426907
 30
0.0
 40
5.0
100
AcDbArc
 50
0.0
 51
180.0
  0
ARC
  5
4C6
330
208
100
AcDbEntity
  8
3_ALL_AXES
  6
Continuous
 62
     7
100
AcDbCircle
 10
1462.368714
 20
1353.426907
 30
0.0
 40
5.0
100
AcDbArc
 50
180.0
 51
360.0
  0
LINE
  5
4C7
330
208
100
AcDbEntity
  8
7_ALL_FEATURES
  6
Continuous
 62
     7
100
AcDbLine
 10
516.868714
 20
1305.726907
 30
0.0
 11
1482.368714
 21
1305.726907
 31
0.0
  0
LINE
  5
4C8
330
208
100
AcDbEntity
  8
7_ALL_FEATURES
  6
Continuous
 62
     7
100
AcDbLine
 10
516.868714
 20
1304.226907
 30
0.0
 11
1482.368714
 21
1304.226907
 31
0.0
  0
LINE
  5
4C9
330
208
100
AcDbEntity
  8
7_ALL_FEATURES
  6
Continuous
 62
     7
100
AcDbLine
 10
516.868714
 20
1302.726907
 30
0.0
 11
1482.368714
 21
1302.726907
 31
0.0
  0
LINE
  5
4CA
330
208
100
AcDbEntity
  8
7_ALL_FEATURES
  6
Continuous
 62
     7
100
AcDbLine
 10
1482.368714
 20
1403.626907
 30
0.0
 11
1482.368714
 21
1404.126907
 31
0.0
  0
LINE
  5
4CB
330
208
100
AcDbEntity
  8
7_ALL_FEATURES
  6
Continuous
 62
     7
100
AcDbLine
 10
516.868714
 20
1401.126907
 30
0.0
 11
1482.368714
 21
1401.126907
 31
0.0
  0
LINE
  5
4CC
330
208
100
AcDbEntity
  8
7_ALL_FEATURES
  6
Continuous
 62
     7
100
AcDbLine
 10
516.868714
 20
1402.626907
 30
0.0
 11
1482.368714
 21
1402.626907
 31
0.0
  0
LINE
  5
4CD
330
208
100
AcDbEntity
  8
7_ALL_FEATURES
  6
Continuous
 62
     7
100
AcDbLine
 10
516.868714
 20
1404.126907
 30
0.0
 11
1482.368714
 21
1404.126907
 31
0.0
  0
LINE
  5
4CE
330
208
100
AcDbEntity
  8
7_ALL_FEATURES
  6
Continuous
 62
     7
100
AcDbLine
 10
1482.368714
 20
1402.826907
 30
0.0
 11
1482.368714
 21
1403.626907
 31
0.0
  0
LINE
  5
4CF
330
208
100
AcDbEntity
  8
7_ALL_FEATURES
  6
Continuous
 62
     7
100
AcDbLine
 10
1482.368714
 20
1402.426907
 30
0.0
 11
1482.368714
 21
1402.626907
 31
0.0
  0
LINE
  5
4D0
330
208
100
AcDbEntity
  8
7_ALL_FEATURES
  6
Continuous
 62
     7
100
AcDbLine
 10
1482.368714
 20
1401.226907
 30
0.0
 11
1482.368714
 21
1401.626907
 31
0.0
  0
LINE
  5
4D1
330
208
100
AcDbEntity
  8
7_ALL_FEATURES
  6
Continuous
 62
     7
100
AcDbLine
 10
1482.368714
 20
1401.626907
 30
0.0
 11
1482.368714
 21
1402.426907
 31
0.0
  0
LINE
  5
4D2
330
208
100
AcDbEntity
  8
7_ALL_FEATURES
  6
Continuous
 62
     7
100
AcDbLine
 10
1482.368714
 20
1401.126907
 30
0.0
 11
1482.368714
 21
1401.226907
 31
0.0
  0
LINE
  5
4D3
330
208
100
AcDbEntity
  8
7_ALL_FEATURES
  6
Continuous
 62
     7
100
AcDbLine
 10
1482.368714
 20
1305.726907
 30
0.0
 11
1482.368714
 21
1305.626907
 31
0.0
  0
LINE
  5
4D4
330
208
100
AcDbEntity
  8
7_ALL_FEATURES
  6
Continuous
 62
     7
100
AcDbLine
 10
1482.368714
 20
1305.626907
 30
0.0
 11
1482.368714
 21
1305.226907
 31
0.0
  0
LINE
  5
4D5
330
208
100
AcDbEntity
  8
7_ALL_FEATURES
  6
Continuous
 62
     7
100
AcDbLine
 10
1482.368714
 20
1305.226907
 30
0.0
 11
1482.368714
 21
1304.426907
 31
0.0
  0
LINE
  5
4D6
330
208
100
AcDbEntity
  8
7_ALL_FEATURES
  6
Continuous
 62
     7
100
AcDbLine
 10
1482.368714
 20
1304.426907
 30
0.0
 11
1482.368714
 21
1304.226907
 31
0.0
  0
LINE
  5
4D7
330
208
100
AcDbEntity
  8
7_ALL_FEATURES
  6
Continuous
 62
     7
100
AcDbLine
 10
1482.368714
 20
1304.026907
 30
0.0
 11
1482.368714
 21
1303.226907
 31
0.0
  0
LINE
  5
4D8
330
208
100
AcDbEntity
  8
7_ALL_FEATURES
  6
Continuous
 62
     7
100
AcDbLine
 10
1482.368714
 20
1303.226907
 30
0.0
 11
1482.368714
 21
1302.726907
 31
0.0
  0
LINE
  5
4D9
330
208
100
AcDbEntity
  8
7_ALL_FEATURES
  6
Continuous
 62
     7
100
AcDbLine
 10
516.868714
 20
1401.126907
 30
0.0
 11
516.868714
 21
1401.226907
 31
0.0
  0
LINE
  5
4DA
330
208
100
AcDbEntity
  8
7_ALL_FEATURES
  6
Continuous
 62
     7
100
AcDbLine
 10
516.868714
 20
1401.226907
 30
0.0
 11
516.868714
 21
1401.626907
 31
0.0
  0
LINE
  5
4DB
330
208
100
AcDbEntity
  8
7_ALL_FEATURES
  6
Continuous
 62
     7
100
AcDbLine
 10
516.868714
 20
1401.626907
 30
0.0
 11
516.868714
 21
1402.426907
 31
0.0
  0
LINE
  5
4DC
330
208
100
AcDbEntity
  8
7_ALL_FEATURES
  6
Continuous
 62
     7
100
AcDbLine
 10
516.868714
 20
1402.426907
 30
0.0
 11
516.868714
 21
1402.626907
 31
0.0
  0
LINE
  5
4DD
330
208
100
AcDbEntity
  8
7_ALL_FEATURES
  6
Continuous
 62
     7
100
AcDbLine
 10
516.868714
 20
1402.826907
 30
0.0
 11
516.868714
 21
1403.626907
 31
0.0
  0
LINE
  5
4DE
330
208
100
AcDbEntity
  8
7_ALL_FEATURES
  6
Continuous
 62
     7
100
AcDbLine
 10
516.868714
 20
1403.626907
 30
0.0
 11
516.868714
 21
1404.126907
 31
0.0
  0
LINE
  5
4DF
330
208
100
AcDbEntity
  8
7_ALL_FEATURES
  6
Continuous
 62
     7
100
AcDbLine
 10
516.868714
 20
1303.226907
 30
0.0
 11
516.868714
 21
1302.726907
 31
0.0
  0
LINE
  5
4E0
330
208
100
AcDbEntity
  8
7_ALL_FEATURES
  6
Continuous
 62
     7
100
AcDbLine
 10
516.868714
 20
1304.026907
 30
0.0
 11
516.868714
 21
1303.226907
 31
0.0
  0
LINE
  5
4E1
330
208
100
AcDbEntity
  8
7_ALL_FEATURES
  6
Continuous
 62
     7
100
AcDbLine
 10
516.868714
 20
1304.426907
 30
0.0
 11
516.868714
 21
1304.226907
 31
0.0
  0
LINE
  5
4E2
330
208
100
AcDbEntity
  8
7_ALL_FEATURES
  6
Continuous
 62
     7
100
AcDbLine
 10
516.868714
 20
1305.626907
 30
0.0
 11
516.868714
 21
1305.226907
 31
0.0
  0
LINE
  5
4E3
330
208
100
AcDbEntity
  8
7_ALL_FEATURES
  6
Continuous
 62
     7
100
AcDbLine
 10
516.868714
 20
1305.226907
 30
0.0
 11
516.868714
 21
1304.426907
 31
0.0
  0
LINE
  5
4E4
330
208
100
AcDbEntity
  8
7_ALL_FEATURES
  6
Continuous
 62
     7
100
AcDbLine
 10
516.868714
 20
1305.726907
 30
0.0
 11
516.868714
 21
1305.626907
 31
0.0
  0
LINE
  5
4E5
330
208
100
AcDbEntity
  8
7_ALL_FEATURES
  6
Continuous
 62
     9
100
AcDbLine
 10
516.868714
 20
1305.626907
 30
0.0
 11
1482.368714
 21
1305.626907
 31
0.0
  0
LINE
  5
4E6
330
208
100
AcDbEntity
  8
7_ALL_FEATURES
  6
Continuous
 62
     9
100
AcDbLine
 10
516.868714
 20
1304.426907
 30
0.0
 11
1482.368714
 21
1304.426907
 31
0.0
  0
LINE
  5
4E7
330
208
100
AcDbEntity
  8
7_ALL_FEATURES
  6
Continuous
 62
     9
100
AcDbLine
 10
516.868714
 20
1401.226907
 30
0.0
 11
1482.368714
 21
1401.226907
 31
0.0
  0
LINE
  5
4E8
330
208
100
AcDbEntity
  8
7_ALL_FEATURES
  6
Continuous
 62
     9
100
AcDbLine
 10
516.868714
 20
1402.426907
 30
0.0
 11
1482.368714
 21
1402.426907
 31
0.0
  0
LINE
  5
4E9
330
208
100
AcDbEntity
  8
7_ALL_FEATURES
  6
Continuous
 62
     9
100
AcDbLine
 10
516.868714
 20
1304.026907
 30
0.0
 11
1482.368714
 21
1304.026907
 31
0.0
  0
LINE
  5
4EA
330
208
100
AcDbEntity
  8
7_ALL_FEATURES
  6
Continuous
 62
     9
100
AcDbLine
 10
516.868714
 20
1402.826907
 30
0.0
 11
1482.368714
 21
1402.826907
 31
0.0
  0
LINE
  5
4EB
330
208
100
AcDbEntity
  8
7_ALL_FEATURES
  6
Continuous
 62
     7
100
AcDbLine
 10
516.868714
 20
1307.169727
 30
0.0
 11
1482.368714
 21
1307.169727
 31
0.0
  0
LINE
  5
4EC
330
208
100
AcDbEntity
  8
7_ALL_FEATURES
  6
Continuous
 62
     7
100
AcDbLine
 10
516.868714
 20
1399.684087
 30
0.0
 11
1482.368714
 21
1399.684087
 31
0.0
  0
LINE
  5
4ED
330
208
100
AcDbEntity
  8
7_ALL_FEATURES
  6
Continuous
 62
     9
100
AcDbLine
 10
516.868714
 20
1303.226907
 30
0.0
 11
1482.368714
 21
1303.226907
 31
0.0
  0
LINE
  5
4EE
330
208
100
AcDbEntity
  8
7_ALL_FEATURES
  6
Continuous
 62
     9
100
AcDbLine
 10
516.868714
 20
1403.626907
 30
0.0
 11
1482.368714
 21
1403.626907
 31
0.0
  0
LINE
  5
4EF
330
208
100
AcDbEntity
  8
7_ALL_FEATURES
  6
Continuous
 62
     3
100
AcDbLine
 10
516.868714
 20
1305.226907
 30
0.0
 11
516.868714
 21
1305.626907
 31
0.0
  0
LINE
  5
4F0
330
208
100
AcDbEntity
  8
7_ALL_FEATURES
  6
Continuous
 62
     3
100
AcDbLine
 10
516.868714
 20
1305.626907
 30
0.0
 11
516.868714
 21
1305.726907
 31
0.0
  0
LINE
  5
4F1
330
208
100
AcDbEntity
  8
7_ALL_FEATURES
  6
Continuous
 62
     3
100
AcDbLine
 10
516.868714
 20
1305.726907
 30
0.0
 11
516.868714
 21
1401.126907
 31
0.0
  0
LINE
  5
4F2
330
208
100
AcDbEntity
  8
7_ALL_FEATURES
  6
Continuous
 62
     3
100
AcDbLine
 10
516.868714
 20
1401.126907
 30
0.0
 11
516.868714
 21
1401.226907
 31
0.0
  0
LINE
  5
4F3
330
208
100
AcDbEntity
  8
7_ALL_FEATURES
  6
Continuous
 62
     3
100
AcDbLine
 10
516.868714
 20
1401.226907
 30
0.0
 11
516.868714
 21
1401.626907
 31
0.0
  0
LINE
  5
4F4
330
208
100
AcDbEntity
  8
7_ALL_FEATURES
  6
Continuous
 62
     3
100
AcDbLine
 10
1482.368714
 20
1401.626907
 30
0.0
 11
1482.368714
 21
1401.226907
 31
0.0
  0
LINE
  5
4F5
330
208
100
AcDbEntity
  8
7_ALL_FEATURES
  6
Continuous
 62
     3
100
AcDbLine
 10
1482.368714
 20
1401.226907
 30
0.0
 11
1482.368714
 21
1401.126907
 31
0.0
  0
LINE
  5
4F6
330
208
100
AcDbEntity
  8
7_ALL_FEATURES
  6
Continuous
 62
     3
100
AcDbLine
 10
1482.368714
 20
1401.126907
 30
0.0
 11
1482.368714
 21
1305.726907
 31
0.0
  0
LINE
  5
4F7
330
208
100
AcDbEntity
  8
7_ALL_FEATURES
  6
Continuous
 62
     3
100
AcDbLine
 10
1482.368714
 20
1305.726907
 30
0.0
 11
1482.368714
 21
1305.626907
 31
0.0
  0
LINE
  5
4F8
330
208
100
AcDbEntity
  8
7_ALL_FEATURES
  6
Continuous
 62
     3
100
AcDbLine
 10
1482.368714
 20
1305.626907
 30
0.0
 11
1482.368714
 21
1305.226907
 31
0.0
  0
DIMENSION
  5
4F9
330
208
100
AcDbEntity
  8
0
  6
Continuous
 62
     2
100
AcDbDimension
280
     0
  2
*D1
 10
1901.525149
 20
1983.915808
 30
0.0
 11
1851.25
 21
1983.915808
 31
0.0
 70
   160
 71
     2
 42
101.4
 73
     0
 74
     0
 75
     0
  3
DIMSTYLE_1
100
AcDbAlignedDimension
 13
1800.125149
 23
1954.39477
 33
0.0
 14
1901.525149
 24
1955.315942
 34
0.0
100
AcDbRotatedDimension
  0
DIMENSION
  5
4FA
330
208
100
AcDbEntity
  8
0
  6
Continuous
 62
     2
100
AcDbDimension
280
     0
  2
*D2
 10
1541.13084
 20
1770.033208
 30
0.0
 11
1541.13084
 21
1845.745295
 31
0.0
 70
   160
 71
     2
 42
150.5
 73
     0
 74
     0
 75
     0
  3
DIMSTYLE_2
100
AcDbAlignedDimension
 13
1513.346238
 23
1920.533208
 33
0.0
 14
1514.727997
 24
1770.033208
 34
0.0
 50
270.0
100
AcDbRotatedDimension
  0
DIMENSION
  5
4FB
330
208
100
AcDbEntity
  8
0
  6
Continuous
 62
     2
100
AcDbDimension
280
     0
  2
*D3
 10
515.368714
 20
1468.678338
 30
0.0
 11
999.616088
 21
1468.678338
 31
0.0
 70
   160
 71
     2
 42
968.5
 73
     0
 74
     0
 75
     0
  3
DIMSTYLE_3
100
AcDbAlignedDimension
 13
1483.868714
 23
1436.451214
 33
0.0
 14
515.368714
 24
1436.451214
 34
0.0
 50
180.0
100
AcDbRotatedDimension
  0
INSERT
  5
4FC
330
208
100
AcDbEntity
  8
0
  6
Continuous
 62
     2
100
AcDbBlockReference
  2
LOGO2_BL0
 10
2412.690228
 20
39.387869
 30
0.0
  0
ACAD_TABLE
  5
4FD
102
{ACAD_XDICTIONARY
360
554
102
}
330
208
100
AcDbEntity
  8
0
  6
Continuous
 62
     2
160
              3596
310
0C0E000019000000880000001D000000000000000000F03F0000000000000000000000000000000088DCF475BABDA2400000000000000000000000000000F03F0000000000000000842E98B1A5714A4000000000000000000000000000000000000000000000F03F0000000000000000000000000000000000000000000000
310
000000000000000000000000000000F03F54000000200000000200000000000000000000000000000000000000000000000000000000000000008056400000000000000000000000000000000000000000000000000000000000000000000000000000F03F5400000020000000020000000000000000000000000000000000
310
00000000000000000000000000000000000000000000000044C0000000000000000000000000000000000000000000000000000000000000F03F5400000020000000020000000000000000003E4000000000000018C00000000000000000000000000080564000000000000018C00000000000000000000000000000000000
310
00000000000000000000000000F03F5400000020000000020000000000000000003E4000000000000028C00000000000000000000000000080564000000000000028C0000000000000000000000000000000000000000000000000000000000000F03F5400000020000000020000000000000000003E4000000000000036C0
310
0000000000000000000000000080564000000000000036C0000000000000000000000000000000000000000000000000000000000000F03F54000000200000000200000000000000000000000000000000003BC0000000000000000000000000008056400000000000003BC000000000000000000000000000000000000000
310
0000000000000000000000F03F540000002000000002000000000000000000000000000000000044C00000000000000000000000000080564000000000000044C0000000000000000000000000000000000000000000000000000000000000F03F5400000020000000020000000000000000003E4000000000000000000000
310
0000000000000000000000003E400000000000003BC0000000000000000000000000000000000000000000000000000000000000F03F540000002000000002000000000000000080514000000000000000000000000000000000000000000080514000000000000028C0000000000000000000000000000000000000000000
310
000000000000000000F03F540000002000000002000000000000000080564000000000000000000000000000000000000000000080564000000000000044C0000000000000000000000000000000000000000000000000000000000000F03F0C000000100000000B000000BC00000026000000CDCCCCCCCC7C3F4000000000
310
000012C0000000000000000000000000000000000000000000000000000000000000F03F000000000000F03F00000000000000000000000000000000320031003500320039003500000000000C000000010000000000000000000840333333333333EB3F0000000000000000000000000000F03F0000000000000000000000
310
0000000000000000000000000000000000000000000000000000000000740078007400000000000000BC000000260000003333333333DF514000000000000015C0000000000000000000000000000000000000000000000000000000000000F03F000000000000F03F00000000000000000000000000000000520065007600
310
3A0030003000000000000C000000010000000000000000000C40333333333333EB3F0000000000000000000000000000F03F00000000000000000000000000000000000000000000000000000000000000000000000000000000740078007400000000000000C000000026000000CDCCCCCCCC7C3F4000000000008026C000
310
0000000000000000000000000000000000000000000000000000000000F03F000000000000F03F000000000000000000000000000000005300630061006C0065003A0031003A003100000012000000010000000000000000000C40333333333333EB3F0000000000000000000000000000F03F000000000000000000000000
310
00000000000000000000000000000000000000000000000000000000740078007400000000000000C8000000260000003333333333DF51406766666666E623C0000000000000000000000000000000000000000000000000000000000000F03F000000000000F03F0000000000000000000000000000000032003500300030
310
0020006200790020003300320030003000000000001800000001000000666666666666FE3F333333333333EB3F0000000000000000000000000000F03F00000000000000000000000000000000000000000000000000000000000000000000000000000000740078007400000000000000E800000026000000CDCCCCCCCC7C
310
3F4000000000004032C0000000000000000000000000000000000000000000000000000000000000F03F000000000000F03F000000000000000000000000000000004300410053005300410046004F0052004D00410020005400520049004D00200043004F004C004F005200410044004F00200031002E0031000000000038
310
000000010000000000000000000440333333333333EB3F0000000000000000000000000000F03F00000000000000000000000000000000000000000000000000000000000000000000000000000000740078007400000000000000C800000026000000CDCCCCCCCC7C3F400000000000C039C0000000000000000000000000
310
000000000000000000000000000000000000F03F000000000000F03F0000000000000000000000000000000044004100540045003A00330030002E00300038002E003200320000001A000000010000000000000000000440333333333333EB3F0000000000000000000000000000F03F000000000000000000000000000000
310
000000000000000000000000000000000000000000000000007400780074000000000000001801000026000000CDCCCCCCCCCCF73F0000000000903DC0000000000000000000000000000000000000000000000000000000000000F03F000000000000F03F0000000000000000000000000000000041006E00790020006900
310
6E00740065006700720061006C0020006F00720020007000610072007400690061006C00200072006500700072006F00640075006300740069006F006E00730020006100720065002000700072006F0068006900620069007400650064000000000068000000010000000000000000000240333333333333EB3F0000000000
310
000000000000000000F03F00000000000000000000000000000000000000000000000000000000000000000000000000000000740078007400000000000000F000000026000000CDCCCCCCCCCCF73F00000000007840C0000000000000000000000000000000000000000000000000000000000000F03F000000000000F03F
310
0000000000000000000000000000000077006900740068006F007500740020007000720069006F007200200061007500740068006F007200690073006100740069006F006E0020006F00660020004C002000000042000000010000000000000000000240333333333333EB3F0000000000000000000000000000F03F000000
310
00000000000000000000000000000000000000000000000000000000000000000000000000740078007400000000000000B8000000260000000000000000C04D4000000000007840C0000000000000000000000000000000000000000000000000000000000000F03F000000000000F03F0000000000000000000000000000
310
000020000000020000000100000000000000000002407521567F8461C83F0000000000000000000000000000F03F000000000000000000000000000000000000000000000000000000000000000000000000000000007400780074002E00730068007800000000000000E000000026000000CB811E6ADBF64D400000000000
310
7840C0000000000000000000000000000000000000000000000000000000000000F03F000000000000F03F00000000000000000000000000000000260020004C0020004C007500630065002000260020004C006900670068007400200073002E0072002E006C002E002C000000000030000000010000000000000000000240
310
333333333333EB3F0000000000000000000000000000F03F00000000000000000000000000000000000000000000000000000000000000000000000000000000740078007400000000000000F800000026000000CDCCCCCCCCCCF73F00000000002842C0000000000000000000000000000000000000000000000000000000
310
000000F03F000000000000F03F0000000000000000000000000000000069006E0020006100630063006F007200640061006E006300650020007700690074006800200074006800650020006C0061007700200069006E00200066006F007200630065002E000000000048000000010000000000000000000240333333333333
310
EB3F0000000000000000000000000000F03F00000000000000000000000000000000000000000000000000000000000000000000000000000000740078007400000000000000D800000026000000CDCCCCCCCCCCF73F0000000000D843C0000000000000000000000000000000000000000000000000000000000000F03F00
310
0000000000F03F0000000000000000000000000000000041006C006C0020007200690067006800740073002000720065007300650072007600650064002E000000000028000000010000000000000000000240333333333333EB3F0000000000000000000000000000F03F0000000000000000000000000000000000000000
310
0000000000000000000000000000000000000000740078007400000000000000080000001F000000
100
AcDbBlockReference
  2
*T5
 10
2398.864181
 20
52.887869
 30
0.0
100
AcDbTable
342
526
343
20F
 11
1.0
 21
0.0
 31
0.0
 90
       22
 91
        5
 92
        5
 93
        0
 94
        0
 95
        0
 96
        0
141
6.0
141
6.0
141
10.0
141
5.0
141
13.0
142
10.0
142
10.0
142
10.0
142
40.0
142
20.0
171
     1
172
     0
173
     0
174
     0
175
     3
176
     4
 91
       32
178
     0
145
0.0
140
3.5
 92
        0
301
CELL_VALUE
 93
        2
 90
        4
  1
 
 94
        0
300

302
 
304
ACVALUE_END
171
     1
172
     0
173
     1
174
     0
175
     1
176
     1
 91
        0
178
     0
145
0.0
 92
        0
301
CELL_VALUE
 93
        3
 90
        0
 91
        0
 94
        0
300

302

304
ACVALUE_END
171
     1
172
     0
173
     1
174
     0
175
     1
176
     1
 91
        0
178
     0
145
0.0
 92
        0
301
CELL_VALUE
 93
        3
 90
        0
 91
        0
 94
        0
300

302

304
ACVALUE_END
171
     1
172
     0
173
     0
174
     0
175
     1
176
     1
 91
       49
178
     0
145
0.0
170
     4
  7
TEXTSTYLE_2
140
3.0
 92
        0
301
CELL_VALUE
 93
        2
 90
        4
  1
215295
 94
        0
300

302
215295
304
ACVALUE_END
171
     1
172
     0
173
     0
174
     0
175
     1
176
     1
 91
       49
178
     0
145
0.0
170
     1
  7
TEXTSTYLE_2
140
3.5
 92
        0
301
CELL_VALUE
 93
        2
 90
        4
  1
Rev:00
 94
        0
300

302
Rev:00
304
ACVALUE_END
171
     1
172
     0
173
     1
174
     0
175
     1
176
     1
 91
        0
178
     0
145
0.0
 92
        0
301
CELL_VALUE
 93
        3
 90
        0
 91
        0
 94
        0
300

302

304
ACVALUE_END
171
     1
172
     0
173
     1
174
     0
175
     1
176
     1
 91
        0
178
     0
145
0.0
 92
        0
301
CELL_VALUE
 93
        3
 90
        0
 91
        0
 94
        0
300

302

304
ACVALUE_END
171
     1
172
     0
173
     1
174
     0
175
     1
176
     1
 91
        0
178
     0
145
0.0
 92
        0
301
CELL_VALUE
 93
        3
 90
        0
 91
        0
 94
        0
300

302

304
ACVALUE_END
171
     1
172
     0
173
     0
174
     0
175
     1
176
     1
 91
       49
178
     0
145
0.0
170
     1
  7
TEXTSTYLE_2
140
3.5
 92
        0
301
CELL_VALUE
 93
        2
 90
        4
  1
Scale:1:1
 94
        0
300

302
Scale:1:1
304
ACVALUE_END
171
     1
172
     0
173
     0
174
     0
175
     1
176
     1
 91
       49
178
     0
145
0.0
170
     4
  7
TEXTSTYLE_2
140
1.9
 92
        0
301
CELL_VALUE
 93
        2
 90
        4
  1
2500 by 3200
 94
        0
300

302
2500 by 3200
304
ACVALUE_END
171
     1
172
     0
173
     1
174
     0
175
     1
176
     1
 91
        0
178
     0
145
0.0
 92
        0
301
CELL_VALUE
 93
        3
 90
        0
 91
        0
 94
        0
300

302

304
ACVALUE_END
171
     1
172
     0
173
     1
174
     0
175
     1
176
     1
 91
        0
178
     0
145
0.0
 92
        0
301
CELL_VALUE
 93
        3
 90
        0
 91
        0
 94
        0
300

302

304
ACVALUE_END
171
     1
172
     0
173
     1
174
     0
175
     1
176
     1
 91
        0
178
     0
145
0.0
 92
        0
301
CELL_VALUE
 93
        3
 90
        0
 91
        0
 94
        0
300

302

304
ACVALUE_END
171
     1
172
     0
173
     0
174
     0
175
     2
176
     1
 91
       49
178
     0
145
0.0
170
     4
  7
TEXTSTYLE_2
140
2.5
 92
        0
301
CELL_VALUE
 93
        2
 90
        4
  1
CASSAFORMA TRIM COLORADO 1.1
 94
        0
300

302
CASSAFORMA TRIM COLORADO 1.1
304
ACVALUE_END
171
     1
172
     0
173
     1
174
     0
175
     1
176
     1
 91
        0
178
     0
145
0.0
 92
        0
301
CELL_VALUE
 93
        3
 90
        0
 91
        0
 94
        0
300

302

304
ACVALUE_END
171
     1
172
     0
173
     1
174
     0
175
     1
176
     1
 91
        0
178
     0
145
0.0
 92
        0
301
CELL_VALUE
 93
        3
 90
        0
 91
        0
 94
        0
300

302

304
ACVALUE_END
171
     1
172
     0
173
     1
174
     0
175
     1
176
     1
 91
        0
178
     0
145
0.0
 92
        0
301
CELL_VALUE
 93
        3
 90
        0
 91
        0
 94
        0
300

302

304
ACVALUE_END
171
     1
172
     0
173
     1
174
     0
175
     1
176
     1
 91
        0
178
     0
145
0.0
 92
        0
301
CELL_VALUE
 93
        3
 90
        0
 91
        0
 94
        0
300

302

304
ACVALUE_END
171
     1
172
     0
173
     0
174
     0
175
     2
176
     1
 91
       49
178
     0
145
0.0
170
     4
  7
TEXTSTYLE_2
140
2.5
 92
        0
301
CELL_VALUE
 93
        2
 90
        4
  1
DATE:30.08.22
 94
        0
300

302
DATE:30.08.22
304
ACVALUE_END
171
     1
172
     0
173
     1
174
     0
175
     1
176
     1
 91
        0
178
     0
145
0.0
 92
        0
301
CELL_VALUE
 93
        3
 90
        0
 91
        0
 94
        0
300

302

304
ACVALUE_END
171
     1
172
     0
173
     0
174
     0
175
     5
176
     1
 91
       49
178
     0
145
0.0
170
     4
  7
TEXTSTYLE_2
140
2.25
 92
        0
301
CELL_VALUE
 93
        2
 90
        4
  1
Any integral or partial reproductions are prohibited \Pwithout prior authorisation of L {\Ftxt.shx;\W0.190476;\H2.250000; }& L Luce & Light s.r.l., \Pin accordance with the law in force. \PAll rights reserved.
 94
        0
300

302
Any integral or partial reproductions are prohibited \Pwithout prior authorisation of L {\Ftxt.shx;\W0.190476;\H2.250000; }& L Luce & Light s.r.l., \Pin accordance with the law in force. \PAll rights reserved.
304
ACVALUE_END
171
     1
172
     0
173
     1
174
     0
175
     1
176
     1
 91
        0
178
     0
145
0.0
 92
        0
301
CELL_VALUE
 93
        3
 90
        0
 91
        0
 94
        0
300

302

304
ACVALUE_END
171
     1
172
     0
173
     1
174
     0
175
     1
176
     1
 91
        0
178
     0
145
0.0
 92
        0
301
CELL_VALUE
 93
        3
 90
        0
 91
        0
 94
        0
300

302

304
ACVALUE_END
171
     1
172
     0
173
     1
174
     0
175
     1
176
     1
 91
        0
178
     0
145
0.0
 92
        0
301
CELL_VALUE
 93
        3
 90
        0
 91
        0
 94
        0
300

302

304
ACVALUE_END
171
     1
172
     0
173
     1
174
     0
175
     1
176
     1
 91
        0
178
     0
145
0.0
 92
        0
301
CELL_VALUE
 93
        3
 90
        0
 91
        0
 94
        0
300

302

304
ACVALUE_END
  0
ENDSEC
  0
SECTION
  2
OBJECTS
  0
DICTIONARY
  5
C
330
0
100
AcDbDictionary
281
     1
  3
ACAD_DETAILVIEWSTYLE
350
58D
  3
ACAD_GROUP
350
D
  3
ACAD_IMAGE_DICT
350
54D
  3
ACAD_LAYOUT
350
1A
  3
ACAD_MATERIAL
350
541
  3
ACAD_MLEADERSTYLE
350
58C
  3
ACAD_MLINESTYLE
350
17
  3
ACAD_PLOTSETTINGS
350
19
  3
ACAD_PLOTSTYLENAME
350
E
  3
ACAD_SCALELIST
350
503
  3
ACAD_SECTIONVIEWSTYLE
350
58E
  3
ACAD_TABLESTYLE
350
525
  3
ACAD_VISUALSTYLE
350
528
  3
ACDB_RECOMPOSE_DATA
350
58A
  3
AcDbVariableDictionary
350
556
  3
HOST_DOC_SETTINGS
350
54B
  3
MCS_STREAM_DICT
350
547
  0
SUN
  5
54A
330
1F4
100
AcDbSun
 90
        1
290
     0
 63
     7
421
 16777215
 40
1.0
291
     1
 91
  2455826
 92
 54000000
292
     0
 70
     2
 71
   256
280
     1
  0
DICTIONARY
  5
554
330
4FD
100
AcDbDictionary
280
     1
281
     1
  3
ACAD_XREC_ROUNDTRIP
360
555
  0
DICTIONARY
  5
58D
102
{ACAD_REACTORS
330
C
102
}
330
C
100
AcDbDictionary
281
     1
  0
DICTIONARY
  5
D
102
{ACAD_REACTORS
330
C
102
}
330
C
100
AcDbDictionary
281
     1
  0
DICTIONARY
  5
54D
102
{ACAD_REACTORS
330
C
102
}
330
C
100
AcDbDictionary
281
     1
  0
DICTIONARY
  5
1A
102
{ACAD_REACTORS
330
C
102
}
330
C
100
AcDbDictionary
281
     1
  3
Layout1
350
500
  3
Model
350
4FF
  0
DICTIONARY
  5
541
102
{ACAD_REACTORS
330
C
102
}
330
C
100
AcDbDictionary
281
     1
  3
ByBlock
350
543
  3
ByLayer
350
542
  3
Global
350
544
  0
DICTIONARY
  5
58C
102
{ACAD_REACTORS
330
C
102
}
330
C
100
AcDbDictionary
281
     1
  0
DICTIONARY
  5
17
102
{ACAD_REACTORS
330
C
102
}
330
C
100
AcDbDictionary
281
     1
  3
Standard
350
18
  0
DICTIONARY
  5
19
102
{ACAD_REACTORS
330
C
102
}
330
C
100
AcDbDictionary
281
     1
  0
ACDBDICTIONARYWDFLT
  5
E
102
{ACAD_REACTORS
330
C
102
}
330
C
100
AcDbDictionary
281
     1
  3
Normal
350
F
100
AcDbDictionaryWithDefault
340
F
  0
DICTIONARY
  5
503
102
{ACAD_REACTORS
330
C
102
}
330
C
100
AcDbDictionary
281
     1
  3
A0
350
504
  3
A1
350
505
  3
A2
350
506
  3
A3
350
507
  3
A4
350
508
  3
A5
350
509
  3
A6
350
50A
  3
A7
350
50B
  3
A8
350
50C
  3
A9
350
50D
  3
B0
350
50E
  3
B1
350
50F
  3
B2
350
510
  3
B3
350
511
  3
B4
350
512
  3
B5
350
513
  3
B6
350
514
  3
B7
350
515
  3
B8
350
516
  3
B9
350
517
  3
C0
350
518
  3
C1
350
519
  3
C2
350
51A
  3
C3
350
51B
  3
C4
350
51C
  3
C5
350
51D
  3
C6
350
51E
  3
C7
350
51F
  3
C8
350
520
  3
C9
350
521
  3
D0
350
522
  3
D1
350
523
  3
D2
350
524
  0
DICTIONARY
  5
58E
102
{ACAD_REACTORS
330
C
102
}
330
C
100
AcDbDictionary
281
     1
  0
DICTIONARY
  5
525
102
{ACAD_REACTORS
330
C
102
}
330
C
100
AcDbDictionary
281
     1
  3
Standard
350
526
  0
DICTIONARY
  5
528
102
{ACAD_REACTORS
330
C
102
}
330
C
100
AcDbDictionary
281
     1
  3
2dWireframe
350
52D
  3
Basic
350
530
  3
Brighten
350
534
  3
ColorChange
350
538
  3
Conceptual
350
532
  3
Dim
350
533
  3
EdgeColorOff
350
53B
  3
Facepattern
350
537
  3
Flat
350
529
  3
FlatWithEdges
350
52A
  3
Gouraud
350
52B
  3
GouraudWithEdges
350
52C
  3
Hidden
350
52F
  3
JitterOff
350
539
  3
Linepattern
350
536
  3
OverhangOff
350
53A
  3
Realistic
350
531
  3
Shaded
350
540
  3
Shaded with edges
350
53F
  3
Shades of Gray
350
53C
  3
Sketchy
350
53D
  3
Thicken
350
535
  3
Wireframe
350
52E
  3
X-Ray
350
53E
  0
XRECORD
  5
58A
102
{ACAD_REACTORS
330
C
102
}
330
C
100
AcDbXrecord
280
     1
 90
        1
330
4FD
330
526
  0
DICTIONARY
  5
556
102
{ACAD_REACTORS
330
C
102
}
330
C
100
AcDbDictionary
281
     1
  3
CANNOSCALE
350
557
  3
CTABLESTYLE
350
58B
  0
DICTIONARY
  5
54B
102
{ACAD_REACTORS
330
C
102
}
330
C
100
AcDbDictionary
281
     1
  3
NCDocParameters
350
54C
  0
DICTIONARY
  5
547
102
{ACAD_REACTORS
330
C
102
}
330
C
100
AcDbDictionary
281
     1
  3
MC_VERSION_DATA
350
550
  3
MCS_DOCUMENT_ID
350
548
  3
MCS_PARAMS_DATA
350
54E
  0
XRECORD
  5
555
102
{ACAD_REACTORS
330
554
102
}
330
554
100
AcDbXrecord
280
     1
102
ACAD_ROUNDTRIP_2008_TABLE_ENTITY
360
552
 70
     2
 90
        1
 10
0.0
 20
0.0
 30
0.0
 90
        0
 90
        4
361
553
  0
LAYOUT
  5
500
102
{ACAD_REACTORS
330
1A
102
}
330
1A
100
AcDbPlotSettings
  1

  2
none_device
  4

  6

 40
0.0
 41
0.0
 42
0.0
 43
0.0
 44
2500.0
 45
3200.0
 46
0.0
 47
0.0
 48
0.0
 49
0.0
140
0.0
141
0.0
142
1.0
143
1.0
 70
     0
 72
     1
 73
     0
 74
     0
  7

 75
     0
 76
     0
 77
     2
 78
   300
147
1.0
148
0.0
149
0.0
100
AcDbLayout
  1
Layout1
 70
     0
 71
     1
 10
0.0
 20
0.0
 11
2500.0
 21
3200.0
 12
0.0
 22
0.0
 32
0.0
 14
0.0
 24
0.0
 34
0.0
 15
0.0
 25
0.0
 35
0.0
146
0.0
 13
0.0
 23
0.0
 33
0.0
 16
1.0
 26
0.0
 36
0.0
 17
0.0
 27
1.0
 37
0.0
 76
     0
330
209
  0
LAYOUT
  5
4FF
102
{ACAD_REACTORS
330
1A
102
}
330
1A
100
AcDbPlotSettings
  1

  2
none_device
  4

  6

 40
0.0
 41
0.0
 42
0.0
 43
0.0
 44
2500.0
 45
3200.0
 46
0.0
 47
0.0
 48
0.0
 49
0.0
140
0.0
141
0.0
142
1.0
143
1.0
 70
  1024
 72
     1
 73
     0
 74
     0
  7

 75
     0
 76
     0
 77
     2
 78
   300
147
1.0
148
0.0
149
0.0
100
AcDbLayout
  1
Model
 70
     0
 71
     0
 10
0.0
 20
0.0
 11
2500.0
 21
3200.0
 12
0.0
 22
0.0
 32
0.0
 14
0.0
 24
0.0
 34
0.0
 15
0.0
 25
0.0
 35
0.0
146
0.0
 13
0.0
 23
0.0
 33
0.0
 16
1.0
 26
0.0
 36
0.0
 17
0.0
 27
1.0
 37
0.0
 76
     0
330
208
331
1F4
  0
MATERIAL
  5
543
102
{ACAD_REACTORS
330
541
102
}
330
541
100
AcDbMaterial
  1
ByBlock
 72
     1
 94
      127
  0
MATERIAL
  5
542
102
{ACAD_REACTORS
330
541
102
}
330
541
100
AcDbMaterial
  1
ByLayer
 72
     1
 94
      127
  0
MATERIAL
  5
544
102
{ACAD_REACTORS
330
541
102
}
330
541
100
AcDbMaterial
  1
Global
 72
     1
 94
      127
  0
MLINESTYLE
  5
18
102
{ACAD_REACTORS
330
17
102
}
330
17
100
AcDbMlineStyle
  2
STANDARD
 70
     0
  3

 62
   256
 51
90.0
 52
90.0
 71
     2
 49
0.5
 62
   256
  6
BYLAYER
 49
-0.5
 62
   256
  6
BYLAYER
  0
ACDBPLACEHOLDER
  5
F
102
{ACAD_REACTORS
330
E
102
}
330
E
  0
SCALE
  5
504
102
{ACAD_REACTORS
330
503
102
}
330
503
100
AcDbScale
 70
     0
300
1:1
140
1.0
141
1.0
290
     1
  0
SCALE
  5
505
102
{ACAD_REACTORS
330
503
102
}
330
503
100
AcDbScale
 70
     0
300
1:2
140
1.0
141
2.0
290
     0
  0
SCALE
  5
506
102
{ACAD_REACTORS
330
503
102
}
330
503
100
AcDbScale
 70
     0
300
1:4
140
1.0
141
4.0
290
     0
  0
SCALE
  5
507
102
{ACAD_REACTORS
330
503
102
}
330
503
100
AcDbScale
 70
     0
300
1:5
140
1.0
141
5.0
290
     0
  0
SCALE
  5
508
102
{ACAD_REACTORS
330
503
102
}
330
503
100
AcDbScale
 70
     0
300
1:8
140
1.0
141
8.0
290
     0
  0
SCALE
  5
509
102
{ACAD_REACTORS
330
503
102
}
330
503
100
AcDbScale
 70
     0
300
1:10
140
1.0
141
10.0
290
     0
  0
SCALE
  5
50A
102
{ACAD_REACTORS
330
503
102
}
330
503
100
AcDbScale
 70
     0
300
1:16
140
1.0
141
16.0
290
     0
  0
SCALE
  5
50B
102
{ACAD_REACTORS
330
503
102
}
330
503
100
AcDbScale
 70
     0
300
1:20
140
1.0
141
20.0
290
     0
  0
SCALE
  5
50C
102
{ACAD_REACTORS
330
503
102
}
330
503
100
AcDbScale
 70
     0
300
1:30
140
1.0
141
30.0
290
     0
  0
SCALE
  5
50D
102
{ACAD_REACTORS
330
503
102
}
330
503
100
AcDbScale
 70
     0
300
1:40
140
1.0
141
40.0
290
     0
  0
SCALE
  5
50E
102
{ACAD_REACTORS
330
503
102
}
330
503
100
AcDbScale
 70
     0
300
1:50
140
1.0
141
50.0
290
     0
  0
SCALE
  5
50F
102
{ACAD_REACTORS
330
503
102
}
330
503
100
AcDbScale
 70
     0
300
1:100
140
1.0
141
100.0
290
     0
  0
SCALE
  5
510
102
{ACAD_REACTORS
330
503
102
}
330
503
100
AcDbScale
 70
     0
300
2:1
140
2.0
141
1.0
290
     0
  0
SCALE
  5
511
102
{ACAD_REACTORS
330
503
102
}
330
503
100
AcDbScale
 70
     0
300
4:1
140
4.0
141
1.0
290
     0
  0
SCALE
  5
512
102
{ACAD_REACTORS
330
503
102
}
330
503
100
AcDbScale
 70
     0
300
8:1
140
8.0
141
1.0
290
     0
  0
SCALE
  5
513
102
{ACAD_REACTORS
330
503
102
}
330
503
100
AcDbScale
 70
     0
300
10:1
140
10.0
141
1.0
290
     0
  0
SCALE
  5
514
102
{ACAD_REACTORS
330
503
102
}
330
503
100
AcDbScale
 70
     0
300
100:1
140
100.0
141
1.0
290
     0
  0
SCALE
  5
515
102
{ACAD_REACTORS
330
503
102
}
330
503
100
AcDbScale
 70
     0
300
1/128" = 1'-0"
140
0.007812
141
12.0
290
     0
  0
SCALE
  5
516
102
{ACAD_REACTORS
330
503
102
}
330
503
100
AcDbScale
 70
     0
300
1/64" = 1'-0"
140
0.015625
141
12.0
290
     0
  0
SCALE
  5
517
102
{ACAD_REACTORS
330
503
102
}
330
503
100
AcDbScale
 70
     0
300
1/32" = 1'-0"
140
0.03125
141
12.0
290
     0
  0
SCALE
  5
518
102
{ACAD_REACTORS
330
503
102
}
330
503
100
AcDbScale
 70
     0
300
1/16" = 1'-0"
140
0.0625
141
12.0
290
     0
  0
SCALE
  5
519
102
{ACAD_REACTORS
330
503
102
}
330
503
100
AcDbScale
 70
     0
300
3/32" = 1'-0"
140
0.09375
141
12.0
290
     0
  0
SCALE
  5
51A
102
{ACAD_REACTORS
330
503
102
}
330
503
100
AcDbScale
 70
     0
300
1/8" = 1'-0"
140
0.125
141
12.0
290
     0
  0
SCALE
  5
51B
102
{ACAD_REACTORS
330
503
102
}
330
503
100
AcDbScale
 70
     0
300
3/16" = 1'-0"
140
0.1875
141
12.0
290
     0
  0
SCALE
  5
51C
102
{ACAD_REACTORS
330
503
102
}
330
503
100
AcDbScale
 70
     0
300
1/4" = 1'-0"
140
0.25
141
12.0
290
     0
  0
SCALE
  5
51D
102
{ACAD_REACTORS
330
503
102
}
330
503
100
AcDbScale
 70
     0
300
3/8" = 1'-0"
140
0.375
141
12.0
290
     0
  0
SCALE
  5
51E
102
{ACAD_REACTORS
330
503
102
}
330
503
100
AcDbScale
 70
     0
300
1/2" = 1'-0"
140
0.5
141
12.0
290
     0
  0
SCALE
  5
51F
102
{ACAD_REACTORS
330
503
102
}
330
503
100
AcDbScale
 70
     0
300
3/4" = 1'-0"
140
0.75
141
12.0
290
     0
  0
SCALE
  5
520
102
{ACAD_REACTORS
330
503
102
}
330
503
100
AcDbScale
 70
     0
300
1" = 1'-0"
140
1.0
141
12.0
290
     0
  0
SCALE
  5
521
102
{ACAD_REACTORS
330
503
102
}
330
503
100
AcDbScale
 70
     0
300
1-1/2" = 1'-0"
140
1.5
141
12.0
290
     0
  0
SCALE
  5
522
102
{ACAD_REACTORS
330
503
102
}
330
503
100
AcDbScale
 70
     0
300
3" = 1'-0"
140
3.0
141
12.0
290
     0
  0
SCALE
  5
523
102
{ACAD_REACTORS
330
503
102
}
330
503
100
AcDbScale
 70
     0
300
6" = 1'-0"
140
6.0
141
12.0
290
     0
  0
SCALE
  5
524
102
{ACAD_REACTORS
330
503
102
}
330
503
100
AcDbScale
 70
     0
300
1'-0" = 1'-0"
140
12.0
141
12.0
290
     0
  0
TABLESTYLE
  5
526
102
{ACAD_REACTORS
330
525
102
}
102
{ACAD_XDICTIONARY
360
558
102
}
330
525
100
AcDbTableStyle
  3
Standard
 70
     0
 71
     0
 40
0.06
 41
0.06
280
     0
281
     0
  7
STANDARD
140
4.5
170
     2
 62
     0
 63
   257
283
     0
 90
        4
 91
        0
  1

274
    -2
284
     1
 64
     0
275
    -2
285
     1
 65
     0
276
    -2
286
     1
 66
     0
277
    -2
287
     1
 67
     0
278
    -2
288
     1
 68
     0
279
    -2
289
     1
 69
     0
  7
STANDARD
140
6.0
170
     5
 62
     0
 63
   257
283
     0
 90
        4
 91
        0
  1

274
    -2
284
     1
 64
     0
275
    -2
285
     1
 65
     0
276
    -2
286
     1
 66
     0
277
    -2
287
     1
 67
     0
278
    -2
288
     1
 68
     0
279
    -2
289
     1
 69
     0
  7
STANDARD
140
4.5
170
     5
 62
     0
 63
   257
283
     0
 90
        4
 91
        0
  1

274
    -2
284
     1
 64
     0
275
    -2
285
     1
 65
     0
276
    -2
286
     1
 66
     0
277
    -2
287
     1
 67
     0
278
    -2
288
     1
 68
     0
279
    -2
289
     1
 69
     0
  0
VISUALSTYLE
  5
52D
102
{ACAD_REACTORS
330
528
102
}
102
{ACAD_XDICTIONARY
360
562
102
}
330
528
100
AcDbVisualStyle
  2
2dWireframe
 70
     4
177
     2
291
     0
 71
     0
176
     1
 72
     2
176
     1
 73
     0
176
     1
 90
        0
176
     1
 40
0.6
176
     1
 41
30.0
176
     1
 62
     5
 63
     7
421
 16777215
176
     1
 74
     1
176
     1
 91
        4
176
     1
 64
     7
176
     1
 65
   257
176
     1
 75
     1
176
     1
175
     1
176
     1
 42
1.0
176
     1
 92
        0
176
     1
 66
   257
176
     1
 43
1.0
176
     1
 76
     1
176
     1
 77
     6
176
     1
 78
     2
176
     1
 67
     7
176
     1
 79
     5
176
     1
170
     0
176
     1
171
     0
176
     1
290
     0
176
     1
 93
        1
176
     1
 44
0.0
176
     1
173
     0
176
     1
  0
VISUALSTYLE
  5
530
102
{ACAD_REACTORS
330
528
102
}
102
{ACAD_XDICTIONARY
360
568
102
}
330
528
100
AcDbVisualStyle
  2
Basic
 70
     7
177
     2
291
     1
 71
     1
176
     1
 72
     0
176
     1
 73
     1
176
     1
 90
        0
176
     1
 40
0.6
176
     1
 41
30.0
176
     1
 62
     5
 63
     7
421
 16777215
176
     1
 74
     0
176
     1
 91
        4
176
     1
 64
     7
176
     1
 65
   257
176
     1
 75
     1
176
     1
175
     1
176
     1
 42
1.0
176
     1
 92
        8
176
     1
 66
     7
176
     1
 43
1.0
176
     1
 76
     1
176
     1
 77
     6
176
     1
 78
     2
176
     1
 67
     7
176
     1
 79
     5
176
     1
170
     0
176
     1
171
     0
176
     1
290
     0
176
     1
 93
        1
176
     1
 44
0.0
176
     1
173
     0
176
     1
  0
VISUALSTYLE
  5
534
102
{ACAD_REACTORS
330
528
102
}
102
{ACAD_XDICTIONARY
360
570
102
}
330
528
100
AcDbVisualStyle
  2
Brighten
 70
    12
177
     2
291
     1
 71
     2
176
     1
 72
     2
176
     1
 73
     0
176
     1
 90
        0
176
     1
 40
0.6
176
     1
 41
30.0
176
     1
 62
     5
 63
     7
421
 16777215
176
     1
 74
     1
176
     1
 91
        4
176
     1
 64
     7
176
     1
 65
   257
176
     1
 75
     1
176
     1
175
     1
176
     1
 42
1.0
176
     1
 92
        8
176
     1
 66
     7
176
     1
 43
1.0
176
     1
 76
     1
176
     1
 77
     6
176
     1
 78
     2
176
     1
 67
     7
176
     1
 79
     5
176
     1
170
     0
176
     1
171
     0
176
     1
290
     0
176
     1
 93
        1
176
     1
 44
50.0
176
     1
173
     0
176
     1
  0
VISUALSTYLE
  5
538
102
{ACAD_REACTORS
330
528
102
}
102
{ACAD_XDICTIONARY
360
578
102
}
330
528
100
AcDbVisualStyle
  2
ColorChange
 70
    16
177
     2
291
     1
 71
     2
176
     1
 72
     2
176
     1
 73
     3
176
     1
 90
        0
176
     1
 40
0.6
176
     1
 41
30.0
176
     1
 62
     5
 63
     8
421
  8421504
176
     1
 74
     1
176
     1
 91
        4
176
     1
 64
     7
176
     1
 65
   257
176
     1
 75
     1
176
     1
175
     1
176
     1
 42
1.0
176
     1
 92
        8
176
     1
 66
     8
424
  8421504
176
     1
 43
1.0
176
     1
 76
     1
176
     1
 77
     6
176
     1
 78
     2
176
     1
 67
     7
176
     1
 79
     5
176
     1
170
     0
176
     1
171
     0
176
     1
290
     0
176
     1
 93
        1
176
     1
 44
0.0
176
     1
173
     0
176
     1
  0
VISUALSTYLE
  5
532
102
{ACAD_REACTORS
330
528
102
}
102
{ACAD_XDICTIONARY
360
56C
102
}
330
528
100
AcDbVisualStyle
  2
Conceptual
 70
     9
177
     2
291
     0
 71
     3
176
     1
 72
     2
176
     1
 73
     0
176
     1
 90
        0
176
     1
 40
0.6
176
     1
 41
30.0
176
     1
 62
     5
 63
     7
421
 16777215
176
     1
 74
     2
176
     1
 91
        2
176
     1
 64
     7
176
     1
 65
   257
176
     1
 75
     1
176
     1
175
     1
176
     1
 42
179.0
176
     1
 92
        8
176
     1
 66
     7
176
     1
 43
1.0
176
     1
 76
     1
176
     1
 77
     6
176
     1
 78
     2
176
     1
 67
     7
176
     1
 79
     3
176
     1
170
     0
176
     1
171
     0
176
     1
290
     0
176
     1
 93
        1
176
     1
 44
0.0
176
     1
173
     0
176
     1
  0
VISUALSTYLE
  5
533
102
{ACAD_REACTORS
330
528
102
}
102
{ACAD_XDICTIONARY
360
56E
102
}
330
528
100
AcDbVisualStyle
  2
Dim
 70
    11
177
     2
291
     1
 71
     2
176
     1
 72
     2
176
     1
 73
     0
176
     1
 90
        0
176
     1
 40
0.6
176
     1
 41
30.0
176
     1
 62
     5
 63
     7
421
 16777215
176
     1
 74
     1
176
     1
 91
        4
176
     1
 64
     7
176
     1
 65
   257
176
     1
 75
     1
176
     1
175
     1
176
     1
 42
1.0
176
     1
 92
        8
176
     1
 66
     7
176
     1
 43
1.0
176
     1
 76
     1
176
     1
 77
     6
176
     1
 78
     2
176
     1
 67
     7
176
     1
 79
     5
176
     1
170
     0
176
     1
171
     0
176
     1
290
     0
176
     1
 93
        1
176
     1
 44
-50.0
176
     1
173
     0
176
     1
  0
VISUALSTYLE
  5
53B
102
{ACAD_REACTORS
330
528
102
}
102
{ACAD_XDICTIONARY
360
57E
102
}
330
528
100
AcDbVisualStyle
  2
EdgeColorOff
 70
    22
177
     2
291
     1
 71
     2
176
     0
 72
     2
176
     0
 73
     0
176
     0
 90
        0
176
     0
 40
0.6
176
     0
 41
30.0
176
     0
 62
     5
 63
     7
421
 16777215
176
     0
 74
     1
176
     0
 91
        4
176
     0
 64
     7
176
     0
 65
   257
176
     0
 75
     1
176
     0
175
     1
176
     0
 42
1.0
176
     0
 92
        8
176
     2
 66
     7
176
     0
 43
1.0
176
     0
 76
     1
176
     0
 77
     6
176
     0
 78
     2
176
     0
 67
     7
176
     0
 79
     5
176
     0
170
     0
176
     0
171
     0
176
     0
290
     0
176
     0
 93
        1
176
     0
 44
0.0
176
     0
173
     0
176
     0
  0
VISUALSTYLE
  5
537
102
{ACAD_REACTORS
330
528
102
}
102
{ACAD_XDICTIONARY
360
576
102
}
330
528
100
AcDbVisualStyle
  2
Facepattern
 70
    15
177
     2
291
     1
 71
     2
176
     1
 72
     2
176
     1
 73
     0
176
     1
 90
        0
176
     1
 40
0.6
176
     1
 41
30.0
176
     1
 62
     5
 63
     7
421
 16777215
176
     1
 74
     1
176
     1
 91
        4
176
     1
 64
     7
176
     1
 65
   257
176
     1
 75
     1
176
     1
175
     1
176
     1
 42
1.0
176
     1
 92
        8
176
     1
 66
     7
176
     1
 43
1.0
176
     1
 76
     1
176
     1
 77
     6
176
     1
 78
     2
176
     1
 67
     7
176
     1
 79
     5
176
     1
170
     0
176
     1
171
     0
176
     1
290
     0
176
     1
 93
        1
176
     1
 44
0.0
176
     1
173
     0
176
     1
  0
VISUALSTYLE
  5
529
102
{ACAD_REACTORS
330
528
102
}
102
{ACAD_XDICTIONARY
360
55A
102
}
330
528
100
AcDbVisualStyle
  2
Flat
 70
     0
177
     2
291
     1
 71
     2
176
     1
 72
     1
176
     1
 73
     1
176
     1
 90
        2
176
     1
 40
0.6
176
     1
 41
30.0
176
     1
 62
     5
 63
     7
421
 16777215
176
     1
 74
     0
176
     1
 91
        0
176
     1
 64
     7
176
     1
 65
   257
176
     1
 75
     1
176
     1
175
     1
176
     1
 42
1.0
176
     1
 92
        8
176
     1
 66
     7
176
     1
 43
1.0
176
     1
 76
     1
176
     1
 77
     6
176
     1
 78
     2
176
     1
 67
     7
176
     1
 79
     5
176
     1
170
     0
176
     1
171
     0
176
     1
290
     0
176
     1
 93
       13
176
     1
 44
0.0
176
     1
173
     0
176
     1
  0
VISUALSTYLE
  5
52A
102
{ACAD_REACTORS
330
528
102
}
102
{ACAD_XDICTIONARY
360
55C
102
}
330
528
100
AcDbVisualStyle
  2
FlatWithEdges
 70
     1
177
     2
291
     1
 71
     2
176
     1
 72
     1
176
     1
 73
     1
176
     1
 90
        2
176
     1
 40
0.6
176
     1
 41
30.0
176
     1
 62
     5
 63
     7
421
 16777215
176
     1
 74
     1
176
     1
 91
        0
176
     1
 64
     7
176
     1
 65
   257
176
     1
 75
     1
176
     1
175
     1
176
     1
 42
1.0
176
     1
 92
        0
176
     1
 66
   257
176
     1
 43
1.0
176
     1
 76
     1
176
     1
 77
     6
176
     1
 78
     2
176
     1
 67
     7
176
     1
 79
     5
176
     1
170
     0
176
     1
171
     0
176
     1
290
     0
176
     1
 93
       13
176
     1
 44
0.0
176
     1
173
     0
176
     1
  0
VISUALSTYLE
  5
52B
102
{ACAD_REACTORS
330
528
102
}
102
{ACAD_XDICTIONARY
360
55E
102
}
330
528
100
AcDbVisualStyle
  2
Gouraud
 70
     2
177
     2
291
     1
 71
     2
176
     1
 72
     2
176
     1
 73
     1
176
     1
 90
        2
176
     1
 40
0.6
176
     1
 41
30.0
176
     1
 62
     5
 63
     7
421
 16777215
176
     1
 74
     0
176
     1
 91
        0
176
     1
 64
     7
176
     1
 65
   257
176
     1
 75
     1
176
     1
175
     1
176
     1
 42
1.0
176
     1
 92
        0
176
     1
 66
     7
176
     1
 43
1.0
176
     1
 76
     1
176
     1
 77
     6
176
     1
 78
     2
176
     1
 67
     7
176
     1
 79
     5
176
     1
170
     0
176
     1
171
     0
176
     1
290
     0
176
     1
 93
       13
176
     1
 44
0.0
176
     1
173
     0
176
     1
  0
VISUALSTYLE
  5
52C
102
{ACAD_REACTORS
330
528
102
}
102
{ACAD_XDICTIONARY
360
560
102
}
330
528
100
AcDbVisualStyle
  2
GouraudWithEdges
 70
     3
177
     2
291
     1
 71
     2
176
     1
 72
     2
176
     1
 73
     1
176
     1
 90
        2
176
     1
 40
0.6
176
     1
 41
30.0
176
     1
 62
     5
 63
     7
421
 16777215
176
     1
 74
     1
176
     1
 91
        0
176
     1
 64
     7
176
     1
 65
   257
176
     1
 75
     1
176
     1
175
     1
176
     1
 42
1.0
176
     1
 92
        0
176
     1
 66
   257
176
     1
 43
1.0
176
     1
 76
     1
176
     1
 77
     6
176
     1
 78
     2
176
     1
 67
     7
176
     1
 79
     5
176
     1
170
     0
176
     1
171
     0
176
     1
290
     0
176
     1
 93
       13
176
     1
 44
0.0
176
     1
173
     0
176
     1
  0
VISUALSTYLE
  5
52F
102
{ACAD_REACTORS
330
528
102
}
102
{ACAD_XDICTIONARY
360
566
102
}
330
528
100
AcDbVisualStyle
  2
Hidden
 70
     6
177
     2
291
     0
 71
     1
176
     1
 72
     2
176
     1
 73
     2
176
     1
 90
        0
176
     1
 40
0.6
176
     1
 41
30.0
176
     1
 62
     5
 63
     7
421
 16777215
176
     1
 74
     2
176
     1
 91
        2
176
     1
 64
     7
176
     1
 65
   257
176
     1
 75
     2
176
     1
175
     1
176
     1
 42
40.0
176
     1
 92
        0
176
     1
 66
   257
176
     1
 43
1.0
176
     1
 76
     1
176
     1
 77
     6
176
     1
 78
     2
176
     1
 67
     7
176
     1
 79
     3
176
     1
170
     0
176
     1
171
     0
176
     1
290
     0
176
     1
 93
        1
176
     1
 44
0.0
176
     1
173
     0
176
     1
  0
VISUALSTYLE
  5
539
102
{ACAD_REACTORS
330
528
102
}
102
{ACAD_XDICTIONARY
360
57A
102
}
330
528
100
AcDbVisualStyle
  2
JitterOff
 70
    20
177
     2
291
     1
 71
     2
176
     0
 72
     2
176
     0
 73
     0
176
     0
 90
        0
176
     0
 40
0.6
176
     0
 41
30.0
176
     0
 62
     5
 63
     7
421
 16777215
176
     0
 74
     1
176
     0
 91
        4
176
     0
 64
     7
176
     0
 65
   257
176
     0
 75
     1
176
     0
175
     1
176
     0
 42
1.0
176
     0
 92
       10
176
     2
 66
     7
176
     0
 43
1.0
176
     0
 76
     1
176
     0
 77
     6
176
     0
 78
     2
176
     0
 67
     7
176
     0
 79
     5
176
     0
170
     0
176
     0
171
     0
176
     0
290
     0
176
     0
 93
        1
176
     0
 44
0.0
176
     0
173
     0
176
     0
  0
VISUALSTYLE
  5
536
102
{ACAD_REACTORS
330
528
102
}
102
{ACAD_XDICTIONARY
360
574
102
}
330
528
100
AcDbVisualStyle
  2
Linepattern
 70
    14
177
     2
291
     1
 71
     2
176
     1
 72
     2
176
     1
 73
     0
176
     1
 90
        0
176
     1
 40
0.6
176
     1
 41
30.0
176
     1
 62
     5
 63
     7
421
 16777215
176
     1
 74
     1
176
     1
 91
        4
176
     1
 64
     7
176
     1
 65
   257
176
     1
 75
     7
176
     1
175
     7
176
     1
 42
1.0
176
     1
 92
        8
176
     1
 66
     7
176
     1
 43
1.0
176
     1
 76
     1
176
     1
 77
     6
176
     1
 78
     2
176
     1
 67
     7
176
     1
 79
     5
176
     1
170
     0
176
     1
171
     0
176
     1
290
     0
176
     1
 93
        1
176
     1
 44
0.0
176
     1
173
     0
176
     1
  0
VISUALSTYLE
  5
53A
102
{ACAD_REACTORS
330
528
102
}
102
{ACAD_XDICTIONARY
360
57C
102
}
330
528
100
AcDbVisualStyle
  2
OverhangOff
 70
    21
177
     2
291
     1
 71
     2
176
     0
 72
     2
176
     0
 73
     0
176
     0
 90
        0
176
     0
 40
0.6
176
     0
 41
30.0
176
     0
 62
     5
 63
     7
421
 16777215
176
     0
 74
     1
176
     0
 91
        4
176
     0
 64
     7
176
     0
 65
   257
176
     0
 75
     1
176
     0
175
     1
176
     0
 42
1.0
176
     0
 92
        9
176
     2
 66
     7
176
     0
 43
1.0
176
     0
 76
     1
176
     0
 77
     6
176
     0
 78
     2
176
     0
 67
     7
176
     0
 79
     5
176
     0
170
     0
176
     0
171
     0
176
     0
290
     0
176
     0
 93
        1
176
     0
 44
0.0
176
     0
173
     0
176
     0
  0
VISUALSTYLE
  5
531
102
{ACAD_REACTORS
330
528
102
}
102
{ACAD_XDICTIONARY
360
56A
102
}
330
528
100
AcDbVisualStyle
  2
Realistic
 70
     8
177
     2
291
     0
 71
     2
176
     1
 72
     3
176
     1
 73
     0
176
     1
 90
        2
176
     1
 40
0.6
176
     1
 41
30.0
176
     1
 62
     5
 63
     7
421
 16777215
176
     1
 74
     0
176
     1
 91
        0
176
     1
 64
     7
176
     1
 65
   257
176
     1
 75
     1
176
     1
175
     1
176
     1
 42
1.0
176
     1
 92
        8
176
     1
 66
   257
176
     1
 43
1.0
176
     1
 76
     1
176
     1
 77
     6
176
     1
 78
     2
176
     1
 67
     7
176
     1
 79
     3
176
     1
170
     0
176
     1
171
     0
176
     1
290
     0
176
     1
 93
       13
176
     1
 44
0.0
176
     1
173
     0
176
     1
  0
VISUALSTYLE
  5
540
102
{ACAD_REACTORS
330
528
102
}
102
{ACAD_XDICTIONARY
360
588
102
}
330
528
100
AcDbVisualStyle
  2
Shaded
 70
    27
177
     2
291
     0
 71
     2
176
     1
 72
     2
176
     1
 73
     1
176
     1
 90
        2
176
     1
 40
0.6
176
     1
 41
30.0
176
     1
 62
     5
 63
     7
421
 16777215
176
     1
 74
     0
176
     1
 91
        4
176
     1
 64
     7
176
     1
 65
   257
176
     1
 75
     1
176
     1
175
     1
176
     1
 42
1.0
176
     1
 92
        8
176
     1
 66
   257
176
     1
 43
1.0
176
     1
 76
     1
176
     1
 77
     6
176
     1
 78
     2
176
     1
 67
     8
425
  7895160
176
     1
 79
     3
176
     1
170
     0
176
     1
171
     0
176
     1
290
     0
176
     1
 93
        5
176
     1
 44
0.0
176
     1
173
     0
176
     1
  0
VISUALSTYLE
  5
53F
102
{ACAD_REACTORS
330
528
102
}
102
{ACAD_XDICTIONARY
360
586
102
}
330
528
100
AcDbVisualStyle
  2
Shaded with edges
 70
    26
177
     2
291
     0
 71
     2
176
     1
 72
     2
176
     1
 73
     1
176
     1
 90
        2
176
     1
 40
0.6
176
     1
 41
30.0
176
     1
 62
     5
 63
     7
421
 16777215
176
     1
 74
     1
176
     1
 91
       10
176
     1
 64
     7
176
     1
 65
   257
176
     1
 75
     2
176
     1
175
     1
176
     1
 42
1.0
176
     1
 92
        8
176
     1
 66
   257
176
     1
 43
1.0
176
     1
 76
     1
176
     1
 77
     6
176
     1
 78
     2
176
     1
 67
     7
176
     1
 79
     3
176
     1
170
     0
176
     1
171
     0
176
     1
290
     0
176
     1
 93
        5
176
     1
 44
0.0
176
     1
173
     0
176
     1
  0
VISUALSTYLE
  5
53C
102
{ACAD_REACTORS
330
528
102
}
102
{ACAD_XDICTIONARY
360
580
102
}
330
528
100
AcDbVisualStyle
  2
Shades of Gray
 70
    23
177
     2
291
     0
 71
     2
176
     1
 72
     2
176
     1
 73
     3
176
     1
 90
        0
176
     1
 40
0.6
176
     1
 41
30.0
176
     1
 62
     5
 63
     7
421
 16777215
176
     1
 74
     2
176
     1
 91
        2
176
     1
 64
     7
176
     1
 65
     7
176
     1
 75
     1
176
     1
175
     1
176
     1
 42
40.0
176
     1
 92
        8
176
     1
 66
     7
176
     1
 43
1.0
176
     1
 76
     1
176
     1
 77
     6
176
     1
 78
     2
176
     1
 67
     7
176
     1
 79
     3
176
     1
170
     0
176
     1
171
     0
176
     1
290
     0
176
     1
 93
        1
176
     1
 44
0.0
176
     1
173
     0
176
     1
  0
VISUALSTYLE
  5
53D
102
{ACAD_REACTORS
330
528
102
}
102
{ACAD_XDICTIONARY
360
582
102
}
330
528
100
AcDbVisualStyle
  2
Sketchy
 70
    24
177
     2
291
     0
 71
     1
176
     1
 72
     2
176
     1
 73
     2
176
     1
 90
        0
176
     1
 40
0.6
176
     1
 41
30.0
176
     1
 62
     5
 63
     7
421
 16777215
176
     1
 74
     2
176
     1
 91
        2
176
     1
 64
     7
176
     1
 65
     7
176
     1
 75
     1
176
     1
175
     1
176
     1
 42
40.0
176
     1
 92
       11
176
     1
 66
     7
176
     1
 43
1.0
176
     1
 76
     1
176
     1
 77
     6
176
     1
 78
     2
176
     1
 67
     7
176
     1
 79
     6
176
     1
170
     0
176
     1
171
     0
176
     1
290
     0
176
     1
 93
        1
176
     1
 44
0.0
176
     1
173
     0
176
     1
  0
VISUALSTYLE
  5
535
102
{ACAD_REACTORS
330
528
102
}
102
{ACAD_XDICTIONARY
360
572
102
}
330
528
100
AcDbVisualStyle
  2
Thicken
 70
    13
177
     2
291
     1
 71
     2
176
     1
 72
     2
176
     1
 73
     0
176
     1
 90
        0
176
     1
 40
0.6
176
     1
 41
30.0
176
     1
 62
     5
 63
     7
421
 16777215
176
     1
 74
     1
176
     1
 91
        4
176
     1
 64
     7
176
     1
 65
   257
176
     1
 75
     1
176
     1
175
     1
176
     1
 42
1.0
176
     1
 92
       12
176
     1
 66
     7
176
     1
 43
1.0
176
     1
 76
     1
176
     1
 77
     6
176
     1
 78
     2
176
     1
 67
     7
176
     1
 79
     5
176
     1
170
     0
176
     1
171
     0
176
     1
290
     0
176
     1
 93
        1
176
     1
 44
0.0
176
     1
173
     0
176
     1
  0
VISUALSTYLE
  5
52E
102
{ACAD_REACTORS
330
528
102
}
102
{ACAD_XDICTIONARY
360
564
102
}
330
528
100
AcDbVisualStyle
  2
Wireframe
 70
     5
177
     2
291
     0
 71
     0
176
     1
 72
     2
176
     1
 73
     0
176
     1
 90
        0
176
     1
 40
0.6
176
     1
 41
30.0
176
     1
 62
     5
 63
     7
421
 16777215
176
     1
 74
     1
176
     1
 91
        4
176
     1
 64
     7
176
     1
 65
   257
176
     1
 75
     1
176
     1
175
     1
176
     1
 42
1.0
176
     1
 92
        0
176
     1
 66
   257
176
     1
 43
1.0
176
     1
 76
     1
176
     1
 77
     6
176
     1
 78
     2
176
     1
 67
     7
176
     1
 79
     3
176
     1
170
     0
176
     1
171
     0
176
     1
290
     0
176
     1
 93
        1
176
     1
 44
0.0
176
     1
173
     0
176
     1
  0
VISUALSTYLE
  5
53E
102
{ACAD_REACTORS
330
528
102
}
102
{ACAD_XDICTIONARY
360
584
102
}
330
528
100
AcDbVisualStyle
  2
X-Ray
 70
    25
177
     2
291
     0
 71
     2
176
     1
 72
     2
176
     1
 73
     1
176
     1
 90
        1
176
     1
 40
0.5
176
     1
 41
30.0
176
     1
 62
     5
 63
     7
421
 16777215
176
     1
 74
     1
176
     1
 91
        0
176
     1
 64
     7
176
     1
 65
   257
176
     1
 75
     1
176
     1
175
     1
176
     1
 42
1.0
176
     1
 92
        8
176
     1
 66
     7
176
     1
 43
1.0
176
     1
 76
     1
176
     1
 77
     6
176
     1
 78
     2
176
     1
 67
     7
176
     1
 79
     3
176
     1
170
     0
176
     1
171
     0
176
     1
290
     0
176
     1
 93
       13
176
     1
 44
0.0
176
     1
173
     0
176
     1
  0
DICTIONARYVAR
  5
557
102
{ACAD_REACTORS
330
556
102
}
330
556
100
DictionaryVariables
280
     0
  1
1:1
  0
DICTIONARYVAR
  5
58B
102
{ACAD_REACTORS
330
556
102
}
330
556
100
DictionaryVariables
280
     0
  1
Standard
  0
CSACDOCUMENTOPTIONS
  5
54C
102
{ACAD_REACTORS
330
54B
102
}
330
54B
  0
XRECORD
  5
550
102
{ACAD_REACTORS
330
547
102
}
330
547
100
AcDbXrecord
280
     1
300
MC_VERSION_DATA
 90
       95
310
0600000002000000570000001C000000E404000000000000000000007801936764E5D8CF7A8393818115C460606066E0646662626666706006F214793899F8DE3171E725E6E53B3BBA2878E6951050AF75FEFFFFFF520032DE0F3057000000
  0
XRECORD
  5
548
102
{ACAD_REACTORS
330
547
102
}
330
547
100
AcDbXrecord
280
     1
300
MCS_DOCUMENT_ID
 90
       60
310
0600000002000000150000001C000000E404000000000000000000007801E3BDBFC18849487885CBDA43213A2F1418A7FC0702005C6F0A6A15000000
  0
XRECORD
  5
54E
102
{ACAD_REACTORS
330
547
102
}
330
547
100
AcDbXrecord
280
     1
300
MCS_PARAMS_DATA
 90
     3313
310
0600000002000000F64B00001C000000E404000000000000000000007801C55C5B905C45199EE99EBDCCE67E5DA218172C303B91307B4B8C459531245054850D55591F78B236BB49B9BAC9E6B22A082A9655BE5865596569A965F9209288CF16503EC8834088C10B092404211702988430422E9084CDAEFFD7A7FBF4DFA7CF
310
D9D99D9D39930798FF3F7DCEF7DFFAFBBBFBCC6CDBFC46297252EECB48F9CDF5ED5234493921A5206D76815820B252E4F3225F128D7D5F59BF69E3162948D9A2D485B3131313747328BF06593E960915079422437734AA3BDAA5CCD053F5ED4FD2557D257BAB94DF007A03479F859BB2B22193C9108EC1CDCADC0464C27506
310
28605703E48886E0B986E10F03BF91E33707F8E3140E7A9091C8268236920C1C662240B94888A1C8E07600AE99C32D5131CA8B3925D172EFE62D7D6D9DABBA8ADDD6F17CE16D13F0457AE8AC9268DE32DABF73B07FCFA013F9BF8491D7C17E2550D8E8FFCA8DFE4E98B3929B331718B291824FFF72EB941D9E8E2211D5A93C
310
784A44C557923911258BD0C8640531AEEC61A924855B11378280384364A422680C0A928DB9C10CD89D581114199665B722B26E4590C82B0222AB08FAA8A60626C028E0044F81BA246F5360E167F2D27C56A10E05C058C13C59DEC6207679103AFC5DEADF992F2B284F67B31C8EE359B64A9665A62453228F64269D98455E3B
310
A4B35817F7EC92C86FB8EFFE8DBD5BEEDBDCAB0CD3B5FC8E99065A7E55D536E39DE7826237F1C8BBBCB3CFADFC93302087C80397EE69C2FF69CA32234F0763E41851010DA578E8294D435524988818E84710A7B2643B4F7C034F6CE5C9368F203BE8094C6268541D70D35EE4B585DAE170F4942EB8D2D422560A9917F34B62
310
CE86919D9F1F6DDBB36DD770FFC0B6BC682E898607BEB5737424F8D83B323AF07529CFC0B69BB96D9FD3CFF9B410ED79B1A42416161FEA29AEEDEEEC5ADF532C76DEF3C5AEEEB5CAECF97A60330D2C1C3579EAD0DA7621F20269BD6768746FDBF0D0DE51F3B0EE356B3ABBD6F474F7740D76770EACED08FCFC92BEAF13F701
310
B5AF7FEBF0B6B691ED6D7D23C3DBF6F4EF840FDA9AD583C58E81E240FFEAADDD5BD70EAC0E669D2A25F27FB610851F9335859F059541B9E5971EC7A5A7E83F2CE53DB9A4040555A2661A4DDBF2C560B2E54E7D5483931EF871F7C88E5DFDA3435B878687461F6EDB313248FE3596847C70DBDEBC682809D13B22E56A5856E4
310
E9998738519B6E2A89DCE6EDDBDB542AF4E4380F8F61A4965F57116093E5A052A06AF588670205D9A715FB49B140D81A90855F902680EBB8B3A3187EEA96F2B224E392BAF898328CB1AD47DA34C1601A1B421AD816D190715CC3F276A5DE067C546F03AED6DB808FEB6DC0B57A1BB00853B49EB3E0937A47E07ABD0D188301
310
71CB797197D3603B1D06BFCB6DB024827C0C834324E60945463B3712E196397079076E990B47228783C8E09631B8F129C211385B3E540C97413DC70673C524DEAD70BD23917B079179B782793791AE77D944EFDCDC5529988B13E1069D6092C472A7F777A6F648E4C184C88239C8822913E16AE29D48176E29E0727C316496
310
EF2A967C95165E504B0C2B218EEE82DD5C63513CD614C5091F6D6FA7551865CC5C5030A1E0A3E84BEC86CFD04EC5DD01AA74CBDB05AB8C403295A124BB2908C4B032B4682A032283FB103E391B4E03172C7199C4E0F88E871E8855ADA1482D3238FA1846E0B807A77785BFF935FE1D74369F5647D0D171CA5F4F09337C2559
310
105132935A503D6DBC7A94B54D2B6DF1E0339960F436A97441791E5EC104D40283580888C4FDED577B1FD8B4B9AF6FE30605D8AAD7F1F34A62F6DD5BBEC62E92057A31FEA25A9DB3F5FBD3C1729D9CD723B0BF0DE8402BB05A67160DDE4416E59079C0D9EAA575B7321F67115FC018C76AB5B3A33D06B68CBD9BFBDC93C073
310
800CC384FD360C544F539B6F02B1820953BE9D01DE01C0D85A6C50369A5AC4065C7760793B965800321749E4B50891C0C2AB0CAE9808178444974C70F875952A9381563C01BE9D08EAFA481283ABD8C7EF7870DAABE068E68833DFAC8EA0A3E3F87C0B07AA507B2311F0889285BDC333294C4E2DB27C67BA70ABD2857B688A
310
70552AA7873DB8489E55063D5D2DCBE9BB9E49F1E554A5083C922EDCA3E9C27D2F5DB8EF7B705EE9D87E1E920E88313AAE6AECF4FBD668D3D30DB4E51ADA9BEDB0D7AFCEB4DDED85F7C4ECF6551B3BCE2AFF6E835E49458EC94883D6E73C45753FAE614C3C0A0362777435D915EC025C33F7578776011DE6F3D066954C59D6
310
D76F86AC9CD58A53F4122CF0552BAE070AEA3B5AF15752304F1F47569D50AB71F41A31FA5A51C904CD43C6B0F51D2ACEFC112ACC4CC1B0FF086CE7AD5A4D096A005126387AAD451EE384D9C035A925859E39C1AA865EE9A9B8DA21CEE289167F7CF1D4C4BC7A125EC5AED5D8BB0B5A9D9144D134CFA71BF85A8D44BE568348
310
F6AA55A2F3CAEA4F6982FD21118CC249D3CBF852A586F244BA70FBD285DB9F085793EDE56E143F0AD06C6B4CB2242BDD3DD1419166C2865E81F9CE1648F3CBD84597B22E28992A3DDCE24C77F3F311A01C8A722828EC3CF15F7D987933F818F8E59BC138E5CD4CE8AC24C94E68BA32F5C3CBAB808B6B06B9936E642F9F804C
310
903AF2F3709D37832318A078E4B37AEBDCFAA66859945B9EBB25776BAE2DD3995995E9CA1433DDFA4DAC7ECE6FE93696E96BB06712968ED2661884A9EE40230F60D0D73DE8C858453B9E8E4212D5A9B0784A762662599FEDD18C9299F4094C728A91F536658E91CDA6DFC8E89F363B15B4CB31404FD2581CF722BBF229B517
310
430944E56AB2E2A8E3461950730F2B7ECA7BC570E389706E8BA9D241C744225C40C29385944F707279EA277D998065D9EAD604B1263E66D38513E9C2490F4EE7CC6E8AA89C3D9DA588701CA708AB6414C194931EE3FC0D4515D71A4FBFE712F8CB4A26532A6E8DCF01CA61A3745BE3F3C09F6E6B442F0CD7BAD36A8D2F002E
310
AE359E3BE646F6B8926D6BBC0CD9926FBEF08C5220B9BAE91D0E14769FF44B52301E3C00E8FA74C117BD24F396E22C7F1005F2DA2902EB76053DE720B0D3EE397F2F036AE8B24A3DE750225C4DF8F8A544B81AF69C7F2482D6C4C77F067093EF36FE359541FF8E0E8A50399BA22F63681CEF0EBDEBB2C3834A9E09EF1E0654
310
1D79F708F0A7CBBB956F495E015C1CEFEE3EEC46B65FC996771F856C09285F58A7148C77872F6104D6DC9A8897D30896D457015D1FDE3DEA25B91CEFF2EBD6EB0A68F718A0D3A6DDD7CA805699768F27C2D584925E4F84AB9476A39B03E744D09CD6610FF59F44E89A78FA46BA70DDDE0ADC144A4DBCEBF1E0221D416DC23D
310
1D715254A766A8A7AC60C1FF26021ED7783E889CD89C52F24C1ACF0940D5B1F19C047E7A8DE714E0E21ACFD5436EE339AB64DB78E44B91C6730003ECCB897CE1D28548E3798246B0C6731AD0536D3CB3E90740046E0B5FD5161351555C247A084506FA9607AAEBD39C44F1E2B63A5BDCA18E17B755B2E2664A322602C34C3A
310
0393625B51C09BC60D77315EF1E1C8DB80730A9C37D5B8CD0EBF3EA3A6FB4EA2A7C18B1B2746D53A5F7BB70C687C78291FE10E3A386EE3054657F9CB297E9CF703B0E71DFC4DA3397B4068C3CF33A1A81F02C2C920DB8E7ABF712005813923946BAE06DE453454B45CC32AF6311810C751E3F85A979E7874424F9299B34AB2
310
210DC430A45A3473162283FB2F3218C7FE178FBB1CF59692CDAD957C0DECAC3739580882F7E26636C4FC0874E66F42CE013F2EB274A4C323CBB88082C5B980AE4CFD4DC879C0C5B1FFF5E7DDC89E57324556799F2F34BC006EC70CD18A8318C0D9FF0AB6807CDBB19F46B0A4BE07E8B4D9FF8207EA504E3D7E65FA3E4C7226
310
B329B0E8D703AAFEBAA304E869379E693123CD68457958A4FF2F11AE86ECFF4119D078F6E7138AD87FF2370F86D6E1E38789702D76FED2134932CCA824CB8C811832A3160D33426421BD980847AF6F0C11D33DEECB1CFE9B7175D1F926045DE5BD8DBFBDBE94081764D0049324E6DDB40A8607F372225C4D16463974B5B836
310
F393232E193EA2E499B49986C93A780A6DA631A981D7A6CD34012EAECDFCFC5937B23F52B26D33BF83CCDBCC56A5C0ECD07DE7A7A7226D661D8D6033A419D0536D33E07F56B8C4CA7C0D48229F9610695A461A0883CE7B494E8DD95B004DF38E8247AB09FE45AC1A52EDAC32A0861DD8DA85D8A76276989D08579353913989
310
700119397510D9BB4CAB9DF096393711B4263ECE4B176E7EBA700B3C389DB3F0B5335AA6A7234288EA142D784A9083AFB414616018456CF24C3293C4CD2F49D3E5A5F0410CEE7E0F2E6A6FEA11580893E29AEE529C2FC11C4DF48D4AA628982DB44A422820F8563073C8F989CF2240392BED74F7768B819FDEDE6E09E0E29A
310
EE72FA030B3CB273954C91D5916E87CC9BEEFB4FAB1E6B73B10CFB6CBEB73B4423589D2D05F4CC9AAE2E4C768646F0614DBB4BD40606DDEA2539B5A67B13A0D36EBACBCA809A9055A7E9E24B8E0D79912B896C91FE0C1655C17843E129FA335B3277F4E8510807513CB9CC44868E210AF7FE19028691B0917E39482B125CF8
310
D4FF01F0B312DAF64B0000
  0
TABLECONTENT
  5
552
330
555
100
AcDbLinkedData
  1

300

100
AcDbLinkedTableData
 90
        5
300
COLUMN
  1
LINKEDTABLEDATACOLUMN_BEGIN
300

 91
        0
301
CUSTOMDATA
  1
DATAMAP_BEGIN
 90
        0
309
DATAMAP_END
309
LINKEDTABLEDATACOLUMN_END
  1
FORMATTEDTABLEDATACOLUMN_BEGIN
300
COLUMNTABLEFORMAT
  1
TABLEFORMAT_BEGIN
 90
        3
170
     0
309
TABLEFORMAT_END
309
FORMATTEDTABLEDATACOLUMN_END
  1
TABLECOLUMN_BEGIN
 90
        0
 40
10.0
309
TABLECOLUMN_END
300
COLUMN
  1
LINKEDTABLEDATACOLUMN_BEGIN
300

 91
        0
301
CUSTOMDATA
  1
DATAMAP_BEGIN
 90
        0
309
DATAMAP_END
309
LINKEDTABLEDATACOLUMN_END
  1
FORMATTEDTABLEDATACOLUMN_BEGIN
300
COLUMNTABLEFORMAT
  1
TABLEFORMAT_BEGIN
 90
        3
170
     0
309
TABLEFORMAT_END
309
FORMATTEDTABLEDATACOLUMN_END
  1
TABLECOLUMN_BEGIN
 90
        0
 40
10.0
309
TABLECOLUMN_END
300
COLUMN
  1
LINKEDTABLEDATACOLUMN_BEGIN
300

 91
        0
301
CUSTOMDATA
  1
DATAMAP_BEGIN
 90
        0
309
DATAMAP_END
309
LINKEDTABLEDATACOLUMN_END
  1
FORMATTEDTABLEDATACOLUMN_BEGIN
300
COLUMNTABLEFORMAT
  1
TABLEFORMAT_BEGIN
 90
        3
170
     0
309
TABLEFORMAT_END
309
FORMATTEDTABLEDATACOLUMN_END
  1
TABLECOLUMN_BEGIN
 90
        0
 40
10.0
309
TABLECOLUMN_END
300
COLUMN
  1
LINKEDTABLEDATACOLUMN_BEGIN
300

 91
        0
301
CUSTOMDATA
  1
DATAMAP_BEGIN
 90
        0
309
DATAMAP_END
309
LINKEDTABLEDATACOLUMN_END
  1
FORMATTEDTABLEDATACOLUMN_BEGIN
300
COLUMNTABLEFORMAT
  1
TABLEFORMAT_BEGIN
 90
        3
170
     0
309
TABLEFORMAT_END
309
FORMATTEDTABLEDATACOLUMN_END
  1
TABLECOLUMN_BEGIN
 90
        0
 40
40.0
309
TABLECOLUMN_END
300
COLUMN
  1
LINKEDTABLEDATACOLUMN_BEGIN
300

 91
        0
301
CUSTOMDATA
  1
DATAMAP_BEGIN
 90
        0
309
DATAMAP_END
309
LINKEDTABLEDATACOLUMN_END
  1
FORMATTEDTABLEDATACOLUMN_BEGIN
300
COLUMNTABLEFORMAT
  1
TABLEFORMAT_BEGIN
 90
        3
170
     0
309
TABLEFORMAT_END
309
FORMATTEDTABLEDATACOLUMN_END
  1
TABLECOLUMN_BEGIN
 90
        0
 40
20.0
309
TABLECOLUMN_END
 91
        5
301
ROW
  1
LINKEDTABLEDATAROW_BEGIN
 90
        5
300
CELL
  1
LINKEDTABLEDATACELL_BEGIN
 90
        0
300

 91
        0
301
CUSTOMDATA
  1
DATAMAP_BEGIN
 90
        1
300
ACAD_ROUNDTRIP_2008_CELL_CHECKSUM
301
DATAMAP_VALUE
 93
        2
 90
        2
140
32.0
 94
        0
300

302

304
ACVALUE_END
309
DATAMAP_END
 92
        0
 95
        1
302
CONTENT
  1
CELLCONTENT_BEGIN
 90
        1
300
VALUE
 93
        2
 90
        4
  1
 
 94
        0
300

302
 
304
ACVALUE_END
 91
        0
309
CELLCONTENT_END
  1
FORMATTEDCELLCONTENT_BEGIN
170
     1
300
CONTENTFORMAT
  1
CONTENTFORMAT_BEGIN
 90
      132
 91
        0
 92
      512
 93
        0
300

 40
0.0
140
1.0
 94
        1
 62
     0
340
0
144
3.5
309
CONTENTFORMAT_END
309
FORMATTEDCELLCONTENT_END
309
LINKEDTABLEDATACELL_END
  1
FORMATTEDTABLEDATACELL_BEGIN
300
CELLTABLEFORMAT
  1
TABLEFORMAT_BEGIN
 90
        1
170
     1
 91
        0
 92
        0
 62
   257
 93
        1
300
CONTENTFORMAT
  1
CONTENTFORMAT_BEGIN
 90
        0
 91
        0
 92
      512
 93
        0
300

 40
0.0
140
1.0
 94
        1
 62
     0
340
0
144
0.18
309
CONTENTFORMAT_END
171
     0
 94
        0
309
TABLEFORMAT_END
309
FORMATTEDTABLEDATACELL_END
  1
TABLECELL_BEGIN
 90
        0
 91
        0
309
TABLECELL_END
300
CELL
  1
LINKEDTABLEDATACELL_BEGIN
 90
        0
300

 91
        0
301
CUSTOMDATA
  1
DATAMAP_BEGIN
 90
        0
309
DATAMAP_END
 92
        0
 95
        0
309
LINKEDTABLEDATACELL_END
  1
FORMATTEDTABLEDATACELL_BEGIN
300
CELLTABLEFORMAT
  1
TABLEFORMAT_BEGIN
 90
        1
170
     1
 91
        0
 92
        0
 62
   257
 93
        1
300
CONTENTFORMAT
  1
CONTENTFORMAT_BEGIN
 90
        0
 91
        0
 92
      512
 93
        0
300

 40
0.0
140
1.0
 94
        1
 62
     0
340
0
144
0.18
309
CONTENTFORMAT_END
171
     0
 94
        0
309
TABLEFORMAT_END
309
FORMATTEDTABLEDATACELL_END
  1
TABLECELL_BEGIN
 90
        0
 91
        0
309
TABLECELL_END
300
CELL
  1
LINKEDTABLEDATACELL_BEGIN
 90
        0
300

 91
        0
301
CUSTOMDATA
  1
DATAMAP_BEGIN
 90
        0
309
DATAMAP_END
 92
        0
 95
        0
309
LINKEDTABLEDATACELL_END
  1
FORMATTEDTABLEDATACELL_BEGIN
300
CELLTABLEFORMAT
  1
TABLEFORMAT_BEGIN
 90
        1
170
     1
 91
        0
 92
        0
 62
   257
 93
        1
300
CONTENTFORMAT
  1
CONTENTFORMAT_BEGIN
 90
        0
 91
        0
 92
      512
 93
        0
300

 40
0.0
140
1.0
 94
        1
 62
     0
340
0
144
0.18
309
CONTENTFORMAT_END
171
     0
 94
        0
309
TABLEFORMAT_END
309
FORMATTEDTABLEDATACELL_END
  1
TABLECELL_BEGIN
 90
        0
 91
        0
309
TABLECELL_END
300
CELL
  1
LINKEDTABLEDATACELL_BEGIN
 90
        0
300

 91
        0
301
CUSTOMDATA
  1
DATAMAP_BEGIN
 90
        1
300
ACAD_ROUNDTRIP_2008_CELL_CHECKSUM
301
DATAMAP_VALUE
 93
        2
 90
        2
140
1110.0
 94
        0
300

302

304
ACVALUE_END
309
DATAMAP_END
 92
        0
 95
        1
302
CONTENT
  1
CELLCONTENT_BEGIN
 90
        1
300
VALUE
 93
        2
 90
        4
  1
215295
 94
        0
300

302
215295
304
ACVALUE_END
 91
        0
309
CELLCONTENT_END
  1
FORMATTEDCELLCONTENT_BEGIN
170
     1
300
CONTENTFORMAT
  1
CONTENTFORMAT_BEGIN
 90
      196
 91
        0
 92
      512
 93
        0
300

 40
0.0
140
1.0
 94
        1
 62
     0
340
206
144
3.0
309
CONTENTFORMAT_END
309
FORMATTEDCELLCONTENT_END
309
LINKEDTABLEDATACELL_END
  1
FORMATTEDTABLEDATACELL_BEGIN
300
CELLTABLEFORMAT
  1
TABLEFORMAT_BEGIN
 90
        1
170
     1
 91
       16
 92
        0
 62
   257
 93
        1
300
CONTENTFORMAT
  1
CONTENTFORMAT_BEGIN
 90
       16
 91
        0
 92
      512
 93
        0
300

 40
0.0
140
1.0
 94
        4
 62
     0
340
0
144
0.18
309
CONTENTFORMAT_END
171
     0
 94
        4
 95
        1
302
GRIDFORMAT
  1
GRIDFORMAT_BEGIN
 90
       26
 91
        1
 62
     0
 92
       -2
340
0
 93
        0
 40
0.045
309
GRIDFORMAT_END
 95
        4
302
GRIDFORMAT
  1
GRIDFORMAT_BEGIN
 90
       26
 91
        1
 62
     0
 92
       -2
340
0
 93
        0
 40
0.045
309
GRIDFORMAT_END
 95
        8
302
GRIDFORMAT
  1
GRIDFORMAT_BEGIN
 90
       26
 91
        1
 62
     0
 92
       -2
340
0
 93
        0
 40
0.045
309
GRIDFORMAT_END
 95
       32
302
GRIDFORMAT
  1
GRIDFORMAT_BEGIN
 90
       26
 91
        1
 62
     0
 92
       -2
340
0
 93
        0
 40
0.045
309
GRIDFORMAT_END
309
TABLEFORMAT_END
309
FORMATTEDTABLEDATACELL_END
  1
TABLECELL_BEGIN
 90
        0
 91
        0
309
TABLECELL_END
300
CELL
  1
LINKEDTABLEDATACELL_BEGIN
 90
        0
300

 91
        0
301
CUSTOMDATA
  1
DATAMAP_BEGIN
 90
        1
300
ACAD_ROUNDTRIP_2008_CELL_CHECKSUM
301
DATAMAP_VALUE
 93
        2
 90
        2
140
1398.0
 94
        0
300

302

304
ACVALUE_END
309
DATAMAP_END
 92
        0
 95
        1
302
CONTENT
  1
CELLCONTENT_BEGIN
 90
        1
300
VALUE
 93
        2
 90
        4
  1
Rev:00
 94
        0
300

302
Rev:00
304
ACVALUE_END
 91
        0
309
CELLCONTENT_END
  1
FORMATTEDCELLCONTENT_BEGIN
170
     1
300
CONTENTFORMAT
  1
CONTENTFORMAT_BEGIN
 90
      196
 91
        0
 92
      512
 93
        0
300

 40
0.0
140
1.0
 94
        1
 62
     0
340
206
144
3.5
309
CONTENTFORMAT_END
309
FORMATTEDCELLCONTENT_END
309
LINKEDTABLEDATACELL_END
  1
FORMATTEDTABLEDATACELL_BEGIN
300
CELLTABLEFORMAT
  1
TABLEFORMAT_BEGIN
 90
        1
170
     1
 91
       16
 92
        0
 62
   257
 93
        1
300
CONTENTFORMAT
  1
CONTENTFORMAT_BEGIN
 90
       16
 91
        0
 92
      512
 93
        0
300

 40
0.0
140
1.0
 94
        1
 62
     0
340
0
144
0.18
309
CONTENTFORMAT_END
171
     0
 94
        4
 95
        1
302
GRIDFORMAT
  1
GRIDFORMAT_BEGIN
 90
       26
 91
        1
 62
     0
 92
       -2
340
0
 93
        0
 40
0.045
309
GRIDFORMAT_END
 95
        4
302
GRIDFORMAT
  1
GRIDFORMAT_BEGIN
 90
       26
 91
        1
 62
     0
 92
       -2
340
0
 93
        0
 40
0.045
309
GRIDFORMAT_END
 95
        8
302
GRIDFORMAT
  1
GRIDFORMAT_BEGIN
 90
       26
 91
        1
 62
     0
 92
       -2
340
0
 93
        0
 40
0.045
309
GRIDFORMAT_END
 95
       32
302
GRIDFORMAT
  1
GRIDFORMAT_BEGIN
 90
       26
 91
        1
 62
     0
 92
       -2
340
0
 93
        0
 40
0.045
309
GRIDFORMAT_END
309
TABLEFORMAT_END
309
FORMATTEDTABLEDATACELL_END
  1
TABLECELL_BEGIN
 90
        0
 91
        0
309
TABLECELL_END
 91
        0
301
CUSTOMDATA
  1
DATAMAP_BEGIN
 90
        0
309
DATAMAP_END
309
LINKEDTABLEDATAROW_END
  1
FORMATTEDTABLEDATAROW_BEGIN
300
ROWTABLEFORMAT
  1
TABLEFORMAT_BEGIN
 90
        2
170
     0
309
TABLEFORMAT_END
309
FORMATTEDTABLEDATAROW_END
  1
TABLEROW_BEGIN
 90
        1
 40
6.0
309
TABLEROW_END
301
ROW
  1
LINKEDTABLEDATAROW_BEGIN
 90
        5
300
CELL
  1
LINKEDTABLEDATACELL_BEGIN
 90
        0
300

 91
        0
301
CUSTOMDATA
  1
DATAMAP_BEGIN
 90
        0
309
DATAMAP_END
 92
        0
 95
        0
309
LINKEDTABLEDATACELL_END
  1
FORMATTEDTABLEDATACELL_BEGIN
300
CELLTABLEFORMAT
  1
TABLEFORMAT_BEGIN
 90
        1
170
     1
 91
        0
 92
        0
 62
   257
 93
        1
300
CONTENTFORMAT
  1
CONTENTFORMAT_BEGIN
 90
        0
 91
        0
 92
      512
 93
        0
300

 40
0.0
140
1.0
 94
        1
 62
     0
340
0
144
0.18
309
CONTENTFORMAT_END
171
     0
 94
        0
309
TABLEFORMAT_END
309
FORMATTEDTABLEDATACELL_END
  1
TABLECELL_BEGIN
 90
        0
 91
        0
309
TABLECELL_END
300
CELL
  1
LINKEDTABLEDATACELL_BEGIN
 90
        0
300

 91
        0
301
CUSTOMDATA
  1
DATAMAP_BEGIN
 90
        0
309
DATAMAP_END
 92
        0
 95
        0
309
LINKEDTABLEDATACELL_END
  1
FORMATTEDTABLEDATACELL_BEGIN
300
CELLTABLEFORMAT
  1
TABLEFORMAT_BEGIN
 90
        1
170
     1
 91
        0
 92
        0
 62
   257
 93
        1
300
CONTENTFORMAT
  1
CONTENTFORMAT_BEGIN
 90
        0
 91
        0
 92
      512
 93
        0
300

 40
0.0
140
1.0
 94
        1
 62
     0
340
0
144
0.18
309
CONTENTFORMAT_END
171
     0
 94
        0
309
TABLEFORMAT_END
309
FORMATTEDTABLEDATACELL_END
  1
TABLECELL_BEGIN
 90
        0
 91
        0
309
TABLECELL_END
300
CELL
  1
LINKEDTABLEDATACELL_BEGIN
 90
        0
300

 91
        0
301
CUSTOMDATA
  1
DATAMAP_BEGIN
 90
        0
309
DATAMAP_END
 92
        0
 95
        0
309
LINKEDTABLEDATACELL_END
  1
FORMATTEDTABLEDATACELL_BEGIN
300
CELLTABLEFORMAT
  1
TABLEFORMAT_BEGIN
 90
        1
170
     1
 91
        0
 92
        0
 62
   257
 93
        1
300
CONTENTFORMAT
  1
CONTENTFORMAT_BEGIN
 90
        0
 91
        0
 92
      512
 93
        0
300

 40
0.0
140
1.0
 94
        1
 62
     0
340
0
144
0.18
309
CONTENTFORMAT_END
171
     0
 94
        0
309
TABLEFORMAT_END
309
FORMATTEDTABLEDATACELL_END
  1
TABLECELL_BEGIN
 90
        0
 91
        0
309
TABLECELL_END
300
CELL
  1
LINKEDTABLEDATACELL_BEGIN
 90
        0
300

 91
        0
301
CUSTOMDATA
  1
DATAMAP_BEGIN
 90
        1
300
ACAD_ROUNDTRIP_2008_CELL_CHECKSUM
301
DATAMAP_VALUE
 93
        2
 90
        2
140
3105.0
 94
        0
300

302

304
ACVALUE_END
309
DATAMAP_END
 92
        0
 95
        1
302
CONTENT
  1
CELLCONTENT_BEGIN
 90
        1
300
VALUE
 93
        2
 90
        4
  1
Scale:1:1
 94
        0
300

302
Scale:1:1
304
ACVALUE_END
 91
        0
309
CELLCONTENT_END
  1
FORMATTEDCELLCONTENT_BEGIN
170
     1
300
CONTENTFORMAT
  1
CONTENTFORMAT_BEGIN
 90
      196
 91
        0
 92
      512
 93
        0
300

 40
0.0
140
1.0
 94
        1
 62
     0
340
206
144
3.5
309
CONTENTFORMAT_END
309
FORMATTEDCELLCONTENT_END
309
LINKEDTABLEDATACELL_END
  1
FORMATTEDTABLEDATACELL_BEGIN
300
CELLTABLEFORMAT
  1
TABLEFORMAT_BEGIN
 90
        1
170
     1
 91
       16
 92
        0
 62
   257
 93
        1
300
CONTENTFORMAT
  1
CONTENTFORMAT_BEGIN
 90
       16
 91
        0
 92
      512
 93
        0
300

 40
0.0
140
1.0
 94
        1
 62
     0
340
0
144
0.18
309
CONTENTFORMAT_END
171
     0
 94
        4
 95
        1
302
GRIDFORMAT
  1
GRIDFORMAT_BEGIN
 90
       26
 91
        1
 62
     0
 92
       -2
340
0
 93
        0
 40
0.045
309
GRIDFORMAT_END
 95
        4
302
GRIDFORMAT
  1
GRIDFORMAT_BEGIN
 90
       26
 91
        1
 62
     0
 92
       -2
340
0
 93
        0
 40
0.045
309
GRIDFORMAT_END
 95
        8
302
GRIDFORMAT
  1
GRIDFORMAT_BEGIN
 90
       26
 91
        1
 62
     0
 92
       -2
340
0
 93
        0
 40
0.045
309
GRIDFORMAT_END
 95
       32
302
GRIDFORMAT
  1
GRIDFORMAT_BEGIN
 90
       26
 91
        1
 62
     0
 92
       -2
340
0
 93
        0
 40
0.045
309
GRIDFORMAT_END
309
TABLEFORMAT_END
309
FORMATTEDTABLEDATACELL_END
  1
TABLECELL_BEGIN
 90
        0
 91
        0
309
TABLECELL_END
300
CELL
  1
LINKEDTABLEDATACELL_BEGIN
 90
        0
300

 91
        0
301
CUSTOMDATA
  1
DATAMAP_BEGIN
 90
        1
300
ACAD_ROUNDTRIP_2008_CELL_CHECKSUM
301
DATAMAP_VALUE
 93
        2
 90
        2
140
4406.0
 94
        0
300

302

304
ACVALUE_END
309
DATAMAP_END
 92
        0
 95
        1
302
CONTENT
  1
CELLCONTENT_BEGIN
 90
        1
300
VALUE
 93
        2
 90
        4
  1
2500 by 3200
 94
        0
300

302
2500 by 3200
304
ACVALUE_END
 91
        0
309
CELLCONTENT_END
  1
FORMATTEDCELLCONTENT_BEGIN
170
     1
300
CONTENTFORMAT
  1
CONTENTFORMAT_BEGIN
 90
      196
 91
        0
 92
      512
 93
        0
300

 40
0.0
140
1.0
 94
        1
 62
     0
340
206
144
1.9
309
CONTENTFORMAT_END
309
FORMATTEDCELLCONTENT_END
309
LINKEDTABLEDATACELL_END
  1
FORMATTEDTABLEDATACELL_BEGIN
300
CELLTABLEFORMAT
  1
TABLEFORMAT_BEGIN
 90
        1
170
     1
 91
       16
 92
        0
 62
   257
 93
        1
300
CONTENTFORMAT
  1
CONTENTFORMAT_BEGIN
 90
       16
 91
        0
 92
      512
 93
        0
300

 40
0.0
140
1.0
 94
        4
 62
     0
340
0
144
0.18
309
CONTENTFORMAT_END
171
     0
 94
        4
 95
        1
302
GRIDFORMAT
  1
GRIDFORMAT_BEGIN
 90
       26
 91
        1
 62
     0
 92
       -2
340
0
 93
        0
 40
0.045
309
GRIDFORMAT_END
 95
        4
302
GRIDFORMAT
  1
GRIDFORMAT_BEGIN
 90
       26
 91
        1
 62
     0
 92
       -2
340
0
 93
        0
 40
0.045
309
GRIDFORMAT_END
 95
        8
302
GRIDFORMAT
  1
GRIDFORMAT_BEGIN
 90
       26
 91
        1
 62
     0
 92
       -2
340
0
 93
        0
 40
0.045
309
GRIDFORMAT_END
 95
       32
302
GRIDFORMAT
  1
GRIDFORMAT_BEGIN
 90
       26
 91
        1
 62
     0
 92
       -2
340
0
 93
        0
 40
0.045
309
GRIDFORMAT_END
309
TABLEFORMAT_END
309
FORMATTEDTABLEDATACELL_END
  1
TABLECELL_BEGIN
 90
        0
 91
        0
309
TABLECELL_END
 91
        0
301
CUSTOMDATA
  1
DATAMAP_BEGIN
 90
        0
309
DATAMAP_END
309
LINKEDTABLEDATAROW_END
  1
FORMATTEDTABLEDATAROW_BEGIN
300
ROWTABLEFORMAT
  1
TABLEFORMAT_BEGIN
 90
        2
170
     0
309
TABLEFORMAT_END
309
FORMATTEDTABLEDATAROW_END
  1
TABLEROW_BEGIN
 90
        2
 40
6.0
309
TABLEROW_END
301
ROW
  1
LINKEDTABLEDATAROW_BEGIN
 90
        5
300
CELL
  1
LINKEDTABLEDATACELL_BEGIN
 90
        0
300

 91
        0
301
CUSTOMDATA
  1
DATAMAP_BEGIN
 90
        0
309
DATAMAP_END
 92
        0
 95
        0
309
LINKEDTABLEDATACELL_END
  1
FORMATTEDTABLEDATACELL_BEGIN
300
CELLTABLEFORMAT
  1
TABLEFORMAT_BEGIN
 90
        1
170
     1
 91
        0
 92
        0
 62
   257
 93
        1
300
CONTENTFORMAT
  1
CONTENTFORMAT_BEGIN
 90
        0
 91
        0
 92
      512
 93
        0
300

 40
0.0
140
1.0
 94
        1
 62
     0
340
0
144
0.18
309
CONTENTFORMAT_END
171
     0
 94
        0
309
TABLEFORMAT_END
309
FORMATTEDTABLEDATACELL_END
  1
TABLECELL_BEGIN
 90
        0
 91
        0
309
TABLECELL_END
300
CELL
  1
LINKEDTABLEDATACELL_BEGIN
 90
        0
300

 91
        0
301
CUSTOMDATA
  1
DATAMAP_BEGIN
 90
        0
309
DATAMAP_END
 92
        0
 95
        0
309
LINKEDTABLEDATACELL_END
  1
FORMATTEDTABLEDATACELL_BEGIN
300
CELLTABLEFORMAT
  1
TABLEFORMAT_BEGIN
 90
        1
170
     1
 91
        0
 92
        0
 62
   257
 93
        1
300
CONTENTFORMAT
  1
CONTENTFORMAT_BEGIN
 90
        0
 91
        0
 92
      512
 93
        0
300

 40
0.0
140
1.0
 94
        1
 62
     0
340
0
144
0.18
309
CONTENTFORMAT_END
171
     0
 94
        0
309
TABLEFORMAT_END
309
FORMATTEDTABLEDATACELL_END
  1
TABLECELL_BEGIN
 90
        0
 91
        0
309
TABLECELL_END
300
CELL
  1
LINKEDTABLEDATACELL_BEGIN
 90
        0
300

 91
        0
301
CUSTOMDATA
  1
DATAMAP_BEGIN
 90
        0
309
DATAMAP_END
 92
        0
 95
        0
309
LINKEDTABLEDATACELL_END
  1
FORMATTEDTABLEDATACELL_BEGIN
300
CELLTABLEFORMAT
  1
TABLEFORMAT_BEGIN
 90
        1
170
     1
 91
        0
 92
        0
 62
   257
 93
        1
300
CONTENTFORMAT
  1
CONTENTFORMAT_BEGIN
 90
        0
 91
        0
 92
      512
 93
        0
300

 40
0.0
140
1.0
 94
        1
 62
     0
340
0
144
0.18
309
CONTENTFORMAT_END
171
     0
 94
        0
309
TABLEFORMAT_END
309
FORMATTEDTABLEDATACELL_END
  1
TABLECELL_BEGIN
 90
        0
 91
        0
309
TABLECELL_END
300
CELL
  1
LINKEDTABLEDATACELL_BEGIN
 90
        0
300

 91
        0
301
CUSTOMDATA
  1
DATAMAP_BEGIN
 90
        1
300
ACAD_ROUNDTRIP_2008_CELL_CHECKSUM
301
DATAMAP_VALUE
 93
        2
 90
        2
140
26075.0
 94
        0
300

302

304
ACVALUE_END
309
DATAMAP_END
 92
        0
 95
        1
302
CONTENT
  1
CELLCONTENT_BEGIN
 90
        1
300
VALUE
 93
        2
 90
        4
  1
CASSAFORMA TRIM COLORADO 1.1
 94
        0
300

302
CASSAFORMA TRIM COLORADO 1.1
304
ACVALUE_END
 91
        0
309
CELLCONTENT_END
  1
FORMATTEDCELLCONTENT_BEGIN
170
     1
300
CONTENTFORMAT
  1
CONTENTFORMAT_BEGIN
 90
      196
 91
        0
 92
      512
 93
        0
300

 40
0.0
140
1.0
 94
        1
 62
     0
340
206
144
2.5
309
CONTENTFORMAT_END
309
FORMATTEDCELLCONTENT_END
309
LINKEDTABLEDATACELL_END
  1
FORMATTEDTABLEDATACELL_BEGIN
300
CELLTABLEFORMAT
  1
TABLEFORMAT_BEGIN
 90
        1
170
     1
 91
       16
 92
        0
 62
   257
 93
        1
300
CONTENTFORMAT
  1
CONTENTFORMAT_BEGIN
 90
       16
 91
        0
 92
      512
 93
        0
300

 40
0.0
140
1.0
 94
        4
 62
     0
340
0
144
0.18
309
CONTENTFORMAT_END
171
     0
 94
        4
 95
        1
302
GRIDFORMAT
  1
GRIDFORMAT_BEGIN
 90
       26
 91
        1
 62
     0
 92
       -2
340
0
 93
        0
 40
0.045
309
GRIDFORMAT_END
 95
        4
302
GRIDFORMAT
  1
GRIDFORMAT_BEGIN
 90
       26
 91
        1
 62
     0
 92
       -2
340
0
 93
        0
 40
0.045
309
GRIDFORMAT_END
 95
        8
302
GRIDFORMAT
  1
GRIDFORMAT_BEGIN
 90
       26
 91
        1
 62
     0
 92
       -2
340
0
 93
        0
 40
0.045
309
GRIDFORMAT_END
 95
       32
302
GRIDFORMAT
  1
GRIDFORMAT_BEGIN
 90
       26
 91
        1
 62
     0
 92
       -2
340
0
 93
        0
 40
0.045
309
GRIDFORMAT_END
309
TABLEFORMAT_END
309
FORMATTEDTABLEDATACELL_END
  1
TABLECELL_BEGIN
 90
        0
 91
        0
309
TABLECELL_END
300
CELL
  1
LINKEDTABLEDATACELL_BEGIN
 90
        0
300

 91
        0
301
CUSTOMDATA
  1
DATAMAP_BEGIN
 90
        0
309
DATAMAP_END
 92
        0
 95
        0
309
LINKEDTABLEDATACELL_END
  1
FORMATTEDTABLEDATACELL_BEGIN
300
CELLTABLEFORMAT
  1
TABLEFORMAT_BEGIN
 90
        1
170
     1
 91
        0
 92
        0
 62
   257
 93
        1
300
CONTENTFORMAT
  1
CONTENTFORMAT_BEGIN
 90
        0
 91
        0
 92
      512
 93
        0
300

 40
0.0
140
1.0
 94
        1
 62
     0
340
0
144
0.18
309
CONTENTFORMAT_END
171
     0
 94
        0
309
TABLEFORMAT_END
309
FORMATTEDTABLEDATACELL_END
  1
TABLECELL_BEGIN
 90
        0
 91
        0
309
TABLECELL_END
 91
        0
301
CUSTOMDATA
  1
DATAMAP_BEGIN
 90
        0
309
DATAMAP_END
309
LINKEDTABLEDATAROW_END
  1
FORMATTEDTABLEDATAROW_BEGIN
300
ROWTABLEFORMAT
  1
TABLEFORMAT_BEGIN
 90
        2
170
     0
309
TABLEFORMAT_END
309
FORMATTEDTABLEDATAROW_END
  1
TABLEROW_BEGIN
 90
        3
 40
10.0
309
TABLEROW_END
301
ROW
  1
LINKEDTABLEDATAROW_BEGIN
 90
        5
300
CELL
  1
LINKEDTABLEDATACELL_BEGIN
 90
        0
300

 91
        0
301
CUSTOMDATA
  1
DATAMAP_BEGIN
 90
        0
309
DATAMAP_END
 92
        0
 95
        0
309
LINKEDTABLEDATACELL_END
  1
FORMATTEDTABLEDATACELL_BEGIN
300
CELLTABLEFORMAT
  1
TABLEFORMAT_BEGIN
 90
        1
170
     1
 91
        0
 92
        0
 62
   257
 93
        1
300
CONTENTFORMAT
  1
CONTENTFORMAT_BEGIN
 90
        0
 91
        0
 92
      512
 93
        0
300

 40
0.0
140
1.0
 94
        1
 62
     0
340
0
144
0.18
309
CONTENTFORMAT_END
171
     0
 94
        0
309
TABLEFORMAT_END
309
FORMATTEDTABLEDATACELL_END
  1
TABLECELL_BEGIN
 90
        0
 91
        0
309
TABLECELL_END
300
CELL
  1
LINKEDTABLEDATACELL_BEGIN
 90
        0
300

 91
        0
301
CUSTOMDATA
  1
DATAMAP_BEGIN
 90
        0
309
DATAMAP_END
 92
        0
 95
        0
309
LINKEDTABLEDATACELL_END
  1
FORMATTEDTABLEDATACELL_BEGIN
300
CELLTABLEFORMAT
  1
TABLEFORMAT_BEGIN
 90
        1
170
     1
 91
        0
 92
        0
 62
   257
 93
        1
300
CONTENTFORMAT
  1
CONTENTFORMAT_BEGIN
 90
        0
 91
        0
 92
      512
 93
        0
300

 40
0.0
140
1.0
 94
        1
 62
     0
340
0
144
0.18
309
CONTENTFORMAT_END
171
     0
 94
        0
309
TABLEFORMAT_END
309
FORMATTEDTABLEDATACELL_END
  1
TABLECELL_BEGIN
 90
        0
 91
        0
309
TABLECELL_END
300
CELL
  1
LINKEDTABLEDATACELL_BEGIN
 90
        0
300

 91
        0
301
CUSTOMDATA
  1
DATAMAP_BEGIN
 90
        0
309
DATAMAP_END
 92
        0
 95
        0
309
LINKEDTABLEDATACELL_END
  1
FORMATTEDTABLEDATACELL_BEGIN
300
CELLTABLEFORMAT
  1
TABLEFORMAT_BEGIN
 90
        1
170
     1
 91
        0
 92
        0
 62
   257
 93
        1
300
CONTENTFORMAT
  1
CONTENTFORMAT_BEGIN
 90
        0
 91
        0
 92
      512
 93
        0
300

 40
0.0
140
1.0
 94
        1
 62
     0
340
0
144
0.18
309
CONTENTFORMAT_END
171
     0
 94
        0
309
TABLEFORMAT_END
309
FORMATTEDTABLEDATACELL_END
  1
TABLECELL_BEGIN
 90
        0
 91
        0
309
TABLECELL_END
300
CELL
  1
LINKEDTABLEDATACELL_BEGIN
 90
        0
300

 91
        0
301
CUSTOMDATA
  1
DATAMAP_BEGIN
 90
        1
300
ACAD_ROUNDTRIP_2008_CELL_CHECKSUM
301
DATAMAP_VALUE
 93
        2
 90
        2
140
4774.0
 94
        0
300

302

304
ACVALUE_END
309
DATAMAP_END
 92
        0
 95
        1
302
CONTENT
  1
CELLCONTENT_BEGIN
 90
        1
300
VALUE
 93
        2
 90
        4
  1
DATE:30.08.22
 94
        0
300

302
DATE:30.08.22
304
ACVALUE_END
 91
        0
309
CELLCONTENT_END
  1
FORMATTEDCELLCONTENT_BEGIN
170
     1
300
CONTENTFORMAT
  1
CONTENTFORMAT_BEGIN
 90
      196
 91
        0
 92
      512
 93
        0
300

 40
0.0
140
1.0
 94
        1
 62
     0
340
206
144
2.5
309
CONTENTFORMAT_END
309
FORMATTEDCELLCONTENT_END
309
LINKEDTABLEDATACELL_END
  1
FORMATTEDTABLEDATACELL_BEGIN
300
CELLTABLEFORMAT
  1
TABLEFORMAT_BEGIN
 90
        1
170
     1
 91
       16
 92
        0
 62
   257
 93
        1
300
CONTENTFORMAT
  1
CONTENTFORMAT_BEGIN
 90
       16
 91
        0
 92
      512
 93
        0
300

 40
0.0
140
1.0
 94
        4
 62
     0
340
0
144
0.18
309
CONTENTFORMAT_END
171
     0
 94
        4
 95
        1
302
GRIDFORMAT
  1
GRIDFORMAT_BEGIN
 90
       26
 91
        1
 62
     0
 92
       -2
340
0
 93
        0
 40
0.045
309
GRIDFORMAT_END
 95
        4
302
GRIDFORMAT
  1
GRIDFORMAT_BEGIN
 90
       26
 91
        1
 62
     0
 92
       -2
340
0
 93
        0
 40
0.045
309
GRIDFORMAT_END
 95
        8
302
GRIDFORMAT
  1
GRIDFORMAT_BEGIN
 90
       26
 91
        1
 62
     0
 92
       -2
340
0
 93
        0
 40
0.045
309
GRIDFORMAT_END
 95
       32
302
GRIDFORMAT
  1
GRIDFORMAT_BEGIN
 90
       26
 91
        1
 62
     0
 92
       -2
340
0
 93
        0
 40
0.045
309
GRIDFORMAT_END
309
TABLEFORMAT_END
309
FORMATTEDTABLEDATACELL_END
  1
TABLECELL_BEGIN
 90
        0
 91
        0
309
TABLECELL_END
300
CELL
  1
LINKEDTABLEDATACELL_BEGIN
 90
        0
300

 91
        0
301
CUSTOMDATA
  1
DATAMAP_BEGIN
 90
        0
309
DATAMAP_END
 92
        0
 95
        0
309
LINKEDTABLEDATACELL_END
  1
FORMATTEDTABLEDATACELL_BEGIN
300
CELLTABLEFORMAT
  1
TABLEFORMAT_BEGIN
 90
        1
170
     1
 91
        0
 92
        0
 62
   257
 93
        1
300
CONTENTFORMAT
  1
CONTENTFORMAT_BEGIN
 90
        0
 91
        0
 92
      512
 93
        0
300

 40
0.0
140
1.0
 94
        1
 62
     0
340
0
144
0.18
309
CONTENTFORMAT_END
171
     0
 94
        0
309
TABLEFORMAT_END
309
FORMATTEDTABLEDATACELL_END
  1
TABLECELL_BEGIN
 90
        0
 91
        0
309
TABLECELL_END
 91
        0
301
CUSTOMDATA
  1
DATAMAP_BEGIN
 90
        0
309
DATAMAP_END
309
LINKEDTABLEDATAROW_END
  1
FORMATTEDTABLEDATAROW_BEGIN
300
ROWTABLEFORMAT
  1
TABLEFORMAT_BEGIN
 90
        2
170
     0
309
TABLEFORMAT_END
309
FORMATTEDTABLEDATAROW_END
  1
TABLEROW_BEGIN
 90
        3
 40
5.0
309
TABLEROW_END
301
ROW
  1
LINKEDTABLEDATAROW_BEGIN
 90
        5
300
CELL
  1
LINKEDTABLEDATACELL_BEGIN
 90
        0
300

 91
        0
301
CUSTOMDATA
  1
DATAMAP_BEGIN
 90
        1
300
ACAD_ROUNDTRIP_2008_CELL_CHECKSUM
301
DATAMAP_VALUE
 93
        2
 90
        2
140
1878387.0
 94
        0
300

302

304
ACVALUE_END
309
DATAMAP_END
 92
        0
 95
        1
302
CONTENT
  1
CELLCONTENT_BEGIN
 90
        1
300
VALUE
 93
        2
 90
        4
  1
Any integral or partial reproductions are prohibited \Pwithout prior authorisation of L {\Ftxt.shx;\W0.190476;\H2.250000; }& L Luce & Light s.r.l., \Pin accordance with the law in force. \PAll rights reserved.
 94
        0
300

302
Any integral or partial reproductions are prohibited \Pwithout prior authorisation of L {\Ftxt.shx;\W0.190476;\H2.250000; }& L Luce & Light s.r.l., \Pin accordance with the law in force. \PAll rights reserved.
304
ACVALUE_END
 91
        0
309
CELLCONTENT_END
  1
FORMATTEDCELLCONTENT_BEGIN
170
     1
300
CONTENTFORMAT
  1
CONTENTFORMAT_BEGIN
 90
      196
 91
        0
 92
      512
 93
        0
300

 40
0.0
140
1.0
 94
        1
 62
     0
340
206
144
2.25
309
CONTENTFORMAT_END
309
FORMATTEDCELLCONTENT_END
309
LINKEDTABLEDATACELL_END
  1
FORMATTEDTABLEDATACELL_BEGIN
300
CELLTABLEFORMAT
  1
TABLEFORMAT_BEGIN
 90
        1
170
     1
 91
       16
 92
        0
 62
   257
 93
        1
300
CONTENTFORMAT
  1
CONTENTFORMAT_BEGIN
 90
       16
 91
        0
 92
      512
 93
        0
300

 40
0.0
140
1.0
 94
        4
 62
     0
340
0
144
0.18
309
CONTENTFORMAT_END
171
     0
 94
        4
 95
        1
302
GRIDFORMAT
  1
GRIDFORMAT_BEGIN
 90
       26
 91
        1
 62
     0
 92
       -2
340
0
 93
        0
 40
0.045
309
GRIDFORMAT_END
 95
        4
302
GRIDFORMAT
  1
GRIDFORMAT_BEGIN
 90
       26
 91
        1
 62
     0
 92
       -2
340
0
 93
        0
 40
0.045
309
GRIDFORMAT_END
 95
        8
302
GRIDFORMAT
  1
GRIDFORMAT_BEGIN
 90
       26
 91
        1
 62
     0
 92
       -2
340
0
 93
        0
 40
0.045
309
GRIDFORMAT_END
 95
       32
302
GRIDFORMAT
  1
GRIDFORMAT_BEGIN
 90
       26
 91
        1
 62
     0
 92
       -2
340
0
 93
        0
 40
0.045
309
GRIDFORMAT_END
309
TABLEFORMAT_END
309
FORMATTEDTABLEDATACELL_END
  1
TABLECELL_BEGIN
 90
        0
 91
        0
309
TABLECELL_END
300
CELL
  1
LINKEDTABLEDATACELL_BEGIN
 90
        0
300

 91
        0
301
CUSTOMDATA
  1
DATAMAP_BEGIN
 90
        0
309
DATAMAP_END
 92
        0
 95
        0
309
LINKEDTABLEDATACELL_END
  1
FORMATTEDTABLEDATACELL_BEGIN
300
CELLTABLEFORMAT
  1
TABLEFORMAT_BEGIN
 90
        1
170
     1
 91
        0
 92
        0
 62
   257
 93
        1
300
CONTENTFORMAT
  1
CONTENTFORMAT_BEGIN
 90
        0
 91
        0
 92
      512
 93
        0
300

 40
0.0
140
1.0
 94
        1
 62
     0
340
0
144
0.18
309
CONTENTFORMAT_END
171
     0
 94
        0
309
TABLEFORMAT_END
309
FORMATTEDTABLEDATACELL_END
  1
TABLECELL_BEGIN
 90
        0
 91
        0
309
TABLECELL_END
300
CELL
  1
LINKEDTABLEDATACELL_BEGIN
 90
        0
300

 91
        0
301
CUSTOMDATA
  1
DATAMAP_BEGIN
 90
        0
309
DATAMAP_END
 92
        0
 95
        0
309
LINKEDTABLEDATACELL_END
  1
FORMATTEDTABLEDATACELL_BEGIN
300
CELLTABLEFORMAT
  1
TABLEFORMAT_BEGIN
 90
        1
170
     1
 91
        0
 92
        0
 62
   257
 93
        1
300
CONTENTFORMAT
  1
CONTENTFORMAT_BEGIN
 90
        0
 91
        0
 92
      512
 93
        0
300

 40
0.0
140
1.0
 94
        1
 62
     0
340
0
144
0.18
309
CONTENTFORMAT_END
171
     0
 94
        0
309
TABLEFORMAT_END
309
FORMATTEDTABLEDATACELL_END
  1
TABLECELL_BEGIN
 90
        0
 91
        0
309
TABLECELL_END
300
CELL
  1
LINKEDTABLEDATACELL_BEGIN
 90
        0
300

 91
        0
301
CUSTOMDATA
  1
DATAMAP_BEGIN
 90
        0
309
DATAMAP_END
 92
        0
 95
        0
309
LINKEDTABLEDATACELL_END
  1
FORMATTEDTABLEDATACELL_BEGIN
300
CELLTABLEFORMAT
  1
TABLEFORMAT_BEGIN
 90
        1
170
     1
 91
        0
 92
        0
 62
   257
 93
        1
300
CONTENTFORMAT
  1
CONTENTFORMAT_BEGIN
 90
        0
 91
        0
 92
      512
 93
        0
300

 40
0.0
140
1.0
 94
        1
 62
     0
340
0
144
0.18
309
CONTENTFORMAT_END
171
     0
 94
        0
309
TABLEFORMAT_END
309
FORMATTEDTABLEDATACELL_END
  1
TABLECELL_BEGIN
 90
        0
 91
        0
309
TABLECELL_END
300
CELL
  1
LINKEDTABLEDATACELL_BEGIN
 90
        0
300

 91
        0
301
CUSTOMDATA
  1
DATAMAP_BEGIN
 90
        0
309
DATAMAP_END
 92
        0
 95
        0
309
LINKEDTABLEDATACELL_END
  1
FORMATTEDTABLEDATACELL_BEGIN
300
CELLTABLEFORMAT
  1
TABLEFORMAT_BEGIN
 90
        1
170
     1
 91
        0
 92
        0
 62
   257
 93
        1
300
CONTENTFORMAT
  1
CONTENTFORMAT_BEGIN
 90
        0
 91
        0
 92
      512
 93
        0
300

 40
0.0
140
1.0
 94
        1
 62
     0
340
0
144
0.18
309
CONTENTFORMAT_END
171
     0
 94
        0
309
TABLEFORMAT_END
309
FORMATTEDTABLEDATACELL_END
  1
TABLECELL_BEGIN
 90
        0
 91
        0
309
TABLECELL_END
 91
        0
301
CUSTOMDATA
  1
DATAMAP_BEGIN
 90
        0
309
DATAMAP_END
309
LINKEDTABLEDATAROW_END
  1
FORMATTEDTABLEDATAROW_BEGIN
300
ROWTABLEFORMAT
  1
TABLEFORMAT_BEGIN
 90
        2
170
     0
309
TABLEFORMAT_END
309
FORMATTEDTABLEDATAROW_END
  1
TABLEROW_BEGIN
 90
        3
 40
13.0
309
TABLEROW_END
100
AcDbFormattedTableData
300
TABLEFORMAT
  1
TABLEFORMAT_BEGIN
 90
        4
170
     1
 91
    15360
 92
        0
 62
   257
 93
        1
300
CONTENTFORMAT
  1
CONTENTFORMAT_BEGIN
 90
        0
 91
        0
 92
      512
 93
        0
300

 40
0.0
140
1.0
 94
        1
 62
     0
340
0
144
0.18
309
CONTENTFORMAT_END
171
     1
301
MARGIN
  1
CELLMARGIN_BEGIN
 40
0.06
 40
0.06
 40
0.06
 40
0.06
 40
0.06
 40
0.06
309
CELLMARGIN_END
 94
        0
309
TABLEFORMAT_END
 90
        4
 91
        0
 92
        0
 93
        3
 94
        2
 91
        2
 92
        3
 93
        2
 94
        4
 91
        3
 92
        3
 93
        3
 94
        4
 91
        4
 92
        0
 93
        4
 94
        4
100
AcDbTableContent
340
526
  0
TABLEGEOMETRY
  5
553
330
555
100
AcDbTableGeometry
 90
        5
 91
        5
 92
       25
 93
        0
 40
0.0
 41
0.0
330
0
 94
        0
 93
        0
 40
0.0
 41
0.0
330
0
 94
        0
 93
        0
 40
0.0
 41
0.0
330
0
 94
        0
 93
        0
 40
0.0
 41
0.0
330
0
 94
        0
 93
        0
 40
0.0
 41
0.0
330
0
 94
        0
 93
        0
 40
0.0
 41
0.0
330
0
 94
        0
 93
        0
 40
0.0
 41
0.0
330
0
 94
        0
 93
        0
 40
0.0
 41
0.0
330
0
 94
        0
 93
        0
 40
0.0
 41
0.0
330
0
 94
        0
 93
        0
 40
0.0
 41
0.0
330
0
 94
        0
 93
        0
 40
0.0
 41
0.0
330
0
 94
        0
 93
        0
 40
0.0
 41
0.0
330
0
 94
        0
 93
        0
 40
0.0
 41
0.0
330
0
 94
        0
 93
        0
 40
0.0
 41
0.0
330
0
 94
        0
 93
        0
 40
0.0
 41
0.0
330
0
 94
        0
 93
        0
 40
0.0
 41
0.0
330
0
 94
        0
 93
        0
 40
0.0
 41
0.0
330
0
 94
        0
 93
        0
 40
0.0
 41
0.0
330
0
 94
        0
 93
        0
 40
0.0
 41
0.0
330
0
 94
        0
 93
        0
 40
0.0
 41
0.0
330
0
 94
        0
 93
        0
 40
0.0
 41
0.0
330
0
 94
        0
 93
        0
 40
0.0
 41
0.0
330
0
 94
        0
 93
        0
 40
0.0
 41
0.0
330
0
 94
        0
 93
        0
 40
0.0
 41
0.0
330
0
 94
        0
 93
        0
 40
0.0
 41
0.0
330
0
 94
        0
  0
DICTIONARY
  5
558
330
526
100
AcDbDictionary
280
     1
281
     1
  3
ACAD_ROUNDTRIP_2008_TABLESTYLE_CELLSTYLEMAP
360
559
  0
DICTIONARY
  5
562
330
52D
100
AcDbDictionary
280
     1
281
     1
  3
ACAD_XREC_ROUNDTRIP
360
563
  0
DICTIONARY
  5
568
330
530
100
AcDbDictionary
280
     1
281
     1
  3
ACAD_XREC_ROUNDTRIP
360
569
  0
DICTIONARY
  5
570
330
534
100
AcDbDictionary
280
     1
281
     1
  3
ACAD_XREC_ROUNDTRIP
360
571
  0
DICTIONARY
  5
578
330
538
100
AcDbDictionary
280
     1
281
     1
  3
ACAD_XREC_ROUNDTRIP
360
579
  0
DICTIONARY
  5
56C
330
532
100
AcDbDictionary
280
     1
281
     1
  3
ACAD_XREC_ROUNDTRIP
360
56D
  0
DICTIONARY
  5
56E
330
533
100
AcDbDictionary
280
     1
281
     1
  3
ACAD_XREC_ROUNDTRIP
360
56F
  0
DICTIONARY
  5
57E
330
53B
100
AcDbDictionary
280
     1
281
     1
  3
ACAD_XREC_ROUNDTRIP
360
57F
  0
DICTIONARY
  5
576
330
537
100
AcDbDictionary
280
     1
281
     1
  3
ACAD_XREC_ROUNDTRIP
360
577
  0
DICTIONARY
  5
55A
330
529
100
AcDbDictionary
280
     1
281
     1
  3
ACAD_XREC_ROUNDTRIP
360
55B
  0
DICTIONARY
  5
55C
330
52A
100
AcDbDictionary
280
     1
281
     1
  3
ACAD_XREC_ROUNDTRIP
360
55D
  0
DICTIONARY
  5
55E
330
52B
100
AcDbDictionary
280
     1
281
     1
  3
ACAD_XREC_ROUNDTRIP
360
55F
  0
DICTIONARY
  5
560
330
52C
100
AcDbDictionary
280
     1
281
     1
  3
ACAD_XREC_ROUNDTRIP
360
561
  0
DICTIONARY
  5
566
330
52F
100
AcDbDictionary
280
     1
281
     1
  3
ACAD_XREC_ROUNDTRIP
360
567
  0
DICTIONARY
  5
57A
330
539
100
AcDbDictionary
280
     1
281
     1
  3
ACAD_XREC_ROUNDTRIP
360
57B
  0
DICTIONARY
  5
574
330
536
100
AcDbDictionary
280
     1
281
     1
  3
ACAD_XREC_ROUNDTRIP
360
575
  0
DICTIONARY
  5
57C
330
53A
100
AcDbDictionary
280
     1
281
     1
  3
ACAD_XREC_ROUNDTRIP
360
57D
  0
DICTIONARY
  5
56A
330
531
100
AcDbDictionary
280
     1
281
     1
  3
ACAD_XREC_ROUNDTRIP
360
56B
  0
DICTIONARY
  5
588
330
540
100
AcDbDictionary
280
     1
281
     1
  3
ACAD_XREC_ROUNDTRIP
360
589
  0
DICTIONARY
  5
586
330
53F
100
AcDbDictionary
280
     1
281
     1
  3
ACAD_XREC_ROUNDTRIP
360
587
  0
DICTIONARY
  5
580
330
53C
100
AcDbDictionary
280
     1
281
     1
  3
ACAD_XREC_ROUNDTRIP
360
581
  0
DICTIONARY
  5
582
330
53D
100
AcDbDictionary
280
     1
281
     1
  3
ACAD_XREC_ROUNDTRIP
360
583
  0
DICTIONARY
  5
572
330
535
100
AcDbDictionary
280
     1
281
     1
  3
ACAD_XREC_ROUNDTRIP
360
573
  0
DICTIONARY
  5
564
330
52E
100
AcDbDictionary
280
     1
281
     1
  3
ACAD_XREC_ROUNDTRIP
360
565
  0
DICTIONARY
  5
584
330
53E
100
AcDbDictionary
280
     1
281
     1
  3
ACAD_XREC_ROUNDTRIP
360
585
  0
CELLSTYLEMAP
  5
559
102
{ACAD_REACTORS
330
558
102
}
330
558
100
AcDbCellStyleMap
 90
        3
300
CELLSTYLE
  1
TABLEFORMAT_BEGIN
 90
        5
170
     1
 91
        0
 92
        0
 62
   257
 93
        1
300
CONTENTFORMAT
  1
CONTENTFORMAT_BEGIN
 90
        0
 91
        0
 92
        4
 93
        0
300

 40
0.0
140
1.0
 94
        5
 62
     0
340
11
144
6.0
309
CONTENTFORMAT_END
171
     1
301
MARGIN
  1
CELLMARGIN_BEGIN
 40
1.5
 40
1.5
 40
1.5
 40
1.5
 40
1.5
 40
1.5
309
CELLMARGIN_END
 94
        6
 95
        1
302
GRIDFORMAT
  1
GRIDFORMAT_BEGIN
 90
        0
 91
        1
 62
     0
 92
       -2
340
14
 93
        0
 40
0.045
309
GRIDFORMAT_END
 95
        2
302
GRIDFORMAT
  1
GRIDFORMAT_BEGIN
 90
        0
 91
        1
 62
     0
 92
       -2
340
14
 93
        0
 40
0.045
309
GRIDFORMAT_END
 95
        4
302
GRIDFORMAT
  1
GRIDFORMAT_BEGIN
 90
        0
 91
        1
 62
     0
 92
       -2
340
14
 93
        0
 40
0.045
309
GRIDFORMAT_END
 95
        8
302
GRIDFORMAT
  1
GRIDFORMAT_BEGIN
 90
        0
 91
        1
 62
     0
 92
       -2
340
14
 93
        0
 40
0.045
309
GRIDFORMAT_END
 95
       16
302
GRIDFORMAT
  1
GRIDFORMAT_BEGIN
 90
        0
 91
        1
 62
     0
 92
       -2
340
14
 93
        0
 40
0.045
309
GRIDFORMAT_END
 95
       32
302
GRIDFORMAT
  1
GRIDFORMAT_BEGIN
 90
        0
 91
        1
 62
     0
 92
       -2
340
14
 93
        0
 40
0.045
309
GRIDFORMAT_END
309
TABLEFORMAT_END
  1
CELLSTYLE_BEGIN
 90
        1
 91
        1
300
_TITLE
309
CELLSTYLE_END
300
CELLSTYLE
  1
TABLEFORMAT_BEGIN
 90
        5
170
     1
 91
        0
 92
        0
 62
   257
 93
        1
300
CONTENTFORMAT
  1
CONTENTFORMAT_BEGIN
 90
        0
 91
        0
 92
        4
 93
        0
300

 40
0.0
140
1.0
 94
        5
 62
     0
340
11
144
4.5
309
CONTENTFORMAT_END
171
     1
301
MARGIN
  1
CELLMARGIN_BEGIN
 40
1.5
 40
1.5
 40
1.5
 40
1.5
 40
1.5
 40
1.5
309
CELLMARGIN_END
 94
        6
 95
        1
302
GRIDFORMAT
  1
GRIDFORMAT_BEGIN
 90
        0
 91
        1
 62
     0
 92
       -2
340
14
 93
        0
 40
0.045
309
GRIDFORMAT_END
 95
        2
302
GRIDFORMAT
  1
GRIDFORMAT_BEGIN
 90
        0
 91
        1
 62
     0
 92
       -2
340
14
 93
        0
 40
0.045
309
GRIDFORMAT_END
 95
        4
302
GRIDFORMAT
  1
GRIDFORMAT_BEGIN
 90
        0
 91
        1
 62
     0
 92
       -2
340
14
 93
        0
 40
0.045
309
GRIDFORMAT_END
 95
        8
302
GRIDFORMAT
  1
GRIDFORMAT_BEGIN
 90
        0
 91
        1
 62
     0
 92
       -2
340
14
 93
        0
 40
0.045
309
GRIDFORMAT_END
 95
       16
302
GRIDFORMAT
  1
GRIDFORMAT_BEGIN
 90
        0
 91
        1
 62
     0
 92
       -2
340
14
 93
        0
 40
0.045
309
GRIDFORMAT_END
 95
       32
302
GRIDFORMAT
  1
GRIDFORMAT_BEGIN
 90
        0
 91
        1
 62
     0
 92
       -2
340
14
 93
        0
 40
0.045
309
GRIDFORMAT_END
309
TABLEFORMAT_END
  1
CELLSTYLE_BEGIN
 90
        2
 91
        1
300
_HEADER
309
CELLSTYLE_END
300
CELLSTYLE
  1
TABLEFORMAT_BEGIN
 90
        5
170
     1
 91
        0
 92
        0
 62
   257
 93
        1
300
CONTENTFORMAT
  1
CONTENTFORMAT_BEGIN
 90
        0
 91
        0
 92
        4
 93
        0
300

 40
0.0
140
1.0
 94
        2
 62
     0
340
11
144
4.5
309
CONTENTFORMAT_END
171
     1
301
MARGIN
  1
CELLMARGIN_BEGIN
 40
1.5
 40
1.5
 40
1.5
 40
1.5
 40
1.5
 40
1.5
309
CELLMARGIN_END
 94
        6
 95
        1
302
GRIDFORMAT
  1
GRIDFORMAT_BEGIN
 90
        0
 91
        1
 62
     0
 92
       -2
340
14
 93
        0
 40
0.045
309
GRIDFORMAT_END
 95
        2
302
GRIDFORMAT
  1
GRIDFORMAT_BEGIN
 90
        0
 91
        1
 62
     0
 92
       -2
340
14
 93
        0
 40
0.045
309
GRIDFORMAT_END
 95
        4
302
GRIDFORMAT
  1
GRIDFORMAT_BEGIN
 90
        0
 91
        1
 62
     0
 92
       -2
340
14
 93
        0
 40
0.045
309
GRIDFORMAT_END
 95
        8
302
GRIDFORMAT
  1
GRIDFORMAT_BEGIN
 90
        0
 91
        1
 62
     0
 92
       -2
340
14
 93
        0
 40
0.045
309
GRIDFORMAT_END
 95
       16
302
GRIDFORMAT
  1
GRIDFORMAT_BEGIN
 90
        0
 91
        1
 62
     0
 92
       -2
340
14
 93
        0
 40
0.045
309
GRIDFORMAT_END
 95
       32
302
GRIDFORMAT
  1
GRIDFORMAT_BEGIN
 90
        0
 91
        1
 62
     0
 92
       -2
340
14
 93
        0
 40
0.045
309
GRIDFORMAT_END
309
TABLEFORMAT_END
  1
CELLSTYLE_BEGIN
 90
        3
 91
        2
300
_DATA
309
CELLSTYLE_END
  0
XRECORD
  5
563
102
{ACAD_REACTORS
330
562
102
}
330
562
100
AcDbXrecord
280
     1
102
RTVSPost2010Prop28
280
     1
102
RTVSPost2010PropOp28
 70
     1
102
RTVSPost2010Prop29
280
     1
102
RTVSPost2010PropOp29
 70
     1
102
RTVSPost2010Prop30
280
     0
102
RTVSPost2010PropOp30
 70
     1
102
RTVSPost2010Prop31
280
     0
102
RTVSPost2010PropOp31
 70
     1
102
RTVSPost2010Prop32
280
     0
102
RTVSPost2010PropOp32
 70
     1
102
RTVSPost2010Prop33
280
     0
102
RTVSPost2010PropOp33
 70
     1
102
RTVSPost2010Prop34
280
     0
102
RTVSPost2010PropOp34
 70
     1
102
RTVSPost2010Prop35
280
     0
102
RTVSPost2010PropOp35
 70
     1
102
RTVSPost2010Prop36
280
     0
102
RTVSPost2010PropOp36
 70
     1
102
RTVSPost2010Prop37
 90
       50
102
RTVSPost2010PropOp37
 70
     1
102
RTVSPost2010Prop38
140
0.0
102
RTVSPost2010PropOp38
 70
     1
102
RTVSPost2010Prop39
140
1.0
102
RTVSPost2010PropOp39
 70
     1
102
RTVSPost2010Prop40
 90
        0
102
RTVSPost2010PropOp40
 70
     1
102
RTVSPost2010Prop41ColorIndex
 90
       18
102
RTVSPost2010Prop41ColorRGB
 90
        0
102
RTVSPost2010PropOp41
 70
     1
102
RTVSPost2010Prop42
 90
       50
102
RTVSPost2010PropOp42
 70
     1
102
RTVSPost2010Prop43
 90
        3
102
RTVSPost2010PropOp43
 70
     1
102
RTVSPost2010Prop44ColorIndex
 90
        5
102
RTVSPost2010Prop44ColorRGB
 90
      255
102
RTVSPost2010PropOp44
 70
     1
102
RTVSPost2010Prop45
280
     0
102
RTVSPost2010PropOp45
 70
     1
102
RTVSPost2010Prop46
 90
       50
102
RTVSPost2010PropOp46
 70
     1
102
RTVSPost2010Prop47
 90
       50
102
RTVSPost2010PropOp47
 70
     1
102
RTVSPost2010Prop48
 90
       50
102
RTVSPost2010PropOp48
 70
     1
102
RTVSPost2010Prop49
280
     0
102
RTVSPost2010PropOp49
 70
     1
102
RTVSPost2010Prop50
 90
       50
102
RTVSPost2010PropOp50
 70
     1
102
RTVSPost2010Prop51ColorIndex
 90
      256
102
RTVSPost2010Prop51ColorRGB
 90
-16777216
102
RTVSPost2010PropOp51
 70
     0
102
RTVSPost2010Prop52
140
1.0
102
RTVSPost2010PropOp52
 70
     0
102
RTVSPost2010Prop53
 90
        2
102
RTVSPost2010PropOp53
 70
     1
102
RTVSPost2010Prop54
  1
strokes_ogs.tif
102
RTVSPost2010PropOp54
 70
     1
102
RTVSPost2010Prop55
280
     0
102
RTVSPost2010PropOp55
 70
     1
102
RTVSPost2010Prop56
140
1.0
102
RTVSPost2010PropOp56
 70
     1
102
RTVSPost2010Prop57
140
1.0
102
RTVSPost2010PropOp57
 70
     1
  0
XRECORD
  5
569
102
{ACAD_REACTORS
330
568
102
}
330
568
100
AcDbXrecord
280
     1
102
RTVSPost2010Prop28
280
     0
102
RTVSPost2010PropOp28
 70
     1
102
RTVSPost2010Prop29
280
     1
102
RTVSPost2010PropOp29
 70
     1
102
RTVSPost2010Prop30
280
     1
102
RTVSPost2010PropOp30
 70
     1
102
RTVSPost2010Prop31
280
     0
102
RTVSPost2010PropOp31
 70
     1
102
RTVSPost2010Prop32
280
     0
102
RTVSPost2010PropOp32
 70
     1
102
RTVSPost2010Prop33
280
     0
102
RTVSPost2010PropOp33
 70
     1
102
RTVSPost2010Prop34
280
     0
102
RTVSPost2010PropOp34
 70
     1
102
RTVSPost2010Prop35
280
     0
102
RTVSPost2010PropOp35
 70
     1
102
RTVSPost2010Prop36
280
     0
102
RTVSPost2010PropOp36
 70
     1
102
RTVSPost2010Prop37
 90
       50
102
RTVSPost2010PropOp37
 70
     1
102
RTVSPost2010Prop38
140
0.0
102
RTVSPost2010PropOp38
 70
     1
102
RTVSPost2010Prop39
140
1.0
102
RTVSPost2010PropOp39
 70
     1
102
RTVSPost2010Prop40
 90
        0
102
RTVSPost2010PropOp40
 70
     1
102
RTVSPost2010Prop41ColorIndex
 90
       18
102
RTVSPost2010Prop41ColorRGB
 90
        0
102
RTVSPost2010PropOp41
 70
     1
102
RTVSPost2010Prop42
 90
       50
102
RTVSPost2010PropOp42
 70
     1
102
RTVSPost2010Prop43
 90
        3
102
RTVSPost2010PropOp43
 70
     1
102
RTVSPost2010Prop44ColorIndex
 90
        5
102
RTVSPost2010Prop44ColorRGB
 90
      255
102
RTVSPost2010PropOp44
 70
     1
102
RTVSPost2010Prop45
280
     0
102
RTVSPost2010PropOp45
 70
     1
102
RTVSPost2010Prop46
 90
       50
102
RTVSPost2010PropOp46
 70
     1
102
RTVSPost2010Prop47
 90
       50
102
RTVSPost2010PropOp47
 70
     1
102
RTVSPost2010Prop48
 90
       50
102
RTVSPost2010PropOp48
 70
     1
102
RTVSPost2010Prop49
280
     0
102
RTVSPost2010PropOp49
 70
     1
102
RTVSPost2010Prop50
 90
       50
102
RTVSPost2010PropOp50
 70
     1
102
RTVSPost2010Prop51ColorIndex
 90
      256
102
RTVSPost2010Prop51ColorRGB
 90
-16777216
102
RTVSPost2010PropOp51
 70
     0
102
RTVSPost2010Prop52
140
1.0
102
RTVSPost2010PropOp52
 70
     0
102
RTVSPost2010Prop53
 90
        2
102
RTVSPost2010PropOp53
 70
     1
102
RTVSPost2010Prop54
  1
strokes_ogs.tif
102
RTVSPost2010PropOp54
 70
     1
102
RTVSPost2010Prop55
280
     0
102
RTVSPost2010PropOp55
 70
     1
102
RTVSPost2010Prop56
140
1.0
102
RTVSPost2010PropOp56
 70
     1
102
RTVSPost2010Prop57
140
1.0
102
RTVSPost2010PropOp57
 70
     1
  0
XRECORD
  5
571
102
{ACAD_REACTORS
330
570
102
}
330
570
100
AcDbXrecord
280
     1
102
RTVSPost2010Prop28
280
     0
102
RTVSPost2010PropOp28
 70
     1
102
RTVSPost2010Prop29
280
     1
102
RTVSPost2010PropOp29
 70
     1
102
RTVSPost2010Prop30
280
     1
102
RTVSPost2010PropOp30
 70
     1
102
RTVSPost2010Prop31
280
     0
102
RTVSPost2010PropOp31
 70
     1
102
RTVSPost2010Prop32
280
     0
102
RTVSPost2010PropOp32
 70
     1
102
RTVSPost2010Prop33
280
     0
102
RTVSPost2010PropOp33
 70
     1
102
RTVSPost2010Prop34
280
     0
102
RTVSPost2010PropOp34
 70
     1
102
RTVSPost2010Prop35
280
     0
102
RTVSPost2010PropOp35
 70
     1
102
RTVSPost2010Prop36
280
     0
102
RTVSPost2010PropOp36
 70
     1
102
RTVSPost2010Prop37
 90
       50
102
RTVSPost2010PropOp37
 70
     1
102
RTVSPost2010Prop38
140
0.0
102
RTVSPost2010PropOp38
 70
     1
102
RTVSPost2010Prop39
140
1.0
102
RTVSPost2010PropOp39
 70
     1
102
RTVSPost2010Prop40
 90
        0
102
RTVSPost2010PropOp40
 70
     1
102
RTVSPost2010Prop41ColorIndex
 90
       18
102
RTVSPost2010Prop41ColorRGB
 90
        0
102
RTVSPost2010PropOp41
 70
     1
102
RTVSPost2010Prop42
 90
       50
102
RTVSPost2010PropOp42
 70
     1
102
RTVSPost2010Prop43
 90
        3
102
RTVSPost2010PropOp43
 70
     1
102
RTVSPost2010Prop44ColorIndex
 90
        5
102
RTVSPost2010Prop44ColorRGB
 90
      255
102
RTVSPost2010PropOp44
 70
     1
102
RTVSPost2010Prop45
280
     0
102
RTVSPost2010PropOp45
 70
     1
102
RTVSPost2010Prop46
 90
       50
102
RTVSPost2010PropOp46
 70
     1
102
RTVSPost2010Prop47
 90
       50
102
RTVSPost2010PropOp47
 70
     1
102
RTVSPost2010Prop48
 90
       50
102
RTVSPost2010PropOp48
 70
     1
102
RTVSPost2010Prop49
280
     0
102
RTVSPost2010PropOp49
 70
     1
102
RTVSPost2010Prop50
 90
       50
102
RTVSPost2010PropOp50
 70
     1
102
RTVSPost2010Prop51ColorIndex
 90
      256
102
RTVSPost2010Prop51ColorRGB
 90
-16777216
102
RTVSPost2010PropOp51
 70
     0
102
RTVSPost2010Prop52
140
1.0
102
RTVSPost2010PropOp52
 70
     0
102
RTVSPost2010Prop53
 90
        2
102
RTVSPost2010PropOp53
 70
     1
102
RTVSPost2010Prop54
  1
strokes_ogs.tif
102
RTVSPost2010PropOp54
 70
     1
102
RTVSPost2010Prop55
280
     0
102
RTVSPost2010PropOp55
 70
     1
102
RTVSPost2010Prop56
140
1.0
102
RTVSPost2010PropOp56
 70
     1
102
RTVSPost2010Prop57
140
1.0
102
RTVSPost2010PropOp57
 70
     1
  0
XRECORD
  5
579
102
{ACAD_REACTORS
330
578
102
}
330
578
100
AcDbXrecord
280
     1
102
RTVSPost2010Prop28
280
     0
102
RTVSPost2010PropOp28
 70
     1
102
RTVSPost2010Prop29
280
     1
102
RTVSPost2010PropOp29
 70
     1
102
RTVSPost2010Prop30
280
     1
102
RTVSPost2010PropOp30
 70
     1
102
RTVSPost2010Prop31
280
     0
102
RTVSPost2010PropOp31
 70
     1
102
RTVSPost2010Prop32
280
     0
102
RTVSPost2010PropOp32
 70
     1
102
RTVSPost2010Prop33
280
     0
102
RTVSPost2010PropOp33
 70
     1
102
RTVSPost2010Prop34
280
     0
102
RTVSPost2010PropOp34
 70
     1
102
RTVSPost2010Prop35
280
     0
102
RTVSPost2010PropOp35
 70
     1
102
RTVSPost2010Prop36
280
     0
102
RTVSPost2010PropOp36
 70
     1
102
RTVSPost2010Prop37
 90
       50
102
RTVSPost2010PropOp37
 70
     1
102
RTVSPost2010Prop38
140
0.0
102
RTVSPost2010PropOp38
 70
     1
102
RTVSPost2010Prop39
140
1.0
102
RTVSPost2010PropOp39
 70
     1
102
RTVSPost2010Prop40
 90
        0
102
RTVSPost2010PropOp40
 70
     1
102
RTVSPost2010Prop41ColorIndex
 90
       18
102
RTVSPost2010Prop41ColorRGB
 90
        0
102
RTVSPost2010PropOp41
 70
     1
102
RTVSPost2010Prop42
 90
       50
102
RTVSPost2010PropOp42
 70
     1
102
RTVSPost2010Prop43
 90
        3
102
RTVSPost2010PropOp43
 70
     1
102
RTVSPost2010Prop44ColorIndex
 90
        5
102
RTVSPost2010Prop44ColorRGB
 90
      255
102
RTVSPost2010PropOp44
 70
     1
102
RTVSPost2010Prop45
280
     0
102
RTVSPost2010PropOp45
 70
     1
102
RTVSPost2010Prop46
 90
       50
102
RTVSPost2010PropOp46
 70
     1
102
RTVSPost2010Prop47
 90
       50
102
RTVSPost2010PropOp47
 70
     1
102
RTVSPost2010Prop48
 90
       50
102
RTVSPost2010PropOp48
 70
     1
102
RTVSPost2010Prop49
280
     0
102
RTVSPost2010PropOp49
 70
     1
102
RTVSPost2010Prop50
 90
       50
102
RTVSPost2010PropOp50
 70
     1
102
RTVSPost2010Prop51ColorIndex
 90
      256
102
RTVSPost2010Prop51ColorRGB
 90
-16777216
102
RTVSPost2010PropOp51
 70
     0
102
RTVSPost2010Prop52
140
1.0
102
RTVSPost2010PropOp52
 70
     0
102
RTVSPost2010Prop53
 90
        2
102
RTVSPost2010PropOp53
 70
     1
102
RTVSPost2010Prop54
  1
strokes_ogs.tif
102
RTVSPost2010PropOp54
 70
     1
102
RTVSPost2010Prop55
280
     0
102
RTVSPost2010PropOp55
 70
     1
102
RTVSPost2010Prop56
140
1.0
102
RTVSPost2010PropOp56
 70
     1
102
RTVSPost2010Prop57
140
1.0
102
RTVSPost2010PropOp57
 70
     1
  0
XRECORD
  5
56D
102
{ACAD_REACTORS
330
56C
102
}
330
56C
100
AcDbXrecord
280
     1
102
RTVSPost2010Prop28
280
     0
102
RTVSPost2010PropOp28
 70
     1
102
RTVSPost2010Prop29
280
     1
102
RTVSPost2010PropOp29
 70
     1
102
RTVSPost2010Prop30
280
     1
102
RTVSPost2010PropOp30
 70
     1
102
RTVSPost2010Prop31
280
     0
102
RTVSPost2010PropOp31
 70
     1
102
RTVSPost2010Prop32
280
     0
102
RTVSPost2010PropOp32
 70
     1
102
RTVSPost2010Prop33
280
     0
102
RTVSPost2010PropOp33
 70
     1
102
RTVSPost2010Prop34
280
     0
102
RTVSPost2010PropOp34
 70
     1
102
RTVSPost2010Prop35
280
     0
102
RTVSPost2010PropOp35
 70
     1
102
RTVSPost2010Prop36
280
     0
102
RTVSPost2010PropOp36
 70
     1
102
RTVSPost2010Prop37
 90
       50
102
RTVSPost2010PropOp37
 70
     1
102
RTVSPost2010Prop38
140
0.0
102
RTVSPost2010PropOp38
 70
     1
102
RTVSPost2010Prop39
140
1.0
102
RTVSPost2010PropOp39
 70
     1
102
RTVSPost2010Prop40
 90
        0
102
RTVSPost2010PropOp40
 70
     1
102
RTVSPost2010Prop41ColorIndex
 90
       18
102
RTVSPost2010Prop41ColorRGB
 90
        0
102
RTVSPost2010PropOp41
 70
     1
102
RTVSPost2010Prop42
 90
       50
102
RTVSPost2010PropOp42
 70
     1
102
RTVSPost2010Prop43
 90
        3
102
RTVSPost2010PropOp43
 70
     1
102
RTVSPost2010Prop44ColorIndex
 90
        5
102
RTVSPost2010Prop44ColorRGB
 90
      255
102
RTVSPost2010PropOp44
 70
     1
102
RTVSPost2010Prop45
280
     0
102
RTVSPost2010PropOp45
 70
     1
102
RTVSPost2010Prop46
 90
       50
102
RTVSPost2010PropOp46
 70
     1
102
RTVSPost2010Prop47
 90
       50
102
RTVSPost2010PropOp47
 70
     1
102
RTVSPost2010Prop48
 90
       50
102
RTVSPost2010PropOp48
 70
     1
102
RTVSPost2010Prop49
280
     0
102
RTVSPost2010PropOp49
 70
     1
102
RTVSPost2010Prop50
 90
       50
102
RTVSPost2010PropOp50
 70
     1
102
RTVSPost2010Prop51ColorIndex
 90
      256
102
RTVSPost2010Prop51ColorRGB
 90
-16777216
102
RTVSPost2010PropOp51
 70
     0
102
RTVSPost2010Prop52
140
1.0
102
RTVSPost2010PropOp52
 70
     0
102
RTVSPost2010Prop53
 90
        2
102
RTVSPost2010PropOp53
 70
     1
102
RTVSPost2010Prop54
  1
strokes_ogs.tif
102
RTVSPost2010PropOp54
 70
     1
102
RTVSPost2010Prop55
280
     0
102
RTVSPost2010PropOp55
 70
     1
102
RTVSPost2010Prop56
140
1.0
102
RTVSPost2010PropOp56
 70
     1
102
RTVSPost2010Prop57
140
1.0
102
RTVSPost2010PropOp57
 70
     1
  0
XRECORD
  5
56F
102
{ACAD_REACTORS
330
56E
102
}
330
56E
100
AcDbXrecord
280
     1
102
RTVSPost2010Prop28
280
     0
102
RTVSPost2010PropOp28
 70
     1
102
RTVSPost2010Prop29
280
     1
102
RTVSPost2010PropOp29
 70
     1
102
RTVSPost2010Prop30
280
     1
102
RTVSPost2010PropOp30
 70
     1
102
RTVSPost2010Prop31
280
     0
102
RTVSPost2010PropOp31
 70
     1
102
RTVSPost2010Prop32
280
     0
102
RTVSPost2010PropOp32
 70
     1
102
RTVSPost2010Prop33
280
     0
102
RTVSPost2010PropOp33
 70
     1
102
RTVSPost2010Prop34
280
     0
102
RTVSPost2010PropOp34
 70
     1
102
RTVSPost2010Prop35
280
     0
102
RTVSPost2010PropOp35
 70
     1
102
RTVSPost2010Prop36
280
     0
102
RTVSPost2010PropOp36
 70
     1
102
RTVSPost2010Prop37
 90
       50
102
RTVSPost2010PropOp37
 70
     1
102
RTVSPost2010Prop38
140
0.0
102
RTVSPost2010PropOp38
 70
     1
102
RTVSPost2010Prop39
140
1.0
102
RTVSPost2010PropOp39
 70
     1
102
RTVSPost2010Prop40
 90
        0
102
RTVSPost2010PropOp40
 70
     1
102
RTVSPost2010Prop41ColorIndex
 90
       18
102
RTVSPost2010Prop41ColorRGB
 90
        0
102
RTVSPost2010PropOp41
 70
     1
102
RTVSPost2010Prop42
 90
       50
102
RTVSPost2010PropOp42
 70
     1
102
RTVSPost2010Prop43
 90
        3
102
RTVSPost2010PropOp43
 70
     1
102
RTVSPost2010Prop44ColorIndex
 90
        5
102
RTVSPost2010Prop44ColorRGB
 90
      255
102
RTVSPost2010PropOp44
 70
     1
102
RTVSPost2010Prop45
280
     0
102
RTVSPost2010PropOp45
 70
     1
102
RTVSPost2010Prop46
 90
       50
102
RTVSPost2010PropOp46
 70
     1
102
RTVSPost2010Prop47
 90
       50
102
RTVSPost2010PropOp47
 70
     1
102
RTVSPost2010Prop48
 90
       50
102
RTVSPost2010PropOp48
 70
     1
102
RTVSPost2010Prop49
280
     0
102
RTVSPost2010PropOp49
 70
     1
102
RTVSPost2010Prop50
 90
       50
102
RTVSPost2010PropOp50
 70
     1
102
RTVSPost2010Prop51ColorIndex
 90
      256
102
RTVSPost2010Prop51ColorRGB
 90
-16777216
102
RTVSPost2010PropOp51
 70
     0
102
RTVSPost2010Prop52
140
1.0
102
RTVSPost2010PropOp52
 70
     0
102
RTVSPost2010Prop53
 90
        2
102
RTVSPost2010PropOp53
 70
     1
102
RTVSPost2010Prop54
  1
strokes_ogs.tif
102
RTVSPost2010PropOp54
 70
     1
102
RTVSPost2010Prop55
280
     0
102
RTVSPost2010PropOp55
 70
     1
102
RTVSPost2010Prop56
140
1.0
102
RTVSPost2010PropOp56
 70
     1
102
RTVSPost2010Prop57
140
1.0
102
RTVSPost2010PropOp57
 70
     1
  0
XRECORD
  5
57F
102
{ACAD_REACTORS
330
57E
102
}
330
57E
100
AcDbXrecord
280
     1
102
RTVSPost2010Prop28
280
     0
102
RTVSPost2010PropOp28
 70
     0
102
RTVSPost2010Prop29
280
     1
102
RTVSPost2010PropOp29
 70
     0
102
RTVSPost2010Prop30
280
     1
102
RTVSPost2010PropOp30
 70
     0
102
RTVSPost2010Prop31
280
     0
102
RTVSPost2010PropOp31
 70
     0
102
RTVSPost2010Prop32
280
     0
102
RTVSPost2010PropOp32
 70
     0
102
RTVSPost2010Prop33
280
     0
102
RTVSPost2010PropOp33
 70
     0
102
RTVSPost2010Prop34
280
     0
102
RTVSPost2010PropOp34
 70
     0
102
RTVSPost2010Prop35
280
     0
102
RTVSPost2010PropOp35
 70
     0
102
RTVSPost2010Prop36
280
     0
102
RTVSPost2010PropOp36
 70
     0
102
RTVSPost2010Prop37
 90
       50
102
RTVSPost2010PropOp37
 70
     0
102
RTVSPost2010Prop38
140
0.0
102
RTVSPost2010PropOp38
 70
     0
102
RTVSPost2010Prop39
140
1.0
102
RTVSPost2010PropOp39
 70
     0
102
RTVSPost2010Prop40
 90
        0
102
RTVSPost2010PropOp40
 70
     0
102
RTVSPost2010Prop41ColorIndex
 90
       18
102
RTVSPost2010Prop41ColorRGB
 90
        0
102
RTVSPost2010PropOp41
 70
     0
102
RTVSPost2010Prop42
 90
       50
102
RTVSPost2010PropOp42
 70
     0
102
RTVSPost2010Prop43
 90
        3
102
RTVSPost2010PropOp43
 70
     0
102
RTVSPost2010Prop44ColorIndex
 90
        5
102
RTVSPost2010Prop44ColorRGB
 90
      255
102
RTVSPost2010PropOp44
 70
     0
102
RTVSPost2010Prop45
280
     0
102
RTVSPost2010PropOp45
 70
     0
102
RTVSPost2010Prop46
 90
       50
102
RTVSPost2010PropOp46
 70
     0
102
RTVSPost2010Prop47
 90
       50
102
RTVSPost2010PropOp47
 70
     0
102
RTVSPost2010Prop48
 90
       50
102
RTVSPost2010PropOp48
 70
     0
102
RTVSPost2010Prop49
280
     0
102
RTVSPost2010PropOp49
 70
     0
102
RTVSPost2010Prop50
 90
       50
102
RTVSPost2010PropOp50
 70
     0
102
RTVSPost2010Prop51ColorIndex
 90
      256
102
RTVSPost2010Prop51ColorRGB
 90
-16777216
102
RTVSPost2010PropOp51
 70
     0
102
RTVSPost2010Prop52
140
1.0
102
RTVSPost2010PropOp52
 70
     0
102
RTVSPost2010Prop53
 90
        2
102
RTVSPost2010PropOp53
 70
     0
102
RTVSPost2010Prop54
  1
strokes_ogs.tif
102
RTVSPost2010PropOp54
 70
     0
102
RTVSPost2010Prop55
280
     0
102
RTVSPost2010PropOp55
 70
     0
102
RTVSPost2010Prop56
140
1.0
102
RTVSPost2010PropOp56
 70
     0
102
RTVSPost2010Prop57
140
1.0
102
RTVSPost2010PropOp57
 70
     0
  0
XRECORD
  5
577
102
{ACAD_REACTORS
330
576
102
}
330
576
100
AcDbXrecord
280
     1
102
RTVSPost2010Prop28
280
     0
102
RTVSPost2010PropOp28
 70
     1
102
RTVSPost2010Prop29
280
     1
102
RTVSPost2010PropOp29
 70
     1
102
RTVSPost2010Prop30
280
     1
102
RTVSPost2010PropOp30
 70
     1
102
RTVSPost2010Prop31
280
     0
102
RTVSPost2010PropOp31
 70
     1
102
RTVSPost2010Prop32
280
     0
102
RTVSPost2010PropOp32
 70
     1
102
RTVSPost2010Prop33
280
     0
102
RTVSPost2010PropOp33
 70
     1
102
RTVSPost2010Prop34
280
     0
102
RTVSPost2010PropOp34
 70
     1
102
RTVSPost2010Prop35
280
     0
102
RTVSPost2010PropOp35
 70
     1
102
RTVSPost2010Prop36
280
     0
102
RTVSPost2010PropOp36
 70
     1
102
RTVSPost2010Prop37
 90
       50
102
RTVSPost2010PropOp37
 70
     1
102
RTVSPost2010Prop38
140
0.0
102
RTVSPost2010PropOp38
 70
     1
102
RTVSPost2010Prop39
140
1.0
102
RTVSPost2010PropOp39
 70
     1
102
RTVSPost2010Prop40
 90
        0
102
RTVSPost2010PropOp40
 70
     1
102
RTVSPost2010Prop41ColorIndex
 90
       18
102
RTVSPost2010Prop41ColorRGB
 90
        0
102
RTVSPost2010PropOp41
 70
     1
102
RTVSPost2010Prop42
 90
       50
102
RTVSPost2010PropOp42
 70
     1
102
RTVSPost2010Prop43
 90
        3
102
RTVSPost2010PropOp43
 70
     1
102
RTVSPost2010Prop44ColorIndex
 90
        5
102
RTVSPost2010Prop44ColorRGB
 90
      255
102
RTVSPost2010PropOp44
 70
     1
102
RTVSPost2010Prop45
280
     0
102
RTVSPost2010PropOp45
 70
     1
102
RTVSPost2010Prop46
 90
       50
102
RTVSPost2010PropOp46
 70
     1
102
RTVSPost2010Prop47
 90
       50
102
RTVSPost2010PropOp47
 70
     1
102
RTVSPost2010Prop48
 90
       50
102
RTVSPost2010PropOp48
 70
     1
102
RTVSPost2010Prop49
280
     0
102
RTVSPost2010PropOp49
 70
     1
102
RTVSPost2010Prop50
 90
       50
102
RTVSPost2010PropOp50
 70
     1
102
RTVSPost2010Prop51ColorIndex
 90
      256
102
RTVSPost2010Prop51ColorRGB
 90
-16777216
102
RTVSPost2010PropOp51
 70
     0
102
RTVSPost2010Prop52
140
1.0
102
RTVSPost2010PropOp52
 70
     0
102
RTVSPost2010Prop53
 90
        2
102
RTVSPost2010PropOp53
 70
     1
102
RTVSPost2010Prop54
  1
strokes_ogs.tif
102
RTVSPost2010PropOp54
 70
     1
102
RTVSPost2010Prop55
280
     0
102
RTVSPost2010PropOp55
 70
     1
102
RTVSPost2010Prop56
140
1.0
102
RTVSPost2010PropOp56
 70
     1
102
RTVSPost2010Prop57
140
1.0
102
RTVSPost2010PropOp57
 70
     1
  0
XRECORD
  5
55B
102
{ACAD_REACTORS
330
55A
102
}
330
55A
100
AcDbXrecord
280
     1
102
RTVSPost2010Prop28
280
     0
102
RTVSPost2010PropOp28
 70
     1
102
RTVSPost2010Prop29
280
     1
102
RTVSPost2010PropOp29
 70
     1
102
RTVSPost2010Prop30
280
     1
102
RTVSPost2010PropOp30
 70
     1
102
RTVSPost2010Prop31
280
     0
102
RTVSPost2010PropOp31
 70
     1
102
RTVSPost2010Prop32
280
     0
102
RTVSPost2010PropOp32
 70
     1
102
RTVSPost2010Prop33
280
     0
102
RTVSPost2010PropOp33
 70
     1
102
RTVSPost2010Prop34
280
     0
102
RTVSPost2010PropOp34
 70
     1
102
RTVSPost2010Prop35
280
     0
102
RTVSPost2010PropOp35
 70
     1
102
RTVSPost2010Prop36
280
     0
102
RTVSPost2010PropOp36
 70
     1
102
RTVSPost2010Prop37
 90
       50
102
RTVSPost2010PropOp37
 70
     1
102
RTVSPost2010Prop38
140
0.0
102
RTVSPost2010PropOp38
 70
     1
102
RTVSPost2010Prop39
140
1.0
102
RTVSPost2010PropOp39
 70
     1
102
RTVSPost2010Prop40
 90
        0
102
RTVSPost2010PropOp40
 70
     1
102
RTVSPost2010Prop41ColorIndex
 90
       18
102
RTVSPost2010Prop41ColorRGB
 90
        0
102
RTVSPost2010PropOp41
 70
     1
102
RTVSPost2010Prop42
 90
       50
102
RTVSPost2010PropOp42
 70
     1
102
RTVSPost2010Prop43
 90
        3
102
RTVSPost2010PropOp43
 70
     1
102
RTVSPost2010Prop44ColorIndex
 90
        5
102
RTVSPost2010Prop44ColorRGB
 90
      255
102
RTVSPost2010PropOp44
 70
     1
102
RTVSPost2010Prop45
280
     0
102
RTVSPost2010PropOp45
 70
     1
102
RTVSPost2010Prop46
 90
       50
102
RTVSPost2010PropOp46
 70
     1
102
RTVSPost2010Prop47
 90
       50
102
RTVSPost2010PropOp47
 70
     1
102
RTVSPost2010Prop48
 90
       50
102
RTVSPost2010PropOp48
 70
     1
102
RTVSPost2010Prop49
280
     0
102
RTVSPost2010PropOp49
 70
     1
102
RTVSPost2010Prop50
 90
       50
102
RTVSPost2010PropOp50
 70
     1
102
RTVSPost2010Prop51ColorIndex
 90
      256
102
RTVSPost2010Prop51ColorRGB
 90
-16777216
102
RTVSPost2010PropOp51
 70
     0
102
RTVSPost2010Prop52
140
1.0
102
RTVSPost2010PropOp52
 70
     0
102
RTVSPost2010Prop53
 90
        2
102
RTVSPost2010PropOp53
 70
     1
102
RTVSPost2010Prop54
  1
strokes_ogs.tif
102
RTVSPost2010PropOp54
 70
     1
102
RTVSPost2010Prop55
280
     0
102
RTVSPost2010PropOp55
 70
     1
102
RTVSPost2010Prop56
140
1.0
102
RTVSPost2010PropOp56
 70
     1
102
RTVSPost2010Prop57
140
1.0
102
RTVSPost2010PropOp57
 70
     1
  0
XRECORD
  5
55D
102
{ACAD_REACTORS
330
55C
102
}
330
55C
100
AcDbXrecord
280
     1
102
RTVSPost2010Prop28
280
     0
102
RTVSPost2010PropOp28
 70
     1
102
RTVSPost2010Prop29
280
     1
102
RTVSPost2010PropOp29
 70
     1
102
RTVSPost2010Prop30
280
     1
102
RTVSPost2010PropOp30
 70
     1
102
RTVSPost2010Prop31
280
     0
102
RTVSPost2010PropOp31
 70
     1
102
RTVSPost2010Prop32
280
     0
102
RTVSPost2010PropOp32
 70
     1
102
RTVSPost2010Prop33
280
     0
102
RTVSPost2010PropOp33
 70
     1
102
RTVSPost2010Prop34
280
     0
102
RTVSPost2010PropOp34
 70
     1
102
RTVSPost2010Prop35
280
     0
102
RTVSPost2010PropOp35
 70
     1
102
RTVSPost2010Prop36
280
     0
102
RTVSPost2010PropOp36
 70
     1
102
RTVSPost2010Prop37
 90
       50
102
RTVSPost2010PropOp37
 70
     1
102
RTVSPost2010Prop38
140
0.0
102
RTVSPost2010PropOp38
 70
     1
102
RTVSPost2010Prop39
140
1.0
102
RTVSPost2010PropOp39
 70
     1
102
RTVSPost2010Prop40
 90
        0
102
RTVSPost2010PropOp40
 70
     1
102
RTVSPost2010Prop41ColorIndex
 90
       18
102
RTVSPost2010Prop41ColorRGB
 90
        0
102
RTVSPost2010PropOp41
 70
     1
102
RTVSPost2010Prop42
 90
       50
102
RTVSPost2010PropOp42
 70
     1
102
RTVSPost2010Prop43
 90
        3
102
RTVSPost2010PropOp43
 70
     1
102
RTVSPost2010Prop44ColorIndex
 90
        5
102
RTVSPost2010Prop44ColorRGB
 90
      255
102
RTVSPost2010PropOp44
 70
     1
102
RTVSPost2010Prop45
280
     0
102
RTVSPost2010PropOp45
 70
     1
102
RTVSPost2010Prop46
 90
       50
102
RTVSPost2010PropOp46
 70
     1
102
RTVSPost2010Prop47
 90
       50
102
RTVSPost2010PropOp47
 70
     1
102
RTVSPost2010Prop48
 90
       50
102
RTVSPost2010PropOp48
 70
     1
102
RTVSPost2010Prop49
280
     0
102
RTVSPost2010PropOp49
 70
     1
102
RTVSPost2010Prop50
 90
       50
102
RTVSPost2010PropOp50
 70
     1
102
RTVSPost2010Prop51ColorIndex
 90
      256
102
RTVSPost2010Prop51ColorRGB
 90
-16777216
102
RTVSPost2010PropOp51
 70
     0
102
RTVSPost2010Prop52
140
1.0
102
RTVSPost2010PropOp52
 70
     0
102
RTVSPost2010Prop53
 90
        2
102
RTVSPost2010PropOp53
 70
     1
102
RTVSPost2010Prop54
  1
strokes_ogs.tif
102
RTVSPost2010PropOp54
 70
     1
102
RTVSPost2010Prop55
280
     0
102
RTVSPost2010PropOp55
 70
     1
102
RTVSPost2010Prop56
140
1.0
102
RTVSPost2010PropOp56
 70
     1
102
RTVSPost2010Prop57
140
1.0
102
RTVSPost2010PropOp57
 70
     1
  0
XRECORD
  5
55F
102
{ACAD_REACTORS
330
55E
102
}
330
55E
100
AcDbXrecord
280
     1
102
RTVSPost2010Prop28
280
     0
102
RTVSPost2010PropOp28
 70
     1
102
RTVSPost2010Prop29
280
     1
102
RTVSPost2010PropOp29
 70
     1
102
RTVSPost2010Prop30
280
     1
102
RTVSPost2010PropOp30
 70
     1
102
RTVSPost2010Prop31
280
     0
102
RTVSPost2010PropOp31
 70
     1
102
RTVSPost2010Prop32
280
     0
102
RTVSPost2010PropOp32
 70
     1
102
RTVSPost2010Prop33
280
     0
102
RTVSPost2010PropOp33
 70
     1
102
RTVSPost2010Prop34
280
     0
102
RTVSPost2010PropOp34
 70
     1
102
RTVSPost2010Prop35
280
     0
102
RTVSPost2010PropOp35
 70
     1
102
RTVSPost2010Prop36
280
     0
102
RTVSPost2010PropOp36
 70
     1
102
RTVSPost2010Prop37
 90
       50
102
RTVSPost2010PropOp37
 70
     1
102
RTVSPost2010Prop38
140
0.0
102
RTVSPost2010PropOp38
 70
     1
102
RTVSPost2010Prop39
140
1.0
102
RTVSPost2010PropOp39
 70
     1
102
RTVSPost2010Prop40
 90
        0
102
RTVSPost2010PropOp40
 70
     1
102
RTVSPost2010Prop41ColorIndex
 90
       18
102
RTVSPost2010Prop41ColorRGB
 90
        0
102
RTVSPost2010PropOp41
 70
     1
102
RTVSPost2010Prop42
 90
       50
102
RTVSPost2010PropOp42
 70
     1
102
RTVSPost2010Prop43
 90
        3
102
RTVSPost2010PropOp43
 70
     1
102
RTVSPost2010Prop44ColorIndex
 90
        5
102
RTVSPost2010Prop44ColorRGB
 90
      255
102
RTVSPost2010PropOp44
 70
     1
102
RTVSPost2010Prop45
280
     0
102
RTVSPost2010PropOp45
 70
     1
102
RTVSPost2010Prop46
 90
       50
102
RTVSPost2010PropOp46
 70
     1
102
RTVSPost2010Prop47
 90
       50
102
RTVSPost2010PropOp47
 70
     1
102
RTVSPost2010Prop48
 90
       50
102
RTVSPost2010PropOp48
 70
     1
102
RTVSPost2010Prop49
280
     0
102
RTVSPost2010PropOp49
 70
     1
102
RTVSPost2010Prop50
 90
       50
102
RTVSPost2010PropOp50
 70
     1
102
RTVSPost2010Prop51ColorIndex
 90
      256
102
RTVSPost2010Prop51ColorRGB
 90
-16777216
102
RTVSPost2010PropOp51
 70
     0
102
RTVSPost2010Prop52
140
1.0
102
RTVSPost2010PropOp52
 70
     0
102
RTVSPost2010Prop53
 90
        2
102
RTVSPost2010PropOp53
 70
     1
102
RTVSPost2010Prop54
  1
strokes_ogs.tif
102
RTVSPost2010PropOp54
 70
     1
102
RTVSPost2010Prop55
280
     0
102
RTVSPost2010PropOp55
 70
     1
102
RTVSPost2010Prop56
140
1.0
102
RTVSPost2010PropOp56
 70
     1
102
RTVSPost2010Prop57
140
1.0
102
RTVSPost2010PropOp57
 70
     1
  0
XRECORD
  5
561
102
{ACAD_REACTORS
330
560
102
}
330
560
100
AcDbXrecord
280
     1
102
RTVSPost2010Prop28
280
     0
102
RTVSPost2010PropOp28
 70
     1
102
RTVSPost2010Prop29
280
     1
102
RTVSPost2010PropOp29
 70
     1
102
RTVSPost2010Prop30
280
     1
102
RTVSPost2010PropOp30
 70
     1
102
RTVSPost2010Prop31
280
     0
102
RTVSPost2010PropOp31
 70
     1
102
RTVSPost2010Prop32
280
     0
102
RTVSPost2010PropOp32
 70
     1
102
RTVSPost2010Prop33
280
     0
102
RTVSPost2010PropOp33
 70
     1
102
RTVSPost2010Prop34
280
     0
102
RTVSPost2010PropOp34
 70
     1
102
RTVSPost2010Prop35
280
     0
102
RTVSPost2010PropOp35
 70
     1
102
RTVSPost2010Prop36
280
     0
102
RTVSPost2010PropOp36
 70
     1
102
RTVSPost2010Prop37
 90
       50
102
RTVSPost2010PropOp37
 70
     1
102
RTVSPost2010Prop38
140
0.0
102
RTVSPost2010PropOp38
 70
     1
102
RTVSPost2010Prop39
140
1.0
102
RTVSPost2010PropOp39
 70
     1
102
RTVSPost2010Prop40
 90
        0
102
RTVSPost2010PropOp40
 70
     1
102
RTVSPost2010Prop41ColorIndex
 90
       18
102
RTVSPost2010Prop41ColorRGB
 90
        0
102
RTVSPost2010PropOp41
 70
     1
102
RTVSPost2010Prop42
 90
       50
102
RTVSPost2010PropOp42
 70
     1
102
RTVSPost2010Prop43
 90
        3
102
RTVSPost2010PropOp43
 70
     1
102
RTVSPost2010Prop44ColorIndex
 90
        5
102
RTVSPost2010Prop44ColorRGB
 90
      255
102
RTVSPost2010PropOp44
 70
     1
102
RTVSPost2010Prop45
280
     0
102
RTVSPost2010PropOp45
 70
     1
102
RTVSPost2010Prop46
 90
       50
102
RTVSPost2010PropOp46
 70
     1
102
RTVSPost2010Prop47
 90
       50
102
RTVSPost2010PropOp47
 70
     1
102
RTVSPost2010Prop48
 90
       50
102
RTVSPost2010PropOp48
 70
     1
102
RTVSPost2010Prop49
280
     0
102
RTVSPost2010PropOp49
 70
     1
102
RTVSPost2010Prop50
 90
       50
102
RTVSPost2010PropOp50
 70
     1
102
RTVSPost2010Prop51ColorIndex
 90
      256
102
RTVSPost2010Prop51ColorRGB
 90
-16777216
102
RTVSPost2010PropOp51
 70
     0
102
RTVSPost2010Prop52
140
1.0
102
RTVSPost2010PropOp52
 70
     0
102
RTVSPost2010Prop53
 90
        2
102
RTVSPost2010PropOp53
 70
     1
102
RTVSPost2010Prop54
  1
strokes_ogs.tif
102
RTVSPost2010PropOp54
 70
     1
102
RTVSPost2010Prop55
280
     0
102
RTVSPost2010PropOp55
 70
     1
102
RTVSPost2010Prop56
140
1.0
102
RTVSPost2010PropOp56
 70
     1
102
RTVSPost2010Prop57
140
1.0
102
RTVSPost2010PropOp57
 70
     1
  0
XRECORD
  5
567
102
{ACAD_REACTORS
330
566
102
}
330
566
100
AcDbXrecord
280
     1
102
RTVSPost2010Prop28
280
     0
102
RTVSPost2010PropOp28
 70
     1
102
RTVSPost2010Prop29
280
     1
102
RTVSPost2010PropOp29
 70
     1
102
RTVSPost2010Prop30
280
     1
102
RTVSPost2010PropOp30
 70
     1
102
RTVSPost2010Prop31
280
     0
102
RTVSPost2010PropOp31
 70
     1
102
RTVSPost2010Prop32
280
     0
102
RTVSPost2010PropOp32
 70
     1
102
RTVSPost2010Prop33
280
     0
102
RTVSPost2010PropOp33
 70
     1
102
RTVSPost2010Prop34
280
     0
102
RTVSPost2010PropOp34
 70
     1
102
RTVSPost2010Prop35
280
     0
102
RTVSPost2010PropOp35
 70
     1
102
RTVSPost2010Prop36
280
     0
102
RTVSPost2010PropOp36
 70
     1
102
RTVSPost2010Prop37
 90
       50
102
RTVSPost2010PropOp37
 70
     1
102
RTVSPost2010Prop38
140
0.0
102
RTVSPost2010PropOp38
 70
     1
102
RTVSPost2010Prop39
140
1.0
102
RTVSPost2010PropOp39
 70
     1
102
RTVSPost2010Prop40
 90
        0
102
RTVSPost2010PropOp40
 70
     1
102
RTVSPost2010Prop41ColorIndex
 90
       18
102
RTVSPost2010Prop41ColorRGB
 90
        0
102
RTVSPost2010PropOp41
 70
     1
102
RTVSPost2010Prop42
 90
       50
102
RTVSPost2010PropOp42
 70
     1
102
RTVSPost2010Prop43
 90
        3
102
RTVSPost2010PropOp43
 70
     1
102
RTVSPost2010Prop44ColorIndex
 90
        5
102
RTVSPost2010Prop44ColorRGB
 90
      255
102
RTVSPost2010PropOp44
 70
     1
102
RTVSPost2010Prop45
280
     0
102
RTVSPost2010PropOp45
 70
     1
102
RTVSPost2010Prop46
 90
       50
102
RTVSPost2010PropOp46
 70
     1
102
RTVSPost2010Prop47
 90
       50
102
RTVSPost2010PropOp47
 70
     1
102
RTVSPost2010Prop48
 90
       50
102
RTVSPost2010PropOp48
 70
     1
102
RTVSPost2010Prop49
280
     0
102
RTVSPost2010PropOp49
 70
     1
102
RTVSPost2010Prop50
 90
       50
102
RTVSPost2010PropOp50
 70
     1
102
RTVSPost2010Prop51ColorIndex
 90
      256
102
RTVSPost2010Prop51ColorRGB
 90
-16777216
102
RTVSPost2010PropOp51
 70
     0
102
RTVSPost2010Prop52
140
1.0
102
RTVSPost2010PropOp52
 70
     0
102
RTVSPost2010Prop53
 90
        2
102
RTVSPost2010PropOp53
 70
     1
102
RTVSPost2010Prop54
  1
strokes_ogs.tif
102
RTVSPost2010PropOp54
 70
     1
102
RTVSPost2010Prop55
280
     0
102
RTVSPost2010PropOp55
 70
     1
102
RTVSPost2010Prop56
140
1.0
102
RTVSPost2010PropOp56
 70
     1
102
RTVSPost2010Prop57
140
1.0
102
RTVSPost2010PropOp57
 70
     1
  0
XRECORD
  5
57B
102
{ACAD_REACTORS
330
57A
102
}
330
57A
100
AcDbXrecord
280
     1
102
RTVSPost2010Prop28
280
     0
102
RTVSPost2010PropOp28
 70
     0
102
RTVSPost2010Prop29
280
     1
102
RTVSPost2010PropOp29
 70
     0
102
RTVSPost2010Prop30
280
     1
102
RTVSPost2010PropOp30
 70
     0
102
RTVSPost2010Prop31
280
     0
102
RTVSPost2010PropOp31
 70
     0
102
RTVSPost2010Prop32
280
     0
102
RTVSPost2010PropOp32
 70
     0
102
RTVSPost2010Prop33
280
     0
102
RTVSPost2010PropOp33
 70
     0
102
RTVSPost2010Prop34
280
     0
102
RTVSPost2010PropOp34
 70
     0
102
RTVSPost2010Prop35
280
     0
102
RTVSPost2010PropOp35
 70
     0
102
RTVSPost2010Prop36
280
     0
102
RTVSPost2010PropOp36
 70
     0
102
RTVSPost2010Prop37
 90
       50
102
RTVSPost2010PropOp37
 70
     0
102
RTVSPost2010Prop38
140
0.0
102
RTVSPost2010PropOp38
 70
     0
102
RTVSPost2010Prop39
140
1.0
102
RTVSPost2010PropOp39
 70
     0
102
RTVSPost2010Prop40
 90
        0
102
RTVSPost2010PropOp40
 70
     0
102
RTVSPost2010Prop41ColorIndex
 90
       18
102
RTVSPost2010Prop41ColorRGB
 90
        0
102
RTVSPost2010PropOp41
 70
     0
102
RTVSPost2010Prop42
 90
       50
102
RTVSPost2010PropOp42
 70
     0
102
RTVSPost2010Prop43
 90
        3
102
RTVSPost2010PropOp43
 70
     0
102
RTVSPost2010Prop44ColorIndex
 90
        5
102
RTVSPost2010Prop44ColorRGB
 90
      255
102
RTVSPost2010PropOp44
 70
     0
102
RTVSPost2010Prop45
280
     0
102
RTVSPost2010PropOp45
 70
     0
102
RTVSPost2010Prop46
 90
       50
102
RTVSPost2010PropOp46
 70
     0
102
RTVSPost2010Prop47
 90
       50
102
RTVSPost2010PropOp47
 70
     0
102
RTVSPost2010Prop48
 90
       50
102
RTVSPost2010PropOp48
 70
     0
102
RTVSPost2010Prop49
280
     0
102
RTVSPost2010PropOp49
 70
     0
102
RTVSPost2010Prop50
 90
       50
102
RTVSPost2010PropOp50
 70
     0
102
RTVSPost2010Prop51ColorIndex
 90
      256
102
RTVSPost2010Prop51ColorRGB
 90
-16777216
102
RTVSPost2010PropOp51
 70
     0
102
RTVSPost2010Prop52
140
1.0
102
RTVSPost2010PropOp52
 70
     0
102
RTVSPost2010Prop53
 90
        2
102
RTVSPost2010PropOp53
 70
     0
102
RTVSPost2010Prop54
  1
strokes_ogs.tif
102
RTVSPost2010PropOp54
 70
     0
102
RTVSPost2010Prop55
280
     0
102
RTVSPost2010PropOp55
 70
     0
102
RTVSPost2010Prop56
140
1.0
102
RTVSPost2010PropOp56
 70
     0
102
RTVSPost2010Prop57
140
1.0
102
RTVSPost2010PropOp57
 70
     0
  0
XRECORD
  5
575
102
{ACAD_REACTORS
330
574
102
}
330
574
100
AcDbXrecord
280
     1
102
RTVSPost2010Prop28
280
     0
102
RTVSPost2010PropOp28
 70
     1
102
RTVSPost2010Prop29
280
     1
102
RTVSPost2010PropOp29
 70
     1
102
RTVSPost2010Prop30
280
     1
102
RTVSPost2010PropOp30
 70
     1
102
RTVSPost2010Prop31
280
     0
102
RTVSPost2010PropOp31
 70
     1
102
RTVSPost2010Prop32
280
     0
102
RTVSPost2010PropOp32
 70
     1
102
RTVSPost2010Prop33
280
     0
102
RTVSPost2010PropOp33
 70
     1
102
RTVSPost2010Prop34
280
     0
102
RTVSPost2010PropOp34
 70
     1
102
RTVSPost2010Prop35
280
     0
102
RTVSPost2010PropOp35
 70
     1
102
RTVSPost2010Prop36
280
     0
102
RTVSPost2010PropOp36
 70
     1
102
RTVSPost2010Prop37
 90
       50
102
RTVSPost2010PropOp37
 70
     1
102
RTVSPost2010Prop38
140
0.0
102
RTVSPost2010PropOp38
 70
     1
102
RTVSPost2010Prop39
140
1.0
102
RTVSPost2010PropOp39
 70
     1
102
RTVSPost2010Prop40
 90
        0
102
RTVSPost2010PropOp40
 70
     1
102
RTVSPost2010Prop41ColorIndex
 90
       18
102
RTVSPost2010Prop41ColorRGB
 90
        0
102
RTVSPost2010PropOp41
 70
     1
102
RTVSPost2010Prop42
 90
       50
102
RTVSPost2010PropOp42
 70
     1
102
RTVSPost2010Prop43
 90
        3
102
RTVSPost2010PropOp43
 70
     1
102
RTVSPost2010Prop44ColorIndex
 90
        5
102
RTVSPost2010Prop44ColorRGB
 90
      255
102
RTVSPost2010PropOp44
 70
     1
102
RTVSPost2010Prop45
280
     0
102
RTVSPost2010PropOp45
 70
     1
102
RTVSPost2010Prop46
 90
       50
102
RTVSPost2010PropOp46
 70
     1
102
RTVSPost2010Prop47
 90
       50
102
RTVSPost2010PropOp47
 70
     1
102
RTVSPost2010Prop48
 90
       50
102
RTVSPost2010PropOp48
 70
     1
102
RTVSPost2010Prop49
280
     0
102
RTVSPost2010PropOp49
 70
     1
102
RTVSPost2010Prop50
 90
       50
102
RTVSPost2010PropOp50
 70
     1
102
RTVSPost2010Prop51ColorIndex
 90
      256
102
RTVSPost2010Prop51ColorRGB
 90
-16777216
102
RTVSPost2010PropOp51
 70
     0
102
RTVSPost2010Prop52
140
1.0
102
RTVSPost2010PropOp52
 70
     0
102
RTVSPost2010Prop53
 90
        2
102
RTVSPost2010PropOp53
 70
     1
102
RTVSPost2010Prop54
  1
strokes_ogs.tif
102
RTVSPost2010PropOp54
 70
     1
102
RTVSPost2010Prop55
280
     0
102
RTVSPost2010PropOp55
 70
     1
102
RTVSPost2010Prop56
140
1.0
102
RTVSPost2010PropOp56
 70
     1
102
RTVSPost2010Prop57
140
1.0
102
RTVSPost2010PropOp57
 70
     1
  0
XRECORD
  5
57D
102
{ACAD_REACTORS
330
57C
102
}
330
57C
100
AcDbXrecord
280
     1
102
RTVSPost2010Prop28
280
     0
102
RTVSPost2010PropOp28
 70
     0
102
RTVSPost2010Prop29
280
     1
102
RTVSPost2010PropOp29
 70
     0
102
RTVSPost2010Prop30
280
     1
102
RTVSPost2010PropOp30
 70
     0
102
RTVSPost2010Prop31
280
     0
102
RTVSPost2010PropOp31
 70
     0
102
RTVSPost2010Prop32
280
     0
102
RTVSPost2010PropOp32
 70
     0
102
RTVSPost2010Prop33
280
     0
102
RTVSPost2010PropOp33
 70
     0
102
RTVSPost2010Prop34
280
     0
102
RTVSPost2010PropOp34
 70
     0
102
RTVSPost2010Prop35
280
     0
102
RTVSPost2010PropOp35
 70
     0
102
RTVSPost2010Prop36
280
     0
102
RTVSPost2010PropOp36
 70
     0
102
RTVSPost2010Prop37
 90
       50
102
RTVSPost2010PropOp37
 70
     0
102
RTVSPost2010Prop38
140
0.0
102
RTVSPost2010PropOp38
 70
     0
102
RTVSPost2010Prop39
140
1.0
102
RTVSPost2010PropOp39
 70
     0
102
RTVSPost2010Prop40
 90
        0
102
RTVSPost2010PropOp40
 70
     0
102
RTVSPost2010Prop41ColorIndex
 90
       18
102
RTVSPost2010Prop41ColorRGB
 90
        0
102
RTVSPost2010PropOp41
 70
     0
102
RTVSPost2010Prop42
 90
       50
102
RTVSPost2010PropOp42
 70
     0
102
RTVSPost2010Prop43
 90
        3
102
RTVSPost2010PropOp43
 70
     0
102
RTVSPost2010Prop44ColorIndex
 90
        5
102
RTVSPost2010Prop44ColorRGB
 90
      255
102
RTVSPost2010PropOp44
 70
     0
102
RTVSPost2010Prop45
280
     0
102
RTVSPost2010PropOp45
 70
     0
102
RTVSPost2010Prop46
 90
       50
102
RTVSPost2010PropOp46
 70
     0
102
RTVSPost2010Prop47
 90
       50
102
RTVSPost2010PropOp47
 70
     0
102
RTVSPost2010Prop48
 90
       50
102
RTVSPost2010PropOp48
 70
     0
102
RTVSPost2010Prop49
280
     0
102
RTVSPost2010PropOp49
 70
     0
102
RTVSPost2010Prop50
 90
       50
102
RTVSPost2010PropOp50
 70
     0
102
RTVSPost2010Prop51ColorIndex
 90
      256
102
RTVSPost2010Prop51ColorRGB
 90
-16777216
102
RTVSPost2010PropOp51
 70
     0
102
RTVSPost2010Prop52
140
1.0
102
RTVSPost2010PropOp52
 70
     0
102
RTVSPost2010Prop53
 90
        2
102
RTVSPost2010PropOp53
 70
     0
102
RTVSPost2010Prop54
  1
strokes_ogs.tif
102
RTVSPost2010PropOp54
 70
     0
102
RTVSPost2010Prop55
280
     0
102
RTVSPost2010PropOp55
 70
     0
102
RTVSPost2010Prop56
140
1.0
102
RTVSPost2010PropOp56
 70
     0
102
RTVSPost2010Prop57
140
1.0
102
RTVSPost2010PropOp57
 70
     0
  0
XRECORD
  5
56B
102
{ACAD_REACTORS
330
56A
102
}
330
56A
100
AcDbXrecord
280
     1
102
RTVSPost2010Prop28
280
     0
102
RTVSPost2010PropOp28
 70
     1
102
RTVSPost2010Prop29
280
     1
102
RTVSPost2010PropOp29
 70
     1
102
RTVSPost2010Prop30
280
     1
102
RTVSPost2010PropOp30
 70
     1
102
RTVSPost2010Prop31
280
     0
102
RTVSPost2010PropOp31
 70
     1
102
RTVSPost2010Prop32
280
     0
102
RTVSPost2010PropOp32
 70
     1
102
RTVSPost2010Prop33
280
     0
102
RTVSPost2010PropOp33
 70
     1
102
RTVSPost2010Prop34
280
     0
102
RTVSPost2010PropOp34
 70
     1
102
RTVSPost2010Prop35
280
     0
102
RTVSPost2010PropOp35
 70
     1
102
RTVSPost2010Prop36
280
     0
102
RTVSPost2010PropOp36
 70
     1
102
RTVSPost2010Prop37
 90
       50
102
RTVSPost2010PropOp37
 70
     1
102
RTVSPost2010Prop38
140
0.0
102
RTVSPost2010PropOp38
 70
     1
102
RTVSPost2010Prop39
140
1.0
102
RTVSPost2010PropOp39
 70
     1
102
RTVSPost2010Prop40
 90
        0
102
RTVSPost2010PropOp40
 70
     1
102
RTVSPost2010Prop41ColorIndex
 90
       18
102
RTVSPost2010Prop41ColorRGB
 90
        0
102
RTVSPost2010PropOp41
 70
     1
102
RTVSPost2010Prop42
 90
       50
102
RTVSPost2010PropOp42
 70
     1
102
RTVSPost2010Prop43
 90
        3
102
RTVSPost2010PropOp43
 70
     1
102
RTVSPost2010Prop44ColorIndex
 90
        5
102
RTVSPost2010Prop44ColorRGB
 90
      255
102
RTVSPost2010PropOp44
 70
     1
102
RTVSPost2010Prop45
280
     0
102
RTVSPost2010PropOp45
 70
     1
102
RTVSPost2010Prop46
 90
       50
102
RTVSPost2010PropOp46
 70
     1
102
RTVSPost2010Prop47
 90
       50
102
RTVSPost2010PropOp47
 70
     1
102
RTVSPost2010Prop48
 90
       50
102
RTVSPost2010PropOp48
 70
     1
102
RTVSPost2010Prop49
280
     0
102
RTVSPost2010PropOp49
 70
     1
102
RTVSPost2010Prop50
 90
       50
102
RTVSPost2010PropOp50
 70
     1
102
RTVSPost2010Prop51ColorIndex
 90
      256
102
RTVSPost2010Prop51ColorRGB
 90
-16777216
102
RTVSPost2010PropOp51
 70
     0
102
RTVSPost2010Prop52
140
1.0
102
RTVSPost2010PropOp52
 70
     0
102
RTVSPost2010Prop53
 90
        2
102
RTVSPost2010PropOp53
 70
     1
102
RTVSPost2010Prop54
  1
strokes_ogs.tif
102
RTVSPost2010PropOp54
 70
     1
102
RTVSPost2010Prop55
280
     0
102
RTVSPost2010PropOp55
 70
     1
102
RTVSPost2010Prop56
140
1.0
102
RTVSPost2010PropOp56
 70
     1
102
RTVSPost2010Prop57
140
1.0
102
RTVSPost2010PropOp57
 70
     1
  0
XRECORD
  5
589
102
{ACAD_REACTORS
330
588
102
}
330
588
100
AcDbXrecord
280
     1
102
RTVSPost2010Prop28
280
     0
102
RTVSPost2010PropOp28
 70
     1
102
RTVSPost2010Prop29
280
     1
102
RTVSPost2010PropOp29
 70
     1
102
RTVSPost2010Prop30
280
     1
102
RTVSPost2010PropOp30
 70
     1
102
RTVSPost2010Prop31
280
     0
102
RTVSPost2010PropOp31
 70
     1
102
RTVSPost2010Prop32
280
     0
102
RTVSPost2010PropOp32
 70
     1
102
RTVSPost2010Prop33
280
     0
102
RTVSPost2010PropOp33
 70
     1
102
RTVSPost2010Prop34
280
     0
102
RTVSPost2010PropOp34
 70
     1
102
RTVSPost2010Prop35
280
     0
102
RTVSPost2010PropOp35
 70
     1
102
RTVSPost2010Prop36
280
     0
102
RTVSPost2010PropOp36
 70
     1
102
RTVSPost2010Prop37
 90
       50
102
RTVSPost2010PropOp37
 70
     1
102
RTVSPost2010Prop38
140
0.0
102
RTVSPost2010PropOp38
 70
     1
102
RTVSPost2010Prop39
140
1.0
102
RTVSPost2010PropOp39
 70
     1
102
RTVSPost2010Prop40
 90
        0
102
RTVSPost2010PropOp40
 70
     1
102
RTVSPost2010Prop41ColorIndex
 90
       18
102
RTVSPost2010Prop41ColorRGB
 90
        0
102
RTVSPost2010PropOp41
 70
     1
102
RTVSPost2010Prop42
 90
       50
102
RTVSPost2010PropOp42
 70
     1
102
RTVSPost2010Prop43
 90
        3
102
RTVSPost2010PropOp43
 70
     1
102
RTVSPost2010Prop44ColorIndex
 90
        5
102
RTVSPost2010Prop44ColorRGB
 90
      255
102
RTVSPost2010PropOp44
 70
     1
102
RTVSPost2010Prop45
280
     0
102
RTVSPost2010PropOp45
 70
     1
102
RTVSPost2010Prop46
 90
       50
102
RTVSPost2010PropOp46
 70
     1
102
RTVSPost2010Prop47
 90
       50
102
RTVSPost2010PropOp47
 70
     1
102
RTVSPost2010Prop48
 90
       50
102
RTVSPost2010PropOp48
 70
     1
102
RTVSPost2010Prop49
280
     0
102
RTVSPost2010PropOp49
 70
     1
102
RTVSPost2010Prop50
 90
       50
102
RTVSPost2010PropOp50
 70
     1
102
RTVSPost2010Prop51ColorIndex
 90
      256
102
RTVSPost2010Prop51ColorRGB
 90
-16777216
102
RTVSPost2010PropOp51
 70
     0
102
RTVSPost2010Prop52
140
1.0
102
RTVSPost2010PropOp52
 70
     0
102
RTVSPost2010Prop53
 90
        2
102
RTVSPost2010PropOp53
 70
     1
102
RTVSPost2010Prop54
  1
strokes_ogs.tif
102
RTVSPost2010PropOp54
 70
     1
102
RTVSPost2010Prop55
280
     0
102
RTVSPost2010PropOp55
 70
     1
102
RTVSPost2010Prop56
140
1.0
102
RTVSPost2010PropOp56
 70
     1
102
RTVSPost2010Prop57
140
1.0
102
RTVSPost2010PropOp57
 70
     1
  0
XRECORD
  5
587
102
{ACAD_REACTORS
330
586
102
}
330
586
100
AcDbXrecord
280
     1
102
RTVSPost2010Prop28
280
     0
102
RTVSPost2010PropOp28
 70
     1
102
RTVSPost2010Prop29
280
     1
102
RTVSPost2010PropOp29
 70
     1
102
RTVSPost2010Prop30
280
     1
102
RTVSPost2010PropOp30
 70
     1
102
RTVSPost2010Prop31
280
     0
102
RTVSPost2010PropOp31
 70
     1
102
RTVSPost2010Prop32
280
     0
102
RTVSPost2010PropOp32
 70
     1
102
RTVSPost2010Prop33
280
     0
102
RTVSPost2010PropOp33
 70
     1
102
RTVSPost2010Prop34
280
     0
102
RTVSPost2010PropOp34
 70
     1
102
RTVSPost2010Prop35
280
     0
102
RTVSPost2010PropOp35
 70
     1
102
RTVSPost2010Prop36
280
     0
102
RTVSPost2010PropOp36
 70
     1
102
RTVSPost2010Prop37
 90
       50
102
RTVSPost2010PropOp37
 70
     1
102
RTVSPost2010Prop38
140
0.0
102
RTVSPost2010PropOp38
 70
     1
102
RTVSPost2010Prop39
140
1.0
102
RTVSPost2010PropOp39
 70
     1
102
RTVSPost2010Prop40
 90
        0
102
RTVSPost2010PropOp40
 70
     1
102
RTVSPost2010Prop41ColorIndex
 90
       18
102
RTVSPost2010Prop41ColorRGB
 90
        0
102
RTVSPost2010PropOp41
 70
     1
102
RTVSPost2010Prop42
 90
       50
102
RTVSPost2010PropOp42
 70
     1
102
RTVSPost2010Prop43
 90
        3
102
RTVSPost2010PropOp43
 70
     1
102
RTVSPost2010Prop44ColorIndex
 90
        5
102
RTVSPost2010Prop44ColorRGB
 90
      255
102
RTVSPost2010PropOp44
 70
     1
102
RTVSPost2010Prop45
280
     0
102
RTVSPost2010PropOp45
 70
     1
102
RTVSPost2010Prop46
 90
       50
102
RTVSPost2010PropOp46
 70
     1
102
RTVSPost2010Prop47
 90
       50
102
RTVSPost2010PropOp47
 70
     1
102
RTVSPost2010Prop48
 90
       50
102
RTVSPost2010PropOp48
 70
     1
102
RTVSPost2010Prop49
280
     0
102
RTVSPost2010PropOp49
 70
     1
102
RTVSPost2010Prop50
 90
       50
102
RTVSPost2010PropOp50
 70
     1
102
RTVSPost2010Prop51ColorIndex
 90
      256
102
RTVSPost2010Prop51ColorRGB
 90
-16777216
102
RTVSPost2010PropOp51
 70
     0
102
RTVSPost2010Prop52
140
1.0
102
RTVSPost2010PropOp52
 70
     0
102
RTVSPost2010Prop53
 90
        2
102
RTVSPost2010PropOp53
 70
     1
102
RTVSPost2010Prop54
  1
strokes_ogs.tif
102
RTVSPost2010PropOp54
 70
     1
102
RTVSPost2010Prop55
280
     0
102
RTVSPost2010PropOp55
 70
     1
102
RTVSPost2010Prop56
140
1.0
102
RTVSPost2010PropOp56
 70
     1
102
RTVSPost2010Prop57
140
1.0
102
RTVSPost2010PropOp57
 70
     1
  0
XRECORD
  5
581
102
{ACAD_REACTORS
330
580
102
}
330
580
100
AcDbXrecord
280
     1
102
RTVSPost2010Prop28
280
     0
102
RTVSPost2010PropOp28
 70
     1
102
RTVSPost2010Prop29
280
     1
102
RTVSPost2010PropOp29
 70
     1
102
RTVSPost2010Prop30
280
     1
102
RTVSPost2010PropOp30
 70
     1
102
RTVSPost2010Prop31
280
     0
102
RTVSPost2010PropOp31
 70
     1
102
RTVSPost2010Prop32
280
     0
102
RTVSPost2010PropOp32
 70
     1
102
RTVSPost2010Prop33
280
     0
102
RTVSPost2010PropOp33
 70
     1
102
RTVSPost2010Prop34
280
     0
102
RTVSPost2010PropOp34
 70
     1
102
RTVSPost2010Prop35
280
     0
102
RTVSPost2010PropOp35
 70
     1
102
RTVSPost2010Prop36
280
     0
102
RTVSPost2010PropOp36
 70
     1
102
RTVSPost2010Prop37
 90
       50
102
RTVSPost2010PropOp37
 70
     1
102
RTVSPost2010Prop38
140
0.0
102
RTVSPost2010PropOp38
 70
     1
102
RTVSPost2010Prop39
140
1.0
102
RTVSPost2010PropOp39
 70
     1
102
RTVSPost2010Prop40
 90
        0
102
RTVSPost2010PropOp40
 70
     1
102
RTVSPost2010Prop41ColorIndex
 90
       18
102
RTVSPost2010Prop41ColorRGB
 90
        0
102
RTVSPost2010PropOp41
 70
     1
102
RTVSPost2010Prop42
 90
       50
102
RTVSPost2010PropOp42
 70
     1
102
RTVSPost2010Prop43
 90
        3
102
RTVSPost2010PropOp43
 70
     1
102
RTVSPost2010Prop44ColorIndex
 90
        5
102
RTVSPost2010Prop44ColorRGB
 90
      255
102
RTVSPost2010PropOp44
 70
     1
102
RTVSPost2010Prop45
280
     0
102
RTVSPost2010PropOp45
 70
     1
102
RTVSPost2010Prop46
 90
       50
102
RTVSPost2010PropOp46
 70
     1
102
RTVSPost2010Prop47
 90
       50
102
RTVSPost2010PropOp47
 70
     1
102
RTVSPost2010Prop48
 90
       50
102
RTVSPost2010PropOp48
 70
     1
102
RTVSPost2010Prop49
280
     0
102
RTVSPost2010PropOp49
 70
     1
102
RTVSPost2010Prop50
 90
       50
102
RTVSPost2010PropOp50
 70
     1
102
RTVSPost2010Prop51ColorIndex
 90
      256
102
RTVSPost2010Prop51ColorRGB
 90
-16777216
102
RTVSPost2010PropOp51
 70
     0
102
RTVSPost2010Prop52
140
1.0
102
RTVSPost2010PropOp52
 70
     0
102
RTVSPost2010Prop53
 90
        2
102
RTVSPost2010PropOp53
 70
     1
102
RTVSPost2010Prop54
  1
strokes_ogs.tif
102
RTVSPost2010PropOp54
 70
     1
102
RTVSPost2010Prop55
280
     0
102
RTVSPost2010PropOp55
 70
     1
102
RTVSPost2010Prop56
140
1.0
102
RTVSPost2010PropOp56
 70
     1
102
RTVSPost2010Prop57
140
1.0
102
RTVSPost2010PropOp57
 70
     1
  0
XRECORD
  5
583
102
{ACAD_REACTORS
330
582
102
}
330
582
100
AcDbXrecord
280
     1
102
RTVSPost2010Prop28
280
     0
102
RTVSPost2010PropOp28
 70
     1
102
RTVSPost2010Prop29
280
     1
102
RTVSPost2010PropOp29
 70
     1
102
RTVSPost2010Prop30
280
     1
102
RTVSPost2010PropOp30
 70
     1
102
RTVSPost2010Prop31
280
     0
102
RTVSPost2010PropOp31
 70
     1
102
RTVSPost2010Prop32
280
     0
102
RTVSPost2010PropOp32
 70
     1
102
RTVSPost2010Prop33
280
     0
102
RTVSPost2010PropOp33
 70
     1
102
RTVSPost2010Prop34
280
     0
102
RTVSPost2010PropOp34
 70
     1
102
RTVSPost2010Prop35
280
     0
102
RTVSPost2010PropOp35
 70
     1
102
RTVSPost2010Prop36
280
     0
102
RTVSPost2010PropOp36
 70
     1
102
RTVSPost2010Prop37
 90
       50
102
RTVSPost2010PropOp37
 70
     1
102
RTVSPost2010Prop38
140
0.0
102
RTVSPost2010PropOp38
 70
     1
102
RTVSPost2010Prop39
140
1.0
102
RTVSPost2010PropOp39
 70
     1
102
RTVSPost2010Prop40
 90
        0
102
RTVSPost2010PropOp40
 70
     1
102
RTVSPost2010Prop41ColorIndex
 90
       18
102
RTVSPost2010Prop41ColorRGB
 90
        0
102
RTVSPost2010PropOp41
 70
     1
102
RTVSPost2010Prop42
 90
       50
102
RTVSPost2010PropOp42
 70
     1
102
RTVSPost2010Prop43
 90
        3
102
RTVSPost2010PropOp43
 70
     1
102
RTVSPost2010Prop44ColorIndex
 90
        5
102
RTVSPost2010Prop44ColorRGB
 90
      255
102
RTVSPost2010PropOp44
 70
     1
102
RTVSPost2010Prop45
280
     0
102
RTVSPost2010PropOp45
 70
     1
102
RTVSPost2010Prop46
 90
       50
102
RTVSPost2010PropOp46
 70
     1
102
RTVSPost2010Prop47
 90
       50
102
RTVSPost2010PropOp47
 70
     1
102
RTVSPost2010Prop48
 90
       50
102
RTVSPost2010PropOp48
 70
     1
102
RTVSPost2010Prop49
280
     0
102
RTVSPost2010PropOp49
 70
     1
102
RTVSPost2010Prop50
 90
       50
102
RTVSPost2010PropOp50
 70
     1
102
RTVSPost2010Prop51ColorIndex
 90
      256
102
RTVSPost2010Prop51ColorRGB
 90
-16777216
102
RTVSPost2010PropOp51
 70
     0
102
RTVSPost2010Prop52
140
1.0
102
RTVSPost2010PropOp52
 70
     0
102
RTVSPost2010Prop53
 90
        2
102
RTVSPost2010PropOp53
 70
     1
102
RTVSPost2010Prop54
  1
strokes_ogs.tif
102
RTVSPost2010PropOp54
 70
     1
102
RTVSPost2010Prop55
280
     0
102
RTVSPost2010PropOp55
 70
     1
102
RTVSPost2010Prop56
140
1.0
102
RTVSPost2010PropOp56
 70
     1
102
RTVSPost2010Prop57
140
1.0
102
RTVSPost2010PropOp57
 70
     1
  0
XRECORD
  5
573
102
{ACAD_REACTORS
330
572
102
}
330
572
100
AcDbXrecord
280
     1
102
RTVSPost2010Prop28
280
     0
102
RTVSPost2010PropOp28
 70
     1
102
RTVSPost2010Prop29
280
     1
102
RTVSPost2010PropOp29
 70
     1
102
RTVSPost2010Prop30
280
     1
102
RTVSPost2010PropOp30
 70
     1
102
RTVSPost2010Prop31
280
     0
102
RTVSPost2010PropOp31
 70
     1
102
RTVSPost2010Prop32
280
     0
102
RTVSPost2010PropOp32
 70
     1
102
RTVSPost2010Prop33
280
     0
102
RTVSPost2010PropOp33
 70
     1
102
RTVSPost2010Prop34
280
     0
102
RTVSPost2010PropOp34
 70
     1
102
RTVSPost2010Prop35
280
     0
102
RTVSPost2010PropOp35
 70
     1
102
RTVSPost2010Prop36
280
     0
102
RTVSPost2010PropOp36
 70
     1
102
RTVSPost2010Prop37
 90
       50
102
RTVSPost2010PropOp37
 70
     1
102
RTVSPost2010Prop38
140
0.0
102
RTVSPost2010PropOp38
 70
     1
102
RTVSPost2010Prop39
140
1.0
102
RTVSPost2010PropOp39
 70
     1
102
RTVSPost2010Prop40
 90
        0
102
RTVSPost2010PropOp40
 70
     1
102
RTVSPost2010Prop41ColorIndex
 90
       18
102
RTVSPost2010Prop41ColorRGB
 90
        0
102
RTVSPost2010PropOp41
 70
     1
102
RTVSPost2010Prop42
 90
       50
102
RTVSPost2010PropOp42
 70
     1
102
RTVSPost2010Prop43
 90
        3
102
RTVSPost2010PropOp43
 70
     1
102
RTVSPost2010Prop44ColorIndex
 90
        5
102
RTVSPost2010Prop44ColorRGB
 90
      255
102
RTVSPost2010PropOp44
 70
     1
102
RTVSPost2010Prop45
280
     0
102
RTVSPost2010PropOp45
 70
     1
102
RTVSPost2010Prop46
 90
       50
102
RTVSPost2010PropOp46
 70
     1
102
RTVSPost2010Prop47
 90
       50
102
RTVSPost2010PropOp47
 70
     1
102
RTVSPost2010Prop48
 90
       50
102
RTVSPost2010PropOp48
 70
     1
102
RTVSPost2010Prop49
280
     0
102
RTVSPost2010PropOp49
 70
     1
102
RTVSPost2010Prop50
 90
       50
102
RTVSPost2010PropOp50
 70
     1
102
RTVSPost2010Prop51ColorIndex
 90
      256
102
RTVSPost2010Prop51ColorRGB
 90
-16777216
102
RTVSPost2010PropOp51
 70
     0
102
RTVSPost2010Prop52
140
1.0
102
RTVSPost2010PropOp52
 70
     0
102
RTVSPost2010Prop53
 90
        2
102
RTVSPost2010PropOp53
 70
     1
102
RTVSPost2010Prop54
  1
strokes_ogs.tif
102
RTVSPost2010PropOp54
 70
     1
102
RTVSPost2010Prop55
280
     0
102
RTVSPost2010PropOp55
 70
     1
102
RTVSPost2010Prop56
140
1.0
102
RTVSPost2010PropOp56
 70
     1
102
RTVSPost2010Prop57
140
1.0
102
RTVSPost2010PropOp57
 70
     1
  0
XRECORD
  5
565
102
{ACAD_REACTORS
330
564
102
}
330
564
100
AcDbXrecord
280
     1
102
RTVSPost2010Prop28
280
     0
102
RTVSPost2010PropOp28
 70
     1
102
RTVSPost2010Prop29
280
     1
102
RTVSPost2010PropOp29
 70
     1
102
RTVSPost2010Prop30
280
     1
102
RTVSPost2010PropOp30
 70
     1
102
RTVSPost2010Prop31
280
     0
102
RTVSPost2010PropOp31
 70
     1
102
RTVSPost2010Prop32
280
     0
102
RTVSPost2010PropOp32
 70
     1
102
RTVSPost2010Prop33
280
     0
102
RTVSPost2010PropOp33
 70
     1
102
RTVSPost2010Prop34
280
     0
102
RTVSPost2010PropOp34
 70
     1
102
RTVSPost2010Prop35
280
     0
102
RTVSPost2010PropOp35
 70
     1
102
RTVSPost2010Prop36
280
     0
102
RTVSPost2010PropOp36
 70
     1
102
RTVSPost2010Prop37
 90
       50
102
RTVSPost2010PropOp37
 70
     1
102
RTVSPost2010Prop38
140
0.0
102
RTVSPost2010PropOp38
 70
     1
102
RTVSPost2010Prop39
140
1.0
102
RTVSPost2010PropOp39
 70
     1
102
RTVSPost2010Prop40
 90
        0
102
RTVSPost2010PropOp40
 70
     1
102
RTVSPost2010Prop41ColorIndex
 90
       18
102
RTVSPost2010Prop41ColorRGB
 90
        0
102
RTVSPost2010PropOp41
 70
     1
102
RTVSPost2010Prop42
 90
       50
102
RTVSPost2010PropOp42
 70
     1
102
RTVSPost2010Prop43
 90
        3
102
RTVSPost2010PropOp43
 70
     1
102
RTVSPost2010Prop44ColorIndex
 90
        5
102
RTVSPost2010Prop44ColorRGB
 90
      255
102
RTVSPost2010PropOp44
 70
     1
102
RTVSPost2010Prop45
280
     0
102
RTVSPost2010PropOp45
 70
     1
102
RTVSPost2010Prop46
 90
       50
102
RTVSPost2010PropOp46
 70
     1
102
RTVSPost2010Prop47
 90
       50
102
RTVSPost2010PropOp47
 70
     1
102
RTVSPost2010Prop48
 90
       50
102
RTVSPost2010PropOp48
 70
     1
102
RTVSPost2010Prop49
280
     0
102
RTVSPost2010PropOp49
 70
     1
102
RTVSPost2010Prop50
 90
       50
102
RTVSPost2010PropOp50
 70
     1
102
RTVSPost2010Prop51ColorIndex
 90
      256
102
RTVSPost2010Prop51ColorRGB
 90
-16777216
102
RTVSPost2010PropOp51
 70
     0
102
RTVSPost2010Prop52
140
1.0
102
RTVSPost2010PropOp52
 70
     0
102
RTVSPost2010Prop53
 90
        2
102
RTVSPost2010PropOp53
 70
     1
102
RTVSPost2010Prop54
  1
strokes_ogs.tif
102
RTVSPost2010PropOp54
 70
     1
102
RTVSPost2010Prop55
280
     0
102
RTVSPost2010PropOp55
 70
     1
102
RTVSPost2010Prop56
140
1.0
102
RTVSPost2010PropOp56
 70
     1
102
RTVSPost2010Prop57
140
1.0
102
RTVSPost2010PropOp57
 70
     1
  0
XRECORD
  5
585
102
{ACAD_REACTORS
330
584
102
}
330
584
100
AcDbXrecord
280
     1
102
RTVSPost2010Prop28
280
     0
102
RTVSPost2010PropOp28
 70
     1
102
RTVSPost2010Prop29
280
     1
102
RTVSPost2010PropOp29
 70
     1
102
RTVSPost2010Prop30
280
     1
102
RTVSPost2010PropOp30
 70
     1
102
RTVSPost2010Prop31
280
     0
102
RTVSPost2010PropOp31
 70
     1
102
RTVSPost2010Prop32
280
     0
102
RTVSPost2010PropOp32
 70
     1
102
RTVSPost2010Prop33
280
     0
102
RTVSPost2010PropOp33
 70
     1
102
RTVSPost2010Prop34
280
     0
102
RTVSPost2010PropOp34
 70
     1
102
RTVSPost2010Prop35
280
     0
102
RTVSPost2010PropOp35
 70
     1
102
RTVSPost2010Prop36
280
     0
102
RTVSPost2010PropOp36
 70
     1
102
RTVSPost2010Prop37
 90
       50
102
RTVSPost2010PropOp37
 70
     1
102
RTVSPost2010Prop38
140
0.0
102
RTVSPost2010PropOp38
 70
     1
102
RTVSPost2010Prop39
140
1.0
102
RTVSPost2010PropOp39
 70
     1
102
RTVSPost2010Prop40
 90
        0
102
RTVSPost2010PropOp40
 70
     1
102
RTVSPost2010Prop41ColorIndex
 90
       18
102
RTVSPost2010Prop41ColorRGB
 90
        0
102
RTVSPost2010PropOp41
 70
     1
102
RTVSPost2010Prop42
 90
       50
102
RTVSPost2010PropOp42
 70
     1
102
RTVSPost2010Prop43
 90
        3
102
RTVSPost2010PropOp43
 70
     1
102
RTVSPost2010Prop44ColorIndex
 90
        5
102
RTVSPost2010Prop44ColorRGB
 90
      255
102
RTVSPost2010PropOp44
 70
     1
102
RTVSPost2010Prop45
280
     0
102
RTVSPost2010PropOp45
 70
     1
102
RTVSPost2010Prop46
 90
       50
102
RTVSPost2010PropOp46
 70
     1
102
RTVSPost2010Prop47
 90
       50
102
RTVSPost2010PropOp47
 70
     1
102
RTVSPost2010Prop48
 90
       50
102
RTVSPost2010PropOp48
 70
     1
102
RTVSPost2010Prop49
280
     0
102
RTVSPost2010PropOp49
 70
     1
102
RTVSPost2010Prop50
 90
       50
102
RTVSPost2010PropOp50
 70
     1
102
RTVSPost2010Prop51ColorIndex
 90
      256
102
RTVSPost2010Prop51ColorRGB
 90
-16777216
102
RTVSPost2010PropOp51
 70
     0
102
RTVSPost2010Prop52
140
1.0
102
RTVSPost2010PropOp52
 70
     0
102
RTVSPost2010Prop53
 90
        2
102
RTVSPost2010PropOp53
 70
     1
102
RTVSPost2010Prop54
  1
strokes_ogs.tif
102
RTVSPost2010PropOp54
 70
     1
102
RTVSPost2010Prop55
280
     0
102
RTVSPost2010PropOp55
 70
     1
102
RTVSPost2010Prop56
140
1.0
102
RTVSPost2010PropOp56
 70
     1
102
RTVSPost2010Prop57
140
1.0
102
RTVSPost2010PropOp57
 70
     1
  0
ENDSEC
  0
EOF
