999
DXF file: 6f4_c_047.dxf
999
Pro/ENGINEER 2016360 by Parametric Technology Corporation
  0
SECTION
  2
HEADER
  9
$ACADVER
  1
AC1014
  9
$DWGCODEPAGE
  3
ANSI_1252
  9
$EXTMAX
 10
3200.0
 20
2500.0
 30
0.0
  9
$EXTMIN
 10
0.0
 20
0.0
 30
0.0
  9
$LIMMIN
 10
0.0
 20
0.0
  9
$LIMMAX
 10
3200.0
 20
2500.0
  9
$VIEWCTR
 10
1600.0
 20
1250.0
  9
$VIEWSIZE
 40
2500.0
  9
$CLAYER
  8
0
  9
$LTSCALE
 40
176.0
  9
$CELTYPE
  6
BYLAYER
  9
$DIMSCALE
 40
1.0
  9
$DIMASZ
 40
2.5
  9
$DIMEXO
 40
0.75
  9
$DIMDLI
 40
121.6
  9
$DIMEXE
 40
0.75
  9
$DIMCEN
 40
28.8
  9
$DIMLFAC
 40
1.0
  9
$DIMBLK
  1
_CLOSED
  9
$DIMALT
 70
0
  9
$DIMALTF
 40
25.4
  9
$DIMTXT
 40
3.0
  9
$DIMTOL
 70
1
  9
$DIMLIM
 70
0
  9
$DIMTFAC
 40
1.0
  9
$DIMTP
 40
0.01
  9
$DIMTM
 40
0.01
  9
$DIMGAP
 40
0.625
  9
$AUNITS
 70
0
  9
$PDMODE
 70
3
  9
$PDSIZE
 40
0.3125
  9
$HANDSEED
  5
5CB
  9
$TILEMODE
 70
1
  9
$MEASUREMENT
 70
1
  0
ENDSEC
  0
SECTION
  2
CLASSES
  0
ENDSEC
  0
SECTION
  2
TABLES
  0
TABLE
  2
VPORT
  5
8
100
AcDbSymbolTable
 70
2
  0
VPORT
  5
1F4
100
AcDbSymbolTableRecord
100
AcDbViewportTableRecord
  2
*ACTIVE
 70
0
 10
0.0
 20
0.0
 11
1.0
 21
1.0
 12
1600.0
 22
1250.0
 13
0.0
 23
0.0
 14
1.0
 24
1.0
 15
0.0
 25
0.0
 16
0.0
 26
0.0
 36
1.0
 17
0.0
 27
0.0
 37
0.0
 40
2500.0
 41
1.28
 42
50.0
 43
0.0
 44
0.0
 50
0.0
 51
0.0
 71
0
 72
100
 73
1
 74
1
 75
0
 76
0
 77
0
 78
0
  0
ENDTAB
  0
TABLE
  2
LTYPE
  5
5
100
AcDbSymbolTable
 70
6
  0
LTYPE
  5
14
100
AcDbSymbolTableRecord
100
AcDbLinetypeTableRecord
  2
BYBLOCK
 70
0
  3

 72
65
 73
0
 40
0.0
  0
LTYPE
  5
15
100
AcDbSymbolTableRecord
100
AcDbLinetypeTableRecord
  2
BYLAYER
 70
0
  3

 72
65
 73
0
 40
0.0
  0
LTYPE
  5
16
100
AcDbSymbolTableRecord
100
AcDbLinetypeTableRecord
  2
CONTINUOUS
 70
64
  3
Solid line
 72
65
 73
0
 40
0.0
  0
LTYPE
  5
1F5
100
AcDbSymbolTableRecord
100
AcDbLinetypeTableRecord
  2
CENTER
 70
64
  3
____ _ ____ _ ____ _ ____ _ ____ _ ____ _ ____
 72
65
 73
4
 40
0.6
 49
0.375
 74
0
 49
-0.075
 74
0
 49
0.075
 74
0
 49
-0.075
 74
0
  0
LTYPE
  5
1F6
100
AcDbSymbolTableRecord
100
AcDbLinetypeTableRecord
  2
HIDDEN
 70
64
  3
- - - - - - - - - - - - - - - - - - - -
 72
65
 73
2
 40
0.2
 49
0.1
 74
0
 49
-0.1
 74
0
  0
LTYPE
  5
1F7
100
AcDbSymbolTableRecord
100
AcDbLinetypeTableRecord
  2
PHANTOM
 70
64
  3
_____ _ _ _____ _ _ _____ _ _ _____
 72
65
 73
6
 40
0.8
 49
0.45
 74
0
 49
-0.05
 74
0
 49
0.1
 74
0
 49
-0.05
 74
0
 49
0.1
 74
0
 49
-0.05
 74
0
  0
LTYPE
  5
1F8
100
AcDbSymbolTableRecord
100
AcDbLinetypeTableRecord
  2
DOT
 70
64
  3
. . . . . . . . . . . . . . . . . . . .
 72
65
 73
2
 40
0.2
 49
0.1
 74
0
 49
-0.1
 74
0
  0
LTYPE
  5
1F9
100
AcDbSymbolTableRecord
100
AcDbLinetypeTableRecord
  2
DASHED
 70
64
  3
- - - - - - - - - - - - - - - - - - - -
 72
65
 73
2
 40
0.2
 49
0.1
 74
0
 49
-0.1
 74
0
  0
ENDTAB
  0
TABLE
  2
LAYER
  5
2
100
AcDbSymbolTable
 70
36
  0
LAYER
  5
10
100
AcDbSymbolTableRecord
100
AcDbLayerTableRecord
  2
0
 70
0
 62
7
  6
CONTINUOUS
  0
LAYER
  5
1FA
100
AcDbSymbolTableRecord
100
AcDbLayerTableRecord
  2
DEFAULT_1
 70
0
 62
7
  6
CENTER
  0
LAYER
  5
1FB
100
AcDbSymbolTableRecord
100
AcDbLayerTableRecord
  2
DEFAULT_2
 70
0
 62
8
  6
HIDDEN
  0
LAYER
  5
1FC
100
AcDbSymbolTableRecord
100
AcDbLayerTableRecord
  2
DEFAULT_3
 70
0
 62
7
  6
PHANTOM
  0
LAYER
  5
1FD
100
AcDbSymbolTableRecord
100
AcDbLayerTableRecord
  2
1_ALL_PLANES
 70
0
 62
7
  6
CONTINUOUS
  0
LAYER
  5
1FE
100
AcDbSymbolTableRecord
100
AcDbLayerTableRecord
  2
2_ALL_CSYS
 70
0
 62
7
  6
CONTINUOUS
  0
LAYER
  5
1FF
100
AcDbSymbolTableRecord
100
AcDbLayerTableRecord
  2
3_ALL_AXES
 70
0
 62
7
  6
CONTINUOUS
  0
LAYER
  5
200
100
AcDbSymbolTableRecord
100
AcDbLayerTableRecord
  2
4_ALL_POINTS
 70
0
 62
7
  6
CONTINUOUS
  0
LAYER
  5
201
100
AcDbSymbolTableRecord
100
AcDbLayerTableRecord
  2
5_ALL_CURVES
 70
0
 62
7
  6
CONTINUOUS
  0
LAYER
  5
202
100
AcDbSymbolTableRecord
100
AcDbLayerTableRecord
  2
5__COSTRUZIONE
 70
0
 62
7
  6
CONTINUOUS
  0
LAYER
  5
203
100
AcDbSymbolTableRecord
100
AcDbLayerTableRecord
  2
6_ALL_SURFS
 70
0
 62
7
  6
CONTINUOUS
  0
LAYER
  5
204
100
AcDbSymbolTableRecord
100
AcDbLayerTableRecord
  2
7_ALL_FEATURES
 70
0
 62
7
  6
CONTINUOUS
  0
LAYER
  5
205
100
AcDbSymbolTableRecord
100
AcDbLayerTableRecord
  2
9_SOLID
 70
0
 62
7
  6
CONTINUOUS
  0
LAYER
  5
206
100
AcDbSymbolTableRecord
100
AcDbLayerTableRecord
  2
PR9036
 70
0
 62
7
  6
CONTINUOUS
  0
LAYER
  5
207
100
AcDbSymbolTableRecord
100
AcDbLayerTableRecord
  2
WHITE
 70
0
 62
7
  6
CONTINUOUS
  0
LAYER
  5
208
100
AcDbSymbolTableRecord
100
AcDbLayerTableRecord
  2
XXX_SOLIDO
 70
0
 62
7
  6
CONTINUOUS
  0
ENDTAB
  0
TABLE
  2
STYLE
  5
3
100
AcDbSymbolTable
 70
1
  0
STYLE
  5
11
100
AcDbSymbolTableRecord
100
AcDbTextStyleTableRecord
  2
STANDARD
 70
0
 40
0.0
 41
1.0
 50
0.0
 71
0
 42
0.2
  3
arial.ttf
  4

  0
STYLE
  5
209
100
AcDbSymbolTableRecord
100
AcDbTextStyleTableRecord
  2
TEXTSTYLE_1
 70
0
 40
0.0
 41
0.8
 50
0.0
 71
0
 42
0.2
  3
gdt
  4

  0
STYLE
  5
20A
100
AcDbSymbolTableRecord
100
AcDbTextStyleTableRecord
  2
TEXTSTYLE_2
 70
0
 40
0.0
 41
0.85
 50
0.0
 71
0
 42
0.2
  3
txt
  4

  0
ENDTAB
  0
TABLE
  2
VIEW
  5
6
100
AcDbSymbolTable
 70
0
  0
ENDTAB
  0
TABLE
  2
UCS
  5
7
100
AcDbSymbolTable
 70
0
  0
ENDTAB
  0
TABLE
  2
APPID
  5
9
100
AcDbSymbolTable
 70
1
  0
APPID
  5
20B
100
AcDbSymbolTableRecord
100
AcDbRegAppTableRecord
  2
ACAD
 70
0
  0
ENDTAB
  0
TABLE
  2
BLOCK_RECORD
  5
1
100
AcDbSymbolTable
 70
0
  0
BLOCK_RECORD
  5
1F
100
AcDbSymbolTableRecord
100
AcDbBlockTableRecord
  2
*MODEL_SPACE
  0
BLOCK_RECORD
  5
1B
100
AcDbSymbolTableRecord
100
AcDbBlockTableRecord
  2
*PAPER_SPACE
  0
BLOCK_RECORD
  5
20C
100
AcDbSymbolTableRecord
100
AcDbBlockTableRecord
  2
_CLOSED
  0
BLOCK_RECORD
  5
20D
100
AcDbSymbolTableRecord
100
AcDbBlockTableRecord
  2
*D0
  0
BLOCK_RECORD
  5
20E
100
AcDbSymbolTableRecord
100
AcDbBlockTableRecord
  2
*D1
  0
BLOCK_RECORD
  5
20F
100
AcDbSymbolTableRecord
100
AcDbBlockTableRecord
  2
*D2
  0
BLOCK_RECORD
  5
210
100
AcDbSymbolTableRecord
100
AcDbBlockTableRecord
  2
*D3
  0
BLOCK_RECORD
  5
211
100
AcDbSymbolTableRecord
100
AcDbBlockTableRecord
  2
LOGO2_BL0
  0
ENDTAB
  0
TABLE
  2
DIMSTYLE
  5
A
100
AcDbSymbolTable
 70
1
  0
DIMSTYLE
105
212
100
AcDbSymbolTableRecord
100
AcDbDimStyleTableRecord
  2
STANDARD
 70
0
  3

  4

  5
_CLOSED
  6
_CLOSED
  7
_CLOSED
 40
1.0
 41
2.5
 42
0.75
 43
0.38
 44
0.75
 45
0.0
 46
0.0
 47
0.01
 48
0.01
140
3.0
141
0.09
142
0.0
143
25.4
144
1.0
145
0.0
146
1.0
147
0.625
 71
1.0
 72
0.0
 73
0
 74
0
 75
0
 76
0
 77
1
 78
8
 79
2
170
0
171
1
172
0
173
0
174
0
175
0
176
0
177
0
178
0
270
2
179
2
271
2
272
2
273
2
274
2
275
0
280
0
281
0
282
0
283
1
284
8
285
0
286
0
287
3
288
0
340
11
  0
DIMSTYLE
105
213
100
AcDbSymbolTableRecord
100
AcDbDimStyleTableRecord
  2
DIMSTYLE_1
 70
0
  3

  4

  5
_CLOSED
  6
_CLOSED
  7
_CLOSED
 40
1.0
 41
2.5
 42
0.75
 43
0.38
 44
0.75
 45
0.0
 46
0.0
 47
0.3
 48
0.3
140
10.0
141
0.09
142
0.0
143
25.4
144
1.0
145
0.0
146
1.0
147
2.5
 71
0.0
 72
0.0
 73
0
 74
0
 75
0
 76
0
 77
1
 78
8
 79
2
170
0
171
1
172
0
173
0
174
0
175
0
176
0
177
0
178
0
270
2
179
2
271
2
272
2
273
2
274
2
275
0
280
0
281
0
282
0
283
1
284
8
285
0
286
0
287
3
288
0
340
11
  0
DIMSTYLE
105
214
100
AcDbSymbolTableRecord
100
AcDbDimStyleTableRecord
  2
DIMSTYLE_2
 70
0
  3

  4

  5
_CLOSED
  6
_CLOSED
  7
_CLOSED
 40
1.0
 41
2.5
 42
0.75
 43
0.38
 44
0.75
 45
0.0
 46
0.0
 47
2.0
 48
2.0
140
10.0
141
0.09
142
0.0
143
25.4
144
1.0
145
0.0
146
1.0
147
2.5
 71
0.0
 72
0.0
 73
0
 74
0
 75
0
 76
0
 77
1
 78
8
 79
2
170
0
171
1
172
0
173
0
174
0
175
0
176
0
177
0
178
0
270
2
179
2
271
2
272
2
273
2
274
2
275
0
280
0
281
0
282
0
283
1
284
8
285
0
286
0
287
3
288
0
340
11
  0
ENDTAB
  0
ENDSEC
  0
SECTION
  2
BLOCKS
  0
BLOCK
  5
20
100
AcDbEntity
  8
0
100
AcDbBlockBegin
  2
*MODEL_SPACE
 70
0
 10
0.0
 20
0.0
 30
0.0
  3
*MODEL_SPACE
  1

  0
ENDBLK
  5
21
100
AcDbEntity
  8
0
100
AcDbBlockEnd
  0
BLOCK
  5
1C
100
AcDbEntity
  8
0
100
AcDbBlockBegin
  2
*PAPER_SPACE
 70
0
 10
0.0
 20
0.0
 30
0.0
  3
*PAPER_SPACE
  1

  0
ENDBLK
  5
1D
100
AcDbEntity
  8
0
100
AcDbBlockEnd
  0
BLOCK
  5
215
100
AcDbEntity
  8
0
100
AcDbBlockBegin
 62
2
  6
CONTINUOUS
  2
LOGO2_BL0
 70
64
 10
3067.6061951845
 20
35.4868275471
  3
LOGO2_BL0
  1

  0
LINE
  5
216
100
AcDbEntity
  8
0
100
AcDbLine
 62
7
  6
CONTINUOUS
 10
3059.3491204127
 20
38.6823188859
 11
3058.0447794833
 21
38.6823188859
  0
LINE
  5
217
100
AcDbEntity
  8
0
100
AcDbLine
 62
7
  6
CONTINUOUS
 10
3058.0447794833
 20
38.6823188859
 11
3058.0447794833
 21
28.223252826
  0
LINE
  5
218
100
AcDbEntity
  8
0
100
AcDbLine
 62
7
  6
CONTINUOUS
 10
3058.0447794833
 20
28.223252826
 11
3062.5258343716
 21
28.223252826
  0
LINE
  5
219
100
AcDbEntity
  8
0
100
AcDbLine
 62
7
  6
CONTINUOUS
 10
3062.5258343716
 20
28.223252826
 11
3062.5258343716
 21
29.4161071511
  0
LINE
  5
21A
100
AcDbEntity
  8
0
100
AcDbLine
 62
7
  6
CONTINUOUS
 10
3062.5258343716
 20
29.4161071511
 11
3059.3491204127
 21
29.4161071511
  0
LINE
  5
21B
100
AcDbEntity
  8
0
100
AcDbLine
 62
7
  6
CONTINUOUS
 10
3059.3491204127
 20
29.4161071511
 11
3059.3491204127
 21
38.6823188859
  0
LINE
  5
21C
100
AcDbEntity
  8
0
100
AcDbLine
 62
7
  6
CONTINUOUS
 10
3074.285446629
 20
38.6823188859
 11
3072.9816291109
 21
38.6823188859
  0
LINE
  5
21D
100
AcDbEntity
  8
0
100
AcDbLine
 62
7
  6
CONTINUOUS
 10
3072.9816291109
 20
38.6823188859
 11
3072.9816291109
 21
28.223252826
  0
LINE
  5
21E
100
AcDbEntity
  8
0
100
AcDbLine
 62
7
  6
CONTINUOUS
 10
3072.9816291109
 20
28.223252826
 11
3077.462814852
 21
28.223252826
  0
LINE
  5
21F
100
AcDbEntity
  8
0
100
AcDbLine
 62
7
  6
CONTINUOUS
 10
3077.462814852
 20
28.223252826
 11
3077.462814852
 21
29.4161071511
  0
LINE
  5
220
100
AcDbEntity
  8
0
100
AcDbLine
 62
7
  6
CONTINUOUS
 10
3077.462814852
 20
29.4161071511
 11
3074.285446629
 21
29.4161071511
  0
LINE
  5
221
100
AcDbEntity
  8
0
100
AcDbLine
 62
7
  6
CONTINUOUS
 10
3074.285446629
 20
29.4161071511
 11
3074.285446629
 21
38.6823188859
  0
LWPOLYLINE
  5
222
100
AcDbEntity
  8
0
100
AcDbPolyline
 62
7
  6
CONTINUOUS
 90
2
 70
0
 43
0.2
 10
3056.3991743943
 20
24.8797015191
 10
3056.3991743943
 20
23.0226382698
  0
LWPOLYLINE
  5
223
100
AcDbEntity
  8
0
100
AcDbPolyline
 62
7
  6
CONTINUOUS
 90
2
 70
0
 43
0.2
 10
3056.3991743943
 20
23.0226382698
 10
3057.1948904046
 20
23.0226382698
  0
LWPOLYLINE
  5
224
100
AcDbEntity
  8
0
100
AcDbPolyline
 62
7
  6
CONTINUOUS
 90
2
 70
0
 43
0.2
 10
3057.1948904046
 20
23.0226382698
 10
3057.1948904046
 20
23.2346198414
  0
LWPOLYLINE
  5
225
100
AcDbEntity
  8
0
100
AcDbPolyline
 62
7
  6
CONTINUOUS
 90
2
 70
0
 43
0.2
 10
3057.1948904046
 20
23.2346198414
 10
3056.6307838891
 20
23.2346198414
  0
LWPOLYLINE
  5
226
100
AcDbEntity
  8
0
100
AcDbPolyline
 62
7
  6
CONTINUOUS
 90
2
 70
0
 43
0.2
 10
3056.6307838891
 20
23.2346198414
 10
3056.6307838891
 20
24.8797015191
  0
LWPOLYLINE
  5
227
100
AcDbEntity
  8
0
100
AcDbPolyline
 62
7
  6
CONTINUOUS
 90
2
 70
0
 43
0.2
 10
3056.6307838891
 20
24.8797015191
 10
3056.3991743943
 20
24.8797015191
  0
SPLINE
  5
228
100
AcDbEntity
  8
0
100
AcDbSpline
 62
7
  6
CONTINUOUS
 70
2
 71
3
 72
35
 73
31
 74
0
 42
0.0000001
 43
0.0000001
 44
0.0000000001
 40
0.0
 40
0.0
 40
0.0
 40
0.0
 40
1.0
 40
1.0
 40
1.0
 40
2.0
 40
2.0
 40
2.0
 40
3.0
 40
3.0
 40
3.0
 40
4.0
 40
4.0
 40
4.0
 40
5.0
 40
5.0
 40
5.0
 40
6.0
 40
6.0
 40
6.0
 40
7.0
 40
7.0
 40
7.0
 40
8.0
 40
8.0
 40
8.0
 40
9.0
 40
9.0
 40
9.0
 40
10.0
 40
10.0
 40
10.0
 40
10.0
 10
3058.5931836602
 20
24.1751899257
 30
0.0
 10
3058.5931836602
 20
24.1751899257
 30
0.0
 10
3058.5931836602
 20
23.5130746465
 30
0.0
 10
3058.5931836602
 20
23.5130746465
 30
0.0
 10
3058.5931836602
 20
23.1979810512
 30
0.0
 10
3058.741047349
 20
22.9833824232
 30
0.0
 10
3059.0811338333
 20
22.9833824232
 30
0.0
 10
3059.4206969063
 20
22.9833824232
 30
0.0
 10
3059.5688223008
 20
23.1979810512
 30
0.0
 10
3059.5688223008
 20
23.5130746465
 30
0.0
 10
3059.5688223008
 20
23.5130746465
 30
0.0
 10
3059.5688223008
 20
24.1751899257
 30
0.0
 10
3059.5688223008
 20
24.1751899257
 30
0.0
 10
3059.5688223008
 20
24.1751899257
 30
0.0
 10
3059.3467650619
 20
24.1751899257
 30
0.0
 10
3059.3467650619
 20
24.1751899257
 30
0.0
 10
3059.3467650619
 20
24.1751899257
 30
0.0
 10
3059.3467650619
 20
23.5381983883
 30
0.0
 10
3059.3467650619
 20
23.5381983883
 30
0.0
 10
3059.3467650619
 20
23.3523873811
 30
0.0
 10
3059.3000506045
 20
23.1896064706
 30
0.0
 10
3059.0811338333
 20
23.1896064706
 30
0.0
 10
3058.8616936509
 20
23.1896064706
 30
0.0
 10
3058.8149791934
 20
23.3523873811
 30
0.0
 10
3058.8149791934
 20
23.5381983883
 30
0.0
 10
3058.8149791934
 20
23.5381983883
 30
0.0
 10
3058.8149791934
 20
24.1751899257
 30
0.0
 10
3058.8149791934
 20
24.1751899257
 30
0.0
 10
3058.8149791934
 20
24.1751899257
 30
0.0
 10
3058.5931836602
 20
24.1751899257
 30
0.0
 10
3058.5931836602
 20
24.1751899257
 30
0.0
  0
SPLINE
  5
229
100
AcDbEntity
  8
0
100
AcDbSpline
 62
7
  6
CONTINUOUS
 70
2
 71
3
 72
35
 73
31
 74
0
 42
0.0000001
 43
0.0000001
 44
0.0000000001
 40
0.0
 40
0.0
 40
0.0
 40
0.0
 40
1.0
 40
1.0
 40
1.0
 40
2.0
 40
2.0
 40
2.0
 40
3.0
 40
3.0
 40
3.0
 40
4.0
 40
4.0
 40
4.0
 40
5.0
 40
5.0
 40
5.0
 40
6.0
 40
6.0
 40
6.0
 40
7.0
 40
7.0
 40
7.0
 40
8.0
 40
8.0
 40
8.0
 40
9.0
 40
9.0
 40
9.0
 40
10.0
 40
10.0
 40
10.0
 40
10.0
 10
3061.991954858
 20
24.1338404339
 30
0.0
 10
3061.9034983503
 20
24.1851347401
 30
0.0
 10
3061.7900489537
 20
24.2102584819
 30
0.0
 10
3061.6864135187
 20
24.2102584819
 30
0.0
 10
3061.3315406655
 20
24.2102584819
 30
0.0
 10
3061.0560954753
 20
23.9464591929
 30
0.0
 10
3061.0560954753
 20
23.5889692832
 30
0.0
 10
3061.0560954753
 20
23.2440412445
 30
0.0
 10
3061.3345502804
 20
22.9839058345
 30
0.0
 10
3061.6741133534
 20
22.9839058345
 30
0.0
 10
3061.7900489537
 20
22.9839058345
 30
0.0
 10
3061.8908056266
 20
23.0058891086
 30
0.0
 10
3061.991954858
 20
23.0598004712
 30
0.0
 10
3061.991954858
 20
23.0598004712
 30
0.0
 10
3061.991954858
 20
23.3424425667
 30
0.0
 10
3061.991954858
 20
23.3424425667
 30
0.0
 10
3061.9080781991
 20
23.2492753574
 30
0.0
 10
3061.8045736169
 20
23.1901298819
 30
0.0
 10
3061.6764687042
 20
23.1901298819
 30
0.0
 10
3061.4427655642
 20
23.1901298819
 30
0.0
 10
3061.27749845
 20
23.3623321956
 30
0.0
 10
3061.27749845
 20
23.5989140977
 30
0.0
 10
3061.27749845
 20
23.8108956693
 30
0.0
 10
3061.4452517678
 20
24.0029876119
 30
0.0
 10
3061.6620748938
 20
24.0029876119
 30
0.0
 10
3061.7948905081
 20
24.0029876119
 30
0.0
 10
3061.9034983503
 20
23.9490762493
 30
0.0
 10
3061.991954858
 20
23.8480578707
 30
0.0
 10
3061.991954858
 20
23.8480578707
 30
0.0
 10
3061.991954858
 20
24.1338404339
 30
0.0
 10
3061.991954858
 20
24.1338404339
 30
0.0
  0
SPLINE
  5
22A
100
AcDbEntity
  8
0
100
AcDbSpline
 62
7
  6
CONTINUOUS
 70
2
 71
3
 72
32
 73
28
 74
0
 42
0.0000001
 43
0.0000001
 44
0.0000000001
 40
0.0
 40
0.0
 40
0.0
 40
0.0
 40
1.0
 40
1.0
 40
1.0
 40
2.0
 40
2.0
 40
2.0
 40
3.0
 40
3.0
 40
3.0
 40
4.0
 40
4.0
 40
4.0
 40
5.0
 40
5.0
 40
5.0
 40
6.0
 40
6.0
 40
6.0
 40
7.0
 40
7.0
 40
7.0
 40
8.0
 40
8.0
 40
8.0
 40
9.0
 40
9.0
 40
9.0
 40
9.0
 10
3064.5238261102
 20
23.5622753076
 30
0.0
 10
3064.5238261102
 20
23.5622753076
 30
0.0
 10
3064.5238261102
 20
23.5962970413
 30
0.0
 10
3064.5238261102
 20
23.5962970413
 30
0.0
 10
3064.5238261102
 20
23.9386080235
 30
0.0
 10
3064.3509695324
 20
24.2102584819
 30
0.0
 10
3063.9843199253
 20
24.2102584819
 30
0.0
 10
3063.6126979109
 20
24.2102584819
 30
0.0
 10
3063.422961319
 20
23.9438421364
 30
0.0
 10
3063.422961319
 20
23.5889692832
 30
0.0
 10
3063.422961319
 20
23.2492753574
 30
0.0
 10
3063.6370365357
 20
22.9833824232
 30
0.0
 10
3063.9891614797
 20
22.9833824232
 30
0.0
 10
3064.2131815109
 20
22.9833824232
 30
0.0
 10
3064.4153491208
 20
23.0990563178
 30
0.0
 10
3064.5238261102
 20
23.2984760185
 30
0.0
 10
3064.5238261102
 20
23.2984760185
 30
0.0
 10
3064.3361831635
 20
23.4052519212
 30
0.0
 10
3064.3361831635
 20
23.4052519212
 30
0.0
 10
3064.2526990631
 20
23.2665479299
 30
0.0
 10
3064.1614946462
 20
23.1807084787
 30
0.0
 10
3063.9919093889
 20
23.1807084787
 30
0.0
 10
3063.7799278173
 20
23.1807084787
 30
0.0
 10
3063.6469813502
 20
23.3654726633
 30
0.0
 10
3063.6446259994
 20
23.5622753076
 30
0.0
 10
3063.6446259994
 20
23.5622753076
 30
0.0
 10
3064.5238261102
 20
23.5622753076
 30
0.0
 10
3064.5238261102
 20
23.5622753076
 30
0.0
  0
SPLINE
  5
22B
100
AcDbEntity
  8
0
100
AcDbSpline
 62
7
  6
CONTINUOUS
 70
2
 71
3
 72
14
 73
10
 74
0
 42
0.0000001
 43
0.0000001
 44
0.0000000001
 40
0.0
 40
0.0
 40
0.0
 40
0.0
 40
1.0
 40
1.0
 40
1.0
 40
2.0
 40
2.0
 40
2.0
 40
3.0
 40
3.0
 40
3.0
 40
3.0
 10
3063.656664459
 20
23.7297669197
 30
0.0
 10
3063.6842744045
 20
23.8946414754
 30
0.0
 10
3063.8121176115
 20
24.017643128
 30
0.0
 10
3063.9843199253
 20
24.017643128
 30
0.0
 10
3064.1614946462
 20
24.017643128
 30
0.0
 10
3064.2749440428
 20
23.9019692334
 30
0.0
 10
3064.3021614298
 20
23.7297669197
 30
0.0
 10
3064.3021614298
 20
23.7297669197
 30
0.0
 10
3063.656664459
 20
23.7297669197
 30
0.0
 10
3063.656664459
 20
23.7297669197
 30
0.0
  0
SPLINE
  5
22C
100
AcDbEntity
  8
0
100
AcDbSpline
 62
7
  6
CONTINUOUS
 70
2
 71
3
 72
20
 73
16
 74
0
 42
0.0000001
 43
0.0000001
 44
0.0000000001
 40
0.0
 40
0.0
 40
0.0
 40
0.0
 40
1.0
 40
1.0
 40
1.0
 40
2.0
 40
2.0
 40
2.0
 40
3.0
 40
3.0
 40
3.0
 40
4.0
 40
4.0
 40
4.0
 40
5.0
 40
5.0
 40
5.0
 40
5.0
 10
3066.5478575604
 20
23.9391314348
 30
0.0
 10
3066.5478575604
 20
23.9391314348
 30
0.0
 10
3066.958997127
 20
23.4366565985
 30
0.0
 10
3066.958997127
 20
23.4366565985
 30
0.0
 10
3066.842930674
 20
23.3209827039
 30
0.0
 10
3066.7051426524
 20
23.1906532932
 30
0.0
 10
3066.5332020444
 20
23.1906532932
 30
0.0
 10
3066.3557656178
 20
23.1906532932
 30
0.0
 10
3066.1882740056
 20
23.3550044376
 30
0.0
 10
3066.1882740056
 20
23.5319174529
 30
0.0
 10
3066.1882740056
 20
23.7098772907
 30
0.0
 10
3066.3980310793
 20
23.8360194111
 30
0.0
 10
3066.5256125807
 20
23.9239525075
 30
0.0
 10
3066.5256125807
 20
23.9239525075
 30
0.0
 10
3066.5478575604
 20
23.9391314348
 30
0.0
 10
3066.5478575604
 20
23.9391314348
 30
0.0
  0
SPLINE
  5
22D
100
AcDbEntity
  8
0
100
AcDbSpline
 62
7
  6
CONTINUOUS
 70
2
 71
3
 72
23
 73
19
 74
0
 42
0.0000001
 43
0.0000001
 44
0.0000000001
 40
0.0
 40
0.0
 40
0.0
 40
0.0
 40
1.0
 40
1.0
 40
1.0
 40
2.0
 40
2.0
 40
2.0
 40
3.0
 40
3.0
 40
3.0
 40
4.0
 40
4.0
 40
4.0
 40
5.0
 40
5.0
 40
5.0
 40
6.0
 40
6.0
 40
6.0
 40
6.0
 10
3066.5971890743
 20
24.2301481109
 30
0.0
 10
3066.5971890743
 20
24.2301481109
 30
0.0
 10
3066.5355573952
 20
24.3086598041
 30
0.0
 10
3066.5355573952
 20
24.3086598041
 30
0.0
 10
3066.4816460325
 20
24.3772266828
 30
0.0
 10
3066.4248559078
 20
24.4463169728
 30
0.0
 10
3066.4248559078
 20
24.5400075933
 30
0.0
 10
3066.4248559078
 20
24.6588219557
 30
0.0
 10
3066.5207710263
 20
24.7362868263
 30
0.0
 10
3066.6317342193
 20
24.7362868263
 30
0.0
 10
3066.7549975776
 20
24.7362868263
 30
0.0
 10
3066.8482956397
 20
24.6651028911
 30
0.0
 10
3066.8482956397
 20
24.5347734804
 30
0.0
 10
3066.8482956397
 20
24.3997333682
 30
0.0
 10
3066.7201907269
 20
24.3233153201
 30
0.0
 10
3066.6266309592
 20
24.2495143285
 30
0.0
 10
3066.6266309592
 20
24.2495143285
 30
0.0
 10
3066.5971890743
 20
24.2301481109
 30
0.0
 10
3066.5971890743
 20
24.2301481109
 30
0.0
  0
SPLINE
  5
22E
100
AcDbEntity
  8
0
100
AcDbSpline
 62
7
  6
CONTINUOUS
 70
2
 71
3
 72
50
 73
46
 74
0
 42
0.0000001
 43
0.0000001
 44
0.0000000001
 40
0.0
 40
0.0
 40
0.0
 40
0.0
 40
1.0
 40
1.0
 40
1.0
 40
2.0
 40
2.0
 40
2.0
 40
3.0
 40
3.0
 40
3.0
 40
4.0
 40
4.0
 40
4.0
 40
5.0
 40
5.0
 40
5.0
 40
6.0
 40
6.0
 40
6.0
 40
7.0
 40
7.0
 40
7.0
 40
8.0
 40
8.0
 40
8.0
 40
9.0
 40
9.0
 40
9.0
 40
10.0
 40
10.0
 40
10.0
 40
11.0
 40
11.0
 40
11.0
 40
12.0
 40
12.0
 40
12.0
 40
13.0
 40
13.0
 40
13.0
 40
14.0
 40
14.0
 40
14.0
 40
15.0
 40
15.0
 40
15.0
 40
15.0
 10
3067.299345317
 20
23.0231616811
 30
0.0
 10
3067.299345317
 20
23.0231616811
 30
0.0
 10
3067.5847353217
 20
23.0231616811
 30
0.0
 10
3067.5847353217
 20
23.0231616811
 30
0.0
 10
3067.5847353217
 20
23.0231616811
 30
0.0
 10
3067.2523691539
 20
23.434039542
 30
0.0
 10
3067.2523691539
 20
23.434039542
 30
0.0
 10
3067.2523691539
 20
23.434039542
 30
0.0
 10
3067.4788753887
 20
23.6999324763
 30
0.0
 10
3067.4788753887
 20
23.6999324763
 30
0.0
 10
3067.4788753887
 20
23.6999324763
 30
0.0
 10
3067.3306191414
 20
23.8527685723
 30
0.0
 10
3067.3306191414
 20
23.8527685723
 30
0.0
 10
3067.3306191414
 20
23.8527685723
 30
0.0
 10
3067.1147119852
 20
23.6015311542
 30
0.0
 10
3067.1147119852
 20
23.6015311542
 30
0.0
 10
3067.1147119852
 20
23.6015311542
 30
0.0
 10
3066.7276493378
 20
24.0694608455
 30
0.0
 10
3066.7276493378
 20
24.0694608455
 30
0.0
 10
3066.8831024903
 20
24.1835645063
 30
0.0
 10
3067.0653804713
 20
24.3233153201
 30
0.0
 10
3067.0653804713
 20
24.5326798353
 30
0.0
 10
3067.0653804713
 20
24.7765894954
 30
0.0
 10
3066.8633437142
 20
24.9200041883
 30
0.0
 10
3066.6368374794
 20
24.9200041883
 30
0.0
 10
3066.3926661136
 20
24.9200041883
 30
0.0
 10
3066.2082944874
 20
24.7692617374
 30
0.0
 10
3066.2082944874
 20
24.5127902063
 30
0.0
 10
3066.2082944874
 20
24.3552434087
 30
0.0
 10
3066.3069575152
 20
24.21758624
 30
0.0
 10
3066.4122940369
 20
24.1066230469
 30
0.0
 10
3066.4122940369
 20
24.1066230469
 30
0.0
 10
3066.2967509951
 20
24.0228772409
 30
0.0
 10
3066.2967509951
 20
24.0228772409
 30
0.0
 10
3066.1190528628
 20
23.8946414754
 30
0.0
 10
3065.9717125853
 20
23.7669291211
 30
0.0
 10
3065.9717125853
 20
23.5298238077
 30
0.0
 10
3065.9717125853
 20
23.2094960995
 30
0.0
 10
3066.2302777615
 20
22.9833824232
 30
0.0
 10
3066.5406606552
 20
22.9833824232
 30
0.0
 10
3066.7595774264
 20
22.9833824232
 30
0.0
 10
3066.9567726291
 20
23.108477721
 30
0.0
 10
3067.0970468542
 20
23.2743990992
 30
0.0
 10
3067.0970468542
 20
23.2743990992
 30
0.0
 10
3067.299345317
 20
23.0231616811
 30
0.0
 10
3067.299345317
 20
23.0231616811
 30
0.0
  0
LWPOLYLINE
  5
22F
100
AcDbEntity
  8
0
100
AcDbPolyline
 62
7
  6
CONTINUOUS
 90
2
 70
0
 43
0.2
 10
3069.2347894067
 20
24.8797015191
 10
3069.0034416175
 20
24.8797015191
  0
LWPOLYLINE
  5
230
100
AcDbEntity
  8
0
100
AcDbPolyline
 62
7
  6
CONTINUOUS
 90
2
 70
0
 43
0.2
 10
3069.0034416175
 20
24.8797015191
 10
3069.0034416175
 20
23.0226382698
  0
LWPOLYLINE
  5
231
100
AcDbEntity
  8
0
100
AcDbPolyline
 62
7
  6
CONTINUOUS
 90
2
 70
0
 43
0.2
 10
3069.0034416175
 20
23.0226382698
 10
3069.7987650694
 20
23.0226382698
  0
LWPOLYLINE
  5
232
100
AcDbEntity
  8
0
100
AcDbPolyline
 62
7
  6
CONTINUOUS
 90
2
 70
0
 43
0.2
 10
3069.7987650694
 20
23.0226382698
 10
3069.7987650694
 20
23.2346198414
  0
LWPOLYLINE
  5
233
100
AcDbEntity
  8
0
100
AcDbPolyline
 62
7
  6
CONTINUOUS
 90
2
 70
0
 43
0.2
 10
3069.7987650694
 20
23.2346198414
 10
3069.2347894067
 20
23.2346198414
  0
LWPOLYLINE
  5
234
100
AcDbEntity
  8
0
100
AcDbPolyline
 62
7
  6
CONTINUOUS
 90
2
 70
0
 43
0.2
 10
3069.2347894067
 20
23.2346198414
 10
3069.2347894067
 20
24.8797015191
  0
LWPOLYLINE
  5
235
100
AcDbEntity
  8
0
100
AcDbPolyline
 62
7
  6
CONTINUOUS
 90
2
 70
0
 43
0.2
 10
3071.4778684809
 20
24.1751899257
 10
3071.2567272117
 20
24.1751899257
  0
LWPOLYLINE
  5
236
100
AcDbEntity
  8
0
100
AcDbPolyline
 62
7
  6
CONTINUOUS
 90
2
 70
0
 43
0.2
 10
3071.2567272117
 20
24.1751899257
 10
3071.2567272117
 20
23.0231616811
  0
LWPOLYLINE
  5
237
100
AcDbEntity
  8
0
100
AcDbPolyline
 62
7
  6
CONTINUOUS
 90
2
 70
0
 43
0.2
 10
3071.2567272117
 20
23.0231616811
 10
3071.4778684809
 20
23.0231616811
  0
LWPOLYLINE
  5
238
100
AcDbEntity
  8
0
100
AcDbPolyline
 62
7
  6
CONTINUOUS
 90
2
 70
0
 43
0.2
 10
3071.4778684809
 20
23.0231616811
 10
3071.4778684809
 20
24.1751899257
  0
LWPOLYLINE
  5
239
100
AcDbEntity
  8
0
100
AcDbPolyline
 62
7
  6
CONTINUOUS
 90
2
 70
1
 43
0.2
 10
3071.2148452037
 20
24.7051438546
 42
1.0
 10
3071.5200121946
 20
24.7051438546
 42
1.0
  0
SPLINE
  5
23A
100
AcDbEntity
  8
0
100
AcDbSpline
 62
7
  6
CONTINUOUS
 70
2
 71
3
 72
17
 73
13
 74
0
 42
0.0000001
 43
0.0000001
 44
0.0000000001
 40
0.0
 40
0.0
 40
0.0
 40
0.0
 40
1.0
 40
1.0
 40
1.0
 40
2.0
 40
2.0
 40
2.0
 40
3.0
 40
3.0
 40
3.0
 40
4.0
 40
4.0
 40
4.0
 40
4.0
 10
3073.6081524225
 20
23.1807084787
 30
0.0
 10
3073.3741875768
 20
23.1807084787
 30
0.0
 10
3073.2438581661
 20
23.3827452358
 30
0.0
 10
3073.2438581661
 20
23.5989140977
 30
0.0
 10
3073.2438581661
 20
23.8135127257
 30
0.0
 10
3073.3796833953
 20
24.0124090151
 30
0.0
 10
3073.6081524225
 20
24.0124090151
 30
0.0
 10
3073.8476130867
 20
24.0124090151
 30
0.0
 10
3073.9831766103
 20
23.8234575402
 30
0.0
 10
3073.9831766103
 20
23.5989140977
 30
0.0
 10
3073.9831766103
 20
23.3728004214
 30
0.0
 10
3073.8499684375
 20
23.1807084787
 30
0.0
 10
3073.6081524225
 20
23.1807084787
 30
0.0
  0
SPLINE
  5
23B
100
AcDbEntity
  8
0
100
AcDbSpline
 62
7
  6
CONTINUOUS
 70
2
 71
3
 72
50
 73
46
 74
0
 42
0.0000001
 43
0.0000001
 44
0.0000000001
 40
0.0
 40
0.0
 40
0.0
 40
0.0
 40
1.0
 40
1.0
 40
1.0
 40
2.0
 40
2.0
 40
2.0
 40
3.0
 40
3.0
 40
3.0
 40
4.0
 40
4.0
 40
4.0
 40
5.0
 40
5.0
 40
5.0
 40
6.0
 40
6.0
 40
6.0
 40
7.0
 40
7.0
 40
7.0
 40
8.0
 40
8.0
 40
8.0
 40
9.0
 40
9.0
 40
9.0
 40
10.0
 40
10.0
 40
10.0
 40
11.0
 40
11.0
 40
11.0
 40
12.0
 40
12.0
 40
12.0
 40
13.0
 40
13.0
 40
13.0
 40
14.0
 40
14.0
 40
14.0
 40
15.0
 40
15.0
 40
15.0
 40
15.0
 10
3074.1922794198
 20
24.1757133369
 30
0.0
 10
3074.1922794198
 20
24.1757133369
 30
0.0
 10
3073.9706147393
 20
24.1757133369
 30
0.0
 10
3073.9706147393
 20
24.1757133369
 30
0.0
 10
3073.9706147393
 20
24.1757133369
 30
0.0
 10
3073.9706147393
 20
23.9783872814
 30
0.0
 10
3073.9706147393
 20
23.9783872814
 30
0.0
 10
3073.9706147393
 20
23.9783872814
 30
0.0
 10
3073.9659040378
 20
23.9783872814
 30
0.0
 10
3073.9659040378
 20
23.9783872814
 30
0.0
 10
3073.874568768
 20
24.121278563
 30
0.0
 10
3073.7366498937
 20
24.2097350707
 30
0.0
 10
3073.5639241687
 20
24.2097350707
 30
0.0
 10
3073.2315580009
 20
24.2097350707
 30
0.0
 10
3073.0224551914
 20
23.9218588623
 30
0.0
 10
3073.0224551914
 20
23.6062418557
 30
0.0
 10
3073.0224551914
 20
23.2764927444
 30
0.0
 10
3073.2195195413
 20
22.9833824232
 30
0.0
 10
3073.5743923944
 20
22.9833824232
 30
0.0
 10
3073.7366498937
 20
22.9833824232
 30
0.0
 10
3073.8766624132
 20
23.0718389308
 30
0.0
 10
3073.9659040378
 20
23.2026917528
 30
0.0
 10
3073.9659040378
 20
23.2026917528
 30
0.0
 10
3073.9706147393
 20
23.2026917528
 30
0.0
 10
3073.9706147393
 20
23.2026917528
 30
0.0
 10
3073.9706147393
 20
23.2026917528
 30
0.0
 10
3073.9706147393
 20
22.9833824232
 30
0.0
 10
3073.9706147393
 20
22.9833824232
 30
0.0
 10
3073.9706147393
 20
22.7468005211
 30
0.0
 10
3073.9140863203
 20
22.5599426913
 30
0.0
 10
3073.640865628
 20
22.5599426913
 30
0.0
 10
3073.4385671652
 20
22.5599426913
 30
0.0
 10
3073.2959375893
 20
22.6782336424
 30
0.0
 10
3073.2959375893
 20
22.8844576898
 30
0.0
 10
3073.2959375893
 20
22.8844576898
 30
0.0
 10
3073.0742729089
 20
22.8844576898
 30
0.0
 10
3073.0742729089
 20
22.8844576898
 30
0.0
 10
3073.0792453161
 20
22.5599426913
 30
0.0
 10
3073.3103313997
 20
22.3631400471
 30
0.0
 10
3073.6306591079
 20
22.3631400471
 30
0.0
 10
3074.0786991703
 20
22.3631400471
 30
0.0
 10
3074.1922794198
 20
22.6483991989
 30
0.0
 10
3074.1922794198
 20
23.0451449551
 30
0.0
 10
3074.1922794198
 20
23.0451449551
 30
0.0
 10
3074.1922794198
 20
24.1757133369
 30
0.0
 10
3074.1922794198
 20
24.1757133369
 30
0.0
  0
SPLINE
  5
23C
100
AcDbEntity
  8
0
100
AcDbSpline
 62
7
  6
CONTINUOUS
 70
2
 71
3
 72
44
 73
40
 74
0
 42
0.0000001
 43
0.0000001
 44
0.0000000001
 40
0.0
 40
0.0
 40
0.0
 40
0.0
 40
1.0
 40
1.0
 40
1.0
 40
2.0
 40
2.0
 40
2.0
 40
3.0
 40
3.0
 40
3.0
 40
4.0
 40
4.0
 40
4.0
 40
5.0
 40
5.0
 40
5.0
 40
6.0
 40
6.0
 40
6.0
 40
7.0
 40
7.0
 40
7.0
 40
8.0
 40
8.0
 40
8.0
 40
9.0
 40
9.0
 40
9.0
 40
10.0
 40
10.0
 40
10.0
 40
11.0
 40
11.0
 40
11.0
 40
12.0
 40
12.0
 40
12.0
 40
13.0
 40
13.0
 40
13.0
 40
13.0
 10
3075.7612047551
 20
25.1607733807
 30
0.0
 10
3075.7612047551
 20
25.1607733807
 30
0.0
 10
3075.7612047551
 20
23.0226382698
 30
0.0
 10
3075.7612047551
 20
23.0226382698
 30
0.0
 10
3075.7612047551
 20
23.0226382698
 30
0.0
 10
3075.9826077299
 20
23.0226382698
 30
0.0
 10
3075.9826077299
 20
23.0226382698
 30
0.0
 10
3075.9826077299
 20
23.0226382698
 30
0.0
 10
3075.9826077299
 20
23.5523304931
 30
0.0
 10
3075.9826077299
 20
23.5523304931
 30
0.0
 10
3075.9826077299
 20
23.7622184195
 30
0.0
 10
3075.9826077299
 20
24.0129324264
 30
0.0
 10
3076.2678668818
 20
24.0129324264
 30
0.0
 10
3076.4947656751
 20
24.0129324264
 30
0.0
 10
3076.5217213564
 20
23.8799859593
 30
0.0
 10
3076.5217213564
 20
23.6837067263
 30
0.0
 10
3076.5217213564
 20
23.6837067263
 30
0.0
 10
3076.5217213564
 20
23.0226382698
 30
0.0
 10
3076.5217213564
 20
23.0226382698
 30
0.0
 10
3076.5217213564
 20
23.0226382698
 30
0.0
 10
3076.7436477425
 20
23.0226382698
 30
0.0
 10
3076.7436477425
 20
23.0226382698
 30
0.0
 10
3076.7436477425
 20
23.0226382698
 30
0.0
 10
3076.7436477425
 20
23.7098772907
 30
0.0
 10
3076.7436477425
 20
23.7098772907
 30
0.0
 10
3076.7436477425
 20
23.990425741
 30
0.0
 10
3076.6596402308
 20
24.2102584819
 30
0.0
 10
3076.334601821
 20
24.2102584819
 30
0.0
 10
3076.1948510071
 20
24.2102584819
 30
0.0
 10
3076.0566704272
 20
24.1437852484
 30
0.0
 10
3075.9873184315
 20
24.0207835957
 30
0.0
 10
3075.9873184315
 20
24.0207835957
 30
0.0
 10
3075.9826077299
 20
24.0207835957
 30
0.0
 10
3075.9826077299
 20
24.0207835957
 30
0.0
 10
3075.9826077299
 20
24.0207835957
 30
0.0
 10
3075.9826077299
 20
25.1607733807
 30
0.0
 10
3075.9826077299
 20
25.1607733807
 30
0.0
 10
3075.9826077299
 20
25.1607733807
 30
0.0
 10
3075.7612047551
 20
25.1607733807
 30
0.0
 10
3075.7612047551
 20
25.1607733807
 30
0.0
  0
LWPOLYLINE
  5
23D
100
AcDbEntity
  8
0
100
AcDbPolyline
 62
7
  6
CONTINUOUS
 90
2
 70
0
 43
0.2
 10
3078.5834384193
 20
23.968442467
 10
3078.7998689869
 20
23.968442467
  0
LWPOLYLINE
  5
23E
100
AcDbEntity
  8
0
100
AcDbPolyline
 62
7
  6
CONTINUOUS
 90
2
 70
0
 43
0.2
 10
3078.7998689869
 20
23.968442467
 10
3078.7998689869
 20
24.1751899257
  0
LWPOLYLINE
  5
23F
100
AcDbEntity
  8
0
100
AcDbPolyline
 62
7
  6
CONTINUOUS
 90
2
 70
0
 43
0.2
 10
3078.7998689869
 20
24.1751899257
 10
3078.5834384193
 20
24.1751899257
  0
LWPOLYLINE
  5
240
100
AcDbEntity
  8
0
100
AcDbPolyline
 62
7
  6
CONTINUOUS
 90
2
 70
0
 43
0.2
 10
3078.5834384193
 20
24.1751899257
 10
3078.5834384193
 20
24.61590223
  0
LWPOLYLINE
  5
241
100
AcDbEntity
  8
0
100
AcDbPolyline
 62
7
  6
CONTINUOUS
 90
2
 70
0
 43
0.2
 10
3078.5834384193
 20
24.61590223
 10
3078.3617737389
 20
24.61590223
  0
LWPOLYLINE
  5
242
100
AcDbEntity
  8
0
100
AcDbPolyline
 62
7
  6
CONTINUOUS
 90
2
 70
0
 43
0.2
 10
3078.3617737389
 20
24.61590223
 10
3078.3617737389
 20
24.1751899257
  0
LWPOLYLINE
  5
243
100
AcDbEntity
  8
0
100
AcDbPolyline
 62
7
  6
CONTINUOUS
 90
2
 70
0
 43
0.2
 10
3078.3617737389
 20
24.1751899257
 10
3078.2411274371
 20
24.1751899257
  0
LWPOLYLINE
  5
244
100
AcDbEntity
  8
0
100
AcDbPolyline
 62
7
  6
CONTINUOUS
 90
2
 70
0
 43
0.2
 10
3078.2411274371
 20
24.1751899257
 10
3078.2411274371
 20
23.968442467
  0
LWPOLYLINE
  5
245
100
AcDbEntity
  8
0
100
AcDbPolyline
 62
7
  6
CONTINUOUS
 90
2
 70
0
 43
0.2
 10
3078.2411274371
 20
23.968442467
 10
3078.3617737389
 20
23.968442467
  0
LWPOLYLINE
  5
246
100
AcDbEntity
  8
0
100
AcDbPolyline
 62
7
  6
CONTINUOUS
 90
2
 70
0
 43
0.2
 10
3078.3617737389
 20
23.968442467
 10
3078.3617737389
 20
23.0226382698
  0
LWPOLYLINE
  5
247
100
AcDbEntity
  8
0
100
AcDbPolyline
 62
7
  6
CONTINUOUS
 90
2
 70
0
 43
0.2
 10
3078.3617737389
 20
23.0226382698
 10
3078.5834384193
 20
23.0226382698
  0
LWPOLYLINE
  5
248
100
AcDbEntity
  8
0
100
AcDbPolyline
 62
7
  6
CONTINUOUS
 90
2
 70
0
 43
0.2
 10
3078.5834384193
 20
23.0226382698
 10
3078.5834384193
 20
23.968442467
  0
SPLINE
  5
249
100
AcDbEntity
  8
0
100
AcDbSpline
 62
7
  6
CONTINUOUS
 70
2
 71
3
 72
20
 73
16
 74
0
 42
0.0000001
 43
0.0000001
 44
0.0000000001
 40
0.0
 40
0.0
 40
0.0
 40
0.0
 40
1.0
 40
1.0
 40
1.0
 40
2.0
 40
2.0
 40
2.0
 40
3.0
 40
3.0
 40
3.0
 40
4.0
 40
4.0
 40
4.0
 40
5.0
 40
5.0
 40
5.0
 40
5.0
 10
3066.3654487266
 20
33.3835647132
 30
0.0
 10
3066.3654487266
 20
33.3835647132
 30
0.0
 10
3068.6818053811
 20
30.5540032909
 30
0.0
 10
3068.6818053811
 20
30.5540032909
 30
0.0
 10
3068.0301583277
 20
29.9018328262
 30
0.0
 10
3067.2532851236
 20
29.1659165555
 30
0.0
 10
3066.282095479
 20
29.1659165555
 30
0.0
 10
3065.2835575946
 20
29.1659165555
 30
0.0
 10
3064.340239601
 20
30.0954950028
 30
0.0
 10
3064.340239601
 20
31.0946871513
 30
0.0
 10
3064.340239601
 20
32.0938792998
 30
0.0
 10
3065.5190926741
 20
32.8004845385
 30
0.0
 10
3066.2406151344
 20
33.3003423184
 30
0.0
 10
3066.2406151344
 20
33.3003423184
 30
0.0
 10
3066.3654487266
 20
33.3835647132
 30
0.0
 10
3066.3654487266
 20
33.3835647132
 30
0.0
  0
SPLINE
  5
24A
100
AcDbEntity
  8
0
100
AcDbSpline
 62
7
  6
CONTINUOUS
 70
2
 71
3
 72
23
 73
19
 74
0
 42
0.0000001
 43
0.0000001
 44
0.0000000001
 40
0.0
 40
0.0
 40
0.0
 40
0.0
 40
1.0
 40
1.0
 40
1.0
 40
2.0
 40
2.0
 40
2.0
 40
3.0
 40
3.0
 40
3.0
 40
4.0
 40
4.0
 40
4.0
 40
5.0
 40
5.0
 40
5.0
 40
6.0
 40
6.0
 40
6.0
 40
6.0
 10
3066.6428567092
 20
35.0213186329
 30
0.0
 10
3066.6428567092
 20
35.0213186329
 30
0.0
 10
3066.2963584366
 20
35.4646479937
 30
0.0
 10
3066.2963584366
 20
35.4646479937
 30
0.0
 10
3065.9905553917
 20
35.8527574637
 30
0.0
 10
3065.6716670645
 20
36.2412594921
 30
0.0
 10
3065.6716670645
 20
36.7682038062
 30
0.0
 10
3065.6716670645
 20
37.4343755228
 30
0.0
 10
3066.213005189
 20
37.8780974421
 30
0.0
 10
3066.8369114441
 20
37.8780974421
 30
0.0
 10
3067.5306931062
 20
37.8780974421
 30
0.0
 10
3068.0578991259
 20
37.4758558674
 30
0.0
 10
3068.0578991259
 20
36.7408555664
 30
0.0
 10
3068.0578991259
 20
35.9775910558
 30
0.0
 10
3067.3366383712
 20
35.54747783
 30
0.0
 10
3066.8095632044
 20
35.1317584146
 30
0.0
 10
3066.8095632044
 20
35.1317584146
 30
0.0
 10
3066.6428567092
 20
35.0213186329
 30
0.0
 10
3066.6428567092
 20
35.0213186329
 30
0.0
  0
SPLINE
  5
24B
100
AcDbEntity
  8
0
100
AcDbSpline
 62
7
  6
CONTINUOUS
 70
2
 71
3
 72
50
 73
46
 74
0
 42
0.0000001
 43
0.0000001
 44
0.0000000001
 40
0.0
 40
0.0
 40
0.0
 40
0.0
 40
1.0
 40
1.0
 40
1.0
 40
2.0
 40
2.0
 40
2.0
 40
3.0
 40
3.0
 40
3.0
 40
4.0
 40
4.0
 40
4.0
 40
5.0
 40
5.0
 40
5.0
 40
6.0
 40
6.0
 40
6.0
 40
7.0
 40
7.0
 40
7.0
 40
8.0
 40
8.0
 40
8.0
 40
9.0
 40
9.0
 40
9.0
 40
10.0
 40
10.0
 40
10.0
 40
11.0
 40
11.0
 40
11.0
 40
12.0
 40
12.0
 40
12.0
 40
13.0
 40
13.0
 40
13.0
 40
14.0
 40
14.0
 40
14.0
 40
15.0
 40
15.0
 40
15.0
 40
15.0
 10
3070.5964438721
 20
28.2227294148
 30
0.0
 10
3070.5964438721
 20
28.2227294148
 30
0.0
 10
3072.2056718766
 20
28.2227294148
 30
0.0
 10
3072.2056718766
 20
28.2227294148
 30
0.0
 10
3072.2056718766
 20
28.2227294148
 30
0.0
 10
3070.332644583
 20
30.5398711862
 30
0.0
 10
3070.332644583
 20
30.5398711862
 30
0.0
 10
3070.332644583
 20
30.5398711862
 30
0.0
 10
3071.6089830085
 20
32.0373508808
 30
0.0
 10
3071.6089830085
 20
32.0373508808
 30
0.0
 10
3071.6089830085
 20
32.0373508808
 30
0.0
 10
3070.7767590608
 20
32.8983624493
 30
0.0
 10
3070.7767590608
 20
32.8983624493
 30
0.0
 10
3070.7767590608
 20
32.8983624493
 30
0.0
 10
3069.5561639374
 20
31.4830583269
 30
0.0
 10
3069.5561639374
 20
31.4830583269
 30
0.0
 10
3069.5561639374
 20
31.4830583269
 30
0.0
 10
3067.3782495686
 20
34.1184341613
 30
0.0
 10
3067.3782495686
 20
34.1184341613
 30
0.0
 10
3068.2518230081
 20
34.7564725212
 30
0.0
 10
3069.2784942492
 20
35.54747783
 30
0.0
 10
3069.2784942492
 20
36.7263309031
 30
0.0
 10
3069.2784942492
 20
38.1000238282
 30
0.0
 10
3068.1405981094
 20
38.9045069776
 30
0.0
 10
3066.8653065065
 20
38.9045069776
 30
0.0
 10
3065.4918752871
 20
38.9045069776
 30
0.0
 10
3064.4509410884
 20
38.0582817779
 30
0.0
 10
3064.4509410884
 20
36.6156294158
 30
0.0
 10
3064.4509410884
 20
35.7280547243
 30
0.0
 10
3065.0062804648
 20
34.9511815203
 30
0.0
 10
3065.6024459217
 20
34.3267518539
 30
0.0
 10
3065.6024459217
 20
34.3267518539
 30
0.0
 10
3064.9505371627
 20
33.8551582835
 30
0.0
 10
3064.9505371627
 20
33.8551582835
 30
0.0
 10
3063.9519992782
 20
33.1338975288
 30
0.0
 10
3063.1191210664
 20
32.4126367742
 30
0.0
 10
3063.1191210664
 20
31.0810784578
 30
0.0
 10
3063.1191210664
 20
29.2774031598
 30
0.0
 10
3064.576167239
 20
28.0008030287
 30
0.0
 10
3066.3237066764
 20
28.0008030287
 30
0.0
 10
3067.5585647573
 20
28.0008030287
 30
0.0
 10
3068.6679349819
 20
28.7089785012
 30
0.0
 10
3069.4588094379
 20
29.6375101259
 30
0.0
 10
3069.4588094379
 20
29.6375101259
 30
0.0
 10
3070.5964438721
 20
28.2227294148
 30
0.0
 10
3070.5964438721
 20
28.2227294148
 30
0.0
  0
LINE
  5
24C
100
AcDbEntity
  8
0
100
AcDbLine
 62
7
  6
CONTINUOUS
 10
3056.3993052471
 20
26.1966043194
 11
3078.8132159747
 21
26.1966043194
  0
LINE
  5
24D
100
AcDbEntity
  8
0
100
AcDbLine
 62
7
  6
CONTINUOUS
 10
3078.8132159747
 20
26.1966043194
 11
3078.8132159747
 21
48.6105150471
  0
LINE
  5
24E
100
AcDbEntity
  8
0
100
AcDbLine
 62
7
  6
CONTINUOUS
 10
3078.8132159747
 20
48.6105150471
 11
3056.3993052471
 21
48.6105150471
  0
LINE
  5
24F
100
AcDbEntity
  8
0
100
AcDbLine
 62
7
  6
CONTINUOUS
 10
3056.3993052471
 20
48.6105150471
 11
3056.3993052471
 21
26.1966043194
  0
ENDBLK
  5
250
100
AcDbEntity
  8
0
  6
BYBLOCK
 62
0
100
AcDbBlockEnd
  0
BLOCK
  5
251
100
AcDbEntity
  8
0
100
AcDbBlockBegin
  2
_CLOSED
 70
64
 10
0.0
 20
0.0
  3
_CLOSED
  1

  0
LINE
  5
252
100
AcDbEntity
  8
0
  6
BYBLOCK
 62
0
100
AcDbLine
 10
0.0
 20
0.0
 11
-1.0
 21
0.2
  0
LINE
  5
253
100
AcDbEntity
  8
0
  6
BYBLOCK
 62
0
100
AcDbLine
 10
-1.0
 20
0.2
 11
-1.0
 21
-0.2
  0
LINE
  5
254
100
AcDbEntity
  8
0
  6
BYBLOCK
 62
0
100
AcDbLine
 10
-1.0
 20
-0.2
 11
0.0
 21
0.0
  0
LINE
  5
255
100
AcDbEntity
  8
0
  6
BYBLOCK
 62
0
100
AcDbLine
 10
-1.0
 20
0.0
 11
0.0
 21
0.0
  0
ENDBLK
  5
256
100
AcDbEntity
  8
0
  6
BYBLOCK
 62
0
100
AcDbBlockEnd
  0
BLOCK
  5
257
100
AcDbEntity
  8
0
100
AcDbBlockBegin
 62
7
  6
CONTINUOUS
  2
*D0
 70
65
 10
0.0
 20
0.0
  3
*D0
  1

  0
MTEXT
  5
258
100
AcDbEntity
  8
0
100
AcDbMText
 62
7
  6
CONTINUOUS
  7
STANDARD
 71
2
 72
1
 10
185.4282536151
 20
687.8941387244
 30
0.0
 11
1.0
 21
0.0
 31
0.0
  1
69,3
 40
10.0
 41
27.1747211896
  0
LINE
  5
259
100
AcDbEntity
  8
0
100
AcDbLine
 62
7
  6
CONTINUOUS
 10
150.7782536151
 20
682.0438721024
 11
150.7782536151
 21
674.6441387244
  0
LINE
  5
25A
100
AcDbEntity
  8
0
100
AcDbLine
 62
7
  6
CONTINUOUS
 10
220.0782536151
 20
682.0438721024
 11
220.0782536151
 21
674.6441387244
  0
LINE
  5
25B
100
AcDbEntity
  8
0
100
AcDbLine
 62
7
  6
CONTINUOUS
 10
150.7782536151
 20
675.3941387244
 11
185.4282536151
 21
675.3941387244
  0
LINE
  5
25C
100
AcDbEntity
  8
0
100
AcDbLine
 62
7
  6
CONTINUOUS
 10
220.0782536151
 20
675.3941387244
 11
185.4282536151
 21
675.3941387244
  0
INSERT
  5
25D
100
AcDbEntity
  8
0
100
AcDbBlockReference
 62
7
  6
CONTINUOUS
  2
_CLOSED
 10
150.7782536151
 20
675.3941387244
 41
2.5
 42
2.5
 43
2.5
 50
180.0
  0
INSERT
  5
25E
100
AcDbEntity
  8
0
100
AcDbBlockReference
 62
7
  6
CONTINUOUS
  2
_CLOSED
 10
220.0782536151
 20
675.3941387244
 41
2.5
 42
2.5
 43
2.5
  0
ENDBLK
  5
25F
100
AcDbEntity
  8
0
  6
BYBLOCK
 62
0
100
AcDbBlockEnd
  0
BLOCK
  5
260
100
AcDbEntity
  8
0
100
AcDbBlockBegin
 62
7
  6
CONTINUOUS
  2
*D1
 70
65
 10
0.0
 20
0.0
  3
*D1
  1

  0
MTEXT
  5
261
100
AcDbEntity
  8
0
100
AcDbMText
 62
7
  6
CONTINUOUS
  7
STANDARD
 71
2
 72
1
 10
67.4519792389
 20
740.9343715239
 30
0.0
 11
0.0
 21
1.0
 31
0.0
  1
76
 40
10.0
 41
15.5390334572
  0
LINE
  5
262
100
AcDbEntity
  8
0
100
AcDbLine
 62
7
  6
CONTINUOUS
 10
119.4740823136
 20
702.9343715239
 11
79.2019792389
 21
702.9343715239
  0
LINE
  5
263
100
AcDbEntity
  8
0
100
AcDbLine
 62
7
  6
CONTINUOUS
 10
123.8986651837
 20
778.9343715239
 11
79.2019792389
 21
778.9343715239
  0
LINE
  5
264
100
AcDbEntity
  8
0
100
AcDbLine
 62
7
  6
CONTINUOUS
 10
79.9519792389
 20
702.9343715239
 11
79.9519792389
 21
740.9343715239
  0
LINE
  5
265
100
AcDbEntity
  8
0
100
AcDbLine
 62
7
  6
CONTINUOUS
 10
79.9519792389
 20
778.9343715239
 11
79.9519792389
 21
740.9343715239
  0
INSERT
  5
266
100
AcDbEntity
  8
0
100
AcDbBlockReference
 62
7
  6
CONTINUOUS
  2
_CLOSED
 10
79.9519792389
 20
702.9343715239
 41
2.5
 42
2.5
 43
2.5
 50
270.0
  0
INSERT
  5
267
100
AcDbEntity
  8
0
100
AcDbBlockReference
 62
7
  6
CONTINUOUS
  2
_CLOSED
 10
79.9519792389
 20
778.9343715239
 41
2.5
 42
2.5
 43
2.5
 50
90.0
  0
ENDBLK
  5
268
100
AcDbEntity
  8
0
  6
BYBLOCK
 62
0
100
AcDbBlockEnd
  0
BLOCK
  5
269
100
AcDbEntity
  8
0
100
AcDbBlockBegin
 62
7
  6
CONTINUOUS
  2
*D2
 70
65
 10
0.0
 20
0.0
  3
*D2
  1

  0
MTEXT
  5
26A
100
AcDbEntity
  8
0
100
AcDbMText
 62
7
  6
CONTINUOUS
  7
STANDARD
 71
2
 72
1
 10
185.4282536151
 20
637.9709528423
 30
0.0
 11
1.0
 21
0.0
 31
0.0
  1
109,9
 40
10.0
 41
34.9442379182
  0
LINE
  5
26B
100
AcDbEntity
  8
0
100
AcDbLine
 62
7
  6
CONTINUOUS
 10
130.4782536151
 20
682.0438721024
 11
130.4782536151
 21
624.7209528423
  0
LINE
  5
26C
100
AcDbEntity
  8
0
100
AcDbLine
 62
7
  6
CONTINUOUS
 10
240.3782536151
 20
682.0438721024
 11
240.3782536151
 21
624.7209528423
  0
LINE
  5
26D
100
AcDbEntity
  8
0
100
AcDbLine
 62
7
  6
CONTINUOUS
 10
130.4782536151
 20
625.4709528423
 11
185.4282536151
 21
625.4709528423
  0
LINE
  5
26E
100
AcDbEntity
  8
0
100
AcDbLine
 62
7
  6
CONTINUOUS
 10
240.3782536151
 20
625.4709528423
 11
185.4282536151
 21
625.4709528423
  0
INSERT
  5
26F
100
AcDbEntity
  8
0
100
AcDbBlockReference
 62
7
  6
CONTINUOUS
  2
_CLOSED
 10
130.4782536151
 20
625.4709528423
 41
2.5
 42
2.5
 43
2.5
 50
180.0
  0
INSERT
  5
270
100
AcDbEntity
  8
0
100
AcDbBlockReference
 62
7
  6
CONTINUOUS
  2
_CLOSED
 10
240.3782536151
 20
625.4709528423
 41
2.5
 42
2.5
 43
2.5
  0
ENDBLK
  5
271
100
AcDbEntity
  8
0
  6
BYBLOCK
 62
0
100
AcDbBlockEnd
  0
BLOCK
  5
272
100
AcDbEntity
  8
0
100
AcDbBlockBegin
 62
7
  6
CONTINUOUS
  2
*D3
 70
65
 10
0.0
 20
0.0
  3
*D3
  1

  0
MTEXT
  5
273
100
AcDbEntity
  8
0
100
AcDbMText
 62
7
  6
CONTINUOUS
  7
STANDARD
 71
2
 72
1
 10
1747.1635150167
 20
637.9709528423
 30
0.0
 11
1.0
 21
0.0
 31
0.0
  1
2807
 40
10.0
 41
31.0780669145
  0
LINE
  5
274
100
AcDbEntity
  8
0
100
AcDbLine
 62
7
  6
CONTINUOUS
 10
343.6635150167
 20
688.5449944382
 11
343.6635150167
 21
624.7209528423
  0
LINE
  5
275
100
AcDbEntity
  8
0
100
AcDbLine
 62
7
  6
CONTINUOUS
 10
3150.6635150167
 20
682.0438721024
 11
3150.6635150167
 21
624.7209528423
  0
LINE
  5
276
100
AcDbEntity
  8
0
100
AcDbLine
 62
7
  6
CONTINUOUS
 10
343.6635150167
 20
625.4709528423
 11
1747.1635150167
 21
625.4709528423
  0
LINE
  5
277
100
AcDbEntity
  8
0
100
AcDbLine
 62
7
  6
CONTINUOUS
 10
3150.6635150167
 20
625.4709528423
 11
1747.1635150167
 21
625.4709528423
  0
INSERT
  5
278
100
AcDbEntity
  8
0
100
AcDbBlockReference
 62
7
  6
CONTINUOUS
  2
_CLOSED
 10
343.6635150167
 20
625.4709528423
 41
2.5
 42
2.5
 43
2.5
 50
180.0
  0
INSERT
  5
279
100
AcDbEntity
  8
0
100
AcDbBlockReference
 62
7
  6
CONTINUOUS
  2
_CLOSED
 10
3150.6635150167
 20
625.4709528423
 41
2.5
 42
2.5
 43
2.5
  0
ENDBLK
  5
27A
100
AcDbEntity
  8
0
  6
BYBLOCK
 62
0
100
AcDbBlockEnd
  0
ENDSEC
  0
SECTION
  2
ENTITIES
  0
DIMENSION
  5
27B
100
AcDbEntity
  8
0
100
AcDbDimension
 62
7
  6
CONTINUOUS
  2
*D0
 10
220.0782536151
 20
675.3941387244
 11
185.3595031738
 21
675.3941387244
 70
160
  3
DIMSTYLE_1
100
AcDbAlignedDimension
 13
150.7782536151
 23
682.7938721024
 14
220.0782536151
 24
682.7938721024
100
AcDbRotatedDimension
  0
DIMENSION
  5
27C
100
AcDbEntity
  8
0
100
AcDbDimension
 62
7
  6
CONTINUOUS
  2
*D1
 10
79.9519792389
 20
778.9343715239
 11
79.9519792389
 21
740.9447267527
 70
160
  3
DIMSTYLE_1
100
AcDbAlignedDimension
 13
120.2240823136
 23
702.9343715239
 14
124.6486651837
 24
778.9343715239
 50
90.0
100
AcDbRotatedDimension
  0
DIMENSION
  5
27D
100
AcDbEntity
  8
0
100
AcDbDimension
 62
7
  6
CONTINUOUS
  2
*D2
 10
240.3782536151
 20
625.4709528423
 11
185.8531311035
 21
625.4709528423
 70
160
  3
DIMSTYLE_1
100
AcDbAlignedDimension
 13
130.4782536151
 23
682.7938721024
 14
240.3782536151
 24
682.7938721024
100
AcDbRotatedDimension
  0
DIMENSION
  5
27E
100
AcDbEntity
  8
0
100
AcDbDimension
 62
7
  6
CONTINUOUS
  2
*D3
 10
3150.6635150167
 20
625.4709528423
 11
1747.0272460938
 21
625.4709528423
 70
160
  3
DIMSTYLE_2
100
AcDbAlignedDimension
 13
343.6635150167
 23
689.2949944382
 14
3150.6635150167
 24
682.7938721024
100
AcDbRotatedDimension
  0
LINE
  5
27F
100
AcDbEntity
  8
0
100
AcDbLine
 62
2
  6
CONTINUOUS
 10
3053.7801481397
 20
48.9868275471
 11
3143.7801481397
 21
48.9868275471
  0
LINE
  5
280
100
AcDbEntity
  8
0
100
AcDbLine
 62
2
  6
CONTINUOUS
 10
3053.7801481397
 20
48.9868275471
 11
3053.7801481397
 21
8.9868275471
  0
LINE
  5
281
100
AcDbEntity
  8
0
100
AcDbLine
 62
2
  6
CONTINUOUS
 10
3083.7801481397
 20
42.9868275471
 11
3143.7801481397
 21
42.9868275471
  0
LINE
  5
282
100
AcDbEntity
  8
0
100
AcDbLine
 62
2
  6
CONTINUOUS
 10
3083.7801481397
 20
36.9868275471
 11
3143.7801481397
 21
36.9868275471
  0
LINE
  5
283
100
AcDbEntity
  8
0
100
AcDbLine
 62
2
  6
CONTINUOUS
 10
3083.7801481397
 20
26.9868275471
 11
3143.7801481397
 21
26.9868275471
  0
LINE
  5
284
100
AcDbEntity
  8
0
100
AcDbLine
 62
2
  6
CONTINUOUS
 10
3053.7801481397
 20
21.9868275471
 11
3143.7801481397
 21
21.9868275471
  0
LINE
  5
285
100
AcDbEntity
  8
0
100
AcDbLine
 62
2
  6
CONTINUOUS
 10
3053.7801481397
 20
8.9868275471
 11
3143.7801481397
 21
8.9868275471
  0
LINE
  5
286
100
AcDbEntity
  8
0
100
AcDbLine
 62
2
  6
CONTINUOUS
 10
3083.7801481397
 20
48.9868275471
 11
3083.7801481397
 21
21.9868275471
  0
LINE
  5
287
100
AcDbEntity
  8
0
100
AcDbLine
 62
2
  6
CONTINUOUS
 10
3123.7801481397
 20
48.9868275471
 11
3123.7801481397
 21
36.9868275471
  0
LINE
  5
288
100
AcDbEntity
  8
0
100
AcDbLine
 62
2
  6
CONTINUOUS
 10
3143.7801481397
 20
48.9868275471
 11
3143.7801481397
 21
8.9868275471
  0
INSERT
  5
289
100
AcDbEntity
  8
0
100
AcDbBlockReference
 62
2
  6
CONTINUOUS
  2
LOGO2_BL0
 10
3067.6061951845
 20
35.4868275471
  0
MTEXT
  5
28A
100
AcDbEntity
  8
9_SOLID
100
AcDbMText
 62
2
  6
CONTINUOUS
  7
TEXTSTYLE_2
 71
1
 72
1
 10
3085.2676481397
 20
47.4868275471
 30
0.0
 11
1.0
 21
0.0
 31
0.0
  1
6F4_C_047
 40
3.0
 41
32.5714285714
  0
MTEXT
  5
28B
100
AcDbEntity
  8
0
100
AcDbMText
 62
2
  6
CONTINUOUS
  7
TEXTSTYLE_2
 71
1
 72
1
 10
3125.2676481397
 20
47.2368275471
 30
0.0
 11
1.0
 21
0.0
 31
0.0
  1
Rev:00
 40
3.5
 41
22.75
  0
MTEXT
  5
28C
100
AcDbEntity
  8
9_SOLID
100
AcDbMText
 62
2
  6
CONTINUOUS
  7
TEXTSTYLE_2
 71
1
 72
1
 10
3085.2676481397
 20
41.2368275471
 30
0.0
 11
1.0
 21
0.0
 31
0.0
  1
Scale:1:1
 40
3.5
 41
28.375
  0
MTEXT
  5
28D
100
AcDbEntity
  8
9_SOLID
100
AcDbMText
 62
2
  6
CONTINUOUS
  7
TEXTSTYLE_2
 71
1
 72
1
 10
3125.2676481397
 20
41.7368275471
 30
0.0
 11
1.0
 21
0.0
 31
0.0
  1
3200 by 2500
 40
3.5
 41
48.5
  0
MTEXT
  5
28E
100
AcDbEntity
  8
0
100
AcDbMText
 62
2
  6
CONTINUOUS
  7
TEXTSTYLE_2
 71
1
 72
1
 10
3085.2676481397
 20
33.7368275471
 30
0.0
 11
1.0
 21
0.0
 31
0.0
  1
CASS. BRENTA 2.9 A FILO NO STANDARD
 40
3.5
 41
145.0
  0
MTEXT
  5
28F
100
AcDbEntity
  8
0
100
AcDbMText
 62
2
  6
CONTINUOUS
  7
TEXTSTYLE_2
 71
1
 72
1
 10
3085.2676481397
 20
25.7368275471
 30
0.0
 11
1.0
 21
0.0
 31
0.0
  1
DATE:08/05/18
 40
2.5
 41
36.875
  0
MTEXT
  5
290
100
AcDbEntity
  8
9_SOLID
100
AcDbMText
 62
2
  6
CONTINUOUS
  7
TEXTSTYLE_2
 71
1
 72
1
 10
3055.2676481397
 20
21.6743275471
 30
0.0
 11
1.0
 21
0.0
 31
0.0
  1
Any integral or partial reproductions are prohibited \Pwithout prior authorisation of L {\Ftxt.shx;\W0.190476;\H2.250000; }& L Luce & Light s.r.l., \Pin accordance with the law in force. \PAll rights reserved.
 40
2.25
 41
134.5982142857
  0
LINE
  5
291
100
AcDbEntity
  8
0
100
AcDbLine
 62
7
  6
CONTINUOUS
 10
0.0
 20
0.0
 11
0.0
 21
2500.0
  0
LINE
  5
292
100
AcDbEntity
  8
0
100
AcDbLine
 62
7
  6
CONTINUOUS
 10
0.0
 20
0.0
 11
3200.0
 21
0.0
  0
LINE
  5
293
100
AcDbEntity
  8
0
100
AcDbLine
 62
7
  6
CONTINUOUS
 10
0.0
 20
2500.0
 11
3200.0
 21
2500.0
  0
LINE
  5
294
100
AcDbEntity
  8
0
100
AcDbLine
 62
7
  6
CONTINUOUS
 10
3200.0
 20
0.0
 11
3200.0
 21
2500.0
  0
LINE
  5
295
100
AcDbEntity
  8
6_ALL_SURFS
100
AcDbLine
 62
7
  6
CONTINUOUS
 10
132.9782536151
 20
705.5843715239
 11
133.2782536151
 21
705.4343715239
  0
LINE
  5
296
100
AcDbEntity
  8
6_ALL_SURFS
100
AcDbLine
 62
7
  6
CONTINUOUS
 10
135.9782536151
 20
705.5843715239
 11
136.2782536151
 21
705.4343715239
  0
LINE
  5
297
100
AcDbEntity
  8
6_ALL_SURFS
100
AcDbLine
 62
7
  6
CONTINUOUS
 10
138.9782536151
 20
705.5843715239
 11
139.2782536151
 21
705.4343715239
  0
LINE
  5
298
100
AcDbEntity
  8
6_ALL_SURFS
100
AcDbLine
 62
7
  6
CONTINUOUS
 10
141.9782536151
 20
705.5843715239
 11
142.2782536151
 21
705.4343715239
  0
LINE
  5
299
100
AcDbEntity
  8
6_ALL_SURFS
100
AcDbLine
 62
7
  6
CONTINUOUS
 10
144.9782536151
 20
705.5843715239
 11
145.2782536151
 21
705.4343715239
  0
LINE
  5
29A
100
AcDbEntity
  8
6_ALL_SURFS
100
AcDbLine
 62
7
  6
CONTINUOUS
 10
147.9782536151
 20
705.5843715239
 11
148.2782536151
 21
705.4343715239
  0
LINE
  5
29B
100
AcDbEntity
  8
6_ALL_SURFS
100
AcDbLine
 62
7
  6
CONTINUOUS
 10
153.1799523494
 20
705.2752129928
 11
153.2282536151
 21
705.1843715239
  0
LINE
  5
29C
100
AcDbEntity
  8
7_ALL_FEATURES
100
AcDbLine
 62
7
  6
CONTINUOUS
 10
237.8782536151
 20
704.4343715239
 11
240.0237252055
 21
704.648918683
  0
LINE
  5
29D
100
AcDbEntity
  8
6_ALL_SURFS
100
AcDbLine
 62
7
  6
CONTINUOUS
 10
132.9782536151
 20
704.4343715239
 11
130.8327820247
 21
704.648918683
  0
LINE
  5
29E
100
AcDbEntity
  8
7_ALL_FEATURES
100
AcDbLine
 62
7
  6
CONTINUOUS
 10
154.6661215808
 20
710.2465035583
 11
154.7903856495
 21
710.1222394896
  0
LINE
  5
29F
100
AcDbEntity
  8
6_ALL_SURFS
100
AcDbLine
 62
7
  6
CONTINUOUS
 10
150.3782536151
 20
713.5343715239
 11
150.3782536151
 21
716.3343715239
  0
LINE
  5
2A0
100
AcDbEntity
  8
6_ALL_SURFS
100
AcDbLine
 62
7
  6
CONTINUOUS
 10
163.2640652974
 20
777.0454372829
 11
164.2680394496
 21
778.7843715239
  0
LINE
  5
2A1
100
AcDbEntity
  8
6_ALL_SURFS
100
AcDbLine
 62
7
  6
CONTINUOUS
 10
151.7782536151
 20
702.9343715239
 11
150.9782536151
 21
702.9343715239
  0
LINE
  5
2A2
100
AcDbEntity
  8
7_ALL_FEATURES
100
AcDbLine
 62
7
  6
CONTINUOUS
 10
152.3282536151
 20
702.9343715239
 11
218.5282536151
 21
702.9343715239
  0
LINE
  5
2A3
100
AcDbEntity
  8
7_ALL_FEATURES
100
AcDbLine
 62
7
  6
CONTINUOUS
 10
219.0782536151
 20
702.9343715239
 11
219.8782536151
 21
702.9343715239
  0
LINE
  5
2A4
100
AcDbEntity
  8
6_ALL_SURFS
100
AcDbLine
 62
7
  6
CONTINUOUS
 10
153.0282536151
 20
703.9343715239
 11
152.1782536151
 21
703.9343715239
  0
LINE
  5
2A5
100
AcDbEntity
  8
7_ALL_FEATURES
100
AcDbLine
 62
7
  6
CONTINUOUS
 10
217.8282536151
 20
703.9343715239
 11
218.6782536151
 21
703.9343715239
  0
LINE
  5
2A6
100
AcDbEntity
  8
7_ALL_FEATURES
100
AcDbLine
 62
7
  6
CONTINUOUS
 10
216.4782536151
 20
704.4343715239
 11
154.3782536151
 21
704.4343715239
  0
LINE
  5
2A7
100
AcDbEntity
  8
6_ALL_SURFS
100
AcDbLine
 62
7
  6
CONTINUOUS
 10
150.5782536151
 20
704.4343715239
 11
148.2782536151
 21
704.4343715239
  0
LINE
  5
2A8
100
AcDbEntity
  8
6_ALL_SURFS
100
AcDbLine
 62
7
  6
CONTINUOUS
 10
147.6782536151
 20
704.4343715239
 11
145.2782536151
 21
704.4343715239
  0
LINE
  5
2A9
100
AcDbEntity
  8
6_ALL_SURFS
100
AcDbLine
 62
7
  6
CONTINUOUS
 10
144.6782536151
 20
704.4343715239
 11
142.2782536151
 21
704.4343715239
  0
LINE
  5
2AA
100
AcDbEntity
  8
6_ALL_SURFS
100
AcDbLine
 62
7
  6
CONTINUOUS
 10
141.6782536151
 20
704.4343715239
 11
139.2782536151
 21
704.4343715239
  0
LINE
  5
2AB
100
AcDbEntity
  8
6_ALL_SURFS
100
AcDbLine
 62
7
  6
CONTINUOUS
 10
138.6782536151
 20
704.4343715239
 11
136.2782536151
 21
704.4343715239
  0
LINE
  5
2AC
100
AcDbEntity
  8
6_ALL_SURFS
100
AcDbLine
 62
7
  6
CONTINUOUS
 10
135.6782536151
 20
704.4343715239
 11
132.9782536151
 21
704.4343715239
  0
LINE
  5
2AD
100
AcDbEntity
  8
7_ALL_FEATURES
100
AcDbLine
 62
7
  6
CONTINUOUS
 10
220.2782536151
 20
704.4343715239
 11
222.5782536151
 21
704.4343715239
  0
LINE
  5
2AE
100
AcDbEntity
  8
3_ALL_AXES
100
AcDbLine
 62
7
  6
CONTINUOUS
 10
223.1782536151
 20
704.4343715239
 11
225.5782536151
 21
704.4343715239
  0
LINE
  5
2AF
100
AcDbEntity
  8
3_ALL_AXES
100
AcDbLine
 62
7
  6
CONTINUOUS
 10
226.1782536151
 20
704.4343715239
 11
228.5782536151
 21
704.4343715239
  0
LINE
  5
2B0
100
AcDbEntity
  8
3_ALL_AXES
100
AcDbLine
 62
7
  6
CONTINUOUS
 10
229.1782536151
 20
704.4343715239
 11
231.5782536151
 21
704.4343715239
  0
LINE
  5
2B1
100
AcDbEntity
  8
3_ALL_AXES
100
AcDbLine
 62
7
  6
CONTINUOUS
 10
232.1782536151
 20
704.4343715239
 11
234.5782536151
 21
704.4343715239
  0
LINE
  5
2B2
100
AcDbEntity
  8
3_ALL_AXES
100
AcDbLine
 62
7
  6
CONTINUOUS
 10
235.1782536151
 20
704.4343715239
 11
237.8782536151
 21
704.4343715239
  0
LINE
  5
2B3
100
AcDbEntity
  8
7_ALL_FEATURES
100
AcDbLine
 62
7
  6
CONTINUOUS
 10
239.9845502572
 20
705.4343715239
 11
238.1782536151
 21
705.4343715239
  0
LINE
  5
2B4
100
AcDbEntity
  8
3_ALL_AXES
100
AcDbLine
 62
7
  6
CONTINUOUS
 10
237.5782536151
 20
705.4343715239
 11
235.1782536151
 21
705.4343715239
  0
LINE
  5
2B5
100
AcDbEntity
  8
3_ALL_AXES
100
AcDbLine
 62
7
  6
CONTINUOUS
 10
234.5782536151
 20
705.4343715239
 11
232.1782536151
 21
705.4343715239
  0
LINE
  5
2B6
100
AcDbEntity
  8
3_ALL_AXES
100
AcDbLine
 62
7
  6
CONTINUOUS
 10
231.5782536151
 20
705.4343715239
 11
229.1782536151
 21
705.4343715239
  0
LINE
  5
2B7
100
AcDbEntity
  8
3_ALL_AXES
100
AcDbLine
 62
7
  6
CONTINUOUS
 10
228.5782536151
 20
705.4343715239
 11
226.1782536151
 21
705.4343715239
  0
LINE
  5
2B8
100
AcDbEntity
  8
3_ALL_AXES
100
AcDbLine
 62
7
  6
CONTINUOUS
 10
225.5782536151
 20
705.4343715239
 11
223.1782536151
 21
705.4343715239
  0
LINE
  5
2B9
100
AcDbEntity
  8
3_ALL_AXES
100
AcDbLine
 62
7
  6
CONTINUOUS
 10
222.5782536151
 20
705.4343715239
 11
220.3782536151
 21
705.4343715239
  0
LINE
  5
2BA
100
AcDbEntity
  8
7_ALL_FEATURES
100
AcDbLine
 62
7
  6
CONTINUOUS
 10
218.5782536151
 20
705.4343715239
 11
217.9414391588
 21
705.4343715239
  0
LINE
  5
2BB
100
AcDbEntity
  8
6_ALL_SURFS
100
AcDbLine
 62
7
  6
CONTINUOUS
 10
130.871956973
 20
705.4343715239
 11
132.6782536151
 21
705.4343715239
  0
LINE
  5
2BC
100
AcDbEntity
  8
6_ALL_SURFS
100
AcDbLine
 62
7
  6
CONTINUOUS
 10
133.2782536151
 20
705.4343715239
 11
135.6782536151
 21
705.4343715239
  0
LINE
  5
2BD
100
AcDbEntity
  8
6_ALL_SURFS
100
AcDbLine
 62
7
  6
CONTINUOUS
 10
136.2782536151
 20
705.4343715239
 11
138.6782536151
 21
705.4343715239
  0
LINE
  5
2BE
100
AcDbEntity
  8
6_ALL_SURFS
100
AcDbLine
 62
7
  6
CONTINUOUS
 10
139.2782536151
 20
705.4343715239
 11
141.6782536151
 21
705.4343715239
  0
LINE
  5
2BF
100
AcDbEntity
  8
6_ALL_SURFS
100
AcDbLine
 62
7
  6
CONTINUOUS
 10
142.2782536151
 20
705.4343715239
 11
144.6782536151
 21
705.4343715239
  0
LINE
  5
2C0
100
AcDbEntity
  8
6_ALL_SURFS
100
AcDbLine
 62
7
  6
CONTINUOUS
 10
145.2782536151
 20
705.4343715239
 11
147.6782536151
 21
705.4343715239
  0
LINE
  5
2C1
100
AcDbEntity
  8
6_ALL_SURFS
100
AcDbLine
 62
7
  6
CONTINUOUS
 10
148.2782536151
 20
705.4343715239
 11
150.4782536151
 21
705.4343715239
  0
LINE
  5
2C2
100
AcDbEntity
  8
6_ALL_SURFS
100
AcDbLine
 62
7
  6
CONTINUOUS
 10
152.2782536151
 20
705.4343715239
 11
152.9150680715
 21
705.4343715239
  0
LINE
  5
2C3
100
AcDbEntity
  8
6_ALL_SURFS
100
AcDbLine
 62
7
  6
CONTINUOUS
 10
154.689319374
 20
714.1485598416
 11
154.8782536151
 21
714.0394786067
  0
LINE
  5
2C4
100
AcDbEntity
  8
6_ALL_SURFS
100
AcDbLine
 62
7
  6
CONTINUOUS
 10
150.4782536151
 20
705.4343715239
 11
150.4782536151
 21
706.9343715239
  0
LINE
  5
2C5
100
AcDbEntity
  8
6_ALL_SURFS
100
AcDbLine
 62
7
  6
CONTINUOUS
 10
150.7782536151
 20
703.1343715239
 11
150.7782536151
 21
704.2343715239
  0
LINE
  5
2C6
100
AcDbEntity
  8
6_ALL_SURFS
100
AcDbLine
 62
7
  6
CONTINUOUS
 10
151.9782536151
 20
706.8161983812
 11
151.9782536151
 21
705.7343715239
  0
LINE
  5
2C7
100
AcDbEntity
  8
6_ALL_SURFS
100
AcDbLine
 62
7
  6
CONTINUOUS
 10
151.9782536151
 20
703.7343715239
 11
151.9782536151
 21
703.1343715239
  0
LINE
  5
2C8
100
AcDbEntity
  8
7_ALL_FEATURES
100
AcDbLine
 62
7
  6
CONTINUOUS
 10
152.1282536151
 20
703.7343715239
 11
152.1282536151
 21
703.1343715239
  0
LINE
  5
2C9
100
AcDbEntity
  8
6_ALL_SURFS
100
AcDbLine
 62
7
  6
CONTINUOUS
 10
152.9782536151
 20
710.3243321551
 11
152.9782536151
 21
711.7343715239
  0
LINE
  5
2CA
100
AcDbEntity
  8
6_ALL_SURFS
100
AcDbLine
 62
7
  6
CONTINUOUS
 10
153.2282536151
 20
705.1843715239
 11
153.2282536151
 21
704.1343715239
  0
LINE
  5
2CB
100
AcDbEntity
  8
6_ALL_SURFS
100
AcDbLine
 62
7
  6
CONTINUOUS
 10
153.2782536151
 20
718.1343715239
 11
153.2782536151
 21
753.3567569086
  0
LINE
  5
2CC
100
AcDbEntity
  8
7_ALL_FEATURES
100
AcDbLine
 62
7
  6
CONTINUOUS
 10
153.3782536151
 20
704.7543715239
 11
153.3782536151
 21
704.1343715239
  0
LINE
  5
2CD
100
AcDbEntity
  8
7_ALL_FEATURES
100
AcDbLine
 62
7
  6
CONTINUOUS
 10
154.1782536151
 20
704.6343715239
 11
154.1782536151
 21
704.7543715239
  0
LINE
  5
2CE
100
AcDbEntity
  8
7_ALL_FEATURES
100
AcDbLine
 62
7
  6
CONTINUOUS
 10
154.5782536151
 20
712.0101074552
 11
154.5782536151
 21
710.4586355926
  0
LINE
  5
2CF
100
AcDbEntity
  8
6_ALL_SURFS
100
AcDbLine
 62
7
  6
CONTINUOUS
 10
158.3496082163
 20
771.5297760216
 11
154.9271434984
 21
753.9227214125
  0
LINE
  5
2D0
100
AcDbEntity
  8
6_ALL_SURFS
100
AcDbLine
 62
7
  6
CONTINUOUS
 10
153.3702466623
 20
754.3114651103
 11
156.8734292377
 21
772.3207839844
  0
LINE
  5
2D1
100
AcDbEntity
  8
6_ALL_SURFS
100
AcDbLine
 62
7
  6
CONTINUOUS
 10
155.5256475721
 20
753.1163193053
 11
154.8963458289
 21
751.3873269757
  0
LINE
  5
2D2
100
AcDbEntity
  8
6_ALL_SURFS
100
AcDbLine
 62
7
  6
CONTINUOUS
 10
154.5782536151
 20
708.4343715239
 11
153.5074699568
 21
708.4343715239
  0
LINE
  5
2D3
100
AcDbEntity
  8
7_ALL_FEATURES
100
AcDbLine
 62
7
  6
CONTINUOUS
 10
216.2782536151
 20
708.4343715239
 11
217.3490372734
 21
708.4343715239
  0
LINE
  5
2D4
100
AcDbEntity
  8
6_ALL_SURFS
100
AcDbLine
 62
7
  6
CONTINUOUS
 10
154.8782536151
 20
751.2847209327
 11
154.8782536151
 21
716.0024695219
  0
LINE
  5
2D5
100
AcDbEntity
  8
7_ALL_FEATURES
100
AcDbLine
 62
7
  6
CONTINUOUS
 10
154.8782536151
 20
714.0394786067
 11
154.8782536151
 21
712.5586355926
  0
LINE
  5
2D6
100
AcDbEntity
  8
7_ALL_FEATURES
100
AcDbLine
 62
7
  6
CONTINUOUS
 10
154.8782536151
 20
709.9101074552
 11
154.8782536151
 21
708.7343715239
  0
LINE
  5
2D7
100
AcDbEntity
  8
6_ALL_SURFS
100
AcDbLine
 62
7
  6
CONTINUOUS
 10
158.1782536151
 20
777.9343715239
 11
158.1782536151
 21
778.6343715239
  0
LINE
  5
2D8
100
AcDbEntity
  8
7_ALL_FEATURES
100
AcDbLine
 62
7
  6
CONTINUOUS
 10
183.9282536151
 20
776.9343715239
 11
183.7282536151
 21
776.7343715239
  0
LINE
  5
2D9
100
AcDbEntity
  8
6_ALL_SURFS
100
AcDbLine
 62
7
  6
CONTINUOUS
 10
152.6782536151
 20
712.0343715239
 11
151.8782536151
 21
712.0343715239
  0
LINE
  5
2DA
100
AcDbEntity
  8
7_ALL_FEATURES
100
AcDbLine
 62
7
  6
CONTINUOUS
 10
218.1782536151
 20
712.0343715239
 11
218.9782536151
 21
712.0343715239
  0
LINE
  5
2DB
100
AcDbEntity
  8
7_ALL_FEATURES
100
AcDbLine
 62
7
  6
CONTINUOUS
 10
218.9782536151
 20
717.8343715239
 11
217.8782536151
 21
717.8343715239
  0
LINE
  5
2DC
100
AcDbEntity
  8
6_ALL_SURFS
100
AcDbLine
 62
7
  6
CONTINUOUS
 10
151.8782536151
 20
717.8343715239
 11
152.9782536151
 21
717.8343715239
  0
LINE
  5
2DD
100
AcDbEntity
  8
6_ALL_SURFS
100
AcDbLine
 62
7
  6
CONTINUOUS
 10
165.2782536151
 20
778.6343715239
 11
165.2782536151
 21
775.684371524
  0
LINE
  5
2DE
100
AcDbEntity
  8
3_ALL_AXES
100
AcDbLine
 62
7
  6
CONTINUOUS
 10
223.1782536151
 20
705.4343715239
 11
222.8782536151
 21
705.5843715239
  0
LINE
  5
2DF
100
AcDbEntity
  8
3_ALL_AXES
100
AcDbLine
 62
7
  6
CONTINUOUS
 10
226.1782536151
 20
705.4343715239
 11
225.8782536151
 21
705.5843715239
  0
LINE
  5
2E0
100
AcDbEntity
  8
3_ALL_AXES
100
AcDbLine
 62
7
  6
CONTINUOUS
 10
229.1782536151
 20
705.4343715239
 11
228.8782536151
 21
705.5843715239
  0
LINE
  5
2E1
100
AcDbEntity
  8
3_ALL_AXES
100
AcDbLine
 62
7
  6
CONTINUOUS
 10
232.1782536151
 20
705.4343715239
 11
231.8782536151
 21
705.5843715239
  0
LINE
  5
2E2
100
AcDbEntity
  8
3_ALL_AXES
100
AcDbLine
 62
7
  6
CONTINUOUS
 10
235.1782536151
 20
705.4343715239
 11
234.8782536151
 21
705.5843715239
  0
LINE
  5
2E3
100
AcDbEntity
  8
7_ALL_FEATURES
100
AcDbLine
 62
7
  6
CONTINUOUS
 10
177.9282536151
 20
771.9343715239
 11
177.9282536151
 21
770.9343715239
  0
LINE
  5
2E4
100
AcDbEntity
  8
7_ALL_FEATURES
100
AcDbLine
 62
7
  6
CONTINUOUS
 10
181.4282536151
 20
768.9061682936
 11
181.4282536151
 21
770.9343715239
  0
LINE
  5
2E5
100
AcDbEntity
  8
3_ALL_AXES
100
AcDbLine
 62
7
  6
CONTINUOUS
 10
238.1782536151
 20
705.4343715239
 11
237.8782536151
 21
705.5843715239
  0
LINE
  5
2E6
100
AcDbEntity
  8
7_ALL_FEATURES
100
AcDbLine
 62
7
  6
CONTINUOUS
 10
216.1282536151
 20
715.7426619008
 11
216.4024205902
 21
715.5843715239
  0
LINE
  5
2E7
100
AcDbEntity
  8
6_ALL_SURFS
100
AcDbLine
 62
7
  6
CONTINUOUS
 10
181.8282536151
 20
774.0343715239
 11
181.8282536151
 21
777.9343715239
  0
LINE
  5
2E8
100
AcDbEntity
  8
7_ALL_FEATURES
100
AcDbLine
 62
7
  6
CONTINUOUS
 10
183.4282536151
 20
768.0884048315
 11
183.4282536151
 21
768.104559107
  0
LINE
  5
2E9
100
AcDbEntity
  8
6_ALL_SURFS
100
AcDbLine
 62
7
  6
CONTINUOUS
 10
183.7282536151
 20
777.0343715239
 11
183.7282536151
 21
772.2343715239
  0
LINE
  5
2EA
100
AcDbEntity
  8
7_ALL_FEATURES
100
AcDbLine
 62
7
  6
CONTINUOUS
 10
184.9282536151
 20
767.8656827987
 11
184.9282536151
 21
768.104559107
  0
LINE
  5
2EB
100
AcDbEntity
  8
7_ALL_FEATURES
100
AcDbLine
 62
7
  6
CONTINUOUS
 10
185.9282536151
 20
768.104559107
 11
185.9282536151
 21
767.8656827987
  0
LINE
  5
2EC
100
AcDbEntity
  8
6_ALL_SURFS
100
AcDbLine
 62
7
  6
CONTINUOUS
 10
150.8812230627
 20
707.957369064
 11
152.8976597256
 21
710.1197326471
  0
LINE
  5
2ED
100
AcDbEntity
  8
6_ALL_SURFS
100
AcDbLine
 62
7
  6
CONTINUOUS
 10
153.2880638463
 20
708.3389710319
 11
152.0588475046
 21
707.0207978893
  0
LINE
  5
2EE
100
AcDbEntity
  8
3_ALL_AXES
100
AcDbLine
 62
7
  6
CONTINUOUS
 10
153.096500524
 20
707.5071708679
 11
152.7320727108
 21
707.116369884
  0
LINE
  5
2EF
100
AcDbEntity
  8
3_ALL_AXES
100
AcDbLine
 62
7
  6
CONTINUOUS
 10
153.3171556721
 20
706.5707711959
 11
153.6815834853
 21
706.9615721799
  0
LINE
  5
2F0
100
AcDbEntity
  8
7_ALL_FEATURES
100
AcDbLine
 62
7
  6
CONTINUOUS
 10
154.7903856495
 20
712.3465035583
 11
154.6661215808
 21
712.2222394896
  0
LINE
  5
2F1
100
AcDbEntity
  8
7_ALL_FEATURES
100
AcDbLine
 62
7
  6
CONTINUOUS
 10
215.7374816198
 20
753.5835709277
 11
215.5101614014
 21
753.5008331345
  0
LINE
  5
2F2
100
AcDbEntity
  8
3_ALL_AXES
100
AcDbLine
 62
7
  6
CONTINUOUS
 10
217.1749237449
 20
706.9615721799
 11
217.5393515582
 21
706.5707711959
  0
LINE
  5
2F3
100
AcDbEntity
  8
6_ALL_SURFS
100
AcDbLine
 62
7
  6
CONTINUOUS
 10
160.6884677806
 20
778.7843715239
 11
161.6924419328
 21
777.0454372829
  0
LINE
  5
2F4
100
AcDbEntity
  8
7_ALL_FEATURES
100
AcDbLine
 62
7
  6
CONTINUOUS
 10
187.1282536151
 20
777.0343715239
 11
187.1282536151
 21
772.2343715239
  0
LINE
  5
2F5
100
AcDbEntity
  8
7_ALL_FEATURES
100
AcDbLine
 62
7
  6
CONTINUOUS
 10
187.4282536151
 20
768.104559107
 11
187.4282536151
 21
768.0884048315
  0
LINE
  5
2F6
100
AcDbEntity
  8
7_ALL_FEATURES
100
AcDbLine
 62
7
  6
CONTINUOUS
 10
189.0282536151
 20
774.0343715239
 11
189.0282536151
 21
777.9343715239
  0
LINE
  5
2F7
100
AcDbEntity
  8
7_ALL_FEATURES
100
AcDbLine
 62
7
  6
CONTINUOUS
 10
189.4282536151
 20
768.9061682936
 11
189.4282536151
 21
770.9343715239
  0
LINE
  5
2F8
100
AcDbEntity
  8
7_ALL_FEATURES
100
AcDbLine
 62
7
  6
CONTINUOUS
 10
210.1680394496
 20
778.7843715239
 11
209.1640652974
 21
777.0454372829
  0
LINE
  5
2F9
100
AcDbEntity
  8
6_ALL_SURFS
100
AcDbLine
 62
7
  6
CONTINUOUS
 10
155.1190256104
 20
753.5835709277
 11
155.3463458289
 21
753.5008331345
  0
LINE
  5
2FA
100
AcDbEntity
  8
7_ALL_FEATURES
100
AcDbLine
 62
7
  6
CONTINUOUS
 10
216.0661215808
 20
712.3465035583
 11
216.1903856495
 21
712.2222394896
  0
LINE
  5
2FB
100
AcDbEntity
  8
3_ALL_AXES
100
AcDbLine
 62
7
  6
CONTINUOUS
 10
218.1244345194
 20
707.116369884
 11
217.7600067062
 21
707.5071708679
  0
LINE
  5
2FC
100
AcDbEntity
  8
7_ALL_FEATURES
100
AcDbLine
 62
7
  6
CONTINUOUS
 10
217.5684433839
 20
708.3389710319
 11
218.7976597256
 21
707.0207978893
  0
LINE
  5
2FD
100
AcDbEntity
  8
7_ALL_FEATURES
100
AcDbLine
 62
7
  6
CONTINUOUS
 10
219.9752841676
 20
707.957369064
 11
217.9588475046
 21
710.1197326471
  0
LINE
  5
2FE
100
AcDbEntity
  8
7_ALL_FEATURES
100
AcDbLine
 62
7
  6
CONTINUOUS
 10
192.9282536151
 20
770.9343715239
 11
192.9282536151
 21
771.9343715239
  0
LINE
  5
2FF
100
AcDbEntity
  8
6_ALL_SURFS
100
AcDbLine
 62
7
  6
CONTINUOUS
 10
154.7282536151
 20
715.7426619008
 11
154.45408664
 21
715.5843715239
  0
LINE
  5
300
100
AcDbEntity
  8
6_ALL_SURFS
100
AcDbLine
 62
7
  6
CONTINUOUS
 10
132.6782536151
 20
705.4343715239
 11
132.9782536151
 21
705.5843715239
  0
LINE
  5
301
100
AcDbEntity
  8
6_ALL_SURFS
100
AcDbLine
 62
7
  6
CONTINUOUS
 10
135.6782536151
 20
705.4343715239
 11
135.9782536151
 21
705.5843715239
  0
LINE
  5
302
100
AcDbEntity
  8
6_ALL_SURFS
100
AcDbLine
 62
7
  6
CONTINUOUS
 10
138.6782536151
 20
705.4343715239
 11
138.9782536151
 21
705.5843715239
  0
LINE
  5
303
100
AcDbEntity
  8
6_ALL_SURFS
100
AcDbLine
 62
7
  6
CONTINUOUS
 10
141.6782536151
 20
705.4343715239
 11
141.9782536151
 21
705.5843715239
  0
LINE
  5
304
100
AcDbEntity
  8
6_ALL_SURFS
100
AcDbLine
 62
7
  6
CONTINUOUS
 10
144.6782536151
 20
705.4343715239
 11
144.9782536151
 21
705.5843715239
  0
LINE
  5
305
100
AcDbEntity
  8
6_ALL_SURFS
100
AcDbLine
 62
7
  6
CONTINUOUS
 10
147.6782536151
 20
705.4343715239
 11
147.9782536151
 21
705.5843715239
  0
LINE
  5
306
100
AcDbEntity
  8
7_ALL_FEATURES
100
AcDbLine
 62
7
  6
CONTINUOUS
 10
205.5782536151
 20
778.6343715239
 11
205.5782536151
 21
775.684371524
  0
LINE
  5
307
100
AcDbEntity
  8
7_ALL_FEATURES
100
AcDbLine
 62
7
  6
CONTINUOUS
 10
212.6782536151
 20
777.9343715239
 11
212.6782536151
 21
778.6343715239
  0
LINE
  5
308
100
AcDbEntity
  8
7_ALL_FEATURES
100
AcDbLine
 62
7
  6
CONTINUOUS
 10
186.9282536151
 20
776.9343715239
 11
187.1282536151
 21
776.7343715239
  0
LINE
  5
309
100
AcDbEntity
  8
7_ALL_FEATURES
100
AcDbLine
 62
7
  6
CONTINUOUS
 10
215.9782536151
 20
751.2847209327
 11
215.9782536151
 21
716.0024695219
  0
LINE
  5
30A
100
AcDbEntity
  8
7_ALL_FEATURES
100
AcDbLine
 62
7
  6
CONTINUOUS
 10
215.9782536151
 20
714.0394786067
 11
215.9782536151
 21
712.5586355926
  0
LINE
  5
30B
100
AcDbEntity
  8
7_ALL_FEATURES
100
AcDbLine
 62
7
  6
CONTINUOUS
 10
215.9782536151
 20
709.9101074552
 11
215.9782536151
 21
708.7343715239
  0
LINE
  5
30C
100
AcDbEntity
  8
7_ALL_FEATURES
100
AcDbLine
 62
7
  6
CONTINUOUS
 10
216.2782536151
 20
712.0101074552
 11
216.2782536151
 21
710.4586355926
  0
LINE
  5
30D
100
AcDbEntity
  8
7_ALL_FEATURES
100
AcDbLine
 62
7
  6
CONTINUOUS
 10
216.6782536151
 20
704.7543715239
 11
216.6782536151
 21
704.6343715239
  0
LINE
  5
30E
100
AcDbEntity
  8
7_ALL_FEATURES
100
AcDbLine
 62
7
  6
CONTINUOUS
 10
189.4282536151
 20
768.9061682936
 11
181.4282536151
 21
768.9061682936
  0
LINE
  5
30F
100
AcDbEntity
  8
7_ALL_FEATURES
100
AcDbLine
 62
7
  6
CONTINUOUS
 10
177.9282536151
 20
770.9343715239
 11
192.9282536151
 21
770.9343715239
  0
LINE
  5
310
100
AcDbEntity
  8
6_ALL_SURFS
100
AcDbLine
 62
7
  6
CONTINUOUS
 10
183.4282536151
 20
771.9343715239
 11
158.840421808
 21
771.9343715239
  0
LINE
  5
311
100
AcDbEntity
  8
7_ALL_FEATURES
100
AcDbLine
 62
7
  6
CONTINUOUS
 10
183.4282536151
 20
771.9343715239
 11
212.0160854222
 21
771.9343715239
  0
LINE
  5
312
100
AcDbEntity
  8
7_ALL_FEATURES
100
AcDbLine
 62
7
  6
CONTINUOUS
 10
217.4782536151
 20
704.1343715239
 11
217.4782536151
 21
704.7543715239
  0
LINE
  5
313
100
AcDbEntity
  8
7_ALL_FEATURES
100
AcDbLine
 62
7
  6
CONTINUOUS
 10
217.5782536151
 20
718.1343715239
 11
217.5782536151
 21
753.3567569086
  0
LINE
  5
314
100
AcDbEntity
  8
7_ALL_FEATURES
100
AcDbLine
 62
7
  6
CONTINUOUS
 10
217.6282536151
 20
705.1843715239
 11
217.6282536151
 21
704.1343715239
  0
LINE
  5
315
100
AcDbEntity
  8
7_ALL_FEATURES
100
AcDbLine
 62
7
  6
CONTINUOUS
 10
217.8782536151
 20
710.3243321551
 11
217.8782536151
 21
711.7343715239
  0
LINE
  5
316
100
AcDbEntity
  8
7_ALL_FEATURES
100
AcDbLine
 62
7
  6
CONTINUOUS
 10
218.7282536151
 20
703.1343715239
 11
218.7282536151
 21
703.7343715239
  0
LINE
  5
317
100
AcDbEntity
  8
7_ALL_FEATURES
100
AcDbLine
 62
7
  6
CONTINUOUS
 10
218.8782536151
 20
706.8161983812
 11
218.8782536151
 21
705.7343715239
  0
LINE
  5
318
100
AcDbEntity
  8
7_ALL_FEATURES
100
AcDbLine
 62
7
  6
CONTINUOUS
 10
218.8782536151
 20
703.7343715239
 11
218.8782536151
 21
703.1343715239
  0
LINE
  5
319
100
AcDbEntity
  8
7_ALL_FEATURES
100
AcDbLine
 62
7
  6
CONTINUOUS
 10
220.0782536151
 20
703.1343715239
 11
220.0782536151
 21
704.2343715239
  0
LINE
  5
31A
100
AcDbEntity
  8
7_ALL_FEATURES
100
AcDbLine
 62
7
  6
CONTINUOUS
 10
220.3782536151
 20
705.4343715239
 11
220.3782536151
 21
706.9343715239
  0
LINE
  5
31B
100
AcDbEntity
  8
7_ALL_FEATURES
100
AcDbLine
 62
7
  6
CONTINUOUS
 10
220.4782536151
 20
713.5343715239
 11
220.4782536151
 21
716.3343715239
  0
LINE
  5
31C
100
AcDbEntity
  8
7_ALL_FEATURES
100
AcDbLine
 62
7
  6
CONTINUOUS
 10
212.5106759067
 20
773.5343715239
 11
211.2361374476
 21
773.5343715239
  0
LINE
  5
31D
100
AcDbEntity
  8
7_ALL_FEATURES
100
AcDbLine
 62
7
  6
CONTINUOUS
 10
205.5203697827
 20
773.5343715239
 11
189.5282536151
 21
773.5343715239
  0
LINE
  5
31E
100
AcDbEntity
  8
6_ALL_SURFS
100
AcDbLine
 62
7
  6
CONTINUOUS
 10
158.3458313236
 20
773.5343715239
 11
159.6203697827
 21
773.5343715239
  0
LINE
  5
31F
100
AcDbEntity
  8
6_ALL_SURFS
100
AcDbLine
 62
7
  6
CONTINUOUS
 10
165.3361374476
 20
773.5343715239
 11
181.3282536151
 21
773.5343715239
  0
LINE
  5
320
100
AcDbEntity
  8
7_ALL_FEATURES
100
AcDbLine
 62
7
  6
CONTINUOUS
 10
187.1282536151
 20
776.4343715239
 11
183.7282536151
 21
776.4343715239
  0
LINE
  5
321
100
AcDbEntity
  8
7_ALL_FEATURES
100
AcDbLine
 62
7
  6
CONTINUOUS
 10
186.9282536151
 20
776.9343715239
 11
183.9282536151
 21
776.9343715239
  0
LINE
  5
322
100
AcDbEntity
  8
7_ALL_FEATURES
100
AcDbLine
 62
7
  6
CONTINUOUS
 10
215.3308596581
 20
753.1163193053
 11
215.9601614014
 21
751.3873269757
  0
LINE
  5
323
100
AcDbEntity
  8
7_ALL_FEATURES
100
AcDbLine
 62
7
  6
CONTINUOUS
 10
217.486260568
 20
754.3114651103
 11
213.9830779925
 21
772.3207839844
  0
LINE
  5
324
100
AcDbEntity
  8
7_ALL_FEATURES
100
AcDbLine
 62
7
  6
CONTINUOUS
 10
212.5068990139
 20
771.5297760216
 11
215.9293637319
 21
753.9227214125
  0
LINE
  5
325
100
AcDbEntity
  8
7_ALL_FEATURES
100
AcDbLine
 62
7
  6
CONTINUOUS
 10
216.1671878562
 20
714.1485598416
 11
215.9782536151
 21
714.0394786067
  0
LINE
  5
326
100
AcDbEntity
  8
7_ALL_FEATURES
100
AcDbLine
 62
7
  6
CONTINUOUS
 10
186.8282536151
 20
777.3343715239
 11
184.0282536151
 21
777.3343715239
  0
LINE
  5
327
100
AcDbEntity
  8
6_ALL_SURFS
100
AcDbLine
 62
7
  6
CONTINUOUS
 10
159.8538489207
 20
777.6343715239
 11
158.4782536151
 21
777.6343715239
  0
LINE
  5
328
100
AcDbEntity
  8
7_ALL_FEATURES
100
AcDbLine
 62
7
  6
CONTINUOUS
 10
211.0026583096
 20
777.6343715239
 11
212.3782536151
 21
777.6343715239
  0
LINE
  5
329
100
AcDbEntity
  8
7_ALL_FEATURES
100
AcDbLine
 62
7
  6
CONTINUOUS
 10
212.3782536151
 20
778.9343715239
 11
210.4278470708
 21
778.9343715239
  0
LINE
  5
32A
100
AcDbEntity
  8
7_ALL_FEATURES
100
AcDbLine
 62
7
  6
CONTINUOUS
 10
206.3286601595
 20
778.9343715239
 11
205.8782536151
 21
778.9343715239
  0
LINE
  5
32B
100
AcDbEntity
  8
6_ALL_SURFS
100
AcDbLine
 62
7
  6
CONTINUOUS
 10
158.4782536151
 20
778.9343715239
 11
160.4286601595
 21
778.9343715239
  0
LINE
  5
32C
100
AcDbEntity
  8
6_ALL_SURFS
100
AcDbLine
 62
7
  6
CONTINUOUS
 10
164.5278470708
 20
778.9343715239
 11
164.9782536151
 21
778.9343715239
  0
LINE
  5
32D
100
AcDbEntity
  8
7_ALL_FEATURES
100
AcDbLine
 62
7
  6
CONTINUOUS
 10
182.8282536151
 20
778.9343715239
 11
188.0282536151
 21
778.9343715239
  0
LINE
  5
32E
100
AcDbEntity
  8
7_ALL_FEATURES
100
AcDbLine
 62
7
  6
CONTINUOUS
 10
207.5924419328
 20
777.0454372829
 11
206.5884677806
 21
778.7843715239
  0
LINE
  5
32F
100
AcDbEntity
  8
7_ALL_FEATURES
100
AcDbLine
 62
7
  6
CONTINUOUS
 10
216.1903856495
 20
710.2465035583
 11
216.0661215808
 21
710.1222394896
  0
LINE
  5
330
100
AcDbEntity
  8
7_ALL_FEATURES
100
AcDbLine
 62
7
  6
CONTINUOUS
 10
217.6765548809
 20
705.2752129928
 11
217.6282536151
 21
705.1843715239
  0
LINE
  5
331
100
AcDbEntity
  8
3_ALL_AXES
100
AcDbLine
 62
7
  6
CONTINUOUS
 10
222.8782536151
 20
705.5843715239
 11
222.5782536151
 21
705.4343715239
  0
LINE
  5
332
100
AcDbEntity
  8
3_ALL_AXES
100
AcDbLine
 62
7
  6
CONTINUOUS
 10
225.8782536151
 20
705.5843715239
 11
225.5782536151
 21
705.4343715239
  0
LINE
  5
333
100
AcDbEntity
  8
3_ALL_AXES
100
AcDbLine
 62
7
  6
CONTINUOUS
 10
228.8782536151
 20
705.5843715239
 11
228.5782536151
 21
705.4343715239
  0
LINE
  5
334
100
AcDbEntity
  8
3_ALL_AXES
100
AcDbLine
 62
7
  6
CONTINUOUS
 10
231.8782536151
 20
705.5843715239
 11
231.5782536151
 21
705.4343715239
  0
LINE
  5
335
100
AcDbEntity
  8
3_ALL_AXES
100
AcDbLine
 62
7
  6
CONTINUOUS
 10
234.8782536151
 20
705.5843715239
 11
234.5782536151
 21
705.4343715239
  0
LINE
  5
336
100
AcDbEntity
  8
3_ALL_AXES
100
AcDbLine
 62
7
  6
CONTINUOUS
 10
237.8782536151
 20
705.5843715239
 11
237.5782536151
 21
705.4343715239
  0
LINE
  5
337
100
AcDbEntity
  8
6_ALL_SURFS
100
AcDbLine
 62
7
  6
CONTINUOUS
 10
343.6635150167
 20
702.9343715239
 11
343.6635150167
 21
704.4245828272
  0
LINE
  5
338
100
AcDbEntity
  8
6_ALL_SURFS
100
AcDbLine
 62
7
  6
CONTINUOUS
 10
343.6635150167
 20
704.4343715239
 11
343.6635150167
 21
778.9343715239
  0
LINE
  5
339
100
AcDbEntity
  8
6_ALL_SURFS
100
AcDbLine
 62
7
  6
CONTINUOUS
 10
3150.6635150167
 20
702.9343715239
 11
343.6635150167
 21
702.9343715239
  0
LINE
  5
33A
100
AcDbEntity
  8
6_ALL_SURFS
100
AcDbLine
 62
9
  6
CONTINUOUS
 10
3150.6635150167
 20
703.1343715239
 11
343.6635150167
 21
703.1343715239
  0
LINE
  5
33B
100
AcDbEntity
  8
6_ALL_SURFS
100
AcDbLine
 62
9
  6
CONTINUOUS
 10
343.6635150167
 20
704.2343715239
 11
3150.6635150167
 21
704.2343715239
  0
LINE
  5
33C
100
AcDbEntity
  8
6_ALL_SURFS
100
AcDbLine
 62
7
  6
CONTINUOUS
 10
343.6635150167
 20
704.4343715239
 11
493.880107223
 21
704.4343715239
  0
LINE
  5
33D
100
AcDbEntity
  8
6_ALL_SURFS
100
AcDbLine
 62
7
  6
CONTINUOUS
 10
494.1569640322
 20
704.4343715239
 11
500.1700660012
 21
704.4343715239
  0
LINE
  5
33E
100
AcDbEntity
  8
6_ALL_SURFS
100
AcDbLine
 62
7
  6
CONTINUOUS
 10
500.4469228104
 20
704.4343715239
 11
743.880107223
 21
704.4343715239
  0
LINE
  5
33F
100
AcDbEntity
  8
6_ALL_SURFS
100
AcDbLine
 62
7
  6
CONTINUOUS
 10
744.1569640322
 20
704.4343715239
 11
750.1700660012
 21
704.4343715239
  0
LINE
  5
340
100
AcDbEntity
  8
6_ALL_SURFS
100
AcDbLine
 62
7
  6
CONTINUOUS
 10
750.4469228104
 20
704.4343715239
 11
993.880107223
 21
704.4343715239
  0
LINE
  5
341
100
AcDbEntity
  8
6_ALL_SURFS
100
AcDbLine
 62
7
  6
CONTINUOUS
 10
994.1569640322
 20
704.4343715239
 11
1000.1700660012
 21
704.4343715239
  0
LINE
  5
342
100
AcDbEntity
  8
6_ALL_SURFS
100
AcDbLine
 62
7
  6
CONTINUOUS
 10
1000.4469228104
 20
704.4343715239
 11
1243.880107223
 21
704.4343715239
  0
LINE
  5
343
100
AcDbEntity
  8
6_ALL_SURFS
100
AcDbLine
 62
7
  6
CONTINUOUS
 10
1244.1569640322
 20
704.4343715239
 11
1250.1700660012
 21
704.4343715239
  0
LINE
  5
344
100
AcDbEntity
  8
6_ALL_SURFS
100
AcDbLine
 62
7
  6
CONTINUOUS
 10
1250.4469228104
 20
704.4343715239
 11
1493.880107223
 21
704.4343715239
  0
LINE
  5
345
100
AcDbEntity
  8
6_ALL_SURFS
100
AcDbLine
 62
7
  6
CONTINUOUS
 10
1494.1569640322
 20
704.4343715239
 11
1500.1700660012
 21
704.4343715239
  0
LINE
  5
346
100
AcDbEntity
  8
6_ALL_SURFS
100
AcDbLine
 62
7
  6
CONTINUOUS
 10
1500.4469228104
 20
704.4343715239
 11
1743.880107223
 21
704.4343715239
  0
LINE
  5
347
100
AcDbEntity
  8
6_ALL_SURFS
100
AcDbLine
 62
7
  6
CONTINUOUS
 10
1744.1569640322
 20
704.4343715239
 11
1750.1700660012
 21
704.4343715239
  0
LINE
  5
348
100
AcDbEntity
  8
6_ALL_SURFS
100
AcDbLine
 62
7
  6
CONTINUOUS
 10
1750.4469228104
 20
704.4343715239
 11
1993.880107223
 21
704.4343715239
  0
LINE
  5
349
100
AcDbEntity
  8
6_ALL_SURFS
100
AcDbLine
 62
7
  6
CONTINUOUS
 10
1994.1569640322
 20
704.4343715239
 11
2000.1700660012
 21
704.4343715239
  0
LINE
  5
34A
100
AcDbEntity
  8
6_ALL_SURFS
100
AcDbLine
 62
7
  6
CONTINUOUS
 10
2000.4469228104
 20
704.4343715239
 11
2243.880107223
 21
704.4343715239
  0
LINE
  5
34B
100
AcDbEntity
  8
6_ALL_SURFS
100
AcDbLine
 62
7
  6
CONTINUOUS
 10
2244.1569640322
 20
704.4343715239
 11
2250.1700660012
 21
704.4343715239
  0
LINE
  5
34C
100
AcDbEntity
  8
6_ALL_SURFS
100
AcDbLine
 62
7
  6
CONTINUOUS
 10
2250.4469228104
 20
704.4343715239
 11
2493.880107223
 21
704.4343715239
  0
LINE
  5
34D
100
AcDbEntity
  8
6_ALL_SURFS
100
AcDbLine
 62
7
  6
CONTINUOUS
 10
2494.1569640322
 20
704.4343715239
 11
2500.1700660012
 21
704.4343715239
  0
LINE
  5
34E
100
AcDbEntity
  8
6_ALL_SURFS
100
AcDbLine
 62
7
  6
CONTINUOUS
 10
2500.4469228104
 20
704.4343715239
 11
2743.880107223
 21
704.4343715239
  0
LINE
  5
34F
100
AcDbEntity
  8
6_ALL_SURFS
100
AcDbLine
 62
7
  6
CONTINUOUS
 10
2744.1569640322
 20
704.4343715239
 11
2750.1700660012
 21
704.4343715239
  0
LINE
  5
350
100
AcDbEntity
  8
6_ALL_SURFS
100
AcDbLine
 62
7
  6
CONTINUOUS
 10
2750.4469228104
 20
704.4343715239
 11
2993.880107223
 21
704.4343715239
  0
LINE
  5
351
100
AcDbEntity
  8
6_ALL_SURFS
100
AcDbLine
 62
7
  6
CONTINUOUS
 10
2994.1569640322
 20
704.4343715239
 11
3000.1700660012
 21
704.4343715239
  0
LINE
  5
352
100
AcDbEntity
  8
6_ALL_SURFS
100
AcDbLine
 62
7
  6
CONTINUOUS
 10
3000.4469228104
 20
704.4343715239
 11
3150.6635150167
 21
704.4343715239
  0
LINE
  5
353
100
AcDbEntity
  8
6_ALL_SURFS
100
AcDbLine
 62
9
  6
CONTINUOUS
 10
343.6635150167
 20
704.648918683
 11
3150.6635150167
 21
704.648918683
  0
LINE
  5
354
100
AcDbEntity
  8
6_ALL_SURFS
100
AcDbLine
 62
7
  6
CONTINUOUS
 10
343.6635150167
 20
705.4343715239
 11
3150.6635150167
 21
705.4343715239
  0
LINE
  5
355
100
AcDbEntity
  8
6_ALL_SURFS
100
AcDbLine
 62
7
  6
CONTINUOUS
 10
343.6635150167
 20
705.5843715239
 11
3150.6635150167
 21
705.5843715239
  0
LINE
  5
356
100
AcDbEntity
  8
6_ALL_SURFS
100
AcDbLine
 62
9
  6
CONTINUOUS
 10
3150.6635150167
 20
706.9343715239
 11
343.6635150167
 21
706.9343715239
  0
LINE
  5
357
100
AcDbEntity
  8
6_ALL_SURFS
100
AcDbLine
 62
9
  6
CONTINUOUS
 10
3150.6635150167
 20
707.957369064
 11
343.6635150167
 21
707.957369064
  0
LINE
  5
358
100
AcDbEntity
  8
6_ALL_SURFS
100
AcDbLine
 62
9
  6
CONTINUOUS
 10
343.6635150167
 20
710.1197326471
 11
3150.6635150167
 21
710.1197326471
  0
LINE
  5
359
100
AcDbEntity
  8
6_ALL_SURFS
100
AcDbLine
 62
9
  6
CONTINUOUS
 10
343.6635150167
 20
710.3243321551
 11
3150.6635150167
 21
710.3243321551
  0
LINE
  5
35A
100
AcDbEntity
  8
6_ALL_SURFS
100
AcDbLine
 62
9
  6
CONTINUOUS
 10
343.6635150167
 20
711.7343715239
 11
3150.6635150167
 21
711.7343715239
  0
LINE
  5
35B
100
AcDbEntity
  8
6_ALL_SURFS
100
AcDbLine
 62
7
  6
CONTINUOUS
 10
3150.6635150167
 20
712.0343715239
 11
343.6635150167
 21
712.0343715239
  0
LINE
  5
35C
100
AcDbEntity
  8
6_ALL_SURFS
100
AcDbLine
 62
9
  6
CONTINUOUS
 10
3150.6635150167
 20
713.5343715239
 11
343.6635150167
 21
713.5343715239
  0
LINE
  5
35D
100
AcDbEntity
  8
6_ALL_SURFS
100
AcDbLine
 62
9
  6
CONTINUOUS
 10
3150.6635150167
 20
716.3343715239
 11
343.6635150167
 21
716.3343715239
  0
LINE
  5
35E
100
AcDbEntity
  8
6_ALL_SURFS
100
AcDbLine
 62
7
  6
CONTINUOUS
 10
3150.6635150167
 20
717.8343715239
 11
343.6635150167
 21
717.8343715239
  0
LINE
  5
35F
100
AcDbEntity
  8
6_ALL_SURFS
100
AcDbLine
 62
9
  6
CONTINUOUS
 10
343.6635150167
 20
718.1343715239
 11
3150.6635150167
 21
718.1343715239
  0
LINE
  5
360
100
AcDbEntity
  8
6_ALL_SURFS
100
AcDbLine
 62
9
  6
CONTINUOUS
 10
3150.6635150167
 20
753.3567569086
 11
343.6635150167
 21
753.3567569086
  0
LINE
  5
361
100
AcDbEntity
  8
6_ALL_SURFS
100
AcDbLine
 62
9
  6
CONTINUOUS
 10
3150.6635150167
 20
754.3114651103
 11
343.6635150167
 21
754.3114651103
  0
LINE
  5
362
100
AcDbEntity
  8
6_ALL_SURFS
100
AcDbLine
 62
9
  6
CONTINUOUS
 10
3150.6635150167
 20
772.3207839844
 11
343.6635150167
 21
772.3207839844
  0
LINE
  5
363
100
AcDbEntity
  8
6_ALL_SURFS
100
AcDbLine
 62
7
  6
CONTINUOUS
 10
3150.6635150167
 20
773.5343715239
 11
343.6635150167
 21
773.5343715239
  0
LINE
  5
364
100
AcDbEntity
  8
6_ALL_SURFS
100
AcDbLine
 62
9
  6
CONTINUOUS
 10
343.6635150167
 20
774.2843715239
 11
3150.6635150167
 21
774.2843715239
  0
LINE
  5
365
100
AcDbEntity
  8
6_ALL_SURFS
100
AcDbLine
 62
9
  6
CONTINUOUS
 10
343.6635150167
 20
777.1746941046
 11
3150.6635150167
 21
777.1746941046
  0
LINE
  5
366
100
AcDbEntity
  8
6_ALL_SURFS
100
AcDbLine
 62
7
  6
CONTINUOUS
 10
3150.6635150167
 20
777.6343715239
 11
343.6635150167
 21
777.6343715239
  0
LINE
  5
367
100
AcDbEntity
  8
6_ALL_SURFS
100
AcDbLine
 62
9
  6
CONTINUOUS
 10
3150.6635150167
 20
777.9343715239
 11
343.6635150167
 21
777.9343715239
  0
LINE
  5
368
100
AcDbEntity
  8
6_ALL_SURFS
100
AcDbLine
 62
9
  6
CONTINUOUS
 10
3150.6635150167
 20
778.6343715239
 11
343.6635150167
 21
778.6343715239
  0
LINE
  5
369
100
AcDbEntity
  8
6_ALL_SURFS
100
AcDbLine
 62
7
  6
CONTINUOUS
 10
3150.6635150167
 20
778.9343715239
 11
343.6635150167
 21
778.9343715239
  0
LINE
  5
36A
100
AcDbEntity
  8
6_ALL_SURFS
100
AcDbLine
 62
7
  6
CONTINUOUS
 10
3150.6635150167
 20
702.9343715239
 11
3150.6635150167
 21
778.9343715239
  0
LINE
  5
36B
100
AcDbEntity
  8
3_ALL_AXES
100
AcDbLine
 62
7
  6
CONTINUOUS
 10
343.6635150167
 20
1103.2281979978
 11
343.6635150167
 21
1087.9281979978
  0
LINE
  5
36C
100
AcDbEntity
  8
7_ALL_FEATURES
100
AcDbLine
 62
7
  6
CONTINUOUS
 10
343.6635150167
 20
1085.4282386938
 11
343.6635150167
 21
1087.9281979978
  0
LINE
  5
36D
100
AcDbEntity
  8
7_ALL_FEATURES
100
AcDbLine
 62
7
  6
CONTINUOUS
 10
343.6635150167
 20
1103.2281979978
 11
343.6635150167
 21
1106.9281979978
  0
LINE
  5
36E
100
AcDbEntity
  8
7_ALL_FEATURES
100
AcDbLine
 62
7
  6
CONTINUOUS
 10
343.6635150167
 20
1106.9379866945
 11
343.6635150167
 21
1109.8281979978
  0
LINE
  5
36F
100
AcDbEntity
  8
7_ALL_FEATURES
100
AcDbLine
 62
7
  6
CONTINUOUS
 10
343.6635150167
 20
1109.8462902115
 11
343.6635150167
 21
1141.7781979978
  0
LINE
  5
370
100
AcDbEntity
  8
6_ALL_SURFS
100
AcDbLine
 62
7
  6
CONTINUOUS
 10
343.6635150167
 20
1141.7781979978
 11
343.6635150167
 21
1170.910105784
  0
LINE
  5
371
100
AcDbEntity
  8
6_ALL_SURFS
100
AcDbLine
 62
7
  6
CONTINUOUS
 10
343.6635150167
 20
1170.9281979978
 11
343.6635150167
 21
1173.818409301
  0
LINE
  5
372
100
AcDbEntity
  8
6_ALL_SURFS
100
AcDbLine
 62
7
  6
CONTINUOUS
 10
343.6635150167
 20
1173.8281979978
 11
343.6635150167
 21
1195.3281573018
  0
LINE
  5
373
100
AcDbEntity
  8
7_ALL_FEATURES
100
AcDbLine
 62
7
  6
CONTINUOUS
 10
344.9135150167
 20
1107.0781979978
 11
344.9135150167
 21
1173.6781979978
  0
LINE
  5
374
100
AcDbEntity
  8
7_ALL_FEATURES
100
AcDbLine
 62
7
  6
CONTINUOUS
 10
343.6635150167
 20
1085.4281979978
 11
3150.6635150167
 21
1085.4281979978
  0
LINE
  5
375
100
AcDbEntity
  8
7_ALL_FEATURES
100
AcDbLine
 62
9
  6
CONTINUOUS
 10
343.6635150167
 20
1085.7827264074
 11
3150.6635150167
 21
1085.7827264074
  0
LINE
  5
376
100
AcDbEntity
  8
7_ALL_FEATURES
100
AcDbLine
 62
7
  6
CONTINUOUS
 10
343.6635150167
 20
1087.9281979978
 11
493.880107223
 21
1087.9281979978
  0
LINE
  5
377
100
AcDbEntity
  8
7_ALL_FEATURES
100
AcDbLine
 62
7
  6
CONTINUOUS
 10
500.4469228104
 20
1087.9281979978
 11
743.880107223
 21
1087.9281979978
  0
LINE
  5
378
100
AcDbEntity
  8
7_ALL_FEATURES
100
AcDbLine
 62
7
  6
CONTINUOUS
 10
750.4469228104
 20
1087.9281979978
 11
993.880107223
 21
1087.9281979978
  0
LINE
  5
379
100
AcDbEntity
  8
7_ALL_FEATURES
100
AcDbLine
 62
7
  6
CONTINUOUS
 10
1000.4469228104
 20
1087.9281979978
 11
1243.880107223
 21
1087.9281979978
  0
LINE
  5
37A
100
AcDbEntity
  8
7_ALL_FEATURES
100
AcDbLine
 62
7
  6
CONTINUOUS
 10
1250.4469228104
 20
1087.9281979978
 11
1493.880107223
 21
1087.9281979978
  0
LINE
  5
37B
100
AcDbEntity
  8
7_ALL_FEATURES
100
AcDbLine
 62
7
  6
CONTINUOUS
 10
1500.4469228104
 20
1087.9281979978
 11
1743.880107223
 21
1087.9281979978
  0
LINE
  5
37C
100
AcDbEntity
  8
7_ALL_FEATURES
100
AcDbLine
 62
7
  6
CONTINUOUS
 10
1750.4469228104
 20
1087.9281979978
 11
1993.880107223
 21
1087.9281979978
  0
LINE
  5
37D
100
AcDbEntity
  8
7_ALL_FEATURES
100
AcDbLine
 62
7
  6
CONTINUOUS
 10
2000.4469228104
 20
1087.9281979978
 11
2243.880107223
 21
1087.9281979978
  0
LINE
  5
37E
100
AcDbEntity
  8
7_ALL_FEATURES
100
AcDbLine
 62
7
  6
CONTINUOUS
 10
2250.4469228104
 20
1087.9281979978
 11
2493.880107223
 21
1087.9281979978
  0
LINE
  5
37F
100
AcDbEntity
  8
7_ALL_FEATURES
100
AcDbLine
 62
7
  6
CONTINUOUS
 10
2500.4469228104
 20
1087.9281979978
 11
2743.880107223
 21
1087.9281979978
  0
LINE
  5
380
100
AcDbEntity
  8
7_ALL_FEATURES
100
AcDbLine
 62
7
  6
CONTINUOUS
 10
2750.4469228104
 20
1087.9281979978
 11
2993.880107223
 21
1087.9281979978
  0
LINE
  5
381
100
AcDbEntity
  8
7_ALL_FEATURES
100
AcDbLine
 62
7
  6
CONTINUOUS
 10
3000.4469228104
 20
1087.9281979978
 11
3150.6635150167
 21
1087.9281979978
  0
LINE
  5
382
100
AcDbEntity
  8
7_ALL_FEATURES
100
AcDbLine
 62
7
  6
CONTINUOUS
 10
343.6635150167
 20
1090.6281979978
 11
492.4316267319
 21
1090.6281979978
  0
LINE
  5
383
100
AcDbEntity
  8
7_ALL_FEATURES
100
AcDbLine
 62
7
  6
CONTINUOUS
 10
501.8954033015
 20
1090.6281979978
 11
742.4316267319
 21
1090.6281979978
  0
LINE
  5
384
100
AcDbEntity
  8
7_ALL_FEATURES
100
AcDbLine
 62
7
  6
CONTINUOUS
 10
751.8954033015
 20
1090.6281979978
 11
992.4316267319
 21
1090.6281979978
  0
LINE
  5
385
100
AcDbEntity
  8
7_ALL_FEATURES
100
AcDbLine
 62
7
  6
CONTINUOUS
 10
1001.8954033015
 20
1090.6281979978
 11
1242.4316267319
 21
1090.6281979978
  0
LINE
  5
386
100
AcDbEntity
  8
7_ALL_FEATURES
100
AcDbLine
 62
7
  6
CONTINUOUS
 10
1251.8954033015
 20
1090.6281979978
 11
1492.4316267319
 21
1090.6281979978
  0
LINE
  5
387
100
AcDbEntity
  8
7_ALL_FEATURES
100
AcDbLine
 62
7
  6
CONTINUOUS
 10
1501.8954033015
 20
1090.6281979978
 11
1742.4316267319
 21
1090.6281979978
  0
LINE
  5
388
100
AcDbEntity
  8
7_ALL_FEATURES
100
AcDbLine
 62
7
  6
CONTINUOUS
 10
1751.8954033015
 20
1090.6281979978
 11
1992.4316267319
 21
1090.6281979978
  0
LINE
  5
389
100
AcDbEntity
  8
7_ALL_FEATURES
100
AcDbLine
 62
7
  6
CONTINUOUS
 10
2001.8954033015
 20
1090.6281979978
 11
2242.4316267319
 21
1090.6281979978
  0
LINE
  5
38A
100
AcDbEntity
  8
7_ALL_FEATURES
100
AcDbLine
 62
7
  6
CONTINUOUS
 10
2251.8954033015
 20
1090.6281979978
 11
2492.4316267319
 21
1090.6281979978
  0
LINE
  5
38B
100
AcDbEntity
  8
7_ALL_FEATURES
100
AcDbLine
 62
7
  6
CONTINUOUS
 10
2501.8954033015
 20
1090.6281979978
 11
2742.4316267319
 21
1090.6281979978
  0
LINE
  5
38C
100
AcDbEntity
  8
7_ALL_FEATURES
100
AcDbLine
 62
7
  6
CONTINUOUS
 10
2751.8954033015
 20
1090.6281979978
 11
2992.4316267319
 21
1090.6281979978
  0
LINE
  5
38D
100
AcDbEntity
  8
7_ALL_FEATURES
100
AcDbLine
 62
7
  6
CONTINUOUS
 10
3001.8954033015
 20
1090.6281979978
 11
3150.6635150167
 21
1090.6281979978
  0
LINE
  5
38E
100
AcDbEntity
  8
7_ALL_FEATURES
100
AcDbLine
 62
7
  6
CONTINUOUS
 10
343.6635150167
 20
1091.2281979978
 11
492.3686462239
 21
1091.2281979978
  0
LINE
  5
38F
100
AcDbEntity
  8
7_ALL_FEATURES
100
AcDbLine
 62
7
  6
CONTINUOUS
 10
501.9583838094
 20
1091.2281979978
 11
742.3686462239
 21
1091.2281979978
  0
LINE
  5
390
100
AcDbEntity
  8
7_ALL_FEATURES
100
AcDbLine
 62
7
  6
CONTINUOUS
 10
751.9583838094
 20
1091.2281979978
 11
992.3686462239
 21
1091.2281979978
  0
LINE
  5
391
100
AcDbEntity
  8
7_ALL_FEATURES
100
AcDbLine
 62
7
  6
CONTINUOUS
 10
1001.9583838094
 20
1091.2281979978
 11
1242.3686462239
 21
1091.2281979978
  0
LINE
  5
392
100
AcDbEntity
  8
7_ALL_FEATURES
100
AcDbLine
 62
7
  6
CONTINUOUS
 10
1251.9583838094
 20
1091.2281979978
 11
1492.3686462239
 21
1091.2281979978
  0
LINE
  5
393
100
AcDbEntity
  8
7_ALL_FEATURES
100
AcDbLine
 62
7
  6
CONTINUOUS
 10
1501.9583838094
 20
1091.2281979978
 11
1742.3686462239
 21
1091.2281979978
  0
LINE
  5
394
100
AcDbEntity
  8
7_ALL_FEATURES
100
AcDbLine
 62
7
  6
CONTINUOUS
 10
1751.9583838094
 20
1091.2281979978
 11
1992.3686462239
 21
1091.2281979978
  0
LINE
  5
395
100
AcDbEntity
  8
7_ALL_FEATURES
100
AcDbLine
 62
7
  6
CONTINUOUS
 10
2001.9583838094
 20
1091.2281979978
 11
2242.3686462239
 21
1091.2281979978
  0
LINE
  5
396
100
AcDbEntity
  8
7_ALL_FEATURES
100
AcDbLine
 62
7
  6
CONTINUOUS
 10
2251.9583838094
 20
1091.2281979978
 11
2492.3686462239
 21
1091.2281979978
  0
LINE
  5
397
100
AcDbEntity
  8
7_ALL_FEATURES
100
AcDbLine
 62
7
  6
CONTINUOUS
 10
2501.9583838094
 20
1091.2281979978
 11
2742.3686462239
 21
1091.2281979978
  0
LINE
  5
398
100
AcDbEntity
  8
7_ALL_FEATURES
100
AcDbLine
 62
7
  6
CONTINUOUS
 10
2751.9583838094
 20
1091.2281979978
 11
2992.3686462239
 21
1091.2281979978
  0
LINE
  5
399
100
AcDbEntity
  8
7_ALL_FEATURES
100
AcDbLine
 62
7
  6
CONTINUOUS
 10
3001.9583838094
 20
1091.2281979978
 11
3150.6635150167
 21
1091.2281979978
  0
LINE
  5
39A
100
AcDbEntity
  8
7_ALL_FEATURES
100
AcDbLine
 62
7
  6
CONTINUOUS
 10
343.6635150167
 20
1093.6281979978
 11
492.8984515072
 21
1093.6281979978
  0
LINE
  5
39B
100
AcDbEntity
  8
7_ALL_FEATURES
100
AcDbLine
 62
7
  6
CONTINUOUS
 10
501.4285785261
 20
1093.6281979978
 11
742.8984515072
 21
1093.6281979978
  0
LINE
  5
39C
100
AcDbEntity
  8
7_ALL_FEATURES
100
AcDbLine
 62
7
  6
CONTINUOUS
 10
751.4285785261
 20
1093.6281979978
 11
992.8984515072
 21
1093.6281979978
  0
LINE
  5
39D
100
AcDbEntity
  8
7_ALL_FEATURES
100
AcDbLine
 62
7
  6
CONTINUOUS
 10
1001.4285785261
 20
1093.6281979978
 11
1242.8984515072
 21
1093.6281979978
  0
LINE
  5
39E
100
AcDbEntity
  8
7_ALL_FEATURES
100
AcDbLine
 62
7
  6
CONTINUOUS
 10
1251.4285785261
 20
1093.6281979978
 11
1492.8984515072
 21
1093.6281979978
  0
LINE
  5
39F
100
AcDbEntity
  8
7_ALL_FEATURES
100
AcDbLine
 62
7
  6
CONTINUOUS
 10
1501.4285785261
 20
1093.6281979978
 11
1742.8984515072
 21
1093.6281979978
  0
LINE
  5
3A0
100
AcDbEntity
  8
7_ALL_FEATURES
100
AcDbLine
 62
7
  6
CONTINUOUS
 10
1751.4285785261
 20
1093.6281979978
 11
1992.8984515072
 21
1093.6281979978
  0
LINE
  5
3A1
100
AcDbEntity
  8
7_ALL_FEATURES
100
AcDbLine
 62
7
  6
CONTINUOUS
 10
2001.4285785261
 20
1093.6281979978
 11
2242.8984515072
 21
1093.6281979978
  0
LINE
  5
3A2
100
AcDbEntity
  8
7_ALL_FEATURES
100
AcDbLine
 62
7
  6
CONTINUOUS
 10
2251.4285785261
 20
1093.6281979978
 11
2492.8984515072
 21
1093.6281979978
  0
LINE
  5
3A3
100
AcDbEntity
  8
7_ALL_FEATURES
100
AcDbLine
 62
7
  6
CONTINUOUS
 10
2501.4285785261
 20
1093.6281979978
 11
2742.8984515072
 21
1093.6281979978
  0
LINE
  5
3A4
100
AcDbEntity
  8
7_ALL_FEATURES
100
AcDbLine
 62
7
  6
CONTINUOUS
 10
2751.4285785261
 20
1093.6281979978
 11
2992.8984515072
 21
1093.6281979978
  0
LINE
  5
3A5
100
AcDbEntity
  8
7_ALL_FEATURES
100
AcDbLine
 62
7
  6
CONTINUOUS
 10
3001.4285785261
 20
1093.6281979978
 11
3150.6635150167
 21
1093.6281979978
  0
LINE
  5
3A6
100
AcDbEntity
  8
7_ALL_FEATURES
100
AcDbLine
 62
7
  6
CONTINUOUS
 10
343.6635150167
 20
1094.2281979978
 11
493.2659815993
 21
1094.2281979978
  0
LINE
  5
3A7
100
AcDbEntity
  8
7_ALL_FEATURES
100
AcDbLine
 62
7
  6
CONTINUOUS
 10
501.0610484341
 20
1094.2281979978
 11
743.2659815993
 21
1094.2281979978
  0
LINE
  5
3A8
100
AcDbEntity
  8
7_ALL_FEATURES
100
AcDbLine
 62
7
  6
CONTINUOUS
 10
751.0610484341
 20
1094.2281979978
 11
993.2659815993
 21
1094.2281979978
  0
LINE
  5
3A9
100
AcDbEntity
  8
7_ALL_FEATURES
100
AcDbLine
 62
7
  6
CONTINUOUS
 10
1001.0610484341
 20
1094.2281979978
 11
1243.2659815993
 21
1094.2281979978
  0
LINE
  5
3AA
100
AcDbEntity
  8
7_ALL_FEATURES
100
AcDbLine
 62
7
  6
CONTINUOUS
 10
1251.0610484341
 20
1094.2281979978
 11
1493.2659815993
 21
1094.2281979978
  0
LINE
  5
3AB
100
AcDbEntity
  8
7_ALL_FEATURES
100
AcDbLine
 62
7
  6
CONTINUOUS
 10
1501.0610484341
 20
1094.2281979978
 11
1743.2659815993
 21
1094.2281979978
  0
LINE
  5
3AC
100
AcDbEntity
  8
7_ALL_FEATURES
100
AcDbLine
 62
7
  6
CONTINUOUS
 10
1751.0610484341
 20
1094.2281979978
 11
1993.2659815993
 21
1094.2281979978
  0
LINE
  5
3AD
100
AcDbEntity
  8
7_ALL_FEATURES
100
AcDbLine
 62
7
  6
CONTINUOUS
 10
2001.0610484341
 20
1094.2281979978
 11
2243.2659815993
 21
1094.2281979978
  0
LINE
  5
3AE
100
AcDbEntity
  8
7_ALL_FEATURES
100
AcDbLine
 62
7
  6
CONTINUOUS
 10
2251.0610484341
 20
1094.2281979978
 11
2493.2659815993
 21
1094.2281979978
  0
LINE
  5
3AF
100
AcDbEntity
  8
7_ALL_FEATURES
100
AcDbLine
 62
7
  6
CONTINUOUS
 10
2501.0610484341
 20
1094.2281979978
 11
2743.2659815993
 21
1094.2281979978
  0
LINE
  5
3B0
100
AcDbEntity
  8
7_ALL_FEATURES
100
AcDbLine
 62
7
  6
CONTINUOUS
 10
2751.0610484341
 20
1094.2281979978
 11
2993.2659815993
 21
1094.2281979978
  0
LINE
  5
3B1
100
AcDbEntity
  8
7_ALL_FEATURES
100
AcDbLine
 62
7
  6
CONTINUOUS
 10
3001.0610484341
 20
1094.2281979978
 11
3150.6635150167
 21
1094.2281979978
  0
LINE
  5
3B2
100
AcDbEntity
  8
3_ALL_AXES
100
AcDbLine
 62
7
  6
CONTINUOUS
 10
343.6635150167
 20
1096.6281979978
 11
3150.6635150167
 21
1096.6281979978
  0
LINE
  5
3B3
100
AcDbEntity
  8
3_ALL_AXES
100
AcDbLine
 62
7
  6
CONTINUOUS
 10
343.6635150167
 20
1097.2281979978
 11
3150.6635150167
 21
1097.2281979978
  0
LINE
  5
3B4
100
AcDbEntity
  8
3_ALL_AXES
100
AcDbLine
 62
7
  6
CONTINUOUS
 10
343.6635150167
 20
1099.6281979978
 11
3150.6635150167
 21
1099.6281979978
  0
LINE
  5
3B5
100
AcDbEntity
  8
3_ALL_AXES
100
AcDbLine
 62
7
  6
CONTINUOUS
 10
343.6635150167
 20
1100.2281979978
 11
3150.6635150167
 21
1100.2281979978
  0
LINE
  5
3B6
100
AcDbEntity
  8
3_ALL_AXES
100
AcDbLine
 62
7
  6
CONTINUOUS
 10
343.6635150167
 20
1102.6281979978
 11
3150.6635150167
 21
1102.6281979978
  0
LINE
  5
3B7
100
AcDbEntity
  8
3_ALL_AXES
100
AcDbLine
 62
7
  6
CONTINUOUS
 10
343.6635150167
 20
1103.2281979978
 11
3150.6635150167
 21
1103.2281979978
  0
LINE
  5
3B8
100
AcDbEntity
  8
7_ALL_FEATURES
100
AcDbLine
 62
9
  6
CONTINUOUS
 10
343.6635150167
 20
1105.5281979978
 11
3150.6635150167
 21
1105.5281979978
  0
LINE
  5
3B9
100
AcDbEntity
  8
7_ALL_FEATURES
100
AcDbLine
 62
7
  6
CONTINUOUS
 10
3150.6635150167
 20
1105.7281979978
 11
343.6635150167
 21
1105.7281979978
  0
LINE
  5
3BA
100
AcDbEntity
  8
7_ALL_FEATURES
100
AcDbLine
 62
9
  6
CONTINUOUS
 10
3150.6635150167
 20
1105.9281979978
 11
343.6635150167
 21
1105.9281979978
  0
LINE
  5
3BB
100
AcDbEntity
  8
7_ALL_FEATURES
100
AcDbLine
 62
9
  6
CONTINUOUS
 10
3150.6635150167
 20
1106.7281979978
 11
343.6635150167
 21
1106.7281979978
  0
LINE
  5
3BC
100
AcDbEntity
  8
7_ALL_FEATURES
100
AcDbLine
 62
7
  6
CONTINUOUS
 10
3150.6635150167
 20
1106.9281979978
 11
343.6635150167
 21
1106.9281979978
  0
LINE
  5
3BD
100
AcDbEntity
  8
7_ALL_FEATURES
100
AcDbLine
 62
7
  6
CONTINUOUS
 10
3149.4135150167
 20
1107.0781979978
 11
344.9135150167
 21
1107.0781979978
  0
LINE
  5
3BE
100
AcDbEntity
  8
7_ALL_FEATURES
100
AcDbLine
 62
9
  6
CONTINUOUS
 10
343.6635150167
 20
1107.1281979978
 11
344.9135150167
 21
1107.1281979978
  0
LINE
  5
3BF
100
AcDbEntity
  8
7_ALL_FEATURES
100
AcDbLine
 62
9
  6
CONTINUOUS
 10
3149.4135150167
 20
1107.1281979978
 11
3150.6635150167
 21
1107.1281979978
  0
LINE
  5
3C0
100
AcDbEntity
  8
7_ALL_FEATURES
100
AcDbLine
 62
9
  6
CONTINUOUS
 10
3149.4135150167
 20
1107.2781979978
 11
344.9135150167
 21
1107.2781979978
  0
LINE
  5
3C1
100
AcDbEntity
  8
7_ALL_FEATURES
100
AcDbLine
 62
9
  6
CONTINUOUS
 10
3150.6635150167
 20
1107.9781979978
 11
3149.4135150167
 21
1107.9781979978
  0
LINE
  5
3C2
100
AcDbEntity
  8
7_ALL_FEATURES
100
AcDbLine
 62
9
  6
CONTINUOUS
 10
344.9135150167
 20
1107.9781979978
 11
343.6635150167
 21
1107.9781979978
  0
LINE
  5
3C3
100
AcDbEntity
  8
7_ALL_FEATURES
100
AcDbLine
 62
7
  6
CONTINUOUS
 10
3150.6635150167
 20
1108.1781979978
 11
3149.4135150167
 21
1108.1781979978
  0
LINE
  5
3C4
100
AcDbEntity
  8
7_ALL_FEATURES
100
AcDbLine
 62
7
  6
CONTINUOUS
 10
344.9135150167
 20
1108.1781979978
 11
343.6635150167
 21
1108.1781979978
  0
LINE
  5
3C5
100
AcDbEntity
  8
7_ALL_FEATURES
100
AcDbLine
 62
9
  6
CONTINUOUS
 10
343.6635150167
 20
1108.238008229
 11
344.9135150167
 21
1108.238008229
  0
LINE
  5
3C6
100
AcDbEntity
  8
7_ALL_FEATURES
100
AcDbLine
 62
9
  6
CONTINUOUS
 10
3149.4135150167
 20
1108.238008229
 11
3150.6635150167
 21
1108.238008229
  0
LINE
  5
3C7
100
AcDbEntity
  8
7_ALL_FEATURES
100
AcDbLine
 62
9
  6
CONTINUOUS
 10
343.6635150167
 20
1108.4574143395
 11
344.9135150167
 21
1108.4574143395
  0
LINE
  5
3C8
100
AcDbEntity
  8
7_ALL_FEATURES
100
AcDbLine
 62
9
  6
CONTINUOUS
 10
3149.4135150167
 20
1108.4574143395
 11
3150.6635150167
 21
1108.4574143395
  0
LINE
  5
3C9
100
AcDbEntity
  8
7_ALL_FEATURES
100
AcDbLine
 62
9
  6
CONTINUOUS
 10
3150.6635150167
 20
1109.5281979978
 11
3149.4135150167
 21
1109.5281979978
  0
LINE
  5
3CA
100
AcDbEntity
  8
7_ALL_FEATURES
100
AcDbLine
 62
9
  6
CONTINUOUS
 10
344.9135150167
 20
1109.5281979978
 11
343.6635150167
 21
1109.5281979978
  0
LINE
  5
3CB
100
AcDbEntity
  8
7_ALL_FEATURES
100
AcDbLine
 62
7
  6
CONTINUOUS
 10
3150.6635150167
 20
1109.8281979978
 11
3149.4135150167
 21
1109.8281979978
  0
LINE
  5
3CC
100
AcDbEntity
  8
7_ALL_FEATURES
100
AcDbLine
 62
7
  6
CONTINUOUS
 10
344.9135150167
 20
1109.8281979978
 11
343.6635150167
 21
1109.8281979978
  0
LINE
  5
3CD
100
AcDbEntity
  8
7_ALL_FEATURES
100
AcDbLine
 62
9
  6
CONTINUOUS
 10
3150.6635150167
 20
1110.4755919548
 11
3149.4135150167
 21
1110.4755919548
  0
LINE
  5
3CE
100
AcDbEntity
  8
7_ALL_FEATURES
100
AcDbLine
 62
9
  6
CONTINUOUS
 10
344.9135150167
 20
1110.4755919548
 11
343.6635150167
 21
1110.4755919548
  0
LINE
  5
3CF
100
AcDbEntity
  8
7_ALL_FEATURES
100
AcDbLine
 62
7
  6
CONTINUOUS
 10
3150.6635150167
 20
1110.4936841685
 11
3149.4135150167
 21
1110.4936841685
  0
LINE
  5
3D0
100
AcDbEntity
  8
7_ALL_FEATURES
100
AcDbLine
 62
7
  6
CONTINUOUS
 10
344.9135150167
 20
1110.4936841685
 11
343.6635150167
 21
1110.4936841685
  0
LINE
  5
3D1
100
AcDbEntity
  8
7_ALL_FEATURES
100
AcDbLine
 62
9
  6
CONTINUOUS
 10
343.6635150167
 20
1113.299552599
 11
344.9135150167
 21
1113.299552599
  0
LINE
  5
3D2
100
AcDbEntity
  8
7_ALL_FEATURES
100
AcDbLine
 62
9
  6
CONTINUOUS
 10
3149.4135150167
 20
1113.299552599
 11
3150.6635150167
 21
1113.299552599
  0
LINE
  5
3D3
100
AcDbEntity
  8
7_ALL_FEATURES
100
AcDbLine
 62
9
  6
CONTINUOUS
 10
343.6635150167
 20
1113.7903661907
 11
344.9135150167
 21
1113.7903661907
  0
LINE
  5
3D4
100
AcDbEntity
  8
7_ALL_FEATURES
100
AcDbLine
 62
9
  6
CONTINUOUS
 10
3149.4135150167
 20
1113.7903661907
 11
3150.6635150167
 21
1113.7903661907
  0
LINE
  5
3D5
100
AcDbEntity
  8
7_ALL_FEATURES
100
AcDbLine
 62
9
  6
CONTINUOUS
 10
3150.6635150167
 20
1138.3781979978
 11
3149.4135150167
 21
1138.3781979978
  0
LINE
  5
3D6
100
AcDbEntity
  8
7_ALL_FEATURES
100
AcDbLine
 62
9
  6
CONTINUOUS
 10
344.9135150167
 20
1138.3781979978
 11
343.6635150167
 21
1138.3781979978
  0
LINE
  5
3D7
100
AcDbEntity
  8
7_ALL_FEATURES
100
AcDbLine
 62
7
  6
CONTINUOUS
 10
3150.6635150167
 20
1138.6781979978
 11
3149.4135150167
 21
1138.6781979978
  0
LINE
  5
3D8
100
AcDbEntity
  8
7_ALL_FEATURES
100
AcDbLine
 62
7
  6
CONTINUOUS
 10
344.9135150167
 20
1138.6781979978
 11
343.6635150167
 21
1138.6781979978
  0
LINE
  5
3D9
100
AcDbEntity
  8
7_ALL_FEATURES
100
AcDbLine
 62
9
  6
CONTINUOUS
 10
343.6635150167
 20
1138.9781979978
 11
344.9135150167
 21
1138.9781979978
  0
LINE
  5
3DA
100
AcDbEntity
  8
7_ALL_FEATURES
100
AcDbLine
 62
9
  6
CONTINUOUS
 10
3149.4135150167
 20
1138.9781979978
 11
3150.6635150167
 21
1138.9781979978
  0
LINE
  5
3DB
100
AcDbEntity
  8
6_ALL_SURFS
100
AcDbLine
 62
9
  6
CONTINUOUS
 10
343.6635150167
 20
1141.7781979978
 11
344.9135150167
 21
1141.7781979978
  0
LINE
  5
3DC
100
AcDbEntity
  8
6_ALL_SURFS
100
AcDbLine
 62
9
  6
CONTINUOUS
 10
3149.4135150167
 20
1141.7781979978
 11
3150.6635150167
 21
1141.7781979978
  0
LINE
  5
3DD
100
AcDbEntity
  8
6_ALL_SURFS
100
AcDbLine
 62
7
  6
CONTINUOUS
 10
3150.6635150167
 20
1142.0781979978
 11
3149.4135150167
 21
1142.0781979978
  0
LINE
  5
3DE
100
AcDbEntity
  8
6_ALL_SURFS
100
AcDbLine
 62
7
  6
CONTINUOUS
 10
344.9135150167
 20
1142.0781979978
 11
343.6635150167
 21
1142.0781979978
  0
LINE
  5
3DF
100
AcDbEntity
  8
6_ALL_SURFS
100
AcDbLine
 62
9
  6
CONTINUOUS
 10
3150.6635150167
 20
1142.3781979978
 11
3149.4135150167
 21
1142.3781979978
  0
LINE
  5
3E0
100
AcDbEntity
  8
6_ALL_SURFS
100
AcDbLine
 62
9
  6
CONTINUOUS
 10
344.9135150167
 20
1142.3781979978
 11
343.6635150167
 21
1142.3781979978
  0
LINE
  5
3E1
100
AcDbEntity
  8
6_ALL_SURFS
100
AcDbLine
 62
9
  6
CONTINUOUS
 10
343.6635150167
 20
1166.9660298049
 11
344.9135150167
 21
1166.9660298049
  0
LINE
  5
3E2
100
AcDbEntity
  8
6_ALL_SURFS
100
AcDbLine
 62
9
  6
CONTINUOUS
 10
3149.4135150167
 20
1166.9660298049
 11
3150.6635150167
 21
1166.9660298049
  0
LINE
  5
3E3
100
AcDbEntity
  8
6_ALL_SURFS
100
AcDbLine
 62
9
  6
CONTINUOUS
 10
343.6635150167
 20
1167.4568433966
 11
344.9135150167
 21
1167.4568433966
  0
LINE
  5
3E4
100
AcDbEntity
  8
6_ALL_SURFS
100
AcDbLine
 62
9
  6
CONTINUOUS
 10
3149.4135150167
 20
1167.4568433966
 11
3150.6635150167
 21
1167.4568433966
  0
LINE
  5
3E5
100
AcDbEntity
  8
6_ALL_SURFS
100
AcDbLine
 62
7
  6
CONTINUOUS
 10
343.6635150167
 20
1170.262711827
 11
344.9135150167
 21
1170.262711827
  0
LINE
  5
3E6
100
AcDbEntity
  8
6_ALL_SURFS
100
AcDbLine
 62
7
  6
CONTINUOUS
 10
3149.4135150167
 20
1170.262711827
 11
3150.6635150167
 21
1170.262711827
  0
LINE
  5
3E7
100
AcDbEntity
  8
6_ALL_SURFS
100
AcDbLine
 62
9
  6
CONTINUOUS
 10
3150.6635150167
 20
1170.2808040408
 11
3149.4135150167
 21
1170.2808040408
  0
LINE
  5
3E8
100
AcDbEntity
  8
6_ALL_SURFS
100
AcDbLine
 62
9
  6
CONTINUOUS
 10
344.9135150167
 20
1170.2808040408
 11
343.6635150167
 21
1170.2808040408
  0
LINE
  5
3E9
100
AcDbEntity
  8
6_ALL_SURFS
100
AcDbLine
 62
7
  6
CONTINUOUS
 10
3150.6635150167
 20
1170.9281979978
 11
3149.4135150167
 21
1170.9281979978
  0
LINE
  5
3EA
100
AcDbEntity
  8
6_ALL_SURFS
100
AcDbLine
 62
7
  6
CONTINUOUS
 10
344.9135150167
 20
1170.9281979978
 11
343.6635150167
 21
1170.9281979978
  0
LINE
  5
3EB
100
AcDbEntity
  8
6_ALL_SURFS
100
AcDbLine
 62
9
  6
CONTINUOUS
 10
3150.6635150167
 20
1171.2281979978
 11
3149.4135150167
 21
1171.2281979978
  0
LINE
  5
3EC
100
AcDbEntity
  8
6_ALL_SURFS
100
AcDbLine
 62
9
  6
CONTINUOUS
 10
344.9135150167
 20
1171.2281979978
 11
343.6635150167
 21
1171.2281979978
  0
LINE
  5
3ED
100
AcDbEntity
  8
6_ALL_SURFS
100
AcDbLine
 62
9
  6
CONTINUOUS
 10
343.6635150167
 20
1172.2989816561
 11
344.9135150167
 21
1172.2989816561
  0
LINE
  5
3EE
100
AcDbEntity
  8
6_ALL_SURFS
100
AcDbLine
 62
9
  6
CONTINUOUS
 10
3149.4135150167
 20
1172.2989816561
 11
3150.6635150167
 21
1172.2989816561
  0
LINE
  5
3EF
100
AcDbEntity
  8
6_ALL_SURFS
100
AcDbLine
 62
9
  6
CONTINUOUS
 10
343.6635150167
 20
1172.5183877666
 11
344.9135150167
 21
1172.5183877666
  0
LINE
  5
3F0
100
AcDbEntity
  8
6_ALL_SURFS
100
AcDbLine
 62
9
  6
CONTINUOUS
 10
3149.4135150167
 20
1172.5183877666
 11
3150.6635150167
 21
1172.5183877666
  0
LINE
  5
3F1
100
AcDbEntity
  8
6_ALL_SURFS
100
AcDbLine
 62
7
  6
CONTINUOUS
 10
3150.6635150167
 20
1172.5781979978
 11
3149.4135150167
 21
1172.5781979978
  0
LINE
  5
3F2
100
AcDbEntity
  8
6_ALL_SURFS
100
AcDbLine
 62
7
  6
CONTINUOUS
 10
344.9135150167
 20
1172.5781979978
 11
343.6635150167
 21
1172.5781979978
  0
LINE
  5
3F3
100
AcDbEntity
  8
6_ALL_SURFS
100
AcDbLine
 62
9
  6
CONTINUOUS
 10
3150.6635150167
 20
1172.7781979978
 11
3149.4135150167
 21
1172.7781979978
  0
LINE
  5
3F4
100
AcDbEntity
  8
6_ALL_SURFS
100
AcDbLine
 62
9
  6
CONTINUOUS
 10
344.9135150167
 20
1172.7781979978
 11
343.6635150167
 21
1172.7781979978
  0
LINE
  5
3F5
100
AcDbEntity
  8
7_ALL_FEATURES
100
AcDbLine
 62
9
  6
CONTINUOUS
 10
3149.4135150167
 20
1173.4781979978
 11
344.9135150167
 21
1173.4781979978
  0
LINE
  5
3F6
100
AcDbEntity
  8
6_ALL_SURFS
100
AcDbLine
 62
9
  6
CONTINUOUS
 10
343.6635150167
 20
1173.6281979978
 11
344.9135150167
 21
1173.6281979978
  0
LINE
  5
3F7
100
AcDbEntity
  8
6_ALL_SURFS
100
AcDbLine
 62
9
  6
CONTINUOUS
 10
3149.4135150167
 20
1173.6281979978
 11
3150.6635150167
 21
1173.6281979978
  0
LINE
  5
3F8
100
AcDbEntity
  8
7_ALL_FEATURES
100
AcDbLine
 62
7
  6
CONTINUOUS
 10
3149.4135150167
 20
1173.6781979978
 11
344.9135150167
 21
1173.6781979978
  0
LINE
  5
3F9
100
AcDbEntity
  8
6_ALL_SURFS
100
AcDbLine
 62
7
  6
CONTINUOUS
 10
3150.6635150167
 20
1173.8281979978
 11
343.6635150167
 21
1173.8281979978
  0
LINE
  5
3FA
100
AcDbEntity
  8
6_ALL_SURFS
100
AcDbLine
 62
9
  6
CONTINUOUS
 10
3150.6635150167
 20
1174.0281979978
 11
343.6635150167
 21
1174.0281979978
  0
LINE
  5
3FB
100
AcDbEntity
  8
6_ALL_SURFS
100
AcDbLine
 62
9
  6
CONTINUOUS
 10
3150.6635150167
 20
1174.8281979978
 11
343.6635150167
 21
1174.8281979978
  0
LINE
  5
3FC
100
AcDbEntity
  8
6_ALL_SURFS
100
AcDbLine
 62
7
  6
CONTINUOUS
 10
3150.6635150167
 20
1175.0281979978
 11
343.6635150167
 21
1175.0281979978
  0
LINE
  5
3FD
100
AcDbEntity
  8
6_ALL_SURFS
100
AcDbLine
 62
9
  6
CONTINUOUS
 10
343.6635150167
 20
1175.2281979978
 11
3150.6635150167
 21
1175.2281979978
  0
LINE
  5
3FE
100
AcDbEntity
  8
6_ALL_SURFS
100
AcDbLine
 62
7
  6
CONTINUOUS
 10
343.6635150167
 20
1177.5281979978
 11
3150.6635150167
 21
1177.5281979978
  0
LINE
  5
3FF
100
AcDbEntity
  8
6_ALL_SURFS
100
AcDbLine
 62
7
  6
CONTINUOUS
 10
343.6635150167
 20
1178.1281979978
 11
3150.6635150167
 21
1178.1281979978
  0
LINE
  5
400
100
AcDbEntity
  8
6_ALL_SURFS
100
AcDbLine
 62
7
  6
CONTINUOUS
 10
343.6635150167
 20
1180.5281979978
 11
3150.6635150167
 21
1180.5281979978
  0
LINE
  5
401
100
AcDbEntity
  8
6_ALL_SURFS
100
AcDbLine
 62
7
  6
CONTINUOUS
 10
343.6635150167
 20
1181.1281979978
 11
3150.6635150167
 21
1181.1281979978
  0
LINE
  5
402
100
AcDbEntity
  8
6_ALL_SURFS
100
AcDbLine
 62
7
  6
CONTINUOUS
 10
343.6635150167
 20
1183.5281979978
 11
3150.6635150167
 21
1183.5281979978
  0
LINE
  5
403
100
AcDbEntity
  8
6_ALL_SURFS
100
AcDbLine
 62
7
  6
CONTINUOUS
 10
343.6635150167
 20
1184.1281979978
 11
3150.6635150167
 21
1184.1281979978
  0
LINE
  5
404
100
AcDbEntity
  8
6_ALL_SURFS
100
AcDbLine
 62
7
  6
CONTINUOUS
 10
343.6635150167
 20
1186.5281979978
 11
493.2659815993
 21
1186.5281979978
  0
LINE
  5
405
100
AcDbEntity
  8
6_ALL_SURFS
100
AcDbLine
 62
7
  6
CONTINUOUS
 10
501.0610484341
 20
1186.5281979978
 11
743.2659815993
 21
1186.5281979978
  0
LINE
  5
406
100
AcDbEntity
  8
6_ALL_SURFS
100
AcDbLine
 62
7
  6
CONTINUOUS
 10
751.0610484341
 20
1186.5281979978
 11
993.2659815993
 21
1186.5281979978
  0
LINE
  5
407
100
AcDbEntity
  8
6_ALL_SURFS
100
AcDbLine
 62
7
  6
CONTINUOUS
 10
1001.0610484341
 20
1186.5281979978
 11
1243.2659815993
 21
1186.5281979978
  0
LINE
  5
408
100
AcDbEntity
  8
6_ALL_SURFS
100
AcDbLine
 62
7
  6
CONTINUOUS
 10
1251.0610484341
 20
1186.5281979978
 11
1493.2659815993
 21
1186.5281979978
  0
LINE
  5
409
100
AcDbEntity
  8
6_ALL_SURFS
100
AcDbLine
 62
7
  6
CONTINUOUS
 10
1501.0610484341
 20
1186.5281979978
 11
1743.2659815993
 21
1186.5281979978
  0
LINE
  5
40A
100
AcDbEntity
  8
6_ALL_SURFS
100
AcDbLine
 62
7
  6
CONTINUOUS
 10
1751.0610484341
 20
1186.5281979978
 11
1993.2659815993
 21
1186.5281979978
  0
LINE
  5
40B
100
AcDbEntity
  8
6_ALL_SURFS
100
AcDbLine
 62
7
  6
CONTINUOUS
 10
2001.0610484341
 20
1186.5281979978
 11
2243.2659815993
 21
1186.5281979978
  0
LINE
  5
40C
100
AcDbEntity
  8
6_ALL_SURFS
100
AcDbLine
 62
7
  6
CONTINUOUS
 10
2251.0610484341
 20
1186.5281979978
 11
2493.2659815993
 21
1186.5281979978
  0
LINE
  5
40D
100
AcDbEntity
  8
6_ALL_SURFS
100
AcDbLine
 62
7
  6
CONTINUOUS
 10
2501.0610484341
 20
1186.5281979978
 11
2743.2659815993
 21
1186.5281979978
  0
LINE
  5
40E
100
AcDbEntity
  8
6_ALL_SURFS
100
AcDbLine
 62
7
  6
CONTINUOUS
 10
2751.0610484341
 20
1186.5281979978
 11
2993.2659815993
 21
1186.5281979978
  0
LINE
  5
40F
100
AcDbEntity
  8
6_ALL_SURFS
100
AcDbLine
 62
7
  6
CONTINUOUS
 10
3001.0610484341
 20
1186.5281979978
 11
3150.6635150167
 21
1186.5281979978
  0
LINE
  5
410
100
AcDbEntity
  8
6_ALL_SURFS
100
AcDbLine
 62
7
  6
CONTINUOUS
 10
343.6635150167
 20
1187.1281979978
 11
492.8984515072
 21
1187.1281979978
  0
LINE
  5
411
100
AcDbEntity
  8
6_ALL_SURFS
100
AcDbLine
 62
7
  6
CONTINUOUS
 10
501.4285785261
 20
1187.1281979978
 11
742.8984515072
 21
1187.1281979978
  0
LINE
  5
412
100
AcDbEntity
  8
6_ALL_SURFS
100
AcDbLine
 62
7
  6
CONTINUOUS
 10
751.4285785261
 20
1187.1281979978
 11
992.8984515072
 21
1187.1281979978
  0
LINE
  5
413
100
AcDbEntity
  8
6_ALL_SURFS
100
AcDbLine
 62
7
  6
CONTINUOUS
 10
1001.4285785261
 20
1187.1281979978
 11
1242.8984515072
 21
1187.1281979978
  0
LINE
  5
414
100
AcDbEntity
  8
6_ALL_SURFS
100
AcDbLine
 62
7
  6
CONTINUOUS
 10
1251.4285785261
 20
1187.1281979978
 11
1492.8984515072
 21
1187.1281979978
  0
LINE
  5
415
100
AcDbEntity
  8
6_ALL_SURFS
100
AcDbLine
 62
7
  6
CONTINUOUS
 10
1501.4285785261
 20
1187.1281979978
 11
1742.8984515072
 21
1187.1281979978
  0
LINE
  5
416
100
AcDbEntity
  8
6_ALL_SURFS
100
AcDbLine
 62
7
  6
CONTINUOUS
 10
1751.4285785261
 20
1187.1281979978
 11
1992.8984515072
 21
1187.1281979978
  0
LINE
  5
417
100
AcDbEntity
  8
6_ALL_SURFS
100
AcDbLine
 62
7
  6
CONTINUOUS
 10
2001.4285785261
 20
1187.1281979978
 11
2242.8984515072
 21
1187.1281979978
  0
LINE
  5
418
100
AcDbEntity
  8
6_ALL_SURFS
100
AcDbLine
 62
7
  6
CONTINUOUS
 10
2251.4285785261
 20
1187.1281979978
 11
2492.8984515072
 21
1187.1281979978
  0
LINE
  5
419
100
AcDbEntity
  8
6_ALL_SURFS
100
AcDbLine
 62
7
  6
CONTINUOUS
 10
2501.4285785261
 20
1187.1281979978
 11
2742.8984515072
 21
1187.1281979978
  0
LINE
  5
41A
100
AcDbEntity
  8
6_ALL_SURFS
100
AcDbLine
 62
7
  6
CONTINUOUS
 10
2751.4285785261
 20
1187.1281979978
 11
2992.8984515072
 21
1187.1281979978
  0
LINE
  5
41B
100
AcDbEntity
  8
6_ALL_SURFS
100
AcDbLine
 62
7
  6
CONTINUOUS
 10
3001.4285785261
 20
1187.1281979978
 11
3150.6635150167
 21
1187.1281979978
  0
LINE
  5
41C
100
AcDbEntity
  8
6_ALL_SURFS
100
AcDbLine
 62
7
  6
CONTINUOUS
 10
343.6635150167
 20
1189.5281979978
 11
492.3686462239
 21
1189.5281979978
  0
LINE
  5
41D
100
AcDbEntity
  8
6_ALL_SURFS
100
AcDbLine
 62
7
  6
CONTINUOUS
 10
501.9583838094
 20
1189.5281979978
 11
742.3686462239
 21
1189.5281979978
  0
LINE
  5
41E
100
AcDbEntity
  8
6_ALL_SURFS
100
AcDbLine
 62
7
  6
CONTINUOUS
 10
751.9583838094
 20
1189.5281979978
 11
992.3686462239
 21
1189.5281979978
  0
LINE
  5
41F
100
AcDbEntity
  8
6_ALL_SURFS
100
AcDbLine
 62
7
  6
CONTINUOUS
 10
1001.9583838094
 20
1189.5281979978
 11
1242.3686462239
 21
1189.5281979978
  0
LINE
  5
420
100
AcDbEntity
  8
6_ALL_SURFS
100
AcDbLine
 62
7
  6
CONTINUOUS
 10
1251.9583838094
 20
1189.5281979978
 11
1492.3686462239
 21
1189.5281979978
  0
LINE
  5
421
100
AcDbEntity
  8
6_ALL_SURFS
100
AcDbLine
 62
7
  6
CONTINUOUS
 10
1501.9583838094
 20
1189.5281979978
 11
1742.3686462239
 21
1189.5281979978
  0
LINE
  5
422
100
AcDbEntity
  8
6_ALL_SURFS
100
AcDbLine
 62
7
  6
CONTINUOUS
 10
1751.9583838094
 20
1189.5281979978
 11
1992.3686462239
 21
1189.5281979978
  0
LINE
  5
423
100
AcDbEntity
  8
6_ALL_SURFS
100
AcDbLine
 62
7
  6
CONTINUOUS
 10
2001.9583838094
 20
1189.5281979978
 11
2242.3686462239
 21
1189.5281979978
  0
LINE
  5
424
100
AcDbEntity
  8
6_ALL_SURFS
100
AcDbLine
 62
7
  6
CONTINUOUS
 10
2251.9583838094
 20
1189.5281979978
 11
2492.3686462239
 21
1189.5281979978
  0
LINE
  5
425
100
AcDbEntity
  8
6_ALL_SURFS
100
AcDbLine
 62
7
  6
CONTINUOUS
 10
2501.9583838094
 20
1189.5281979978
 11
2742.3686462239
 21
1189.5281979978
  0
LINE
  5
426
100
AcDbEntity
  8
6_ALL_SURFS
100
AcDbLine
 62
7
  6
CONTINUOUS
 10
2751.9583838094
 20
1189.5281979978
 11
2992.3686462239
 21
1189.5281979978
  0
LINE
  5
427
100
AcDbEntity
  8
6_ALL_SURFS
100
AcDbLine
 62
7
  6
CONTINUOUS
 10
3001.9583838094
 20
1189.5281979978
 11
3150.6635150167
 21
1189.5281979978
  0
LINE
  5
428
100
AcDbEntity
  8
6_ALL_SURFS
100
AcDbLine
 62
7
  6
CONTINUOUS
 10
343.6635150167
 20
1190.1281979978
 11
492.4316267319
 21
1190.1281979978
  0
LINE
  5
429
100
AcDbEntity
  8
6_ALL_SURFS
100
AcDbLine
 62
7
  6
CONTINUOUS
 10
501.8954033015
 20
1190.1281979978
 11
742.4316267319
 21
1190.1281979978
  0
LINE
  5
42A
100
AcDbEntity
  8
6_ALL_SURFS
100
AcDbLine
 62
7
  6
CONTINUOUS
 10
751.8954033015
 20
1190.1281979978
 11
992.4316267319
 21
1190.1281979978
  0
LINE
  5
42B
100
AcDbEntity
  8
6_ALL_SURFS
100
AcDbLine
 62
7
  6
CONTINUOUS
 10
1001.8954033015
 20
1190.1281979978
 11
1242.4316267319
 21
1190.1281979978
  0
LINE
  5
42C
100
AcDbEntity
  8
6_ALL_SURFS
100
AcDbLine
 62
7
  6
CONTINUOUS
 10
1251.8954033015
 20
1190.1281979978
 11
1492.4316267319
 21
1190.1281979978
  0
LINE
  5
42D
100
AcDbEntity
  8
6_ALL_SURFS
100
AcDbLine
 62
7
  6
CONTINUOUS
 10
1501.8954033015
 20
1190.1281979978
 11
1742.4316267319
 21
1190.1281979978
  0
LINE
  5
42E
100
AcDbEntity
  8
6_ALL_SURFS
100
AcDbLine
 62
7
  6
CONTINUOUS
 10
1751.8954033015
 20
1190.1281979978
 11
1992.4316267319
 21
1190.1281979978
  0
LINE
  5
42F
100
AcDbEntity
  8
6_ALL_SURFS
100
AcDbLine
 62
7
  6
CONTINUOUS
 10
2001.8954033015
 20
1190.1281979978
 11
2242.4316267319
 21
1190.1281979978
  0
LINE
  5
430
100
AcDbEntity
  8
6_ALL_SURFS
100
AcDbLine
 62
7
  6
CONTINUOUS
 10
2251.8954033015
 20
1190.1281979978
 11
2492.4316267319
 21
1190.1281979978
  0
LINE
  5
431
100
AcDbEntity
  8
6_ALL_SURFS
100
AcDbLine
 62
7
  6
CONTINUOUS
 10
2501.8954033015
 20
1190.1281979978
 11
2742.4316267319
 21
1190.1281979978
  0
LINE
  5
432
100
AcDbEntity
  8
6_ALL_SURFS
100
AcDbLine
 62
7
  6
CONTINUOUS
 10
2751.8954033015
 20
1190.1281979978
 11
2992.4316267319
 21
1190.1281979978
  0
LINE
  5
433
100
AcDbEntity
  8
6_ALL_SURFS
100
AcDbLine
 62
7
  6
CONTINUOUS
 10
3001.8954033015
 20
1190.1281979978
 11
3150.6635150167
 21
1190.1281979978
  0
LINE
  5
434
100
AcDbEntity
  8
6_ALL_SURFS
100
AcDbLine
 62
7
  6
CONTINUOUS
 10
343.6635150167
 20
1192.8281979978
 11
493.880107223
 21
1192.8281979978
  0
LINE
  5
435
100
AcDbEntity
  8
6_ALL_SURFS
100
AcDbLine
 62
7
  6
CONTINUOUS
 10
500.4469228104
 20
1192.8281979978
 11
743.880107223
 21
1192.8281979978
  0
LINE
  5
436
100
AcDbEntity
  8
6_ALL_SURFS
100
AcDbLine
 62
7
  6
CONTINUOUS
 10
750.4469228104
 20
1192.8281979978
 11
993.880107223
 21
1192.8281979978
  0
LINE
  5
437
100
AcDbEntity
  8
6_ALL_SURFS
100
AcDbLine
 62
7
  6
CONTINUOUS
 10
1000.4469228104
 20
1192.8281979978
 11
1243.880107223
 21
1192.8281979978
  0
LINE
  5
438
100
AcDbEntity
  8
6_ALL_SURFS
100
AcDbLine
 62
7
  6
CONTINUOUS
 10
1250.4469228104
 20
1192.8281979978
 11
1493.880107223
 21
1192.8281979978
  0
LINE
  5
439
100
AcDbEntity
  8
6_ALL_SURFS
100
AcDbLine
 62
7
  6
CONTINUOUS
 10
1500.4469228104
 20
1192.8281979978
 11
1743.880107223
 21
1192.8281979978
  0
LINE
  5
43A
100
AcDbEntity
  8
6_ALL_SURFS
100
AcDbLine
 62
7
  6
CONTINUOUS
 10
1750.4469228104
 20
1192.8281979978
 11
1993.880107223
 21
1192.8281979978
  0
LINE
  5
43B
100
AcDbEntity
  8
6_ALL_SURFS
100
AcDbLine
 62
7
  6
CONTINUOUS
 10
2000.4469228104
 20
1192.8281979978
 11
2243.880107223
 21
1192.8281979978
  0
LINE
  5
43C
100
AcDbEntity
  8
6_ALL_SURFS
100
AcDbLine
 62
7
  6
CONTINUOUS
 10
2250.4469228104
 20
1192.8281979978
 11
2493.880107223
 21
1192.8281979978
  0
LINE
  5
43D
100
AcDbEntity
  8
6_ALL_SURFS
100
AcDbLine
 62
7
  6
CONTINUOUS
 10
2500.4469228104
 20
1192.8281979978
 11
2743.880107223
 21
1192.8281979978
  0
LINE
  5
43E
100
AcDbEntity
  8
6_ALL_SURFS
100
AcDbLine
 62
7
  6
CONTINUOUS
 10
2750.4469228104
 20
1192.8281979978
 11
2993.880107223
 21
1192.8281979978
  0
LINE
  5
43F
100
AcDbEntity
  8
6_ALL_SURFS
100
AcDbLine
 62
7
  6
CONTINUOUS
 10
3000.4469228104
 20
1192.8281979978
 11
3150.6635150167
 21
1192.8281979978
  0
LINE
  5
440
100
AcDbEntity
  8
6_ALL_SURFS
100
AcDbLine
 62
9
  6
CONTINUOUS
 10
343.6635150167
 20
1194.9736695882
 11
3150.6635150167
 21
1194.9736695882
  0
LINE
  5
441
100
AcDbEntity
  8
6_ALL_SURFS
100
AcDbLine
 62
7
  6
CONTINUOUS
 10
3150.6635150167
 20
1195.3281979978
 11
343.6635150167
 21
1195.3281979978
  0
LINE
  5
442
100
AcDbEntity
  8
7_ALL_FEATURES
100
AcDbLine
 62
7
  6
CONTINUOUS
 10
3149.4135150167
 20
1173.6781979978
 11
3149.4135150167
 21
1107.0781979978
  0
LINE
  5
443
100
AcDbEntity
  8
7_ALL_FEATURES
100
AcDbLine
 62
7
  6
CONTINUOUS
 10
3150.6635150167
 20
1109.8281979978
 11
3150.6635150167
 21
1105.7281979978
  0
LINE
  5
444
100
AcDbEntity
  8
7_ALL_FEATURES
100
AcDbLine
 62
7
  6
CONTINUOUS
 10
3150.6635150167
 20
1105.718409301
 11
3150.6635150167
 21
1103.2281979978
  0
LINE
  5
445
100
AcDbEntity
  8
3_ALL_AXES
100
AcDbLine
 62
7
  6
CONTINUOUS
 10
3150.6635150167
 20
1103.2281979978
 11
3150.6635150167
 21
1087.9281979978
  0
LINE
  5
446
100
AcDbEntity
  8
7_ALL_FEATURES
100
AcDbLine
 62
7
  6
CONTINUOUS
 10
3150.6635150167
 20
1087.9281979978
 11
3150.6635150167
 21
1085.4282386938
  0
LINE
  5
447
100
AcDbEntity
  8
7_ALL_FEATURES
100
AcDbLine
 62
7
  6
CONTINUOUS
 10
3150.6635150167
 20
1109.8462902115
 11
3150.6635150167
 21
1141.7781979978
  0
LINE
  5
448
100
AcDbEntity
  8
6_ALL_SURFS
100
AcDbLine
 62
7
  6
CONTINUOUS
 10
3150.6635150167
 20
1141.7781979978
 11
3150.6635150167
 21
1170.910105784
  0
LINE
  5
449
100
AcDbEntity
  8
6_ALL_SURFS
100
AcDbLine
 62
7
  6
CONTINUOUS
 10
3150.6635150167
 20
1170.9281979978
 11
3150.6635150167
 21
1175.0281979978
  0
LINE
  5
44A
100
AcDbEntity
  8
6_ALL_SURFS
100
AcDbLine
 62
7
  6
CONTINUOUS
 10
3150.6635150167
 20
1175.0379866945
 11
3150.6635150167
 21
1195.3281573018
  0
ARC
  5
44B
100
AcDbEntity
  8
6_ALL_SURFS
100
AcDbCircle
 62
7
  6
CONTINUOUS
 10
141.9782536151
 20
704.0343715239
 40
0.5
100
AcDbArc
 50
53.1301023542
 51
126.8698976458
  0
ARC
  5
44C
100
AcDbEntity
  8
6_ALL_SURFS
100
AcDbCircle
 62
7
  6
CONTINUOUS
 10
138.9782536151
 20
704.0343715239
 40
0.5
100
AcDbArc
 50
53.1301023542
 51
126.8698976458
  0
ARC
  5
44D
100
AcDbEntity
  8
6_ALL_SURFS
100
AcDbCircle
 62
7
  6
CONTINUOUS
 10
135.9782536151
 20
704.0343715239
 40
0.5
100
AcDbArc
 50
53.1301023542
 51
126.8698976458
  0
ARC
  5
44E
100
AcDbEntity
  8
6_ALL_SURFS
100
AcDbCircle
 62
7
  6
CONTINUOUS
 10
130.871956973
 20
705.040668166
 40
0.3937033579
100
AcDbArc
 50
90.0
 51
264.2894068625
  0
ARC
  5
44F
100
AcDbEntity
  8
3_ALL_AXES
100
AcDbCircle
 62
7
  6
CONTINUOUS
 10
152.3782536151
 20
704.7543715239
 40
1.8
100
AcDbArc
 50
0.0
 51
57.1401196211
  0
ARC
  5
450
100
AcDbEntity
  8
6_ALL_SURFS
100
AcDbCircle
 62
7
  6
CONTINUOUS
 10
151.9782536151
 20
706.9343715239
 40
1.5
100
AcDbArc
 50
137.0
 51
180.0
  0
ARC
  5
451
100
AcDbEntity
  8
3_ALL_AXES
100
AcDbCircle
 62
7
  6
CONTINUOUS
 10
153.4634264124
 20
706.4343715239
 40
1.0
100
AcDbArc
 50
137.0
 51
237.1401196211
  0
ARC
  5
452
100
AcDbEntity
  8
3_ALL_AXES
100
AcDbCircle
 62
7
  6
CONTINUOUS
 10
152.3782536151
 20
704.7543715239
 40
1.0
100
AcDbArc
 50
0.0
 51
57.1401196211
  0
ARC
  5
453
100
AcDbEntity
  8
6_ALL_SURFS
100
AcDbCircle
 62
7
  6
CONTINUOUS
 10
147.9782536151
 20
704.0343715239
 40
0.5
100
AcDbArc
 50
53.1301023542
 51
126.8698976458
  0
ARC
  5
454
100
AcDbEntity
  8
6_ALL_SURFS
100
AcDbCircle
 62
7
  6
CONTINUOUS
 10
144.9782536151
 20
704.0343715239
 40
0.5
100
AcDbArc
 50
53.1301023542
 51
126.8698976458
  0
ARC
  5
455
100
AcDbEntity
  8
3_ALL_AXES
100
AcDbCircle
 62
7
  6
CONTINUOUS
 10
153.3890420047
 20
707.2343715239
 40
0.4
100
AcDbArc
 50
317.0
 51
137.0
  0
ARC
  5
456
100
AcDbEntity
  8
7_ALL_FEATURES
100
AcDbCircle
 62
7
  6
CONTINUOUS
 10
154.8782536151
 20
710.4586355926
 40
0.3
100
AcDbArc
 50
180.0
 51
225.0
  0
ARC
  5
457
100
AcDbEntity
  8
6_ALL_SURFS
100
AcDbCircle
 62
7
  6
CONTINUOUS
 10
152.6782536151
 20
710.3243321551
 40
0.3
100
AcDbArc
 50
317.0
 51
360.0
  0
ARC
  5
458
100
AcDbEntity
  8
6_ALL_SURFS
100
AcDbCircle
 62
7
  6
CONTINUOUS
 10
153.5074699568
 20
708.1343715239
 40
0.3
100
AcDbArc
 50
90.0
 51
137.0
  0
ARC
  5
459
100
AcDbEntity
  8
6_ALL_SURFS
100
AcDbCircle
 62
7
  6
CONTINUOUS
 10
152.2782536151
 20
705.7343715239
 40
0.3
100
AcDbArc
 50
180.0
 51
270.0
  0
ARC
  5
45A
100
AcDbEntity
  8
6_ALL_SURFS
100
AcDbCircle
 62
7
  6
CONTINUOUS
 10
152.2782536151
 20
706.8161983812
 40
0.3
100
AcDbArc
 50
137.0
 51
180.0
  0
ARC
  5
45B
100
AcDbEntity
  8
7_ALL_FEATURES
100
AcDbCircle
 62
7
  6
CONTINUOUS
 10
154.5782536151
 20
709.9101074552
 40
0.3
100
AcDbArc
 50
0.0
 51
45.0
  0
ARC
  5
45C
100
AcDbEntity
  8
6_ALL_SURFS
100
AcDbCircle
 62
7
  6
CONTINUOUS
 10
154.5782536151
 20
708.7343715239
 40
0.3
100
AcDbArc
 50
270.0
 51
360.0
  0
ARC
  5
45D
100
AcDbEntity
  8
6_ALL_SURFS
100
AcDbCircle
 62
7
  6
CONTINUOUS
 10
152.9150680715
 20
705.1343715239
 40
0.3
100
AcDbArc
 50
28.0
 51
90.0
  0
ARC
  5
45E
100
AcDbEntity
  8
7_ALL_FEATURES
100
AcDbCircle
 62
7
  6
CONTINUOUS
 10
154.3782536151
 20
704.6343715239
 40
0.2
100
AcDbArc
 50
180.0
 51
270.0
  0
ARC
  5
45F
100
AcDbEntity
  8
7_ALL_FEATURES
100
AcDbCircle
 62
7
  6
CONTINUOUS
 10
153.1782536151
 20
704.1343715239
 40
0.2
100
AcDbArc
 50
270.0
 51
360.0
  0
ARC
  5
460
100
AcDbEntity
  8
3_ALL_AXES
100
AcDbCircle
 62
7
  6
CONTINUOUS
 10
153.4634264124
 20
706.4343715239
 40
0.2
100
AcDbArc
 50
137.0
 51
237.1401196211
  0
ARC
  5
461
100
AcDbEntity
  8
7_ALL_FEATURES
100
AcDbCircle
 62
7
  6
CONTINUOUS
 10
152.3282536151
 20
703.7343715239
 40
0.2
100
AcDbArc
 50
90.0
 51
180.0
  0
ARC
  5
462
100
AcDbEntity
  8
7_ALL_FEATURES
100
AcDbCircle
 62
7
  6
CONTINUOUS
 10
152.3282536151
 20
703.1343715239
 40
0.2
100
AcDbArc
 50
180.0
 51
270.0
  0
ARC
  5
463
100
AcDbEntity
  8
6_ALL_SURFS
100
AcDbCircle
 62
7
  6
CONTINUOUS
 10
150.5782536151
 20
704.2343715239
 40
0.2
100
AcDbArc
 50
0.0
 51
90.0
  0
ARC
  5
464
100
AcDbEntity
  8
6_ALL_SURFS
100
AcDbCircle
 62
7
  6
CONTINUOUS
 10
152.1782536151
 20
703.7343715239
 40
0.2
100
AcDbArc
 50
90.0
 51
180.0
  0
ARC
  5
465
100
AcDbEntity
  8
6_ALL_SURFS
100
AcDbCircle
 62
7
  6
CONTINUOUS
 10
153.0282536151
 20
704.1343715239
 40
0.2
100
AcDbArc
 50
270.0
 51
360.0
  0
ARC
  5
466
100
AcDbEntity
  8
6_ALL_SURFS
100
AcDbCircle
 62
7
  6
CONTINUOUS
 10
151.7782536151
 20
703.1343715239
 40
0.2
100
AcDbArc
 50
270.0
 51
360.0
  0
ARC
  5
467
100
AcDbEntity
  8
6_ALL_SURFS
100
AcDbCircle
 62
7
  6
CONTINUOUS
 10
150.9782536151
 20
703.1343715239
 40
0.2
100
AcDbArc
 50
180.0
 51
270.0
  0
ARC
  5
468
100
AcDbEntity
  8
6_ALL_SURFS
100
AcDbCircle
 62
7
  6
CONTINUOUS
 10
151.8782536151
 20
713.5343715239
 40
1.5
100
AcDbArc
 50
180.0
 51
270.0
  0
ARC
  5
469
100
AcDbEntity
  8
6_ALL_SURFS
100
AcDbCircle
 62
7
  6
CONTINUOUS
 10
151.8782536151
 20
716.3343715239
 40
1.5
100
AcDbArc
 50
90.0
 51
180.0
  0
ARC
  5
46A
100
AcDbEntity
  8
6_ALL_SURFS
100
AcDbCircle
 62
7
  6
CONTINUOUS
 10
153.3282536151
 20
714.9343715239
 40
1.3
100
AcDbArc
 50
30.0
 51
319.1930771251
  0
ARC
  5
46B
100
AcDbEntity
  8
7_ALL_FEATURES
100
AcDbCircle
 62
7
  6
CONTINUOUS
 10
154.8782536151
 20
712.0101074552
 40
0.3
100
AcDbArc
 50
135.0
 51
180.0
  0
ARC
  5
46C
100
AcDbEntity
  8
6_ALL_SURFS
100
AcDbCircle
 62
7
  6
CONTINUOUS
 10
152.9782536151
 20
718.1343715239
 40
0.3
100
AcDbArc
 50
270.0
 51
360.0
  0
ARC
  5
46D
100
AcDbEntity
  8
6_ALL_SURFS
100
AcDbCircle
 62
7
  6
CONTINUOUS
 10
152.6782536151
 20
711.7343715239
 40
0.3
100
AcDbArc
 50
0.0
 51
90.0
  0
ARC
  5
46E
100
AcDbEntity
  8
6_ALL_SURFS
100
AcDbCircle
 62
7
  6
CONTINUOUS
 10
154.5782536151
 20
716.0024695219
 40
0.3
100
AcDbArc
 50
300.0
 51
360.0
  0
ARC
  5
46F
100
AcDbEntity
  8
6_ALL_SURFS
100
AcDbCircle
 62
7
  6
CONTINUOUS
 10
154.539319374
 20
713.8887522205
 40
0.3
100
AcDbArc
 50
60.0
 51
139.1930771251
  0
ARC
  5
470
100
AcDbEntity
  8
7_ALL_FEATURES
100
AcDbCircle
 62
7
  6
CONTINUOUS
 10
154.5782536151
 20
712.5586355926
 40
0.3
100
AcDbArc
 50
315.0
 51
360.0
  0
ARC
  5
471
100
AcDbEntity
  8
6_ALL_SURFS
100
AcDbCircle
 62
7
  6
CONTINUOUS
 10
158.2782536151
 20
753.3567569086
 40
5.0
100
AcDbArc
 50
168.992257654
 51
180.0
  0
ARC
  5
472
100
AcDbEntity
  8
6_ALL_SURFS
100
AcDbCircle
 62
7
  6
CONTINUOUS
 10
162.4782536151
 20
775.684371524
 40
2.8
100
AcDbArc
 50
147.841849515
 51
210.000000002
  0
ARC
  5
473
100
AcDbEntity
  8
6_ALL_SURFS
100
AcDbCircle
 62
7
  6
CONTINUOUS
 10
162.4782536151
 20
775.684371524
 40
2.8
100
AcDbArc
 50
329.999999998
 51
360.0
  0
ARC
  5
474
100
AcDbEntity
  8
6_ALL_SURFS
100
AcDbCircle
 62
7
  6
CONTINUOUS
 10
158.3458313236
 20
772.0343715239
 40
1.5
100
AcDbArc
 50
90.0
 51
168.992257654
  0
ARC
  5
475
100
AcDbEntity
  8
6_ALL_SURFS
100
AcDbCircle
 62
7
  6
CONTINUOUS
 10
162.4782536151
 20
775.684371524
 40
1.3
100
AcDbArc
 50
130.8069228753
 51
49.1930771247
  0
ARC
  5
476
100
AcDbEntity
  8
6_ALL_SURFS
100
AcDbCircle
 62
7
  6
CONTINUOUS
 10
182.8282536151
 20
777.9343715239
 40
1.0
100
AcDbArc
 50
90.0
 51
180.0
  0
ARC
  5
477
100
AcDbEntity
  8
6_ALL_SURFS
100
AcDbCircle
 62
7
  6
CONTINUOUS
 10
181.3282536151
 20
774.0343715239
 40
0.5
100
AcDbArc
 50
270.0
 51
360.0
  0
ARC
  5
478
100
AcDbEntity
  8
6_ALL_SURFS
100
AcDbCircle
 62
7
  6
CONTINUOUS
 10
165.3361374476
 20
774.0343715239
 40
0.5
100
AcDbArc
 50
149.999999998
 51
270.0
  0
ARC
  5
479
100
AcDbEntity
  8
6_ALL_SURFS
100
AcDbCircle
 62
7
  6
CONTINUOUS
 10
159.6203697827
 20
774.0343715239
 40
0.5
100
AcDbArc
 50
270.0
 51
30.000000002
  0
ARC
  5
47A
100
AcDbEntity
  8
6_ALL_SURFS
100
AcDbCircle
 62
7
  6
CONTINUOUS
 10
158.840421808
 20
771.4343715239
 40
0.5
100
AcDbArc
 50
90.0
 51
169.0
  0
ARC
  5
47B
100
AcDbEntity
  8
6_ALL_SURFS
100
AcDbCircle
 62
7
  6
CONTINUOUS
 10
159.8538489207
 20
777.3343715239
 40
0.3
100
AcDbArc
 50
327.841849515
 51
90.0
  0
ARC
  5
47C
100
AcDbEntity
  8
6_ALL_SURFS
100
AcDbCircle
 62
7
  6
CONTINUOUS
 10
155.2216316534
 20
753.8654787139
 40
0.3
100
AcDbArc
 50
169.0
 51
250.0
  0
ARC
  5
47D
100
AcDbEntity
  8
6_ALL_SURFS
100
AcDbCircle
 62
7
  6
CONTINUOUS
 10
184.0282536151
 20
777.0343715239
 40
0.3
100
AcDbArc
 50
90.0
 51
180.0
  0
ARC
  5
47E
100
AcDbEntity
  8
6_ALL_SURFS
100
AcDbCircle
 62
7
  6
CONTINUOUS
 10
183.4282536151
 20
772.2343715239
 40
0.3
100
AcDbArc
 50
270.0
 51
360.0
  0
ARC
  5
47F
100
AcDbEntity
  8
6_ALL_SURFS
100
AcDbCircle
 62
7
  6
CONTINUOUS
 10
155.2437397859
 20
753.2189253483
 40
0.3
100
AcDbArc
 50
340.0
 51
70.0
  0
ARC
  5
480
100
AcDbEntity
  8
6_ALL_SURFS
100
AcDbCircle
 62
7
  6
CONTINUOUS
 10
155.1782536151
 20
751.2847209327
 40
0.3
100
AcDbArc
 50
160.0
 51
180.0
  0
ARC
  5
481
100
AcDbEntity
  8
6_ALL_SURFS
100
AcDbCircle
 62
7
  6
CONTINUOUS
 10
158.4782536151
 20
777.9343715239
 40
0.3
100
AcDbArc
 50
180.0
 51
270.0
  0
ARC
  5
482
100
AcDbEntity
  8
6_ALL_SURFS
100
AcDbCircle
 62
7
  6
CONTINUOUS
 10
158.4782536151
 20
778.6343715239
 40
0.3
100
AcDbArc
 50
90.0
 51
180.0
  0
ARC
  5
483
100
AcDbEntity
  8
6_ALL_SURFS
100
AcDbCircle
 62
7
  6
CONTINUOUS
 10
160.4286601595
 20
778.6343715239
 40
0.3
100
AcDbArc
 50
30.0000000014
 51
90.0
  0
ARC
  5
484
100
AcDbEntity
  8
6_ALL_SURFS
100
AcDbCircle
 62
7
  6
CONTINUOUS
 10
161.4326343117
 20
776.8954372829
 40
0.3
100
AcDbArc
 50
310.8069228753
 51
30.0000000014
  0
ARC
  5
485
100
AcDbEntity
  8
6_ALL_SURFS
100
AcDbCircle
 62
7
  6
CONTINUOUS
 10
163.5238729185
 20
776.8954372829
 40
0.3
100
AcDbArc
 50
149.9999999986
 51
229.1930771247
  0
ARC
  5
486
100
AcDbEntity
  8
6_ALL_SURFS
100
AcDbCircle
 62
7
  6
CONTINUOUS
 10
164.5278470708
 20
778.6343715239
 40
0.3
100
AcDbArc
 50
90.0
 51
149.9999999986
  0
ARC
  5
487
100
AcDbEntity
  8
6_ALL_SURFS
100
AcDbCircle
 62
7
  6
CONTINUOUS
 10
164.9782536151
 20
778.6343715239
 40
0.3
100
AcDbArc
 50
0.0
 51
90.0
  0
ARC
  5
488
100
AcDbEntity
  8
3_ALL_AXES
100
AcDbCircle
 62
7
  6
CONTINUOUS
 10
218.4782536151
 20
704.7543715239
 40
1.8
100
AcDbArc
 50
122.8598803789
 51
180.0
  0
ARC
  5
489
100
AcDbEntity
  8
7_ALL_FEATURES
100
AcDbCircle
 62
7
  6
CONTINUOUS
 10
218.8782536151
 20
706.9343715239
 40
1.5
100
AcDbArc
 50
0.0
 51
43.0
  0
ARC
  5
48A
100
AcDbEntity
  8
3_ALL_AXES
100
AcDbCircle
 62
7
  6
CONTINUOUS
 10
218.4782536151
 20
704.7543715239
 40
1.0
100
AcDbArc
 50
122.8598803789
 51
180.0
  0
ARC
  5
48B
100
AcDbEntity
  8
3_ALL_AXES
100
AcDbCircle
 62
7
  6
CONTINUOUS
 10
217.3930808178
 20
706.4343715239
 40
1.0
100
AcDbArc
 50
302.8598803789
 51
43.0
  0
ARC
  5
48C
100
AcDbEntity
  8
3_ALL_AXES
100
AcDbCircle
 62
7
  6
CONTINUOUS
 10
225.8782536151
 20
704.0343715239
 40
0.5
100
AcDbArc
 50
53.1301023542
 51
126.8698976458
  0
ARC
  5
48D
100
AcDbEntity
  8
3_ALL_AXES
100
AcDbCircle
 62
7
  6
CONTINUOUS
 10
222.8782536151
 20
704.0343715239
 40
0.5
100
AcDbArc
 50
53.1301023542
 51
126.8698976458
  0
ARC
  5
48E
100
AcDbEntity
  8
3_ALL_AXES
100
AcDbCircle
 62
7
  6
CONTINUOUS
 10
217.4674652256
 20
707.2343715239
 40
0.4
100
AcDbArc
 50
43.0
 51
223.0
  0
ARC
  5
48F
100
AcDbEntity
  8
7_ALL_FEATURES
100
AcDbCircle
 62
7
  6
CONTINUOUS
 10
215.9782536151
 20
710.4586355926
 40
0.3
100
AcDbArc
 50
315.0
 51
360.0
  0
ARC
  5
490
100
AcDbEntity
  8
7_ALL_FEATURES
100
AcDbCircle
 62
7
  6
CONTINUOUS
 10
218.1782536151
 20
710.3243321551
 40
0.3
100
AcDbArc
 50
180.0
 51
223.0
  0
ARC
  5
491
100
AcDbEntity
  8
7_ALL_FEATURES
100
AcDbCircle
 62
7
  6
CONTINUOUS
 10
217.3490372734
 20
708.1343715239
 40
0.3
100
AcDbArc
 50
43.0
 51
90.0
  0
ARC
  5
492
100
AcDbEntity
  8
7_ALL_FEATURES
100
AcDbCircle
 62
7
  6
CONTINUOUS
 10
218.5782536151
 20
705.7343715239
 40
0.3
100
AcDbArc
 50
270.0
 51
360.0
  0
ARC
  5
493
100
AcDbEntity
  8
7_ALL_FEATURES
100
AcDbCircle
 62
7
  6
CONTINUOUS
 10
218.5782536151
 20
706.8161983812
 40
0.3
100
AcDbArc
 50
0.0
 51
43.0
  0
ARC
  5
494
100
AcDbEntity
  8
7_ALL_FEATURES
100
AcDbCircle
 62
7
  6
CONTINUOUS
 10
217.9414391588
 20
705.1343715239
 40
0.3
100
AcDbArc
 50
90.0
 51
152.0
  0
ARC
  5
495
100
AcDbEntity
  8
7_ALL_FEATURES
100
AcDbCircle
 62
7
  6
CONTINUOUS
 10
216.2782536151
 20
708.7343715239
 40
0.3
100
AcDbArc
 50
180.0
 51
270.0
  0
ARC
  5
496
100
AcDbEntity
  8
7_ALL_FEATURES
100
AcDbCircle
 62
7
  6
CONTINUOUS
 10
216.2782536151
 20
709.9101074552
 40
0.3
100
AcDbArc
 50
135.0
 51
180.0
  0
ARC
  5
497
100
AcDbEntity
  8
7_ALL_FEATURES
100
AcDbCircle
 62
7
  6
CONTINUOUS
 10
216.4782536151
 20
704.6343715239
 40
0.2
100
AcDbArc
 50
270.0
 51
360.0
  0
ARC
  5
498
100
AcDbEntity
  8
7_ALL_FEATURES
100
AcDbCircle
 62
7
  6
CONTINUOUS
 10
217.6782536151
 20
704.1343715239
 40
0.2
100
AcDbArc
 50
180.0
 51
270.0
  0
ARC
  5
499
100
AcDbEntity
  8
3_ALL_AXES
100
AcDbCircle
 62
7
  6
CONTINUOUS
 10
217.3930808178
 20
706.4343715239
 40
0.2
100
AcDbArc
 50
302.8598803789
 51
43.0
  0
ARC
  5
49A
100
AcDbEntity
  8
7_ALL_FEATURES
100
AcDbCircle
 62
7
  6
CONTINUOUS
 10
218.5282536151
 20
703.7343715239
 40
0.2
100
AcDbArc
 50
0.0
 51
72.0
  0
ARC
  5
49B
100
AcDbEntity
  8
7_ALL_FEATURES
100
AcDbCircle
 62
7
  6
CONTINUOUS
 10
218.5282536151
 20
703.1343715239
 40
0.2
100
AcDbArc
 50
270.0
 51
360.0
  0
ARC
  5
49C
100
AcDbEntity
  8
7_ALL_FEATURES
100
AcDbCircle
 62
7
  6
CONTINUOUS
 10
220.2782536151
 20
704.2343715239
 40
0.2
100
AcDbArc
 50
90.0
 51
180.0
  0
ARC
  5
49D
100
AcDbEntity
  8
7_ALL_FEATURES
100
AcDbCircle
 62
7
  6
CONTINUOUS
 10
218.6782536151
 20
703.7343715239
 40
0.2
100
AcDbArc
 50
0.0
 51
90.0
  0
ARC
  5
49E
100
AcDbEntity
  8
7_ALL_FEATURES
100
AcDbCircle
 62
7
  6
CONTINUOUS
 10
219.8782536151
 20
703.1343715239
 40
0.2
100
AcDbArc
 50
270.0
 51
360.0
  0
ARC
  5
49F
100
AcDbEntity
  8
7_ALL_FEATURES
100
AcDbCircle
 62
7
  6
CONTINUOUS
 10
219.0782536151
 20
703.1343715239
 40
0.2
100
AcDbArc
 50
180.0
 51
270.0
  0
ARC
  5
4A0
100
AcDbEntity
  8
7_ALL_FEATURES
100
AcDbCircle
 62
7
  6
CONTINUOUS
 10
217.8282536151
 20
704.1343715239
 40
0.2
100
AcDbArc
 50
180.0
 51
270.0
  0
ARC
  5
4A1
100
AcDbEntity
  8
7_ALL_FEATURES
100
AcDbCircle
 62
7
  6
CONTINUOUS
 10
218.9782536151
 20
716.3343715239
 40
1.5
100
AcDbArc
 50
0.0
 51
90.0
  0
ARC
  5
4A2
100
AcDbEntity
  8
7_ALL_FEATURES
100
AcDbCircle
 62
7
  6
CONTINUOUS
 10
218.9782536151
 20
713.5343715239
 40
1.5
100
AcDbArc
 50
270.0
 51
360.0
  0
ARC
  5
4A3
100
AcDbEntity
  8
7_ALL_FEATURES
100
AcDbCircle
 62
7
  6
CONTINUOUS
 10
217.5282536151
 20
714.9343715239
 40
1.3
100
AcDbArc
 50
220.8069228749
 51
150.0
  0
ARC
  5
4A4
100
AcDbEntity
  8
7_ALL_FEATURES
100
AcDbCircle
 62
7
  6
CONTINUOUS
 10
215.9782536151
 20
712.0101074552
 40
0.3
100
AcDbArc
 50
0.0
 51
45.0
  0
ARC
  5
4A5
100
AcDbEntity
  8
7_ALL_FEATURES
100
AcDbCircle
 62
7
  6
CONTINUOUS
 10
217.8782536151
 20
718.1343715239
 40
0.3
100
AcDbArc
 50
180.0
 51
270.0
  0
ARC
  5
4A6
100
AcDbEntity
  8
7_ALL_FEATURES
100
AcDbCircle
 62
7
  6
CONTINUOUS
 10
218.1782536151
 20
711.7343715239
 40
0.3
100
AcDbArc
 50
90.0
 51
180.0
  0
ARC
  5
4A7
100
AcDbEntity
  8
7_ALL_FEATURES
100
AcDbCircle
 62
7
  6
CONTINUOUS
 10
216.2782536151
 20
712.5586355926
 40
0.3
100
AcDbArc
 50
180.0
 51
225.0
  0
ARC
  5
4A8
100
AcDbEntity
  8
7_ALL_FEATURES
100
AcDbCircle
 62
7
  6
CONTINUOUS
 10
216.3171878562
 20
713.8887522205
 40
0.3
100
AcDbArc
 50
40.8069228749
 51
120.0
  0
ARC
  5
4A9
100
AcDbEntity
  8
7_ALL_FEATURES
100
AcDbCircle
 62
7
  6
CONTINUOUS
 10
216.2782536151
 20
716.0024695219
 40
0.3
100
AcDbArc
 50
180.0
 51
240.0
  0
ARC
  5
4AA
100
AcDbEntity
  8
3_ALL_AXES
100
AcDbCircle
 62
7
  6
CONTINUOUS
 10
234.8782536151
 20
704.0343715239
 40
0.5
100
AcDbArc
 50
53.1301023542
 51
126.8698976458
  0
ARC
  5
4AB
100
AcDbEntity
  8
3_ALL_AXES
100
AcDbCircle
 62
7
  6
CONTINUOUS
 10
231.8782536151
 20
704.0343715239
 40
0.5
100
AcDbArc
 50
53.1301023542
 51
126.8698976458
  0
ARC
  5
4AC
100
AcDbEntity
  8
3_ALL_AXES
100
AcDbCircle
 62
7
  6
CONTINUOUS
 10
228.8782536151
 20
704.0343715239
 40
0.5
100
AcDbArc
 50
53.1301023542
 51
126.8698976458
  0
ARC
  5
4AD
100
AcDbEntity
  8
7_ALL_FEATURES
100
AcDbCircle
 62
7
  6
CONTINUOUS
 10
239.9845502572
 20
705.040668166
 40
0.3937033579
100
AcDbArc
 50
275.7105931375
 51
90.0
  0
ARC
  5
4AE
100
AcDbEntity
  8
7_ALL_FEATURES
100
AcDbCircle
 62
7
  6
CONTINUOUS
 10
185.4282536151
 20
775.8343715239
 40
8.0
100
AcDbArc
 50
284.4775121859
 51
300.0
  0
ARC
  5
4AF
100
AcDbEntity
  8
7_ALL_FEATURES
100
AcDbCircle
 62
7
  6
CONTINUOUS
 10
185.4282536151
 20
775.8343715239
 40
8.0
100
AcDbArc
 50
240.0
 51
255.5224878141
  0
ARC
  5
4B0
100
AcDbEntity
  8
7_ALL_FEATURES
100
AcDbCircle
 62
7
  6
CONTINUOUS
 10
185.4282536151
 20
775.8343715239
 40
7.9843597113
100
AcDbArc
 50
255.4935070353
 51
266.4096498625
  0
ARC
  5
4B1
100
AcDbEntity
  8
7_ALL_FEATURES
100
AcDbCircle
 62
7
  6
CONTINUOUS
 10
185.4282536151
 20
775.8343715239
 40
7.9843597113
100
AcDbArc
 50
273.5903501375
 51
284.5064929647
  0
ARC
  5
4B2
100
AcDbEntity
  8
7_ALL_FEATURES
100
AcDbCircle
 62
7
  6
CONTINUOUS
 10
185.4282536151
 20
775.8343715239
 40
7.7459666924
100
AcDbArc
 50
266.2990001561
 51
273.7009998439
  0
ARC
  5
4B3
100
AcDbEntity
  8
7_ALL_FEATURES
100
AcDbCircle
 62
7
  6
CONTINUOUS
 10
212.5782536151
 20
753.3567569086
 40
5.0
100
AcDbArc
 50
0.0
 51
11.007742346
  0
ARC
  5
4B4
100
AcDbEntity
  8
7_ALL_FEATURES
100
AcDbCircle
 62
7
  6
CONTINUOUS
 10
208.3782536151
 20
775.684371524
 40
2.8
100
AcDbArc
 50
180.0
 51
210.000000002
  0
ARC
  5
4B5
100
AcDbEntity
  8
7_ALL_FEATURES
100
AcDbCircle
 62
7
  6
CONTINUOUS
 10
208.3782536151
 20
775.684371524
 40
2.8
100
AcDbArc
 50
329.999999998
 51
32.158150485
  0
ARC
  5
4B6
100
AcDbEntity
  8
7_ALL_FEATURES
100
AcDbCircle
 62
7
  6
CONTINUOUS
 10
212.5106759067
 20
772.0343715239
 40
1.5
100
AcDbArc
 50
11.007742346
 51
90.0
  0
ARC
  5
4B7
100
AcDbEntity
  8
7_ALL_FEATURES
100
AcDbCircle
 62
7
  6
CONTINUOUS
 10
208.3782536151
 20
775.684371524
 40
1.3
100
AcDbArc
 50
130.8069228753
 51
49.1930771247
  0
ARC
  5
4B8
100
AcDbEntity
  8
7_ALL_FEATURES
100
AcDbCircle
 62
7
  6
CONTINUOUS
 10
188.0282536151
 20
777.9343715239
 40
1.0
100
AcDbArc
 50
0.0
 51
90.0
  0
ARC
  5
4B9
100
AcDbEntity
  8
7_ALL_FEATURES
100
AcDbCircle
 62
7
  6
CONTINUOUS
 10
189.5282536151
 20
774.0343715239
 40
0.5
100
AcDbArc
 50
180.0
 51
270.0
  0
ARC
  5
4BA
100
AcDbEntity
  8
7_ALL_FEATURES
100
AcDbCircle
 62
7
  6
CONTINUOUS
 10
205.5203697827
 20
774.0343715239
 40
0.5
100
AcDbArc
 50
270.0
 51
30.000000002
  0
ARC
  5
4BB
100
AcDbEntity
  8
7_ALL_FEATURES
100
AcDbCircle
 62
7
  6
CONTINUOUS
 10
211.2361374476
 20
774.0343715239
 40
0.5
100
AcDbArc
 50
149.999999998
 51
270.0
  0
ARC
  5
4BC
100
AcDbEntity
  8
7_ALL_FEATURES
100
AcDbCircle
 62
7
  6
CONTINUOUS
 10
212.0160854222
 20
771.4343715239
 40
0.5
100
AcDbArc
 50
11.0
 51
90.0
  0
ARC
  5
4BD
100
AcDbEntity
  8
7_ALL_FEATURES
100
AcDbCircle
 62
7
  6
CONTINUOUS
 10
211.0026583096
 20
777.3343715239
 40
0.3
100
AcDbArc
 50
90.0
 51
212.158150485
  0
ARC
  5
4BE
100
AcDbEntity
  8
7_ALL_FEATURES
100
AcDbCircle
 62
7
  6
CONTINUOUS
 10
215.6348755768
 20
753.8654787139
 40
0.3
100
AcDbArc
 50
290.0
 51
11.0
  0
ARC
  5
4BF
100
AcDbEntity
  8
7_ALL_FEATURES
100
AcDbCircle
 62
7
  6
CONTINUOUS
 10
186.8282536151
 20
777.0343715239
 40
0.3
100
AcDbArc
 50
0.0
 51
90.0
  0
ARC
  5
4C0
100
AcDbEntity
  8
7_ALL_FEATURES
100
AcDbCircle
 62
7
  6
CONTINUOUS
 10
215.6782536151
 20
751.2847209327
 40
0.3
100
AcDbArc
 50
0.0
 51
20.0
  0
ARC
  5
4C1
100
AcDbEntity
  8
7_ALL_FEATURES
100
AcDbCircle
 62
7
  6
CONTINUOUS
 10
215.6127674444
 20
753.2189253483
 40
0.3
100
AcDbArc
 50
110.0
 51
200.0
  0
ARC
  5
4C2
100
AcDbEntity
  8
7_ALL_FEATURES
100
AcDbCircle
 62
7
  6
CONTINUOUS
 10
187.4282536151
 20
772.2343715239
 40
0.3
100
AcDbArc
 50
180.0
 51
270.0
  0
ARC
  5
4C3
100
AcDbEntity
  8
7_ALL_FEATURES
100
AcDbCircle
 62
7
  6
CONTINUOUS
 10
205.8782536151
 20
778.6343715239
 40
0.3
100
AcDbArc
 50
90.0
 51
180.0
  0
ARC
  5
4C4
100
AcDbEntity
  8
7_ALL_FEATURES
100
AcDbCircle
 62
7
  6
CONTINUOUS
 10
206.3286601595
 20
778.6343715239
 40
0.3
100
AcDbArc
 50
30.0000000014
 51
90.0
  0
ARC
  5
4C5
100
AcDbEntity
  8
7_ALL_FEATURES
100
AcDbCircle
 62
7
  6
CONTINUOUS
 10
207.3326343117
 20
776.8954372829
 40
0.3
100
AcDbArc
 50
310.8069228753
 51
30.0000000014
  0
ARC
  5
4C6
100
AcDbEntity
  8
7_ALL_FEATURES
100
AcDbCircle
 62
7
  6
CONTINUOUS
 10
209.4238729185
 20
776.8954372829
 40
0.3
100
AcDbArc
 50
149.9999999986
 51
229.1930771247
  0
ARC
  5
4C7
100
AcDbEntity
  8
7_ALL_FEATURES
100
AcDbCircle
 62
7
  6
CONTINUOUS
 10
210.4278470708
 20
778.6343715239
 40
0.3
100
AcDbArc
 50
90.0
 51
149.9999999986
  0
ARC
  5
4C8
100
AcDbEntity
  8
7_ALL_FEATURES
100
AcDbCircle
 62
7
  6
CONTINUOUS
 10
212.3782536151
 20
778.6343715239
 40
0.3
100
AcDbArc
 50
0.0
 51
90.0
  0
ARC
  5
4C9
100
AcDbEntity
  8
7_ALL_FEATURES
100
AcDbCircle
 62
7
  6
CONTINUOUS
 10
212.3782536151
 20
777.9343715239
 40
0.3
100
AcDbArc
 50
270.0
 51
360.0
  0
ARC
  5
4CA
100
AcDbEntity
  8
7_ALL_FEATURES
100
AcDbCircle
 62
7
  6
CONTINUOUS
 10
497.1635150167
 20
1091.4281979978
 40
4.7990381057
100
AcDbArc
 50
35.6935828234
 51
144.3064171766
  0
ARC
  5
4CB
100
AcDbEntity
  8
7_ALL_FEATURES
100
AcDbCircle
 62
7
  6
CONTINUOUS
 10
1497.1635150167
 20
1091.4281979978
 40
4.7990381057
100
AcDbArc
 50
35.6935828234
 51
144.3064171766
  0
ARC
  5
4CC
100
AcDbEntity
  8
7_ALL_FEATURES
100
AcDbCircle
 62
7
  6
CONTINUOUS
 10
1247.1635150167
 20
1091.4281979978
 40
4.7990381057
100
AcDbArc
 50
35.6935828234
 51
144.3064171766
  0
ARC
  5
4CD
100
AcDbEntity
  8
7_ALL_FEATURES
100
AcDbCircle
 62
7
  6
CONTINUOUS
 10
997.1635150167
 20
1091.4281979978
 40
4.7990381057
100
AcDbArc
 50
35.6935828234
 51
144.3064171766
  0
ARC
  5
4CE
100
AcDbEntity
  8
7_ALL_FEATURES
100
AcDbCircle
 62
7
  6
CONTINUOUS
 10
747.1635150167
 20
1091.4281979978
 40
4.7990381057
100
AcDbArc
 50
35.6935828234
 51
144.3064171766
  0
ARC
  5
4CF
100
AcDbEntity
  8
7_ALL_FEATURES
100
AcDbCircle
 62
7
  6
CONTINUOUS
 10
1497.1635150167
 20
1091.4281979978
 40
4.7990381057
100
AcDbArc
 50
357.6115056179
 51
27.2855350899
  0
ARC
  5
4D0
100
AcDbEntity
  8
7_ALL_FEATURES
100
AcDbCircle
 62
7
  6
CONTINUOUS
 10
1247.1635150167
 20
1091.4281979978
 40
4.7990381057
100
AcDbArc
 50
357.6115056179
 51
27.2855350899
  0
ARC
  5
4D1
100
AcDbEntity
  8
7_ALL_FEATURES
100
AcDbCircle
 62
7
  6
CONTINUOUS
 10
1497.1635150167
 20
1091.4281979978
 40
4.7990381057
100
AcDbArc
 50
152.7144649101
 51
182.3884943821
  0
ARC
  5
4D2
100
AcDbEntity
  8
7_ALL_FEATURES
100
AcDbCircle
 62
7
  6
CONTINUOUS
 10
997.1635150167
 20
1091.4281979978
 40
4.7990381057
100
AcDbArc
 50
357.6115056179
 51
27.2855350899
  0
ARC
  5
4D3
100
AcDbEntity
  8
7_ALL_FEATURES
100
AcDbCircle
 62
7
  6
CONTINUOUS
 10
1247.1635150167
 20
1091.4281979978
 40
4.7990381057
100
AcDbArc
 50
152.7144649101
 51
182.3884943821
  0
ARC
  5
4D4
100
AcDbEntity
  8
7_ALL_FEATURES
100
AcDbCircle
 62
7
  6
CONTINUOUS
 10
747.1635150167
 20
1091.4281979978
 40
4.7990381057
100
AcDbArc
 50
357.6115056179
 51
27.2855350899
  0
ARC
  5
4D5
100
AcDbEntity
  8
7_ALL_FEATURES
100
AcDbCircle
 62
7
  6
CONTINUOUS
 10
997.1635150167
 20
1091.4281979978
 40
4.7990381057
100
AcDbArc
 50
152.7144649101
 51
182.3884943821
  0
ARC
  5
4D6
100
AcDbEntity
  8
7_ALL_FEATURES
100
AcDbCircle
 62
7
  6
CONTINUOUS
 10
497.1635150167
 20
1091.4281979978
 40
4.7990381057
100
AcDbArc
 50
357.6115056179
 51
27.2855350899
  0
ARC
  5
4D7
100
AcDbEntity
  8
7_ALL_FEATURES
100
AcDbCircle
 62
7
  6
CONTINUOUS
 10
747.1635150167
 20
1091.4281979978
 40
4.7990381057
100
AcDbArc
 50
152.7144649101
 51
182.3884943821
  0
ARC
  5
4D8
100
AcDbEntity
  8
7_ALL_FEATURES
100
AcDbCircle
 62
7
  6
CONTINUOUS
 10
497.1635150167
 20
1091.4281979978
 40
4.7990381057
100
AcDbArc
 50
152.7144649101
 51
182.3884943821
  0
ARC
  5
4D9
100
AcDbEntity
  8
7_ALL_FEATURES
100
AcDbCircle
 62
7
  6
CONTINUOUS
 10
1497.1635150167
 20
1091.4281979978
 40
4.7990381057
100
AcDbArc
 50
313.171184019
 51
350.4039906056
  0
ARC
  5
4DA
100
AcDbEntity
  8
7_ALL_FEATURES
100
AcDbCircle
 62
7
  6
CONTINUOUS
 10
1247.1635150167
 20
1091.4281979978
 40
4.7990381057
100
AcDbArc
 50
313.171184019
 51
350.4039906056
  0
ARC
  5
4DB
100
AcDbEntity
  8
7_ALL_FEATURES
100
AcDbCircle
 62
7
  6
CONTINUOUS
 10
1497.1635150167
 20
1091.4281979978
 40
4.7990381057
100
AcDbArc
 50
189.5960093944
 51
226.828815981
  0
ARC
  5
4DC
100
AcDbEntity
  8
7_ALL_FEATURES
100
AcDbCircle
 62
7
  6
CONTINUOUS
 10
997.1635150167
 20
1091.4281979978
 40
4.7990381057
100
AcDbArc
 50
313.171184019
 51
350.4039906056
  0
ARC
  5
4DD
100
AcDbEntity
  8
7_ALL_FEATURES
100
AcDbCircle
 62
7
  6
CONTINUOUS
 10
1247.1635150167
 20
1091.4281979978
 40
4.7990381057
100
AcDbArc
 50
189.5960093944
 51
226.828815981
  0
ARC
  5
4DE
100
AcDbEntity
  8
7_ALL_FEATURES
100
AcDbCircle
 62
7
  6
CONTINUOUS
 10
747.1635150167
 20
1091.4281979978
 40
4.7990381057
100
AcDbArc
 50
313.171184019
 51
350.4039906056
  0
ARC
  5
4DF
100
AcDbEntity
  8
7_ALL_FEATURES
100
AcDbCircle
 62
7
  6
CONTINUOUS
 10
997.1635150167
 20
1091.4281979978
 40
4.7990381057
100
AcDbArc
 50
189.5960093944
 51
226.828815981
  0
ARC
  5
4E0
100
AcDbEntity
  8
7_ALL_FEATURES
100
AcDbCircle
 62
7
  6
CONTINUOUS
 10
497.1635150167
 20
1091.4281979978
 40
4.7990381057
100
AcDbArc
 50
313.171184019
 51
350.4039906056
  0
ARC
  5
4E1
100
AcDbEntity
  8
7_ALL_FEATURES
100
AcDbCircle
 62
7
  6
CONTINUOUS
 10
747.1635150167
 20
1091.4281979978
 40
4.7990381057
100
AcDbArc
 50
189.5960093944
 51
226.828815981
  0
ARC
  5
4E2
100
AcDbEntity
  8
7_ALL_FEATURES
100
AcDbCircle
 62
7
  6
CONTINUOUS
 10
497.1635150167
 20
1091.4281979978
 40
4.7990381057
100
AcDbArc
 50
189.5960093944
 51
226.828815981
  0
CIRCLE
  5
4E3
100
AcDbEntity
  8
6_ALL_SURFS
100
AcDbCircle
 62
7
  6
CONTINUOUS
 10
497.1635150167
 20
1091.4281979978
 40
3.5
  0
CIRCLE
  5
4E4
100
AcDbEntity
  8
6_ALL_SURFS
100
AcDbCircle
 62
7
  6
CONTINUOUS
 10
747.1635150167
 20
1091.4281979978
 40
3.5
  0
CIRCLE
  5
4E5
100
AcDbEntity
  8
6_ALL_SURFS
100
AcDbCircle
 62
7
  6
CONTINUOUS
 10
997.1635150167
 20
1091.4281979978
 40
3.5
  0
CIRCLE
  5
4E6
100
AcDbEntity
  8
6_ALL_SURFS
100
AcDbCircle
 62
7
  6
CONTINUOUS
 10
1247.1635150167
 20
1091.4281979978
 40
3.5
  0
CIRCLE
  5
4E7
100
AcDbEntity
  8
6_ALL_SURFS
100
AcDbCircle
 62
7
  6
CONTINUOUS
 10
1497.1635150167
 20
1091.4281979978
 40
3.5
  0
ARC
  5
4E8
100
AcDbEntity
  8
6_ALL_SURFS
100
AcDbCircle
 62
7
  6
CONTINUOUS
 10
497.1635150167
 20
1189.3281979978
 40
4.7990381057
100
AcDbArc
 50
177.6115056179
 51
207.2855350899
  0
ARC
  5
4E9
100
AcDbEntity
  8
6_ALL_SURFS
100
AcDbCircle
 62
7
  6
CONTINUOUS
 10
747.1635150167
 20
1189.3281979978
 40
4.7990381057
100
AcDbArc
 50
177.6115056179
 51
207.2855350899
  0
ARC
  5
4EA
100
AcDbEntity
  8
6_ALL_SURFS
100
AcDbCircle
 62
7
  6
CONTINUOUS
 10
497.1635150167
 20
1189.3281979978
 40
4.7990381057
100
AcDbArc
 50
332.7144649101
 51
2.3884943821
  0
ARC
  5
4EB
100
AcDbEntity
  8
6_ALL_SURFS
100
AcDbCircle
 62
7
  6
CONTINUOUS
 10
997.1635150167
 20
1189.3281979978
 40
4.7990381057
100
AcDbArc
 50
177.6115056179
 51
207.2855350899
  0
ARC
  5
4EC
100
AcDbEntity
  8
6_ALL_SURFS
100
AcDbCircle
 62
7
  6
CONTINUOUS
 10
747.1635150167
 20
1189.3281979978
 40
4.7990381057
100
AcDbArc
 50
332.7144649101
 51
2.3884943821
  0
ARC
  5
4ED
100
AcDbEntity
  8
6_ALL_SURFS
100
AcDbCircle
 62
7
  6
CONTINUOUS
 10
1247.1635150167
 20
1189.3281979978
 40
4.7990381057
100
AcDbArc
 50
177.6115056179
 51
207.2855350899
  0
ARC
  5
4EE
100
AcDbEntity
  8
6_ALL_SURFS
100
AcDbCircle
 62
7
  6
CONTINUOUS
 10
997.1635150167
 20
1189.3281979978
 40
4.7990381057
100
AcDbArc
 50
332.7144649101
 51
2.3884943821
  0
ARC
  5
4EF
100
AcDbEntity
  8
6_ALL_SURFS
100
AcDbCircle
 62
7
  6
CONTINUOUS
 10
1497.1635150167
 20
1189.3281979978
 40
4.7990381057
100
AcDbArc
 50
177.6115056179
 51
207.2855350899
  0
ARC
  5
4F0
100
AcDbEntity
  8
6_ALL_SURFS
100
AcDbCircle
 62
7
  6
CONTINUOUS
 10
1247.1635150167
 20
1189.3281979978
 40
4.7990381057
100
AcDbArc
 50
332.7144649101
 51
2.3884943821
  0
ARC
  5
4F1
100
AcDbEntity
  8
6_ALL_SURFS
100
AcDbCircle
 62
7
  6
CONTINUOUS
 10
1497.1635150167
 20
1189.3281979978
 40
4.7990381057
100
AcDbArc
 50
332.7144649101
 51
2.3884943821
  0
ARC
  5
4F2
100
AcDbEntity
  8
6_ALL_SURFS
100
AcDbCircle
 62
7
  6
CONTINUOUS
 10
1497.1635150167
 20
1189.3281979978
 40
4.7990381057
100
AcDbArc
 50
215.6935828234
 51
324.3064171766
  0
ARC
  5
4F3
100
AcDbEntity
  8
6_ALL_SURFS
100
AcDbCircle
 62
7
  6
CONTINUOUS
 10
1247.1635150167
 20
1189.3281979978
 40
4.7990381057
100
AcDbArc
 50
215.6935828234
 51
324.3064171766
  0
ARC
  5
4F4
100
AcDbEntity
  8
6_ALL_SURFS
100
AcDbCircle
 62
7
  6
CONTINUOUS
 10
997.1635150167
 20
1189.3281979978
 40
4.7990381057
100
AcDbArc
 50
215.6935828234
 51
324.3064171766
  0
ARC
  5
4F5
100
AcDbEntity
  8
6_ALL_SURFS
100
AcDbCircle
 62
7
  6
CONTINUOUS
 10
747.1635150167
 20
1189.3281979978
 40
4.7990381057
100
AcDbArc
 50
215.6935828234
 51
324.3064171766
  0
ARC
  5
4F6
100
AcDbEntity
  8
6_ALL_SURFS
100
AcDbCircle
 62
7
  6
CONTINUOUS
 10
497.1635150167
 20
1189.3281979978
 40
4.7990381057
100
AcDbArc
 50
215.6935828234
 51
324.3064171766
  0
ARC
  5
4F7
100
AcDbEntity
  8
6_ALL_SURFS
100
AcDbCircle
 62
7
  6
CONTINUOUS
 10
497.1635150167
 20
1189.3281979978
 40
4.7990381057
100
AcDbArc
 50
133.171184019
 51
170.4039906056
  0
ARC
  5
4F8
100
AcDbEntity
  8
6_ALL_SURFS
100
AcDbCircle
 62
7
  6
CONTINUOUS
 10
747.1635150167
 20
1189.3281979978
 40
4.7990381057
100
AcDbArc
 50
133.171184019
 51
170.4039906056
  0
ARC
  5
4F9
100
AcDbEntity
  8
6_ALL_SURFS
100
AcDbCircle
 62
7
  6
CONTINUOUS
 10
497.1635150167
 20
1189.3281979978
 40
4.7990381057
100
AcDbArc
 50
9.5960093944
 51
46.828815981
  0
ARC
  5
4FA
100
AcDbEntity
  8
6_ALL_SURFS
100
AcDbCircle
 62
7
  6
CONTINUOUS
 10
997.1635150167
 20
1189.3281979978
 40
4.7990381057
100
AcDbArc
 50
133.171184019
 51
170.4039906056
  0
ARC
  5
4FB
100
AcDbEntity
  8
6_ALL_SURFS
100
AcDbCircle
 62
7
  6
CONTINUOUS
 10
747.1635150167
 20
1189.3281979978
 40
4.7990381057
100
AcDbArc
 50
9.5960093944
 51
46.828815981
  0
ARC
  5
4FC
100
AcDbEntity
  8
6_ALL_SURFS
100
AcDbCircle
 62
7
  6
CONTINUOUS
 10
1247.1635150167
 20
1189.3281979978
 40
4.7990381057
100
AcDbArc
 50
133.171184019
 51
170.4039906056
  0
ARC
  5
4FD
100
AcDbEntity
  8
6_ALL_SURFS
100
AcDbCircle
 62
7
  6
CONTINUOUS
 10
997.1635150167
 20
1189.3281979978
 40
4.7990381057
100
AcDbArc
 50
9.5960093944
 51
46.828815981
  0
ARC
  5
4FE
100
AcDbEntity
  8
6_ALL_SURFS
100
AcDbCircle
 62
7
  6
CONTINUOUS
 10
1497.1635150167
 20
1189.3281979978
 40
4.7990381057
100
AcDbArc
 50
133.171184019
 51
170.4039906056
  0
ARC
  5
4FF
100
AcDbEntity
  8
6_ALL_SURFS
100
AcDbCircle
 62
7
  6
CONTINUOUS
 10
1247.1635150167
 20
1189.3281979978
 40
4.7990381057
100
AcDbArc
 50
9.5960093944
 51
46.828815981
  0
ARC
  5
500
100
AcDbEntity
  8
6_ALL_SURFS
100
AcDbCircle
 62
7
  6
CONTINUOUS
 10
1497.1635150167
 20
1189.3281979978
 40
4.7990381057
100
AcDbArc
 50
9.5960093944
 51
46.828815981
  0
CIRCLE
  5
501
100
AcDbEntity
  8
6_ALL_SURFS
100
AcDbCircle
 62
7
  6
CONTINUOUS
 10
497.1635150167
 20
1189.3281979978
 40
3.5
  0
CIRCLE
  5
502
100
AcDbEntity
  8
6_ALL_SURFS
100
AcDbCircle
 62
7
  6
CONTINUOUS
 10
747.1635150167
 20
1189.3281979978
 40
3.5
  0
CIRCLE
  5
503
100
AcDbEntity
  8
6_ALL_SURFS
100
AcDbCircle
 62
7
  6
CONTINUOUS
 10
997.1635150167
 20
1189.3281979978
 40
3.5
  0
CIRCLE
  5
504
100
AcDbEntity
  8
6_ALL_SURFS
100
AcDbCircle
 62
7
  6
CONTINUOUS
 10
1247.1635150167
 20
1189.3281979978
 40
3.5
  0
CIRCLE
  5
505
100
AcDbEntity
  8
6_ALL_SURFS
100
AcDbCircle
 62
7
  6
CONTINUOUS
 10
1497.1635150167
 20
1189.3281979978
 40
3.5
  0
ARC
  5
506
100
AcDbEntity
  8
7_ALL_FEATURES
100
AcDbCircle
 62
7
  6
CONTINUOUS
 10
2997.1635150167
 20
1091.4281979978
 40
4.7990381057
100
AcDbArc
 50
35.6935828234
 51
144.3064171766
  0
ARC
  5
507
100
AcDbEntity
  8
7_ALL_FEATURES
100
AcDbCircle
 62
7
  6
CONTINUOUS
 10
2747.1635150167
 20
1091.4281979978
 40
4.7990381057
100
AcDbArc
 50
35.6935828234
 51
144.3064171766
  0
ARC
  5
508
100
AcDbEntity
  8
7_ALL_FEATURES
100
AcDbCircle
 62
7
  6
CONTINUOUS
 10
2497.1635150167
 20
1091.4281979978
 40
4.7990381057
100
AcDbArc
 50
35.6935828234
 51
144.3064171766
  0
ARC
  5
509
100
AcDbEntity
  8
7_ALL_FEATURES
100
AcDbCircle
 62
7
  6
CONTINUOUS
 10
2247.1635150167
 20
1091.4281979978
 40
4.7990381057
100
AcDbArc
 50
35.6935828234
 51
144.3064171766
  0
ARC
  5
50A
100
AcDbEntity
  8
7_ALL_FEATURES
100
AcDbCircle
 62
7
  6
CONTINUOUS
 10
1997.1635150167
 20
1091.4281979978
 40
4.7990381057
100
AcDbArc
 50
35.6935828234
 51
144.3064171766
  0
ARC
  5
50B
100
AcDbEntity
  8
7_ALL_FEATURES
100
AcDbCircle
 62
7
  6
CONTINUOUS
 10
1747.1635150167
 20
1091.4281979978
 40
4.7990381057
100
AcDbArc
 50
35.6935828234
 51
144.3064171766
  0
ARC
  5
50C
100
AcDbEntity
  8
7_ALL_FEATURES
100
AcDbCircle
 62
7
  6
CONTINUOUS
 10
2997.1635150167
 20
1091.4281979978
 40
4.7990381057
100
AcDbArc
 50
357.6115056179
 51
27.2855350899
  0
ARC
  5
50D
100
AcDbEntity
  8
7_ALL_FEATURES
100
AcDbCircle
 62
7
  6
CONTINUOUS
 10
2747.1635150167
 20
1091.4281979978
 40
4.7990381057
100
AcDbArc
 50
357.6115056179
 51
27.2855350899
  0
ARC
  5
50E
100
AcDbEntity
  8
7_ALL_FEATURES
100
AcDbCircle
 62
7
  6
CONTINUOUS
 10
2997.1635150167
 20
1091.4281979978
 40
4.7990381057
100
AcDbArc
 50
152.7144649101
 51
182.3884943821
  0
ARC
  5
50F
100
AcDbEntity
  8
7_ALL_FEATURES
100
AcDbCircle
 62
7
  6
CONTINUOUS
 10
2497.1635150167
 20
1091.4281979978
 40
4.7990381057
100
AcDbArc
 50
357.6115056179
 51
27.2855350899
  0
ARC
  5
510
100
AcDbEntity
  8
7_ALL_FEATURES
100
AcDbCircle
 62
7
  6
CONTINUOUS
 10
2747.1635150167
 20
1091.4281979978
 40
4.7990381057
100
AcDbArc
 50
152.7144649101
 51
182.3884943821
  0
ARC
  5
511
100
AcDbEntity
  8
7_ALL_FEATURES
100
AcDbCircle
 62
7
  6
CONTINUOUS
 10
2247.1635150167
 20
1091.4281979978
 40
4.7990381057
100
AcDbArc
 50
357.6115056179
 51
27.2855350899
  0
ARC
  5
512
100
AcDbEntity
  8
7_ALL_FEATURES
100
AcDbCircle
 62
7
  6
CONTINUOUS
 10
2497.1635150167
 20
1091.4281979978
 40
4.7990381057
100
AcDbArc
 50
152.7144649101
 51
182.3884943821
  0
ARC
  5
513
100
AcDbEntity
  8
7_ALL_FEATURES
100
AcDbCircle
 62
7
  6
CONTINUOUS
 10
1997.1635150167
 20
1091.4281979978
 40
4.7990381057
100
AcDbArc
 50
357.6115056179
 51
27.2855350899
  0
ARC
  5
514
100
AcDbEntity
  8
7_ALL_FEATURES
100
AcDbCircle
 62
7
  6
CONTINUOUS
 10
2247.1635150167
 20
1091.4281979978
 40
4.7990381057
100
AcDbArc
 50
152.7144649101
 51
182.3884943821
  0
ARC
  5
515
100
AcDbEntity
  8
7_ALL_FEATURES
100
AcDbCircle
 62
7
  6
CONTINUOUS
 10
1747.1635150167
 20
1091.4281979978
 40
4.7990381057
100
AcDbArc
 50
357.6115056179
 51
27.2855350899
  0
ARC
  5
516
100
AcDbEntity
  8
7_ALL_FEATURES
100
AcDbCircle
 62
7
  6
CONTINUOUS
 10
1997.1635150167
 20
1091.4281979978
 40
4.7990381057
100
AcDbArc
 50
152.7144649101
 51
182.3884943821
  0
ARC
  5
517
100
AcDbEntity
  8
7_ALL_FEATURES
100
AcDbCircle
 62
7
  6
CONTINUOUS
 10
1747.1635150167
 20
1091.4281979978
 40
4.7990381057
100
AcDbArc
 50
152.7144649101
 51
182.3884943821
  0
ARC
  5
518
100
AcDbEntity
  8
7_ALL_FEATURES
100
AcDbCircle
 62
7
  6
CONTINUOUS
 10
2997.1635150167
 20
1091.4281979978
 40
4.7990381057
100
AcDbArc
 50
313.171184019
 51
350.4039906056
  0
ARC
  5
519
100
AcDbEntity
  8
7_ALL_FEATURES
100
AcDbCircle
 62
7
  6
CONTINUOUS
 10
2747.1635150167
 20
1091.4281979978
 40
4.7990381057
100
AcDbArc
 50
313.171184019
 51
350.4039906056
  0
ARC
  5
51A
100
AcDbEntity
  8
7_ALL_FEATURES
100
AcDbCircle
 62
7
  6
CONTINUOUS
 10
2997.1635150167
 20
1091.4281979978
 40
4.7990381057
100
AcDbArc
 50
189.5960093944
 51
226.828815981
  0
ARC
  5
51B
100
AcDbEntity
  8
7_ALL_FEATURES
100
AcDbCircle
 62
7
  6
CONTINUOUS
 10
2497.1635150167
 20
1091.4281979978
 40
4.7990381057
100
AcDbArc
 50
313.171184019
 51
350.4039906056
  0
ARC
  5
51C
100
AcDbEntity
  8
7_ALL_FEATURES
100
AcDbCircle
 62
7
  6
CONTINUOUS
 10
2747.1635150167
 20
1091.4281979978
 40
4.7990381057
100
AcDbArc
 50
189.5960093944
 51
226.828815981
  0
ARC
  5
51D
100
AcDbEntity
  8
7_ALL_FEATURES
100
AcDbCircle
 62
7
  6
CONTINUOUS
 10
2247.1635150167
 20
1091.4281979978
 40
4.7990381057
100
AcDbArc
 50
313.171184019
 51
350.4039906056
  0
ARC
  5
51E
100
AcDbEntity
  8
7_ALL_FEATURES
100
AcDbCircle
 62
7
  6
CONTINUOUS
 10
2497.1635150167
 20
1091.4281979978
 40
4.7990381057
100
AcDbArc
 50
189.5960093944
 51
226.828815981
  0
ARC
  5
51F
100
AcDbEntity
  8
7_ALL_FEATURES
100
AcDbCircle
 62
7
  6
CONTINUOUS
 10
1997.1635150167
 20
1091.4281979978
 40
4.7990381057
100
AcDbArc
 50
313.171184019
 51
350.4039906056
  0
ARC
  5
520
100
AcDbEntity
  8
7_ALL_FEATURES
100
AcDbCircle
 62
7
  6
CONTINUOUS
 10
2247.1635150167
 20
1091.4281979978
 40
4.7990381057
100
AcDbArc
 50
189.5960093944
 51
226.828815981
  0
ARC
  5
521
100
AcDbEntity
  8
7_ALL_FEATURES
100
AcDbCircle
 62
7
  6
CONTINUOUS
 10
1747.1635150167
 20
1091.4281979978
 40
4.7990381057
100
AcDbArc
 50
313.171184019
 51
350.4039906056
  0
ARC
  5
522
100
AcDbEntity
  8
7_ALL_FEATURES
100
AcDbCircle
 62
7
  6
CONTINUOUS
 10
1997.1635150167
 20
1091.4281979978
 40
4.7990381057
100
AcDbArc
 50
189.5960093944
 51
226.828815981
  0
ARC
  5
523
100
AcDbEntity
  8
7_ALL_FEATURES
100
AcDbCircle
 62
7
  6
CONTINUOUS
 10
1747.1635150167
 20
1091.4281979978
 40
4.7990381057
100
AcDbArc
 50
189.5960093944
 51
226.828815981
  0
CIRCLE
  5
524
100
AcDbEntity
  8
6_ALL_SURFS
100
AcDbCircle
 62
7
  6
CONTINUOUS
 10
1747.1635150167
 20
1091.4281979978
 40
3.5
  0
CIRCLE
  5
525
100
AcDbEntity
  8
6_ALL_SURFS
100
AcDbCircle
 62
7
  6
CONTINUOUS
 10
1997.1635150167
 20
1091.4281979978
 40
3.5
  0
CIRCLE
  5
526
100
AcDbEntity
  8
6_ALL_SURFS
100
AcDbCircle
 62
7
  6
CONTINUOUS
 10
2247.1635150167
 20
1091.4281979978
 40
3.5
  0
CIRCLE
  5
527
100
AcDbEntity
  8
6_ALL_SURFS
100
AcDbCircle
 62
7
  6
CONTINUOUS
 10
2497.1635150167
 20
1091.4281979978
 40
3.5
  0
CIRCLE
  5
528
100
AcDbEntity
  8
6_ALL_SURFS
100
AcDbCircle
 62
7
  6
CONTINUOUS
 10
2747.1635150167
 20
1091.4281979978
 40
3.5
  0
CIRCLE
  5
529
100
AcDbEntity
  8
6_ALL_SURFS
100
AcDbCircle
 62
7
  6
CONTINUOUS
 10
2997.1635150167
 20
1091.4281979978
 40
3.5
  0
ARC
  5
52A
100
AcDbEntity
  8
6_ALL_SURFS
100
AcDbCircle
 62
7
  6
CONTINUOUS
 10
1747.1635150167
 20
1189.3281979978
 40
4.7990381057
100
AcDbArc
 50
177.6115056179
 51
207.2855350899
  0
ARC
  5
52B
100
AcDbEntity
  8
6_ALL_SURFS
100
AcDbCircle
 62
7
  6
CONTINUOUS
 10
1997.1635150167
 20
1189.3281979978
 40
4.7990381057
100
AcDbArc
 50
177.6115056179
 51
207.2855350899
  0
ARC
  5
52C
100
AcDbEntity
  8
6_ALL_SURFS
100
AcDbCircle
 62
7
  6
CONTINUOUS
 10
1747.1635150167
 20
1189.3281979978
 40
4.7990381057
100
AcDbArc
 50
332.7144649101
 51
2.3884943821
  0
ARC
  5
52D
100
AcDbEntity
  8
6_ALL_SURFS
100
AcDbCircle
 62
7
  6
CONTINUOUS
 10
2247.1635150167
 20
1189.3281979978
 40
4.7990381057
100
AcDbArc
 50
177.6115056179
 51
207.2855350899
  0
ARC
  5
52E
100
AcDbEntity
  8
6_ALL_SURFS
100
AcDbCircle
 62
7
  6
CONTINUOUS
 10
1997.1635150167
 20
1189.3281979978
 40
4.7990381057
100
AcDbArc
 50
332.7144649101
 51
2.3884943821
  0
ARC
  5
52F
100
AcDbEntity
  8
6_ALL_SURFS
100
AcDbCircle
 62
7
  6
CONTINUOUS
 10
2497.1635150167
 20
1189.3281979978
 40
4.7990381057
100
AcDbArc
 50
177.6115056179
 51
207.2855350899
  0
ARC
  5
530
100
AcDbEntity
  8
6_ALL_SURFS
100
AcDbCircle
 62
7
  6
CONTINUOUS
 10
2247.1635150167
 20
1189.3281979978
 40
4.7990381057
100
AcDbArc
 50
332.7144649101
 51
2.3884943821
  0
ARC
  5
531
100
AcDbEntity
  8
6_ALL_SURFS
100
AcDbCircle
 62
7
  6
CONTINUOUS
 10
2747.1635150167
 20
1189.3281979978
 40
4.7990381057
100
AcDbArc
 50
177.6115056179
 51
207.2855350899
  0
ARC
  5
532
100
AcDbEntity
  8
6_ALL_SURFS
100
AcDbCircle
 62
7
  6
CONTINUOUS
 10
2497.1635150167
 20
1189.3281979978
 40
4.7990381057
100
AcDbArc
 50
332.7144649101
 51
2.3884943821
  0
ARC
  5
533
100
AcDbEntity
  8
6_ALL_SURFS
100
AcDbCircle
 62
7
  6
CONTINUOUS
 10
2997.1635150167
 20
1189.3281979978
 40
4.7990381057
100
AcDbArc
 50
177.6115056179
 51
207.2855350899
  0
ARC
  5
534
100
AcDbEntity
  8
6_ALL_SURFS
100
AcDbCircle
 62
7
  6
CONTINUOUS
 10
2747.1635150167
 20
1189.3281979978
 40
4.7990381057
100
AcDbArc
 50
332.7144649101
 51
2.3884943821
  0
ARC
  5
535
100
AcDbEntity
  8
6_ALL_SURFS
100
AcDbCircle
 62
7
  6
CONTINUOUS
 10
2997.1635150167
 20
1189.3281979978
 40
4.7990381057
100
AcDbArc
 50
332.7144649101
 51
2.3884943821
  0
ARC
  5
536
100
AcDbEntity
  8
6_ALL_SURFS
100
AcDbCircle
 62
7
  6
CONTINUOUS
 10
2997.1635150167
 20
1189.3281979978
 40
4.7990381057
100
AcDbArc
 50
215.6935828234
 51
324.3064171766
  0
ARC
  5
537
100
AcDbEntity
  8
6_ALL_SURFS
100
AcDbCircle
 62
7
  6
CONTINUOUS
 10
2747.1635150167
 20
1189.3281979978
 40
4.7990381057
100
AcDbArc
 50
215.6935828234
 51
324.3064171766
  0
ARC
  5
538
100
AcDbEntity
  8
6_ALL_SURFS
100
AcDbCircle
 62
7
  6
CONTINUOUS
 10
2497.1635150167
 20
1189.3281979978
 40
4.7990381057
100
AcDbArc
 50
215.6935828234
 51
324.3064171766
  0
ARC
  5
539
100
AcDbEntity
  8
6_ALL_SURFS
100
AcDbCircle
 62
7
  6
CONTINUOUS
 10
2247.1635150167
 20
1189.3281979978
 40
4.7990381057
100
AcDbArc
 50
215.6935828234
 51
324.3064171766
  0
ARC
  5
53A
100
AcDbEntity
  8
6_ALL_SURFS
100
AcDbCircle
 62
7
  6
CONTINUOUS
 10
1997.1635150167
 20
1189.3281979978
 40
4.7990381057
100
AcDbArc
 50
215.6935828234
 51
324.3064171766
  0
ARC
  5
53B
100
AcDbEntity
  8
6_ALL_SURFS
100
AcDbCircle
 62
7
  6
CONTINUOUS
 10
1747.1635150167
 20
1189.3281979978
 40
4.7990381057
100
AcDbArc
 50
215.6935828234
 51
324.3064171766
  0
ARC
  5
53C
100
AcDbEntity
  8
6_ALL_SURFS
100
AcDbCircle
 62
7
  6
CONTINUOUS
 10
1747.1635150167
 20
1189.3281979978
 40
4.7990381057
100
AcDbArc
 50
133.171184019
 51
170.4039906056
  0
ARC
  5
53D
100
AcDbEntity
  8
6_ALL_SURFS
100
AcDbCircle
 62
7
  6
CONTINUOUS
 10
1997.1635150167
 20
1189.3281979978
 40
4.7990381057
100
AcDbArc
 50
133.171184019
 51
170.4039906056
  0
ARC
  5
53E
100
AcDbEntity
  8
6_ALL_SURFS
100
AcDbCircle
 62
7
  6
CONTINUOUS
 10
1747.1635150167
 20
1189.3281979978
 40
4.7990381057
100
AcDbArc
 50
9.5960093944
 51
46.828815981
  0
ARC
  5
53F
100
AcDbEntity
  8
6_ALL_SURFS
100
AcDbCircle
 62
7
  6
CONTINUOUS
 10
2247.1635150167
 20
1189.3281979978
 40
4.7990381057
100
AcDbArc
 50
133.171184019
 51
170.4039906056
  0
ARC
  5
540
100
AcDbEntity
  8
6_ALL_SURFS
100
AcDbCircle
 62
7
  6
CONTINUOUS
 10
1997.1635150167
 20
1189.3281979978
 40
4.7990381057
100
AcDbArc
 50
9.5960093944
 51
46.828815981
  0
ARC
  5
541
100
AcDbEntity
  8
6_ALL_SURFS
100
AcDbCircle
 62
7
  6
CONTINUOUS
 10
2497.1635150167
 20
1189.3281979978
 40
4.7990381057
100
AcDbArc
 50
133.171184019
 51
170.4039906056
  0
ARC
  5
542
100
AcDbEntity
  8
6_ALL_SURFS
100
AcDbCircle
 62
7
  6
CONTINUOUS
 10
2247.1635150167
 20
1189.3281979978
 40
4.7990381057
100
AcDbArc
 50
9.5960093944
 51
46.828815981
  0
ARC
  5
543
100
AcDbEntity
  8
6_ALL_SURFS
100
AcDbCircle
 62
7
  6
CONTINUOUS
 10
2747.1635150167
 20
1189.3281979978
 40
4.7990381057
100
AcDbArc
 50
133.171184019
 51
170.4039906056
  0
ARC
  5
544
100
AcDbEntity
  8
6_ALL_SURFS
100
AcDbCircle
 62
7
  6
CONTINUOUS
 10
2497.1635150167
 20
1189.3281979978
 40
4.7990381057
100
AcDbArc
 50
9.5960093944
 51
46.828815981
  0
ARC
  5
545
100
AcDbEntity
  8
6_ALL_SURFS
100
AcDbCircle
 62
7
  6
CONTINUOUS
 10
2997.1635150167
 20
1189.3281979978
 40
4.7990381057
100
AcDbArc
 50
133.171184019
 51
170.4039906056
  0
ARC
  5
546
100
AcDbEntity
  8
6_ALL_SURFS
100
AcDbCircle
 62
7
  6
CONTINUOUS
 10
2747.1635150167
 20
1189.3281979978
 40
4.7990381057
100
AcDbArc
 50
9.5960093944
 51
46.828815981
  0
ARC
  5
547
100
AcDbEntity
  8
6_ALL_SURFS
100
AcDbCircle
 62
7
  6
CONTINUOUS
 10
2997.1635150167
 20
1189.3281979978
 40
4.7990381057
100
AcDbArc
 50
9.5960093944
 51
46.828815981
  0
CIRCLE
  5
548
100
AcDbEntity
  8
6_ALL_SURFS
100
AcDbCircle
 62
7
  6
CONTINUOUS
 10
1747.1635150167
 20
1189.3281979978
 40
3.5
  0
CIRCLE
  5
549
100
AcDbEntity
  8
6_ALL_SURFS
100
AcDbCircle
 62
7
  6
CONTINUOUS
 10
1997.1635150167
 20
1189.3281979978
 40
3.5
  0
CIRCLE
  5
54A
100
AcDbEntity
  8
6_ALL_SURFS
100
AcDbCircle
 62
7
  6
CONTINUOUS
 10
2247.1635150167
 20
1189.3281979978
 40
3.5
  0
CIRCLE
  5
54B
100
AcDbEntity
  8
6_ALL_SURFS
100
AcDbCircle
 62
7
  6
CONTINUOUS
 10
2497.1635150167
 20
1189.3281979978
 40
3.5
  0
CIRCLE
  5
54C
100
AcDbEntity
  8
6_ALL_SURFS
100
AcDbCircle
 62
7
  6
CONTINUOUS
 10
2747.1635150167
 20
1189.3281979978
 40
3.5
  0
CIRCLE
  5
54D
100
AcDbEntity
  8
6_ALL_SURFS
100
AcDbCircle
 62
7
  6
CONTINUOUS
 10
2997.1635150167
 20
1189.3281979978
 40
3.5
  0
SPLINE
  5
54E
100
AcDbEntity
  8
6_ALL_SURFS
100
AcDbSpline
 62
7
  6
CONTINUOUS
 70
0
 71
3
 72
9
 73
5
 74
0
 42
0.0000001
 43
0.0000001
 44
0.0000000001
 40
0.0
 40
0.0
 40
0.0
 40
0.0
 40
0.5055960863
 40
1.0
 40
1.0
 40
1.0
 40
1.0
 10
1751.9583838094
 20
1189.5281979978
 30
0.0
 10
1751.86565825
 20
1189.597299284
 30
0.0
 10
1751.6905003391
 20
1189.8002269429
 30
0.0
 10
1751.8101220716
 20
1190.0539375362
 30
0.0
 10
1751.8954033015
 20
1190.1281979978
 30
0.0
  0
SPLINE
  5
54F
100
AcDbEntity
  8
6_ALL_SURFS
100
AcDbSpline
 62
7
  6
CONTINUOUS
 70
0
 71
3
 72
9
 73
5
 74
0
 42
0.0000001
 43
0.0000001
 44
0.0000000001
 40
0.0
 40
0.0
 40
0.0
 40
0.0
 40
0.4937401151
 40
1.0
 40
1.0
 40
1.0
 40
1.0
 10
2242.4316267319
 20
1190.1281979978
 30
0.0
 10
2242.5167693764
 20
1190.0540582124
 30
0.0
 10
2242.6361807832
 20
1189.8005915871
 30
0.0
 10
2242.4614672662
 20
1189.59737044
 30
0.0
 10
2242.3686462239
 20
1189.5281979978
 30
0.0
  0
SPLINE
  5
550
100
AcDbEntity
  8
6_ALL_SURFS
100
AcDbSpline
 62
7
  6
CONTINUOUS
 70
0
 71
3
 72
9
 73
5
 74
0
 42
0.0000001
 43
0.0000001
 44
0.0000000001
 40
0.0
 40
0.0
 40
0.0
 40
0.0
 40
0.5055960863
 40
1.0
 40
1.0
 40
1.0
 40
1.0
 10
2001.9583838094
 20
1189.5281979978
 30
0.0
 10
2001.86565825
 20
1189.597299284
 30
0.0
 10
2001.6905003391
 20
1189.8002269429
 30
0.0
 10
2001.8101220716
 20
1190.0539375362
 30
0.0
 10
2001.8954033015
 20
1190.1281979978
 30
0.0
  0
SPLINE
  5
551
100
AcDbEntity
  8
6_ALL_SURFS
100
AcDbSpline
 62
7
  6
CONTINUOUS
 70
0
 71
3
 72
9
 73
5
 74
0
 42
0.0000001
 43
0.0000001
 44
0.0000000001
 40
0.0
 40
0.0
 40
0.0
 40
0.0
 40
0.4937401151
 40
1.0
 40
1.0
 40
1.0
 40
1.0
 10
2492.4316267319
 20
1190.1281979978
 30
0.0
 10
2492.5167693764
 20
1190.0540582124
 30
0.0
 10
2492.6361807832
 20
1189.8005915871
 30
0.0
 10
2492.4614672662
 20
1189.59737044
 30
0.0
 10
2492.3686462239
 20
1189.5281979978
 30
0.0
  0
SPLINE
  5
552
100
AcDbEntity
  8
6_ALL_SURFS
100
AcDbSpline
 62
7
  6
CONTINUOUS
 70
0
 71
3
 72
9
 73
5
 74
0
 42
0.0000001
 43
0.0000001
 44
0.0000000001
 40
0.0
 40
0.0
 40
0.0
 40
0.0
 40
0.5055960863
 40
1.0
 40
1.0
 40
1.0
 40
1.0
 10
2251.9583838094
 20
1189.5281979978
 30
0.0
 10
2251.86565825
 20
1189.597299284
 30
0.0
 10
2251.6905003391
 20
1189.8002269429
 30
0.0
 10
2251.8101220716
 20
1190.0539375362
 30
0.0
 10
2251.8954033015
 20
1190.1281979978
 30
0.0
  0
SPLINE
  5
553
100
AcDbEntity
  8
6_ALL_SURFS
100
AcDbSpline
 62
7
  6
CONTINUOUS
 70
0
 71
3
 72
9
 73
5
 74
0
 42
0.0000001
 43
0.0000001
 44
0.0000000001
 40
0.0
 40
0.0
 40
0.0
 40
0.0
 40
0.4937401151
 40
1.0
 40
1.0
 40
1.0
 40
1.0
 10
2742.4316267319
 20
1190.1281979978
 30
0.0
 10
2742.5167693764
 20
1190.0540582124
 30
0.0
 10
2742.6361807832
 20
1189.8005915871
 30
0.0
 10
2742.4614672662
 20
1189.59737044
 30
0.0
 10
2742.3686462239
 20
1189.5281979978
 30
0.0
  0
SPLINE
  5
554
100
AcDbEntity
  8
6_ALL_SURFS
100
AcDbSpline
 62
7
  6
CONTINUOUS
 70
0
 71
3
 72
9
 73
5
 74
0
 42
0.0000001
 43
0.0000001
 44
0.0000000001
 40
0.0
 40
0.0
 40
0.0
 40
0.0
 40
0.5055960863
 40
1.0
 40
1.0
 40
1.0
 40
1.0
 10
2501.9583838094
 20
1189.5281979978
 30
0.0
 10
2501.86565825
 20
1189.597299284
 30
0.0
 10
2501.6905003391
 20
1189.8002269429
 30
0.0
 10
2501.8101220716
 20
1190.0539375362
 30
0.0
 10
2501.8954033015
 20
1190.1281979978
 30
0.0
  0
SPLINE
  5
555
100
AcDbEntity
  8
6_ALL_SURFS
100
AcDbSpline
 62
7
  6
CONTINUOUS
 70
0
 71
3
 72
9
 73
5
 74
0
 42
0.0000001
 43
0.0000001
 44
0.0000000001
 40
0.0
 40
0.0
 40
0.0
 40
0.0
 40
0.4937401151
 40
1.0
 40
1.0
 40
1.0
 40
1.0
 10
2992.4316267319
 20
1190.1281979978
 30
0.0
 10
2992.5167693764
 20
1190.0540582124
 30
0.0
 10
2992.6361807832
 20
1189.8005915871
 30
0.0
 10
2992.4614672662
 20
1189.59737044
 30
0.0
 10
2992.3686462239
 20
1189.5281979978
 30
0.0
  0
SPLINE
  5
556
100
AcDbEntity
  8
6_ALL_SURFS
100
AcDbSpline
 62
7
  6
CONTINUOUS
 70
0
 71
3
 72
9
 73
5
 74
0
 42
0.0000001
 43
0.0000001
 44
0.0000000001
 40
0.0
 40
0.0
 40
0.0
 40
0.0
 40
0.5055960863
 40
1.0
 40
1.0
 40
1.0
 40
1.0
 10
2751.9583838094
 20
1189.5281979978
 30
0.0
 10
2751.86565825
 20
1189.597299284
 30
0.0
 10
2751.6905003391
 20
1189.8002269429
 30
0.0
 10
2751.8101220716
 20
1190.0539375362
 30
0.0
 10
2751.8954033015
 20
1190.1281979978
 30
0.0
  0
SPLINE
  5
557
100
AcDbEntity
  8
6_ALL_SURFS
100
AcDbSpline
 62
7
  6
CONTINUOUS
 70
0
 71
3
 72
9
 73
5
 74
0
 42
0.0000001
 43
0.0000001
 44
0.0000000001
 40
0.0
 40
0.0
 40
0.0
 40
0.0
 40
0.5055960863
 40
1.0
 40
1.0
 40
1.0
 40
1.0
 10
3001.9583838094
 20
1189.5281979978
 30
0.0
 10
3001.86565825
 20
1189.597299284
 30
0.0
 10
3001.6905003391
 20
1189.8002269429
 30
0.0
 10
3001.8101220716
 20
1190.0539375362
 30
0.0
 10
3001.8954033015
 20
1190.1281979978
 30
0.0
  0
SPLINE
  5
558
100
AcDbEntity
  8
6_ALL_SURFS
100
AcDbSpline
 62
7
  6
CONTINUOUS
 70
0
 71
3
 72
10
 73
6
 74
0
 42
0.0000001
 43
0.0000001
 44
0.0000000001
 40
0.0
 40
0.0
 40
0.0
 40
0.0
 40
0.5048165551
 40
0.7633484119
 40
1.0
 40
1.0
 40
1.0
 40
1.0
 10
492.8984515072
 20
1187.1281979978
 30
0.0
 10
493.0182185773
 20
1187.0676328943
 30
0.0
 10
493.1898789292
 20
1186.9561385331
 30
0.0
 10
493.3503608124
 20
1186.722593952
 30
0.0
 10
493.3075749487
 20
1186.5754039307
 30
0.0
 10
493.2659815993
 20
1186.5281979978
 30
0.0
  0
SPLINE
  5
559
100
AcDbEntity
  8
6_ALL_SURFS
100
AcDbSpline
 62
7
  6
CONTINUOUS
 70
0
 71
3
 72
10
 73
6
 74
0
 42
0.0000001
 43
0.0000001
 44
0.0000000001
 40
0.0
 40
0.0
 40
0.0
 40
0.0
 40
0.5048165551
 40
0.7633484119
 40
1.0
 40
1.0
 40
1.0
 40
1.0
 10
742.8984515072
 20
1187.1281979978
 30
0.0
 10
743.0182185773
 20
1187.0676328943
 30
0.0
 10
743.1898789292
 20
1186.9561385331
 30
0.0
 10
743.3503608124
 20
1186.722593952
 30
0.0
 10
743.3075749487
 20
1186.5754039307
 30
0.0
 10
743.2659815993
 20
1186.5281979978
 30
0.0
  0
SPLINE
  5
55A
100
AcDbEntity
  8
6_ALL_SURFS
100
AcDbSpline
 62
7
  6
CONTINUOUS
 70
0
 71
3
 72
11
 73
7
 74
0
 42
0.0000001
 43
0.0000001
 44
0.0000000001
 40
0.0
 40
0.0
 40
0.0
 40
0.0
 40
0.2332111058
 40
0.4922043119
 40
0.7492259914
 40
1.0
 40
1.0
 40
1.0
 40
1.0
 10
501.0610484341
 20
1186.5281979978
 30
0.0
 10
501.0199908336
 20
1186.5747958881
 30
0.0
 10
500.9774159317
 20
1186.7206610431
 30
0.0
 10
501.0964316018
 20
1186.8979998162
 30
0.0
 10
501.2513824836
 20
1187.029141851
 30
0.0
 10
501.368982648
 20
1187.0980609115
 30
0.0
 10
501.4285785261
 20
1187.1281979978
 30
0.0
  0
SPLINE
  5
55B
100
AcDbEntity
  8
6_ALL_SURFS
100
AcDbSpline
 62
7
  6
CONTINUOUS
 70
0
 71
3
 72
10
 73
6
 74
0
 42
0.0000001
 43
0.0000001
 44
0.0000000001
 40
0.0
 40
0.0
 40
0.0
 40
0.0
 40
0.5048165551
 40
0.7633484119
 40
1.0
 40
1.0
 40
1.0
 40
1.0
 10
992.8984515072
 20
1187.1281979978
 30
0.0
 10
993.0182185773
 20
1187.0676328943
 30
0.0
 10
993.1898789292
 20
1186.9561385331
 30
0.0
 10
993.3503608124
 20
1186.722593952
 30
0.0
 10
993.3075749487
 20
1186.5754039307
 30
0.0
 10
993.2659815993
 20
1186.5281979978
 30
0.0
  0
SPLINE
  5
55C
100
AcDbEntity
  8
6_ALL_SURFS
100
AcDbSpline
 62
7
  6
CONTINUOUS
 70
0
 71
3
 72
11
 73
7
 74
0
 42
0.0000001
 43
0.0000001
 44
0.0000000001
 40
0.0
 40
0.0
 40
0.0
 40
0.0
 40
0.2332111058
 40
0.4922043119
 40
0.7492259914
 40
1.0
 40
1.0
 40
1.0
 40
1.0
 10
751.0610484341
 20
1186.5281979978
 30
0.0
 10
751.0199908336
 20
1186.5747958881
 30
0.0
 10
750.9774159317
 20
1186.7206610431
 30
0.0
 10
751.0964316018
 20
1186.8979998162
 30
0.0
 10
751.2513824836
 20
1187.029141851
 30
0.0
 10
751.368982648
 20
1187.0980609115
 30
0.0
 10
751.4285785261
 20
1187.1281979978
 30
0.0
  0
SPLINE
  5
55D
100
AcDbEntity
  8
6_ALL_SURFS
100
AcDbSpline
 62
7
  6
CONTINUOUS
 70
0
 71
3
 72
10
 73
6
 74
0
 42
0.0000001
 43
0.0000001
 44
0.0000000001
 40
0.0
 40
0.0
 40
0.0
 40
0.0
 40
0.5048165551
 40
0.7633484119
 40
1.0
 40
1.0
 40
1.0
 40
1.0
 10
1242.8984515072
 20
1187.1281979978
 30
0.0
 10
1243.0182185773
 20
1187.0676328943
 30
0.0
 10
1243.1898789292
 20
1186.9561385331
 30
0.0
 10
1243.3503608124
 20
1186.722593952
 30
0.0
 10
1243.3075749487
 20
1186.5754039307
 30
0.0
 10
1243.2659815993
 20
1186.5281979978
 30
0.0
  0
SPLINE
  5
55E
100
AcDbEntity
  8
6_ALL_SURFS
100
AcDbSpline
 62
7
  6
CONTINUOUS
 70
0
 71
3
 72
11
 73
7
 74
0
 42
0.0000001
 43
0.0000001
 44
0.0000000001
 40
0.0
 40
0.0
 40
0.0
 40
0.0
 40
0.2332111058
 40
0.4922043119
 40
0.7492259914
 40
1.0
 40
1.0
 40
1.0
 40
1.0
 10
1001.0610484341
 20
1186.5281979978
 30
0.0
 10
1001.0199908336
 20
1186.5747958881
 30
0.0
 10
1000.9774159317
 20
1186.7206610431
 30
0.0
 10
1001.0964316018
 20
1186.8979998162
 30
0.0
 10
1001.2513824836
 20
1187.029141851
 30
0.0
 10
1001.368982648
 20
1187.0980609115
 30
0.0
 10
1001.4285785261
 20
1187.1281979978
 30
0.0
  0
SPLINE
  5
55F
100
AcDbEntity
  8
6_ALL_SURFS
100
AcDbSpline
 62
7
  6
CONTINUOUS
 70
0
 71
3
 72
10
 73
6
 74
0
 42
0.0000001
 43
0.0000001
 44
0.0000000001
 40
0.0
 40
0.0
 40
0.0
 40
0.0
 40
0.5048165551
 40
0.7633484119
 40
1.0
 40
1.0
 40
1.0
 40
1.0
 10
1492.8984515072
 20
1187.1281979978
 30
0.0
 10
1493.0182185773
 20
1187.0676328943
 30
0.0
 10
1493.1898789292
 20
1186.9561385331
 30
0.0
 10
1493.3503608124
 20
1186.722593952
 30
0.0
 10
1493.3075749487
 20
1186.5754039307
 30
0.0
 10
1493.2659815993
 20
1186.5281979978
 30
0.0
  0
SPLINE
  5
560
100
AcDbEntity
  8
6_ALL_SURFS
100
AcDbSpline
 62
7
  6
CONTINUOUS
 70
0
 71
3
 72
11
 73
7
 74
0
 42
0.0000001
 43
0.0000001
 44
0.0000000001
 40
0.0
 40
0.0
 40
0.0
 40
0.0
 40
0.2332111058
 40
0.4922043119
 40
0.7492259914
 40
1.0
 40
1.0
 40
1.0
 40
1.0
 10
1251.0610484341
 20
1186.5281979978
 30
0.0
 10
1251.0199908336
 20
1186.5747958881
 30
0.0
 10
1250.9774159317
 20
1186.7206610431
 30
0.0
 10
1251.0964316018
 20
1186.8979998162
 30
0.0
 10
1251.2513824836
 20
1187.029141851
 30
0.0
 10
1251.368982648
 20
1187.0980609115
 30
0.0
 10
1251.4285785261
 20
1187.1281979978
 30
0.0
  0
SPLINE
  5
561
100
AcDbEntity
  8
7_ALL_FEATURES
100
AcDbSpline
 62
7
  6
CONTINUOUS
 70
0
 71
3
 72
11
 73
7
 74
0
 42
0.0000001
 43
0.0000001
 44
0.0000000001
 40
0.0
 40
0.0
 40
0.0
 40
0.0
 40
0.2332111058
 40
0.4922043119
 40
0.7492259914
 40
1.0
 40
1.0
 40
1.0
 40
1.0
 10
3001.0610484341
 20
1094.2281979978
 30
0.0
 10
3001.0199908336
 20
1094.1816001075
 30
0.0
 10
3000.9774159317
 20
1094.0357349525
 30
0.0
 10
3001.0964316018
 20
1093.8583961793
 30
0.0
 10
3001.2513824836
 20
1093.7272541445
 30
0.0
 10
3001.368982648
 20
1093.6583350841
 30
0.0
 10
3001.4285785261
 20
1093.6281979978
 30
0.0
  0
SPLINE
  5
562
100
AcDbEntity
  8
7_ALL_FEATURES
100
AcDbSpline
 62
7
  6
CONTINUOUS
 70
0
 71
3
 72
11
 73
7
 74
0
 42
0.0000001
 43
0.0000001
 44
0.0000000001
 40
0.0
 40
0.0
 40
0.0
 40
0.0
 40
0.2332111058
 40
0.4922043119
 40
0.7492259914
 40
1.0
 40
1.0
 40
1.0
 40
1.0
 10
2751.0610484341
 20
1094.2281979978
 30
0.0
 10
2751.0199908336
 20
1094.1816001075
 30
0.0
 10
2750.9774159317
 20
1094.0357349525
 30
0.0
 10
2751.0964316018
 20
1093.8583961793
 30
0.0
 10
2751.2513824836
 20
1093.7272541445
 30
0.0
 10
2751.368982648
 20
1093.6583350841
 30
0.0
 10
2751.4285785261
 20
1093.6281979978
 30
0.0
  0
SPLINE
  5
563
100
AcDbEntity
  8
7_ALL_FEATURES
100
AcDbSpline
 62
7
  6
CONTINUOUS
 70
0
 71
3
 72
10
 73
6
 74
0
 42
0.0000001
 43
0.0000001
 44
0.0000000001
 40
0.0
 40
0.0
 40
0.0
 40
0.0
 40
0.5048165551
 40
0.7633484119
 40
1.0
 40
1.0
 40
1.0
 40
1.0
 10
2992.8984515072
 20
1093.6281979978
 30
0.0
 10
2993.0182185773
 20
1093.6887631012
 30
0.0
 10
2993.1898789292
 20
1093.8002574624
 30
0.0
 10
2993.3503608124
 20
1094.0338020436
 30
0.0
 10
2993.3075749487
 20
1094.1809920649
 30
0.0
 10
2993.2659815993
 20
1094.2281979978
 30
0.0
  0
SPLINE
  5
564
100
AcDbEntity
  8
7_ALL_FEATURES
100
AcDbSpline
 62
7
  6
CONTINUOUS
 70
0
 71
3
 72
11
 73
7
 74
0
 42
0.0000001
 43
0.0000001
 44
0.0000000001
 40
0.0
 40
0.0
 40
0.0
 40
0.0
 40
0.2332111058
 40
0.4922043119
 40
0.7492259914
 40
1.0
 40
1.0
 40
1.0
 40
1.0
 10
2501.0610484341
 20
1094.2281979978
 30
0.0
 10
2501.0199908336
 20
1094.1816001075
 30
0.0
 10
2500.9774159317
 20
1094.0357349525
 30
0.0
 10
2501.0964316018
 20
1093.8583961793
 30
0.0
 10
2501.2513824836
 20
1093.7272541445
 30
0.0
 10
2501.368982648
 20
1093.6583350841
 30
0.0
 10
2501.4285785261
 20
1093.6281979978
 30
0.0
  0
SPLINE
  5
565
100
AcDbEntity
  8
7_ALL_FEATURES
100
AcDbSpline
 62
7
  6
CONTINUOUS
 70
0
 71
3
 72
10
 73
6
 74
0
 42
0.0000001
 43
0.0000001
 44
0.0000000001
 40
0.0
 40
0.0
 40
0.0
 40
0.0
 40
0.5048165551
 40
0.7633484119
 40
1.0
 40
1.0
 40
1.0
 40
1.0
 10
2742.8984515072
 20
1093.6281979978
 30
0.0
 10
2743.0182185773
 20
1093.6887631012
 30
0.0
 10
2743.1898789292
 20
1093.8002574624
 30
0.0
 10
2743.3503608124
 20
1094.0338020436
 30
0.0
 10
2743.3075749487
 20
1094.1809920649
 30
0.0
 10
2743.2659815993
 20
1094.2281979978
 30
0.0
  0
SPLINE
  5
566
100
AcDbEntity
  8
7_ALL_FEATURES
100
AcDbSpline
 62
7
  6
CONTINUOUS
 70
0
 71
3
 72
11
 73
7
 74
0
 42
0.0000001
 43
0.0000001
 44
0.0000000001
 40
0.0
 40
0.0
 40
0.0
 40
0.0
 40
0.2332111058
 40
0.4922043119
 40
0.7492259914
 40
1.0
 40
1.0
 40
1.0
 40
1.0
 10
2251.0610484341
 20
1094.2281979978
 30
0.0
 10
2251.0199908336
 20
1094.1816001075
 30
0.0
 10
2250.9774159317
 20
1094.0357349525
 30
0.0
 10
2251.0964316018
 20
1093.8583961793
 30
0.0
 10
2251.2513824836
 20
1093.7272541445
 30
0.0
 10
2251.368982648
 20
1093.6583350841
 30
0.0
 10
2251.4285785261
 20
1093.6281979978
 30
0.0
  0
SPLINE
  5
567
100
AcDbEntity
  8
7_ALL_FEATURES
100
AcDbSpline
 62
7
  6
CONTINUOUS
 70
0
 71
3
 72
10
 73
6
 74
0
 42
0.0000001
 43
0.0000001
 44
0.0000000001
 40
0.0
 40
0.0
 40
0.0
 40
0.0
 40
0.5048165551
 40
0.7633484119
 40
1.0
 40
1.0
 40
1.0
 40
1.0
 10
2492.8984515072
 20
1093.6281979978
 30
0.0
 10
2493.0182185773
 20
1093.6887631012
 30
0.0
 10
2493.1898789292
 20
1093.8002574624
 30
0.0
 10
2493.3503608124
 20
1094.0338020436
 30
0.0
 10
2493.3075749487
 20
1094.1809920649
 30
0.0
 10
2493.2659815993
 20
1094.2281979978
 30
0.0
  0
SPLINE
  5
568
100
AcDbEntity
  8
7_ALL_FEATURES
100
AcDbSpline
 62
7
  6
CONTINUOUS
 70
0
 71
3
 72
11
 73
7
 74
0
 42
0.0000001
 43
0.0000001
 44
0.0000000001
 40
0.0
 40
0.0
 40
0.0
 40
0.0
 40
0.2332111058
 40
0.4922043119
 40
0.7492259914
 40
1.0
 40
1.0
 40
1.0
 40
1.0
 10
2001.0610484341
 20
1094.2281979978
 30
0.0
 10
2001.0199908336
 20
1094.1816001075
 30
0.0
 10
2000.9774159317
 20
1094.0357349525
 30
0.0
 10
2001.0964316018
 20
1093.8583961793
 30
0.0
 10
2001.2513824836
 20
1093.7272541445
 30
0.0
 10
2001.368982648
 20
1093.6583350841
 30
0.0
 10
2001.4285785261
 20
1093.6281979978
 30
0.0
  0
SPLINE
  5
569
100
AcDbEntity
  8
7_ALL_FEATURES
100
AcDbSpline
 62
7
  6
CONTINUOUS
 70
0
 71
3
 72
10
 73
6
 74
0
 42
0.0000001
 43
0.0000001
 44
0.0000000001
 40
0.0
 40
0.0
 40
0.0
 40
0.0
 40
0.5048165551
 40
0.7633484119
 40
1.0
 40
1.0
 40
1.0
 40
1.0
 10
2242.8984515072
 20
1093.6281979978
 30
0.0
 10
2243.0182185773
 20
1093.6887631012
 30
0.0
 10
2243.1898789292
 20
1093.8002574624
 30
0.0
 10
2243.3503608124
 20
1094.0338020436
 30
0.0
 10
2243.3075749487
 20
1094.1809920649
 30
0.0
 10
2243.2659815993
 20
1094.2281979978
 30
0.0
  0
SPLINE
  5
56A
100
AcDbEntity
  8
7_ALL_FEATURES
100
AcDbSpline
 62
7
  6
CONTINUOUS
 70
0
 71
3
 72
11
 73
7
 74
0
 42
0.0000001
 43
0.0000001
 44
0.0000000001
 40
0.0
 40
0.0
 40
0.0
 40
0.0
 40
0.2332111058
 40
0.4922043119
 40
0.7492259914
 40
1.0
 40
1.0
 40
1.0
 40
1.0
 10
1751.0610484341
 20
1094.2281979978
 30
0.0
 10
1751.0199908336
 20
1094.1816001075
 30
0.0
 10
1750.9774159317
 20
1094.0357349525
 30
0.0
 10
1751.0964316018
 20
1093.8583961793
 30
0.0
 10
1751.2513824836
 20
1093.7272541445
 30
0.0
 10
1751.368982648
 20
1093.6583350841
 30
0.0
 10
1751.4285785261
 20
1093.6281979978
 30
0.0
  0
SPLINE
  5
56B
100
AcDbEntity
  8
7_ALL_FEATURES
100
AcDbSpline
 62
7
  6
CONTINUOUS
 70
0
 71
3
 72
10
 73
6
 74
0
 42
0.0000001
 43
0.0000001
 44
0.0000000001
 40
0.0
 40
0.0
 40
0.0
 40
0.0
 40
0.5048165551
 40
0.7633484119
 40
1.0
 40
1.0
 40
1.0
 40
1.0
 10
1992.8984515072
 20
1093.6281979978
 30
0.0
 10
1993.0182185773
 20
1093.6887631012
 30
0.0
 10
1993.1898789292
 20
1093.8002574624
 30
0.0
 10
1993.3503608124
 20
1094.0338020436
 30
0.0
 10
1993.3075749487
 20
1094.1809920649
 30
0.0
 10
1993.2659815993
 20
1094.2281979978
 30
0.0
  0
SPLINE
  5
56C
100
AcDbEntity
  8
7_ALL_FEATURES
100
AcDbSpline
 62
7
  6
CONTINUOUS
 70
0
 71
3
 72
11
 73
7
 74
0
 42
0.0000001
 43
0.0000001
 44
0.0000000001
 40
0.0
 40
0.0
 40
0.0
 40
0.0
 40
0.2332111058
 40
0.4922043119
 40
0.7492259914
 40
1.0
 40
1.0
 40
1.0
 40
1.0
 10
1501.0610484341
 20
1094.2281979978
 30
0.0
 10
1501.0199908336
 20
1094.1816001075
 30
0.0
 10
1500.9774159317
 20
1094.0357349525
 30
0.0
 10
1501.0964316018
 20
1093.8583961793
 30
0.0
 10
1501.2513824836
 20
1093.7272541445
 30
0.0
 10
1501.368982648
 20
1093.6583350841
 30
0.0
 10
1501.4285785261
 20
1093.6281979978
 30
0.0
  0
SPLINE
  5
56D
100
AcDbEntity
  8
7_ALL_FEATURES
100
AcDbSpline
 62
7
  6
CONTINUOUS
 70
0
 71
3
 72
10
 73
6
 74
0
 42
0.0000001
 43
0.0000001
 44
0.0000000001
 40
0.0
 40
0.0
 40
0.0
 40
0.0
 40
0.5048165551
 40
0.7633484119
 40
1.0
 40
1.0
 40
1.0
 40
1.0
 10
1742.8984515072
 20
1093.6281979978
 30
0.0
 10
1743.0182185773
 20
1093.6887631012
 30
0.0
 10
1743.1898789292
 20
1093.8002574624
 30
0.0
 10
1743.3503608124
 20
1094.0338020436
 30
0.0
 10
1743.3075749487
 20
1094.1809920649
 30
0.0
 10
1743.2659815993
 20
1094.2281979978
 30
0.0
  0
SPLINE
  5
56E
100
AcDbEntity
  8
7_ALL_FEATURES
100
AcDbSpline
 62
7
  6
CONTINUOUS
 70
0
 71
3
 72
11
 73
7
 74
0
 42
0.0000001
 43
0.0000001
 44
0.0000000001
 40
0.0
 40
0.0
 40
0.0
 40
0.0
 40
0.2332111058
 40
0.4922043119
 40
0.7492259914
 40
1.0
 40
1.0
 40
1.0
 40
1.0
 10
1251.0610484341
 20
1094.2281979978
 30
0.0
 10
1251.0199908336
 20
1094.1816001075
 30
0.0
 10
1250.9774159317
 20
1094.0357349525
 30
0.0
 10
1251.0964316018
 20
1093.8583961793
 30
0.0
 10
1251.2513824836
 20
1093.7272541445
 30
0.0
 10
1251.368982648
 20
1093.6583350841
 30
0.0
 10
1251.4285785261
 20
1093.6281979978
 30
0.0
  0
SPLINE
  5
56F
100
AcDbEntity
  8
7_ALL_FEATURES
100
AcDbSpline
 62
7
  6
CONTINUOUS
 70
0
 71
3
 72
10
 73
6
 74
0
 42
0.0000001
 43
0.0000001
 44
0.0000000001
 40
0.0
 40
0.0
 40
0.0
 40
0.0
 40
0.5048165551
 40
0.7633484119
 40
1.0
 40
1.0
 40
1.0
 40
1.0
 10
1492.8984515072
 20
1093.6281979978
 30
0.0
 10
1493.0182185773
 20
1093.6887631012
 30
0.0
 10
1493.1898789292
 20
1093.8002574624
 30
0.0
 10
1493.3503608124
 20
1094.0338020436
 30
0.0
 10
1493.3075749487
 20
1094.1809920649
 30
0.0
 10
1493.2659815993
 20
1094.2281979978
 30
0.0
  0
SPLINE
  5
570
100
AcDbEntity
  8
7_ALL_FEATURES
100
AcDbSpline
 62
7
  6
CONTINUOUS
 70
0
 71
3
 72
11
 73
7
 74
0
 42
0.0000001
 43
0.0000001
 44
0.0000000001
 40
0.0
 40
0.0
 40
0.0
 40
0.0
 40
0.2332111058
 40
0.4922043119
 40
0.7492259914
 40
1.0
 40
1.0
 40
1.0
 40
1.0
 10
1001.0610484341
 20
1094.2281979978
 30
0.0
 10
1001.0199908336
 20
1094.1816001075
 30
0.0
 10
1000.9774159317
 20
1094.0357349525
 30
0.0
 10
1001.0964316018
 20
1093.8583961793
 30
0.0
 10
1001.2513824836
 20
1093.7272541445
 30
0.0
 10
1001.368982648
 20
1093.6583350841
 30
0.0
 10
1001.4285785261
 20
1093.6281979978
 30
0.0
  0
SPLINE
  5
571
100
AcDbEntity
  8
7_ALL_FEATURES
100
AcDbSpline
 62
7
  6
CONTINUOUS
 70
0
 71
3
 72
10
 73
6
 74
0
 42
0.0000001
 43
0.0000001
 44
0.0000000001
 40
0.0
 40
0.0
 40
0.0
 40
0.0
 40
0.5048165551
 40
0.7633484119
 40
1.0
 40
1.0
 40
1.0
 40
1.0
 10
1242.8984515072
 20
1093.6281979978
 30
0.0
 10
1243.0182185773
 20
1093.6887631012
 30
0.0
 10
1243.1898789292
 20
1093.8002574624
 30
0.0
 10
1243.3503608124
 20
1094.0338020436
 30
0.0
 10
1243.3075749487
 20
1094.1809920649
 30
0.0
 10
1243.2659815993
 20
1094.2281979978
 30
0.0
  0
SPLINE
  5
572
100
AcDbEntity
  8
7_ALL_FEATURES
100
AcDbSpline
 62
7
  6
CONTINUOUS
 70
0
 71
3
 72
11
 73
7
 74
0
 42
0.0000001
 43
0.0000001
 44
0.0000000001
 40
0.0
 40
0.0
 40
0.0
 40
0.0
 40
0.2332111058
 40
0.4922043119
 40
0.7492259914
 40
1.0
 40
1.0
 40
1.0
 40
1.0
 10
751.0610484341
 20
1094.2281979978
 30
0.0
 10
751.0199908336
 20
1094.1816001075
 30
0.0
 10
750.9774159317
 20
1094.0357349525
 30
0.0
 10
751.0964316018
 20
1093.8583961793
 30
0.0
 10
751.2513824836
 20
1093.7272541445
 30
0.0
 10
751.368982648
 20
1093.6583350841
 30
0.0
 10
751.4285785261
 20
1093.6281979978
 30
0.0
  0
SPLINE
  5
573
100
AcDbEntity
  8
7_ALL_FEATURES
100
AcDbSpline
 62
7
  6
CONTINUOUS
 70
0
 71
3
 72
10
 73
6
 74
0
 42
0.0000001
 43
0.0000001
 44
0.0000000001
 40
0.0
 40
0.0
 40
0.0
 40
0.0
 40
0.5048165551
 40
0.7633484119
 40
1.0
 40
1.0
 40
1.0
 40
1.0
 10
992.8984515072
 20
1093.6281979978
 30
0.0
 10
993.0182185773
 20
1093.6887631012
 30
0.0
 10
993.1898789292
 20
1093.8002574624
 30
0.0
 10
993.3503608124
 20
1094.0338020436
 30
0.0
 10
993.3075749487
 20
1094.1809920649
 30
0.0
 10
993.2659815993
 20
1094.2281979978
 30
0.0
  0
SPLINE
  5
574
100
AcDbEntity
  8
7_ALL_FEATURES
100
AcDbSpline
 62
7
  6
CONTINUOUS
 70
0
 71
3
 72
11
 73
7
 74
0
 42
0.0000001
 43
0.0000001
 44
0.0000000001
 40
0.0
 40
0.0
 40
0.0
 40
0.0
 40
0.2332111058
 40
0.4922043119
 40
0.7492259914
 40
1.0
 40
1.0
 40
1.0
 40
1.0
 10
501.0610484341
 20
1094.2281979978
 30
0.0
 10
501.0199908336
 20
1094.1816001075
 30
0.0
 10
500.9774159317
 20
1094.0357349525
 30
0.0
 10
501.0964316018
 20
1093.8583961793
 30
0.0
 10
501.2513824836
 20
1093.7272541445
 30
0.0
 10
501.368982648
 20
1093.6583350841
 30
0.0
 10
501.4285785261
 20
1093.6281979978
 30
0.0
  0
SPLINE
  5
575
100
AcDbEntity
  8
7_ALL_FEATURES
100
AcDbSpline
 62
7
  6
CONTINUOUS
 70
0
 71
3
 72
10
 73
6
 74
0
 42
0.0000001
 43
0.0000001
 44
0.0000000001
 40
0.0
 40
0.0
 40
0.0
 40
0.0
 40
0.5048165551
 40
0.7633484119
 40
1.0
 40
1.0
 40
1.0
 40
1.0
 10
742.8984515072
 20
1093.6281979978
 30
0.0
 10
743.0182185773
 20
1093.6887631012
 30
0.0
 10
743.1898789292
 20
1093.8002574624
 30
0.0
 10
743.3503608124
 20
1094.0338020436
 30
0.0
 10
743.3075749487
 20
1094.1809920649
 30
0.0
 10
743.2659815993
 20
1094.2281979978
 30
0.0
  0
SPLINE
  5
576
100
AcDbEntity
  8
7_ALL_FEATURES
100
AcDbSpline
 62
7
  6
CONTINUOUS
 70
0
 71
3
 72
10
 73
6
 74
0
 42
0.0000001
 43
0.0000001
 44
0.0000000001
 40
0.0
 40
0.0
 40
0.0
 40
0.0
 40
0.5048165551
 40
0.7633484119
 40
1.0
 40
1.0
 40
1.0
 40
1.0
 10
492.8984515072
 20
1093.6281979978
 30
0.0
 10
493.0182185773
 20
1093.6887631012
 30
0.0
 10
493.1898789292
 20
1093.8002574624
 30
0.0
 10
493.3503608124
 20
1094.0338020436
 30
0.0
 10
493.3075749487
 20
1094.1809920649
 30
0.0
 10
493.2659815993
 20
1094.2281979978
 30
0.0
  0
SPLINE
  5
577
100
AcDbEntity
  8
7_ALL_FEATURES
100
AcDbSpline
 62
7
  6
CONTINUOUS
 70
0
 71
3
 72
9
 73
5
 74
0
 42
0.0000001
 43
0.0000001
 44
0.0000000001
 40
0.0
 40
0.0
 40
0.0
 40
0.0
 40
0.5055960863
 40
1.0
 40
1.0
 40
1.0
 40
1.0
 10
3001.9583838094
 20
1091.2281979978
 30
0.0
 10
3001.86565825
 20
1091.1590967116
 30
0.0
 10
3001.6905003391
 20
1090.9561690527
 30
0.0
 10
3001.8101220716
 20
1090.7024584594
 30
0.0
 10
3001.8954033015
 20
1090.6281979978
 30
0.0
  0
SPLINE
  5
578
100
AcDbEntity
  8
7_ALL_FEATURES
100
AcDbSpline
 62
7
  6
CONTINUOUS
 70
0
 71
3
 72
9
 73
5
 74
0
 42
0.0000001
 43
0.0000001
 44
0.0000000001
 40
0.0
 40
0.0
 40
0.0
 40
0.0
 40
0.5055960863
 40
1.0
 40
1.0
 40
1.0
 40
1.0
 10
2751.9583838094
 20
1091.2281979978
 30
0.0
 10
2751.86565825
 20
1091.1590967116
 30
0.0
 10
2751.6905003391
 20
1090.9561690527
 30
0.0
 10
2751.8101220716
 20
1090.7024584594
 30
0.0
 10
2751.8954033015
 20
1090.6281979978
 30
0.0
  0
SPLINE
  5
579
100
AcDbEntity
  8
7_ALL_FEATURES
100
AcDbSpline
 62
7
  6
CONTINUOUS
 70
0
 71
3
 72
9
 73
5
 74
0
 42
0.0000001
 43
0.0000001
 44
0.0000000001
 40
0.0
 40
0.0
 40
0.0
 40
0.0
 40
0.4937401151
 40
1.0
 40
1.0
 40
1.0
 40
1.0
 10
2992.4316267319
 20
1090.6281979978
 30
0.0
 10
2992.5167693764
 20
1090.7023377832
 30
0.0
 10
2992.6361807832
 20
1090.9558044084
 30
0.0
 10
2992.4614672662
 20
1091.1590255555
 30
0.0
 10
2992.3686462239
 20
1091.2281979978
 30
0.0
  0
SPLINE
  5
57A
100
AcDbEntity
  8
7_ALL_FEATURES
100
AcDbSpline
 62
7
  6
CONTINUOUS
 70
0
 71
3
 72
9
 73
5
 74
0
 42
0.0000001
 43
0.0000001
 44
0.0000000001
 40
0.0
 40
0.0
 40
0.0
 40
0.0
 40
0.5055960863
 40
1.0
 40
1.0
 40
1.0
 40
1.0
 10
2501.9583838094
 20
1091.2281979978
 30
0.0
 10
2501.86565825
 20
1091.1590967116
 30
0.0
 10
2501.6905003391
 20
1090.9561690527
 30
0.0
 10
2501.8101220716
 20
1090.7024584594
 30
0.0
 10
2501.8954033015
 20
1090.6281979978
 30
0.0
  0
SPLINE
  5
57B
100
AcDbEntity
  8
7_ALL_FEATURES
100
AcDbSpline
 62
7
  6
CONTINUOUS
 70
0
 71
3
 72
9
 73
5
 74
0
 42
0.0000001
 43
0.0000001
 44
0.0000000001
 40
0.0
 40
0.0
 40
0.0
 40
0.0
 40
0.4937401151
 40
1.0
 40
1.0
 40
1.0
 40
1.0
 10
2742.4316267319
 20
1090.6281979978
 30
0.0
 10
2742.5167693764
 20
1090.7023377832
 30
0.0
 10
2742.6361807832
 20
1090.9558044084
 30
0.0
 10
2742.4614672662
 20
1091.1590255555
 30
0.0
 10
2742.3686462239
 20
1091.2281979978
 30
0.0
  0
SPLINE
  5
57C
100
AcDbEntity
  8
7_ALL_FEATURES
100
AcDbSpline
 62
7
  6
CONTINUOUS
 70
0
 71
3
 72
9
 73
5
 74
0
 42
0.0000001
 43
0.0000001
 44
0.0000000001
 40
0.0
 40
0.0
 40
0.0
 40
0.0
 40
0.5055960863
 40
1.0
 40
1.0
 40
1.0
 40
1.0
 10
2251.9583838094
 20
1091.2281979978
 30
0.0
 10
2251.86565825
 20
1091.1590967116
 30
0.0
 10
2251.6905003391
 20
1090.9561690527
 30
0.0
 10
2251.8101220716
 20
1090.7024584594
 30
0.0
 10
2251.8954033015
 20
1090.6281979978
 30
0.0
  0
SPLINE
  5
57D
100
AcDbEntity
  8
7_ALL_FEATURES
100
AcDbSpline
 62
7
  6
CONTINUOUS
 70
0
 71
3
 72
9
 73
5
 74
0
 42
0.0000001
 43
0.0000001
 44
0.0000000001
 40
0.0
 40
0.0
 40
0.0
 40
0.0
 40
0.4937401151
 40
1.0
 40
1.0
 40
1.0
 40
1.0
 10
2492.4316267319
 20
1090.6281979978
 30
0.0
 10
2492.5167693764
 20
1090.7023377832
 30
0.0
 10
2492.6361807832
 20
1090.9558044084
 30
0.0
 10
2492.4614672662
 20
1091.1590255555
 30
0.0
 10
2492.3686462239
 20
1091.2281979978
 30
0.0
  0
SPLINE
  5
57E
100
AcDbEntity
  8
7_ALL_FEATURES
100
AcDbSpline
 62
7
  6
CONTINUOUS
 70
0
 71
3
 72
9
 73
5
 74
0
 42
0.0000001
 43
0.0000001
 44
0.0000000001
 40
0.0
 40
0.0
 40
0.0
 40
0.0
 40
0.5055960863
 40
1.0
 40
1.0
 40
1.0
 40
1.0
 10
2001.9583838094
 20
1091.2281979978
 30
0.0
 10
2001.86565825
 20
1091.1590967116
 30
0.0
 10
2001.6905003391
 20
1090.9561690527
 30
0.0
 10
2001.8101220716
 20
1090.7024584594
 30
0.0
 10
2001.8954033015
 20
1090.6281979978
 30
0.0
  0
SPLINE
  5
57F
100
AcDbEntity
  8
7_ALL_FEATURES
100
AcDbSpline
 62
7
  6
CONTINUOUS
 70
0
 71
3
 72
9
 73
5
 74
0
 42
0.0000001
 43
0.0000001
 44
0.0000000001
 40
0.0
 40
0.0
 40
0.0
 40
0.0
 40
0.4937401151
 40
1.0
 40
1.0
 40
1.0
 40
1.0
 10
2242.4316267319
 20
1090.6281979978
 30
0.0
 10
2242.5167693764
 20
1090.7023377832
 30
0.0
 10
2242.6361807832
 20
1090.9558044084
 30
0.0
 10
2242.4614672662
 20
1091.1590255555
 30
0.0
 10
2242.3686462239
 20
1091.2281979978
 30
0.0
  0
SPLINE
  5
580
100
AcDbEntity
  8
7_ALL_FEATURES
100
AcDbSpline
 62
7
  6
CONTINUOUS
 70
0
 71
3
 72
9
 73
5
 74
0
 42
0.0000001
 43
0.0000001
 44
0.0000000001
 40
0.0
 40
0.0
 40
0.0
 40
0.0
 40
0.5055960863
 40
1.0
 40
1.0
 40
1.0
 40
1.0
 10
1751.9583838094
 20
1091.2281979978
 30
0.0
 10
1751.86565825
 20
1091.1590967116
 30
0.0
 10
1751.6905003391
 20
1090.9561690527
 30
0.0
 10
1751.8101220716
 20
1090.7024584594
 30
0.0
 10
1751.8954033015
 20
1090.6281979978
 30
0.0
  0
SPLINE
  5
581
100
AcDbEntity
  8
7_ALL_FEATURES
100
AcDbSpline
 62
7
  6
CONTINUOUS
 70
0
 71
3
 72
9
 73
5
 74
0
 42
0.0000001
 43
0.0000001
 44
0.0000000001
 40
0.0
 40
0.0
 40
0.0
 40
0.0
 40
0.4937401151
 40
1.0
 40
1.0
 40
1.0
 40
1.0
 10
1992.4316267319
 20
1090.6281979978
 30
0.0
 10
1992.5167693764
 20
1090.7023377832
 30
0.0
 10
1992.6361807832
 20
1090.9558044084
 30
0.0
 10
1992.4614672662
 20
1091.1590255555
 30
0.0
 10
1992.3686462239
 20
1091.2281979978
 30
0.0
  0
SPLINE
  5
582
100
AcDbEntity
  8
7_ALL_FEATURES
100
AcDbSpline
 62
7
  6
CONTINUOUS
 70
0
 71
3
 72
9
 73
5
 74
0
 42
0.0000001
 43
0.0000001
 44
0.0000000001
 40
0.0
 40
0.0
 40
0.0
 40
0.0
 40
0.5055960863
 40
1.0
 40
1.0
 40
1.0
 40
1.0
 10
1501.9583838094
 20
1091.2281979978
 30
0.0
 10
1501.86565825
 20
1091.1590967116
 30
0.0
 10
1501.6905003391
 20
1090.9561690527
 30
0.0
 10
1501.8101220716
 20
1090.7024584594
 30
0.0
 10
1501.8954033015
 20
1090.6281979978
 30
0.0
  0
SPLINE
  5
583
100
AcDbEntity
  8
7_ALL_FEATURES
100
AcDbSpline
 62
7
  6
CONTINUOUS
 70
0
 71
3
 72
9
 73
5
 74
0
 42
0.0000001
 43
0.0000001
 44
0.0000000001
 40
0.0
 40
0.0
 40
0.0
 40
0.0
 40
0.4937401151
 40
1.0
 40
1.0
 40
1.0
 40
1.0
 10
1742.4316267319
 20
1090.6281979978
 30
0.0
 10
1742.5167693764
 20
1090.7023377832
 30
0.0
 10
1742.6361807832
 20
1090.9558044084
 30
0.0
 10
1742.4614672662
 20
1091.1590255555
 30
0.0
 10
1742.3686462239
 20
1091.2281979978
 30
0.0
  0
SPLINE
  5
584
100
AcDbEntity
  8
7_ALL_FEATURES
100
AcDbSpline
 62
7
  6
CONTINUOUS
 70
0
 71
3
 72
9
 73
5
 74
0
 42
0.0000001
 43
0.0000001
 44
0.0000000001
 40
0.0
 40
0.0
 40
0.0
 40
0.0
 40
0.5055960863
 40
1.0
 40
1.0
 40
1.0
 40
1.0
 10
1251.9583838094
 20
1091.2281979978
 30
0.0
 10
1251.86565825
 20
1091.1590967116
 30
0.0
 10
1251.6905003391
 20
1090.9561690527
 30
0.0
 10
1251.8101220716
 20
1090.7024584594
 30
0.0
 10
1251.8954033015
 20
1090.6281979978
 30
0.0
  0
SPLINE
  5
585
100
AcDbEntity
  8
7_ALL_FEATURES
100
AcDbSpline
 62
7
  6
CONTINUOUS
 70
0
 71
3
 72
9
 73
5
 74
0
 42
0.0000001
 43
0.0000001
 44
0.0000000001
 40
0.0
 40
0.0
 40
0.0
 40
0.0
 40
0.4937401151
 40
1.0
 40
1.0
 40
1.0
 40
1.0
 10
1492.4316267319
 20
1090.6281979978
 30
0.0
 10
1492.5167693764
 20
1090.7023377832
 30
0.0
 10
1492.6361807832
 20
1090.9558044084
 30
0.0
 10
1492.4614672662
 20
1091.1590255555
 30
0.0
 10
1492.3686462239
 20
1091.2281979978
 30
0.0
  0
SPLINE
  5
586
100
AcDbEntity
  8
7_ALL_FEATURES
100
AcDbSpline
 62
7
  6
CONTINUOUS
 70
0
 71
3
 72
9
 73
5
 74
0
 42
0.0000001
 43
0.0000001
 44
0.0000000001
 40
0.0
 40
0.0
 40
0.0
 40
0.0
 40
0.5055960863
 40
1.0
 40
1.0
 40
1.0
 40
1.0
 10
1001.9583838094
 20
1091.2281979978
 30
0.0
 10
1001.86565825
 20
1091.1590967116
 30
0.0
 10
1001.6905003391
 20
1090.9561690527
 30
0.0
 10
1001.8101220716
 20
1090.7024584594
 30
0.0
 10
1001.8954033015
 20
1090.6281979978
 30
0.0
  0
SPLINE
  5
587
100
AcDbEntity
  8
7_ALL_FEATURES
100
AcDbSpline
 62
7
  6
CONTINUOUS
 70
0
 71
3
 72
9
 73
5
 74
0
 42
0.0000001
 43
0.0000001
 44
0.0000000001
 40
0.0
 40
0.0
 40
0.0
 40
0.0
 40
0.4937401151
 40
1.0
 40
1.0
 40
1.0
 40
1.0
 10
1242.4316267319
 20
1090.6281979978
 30
0.0
 10
1242.5167693764
 20
1090.7023377832
 30
0.0
 10
1242.6361807832
 20
1090.9558044084
 30
0.0
 10
1242.4614672662
 20
1091.1590255555
 30
0.0
 10
1242.3686462239
 20
1091.2281979978
 30
0.0
  0
SPLINE
  5
588
100
AcDbEntity
  8
7_ALL_FEATURES
100
AcDbSpline
 62
7
  6
CONTINUOUS
 70
0
 71
3
 72
9
 73
5
 74
0
 42
0.0000001
 43
0.0000001
 44
0.0000000001
 40
0.0
 40
0.0
 40
0.0
 40
0.0
 40
0.5055960863
 40
1.0
 40
1.0
 40
1.0
 40
1.0
 10
751.9583838094
 20
1091.2281979978
 30
0.0
 10
751.86565825
 20
1091.1590967116
 30
0.0
 10
751.6905003391
 20
1090.9561690527
 30
0.0
 10
751.8101220716
 20
1090.7024584594
 30
0.0
 10
751.8954033015
 20
1090.6281979978
 30
0.0
  0
SPLINE
  5
589
100
AcDbEntity
  8
7_ALL_FEATURES
100
AcDbSpline
 62
7
  6
CONTINUOUS
 70
0
 71
3
 72
9
 73
5
 74
0
 42
0.0000001
 43
0.0000001
 44
0.0000000001
 40
0.0
 40
0.0
 40
0.0
 40
0.0
 40
0.4937401151
 40
1.0
 40
1.0
 40
1.0
 40
1.0
 10
992.4316267319
 20
1090.6281979978
 30
0.0
 10
992.5167693764
 20
1090.7023377832
 30
0.0
 10
992.6361807832
 20
1090.9558044084
 30
0.0
 10
992.4614672662
 20
1091.1590255555
 30
0.0
 10
992.3686462239
 20
1091.2281979978
 30
0.0
  0
SPLINE
  5
58A
100
AcDbEntity
  8
7_ALL_FEATURES
100
AcDbSpline
 62
7
  6
CONTINUOUS
 70
0
 71
3
 72
9
 73
5
 74
0
 42
0.0000001
 43
0.0000001
 44
0.0000000001
 40
0.0
 40
0.0
 40
0.0
 40
0.0
 40
0.5055960863
 40
1.0
 40
1.0
 40
1.0
 40
1.0
 10
501.9583838094
 20
1091.2281979978
 30
0.0
 10
501.86565825
 20
1091.1590967116
 30
0.0
 10
501.6905003391
 20
1090.9561690527
 30
0.0
 10
501.8101220716
 20
1090.7024584594
 30
0.0
 10
501.8954033015
 20
1090.6281979978
 30
0.0
  0
SPLINE
  5
58B
100
AcDbEntity
  8
7_ALL_FEATURES
100
AcDbSpline
 62
7
  6
CONTINUOUS
 70
0
 71
3
 72
9
 73
5
 74
0
 42
0.0000001
 43
0.0000001
 44
0.0000000001
 40
0.0
 40
0.0
 40
0.0
 40
0.0
 40
0.4937401151
 40
1.0
 40
1.0
 40
1.0
 40
1.0
 10
742.4316267319
 20
1090.6281979978
 30
0.0
 10
742.5167693764
 20
1090.7023377832
 30
0.0
 10
742.6361807832
 20
1090.9558044084
 30
0.0
 10
742.4614672662
 20
1091.1590255555
 30
0.0
 10
742.3686462239
 20
1091.2281979978
 30
0.0
  0
SPLINE
  5
58C
100
AcDbEntity
  8
7_ALL_FEATURES
100
AcDbSpline
 62
7
  6
CONTINUOUS
 70
0
 71
3
 72
9
 73
5
 74
0
 42
0.0000001
 43
0.0000001
 44
0.0000000001
 40
0.0
 40
0.0
 40
0.0
 40
0.0
 40
0.4937401151
 40
1.0
 40
1.0
 40
1.0
 40
1.0
 10
492.4316267319
 20
1090.6281979978
 30
0.0
 10
492.5167693764
 20
1090.7023377832
 30
0.0
 10
492.6361807832
 20
1090.9558044084
 30
0.0
 10
492.4614672662
 20
1091.1590255555
 30
0.0
 10
492.3686462239
 20
1091.2281979978
 30
0.0
  0
SPLINE
  5
58D
100
AcDbEntity
  8
6_ALL_SURFS
100
AcDbSpline
 62
7
  6
CONTINUOUS
 70
0
 71
3
 72
10
 73
6
 74
0
 42
0.0000001
 43
0.0000001
 44
0.0000000001
 40
0.0
 40
0.0
 40
0.0
 40
0.0
 40
0.5048165551
 40
0.7633484119
 40
1.0
 40
1.0
 40
1.0
 40
1.0
 10
1742.8984515072
 20
1187.1281979978
 30
0.0
 10
1743.0182185773
 20
1187.0676328943
 30
0.0
 10
1743.1898789292
 20
1186.9561385331
 30
0.0
 10
1743.3503608124
 20
1186.722593952
 30
0.0
 10
1743.3075749487
 20
1186.5754039307
 30
0.0
 10
1743.2659815993
 20
1186.5281979978
 30
0.0
  0
SPLINE
  5
58E
100
AcDbEntity
  8
6_ALL_SURFS
100
AcDbSpline
 62
7
  6
CONTINUOUS
 70
0
 71
3
 72
11
 73
7
 74
0
 42
0.0000001
 43
0.0000001
 44
0.0000000001
 40
0.0
 40
0.0
 40
0.0
 40
0.0
 40
0.2332111058
 40
0.4922043119
 40
0.7492259914
 40
1.0
 40
1.0
 40
1.0
 40
1.0
 10
1501.0610484341
 20
1186.5281979978
 30
0.0
 10
1501.0199908336
 20
1186.5747958881
 30
0.0
 10
1500.9774159317
 20
1186.7206610431
 30
0.0
 10
1501.0964316018
 20
1186.8979998162
 30
0.0
 10
1501.2513824836
 20
1187.029141851
 30
0.0
 10
1501.368982648
 20
1187.0980609115
 30
0.0
 10
1501.4285785261
 20
1187.1281979978
 30
0.0
  0
SPLINE
  5
58F
100
AcDbEntity
  8
6_ALL_SURFS
100
AcDbSpline
 62
7
  6
CONTINUOUS
 70
0
 71
3
 72
10
 73
6
 74
0
 42
0.0000001
 43
0.0000001
 44
0.0000000001
 40
0.0
 40
0.0
 40
0.0
 40
0.0
 40
0.5048165551
 40
0.7633484119
 40
1.0
 40
1.0
 40
1.0
 40
1.0
 10
1992.8984515072
 20
1187.1281979978
 30
0.0
 10
1993.0182185773
 20
1187.0676328943
 30
0.0
 10
1993.1898789292
 20
1186.9561385331
 30
0.0
 10
1993.3503608124
 20
1186.722593952
 30
0.0
 10
1993.3075749487
 20
1186.5754039307
 30
0.0
 10
1993.2659815993
 20
1186.5281979978
 30
0.0
  0
SPLINE
  5
590
100
AcDbEntity
  8
6_ALL_SURFS
100
AcDbSpline
 62
7
  6
CONTINUOUS
 70
0
 71
3
 72
11
 73
7
 74
0
 42
0.0000001
 43
0.0000001
 44
0.0000000001
 40
0.0
 40
0.0
 40
0.0
 40
0.0
 40
0.2332111058
 40
0.4922043119
 40
0.7492259914
 40
1.0
 40
1.0
 40
1.0
 40
1.0
 10
1751.0610484341
 20
1186.5281979978
 30
0.0
 10
1751.0199908336
 20
1186.5747958881
 30
0.0
 10
1750.9774159317
 20
1186.7206610431
 30
0.0
 10
1751.0964316018
 20
1186.8979998162
 30
0.0
 10
1751.2513824836
 20
1187.029141851
 30
0.0
 10
1751.368982648
 20
1187.0980609115
 30
0.0
 10
1751.4285785261
 20
1187.1281979978
 30
0.0
  0
SPLINE
  5
591
100
AcDbEntity
  8
6_ALL_SURFS
100
AcDbSpline
 62
7
  6
CONTINUOUS
 70
0
 71
3
 72
10
 73
6
 74
0
 42
0.0000001
 43
0.0000001
 44
0.0000000001
 40
0.0
 40
0.0
 40
0.0
 40
0.0
 40
0.5048165551
 40
0.7633484119
 40
1.0
 40
1.0
 40
1.0
 40
1.0
 10
2242.8984515072
 20
1187.1281979978
 30
0.0
 10
2243.0182185773
 20
1187.0676328943
 30
0.0
 10
2243.1898789292
 20
1186.9561385331
 30
0.0
 10
2243.3503608124
 20
1186.722593952
 30
0.0
 10
2243.3075749487
 20
1186.5754039307
 30
0.0
 10
2243.2659815993
 20
1186.5281979978
 30
0.0
  0
SPLINE
  5
592
100
AcDbEntity
  8
6_ALL_SURFS
100
AcDbSpline
 62
7
  6
CONTINUOUS
 70
0
 71
3
 72
11
 73
7
 74
0
 42
0.0000001
 43
0.0000001
 44
0.0000000001
 40
0.0
 40
0.0
 40
0.0
 40
0.0
 40
0.2332111058
 40
0.4922043119
 40
0.7492259914
 40
1.0
 40
1.0
 40
1.0
 40
1.0
 10
2001.0610484341
 20
1186.5281979978
 30
0.0
 10
2001.0199908336
 20
1186.5747958881
 30
0.0
 10
2000.9774159317
 20
1186.7206610431
 30
0.0
 10
2001.0964316018
 20
1186.8979998162
 30
0.0
 10
2001.2513824836
 20
1187.029141851
 30
0.0
 10
2001.368982648
 20
1187.0980609115
 30
0.0
 10
2001.4285785261
 20
1187.1281979978
 30
0.0
  0
SPLINE
  5
593
100
AcDbEntity
  8
6_ALL_SURFS
100
AcDbSpline
 62
7
  6
CONTINUOUS
 70
0
 71
3
 72
10
 73
6
 74
0
 42
0.0000001
 43
0.0000001
 44
0.0000000001
 40
0.0
 40
0.0
 40
0.0
 40
0.0
 40
0.5048165551
 40
0.7633484119
 40
1.0
 40
1.0
 40
1.0
 40
1.0
 10
2492.8984515072
 20
1187.1281979978
 30
0.0
 10
2493.0182185773
 20
1187.0676328943
 30
0.0
 10
2493.1898789292
 20
1186.9561385331
 30
0.0
 10
2493.3503608124
 20
1186.722593952
 30
0.0
 10
2493.3075749487
 20
1186.5754039307
 30
0.0
 10
2493.2659815993
 20
1186.5281979978
 30
0.0
  0
SPLINE
  5
594
100
AcDbEntity
  8
6_ALL_SURFS
100
AcDbSpline
 62
7
  6
CONTINUOUS
 70
0
 71
3
 72
11
 73
7
 74
0
 42
0.0000001
 43
0.0000001
 44
0.0000000001
 40
0.0
 40
0.0
 40
0.0
 40
0.0
 40
0.2332111058
 40
0.4922043119
 40
0.7492259914
 40
1.0
 40
1.0
 40
1.0
 40
1.0
 10
2251.0610484341
 20
1186.5281979978
 30
0.0
 10
2251.0199908336
 20
1186.5747958881
 30
0.0
 10
2250.9774159317
 20
1186.7206610431
 30
0.0
 10
2251.0964316018
 20
1186.8979998162
 30
0.0
 10
2251.2513824836
 20
1187.029141851
 30
0.0
 10
2251.368982648
 20
1187.0980609115
 30
0.0
 10
2251.4285785261
 20
1187.1281979978
 30
0.0
  0
SPLINE
  5
595
100
AcDbEntity
  8
6_ALL_SURFS
100
AcDbSpline
 62
7
  6
CONTINUOUS
 70
0
 71
3
 72
10
 73
6
 74
0
 42
0.0000001
 43
0.0000001
 44
0.0000000001
 40
0.0
 40
0.0
 40
0.0
 40
0.0
 40
0.5048165551
 40
0.7633484119
 40
1.0
 40
1.0
 40
1.0
 40
1.0
 10
2742.8984515072
 20
1187.1281979978
 30
0.0
 10
2743.0182185773
 20
1187.0676328943
 30
0.0
 10
2743.1898789292
 20
1186.9561385331
 30
0.0
 10
2743.3503608124
 20
1186.722593952
 30
0.0
 10
2743.3075749487
 20
1186.5754039307
 30
0.0
 10
2743.2659815993
 20
1186.5281979978
 30
0.0
  0
SPLINE
  5
596
100
AcDbEntity
  8
6_ALL_SURFS
100
AcDbSpline
 62
7
  6
CONTINUOUS
 70
0
 71
3
 72
11
 73
7
 74
0
 42
0.0000001
 43
0.0000001
 44
0.0000000001
 40
0.0
 40
0.0
 40
0.0
 40
0.0
 40
0.2332111058
 40
0.4922043119
 40
0.7492259914
 40
1.0
 40
1.0
 40
1.0
 40
1.0
 10
2501.0610484341
 20
1186.5281979978
 30
0.0
 10
2501.0199908336
 20
1186.5747958881
 30
0.0
 10
2500.9774159317
 20
1186.7206610431
 30
0.0
 10
2501.0964316018
 20
1186.8979998162
 30
0.0
 10
2501.2513824836
 20
1187.029141851
 30
0.0
 10
2501.368982648
 20
1187.0980609115
 30
0.0
 10
2501.4285785261
 20
1187.1281979978
 30
0.0
  0
SPLINE
  5
597
100
AcDbEntity
  8
6_ALL_SURFS
100
AcDbSpline
 62
7
  6
CONTINUOUS
 70
0
 71
3
 72
10
 73
6
 74
0
 42
0.0000001
 43
0.0000001
 44
0.0000000001
 40
0.0
 40
0.0
 40
0.0
 40
0.0
 40
0.5048165551
 40
0.7633484119
 40
1.0
 40
1.0
 40
1.0
 40
1.0
 10
2992.8984515072
 20
1187.1281979978
 30
0.0
 10
2993.0182185773
 20
1187.0676328943
 30
0.0
 10
2993.1898789292
 20
1186.9561385331
 30
0.0
 10
2993.3503608124
 20
1186.722593952
 30
0.0
 10
2993.3075749487
 20
1186.5754039307
 30
0.0
 10
2993.2659815993
 20
1186.5281979978
 30
0.0
  0
SPLINE
  5
598
100
AcDbEntity
  8
6_ALL_SURFS
100
AcDbSpline
 62
7
  6
CONTINUOUS
 70
0
 71
3
 72
11
 73
7
 74
0
 42
0.0000001
 43
0.0000001
 44
0.0000000001
 40
0.0
 40
0.0
 40
0.0
 40
0.0
 40
0.2332111058
 40
0.4922043119
 40
0.7492259914
 40
1.0
 40
1.0
 40
1.0
 40
1.0
 10
2751.0610484341
 20
1186.5281979978
 30
0.0
 10
2751.0199908336
 20
1186.5747958881
 30
0.0
 10
2750.9774159317
 20
1186.7206610431
 30
0.0
 10
2751.0964316018
 20
1186.8979998162
 30
0.0
 10
2751.2513824836
 20
1187.029141851
 30
0.0
 10
2751.368982648
 20
1187.0980609115
 30
0.0
 10
2751.4285785261
 20
1187.1281979978
 30
0.0
  0
SPLINE
  5
599
100
AcDbEntity
  8
6_ALL_SURFS
100
AcDbSpline
 62
7
  6
CONTINUOUS
 70
0
 71
3
 72
11
 73
7
 74
0
 42
0.0000001
 43
0.0000001
 44
0.0000000001
 40
0.0
 40
0.0
 40
0.0
 40
0.0
 40
0.2332111058
 40
0.4922043119
 40
0.7492259914
 40
1.0
 40
1.0
 40
1.0
 40
1.0
 10
3001.0610484341
 20
1186.5281979978
 30
0.0
 10
3001.0199908336
 20
1186.5747958881
 30
0.0
 10
3000.9774159317
 20
1186.7206610431
 30
0.0
 10
3001.0964316018
 20
1186.8979998162
 30
0.0
 10
3001.2513824836
 20
1187.029141851
 30
0.0
 10
3001.368982648
 20
1187.0980609115
 30
0.0
 10
3001.4285785261
 20
1187.1281979978
 30
0.0
  0
SPLINE
  5
59A
100
AcDbEntity
  8
6_ALL_SURFS
100
AcDbSpline
 62
7
  6
CONTINUOUS
 70
0
 71
3
 72
9
 73
5
 74
0
 42
0.0000001
 43
0.0000001
 44
0.0000000001
 40
0.0
 40
0.0
 40
0.0
 40
0.0
 40
0.4937401151
 40
1.0
 40
1.0
 40
1.0
 40
1.0
 10
492.4316267319
 20
1190.1281979978
 30
0.0
 10
492.5167693764
 20
1190.0540582124
 30
0.0
 10
492.6361807832
 20
1189.8005915871
 30
0.0
 10
492.4614672662
 20
1189.59737044
 30
0.0
 10
492.3686462239
 20
1189.5281979978
 30
0.0
  0
SPLINE
  5
59B
100
AcDbEntity
  8
6_ALL_SURFS
100
AcDbSpline
 62
7
  6
CONTINUOUS
 70
0
 71
3
 72
9
 73
5
 74
0
 42
0.0000001
 43
0.0000001
 44
0.0000000001
 40
0.0
 40
0.0
 40
0.0
 40
0.0
 40
0.4937401151
 40
1.0
 40
1.0
 40
1.0
 40
1.0
 10
742.4316267319
 20
1190.1281979978
 30
0.0
 10
742.5167693764
 20
1190.0540582124
 30
0.0
 10
742.6361807832
 20
1189.8005915871
 30
0.0
 10
742.4614672662
 20
1189.59737044
 30
0.0
 10
742.3686462239
 20
1189.5281979978
 30
0.0
  0
SPLINE
  5
59C
100
AcDbEntity
  8
6_ALL_SURFS
100
AcDbSpline
 62
7
  6
CONTINUOUS
 70
0
 71
3
 72
9
 73
5
 74
0
 42
0.0000001
 43
0.0000001
 44
0.0000000001
 40
0.0
 40
0.0
 40
0.0
 40
0.0
 40
0.5055960863
 40
1.0
 40
1.0
 40
1.0
 40
1.0
 10
501.9583838094
 20
1189.5281979978
 30
0.0
 10
501.86565825
 20
1189.597299284
 30
0.0
 10
501.6905003391
 20
1189.8002269429
 30
0.0
 10
501.8101220716
 20
1190.0539375362
 30
0.0
 10
501.8954033015
 20
1190.1281979978
 30
0.0
  0
SPLINE
  5
59D
100
AcDbEntity
  8
6_ALL_SURFS
100
AcDbSpline
 62
7
  6
CONTINUOUS
 70
0
 71
3
 72
9
 73
5
 74
0
 42
0.0000001
 43
0.0000001
 44
0.0000000001
 40
0.0
 40
0.0
 40
0.0
 40
0.0
 40
0.4937401151
 40
1.0
 40
1.0
 40
1.0
 40
1.0
 10
992.4316267319
 20
1190.1281979978
 30
0.0
 10
992.5167693764
 20
1190.0540582124
 30
0.0
 10
992.6361807832
 20
1189.8005915871
 30
0.0
 10
992.4614672662
 20
1189.59737044
 30
0.0
 10
992.3686462239
 20
1189.5281979978
 30
0.0
  0
SPLINE
  5
59E
100
AcDbEntity
  8
6_ALL_SURFS
100
AcDbSpline
 62
7
  6
CONTINUOUS
 70
0
 71
3
 72
9
 73
5
 74
0
 42
0.0000001
 43
0.0000001
 44
0.0000000001
 40
0.0
 40
0.0
 40
0.0
 40
0.0
 40
0.5055960863
 40
1.0
 40
1.0
 40
1.0
 40
1.0
 10
751.9583838094
 20
1189.5281979978
 30
0.0
 10
751.86565825
 20
1189.597299284
 30
0.0
 10
751.6905003391
 20
1189.8002269429
 30
0.0
 10
751.8101220716
 20
1190.0539375362
 30
0.0
 10
751.8954033015
 20
1190.1281979978
 30
0.0
  0
SPLINE
  5
59F
100
AcDbEntity
  8
6_ALL_SURFS
100
AcDbSpline
 62
7
  6
CONTINUOUS
 70
0
 71
3
 72
9
 73
5
 74
0
 42
0.0000001
 43
0.0000001
 44
0.0000000001
 40
0.0
 40
0.0
 40
0.0
 40
0.0
 40
0.4937401151
 40
1.0
 40
1.0
 40
1.0
 40
1.0
 10
1242.4316267319
 20
1190.1281979978
 30
0.0
 10
1242.5167693764
 20
1190.0540582124
 30
0.0
 10
1242.6361807832
 20
1189.8005915871
 30
0.0
 10
1242.4614672662
 20
1189.59737044
 30
0.0
 10
1242.3686462239
 20
1189.5281979978
 30
0.0
  0
SPLINE
  5
5A0
100
AcDbEntity
  8
6_ALL_SURFS
100
AcDbSpline
 62
7
  6
CONTINUOUS
 70
0
 71
3
 72
9
 73
5
 74
0
 42
0.0000001
 43
0.0000001
 44
0.0000000001
 40
0.0
 40
0.0
 40
0.0
 40
0.0
 40
0.5055960863
 40
1.0
 40
1.0
 40
1.0
 40
1.0
 10
1001.9583838094
 20
1189.5281979978
 30
0.0
 10
1001.86565825
 20
1189.597299284
 30
0.0
 10
1001.6905003391
 20
1189.8002269429
 30
0.0
 10
1001.8101220716
 20
1190.0539375362
 30
0.0
 10
1001.8954033015
 20
1190.1281979978
 30
0.0
  0
SPLINE
  5
5A1
100
AcDbEntity
  8
6_ALL_SURFS
100
AcDbSpline
 62
7
  6
CONTINUOUS
 70
0
 71
3
 72
9
 73
5
 74
0
 42
0.0000001
 43
0.0000001
 44
0.0000000001
 40
0.0
 40
0.0
 40
0.0
 40
0.0
 40
0.4937401151
 40
1.0
 40
1.0
 40
1.0
 40
1.0
 10
1492.4316267319
 20
1190.1281979978
 30
0.0
 10
1492.5167693764
 20
1190.0540582124
 30
0.0
 10
1492.6361807832
 20
1189.8005915871
 30
0.0
 10
1492.4614672662
 20
1189.59737044
 30
0.0
 10
1492.3686462239
 20
1189.5281979978
 30
0.0
  0
SPLINE
  5
5A2
100
AcDbEntity
  8
6_ALL_SURFS
100
AcDbSpline
 62
7
  6
CONTINUOUS
 70
0
 71
3
 72
9
 73
5
 74
0
 42
0.0000001
 43
0.0000001
 44
0.0000000001
 40
0.0
 40
0.0
 40
0.0
 40
0.0
 40
0.5055960863
 40
1.0
 40
1.0
 40
1.0
 40
1.0
 10
1251.9583838094
 20
1189.5281979978
 30
0.0
 10
1251.86565825
 20
1189.597299284
 30
0.0
 10
1251.6905003391
 20
1189.8002269429
 30
0.0
 10
1251.8101220716
 20
1190.0539375362
 30
0.0
 10
1251.8954033015
 20
1190.1281979978
 30
0.0
  0
SPLINE
  5
5A3
100
AcDbEntity
  8
6_ALL_SURFS
100
AcDbSpline
 62
7
  6
CONTINUOUS
 70
0
 71
3
 72
9
 73
5
 74
0
 42
0.0000001
 43
0.0000001
 44
0.0000000001
 40
0.0
 40
0.0
 40
0.0
 40
0.0
 40
0.4937401151
 40
1.0
 40
1.0
 40
1.0
 40
1.0
 10
1742.4316267319
 20
1190.1281979978
 30
0.0
 10
1742.5167693764
 20
1190.0540582124
 30
0.0
 10
1742.6361807832
 20
1189.8005915871
 30
0.0
 10
1742.4614672662
 20
1189.59737044
 30
0.0
 10
1742.3686462239
 20
1189.5281979978
 30
0.0
  0
SPLINE
  5
5A4
100
AcDbEntity
  8
6_ALL_SURFS
100
AcDbSpline
 62
7
  6
CONTINUOUS
 70
0
 71
3
 72
9
 73
5
 74
0
 42
0.0000001
 43
0.0000001
 44
0.0000000001
 40
0.0
 40
0.0
 40
0.0
 40
0.0
 40
0.5055960863
 40
1.0
 40
1.0
 40
1.0
 40
1.0
 10
1501.9583838094
 20
1189.5281979978
 30
0.0
 10
1501.86565825
 20
1189.597299284
 30
0.0
 10
1501.6905003391
 20
1189.8002269429
 30
0.0
 10
1501.8101220716
 20
1190.0539375362
 30
0.0
 10
1501.8954033015
 20
1190.1281979978
 30
0.0
  0
SPLINE
  5
5A5
100
AcDbEntity
  8
6_ALL_SURFS
100
AcDbSpline
 62
7
  6
CONTINUOUS
 70
0
 71
3
 72
9
 73
5
 74
0
 42
0.0000001
 43
0.0000001
 44
0.0000000001
 40
0.0
 40
0.0
 40
0.0
 40
0.0
 40
0.4937401151
 40
1.0
 40
1.0
 40
1.0
 40
1.0
 10
1992.4316267319
 20
1190.1281979978
 30
0.0
 10
1992.5167693764
 20
1190.0540582124
 30
0.0
 10
1992.6361807832
 20
1189.8005915871
 30
0.0
 10
1992.4614672662
 20
1189.59737044
 30
0.0
 10
1992.3686462239
 20
1189.5281979978
 30
0.0
  0
ELLIPSE
  5
5A6
100
AcDbEntity
  8
6_ALL_SURFS
100
AcDbEllipse
 62
7
  6
CONTINUOUS
 10
497.1635150167
 20
703.9878542267
 30
0.0
 11
5.4882058378
 21
0.0
 31
0.0
 40
0.1015346165
 41
0.9294607698
 42
2.2121318838
  0
ELLIPSE
  5
5A7
100
AcDbEntity
  8
6_ALL_SURFS
100
AcDbEllipse
 62
7
  6
CONTINUOUS
 10
747.1635150167
 20
703.9878542267
 30
0.0
 11
5.4882058378
 21
0.0
 31
0.0
 40
0.1015346165
 41
0.9294607698
 42
2.2121318838
  0
ELLIPSE
  5
5A8
100
AcDbEntity
  8
6_ALL_SURFS
100
AcDbEllipse
 62
7
  6
CONTINUOUS
 10
997.1635150167
 20
703.9878542267
 30
0.0
 11
5.4882058378
 21
-0.0
 31
0.0
 40
0.1015346165
 41
0.9294607698
 42
2.2121318838
  0
ELLIPSE
  5
5A9
100
AcDbEntity
  8
6_ALL_SURFS
100
AcDbEllipse
 62
7
  6
CONTINUOUS
 10
1247.1635150167
 20
703.9878542267
 30
0.0
 11
5.4882058378
 21
-0.0
 31
0.0
 40
0.1015346165
 41
0.9294607698
 42
2.2121318838
  0
ELLIPSE
  5
5AA
100
AcDbEntity
  8
6_ALL_SURFS
100
AcDbEllipse
 62
7
  6
CONTINUOUS
 10
1497.1635150167
 20
703.9878542267
 30
0.0
 11
5.4882058378
 21
-0.0
 31
0.0
 40
0.1015346165
 41
0.9294607698
 42
2.2121318838
  0
ELLIPSE
  5
5AB
100
AcDbEntity
  8
6_ALL_SURFS
100
AcDbEllipse
 62
7
  6
CONTINUOUS
 10
1747.1635150167
 20
703.9878542267
 30
0.0
 11
5.4882058378
 21
-0.0
 31
0.0
 40
0.1015346165
 41
0.9294607698
 42
2.2121318838
  0
ELLIPSE
  5
5AC
100
AcDbEntity
  8
6_ALL_SURFS
100
AcDbEllipse
 62
7
  6
CONTINUOUS
 10
1997.1635150167
 20
703.9878542267
 30
0.0
 11
5.4882058378
 21
-0.0
 31
0.0
 40
0.1015346165
 41
0.9294607698
 42
2.2121318838
  0
ELLIPSE
  5
5AD
100
AcDbEntity
  8
6_ALL_SURFS
100
AcDbEllipse
 62
7
  6
CONTINUOUS
 10
2247.1635150167
 20
703.9878542267
 30
0.0
 11
5.4882058378
 21
-0.0
 31
0.0
 40
0.1015346165
 41
0.9294607698
 42
2.2121318838
  0
ELLIPSE
  5
5AE
100
AcDbEntity
  8
6_ALL_SURFS
100
AcDbEllipse
 62
7
  6
CONTINUOUS
 10
2497.1635150167
 20
703.9878542267
 30
0.0
 11
5.4882058378
 21
-0.0
 31
0.0
 40
0.1015346165
 41
0.9294607698
 42
2.2121318838
  0
ELLIPSE
  5
5AF
100
AcDbEntity
  8
6_ALL_SURFS
100
AcDbEllipse
 62
7
  6
CONTINUOUS
 10
2747.1635150167
 20
703.9878542267
 30
0.0
 11
5.4882058378
 21
-0.0
 31
0.0
 40
0.1015346165
 41
0.9294607698
 42
2.2121318838
  0
ELLIPSE
  5
5B0
100
AcDbEntity
  8
6_ALL_SURFS
100
AcDbEllipse
 62
7
  6
CONTINUOUS
 10
2997.1635150167
 20
703.9878542267
 30
0.0
 11
5.4882058378
 21
-0.0
 31
0.0
 40
0.1015346165
 41
0.9294607698
 42
2.2121318838
  0
ELLIPSE
  5
5B1
100
AcDbEntity
  8
6_ALL_SURFS
100
AcDbEllipse
 62
7
  6
CONTINUOUS
 10
1747.1635150167
 20
1188.363025026
 30
0.0
 11
-0.0
 21
5.5724287509
 31
0.0
 40
0.9848857802
 41
-0.641335557
 42
0.641335557
  0
ELLIPSE
  5
5B2
100
AcDbEntity
  8
6_ALL_SURFS
100
AcDbEllipse
 62
7
  6
CONTINUOUS
 10
1997.1635150167
 20
1188.363025026
 30
0.0
 11
-0.0
 21
5.5724287509
 31
0.0
 40
0.9848857802
 41
-0.641335557
 42
0.641335557
  0
ELLIPSE
  5
5B3
100
AcDbEntity
  8
6_ALL_SURFS
100
AcDbEllipse
 62
7
  6
CONTINUOUS
 10
2247.1635150167
 20
1188.363025026
 30
0.0
 11
-0.0
 21
5.5724287509
 31
0.0
 40
0.9848857802
 41
-0.641335557
 42
0.641335557
  0
ELLIPSE
  5
5B4
100
AcDbEntity
  8
6_ALL_SURFS
100
AcDbEllipse
 62
7
  6
CONTINUOUS
 10
497.1635150167
 20
1188.363025026
 30
0.0
 11
-0.0
 21
5.5724287509
 31
0.0
 40
0.9848857802
 41
-0.641335557
 42
0.641335557
  0
ELLIPSE
  5
5B5
100
AcDbEntity
  8
6_ALL_SURFS
100
AcDbEllipse
 62
7
  6
CONTINUOUS
 10
2497.1635150167
 20
1188.363025026
 30
0.0
 11
0.0
 21
5.5724287509
 31
0.0
 40
0.9848857802
 41
-0.641335557
 42
0.641335557
  0
ELLIPSE
  5
5B6
100
AcDbEntity
  8
6_ALL_SURFS
100
AcDbEllipse
 62
7
  6
CONTINUOUS
 10
2747.1635150167
 20
1188.363025026
 30
0.0
 11
-0.0
 21
5.5724287509
 31
0.0
 40
0.9848857802
 41
-0.641335557
 42
0.641335557
  0
ELLIPSE
  5
5B7
100
AcDbEntity
  8
6_ALL_SURFS
100
AcDbEllipse
 62
7
  6
CONTINUOUS
 10
2997.1635150167
 20
1188.363025026
 30
0.0
 11
-0.0
 21
5.5724287509
 31
0.0
 40
0.9848857802
 41
-0.641335557
 42
0.641335557
  0
ELLIPSE
  5
5B8
100
AcDbEntity
  8
6_ALL_SURFS
100
AcDbEllipse
 62
7
  6
CONTINUOUS
 10
747.1635150167
 20
1188.363025026
 30
0.0
 11
-0.0
 21
5.5724287509
 31
0.0
 40
0.9848857802
 41
-0.641335557
 42
0.641335557
  0
ELLIPSE
  5
5B9
100
AcDbEntity
  8
7_ALL_FEATURES
100
AcDbEllipse
 62
7
  6
CONTINUOUS
 10
497.1635150167
 20
1092.3933709696
 30
0.0
 11
0.0
 21
5.5724287509
 31
0.0
 40
0.9848857802
 41
2.5002570966
 42
3.7829282106
  0
ELLIPSE
  5
5BA
100
AcDbEntity
  8
7_ALL_FEATURES
100
AcDbEllipse
 62
7
  6
CONTINUOUS
 10
747.1635150167
 20
1092.3933709696
 30
0.0
 11
0.0
 21
5.5724287509
 31
0.0
 40
0.9848857802
 41
2.5002570966
 42
3.7829282106
  0
ELLIPSE
  5
5BB
100
AcDbEntity
  8
7_ALL_FEATURES
100
AcDbEllipse
 62
7
  6
CONTINUOUS
 10
997.1635150167
 20
1092.3933709696
 30
0.0
 11
-0.0
 21
5.5724287509
 31
0.0
 40
0.9848857802
 41
2.5002570966
 42
3.7829282106
  0
ELLIPSE
  5
5BC
100
AcDbEntity
  8
7_ALL_FEATURES
100
AcDbEllipse
 62
7
  6
CONTINUOUS
 10
1247.1635150167
 20
1092.3933709696
 30
0.0
 11
-0.0
 21
5.5724287509
 31
0.0
 40
0.9848857802
 41
2.5002570966
 42
3.7829282106
  0
ELLIPSE
  5
5BD
100
AcDbEntity
  8
7_ALL_FEATURES
100
AcDbEllipse
 62
7
  6
CONTINUOUS
 10
1497.1635150167
 20
1092.3933709696
 30
0.0
 11
-0.0
 21
5.5724287509
 31
0.0
 40
0.9848857802
 41
2.5002570966
 42
3.7829282106
  0
ELLIPSE
  5
5BE
100
AcDbEntity
  8
7_ALL_FEATURES
100
AcDbEllipse
 62
7
  6
CONTINUOUS
 10
1747.1635150167
 20
1092.3933709696
 30
0.0
 11
0.0
 21
5.5724287509
 31
0.0
 40
0.9848857802
 41
2.5002570966
 42
3.7829282106
  0
ELLIPSE
  5
5BF
100
AcDbEntity
  8
7_ALL_FEATURES
100
AcDbEllipse
 62
7
  6
CONTINUOUS
 10
1997.1635150167
 20
1092.3933709696
 30
0.0
 11
0.0
 21
5.5724287509
 31
0.0
 40
0.9848857802
 41
2.5002570966
 42
3.7829282106
  0
ELLIPSE
  5
5C0
100
AcDbEntity
  8
7_ALL_FEATURES
100
AcDbEllipse
 62
7
  6
CONTINUOUS
 10
2247.1635150167
 20
1092.3933709696
 30
0.0
 11
0.0
 21
5.5724287509
 31
0.0
 40
0.9848857802
 41
2.5002570966
 42
3.7829282106
  0
ELLIPSE
  5
5C1
100
AcDbEntity
  8
7_ALL_FEATURES
100
AcDbEllipse
 62
7
  6
CONTINUOUS
 10
2497.1635150167
 20
1092.3933709696
 30
0.0
 11
0.0
 21
5.5724287509
 31
0.0
 40
0.9848857802
 41
2.5002570966
 42
3.7829282106
  0
ELLIPSE
  5
5C2
100
AcDbEntity
  8
7_ALL_FEATURES
100
AcDbEllipse
 62
7
  6
CONTINUOUS
 10
2747.1635150167
 20
1092.3933709696
 30
0.0
 11
0.0
 21
5.5724287509
 31
0.0
 40
0.9848857802
 41
2.5002570966
 42
3.7829282106
  0
ELLIPSE
  5
5C3
100
AcDbEntity
  8
7_ALL_FEATURES
100
AcDbEllipse
 62
7
  6
CONTINUOUS
 10
2997.1635150167
 20
1092.3933709696
 30
0.0
 11
-0.0
 21
5.5724287509
 31
0.0
 40
0.9848857802
 41
2.5002570966
 42
3.7829282106
  0
ELLIPSE
  5
5C4
100
AcDbEntity
  8
6_ALL_SURFS
100
AcDbEllipse
 62
7
  6
CONTINUOUS
 10
997.1635150167
 20
1188.363025026
 30
0.0
 11
0.0
 21
5.5724287509
 31
0.0
 40
0.9848857802
 41
-0.641335557
 42
0.641335557
  0
ELLIPSE
  5
5C5
100
AcDbEntity
  8
6_ALL_SURFS
100
AcDbEllipse
 62
7
  6
CONTINUOUS
 10
1247.1635150167
 20
1188.363025026
 30
0.0
 11
0.0
 21
5.5724287509
 31
0.0
 40
0.9848857802
 41
-0.641335557
 42
0.641335557
  0
ELLIPSE
  5
5C6
100
AcDbEntity
  8
6_ALL_SURFS
100
AcDbEllipse
 62
7
  6
CONTINUOUS
 10
1497.1635150167
 20
1188.363025026
 30
0.0
 11
0.0
 21
5.5724287509
 31
0.0
 40
0.9848857802
 41
-0.641335557
 42
0.641335557
  0
ENDSEC
  0
SECTION
  2
OBJECTS
  0
DICTIONARY
  5
5C7
100
AcDbDictionary
  3
ACAD_GROUP
350
5C8
  3
ACAD_MLINESTYLE
350
5C9
  0
DICTIONARY
  5
5C8
102
{ACAD_REACTORS
330
5C7
102
}
100
AcDbDictionary
  0
DICTIONARY
  5
5C9
102
{ACAD_REACTORS
330
5C7
102
}
100
AcDbDictionary
  3
STANDARD
350
5CA
  0
MLINESTYLE
  5
5CA
102
{ACAD_REACTORS
330
5C9
102
}
100
AcDbMlineStyle
  2
STANDARD
 70
0
  3

 62
256
 51
90.0
 52
90.0
 71
2
 49
0.5
 62
256
  6
BYLAYER
 49
-0.5
 62
256
  6
BYLAYER
  0
ENDSEC
  0
EOF
