999
DXF file: 6f4_c_247.dxf
999
Pro/ENGINEER 2016360 by Parametric Technology Corporation
  0
SECTION
  2
HEADER
  9
$ACADVER
  1
AC1014
  9
$DWGCODEPAGE
  3
ANSI_1252
  9
$EXTMAX
 10
3200.0
 20
2500.0
 30
0.0
  9
$EXTMIN
 10
0.0
 20
0.0
 30
0.0
  9
$LIMMIN
 10
0.0
 20
0.0
  9
$LIMMAX
 10
3200.0
 20
2500.0
  9
$VIEWCTR
 10
1600.0
 20
1250.0
  9
$VIEWSIZE
 40
2500.0
  9
$CLAYER
  8
0
  9
$LTSCALE
 40
176.0
  9
$CELTYPE
  6
BYLAYER
  9
$DIMSCALE
 40
1.0
  9
$DIMASZ
 40
2.5
  9
$DIMEXO
 40
0.75
  9
$DIMDLI
 40
121.6
  9
$DIMEXE
 40
0.75
  9
$DIMCEN
 40
28.8
  9
$DIMLFAC
 40
1.0
  9
$DIMBLK
  1
_CLOSED
  9
$DIMALT
 70
0
  9
$DIMALTF
 40
25.4
  9
$DIMTXT
 40
3.0
  9
$DIMTOL
 70
1
  9
$DIMLIM
 70
0
  9
$DIMTFAC
 40
1.0
  9
$DIMTP
 40
0.01
  9
$DIMTM
 40
0.01
  9
$DIMGAP
 40
0.625
  9
$AUNITS
 70
0
  9
$PDMODE
 70
3
  9
$PDSIZE
 40
0.3125
  9
$HANDSEED
  5
5C5
  9
$TILEMODE
 70
1
  9
$MEASUREMENT
 70
1
  0
ENDSEC
  0
SECTION
  2
CLASSES
  0
ENDSEC
  0
SECTION
  2
TABLES
  0
TABLE
  2
VPORT
  5
8
100
AcDbSymbolTable
 70
2
  0
VPORT
  5
1F4
100
AcDbSymbolTableRecord
100
AcDbViewportTableRecord
  2
*ACTIVE
 70
0
 10
0.0
 20
0.0
 11
1.0
 21
1.0
 12
1600.0
 22
1250.0
 13
0.0
 23
0.0
 14
1.0
 24
1.0
 15
0.0
 25
0.0
 16
0.0
 26
0.0
 36
1.0
 17
0.0
 27
0.0
 37
0.0
 40
2500.0
 41
1.28
 42
50.0
 43
0.0
 44
0.0
 50
0.0
 51
0.0
 71
0
 72
100
 73
1
 74
1
 75
0
 76
0
 77
0
 78
0
  0
ENDTAB
  0
TABLE
  2
LTYPE
  5
5
100
AcDbSymbolTable
 70
6
  0
LTYPE
  5
14
100
AcDbSymbolTableRecord
100
AcDbLinetypeTableRecord
  2
BYBLOCK
 70
0
  3

 72
65
 73
0
 40
0.0
  0
LTYPE
  5
15
100
AcDbSymbolTableRecord
100
AcDbLinetypeTableRecord
  2
BYLAYER
 70
0
  3

 72
65
 73
0
 40
0.0
  0
LTYPE
  5
16
100
AcDbSymbolTableRecord
100
AcDbLinetypeTableRecord
  2
CONTINUOUS
 70
64
  3
Solid line
 72
65
 73
0
 40
0.0
  0
LTYPE
  5
1F5
100
AcDbSymbolTableRecord
100
AcDbLinetypeTableRecord
  2
CENTER
 70
64
  3
____ _ ____ _ ____ _ ____ _ ____ _ ____ _ ____
 72
65
 73
4
 40
0.6
 49
0.375
 74
0
 49
-0.075
 74
0
 49
0.075
 74
0
 49
-0.075
 74
0
  0
LTYPE
  5
1F6
100
AcDbSymbolTableRecord
100
AcDbLinetypeTableRecord
  2
HIDDEN
 70
64
  3
- - - - - - - - - - - - - - - - - - - -
 72
65
 73
2
 40
0.2
 49
0.1
 74
0
 49
-0.1
 74
0
  0
LTYPE
  5
1F7
100
AcDbSymbolTableRecord
100
AcDbLinetypeTableRecord
  2
PHANTOM
 70
64
  3
_____ _ _ _____ _ _ _____ _ _ _____
 72
65
 73
6
 40
0.8
 49
0.45
 74
0
 49
-0.05
 74
0
 49
0.1
 74
0
 49
-0.05
 74
0
 49
0.1
 74
0
 49
-0.05
 74
0
  0
LTYPE
  5
1F8
100
AcDbSymbolTableRecord
100
AcDbLinetypeTableRecord
  2
DOT
 70
64
  3
. . . . . . . . . . . . . . . . . . . .
 72
65
 73
2
 40
0.2
 49
0.1
 74
0
 49
-0.1
 74
0
  0
LTYPE
  5
1F9
100
AcDbSymbolTableRecord
100
AcDbLinetypeTableRecord
  2
DASHED
 70
64
  3
- - - - - - - - - - - - - - - - - - - -
 72
65
 73
2
 40
0.2
 49
0.1
 74
0
 49
-0.1
 74
0
  0
ENDTAB
  0
TABLE
  2
LAYER
  5
2
100
AcDbSymbolTable
 70
36
  0
LAYER
  5
10
100
AcDbSymbolTableRecord
100
AcDbLayerTableRecord
  2
0
 70
0
 62
7
  6
CONTINUOUS
  0
LAYER
  5
1FA
100
AcDbSymbolTableRecord
100
AcDbLayerTableRecord
  2
DEFAULT_1
 70
0
 62
7
  6
CENTER
  0
LAYER
  5
1FB
100
AcDbSymbolTableRecord
100
AcDbLayerTableRecord
  2
DEFAULT_2
 70
0
 62
8
  6
HIDDEN
  0
LAYER
  5
1FC
100
AcDbSymbolTableRecord
100
AcDbLayerTableRecord
  2
DEFAULT_3
 70
0
 62
7
  6
PHANTOM
  0
LAYER
  5
1FD
100
AcDbSymbolTableRecord
100
AcDbLayerTableRecord
  2
1_ALL_PLANES
 70
0
 62
7
  6
CONTINUOUS
  0
LAYER
  5
1FE
100
AcDbSymbolTableRecord
100
AcDbLayerTableRecord
  2
2_ALL_CSYS
 70
0
 62
7
  6
CONTINUOUS
  0
LAYER
  5
1FF
100
AcDbSymbolTableRecord
100
AcDbLayerTableRecord
  2
3_ALL_AXES
 70
0
 62
7
  6
CONTINUOUS
  0
LAYER
  5
200
100
AcDbSymbolTableRecord
100
AcDbLayerTableRecord
  2
4_ALL_POINTS
 70
0
 62
7
  6
CONTINUOUS
  0
LAYER
  5
201
100
AcDbSymbolTableRecord
100
AcDbLayerTableRecord
  2
5_ALL_CURVES
 70
0
 62
7
  6
CONTINUOUS
  0
LAYER
  5
202
100
AcDbSymbolTableRecord
100
AcDbLayerTableRecord
  2
5__COSTRUZIONE
 70
0
 62
7
  6
CONTINUOUS
  0
LAYER
  5
203
100
AcDbSymbolTableRecord
100
AcDbLayerTableRecord
  2
6_ALL_SURFS
 70
0
 62
7
  6
CONTINUOUS
  0
LAYER
  5
204
100
AcDbSymbolTableRecord
100
AcDbLayerTableRecord
  2
7_ALL_FEATURES
 70
0
 62
7
  6
CONTINUOUS
  0
LAYER
  5
205
100
AcDbSymbolTableRecord
100
AcDbLayerTableRecord
  2
9_SOLID
 70
0
 62
7
  6
CONTINUOUS
  0
LAYER
  5
206
100
AcDbSymbolTableRecord
100
AcDbLayerTableRecord
  2
PR9037
 70
0
 62
7
  6
CONTINUOUS
  0
LAYER
  5
207
100
AcDbSymbolTableRecord
100
AcDbLayerTableRecord
  2
WHITE
 70
0
 62
7
  6
CONTINUOUS
  0
LAYER
  5
208
100
AcDbSymbolTableRecord
100
AcDbLayerTableRecord
  2
XXX_SOLIDO
 70
0
 62
7
  6
CONTINUOUS
  0
ENDTAB
  0
TABLE
  2
STYLE
  5
3
100
AcDbSymbolTable
 70
1
  0
STYLE
  5
11
100
AcDbSymbolTableRecord
100
AcDbTextStyleTableRecord
  2
STANDARD
 70
0
 40
0.0
 41
1.0
 50
0.0
 71
0
 42
0.2
  3
arial.ttf
  4

  0
STYLE
  5
209
100
AcDbSymbolTableRecord
100
AcDbTextStyleTableRecord
  2
TEXTSTYLE_1
 70
0
 40
0.0
 41
0.8
 50
0.0
 71
0
 42
0.2
  3
gdt
  4

  0
STYLE
  5
20A
100
AcDbSymbolTableRecord
100
AcDbTextStyleTableRecord
  2
TEXTSTYLE_2
 70
0
 40
0.0
 41
0.85
 50
0.0
 71
0
 42
0.2
  3
txt
  4

  0
ENDTAB
  0
TABLE
  2
VIEW
  5
6
100
AcDbSymbolTable
 70
0
  0
ENDTAB
  0
TABLE
  2
UCS
  5
7
100
AcDbSymbolTable
 70
0
  0
ENDTAB
  0
TABLE
  2
APPID
  5
9
100
AcDbSymbolTable
 70
1
  0
APPID
  5
20B
100
AcDbSymbolTableRecord
100
AcDbRegAppTableRecord
  2
ACAD
 70
0
  0
ENDTAB
  0
TABLE
  2
BLOCK_RECORD
  5
1
100
AcDbSymbolTable
 70
0
  0
BLOCK_RECORD
  5
1F
100
AcDbSymbolTableRecord
100
AcDbBlockTableRecord
  2
*MODEL_SPACE
  0
BLOCK_RECORD
  5
1B
100
AcDbSymbolTableRecord
100
AcDbBlockTableRecord
  2
*PAPER_SPACE
  0
BLOCK_RECORD
  5
20C
100
AcDbSymbolTableRecord
100
AcDbBlockTableRecord
  2
_CLOSED
  0
BLOCK_RECORD
  5
20D
100
AcDbSymbolTableRecord
100
AcDbBlockTableRecord
  2
*D0
  0
BLOCK_RECORD
  5
20E
100
AcDbSymbolTableRecord
100
AcDbBlockTableRecord
  2
*D1
  0
BLOCK_RECORD
  5
20F
100
AcDbSymbolTableRecord
100
AcDbBlockTableRecord
  2
*D2
  0
BLOCK_RECORD
  5
210
100
AcDbSymbolTableRecord
100
AcDbBlockTableRecord
  2
*D3
  0
BLOCK_RECORD
  5
211
100
AcDbSymbolTableRecord
100
AcDbBlockTableRecord
  2
LOGO2_BL0
  0
ENDTAB
  0
TABLE
  2
DIMSTYLE
  5
A
100
AcDbSymbolTable
 70
1
  0
DIMSTYLE
105
212
100
AcDbSymbolTableRecord
100
AcDbDimStyleTableRecord
  2
STANDARD
 70
0
  3

  4

  5
_CLOSED
  6
_CLOSED
  7
_CLOSED
 40
1.0
 41
2.5
 42
0.75
 43
0.38
 44
0.75
 45
0.0
 46
0.0
 47
0.01
 48
0.01
140
3.0
141
0.09
142
0.0
143
25.4
144
1.0
145
0.0
146
1.0
147
0.625
 71
1.0
 72
0.0
 73
0
 74
0
 75
0
 76
0
 77
1
 78
8
 79
2
170
0
171
1
172
0
173
0
174
0
175
0
176
0
177
0
178
0
270
2
179
2
271
2
272
2
273
2
274
2
275
0
280
0
281
0
282
0
283
1
284
8
285
0
286
0
287
3
288
0
340
11
  0
DIMSTYLE
105
213
100
AcDbSymbolTableRecord
100
AcDbDimStyleTableRecord
  2
DIMSTYLE_1
 70
0
  3

  4

  5
_CLOSED
  6
_CLOSED
  7
_CLOSED
 40
1.0
 41
2.5
 42
0.75
 43
0.38
 44
0.75
 45
0.0
 46
0.0
 47
0.3
 48
0.3
140
10.0
141
0.09
142
0.0
143
25.4
144
1.0
145
0.0
146
1.0
147
2.5
 71
0.0
 72
0.0
 73
0
 74
0
 75
0
 76
0
 77
1
 78
8
 79
2
170
0
171
1
172
0
173
0
174
0
175
0
176
0
177
0
178
0
270
2
179
2
271
2
272
2
273
2
274
2
275
0
280
0
281
0
282
0
283
1
284
8
285
0
286
0
287
3
288
0
340
11
  0
DIMSTYLE
105
214
100
AcDbSymbolTableRecord
100
AcDbDimStyleTableRecord
  2
DIMSTYLE_2
 70
0
  3

  4

  5
_CLOSED
  6
_CLOSED
  7
_CLOSED
 40
1.0
 41
2.5
 42
0.75
 43
0.38
 44
0.75
 45
0.0
 46
0.0
 47
2.0
 48
2.0
140
10.0
141
0.09
142
0.0
143
25.4
144
1.0
145
0.0
146
1.0
147
2.5
 71
0.0
 72
0.0
 73
0
 74
0
 75
0
 76
0
 77
1
 78
8
 79
2
170
0
171
1
172
0
173
0
174
0
175
0
176
0
177
0
178
0
270
2
179
2
271
2
272
2
273
2
274
2
275
0
280
0
281
0
282
0
283
1
284
8
285
0
286
0
287
3
288
0
340
11
  0
ENDTAB
  0
ENDSEC
  0
SECTION
  2
BLOCKS
  0
BLOCK
  5
20
100
AcDbEntity
  8
0
100
AcDbBlockBegin
  2
*MODEL_SPACE
 70
0
 10
0.0
 20
0.0
 30
0.0
  3
*MODEL_SPACE
  1

  0
ENDBLK
  5
21
100
AcDbEntity
  8
0
100
AcDbBlockEnd
  0
BLOCK
  5
1C
100
AcDbEntity
  8
0
100
AcDbBlockBegin
  2
*PAPER_SPACE
 70
0
 10
0.0
 20
0.0
 30
0.0
  3
*PAPER_SPACE
  1

  0
ENDBLK
  5
1D
100
AcDbEntity
  8
0
100
AcDbBlockEnd
  0
BLOCK
  5
215
100
AcDbEntity
  8
0
100
AcDbBlockBegin
 62
2
  6
CONTINUOUS
  2
LOGO2_BL0
 70
64
 10
3008.8761026621
 20
39.670189099
  3
LOGO2_BL0
  1

  0
LINE
  5
216
100
AcDbEntity
  8
0
100
AcDbLine
 62
7
  6
CONTINUOUS
 10
3000.6190278903
 20
42.8656804379
 11
2999.314686961
 21
42.8656804379
  0
LINE
  5
217
100
AcDbEntity
  8
0
100
AcDbLine
 62
7
  6
CONTINUOUS
 10
2999.314686961
 20
42.8656804379
 11
2999.314686961
 21
32.406614378
  0
LINE
  5
218
100
AcDbEntity
  8
0
100
AcDbLine
 62
7
  6
CONTINUOUS
 10
2999.314686961
 20
32.406614378
 11
3003.7957418492
 21
32.406614378
  0
LINE
  5
219
100
AcDbEntity
  8
0
100
AcDbLine
 62
7
  6
CONTINUOUS
 10
3003.7957418492
 20
32.406614378
 11
3003.7957418492
 21
33.599468703
  0
LINE
  5
21A
100
AcDbEntity
  8
0
100
AcDbLine
 62
7
  6
CONTINUOUS
 10
3003.7957418492
 20
33.599468703
 11
3000.6190278903
 21
33.599468703
  0
LINE
  5
21B
100
AcDbEntity
  8
0
100
AcDbLine
 62
7
  6
CONTINUOUS
 10
3000.6190278903
 20
33.599468703
 11
3000.6190278903
 21
42.8656804379
  0
LINE
  5
21C
100
AcDbEntity
  8
0
100
AcDbLine
 62
7
  6
CONTINUOUS
 10
3015.5553541066
 20
42.8656804379
 11
3014.2515365886
 21
42.8656804379
  0
LINE
  5
21D
100
AcDbEntity
  8
0
100
AcDbLine
 62
7
  6
CONTINUOUS
 10
3014.2515365886
 20
42.8656804379
 11
3014.2515365886
 21
32.406614378
  0
LINE
  5
21E
100
AcDbEntity
  8
0
100
AcDbLine
 62
7
  6
CONTINUOUS
 10
3014.2515365886
 20
32.406614378
 11
3018.7327223297
 21
32.406614378
  0
LINE
  5
21F
100
AcDbEntity
  8
0
100
AcDbLine
 62
7
  6
CONTINUOUS
 10
3018.7327223297
 20
32.406614378
 11
3018.7327223297
 21
33.599468703
  0
LINE
  5
220
100
AcDbEntity
  8
0
100
AcDbLine
 62
7
  6
CONTINUOUS
 10
3018.7327223297
 20
33.599468703
 11
3015.5553541066
 21
33.599468703
  0
LINE
  5
221
100
AcDbEntity
  8
0
100
AcDbLine
 62
7
  6
CONTINUOUS
 10
3015.5553541066
 20
33.599468703
 11
3015.5553541066
 21
42.8656804379
  0
LWPOLYLINE
  5
222
100
AcDbEntity
  8
0
100
AcDbPolyline
 62
7
  6
CONTINUOUS
 90
2
 70
0
 43
0.2
 10
2997.6690818719
 20
29.0630630711
 10
2997.6690818719
 20
27.2059998217
  0
LWPOLYLINE
  5
223
100
AcDbEntity
  8
0
100
AcDbPolyline
 62
7
  6
CONTINUOUS
 90
2
 70
0
 43
0.2
 10
2997.6690818719
 20
27.2059998217
 10
2998.4647978823
 20
27.2059998217
  0
LWPOLYLINE
  5
224
100
AcDbEntity
  8
0
100
AcDbPolyline
 62
7
  6
CONTINUOUS
 90
2
 70
0
 43
0.2
 10
2998.4647978823
 20
27.2059998217
 10
2998.4647978823
 20
27.4179813933
  0
LWPOLYLINE
  5
225
100
AcDbEntity
  8
0
100
AcDbPolyline
 62
7
  6
CONTINUOUS
 90
2
 70
0
 43
0.2
 10
2998.4647978823
 20
27.4179813933
 10
2997.9006913668
 20
27.4179813933
  0
LWPOLYLINE
  5
226
100
AcDbEntity
  8
0
100
AcDbPolyline
 62
7
  6
CONTINUOUS
 90
2
 70
0
 43
0.2
 10
2997.9006913668
 20
27.4179813933
 10
2997.9006913668
 20
29.0630630711
  0
LWPOLYLINE
  5
227
100
AcDbEntity
  8
0
100
AcDbPolyline
 62
7
  6
CONTINUOUS
 90
2
 70
0
 43
0.2
 10
2997.9006913668
 20
29.0630630711
 10
2997.6690818719
 20
29.0630630711
  0
SPLINE
  5
228
100
AcDbEntity
  8
0
100
AcDbSpline
 62
7
  6
CONTINUOUS
 70
2
 71
3
 72
35
 73
31
 74
0
 42
0.0000001
 43
0.0000001
 44
0.0000000001
 40
0.0
 40
0.0
 40
0.0
 40
0.0
 40
1.0
 40
1.0
 40
1.0
 40
2.0
 40
2.0
 40
2.0
 40
3.0
 40
3.0
 40
3.0
 40
4.0
 40
4.0
 40
4.0
 40
5.0
 40
5.0
 40
5.0
 40
6.0
 40
6.0
 40
6.0
 40
7.0
 40
7.0
 40
7.0
 40
8.0
 40
8.0
 40
8.0
 40
9.0
 40
9.0
 40
9.0
 40
10.0
 40
10.0
 40
10.0
 40
10.0
 10
2999.8630911378
 20
28.3585514776
 30
0.0
 10
2999.8630911378
 20
28.3585514776
 30
0.0
 10
2999.8630911378
 20
27.6964361984
 30
0.0
 10
2999.8630911378
 20
27.6964361984
 30
0.0
 10
2999.8630911378
 20
27.3813426032
 30
0.0
 10
3000.0109548267
 20
27.1667439751
 30
0.0
 10
3000.3510413109
 20
27.1667439751
 30
0.0
 10
3000.690604384
 20
27.1667439751
 30
0.0
 10
3000.8387297784
 20
27.3813426032
 30
0.0
 10
3000.8387297784
 20
27.6964361984
 30
0.0
 10
3000.8387297784
 20
27.6964361984
 30
0.0
 10
3000.8387297784
 20
28.3585514776
 30
0.0
 10
3000.8387297784
 20
28.3585514776
 30
0.0
 10
3000.8387297784
 20
28.3585514776
 30
0.0
 10
3000.6166725395
 20
28.3585514776
 30
0.0
 10
3000.6166725395
 20
28.3585514776
 30
0.0
 10
3000.6166725395
 20
28.3585514776
 30
0.0
 10
3000.6166725395
 20
27.7215599403
 30
0.0
 10
3000.6166725395
 20
27.7215599403
 30
0.0
 10
3000.6166725395
 20
27.5357489331
 30
0.0
 10
3000.5699580821
 20
27.3729680225
 30
0.0
 10
3000.3510413109
 20
27.3729680225
 30
0.0
 10
3000.1316011285
 20
27.3729680225
 30
0.0
 10
3000.0848866711
 20
27.5357489331
 30
0.0
 10
3000.0848866711
 20
27.7215599403
 30
0.0
 10
3000.0848866711
 20
27.7215599403
 30
0.0
 10
3000.0848866711
 20
28.3585514776
 30
0.0
 10
3000.0848866711
 20
28.3585514776
 30
0.0
 10
3000.0848866711
 20
28.3585514776
 30
0.0
 10
2999.8630911378
 20
28.3585514776
 30
0.0
 10
2999.8630911378
 20
28.3585514776
 30
0.0
  0
SPLINE
  5
229
100
AcDbEntity
  8
0
100
AcDbSpline
 62
7
  6
CONTINUOUS
 70
2
 71
3
 72
35
 73
31
 74
0
 42
0.0000001
 43
0.0000001
 44
0.0000000001
 40
0.0
 40
0.0
 40
0.0
 40
0.0
 40
1.0
 40
1.0
 40
1.0
 40
2.0
 40
2.0
 40
2.0
 40
3.0
 40
3.0
 40
3.0
 40
4.0
 40
4.0
 40
4.0
 40
5.0
 40
5.0
 40
5.0
 40
6.0
 40
6.0
 40
6.0
 40
7.0
 40
7.0
 40
7.0
 40
8.0
 40
8.0
 40
8.0
 40
9.0
 40
9.0
 40
9.0
 40
10.0
 40
10.0
 40
10.0
 40
10.0
 10
3003.2618623356
 20
28.3172019859
 30
0.0
 10
3003.173405828
 20
28.3684962921
 30
0.0
 10
3003.0599564313
 20
28.3936200339
 30
0.0
 10
3002.9563209963
 20
28.3936200339
 30
0.0
 10
3002.6014481431
 20
28.3936200339
 30
0.0
 10
3002.3260029529
 20
28.1298207448
 30
0.0
 10
3002.3260029529
 20
27.7723308352
 30
0.0
 10
3002.3260029529
 20
27.4274027965
 30
0.0
 10
3002.604457758
 20
27.1672673864
 30
0.0
 10
3002.9440208311
 20
27.1672673864
 30
0.0
 10
3003.0599564313
 20
27.1672673864
 30
0.0
 10
3003.1607131042
 20
27.1892506605
 30
0.0
 10
3003.2618623356
 20
27.2431620232
 30
0.0
 10
3003.2618623356
 20
27.2431620232
 30
0.0
 10
3003.2618623356
 20
27.5258041186
 30
0.0
 10
3003.2618623356
 20
27.5258041186
 30
0.0
 10
3003.1779856767
 20
27.4326369094
 30
0.0
 10
3003.0744810946
 20
27.3734914338
 30
0.0
 10
3002.9463761818
 20
27.3734914338
 30
0.0
 10
3002.7126730418
 20
27.3734914338
 30
0.0
 10
3002.5474059277
 20
27.5456937475
 30
0.0
 10
3002.5474059277
 20
27.7822756497
 30
0.0
 10
3002.5474059277
 20
27.9942572212
 30
0.0
 10
3002.7151592454
 20
28.1863491639
 30
0.0
 10
3002.9319823714
 20
28.1863491639
 30
0.0
 10
3003.0647979857
 20
28.1863491639
 30
0.0
 10
3003.173405828
 20
28.1324378012
 30
0.0
 10
3003.2618623356
 20
28.0314194227
 30
0.0
 10
3003.2618623356
 20
28.0314194227
 30
0.0
 10
3003.2618623356
 20
28.3172019859
 30
0.0
 10
3003.2618623356
 20
28.3172019859
 30
0.0
  0
SPLINE
  5
22A
100
AcDbEntity
  8
0
100
AcDbSpline
 62
7
  6
CONTINUOUS
 70
2
 71
3
 72
32
 73
28
 74
0
 42
0.0000001
 43
0.0000001
 44
0.0000000001
 40
0.0
 40
0.0
 40
0.0
 40
0.0
 40
1.0
 40
1.0
 40
1.0
 40
2.0
 40
2.0
 40
2.0
 40
3.0
 40
3.0
 40
3.0
 40
4.0
 40
4.0
 40
4.0
 40
5.0
 40
5.0
 40
5.0
 40
6.0
 40
6.0
 40
6.0
 40
7.0
 40
7.0
 40
7.0
 40
8.0
 40
8.0
 40
8.0
 40
9.0
 40
9.0
 40
9.0
 40
9.0
 10
3005.7937335879
 20
27.7456368595
 30
0.0
 10
3005.7937335879
 20
27.7456368595
 30
0.0
 10
3005.7937335879
 20
27.7796585932
 30
0.0
 10
3005.7937335879
 20
27.7796585932
 30
0.0
 10
3005.7937335879
 20
28.1219695755
 30
0.0
 10
3005.62087701
 20
28.3936200339
 30
0.0
 10
3005.2542274029
 20
28.3936200339
 30
0.0
 10
3004.8826053885
 20
28.3936200339
 30
0.0
 10
3004.6928687967
 20
28.1272036884
 30
0.0
 10
3004.6928687967
 20
27.7723308352
 30
0.0
 10
3004.6928687967
 20
27.4326369094
 30
0.0
 10
3004.9069440134
 20
27.1667439751
 30
0.0
 10
3005.2590689573
 20
27.1667439751
 30
0.0
 10
3005.4830889885
 20
27.1667439751
 30
0.0
 10
3005.6852565985
 20
27.2824178697
 30
0.0
 10
3005.7937335879
 20
27.4818375704
 30
0.0
 10
3005.7937335879
 20
27.4818375704
 30
0.0
 10
3005.6060906412
 20
27.5886134731
 30
0.0
 10
3005.6060906412
 20
27.5886134731
 30
0.0
 10
3005.5226065407
 20
27.4499094819
 30
0.0
 10
3005.4314021238
 20
27.3640700307
 30
0.0
 10
3005.2618168666
 20
27.3640700307
 30
0.0
 10
3005.049835295
 20
27.3640700307
 30
0.0
 10
3004.9168888279
 20
27.5488342153
 30
0.0
 10
3004.9145334771
 20
27.7456368595
 30
0.0
 10
3004.9145334771
 20
27.7456368595
 30
0.0
 10
3005.7937335879
 20
27.7456368595
 30
0.0
 10
3005.7937335879
 20
27.7456368595
 30
0.0
  0
SPLINE
  5
22B
100
AcDbEntity
  8
0
100
AcDbSpline
 62
7
  6
CONTINUOUS
 70
2
 71
3
 72
14
 73
10
 74
0
 42
0.0000001
 43
0.0000001
 44
0.0000000001
 40
0.0
 40
0.0
 40
0.0
 40
0.0
 40
1.0
 40
1.0
 40
1.0
 40
2.0
 40
2.0
 40
2.0
 40
3.0
 40
3.0
 40
3.0
 40
3.0
 10
3004.9265719367
 20
27.9131284716
 30
0.0
 10
3004.9541818821
 20
28.0780030273
 30
0.0
 10
3005.0820250892
 20
28.20100468
 30
0.0
 10
3005.2542274029
 20
28.20100468
 30
0.0
 10
3005.4314021238
 20
28.20100468
 30
0.0
 10
3005.5448515205
 20
28.0853307853
 30
0.0
 10
3005.5720689075
 20
27.9131284716
 30
0.0
 10
3005.5720689075
 20
27.9131284716
 30
0.0
 10
3004.9265719367
 20
27.9131284716
 30
0.0
 10
3004.9265719367
 20
27.9131284716
 30
0.0
  0
SPLINE
  5
22C
100
AcDbEntity
  8
0
100
AcDbSpline
 62
7
  6
CONTINUOUS
 70
2
 71
3
 72
20
 73
16
 74
0
 42
0.0000001
 43
0.0000001
 44
0.0000000001
 40
0.0
 40
0.0
 40
0.0
 40
0.0
 40
1.0
 40
1.0
 40
1.0
 40
2.0
 40
2.0
 40
2.0
 40
3.0
 40
3.0
 40
3.0
 40
4.0
 40
4.0
 40
4.0
 40
5.0
 40
5.0
 40
5.0
 40
5.0
 10
3007.8177650381
 20
28.1224929868
 30
0.0
 10
3007.8177650381
 20
28.1224929868
 30
0.0
 10
3008.2289046047
 20
27.6200181504
 30
0.0
 10
3008.2289046047
 20
27.6200181504
 30
0.0
 10
3008.1128381516
 20
27.5043442558
 30
0.0
 10
3007.9750501301
 20
27.3740148451
 30
0.0
 10
3007.803109522
 20
27.3740148451
 30
0.0
 10
3007.6256730954
 20
27.3740148451
 30
0.0
 10
3007.4581814833
 20
27.5383659895
 30
0.0
 10
3007.4581814833
 20
27.7152790048
 30
0.0
 10
3007.4581814833
 20
27.8932388427
 30
0.0
 10
3007.6679385569
 20
28.0193809631
 30
0.0
 10
3007.7955200583
 20
28.1073140594
 30
0.0
 10
3007.7955200583
 20
28.1073140594
 30
0.0
 10
3007.8177650381
 20
28.1224929868
 30
0.0
 10
3007.8177650381
 20
28.1224929868
 30
0.0
  0
SPLINE
  5
22D
100
AcDbEntity
  8
0
100
AcDbSpline
 62
7
  6
CONTINUOUS
 70
2
 71
3
 72
23
 73
19
 74
0
 42
0.0000001
 43
0.0000001
 44
0.0000000001
 40
0.0
 40
0.0
 40
0.0
 40
0.0
 40
1.0
 40
1.0
 40
1.0
 40
2.0
 40
2.0
 40
2.0
 40
3.0
 40
3.0
 40
3.0
 40
4.0
 40
4.0
 40
4.0
 40
5.0
 40
5.0
 40
5.0
 40
6.0
 40
6.0
 40
6.0
 40
6.0
 10
3007.8670965519
 20
28.4135096628
 30
0.0
 10
3007.8670965519
 20
28.4135096628
 30
0.0
 10
3007.8054648728
 20
28.492021356
 30
0.0
 10
3007.8054648728
 20
28.492021356
 30
0.0
 10
3007.7515535101
 20
28.5605882347
 30
0.0
 10
3007.6947633854
 20
28.6296785247
 30
0.0
 10
3007.6947633854
 20
28.7233691453
 30
0.0
 10
3007.6947633854
 20
28.8421835076
 30
0.0
 10
3007.7906785039
 20
28.9196483782
 30
0.0
 10
3007.9016416969
 20
28.9196483782
 30
0.0
 10
3008.0249050552
 20
28.9196483782
 30
0.0
 10
3008.1182031173
 20
28.8484644431
 30
0.0
 10
3008.1182031173
 20
28.7181350324
 30
0.0
 10
3008.1182031173
 20
28.5830949201
 30
0.0
 10
3007.9900982046
 20
28.5066768721
 30
0.0
 10
3007.8965384369
 20
28.4328758805
 30
0.0
 10
3007.8965384369
 20
28.4328758805
 30
0.0
 10
3007.8670965519
 20
28.4135096628
 30
0.0
 10
3007.8670965519
 20
28.4135096628
 30
0.0
  0
SPLINE
  5
22E
100
AcDbEntity
  8
0
100
AcDbSpline
 62
7
  6
CONTINUOUS
 70
2
 71
3
 72
50
 73
46
 74
0
 42
0.0000001
 43
0.0000001
 44
0.0000000001
 40
0.0
 40
0.0
 40
0.0
 40
0.0
 40
1.0
 40
1.0
 40
1.0
 40
2.0
 40
2.0
 40
2.0
 40
3.0
 40
3.0
 40
3.0
 40
4.0
 40
4.0
 40
4.0
 40
5.0
 40
5.0
 40
5.0
 40
6.0
 40
6.0
 40
6.0
 40
7.0
 40
7.0
 40
7.0
 40
8.0
 40
8.0
 40
8.0
 40
9.0
 40
9.0
 40
9.0
 40
10.0
 40
10.0
 40
10.0
 40
11.0
 40
11.0
 40
11.0
 40
12.0
 40
12.0
 40
12.0
 40
13.0
 40
13.0
 40
13.0
 40
14.0
 40
14.0
 40
14.0
 40
15.0
 40
15.0
 40
15.0
 40
15.0
 10
3008.5692527946
 20
27.206523233
 30
0.0
 10
3008.5692527946
 20
27.206523233
 30
0.0
 10
3008.8546427993
 20
27.206523233
 30
0.0
 10
3008.8546427993
 20
27.206523233
 30
0.0
 10
3008.8546427993
 20
27.206523233
 30
0.0
 10
3008.5222766315
 20
27.617401094
 30
0.0
 10
3008.5222766315
 20
27.617401094
 30
0.0
 10
3008.5222766315
 20
27.617401094
 30
0.0
 10
3008.7487828664
 20
27.8832940282
 30
0.0
 10
3008.7487828664
 20
27.8832940282
 30
0.0
 10
3008.7487828664
 20
27.8832940282
 30
0.0
 10
3008.6005266191
 20
28.0361301243
 30
0.0
 10
3008.6005266191
 20
28.0361301243
 30
0.0
 10
3008.6005266191
 20
28.0361301243
 30
0.0
 10
3008.3846194628
 20
27.7848927061
 30
0.0
 10
3008.3846194628
 20
27.7848927061
 30
0.0
 10
3008.3846194628
 20
27.7848927061
 30
0.0
 10
3007.9975568154
 20
28.2528223975
 30
0.0
 10
3007.9975568154
 20
28.2528223975
 30
0.0
 10
3008.1530099679
 20
28.3669260582
 30
0.0
 10
3008.3352879489
 20
28.5066768721
 30
0.0
 10
3008.3352879489
 20
28.7160413872
 30
0.0
 10
3008.3352879489
 20
28.9599510474
 30
0.0
 10
3008.1332511918
 20
29.1033657402
 30
0.0
 10
3007.906744957
 20
29.1033657402
 30
0.0
 10
3007.6625735912
 20
29.1033657402
 30
0.0
 10
3007.4782019651
 20
28.9526232893
 30
0.0
 10
3007.4782019651
 20
28.6961517583
 30
0.0
 10
3007.4782019651
 20
28.5386049606
 30
0.0
 10
3007.5768649928
 20
28.4009477919
 30
0.0
 10
3007.6822015145
 20
28.2899845989
 30
0.0
 10
3007.6822015145
 20
28.2899845989
 30
0.0
 10
3007.5666584727
 20
28.2062387928
 30
0.0
 10
3007.5666584727
 20
28.2062387928
 30
0.0
 10
3007.3889603405
 20
28.0780030273
 30
0.0
 10
3007.2416200629
 20
27.9502906731
 30
0.0
 10
3007.2416200629
 20
27.7131853597
 30
0.0
 10
3007.2416200629
 20
27.3928576515
 30
0.0
 10
3007.5001852391
 20
27.1667439751
 30
0.0
 10
3007.8105681328
 20
27.1667439751
 30
0.0
 10
3008.029484904
 20
27.1667439751
 30
0.0
 10
3008.2266801067
 20
27.2918392729
 30
0.0
 10
3008.3669543319
 20
27.4577606512
 30
0.0
 10
3008.3669543319
 20
27.4577606512
 30
0.0
 10
3008.5692527946
 20
27.206523233
 30
0.0
 10
3008.5692527946
 20
27.206523233
 30
0.0
  0
LWPOLYLINE
  5
22F
100
AcDbEntity
  8
0
100
AcDbPolyline
 62
7
  6
CONTINUOUS
 90
2
 70
0
 43
0.2
 10
3010.5046968843
 20
29.0630630711
 10
3010.2733490951
 20
29.0630630711
  0
LWPOLYLINE
  5
230
100
AcDbEntity
  8
0
100
AcDbPolyline
 62
7
  6
CONTINUOUS
 90
2
 70
0
 43
0.2
 10
3010.2733490951
 20
29.0630630711
 10
3010.2733490951
 20
27.2059998217
  0
LWPOLYLINE
  5
231
100
AcDbEntity
  8
0
100
AcDbPolyline
 62
7
  6
CONTINUOUS
 90
2
 70
0
 43
0.2
 10
3010.2733490951
 20
27.2059998217
 10
3011.068672547
 20
27.2059998217
  0
LWPOLYLINE
  5
232
100
AcDbEntity
  8
0
100
AcDbPolyline
 62
7
  6
CONTINUOUS
 90
2
 70
0
 43
0.2
 10
3011.068672547
 20
27.2059998217
 10
3011.068672547
 20
27.4179813933
  0
LWPOLYLINE
  5
233
100
AcDbEntity
  8
0
100
AcDbPolyline
 62
7
  6
CONTINUOUS
 90
2
 70
0
 43
0.2
 10
3011.068672547
 20
27.4179813933
 10
3010.5046968843
 20
27.4179813933
  0
LWPOLYLINE
  5
234
100
AcDbEntity
  8
0
100
AcDbPolyline
 62
7
  6
CONTINUOUS
 90
2
 70
0
 43
0.2
 10
3010.5046968843
 20
27.4179813933
 10
3010.5046968843
 20
29.0630630711
  0
LWPOLYLINE
  5
235
100
AcDbEntity
  8
0
100
AcDbPolyline
 62
7
  6
CONTINUOUS
 90
2
 70
0
 43
0.2
 10
3012.7477759585
 20
28.3585514776
 10
3012.5266346894
 20
28.3585514776
  0
LWPOLYLINE
  5
236
100
AcDbEntity
  8
0
100
AcDbPolyline
 62
7
  6
CONTINUOUS
 90
2
 70
0
 43
0.2
 10
3012.5266346894
 20
28.3585514776
 10
3012.5266346894
 20
27.206523233
  0
LWPOLYLINE
  5
237
100
AcDbEntity
  8
0
100
AcDbPolyline
 62
7
  6
CONTINUOUS
 90
2
 70
0
 43
0.2
 10
3012.5266346894
 20
27.206523233
 10
3012.7477759585
 20
27.206523233
  0
LWPOLYLINE
  5
238
100
AcDbEntity
  8
0
100
AcDbPolyline
 62
7
  6
CONTINUOUS
 90
2
 70
0
 43
0.2
 10
3012.7477759585
 20
27.206523233
 10
3012.7477759585
 20
28.3585514776
  0
LWPOLYLINE
  5
239
100
AcDbEntity
  8
0
100
AcDbPolyline
 62
7
  6
CONTINUOUS
 90
2
 70
1
 43
0.2
 10
3012.4847526813
 20
28.8885054066
 42
1.0
 10
3012.7899196722
 20
28.8885054066
 42
1.0
  0
SPLINE
  5
23A
100
AcDbEntity
  8
0
100
AcDbSpline
 62
7
  6
CONTINUOUS
 70
2
 71
3
 72
17
 73
13
 74
0
 42
0.0000001
 43
0.0000001
 44
0.0000000001
 40
0.0
 40
0.0
 40
0.0
 40
0.0
 40
1.0
 40
1.0
 40
1.0
 40
2.0
 40
2.0
 40
2.0
 40
3.0
 40
3.0
 40
3.0
 40
4.0
 40
4.0
 40
4.0
 40
4.0
 10
3014.8780599001
 20
27.3640700307
 30
0.0
 10
3014.6440950545
 20
27.3640700307
 30
0.0
 10
3014.5137656438
 20
27.5661067878
 30
0.0
 10
3014.5137656438
 20
27.7822756497
 30
0.0
 10
3014.5137656438
 20
27.9968742777
 30
0.0
 10
3014.649590873
 20
28.1957705671
 30
0.0
 10
3014.8780599001
 20
28.1957705671
 30
0.0
 10
3015.1175205643
 20
28.1957705671
 30
0.0
 10
3015.2530840879
 20
28.0068190922
 30
0.0
 10
3015.2530840879
 20
27.7822756497
 30
0.0
 10
3015.2530840879
 20
27.5561619733
 30
0.0
 10
3015.1198759151
 20
27.3640700307
 30
0.0
 10
3014.8780599001
 20
27.3640700307
 30
0.0
  0
SPLINE
  5
23B
100
AcDbEntity
  8
0
100
AcDbSpline
 62
7
  6
CONTINUOUS
 70
2
 71
3
 72
50
 73
46
 74
0
 42
0.0000001
 43
0.0000001
 44
0.0000000001
 40
0.0
 40
0.0
 40
0.0
 40
0.0
 40
1.0
 40
1.0
 40
1.0
 40
2.0
 40
2.0
 40
2.0
 40
3.0
 40
3.0
 40
3.0
 40
4.0
 40
4.0
 40
4.0
 40
5.0
 40
5.0
 40
5.0
 40
6.0
 40
6.0
 40
6.0
 40
7.0
 40
7.0
 40
7.0
 40
8.0
 40
8.0
 40
8.0
 40
9.0
 40
9.0
 40
9.0
 40
10.0
 40
10.0
 40
10.0
 40
11.0
 40
11.0
 40
11.0
 40
12.0
 40
12.0
 40
12.0
 40
13.0
 40
13.0
 40
13.0
 40
14.0
 40
14.0
 40
14.0
 40
15.0
 40
15.0
 40
15.0
 40
15.0
 10
3015.4621868974
 20
28.3590748889
 30
0.0
 10
3015.4621868974
 20
28.3590748889
 30
0.0
 10
3015.240522217
 20
28.3590748889
 30
0.0
 10
3015.240522217
 20
28.3590748889
 30
0.0
 10
3015.240522217
 20
28.3590748889
 30
0.0
 10
3015.240522217
 20
28.1617488334
 30
0.0
 10
3015.240522217
 20
28.1617488334
 30
0.0
 10
3015.240522217
 20
28.1617488334
 30
0.0
 10
3015.2358115154
 20
28.1617488334
 30
0.0
 10
3015.2358115154
 20
28.1617488334
 30
0.0
 10
3015.1444762457
 20
28.304640115
 30
0.0
 10
3015.0065573713
 20
28.3930966226
 30
0.0
 10
3014.8338316463
 20
28.3930966226
 30
0.0
 10
3014.5014654785
 20
28.3930966226
 30
0.0
 10
3014.292362669
 20
28.1052204143
 30
0.0
 10
3014.292362669
 20
27.7896034077
 30
0.0
 10
3014.292362669
 20
27.4598542963
 30
0.0
 10
3014.4894270189
 20
27.1667439751
 30
0.0
 10
3014.8442998721
 20
27.1667439751
 30
0.0
 10
3015.0065573713
 20
27.1667439751
 30
0.0
 10
3015.1465698908
 20
27.2552004828
 30
0.0
 10
3015.2358115154
 20
27.3860533047
 30
0.0
 10
3015.2358115154
 20
27.3860533047
 30
0.0
 10
3015.240522217
 20
27.3860533047
 30
0.0
 10
3015.240522217
 20
27.3860533047
 30
0.0
 10
3015.240522217
 20
27.3860533047
 30
0.0
 10
3015.240522217
 20
27.1667439751
 30
0.0
 10
3015.240522217
 20
27.1667439751
 30
0.0
 10
3015.240522217
 20
26.930162073
 30
0.0
 10
3015.1839937979
 20
26.7433042432
 30
0.0
 10
3014.9107731056
 20
26.7433042432
 30
0.0
 10
3014.7084746429
 20
26.7433042432
 30
0.0
 10
3014.5658450669
 20
26.8615951943
 30
0.0
 10
3014.5658450669
 20
27.0678192417
 30
0.0
 10
3014.5658450669
 20
27.0678192417
 30
0.0
 10
3014.3441803865
 20
27.0678192417
 30
0.0
 10
3014.3441803865
 20
27.0678192417
 30
0.0
 10
3014.3491527937
 20
26.7433042432
 30
0.0
 10
3014.5802388773
 20
26.546501599
 30
0.0
 10
3014.9005665855
 20
26.546501599
 30
0.0
 10
3015.3486066479
 20
26.546501599
 30
0.0
 10
3015.4621868974
 20
26.8317607509
 30
0.0
 10
3015.4621868974
 20
27.2285065071
 30
0.0
 10
3015.4621868974
 20
27.2285065071
 30
0.0
 10
3015.4621868974
 20
28.3590748889
 30
0.0
 10
3015.4621868974
 20
28.3590748889
 30
0.0
  0
SPLINE
  5
23C
100
AcDbEntity
  8
0
100
AcDbSpline
 62
7
  6
CONTINUOUS
 70
2
 71
3
 72
44
 73
40
 74
0
 42
0.0000001
 43
0.0000001
 44
0.0000000001
 40
0.0
 40
0.0
 40
0.0
 40
0.0
 40
1.0
 40
1.0
 40
1.0
 40
2.0
 40
2.0
 40
2.0
 40
3.0
 40
3.0
 40
3.0
 40
4.0
 40
4.0
 40
4.0
 40
5.0
 40
5.0
 40
5.0
 40
6.0
 40
6.0
 40
6.0
 40
7.0
 40
7.0
 40
7.0
 40
8.0
 40
8.0
 40
8.0
 40
9.0
 40
9.0
 40
9.0
 40
10.0
 40
10.0
 40
10.0
 40
11.0
 40
11.0
 40
11.0
 40
12.0
 40
12.0
 40
12.0
 40
13.0
 40
13.0
 40
13.0
 40
13.0
 10
3017.0311122328
 20
29.3441349327
 30
0.0
 10
3017.0311122328
 20
29.3441349327
 30
0.0
 10
3017.0311122328
 20
27.2059998217
 30
0.0
 10
3017.0311122328
 20
27.2059998217
 30
0.0
 10
3017.0311122328
 20
27.2059998217
 30
0.0
 10
3017.2525152076
 20
27.2059998217
 30
0.0
 10
3017.2525152076
 20
27.2059998217
 30
0.0
 10
3017.2525152076
 20
27.2059998217
 30
0.0
 10
3017.2525152076
 20
27.735692045
 30
0.0
 10
3017.2525152076
 20
27.735692045
 30
0.0
 10
3017.2525152076
 20
27.9455799715
 30
0.0
 10
3017.2525152076
 20
28.1962939784
 30
0.0
 10
3017.5377743594
 20
28.1962939784
 30
0.0
 10
3017.7646731527
 20
28.1962939784
 30
0.0
 10
3017.7916288341
 20
28.0633475112
 30
0.0
 10
3017.7916288341
 20
27.8670682783
 30
0.0
 10
3017.7916288341
 20
27.8670682783
 30
0.0
 10
3017.7916288341
 20
27.2059998217
 30
0.0
 10
3017.7916288341
 20
27.2059998217
 30
0.0
 10
3017.7916288341
 20
27.2059998217
 30
0.0
 10
3018.0135552201
 20
27.2059998217
 30
0.0
 10
3018.0135552201
 20
27.2059998217
 30
0.0
 10
3018.0135552201
 20
27.2059998217
 30
0.0
 10
3018.0135552201
 20
27.8932388427
 30
0.0
 10
3018.0135552201
 20
27.8932388427
 30
0.0
 10
3018.0135552201
 20
28.173787293
 30
0.0
 10
3017.9295477084
 20
28.3936200339
 30
0.0
 10
3017.6045092987
 20
28.3936200339
 30
0.0
 10
3017.4647584848
 20
28.3936200339
 30
0.0
 10
3017.3265779048
 20
28.3271468003
 30
0.0
 10
3017.2572259092
 20
28.2041451477
 30
0.0
 10
3017.2572259092
 20
28.2041451477
 30
0.0
 10
3017.2525152076
 20
28.2041451477
 30
0.0
 10
3017.2525152076
 20
28.2041451477
 30
0.0
 10
3017.2525152076
 20
28.2041451477
 30
0.0
 10
3017.2525152076
 20
29.3441349327
 30
0.0
 10
3017.2525152076
 20
29.3441349327
 30
0.0
 10
3017.2525152076
 20
29.3441349327
 30
0.0
 10
3017.0311122328
 20
29.3441349327
 30
0.0
 10
3017.0311122328
 20
29.3441349327
 30
0.0
  0
LWPOLYLINE
  5
23D
100
AcDbEntity
  8
0
100
AcDbPolyline
 62
7
  6
CONTINUOUS
 90
2
 70
0
 43
0.2
 10
3019.853345897
 20
28.1518040189
 10
3020.0697764645
 20
28.1518040189
  0
LWPOLYLINE
  5
23E
100
AcDbEntity
  8
0
100
AcDbPolyline
 62
7
  6
CONTINUOUS
 90
2
 70
0
 43
0.2
 10
3020.0697764645
 20
28.1518040189
 10
3020.0697764645
 20
28.3585514776
  0
LWPOLYLINE
  5
23F
100
AcDbEntity
  8
0
100
AcDbPolyline
 62
7
  6
CONTINUOUS
 90
2
 70
0
 43
0.2
 10
3020.0697764645
 20
28.3585514776
 10
3019.853345897
 20
28.3585514776
  0
LWPOLYLINE
  5
240
100
AcDbEntity
  8
0
100
AcDbPolyline
 62
7
  6
CONTINUOUS
 90
2
 70
0
 43
0.2
 10
3019.853345897
 20
28.3585514776
 10
3019.853345897
 20
28.799263782
  0
LWPOLYLINE
  5
241
100
AcDbEntity
  8
0
100
AcDbPolyline
 62
7
  6
CONTINUOUS
 90
2
 70
0
 43
0.2
 10
3019.853345897
 20
28.799263782
 10
3019.6316812166
 20
28.799263782
  0
LWPOLYLINE
  5
242
100
AcDbEntity
  8
0
100
AcDbPolyline
 62
7
  6
CONTINUOUS
 90
2
 70
0
 43
0.2
 10
3019.6316812166
 20
28.799263782
 10
3019.6316812166
 20
28.3585514776
  0
LWPOLYLINE
  5
243
100
AcDbEntity
  8
0
100
AcDbPolyline
 62
7
  6
CONTINUOUS
 90
2
 70
0
 43
0.2
 10
3019.6316812166
 20
28.3585514776
 10
3019.5110349147
 20
28.3585514776
  0
LWPOLYLINE
  5
244
100
AcDbEntity
  8
0
100
AcDbPolyline
 62
7
  6
CONTINUOUS
 90
2
 70
0
 43
0.2
 10
3019.5110349147
 20
28.3585514776
 10
3019.5110349147
 20
28.1518040189
  0
LWPOLYLINE
  5
245
100
AcDbEntity
  8
0
100
AcDbPolyline
 62
7
  6
CONTINUOUS
 90
2
 70
0
 43
0.2
 10
3019.5110349147
 20
28.1518040189
 10
3019.6316812166
 20
28.1518040189
  0
LWPOLYLINE
  5
246
100
AcDbEntity
  8
0
100
AcDbPolyline
 62
7
  6
CONTINUOUS
 90
2
 70
0
 43
0.2
 10
3019.6316812166
 20
28.1518040189
 10
3019.6316812166
 20
27.2059998217
  0
LWPOLYLINE
  5
247
100
AcDbEntity
  8
0
100
AcDbPolyline
 62
7
  6
CONTINUOUS
 90
2
 70
0
 43
0.2
 10
3019.6316812166
 20
27.2059998217
 10
3019.853345897
 20
27.2059998217
  0
LWPOLYLINE
  5
248
100
AcDbEntity
  8
0
100
AcDbPolyline
 62
7
  6
CONTINUOUS
 90
2
 70
0
 43
0.2
 10
3019.853345897
 20
27.2059998217
 10
3019.853345897
 20
28.1518040189
  0
SPLINE
  5
249
100
AcDbEntity
  8
0
100
AcDbSpline
 62
7
  6
CONTINUOUS
 70
2
 71
3
 72
20
 73
16
 74
0
 42
0.0000001
 43
0.0000001
 44
0.0000000001
 40
0.0
 40
0.0
 40
0.0
 40
0.0
 40
1.0
 40
1.0
 40
1.0
 40
2.0
 40
2.0
 40
2.0
 40
3.0
 40
3.0
 40
3.0
 40
4.0
 40
4.0
 40
4.0
 40
5.0
 40
5.0
 40
5.0
 40
5.0
 10
3007.6353562042
 20
37.5669262651
 30
0.0
 10
3007.6353562042
 20
37.5669262651
 30
0.0
 10
3009.9517128587
 20
34.7373648429
 30
0.0
 10
3009.9517128587
 20
34.7373648429
 30
0.0
 10
3009.3000658053
 20
34.0851943782
 30
0.0
 10
3008.5231926013
 20
33.3492781074
 30
0.0
 10
3007.5520029566
 20
33.3492781074
 30
0.0
 10
3006.5534650722
 20
33.3492781074
 30
0.0
 10
3005.6101470786
 20
34.2788565547
 30
0.0
 10
3005.6101470786
 20
35.2780487032
 30
0.0
 10
3005.6101470786
 20
36.2772408518
 30
0.0
 10
3006.7890001517
 20
36.9838460904
 30
0.0
 10
3007.5105226121
 20
37.4837038703
 30
0.0
 10
3007.5105226121
 20
37.4837038703
 30
0.0
 10
3007.6353562042
 20
37.5669262651
 30
0.0
 10
3007.6353562042
 20
37.5669262651
 30
0.0
  0
SPLINE
  5
24A
100
AcDbEntity
  8
0
100
AcDbSpline
 62
7
  6
CONTINUOUS
 70
2
 71
3
 72
23
 73
19
 74
0
 42
0.0000001
 43
0.0000001
 44
0.0000000001
 40
0.0
 40
0.0
 40
0.0
 40
0.0
 40
1.0
 40
1.0
 40
1.0
 40
2.0
 40
2.0
 40
2.0
 40
3.0
 40
3.0
 40
3.0
 40
4.0
 40
4.0
 40
4.0
 40
5.0
 40
5.0
 40
5.0
 40
6.0
 40
6.0
 40
6.0
 40
6.0
 10
3007.9127641868
 20
39.2046801848
 30
0.0
 10
3007.9127641868
 20
39.2046801848
 30
0.0
 10
3007.5662659142
 20
39.6480095457
 30
0.0
 10
3007.5662659142
 20
39.6480095457
 30
0.0
 10
3007.2604628693
 20
40.0361190156
 30
0.0
 10
3006.9415745422
 20
40.4246210441
 30
0.0
 10
3006.9415745422
 20
40.9515653581
 30
0.0
 10
3006.9415745422
 20
41.6177370748
 30
0.0
 10
3007.4829126666
 20
42.061458994
 30
0.0
 10
3008.1068189218
 20
42.061458994
 30
0.0
 10
3008.8006005839
 20
42.061458994
 30
0.0
 10
3009.3278066036
 20
41.6592174193
 30
0.0
 10
3009.3278066036
 20
40.9242171183
 30
0.0
 10
3009.3278066036
 20
40.1609526078
 30
0.0
 10
3008.6065458489
 20
39.730839382
 30
0.0
 10
3008.079470682
 20
39.3151199666
 30
0.0
 10
3008.079470682
 20
39.3151199666
 30
0.0
 10
3007.9127641868
 20
39.2046801848
 30
0.0
 10
3007.9127641868
 20
39.2046801848
 30
0.0
  0
SPLINE
  5
24B
100
AcDbEntity
  8
0
100
AcDbSpline
 62
7
  6
CONTINUOUS
 70
2
 71
3
 72
50
 73
46
 74
0
 42
0.0000001
 43
0.0000001
 44
0.0000000001
 40
0.0
 40
0.0
 40
0.0
 40
0.0
 40
1.0
 40
1.0
 40
1.0
 40
2.0
 40
2.0
 40
2.0
 40
3.0
 40
3.0
 40
3.0
 40
4.0
 40
4.0
 40
4.0
 40
5.0
 40
5.0
 40
5.0
 40
6.0
 40
6.0
 40
6.0
 40
7.0
 40
7.0
 40
7.0
 40
8.0
 40
8.0
 40
8.0
 40
9.0
 40
9.0
 40
9.0
 40
10.0
 40
10.0
 40
10.0
 40
11.0
 40
11.0
 40
11.0
 40
12.0
 40
12.0
 40
12.0
 40
13.0
 40
13.0
 40
13.0
 40
14.0
 40
14.0
 40
14.0
 40
15.0
 40
15.0
 40
15.0
 40
15.0
 10
3011.8663513497
 20
32.4060909667
 30
0.0
 10
3011.8663513497
 20
32.4060909667
 30
0.0
 10
3013.4755793543
 20
32.4060909667
 30
0.0
 10
3013.4755793543
 20
32.4060909667
 30
0.0
 10
3013.4755793543
 20
32.4060909667
 30
0.0
 10
3011.6025520606
 20
34.7232327381
 30
0.0
 10
3011.6025520606
 20
34.7232327381
 30
0.0
 10
3011.6025520606
 20
34.7232327381
 30
0.0
 10
3012.8788904861
 20
36.2207124327
 30
0.0
 10
3012.8788904861
 20
36.2207124327
 30
0.0
 10
3012.8788904861
 20
36.2207124327
 30
0.0
 10
3012.0466665384
 20
37.0817240012
 30
0.0
 10
3012.0466665384
 20
37.0817240012
 30
0.0
 10
3012.0466665384
 20
37.0817240012
 30
0.0
 10
3010.8260714151
 20
35.6664198788
 30
0.0
 10
3010.8260714151
 20
35.6664198788
 30
0.0
 10
3010.8260714151
 20
35.6664198788
 30
0.0
 10
3008.6481570463
 20
38.3017957133
 30
0.0
 10
3008.6481570463
 20
38.3017957133
 30
0.0
 10
3009.5217304857
 20
38.9398340732
 30
0.0
 10
3010.5484017269
 20
39.730839382
 30
0.0
 10
3010.5484017269
 20
40.9096924551
 30
0.0
 10
3010.5484017269
 20
42.2833853801
 30
0.0
 10
3009.410505587
 20
43.0878685296
 30
0.0
 10
3008.1352139842
 20
43.0878685296
 30
0.0
 10
3006.7617827648
 20
43.0878685296
 30
0.0
 10
3005.720848566
 20
42.2416433299
 30
0.0
 10
3005.720848566
 20
40.7989909677
 30
0.0
 10
3005.720848566
 20
39.9114162763
 30
0.0
 10
3006.2761879425
 20
39.1345430723
 30
0.0
 10
3006.8723533993
 20
38.5101134058
 30
0.0
 10
3006.8723533993
 20
38.5101134058
 30
0.0
 10
3006.2204446403
 20
38.0385198355
 30
0.0
 10
3006.2204446403
 20
38.0385198355
 30
0.0
 10
3005.2219067559
 20
37.3172590808
 30
0.0
 10
3004.389028544
 20
36.5959983261
 30
0.0
 10
3004.389028544
 20
35.2644400098
 30
0.0
 10
3004.389028544
 20
33.4607647118
 30
0.0
 10
3005.8460747167
 20
32.1841645806
 30
0.0
 10
3007.593614154
 20
32.1841645806
 30
0.0
 10
3008.8284722349
 20
32.1841645806
 30
0.0
 10
3009.9378424596
 20
32.8923400531
 30
0.0
 10
3010.7287169155
 20
33.8208716778
 30
0.0
 10
3010.7287169155
 20
33.8208716778
 30
0.0
 10
3011.8663513497
 20
32.4060909667
 30
0.0
 10
3011.8663513497
 20
32.4060909667
 30
0.0
  0
LINE
  5
24C
100
AcDbEntity
  8
0
100
AcDbLine
 62
7
  6
CONTINUOUS
 10
2997.6692127247
 20
30.3799658714
 11
3020.0831234524
 21
30.3799658714
  0
LINE
  5
24D
100
AcDbEntity
  8
0
100
AcDbLine
 62
7
  6
CONTINUOUS
 10
3020.0831234524
 20
30.3799658714
 11
3020.0831234524
 21
52.793876599
  0
LINE
  5
24E
100
AcDbEntity
  8
0
100
AcDbLine
 62
7
  6
CONTINUOUS
 10
3020.0831234524
 20
52.793876599
 11
2997.6692127247
 21
52.793876599
  0
LINE
  5
24F
100
AcDbEntity
  8
0
100
AcDbLine
 62
7
  6
CONTINUOUS
 10
2997.6692127247
 20
52.793876599
 11
2997.6692127247
 21
30.3799658714
  0
ENDBLK
  5
250
100
AcDbEntity
  8
0
  6
BYBLOCK
 62
0
100
AcDbBlockEnd
  0
BLOCK
  5
251
100
AcDbEntity
  8
0
100
AcDbBlockBegin
  2
_CLOSED
 70
64
 10
0.0
 20
0.0
  3
_CLOSED
  1

  0
LINE
  5
252
100
AcDbEntity
  8
0
  6
BYBLOCK
 62
0
100
AcDbLine
 10
0.0
 20
0.0
 11
-1.0
 21
0.2
  0
LINE
  5
253
100
AcDbEntity
  8
0
  6
BYBLOCK
 62
0
100
AcDbLine
 10
-1.0
 20
0.2
 11
-1.0
 21
-0.2
  0
LINE
  5
254
100
AcDbEntity
  8
0
  6
BYBLOCK
 62
0
100
AcDbLine
 10
-1.0
 20
-0.2
 11
0.0
 21
0.0
  0
LINE
  5
255
100
AcDbEntity
  8
0
  6
BYBLOCK
 62
0
100
AcDbLine
 10
-1.0
 20
0.0
 11
0.0
 21
0.0
  0
ENDBLK
  5
256
100
AcDbEntity
  8
0
  6
BYBLOCK
 62
0
100
AcDbBlockEnd
  0
BLOCK
  5
257
100
AcDbEntity
  8
0
100
AcDbBlockBegin
 62
7
  6
CONTINUOUS
  2
*D0
 70
65
 10
0.0
 20
0.0
  3
*D0
  1

  0
MTEXT
  5
258
100
AcDbEntity
  8
0
100
AcDbMText
 62
7
  6
CONTINUOUS
  7
STANDARD
 71
2
 72
1
 10
75.79630281
 20
927.1412680756
 30
0.0
 11
0.0
 21
1.0
 31
0.0
  1
91
 40
10.0
 41
15.5390334572
  0
LINE
  5
259
100
AcDbEntity
  8
0
100
AcDbLine
 62
7
  6
CONTINUOUS
 10
111.4957054883
 20
881.6412680756
 11
87.54630281
 21
881.6412680756
  0
LINE
  5
25A
100
AcDbEntity
  8
0
100
AcDbLine
 62
7
  6
CONTINUOUS
 10
110.7774470173
 20
972.6412680756
 11
87.54630281
 21
972.6412680756
  0
LINE
  5
25B
100
AcDbEntity
  8
0
100
AcDbLine
 62
7
  6
CONTINUOUS
 10
88.29630281
 20
881.6412680756
 11
88.29630281
 21
927.1412680756
  0
LINE
  5
25C
100
AcDbEntity
  8
0
100
AcDbLine
 62
7
  6
CONTINUOUS
 10
88.29630281
 20
972.6412680756
 11
88.29630281
 21
927.1412680756
  0
INSERT
  5
25D
100
AcDbEntity
  8
0
100
AcDbBlockReference
 62
7
  6
CONTINUOUS
  2
_CLOSED
 10
88.29630281
 20
881.6412680756
 41
2.5
 42
2.5
 43
2.5
 50
270.0
  0
INSERT
  5
25E
100
AcDbEntity
  8
0
100
AcDbBlockReference
 62
7
  6
CONTINUOUS
  2
_CLOSED
 10
88.29630281
 20
972.6412680756
 41
2.5
 42
2.5
 43
2.5
 50
90.0
  0
ENDBLK
  5
25F
100
AcDbEntity
  8
0
  6
BYBLOCK
 62
0
100
AcDbBlockEnd
  0
BLOCK
  5
260
100
AcDbEntity
  8
0
100
AcDbBlockBegin
 62
7
  6
CONTINUOUS
  2
*D1
 70
65
 10
0.0
 20
0.0
  3
*D1
  1

  0
MTEXT
  5
261
100
AcDbEntity
  8
0
100
AcDbMText
 62
7
  6
CONTINUOUS
  7
STANDARD
 71
2
 72
1
 10
173.0839157893
 20
845.9085215796
 30
0.0
 11
1.0
 21
0.0
 31
0.0
  1
69,4
 40
10.0
 41
27.1747211896
  0
LINE
  5
262
100
AcDbEntity
  8
0
100
AcDbLine
 62
7
  6
CONTINUOUS
 10
138.7141361892
 20
848.0809877788
 11
138.7141361892
 21
832.6585215796
  0
LINE
  5
263
100
AcDbEntity
  8
0
100
AcDbLine
 62
7
  6
CONTINUOUS
 10
208.1141361892
 20
848.0809877788
 11
208.1141361892
 21
832.6585215796
  0
LINE
  5
264
100
AcDbEntity
  8
0
100
AcDbLine
 62
7
  6
CONTINUOUS
 10
138.7141361892
 20
833.4085215796
 11
173.4141361892
 21
833.4085215796
  0
LINE
  5
265
100
AcDbEntity
  8
0
100
AcDbLine
 62
7
  6
CONTINUOUS
 10
208.1141361892
 20
833.4085215796
 11
173.4141361892
 21
833.4085215796
  0
INSERT
  5
266
100
AcDbEntity
  8
0
100
AcDbBlockReference
 62
7
  6
CONTINUOUS
  2
_CLOSED
 10
138.7141361892
 20
833.4085215796
 41
2.5
 42
2.5
 43
2.5
 50
180.0
  0
INSERT
  5
267
100
AcDbEntity
  8
0
100
AcDbBlockReference
 62
7
  6
CONTINUOUS
  2
_CLOSED
 10
208.1141361892
 20
833.4085215796
 41
2.5
 42
2.5
 43
2.5
  0
ENDBLK
  5
268
100
AcDbEntity
  8
0
  6
BYBLOCK
 62
0
100
AcDbBlockEnd
  0
BLOCK
  5
269
100
AcDbEntity
  8
0
100
AcDbBlockBegin
 62
7
  6
CONTINUOUS
  2
*D2
 70
65
 10
0.0
 20
0.0
  3
*D2
  1

  0
MTEXT
  5
26A
100
AcDbEntity
  8
0
100
AcDbMText
 62
7
  6
CONTINUOUS
  7
STANDARD
 71
2
 72
1
 10
173.4141361892
 20
809.8695464658
 30
0.0
 11
1.0
 21
0.0
 31
0.0
  1
109,9
 40
10.0
 41
34.9442379182
  0
LINE
  5
26B
100
AcDbEntity
  8
0
100
AcDbLine
 62
7
  6
CONTINUOUS
 10
118.4641361892
 20
848.0809877788
 11
118.4641361892
 21
796.6195464658
  0
LINE
  5
26C
100
AcDbEntity
  8
0
100
AcDbLine
 62
7
  6
CONTINUOUS
 10
228.3641361892
 20
848.0809877788
 11
228.3641361892
 21
796.6195464658
  0
LINE
  5
26D
100
AcDbEntity
  8
0
100
AcDbLine
 62
7
  6
CONTINUOUS
 10
118.4641361892
 20
797.3695464658
 11
173.4141361892
 21
797.3695464658
  0
LINE
  5
26E
100
AcDbEntity
  8
0
100
AcDbLine
 62
7
  6
CONTINUOUS
 10
228.3641361892
 20
797.3695464658
 11
173.4141361892
 21
797.3695464658
  0
INSERT
  5
26F
100
AcDbEntity
  8
0
100
AcDbBlockReference
 62
7
  6
CONTINUOUS
  2
_CLOSED
 10
118.4641361892
 20
797.3695464658
 41
2.5
 42
2.5
 43
2.5
 50
180.0
  0
INSERT
  5
270
100
AcDbEntity
  8
0
100
AcDbBlockReference
 62
7
  6
CONTINUOUS
  2
_CLOSED
 10
228.3641361892
 20
797.3695464658
 41
2.5
 42
2.5
 43
2.5
  0
ENDBLK
  5
271
100
AcDbEntity
  8
0
  6
BYBLOCK
 62
0
100
AcDbBlockEnd
  0
BLOCK
  5
272
100
AcDbEntity
  8
0
100
AcDbBlockBegin
 62
7
  6
CONTINUOUS
  2
*D3
 70
65
 10
0.0
 20
0.0
  3
*D3
  1

  0
MTEXT
  5
273
100
AcDbEntity
  8
0
100
AcDbMText
 62
7
  6
CONTINUOUS
  7
STANDARD
 71
2
 72
1
 10
1732.1468298109
 20
809.8695464658
 30
0.0
 11
1.0
 21
0.0
 31
0.0
  1
2807
 40
10.0
 41
31.0780669145
  0
LINE
  5
274
100
AcDbEntity
  8
0
100
AcDbLine
 62
7
  6
CONTINUOUS
 10
3135.6468298109
 20
848.0809877788
 11
3135.6468298109
 21
796.6195464658
  0
LINE
  5
275
100
AcDbEntity
  8
0
100
AcDbLine
 62
7
  6
CONTINUOUS
 10
328.6468298109
 20
848.9116898775
 11
328.6468298109
 21
796.6195464658
  0
LINE
  5
276
100
AcDbEntity
  8
0
100
AcDbLine
 62
7
  6
CONTINUOUS
 10
3135.6468298109
 20
797.3695464658
 11
1732.1468298109
 21
797.3695464658
  0
LINE
  5
277
100
AcDbEntity
  8
0
100
AcDbLine
 62
7
  6
CONTINUOUS
 10
328.6468298109
 20
797.3695464658
 11
1732.1468298109
 21
797.3695464658
  0
INSERT
  5
278
100
AcDbEntity
  8
0
100
AcDbBlockReference
 62
7
  6
CONTINUOUS
  2
_CLOSED
 10
3135.6468298109
 20
797.3695464658
 41
2.5
 42
2.5
 43
2.5
  0
INSERT
  5
279
100
AcDbEntity
  8
0
100
AcDbBlockReference
 62
7
  6
CONTINUOUS
  2
_CLOSED
 10
328.6468298109
 20
797.3695464658
 41
2.5
 42
2.5
 43
2.5
 50
180.0
  0
ENDBLK
  5
27A
100
AcDbEntity
  8
0
  6
BYBLOCK
 62
0
100
AcDbBlockEnd
  0
ENDSEC
  0
SECTION
  2
ENTITIES
  0
DIMENSION
  5
27B
100
AcDbEntity
  8
0
100
AcDbDimension
 62
7
  6
CONTINUOUS
  2
*D0
 10
88.29630281
 20
972.6412680756
 11
88.29630281
 21
926.1479064227
 70
160
  3
DIMSTYLE_1
100
AcDbAlignedDimension
 13
112.2457054883
 23
881.6412680756
 14
111.5274470173
 24
972.6412680756
 50
90.0
100
AcDbRotatedDimension
  0
DIMENSION
  5
27C
100
AcDbEntity
  8
0
100
AcDbDimension
 62
7
  6
CONTINUOUS
  2
*D1
 10
208.1141361892
 20
833.4085215796
 11
173.0151672363
 21
833.4085215796
 70
160
  3
DIMSTYLE_1
100
AcDbAlignedDimension
 13
138.7141361892
 23
848.8309877788
 14
208.1141361892
 24
848.8309877788
100
AcDbRotatedDimension
  0
DIMENSION
  5
27D
100
AcDbEntity
  8
0
100
AcDbDimension
 62
7
  6
CONTINUOUS
  2
*D2
 10
228.3641361892
 20
797.3695464658
 11
173.8390136719
 21
797.3695464658
 70
160
  3
DIMSTYLE_1
100
AcDbAlignedDimension
 13
118.4641361892
 23
848.8309877788
 14
228.3641361892
 24
848.8309877788
100
AcDbRotatedDimension
  0
DIMENSION
  5
27E
100
AcDbEntity
  8
0
100
AcDbDimension
 62
7
  6
CONTINUOUS
  2
*D3
 10
328.6468298109
 20
797.3695464658
 11
1732.0106445313
 21
797.3695464658
 70
160
  3
DIMSTYLE_2
100
AcDbAlignedDimension
 13
3135.6468298109
 23
848.8309877788
 14
328.6468298109
 24
849.6616898775
 50
180.0
100
AcDbRotatedDimension
  0
LINE
  5
27F
100
AcDbEntity
  8
0
100
AcDbLine
 62
2
  6
CONTINUOUS
 10
2995.0500556174
 20
53.170189099
 11
3085.0500556174
 21
53.170189099
  0
LINE
  5
280
100
AcDbEntity
  8
0
100
AcDbLine
 62
2
  6
CONTINUOUS
 10
2995.0500556174
 20
53.170189099
 11
2995.0500556174
 21
13.170189099
  0
LINE
  5
281
100
AcDbEntity
  8
0
100
AcDbLine
 62
2
  6
CONTINUOUS
 10
3025.0500556174
 20
47.170189099
 11
3085.0500556174
 21
47.170189099
  0
LINE
  5
282
100
AcDbEntity
  8
0
100
AcDbLine
 62
2
  6
CONTINUOUS
 10
3025.0500556174
 20
41.170189099
 11
3085.0500556174
 21
41.170189099
  0
LINE
  5
283
100
AcDbEntity
  8
0
100
AcDbLine
 62
2
  6
CONTINUOUS
 10
3025.0500556174
 20
31.170189099
 11
3085.0500556174
 21
31.170189099
  0
LINE
  5
284
100
AcDbEntity
  8
0
100
AcDbLine
 62
2
  6
CONTINUOUS
 10
2995.0500556174
 20
26.170189099
 11
3085.0500556174
 21
26.170189099
  0
LINE
  5
285
100
AcDbEntity
  8
0
100
AcDbLine
 62
2
  6
CONTINUOUS
 10
2995.0500556174
 20
13.170189099
 11
3085.0500556174
 21
13.170189099
  0
LINE
  5
286
100
AcDbEntity
  8
0
100
AcDbLine
 62
2
  6
CONTINUOUS
 10
3025.0500556174
 20
53.170189099
 11
3025.0500556174
 21
26.170189099
  0
LINE
  5
287
100
AcDbEntity
  8
0
100
AcDbLine
 62
2
  6
CONTINUOUS
 10
3065.0500556174
 20
53.170189099
 11
3065.0500556174
 21
41.170189099
  0
LINE
  5
288
100
AcDbEntity
  8
0
100
AcDbLine
 62
2
  6
CONTINUOUS
 10
3085.0500556174
 20
53.170189099
 11
3085.0500556174
 21
13.170189099
  0
INSERT
  5
289
100
AcDbEntity
  8
0
100
AcDbBlockReference
 62
2
  6
CONTINUOUS
  2
LOGO2_BL0
 10
3008.8761026621
 20
39.670189099
  0
MTEXT
  5
28A
100
AcDbEntity
  8
9_SOLID
100
AcDbMText
 62
2
  6
CONTINUOUS
  7
TEXTSTYLE_2
 71
1
 72
1
 10
3026.5375556174
 20
51.670189099
 30
0.0
 11
1.0
 21
0.0
 31
0.0
  1
6F4_C_247
 40
3.0
 41
32.5714285714
  0
MTEXT
  5
28B
100
AcDbEntity
  8
0
100
AcDbMText
 62
2
  6
CONTINUOUS
  7
TEXTSTYLE_2
 71
1
 72
1
 10
3066.5375556174
 20
51.420189099
 30
0.0
 11
1.0
 21
0.0
 31
0.0
  1
Rev:00
 40
3.5
 41
22.75
  0
MTEXT
  5
28C
100
AcDbEntity
  8
9_SOLID
100
AcDbMText
 62
2
  6
CONTINUOUS
  7
TEXTSTYLE_2
 71
1
 72
1
 10
3026.5375556174
 20
45.420189099
 30
0.0
 11
1.0
 21
0.0
 31
0.0
  1
Scale:1:1
 40
3.5
 41
28.375
  0
MTEXT
  5
28D
100
AcDbEntity
  8
9_SOLID
100
AcDbMText
 62
2
  6
CONTINUOUS
  7
TEXTSTYLE_2
 71
1
 72
1
 10
3066.5375556174
 20
45.920189099
 30
0.0
 11
1.0
 21
0.0
 31
0.0
  1
3200 by 2500
 40
3.5
 41
48.5
  0
MTEXT
  5
28E
100
AcDbEntity
  8
0
100
AcDbMText
 62
2
  6
CONTINUOUS
  7
TEXTSTYLE_2
 71
1
 72
1
 10
3026.5375556174
 20
37.920189099
 30
0.0
 11
1.0
 21
0.0
 31
0.0
  1
CASS. BRENTA 2.9 ARRETRATA NO STANDARD
 40
3.5
 41
160.375
  0
MTEXT
  5
28F
100
AcDbEntity
  8
0
100
AcDbMText
 62
2
  6
CONTINUOUS
  7
TEXTSTYLE_2
 71
1
 72
1
 10
3026.5375556174
 20
29.920189099
 30
0.0
 11
1.0
 21
0.0
 31
0.0
  1
DATE:08/05/18
 40
2.5
 41
36.875
  0
MTEXT
  5
290
100
AcDbEntity
  8
9_SOLID
100
AcDbMText
 62
2
  6
CONTINUOUS
  7
TEXTSTYLE_2
 71
1
 72
1
 10
2996.5375556174
 20
25.857689099
 30
0.0
 11
1.0
 21
0.0
 31
0.0
  1
Any integral or partial reproductions are prohibited \Pwithout prior authorisation of L {\Ftxt.shx;\W0.190476;\H2.250000; }& L Luce & Light s.r.l., \Pin accordance with the law in force. \PAll rights reserved.
 40
2.25
 41
134.5982142857
  0
LINE
  5
291
100
AcDbEntity
  8
0
100
AcDbLine
 62
7
  6
CONTINUOUS
 10
0.0
 20
0.0
 11
0.0
 21
2500.0
  0
LINE
  5
292
100
AcDbEntity
  8
0
100
AcDbLine
 62
7
  6
CONTINUOUS
 10
0.0
 20
0.0
 11
3200.0
 21
0.0
  0
LINE
  5
293
100
AcDbEntity
  8
0
100
AcDbLine
 62
7
  6
CONTINUOUS
 10
0.0
 20
2500.0
 11
3200.0
 21
2500.0
  0
LINE
  5
294
100
AcDbEntity
  8
0
100
AcDbLine
 62
7
  6
CONTINUOUS
 10
3200.0
 20
0.0
 11
3200.0
 21
2500.0
  0
LINE
  5
295
100
AcDbEntity
  8
6_ALL_SURFS
100
AcDbLine
 62
7
  6
CONTINUOUS
 10
120.9641361892
 20
884.2912680756
 11
121.2641361892
 21
884.1412680756
  0
LINE
  5
296
100
AcDbEntity
  8
6_ALL_SURFS
100
AcDbLine
 62
7
  6
CONTINUOUS
 10
123.9641361892
 20
884.2912680756
 11
124.2641361892
 21
884.1412680756
  0
LINE
  5
297
100
AcDbEntity
  8
6_ALL_SURFS
100
AcDbLine
 62
7
  6
CONTINUOUS
 10
126.9641361892
 20
884.2912680756
 11
127.2641361892
 21
884.1412680756
  0
LINE
  5
298
100
AcDbEntity
  8
6_ALL_SURFS
100
AcDbLine
 62
7
  6
CONTINUOUS
 10
129.9641361892
 20
884.2912680756
 11
130.2641361892
 21
884.1412680756
  0
LINE
  5
299
100
AcDbEntity
  8
6_ALL_SURFS
100
AcDbLine
 62
7
  6
CONTINUOUS
 10
132.9641361892
 20
884.2912680756
 11
133.2641361892
 21
884.1412680756
  0
LINE
  5
29A
100
AcDbEntity
  8
6_ALL_SURFS
100
AcDbLine
 62
7
  6
CONTINUOUS
 10
135.9641361892
 20
884.2912680756
 11
136.2641361892
 21
884.1412680756
  0
LINE
  5
29B
100
AcDbEntity
  8
7_ALL_FEATURES
100
AcDbLine
 62
7
  6
CONTINUOUS
 10
225.8641361892
 20
883.1412680756
 11
228.0096077796
 21
883.3558152347
  0
LINE
  5
29C
100
AcDbEntity
  8
6_ALL_SURFS
100
AcDbLine
 62
7
  6
CONTINUOUS
 10
120.9641361892
 20
883.1412680756
 11
118.8186645988
 21
883.3558152347
  0
LINE
  5
29D
100
AcDbEntity
  8
6_ALL_SURFS
100
AcDbLine
 62
7
  6
CONTINUOUS
 10
139.6641361892
 20
881.6412680756
 11
139.0141361892
 21
881.6412680756
  0
LINE
  5
29E
100
AcDbEntity
  8
7_ALL_FEATURES
100
AcDbLine
 62
7
  6
CONTINUOUS
 10
207.1641361892
 20
881.6412680756
 11
207.8141361892
 21
881.6412680756
  0
LINE
  5
29F
100
AcDbEntity
  8
6_ALL_SURFS
100
AcDbLine
 62
7
  6
CONTINUOUS
 10
138.4141361892
 20
883.1412680756
 11
136.2641361892
 21
883.1412680756
  0
LINE
  5
2A0
100
AcDbEntity
  8
6_ALL_SURFS
100
AcDbLine
 62
7
  6
CONTINUOUS
 10
135.6641361892
 20
883.1412680756
 11
133.2641361892
 21
883.1412680756
  0
LINE
  5
2A1
100
AcDbEntity
  8
6_ALL_SURFS
100
AcDbLine
 62
7
  6
CONTINUOUS
 10
132.6641361892
 20
883.1412680756
 11
130.2641361892
 21
883.1412680756
  0
LINE
  5
2A2
100
AcDbEntity
  8
6_ALL_SURFS
100
AcDbLine
 62
7
  6
CONTINUOUS
 10
129.6641361892
 20
883.1412680756
 11
127.2641361892
 21
883.1412680756
  0
LINE
  5
2A3
100
AcDbEntity
  8
6_ALL_SURFS
100
AcDbLine
 62
7
  6
CONTINUOUS
 10
126.6641361892
 20
883.1412680756
 11
124.2641361892
 21
883.1412680756
  0
LINE
  5
2A4
100
AcDbEntity
  8
6_ALL_SURFS
100
AcDbLine
 62
7
  6
CONTINUOUS
 10
123.6641361892
 20
883.1412680756
 11
120.9641361892
 21
883.1412680756
  0
LINE
  5
2A5
100
AcDbEntity
  8
7_ALL_FEATURES
100
AcDbLine
 62
7
  6
CONTINUOUS
 10
208.4141361892
 20
883.1412680756
 11
210.5641361892
 21
883.1412680756
  0
LINE
  5
2A6
100
AcDbEntity
  8
6_ALL_SURFS
100
AcDbLine
 62
7
  6
CONTINUOUS
 10
211.1641361892
 20
883.1412680756
 11
213.5641361892
 21
883.1412680756
  0
LINE
  5
2A7
100
AcDbEntity
  8
6_ALL_SURFS
100
AcDbLine
 62
7
  6
CONTINUOUS
 10
214.1641361892
 20
883.1412680756
 11
216.5641361892
 21
883.1412680756
  0
LINE
  5
2A8
100
AcDbEntity
  8
6_ALL_SURFS
100
AcDbLine
 62
7
  6
CONTINUOUS
 10
217.1641361892
 20
883.1412680756
 11
219.5641361892
 21
883.1412680756
  0
LINE
  5
2A9
100
AcDbEntity
  8
6_ALL_SURFS
100
AcDbLine
 62
7
  6
CONTINUOUS
 10
220.1641361892
 20
883.1412680756
 11
222.5641361892
 21
883.1412680756
  0
LINE
  5
2AA
100
AcDbEntity
  8
6_ALL_SURFS
100
AcDbLine
 62
7
  6
CONTINUOUS
 10
223.1641361892
 20
883.1412680756
 11
225.8641361892
 21
883.1412680756
  0
LINE
  5
2AB
100
AcDbEntity
  8
7_ALL_FEATURES
100
AcDbLine
 62
7
  6
CONTINUOUS
 10
227.9704328312
 20
884.1412680756
 11
226.1641361892
 21
884.1412680756
  0
LINE
  5
2AC
100
AcDbEntity
  8
6_ALL_SURFS
100
AcDbLine
 62
7
  6
CONTINUOUS
 10
225.5641361892
 20
884.1412680756
 11
223.1641361892
 21
884.1412680756
  0
LINE
  5
2AD
100
AcDbEntity
  8
6_ALL_SURFS
100
AcDbLine
 62
7
  6
CONTINUOUS
 10
222.5641361892
 20
884.1412680756
 11
220.1641361892
 21
884.1412680756
  0
LINE
  5
2AE
100
AcDbEntity
  8
6_ALL_SURFS
100
AcDbLine
 62
7
  6
CONTINUOUS
 10
219.5641361892
 20
884.1412680756
 11
217.1641361892
 21
884.1412680756
  0
LINE
  5
2AF
100
AcDbEntity
  8
6_ALL_SURFS
100
AcDbLine
 62
7
  6
CONTINUOUS
 10
216.5641361892
 20
884.1412680756
 11
214.1641361892
 21
884.1412680756
  0
LINE
  5
2B0
100
AcDbEntity
  8
6_ALL_SURFS
100
AcDbLine
 62
7
  6
CONTINUOUS
 10
213.5641361892
 20
884.1412680756
 11
211.1641361892
 21
884.1412680756
  0
LINE
  5
2B1
100
AcDbEntity
  8
7_ALL_FEATURES
100
AcDbLine
 62
7
  6
CONTINUOUS
 10
210.5641361892
 20
884.1412680756
 11
208.6641361892
 21
884.1412680756
  0
LINE
  5
2B2
100
AcDbEntity
  8
6_ALL_SURFS
100
AcDbLine
 62
7
  6
CONTINUOUS
 10
121.2641361892
 20
884.1412680756
 11
123.6641361892
 21
884.1412680756
  0
LINE
  5
2B3
100
AcDbEntity
  8
6_ALL_SURFS
100
AcDbLine
 62
7
  6
CONTINUOUS
 10
118.8578395471
 20
884.1412680756
 11
120.6641361892
 21
884.1412680756
  0
LINE
  5
2B4
100
AcDbEntity
  8
6_ALL_SURFS
100
AcDbLine
 62
7
  6
CONTINUOUS
 10
124.2641361892
 20
884.1412680756
 11
126.6641361892
 21
884.1412680756
  0
LINE
  5
2B5
100
AcDbEntity
  8
6_ALL_SURFS
100
AcDbLine
 62
7
  6
CONTINUOUS
 10
127.2641361892
 20
884.1412680756
 11
129.6641361892
 21
884.1412680756
  0
LINE
  5
2B6
100
AcDbEntity
  8
6_ALL_SURFS
100
AcDbLine
 62
7
  6
CONTINUOUS
 10
130.2641361892
 20
884.1412680756
 11
132.6641361892
 21
884.1412680756
  0
LINE
  5
2B7
100
AcDbEntity
  8
6_ALL_SURFS
100
AcDbLine
 62
7
  6
CONTINUOUS
 10
133.2641361892
 20
884.1412680756
 11
135.6641361892
 21
884.1412680756
  0
LINE
  5
2B8
100
AcDbEntity
  8
6_ALL_SURFS
100
AcDbLine
 62
7
  6
CONTINUOUS
 10
136.2641361892
 20
884.1412680756
 11
138.1641361892
 21
884.1412680756
  0
LINE
  5
2B9
100
AcDbEntity
  8
6_ALL_SURFS
100
AcDbLine
 62
7
  6
CONTINUOUS
 10
151.7499478714
 20
970.8023338346
 11
152.7250545102
 21
972.4912680756
  0
LINE
  5
2BA
100
AcDbEntity
  8
6_ALL_SURFS
100
AcDbLine
 62
7
  6
CONTINUOUS
 10
142.7762682235
 20
903.8291360413
 11
142.6520041548
 21
903.95340011
  0
LINE
  5
2BB
100
AcDbEntity
  8
6_ALL_SURFS
100
AcDbLine
 62
7
  6
CONTINUOUS
 10
138.3641361892
 20
907.2412680756
 11
138.3641361892
 21
910.0412680756
  0
LINE
  5
2BC
100
AcDbEntity
  8
6_ALL_SURFS
100
AcDbLine
 62
7
  6
CONTINUOUS
 10
138.4641361892
 20
884.4412680756
 11
138.4641361892
 21
894.1532275632
  0
LINE
  5
2BD
100
AcDbEntity
  8
6_ALL_SURFS
100
AcDbLine
 62
7
  6
CONTINUOUS
 10
138.4641361892
 20
897.1331604484
 11
138.4641361892
 21
900.6412680756
  0
LINE
  5
2BE
100
AcDbEntity
  8
6_ALL_SURFS
100
AcDbLine
 62
7
  6
CONTINUOUS
 10
138.7141361892
 20
881.9412680756
 11
138.7141361892
 21
882.8412680756
  0
LINE
  5
2BF
100
AcDbEntity
  8
6_ALL_SURFS
100
AcDbLine
 62
7
  6
CONTINUOUS
 10
139.9641361892
 20
900.523094933
 11
139.9641361892
 21
899.4412680756
  0
LINE
  5
2C0
100
AcDbEntity
  8
6_ALL_SURFS
100
AcDbLine
 62
7
  6
CONTINUOUS
 10
139.9641361892
 20
897.189431798
 11
139.9641361892
 21
896.5263700924
  0
LINE
  5
2C1
100
AcDbEntity
  8
6_ALL_SURFS
100
AcDbLine
 62
7
  6
CONTINUOUS
 10
139.9641361892
 20
894.7600179192
 11
139.9641361892
 21
881.9412680756
  0
LINE
  5
2C2
100
AcDbEntity
  8
7_ALL_FEATURES
100
AcDbLine
 62
7
  6
CONTINUOUS
 10
140.1141361892
 20
897.4412680756
 11
140.1141361892
 21
896.8412680756
  0
LINE
  5
2C3
100
AcDbEntity
  8
6_ALL_SURFS
100
AcDbLine
 62
7
  6
CONTINUOUS
 10
141.3828864281
 20
948.1017778641
 11
145.3695202581
 21
966.0662389501
  0
LINE
  5
2C4
100
AcDbEntity
  8
6_ALL_SURFS
100
AcDbLine
 62
7
  6
CONTINUOUS
 10
146.8272162264
 20
965.2495917005
 11
142.9184432123
 21
947.6359849085
  0
LINE
  5
2C5
100
AcDbEntity
  8
6_ALL_SURFS
100
AcDbLine
 62
7
  6
CONTINUOUS
 10
143.5115301462
 20
946.823215857
 11
142.9847509476
 21
945.3759019039
  0
LINE
  5
2C6
100
AcDbEntity
  8
6_ALL_SURFS
100
AcDbLine
 62
7
  6
CONTINUOUS
 10
140.9641361892
 20
904.0312287068
 11
140.9641361892
 21
905.4412680756
  0
LINE
  5
2C7
100
AcDbEntity
  8
6_ALL_SURFS
100
AcDbLine
 62
7
  6
CONTINUOUS
 10
141.2641361892
 20
911.8412680756
 11
141.2641361892
 21
947.0185416158
  0
LINE
  5
2C8
100
AcDbEntity
  8
7_ALL_FEATURES
100
AcDbLine
 62
7
  6
CONTINUOUS
 10
141.3641361892
 20
898.4612680756
 11
141.3641361892
 21
897.8412680756
  0
LINE
  5
2C9
100
AcDbEntity
  8
7_ALL_FEATURES
100
AcDbLine
 62
7
  6
CONTINUOUS
 10
142.1641361892
 20
898.3412680756
 11
142.1641361892
 21
898.4612680756
  0
LINE
  5
2CA
100
AcDbEntity
  8
6_ALL_SURFS
100
AcDbLine
 62
7
  6
CONTINUOUS
 10
142.5641361892
 20
904.1655321444
 11
142.5641361892
 21
905.7170040069
  0
LINE
  5
2CB
100
AcDbEntity
  8
6_ALL_SURFS
100
AcDbLine
 62
7
  6
CONTINUOUS
 10
142.8641361892
 20
944.6918616172
 11
142.8641361892
 21
909.7382335871
  0
LINE
  5
2CC
100
AcDbEntity
  8
6_ALL_SURFS
100
AcDbLine
 62
7
  6
CONTINUOUS
 10
142.8641361892
 20
907.5443025642
 11
142.8641361892
 21
906.2655321444
  0
LINE
  5
2CD
100
AcDbEntity
  8
6_ALL_SURFS
100
AcDbLine
 62
7
  6
CONTINUOUS
 10
142.8641361892
 20
903.6170040069
 11
142.8641361892
 21
902.4412680756
  0
LINE
  5
2CE
100
AcDbEntity
  8
7_ALL_FEATURES
100
AcDbLine
 62
7
  6
CONTINUOUS
 10
171.9141361892
 20
970.6412680756
 11
171.7141361892
 21
970.4412680756
  0
LINE
  5
2CF
100
AcDbEntity
  8
7_ALL_FEATURES
100
AcDbLine
 62
7
  6
CONTINUOUS
 10
140.3141361892
 20
896.6412680756
 11
206.5141361892
 21
896.6412680756
  0
LINE
  5
2D0
100
AcDbEntity
  8
7_ALL_FEATURES
100
AcDbLine
 62
7
  6
CONTINUOUS
 10
206.5141361892
 20
897.6412680756
 11
205.6641361892
 21
897.6412680756
  0
LINE
  5
2D1
100
AcDbEntity
  8
7_ALL_FEATURES
100
AcDbLine
 62
7
  6
CONTINUOUS
 10
141.1641361892
 20
897.6412680756
 11
140.3141361892
 21
897.6412680756
  0
LINE
  5
2D2
100
AcDbEntity
  8
7_ALL_FEATURES
100
AcDbLine
 62
7
  6
CONTINUOUS
 10
204.4641361892
 20
898.1412680756
 11
142.3641361892
 21
898.1412680756
  0
LINE
  5
2D3
100
AcDbEntity
  8
7_ALL_FEATURES
100
AcDbLine
 62
7
  6
CONTINUOUS
 10
206.5641361892
 20
899.1412680756
 11
205.8501411418
 21
899.1412680756
  0
LINE
  5
2D4
100
AcDbEntity
  8
6_ALL_SURFS
100
AcDbLine
 62
7
  6
CONTINUOUS
 10
140.2641361892
 20
899.1412680756
 11
140.9781312365
 21
899.1412680756
  0
LINE
  5
2D5
100
AcDbEntity
  8
6_ALL_SURFS
100
AcDbLine
 62
7
  6
CONTINUOUS
 10
142.6252019481
 20
907.8554563934
 11
142.7141361892
 21
907.8041101853
  0
LINE
  5
2D6
100
AcDbEntity
  8
6_ALL_SURFS
100
AcDbLine
 62
7
  6
CONTINUOUS
 10
146.6562523567
 20
971.6412680756
 11
146.6562523567
 21
972.3412680756
  0
LINE
  5
2D7
100
AcDbEntity
  8
6_ALL_SURFS
100
AcDbLine
 62
7
  6
CONTINUOUS
 10
142.5641361892
 20
902.1412680756
 11
141.4933525309
 21
902.1412680756
  0
LINE
  5
2D8
100
AcDbEntity
  8
7_ALL_FEATURES
100
AcDbLine
 62
7
  6
CONTINUOUS
 10
204.2641361892
 20
902.1412680756
 11
205.3349198475
 21
902.1412680756
  0
LINE
  5
2D9
100
AcDbEntity
  8
6_ALL_SURFS
100
AcDbLine
 62
7
  6
CONTINUOUS
 10
153.7641361892
 20
972.3412680756
 11
153.7641361892
 21
969.3912680756
  0
LINE
  5
2DA
100
AcDbEntity
  8
6_ALL_SURFS
100
AcDbLine
 62
7
  6
CONTINUOUS
 10
140.6641361892
 20
905.7412680756
 11
139.8641361892
 21
905.7412680756
  0
LINE
  5
2DB
100
AcDbEntity
  8
7_ALL_FEATURES
100
AcDbLine
 62
7
  6
CONTINUOUS
 10
206.1641361892
 20
905.7412680756
 11
206.9641361892
 21
905.7412680756
  0
LINE
  5
2DC
100
AcDbEntity
  8
6_ALL_SURFS
100
AcDbLine
 62
7
  6
CONTINUOUS
 10
211.1641361892
 20
884.1412680756
 11
210.8641361892
 21
884.2912680756
  0
LINE
  5
2DD
100
AcDbEntity
  8
6_ALL_SURFS
100
AcDbLine
 62
7
  6
CONTINUOUS
 10
214.1641361892
 20
884.1412680756
 11
213.8641361892
 21
884.2912680756
  0
LINE
  5
2DE
100
AcDbEntity
  8
6_ALL_SURFS
100
AcDbLine
 62
7
  6
CONTINUOUS
 10
217.1641361892
 20
884.1412680756
 11
216.8641361892
 21
884.2912680756
  0
LINE
  5
2DF
100
AcDbEntity
  8
7_ALL_FEATURES
100
AcDbLine
 62
7
  6
CONTINUOUS
 10
206.9641361892
 20
911.5412680756
 11
205.8641361892
 21
911.5412680756
  0
LINE
  5
2E0
100
AcDbEntity
  8
6_ALL_SURFS
100
AcDbLine
 62
7
  6
CONTINUOUS
 10
139.8641361892
 20
911.5412680756
 11
140.9641361892
 21
911.5412680756
  0
LINE
  5
2E1
100
AcDbEntity
  8
6_ALL_SURFS
100
AcDbLine
 62
7
  6
CONTINUOUS
 10
220.1641361892
 20
884.1412680756
 11
219.8641361892
 21
884.2912680756
  0
LINE
  5
2E2
100
AcDbEntity
  8
6_ALL_SURFS
100
AcDbLine
 62
7
  6
CONTINUOUS
 10
223.1641361892
 20
884.1412680756
 11
222.8641361892
 21
884.2912680756
  0
LINE
  5
2E3
100
AcDbEntity
  8
6_ALL_SURFS
100
AcDbLine
 62
7
  6
CONTINUOUS
 10
226.1641361892
 20
884.1412680756
 11
225.8641361892
 21
884.2912680756
  0
LINE
  5
2E4
100
AcDbEntity
  8
7_ALL_FEATURES
100
AcDbLine
 62
7
  6
CONTINUOUS
 10
165.9141361892
 20
965.6412680756
 11
165.9141361892
 21
964.6412680756
  0
LINE
  5
2E5
100
AcDbEntity
  8
6_ALL_SURFS
100
AcDbLine
 62
7
  6
CONTINUOUS
 10
141.1368019046
 20
898.8195157898
 11
140.0261301871
 21
897.3720602267
  0
LINE
  5
2E6
100
AcDbEntity
  8
6_ALL_SURFS
100
AcDbLine
 62
7
  6
CONTINUOUS
 10
138.8671056367
 20
901.6642656157
 11
140.8835422997
 21
903.8266291988
  0
LINE
  5
2E7
100
AcDbEntity
  8
6_ALL_SURFS
100
AcDbLine
 62
7
  6
CONTINUOUS
 10
141.2739464204
 20
902.0458675837
 11
140.0447300787
 21
900.727694441
  0
LINE
  5
2E8
100
AcDbEntity
  8
3_ALL_AXES
100
AcDbLine
 62
7
  6
CONTINUOUS
 10
141.0823830981
 20
901.2140674197
 11
140.7179552848
 21
900.8232664357
  0
LINE
  5
2E9
100
AcDbEntity
  8
3_ALL_AXES
100
AcDbLine
 62
7
  6
CONTINUOUS
 10
141.3030382461
 20
900.2776677477
 11
141.6674660594
 21
900.6684687316
  0
LINE
  5
2EA
100
AcDbEntity
  8
6_ALL_SURFS
100
AcDbLine
 62
7
  6
CONTINUOUS
 10
142.6520041548
 20
905.9291360413
 11
142.7762682235
 21
906.05340011
  0
LINE
  5
2EB
100
AcDbEntity
  8
7_ALL_FEATURES
100
AcDbLine
 62
7
  6
CONTINUOUS
 10
203.7195602233
 20
947.2890829474
 11
203.4960439754
 21
947.2077296862
  0
LINE
  5
2EC
100
AcDbEntity
  8
7_ALL_FEATURES
100
AcDbLine
 62
7
  6
CONTINUOUS
 10
169.4141361892
 20
962.6130648454
 11
169.4141361892
 21
964.6412680756
  0
LINE
  5
2ED
100
AcDbEntity
  8
6_ALL_SURFS
100
AcDbLine
 62
7
  6
CONTINUOUS
 10
169.8141361892
 20
967.5412680756
 11
169.8141361892
 21
971.1412680756
  0
LINE
  5
2EE
100
AcDbEntity
  8
7_ALL_FEATURES
100
AcDbLine
 62
7
  6
CONTINUOUS
 10
171.4141361892
 20
961.7953013832
 11
171.4141361892
 21
961.8114556588
  0
LINE
  5
2EF
100
AcDbEntity
  8
6_ALL_SURFS
100
AcDbLine
 62
7
  6
CONTINUOUS
 10
171.7141361892
 20
970.7412680756
 11
171.7141361892
 21
965.9412680756
  0
LINE
  5
2F0
100
AcDbEntity
  8
7_ALL_FEATURES
100
AcDbLine
 62
7
  6
CONTINUOUS
 10
172.9141361892
 20
961.5725793504
 11
172.9141361892
 21
961.8114556588
  0
LINE
  5
2F1
100
AcDbEntity
  8
7_ALL_FEATURES
100
AcDbLine
 62
7
  6
CONTINUOUS
 10
173.9141361892
 20
961.8114556588
 11
173.9141361892
 21
961.5725793504
  0
LINE
  5
2F2
100
AcDbEntity
  8
7_ALL_FEATURES
100
AcDbLine
 62
7
  6
CONTINUOUS
 10
197.6250545103
 20
972.4912680756
 11
196.6499478715
 21
970.8023338345
  0
LINE
  5
2F3
100
AcDbEntity
  8
6_ALL_SURFS
100
AcDbLine
 62
7
  6
CONTINUOUS
 10
142.7141361892
 20
909.478425966
 11
142.6252019481
 21
909.4270797579
  0
LINE
  5
2F4
100
AcDbEntity
  8
7_ALL_FEATURES
100
AcDbLine
 62
7
  6
CONTINUOUS
 10
204.1141361892
 20
909.478425966
 11
204.2030704303
 21
909.4270797579
  0
LINE
  5
2F5
100
AcDbEntity
  8
7_ALL_FEATURES
100
AcDbLine
 62
7
  6
CONTINUOUS
 10
175.1141361892
 20
970.7412680756
 11
175.1141361892
 21
965.9412680756
  0
LINE
  5
2F6
100
AcDbEntity
  8
7_ALL_FEATURES
100
AcDbLine
 62
7
  6
CONTINUOUS
 10
175.4141361892
 20
961.8114556588
 11
175.4141361892
 21
961.7953013832
  0
LINE
  5
2F7
100
AcDbEntity
  8
7_ALL_FEATURES
100
AcDbLine
 62
7
  6
CONTINUOUS
 10
177.0141361892
 20
967.5412680756
 11
177.0141361892
 21
971.1412680756
  0
LINE
  5
2F8
100
AcDbEntity
  8
7_ALL_FEATURES
100
AcDbLine
 62
7
  6
CONTINUOUS
 10
177.4141361892
 20
962.6130648454
 11
177.4141361892
 21
964.6412680756
  0
LINE
  5
2F9
100
AcDbEntity
  8
3_ALL_AXES
100
AcDbLine
 62
7
  6
CONTINUOUS
 10
205.160806319
 20
900.6684687316
 11
205.5252341322
 21
900.2776677477
  0
LINE
  5
2FA
100
AcDbEntity
  8
6_ALL_SURFS
100
AcDbLine
 62
7
  6
CONTINUOUS
 10
149.2032178681
 20
972.4912680756
 11
150.1783245069
 21
970.8023338345
  0
LINE
  5
2FB
100
AcDbEntity
  8
7_ALL_FEATURES
100
AcDbLine
 62
7
  6
CONTINUOUS
 10
180.9141361892
 20
964.6412680756
 11
180.9141361892
 21
965.6412680756
  0
LINE
  5
2FC
100
AcDbEntity
  8
6_ALL_SURFS
100
AcDbLine
 62
7
  6
CONTINUOUS
 10
143.108712155
 20
947.2890829474
 11
143.3322284029
 21
947.2077296862
  0
LINE
  5
2FD
100
AcDbEntity
  8
7_ALL_FEATURES
100
AcDbLine
 62
7
  6
CONTINUOUS
 10
204.1762682235
 20
905.9291360413
 11
204.0520041548
 21
906.05340011
  0
LINE
  5
2FE
100
AcDbEntity
  8
3_ALL_AXES
100
AcDbLine
 62
7
  6
CONTINUOUS
 10
206.1103170935
 20
900.8232664357
 11
205.7458892803
 21
901.2140674197
  0
LINE
  5
2FF
100
AcDbEntity
  8
7_ALL_FEATURES
100
AcDbLine
 62
7
  6
CONTINUOUS
 10
205.554325958
 20
902.0458675837
 11
206.7835422997
 21
900.727694441
  0
LINE
  5
300
100
AcDbEntity
  8
7_ALL_FEATURES
100
AcDbLine
 62
7
  6
CONTINUOUS
 10
207.9611667416
 20
901.6642656157
 11
205.9447300787
 21
903.8266291988
  0
LINE
  5
301
100
AcDbEntity
  8
7_ALL_FEATURES
100
AcDbLine
 62
7
  6
CONTINUOUS
 10
205.6914704737
 20
898.8195157898
 11
206.8021421913
 21
897.3720602267
  0
LINE
  5
302
100
AcDbEntity
  8
6_ALL_SURFS
100
AcDbLine
 62
7
  6
CONTINUOUS
 10
120.6641361892
 20
884.1412680756
 11
120.9641361892
 21
884.2912680756
  0
LINE
  5
303
100
AcDbEntity
  8
7_ALL_FEATURES
100
AcDbLine
 62
7
  6
CONTINUOUS
 10
193.0641361892
 20
972.3412680756
 11
193.0641361892
 21
969.3912680756
  0
LINE
  5
304
100
AcDbEntity
  8
6_ALL_SURFS
100
AcDbLine
 62
7
  6
CONTINUOUS
 10
123.6641361892
 20
884.1412680756
 11
123.9641361892
 21
884.2912680756
  0
LINE
  5
305
100
AcDbEntity
  8
6_ALL_SURFS
100
AcDbLine
 62
7
  6
CONTINUOUS
 10
126.6641361892
 20
884.1412680756
 11
126.9641361892
 21
884.2912680756
  0
LINE
  5
306
100
AcDbEntity
  8
6_ALL_SURFS
100
AcDbLine
 62
7
  6
CONTINUOUS
 10
129.6641361892
 20
884.1412680756
 11
129.9641361892
 21
884.2912680756
  0
LINE
  5
307
100
AcDbEntity
  8
6_ALL_SURFS
100
AcDbLine
 62
7
  6
CONTINUOUS
 10
132.6641361892
 20
884.1412680756
 11
132.9641361892
 21
884.2912680756
  0
LINE
  5
308
100
AcDbEntity
  8
6_ALL_SURFS
100
AcDbLine
 62
7
  6
CONTINUOUS
 10
135.6641361892
 20
884.1412680756
 11
135.9641361892
 21
884.2912680756
  0
LINE
  5
309
100
AcDbEntity
  8
7_ALL_FEATURES
100
AcDbLine
 62
7
  6
CONTINUOUS
 10
200.1720200217
 20
971.6412680756
 11
200.1720200217
 21
972.3412680756
  0
LINE
  5
30A
100
AcDbEntity
  8
7_ALL_FEATURES
100
AcDbLine
 62
7
  6
CONTINUOUS
 10
203.9641361892
 20
944.6918616172
 11
203.9641361892
 21
909.7382335871
  0
LINE
  5
30B
100
AcDbEntity
  8
7_ALL_FEATURES
100
AcDbLine
 62
7
  6
CONTINUOUS
 10
203.9641361892
 20
907.5443025642
 11
203.9641361892
 21
906.2655321444
  0
LINE
  5
30C
100
AcDbEntity
  8
7_ALL_FEATURES
100
AcDbLine
 62
7
  6
CONTINUOUS
 10
203.9641361892
 20
903.6170040069
 11
203.9641361892
 21
902.4412680756
  0
LINE
  5
30D
100
AcDbEntity
  8
7_ALL_FEATURES
100
AcDbLine
 62
7
  6
CONTINUOUS
 10
204.2641361892
 20
904.1655321444
 11
204.2641361892
 21
905.7170040069
  0
LINE
  5
30E
100
AcDbEntity
  8
7_ALL_FEATURES
100
AcDbLine
 62
7
  6
CONTINUOUS
 10
204.6641361892
 20
898.4612680756
 11
204.6641361892
 21
898.3412680756
  0
LINE
  5
30F
100
AcDbEntity
  8
7_ALL_FEATURES
100
AcDbLine
 62
7
  6
CONTINUOUS
 10
205.4641361892
 20
897.8412680756
 11
205.4641361892
 21
898.4612680756
  0
LINE
  5
310
100
AcDbEntity
  8
7_ALL_FEATURES
100
AcDbLine
 62
7
  6
CONTINUOUS
 10
205.5641361892
 20
911.8412680756
 11
205.5641361892
 21
947.0185416158
  0
LINE
  5
311
100
AcDbEntity
  8
7_ALL_FEATURES
100
AcDbLine
 62
7
  6
CONTINUOUS
 10
205.8641361892
 20
904.0312287068
 11
205.8641361892
 21
905.4412680756
  0
LINE
  5
312
100
AcDbEntity
  8
7_ALL_FEATURES
100
AcDbLine
 62
7
  6
CONTINUOUS
 10
206.7141361892
 20
896.8412680756
 11
206.7141361892
 21
897.4412680756
  0
LINE
  5
313
100
AcDbEntity
  8
7_ALL_FEATURES
100
AcDbLine
 62
7
  6
CONTINUOUS
 10
206.8641361892
 20
900.523094933
 11
206.8641361892
 21
899.4412680756
  0
LINE
  5
314
100
AcDbEntity
  8
7_ALL_FEATURES
100
AcDbLine
 62
7
  6
CONTINUOUS
 10
206.8641361892
 20
897.189431798
 11
206.8641361892
 21
896.5263700924
  0
LINE
  5
315
100
AcDbEntity
  8
7_ALL_FEATURES
100
AcDbLine
 62
7
  6
CONTINUOUS
 10
206.8641361892
 20
894.7600179192
 11
206.8641361892
 21
881.9412680756
  0
LINE
  5
316
100
AcDbEntity
  8
7_ALL_FEATURES
100
AcDbLine
 62
7
  6
CONTINUOUS
 10
204.2030704303
 20
907.8554563934
 11
204.1141361892
 21
907.8041101853
  0
LINE
  5
317
100
AcDbEntity
  8
7_ALL_FEATURES
100
AcDbLine
 62
7
  6
CONTINUOUS
 10
174.9141361892
 20
970.6412680756
 11
175.1141361892
 21
970.4412680756
  0
LINE
  5
318
100
AcDbEntity
  8
7_ALL_FEATURES
100
AcDbLine
 62
7
  6
CONTINUOUS
 10
208.1141361892
 20
881.9412680756
 11
208.1141361892
 21
882.8412680756
  0
LINE
  5
319
100
AcDbEntity
  8
7_ALL_FEATURES
100
AcDbLine
 62
7
  6
CONTINUOUS
 10
208.3641361892
 20
884.4412680756
 11
208.3641361892
 21
894.1532275632
  0
LINE
  5
31A
100
AcDbEntity
  8
7_ALL_FEATURES
100
AcDbLine
 62
7
  6
CONTINUOUS
 10
208.3641361892
 20
897.1331604484
 11
208.3641361892
 21
900.6412680756
  0
LINE
  5
31B
100
AcDbEntity
  8
7_ALL_FEATURES
100
AcDbLine
 62
7
  6
CONTINUOUS
 10
208.4641361892
 20
907.2412680756
 11
208.4641361892
 21
910.0412680756
  0
LINE
  5
31C
100
AcDbEntity
  8
7_ALL_FEATURES
100
AcDbLine
 62
7
  6
CONTINUOUS
 10
204.0520041548
 20
903.8291360413
 11
204.1762682235
 21
903.95340011
  0
LINE
  5
31D
100
AcDbEntity
  8
7_ALL_FEATURES
100
AcDbLine
 62
7
  6
CONTINUOUS
 10
177.4141361892
 20
962.6130648454
 11
169.4141361892
 21
962.6130648454
  0
LINE
  5
31E
100
AcDbEntity
  8
7_ALL_FEATURES
100
AcDbLine
 62
7
  6
CONTINUOUS
 10
165.9141361892
 20
964.6412680756
 11
180.9141361892
 21
964.6412680756
  0
LINE
  5
31F
100
AcDbEntity
  8
6_ALL_SURFS
100
AcDbLine
 62
7
  6
CONTINUOUS
 10
171.4141361892
 20
965.6412680756
 11
147.3153412025
 21
965.6412680756
  0
LINE
  5
320
100
AcDbEntity
  8
7_ALL_FEATURES
100
AcDbLine
 62
7
  6
CONTINUOUS
 10
171.4141361892
 20
965.6412680756
 11
199.5129311759
 21
965.6412680756
  0
LINE
  5
321
100
AcDbEntity
  8
7_ALL_FEATURES
100
AcDbLine
 62
7
  6
CONTINUOUS
 10
203.3167422322
 20
946.823215857
 11
203.8435214307
 21
945.3759019039
  0
LINE
  5
322
100
AcDbEntity
  8
7_ALL_FEATURES
100
AcDbLine
 62
7
  6
CONTINUOUS
 10
200.001056152
 20
965.2495917005
 11
203.909829166
 21
947.6359849085
  0
LINE
  5
323
100
AcDbEntity
  8
7_ALL_FEATURES
100
AcDbLine
 62
7
  6
CONTINUOUS
 10
205.4453859503
 20
948.1017778641
 11
201.4587521203
 21
966.0662389501
  0
LINE
  5
324
100
AcDbEntity
  8
7_ALL_FEATURES
100
AcDbLine
 62
7
  6
CONTINUOUS
 10
199.9943771919
 20
967.2412680756
 11
198.7220200217
 21
967.2412680756
  0
LINE
  5
325
100
AcDbEntity
  8
7_ALL_FEATURES
100
AcDbLine
 62
7
  6
CONTINUOUS
 10
193.0062523567
 20
967.2412680756
 11
177.3141361892
 21
967.2412680756
  0
LINE
  5
326
100
AcDbEntity
  8
6_ALL_SURFS
100
AcDbLine
 62
7
  6
CONTINUOUS
 10
146.8338951864
 20
967.2412680756
 11
148.1062523567
 21
967.2412680756
  0
LINE
  5
327
100
AcDbEntity
  8
6_ALL_SURFS
100
AcDbLine
 62
7
  6
CONTINUOUS
 10
153.8220200217
 20
967.2412680756
 11
169.5141361892
 21
967.2412680756
  0
LINE
  5
328
100
AcDbEntity
  8
7_ALL_FEATURES
100
AcDbLine
 62
7
  6
CONTINUOUS
 10
175.1141361892
 20
970.1412680756
 11
171.7141361892
 21
970.1412680756
  0
LINE
  5
329
100
AcDbEntity
  8
7_ALL_FEATURES
100
AcDbLine
 62
7
  6
CONTINUOUS
 10
195.0783245069
 20
970.8023338346
 11
194.1032178682
 21
972.4912680756
  0
LINE
  5
32A
100
AcDbEntity
  8
7_ALL_FEATURES
100
AcDbLine
 62
7
  6
CONTINUOUS
 10
174.9141361892
 20
970.6412680756
 11
171.9141361892
 21
970.6412680756
  0
LINE
  5
32B
100
AcDbEntity
  8
7_ALL_FEATURES
100
AcDbLine
 62
7
  6
CONTINUOUS
 10
174.8141361892
 20
971.0412680756
 11
172.0141361892
 21
971.0412680756
  0
LINE
  5
32C
100
AcDbEntity
  8
6_ALL_SURFS
100
AcDbLine
 62
7
  6
CONTINUOUS
 10
147.9997644176
 20
971.3412680756
 11
146.9562523567
 21
971.3412680756
  0
LINE
  5
32D
100
AcDbEntity
  8
7_ALL_FEATURES
100
AcDbLine
 62
7
  6
CONTINUOUS
 10
198.8285079607
 20
971.3412680756
 11
199.8720200217
 21
971.3412680756
  0
LINE
  5
32E
100
AcDbEntity
  8
7_ALL_FEATURES
100
AcDbLine
 62
7
  6
CONTINUOUS
 10
199.8720200217
 20
972.6412680756
 11
197.8848621314
 21
972.6412680756
  0
LINE
  5
32F
100
AcDbEntity
  8
7_ALL_FEATURES
100
AcDbLine
 62
7
  6
CONTINUOUS
 10
193.843410247
 20
972.6412680756
 11
193.3641361892
 21
972.6412680756
  0
LINE
  5
330
100
AcDbEntity
  8
6_ALL_SURFS
100
AcDbLine
 62
7
  6
CONTINUOUS
 10
146.9562523567
 20
972.6412680756
 11
148.9434102469
 21
972.6412680756
  0
LINE
  5
331
100
AcDbEntity
  8
6_ALL_SURFS
100
AcDbLine
 62
7
  6
CONTINUOUS
 10
152.9848621313
 20
972.6412680756
 11
153.4641361892
 21
972.6412680756
  0
LINE
  5
332
100
AcDbEntity
  8
7_ALL_FEATURES
100
AcDbLine
 62
7
  6
CONTINUOUS
 10
171.3141361892
 20
972.6412680756
 11
175.5141361892
 21
972.6412680756
  0
LINE
  5
333
100
AcDbEntity
  8
6_ALL_SURFS
100
AcDbLine
 62
7
  6
CONTINUOUS
 10
210.8641361892
 20
884.2912680756
 11
210.5641361892
 21
884.1412680756
  0
LINE
  5
334
100
AcDbEntity
  8
6_ALL_SURFS
100
AcDbLine
 62
7
  6
CONTINUOUS
 10
213.8641361892
 20
884.2912680756
 11
213.5641361892
 21
884.1412680756
  0
LINE
  5
335
100
AcDbEntity
  8
6_ALL_SURFS
100
AcDbLine
 62
7
  6
CONTINUOUS
 10
216.8641361892
 20
884.2912680756
 11
216.5641361892
 21
884.1412680756
  0
LINE
  5
336
100
AcDbEntity
  8
6_ALL_SURFS
100
AcDbLine
 62
7
  6
CONTINUOUS
 10
219.8641361892
 20
884.2912680756
 11
219.5641361892
 21
884.1412680756
  0
LINE
  5
337
100
AcDbEntity
  8
6_ALL_SURFS
100
AcDbLine
 62
7
  6
CONTINUOUS
 10
222.8641361892
 20
884.2912680756
 11
222.5641361892
 21
884.1412680756
  0
LINE
  5
338
100
AcDbEntity
  8
6_ALL_SURFS
100
AcDbLine
 62
7
  6
CONTINUOUS
 10
225.8641361892
 20
884.2912680756
 11
225.5641361892
 21
884.1412680756
  0
LINE
  5
339
100
AcDbEntity
  8
6_ALL_SURFS
100
AcDbLine
 62
7
  6
CONTINUOUS
 10
328.6468298109
 20
883.1412680756
 11
328.6468298109
 21
884.2912680756
  0
LINE
  5
33A
100
AcDbEntity
  8
6_ALL_SURFS
100
AcDbLine
 62
7
  6
CONTINUOUS
 10
328.6468298109
 20
881.6412680756
 11
328.6468298109
 21
883.1310458235
  0
LINE
  5
33B
100
AcDbEntity
  8
6_ALL_SURFS
100
AcDbLine
 62
7
  6
CONTINUOUS
 10
328.6468298109
 20
884.4412680756
 11
328.6468298109
 21
972.6412680756
  0
LINE
  5
33C
100
AcDbEntity
  8
6_ALL_SURFS
100
AcDbLine
 62
7
  6
CONTINUOUS
 10
3135.6468298109
 20
881.6412680756
 11
328.6468298109
 21
881.6412680756
  0
LINE
  5
33D
100
AcDbEntity
  8
6_ALL_SURFS
100
AcDbLine
 62
9
  6
CONTINUOUS
 10
3135.6468298109
 20
881.9412680756
 11
328.6468298109
 21
881.9412680756
  0
LINE
  5
33E
100
AcDbEntity
  8
6_ALL_SURFS
100
AcDbLine
 62
9
  6
CONTINUOUS
 10
328.6468298109
 20
882.8412680756
 11
3135.6468298109
 21
882.8412680756
  0
LINE
  5
33F
100
AcDbEntity
  8
6_ALL_SURFS
100
AcDbLine
 62
7
  6
CONTINUOUS
 10
328.6468298109
 20
883.1412680756
 11
3135.6468298109
 21
883.1412680756
  0
LINE
  5
340
100
AcDbEntity
  8
6_ALL_SURFS
100
AcDbLine
 62
9
  6
CONTINUOUS
 10
328.6468298109
 20
883.3558152347
 11
3135.6468298109
 21
883.3558152347
  0
LINE
  5
341
100
AcDbEntity
  8
6_ALL_SURFS
100
AcDbLine
 62
7
  6
CONTINUOUS
 10
328.6468298109
 20
884.1412680756
 11
3135.6468298109
 21
884.1412680756
  0
LINE
  5
342
100
AcDbEntity
  8
6_ALL_SURFS
100
AcDbLine
 62
7
  6
CONTINUOUS
 10
328.6468298109
 20
884.2912680756
 11
3135.6468298109
 21
884.2912680756
  0
LINE
  5
343
100
AcDbEntity
  8
6_ALL_SURFS
100
AcDbLine
 62
9
  6
CONTINUOUS
 10
328.6468298109
 20
884.4412680756
 11
3135.6468298109
 21
884.4412680756
  0
LINE
  5
344
100
AcDbEntity
  8
6_ALL_SURFS
100
AcDbLine
 62
7
  6
CONTINUOUS
 10
328.6468298109
 20
894.1532275632
 11
3135.6468298109
 21
894.1532275632
  0
LINE
  5
345
100
AcDbEntity
  8
6_ALL_SURFS
100
AcDbLine
 62
7
  6
CONTINUOUS
 10
328.6468298109
 20
897.1331604484
 11
3135.6468298109
 21
897.1331604484
  0
LINE
  5
346
100
AcDbEntity
  8
6_ALL_SURFS
100
AcDbLine
 62
9
  6
CONTINUOUS
 10
3135.6468298109
 20
900.6412680756
 11
328.6468298109
 21
900.6412680756
  0
LINE
  5
347
100
AcDbEntity
  8
6_ALL_SURFS
100
AcDbLine
 62
9
  6
CONTINUOUS
 10
3135.6468298109
 20
901.6642656157
 11
328.6468298109
 21
901.6642656157
  0
LINE
  5
348
100
AcDbEntity
  8
6_ALL_SURFS
100
AcDbLine
 62
9
  6
CONTINUOUS
 10
328.6468298109
 20
903.8266291988
 11
3135.6468298109
 21
903.8266291988
  0
LINE
  5
349
100
AcDbEntity
  8
6_ALL_SURFS
100
AcDbLine
 62
9
  6
CONTINUOUS
 10
328.6468298109
 20
904.0312287068
 11
3135.6468298109
 21
904.0312287068
  0
LINE
  5
34A
100
AcDbEntity
  8
6_ALL_SURFS
100
AcDbLine
 62
9
  6
CONTINUOUS
 10
328.6468298109
 20
905.4412680756
 11
3135.6468298109
 21
905.4412680756
  0
LINE
  5
34B
100
AcDbEntity
  8
6_ALL_SURFS
100
AcDbLine
 62
7
  6
CONTINUOUS
 10
3135.6468298109
 20
905.7412680756
 11
328.6468298109
 21
905.7412680756
  0
LINE
  5
34C
100
AcDbEntity
  8
6_ALL_SURFS
100
AcDbLine
 62
9
  6
CONTINUOUS
 10
3135.6468298109
 20
907.2412680756
 11
328.6468298109
 21
907.2412680756
  0
LINE
  5
34D
100
AcDbEntity
  8
6_ALL_SURFS
100
AcDbLine
 62
9
  6
CONTINUOUS
 10
3135.6468298109
 20
910.0412680756
 11
328.6468298109
 21
910.0412680756
  0
LINE
  5
34E
100
AcDbEntity
  8
6_ALL_SURFS
100
AcDbLine
 62
7
  6
CONTINUOUS
 10
3135.6468298109
 20
911.5412680756
 11
328.6468298109
 21
911.5412680756
  0
LINE
  5
34F
100
AcDbEntity
  8
6_ALL_SURFS
100
AcDbLine
 62
9
  6
CONTINUOUS
 10
328.6468298109
 20
911.8412680756
 11
3135.6468298109
 21
911.8412680756
  0
LINE
  5
350
100
AcDbEntity
  8
6_ALL_SURFS
100
AcDbLine
 62
9
  6
CONTINUOUS
 10
3135.6468298109
 20
947.0185416158
 11
328.6468298109
 21
947.0185416158
  0
LINE
  5
351
100
AcDbEntity
  8
6_ALL_SURFS
100
AcDbLine
 62
9
  6
CONTINUOUS
 10
3135.6468298109
 20
948.1017778641
 11
328.6468298109
 21
948.1017778641
  0
LINE
  5
352
100
AcDbEntity
  8
6_ALL_SURFS
100
AcDbLine
 62
9
  6
CONTINUOUS
 10
3135.6468298109
 20
966.0662389501
 11
328.6468298109
 21
966.0662389501
  0
LINE
  5
353
100
AcDbEntity
  8
6_ALL_SURFS
100
AcDbLine
 62
7
  6
CONTINUOUS
 10
3135.6468298109
 20
967.2412680756
 11
328.6468298109
 21
967.2412680756
  0
LINE
  5
354
100
AcDbEntity
  8
6_ALL_SURFS
100
AcDbLine
 62
9
  6
CONTINUOUS
 10
328.6468298109
 20
967.9912680756
 11
3135.6468298109
 21
967.9912680756
  0
LINE
  5
355
100
AcDbEntity
  8
6_ALL_SURFS
100
AcDbLine
 62
9
  6
CONTINUOUS
 10
328.6468298109
 20
970.6215711059
 11
3135.6468298109
 21
970.6215711059
  0
LINE
  5
356
100
AcDbEntity
  8
6_ALL_SURFS
100
AcDbLine
 62
7
  6
CONTINUOUS
 10
3135.6468298109
 20
971.3412680756
 11
328.6468298109
 21
971.3412680756
  0
LINE
  5
357
100
AcDbEntity
  8
6_ALL_SURFS
100
AcDbLine
 62
9
  6
CONTINUOUS
 10
3135.6468298109
 20
971.6412680756
 11
328.6468298109
 21
971.6412680756
  0
LINE
  5
358
100
AcDbEntity
  8
6_ALL_SURFS
100
AcDbLine
 62
9
  6
CONTINUOUS
 10
3135.6468298109
 20
972.3412680756
 11
328.6468298109
 21
972.3412680756
  0
LINE
  5
359
100
AcDbEntity
  8
6_ALL_SURFS
100
AcDbLine
 62
7
  6
CONTINUOUS
 10
3135.6468298109
 20
972.6412680756
 11
328.6468298109
 21
972.6412680756
  0
LINE
  5
35A
100
AcDbEntity
  8
6_ALL_SURFS
100
AcDbLine
 62
7
  6
CONTINUOUS
 10
3135.6468298109
 20
881.6412680756
 11
3135.6468298109
 21
884.2912680756
  0
LINE
  5
35B
100
AcDbEntity
  8
6_ALL_SURFS
100
AcDbLine
 62
7
  6
CONTINUOUS
 10
3135.6468298109
 20
884.3636223621
 11
3135.6468298109
 21
972.6412680756
  0
LINE
  5
35C
100
AcDbEntity
  8
6_ALL_SURFS
100
AcDbLine
 62
7
  6
CONTINUOUS
 10
328.6468298109
 20
1184.3190673703
 11
328.6468298109
 21
1169.0190673703
  0
LINE
  5
35D
100
AcDbEntity
  8
7_ALL_FEATURES
100
AcDbLine
 62
7
  6
CONTINUOUS
 10
328.6468298109
 20
1166.5191080663
 11
328.6468298109
 21
1169.0190673703
  0
LINE
  5
35E
100
AcDbEntity
  8
7_ALL_FEATURES
100
AcDbLine
 62
7
  6
CONTINUOUS
 10
328.6468298109
 20
1184.3190673703
 11
328.6468298109
 21
1188.0190673703
  0
LINE
  5
35F
100
AcDbEntity
  8
7_ALL_FEATURES
100
AcDbLine
 62
7
  6
CONTINUOUS
 10
328.6468298109
 20
1188.0471750342
 11
328.6468298109
 21
1190.9190673703
  0
LINE
  5
360
100
AcDbEntity
  8
7_ALL_FEATURES
100
AcDbLine
 62
7
  6
CONTINUOUS
 10
328.6468298109
 20
1190.9325906549
 11
328.6468298109
 21
1222.8690673703
  0
LINE
  5
361
100
AcDbEntity
  8
6_ALL_SURFS
100
AcDbLine
 62
7
  6
CONTINUOUS
 10
328.6468298109
 20
1222.8690673703
 11
328.6468298109
 21
1252.0055440858
  0
LINE
  5
362
100
AcDbEntity
  8
6_ALL_SURFS
100
AcDbLine
 62
7
  6
CONTINUOUS
 10
328.6468298109
 20
1252.0190673703
 11
328.6468298109
 21
1254.8909597065
  0
LINE
  5
363
100
AcDbEntity
  8
6_ALL_SURFS
100
AcDbLine
 62
7
  6
CONTINUOUS
 10
328.6468298109
 20
1254.9190673703
 11
328.6468298109
 21
1276.4190266743
  0
LINE
  5
364
100
AcDbEntity
  8
7_ALL_FEATURES
100
AcDbLine
 62
7
  6
CONTINUOUS
 10
329.8968298109
 20
1188.1690673703
 11
329.8968298109
 21
1254.7690673703
  0
LINE
  5
365
100
AcDbEntity
  8
7_ALL_FEATURES
100
AcDbLine
 62
7
  6
CONTINUOUS
 10
328.6468298109
 20
1166.5190673703
 11
3135.6468298109
 21
1166.5190673703
  0
LINE
  5
366
100
AcDbEntity
  8
7_ALL_FEATURES
100
AcDbLine
 62
9
  6
CONTINUOUS
 10
328.6468298109
 20
1166.87359578
 11
3135.6468298109
 21
1166.87359578
  0
LINE
  5
367
100
AcDbEntity
  8
7_ALL_FEATURES
100
AcDbLine
 62
7
  6
CONTINUOUS
 10
328.6468298109
 20
1169.0190673703
 11
478.8634220172
 21
1169.0190673703
  0
LINE
  5
368
100
AcDbEntity
  8
7_ALL_FEATURES
100
AcDbLine
 62
7
  6
CONTINUOUS
 10
485.4302376046
 20
1169.0190673703
 11
728.8634220172
 21
1169.0190673703
  0
LINE
  5
369
100
AcDbEntity
  8
7_ALL_FEATURES
100
AcDbLine
 62
7
  6
CONTINUOUS
 10
735.4302376046
 20
1169.0190673703
 11
978.8634220172
 21
1169.0190673703
  0
LINE
  5
36A
100
AcDbEntity
  8
7_ALL_FEATURES
100
AcDbLine
 62
7
  6
CONTINUOUS
 10
985.4302376046
 20
1169.0190673703
 11
1228.8634220172
 21
1169.0190673703
  0
LINE
  5
36B
100
AcDbEntity
  8
7_ALL_FEATURES
100
AcDbLine
 62
7
  6
CONTINUOUS
 10
1235.4302376046
 20
1169.0190673703
 11
1478.8634220172
 21
1169.0190673703
  0
LINE
  5
36C
100
AcDbEntity
  8
7_ALL_FEATURES
100
AcDbLine
 62
7
  6
CONTINUOUS
 10
1485.4302376046
 20
1169.0190673703
 11
1728.8634220172
 21
1169.0190673703
  0
LINE
  5
36D
100
AcDbEntity
  8
7_ALL_FEATURES
100
AcDbLine
 62
7
  6
CONTINUOUS
 10
1735.4302376046
 20
1169.0190673703
 11
1978.8634220172
 21
1169.0190673703
  0
LINE
  5
36E
100
AcDbEntity
  8
7_ALL_FEATURES
100
AcDbLine
 62
7
  6
CONTINUOUS
 10
1985.4302376046
 20
1169.0190673703
 11
2228.8634220172
 21
1169.0190673703
  0
LINE
  5
36F
100
AcDbEntity
  8
7_ALL_FEATURES
100
AcDbLine
 62
7
  6
CONTINUOUS
 10
2235.4302376046
 20
1169.0190673703
 11
2478.8634220172
 21
1169.0190673703
  0
LINE
  5
370
100
AcDbEntity
  8
7_ALL_FEATURES
100
AcDbLine
 62
7
  6
CONTINUOUS
 10
2485.4302376046
 20
1169.0190673703
 11
2728.8634220172
 21
1169.0190673703
  0
LINE
  5
371
100
AcDbEntity
  8
7_ALL_FEATURES
100
AcDbLine
 62
7
  6
CONTINUOUS
 10
2735.4302376046
 20
1169.0190673703
 11
2978.8634220172
 21
1169.0190673703
  0
LINE
  5
372
100
AcDbEntity
  8
7_ALL_FEATURES
100
AcDbLine
 62
7
  6
CONTINUOUS
 10
2985.4302376046
 20
1169.0190673703
 11
3135.6468298109
 21
1169.0190673703
  0
LINE
  5
373
100
AcDbEntity
  8
7_ALL_FEATURES
100
AcDbLine
 62
7
  6
CONTINUOUS
 10
328.6468298109
 20
1171.7190673703
 11
477.4149415261
 21
1171.7190673703
  0
LINE
  5
374
100
AcDbEntity
  8
7_ALL_FEATURES
100
AcDbLine
 62
7
  6
CONTINUOUS
 10
486.8787180957
 20
1171.7190673703
 11
727.4149415261
 21
1171.7190673703
  0
LINE
  5
375
100
AcDbEntity
  8
7_ALL_FEATURES
100
AcDbLine
 62
7
  6
CONTINUOUS
 10
736.8787180957
 20
1171.7190673703
 11
977.4149415261
 21
1171.7190673703
  0
LINE
  5
376
100
AcDbEntity
  8
7_ALL_FEATURES
100
AcDbLine
 62
7
  6
CONTINUOUS
 10
986.8787180957
 20
1171.7190673703
 11
1227.4149415261
 21
1171.7190673703
  0
LINE
  5
377
100
AcDbEntity
  8
7_ALL_FEATURES
100
AcDbLine
 62
7
  6
CONTINUOUS
 10
1236.8787180957
 20
1171.7190673703
 11
1477.4149415261
 21
1171.7190673703
  0
LINE
  5
378
100
AcDbEntity
  8
7_ALL_FEATURES
100
AcDbLine
 62
7
  6
CONTINUOUS
 10
1486.8787180957
 20
1171.7190673703
 11
1727.4149415261
 21
1171.7190673703
  0
LINE
  5
379
100
AcDbEntity
  8
7_ALL_FEATURES
100
AcDbLine
 62
7
  6
CONTINUOUS
 10
1736.8787180957
 20
1171.7190673703
 11
1977.4149415261
 21
1171.7190673703
  0
LINE
  5
37A
100
AcDbEntity
  8
7_ALL_FEATURES
100
AcDbLine
 62
7
  6
CONTINUOUS
 10
1986.8787180957
 20
1171.7190673703
 11
2227.4149415261
 21
1171.7190673703
  0
LINE
  5
37B
100
AcDbEntity
  8
7_ALL_FEATURES
100
AcDbLine
 62
7
  6
CONTINUOUS
 10
2236.8787180957
 20
1171.7190673703
 11
2477.4149415261
 21
1171.7190673703
  0
LINE
  5
37C
100
AcDbEntity
  8
7_ALL_FEATURES
100
AcDbLine
 62
7
  6
CONTINUOUS
 10
2486.8787180957
 20
1171.7190673703
 11
2727.4149415261
 21
1171.7190673703
  0
LINE
  5
37D
100
AcDbEntity
  8
7_ALL_FEATURES
100
AcDbLine
 62
7
  6
CONTINUOUS
 10
2736.8787180957
 20
1171.7190673703
 11
2977.4149415261
 21
1171.7190673703
  0
LINE
  5
37E
100
AcDbEntity
  8
7_ALL_FEATURES
100
AcDbLine
 62
7
  6
CONTINUOUS
 10
2986.8787180957
 20
1171.7190673703
 11
3135.6468298109
 21
1171.7190673703
  0
LINE
  5
37F
100
AcDbEntity
  8
7_ALL_FEATURES
100
AcDbLine
 62
7
  6
CONTINUOUS
 10
328.6468298109
 20
1172.3190673703
 11
477.3519610181
 21
1172.3190673703
  0
LINE
  5
380
100
AcDbEntity
  8
7_ALL_FEATURES
100
AcDbLine
 62
7
  6
CONTINUOUS
 10
486.9416986037
 20
1172.3190673703
 11
727.3519610181
 21
1172.3190673703
  0
LINE
  5
381
100
AcDbEntity
  8
7_ALL_FEATURES
100
AcDbLine
 62
7
  6
CONTINUOUS
 10
736.9416986037
 20
1172.3190673703
 11
977.3519610181
 21
1172.3190673703
  0
LINE
  5
382
100
AcDbEntity
  8
7_ALL_FEATURES
100
AcDbLine
 62
7
  6
CONTINUOUS
 10
986.9416986037
 20
1172.3190673703
 11
1227.3519610181
 21
1172.3190673703
  0
LINE
  5
383
100
AcDbEntity
  8
7_ALL_FEATURES
100
AcDbLine
 62
7
  6
CONTINUOUS
 10
1236.9416986037
 20
1172.3190673703
 11
1477.3519610181
 21
1172.3190673703
  0
LINE
  5
384
100
AcDbEntity
  8
7_ALL_FEATURES
100
AcDbLine
 62
7
  6
CONTINUOUS
 10
1486.9416986037
 20
1172.3190673703
 11
1727.3519610181
 21
1172.3190673703
  0
LINE
  5
385
100
AcDbEntity
  8
7_ALL_FEATURES
100
AcDbLine
 62
7
  6
CONTINUOUS
 10
1736.9416986037
 20
1172.3190673703
 11
1977.3519610181
 21
1172.3190673703
  0
LINE
  5
386
100
AcDbEntity
  8
7_ALL_FEATURES
100
AcDbLine
 62
7
  6
CONTINUOUS
 10
1986.9416986037
 20
1172.3190673703
 11
2227.3519610181
 21
1172.3190673703
  0
LINE
  5
387
100
AcDbEntity
  8
7_ALL_FEATURES
100
AcDbLine
 62
7
  6
CONTINUOUS
 10
2236.9416986037
 20
1172.3190673703
 11
2477.3519610181
 21
1172.3190673703
  0
LINE
  5
388
100
AcDbEntity
  8
7_ALL_FEATURES
100
AcDbLine
 62
7
  6
CONTINUOUS
 10
2486.9416986037
 20
1172.3190673703
 11
2727.3519610181
 21
1172.3190673703
  0
LINE
  5
389
100
AcDbEntity
  8
7_ALL_FEATURES
100
AcDbLine
 62
7
  6
CONTINUOUS
 10
2736.9416986037
 20
1172.3190673703
 11
2977.3519610181
 21
1172.3190673703
  0
LINE
  5
38A
100
AcDbEntity
  8
7_ALL_FEATURES
100
AcDbLine
 62
7
  6
CONTINUOUS
 10
2986.9416986037
 20
1172.3190673703
 11
3135.6468298109
 21
1172.3190673703
  0
LINE
  5
38B
100
AcDbEntity
  8
7_ALL_FEATURES
100
AcDbLine
 62
7
  6
CONTINUOUS
 10
328.6468298109
 20
1174.7190673703
 11
477.8817663014
 21
1174.7190673703
  0
LINE
  5
38C
100
AcDbEntity
  8
7_ALL_FEATURES
100
AcDbLine
 62
7
  6
CONTINUOUS
 10
486.4118933204
 20
1174.7190673703
 11
727.8817663014
 21
1174.7190673703
  0
LINE
  5
38D
100
AcDbEntity
  8
7_ALL_FEATURES
100
AcDbLine
 62
7
  6
CONTINUOUS
 10
736.4118933204
 20
1174.7190673703
 11
977.8817663014
 21
1174.7190673703
  0
LINE
  5
38E
100
AcDbEntity
  8
7_ALL_FEATURES
100
AcDbLine
 62
7
  6
CONTINUOUS
 10
986.4118933204
 20
1174.7190673703
 11
1227.8817663014
 21
1174.7190673703
  0
LINE
  5
38F
100
AcDbEntity
  8
7_ALL_FEATURES
100
AcDbLine
 62
7
  6
CONTINUOUS
 10
1236.4118933204
 20
1174.7190673703
 11
1477.8817663014
 21
1174.7190673703
  0
LINE
  5
390
100
AcDbEntity
  8
7_ALL_FEATURES
100
AcDbLine
 62
7
  6
CONTINUOUS
 10
1486.4118933204
 20
1174.7190673703
 11
1727.8817663014
 21
1174.7190673703
  0
LINE
  5
391
100
AcDbEntity
  8
7_ALL_FEATURES
100
AcDbLine
 62
7
  6
CONTINUOUS
 10
1736.4118933204
 20
1174.7190673703
 11
1977.8817663014
 21
1174.7190673703
  0
LINE
  5
392
100
AcDbEntity
  8
7_ALL_FEATURES
100
AcDbLine
 62
7
  6
CONTINUOUS
 10
1986.4118933204
 20
1174.7190673703
 11
2227.8817663014
 21
1174.7190673703
  0
LINE
  5
393
100
AcDbEntity
  8
7_ALL_FEATURES
100
AcDbLine
 62
7
  6
CONTINUOUS
 10
2236.4118933204
 20
1174.7190673703
 11
2477.8817663014
 21
1174.7190673703
  0
LINE
  5
394
100
AcDbEntity
  8
7_ALL_FEATURES
100
AcDbLine
 62
7
  6
CONTINUOUS
 10
2486.4118933204
 20
1174.7190673703
 11
2727.8817663014
 21
1174.7190673703
  0
LINE
  5
395
100
AcDbEntity
  8
7_ALL_FEATURES
100
AcDbLine
 62
7
  6
CONTINUOUS
 10
2736.4118933204
 20
1174.7190673703
 11
2977.8817663014
 21
1174.7190673703
  0
LINE
  5
396
100
AcDbEntity
  8
7_ALL_FEATURES
100
AcDbLine
 62
7
  6
CONTINUOUS
 10
2986.4118933204
 20
1174.7190673703
 11
3135.6468298109
 21
1174.7190673703
  0
LINE
  5
397
100
AcDbEntity
  8
7_ALL_FEATURES
100
AcDbLine
 62
7
  6
CONTINUOUS
 10
328.6468298109
 20
1175.3190673703
 11
478.2492963935
 21
1175.3190673703
  0
LINE
  5
398
100
AcDbEntity
  8
7_ALL_FEATURES
100
AcDbLine
 62
7
  6
CONTINUOUS
 10
486.0443632283
 20
1175.3190673703
 11
728.2492963935
 21
1175.3190673703
  0
LINE
  5
399
100
AcDbEntity
  8
7_ALL_FEATURES
100
AcDbLine
 62
7
  6
CONTINUOUS
 10
736.0443632283
 20
1175.3190673703
 11
978.2492963935
 21
1175.3190673703
  0
LINE
  5
39A
100
AcDbEntity
  8
7_ALL_FEATURES
100
AcDbLine
 62
7
  6
CONTINUOUS
 10
986.0443632283
 20
1175.3190673703
 11
1228.2492963935
 21
1175.3190673703
  0
LINE
  5
39B
100
AcDbEntity
  8
7_ALL_FEATURES
100
AcDbLine
 62
7
  6
CONTINUOUS
 10
1236.0443632283
 20
1175.3190673703
 11
1478.2492963935
 21
1175.3190673703
  0
LINE
  5
39C
100
AcDbEntity
  8
7_ALL_FEATURES
100
AcDbLine
 62
7
  6
CONTINUOUS
 10
1486.0443632283
 20
1175.3190673703
 11
1728.2492963935
 21
1175.3190673703
  0
LINE
  5
39D
100
AcDbEntity
  8
7_ALL_FEATURES
100
AcDbLine
 62
7
  6
CONTINUOUS
 10
1736.0443632283
 20
1175.3190673703
 11
1978.2492963935
 21
1175.3190673703
  0
LINE
  5
39E
100
AcDbEntity
  8
7_ALL_FEATURES
100
AcDbLine
 62
7
  6
CONTINUOUS
 10
1986.0443632283
 20
1175.3190673703
 11
2228.2492963935
 21
1175.3190673703
  0
LINE
  5
39F
100
AcDbEntity
  8
7_ALL_FEATURES
100
AcDbLine
 62
7
  6
CONTINUOUS
 10
2236.0443632283
 20
1175.3190673703
 11
2478.2492963935
 21
1175.3190673703
  0
LINE
  5
3A0
100
AcDbEntity
  8
7_ALL_FEATURES
100
AcDbLine
 62
7
  6
CONTINUOUS
 10
2486.0443632283
 20
1175.3190673703
 11
2728.2492963935
 21
1175.3190673703
  0
LINE
  5
3A1
100
AcDbEntity
  8
7_ALL_FEATURES
100
AcDbLine
 62
7
  6
CONTINUOUS
 10
2736.0443632283
 20
1175.3190673703
 11
2978.2492963935
 21
1175.3190673703
  0
LINE
  5
3A2
100
AcDbEntity
  8
7_ALL_FEATURES
100
AcDbLine
 62
7
  6
CONTINUOUS
 10
2986.0443632283
 20
1175.3190673703
 11
3135.6468298109
 21
1175.3190673703
  0
LINE
  5
3A3
100
AcDbEntity
  8
6_ALL_SURFS
100
AcDbLine
 62
7
  6
CONTINUOUS
 10
328.6468298109
 20
1177.7190673703
 11
3135.6468298109
 21
1177.7190673703
  0
LINE
  5
3A4
100
AcDbEntity
  8
6_ALL_SURFS
100
AcDbLine
 62
7
  6
CONTINUOUS
 10
328.6468298109
 20
1178.3190673703
 11
3135.6468298109
 21
1178.3190673703
  0
LINE
  5
3A5
100
AcDbEntity
  8
6_ALL_SURFS
100
AcDbLine
 62
7
  6
CONTINUOUS
 10
328.6468298109
 20
1180.7190673703
 11
3135.6468298109
 21
1180.7190673703
  0
LINE
  5
3A6
100
AcDbEntity
  8
6_ALL_SURFS
100
AcDbLine
 62
7
  6
CONTINUOUS
 10
328.6468298109
 20
1181.3190673703
 11
3135.6468298109
 21
1181.3190673703
  0
LINE
  5
3A7
100
AcDbEntity
  8
6_ALL_SURFS
100
AcDbLine
 62
7
  6
CONTINUOUS
 10
328.6468298109
 20
1183.7190673703
 11
3135.6468298109
 21
1183.7190673703
  0
LINE
  5
3A8
100
AcDbEntity
  8
6_ALL_SURFS
100
AcDbLine
 62
7
  6
CONTINUOUS
 10
328.6468298109
 20
1184.3190673703
 11
3135.6468298109
 21
1184.3190673703
  0
LINE
  5
3A9
100
AcDbEntity
  8
7_ALL_FEATURES
100
AcDbLine
 62
9
  6
CONTINUOUS
 10
328.6468298109
 20
1186.4690673703
 11
3135.6468298109
 21
1186.4690673703
  0
LINE
  5
3AA
100
AcDbEntity
  8
7_ALL_FEATURES
100
AcDbLine
 62
7
  6
CONTINUOUS
 10
3135.6468298109
 20
1186.7690673703
 11
328.6468298109
 21
1186.7690673703
  0
LINE
  5
3AB
100
AcDbEntity
  8
7_ALL_FEATURES
100
AcDbLine
 62
9
  6
CONTINUOUS
 10
3135.6468298109
 20
1187.0690673703
 11
328.6468298109
 21
1187.0690673703
  0
LINE
  5
3AC
100
AcDbEntity
  8
7_ALL_FEATURES
100
AcDbLine
 62
9
  6
CONTINUOUS
 10
3135.6468298109
 20
1187.7190673703
 11
328.6468298109
 21
1187.7190673703
  0
LINE
  5
3AD
100
AcDbEntity
  8
7_ALL_FEATURES
100
AcDbLine
 62
7
  6
CONTINUOUS
 10
3135.6468298109
 20
1188.0190673703
 11
328.6468298109
 21
1188.0190673703
  0
LINE
  5
3AE
100
AcDbEntity
  8
7_ALL_FEATURES
100
AcDbLine
 62
9
  6
CONTINUOUS
 10
328.6468298109
 20
1188.0810613683
 11
3135.6468298109
 21
1188.0810613683
  0
LINE
  5
3AF
100
AcDbEntity
  8
7_ALL_FEATURES
100
AcDbLine
 62
7
  6
CONTINUOUS
 10
3134.3968298109
 20
1188.1690673703
 11
329.8968298109
 21
1188.1690673703
  0
LINE
  5
3B0
100
AcDbEntity
  8
7_ALL_FEATURES
100
AcDbLine
 62
9
  6
CONTINUOUS
 10
3134.3968298109
 20
1188.3690673703
 11
329.8968298109
 21
1188.3690673703
  0
LINE
  5
3B1
100
AcDbEntity
  8
7_ALL_FEATURES
100
AcDbLine
 62
9
  6
CONTINUOUS
 10
328.6468298109
 20
1189.1917330858
 11
329.8968298109
 21
1189.1917330858
  0
LINE
  5
3B2
100
AcDbEntity
  8
7_ALL_FEATURES
100
AcDbLine
 62
9
  6
CONTINUOUS
 10
3134.3968298109
 20
1189.1917330858
 11
3135.6468298109
 21
1189.1917330858
  0
LINE
  5
3B3
100
AcDbEntity
  8
7_ALL_FEATURES
100
AcDbLine
 62
7
  6
CONTINUOUS
 10
328.6468298109
 20
1189.2330624177
 11
329.8968298109
 21
1189.2330624177
  0
LINE
  5
3B4
100
AcDbEntity
  8
7_ALL_FEATURES
100
AcDbLine
 62
7
  6
CONTINUOUS
 10
3134.3968298109
 20
1189.2330624177
 11
3135.6468298109
 21
1189.2330624177
  0
LINE
  5
3B5
100
AcDbEntity
  8
7_ALL_FEATURES
100
AcDbLine
 62
9
  6
CONTINUOUS
 10
328.6468298109
 20
1189.3288776016
 11
329.8968298109
 21
1189.3288776016
  0
LINE
  5
3B6
100
AcDbEntity
  8
7_ALL_FEATURES
100
AcDbLine
 62
9
  6
CONTINUOUS
 10
3134.3968298109
 20
1189.3288776016
 11
3135.6468298109
 21
1189.3288776016
  0
LINE
  5
3B7
100
AcDbEntity
  8
7_ALL_FEATURES
100
AcDbLine
 62
9
  6
CONTINUOUS
 10
328.6468298109
 20
1189.548283712
 11
329.8968298109
 21
1189.548283712
  0
LINE
  5
3B8
100
AcDbEntity
  8
7_ALL_FEATURES
100
AcDbLine
 62
9
  6
CONTINUOUS
 10
3134.3968298109
 20
1189.548283712
 11
3135.6468298109
 21
1189.548283712
  0
LINE
  5
3B9
100
AcDbEntity
  8
7_ALL_FEATURES
100
AcDbLine
 62
9
  6
CONTINUOUS
 10
3135.6468298109
 20
1190.6190673703
 11
3134.3968298109
 21
1190.6190673703
  0
LINE
  5
3BA
100
AcDbEntity
  8
7_ALL_FEATURES
100
AcDbLine
 62
9
  6
CONTINUOUS
 10
329.8968298109
 20
1190.6190673703
 11
328.6468298109
 21
1190.6190673703
  0
LINE
  5
3BB
100
AcDbEntity
  8
7_ALL_FEATURES
100
AcDbLine
 62
7
  6
CONTINUOUS
 10
3135.6468298109
 20
1190.9190673703
 11
3134.3968298109
 21
1190.9190673703
  0
LINE
  5
3BC
100
AcDbEntity
  8
7_ALL_FEATURES
100
AcDbLine
 62
7
  6
CONTINUOUS
 10
329.8968298109
 20
1190.9190673703
 11
328.6468298109
 21
1190.9190673703
  0
LINE
  5
3BD
100
AcDbEntity
  8
7_ALL_FEATURES
100
AcDbLine
 62
9
  6
CONTINUOUS
 10
328.6468298109
 20
1191.0396821288
 11
329.8968298109
 21
1191.0396821288
  0
LINE
  5
3BE
100
AcDbEntity
  8
7_ALL_FEATURES
100
AcDbLine
 62
9
  6
CONTINUOUS
 10
3134.3968298109
 20
1191.0396821288
 11
3135.6468298109
 21
1191.0396821288
  0
LINE
  5
3BF
100
AcDbEntity
  8
7_ALL_FEATURES
100
AcDbLine
 62
9
  6
CONTINUOUS
 10
3135.6468298109
 20
1191.5664613273
 11
3134.3968298109
 21
1191.5664613273
  0
LINE
  5
3C0
100
AcDbEntity
  8
7_ALL_FEATURES
100
AcDbLine
 62
9
  6
CONTINUOUS
 10
329.8968298109
 20
1191.5664613273
 11
328.6468298109
 21
1191.5664613273
  0
LINE
  5
3C1
100
AcDbEntity
  8
7_ALL_FEATURES
100
AcDbLine
 62
7
  6
CONTINUOUS
 10
3135.6468298109
 20
1191.5845535411
 11
3134.3968298109
 21
1191.5845535411
  0
LINE
  5
3C2
100
AcDbEntity
  8
7_ALL_FEATURES
100
AcDbLine
 62
7
  6
CONTINUOUS
 10
329.8968298109
 20
1191.5845535411
 11
328.6468298109
 21
1191.5845535411
  0
LINE
  5
3C3
100
AcDbEntity
  8
7_ALL_FEATURES
100
AcDbLine
 62
9
  6
CONTINUOUS
 10
328.6468298109
 20
1194.8821474075
 11
329.8968298109
 21
1194.8821474075
  0
LINE
  5
3C4
100
AcDbEntity
  8
7_ALL_FEATURES
100
AcDbLine
 62
9
  6
CONTINUOUS
 10
3134.3968298109
 20
1194.8821474075
 11
3135.6468298109
 21
1194.8821474075
  0
LINE
  5
3C5
100
AcDbEntity
  8
7_ALL_FEATURES
100
AcDbLine
 62
9
  6
CONTINUOUS
 10
328.6468298109
 20
1195.3702723837
 11
329.8968298109
 21
1195.3702723837
  0
LINE
  5
3C6
100
AcDbEntity
  8
7_ALL_FEATURES
100
AcDbLine
 62
9
  6
CONTINUOUS
 10
3134.3968298109
 20
1195.3702723837
 11
3135.6468298109
 21
1195.3702723837
  0
LINE
  5
3C7
100
AcDbEntity
  8
7_ALL_FEATURES
100
AcDbLine
 62
9
  6
CONTINUOUS
 10
3135.6468298109
 20
1219.4690673703
 11
3134.3968298109
 21
1219.4690673703
  0
LINE
  5
3C8
100
AcDbEntity
  8
7_ALL_FEATURES
100
AcDbLine
 62
9
  6
CONTINUOUS
 10
329.8968298109
 20
1219.4690673703
 11
328.6468298109
 21
1219.4690673703
  0
LINE
  5
3C9
100
AcDbEntity
  8
7_ALL_FEATURES
100
AcDbLine
 62
7
  6
CONTINUOUS
 10
3135.6468298109
 20
1219.7690673703
 11
3134.3968298109
 21
1219.7690673703
  0
LINE
  5
3CA
100
AcDbEntity
  8
7_ALL_FEATURES
100
AcDbLine
 62
7
  6
CONTINUOUS
 10
329.8968298109
 20
1219.7690673703
 11
328.6468298109
 21
1219.7690673703
  0
LINE
  5
3CB
100
AcDbEntity
  8
7_ALL_FEATURES
100
AcDbLine
 62
9
  6
CONTINUOUS
 10
328.6468298109
 20
1220.0690673703
 11
329.8968298109
 21
1220.0690673703
  0
LINE
  5
3CC
100
AcDbEntity
  8
7_ALL_FEATURES
100
AcDbLine
 62
9
  6
CONTINUOUS
 10
3134.3968298109
 20
1220.0690673703
 11
3135.6468298109
 21
1220.0690673703
  0
LINE
  5
3CD
100
AcDbEntity
  8
6_ALL_SURFS
100
AcDbLine
 62
9
  6
CONTINUOUS
 10
328.6468298109
 20
1222.8690673703
 11
329.8968298109
 21
1222.8690673703
  0
LINE
  5
3CE
100
AcDbEntity
  8
6_ALL_SURFS
100
AcDbLine
 62
9
  6
CONTINUOUS
 10
3134.3968298109
 20
1222.8690673703
 11
3135.6468298109
 21
1222.8690673703
  0
LINE
  5
3CF
100
AcDbEntity
  8
6_ALL_SURFS
100
AcDbLine
 62
7
  6
CONTINUOUS
 10
3135.6468298109
 20
1223.1690673703
 11
3134.3968298109
 21
1223.1690673703
  0
LINE
  5
3D0
100
AcDbEntity
  8
6_ALL_SURFS
100
AcDbLine
 62
7
  6
CONTINUOUS
 10
329.8968298109
 20
1223.1690673703
 11
328.6468298109
 21
1223.1690673703
  0
LINE
  5
3D1
100
AcDbEntity
  8
6_ALL_SURFS
100
AcDbLine
 62
9
  6
CONTINUOUS
 10
3135.6468298109
 20
1223.4690673703
 11
3134.3968298109
 21
1223.4690673703
  0
LINE
  5
3D2
100
AcDbEntity
  8
6_ALL_SURFS
100
AcDbLine
 62
9
  6
CONTINUOUS
 10
329.8968298109
 20
1223.4690673703
 11
328.6468298109
 21
1223.4690673703
  0
LINE
  5
3D3
100
AcDbEntity
  8
6_ALL_SURFS
100
AcDbLine
 62
9
  6
CONTINUOUS
 10
328.6468298109
 20
1247.567862357
 11
329.8968298109
 21
1247.567862357
  0
LINE
  5
3D4
100
AcDbEntity
  8
6_ALL_SURFS
100
AcDbLine
 62
9
  6
CONTINUOUS
 10
3134.3968298109
 20
1247.567862357
 11
3135.6468298109
 21
1247.567862357
  0
LINE
  5
3D5
100
AcDbEntity
  8
6_ALL_SURFS
100
AcDbLine
 62
9
  6
CONTINUOUS
 10
328.6468298109
 20
1248.0559873331
 11
329.8968298109
 21
1248.0559873331
  0
LINE
  5
3D6
100
AcDbEntity
  8
6_ALL_SURFS
100
AcDbLine
 62
9
  6
CONTINUOUS
 10
3134.3968298109
 20
1248.0559873331
 11
3135.6468298109
 21
1248.0559873331
  0
LINE
  5
3D7
100
AcDbEntity
  8
6_ALL_SURFS
100
AcDbLine
 62
7
  6
CONTINUOUS
 10
328.6468298109
 20
1251.3535811996
 11
329.8968298109
 21
1251.3535811996
  0
LINE
  5
3D8
100
AcDbEntity
  8
6_ALL_SURFS
100
AcDbLine
 62
7
  6
CONTINUOUS
 10
3134.3968298109
 20
1251.3535811996
 11
3135.6468298109
 21
1251.3535811996
  0
LINE
  5
3D9
100
AcDbEntity
  8
6_ALL_SURFS
100
AcDbLine
 62
9
  6
CONTINUOUS
 10
3135.6468298109
 20
1251.3716734133
 11
3134.3968298109
 21
1251.3716734133
  0
LINE
  5
3DA
100
AcDbEntity
  8
6_ALL_SURFS
100
AcDbLine
 62
9
  6
CONTINUOUS
 10
329.8968298109
 20
1251.3716734133
 11
328.6468298109
 21
1251.3716734133
  0
LINE
  5
3DB
100
AcDbEntity
  8
6_ALL_SURFS
100
AcDbLine
 62
9
  6
CONTINUOUS
 10
328.6468298109
 20
1251.8984526119
 11
329.8968298109
 21
1251.8984526119
  0
LINE
  5
3DC
100
AcDbEntity
  8
6_ALL_SURFS
100
AcDbLine
 62
9
  6
CONTINUOUS
 10
3134.3968298109
 20
1251.8984526119
 11
3135.6468298109
 21
1251.8984526119
  0
LINE
  5
3DD
100
AcDbEntity
  8
6_ALL_SURFS
100
AcDbLine
 62
7
  6
CONTINUOUS
 10
3135.6468298109
 20
1252.0190673703
 11
3134.3968298109
 21
1252.0190673703
  0
LINE
  5
3DE
100
AcDbEntity
  8
6_ALL_SURFS
100
AcDbLine
 62
7
  6
CONTINUOUS
 10
329.8968298109
 20
1252.0190673703
 11
328.6468298109
 21
1252.0190673703
  0
LINE
  5
3DF
100
AcDbEntity
  8
6_ALL_SURFS
100
AcDbLine
 62
9
  6
CONTINUOUS
 10
3135.6468298109
 20
1252.3190673703
 11
3134.3968298109
 21
1252.3190673703
  0
LINE
  5
3E0
100
AcDbEntity
  8
6_ALL_SURFS
100
AcDbLine
 62
9
  6
CONTINUOUS
 10
329.8968298109
 20
1252.3190673703
 11
328.6468298109
 21
1252.3190673703
  0
LINE
  5
3E1
100
AcDbEntity
  8
6_ALL_SURFS
100
AcDbLine
 62
9
  6
CONTINUOUS
 10
328.6468298109
 20
1253.3898510286
 11
329.8968298109
 21
1253.3898510286
  0
LINE
  5
3E2
100
AcDbEntity
  8
6_ALL_SURFS
100
AcDbLine
 62
9
  6
CONTINUOUS
 10
3134.3968298109
 20
1253.3898510286
 11
3135.6468298109
 21
1253.3898510286
  0
LINE
  5
3E3
100
AcDbEntity
  8
6_ALL_SURFS
100
AcDbLine
 62
9
  6
CONTINUOUS
 10
328.6468298109
 20
1253.6092571391
 11
329.8968298109
 21
1253.6092571391
  0
LINE
  5
3E4
100
AcDbEntity
  8
6_ALL_SURFS
100
AcDbLine
 62
9
  6
CONTINUOUS
 10
3134.3968298109
 20
1253.6092571391
 11
3135.6468298109
 21
1253.6092571391
  0
LINE
  5
3E5
100
AcDbEntity
  8
6_ALL_SURFS
100
AcDbLine
 62
7
  6
CONTINUOUS
 10
3135.6468298109
 20
1253.705072323
 11
3134.3968298109
 21
1253.705072323
  0
LINE
  5
3E6
100
AcDbEntity
  8
6_ALL_SURFS
100
AcDbLine
 62
7
  6
CONTINUOUS
 10
329.8968298109
 20
1253.705072323
 11
328.6468298109
 21
1253.705072323
  0
LINE
  5
3E7
100
AcDbEntity
  8
6_ALL_SURFS
100
AcDbLine
 62
9
  6
CONTINUOUS
 10
328.6468298109
 20
1253.7464016549
 11
329.8968298109
 21
1253.7464016549
  0
LINE
  5
3E8
100
AcDbEntity
  8
6_ALL_SURFS
100
AcDbLine
 62
9
  6
CONTINUOUS
 10
3134.3968298109
 20
1253.7464016549
 11
3135.6468298109
 21
1253.7464016549
  0
LINE
  5
3E9
100
AcDbEntity
  8
7_ALL_FEATURES
100
AcDbLine
 62
9
  6
CONTINUOUS
 10
3134.3968298109
 20
1254.5690673703
 11
329.8968298109
 21
1254.5690673703
  0
LINE
  5
3EA
100
AcDbEntity
  8
7_ALL_FEATURES
100
AcDbLine
 62
7
  6
CONTINUOUS
 10
3134.3968298109
 20
1254.7690673703
 11
329.8968298109
 21
1254.7690673703
  0
LINE
  5
3EB
100
AcDbEntity
  8
6_ALL_SURFS
100
AcDbLine
 62
9
  6
CONTINUOUS
 10
328.6468298109
 20
1254.8570733724
 11
3135.6468298109
 21
1254.8570733724
  0
LINE
  5
3EC
100
AcDbEntity
  8
6_ALL_SURFS
100
AcDbLine
 62
7
  6
CONTINUOUS
 10
3135.6468298109
 20
1254.9190673703
 11
328.6468298109
 21
1254.9190673703
  0
LINE
  5
3ED
100
AcDbEntity
  8
6_ALL_SURFS
100
AcDbLine
 62
9
  6
CONTINUOUS
 10
3135.6468298109
 20
1255.2190673703
 11
328.6468298109
 21
1255.2190673703
  0
LINE
  5
3EE
100
AcDbEntity
  8
6_ALL_SURFS
100
AcDbLine
 62
9
  6
CONTINUOUS
 10
3135.6468298109
 20
1255.8690673703
 11
328.6468298109
 21
1255.8690673703
  0
LINE
  5
3EF
100
AcDbEntity
  8
6_ALL_SURFS
100
AcDbLine
 62
7
  6
CONTINUOUS
 10
3135.6468298109
 20
1256.1690673703
 11
328.6468298109
 21
1256.1690673703
  0
LINE
  5
3F0
100
AcDbEntity
  8
6_ALL_SURFS
100
AcDbLine
 62
9
  6
CONTINUOUS
 10
328.6468298109
 20
1256.4690673703
 11
3135.6468298109
 21
1256.4690673703
  0
LINE
  5
3F1
100
AcDbEntity
  8
6_ALL_SURFS
100
AcDbLine
 62
7
  6
CONTINUOUS
 10
328.6468298109
 20
1258.6190673703
 11
3135.6468298109
 21
1258.6190673703
  0
LINE
  5
3F2
100
AcDbEntity
  8
6_ALL_SURFS
100
AcDbLine
 62
7
  6
CONTINUOUS
 10
328.6468298109
 20
1259.2190673703
 11
3135.6468298109
 21
1259.2190673703
  0
LINE
  5
3F3
100
AcDbEntity
  8
6_ALL_SURFS
100
AcDbLine
 62
7
  6
CONTINUOUS
 10
328.6468298109
 20
1261.6190673703
 11
3135.6468298109
 21
1261.6190673703
  0
LINE
  5
3F4
100
AcDbEntity
  8
6_ALL_SURFS
100
AcDbLine
 62
7
  6
CONTINUOUS
 10
328.6468298109
 20
1262.2190673703
 11
3135.6468298109
 21
1262.2190673703
  0
LINE
  5
3F5
100
AcDbEntity
  8
6_ALL_SURFS
100
AcDbLine
 62
7
  6
CONTINUOUS
 10
328.6468298109
 20
1264.6190673703
 11
3135.6468298109
 21
1264.6190673703
  0
LINE
  5
3F6
100
AcDbEntity
  8
6_ALL_SURFS
100
AcDbLine
 62
7
  6
CONTINUOUS
 10
328.6468298109
 20
1265.2190673703
 11
3135.6468298109
 21
1265.2190673703
  0
LINE
  5
3F7
100
AcDbEntity
  8
6_ALL_SURFS
100
AcDbLine
 62
7
  6
CONTINUOUS
 10
328.6468298109
 20
1267.6190673703
 11
478.2492963935
 21
1267.6190673703
  0
LINE
  5
3F8
100
AcDbEntity
  8
6_ALL_SURFS
100
AcDbLine
 62
7
  6
CONTINUOUS
 10
486.0443632283
 20
1267.6190673703
 11
728.2492963935
 21
1267.6190673703
  0
LINE
  5
3F9
100
AcDbEntity
  8
6_ALL_SURFS
100
AcDbLine
 62
7
  6
CONTINUOUS
 10
736.0443632283
 20
1267.6190673703
 11
978.2492963935
 21
1267.6190673703
  0
LINE
  5
3FA
100
AcDbEntity
  8
6_ALL_SURFS
100
AcDbLine
 62
7
  6
CONTINUOUS
 10
986.0443632283
 20
1267.6190673703
 11
1228.2492963935
 21
1267.6190673703
  0
LINE
  5
3FB
100
AcDbEntity
  8
6_ALL_SURFS
100
AcDbLine
 62
7
  6
CONTINUOUS
 10
1236.0443632283
 20
1267.6190673703
 11
1478.2492963935
 21
1267.6190673703
  0
LINE
  5
3FC
100
AcDbEntity
  8
6_ALL_SURFS
100
AcDbLine
 62
7
  6
CONTINUOUS
 10
1486.0443632283
 20
1267.6190673703
 11
1728.2492963935
 21
1267.6190673703
  0
LINE
  5
3FD
100
AcDbEntity
  8
6_ALL_SURFS
100
AcDbLine
 62
7
  6
CONTINUOUS
 10
1736.0443632283
 20
1267.6190673703
 11
1978.2492963935
 21
1267.6190673703
  0
LINE
  5
3FE
100
AcDbEntity
  8
6_ALL_SURFS
100
AcDbLine
 62
7
  6
CONTINUOUS
 10
1986.0443632283
 20
1267.6190673703
 11
2228.2492963935
 21
1267.6190673703
  0
LINE
  5
3FF
100
AcDbEntity
  8
6_ALL_SURFS
100
AcDbLine
 62
7
  6
CONTINUOUS
 10
2236.0443632283
 20
1267.6190673703
 11
2478.2492963935
 21
1267.6190673703
  0
LINE
  5
400
100
AcDbEntity
  8
6_ALL_SURFS
100
AcDbLine
 62
7
  6
CONTINUOUS
 10
2486.0443632283
 20
1267.6190673703
 11
2728.2492963935
 21
1267.6190673703
  0
LINE
  5
401
100
AcDbEntity
  8
6_ALL_SURFS
100
AcDbLine
 62
7
  6
CONTINUOUS
 10
2736.0443632283
 20
1267.6190673703
 11
2978.2492963935
 21
1267.6190673703
  0
LINE
  5
402
100
AcDbEntity
  8
6_ALL_SURFS
100
AcDbLine
 62
7
  6
CONTINUOUS
 10
2986.0443632283
 20
1267.6190673703
 11
3135.6468298109
 21
1267.6190673703
  0
LINE
  5
403
100
AcDbEntity
  8
6_ALL_SURFS
100
AcDbLine
 62
7
  6
CONTINUOUS
 10
328.6468298109
 20
1268.2190673703
 11
477.8817663014
 21
1268.2190673703
  0
LINE
  5
404
100
AcDbEntity
  8
6_ALL_SURFS
100
AcDbLine
 62
7
  6
CONTINUOUS
 10
486.4118933204
 20
1268.2190673703
 11
727.8817663014
 21
1268.2190673703
  0
LINE
  5
405
100
AcDbEntity
  8
6_ALL_SURFS
100
AcDbLine
 62
7
  6
CONTINUOUS
 10
736.4118933204
 20
1268.2190673703
 11
977.8817663014
 21
1268.2190673703
  0
LINE
  5
406
100
AcDbEntity
  8
6_ALL_SURFS
100
AcDbLine
 62
7
  6
CONTINUOUS
 10
986.4118933204
 20
1268.2190673703
 11
1227.8817663014
 21
1268.2190673703
  0
LINE
  5
407
100
AcDbEntity
  8
6_ALL_SURFS
100
AcDbLine
 62
7
  6
CONTINUOUS
 10
1236.4118933204
 20
1268.2190673703
 11
1477.8817663014
 21
1268.2190673703
  0
LINE
  5
408
100
AcDbEntity
  8
6_ALL_SURFS
100
AcDbLine
 62
7
  6
CONTINUOUS
 10
1486.4118933204
 20
1268.2190673703
 11
1727.8817663014
 21
1268.2190673703
  0
LINE
  5
409
100
AcDbEntity
  8
6_ALL_SURFS
100
AcDbLine
 62
7
  6
CONTINUOUS
 10
1736.4118933204
 20
1268.2190673703
 11
1977.8817663014
 21
1268.2190673703
  0
LINE
  5
40A
100
AcDbEntity
  8
6_ALL_SURFS
100
AcDbLine
 62
7
  6
CONTINUOUS
 10
1986.4118933204
 20
1268.2190673703
 11
2227.8817663014
 21
1268.2190673703
  0
LINE
  5
40B
100
AcDbEntity
  8
6_ALL_SURFS
100
AcDbLine
 62
7
  6
CONTINUOUS
 10
2236.4118933204
 20
1268.2190673703
 11
2477.8817663014
 21
1268.2190673703
  0
LINE
  5
40C
100
AcDbEntity
  8
6_ALL_SURFS
100
AcDbLine
 62
7
  6
CONTINUOUS
 10
2486.4118933204
 20
1268.2190673703
 11
2727.8817663014
 21
1268.2190673703
  0
LINE
  5
40D
100
AcDbEntity
  8
6_ALL_SURFS
100
AcDbLine
 62
7
  6
CONTINUOUS
 10
2736.4118933204
 20
1268.2190673703
 11
2977.8817663014
 21
1268.2190673703
  0
LINE
  5
40E
100
AcDbEntity
  8
6_ALL_SURFS
100
AcDbLine
 62
7
  6
CONTINUOUS
 10
2986.4118933204
 20
1268.2190673703
 11
3135.6468298109
 21
1268.2190673703
  0
LINE
  5
40F
100
AcDbEntity
  8
6_ALL_SURFS
100
AcDbLine
 62
7
  6
CONTINUOUS
 10
328.6468298109
 20
1270.6190673703
 11
477.3519610181
 21
1270.6190673703
  0
LINE
  5
410
100
AcDbEntity
  8
6_ALL_SURFS
100
AcDbLine
 62
7
  6
CONTINUOUS
 10
486.9416986037
 20
1270.6190673703
 11
727.3519610181
 21
1270.6190673703
  0
LINE
  5
411
100
AcDbEntity
  8
6_ALL_SURFS
100
AcDbLine
 62
7
  6
CONTINUOUS
 10
736.9416986037
 20
1270.6190673703
 11
977.3519610181
 21
1270.6190673703
  0
LINE
  5
412
100
AcDbEntity
  8
6_ALL_SURFS
100
AcDbLine
 62
7
  6
CONTINUOUS
 10
986.9416986037
 20
1270.6190673703
 11
1227.3519610181
 21
1270.6190673703
  0
LINE
  5
413
100
AcDbEntity
  8
6_ALL_SURFS
100
AcDbLine
 62
7
  6
CONTINUOUS
 10
1236.9416986037
 20
1270.6190673703
 11
1477.3519610181
 21
1270.6190673703
  0
LINE
  5
414
100
AcDbEntity
  8
6_ALL_SURFS
100
AcDbLine
 62
7
  6
CONTINUOUS
 10
1486.9416986037
 20
1270.6190673703
 11
1727.3519610181
 21
1270.6190673703
  0
LINE
  5
415
100
AcDbEntity
  8
6_ALL_SURFS
100
AcDbLine
 62
7
  6
CONTINUOUS
 10
1736.9416986037
 20
1270.6190673703
 11
1977.3519610181
 21
1270.6190673703
  0
LINE
  5
416
100
AcDbEntity
  8
6_ALL_SURFS
100
AcDbLine
 62
7
  6
CONTINUOUS
 10
1986.9416986037
 20
1270.6190673703
 11
2227.3519610181
 21
1270.6190673703
  0
LINE
  5
417
100
AcDbEntity
  8
6_ALL_SURFS
100
AcDbLine
 62
7
  6
CONTINUOUS
 10
2236.9416986037
 20
1270.6190673703
 11
2477.3519610181
 21
1270.6190673703
  0
LINE
  5
418
100
AcDbEntity
  8
6_ALL_SURFS
100
AcDbLine
 62
7
  6
CONTINUOUS
 10
2486.9416986037
 20
1270.6190673703
 11
2727.3519610181
 21
1270.6190673703
  0
LINE
  5
419
100
AcDbEntity
  8
6_ALL_SURFS
100
AcDbLine
 62
7
  6
CONTINUOUS
 10
2736.9416986037
 20
1270.6190673703
 11
2977.3519610181
 21
1270.6190673703
  0
LINE
  5
41A
100
AcDbEntity
  8
6_ALL_SURFS
100
AcDbLine
 62
7
  6
CONTINUOUS
 10
2986.9416986037
 20
1270.6190673703
 11
3135.6468298109
 21
1270.6190673703
  0
LINE
  5
41B
100
AcDbEntity
  8
6_ALL_SURFS
100
AcDbLine
 62
7
  6
CONTINUOUS
 10
328.6468298109
 20
1271.2190673703
 11
477.4149415261
 21
1271.2190673703
  0
LINE
  5
41C
100
AcDbEntity
  8
6_ALL_SURFS
100
AcDbLine
 62
7
  6
CONTINUOUS
 10
486.8787180957
 20
1271.2190673703
 11
727.4149415261
 21
1271.2190673703
  0
LINE
  5
41D
100
AcDbEntity
  8
6_ALL_SURFS
100
AcDbLine
 62
7
  6
CONTINUOUS
 10
736.8787180957
 20
1271.2190673703
 11
977.4149415261
 21
1271.2190673703
  0
LINE
  5
41E
100
AcDbEntity
  8
6_ALL_SURFS
100
AcDbLine
 62
7
  6
CONTINUOUS
 10
986.8787180957
 20
1271.2190673703
 11
1227.4149415261
 21
1271.2190673703
  0
LINE
  5
41F
100
AcDbEntity
  8
6_ALL_SURFS
100
AcDbLine
 62
7
  6
CONTINUOUS
 10
1236.8787180957
 20
1271.2190673703
 11
1477.4149415261
 21
1271.2190673703
  0
LINE
  5
420
100
AcDbEntity
  8
6_ALL_SURFS
100
AcDbLine
 62
7
  6
CONTINUOUS
 10
1486.8787180957
 20
1271.2190673703
 11
1727.4149415261
 21
1271.2190673703
  0
LINE
  5
421
100
AcDbEntity
  8
6_ALL_SURFS
100
AcDbLine
 62
7
  6
CONTINUOUS
 10
1736.8787180957
 20
1271.2190673703
 11
1977.4149415261
 21
1271.2190673703
  0
LINE
  5
422
100
AcDbEntity
  8
6_ALL_SURFS
100
AcDbLine
 62
7
  6
CONTINUOUS
 10
1986.8787180957
 20
1271.2190673703
 11
2227.4149415261
 21
1271.2190673703
  0
LINE
  5
423
100
AcDbEntity
  8
6_ALL_SURFS
100
AcDbLine
 62
7
  6
CONTINUOUS
 10
2236.8787180957
 20
1271.2190673703
 11
2477.4149415261
 21
1271.2190673703
  0
LINE
  5
424
100
AcDbEntity
  8
6_ALL_SURFS
100
AcDbLine
 62
7
  6
CONTINUOUS
 10
2486.8787180957
 20
1271.2190673703
 11
2727.4149415261
 21
1271.2190673703
  0
LINE
  5
425
100
AcDbEntity
  8
6_ALL_SURFS
100
AcDbLine
 62
7
  6
CONTINUOUS
 10
2736.8787180957
 20
1271.2190673703
 11
2977.4149415261
 21
1271.2190673703
  0
LINE
  5
426
100
AcDbEntity
  8
6_ALL_SURFS
100
AcDbLine
 62
7
  6
CONTINUOUS
 10
2986.8787180957
 20
1271.2190673703
 11
3135.6468298109
 21
1271.2190673703
  0
LINE
  5
427
100
AcDbEntity
  8
6_ALL_SURFS
100
AcDbLine
 62
7
  6
CONTINUOUS
 10
328.6468298109
 20
1273.9190673703
 11
478.8634220172
 21
1273.9190673703
  0
LINE
  5
428
100
AcDbEntity
  8
6_ALL_SURFS
100
AcDbLine
 62
7
  6
CONTINUOUS
 10
485.4302376046
 20
1273.9190673703
 11
728.8634220172
 21
1273.9190673703
  0
LINE
  5
429
100
AcDbEntity
  8
6_ALL_SURFS
100
AcDbLine
 62
7
  6
CONTINUOUS
 10
735.4302376046
 20
1273.9190673703
 11
978.8634220172
 21
1273.9190673703
  0
LINE
  5
42A
100
AcDbEntity
  8
6_ALL_SURFS
100
AcDbLine
 62
7
  6
CONTINUOUS
 10
985.4302376046
 20
1273.9190673703
 11
1228.8634220172
 21
1273.9190673703
  0
LINE
  5
42B
100
AcDbEntity
  8
6_ALL_SURFS
100
AcDbLine
 62
7
  6
CONTINUOUS
 10
1235.4302376046
 20
1273.9190673703
 11
1478.8634220172
 21
1273.9190673703
  0
LINE
  5
42C
100
AcDbEntity
  8
6_ALL_SURFS
100
AcDbLine
 62
7
  6
CONTINUOUS
 10
1485.4302376046
 20
1273.9190673703
 11
1728.8634220172
 21
1273.9190673703
  0
LINE
  5
42D
100
AcDbEntity
  8
6_ALL_SURFS
100
AcDbLine
 62
7
  6
CONTINUOUS
 10
1735.4302376046
 20
1273.9190673703
 11
1978.8634220172
 21
1273.9190673703
  0
LINE
  5
42E
100
AcDbEntity
  8
6_ALL_SURFS
100
AcDbLine
 62
7
  6
CONTINUOUS
 10
1985.4302376046
 20
1273.9190673703
 11
2228.8634220172
 21
1273.9190673703
  0
LINE
  5
42F
100
AcDbEntity
  8
6_ALL_SURFS
100
AcDbLine
 62
7
  6
CONTINUOUS
 10
2235.4302376046
 20
1273.9190673703
 11
2478.8634220172
 21
1273.9190673703
  0
LINE
  5
430
100
AcDbEntity
  8
6_ALL_SURFS
100
AcDbLine
 62
7
  6
CONTINUOUS
 10
2485.4302376046
 20
1273.9190673703
 11
2728.8634220172
 21
1273.9190673703
  0
LINE
  5
431
100
AcDbEntity
  8
6_ALL_SURFS
100
AcDbLine
 62
7
  6
CONTINUOUS
 10
2735.4302376046
 20
1273.9190673703
 11
2978.8634220172
 21
1273.9190673703
  0
LINE
  5
432
100
AcDbEntity
  8
6_ALL_SURFS
100
AcDbLine
 62
7
  6
CONTINUOUS
 10
2985.4302376046
 20
1273.9190673703
 11
3135.6468298109
 21
1273.9190673703
  0
LINE
  5
433
100
AcDbEntity
  8
6_ALL_SURFS
100
AcDbLine
 62
9
  6
CONTINUOUS
 10
328.6468298109
 20
1276.0645389607
 11
3135.6468298109
 21
1276.0645389607
  0
LINE
  5
434
100
AcDbEntity
  8
6_ALL_SURFS
100
AcDbLine
 62
7
  6
CONTINUOUS
 10
3135.6468298109
 20
1276.4190673703
 11
328.6468298109
 21
1276.4190673703
  0
LINE
  5
435
100
AcDbEntity
  8
7_ALL_FEATURES
100
AcDbLine
 62
7
  6
CONTINUOUS
 10
3134.3968298109
 20
1254.7690673703
 11
3134.3968298109
 21
1188.1690673703
  0
LINE
  5
436
100
AcDbEntity
  8
6_ALL_SURFS
100
AcDbLine
 62
7
  6
CONTINUOUS
 10
3135.6468298109
 20
1184.3190673703
 11
3135.6468298109
 21
1169.0190673703
  0
LINE
  5
437
100
AcDbEntity
  8
7_ALL_FEATURES
100
AcDbLine
 62
7
  6
CONTINUOUS
 10
3135.6468298109
 20
1169.0190673703
 11
3135.6468298109
 21
1166.5191080663
  0
LINE
  5
438
100
AcDbEntity
  8
7_ALL_FEATURES
100
AcDbLine
 62
7
  6
CONTINUOUS
 10
3135.6468298109
 20
1184.3190673703
 11
3135.6468298109
 21
1222.8690673703
  0
LINE
  5
439
100
AcDbEntity
  8
6_ALL_SURFS
100
AcDbLine
 62
7
  6
CONTINUOUS
 10
3135.6468298109
 20
1222.8690673703
 11
3135.6468298109
 21
1276.4190266743
  0
ARC
  5
43A
100
AcDbEntity
  8
6_ALL_SURFS
100
AcDbCircle
 62
7
  6
CONTINUOUS
 10
123.9641361892
 20
882.7412680756
 40
0.5
100
AcDbArc
 50
53.1301023542
 51
126.8698976458
  0
ARC
  5
43B
100
AcDbEntity
  8
6_ALL_SURFS
100
AcDbCircle
 62
7
  6
CONTINUOUS
 10
126.9641361892
 20
882.7412680756
 40
0.5
100
AcDbArc
 50
53.1301023542
 51
126.8698976458
  0
ARC
  5
43C
100
AcDbEntity
  8
6_ALL_SURFS
100
AcDbCircle
 62
7
  6
CONTINUOUS
 10
129.9641361892
 20
882.7412680756
 40
0.5
100
AcDbArc
 50
53.1301023542
 51
126.8698976458
  0
ARC
  5
43D
100
AcDbEntity
  8
6_ALL_SURFS
100
AcDbCircle
 62
7
  6
CONTINUOUS
 10
118.8578395471
 20
883.7475647177
 40
0.3937033579
100
AcDbArc
 50
90.0
 51
264.2894068625
  0
ARC
  5
43E
100
AcDbEntity
  8
6_ALL_SURFS
100
AcDbCircle
 62
7
  6
CONTINUOUS
 10
140.0141361892
 20
895.6431940058
 40
2.15
100
AcDbArc
 50
136.1313356567
 51
223.8686643433
  0
ARC
  5
43F
100
AcDbEntity
  8
6_ALL_SURFS
100
AcDbCircle
 62
7
  6
CONTINUOUS
 10
140.0141361892
 20
895.6431940058
 40
0.65
100
AcDbArc
 50
111.6182724222
 51
248.3817275778
  0
ARC
  5
440
100
AcDbEntity
  8
6_ALL_SURFS
100
AcDbCircle
 62
7
  6
CONTINUOUS
 10
132.9641361892
 20
882.7412680756
 40
0.5
100
AcDbArc
 50
53.1301023542
 51
126.8698976458
  0
ARC
  5
441
100
AcDbEntity
  8
6_ALL_SURFS
100
AcDbCircle
 62
7
  6
CONTINUOUS
 10
135.9641361892
 20
882.7412680756
 40
0.5
100
AcDbArc
 50
53.1301023542
 51
126.8698976458
  0
ARC
  5
442
100
AcDbEntity
  8
6_ALL_SURFS
100
AcDbCircle
 62
7
  6
CONTINUOUS
 10
139.0141361892
 20
881.9412680756
 40
0.3
100
AcDbArc
 50
180.0
 51
270.0
  0
ARC
  5
443
100
AcDbEntity
  8
6_ALL_SURFS
100
AcDbCircle
 62
7
  6
CONTINUOUS
 10
139.6641361892
 20
881.9412680756
 40
0.3
100
AcDbArc
 50
270.0
 51
360.0
  0
ARC
  5
444
100
AcDbEntity
  8
6_ALL_SURFS
100
AcDbCircle
 62
7
  6
CONTINUOUS
 10
139.6641361892
 20
894.7600179192
 40
0.3
100
AcDbArc
 50
0.0
 51
68.3817275778
  0
ARC
  5
445
100
AcDbEntity
  8
6_ALL_SURFS
100
AcDbCircle
 62
7
  6
CONTINUOUS
 10
139.6641361892
 20
896.5263700924
 40
0.3
100
AcDbArc
 50
291.6182724222
 51
360.0
  0
ARC
  5
446
100
AcDbEntity
  8
6_ALL_SURFS
100
AcDbCircle
 62
7
  6
CONTINUOUS
 10
138.1641361892
 20
884.4412680756
 40
0.3
100
AcDbArc
 50
270.0
 51
360.0
  0
ARC
  5
447
100
AcDbEntity
  8
6_ALL_SURFS
100
AcDbCircle
 62
7
  6
CONTINUOUS
 10
138.4141361892
 20
882.8412680756
 40
0.3
100
AcDbArc
 50
0.0
 51
90.0
  0
ARC
  5
448
100
AcDbEntity
  8
7_ALL_FEATURES
100
AcDbCircle
 62
7
  6
CONTINUOUS
 10
140.3141361892
 20
896.8412680756
 40
0.2
100
AcDbArc
 50
180.0
 51
270.0
  0
ARC
  5
449
100
AcDbEntity
  8
3_ALL_AXES
100
AcDbCircle
 62
7
  6
CONTINUOUS
 10
140.3641361892
 20
898.4612680756
 40
1.8
100
AcDbArc
 50
0.0
 51
57.1401196211
  0
ARC
  5
44A
100
AcDbEntity
  8
6_ALL_SURFS
100
AcDbCircle
 62
7
  6
CONTINUOUS
 10
139.8641361892
 20
910.0412680756
 40
1.5
100
AcDbArc
 50
90.0
 51
180.0
  0
ARC
  5
44B
100
AcDbEntity
  8
6_ALL_SURFS
100
AcDbCircle
 62
7
  6
CONTINUOUS
 10
139.8641361892
 20
907.2412680756
 40
1.5
100
AcDbArc
 50
180.0
 51
270.0
  0
ARC
  5
44C
100
AcDbEntity
  8
6_ALL_SURFS
100
AcDbCircle
 62
7
  6
CONTINUOUS
 10
139.9641361892
 20
900.6412680756
 40
1.5
100
AcDbArc
 50
137.0
 51
180.0
  0
ARC
  5
44D
100
AcDbEntity
  8
6_ALL_SURFS
100
AcDbCircle
 62
7
  6
CONTINUOUS
 10
141.2641361892
 20
908.6412680756
 40
1.3
100
AcDbArc
 50
40.8069228749
 51
319.1930771251
  0
ARC
  5
44E
100
AcDbEntity
  8
3_ALL_AXES
100
AcDbCircle
 62
7
  6
CONTINUOUS
 10
141.4493089865
 20
900.1412680756
 40
1.0
100
AcDbArc
 50
137.0
 51
237.1401196211
  0
ARC
  5
44F
100
AcDbEntity
  8
3_ALL_AXES
100
AcDbCircle
 62
7
  6
CONTINUOUS
 10
140.3641361892
 20
898.4612680756
 40
1.0
100
AcDbArc
 50
0.0
 51
57.1401196211
  0
ARC
  5
450
100
AcDbEntity
  8
3_ALL_AXES
100
AcDbCircle
 62
7
  6
CONTINUOUS
 10
141.3749245787
 20
900.9412680756
 40
0.4
100
AcDbArc
 50
317.0
 51
137.0
  0
ARC
  5
451
100
AcDbEntity
  8
6_ALL_SURFS
100
AcDbCircle
 62
7
  6
CONTINUOUS
 10
142.5641361892
 20
902.4412680756
 40
0.3
100
AcDbArc
 50
270.0
 51
360.0
  0
ARC
  5
452
100
AcDbEntity
  8
6_ALL_SURFS
100
AcDbCircle
 62
7
  6
CONTINUOUS
 10
142.5641361892
 20
903.6170040069
 40
0.3
100
AcDbArc
 50
0.0
 51
45.0
  0
ARC
  5
453
100
AcDbEntity
  8
6_ALL_SURFS
100
AcDbCircle
 62
7
  6
CONTINUOUS
 10
142.5641361892
 20
906.2655321444
 40
0.3
100
AcDbArc
 50
315.0
 51
360.0
  0
ARC
  5
454
100
AcDbEntity
  8
6_ALL_SURFS
100
AcDbCircle
 62
7
  6
CONTINUOUS
 10
142.5641361892
 20
907.5443025642
 40
0.3
100
AcDbArc
 50
0.0
 51
60.0
  0
ARC
  5
455
100
AcDbEntity
  8
6_ALL_SURFS
100
AcDbCircle
 62
7
  6
CONTINUOUS
 10
142.4752019481
 20
907.5956487722
 40
0.3
100
AcDbArc
 50
60.0
 51
139.1930771251
  0
ARC
  5
456
100
AcDbEntity
  8
6_ALL_SURFS
100
AcDbCircle
 62
7
  6
CONTINUOUS
 10
142.4752019481
 20
909.686887379
 40
0.3
100
AcDbArc
 50
220.8069228749
 51
300.0
  0
ARC
  5
457
100
AcDbEntity
  8
6_ALL_SURFS
100
AcDbCircle
 62
7
  6
CONTINUOUS
 10
142.5641361892
 20
909.7382335871
 40
0.3
100
AcDbArc
 50
300.0
 51
360.0
  0
ARC
  5
458
100
AcDbEntity
  8
6_ALL_SURFS
100
AcDbCircle
 62
7
  6
CONTINUOUS
 10
140.2641361892
 20
897.189431798
 40
0.3
100
AcDbArc
 50
142.5
 51
180.0
  0
ARC
  5
459
100
AcDbEntity
  8
6_ALL_SURFS
100
AcDbCircle
 62
7
  6
CONTINUOUS
 10
140.9641361892
 20
911.8412680756
 40
0.3
100
AcDbArc
 50
270.0
 51
360.0
  0
ARC
  5
45A
100
AcDbEntity
  8
6_ALL_SURFS
100
AcDbCircle
 62
7
  6
CONTINUOUS
 10
142.8641361892
 20
905.7170040069
 40
0.3
100
AcDbArc
 50
135.0
 51
180.0
  0
ARC
  5
45B
100
AcDbEntity
  8
6_ALL_SURFS
100
AcDbCircle
 62
7
  6
CONTINUOUS
 10
142.8641361892
 20
904.1655321444
 40
0.3
100
AcDbArc
 50
180.0
 51
225.0
  0
ARC
  5
45C
100
AcDbEntity
  8
6_ALL_SURFS
100
AcDbCircle
 62
7
  6
CONTINUOUS
 10
141.4933525309
 20
901.8412680756
 40
0.3
100
AcDbArc
 50
90.0
 51
137.0
  0
ARC
  5
45D
100
AcDbEntity
  8
6_ALL_SURFS
100
AcDbCircle
 62
7
  6
CONTINUOUS
 10
140.2641361892
 20
900.523094933
 40
0.3
100
AcDbArc
 50
137.0
 51
180.0
  0
ARC
  5
45E
100
AcDbEntity
  8
6_ALL_SURFS
100
AcDbCircle
 62
7
  6
CONTINUOUS
 10
140.2641361892
 20
899.4412680756
 40
0.3
100
AcDbArc
 50
180.0
 51
270.0
  0
ARC
  5
45F
100
AcDbEntity
  8
6_ALL_SURFS
100
AcDbCircle
 62
7
  6
CONTINUOUS
 10
140.6641361892
 20
905.4412680756
 40
0.3
100
AcDbArc
 50
0.0
 51
90.0
  0
ARC
  5
460
100
AcDbEntity
  8
6_ALL_SURFS
100
AcDbCircle
 62
7
  6
CONTINUOUS
 10
140.6641361892
 20
904.0312287068
 40
0.3
100
AcDbArc
 50
317.0
 51
360.0
  0
ARC
  5
461
100
AcDbEntity
  8
7_ALL_FEATURES
100
AcDbCircle
 62
7
  6
CONTINUOUS
 10
142.3641361892
 20
898.3412680756
 40
0.2
100
AcDbArc
 50
180.0
 51
270.0
  0
ARC
  5
462
100
AcDbEntity
  8
7_ALL_FEATURES
100
AcDbCircle
 62
7
  6
CONTINUOUS
 10
141.1641361892
 20
897.8412680756
 40
0.2
100
AcDbArc
 50
270.0
 51
360.0
  0
ARC
  5
463
100
AcDbEntity
  8
3_ALL_AXES
100
AcDbCircle
 62
7
  6
CONTINUOUS
 10
141.4493089865
 20
900.1412680756
 40
0.2
100
AcDbArc
 50
137.0
 51
237.1401196211
  0
ARC
  5
464
100
AcDbEntity
  8
6_ALL_SURFS
100
AcDbCircle
 62
7
  6
CONTINUOUS
 10
140.9781312365
 20
898.9412680756
 40
0.2
100
AcDbArc
 50
322.5
 51
90.0
  0
ARC
  5
465
100
AcDbEntity
  8
6_ALL_SURFS
100
AcDbCircle
 62
7
  6
CONTINUOUS
 10
146.2641361892
 20
947.0185416158
 40
5.0
100
AcDbArc
 50
167.4878142167
 51
180.0
  0
ARC
  5
466
100
AcDbEntity
  8
6_ALL_SURFS
100
AcDbCircle
 62
7
  6
CONTINUOUS
 10
150.9641361892
 20
969.3912680756
 40
2.8
100
AcDbArc
 50
330.0
 51
360.0
  0
ARC
  5
467
100
AcDbEntity
  8
6_ALL_SURFS
100
AcDbCircle
 62
7
  6
CONTINUOUS
 10
150.9641361892
 20
969.3912680756
 40
2.8
100
AcDbArc
 50
153.9347815174
 51
210.0
  0
ARC
  5
468
100
AcDbEntity
  8
6_ALL_SURFS
100
AcDbCircle
 62
7
  6
CONTINUOUS
 10
144.8641361892
 20
944.6918616172
 40
2.0
100
AcDbArc
 50
160.0
 51
180.0
  0
ARC
  5
469
100
AcDbEntity
  8
6_ALL_SURFS
100
AcDbCircle
 62
7
  6
CONTINUOUS
 10
171.3141361892
 20
971.1412680756
 40
1.5
100
AcDbArc
 50
90.0
 51
180.0
  0
ARC
  5
46A
100
AcDbEntity
  8
6_ALL_SURFS
100
AcDbCircle
 62
7
  6
CONTINUOUS
 10
146.8338951864
 20
965.7412680756
 40
1.5
100
AcDbArc
 50
90.0
 51
167.4878142167
  0
ARC
  5
46B
100
AcDbEntity
  8
6_ALL_SURFS
100
AcDbCircle
 62
7
  6
CONTINUOUS
 10
150.9641361892
 20
969.4412680756
 40
1.3
100
AcDbArc
 50
130.8069228753
 51
49.1930771278
  0
ARC
  5
46C
100
AcDbEntity
  8
6_ALL_SURFS
100
AcDbCircle
 62
7
  6
CONTINUOUS
 10
147.9997644176
 20
970.8412680756
 40
0.5
100
AcDbArc
 50
333.9347815174
 51
90.0
  0
ARC
  5
46D
100
AcDbEntity
  8
6_ALL_SURFS
100
AcDbCircle
 62
7
  6
CONTINUOUS
 10
148.1062523567
 20
967.7412680756
 40
0.5
100
AcDbArc
 50
270.0
 51
30.0
  0
ARC
  5
46E
100
AcDbEntity
  8
6_ALL_SURFS
100
AcDbCircle
 62
7
  6
CONTINUOUS
 10
153.8220200217
 20
967.7412680756
 40
0.5
100
AcDbArc
 50
150.0
 51
270.0
  0
ARC
  5
46F
100
AcDbEntity
  8
6_ALL_SURFS
100
AcDbCircle
 62
7
  6
CONTINUOUS
 10
147.3153412025
 20
965.1412680756
 40
0.5
100
AcDbArc
 50
90.0
 51
167.4878142168
  0
ARC
  5
470
100
AcDbEntity
  8
6_ALL_SURFS
100
AcDbCircle
 62
7
  6
CONTINUOUS
 10
153.4641361892
 20
972.3412680756
 40
0.3
100
AcDbArc
 50
0.0
 51
90.0
  0
ARC
  5
471
100
AcDbEntity
  8
6_ALL_SURFS
100
AcDbCircle
 62
7
  6
CONTINUOUS
 10
152.9848621313
 20
972.3412680756
 40
0.3
100
AcDbArc
 50
90.0
 51
149.9999999986
  0
ARC
  5
472
100
AcDbEntity
  8
6_ALL_SURFS
100
AcDbCircle
 62
7
  6
CONTINUOUS
 10
152.0097554925
 20
970.6523338346
 40
0.3
100
AcDbArc
 50
149.9999999986
 51
229.1930771278
  0
ARC
  5
473
100
AcDbEntity
  8
6_ALL_SURFS
100
AcDbCircle
 62
7
  6
CONTINUOUS
 10
149.9185168857
 20
970.6523338345
 40
0.3
100
AcDbArc
 50
310.8069228753
 51
30.0000000015
  0
ARC
  5
474
100
AcDbEntity
  8
6_ALL_SURFS
100
AcDbCircle
 62
7
  6
CONTINUOUS
 10
148.9434102469
 20
972.3412680756
 40
0.3
100
AcDbArc
 50
30.0000000014
 51
90.0
  0
ARC
  5
475
100
AcDbEntity
  8
6_ALL_SURFS
100
AcDbCircle
 62
7
  6
CONTINUOUS
 10
146.9562523567
 20
972.3412680756
 40
0.3
100
AcDbArc
 50
90.0
 51
180.0
  0
ARC
  5
476
100
AcDbEntity
  8
6_ALL_SURFS
100
AcDbCircle
 62
7
  6
CONTINUOUS
 10
146.9562523567
 20
971.6412680756
 40
0.3
100
AcDbArc
 50
180.0
 51
270.0
  0
ARC
  5
477
100
AcDbEntity
  8
6_ALL_SURFS
100
AcDbCircle
 62
7
  6
CONTINUOUS
 10
143.2296223599
 20
946.9258219
 40
0.3
100
AcDbArc
 50
340.0
 51
70.0
  0
ARC
  5
478
100
AcDbEntity
  8
6_ALL_SURFS
100
AcDbCircle
 62
7
  6
CONTINUOUS
 10
171.4141361892
 20
965.9412680756
 40
0.3
100
AcDbArc
 50
270.0
 51
360.0
  0
ARC
  5
479
100
AcDbEntity
  8
6_ALL_SURFS
100
AcDbCircle
 62
7
  6
CONTINUOUS
 10
169.5141361892
 20
967.5412680756
 40
0.3
100
AcDbArc
 50
270.0
 51
360.0
  0
ARC
  5
47A
100
AcDbEntity
  8
6_ALL_SURFS
100
AcDbCircle
 62
7
  6
CONTINUOUS
 10
172.0141361892
 20
970.7412680756
 40
0.3
100
AcDbArc
 50
90.0
 51
180.0
  0
ARC
  5
47B
100
AcDbEntity
  8
6_ALL_SURFS
100
AcDbCircle
 62
7
  6
CONTINUOUS
 10
143.211318198
 20
947.5709907336
 40
0.3
100
AcDbArc
 50
167.4878142168
 51
250.0
  0
ARC
  5
47C
100
AcDbEntity
  8
7_ALL_FEATURES
100
AcDbCircle
 62
7
  6
CONTINUOUS
 10
206.8141361892
 20
895.6431940058
 40
2.15
100
AcDbArc
 50
316.1313356567
 51
43.8686643433
  0
ARC
  5
47D
100
AcDbEntity
  8
7_ALL_FEATURES
100
AcDbCircle
 62
7
  6
CONTINUOUS
 10
206.8141361892
 20
895.6431940058
 40
0.65
100
AcDbArc
 50
291.6182724222
 51
68.3817275778
  0
ARC
  5
47E
100
AcDbEntity
  8
6_ALL_SURFS
100
AcDbCircle
 62
7
  6
CONTINUOUS
 10
210.8641361892
 20
882.7412680756
 40
0.5
100
AcDbArc
 50
53.1301023542
 51
126.8698976458
  0
ARC
  5
47F
100
AcDbEntity
  8
6_ALL_SURFS
100
AcDbCircle
 62
7
  6
CONTINUOUS
 10
213.8641361892
 20
882.7412680756
 40
0.5
100
AcDbArc
 50
53.1301023542
 51
126.8698976458
  0
ARC
  5
480
100
AcDbEntity
  8
7_ALL_FEATURES
100
AcDbCircle
 62
7
  6
CONTINUOUS
 10
208.6641361892
 20
884.4412680756
 40
0.3
100
AcDbArc
 50
180.0
 51
270.0
  0
ARC
  5
481
100
AcDbEntity
  8
7_ALL_FEATURES
100
AcDbCircle
 62
7
  6
CONTINUOUS
 10
208.4141361892
 20
882.8412680756
 40
0.3
100
AcDbArc
 50
90.0
 51
180.0
  0
ARC
  5
482
100
AcDbEntity
  8
7_ALL_FEATURES
100
AcDbCircle
 62
7
  6
CONTINUOUS
 10
207.1641361892
 20
896.5263700924
 40
0.3
100
AcDbArc
 50
180.0
 51
248.3817275778
  0
ARC
  5
483
100
AcDbEntity
  8
7_ALL_FEATURES
100
AcDbCircle
 62
7
  6
CONTINUOUS
 10
207.1641361892
 20
894.7600179192
 40
0.3
100
AcDbArc
 50
111.6182724222
 51
180.0
  0
ARC
  5
484
100
AcDbEntity
  8
7_ALL_FEATURES
100
AcDbCircle
 62
7
  6
CONTINUOUS
 10
207.1641361892
 20
881.9412680756
 40
0.3
100
AcDbArc
 50
180.0
 51
270.0
  0
ARC
  5
485
100
AcDbEntity
  8
7_ALL_FEATURES
100
AcDbCircle
 62
7
  6
CONTINUOUS
 10
207.8141361892
 20
881.9412680756
 40
0.3
100
AcDbArc
 50
270.0
 51
360.0
  0
ARC
  5
486
100
AcDbEntity
  8
7_ALL_FEATURES
100
AcDbCircle
 62
7
  6
CONTINUOUS
 10
206.5141361892
 20
896.8412680756
 40
0.2
100
AcDbArc
 50
270.0
 51
360.0
  0
ARC
  5
487
100
AcDbEntity
  8
3_ALL_AXES
100
AcDbCircle
 62
7
  6
CONTINUOUS
 10
206.4641361892
 20
898.4612680756
 40
1.8
100
AcDbArc
 50
122.8598803789
 51
180.0
  0
ARC
  5
488
100
AcDbEntity
  8
7_ALL_FEATURES
100
AcDbCircle
 62
7
  6
CONTINUOUS
 10
206.8641361892
 20
900.6412680756
 40
1.5
100
AcDbArc
 50
0.0
 51
43.0
  0
ARC
  5
489
100
AcDbEntity
  8
7_ALL_FEATURES
100
AcDbCircle
 62
7
  6
CONTINUOUS
 10
206.9641361892
 20
907.2412680756
 40
1.5
100
AcDbArc
 50
270.0
 51
360.0
  0
ARC
  5
48A
100
AcDbEntity
  8
7_ALL_FEATURES
100
AcDbCircle
 62
7
  6
CONTINUOUS
 10
206.9641361892
 20
910.0412680756
 40
1.5
100
AcDbArc
 50
0.0
 51
90.0
  0
ARC
  5
48B
100
AcDbEntity
  8
7_ALL_FEATURES
100
AcDbCircle
 62
7
  6
CONTINUOUS
 10
205.5641361892
 20
908.6412680756
 40
1.3
100
AcDbArc
 50
220.8069228749
 51
139.1930771251
  0
ARC
  5
48C
100
AcDbEntity
  8
3_ALL_AXES
100
AcDbCircle
 62
7
  6
CONTINUOUS
 10
206.4641361892
 20
898.4612680756
 40
1.0
100
AcDbArc
 50
122.8598803789
 51
180.0
  0
ARC
  5
48D
100
AcDbEntity
  8
3_ALL_AXES
100
AcDbCircle
 62
7
  6
CONTINUOUS
 10
205.3789633919
 20
900.1412680756
 40
1.0
100
AcDbArc
 50
302.8598803789
 51
43.0
  0
ARC
  5
48E
100
AcDbEntity
  8
3_ALL_AXES
100
AcDbCircle
 62
7
  6
CONTINUOUS
 10
205.4533477996
 20
900.9412680756
 40
0.4
100
AcDbArc
 50
43.0
 51
223.0
  0
ARC
  5
48F
100
AcDbEntity
  8
7_ALL_FEATURES
100
AcDbCircle
 62
7
  6
CONTINUOUS
 10
206.5641361892
 20
897.189431798
 40
0.3
100
AcDbArc
 50
0.0
 51
37.5
  0
ARC
  5
490
100
AcDbEntity
  8
7_ALL_FEATURES
100
AcDbCircle
 62
7
  6
CONTINUOUS
 10
205.8641361892
 20
911.8412680756
 40
0.3
100
AcDbArc
 50
180.0
 51
270.0
  0
ARC
  5
491
100
AcDbEntity
  8
7_ALL_FEATURES
100
AcDbCircle
 62
7
  6
CONTINUOUS
 10
203.9641361892
 20
905.7170040069
 40
0.3
100
AcDbArc
 50
0.0
 51
45.0
  0
ARC
  5
492
100
AcDbEntity
  8
7_ALL_FEATURES
100
AcDbCircle
 62
7
  6
CONTINUOUS
 10
203.9641361892
 20
904.1655321444
 40
0.3
100
AcDbArc
 50
315.0
 51
360.0
  0
ARC
  5
493
100
AcDbEntity
  8
7_ALL_FEATURES
100
AcDbCircle
 62
7
  6
CONTINUOUS
 10
205.3349198475
 20
901.8412680756
 40
0.3
100
AcDbArc
 50
43.0
 51
90.0
  0
ARC
  5
494
100
AcDbEntity
  8
7_ALL_FEATURES
100
AcDbCircle
 62
7
  6
CONTINUOUS
 10
206.5641361892
 20
900.523094933
 40
0.3
100
AcDbArc
 50
0.0
 51
43.0
  0
ARC
  5
495
100
AcDbEntity
  8
7_ALL_FEATURES
100
AcDbCircle
 62
7
  6
CONTINUOUS
 10
206.5641361892
 20
899.4412680756
 40
0.3
100
AcDbArc
 50
270.0
 51
360.0
  0
ARC
  5
496
100
AcDbEntity
  8
7_ALL_FEATURES
100
AcDbCircle
 62
7
  6
CONTINUOUS
 10
206.1641361892
 20
905.4412680756
 40
0.3
100
AcDbArc
 50
90.0
 51
180.0
  0
ARC
  5
497
100
AcDbEntity
  8
7_ALL_FEATURES
100
AcDbCircle
 62
7
  6
CONTINUOUS
 10
206.1641361892
 20
904.0312287068
 40
0.3
100
AcDbArc
 50
180.0
 51
223.0
  0
ARC
  5
498
100
AcDbEntity
  8
7_ALL_FEATURES
100
AcDbCircle
 62
7
  6
CONTINUOUS
 10
204.2641361892
 20
909.7382335871
 40
0.3
100
AcDbArc
 50
180.0
 51
240.0
  0
ARC
  5
499
100
AcDbEntity
  8
7_ALL_FEATURES
100
AcDbCircle
 62
7
  6
CONTINUOUS
 10
204.3530704303
 20
909.686887379
 40
0.3
100
AcDbArc
 50
240.0
 51
319.1930771251
  0
ARC
  5
49A
100
AcDbEntity
  8
7_ALL_FEATURES
100
AcDbCircle
 62
7
  6
CONTINUOUS
 10
204.3530704303
 20
907.5956487722
 40
0.3
100
AcDbArc
 50
40.8069228749
 51
120.0
  0
ARC
  5
49B
100
AcDbEntity
  8
7_ALL_FEATURES
100
AcDbCircle
 62
7
  6
CONTINUOUS
 10
204.2641361892
 20
907.5443025642
 40
0.3
100
AcDbArc
 50
120.0
 51
180.0
  0
ARC
  5
49C
100
AcDbEntity
  8
7_ALL_FEATURES
100
AcDbCircle
 62
7
  6
CONTINUOUS
 10
204.2641361892
 20
906.2655321444
 40
0.3
100
AcDbArc
 50
180.0
 51
225.0
  0
ARC
  5
49D
100
AcDbEntity
  8
7_ALL_FEATURES
100
AcDbCircle
 62
7
  6
CONTINUOUS
 10
204.2641361892
 20
903.6170040069
 40
0.3
100
AcDbArc
 50
135.0
 51
180.0
  0
ARC
  5
49E
100
AcDbEntity
  8
7_ALL_FEATURES
100
AcDbCircle
 62
7
  6
CONTINUOUS
 10
204.2641361892
 20
902.4412680756
 40
0.3
100
AcDbArc
 50
180.0
 51
270.0
  0
ARC
  5
49F
100
AcDbEntity
  8
7_ALL_FEATURES
100
AcDbCircle
 62
7
  6
CONTINUOUS
 10
204.4641361892
 20
898.3412680756
 40
0.2
100
AcDbArc
 50
270.0
 51
360.0
  0
ARC
  5
4A0
100
AcDbEntity
  8
7_ALL_FEATURES
100
AcDbCircle
 62
7
  6
CONTINUOUS
 10
205.6641361892
 20
897.8412680756
 40
0.2
100
AcDbArc
 50
180.0
 51
270.0
  0
ARC
  5
4A1
100
AcDbEntity
  8
3_ALL_AXES
100
AcDbCircle
 62
7
  6
CONTINUOUS
 10
205.3789633919
 20
900.1412680756
 40
0.2
100
AcDbArc
 50
302.8598803789
 51
43.0
  0
ARC
  5
4A2
100
AcDbEntity
  8
7_ALL_FEATURES
100
AcDbCircle
 62
7
  6
CONTINUOUS
 10
206.5141361892
 20
897.4412680756
 40
0.2
100
AcDbArc
 50
72.0
 51
90.0
  0
ARC
  5
4A3
100
AcDbEntity
  8
7_ALL_FEATURES
100
AcDbCircle
 62
7
  6
CONTINUOUS
 10
205.8501411418
 20
898.9412680756
 40
0.2
100
AcDbArc
 50
90.0
 51
217.5
  0
ARC
  5
4A4
100
AcDbEntity
  8
6_ALL_SURFS
100
AcDbCircle
 62
7
  6
CONTINUOUS
 10
216.8641361892
 20
882.7412680756
 40
0.5
100
AcDbArc
 50
53.1301023542
 51
126.8698976458
  0
ARC
  5
4A5
100
AcDbEntity
  8
6_ALL_SURFS
100
AcDbCircle
 62
7
  6
CONTINUOUS
 10
219.8641361892
 20
882.7412680756
 40
0.5
100
AcDbArc
 50
53.1301023542
 51
126.8698976458
  0
ARC
  5
4A6
100
AcDbEntity
  8
6_ALL_SURFS
100
AcDbCircle
 62
7
  6
CONTINUOUS
 10
222.8641361892
 20
882.7412680756
 40
0.5
100
AcDbArc
 50
53.1301023542
 51
126.8698976458
  0
ARC
  5
4A7
100
AcDbEntity
  8
7_ALL_FEATURES
100
AcDbCircle
 62
7
  6
CONTINUOUS
 10
227.9704328312
 20
883.7475647177
 40
0.3937033579
100
AcDbArc
 50
275.7105931375
 51
90.0
  0
ARC
  5
4A8
100
AcDbEntity
  8
7_ALL_FEATURES
100
AcDbCircle
 62
7
  6
CONTINUOUS
 10
173.4141361892
 20
969.5412680756
 40
8.0
100
AcDbArc
 50
284.4775121859
 51
300.0
  0
ARC
  5
4A9
100
AcDbEntity
  8
7_ALL_FEATURES
100
AcDbCircle
 62
7
  6
CONTINUOUS
 10
173.4141361892
 20
969.5412680756
 40
8.0
100
AcDbArc
 50
240.0
 51
255.5224878141
  0
ARC
  5
4AA
100
AcDbEntity
  8
7_ALL_FEATURES
100
AcDbCircle
 62
7
  6
CONTINUOUS
 10
173.4141361892
 20
969.5412680756
 40
7.9843597113
100
AcDbArc
 50
255.4935070353
 51
266.4096498625
  0
ARC
  5
4AB
100
AcDbEntity
  8
7_ALL_FEATURES
100
AcDbCircle
 62
7
  6
CONTINUOUS
 10
173.4141361892
 20
969.5412680756
 40
7.9843597113
100
AcDbArc
 50
273.5903501375
 51
284.5064929647
  0
ARC
  5
4AC
100
AcDbEntity
  8
7_ALL_FEATURES
100
AcDbCircle
 62
7
  6
CONTINUOUS
 10
173.4141361892
 20
969.5412680756
 40
7.7459666924
100
AcDbArc
 50
266.2990001561
 51
273.7009998439
  0
ARC
  5
4AD
100
AcDbEntity
  8
7_ALL_FEATURES
100
AcDbCircle
 62
7
  6
CONTINUOUS
 10
200.5641361892
 20
947.0185416158
 40
5.0
100
AcDbArc
 50
0.0
 51
12.5121857833
  0
ARC
  5
4AE
100
AcDbEntity
  8
7_ALL_FEATURES
100
AcDbCircle
 62
7
  6
CONTINUOUS
 10
195.8641361892
 20
969.3912680756
 40
2.8
100
AcDbArc
 50
330.0
 51
26.0652184826
  0
ARC
  5
4AF
100
AcDbEntity
  8
7_ALL_FEATURES
100
AcDbCircle
 62
7
  6
CONTINUOUS
 10
195.8641361892
 20
969.3912680756
 40
2.8
100
AcDbArc
 50
180.0
 51
210.0
  0
ARC
  5
4B0
100
AcDbEntity
  8
7_ALL_FEATURES
100
AcDbCircle
 62
7
  6
CONTINUOUS
 10
201.9641361892
 20
944.6918616172
 40
2.0
100
AcDbArc
 50
0.0
 51
20.0
  0
ARC
  5
4B1
100
AcDbEntity
  8
7_ALL_FEATURES
100
AcDbCircle
 62
7
  6
CONTINUOUS
 10
199.9943771919
 20
965.7412680756
 40
1.5
100
AcDbArc
 50
12.5121857833
 51
90.0
  0
ARC
  5
4B2
100
AcDbEntity
  8
7_ALL_FEATURES
100
AcDbCircle
 62
7
  6
CONTINUOUS
 10
175.5141361892
 20
971.1412680756
 40
1.5
100
AcDbArc
 50
0.0
 51
90.0
  0
ARC
  5
4B3
100
AcDbEntity
  8
7_ALL_FEATURES
100
AcDbCircle
 62
7
  6
CONTINUOUS
 10
195.8641361892
 20
969.4412680756
 40
1.3
100
AcDbArc
 50
130.8069228722
 51
49.1930771247
  0
ARC
  5
4B4
100
AcDbEntity
  8
7_ALL_FEATURES
100
AcDbCircle
 62
7
  6
CONTINUOUS
 10
198.8285079607
 20
970.8412680756
 40
0.5
100
AcDbArc
 50
90.0
 51
206.0652184826
  0
ARC
  5
4B5
100
AcDbEntity
  8
7_ALL_FEATURES
100
AcDbCircle
 62
7
  6
CONTINUOUS
 10
198.7220200217
 20
967.7412680756
 40
0.5
100
AcDbArc
 50
150.0
 51
270.0
  0
ARC
  5
4B6
100
AcDbEntity
  8
7_ALL_FEATURES
100
AcDbCircle
 62
7
  6
CONTINUOUS
 10
193.0062523567
 20
967.7412680756
 40
0.5
100
AcDbArc
 50
270.0
 51
30.0
  0
ARC
  5
4B7
100
AcDbEntity
  8
7_ALL_FEATURES
100
AcDbCircle
 62
7
  6
CONTINUOUS
 10
199.5129311759
 20
965.1412680756
 40
0.5
100
AcDbArc
 50
12.5121857832
 51
90.0
  0
ARC
  5
4B8
100
AcDbEntity
  8
7_ALL_FEATURES
100
AcDbCircle
 62
7
  6
CONTINUOUS
 10
177.3141361892
 20
967.5412680756
 40
0.3
100
AcDbArc
 50
180.0
 51
270.0
  0
ARC
  5
4B9
100
AcDbEntity
  8
7_ALL_FEATURES
100
AcDbCircle
 62
7
  6
CONTINUOUS
 10
174.8141361892
 20
970.7412680756
 40
0.3
100
AcDbArc
 50
0.0
 51
90.0
  0
ARC
  5
4BA
100
AcDbEntity
  8
7_ALL_FEATURES
100
AcDbCircle
 62
7
  6
CONTINUOUS
 10
203.6169541803
 20
947.5709907336
 40
0.3
100
AcDbArc
 50
290.0
 51
12.5121857832
  0
ARC
  5
4BB
100
AcDbEntity
  8
7_ALL_FEATURES
100
AcDbCircle
 62
7
  6
CONTINUOUS
 10
175.4141361892
 20
965.9412680756
 40
0.3
100
AcDbArc
 50
180.0
 51
270.0
  0
ARC
  5
4BC
100
AcDbEntity
  8
7_ALL_FEATURES
100
AcDbCircle
 62
7
  6
CONTINUOUS
 10
203.5986500184
 20
946.9258219
 40
0.3
100
AcDbArc
 50
110.0
 51
200.0
  0
ARC
  5
4BD
100
AcDbEntity
  8
7_ALL_FEATURES
100
AcDbCircle
 62
7
  6
CONTINUOUS
 10
199.8720200217
 20
971.6412680756
 40
0.3
100
AcDbArc
 50
270.0
 51
360.0
  0
ARC
  5
4BE
100
AcDbEntity
  8
7_ALL_FEATURES
100
AcDbCircle
 62
7
  6
CONTINUOUS
 10
199.8720200217
 20
972.3412680756
 40
0.3
100
AcDbArc
 50
0.0
 51
90.0
  0
ARC
  5
4BF
100
AcDbEntity
  8
7_ALL_FEATURES
100
AcDbCircle
 62
7
  6
CONTINUOUS
 10
197.8848621314
 20
972.3412680756
 40
0.3
100
AcDbArc
 50
90.0
 51
149.9999999986
  0
ARC
  5
4C0
100
AcDbEntity
  8
7_ALL_FEATURES
100
AcDbCircle
 62
7
  6
CONTINUOUS
 10
196.9097554926
 20
970.6523338345
 40
0.3
100
AcDbArc
 50
149.9999999985
 51
229.1930771247
  0
ARC
  5
4C1
100
AcDbEntity
  8
7_ALL_FEATURES
100
AcDbCircle
 62
7
  6
CONTINUOUS
 10
194.8185168858
 20
970.6523338346
 40
0.3
100
AcDbArc
 50
310.8069228722
 51
30.0000000014
  0
ARC
  5
4C2
100
AcDbEntity
  8
7_ALL_FEATURES
100
AcDbCircle
 62
7
  6
CONTINUOUS
 10
193.843410247
 20
972.3412680756
 40
0.3
100
AcDbArc
 50
30.0000000014
 51
90.0
  0
ARC
  5
4C3
100
AcDbEntity
  8
7_ALL_FEATURES
100
AcDbCircle
 62
7
  6
CONTINUOUS
 10
193.3641361892
 20
972.3412680756
 40
0.3
100
AcDbArc
 50
90.0
 51
180.0
  0
ARC
  5
4C4
100
AcDbEntity
  8
7_ALL_FEATURES
100
AcDbCircle
 62
7
  6
CONTINUOUS
 10
482.1468298109
 20
1172.5190673703
 40
4.7990381057
100
AcDbArc
 50
189.5960093944
 51
226.828815981
  0
ARC
  5
4C5
100
AcDbEntity
  8
7_ALL_FEATURES
100
AcDbCircle
 62
7
  6
CONTINUOUS
 10
732.1468298109
 20
1172.5190673703
 40
4.7990381057
100
AcDbArc
 50
189.5960093944
 51
226.828815981
  0
ARC
  5
4C6
100
AcDbEntity
  8
7_ALL_FEATURES
100
AcDbCircle
 62
7
  6
CONTINUOUS
 10
482.1468298109
 20
1172.5190673703
 40
4.7990381057
100
AcDbArc
 50
313.171184019
 51
350.4039906056
  0
ARC
  5
4C7
100
AcDbEntity
  8
7_ALL_FEATURES
100
AcDbCircle
 62
7
  6
CONTINUOUS
 10
982.1468298109
 20
1172.5190673703
 40
4.7990381057
100
AcDbArc
 50
189.5960093944
 51
226.828815981
  0
ARC
  5
4C8
100
AcDbEntity
  8
7_ALL_FEATURES
100
AcDbCircle
 62
7
  6
CONTINUOUS
 10
732.1468298109
 20
1172.5190673703
 40
4.7990381057
100
AcDbArc
 50
313.171184019
 51
350.4039906056
  0
ARC
  5
4C9
100
AcDbEntity
  8
7_ALL_FEATURES
100
AcDbCircle
 62
7
  6
CONTINUOUS
 10
1232.1468298109
 20
1172.5190673703
 40
4.7990381057
100
AcDbArc
 50
189.5960093944
 51
226.828815981
  0
ARC
  5
4CA
100
AcDbEntity
  8
7_ALL_FEATURES
100
AcDbCircle
 62
7
  6
CONTINUOUS
 10
982.1468298109
 20
1172.5190673703
 40
4.7990381057
100
AcDbArc
 50
313.171184019
 51
350.4039906056
  0
ARC
  5
4CB
100
AcDbEntity
  8
7_ALL_FEATURES
100
AcDbCircle
 62
7
  6
CONTINUOUS
 10
1482.1468298109
 20
1172.5190673703
 40
4.7990381057
100
AcDbArc
 50
189.5960093944
 51
226.828815981
  0
ARC
  5
4CC
100
AcDbEntity
  8
7_ALL_FEATURES
100
AcDbCircle
 62
7
  6
CONTINUOUS
 10
1232.1468298109
 20
1172.5190673703
 40
4.7990381057
100
AcDbArc
 50
313.171184019
 51
350.4039906056
  0
ARC
  5
4CD
100
AcDbEntity
  8
7_ALL_FEATURES
100
AcDbCircle
 62
7
  6
CONTINUOUS
 10
1482.1468298109
 20
1172.5190673703
 40
4.7990381057
100
AcDbArc
 50
313.171184019
 51
350.4039906056
  0
ARC
  5
4CE
100
AcDbEntity
  8
7_ALL_FEATURES
100
AcDbCircle
 62
7
  6
CONTINUOUS
 10
482.1468298109
 20
1172.5190673703
 40
4.7990381057
100
AcDbArc
 50
152.7144649101
 51
182.3884943821
  0
ARC
  5
4CF
100
AcDbEntity
  8
7_ALL_FEATURES
100
AcDbCircle
 62
7
  6
CONTINUOUS
 10
732.1468298109
 20
1172.5190673703
 40
4.7990381057
100
AcDbArc
 50
152.7144649101
 51
182.3884943821
  0
ARC
  5
4D0
100
AcDbEntity
  8
7_ALL_FEATURES
100
AcDbCircle
 62
7
  6
CONTINUOUS
 10
482.1468298109
 20
1172.5190673703
 40
4.7990381057
100
AcDbArc
 50
357.6115056179
 51
27.2855350899
  0
ARC
  5
4D1
100
AcDbEntity
  8
7_ALL_FEATURES
100
AcDbCircle
 62
7
  6
CONTINUOUS
 10
982.1468298109
 20
1172.5190673703
 40
4.7990381057
100
AcDbArc
 50
152.7144649101
 51
182.3884943821
  0
ARC
  5
4D2
100
AcDbEntity
  8
7_ALL_FEATURES
100
AcDbCircle
 62
7
  6
CONTINUOUS
 10
732.1468298109
 20
1172.5190673703
 40
4.7990381057
100
AcDbArc
 50
357.6115056179
 51
27.2855350899
  0
ARC
  5
4D3
100
AcDbEntity
  8
7_ALL_FEATURES
100
AcDbCircle
 62
7
  6
CONTINUOUS
 10
1232.1468298109
 20
1172.5190673703
 40
4.7990381057
100
AcDbArc
 50
152.7144649101
 51
182.3884943821
  0
ARC
  5
4D4
100
AcDbEntity
  8
7_ALL_FEATURES
100
AcDbCircle
 62
7
  6
CONTINUOUS
 10
982.1468298109
 20
1172.5190673703
 40
4.7990381057
100
AcDbArc
 50
357.6115056179
 51
27.2855350899
  0
ARC
  5
4D5
100
AcDbEntity
  8
7_ALL_FEATURES
100
AcDbCircle
 62
7
  6
CONTINUOUS
 10
1482.1468298109
 20
1172.5190673703
 40
4.7990381057
100
AcDbArc
 50
152.7144649101
 51
182.3884943821
  0
ARC
  5
4D6
100
AcDbEntity
  8
7_ALL_FEATURES
100
AcDbCircle
 62
7
  6
CONTINUOUS
 10
1232.1468298109
 20
1172.5190673703
 40
4.7990381057
100
AcDbArc
 50
357.6115056179
 51
27.2855350899
  0
ARC
  5
4D7
100
AcDbEntity
  8
7_ALL_FEATURES
100
AcDbCircle
 62
7
  6
CONTINUOUS
 10
1482.1468298109
 20
1172.5190673703
 40
4.7990381057
100
AcDbArc
 50
357.6115056179
 51
27.2855350899
  0
ARC
  5
4D8
100
AcDbEntity
  8
7_ALL_FEATURES
100
AcDbCircle
 62
7
  6
CONTINUOUS
 10
732.1468298109
 20
1172.5190673703
 40
4.7990381057
100
AcDbArc
 50
35.6935828234
 51
144.3064171766
  0
ARC
  5
4D9
100
AcDbEntity
  8
7_ALL_FEATURES
100
AcDbCircle
 62
7
  6
CONTINUOUS
 10
982.1468298109
 20
1172.5190673703
 40
4.7990381057
100
AcDbArc
 50
35.6935828234
 51
144.3064171766
  0
ARC
  5
4DA
100
AcDbEntity
  8
7_ALL_FEATURES
100
AcDbCircle
 62
7
  6
CONTINUOUS
 10
1232.1468298109
 20
1172.5190673703
 40
4.7990381057
100
AcDbArc
 50
35.6935828234
 51
144.3064171766
  0
ARC
  5
4DB
100
AcDbEntity
  8
7_ALL_FEATURES
100
AcDbCircle
 62
7
  6
CONTINUOUS
 10
1482.1468298109
 20
1172.5190673703
 40
4.7990381057
100
AcDbArc
 50
35.6935828234
 51
144.3064171766
  0
ARC
  5
4DC
100
AcDbEntity
  8
7_ALL_FEATURES
100
AcDbCircle
 62
7
  6
CONTINUOUS
 10
482.1468298109
 20
1172.5190673703
 40
4.7990381057
100
AcDbArc
 50
35.6935828234
 51
144.3064171766
  0
CIRCLE
  5
4DD
100
AcDbEntity
  8
6_ALL_SURFS
100
AcDbCircle
 62
7
  6
CONTINUOUS
 10
482.1468298109
 20
1172.5190673703
 40
3.5
  0
CIRCLE
  5
4DE
100
AcDbEntity
  8
6_ALL_SURFS
100
AcDbCircle
 62
7
  6
CONTINUOUS
 10
732.1468298109
 20
1172.5190673703
 40
3.5
  0
CIRCLE
  5
4DF
100
AcDbEntity
  8
6_ALL_SURFS
100
AcDbCircle
 62
7
  6
CONTINUOUS
 10
982.1468298109
 20
1172.5190673703
 40
3.5
  0
CIRCLE
  5
4E0
100
AcDbEntity
  8
6_ALL_SURFS
100
AcDbCircle
 62
7
  6
CONTINUOUS
 10
1232.1468298109
 20
1172.5190673703
 40
3.5
  0
CIRCLE
  5
4E1
100
AcDbEntity
  8
6_ALL_SURFS
100
AcDbCircle
 62
7
  6
CONTINUOUS
 10
1482.1468298109
 20
1172.5190673703
 40
3.5
  0
ARC
  5
4E2
100
AcDbEntity
  8
6_ALL_SURFS
100
AcDbCircle
 62
7
  6
CONTINUOUS
 10
1482.1468298109
 20
1270.4190673703
 40
4.7990381057
100
AcDbArc
 50
9.5960093944
 51
46.828815981
  0
ARC
  5
4E3
100
AcDbEntity
  8
6_ALL_SURFS
100
AcDbCircle
 62
7
  6
CONTINUOUS
 10
1232.1468298109
 20
1270.4190673703
 40
4.7990381057
100
AcDbArc
 50
9.5960093944
 51
46.828815981
  0
ARC
  5
4E4
100
AcDbEntity
  8
6_ALL_SURFS
100
AcDbCircle
 62
7
  6
CONTINUOUS
 10
1482.1468298109
 20
1270.4190673703
 40
4.7990381057
100
AcDbArc
 50
133.171184019
 51
170.4039906056
  0
ARC
  5
4E5
100
AcDbEntity
  8
6_ALL_SURFS
100
AcDbCircle
 62
7
  6
CONTINUOUS
 10
982.1468298109
 20
1270.4190673703
 40
4.7990381057
100
AcDbArc
 50
9.5960093944
 51
46.828815981
  0
ARC
  5
4E6
100
AcDbEntity
  8
6_ALL_SURFS
100
AcDbCircle
 62
7
  6
CONTINUOUS
 10
1232.1468298109
 20
1270.4190673703
 40
4.7990381057
100
AcDbArc
 50
133.171184019
 51
170.4039906056
  0
ARC
  5
4E7
100
AcDbEntity
  8
6_ALL_SURFS
100
AcDbCircle
 62
7
  6
CONTINUOUS
 10
732.1468298109
 20
1270.4190673703
 40
4.7990381057
100
AcDbArc
 50
9.5960093944
 51
46.828815981
  0
ARC
  5
4E8
100
AcDbEntity
  8
6_ALL_SURFS
100
AcDbCircle
 62
7
  6
CONTINUOUS
 10
982.1468298109
 20
1270.4190673703
 40
4.7990381057
100
AcDbArc
 50
133.171184019
 51
170.4039906056
  0
ARC
  5
4E9
100
AcDbEntity
  8
6_ALL_SURFS
100
AcDbCircle
 62
7
  6
CONTINUOUS
 10
482.1468298109
 20
1270.4190673703
 40
4.7990381057
100
AcDbArc
 50
9.5960093944
 51
46.828815981
  0
ARC
  5
4EA
100
AcDbEntity
  8
6_ALL_SURFS
100
AcDbCircle
 62
7
  6
CONTINUOUS
 10
732.1468298109
 20
1270.4190673703
 40
4.7990381057
100
AcDbArc
 50
133.171184019
 51
170.4039906056
  0
ARC
  5
4EB
100
AcDbEntity
  8
6_ALL_SURFS
100
AcDbCircle
 62
7
  6
CONTINUOUS
 10
482.1468298109
 20
1270.4190673703
 40
4.7990381057
100
AcDbArc
 50
133.171184019
 51
170.4039906056
  0
ARC
  5
4EC
100
AcDbEntity
  8
6_ALL_SURFS
100
AcDbCircle
 62
7
  6
CONTINUOUS
 10
732.1468298109
 20
1270.4190673703
 40
4.7990381057
100
AcDbArc
 50
215.6935828234
 51
324.3064171766
  0
ARC
  5
4ED
100
AcDbEntity
  8
6_ALL_SURFS
100
AcDbCircle
 62
7
  6
CONTINUOUS
 10
982.1468298109
 20
1270.4190673703
 40
4.7990381057
100
AcDbArc
 50
215.6935828234
 51
324.3064171766
  0
ARC
  5
4EE
100
AcDbEntity
  8
6_ALL_SURFS
100
AcDbCircle
 62
7
  6
CONTINUOUS
 10
1232.1468298109
 20
1270.4190673703
 40
4.7990381057
100
AcDbArc
 50
215.6935828234
 51
324.3064171766
  0
ARC
  5
4EF
100
AcDbEntity
  8
6_ALL_SURFS
100
AcDbCircle
 62
7
  6
CONTINUOUS
 10
1482.1468298109
 20
1270.4190673703
 40
4.7990381057
100
AcDbArc
 50
215.6935828234
 51
324.3064171766
  0
ARC
  5
4F0
100
AcDbEntity
  8
6_ALL_SURFS
100
AcDbCircle
 62
7
  6
CONTINUOUS
 10
482.1468298109
 20
1270.4190673703
 40
4.7990381057
100
AcDbArc
 50
215.6935828234
 51
324.3064171766
  0
ARC
  5
4F1
100
AcDbEntity
  8
6_ALL_SURFS
100
AcDbCircle
 62
7
  6
CONTINUOUS
 10
1482.1468298109
 20
1270.4190673703
 40
4.7990381057
100
AcDbArc
 50
332.7144649101
 51
2.3884943821
  0
ARC
  5
4F2
100
AcDbEntity
  8
6_ALL_SURFS
100
AcDbCircle
 62
7
  6
CONTINUOUS
 10
1232.1468298109
 20
1270.4190673703
 40
4.7990381057
100
AcDbArc
 50
332.7144649101
 51
2.3884943821
  0
ARC
  5
4F3
100
AcDbEntity
  8
6_ALL_SURFS
100
AcDbCircle
 62
7
  6
CONTINUOUS
 10
1482.1468298109
 20
1270.4190673703
 40
4.7990381057
100
AcDbArc
 50
177.6115056179
 51
207.2855350899
  0
ARC
  5
4F4
100
AcDbEntity
  8
6_ALL_SURFS
100
AcDbCircle
 62
7
  6
CONTINUOUS
 10
982.1468298109
 20
1270.4190673703
 40
4.7990381057
100
AcDbArc
 50
332.7144649101
 51
2.3884943821
  0
ARC
  5
4F5
100
AcDbEntity
  8
6_ALL_SURFS
100
AcDbCircle
 62
7
  6
CONTINUOUS
 10
1232.1468298109
 20
1270.4190673703
 40
4.7990381057
100
AcDbArc
 50
177.6115056179
 51
207.2855350899
  0
ARC
  5
4F6
100
AcDbEntity
  8
6_ALL_SURFS
100
AcDbCircle
 62
7
  6
CONTINUOUS
 10
732.1468298109
 20
1270.4190673703
 40
4.7990381057
100
AcDbArc
 50
332.7144649101
 51
2.3884943821
  0
ARC
  5
4F7
100
AcDbEntity
  8
6_ALL_SURFS
100
AcDbCircle
 62
7
  6
CONTINUOUS
 10
982.1468298109
 20
1270.4190673703
 40
4.7990381057
100
AcDbArc
 50
177.6115056179
 51
207.2855350899
  0
ARC
  5
4F8
100
AcDbEntity
  8
6_ALL_SURFS
100
AcDbCircle
 62
7
  6
CONTINUOUS
 10
482.1468298109
 20
1270.4190673703
 40
4.7990381057
100
AcDbArc
 50
332.7144649101
 51
2.3884943821
  0
ARC
  5
4F9
100
AcDbEntity
  8
6_ALL_SURFS
100
AcDbCircle
 62
7
  6
CONTINUOUS
 10
732.1468298109
 20
1270.4190673703
 40
4.7990381057
100
AcDbArc
 50
177.6115056179
 51
207.2855350899
  0
ARC
  5
4FA
100
AcDbEntity
  8
6_ALL_SURFS
100
AcDbCircle
 62
7
  6
CONTINUOUS
 10
482.1468298109
 20
1270.4190673703
 40
4.7990381057
100
AcDbArc
 50
177.6115056179
 51
207.2855350899
  0
CIRCLE
  5
4FB
100
AcDbEntity
  8
6_ALL_SURFS
100
AcDbCircle
 62
7
  6
CONTINUOUS
 10
1482.1468298109
 20
1270.4190673703
 40
3.5
  0
CIRCLE
  5
4FC
100
AcDbEntity
  8
6_ALL_SURFS
100
AcDbCircle
 62
7
  6
CONTINUOUS
 10
1232.1468298109
 20
1270.4190673703
 40
3.5
  0
CIRCLE
  5
4FD
100
AcDbEntity
  8
6_ALL_SURFS
100
AcDbCircle
 62
7
  6
CONTINUOUS
 10
982.1468298109
 20
1270.4190673703
 40
3.5
  0
CIRCLE
  5
4FE
100
AcDbEntity
  8
6_ALL_SURFS
100
AcDbCircle
 62
7
  6
CONTINUOUS
 10
732.1468298109
 20
1270.4190673703
 40
3.5
  0
CIRCLE
  5
4FF
100
AcDbEntity
  8
6_ALL_SURFS
100
AcDbCircle
 62
7
  6
CONTINUOUS
 10
482.1468298109
 20
1270.4190673703
 40
3.5
  0
ARC
  5
500
100
AcDbEntity
  8
7_ALL_FEATURES
100
AcDbCircle
 62
7
  6
CONTINUOUS
 10
1732.1468298109
 20
1172.5190673703
 40
4.7990381057
100
AcDbArc
 50
189.5960093944
 51
226.828815981
  0
ARC
  5
501
100
AcDbEntity
  8
7_ALL_FEATURES
100
AcDbCircle
 62
7
  6
CONTINUOUS
 10
1982.1468298109
 20
1172.5190673703
 40
4.7990381057
100
AcDbArc
 50
189.5960093944
 51
226.828815981
  0
ARC
  5
502
100
AcDbEntity
  8
7_ALL_FEATURES
100
AcDbCircle
 62
7
  6
CONTINUOUS
 10
1732.1468298109
 20
1172.5190673703
 40
4.7990381057
100
AcDbArc
 50
313.171184019
 51
350.4039906056
  0
ARC
  5
503
100
AcDbEntity
  8
7_ALL_FEATURES
100
AcDbCircle
 62
7
  6
CONTINUOUS
 10
2232.1468298109
 20
1172.5190673703
 40
4.7990381057
100
AcDbArc
 50
189.5960093944
 51
226.828815981
  0
ARC
  5
504
100
AcDbEntity
  8
7_ALL_FEATURES
100
AcDbCircle
 62
7
  6
CONTINUOUS
 10
1982.1468298109
 20
1172.5190673703
 40
4.7990381057
100
AcDbArc
 50
313.171184019
 51
350.4039906056
  0
ARC
  5
505
100
AcDbEntity
  8
7_ALL_FEATURES
100
AcDbCircle
 62
7
  6
CONTINUOUS
 10
2482.1468298109
 20
1172.5190673703
 40
4.7990381057
100
AcDbArc
 50
189.5960093944
 51
226.828815981
  0
ARC
  5
506
100
AcDbEntity
  8
7_ALL_FEATURES
100
AcDbCircle
 62
7
  6
CONTINUOUS
 10
2232.1468298109
 20
1172.5190673703
 40
4.7990381057
100
AcDbArc
 50
313.171184019
 51
350.4039906056
  0
ARC
  5
507
100
AcDbEntity
  8
7_ALL_FEATURES
100
AcDbCircle
 62
7
  6
CONTINUOUS
 10
2732.1468298109
 20
1172.5190673703
 40
4.7990381057
100
AcDbArc
 50
189.5960093944
 51
226.828815981
  0
ARC
  5
508
100
AcDbEntity
  8
7_ALL_FEATURES
100
AcDbCircle
 62
7
  6
CONTINUOUS
 10
2482.1468298109
 20
1172.5190673703
 40
4.7990381057
100
AcDbArc
 50
313.171184019
 51
350.4039906056
  0
ARC
  5
509
100
AcDbEntity
  8
7_ALL_FEATURES
100
AcDbCircle
 62
7
  6
CONTINUOUS
 10
2982.1468298109
 20
1172.5190673703
 40
4.7990381057
100
AcDbArc
 50
189.5960093944
 51
226.828815981
  0
ARC
  5
50A
100
AcDbEntity
  8
7_ALL_FEATURES
100
AcDbCircle
 62
7
  6
CONTINUOUS
 10
2732.1468298109
 20
1172.5190673703
 40
4.7990381057
100
AcDbArc
 50
313.171184019
 51
350.4039906056
  0
ARC
  5
50B
100
AcDbEntity
  8
7_ALL_FEATURES
100
AcDbCircle
 62
7
  6
CONTINUOUS
 10
2982.1468298109
 20
1172.5190673703
 40
4.7990381057
100
AcDbArc
 50
313.171184019
 51
350.4039906056
  0
ARC
  5
50C
100
AcDbEntity
  8
7_ALL_FEATURES
100
AcDbCircle
 62
7
  6
CONTINUOUS
 10
1732.1468298109
 20
1172.5190673703
 40
4.7990381057
100
AcDbArc
 50
152.7144649101
 51
182.3884943821
  0
ARC
  5
50D
100
AcDbEntity
  8
7_ALL_FEATURES
100
AcDbCircle
 62
7
  6
CONTINUOUS
 10
1982.1468298109
 20
1172.5190673703
 40
4.7990381057
100
AcDbArc
 50
152.7144649101
 51
182.3884943821
  0
ARC
  5
50E
100
AcDbEntity
  8
7_ALL_FEATURES
100
AcDbCircle
 62
7
  6
CONTINUOUS
 10
1732.1468298109
 20
1172.5190673703
 40
4.7990381057
100
AcDbArc
 50
357.6115056179
 51
27.2855350899
  0
ARC
  5
50F
100
AcDbEntity
  8
7_ALL_FEATURES
100
AcDbCircle
 62
7
  6
CONTINUOUS
 10
2232.1468298109
 20
1172.5190673703
 40
4.7990381057
100
AcDbArc
 50
152.7144649101
 51
182.3884943821
  0
ARC
  5
510
100
AcDbEntity
  8
7_ALL_FEATURES
100
AcDbCircle
 62
7
  6
CONTINUOUS
 10
1982.1468298109
 20
1172.5190673703
 40
4.7990381057
100
AcDbArc
 50
357.6115056179
 51
27.2855350899
  0
ARC
  5
511
100
AcDbEntity
  8
7_ALL_FEATURES
100
AcDbCircle
 62
7
  6
CONTINUOUS
 10
2482.1468298109
 20
1172.5190673703
 40
4.7990381057
100
AcDbArc
 50
152.7144649101
 51
182.3884943821
  0
ARC
  5
512
100
AcDbEntity
  8
7_ALL_FEATURES
100
AcDbCircle
 62
7
  6
CONTINUOUS
 10
2232.1468298109
 20
1172.5190673703
 40
4.7990381057
100
AcDbArc
 50
357.6115056179
 51
27.2855350899
  0
ARC
  5
513
100
AcDbEntity
  8
7_ALL_FEATURES
100
AcDbCircle
 62
7
  6
CONTINUOUS
 10
2732.1468298109
 20
1172.5190673703
 40
4.7990381057
100
AcDbArc
 50
152.7144649101
 51
182.3884943821
  0
ARC
  5
514
100
AcDbEntity
  8
7_ALL_FEATURES
100
AcDbCircle
 62
7
  6
CONTINUOUS
 10
2482.1468298109
 20
1172.5190673703
 40
4.7990381057
100
AcDbArc
 50
357.6115056179
 51
27.2855350899
  0
ARC
  5
515
100
AcDbEntity
  8
7_ALL_FEATURES
100
AcDbCircle
 62
7
  6
CONTINUOUS
 10
2982.1468298109
 20
1172.5190673703
 40
4.7990381057
100
AcDbArc
 50
152.7144649101
 51
182.3884943821
  0
ARC
  5
516
100
AcDbEntity
  8
7_ALL_FEATURES
100
AcDbCircle
 62
7
  6
CONTINUOUS
 10
2732.1468298109
 20
1172.5190673703
 40
4.7990381057
100
AcDbArc
 50
357.6115056179
 51
27.2855350899
  0
ARC
  5
517
100
AcDbEntity
  8
7_ALL_FEATURES
100
AcDbCircle
 62
7
  6
CONTINUOUS
 10
2982.1468298109
 20
1172.5190673703
 40
4.7990381057
100
AcDbArc
 50
357.6115056179
 51
27.2855350899
  0
ARC
  5
518
100
AcDbEntity
  8
7_ALL_FEATURES
100
AcDbCircle
 62
7
  6
CONTINUOUS
 10
1732.1468298109
 20
1172.5190673703
 40
4.7990381057
100
AcDbArc
 50
35.6935828234
 51
144.3064171766
  0
ARC
  5
519
100
AcDbEntity
  8
7_ALL_FEATURES
100
AcDbCircle
 62
7
  6
CONTINUOUS
 10
1982.1468298109
 20
1172.5190673703
 40
4.7990381057
100
AcDbArc
 50
35.6935828234
 51
144.3064171766
  0
ARC
  5
51A
100
AcDbEntity
  8
7_ALL_FEATURES
100
AcDbCircle
 62
7
  6
CONTINUOUS
 10
2232.1468298109
 20
1172.5190673703
 40
4.7990381057
100
AcDbArc
 50
35.6935828234
 51
144.3064171766
  0
ARC
  5
51B
100
AcDbEntity
  8
7_ALL_FEATURES
100
AcDbCircle
 62
7
  6
CONTINUOUS
 10
2482.1468298109
 20
1172.5190673703
 40
4.7990381057
100
AcDbArc
 50
35.6935828234
 51
144.3064171766
  0
ARC
  5
51C
100
AcDbEntity
  8
7_ALL_FEATURES
100
AcDbCircle
 62
7
  6
CONTINUOUS
 10
2732.1468298109
 20
1172.5190673703
 40
4.7990381057
100
AcDbArc
 50
35.6935828234
 51
144.3064171766
  0
ARC
  5
51D
100
AcDbEntity
  8
7_ALL_FEATURES
100
AcDbCircle
 62
7
  6
CONTINUOUS
 10
2982.1468298109
 20
1172.5190673703
 40
4.7990381057
100
AcDbArc
 50
35.6935828234
 51
144.3064171766
  0
CIRCLE
  5
51E
100
AcDbEntity
  8
6_ALL_SURFS
100
AcDbCircle
 62
7
  6
CONTINUOUS
 10
1732.1468298109
 20
1172.5190673703
 40
3.5
  0
CIRCLE
  5
51F
100
AcDbEntity
  8
6_ALL_SURFS
100
AcDbCircle
 62
7
  6
CONTINUOUS
 10
1982.1468298109
 20
1172.5190673703
 40
3.5
  0
CIRCLE
  5
520
100
AcDbEntity
  8
6_ALL_SURFS
100
AcDbCircle
 62
7
  6
CONTINUOUS
 10
2232.1468298109
 20
1172.5190673703
 40
3.5
  0
CIRCLE
  5
521
100
AcDbEntity
  8
6_ALL_SURFS
100
AcDbCircle
 62
7
  6
CONTINUOUS
 10
2482.1468298109
 20
1172.5190673703
 40
3.5
  0
CIRCLE
  5
522
100
AcDbEntity
  8
6_ALL_SURFS
100
AcDbCircle
 62
7
  6
CONTINUOUS
 10
2732.1468298109
 20
1172.5190673703
 40
3.5
  0
CIRCLE
  5
523
100
AcDbEntity
  8
6_ALL_SURFS
100
AcDbCircle
 62
7
  6
CONTINUOUS
 10
2982.1468298109
 20
1172.5190673703
 40
3.5
  0
ARC
  5
524
100
AcDbEntity
  8
6_ALL_SURFS
100
AcDbCircle
 62
7
  6
CONTINUOUS
 10
2982.1468298109
 20
1270.4190673703
 40
4.7990381057
100
AcDbArc
 50
9.5960093944
 51
46.828815981
  0
ARC
  5
525
100
AcDbEntity
  8
6_ALL_SURFS
100
AcDbCircle
 62
7
  6
CONTINUOUS
 10
2732.1468298109
 20
1270.4190673703
 40
4.7990381057
100
AcDbArc
 50
9.5960093944
 51
46.828815981
  0
ARC
  5
526
100
AcDbEntity
  8
6_ALL_SURFS
100
AcDbCircle
 62
7
  6
CONTINUOUS
 10
2982.1468298109
 20
1270.4190673703
 40
4.7990381057
100
AcDbArc
 50
133.171184019
 51
170.4039906056
  0
ARC
  5
527
100
AcDbEntity
  8
6_ALL_SURFS
100
AcDbCircle
 62
7
  6
CONTINUOUS
 10
2482.1468298109
 20
1270.4190673703
 40
4.7990381057
100
AcDbArc
 50
9.5960093944
 51
46.828815981
  0
ARC
  5
528
100
AcDbEntity
  8
6_ALL_SURFS
100
AcDbCircle
 62
7
  6
CONTINUOUS
 10
2732.1468298109
 20
1270.4190673703
 40
4.7990381057
100
AcDbArc
 50
133.171184019
 51
170.4039906056
  0
ARC
  5
529
100
AcDbEntity
  8
6_ALL_SURFS
100
AcDbCircle
 62
7
  6
CONTINUOUS
 10
2232.1468298109
 20
1270.4190673703
 40
4.7990381057
100
AcDbArc
 50
9.5960093944
 51
46.828815981
  0
ARC
  5
52A
100
AcDbEntity
  8
6_ALL_SURFS
100
AcDbCircle
 62
7
  6
CONTINUOUS
 10
2482.1468298109
 20
1270.4190673703
 40
4.7990381057
100
AcDbArc
 50
133.171184019
 51
170.4039906056
  0
ARC
  5
52B
100
AcDbEntity
  8
6_ALL_SURFS
100
AcDbCircle
 62
7
  6
CONTINUOUS
 10
1982.1468298109
 20
1270.4190673703
 40
4.7990381057
100
AcDbArc
 50
9.5960093944
 51
46.828815981
  0
ARC
  5
52C
100
AcDbEntity
  8
6_ALL_SURFS
100
AcDbCircle
 62
7
  6
CONTINUOUS
 10
2232.1468298109
 20
1270.4190673703
 40
4.7990381057
100
AcDbArc
 50
133.171184019
 51
170.4039906056
  0
ARC
  5
52D
100
AcDbEntity
  8
6_ALL_SURFS
100
AcDbCircle
 62
7
  6
CONTINUOUS
 10
1732.1468298109
 20
1270.4190673703
 40
4.7990381057
100
AcDbArc
 50
9.5960093944
 51
46.828815981
  0
ARC
  5
52E
100
AcDbEntity
  8
6_ALL_SURFS
100
AcDbCircle
 62
7
  6
CONTINUOUS
 10
1982.1468298109
 20
1270.4190673703
 40
4.7990381057
100
AcDbArc
 50
133.171184019
 51
170.4039906056
  0
ARC
  5
52F
100
AcDbEntity
  8
6_ALL_SURFS
100
AcDbCircle
 62
7
  6
CONTINUOUS
 10
1732.1468298109
 20
1270.4190673703
 40
4.7990381057
100
AcDbArc
 50
133.171184019
 51
170.4039906056
  0
ARC
  5
530
100
AcDbEntity
  8
6_ALL_SURFS
100
AcDbCircle
 62
7
  6
CONTINUOUS
 10
1732.1468298109
 20
1270.4190673703
 40
4.7990381057
100
AcDbArc
 50
215.6935828234
 51
324.3064171766
  0
ARC
  5
531
100
AcDbEntity
  8
6_ALL_SURFS
100
AcDbCircle
 62
7
  6
CONTINUOUS
 10
1982.1468298109
 20
1270.4190673703
 40
4.7990381057
100
AcDbArc
 50
215.6935828234
 51
324.3064171766
  0
ARC
  5
532
100
AcDbEntity
  8
6_ALL_SURFS
100
AcDbCircle
 62
7
  6
CONTINUOUS
 10
2232.1468298109
 20
1270.4190673703
 40
4.7990381057
100
AcDbArc
 50
215.6935828234
 51
324.3064171766
  0
ARC
  5
533
100
AcDbEntity
  8
6_ALL_SURFS
100
AcDbCircle
 62
7
  6
CONTINUOUS
 10
2482.1468298109
 20
1270.4190673703
 40
4.7990381057
100
AcDbArc
 50
215.6935828234
 51
324.3064171766
  0
ARC
  5
534
100
AcDbEntity
  8
6_ALL_SURFS
100
AcDbCircle
 62
7
  6
CONTINUOUS
 10
2732.1468298109
 20
1270.4190673703
 40
4.7990381057
100
AcDbArc
 50
215.6935828234
 51
324.3064171766
  0
ARC
  5
535
100
AcDbEntity
  8
6_ALL_SURFS
100
AcDbCircle
 62
7
  6
CONTINUOUS
 10
2982.1468298109
 20
1270.4190673703
 40
4.7990381057
100
AcDbArc
 50
215.6935828234
 51
324.3064171766
  0
ARC
  5
536
100
AcDbEntity
  8
6_ALL_SURFS
100
AcDbCircle
 62
7
  6
CONTINUOUS
 10
2982.1468298109
 20
1270.4190673703
 40
4.7990381057
100
AcDbArc
 50
332.7144649101
 51
2.3884943821
  0
ARC
  5
537
100
AcDbEntity
  8
6_ALL_SURFS
100
AcDbCircle
 62
7
  6
CONTINUOUS
 10
2732.1468298109
 20
1270.4190673703
 40
4.7990381057
100
AcDbArc
 50
332.7144649101
 51
2.3884943821
  0
ARC
  5
538
100
AcDbEntity
  8
6_ALL_SURFS
100
AcDbCircle
 62
7
  6
CONTINUOUS
 10
2982.1468298109
 20
1270.4190673703
 40
4.7990381057
100
AcDbArc
 50
177.6115056179
 51
207.2855350899
  0
ARC
  5
539
100
AcDbEntity
  8
6_ALL_SURFS
100
AcDbCircle
 62
7
  6
CONTINUOUS
 10
2482.1468298109
 20
1270.4190673703
 40
4.7990381057
100
AcDbArc
 50
332.7144649101
 51
2.3884943821
  0
ARC
  5
53A
100
AcDbEntity
  8
6_ALL_SURFS
100
AcDbCircle
 62
7
  6
CONTINUOUS
 10
2732.1468298109
 20
1270.4190673703
 40
4.7990381057
100
AcDbArc
 50
177.6115056179
 51
207.2855350899
  0
ARC
  5
53B
100
AcDbEntity
  8
6_ALL_SURFS
100
AcDbCircle
 62
7
  6
CONTINUOUS
 10
2232.1468298109
 20
1270.4190673703
 40
4.7990381057
100
AcDbArc
 50
332.7144649101
 51
2.3884943821
  0
ARC
  5
53C
100
AcDbEntity
  8
6_ALL_SURFS
100
AcDbCircle
 62
7
  6
CONTINUOUS
 10
2482.1468298109
 20
1270.4190673703
 40
4.7990381057
100
AcDbArc
 50
177.6115056179
 51
207.2855350899
  0
ARC
  5
53D
100
AcDbEntity
  8
6_ALL_SURFS
100
AcDbCircle
 62
7
  6
CONTINUOUS
 10
1982.1468298109
 20
1270.4190673703
 40
4.7990381057
100
AcDbArc
 50
332.7144649101
 51
2.3884943821
  0
ARC
  5
53E
100
AcDbEntity
  8
6_ALL_SURFS
100
AcDbCircle
 62
7
  6
CONTINUOUS
 10
2232.1468298109
 20
1270.4190673703
 40
4.7990381057
100
AcDbArc
 50
177.6115056179
 51
207.2855350899
  0
ARC
  5
53F
100
AcDbEntity
  8
6_ALL_SURFS
100
AcDbCircle
 62
7
  6
CONTINUOUS
 10
1732.1468298109
 20
1270.4190673703
 40
4.7990381057
100
AcDbArc
 50
332.7144649101
 51
2.3884943821
  0
ARC
  5
540
100
AcDbEntity
  8
6_ALL_SURFS
100
AcDbCircle
 62
7
  6
CONTINUOUS
 10
1982.1468298109
 20
1270.4190673703
 40
4.7990381057
100
AcDbArc
 50
177.6115056179
 51
207.2855350899
  0
ARC
  5
541
100
AcDbEntity
  8
6_ALL_SURFS
100
AcDbCircle
 62
7
  6
CONTINUOUS
 10
1732.1468298109
 20
1270.4190673703
 40
4.7990381057
100
AcDbArc
 50
177.6115056179
 51
207.2855350899
  0
CIRCLE
  5
542
100
AcDbEntity
  8
6_ALL_SURFS
100
AcDbCircle
 62
7
  6
CONTINUOUS
 10
2982.1468298109
 20
1270.4190673703
 40
3.5
  0
CIRCLE
  5
543
100
AcDbEntity
  8
6_ALL_SURFS
100
AcDbCircle
 62
7
  6
CONTINUOUS
 10
2732.1468298109
 20
1270.4190673703
 40
3.5
  0
CIRCLE
  5
544
100
AcDbEntity
  8
6_ALL_SURFS
100
AcDbCircle
 62
7
  6
CONTINUOUS
 10
2482.1468298109
 20
1270.4190673703
 40
3.5
  0
CIRCLE
  5
545
100
AcDbEntity
  8
6_ALL_SURFS
100
AcDbCircle
 62
7
  6
CONTINUOUS
 10
2232.1468298109
 20
1270.4190673703
 40
3.5
  0
CIRCLE
  5
546
100
AcDbEntity
  8
6_ALL_SURFS
100
AcDbCircle
 62
7
  6
CONTINUOUS
 10
1982.1468298109
 20
1270.4190673703
 40
3.5
  0
CIRCLE
  5
547
100
AcDbEntity
  8
6_ALL_SURFS
100
AcDbCircle
 62
7
  6
CONTINUOUS
 10
1732.1468298109
 20
1270.4190673703
 40
3.5
  0
SPLINE
  5
548
100
AcDbEntity
  8
6_ALL_SURFS
100
AcDbSpline
 62
7
  6
CONTINUOUS
 70
0
 71
3
 72
9
 73
5
 74
0
 42
0.0000001
 43
0.0000001
 44
0.0000000001
 40
0.0
 40
0.0
 40
0.0
 40
0.0
 40
0.5055960977
 40
1.0
 40
1.0
 40
1.0
 40
1.0
 10
2486.9416986037
 20
1270.6190673703
 30
0.0
 10
2486.8489730421
 20
1270.6881686581
 30
0.0
 10
2486.6738151326
 20
1270.8910963211
 30
0.0
 10
2486.7934368678
 20
1271.1448069104
 30
0.0
 10
2486.8787180957
 20
1271.2190673703
 30
0.0
  0
SPLINE
  5
549
100
AcDbEntity
  8
6_ALL_SURFS
100
AcDbSpline
 62
7
  6
CONTINUOUS
 70
0
 71
3
 72
9
 73
5
 74
0
 42
0.0000001
 43
0.0000001
 44
0.0000000001
 40
0.0
 40
0.0
 40
0.0
 40
0.0
 40
0.4937401505
 40
1.0
 40
1.0
 40
1.0
 40
1.0
 10
2727.4149415261
 20
1271.2190673703
 30
0.0
 10
2727.500084175
 20
1271.1449275811
 30
0.0
 10
2727.6194955493
 20
1270.8914609447
 30
0.0
 10
2727.4447820521
 20
1270.6882398064
 30
0.0
 10
2727.3519610181
 20
1270.6190673703
 30
0.0
  0
SPLINE
  5
54A
100
AcDbEntity
  8
6_ALL_SURFS
100
AcDbSpline
 62
7
  6
CONTINUOUS
 70
0
 71
3
 72
9
 73
5
 74
0
 42
0.0000001
 43
0.0000001
 44
0.0000000001
 40
0.0
 40
0.0
 40
0.0
 40
0.0
 40
0.5055960977
 40
1.0
 40
1.0
 40
1.0
 40
1.0
 10
2236.9416986037
 20
1270.6190673703
 30
0.0
 10
2236.8489730421
 20
1270.6881686581
 30
0.0
 10
2236.6738151326
 20
1270.8910963211
 30
0.0
 10
2236.7934368678
 20
1271.1448069104
 30
0.0
 10
2236.8787180957
 20
1271.2190673703
 30
0.0
  0
SPLINE
  5
54B
100
AcDbEntity
  8
6_ALL_SURFS
100
AcDbSpline
 62
7
  6
CONTINUOUS
 70
0
 71
3
 72
9
 73
5
 74
0
 42
0.0000001
 43
0.0000001
 44
0.0000000001
 40
0.0
 40
0.0
 40
0.0
 40
0.0
 40
0.4937401505
 40
1.0
 40
1.0
 40
1.0
 40
1.0
 10
2477.4149415261
 20
1271.2190673703
 30
0.0
 10
2477.500084175
 20
1271.1449275811
 30
0.0
 10
2477.6194955493
 20
1270.8914609447
 30
0.0
 10
2477.4447820521
 20
1270.6882398064
 30
0.0
 10
2477.3519610181
 20
1270.6190673703
 30
0.0
  0
SPLINE
  5
54C
100
AcDbEntity
  8
6_ALL_SURFS
100
AcDbSpline
 62
7
  6
CONTINUOUS
 70
0
 71
3
 72
9
 73
5
 74
0
 42
0.0000001
 43
0.0000001
 44
0.0000000001
 40
0.0
 40
0.0
 40
0.0
 40
0.0
 40
0.5055960977
 40
1.0
 40
1.0
 40
1.0
 40
1.0
 10
1986.9416986037
 20
1270.6190673703
 30
0.0
 10
1986.8489730421
 20
1270.6881686581
 30
0.0
 10
1986.6738151326
 20
1270.8910963211
 30
0.0
 10
1986.7934368678
 20
1271.1448069104
 30
0.0
 10
1986.8787180957
 20
1271.2190673703
 30
0.0
  0
SPLINE
  5
54D
100
AcDbEntity
  8
6_ALL_SURFS
100
AcDbSpline
 62
7
  6
CONTINUOUS
 70
0
 71
3
 72
9
 73
5
 74
0
 42
0.0000001
 43
0.0000001
 44
0.0000000001
 40
0.0
 40
0.0
 40
0.0
 40
0.0
 40
0.4937401505
 40
1.0
 40
1.0
 40
1.0
 40
1.0
 10
2227.4149415261
 20
1271.2190673703
 30
0.0
 10
2227.500084175
 20
1271.1449275811
 30
0.0
 10
2227.6194955493
 20
1270.8914609447
 30
0.0
 10
2227.4447820521
 20
1270.6882398064
 30
0.0
 10
2227.3519610181
 20
1270.6190673703
 30
0.0
  0
SPLINE
  5
54E
100
AcDbEntity
  8
7_ALL_FEATURES
100
AcDbSpline
 62
7
  6
CONTINUOUS
 70
0
 71
3
 72
9
 73
5
 74
0
 42
0.0000001
 43
0.0000001
 44
0.0000000001
 40
0.0
 40
0.0
 40
0.0
 40
0.0
 40
0.4937401505
 40
1.0
 40
1.0
 40
1.0
 40
1.0
 10
477.4149415261
 20
1171.7190673703
 30
0.0
 10
477.500084175
 20
1171.7932071596
 30
0.0
 10
477.6194955493
 20
1172.046673796
 30
0.0
 10
477.4447820521
 20
1172.2498949343
 30
0.0
 10
477.3519610181
 20
1172.3190673703
 30
0.0
  0
SPLINE
  5
54F
100
AcDbEntity
  8
7_ALL_FEATURES
100
AcDbSpline
 62
7
  6
CONTINUOUS
 70
0
 71
3
 72
9
 73
5
 74
0
 42
0.0000001
 43
0.0000001
 44
0.0000000001
 40
0.0
 40
0.0
 40
0.0
 40
0.0
 40
0.4937401505
 40
1.0
 40
1.0
 40
1.0
 40
1.0
 10
727.4149415261
 20
1171.7190673703
 30
0.0
 10
727.500084175
 20
1171.7932071596
 30
0.0
 10
727.6194955493
 20
1172.046673796
 30
0.0
 10
727.4447820521
 20
1172.2498949343
 30
0.0
 10
727.3519610181
 20
1172.3190673703
 30
0.0
  0
SPLINE
  5
550
100
AcDbEntity
  8
7_ALL_FEATURES
100
AcDbSpline
 62
7
  6
CONTINUOUS
 70
0
 71
3
 72
9
 73
5
 74
0
 42
0.0000001
 43
0.0000001
 44
0.0000000001
 40
0.0
 40
0.0
 40
0.0
 40
0.0
 40
0.5055960977
 40
1.0
 40
1.0
 40
1.0
 40
1.0
 10
486.9416986037
 20
1172.3190673703
 30
0.0
 10
486.8489730421
 20
1172.2499660826
 30
0.0
 10
486.6738151326
 20
1172.0470384196
 30
0.0
 10
486.7934368678
 20
1171.7933278302
 30
0.0
 10
486.8787180957
 20
1171.7190673703
 30
0.0
  0
SPLINE
  5
551
100
AcDbEntity
  8
7_ALL_FEATURES
100
AcDbSpline
 62
7
  6
CONTINUOUS
 70
0
 71
3
 72
9
 73
5
 74
0
 42
0.0000001
 43
0.0000001
 44
0.0000000001
 40
0.0
 40
0.0
 40
0.0
 40
0.0
 40
0.4937401505
 40
1.0
 40
1.0
 40
1.0
 40
1.0
 10
977.4149415261
 20
1171.7190673703
 30
0.0
 10
977.500084175
 20
1171.7932071596
 30
0.0
 10
977.6194955493
 20
1172.046673796
 30
0.0
 10
977.4447820521
 20
1172.2498949343
 30
0.0
 10
977.3519610181
 20
1172.3190673703
 30
0.0
  0
SPLINE
  5
552
100
AcDbEntity
  8
7_ALL_FEATURES
100
AcDbSpline
 62
7
  6
CONTINUOUS
 70
0
 71
3
 72
9
 73
5
 74
0
 42
0.0000001
 43
0.0000001
 44
0.0000000001
 40
0.0
 40
0.0
 40
0.0
 40
0.0
 40
0.5055960977
 40
1.0
 40
1.0
 40
1.0
 40
1.0
 10
736.9416986037
 20
1172.3190673703
 30
0.0
 10
736.8489730421
 20
1172.2499660826
 30
0.0
 10
736.6738151326
 20
1172.0470384196
 30
0.0
 10
736.7934368678
 20
1171.7933278302
 30
0.0
 10
736.8787180957
 20
1171.7190673703
 30
0.0
  0
SPLINE
  5
553
100
AcDbEntity
  8
7_ALL_FEATURES
100
AcDbSpline
 62
7
  6
CONTINUOUS
 70
0
 71
3
 72
9
 73
5
 74
0
 42
0.0000001
 43
0.0000001
 44
0.0000000001
 40
0.0
 40
0.0
 40
0.0
 40
0.0
 40
0.4937401505
 40
1.0
 40
1.0
 40
1.0
 40
1.0
 10
1227.4149415261
 20
1171.7190673703
 30
0.0
 10
1227.500084175
 20
1171.7932071596
 30
0.0
 10
1227.6194955493
 20
1172.046673796
 30
0.0
 10
1227.4447820521
 20
1172.2498949343
 30
0.0
 10
1227.3519610181
 20
1172.3190673703
 30
0.0
  0
SPLINE
  5
554
100
AcDbEntity
  8
7_ALL_FEATURES
100
AcDbSpline
 62
7
  6
CONTINUOUS
 70
0
 71
3
 72
9
 73
5
 74
0
 42
0.0000001
 43
0.0000001
 44
0.0000000001
 40
0.0
 40
0.0
 40
0.0
 40
0.0
 40
0.5055960977
 40
1.0
 40
1.0
 40
1.0
 40
1.0
 10
986.9416986037
 20
1172.3190673703
 30
0.0
 10
986.8489730421
 20
1172.2499660826
 30
0.0
 10
986.6738151326
 20
1172.0470384196
 30
0.0
 10
986.7934368678
 20
1171.7933278302
 30
0.0
 10
986.8787180957
 20
1171.7190673703
 30
0.0
  0
SPLINE
  5
555
100
AcDbEntity
  8
7_ALL_FEATURES
100
AcDbSpline
 62
7
  6
CONTINUOUS
 70
0
 71
3
 72
9
 73
5
 74
0
 42
0.0000001
 43
0.0000001
 44
0.0000000001
 40
0.0
 40
0.0
 40
0.0
 40
0.0
 40
0.4937401505
 40
1.0
 40
1.0
 40
1.0
 40
1.0
 10
1477.4149415261
 20
1171.7190673703
 30
0.0
 10
1477.500084175
 20
1171.7932071596
 30
0.0
 10
1477.6194955493
 20
1172.046673796
 30
0.0
 10
1477.4447820521
 20
1172.2498949343
 30
0.0
 10
1477.3519610181
 20
1172.3190673703
 30
0.0
  0
SPLINE
  5
556
100
AcDbEntity
  8
7_ALL_FEATURES
100
AcDbSpline
 62
7
  6
CONTINUOUS
 70
0
 71
3
 72
9
 73
5
 74
0
 42
0.0000001
 43
0.0000001
 44
0.0000000001
 40
0.0
 40
0.0
 40
0.0
 40
0.0
 40
0.5055960977
 40
1.0
 40
1.0
 40
1.0
 40
1.0
 10
1236.9416986037
 20
1172.3190673703
 30
0.0
 10
1236.8489730421
 20
1172.2499660826
 30
0.0
 10
1236.6738151326
 20
1172.0470384196
 30
0.0
 10
1236.7934368678
 20
1171.7933278302
 30
0.0
 10
1236.8787180957
 20
1171.7190673703
 30
0.0
  0
SPLINE
  5
557
100
AcDbEntity
  8
7_ALL_FEATURES
100
AcDbSpline
 62
7
  6
CONTINUOUS
 70
0
 71
3
 72
9
 73
5
 74
0
 42
0.0000001
 43
0.0000001
 44
0.0000000001
 40
0.0
 40
0.0
 40
0.0
 40
0.0
 40
0.4937401505
 40
1.0
 40
1.0
 40
1.0
 40
1.0
 10
1727.4149415261
 20
1171.7190673703
 30
0.0
 10
1727.500084175
 20
1171.7932071596
 30
0.0
 10
1727.6194955493
 20
1172.046673796
 30
0.0
 10
1727.4447820521
 20
1172.2498949343
 30
0.0
 10
1727.3519610181
 20
1172.3190673703
 30
0.0
  0
SPLINE
  5
558
100
AcDbEntity
  8
7_ALL_FEATURES
100
AcDbSpline
 62
7
  6
CONTINUOUS
 70
0
 71
3
 72
9
 73
5
 74
0
 42
0.0000001
 43
0.0000001
 44
0.0000000001
 40
0.0
 40
0.0
 40
0.0
 40
0.0
 40
0.5055960977
 40
1.0
 40
1.0
 40
1.0
 40
1.0
 10
1486.9416986037
 20
1172.3190673703
 30
0.0
 10
1486.8489730421
 20
1172.2499660826
 30
0.0
 10
1486.6738151326
 20
1172.0470384196
 30
0.0
 10
1486.7934368678
 20
1171.7933278302
 30
0.0
 10
1486.8787180957
 20
1171.7190673703
 30
0.0
  0
SPLINE
  5
559
100
AcDbEntity
  8
7_ALL_FEATURES
100
AcDbSpline
 62
7
  6
CONTINUOUS
 70
0
 71
3
 72
9
 73
5
 74
0
 42
0.0000001
 43
0.0000001
 44
0.0000000001
 40
0.0
 40
0.0
 40
0.0
 40
0.0
 40
0.4937401505
 40
1.0
 40
1.0
 40
1.0
 40
1.0
 10
1977.4149415261
 20
1171.7190673703
 30
0.0
 10
1977.500084175
 20
1171.7932071596
 30
0.0
 10
1977.6194955493
 20
1172.046673796
 30
0.0
 10
1977.4447820521
 20
1172.2498949343
 30
0.0
 10
1977.3519610181
 20
1172.3190673703
 30
0.0
  0
SPLINE
  5
55A
100
AcDbEntity
  8
7_ALL_FEATURES
100
AcDbSpline
 62
7
  6
CONTINUOUS
 70
0
 71
3
 72
9
 73
5
 74
0
 42
0.0000001
 43
0.0000001
 44
0.0000000001
 40
0.0
 40
0.0
 40
0.0
 40
0.0
 40
0.5055960977
 40
1.0
 40
1.0
 40
1.0
 40
1.0
 10
1736.9416986037
 20
1172.3190673703
 30
0.0
 10
1736.8489730421
 20
1172.2499660826
 30
0.0
 10
1736.6738151326
 20
1172.0470384196
 30
0.0
 10
1736.7934368678
 20
1171.7933278302
 30
0.0
 10
1736.8787180957
 20
1171.7190673703
 30
0.0
  0
SPLINE
  5
55B
100
AcDbEntity
  8
7_ALL_FEATURES
100
AcDbSpline
 62
7
  6
CONTINUOUS
 70
0
 71
3
 72
9
 73
5
 74
0
 42
0.0000001
 43
0.0000001
 44
0.0000000001
 40
0.0
 40
0.0
 40
0.0
 40
0.0
 40
0.4937401505
 40
1.0
 40
1.0
 40
1.0
 40
1.0
 10
2227.4149415261
 20
1171.7190673703
 30
0.0
 10
2227.500084175
 20
1171.7932071596
 30
0.0
 10
2227.6194955493
 20
1172.046673796
 30
0.0
 10
2227.4447820521
 20
1172.2498949343
 30
0.0
 10
2227.3519610181
 20
1172.3190673703
 30
0.0
  0
SPLINE
  5
55C
100
AcDbEntity
  8
7_ALL_FEATURES
100
AcDbSpline
 62
7
  6
CONTINUOUS
 70
0
 71
3
 72
9
 73
5
 74
0
 42
0.0000001
 43
0.0000001
 44
0.0000000001
 40
0.0
 40
0.0
 40
0.0
 40
0.0
 40
0.5055960977
 40
1.0
 40
1.0
 40
1.0
 40
1.0
 10
1986.9416986037
 20
1172.3190673703
 30
0.0
 10
1986.8489730421
 20
1172.2499660826
 30
0.0
 10
1986.6738151326
 20
1172.0470384196
 30
0.0
 10
1986.7934368678
 20
1171.7933278302
 30
0.0
 10
1986.8787180957
 20
1171.7190673703
 30
0.0
  0
SPLINE
  5
55D
100
AcDbEntity
  8
7_ALL_FEATURES
100
AcDbSpline
 62
7
  6
CONTINUOUS
 70
0
 71
3
 72
9
 73
5
 74
0
 42
0.0000001
 43
0.0000001
 44
0.0000000001
 40
0.0
 40
0.0
 40
0.0
 40
0.0
 40
0.4937401505
 40
1.0
 40
1.0
 40
1.0
 40
1.0
 10
2477.4149415261
 20
1171.7190673703
 30
0.0
 10
2477.500084175
 20
1171.7932071596
 30
0.0
 10
2477.6194955493
 20
1172.046673796
 30
0.0
 10
2477.4447820521
 20
1172.2498949343
 30
0.0
 10
2477.3519610181
 20
1172.3190673703
 30
0.0
  0
SPLINE
  5
55E
100
AcDbEntity
  8
7_ALL_FEATURES
100
AcDbSpline
 62
7
  6
CONTINUOUS
 70
0
 71
3
 72
9
 73
5
 74
0
 42
0.0000001
 43
0.0000001
 44
0.0000000001
 40
0.0
 40
0.0
 40
0.0
 40
0.0
 40
0.5055960977
 40
1.0
 40
1.0
 40
1.0
 40
1.0
 10
2236.9416986037
 20
1172.3190673703
 30
0.0
 10
2236.8489730421
 20
1172.2499660826
 30
0.0
 10
2236.6738151326
 20
1172.0470384196
 30
0.0
 10
2236.7934368678
 20
1171.7933278302
 30
0.0
 10
2236.8787180957
 20
1171.7190673703
 30
0.0
  0
SPLINE
  5
55F
100
AcDbEntity
  8
7_ALL_FEATURES
100
AcDbSpline
 62
7
  6
CONTINUOUS
 70
0
 71
3
 72
9
 73
5
 74
0
 42
0.0000001
 43
0.0000001
 44
0.0000000001
 40
0.0
 40
0.0
 40
0.0
 40
0.0
 40
0.4937401505
 40
1.0
 40
1.0
 40
1.0
 40
1.0
 10
2727.4149415261
 20
1171.7190673703
 30
0.0
 10
2727.500084175
 20
1171.7932071596
 30
0.0
 10
2727.6194955493
 20
1172.046673796
 30
0.0
 10
2727.4447820521
 20
1172.2498949343
 30
0.0
 10
2727.3519610181
 20
1172.3190673703
 30
0.0
  0
SPLINE
  5
560
100
AcDbEntity
  8
7_ALL_FEATURES
100
AcDbSpline
 62
7
  6
CONTINUOUS
 70
0
 71
3
 72
9
 73
5
 74
0
 42
0.0000001
 43
0.0000001
 44
0.0000000001
 40
0.0
 40
0.0
 40
0.0
 40
0.0
 40
0.5055960977
 40
1.0
 40
1.0
 40
1.0
 40
1.0
 10
2486.9416986037
 20
1172.3190673703
 30
0.0
 10
2486.8489730421
 20
1172.2499660826
 30
0.0
 10
2486.6738151326
 20
1172.0470384196
 30
0.0
 10
2486.7934368678
 20
1171.7933278302
 30
0.0
 10
2486.8787180957
 20
1171.7190673703
 30
0.0
  0
SPLINE
  5
561
100
AcDbEntity
  8
7_ALL_FEATURES
100
AcDbSpline
 62
7
  6
CONTINUOUS
 70
0
 71
3
 72
9
 73
5
 74
0
 42
0.0000001
 43
0.0000001
 44
0.0000000001
 40
0.0
 40
0.0
 40
0.0
 40
0.0
 40
0.4937401505
 40
1.0
 40
1.0
 40
1.0
 40
1.0
 10
2977.4149415261
 20
1171.7190673703
 30
0.0
 10
2977.500084175
 20
1171.7932071596
 30
0.0
 10
2977.6194955493
 20
1172.046673796
 30
0.0
 10
2977.4447820521
 20
1172.2498949343
 30
0.0
 10
2977.3519610181
 20
1172.3190673703
 30
0.0
  0
SPLINE
  5
562
100
AcDbEntity
  8
7_ALL_FEATURES
100
AcDbSpline
 62
7
  6
CONTINUOUS
 70
0
 71
3
 72
9
 73
5
 74
0
 42
0.0000001
 43
0.0000001
 44
0.0000000001
 40
0.0
 40
0.0
 40
0.0
 40
0.0
 40
0.5055960977
 40
1.0
 40
1.0
 40
1.0
 40
1.0
 10
2736.9416986037
 20
1172.3190673703
 30
0.0
 10
2736.8489730421
 20
1172.2499660826
 30
0.0
 10
2736.6738151326
 20
1172.0470384196
 30
0.0
 10
2736.7934368678
 20
1171.7933278302
 30
0.0
 10
2736.8787180957
 20
1171.7190673703
 30
0.0
  0
SPLINE
  5
563
100
AcDbEntity
  8
7_ALL_FEATURES
100
AcDbSpline
 62
7
  6
CONTINUOUS
 70
0
 71
3
 72
9
 73
5
 74
0
 42
0.0000001
 43
0.0000001
 44
0.0000000001
 40
0.0
 40
0.0
 40
0.0
 40
0.0
 40
0.5055960977
 40
1.0
 40
1.0
 40
1.0
 40
1.0
 10
2986.9416986037
 20
1172.3190673703
 30
0.0
 10
2986.8489730421
 20
1172.2499660826
 30
0.0
 10
2986.6738151326
 20
1172.0470384196
 30
0.0
 10
2986.7934368678
 20
1171.7933278302
 30
0.0
 10
2986.8787180957
 20
1171.7190673703
 30
0.0
  0
SPLINE
  5
564
100
AcDbEntity
  8
6_ALL_SURFS
100
AcDbSpline
 62
7
  6
CONTINUOUS
 70
0
 71
3
 72
9
 73
5
 74
0
 42
0.0000001
 43
0.0000001
 44
0.0000000001
 40
0.0
 40
0.0
 40
0.0
 40
0.0
 40
0.5055960977
 40
1.0
 40
1.0
 40
1.0
 40
1.0
 10
1736.9416986037
 20
1270.6190673703
 30
0.0
 10
1736.8489730421
 20
1270.6881686581
 30
0.0
 10
1736.6738151326
 20
1270.8910963211
 30
0.0
 10
1736.7934368678
 20
1271.1448069104
 30
0.0
 10
1736.8787180957
 20
1271.2190673703
 30
0.0
  0
SPLINE
  5
565
100
AcDbEntity
  8
6_ALL_SURFS
100
AcDbSpline
 62
7
  6
CONTINUOUS
 70
0
 71
3
 72
9
 73
5
 74
0
 42
0.0000001
 43
0.0000001
 44
0.0000000001
 40
0.0
 40
0.0
 40
0.0
 40
0.0
 40
0.4937401505
 40
1.0
 40
1.0
 40
1.0
 40
1.0
 10
1977.4149415261
 20
1271.2190673703
 30
0.0
 10
1977.500084175
 20
1271.1449275811
 30
0.0
 10
1977.6194955493
 20
1270.8914609447
 30
0.0
 10
1977.4447820521
 20
1270.6882398064
 30
0.0
 10
1977.3519610181
 20
1270.6190673703
 30
0.0
  0
SPLINE
  5
566
100
AcDbEntity
  8
6_ALL_SURFS
100
AcDbSpline
 62
7
  6
CONTINUOUS
 70
0
 71
3
 72
9
 73
5
 74
0
 42
0.0000001
 43
0.0000001
 44
0.0000000001
 40
0.0
 40
0.0
 40
0.0
 40
0.0
 40
0.5055960977
 40
1.0
 40
1.0
 40
1.0
 40
1.0
 10
1486.9416986037
 20
1270.6190673703
 30
0.0
 10
1486.8489730421
 20
1270.6881686581
 30
0.0
 10
1486.6738151326
 20
1270.8910963211
 30
0.0
 10
1486.7934368678
 20
1271.1448069104
 30
0.0
 10
1486.8787180957
 20
1271.2190673703
 30
0.0
  0
SPLINE
  5
567
100
AcDbEntity
  8
6_ALL_SURFS
100
AcDbSpline
 62
7
  6
CONTINUOUS
 70
0
 71
3
 72
9
 73
5
 74
0
 42
0.0000001
 43
0.0000001
 44
0.0000000001
 40
0.0
 40
0.0
 40
0.0
 40
0.0
 40
0.4937401505
 40
1.0
 40
1.0
 40
1.0
 40
1.0
 10
1727.4149415261
 20
1271.2190673703
 30
0.0
 10
1727.500084175
 20
1271.1449275811
 30
0.0
 10
1727.6194955493
 20
1270.8914609447
 30
0.0
 10
1727.4447820521
 20
1270.6882398064
 30
0.0
 10
1727.3519610181
 20
1270.6190673703
 30
0.0
  0
SPLINE
  5
568
100
AcDbEntity
  8
6_ALL_SURFS
100
AcDbSpline
 62
7
  6
CONTINUOUS
 70
0
 71
3
 72
9
 73
5
 74
0
 42
0.0000001
 43
0.0000001
 44
0.0000000001
 40
0.0
 40
0.0
 40
0.0
 40
0.0
 40
0.5055960977
 40
1.0
 40
1.0
 40
1.0
 40
1.0
 10
1236.9416986037
 20
1270.6190673703
 30
0.0
 10
1236.8489730421
 20
1270.6881686581
 30
0.0
 10
1236.6738151326
 20
1270.8910963211
 30
0.0
 10
1236.7934368678
 20
1271.1448069104
 30
0.0
 10
1236.8787180957
 20
1271.2190673703
 30
0.0
  0
SPLINE
  5
569
100
AcDbEntity
  8
6_ALL_SURFS
100
AcDbSpline
 62
7
  6
CONTINUOUS
 70
0
 71
3
 72
9
 73
5
 74
0
 42
0.0000001
 43
0.0000001
 44
0.0000000001
 40
0.0
 40
0.0
 40
0.0
 40
0.0
 40
0.4937401505
 40
1.0
 40
1.0
 40
1.0
 40
1.0
 10
1477.4149415261
 20
1271.2190673703
 30
0.0
 10
1477.500084175
 20
1271.1449275811
 30
0.0
 10
1477.6194955493
 20
1270.8914609447
 30
0.0
 10
1477.4447820521
 20
1270.6882398064
 30
0.0
 10
1477.3519610181
 20
1270.6190673703
 30
0.0
  0
SPLINE
  5
56A
100
AcDbEntity
  8
6_ALL_SURFS
100
AcDbSpline
 62
7
  6
CONTINUOUS
 70
0
 71
3
 72
9
 73
5
 74
0
 42
0.0000001
 43
0.0000001
 44
0.0000000001
 40
0.0
 40
0.0
 40
0.0
 40
0.0
 40
0.5055960977
 40
1.0
 40
1.0
 40
1.0
 40
1.0
 10
986.9416986037
 20
1270.6190673703
 30
0.0
 10
986.8489730421
 20
1270.6881686581
 30
0.0
 10
986.6738151326
 20
1270.8910963211
 30
0.0
 10
986.7934368678
 20
1271.1448069104
 30
0.0
 10
986.8787180957
 20
1271.2190673703
 30
0.0
  0
SPLINE
  5
56B
100
AcDbEntity
  8
7_ALL_FEATURES
100
AcDbSpline
 62
7
  6
CONTINUOUS
 70
0
 71
3
 72
10
 73
6
 74
0
 42
0.0000001
 43
0.0000001
 44
0.0000000001
 40
0.0
 40
0.0
 40
0.0
 40
0.0
 40
0.5048166985
 40
0.7633485655
 40
1.0
 40
1.0
 40
1.0
 40
1.0
 10
477.8817663014
 20
1174.7190673703
 30
0.0
 10
478.0015334071
 20
1174.7796324918
 30
0.0
 10
478.1731937985
 20
1174.8911268743
 30
0.0
 10
478.333675632
 20
1175.1246715268
 30
0.0
 10
478.2908897165
 20
1175.2718614675
 30
0.0
 10
478.2492963935
 20
1175.3190673703
 30
0.0
  0
SPLINE
  5
56C
100
AcDbEntity
  8
7_ALL_FEATURES
100
AcDbSpline
 62
7
  6
CONTINUOUS
 70
0
 71
3
 72
10
 73
6
 74
0
 42
0.0000001
 43
0.0000001
 44
0.0000000001
 40
0.0
 40
0.0
 40
0.0
 40
0.0
 40
0.5048166985
 40
0.7633485655
 40
1.0
 40
1.0
 40
1.0
 40
1.0
 10
727.8817663014
 20
1174.7190673703
 30
0.0
 10
728.0015334071
 20
1174.7796324918
 30
0.0
 10
728.1731937985
 20
1174.8911268743
 30
0.0
 10
728.333675632
 20
1175.1246715268
 30
0.0
 10
728.2908897165
 20
1175.2718614675
 30
0.0
 10
728.2492963935
 20
1175.3190673703
 30
0.0
  0
SPLINE
  5
56D
100
AcDbEntity
  8
6_ALL_SURFS
100
AcDbSpline
 62
7
  6
CONTINUOUS
 70
0
 71
3
 72
9
 73
5
 74
0
 42
0.0000001
 43
0.0000001
 44
0.0000000001
 40
0.0
 40
0.0
 40
0.0
 40
0.0
 40
0.4937401505
 40
1.0
 40
1.0
 40
1.0
 40
1.0
 10
1227.4149415261
 20
1271.2190673703
 30
0.0
 10
1227.500084175
 20
1271.1449275811
 30
0.0
 10
1227.6194955493
 20
1270.8914609447
 30
0.0
 10
1227.4447820521
 20
1270.6882398064
 30
0.0
 10
1227.3519610181
 20
1270.6190673703
 30
0.0
  0
SPLINE
  5
56E
100
AcDbEntity
  8
7_ALL_FEATURES
100
AcDbSpline
 62
7
  6
CONTINUOUS
 70
0
 71
3
 72
11
 73
7
 74
0
 42
0.0000001
 43
0.0000001
 44
0.0000000001
 40
0.0
 40
0.0
 40
0.0
 40
0.0
 40
0.2332111251
 40
0.4922042815
 40
0.7492259568
 40
1.0
 40
1.0
 40
1.0
 40
1.0
 10
486.0443632283
 20
1175.3190673703
 30
0.0
 10
486.003305623
 20
1175.2724694746
 30
0.0
 10
485.9607306493
 20
1175.1266043293
 30
0.0
 10
486.0797464144
 20
1174.949265596
 30
0.0
 10
486.2346972465
 20
1174.8181235226
 30
0.0
 10
486.352297432
 20
1174.7492044618
 30
0.0
 10
486.4118933204
 20
1174.7190673703
 30
0.0
  0
SPLINE
  5
56F
100
AcDbEntity
  8
6_ALL_SURFS
100
AcDbSpline
 62
7
  6
CONTINUOUS
 70
0
 71
3
 72
9
 73
5
 74
0
 42
0.0000001
 43
0.0000001
 44
0.0000000001
 40
0.0
 40
0.0
 40
0.0
 40
0.0
 40
0.5055960977
 40
1.0
 40
1.0
 40
1.0
 40
1.0
 10
736.9416986037
 20
1270.6190673703
 30
0.0
 10
736.8489730421
 20
1270.6881686581
 30
0.0
 10
736.6738151326
 20
1270.8910963211
 30
0.0
 10
736.7934368678
 20
1271.1448069104
 30
0.0
 10
736.8787180957
 20
1271.2190673703
 30
0.0
  0
SPLINE
  5
570
100
AcDbEntity
  8
6_ALL_SURFS
100
AcDbSpline
 62
7
  6
CONTINUOUS
 70
0
 71
3
 72
9
 73
5
 74
0
 42
0.0000001
 43
0.0000001
 44
0.0000000001
 40
0.0
 40
0.0
 40
0.0
 40
0.0
 40
0.4937401505
 40
1.0
 40
1.0
 40
1.0
 40
1.0
 10
977.4149415261
 20
1271.2190673703
 30
0.0
 10
977.500084175
 20
1271.1449275811
 30
0.0
 10
977.6194955493
 20
1270.8914609447
 30
0.0
 10
977.4447820521
 20
1270.6882398064
 30
0.0
 10
977.3519610181
 20
1270.6190673703
 30
0.0
  0
SPLINE
  5
571
100
AcDbEntity
  8
6_ALL_SURFS
100
AcDbSpline
 62
7
  6
CONTINUOUS
 70
0
 71
3
 72
9
 73
5
 74
0
 42
0.0000001
 43
0.0000001
 44
0.0000000001
 40
0.0
 40
0.0
 40
0.0
 40
0.0
 40
0.5055960977
 40
1.0
 40
1.0
 40
1.0
 40
1.0
 10
486.9416986037
 20
1270.6190673703
 30
0.0
 10
486.8489730421
 20
1270.6881686581
 30
0.0
 10
486.6738151326
 20
1270.8910963211
 30
0.0
 10
486.7934368678
 20
1271.1448069104
 30
0.0
 10
486.8787180957
 20
1271.2190673703
 30
0.0
  0
SPLINE
  5
572
100
AcDbEntity
  8
7_ALL_FEATURES
100
AcDbSpline
 62
7
  6
CONTINUOUS
 70
0
 71
3
 72
10
 73
6
 74
0
 42
0.0000001
 43
0.0000001
 44
0.0000000001
 40
0.0
 40
0.0
 40
0.0
 40
0.0
 40
0.5048166985
 40
0.7633485655
 40
1.0
 40
1.0
 40
1.0
 40
1.0
 10
977.8817663014
 20
1174.7190673703
 30
0.0
 10
978.0015334071
 20
1174.7796324918
 30
0.0
 10
978.1731937985
 20
1174.8911268743
 30
0.0
 10
978.333675632
 20
1175.1246715268
 30
0.0
 10
978.2908897165
 20
1175.2718614675
 30
0.0
 10
978.2492963935
 20
1175.3190673703
 30
0.0
  0
SPLINE
  5
573
100
AcDbEntity
  8
6_ALL_SURFS
100
AcDbSpline
 62
7
  6
CONTINUOUS
 70
0
 71
3
 72
9
 73
5
 74
0
 42
0.0000001
 43
0.0000001
 44
0.0000000001
 40
0.0
 40
0.0
 40
0.0
 40
0.0
 40
0.4937401505
 40
1.0
 40
1.0
 40
1.0
 40
1.0
 10
727.4149415261
 20
1271.2190673703
 30
0.0
 10
727.500084175
 20
1271.1449275811
 30
0.0
 10
727.6194955493
 20
1270.8914609447
 30
0.0
 10
727.4447820521
 20
1270.6882398064
 30
0.0
 10
727.3519610181
 20
1270.6190673703
 30
0.0
  0
SPLINE
  5
574
100
AcDbEntity
  8
7_ALL_FEATURES
100
AcDbSpline
 62
7
  6
CONTINUOUS
 70
0
 71
3
 72
11
 73
7
 74
0
 42
0.0000001
 43
0.0000001
 44
0.0000000001
 40
0.0
 40
0.0
 40
0.0
 40
0.0
 40
0.2332111251
 40
0.4922042815
 40
0.7492259568
 40
1.0
 40
1.0
 40
1.0
 40
1.0
 10
736.0443632283
 20
1175.3190673703
 30
0.0
 10
736.003305623
 20
1175.2724694746
 30
0.0
 10
735.9607306493
 20
1175.1266043293
 30
0.0
 10
736.0797464144
 20
1174.949265596
 30
0.0
 10
736.2346972465
 20
1174.8181235226
 30
0.0
 10
736.352297432
 20
1174.7492044618
 30
0.0
 10
736.4118933204
 20
1174.7190673703
 30
0.0
  0
SPLINE
  5
575
100
AcDbEntity
  8
7_ALL_FEATURES
100
AcDbSpline
 62
7
  6
CONTINUOUS
 70
0
 71
3
 72
10
 73
6
 74
0
 42
0.0000001
 43
0.0000001
 44
0.0000000001
 40
0.0
 40
0.0
 40
0.0
 40
0.0
 40
0.5048166985
 40
0.7633485655
 40
1.0
 40
1.0
 40
1.0
 40
1.0
 10
1227.8817663014
 20
1174.7190673703
 30
0.0
 10
1228.0015334071
 20
1174.7796324918
 30
0.0
 10
1228.1731937985
 20
1174.8911268743
 30
0.0
 10
1228.333675632
 20
1175.1246715268
 30
0.0
 10
1228.2908897165
 20
1175.2718614675
 30
0.0
 10
1228.2492963935
 20
1175.3190673703
 30
0.0
  0
SPLINE
  5
576
100
AcDbEntity
  8
6_ALL_SURFS
100
AcDbSpline
 62
7
  6
CONTINUOUS
 70
0
 71
3
 72
9
 73
5
 74
0
 42
0.0000001
 43
0.0000001
 44
0.0000000001
 40
0.0
 40
0.0
 40
0.0
 40
0.0
 40
0.4937401505
 40
1.0
 40
1.0
 40
1.0
 40
1.0
 10
477.4149415261
 20
1271.2190673703
 30
0.0
 10
477.500084175
 20
1271.1449275811
 30
0.0
 10
477.6194955493
 20
1270.8914609447
 30
0.0
 10
477.4447820521
 20
1270.6882398064
 30
0.0
 10
477.3519610181
 20
1270.6190673703
 30
0.0
  0
SPLINE
  5
577
100
AcDbEntity
  8
7_ALL_FEATURES
100
AcDbSpline
 62
7
  6
CONTINUOUS
 70
0
 71
3
 72
11
 73
7
 74
0
 42
0.0000001
 43
0.0000001
 44
0.0000000001
 40
0.0
 40
0.0
 40
0.0
 40
0.0
 40
0.2332111251
 40
0.4922042815
 40
0.7492259568
 40
1.0
 40
1.0
 40
1.0
 40
1.0
 10
986.0443632283
 20
1175.3190673703
 30
0.0
 10
986.003305623
 20
1175.2724694746
 30
0.0
 10
985.9607306493
 20
1175.1266043293
 30
0.0
 10
986.0797464144
 20
1174.949265596
 30
0.0
 10
986.2346972465
 20
1174.8181235226
 30
0.0
 10
986.352297432
 20
1174.7492044618
 30
0.0
 10
986.4118933204
 20
1174.7190673703
 30
0.0
  0
SPLINE
  5
578
100
AcDbEntity
  8
7_ALL_FEATURES
100
AcDbSpline
 62
7
  6
CONTINUOUS
 70
0
 71
3
 72
10
 73
6
 74
0
 42
0.0000001
 43
0.0000001
 44
0.0000000001
 40
0.0
 40
0.0
 40
0.0
 40
0.0
 40
0.5048166985
 40
0.7633485655
 40
1.0
 40
1.0
 40
1.0
 40
1.0
 10
1477.8817663014
 20
1174.7190673703
 30
0.0
 10
1478.0015334071
 20
1174.7796324918
 30
0.0
 10
1478.1731937985
 20
1174.8911268743
 30
0.0
 10
1478.333675632
 20
1175.1246715268
 30
0.0
 10
1478.2908897165
 20
1175.2718614675
 30
0.0
 10
1478.2492963935
 20
1175.3190673703
 30
0.0
  0
SPLINE
  5
579
100
AcDbEntity
  8
7_ALL_FEATURES
100
AcDbSpline
 62
7
  6
CONTINUOUS
 70
0
 71
3
 72
11
 73
7
 74
0
 42
0.0000001
 43
0.0000001
 44
0.0000000001
 40
0.0
 40
0.0
 40
0.0
 40
0.0
 40
0.2332111251
 40
0.4922042815
 40
0.7492259568
 40
1.0
 40
1.0
 40
1.0
 40
1.0
 10
1236.0443632283
 20
1175.3190673703
 30
0.0
 10
1236.003305623
 20
1175.2724694746
 30
0.0
 10
1235.9607306493
 20
1175.1266043293
 30
0.0
 10
1236.0797464144
 20
1174.949265596
 30
0.0
 10
1236.2346972465
 20
1174.8181235226
 30
0.0
 10
1236.352297432
 20
1174.7492044618
 30
0.0
 10
1236.4118933204
 20
1174.7190673703
 30
0.0
  0
SPLINE
  5
57A
100
AcDbEntity
  8
7_ALL_FEATURES
100
AcDbSpline
 62
7
  6
CONTINUOUS
 70
0
 71
3
 72
10
 73
6
 74
0
 42
0.0000001
 43
0.0000001
 44
0.0000000001
 40
0.0
 40
0.0
 40
0.0
 40
0.0
 40
0.5048166985
 40
0.7633485655
 40
1.0
 40
1.0
 40
1.0
 40
1.0
 10
1727.8817663014
 20
1174.7190673703
 30
0.0
 10
1728.0015334071
 20
1174.7796324918
 30
0.0
 10
1728.1731937985
 20
1174.8911268743
 30
0.0
 10
1728.333675632
 20
1175.1246715268
 30
0.0
 10
1728.2908897165
 20
1175.2718614675
 30
0.0
 10
1728.2492963935
 20
1175.3190673703
 30
0.0
  0
SPLINE
  5
57B
100
AcDbEntity
  8
7_ALL_FEATURES
100
AcDbSpline
 62
7
  6
CONTINUOUS
 70
0
 71
3
 72
11
 73
7
 74
0
 42
0.0000001
 43
0.0000001
 44
0.0000000001
 40
0.0
 40
0.0
 40
0.0
 40
0.0
 40
0.2332111251
 40
0.4922042815
 40
0.7492259568
 40
1.0
 40
1.0
 40
1.0
 40
1.0
 10
1486.0443632283
 20
1175.3190673703
 30
0.0
 10
1486.003305623
 20
1175.2724694746
 30
0.0
 10
1485.9607306493
 20
1175.1266043293
 30
0.0
 10
1486.0797464144
 20
1174.949265596
 30
0.0
 10
1486.2346972465
 20
1174.8181235226
 30
0.0
 10
1486.352297432
 20
1174.7492044618
 30
0.0
 10
1486.4118933204
 20
1174.7190673703
 30
0.0
  0
SPLINE
  5
57C
100
AcDbEntity
  8
7_ALL_FEATURES
100
AcDbSpline
 62
7
  6
CONTINUOUS
 70
0
 71
3
 72
10
 73
6
 74
0
 42
0.0000001
 43
0.0000001
 44
0.0000000001
 40
0.0
 40
0.0
 40
0.0
 40
0.0
 40
0.5048166985
 40
0.7633485655
 40
1.0
 40
1.0
 40
1.0
 40
1.0
 10
1977.8817663014
 20
1174.7190673703
 30
0.0
 10
1978.0015334071
 20
1174.7796324918
 30
0.0
 10
1978.1731937985
 20
1174.8911268743
 30
0.0
 10
1978.333675632
 20
1175.1246715268
 30
0.0
 10
1978.2908897165
 20
1175.2718614675
 30
0.0
 10
1978.2492963935
 20
1175.3190673703
 30
0.0
  0
SPLINE
  5
57D
100
AcDbEntity
  8
7_ALL_FEATURES
100
AcDbSpline
 62
7
  6
CONTINUOUS
 70
0
 71
3
 72
11
 73
7
 74
0
 42
0.0000001
 43
0.0000001
 44
0.0000000001
 40
0.0
 40
0.0
 40
0.0
 40
0.0
 40
0.2332111251
 40
0.4922042815
 40
0.7492259568
 40
1.0
 40
1.0
 40
1.0
 40
1.0
 10
1736.0443632283
 20
1175.3190673703
 30
0.0
 10
1736.003305623
 20
1175.2724694746
 30
0.0
 10
1735.9607306493
 20
1175.1266043293
 30
0.0
 10
1736.0797464144
 20
1174.949265596
 30
0.0
 10
1736.2346972465
 20
1174.8181235226
 30
0.0
 10
1736.352297432
 20
1174.7492044618
 30
0.0
 10
1736.4118933204
 20
1174.7190673703
 30
0.0
  0
SPLINE
  5
57E
100
AcDbEntity
  8
7_ALL_FEATURES
100
AcDbSpline
 62
7
  6
CONTINUOUS
 70
0
 71
3
 72
10
 73
6
 74
0
 42
0.0000001
 43
0.0000001
 44
0.0000000001
 40
0.0
 40
0.0
 40
0.0
 40
0.0
 40
0.5048166985
 40
0.7633485655
 40
1.0
 40
1.0
 40
1.0
 40
1.0
 10
2227.8817663014
 20
1174.7190673703
 30
0.0
 10
2228.0015334071
 20
1174.7796324918
 30
0.0
 10
2228.1731937985
 20
1174.8911268743
 30
0.0
 10
2228.333675632
 20
1175.1246715268
 30
0.0
 10
2228.2908897165
 20
1175.2718614675
 30
0.0
 10
2228.2492963935
 20
1175.3190673703
 30
0.0
  0
SPLINE
  5
57F
100
AcDbEntity
  8
7_ALL_FEATURES
100
AcDbSpline
 62
7
  6
CONTINUOUS
 70
0
 71
3
 72
11
 73
7
 74
0
 42
0.0000001
 43
0.0000001
 44
0.0000000001
 40
0.0
 40
0.0
 40
0.0
 40
0.0
 40
0.2332111251
 40
0.4922042815
 40
0.7492259568
 40
1.0
 40
1.0
 40
1.0
 40
1.0
 10
1986.0443632283
 20
1175.3190673703
 30
0.0
 10
1986.003305623
 20
1175.2724694746
 30
0.0
 10
1985.9607306493
 20
1175.1266043293
 30
0.0
 10
1986.0797464144
 20
1174.949265596
 30
0.0
 10
1986.2346972465
 20
1174.8181235226
 30
0.0
 10
1986.352297432
 20
1174.7492044618
 30
0.0
 10
1986.4118933204
 20
1174.7190673703
 30
0.0
  0
SPLINE
  5
580
100
AcDbEntity
  8
7_ALL_FEATURES
100
AcDbSpline
 62
7
  6
CONTINUOUS
 70
0
 71
3
 72
10
 73
6
 74
0
 42
0.0000001
 43
0.0000001
 44
0.0000000001
 40
0.0
 40
0.0
 40
0.0
 40
0.0
 40
0.5048166985
 40
0.7633485655
 40
1.0
 40
1.0
 40
1.0
 40
1.0
 10
2477.8817663014
 20
1174.7190673703
 30
0.0
 10
2478.0015334071
 20
1174.7796324918
 30
0.0
 10
2478.1731937985
 20
1174.8911268743
 30
0.0
 10
2478.333675632
 20
1175.1246715268
 30
0.0
 10
2478.2908897165
 20
1175.2718614675
 30
0.0
 10
2478.2492963935
 20
1175.3190673703
 30
0.0
  0
SPLINE
  5
581
100
AcDbEntity
  8
7_ALL_FEATURES
100
AcDbSpline
 62
7
  6
CONTINUOUS
 70
0
 71
3
 72
11
 73
7
 74
0
 42
0.0000001
 43
0.0000001
 44
0.0000000001
 40
0.0
 40
0.0
 40
0.0
 40
0.0
 40
0.2332111251
 40
0.4922042815
 40
0.7492259568
 40
1.0
 40
1.0
 40
1.0
 40
1.0
 10
2236.0443632283
 20
1175.3190673703
 30
0.0
 10
2236.003305623
 20
1175.2724694746
 30
0.0
 10
2235.9607306493
 20
1175.1266043293
 30
0.0
 10
2236.0797464144
 20
1174.949265596
 30
0.0
 10
2236.2346972465
 20
1174.8181235226
 30
0.0
 10
2236.352297432
 20
1174.7492044618
 30
0.0
 10
2236.4118933204
 20
1174.7190673703
 30
0.0
  0
SPLINE
  5
582
100
AcDbEntity
  8
7_ALL_FEATURES
100
AcDbSpline
 62
7
  6
CONTINUOUS
 70
0
 71
3
 72
10
 73
6
 74
0
 42
0.0000001
 43
0.0000001
 44
0.0000000001
 40
0.0
 40
0.0
 40
0.0
 40
0.0
 40
0.5048166985
 40
0.7633485655
 40
1.0
 40
1.0
 40
1.0
 40
1.0
 10
2727.8817663014
 20
1174.7190673703
 30
0.0
 10
2728.0015334071
 20
1174.7796324918
 30
0.0
 10
2728.1731937985
 20
1174.8911268743
 30
0.0
 10
2728.333675632
 20
1175.1246715268
 30
0.0
 10
2728.2908897165
 20
1175.2718614675
 30
0.0
 10
2728.2492963935
 20
1175.3190673703
 30
0.0
  0
SPLINE
  5
583
100
AcDbEntity
  8
7_ALL_FEATURES
100
AcDbSpline
 62
7
  6
CONTINUOUS
 70
0
 71
3
 72
11
 73
7
 74
0
 42
0.0000001
 43
0.0000001
 44
0.0000000001
 40
0.0
 40
0.0
 40
0.0
 40
0.0
 40
0.2332111251
 40
0.4922042815
 40
0.7492259568
 40
1.0
 40
1.0
 40
1.0
 40
1.0
 10
2486.0443632283
 20
1175.3190673703
 30
0.0
 10
2486.003305623
 20
1175.2724694746
 30
0.0
 10
2485.9607306493
 20
1175.1266043293
 30
0.0
 10
2486.0797464144
 20
1174.949265596
 30
0.0
 10
2486.2346972465
 20
1174.8181235226
 30
0.0
 10
2486.352297432
 20
1174.7492044618
 30
0.0
 10
2486.4118933204
 20
1174.7190673703
 30
0.0
  0
SPLINE
  5
584
100
AcDbEntity
  8
7_ALL_FEATURES
100
AcDbSpline
 62
7
  6
CONTINUOUS
 70
0
 71
3
 72
10
 73
6
 74
0
 42
0.0000001
 43
0.0000001
 44
0.0000000001
 40
0.0
 40
0.0
 40
0.0
 40
0.0
 40
0.5048166985
 40
0.7633485655
 40
1.0
 40
1.0
 40
1.0
 40
1.0
 10
2977.8817663014
 20
1174.7190673703
 30
0.0
 10
2978.0015334071
 20
1174.7796324918
 30
0.0
 10
2978.1731937985
 20
1174.8911268743
 30
0.0
 10
2978.333675632
 20
1175.1246715268
 30
0.0
 10
2978.2908897165
 20
1175.2718614675
 30
0.0
 10
2978.2492963935
 20
1175.3190673703
 30
0.0
  0
SPLINE
  5
585
100
AcDbEntity
  8
7_ALL_FEATURES
100
AcDbSpline
 62
7
  6
CONTINUOUS
 70
0
 71
3
 72
11
 73
7
 74
0
 42
0.0000001
 43
0.0000001
 44
0.0000000001
 40
0.0
 40
0.0
 40
0.0
 40
0.0
 40
0.2332111251
 40
0.4922042815
 40
0.7492259568
 40
1.0
 40
1.0
 40
1.0
 40
1.0
 10
2736.0443632283
 20
1175.3190673703
 30
0.0
 10
2736.003305623
 20
1175.2724694746
 30
0.0
 10
2735.9607306493
 20
1175.1266043293
 30
0.0
 10
2736.0797464144
 20
1174.949265596
 30
0.0
 10
2736.2346972465
 20
1174.8181235226
 30
0.0
 10
2736.352297432
 20
1174.7492044618
 30
0.0
 10
2736.4118933204
 20
1174.7190673703
 30
0.0
  0
SPLINE
  5
586
100
AcDbEntity
  8
7_ALL_FEATURES
100
AcDbSpline
 62
7
  6
CONTINUOUS
 70
0
 71
3
 72
11
 73
7
 74
0
 42
0.0000001
 43
0.0000001
 44
0.0000000001
 40
0.0
 40
0.0
 40
0.0
 40
0.0
 40
0.2332111251
 40
0.4922042815
 40
0.7492259568
 40
1.0
 40
1.0
 40
1.0
 40
1.0
 10
2986.0443632283
 20
1175.3190673703
 30
0.0
 10
2986.003305623
 20
1175.2724694746
 30
0.0
 10
2985.9607306493
 20
1175.1266043293
 30
0.0
 10
2986.0797464144
 20
1174.949265596
 30
0.0
 10
2986.2346972465
 20
1174.8181235226
 30
0.0
 10
2986.352297432
 20
1174.7492044618
 30
0.0
 10
2986.4118933204
 20
1174.7190673703
 30
0.0
  0
SPLINE
  5
587
100
AcDbEntity
  8
6_ALL_SURFS
100
AcDbSpline
 62
7
  6
CONTINUOUS
 70
0
 71
3
 72
11
 73
7
 74
0
 42
0.0000001
 43
0.0000001
 44
0.0000000001
 40
0.0
 40
0.0
 40
0.0
 40
0.0
 40
0.2332111251
 40
0.4922042815
 40
0.7492259568
 40
1.0
 40
1.0
 40
1.0
 40
1.0
 10
2986.0443632283
 20
1267.6190673703
 30
0.0
 10
2986.003305623
 20
1267.6656652661
 30
0.0
 10
2985.9607306493
 20
1267.8115304114
 30
0.0
 10
2986.0797464144
 20
1267.9888691447
 30
0.0
 10
2986.2346972465
 20
1268.1200112181
 30
0.0
 10
2986.352297432
 20
1268.1889302789
 30
0.0
 10
2986.4118933204
 20
1268.2190673703
 30
0.0
  0
SPLINE
  5
588
100
AcDbEntity
  8
6_ALL_SURFS
100
AcDbSpline
 62
7
  6
CONTINUOUS
 70
0
 71
3
 72
11
 73
7
 74
0
 42
0.0000001
 43
0.0000001
 44
0.0000000001
 40
0.0
 40
0.0
 40
0.0
 40
0.0
 40
0.2332111251
 40
0.4922042815
 40
0.7492259568
 40
1.0
 40
1.0
 40
1.0
 40
1.0
 10
2736.0443632283
 20
1267.6190673703
 30
0.0
 10
2736.003305623
 20
1267.6656652661
 30
0.0
 10
2735.9607306493
 20
1267.8115304114
 30
0.0
 10
2736.0797464144
 20
1267.9888691447
 30
0.0
 10
2736.2346972465
 20
1268.1200112181
 30
0.0
 10
2736.352297432
 20
1268.1889302789
 30
0.0
 10
2736.4118933204
 20
1268.2190673703
 30
0.0
  0
SPLINE
  5
589
100
AcDbEntity
  8
6_ALL_SURFS
100
AcDbSpline
 62
7
  6
CONTINUOUS
 70
0
 71
3
 72
10
 73
6
 74
0
 42
0.0000001
 43
0.0000001
 44
0.0000000001
 40
0.0
 40
0.0
 40
0.0
 40
0.0
 40
0.5048166985
 40
0.7633485655
 40
1.0
 40
1.0
 40
1.0
 40
1.0
 10
2977.8817663014
 20
1268.2190673703
 30
0.0
 10
2978.0015334071
 20
1268.1585022489
 30
0.0
 10
2978.1731937985
 20
1268.0470078663
 30
0.0
 10
2978.333675632
 20
1267.8134632138
 30
0.0
 10
2978.2908897165
 20
1267.6662732732
 30
0.0
 10
2978.2492963935
 20
1267.6190673703
 30
0.0
  0
SPLINE
  5
58A
100
AcDbEntity
  8
6_ALL_SURFS
100
AcDbSpline
 62
7
  6
CONTINUOUS
 70
0
 71
3
 72
11
 73
7
 74
0
 42
0.0000001
 43
0.0000001
 44
0.0000000001
 40
0.0
 40
0.0
 40
0.0
 40
0.0
 40
0.2332111251
 40
0.4922042815
 40
0.7492259568
 40
1.0
 40
1.0
 40
1.0
 40
1.0
 10
2486.0443632283
 20
1267.6190673703
 30
0.0
 10
2486.003305623
 20
1267.6656652661
 30
0.0
 10
2485.9607306493
 20
1267.8115304114
 30
0.0
 10
2486.0797464144
 20
1267.9888691447
 30
0.0
 10
2486.2346972465
 20
1268.1200112181
 30
0.0
 10
2486.352297432
 20
1268.1889302789
 30
0.0
 10
2486.4118933204
 20
1268.2190673703
 30
0.0
  0
SPLINE
  5
58B
100
AcDbEntity
  8
6_ALL_SURFS
100
AcDbSpline
 62
7
  6
CONTINUOUS
 70
0
 71
3
 72
10
 73
6
 74
0
 42
0.0000001
 43
0.0000001
 44
0.0000000001
 40
0.0
 40
0.0
 40
0.0
 40
0.0
 40
0.5048166985
 40
0.7633485655
 40
1.0
 40
1.0
 40
1.0
 40
1.0
 10
2727.8817663014
 20
1268.2190673703
 30
0.0
 10
2728.0015334071
 20
1268.1585022489
 30
0.0
 10
2728.1731937985
 20
1268.0470078663
 30
0.0
 10
2728.333675632
 20
1267.8134632138
 30
0.0
 10
2728.2908897165
 20
1267.6662732732
 30
0.0
 10
2728.2492963935
 20
1267.6190673703
 30
0.0
  0
SPLINE
  5
58C
100
AcDbEntity
  8
6_ALL_SURFS
100
AcDbSpline
 62
7
  6
CONTINUOUS
 70
0
 71
3
 72
11
 73
7
 74
0
 42
0.0000001
 43
0.0000001
 44
0.0000000001
 40
0.0
 40
0.0
 40
0.0
 40
0.0
 40
0.2332111251
 40
0.4922042815
 40
0.7492259568
 40
1.0
 40
1.0
 40
1.0
 40
1.0
 10
2236.0443632283
 20
1267.6190673703
 30
0.0
 10
2236.003305623
 20
1267.6656652661
 30
0.0
 10
2235.9607306493
 20
1267.8115304114
 30
0.0
 10
2236.0797464144
 20
1267.9888691447
 30
0.0
 10
2236.2346972465
 20
1268.1200112181
 30
0.0
 10
2236.352297432
 20
1268.1889302789
 30
0.0
 10
2236.4118933204
 20
1268.2190673703
 30
0.0
  0
SPLINE
  5
58D
100
AcDbEntity
  8
6_ALL_SURFS
100
AcDbSpline
 62
7
  6
CONTINUOUS
 70
0
 71
3
 72
10
 73
6
 74
0
 42
0.0000001
 43
0.0000001
 44
0.0000000001
 40
0.0
 40
0.0
 40
0.0
 40
0.0
 40
0.5048166985
 40
0.7633485655
 40
1.0
 40
1.0
 40
1.0
 40
1.0
 10
2477.8817663014
 20
1268.2190673703
 30
0.0
 10
2478.0015334071
 20
1268.1585022489
 30
0.0
 10
2478.1731937985
 20
1268.0470078663
 30
0.0
 10
2478.333675632
 20
1267.8134632138
 30
0.0
 10
2478.2908897165
 20
1267.6662732732
 30
0.0
 10
2478.2492963935
 20
1267.6190673703
 30
0.0
  0
SPLINE
  5
58E
100
AcDbEntity
  8
6_ALL_SURFS
100
AcDbSpline
 62
7
  6
CONTINUOUS
 70
0
 71
3
 72
11
 73
7
 74
0
 42
0.0000001
 43
0.0000001
 44
0.0000000001
 40
0.0
 40
0.0
 40
0.0
 40
0.0
 40
0.2332111251
 40
0.4922042815
 40
0.7492259568
 40
1.0
 40
1.0
 40
1.0
 40
1.0
 10
1986.0443632283
 20
1267.6190673703
 30
0.0
 10
1986.003305623
 20
1267.6656652661
 30
0.0
 10
1985.9607306493
 20
1267.8115304114
 30
0.0
 10
1986.0797464144
 20
1267.9888691447
 30
0.0
 10
1986.2346972465
 20
1268.1200112181
 30
0.0
 10
1986.352297432
 20
1268.1889302789
 30
0.0
 10
1986.4118933204
 20
1268.2190673703
 30
0.0
  0
SPLINE
  5
58F
100
AcDbEntity
  8
6_ALL_SURFS
100
AcDbSpline
 62
7
  6
CONTINUOUS
 70
0
 71
3
 72
10
 73
6
 74
0
 42
0.0000001
 43
0.0000001
 44
0.0000000001
 40
0.0
 40
0.0
 40
0.0
 40
0.0
 40
0.5048166985
 40
0.7633485655
 40
1.0
 40
1.0
 40
1.0
 40
1.0
 10
2227.8817663014
 20
1268.2190673703
 30
0.0
 10
2228.0015334071
 20
1268.1585022489
 30
0.0
 10
2228.1731937985
 20
1268.0470078663
 30
0.0
 10
2228.333675632
 20
1267.8134632138
 30
0.0
 10
2228.2908897165
 20
1267.6662732732
 30
0.0
 10
2228.2492963935
 20
1267.6190673703
 30
0.0
  0
SPLINE
  5
590
100
AcDbEntity
  8
6_ALL_SURFS
100
AcDbSpline
 62
7
  6
CONTINUOUS
 70
0
 71
3
 72
11
 73
7
 74
0
 42
0.0000001
 43
0.0000001
 44
0.0000000001
 40
0.0
 40
0.0
 40
0.0
 40
0.0
 40
0.2332111251
 40
0.4922042815
 40
0.7492259568
 40
1.0
 40
1.0
 40
1.0
 40
1.0
 10
1736.0443632283
 20
1267.6190673703
 30
0.0
 10
1736.003305623
 20
1267.6656652661
 30
0.0
 10
1735.9607306493
 20
1267.8115304114
 30
0.0
 10
1736.0797464144
 20
1267.9888691447
 30
0.0
 10
1736.2346972465
 20
1268.1200112181
 30
0.0
 10
1736.352297432
 20
1268.1889302789
 30
0.0
 10
1736.4118933204
 20
1268.2190673703
 30
0.0
  0
SPLINE
  5
591
100
AcDbEntity
  8
6_ALL_SURFS
100
AcDbSpline
 62
7
  6
CONTINUOUS
 70
0
 71
3
 72
10
 73
6
 74
0
 42
0.0000001
 43
0.0000001
 44
0.0000000001
 40
0.0
 40
0.0
 40
0.0
 40
0.0
 40
0.5048166985
 40
0.7633485655
 40
1.0
 40
1.0
 40
1.0
 40
1.0
 10
1977.8817663014
 20
1268.2190673703
 30
0.0
 10
1978.0015334071
 20
1268.1585022489
 30
0.0
 10
1978.1731937985
 20
1268.0470078663
 30
0.0
 10
1978.333675632
 20
1267.8134632138
 30
0.0
 10
1978.2908897165
 20
1267.6662732732
 30
0.0
 10
1978.2492963935
 20
1267.6190673703
 30
0.0
  0
SPLINE
  5
592
100
AcDbEntity
  8
6_ALL_SURFS
100
AcDbSpline
 62
7
  6
CONTINUOUS
 70
0
 71
3
 72
11
 73
7
 74
0
 42
0.0000001
 43
0.0000001
 44
0.0000000001
 40
0.0
 40
0.0
 40
0.0
 40
0.0
 40
0.2332111251
 40
0.4922042815
 40
0.7492259568
 40
1.0
 40
1.0
 40
1.0
 40
1.0
 10
1486.0443632283
 20
1267.6190673703
 30
0.0
 10
1486.003305623
 20
1267.6656652661
 30
0.0
 10
1485.9607306493
 20
1267.8115304114
 30
0.0
 10
1486.0797464144
 20
1267.9888691447
 30
0.0
 10
1486.2346972465
 20
1268.1200112181
 30
0.0
 10
1486.352297432
 20
1268.1889302789
 30
0.0
 10
1486.4118933204
 20
1268.2190673703
 30
0.0
  0
SPLINE
  5
593
100
AcDbEntity
  8
6_ALL_SURFS
100
AcDbSpline
 62
7
  6
CONTINUOUS
 70
0
 71
3
 72
10
 73
6
 74
0
 42
0.0000001
 43
0.0000001
 44
0.0000000001
 40
0.0
 40
0.0
 40
0.0
 40
0.0
 40
0.5048166985
 40
0.7633485655
 40
1.0
 40
1.0
 40
1.0
 40
1.0
 10
1727.8817663014
 20
1268.2190673703
 30
0.0
 10
1728.0015334071
 20
1268.1585022489
 30
0.0
 10
1728.1731937985
 20
1268.0470078663
 30
0.0
 10
1728.333675632
 20
1267.8134632138
 30
0.0
 10
1728.2908897165
 20
1267.6662732732
 30
0.0
 10
1728.2492963935
 20
1267.6190673703
 30
0.0
  0
SPLINE
  5
594
100
AcDbEntity
  8
6_ALL_SURFS
100
AcDbSpline
 62
7
  6
CONTINUOUS
 70
0
 71
3
 72
11
 73
7
 74
0
 42
0.0000001
 43
0.0000001
 44
0.0000000001
 40
0.0
 40
0.0
 40
0.0
 40
0.0
 40
0.2332111251
 40
0.4922042815
 40
0.7492259568
 40
1.0
 40
1.0
 40
1.0
 40
1.0
 10
1236.0443632283
 20
1267.6190673703
 30
0.0
 10
1236.003305623
 20
1267.6656652661
 30
0.0
 10
1235.9607306493
 20
1267.8115304114
 30
0.0
 10
1236.0797464144
 20
1267.9888691447
 30
0.0
 10
1236.2346972465
 20
1268.1200112181
 30
0.0
 10
1236.352297432
 20
1268.1889302789
 30
0.0
 10
1236.4118933204
 20
1268.2190673703
 30
0.0
  0
SPLINE
  5
595
100
AcDbEntity
  8
6_ALL_SURFS
100
AcDbSpline
 62
7
  6
CONTINUOUS
 70
0
 71
3
 72
10
 73
6
 74
0
 42
0.0000001
 43
0.0000001
 44
0.0000000001
 40
0.0
 40
0.0
 40
0.0
 40
0.0
 40
0.5048166985
 40
0.7633485655
 40
1.0
 40
1.0
 40
1.0
 40
1.0
 10
1477.8817663014
 20
1268.2190673703
 30
0.0
 10
1478.0015334071
 20
1268.1585022489
 30
0.0
 10
1478.1731937985
 20
1268.0470078663
 30
0.0
 10
1478.333675632
 20
1267.8134632138
 30
0.0
 10
1478.2908897165
 20
1267.6662732732
 30
0.0
 10
1478.2492963935
 20
1267.6190673703
 30
0.0
  0
SPLINE
  5
596
100
AcDbEntity
  8
6_ALL_SURFS
100
AcDbSpline
 62
7
  6
CONTINUOUS
 70
0
 71
3
 72
11
 73
7
 74
0
 42
0.0000001
 43
0.0000001
 44
0.0000000001
 40
0.0
 40
0.0
 40
0.0
 40
0.0
 40
0.2332111251
 40
0.4922042815
 40
0.7492259568
 40
1.0
 40
1.0
 40
1.0
 40
1.0
 10
986.0443632283
 20
1267.6190673703
 30
0.0
 10
986.003305623
 20
1267.6656652661
 30
0.0
 10
985.9607306493
 20
1267.8115304114
 30
0.0
 10
986.0797464144
 20
1267.9888691447
 30
0.0
 10
986.2346972465
 20
1268.1200112181
 30
0.0
 10
986.352297432
 20
1268.1889302789
 30
0.0
 10
986.4118933204
 20
1268.2190673703
 30
0.0
  0
SPLINE
  5
597
100
AcDbEntity
  8
6_ALL_SURFS
100
AcDbSpline
 62
7
  6
CONTINUOUS
 70
0
 71
3
 72
10
 73
6
 74
0
 42
0.0000001
 43
0.0000001
 44
0.0000000001
 40
0.0
 40
0.0
 40
0.0
 40
0.0
 40
0.5048166985
 40
0.7633485655
 40
1.0
 40
1.0
 40
1.0
 40
1.0
 10
1227.8817663014
 20
1268.2190673703
 30
0.0
 10
1228.0015334071
 20
1268.1585022489
 30
0.0
 10
1228.1731937985
 20
1268.0470078663
 30
0.0
 10
1228.333675632
 20
1267.8134632138
 30
0.0
 10
1228.2908897165
 20
1267.6662732732
 30
0.0
 10
1228.2492963935
 20
1267.6190673703
 30
0.0
  0
SPLINE
  5
598
100
AcDbEntity
  8
6_ALL_SURFS
100
AcDbSpline
 62
7
  6
CONTINUOUS
 70
0
 71
3
 72
11
 73
7
 74
0
 42
0.0000001
 43
0.0000001
 44
0.0000000001
 40
0.0
 40
0.0
 40
0.0
 40
0.0
 40
0.2332111251
 40
0.4922042815
 40
0.7492259568
 40
1.0
 40
1.0
 40
1.0
 40
1.0
 10
736.0443632283
 20
1267.6190673703
 30
0.0
 10
736.003305623
 20
1267.6656652661
 30
0.0
 10
735.9607306493
 20
1267.8115304114
 30
0.0
 10
736.0797464144
 20
1267.9888691447
 30
0.0
 10
736.2346972465
 20
1268.1200112181
 30
0.0
 10
736.352297432
 20
1268.1889302789
 30
0.0
 10
736.4118933204
 20
1268.2190673703
 30
0.0
  0
SPLINE
  5
599
100
AcDbEntity
  8
6_ALL_SURFS
100
AcDbSpline
 62
7
  6
CONTINUOUS
 70
0
 71
3
 72
10
 73
6
 74
0
 42
0.0000001
 43
0.0000001
 44
0.0000000001
 40
0.0
 40
0.0
 40
0.0
 40
0.0
 40
0.5048166985
 40
0.7633485655
 40
1.0
 40
1.0
 40
1.0
 40
1.0
 10
977.8817663014
 20
1268.2190673703
 30
0.0
 10
978.0015334071
 20
1268.1585022489
 30
0.0
 10
978.1731937985
 20
1268.0470078663
 30
0.0
 10
978.333675632
 20
1267.8134632138
 30
0.0
 10
978.2908897165
 20
1267.6662732732
 30
0.0
 10
978.2492963935
 20
1267.6190673703
 30
0.0
  0
SPLINE
  5
59A
100
AcDbEntity
  8
6_ALL_SURFS
100
AcDbSpline
 62
7
  6
CONTINUOUS
 70
0
 71
3
 72
11
 73
7
 74
0
 42
0.0000001
 43
0.0000001
 44
0.0000000001
 40
0.0
 40
0.0
 40
0.0
 40
0.0
 40
0.2332111251
 40
0.4922042815
 40
0.7492259568
 40
1.0
 40
1.0
 40
1.0
 40
1.0
 10
486.0443632283
 20
1267.6190673703
 30
0.0
 10
486.003305623
 20
1267.6656652661
 30
0.0
 10
485.9607306493
 20
1267.8115304114
 30
0.0
 10
486.0797464144
 20
1267.9888691447
 30
0.0
 10
486.2346972465
 20
1268.1200112181
 30
0.0
 10
486.352297432
 20
1268.1889302789
 30
0.0
 10
486.4118933204
 20
1268.2190673703
 30
0.0
  0
SPLINE
  5
59B
100
AcDbEntity
  8
6_ALL_SURFS
100
AcDbSpline
 62
7
  6
CONTINUOUS
 70
0
 71
3
 72
10
 73
6
 74
0
 42
0.0000001
 43
0.0000001
 44
0.0000000001
 40
0.0
 40
0.0
 40
0.0
 40
0.0
 40
0.5048166985
 40
0.7633485655
 40
1.0
 40
1.0
 40
1.0
 40
1.0
 10
727.8817663014
 20
1268.2190673703
 30
0.0
 10
728.0015334071
 20
1268.1585022489
 30
0.0
 10
728.1731937985
 20
1268.0470078663
 30
0.0
 10
728.333675632
 20
1267.8134632138
 30
0.0
 10
728.2908897165
 20
1267.6662732732
 30
0.0
 10
728.2492963935
 20
1267.6190673703
 30
0.0
  0
SPLINE
  5
59C
100
AcDbEntity
  8
6_ALL_SURFS
100
AcDbSpline
 62
7
  6
CONTINUOUS
 70
0
 71
3
 72
10
 73
6
 74
0
 42
0.0000001
 43
0.0000001
 44
0.0000000001
 40
0.0
 40
0.0
 40
0.0
 40
0.0
 40
0.5048166985
 40
0.7633485655
 40
1.0
 40
1.0
 40
1.0
 40
1.0
 10
477.8817663014
 20
1268.2190673703
 30
0.0
 10
478.0015334071
 20
1268.1585022489
 30
0.0
 10
478.1731937985
 20
1268.0470078663
 30
0.0
 10
478.333675632
 20
1267.8134632138
 30
0.0
 10
478.2908897165
 20
1267.6662732732
 30
0.0
 10
478.2492963935
 20
1267.6190673703
 30
0.0
  0
SPLINE
  5
59D
100
AcDbEntity
  8
6_ALL_SURFS
100
AcDbSpline
 62
7
  6
CONTINUOUS
 70
0
 71
3
 72
9
 73
5
 74
0
 42
0.0000001
 43
0.0000001
 44
0.0000000001
 40
0.0
 40
0.0
 40
0.0
 40
0.0
 40
0.5055960977
 40
1.0
 40
1.0
 40
1.0
 40
1.0
 10
2986.9416986037
 20
1270.6190673703
 30
0.0
 10
2986.8489730421
 20
1270.6881686581
 30
0.0
 10
2986.6738151326
 20
1270.8910963211
 30
0.0
 10
2986.7934368678
 20
1271.1448069104
 30
0.0
 10
2986.8787180957
 20
1271.2190673703
 30
0.0
  0
SPLINE
  5
59E
100
AcDbEntity
  8
6_ALL_SURFS
100
AcDbSpline
 62
7
  6
CONTINUOUS
 70
0
 71
3
 72
9
 73
5
 74
0
 42
0.0000001
 43
0.0000001
 44
0.0000000001
 40
0.0
 40
0.0
 40
0.0
 40
0.0
 40
0.5055960977
 40
1.0
 40
1.0
 40
1.0
 40
1.0
 10
2736.9416986037
 20
1270.6190673703
 30
0.0
 10
2736.8489730421
 20
1270.6881686581
 30
0.0
 10
2736.6738151326
 20
1270.8910963211
 30
0.0
 10
2736.7934368678
 20
1271.1448069104
 30
0.0
 10
2736.8787180957
 20
1271.2190673703
 30
0.0
  0
SPLINE
  5
59F
100
AcDbEntity
  8
6_ALL_SURFS
100
AcDbSpline
 62
7
  6
CONTINUOUS
 70
0
 71
3
 72
9
 73
5
 74
0
 42
0.0000001
 43
0.0000001
 44
0.0000000001
 40
0.0
 40
0.0
 40
0.0
 40
0.0
 40
0.4937401505
 40
1.0
 40
1.0
 40
1.0
 40
1.0
 10
2977.4149415261
 20
1271.2190673703
 30
0.0
 10
2977.500084175
 20
1271.1449275811
 30
0.0
 10
2977.6194955493
 20
1270.8914609447
 30
0.0
 10
2977.4447820521
 20
1270.6882398064
 30
0.0
 10
2977.3519610181
 20
1270.6190673703
 30
0.0
  0
ELLIPSE
  5
5A0
100
AcDbEntity
  8
6_ALL_SURFS
100
AcDbEllipse
 62
7
  6
CONTINUOUS
 10
2982.1468298109
 20
882.6947507785
 30
0.0
 11
5.4882058378
 21
0.0
 31
0.0
 40
0.1015346165
 41
7.212646077
 42
8.495317191
  0
ELLIPSE
  5
5A1
100
AcDbEntity
  8
6_ALL_SURFS
100
AcDbEllipse
 62
7
  6
CONTINUOUS
 10
2732.1468298109
 20
882.6947507785
 30
0.0
 11
5.4882058378
 21
0.0
 31
0.0
 40
0.1015346165
 41
7.212646077
 42
8.495317191
  0
ELLIPSE
  5
5A2
100
AcDbEntity
  8
6_ALL_SURFS
100
AcDbEllipse
 62
7
  6
CONTINUOUS
 10
2482.1468298109
 20
882.6947507785
 30
0.0
 11
5.4882058378
 21
-0.0
 31
0.0
 40
0.1015346165
 41
7.212646077
 42
8.495317191
  0
ELLIPSE
  5
5A3
100
AcDbEntity
  8
6_ALL_SURFS
100
AcDbEllipse
 62
7
  6
CONTINUOUS
 10
2232.1468298109
 20
882.6947507785
 30
0.0
 11
5.4882058378
 21
-0.0
 31
0.0
 40
0.1015346165
 41
7.212646077
 42
8.495317191
  0
ELLIPSE
  5
5A4
100
AcDbEntity
  8
6_ALL_SURFS
100
AcDbEllipse
 62
7
  6
CONTINUOUS
 10
1982.1468298109
 20
882.6947507785
 30
0.0
 11
5.4882058378
 21
0.0
 31
0.0
 40
0.1015346165
 41
7.212646077
 42
8.495317191
  0
ELLIPSE
  5
5A5
100
AcDbEntity
  8
6_ALL_SURFS
100
AcDbEllipse
 62
7
  6
CONTINUOUS
 10
1732.1468298109
 20
882.6947507785
 30
0.0
 11
5.4882058378
 21
0.0
 31
0.0
 40
0.1015346165
 41
7.212646077
 42
8.495317191
  0
ELLIPSE
  5
5A6
100
AcDbEntity
  8
6_ALL_SURFS
100
AcDbEllipse
 62
7
  6
CONTINUOUS
 10
1482.1468298109
 20
882.6947507785
 30
0.0
 11
5.4882058378
 21
0.0
 31
0.0
 40
0.1015346165
 41
7.212646077
 42
8.495317191
  0
ELLIPSE
  5
5A7
100
AcDbEntity
  8
6_ALL_SURFS
100
AcDbEllipse
 62
7
  6
CONTINUOUS
 10
1232.1468298109
 20
882.6947507785
 30
0.0
 11
5.4882058378
 21
0.0
 31
0.0
 40
0.1015346165
 41
7.212646077
 42
8.495317191
  0
ELLIPSE
  5
5A8
100
AcDbEntity
  8
6_ALL_SURFS
100
AcDbEllipse
 62
7
  6
CONTINUOUS
 10
982.1468298109
 20
882.6947507785
 30
0.0
 11
5.4882058378
 21
0.0
 31
0.0
 40
0.1015346165
 41
7.212646077
 42
8.495317191
  0
ELLIPSE
  5
5A9
100
AcDbEntity
  8
6_ALL_SURFS
100
AcDbEllipse
 62
7
  6
CONTINUOUS
 10
732.1468298109
 20
882.6947507785
 30
0.0
 11
5.4882058378
 21
-0.0
 31
0.0
 40
0.1015346165
 41
7.212646077
 42
8.495317191
  0
ELLIPSE
  5
5AA
100
AcDbEntity
  8
6_ALL_SURFS
100
AcDbEllipse
 62
7
  6
CONTINUOUS
 10
482.1468298109
 20
882.6947507785
 30
0.0
 11
5.4882058378
 21
0.0
 31
0.0
 40
0.1015346165
 41
7.212646077
 42
8.495317191
  0
ELLIPSE
  5
5AB
100
AcDbEntity
  8
7_ALL_FEATURES
100
AcDbEllipse
 62
7
  6
CONTINUOUS
 10
2982.1468298109
 20
1173.4842403421
 30
0.0
 11
0.0
 21
5.5724287509
 31
0.0
 40
0.9848857802
 41
-3.7829282106
 42
-2.5002570966
  0
ELLIPSE
  5
5AC
100
AcDbEntity
  8
7_ALL_FEATURES
100
AcDbEllipse
 62
7
  6
CONTINUOUS
 10
2732.1468298109
 20
1173.4842403421
 30
0.0
 11
-0.0
 21
5.5724287509
 31
0.0
 40
0.9848857802
 41
-3.7829282106
 42
-2.5002570966
  0
ELLIPSE
  5
5AD
100
AcDbEntity
  8
7_ALL_FEATURES
100
AcDbEllipse
 62
7
  6
CONTINUOUS
 10
2482.1468298109
 20
1173.4842403421
 30
0.0
 11
-0.0
 21
5.5724287509
 31
0.0
 40
0.9848857802
 41
-3.7829282106
 42
-2.5002570966
  0
ELLIPSE
  5
5AE
100
AcDbEntity
  8
7_ALL_FEATURES
100
AcDbEllipse
 62
7
  6
CONTINUOUS
 10
2232.1468298109
 20
1173.4842403421
 30
0.0
 11
-0.0
 21
5.5724287509
 31
0.0
 40
0.9848857802
 41
-3.7829282106
 42
-2.5002570966
  0
ELLIPSE
  5
5AF
100
AcDbEntity
  8
7_ALL_FEATURES
100
AcDbEllipse
 62
7
  6
CONTINUOUS
 10
1982.1468298109
 20
1173.4842403421
 30
0.0
 11
0.0
 21
5.5724287509
 31
0.0
 40
0.9848857802
 41
-3.7829282106
 42
-2.5002570966
  0
ELLIPSE
  5
5B0
100
AcDbEntity
  8
7_ALL_FEATURES
100
AcDbEllipse
 62
7
  6
CONTINUOUS
 10
1732.1468298109
 20
1173.4842403421
 30
0.0
 11
0.0
 21
5.5724287509
 31
0.0
 40
0.9848857802
 41
-3.7829282106
 42
-2.5002570966
  0
ELLIPSE
  5
5B1
100
AcDbEntity
  8
7_ALL_FEATURES
100
AcDbEllipse
 62
7
  6
CONTINUOUS
 10
1482.1468298109
 20
1173.4842403421
 30
0.0
 11
-0.0
 21
5.5724287509
 31
0.0
 40
0.9848857802
 41
-3.7829282106
 42
-2.5002570966
  0
ELLIPSE
  5
5B2
100
AcDbEntity
  8
7_ALL_FEATURES
100
AcDbEllipse
 62
7
  6
CONTINUOUS
 10
1232.1468298109
 20
1173.4842403421
 30
0.0
 11
-0.0
 21
5.5724287509
 31
0.0
 40
0.9848857802
 41
-3.7829282106
 42
-2.5002570966
  0
ELLIPSE
  5
5B3
100
AcDbEntity
  8
7_ALL_FEATURES
100
AcDbEllipse
 62
7
  6
CONTINUOUS
 10
982.1468298109
 20
1173.4842403421
 30
0.0
 11
0.0
 21
5.5724287509
 31
0.0
 40
0.9848857802
 41
-3.7829282106
 42
-2.5002570966
  0
ELLIPSE
  5
5B4
100
AcDbEntity
  8
7_ALL_FEATURES
100
AcDbEllipse
 62
7
  6
CONTINUOUS
 10
732.1468298109
 20
1173.4842403421
 30
0.0
 11
0.0
 21
5.5724287509
 31
0.0
 40
0.9848857802
 41
-3.7829282106
 42
-2.5002570966
  0
ELLIPSE
  5
5B5
100
AcDbEntity
  8
7_ALL_FEATURES
100
AcDbEllipse
 62
7
  6
CONTINUOUS
 10
482.1468298109
 20
1173.4842403421
 30
0.0
 11
0.0
 21
5.5724287509
 31
0.0
 40
0.9848857802
 41
-3.7829282106
 42
-2.5002570966
  0
ELLIPSE
  5
5B6
100
AcDbEntity
  8
6_ALL_SURFS
100
AcDbEllipse
 62
7
  6
CONTINUOUS
 10
2982.1468298109
 20
1269.4538943985
 30
0.0
 11
-0.0
 21
5.5724287509
 31
0.0
 40
0.9848857802
 41
5.6418497502
 42
6.9245208642
  0
ELLIPSE
  5
5B7
100
AcDbEntity
  8
6_ALL_SURFS
100
AcDbEllipse
 62
7
  6
CONTINUOUS
 10
2732.1468298109
 20
1269.4538943985
 30
0.0
 11
-0.0
 21
5.5724287509
 31
0.0
 40
0.9848857802
 41
5.6418497502
 42
6.9245208642
  0
ELLIPSE
  5
5B8
100
AcDbEntity
  8
6_ALL_SURFS
100
AcDbEllipse
 62
7
  6
CONTINUOUS
 10
2482.1468298109
 20
1269.4538943985
 30
0.0
 11
-0.0
 21
5.5724287509
 31
0.0
 40
0.9848857802
 41
5.6418497502
 42
6.9245208642
  0
ELLIPSE
  5
5B9
100
AcDbEntity
  8
6_ALL_SURFS
100
AcDbEllipse
 62
7
  6
CONTINUOUS
 10
2232.1468298109
 20
1269.4538943985
 30
0.0
 11
-0.0
 21
5.5724287509
 31
0.0
 40
0.9848857802
 41
5.6418497502
 42
6.9245208642
  0
ELLIPSE
  5
5BA
100
AcDbEntity
  8
6_ALL_SURFS
100
AcDbEllipse
 62
7
  6
CONTINUOUS
 10
1982.1468298109
 20
1269.4538943985
 30
0.0
 11
-0.0
 21
5.5724287509
 31
0.0
 40
0.9848857802
 41
5.6418497502
 42
6.9245208642
  0
ELLIPSE
  5
5BB
100
AcDbEntity
  8
6_ALL_SURFS
100
AcDbEllipse
 62
7
  6
CONTINUOUS
 10
1732.1468298109
 20
1269.4538943985
 30
0.0
 11
0.0
 21
5.5724287509
 31
0.0
 40
0.9848857802
 41
5.6418497502
 42
6.9245208642
  0
ELLIPSE
  5
5BC
100
AcDbEntity
  8
6_ALL_SURFS
100
AcDbEllipse
 62
7
  6
CONTINUOUS
 10
1482.1468298109
 20
1269.4538943985
 30
0.0
 11
0.0
 21
5.5724287509
 31
0.0
 40
0.9848857802
 41
5.6418497502
 42
6.9245208642
  0
ELLIPSE
  5
5BD
100
AcDbEntity
  8
6_ALL_SURFS
100
AcDbEllipse
 62
7
  6
CONTINUOUS
 10
1232.1468298109
 20
1269.4538943985
 30
0.0
 11
0.0
 21
5.5724287509
 31
0.0
 40
0.9848857802
 41
5.6418497502
 42
6.9245208642
  0
ELLIPSE
  5
5BE
100
AcDbEntity
  8
6_ALL_SURFS
100
AcDbEllipse
 62
7
  6
CONTINUOUS
 10
982.1468298109
 20
1269.4538943985
 30
0.0
 11
0.0
 21
5.5724287509
 31
0.0
 40
0.9848857802
 41
5.6418497502
 42
6.9245208642
  0
ELLIPSE
  5
5BF
100
AcDbEntity
  8
6_ALL_SURFS
100
AcDbEllipse
 62
7
  6
CONTINUOUS
 10
732.1468298109
 20
1269.4538943985
 30
0.0
 11
-0.0
 21
5.5724287509
 31
0.0
 40
0.9848857802
 41
5.6418497502
 42
6.9245208642
  0
ELLIPSE
  5
5C0
100
AcDbEntity
  8
6_ALL_SURFS
100
AcDbEllipse
 62
7
  6
CONTINUOUS
 10
482.1468298109
 20
1269.4538943985
 30
0.0
 11
-0.0
 21
5.5724287509
 31
0.0
 40
0.9848857802
 41
5.6418497502
 42
6.9245208642
  0
ENDSEC
  0
SECTION
  2
OBJECTS
  0
DICTIONARY
  5
5C1
100
AcDbDictionary
  3
ACAD_GROUP
350
5C2
  3
ACAD_MLINESTYLE
350
5C3
  0
DICTIONARY
  5
5C2
102
{ACAD_REACTORS
330
5C1
102
}
100
AcDbDictionary
  0
DICTIONARY
  5
5C3
102
{ACAD_REACTORS
330
5C1
102
}
100
AcDbDictionary
  3
STANDARD
350
5C4
  0
MLINESTYLE
  5
5C4
102
{ACAD_REACTORS
330
5C3
102
}
100
AcDbMlineStyle
  2
STANDARD
 70
0
  3

 62
256
 51
90.0
 52
90.0
 71
2
 49
0.5
 62
256
  6
BYLAYER
 49
-0.5
 62
256
  6
BYLAYER
  0
ENDSEC
  0
EOF
