999
DXF file: 6f4_c_410.dxf
999
Pro/ENGINEER 2016360 by Parametric Technology Corporation
  0
SECTION
  2
HEADER
  9
$ACADVER
  1
AC1014
  9
$DWGCODEPAGE
  3
ANSI_1252
  9
$EXTMAX
 10
1189.0
 20
841.0
 30
0.0
  9
$EXTMIN
 10
0.0
 20
0.0
 30
0.0
  9
$LIMMIN
 10
0.0
 20
0.0
  9
$LIMMAX
 10
1189.0
 20
841.0
  9
$VIEWCTR
 10
594.5
 20
420.5
  9
$VIEWSIZE
 40
841.0
  9
$CLAYER
  8
0
  9
$LTSCALE
 40
65.395
  9
$CELTYPE
  6
BYLAYER
  9
$DIMSCALE
 40
1.0
  9
$DIMASZ
 40
2.5
  9
$DIMEXO
 40
0.75
  9
$DIMDLI
 40
45.182
  9
$DIMEXE
 40
0.75
  9
$DIMCEN
 40
10.701
  9
$DIMLFAC
 40
1.0
  9
$DIMBLK
  1
_CLOSED
  9
$DIMALT
 70
0
  9
$DIMALTF
 40
25.4
  9
$DIMTXT
 40
3.0
  9
$DIMTOL
 70
1
  9
$DIMLIM
 70
0
  9
$DIMTFAC
 40
1.0
  9
$DIMTP
 40
0.01
  9
$DIMTM
 40
0.01
  9
$DIMGAP
 40
0.625
  9
$AUNITS
 70
0
  9
$PDMODE
 70
3
  9
$PDSIZE
 40
0.3125
  9
$HANDSEED
  5
7A2
  9
$TILEMODE
 70
1
  9
$MEASUREMENT
 70
1
  0
ENDSEC
  0
SECTION
  2
CLASSES
  0
ENDSEC
  0
SECTION
  2
TABLES
  0
TABLE
  2
VPORT
  5
8
100
AcDbSymbolTable
 70
2
  0
VPORT
  5
1F4
100
AcDbSymbolTableRecord
100
AcDbViewportTableRecord
  2
*ACTIVE
 70
0
 10
0.0
 20
0.0
 11
1.0
 21
1.0
 12
594.5
 22
420.5
 13
0.0
 23
0.0
 14
1.0
 24
1.0
 15
0.0
 25
0.0
 16
0.0
 26
0.0
 36
1.0
 17
0.0
 27
0.0
 37
0.0
 40
841.0
 41
1.4137931034
 42
50.0
 43
0.0
 44
0.0
 50
0.0
 51
0.0
 71
0
 72
100
 73
1
 74
1
 75
0
 76
0
 77
0
 78
0
  0
ENDTAB
  0
TABLE
  2
LTYPE
  5
5
100
AcDbSymbolTable
 70
6
  0
LTYPE
  5
14
100
AcDbSymbolTableRecord
100
AcDbLinetypeTableRecord
  2
BYBLOCK
 70
0
  3

 72
65
 73
0
 40
0.0
  0
LTYPE
  5
15
100
AcDbSymbolTableRecord
100
AcDbLinetypeTableRecord
  2
BYLAYER
 70
0
  3

 72
65
 73
0
 40
0.0
  0
LTYPE
  5
16
100
AcDbSymbolTableRecord
100
AcDbLinetypeTableRecord
  2
CONTINUOUS
 70
64
  3
Solid line
 72
65
 73
0
 40
0.0
  0
LTYPE
  5
1F5
100
AcDbSymbolTableRecord
100
AcDbLinetypeTableRecord
  2
CENTER
 70
64
  3
____ _ ____ _ ____ _ ____ _ ____ _ ____ _ ____
 72
65
 73
4
 40
0.6
 49
0.375
 74
0
 49
-0.075
 74
0
 49
0.075
 74
0
 49
-0.075
 74
0
  0
LTYPE
  5
1F6
100
AcDbSymbolTableRecord
100
AcDbLinetypeTableRecord
  2
HIDDEN
 70
64
  3
- - - - - - - - - - - - - - - - - - - -
 72
65
 73
2
 40
0.2
 49
0.1
 74
0
 49
-0.1
 74
0
  0
LTYPE
  5
1F7
100
AcDbSymbolTableRecord
100
AcDbLinetypeTableRecord
  2
PHANTOM
 70
64
  3
_____ _ _ _____ _ _ _____ _ _ _____
 72
65
 73
6
 40
0.8
 49
0.45
 74
0
 49
-0.05
 74
0
 49
0.1
 74
0
 49
-0.05
 74
0
 49
0.1
 74
0
 49
-0.05
 74
0
  0
LTYPE
  5
1F8
100
AcDbSymbolTableRecord
100
AcDbLinetypeTableRecord
  2
DOT
 70
64
  3
. . . . . . . . . . . . . . . . . . . .
 72
65
 73
2
 40
0.2
 49
0.1
 74
0
 49
-0.1
 74
0
  0
LTYPE
  5
1F9
100
AcDbSymbolTableRecord
100
AcDbLinetypeTableRecord
  2
DASHED
 70
64
  3
- - - - - - - - - - - - - - - - - - - -
 72
65
 73
2
 40
0.2
 49
0.1
 74
0
 49
-0.1
 74
0
  0
ENDTAB
  0
TABLE
  2
LAYER
  5
2
100
AcDbSymbolTable
 70
36
  0
LAYER
  5
10
100
AcDbSymbolTableRecord
100
AcDbLayerTableRecord
  2
0
 70
0
 62
7
  6
CONTINUOUS
  0
LAYER
  5
1FA
100
AcDbSymbolTableRecord
100
AcDbLayerTableRecord
  2
DEFAULT_1
 70
0
 62
7
  6
CENTER
  0
LAYER
  5
1FB
100
AcDbSymbolTableRecord
100
AcDbLayerTableRecord
  2
DEFAULT_2
 70
0
 62
8
  6
HIDDEN
  0
LAYER
  5
1FC
100
AcDbSymbolTableRecord
100
AcDbLayerTableRecord
  2
DEFAULT_3
 70
0
 62
7
  6
PHANTOM
  0
LAYER
  5
1FD
100
AcDbSymbolTableRecord
100
AcDbLayerTableRecord
  2
1_ALL_PLANES
 70
0
 62
7
  6
CONTINUOUS
  0
LAYER
  5
1FE
100
AcDbSymbolTableRecord
100
AcDbLayerTableRecord
  2
2_ALL_CSYS
 70
0
 62
7
  6
CONTINUOUS
  0
LAYER
  5
1FF
100
AcDbSymbolTableRecord
100
AcDbLayerTableRecord
  2
3_ALL_AXES
 70
0
 62
7
  6
CONTINUOUS
  0
LAYER
  5
200
100
AcDbSymbolTableRecord
100
AcDbLayerTableRecord
  2
4_ALL_POINTS
 70
0
 62
7
  6
CONTINUOUS
  0
LAYER
  5
201
100
AcDbSymbolTableRecord
100
AcDbLayerTableRecord
  2
5_ALL_CURVES
 70
0
 62
7
  6
CONTINUOUS
  0
LAYER
  5
202
100
AcDbSymbolTableRecord
100
AcDbLayerTableRecord
  2
5__COSTRUZIONE
 70
0
 62
7
  6
CONTINUOUS
  0
LAYER
  5
203
100
AcDbSymbolTableRecord
100
AcDbLayerTableRecord
  2
6_ALL_SURFS
 70
0
 62
7
  6
CONTINUOUS
  0
LAYER
  5
204
100
AcDbSymbolTableRecord
100
AcDbLayerTableRecord
  2
7_ALL_FEATURES
 70
0
 62
7
  6
CONTINUOUS
  0
LAYER
  5
205
100
AcDbSymbolTableRecord
100
AcDbLayerTableRecord
  2
9_SOLID
 70
0
 62
7
  6
CONTINUOUS
  0
LAYER
  5
206
100
AcDbSymbolTableRecord
100
AcDbLayerTableRecord
  2
PR9036
 70
0
 62
7
  6
CONTINUOUS
  0
LAYER
  5
207
100
AcDbSymbolTableRecord
100
AcDbLayerTableRecord
  2
WHITE
 70
0
 62
7
  6
CONTINUOUS
  0
LAYER
  5
208
100
AcDbSymbolTableRecord
100
AcDbLayerTableRecord
  2
XXX_SOLIDO
 70
0
 62
7
  6
CONTINUOUS
  0
ENDTAB
  0
TABLE
  2
STYLE
  5
3
100
AcDbSymbolTable
 70
1
  0
STYLE
  5
11
100
AcDbSymbolTableRecord
100
AcDbTextStyleTableRecord
  2
STANDARD
 70
0
 40
0.0
 41
1.0
 50
0.0
 71
0
 42
0.2
  3
arial.ttf
  4

  0
STYLE
  5
209
100
AcDbSymbolTableRecord
100
AcDbTextStyleTableRecord
  2
TEXTSTYLE_1
 70
0
 40
0.0
 41
0.8
 50
0.0
 71
0
 42
0.2
  3
gdt
  4

  0
STYLE
  5
20A
100
AcDbSymbolTableRecord
100
AcDbTextStyleTableRecord
  2
TEXTSTYLE_2
 70
0
 40
0.0
 41
0.85
 50
0.0
 71
0
 42
0.2
  3
txt
  4

  0
ENDTAB
  0
TABLE
  2
VIEW
  5
6
100
AcDbSymbolTable
 70
0
  0
ENDTAB
  0
TABLE
  2
UCS
  5
7
100
AcDbSymbolTable
 70
0
  0
ENDTAB
  0
TABLE
  2
APPID
  5
9
100
AcDbSymbolTable
 70
1
  0
APPID
  5
20B
100
AcDbSymbolTableRecord
100
AcDbRegAppTableRecord
  2
ACAD
 70
0
  0
ENDTAB
  0
TABLE
  2
BLOCK_RECORD
  5
1
100
AcDbSymbolTable
 70
0
  0
BLOCK_RECORD
  5
1F
100
AcDbSymbolTableRecord
100
AcDbBlockTableRecord
  2
*MODEL_SPACE
  0
BLOCK_RECORD
  5
1B
100
AcDbSymbolTableRecord
100
AcDbBlockTableRecord
  2
*PAPER_SPACE
  0
BLOCK_RECORD
  5
20C
100
AcDbSymbolTableRecord
100
AcDbBlockTableRecord
  2
_CLOSED
  0
BLOCK_RECORD
  5
20D
100
AcDbSymbolTableRecord
100
AcDbBlockTableRecord
  2
*D0
  0
BLOCK_RECORD
  5
20E
100
AcDbSymbolTableRecord
100
AcDbBlockTableRecord
  2
*D1
  0
BLOCK_RECORD
  5
20F
100
AcDbSymbolTableRecord
100
AcDbBlockTableRecord
  2
*D2
  0
BLOCK_RECORD
  5
210
100
AcDbSymbolTableRecord
100
AcDbBlockTableRecord
  2
LOGO2_BL0
  0
ENDTAB
  0
TABLE
  2
DIMSTYLE
  5
A
100
AcDbSymbolTable
 70
1
  0
DIMSTYLE
105
211
100
AcDbSymbolTableRecord
100
AcDbDimStyleTableRecord
  2
STANDARD
 70
0
  3

  4

  5
_CLOSED
  6
_CLOSED
  7
_CLOSED
 40
1.0
 41
2.5
 42
0.75
 43
0.38
 44
0.75
 45
0.0
 46
0.0
 47
0.01
 48
0.01
140
3.0
141
0.09
142
0.0
143
25.4
144
1.0
145
0.0
146
1.0
147
0.625
 71
1.0
 72
0.0
 73
0
 74
0
 75
0
 76
0
 77
1
 78
8
 79
2
170
0
171
1
172
0
173
0
174
0
175
0
176
0
177
0
178
0
270
2
179
2
271
2
272
2
273
2
274
2
275
0
280
0
281
0
282
0
283
1
284
8
285
0
286
0
287
3
288
0
340
11
  0
DIMSTYLE
105
212
100
AcDbSymbolTableRecord
100
AcDbDimStyleTableRecord
  2
DIMSTYLE_1
 70
0
  3

  4

  5
_CLOSED
  6
_CLOSED
  7
_CLOSED
 40
1.0
 41
2.5
 42
0.75
 43
0.38
 44
0.75
 45
0.0
 46
0.0
 47
0.8
 48
0.8
140
10.0
141
0.09
142
0.0
143
25.4
144
1.0
145
0.0
146
1.0
147
2.5
 71
0.0
 72
0.0
 73
0
 74
0
 75
0
 76
0
 77
1
 78
8
 79
2
170
0
171
1
172
0
173
0
174
0
175
0
176
0
177
0
178
0
270
2
179
2
271
2
272
2
273
2
274
2
275
0
280
0
281
0
282
0
283
1
284
8
285
0
286
0
287
3
288
0
340
11
  0
DIMSTYLE
105
213
100
AcDbSymbolTableRecord
100
AcDbDimStyleTableRecord
  2
DIMSTYLE_2
 70
0
  3

  4

  5
_CLOSED
  6
_CLOSED
  7
_CLOSED
 40
1.0
 41
2.5
 42
0.75
 43
0.38
 44
0.75
 45
0.0
 46
0.0
 47
0.3
 48
0.3
140
10.0
141
0.09
142
0.0
143
25.4
144
1.0
145
0.0
146
1.0
147
2.5
 71
0.0
 72
0.0
 73
0
 74
0
 75
0
 76
0
 77
1
 78
8
 79
2
170
0
171
1
172
0
173
0
174
0
175
0
176
0
177
0
178
0
270
2
179
2
271
2
272
2
273
2
274
2
275
0
280
0
281
0
282
0
283
1
284
8
285
0
286
0
287
3
288
0
340
11
  0
ENDTAB
  0
ENDSEC
  0
SECTION
  2
BLOCKS
  0
BLOCK
  5
20
100
AcDbEntity
  8
0
100
AcDbBlockBegin
  2
*MODEL_SPACE
 70
0
 10
0.0
 20
0.0
 30
0.0
  3
*MODEL_SPACE
  1

  0
ENDBLK
  5
21
100
AcDbEntity
  8
0
100
AcDbBlockEnd
  0
BLOCK
  5
1C
100
AcDbEntity
  8
0
100
AcDbBlockBegin
  2
*PAPER_SPACE
 70
0
 10
0.0
 20
0.0
 30
0.0
  3
*PAPER_SPACE
  1

  0
ENDBLK
  5
1D
100
AcDbEntity
  8
0
100
AcDbBlockEnd
  0
BLOCK
  5
214
100
AcDbEntity
  8
0
100
AcDbBlockBegin
 62
2
  6
CONTINUOUS
  2
LOGO2_BL0
 70
64
 10
1045.2116317222
 20
40.2444556452
  3
LOGO2_BL0
  1

  0
LINE
  5
215
100
AcDbEntity
  8
0
100
AcDbLine
 62
7
  6
CONTINUOUS
 10
1036.9545569504
 20
43.439946984
 11
1035.650216021
 21
43.439946984
  0
LINE
  5
216
100
AcDbEntity
  8
0
100
AcDbLine
 62
7
  6
CONTINUOUS
 10
1035.650216021
 20
43.439946984
 11
1035.650216021
 21
32.9808809242
  0
LINE
  5
217
100
AcDbEntity
  8
0
100
AcDbLine
 62
7
  6
CONTINUOUS
 10
1035.650216021
 20
32.9808809242
 11
1040.1312709093
 21
32.9808809242
  0
LINE
  5
218
100
AcDbEntity
  8
0
100
AcDbLine
 62
7
  6
CONTINUOUS
 10
1040.1312709093
 20
32.9808809242
 11
1040.1312709093
 21
34.1737352492
  0
LINE
  5
219
100
AcDbEntity
  8
0
100
AcDbLine
 62
7
  6
CONTINUOUS
 10
1040.1312709093
 20
34.1737352492
 11
1036.9545569504
 21
34.1737352492
  0
LINE
  5
21A
100
AcDbEntity
  8
0
100
AcDbLine
 62
7
  6
CONTINUOUS
 10
1036.9545569504
 20
34.1737352492
 11
1036.9545569504
 21
43.439946984
  0
LINE
  5
21B
100
AcDbEntity
  8
0
100
AcDbLine
 62
7
  6
CONTINUOUS
 10
1051.8908831667
 20
43.439946984
 11
1050.5870656486
 21
43.439946984
  0
LINE
  5
21C
100
AcDbEntity
  8
0
100
AcDbLine
 62
7
  6
CONTINUOUS
 10
1050.5870656486
 20
43.439946984
 11
1050.5870656486
 21
32.9808809242
  0
LINE
  5
21D
100
AcDbEntity
  8
0
100
AcDbLine
 62
7
  6
CONTINUOUS
 10
1050.5870656486
 20
32.9808809242
 11
1055.0682513897
 21
32.9808809242
  0
LINE
  5
21E
100
AcDbEntity
  8
0
100
AcDbLine
 62
7
  6
CONTINUOUS
 10
1055.0682513897
 20
32.9808809242
 11
1055.0682513897
 21
34.1737352492
  0
LINE
  5
21F
100
AcDbEntity
  8
0
100
AcDbLine
 62
7
  6
CONTINUOUS
 10
1055.0682513897
 20
34.1737352492
 11
1051.8908831667
 21
34.1737352492
  0
LINE
  5
220
100
AcDbEntity
  8
0
100
AcDbLine
 62
7
  6
CONTINUOUS
 10
1051.8908831667
 20
34.1737352492
 11
1051.8908831667
 21
43.439946984
  0
LWPOLYLINE
  5
221
100
AcDbEntity
  8
0
100
AcDbPolyline
 62
7
  6
CONTINUOUS
 90
2
 70
0
 43
0.2
 10
1034.004610932
 20
29.6373296172
 10
1034.004610932
 20
27.7802663679
  0
LWPOLYLINE
  5
222
100
AcDbEntity
  8
0
100
AcDbPolyline
 62
7
  6
CONTINUOUS
 90
2
 70
0
 43
0.2
 10
1034.004610932
 20
27.7802663679
 10
1034.8003269424
 20
27.7802663679
  0
LWPOLYLINE
  5
223
100
AcDbEntity
  8
0
100
AcDbPolyline
 62
7
  6
CONTINUOUS
 90
2
 70
0
 43
0.2
 10
1034.8003269424
 20
27.7802663679
 10
1034.8003269424
 20
27.9922479395
  0
LWPOLYLINE
  5
224
100
AcDbEntity
  8
0
100
AcDbPolyline
 62
7
  6
CONTINUOUS
 90
2
 70
0
 43
0.2
 10
1034.8003269424
 20
27.9922479395
 10
1034.2362204268
 20
27.9922479395
  0
LWPOLYLINE
  5
225
100
AcDbEntity
  8
0
100
AcDbPolyline
 62
7
  6
CONTINUOUS
 90
2
 70
0
 43
0.2
 10
1034.2362204268
 20
27.9922479395
 10
1034.2362204268
 20
29.6373296172
  0
LWPOLYLINE
  5
226
100
AcDbEntity
  8
0
100
AcDbPolyline
 62
7
  6
CONTINUOUS
 90
2
 70
0
 43
0.2
 10
1034.2362204268
 20
29.6373296172
 10
1034.004610932
 20
29.6373296172
  0
SPLINE
  5
227
100
AcDbEntity
  8
0
100
AcDbSpline
 62
7
  6
CONTINUOUS
 70
2
 71
3
 72
35
 73
31
 74
0
 42
0.0000001
 43
0.0000001
 44
0.0000000001
 40
0.0
 40
0.0
 40
0.0
 40
0.0
 40
1.0
 40
1.0
 40
1.0
 40
2.0
 40
2.0
 40
2.0
 40
3.0
 40
3.0
 40
3.0
 40
4.0
 40
4.0
 40
4.0
 40
5.0
 40
5.0
 40
5.0
 40
6.0
 40
6.0
 40
6.0
 40
7.0
 40
7.0
 40
7.0
 40
8.0
 40
8.0
 40
8.0
 40
9.0
 40
9.0
 40
9.0
 40
10.0
 40
10.0
 40
10.0
 40
10.0
 10
1036.1986201979
 20
28.9328180238
 30
0.0
 10
1036.1986201979
 20
28.9328180238
 30
0.0
 10
1036.1986201979
 20
28.2707027446
 30
0.0
 10
1036.1986201979
 20
28.2707027446
 30
0.0
 10
1036.1986201979
 20
27.9556091493
 30
0.0
 10
1036.3464838867
 20
27.7410105213
 30
0.0
 10
1036.686570371
 20
27.7410105213
 30
0.0
 10
1037.026133444
 20
27.7410105213
 30
0.0
 10
1037.1742588385
 20
27.9556091493
 30
0.0
 10
1037.1742588385
 20
28.2707027446
 30
0.0
 10
1037.1742588385
 20
28.2707027446
 30
0.0
 10
1037.1742588385
 20
28.9328180238
 30
0.0
 10
1037.1742588385
 20
28.9328180238
 30
0.0
 10
1037.1742588385
 20
28.9328180238
 30
0.0
 10
1036.9522015996
 20
28.9328180238
 30
0.0
 10
1036.9522015996
 20
28.9328180238
 30
0.0
 10
1036.9522015996
 20
28.9328180238
 30
0.0
 10
1036.9522015996
 20
28.2958264864
 30
0.0
 10
1036.9522015996
 20
28.2958264864
 30
0.0
 10
1036.9522015996
 20
28.1100154792
 30
0.0
 10
1036.9054871422
 20
27.9472345687
 30
0.0
 10
1036.686570371
 20
27.9472345687
 30
0.0
 10
1036.4671301886
 20
27.9472345687
 30
0.0
 10
1036.4204157311
 20
28.1100154792
 30
0.0
 10
1036.4204157311
 20
28.2958264864
 30
0.0
 10
1036.4204157311
 20
28.2958264864
 30
0.0
 10
1036.4204157311
 20
28.9328180238
 30
0.0
 10
1036.4204157311
 20
28.9328180238
 30
0.0
 10
1036.4204157311
 20
28.9328180238
 30
0.0
 10
1036.1986201979
 20
28.9328180238
 30
0.0
 10
1036.1986201979
 20
28.9328180238
 30
0.0
  0
SPLINE
  5
228
100
AcDbEntity
  8
0
100
AcDbSpline
 62
7
  6
CONTINUOUS
 70
2
 71
3
 72
35
 73
31
 74
0
 42
0.0000001
 43
0.0000001
 44
0.0000000001
 40
0.0
 40
0.0
 40
0.0
 40
0.0
 40
1.0
 40
1.0
 40
1.0
 40
2.0
 40
2.0
 40
2.0
 40
3.0
 40
3.0
 40
3.0
 40
4.0
 40
4.0
 40
4.0
 40
5.0
 40
5.0
 40
5.0
 40
6.0
 40
6.0
 40
6.0
 40
7.0
 40
7.0
 40
7.0
 40
8.0
 40
8.0
 40
8.0
 40
9.0
 40
9.0
 40
9.0
 40
10.0
 40
10.0
 40
10.0
 40
10.0
 10
1039.5973913957
 20
28.891468532
 30
0.0
 10
1039.508934888
 20
28.9427628382
 30
0.0
 10
1039.3954854914
 20
28.9678865801
 30
0.0
 10
1039.2918500564
 20
28.9678865801
 30
0.0
 10
1038.9369772032
 20
28.9678865801
 30
0.0
 10
1038.661532013
 20
28.704087291
 30
0.0
 10
1038.661532013
 20
28.3465973814
 30
0.0
 10
1038.661532013
 20
28.0016693426
 30
0.0
 10
1038.9399868181
 20
27.7415339326
 30
0.0
 10
1039.2795498911
 20
27.7415339326
 30
0.0
 10
1039.3954854914
 20
27.7415339326
 30
0.0
 10
1039.4962421643
 20
27.7635172067
 30
0.0
 10
1039.5973913957
 20
27.8174285693
 30
0.0
 10
1039.5973913957
 20
27.8174285693
 30
0.0
 10
1039.5973913957
 20
28.1000706648
 30
0.0
 10
1039.5973913957
 20
28.1000706648
 30
0.0
 10
1039.5135147368
 20
28.0069034555
 30
0.0
 10
1039.4100101546
 20
27.94775798
 30
0.0
 10
1039.2819052419
 20
27.94775798
 30
0.0
 10
1039.0482021019
 20
27.94775798
 30
0.0
 10
1038.8829349877
 20
28.1199602937
 30
0.0
 10
1038.8829349877
 20
28.3565421958
 30
0.0
 10
1038.8829349877
 20
28.5685237674
 30
0.0
 10
1039.0506883055
 20
28.7606157101
 30
0.0
 10
1039.2675114315
 20
28.7606157101
 30
0.0
 10
1039.4003270458
 20
28.7606157101
 30
0.0
 10
1039.508934888
 20
28.7067043474
 30
0.0
 10
1039.5973913957
 20
28.6056859688
 30
0.0
 10
1039.5973913957
 20
28.6056859688
 30
0.0
 10
1039.5973913957
 20
28.891468532
 30
0.0
 10
1039.5973913957
 20
28.891468532
 30
0.0
  0
SPLINE
  5
229
100
AcDbEntity
  8
0
100
AcDbSpline
 62
7
  6
CONTINUOUS
 70
2
 71
3
 72
32
 73
28
 74
0
 42
0.0000001
 43
0.0000001
 44
0.0000000001
 40
0.0
 40
0.0
 40
0.0
 40
0.0
 40
1.0
 40
1.0
 40
1.0
 40
2.0
 40
2.0
 40
2.0
 40
3.0
 40
3.0
 40
3.0
 40
4.0
 40
4.0
 40
4.0
 40
5.0
 40
5.0
 40
5.0
 40
6.0
 40
6.0
 40
6.0
 40
7.0
 40
7.0
 40
7.0
 40
8.0
 40
8.0
 40
8.0
 40
9.0
 40
9.0
 40
9.0
 40
9.0
 10
1042.1292626479
 20
28.3199034057
 30
0.0
 10
1042.1292626479
 20
28.3199034057
 30
0.0
 10
1042.1292626479
 20
28.3539251394
 30
0.0
 10
1042.1292626479
 20
28.3539251394
 30
0.0
 10
1042.1292626479
 20
28.6962361217
 30
0.0
 10
1041.9564060701
 20
28.9678865801
 30
0.0
 10
1041.589756463
 20
28.9678865801
 30
0.0
 10
1041.2181344486
 20
28.9678865801
 30
0.0
 10
1041.0283978567
 20
28.7014702345
 30
0.0
 10
1041.0283978567
 20
28.3465973814
 30
0.0
 10
1041.0283978567
 20
28.0069034555
 30
0.0
 10
1041.2424730735
 20
27.7410105213
 30
0.0
 10
1041.5945980174
 20
27.7410105213
 30
0.0
 10
1041.8186180486
 20
27.7410105213
 30
0.0
 10
1042.0207856585
 20
27.8566844159
 30
0.0
 10
1042.1292626479
 20
28.0561041166
 30
0.0
 10
1042.1292626479
 20
28.0561041166
 30
0.0
 10
1041.9416197012
 20
28.1628800193
 30
0.0
 10
1041.9416197012
 20
28.1628800193
 30
0.0
 10
1041.8581356008
 20
28.024176028
 30
0.0
 10
1041.7669311839
 20
27.9383365768
 30
0.0
 10
1041.5973459266
 20
27.9383365768
 30
0.0
 10
1041.385364355
 20
27.9383365768
 30
0.0
 10
1041.2524178879
 20
28.1231007614
 30
0.0
 10
1041.2500625371
 20
28.3199034057
 30
0.0
 10
1041.2500625371
 20
28.3199034057
 30
0.0
 10
1042.1292626479
 20
28.3199034057
 30
0.0
 10
1042.1292626479
 20
28.3199034057
 30
0.0
  0
SPLINE
  5
22A
100
AcDbEntity
  8
0
100
AcDbSpline
 62
7
  6
CONTINUOUS
 70
2
 71
3
 72
14
 73
10
 74
0
 42
0.0000001
 43
0.0000001
 44
0.0000000001
 40
0.0
 40
0.0
 40
0.0
 40
0.0
 40
1.0
 40
1.0
 40
1.0
 40
2.0
 40
2.0
 40
2.0
 40
3.0
 40
3.0
 40
3.0
 40
3.0
 10
1041.2621009968
 20
28.4873950178
 30
0.0
 10
1041.2897109422
 20
28.6522695735
 30
0.0
 10
1041.4175541492
 20
28.7752712261
 30
0.0
 10
1041.589756463
 20
28.7752712261
 30
0.0
 10
1041.7669311839
 20
28.7752712261
 30
0.0
 10
1041.8803805805
 20
28.6595973315
 30
0.0
 10
1041.9075979675
 20
28.4873950178
 30
0.0
 10
1041.9075979675
 20
28.4873950178
 30
0.0
 10
1041.2621009968
 20
28.4873950178
 30
0.0
 10
1041.2621009968
 20
28.4873950178
 30
0.0
  0
SPLINE
  5
22B
100
AcDbEntity
  8
0
100
AcDbSpline
 62
7
  6
CONTINUOUS
 70
2
 71
3
 72
20
 73
16
 74
0
 42
0.0000001
 43
0.0000001
 44
0.0000000001
 40
0.0
 40
0.0
 40
0.0
 40
0.0
 40
1.0
 40
1.0
 40
1.0
 40
2.0
 40
2.0
 40
2.0
 40
3.0
 40
3.0
 40
3.0
 40
4.0
 40
4.0
 40
4.0
 40
5.0
 40
5.0
 40
5.0
 40
5.0
 10
1044.1532940981
 20
28.6967595329
 30
0.0
 10
1044.1532940981
 20
28.6967595329
 30
0.0
 10
1044.5644336647
 20
28.1942846966
 30
0.0
 10
1044.5644336647
 20
28.1942846966
 30
0.0
 10
1044.4483672117
 20
28.078610802
 30
0.0
 10
1044.3105791901
 20
27.9482813913
 30
0.0
 10
1044.1386385821
 20
27.9482813913
 30
0.0
 10
1043.9612021555
 20
27.9482813913
 30
0.0
 10
1043.7937105434
 20
28.1126325357
 30
0.0
 10
1043.7937105434
 20
28.289545551
 30
0.0
 10
1043.7937105434
 20
28.4675053889
 30
0.0
 10
1044.003467617
 20
28.5936475092
 30
0.0
 10
1044.1310491184
 20
28.6815806056
 30
0.0
 10
1044.1310491184
 20
28.6815806056
 30
0.0
 10
1044.1532940981
 20
28.6967595329
 30
0.0
 10
1044.1532940981
 20
28.6967595329
 30
0.0
  0
SPLINE
  5
22C
100
AcDbEntity
  8
0
100
AcDbSpline
 62
7
  6
CONTINUOUS
 70
2
 71
3
 72
23
 73
19
 74
0
 42
0.0000001
 43
0.0000001
 44
0.0000000001
 40
0.0
 40
0.0
 40
0.0
 40
0.0
 40
1.0
 40
1.0
 40
1.0
 40
2.0
 40
2.0
 40
2.0
 40
3.0
 40
3.0
 40
3.0
 40
4.0
 40
4.0
 40
4.0
 40
5.0
 40
5.0
 40
5.0
 40
6.0
 40
6.0
 40
6.0
 40
6.0
 10
1044.202625612
 20
28.987776209
 30
0.0
 10
1044.202625612
 20
28.987776209
 30
0.0
 10
1044.1409939329
 20
29.0662879022
 30
0.0
 10
1044.1409939329
 20
29.0662879022
 30
0.0
 10
1044.0870825702
 20
29.1348547809
 30
0.0
 10
1044.0302924455
 20
29.2039450709
 30
0.0
 10
1044.0302924455
 20
29.2976356914
 30
0.0
 10
1044.0302924455
 20
29.4164500538
 30
0.0
 10
1044.126207564
 20
29.4939149244
 30
0.0
 10
1044.237170757
 20
29.4939149244
 30
0.0
 10
1044.3604341153
 20
29.4939149244
 30
0.0
 10
1044.4537321774
 20
29.4227309892
 30
0.0
 10
1044.4537321774
 20
29.2924015785
 30
0.0
 10
1044.4537321774
 20
29.1573614663
 30
0.0
 10
1044.3256272647
 20
29.0809434182
 30
0.0
 10
1044.2320674969
 20
29.0071424266
 30
0.0
 10
1044.2320674969
 20
29.0071424266
 30
0.0
 10
1044.202625612
 20
28.987776209
 30
0.0
 10
1044.202625612
 20
28.987776209
 30
0.0
  0
SPLINE
  5
22D
100
AcDbEntity
  8
0
100
AcDbSpline
 62
7
  6
CONTINUOUS
 70
2
 71
3
 72
50
 73
46
 74
0
 42
0.0000001
 43
0.0000001
 44
0.0000000001
 40
0.0
 40
0.0
 40
0.0
 40
0.0
 40
1.0
 40
1.0
 40
1.0
 40
2.0
 40
2.0
 40
2.0
 40
3.0
 40
3.0
 40
3.0
 40
4.0
 40
4.0
 40
4.0
 40
5.0
 40
5.0
 40
5.0
 40
6.0
 40
6.0
 40
6.0
 40
7.0
 40
7.0
 40
7.0
 40
8.0
 40
8.0
 40
8.0
 40
9.0
 40
9.0
 40
9.0
 40
10.0
 40
10.0
 40
10.0
 40
11.0
 40
11.0
 40
11.0
 40
12.0
 40
12.0
 40
12.0
 40
13.0
 40
13.0
 40
13.0
 40
14.0
 40
14.0
 40
14.0
 40
15.0
 40
15.0
 40
15.0
 40
15.0
 10
1044.9047818547
 20
27.7807897792
 30
0.0
 10
1044.9047818547
 20
27.7807897792
 30
0.0
 10
1045.1901718594
 20
27.7807897792
 30
0.0
 10
1045.1901718594
 20
27.7807897792
 30
0.0
 10
1045.1901718594
 20
27.7807897792
 30
0.0
 10
1044.8578056916
 20
28.1916676401
 30
0.0
 10
1044.8578056916
 20
28.1916676401
 30
0.0
 10
1044.8578056916
 20
28.1916676401
 30
0.0
 10
1045.0843119264
 20
28.4575605744
 30
0.0
 10
1045.0843119264
 20
28.4575605744
 30
0.0
 10
1045.0843119264
 20
28.4575605744
 30
0.0
 10
1044.9360556791
 20
28.6103966704
 30
0.0
 10
1044.9360556791
 20
28.6103966704
 30
0.0
 10
1044.9360556791
 20
28.6103966704
 30
0.0
 10
1044.7201485229
 20
28.3591592523
 30
0.0
 10
1044.7201485229
 20
28.3591592523
 30
0.0
 10
1044.7201485229
 20
28.3591592523
 30
0.0
 10
1044.3330858755
 20
28.8270889436
 30
0.0
 10
1044.3330858755
 20
28.8270889436
 30
0.0
 10
1044.488539028
 20
28.9411926044
 30
0.0
 10
1044.670817009
 20
29.0809434182
 30
0.0
 10
1044.670817009
 20
29.2903079334
 30
0.0
 10
1044.670817009
 20
29.5342175935
 30
0.0
 10
1044.4687802519
 20
29.6776322864
 30
0.0
 10
1044.2422740171
 20
29.6776322864
 30
0.0
 10
1043.9981026513
 20
29.6776322864
 30
0.0
 10
1043.8137310251
 20
29.5268898355
 30
0.0
 10
1043.8137310251
 20
29.2704183044
 30
0.0
 10
1043.8137310251
 20
29.1128715068
 30
0.0
 10
1043.9123940529
 20
28.9752143381
 30
0.0
 10
1044.0177305746
 20
28.8642511451
 30
0.0
 10
1044.0177305746
 20
28.8642511451
 30
0.0
 10
1043.9021875328
 20
28.780505339
 30
0.0
 10
1043.9021875328
 20
28.780505339
 30
0.0
 10
1043.7244894005
 20
28.6522695735
 30
0.0
 10
1043.577149123
 20
28.5245572192
 30
0.0
 10
1043.577149123
 20
28.2874519058
 30
0.0
 10
1043.577149123
 20
27.9671241976
 30
0.0
 10
1043.8357142992
 20
27.7410105213
 30
0.0
 10
1044.1460971929
 20
27.7410105213
 30
0.0
 10
1044.3650139641
 20
27.7410105213
 30
0.0
 10
1044.5622091668
 20
27.8661058191
 30
0.0
 10
1044.7024833919
 20
28.0320271973
 30
0.0
 10
1044.7024833919
 20
28.0320271973
 30
0.0
 10
1044.9047818547
 20
27.7807897792
 30
0.0
 10
1044.9047818547
 20
27.7807897792
 30
0.0
  0
LWPOLYLINE
  5
22E
100
AcDbEntity
  8
0
100
AcDbPolyline
 62
7
  6
CONTINUOUS
 90
2
 70
0
 43
0.2
 10
1046.8402259444
 20
29.6373296172
 10
1046.6088781552
 20
29.6373296172
  0
LWPOLYLINE
  5
22F
100
AcDbEntity
  8
0
100
AcDbPolyline
 62
7
  6
CONTINUOUS
 90
2
 70
0
 43
0.2
 10
1046.6088781552
 20
29.6373296172
 10
1046.6088781552
 20
27.7802663679
  0
LWPOLYLINE
  5
230
100
AcDbEntity
  8
0
100
AcDbPolyline
 62
7
  6
CONTINUOUS
 90
2
 70
0
 43
0.2
 10
1046.6088781552
 20
27.7802663679
 10
1047.4042016071
 20
27.7802663679
  0
LWPOLYLINE
  5
231
100
AcDbEntity
  8
0
100
AcDbPolyline
 62
7
  6
CONTINUOUS
 90
2
 70
0
 43
0.2
 10
1047.4042016071
 20
27.7802663679
 10
1047.4042016071
 20
27.9922479395
  0
LWPOLYLINE
  5
232
100
AcDbEntity
  8
0
100
AcDbPolyline
 62
7
  6
CONTINUOUS
 90
2
 70
0
 43
0.2
 10
1047.4042016071
 20
27.9922479395
 10
1046.8402259444
 20
27.9922479395
  0
LWPOLYLINE
  5
233
100
AcDbEntity
  8
0
100
AcDbPolyline
 62
7
  6
CONTINUOUS
 90
2
 70
0
 43
0.2
 10
1046.8402259444
 20
27.9922479395
 10
1046.8402259444
 20
29.6373296172
  0
LWPOLYLINE
  5
234
100
AcDbEntity
  8
0
100
AcDbPolyline
 62
7
  6
CONTINUOUS
 90
2
 70
0
 43
0.2
 10
1049.0833050186
 20
28.9328180238
 10
1048.8621637494
 20
28.9328180238
  0
LWPOLYLINE
  5
235
100
AcDbEntity
  8
0
100
AcDbPolyline
 62
7
  6
CONTINUOUS
 90
2
 70
0
 43
0.2
 10
1048.8621637494
 20
28.9328180238
 10
1048.8621637494
 20
27.7807897792
  0
LWPOLYLINE
  5
236
100
AcDbEntity
  8
0
100
AcDbPolyline
 62
7
  6
CONTINUOUS
 90
2
 70
0
 43
0.2
 10
1048.8621637494
 20
27.7807897792
 10
1049.0833050186
 20
27.7807897792
  0
LWPOLYLINE
  5
237
100
AcDbEntity
  8
0
100
AcDbPolyline
 62
7
  6
CONTINUOUS
 90
2
 70
0
 43
0.2
 10
1049.0833050186
 20
27.7807897792
 10
1049.0833050186
 20
28.9328180238
  0
LWPOLYLINE
  5
238
100
AcDbEntity
  8
0
100
AcDbPolyline
 62
7
  6
CONTINUOUS
 90
2
 70
1
 43
0.2
 10
1048.8202817414
 20
29.4627719527
 42
1.0
 10
1049.1254487323
 20
29.4627719527
 42
1.0
  0
SPLINE
  5
239
100
AcDbEntity
  8
0
100
AcDbSpline
 62
7
  6
CONTINUOUS
 70
2
 71
3
 72
17
 73
13
 74
0
 42
0.0000001
 43
0.0000001
 44
0.0000000001
 40
0.0
 40
0.0
 40
0.0
 40
0.0
 40
1.0
 40
1.0
 40
1.0
 40
2.0
 40
2.0
 40
2.0
 40
3.0
 40
3.0
 40
3.0
 40
4.0
 40
4.0
 40
4.0
 40
4.0
 10
1051.2135889602
 20
27.9383365768
 30
0.0
 10
1050.9796241145
 20
27.9383365768
 30
0.0
 10
1050.8492947038
 20
28.1403733339
 30
0.0
 10
1050.8492947038
 20
28.3565421958
 30
0.0
 10
1050.8492947038
 20
28.5711408238
 30
0.0
 10
1050.985119933
 20
28.7700371132
 30
0.0
 10
1051.2135889602
 20
28.7700371132
 30
0.0
 10
1051.4530496244
 20
28.7700371132
 30
0.0
 10
1051.588613148
 20
28.5810856383
 30
0.0
 10
1051.588613148
 20
28.3565421958
 30
0.0
 10
1051.588613148
 20
28.1304285195
 30
0.0
 10
1051.4554049752
 20
27.9383365768
 30
0.0
 10
1051.2135889602
 20
27.9383365768
 30
0.0
  0
SPLINE
  5
23A
100
AcDbEntity
  8
0
100
AcDbSpline
 62
7
  6
CONTINUOUS
 70
2
 71
3
 72
50
 73
46
 74
0
 42
0.0000001
 43
0.0000001
 44
0.0000000001
 40
0.0
 40
0.0
 40
0.0
 40
0.0
 40
1.0
 40
1.0
 40
1.0
 40
2.0
 40
2.0
 40
2.0
 40
3.0
 40
3.0
 40
3.0
 40
4.0
 40
4.0
 40
4.0
 40
5.0
 40
5.0
 40
5.0
 40
6.0
 40
6.0
 40
6.0
 40
7.0
 40
7.0
 40
7.0
 40
8.0
 40
8.0
 40
8.0
 40
9.0
 40
9.0
 40
9.0
 40
10.0
 40
10.0
 40
10.0
 40
11.0
 40
11.0
 40
11.0
 40
12.0
 40
12.0
 40
12.0
 40
13.0
 40
13.0
 40
13.0
 40
14.0
 40
14.0
 40
14.0
 40
15.0
 40
15.0
 40
15.0
 40
15.0
 10
1051.7977159575
 20
28.9333414351
 30
0.0
 10
1051.7977159575
 20
28.9333414351
 30
0.0
 10
1051.5760512771
 20
28.9333414351
 30
0.0
 10
1051.5760512771
 20
28.9333414351
 30
0.0
 10
1051.5760512771
 20
28.9333414351
 30
0.0
 10
1051.5760512771
 20
28.7360153795
 30
0.0
 10
1051.5760512771
 20
28.7360153795
 30
0.0
 10
1051.5760512771
 20
28.7360153795
 30
0.0
 10
1051.5713405755
 20
28.7360153795
 30
0.0
 10
1051.5713405755
 20
28.7360153795
 30
0.0
 10
1051.4800053057
 20
28.8789066611
 30
0.0
 10
1051.3420864314
 20
28.9673631688
 30
0.0
 10
1051.1693607064
 20
28.9673631688
 30
0.0
 10
1050.8369945386
 20
28.9673631688
 30
0.0
 10
1050.6278917291
 20
28.6794869604
 30
0.0
 10
1050.6278917291
 20
28.3638699539
 30
0.0
 10
1050.6278917291
 20
28.0341208425
 30
0.0
 10
1050.824956079
 20
27.7410105213
 30
0.0
 10
1051.1798289321
 20
27.7410105213
 30
0.0
 10
1051.3420864314
 20
27.7410105213
 30
0.0
 10
1051.4820989509
 20
27.8294670289
 30
0.0
 10
1051.5713405755
 20
27.9603198509
 30
0.0
 10
1051.5713405755
 20
27.9603198509
 30
0.0
 10
1051.5760512771
 20
27.9603198509
 30
0.0
 10
1051.5760512771
 20
27.9603198509
 30
0.0
 10
1051.5760512771
 20
27.9603198509
 30
0.0
 10
1051.5760512771
 20
27.7410105213
 30
0.0
 10
1051.5760512771
 20
27.7410105213
 30
0.0
 10
1051.5760512771
 20
27.5044286192
 30
0.0
 10
1051.519522858
 20
27.3175707894
 30
0.0
 10
1051.2463021657
 20
27.3175707894
 30
0.0
 10
1051.0440037029
 20
27.3175707894
 30
0.0
 10
1050.901374127
 20
27.4358617405
 30
0.0
 10
1050.901374127
 20
27.6420857879
 30
0.0
 10
1050.901374127
 20
27.6420857879
 30
0.0
 10
1050.6797094466
 20
27.6420857879
 30
0.0
 10
1050.6797094466
 20
27.6420857879
 30
0.0
 10
1050.6846818538
 20
27.3175707894
 30
0.0
 10
1050.9157679374
 20
27.1207681452
 30
0.0
 10
1051.2360956456
 20
27.1207681452
 30
0.0
 10
1051.684135708
 20
27.1207681452
 30
0.0
 10
1051.7977159575
 20
27.4060272971
 30
0.0
 10
1051.7977159575
 20
27.8027730533
 30
0.0
 10
1051.7977159575
 20
27.8027730533
 30
0.0
 10
1051.7977159575
 20
28.9333414351
 30
0.0
 10
1051.7977159575
 20
28.9333414351
 30
0.0
  0
SPLINE
  5
23B
100
AcDbEntity
  8
0
100
AcDbSpline
 62
7
  6
CONTINUOUS
 70
2
 71
3
 72
44
 73
40
 74
0
 42
0.0000001
 43
0.0000001
 44
0.0000000001
 40
0.0
 40
0.0
 40
0.0
 40
0.0
 40
1.0
 40
1.0
 40
1.0
 40
2.0
 40
2.0
 40
2.0
 40
3.0
 40
3.0
 40
3.0
 40
4.0
 40
4.0
 40
4.0
 40
5.0
 40
5.0
 40
5.0
 40
6.0
 40
6.0
 40
6.0
 40
7.0
 40
7.0
 40
7.0
 40
8.0
 40
8.0
 40
8.0
 40
9.0
 40
9.0
 40
9.0
 40
10.0
 40
10.0
 40
10.0
 40
11.0
 40
11.0
 40
11.0
 40
12.0
 40
12.0
 40
12.0
 40
13.0
 40
13.0
 40
13.0
 40
13.0
 10
1053.3666412929
 20
29.9184014788
 30
0.0
 10
1053.3666412929
 20
29.9184014788
 30
0.0
 10
1053.3666412929
 20
27.7802663679
 30
0.0
 10
1053.3666412929
 20
27.7802663679
 30
0.0
 10
1053.3666412929
 20
27.7802663679
 30
0.0
 10
1053.5880442676
 20
27.7802663679
 30
0.0
 10
1053.5880442676
 20
27.7802663679
 30
0.0
 10
1053.5880442676
 20
27.7802663679
 30
0.0
 10
1053.5880442676
 20
28.3099585912
 30
0.0
 10
1053.5880442676
 20
28.3099585912
 30
0.0
 10
1053.5880442676
 20
28.5198465176
 30
0.0
 10
1053.5880442676
 20
28.7705605245
 30
0.0
 10
1053.8733034195
 20
28.7705605245
 30
0.0
 10
1054.1002022128
 20
28.7705605245
 30
0.0
 10
1054.1271578941
 20
28.6376140574
 30
0.0
 10
1054.1271578941
 20
28.4413348245
 30
0.0
 10
1054.1271578941
 20
28.4413348245
 30
0.0
 10
1054.1271578941
 20
27.7802663679
 30
0.0
 10
1054.1271578941
 20
27.7802663679
 30
0.0
 10
1054.1271578941
 20
27.7802663679
 30
0.0
 10
1054.3490842802
 20
27.7802663679
 30
0.0
 10
1054.3490842802
 20
27.7802663679
 30
0.0
 10
1054.3490842802
 20
27.7802663679
 30
0.0
 10
1054.3490842802
 20
28.4675053889
 30
0.0
 10
1054.3490842802
 20
28.4675053889
 30
0.0
 10
1054.3490842802
 20
28.7480538391
 30
0.0
 10
1054.2650767685
 20
28.9678865801
 30
0.0
 10
1053.9400383587
 20
28.9678865801
 30
0.0
 10
1053.8002875449
 20
28.9678865801
 30
0.0
 10
1053.6621069649
 20
28.9014133465
 30
0.0
 10
1053.5927549692
 20
28.7784116938
 30
0.0
 10
1053.5927549692
 20
28.7784116938
 30
0.0
 10
1053.5880442676
 20
28.7784116938
 30
0.0
 10
1053.5880442676
 20
28.7784116938
 30
0.0
 10
1053.5880442676
 20
28.7784116938
 30
0.0
 10
1053.5880442676
 20
29.9184014788
 30
0.0
 10
1053.5880442676
 20
29.9184014788
 30
0.0
 10
1053.5880442676
 20
29.9184014788
 30
0.0
 10
1053.3666412929
 20
29.9184014788
 30
0.0
 10
1053.3666412929
 20
29.9184014788
 30
0.0
  0
LWPOLYLINE
  5
23C
100
AcDbEntity
  8
0
100
AcDbPolyline
 62
7
  6
CONTINUOUS
 90
2
 70
0
 43
0.2
 10
1056.1888749571
 20
28.7260705651
 10
1056.4053055246
 20
28.7260705651
  0
LWPOLYLINE
  5
23D
100
AcDbEntity
  8
0
100
AcDbPolyline
 62
7
  6
CONTINUOUS
 90
2
 70
0
 43
0.2
 10
1056.4053055246
 20
28.7260705651
 10
1056.4053055246
 20
28.9328180238
  0
LWPOLYLINE
  5
23E
100
AcDbEntity
  8
0
100
AcDbPolyline
 62
7
  6
CONTINUOUS
 90
2
 70
0
 43
0.2
 10
1056.4053055246
 20
28.9328180238
 10
1056.1888749571
 20
28.9328180238
  0
LWPOLYLINE
  5
23F
100
AcDbEntity
  8
0
100
AcDbPolyline
 62
7
  6
CONTINUOUS
 90
2
 70
0
 43
0.2
 10
1056.1888749571
 20
28.9328180238
 10
1056.1888749571
 20
29.3735303282
  0
LWPOLYLINE
  5
240
100
AcDbEntity
  8
0
100
AcDbPolyline
 62
7
  6
CONTINUOUS
 90
2
 70
0
 43
0.2
 10
1056.1888749571
 20
29.3735303282
 10
1055.9672102766
 20
29.3735303282
  0
LWPOLYLINE
  5
241
100
AcDbEntity
  8
0
100
AcDbPolyline
 62
7
  6
CONTINUOUS
 90
2
 70
0
 43
0.2
 10
1055.9672102766
 20
29.3735303282
 10
1055.9672102766
 20
28.9328180238
  0
LWPOLYLINE
  5
242
100
AcDbEntity
  8
0
100
AcDbPolyline
 62
7
  6
CONTINUOUS
 90
2
 70
0
 43
0.2
 10
1055.9672102766
 20
28.9328180238
 10
1055.8465639748
 20
28.9328180238
  0
LWPOLYLINE
  5
243
100
AcDbEntity
  8
0
100
AcDbPolyline
 62
7
  6
CONTINUOUS
 90
2
 70
0
 43
0.2
 10
1055.8465639748
 20
28.9328180238
 10
1055.8465639748
 20
28.7260705651
  0
LWPOLYLINE
  5
244
100
AcDbEntity
  8
0
100
AcDbPolyline
 62
7
  6
CONTINUOUS
 90
2
 70
0
 43
0.2
 10
1055.8465639748
 20
28.7260705651
 10
1055.9672102766
 20
28.7260705651
  0
LWPOLYLINE
  5
245
100
AcDbEntity
  8
0
100
AcDbPolyline
 62
7
  6
CONTINUOUS
 90
2
 70
0
 43
0.2
 10
1055.9672102766
 20
28.7260705651
 10
1055.9672102766
 20
27.7802663679
  0
LWPOLYLINE
  5
246
100
AcDbEntity
  8
0
100
AcDbPolyline
 62
7
  6
CONTINUOUS
 90
2
 70
0
 43
0.2
 10
1055.9672102766
 20
27.7802663679
 10
1056.1888749571
 20
27.7802663679
  0
LWPOLYLINE
  5
247
100
AcDbEntity
  8
0
100
AcDbPolyline
 62
7
  6
CONTINUOUS
 90
2
 70
0
 43
0.2
 10
1056.1888749571
 20
27.7802663679
 10
1056.1888749571
 20
28.7260705651
  0
SPLINE
  5
248
100
AcDbEntity
  8
0
100
AcDbSpline
 62
7
  6
CONTINUOUS
 70
2
 71
3
 72
20
 73
16
 74
0
 42
0.0000001
 43
0.0000001
 44
0.0000000001
 40
0.0
 40
0.0
 40
0.0
 40
0.0
 40
1.0
 40
1.0
 40
1.0
 40
2.0
 40
2.0
 40
2.0
 40
3.0
 40
3.0
 40
3.0
 40
4.0
 40
4.0
 40
4.0
 40
5.0
 40
5.0
 40
5.0
 40
5.0
 10
1043.9708852643
 20
38.1411928113
 30
0.0
 10
1043.9708852643
 20
38.1411928113
 30
0.0
 10
1046.2872419188
 20
35.311631389
 30
0.0
 10
1046.2872419188
 20
35.311631389
 30
0.0
 10
1045.6355948654
 20
34.6594609244
 30
0.0
 10
1044.8587216614
 20
33.9235446536
 30
0.0
 10
1043.8875320167
 20
33.9235446536
 30
0.0
 10
1042.8889941323
 20
33.9235446536
 30
0.0
 10
1041.9456761387
 20
34.8531231009
 30
0.0
 10
1041.9456761387
 20
35.8523152494
 30
0.0
 10
1041.9456761387
 20
36.851507398
 30
0.0
 10
1043.1245292118
 20
37.5581126366
 30
0.0
 10
1043.8460516721
 20
38.0579704165
 30
0.0
 10
1043.8460516721
 20
38.0579704165
 30
0.0
 10
1043.9708852643
 20
38.1411928113
 30
0.0
 10
1043.9708852643
 20
38.1411928113
 30
0.0
  0
SPLINE
  5
249
100
AcDbEntity
  8
0
100
AcDbSpline
 62
7
  6
CONTINUOUS
 70
2
 71
3
 72
23
 73
19
 74
0
 42
0.0000001
 43
0.0000001
 44
0.0000000001
 40
0.0
 40
0.0
 40
0.0
 40
0.0
 40
1.0
 40
1.0
 40
1.0
 40
2.0
 40
2.0
 40
2.0
 40
3.0
 40
3.0
 40
3.0
 40
4.0
 40
4.0
 40
4.0
 40
5.0
 40
5.0
 40
5.0
 40
6.0
 40
6.0
 40
6.0
 40
6.0
 10
1044.2482932469
 20
39.778946731
 30
0.0
 10
1044.2482932469
 20
39.778946731
 30
0.0
 10
1043.9017949743
 20
40.2222760918
 30
0.0
 10
1043.9017949743
 20
40.2222760918
 30
0.0
 10
1043.5959919294
 20
40.6103855618
 30
0.0
 10
1043.2771036022
 20
40.9988875902
 30
0.0
 10
1043.2771036022
 20
41.5258319043
 30
0.0
 10
1043.2771036022
 20
42.1920036209
 30
0.0
 10
1043.8184417267
 20
42.6357255402
 30
0.0
 10
1044.4423479818
 20
42.6357255402
 30
0.0
 10
1045.1361296439
 20
42.6357255402
 30
0.0
 10
1045.6633356636
 20
42.2334839655
 30
0.0
 10
1045.6633356636
 20
41.4984836645
 30
0.0
 10
1045.6633356636
 20
40.735219154
 30
0.0
 10
1044.9420749089
 20
40.3051059281
 30
0.0
 10
1044.4149997421
 20
39.8893865128
 30
0.0
 10
1044.4149997421
 20
39.8893865128
 30
0.0
 10
1044.2482932469
 20
39.778946731
 30
0.0
 10
1044.2482932469
 20
39.778946731
 30
0.0
  0
SPLINE
  5
24A
100
AcDbEntity
  8
0
100
AcDbSpline
 62
7
  6
CONTINUOUS
 70
2
 71
3
 72
50
 73
46
 74
0
 42
0.0000001
 43
0.0000001
 44
0.0000000001
 40
0.0
 40
0.0
 40
0.0
 40
0.0
 40
1.0
 40
1.0
 40
1.0
 40
2.0
 40
2.0
 40
2.0
 40
3.0
 40
3.0
 40
3.0
 40
4.0
 40
4.0
 40
4.0
 40
5.0
 40
5.0
 40
5.0
 40
6.0
 40
6.0
 40
6.0
 40
7.0
 40
7.0
 40
7.0
 40
8.0
 40
8.0
 40
8.0
 40
9.0
 40
9.0
 40
9.0
 40
10.0
 40
10.0
 40
10.0
 40
11.0
 40
11.0
 40
11.0
 40
12.0
 40
12.0
 40
12.0
 40
13.0
 40
13.0
 40
13.0
 40
14.0
 40
14.0
 40
14.0
 40
15.0
 40
15.0
 40
15.0
 40
15.0
 10
1048.2018804098
 20
32.9803575129
 30
0.0
 10
1048.2018804098
 20
32.9803575129
 30
0.0
 10
1049.8111084144
 20
32.9803575129
 30
0.0
 10
1049.8111084144
 20
32.9803575129
 30
0.0
 10
1049.8111084144
 20
32.9803575129
 30
0.0
 10
1047.9380811207
 20
35.2974992843
 30
0.0
 10
1047.9380811207
 20
35.2974992843
 30
0.0
 10
1047.9380811207
 20
35.2974992843
 30
0.0
 10
1049.2144195462
 20
36.7949789789
 30
0.0
 10
1049.2144195462
 20
36.7949789789
 30
0.0
 10
1049.2144195462
 20
36.7949789789
 30
0.0
 10
1048.3821955985
 20
37.6559905474
 30
0.0
 10
1048.3821955985
 20
37.6559905474
 30
0.0
 10
1048.3821955985
 20
37.6559905474
 30
0.0
 10
1047.1616004752
 20
36.240686425
 30
0.0
 10
1047.1616004752
 20
36.240686425
 30
0.0
 10
1047.1616004752
 20
36.240686425
 30
0.0
 10
1044.9836861063
 20
38.8760622594
 30
0.0
 10
1044.9836861063
 20
38.8760622594
 30
0.0
 10
1045.8572595458
 20
39.5141006193
 30
0.0
 10
1046.8839307869
 20
40.3051059281
 30
0.0
 10
1046.8839307869
 20
41.4839590012
 30
0.0
 10
1046.8839307869
 20
42.8576519263
 30
0.0
 10
1045.7460346471
 20
43.6621350757
 30
0.0
 10
1044.4707430442
 20
43.6621350757
 30
0.0
 10
1043.0973118248
 20
43.6621350757
 30
0.0
 10
1042.0563776261
 20
42.8159098761
 30
0.0
 10
1042.0563776261
 20
41.3732575139
 30
0.0
 10
1042.0563776261
 20
40.4856828225
 30
0.0
 10
1042.6117170025
 20
39.7088096184
 30
0.0
 10
1043.2078824594
 20
39.084379952
 30
0.0
 10
1043.2078824594
 20
39.084379952
 30
0.0
 10
1042.5559737004
 20
38.6127863816
 30
0.0
 10
1042.5559737004
 20
38.6127863816
 30
0.0
 10
1041.5574358159
 20
37.891525627
 30
0.0
 10
1040.7245576041
 20
37.1702648723
 30
0.0
 10
1040.7245576041
 20
35.8387065559
 30
0.0
 10
1040.7245576041
 20
34.0350312579
 30
0.0
 10
1042.1816037767
 20
32.7584311268
 30
0.0
 10
1043.9291432141
 20
32.7584311268
 30
0.0
 10
1045.164001295
 20
32.7584311268
 30
0.0
 10
1046.2733715196
 20
33.4666065993
 30
0.0
 10
1047.0642459756
 20
34.395138224
 30
0.0
 10
1047.0642459756
 20
34.395138224
 30
0.0
 10
1048.2018804098
 20
32.9803575129
 30
0.0
 10
1048.2018804098
 20
32.9803575129
 30
0.0
  0
LINE
  5
24B
100
AcDbEntity
  8
0
100
AcDbLine
 62
7
  6
CONTINUOUS
 10
1034.0047417848
 20
30.9542324175
 11
1056.4186525124
 21
30.9542324175
  0
LINE
  5
24C
100
AcDbEntity
  8
0
100
AcDbLine
 62
7
  6
CONTINUOUS
 10
1056.4186525124
 20
30.9542324175
 11
1056.4186525124
 21
53.3681431452
  0
LINE
  5
24D
100
AcDbEntity
  8
0
100
AcDbLine
 62
7
  6
CONTINUOUS
 10
1056.4186525124
 20
53.3681431452
 11
1034.0047417848
 21
53.3681431452
  0
LINE
  5
24E
100
AcDbEntity
  8
0
100
AcDbLine
 62
7
  6
CONTINUOUS
 10
1034.0047417848
 20
53.3681431452
 11
1034.0047417848
 21
30.9542324175
  0
ENDBLK
  5
24F
100
AcDbEntity
  8
0
  6
BYBLOCK
 62
0
100
AcDbBlockEnd
  0
BLOCK
  5
250
100
AcDbEntity
  8
0
100
AcDbBlockBegin
  2
_CLOSED
 70
64
 10
0.0
 20
0.0
  3
_CLOSED
  1

  0
LINE
  5
251
100
AcDbEntity
  8
0
  6
BYBLOCK
 62
0
100
AcDbLine
 10
0.0
 20
0.0
 11
-1.0
 21
0.2
  0
LINE
  5
252
100
AcDbEntity
  8
0
  6
BYBLOCK
 62
0
100
AcDbLine
 10
-1.0
 20
0.2
 11
-1.0
 21
-0.2
  0
LINE
  5
253
100
AcDbEntity
  8
0
  6
BYBLOCK
 62
0
100
AcDbLine
 10
-1.0
 20
-0.2
 11
0.0
 21
0.0
  0
LINE
  5
254
100
AcDbEntity
  8
0
  6
BYBLOCK
 62
0
100
AcDbLine
 10
-1.0
 20
0.0
 11
0.0
 21
0.0
  0
ENDBLK
  5
255
100
AcDbEntity
  8
0
  6
BYBLOCK
 62
0
100
AcDbBlockEnd
  0
BLOCK
  5
256
100
AcDbEntity
  8
0
100
AcDbBlockBegin
 62
7
  6
CONTINUOUS
  2
*D0
 70
65
 10
0.0
 20
0.0
  3
*D0
  1

  0
MTEXT
  5
257
100
AcDbEntity
  8
0
100
AcDbMText
 62
7
  6
CONTINUOUS
  7
STANDARD
 71
2
 72
1
 10
370.8237798943
 20
693.313503174
 30
0.0
 11
1.0
 21
0.0
 31
0.0
  1
633,5
 40
10.0
 41
34.9442379182
  0
LINE
  5
258
100
AcDbEntity
  8
0
100
AcDbLine
 62
7
  6
CONTINUOUS
 10
54.0737798943
 20
661.7326190787
 11
54.0737798943
 21
681.563503174
  0
LINE
  5
259
100
AcDbEntity
  8
0
100
AcDbLine
 62
7
  6
CONTINUOUS
 10
687.5737798943
 20
663.3789986152
 11
687.5737798943
 21
681.563503174
  0
LINE
  5
25A
100
AcDbEntity
  8
0
100
AcDbLine
 62
7
  6
CONTINUOUS
 10
54.0737798943
 20
680.813503174
 11
370.8237798943
 21
680.813503174
  0
LINE
  5
25B
100
AcDbEntity
  8
0
100
AcDbLine
 62
7
  6
CONTINUOUS
 10
687.5737798943
 20
680.813503174
 11
370.8237798943
 21
680.813503174
  0
INSERT
  5
25C
100
AcDbEntity
  8
0
100
AcDbBlockReference
 62
7
  6
CONTINUOUS
  2
_CLOSED
 10
54.0737798943
 20
680.813503174
 41
2.5
 42
2.5
 43
2.5
 50
180.0
  0
INSERT
  5
25D
100
AcDbEntity
  8
0
100
AcDbBlockReference
 62
7
  6
CONTINUOUS
  2
_CLOSED
 10
687.5737798943
 20
680.813503174
 41
2.5
 42
2.5
 43
2.5
  0
ENDBLK
  5
25E
100
AcDbEntity
  8
0
  6
BYBLOCK
 62
0
100
AcDbBlockEnd
  0
BLOCK
  5
25F
100
AcDbEntity
  8
0
100
AcDbBlockBegin
 62
7
  6
CONTINUOUS
  2
*D1
 70
65
 10
0.0
 20
0.0
  3
*D1
  1

  0
MTEXT
  5
260
100
AcDbEntity
  8
0
100
AcDbMText
 62
7
  6
CONTINUOUS
  7
STANDARD
 71
2
 72
1
 10
724.8429197485
 20
338.8881124426
 30
0.0
 11
0.0
 21
1.0
 31
0.0
  1
633,5
 40
10.0
 41
34.9442379182
  0
LINE
  5
261
100
AcDbEntity
  8
0
100
AcDbLine
 62
7
  6
CONTINUOUS
 10
715.0691062986
 20
655.6381124426
 11
738.0929197485
 21
655.6381124426
  0
LINE
  5
262
100
AcDbEntity
  8
0
100
AcDbLine
 62
7
  6
CONTINUOUS
 10
726.5445251669
 20
22.1381124426
 11
738.0929197485
 21
22.1381124426
  0
LINE
  5
263
100
AcDbEntity
  8
0
100
AcDbLine
 62
7
  6
CONTINUOUS
 10
737.3429197485
 20
655.6381124426
 11
737.3429197485
 21
338.8881124426
  0
LINE
  5
264
100
AcDbEntity
  8
0
100
AcDbLine
 62
7
  6
CONTINUOUS
 10
737.3429197485
 20
22.1381124426
 11
737.3429197485
 21
338.8881124426
  0
INSERT
  5
265
100
AcDbEntity
  8
0
100
AcDbBlockReference
 62
7
  6
CONTINUOUS
  2
_CLOSED
 10
737.3429197485
 20
655.6381124426
 41
2.5
 42
2.5
 43
2.5
 50
90.0
  0
INSERT
  5
266
100
AcDbEntity
  8
0
100
AcDbBlockReference
 62
7
  6
CONTINUOUS
  2
_CLOSED
 10
737.3429197485
 20
22.1381124426
 41
2.5
 42
2.5
 43
2.5
 50
270.0
  0
ENDBLK
  5
267
100
AcDbEntity
  8
0
  6
BYBLOCK
 62
0
100
AcDbBlockEnd
  0
BLOCK
  5
268
100
AcDbEntity
  8
0
100
AcDbBlockBegin
 62
7
  6
CONTINUOUS
  2
*D2
 70
65
 10
0.0
 20
0.0
  3
*D2
  1

  0
MTEXT
  5
269
100
AcDbEntity
  8
0
100
AcDbMText
 62
7
  6
CONTINUOUS
  7
STANDARD
 71
2
 72
1
 10
882.9672379032
 20
700.4554386579
 30
0.0
 11
1.0
 21
0.0
 31
0.0
  1
109,9
 40
10.0
 41
34.9442379182
  0
LINE
  5
26A
100
AcDbEntity
  8
0
100
AcDbLine
 62
7
  6
CONTINUOUS
 10
828.0172379032
 20
677.8323401193
 11
828.0172379032
 21
688.7054386579
  0
LINE
  5
26B
100
AcDbEntity
  8
0
100
AcDbLine
 62
7
  6
CONTINUOUS
 10
937.9172379032
 20
675.8116799056
 11
937.9172379032
 21
688.7054386579
  0
LINE
  5
26C
100
AcDbEntity
  8
0
100
AcDbLine
 62
7
  6
CONTINUOUS
 10
828.0172379032
 20
687.9554386579
 11
882.9672379032
 21
687.9554386579
  0
LINE
  5
26D
100
AcDbEntity
  8
0
100
AcDbLine
 62
7
  6
CONTINUOUS
 10
937.9172379032
 20
687.9554386579
 11
882.9672379032
 21
687.9554386579
  0
INSERT
  5
26E
100
AcDbEntity
  8
0
100
AcDbBlockReference
 62
7
  6
CONTINUOUS
  2
_CLOSED
 10
828.0172379032
 20
687.9554386579
 41
2.5
 42
2.5
 43
2.5
 50
180.0
  0
INSERT
  5
26F
100
AcDbEntity
  8
0
100
AcDbBlockReference
 62
7
  6
CONTINUOUS
  2
_CLOSED
 10
937.9172379032
 20
687.9554386579
 41
2.5
 42
2.5
 43
2.5
  0
ENDBLK
  5
270
100
AcDbEntity
  8
0
  6
BYBLOCK
 62
0
100
AcDbBlockEnd
  0
ENDSEC
  0
SECTION
  2
ENTITIES
  0
DIMENSION
  5
271
100
AcDbEntity
  8
0
100
AcDbDimension
 62
7
  6
CONTINUOUS
  2
*D0
 10
687.5737798943
 20
680.813503174
 11
370.7839604492
 21
680.813503174
 70
160
  3
DIMSTYLE_1
100
AcDbAlignedDimension
 13
54.0737798943
 23
660.9826190787
 14
687.5737798943
 24
662.6289986152
100
AcDbRotatedDimension
  0
DIMENSION
  5
272
100
AcDbEntity
  8
0
100
AcDbDimension
 62
7
  6
CONTINUOUS
  2
*D1
 10
737.3429197485
 20
22.1381124426
 11
737.3429197485
 21
338.8483082932
 70
160
  3
DIMSTYLE_1
100
AcDbAlignedDimension
 13
714.3191062986
 23
655.6381124426
 14
725.7945251669
 24
22.1381124426
 50
270.0
100
AcDbRotatedDimension
  0
DIMENSION
  5
273
100
AcDbEntity
  8
0
100
AcDbDimension
 62
7
  6
CONTINUOUS
  2
*D2
 10
937.9172379032
 20
687.9554386579
 11
883.3920934448
 21
687.9554386579
 70
160
  3
DIMSTYLE_2
100
AcDbAlignedDimension
 13
828.0172379032
 23
677.0823401193
 14
937.9172379032
 24
675.0616799056
100
AcDbRotatedDimension
  0
LINE
  5
274
100
AcDbEntity
  8
0
100
AcDbLine
 62
2
  6
CONTINUOUS
 10
1031.3855846774
 20
53.7444556452
 11
1121.3855846774
 21
53.7444556452
  0
LINE
  5
275
100
AcDbEntity
  8
0
100
AcDbLine
 62
2
  6
CONTINUOUS
 10
1031.3855846774
 20
53.7444556452
 11
1031.3855846774
 21
13.7444556452
  0
LINE
  5
276
100
AcDbEntity
  8
0
100
AcDbLine
 62
2
  6
CONTINUOUS
 10
1061.3855846774
 20
47.7444556452
 11
1121.3855846774
 21
47.7444556452
  0
LINE
  5
277
100
AcDbEntity
  8
0
100
AcDbLine
 62
2
  6
CONTINUOUS
 10
1061.3855846774
 20
41.7444556452
 11
1121.3855846774
 21
41.7444556452
  0
LINE
  5
278
100
AcDbEntity
  8
0
100
AcDbLine
 62
2
  6
CONTINUOUS
 10
1061.3855846774
 20
31.7444556452
 11
1121.3855846774
 21
31.7444556452
  0
LINE
  5
279
100
AcDbEntity
  8
0
100
AcDbLine
 62
2
  6
CONTINUOUS
 10
1031.3855846774
 20
26.7444556452
 11
1121.3855846774
 21
26.7444556452
  0
LINE
  5
27A
100
AcDbEntity
  8
0
100
AcDbLine
 62
2
  6
CONTINUOUS
 10
1031.3855846774
 20
13.7444556452
 11
1121.3855846774
 21
13.7444556452
  0
LINE
  5
27B
100
AcDbEntity
  8
0
100
AcDbLine
 62
2
  6
CONTINUOUS
 10
1061.3855846774
 20
53.7444556452
 11
1061.3855846774
 21
26.7444556452
  0
LINE
  5
27C
100
AcDbEntity
  8
0
100
AcDbLine
 62
2
  6
CONTINUOUS
 10
1101.3855846774
 20
53.7444556452
 11
1101.3855846774
 21
41.7444556452
  0
LINE
  5
27D
100
AcDbEntity
  8
0
100
AcDbLine
 62
2
  6
CONTINUOUS
 10
1121.3855846774
 20
53.7444556452
 11
1121.3855846774
 21
13.7444556452
  0
INSERT
  5
27E
100
AcDbEntity
  8
0
100
AcDbBlockReference
 62
2
  6
CONTINUOUS
  2
LOGO2_BL0
 10
1045.2116317222
 20
40.2444556452
  0
MTEXT
  5
27F
100
AcDbEntity
  8
9_SOLID
100
AcDbMText
 62
2
  6
CONTINUOUS
  7
TEXTSTYLE_2
 71
1
 72
1
 10
1062.8730846774
 20
52.2444556452
 30
0.0
 11
1.0
 21
0.0
 31
0.0
  1
6F4_C_410
 40
3.0
 41
31.6071428571
  0
MTEXT
  5
280
100
AcDbEntity
  8
0
100
AcDbMText
 62
2
  6
CONTINUOUS
  7
TEXTSTYLE_2
 71
1
 72
1
 10
1102.8730846774
 20
51.9944556452
 30
0.0
 11
1.0
 21
0.0
 31
0.0
  1
Rev:00
 40
3.5
 41
22.75
  0
MTEXT
  5
281
100
AcDbEntity
  8
9_SOLID
100
AcDbMText
 62
2
  6
CONTINUOUS
  7
TEXTSTYLE_2
 71
1
 72
1
 10
1062.8730846774
 20
45.9944556452
 30
0.0
 11
1.0
 21
0.0
 31
0.0
  1
Scale:1:1
 40
3.5
 41
28.375
  0
MTEXT
  5
282
100
AcDbEntity
  8
9_SOLID
100
AcDbMText
 62
2
  6
CONTINUOUS
  7
TEXTSTYLE_2
 71
1
 72
1
 10
1102.8730846774
 20
46.4944556452
 30
0.0
 11
1.0
 21
0.0
 31
0.0
  1
A0
 40
3.5
 41
9.625
  0
MTEXT
  5
283
100
AcDbEntity
  8
0
100
AcDbMText
 62
2
  6
CONTINUOUS
  7
TEXTSTYLE_2
 71
1
 72
1
 10
1062.8730846774
 20
38.4944556452
 30
0.0
 11
1.0
 21
0.0
 31
0.0
  1
CASS. A FILO BRENTA2   A SCENDERE 90°
 40
3.5
 41
152.4625
  0
MTEXT
  5
284
100
AcDbEntity
  8
0
100
AcDbMText
 62
2
  6
CONTINUOUS
  7
TEXTSTYLE_2
 71
1
 72
1
 10
1062.8730846774
 20
30.4944556452
 30
0.0
 11
1.0
 21
0.0
 31
0.0
  1
DATE:08/05/18
 40
2.5
 41
36.875
  0
MTEXT
  5
285
100
AcDbEntity
  8
9_SOLID
100
AcDbMText
 62
2
  6
CONTINUOUS
  7
TEXTSTYLE_2
 71
1
 72
1
 10
1032.8730846774
 20
26.4319556452
 30
0.0
 11
1.0
 21
0.0
 31
0.0
  1
Any integral or partial reproductions are prohibited \Pwithout prior authorisation of L {\Ftxt.shx;\W0.190476;\H2.250000; }& L Luce & Light s.r.l., \Pin accordance with the law in force. \PAll rights reserved.
 40
2.25
 41
134.5982142857
  0
LINE
  5
286
100
AcDbEntity
  8
0
100
AcDbLine
 62
7
  6
CONTINUOUS
 10
0.0
 20
0.0
 11
0.0
 21
841.0
  0
LINE
  5
287
100
AcDbEntity
  8
0
100
AcDbLine
 62
7
  6
CONTINUOUS
 10
0.0
 20
0.0
 11
1189.0
 21
0.0
  0
LINE
  5
288
100
AcDbEntity
  8
0
100
AcDbLine
 62
7
  6
CONTINUOUS
 10
0.0
 20
841.0
 11
1189.0
 21
841.0
  0
LINE
  5
289
100
AcDbEntity
  8
0
100
AcDbLine
 62
7
  6
CONTINUOUS
 10
1189.0
 20
0.0
 11
1189.0
 21
841.0
  0
LINE
  5
28A
100
AcDbEntity
  8
3_ALL_AXES
100
AcDbLine
 62
7
  6
CONTINUOUS
 10
54.0737798943
 20
582.1381124426
 11
54.0737798943
 21
582.2881124426
  0
LINE
  5
28B
100
AcDbEntity
  8
7_ALL_FEATURES
100
AcDbLine
 62
7
  6
CONTINUOUS
 10
54.0737798943
 20
579.6381124426
 11
54.0737798943
 21
582.1381124426
  0
LINE
  5
28C
100
AcDbEntity
  8
7_ALL_FEATURES
100
AcDbLine
 62
7
  6
CONTINUOUS
 10
54.0737798943
 20
582.2881124426
 11
54.0737798943
 21
655.6381124426
  0
LINE
  5
28D
100
AcDbEntity
  8
6_ALL_SURFS
100
AcDbLine
 62
7
  6
CONTINUOUS
 10
611.5737798943
 20
22.1381124426
 11
687.5737798943
 21
22.1381124426
  0
LINE
  5
28E
100
AcDbEntity
  8
7_ALL_FEATURES
100
AcDbLine
 62
7
  6
CONTINUOUS
 10
624.2737798943
 20
622.3701632502
 11
622.7737798943
 21
621.5041378464
  0
LINE
  5
28F
100
AcDbEntity
  8
7_ALL_FEATURES
100
AcDbLine
 62
7
  6
CONTINUOUS
 10
624.2737798943
 20
618.9060616351
 11
625.7737798943
 21
619.7720870389
  0
LINE
  5
290
100
AcDbEntity
  8
7_ALL_FEATURES
100
AcDbLine
 62
7
  6
CONTINUOUS
 10
652.5737798943
 20
606.5701632502
 11
651.0737798943
 21
605.7041378464
  0
LINE
  5
291
100
AcDbEntity
  8
7_ALL_FEATURES
100
AcDbLine
 62
7
  6
CONTINUOUS
 10
652.5737798943
 20
603.1060616351
 11
654.0737798943
 21
603.9720870389
  0
LINE
  5
292
100
AcDbEntity
  8
7_ALL_FEATURES
100
AcDbLine
 62
7
  6
CONTINUOUS
 10
640.0737798943
 20
608.1381124426
 11
611.5737798943
 21
579.6381124426
  0
LINE
  5
293
100
AcDbEntity
  8
7_ALL_FEATURES
100
AcDbLine
 62
7
  6
CONTINUOUS
 10
687.5737798943
 20
655.6381124426
 11
665.0737798943
 21
633.1381124426
  0
LINE
  5
294
100
AcDbEntity
  8
7_ALL_FEATURES
100
AcDbLine
 62
3
  6
CONTINUOUS
 10
610.0737798943
 20
608.1381124426
 11
610.0737798943
 21
633.1381124426
  0
LINE
  5
295
100
AcDbEntity
  8
7_ALL_FEATURES
100
AcDbLine
 62
7
  6
CONTINUOUS
 10
611.5737798943
 20
22.1381124426
 11
611.5737798943
 21
579.6381124426
  0
LINE
  5
296
100
AcDbEntity
  8
7_ALL_FEATURES
100
AcDbLine
 62
9
  6
CONTINUOUS
 10
611.7737798943
 20
22.1381124426
 11
611.7737798943
 21
579.8381124426
  0
LINE
  5
297
100
AcDbEntity
  8
7_ALL_FEATURES
100
AcDbLine
 62
9
  6
CONTINUOUS
 10
612.8737798943
 20
580.9381124426
 11
612.8737798943
 21
22.1381124426
  0
LINE
  5
298
100
AcDbEntity
  8
7_ALL_FEATURES
100
AcDbLine
 62
7
  6
CONTINUOUS
 10
613.0737798943
 20
581.1381124426
 11
613.0737798943
 21
567.4215202363
  0
LINE
  5
299
100
AcDbEntity
  8
6_ALL_SURFS
100
AcDbLine
 62
7
  6
CONTINUOUS
 10
613.0737798943
 20
567.4215202363
 11
613.0737798943
 21
22.1381124426
  0
LINE
  5
29A
100
AcDbEntity
  8
7_ALL_FEATURES
100
AcDbLine
 62
9
  6
CONTINUOUS
 10
613.2883270534
 20
581.3526596017
 11
613.2883270534
 21
22.1381124426
  0
LINE
  5
29B
100
AcDbEntity
  8
7_ALL_FEATURES
100
AcDbLine
 62
3
  6
CONTINUOUS
 10
665.0737798943
 20
578.1381124426
 11
640.0737798943
 21
578.1381124426
  0
LINE
  5
29C
100
AcDbEntity
  8
7_ALL_FEATURES
100
AcDbLine
 62
7
  6
CONTINUOUS
 10
54.0737798943
 20
579.6381124426
 11
611.5737798943
 21
579.6381124426
  0
LINE
  5
29D
100
AcDbEntity
  8
7_ALL_FEATURES
100
AcDbLine
 62
9
  6
CONTINUOUS
 10
54.0737798943
 20
579.8381124426
 11
611.7737798943
 21
579.8381124426
  0
LINE
  5
29E
100
AcDbEntity
  8
7_ALL_FEATURES
100
AcDbLine
 62
9
  6
CONTINUOUS
 10
612.8737798943
 20
580.9381124426
 11
54.0737798943
 21
580.9381124426
  0
LINE
  5
29F
100
AcDbEntity
  8
7_ALL_FEATURES
100
AcDbLine
 62
7
  6
CONTINUOUS
 10
613.0737798943
 20
581.1381124426
 11
54.0737798943
 21
581.1381124426
  0
LINE
  5
2A0
100
AcDbEntity
  8
7_ALL_FEATURES
100
AcDbLine
 62
9
  6
CONTINUOUS
 10
613.2883270534
 20
581.3526596017
 11
54.0737798943
 21
581.3526596017
  0
LINE
  5
2A1
100
AcDbEntity
  8
7_ALL_FEATURES
100
AcDbLine
 62
7
  6
CONTINUOUS
 10
614.0737798943
 20
582.1381124426
 11
614.0737798943
 21
22.1381124426
  0
LINE
  5
2A2
100
AcDbEntity
  8
7_ALL_FEATURES
100
AcDbLine
 62
7
  6
CONTINUOUS
 10
614.2237798943
 20
582.2881124426
 11
614.2237798943
 21
564.1381124426
  0
LINE
  5
2A3
100
AcDbEntity
  8
6_ALL_SURFS
100
AcDbLine
 62
7
  6
CONTINUOUS
 10
614.2237798943
 20
564.1381124426
 11
614.2237798943
 21
22.1381124426
  0
LINE
  5
2A4
100
AcDbEntity
  8
7_ALL_FEATURES
100
AcDbLine
 62
9
  6
CONTINUOUS
 10
615.5737798943
 20
22.1381124426
 11
615.5737798943
 21
583.6381124426
  0
LINE
  5
2A5
100
AcDbEntity
  8
7_ALL_FEATURES
100
AcDbLine
 62
9
  6
CONTINUOUS
 10
616.5967774344
 20
22.1381124426
 11
616.5967774344
 21
584.6611099827
  0
LINE
  5
2A6
100
AcDbEntity
  8
7_ALL_FEATURES
100
AcDbLine
 62
9
  6
CONTINUOUS
 10
618.7591410175
 20
586.8234735658
 11
618.7591410175
 21
22.1381124426
  0
LINE
  5
2A7
100
AcDbEntity
  8
7_ALL_FEATURES
100
AcDbLine
 62
9
  6
CONTINUOUS
 10
618.9637405255
 20
587.0280730738
 11
618.9637405255
 21
22.1381124426
  0
LINE
  5
2A8
100
AcDbEntity
  8
7_ALL_FEATURES
100
AcDbLine
 62
9
  6
CONTINUOUS
 10
620.3737798943
 20
588.4381124426
 11
620.3737798943
 21
22.1381124426
  0
LINE
  5
2A9
100
AcDbEntity
  8
7_ALL_FEATURES
100
AcDbLine
 62
7
  6
CONTINUOUS
 10
620.6737798943
 20
22.1381124426
 11
620.6737798943
 21
588.7381124426
  0
LINE
  5
2AA
100
AcDbEntity
  8
7_ALL_FEATURES
100
AcDbLine
 62
9
  6
CONTINUOUS
 10
622.1737798943
 20
22.1381124426
 11
622.1737798943
 21
590.2381124426
  0
LINE
  5
2AB
100
AcDbEntity
  8
7_ALL_FEATURES
100
AcDbLine
 62
7
  6
CONTINUOUS
 10
622.7737798943
 20
621.5041378464
 11
622.7737798943
 21
619.7720870389
  0
LINE
  5
2AC
100
AcDbEntity
  8
7_ALL_FEATURES
100
AcDbLine
 62
9
  6
CONTINUOUS
 10
624.9737798943
 20
22.1381124426
 11
624.9737798943
 21
593.0381124426
  0
LINE
  5
2AD
100
AcDbEntity
  8
7_ALL_FEATURES
100
AcDbLine
 62
7
  6
CONTINUOUS
 10
625.7737798943
 20
619.7720870389
 11
625.7737798943
 21
621.5041378464
  0
LINE
  5
2AE
100
AcDbEntity
  8
7_ALL_FEATURES
100
AcDbLine
 62
7
  6
CONTINUOUS
 10
626.4737798943
 20
22.1381124426
 11
626.4737798943
 21
594.5381124426
  0
LINE
  5
2AF
100
AcDbEntity
  8
7_ALL_FEATURES
100
AcDbLine
 62
9
  6
CONTINUOUS
 10
626.7737798943
 20
594.8381124426
 11
626.7737798943
 21
22.1381124426
  0
LINE
  5
2B0
100
AcDbEntity
  8
7_ALL_FEATURES
100
AcDbLine
 62
3
  6
CONTINUOUS
 10
640.0737798943
 20
578.1381124426
 11
640.0737798943
 21
608.1381124426
  0
LINE
  5
2B1
100
AcDbEntity
  8
7_ALL_FEATURES
100
AcDbLine
 62
7
  6
CONTINUOUS
 10
614.0737798943
 20
582.1381124426
 11
54.0737798943
 21
582.1381124426
  0
LINE
  5
2B2
100
AcDbEntity
  8
7_ALL_FEATURES
100
AcDbLine
 62
7
  6
CONTINUOUS
 10
614.2237798943
 20
582.2881124426
 11
54.0737798943
 21
582.2881124426
  0
LINE
  5
2B3
100
AcDbEntity
  8
7_ALL_FEATURES
100
AcDbLine
 62
9
  6
CONTINUOUS
 10
54.0737798943
 20
583.6381124426
 11
615.5737798943
 21
583.6381124426
  0
LINE
  5
2B4
100
AcDbEntity
  8
7_ALL_FEATURES
100
AcDbLine
 62
9
  6
CONTINUOUS
 10
54.0737798943
 20
584.6611099827
 11
616.5967774344
 21
584.6611099827
  0
LINE
  5
2B5
100
AcDbEntity
  8
7_ALL_FEATURES
100
AcDbLine
 62
9
  6
CONTINUOUS
 10
618.7591410175
 20
586.8234735658
 11
54.0737798943
 21
586.8234735658
  0
LINE
  5
2B6
100
AcDbEntity
  8
7_ALL_FEATURES
100
AcDbLine
 62
9
  6
CONTINUOUS
 10
618.9637405255
 20
587.0280730738
 11
54.0737798943
 21
587.0280730738
  0
LINE
  5
2B7
100
AcDbEntity
  8
7_ALL_FEATURES
100
AcDbLine
 62
9
  6
CONTINUOUS
 10
620.3737798943
 20
588.4381124426
 11
54.0737798943
 21
588.4381124426
  0
LINE
  5
2B8
100
AcDbEntity
  8
7_ALL_FEATURES
100
AcDbLine
 62
7
  6
CONTINUOUS
 10
54.0737798943
 20
588.7381124426
 11
620.6737798943
 21
588.7381124426
  0
LINE
  5
2B9
100
AcDbEntity
  8
7_ALL_FEATURES
100
AcDbLine
 62
9
  6
CONTINUOUS
 10
54.0737798943
 20
590.2381124426
 11
622.1737798943
 21
590.2381124426
  0
LINE
  5
2BA
100
AcDbEntity
  8
7_ALL_FEATURES
100
AcDbLine
 62
9
  6
CONTINUOUS
 10
54.0737798943
 20
593.0381124426
 11
624.9737798943
 21
593.0381124426
  0
LINE
  5
2BB
100
AcDbEntity
  8
7_ALL_FEATURES
100
AcDbLine
 62
7
  6
CONTINUOUS
 10
54.0737798943
 20
594.5381124426
 11
626.4737798943
 21
594.5381124426
  0
LINE
  5
2BC
100
AcDbEntity
  8
7_ALL_FEATURES
100
AcDbLine
 62
9
  6
CONTINUOUS
 10
626.7737798943
 20
594.8381124426
 11
54.0737798943
 21
594.8381124426
  0
LINE
  5
2BD
100
AcDbEntity
  8
7_ALL_FEATURES
100
AcDbLine
 62
3
  6
CONTINUOUS
 10
640.0737798943
 20
608.1381124426
 11
610.0737798943
 21
608.1381124426
  0
LINE
  5
2BE
100
AcDbEntity
  8
7_ALL_FEATURES
100
AcDbLine
 62
7
  6
CONTINUOUS
 10
651.0737798943
 20
605.7041378464
 11
651.0737798943
 21
603.9720870389
  0
LINE
  5
2BF
100
AcDbEntity
  8
7_ALL_FEATURES
100
AcDbLine
 62
7
  6
CONTINUOUS
 10
654.0737798943
 20
603.9720870389
 11
654.0737798943
 21
605.7041378464
  0
LINE
  5
2C0
100
AcDbEntity
  8
7_ALL_FEATURES
100
AcDbLine
 62
9
  6
CONTINUOUS
 10
661.996165279
 20
22.1381124426
 11
661.996165279
 21
578.1381124426
  0
LINE
  5
2C1
100
AcDbEntity
  8
7_ALL_FEATURES
100
AcDbLine
 62
9
  6
CONTINUOUS
 10
662.9508734807
 20
22.1381124426
 11
662.9508734807
 21
578.1381124426
  0
LINE
  5
2C2
100
AcDbEntity
  8
7_ALL_FEATURES
100
AcDbLine
 62
3
  6
CONTINUOUS
 10
665.0737798943
 20
633.1381124426
 11
665.0737798943
 21
578.1381124426
  0
LINE
  5
2C3
100
AcDbEntity
  8
7_ALL_FEATURES
100
AcDbLine
 62
9
  6
CONTINUOUS
 10
54.0737798943
 20
630.0604978273
 11
610.0737798943
 21
630.0604978273
  0
LINE
  5
2C4
100
AcDbEntity
  8
7_ALL_FEATURES
100
AcDbLine
 62
9
  6
CONTINUOUS
 10
54.0737798943
 20
631.0152060291
 11
610.0737798943
 21
631.0152060291
  0
LINE
  5
2C5
100
AcDbEntity
  8
7_ALL_FEATURES
100
AcDbLine
 62
3
  6
CONTINUOUS
 10
610.0737798943
 20
633.1381124426
 11
665.0737798943
 21
633.1381124426
  0
LINE
  5
2C6
100
AcDbEntity
  8
7_ALL_FEATURES
100
AcDbLine
 62
9
  6
CONTINUOUS
 10
680.9601923549
 20
22.1381124426
 11
680.9601923549
 21
649.0245249032
  0
LINE
  5
2C7
100
AcDbEntity
  8
7_ALL_FEATURES
100
AcDbLine
 62
7
  6
CONTINUOUS
 10
682.1737798943
 20
22.1381124426
 11
682.1737798943
 21
650.2381124426
  0
LINE
  5
2C8
100
AcDbEntity
  8
7_ALL_FEATURES
100
AcDbLine
 62
9
  6
CONTINUOUS
 10
682.9237798943
 20
650.9881124427
 11
682.9237798943
 21
22.1381124426
  0
LINE
  5
2C9
100
AcDbEntity
  8
7_ALL_FEATURES
100
AcDbLine
 62
9
  6
CONTINUOUS
 10
685.814102475
 20
653.8784350233
 11
685.814102475
 21
22.1381124426
  0
LINE
  5
2CA
100
AcDbEntity
  8
7_ALL_FEATURES
100
AcDbLine
 62
7
  6
CONTINUOUS
 10
686.2737798943
 20
22.1381124426
 11
686.2737798943
 21
654.3381124426
  0
LINE
  5
2CB
100
AcDbEntity
  8
7_ALL_FEATURES
100
AcDbLine
 62
9
  6
CONTINUOUS
 10
686.5737798943
 20
22.1381124426
 11
686.5737798943
 21
654.6381124426
  0
LINE
  5
2CC
100
AcDbEntity
  8
7_ALL_FEATURES
100
AcDbLine
 62
9
  6
CONTINUOUS
 10
687.2737798943
 20
22.1381124426
 11
687.2737798943
 21
655.3381124426
  0
LINE
  5
2CD
100
AcDbEntity
  8
7_ALL_FEATURES
100
AcDbLine
 62
7
  6
CONTINUOUS
 10
687.5737798943
 20
22.1381124426
 11
687.5737798943
 21
655.6381124426
  0
LINE
  5
2CE
100
AcDbEntity
  8
7_ALL_FEATURES
100
AcDbLine
 62
9
  6
CONTINUOUS
 10
54.0737798943
 20
649.0245249032
 11
680.9601923549
 21
649.0245249032
  0
LINE
  5
2CF
100
AcDbEntity
  8
7_ALL_FEATURES
100
AcDbLine
 62
7
  6
CONTINUOUS
 10
54.0737798943
 20
650.2381124426
 11
682.1737798943
 21
650.2381124426
  0
LINE
  5
2D0
100
AcDbEntity
  8
7_ALL_FEATURES
100
AcDbLine
 62
9
  6
CONTINUOUS
 10
682.9237798943
 20
650.9881124427
 11
54.0737798943
 21
650.9881124427
  0
LINE
  5
2D1
100
AcDbEntity
  8
7_ALL_FEATURES
100
AcDbLine
 62
9
  6
CONTINUOUS
 10
685.814102475
 20
653.8784350233
 11
54.0737798943
 21
653.8784350233
  0
LINE
  5
2D2
100
AcDbEntity
  8
7_ALL_FEATURES
100
AcDbLine
 62
7
  6
CONTINUOUS
 10
54.0737798943
 20
654.3381124426
 11
686.2737798943
 21
654.3381124426
  0
LINE
  5
2D3
100
AcDbEntity
  8
7_ALL_FEATURES
100
AcDbLine
 62
9
  6
CONTINUOUS
 10
54.0737798943
 20
654.6381124426
 11
686.5737798943
 21
654.6381124426
  0
LINE
  5
2D4
100
AcDbEntity
  8
7_ALL_FEATURES
100
AcDbLine
 62
9
  6
CONTINUOUS
 10
54.0737798943
 20
655.3381124426
 11
687.2737798943
 21
655.3381124426
  0
LINE
  5
2D5
100
AcDbEntity
  8
7_ALL_FEATURES
100
AcDbLine
 62
7
  6
CONTINUOUS
 10
54.0737798943
 20
655.6381124426
 11
687.5737798943
 21
655.6381124426
  0
LINE
  5
2D6
100
AcDbEntity
  8
7_ALL_FEATURES
100
AcDbLine
 62
7
  6
CONTINUOUS
 10
622.7737798943
 20
619.7720870389
 11
624.2737798943
 21
618.9060616351
  0
LINE
  5
2D7
100
AcDbEntity
  8
7_ALL_FEATURES
100
AcDbLine
 62
7
  6
CONTINUOUS
 10
651.0737798943
 20
603.9720870389
 11
652.5737798943
 21
603.1060616351
  0
LINE
  5
2D8
100
AcDbEntity
  8
7_ALL_FEATURES
100
AcDbLine
 62
7
  6
CONTINUOUS
 10
625.7737798943
 20
621.5041378464
 11
624.2737798943
 21
622.3701632502
  0
LINE
  5
2D9
100
AcDbEntity
  8
7_ALL_FEATURES
100
AcDbLine
 62
7
  6
CONTINUOUS
 10
654.0737798943
 20
605.7041378464
 11
652.5737798943
 21
606.5701632502
  0
LINE
  5
2DA
100
AcDbEntity
  8
3_ALL_AXES
100
AcDbLine
 62
7
  6
CONTINUOUS
 10
845.8172379032
 20
22.1381124426
 11
830.5172379032
 21
22.1381124426
  0
LINE
  5
2DB
100
AcDbEntity
  8
7_ALL_FEATURES
100
AcDbLine
 62
7
  6
CONTINUOUS
 10
830.5172379032
 20
22.1381124426
 11
828.0172424028
 21
22.1381124426
  0
LINE
  5
2DC
100
AcDbEntity
  8
7_ALL_FEATURES
100
AcDbLine
 62
7
  6
CONTINUOUS
 10
845.8172379032
 20
22.1381124426
 11
916.2672379032
 21
22.1381124426
  0
LINE
  5
2DD
100
AcDbEntity
  8
6_ALL_SURFS
100
AcDbLine
 62
7
  6
CONTINUOUS
 10
916.304014651
 20
22.1381124426
 11
937.9172334036
 21
22.1381124426
  0
LINE
  5
2DE
100
AcDbEntity
  8
7_ALL_FEATURES
100
AcDbLine
 62
7
  6
CONTINUOUS
 10
913.2764659079
 20
630.2873118464
 11
913.0491456895
 21
630.2045740532
  0
LINE
  5
2DF
100
AcDbEntity
  8
6_ALL_SURFS
100
AcDbLine
 62
7
  6
CONTINUOUS
 10
852.2672379032
 20
592.4464028195
 11
852.2283036621
 21
592.4239241249
  0
LINE
  5
2E0
100
AcDbEntity
  8
6_ALL_SURFS
100
AcDbLine
 62
7
  6
CONTINUOUS
 10
830.2172379032
 20
582.1381124426
 11
830.5172379032
 21
582.2881124426
  0
LINE
  5
2E1
100
AcDbEntity
  8
6_ALL_SURFS
100
AcDbLine
 62
7
  6
CONTINUOUS
 10
833.2172379032
 20
582.1381124426
 11
833.5172379032
 21
582.2881124426
  0
LINE
  5
2E2
100
AcDbEntity
  8
6_ALL_SURFS
100
AcDbLine
 62
7
  6
CONTINUOUS
 10
836.2172379032
 20
582.1381124426
 11
836.5172379032
 21
582.2881124426
  0
LINE
  5
2E3
100
AcDbEntity
  8
6_ALL_SURFS
100
AcDbLine
 62
7
  6
CONTINUOUS
 10
839.2172379032
 20
582.1381124426
 11
839.5172379032
 21
582.2881124426
  0
LINE
  5
2E4
100
AcDbEntity
  8
6_ALL_SURFS
100
AcDbLine
 62
7
  6
CONTINUOUS
 10
842.2172379032
 20
582.1381124426
 11
842.5172379032
 21
582.2881124426
  0
LINE
  5
2E5
100
AcDbEntity
  8
6_ALL_SURFS
100
AcDbLine
 62
7
  6
CONTINUOUS
 10
845.2172379032
 20
582.1381124426
 11
845.5172379032
 21
582.2881124426
  0
LINE
  5
2E6
100
AcDbEntity
  8
7_ALL_FEATURES
100
AcDbLine
 62
7
  6
CONTINUOUS
 10
845.4172379032
 20
622.6381124426
 11
845.9172379032
 21
623.1381124426
  0
LINE
  5
2E7
100
AcDbEntity
  8
3_ALL_AXES
100
AcDbLine
 62
7
  6
CONTINUOUS
 10
853.1172379032
 20
625.6381124426
 11
852.4172379032
 21
624.9381124426
  0
LINE
  5
2E8
100
AcDbEntity
  8
7_ALL_FEATURES
100
AcDbLine
 62
7
  6
CONTINUOUS
 10
881.4672379032
 20
653.6381124426
 11
881.2672379032
 21
653.4381124426
  0
LINE
  5
2E9
100
AcDbEntity
  8
7_ALL_FEATURES
100
AcDbLine
 62
7
  6
CONTINUOUS
 10
845.4172379032
 20
606.8381124426
 11
845.9172379032
 21
607.3381124426
  0
LINE
  5
2EA
100
AcDbEntity
  8
3_ALL_AXES
100
AcDbLine
 62
7
  6
CONTINUOUS
 10
853.1172379032
 20
609.8381124426
 11
852.4172379032
 21
609.1381124426
  0
LINE
  5
2EB
100
AcDbEntity
  8
6_ALL_SURFS
100
AcDbLine
 62
7
  6
CONTINUOUS
 10
848.4202073508
 20
584.6611099827
 11
850.4366440137
 21
586.8234735658
  0
LINE
  5
2EC
100
AcDbEntity
  8
6_ALL_SURFS
100
AcDbLine
 62
7
  6
CONTINUOUS
 10
850.8270481344
 20
585.0427119507
 11
849.5978317927
 21
583.724538808
  0
LINE
  5
2ED
100
AcDbEntity
  8
3_ALL_AXES
100
AcDbLine
 62
7
  6
CONTINUOUS
 10
850.2710569989
 20
583.8201108027
 11
850.6354848121
 21
584.2109117867
  0
LINE
  5
2EE
100
AcDbEntity
  8
3_ALL_AXES
100
AcDbLine
 62
7
  6
CONTINUOUS
 10
851.2205677734
 20
583.6653130986
 11
850.8561399602
 21
583.2745121147
  0
LINE
  5
2EF
100
AcDbEntity
  8
7_ALL_FEATURES
100
AcDbLine
 62
7
  6
CONTINUOUS
 10
852.3293699376
 20
589.050244477
 11
852.2051058689
 21
588.9259804083
  0
LINE
  5
2F0
100
AcDbEntity
  8
7_ALL_FEATURES
100
AcDbLine
 62
7
  6
CONTINUOUS
 10
913.7061721443
 20
590.8523007604
 11
913.6672379032
 21
590.8298220658
  0
LINE
  5
2F1
100
AcDbEntity
  8
3_ALL_AXES
100
AcDbLine
 62
7
  6
CONTINUOUS
 10
920.4172379032
 20
582.2881124426
 11
920.1172379032
 21
582.1381124426
  0
LINE
  5
2F2
100
AcDbEntity
  8
3_ALL_AXES
100
AcDbLine
 62
7
  6
CONTINUOUS
 10
923.4172379032
 20
582.2881124426
 11
923.1172379032
 21
582.1381124426
  0
LINE
  5
2F3
100
AcDbEntity
  8
3_ALL_AXES
100
AcDbLine
 62
7
  6
CONTINUOUS
 10
926.4172379032
 20
582.2881124426
 11
926.1172379032
 21
582.1381124426
  0
LINE
  5
2F4
100
AcDbEntity
  8
3_ALL_AXES
100
AcDbLine
 62
7
  6
CONTINUOUS
 10
929.4172379032
 20
582.2881124426
 11
929.1172379032
 21
582.1381124426
  0
LINE
  5
2F5
100
AcDbEntity
  8
3_ALL_AXES
100
AcDbLine
 62
7
  6
CONTINUOUS
 10
932.4172379032
 20
582.2881124426
 11
932.1172379032
 21
582.1381124426
  0
LINE
  5
2F6
100
AcDbEntity
  8
3_ALL_AXES
100
AcDbLine
 62
7
  6
CONTINUOUS
 10
935.4172379032
 20
582.2881124426
 11
935.1172379032
 21
582.1381124426
  0
LINE
  5
2F7
100
AcDbEntity
  8
6_ALL_SURFS
100
AcDbLine
 62
7
  6
CONTINUOUS
 10
860.8030495855
 20
653.7491782016
 11
861.8070237377
 21
655.4881124427
  0
LINE
  5
2F8
100
AcDbEntity
  8
3_ALL_AXES
100
AcDbLine
 62
7
  6
CONTINUOUS
 10
912.8172379032
 20
615.6381124426
 11
913.5172379032
 21
616.3381124426
  0
LINE
  5
2F9
100
AcDbEntity
  8
7_ALL_FEATURES
100
AcDbLine
 62
7
  6
CONTINUOUS
 10
920.5172379032
 20
618.6381124426
 11
920.1172379032
 21
618.2381124426
  0
LINE
  5
2FA
100
AcDbEntity
  8
3_ALL_AXES
100
AcDbLine
 62
7
  6
CONTINUOUS
 10
912.8172379032
 20
587.3381124426
 11
913.5172379032
 21
588.0381124426
  0
LINE
  5
2FB
100
AcDbEntity
  8
7_ALL_FEATURES
100
AcDbLine
 62
7
  6
CONTINUOUS
 10
913.7293699376
 20
586.950244477
 11
913.6051058689
 21
586.8259804083
  0
LINE
  5
2FC
100
AcDbEntity
  8
7_ALL_FEATURES
100
AcDbLine
 62
7
  6
CONTINUOUS
 10
920.5172379032
 20
590.3381124426
 11
920.1172379032
 21
589.9381124426
  0
LINE
  5
2FD
100
AcDbEntity
  8
6_ALL_SURFS
100
AcDbLine
 62
7
  6
CONTINUOUS
 10
853.0646318602
 20
629.820060224
 11
852.435330117
 21
628.0910678944
  0
LINE
  5
2FE
100
AcDbEntity
  8
7_ALL_FEATURES
100
AcDbLine
 62
7
  6
CONTINUOUS
 10
907.7070237377
 20
655.4881124427
 11
906.7030495855
 21
653.7491782016
  0
LINE
  5
2FF
100
AcDbEntity
  8
6_ALL_SURFS
100
AcDbLine
 62
7
  6
CONTINUOUS
 10
855.8885925044
 20
648.2335169403
 11
852.4661277865
 21
630.6264623313
  0
LINE
  5
300
100
AcDbEntity
  8
6_ALL_SURFS
100
AcDbLine
 62
7
  6
CONTINUOUS
 10
850.9092309504
 20
631.0152060291
 11
854.4124135258
 21
649.0245249032
  0
LINE
  5
301
100
AcDbEntity
  8
7_ALL_FEATURES
100
AcDbLine
 62
7
  6
CONTINUOUS
 10
915.215539169
 20
581.9789539115
 11
915.2023536254
 21
581.9541555106
  0
LINE
  5
302
100
AcDbEntity
  8
7_ALL_FEATURES
100
AcDbLine
 62
7
  6
CONTINUOUS
 10
828.0172379032
 20
581.7444090847
 11
828.0172379032
 21
22.1381124426
  0
LINE
  5
303
100
AcDbEntity
  8
7_ALL_FEATURES
100
AcDbLine
 62
9
  6
CONTINUOUS
 10
828.3717663128
 20
581.3526596017
 11
828.3717663128
 21
22.1381124426
  0
LINE
  5
304
100
AcDbEntity
  8
7_ALL_FEATURES
100
AcDbLine
 62
7
  6
CONTINUOUS
 10
830.5172379032
 20
581.1381124426
 11
830.5172379032
 21
567.4215202363
  0
LINE
  5
305
100
AcDbEntity
  8
7_ALL_FEATURES
100
AcDbLine
 62
7
  6
CONTINUOUS
 10
830.5172379032
 20
560.8547046489
 11
830.5172379032
 21
317.4215202363
  0
LINE
  5
306
100
AcDbEntity
  8
7_ALL_FEATURES
100
AcDbLine
 62
7
  6
CONTINUOUS
 10
830.5172379032
 20
310.8547046489
 11
830.5172379032
 21
67.4215202363
  0
LINE
  5
307
100
AcDbEntity
  8
7_ALL_FEATURES
100
AcDbLine
 62
7
  6
CONTINUOUS
 10
830.5172379032
 20
60.8547046489
 11
830.5172379032
 21
22.1381124426
  0
LINE
  5
308
100
AcDbEntity
  8
7_ALL_FEATURES
100
AcDbLine
 62
7
  6
CONTINUOUS
 10
833.2172379032
 20
581.1381124426
 11
833.2172379032
 21
568.8700007274
  0
LINE
  5
309
100
AcDbEntity
  8
7_ALL_FEATURES
100
AcDbLine
 62
7
  6
CONTINUOUS
 10
833.2172379032
 20
559.4062241579
 11
833.2172379032
 21
318.8700007274
  0
LINE
  5
30A
100
AcDbEntity
  8
7_ALL_FEATURES
100
AcDbLine
 62
7
  6
CONTINUOUS
 10
833.2172379032
 20
309.4062241579
 11
833.2172379032
 21
68.8700007274
  0
LINE
  5
30B
100
AcDbEntity
  8
7_ALL_FEATURES
100
AcDbLine
 62
7
  6
CONTINUOUS
 10
833.2172379032
 20
59.4062241579
 11
833.2172379032
 21
22.1381124426
  0
LINE
  5
30C
100
AcDbEntity
  8
7_ALL_FEATURES
100
AcDbLine
 62
7
  6
CONTINUOUS
 10
833.8172379032
 20
581.1381124426
 11
833.8172379032
 21
568.9329812354
  0
LINE
  5
30D
100
AcDbEntity
  8
7_ALL_FEATURES
100
AcDbLine
 62
7
  6
CONTINUOUS
 10
833.8172379032
 20
559.3432436499
 11
833.8172379032
 21
318.9329812354
  0
LINE
  5
30E
100
AcDbEntity
  8
7_ALL_FEATURES
100
AcDbLine
 62
7
  6
CONTINUOUS
 10
833.8172379032
 20
309.3432436499
 11
833.8172379032
 21
68.9329812354
  0
LINE
  5
30F
100
AcDbEntity
  8
7_ALL_FEATURES
100
AcDbLine
 62
7
  6
CONTINUOUS
 10
833.8172379032
 20
59.3432436499
 11
833.8172379032
 21
22.1381124426
  0
LINE
  5
310
100
AcDbEntity
  8
7_ALL_FEATURES
100
AcDbLine
 62
7
  6
CONTINUOUS
 10
836.2172379032
 20
581.1381124426
 11
836.2172379032
 21
568.4031759521
  0
LINE
  5
311
100
AcDbEntity
  8
7_ALL_FEATURES
100
AcDbLine
 62
7
  6
CONTINUOUS
 10
836.2172379032
 20
559.8730489332
 11
836.2172379032
 21
318.4031759521
  0
LINE
  5
312
100
AcDbEntity
  8
7_ALL_FEATURES
100
AcDbLine
 62
7
  6
CONTINUOUS
 10
836.2172379032
 20
309.8730489332
 11
836.2172379032
 21
68.4031759521
  0
LINE
  5
313
100
AcDbEntity
  8
7_ALL_FEATURES
100
AcDbLine
 62
7
  6
CONTINUOUS
 10
836.2172379032
 20
59.8730489332
 11
836.2172379032
 21
22.1381124426
  0
LINE
  5
314
100
AcDbEntity
  8
7_ALL_FEATURES
100
AcDbLine
 62
7
  6
CONTINUOUS
 10
836.8172379032
 20
581.1381124426
 11
836.8172379032
 21
568.03564586
  0
LINE
  5
315
100
AcDbEntity
  8
7_ALL_FEATURES
100
AcDbLine
 62
7
  6
CONTINUOUS
 10
836.8172379032
 20
560.2405790252
 11
836.8172379032
 21
318.03564586
  0
LINE
  5
316
100
AcDbEntity
  8
7_ALL_FEATURES
100
AcDbLine
 62
7
  6
CONTINUOUS
 10
836.8172379032
 20
310.2405790252
 11
836.8172379032
 21
68.03564586
  0
LINE
  5
317
100
AcDbEntity
  8
7_ALL_FEATURES
100
AcDbLine
 62
7
  6
CONTINUOUS
 10
836.8172379032
 20
60.2405790252
 11
836.8172379032
 21
22.1381124426
  0
LINE
  5
318
100
AcDbEntity
  8
7_ALL_FEATURES
100
AcDbLine
 62
7
  6
CONTINUOUS
 10
839.2172379032
 20
581.1381124426
 11
839.2172379032
 21
22.1381124426
  0
LINE
  5
319
100
AcDbEntity
  8
7_ALL_FEATURES
100
AcDbLine
 62
7
  6
CONTINUOUS
 10
839.8172379032
 20
581.1381124426
 11
839.8172379032
 21
22.1381124426
  0
LINE
  5
31A
100
AcDbEntity
  8
7_ALL_FEATURES
100
AcDbLine
 62
7
  6
CONTINUOUS
 10
842.2172379032
 20
581.1381124426
 11
842.2172379032
 21
22.1381124426
  0
LINE
  5
31B
100
AcDbEntity
  8
7_ALL_FEATURES
100
AcDbLine
 62
7
  6
CONTINUOUS
 10
842.8172379032
 20
581.1381124426
 11
842.8172379032
 21
22.1381124426
  0
LINE
  5
31C
100
AcDbEntity
  8
7_ALL_FEATURES
100
AcDbLine
 62
7
  6
CONTINUOUS
 10
845.2172379032
 20
581.1381124426
 11
845.2172379032
 21
22.1381124426
  0
LINE
  5
31D
100
AcDbEntity
  8
7_ALL_FEATURES
100
AcDbLine
 62
7
  6
CONTINUOUS
 10
845.4172379032
 20
602.8381124426
 11
845.4172379032
 21
606.8381124426
  0
LINE
  5
31E
100
AcDbEntity
  8
7_ALL_FEATURES
100
AcDbLine
 62
7
  6
CONTINUOUS
 10
845.4172379032
 20
618.6381124426
 11
845.4172379032
 21
622.6381124426
  0
LINE
  5
31F
100
AcDbEntity
  8
3_ALL_AXES
100
AcDbLine
 62
7
  6
CONTINUOUS
 10
845.8172379032
 20
622.4881124426
 11
845.8172379032
 21
613.7881124426
  0
LINE
  5
320
100
AcDbEntity
  8
3_ALL_AXES
100
AcDbLine
 62
7
  6
CONTINUOUS
 10
845.8172379032
 20
606.9881124426
 11
845.8172379032
 21
598.2881124426
  0
LINE
  5
321
100
AcDbEntity
  8
7_ALL_FEATURES
100
AcDbLine
 62
7
  6
CONTINUOUS
 10
845.8172379032
 20
581.1381124426
 11
845.8172379032
 21
22.1381124426
  0
LINE
  5
322
100
AcDbEntity
  8
7_ALL_FEATURES
100
AcDbLine
 62
7
  6
CONTINUOUS
 10
845.9172379032
 20
606.9881124426
 11
845.9172379032
 21
607.3381124426
  0
LINE
  5
323
100
AcDbEntity
  8
7_ALL_FEATURES
100
AcDbLine
 62
7
  6
CONTINUOUS
 10
845.9172379032
 20
622.4881124426
 11
845.9172379032
 21
623.1381124426
  0
LINE
  5
324
100
AcDbEntity
  8
7_ALL_FEATURES
100
AcDbLine
 62
3
  6
CONTINUOUS
 10
847.8172379032
 20
630.6381124426
 11
847.8172379032
 21
582.1381124426
  0
LINE
  5
325
100
AcDbEntity
  8
7_ALL_FEATURES
100
AcDbLine
 62
7
  6
CONTINUOUS
 10
847.9172379032
 20
582.1381124426
 11
847.9172379032
 21
590.2381124426
  0
LINE
  5
326
100
AcDbEntity
  8
6_ALL_SURFS
100
AcDbLine
 62
7
  6
CONTINUOUS
 10
847.9172379032
 20
590.2381124426
 11
847.9172379032
 21
593.0381124426
  0
LINE
  5
327
100
AcDbEntity
  8
6_ALL_SURFS
100
AcDbLine
 62
7
  6
CONTINUOUS
 10
848.0172379032
 20
582.1381124426
 11
848.0172379032
 21
583.6381124426
  0
LINE
  5
328
100
AcDbEntity
  8
7_ALL_FEATURES
100
AcDbLine
 62
9
  6
CONTINUOUS
 10
848.1172379032
 20
581.1381124426
 11
848.1172379032
 21
22.1381124426
  0
LINE
  5
329
100
AcDbEntity
  8
7_ALL_FEATURES
100
AcDbLine
 62
7
  6
CONTINUOUS
 10
848.3172379032
 20
22.1381124426
 11
848.3172379032
 21
579.8381124426
  0
LINE
  5
32A
100
AcDbEntity
  8
6_ALL_SURFS
100
AcDbLine
 62
7
  6
CONTINUOUS
 10
848.3172379032
 20
579.8381124426
 11
848.3172379032
 21
580.9381124426
  0
LINE
  5
32B
100
AcDbEntity
  8
7_ALL_FEATURES
100
AcDbLine
 62
9
  6
CONTINUOUS
 10
848.5172379032
 20
22.1381124426
 11
848.5172379032
 21
579.6381124426
  0
LINE
  5
32C
100
AcDbEntity
  8
7_ALL_FEATURES
100
AcDbLine
 62
9
  6
CONTINUOUS
 10
849.3172379032
 20
22.1381124426
 11
849.3172379032
 21
579.6381124426
  0
LINE
  5
32D
100
AcDbEntity
  8
7_ALL_FEATURES
100
AcDbLine
 62
9
  6
CONTINUOUS
 10
849.4172379032
 20
585.7302943501
 11
849.4172379032
 21
588.7381124426
  0
LINE
  5
32E
100
AcDbEntity
  8
6_ALL_SURFS
100
AcDbLine
 62
7
  6
CONTINUOUS
 10
849.5172379032
 20
583.5199393
 11
849.5172379032
 21
582.4381124426
  0
LINE
  5
32F
100
AcDbEntity
  8
6_ALL_SURFS
100
AcDbLine
 62
7
  6
CONTINUOUS
 10
849.5172379032
 20
580.4381124426
 11
849.5172379032
 21
579.8381124426
  0
LINE
  5
330
100
AcDbEntity
  8
7_ALL_FEATURES
100
AcDbLine
 62
7
  6
CONTINUOUS
 10
849.5172379032
 20
22.1381124426
 11
849.5172379032
 21
579.8381124426
  0
LINE
  5
331
100
AcDbEntity
  8
7_ALL_FEATURES
100
AcDbLine
 62
9
  6
CONTINUOUS
 10
849.5978317927
 20
583.724538808
 11
849.5978317927
 21
582.2349061786
  0
LINE
  5
332
100
AcDbEntity
  8
7_ALL_FEATURES
100
AcDbLine
 62
7
  6
CONTINUOUS
 10
849.6672379032
 20
579.1381124426
 11
849.6672379032
 21
22.1381124426
  0
LINE
  5
333
100
AcDbEntity
  8
7_ALL_FEATURES
100
AcDbLine
 62
7
  6
CONTINUOUS
 10
849.6672379032
 20
579.8381124426
 11
849.6672379032
 21
580.4381124426
  0
LINE
  5
334
100
AcDbEntity
  8
7_ALL_FEATURES
100
AcDbLine
 62
9
  6
CONTINUOUS
 10
849.7172379032
 20
580.6381124426
 11
849.7172379032
 21
580.5690806912
  0
LINE
  5
335
100
AcDbEntity
  8
7_ALL_FEATURES
100
AcDbLine
 62
9
  6
CONTINUOUS
 10
849.7172379032
 20
579.7071441941
 11
849.7172379032
 21
579.1381124426
  0
LINE
  5
336
100
AcDbEntity
  8
7_ALL_FEATURES
100
AcDbLine
 62
9
  6
CONTINUOUS
 10
849.8672379032
 20
579.1381124426
 11
849.8672379032
 21
22.1381124426
  0
LINE
  5
337
100
AcDbEntity
  8
7_ALL_FEATURES
100
AcDbLine
 62
9
  6
CONTINUOUS
 10
850.2172379032
 20
588.7381124426
 11
850.2172379032
 21
586.5881893181
  0
LINE
  5
338
100
AcDbEntity
  8
6_ALL_SURFS
100
AcDbLine
 62
7
  6
CONTINUOUS
 10
850.5172379032
 20
587.0280730738
 11
850.5172379032
 21
588.4381124426
  0
LINE
  5
339
100
AcDbEntity
  8
7_ALL_FEATURES
100
AcDbLine
 62
9
  6
CONTINUOUS
 10
850.5672379032
 20
579.1381124426
 11
850.5672379032
 21
579.6381124426
  0
LINE
  5
33A
100
AcDbEntity
  8
6_ALL_SURFS
100
AcDbLine
 62
7
  6
CONTINUOUS
 10
850.7672379032
 20
581.8133140418
 11
850.7672379032
 21
580.8381124426
  0
LINE
  5
33B
100
AcDbEntity
  8
7_ALL_FEATURES
100
AcDbLine
 62
7
  6
CONTINUOUS
 10
850.7672379032
 20
579.1381124426
 11
850.7672379032
 21
579.6381124426
  0
LINE
  5
33C
100
AcDbEntity
  8
7_ALL_FEATURES
100
AcDbLine
 62
7
  6
CONTINUOUS
 10
850.7672379032
 20
580.6452867203
 11
850.7672379032
 21
580.8381124426
  0
LINE
  5
33D
100
AcDbEntity
  8
7_ALL_FEATURES
100
AcDbLine
 62
7
  6
CONTINUOUS
 10
850.8172379032
 20
630.6381124426
 11
850.8172379032
 21
630.0604978273
  0
LINE
  5
33E
100
AcDbEntity
  8
6_ALL_SURFS
100
AcDbLine
 62
7
  6
CONTINUOUS
 10
850.8172379032
 20
594.8381124426
 11
850.8172379032
 21
630.0604978273
  0
LINE
  5
33F
100
AcDbEntity
  8
7_ALL_FEATURES
100
AcDbLine
 62
9
  6
CONTINUOUS
 10
850.8270481344
 20
585.0427119507
 11
850.8270481344
 21
584.3248093661
  0
LINE
  5
340
100
AcDbEntity
  8
7_ALL_FEATURES
100
AcDbLine
 62
9
  6
CONTINUOUS
 10
850.8270481344
 20
583.2334161844
 11
850.8270481344
 21
583.0430353515
  0
LINE
  5
341
100
AcDbEntity
  8
7_ALL_FEATURES
100
AcDbLine
 62
9
  6
CONTINUOUS
 10
850.8270481344
 20
581.8710513394
 11
850.8270481344
 21
580.6711216163
  0
LINE
  5
342
100
AcDbEntity
  8
7_ALL_FEATURES
100
AcDbLine
 62
9
  6
CONTINUOUS
 10
850.8270481344
 20
579.6381124426
 11
850.8270481344
 21
579.1381124426
  0
LINE
  5
343
100
AcDbEntity
  8
7_ALL_FEATURES
100
AcDbLine
 62
7
  6
CONTINUOUS
 10
850.9172379032
 20
580.8381124426
 11
850.9172379032
 21
581.4581124426
  0
LINE
  5
344
100
AcDbEntity
  8
7_ALL_FEATURES
100
AcDbLine
 62
9
  6
CONTINUOUS
 10
851.0464542449
 20
585.1381124426
 11
851.0464542449
 21
584.3195238602
  0
LINE
  5
345
100
AcDbEntity
  8
7_ALL_FEATURES
100
AcDbLine
 62
9
  6
CONTINUOUS
 10
851.0464542449
 20
583.4785991987
 11
851.0464542449
 21
582.8582941199
  0
LINE
  5
346
100
AcDbEntity
  8
7_ALL_FEATURES
100
AcDbLine
 62
9
  6
CONTINUOUS
 10
851.0464542449
 20
579.6381124426
 11
851.0464542449
 21
579.1381124426
  0
LINE
  5
347
100
AcDbEntity
  8
7_ALL_FEATURES
100
AcDbLine
 62
7
  6
CONTINUOUS
 10
851.7172379032
 20
581.4581124426
 11
851.7172379032
 21
581.3381124426
  0
LINE
  5
348
100
AcDbEntity
  8
7_ALL_FEATURES
100
AcDbLine
 62
9
  6
CONTINUOUS
 10
851.8512288323
 20
590.7885467586
 11
851.8512288323
 21
592.4876781267
  0
LINE
  5
349
100
AcDbEntity
  8
7_ALL_FEATURES
100
AcDbLine
 62
7
  6
CONTINUOUS
 10
852.1172379032
 20
588.7138483739
 11
852.1172379032
 21
587.1623765114
  0
LINE
  5
34A
100
AcDbEntity
  8
7_ALL_FEATURES
100
AcDbLine
 62
9
  6
CONTINUOUS
 10
852.1172379032
 20
579.1381124426
 11
852.1172379032
 21
579.6381124426
  0
LINE
  5
34B
100
AcDbEntity
  8
7_ALL_FEATURES
100
AcDbLine
 62
9
  6
CONTINUOUS
 10
852.1172379032
 20
581.1381124426
 11
852.1172379032
 21
585.1381124426
  0
LINE
  5
34C
100
AcDbEntity
  8
7_ALL_FEATURES
100
AcDbLine
 62
9
  6
CONTINUOUS
 10
852.2051058689
 20
588.9259804083
 11
852.2051058689
 21
586.950244477
  0
LINE
  5
34D
100
AcDbEntity
  8
7_ALL_FEATURES
100
AcDbLine
 62
9
  6
CONTINUOUS
 10
852.2283036621
 20
590.8523007604
 11
852.2283036621
 21
592.4239241249
  0
LINE
  5
34E
100
AcDbEntity
  8
7_ALL_FEATURES
100
AcDbLine
 62
9
  6
CONTINUOUS
 10
852.2672379032
 20
590.8298220658
 11
852.2672379032
 21
592.4464028195
  0
LINE
  5
34F
100
AcDbEntity
  8
7_ALL_FEATURES
100
AcDbLine
 62
9
  6
CONTINUOUS
 10
852.3293699376
 20
586.8259804083
 11
852.3293699376
 21
589.050244477
  0
LINE
  5
350
100
AcDbEntity
  8
6_ALL_SURFS
100
AcDbLine
 62
7
  6
CONTINUOUS
 10
852.4172379032
 20
627.9884618514
 11
852.4172379032
 21
592.7062104406
  0
LINE
  5
351
100
AcDbEntity
  8
7_ALL_FEATURES
100
AcDbLine
 62
7
  6
CONTINUOUS
 10
852.4172379032
 20
579.1381124426
 11
852.4172379032
 21
579.6381124426
  0
LINE
  5
352
100
AcDbEntity
  8
7_ALL_FEATURES
100
AcDbLine
 62
7
  6
CONTINUOUS
 10
852.4172379032
 20
581.1381124426
 11
852.4172379032
 21
592.7062104406
  0
LINE
  5
353
100
AcDbEntity
  8
7_ALL_FEATURES
100
AcDbLine
 62
9
  6
CONTINUOUS
 10
852.435330117
 20
628.0910678944
 11
852.435330117
 21
624.9562046564
  0
LINE
  5
354
100
AcDbEntity
  8
7_ALL_FEATURES
100
AcDbLine
 62
9
  6
CONTINUOUS
 10
852.435330117
 20
616.3200202289
 11
852.435330117
 21
609.1562046564
  0
LINE
  5
355
100
AcDbEntity
  8
7_ALL_FEATURES
100
AcDbLine
 62
9
  6
CONTINUOUS
 10
852.435330117
 20
600.5200202289
 11
852.435330117
 21
581.1381124426
  0
LINE
  5
356
100
AcDbEntity
  8
7_ALL_FEATURES
100
AcDbLine
 62
9
  6
CONTINUOUS
 10
852.435330117
 20
579.6381124426
 11
852.435330117
 21
579.1381124426
  0
LINE
  5
357
100
AcDbEntity
  8
7_ALL_FEATURES
100
AcDbLine
 62
9
  6
CONTINUOUS
 10
853.0646318602
 20
579.1381124426
 11
853.0646318602
 21
579.6381124426
  0
LINE
  5
358
100
AcDbEntity
  8
7_ALL_FEATURES
100
AcDbLine
 62
9
  6
CONTINUOUS
 10
853.0646318602
 20
581.1381124426
 11
853.0646318602
 21
599.8907184856
  0
LINE
  5
359
100
AcDbEntity
  8
7_ALL_FEATURES
100
AcDbLine
 62
9
  6
CONTINUOUS
 10
853.0646318602
 20
609.7855063996
 11
853.0646318602
 21
615.6907184856
  0
LINE
  5
35A
100
AcDbEntity
  8
7_ALL_FEATURES
100
AcDbLine
 62
9
  6
CONTINUOUS
 10
853.0646318602
 20
625.5855063996
 11
853.0646318602
 21
629.820060224
  0
LINE
  5
35B
100
AcDbEntity
  8
7_ALL_FEATURES
100
AcDbLine
 62
7
  6
CONTINUOUS
 10
853.082724074
 20
579.1381124426
 11
853.082724074
 21
579.6381124426
  0
LINE
  5
35C
100
AcDbEntity
  8
7_ALL_FEATURES
100
AcDbLine
 62
7
  6
CONTINUOUS
 10
853.082724074
 20
581.1381124426
 11
853.082724074
 21
599.8726262719
  0
LINE
  5
35D
100
AcDbEntity
  8
7_ALL_FEATURES
100
AcDbLine
 62
7
  6
CONTINUOUS
 10
853.082724074
 20
609.8035986134
 11
853.082724074
 21
615.6726262719
  0
LINE
  5
35E
100
AcDbEntity
  8
7_ALL_FEATURES
100
AcDbLine
 62
7
  6
CONTINUOUS
 10
853.082724074
 20
625.6035986134
 11
853.082724074
 21
629.922666267
  0
LINE
  5
35F
100
AcDbEntity
  8
3_ALL_AXES
100
AcDbLine
 62
7
  6
CONTINUOUS
 10
853.1172379032
 20
599.8381124426
 11
853.1172379032
 21
609.8381124426
  0
LINE
  5
360
100
AcDbEntity
  8
3_ALL_AXES
100
AcDbLine
 62
7
  6
CONTINUOUS
 10
853.1172379032
 20
615.6381124426
 11
853.1172379032
 21
625.6381124426
  0
LINE
  5
361
100
AcDbEntity
  8
3_ALL_AXES
100
AcDbLine
 62
7
  6
CONTINUOUS
 10
853.4172379032
 20
599.8381124426
 11
853.4172379032
 21
609.8381124426
  0
LINE
  5
362
100
AcDbEntity
  8
3_ALL_AXES
100
AcDbLine
 62
7
  6
CONTINUOUS
 10
853.4172379032
 20
615.6381124426
 11
853.4172379032
 21
625.6381124426
  0
LINE
  5
363
100
AcDbEntity
  8
7_ALL_FEATURES
100
AcDbLine
 62
7
  6
CONTINUOUS
 10
855.7172379032
 20
650.2281526143
 11
855.7172379032
 21
654.6381124426
  0
LINE
  5
364
100
AcDbEntity
  8
6_ALL_SURFS
100
AcDbLine
 62
7
  6
CONTINUOUS
 10
855.7172379032
 20
654.6381124426
 11
855.7172379032
 21
655.3381124426
  0
LINE
  5
365
100
AcDbEntity
  8
7_ALL_FEATURES
100
AcDbLine
 62
9
  6
CONTINUOUS
 10
855.8885925044
 20
648.2335169403
 11
855.8885925044
 21
581.1381124426
  0
LINE
  5
366
100
AcDbEntity
  8
7_ALL_FEATURES
100
AcDbLine
 62
9
  6
CONTINUOUS
 10
855.8885925044
 20
579.6381124426
 11
855.8885925044
 21
579.1381124426
  0
LINE
  5
367
100
AcDbEntity
  8
7_ALL_FEATURES
100
AcDbLine
 62
9
  6
CONTINUOUS
 10
856.0172379032
 20
650.2381124426
 11
856.0172379032
 21
654.3381124426
  0
LINE
  5
368
100
AcDbEntity
  8
7_ALL_FEATURES
100
AcDbLine
 62
9
  6
CONTINUOUS
 10
856.3794060961
 20
648.6381124426
 11
856.3794060961
 21
581.1381124426
  0
LINE
  5
369
100
AcDbEntity
  8
7_ALL_FEATURES
100
AcDbLine
 62
9
  6
CONTINUOUS
 10
856.3794060961
 20
579.6381124426
 11
856.3794060961
 21
579.1381124426
  0
LINE
  5
36A
100
AcDbEntity
  8
3_ALL_AXES
100
AcDbLine
 62
7
  6
CONTINUOUS
 10
857.2172379032
 20
652.3881124427
 11
857.2172379032
 21
650.2420954363
  0
LINE
  5
36B
100
AcDbEntity
  8
7_ALL_FEATURES
100
AcDbLine
 62
9
  6
CONTINUOUS
 10
857.3928332088
 20
654.3381124426
 11
857.3928332088
 21
653.3545859458
  0
LINE
  5
36C
100
AcDbEntity
  8
7_ALL_FEATURES
100
AcDbLine
 62
9
  6
CONTINUOUS
 10
857.5923667727
 20
650.9881124427
 11
857.5923667727
 21
650.4911676007
  0
LINE
  5
36D
100
AcDbEntity
  8
7_ALL_FEATURES
100
AcDbLine
 62
9
  6
CONTINUOUS
 10
859.1676722192
 20
651.4075424551
 11
859.1676722192
 21
653.3721033718
  0
LINE
  5
36E
100
AcDbEntity
  8
7_ALL_FEATURES
100
AcDbLine
 62
7
  6
CONTINUOUS
 10
859.2716185998
 20
651.3247916205
 11
859.2716185998
 21
653.5991782016
  0
LINE
  5
36F
100
AcDbEntity
  8
7_ALL_FEATURES
100
AcDbLine
 62
7
  6
CONTINUOUS
 10
860.7628572066
 20
651.3247916205
 11
860.7628572066
 21
653.5991782016
  0
LINE
  5
370
100
AcDbEntity
  8
7_ALL_FEATURES
100
AcDbLine
 62
9
  6
CONTINUOUS
 10
860.8668035873
 20
651.4075424551
 11
860.8668035873
 21
653.3721033718
  0
LINE
  5
371
100
AcDbEntity
  8
7_ALL_FEATURES
100
AcDbLine
 62
9
  6
CONTINUOUS
 10
862.4421090338
 20
650.9881124427
 11
862.4421090338
 21
650.4911676007
  0
LINE
  5
372
100
AcDbEntity
  8
6_ALL_SURFS
100
AcDbLine
 62
7
  6
CONTINUOUS
 10
862.8172379032
 20
655.3381124426
 11
862.8172379032
 21
652.3881124427
  0
LINE
  5
373
100
AcDbEntity
  8
7_ALL_FEATURES
100
AcDbLine
 62
7
  6
CONTINUOUS
 10
862.8172379032
 20
652.3881124427
 11
862.8172379032
 21
650.2420954363
  0
LINE
  5
374
100
AcDbEntity
  8
7_ALL_FEATURES
100
AcDbLine
 62
7
  6
CONTINUOUS
 10
875.4672379032
 20
647.6381124426
 11
875.4672379032
 21
648.6381124426
  0
LINE
  5
375
100
AcDbEntity
  8
7_ALL_FEATURES
100
AcDbLine
 62
7
  6
CONTINUOUS
 10
878.9672379032
 20
645.6099092124
 11
878.9672379032
 21
647.6381124426
  0
LINE
  5
376
100
AcDbEntity
  8
6_ALL_SURFS
100
AcDbLine
 62
7
  6
CONTINUOUS
 10
879.3672379032
 20
650.7381124426
 11
879.3672379032
 21
654.6381124426
  0
LINE
  5
377
100
AcDbEntity
  8
7_ALL_FEATURES
100
AcDbLine
 62
9
  6
CONTINUOUS
 10
880.9672379032
 20
579.1381124426
 11
880.9672379032
 21
579.6381124426
  0
LINE
  5
378
100
AcDbEntity
  8
7_ALL_FEATURES
100
AcDbLine
 62
7
  6
CONTINUOUS
 10
880.9672379032
 20
644.7921457502
 11
880.9672379032
 21
644.8083000258
  0
LINE
  5
379
100
AcDbEntity
  8
7_ALL_FEATURES
100
AcDbLine
 62
9
  6
CONTINUOUS
 10
880.9672379032
 20
581.1381124426
 11
880.9672379032
 21
644.7921457502
  0
LINE
  5
37A
100
AcDbEntity
  8
6_ALL_SURFS
100
AcDbLine
 62
7
  6
CONTINUOUS
 10
881.2672379032
 20
653.7381124426
 11
881.2672379032
 21
648.9381124426
  0
LINE
  5
37B
100
AcDbEntity
  8
7_ALL_FEATURES
100
AcDbLine
 62
7
  6
CONTINUOUS
 10
881.2672379032
 20
579.1381124426
 11
881.2672379032
 21
579.6381124426
  0
LINE
  5
37C
100
AcDbEntity
  8
7_ALL_FEATURES
100
AcDbLine
 62
7
  6
CONTINUOUS
 10
881.2672379032
 20
581.1381124426
 11
881.2672379032
 21
644.7375766029
  0
LINE
  5
37D
100
AcDbEntity
  8
7_ALL_FEATURES
100
AcDbLine
 62
9
  6
CONTINUOUS
 10
881.5672379032
 20
654.0381124426
 11
881.5672379032
 21
653.6381124426
  0
LINE
  5
37E
100
AcDbEntity
  8
7_ALL_FEATURES
100
AcDbLine
 62
9
  6
CONTINUOUS
 10
881.5672379032
 20
644.6779214642
 11
881.5672379032
 21
581.1381124426
  0
LINE
  5
37F
100
AcDbEntity
  8
7_ALL_FEATURES
100
AcDbLine
 62
9
  6
CONTINUOUS
 10
881.5672379032
 20
579.6381124426
 11
881.5672379032
 21
579.1381124426
  0
LINE
  5
380
100
AcDbEntity
  8
7_ALL_FEATURES
100
AcDbLine
 62
7
  6
CONTINUOUS
 10
882.4672379032
 20
644.5694237174
 11
882.4672379032
 21
644.8083000258
  0
LINE
  5
381
100
AcDbEntity
  8
7_ALL_FEATURES
100
AcDbLine
 62
7
  6
CONTINUOUS
 10
883.4672379032
 20
644.8083000258
 11
883.4672379032
 21
644.5694237174
  0
LINE
  5
382
100
AcDbEntity
  8
7_ALL_FEATURES
100
AcDbLine
 62
9
  6
CONTINUOUS
 10
884.3672379032
 20
654.0381124426
 11
884.3672379032
 21
653.6381124426
  0
LINE
  5
383
100
AcDbEntity
  8
7_ALL_FEATURES
100
AcDbLine
 62
9
  6
CONTINUOUS
 10
884.3672379032
 20
644.6779700773
 11
884.3672379032
 21
581.1381124426
  0
LINE
  5
384
100
AcDbEntity
  8
7_ALL_FEATURES
100
AcDbLine
 62
9
  6
CONTINUOUS
 10
884.3672379032
 20
579.6381124426
 11
884.3672379032
 21
579.1381124426
  0
LINE
  5
385
100
AcDbEntity
  8
7_ALL_FEATURES
100
AcDbLine
 62
7
  6
CONTINUOUS
 10
884.6672379032
 20
653.7381124426
 11
884.6672379032
 21
648.9381124426
  0
LINE
  5
386
100
AcDbEntity
  8
7_ALL_FEATURES
100
AcDbLine
 62
7
  6
CONTINUOUS
 10
884.6672379032
 20
579.1381124426
 11
884.6672379032
 21
579.6381124426
  0
LINE
  5
387
100
AcDbEntity
  8
7_ALL_FEATURES
100
AcDbLine
 62
7
  6
CONTINUOUS
 10
884.6672379032
 20
581.1381124426
 11
884.6672379032
 21
644.73758189
  0
LINE
  5
388
100
AcDbEntity
  8
7_ALL_FEATURES
100
AcDbLine
 62
7
  6
CONTINUOUS
 10
884.9672379032
 20
644.8083000258
 11
884.9672379032
 21
644.7921457502
  0
LINE
  5
389
100
AcDbEntity
  8
7_ALL_FEATURES
100
AcDbLine
 62
9
  6
CONTINUOUS
 10
884.9672379032
 20
579.1381124426
 11
884.9672379032
 21
579.6381124426
  0
LINE
  5
38A
100
AcDbEntity
  8
7_ALL_FEATURES
100
AcDbLine
 62
9
  6
CONTINUOUS
 10
884.9672379032
 20
581.1381124426
 11
884.9672379032
 21
644.7921457502
  0
LINE
  5
38B
100
AcDbEntity
  8
7_ALL_FEATURES
100
AcDbLine
 62
7
  6
CONTINUOUS
 10
886.5672379032
 20
650.7381124426
 11
886.5672379032
 21
654.6381124426
  0
LINE
  5
38C
100
AcDbEntity
  8
7_ALL_FEATURES
100
AcDbLine
 62
7
  6
CONTINUOUS
 10
886.9672379032
 20
645.6099092124
 11
886.9672379032
 21
647.6381124426
  0
LINE
  5
38D
100
AcDbEntity
  8
7_ALL_FEATURES
100
AcDbLine
 62
7
  6
CONTINUOUS
 10
890.4672379032
 20
648.6381124426
 11
890.4672379032
 21
647.6381124426
  0
LINE
  5
38E
100
AcDbEntity
  8
7_ALL_FEATURES
100
AcDbLine
 62
7
  6
CONTINUOUS
 10
903.1172379032
 20
655.3381124426
 11
903.1172379032
 21
650.2420954363
  0
LINE
  5
38F
100
AcDbEntity
  8
7_ALL_FEATURES
100
AcDbLine
 62
9
  6
CONTINUOUS
 10
903.4923667727
 20
650.9881124427
 11
903.4923667727
 21
650.4911676007
  0
LINE
  5
390
100
AcDbEntity
  8
7_ALL_FEATURES
100
AcDbLine
 62
9
  6
CONTINUOUS
 10
905.0676722192
 20
651.4075424551
 11
905.0676722192
 21
653.3721033718
  0
LINE
  5
391
100
AcDbEntity
  8
6_ALL_SURFS
100
AcDbLine
 62
7
  6
CONTINUOUS
 10
905.1716185998
 20
653.5991782016
 11
905.1716185998
 21
651.3247916205
  0
LINE
  5
392
100
AcDbEntity
  8
6_ALL_SURFS
100
AcDbLine
 62
7
  6
CONTINUOUS
 10
906.6628572066
 20
653.5991782016
 11
906.6628572066
 21
651.3247916205
  0
LINE
  5
393
100
AcDbEntity
  8
7_ALL_FEATURES
100
AcDbLine
 62
9
  6
CONTINUOUS
 10
906.7668035873
 20
651.4075424551
 11
906.7668035873
 21
653.3721033718
  0
LINE
  5
394
100
AcDbEntity
  8
7_ALL_FEATURES
100
AcDbLine
 62
9
  6
CONTINUOUS
 10
908.3421090338
 20
650.9881124427
 11
908.3421090338
 21
650.4911676007
  0
LINE
  5
395
100
AcDbEntity
  8
7_ALL_FEATURES
100
AcDbLine
 62
9
  6
CONTINUOUS
 10
908.5416425977
 20
654.3381124426
 11
908.5416425977
 21
653.3545859458
  0
LINE
  5
396
100
AcDbEntity
  8
6_ALL_SURFS
100
AcDbLine
 62
7
  6
CONTINUOUS
 10
908.7172379032
 20
650.2420954363
 11
908.7172379032
 21
652.3881124427
  0
LINE
  5
397
100
AcDbEntity
  8
7_ALL_FEATURES
100
AcDbLine
 62
9
  6
CONTINUOUS
 10
909.5550697103
 20
648.6381124426
 11
909.5550697103
 21
581.1381124426
  0
LINE
  5
398
100
AcDbEntity
  8
7_ALL_FEATURES
100
AcDbLine
 62
9
  6
CONTINUOUS
 10
909.5550697103
 20
579.6381124426
 11
909.5550697103
 21
579.1381124426
  0
LINE
  5
399
100
AcDbEntity
  8
7_ALL_FEATURES
100
AcDbLine
 62
9
  6
CONTINUOUS
 10
909.9172379032
 20
650.2381124426
 11
909.9172379032
 21
654.3381124426
  0
LINE
  5
39A
100
AcDbEntity
  8
7_ALL_FEATURES
100
AcDbLine
 62
9
  6
CONTINUOUS
 10
910.045883302
 20
648.2335169403
 11
910.045883302
 21
581.1381124426
  0
LINE
  5
39B
100
AcDbEntity
  8
7_ALL_FEATURES
100
AcDbLine
 62
9
  6
CONTINUOUS
 10
910.045883302
 20
579.6381124426
 11
910.045883302
 21
579.1381124426
  0
LINE
  5
39C
100
AcDbEntity
  8
7_ALL_FEATURES
100
AcDbLine
 62
7
  6
CONTINUOUS
 10
910.2172379032
 20
650.2281526143
 11
910.2172379032
 21
655.3381124426
  0
LINE
  5
39D
100
AcDbEntity
  8
3_ALL_AXES
100
AcDbLine
 62
7
  6
CONTINUOUS
 10
912.5172379032
 20
625.6381124426
 11
912.5172379032
 21
615.6381124426
  0
LINE
  5
39E
100
AcDbEntity
  8
3_ALL_AXES
100
AcDbLine
 62
7
  6
CONTINUOUS
 10
912.5172379032
 20
597.3381124426
 11
912.5172379032
 21
587.3381124426
  0
LINE
  5
39F
100
AcDbEntity
  8
3_ALL_AXES
100
AcDbLine
 62
7
  6
CONTINUOUS
 10
912.8172379032
 20
625.6381124426
 11
912.8172379032
 21
615.6381124426
  0
LINE
  5
3A0
100
AcDbEntity
  8
3_ALL_AXES
100
AcDbLine
 62
7
  6
CONTINUOUS
 10
912.8172379032
 20
597.3381124426
 11
912.8172379032
 21
587.3381124426
  0
LINE
  5
3A1
100
AcDbEntity
  8
6_ALL_SURFS
100
AcDbLine
 62
7
  6
CONTINUOUS
 10
912.8517517325
 20
629.922666267
 11
912.8517517325
 21
625.6035986134
  0
LINE
  5
3A2
100
AcDbEntity
  8
6_ALL_SURFS
100
AcDbLine
 62
7
  6
CONTINUOUS
 10
912.8517517325
 20
615.6726262719
 11
912.8517517325
 21
597.3035986134
  0
LINE
  5
3A3
100
AcDbEntity
  8
6_ALL_SURFS
100
AcDbLine
 62
7
  6
CONTINUOUS
 10
912.8517517325
 20
587.3726262719
 11
912.8517517325
 21
581.1381124426
  0
LINE
  5
3A4
100
AcDbEntity
  8
6_ALL_SURFS
100
AcDbLine
 62
7
  6
CONTINUOUS
 10
912.8517517325
 20
579.6381124426
 11
912.8517517325
 21
579.1381124426
  0
LINE
  5
3A5
100
AcDbEntity
  8
7_ALL_FEATURES
100
AcDbLine
 62
9
  6
CONTINUOUS
 10
912.8698439462
 20
579.1381124426
 11
912.8698439462
 21
579.6381124426
  0
LINE
  5
3A6
100
AcDbEntity
  8
7_ALL_FEATURES
100
AcDbLine
 62
9
  6
CONTINUOUS
 10
912.8698439462
 20
581.1381124426
 11
912.8698439462
 21
587.3907184856
  0
LINE
  5
3A7
100
AcDbEntity
  8
7_ALL_FEATURES
100
AcDbLine
 62
9
  6
CONTINUOUS
 10
912.8698439462
 20
597.2855063996
 11
912.8698439462
 21
615.6907184856
  0
LINE
  5
3A8
100
AcDbEntity
  8
7_ALL_FEATURES
100
AcDbLine
 62
9
  6
CONTINUOUS
 10
912.8698439462
 20
625.5855063996
 11
912.8698439462
 21
629.820060224
  0
LINE
  5
3A9
100
AcDbEntity
  8
7_ALL_FEATURES
100
AcDbLine
 62
9
  6
CONTINUOUS
 10
913.4991456895
 20
628.0910678944
 11
913.4991456895
 21
624.9562046564
  0
LINE
  5
3AA
100
AcDbEntity
  8
7_ALL_FEATURES
100
AcDbLine
 62
9
  6
CONTINUOUS
 10
913.4991456895
 20
616.3200202289
 11
913.4991456895
 21
596.6562046564
  0
LINE
  5
3AB
100
AcDbEntity
  8
7_ALL_FEATURES
100
AcDbLine
 62
9
  6
CONTINUOUS
 10
913.4991456895
 20
588.0200202289
 11
913.4991456895
 21
581.1381124426
  0
LINE
  5
3AC
100
AcDbEntity
  8
7_ALL_FEATURES
100
AcDbLine
 62
9
  6
CONTINUOUS
 10
913.4991456895
 20
579.6381124426
 11
913.4991456895
 21
579.1381124426
  0
LINE
  5
3AD
100
AcDbEntity
  8
7_ALL_FEATURES
100
AcDbLine
 62
7
  6
CONTINUOUS
 10
913.5172379032
 20
579.1381124426
 11
913.5172379032
 21
579.6381124426
  0
LINE
  5
3AE
100
AcDbEntity
  8
7_ALL_FEATURES
100
AcDbLine
 62
7
  6
CONTINUOUS
 10
913.5172379032
 20
581.1381124426
 11
913.5172379032
 21
627.9884618514
  0
LINE
  5
3AF
100
AcDbEntity
  8
7_ALL_FEATURES
100
AcDbLine
 62
9
  6
CONTINUOUS
 10
913.6051058689
 20
589.050244477
 11
913.6051058689
 21
586.8259804083
  0
LINE
  5
3B0
100
AcDbEntity
  8
7_ALL_FEATURES
100
AcDbLine
 62
9
  6
CONTINUOUS
 10
913.6672379032
 20
590.8298220658
 11
913.6672379032
 21
592.4464028195
  0
LINE
  5
3B1
100
AcDbEntity
  8
7_ALL_FEATURES
100
AcDbLine
 62
9
  6
CONTINUOUS
 10
913.7061721443
 20
590.8523007604
 11
913.7061721443
 21
592.4239241249
  0
LINE
  5
3B2
100
AcDbEntity
  8
7_ALL_FEATURES
100
AcDbLine
 62
9
  6
CONTINUOUS
 10
913.7293699376
 20
586.950244477
 11
913.7293699376
 21
588.9259804083
  0
LINE
  5
3B3
100
AcDbEntity
  8
7_ALL_FEATURES
100
AcDbLine
 62
7
  6
CONTINUOUS
 10
913.8172379032
 20
588.7138483739
 11
913.8172379032
 21
587.1623765114
  0
LINE
  5
3B4
100
AcDbEntity
  8
7_ALL_FEATURES
100
AcDbLine
 62
9
  6
CONTINUOUS
 10
913.8172379032
 20
579.1381124426
 11
913.8172379032
 21
579.6381124426
  0
LINE
  5
3B5
100
AcDbEntity
  8
7_ALL_FEATURES
100
AcDbLine
 62
9
  6
CONTINUOUS
 10
913.8172379032
 20
581.1381124426
 11
913.8172379032
 21
585.1381124426
  0
LINE
  5
3B6
100
AcDbEntity
  8
7_ALL_FEATURES
100
AcDbLine
 62
9
  6
CONTINUOUS
 10
914.0832469741
 20
590.7885467586
 11
914.0832469741
 21
592.4876781267
  0
LINE
  5
3B7
100
AcDbEntity
  8
7_ALL_FEATURES
100
AcDbLine
 62
7
  6
CONTINUOUS
 10
914.2172379032
 20
581.3381124426
 11
914.2172379032
 21
581.4581124426
  0
LINE
  5
3B8
100
AcDbEntity
  8
7_ALL_FEATURES
100
AcDbLine
 62
9
  6
CONTINUOUS
 10
914.8880215615
 20
585.1381124426
 11
914.8880215615
 21
584.3195238602
  0
LINE
  5
3B9
100
AcDbEntity
  8
7_ALL_FEATURES
100
AcDbLine
 62
9
  6
CONTINUOUS
 10
914.8880215615
 20
583.4785991987
 11
914.8880215615
 21
582.8582941199
  0
LINE
  5
3BA
100
AcDbEntity
  8
7_ALL_FEATURES
100
AcDbLine
 62
9
  6
CONTINUOUS
 10
914.8880215615
 20
579.6381124426
 11
914.8880215615
 21
579.1381124426
  0
LINE
  5
3BB
100
AcDbEntity
  8
7_ALL_FEATURES
100
AcDbLine
 62
7
  6
CONTINUOUS
 10
915.0172379032
 20
581.4581124426
 11
915.0172379032
 21
580.8381124426
  0
LINE
  5
3BC
100
AcDbEntity
  8
7_ALL_FEATURES
100
AcDbLine
 62
9
  6
CONTINUOUS
 10
915.107427672
 20
585.0427119507
 11
915.107427672
 21
584.3248093661
  0
LINE
  5
3BD
100
AcDbEntity
  8
7_ALL_FEATURES
100
AcDbLine
 62
9
  6
CONTINUOUS
 10
915.107427672
 20
583.2334161844
 11
915.107427672
 21
583.0430353515
  0
LINE
  5
3BE
100
AcDbEntity
  8
7_ALL_FEATURES
100
AcDbLine
 62
9
  6
CONTINUOUS
 10
915.107427672
 20
581.8710513394
 11
915.107427672
 21
580.6711216163
  0
LINE
  5
3BF
100
AcDbEntity
  8
7_ALL_FEATURES
100
AcDbLine
 62
9
  6
CONTINUOUS
 10
915.107427672
 20
579.6381124426
 11
915.107427672
 21
579.1381124426
  0
LINE
  5
3C0
100
AcDbEntity
  8
7_ALL_FEATURES
100
AcDbLine
 62
7
  6
CONTINUOUS
 10
915.1172379032
 20
594.8381124426
 11
915.1172379032
 21
633.1381124426
  0
LINE
  5
3C1
100
AcDbEntity
  8
7_ALL_FEATURES
100
AcDbLine
 62
7
  6
CONTINUOUS
 10
915.1672379032
 20
579.1381124426
 11
915.1672379032
 21
579.6381124426
  0
LINE
  5
3C2
100
AcDbEntity
  8
7_ALL_FEATURES
100
AcDbLine
 62
7
  6
CONTINUOUS
 10
915.1672379032
 20
580.6452867203
 11
915.1672379032
 21
581.8133140418
  0
LINE
  5
3C3
100
AcDbEntity
  8
7_ALL_FEATURES
100
AcDbLine
 62
9
  6
CONTINUOUS
 10
915.3672379032
 20
579.1381124426
 11
915.3672379032
 21
579.6381124426
  0
LINE
  5
3C4
100
AcDbEntity
  8
7_ALL_FEATURES
100
AcDbLine
 62
7
  6
CONTINUOUS
 10
915.4172379032
 20
587.0280730738
 11
915.4172379032
 21
588.4381124426
  0
LINE
  5
3C5
100
AcDbEntity
  8
7_ALL_FEATURES
100
AcDbLine
 62
9
  6
CONTINUOUS
 10
915.7172379032
 20
588.7381124426
 11
915.7172379032
 21
586.5881893181
  0
LINE
  5
3C6
100
AcDbEntity
  8
7_ALL_FEATURES
100
AcDbLine
 62
9
  6
CONTINUOUS
 10
916.0672379032
 20
579.1381124426
 11
916.0672379032
 21
22.1381124426
  0
LINE
  5
3C7
100
AcDbEntity
  8
7_ALL_FEATURES
100
AcDbLine
 62
9
  6
CONTINUOUS
 10
916.2172379032
 20
580.6381124426
 11
916.2172379032
 21
580.5690806912
  0
LINE
  5
3C8
100
AcDbEntity
  8
7_ALL_FEATURES
100
AcDbLine
 62
9
  6
CONTINUOUS
 10
916.2172379032
 20
579.7071441941
 11
916.2172379032
 21
579.1381124426
  0
LINE
  5
3C9
100
AcDbEntity
  8
7_ALL_FEATURES
100
AcDbLine
 62
7
  6
CONTINUOUS
 10
916.2672379032
 20
580.4381124426
 11
916.2672379032
 21
579.8381124426
  0
LINE
  5
3CA
100
AcDbEntity
  8
7_ALL_FEATURES
100
AcDbLine
 62
7
  6
CONTINUOUS
 10
916.2672379032
 20
579.1381124426
 11
916.2672379032
 21
22.1381124426
  0
LINE
  5
3CB
100
AcDbEntity
  8
7_ALL_FEATURES
100
AcDbLine
 62
9
  6
CONTINUOUS
 10
916.3366440137
 20
583.724538808
 11
916.3366440137
 21
582.2349061786
  0
LINE
  5
3CC
100
AcDbEntity
  8
7_ALL_FEATURES
100
AcDbLine
 62
7
  6
CONTINUOUS
 10
916.4172379032
 20
583.5199393
 11
916.4172379032
 21
582.4381124426
  0
LINE
  5
3CD
100
AcDbEntity
  8
7_ALL_FEATURES
100
AcDbLine
 62
7
  6
CONTINUOUS
 10
916.4172379032
 20
22.1381124426
 11
916.4172379032
 21
580.4381124426
  0
LINE
  5
3CE
100
AcDbEntity
  8
7_ALL_FEATURES
100
AcDbLine
 62
9
  6
CONTINUOUS
 10
916.5172379032
 20
585.7302943501
 11
916.5172379032
 21
588.7381124426
  0
LINE
  5
3CF
100
AcDbEntity
  8
7_ALL_FEATURES
100
AcDbLine
 62
9
  6
CONTINUOUS
 10
916.6172379032
 20
22.1381124426
 11
916.6172379032
 21
579.6381124426
  0
LINE
  5
3D0
100
AcDbEntity
  8
7_ALL_FEATURES
100
AcDbLine
 62
9
  6
CONTINUOUS
 10
917.4172379032
 20
22.1381124426
 11
917.4172379032
 21
579.6381124426
  0
LINE
  5
3D1
100
AcDbEntity
  8
7_ALL_FEATURES
100
AcDbLine
 62
7
  6
CONTINUOUS
 10
917.6172379032
 20
22.1381124426
 11
917.6172379032
 21
580.9381124426
  0
LINE
  5
3D2
100
AcDbEntity
  8
7_ALL_FEATURES
100
AcDbLine
 62
9
  6
CONTINUOUS
 10
917.8172379032
 20
581.1381124426
 11
917.8172379032
 21
22.1381124426
  0
LINE
  5
3D3
100
AcDbEntity
  8
7_ALL_FEATURES
100
AcDbLine
 62
7
  6
CONTINUOUS
 10
917.9172379032
 20
582.1381124426
 11
917.9172379032
 21
583.6381124426
  0
LINE
  5
3D4
100
AcDbEntity
  8
7_ALL_FEATURES
100
AcDbLine
 62
7
  6
CONTINUOUS
 10
918.0172379032
 20
582.1381124426
 11
918.0172379032
 21
593.0381124426
  0
LINE
  5
3D5
100
AcDbEntity
  8
7_ALL_FEATURES
100
AcDbLine
 62
3
  6
CONTINUOUS
 10
918.1172379032
 20
582.1381124426
 11
918.1172379032
 21
633.1381124426
  0
LINE
  5
3D6
100
AcDbEntity
  8
7_ALL_FEATURES
100
AcDbLine
 62
7
  6
CONTINUOUS
 10
920.1172379032
 20
581.1381124426
 11
920.1172379032
 21
22.1381124426
  0
LINE
  5
3D7
100
AcDbEntity
  8
3_ALL_AXES
100
AcDbLine
 62
7
  6
CONTINUOUS
 10
920.1172379032
 20
588.2881124426
 11
920.1172379032
 21
596.9881124426
  0
LINE
  5
3D8
100
AcDbEntity
  8
3_ALL_AXES
100
AcDbLine
 62
7
  6
CONTINUOUS
 10
920.1172379032
 20
616.2881124426
 11
920.1172379032
 21
624.9881124426
  0
LINE
  5
3D9
100
AcDbEntity
  8
7_ALL_FEATURES
100
AcDbLine
 62
7
  6
CONTINUOUS
 10
920.5172379032
 20
622.6381124426
 11
920.5172379032
 21
618.6381124426
  0
LINE
  5
3DA
100
AcDbEntity
  8
7_ALL_FEATURES
100
AcDbLine
 62
7
  6
CONTINUOUS
 10
920.5172379032
 20
594.3381124426
 11
920.5172379032
 21
590.3381124426
  0
LINE
  5
3DB
100
AcDbEntity
  8
7_ALL_FEATURES
100
AcDbLine
 62
7
  6
CONTINUOUS
 10
920.7172379032
 20
581.1381124426
 11
920.7172379032
 21
22.1381124426
  0
LINE
  5
3DC
100
AcDbEntity
  8
7_ALL_FEATURES
100
AcDbLine
 62
7
  6
CONTINUOUS
 10
923.1172379032
 20
581.1381124426
 11
923.1172379032
 21
22.1381124426
  0
LINE
  5
3DD
100
AcDbEntity
  8
7_ALL_FEATURES
100
AcDbLine
 62
7
  6
CONTINUOUS
 10
923.7172379032
 20
581.1381124426
 11
923.7172379032
 21
22.1381124426
  0
LINE
  5
3DE
100
AcDbEntity
  8
7_ALL_FEATURES
100
AcDbLine
 62
7
  6
CONTINUOUS
 10
926.1172379032
 20
581.1381124426
 11
926.1172379032
 21
22.1381124426
  0
LINE
  5
3DF
100
AcDbEntity
  8
7_ALL_FEATURES
100
AcDbLine
 62
7
  6
CONTINUOUS
 10
926.7172379032
 20
581.1381124426
 11
926.7172379032
 21
22.1381124426
  0
LINE
  5
3E0
100
AcDbEntity
  8
7_ALL_FEATURES
100
AcDbLine
 62
7
  6
CONTINUOUS
 10
929.1172379032
 20
581.1381124426
 11
929.1172379032
 21
568.03564586
  0
LINE
  5
3E1
100
AcDbEntity
  8
6_ALL_SURFS
100
AcDbLine
 62
7
  6
CONTINUOUS
 10
929.1172379032
 20
560.2405790252
 11
929.1172379032
 21
318.03564586
  0
LINE
  5
3E2
100
AcDbEntity
  8
6_ALL_SURFS
100
AcDbLine
 62
7
  6
CONTINUOUS
 10
929.1172379032
 20
310.2405790252
 11
929.1172379032
 21
68.03564586
  0
LINE
  5
3E3
100
AcDbEntity
  8
6_ALL_SURFS
100
AcDbLine
 62
7
  6
CONTINUOUS
 10
929.1172379032
 20
60.2405790252
 11
929.1172379032
 21
22.1381124426
  0
LINE
  5
3E4
100
AcDbEntity
  8
7_ALL_FEATURES
100
AcDbLine
 62
7
  6
CONTINUOUS
 10
929.7172379032
 20
581.1381124426
 11
929.7172379032
 21
568.4031759521
  0
LINE
  5
3E5
100
AcDbEntity
  8
6_ALL_SURFS
100
AcDbLine
 62
7
  6
CONTINUOUS
 10
929.7172379032
 20
559.8730489332
 11
929.7172379032
 21
318.4031759521
  0
LINE
  5
3E6
100
AcDbEntity
  8
6_ALL_SURFS
100
AcDbLine
 62
7
  6
CONTINUOUS
 10
929.7172379032
 20
309.8730489332
 11
929.7172379032
 21
68.4031759521
  0
LINE
  5
3E7
100
AcDbEntity
  8
6_ALL_SURFS
100
AcDbLine
 62
7
  6
CONTINUOUS
 10
929.7172379032
 20
59.8730489332
 11
929.7172379032
 21
22.1381124426
  0
LINE
  5
3E8
100
AcDbEntity
  8
7_ALL_FEATURES
100
AcDbLine
 62
7
  6
CONTINUOUS
 10
932.1172379032
 20
581.1381124426
 11
932.1172379032
 21
568.9329812354
  0
LINE
  5
3E9
100
AcDbEntity
  8
6_ALL_SURFS
100
AcDbLine
 62
7
  6
CONTINUOUS
 10
932.1172379032
 20
559.3432436499
 11
932.1172379032
 21
318.9329812354
  0
LINE
  5
3EA
100
AcDbEntity
  8
6_ALL_SURFS
100
AcDbLine
 62
7
  6
CONTINUOUS
 10
932.1172379032
 20
309.3432436499
 11
932.1172379032
 21
68.9329812354
  0
LINE
  5
3EB
100
AcDbEntity
  8
6_ALL_SURFS
100
AcDbLine
 62
7
  6
CONTINUOUS
 10
932.1172379032
 20
59.3432436499
 11
932.1172379032
 21
22.1381124426
  0
LINE
  5
3EC
100
AcDbEntity
  8
7_ALL_FEATURES
100
AcDbLine
 62
7
  6
CONTINUOUS
 10
932.7172379032
 20
581.1381124426
 11
932.7172379032
 21
568.8700007274
  0
LINE
  5
3ED
100
AcDbEntity
  8
6_ALL_SURFS
100
AcDbLine
 62
7
  6
CONTINUOUS
 10
932.7172379032
 20
559.4062241579
 11
932.7172379032
 21
318.8700007274
  0
LINE
  5
3EE
100
AcDbEntity
  8
6_ALL_SURFS
100
AcDbLine
 62
7
  6
CONTINUOUS
 10
932.7172379032
 20
309.4062241579
 11
932.7172379032
 21
68.8700007274
  0
LINE
  5
3EF
100
AcDbEntity
  8
6_ALL_SURFS
100
AcDbLine
 62
7
  6
CONTINUOUS
 10
932.7172379032
 20
59.4062241579
 11
932.7172379032
 21
22.1381124426
  0
LINE
  5
3F0
100
AcDbEntity
  8
7_ALL_FEATURES
100
AcDbLine
 62
7
  6
CONTINUOUS
 10
935.4172379032
 20
581.1381124426
 11
935.4172379032
 21
567.4215202363
  0
LINE
  5
3F1
100
AcDbEntity
  8
6_ALL_SURFS
100
AcDbLine
 62
7
  6
CONTINUOUS
 10
935.4172379032
 20
560.8547046489
 11
935.4172379032
 21
317.4215202363
  0
LINE
  5
3F2
100
AcDbEntity
  8
6_ALL_SURFS
100
AcDbLine
 62
7
  6
CONTINUOUS
 10
935.4172379032
 20
310.8547046489
 11
935.4172379032
 21
67.4215202363
  0
LINE
  5
3F3
100
AcDbEntity
  8
6_ALL_SURFS
100
AcDbLine
 62
7
  6
CONTINUOUS
 10
935.4172379032
 20
60.8547046489
 11
935.4172379032
 21
22.1381124426
  0
LINE
  5
3F4
100
AcDbEntity
  8
7_ALL_FEATURES
100
AcDbLine
 62
9
  6
CONTINUOUS
 10
937.5627094936
 20
581.3526596017
 11
937.5627094936
 21
22.1381124426
  0
LINE
  5
3F5
100
AcDbEntity
  8
6_ALL_SURFS
100
AcDbLine
 62
7
  6
CONTINUOUS
 10
937.9172379032
 20
22.1381124426
 11
937.9172379032
 21
581.7444090847
  0
LINE
  5
3F6
100
AcDbEntity
  8
6_ALL_SURFS
100
AcDbLine
 62
7
  6
CONTINUOUS
 10
850.7189366375
 20
581.9789539115
 11
850.7321221811
 21
581.9541555106
  0
LINE
  5
3F7
100
AcDbEntity
  8
7_ALL_FEATURES
100
AcDbLine
 62
7
  6
CONTINUOUS
 10
915.0252448561
 20
631.0152060291
 11
911.5220622806
 21
649.0245249032
  0
LINE
  5
3F8
100
AcDbEntity
  8
7_ALL_FEATURES
100
AcDbLine
 62
7
  6
CONTINUOUS
 10
910.045883302
 20
648.2335169403
 11
913.46834802
 21
630.6264623313
  0
LINE
  5
3F9
100
AcDbEntity
  8
7_ALL_FEATURES
100
AcDbLine
 62
7
  6
CONTINUOUS
 10
912.8698439462
 20
629.820060224
 11
913.4991456895
 21
628.0910678944
  0
LINE
  5
3FA
100
AcDbEntity
  8
6_ALL_SURFS
100
AcDbLine
 62
7
  6
CONTINUOUS
 10
858.2274520687
 20
655.4881124427
 11
859.2314262209
 21
653.7491782016
  0
LINE
  5
3FB
100
AcDbEntity
  8
7_ALL_FEATURES
100
AcDbLine
 62
7
  6
CONTINUOUS
 10
852.2051058689
 20
586.950244477
 11
852.3293699376
 21
586.8259804083
  0
LINE
  5
3FC
100
AcDbEntity
  8
7_ALL_FEATURES
100
AcDbLine
 62
7
  6
CONTINUOUS
 10
845.4172379032
 20
602.8381124426
 11
845.8172379032
 21
602.4381124426
  0
LINE
  5
3FD
100
AcDbEntity
  8
3_ALL_AXES
100
AcDbLine
 62
7
  6
CONTINUOUS
 10
853.1172379032
 20
599.8381124426
 11
852.4172379032
 21
600.5381124426
  0
LINE
  5
3FE
100
AcDbEntity
  8
7_ALL_FEATURES
100
AcDbLine
 62
7
  6
CONTINUOUS
 10
845.4172379032
 20
618.6381124426
 11
845.8172379032
 21
618.2381124426
  0
LINE
  5
3FF
100
AcDbEntity
  8
6_ALL_SURFS
100
AcDbLine
 62
7
  6
CONTINUOUS
 10
830.5172379032
 20
582.2881124426
 11
830.8172379032
 21
582.1381124426
  0
LINE
  5
400
100
AcDbEntity
  8
6_ALL_SURFS
100
AcDbLine
 62
7
  6
CONTINUOUS
 10
833.5172379032
 20
582.2881124426
 11
833.8172379032
 21
582.1381124426
  0
LINE
  5
401
100
AcDbEntity
  8
3_ALL_AXES
100
AcDbLine
 62
7
  6
CONTINUOUS
 10
853.1172379032
 20
615.6381124426
 11
852.4172379032
 21
616.3381124426
  0
LINE
  5
402
100
AcDbEntity
  8
3_ALL_AXES
100
AcDbLine
 62
7
  6
CONTINUOUS
 10
915.0783358462
 20
583.2745121147
 11
914.713908033
 21
583.6653130986
  0
LINE
  5
403
100
AcDbEntity
  8
3_ALL_AXES
100
AcDbLine
 62
7
  6
CONTINUOUS
 10
915.2989909943
 20
584.2109117867
 11
915.6634188075
 21
583.8201108027
  0
LINE
  5
404
100
AcDbEntity
  8
7_ALL_FEATURES
100
AcDbLine
 62
7
  6
CONTINUOUS
 10
915.107427672
 20
585.0427119507
 11
916.3366440137
 21
583.724538808
  0
LINE
  5
405
100
AcDbEntity
  8
7_ALL_FEATURES
100
AcDbLine
 62
7
  6
CONTINUOUS
 10
917.5142684557
 20
584.6611099827
 11
915.4978317927
 21
586.8234735658
  0
LINE
  5
406
100
AcDbEntity
  8
7_ALL_FEATURES
100
AcDbLine
 62
7
  6
CONTINUOUS
 10
905.1314262209
 20
653.7491782016
 11
904.1274520687
 21
655.4881124427
  0
LINE
  5
407
100
AcDbEntity
  8
6_ALL_SURFS
100
AcDbLine
 62
7
  6
CONTINUOUS
 10
836.5172379032
 20
582.2881124426
 11
836.8172379032
 21
582.1381124426
  0
LINE
  5
408
100
AcDbEntity
  8
6_ALL_SURFS
100
AcDbLine
 62
7
  6
CONTINUOUS
 10
839.5172379032
 20
582.2881124426
 11
839.8172379032
 21
582.1381124426
  0
LINE
  5
409
100
AcDbEntity
  8
6_ALL_SURFS
100
AcDbLine
 62
7
  6
CONTINUOUS
 10
842.5172379032
 20
582.2881124426
 11
842.8172379032
 21
582.1381124426
  0
LINE
  5
40A
100
AcDbEntity
  8
6_ALL_SURFS
100
AcDbLine
 62
7
  6
CONTINUOUS
 10
845.5172379032
 20
582.2881124426
 11
845.8172379032
 21
582.1381124426
  0
LINE
  5
40B
100
AcDbEntity
  8
6_ALL_SURFS
100
AcDbLine
 62
7
  6
CONTINUOUS
 10
852.2283036621
 20
590.8523007604
 11
852.2672379032
 21
590.8298220658
  0
LINE
  5
40C
100
AcDbEntity
  8
7_ALL_FEATURES
100
AcDbLine
 62
7
  6
CONTINUOUS
 10
913.6051058689
 20
589.050244477
 11
913.7293699376
 21
588.9259804083
  0
LINE
  5
40D
100
AcDbEntity
  8
3_ALL_AXES
100
AcDbLine
 62
7
  6
CONTINUOUS
 10
912.8172379032
 20
597.3381124426
 11
913.5172379032
 21
596.6381124426
  0
LINE
  5
40E
100
AcDbEntity
  8
7_ALL_FEATURES
100
AcDbLine
 62
7
  6
CONTINUOUS
 10
920.5172379032
 20
594.3381124426
 11
920.1172379032
 21
594.7381124426
  0
LINE
  5
40F
100
AcDbEntity
  8
7_ALL_FEATURES
100
AcDbLine
 62
7
  6
CONTINUOUS
 10
935.4172379032
 20
581.1381124426
 11
937.5627094936
 21
581.3526596017
  0
LINE
  5
410
100
AcDbEntity
  8
6_ALL_SURFS
100
AcDbLine
 62
7
  6
CONTINUOUS
 10
830.5172379032
 20
581.1381124426
 11
828.3717663128
 21
581.3526596017
  0
LINE
  5
411
100
AcDbEntity
  8
3_ALL_AXES
100
AcDbLine
 62
7
  6
CONTINUOUS
 10
920.7172379032
 20
582.1381124426
 11
920.4172379032
 21
582.2881124426
  0
LINE
  5
412
100
AcDbEntity
  8
3_ALL_AXES
100
AcDbLine
 62
7
  6
CONTINUOUS
 10
923.7172379032
 20
582.1381124426
 11
923.4172379032
 21
582.2881124426
  0
LINE
  5
413
100
AcDbEntity
  8
3_ALL_AXES
100
AcDbLine
 62
7
  6
CONTINUOUS
 10
926.7172379032
 20
582.1381124426
 11
926.4172379032
 21
582.2881124426
  0
LINE
  5
414
100
AcDbEntity
  8
3_ALL_AXES
100
AcDbLine
 62
7
  6
CONTINUOUS
 10
929.7172379032
 20
582.1381124426
 11
929.4172379032
 21
582.2881124426
  0
LINE
  5
415
100
AcDbEntity
  8
7_ALL_FEATURES
100
AcDbLine
 62
7
  6
CONTINUOUS
 10
913.6672379032
 20
592.4464028195
 11
913.7061721443
 21
592.4239241249
  0
LINE
  5
416
100
AcDbEntity
  8
7_ALL_FEATURES
100
AcDbLine
 62
7
  6
CONTINUOUS
 10
884.4672379032
 20
653.6381124426
 11
884.6672379032
 21
653.4381124426
  0
LINE
  5
417
100
AcDbEntity
  8
3_ALL_AXES
100
AcDbLine
 62
7
  6
CONTINUOUS
 10
912.8172379032
 20
625.6381124426
 11
913.5172379032
 21
624.9381124426
  0
LINE
  5
418
100
AcDbEntity
  8
7_ALL_FEATURES
100
AcDbLine
 62
7
  6
CONTINUOUS
 10
920.5172379032
 20
622.6381124426
 11
920.1172379032
 21
623.0381124426
  0
LINE
  5
419
100
AcDbEntity
  8
7_ALL_FEATURES
100
AcDbLine
 62
7
  6
CONTINUOUS
 10
849.6672379032
 20
579.1381124426
 11
916.2672379032
 21
579.1381124426
  0
LINE
  5
41A
100
AcDbEntity
  8
7_ALL_FEATURES
100
AcDbLine
 62
7
  6
CONTINUOUS
 10
916.0672379032
 20
579.6381124426
 11
849.8672379032
 21
579.6381124426
  0
LINE
  5
41B
100
AcDbEntity
  8
6_ALL_SURFS
100
AcDbLine
 62
7
  6
CONTINUOUS
 10
849.3172379032
 20
579.6381124426
 11
848.5172379032
 21
579.6381124426
  0
LINE
  5
41C
100
AcDbEntity
  8
7_ALL_FEATURES
100
AcDbLine
 62
7
  6
CONTINUOUS
 10
916.6172379032
 20
579.6381124426
 11
917.4172379032
 21
579.6381124426
  0
LINE
  5
41D
100
AcDbEntity
  8
6_ALL_SURFS
100
AcDbLine
 62
7
  6
CONTINUOUS
 10
850.5672379032
 20
580.6381124426
 11
849.7172379032
 21
580.6381124426
  0
LINE
  5
41E
100
AcDbEntity
  8
7_ALL_FEATURES
100
AcDbLine
 62
7
  6
CONTINUOUS
 10
849.8672379032
 20
580.6381124426
 11
850.7172379032
 21
580.6381124426
  0
LINE
  5
41F
100
AcDbEntity
  8
7_ALL_FEATURES
100
AcDbLine
 62
7
  6
CONTINUOUS
 10
915.2172379032
 20
580.6381124426
 11
916.2172379032
 21
580.6381124426
  0
LINE
  5
420
100
AcDbEntity
  8
6_ALL_SURFS
100
AcDbLine
 62
7
  6
CONTINUOUS
 10
848.1172379032
 20
581.1381124426
 11
845.8172379032
 21
581.1381124426
  0
LINE
  5
421
100
AcDbEntity
  8
6_ALL_SURFS
100
AcDbLine
 62
7
  6
CONTINUOUS
 10
845.2172379032
 20
581.1381124426
 11
842.8172379032
 21
581.1381124426
  0
LINE
  5
422
100
AcDbEntity
  8
6_ALL_SURFS
100
AcDbLine
 62
7
  6
CONTINUOUS
 10
842.2172379032
 20
581.1381124426
 11
839.8172379032
 21
581.1381124426
  0
LINE
  5
423
100
AcDbEntity
  8
6_ALL_SURFS
100
AcDbLine
 62
7
  6
CONTINUOUS
 10
839.2172379032
 20
581.1381124426
 11
836.8172379032
 21
581.1381124426
  0
LINE
  5
424
100
AcDbEntity
  8
6_ALL_SURFS
100
AcDbLine
 62
7
  6
CONTINUOUS
 10
836.2172379032
 20
581.1381124426
 11
833.8172379032
 21
581.1381124426
  0
LINE
  5
425
100
AcDbEntity
  8
6_ALL_SURFS
100
AcDbLine
 62
7
  6
CONTINUOUS
 10
833.2172379032
 20
581.1381124426
 11
830.5172379032
 21
581.1381124426
  0
LINE
  5
426
100
AcDbEntity
  8
7_ALL_FEATURES
100
AcDbLine
 62
7
  6
CONTINUOUS
 10
851.9172379032
 20
581.1381124426
 11
914.0172379032
 21
581.1381124426
  0
LINE
  5
427
100
AcDbEntity
  8
7_ALL_FEATURES
100
AcDbLine
 62
7
  6
CONTINUOUS
 10
917.8172379032
 20
581.1381124426
 11
920.1172379032
 21
581.1381124426
  0
LINE
  5
428
100
AcDbEntity
  8
3_ALL_AXES
100
AcDbLine
 62
7
  6
CONTINUOUS
 10
920.7172379032
 20
581.1381124426
 11
923.1172379032
 21
581.1381124426
  0
LINE
  5
429
100
AcDbEntity
  8
3_ALL_AXES
100
AcDbLine
 62
7
  6
CONTINUOUS
 10
923.7172379032
 20
581.1381124426
 11
926.1172379032
 21
581.1381124426
  0
LINE
  5
42A
100
AcDbEntity
  8
3_ALL_AXES
100
AcDbLine
 62
7
  6
CONTINUOUS
 10
926.7172379032
 20
581.1381124426
 11
929.1172379032
 21
581.1381124426
  0
LINE
  5
42B
100
AcDbEntity
  8
3_ALL_AXES
100
AcDbLine
 62
7
  6
CONTINUOUS
 10
929.7172379032
 20
581.1381124426
 11
932.1172379032
 21
581.1381124426
  0
LINE
  5
42C
100
AcDbEntity
  8
3_ALL_AXES
100
AcDbLine
 62
7
  6
CONTINUOUS
 10
932.7172379032
 20
581.1381124426
 11
935.4172379032
 21
581.1381124426
  0
LINE
  5
42D
100
AcDbEntity
  8
7_ALL_FEATURES
100
AcDbLine
 62
7
  6
CONTINUOUS
 10
937.5235345453
 20
582.1381124426
 11
935.7172379032
 21
582.1381124426
  0
LINE
  5
42E
100
AcDbEntity
  8
3_ALL_AXES
100
AcDbLine
 62
7
  6
CONTINUOUS
 10
935.1172379032
 20
582.1381124426
 11
932.7172379032
 21
582.1381124426
  0
LINE
  5
42F
100
AcDbEntity
  8
3_ALL_AXES
100
AcDbLine
 62
7
  6
CONTINUOUS
 10
932.1172379032
 20
582.1381124426
 11
929.7172379032
 21
582.1381124426
  0
LINE
  5
430
100
AcDbEntity
  8
3_ALL_AXES
100
AcDbLine
 62
7
  6
CONTINUOUS
 10
929.1172379032
 20
582.1381124426
 11
926.7172379032
 21
582.1381124426
  0
LINE
  5
431
100
AcDbEntity
  8
3_ALL_AXES
100
AcDbLine
 62
7
  6
CONTINUOUS
 10
926.1172379032
 20
582.1381124426
 11
923.7172379032
 21
582.1381124426
  0
LINE
  5
432
100
AcDbEntity
  8
3_ALL_AXES
100
AcDbLine
 62
7
  6
CONTINUOUS
 10
923.1172379032
 20
582.1381124426
 11
920.7172379032
 21
582.1381124426
  0
LINE
  5
433
100
AcDbEntity
  8
3_ALL_AXES
100
AcDbLine
 62
7
  6
CONTINUOUS
 10
920.1172379032
 20
582.1381124426
 11
917.9172379032
 21
582.1381124426
  0
LINE
  5
434
100
AcDbEntity
  8
7_ALL_FEATURES
100
AcDbLine
 62
7
  6
CONTINUOUS
 10
916.1172379032
 20
582.1381124426
 11
915.4804234468
 21
582.1381124426
  0
LINE
  5
435
100
AcDbEntity
  8
6_ALL_SURFS
100
AcDbLine
 62
7
  6
CONTINUOUS
 10
828.4109412611
 20
582.1381124426
 11
830.2172379032
 21
582.1381124426
  0
LINE
  5
436
100
AcDbEntity
  8
6_ALL_SURFS
100
AcDbLine
 62
7
  6
CONTINUOUS
 10
830.8172379032
 20
582.1381124426
 11
833.2172379032
 21
582.1381124426
  0
LINE
  5
437
100
AcDbEntity
  8
6_ALL_SURFS
100
AcDbLine
 62
7
  6
CONTINUOUS
 10
833.8172379032
 20
582.1381124426
 11
836.2172379032
 21
582.1381124426
  0
LINE
  5
438
100
AcDbEntity
  8
6_ALL_SURFS
100
AcDbLine
 62
7
  6
CONTINUOUS
 10
836.8172379032
 20
582.1381124426
 11
839.2172379032
 21
582.1381124426
  0
LINE
  5
439
100
AcDbEntity
  8
6_ALL_SURFS
100
AcDbLine
 62
7
  6
CONTINUOUS
 10
839.8172379032
 20
582.1381124426
 11
842.2172379032
 21
582.1381124426
  0
LINE
  5
43A
100
AcDbEntity
  8
6_ALL_SURFS
100
AcDbLine
 62
7
  6
CONTINUOUS
 10
842.8172379032
 20
582.1381124426
 11
845.2172379032
 21
582.1381124426
  0
LINE
  5
43B
100
AcDbEntity
  8
6_ALL_SURFS
100
AcDbLine
 62
7
  6
CONTINUOUS
 10
845.8172379032
 20
582.1381124426
 11
848.0172379032
 21
582.1381124426
  0
LINE
  5
43C
100
AcDbEntity
  8
6_ALL_SURFS
100
AcDbLine
 62
7
  6
CONTINUOUS
 10
849.8172379032
 20
582.1381124426
 11
850.4540523596
 21
582.1381124426
  0
LINE
  5
43D
100
AcDbEntity
  8
6_ALL_SURFS
100
AcDbLine
 62
7
  6
CONTINUOUS
 10
852.1172379032
 20
585.1381124426
 11
851.0464542449
 21
585.1381124426
  0
LINE
  5
43E
100
AcDbEntity
  8
7_ALL_FEATURES
100
AcDbLine
 62
7
  6
CONTINUOUS
 10
913.8172379032
 20
585.1381124426
 11
914.8880215615
 21
585.1381124426
  0
LINE
  5
43F
100
AcDbEntity
  8
3_ALL_AXES
100
AcDbLine
 62
7
  6
CONTINUOUS
 10
912.5172379032
 20
587.3381124426
 11
912.8172379032
 21
587.3381124426
  0
LINE
  5
440
100
AcDbEntity
  8
3_ALL_AXES
100
AcDbLine
 62
7
  6
CONTINUOUS
 10
920.1172379032
 20
588.2881124426
 11
918.1172379032
 21
588.2881124426
  0
LINE
  5
441
100
AcDbEntity
  8
6_ALL_SURFS
100
AcDbLine
 62
7
  6
CONTINUOUS
 10
850.2172379032
 20
588.7381124426
 11
849.4172379032
 21
588.7381124426
  0
LINE
  5
442
100
AcDbEntity
  8
7_ALL_FEATURES
100
AcDbLine
 62
7
  6
CONTINUOUS
 10
915.7172379032
 20
588.7381124426
 11
916.5172379032
 21
588.7381124426
  0
LINE
  5
443
100
AcDbEntity
  8
7_ALL_FEATURES
100
AcDbLine
 62
7
  6
CONTINUOUS
 10
916.5172379032
 20
594.5381124426
 11
915.4172379032
 21
594.5381124426
  0
LINE
  5
444
100
AcDbEntity
  8
6_ALL_SURFS
100
AcDbLine
 62
7
  6
CONTINUOUS
 10
849.4172379032
 20
594.5381124426
 11
850.5172379032
 21
594.5381124426
  0
LINE
  5
445
100
AcDbEntity
  8
3_ALL_AXES
100
AcDbLine
 62
7
  6
CONTINUOUS
 10
920.1172379032
 20
596.9881124426
 11
918.1172379032
 21
596.9881124426
  0
LINE
  5
446
100
AcDbEntity
  8
3_ALL_AXES
100
AcDbLine
 62
7
  6
CONTINUOUS
 10
912.5172379032
 20
597.3381124426
 11
912.8172379032
 21
597.3381124426
  0
LINE
  5
447
100
AcDbEntity
  8
3_ALL_AXES
100
AcDbLine
 62
7
  6
CONTINUOUS
 10
845.8172379032
 20
598.2881124426
 11
847.8172379032
 21
598.2881124426
  0
LINE
  5
448
100
AcDbEntity
  8
3_ALL_AXES
100
AcDbLine
 62
7
  6
CONTINUOUS
 10
932.7172379032
 20
582.1381124426
 11
932.4172379032
 21
582.2881124426
  0
LINE
  5
449
100
AcDbEntity
  8
3_ALL_AXES
100
AcDbLine
 62
7
  6
CONTINUOUS
 10
935.7172379032
 20
582.1381124426
 11
935.4172379032
 21
582.2881124426
  0
LINE
  5
44A
100
AcDbEntity
  8
3_ALL_AXES
100
AcDbLine
 62
7
  6
CONTINUOUS
 10
853.4172379032
 20
599.8381124426
 11
853.1172379032
 21
599.8381124426
  0
LINE
  5
44B
100
AcDbEntity
  8
7_ALL_FEATURES
100
AcDbLine
 62
7
  6
CONTINUOUS
 10
847.8172379032
 20
605.6381124426
 11
850.8172379032
 21
605.6381124426
  0
LINE
  5
44C
100
AcDbEntity
  8
3_ALL_AXES
100
AcDbLine
 62
7
  6
CONTINUOUS
 10
845.8172379032
 20
606.9881124426
 11
847.8172379032
 21
606.9881124426
  0
LINE
  5
44D
100
AcDbEntity
  8
7_ALL_FEATURES
100
AcDbLine
 62
7
  6
CONTINUOUS
 10
847.8172379032
 20
607.3381124426
 11
845.9172379032
 21
607.3381124426
  0
LINE
  5
44E
100
AcDbEntity
  8
7_ALL_FEATURES
100
AcDbLine
 62
7
  6
CONTINUOUS
 10
918.1172379032
 20
608.1381124426
 11
915.1172379032
 21
608.1381124426
  0
LINE
  5
44F
100
AcDbEntity
  8
3_ALL_AXES
100
AcDbLine
 62
7
  6
CONTINUOUS
 10
853.4172379032
 20
609.8381124426
 11
853.1172379032
 21
609.8381124426
  0
LINE
  5
450
100
AcDbEntity
  8
3_ALL_AXES
100
AcDbLine
 62
7
  6
CONTINUOUS
 10
845.8172379032
 20
613.7881124426
 11
847.8172379032
 21
613.7881124426
  0
LINE
  5
451
100
AcDbEntity
  8
3_ALL_AXES
100
AcDbLine
 62
7
  6
CONTINUOUS
 10
853.4172379032
 20
615.6381124426
 11
853.1172379032
 21
615.6381124426
  0
LINE
  5
452
100
AcDbEntity
  8
3_ALL_AXES
100
AcDbLine
 62
7
  6
CONTINUOUS
 10
912.5172379032
 20
615.6381124426
 11
912.8172379032
 21
615.6381124426
  0
LINE
  5
453
100
AcDbEntity
  8
3_ALL_AXES
100
AcDbLine
 62
7
  6
CONTINUOUS
 10
920.1172379032
 20
616.2881124426
 11
918.1172379032
 21
616.2881124426
  0
LINE
  5
454
100
AcDbEntity
  8
6_ALL_SURFS
100
AcDbLine
 62
7
  6
CONTINUOUS
 10
852.6580098985
 20
630.2873118464
 11
852.885330117
 21
630.2045740532
  0
LINE
  5
455
100
AcDbEntity
  8
3_ALL_AXES
100
AcDbLine
 62
7
  6
CONTINUOUS
 10
845.8172379032
 20
622.4881124426
 11
847.8172379032
 21
622.4881124426
  0
LINE
  5
456
100
AcDbEntity
  8
7_ALL_FEATURES
100
AcDbLine
 62
7
  6
CONTINUOUS
 10
847.8172379032
 20
623.1381124426
 11
845.9172379032
 21
623.1381124426
  0
LINE
  5
457
100
AcDbEntity
  8
3_ALL_AXES
100
AcDbLine
 62
7
  6
CONTINUOUS
 10
920.1172379032
 20
624.9881124426
 11
918.1172379032
 21
624.9881124426
  0
LINE
  5
458
100
AcDbEntity
  8
3_ALL_AXES
100
AcDbLine
 62
7
  6
CONTINUOUS
 10
853.4172379032
 20
625.6381124426
 11
853.1172379032
 21
625.6381124426
  0
LINE
  5
459
100
AcDbEntity
  8
3_ALL_AXES
100
AcDbLine
 62
7
  6
CONTINUOUS
 10
912.5172379032
 20
625.6381124426
 11
912.8172379032
 21
625.6381124426
  0
LINE
  5
45A
100
AcDbEntity
  8
7_ALL_FEATURES
100
AcDbLine
 62
7
  6
CONTINUOUS
 10
847.8172379032
 20
630.6381124426
 11
850.8172379032
 21
630.6381124426
  0
LINE
  5
45B
100
AcDbEntity
  8
7_ALL_FEATURES
100
AcDbLine
 62
7
  6
CONTINUOUS
 10
918.1172379032
 20
633.1381124426
 11
915.1172379032
 21
633.1381124426
  0
LINE
  5
45C
100
AcDbEntity
  8
7_ALL_FEATURES
100
AcDbLine
 62
7
  6
CONTINUOUS
 10
886.9672379032
 20
645.6099092124
 11
878.9672379032
 21
645.6099092124
  0
LINE
  5
45D
100
AcDbEntity
  8
7_ALL_FEATURES
100
AcDbLine
 62
7
  6
CONTINUOUS
 10
890.4672379032
 20
647.6381124426
 11
875.4672379032
 21
647.6381124426
  0
LINE
  5
45E
100
AcDbEntity
  8
6_ALL_SURFS
100
AcDbLine
 62
7
  6
CONTINUOUS
 10
880.9672379032
 20
648.6381124426
 11
856.3794060961
 21
648.6381124426
  0
LINE
  5
45F
100
AcDbEntity
  8
7_ALL_FEATURES
100
AcDbLine
 62
7
  6
CONTINUOUS
 10
880.9672379032
 20
648.6381124426
 11
909.5550697103
 21
648.6381124426
  0
LINE
  5
460
100
AcDbEntity
  8
7_ALL_FEATURES
100
AcDbLine
 62
7
  6
CONTINUOUS
 10
910.0496601948
 20
650.2381124426
 11
908.7751217357
 21
650.2381124426
  0
LINE
  5
461
100
AcDbEntity
  8
7_ALL_FEATURES
100
AcDbLine
 62
7
  6
CONTINUOUS
 10
903.0593540708
 20
650.2381124426
 11
887.0672379032
 21
650.2381124426
  0
LINE
  5
462
100
AcDbEntity
  8
6_ALL_SURFS
100
AcDbLine
 62
7
  6
CONTINUOUS
 10
855.8848156117
 20
650.2381124426
 11
857.1593540708
 21
650.2381124426
  0
LINE
  5
463
100
AcDbEntity
  8
6_ALL_SURFS
100
AcDbLine
 62
7
  6
CONTINUOUS
 10
862.8751217357
 20
650.2381124426
 11
878.8672379032
 21
650.2381124426
  0
LINE
  5
464
100
AcDbEntity
  8
7_ALL_FEATURES
100
AcDbLine
 62
7
  6
CONTINUOUS
 10
881.2672379032
 20
653.1381124426
 11
884.6672379032
 21
653.1381124426
  0
LINE
  5
465
100
AcDbEntity
  8
7_ALL_FEATURES
100
AcDbLine
 62
7
  6
CONTINUOUS
 10
881.4672379032
 20
653.6381124426
 11
884.4672379032
 21
653.6381124426
  0
LINE
  5
466
100
AcDbEntity
  8
7_ALL_FEATURES
100
AcDbLine
 62
7
  6
CONTINUOUS
 10
884.3672379032
 20
654.0381124426
 11
881.5672379032
 21
654.0381124426
  0
LINE
  5
467
100
AcDbEntity
  8
6_ALL_SURFS
100
AcDbLine
 62
7
  6
CONTINUOUS
 10
857.3928332088
 20
654.3381124426
 11
856.0172379032
 21
654.3381124426
  0
LINE
  5
468
100
AcDbEntity
  8
7_ALL_FEATURES
100
AcDbLine
 62
7
  6
CONTINUOUS
 10
908.5416425977
 20
654.3381124426
 11
909.9172379032
 21
654.3381124426
  0
LINE
  5
469
100
AcDbEntity
  8
7_ALL_FEATURES
100
AcDbLine
 62
7
  6
CONTINUOUS
 10
909.9172379032
 20
655.6381124426
 11
907.9668313589
 21
655.6381124426
  0
LINE
  5
46A
100
AcDbEntity
  8
7_ALL_FEATURES
100
AcDbLine
 62
7
  6
CONTINUOUS
 10
903.8676444476
 20
655.6381124426
 11
903.4172379032
 21
655.6381124426
  0
LINE
  5
46B
100
AcDbEntity
  8
6_ALL_SURFS
100
AcDbLine
 62
7
  6
CONTINUOUS
 10
856.0172379032
 20
655.6381124426
 11
857.9676444476
 21
655.6381124426
  0
LINE
  5
46C
100
AcDbEntity
  8
6_ALL_SURFS
100
AcDbLine
 62
7
  6
CONTINUOUS
 10
862.0668313589
 20
655.6381124426
 11
862.5172379032
 21
655.6381124426
  0
LINE
  5
46D
100
AcDbEntity
  8
7_ALL_FEATURES
100
AcDbLine
 62
7
  6
CONTINUOUS
 10
880.3672379032
 20
655.6381124426
 11
885.5672379032
 21
655.6381124426
  0
LINE
  5
46E
100
AcDbEntity
  8
6_ALL_SURFS
100
AcDbLine
 62
7
  6
CONTINUOUS
 10
54.0737798943
 20
734.1123388059
 11
54.0737798943
 21
712.4991200534
  0
LINE
  5
46F
100
AcDbEntity
  8
7_ALL_FEATURES
100
AcDbLine
 62
7
  6
CONTINUOUS
 10
54.0737798943
 20
734.1491155537
 11
54.0737798943
 21
804.5991155537
  0
LINE
  5
470
100
AcDbEntity
  8
3_ALL_AXES
100
AcDbLine
 62
7
  6
CONTINUOUS
 10
54.0737798943
 20
804.5991155537
 11
54.0737798943
 21
819.8991155537
  0
LINE
  5
471
100
AcDbEntity
  8
7_ALL_FEATURES
100
AcDbLine
 62
7
  6
CONTINUOUS
 10
54.0737798943
 20
819.8991155537
 11
54.0737798943
 21
822.3991110541
  0
LINE
  5
472
100
AcDbEntity
  8
7_ALL_FEATURES
100
AcDbLine
 62
7
  6
CONTINUOUS
 10
662.9508734807
 20
735.3911086009
 11
680.9601923549
 21
738.8942911763
  0
LINE
  5
473
100
AcDbEntity
  8
7_ALL_FEATURES
100
AcDbLine
 62
7
  6
CONTINUOUS
 10
680.169184392
 20
740.3704701549
 11
662.5621297829
 21
736.948005437
  0
LINE
  5
474
100
AcDbEntity
  8
6_ALL_SURFS
100
AcDbLine
 62
7
  6
CONTINUOUS
 10
54.0737798943
 20
712.4991155537
 11
613.6800765364
 21
712.4991155537
  0
LINE
  5
475
100
AcDbEntity
  8
7_ALL_FEATURES
100
AcDbLine
 62
9
  6
CONTINUOUS
 10
613.2883270534
 20
712.8536439634
 11
54.0737798943
 21
712.8536439634
  0
LINE
  5
476
100
AcDbEntity
  8
7_ALL_FEATURES
100
AcDbLine
 62
7
  6
CONTINUOUS
 10
613.0737798943
 20
714.9991155537
 11
599.357187688
 21
714.9991155537
  0
LINE
  5
477
100
AcDbEntity
  8
6_ALL_SURFS
100
AcDbLine
 62
7
  6
CONTINUOUS
 10
592.7903721006
 20
714.9991155537
 11
349.357187688
 21
714.9991155537
  0
LINE
  5
478
100
AcDbEntity
  8
6_ALL_SURFS
100
AcDbLine
 62
7
  6
CONTINUOUS
 10
342.7903721006
 20
714.9991155537
 11
99.357187688
 21
714.9991155537
  0
LINE
  5
479
100
AcDbEntity
  8
6_ALL_SURFS
100
AcDbLine
 62
7
  6
CONTINUOUS
 10
92.7903721006
 20
714.9991155537
 11
54.0737798943
 21
714.9991155537
  0
LINE
  5
47A
100
AcDbEntity
  8
7_ALL_FEATURES
100
AcDbLine
 62
7
  6
CONTINUOUS
 10
613.0737798943
 20
717.6991155537
 11
600.8056681791
 21
717.6991155537
  0
LINE
  5
47B
100
AcDbEntity
  8
6_ALL_SURFS
100
AcDbLine
 62
7
  6
CONTINUOUS
 10
591.3418916095
 20
717.6991155537
 11
350.8056681791
 21
717.6991155537
  0
LINE
  5
47C
100
AcDbEntity
  8
6_ALL_SURFS
100
AcDbLine
 62
7
  6
CONTINUOUS
 10
341.3418916095
 20
717.6991155537
 11
100.8056681791
 21
717.6991155537
  0
LINE
  5
47D
100
AcDbEntity
  8
6_ALL_SURFS
100
AcDbLine
 62
7
  6
CONTINUOUS
 10
91.3418916095
 20
717.6991155537
 11
54.0737798943
 21
717.6991155537
  0
LINE
  5
47E
100
AcDbEntity
  8
7_ALL_FEATURES
100
AcDbLine
 62
7
  6
CONTINUOUS
 10
613.0737798943
 20
718.2991155537
 11
600.8686486871
 21
718.2991155537
  0
LINE
  5
47F
100
AcDbEntity
  8
6_ALL_SURFS
100
AcDbLine
 62
7
  6
CONTINUOUS
 10
591.2789111016
 20
718.2991155537
 11
350.8686486871
 21
718.2991155537
  0
LINE
  5
480
100
AcDbEntity
  8
6_ALL_SURFS
100
AcDbLine
 62
7
  6
CONTINUOUS
 10
341.2789111016
 20
718.2991155537
 11
100.8686486871
 21
718.2991155537
  0
LINE
  5
481
100
AcDbEntity
  8
6_ALL_SURFS
100
AcDbLine
 62
7
  6
CONTINUOUS
 10
91.2789111016
 20
718.2991155537
 11
54.0737798943
 21
718.2991155537
  0
LINE
  5
482
100
AcDbEntity
  8
7_ALL_FEATURES
100
AcDbLine
 62
7
  6
CONTINUOUS
 10
613.0737798943
 20
720.6991155537
 11
600.3388434038
 21
720.6991155537
  0
LINE
  5
483
100
AcDbEntity
  8
6_ALL_SURFS
100
AcDbLine
 62
7
  6
CONTINUOUS
 10
591.8087163849
 20
720.6991155537
 11
350.3388434038
 21
720.6991155537
  0
LINE
  5
484
100
AcDbEntity
  8
6_ALL_SURFS
100
AcDbLine
 62
7
  6
CONTINUOUS
 10
341.8087163849
 20
720.6991155537
 11
100.3388434038
 21
720.6991155537
  0
LINE
  5
485
100
AcDbEntity
  8
6_ALL_SURFS
100
AcDbLine
 62
7
  6
CONTINUOUS
 10
91.8087163849
 20
720.6991155537
 11
54.0737798943
 21
720.6991155537
  0
LINE
  5
486
100
AcDbEntity
  8
7_ALL_FEATURES
100
AcDbLine
 62
7
  6
CONTINUOUS
 10
613.0737798943
 20
721.2991155537
 11
599.9713133117
 21
721.2991155537
  0
LINE
  5
487
100
AcDbEntity
  8
6_ALL_SURFS
100
AcDbLine
 62
7
  6
CONTINUOUS
 10
592.1762464769
 20
721.2991155537
 11
349.9713133117
 21
721.2991155537
  0
LINE
  5
488
100
AcDbEntity
  8
6_ALL_SURFS
100
AcDbLine
 62
7
  6
CONTINUOUS
 10
342.1762464769
 20
721.2991155537
 11
99.9713133117
 21
721.2991155537
  0
LINE
  5
489
100
AcDbEntity
  8
6_ALL_SURFS
100
AcDbLine
 62
7
  6
CONTINUOUS
 10
92.1762464769
 20
721.2991155537
 11
54.0737798943
 21
721.2991155537
  0
LINE
  5
48A
100
AcDbEntity
  8
7_ALL_FEATURES
100
AcDbLine
 62
7
  6
CONTINUOUS
 10
613.0737798943
 20
723.6991155537
 11
54.0737798943
 21
723.6991155537
  0
LINE
  5
48B
100
AcDbEntity
  8
7_ALL_FEATURES
100
AcDbLine
 62
7
  6
CONTINUOUS
 10
613.0737798943
 20
724.2991155537
 11
54.0737798943
 21
724.2991155537
  0
LINE
  5
48C
100
AcDbEntity
  8
7_ALL_FEATURES
100
AcDbLine
 62
7
  6
CONTINUOUS
 10
613.0737798943
 20
726.6991155537
 11
54.0737798943
 21
726.6991155537
  0
LINE
  5
48D
100
AcDbEntity
  8
7_ALL_FEATURES
100
AcDbLine
 62
7
  6
CONTINUOUS
 10
613.0737798943
 20
727.2991155537
 11
54.0737798943
 21
727.2991155537
  0
LINE
  5
48E
100
AcDbEntity
  8
7_ALL_FEATURES
100
AcDbLine
 62
7
  6
CONTINUOUS
 10
613.0737798943
 20
729.6991155537
 11
54.0737798943
 21
729.6991155537
  0
LINE
  5
48F
100
AcDbEntity
  8
7_ALL_FEATURES
100
AcDbLine
 62
7
  6
CONTINUOUS
 10
622.2737798943
 20
729.8991155537
 11
626.2737798943
 21
729.8991155537
  0
LINE
  5
490
100
AcDbEntity
  8
7_ALL_FEATURES
100
AcDbLine
 62
7
  6
CONTINUOUS
 10
650.5737798943
 20
729.8991155537
 11
654.5737798943
 21
729.8991155537
  0
LINE
  5
491
100
AcDbEntity
  8
7_ALL_FEATURES
100
AcDbLine
 62
7
  6
CONTINUOUS
 10
613.0737798943
 20
730.2991155537
 11
54.0737798943
 21
730.2991155537
  0
LINE
  5
492
100
AcDbEntity
  8
3_ALL_AXES
100
AcDbLine
 62
7
  6
CONTINUOUS
 10
617.7237798943
 20
730.2991155537
 11
626.4237798943
 21
730.2991155537
  0
LINE
  5
493
100
AcDbEntity
  8
3_ALL_AXES
100
AcDbLine
 62
7
  6
CONTINUOUS
 10
645.7237798943
 20
730.2991155537
 11
654.4237798943
 21
730.2991155537
  0
LINE
  5
494
100
AcDbEntity
  8
7_ALL_FEATURES
100
AcDbLine
 62
7
  6
CONTINUOUS
 10
626.4237798943
 20
730.3991155537
 11
626.7737798943
 21
730.3991155537
  0
LINE
  5
495
100
AcDbEntity
  8
7_ALL_FEATURES
100
AcDbLine
 62
7
  6
CONTINUOUS
 10
654.4237798943
 20
730.3991155537
 11
655.0737798943
 21
730.3991155537
  0
LINE
  5
496
100
AcDbEntity
  8
7_ALL_FEATURES
100
AcDbLine
 62
3
  6
CONTINUOUS
 10
614.0737798943
 20
732.2991155537
 11
662.5737798943
 21
732.2991155537
  0
LINE
  5
497
100
AcDbEntity
  8
7_ALL_FEATURES
100
AcDbLine
 62
7
  6
CONTINUOUS
 10
614.0737798943
 20
732.3991155537
 11
624.9737798943
 21
732.3991155537
  0
LINE
  5
498
100
AcDbEntity
  8
7_ALL_FEATURES
100
AcDbLine
 62
7
  6
CONTINUOUS
 10
614.0737798943
 20
732.4991155537
 11
615.5737798943
 21
732.4991155537
  0
LINE
  5
499
100
AcDbEntity
  8
7_ALL_FEATURES
100
AcDbLine
 62
9
  6
CONTINUOUS
 10
613.0737798943
 20
732.5991155537
 11
54.0737798943
 21
732.5991155537
  0
LINE
  5
49A
100
AcDbEntity
  8
7_ALL_FEATURES
100
AcDbLine
 62
7
  6
CONTINUOUS
 10
54.0737798943
 20
732.7991155537
 11
612.8737798943
 21
732.7991155537
  0
LINE
  5
49B
100
AcDbEntity
  8
7_ALL_FEATURES
100
AcDbLine
 62
9
  6
CONTINUOUS
 10
54.0737798943
 20
732.9991155537
 11
611.5737798943
 21
732.9991155537
  0
LINE
  5
49C
100
AcDbEntity
  8
7_ALL_FEATURES
100
AcDbLine
 62
9
  6
CONTINUOUS
 10
54.0737798943
 20
733.7991155537
 11
611.5737798943
 21
733.7991155537
  0
LINE
  5
49D
100
AcDbEntity
  8
7_ALL_FEATURES
100
AcDbLine
 62
9
  6
CONTINUOUS
 10
617.6659618018
 20
733.8991155537
 11
620.6737798943
 21
733.8991155537
  0
LINE
  5
49E
100
AcDbEntity
  8
7_ALL_FEATURES
100
AcDbLine
 62
7
  6
CONTINUOUS
 10
615.4556067516
 20
733.9991155537
 11
614.3737798943
 21
733.9991155537
  0
LINE
  5
49F
100
AcDbEntity
  8
7_ALL_FEATURES
100
AcDbLine
 62
7
  6
CONTINUOUS
 10
54.0737798943
 20
733.9991155537
 11
612.3737798943
 21
733.9991155537
  0
LINE
  5
4A0
100
AcDbEntity
  8
7_ALL_FEATURES
100
AcDbLine
 62
9
  6
CONTINUOUS
 10
615.6602062597
 20
734.0797094433
 11
614.1705736303
 21
734.0797094433
  0
LINE
  5
4A1
100
AcDbEntity
  8
7_ALL_FEATURES
100
AcDbLine
 62
7
  6
CONTINUOUS
 10
612.3737798943
 20
734.1491155537
 11
611.7737798943
 21
734.1491155537
  0
LINE
  5
4A2
100
AcDbEntity
  8
7_ALL_FEATURES
100
AcDbLine
 62
7
  6
CONTINUOUS
 10
611.0737798943
 20
734.1491155537
 11
54.0737798943
 21
734.1491155537
  0
LINE
  5
4A3
100
AcDbEntity
  8
7_ALL_FEATURES
100
AcDbLine
 62
9
  6
CONTINUOUS
 10
612.5737798943
 20
734.1991155537
 11
612.5047481429
 21
734.1991155537
  0
LINE
  5
4A4
100
AcDbEntity
  8
7_ALL_FEATURES
100
AcDbLine
 62
9
  6
CONTINUOUS
 10
611.6428116458
 20
734.1991155537
 11
611.0737798943
 21
734.1991155537
  0
LINE
  5
4A5
100
AcDbEntity
  8
7_ALL_FEATURES
100
AcDbLine
 62
9
  6
CONTINUOUS
 10
611.0737798943
 20
734.3491155537
 11
54.0737798943
 21
734.3491155537
  0
LINE
  5
4A6
100
AcDbEntity
  8
7_ALL_FEATURES
100
AcDbLine
 62
9
  6
CONTINUOUS
 10
620.6737798943
 20
734.6991155537
 11
618.5238567698
 21
734.6991155537
  0
LINE
  5
4A7
100
AcDbEntity
  8
7_ALL_FEATURES
100
AcDbLine
 62
7
  6
CONTINUOUS
 10
618.9637405255
 20
734.9991155537
 11
620.3737798943
 21
734.9991155537
  0
LINE
  5
4A8
100
AcDbEntity
  8
7_ALL_FEATURES
100
AcDbLine
 62
9
  6
CONTINUOUS
 10
611.0737798943
 20
735.0491155537
 11
611.5737798943
 21
735.0491155537
  0
LINE
  5
4A9
100
AcDbEntity
  8
7_ALL_FEATURES
100
AcDbLine
 62
7
  6
CONTINUOUS
 10
611.0737798943
 20
735.2491155537
 11
611.5737798943
 21
735.2491155537
  0
LINE
  5
4AA
100
AcDbEntity
  8
7_ALL_FEATURES
100
AcDbLine
 62
7
  6
CONTINUOUS
 10
612.580954172
 20
735.2491155537
 11
613.7489814935
 21
735.2491155537
  0
LINE
  5
4AB
100
AcDbEntity
  8
7_ALL_FEATURES
100
AcDbLine
 62
7
  6
CONTINUOUS
 10
626.7737798943
 20
735.2991155537
 11
662.5737798943
 21
735.2991155537
  0
LINE
  5
4AC
100
AcDbEntity
  8
7_ALL_FEATURES
100
AcDbLine
 62
9
  6
CONTINUOUS
 10
616.9783794023
 20
735.3089257849
 11
616.2604768178
 21
735.3089257849
  0
LINE
  5
4AD
100
AcDbEntity
  8
7_ALL_FEATURES
100
AcDbLine
 62
9
  6
CONTINUOUS
 10
615.169083636
 20
735.3089257849
 11
614.9787028032
 21
735.3089257849
  0
LINE
  5
4AE
100
AcDbEntity
  8
7_ALL_FEATURES
100
AcDbLine
 62
9
  6
CONTINUOUS
 10
613.806718791
 20
735.3089257849
 11
612.606789068
 21
735.3089257849
  0
LINE
  5
4AF
100
AcDbEntity
  8
7_ALL_FEATURES
100
AcDbLine
 62
9
  6
CONTINUOUS
 10
611.5737798943
 20
735.3089257849
 11
611.0737798943
 21
735.3089257849
  0
LINE
  5
4B0
100
AcDbEntity
  8
7_ALL_FEATURES
100
AcDbLine
 62
7
  6
CONTINUOUS
 10
613.3937798943
 20
735.3991155537
 11
612.7737798943
 21
735.3991155537
  0
LINE
  5
4B1
100
AcDbEntity
  8
7_ALL_FEATURES
100
AcDbLine
 62
9
  6
CONTINUOUS
 10
617.0737798943
 20
735.5283318954
 11
616.2551913118
 21
735.5283318954
  0
LINE
  5
4B2
100
AcDbEntity
  8
7_ALL_FEATURES
100
AcDbLine
 62
9
  6
CONTINUOUS
 10
615.4142666503
 20
735.5283318954
 11
614.7939615716
 21
735.5283318954
  0
LINE
  5
4B3
100
AcDbEntity
  8
7_ALL_FEATURES
100
AcDbLine
 62
9
  6
CONTINUOUS
 10
611.5737798943
 20
735.5283318954
 11
611.0737798943
 21
735.5283318954
  0
LINE
  5
4B4
100
AcDbEntity
  8
7_ALL_FEATURES
100
AcDbLine
 62
7
  6
CONTINUOUS
 10
613.2737798943
 20
736.1991155537
 11
613.3937798943
 21
736.1991155537
  0
LINE
  5
4B5
100
AcDbEntity
  8
7_ALL_FEATURES
100
AcDbLine
 62
9
  6
CONTINUOUS
 10
622.7242142103
 20
736.3331064828
 11
624.4233455783
 21
736.3331064828
  0
LINE
  5
4B6
100
AcDbEntity
  8
7_ALL_FEATURES
100
AcDbLine
 62
7
  6
CONTINUOUS
 10
620.6495158256
 20
736.5991155537
 11
619.098043963
 21
736.5991155537
  0
LINE
  5
4B7
100
AcDbEntity
  8
7_ALL_FEATURES
100
AcDbLine
 62
9
  6
CONTINUOUS
 10
611.0737798943
 20
736.5991155537
 11
611.5737798943
 21
736.5991155537
  0
LINE
  5
4B8
100
AcDbEntity
  8
7_ALL_FEATURES
100
AcDbLine
 62
9
  6
CONTINUOUS
 10
613.0737798943
 20
736.5991155537
 11
617.0737798943
 21
736.5991155537
  0
LINE
  5
4B9
100
AcDbEntity
  8
7_ALL_FEATURES
100
AcDbLine
 62
9
  6
CONTINUOUS
 10
618.8859119287
 20
736.6869835194
 11
620.86164786
 21
736.6869835194
  0
LINE
  5
4BA
100
AcDbEntity
  8
7_ALL_FEATURES
100
AcDbLine
 62
9
  6
CONTINUOUS
 10
622.7879682121
 20
736.7101813126
 11
624.3595915766
 21
736.7101813126
  0
LINE
  5
4BB
100
AcDbEntity
  8
7_ALL_FEATURES
100
AcDbLine
 62
9
  6
CONTINUOUS
 10
622.7654895175
 20
736.7491155537
 11
624.3820702712
 21
736.7491155537
  0
LINE
  5
4BC
100
AcDbEntity
  8
7_ALL_FEATURES
100
AcDbLine
 62
9
  6
CONTINUOUS
 10
620.9859119287
 20
736.8112475881
 11
618.76164786
 21
736.8112475881
  0
LINE
  5
4BD
100
AcDbEntity
  8
7_ALL_FEATURES
100
AcDbLine
 62
7
  6
CONTINUOUS
 10
611.0737798943
 20
736.8991155537
 11
611.5737798943
 21
736.8991155537
  0
LINE
  5
4BE
100
AcDbEntity
  8
7_ALL_FEATURES
100
AcDbLine
 62
7
  6
CONTINUOUS
 10
613.0737798943
 20
736.8991155537
 11
659.9241293031
 21
736.8991155537
  0
LINE
  5
4BF
100
AcDbEntity
  8
7_ALL_FEATURES
100
AcDbLine
 62
9
  6
CONTINUOUS
 10
660.0267353461
 20
736.9172077675
 11
656.8918721081
 21
736.9172077675
  0
LINE
  5
4C0
100
AcDbEntity
  8
7_ALL_FEATURES
100
AcDbLine
 62
9
  6
CONTINUOUS
 10
648.2556876806
 20
736.9172077675
 11
628.5918721081
 21
736.9172077675
  0
LINE
  5
4C1
100
AcDbEntity
  8
7_ALL_FEATURES
100
AcDbLine
 62
9
  6
CONTINUOUS
 10
619.9556876806
 20
736.9172077675
 11
613.0737798943
 21
736.9172077675
  0
LINE
  5
4C2
100
AcDbEntity
  8
7_ALL_FEATURES
100
AcDbLine
 62
9
  6
CONTINUOUS
 10
611.5737798943
 20
736.9172077675
 11
611.0737798943
 21
736.9172077675
  0
LINE
  5
4C3
100
AcDbEntity
  8
7_ALL_FEATURES
100
AcDbLine
 62
9
  6
CONTINUOUS
 10
611.0737798943
 20
737.5465095107
 11
611.5737798943
 21
737.5465095107
  0
LINE
  5
4C4
100
AcDbEntity
  8
7_ALL_FEATURES
100
AcDbLine
 62
9
  6
CONTINUOUS
 10
613.0737798943
 20
737.5465095107
 11
619.3263859373
 21
737.5465095107
  0
LINE
  5
4C5
100
AcDbEntity
  8
7_ALL_FEATURES
100
AcDbLine
 62
9
  6
CONTINUOUS
 10
629.2211738513
 20
737.5465095107
 11
647.6263859373
 21
737.5465095107
  0
LINE
  5
4C6
100
AcDbEntity
  8
7_ALL_FEATURES
100
AcDbLine
 62
9
  6
CONTINUOUS
 10
657.5211738513
 20
737.5465095107
 11
661.7557276757
 21
737.5465095107
  0
LINE
  5
4C7
100
AcDbEntity
  8
6_ALL_SURFS
100
AcDbLine
 62
7
  6
CONTINUOUS
 10
661.8583337187
 20
737.5646017245
 11
657.5392660651
 21
737.5646017245
  0
LINE
  5
4C8
100
AcDbEntity
  8
6_ALL_SURFS
100
AcDbLine
 62
7
  6
CONTINUOUS
 10
647.6082937236
 20
737.5646017245
 11
629.2392660651
 21
737.5646017245
  0
LINE
  5
4C9
100
AcDbEntity
  8
6_ALL_SURFS
100
AcDbLine
 62
7
  6
CONTINUOUS
 10
619.3082937236
 20
737.5646017245
 11
613.0737798943
 21
737.5646017245
  0
LINE
  5
4CA
100
AcDbEntity
  8
6_ALL_SURFS
100
AcDbLine
 62
7
  6
CONTINUOUS
 10
611.5737798943
 20
737.5646017245
 11
611.0737798943
 21
737.5646017245
  0
LINE
  5
4CB
100
AcDbEntity
  8
3_ALL_AXES
100
AcDbLine
 62
7
  6
CONTINUOUS
 10
619.2737798943
 20
737.5991155537
 11
629.2737798943
 21
737.5991155537
  0
LINE
  5
4CC
100
AcDbEntity
  8
3_ALL_AXES
100
AcDbLine
 62
7
  6
CONTINUOUS
 10
647.5737798943
 20
737.5991155537
 11
657.5737798943
 21
737.5991155537
  0
LINE
  5
4CD
100
AcDbEntity
  8
3_ALL_AXES
100
AcDbLine
 62
7
  6
CONTINUOUS
 10
619.2738090786
 20
737.8991155537
 11
629.27375071
 21
737.8991155537
  0
LINE
  5
4CE
100
AcDbEntity
  8
3_ALL_AXES
100
AcDbLine
 62
7
  6
CONTINUOUS
 10
647.5738090786
 20
737.8991155537
 11
657.57375071
 21
737.8991155537
  0
LINE
  5
4CF
100
AcDbEntity
  8
7_ALL_FEATURES
100
AcDbLine
 62
7
  6
CONTINUOUS
 10
682.163820066
 20
740.1991155537
 11
687.2737798943
 21
740.1991155537
  0
LINE
  5
4D0
100
AcDbEntity
  8
7_ALL_FEATURES
100
AcDbLine
 62
9
  6
CONTINUOUS
 10
680.169184392
 20
740.3704701549
 11
613.0737798943
 21
740.3704701549
  0
LINE
  5
4D1
100
AcDbEntity
  8
7_ALL_FEATURES
100
AcDbLine
 62
9
  6
CONTINUOUS
 10
611.5737798943
 20
740.3704701549
 11
611.0737798943
 21
740.3704701549
  0
LINE
  5
4D2
100
AcDbEntity
  8
7_ALL_FEATURES
100
AcDbLine
 62
9
  6
CONTINUOUS
 10
682.1737798943
 20
740.4991155537
 11
686.2737798943
 21
740.4991155537
  0
LINE
  5
4D3
100
AcDbEntity
  8
7_ALL_FEATURES
100
AcDbLine
 62
9
  6
CONTINUOUS
 10
680.5737798943
 20
740.8612837466
 11
613.0737798943
 21
740.8612837466
  0
LINE
  5
4D4
100
AcDbEntity
  8
7_ALL_FEATURES
100
AcDbLine
 62
9
  6
CONTINUOUS
 10
611.5737798943
 20
740.8612837466
 11
611.0737798943
 21
740.8612837466
  0
LINE
  5
4D5
100
AcDbEntity
  8
6_ALL_SURFS
100
AcDbLine
 62
7
  6
CONTINUOUS
 10
682.177762888
 20
741.6991155537
 11
684.3237798944
 21
741.6991155537
  0
LINE
  5
4D6
100
AcDbEntity
  8
7_ALL_FEATURES
100
AcDbLine
 62
9
  6
CONTINUOUS
 10
686.2737798943
 20
741.8747108593
 11
685.2902533975
 21
741.8747108593
  0
LINE
  5
4D7
100
AcDbEntity
  8
7_ALL_FEATURES
100
AcDbLine
 62
9
  6
CONTINUOUS
 10
682.9237798943
 20
742.0742444232
 11
682.4268350524
 21
742.0742444232
  0
LINE
  5
4D8
100
AcDbEntity
  8
7_ALL_FEATURES
100
AcDbLine
 62
9
  6
CONTINUOUS
 10
683.3432099068
 20
743.6495498697
 11
685.3077708235
 21
743.6495498697
  0
LINE
  5
4D9
100
AcDbEntity
  8
6_ALL_SURFS
100
AcDbLine
 62
7
  6
CONTINUOUS
 10
685.5348456533
 20
743.7534962503
 11
683.2604590722
 21
743.7534962503
  0
LINE
  5
4DA
100
AcDbEntity
  8
6_ALL_SURFS
100
AcDbLine
 62
7
  6
CONTINUOUS
 10
685.5348456533
 20
745.2447348572
 11
683.2604590722
 21
745.2447348572
  0
LINE
  5
4DB
100
AcDbEntity
  8
7_ALL_FEATURES
100
AcDbLine
 62
9
  6
CONTINUOUS
 10
683.3432099068
 20
745.3486812378
 11
685.3077708235
 21
745.3486812378
  0
LINE
  5
4DC
100
AcDbEntity
  8
7_ALL_FEATURES
100
AcDbLine
 62
9
  6
CONTINUOUS
 10
682.9237798943
 20
746.9239866843
 11
682.4268350524
 21
746.9239866843
  0
LINE
  5
4DD
100
AcDbEntity
  8
7_ALL_FEATURES
100
AcDbLine
 62
7
  6
CONTINUOUS
 10
687.2737798943
 20
747.2991155537
 11
682.177762888
 21
747.2991155537
  0
LINE
  5
4DE
100
AcDbEntity
  8
7_ALL_FEATURES
100
AcDbLine
 62
7
  6
CONTINUOUS
 10
680.5737798943
 20
759.9491155537
 11
679.5737798943
 21
759.9491155537
  0
LINE
  5
4DF
100
AcDbEntity
  8
7_ALL_FEATURES
100
AcDbLine
 62
7
  6
CONTINUOUS
 10
677.5455766641
 20
763.4491155537
 11
679.5737798943
 21
763.4491155537
  0
LINE
  5
4E0
100
AcDbEntity
  8
7_ALL_FEATURES
100
AcDbLine
 62
7
  6
CONTINUOUS
 10
682.6737798943
 20
763.8491155537
 11
686.5737798943
 21
763.8491155537
  0
LINE
  5
4E1
100
AcDbEntity
  8
7_ALL_FEATURES
100
AcDbLine
 62
7
  6
CONTINUOUS
 10
676.7439674775
 20
765.4491155537
 11
676.7278132019
 21
765.4491155537
  0
LINE
  5
4E2
100
AcDbEntity
  8
7_ALL_FEATURES
100
AcDbLine
 62
9
  6
CONTINUOUS
 10
611.0737798943
 20
765.4491155537
 11
611.5737798943
 21
765.4491155537
  0
LINE
  5
4E3
100
AcDbEntity
  8
7_ALL_FEATURES
100
AcDbLine
 62
9
  6
CONTINUOUS
 10
613.0737798943
 20
765.4491155537
 11
676.7278132019
 21
765.4491155537
  0
LINE
  5
4E4
100
AcDbEntity
  8
7_ALL_FEATURES
100
AcDbLine
 62
7
  6
CONTINUOUS
 10
685.6737798943
 20
765.7491155537
 11
680.8737798943
 21
765.7491155537
  0
LINE
  5
4E5
100
AcDbEntity
  8
7_ALL_FEATURES
100
AcDbLine
 62
7
  6
CONTINUOUS
 10
611.0737798943
 20
765.7491155537
 11
611.5737798943
 21
765.7491155537
  0
LINE
  5
4E6
100
AcDbEntity
  8
7_ALL_FEATURES
100
AcDbLine
 62
7
  6
CONTINUOUS
 10
613.0737798943
 20
765.7491155537
 11
676.6732493417
 21
765.7491155537
  0
LINE
  5
4E7
100
AcDbEntity
  8
7_ALL_FEATURES
100
AcDbLine
 62
9
  6
CONTINUOUS
 10
685.9737798943
 20
766.0491155537
 11
685.5737798943
 21
766.0491155537
  0
LINE
  5
4E8
100
AcDbEntity
  8
7_ALL_FEATURES
100
AcDbLine
 62
9
  6
CONTINUOUS
 10
676.613637529
 20
766.0491155537
 11
613.0737798943
 21
766.0491155537
  0
LINE
  5
4E9
100
AcDbEntity
  8
7_ALL_FEATURES
100
AcDbLine
 62
9
  6
CONTINUOUS
 10
611.5737798943
 20
766.0491155537
 11
611.0737798943
 21
766.0491155537
  0
LINE
  5
4EA
100
AcDbEntity
  8
7_ALL_FEATURES
100
AcDbLine
 62
7
  6
CONTINUOUS
 10
676.7439674775
 20
766.9491155537
 11
676.5050911691
 21
766.9491155537
  0
LINE
  5
4EB
100
AcDbEntity
  8
7_ALL_FEATURES
100
AcDbLine
 62
7
  6
CONTINUOUS
 10
676.5050911691
 20
767.9491155537
 11
676.7439674775
 21
767.9491155537
  0
LINE
  5
4EC
100
AcDbEntity
  8
7_ALL_FEATURES
100
AcDbLine
 62
9
  6
CONTINUOUS
 10
685.9737798943
 20
768.8491155537
 11
685.5737798943
 21
768.8491155537
  0
LINE
  5
4ED
100
AcDbEntity
  8
7_ALL_FEATURES
100
AcDbLine
 62
9
  6
CONTINUOUS
 10
676.6135889159
 20
768.8491155537
 11
613.0737798943
 21
768.8491155537
  0
LINE
  5
4EE
100
AcDbEntity
  8
7_ALL_FEATURES
100
AcDbLine
 62
9
  6
CONTINUOUS
 10
611.5737798943
 20
768.8491155537
 11
611.0737798943
 21
768.8491155537
  0
LINE
  5
4EF
100
AcDbEntity
  8
6_ALL_SURFS
100
AcDbLine
 62
7
  6
CONTINUOUS
 10
685.6737798943
 20
769.1491155537
 11
680.8737798943
 21
769.1491155537
  0
LINE
  5
4F0
100
AcDbEntity
  8
7_ALL_FEATURES
100
AcDbLine
 62
7
  6
CONTINUOUS
 10
611.0737798943
 20
769.1491155537
 11
611.5737798943
 21
769.1491155537
  0
LINE
  5
4F1
100
AcDbEntity
  8
7_ALL_FEATURES
100
AcDbLine
 62
7
  6
CONTINUOUS
 10
613.0737798943
 20
769.1491155537
 11
676.6732440546
 21
769.1491155537
  0
LINE
  5
4F2
100
AcDbEntity
  8
7_ALL_FEATURES
100
AcDbLine
 62
9
  6
CONTINUOUS
 10
611.0737798943
 20
769.4491155537
 11
611.5737798943
 21
769.4491155537
  0
LINE
  5
4F3
100
AcDbEntity
  8
7_ALL_FEATURES
100
AcDbLine
 62
9
  6
CONTINUOUS
 10
613.0737798943
 20
769.4491155537
 11
676.7278132019
 21
769.4491155537
  0
LINE
  5
4F4
100
AcDbEntity
  8
7_ALL_FEATURES
100
AcDbLine
 62
7
  6
CONTINUOUS
 10
676.7278132019
 20
769.4491155537
 11
676.7439674775
 21
769.4491155537
  0
LINE
  5
4F5
100
AcDbEntity
  8
6_ALL_SURFS
100
AcDbLine
 62
7
  6
CONTINUOUS
 10
682.6737798943
 20
771.0491155537
 11
686.5737798943
 21
771.0491155537
  0
LINE
  5
4F6
100
AcDbEntity
  8
7_ALL_FEATURES
100
AcDbLine
 62
7
  6
CONTINUOUS
 10
677.5455766641
 20
771.4491155537
 11
679.5737798943
 21
771.4491155537
  0
LINE
  5
4F7
100
AcDbEntity
  8
7_ALL_FEATURES
100
AcDbLine
 62
7
  6
CONTINUOUS
 10
679.5737798943
 20
774.9491155537
 11
680.5737798943
 21
774.9491155537
  0
LINE
  5
4F8
100
AcDbEntity
  8
6_ALL_SURFS
100
AcDbLine
 62
7
  6
CONTINUOUS
 10
687.2737798943
 20
787.5991155537
 11
684.3237798944
 21
787.5991155537
  0
LINE
  5
4F9
100
AcDbEntity
  8
7_ALL_FEATURES
100
AcDbLine
 62
7
  6
CONTINUOUS
 10
684.3237798944
 20
787.5991155537
 11
682.177762888
 21
787.5991155537
  0
LINE
  5
4FA
100
AcDbEntity
  8
7_ALL_FEATURES
100
AcDbLine
 62
9
  6
CONTINUOUS
 10
682.9237798943
 20
787.9742444232
 11
682.4268350524
 21
787.9742444232
  0
LINE
  5
4FB
100
AcDbEntity
  8
7_ALL_FEATURES
100
AcDbLine
 62
9
  6
CONTINUOUS
 10
683.3432099068
 20
789.5495498697
 11
685.3077708235
 21
789.5495498697
  0
LINE
  5
4FC
100
AcDbEntity
  8
7_ALL_FEATURES
100
AcDbLine
 62
7
  6
CONTINUOUS
 10
683.2604590722
 20
789.6534962503
 11
685.5348456533
 21
789.6534962503
  0
LINE
  5
4FD
100
AcDbEntity
  8
7_ALL_FEATURES
100
AcDbLine
 62
7
  6
CONTINUOUS
 10
683.2604590722
 20
791.1447348572
 11
685.5348456533
 21
791.1447348572
  0
LINE
  5
4FE
100
AcDbEntity
  8
7_ALL_FEATURES
100
AcDbLine
 62
9
  6
CONTINUOUS
 10
683.3432099068
 20
791.2486812378
 11
685.3077708235
 21
791.2486812378
  0
LINE
  5
4FF
100
AcDbEntity
  8
7_ALL_FEATURES
100
AcDbLine
 62
9
  6
CONTINUOUS
 10
682.9237798943
 20
792.8239866843
 11
682.4268350524
 21
792.8239866843
  0
LINE
  5
500
100
AcDbEntity
  8
7_ALL_FEATURES
100
AcDbLine
 62
9
  6
CONTINUOUS
 10
686.2737798943
 20
793.0235202482
 11
685.2902533975
 21
793.0235202482
  0
LINE
  5
501
100
AcDbEntity
  8
3_ALL_AXES
100
AcDbLine
 62
7
  6
CONTINUOUS
 10
684.3237798944
 20
793.1991155537
 11
682.177762888
 21
793.1991155537
  0
LINE
  5
502
100
AcDbEntity
  8
7_ALL_FEATURES
100
AcDbLine
 62
9
  6
CONTINUOUS
 10
680.5737798943
 20
794.0369473608
 11
613.0737798943
 21
794.0369473608
  0
LINE
  5
503
100
AcDbEntity
  8
7_ALL_FEATURES
100
AcDbLine
 62
9
  6
CONTINUOUS
 10
611.5737798943
 20
794.0369473608
 11
611.0737798943
 21
794.0369473608
  0
LINE
  5
504
100
AcDbEntity
  8
7_ALL_FEATURES
100
AcDbLine
 62
9
  6
CONTINUOUS
 10
682.1737798943
 20
794.3991155537
 11
686.2737798943
 21
794.3991155537
  0
LINE
  5
505
100
AcDbEntity
  8
7_ALL_FEATURES
100
AcDbLine
 62
9
  6
CONTINUOUS
 10
680.169184392
 20
794.5277609526
 11
613.0737798943
 21
794.5277609526
  0
LINE
  5
506
100
AcDbEntity
  8
7_ALL_FEATURES
100
AcDbLine
 62
9
  6
CONTINUOUS
 10
611.5737798943
 20
794.5277609526
 11
611.0737798943
 21
794.5277609526
  0
LINE
  5
507
100
AcDbEntity
  8
7_ALL_FEATURES
100
AcDbLine
 62
7
  6
CONTINUOUS
 10
682.163820066
 20
794.6991155537
 11
686.5737798943
 21
794.6991155537
  0
LINE
  5
508
100
AcDbEntity
  8
6_ALL_SURFS
100
AcDbLine
 62
7
  6
CONTINUOUS
 10
686.5737798943
 20
794.6991155537
 11
687.2737798943
 21
794.6991155537
  0
LINE
  5
509
100
AcDbEntity
  8
3_ALL_AXES
100
AcDbLine
 62
7
  6
CONTINUOUS
 10
631.7738090786
 20
796.9991155537
 11
641.77375071
 21
796.9991155537
  0
LINE
  5
50A
100
AcDbEntity
  8
3_ALL_AXES
100
AcDbLine
 62
7
  6
CONTINUOUS
 10
647.5738090786
 20
796.9991155537
 11
657.57375071
 21
796.9991155537
  0
LINE
  5
50B
100
AcDbEntity
  8
3_ALL_AXES
100
AcDbLine
 62
7
  6
CONTINUOUS
 10
631.7737798943
 20
797.2991155537
 11
641.7737798943
 21
797.2991155537
  0
LINE
  5
50C
100
AcDbEntity
  8
3_ALL_AXES
100
AcDbLine
 62
7
  6
CONTINUOUS
 10
647.5737798943
 20
797.2991155537
 11
657.5737798943
 21
797.2991155537
  0
LINE
  5
50D
100
AcDbEntity
  8
7_ALL_FEATURES
100
AcDbLine
 62
7
  6
CONTINUOUS
 10
611.0737798943
 20
797.333629383
 11
611.5737798943
 21
797.333629383
  0
LINE
  5
50E
100
AcDbEntity
  8
7_ALL_FEATURES
100
AcDbLine
 62
7
  6
CONTINUOUS
 10
613.0737798943
 20
797.333629383
 11
631.8082937236
 21
797.333629383
  0
LINE
  5
50F
100
AcDbEntity
  8
7_ALL_FEATURES
100
AcDbLine
 62
7
  6
CONTINUOUS
 10
641.7392660651
 20
797.333629383
 11
647.6082937236
 21
797.333629383
  0
LINE
  5
510
100
AcDbEntity
  8
7_ALL_FEATURES
100
AcDbLine
 62
7
  6
CONTINUOUS
 10
657.5392660651
 20
797.333629383
 11
661.8583337187
 21
797.333629383
  0
LINE
  5
511
100
AcDbEntity
  8
7_ALL_FEATURES
100
AcDbLine
 62
9
  6
CONTINUOUS
 10
611.0737798943
 20
797.3517215967
 11
611.5737798943
 21
797.3517215967
  0
LINE
  5
512
100
AcDbEntity
  8
7_ALL_FEATURES
100
AcDbLine
 62
9
  6
CONTINUOUS
 10
613.0737798943
 20
797.3517215967
 11
631.8263859373
 21
797.3517215967
  0
LINE
  5
513
100
AcDbEntity
  8
7_ALL_FEATURES
100
AcDbLine
 62
9
  6
CONTINUOUS
 10
641.7211738513
 20
797.3517215967
 11
647.6263859373
 21
797.3517215967
  0
LINE
  5
514
100
AcDbEntity
  8
7_ALL_FEATURES
100
AcDbLine
 62
9
  6
CONTINUOUS
 10
657.5211738513
 20
797.3517215967
 11
661.7557276757
 21
797.3517215967
  0
LINE
  5
515
100
AcDbEntity
  8
7_ALL_FEATURES
100
AcDbLine
 62
9
  6
CONTINUOUS
 10
660.0267353461
 20
797.98102334
 11
656.8918721081
 21
797.98102334
  0
LINE
  5
516
100
AcDbEntity
  8
7_ALL_FEATURES
100
AcDbLine
 62
9
  6
CONTINUOUS
 10
648.2556876806
 20
797.98102334
 11
641.0918721081
 21
797.98102334
  0
LINE
  5
517
100
AcDbEntity
  8
7_ALL_FEATURES
100
AcDbLine
 62
9
  6
CONTINUOUS
 10
632.4556876806
 20
797.98102334
 11
613.0737798943
 21
797.98102334
  0
LINE
  5
518
100
AcDbEntity
  8
7_ALL_FEATURES
100
AcDbLine
 62
9
  6
CONTINUOUS
 10
611.5737798943
 20
797.98102334
 11
611.0737798943
 21
797.98102334
  0
LINE
  5
519
100
AcDbEntity
  8
6_ALL_SURFS
100
AcDbLine
 62
7
  6
CONTINUOUS
 10
659.9241293031
 20
797.9991155537
 11
624.6418778923
 21
797.9991155537
  0
LINE
  5
51A
100
AcDbEntity
  8
7_ALL_FEATURES
100
AcDbLine
 62
7
  6
CONTINUOUS
 10
611.0737798943
 20
797.9991155537
 11
611.5737798943
 21
797.9991155537
  0
LINE
  5
51B
100
AcDbEntity
  8
7_ALL_FEATURES
100
AcDbLine
 62
7
  6
CONTINUOUS
 10
613.0737798943
 20
797.9991155537
 11
624.6418778923
 21
797.9991155537
  0
LINE
  5
51C
100
AcDbEntity
  8
7_ALL_FEATURES
100
AcDbLine
 62
9
  6
CONTINUOUS
 10
618.76164786
 20
798.0869835194
 11
620.9859119287
 21
798.0869835194
  0
LINE
  5
51D
100
AcDbEntity
  8
7_ALL_FEATURES
100
AcDbLine
 62
9
  6
CONTINUOUS
 10
622.7654895175
 20
798.1491155537
 11
624.3820702712
 21
798.1491155537
  0
LINE
  5
51E
100
AcDbEntity
  8
7_ALL_FEATURES
100
AcDbLine
 62
9
  6
CONTINUOUS
 10
622.7879682121
 20
798.1880497949
 11
624.3595915766
 21
798.1880497949
  0
LINE
  5
51F
100
AcDbEntity
  8
7_ALL_FEATURES
100
AcDbLine
 62
9
  6
CONTINUOUS
 10
620.86164786
 20
798.2112475881
 11
618.8859119287
 21
798.2112475881
  0
LINE
  5
520
100
AcDbEntity
  8
7_ALL_FEATURES
100
AcDbLine
 62
7
  6
CONTINUOUS
 10
620.6495158256
 20
798.2991155537
 11
619.098043963
 21
798.2991155537
  0
LINE
  5
521
100
AcDbEntity
  8
7_ALL_FEATURES
100
AcDbLine
 62
9
  6
CONTINUOUS
 10
611.0737798943
 20
798.2991155537
 11
611.5737798943
 21
798.2991155537
  0
LINE
  5
522
100
AcDbEntity
  8
7_ALL_FEATURES
100
AcDbLine
 62
9
  6
CONTINUOUS
 10
613.0737798943
 20
798.2991155537
 11
617.0737798943
 21
798.2991155537
  0
LINE
  5
523
100
AcDbEntity
  8
7_ALL_FEATURES
100
AcDbLine
 62
9
  6
CONTINUOUS
 10
622.7242142103
 20
798.5651246246
 11
624.4233455783
 21
798.5651246246
  0
LINE
  5
524
100
AcDbEntity
  8
7_ALL_FEATURES
100
AcDbLine
 62
7
  6
CONTINUOUS
 10
613.3937798943
 20
798.6991155537
 11
613.2737798943
 21
798.6991155537
  0
LINE
  5
525
100
AcDbEntity
  8
7_ALL_FEATURES
100
AcDbLine
 62
9
  6
CONTINUOUS
 10
617.0737798943
 20
799.369899212
 11
616.2551913118
 21
799.369899212
  0
LINE
  5
526
100
AcDbEntity
  8
7_ALL_FEATURES
100
AcDbLine
 62
9
  6
CONTINUOUS
 10
615.4142666503
 20
799.369899212
 11
614.7939615716
 21
799.369899212
  0
LINE
  5
527
100
AcDbEntity
  8
7_ALL_FEATURES
100
AcDbLine
 62
9
  6
CONTINUOUS
 10
611.5737798943
 20
799.369899212
 11
611.0737798943
 21
799.369899212
  0
LINE
  5
528
100
AcDbEntity
  8
7_ALL_FEATURES
100
AcDbLine
 62
7
  6
CONTINUOUS
 10
612.7737798943
 20
799.4991155537
 11
613.3937798943
 21
799.4991155537
  0
LINE
  5
529
100
AcDbEntity
  8
7_ALL_FEATURES
100
AcDbLine
 62
9
  6
CONTINUOUS
 10
616.9783794023
 20
799.5893053225
 11
616.2604768178
 21
799.5893053225
  0
LINE
  5
52A
100
AcDbEntity
  8
7_ALL_FEATURES
100
AcDbLine
 62
9
  6
CONTINUOUS
 10
615.169083636
 20
799.5893053225
 11
614.9787028032
 21
799.5893053225
  0
LINE
  5
52B
100
AcDbEntity
  8
7_ALL_FEATURES
100
AcDbLine
 62
9
  6
CONTINUOUS
 10
613.806718791
 20
799.5893053225
 11
612.606789068
 21
799.5893053225
  0
LINE
  5
52C
100
AcDbEntity
  8
7_ALL_FEATURES
100
AcDbLine
 62
9
  6
CONTINUOUS
 10
611.5737798943
 20
799.5893053225
 11
611.0737798943
 21
799.5893053225
  0
LINE
  5
52D
100
AcDbEntity
  8
7_ALL_FEATURES
100
AcDbLine
 62
7
  6
CONTINUOUS
 10
665.0737798943
 20
799.5991155537
 11
661.996165279
 21
799.5991155537
  0
LINE
  5
52E
100
AcDbEntity
  8
6_ALL_SURFS
100
AcDbLine
 62
7
  6
CONTINUOUS
 10
626.7737798943
 20
799.5991155537
 11
661.996165279
 21
799.5991155537
  0
LINE
  5
52F
100
AcDbEntity
  8
6_ALL_SURFS
100
AcDbLine
 62
7
  6
CONTINUOUS
 10
613.7489814935
 20
799.6491155537
 11
612.7737798943
 21
799.6491155537
  0
LINE
  5
530
100
AcDbEntity
  8
7_ALL_FEATURES
100
AcDbLine
 62
7
  6
CONTINUOUS
 10
611.0737798943
 20
799.6491155537
 11
611.5737798943
 21
799.6491155537
  0
LINE
  5
531
100
AcDbEntity
  8
7_ALL_FEATURES
100
AcDbLine
 62
7
  6
CONTINUOUS
 10
612.580954172
 20
799.6491155537
 11
612.7737798943
 21
799.6491155537
  0
LINE
  5
532
100
AcDbEntity
  8
7_ALL_FEATURES
100
AcDbLine
 62
9
  6
CONTINUOUS
 10
611.0737798943
 20
799.8491155537
 11
611.5737798943
 21
799.8491155537
  0
LINE
  5
533
100
AcDbEntity
  8
6_ALL_SURFS
100
AcDbLine
 62
7
  6
CONTINUOUS
 10
618.9637405255
 20
799.8991155537
 11
620.3737798943
 21
799.8991155537
  0
LINE
  5
534
100
AcDbEntity
  8
7_ALL_FEATURES
100
AcDbLine
 62
9
  6
CONTINUOUS
 10
620.6737798943
 20
800.1991155537
 11
618.5238567698
 21
800.1991155537
  0
LINE
  5
535
100
AcDbEntity
  8
7_ALL_FEATURES
100
AcDbLine
 62
9
  6
CONTINUOUS
 10
611.0737798943
 20
800.5491155537
 11
54.0737798943
 21
800.5491155537
  0
LINE
  5
536
100
AcDbEntity
  8
7_ALL_FEATURES
100
AcDbLine
 62
9
  6
CONTINUOUS
 10
612.5737798943
 20
800.6991155537
 11
612.5047481429
 21
800.6991155537
  0
LINE
  5
537
100
AcDbEntity
  8
7_ALL_FEATURES
100
AcDbLine
 62
9
  6
CONTINUOUS
 10
611.6428116458
 20
800.6991155537
 11
611.0737798943
 21
800.6991155537
  0
LINE
  5
538
100
AcDbEntity
  8
7_ALL_FEATURES
100
AcDbLine
 62
7
  6
CONTINUOUS
 10
611.0737798943
 20
800.7491155537
 11
54.0737798943
 21
800.7491155537
  0
LINE
  5
539
100
AcDbEntity
  8
7_ALL_FEATURES
100
AcDbLine
 62
7
  6
CONTINUOUS
 10
611.7737798943
 20
800.7491155537
 11
612.3737798943
 21
800.7491155537
  0
LINE
  5
53A
100
AcDbEntity
  8
7_ALL_FEATURES
100
AcDbLine
 62
9
  6
CONTINUOUS
 10
615.6602062597
 20
800.8185216642
 11
614.1705736303
 21
800.8185216642
  0
LINE
  5
53B
100
AcDbEntity
  8
6_ALL_SURFS
100
AcDbLine
 62
7
  6
CONTINUOUS
 10
615.4556067516
 20
800.8991155537
 11
614.3737798943
 21
800.8991155537
  0
LINE
  5
53C
100
AcDbEntity
  8
6_ALL_SURFS
100
AcDbLine
 62
7
  6
CONTINUOUS
 10
612.3737798943
 20
800.8991155537
 11
611.7737798943
 21
800.8991155537
  0
LINE
  5
53D
100
AcDbEntity
  8
7_ALL_FEATURES
100
AcDbLine
 62
7
  6
CONTINUOUS
 10
54.0737798943
 20
800.8991155537
 11
611.7737798943
 21
800.8991155537
  0
LINE
  5
53E
100
AcDbEntity
  8
7_ALL_FEATURES
100
AcDbLine
 62
9
  6
CONTINUOUS
 10
617.6659618018
 20
800.9991155537
 11
620.6737798943
 21
800.9991155537
  0
LINE
  5
53F
100
AcDbEntity
  8
7_ALL_FEATURES
100
AcDbLine
 62
9
  6
CONTINUOUS
 10
54.0737798943
 20
801.0991155537
 11
611.5737798943
 21
801.0991155537
  0
LINE
  5
540
100
AcDbEntity
  8
7_ALL_FEATURES
100
AcDbLine
 62
9
  6
CONTINUOUS
 10
54.0737798943
 20
801.8991155537
 11
611.5737798943
 21
801.8991155537
  0
LINE
  5
541
100
AcDbEntity
  8
7_ALL_FEATURES
100
AcDbLine
 62
7
  6
CONTINUOUS
 10
54.0737798943
 20
802.0991155537
 11
611.7737798943
 21
802.0991155537
  0
LINE
  5
542
100
AcDbEntity
  8
6_ALL_SURFS
100
AcDbLine
 62
7
  6
CONTINUOUS
 10
611.7737798943
 20
802.0991155537
 11
612.8737798943
 21
802.0991155537
  0
LINE
  5
543
100
AcDbEntity
  8
7_ALL_FEATURES
100
AcDbLine
 62
9
  6
CONTINUOUS
 10
613.0737798943
 20
802.2991155537
 11
54.0737798943
 21
802.2991155537
  0
LINE
  5
544
100
AcDbEntity
  8
6_ALL_SURFS
100
AcDbLine
 62
7
  6
CONTINUOUS
 10
614.0737798943
 20
802.3991155537
 11
615.5737798943
 21
802.3991155537
  0
LINE
  5
545
100
AcDbEntity
  8
7_ALL_FEATURES
100
AcDbLine
 62
7
  6
CONTINUOUS
 10
614.0737798943
 20
802.4991155537
 11
622.1737798943
 21
802.4991155537
  0
LINE
  5
546
100
AcDbEntity
  8
6_ALL_SURFS
100
AcDbLine
 62
7
  6
CONTINUOUS
 10
622.1737798943
 20
802.4991155537
 11
624.9737798943
 21
802.4991155537
  0
LINE
  5
547
100
AcDbEntity
  8
7_ALL_FEATURES
100
AcDbLine
 62
3
  6
CONTINUOUS
 10
665.0737798943
 20
802.5991155537
 11
614.0737798943
 21
802.5991155537
  0
LINE
  5
548
100
AcDbEntity
  8
3_ALL_AXES
100
AcDbLine
 62
7
  6
CONTINUOUS
 10
656.9237798943
 20
804.5991155537
 11
648.2237798943
 21
804.5991155537
  0
LINE
  5
549
100
AcDbEntity
  8
3_ALL_AXES
100
AcDbLine
 62
7
  6
CONTINUOUS
 10
641.4237798943
 20
804.5991155537
 11
632.7237798943
 21
804.5991155537
  0
LINE
  5
54A
100
AcDbEntity
  8
7_ALL_FEATURES
100
AcDbLine
 62
7
  6
CONTINUOUS
 10
613.0737798943
 20
804.5991155537
 11
54.0737798943
 21
804.5991155537
  0
LINE
  5
54B
100
AcDbEntity
  8
7_ALL_FEATURES
100
AcDbLine
 62
7
  6
CONTINUOUS
 10
634.7737798943
 20
804.9991155537
 11
638.7737798943
 21
804.9991155537
  0
LINE
  5
54C
100
AcDbEntity
  8
7_ALL_FEATURES
100
AcDbLine
 62
7
  6
CONTINUOUS
 10
650.5737798943
 20
804.9991155537
 11
654.5737798943
 21
804.9991155537
  0
LINE
  5
54D
100
AcDbEntity
  8
7_ALL_FEATURES
100
AcDbLine
 62
7
  6
CONTINUOUS
 10
613.0737798943
 20
805.1991155537
 11
54.0737798943
 21
805.1991155537
  0
LINE
  5
54E
100
AcDbEntity
  8
7_ALL_FEATURES
100
AcDbLine
 62
7
  6
CONTINUOUS
 10
613.0737798943
 20
807.5991155537
 11
54.0737798943
 21
807.5991155537
  0
LINE
  5
54F
100
AcDbEntity
  8
7_ALL_FEATURES
100
AcDbLine
 62
7
  6
CONTINUOUS
 10
613.0737798943
 20
808.1991155537
 11
54.0737798943
 21
808.1991155537
  0
LINE
  5
550
100
AcDbEntity
  8
7_ALL_FEATURES
100
AcDbLine
 62
7
  6
CONTINUOUS
 10
613.0737798943
 20
810.5991155537
 11
54.0737798943
 21
810.5991155537
  0
LINE
  5
551
100
AcDbEntity
  8
7_ALL_FEATURES
100
AcDbLine
 62
7
  6
CONTINUOUS
 10
613.0737798943
 20
811.1991155537
 11
54.0737798943
 21
811.1991155537
  0
LINE
  5
552
100
AcDbEntity
  8
7_ALL_FEATURES
100
AcDbLine
 62
7
  6
CONTINUOUS
 10
613.0737798943
 20
813.5991155537
 11
599.9713133117
 21
813.5991155537
  0
LINE
  5
553
100
AcDbEntity
  8
7_ALL_FEATURES
100
AcDbLine
 62
7
  6
CONTINUOUS
 10
592.1762464769
 20
813.5991155537
 11
349.9713133117
 21
813.5991155537
  0
LINE
  5
554
100
AcDbEntity
  8
7_ALL_FEATURES
100
AcDbLine
 62
7
  6
CONTINUOUS
 10
342.1762464769
 20
813.5991155537
 11
99.9713133117
 21
813.5991155537
  0
LINE
  5
555
100
AcDbEntity
  8
7_ALL_FEATURES
100
AcDbLine
 62
7
  6
CONTINUOUS
 10
92.1762464769
 20
813.5991155537
 11
54.0737798943
 21
813.5991155537
  0
LINE
  5
556
100
AcDbEntity
  8
7_ALL_FEATURES
100
AcDbLine
 62
7
  6
CONTINUOUS
 10
613.0737798943
 20
814.1991155537
 11
600.3388434038
 21
814.1991155537
  0
LINE
  5
557
100
AcDbEntity
  8
7_ALL_FEATURES
100
AcDbLine
 62
7
  6
CONTINUOUS
 10
591.8087163849
 20
814.1991155537
 11
350.3388434038
 21
814.1991155537
  0
LINE
  5
558
100
AcDbEntity
  8
7_ALL_FEATURES
100
AcDbLine
 62
7
  6
CONTINUOUS
 10
341.8087163849
 20
814.1991155537
 11
100.3388434038
 21
814.1991155537
  0
LINE
  5
559
100
AcDbEntity
  8
7_ALL_FEATURES
100
AcDbLine
 62
7
  6
CONTINUOUS
 10
91.8087163849
 20
814.1991155537
 11
54.0737798943
 21
814.1991155537
  0
LINE
  5
55A
100
AcDbEntity
  8
7_ALL_FEATURES
100
AcDbLine
 62
7
  6
CONTINUOUS
 10
613.0737798943
 20
816.5991155537
 11
600.8686486871
 21
816.5991155537
  0
LINE
  5
55B
100
AcDbEntity
  8
7_ALL_FEATURES
100
AcDbLine
 62
7
  6
CONTINUOUS
 10
591.2789111016
 20
816.5991155537
 11
350.8686486871
 21
816.5991155537
  0
LINE
  5
55C
100
AcDbEntity
  8
7_ALL_FEATURES
100
AcDbLine
 62
7
  6
CONTINUOUS
 10
341.2789111016
 20
816.5991155537
 11
100.8686486871
 21
816.5991155537
  0
LINE
  5
55D
100
AcDbEntity
  8
7_ALL_FEATURES
100
AcDbLine
 62
7
  6
CONTINUOUS
 10
91.2789111016
 20
816.5991155537
 11
54.0737798943
 21
816.5991155537
  0
LINE
  5
55E
100
AcDbEntity
  8
7_ALL_FEATURES
100
AcDbLine
 62
7
  6
CONTINUOUS
 10
613.0737798943
 20
817.1991155537
 11
600.8056681791
 21
817.1991155537
  0
LINE
  5
55F
100
AcDbEntity
  8
7_ALL_FEATURES
100
AcDbLine
 62
7
  6
CONTINUOUS
 10
591.3418916095
 20
817.1991155537
 11
350.8056681791
 21
817.1991155537
  0
LINE
  5
560
100
AcDbEntity
  8
7_ALL_FEATURES
100
AcDbLine
 62
7
  6
CONTINUOUS
 10
341.3418916095
 20
817.1991155537
 11
100.8056681791
 21
817.1991155537
  0
LINE
  5
561
100
AcDbEntity
  8
7_ALL_FEATURES
100
AcDbLine
 62
7
  6
CONTINUOUS
 10
91.3418916095
 20
817.1991155537
 11
54.0737798943
 21
817.1991155537
  0
LINE
  5
562
100
AcDbEntity
  8
7_ALL_FEATURES
100
AcDbLine
 62
7
  6
CONTINUOUS
 10
613.0737798943
 20
819.8991155537
 11
599.357187688
 21
819.8991155537
  0
LINE
  5
563
100
AcDbEntity
  8
7_ALL_FEATURES
100
AcDbLine
 62
7
  6
CONTINUOUS
 10
592.7903721006
 20
819.8991155537
 11
349.357187688
 21
819.8991155537
  0
LINE
  5
564
100
AcDbEntity
  8
7_ALL_FEATURES
100
AcDbLine
 62
7
  6
CONTINUOUS
 10
342.7903721006
 20
819.8991155537
 11
99.357187688
 21
819.8991155537
  0
LINE
  5
565
100
AcDbEntity
  8
7_ALL_FEATURES
100
AcDbLine
 62
7
  6
CONTINUOUS
 10
92.7903721006
 20
819.8991155537
 11
54.0737798943
 21
819.8991155537
  0
LINE
  5
566
100
AcDbEntity
  8
7_ALL_FEATURES
100
AcDbLine
 62
9
  6
CONTINUOUS
 10
613.2883270534
 20
822.0445871441
 11
54.0737798943
 21
822.0445871441
  0
LINE
  5
567
100
AcDbEntity
  8
7_ALL_FEATURES
100
AcDbLine
 62
7
  6
CONTINUOUS
 10
613.6800765364
 20
822.3991155537
 11
54.0737798943
 21
822.3991155537
  0
LINE
  5
568
100
AcDbEntity
  8
6_ALL_SURFS
100
AcDbLine
 62
7
  6
CONTINUOUS
 10
613.9146213632
 20
799.6974168195
 11
613.8898229623
 21
799.6842312759
  0
LINE
  5
569
100
AcDbEntity
  8
6_ALL_SURFS
100
AcDbLine
 62
7
  6
CONTINUOUS
 10
680.169184392
 20
794.5277609526
 11
662.5621297829
 21
797.9502256705
  0
LINE
  5
56A
100
AcDbEntity
  8
6_ALL_SURFS
100
AcDbLine
 62
7
  6
CONTINUOUS
 10
662.9508734807
 20
799.5071225066
 11
680.9601923549
 21
796.0039399312
  0
LINE
  5
56B
100
AcDbEntity
  8
7_ALL_FEATURES
100
AcDbLine
 62
7
  6
CONTINUOUS
 10
613.9146213632
 20
735.200814288
 11
613.8898229623
 21
735.2139998316
  0
LINE
  5
56C
100
AcDbEntity
  8
7_ALL_FEATURES
100
AcDbLine
 62
7
  6
CONTINUOUS
 10
661.7557276757
 20
737.5465095107
 11
660.0267353461
 21
736.9172077675
  0
LINE
  5
56D
100
AcDbEntity
  8
6_ALL_SURFS
100
AcDbLine
 62
7
  6
CONTINUOUS
 10
661.7557276757
 20
797.3517215967
 11
660.0267353461
 21
797.98102334
  0
LINE
  5
56E
100
AcDbEntity
  8
6_ALL_SURFS
100
AcDbLine
 62
7
  6
CONTINUOUS
 10
687.4237798943
 20
792.1889013882
 11
685.6848456533
 21
791.184927236
  0
LINE
  5
56F
100
AcDbEntity
  8
7_ALL_FEATURES
100
AcDbLine
 62
7
  6
CONTINUOUS
 10
687.4237798943
 20
742.7093297192
 11
685.6848456533
 21
743.7133038715
  0
LINE
  5
570
100
AcDbEntity
  8
7_ALL_FEATURES
100
AcDbLine
 62
7
  6
CONTINUOUS
 10
622.2737798943
 20
729.8991155537
 11
621.8737798943
 21
730.2991155537
  0
LINE
  5
571
100
AcDbEntity
  8
7_ALL_FEATURES
100
AcDbLine
 62
7
  6
CONTINUOUS
 10
618.8859119287
 20
798.2112475881
 11
618.76164786
 21
798.0869835194
  0
LINE
  5
572
100
AcDbEntity
  8
7_ALL_FEATURES
100
AcDbLine
 62
7
  6
CONTINUOUS
 10
634.7737798943
 20
804.9991155537
 11
634.3737798943
 21
804.5991155537
  0
LINE
  5
573
100
AcDbEntity
  8
3_ALL_AXES
100
AcDbLine
 62
7
  6
CONTINUOUS
 10
632.4737798943
 20
797.9991155537
 11
631.7737798943
 21
797.2991155537
  0
LINE
  5
574
100
AcDbEntity
  8
7_ALL_FEATURES
100
AcDbLine
 62
7
  6
CONTINUOUS
 10
650.5737798943
 20
804.9991155537
 11
650.1737798943
 21
804.5991155537
  0
LINE
  5
575
100
AcDbEntity
  8
7_ALL_FEATURES
100
AcDbLine
 62
7
  6
CONTINUOUS
 10
618.8859119287
 20
736.6869835194
 11
618.76164786
 21
736.8112475881
  0
LINE
  5
576
100
AcDbEntity
  8
3_ALL_AXES
100
AcDbLine
 62
7
  6
CONTINUOUS
 10
619.9737798943
 20
736.8991155537
 11
619.2737798943
 21
737.5991155537
  0
LINE
  5
577
100
AcDbEntity
  8
7_ALL_FEATURES
100
AcDbLine
 62
7
  6
CONTINUOUS
 10
650.5737798943
 20
729.8991155537
 11
650.1737798943
 21
730.2991155537
  0
LINE
  5
578
100
AcDbEntity
  8
6_ALL_SURFS
100
AcDbLine
 62
7
  6
CONTINUOUS
 10
614.2237798943
 20
819.8991155537
 11
614.0737798943
 21
819.5991155537
  0
LINE
  5
579
100
AcDbEntity
  8
6_ALL_SURFS
100
AcDbLine
 62
7
  6
CONTINUOUS
 10
614.2237798943
 20
816.8991155537
 11
614.0737798943
 21
816.5991155537
  0
LINE
  5
57A
100
AcDbEntity
  8
3_ALL_AXES
100
AcDbLine
 62
7
  6
CONTINUOUS
 10
648.2737798943
 20
797.9991155537
 11
647.5737798943
 21
797.2991155537
  0
LINE
  5
57B
100
AcDbEntity
  8
3_ALL_AXES
100
AcDbLine
 62
7
  6
CONTINUOUS
 10
615.2101795663
 20
735.3380176107
 11
615.6009805503
 21
735.7024454239
  0
LINE
  5
57C
100
AcDbEntity
  8
3_ALL_AXES
100
AcDbLine
 62
7
  6
CONTINUOUS
 10
616.1465792384
 20
735.1173624626
 11
615.7557782544
 21
734.7529346494
  0
LINE
  5
57D
100
AcDbEntity
  8
7_ALL_FEATURES
100
AcDbLine
 62
7
  6
CONTINUOUS
 10
616.9783794023
 20
735.3089257849
 11
615.6602062597
 21
734.0797094433
  0
LINE
  5
57E
100
AcDbEntity
  8
7_ALL_FEATURES
100
AcDbLine
 62
7
  6
CONTINUOUS
 10
616.5967774344
 20
732.9020850013
 11
618.7591410175
 21
734.9185216642
  0
LINE
  5
57F
100
AcDbEntity
  8
7_ALL_FEATURES
100
AcDbLine
 62
7
  6
CONTINUOUS
 10
685.6848456533
 20
745.284927236
 11
687.4237798943
 21
746.2889013882
  0
LINE
  5
580
100
AcDbEntity
  8
6_ALL_SURFS
100
AcDbLine
 62
7
  6
CONTINUOUS
 10
685.6848456533
 20
789.6133038715
 11
687.4237798943
 21
788.6093297192
  0
LINE
  5
581
100
AcDbEntity
  8
3_ALL_AXES
100
AcDbLine
 62
7
  6
CONTINUOUS
 10
615.6009805503
 20
799.1957856835
 11
615.2101795663
 21
799.5602134968
  0
LINE
  5
582
100
AcDbEntity
  8
3_ALL_AXES
100
AcDbLine
 62
7
  6
CONTINUOUS
 10
615.7557782544
 20
800.1452964581
 11
616.1465792384
 21
799.7808686448
  0
LINE
  5
583
100
AcDbEntity
  8
6_ALL_SURFS
100
AcDbLine
 62
7
  6
CONTINUOUS
 10
616.9783794023
 20
799.5893053225
 11
615.6602062597
 21
800.8185216642
  0
LINE
  5
584
100
AcDbEntity
  8
6_ALL_SURFS
100
AcDbLine
 62
7
  6
CONTINUOUS
 10
616.5967774344
 20
801.9961461062
 11
618.7591410175
 21
799.9797094433
  0
LINE
  5
585
100
AcDbEntity
  8
3_ALL_AXES
100
AcDbLine
 62
7
  6
CONTINUOUS
 10
648.2737798943
 20
736.8991155537
 11
647.5737798943
 21
737.5991155537
  0
LINE
  5
586
100
AcDbEntity
  8
3_ALL_AXES
100
AcDbLine
 62
7
  6
CONTINUOUS
 10
614.2237798943
 20
714.9991155537
 11
614.0737798943
 21
715.2991155537
  0
LINE
  5
587
100
AcDbEntity
  8
3_ALL_AXES
100
AcDbLine
 62
7
  6
CONTINUOUS
 10
614.2237798943
 20
717.9991155537
 11
614.0737798943
 21
718.2991155537
  0
LINE
  5
588
100
AcDbEntity
  8
6_ALL_SURFS
100
AcDbLine
 62
7
  6
CONTINUOUS
 10
614.2237798943
 20
813.8991155537
 11
614.0737798943
 21
813.5991155537
  0
LINE
  5
589
100
AcDbEntity
  8
6_ALL_SURFS
100
AcDbLine
 62
7
  6
CONTINUOUS
 10
614.2237798943
 20
810.8991155537
 11
614.0737798943
 21
810.5991155537
  0
LINE
  5
58A
100
AcDbEntity
  8
6_ALL_SURFS
100
AcDbLine
 62
7
  6
CONTINUOUS
 10
614.2237798943
 20
807.8991155537
 11
614.0737798943
 21
807.5991155537
  0
LINE
  5
58B
100
AcDbEntity
  8
6_ALL_SURFS
100
AcDbLine
 62
7
  6
CONTINUOUS
 10
614.2237798943
 20
804.8991155537
 11
614.0737798943
 21
804.5991155537
  0
LINE
  5
58C
100
AcDbEntity
  8
6_ALL_SURFS
100
AcDbLine
 62
7
  6
CONTINUOUS
 10
622.7879682121
 20
798.1880497949
 11
622.7654895175
 21
798.1491155537
  0
LINE
  5
58D
100
AcDbEntity
  8
7_ALL_FEATURES
100
AcDbLine
 62
7
  6
CONTINUOUS
 10
620.9859119287
 20
736.8112475881
 11
620.86164786
 21
736.6869835194
  0
LINE
  5
58E
100
AcDbEntity
  8
3_ALL_AXES
100
AcDbLine
 62
7
  6
CONTINUOUS
 10
628.5737798943
 20
736.8991155537
 11
629.2737798943
 21
737.5991155537
  0
LINE
  5
58F
100
AcDbEntity
  8
7_ALL_FEATURES
100
AcDbLine
 62
7
  6
CONTINUOUS
 10
626.2737798943
 20
729.8991155537
 11
626.7737798943
 21
730.3991155537
  0
LINE
  5
590
100
AcDbEntity
  8
7_ALL_FEATURES
100
AcDbLine
 62
7
  6
CONTINUOUS
 10
620.9859119287
 20
798.0869835194
 11
620.86164786
 21
798.2112475881
  0
LINE
  5
591
100
AcDbEntity
  8
3_ALL_AXES
100
AcDbLine
 62
7
  6
CONTINUOUS
 10
641.0737798943
 20
797.9991155537
 11
641.7737798943
 21
797.2991155537
  0
LINE
  5
592
100
AcDbEntity
  8
7_ALL_FEATURES
100
AcDbLine
 62
7
  6
CONTINUOUS
 10
638.7737798943
 20
804.9991155537
 11
639.1737798943
 21
804.5991155537
  0
LINE
  5
593
100
AcDbEntity
  8
7_ALL_FEATURES
100
AcDbLine
 62
7
  6
CONTINUOUS
 10
622.7879682121
 20
736.7101813126
 11
622.7654895175
 21
736.7491155537
  0
LINE
  5
594
100
AcDbEntity
  8
3_ALL_AXES
100
AcDbLine
 62
7
  6
CONTINUOUS
 10
614.2237798943
 20
720.9991155537
 11
614.0737798943
 21
721.2991155537
  0
LINE
  5
595
100
AcDbEntity
  8
3_ALL_AXES
100
AcDbLine
 62
7
  6
CONTINUOUS
 10
614.2237798943
 20
723.9991155537
 11
614.0737798943
 21
724.2991155537
  0
LINE
  5
596
100
AcDbEntity
  8
3_ALL_AXES
100
AcDbLine
 62
7
  6
CONTINUOUS
 10
614.2237798943
 20
726.9991155537
 11
614.0737798943
 21
727.2991155537
  0
LINE
  5
597
100
AcDbEntity
  8
3_ALL_AXES
100
AcDbLine
 62
7
  6
CONTINUOUS
 10
614.2237798943
 20
729.9991155537
 11
614.0737798943
 21
730.2991155537
  0
LINE
  5
598
100
AcDbEntity
  8
7_ALL_FEATURES
100
AcDbLine
 62
7
  6
CONTINUOUS
 10
613.0737798943
 20
714.9991155537
 11
613.2883270534
 21
712.8536439634
  0
LINE
  5
599
100
AcDbEntity
  8
6_ALL_SURFS
100
AcDbLine
 62
7
  6
CONTINUOUS
 10
613.0737798943
 20
819.8991155537
 11
613.2883270534
 21
822.0445871441
  0
LINE
  5
59A
100
AcDbEntity
  8
3_ALL_AXES
100
AcDbLine
 62
7
  6
CONTINUOUS
 10
614.0737798943
 20
729.6991155537
 11
614.2237798943
 21
729.9991155537
  0
LINE
  5
59B
100
AcDbEntity
  8
3_ALL_AXES
100
AcDbLine
 62
7
  6
CONTINUOUS
 10
614.0737798943
 20
726.6991155537
 11
614.2237798943
 21
726.9991155537
  0
LINE
  5
59C
100
AcDbEntity
  8
3_ALL_AXES
100
AcDbLine
 62
7
  6
CONTINUOUS
 10
614.0737798943
 20
723.6991155537
 11
614.2237798943
 21
723.9991155537
  0
LINE
  5
59D
100
AcDbEntity
  8
3_ALL_AXES
100
AcDbLine
 62
7
  6
CONTINUOUS
 10
614.0737798943
 20
720.6991155537
 11
614.2237798943
 21
720.9991155537
  0
LINE
  5
59E
100
AcDbEntity
  8
7_ALL_FEATURES
100
AcDbLine
 62
7
  6
CONTINUOUS
 10
624.3820702712
 20
736.7491155537
 11
624.3595915766
 21
736.7101813126
  0
LINE
  5
59F
100
AcDbEntity
  8
7_ALL_FEATURES
100
AcDbLine
 62
7
  6
CONTINUOUS
 10
685.5737798943
 20
765.9491155537
 11
685.3737798943
 21
765.7491155537
  0
LINE
  5
5A0
100
AcDbEntity
  8
3_ALL_AXES
100
AcDbLine
 62
7
  6
CONTINUOUS
 10
656.8737798943
 20
736.8991155537
 11
657.5737798943
 21
737.5991155537
  0
LINE
  5
5A1
100
AcDbEntity
  8
7_ALL_FEATURES
100
AcDbLine
 62
7
  6
CONTINUOUS
 10
654.5737798943
 20
729.8991155537
 11
655.0737798943
 21
730.3991155537
  0
LINE
  5
5A2
100
AcDbEntity
  8
7_ALL_FEATURES
100
AcDbLine
 62
7
  6
CONTINUOUS
 10
685.5737798943
 20
768.9491155537
 11
685.3737798943
 21
769.1491155537
  0
LINE
  5
5A3
100
AcDbEntity
  8
3_ALL_AXES
100
AcDbLine
 62
7
  6
CONTINUOUS
 10
656.8737798943
 20
797.9991155537
 11
657.5737798943
 21
797.2991155537
  0
LINE
  5
5A4
100
AcDbEntity
  8
7_ALL_FEATURES
100
AcDbLine
 62
7
  6
CONTINUOUS
 10
654.5737798943
 20
804.9991155537
 11
654.9737798943
 21
804.5991155537
  0
LINE
  5
5A5
100
AcDbEntity
  8
6_ALL_SURFS
100
AcDbLine
 62
7
  6
CONTINUOUS
 10
624.3820702712
 20
798.1491155537
 11
624.3595915766
 21
798.1880497949
  0
LINE
  5
5A6
100
AcDbEntity
  8
6_ALL_SURFS
100
AcDbLine
 62
7
  6
CONTINUOUS
 10
614.0737798943
 20
805.1991155537
 11
614.2237798943
 21
804.8991155537
  0
LINE
  5
5A7
100
AcDbEntity
  8
6_ALL_SURFS
100
AcDbLine
 62
7
  6
CONTINUOUS
 10
614.0737798943
 20
808.1991155537
 11
614.2237798943
 21
807.8991155537
  0
LINE
  5
5A8
100
AcDbEntity
  8
6_ALL_SURFS
100
AcDbLine
 62
7
  6
CONTINUOUS
 10
614.0737798943
 20
811.1991155537
 11
614.2237798943
 21
810.8991155537
  0
LINE
  5
5A9
100
AcDbEntity
  8
6_ALL_SURFS
100
AcDbLine
 62
7
  6
CONTINUOUS
 10
614.0737798943
 20
814.1991155537
 11
614.2237798943
 21
813.8991155537
  0
LINE
  5
5AA
100
AcDbEntity
  8
7_ALL_FEATURES
100
AcDbLine
 62
7
  6
CONTINUOUS
 10
611.0737798943
 20
800.7491155537
 11
611.0737798943
 21
734.1491155537
  0
LINE
  5
5AB
100
AcDbEntity
  8
7_ALL_FEATURES
100
AcDbLine
 62
7
  6
CONTINUOUS
 10
611.5737798943
 20
733.7991155537
 11
611.5737798943
 21
732.9991155537
  0
LINE
  5
5AC
100
AcDbEntity
  8
7_ALL_FEATURES
100
AcDbLine
 62
7
  6
CONTINUOUS
 10
611.5737798943
 20
734.3491155537
 11
611.5737798943
 21
800.5491155537
  0
LINE
  5
5AD
100
AcDbEntity
  8
6_ALL_SURFS
100
AcDbLine
 62
7
  6
CONTINUOUS
 10
611.5737798943
 20
801.0991155537
 11
611.5737798943
 21
801.8991155537
  0
LINE
  5
5AE
100
AcDbEntity
  8
7_ALL_FEATURES
100
AcDbLine
 62
7
  6
CONTINUOUS
 10
612.5737798943
 20
800.5491155537
 11
612.5737798943
 21
799.6991155537
  0
LINE
  5
5AF
100
AcDbEntity
  8
7_ALL_FEATURES
100
AcDbLine
 62
7
  6
CONTINUOUS
 10
612.5737798943
 20
735.1991155537
 11
612.5737798943
 21
734.1991155537
  0
LINE
  5
5B0
100
AcDbEntity
  8
6_ALL_SURFS
100
AcDbLine
 62
7
  6
CONTINUOUS
 10
612.5737798943
 20
799.8491155537
 11
612.5737798943
 21
800.6991155537
  0
LINE
  5
5B1
100
AcDbEntity
  8
7_ALL_FEATURES
100
AcDbLine
 62
7
  6
CONTINUOUS
 10
613.0737798943
 20
798.4991155537
 11
613.0737798943
 21
736.3991155537
  0
LINE
  5
5B2
100
AcDbEntity
  8
7_ALL_FEATURES
100
AcDbLine
 62
7
  6
CONTINUOUS
 10
613.0737798943
 20
732.5991155537
 11
613.0737798943
 21
730.2991155537
  0
LINE
  5
5B3
100
AcDbEntity
  8
3_ALL_AXES
100
AcDbLine
 62
7
  6
CONTINUOUS
 10
613.0737798943
 20
729.6991155537
 11
613.0737798943
 21
727.2991155537
  0
LINE
  5
5B4
100
AcDbEntity
  8
3_ALL_AXES
100
AcDbLine
 62
7
  6
CONTINUOUS
 10
613.0737798943
 20
726.6991155537
 11
613.0737798943
 21
724.2991155537
  0
LINE
  5
5B5
100
AcDbEntity
  8
3_ALL_AXES
100
AcDbLine
 62
7
  6
CONTINUOUS
 10
613.0737798943
 20
723.6991155537
 11
613.0737798943
 21
721.2991155537
  0
LINE
  5
5B6
100
AcDbEntity
  8
3_ALL_AXES
100
AcDbLine
 62
7
  6
CONTINUOUS
 10
613.0737798943
 20
720.6991155537
 11
613.0737798943
 21
718.2991155537
  0
LINE
  5
5B7
100
AcDbEntity
  8
3_ALL_AXES
100
AcDbLine
 62
7
  6
CONTINUOUS
 10
613.0737798943
 20
717.6991155537
 11
613.0737798943
 21
714.9991155537
  0
LINE
  5
5B8
100
AcDbEntity
  8
6_ALL_SURFS
100
AcDbLine
 62
7
  6
CONTINUOUS
 10
613.0737798943
 20
802.2991155537
 11
613.0737798943
 21
804.5991155537
  0
LINE
  5
5B9
100
AcDbEntity
  8
6_ALL_SURFS
100
AcDbLine
 62
7
  6
CONTINUOUS
 10
613.0737798943
 20
805.1991155537
 11
613.0737798943
 21
807.5991155537
  0
LINE
  5
5BA
100
AcDbEntity
  8
6_ALL_SURFS
100
AcDbLine
 62
7
  6
CONTINUOUS
 10
613.0737798943
 20
808.1991155537
 11
613.0737798943
 21
810.5991155537
  0
LINE
  5
5BB
100
AcDbEntity
  8
6_ALL_SURFS
100
AcDbLine
 62
7
  6
CONTINUOUS
 10
613.0737798943
 20
811.1991155537
 11
613.0737798943
 21
813.5991155537
  0
LINE
  5
5BC
100
AcDbEntity
  8
6_ALL_SURFS
100
AcDbLine
 62
7
  6
CONTINUOUS
 10
613.0737798943
 20
814.1991155537
 11
613.0737798943
 21
816.5991155537
  0
LINE
  5
5BD
100
AcDbEntity
  8
6_ALL_SURFS
100
AcDbLine
 62
7
  6
CONTINUOUS
 10
613.0737798943
 20
817.1991155537
 11
613.0737798943
 21
819.8991155537
  0
LINE
  5
5BE
100
AcDbEntity
  8
6_ALL_SURFS
100
AcDbLine
 62
7
  6
CONTINUOUS
 10
614.0737798943
 20
822.0054121958
 11
614.0737798943
 21
820.1991155537
  0
LINE
  5
5BF
100
AcDbEntity
  8
6_ALL_SURFS
100
AcDbLine
 62
7
  6
CONTINUOUS
 10
614.0737798943
 20
819.5991155537
 11
614.0737798943
 21
817.1991155537
  0
LINE
  5
5C0
100
AcDbEntity
  8
6_ALL_SURFS
100
AcDbLine
 62
7
  6
CONTINUOUS
 10
614.0737798943
 20
816.5991155537
 11
614.0737798943
 21
814.1991155537
  0
LINE
  5
5C1
100
AcDbEntity
  8
6_ALL_SURFS
100
AcDbLine
 62
7
  6
CONTINUOUS
 10
614.0737798943
 20
813.5991155537
 11
614.0737798943
 21
811.1991155537
  0
LINE
  5
5C2
100
AcDbEntity
  8
6_ALL_SURFS
100
AcDbLine
 62
7
  6
CONTINUOUS
 10
614.0737798943
 20
810.5991155537
 11
614.0737798943
 21
808.1991155537
  0
LINE
  5
5C3
100
AcDbEntity
  8
6_ALL_SURFS
100
AcDbLine
 62
7
  6
CONTINUOUS
 10
614.0737798943
 20
807.5991155537
 11
614.0737798943
 21
805.1991155537
  0
LINE
  5
5C4
100
AcDbEntity
  8
6_ALL_SURFS
100
AcDbLine
 62
7
  6
CONTINUOUS
 10
614.0737798943
 20
804.5991155537
 11
614.0737798943
 21
802.3991155537
  0
LINE
  5
5C5
100
AcDbEntity
  8
6_ALL_SURFS
100
AcDbLine
 62
7
  6
CONTINUOUS
 10
614.0737798943
 20
800.5991155537
 11
614.0737798943
 21
799.9623010974
  0
LINE
  5
5C6
100
AcDbEntity
  8
7_ALL_FEATURES
100
AcDbLine
 62
7
  6
CONTINUOUS
 10
614.0737798943
 20
712.8928189117
 11
614.0737798943
 21
714.6991155537
  0
LINE
  5
5C7
100
AcDbEntity
  8
3_ALL_AXES
100
AcDbLine
 62
7
  6
CONTINUOUS
 10
614.0737798943
 20
715.2991155537
 11
614.0737798943
 21
717.6991155537
  0
LINE
  5
5C8
100
AcDbEntity
  8
3_ALL_AXES
100
AcDbLine
 62
7
  6
CONTINUOUS
 10
614.0737798943
 20
718.2991155537
 11
614.0737798943
 21
720.6991155537
  0
LINE
  5
5C9
100
AcDbEntity
  8
3_ALL_AXES
100
AcDbLine
 62
7
  6
CONTINUOUS
 10
614.0737798943
 20
721.2991155537
 11
614.0737798943
 21
723.6991155537
  0
LINE
  5
5CA
100
AcDbEntity
  8
3_ALL_AXES
100
AcDbLine
 62
7
  6
CONTINUOUS
 10
614.0737798943
 20
724.2991155537
 11
614.0737798943
 21
726.6991155537
  0
LINE
  5
5CB
100
AcDbEntity
  8
3_ALL_AXES
100
AcDbLine
 62
7
  6
CONTINUOUS
 10
614.0737798943
 20
727.2991155537
 11
614.0737798943
 21
729.6991155537
  0
LINE
  5
5CC
100
AcDbEntity
  8
3_ALL_AXES
100
AcDbLine
 62
7
  6
CONTINUOUS
 10
614.0737798943
 20
730.2991155537
 11
614.0737798943
 21
732.4991155537
  0
LINE
  5
5CD
100
AcDbEntity
  8
7_ALL_FEATURES
100
AcDbLine
 62
7
  6
CONTINUOUS
 10
614.0737798943
 20
734.2991155537
 11
614.0737798943
 21
734.9359300101
  0
LINE
  5
5CE
100
AcDbEntity
  8
7_ALL_FEATURES
100
AcDbLine
 62
7
  6
CONTINUOUS
 10
617.0737798943
 20
736.5991155537
 11
617.0737798943
 21
735.5283318954
  0
LINE
  5
5CF
100
AcDbEntity
  8
6_ALL_SURFS
100
AcDbLine
 62
7
  6
CONTINUOUS
 10
617.0737798943
 20
798.2991155537
 11
617.0737798943
 21
799.369899212
  0
LINE
  5
5D0
100
AcDbEntity
  8
3_ALL_AXES
100
AcDbLine
 62
7
  6
CONTINUOUS
 10
617.7237798943
 20
730.2991155537
 11
617.7237798943
 21
732.2991155537
  0
LINE
  5
5D1
100
AcDbEntity
  8
3_ALL_AXES
100
AcDbLine
 62
7
  6
CONTINUOUS
 10
619.2737798943
 20
737.5991155537
 11
619.2737798943
 21
737.8991155537
  0
LINE
  5
5D2
100
AcDbEntity
  8
7_ALL_FEATURES
100
AcDbLine
 62
7
  6
CONTINUOUS
 10
620.6737798943
 20
734.6991155537
 11
620.6737798943
 21
733.8991155537
  0
LINE
  5
5D3
100
AcDbEntity
  8
6_ALL_SURFS
100
AcDbLine
 62
7
  6
CONTINUOUS
 10
620.6737798943
 20
800.1991155537
 11
620.6737798943
 21
800.9991155537
  0
LINE
  5
5D4
100
AcDbEntity
  8
3_ALL_AXES
100
AcDbLine
 62
7
  6
CONTINUOUS
 10
626.4237798943
 20
730.2991155537
 11
626.4237798943
 21
732.2991155537
  0
LINE
  5
5D5
100
AcDbEntity
  8
6_ALL_SURFS
100
AcDbLine
 62
7
  6
CONTINUOUS
 10
626.4737798943
 20
800.9991155537
 11
626.4737798943
 21
799.8991155537
  0
LINE
  5
5D6
100
AcDbEntity
  8
7_ALL_FEATURES
100
AcDbLine
 62
7
  6
CONTINUOUS
 10
626.4737798943
 20
733.8991155537
 11
626.4737798943
 21
734.9991155537
  0
LINE
  5
5D7
100
AcDbEntity
  8
3_ALL_AXES
100
AcDbLine
 62
7
  6
CONTINUOUS
 10
626.7737798943
 20
730.3991155537
 11
626.7737798943
 21
732.2991155537
  0
LINE
  5
5D8
100
AcDbEntity
  8
3_ALL_AXES
100
AcDbLine
 62
7
  6
CONTINUOUS
 10
629.2737798943
 20
737.5991155537
 11
629.2737798943
 21
737.8991155537
  0
LINE
  5
5D9
100
AcDbEntity
  8
3_ALL_AXES
100
AcDbLine
 62
7
  6
CONTINUOUS
 10
614.0737798943
 20
717.6991155537
 11
614.2237798943
 21
717.9991155537
  0
LINE
  5
5DA
100
AcDbEntity
  8
3_ALL_AXES
100
AcDbLine
 62
7
  6
CONTINUOUS
 10
614.0737798943
 20
714.6991155537
 11
614.2237798943
 21
714.9991155537
  0
LINE
  5
5DB
100
AcDbEntity
  8
6_ALL_SURFS
100
AcDbLine
 62
7
  6
CONTINUOUS
 10
614.0737798943
 20
817.1991155537
 11
614.2237798943
 21
816.8991155537
  0
LINE
  5
5DC
100
AcDbEntity
  8
6_ALL_SURFS
100
AcDbLine
 62
7
  6
CONTINUOUS
 10
614.0737798943
 20
820.1991155537
 11
614.2237798943
 21
819.8991155537
  0
LINE
  5
5DD
100
AcDbEntity
  8
3_ALL_AXES
100
AcDbLine
 62
7
  6
CONTINUOUS
 10
631.7737798943
 20
797.2991155537
 11
631.7737798943
 21
796.9991155537
  0
LINE
  5
5DE
100
AcDbEntity
  8
3_ALL_AXES
100
AcDbLine
 62
7
  6
CONTINUOUS
 10
632.7237798943
 20
804.5991155537
 11
632.7237798943
 21
802.5991155537
  0
LINE
  5
5DF
100
AcDbEntity
  8
7_ALL_FEATURES
100
AcDbLine
 62
7
  6
CONTINUOUS
 10
637.5737798943
 20
732.2991155537
 11
637.5737798943
 21
735.2991155537
  0
LINE
  5
5E0
100
AcDbEntity
  8
7_ALL_FEATURES
100
AcDbLine
 62
7
  6
CONTINUOUS
 10
640.0737798943
 20
802.5991155537
 11
640.0737798943
 21
799.5991155537
  0
LINE
  5
5E1
100
AcDbEntity
  8
3_ALL_AXES
100
AcDbLine
 62
7
  6
CONTINUOUS
 10
641.4237798943
 20
804.5991155537
 11
641.4237798943
 21
802.5991155537
  0
LINE
  5
5E2
100
AcDbEntity
  8
3_ALL_AXES
100
AcDbLine
 62
7
  6
CONTINUOUS
 10
641.7737798943
 20
797.2991155537
 11
641.7737798943
 21
796.9991155537
  0
LINE
  5
5E3
100
AcDbEntity
  8
3_ALL_AXES
100
AcDbLine
 62
7
  6
CONTINUOUS
 10
645.7237798943
 20
730.2991155537
 11
645.7237798943
 21
732.2991155537
  0
LINE
  5
5E4
100
AcDbEntity
  8
3_ALL_AXES
100
AcDbLine
 62
7
  6
CONTINUOUS
 10
647.5737798943
 20
797.2991155537
 11
647.5737798943
 21
796.9991155537
  0
LINE
  5
5E5
100
AcDbEntity
  8
3_ALL_AXES
100
AcDbLine
 62
7
  6
CONTINUOUS
 10
647.5737798943
 20
737.5991155537
 11
647.5737798943
 21
737.8991155537
  0
LINE
  5
5E6
100
AcDbEntity
  8
3_ALL_AXES
100
AcDbLine
 62
7
  6
CONTINUOUS
 10
648.2237798943
 20
804.5991155537
 11
648.2237798943
 21
802.5991155537
  0
LINE
  5
5E7
100
AcDbEntity
  8
6_ALL_SURFS
100
AcDbLine
 62
7
  6
CONTINUOUS
 10
662.2229792981
 20
797.7583435584
 11
662.1402415049
 21
797.53102334
  0
LINE
  5
5E8
100
AcDbEntity
  8
7_ALL_FEATURES
100
AcDbLine
 62
7
  6
CONTINUOUS
 10
662.2229792981
 20
737.139887549
 11
662.1402415049
 21
737.3672077675
  0
LINE
  5
5E9
100
AcDbEntity
  8
3_ALL_AXES
100
AcDbLine
 62
7
  6
CONTINUOUS
 10
654.4237798943
 20
730.2991155537
 11
654.4237798943
 21
732.2991155537
  0
LINE
  5
5EA
100
AcDbEntity
  8
3_ALL_AXES
100
AcDbLine
 62
7
  6
CONTINUOUS
 10
655.0737798943
 20
730.3991155537
 11
655.0737798943
 21
732.2991155537
  0
LINE
  5
5EB
100
AcDbEntity
  8
3_ALL_AXES
100
AcDbLine
 62
7
  6
CONTINUOUS
 10
656.9237798943
 20
804.5991155537
 11
656.9237798943
 21
802.5991155537
  0
LINE
  5
5EC
100
AcDbEntity
  8
3_ALL_AXES
100
AcDbLine
 62
7
  6
CONTINUOUS
 10
657.5737798943
 20
797.2991155537
 11
657.5737798943
 21
796.9991155537
  0
LINE
  5
5ED
100
AcDbEntity
  8
3_ALL_AXES
100
AcDbLine
 62
7
  6
CONTINUOUS
 10
657.5737798943
 20
737.5991155537
 11
657.5737798943
 21
737.8991155537
  0
LINE
  5
5EE
100
AcDbEntity
  8
7_ALL_FEATURES
100
AcDbLine
 62
7
  6
CONTINUOUS
 10
662.5737798943
 20
732.2991155537
 11
662.5737798943
 21
735.2991155537
  0
LINE
  5
5EF
100
AcDbEntity
  8
7_ALL_FEATURES
100
AcDbLine
 62
7
  6
CONTINUOUS
 10
665.0737798943
 20
802.5991155537
 11
665.0737798943
 21
799.5991155537
  0
LINE
  5
5F0
100
AcDbEntity
  8
7_ALL_FEATURES
100
AcDbLine
 62
7
  6
CONTINUOUS
 10
677.5455766641
 20
763.4491155537
 11
677.5455766641
 21
771.4491155537
  0
LINE
  5
5F1
100
AcDbEntity
  8
7_ALL_FEATURES
100
AcDbLine
 62
7
  6
CONTINUOUS
 10
679.5737798943
 20
759.9491155537
 11
679.5737798943
 21
774.9491155537
  0
LINE
  5
5F2
100
AcDbEntity
  8
7_ALL_FEATURES
100
AcDbLine
 62
7
  6
CONTINUOUS
 10
680.5737798943
 20
769.4491155537
 11
680.5737798943
 21
740.8612837466
  0
LINE
  5
5F3
100
AcDbEntity
  8
6_ALL_SURFS
100
AcDbLine
 62
7
  6
CONTINUOUS
 10
680.5737798943
 20
769.4491155537
 11
680.5737798943
 21
794.0369473608
  0
LINE
  5
5F4
100
AcDbEntity
  8
6_ALL_SURFS
100
AcDbLine
 62
7
  6
CONTINUOUS
 10
682.1737798943
 20
794.5315378453
 11
682.1737798943
 21
793.2569993862
  0
LINE
  5
5F5
100
AcDbEntity
  8
6_ALL_SURFS
100
AcDbLine
 62
7
  6
CONTINUOUS
 10
682.1737798943
 20
787.5412317213
 11
682.1737798943
 21
771.5491155537
  0
LINE
  5
5F6
100
AcDbEntity
  8
7_ALL_FEATURES
100
AcDbLine
 62
7
  6
CONTINUOUS
 10
682.1737798943
 20
740.3666932622
 11
682.1737798943
 21
741.6412317213
  0
LINE
  5
5F7
100
AcDbEntity
  8
7_ALL_FEATURES
100
AcDbLine
 62
7
  6
CONTINUOUS
 10
682.1737798943
 20
747.3569993862
 11
682.1737798943
 21
763.3491155537
  0
LINE
  5
5F8
100
AcDbEntity
  8
7_ALL_FEATURES
100
AcDbLine
 62
7
  6
CONTINUOUS
 10
685.0737798943
 20
769.1491155537
 11
685.0737798943
 21
765.7491155537
  0
LINE
  5
5F9
100
AcDbEntity
  8
7_ALL_FEATURES
100
AcDbLine
 62
7
  6
CONTINUOUS
 10
685.5737798943
 20
768.9491155537
 11
685.5737798943
 21
765.9491155537
  0
LINE
  5
5FA
100
AcDbEntity
  8
7_ALL_FEATURES
100
AcDbLine
 62
7
  6
CONTINUOUS
 10
685.9737798943
 20
766.0491155537
 11
685.9737798943
 21
768.8491155537
  0
LINE
  5
5FB
100
AcDbEntity
  8
7_ALL_FEATURES
100
AcDbLine
 62
7
  6
CONTINUOUS
 10
686.2737798943
 20
741.8747108593
 11
686.2737798943
 21
740.4991155537
  0
LINE
  5
5FC
100
AcDbEntity
  8
6_ALL_SURFS
100
AcDbLine
 62
7
  6
CONTINUOUS
 10
686.2737798943
 20
793.0235202482
 11
686.2737798943
 21
794.3991155537
  0
LINE
  5
5FD
100
AcDbEntity
  8
6_ALL_SURFS
100
AcDbLine
 62
7
  6
CONTINUOUS
 10
687.5737798943
 20
794.3991155537
 11
687.5737798943
 21
792.4487090094
  0
LINE
  5
5FE
100
AcDbEntity
  8
6_ALL_SURFS
100
AcDbLine
 62
7
  6
CONTINUOUS
 10
687.5737798943
 20
788.3495220981
 11
687.5737798943
 21
787.8991155537
  0
LINE
  5
5FF
100
AcDbEntity
  8
7_ALL_FEATURES
100
AcDbLine
 62
7
  6
CONTINUOUS
 10
687.5737798943
 20
770.0491155537
 11
687.5737798943
 21
764.8491155537
  0
LINE
  5
600
100
AcDbEntity
  8
7_ALL_FEATURES
100
AcDbLine
 62
7
  6
CONTINUOUS
 10
687.5737798943
 20
740.4991155537
 11
687.5737798943
 21
742.4495220981
  0
LINE
  5
601
100
AcDbEntity
  8
7_ALL_FEATURES
100
AcDbLine
 62
7
  6
CONTINUOUS
 10
687.5737798943
 20
746.5487090094
 11
687.5737798943
 21
746.9991155537
  0
CIRCLE
  5
602
100
AcDbEntity
  8
3_ALL_AXES
100
AcDbCircle
 62
7
  6
CONTINUOUS
 10
637.0737798943
 20
620.6381124426
 40
4.35
  0
CIRCLE
  5
603
100
AcDbEntity
  8
3_ALL_AXES
100
AcDbCircle
 62
7
  6
CONTINUOUS
 10
652.5737798943
 20
592.6381124426
 40
4.35
  0
ARC
  5
604
100
AcDbEntity
  8
0
100
AcDbCircle
 62
2
  6
CONTINUOUS
 10
637.0737798943
 20
620.6381124426
 40
2.5
100
AcDbArc
 50
255.0
 51
90.0
  0
ARC
  5
605
100
AcDbEntity
  8
0
100
AcDbCircle
 62
2
  6
CONTINUOUS
 10
652.5737798943
 20
592.6381124426
 40
2.5
100
AcDbArc
 50
90.0
 51
195.0
  0
CIRCLE
  5
606
100
AcDbEntity
  8
3_ALL_AXES
100
AcDbCircle
 62
3
  6
CONTINUOUS
 10
652.5737798943
 20
605.1381124426
 40
2.5
  0
CIRCLE
  5
607
100
AcDbEntity
  8
3_ALL_AXES
100
AcDbCircle
 62
3
  6
CONTINUOUS
 10
624.5737798943
 20
620.6381124426
 40
2.5
  0
CIRCLE
  5
608
100
AcDbEntity
  8
7_ALL_FEATURES
100
AcDbCircle
 62
7
  6
CONTINUOUS
 10
636.7737798943
 20
620.6381124426
 40
2.0
  0
CIRCLE
  5
609
100
AcDbEntity
  8
7_ALL_FEATURES
100
AcDbCircle
 62
7
  6
CONTINUOUS
 10
652.5737798943
 20
592.3381124426
 40
2.0
  0
ARC
  5
60A
100
AcDbEntity
  8
7_ALL_FEATURES
100
AcDbCircle
 62
7
  6
CONTINUOUS
 10
834.0172379032
 20
64.1381124426
 40
4.7990381057
100
AcDbArc
 50
305.6935828234
 51
54.3064171766
  0
ARC
  5
60B
100
AcDbEntity
  8
7_ALL_FEATURES
100
AcDbCircle
 62
7
  6
CONTINUOUS
 10
834.0172379032
 20
314.1381124426
 40
4.7990381057
100
AcDbArc
 50
305.6935828234
 51
54.3064171766
  0
ARC
  5
60C
100
AcDbEntity
  8
7_ALL_FEATURES
100
AcDbCircle
 62
7
  6
CONTINUOUS
 10
834.0172379032
 20
64.1381124426
 40
4.7990381057
100
AcDbArc
 50
267.6115056179
 51
297.2855350899
  0
ARC
  5
60D
100
AcDbEntity
  8
7_ALL_FEATURES
100
AcDbCircle
 62
7
  6
CONTINUOUS
 10
834.0172379032
 20
314.1381124426
 40
4.7990381057
100
AcDbArc
 50
267.6115056179
 51
297.2855350899
  0
ARC
  5
60E
100
AcDbEntity
  8
7_ALL_FEATURES
100
AcDbCircle
 62
7
  6
CONTINUOUS
 10
834.0172379032
 20
64.1381124426
 40
4.7990381057
100
AcDbArc
 50
62.7144649101
 51
92.3884943821
  0
ARC
  5
60F
100
AcDbEntity
  8
7_ALL_FEATURES
100
AcDbCircle
 62
7
  6
CONTINUOUS
 10
834.0172379032
 20
314.1381124426
 40
4.7990381057
100
AcDbArc
 50
62.7144649101
 51
92.3884943821
  0
ARC
  5
610
100
AcDbEntity
  8
7_ALL_FEATURES
100
AcDbCircle
 62
7
  6
CONTINUOUS
 10
834.0172379032
 20
64.1381124426
 40
4.7990381057
100
AcDbArc
 50
223.171184019
 51
260.4039906056
  0
ARC
  5
611
100
AcDbEntity
  8
7_ALL_FEATURES
100
AcDbCircle
 62
7
  6
CONTINUOUS
 10
834.0172379032
 20
314.1381124426
 40
4.7990381057
100
AcDbArc
 50
223.171184019
 51
260.4039906056
  0
ARC
  5
612
100
AcDbEntity
  8
7_ALL_FEATURES
100
AcDbCircle
 62
7
  6
CONTINUOUS
 10
834.0172379032
 20
64.1381124426
 40
4.7990381057
100
AcDbArc
 50
99.5960093944
 51
136.828815981
  0
ARC
  5
613
100
AcDbEntity
  8
7_ALL_FEATURES
100
AcDbCircle
 62
7
  6
CONTINUOUS
 10
834.0172379032
 20
314.1381124426
 40
4.7990381057
100
AcDbArc
 50
99.5960093944
 51
136.828815981
  0
CIRCLE
  5
614
100
AcDbEntity
  8
6_ALL_SURFS
100
AcDbCircle
 62
7
  6
CONTINUOUS
 10
834.0172379032
 20
314.1381124426
 40
3.5
  0
CIRCLE
  5
615
100
AcDbEntity
  8
6_ALL_SURFS
100
AcDbCircle
 62
7
  6
CONTINUOUS
 10
834.0172379032
 20
64.1381124426
 40
3.5
  0
ARC
  5
616
100
AcDbEntity
  8
7_ALL_FEATURES
100
AcDbCircle
 62
7
  6
CONTINUOUS
 10
834.0172379032
 20
564.1381124426
 40
4.7990381057
100
AcDbArc
 50
305.6935828234
 51
54.3064171766
  0
ARC
  5
617
100
AcDbEntity
  8
7_ALL_FEATURES
100
AcDbCircle
 62
7
  6
CONTINUOUS
 10
834.0172379032
 20
564.1381124426
 40
4.7990381057
100
AcDbArc
 50
267.6115056179
 51
297.2855350899
  0
ARC
  5
618
100
AcDbEntity
  8
7_ALL_FEATURES
100
AcDbCircle
 62
7
  6
CONTINUOUS
 10
834.0172379032
 20
564.1381124426
 40
4.7990381057
100
AcDbArc
 50
62.7144649101
 51
92.3884943821
  0
ARC
  5
619
100
AcDbEntity
  8
7_ALL_FEATURES
100
AcDbCircle
 62
7
  6
CONTINUOUS
 10
834.0172379032
 20
564.1381124426
 40
4.7990381057
100
AcDbArc
 50
223.171184019
 51
260.4039906056
  0
ARC
  5
61A
100
AcDbEntity
  8
7_ALL_FEATURES
100
AcDbCircle
 62
7
  6
CONTINUOUS
 10
834.0172379032
 20
564.1381124426
 40
4.7990381057
100
AcDbArc
 50
99.5960093944
 51
136.828815981
  0
CIRCLE
  5
61B
100
AcDbEntity
  8
6_ALL_SURFS
100
AcDbCircle
 62
7
  6
CONTINUOUS
 10
834.0172379032
 20
564.1381124426
 40
3.5
  0
ARC
  5
61C
100
AcDbEntity
  8
6_ALL_SURFS
100
AcDbCircle
 62
7
  6
CONTINUOUS
 10
839.5172379032
 20
580.7381124426
 40
0.5
100
AcDbArc
 50
53.1301023541
 51
126.8698976458
  0
ARC
  5
61D
100
AcDbEntity
  8
6_ALL_SURFS
100
AcDbCircle
 62
7
  6
CONTINUOUS
 10
836.5172379032
 20
580.7381124426
 40
0.5
100
AcDbArc
 50
53.1301023541
 51
126.8698976458
  0
ARC
  5
61E
100
AcDbEntity
  8
6_ALL_SURFS
100
AcDbCircle
 62
7
  6
CONTINUOUS
 10
833.5172379032
 20
580.7381124426
 40
0.5
100
AcDbArc
 50
53.1301023541
 51
126.8698976458
  0
ARC
  5
61F
100
AcDbEntity
  8
6_ALL_SURFS
100
AcDbCircle
 62
7
  6
CONTINUOUS
 10
828.4109412611
 20
581.7444090847
 40
0.3937033579
100
AcDbArc
 50
90.0
 51
264.2894068625
  0
ARC
  5
620
100
AcDbEntity
  8
6_ALL_SURFS
100
AcDbCircle
 62
7
  6
CONTINUOUS
 10
845.5172379032
 20
580.7381124426
 40
0.5
100
AcDbArc
 50
53.1301023541
 51
126.8698976458
  0
ARC
  5
621
100
AcDbEntity
  8
6_ALL_SURFS
100
AcDbCircle
 62
7
  6
CONTINUOUS
 10
842.5172379032
 20
580.7381124426
 40
0.5
100
AcDbArc
 50
53.1301023541
 51
126.8698976458
  0
ARC
  5
622
100
AcDbEntity
  8
3_ALL_AXES
100
AcDbCircle
 62
7
  6
CONTINUOUS
 10
849.9172379032
 20
581.4581124426
 40
1.8
100
AcDbArc
 50
0.0
 51
57.1401196211
  0
ARC
  5
623
100
AcDbEntity
  8
6_ALL_SURFS
100
AcDbCircle
 62
7
  6
CONTINUOUS
 10
849.5172379032
 20
583.6381124426
 40
1.5
100
AcDbArc
 50
137.0
 51
180.0
  0
ARC
  5
624
100
AcDbEntity
  8
3_ALL_AXES
100
AcDbCircle
 62
7
  6
CONTINUOUS
 10
849.9172379032
 20
581.4581124426
 40
1.0
100
AcDbArc
 50
0.0
 51
57.1401196211
  0
ARC
  5
625
100
AcDbEntity
  8
3_ALL_AXES
100
AcDbCircle
 62
7
  6
CONTINUOUS
 10
851.0024107005
 20
583.1381124426
 40
1.0
100
AcDbArc
 50
137.0
 51
237.1401196211
  0
ARC
  5
626
100
AcDbEntity
  8
3_ALL_AXES
100
AcDbCircle
 62
7
  6
CONTINUOUS
 10
850.9280262928
 20
583.9381124426
 40
0.4
100
AcDbArc
 50
317.0
 51
137.0
  0
ARC
  5
627
100
AcDbEntity
  8
7_ALL_FEATURES
100
AcDbCircle
 62
7
  6
CONTINUOUS
 10
852.4172379032
 20
587.1623765114
 40
0.3
100
AcDbArc
 50
180.0
 51
225.0
  0
ARC
  5
628
100
AcDbEntity
  8
6_ALL_SURFS
100
AcDbCircle
 62
7
  6
CONTINUOUS
 10
850.2172379032
 20
587.0280730738
 40
0.3
100
AcDbArc
 50
317.0
 51
360.0
  0
ARC
  5
629
100
AcDbEntity
  8
6_ALL_SURFS
100
AcDbCircle
 62
7
  6
CONTINUOUS
 10
851.0464542449
 20
584.8381124426
 40
0.3
100
AcDbArc
 50
90.0
 51
137.0
  0
ARC
  5
62A
100
AcDbEntity
  8
6_ALL_SURFS
100
AcDbCircle
 62
7
  6
CONTINUOUS
 10
849.8172379032
 20
582.4381124426
 40
0.3
100
AcDbArc
 50
180.0
 51
270.0
  0
ARC
  5
62B
100
AcDbEntity
  8
6_ALL_SURFS
100
AcDbCircle
 62
7
  6
CONTINUOUS
 10
849.8172379032
 20
583.5199393
 40
0.3
100
AcDbArc
 50
137.0
 51
180.0
  0
ARC
  5
62C
100
AcDbEntity
  8
7_ALL_FEATURES
100
AcDbCircle
 62
7
  6
CONTINUOUS
 10
852.1172379032
 20
586.6138483739
 40
0.3
100
AcDbArc
 50
0.0
 51
45.0
  0
ARC
  5
62D
100
AcDbEntity
  8
6_ALL_SURFS
100
AcDbCircle
 62
7
  6
CONTINUOUS
 10
852.1172379032
 20
585.4381124426
 40
0.3
100
AcDbArc
 50
270.0
 51
360.0
  0
ARC
  5
62E
100
AcDbEntity
  8
6_ALL_SURFS
100
AcDbCircle
 62
7
  6
CONTINUOUS
 10
850.4540523596
 20
581.8381124426
 40
0.3
100
AcDbArc
 50
28.0
 51
90.0
  0
ARC
  5
62F
100
AcDbEntity
  8
6_ALL_SURFS
100
AcDbCircle
 62
7
  6
CONTINUOUS
 10
850.4672379032
 20
581.8133140418
 40
0.3
100
AcDbArc
 50
0.0
 51
28.0
  0
ARC
  5
630
100
AcDbEntity
  8
7_ALL_FEATURES
100
AcDbCircle
 62
7
  6
CONTINUOUS
 10
849.8672379032
 20
580.4381124426
 40
0.2
100
AcDbArc
 50
90.0
 51
180.0
  0
ARC
  5
631
100
AcDbEntity
  8
3_ALL_AXES
100
AcDbCircle
 62
7
  6
CONTINUOUS
 10
851.0024107005
 20
583.1381124426
 40
0.2
100
AcDbArc
 50
137.0
 51
237.1401196211
  0
ARC
  5
632
100
AcDbEntity
  8
7_ALL_FEATURES
100
AcDbCircle
 62
7
  6
CONTINUOUS
 10
849.8672379032
 20
579.8381124426
 40
0.2
100
AcDbArc
 50
180.0
 51
270.0
  0
ARC
  5
633
100
AcDbEntity
  8
7_ALL_FEATURES
100
AcDbCircle
 62
7
  6
CONTINUOUS
 10
851.9172379032
 20
581.3381124426
 40
0.2
100
AcDbArc
 50
180.0
 51
270.0
  0
ARC
  5
634
100
AcDbEntity
  8
7_ALL_FEATURES
100
AcDbCircle
 62
7
  6
CONTINUOUS
 10
850.7172379032
 20
580.8381124426
 40
0.2
100
AcDbArc
 50
270.0
 51
360.0
  0
ARC
  5
635
100
AcDbEntity
  8
6_ALL_SURFS
100
AcDbCircle
 62
7
  6
CONTINUOUS
 10
848.1172379032
 20
580.9381124426
 40
0.2
100
AcDbArc
 50
0.0
 51
90.0
  0
ARC
  5
636
100
AcDbEntity
  8
6_ALL_SURFS
100
AcDbCircle
 62
7
  6
CONTINUOUS
 10
849.7172379032
 20
580.4381124426
 40
0.2
100
AcDbArc
 50
90.0
 51
180.0
  0
ARC
  5
637
100
AcDbEntity
  8
6_ALL_SURFS
100
AcDbCircle
 62
7
  6
CONTINUOUS
 10
850.5672379032
 20
580.8381124426
 40
0.2
100
AcDbArc
 50
270.0
 51
360.0
  0
ARC
  5
638
100
AcDbEntity
  8
6_ALL_SURFS
100
AcDbCircle
 62
7
  6
CONTINUOUS
 10
849.3172379032
 20
579.8381124426
 40
0.2
100
AcDbArc
 50
270.0
 51
360.0
  0
ARC
  5
639
100
AcDbEntity
  8
6_ALL_SURFS
100
AcDbCircle
 62
7
  6
CONTINUOUS
 10
848.5172379032
 20
579.8381124426
 40
0.2
100
AcDbArc
 50
180.0
 51
270.0
  0
ARC
  5
63A
100
AcDbEntity
  8
6_ALL_SURFS
100
AcDbCircle
 62
7
  6
CONTINUOUS
 10
849.4172379032
 20
590.2381124426
 40
1.5
100
AcDbArc
 50
180.0
 51
270.0
  0
ARC
  5
63B
100
AcDbEntity
  8
6_ALL_SURFS
100
AcDbCircle
 62
7
  6
CONTINUOUS
 10
849.4172379032
 20
593.0381124426
 40
1.5
100
AcDbArc
 50
90.0
 51
180.0
  0
ARC
  5
63C
100
AcDbEntity
  8
6_ALL_SURFS
100
AcDbCircle
 62
7
  6
CONTINUOUS
 10
850.8672379032
 20
591.6381124426
 40
1.3
100
AcDbArc
 50
40.8069228749
 51
319.1930771251
  0
ARC
  5
63D
100
AcDbEntity
  8
7_ALL_FEATURES
100
AcDbCircle
 62
7
  6
CONTINUOUS
 10
852.4172379032
 20
588.7138483739
 40
0.3
100
AcDbArc
 50
135.0
 51
180.0
  0
ARC
  5
63E
100
AcDbEntity
  8
6_ALL_SURFS
100
AcDbCircle
 62
7
  6
CONTINUOUS
 10
850.5172379032
 20
594.8381124426
 40
0.3
100
AcDbArc
 50
270.0
 51
360.0
  0
ARC
  5
63F
100
AcDbEntity
  8
6_ALL_SURFS
100
AcDbCircle
 62
7
  6
CONTINUOUS
 10
850.2172379032
 20
588.4381124426
 40
0.3
100
AcDbArc
 50
0.0
 51
90.0
  0
ARC
  5
640
100
AcDbEntity
  8
6_ALL_SURFS
100
AcDbCircle
 62
7
  6
CONTINUOUS
 10
852.1172379032
 20
592.7062104406
 40
0.3
100
AcDbArc
 50
300.0
 51
360.0
  0
ARC
  5
641
100
AcDbEntity
  8
6_ALL_SURFS
100
AcDbCircle
 62
7
  6
CONTINUOUS
 10
852.0783036621
 20
592.6837317461
 40
0.3
100
AcDbArc
 50
220.8069228749
 51
300.0
  0
ARC
  5
642
100
AcDbEntity
  8
6_ALL_SURFS
100
AcDbCircle
 62
7
  6
CONTINUOUS
 10
852.0783036621
 20
590.5924931392
 40
0.3
100
AcDbArc
 50
60.0
 51
139.1930771251
  0
ARC
  5
643
100
AcDbEntity
  8
6_ALL_SURFS
100
AcDbCircle
 62
7
  6
CONTINUOUS
 10
852.1172379032
 20
590.5700144446
 40
0.3
100
AcDbArc
 50
0.0
 51
60.0
  0
ARC
  5
644
100
AcDbEntity
  8
7_ALL_FEATURES
100
AcDbCircle
 62
7
  6
CONTINUOUS
 10
852.1172379032
 20
589.2623765114
 40
0.3
100
AcDbArc
 50
315.0
 51
360.0
  0
ARC
  5
645
100
AcDbEntity
  8
6_ALL_SURFS
100
AcDbCircle
 62
7
  6
CONTINUOUS
 10
852.7606159415
 20
630.5692196326
 40
0.3
100
AcDbArc
 50
169.0
 51
250.0
  0
ARC
  5
646
100
AcDbEntity
  8
6_ALL_SURFS
100
AcDbCircle
 62
7
  6
CONTINUOUS
 10
852.782724074
 20
629.922666267
 40
0.3
100
AcDbArc
 50
340.0
 51
70.0
  0
ARC
  5
647
100
AcDbEntity
  8
6_ALL_SURFS
100
AcDbCircle
 62
7
  6
CONTINUOUS
 10
852.7172379032
 20
627.9884618514
 40
0.3
100
AcDbArc
 50
160.0
 51
180.0
  0
ARC
  5
648
100
AcDbEntity
  8
6_ALL_SURFS
100
AcDbCircle
 62
7
  6
CONTINUOUS
 10
855.8172379032
 20
630.0604978273
 40
5.0
100
AcDbArc
 50
168.992257654
 51
180.0
  0
ARC
  5
649
100
AcDbEntity
  8
6_ALL_SURFS
100
AcDbCircle
 62
7
  6
CONTINUOUS
 10
860.0172379032
 20
652.3881124427
 40
2.8
100
AcDbArc
 50
147.841849515
 51
210.000000002
  0
ARC
  5
64A
100
AcDbEntity
  8
6_ALL_SURFS
100
AcDbCircle
 62
7
  6
CONTINUOUS
 10
860.0172379032
 20
652.3881124427
 40
2.8
100
AcDbArc
 50
329.999999998
 51
360.0
  0
ARC
  5
64B
100
AcDbEntity
  8
6_ALL_SURFS
100
AcDbCircle
 62
7
  6
CONTINUOUS
 10
855.8848156117
 20
648.7381124426
 40
1.5
100
AcDbArc
 50
90.0
 51
168.992257654
  0
ARC
  5
64C
100
AcDbEntity
  8
6_ALL_SURFS
100
AcDbCircle
 62
7
  6
CONTINUOUS
 10
860.0172379032
 20
652.3881124427
 40
1.3
100
AcDbArc
 50
130.8069228753
 51
49.1930771247
  0
ARC
  5
64D
100
AcDbEntity
  8
6_ALL_SURFS
100
AcDbCircle
 62
7
  6
CONTINUOUS
 10
880.3672379032
 20
654.6381124426
 40
1.0
100
AcDbArc
 50
90.0
 51
180.0
  0
ARC
  5
64E
100
AcDbEntity
  8
6_ALL_SURFS
100
AcDbCircle
 62
7
  6
CONTINUOUS
 10
878.8672379032
 20
650.7381124426
 40
0.5
100
AcDbArc
 50
270.0
 51
360.0
  0
ARC
  5
64F
100
AcDbEntity
  8
6_ALL_SURFS
100
AcDbCircle
 62
7
  6
CONTINUOUS
 10
862.8751217357
 20
650.7381124426
 40
0.5
100
AcDbArc
 50
149.999999998
 51
270.0
  0
ARC
  5
650
100
AcDbEntity
  8
6_ALL_SURFS
100
AcDbCircle
 62
7
  6
CONTINUOUS
 10
857.1593540708
 20
650.7381124426
 40
0.5
100
AcDbArc
 50
270.0
 51
30.000000002
  0
ARC
  5
651
100
AcDbEntity
  8
6_ALL_SURFS
100
AcDbCircle
 62
7
  6
CONTINUOUS
 10
856.3794060961
 20
648.1381124426
 40
0.5
100
AcDbArc
 50
90.0
 51
169.0
  0
ARC
  5
652
100
AcDbEntity
  8
6_ALL_SURFS
100
AcDbCircle
 62
7
  6
CONTINUOUS
 10
857.3928332088
 20
654.0381124426
 40
0.3
100
AcDbArc
 50
327.841849515
 51
90.0
  0
ARC
  5
653
100
AcDbEntity
  8
6_ALL_SURFS
100
AcDbCircle
 62
7
  6
CONTINUOUS
 10
881.5672379032
 20
653.7381124426
 40
0.3
100
AcDbArc
 50
90.0
 51
180.0
  0
ARC
  5
654
100
AcDbEntity
  8
6_ALL_SURFS
100
AcDbCircle
 62
7
  6
CONTINUOUS
 10
880.9672379032
 20
648.9381124426
 40
0.3
100
AcDbArc
 50
270.0
 51
360.0
  0
ARC
  5
655
100
AcDbEntity
  8
6_ALL_SURFS
100
AcDbCircle
 62
7
  6
CONTINUOUS
 10
856.0172379032
 20
654.6381124426
 40
0.3
100
AcDbArc
 50
180.0
 51
270.0
  0
ARC
  5
656
100
AcDbEntity
  8
6_ALL_SURFS
100
AcDbCircle
 62
7
  6
CONTINUOUS
 10
856.0172379032
 20
655.3381124426
 40
0.3
100
AcDbArc
 50
90.0
 51
180.0
  0
ARC
  5
657
100
AcDbEntity
  8
6_ALL_SURFS
100
AcDbCircle
 62
7
  6
CONTINUOUS
 10
857.9676444476
 20
655.3381124426
 40
0.3
100
AcDbArc
 50
30.0000000014
 51
90.0
  0
ARC
  5
658
100
AcDbEntity
  8
6_ALL_SURFS
100
AcDbCircle
 62
7
  6
CONTINUOUS
 10
858.9716185998
 20
653.5991782016
 40
0.3
100
AcDbArc
 50
310.8069228753
 51
30.0000000014
  0
ARC
  5
659
100
AcDbEntity
  8
6_ALL_SURFS
100
AcDbCircle
 62
7
  6
CONTINUOUS
 10
861.0628572066
 20
653.5991782016
 40
0.3
100
AcDbArc
 50
149.9999999986
 51
229.1930771247
  0
ARC
  5
65A
100
AcDbEntity
  8
6_ALL_SURFS
100
AcDbCircle
 62
7
  6
CONTINUOUS
 10
862.0668313589
 20
655.3381124426
 40
0.3
100
AcDbArc
 50
90.0
 51
149.9999999986
  0
ARC
  5
65B
100
AcDbEntity
  8
6_ALL_SURFS
100
AcDbCircle
 62
7
  6
CONTINUOUS
 10
862.5172379032
 20
655.3381124426
 40
0.3
100
AcDbArc
 50
0.0
 51
90.0
  0
ARC
  5
65C
100
AcDbEntity
  8
6_ALL_SURFS
100
AcDbCircle
 62
7
  6
CONTINUOUS
 10
931.9172379032
 20
314.1381124426
 40
4.7990381057
100
AcDbArc
 50
43.171184019
 51
80.4039906056
  0
ARC
  5
65D
100
AcDbEntity
  8
6_ALL_SURFS
100
AcDbCircle
 62
7
  6
CONTINUOUS
 10
931.9172379032
 20
64.1381124426
 40
4.7990381057
100
AcDbArc
 50
43.171184019
 51
80.4039906056
  0
ARC
  5
65E
100
AcDbEntity
  8
6_ALL_SURFS
100
AcDbCircle
 62
7
  6
CONTINUOUS
 10
931.9172379032
 20
314.1381124426
 40
4.7990381057
100
AcDbArc
 50
279.5960093944
 51
316.828815981
  0
ARC
  5
65F
100
AcDbEntity
  8
6_ALL_SURFS
100
AcDbCircle
 62
7
  6
CONTINUOUS
 10
931.9172379032
 20
64.1381124426
 40
4.7990381057
100
AcDbArc
 50
279.5960093944
 51
316.828815981
  0
ARC
  5
660
100
AcDbEntity
  8
6_ALL_SURFS
100
AcDbCircle
 62
7
  6
CONTINUOUS
 10
931.9172379032
 20
314.1381124426
 40
4.7990381057
100
AcDbArc
 50
87.6115056179
 51
117.2855350899
  0
ARC
  5
661
100
AcDbEntity
  8
6_ALL_SURFS
100
AcDbCircle
 62
7
  6
CONTINUOUS
 10
931.9172379032
 20
64.1381124426
 40
4.7990381057
100
AcDbArc
 50
87.6115056179
 51
117.2855350899
  0
ARC
  5
662
100
AcDbEntity
  8
6_ALL_SURFS
100
AcDbCircle
 62
7
  6
CONTINUOUS
 10
931.9172379032
 20
314.1381124426
 40
4.7990381057
100
AcDbArc
 50
242.7144649101
 51
272.3884943821
  0
ARC
  5
663
100
AcDbEntity
  8
6_ALL_SURFS
100
AcDbCircle
 62
7
  6
CONTINUOUS
 10
931.9172379032
 20
64.1381124426
 40
4.7990381057
100
AcDbArc
 50
242.7144649101
 51
272.3884943821
  0
ARC
  5
664
100
AcDbEntity
  8
6_ALL_SURFS
100
AcDbCircle
 62
7
  6
CONTINUOUS
 10
931.9172379032
 20
64.1381124426
 40
4.7990381057
100
AcDbArc
 50
125.6935828234
 51
234.3064171766
  0
ARC
  5
665
100
AcDbEntity
  8
6_ALL_SURFS
100
AcDbCircle
 62
7
  6
CONTINUOUS
 10
931.9172379032
 20
314.1381124426
 40
4.7990381057
100
AcDbArc
 50
125.6935828234
 51
234.3064171766
  0
CIRCLE
  5
666
100
AcDbEntity
  8
6_ALL_SURFS
100
AcDbCircle
 62
7
  6
CONTINUOUS
 10
931.9172379032
 20
314.1381124426
 40
3.5
  0
CIRCLE
  5
667
100
AcDbEntity
  8
6_ALL_SURFS
100
AcDbCircle
 62
7
  6
CONTINUOUS
 10
931.9172379032
 20
64.1381124426
 40
3.5
  0
ARC
  5
668
100
AcDbEntity
  8
7_ALL_FEATURES
100
AcDbCircle
 62
7
  6
CONTINUOUS
 10
882.9672379032
 20
652.5381124426
 40
8.0
100
AcDbArc
 50
240.0
 51
255.5224878141
  0
ARC
  5
669
100
AcDbEntity
  8
7_ALL_FEATURES
100
AcDbCircle
 62
7
  6
CONTINUOUS
 10
882.9672379032
 20
652.5381124426
 40
8.0
100
AcDbArc
 50
284.4775121859
 51
300.0
  0
ARC
  5
66A
100
AcDbEntity
  8
7_ALL_FEATURES
100
AcDbCircle
 62
7
  6
CONTINUOUS
 10
882.9672379032
 20
652.5381124426
 40
7.9843597113
100
AcDbArc
 50
255.4935070353
 51
266.4096498625
  0
ARC
  5
66B
100
AcDbEntity
  8
7_ALL_FEATURES
100
AcDbCircle
 62
7
  6
CONTINUOUS
 10
882.9672379032
 20
652.5381124426
 40
7.9843597113
100
AcDbArc
 50
273.5903501375
 51
284.5064929647
  0
ARC
  5
66C
100
AcDbEntity
  8
7_ALL_FEATURES
100
AcDbCircle
 62
7
  6
CONTINUOUS
 10
882.9672379032
 20
652.5381124426
 40
7.7459666924
100
AcDbArc
 50
266.2990001561
 51
273.7009998439
  0
ARC
  5
66D
100
AcDbEntity
  8
7_ALL_FEATURES
100
AcDbCircle
 62
7
  6
CONTINUOUS
 10
910.1172379032
 20
630.0604978273
 40
5.0
100
AcDbArc
 50
0.0
 51
11.007742346
  0
ARC
  5
66E
100
AcDbEntity
  8
7_ALL_FEATURES
100
AcDbCircle
 62
7
  6
CONTINUOUS
 10
905.9172379032
 20
652.3881124427
 40
2.8
100
AcDbArc
 50
180.0
 51
210.000000002
  0
ARC
  5
66F
100
AcDbEntity
  8
7_ALL_FEATURES
100
AcDbCircle
 62
7
  6
CONTINUOUS
 10
905.9172379032
 20
652.3881124427
 40
2.8
100
AcDbArc
 50
329.999999998
 51
32.158150485
  0
ARC
  5
670
100
AcDbEntity
  8
7_ALL_FEATURES
100
AcDbCircle
 62
7
  6
CONTINUOUS
 10
910.0496601948
 20
648.7381124426
 40
1.5
100
AcDbArc
 50
11.007742346
 51
90.0
  0
ARC
  5
671
100
AcDbEntity
  8
7_ALL_FEATURES
100
AcDbCircle
 62
7
  6
CONTINUOUS
 10
905.9172379032
 20
652.3881124427
 40
1.3
100
AcDbArc
 50
130.8069228753
 51
49.1930771247
  0
ARC
  5
672
100
AcDbEntity
  8
7_ALL_FEATURES
100
AcDbCircle
 62
7
  6
CONTINUOUS
 10
885.5672379032
 20
654.6381124426
 40
1.0
100
AcDbArc
 50
0.0
 51
90.0
  0
ARC
  5
673
100
AcDbEntity
  8
7_ALL_FEATURES
100
AcDbCircle
 62
7
  6
CONTINUOUS
 10
887.0672379032
 20
650.7381124426
 40
0.5
100
AcDbArc
 50
180.0
 51
270.0
  0
ARC
  5
674
100
AcDbEntity
  8
7_ALL_FEATURES
100
AcDbCircle
 62
7
  6
CONTINUOUS
 10
903.0593540708
 20
650.7381124426
 40
0.5
100
AcDbArc
 50
270.0
 51
30.000000002
  0
ARC
  5
675
100
AcDbEntity
  8
7_ALL_FEATURES
100
AcDbCircle
 62
7
  6
CONTINUOUS
 10
908.7751217357
 20
650.7381124426
 40
0.5
100
AcDbArc
 50
149.999999998
 51
270.0
  0
ARC
  5
676
100
AcDbEntity
  8
7_ALL_FEATURES
100
AcDbCircle
 62
7
  6
CONTINUOUS
 10
909.5550697103
 20
648.1381124426
 40
0.5
100
AcDbArc
 50
11.0
 51
90.0
  0
ARC
  5
677
100
AcDbEntity
  8
7_ALL_FEATURES
100
AcDbCircle
 62
7
  6
CONTINUOUS
 10
908.5416425977
 20
654.0381124426
 40
0.3
100
AcDbArc
 50
90.0
 51
212.158150485
  0
ARC
  5
678
100
AcDbEntity
  8
7_ALL_FEATURES
100
AcDbCircle
 62
7
  6
CONTINUOUS
 10
884.3672379032
 20
653.7381124426
 40
0.3
100
AcDbArc
 50
0.0
 51
90.0
  0
ARC
  5
679
100
AcDbEntity
  8
7_ALL_FEATURES
100
AcDbCircle
 62
7
  6
CONTINUOUS
 10
884.9672379032
 20
648.9381124426
 40
0.3
100
AcDbArc
 50
180.0
 51
270.0
  0
ARC
  5
67A
100
AcDbEntity
  8
7_ALL_FEATURES
100
AcDbCircle
 62
7
  6
CONTINUOUS
 10
903.4172379032
 20
655.3381124426
 40
0.3
100
AcDbArc
 50
90.0
 51
180.0
  0
ARC
  5
67B
100
AcDbEntity
  8
7_ALL_FEATURES
100
AcDbCircle
 62
7
  6
CONTINUOUS
 10
903.8676444476
 20
655.3381124426
 40
0.3
100
AcDbArc
 50
30.0000000014
 51
90.0
  0
ARC
  5
67C
100
AcDbEntity
  8
7_ALL_FEATURES
100
AcDbCircle
 62
7
  6
CONTINUOUS
 10
904.8716185998
 20
653.5991782016
 40
0.3
100
AcDbArc
 50
310.8069228753
 51
30.0000000014
  0
ARC
  5
67D
100
AcDbEntity
  8
7_ALL_FEATURES
100
AcDbCircle
 62
7
  6
CONTINUOUS
 10
906.9628572066
 20
653.5991782016
 40
0.3
100
AcDbArc
 50
149.9999999986
 51
229.1930771247
  0
ARC
  5
67E
100
AcDbEntity
  8
7_ALL_FEATURES
100
AcDbCircle
 62
7
  6
CONTINUOUS
 10
907.9668313589
 20
655.3381124426
 40
0.3
100
AcDbArc
 50
90.0
 51
149.9999999986
  0
ARC
  5
67F
100
AcDbEntity
  8
7_ALL_FEATURES
100
AcDbCircle
 62
7
  6
CONTINUOUS
 10
909.9172379032
 20
655.3381124426
 40
0.3
100
AcDbArc
 50
0.0
 51
90.0
  0
ARC
  5
680
100
AcDbEntity
  8
7_ALL_FEATURES
100
AcDbCircle
 62
7
  6
CONTINUOUS
 10
909.9172379032
 20
654.6381124426
 40
0.3
100
AcDbArc
 50
270.0
 51
360.0
  0
ARC
  5
681
100
AcDbEntity
  8
3_ALL_AXES
100
AcDbCircle
 62
7
  6
CONTINUOUS
 10
916.0172379032
 20
581.4581124426
 40
1.8
100
AcDbArc
 50
122.8598803789
 51
180.0
  0
ARC
  5
682
100
AcDbEntity
  8
7_ALL_FEATURES
100
AcDbCircle
 62
7
  6
CONTINUOUS
 10
916.4172379032
 20
583.6381124426
 40
1.5
100
AcDbArc
 50
0.0
 51
43.0
  0
ARC
  5
683
100
AcDbEntity
  8
3_ALL_AXES
100
AcDbCircle
 62
7
  6
CONTINUOUS
 10
914.9320651059
 20
583.1381124426
 40
1.0
100
AcDbArc
 50
302.8598803789
 51
43.0
  0
ARC
  5
684
100
AcDbEntity
  8
3_ALL_AXES
100
AcDbCircle
 62
7
  6
CONTINUOUS
 10
916.0172379032
 20
581.4581124426
 40
1.0
100
AcDbArc
 50
122.8598803789
 51
180.0
  0
ARC
  5
685
100
AcDbEntity
  8
3_ALL_AXES
100
AcDbCircle
 62
7
  6
CONTINUOUS
 10
915.0064495137
 20
583.9381124426
 40
0.4
100
AcDbArc
 50
43.0
 51
223.0
  0
ARC
  5
686
100
AcDbEntity
  8
7_ALL_FEATURES
100
AcDbCircle
 62
7
  6
CONTINUOUS
 10
913.5172379032
 20
587.1623765114
 40
0.3
100
AcDbArc
 50
315.0
 51
360.0
  0
ARC
  5
687
100
AcDbEntity
  8
7_ALL_FEATURES
100
AcDbCircle
 62
7
  6
CONTINUOUS
 10
915.7172379032
 20
587.0280730738
 40
0.3
100
AcDbArc
 50
180.0
 51
223.0
  0
ARC
  5
688
100
AcDbEntity
  8
7_ALL_FEATURES
100
AcDbCircle
 62
7
  6
CONTINUOUS
 10
914.8880215615
 20
584.8381124426
 40
0.3
100
AcDbArc
 50
43.0
 51
90.0
  0
ARC
  5
689
100
AcDbEntity
  8
7_ALL_FEATURES
100
AcDbCircle
 62
7
  6
CONTINUOUS
 10
916.1172379032
 20
582.4381124426
 40
0.3
100
AcDbArc
 50
270.0
 51
360.0
  0
ARC
  5
68A
100
AcDbEntity
  8
7_ALL_FEATURES
100
AcDbCircle
 62
7
  6
CONTINUOUS
 10
916.1172379032
 20
583.5199393
 40
0.3
100
AcDbArc
 50
0.0
 51
43.0
  0
ARC
  5
68B
100
AcDbEntity
  8
7_ALL_FEATURES
100
AcDbCircle
 62
7
  6
CONTINUOUS
 10
913.8172379032
 20
586.6138483739
 40
0.3
100
AcDbArc
 50
135.0
 51
180.0
  0
ARC
  5
68C
100
AcDbEntity
  8
7_ALL_FEATURES
100
AcDbCircle
 62
7
  6
CONTINUOUS
 10
913.8172379032
 20
585.4381124426
 40
0.3
100
AcDbArc
 50
180.0
 51
270.0
  0
ARC
  5
68D
100
AcDbEntity
  8
7_ALL_FEATURES
100
AcDbCircle
 62
7
  6
CONTINUOUS
 10
915.4804234468
 20
581.8381124426
 40
0.3
100
AcDbArc
 50
90.0
 51
152.0
  0
ARC
  5
68E
100
AcDbEntity
  8
7_ALL_FEATURES
100
AcDbCircle
 62
7
  6
CONTINUOUS
 10
915.4672379032
 20
581.8133140418
 40
0.3
100
AcDbArc
 50
152.0
 51
180.0
  0
ARC
  5
68F
100
AcDbEntity
  8
3_ALL_AXES
100
AcDbCircle
 62
7
  6
CONTINUOUS
 10
914.9320651059
 20
583.1381124426
 40
0.2
100
AcDbArc
 50
302.8598803789
 51
43.0
  0
ARC
  5
690
100
AcDbEntity
  8
7_ALL_FEATURES
100
AcDbCircle
 62
7
  6
CONTINUOUS
 10
916.0672379032
 20
580.4381124426
 40
0.2
100
AcDbArc
 50
0.0
 51
90.0
  0
ARC
  5
691
100
AcDbEntity
  8
7_ALL_FEATURES
100
AcDbCircle
 62
7
  6
CONTINUOUS
 10
916.0672379032
 20
579.8381124426
 40
0.2
100
AcDbArc
 50
270.0
 51
360.0
  0
ARC
  5
692
100
AcDbEntity
  8
7_ALL_FEATURES
100
AcDbCircle
 62
7
  6
CONTINUOUS
 10
914.0172379032
 20
581.3381124426
 40
0.2
100
AcDbArc
 50
270.0
 51
360.0
  0
ARC
  5
693
100
AcDbEntity
  8
7_ALL_FEATURES
100
AcDbCircle
 62
7
  6
CONTINUOUS
 10
915.2172379032
 20
580.8381124426
 40
0.2
100
AcDbArc
 50
180.0
 51
270.0
  0
ARC
  5
694
100
AcDbEntity
  8
7_ALL_FEATURES
100
AcDbCircle
 62
7
  6
CONTINUOUS
 10
917.8172379032
 20
580.9381124426
 40
0.2
100
AcDbArc
 50
90.0
 51
180.0
  0
ARC
  5
695
100
AcDbEntity
  8
7_ALL_FEATURES
100
AcDbCircle
 62
7
  6
CONTINUOUS
 10
916.2172379032
 20
580.4381124426
 40
0.2
100
AcDbArc
 50
0.0
 51
90.0
  0
ARC
  5
696
100
AcDbEntity
  8
7_ALL_FEATURES
100
AcDbCircle
 62
7
  6
CONTINUOUS
 10
915.3672379032
 20
580.8381124426
 40
0.2
100
AcDbArc
 50
180.0
 51
270.0
  0
ARC
  5
697
100
AcDbEntity
  8
7_ALL_FEATURES
100
AcDbCircle
 62
7
  6
CONTINUOUS
 10
916.6172379032
 20
579.8381124426
 40
0.2
100
AcDbArc
 50
180.0
 51
270.0
  0
ARC
  5
698
100
AcDbEntity
  8
7_ALL_FEATURES
100
AcDbCircle
 62
7
  6
CONTINUOUS
 10
917.4172379032
 20
579.8381124426
 40
0.2
100
AcDbArc
 50
270.0
 51
360.0
  0
ARC
  5
699
100
AcDbEntity
  8
7_ALL_FEATURES
100
AcDbCircle
 62
7
  6
CONTINUOUS
 10
916.5172379032
 20
590.2381124426
 40
1.5
100
AcDbArc
 50
270.0
 51
360.0
  0
ARC
  5
69A
100
AcDbEntity
  8
7_ALL_FEATURES
100
AcDbCircle
 62
7
  6
CONTINUOUS
 10
916.5172379032
 20
593.0381124426
 40
1.5
100
AcDbArc
 50
0.0
 51
90.0
  0
ARC
  5
69B
100
AcDbEntity
  8
7_ALL_FEATURES
100
AcDbCircle
 62
7
  6
CONTINUOUS
 10
915.0672379032
 20
591.6381124426
 40
1.3
100
AcDbArc
 50
220.8069228749
 51
139.1930771251
  0
ARC
  5
69C
100
AcDbEntity
  8
7_ALL_FEATURES
100
AcDbCircle
 62
7
  6
CONTINUOUS
 10
913.5172379032
 20
588.7138483739
 40
0.3
100
AcDbArc
 50
0.0
 51
45.0
  0
ARC
  5
69D
100
AcDbEntity
  8
7_ALL_FEATURES
100
AcDbCircle
 62
7
  6
CONTINUOUS
 10
915.4172379032
 20
594.8381124426
 40
0.3
100
AcDbArc
 50
180.0
 51
270.0
  0
ARC
  5
69E
100
AcDbEntity
  8
7_ALL_FEATURES
100
AcDbCircle
 62
7
  6
CONTINUOUS
 10
915.7172379032
 20
588.4381124426
 40
0.3
100
AcDbArc
 50
90.0
 51
180.0
  0
ARC
  5
69F
100
AcDbEntity
  8
7_ALL_FEATURES
100
AcDbCircle
 62
7
  6
CONTINUOUS
 10
913.8172379032
 20
589.2623765114
 40
0.3
100
AcDbArc
 50
180.0
 51
225.0
  0
ARC
  5
6A0
100
AcDbEntity
  8
7_ALL_FEATURES
100
AcDbCircle
 62
7
  6
CONTINUOUS
 10
913.8172379032
 20
590.5700144446
 40
0.3
100
AcDbArc
 50
120.0
 51
180.0
  0
ARC
  5
6A1
100
AcDbEntity
  8
7_ALL_FEATURES
100
AcDbCircle
 62
7
  6
CONTINUOUS
 10
913.8561721443
 20
590.5924931392
 40
0.3
100
AcDbArc
 50
40.8069228749
 51
120.0
  0
ARC
  5
6A2
100
AcDbEntity
  8
7_ALL_FEATURES
100
AcDbCircle
 62
7
  6
CONTINUOUS
 10
913.8561721443
 20
592.6837317461
 40
0.3
100
AcDbArc
 50
240.0
 51
319.1930771251
  0
ARC
  5
6A3
100
AcDbEntity
  8
7_ALL_FEATURES
100
AcDbCircle
 62
7
  6
CONTINUOUS
 10
913.8172379032
 20
592.7062104406
 40
0.3
100
AcDbArc
 50
180.0
 51
240.0
  0
ARC
  5
6A4
100
AcDbEntity
  8
3_ALL_AXES
100
AcDbCircle
 62
7
  6
CONTINUOUS
 10
920.4172379032
 20
580.7381124426
 40
0.5
100
AcDbArc
 50
53.1301023541
 51
126.8698976458
  0
ARC
  5
6A5
100
AcDbEntity
  8
3_ALL_AXES
100
AcDbCircle
 62
7
  6
CONTINUOUS
 10
923.4172379032
 20
580.7381124426
 40
0.5
100
AcDbArc
 50
53.1301023541
 51
126.8698976458
  0
ARC
  5
6A6
100
AcDbEntity
  8
6_ALL_SURFS
100
AcDbCircle
 62
7
  6
CONTINUOUS
 10
931.9172379032
 20
564.1381124426
 40
4.7990381057
100
AcDbArc
 50
43.171184019
 51
80.4039906056
  0
ARC
  5
6A7
100
AcDbEntity
  8
6_ALL_SURFS
100
AcDbCircle
 62
7
  6
CONTINUOUS
 10
931.9172379032
 20
564.1381124426
 40
4.7990381057
100
AcDbArc
 50
279.5960093944
 51
316.828815981
  0
ARC
  5
6A8
100
AcDbEntity
  8
6_ALL_SURFS
100
AcDbCircle
 62
7
  6
CONTINUOUS
 10
931.9172379032
 20
564.1381124426
 40
4.7990381057
100
AcDbArc
 50
87.6115056179
 51
117.2855350899
  0
ARC
  5
6A9
100
AcDbEntity
  8
6_ALL_SURFS
100
AcDbCircle
 62
7
  6
CONTINUOUS
 10
931.9172379032
 20
564.1381124426
 40
4.7990381057
100
AcDbArc
 50
242.7144649101
 51
272.3884943821
  0
ARC
  5
6AA
100
AcDbEntity
  8
6_ALL_SURFS
100
AcDbCircle
 62
7
  6
CONTINUOUS
 10
931.9172379032
 20
564.1381124426
 40
4.7990381057
100
AcDbArc
 50
125.6935828234
 51
234.3064171766
  0
CIRCLE
  5
6AB
100
AcDbEntity
  8
6_ALL_SURFS
100
AcDbCircle
 62
7
  6
CONTINUOUS
 10
931.9172379032
 20
564.1381124426
 40
3.5
  0
ARC
  5
6AC
100
AcDbEntity
  8
3_ALL_AXES
100
AcDbCircle
 62
7
  6
CONTINUOUS
 10
926.4172379032
 20
580.7381124426
 40
0.5
100
AcDbArc
 50
53.1301023541
 51
126.8698976458
  0
ARC
  5
6AD
100
AcDbEntity
  8
3_ALL_AXES
100
AcDbCircle
 62
7
  6
CONTINUOUS
 10
929.4172379032
 20
580.7381124426
 40
0.5
100
AcDbArc
 50
53.1301023541
 51
126.8698976458
  0
ARC
  5
6AE
100
AcDbEntity
  8
3_ALL_AXES
100
AcDbCircle
 62
7
  6
CONTINUOUS
 10
932.4172379032
 20
580.7381124426
 40
0.5
100
AcDbArc
 50
53.1301023541
 51
126.8698976458
  0
ARC
  5
6AF
100
AcDbEntity
  8
7_ALL_FEATURES
100
AcDbCircle
 62
7
  6
CONTINUOUS
 10
937.5235345453
 20
581.7444090847
 40
0.3937033579
100
AcDbArc
 50
275.7105931375
 51
90.0
  0
ARC
  5
6B0
100
AcDbEntity
  8
7_ALL_FEATURES
100
AcDbCircle
 62
7
  6
CONTINUOUS
 10
913.1738598649
 20
630.5692196326
 40
0.3
100
AcDbArc
 50
290.0
 51
11.0
  0
ARC
  5
6B1
100
AcDbEntity
  8
7_ALL_FEATURES
100
AcDbCircle
 62
7
  6
CONTINUOUS
 10
913.2172379032
 20
627.9884618514
 40
0.3
100
AcDbArc
 50
0.0
 51
20.0
  0
ARC
  5
6B2
100
AcDbEntity
  8
7_ALL_FEATURES
100
AcDbCircle
 62
7
  6
CONTINUOUS
 10
913.1517517325
 20
629.922666267
 40
0.3
100
AcDbArc
 50
110.0
 51
200.0
  0
ARC
  5
6B3
100
AcDbEntity
  8
6_ALL_SURFS
100
AcDbCircle
 62
7
  6
CONTINUOUS
 10
346.0737798943
 20
718.4991155537
 40
4.7990381057
100
AcDbArc
 50
313.171184019
 51
350.4039906056
  0
ARC
  5
6B4
100
AcDbEntity
  8
6_ALL_SURFS
100
AcDbCircle
 62
7
  6
CONTINUOUS
 10
96.0737798943
 20
718.4991155537
 40
4.7990381057
100
AcDbArc
 50
313.171184019
 51
350.4039906056
  0
ARC
  5
6B5
100
AcDbEntity
  8
6_ALL_SURFS
100
AcDbCircle
 62
7
  6
CONTINUOUS
 10
346.0737798943
 20
718.4991155537
 40
4.7990381057
100
AcDbArc
 50
189.5960093944
 51
226.828815981
  0
ARC
  5
6B6
100
AcDbEntity
  8
6_ALL_SURFS
100
AcDbCircle
 62
7
  6
CONTINUOUS
 10
96.0737798943
 20
718.4991155537
 40
4.7990381057
100
AcDbArc
 50
189.5960093944
 51
226.828815981
  0
ARC
  5
6B7
100
AcDbEntity
  8
6_ALL_SURFS
100
AcDbCircle
 62
7
  6
CONTINUOUS
 10
346.0737798943
 20
718.4991155537
 40
4.7990381057
100
AcDbArc
 50
357.6115056179
 51
27.2855350899
  0
ARC
  5
6B8
100
AcDbEntity
  8
6_ALL_SURFS
100
AcDbCircle
 62
7
  6
CONTINUOUS
 10
96.0737798943
 20
718.4991155537
 40
4.7990381057
100
AcDbArc
 50
357.6115056179
 51
27.2855350899
  0
ARC
  5
6B9
100
AcDbEntity
  8
6_ALL_SURFS
100
AcDbCircle
 62
7
  6
CONTINUOUS
 10
346.0737798943
 20
718.4991155537
 40
4.7990381057
100
AcDbArc
 50
152.7144649101
 51
182.3884943821
  0
ARC
  5
6BA
100
AcDbEntity
  8
6_ALL_SURFS
100
AcDbCircle
 62
7
  6
CONTINUOUS
 10
96.0737798943
 20
718.4991155537
 40
4.7990381057
100
AcDbArc
 50
152.7144649101
 51
182.3884943821
  0
ARC
  5
6BB
100
AcDbEntity
  8
6_ALL_SURFS
100
AcDbCircle
 62
7
  6
CONTINUOUS
 10
96.0737798943
 20
718.4991155537
 40
4.7990381057
100
AcDbArc
 50
35.6935828234
 51
144.3064171766
  0
ARC
  5
6BC
100
AcDbEntity
  8
6_ALL_SURFS
100
AcDbCircle
 62
7
  6
CONTINUOUS
 10
346.0737798943
 20
718.4991155537
 40
4.7990381057
100
AcDbArc
 50
35.6935828234
 51
144.3064171766
  0
CIRCLE
  5
6BD
100
AcDbEntity
  8
6_ALL_SURFS
100
AcDbCircle
 62
7
  6
CONTINUOUS
 10
346.0737798943
 20
718.4991155537
 40
3.5
  0
CIRCLE
  5
6BE
100
AcDbEntity
  8
6_ALL_SURFS
100
AcDbCircle
 62
7
  6
CONTINUOUS
 10
96.0737798943
 20
718.4991155537
 40
3.5
  0
ARC
  5
6BF
100
AcDbEntity
  8
7_ALL_FEATURES
100
AcDbCircle
 62
7
  6
CONTINUOUS
 10
96.0737798943
 20
816.3991155537
 40
4.7990381057
100
AcDbArc
 50
215.6935828234
 51
324.3064171766
  0
ARC
  5
6C0
100
AcDbEntity
  8
7_ALL_FEATURES
100
AcDbCircle
 62
7
  6
CONTINUOUS
 10
346.0737798943
 20
816.3991155537
 40
4.7990381057
100
AcDbArc
 50
215.6935828234
 51
324.3064171766
  0
ARC
  5
6C1
100
AcDbEntity
  8
7_ALL_FEATURES
100
AcDbCircle
 62
7
  6
CONTINUOUS
 10
96.0737798943
 20
816.3991155537
 40
4.7990381057
100
AcDbArc
 50
177.6115056179
 51
207.2855350899
  0
ARC
  5
6C2
100
AcDbEntity
  8
7_ALL_FEATURES
100
AcDbCircle
 62
7
  6
CONTINUOUS
 10
346.0737798943
 20
816.3991155537
 40
4.7990381057
100
AcDbArc
 50
177.6115056179
 51
207.2855350899
  0
ARC
  5
6C3
100
AcDbEntity
  8
7_ALL_FEATURES
100
AcDbCircle
 62
7
  6
CONTINUOUS
 10
96.0737798943
 20
816.3991155537
 40
4.7990381057
100
AcDbArc
 50
332.7144649101
 51
2.3884943821
  0
ARC
  5
6C4
100
AcDbEntity
  8
7_ALL_FEATURES
100
AcDbCircle
 62
7
  6
CONTINUOUS
 10
346.0737798943
 20
816.3991155537
 40
4.7990381057
100
AcDbArc
 50
332.7144649101
 51
2.3884943821
  0
ARC
  5
6C5
100
AcDbEntity
  8
7_ALL_FEATURES
100
AcDbCircle
 62
7
  6
CONTINUOUS
 10
96.0737798943
 20
816.3991155537
 40
4.7990381057
100
AcDbArc
 50
133.171184019
 51
170.4039906056
  0
ARC
  5
6C6
100
AcDbEntity
  8
7_ALL_FEATURES
100
AcDbCircle
 62
7
  6
CONTINUOUS
 10
346.0737798943
 20
816.3991155537
 40
4.7990381057
100
AcDbArc
 50
133.171184019
 51
170.4039906056
  0
ARC
  5
6C7
100
AcDbEntity
  8
7_ALL_FEATURES
100
AcDbCircle
 62
7
  6
CONTINUOUS
 10
96.0737798943
 20
816.3991155537
 40
4.7990381057
100
AcDbArc
 50
9.5960093944
 51
46.828815981
  0
ARC
  5
6C8
100
AcDbEntity
  8
7_ALL_FEATURES
100
AcDbCircle
 62
7
  6
CONTINUOUS
 10
346.0737798943
 20
816.3991155537
 40
4.7990381057
100
AcDbArc
 50
9.5960093944
 51
46.828815981
  0
CIRCLE
  5
6C9
100
AcDbEntity
  8
6_ALL_SURFS
100
AcDbCircle
 62
7
  6
CONTINUOUS
 10
346.0737798943
 20
816.3991155537
 40
3.5
  0
CIRCLE
  5
6CA
100
AcDbEntity
  8
6_ALL_SURFS
100
AcDbCircle
 62
7
  6
CONTINUOUS
 10
96.0737798943
 20
816.3991155537
 40
3.5
  0
ARC
  5
6CB
100
AcDbEntity
  8
6_ALL_SURFS
100
AcDbCircle
 62
7
  6
CONTINUOUS
 10
596.0737798943
 20
718.4991155537
 40
4.7990381057
100
AcDbArc
 50
313.171184019
 51
350.4039906056
  0
ARC
  5
6CC
100
AcDbEntity
  8
6_ALL_SURFS
100
AcDbCircle
 62
7
  6
CONTINUOUS
 10
596.0737798943
 20
718.4991155537
 40
4.7990381057
100
AcDbArc
 50
189.5960093944
 51
226.828815981
  0
ARC
  5
6CD
100
AcDbEntity
  8
6_ALL_SURFS
100
AcDbCircle
 62
7
  6
CONTINUOUS
 10
596.0737798943
 20
718.4991155537
 40
4.7990381057
100
AcDbArc
 50
357.6115056179
 51
27.2855350899
  0
ARC
  5
6CE
100
AcDbEntity
  8
6_ALL_SURFS
100
AcDbCircle
 62
7
  6
CONTINUOUS
 10
596.0737798943
 20
718.4991155537
 40
4.7990381057
100
AcDbArc
 50
152.7144649101
 51
182.3884943821
  0
ARC
  5
6CF
100
AcDbEntity
  8
6_ALL_SURFS
100
AcDbCircle
 62
7
  6
CONTINUOUS
 10
596.0737798943
 20
718.4991155537
 40
4.7990381057
100
AcDbArc
 50
35.6935828234
 51
144.3064171766
  0
CIRCLE
  5
6D0
100
AcDbEntity
  8
6_ALL_SURFS
100
AcDbCircle
 62
7
  6
CONTINUOUS
 10
596.0737798943
 20
718.4991155537
 40
3.5
  0
ARC
  5
6D1
100
AcDbEntity
  8
3_ALL_AXES
100
AcDbCircle
 62
7
  6
CONTINUOUS
 10
612.6737798943
 20
723.9991155537
 40
0.5
100
AcDbArc
 50
323.1301023542
 51
36.8698976459
  0
ARC
  5
6D2
100
AcDbEntity
  8
3_ALL_AXES
100
AcDbCircle
 62
7
  6
CONTINUOUS
 10
612.6737798943
 20
720.9991155537
 40
0.5
100
AcDbArc
 50
323.1301023541
 51
36.8698976458
  0
ARC
  5
6D3
100
AcDbEntity
  8
3_ALL_AXES
100
AcDbCircle
 62
7
  6
CONTINUOUS
 10
612.6737798943
 20
717.9991155537
 40
0.5
100
AcDbArc
 50
323.1301023541
 51
36.8698976458
  0
ARC
  5
6D4
100
AcDbEntity
  8
7_ALL_FEATURES
100
AcDbCircle
 62
7
  6
CONTINUOUS
 10
613.6800765364
 20
712.8928189117
 40
0.3937033579
100
AcDbArc
 50
185.7105931375
 51
360.0
  0
ARC
  5
6D5
100
AcDbEntity
  8
3_ALL_AXES
100
AcDbCircle
 62
7
  6
CONTINUOUS
 10
612.6737798943
 20
729.9991155537
 40
0.5
100
AcDbArc
 50
323.1301023542
 51
36.8698976459
  0
ARC
  5
6D6
100
AcDbEntity
  8
3_ALL_AXES
100
AcDbCircle
 62
7
  6
CONTINUOUS
 10
612.6737798943
 20
726.9991155537
 40
0.5
100
AcDbArc
 50
323.1301023542
 51
36.8698976459
  0
ARC
  5
6D7
100
AcDbEntity
  8
3_ALL_AXES
100
AcDbCircle
 62
7
  6
CONTINUOUS
 10
613.3937798943
 20
734.3991155537
 40
1.8
100
AcDbArc
 50
32.8598803789
 51
90.0
  0
ARC
  5
6D8
100
AcDbEntity
  8
7_ALL_FEATURES
100
AcDbCircle
 62
7
  6
CONTINUOUS
 10
615.5737798943
 20
733.9991155537
 40
1.5
100
AcDbArc
 50
270.0
 51
313.0
  0
ARC
  5
6D9
100
AcDbEntity
  8
3_ALL_AXES
100
AcDbCircle
 62
7
  6
CONTINUOUS
 10
615.0737798943
 20
735.484288351
 40
1.0
100
AcDbArc
 50
212.8598803789
 51
313.0
  0
ARC
  5
6DA
100
AcDbEntity
  8
3_ALL_AXES
100
AcDbCircle
 62
7
  6
CONTINUOUS
 10
613.3937798943
 20
734.3991155537
 40
1.0
100
AcDbArc
 50
32.8598803789
 51
90.0
  0
ARC
  5
6DB
100
AcDbEntity
  8
3_ALL_AXES
100
AcDbCircle
 62
7
  6
CONTINUOUS
 10
615.8737798943
 20
735.4099039433
 40
0.4
100
AcDbArc
 50
313.0
 51
133.0
  0
ARC
  5
6DC
100
AcDbEntity
  8
7_ALL_FEATURES
100
AcDbCircle
 62
7
  6
CONTINUOUS
 10
619.098043963
 20
736.8991155537
 40
0.3
100
AcDbArc
 50
225.0
 51
270.0
  0
ARC
  5
6DD
100
AcDbEntity
  8
7_ALL_FEATURES
100
AcDbCircle
 62
7
  6
CONTINUOUS
 10
618.9637405255
 20
734.6991155537
 40
0.3
100
AcDbArc
 50
90.0
 51
133.0
  0
ARC
  5
6DE
100
AcDbEntity
  8
7_ALL_FEATURES
100
AcDbCircle
 62
7
  6
CONTINUOUS
 10
616.7737798943
 20
735.5283318954
 40
0.3
100
AcDbArc
 50
313.0
 51
360.0
  0
ARC
  5
6DF
100
AcDbEntity
  8
7_ALL_FEATURES
100
AcDbCircle
 62
7
  6
CONTINUOUS
 10
614.3737798943
 20
734.2991155537
 40
0.3
100
AcDbArc
 50
180.0
 51
270.0
  0
ARC
  5
6E0
100
AcDbEntity
  8
7_ALL_FEATURES
100
AcDbCircle
 62
7
  6
CONTINUOUS
 10
615.4556067516
 20
734.2991155537
 40
0.3
100
AcDbArc
 50
270.0
 51
313.0
  0
ARC
  5
6E1
100
AcDbEntity
  8
7_ALL_FEATURES
100
AcDbCircle
 62
7
  6
CONTINUOUS
 10
618.5495158256
 20
736.5991155537
 40
0.3
100
AcDbArc
 50
45.0
 51
90.0
  0
ARC
  5
6E2
100
AcDbEntity
  8
7_ALL_FEATURES
100
AcDbCircle
 62
7
  6
CONTINUOUS
 10
617.3737798943
 20
736.5991155537
 40
0.3
100
AcDbArc
 50
90.0
 51
180.0
  0
ARC
  5
6E3
100
AcDbEntity
  8
7_ALL_FEATURES
100
AcDbCircle
 62
7
  6
CONTINUOUS
 10
613.7737798943
 20
734.9359300101
 40
0.3
100
AcDbArc
 50
0.0
 51
62.0
  0
ARC
  5
6E4
100
AcDbEntity
  8
7_ALL_FEATURES
100
AcDbCircle
 62
7
  6
CONTINUOUS
 10
613.7489814935
 20
734.9491155537
 40
0.3
100
AcDbArc
 50
62.0
 51
90.0
  0
ARC
  5
6E5
100
AcDbEntity
  8
3_ALL_AXES
100
AcDbCircle
 62
7
  6
CONTINUOUS
 10
615.0737798943
 20
735.484288351
 40
0.2
100
AcDbArc
 50
212.8598803789
 51
313.0
  0
ARC
  5
6E6
100
AcDbEntity
  8
7_ALL_FEATURES
100
AcDbCircle
 62
7
  6
CONTINUOUS
 10
612.3737798943
 20
734.3491155537
 40
0.2
100
AcDbArc
 50
270.0
 51
360.0
  0
ARC
  5
6E7
100
AcDbEntity
  8
7_ALL_FEATURES
100
AcDbCircle
 62
7
  6
CONTINUOUS
 10
611.7737798943
 20
734.3491155537
 40
0.2
100
AcDbArc
 50
180.0
 51
270.0
  0
ARC
  5
6E8
100
AcDbEntity
  8
7_ALL_FEATURES
100
AcDbCircle
 62
7
  6
CONTINUOUS
 10
613.2737798943
 20
736.3991155537
 40
0.2
100
AcDbArc
 50
180.0
 51
270.0
  0
ARC
  5
6E9
100
AcDbEntity
  8
7_ALL_FEATURES
100
AcDbCircle
 62
7
  6
CONTINUOUS
 10
612.7737798943
 20
735.1991155537
 40
0.2
100
AcDbArc
 50
90.0
 51
180.0
  0
ARC
  5
6EA
100
AcDbEntity
  8
7_ALL_FEATURES
100
AcDbCircle
 62
7
  6
CONTINUOUS
 10
612.8737798943
 20
732.5991155537
 40
0.2
100
AcDbArc
 50
0.0
 51
90.0
  0
ARC
  5
6EB
100
AcDbEntity
  8
7_ALL_FEATURES
100
AcDbCircle
 62
7
  6
CONTINUOUS
 10
612.3737798943
 20
734.1991155537
 40
0.2
100
AcDbArc
 50
270.0
 51
360.0
  0
ARC
  5
6EC
100
AcDbEntity
  8
7_ALL_FEATURES
100
AcDbCircle
 62
7
  6
CONTINUOUS
 10
612.7737798943
 20
735.0491155537
 40
0.2
100
AcDbArc
 50
90.0
 51
180.0
  0
ARC
  5
6ED
100
AcDbEntity
  8
7_ALL_FEATURES
100
AcDbCircle
 62
7
  6
CONTINUOUS
 10
611.7737798943
 20
733.7991155537
 40
0.2
100
AcDbArc
 50
90.0
 51
180.0
  0
ARC
  5
6EE
100
AcDbEntity
  8
7_ALL_FEATURES
100
AcDbCircle
 62
7
  6
CONTINUOUS
 10
611.7737798943
 20
732.9991155537
 40
0.2
100
AcDbArc
 50
180.0
 51
270.0
  0
ARC
  5
6EF
100
AcDbEntity
  8
7_ALL_FEATURES
100
AcDbCircle
 62
7
  6
CONTINUOUS
 10
622.1737798943
 20
733.8991155537
 40
1.5
100
AcDbArc
 50
180.0
 51
270.0
  0
ARC
  5
6F0
100
AcDbEntity
  8
7_ALL_FEATURES
100
AcDbCircle
 62
7
  6
CONTINUOUS
 10
624.9737798943
 20
733.8991155537
 40
1.5
100
AcDbArc
 50
270.0
 51
360.0
  0
ARC
  5
6F1
100
AcDbEntity
  8
7_ALL_FEATURES
100
AcDbCircle
 62
7
  6
CONTINUOUS
 10
623.5737798943
 20
735.3491155537
 40
1.3
100
AcDbArc
 50
130.8069228749
 51
49.1930771251
  0
ARC
  5
6F2
100
AcDbEntity
  8
7_ALL_FEATURES
100
AcDbCircle
 62
7
  6
CONTINUOUS
 10
620.6495158256
 20
736.8991155537
 40
0.3
100
AcDbArc
 50
270.0
 51
315.0
  0
ARC
  5
6F3
100
AcDbEntity
  8
7_ALL_FEATURES
100
AcDbCircle
 62
7
  6
CONTINUOUS
 10
626.7737798943
 20
734.9991155537
 40
0.3
100
AcDbArc
 50
90.0
 51
180.0
  0
ARC
  5
6F4
100
AcDbEntity
  8
7_ALL_FEATURES
100
AcDbCircle
 62
7
  6
CONTINUOUS
 10
620.3737798943
 20
734.6991155537
 40
0.3
100
AcDbArc
 50
0.0
 51
90.0
  0
ARC
  5
6F5
100
AcDbEntity
  8
7_ALL_FEATURES
100
AcDbCircle
 62
7
  6
CONTINUOUS
 10
621.198043963
 20
736.5991155537
 40
0.3
100
AcDbArc
 50
90.0
 51
135.0
  0
ARC
  5
6F6
100
AcDbEntity
  8
7_ALL_FEATURES
100
AcDbCircle
 62
7
  6
CONTINUOUS
 10
622.5056818963
 20
736.5991155537
 40
0.3
100
AcDbArc
 50
30.0
 51
90.0
  0
ARC
  5
6F7
100
AcDbEntity
  8
7_ALL_FEATURES
100
AcDbCircle
 62
7
  6
CONTINUOUS
 10
622.5281605909
 20
736.5601813126
 40
0.3
100
AcDbArc
 50
310.8069228749
 51
30.0
  0
ARC
  5
6F8
100
AcDbEntity
  8
7_ALL_FEATURES
100
AcDbCircle
 62
7
  6
CONTINUOUS
 10
624.6193991977
 20
736.5601813126
 40
0.3
100
AcDbArc
 50
150.0
 51
229.1930771251
  0
ARC
  5
6F9
100
AcDbEntity
  8
7_ALL_FEATURES
100
AcDbCircle
 62
7
  6
CONTINUOUS
 10
624.6418778923
 20
736.5991155537
 40
0.3
100
AcDbArc
 50
90.0
 51
150.0
  0
ARC
  5
6FA
100
AcDbEntity
  8
7_ALL_FEATURES
100
AcDbCircle
 62
7
  6
CONTINUOUS
 10
662.5048870843
 20
737.242493592
 40
0.3
100
AcDbArc
 50
200.0
 51
281.0
  0
ARC
  5
6FB
100
AcDbEntity
  8
7_ALL_FEATURES
100
AcDbCircle
 62
7
  6
CONTINUOUS
 10
659.9241293031
 20
737.1991155537
 40
0.3
100
AcDbArc
 50
270.0
 51
290.0
  0
ARC
  5
6FC
100
AcDbEntity
  8
7_ALL_FEATURES
100
AcDbCircle
 62
7
  6
CONTINUOUS
 10
661.8583337187
 20
737.2646017245
 40
0.3
100
AcDbArc
 50
20.0
 51
110.0
  0
ARC
  5
6FD
100
AcDbEntity
  8
7_ALL_FEATURES
100
AcDbCircle
 62
7
  6
CONTINUOUS
 10
661.996165279
 20
740.2991155537
 40
5.0
100
AcDbArc
 50
270.0
 51
281.007742346
  0
ARC
  5
6FE
100
AcDbEntity
  8
7_ALL_FEATURES
100
AcDbCircle
 62
7
  6
CONTINUOUS
 10
684.3237798944
 20
744.4991155537
 40
2.8
100
AcDbArc
 50
90.0
 51
120.000000002
  0
ARC
  5
6FF
100
AcDbEntity
  8
7_ALL_FEATURES
100
AcDbCircle
 62
7
  6
CONTINUOUS
 10
684.3237798944
 20
744.4991155537
 40
2.8
100
AcDbArc
 50
239.999999998
 51
302.158150485
  0
ARC
  5
700
100
AcDbEntity
  8
7_ALL_FEATURES
100
AcDbCircle
 62
7
  6
CONTINUOUS
 10
680.6737798943
 20
740.3666932622
 40
1.5
100
AcDbArc
 50
281.007742346
 51
360.0
  0
ARC
  5
701
100
AcDbEntity
  8
7_ALL_FEATURES
100
AcDbCircle
 62
7
  6
CONTINUOUS
 10
684.3237798944
 20
744.4991155537
 40
1.3
100
AcDbArc
 50
40.8069228753
 51
319.1930771247
  0
ARC
  5
702
100
AcDbEntity
  8
7_ALL_FEATURES
100
AcDbCircle
 62
7
  6
CONTINUOUS
 10
686.5737798943
 20
764.8491155537
 40
1.0
100
AcDbArc
 50
270.0
 51
360.0
  0
ARC
  5
703
100
AcDbEntity
  8
7_ALL_FEATURES
100
AcDbCircle
 62
7
  6
CONTINUOUS
 10
682.6737798943
 20
763.3491155537
 40
0.5
100
AcDbArc
 50
90.0
 51
180.0
  0
ARC
  5
704
100
AcDbEntity
  8
7_ALL_FEATURES
100
AcDbCircle
 62
7
  6
CONTINUOUS
 10
682.6737798943
 20
747.3569993862
 40
0.5
100
AcDbArc
 50
180.0
 51
300.000000002
  0
ARC
  5
705
100
AcDbEntity
  8
7_ALL_FEATURES
100
AcDbCircle
 62
7
  6
CONTINUOUS
 10
682.6737798943
 20
741.6412317213
 40
0.5
100
AcDbArc
 50
59.999999998
 51
180.0
  0
ARC
  5
706
100
AcDbEntity
  8
7_ALL_FEATURES
100
AcDbCircle
 62
7
  6
CONTINUOUS
 10
680.0737798943
 20
740.8612837466
 40
0.5
100
AcDbArc
 50
281.0
 51
360.0
  0
ARC
  5
707
100
AcDbEntity
  8
7_ALL_FEATURES
100
AcDbCircle
 62
7
  6
CONTINUOUS
 10
685.9737798943
 20
741.8747108593
 40
0.3
100
AcDbArc
 50
0.0
 51
122.158150485
  0
ARC
  5
708
100
AcDbEntity
  8
7_ALL_FEATURES
100
AcDbCircle
 62
7
  6
CONTINUOUS
 10
685.6737798943
 20
766.0491155537
 40
0.3
100
AcDbArc
 50
270.0
 51
360.0
  0
ARC
  5
709
100
AcDbEntity
  8
7_ALL_FEATURES
100
AcDbCircle
 62
7
  6
CONTINUOUS
 10
680.8737798943
 20
765.4491155537
 40
0.3
100
AcDbArc
 50
90.0
 51
180.0
  0
ARC
  5
70A
100
AcDbEntity
  8
7_ALL_FEATURES
100
AcDbCircle
 62
7
  6
CONTINUOUS
 10
687.2737798943
 20
746.9991155537
 40
0.3
100
AcDbArc
 50
0.0
 51
90.0
  0
ARC
  5
70B
100
AcDbEntity
  8
7_ALL_FEATURES
100
AcDbCircle
 62
7
  6
CONTINUOUS
 10
687.2737798943
 20
746.5487090094
 40
0.3
100
AcDbArc
 50
300.0000000014
 51
360.0
  0
ARC
  5
70C
100
AcDbEntity
  8
7_ALL_FEATURES
100
AcDbCircle
 62
7
  6
CONTINUOUS
 10
685.5348456533
 20
745.5447348572
 40
0.3
100
AcDbArc
 50
220.8069228753
 51
300.0000000014
  0
ARC
  5
70D
100
AcDbEntity
  8
7_ALL_FEATURES
100
AcDbCircle
 62
7
  6
CONTINUOUS
 10
685.5348456533
 20
743.4534962503
 40
0.3
100
AcDbArc
 50
59.9999999986
 51
139.1930771247
  0
ARC
  5
70E
100
AcDbEntity
  8
7_ALL_FEATURES
100
AcDbCircle
 62
7
  6
CONTINUOUS
 10
687.2737798943
 20
742.4495220981
 40
0.3
100
AcDbArc
 50
0.0
 51
59.9999999986
  0
ARC
  5
70F
100
AcDbEntity
  8
7_ALL_FEATURES
100
AcDbCircle
 62
7
  6
CONTINUOUS
 10
687.2737798943
 20
740.4991155537
 40
0.3
100
AcDbArc
 50
270.0
 51
360.0
  0
ARC
  5
710
100
AcDbEntity
  8
7_ALL_FEATURES
100
AcDbCircle
 62
7
  6
CONTINUOUS
 10
686.5737798943
 20
740.4991155537
 40
0.3
100
AcDbArc
 50
180.0
 51
270.0
  0
ARC
  5
711
100
AcDbEntity
  8
7_ALL_FEATURES
100
AcDbCircle
 62
7
  6
CONTINUOUS
 10
596.0737798943
 20
816.3991155537
 40
4.7990381057
100
AcDbArc
 50
215.6935828234
 51
324.3064171766
  0
ARC
  5
712
100
AcDbEntity
  8
7_ALL_FEATURES
100
AcDbCircle
 62
7
  6
CONTINUOUS
 10
596.0737798943
 20
816.3991155537
 40
4.7990381057
100
AcDbArc
 50
177.6115056179
 51
207.2855350899
  0
ARC
  5
713
100
AcDbEntity
  8
7_ALL_FEATURES
100
AcDbCircle
 62
7
  6
CONTINUOUS
 10
596.0737798943
 20
816.3991155537
 40
4.7990381057
100
AcDbArc
 50
332.7144649101
 51
2.3884943821
  0
ARC
  5
714
100
AcDbEntity
  8
7_ALL_FEATURES
100
AcDbCircle
 62
7
  6
CONTINUOUS
 10
596.0737798943
 20
816.3991155537
 40
4.7990381057
100
AcDbArc
 50
133.171184019
 51
170.4039906056
  0
ARC
  5
715
100
AcDbEntity
  8
7_ALL_FEATURES
100
AcDbCircle
 62
7
  6
CONTINUOUS
 10
596.0737798943
 20
816.3991155537
 40
4.7990381057
100
AcDbArc
 50
9.5960093944
 51
46.828815981
  0
CIRCLE
  5
716
100
AcDbEntity
  8
6_ALL_SURFS
100
AcDbCircle
 62
7
  6
CONTINUOUS
 10
596.0737798943
 20
816.3991155537
 40
3.5
  0
ARC
  5
717
100
AcDbEntity
  8
3_ALL_AXES
100
AcDbCircle
 62
7
  6
CONTINUOUS
 10
613.3937798943
 20
800.4991155537
 40
1.8
100
AcDbArc
 50
270.0
 51
327.1401196211
  0
ARC
  5
718
100
AcDbEntity
  8
6_ALL_SURFS
100
AcDbCircle
 62
7
  6
CONTINUOUS
 10
615.5737798943
 20
800.8991155537
 40
1.5
100
AcDbArc
 50
47.0
 51
90.0
  0
ARC
  5
719
100
AcDbEntity
  8
3_ALL_AXES
100
AcDbCircle
 62
7
  6
CONTINUOUS
 10
613.3937798943
 20
800.4991155537
 40
1.0
100
AcDbArc
 50
270.0
 51
327.1401196211
  0
ARC
  5
71A
100
AcDbEntity
  8
3_ALL_AXES
100
AcDbCircle
 62
7
  6
CONTINUOUS
 10
615.0737798943
 20
799.4139427564
 40
1.0
100
AcDbArc
 50
47.0
 51
147.1401196211
  0
ARC
  5
71B
100
AcDbEntity
  8
3_ALL_AXES
100
AcDbCircle
 62
7
  6
CONTINUOUS
 10
615.8737798943
 20
799.4883271642
 40
0.4
100
AcDbArc
 50
227.0
 51
47.0
  0
ARC
  5
71C
100
AcDbEntity
  8
7_ALL_FEATURES
100
AcDbCircle
 62
7
  6
CONTINUOUS
 10
619.098043963
 20
797.9991155537
 40
0.3
100
AcDbArc
 50
90.0
 51
135.0
  0
ARC
  5
71D
100
AcDbEntity
  8
6_ALL_SURFS
100
AcDbCircle
 62
7
  6
CONTINUOUS
 10
618.9637405255
 20
800.1991155537
 40
0.3
100
AcDbArc
 50
227.0
 51
270.0
  0
ARC
  5
71E
100
AcDbEntity
  8
6_ALL_SURFS
100
AcDbCircle
 62
7
  6
CONTINUOUS
 10
616.7737798943
 20
799.369899212
 40
0.3
100
AcDbArc
 50
0.0
 51
47.0
  0
ARC
  5
71F
100
AcDbEntity
  8
6_ALL_SURFS
100
AcDbCircle
 62
7
  6
CONTINUOUS
 10
614.3737798943
 20
800.5991155537
 40
0.3
100
AcDbArc
 50
90.0
 51
180.0
  0
ARC
  5
720
100
AcDbEntity
  8
6_ALL_SURFS
100
AcDbCircle
 62
7
  6
CONTINUOUS
 10
615.4556067516
 20
800.5991155537
 40
0.3
100
AcDbArc
 50
47.0
 51
90.0
  0
ARC
  5
721
100
AcDbEntity
  8
7_ALL_FEATURES
100
AcDbCircle
 62
7
  6
CONTINUOUS
 10
618.5495158256
 20
798.2991155537
 40
0.3
100
AcDbArc
 50
270.0
 51
315.0
  0
ARC
  5
722
100
AcDbEntity
  8
6_ALL_SURFS
100
AcDbCircle
 62
7
  6
CONTINUOUS
 10
617.3737798943
 20
798.2991155537
 40
0.3
100
AcDbArc
 50
180.0
 51
270.0
  0
ARC
  5
723
100
AcDbEntity
  8
6_ALL_SURFS
100
AcDbCircle
 62
7
  6
CONTINUOUS
 10
613.7737798943
 20
799.9623010974
 40
0.3
100
AcDbArc
 50
298.0
 51
360.0
  0
ARC
  5
724
100
AcDbEntity
  8
6_ALL_SURFS
100
AcDbCircle
 62
7
  6
CONTINUOUS
 10
613.7489814935
 20
799.9491155537
 40
0.3
100
AcDbArc
 50
270.0
 51
298.0
  0
ARC
  5
725
100
AcDbEntity
  8
7_ALL_FEATURES
100
AcDbCircle
 62
7
  6
CONTINUOUS
 10
612.3737798943
 20
800.5491155537
 40
0.2
100
AcDbArc
 50
0.0
 51
90.0
  0
ARC
  5
726
100
AcDbEntity
  8
3_ALL_AXES
100
AcDbCircle
 62
7
  6
CONTINUOUS
 10
615.0737798943
 20
799.4139427564
 40
0.2
100
AcDbArc
 50
47.0
 51
147.1401196211
  0
ARC
  5
727
100
AcDbEntity
  8
7_ALL_FEATURES
100
AcDbCircle
 62
7
  6
CONTINUOUS
 10
611.7737798943
 20
800.5491155537
 40
0.2
100
AcDbArc
 50
90.0
 51
180.0
  0
ARC
  5
728
100
AcDbEntity
  8
7_ALL_FEATURES
100
AcDbCircle
 62
7
  6
CONTINUOUS
 10
613.2737798943
 20
798.4991155537
 40
0.2
100
AcDbArc
 50
90.0
 51
180.0
  0
ARC
  5
729
100
AcDbEntity
  8
7_ALL_FEATURES
100
AcDbCircle
 62
7
  6
CONTINUOUS
 10
612.7737798943
 20
799.6991155537
 40
0.2
100
AcDbArc
 50
180.0
 51
270.0
  0
ARC
  5
72A
100
AcDbEntity
  8
6_ALL_SURFS
100
AcDbCircle
 62
7
  6
CONTINUOUS
 10
612.8737798943
 20
802.2991155537
 40
0.2
100
AcDbArc
 50
270.0
 51
360.0
  0
ARC
  5
72B
100
AcDbEntity
  8
6_ALL_SURFS
100
AcDbCircle
 62
7
  6
CONTINUOUS
 10
612.3737798943
 20
800.6991155537
 40
0.2
100
AcDbArc
 50
0.0
 51
90.0
  0
ARC
  5
72C
100
AcDbEntity
  8
6_ALL_SURFS
100
AcDbCircle
 62
7
  6
CONTINUOUS
 10
612.7737798943
 20
799.8491155537
 40
0.2
100
AcDbArc
 50
180.0
 51
270.0
  0
ARC
  5
72D
100
AcDbEntity
  8
6_ALL_SURFS
100
AcDbCircle
 62
7
  6
CONTINUOUS
 10
611.7737798943
 20
801.0991155537
 40
0.2
100
AcDbArc
 50
180.0
 51
270.0
  0
ARC
  5
72E
100
AcDbEntity
  8
6_ALL_SURFS
100
AcDbCircle
 62
7
  6
CONTINUOUS
 10
611.7737798943
 20
801.8991155537
 40
0.2
100
AcDbArc
 50
90.0
 51
180.0
  0
ARC
  5
72F
100
AcDbEntity
  8
6_ALL_SURFS
100
AcDbCircle
 62
7
  6
CONTINUOUS
 10
612.6737798943
 20
804.8991155537
 40
0.5
100
AcDbArc
 50
323.1301023542
 51
36.8698976459
  0
ARC
  5
730
100
AcDbEntity
  8
6_ALL_SURFS
100
AcDbCircle
 62
7
  6
CONTINUOUS
 10
612.6737798943
 20
807.8991155537
 40
0.5
100
AcDbArc
 50
323.1301023542
 51
36.8698976459
  0
ARC
  5
731
100
AcDbEntity
  8
6_ALL_SURFS
100
AcDbCircle
 62
7
  6
CONTINUOUS
 10
622.1737798943
 20
800.9991155537
 40
1.5
100
AcDbArc
 50
90.0
 51
180.0
  0
ARC
  5
732
100
AcDbEntity
  8
6_ALL_SURFS
100
AcDbCircle
 62
7
  6
CONTINUOUS
 10
624.9737798943
 20
800.9991155537
 40
1.5
100
AcDbArc
 50
0.0
 51
90.0
  0
ARC
  5
733
100
AcDbEntity
  8
6_ALL_SURFS
100
AcDbCircle
 62
7
  6
CONTINUOUS
 10
623.5737798943
 20
799.5491155537
 40
1.3
100
AcDbArc
 50
310.8069228749
 51
229.1930771251
  0
ARC
  5
734
100
AcDbEntity
  8
7_ALL_FEATURES
100
AcDbCircle
 62
7
  6
CONTINUOUS
 10
620.6495158256
 20
797.9991155537
 40
0.3
100
AcDbArc
 50
45.0
 51
90.0
  0
ARC
  5
735
100
AcDbEntity
  8
6_ALL_SURFS
100
AcDbCircle
 62
7
  6
CONTINUOUS
 10
626.7737798943
 20
799.8991155537
 40
0.3
100
AcDbArc
 50
180.0
 51
270.0
  0
ARC
  5
736
100
AcDbEntity
  8
6_ALL_SURFS
100
AcDbCircle
 62
7
  6
CONTINUOUS
 10
620.3737798943
 20
800.1991155537
 40
0.3
100
AcDbArc
 50
270.0
 51
360.0
  0
ARC
  5
737
100
AcDbEntity
  8
6_ALL_SURFS
100
AcDbCircle
 62
7
  6
CONTINUOUS
 10
624.6418778923
 20
798.2991155537
 40
0.3
100
AcDbArc
 50
210.0
 51
270.0
  0
ARC
  5
738
100
AcDbEntity
  8
6_ALL_SURFS
100
AcDbCircle
 62
7
  6
CONTINUOUS
 10
624.6193991977
 20
798.3380497949
 40
0.3
100
AcDbArc
 50
130.8069228749
 51
210.0
  0
ARC
  5
739
100
AcDbEntity
  8
6_ALL_SURFS
100
AcDbCircle
 62
7
  6
CONTINUOUS
 10
622.5281605909
 20
798.3380497949
 40
0.3
100
AcDbArc
 50
330.0
 51
49.1930771252
  0
ARC
  5
73A
100
AcDbEntity
  8
6_ALL_SURFS
100
AcDbCircle
 62
7
  6
CONTINUOUS
 10
622.5056818963
 20
798.2991155537
 40
0.3
100
AcDbArc
 50
270.0
 51
330.0
  0
ARC
  5
73B
100
AcDbEntity
  8
7_ALL_FEATURES
100
AcDbCircle
 62
7
  6
CONTINUOUS
 10
621.198043963
 20
798.2991155537
 40
0.3
100
AcDbArc
 50
225.0
 51
270.0
  0
ARC
  5
73C
100
AcDbEntity
  8
6_ALL_SURFS
100
AcDbCircle
 62
7
  6
CONTINUOUS
 10
612.6737798943
 20
810.8991155537
 40
0.5
100
AcDbArc
 50
323.1301023542
 51
36.8698976459
  0
ARC
  5
73D
100
AcDbEntity
  8
6_ALL_SURFS
100
AcDbCircle
 62
7
  6
CONTINUOUS
 10
612.6737798943
 20
813.8991155537
 40
0.5
100
AcDbArc
 50
323.1301023542
 51
36.8698976459
  0
ARC
  5
73E
100
AcDbEntity
  8
6_ALL_SURFS
100
AcDbCircle
 62
7
  6
CONTINUOUS
 10
612.6737798943
 20
816.8991155537
 40
0.5
100
AcDbArc
 50
323.1301023542
 51
36.8698976459
  0
ARC
  5
73F
100
AcDbEntity
  8
6_ALL_SURFS
100
AcDbCircle
 62
7
  6
CONTINUOUS
 10
613.6800765364
 20
822.0054121958
 40
0.3937033579
100
AcDbArc
 50
0.0
 51
174.2894068625
  0
ARC
  5
740
100
AcDbEntity
  8
7_ALL_FEATURES
100
AcDbCircle
 62
7
  6
CONTINUOUS
 10
684.4737798943
 20
767.4491155537
 40
8.0
100
AcDbArc
 50
150.0
 51
165.5224878141
  0
ARC
  5
741
100
AcDbEntity
  8
7_ALL_FEATURES
100
AcDbCircle
 62
7
  6
CONTINUOUS
 10
684.4737798943
 20
767.4491155537
 40
8.0
100
AcDbArc
 50
194.4775121859
 51
210.0
  0
ARC
  5
742
100
AcDbEntity
  8
7_ALL_FEATURES
100
AcDbCircle
 62
7
  6
CONTINUOUS
 10
684.4737798943
 20
767.4491155537
 40
7.9843597113
100
AcDbArc
 50
165.4935070353
 51
176.4096498625
  0
ARC
  5
743
100
AcDbEntity
  8
7_ALL_FEATURES
100
AcDbCircle
 62
7
  6
CONTINUOUS
 10
684.4737798943
 20
767.4491155537
 40
7.9843597113
100
AcDbArc
 50
183.5903501375
 51
194.5064929647
  0
ARC
  5
744
100
AcDbEntity
  8
7_ALL_FEATURES
100
AcDbCircle
 62
7
  6
CONTINUOUS
 10
684.4737798943
 20
767.4491155537
 40
7.7459666924
100
AcDbArc
 50
176.2990001561
 51
183.7009998439
  0
ARC
  5
745
100
AcDbEntity
  8
6_ALL_SURFS
100
AcDbCircle
 62
7
  6
CONTINUOUS
 10
661.996165279
 20
794.5991155537
 40
5.0
100
AcDbArc
 50
78.992257654
 51
90.0
  0
ARC
  5
746
100
AcDbEntity
  8
6_ALL_SURFS
100
AcDbCircle
 62
7
  6
CONTINUOUS
 10
684.3237798944
 20
790.3991155537
 40
2.8
100
AcDbArc
 50
57.841849515
 51
120.000000002
  0
ARC
  5
747
100
AcDbEntity
  8
6_ALL_SURFS
100
AcDbCircle
 62
7
  6
CONTINUOUS
 10
684.3237798944
 20
790.3991155537
 40
2.8
100
AcDbArc
 50
239.999999998
 51
270.0
  0
ARC
  5
748
100
AcDbEntity
  8
6_ALL_SURFS
100
AcDbCircle
 62
7
  6
CONTINUOUS
 10
680.6737798943
 20
794.5315378453
 40
1.5
100
AcDbArc
 50
0.0
 51
78.992257654
  0
ARC
  5
749
100
AcDbEntity
  8
6_ALL_SURFS
100
AcDbCircle
 62
7
  6
CONTINUOUS
 10
684.3237798944
 20
790.3991155537
 40
1.3
100
AcDbArc
 50
40.8069228753
 51
319.1930771247
  0
ARC
  5
74A
100
AcDbEntity
  8
6_ALL_SURFS
100
AcDbCircle
 62
7
  6
CONTINUOUS
 10
686.5737798943
 20
770.0491155537
 40
1.0
100
AcDbArc
 50
0.0
 51
90.0
  0
ARC
  5
74B
100
AcDbEntity
  8
6_ALL_SURFS
100
AcDbCircle
 62
7
  6
CONTINUOUS
 10
682.6737798943
 20
771.5491155537
 40
0.5
100
AcDbArc
 50
180.0
 51
270.0
  0
ARC
  5
74C
100
AcDbEntity
  8
6_ALL_SURFS
100
AcDbCircle
 62
7
  6
CONTINUOUS
 10
682.6737798943
 20
787.5412317213
 40
0.5
100
AcDbArc
 50
59.999999998
 51
180.0
  0
ARC
  5
74D
100
AcDbEntity
  8
6_ALL_SURFS
100
AcDbCircle
 62
7
  6
CONTINUOUS
 10
682.6737798943
 20
793.2569993862
 40
0.5
100
AcDbArc
 50
180.0
 51
300.000000002
  0
ARC
  5
74E
100
AcDbEntity
  8
6_ALL_SURFS
100
AcDbCircle
 62
7
  6
CONTINUOUS
 10
680.0737798943
 20
794.0369473608
 40
0.5
100
AcDbArc
 50
0.0
 51
79.0
  0
ARC
  5
74F
100
AcDbEntity
  8
6_ALL_SURFS
100
AcDbCircle
 62
7
  6
CONTINUOUS
 10
685.9737798943
 20
793.0235202482
 40
0.3
100
AcDbArc
 50
237.841849515
 51
360.0
  0
ARC
  5
750
100
AcDbEntity
  8
6_ALL_SURFS
100
AcDbCircle
 62
7
  6
CONTINUOUS
 10
685.6737798943
 20
768.8491155537
 40
0.3
100
AcDbArc
 50
0.0
 51
90.0
  0
ARC
  5
751
100
AcDbEntity
  8
6_ALL_SURFS
100
AcDbCircle
 62
7
  6
CONTINUOUS
 10
680.8737798943
 20
769.4491155537
 40
0.3
100
AcDbArc
 50
180.0
 51
270.0
  0
ARC
  5
752
100
AcDbEntity
  8
6_ALL_SURFS
100
AcDbCircle
 62
7
  6
CONTINUOUS
 10
686.5737798943
 20
794.3991155537
 40
0.3
100
AcDbArc
 50
90.0
 51
180.0
  0
ARC
  5
753
100
AcDbEntity
  8
6_ALL_SURFS
100
AcDbCircle
 62
7
  6
CONTINUOUS
 10
687.2737798943
 20
794.3991155537
 40
0.3
100
AcDbArc
 50
0.0
 51
90.0
  0
ARC
  5
754
100
AcDbEntity
  8
6_ALL_SURFS
100
AcDbCircle
 62
7
  6
CONTINUOUS
 10
687.2737798943
 20
792.4487090094
 40
0.3
100
AcDbArc
 50
300.0000000014
 51
360.0
  0
ARC
  5
755
100
AcDbEntity
  8
6_ALL_SURFS
100
AcDbCircle
 62
7
  6
CONTINUOUS
 10
685.5348456533
 20
791.4447348572
 40
0.3
100
AcDbArc
 50
220.8069228753
 51
300.0000000014
  0
ARC
  5
756
100
AcDbEntity
  8
6_ALL_SURFS
100
AcDbCircle
 62
7
  6
CONTINUOUS
 10
685.5348456533
 20
789.3534962503
 40
0.3
100
AcDbArc
 50
59.9999999986
 51
139.1930771247
  0
ARC
  5
757
100
AcDbEntity
  8
6_ALL_SURFS
100
AcDbCircle
 62
7
  6
CONTINUOUS
 10
687.2737798943
 20
788.3495220981
 40
0.3
100
AcDbArc
 50
0.0
 51
59.9999999986
  0
ARC
  5
758
100
AcDbEntity
  8
6_ALL_SURFS
100
AcDbCircle
 62
7
  6
CONTINUOUS
 10
687.2737798943
 20
787.8991155537
 40
0.3
100
AcDbArc
 50
270.0
 51
360.0
  0
ARC
  5
759
100
AcDbEntity
  8
6_ALL_SURFS
100
AcDbCircle
 62
7
  6
CONTINUOUS
 10
662.5048870843
 20
797.6557375154
 40
0.3
100
AcDbArc
 50
79.0
 51
160.0
  0
ARC
  5
75A
100
AcDbEntity
  8
6_ALL_SURFS
100
AcDbCircle
 62
7
  6
CONTINUOUS
 10
661.8583337187
 20
797.633629383
 40
0.3
100
AcDbArc
 50
250.0
 51
340.0
  0
ARC
  5
75B
100
AcDbEntity
  8
6_ALL_SURFS
100
AcDbCircle
 62
7
  6
CONTINUOUS
 10
659.9241293031
 20
797.6991155537
 40
0.3
100
AcDbArc
 50
70.0
 51
90.0
  0
SPLINE
  5
75C
100
AcDbEntity
  8
6_ALL_SURFS
100
AcDbSpline
 62
7
  6
CONTINUOUS
 70
0
 71
3
 72
12
 73
8
 74
0
 42
0.0000001
 43
0.0000001
 44
0.0000000001
 40
0.0
 40
0.0
 40
0.0
 40
0.0
 40
0.2410580895
 40
0.3685852281
 40
0.4993903505
 40
0.7553946457
 40
1.0
 40
1.0
 40
1.0
 40
1.0
 10
932.7172379032
 20
568.8700007274
 30
0.0
 10
932.6799738029
 20
568.8272063758
 30
0.0
 10
932.6105704748
 20
568.7696911495
 30
0.0
 10
932.4969911929
 20
568.7339158816
 30
0.0
 10
932.3739220462
 20
568.7338287423
 30
0.0
 10
932.2333722313
 20
568.7997886307
 30
0.0
 10
932.1516444885
 20
568.8868117638
 30
0.0
 10
932.1172379032
 20
568.9329812354
 30
0.0
  0
SPLINE
  5
75D
100
AcDbEntity
  8
6_ALL_SURFS
100
AcDbSpline
 62
7
  6
CONTINUOUS
 70
0
 71
3
 72
12
 73
8
 74
0
 42
0.0000001
 43
0.0000001
 44
0.0000000001
 40
0.0
 40
0.0
 40
0.0
 40
0.0
 40
0.2410580895
 40
0.3685852281
 40
0.4993903505
 40
0.7553946457
 40
1.0
 40
1.0
 40
1.0
 40
1.0
 10
932.7172379032
 20
318.8700007274
 30
0.0
 10
932.6799738029
 20
318.8272063758
 30
0.0
 10
932.6105704748
 20
318.7696911495
 30
0.0
 10
932.4969911929
 20
318.7339158816
 30
0.0
 10
932.3739220462
 20
318.7338287423
 30
0.0
 10
932.2333722313
 20
318.7997886307
 30
0.0
 10
932.1516444885
 20
318.8868117638
 30
0.0
 10
932.1172379032
 20
318.9329812354
 30
0.0
  0
SPLINE
  5
75E
100
AcDbEntity
  8
6_ALL_SURFS
100
AcDbSpline
 62
7
  6
CONTINUOUS
 70
0
 71
3
 72
12
 73
8
 74
0
 42
0.0000001
 43
0.0000001
 44
0.0000000001
 40
0.0
 40
0.0
 40
0.0
 40
0.0
 40
0.2446053869
 40
0.500609661
 40
0.6314147539
 40
0.7589418862
 40
1.0
 40
1.0
 40
1.0
 40
1.0
 10
932.1172379032
 20
559.3432436499
 30
0.0
 10
932.1516444931
 20
559.3894131276
 30
0.0
 10
932.2333722404
 20
559.4764362612
 30
0.0
 10
932.3739220528
 20
559.5423961426
 30
0.0
 10
932.4969911851
 20
559.5423090038
 30
0.0
 10
932.610570466
 20
559.5065337423
 30
0.0
 10
932.6799737991
 20
559.4490185138
 30
0.0
 10
932.7172379032
 20
559.4062241579
 30
0.0
  0
SPLINE
  5
75F
100
AcDbEntity
  8
6_ALL_SURFS
100
AcDbSpline
 62
7
  6
CONTINUOUS
 70
0
 71
3
 72
12
 73
8
 74
0
 42
0.0000001
 43
0.0000001
 44
0.0000000001
 40
0.0
 40
0.0
 40
0.0
 40
0.0
 40
0.2410580895
 40
0.3685852281
 40
0.4993903505
 40
0.7553946457
 40
1.0
 40
1.0
 40
1.0
 40
1.0
 10
932.7172379032
 20
68.8700007274
 30
0.0
 10
932.6799738029
 20
68.8272063758
 30
0.0
 10
932.6105704748
 20
68.7696911495
 30
0.0
 10
932.4969911929
 20
68.7339158816
 30
0.0
 10
932.3739220462
 20
68.7338287423
 30
0.0
 10
932.2333722313
 20
68.7997886307
 30
0.0
 10
932.1516444885
 20
68.8868117638
 30
0.0
 10
932.1172379032
 20
68.9329812354
 30
0.0
  0
SPLINE
  5
760
100
AcDbEntity
  8
6_ALL_SURFS
100
AcDbSpline
 62
7
  6
CONTINUOUS
 70
0
 71
3
 72
12
 73
8
 74
0
 42
0.0000001
 43
0.0000001
 44
0.0000000001
 40
0.0
 40
0.0
 40
0.0
 40
0.0
 40
0.2446053869
 40
0.500609661
 40
0.6314147539
 40
0.7589418862
 40
1.0
 40
1.0
 40
1.0
 40
1.0
 10
932.1172379032
 20
309.3432436499
 30
0.0
 10
932.1516444931
 20
309.3894131276
 30
0.0
 10
932.2333722404
 20
309.4764362612
 30
0.0
 10
932.3739220528
 20
309.5423961426
 30
0.0
 10
932.4969911851
 20
309.5423090038
 30
0.0
 10
932.610570466
 20
309.5065337423
 30
0.0
 10
932.6799737991
 20
309.4490185138
 30
0.0
 10
932.7172379032
 20
309.4062241579
 30
0.0
  0
SPLINE
  5
761
100
AcDbEntity
  8
6_ALL_SURFS
100
AcDbSpline
 62
7
  6
CONTINUOUS
 70
0
 71
3
 72
12
 73
8
 74
0
 42
0.0000001
 43
0.0000001
 44
0.0000000001
 40
0.0
 40
0.0
 40
0.0
 40
0.0
 40
0.2446053869
 40
0.500609661
 40
0.6314147539
 40
0.7589418862
 40
1.0
 40
1.0
 40
1.0
 40
1.0
 10
932.1172379032
 20
59.3432436499
 30
0.0
 10
932.1516444931
 20
59.3894131276
 30
0.0
 10
932.2333722404
 20
59.4764362612
 30
0.0
 10
932.3739220528
 20
59.5423961426
 30
0.0
 10
932.4969911851
 20
59.5423090038
 30
0.0
 10
932.610570466
 20
59.5065337423
 30
0.0
 10
932.6799737991
 20
59.4490185138
 30
0.0
 10
932.7172379032
 20
59.4062241579
 30
0.0
  0
SPLINE
  5
762
100
AcDbEntity
  8
7_ALL_FEATURES
100
AcDbSpline
 62
7
  6
CONTINUOUS
 70
0
 71
3
 72
13
 73
9
 74
0
 42
0.0000001
 43
0.0000001
 44
0.0000000001
 40
0.0
 40
0.0
 40
0.0
 40
0.0
 40
0.1147644603
 40
0.236128801
 40
0.3644631398
 40
0.4944826234
 40
0.750340274
 40
1.0
 40
1.0
 40
1.0
 40
1.0
 10
836.8172379032
 20
60.2405790252
 30
0.0
 10
836.7940966735
 20
60.2609688618
 30
0.0
 10
836.7384651729
 20
60.2958323463
 30
0.0
 10
836.6367223884
 20
60.3026822215
 30
0.0
 10
836.5396733878
 20
60.2647015048
 30
0.0
 10
836.427636241
 20
60.1824947254
 30
0.0
 10
836.3164459533
 20
60.0503602783
 30
0.0
 10
836.247516045
 20
59.9329237475
 30
0.0
 10
836.2172379032
 20
59.8730489332
 30
0.0
  0
SPLINE
  5
763
100
AcDbEntity
  8
7_ALL_FEATURES
100
AcDbSpline
 62
7
  6
CONTINUOUS
 70
0
 71
3
 72
13
 73
9
 74
0
 42
0.0000001
 43
0.0000001
 44
0.0000000001
 40
0.0
 40
0.0
 40
0.0
 40
0.0
 40
0.1147644603
 40
0.236128801
 40
0.3644631398
 40
0.4944826234
 40
0.750340274
 40
1.0
 40
1.0
 40
1.0
 40
1.0
 10
836.8172379032
 20
310.2405790252
 30
0.0
 10
836.7940966735
 20
310.2609688618
 30
0.0
 10
836.7384651729
 20
310.2958323463
 30
0.0
 10
836.6367223884
 20
310.3026822215
 30
0.0
 10
836.5396733878
 20
310.2647015048
 30
0.0
 10
836.427636241
 20
310.1824947254
 30
0.0
 10
836.3164459533
 20
310.0503602783
 30
0.0
 10
836.247516045
 20
309.9329237475
 30
0.0
 10
836.2172379032
 20
309.8730489332
 30
0.0
  0
SPLINE
  5
764
100
AcDbEntity
  8
7_ALL_FEATURES
100
AcDbSpline
 62
7
  6
CONTINUOUS
 70
0
 71
3
 72
13
 73
9
 74
0
 42
0.0000001
 43
0.0000001
 44
0.0000000001
 40
0.0
 40
0.0
 40
0.0
 40
0.0
 40
0.2496596079
 40
0.5055162628
 40
0.6355336032
 40
0.7638662119
 40
0.8852331971
 40
1.0
 40
1.0
 40
1.0
 40
1.0
 10
836.2172379032
 20
68.4031759521
 30
0.0
 10
836.2475160356
 20
68.3433011563
 30
0.0
 10
836.3164458376
 20
68.2258649032
 30
0.0
 10
836.4276354696
 20
68.0937309796
 30
0.0
 10
836.5396714057
 20
68.0115248841
 30
0.0
 10
836.6367193639
 20
67.9735427597
 30
0.0
 10
836.7384633842
 20
67.9803914466
 30
0.0
 10
836.7940961973
 20
68.0152556039
 30
0.0
 10
836.8172379032
 20
68.03564586
 30
0.0
  0
SPLINE
  5
765
100
AcDbEntity
  8
7_ALL_FEATURES
100
AcDbSpline
 62
7
  6
CONTINUOUS
 70
0
 71
3
 72
13
 73
9
 74
0
 42
0.0000001
 43
0.0000001
 44
0.0000000001
 40
0.0
 40
0.0
 40
0.0
 40
0.0
 40
0.1147644603
 40
0.236128801
 40
0.3644631398
 40
0.4944826234
 40
0.750340274
 40
1.0
 40
1.0
 40
1.0
 40
1.0
 10
836.8172379032
 20
560.2405790252
 30
0.0
 10
836.7940966735
 20
560.2609688618
 30
0.0
 10
836.7384651729
 20
560.2958323463
 30
0.0
 10
836.6367223884
 20
560.3026822215
 30
0.0
 10
836.5396733878
 20
560.2647015048
 30
0.0
 10
836.427636241
 20
560.1824947254
 30
0.0
 10
836.3164459533
 20
560.0503602783
 30
0.0
 10
836.247516045
 20
559.9329237475
 30
0.0
 10
836.2172379032
 20
559.8730489332
 30
0.0
  0
SPLINE
  5
766
100
AcDbEntity
  8
7_ALL_FEATURES
100
AcDbSpline
 62
7
  6
CONTINUOUS
 70
0
 71
3
 72
13
 73
9
 74
0
 42
0.0000001
 43
0.0000001
 44
0.0000000001
 40
0.0
 40
0.0
 40
0.0
 40
0.0
 40
0.2496596079
 40
0.5055162628
 40
0.6355336032
 40
0.7638662119
 40
0.8852331971
 40
1.0
 40
1.0
 40
1.0
 40
1.0
 10
836.2172379032
 20
318.4031759521
 30
0.0
 10
836.2475160356
 20
318.3433011563
 30
0.0
 10
836.3164458376
 20
318.2258649032
 30
0.0
 10
836.4276354696
 20
318.0937309796
 30
0.0
 10
836.5396714057
 20
318.0115248841
 30
0.0
 10
836.6367193639
 20
317.9735427597
 30
0.0
 10
836.7384633842
 20
317.9803914466
 30
0.0
 10
836.7940961973
 20
318.0152556039
 30
0.0
 10
836.8172379032
 20
318.03564586
 30
0.0
  0
SPLINE
  5
767
100
AcDbEntity
  8
7_ALL_FEATURES
100
AcDbSpline
 62
7
  6
CONTINUOUS
 70
0
 71
3
 72
13
 73
9
 74
0
 42
0.0000001
 43
0.0000001
 44
0.0000000001
 40
0.0
 40
0.0
 40
0.0
 40
0.0
 40
0.2496596079
 40
0.5055162628
 40
0.6355336032
 40
0.7638662119
 40
0.8852331971
 40
1.0
 40
1.0
 40
1.0
 40
1.0
 10
836.2172379032
 20
568.4031759521
 30
0.0
 10
836.2475160356
 20
568.3433011563
 30
0.0
 10
836.3164458376
 20
568.2258649032
 30
0.0
 10
836.4276354696
 20
568.0937309796
 30
0.0
 10
836.5396714057
 20
568.0115248841
 30
0.0
 10
836.6367193639
 20
567.9735427597
 30
0.0
 10
836.7384633842
 20
567.9803914466
 30
0.0
 10
836.7940961973
 20
568.0152556039
 30
0.0
 10
836.8172379032
 20
568.03564586
 30
0.0
  0
SPLINE
  5
768
100
AcDbEntity
  8
7_ALL_FEATURES
100
AcDbSpline
 62
7
  6
CONTINUOUS
 70
0
 71
3
 72
12
 73
8
 74
0
 42
0.0000001
 43
0.0000001
 44
0.0000000001
 40
0.0
 40
0.0
 40
0.0
 40
0.0
 40
0.2446053869
 40
0.500609661
 40
0.6314147539
 40
0.7589418862
 40
1.0
 40
1.0
 40
1.0
 40
1.0
 10
833.8172379032
 20
59.3432436499
 30
0.0
 10
833.7828313134
 20
59.3894131276
 30
0.0
 10
833.701103566
 20
59.4764362612
 30
0.0
 10
833.5605537537
 20
59.5423961426
 30
0.0
 10
833.4374846214
 20
59.5423090038
 30
0.0
 10
833.3239053404
 20
59.5065337423
 30
0.0
 10
833.2545020073
 20
59.4490185138
 30
0.0
 10
833.2172379032
 20
59.4062241579
 30
0.0
  0
SPLINE
  5
769
100
AcDbEntity
  8
7_ALL_FEATURES
100
AcDbSpline
 62
7
  6
CONTINUOUS
 70
0
 71
3
 72
12
 73
8
 74
0
 42
0.0000001
 43
0.0000001
 44
0.0000000001
 40
0.0
 40
0.0
 40
0.0
 40
0.0
 40
0.2446053869
 40
0.500609661
 40
0.6314147539
 40
0.7589418862
 40
1.0
 40
1.0
 40
1.0
 40
1.0
 10
833.8172379032
 20
309.3432436499
 30
0.0
 10
833.7828313134
 20
309.3894131276
 30
0.0
 10
833.701103566
 20
309.4764362612
 30
0.0
 10
833.5605537537
 20
309.5423961426
 30
0.0
 10
833.4374846214
 20
309.5423090038
 30
0.0
 10
833.3239053404
 20
309.5065337423
 30
0.0
 10
833.2545020073
 20
309.4490185138
 30
0.0
 10
833.2172379032
 20
309.4062241579
 30
0.0
  0
SPLINE
  5
76A
100
AcDbEntity
  8
7_ALL_FEATURES
100
AcDbSpline
 62
7
  6
CONTINUOUS
 70
0
 71
3
 72
12
 73
8
 74
0
 42
0.0000001
 43
0.0000001
 44
0.0000000001
 40
0.0
 40
0.0
 40
0.0
 40
0.0
 40
0.2410580895
 40
0.3685852281
 40
0.4993903505
 40
0.7553946457
 40
1.0
 40
1.0
 40
1.0
 40
1.0
 10
833.2172379032
 20
68.8700007274
 30
0.0
 10
833.2545020036
 20
68.8272063758
 30
0.0
 10
833.3239053316
 20
68.7696911495
 30
0.0
 10
833.4374846135
 20
68.7339158816
 30
0.0
 10
833.5605537603
 20
68.7338287423
 30
0.0
 10
833.7011035751
 20
68.7997886307
 30
0.0
 10
833.782831318
 20
68.8868117638
 30
0.0
 10
833.8172379032
 20
68.9329812354
 30
0.0
  0
SPLINE
  5
76B
100
AcDbEntity
  8
7_ALL_FEATURES
100
AcDbSpline
 62
7
  6
CONTINUOUS
 70
0
 71
3
 72
12
 73
8
 74
0
 42
0.0000001
 43
0.0000001
 44
0.0000000001
 40
0.0
 40
0.0
 40
0.0
 40
0.0
 40
0.2446053869
 40
0.500609661
 40
0.6314147539
 40
0.7589418862
 40
1.0
 40
1.0
 40
1.0
 40
1.0
 10
833.8172379032
 20
559.3432436499
 30
0.0
 10
833.7828313134
 20
559.3894131276
 30
0.0
 10
833.701103566
 20
559.4764362612
 30
0.0
 10
833.5605537537
 20
559.5423961426
 30
0.0
 10
833.4374846214
 20
559.5423090038
 30
0.0
 10
833.3239053404
 20
559.5065337423
 30
0.0
 10
833.2545020073
 20
559.4490185138
 30
0.0
 10
833.2172379032
 20
559.4062241579
 30
0.0
  0
SPLINE
  5
76C
100
AcDbEntity
  8
7_ALL_FEATURES
100
AcDbSpline
 62
7
  6
CONTINUOUS
 70
0
 71
3
 72
12
 73
8
 74
0
 42
0.0000001
 43
0.0000001
 44
0.0000000001
 40
0.0
 40
0.0
 40
0.0
 40
0.0
 40
0.2410580895
 40
0.3685852281
 40
0.4993903505
 40
0.7553946457
 40
1.0
 40
1.0
 40
1.0
 40
1.0
 10
833.2172379032
 20
318.8700007274
 30
0.0
 10
833.2545020036
 20
318.8272063758
 30
0.0
 10
833.3239053316
 20
318.7696911495
 30
0.0
 10
833.4374846135
 20
318.7339158816
 30
0.0
 10
833.5605537603
 20
318.7338287423
 30
0.0
 10
833.7011035751
 20
318.7997886307
 30
0.0
 10
833.782831318
 20
318.8868117638
 30
0.0
 10
833.8172379032
 20
318.9329812354
 30
0.0
  0
SPLINE
  5
76D
100
AcDbEntity
  8
7_ALL_FEATURES
100
AcDbSpline
 62
7
  6
CONTINUOUS
 70
0
 71
3
 72
12
 73
8
 74
0
 42
0.0000001
 43
0.0000001
 44
0.0000000001
 40
0.0
 40
0.0
 40
0.0
 40
0.0
 40
0.2410580895
 40
0.3685852281
 40
0.4993903505
 40
0.7553946457
 40
1.0
 40
1.0
 40
1.0
 40
1.0
 10
833.2172379032
 20
568.8700007274
 30
0.0
 10
833.2545020036
 20
568.8272063758
 30
0.0
 10
833.3239053316
 20
568.7696911495
 30
0.0
 10
833.4374846135
 20
568.7339158816
 30
0.0
 10
833.5605537603
 20
568.7338287423
 30
0.0
 10
833.7011035751
 20
568.7997886307
 30
0.0
 10
833.782831318
 20
568.8868117638
 30
0.0
 10
833.8172379032
 20
568.9329812354
 30
0.0
  0
SPLINE
  5
76E
100
AcDbEntity
  8
6_ALL_SURFS
100
AcDbSpline
 62
7
  6
CONTINUOUS
 70
0
 71
3
 72
13
 73
9
 74
0
 42
0.0000001
 43
0.0000001
 44
0.0000000001
 40
0.0
 40
0.0
 40
0.0
 40
0.0
 40
0.2496596079
 40
0.5055162628
 40
0.6355336032
 40
0.7638662119
 40
0.8852331971
 40
1.0
 40
1.0
 40
1.0
 40
1.0
 10
929.7172379032
 20
568.4031759521
 30
0.0
 10
929.6869597708
 20
568.3433011563
 30
0.0
 10
929.6180299689
 20
568.2258649032
 30
0.0
 10
929.5068403368
 20
568.0937309796
 30
0.0
 10
929.3948044007
 20
568.0115248841
 30
0.0
 10
929.2977564425
 20
567.9735427597
 30
0.0
 10
929.1960124223
 20
567.9803914466
 30
0.0
 10
929.1403796091
 20
568.0152556039
 30
0.0
 10
929.1172379032
 20
568.03564586
 30
0.0
  0
SPLINE
  5
76F
100
AcDbEntity
  8
6_ALL_SURFS
100
AcDbSpline
 62
7
  6
CONTINUOUS
 70
0
 71
3
 72
13
 73
9
 74
0
 42
0.0000001
 43
0.0000001
 44
0.0000000001
 40
0.0
 40
0.0
 40
0.0
 40
0.0
 40
0.2496596079
 40
0.5055162628
 40
0.6355336032
 40
0.7638662119
 40
0.8852331971
 40
1.0
 40
1.0
 40
1.0
 40
1.0
 10
929.7172379032
 20
318.4031759521
 30
0.0
 10
929.6869597708
 20
318.3433011563
 30
0.0
 10
929.6180299689
 20
318.2258649032
 30
0.0
 10
929.5068403368
 20
318.0937309796
 30
0.0
 10
929.3948044007
 20
318.0115248841
 30
0.0
 10
929.2977564425
 20
317.9735427597
 30
0.0
 10
929.1960124223
 20
317.9803914466
 30
0.0
 10
929.1403796091
 20
318.0152556039
 30
0.0
 10
929.1172379032
 20
318.03564586
 30
0.0
  0
SPLINE
  5
770
100
AcDbEntity
  8
6_ALL_SURFS
100
AcDbSpline
 62
7
  6
CONTINUOUS
 70
0
 71
3
 72
13
 73
9
 74
0
 42
0.0000001
 43
0.0000001
 44
0.0000000001
 40
0.0
 40
0.0
 40
0.0
 40
0.0
 40
0.1147644603
 40
0.236128801
 40
0.3644631398
 40
0.4944826234
 40
0.750340274
 40
1.0
 40
1.0
 40
1.0
 40
1.0
 10
929.1172379032
 20
560.2405790252
 30
0.0
 10
929.140379133
 20
560.2609688618
 30
0.0
 10
929.1960106335
 20
560.2958323463
 30
0.0
 10
929.297753418
 20
560.3026822215
 30
0.0
 10
929.3948024186
 20
560.2647015048
 30
0.0
 10
929.5068395655
 20
560.1824947254
 30
0.0
 10
929.6180298531
 20
560.0503602783
 30
0.0
 10
929.6869597615
 20
559.9329237475
 30
0.0
 10
929.7172379032
 20
559.8730489332
 30
0.0
  0
SPLINE
  5
771
100
AcDbEntity
  8
6_ALL_SURFS
100
AcDbSpline
 62
7
  6
CONTINUOUS
 70
0
 71
3
 72
13
 73
9
 74
0
 42
0.0000001
 43
0.0000001
 44
0.0000000001
 40
0.0
 40
0.0
 40
0.0
 40
0.0
 40
0.2496596079
 40
0.5055162628
 40
0.6355336032
 40
0.7638662119
 40
0.8852331971
 40
1.0
 40
1.0
 40
1.0
 40
1.0
 10
929.7172379032
 20
68.4031759521
 30
0.0
 10
929.6869597708
 20
68.3433011563
 30
0.0
 10
929.6180299689
 20
68.2258649032
 30
0.0
 10
929.5068403368
 20
68.0937309796
 30
0.0
 10
929.3948044007
 20
68.0115248841
 30
0.0
 10
929.2977564425
 20
67.9735427597
 30
0.0
 10
929.1960124223
 20
67.9803914466
 30
0.0
 10
929.1403796091
 20
68.0152556039
 30
0.0
 10
929.1172379032
 20
68.03564586
 30
0.0
  0
SPLINE
  5
772
100
AcDbEntity
  8
6_ALL_SURFS
100
AcDbSpline
 62
7
  6
CONTINUOUS
 70
0
 71
3
 72
13
 73
9
 74
0
 42
0.0000001
 43
0.0000001
 44
0.0000000001
 40
0.0
 40
0.0
 40
0.0
 40
0.0
 40
0.1147644603
 40
0.236128801
 40
0.3644631398
 40
0.4944826234
 40
0.750340274
 40
1.0
 40
1.0
 40
1.0
 40
1.0
 10
929.1172379032
 20
310.2405790252
 30
0.0
 10
929.140379133
 20
310.2609688618
 30
0.0
 10
929.1960106335
 20
310.2958323463
 30
0.0
 10
929.297753418
 20
310.3026822215
 30
0.0
 10
929.3948024186
 20
310.2647015048
 30
0.0
 10
929.5068395655
 20
310.1824947254
 30
0.0
 10
929.6180298531
 20
310.0503602783
 30
0.0
 10
929.6869597615
 20
309.9329237475
 30
0.0
 10
929.7172379032
 20
309.8730489332
 30
0.0
  0
SPLINE
  5
773
100
AcDbEntity
  8
6_ALL_SURFS
100
AcDbSpline
 62
7
  6
CONTINUOUS
 70
0
 71
3
 72
13
 73
9
 74
0
 42
0.0000001
 43
0.0000001
 44
0.0000000001
 40
0.0
 40
0.0
 40
0.0
 40
0.0
 40
0.1147644603
 40
0.236128801
 40
0.3644631398
 40
0.4944826234
 40
0.750340274
 40
1.0
 40
1.0
 40
1.0
 40
1.0
 10
929.1172379032
 20
60.2405790252
 30
0.0
 10
929.140379133
 20
60.2609688618
 30
0.0
 10
929.1960106335
 20
60.2958323463
 30
0.0
 10
929.297753418
 20
60.3026822215
 30
0.0
 10
929.3948024186
 20
60.2647015048
 30
0.0
 10
929.5068395655
 20
60.1824947254
 30
0.0
 10
929.6180298531
 20
60.0503602783
 30
0.0
 10
929.6869597615
 20
59.9329237475
 30
0.0
 10
929.7172379032
 20
59.8730489332
 30
0.0
  0
SPLINE
  5
774
100
AcDbEntity
  8
6_ALL_SURFS
100
AcDbSpline
 62
7
  6
CONTINUOUS
 70
0
 71
3
 72
12
 73
8
 74
0
 42
0.0000001
 43
0.0000001
 44
0.0000000001
 40
0.0
 40
0.0
 40
0.0
 40
0.0
 40
0.2410580895
 40
0.3685852281
 40
0.4993903505
 40
0.7553946457
 40
1.0
 40
1.0
 40
1.0
 40
1.0
 10
600.8056681791
 20
717.6991155537
 30
0.0
 10
600.7628738275
 20
717.7363796541
 30
0.0
 10
600.7053586012
 20
717.8057829821
 30
0.0
 10
600.6695833332
 20
717.919362264
 30
0.0
 10
600.669496194
 20
718.0424314108
 30
0.0
 10
600.7354560824
 20
718.1829812256
 30
0.0
 10
600.8224792155
 20
718.2647089685
 30
0.0
 10
600.8686486871
 20
718.2991155537
 30
0.0
  0
SPLINE
  5
775
100
AcDbEntity
  8
6_ALL_SURFS
100
AcDbSpline
 62
7
  6
CONTINUOUS
 70
0
 71
3
 72
12
 73
8
 74
0
 42
0.0000001
 43
0.0000001
 44
0.0000000001
 40
0.0
 40
0.0
 40
0.0
 40
0.0
 40
0.2410580895
 40
0.3685852281
 40
0.4993903505
 40
0.7553946457
 40
1.0
 40
1.0
 40
1.0
 40
1.0
 10
350.8056681791
 20
717.6991155537
 30
0.0
 10
350.7628738275
 20
717.7363796541
 30
0.0
 10
350.7053586012
 20
717.8057829821
 30
0.0
 10
350.6695833332
 20
717.919362264
 30
0.0
 10
350.669496194
 20
718.0424314108
 30
0.0
 10
350.7354560824
 20
718.1829812256
 30
0.0
 10
350.8224792155
 20
718.2647089685
 30
0.0
 10
350.8686486871
 20
718.2991155537
 30
0.0
  0
SPLINE
  5
776
100
AcDbEntity
  8
6_ALL_SURFS
100
AcDbSpline
 62
7
  6
CONTINUOUS
 70
0
 71
3
 72
12
 73
8
 74
0
 42
0.0000001
 43
0.0000001
 44
0.0000000001
 40
0.0
 40
0.0
 40
0.0
 40
0.0
 40
0.2446053869
 40
0.500609661
 40
0.6314147539
 40
0.7589418862
 40
1.0
 40
1.0
 40
1.0
 40
1.0
 10
591.2789111016
 20
718.2991155537
 30
0.0
 10
591.3250805793
 20
718.2647089639
 30
0.0
 10
591.4121037129
 20
718.1829812165
 30
0.0
 10
591.4780635943
 20
718.0424314042
 30
0.0
 10
591.4779764554
 20
717.9193622719
 30
0.0
 10
591.442201194
 20
717.805782991
 30
0.0
 10
591.3846859655
 20
717.7363796578
 30
0.0
 10
591.3418916095
 20
717.6991155537
 30
0.0
  0
SPLINE
  5
777
100
AcDbEntity
  8
6_ALL_SURFS
100
AcDbSpline
 62
7
  6
CONTINUOUS
 70
0
 71
3
 72
12
 73
8
 74
0
 42
0.0000001
 43
0.0000001
 44
0.0000000001
 40
0.0
 40
0.0
 40
0.0
 40
0.0
 40
0.2410580895
 40
0.3685852281
 40
0.4993903505
 40
0.7553946457
 40
1.0
 40
1.0
 40
1.0
 40
1.0
 10
100.8056681791
 20
717.6991155537
 30
0.0
 10
100.7628738275
 20
717.7363796541
 30
0.0
 10
100.7053586012
 20
717.8057829821
 30
0.0
 10
100.6695833332
 20
717.919362264
 30
0.0
 10
100.669496194
 20
718.0424314108
 30
0.0
 10
100.7354560824
 20
718.1829812256
 30
0.0
 10
100.8224792155
 20
718.2647089685
 30
0.0
 10
100.8686486871
 20
718.2991155537
 30
0.0
  0
SPLINE
  5
778
100
AcDbEntity
  8
6_ALL_SURFS
100
AcDbSpline
 62
7
  6
CONTINUOUS
 70
0
 71
3
 72
12
 73
8
 74
0
 42
0.0000001
 43
0.0000001
 44
0.0000000001
 40
0.0
 40
0.0
 40
0.0
 40
0.0
 40
0.2446053869
 40
0.500609661
 40
0.6314147539
 40
0.7589418862
 40
1.0
 40
1.0
 40
1.0
 40
1.0
 10
341.2789111016
 20
718.2991155537
 30
0.0
 10
341.3250805793
 20
718.2647089639
 30
0.0
 10
341.4121037129
 20
718.1829812165
 30
0.0
 10
341.4780635943
 20
718.0424314042
 30
0.0
 10
341.4779764554
 20
717.9193622719
 30
0.0
 10
341.442201194
 20
717.805782991
 30
0.0
 10
341.3846859655
 20
717.7363796578
 30
0.0
 10
341.3418916095
 20
717.6991155537
 30
0.0
  0
SPLINE
  5
779
100
AcDbEntity
  8
6_ALL_SURFS
100
AcDbSpline
 62
7
  6
CONTINUOUS
 70
0
 71
3
 72
12
 73
8
 74
0
 42
0.0000001
 43
0.0000001
 44
0.0000000001
 40
0.0
 40
0.0
 40
0.0
 40
0.0
 40
0.2446053869
 40
0.500609661
 40
0.6314147539
 40
0.7589418862
 40
1.0
 40
1.0
 40
1.0
 40
1.0
 10
91.2789111016
 20
718.2991155537
 30
0.0
 10
91.3250805793
 20
718.2647089639
 30
0.0
 10
91.4121037129
 20
718.1829812165
 30
0.0
 10
91.4780635943
 20
718.0424314042
 30
0.0
 10
91.4779764554
 20
717.9193622719
 30
0.0
 10
91.442201194
 20
717.805782991
 30
0.0
 10
91.3846859655
 20
717.7363796578
 30
0.0
 10
91.3418916095
 20
717.6991155537
 30
0.0
  0
SPLINE
  5
77A
100
AcDbEntity
  8
7_ALL_FEATURES
100
AcDbSpline
 62
7
  6
CONTINUOUS
 70
0
 71
3
 72
13
 73
9
 74
0
 42
0.0000001
 43
0.0000001
 44
0.0000000001
 40
0.0
 40
0.0
 40
0.0
 40
0.0
 40
0.1147644603
 40
0.236128801
 40
0.3644631398
 40
0.4944826234
 40
0.750340274
 40
1.0
 40
1.0
 40
1.0
 40
1.0
 10
92.1762464769
 20
813.5991155537
 30
0.0
 10
92.1966363135
 20
813.6222567835
 30
0.0
 10
92.2314997979
 20
813.677888284
 30
0.0
 10
92.2383496731
 20
813.7796310686
 30
0.0
 10
92.2003689565
 20
813.8766800692
 30
0.0
 10
92.1181621771
 20
813.988717216
 30
0.0
 10
91.9860277299
 20
814.0999075036
 30
0.0
 10
91.8685911992
 20
814.168837412
 30
0.0
 10
91.8087163849
 20
814.1991155537
 30
0.0
  0
SPLINE
  5
77B
100
AcDbEntity
  8
7_ALL_FEATURES
100
AcDbSpline
 62
7
  6
CONTINUOUS
 70
0
 71
3
 72
13
 73
9
 74
0
 42
0.0000001
 43
0.0000001
 44
0.0000000001
 40
0.0
 40
0.0
 40
0.0
 40
0.0
 40
0.1147644603
 40
0.236128801
 40
0.3644631398
 40
0.4944826234
 40
0.750340274
 40
1.0
 40
1.0
 40
1.0
 40
1.0
 10
342.1762464769
 20
813.5991155537
 30
0.0
 10
342.1966363135
 20
813.6222567835
 30
0.0
 10
342.2314997979
 20
813.677888284
 30
0.0
 10
342.2383496731
 20
813.7796310686
 30
0.0
 10
342.2003689565
 20
813.8766800692
 30
0.0
 10
342.1181621771
 20
813.988717216
 30
0.0
 10
341.9860277299
 20
814.0999075036
 30
0.0
 10
341.8685911992
 20
814.168837412
 30
0.0
 10
341.8087163849
 20
814.1991155537
 30
0.0
  0
SPLINE
  5
77C
100
AcDbEntity
  8
7_ALL_FEATURES
100
AcDbSpline
 62
7
  6
CONTINUOUS
 70
0
 71
3
 72
13
 73
9
 74
0
 42
0.0000001
 43
0.0000001
 44
0.0000000001
 40
0.0
 40
0.0
 40
0.0
 40
0.0
 40
0.2496596079
 40
0.5055162628
 40
0.6355336032
 40
0.7638662119
 40
0.8852331971
 40
1.0
 40
1.0
 40
1.0
 40
1.0
 10
100.3388434038
 20
814.1991155537
 30
0.0
 10
100.278968608
 20
814.1688374213
 30
0.0
 10
100.1615323549
 20
814.0999076194
 30
0.0
 10
100.0293984313
 20
813.9887179873
 30
0.0
 10
99.9471923358
 20
813.8766820512
 30
0.0
 10
99.9092102114
 20
813.779634093
 30
0.0
 10
99.9160588983
 20
813.6778900728
 30
0.0
 10
99.9509230556
 20
813.6222572597
 30
0.0
 10
99.9713133117
 20
813.5991155537
 30
0.0
  0
SPLINE
  5
77D
100
AcDbEntity
  8
7_ALL_FEATURES
100
AcDbSpline
 62
7
  6
CONTINUOUS
 70
0
 71
3
 72
13
 73
9
 74
0
 42
0.0000001
 43
0.0000001
 44
0.0000000001
 40
0.0
 40
0.0
 40
0.0
 40
0.0
 40
0.1147644603
 40
0.236128801
 40
0.3644631398
 40
0.4944826234
 40
0.750340274
 40
1.0
 40
1.0
 40
1.0
 40
1.0
 10
592.1762464769
 20
813.5991155537
 30
0.0
 10
592.1966363135
 20
813.6222567835
 30
0.0
 10
592.2314997979
 20
813.677888284
 30
0.0
 10
592.2383496731
 20
813.7796310686
 30
0.0
 10
592.2003689565
 20
813.8766800692
 30
0.0
 10
592.1181621771
 20
813.988717216
 30
0.0
 10
591.9860277299
 20
814.0999075036
 30
0.0
 10
591.8685911992
 20
814.168837412
 30
0.0
 10
591.8087163849
 20
814.1991155537
 30
0.0
  0
SPLINE
  5
77E
100
AcDbEntity
  8
7_ALL_FEATURES
100
AcDbSpline
 62
7
  6
CONTINUOUS
 70
0
 71
3
 72
13
 73
9
 74
0
 42
0.0000001
 43
0.0000001
 44
0.0000000001
 40
0.0
 40
0.0
 40
0.0
 40
0.0
 40
0.2496596079
 40
0.5055162628
 40
0.6355336032
 40
0.7638662119
 40
0.8852331971
 40
1.0
 40
1.0
 40
1.0
 40
1.0
 10
350.3388434038
 20
814.1991155537
 30
0.0
 10
350.278968608
 20
814.1688374213
 30
0.0
 10
350.1615323549
 20
814.0999076194
 30
0.0
 10
350.0293984313
 20
813.9887179873
 30
0.0
 10
349.9471923358
 20
813.8766820512
 30
0.0
 10
349.9092102114
 20
813.779634093
 30
0.0
 10
349.9160588983
 20
813.6778900728
 30
0.0
 10
349.9509230556
 20
813.6222572597
 30
0.0
 10
349.9713133117
 20
813.5991155537
 30
0.0
  0
SPLINE
  5
77F
100
AcDbEntity
  8
7_ALL_FEATURES
100
AcDbSpline
 62
7
  6
CONTINUOUS
 70
0
 71
3
 72
13
 73
9
 74
0
 42
0.0000001
 43
0.0000001
 44
0.0000000001
 40
0.0
 40
0.0
 40
0.0
 40
0.0
 40
0.2496596079
 40
0.5055162628
 40
0.6355336032
 40
0.7638662119
 40
0.8852331971
 40
1.0
 40
1.0
 40
1.0
 40
1.0
 10
600.3388434038
 20
814.1991155537
 30
0.0
 10
600.278968608
 20
814.1688374213
 30
0.0
 10
600.1615323549
 20
814.0999076194
 30
0.0
 10
600.0293984313
 20
813.9887179873
 30
0.0
 10
599.9471923358
 20
813.8766820512
 30
0.0
 10
599.9092102114
 20
813.779634093
 30
0.0
 10
599.9160588983
 20
813.6778900728
 30
0.0
 10
599.9509230556
 20
813.6222572597
 30
0.0
 10
599.9713133117
 20
813.5991155537
 30
0.0
  0
SPLINE
  5
780
100
AcDbEntity
  8
7_ALL_FEATURES
100
AcDbSpline
 62
7
  6
CONTINUOUS
 70
0
 71
3
 72
12
 73
8
 74
0
 42
0.0000001
 43
0.0000001
 44
0.0000000001
 40
0.0
 40
0.0
 40
0.0
 40
0.0
 40
0.2446053869
 40
0.500609661
 40
0.6314147539
 40
0.7589418862
 40
1.0
 40
1.0
 40
1.0
 40
1.0
 10
91.2789111016
 20
816.5991155537
 30
0.0
 10
91.3250805793
 20
816.6335221436
 30
0.0
 10
91.4121037129
 20
816.7152498909
 30
0.0
 10
91.4780635943
 20
816.8557997033
 30
0.0
 10
91.4779764554
 20
816.9788688356
 30
0.0
 10
91.442201194
 20
817.0924481165
 30
0.0
 10
91.3846859655
 20
817.1618514497
 30
0.0
 10
91.3418916095
 20
817.1991155537
 30
0.0
  0
SPLINE
  5
781
100
AcDbEntity
  8
7_ALL_FEATURES
100
AcDbSpline
 62
7
  6
CONTINUOUS
 70
0
 71
3
 72
12
 73
8
 74
0
 42
0.0000001
 43
0.0000001
 44
0.0000000001
 40
0.0
 40
0.0
 40
0.0
 40
0.0
 40
0.2446053869
 40
0.500609661
 40
0.6314147539
 40
0.7589418862
 40
1.0
 40
1.0
 40
1.0
 40
1.0
 10
341.2789111016
 20
816.5991155537
 30
0.0
 10
341.3250805793
 20
816.6335221436
 30
0.0
 10
341.4121037129
 20
816.7152498909
 30
0.0
 10
341.4780635943
 20
816.8557997033
 30
0.0
 10
341.4779764554
 20
816.9788688356
 30
0.0
 10
341.442201194
 20
817.0924481165
 30
0.0
 10
341.3846859655
 20
817.1618514497
 30
0.0
 10
341.3418916095
 20
817.1991155537
 30
0.0
  0
SPLINE
  5
782
100
AcDbEntity
  8
7_ALL_FEATURES
100
AcDbSpline
 62
7
  6
CONTINUOUS
 70
0
 71
3
 72
12
 73
8
 74
0
 42
0.0000001
 43
0.0000001
 44
0.0000000001
 40
0.0
 40
0.0
 40
0.0
 40
0.0
 40
0.2410580895
 40
0.3685852281
 40
0.4993903505
 40
0.7553946457
 40
1.0
 40
1.0
 40
1.0
 40
1.0
 10
100.8056681791
 20
817.1991155537
 30
0.0
 10
100.7628738275
 20
817.1618514534
 30
0.0
 10
100.7053586012
 20
817.0924481253
 30
0.0
 10
100.6695833332
 20
816.9788688434
 30
0.0
 10
100.669496194
 20
816.8557996967
 30
0.0
 10
100.7354560824
 20
816.7152498818
 30
0.0
 10
100.8224792155
 20
816.633522139
 30
0.0
 10
100.8686486871
 20
816.5991155537
 30
0.0
  0
SPLINE
  5
783
100
AcDbEntity
  8
7_ALL_FEATURES
100
AcDbSpline
 62
7
  6
CONTINUOUS
 70
0
 71
3
 72
12
 73
8
 74
0
 42
0.0000001
 43
0.0000001
 44
0.0000000001
 40
0.0
 40
0.0
 40
0.0
 40
0.0
 40
0.2446053869
 40
0.500609661
 40
0.6314147539
 40
0.7589418862
 40
1.0
 40
1.0
 40
1.0
 40
1.0
 10
591.2789111016
 20
816.5991155537
 30
0.0
 10
591.3250805793
 20
816.6335221436
 30
0.0
 10
591.4121037129
 20
816.7152498909
 30
0.0
 10
591.4780635943
 20
816.8557997033
 30
0.0
 10
591.4779764554
 20
816.9788688356
 30
0.0
 10
591.442201194
 20
817.0924481165
 30
0.0
 10
591.3846859655
 20
817.1618514497
 30
0.0
 10
591.3418916095
 20
817.1991155537
 30
0.0
  0
SPLINE
  5
784
100
AcDbEntity
  8
7_ALL_FEATURES
100
AcDbSpline
 62
7
  6
CONTINUOUS
 70
0
 71
3
 72
12
 73
8
 74
0
 42
0.0000001
 43
0.0000001
 44
0.0000000001
 40
0.0
 40
0.0
 40
0.0
 40
0.0
 40
0.2410580895
 40
0.3685852281
 40
0.4993903505
 40
0.7553946457
 40
1.0
 40
1.0
 40
1.0
 40
1.0
 10
350.8056681791
 20
817.1991155537
 30
0.0
 10
350.7628738275
 20
817.1618514534
 30
0.0
 10
350.7053586012
 20
817.0924481253
 30
0.0
 10
350.6695833332
 20
816.9788688434
 30
0.0
 10
350.669496194
 20
816.8557996967
 30
0.0
 10
350.7354560824
 20
816.7152498818
 30
0.0
 10
350.8224792155
 20
816.633522139
 30
0.0
 10
350.8686486871
 20
816.5991155537
 30
0.0
  0
SPLINE
  5
785
100
AcDbEntity
  8
7_ALL_FEATURES
100
AcDbSpline
 62
7
  6
CONTINUOUS
 70
0
 71
3
 72
12
 73
8
 74
0
 42
0.0000001
 43
0.0000001
 44
0.0000000001
 40
0.0
 40
0.0
 40
0.0
 40
0.0
 40
0.2410580895
 40
0.3685852281
 40
0.4993903505
 40
0.7553946457
 40
1.0
 40
1.0
 40
1.0
 40
1.0
 10
600.8056681791
 20
817.1991155537
 30
0.0
 10
600.7628738275
 20
817.1618514534
 30
0.0
 10
600.7053586012
 20
817.0924481253
 30
0.0
 10
600.6695833332
 20
816.9788688434
 30
0.0
 10
600.669496194
 20
816.8557996967
 30
0.0
 10
600.7354560824
 20
816.7152498818
 30
0.0
 10
600.8224792155
 20
816.633522139
 30
0.0
 10
600.8686486871
 20
816.5991155537
 30
0.0
  0
SPLINE
  5
786
100
AcDbEntity
  8
6_ALL_SURFS
100
AcDbSpline
 62
7
  6
CONTINUOUS
 70
0
 71
3
 72
13
 73
9
 74
0
 42
0.0000001
 43
0.0000001
 44
0.0000000001
 40
0.0
 40
0.0
 40
0.0
 40
0.0
 40
0.2496596079
 40
0.5055162628
 40
0.6355336032
 40
0.7638662119
 40
0.8852331971
 40
1.0
 40
1.0
 40
1.0
 40
1.0
 10
600.3388434038
 20
720.6991155537
 30
0.0
 10
600.278968608
 20
720.7293936861
 30
0.0
 10
600.1615323549
 20
720.7983234881
 30
0.0
 10
600.0293984313
 20
720.9095131202
 30
0.0
 10
599.9471923358
 20
721.0215490562
 30
0.0
 10
599.9092102114
 20
721.1185970145
 30
0.0
 10
599.9160588983
 20
721.2203410347
 30
0.0
 10
599.9509230556
 20
721.2759738478
 30
0.0
 10
599.9713133117
 20
721.2991155537
 30
0.0
  0
SPLINE
  5
787
100
AcDbEntity
  8
6_ALL_SURFS
100
AcDbSpline
 62
7
  6
CONTINUOUS
 70
0
 71
3
 72
13
 73
9
 74
0
 42
0.0000001
 43
0.0000001
 44
0.0000000001
 40
0.0
 40
0.0
 40
0.0
 40
0.0
 40
0.2496596079
 40
0.5055162628
 40
0.6355336032
 40
0.7638662119
 40
0.8852331971
 40
1.0
 40
1.0
 40
1.0
 40
1.0
 10
350.3388434038
 20
720.6991155537
 30
0.0
 10
350.278968608
 20
720.7293936861
 30
0.0
 10
350.1615323549
 20
720.7983234881
 30
0.0
 10
350.0293984313
 20
720.9095131202
 30
0.0
 10
349.9471923358
 20
721.0215490562
 30
0.0
 10
349.9092102114
 20
721.1185970145
 30
0.0
 10
349.9160588983
 20
721.2203410347
 30
0.0
 10
349.9509230556
 20
721.2759738478
 30
0.0
 10
349.9713133117
 20
721.2991155537
 30
0.0
  0
SPLINE
  5
788
100
AcDbEntity
  8
6_ALL_SURFS
100
AcDbSpline
 62
7
  6
CONTINUOUS
 70
0
 71
3
 72
13
 73
9
 74
0
 42
0.0000001
 43
0.0000001
 44
0.0000000001
 40
0.0
 40
0.0
 40
0.0
 40
0.0
 40
0.1147644603
 40
0.236128801
 40
0.3644631398
 40
0.4944826234
 40
0.750340274
 40
1.0
 40
1.0
 40
1.0
 40
1.0
 10
592.1762464769
 20
721.2991155537
 30
0.0
 10
592.1966363135
 20
721.275974324
 30
0.0
 10
592.2314997979
 20
721.2203428235
 30
0.0
 10
592.2383496731
 20
721.1186000389
 30
0.0
 10
592.2003689565
 20
721.0215510383
 30
0.0
 10
592.1181621771
 20
720.9095138915
 30
0.0
 10
591.9860277299
 20
720.7983236039
 30
0.0
 10
591.8685911992
 20
720.7293936955
 30
0.0
 10
591.8087163849
 20
720.6991155537
 30
0.0
  0
SPLINE
  5
789
100
AcDbEntity
  8
6_ALL_SURFS
100
AcDbSpline
 62
7
  6
CONTINUOUS
 70
0
 71
3
 72
13
 73
9
 74
0
 42
0.0000001
 43
0.0000001
 44
0.0000000001
 40
0.0
 40
0.0
 40
0.0
 40
0.0
 40
0.2496596079
 40
0.5055162628
 40
0.6355336032
 40
0.7638662119
 40
0.8852331971
 40
1.0
 40
1.0
 40
1.0
 40
1.0
 10
100.3388434038
 20
720.6991155537
 30
0.0
 10
100.278968608
 20
720.7293936861
 30
0.0
 10
100.1615323549
 20
720.7983234881
 30
0.0
 10
100.0293984313
 20
720.9095131202
 30
0.0
 10
99.9471923358
 20
721.0215490562
 30
0.0
 10
99.9092102114
 20
721.1185970145
 30
0.0
 10
99.9160588983
 20
721.2203410347
 30
0.0
 10
99.9509230556
 20
721.2759738478
 30
0.0
 10
99.9713133117
 20
721.2991155537
 30
0.0
  0
SPLINE
  5
78A
100
AcDbEntity
  8
6_ALL_SURFS
100
AcDbSpline
 62
7
  6
CONTINUOUS
 70
0
 71
3
 72
13
 73
9
 74
0
 42
0.0000001
 43
0.0000001
 44
0.0000000001
 40
0.0
 40
0.0
 40
0.0
 40
0.0
 40
0.1147644603
 40
0.236128801
 40
0.3644631398
 40
0.4944826234
 40
0.750340274
 40
1.0
 40
1.0
 40
1.0
 40
1.0
 10
342.1762464769
 20
721.2991155537
 30
0.0
 10
342.1966363135
 20
721.275974324
 30
0.0
 10
342.2314997979
 20
721.2203428235
 30
0.0
 10
342.2383496731
 20
721.1186000389
 30
0.0
 10
342.2003689565
 20
721.0215510383
 30
0.0
 10
342.1181621771
 20
720.9095138915
 30
0.0
 10
341.9860277299
 20
720.7983236039
 30
0.0
 10
341.8685911992
 20
720.7293936955
 30
0.0
 10
341.8087163849
 20
720.6991155537
 30
0.0
  0
SPLINE
  5
78B
100
AcDbEntity
  8
6_ALL_SURFS
100
AcDbSpline
 62
7
  6
CONTINUOUS
 70
0
 71
3
 72
13
 73
9
 74
0
 42
0.0000001
 43
0.0000001
 44
0.0000000001
 40
0.0
 40
0.0
 40
0.0
 40
0.0
 40
0.1147644603
 40
0.236128801
 40
0.3644631398
 40
0.4944826234
 40
0.750340274
 40
1.0
 40
1.0
 40
1.0
 40
1.0
 10
92.1762464769
 20
721.2991155537
 30
0.0
 10
92.1966363135
 20
721.275974324
 30
0.0
 10
92.2314997979
 20
721.2203428235
 30
0.0
 10
92.2383496731
 20
721.1186000389
 30
0.0
 10
92.2003689565
 20
721.0215510383
 30
0.0
 10
92.1181621771
 20
720.9095138915
 30
0.0
 10
91.9860277299
 20
720.7983236039
 30
0.0
 10
91.8685911992
 20
720.7293936955
 30
0.0
 10
91.8087163849
 20
720.6991155537
 30
0.0
  0
ELLIPSE
  5
78C
100
AcDbEntity
  8
7_ALL_FEATURES
100
AcDbEllipse
 62
7
  6
CONTINUOUS
 10
596.0737798943
 20
580.6915951455
 30
0.0
 11
5.4882058378
 21
0.0
 31
0.0
 40
0.1015346165
 41
7.212646077
 42
8.495317191
  0
ELLIPSE
  5
78D
100
AcDbEntity
  8
7_ALL_FEATURES
100
AcDbEllipse
 62
7
  6
CONTINUOUS
 10
346.0737798943
 20
580.6915951455
 30
0.0
 11
5.4882058378
 21
-0.0
 31
0.0
 40
0.1015346165
 41
7.212646077
 42
8.495317191
  0
ELLIPSE
  5
78E
100
AcDbEntity
  8
7_ALL_FEATURES
100
AcDbEllipse
 62
7
  6
CONTINUOUS
 10
96.0737798943
 20
580.6915951455
 30
0.0
 11
5.4882058378
 21
-0.0
 31
0.0
 40
0.1015346165
 41
7.212646077
 42
8.495317191
  0
ELLIPSE
  5
78F
100
AcDbEntity
  8
6_ALL_SURFS
100
AcDbEllipse
 62
7
  6
CONTINUOUS
 10
612.6272625971
 20
564.1381124426
 30
0.0
 11
-0.0
 21
5.4882058378
 31
0.0
 40
0.1015346165
 41
-2.2121318838
 42
-0.9294607698
  0
ELLIPSE
  5
790
100
AcDbEntity
  8
6_ALL_SURFS
100
AcDbEllipse
 62
7
  6
CONTINUOUS
 10
612.6272625971
 20
314.1381124426
 30
0.0
 11
0.0
 21
5.4882058378
 31
0.0
 40
0.1015346165
 41
-2.2121318838
 42
-0.9294607698
  0
ELLIPSE
  5
791
100
AcDbEntity
  8
6_ALL_SURFS
100
AcDbEllipse
 62
7
  6
CONTINUOUS
 10
612.6272625971
 20
64.1381124426
 30
0.0
 11
0.0
 21
5.4882058378
 31
0.0
 40
0.1015346165
 41
-2.2121318838
 42
-0.9294607698
  0
ELLIPSE
  5
792
100
AcDbEntity
  8
6_ALL_SURFS
100
AcDbEllipse
 62
7
  6
CONTINUOUS
 10
930.9520649314
 20
564.1381124426
 30
0.0
 11
5.5724287509
 21
-0.0
 31
0.0
 40
0.9848857802
 41
-0.641335557
 42
0.641335557
  0
ELLIPSE
  5
793
100
AcDbEntity
  8
6_ALL_SURFS
100
AcDbEllipse
 62
7
  6
CONTINUOUS
 10
930.9520649314
 20
314.1381124426
 30
0.0
 11
5.5724287509
 21
-0.0
 31
0.0
 40
0.9848857802
 41
-0.641335557
 42
0.641335557
  0
ELLIPSE
  5
794
100
AcDbEntity
  8
6_ALL_SURFS
100
AcDbEllipse
 62
7
  6
CONTINUOUS
 10
930.9520649314
 20
64.1381124426
 30
0.0
 11
5.5724287509
 21
-0.0
 31
0.0
 40
0.9848857802
 41
-0.641335557
 42
0.641335557
  0
ELLIPSE
  5
795
100
AcDbEntity
  8
7_ALL_FEATURES
100
AcDbEllipse
 62
7
  6
CONTINUOUS
 10
834.982410875
 20
564.1381124426
 30
0.0
 11
5.5724287509
 21
0.0
 31
0.0
 40
0.9848857802
 41
2.5002570966
 42
3.7829282106
  0
ELLIPSE
  5
796
100
AcDbEntity
  8
7_ALL_FEATURES
100
AcDbEllipse
 62
7
  6
CONTINUOUS
 10
834.982410875
 20
314.1381124426
 30
0.0
 11
5.5724287509
 21
-0.0
 31
0.0
 40
0.9848857802
 41
2.5002570966
 42
3.7829282106
  0
ELLIPSE
  5
797
100
AcDbEntity
  8
7_ALL_FEATURES
100
AcDbEllipse
 62
7
  6
CONTINUOUS
 10
834.982410875
 20
64.1381124426
 30
0.0
 11
5.5724287509
 21
-0.0
 31
0.0
 40
0.9848857802
 41
2.5002570966
 42
3.7829282106
  0
ELLIPSE
  5
798
100
AcDbEntity
  8
6_ALL_SURFS
100
AcDbEllipse
 62
7
  6
CONTINUOUS
 10
596.0737798943
 20
719.4642885255
 30
0.0
 11
-0.0
 21
5.5724287509
 31
0.0
 40
0.9848857802
 41
-3.7829282106
 42
-2.5002570966
  0
ELLIPSE
  5
799
100
AcDbEntity
  8
6_ALL_SURFS
100
AcDbEllipse
 62
7
  6
CONTINUOUS
 10
346.0737798943
 20
719.4642885255
 30
0.0
 11
0.0
 21
5.5724287509
 31
0.0
 40
0.9848857802
 41
-3.7829282106
 42
-2.5002570966
  0
ELLIPSE
  5
79A
100
AcDbEntity
  8
6_ALL_SURFS
100
AcDbEllipse
 62
7
  6
CONTINUOUS
 10
96.0737798943
 20
719.4642885255
 30
0.0
 11
0.0
 21
5.5724287509
 31
0.0
 40
0.9848857802
 41
-3.7829282106
 42
-2.5002570966
  0
ELLIPSE
  5
79B
100
AcDbEntity
  8
7_ALL_FEATURES
100
AcDbEllipse
 62
7
  6
CONTINUOUS
 10
596.0737798943
 20
815.4339425819
 30
0.0
 11
0.0
 21
5.5724287509
 31
0.0
 40
0.9848857802
 41
5.6418497502
 42
6.9245208642
  0
ELLIPSE
  5
79C
100
AcDbEntity
  8
7_ALL_FEATURES
100
AcDbEllipse
 62
7
  6
CONTINUOUS
 10
346.0737798943
 20
815.4339425819
 30
0.0
 11
0.0
 21
5.5724287509
 31
0.0
 40
0.9848857802
 41
5.6418497502
 42
6.9245208642
  0
ELLIPSE
  5
79D
100
AcDbEntity
  8
7_ALL_FEATURES
100
AcDbEllipse
 62
7
  6
CONTINUOUS
 10
96.0737798943
 20
815.4339425819
 30
0.0
 11
0.0
 21
5.5724287509
 31
0.0
 40
0.9848857802
 41
5.6418497502
 42
6.9245208642
  0
ENDSEC
  0
SECTION
  2
OBJECTS
  0
DICTIONARY
  5
79E
100
AcDbDictionary
  3
ACAD_GROUP
350
79F
  3
ACAD_MLINESTYLE
350
7A0
  0
DICTIONARY
  5
79F
102
{ACAD_REACTORS
330
79E
102
}
100
AcDbDictionary
  0
DICTIONARY
  5
7A0
102
{ACAD_REACTORS
330
79E
102
}
100
AcDbDictionary
  3
STANDARD
350
7A1
  0
MLINESTYLE
  5
7A1
102
{ACAD_REACTORS
330
7A0
102
}
100
AcDbMlineStyle
  2
STANDARD
 70
0
  3

 62
256
 51
90.0
 52
90.0
 71
2
 49
0.5
 62
256
  6
BYLAYER
 49
-0.5
 62
256
  6
BYLAYER
  0
ENDSEC
  0
EOF
