999
DXF file: 6f4_c_400.dxf
999
Pro/ENGINEER 2016360 by Parametric Technology Corporation
  0
SECTION
  2
HEADER
  9
$ACADVER
  1
AC1014
  9
$DWGCODEPAGE
  3
ANSI_1252
  9
$EXTMAX
 10
1189.0
 20
841.0
 30
0.0
  9
$EXTMIN
 10
0.0
 20
0.0
 30
0.0
  9
$LIMMIN
 10
0.0
 20
0.0
  9
$LIMMAX
 10
1189.0
 20
841.0
  9
$VIEWCTR
 10
594.5
 20
420.5
  9
$VIEWSIZE
 40
841.0
  9
$CLAYER
  8
0
  9
$LTSCALE
 40
65.395
  9
$CELTYPE
  6
BYLAYER
  9
$DIMSCALE
 40
1.0
  9
$DIMASZ
 40
2.5
  9
$DIMEXO
 40
0.75
  9
$DIMDLI
 40
45.182
  9
$DIMEXE
 40
0.75
  9
$DIMCEN
 40
10.701
  9
$DIMLFAC
 40
1.0
  9
$DIMBLK
  1
_CLOSED
  9
$DIMALT
 70
0
  9
$DIMALTF
 40
25.4
  9
$DIMTXT
 40
3.0
  9
$DIMTOL
 70
1
  9
$DIMLIM
 70
0
  9
$DIMTFAC
 40
1.0
  9
$DIMTP
 40
0.01
  9
$DIMTM
 40
0.01
  9
$DIMGAP
 40
0.625
  9
$AUNITS
 70
0
  9
$PDMODE
 70
3
  9
$PDSIZE
 40
0.3125
  9
$HANDSEED
  5
642
  9
$TILEMODE
 70
1
  9
$MEASUREMENT
 70
1
  0
ENDSEC
  0
SECTION
  2
CLASSES
  0
ENDSEC
  0
SECTION
  2
TABLES
  0
TABLE
  2
VPORT
  5
8
100
AcDbSymbolTable
 70
2
  0
VPORT
  5
1F4
100
AcDbSymbolTableRecord
100
AcDbViewportTableRecord
  2
*ACTIVE
 70
0
 10
0.0
 20
0.0
 11
1.0
 21
1.0
 12
594.5
 22
420.5
 13
0.0
 23
0.0
 14
1.0
 24
1.0
 15
0.0
 25
0.0
 16
0.0
 26
0.0
 36
1.0
 17
0.0
 27
0.0
 37
0.0
 40
841.0
 41
1.4137931034
 42
50.0
 43
0.0
 44
0.0
 50
0.0
 51
0.0
 71
0
 72
100
 73
1
 74
1
 75
0
 76
0
 77
0
 78
0
  0
ENDTAB
  0
TABLE
  2
LTYPE
  5
5
100
AcDbSymbolTable
 70
6
  0
LTYPE
  5
14
100
AcDbSymbolTableRecord
100
AcDbLinetypeTableRecord
  2
BYBLOCK
 70
0
  3

 72
65
 73
0
 40
0.0
  0
LTYPE
  5
15
100
AcDbSymbolTableRecord
100
AcDbLinetypeTableRecord
  2
BYLAYER
 70
0
  3

 72
65
 73
0
 40
0.0
  0
LTYPE
  5
16
100
AcDbSymbolTableRecord
100
AcDbLinetypeTableRecord
  2
CONTINUOUS
 70
64
  3
Solid line
 72
65
 73
0
 40
0.0
  0
LTYPE
  5
1F5
100
AcDbSymbolTableRecord
100
AcDbLinetypeTableRecord
  2
CENTER
 70
64
  3
____ _ ____ _ ____ _ ____ _ ____ _ ____ _ ____
 72
65
 73
4
 40
0.6
 49
0.375
 74
0
 49
-0.075
 74
0
 49
0.075
 74
0
 49
-0.075
 74
0
  0
LTYPE
  5
1F6
100
AcDbSymbolTableRecord
100
AcDbLinetypeTableRecord
  2
HIDDEN
 70
64
  3
- - - - - - - - - - - - - - - - - - - -
 72
65
 73
2
 40
0.2
 49
0.1
 74
0
 49
-0.1
 74
0
  0
LTYPE
  5
1F7
100
AcDbSymbolTableRecord
100
AcDbLinetypeTableRecord
  2
PHANTOM
 70
64
  3
_____ _ _ _____ _ _ _____ _ _ _____
 72
65
 73
6
 40
0.8
 49
0.45
 74
0
 49
-0.05
 74
0
 49
0.1
 74
0
 49
-0.05
 74
0
 49
0.1
 74
0
 49
-0.05
 74
0
  0
LTYPE
  5
1F8
100
AcDbSymbolTableRecord
100
AcDbLinetypeTableRecord
  2
DOT
 70
64
  3
. . . . . . . . . . . . . . . . . . . .
 72
65
 73
2
 40
0.2
 49
0.1
 74
0
 49
-0.1
 74
0
  0
LTYPE
  5
1F9
100
AcDbSymbolTableRecord
100
AcDbLinetypeTableRecord
  2
DASHED
 70
64
  3
- - - - - - - - - - - - - - - - - - - -
 72
65
 73
2
 40
0.2
 49
0.1
 74
0
 49
-0.1
 74
0
  0
ENDTAB
  0
TABLE
  2
LAYER
  5
2
100
AcDbSymbolTable
 70
36
  0
LAYER
  5
10
100
AcDbSymbolTableRecord
100
AcDbLayerTableRecord
  2
0
 70
0
 62
7
  6
CONTINUOUS
  0
LAYER
  5
1FA
100
AcDbSymbolTableRecord
100
AcDbLayerTableRecord
  2
DEFAULT_1
 70
0
 62
7
  6
CENTER
  0
LAYER
  5
1FB
100
AcDbSymbolTableRecord
100
AcDbLayerTableRecord
  2
DEFAULT_2
 70
0
 62
8
  6
HIDDEN
  0
LAYER
  5
1FC
100
AcDbSymbolTableRecord
100
AcDbLayerTableRecord
  2
DEFAULT_3
 70
0
 62
7
  6
PHANTOM
  0
LAYER
  5
1FD
100
AcDbSymbolTableRecord
100
AcDbLayerTableRecord
  2
1_ALL_PLANES
 70
0
 62
7
  6
CONTINUOUS
  0
LAYER
  5
1FE
100
AcDbSymbolTableRecord
100
AcDbLayerTableRecord
  2
2_ALL_CSYS
 70
0
 62
7
  6
CONTINUOUS
  0
LAYER
  5
1FF
100
AcDbSymbolTableRecord
100
AcDbLayerTableRecord
  2
3_ALL_AXES
 70
0
 62
7
  6
CONTINUOUS
  0
LAYER
  5
200
100
AcDbSymbolTableRecord
100
AcDbLayerTableRecord
  2
4_ALL_POINTS
 70
0
 62
7
  6
CONTINUOUS
  0
LAYER
  5
201
100
AcDbSymbolTableRecord
100
AcDbLayerTableRecord
  2
5_ALL_CURVES
 70
0
 62
7
  6
CONTINUOUS
  0
LAYER
  5
202
100
AcDbSymbolTableRecord
100
AcDbLayerTableRecord
  2
5__COSTRUZIONE
 70
0
 62
7
  6
CONTINUOUS
  0
LAYER
  5
203
100
AcDbSymbolTableRecord
100
AcDbLayerTableRecord
  2
6_ALL_SURFS
 70
0
 62
7
  6
CONTINUOUS
  0
LAYER
  5
204
100
AcDbSymbolTableRecord
100
AcDbLayerTableRecord
  2
7_ALL_FEATURES
 70
0
 62
7
  6
CONTINUOUS
  0
LAYER
  5
205
100
AcDbSymbolTableRecord
100
AcDbLayerTableRecord
  2
9_SOLID
 70
0
 62
7
  6
CONTINUOUS
  0
LAYER
  5
206
100
AcDbSymbolTableRecord
100
AcDbLayerTableRecord
  2
PR9036
 70
0
 62
7
  6
CONTINUOUS
  0
LAYER
  5
207
100
AcDbSymbolTableRecord
100
AcDbLayerTableRecord
  2
WHITE
 70
0
 62
7
  6
CONTINUOUS
  0
LAYER
  5
208
100
AcDbSymbolTableRecord
100
AcDbLayerTableRecord
  2
XXX_SOLIDO
 70
0
 62
7
  6
CONTINUOUS
  0
ENDTAB
  0
TABLE
  2
STYLE
  5
3
100
AcDbSymbolTable
 70
1
  0
STYLE
  5
11
100
AcDbSymbolTableRecord
100
AcDbTextStyleTableRecord
  2
STANDARD
 70
0
 40
0.0
 41
1.0
 50
0.0
 71
0
 42
0.2
  3
arial.ttf
  4

  0
STYLE
  5
209
100
AcDbSymbolTableRecord
100
AcDbTextStyleTableRecord
  2
TEXTSTYLE_1
 70
0
 40
0.0
 41
0.8
 50
0.0
 71
0
 42
0.2
  3
gdt
  4

  0
STYLE
  5
20A
100
AcDbSymbolTableRecord
100
AcDbTextStyleTableRecord
  2
TEXTSTYLE_2
 70
0
 40
0.0
 41
0.85
 50
0.0
 71
0
 42
0.2
  3
txt
  4

  0
ENDTAB
  0
TABLE
  2
VIEW
  5
6
100
AcDbSymbolTable
 70
0
  0
ENDTAB
  0
TABLE
  2
UCS
  5
7
100
AcDbSymbolTable
 70
0
  0
ENDTAB
  0
TABLE
  2
APPID
  5
9
100
AcDbSymbolTable
 70
1
  0
APPID
  5
20B
100
AcDbSymbolTableRecord
100
AcDbRegAppTableRecord
  2
ACAD
 70
0
  0
ENDTAB
  0
TABLE
  2
BLOCK_RECORD
  5
1
100
AcDbSymbolTable
 70
0
  0
BLOCK_RECORD
  5
1F
100
AcDbSymbolTableRecord
100
AcDbBlockTableRecord
  2
*MODEL_SPACE
  0
BLOCK_RECORD
  5
1B
100
AcDbSymbolTableRecord
100
AcDbBlockTableRecord
  2
*PAPER_SPACE
  0
BLOCK_RECORD
  5
20C
100
AcDbSymbolTableRecord
100
AcDbBlockTableRecord
  2
_CLOSED
  0
BLOCK_RECORD
  5
20D
100
AcDbSymbolTableRecord
100
AcDbBlockTableRecord
  2
*D0
  0
BLOCK_RECORD
  5
20E
100
AcDbSymbolTableRecord
100
AcDbBlockTableRecord
  2
*D1
  0
BLOCK_RECORD
  5
20F
100
AcDbSymbolTableRecord
100
AcDbBlockTableRecord
  2
*D2
  0
BLOCK_RECORD
  5
210
100
AcDbSymbolTableRecord
100
AcDbBlockTableRecord
  2
LOGO2_BL0
  0
ENDTAB
  0
TABLE
  2
DIMSTYLE
  5
A
100
AcDbSymbolTable
 70
1
  0
DIMSTYLE
105
211
100
AcDbSymbolTableRecord
100
AcDbDimStyleTableRecord
  2
STANDARD
 70
0
  3

  4

  5
_CLOSED
  6
_CLOSED
  7
_CLOSED
 40
1.0
 41
2.5
 42
0.75
 43
0.38
 44
0.75
 45
0.0
 46
0.0
 47
0.01
 48
0.01
140
3.0
141
0.09
142
0.0
143
25.4
144
1.0
145
0.0
146
1.0
147
0.625
 71
1.0
 72
0.0
 73
0
 74
0
 75
0
 76
0
 77
1
 78
8
 79
2
170
0
171
1
172
0
173
0
174
0
175
0
176
0
177
0
178
0
270
2
179
2
271
2
272
2
273
2
274
2
275
0
280
0
281
0
282
0
283
1
284
8
285
0
286
0
287
3
288
0
340
11
  0
DIMSTYLE
105
212
100
AcDbSymbolTableRecord
100
AcDbDimStyleTableRecord
  2
DIMSTYLE_1
 70
0
  3

  4

  5
_CLOSED
  6
_CLOSED
  7
_CLOSED
 40
1.0
 41
2.5
 42
0.75
 43
0.38
 44
0.75
 45
0.0
 46
0.0
 47
0.8
 48
0.8
140
10.0
141
0.09
142
0.0
143
25.4
144
1.0
145
0.0
146
1.0
147
2.5
 71
0.0
 72
0.0
 73
0
 74
0
 75
0
 76
0
 77
1
 78
8
 79
2
170
0
171
1
172
0
173
0
174
0
175
0
176
0
177
0
178
0
270
2
179
2
271
2
272
2
273
2
274
2
275
0
280
0
281
0
282
0
283
1
284
8
285
0
286
0
287
3
288
0
340
11
  0
DIMSTYLE
105
213
100
AcDbSymbolTableRecord
100
AcDbDimStyleTableRecord
  2
DIMSTYLE_2
 70
0
  3

  4

  5
_CLOSED
  6
_CLOSED
  7
_CLOSED
 40
1.0
 41
2.5
 42
0.75
 43
0.38
 44
0.75
 45
0.0
 46
0.0
 47
0.3
 48
0.3
140
10.0
141
0.09
142
0.0
143
25.4
144
1.0
145
0.0
146
1.0
147
2.5
 71
0.0
 72
0.0
 73
0
 74
0
 75
0
 76
0
 77
1
 78
8
 79
2
170
0
171
1
172
0
173
0
174
0
175
0
176
0
177
0
178
0
270
2
179
2
271
2
272
2
273
2
274
2
275
0
280
0
281
0
282
0
283
1
284
8
285
0
286
0
287
3
288
0
340
11
  0
ENDTAB
  0
ENDSEC
  0
SECTION
  2
BLOCKS
  0
BLOCK
  5
20
100
AcDbEntity
  8
0
100
AcDbBlockBegin
  2
*MODEL_SPACE
 70
0
 10
0.0
 20
0.0
 30
0.0
  3
*MODEL_SPACE
  1

  0
ENDBLK
  5
21
100
AcDbEntity
  8
0
100
AcDbBlockEnd
  0
BLOCK
  5
1C
100
AcDbEntity
  8
0
100
AcDbBlockBegin
  2
*PAPER_SPACE
 70
0
 10
0.0
 20
0.0
 30
0.0
  3
*PAPER_SPACE
  1

  0
ENDBLK
  5
1D
100
AcDbEntity
  8
0
100
AcDbBlockEnd
  0
BLOCK
  5
214
100
AcDbEntity
  8
0
100
AcDbBlockBegin
 62
2
  6
CONTINUOUS
  2
LOGO2_BL0
 70
64
 10
1078.5827925652
 20
44.4783824893
  3
LOGO2_BL0
  1

  0
LINE
  5
215
100
AcDbEntity
  8
0
100
AcDbLine
 62
7
  6
CONTINUOUS
 10
1070.3257177934
 20
47.6738738281
 11
1069.021376864
 21
47.6738738281
  0
LINE
  5
216
100
AcDbEntity
  8
0
100
AcDbLine
 62
7
  6
CONTINUOUS
 10
1069.021376864
 20
47.6738738281
 11
1069.021376864
 21
37.2148077683
  0
LINE
  5
217
100
AcDbEntity
  8
0
100
AcDbLine
 62
7
  6
CONTINUOUS
 10
1069.021376864
 20
37.2148077683
 11
1073.5024317523
 21
37.2148077683
  0
LINE
  5
218
100
AcDbEntity
  8
0
100
AcDbLine
 62
7
  6
CONTINUOUS
 10
1073.5024317523
 20
37.2148077683
 11
1073.5024317523
 21
38.4076620933
  0
LINE
  5
219
100
AcDbEntity
  8
0
100
AcDbLine
 62
7
  6
CONTINUOUS
 10
1073.5024317523
 20
38.4076620933
 11
1070.3257177934
 21
38.4076620933
  0
LINE
  5
21A
100
AcDbEntity
  8
0
100
AcDbLine
 62
7
  6
CONTINUOUS
 10
1070.3257177934
 20
38.4076620933
 11
1070.3257177934
 21
47.6738738281
  0
LINE
  5
21B
100
AcDbEntity
  8
0
100
AcDbLine
 62
7
  6
CONTINUOUS
 10
1085.2620440097
 20
47.6738738281
 11
1083.9582264916
 21
47.6738738281
  0
LINE
  5
21C
100
AcDbEntity
  8
0
100
AcDbLine
 62
7
  6
CONTINUOUS
 10
1083.9582264916
 20
47.6738738281
 11
1083.9582264916
 21
37.2148077683
  0
LINE
  5
21D
100
AcDbEntity
  8
0
100
AcDbLine
 62
7
  6
CONTINUOUS
 10
1083.9582264916
 20
37.2148077683
 11
1088.4394122327
 21
37.2148077683
  0
LINE
  5
21E
100
AcDbEntity
  8
0
100
AcDbLine
 62
7
  6
CONTINUOUS
 10
1088.4394122327
 20
37.2148077683
 11
1088.4394122327
 21
38.4076620933
  0
LINE
  5
21F
100
AcDbEntity
  8
0
100
AcDbLine
 62
7
  6
CONTINUOUS
 10
1088.4394122327
 20
38.4076620933
 11
1085.2620440097
 21
38.4076620933
  0
LINE
  5
220
100
AcDbEntity
  8
0
100
AcDbLine
 62
7
  6
CONTINUOUS
 10
1085.2620440097
 20
38.4076620933
 11
1085.2620440097
 21
47.6738738281
  0
LWPOLYLINE
  5
221
100
AcDbEntity
  8
0
100
AcDbPolyline
 62
7
  6
CONTINUOUS
 90
2
 70
0
 43
0.2
 10
1067.375771775
 20
33.8712564614
 10
1067.375771775
 20
32.014193212
  0
LWPOLYLINE
  5
222
100
AcDbEntity
  8
0
100
AcDbPolyline
 62
7
  6
CONTINUOUS
 90
2
 70
0
 43
0.2
 10
1067.375771775
 20
32.014193212
 10
1068.1714877853
 20
32.014193212
  0
LWPOLYLINE
  5
223
100
AcDbEntity
  8
0
100
AcDbPolyline
 62
7
  6
CONTINUOUS
 90
2
 70
0
 43
0.2
 10
1068.1714877853
 20
32.014193212
 10
1068.1714877853
 20
32.2261747836
  0
LWPOLYLINE
  5
224
100
AcDbEntity
  8
0
100
AcDbPolyline
 62
7
  6
CONTINUOUS
 90
2
 70
0
 43
0.2
 10
1068.1714877853
 20
32.2261747836
 10
1067.6073812698
 20
32.2261747836
  0
LWPOLYLINE
  5
225
100
AcDbEntity
  8
0
100
AcDbPolyline
 62
7
  6
CONTINUOUS
 90
2
 70
0
 43
0.2
 10
1067.6073812698
 20
32.2261747836
 10
1067.6073812698
 20
33.8712564614
  0
LWPOLYLINE
  5
226
100
AcDbEntity
  8
0
100
AcDbPolyline
 62
7
  6
CONTINUOUS
 90
2
 70
0
 43
0.2
 10
1067.6073812698
 20
33.8712564614
 10
1067.375771775
 20
33.8712564614
  0
SPLINE
  5
227
100
AcDbEntity
  8
0
100
AcDbSpline
 62
7
  6
CONTINUOUS
 70
2
 71
3
 72
35
 73
31
 74
0
 42
0.0000001
 43
0.0000001
 44
0.0000000001
 40
0.0
 40
0.0
 40
0.0
 40
0.0
 40
1.0
 40
1.0
 40
1.0
 40
2.0
 40
2.0
 40
2.0
 40
3.0
 40
3.0
 40
3.0
 40
4.0
 40
4.0
 40
4.0
 40
5.0
 40
5.0
 40
5.0
 40
6.0
 40
6.0
 40
6.0
 40
7.0
 40
7.0
 40
7.0
 40
8.0
 40
8.0
 40
8.0
 40
9.0
 40
9.0
 40
9.0
 40
10.0
 40
10.0
 40
10.0
 40
10.0
 10
1069.5697810409
 20
33.1667448679
 30
0.0
 10
1069.5697810409
 20
33.1667448679
 30
0.0
 10
1069.5697810409
 20
32.5046295887
 30
0.0
 10
1069.5697810409
 20
32.5046295887
 30
0.0
 10
1069.5697810409
 20
32.1895359934
 30
0.0
 10
1069.7176447297
 20
31.9749373654
 30
0.0
 10
1070.057731214
 20
31.9749373654
 30
0.0
 10
1070.397294287
 20
31.9749373654
 30
0.0
 10
1070.5454196815
 20
32.1895359934
 30
0.0
 10
1070.5454196815
 20
32.5046295887
 30
0.0
 10
1070.5454196815
 20
32.5046295887
 30
0.0
 10
1070.5454196815
 20
33.1667448679
 30
0.0
 10
1070.5454196815
 20
33.1667448679
 30
0.0
 10
1070.5454196815
 20
33.1667448679
 30
0.0
 10
1070.3233624426
 20
33.1667448679
 30
0.0
 10
1070.3233624426
 20
33.1667448679
 30
0.0
 10
1070.3233624426
 20
33.1667448679
 30
0.0
 10
1070.3233624426
 20
32.5297533306
 30
0.0
 10
1070.3233624426
 20
32.5297533306
 30
0.0
 10
1070.3233624426
 20
32.3439423234
 30
0.0
 10
1070.2766479852
 20
32.1811614128
 30
0.0
 10
1070.057731214
 20
32.1811614128
 30
0.0
 10
1069.8382910316
 20
32.1811614128
 30
0.0
 10
1069.7915765741
 20
32.3439423234
 30
0.0
 10
1069.7915765741
 20
32.5297533306
 30
0.0
 10
1069.7915765741
 20
32.5297533306
 30
0.0
 10
1069.7915765741
 20
33.1667448679
 30
0.0
 10
1069.7915765741
 20
33.1667448679
 30
0.0
 10
1069.7915765741
 20
33.1667448679
 30
0.0
 10
1069.5697810409
 20
33.1667448679
 30
0.0
 10
1069.5697810409
 20
33.1667448679
 30
0.0
  0
SPLINE
  5
228
100
AcDbEntity
  8
0
100
AcDbSpline
 62
7
  6
CONTINUOUS
 70
2
 71
3
 72
35
 73
31
 74
0
 42
0.0000001
 43
0.0000001
 44
0.0000000001
 40
0.0
 40
0.0
 40
0.0
 40
0.0
 40
1.0
 40
1.0
 40
1.0
 40
2.0
 40
2.0
 40
2.0
 40
3.0
 40
3.0
 40
3.0
 40
4.0
 40
4.0
 40
4.0
 40
5.0
 40
5.0
 40
5.0
 40
6.0
 40
6.0
 40
6.0
 40
7.0
 40
7.0
 40
7.0
 40
8.0
 40
8.0
 40
8.0
 40
9.0
 40
9.0
 40
9.0
 40
10.0
 40
10.0
 40
10.0
 40
10.0
 10
1072.9685522387
 20
33.1253953762
 30
0.0
 10
1072.880095731
 20
33.1766896824
 30
0.0
 10
1072.7666463344
 20
33.2018134242
 30
0.0
 10
1072.6630108994
 20
33.2018134242
 30
0.0
 10
1072.3081380462
 20
33.2018134242
 30
0.0
 10
1072.032692856
 20
32.9380141351
 30
0.0
 10
1072.032692856
 20
32.5805242255
 30
0.0
 10
1072.032692856
 20
32.2355961868
 30
0.0
 10
1072.3111476611
 20
31.9754607767
 30
0.0
 10
1072.6507107341
 20
31.9754607767
 30
0.0
 10
1072.7666463344
 20
31.9754607767
 30
0.0
 10
1072.8674030073
 20
31.9974440508
 30
0.0
 10
1072.9685522387
 20
32.0513554134
 30
0.0
 10
1072.9685522387
 20
32.0513554134
 30
0.0
 10
1072.9685522387
 20
32.3339975089
 30
0.0
 10
1072.9685522387
 20
32.3339975089
 30
0.0
 10
1072.8846755798
 20
32.2408302997
 30
0.0
 10
1072.7811709976
 20
32.1816848241
 30
0.0
 10
1072.6530660849
 20
32.1816848241
 30
0.0
 10
1072.4193629449
 20
32.1816848241
 30
0.0
 10
1072.2540958307
 20
32.3538871378
 30
0.0
 10
1072.2540958307
 20
32.59046904
 30
0.0
 10
1072.2540958307
 20
32.8024506115
 30
0.0
 10
1072.4218491485
 20
32.9945425542
 30
0.0
 10
1072.6386722745
 20
32.9945425542
 30
0.0
 10
1072.7714878888
 20
32.9945425542
 30
0.0
 10
1072.880095731
 20
32.9406311915
 30
0.0
 10
1072.9685522387
 20
32.839612813
 30
0.0
 10
1072.9685522387
 20
32.839612813
 30
0.0
 10
1072.9685522387
 20
33.1253953762
 30
0.0
 10
1072.9685522387
 20
33.1253953762
 30
0.0
  0
SPLINE
  5
229
100
AcDbEntity
  8
0
100
AcDbSpline
 62
7
  6
CONTINUOUS
 70
2
 71
3
 72
32
 73
28
 74
0
 42
0.0000001
 43
0.0000001
 44
0.0000000001
 40
0.0
 40
0.0
 40
0.0
 40
0.0
 40
1.0
 40
1.0
 40
1.0
 40
2.0
 40
2.0
 40
2.0
 40
3.0
 40
3.0
 40
3.0
 40
4.0
 40
4.0
 40
4.0
 40
5.0
 40
5.0
 40
5.0
 40
6.0
 40
6.0
 40
6.0
 40
7.0
 40
7.0
 40
7.0
 40
8.0
 40
8.0
 40
8.0
 40
9.0
 40
9.0
 40
9.0
 40
9.0
 10
1075.5004234909
 20
32.5538302498
 30
0.0
 10
1075.5004234909
 20
32.5538302498
 30
0.0
 10
1075.5004234909
 20
32.5878519835
 30
0.0
 10
1075.5004234909
 20
32.5878519835
 30
0.0
 10
1075.5004234909
 20
32.9301629658
 30
0.0
 10
1075.3275669131
 20
33.2018134242
 30
0.0
 10
1074.960917306
 20
33.2018134242
 30
0.0
 10
1074.5892952916
 20
33.2018134242
 30
0.0
 10
1074.3995586997
 20
32.9353970787
 30
0.0
 10
1074.3995586997
 20
32.5805242255
 30
0.0
 10
1074.3995586997
 20
32.2408302997
 30
0.0
 10
1074.6136339165
 20
31.9749373654
 30
0.0
 10
1074.9657588604
 20
31.9749373654
 30
0.0
 10
1075.1897788916
 20
31.9749373654
 30
0.0
 10
1075.3919465015
 20
32.09061126
 30
0.0
 10
1075.5004234909
 20
32.2900309607
 30
0.0
 10
1075.5004234909
 20
32.2900309607
 30
0.0
 10
1075.3127805442
 20
32.3968068634
 30
0.0
 10
1075.3127805442
 20
32.3968068634
 30
0.0
 10
1075.2292964438
 20
32.2581028722
 30
0.0
 10
1075.1380920269
 20
32.1722634209
 30
0.0
 10
1074.9685067696
 20
32.1722634209
 30
0.0
 10
1074.756525198
 20
32.1722634209
 30
0.0
 10
1074.6235787309
 20
32.3570276056
 30
0.0
 10
1074.6212233801
 20
32.5538302498
 30
0.0
 10
1074.6212233801
 20
32.5538302498
 30
0.0
 10
1075.5004234909
 20
32.5538302498
 30
0.0
 10
1075.5004234909
 20
32.5538302498
 30
0.0
  0
SPLINE
  5
22A
100
AcDbEntity
  8
0
100
AcDbSpline
 62
7
  6
CONTINUOUS
 70
2
 71
3
 72
14
 73
10
 74
0
 42
0.0000001
 43
0.0000001
 44
0.0000000001
 40
0.0
 40
0.0
 40
0.0
 40
0.0
 40
1.0
 40
1.0
 40
1.0
 40
2.0
 40
2.0
 40
2.0
 40
3.0
 40
3.0
 40
3.0
 40
3.0
 10
1074.6332618397
 20
32.7213218619
 30
0.0
 10
1074.6608717852
 20
32.8861964176
 30
0.0
 10
1074.7887149922
 20
33.0091980702
 30
0.0
 10
1074.960917306
 20
33.0091980702
 30
0.0
 10
1075.1380920269
 20
33.0091980702
 30
0.0
 10
1075.2515414235
 20
32.8935241756
 30
0.0
 10
1075.2787588105
 20
32.7213218619
 30
0.0
 10
1075.2787588105
 20
32.7213218619
 30
0.0
 10
1074.6332618397
 20
32.7213218619
 30
0.0
 10
1074.6332618397
 20
32.7213218619
 30
0.0
  0
SPLINE
  5
22B
100
AcDbEntity
  8
0
100
AcDbSpline
 62
7
  6
CONTINUOUS
 70
2
 71
3
 72
20
 73
16
 74
0
 42
0.0000001
 43
0.0000001
 44
0.0000000001
 40
0.0
 40
0.0
 40
0.0
 40
0.0
 40
1.0
 40
1.0
 40
1.0
 40
2.0
 40
2.0
 40
2.0
 40
3.0
 40
3.0
 40
3.0
 40
4.0
 40
4.0
 40
4.0
 40
5.0
 40
5.0
 40
5.0
 40
5.0
 10
1077.5244549411
 20
32.9306863771
 30
0.0
 10
1077.5244549411
 20
32.9306863771
 30
0.0
 10
1077.9355945077
 20
32.4282115407
 30
0.0
 10
1077.9355945077
 20
32.4282115407
 30
0.0
 10
1077.8195280547
 20
32.3125376461
 30
0.0
 10
1077.6817400331
 20
32.1822082354
 30
0.0
 10
1077.5097994251
 20
32.1822082354
 30
0.0
 10
1077.3323629985
 20
32.1822082354
 30
0.0
 10
1077.1648713864
 20
32.3465593798
 30
0.0
 10
1077.1648713864
 20
32.5234723951
 30
0.0
 10
1077.1648713864
 20
32.701432233
 30
0.0
 10
1077.37462846
 20
32.8275743534
 30
0.0
 10
1077.5022099614
 20
32.9155074497
 30
0.0
 10
1077.5022099614
 20
32.9155074497
 30
0.0
 10
1077.5244549411
 20
32.9306863771
 30
0.0
 10
1077.5244549411
 20
32.9306863771
 30
0.0
  0
SPLINE
  5
22C
100
AcDbEntity
  8
0
100
AcDbSpline
 62
7
  6
CONTINUOUS
 70
2
 71
3
 72
23
 73
19
 74
0
 42
0.0000001
 43
0.0000001
 44
0.0000000001
 40
0.0
 40
0.0
 40
0.0
 40
0.0
 40
1.0
 40
1.0
 40
1.0
 40
2.0
 40
2.0
 40
2.0
 40
3.0
 40
3.0
 40
3.0
 40
4.0
 40
4.0
 40
4.0
 40
5.0
 40
5.0
 40
5.0
 40
6.0
 40
6.0
 40
6.0
 40
6.0
 10
1077.573786455
 20
33.2217030531
 30
0.0
 10
1077.573786455
 20
33.2217030531
 30
0.0
 10
1077.5121547759
 20
33.3002147463
 30
0.0
 10
1077.5121547759
 20
33.3002147463
 30
0.0
 10
1077.4582434132
 20
33.368781625
 30
0.0
 10
1077.4014532885
 20
33.437871915
 30
0.0
 10
1077.4014532885
 20
33.5315625355
 30
0.0
 10
1077.4014532885
 20
33.6503768979
 30
0.0
 10
1077.497368407
 20
33.7278417685
 30
0.0
 10
1077.6083316
 20
33.7278417685
 30
0.0
 10
1077.7315949583
 20
33.7278417685
 30
0.0
 10
1077.8248930204
 20
33.6566578333
 30
0.0
 10
1077.8248930204
 20
33.5263284227
 30
0.0
 10
1077.8248930204
 20
33.3912883104
 30
0.0
 10
1077.6967881077
 20
33.3148702624
 30
0.0
 10
1077.6032283399
 20
33.2410692708
 30
0.0
 10
1077.6032283399
 20
33.2410692708
 30
0.0
 10
1077.573786455
 20
33.2217030531
 30
0.0
 10
1077.573786455
 20
33.2217030531
 30
0.0
  0
SPLINE
  5
22D
100
AcDbEntity
  8
0
100
AcDbSpline
 62
7
  6
CONTINUOUS
 70
2
 71
3
 72
50
 73
46
 74
0
 42
0.0000001
 43
0.0000001
 44
0.0000000001
 40
0.0
 40
0.0
 40
0.0
 40
0.0
 40
1.0
 40
1.0
 40
1.0
 40
2.0
 40
2.0
 40
2.0
 40
3.0
 40
3.0
 40
3.0
 40
4.0
 40
4.0
 40
4.0
 40
5.0
 40
5.0
 40
5.0
 40
6.0
 40
6.0
 40
6.0
 40
7.0
 40
7.0
 40
7.0
 40
8.0
 40
8.0
 40
8.0
 40
9.0
 40
9.0
 40
9.0
 40
10.0
 40
10.0
 40
10.0
 40
11.0
 40
11.0
 40
11.0
 40
12.0
 40
12.0
 40
12.0
 40
13.0
 40
13.0
 40
13.0
 40
14.0
 40
14.0
 40
14.0
 40
15.0
 40
15.0
 40
15.0
 40
15.0
 10
1078.2759426977
 20
32.0147166233
 30
0.0
 10
1078.2759426977
 20
32.0147166233
 30
0.0
 10
1078.5613327024
 20
32.0147166233
 30
0.0
 10
1078.5613327024
 20
32.0147166233
 30
0.0
 10
1078.5613327024
 20
32.0147166233
 30
0.0
 10
1078.2289665346
 20
32.4255944843
 30
0.0
 10
1078.2289665346
 20
32.4255944843
 30
0.0
 10
1078.2289665346
 20
32.4255944843
 30
0.0
 10
1078.4554727694
 20
32.6914874185
 30
0.0
 10
1078.4554727694
 20
32.6914874185
 30
0.0
 10
1078.4554727694
 20
32.6914874185
 30
0.0
 10
1078.3072165221
 20
32.8443235146
 30
0.0
 10
1078.3072165221
 20
32.8443235146
 30
0.0
 10
1078.3072165221
 20
32.8443235146
 30
0.0
 10
1078.0913093659
 20
32.5930860964
 30
0.0
 10
1078.0913093659
 20
32.5930860964
 30
0.0
 10
1078.0913093659
 20
32.5930860964
 30
0.0
 10
1077.7042467185
 20
33.0610157877
 30
0.0
 10
1077.7042467185
 20
33.0610157877
 30
0.0
 10
1077.859699871
 20
33.1751194485
 30
0.0
 10
1078.041977852
 20
33.3148702624
 30
0.0
 10
1078.041977852
 20
33.5242347775
 30
0.0
 10
1078.041977852
 20
33.7681444377
 30
0.0
 10
1077.8399410949
 20
33.9115591305
 30
0.0
 10
1077.6134348601
 20
33.9115591305
 30
0.0
 10
1077.3692634943
 20
33.9115591305
 30
0.0
 10
1077.1848918681
 20
33.7608166796
 30
0.0
 10
1077.1848918681
 20
33.5043451486
 30
0.0
 10
1077.1848918681
 20
33.3467983509
 30
0.0
 10
1077.2835548959
 20
33.2091411822
 30
0.0
 10
1077.3888914176
 20
33.0981779892
 30
0.0
 10
1077.3888914176
 20
33.0981779892
 30
0.0
 10
1077.2733483758
 20
33.0144321831
 30
0.0
 10
1077.2733483758
 20
33.0144321831
 30
0.0
 10
1077.0956502435
 20
32.8861964176
 30
0.0
 10
1076.948309966
 20
32.7584840634
 30
0.0
 10
1076.948309966
 20
32.52137875
 30
0.0
 10
1076.948309966
 20
32.2010510418
 30
0.0
 10
1077.2068751422
 20
31.9749373654
 30
0.0
 10
1077.5172580359
 20
31.9749373654
 30
0.0
 10
1077.7361748071
 20
31.9749373654
 30
0.0
 10
1077.9333700098
 20
32.1000326632
 30
0.0
 10
1078.0736442349
 20
32.2659540415
 30
0.0
 10
1078.0736442349
 20
32.2659540415
 30
0.0
 10
1078.2759426977
 20
32.0147166233
 30
0.0
 10
1078.2759426977
 20
32.0147166233
 30
0.0
  0
LWPOLYLINE
  5
22E
100
AcDbEntity
  8
0
100
AcDbPolyline
 62
7
  6
CONTINUOUS
 90
2
 70
0
 43
0.2
 10
1080.2113867874
 20
33.8712564614
 10
1079.9800389982
 20
33.8712564614
  0
LWPOLYLINE
  5
22F
100
AcDbEntity
  8
0
100
AcDbPolyline
 62
7
  6
CONTINUOUS
 90
2
 70
0
 43
0.2
 10
1079.9800389982
 20
33.8712564614
 10
1079.9800389982
 20
32.014193212
  0
LWPOLYLINE
  5
230
100
AcDbEntity
  8
0
100
AcDbPolyline
 62
7
  6
CONTINUOUS
 90
2
 70
0
 43
0.2
 10
1079.9800389982
 20
32.014193212
 10
1080.7753624501
 20
32.014193212
  0
LWPOLYLINE
  5
231
100
AcDbEntity
  8
0
100
AcDbPolyline
 62
7
  6
CONTINUOUS
 90
2
 70
0
 43
0.2
 10
1080.7753624501
 20
32.014193212
 10
1080.7753624501
 20
32.2261747836
  0
LWPOLYLINE
  5
232
100
AcDbEntity
  8
0
100
AcDbPolyline
 62
7
  6
CONTINUOUS
 90
2
 70
0
 43
0.2
 10
1080.7753624501
 20
32.2261747836
 10
1080.2113867874
 20
32.2261747836
  0
LWPOLYLINE
  5
233
100
AcDbEntity
  8
0
100
AcDbPolyline
 62
7
  6
CONTINUOUS
 90
2
 70
0
 43
0.2
 10
1080.2113867874
 20
32.2261747836
 10
1080.2113867874
 20
33.8712564614
  0
LWPOLYLINE
  5
234
100
AcDbEntity
  8
0
100
AcDbPolyline
 62
7
  6
CONTINUOUS
 90
2
 70
0
 43
0.2
 10
1082.4544658616
 20
33.1667448679
 10
1082.2333245924
 20
33.1667448679
  0
LWPOLYLINE
  5
235
100
AcDbEntity
  8
0
100
AcDbPolyline
 62
7
  6
CONTINUOUS
 90
2
 70
0
 43
0.2
 10
1082.2333245924
 20
33.1667448679
 10
1082.2333245924
 20
32.0147166233
  0
LWPOLYLINE
  5
236
100
AcDbEntity
  8
0
100
AcDbPolyline
 62
7
  6
CONTINUOUS
 90
2
 70
0
 43
0.2
 10
1082.2333245924
 20
32.0147166233
 10
1082.4544658616
 20
32.0147166233
  0
LWPOLYLINE
  5
237
100
AcDbEntity
  8
0
100
AcDbPolyline
 62
7
  6
CONTINUOUS
 90
2
 70
0
 43
0.2
 10
1082.4544658616
 20
32.0147166233
 10
1082.4544658616
 20
33.1667448679
  0
LWPOLYLINE
  5
238
100
AcDbEntity
  8
0
100
AcDbPolyline
 62
7
  6
CONTINUOUS
 90
2
 70
1
 43
0.2
 10
1082.1914425844
 20
33.6966987969
 42
1.0
 10
1082.4966095753
 20
33.6966987969
 42
1.0
  0
SPLINE
  5
239
100
AcDbEntity
  8
0
100
AcDbSpline
 62
7
  6
CONTINUOUS
 70
2
 71
3
 72
17
 73
13
 74
0
 42
0.0000001
 43
0.0000001
 44
0.0000000001
 40
0.0
 40
0.0
 40
0.0
 40
0.0
 40
1.0
 40
1.0
 40
1.0
 40
2.0
 40
2.0
 40
2.0
 40
3.0
 40
3.0
 40
3.0
 40
4.0
 40
4.0
 40
4.0
 40
4.0
 10
1084.5847498032
 20
32.1722634209
 30
0.0
 10
1084.3507849575
 20
32.1722634209
 30
0.0
 10
1084.2204555468
 20
32.3743001781
 30
0.0
 10
1084.2204555468
 20
32.59046904
 30
0.0
 10
1084.2204555468
 20
32.805067668
 30
0.0
 10
1084.356280776
 20
33.0039639574
 30
0.0
 10
1084.5847498032
 20
33.0039639574
 30
0.0
 10
1084.8242104674
 20
33.0039639574
 30
0.0
 10
1084.959773991
 20
32.8150124824
 30
0.0
 10
1084.959773991
 20
32.59046904
 30
0.0
 10
1084.959773991
 20
32.3643553636
 30
0.0
 10
1084.8265658182
 20
32.1722634209
 30
0.0
 10
1084.5847498032
 20
32.1722634209
 30
0.0
  0
SPLINE
  5
23A
100
AcDbEntity
  8
0
100
AcDbSpline
 62
7
  6
CONTINUOUS
 70
2
 71
3
 72
50
 73
46
 74
0
 42
0.0000001
 43
0.0000001
 44
0.0000000001
 40
0.0
 40
0.0
 40
0.0
 40
0.0
 40
1.0
 40
1.0
 40
1.0
 40
2.0
 40
2.0
 40
2.0
 40
3.0
 40
3.0
 40
3.0
 40
4.0
 40
4.0
 40
4.0
 40
5.0
 40
5.0
 40
5.0
 40
6.0
 40
6.0
 40
6.0
 40
7.0
 40
7.0
 40
7.0
 40
8.0
 40
8.0
 40
8.0
 40
9.0
 40
9.0
 40
9.0
 40
10.0
 40
10.0
 40
10.0
 40
11.0
 40
11.0
 40
11.0
 40
12.0
 40
12.0
 40
12.0
 40
13.0
 40
13.0
 40
13.0
 40
14.0
 40
14.0
 40
14.0
 40
15.0
 40
15.0
 40
15.0
 40
15.0
 10
1085.1688768005
 20
33.1672682792
 30
0.0
 10
1085.1688768005
 20
33.1672682792
 30
0.0
 10
1084.94721212
 20
33.1672682792
 30
0.0
 10
1084.94721212
 20
33.1672682792
 30
0.0
 10
1084.94721212
 20
33.1672682792
 30
0.0
 10
1084.94721212
 20
32.9699422237
 30
0.0
 10
1084.94721212
 20
32.9699422237
 30
0.0
 10
1084.94721212
 20
32.9699422237
 30
0.0
 10
1084.9425014185
 20
32.9699422237
 30
0.0
 10
1084.9425014185
 20
32.9699422237
 30
0.0
 10
1084.8511661487
 20
33.1128335052
 30
0.0
 10
1084.7132472744
 20
33.2012900129
 30
0.0
 10
1084.5405215494
 20
33.2012900129
 30
0.0
 10
1084.2081553816
 20
33.2012900129
 30
0.0
 10
1083.9990525721
 20
32.9134138046
 30
0.0
 10
1083.9990525721
 20
32.597796798
 30
0.0
 10
1083.9990525721
 20
32.2680476866
 30
0.0
 10
1084.196116922
 20
31.9749373654
 30
0.0
 10
1084.5509897751
 20
31.9749373654
 30
0.0
 10
1084.7132472744
 20
31.9749373654
 30
0.0
 10
1084.8532597939
 20
32.0633938731
 30
0.0
 10
1084.9425014185
 20
32.194246695
 30
0.0
 10
1084.9425014185
 20
32.194246695
 30
0.0
 10
1084.94721212
 20
32.194246695
 30
0.0
 10
1084.94721212
 20
32.194246695
 30
0.0
 10
1084.94721212
 20
32.194246695
 30
0.0
 10
1084.94721212
 20
31.9749373654
 30
0.0
 10
1084.94721212
 20
31.9749373654
 30
0.0
 10
1084.94721212
 20
31.7383554633
 30
0.0
 10
1084.890683701
 20
31.5514976335
 30
0.0
 10
1084.6174630087
 20
31.5514976335
 30
0.0
 10
1084.4151645459
 20
31.5514976335
 30
0.0
 10
1084.27253497
 20
31.6697885846
 30
0.0
 10
1084.27253497
 20
31.876012632
 30
0.0
 10
1084.27253497
 20
31.876012632
 30
0.0
 10
1084.0508702896
 20
31.876012632
 30
0.0
 10
1084.0508702896
 20
31.876012632
 30
0.0
 10
1084.0558426968
 20
31.5514976335
 30
0.0
 10
1084.2869287804
 20
31.3546949893
 30
0.0
 10
1084.6072564886
 20
31.3546949893
 30
0.0
 10
1085.055296551
 20
31.3546949893
 30
0.0
 10
1085.1688768005
 20
31.6399541412
 30
0.0
 10
1085.1688768005
 20
32.0366998974
 30
0.0
 10
1085.1688768005
 20
32.0366998974
 30
0.0
 10
1085.1688768005
 20
33.1672682792
 30
0.0
 10
1085.1688768005
 20
33.1672682792
 30
0.0
  0
SPLINE
  5
23B
100
AcDbEntity
  8
0
100
AcDbSpline
 62
7
  6
CONTINUOUS
 70
2
 71
3
 72
44
 73
40
 74
0
 42
0.0000001
 43
0.0000001
 44
0.0000000001
 40
0.0
 40
0.0
 40
0.0
 40
0.0
 40
1.0
 40
1.0
 40
1.0
 40
2.0
 40
2.0
 40
2.0
 40
3.0
 40
3.0
 40
3.0
 40
4.0
 40
4.0
 40
4.0
 40
5.0
 40
5.0
 40
5.0
 40
6.0
 40
6.0
 40
6.0
 40
7.0
 40
7.0
 40
7.0
 40
8.0
 40
8.0
 40
8.0
 40
9.0
 40
9.0
 40
9.0
 40
10.0
 40
10.0
 40
10.0
 40
11.0
 40
11.0
 40
11.0
 40
12.0
 40
12.0
 40
12.0
 40
13.0
 40
13.0
 40
13.0
 40
13.0
 10
1086.7378021359
 20
34.152328323
 30
0.0
 10
1086.7378021359
 20
34.152328323
 30
0.0
 10
1086.7378021359
 20
32.014193212
 30
0.0
 10
1086.7378021359
 20
32.014193212
 30
0.0
 10
1086.7378021359
 20
32.014193212
 30
0.0
 10
1086.9592051106
 20
32.014193212
 30
0.0
 10
1086.9592051106
 20
32.014193212
 30
0.0
 10
1086.9592051106
 20
32.014193212
 30
0.0
 10
1086.9592051106
 20
32.5438854353
 30
0.0
 10
1086.9592051106
 20
32.5438854353
 30
0.0
 10
1086.9592051106
 20
32.7537733618
 30
0.0
 10
1086.9592051106
 20
33.0044873687
 30
0.0
 10
1087.2444642625
 20
33.0044873687
 30
0.0
 10
1087.4713630558
 20
33.0044873687
 30
0.0
 10
1087.4983187371
 20
32.8715409015
 30
0.0
 10
1087.4983187371
 20
32.6752616686
 30
0.0
 10
1087.4983187371
 20
32.6752616686
 30
0.0
 10
1087.4983187371
 20
32.014193212
 30
0.0
 10
1087.4983187371
 20
32.014193212
 30
0.0
 10
1087.4983187371
 20
32.014193212
 30
0.0
 10
1087.7202451232
 20
32.014193212
 30
0.0
 10
1087.7202451232
 20
32.014193212
 30
0.0
 10
1087.7202451232
 20
32.014193212
 30
0.0
 10
1087.7202451232
 20
32.701432233
 30
0.0
 10
1087.7202451232
 20
32.701432233
 30
0.0
 10
1087.7202451232
 20
32.9819806833
 30
0.0
 10
1087.6362376115
 20
33.2018134242
 30
0.0
 10
1087.3111992017
 20
33.2018134242
 30
0.0
 10
1087.1714483879
 20
33.2018134242
 30
0.0
 10
1087.0332678079
 20
33.1353401906
 30
0.0
 10
1086.9639158122
 20
33.012338538
 30
0.0
 10
1086.9639158122
 20
33.012338538
 30
0.0
 10
1086.9592051106
 20
33.012338538
 30
0.0
 10
1086.9592051106
 20
33.012338538
 30
0.0
 10
1086.9592051106
 20
33.012338538
 30
0.0
 10
1086.9592051106
 20
34.152328323
 30
0.0
 10
1086.9592051106
 20
34.152328323
 30
0.0
 10
1086.9592051106
 20
34.152328323
 30
0.0
 10
1086.7378021359
 20
34.152328323
 30
0.0
 10
1086.7378021359
 20
34.152328323
 30
0.0
  0
LWPOLYLINE
  5
23C
100
AcDbEntity
  8
0
100
AcDbPolyline
 62
7
  6
CONTINUOUS
 90
2
 70
0
 43
0.2
 10
1089.5600358
 20
32.9599974092
 10
1089.7764663676
 20
32.9599974092
  0
LWPOLYLINE
  5
23D
100
AcDbEntity
  8
0
100
AcDbPolyline
 62
7
  6
CONTINUOUS
 90
2
 70
0
 43
0.2
 10
1089.7764663676
 20
32.9599974092
 10
1089.7764663676
 20
33.1667448679
  0
LWPOLYLINE
  5
23E
100
AcDbEntity
  8
0
100
AcDbPolyline
 62
7
  6
CONTINUOUS
 90
2
 70
0
 43
0.2
 10
1089.7764663676
 20
33.1667448679
 10
1089.5600358
 20
33.1667448679
  0
LWPOLYLINE
  5
23F
100
AcDbEntity
  8
0
100
AcDbPolyline
 62
7
  6
CONTINUOUS
 90
2
 70
0
 43
0.2
 10
1089.5600358
 20
33.1667448679
 10
1089.5600358
 20
33.6074571723
  0
LWPOLYLINE
  5
240
100
AcDbEntity
  8
0
100
AcDbPolyline
 62
7
  6
CONTINUOUS
 90
2
 70
0
 43
0.2
 10
1089.5600358
 20
33.6074571723
 10
1089.3383711196
 20
33.6074571723
  0
LWPOLYLINE
  5
241
100
AcDbEntity
  8
0
100
AcDbPolyline
 62
7
  6
CONTINUOUS
 90
2
 70
0
 43
0.2
 10
1089.3383711196
 20
33.6074571723
 10
1089.3383711196
 20
33.1667448679
  0
LWPOLYLINE
  5
242
100
AcDbEntity
  8
0
100
AcDbPolyline
 62
7
  6
CONTINUOUS
 90
2
 70
0
 43
0.2
 10
1089.3383711196
 20
33.1667448679
 10
1089.2177248178
 20
33.1667448679
  0
LWPOLYLINE
  5
243
100
AcDbEntity
  8
0
100
AcDbPolyline
 62
7
  6
CONTINUOUS
 90
2
 70
0
 43
0.2
 10
1089.2177248178
 20
33.1667448679
 10
1089.2177248178
 20
32.9599974092
  0
LWPOLYLINE
  5
244
100
AcDbEntity
  8
0
100
AcDbPolyline
 62
7
  6
CONTINUOUS
 90
2
 70
0
 43
0.2
 10
1089.2177248178
 20
32.9599974092
 10
1089.3383711196
 20
32.9599974092
  0
LWPOLYLINE
  5
245
100
AcDbEntity
  8
0
100
AcDbPolyline
 62
7
  6
CONTINUOUS
 90
2
 70
0
 43
0.2
 10
1089.3383711196
 20
32.9599974092
 10
1089.3383711196
 20
32.014193212
  0
LWPOLYLINE
  5
246
100
AcDbEntity
  8
0
100
AcDbPolyline
 62
7
  6
CONTINUOUS
 90
2
 70
0
 43
0.2
 10
1089.3383711196
 20
32.014193212
 10
1089.5600358
 20
32.014193212
  0
LWPOLYLINE
  5
247
100
AcDbEntity
  8
0
100
AcDbPolyline
 62
7
  6
CONTINUOUS
 90
2
 70
0
 43
0.2
 10
1089.5600358
 20
32.014193212
 10
1089.5600358
 20
32.9599974092
  0
SPLINE
  5
248
100
AcDbEntity
  8
0
100
AcDbSpline
 62
7
  6
CONTINUOUS
 70
2
 71
3
 72
20
 73
16
 74
0
 42
0.0000001
 43
0.0000001
 44
0.0000000001
 40
0.0
 40
0.0
 40
0.0
 40
0.0
 40
1.0
 40
1.0
 40
1.0
 40
2.0
 40
2.0
 40
2.0
 40
3.0
 40
3.0
 40
3.0
 40
4.0
 40
4.0
 40
4.0
 40
5.0
 40
5.0
 40
5.0
 40
5.0
 10
1077.3420461073
 20
42.3751196554
 30
0.0
 10
1077.3420461073
 20
42.3751196554
 30
0.0
 10
1079.6584027618
 20
39.5455582332
 30
0.0
 10
1079.6584027618
 20
39.5455582332
 30
0.0
 10
1079.0067557084
 20
38.8933877685
 30
0.0
 10
1078.2298825043
 20
38.1574714977
 30
0.0
 10
1077.2586928597
 20
38.1574714977
 30
0.0
 10
1076.2601549753
 20
38.1574714977
 30
0.0
 10
1075.3168369817
 20
39.087049945
 30
0.0
 10
1075.3168369817
 20
40.0862420935
 30
0.0
 10
1075.3168369817
 20
41.0854342421
 30
0.0
 10
1076.4956900548
 20
41.7920394807
 30
0.0
 10
1077.2172125151
 20
42.2918972606
 30
0.0
 10
1077.2172125151
 20
42.2918972606
 30
0.0
 10
1077.3420461073
 20
42.3751196554
 30
0.0
 10
1077.3420461073
 20
42.3751196554
 30
0.0
  0
SPLINE
  5
249
100
AcDbEntity
  8
0
100
AcDbSpline
 62
7
  6
CONTINUOUS
 70
2
 71
3
 72
23
 73
19
 74
0
 42
0.0000001
 43
0.0000001
 44
0.0000000001
 40
0.0
 40
0.0
 40
0.0
 40
0.0
 40
1.0
 40
1.0
 40
1.0
 40
2.0
 40
2.0
 40
2.0
 40
3.0
 40
3.0
 40
3.0
 40
4.0
 40
4.0
 40
4.0
 40
5.0
 40
5.0
 40
5.0
 40
6.0
 40
6.0
 40
6.0
 40
6.0
 10
1077.6194540899
 20
44.0128735751
 30
0.0
 10
1077.6194540899
 20
44.0128735751
 30
0.0
 10
1077.2729558173
 20
44.456202936
 30
0.0
 10
1077.2729558173
 20
44.456202936
 30
0.0
 10
1076.9671527724
 20
44.8443124059
 30
0.0
 10
1076.6482644452
 20
45.2328144343
 30
0.0
 10
1076.6482644452
 20
45.7597587484
 30
0.0
 10
1076.6482644452
 20
46.425930465
 30
0.0
 10
1077.1896025697
 20
46.8696523843
 30
0.0
 10
1077.8135088248
 20
46.8696523843
 30
0.0
 10
1078.5072904869
 20
46.8696523843
 30
0.0
 10
1079.0344965066
 20
46.4674108096
 30
0.0
 10
1079.0344965066
 20
45.7324105086
 30
0.0
 10
1079.0344965066
 20
44.9691459981
 30
0.0
 10
1078.3132357519
 20
44.5390327723
 30
0.0
 10
1077.7861605851
 20
44.1233133569
 30
0.0
 10
1077.7861605851
 20
44.1233133569
 30
0.0
 10
1077.6194540899
 20
44.0128735751
 30
0.0
 10
1077.6194540899
 20
44.0128735751
 30
0.0
  0
SPLINE
  5
24A
100
AcDbEntity
  8
0
100
AcDbSpline
 62
7
  6
CONTINUOUS
 70
2
 71
3
 72
50
 73
46
 74
0
 42
0.0000001
 43
0.0000001
 44
0.0000000001
 40
0.0
 40
0.0
 40
0.0
 40
0.0
 40
1.0
 40
1.0
 40
1.0
 40
2.0
 40
2.0
 40
2.0
 40
3.0
 40
3.0
 40
3.0
 40
4.0
 40
4.0
 40
4.0
 40
5.0
 40
5.0
 40
5.0
 40
6.0
 40
6.0
 40
6.0
 40
7.0
 40
7.0
 40
7.0
 40
8.0
 40
8.0
 40
8.0
 40
9.0
 40
9.0
 40
9.0
 40
10.0
 40
10.0
 40
10.0
 40
11.0
 40
11.0
 40
11.0
 40
12.0
 40
12.0
 40
12.0
 40
13.0
 40
13.0
 40
13.0
 40
14.0
 40
14.0
 40
14.0
 40
15.0
 40
15.0
 40
15.0
 40
15.0
 10
1081.5730412528
 20
37.214284357
 30
0.0
 10
1081.5730412528
 20
37.214284357
 30
0.0
 10
1083.1822692574
 20
37.214284357
 30
0.0
 10
1083.1822692574
 20
37.214284357
 30
0.0
 10
1083.1822692574
 20
37.214284357
 30
0.0
 10
1081.3092419637
 20
39.5314261284
 30
0.0
 10
1081.3092419637
 20
39.5314261284
 30
0.0
 10
1081.3092419637
 20
39.5314261284
 30
0.0
 10
1082.5855803892
 20
41.028905823
 30
0.0
 10
1082.5855803892
 20
41.028905823
 30
0.0
 10
1082.5855803892
 20
41.028905823
 30
0.0
 10
1081.7533564415
 20
41.8899173915
 30
0.0
 10
1081.7533564415
 20
41.8899173915
 30
0.0
 10
1081.7533564415
 20
41.8899173915
 30
0.0
 10
1080.5327613182
 20
40.4746132691
 30
0.0
 10
1080.5327613182
 20
40.4746132691
 30
0.0
 10
1080.5327613182
 20
40.4746132691
 30
0.0
 10
1078.3548469493
 20
43.1099891036
 30
0.0
 10
1078.3548469493
 20
43.1099891036
 30
0.0
 10
1079.2284203888
 20
43.7480274635
 30
0.0
 10
1080.2550916299
 20
44.5390327723
 30
0.0
 10
1080.2550916299
 20
45.7178858454
 30
0.0
 10
1080.2550916299
 20
47.0915787704
 30
0.0
 10
1079.1171954901
 20
47.8960619198
 30
0.0
 10
1077.8419038872
 20
47.8960619198
 30
0.0
 10
1076.4684726678
 20
47.8960619198
 30
0.0
 10
1075.4275384691
 20
47.0498367202
 30
0.0
 10
1075.4275384691
 20
45.607184358
 30
0.0
 10
1075.4275384691
 20
44.7196096666
 30
0.0
 10
1075.9828778455
 20
43.9427364626
 30
0.0
 10
1076.5790433024
 20
43.3183067961
 30
0.0
 10
1076.5790433024
 20
43.3183067961
 30
0.0
 10
1075.9271345434
 20
42.8467132258
 30
0.0
 10
1075.9271345434
 20
42.8467132258
 30
0.0
 10
1074.9285966589
 20
42.1254524711
 30
0.0
 10
1074.0957184471
 20
41.4041917164
 30
0.0
 10
1074.0957184471
 20
40.0726334001
 30
0.0
 10
1074.0957184471
 20
38.2689581021
 30
0.0
 10
1075.5527646197
 20
36.9923579709
 30
0.0
 10
1077.3003040571
 20
36.9923579709
 30
0.0
 10
1078.535162138
 20
36.9923579709
 30
0.0
 10
1079.6445323626
 20
37.7005334434
 30
0.0
 10
1080.4354068186
 20
38.6290650681
 30
0.0
 10
1080.4354068186
 20
38.6290650681
 30
0.0
 10
1081.5730412528
 20
37.214284357
 30
0.0
 10
1081.5730412528
 20
37.214284357
 30
0.0
  0
LINE
  5
24B
100
AcDbEntity
  8
0
100
AcDbLine
 62
7
  6
CONTINUOUS
 10
1067.3759026278
 20
35.1881592617
 11
1089.7898133554
 21
35.1881592617
  0
LINE
  5
24C
100
AcDbEntity
  8
0
100
AcDbLine
 62
7
  6
CONTINUOUS
 10
1089.7898133554
 20
35.1881592617
 11
1089.7898133554
 21
57.6020699893
  0
LINE
  5
24D
100
AcDbEntity
  8
0
100
AcDbLine
 62
7
  6
CONTINUOUS
 10
1089.7898133554
 20
57.6020699893
 11
1067.3759026278
 21
57.6020699893
  0
LINE
  5
24E
100
AcDbEntity
  8
0
100
AcDbLine
 62
7
  6
CONTINUOUS
 10
1067.3759026278
 20
57.6020699893
 11
1067.3759026278
 21
35.1881592617
  0
ENDBLK
  5
24F
100
AcDbEntity
  8
0
  6
BYBLOCK
 62
0
100
AcDbBlockEnd
  0
BLOCK
  5
250
100
AcDbEntity
  8
0
100
AcDbBlockBegin
  2
_CLOSED
 70
64
 10
0.0
 20
0.0
  3
_CLOSED
  1

  0
LINE
  5
251
100
AcDbEntity
  8
0
  6
BYBLOCK
 62
0
100
AcDbLine
 10
0.0
 20
0.0
 11
-1.0
 21
0.2
  0
LINE
  5
252
100
AcDbEntity
  8
0
  6
BYBLOCK
 62
0
100
AcDbLine
 10
-1.0
 20
0.2
 11
-1.0
 21
-0.2
  0
LINE
  5
253
100
AcDbEntity
  8
0
  6
BYBLOCK
 62
0
100
AcDbLine
 10
-1.0
 20
-0.2
 11
0.0
 21
0.0
  0
LINE
  5
254
100
AcDbEntity
  8
0
  6
BYBLOCK
 62
0
100
AcDbLine
 10
-1.0
 20
0.0
 11
0.0
 21
0.0
  0
ENDBLK
  5
255
100
AcDbEntity
  8
0
  6
BYBLOCK
 62
0
100
AcDbBlockEnd
  0
BLOCK
  5
256
100
AcDbEntity
  8
0
100
AcDbBlockBegin
 62
7
  6
CONTINUOUS
  2
*D0
 70
65
 10
0.0
 20
0.0
  3
*D0
  1

  0
MTEXT
  5
257
100
AcDbEntity
  8
0
100
AcDbMText
 62
7
  6
CONTINUOUS
  7
STANDARD
 71
2
 72
1
 10
445.812131535
 20
671.8449997403
 30
0.0
 11
1.0
 21
0.0
 31
0.0
  1
648,05
 40
10.0
 41
42.7137546468
  0
LINE
  5
258
100
AcDbEntity
  8
0
100
AcDbLine
 62
7
  6
CONTINUOUS
 10
769.837131535
 20
629.6175819975
 11
769.837131535
 21
660.0949997403
  0
LINE
  5
259
100
AcDbEntity
  8
0
100
AcDbLine
 62
7
  6
CONTINUOUS
 10
121.787131535
 20
629.6175819975
 11
121.787131535
 21
660.0949997403
  0
LINE
  5
25A
100
AcDbEntity
  8
0
100
AcDbLine
 62
7
  6
CONTINUOUS
 10
769.837131535
 20
659.3449997403
 11
445.812131535
 21
659.3449997403
  0
LINE
  5
25B
100
AcDbEntity
  8
0
100
AcDbLine
 62
7
  6
CONTINUOUS
 10
121.787131535
 20
659.3449997403
 11
445.812131535
 21
659.3449997403
  0
INSERT
  5
25C
100
AcDbEntity
  8
0
100
AcDbBlockReference
 62
7
  6
CONTINUOUS
  2
_CLOSED
 10
769.837131535
 20
659.3449997403
 41
2.5
 42
2.5
 43
2.5
  0
INSERT
  5
25D
100
AcDbEntity
  8
0
100
AcDbBlockReference
 62
7
  6
CONTINUOUS
  2
_CLOSED
 10
121.787131535
 20
659.3449997403
 41
2.5
 42
2.5
 43
2.5
 50
180.0
  0
ENDBLK
  5
25E
100
AcDbEntity
  8
0
  6
BYBLOCK
 62
0
100
AcDbBlockEnd
  0
BLOCK
  5
25F
100
AcDbEntity
  8
0
100
AcDbBlockBegin
 62
7
  6
CONTINUOUS
  2
*D1
 70
65
 10
0.0
 20
0.0
  3
*D1
  1

  0
MTEXT
  5
260
100
AcDbEntity
  8
0
100
AcDbMText
 62
7
  6
CONTINUOUS
  7
STANDARD
 71
2
 72
1
 10
87.9663600933
 20
329.0442658509
 30
0.0
 11
0.0
 21
1.0
 31
0.0
  1
587,5
 40
10.0
 41
34.9442379182
  0
LINE
  5
261
100
AcDbEntity
  8
0
100
AcDbLine
 62
7
  6
CONTINUOUS
 10
102.7047622357
 20
622.7942658509
 11
99.7163600933
 21
622.7942658509
  0
LINE
  5
262
100
AcDbEntity
  8
0
100
AcDbLine
 62
7
  6
CONTINUOUS
 10
104.3178250707
 20
35.2942658509
 11
99.7163600933
 21
35.2942658509
  0
LINE
  5
263
100
AcDbEntity
  8
0
100
AcDbLine
 62
7
  6
CONTINUOUS
 10
100.4663600933
 20
622.7942658509
 11
100.4663600933
 21
329.0442658509
  0
LINE
  5
264
100
AcDbEntity
  8
0
100
AcDbLine
 62
7
  6
CONTINUOUS
 10
100.4663600933
 20
35.2942658509
 11
100.4663600933
 21
329.0442658509
  0
INSERT
  5
265
100
AcDbEntity
  8
0
100
AcDbBlockReference
 62
7
  6
CONTINUOUS
  2
_CLOSED
 10
100.4663600933
 20
622.7942658509
 41
2.5
 42
2.5
 43
2.5
 50
90.0
  0
INSERT
  5
266
100
AcDbEntity
  8
0
100
AcDbBlockReference
 62
7
  6
CONTINUOUS
  2
_CLOSED
 10
100.4663600933
 20
35.2942658509
 41
2.5
 42
2.5
 43
2.5
 50
270.0
  0
ENDBLK
  5
267
100
AcDbEntity
  8
0
  6
BYBLOCK
 62
0
100
AcDbBlockEnd
  0
BLOCK
  5
268
100
AcDbEntity
  8
0
100
AcDbBlockBegin
 62
7
  6
CONTINUOUS
  2
*D2
 70
65
 10
0.0
 20
0.0
  3
*D2
  1

  0
MTEXT
  5
269
100
AcDbEntity
  8
0
100
AcDbMText
 62
7
  6
CONTINUOUS
  7
STANDARD
 71
2
 72
1
 10
861.7889182425
 20
671.8449997403
 30
0.0
 11
1.0
 21
0.0
 31
0.0
  1
81
 40
10.0
 41
15.5390334572
  0
LINE
  5
26A
100
AcDbEntity
  8
0
100
AcDbLine
 62
7
  6
CONTINUOUS
 10
902.2889182425
 20
629.6175819975
 11
902.2889182425
 21
660.0949997403
  0
LINE
  5
26B
100
AcDbEntity
  8
0
100
AcDbLine
 62
7
  6
CONTINUOUS
 10
821.2889182425
 20
628.6172335929
 11
821.2889182425
 21
660.0949997403
  0
LINE
  5
26C
100
AcDbEntity
  8
0
100
AcDbLine
 62
7
  6
CONTINUOUS
 10
902.2889182425
 20
659.3449997403
 11
861.7889182425
 21
659.3449997403
  0
LINE
  5
26D
100
AcDbEntity
  8
0
100
AcDbLine
 62
7
  6
CONTINUOUS
 10
821.2889182425
 20
659.3449997403
 11
861.7889182425
 21
659.3449997403
  0
INSERT
  5
26E
100
AcDbEntity
  8
0
100
AcDbBlockReference
 62
7
  6
CONTINUOUS
  2
_CLOSED
 10
902.2889182425
 20
659.3449997403
 41
2.5
 42
2.5
 43
2.5
  0
INSERT
  5
26F
100
AcDbEntity
  8
0
100
AcDbBlockReference
 62
7
  6
CONTINUOUS
  2
_CLOSED
 10
821.2889182425
 20
659.3449997403
 41
2.5
 42
2.5
 43
2.5
 50
180.0
  0
ENDBLK
  5
270
100
AcDbEntity
  8
0
  6
BYBLOCK
 62
0
100
AcDbBlockEnd
  0
ENDSEC
  0
SECTION
  2
ENTITIES
  0
DIMENSION
  5
271
100
AcDbEntity
  8
0
100
AcDbDimension
 62
7
  6
CONTINUOUS
  2
*D0
 10
121.787131535
 20
659.3449997403
 11
445.7640936737
 21
659.3449997403
 70
160
  3
DIMSTYLE_1
100
AcDbAlignedDimension
 13
769.837131535
 23
628.8675819975
 14
121.787131535
 24
628.8675819975
 50
180.0
100
AcDbRotatedDimension
  0
DIMENSION
  5
272
100
AcDbEntity
  8
0
100
AcDbDimension
 62
7
  6
CONTINUOUS
  2
*D1
 10
100.4663600933
 20
35.2942658509
 11
100.4663600933
 21
329.0416332303
 70
160
  3
DIMSTYLE_1
100
AcDbAlignedDimension
 13
103.4547622357
 23
622.7942658509
 14
105.0678250707
 24
35.2942658509
 50
270.0
100
AcDbRotatedDimension
  0
DIMENSION
  5
273
100
AcDbEntity
  8
0
100
AcDbDimension
 62
7
  6
CONTINUOUS
  2
*D2
 10
821.2889182425
 20
659.3449997403
 11
860.7769636536
 21
659.3449997403
 70
160
  3
DIMSTYLE_2
100
AcDbAlignedDimension
 13
902.2889182425
 23
628.8675819975
 14
821.2889182425
 24
627.8672335929
 50
180.0
100
AcDbRotatedDimension
  0
LINE
  5
274
100
AcDbEntity
  8
0
100
AcDbLine
 62
2
  6
CONTINUOUS
 10
1064.7567455204
 20
57.9783824893
 11
1154.7567455204
 21
57.9783824893
  0
LINE
  5
275
100
AcDbEntity
  8
0
100
AcDbLine
 62
2
  6
CONTINUOUS
 10
1064.7567455204
 20
57.9783824893
 11
1064.7567455204
 21
17.9783824893
  0
LINE
  5
276
100
AcDbEntity
  8
0
100
AcDbLine
 62
2
  6
CONTINUOUS
 10
1094.7567455204
 20
51.9783824893
 11
1154.7567455204
 21
51.9783824893
  0
LINE
  5
277
100
AcDbEntity
  8
0
100
AcDbLine
 62
2
  6
CONTINUOUS
 10
1094.7567455204
 20
45.9783824893
 11
1154.7567455204
 21
45.9783824893
  0
LINE
  5
278
100
AcDbEntity
  8
0
100
AcDbLine
 62
2
  6
CONTINUOUS
 10
1094.7567455204
 20
35.9783824893
 11
1154.7567455204
 21
35.9783824893
  0
LINE
  5
279
100
AcDbEntity
  8
0
100
AcDbLine
 62
2
  6
CONTINUOUS
 10
1064.7567455204
 20
30.9783824893
 11
1154.7567455204
 21
30.9783824893
  0
LINE
  5
27A
100
AcDbEntity
  8
0
100
AcDbLine
 62
2
  6
CONTINUOUS
 10
1064.7567455204
 20
17.9783824893
 11
1154.7567455204
 21
17.9783824893
  0
LINE
  5
27B
100
AcDbEntity
  8
0
100
AcDbLine
 62
2
  6
CONTINUOUS
 10
1094.7567455204
 20
57.9783824893
 11
1094.7567455204
 21
30.9783824893
  0
LINE
  5
27C
100
AcDbEntity
  8
0
100
AcDbLine
 62
2
  6
CONTINUOUS
 10
1134.7567455204
 20
57.9783824893
 11
1134.7567455204
 21
45.9783824893
  0
LINE
  5
27D
100
AcDbEntity
  8
0
100
AcDbLine
 62
2
  6
CONTINUOUS
 10
1154.7567455204
 20
57.9783824893
 11
1154.7567455204
 21
17.9783824893
  0
INSERT
  5
27E
100
AcDbEntity
  8
0
100
AcDbBlockReference
 62
2
  6
CONTINUOUS
  2
LOGO2_BL0
 10
1078.5827925652
 20
44.4783824893
  0
MTEXT
  5
27F
100
AcDbEntity
  8
9_SOLID
100
AcDbMText
 62
2
  6
CONTINUOUS
  7
TEXTSTYLE_2
 71
1
 72
1
 10
1096.2442455204
 20
56.4783824893
 30
0.0
 11
1.0
 21
0.0
 31
0.0
  1
6F4_C_400
 40
3.0
 41
32.5714285714
  0
MTEXT
  5
280
100
AcDbEntity
  8
0
100
AcDbMText
 62
2
  6
CONTINUOUS
  7
TEXTSTYLE_2
 71
1
 72
1
 10
1136.2442455204
 20
56.2283824893
 30
0.0
 11
1.0
 21
0.0
 31
0.0
  1
Rev:00
 40
3.5
 41
22.75
  0
MTEXT
  5
281
100
AcDbEntity
  8
9_SOLID
100
AcDbMText
 62
2
  6
CONTINUOUS
  7
TEXTSTYLE_2
 71
1
 72
1
 10
1096.2442455204
 20
50.2283824893
 30
0.0
 11
1.0
 21
0.0
 31
0.0
  1
Scale:1:1
 40
3.5
 41
28.375
  0
MTEXT
  5
282
100
AcDbEntity
  8
9_SOLID
100
AcDbMText
 62
2
  6
CONTINUOUS
  7
TEXTSTYLE_2
 71
1
 72
1
 10
1136.2442455204
 20
50.7283824893
 30
0.0
 11
1.0
 21
0.0
 31
0.0
  1
A0
 40
3.5
 41
9.625
  0
MTEXT
  5
283
100
AcDbEntity
  8
0
100
AcDbMText
 62
2
  6
CONTINUOUS
  7
TEXTSTYLE_2
 71
1
 72
1
 10
1096.2442455204
 20
42.7283824893
 30
0.0
 11
1.0
 21
0.0
 31
0.0
  1
CASS. A FILO BRENTA2 ANG. PIANO 90°
 40
3.5
 41
142.9625
  0
MTEXT
  5
284
100
AcDbEntity
  8
0
100
AcDbMText
 62
2
  6
CONTINUOUS
  7
TEXTSTYLE_2
 71
1
 72
1
 10
1096.2442455204
 20
34.7283824893
 30
0.0
 11
1.0
 21
0.0
 31
0.0
  1
DATE:08/05/18
 40
2.5
 41
36.875
  0
MTEXT
  5
285
100
AcDbEntity
  8
9_SOLID
100
AcDbMText
 62
2
  6
CONTINUOUS
  7
TEXTSTYLE_2
 71
1
 72
1
 10
1066.2442455204
 20
30.6658824893
 30
0.0
 11
1.0
 21
0.0
 31
0.0
  1
Any integral or partial reproductions are prohibited \Pwithout prior authorisation of L {\Ftxt.shx;\W0.190476;\H2.250000; }& L Luce & Light s.r.l., \Pin accordance with the law in force. \PAll rights reserved.
 40
2.25
 41
134.5982142857
  0
LINE
  5
286
100
AcDbEntity
  8
0
100
AcDbLine
 62
7
  6
CONTINUOUS
 10
0.0
 20
0.0
 11
0.0
 21
841.0
  0
LINE
  5
287
100
AcDbEntity
  8
0
100
AcDbLine
 62
7
  6
CONTINUOUS
 10
0.0
 20
0.0
 11
1189.0
 21
0.0
  0
LINE
  5
288
100
AcDbEntity
  8
0
100
AcDbLine
 62
7
  6
CONTINUOUS
 10
0.0
 20
841.0
 11
1189.0
 21
841.0
  0
LINE
  5
289
100
AcDbEntity
  8
0
100
AcDbLine
 62
7
  6
CONTINUOUS
 10
1189.0
 20
0.0
 11
1189.0
 21
841.0
  0
LINE
  5
28A
100
AcDbEntity
  8
7_ALL_FEATURES
100
AcDbLine
 62
7
  6
CONTINUOUS
 10
121.787131535
 20
622.7942658509
 11
121.787131535
 21
35.2942658509
  0
LINE
  5
28B
100
AcDbEntity
  8
7_ALL_FEATURES
100
AcDbLine
 62
9
  6
CONTINUOUS
 10
122.1416599447
 20
622.4397374413
 11
122.1416599447
 21
35.2942658509
  0
LINE
  5
28C
100
AcDbEntity
  8
7_ALL_FEATURES
100
AcDbLine
 62
7
  6
CONTINUOUS
 10
124.287131535
 20
620.2942658509
 11
124.287131535
 21
480.5776736446
  0
LINE
  5
28D
100
AcDbEntity
  8
7_ALL_FEATURES
100
AcDbLine
 62
7
  6
CONTINUOUS
 10
124.287131535
 20
474.0108580572
 11
124.287131535
 21
280.5776736446
  0
LINE
  5
28E
100
AcDbEntity
  8
7_ALL_FEATURES
100
AcDbLine
 62
7
  6
CONTINUOUS
 10
124.287131535
 20
274.0108580572
 11
124.287131535
 21
80.5776736446
  0
LINE
  5
28F
100
AcDbEntity
  8
7_ALL_FEATURES
100
AcDbLine
 62
7
  6
CONTINUOUS
 10
124.287131535
 20
74.0108580572
 11
124.287131535
 21
35.2942658509
  0
LINE
  5
290
100
AcDbEntity
  8
7_ALL_FEATURES
100
AcDbLine
 62
7
  6
CONTINUOUS
 10
126.987131535
 20
617.5942658509
 11
126.987131535
 21
482.0261541357
  0
LINE
  5
291
100
AcDbEntity
  8
7_ALL_FEATURES
100
AcDbLine
 62
7
  6
CONTINUOUS
 10
126.987131535
 20
472.5623775662
 11
126.987131535
 21
282.0261541357
  0
LINE
  5
292
100
AcDbEntity
  8
7_ALL_FEATURES
100
AcDbLine
 62
7
  6
CONTINUOUS
 10
126.987131535
 20
272.5623775662
 11
126.987131535
 21
82.0261541357
  0
LINE
  5
293
100
AcDbEntity
  8
7_ALL_FEATURES
100
AcDbLine
 62
7
  6
CONTINUOUS
 10
126.987131535
 20
72.5623775662
 11
126.987131535
 21
35.2942658509
  0
LINE
  5
294
100
AcDbEntity
  8
7_ALL_FEATURES
100
AcDbLine
 62
7
  6
CONTINUOUS
 10
127.587131535
 20
616.9942658509
 11
127.587131535
 21
482.0891346437
  0
LINE
  5
295
100
AcDbEntity
  8
7_ALL_FEATURES
100
AcDbLine
 62
7
  6
CONTINUOUS
 10
127.587131535
 20
472.4993970582
 11
127.587131535
 21
282.0891346437
  0
LINE
  5
296
100
AcDbEntity
  8
7_ALL_FEATURES
100
AcDbLine
 62
7
  6
CONTINUOUS
 10
127.587131535
 20
272.4993970582
 11
127.587131535
 21
82.0891346437
  0
LINE
  5
297
100
AcDbEntity
  8
7_ALL_FEATURES
100
AcDbLine
 62
7
  6
CONTINUOUS
 10
127.587131535
 20
72.4993970582
 11
127.587131535
 21
35.2942658509
  0
LINE
  5
298
100
AcDbEntity
  8
7_ALL_FEATURES
100
AcDbLine
 62
7
  6
CONTINUOUS
 10
129.987131535
 20
614.5942658509
 11
129.987131535
 21
481.5593293604
  0
LINE
  5
299
100
AcDbEntity
  8
7_ALL_FEATURES
100
AcDbLine
 62
7
  6
CONTINUOUS
 10
129.987131535
 20
473.0292023415
 11
129.987131535
 21
281.5593293604
  0
LINE
  5
29A
100
AcDbEntity
  8
7_ALL_FEATURES
100
AcDbLine
 62
7
  6
CONTINUOUS
 10
129.987131535
 20
273.0292023415
 11
129.987131535
 21
81.5593293604
  0
LINE
  5
29B
100
AcDbEntity
  8
7_ALL_FEATURES
100
AcDbLine
 62
7
  6
CONTINUOUS
 10
129.987131535
 20
73.0292023415
 11
129.987131535
 21
35.2942658509
  0
LINE
  5
29C
100
AcDbEntity
  8
7_ALL_FEATURES
100
AcDbLine
 62
7
  6
CONTINUOUS
 10
130.587131535
 20
613.9942658509
 11
130.587131535
 21
481.1917992683
  0
LINE
  5
29D
100
AcDbEntity
  8
7_ALL_FEATURES
100
AcDbLine
 62
7
  6
CONTINUOUS
 10
130.587131535
 20
473.3967324335
 11
130.587131535
 21
281.1917992683
  0
LINE
  5
29E
100
AcDbEntity
  8
7_ALL_FEATURES
100
AcDbLine
 62
7
  6
CONTINUOUS
 10
130.587131535
 20
273.3967324335
 11
130.587131535
 21
81.1917992683
  0
LINE
  5
29F
100
AcDbEntity
  8
7_ALL_FEATURES
100
AcDbLine
 62
7
  6
CONTINUOUS
 10
130.587131535
 20
73.3967324335
 11
130.587131535
 21
35.2942658509
  0
LINE
  5
2A0
100
AcDbEntity
  8
7_ALL_FEATURES
100
AcDbLine
 62
7
  6
CONTINUOUS
 10
132.987131535
 20
611.5942658509
 11
132.987131535
 21
35.2942658509
  0
LINE
  5
2A1
100
AcDbEntity
  8
7_ALL_FEATURES
100
AcDbLine
 62
7
  6
CONTINUOUS
 10
133.587131535
 20
610.9942658509
 11
133.587131535
 21
35.2942658509
  0
LINE
  5
2A2
100
AcDbEntity
  8
7_ALL_FEATURES
100
AcDbLine
 62
7
  6
CONTINUOUS
 10
135.987131535
 20
608.5942658509
 11
135.987131535
 21
35.2942658509
  0
LINE
  5
2A3
100
AcDbEntity
  8
7_ALL_FEATURES
100
AcDbLine
 62
7
  6
CONTINUOUS
 10
136.587131535
 20
607.9942658509
 11
136.587131535
 21
35.2942658509
  0
LINE
  5
2A4
100
AcDbEntity
  8
7_ALL_FEATURES
100
AcDbLine
 62
7
  6
CONTINUOUS
 10
138.987131535
 20
605.5942658509
 11
138.987131535
 21
35.2942658509
  0
LINE
  5
2A5
100
AcDbEntity
  8
7_ALL_FEATURES
100
AcDbLine
 62
7
  6
CONTINUOUS
 10
139.587131535
 20
604.9942658509
 11
139.587131535
 21
35.2942658509
  0
LINE
  5
2A6
100
AcDbEntity
  8
7_ALL_FEATURES
100
AcDbLine
 62
9
  6
CONTINUOUS
 10
141.887131535
 20
602.6942658509
 11
141.887131535
 21
35.2942658509
  0
LINE
  5
2A7
100
AcDbEntity
  8
7_ALL_FEATURES
100
AcDbLine
 62
7
  6
CONTINUOUS
 10
142.087131535
 20
35.2942658509
 11
142.087131535
 21
602.4942658509
  0
LINE
  5
2A8
100
AcDbEntity
  8
7_ALL_FEATURES
100
AcDbLine
 62
9
  6
CONTINUOUS
 10
142.287131535
 20
35.2942658509
 11
142.287131535
 21
602.2942658509
  0
LINE
  5
2A9
100
AcDbEntity
  8
7_ALL_FEATURES
100
AcDbLine
 62
9
  6
CONTINUOUS
 10
143.087131535
 20
35.2942658509
 11
143.087131535
 21
601.4942658509
  0
LINE
  5
2AA
100
AcDbEntity
  8
7_ALL_FEATURES
100
AcDbLine
 62
7
  6
CONTINUOUS
 10
143.287131535
 20
35.2942658509
 11
143.287131535
 21
601.2942658509
  0
LINE
  5
2AB
100
AcDbEntity
  8
7_ALL_FEATURES
100
AcDbLine
 62
7
  6
CONTINUOUS
 10
143.437131535
 20
35.2942658509
 11
143.437131535
 21
600.2942658509
  0
LINE
  5
2AC
100
AcDbEntity
  8
7_ALL_FEATURES
100
AcDbLine
 62
9
  6
CONTINUOUS
 10
143.487131535
 20
601.0942658509
 11
143.487131535
 21
600.2442658509
  0
LINE
  5
2AD
100
AcDbEntity
  8
7_ALL_FEATURES
100
AcDbLine
 62
9
  6
CONTINUOUS
 10
143.637131535
 20
35.2942658509
 11
143.637131535
 21
600.0942658509
  0
LINE
  5
2AE
100
AcDbEntity
  8
7_ALL_FEATURES
100
AcDbLine
 62
9
  6
CONTINUOUS
 10
144.337131535
 20
599.3942658509
 11
144.337131535
 21
600.2442658509
  0
LINE
  5
2AF
100
AcDbEntity
  8
7_ALL_FEATURES
100
AcDbLine
 62
7
  6
CONTINUOUS
 10
144.537131535
 20
599.1942658509
 11
144.537131535
 21
600.0442658509
  0
LINE
  5
2B0
100
AcDbEntity
  8
7_ALL_FEATURES
100
AcDbLine
 62
9
  6
CONTINUOUS
 10
144.5969417662
 20
599.9844556197
 11
144.5969417662
 21
599.1344556197
  0
LINE
  5
2B1
100
AcDbEntity
  8
7_ALL_FEATURES
100
AcDbLine
 62
9
  6
CONTINUOUS
 10
144.8163478767
 20
599.7650495093
 11
144.8163478767
 21
598.9150495093
  0
LINE
  5
2B2
100
AcDbEntity
  8
7_ALL_FEATURES
100
AcDbLine
 62
9
  6
CONTINUOUS
 10
145.887131535
 20
597.8442658509
 11
145.887131535
 21
598.6942658509
  0
LINE
  5
2B3
100
AcDbEntity
  8
7_ALL_FEATURES
100
AcDbLine
 62
7
  6
CONTINUOUS
 10
146.187131535
 20
597.5442658509
 11
146.187131535
 21
598.3942658509
  0
LINE
  5
2B4
100
AcDbEntity
  8
3_ALL_AXES
100
AcDbLine
 62
9
  6
CONTINUOUS
 10
146.2052237488
 20
598.3761736372
 11
146.2052237488
 21
597.5261736372
  0
LINE
  5
2B5
100
AcDbEntity
  8
3_ALL_AXES
100
AcDbLine
 62
9
  6
CONTINUOUS
 10
146.834525492
 20
596.8968718939
 11
146.834525492
 21
597.7468718939
  0
LINE
  5
2B6
100
AcDbEntity
  8
7_ALL_FEATURES
100
AcDbLine
 62
7
  6
CONTINUOUS
 10
146.8526177058
 20
596.8787796802
 11
146.8526177058
 21
597.7287796802
  0
LINE
  5
2B7
100
AcDbEntity
  8
7_ALL_FEATURES
100
AcDbLine
 62
9
  6
CONTINUOUS
 10
149.6584861362
 20
594.9229112498
 11
149.6584861362
 21
594.0729112498
  0
LINE
  5
2B8
100
AcDbEntity
  8
7_ALL_FEATURES
100
AcDbLine
 62
9
  6
CONTINUOUS
 10
150.1492997279
 20
594.432097658
 11
150.1492997279
 21
593.582097658
  0
LINE
  5
2B9
100
AcDbEntity
  8
7_ALL_FEATURES
100
AcDbLine
 62
7
  6
CONTINUOUS
 10
210.037131535
 20
35.2942658509
 11
139.587131535
 21
35.2942658509
  0
LINE
  5
2BA
100
AcDbEntity
  8
3_ALL_AXES
100
AcDbLine
 62
7
  6
CONTINUOUS
 10
139.587131535
 20
35.2942658509
 11
124.287131535
 21
35.2942658509
  0
LINE
  5
2BB
100
AcDbEntity
  8
7_ALL_FEATURES
100
AcDbLine
 62
7
  6
CONTINUOUS
 10
124.287131535
 20
35.2942658509
 11
121.7871360347
 21
35.2942658509
  0
LINE
  5
2BC
100
AcDbEntity
  8
6_ALL_SURFS
100
AcDbLine
 62
7
  6
CONTINUOUS
 10
210.0636682215
 20
35.2942658509
 11
231.6871270354
 21
35.2942658509
  0
LINE
  5
2BD
100
AcDbEntity
  8
7_ALL_FEATURES
100
AcDbLine
 62
9
  6
CONTINUOUS
 10
174.737131535
 20
568.9942658509
 11
174.737131535
 21
569.8442658509
  0
LINE
  5
2BE
100
AcDbEntity
  8
7_ALL_FEATURES
100
AcDbLine
 62
7
  6
CONTINUOUS
 10
175.037131535
 20
568.6942658509
 11
175.037131535
 21
569.5442658509
  0
LINE
  5
2BF
100
AcDbEntity
  8
7_ALL_FEATURES
100
AcDbLine
 62
9
  6
CONTINUOUS
 10
175.337131535
 20
569.2442658509
 11
175.337131535
 21
568.3942658509
  0
LINE
  5
2C0
100
AcDbEntity
  8
7_ALL_FEATURES
100
AcDbLine
 62
9
  6
CONTINUOUS
 10
178.137131535
 20
566.4442658509
 11
178.137131535
 21
565.5942658509
  0
LINE
  5
2C1
100
AcDbEntity
  8
7_ALL_FEATURES
100
AcDbLine
 62
7
  6
CONTINUOUS
 10
178.437131535
 20
565.2942658509
 11
178.437131535
 21
566.1442658509
  0
LINE
  5
2C2
100
AcDbEntity
  8
7_ALL_FEATURES
100
AcDbLine
 62
9
  6
CONTINUOUS
 10
178.737131535
 20
564.9942658509
 11
178.737131535
 21
565.8442658509
  0
LINE
  5
2C3
100
AcDbEntity
  8
7_ALL_FEATURES
100
AcDbLine
 62
9
  6
CONTINUOUS
 10
203.3249633421
 20
541.2564340439
 11
203.3249633421
 21
540.4064340439
  0
LINE
  5
2C4
100
AcDbEntity
  8
7_ALL_FEATURES
100
AcDbLine
 62
9
  6
CONTINUOUS
 10
203.8157769339
 20
540.7656204521
 11
203.8157769339
 21
539.9156204521
  0
LINE
  5
2C5
100
AcDbEntity
  8
6_ALL_SURFS
100
AcDbLine
 62
7
  6
CONTINUOUS
 10
206.6216453643
 20
537.9597520217
 11
206.6216453643
 21
537.1097520217
  0
LINE
  5
2C6
100
AcDbEntity
  8
3_ALL_AXES
100
AcDbLine
 62
9
  6
CONTINUOUS
 10
206.639737578
 20
537.0916598079
 11
206.639737578
 21
537.9416598079
  0
LINE
  5
2C7
100
AcDbEntity
  8
3_ALL_AXES
100
AcDbLine
 62
9
  6
CONTINUOUS
 10
207.2690393213
 20
537.3123580647
 11
207.2690393213
 21
536.4623580647
  0
LINE
  5
2C8
100
AcDbEntity
  8
7_ALL_FEATURES
100
AcDbLine
 62
7
  6
CONTINUOUS
 10
207.287131535
 20
536.4442658509
 11
207.287131535
 21
537.2942658509
  0
LINE
  5
2C9
100
AcDbEntity
  8
7_ALL_FEATURES
100
AcDbLine
 62
9
  6
CONTINUOUS
 10
207.587131535
 20
536.1442658509
 11
207.587131535
 21
536.9942658509
  0
LINE
  5
2CA
100
AcDbEntity
  8
7_ALL_FEATURES
100
AcDbLine
 62
9
  6
CONTINUOUS
 10
208.6579151933
 20
535.9234821926
 11
208.6579151933
 21
535.0734821926
  0
LINE
  5
2CB
100
AcDbEntity
  8
7_ALL_FEATURES
100
AcDbLine
 62
9
  6
CONTINUOUS
 10
208.8773213038
 20
535.7040760822
 11
208.8773213038
 21
534.8540760822
  0
LINE
  5
2CC
100
AcDbEntity
  8
7_ALL_FEATURES
100
AcDbLine
 62
7
  6
CONTINUOUS
 10
208.937131535
 20
534.7942658509
 11
208.937131535
 21
535.6442658509
  0
LINE
  5
2CD
100
AcDbEntity
  8
7_ALL_FEATURES
100
AcDbLine
 62
9
  6
CONTINUOUS
 10
209.137131535
 20
534.5942658509
 11
209.137131535
 21
535.4442658509
  0
LINE
  5
2CE
100
AcDbEntity
  8
7_ALL_FEATURES
100
AcDbLine
 62
9
  6
CONTINUOUS
 10
209.837131535
 20
35.2942658509
 11
209.837131535
 21
533.8942658509
  0
LINE
  5
2CF
100
AcDbEntity
  8
7_ALL_FEATURES
100
AcDbLine
 62
9
  6
CONTINUOUS
 10
209.987131535
 20
534.5942658509
 11
209.987131535
 21
533.7442658509
  0
LINE
  5
2D0
100
AcDbEntity
  8
7_ALL_FEATURES
100
AcDbLine
 62
7
  6
CONTINUOUS
 10
210.037131535
 20
35.2942658509
 11
210.037131535
 21
533.6942658509
  0
LINE
  5
2D1
100
AcDbEntity
  8
7_ALL_FEATURES
100
AcDbLine
 62
7
  6
CONTINUOUS
 10
210.187131535
 20
35.2942658509
 11
210.187131535
 21
534.3942658509
  0
LINE
  5
2D2
100
AcDbEntity
  8
7_ALL_FEATURES
100
AcDbLine
 62
9
  6
CONTINUOUS
 10
210.387131535
 20
35.2942658509
 11
210.387131535
 21
534.1942658509
  0
LINE
  5
2D3
100
AcDbEntity
  8
7_ALL_FEATURES
100
AcDbLine
 62
9
  6
CONTINUOUS
 10
211.187131535
 20
35.2942658509
 11
211.187131535
 21
533.3942658509
  0
LINE
  5
2D4
100
AcDbEntity
  8
7_ALL_FEATURES
100
AcDbLine
 62
7
  6
CONTINUOUS
 10
211.387131535
 20
35.2942658509
 11
211.387131535
 21
533.1942658509
  0
LINE
  5
2D5
100
AcDbEntity
  8
7_ALL_FEATURES
100
AcDbLine
 62
9
  6
CONTINUOUS
 10
211.587131535
 20
532.9942658509
 11
211.587131535
 21
35.2942658509
  0
LINE
  5
2D6
100
AcDbEntity
  8
7_ALL_FEATURES
100
AcDbLine
 62
7
  6
CONTINUOUS
 10
213.887131535
 20
530.6942658509
 11
213.887131535
 21
35.2942658509
  0
LINE
  5
2D7
100
AcDbEntity
  8
7_ALL_FEATURES
100
AcDbLine
 62
7
  6
CONTINUOUS
 10
214.487131535
 20
530.0942658509
 11
214.487131535
 21
35.2942658509
  0
LINE
  5
2D8
100
AcDbEntity
  8
7_ALL_FEATURES
100
AcDbLine
 62
7
  6
CONTINUOUS
 10
216.887131535
 20
527.6942658509
 11
216.887131535
 21
35.2942658509
  0
LINE
  5
2D9
100
AcDbEntity
  8
7_ALL_FEATURES
100
AcDbLine
 62
7
  6
CONTINUOUS
 10
217.487131535
 20
527.0942658509
 11
217.487131535
 21
35.2942658509
  0
LINE
  5
2DA
100
AcDbEntity
  8
7_ALL_FEATURES
100
AcDbLine
 62
7
  6
CONTINUOUS
 10
219.887131535
 20
524.6942658509
 11
219.887131535
 21
35.2942658509
  0
LINE
  5
2DB
100
AcDbEntity
  8
7_ALL_FEATURES
100
AcDbLine
 62
7
  6
CONTINUOUS
 10
220.487131535
 20
524.0942658509
 11
220.487131535
 21
35.2942658509
  0
LINE
  5
2DC
100
AcDbEntity
  8
7_ALL_FEATURES
100
AcDbLine
 62
7
  6
CONTINUOUS
 10
222.887131535
 20
521.6942658509
 11
222.887131535
 21
481.1917992683
  0
LINE
  5
2DD
100
AcDbEntity
  8
6_ALL_SURFS
100
AcDbLine
 62
7
  6
CONTINUOUS
 10
222.887131535
 20
473.3967324335
 11
222.887131535
 21
281.1917992683
  0
LINE
  5
2DE
100
AcDbEntity
  8
6_ALL_SURFS
100
AcDbLine
 62
7
  6
CONTINUOUS
 10
222.887131535
 20
273.3967324335
 11
222.887131535
 21
81.1917992683
  0
LINE
  5
2DF
100
AcDbEntity
  8
6_ALL_SURFS
100
AcDbLine
 62
7
  6
CONTINUOUS
 10
222.887131535
 20
73.3967324335
 11
222.887131535
 21
35.2942658509
  0
LINE
  5
2E0
100
AcDbEntity
  8
7_ALL_FEATURES
100
AcDbLine
 62
7
  6
CONTINUOUS
 10
223.487131535
 20
521.0942658509
 11
223.487131535
 21
481.5593293604
  0
LINE
  5
2E1
100
AcDbEntity
  8
6_ALL_SURFS
100
AcDbLine
 62
7
  6
CONTINUOUS
 10
223.487131535
 20
473.0292023415
 11
223.487131535
 21
281.5593293604
  0
LINE
  5
2E2
100
AcDbEntity
  8
6_ALL_SURFS
100
AcDbLine
 62
7
  6
CONTINUOUS
 10
223.487131535
 20
273.0292023415
 11
223.487131535
 21
81.5593293604
  0
LINE
  5
2E3
100
AcDbEntity
  8
6_ALL_SURFS
100
AcDbLine
 62
7
  6
CONTINUOUS
 10
223.487131535
 20
73.0292023415
 11
223.487131535
 21
35.2942658509
  0
LINE
  5
2E4
100
AcDbEntity
  8
7_ALL_FEATURES
100
AcDbLine
 62
7
  6
CONTINUOUS
 10
225.887131535
 20
518.6942658509
 11
225.887131535
 21
482.0891346437
  0
LINE
  5
2E5
100
AcDbEntity
  8
6_ALL_SURFS
100
AcDbLine
 62
7
  6
CONTINUOUS
 10
225.887131535
 20
472.4993970582
 11
225.887131535
 21
282.0891346437
  0
LINE
  5
2E6
100
AcDbEntity
  8
6_ALL_SURFS
100
AcDbLine
 62
7
  6
CONTINUOUS
 10
225.887131535
 20
272.4993970582
 11
225.887131535
 21
82.0891346437
  0
LINE
  5
2E7
100
AcDbEntity
  8
6_ALL_SURFS
100
AcDbLine
 62
7
  6
CONTINUOUS
 10
225.887131535
 20
72.4993970582
 11
225.887131535
 21
35.2942658509
  0
LINE
  5
2E8
100
AcDbEntity
  8
7_ALL_FEATURES
100
AcDbLine
 62
7
  6
CONTINUOUS
 10
226.487131535
 20
518.0942658509
 11
226.487131535
 21
482.0261541357
  0
LINE
  5
2E9
100
AcDbEntity
  8
6_ALL_SURFS
100
AcDbLine
 62
7
  6
CONTINUOUS
 10
226.487131535
 20
472.5623775662
 11
226.487131535
 21
282.0261541357
  0
LINE
  5
2EA
100
AcDbEntity
  8
6_ALL_SURFS
100
AcDbLine
 62
7
  6
CONTINUOUS
 10
226.487131535
 20
272.5623775662
 11
226.487131535
 21
82.0261541357
  0
LINE
  5
2EB
100
AcDbEntity
  8
6_ALL_SURFS
100
AcDbLine
 62
7
  6
CONTINUOUS
 10
226.487131535
 20
72.5623775662
 11
226.487131535
 21
35.2942658509
  0
LINE
  5
2EC
100
AcDbEntity
  8
7_ALL_FEATURES
100
AcDbLine
 62
7
  6
CONTINUOUS
 10
229.187131535
 20
515.3942658509
 11
229.187131535
 21
480.5776736446
  0
LINE
  5
2ED
100
AcDbEntity
  8
6_ALL_SURFS
100
AcDbLine
 62
7
  6
CONTINUOUS
 10
229.187131535
 20
474.0108580572
 11
229.187131535
 21
280.5776736446
  0
LINE
  5
2EE
100
AcDbEntity
  8
6_ALL_SURFS
100
AcDbLine
 62
7
  6
CONTINUOUS
 10
229.187131535
 20
274.0108580572
 11
229.187131535
 21
80.5776736446
  0
LINE
  5
2EF
100
AcDbEntity
  8
6_ALL_SURFS
100
AcDbLine
 62
7
  6
CONTINUOUS
 10
229.187131535
 20
74.0108580572
 11
229.187131535
 21
35.2942658509
  0
LINE
  5
2F0
100
AcDbEntity
  8
7_ALL_FEATURES
100
AcDbLine
 62
9
  6
CONTINUOUS
 10
231.3326031254
 20
513.2487942606
 11
231.3326031254
 21
35.2942658509
  0
LINE
  5
2F1
100
AcDbEntity
  8
6_ALL_SURFS
100
AcDbLine
 62
7
  6
CONTINUOUS
 10
231.687131535
 20
35.2942658509
 11
231.687131535
 21
512.8942658509
  0
LINE
  5
2F2
100
AcDbEntity
  8
7_ALL_FEATURES
100
AcDbLine
 62
7
  6
CONTINUOUS
 10
210.037131535
 20
533.6942658509
 11
143.437131535
 21
600.2942658509
  0
LINE
  5
2F3
100
AcDbEntity
  8
7_ALL_FEATURES
100
AcDbLine
 62
7
  6
CONTINUOUS
 10
231.6871596771
 20
512.8942377089
 11
210.187131535
 21
534.3942658509
  0
LINE
  5
2F4
100
AcDbEntity
  8
7_ALL_FEATURES
100
AcDbLine
 62
7
  6
CONTINUOUS
 10
210.1844093585
 20
534.3969880275
 11
207.287131535
 21
537.2942658509
  0
LINE
  5
2F5
100
AcDbEntity
  8
7_ALL_FEATURES
100
AcDbLine
 62
7
  6
CONTINUOUS
 10
207.2851873425
 20
537.2962100435
 11
178.437131535
 21
566.1442658509
  0
LINE
  5
2F6
100
AcDbEntity
  8
7_ALL_FEATURES
100
AcDbLine
 62
7
  6
CONTINUOUS
 10
178.4340009812
 20
566.1473964048
 11
175.0402620889
 21
569.5411352971
  0
LINE
  5
2F7
100
AcDbEntity
  8
7_ALL_FEATURES
100
AcDbLine
 62
7
  6
CONTINUOUS
 10
175.037131535
 20
569.5442658509
 11
146.1890757276
 21
598.3923216584
  0
LINE
  5
2F8
100
AcDbEntity
  8
7_ALL_FEATURES
100
AcDbLine
 62
7
  6
CONTINUOUS
 10
146.187131535
 20
598.3942658509
 11
143.2898537116
 21
601.2915436744
  0
LINE
  5
2F9
100
AcDbEntity
  8
7_ALL_FEATURES
100
AcDbLine
 62
7
  6
CONTINUOUS
 10
143.287131535
 20
601.2942658509
 11
121.787103393
 21
622.794293993
  0
LINE
  5
2FA
100
AcDbEntity
  8
7_ALL_FEATURES
100
AcDbLine
 62
7
  6
CONTINUOUS
 10
211.437131535
 20
534.5442658509
 11
144.837131535
 21
601.1442658509
  0
LINE
  5
2FB
100
AcDbEntity
  8
7_ALL_FEATURES
100
AcDbLine
 62
7
  6
CONTINUOUS
 10
231.687131535
 20
512.8942658509
 11
769.837131535
 21
512.8942658509
  0
LINE
  5
2FC
100
AcDbEntity
  8
7_ALL_FEATURES
100
AcDbLine
 62
9
  6
CONTINUOUS
 10
231.3326031254
 20
513.2487942606
 11
769.837131535
 21
513.2487942606
  0
LINE
  5
2FD
100
AcDbEntity
  8
7_ALL_FEATURES
100
AcDbLine
 62
7
  6
CONTINUOUS
 10
229.187131535
 20
515.3942658509
 11
273.5537237413
 21
515.3942658509
  0
LINE
  5
2FE
100
AcDbEntity
  8
7_ALL_FEATURES
100
AcDbLine
 62
7
  6
CONTINUOUS
 10
280.1205393287
 20
515.3942658509
 11
473.5537237413
 21
515.3942658509
  0
LINE
  5
2FF
100
AcDbEntity
  8
7_ALL_FEATURES
100
AcDbLine
 62
7
  6
CONTINUOUS
 10
480.1205393287
 20
515.3942658509
 11
673.5537237413
 21
515.3942658509
  0
LINE
  5
300
100
AcDbEntity
  8
7_ALL_FEATURES
100
AcDbLine
 62
7
  6
CONTINUOUS
 10
680.1205393287
 20
515.3942658509
 11
769.837131535
 21
515.3942658509
  0
LINE
  5
301
100
AcDbEntity
  8
7_ALL_FEATURES
100
AcDbLine
 62
7
  6
CONTINUOUS
 10
226.487131535
 20
518.0942658509
 11
272.1052432502
 21
518.0942658509
  0
LINE
  5
302
100
AcDbEntity
  8
7_ALL_FEATURES
100
AcDbLine
 62
7
  6
CONTINUOUS
 10
281.5690198198
 20
518.0942658509
 11
472.1052432502
 21
518.0942658509
  0
LINE
  5
303
100
AcDbEntity
  8
7_ALL_FEATURES
100
AcDbLine
 62
7
  6
CONTINUOUS
 10
481.5690198198
 20
518.0942658509
 11
672.1052432502
 21
518.0942658509
  0
LINE
  5
304
100
AcDbEntity
  8
7_ALL_FEATURES
100
AcDbLine
 62
7
  6
CONTINUOUS
 10
681.5690198198
 20
518.0942658509
 11
769.837131535
 21
518.0942658509
  0
LINE
  5
305
100
AcDbEntity
  8
7_ALL_FEATURES
100
AcDbLine
 62
7
  6
CONTINUOUS
 10
225.887131535
 20
518.6942658509
 11
272.0422627423
 21
518.6942658509
  0
LINE
  5
306
100
AcDbEntity
  8
7_ALL_FEATURES
100
AcDbLine
 62
7
  6
CONTINUOUS
 10
281.6320003278
 20
518.6942658509
 11
472.0422627423
 21
518.6942658509
  0
LINE
  5
307
100
AcDbEntity
  8
7_ALL_FEATURES
100
AcDbLine
 62
7
  6
CONTINUOUS
 10
481.6320003278
 20
518.6942658509
 11
672.0422627423
 21
518.6942658509
  0
LINE
  5
308
100
AcDbEntity
  8
7_ALL_FEATURES
100
AcDbLine
 62
7
  6
CONTINUOUS
 10
681.6320003278
 20
518.6942658509
 11
769.837131535
 21
518.6942658509
  0
LINE
  5
309
100
AcDbEntity
  8
7_ALL_FEATURES
100
AcDbLine
 62
7
  6
CONTINUOUS
 10
223.487131535
 20
521.0942658509
 11
272.5720680256
 21
521.0942658509
  0
LINE
  5
30A
100
AcDbEntity
  8
7_ALL_FEATURES
100
AcDbLine
 62
7
  6
CONTINUOUS
 10
281.1021950445
 20
521.0942658509
 11
472.5720680256
 21
521.0942658509
  0
LINE
  5
30B
100
AcDbEntity
  8
7_ALL_FEATURES
100
AcDbLine
 62
7
  6
CONTINUOUS
 10
481.1021950445
 20
521.0942658509
 11
672.5720680256
 21
521.0942658509
  0
LINE
  5
30C
100
AcDbEntity
  8
7_ALL_FEATURES
100
AcDbLine
 62
7
  6
CONTINUOUS
 10
681.1021950445
 20
521.0942658509
 11
769.837131535
 21
521.0942658509
  0
LINE
  5
30D
100
AcDbEntity
  8
7_ALL_FEATURES
100
AcDbLine
 62
7
  6
CONTINUOUS
 10
222.887131535
 20
521.6942658509
 11
272.9395981176
 21
521.6942658509
  0
LINE
  5
30E
100
AcDbEntity
  8
7_ALL_FEATURES
100
AcDbLine
 62
7
  6
CONTINUOUS
 10
280.7346649524
 20
521.6942658509
 11
472.9395981176
 21
521.6942658509
  0
LINE
  5
30F
100
AcDbEntity
  8
7_ALL_FEATURES
100
AcDbLine
 62
7
  6
CONTINUOUS
 10
480.7346649524
 20
521.6942658509
 11
672.9395981176
 21
521.6942658509
  0
LINE
  5
310
100
AcDbEntity
  8
7_ALL_FEATURES
100
AcDbLine
 62
7
  6
CONTINUOUS
 10
680.7346649524
 20
521.6942658509
 11
769.837131535
 21
521.6942658509
  0
LINE
  5
311
100
AcDbEntity
  8
7_ALL_FEATURES
100
AcDbLine
 62
7
  6
CONTINUOUS
 10
220.487131535
 20
524.0942658509
 11
769.837131535
 21
524.0942658509
  0
LINE
  5
312
100
AcDbEntity
  8
7_ALL_FEATURES
100
AcDbLine
 62
7
  6
CONTINUOUS
 10
219.887131535
 20
524.6942658509
 11
769.837131535
 21
524.6942658509
  0
LINE
  5
313
100
AcDbEntity
  8
7_ALL_FEATURES
100
AcDbLine
 62
7
  6
CONTINUOUS
 10
217.487131535
 20
527.0942658509
 11
769.837131535
 21
527.0942658509
  0
LINE
  5
314
100
AcDbEntity
  8
7_ALL_FEATURES
100
AcDbLine
 62
7
  6
CONTINUOUS
 10
216.887131535
 20
527.6942658509
 11
769.837131535
 21
527.6942658509
  0
LINE
  5
315
100
AcDbEntity
  8
7_ALL_FEATURES
100
AcDbLine
 62
7
  6
CONTINUOUS
 10
214.487131535
 20
530.0942658509
 11
769.837131535
 21
530.0942658509
  0
LINE
  5
316
100
AcDbEntity
  8
7_ALL_FEATURES
100
AcDbLine
 62
7
  6
CONTINUOUS
 10
213.887131535
 20
530.6942658509
 11
769.837131535
 21
530.6942658509
  0
LINE
  5
317
100
AcDbEntity
  8
7_ALL_FEATURES
100
AcDbLine
 62
9
  6
CONTINUOUS
 10
211.587131535
 20
532.9942658509
 11
769.837131535
 21
532.9942658509
  0
LINE
  5
318
100
AcDbEntity
  8
7_ALL_FEATURES
100
AcDbLine
 62
7
  6
CONTINUOUS
 10
769.837131535
 20
533.1942658509
 11
211.387131535
 21
533.1942658509
  0
LINE
  5
319
100
AcDbEntity
  8
7_ALL_FEATURES
100
AcDbLine
 62
9
  6
CONTINUOUS
 10
769.837131535
 20
533.3942658509
 11
211.187131535
 21
533.3942658509
  0
LINE
  5
31A
100
AcDbEntity
  8
7_ALL_FEATURES
100
AcDbLine
 62
9
  6
CONTINUOUS
 10
769.837131535
 20
534.1942658509
 11
210.387131535
 21
534.1942658509
  0
LINE
  5
31B
100
AcDbEntity
  8
7_ALL_FEATURES
100
AcDbLine
 62
7
  6
CONTINUOUS
 10
769.837131535
 20
534.3942658509
 11
210.187131535
 21
534.3942658509
  0
LINE
  5
31C
100
AcDbEntity
  8
7_ALL_FEATURES
100
AcDbLine
 62
7
  6
CONTINUOUS
 10
211.437131535
 20
534.5442658509
 11
769.837131535
 21
534.5442658509
  0
LINE
  5
31D
100
AcDbEntity
  8
7_ALL_FEATURES
100
AcDbLine
 62
9
  6
CONTINUOUS
 10
209.987131535
 20
534.5942658509
 11
211.387131535
 21
534.5942658509
  0
LINE
  5
31E
100
AcDbEntity
  8
7_ALL_FEATURES
100
AcDbLine
 62
9
  6
CONTINUOUS
 10
211.237131535
 20
534.7442658509
 11
769.837131535
 21
534.7442658509
  0
LINE
  5
31F
100
AcDbEntity
  8
7_ALL_FEATURES
100
AcDbLine
 62
9
  6
CONTINUOUS
 10
210.537131535
 20
535.4442658509
 11
209.137131535
 21
535.4442658509
  0
LINE
  5
320
100
AcDbEntity
  8
7_ALL_FEATURES
100
AcDbLine
 62
7
  6
CONTINUOUS
 10
210.337131535
 20
535.6442658509
 11
208.937131535
 21
535.6442658509
  0
LINE
  5
321
100
AcDbEntity
  8
7_ALL_FEATURES
100
AcDbLine
 62
9
  6
CONTINUOUS
 10
208.8773213038
 20
535.7040760822
 11
210.2773213038
 21
535.7040760822
  0
LINE
  5
322
100
AcDbEntity
  8
7_ALL_FEATURES
100
AcDbLine
 62
9
  6
CONTINUOUS
 10
208.6579151933
 20
535.9234821926
 11
210.0579151933
 21
535.9234821926
  0
LINE
  5
323
100
AcDbEntity
  8
7_ALL_FEATURES
100
AcDbLine
 62
9
  6
CONTINUOUS
 10
208.987131535
 20
536.9942658509
 11
207.587131535
 21
536.9942658509
  0
LINE
  5
324
100
AcDbEntity
  8
7_ALL_FEATURES
100
AcDbLine
 62
7
  6
CONTINUOUS
 10
208.687131535
 20
537.2942658509
 11
207.287131535
 21
537.2942658509
  0
LINE
  5
325
100
AcDbEntity
  8
3_ALL_AXES
100
AcDbLine
 62
9
  6
CONTINUOUS
 10
207.2690393213
 20
537.3123580647
 11
208.6690393213
 21
537.3123580647
  0
LINE
  5
326
100
AcDbEntity
  8
3_ALL_AXES
100
AcDbLine
 62
9
  6
CONTINUOUS
 10
208.039737578
 20
537.9416598079
 11
206.639737578
 21
537.9416598079
  0
LINE
  5
327
100
AcDbEntity
  8
7_ALL_FEATURES
100
AcDbLine
 62
7
  6
CONTINUOUS
 10
208.0216453643
 20
537.9597520217
 11
206.6216453643
 21
537.9597520217
  0
LINE
  5
328
100
AcDbEntity
  8
7_ALL_FEATURES
100
AcDbLine
 62
9
  6
CONTINUOUS
 10
203.8157769339
 20
540.7656204521
 11
205.2157769339
 21
540.7656204521
  0
LINE
  5
329
100
AcDbEntity
  8
7_ALL_FEATURES
100
AcDbLine
 62
9
  6
CONTINUOUS
 10
203.3249633421
 20
541.2564340439
 11
204.7249633421
 21
541.2564340439
  0
LINE
  5
32A
100
AcDbEntity
  8
7_ALL_FEATURES
100
AcDbLine
 62
9
  6
CONTINUOUS
 10
180.137131535
 20
565.8442658509
 11
178.737131535
 21
565.8442658509
  0
LINE
  5
32B
100
AcDbEntity
  8
7_ALL_FEATURES
100
AcDbLine
 62
7
  6
CONTINUOUS
 10
179.837131535
 20
566.1442658509
 11
178.437131535
 21
566.1442658509
  0
LINE
  5
32C
100
AcDbEntity
  8
7_ALL_FEATURES
100
AcDbLine
 62
9
  6
CONTINUOUS
 10
178.137131535
 20
566.4442658509
 11
179.537131535
 21
566.4442658509
  0
LINE
  5
32D
100
AcDbEntity
  8
7_ALL_FEATURES
100
AcDbLine
 62
9
  6
CONTINUOUS
 10
175.337131535
 20
569.2442658509
 11
176.737131535
 21
569.2442658509
  0
LINE
  5
32E
100
AcDbEntity
  8
7_ALL_FEATURES
100
AcDbLine
 62
7
  6
CONTINUOUS
 10
176.437131535
 20
569.5442658509
 11
175.037131535
 21
569.5442658509
  0
LINE
  5
32F
100
AcDbEntity
  8
7_ALL_FEATURES
100
AcDbLine
 62
9
  6
CONTINUOUS
 10
176.137131535
 20
569.8442658509
 11
174.737131535
 21
569.8442658509
  0
LINE
  5
330
100
AcDbEntity
  8
7_ALL_FEATURES
100
AcDbLine
 62
9
  6
CONTINUOUS
 10
150.1492997279
 20
594.432097658
 11
151.5492997279
 21
594.432097658
  0
LINE
  5
331
100
AcDbEntity
  8
7_ALL_FEATURES
100
AcDbLine
 62
9
  6
CONTINUOUS
 10
149.6584861362
 20
594.9229112498
 11
151.0584861362
 21
594.9229112498
  0
LINE
  5
332
100
AcDbEntity
  8
6_ALL_SURFS
100
AcDbLine
 62
7
  6
CONTINUOUS
 10
146.8526177058
 20
597.7287796802
 11
148.2526177058
 21
597.7287796802
  0
LINE
  5
333
100
AcDbEntity
  8
3_ALL_AXES
100
AcDbLine
 62
9
  6
CONTINUOUS
 10
148.234525492
 20
597.7468718939
 11
146.834525492
 21
597.7468718939
  0
LINE
  5
334
100
AcDbEntity
  8
3_ALL_AXES
100
AcDbLine
 62
9
  6
CONTINUOUS
 10
146.2052237488
 20
598.3761736372
 11
147.6052237488
 21
598.3761736372
  0
LINE
  5
335
100
AcDbEntity
  8
7_ALL_FEATURES
100
AcDbLine
 62
7
  6
CONTINUOUS
 10
147.587131535
 20
598.3942658509
 11
146.187131535
 21
598.3942658509
  0
LINE
  5
336
100
AcDbEntity
  8
7_ALL_FEATURES
100
AcDbLine
 62
9
  6
CONTINUOUS
 10
147.287131535
 20
598.6942658509
 11
145.887131535
 21
598.6942658509
  0
LINE
  5
337
100
AcDbEntity
  8
7_ALL_FEATURES
100
AcDbLine
 62
9
  6
CONTINUOUS
 10
144.8163478767
 20
599.7650495093
 11
146.2163478767
 21
599.7650495093
  0
LINE
  5
338
100
AcDbEntity
  8
7_ALL_FEATURES
100
AcDbLine
 62
9
  6
CONTINUOUS
 10
144.5969417662
 20
599.9844556197
 11
145.9969417662
 21
599.9844556197
  0
LINE
  5
339
100
AcDbEntity
  8
7_ALL_FEATURES
100
AcDbLine
 62
7
  6
CONTINUOUS
 10
145.937131535
 20
600.0442658509
 11
144.537131535
 21
600.0442658509
  0
LINE
  5
33A
100
AcDbEntity
  8
7_ALL_FEATURES
100
AcDbLine
 62
9
  6
CONTINUOUS
 10
145.737131535
 20
600.2442658509
 11
144.337131535
 21
600.2442658509
  0
LINE
  5
33B
100
AcDbEntity
  8
7_ALL_FEATURES
100
AcDbLine
 62
9
  6
CONTINUOUS
 10
145.037131535
 20
600.9442658509
 11
769.837131535
 21
600.9442658509
  0
LINE
  5
33C
100
AcDbEntity
  8
7_ALL_FEATURES
100
AcDbLine
 62
9
  6
CONTINUOUS
 10
143.487131535
 20
601.0942658509
 11
144.887131535
 21
601.0942658509
  0
LINE
  5
33D
100
AcDbEntity
  8
7_ALL_FEATURES
100
AcDbLine
 62
7
  6
CONTINUOUS
 10
144.837131535
 20
601.1442658509
 11
769.837131535
 21
601.1442658509
  0
LINE
  5
33E
100
AcDbEntity
  8
7_ALL_FEATURES
100
AcDbLine
 62
7
  6
CONTINUOUS
 10
769.837131535
 20
601.2942658509
 11
143.287131535
 21
601.2942658509
  0
LINE
  5
33F
100
AcDbEntity
  8
7_ALL_FEATURES
100
AcDbLine
 62
9
  6
CONTINUOUS
 10
769.837131535
 20
601.4942658509
 11
143.087131535
 21
601.4942658509
  0
LINE
  5
340
100
AcDbEntity
  8
7_ALL_FEATURES
100
AcDbLine
 62
9
  6
CONTINUOUS
 10
769.837131535
 20
602.2942658509
 11
142.287131535
 21
602.2942658509
  0
LINE
  5
341
100
AcDbEntity
  8
7_ALL_FEATURES
100
AcDbLine
 62
7
  6
CONTINUOUS
 10
769.837131535
 20
602.4942658509
 11
142.087131535
 21
602.4942658509
  0
LINE
  5
342
100
AcDbEntity
  8
7_ALL_FEATURES
100
AcDbLine
 62
9
  6
CONTINUOUS
 10
141.887131535
 20
602.6942658509
 11
769.837131535
 21
602.6942658509
  0
LINE
  5
343
100
AcDbEntity
  8
7_ALL_FEATURES
100
AcDbLine
 62
7
  6
CONTINUOUS
 10
139.587131535
 20
604.9942658509
 11
769.837131535
 21
604.9942658509
  0
LINE
  5
344
100
AcDbEntity
  8
7_ALL_FEATURES
100
AcDbLine
 62
7
  6
CONTINUOUS
 10
138.987131535
 20
605.5942658509
 11
769.837131535
 21
605.5942658509
  0
LINE
  5
345
100
AcDbEntity
  8
7_ALL_FEATURES
100
AcDbLine
 62
7
  6
CONTINUOUS
 10
136.587131535
 20
607.9942658509
 11
769.837131535
 21
607.9942658509
  0
LINE
  5
346
100
AcDbEntity
  8
7_ALL_FEATURES
100
AcDbLine
 62
7
  6
CONTINUOUS
 10
135.987131535
 20
608.5942658509
 11
769.837131535
 21
608.5942658509
  0
LINE
  5
347
100
AcDbEntity
  8
7_ALL_FEATURES
100
AcDbLine
 62
7
  6
CONTINUOUS
 10
133.587131535
 20
610.9942658509
 11
769.837131535
 21
610.9942658509
  0
LINE
  5
348
100
AcDbEntity
  8
7_ALL_FEATURES
100
AcDbLine
 62
7
  6
CONTINUOUS
 10
132.987131535
 20
611.5942658509
 11
769.837131535
 21
611.5942658509
  0
LINE
  5
349
100
AcDbEntity
  8
7_ALL_FEATURES
100
AcDbLine
 62
7
  6
CONTINUOUS
 10
130.587131535
 20
613.9942658509
 11
272.9395981176
 21
613.9942658509
  0
LINE
  5
34A
100
AcDbEntity
  8
6_ALL_SURFS
100
AcDbLine
 62
7
  6
CONTINUOUS
 10
280.7346649524
 20
613.9942658509
 11
472.9395981176
 21
613.9942658509
  0
LINE
  5
34B
100
AcDbEntity
  8
6_ALL_SURFS
100
AcDbLine
 62
7
  6
CONTINUOUS
 10
480.7346649524
 20
613.9942658509
 11
672.9395981176
 21
613.9942658509
  0
LINE
  5
34C
100
AcDbEntity
  8
6_ALL_SURFS
100
AcDbLine
 62
7
  6
CONTINUOUS
 10
680.7346649524
 20
613.9942658509
 11
769.837131535
 21
613.9942658509
  0
LINE
  5
34D
100
AcDbEntity
  8
7_ALL_FEATURES
100
AcDbLine
 62
7
  6
CONTINUOUS
 10
129.987131535
 20
614.5942658509
 11
272.5720680256
 21
614.5942658509
  0
LINE
  5
34E
100
AcDbEntity
  8
6_ALL_SURFS
100
AcDbLine
 62
7
  6
CONTINUOUS
 10
281.1021950445
 20
614.5942658509
 11
472.5720680256
 21
614.5942658509
  0
LINE
  5
34F
100
AcDbEntity
  8
6_ALL_SURFS
100
AcDbLine
 62
7
  6
CONTINUOUS
 10
481.1021950445
 20
614.5942658509
 11
672.5720680256
 21
614.5942658509
  0
LINE
  5
350
100
AcDbEntity
  8
6_ALL_SURFS
100
AcDbLine
 62
7
  6
CONTINUOUS
 10
681.1021950445
 20
614.5942658509
 11
769.837131535
 21
614.5942658509
  0
LINE
  5
351
100
AcDbEntity
  8
7_ALL_FEATURES
100
AcDbLine
 62
7
  6
CONTINUOUS
 10
127.587131535
 20
616.9942658509
 11
272.0422627423
 21
616.9942658509
  0
LINE
  5
352
100
AcDbEntity
  8
6_ALL_SURFS
100
AcDbLine
 62
7
  6
CONTINUOUS
 10
281.6320003278
 20
616.9942658509
 11
472.0422627423
 21
616.9942658509
  0
LINE
  5
353
100
AcDbEntity
  8
6_ALL_SURFS
100
AcDbLine
 62
7
  6
CONTINUOUS
 10
481.6320003278
 20
616.9942658509
 11
672.0422627423
 21
616.9942658509
  0
LINE
  5
354
100
AcDbEntity
  8
6_ALL_SURFS
100
AcDbLine
 62
7
  6
CONTINUOUS
 10
681.6320003278
 20
616.9942658509
 11
769.837131535
 21
616.9942658509
  0
LINE
  5
355
100
AcDbEntity
  8
7_ALL_FEATURES
100
AcDbLine
 62
7
  6
CONTINUOUS
 10
126.987131535
 20
617.5942658509
 11
272.1052432502
 21
617.5942658509
  0
LINE
  5
356
100
AcDbEntity
  8
6_ALL_SURFS
100
AcDbLine
 62
7
  6
CONTINUOUS
 10
281.5690198198
 20
617.5942658509
 11
472.1052432502
 21
617.5942658509
  0
LINE
  5
357
100
AcDbEntity
  8
6_ALL_SURFS
100
AcDbLine
 62
7
  6
CONTINUOUS
 10
481.5690198198
 20
617.5942658509
 11
672.1052432502
 21
617.5942658509
  0
LINE
  5
358
100
AcDbEntity
  8
6_ALL_SURFS
100
AcDbLine
 62
7
  6
CONTINUOUS
 10
681.5690198198
 20
617.5942658509
 11
769.837131535
 21
617.5942658509
  0
LINE
  5
359
100
AcDbEntity
  8
7_ALL_FEATURES
100
AcDbLine
 62
7
  6
CONTINUOUS
 10
124.287131535
 20
620.2942658509
 11
273.5537237413
 21
620.2942658509
  0
LINE
  5
35A
100
AcDbEntity
  8
6_ALL_SURFS
100
AcDbLine
 62
7
  6
CONTINUOUS
 10
280.1205393287
 20
620.2942658509
 11
473.5537237413
 21
620.2942658509
  0
LINE
  5
35B
100
AcDbEntity
  8
6_ALL_SURFS
100
AcDbLine
 62
7
  6
CONTINUOUS
 10
480.1205393287
 20
620.2942658509
 11
673.5537237413
 21
620.2942658509
  0
LINE
  5
35C
100
AcDbEntity
  8
6_ALL_SURFS
100
AcDbLine
 62
7
  6
CONTINUOUS
 10
680.1205393287
 20
620.2942658509
 11
769.837131535
 21
620.2942658509
  0
LINE
  5
35D
100
AcDbEntity
  8
7_ALL_FEATURES
100
AcDbLine
 62
9
  6
CONTINUOUS
 10
122.1416599447
 20
622.4397374413
 11
769.837131535
 21
622.4397374413
  0
LINE
  5
35E
100
AcDbEntity
  8
6_ALL_SURFS
100
AcDbLine
 62
7
  6
CONTINUOUS
 10
769.837131535
 20
622.7942658509
 11
121.787131535
 21
622.7942658509
  0
LINE
  5
35F
100
AcDbEntity
  8
3_ALL_AXES
100
AcDbLine
 62
7
  6
CONTINUOUS
 10
769.837131535
 20
530.6942658509
 11
769.837131535
 21
515.3942658509
  0
LINE
  5
360
100
AcDbEntity
  8
7_ALL_FEATURES
100
AcDbLine
 62
7
  6
CONTINUOUS
 10
769.837131535
 20
515.3942658509
 11
769.837131535
 21
512.8942703506
  0
LINE
  5
361
100
AcDbEntity
  8
7_ALL_FEATURES
100
AcDbLine
 62
7
  6
CONTINUOUS
 10
769.837131535
 20
530.6942658509
 11
769.837131535
 21
601.1442658509
  0
LINE
  5
362
100
AcDbEntity
  8
6_ALL_SURFS
100
AcDbLine
 62
7
  6
CONTINUOUS
 10
769.837131535
 20
601.1810425988
 11
769.837131535
 21
622.7942613513
  0
LINE
  5
363
100
AcDbEntity
  8
3_ALL_AXES
100
AcDbLine
 62
7
  6
CONTINUOUS
 10
899.7889182425
 20
35.2942658509
 11
899.6389182425
 21
35.2942658509
  0
LINE
  5
364
100
AcDbEntity
  8
7_ALL_FEATURES
100
AcDbLine
 62
7
  6
CONTINUOUS
 10
902.2889182425
 20
35.2942658509
 11
899.7889182425
 21
35.2942658509
  0
LINE
  5
365
100
AcDbEntity
  8
7_ALL_FEATURES
100
AcDbLine
 62
7
  6
CONTINUOUS
 10
899.6389182425
 20
35.2942658509
 11
826.2889182425
 21
35.2942658509
  0
LINE
  5
366
100
AcDbEntity
  8
7_ALL_FEATURES
100
AcDbLine
 62
7
  6
CONTINUOUS
 10
819.9889182425
 20
582.0942658509
 11
820.4889182425
 21
582.5942658509
  0
LINE
  5
367
100
AcDbEntity
  8
7_ALL_FEATURES
100
AcDbLine
 62
7
  6
CONTINUOUS
 10
819.9889182425
 20
553.7442658509
 11
820.4889182425
 21
554.2442658509
  0
LINE
  5
368
100
AcDbEntity
  8
7_ALL_FEATURES
100
AcDbLine
 62
7
  6
CONTINUOUS
 10
897.2659207024
 20
602.3912964034
 11
895.1035571193
 21
600.3748597405
  0
LINE
  5
369
100
AcDbEntity
  8
7_ALL_FEATURES
100
AcDbLine
 62
7
  6
CONTINUOUS
 10
899.7889182425
 20
620.5942658509
 11
899.6389182425
 21
620.2942658509
  0
LINE
  5
36A
100
AcDbEntity
  8
7_ALL_FEATURES
100
AcDbLine
 62
7
  6
CONTINUOUS
 10
855.4228928387
 20
506.7942658509
 11
854.5568674349
 21
505.2942658509
  0
LINE
  5
36B
100
AcDbEntity
  8
7_ALL_FEATURES
100
AcDbLine
 62
7
  6
CONTINUOUS
 10
857.1549436463
 20
503.7942658509
 11
858.0209690501
 21
505.2942658509
  0
LINE
  5
36C
100
AcDbEntity
  8
7_ALL_FEATURES
100
AcDbLine
 62
7
  6
CONTINUOUS
 10
819.9889182425
 20
549.7442658509
 11
819.9889182425
 21
553.7442658509
  0
LINE
  5
36D
100
AcDbEntity
  8
7_ALL_FEATURES
100
AcDbLine
 62
7
  6
CONTINUOUS
 10
819.9889182425
 20
578.0942658509
 11
819.9889182425
 21
582.0942658509
  0
LINE
  5
36E
100
AcDbEntity
  8
7_ALL_FEATURES
100
AcDbLine
 62
7
  6
CONTINUOUS
 10
820.4889182425
 20
549.2442658509
 11
820.4889182425
 21
554.2442658509
  0
LINE
  5
36F
100
AcDbEntity
  8
7_ALL_FEATURES
100
AcDbLine
 62
7
  6
CONTINUOUS
 10
820.4889182425
 20
577.5942658509
 11
820.4889182425
 21
582.5942658509
  0
LINE
  5
370
100
AcDbEntity
  8
3_ALL_AXES
100
AcDbLine
 62
7
  6
CONTINUOUS
 10
821.2889182425
 20
584.4442658509
 11
821.2889182425
 21
575.7442658509
  0
LINE
  5
371
100
AcDbEntity
  8
3_ALL_AXES
100
AcDbLine
 62
7
  6
CONTINUOUS
 10
821.2889182425
 20
556.4442658509
 11
821.2889182425
 21
547.7442658509
  0
LINE
  5
372
100
AcDbEntity
  8
7_ALL_FEATURES
100
AcDbLine
 62
3
  6
CONTINUOUS
 10
823.2889182425
 20
592.5942658509
 11
823.2889182425
 21
537.5942658509
  0
LINE
  5
373
100
AcDbEntity
  8
7_ALL_FEATURES
100
AcDbLine
 62
7
  6
CONTINUOUS
 10
826.2889182425
 20
35.2942658509
 11
826.2889182425
 21
594.7942658509
  0
LINE
  5
374
100
AcDbEntity
  8
7_ALL_FEATURES
100
AcDbLine
 62
9
  6
CONTINUOUS
 10
826.5889182425
 20
35.2942658509
 11
826.5889182425
 21
595.0942658509
  0
LINE
  5
375
100
AcDbEntity
  8
7_ALL_FEATURES
100
AcDbLine
 62
9
  6
CONTINUOUS
 10
827.2889182425
 20
35.2942658509
 11
827.2889182425
 21
595.0942658509
  0
LINE
  5
376
100
AcDbEntity
  8
7_ALL_FEATURES
100
AcDbLine
 62
7
  6
CONTINUOUS
 10
827.5889182425
 20
35.2942658509
 11
827.5889182425
 21
594.7942658509
  0
LINE
  5
377
100
AcDbEntity
  8
7_ALL_FEATURES
100
AcDbLine
 62
9
  6
CONTINUOUS
 10
828.0485956618
 20
593.1646958976
 11
828.0485956618
 21
35.2942658509
  0
LINE
  5
378
100
AcDbEntity
  8
7_ALL_FEATURES
100
AcDbLine
 62
9
  6
CONTINUOUS
 10
830.9389182425
 20
593.2191369815
 11
830.9389182425
 21
35.2942658509
  0
LINE
  5
379
100
AcDbEntity
  8
7_ALL_FEATURES
100
AcDbLine
 62
7
  6
CONTINUOUS
 10
831.6889182425
 20
35.2942658509
 11
831.6889182425
 21
594.9266881425
  0
LINE
  5
37A
100
AcDbEntity
  8
7_ALL_FEATURES
100
AcDbLine
 62
9
  6
CONTINUOUS
 10
832.902505782
 20
35.2942658509
 11
832.902505782
 21
596.3990902284
  0
LINE
  5
37B
100
AcDbEntity
  8
7_ALL_FEATURES
100
AcDbLine
 62
9
  6
CONTINUOUS
 10
850.9118246561
 20
35.2942658509
 11
850.9118246561
 21
599.9022728038
  0
LINE
  5
37C
100
AcDbEntity
  8
3_ALL_AXES
100
AcDbLine
 62
9
  6
CONTINUOUS
 10
851.8665328578
 20
35.2942658509
 11
851.8665328578
 21
504.46209549
  0
LINE
  5
37D
100
AcDbEntity
  8
3_ALL_AXES
100
AcDbLine
 62
9
  6
CONTINUOUS
 10
851.8665328578
 20
506.1264362119
 11
851.8665328578
 21
599.9942658509
  0
LINE
  5
37E
100
AcDbEntity
  8
7_ALL_FEATURES
100
AcDbLine
 62
9
  6
CONTINUOUS
 10
887.0889182425
 20
599.9942658509
 11
887.0889182425
 21
35.2942658509
  0
LINE
  5
37F
100
AcDbEntity
  8
7_ALL_FEATURES
100
AcDbLine
 62
7
  6
CONTINUOUS
 10
887.3889182425
 20
35.2942658509
 11
887.3889182425
 21
601.3942658509
  0
LINE
  5
380
100
AcDbEntity
  8
7_ALL_FEATURES
100
AcDbLine
 62
9
  6
CONTINUOUS
 10
888.8889182425
 20
35.2942658509
 11
888.8889182425
 21
602.8942658509
  0
LINE
  5
381
100
AcDbEntity
  8
7_ALL_FEATURES
100
AcDbLine
 62
9
  6
CONTINUOUS
 10
891.6889182425
 20
35.2942658509
 11
891.6889182425
 21
602.8942658509
  0
LINE
  5
382
100
AcDbEntity
  8
7_ALL_FEATURES
100
AcDbLine
 62
7
  6
CONTINUOUS
 10
893.1889182425
 20
35.2942658509
 11
893.1889182425
 21
601.3942658509
  0
LINE
  5
383
100
AcDbEntity
  8
7_ALL_FEATURES
100
AcDbLine
 62
9
  6
CONTINUOUS
 10
893.4889182425
 20
600.2942658509
 11
893.4889182425
 21
35.2942658509
  0
LINE
  5
384
100
AcDbEntity
  8
7_ALL_FEATURES
100
AcDbLine
 62
9
  6
CONTINUOUS
 10
894.8989576113
 20
600.2942658509
 11
894.8989576113
 21
35.2942658509
  0
LINE
  5
385
100
AcDbEntity
  8
7_ALL_FEATURES
100
AcDbLine
 62
9
  6
CONTINUOUS
 10
895.1035571193
 20
600.3748597405
 11
895.1035571193
 21
35.2942658509
  0
LINE
  5
386
100
AcDbEntity
  8
7_ALL_FEATURES
100
AcDbLine
 62
9
  6
CONTINUOUS
 10
897.2659207024
 20
35.2942658509
 11
897.2659207024
 21
602.3912964034
  0
LINE
  5
387
100
AcDbEntity
  8
7_ALL_FEATURES
100
AcDbLine
 62
9
  6
CONTINUOUS
 10
898.2889182425
 20
35.2942658509
 11
898.2889182425
 21
602.7942658509
  0
LINE
  5
388
100
AcDbEntity
  8
7_ALL_FEATURES
100
AcDbLine
 62
7
  6
CONTINUOUS
 10
899.6389182425
 20
620.2942658509
 11
899.6389182425
 21
35.2942658509
  0
LINE
  5
389
100
AcDbEntity
  8
7_ALL_FEATURES
100
AcDbLine
 62
7
  6
CONTINUOUS
 10
899.7889182425
 20
622.400562493
 11
899.7889182425
 21
35.2942658509
  0
LINE
  5
38A
100
AcDbEntity
  8
7_ALL_FEATURES
100
AcDbLine
 62
9
  6
CONTINUOUS
 10
900.5743710835
 20
622.4397374413
 11
900.5743710835
 21
35.2942658509
  0
LINE
  5
38B
100
AcDbEntity
  8
7_ALL_FEATURES
100
AcDbLine
 62
7
  6
CONTINUOUS
 10
900.7889182425
 20
620.2942658509
 11
900.7889182425
 21
35.2942658509
  0
LINE
  5
38C
100
AcDbEntity
  8
7_ALL_FEATURES
100
AcDbLine
 62
9
  6
CONTINUOUS
 10
900.9889182425
 20
602.4942658509
 11
900.9889182425
 21
35.2942658509
  0
LINE
  5
38D
100
AcDbEntity
  8
7_ALL_FEATURES
100
AcDbLine
 62
9
  6
CONTINUOUS
 10
902.0889182425
 20
35.2942658509
 11
902.0889182425
 21
602.4942658509
  0
LINE
  5
38E
100
AcDbEntity
  8
7_ALL_FEATURES
100
AcDbLine
 62
7
  6
CONTINUOUS
 10
902.2889182425
 20
35.2942658509
 11
902.2889182425
 21
602.2942658509
  0
LINE
  5
38F
100
AcDbEntity
  8
7_ALL_FEATURES
100
AcDbLine
 62
7
  6
CONTINUOUS
 10
900.7889182425
 20
620.2942658509
 11
900.5743710835
 21
622.4397374413
  0
LINE
  5
390
100
AcDbEntity
  8
7_ALL_FEATURES
100
AcDbLine
 62
7
  6
CONTINUOUS
 10
854.5568674349
 20
505.2942658509
 11
855.4228928387
 21
503.7942658509
  0
LINE
  5
391
100
AcDbEntity
  8
7_ALL_FEATURES
100
AcDbLine
 62
7
  6
CONTINUOUS
 10
858.0209690501
 20
505.2942658509
 11
857.1549436463
 21
506.7942658509
  0
LINE
  5
392
100
AcDbEntity
  8
7_ALL_FEATURES
100
AcDbLine
 62
7
  6
CONTINUOUS
 10
819.9889182425
 20
549.7442658509
 11
820.4889182425
 21
549.2442658509
  0
LINE
  5
393
100
AcDbEntity
  8
7_ALL_FEATURES
100
AcDbLine
 62
7
  6
CONTINUOUS
 10
819.9889182425
 20
578.0942658509
 11
820.4889182425
 21
577.5942658509
  0
LINE
  5
394
100
AcDbEntity
  8
7_ALL_FEATURES
100
AcDbLine
 62
7
  6
CONTINUOUS
 10
855.4228928387
 20
503.7942658509
 11
857.1549436463
 21
503.7942658509
  0
LINE
  5
395
100
AcDbEntity
  8
7_ALL_FEATURES
100
AcDbLine
 62
7
  6
CONTINUOUS
 10
857.1549436463
 20
506.7942658509
 11
855.4228928387
 21
506.7942658509
  0
LINE
  5
396
100
AcDbEntity
  8
7_ALL_FEATURES
100
AcDbLine
 62
7
  6
CONTINUOUS
 10
823.2889182425
 20
537.5942658509
 11
826.2889182425
 21
537.5942658509
  0
LINE
  5
397
100
AcDbEntity
  8
3_ALL_AXES
100
AcDbLine
 62
7
  6
CONTINUOUS
 10
821.2889182425
 20
547.7442658509
 11
823.2889182425
 21
547.7442658509
  0
LINE
  5
398
100
AcDbEntity
  8
3_ALL_AXES
100
AcDbLine
 62
7
  6
CONTINUOUS
 10
820.4889182425
 20
549.2442658509
 11
821.2889182425
 21
549.2442658509
  0
LINE
  5
399
100
AcDbEntity
  8
3_ALL_AXES
100
AcDbLine
 62
7
  6
CONTINUOUS
 10
820.4889182425
 20
554.2442658509
 11
821.2889182425
 21
554.2442658509
  0
LINE
  5
39A
100
AcDbEntity
  8
3_ALL_AXES
100
AcDbLine
 62
7
  6
CONTINUOUS
 10
821.2889182425
 20
556.4442658509
 11
823.2889182425
 21
556.4442658509
  0
LINE
  5
39B
100
AcDbEntity
  8
3_ALL_AXES
100
AcDbLine
 62
7
  6
CONTINUOUS
 10
821.2889182425
 20
575.7442658509
 11
823.2889182425
 21
575.7442658509
  0
LINE
  5
39C
100
AcDbEntity
  8
3_ALL_AXES
100
AcDbLine
 62
7
  6
CONTINUOUS
 10
820.4889182425
 20
577.5942658509
 11
821.2889182425
 21
577.5942658509
  0
LINE
  5
39D
100
AcDbEntity
  8
3_ALL_AXES
100
AcDbLine
 62
7
  6
CONTINUOUS
 10
820.4889182425
 20
582.5942658509
 11
821.2889182425
 21
582.5942658509
  0
LINE
  5
39E
100
AcDbEntity
  8
3_ALL_AXES
100
AcDbLine
 62
7
  6
CONTINUOUS
 10
821.2889182425
 20
584.4442658509
 11
823.2889182425
 21
584.4442658509
  0
LINE
  5
39F
100
AcDbEntity
  8
7_ALL_FEATURES
100
AcDbLine
 62
7
  6
CONTINUOUS
 10
850.9118246561
 20
599.9022728038
 11
832.902505782
 21
596.3990902284
  0
LINE
  5
3A0
100
AcDbEntity
  8
7_ALL_FEATURES
100
AcDbLine
 62
7
  6
CONTINUOUS
 10
823.2889182425
 20
592.5942658509
 11
826.2889182425
 21
592.5942658509
  0
LINE
  5
3A1
100
AcDbEntity
  8
7_ALL_FEATURES
100
AcDbLine
 62
7
  6
CONTINUOUS
 10
827.2889182425
 20
595.0942658509
 11
826.5889182425
 21
595.0942658509
  0
LINE
  5
3A2
100
AcDbEntity
  8
7_ALL_FEATURES
100
AcDbLine
 62
7
  6
CONTINUOUS
 10
887.0889182425
 20
599.9942658509
 11
851.8665328578
 21
599.9942658509
  0
LINE
  5
3A3
100
AcDbEntity
  8
7_ALL_FEATURES
100
AcDbLine
 62
7
  6
CONTINUOUS
 10
894.8989576113
 20
600.2942658509
 11
893.4889182425
 21
600.2942658509
  0
LINE
  5
3A4
100
AcDbEntity
  8
7_ALL_FEATURES
100
AcDbLine
 62
7
  6
CONTINUOUS
 10
902.0889182425
 20
602.4942658509
 11
900.9889182425
 21
602.4942658509
  0
LINE
  5
3A5
100
AcDbEntity
  8
7_ALL_FEATURES
100
AcDbLine
 62
7
  6
CONTINUOUS
 10
899.6389182425
 20
602.7942658509
 11
898.2889182425
 21
602.7942658509
  0
LINE
  5
3A6
100
AcDbEntity
  8
7_ALL_FEATURES
100
AcDbLine
 62
7
  6
CONTINUOUS
 10
891.6889182425
 20
602.8942658509
 11
888.8889182425
 21
602.8942658509
  0
LINE
  5
3A7
100
AcDbEntity
  8
7_ALL_FEATURES
100
AcDbLine
 62
7
  6
CONTINUOUS
 10
141.687131535
 20
784.8179866518
 11
141.687131535
 21
782.0179866518
  0
LINE
  5
3A8
100
AcDbEntity
  8
7_ALL_FEATURES
100
AcDbLine
 62
7
  6
CONTINUOUS
 10
141.787131535
 20
792.9179866518
 11
141.787131535
 21
791.4179866518
  0
LINE
  5
3A9
100
AcDbEntity
  8
7_ALL_FEATURES
100
AcDbLine
 62
7
  6
CONTINUOUS
 10
142.087131535
 20
795.2179866518
 11
142.087131535
 21
794.1179866518
  0
LINE
  5
3AA
100
AcDbEntity
  8
7_ALL_FEATURES
100
AcDbLine
 62
7
  6
CONTINUOUS
 10
143.287131535
 20
791.5361597945
 11
143.287131535
 21
792.6179866518
  0
LINE
  5
3AB
100
AcDbEntity
  8
7_ALL_FEATURES
100
AcDbLine
 62
7
  6
CONTINUOUS
 10
143.287131535
 20
794.6179866518
 11
143.287131535
 21
795.2179866518
  0
LINE
  5
3AC
100
AcDbEntity
  8
7_ALL_FEATURES
100
AcDbLine
 62
7
  6
CONTINUOUS
 10
143.437131535
 20
795.2179866518
 11
143.437131535
 21
794.6179866518
  0
LINE
  5
3AD
100
AcDbEntity
  8
7_ALL_FEATURES
100
AcDbLine
 62
7
  6
CONTINUOUS
 10
144.287131535
 20
788.0280260207
 11
144.287131535
 21
786.6179866518
  0
LINE
  5
3AE
100
AcDbEntity
  8
7_ALL_FEATURES
100
AcDbLine
 62
7
  6
CONTINUOUS
 10
144.537131535
 20
793.2427850527
 11
144.537131535
 21
794.2179866518
  0
LINE
  5
3AF
100
AcDbEntity
  8
7_ALL_FEATURES
100
AcDbLine
 62
7
  6
CONTINUOUS
 10
144.587131535
 20
780.2179866518
 11
144.587131535
 21
744.9956012672
  0
LINE
  5
3B0
100
AcDbEntity
  8
7_ALL_FEATURES
100
AcDbLine
 62
7
  6
CONTINUOUS
 10
144.687131535
 20
794.2179866518
 11
144.687131535
 21
793.5979866518
  0
LINE
  5
3B1
100
AcDbEntity
  8
7_ALL_FEATURES
100
AcDbLine
 62
7
  6
CONTINUOUS
 10
145.487131535
 20
793.5979866518
 11
145.487131535
 21
793.7179866518
  0
LINE
  5
3B2
100
AcDbEntity
  8
7_ALL_FEATURES
100
AcDbLine
 62
7
  6
CONTINUOUS
 10
145.887131535
 20
786.3422507205
 11
145.887131535
 21
787.8937225831
  0
LINE
  5
3B3
100
AcDbEntity
  8
7_ALL_FEATURES
100
AcDbLine
 62
7
  6
CONTINUOUS
 10
146.087131535
 20
793.9179866518
 11
146.087131535
 21
793.5979866518
  0
LINE
  5
3B4
100
AcDbEntity
  8
7_ALL_FEATURES
100
AcDbLine
 62
7
  6
CONTINUOUS
 10
146.187131535
 20
747.067637243
 11
146.187131535
 21
782.3498886538
  0
LINE
  5
3B5
100
AcDbEntity
  8
7_ALL_FEATURES
100
AcDbLine
 62
7
  6
CONTINUOUS
 10
146.187131535
 20
784.4860846498
 11
146.187131535
 21
785.7937225831
  0
LINE
  5
3B6
100
AcDbEntity
  8
7_ALL_FEATURES
100
AcDbLine
 62
7
  6
CONTINUOUS
 10
146.187131535
 20
788.4422507205
 11
146.187131535
 21
789.6179866518
  0
LINE
  5
3B7
100
AcDbEntity
  8
7_ALL_FEATURES
100
AcDbLine
 62
7
  6
CONTINUOUS
 10
146.887131535
 20
793.5979866518
 11
146.887131535
 21
793.7179866518
  0
LINE
  5
3B8
100
AcDbEntity
  8
7_ALL_FEATURES
100
AcDbLine
 62
7
  6
CONTINUOUS
 10
149.487131535
 20
720.4179866518
 11
149.487131535
 21
719.7179866518
  0
LINE
  5
3B9
100
AcDbEntity
  8
7_ALL_FEATURES
100
AcDbLine
 62
7
  6
CONTINUOUS
 10
151.987131535
 20
716.4179866518
 11
151.987131535
 21
719.4179866518
  0
LINE
  5
3BA
100
AcDbEntity
  8
7_ALL_FEATURES
100
AcDbLine
 62
7
  6
CONTINUOUS
 10
156.587131535
 20
719.7179866518
 11
156.587131535
 21
722.6679866517
  0
LINE
  5
3BB
100
AcDbEntity
  8
3_ALL_AXES
100
AcDbLine
 62
7
  6
CONTINUOUS
 10
159.487131535
 20
727.1179866518
 11
159.487131535
 21
726.8179866518
  0
LINE
  5
3BC
100
AcDbEntity
  8
3_ALL_AXES
100
AcDbLine
 62
7
  6
CONTINUOUS
 10
160.137131535
 20
714.4179866518
 11
160.137131535
 21
716.4179866518
  0
LINE
  5
3BD
100
AcDbEntity
  8
7_ALL_FEATURES
100
AcDbLine
 62
7
  6
CONTINUOUS
 10
161.987131535
 20
724.3179866518
 11
161.987131535
 21
719.4179866518
  0
LINE
  5
3BE
100
AcDbEntity
  8
7_ALL_FEATURES
100
AcDbLine
 62
7
  6
CONTINUOUS
 10
161.987131535
 20
714.4179866518
 11
161.987131535
 21
713.6179866518
  0
LINE
  5
3BF
100
AcDbEntity
  8
7_ALL_FEATURES
100
AcDbLine
 62
7
  6
CONTINUOUS
 10
144.4888302693
 20
793.077145183
 11
144.5020158129
 21
793.1019435839
  0
LINE
  5
3C0
100
AcDbEntity
  8
7_ALL_FEATURES
100
AcDbLine
 62
7
  6
CONTINUOUS
 10
146.834525492
 20
745.2360388705
 11
146.2052237488
 21
746.9650312
  0
LINE
  5
3C1
100
AcDbEntity
  8
7_ALL_FEATURES
100
AcDbLine
 62
7
  6
CONTINUOUS
 10
144.6791245822
 20
744.0408930654
 11
148.1823071576
 21
726.0315741913
  0
LINE
  5
3C2
100
AcDbEntity
  8
7_ALL_FEATURES
100
AcDbLine
 62
7
  6
CONTINUOUS
 10
149.6584861362
 20
726.8225821541
 11
146.2360214183
 21
744.4296367632
  0
LINE
  5
3C3
100
AcDbEntity
  8
7_ALL_FEATURES
100
AcDbLine
 62
7
  6
CONTINUOUS
 10
166.987131535
 20
724.3179866518
 11
166.987131535
 21
719.4179866518
  0
LINE
  5
3C4
100
AcDbEntity
  8
7_ALL_FEATURES
100
AcDbLine
 62
7
  6
CONTINUOUS
 10
166.987131535
 20
714.4179866518
 11
166.987131535
 21
713.6179866518
  0
LINE
  5
3C5
100
AcDbEntity
  8
3_ALL_AXES
100
AcDbLine
 62
7
  6
CONTINUOUS
 10
168.837131535
 20
714.4179866518
 11
168.837131535
 21
716.4179866518
  0
LINE
  5
3C6
100
AcDbEntity
  8
7_ALL_FEATURES
100
AcDbLine
 62
7
  6
CONTINUOUS
 10
169.237131535
 20
727.4179866518
 11
169.237131535
 21
726.4179866518
  0
LINE
  5
3C7
100
AcDbEntity
  8
7_ALL_FEATURES
100
AcDbLine
 62
7
  6
CONTINUOUS
 10
172.737131535
 20
729.4461898821
 11
172.737131535
 21
727.4179866518
  0
LINE
  5
3C8
100
AcDbEntity
  8
7_ALL_FEATURES
100
AcDbLine
 62
7
  6
CONTINUOUS
 10
173.137131535
 20
724.3179866518
 11
173.137131535
 21
720.4179866518
  0
LINE
  5
3C9
100
AcDbEntity
  8
7_ALL_FEATURES
100
AcDbLine
 62
7
  6
CONTINUOUS
 10
174.737131535
 20
730.2477990687
 11
174.737131535
 21
730.2639533443
  0
LINE
  5
3CA
100
AcDbEntity
  8
7_ALL_FEATURES
100
AcDbLine
 62
7
  6
CONTINUOUS
 10
175.037131535
 20
721.3179866518
 11
175.037131535
 21
726.1179866518
  0
LINE
  5
3CB
100
AcDbEntity
  8
3_ALL_AXES
100
AcDbLine
 62
7
  6
CONTINUOUS
 10
175.637131535
 20
714.4179866518
 11
175.637131535
 21
716.4179866518
  0
LINE
  5
3CC
100
AcDbEntity
  8
7_ALL_FEATURES
100
AcDbLine
 62
7
  6
CONTINUOUS
 10
176.237131535
 20
730.2477990687
 11
176.237131535
 21
730.4866753771
  0
LINE
  5
3CD
100
AcDbEntity
  8
7_ALL_FEATURES
100
AcDbLine
 62
7
  6
CONTINUOUS
 10
176.987131535
 20
716.4179866518
 11
176.987131535
 21
719.4179866518
  0
LINE
  5
3CE
100
AcDbEntity
  8
7_ALL_FEATURES
100
AcDbLine
 62
7
  6
CONTINUOUS
 10
177.237131535
 20
730.4866753771
 11
177.237131535
 21
730.2477990687
  0
LINE
  5
3CF
100
AcDbEntity
  8
7_ALL_FEATURES
100
AcDbLine
 62
7
  6
CONTINUOUS
 10
177.837131535
 20
714.4179866518
 11
177.837131535
 21
713.6179866518
  0
LINE
  5
3D0
100
AcDbEntity
  8
6_ALL_SURFS
100
AcDbLine
 62
7
  6
CONTINUOUS
 10
178.437131535
 20
721.3179866518
 11
178.437131535
 21
726.1179866518
  0
LINE
  5
3D1
100
AcDbEntity
  8
7_ALL_FEATURES
100
AcDbLine
 62
7
  6
CONTINUOUS
 10
178.737131535
 20
730.2639533443
 11
178.737131535
 21
730.2477990687
  0
LINE
  5
3D2
100
AcDbEntity
  8
6_ALL_SURFS
100
AcDbLine
 62
7
  6
CONTINUOUS
 10
180.337131535
 20
724.3179866518
 11
180.337131535
 21
720.4179866518
  0
LINE
  5
3D3
100
AcDbEntity
  8
7_ALL_FEATURES
100
AcDbLine
 62
7
  6
CONTINUOUS
 10
180.737131535
 20
729.4461898821
 11
180.737131535
 21
727.4179866518
  0
LINE
  5
3D4
100
AcDbEntity
  8
7_ALL_FEATURES
100
AcDbLine
 62
7
  6
CONTINUOUS
 10
182.837131535
 20
714.4179866518
 11
182.837131535
 21
713.6179866518
  0
LINE
  5
3D5
100
AcDbEntity
  8
7_ALL_FEATURES
100
AcDbLine
 62
7
  6
CONTINUOUS
 10
184.237131535
 20
726.4179866518
 11
184.237131535
 21
727.4179866518
  0
LINE
  5
3D6
100
AcDbEntity
  8
3_ALL_AXES
100
AcDbLine
 62
7
  6
CONTINUOUS
 10
184.337131535
 20
714.4179866518
 11
184.337131535
 21
716.4179866518
  0
LINE
  5
3D7
100
AcDbEntity
  8
3_ALL_AXES
100
AcDbLine
 62
7
  6
CONTINUOUS
 10
185.337131535
 20
727.1179866518
 11
185.337131535
 21
726.8179866518
  0
LINE
  5
3D8
100
AcDbEntity
  8
7_ALL_FEATURES
100
AcDbLine
 62
7
  6
CONTINUOUS
 10
154.5729432173
 20
721.3069208929
 11
155.5769173695
 21
719.5679866518
  0
LINE
  5
3D9
100
AcDbEntity
  8
6_ALL_SURFS
100
AcDbLine
 62
7
  6
CONTINUOUS
 10
196.887131535
 20
719.7179866518
 11
196.887131535
 21
722.6679866517
  0
LINE
  5
3DA
100
AcDbEntity
  8
6_ALL_SURFS
100
AcDbLine
 62
7
  6
CONTINUOUS
 10
203.987131535
 20
720.4179866518
 11
203.987131535
 21
719.7179866518
  0
LINE
  5
3DB
100
AcDbEntity
  8
3_ALL_AXES
100
AcDbLine
 62
7
  6
CONTINUOUS
 10
206.287131535
 20
754.4179866518
 11
206.287131535
 21
744.4179866518
  0
LINE
  5
3DC
100
AcDbEntity
  8
3_ALL_AXES
100
AcDbLine
 62
7
  6
CONTINUOUS
 10
206.587131535
 20
754.4179866518
 11
206.587131535
 21
744.4179866518
  0
LINE
  5
3DD
100
AcDbEntity
  8
7_ALL_FEATURES
100
AcDbLine
 62
7
  6
CONTINUOUS
 10
206.987131535
 20
716.4179866518
 11
206.987131535
 21
719.4179866518
  0
LINE
  5
3DE
100
AcDbEntity
  8
6_ALL_SURFS
100
AcDbLine
 62
7
  6
CONTINUOUS
 10
207.287131535
 20
747.067637243
 11
207.287131535
 21
782.3498886538
  0
LINE
  5
3DF
100
AcDbEntity
  8
7_ALL_FEATURES
100
AcDbLine
 62
7
  6
CONTINUOUS
 10
207.287131535
 20
784.4860846498
 11
207.287131535
 21
785.7937225831
  0
LINE
  5
3E0
100
AcDbEntity
  8
7_ALL_FEATURES
100
AcDbLine
 62
7
  6
CONTINUOUS
 10
207.287131535
 20
788.4422507205
 11
207.287131535
 21
789.6179866518
  0
LINE
  5
3E1
100
AcDbEntity
  8
7_ALL_FEATURES
100
AcDbLine
 62
7
  6
CONTINUOUS
 10
207.587131535
 20
786.3422507205
 11
207.587131535
 21
787.8937225831
  0
LINE
  5
3E2
100
AcDbEntity
  8
7_ALL_FEATURES
100
AcDbLine
 62
7
  6
CONTINUOUS
 10
207.987131535
 20
793.7179866518
 11
207.987131535
 21
793.5979866518
  0
LINE
  5
3E3
100
AcDbEntity
  8
7_ALL_FEATURES
100
AcDbLine
 62
7
  6
CONTINUOUS
 10
208.787131535
 20
793.5979866518
 11
208.787131535
 21
794.2179866518
  0
LINE
  5
3E4
100
AcDbEntity
  8
6_ALL_SURFS
100
AcDbLine
 62
7
  6
CONTINUOUS
 10
208.887131535
 20
780.2179866518
 11
208.887131535
 21
744.9956012672
  0
LINE
  5
3E5
100
AcDbEntity
  8
7_ALL_FEATURES
100
AcDbLine
 62
3
  6
CONTINUOUS
 10
208.887131535
 20
740.9179866518
 11
208.887131535
 21
744.9956012672
  0
LINE
  5
3E6
100
AcDbEntity
  8
6_ALL_SURFS
100
AcDbLine
 62
7
  6
CONTINUOUS
 10
208.937131535
 20
793.2427850527
 11
208.937131535
 21
794.2179866518
  0
LINE
  5
3E7
100
AcDbEntity
  8
6_ALL_SURFS
100
AcDbLine
 62
7
  6
CONTINUOUS
 10
209.187131535
 20
788.0280260207
 11
209.187131535
 21
786.6179866518
  0
LINE
  5
3E8
100
AcDbEntity
  8
7_ALL_FEATURES
100
AcDbLine
 62
7
  6
CONTINUOUS
 10
151.9973457005
 20
719.5679866518
 11
153.0013198528
 21
721.3069208929
  0
LINE
  5
3E9
100
AcDbEntity
  8
7_ALL_FEATURES
100
AcDbLine
 62
7
  6
CONTINUOUS
 10
210.037131535
 20
794.6179866518
 11
210.037131535
 21
795.2179866518
  0
LINE
  5
3EA
100
AcDbEntity
  8
6_ALL_SURFS
100
AcDbLine
 62
7
  6
CONTINUOUS
 10
210.187131535
 20
791.5361597945
 11
210.187131535
 21
792.6179866518
  0
LINE
  5
3EB
100
AcDbEntity
  8
6_ALL_SURFS
100
AcDbLine
 62
7
  6
CONTINUOUS
 10
210.187131535
 20
794.6179866518
 11
210.187131535
 21
795.2179866518
  0
LINE
  5
3EC
100
AcDbEntity
  8
6_ALL_SURFS
100
AcDbLine
 62
7
  6
CONTINUOUS
 10
211.387131535
 20
795.2179866518
 11
211.387131535
 21
794.1179866518
  0
LINE
  5
3ED
100
AcDbEntity
  8
6_ALL_SURFS
100
AcDbLine
 62
7
  6
CONTINUOUS
 10
211.687131535
 20
792.9179866518
 11
211.687131535
 21
791.4179866518
  0
LINE
  5
3EE
100
AcDbEntity
  8
6_ALL_SURFS
100
AcDbLine
 62
7
  6
CONTINUOUS
 10
211.787131535
 20
784.8179866518
 11
211.787131535
 21
782.0179866518
  0
LINE
  5
3EF
100
AcDbEntity
  8
7_ALL_FEATURES
100
AcDbLine
 62
7
  6
CONTINUOUS
 10
211.887131535
 20
740.9179866518
 11
211.887131535
 21
765.9179866518
  0
LINE
  5
3F0
100
AcDbEntity
  8
3_ALL_AXES
100
AcDbLine
 62
7
  6
CONTINUOUS
 10
213.887131535
 20
745.0679866518
 11
213.887131535
 21
753.7679866518
  0
LINE
  5
3F1
100
AcDbEntity
  8
7_ALL_FEATURES
100
AcDbLine
 62
7
  6
CONTINUOUS
 10
214.287131535
 20
751.4179866518
 11
214.287131535
 21
747.4179866518
  0
LINE
  5
3F2
100
AcDbEntity
  8
7_ALL_FEATURES
100
AcDbLine
 62
9
  6
CONTINUOUS
 10
214.887131535
 20
765.9179866518
 11
214.887131535
 21
740.9179866518
  0
LINE
  5
3F3
100
AcDbEntity
  8
6_ALL_SURFS
100
AcDbLine
 62
7
  6
CONTINUOUS
 10
203.8157769339
 20
726.8225821541
 11
207.2382416518
 21
744.4296367632
  0
LINE
  5
3F4
100
AcDbEntity
  8
6_ALL_SURFS
100
AcDbLine
 62
7
  6
CONTINUOUS
 10
208.7951384879
 20
744.0408930654
 11
205.2919559125
 21
726.0315741913
  0
LINE
  5
3F5
100
AcDbEntity
  8
6_ALL_SURFS
100
AcDbLine
 62
7
  6
CONTINUOUS
 10
206.639737578
 20
745.2360388705
 11
207.2690393213
 21
746.9650312
  0
LINE
  5
3F6
100
AcDbEntity
  8
7_ALL_FEATURES
100
AcDbLine
 62
7
  6
CONTINUOUS
 10
145.9749995007
 20
788.1058546175
 11
146.0992635694
 21
788.2301186862
  0
LINE
  5
3F7
100
AcDbEntity
  8
7_ALL_FEATURES
100
AcDbLine
 62
7
  6
CONTINUOUS
 10
162.487131535
 20
713.1179866518
 11
161.987131535
 21
713.6179866518
  0
LINE
  5
3F8
100
AcDbEntity
  8
3_ALL_AXES
100
AcDbLine
 62
7
  6
CONTINUOUS
 10
159.487131535
 20
726.8179866518
 11
159.887131535
 21
726.4179866518
  0
LINE
  5
3F9
100
AcDbEntity
  8
3_ALL_AXES
100
AcDbLine
 62
7
  6
CONTINUOUS
 10
161.487131535
 20
724.8179866518
 11
161.987131535
 21
724.3179866518
  0
LINE
  5
3FA
100
AcDbEntity
  8
7_ALL_FEATURES
100
AcDbLine
 62
7
  6
CONTINUOUS
 10
178.337131535
 20
713.1179866518
 11
177.837131535
 21
713.6179866518
  0
LINE
  5
3FB
100
AcDbEntity
  8
6_ALL_SURFS
100
AcDbLine
 62
7
  6
CONTINUOUS
 10
201.4769173695
 20
719.5679866518
 11
200.4729432173
 21
721.3069208929
  0
LINE
  5
3FC
100
AcDbEntity
  8
6_ALL_SURFS
100
AcDbLine
 62
7
  6
CONTINUOUS
 10
198.9013198528
 20
721.3069208929
 11
197.8973457005
 21
719.5679866518
  0
LINE
  5
3FD
100
AcDbEntity
  8
3_ALL_AXES
100
AcDbLine
 62
7
  6
CONTINUOUS
 10
208.8482294781
 20
791.7815869798
 11
208.4838016648
 21
791.3907859959
  0
LINE
  5
3FE
100
AcDbEntity
  8
3_ALL_AXES
100
AcDbLine
 62
7
  6
CONTINUOUS
 10
209.0688846261
 20
790.8451873078
 11
209.4333124394
 21
791.2359882918
  0
LINE
  5
3FF
100
AcDbEntity
  8
7_ALL_FEATURES
100
AcDbLine
 62
7
  6
CONTINUOUS
 10
210.187131535
 20
791.7160674575
 11
209.8838016648
 21
791.3907859959
  0
LINE
  5
400
100
AcDbEntity
  8
6_ALL_SURFS
100
AcDbLine
 62
7
  6
CONTINUOUS
 10
208.8773213038
 20
790.0133871438
 11
210.1065376455
 21
791.3315602865
  0
LINE
  5
401
100
AcDbEntity
  8
6_ALL_SURFS
100
AcDbLine
 62
7
  6
CONTINUOUS
 10
211.2841620875
 20
790.3949891117
 11
209.2677254246
 21
788.2326255287
  0
LINE
  5
402
100
AcDbEntity
  8
7_ALL_FEATURES
100
AcDbLine
 62
7
  6
CONTINUOUS
 10
175.237131535
 20
721.4179866518
 11
175.037131535
 21
721.6179866518
  0
LINE
  5
403
100
AcDbEntity
  8
7_ALL_FEATURES
100
AcDbLine
 62
7
  6
CONTINUOUS
 10
142.1901009826
 20
790.3949891117
 11
144.2065376455
 21
788.2326255287
  0
LINE
  5
404
100
AcDbEntity
  8
7_ALL_FEATURES
100
AcDbLine
 62
7
  6
CONTINUOUS
 10
144.5969417662
 20
790.0133871438
 11
143.3677254246
 21
791.3315602865
  0
LINE
  5
405
100
AcDbEntity
  8
3_ALL_AXES
100
AcDbLine
 62
7
  6
CONTINUOUS
 10
144.0409506307
 20
791.2359882918
 11
144.4053784439
 21
790.8451873078
  0
LINE
  5
406
100
AcDbEntity
  8
3_ALL_AXES
100
AcDbLine
 62
7
  6
CONTINUOUS
 10
144.9904614052
 20
791.3907859959
 11
144.626033592
 21
791.7815869798
  0
LINE
  5
407
100
AcDbEntity
  8
7_ALL_FEATURES
100
AcDbLine
 62
7
  6
CONTINUOUS
 10
145.4409506307
 20
791.2359882918
 11
145.8053784439
 21
790.8451873078
  0
LINE
  5
408
100
AcDbEntity
  8
7_ALL_FEATURES
100
AcDbLine
 62
7
  6
CONTINUOUS
 10
146.3904614052
 20
791.3907859959
 11
146.026033592
 21
791.7815869798
  0
LINE
  5
409
100
AcDbEntity
  8
7_ALL_FEATURES
100
AcDbLine
 62
7
  6
CONTINUOUS
 10
253.887131535
 20
740.9179866518
 11
253.887131535
 21
765.9179866518
  0
LINE
  5
40A
100
AcDbEntity
  8
7_ALL_FEATURES
100
AcDbLine
 62
7
  6
CONTINUOUS
 10
207.3749995007
 20
786.0058546175
 11
207.4992635694
 21
786.1301186862
  0
LINE
  5
40B
100
AcDbEntity
  8
3_ALL_AXES
100
AcDbLine
 62
7
  6
CONTINUOUS
 10
169.237131535
 20
726.5679866518
 11
169.087131535
 21
726.4179866518
  0
LINE
  5
40C
100
AcDbEntity
  8
3_ALL_AXES
100
AcDbLine
 62
7
  6
CONTINUOUS
 10
167.487131535
 20
724.8179866518
 11
166.987131535
 21
724.3179866518
  0
LINE
  5
40D
100
AcDbEntity
  8
7_ALL_FEATURES
100
AcDbLine
 62
7
  6
CONTINUOUS
 10
145.9981972939
 20
784.2037983341
 11
146.037131535
 21
784.2262770287
  0
LINE
  5
40E
100
AcDbEntity
  8
3_ALL_AXES
100
AcDbLine
 62
7
  6
CONTINUOUS
 10
124.287131535
 20
792.7679866518
 11
124.587131535
 21
792.9179866518
  0
LINE
  5
40F
100
AcDbEntity
  8
3_ALL_AXES
100
AcDbLine
 62
7
  6
CONTINUOUS
 10
127.287131535
 20
792.7679866518
 11
127.587131535
 21
792.9179866518
  0
LINE
  5
410
100
AcDbEntity
  8
3_ALL_AXES
100
AcDbLine
 62
7
  6
CONTINUOUS
 10
130.287131535
 20
792.7679866518
 11
130.587131535
 21
792.9179866518
  0
LINE
  5
411
100
AcDbEntity
  8
3_ALL_AXES
100
AcDbLine
 62
7
  6
CONTINUOUS
 10
133.287131535
 20
792.7679866518
 11
133.587131535
 21
792.9179866518
  0
LINE
  5
412
100
AcDbEntity
  8
3_ALL_AXES
100
AcDbLine
 62
7
  6
CONTINUOUS
 10
136.287131535
 20
792.7679866518
 11
136.587131535
 21
792.9179866518
  0
LINE
  5
413
100
AcDbEntity
  8
3_ALL_AXES
100
AcDbLine
 62
7
  6
CONTINUOUS
 10
139.287131535
 20
792.7679866518
 11
139.587131535
 21
792.9179866518
  0
LINE
  5
414
100
AcDbEntity
  8
7_ALL_FEATURES
100
AcDbLine
 62
7
  6
CONTINUOUS
 10
146.0992635694
 20
786.0058546175
 11
145.9749995007
 21
786.1301186862
  0
LINE
  5
415
100
AcDbEntity
  8
6_ALL_SURFS
100
AcDbLine
 62
7
  6
CONTINUOUS
 10
208.9854328008
 20
793.077145183
 11
208.9722472572
 21
793.1019435839
  0
LINE
  5
416
100
AcDbEntity
  8
7_ALL_FEATURES
100
AcDbLine
 62
7
  6
CONTINUOUS
 10
166.487131535
 20
713.1179866518
 11
166.987131535
 21
713.6179866518
  0
LINE
  5
417
100
AcDbEntity
  8
7_ALL_FEATURES
100
AcDbLine
 62
7
  6
CONTINUOUS
 10
178.237131535
 20
721.4179866518
 11
178.437131535
 21
721.6179866518
  0
LINE
  5
418
100
AcDbEntity
  8
3_ALL_AXES
100
AcDbLine
 62
7
  6
CONTINUOUS
 10
185.337131535
 20
726.8179866518
 11
184.937131535
 21
726.4179866518
  0
LINE
  5
419
100
AcDbEntity
  8
3_ALL_AXES
100
AcDbLine
 62
7
  6
CONTINUOUS
 10
206.587131535
 20
744.4179866518
 11
206.96686557
 21
744.7977206868
  0
LINE
  5
41A
100
AcDbEntity
  8
7_ALL_FEATURES
100
AcDbLine
 62
7
  6
CONTINUOUS
 10
214.287131535
 20
747.4179866518
 11
213.887131535
 21
747.0179866518
  0
LINE
  5
41B
100
AcDbEntity
  8
7_ALL_FEATURES
100
AcDbLine
 62
7
  6
CONTINUOUS
 10
182.337131535
 20
713.1179866518
 11
182.837131535
 21
713.6179866518
  0
LINE
  5
41C
100
AcDbEntity
  8
3_ALL_AXES
100
AcDbLine
 62
7
  6
CONTINUOUS
 10
206.587131535
 20
754.4179866518
 11
207.287131535
 21
753.7179866518
  0
LINE
  5
41D
100
AcDbEntity
  8
7_ALL_FEATURES
100
AcDbLine
 62
7
  6
CONTINUOUS
 10
214.287131535
 20
751.4179866518
 11
213.887131535
 21
751.8179866518
  0
LINE
  5
41E
100
AcDbEntity
  8
6_ALL_SURFS
100
AcDbLine
 62
7
  6
CONTINUOUS
 10
207.437131535
 20
782.609696275
 11
207.4760657762
 21
782.6321749696
  0
LINE
  5
41F
100
AcDbEntity
  8
6_ALL_SURFS
100
AcDbLine
 62
7
  6
CONTINUOUS
 10
214.487131535
 20
792.9179866518
 11
214.187131535
 21
792.7679866518
  0
LINE
  5
420
100
AcDbEntity
  8
6_ALL_SURFS
100
AcDbLine
 62
7
  6
CONTINUOUS
 10
217.487131535
 20
792.9179866518
 11
217.187131535
 21
792.7679866518
  0
LINE
  5
421
100
AcDbEntity
  8
6_ALL_SURFS
100
AcDbLine
 62
7
  6
CONTINUOUS
 10
220.487131535
 20
792.9179866518
 11
220.187131535
 21
792.7679866518
  0
LINE
  5
422
100
AcDbEntity
  8
6_ALL_SURFS
100
AcDbLine
 62
7
  6
CONTINUOUS
 10
223.487131535
 20
792.9179866518
 11
223.187131535
 21
792.7679866518
  0
LINE
  5
423
100
AcDbEntity
  8
6_ALL_SURFS
100
AcDbLine
 62
7
  6
CONTINUOUS
 10
226.487131535
 20
792.9179866518
 11
226.187131535
 21
792.7679866518
  0
LINE
  5
424
100
AcDbEntity
  8
6_ALL_SURFS
100
AcDbLine
 62
7
  6
CONTINUOUS
 10
229.487131535
 20
792.9179866518
 11
229.187131535
 21
792.7679866518
  0
LINE
  5
425
100
AcDbEntity
  8
7_ALL_FEATURES
100
AcDbLine
 62
7
  6
CONTINUOUS
 10
207.4992635694
 20
788.1058546175
 11
207.3749995007
 21
788.2301186862
  0
LINE
  5
426
100
AcDbEntity
  8
3_ALL_AXES
100
AcDbLine
 62
7
  6
CONTINUOUS
 10
123.987131535
 20
792.9179866518
 11
124.287131535
 21
792.7679866518
  0
LINE
  5
427
100
AcDbEntity
  8
3_ALL_AXES
100
AcDbLine
 62
7
  6
CONTINUOUS
 10
126.987131535
 20
792.9179866518
 11
127.287131535
 21
792.7679866518
  0
LINE
  5
428
100
AcDbEntity
  8
3_ALL_AXES
100
AcDbLine
 62
7
  6
CONTINUOUS
 10
129.987131535
 20
792.9179866518
 11
130.287131535
 21
792.7679866518
  0
LINE
  5
429
100
AcDbEntity
  8
7_ALL_FEATURES
100
AcDbLine
 62
7
  6
CONTINUOUS
 10
146.037131535
 20
782.609696275
 11
145.9981972939
 21
782.6321749696
  0
LINE
  5
42A
100
AcDbEntity
  8
7_ALL_FEATURES
100
AcDbLine
 62
7
  6
CONTINUOUS
 10
146.4279035303
 20
744.7687872481
 11
146.6552237488
 21
744.8515250412
  0
LINE
  5
42B
100
AcDbEntity
  8
6_ALL_SURFS
100
AcDbLine
 62
7
  6
CONTINUOUS
 10
207.0463595397
 20
744.7687872481
 11
206.8190393213
 21
744.8515250412
  0
LINE
  5
42C
100
AcDbEntity
  8
3_ALL_AXES
100
AcDbLine
 62
7
  6
CONTINUOUS
 10
132.987131535
 20
792.9179866518
 11
133.287131535
 21
792.7679866518
  0
LINE
  5
42D
100
AcDbEntity
  8
3_ALL_AXES
100
AcDbLine
 62
7
  6
CONTINUOUS
 10
135.987131535
 20
792.9179866518
 11
136.287131535
 21
792.7679866518
  0
LINE
  5
42E
100
AcDbEntity
  8
3_ALL_AXES
100
AcDbLine
 62
7
  6
CONTINUOUS
 10
138.987131535
 20
792.9179866518
 11
139.287131535
 21
792.7679866518
  0
LINE
  5
42F
100
AcDbEntity
  8
6_ALL_SURFS
100
AcDbLine
 62
7
  6
CONTINUOUS
 10
207.4760657762
 20
784.2037983341
 11
207.437131535
 21
784.2262770287
  0
LINE
  5
430
100
AcDbEntity
  8
6_ALL_SURFS
100
AcDbLine
 62
7
  6
CONTINUOUS
 10
214.187131535
 20
792.7679866518
 11
213.887131535
 21
792.9179866518
  0
LINE
  5
431
100
AcDbEntity
  8
6_ALL_SURFS
100
AcDbLine
 62
7
  6
CONTINUOUS
 10
217.187131535
 20
792.7679866518
 11
216.887131535
 21
792.9179866518
  0
LINE
  5
432
100
AcDbEntity
  8
6_ALL_SURFS
100
AcDbLine
 62
7
  6
CONTINUOUS
 10
220.187131535
 20
792.7679866518
 11
219.887131535
 21
792.9179866518
  0
LINE
  5
433
100
AcDbEntity
  8
6_ALL_SURFS
100
AcDbLine
 62
7
  6
CONTINUOUS
 10
223.187131535
 20
792.7679866518
 11
222.887131535
 21
792.9179866518
  0
LINE
  5
434
100
AcDbEntity
  8
6_ALL_SURFS
100
AcDbLine
 62
7
  6
CONTINUOUS
 10
226.187131535
 20
792.7679866518
 11
225.887131535
 21
792.9179866518
  0
LINE
  5
435
100
AcDbEntity
  8
6_ALL_SURFS
100
AcDbLine
 62
7
  6
CONTINUOUS
 10
229.187131535
 20
792.7679866518
 11
228.887131535
 21
792.9179866518
  0
LINE
  5
436
100
AcDbEntity
  8
7_ALL_FEATURES
100
AcDbLine
 62
7
  6
CONTINUOUS
 10
182.337131535
 20
713.1179866518
 11
178.337131535
 21
713.1179866518
  0
LINE
  5
437
100
AcDbEntity
  8
7_ALL_FEATURES
100
AcDbLine
 62
7
  6
CONTINUOUS
 10
166.487131535
 20
713.1179866518
 11
162.487131535
 21
713.1179866518
  0
LINE
  5
438
100
AcDbEntity
  8
7_ALL_FEATURES
100
AcDbLine
 62
7
  6
CONTINUOUS
 10
182.837131535
 20
713.6179866518
 11
177.837131535
 21
713.6179866518
  0
LINE
  5
439
100
AcDbEntity
  8
7_ALL_FEATURES
100
AcDbLine
 62
7
  6
CONTINUOUS
 10
166.987131535
 20
713.6179866518
 11
161.987131535
 21
713.6179866518
  0
LINE
  5
43A
100
AcDbEntity
  8
3_ALL_AXES
100
AcDbLine
 62
7
  6
CONTINUOUS
 10
160.137131535
 20
714.4179866518
 11
168.837131535
 21
714.4179866518
  0
LINE
  5
43B
100
AcDbEntity
  8
3_ALL_AXES
100
AcDbLine
 62
7
  6
CONTINUOUS
 10
175.637131535
 20
714.4179866518
 11
184.337131535
 21
714.4179866518
  0
LINE
  5
43C
100
AcDbEntity
  8
7_ALL_FEATURES
100
AcDbLine
 62
3
  6
CONTINUOUS
 10
151.987131535
 20
716.4179866518
 11
206.987131535
 21
716.4179866518
  0
LINE
  5
43D
100
AcDbEntity
  8
7_ALL_FEATURES
100
AcDbLine
 62
7
  6
CONTINUOUS
 10
769.837131535
 20
719.4179866518
 11
203.687131535
 21
719.4179866518
  0
LINE
  5
43E
100
AcDbEntity
  8
6_ALL_SURFS
100
AcDbLine
 62
7
  6
CONTINUOUS
 10
203.687131535
 20
719.4179866518
 11
201.7367249907
 21
719.4179866518
  0
LINE
  5
43F
100
AcDbEntity
  8
7_ALL_FEATURES
100
AcDbLine
 62
7
  6
CONTINUOUS
 10
201.7367249907
 20
719.4179866518
 11
197.6375380794
 21
719.4179866518
  0
LINE
  5
440
100
AcDbEntity
  8
6_ALL_SURFS
100
AcDbLine
 62
7
  6
CONTINUOUS
 10
197.6375380794
 20
719.4179866518
 11
197.187131535
 21
719.4179866518
  0
LINE
  5
441
100
AcDbEntity
  8
7_ALL_FEATURES
100
AcDbLine
 62
7
  6
CONTINUOUS
 10
149.787131535
 20
719.4179866518
 11
197.187131535
 21
719.4179866518
  0
LINE
  5
442
100
AcDbEntity
  8
7_ALL_FEATURES
100
AcDbLine
 62
9
  6
CONTINUOUS
 10
201.4769173695
 20
719.5679866518
 11
197.8973457005
 21
719.5679866518
  0
LINE
  5
443
100
AcDbEntity
  8
7_ALL_FEATURES
100
AcDbLine
 62
9
  6
CONTINUOUS
 10
155.5769173695
 20
719.5679866518
 11
151.9973457005
 21
719.5679866518
  0
LINE
  5
444
100
AcDbEntity
  8
7_ALL_FEATURES
100
AcDbLine
 62
9
  6
CONTINUOUS
 10
769.837131535
 20
719.7179866518
 11
203.987131535
 21
719.7179866518
  0
LINE
  5
445
100
AcDbEntity
  8
7_ALL_FEATURES
100
AcDbLine
 62
9
  6
CONTINUOUS
 10
173.4250278674
 20
719.7179866518
 11
166.987131535
 21
719.7179866518
  0
LINE
  5
446
100
AcDbEntity
  8
7_ALL_FEATURES
100
AcDbLine
 62
9
  6
CONTINUOUS
 10
161.987131535
 20
719.7179866518
 11
156.587131535
 21
719.7179866518
  0
LINE
  5
447
100
AcDbEntity
  8
7_ALL_FEATURES
100
AcDbLine
 62
9
  6
CONTINUOUS
 10
769.837131535
 20
720.4179866518
 11
203.987131535
 21
720.4179866518
  0
LINE
  5
448
100
AcDbEntity
  8
7_ALL_FEATURES
100
AcDbLine
 62
9
  6
CONTINUOUS
 10
196.887131535
 20
720.4179866518
 11
180.337131535
 21
720.4179866518
  0
LINE
  5
449
100
AcDbEntity
  8
7_ALL_FEATURES
100
AcDbLine
 62
7
  6
CONTINUOUS
 10
769.837131535
 20
720.7179866518
 11
203.687131535
 21
720.7179866518
  0
LINE
  5
44A
100
AcDbEntity
  8
7_ALL_FEATURES
100
AcDbLine
 62
7
  6
CONTINUOUS
 10
151.1627268406
 20
720.7179866518
 11
149.787131535
 21
720.7179866518
  0
LINE
  5
44B
100
AcDbEntity
  8
6_ALL_SURFS
100
AcDbLine
 62
7
  6
CONTINUOUS
 10
202.3115362295
 20
720.7179866518
 11
203.687131535
 21
720.7179866518
  0
LINE
  5
44C
100
AcDbEntity
  8
7_ALL_FEATURES
100
AcDbLine
 62
7
  6
CONTINUOUS
 10
175.337131535
 20
721.0179866518
 11
178.137131535
 21
721.0179866518
  0
LINE
  5
44D
100
AcDbEntity
  8
7_ALL_FEATURES
100
AcDbLine
 62
9
  6
CONTINUOUS
 10
202.0575615817
 20
721.1776640712
 11
769.837131535
 21
721.1776640712
  0
LINE
  5
44E
100
AcDbEntity
  8
7_ALL_FEATURES
100
AcDbLine
 62
9
  6
CONTINUOUS
 10
200.4729432173
 20
721.3069208929
 11
198.9013198528
 21
721.3069208929
  0
LINE
  5
44F
100
AcDbEntity
  8
7_ALL_FEATURES
100
AcDbLine
 62
9
  6
CONTINUOUS
 10
154.5729432173
 20
721.3069208929
 11
153.0013198528
 21
721.3069208929
  0
LINE
  5
450
100
AcDbEntity
  8
7_ALL_FEATURES
100
AcDbLine
 62
9
  6
CONTINUOUS
 10
175.037131535
 20
721.3179866518
 11
178.437131535
 21
721.3179866518
  0
LINE
  5
451
100
AcDbEntity
  8
7_ALL_FEATURES
100
AcDbLine
 62
7
  6
CONTINUOUS
 10
178.237131535
 20
721.4179866518
 11
175.237131535
 21
721.4179866518
  0
LINE
  5
452
100
AcDbEntity
  8
7_ALL_FEATURES
100
AcDbLine
 62
9
  6
CONTINUOUS
 10
200.5366972191
 20
721.6839957227
 11
198.837565851
 21
721.6839957227
  0
LINE
  5
453
100
AcDbEntity
  8
7_ALL_FEATURES
100
AcDbLine
 62
9
  6
CONTINUOUS
 10
154.6366972191
 20
721.6839957227
 11
152.937565851
 21
721.6839957227
  0
LINE
  5
454
100
AcDbEntity
  8
7_ALL_FEATURES
100
AcDbLine
 62
7
  6
CONTINUOUS
 10
178.437131535
 20
721.9179866518
 11
175.037131535
 21
721.9179866518
  0
LINE
  5
455
100
AcDbEntity
  8
7_ALL_FEATURES
100
AcDbLine
 62
9
  6
CONTINUOUS
 10
156.587131535
 20
722.6679866517
 11
161.987131535
 21
722.6679866517
  0
LINE
  5
456
100
AcDbEntity
  8
7_ALL_FEATURES
100
AcDbLine
 62
9
  6
CONTINUOUS
 10
166.987131535
 20
722.6679866517
 11
173.137131535
 21
722.6679866517
  0
LINE
  5
457
100
AcDbEntity
  8
7_ALL_FEATURES
100
AcDbLine
 62
9
  6
CONTINUOUS
 10
156.2120026656
 20
724.0679866518
 11
161.987131535
 21
724.0679866518
  0
LINE
  5
458
100
AcDbEntity
  8
7_ALL_FEATURES
100
AcDbLine
 62
9
  6
CONTINUOUS
 10
166.987131535
 20
724.0679866518
 11
173.137131535
 21
724.0679866518
  0
LINE
  5
459
100
AcDbEntity
  8
7_ALL_FEATURES
100
AcDbLine
 62
9
  6
CONTINUOUS
 10
202.1120026656
 20
724.0679866518
 11
769.837131535
 21
724.0679866518
  0
LINE
  5
45A
100
AcDbEntity
  8
3_ALL_AXES
100
AcDbLine
 62
7
  6
CONTINUOUS
 10
166.987131535
 20
724.3179866518
 11
161.987131535
 21
724.3179866518
  0
LINE
  5
45B
100
AcDbEntity
  8
7_ALL_FEATURES
100
AcDbLine
 62
9
  6
CONTINUOUS
 10
180.337131535
 20
724.3179866518
 11
197.3282021239
 21
724.3179866518
  0
LINE
  5
45C
100
AcDbEntity
  8
7_ALL_FEATURES
100
AcDbLine
 62
7
  6
CONTINUOUS
 10
769.837131535
 20
724.8179866518
 11
203.8195538266
 21
724.8179866518
  0
LINE
  5
45D
100
AcDbEntity
  8
6_ALL_SURFS
100
AcDbLine
 62
7
  6
CONTINUOUS
 10
203.8195538266
 20
724.8179866518
 11
202.5450153675
 21
724.8179866518
  0
LINE
  5
45E
100
AcDbEntity
  8
6_ALL_SURFS
100
AcDbLine
 62
7
  6
CONTINUOUS
 10
196.8292477026
 20
724.8179866518
 11
180.837131535
 21
724.8179866518
  0
LINE
  5
45F
100
AcDbEntity
  8
7_ALL_FEATURES
100
AcDbLine
 62
7
  6
CONTINUOUS
 10
149.6547092435
 20
724.8179866518
 11
150.9292477026
 21
724.8179866518
  0
LINE
  5
460
100
AcDbEntity
  8
7_ALL_FEATURES
100
AcDbLine
 62
7
  6
CONTINUOUS
 10
156.6450153675
 20
724.8179866518
 11
172.637131535
 21
724.8179866518
  0
LINE
  5
461
100
AcDbEntity
  8
7_ALL_FEATURES
100
AcDbLine
 62
9
  6
CONTINUOUS
 10
769.837131535
 20
726.0315741913
 11
205.2919559125
 21
726.0315741913
  0
LINE
  5
462
100
AcDbEntity
  8
7_ALL_FEATURES
100
AcDbLine
 62
7
  6
CONTINUOUS
 10
150.1492997279
 20
726.4179866518
 11
178.737131535
 21
726.4179866518
  0
LINE
  5
463
100
AcDbEntity
  8
6_ALL_SURFS
100
AcDbLine
 62
7
  6
CONTINUOUS
 10
178.737131535
 20
726.4179866518
 11
203.3249633421
 21
726.4179866518
  0
LINE
  5
464
100
AcDbEntity
  8
3_ALL_AXES
100
AcDbLine
 62
7
  6
CONTINUOUS
 10
185.337131535
 20
726.8179866518
 11
184.237131535
 21
726.8179866518
  0
LINE
  5
465
100
AcDbEntity
  8
3_ALL_AXES
100
AcDbLine
 62
7
  6
CONTINUOUS
 10
169.237131535
 20
726.8179866518
 11
159.487131535
 21
726.8179866518
  0
LINE
  5
466
100
AcDbEntity
  8
7_ALL_FEATURES
100
AcDbLine
 62
9
  6
CONTINUOUS
 10
149.6584861362
 20
726.8225821541
 11
159.487131535
 21
726.8225821541
  0
LINE
  5
467
100
AcDbEntity
  8
7_ALL_FEATURES
100
AcDbLine
 62
9
  6
CONTINUOUS
 10
185.337131535
 20
726.8225821541
 11
203.8157769339
 21
726.8225821541
  0
LINE
  5
468
100
AcDbEntity
  8
3_ALL_AXES
100
AcDbLine
 62
7
  6
CONTINUOUS
 10
185.337131535
 20
727.1179866518
 11
184.237131535
 21
727.1179866518
  0
LINE
  5
469
100
AcDbEntity
  8
3_ALL_AXES
100
AcDbLine
 62
7
  6
CONTINUOUS
 10
169.237131535
 20
727.1179866518
 11
159.487131535
 21
727.1179866518
  0
LINE
  5
46A
100
AcDbEntity
  8
7_ALL_FEATURES
100
AcDbLine
 62
7
  6
CONTINUOUS
 10
184.237131535
 20
727.4179866518
 11
169.237131535
 21
727.4179866518
  0
LINE
  5
46B
100
AcDbEntity
  8
7_ALL_FEATURES
100
AcDbLine
 62
7
  6
CONTINUOUS
 10
172.737131535
 20
729.4461898821
 11
180.737131535
 21
729.4461898821
  0
LINE
  5
46C
100
AcDbEntity
  8
7_ALL_FEATURES
100
AcDbLine
 62
7
  6
CONTINUOUS
 10
208.887131535
 20
740.9179866518
 11
253.887131535
 21
740.9179866518
  0
LINE
  5
46D
100
AcDbEntity
  8
7_ALL_FEATURES
100
AcDbLine
 62
9
  6
CONTINUOUS
 10
769.837131535
 20
744.0408930654
 11
253.887131535
 21
744.0408930654
  0
LINE
  5
46E
100
AcDbEntity
  8
7_ALL_FEATURES
100
AcDbLine
 62
9
  6
CONTINUOUS
 10
208.887131535
 20
744.0408930654
 11
208.7951384879
 21
744.0408930654
  0
LINE
  5
46F
100
AcDbEntity
  8
3_ALL_AXES
100
AcDbLine
 62
7
  6
CONTINUOUS
 10
206.287131535
 20
744.4179866518
 11
206.587131535
 21
744.4179866518
  0
LINE
  5
470
100
AcDbEntity
  8
7_ALL_FEATURES
100
AcDbLine
 62
9
  6
CONTINUOUS
 10
146.2360214183
 20
744.4296367632
 11
206.287131535
 21
744.4296367632
  0
LINE
  5
471
100
AcDbEntity
  8
7_ALL_FEATURES
100
AcDbLine
 62
9
  6
CONTINUOUS
 10
206.5987816464
 20
744.4296367632
 11
207.2382416518
 21
744.4296367632
  0
LINE
  5
472
100
AcDbEntity
  8
7_ALL_FEATURES
100
AcDbLine
 62
9
  6
CONTINUOUS
 10
146.4279035303
 20
744.7687872481
 11
206.287131535
 21
744.7687872481
  0
LINE
  5
473
100
AcDbEntity
  8
7_ALL_FEATURES
100
AcDbLine
 62
9
  6
CONTINUOUS
 10
206.9379321313
 20
744.7687872481
 11
207.0463595397
 21
744.7687872481
  0
LINE
  5
474
100
AcDbEntity
  8
7_ALL_FEATURES
100
AcDbLine
 62
9
  6
CONTINUOUS
 10
206.287131535
 20
744.8515250412
 11
146.6552237488
 21
744.8515250412
  0
LINE
  5
475
100
AcDbEntity
  8
3_ALL_AXES
100
AcDbLine
 62
9
  6
CONTINUOUS
 10
769.837131535
 20
744.9956012672
 11
253.887131535
 21
744.9956012672
  0
LINE
  5
476
100
AcDbEntity
  8
3_ALL_AXES
100
AcDbLine
 62
7
  6
CONTINUOUS
 10
213.887131535
 20
745.0679866518
 11
211.887131535
 21
745.0679866518
  0
LINE
  5
477
100
AcDbEntity
  8
3_ALL_AXES
100
AcDbLine
 62
9
  6
CONTINUOUS
 10
206.287131535
 20
745.2360388705
 11
146.834525492
 21
745.2360388705
  0
LINE
  5
478
100
AcDbEntity
  8
3_ALL_AXES
100
AcDbLine
 62
9
  6
CONTINUOUS
 10
146.2052237488
 20
746.9650312
 11
206.287131535
 21
746.9650312
  0
LINE
  5
479
100
AcDbEntity
  8
3_ALL_AXES
100
AcDbLine
 62
9
  6
CONTINUOUS
 10
146.187131535
 20
747.067637243
 11
206.287131535
 21
747.067637243
  0
LINE
  5
47A
100
AcDbEntity
  8
3_ALL_AXES
100
AcDbLine
 62
7
  6
CONTINUOUS
 10
213.887131535
 20
753.7679866518
 11
211.887131535
 21
753.7679866518
  0
LINE
  5
47B
100
AcDbEntity
  8
3_ALL_AXES
100
AcDbLine
 62
7
  6
CONTINUOUS
 10
206.287131535
 20
754.4179866518
 11
206.587131535
 21
754.4179866518
  0
LINE
  5
47C
100
AcDbEntity
  8
7_ALL_FEATURES
100
AcDbLine
 62
7
  6
CONTINUOUS
 10
208.887131535
 20
765.9179866518
 11
253.887131535
 21
765.9179866518
  0
LINE
  5
47D
100
AcDbEntity
  8
6_ALL_SURFS
100
AcDbLine
 62
7
  6
CONTINUOUS
 10
229.187131535
 20
793.9179866518
 11
231.3326031254
 21
793.7034394928
  0
LINE
  5
47E
100
AcDbEntity
  8
7_ALL_FEATURES
100
AcDbLine
 62
9
  6
CONTINUOUS
 10
208.887131535
 20
780.2179866518
 11
769.837131535
 21
780.2179866518
  0
LINE
  5
47F
100
AcDbEntity
  8
7_ALL_FEATURES
100
AcDbLine
 62
7
  6
CONTINUOUS
 10
769.837131535
 20
780.5179866518
 11
210.287131535
 21
780.5179866518
  0
LINE
  5
480
100
AcDbEntity
  8
6_ALL_SURFS
100
AcDbLine
 62
7
  6
CONTINUOUS
 10
210.287131535
 20
780.5179866518
 11
209.187131535
 21
780.5179866518
  0
LINE
  5
481
100
AcDbEntity
  8
7_ALL_FEATURES
100
AcDbLine
 62
7
  6
CONTINUOUS
 10
143.187131535
 20
780.5179866518
 11
144.287131535
 21
780.5179866518
  0
LINE
  5
482
100
AcDbEntity
  8
7_ALL_FEATURES
100
AcDbLine
 62
9
  6
CONTINUOUS
 10
769.837131535
 20
782.0179866518
 11
211.787131535
 21
782.0179866518
  0
LINE
  5
483
100
AcDbEntity
  8
7_ALL_FEATURES
100
AcDbLine
 62
9
  6
CONTINUOUS
 10
207.287131535
 20
782.3498886538
 11
146.187131535
 21
782.3498886538
  0
LINE
  5
484
100
AcDbEntity
  8
7_ALL_FEATURES
100
AcDbLine
 62
9
  6
CONTINUOUS
 10
209.8176727865
 20
782.5684209678
 11
207.8531406059
 21
782.5684209678
  0
LINE
  5
485
100
AcDbEntity
  8
7_ALL_FEATURES
100
AcDbLine
 62
9
  6
CONTINUOUS
 10
207.437131535
 20
782.609696275
 11
146.037131535
 21
782.609696275
  0
LINE
  5
486
100
AcDbEntity
  8
7_ALL_FEATURES
100
AcDbLine
 62
9
  6
CONTINUOUS
 10
207.4760657762
 20
782.6321749696
 11
145.9981972939
 21
782.6321749696
  0
LINE
  5
487
100
AcDbEntity
  8
7_ALL_FEATURES
100
AcDbLine
 62
7
  6
CONTINUOUS
 10
209.9003818573
 20
782.6723673484
 11
207.6260657762
 21
782.6723673484
  0
LINE
  5
488
100
AcDbEntity
  8
6_ALL_SURFS
100
AcDbLine
 62
7
  6
CONTINUOUS
 10
145.8481972939
 20
782.6723673484
 11
207.6260657832
 21
782.6723673484
  0
LINE
  5
489
100
AcDbEntity
  8
7_ALL_FEATURES
100
AcDbLine
 62
7
  6
CONTINUOUS
 10
209.9003818573
 20
784.1636059552
 11
207.6260657762
 21
784.1636059552
  0
LINE
  5
48A
100
AcDbEntity
  8
6_ALL_SURFS
100
AcDbLine
 62
7
  6
CONTINUOUS
 10
145.8481972939
 20
784.1636059552
 11
207.6260657832
 21
784.1636059552
  0
LINE
  5
48B
100
AcDbEntity
  8
7_ALL_FEATURES
100
AcDbLine
 62
9
  6
CONTINUOUS
 10
207.4760657762
 20
784.2037983341
 11
145.9981972939
 21
784.2037983341
  0
LINE
  5
48C
100
AcDbEntity
  8
7_ALL_FEATURES
100
AcDbLine
 62
9
  6
CONTINUOUS
 10
207.437131535
 20
784.2262770287
 11
146.037131535
 21
784.2262770287
  0
LINE
  5
48D
100
AcDbEntity
  8
7_ALL_FEATURES
100
AcDbLine
 62
9
  6
CONTINUOUS
 10
209.8176727865
 20
784.2675523359
 11
207.8531406059
 21
784.2675523359
  0
LINE
  5
48E
100
AcDbEntity
  8
7_ALL_FEATURES
100
AcDbLine
 62
9
  6
CONTINUOUS
 10
207.287131535
 20
784.4860846498
 11
146.187131535
 21
784.4860846498
  0
LINE
  5
48F
100
AcDbEntity
  8
7_ALL_FEATURES
100
AcDbLine
 62
9
  6
CONTINUOUS
 10
769.837131535
 20
784.8179866518
 11
211.787131535
 21
784.8179866518
  0
LINE
  5
490
100
AcDbEntity
  8
7_ALL_FEATURES
100
AcDbLine
 62
9
  6
CONTINUOUS
 10
146.187131535
 20
785.7937225831
 11
207.287131535
 21
785.7937225831
  0
LINE
  5
491
100
AcDbEntity
  8
7_ALL_FEATURES
100
AcDbLine
 62
9
  6
CONTINUOUS
 10
146.0992635694
 20
786.0058546175
 11
207.3749995007
 21
786.0058546175
  0
LINE
  5
492
100
AcDbEntity
  8
7_ALL_FEATURES
100
AcDbLine
 62
9
  6
CONTINUOUS
 10
207.4992635694
 20
786.1301186862
 11
145.9749995007
 21
786.1301186862
  0
LINE
  5
493
100
AcDbEntity
  8
7_ALL_FEATURES
100
AcDbLine
 62
7
  6
CONTINUOUS
 10
769.837131535
 20
786.3179866518
 11
210.287131535
 21
786.3179866518
  0
LINE
  5
494
100
AcDbEntity
  8
7_ALL_FEATURES
100
AcDbLine
 62
7
  6
CONTINUOUS
 10
143.987131535
 20
786.3179866518
 11
143.187131535
 21
786.3179866518
  0
LINE
  5
495
100
AcDbEntity
  8
6_ALL_SURFS
100
AcDbLine
 62
7
  6
CONTINUOUS
 10
209.487131535
 20
786.3179866518
 11
210.287131535
 21
786.3179866518
  0
LINE
  5
496
100
AcDbEntity
  8
7_ALL_FEATURES
100
AcDbLine
 62
9
  6
CONTINUOUS
 10
207.587131535
 20
786.3422507205
 11
145.887131535
 21
786.3422507205
  0
LINE
  5
497
100
AcDbEntity
  8
7_ALL_FEATURES
100
AcDbLine
 62
9
  6
CONTINUOUS
 10
209.187131535
 20
786.6179866518
 11
769.837131535
 21
786.6179866518
  0
LINE
  5
498
100
AcDbEntity
  8
7_ALL_FEATURES
100
AcDbLine
 62
9
  6
CONTINUOUS
 10
207.587131535
 20
787.8937225831
 11
145.887131535
 21
787.8937225831
  0
LINE
  5
499
100
AcDbEntity
  8
7_ALL_FEATURES
100
AcDbLine
 62
9
  6
CONTINUOUS
 10
209.187131535
 20
788.0280260207
 11
769.837131535
 21
788.0280260207
  0
LINE
  5
49A
100
AcDbEntity
  8
7_ALL_FEATURES
100
AcDbLine
 62
9
  6
CONTINUOUS
 10
207.4992635694
 20
788.1058546175
 11
145.9749995007
 21
788.1058546175
  0
LINE
  5
49B
100
AcDbEntity
  8
7_ALL_FEATURES
100
AcDbLine
 62
9
  6
CONTINUOUS
 10
146.0992635694
 20
788.2301186862
 11
207.3749995007
 21
788.2301186862
  0
LINE
  5
49C
100
AcDbEntity
  8
7_ALL_FEATURES
100
AcDbLine
 62
9
  6
CONTINUOUS
 10
209.2677254246
 20
788.2326255287
 11
769.837131535
 21
788.2326255287
  0
LINE
  5
49D
100
AcDbEntity
  8
7_ALL_FEATURES
100
AcDbLine
 62
9
  6
CONTINUOUS
 10
146.187131535
 20
788.4422507205
 11
207.287131535
 21
788.4422507205
  0
LINE
  5
49E
100
AcDbEntity
  8
7_ALL_FEATURES
100
AcDbLine
 62
9
  6
CONTINUOUS
 10
207.287131535
 20
789.6179866518
 11
146.187131535
 21
789.6179866518
  0
LINE
  5
49F
100
AcDbEntity
  8
7_ALL_FEATURES
100
AcDbLine
 62
7
  6
CONTINUOUS
 10
207.587131535
 20
789.9179866518
 11
144.8163478767
 21
789.9179866518
  0
LINE
  5
4A0
100
AcDbEntity
  8
6_ALL_SURFS
100
AcDbLine
 62
7
  6
CONTINUOUS
 10
207.587131535
 20
789.9179866518
 11
208.6579151933
 21
789.9179866518
  0
LINE
  5
4A1
100
AcDbEntity
  8
7_ALL_FEATURES
100
AcDbLine
 62
9
  6
CONTINUOUS
 10
144.5969417662
 20
790.0133871438
 11
208.8773213038
 21
790.0133871438
  0
LINE
  5
4A2
100
AcDbEntity
  8
7_ALL_FEATURES
100
AcDbLine
 62
9
  6
CONTINUOUS
 10
769.837131535
 20
790.3949891117
 11
211.2841620875
 21
790.3949891117
  0
LINE
  5
4A3
100
AcDbEntity
  8
3_ALL_AXES
100
AcDbLine
 62
7
  6
CONTINUOUS
 10
209.5343709747
 20
790.7179866518
 11
146.0979199246
 21
790.7179866518
  0
LINE
  5
4A4
100
AcDbEntity
  8
7_ALL_FEATURES
100
AcDbLine
 62
9
  6
CONTINUOUS
 10
143.3677254246
 20
791.3315602865
 11
143.9634722836
 21
791.3315602865
  0
LINE
  5
4A5
100
AcDbEntity
  8
7_ALL_FEATURES
100
AcDbLine
 62
9
  6
CONTINUOUS
 10
145.0353619857
 20
791.3315602865
 11
145.3633357279
 21
791.3315602865
  0
LINE
  5
4A6
100
AcDbEntity
  8
7_ALL_FEATURES
100
AcDbLine
 62
9
  6
CONTINUOUS
 10
209.8838016648
 20
791.3907859959
 11
209.5511777293
 21
791.3907859959
  0
LINE
  5
4A7
100
AcDbEntity
  8
7_ALL_FEATURES
100
AcDbLine
 62
9
  6
CONTINUOUS
 10
208.4838016648
 20
791.3907859959
 11
146.3904614052
 21
791.3907859959
  0
LINE
  5
4A8
100
AcDbEntity
  8
7_ALL_FEATURES
100
AcDbLine
 62
9
  6
CONTINUOUS
 10
769.837131535
 20
791.4179866518
 11
211.687131535
 21
791.4179866518
  0
LINE
  5
4A9
100
AcDbEntity
  8
7_ALL_FEATURES
100
AcDbLine
 62
9
  6
CONTINUOUS
 10
143.287131535
 20
791.5361597945
 11
143.8484903622
 21
791.5361597945
  0
LINE
  5
4AA
100
AcDbEntity
  8
7_ALL_FEATURES
100
AcDbLine
 62
9
  6
CONTINUOUS
 10
144.8548981449
 20
791.5361597945
 11
145.2495900731
 21
791.5361597945
  0
LINE
  5
4AB
100
AcDbEntity
  8
7_ALL_FEATURES
100
AcDbLine
 62
9
  6
CONTINUOUS
 10
210.187131535
 20
791.7815869798
 11
209.6916680234
 21
791.7815869798
  0
LINE
  5
4AC
100
AcDbEntity
  8
7_ALL_FEATURES
100
AcDbLine
 62
9
  6
CONTINUOUS
 10
208.8482294781
 20
791.7815869798
 11
146.026033592
 21
791.7815869798
  0
LINE
  5
4AD
100
AcDbEntity
  8
7_ALL_FEATURES
100
AcDbLine
 62
9
  6
CONTINUOUS
 10
210.187131535
 20
792.0859866518
 11
209.6877186002
 21
792.0859866518
  0
LINE
  5
4AE
100
AcDbEntity
  8
7_ALL_FEATURES
100
AcDbLine
 62
9
  6
CONTINUOUS
 10
208.8104760175
 20
792.0859866518
 11
146.0637870526
 21
792.0859866518
  0
LINE
  5
4AF
100
AcDbEntity
  8
7_ALL_FEATURES
100
AcDbLine
 62
9
  6
CONTINUOUS
 10
143.287131535
 20
792.6179866518
 11
144.0595853444
 21
792.6179866518
  0
LINE
  5
4B0
100
AcDbEntity
  8
7_ALL_FEATURES
100
AcDbLine
 62
9
  6
CONTINUOUS
 10
145.1964789408
 20
792.6179866518
 11
145.4617058411
 21
792.6179866518
  0
LINE
  5
4B1
100
AcDbEntity
  8
7_ALL_FEATURES
100
AcDbLine
 62
7
  6
CONTINUOUS
 10
124.287131535
 20
792.7679866518
 11
141.787131535
 21
792.7679866518
  0
LINE
  5
4B2
100
AcDbEntity
  8
7_ALL_FEATURES
100
AcDbLine
 62
7
  6
CONTINUOUS
 10
214.187131535
 20
792.7679866518
 11
769.837131535
 21
792.7679866518
  0
LINE
  5
4B3
100
AcDbEntity
  8
6_ALL_SURFS
100
AcDbLine
 62
7
  6
CONTINUOUS
 10
231.2934281771
 20
792.9179866518
 11
229.487131535
 21
792.9179866518
  0
LINE
  5
4B4
100
AcDbEntity
  8
6_ALL_SURFS
100
AcDbLine
 62
7
  6
CONTINUOUS
 10
228.887131535
 20
792.9179866518
 11
226.487131535
 21
792.9179866518
  0
LINE
  5
4B5
100
AcDbEntity
  8
6_ALL_SURFS
100
AcDbLine
 62
7
  6
CONTINUOUS
 10
225.887131535
 20
792.9179866518
 11
223.487131535
 21
792.9179866518
  0
LINE
  5
4B6
100
AcDbEntity
  8
6_ALL_SURFS
100
AcDbLine
 62
7
  6
CONTINUOUS
 10
222.887131535
 20
792.9179866518
 11
220.487131535
 21
792.9179866518
  0
LINE
  5
4B7
100
AcDbEntity
  8
6_ALL_SURFS
100
AcDbLine
 62
7
  6
CONTINUOUS
 10
219.887131535
 20
792.9179866518
 11
217.487131535
 21
792.9179866518
  0
LINE
  5
4B8
100
AcDbEntity
  8
6_ALL_SURFS
100
AcDbLine
 62
7
  6
CONTINUOUS
 10
216.887131535
 20
792.9179866518
 11
214.487131535
 21
792.9179866518
  0
LINE
  5
4B9
100
AcDbEntity
  8
6_ALL_SURFS
100
AcDbLine
 62
7
  6
CONTINUOUS
 10
213.887131535
 20
792.9179866518
 11
211.687131535
 21
792.9179866518
  0
LINE
  5
4BA
100
AcDbEntity
  8
6_ALL_SURFS
100
AcDbLine
 62
7
  6
CONTINUOUS
 10
209.887131535
 20
792.9179866518
 11
209.2503170787
 21
792.9179866518
  0
LINE
  5
4BB
100
AcDbEntity
  8
7_ALL_FEATURES
100
AcDbLine
 62
7
  6
CONTINUOUS
 10
145.8176362959
 20
792.9179866518
 11
145.3522496563
 21
792.9179866518
  0
LINE
  5
4BC
100
AcDbEntity
  8
7_ALL_FEATURES
100
AcDbLine
 62
7
  6
CONTINUOUS
 10
122.180834893
 20
792.9179866518
 11
123.987131535
 21
792.9179866518
  0
LINE
  5
4BD
100
AcDbEntity
  8
3_ALL_AXES
100
AcDbLine
 62
7
  6
CONTINUOUS
 10
124.587131535
 20
792.9179866518
 11
126.987131535
 21
792.9179866518
  0
LINE
  5
4BE
100
AcDbEntity
  8
3_ALL_AXES
100
AcDbLine
 62
7
  6
CONTINUOUS
 10
127.587131535
 20
792.9179866518
 11
129.987131535
 21
792.9179866518
  0
LINE
  5
4BF
100
AcDbEntity
  8
3_ALL_AXES
100
AcDbLine
 62
7
  6
CONTINUOUS
 10
130.587131535
 20
792.9179866518
 11
132.987131535
 21
792.9179866518
  0
LINE
  5
4C0
100
AcDbEntity
  8
3_ALL_AXES
100
AcDbLine
 62
7
  6
CONTINUOUS
 10
133.587131535
 20
792.9179866518
 11
135.987131535
 21
792.9179866518
  0
LINE
  5
4C1
100
AcDbEntity
  8
3_ALL_AXES
100
AcDbLine
 62
7
  6
CONTINUOUS
 10
136.587131535
 20
792.9179866518
 11
138.987131535
 21
792.9179866518
  0
LINE
  5
4C2
100
AcDbEntity
  8
3_ALL_AXES
100
AcDbLine
 62
7
  6
CONTINUOUS
 10
139.587131535
 20
792.9179866518
 11
141.787131535
 21
792.9179866518
  0
LINE
  5
4C3
100
AcDbEntity
  8
7_ALL_FEATURES
100
AcDbLine
 62
7
  6
CONTINUOUS
 10
143.587131535
 20
792.9179866518
 11
144.4192761829
 21
792.9179866518
  0
LINE
  5
4C4
100
AcDbEntity
  8
7_ALL_FEATURES
100
AcDbLine
 62
7
  6
CONTINUOUS
 10
231.2934281771
 20
792.9179866518
 11
769.837131535
 21
792.9179866518
  0
LINE
  5
4C5
100
AcDbEntity
  8
7_ALL_FEATURES
100
AcDbLine
 62
9
  6
CONTINUOUS
 10
145.9391418572
 20
793.077145183
 11
145.4085149503
 21
793.077145183
  0
LINE
  5
4C6
100
AcDbEntity
  8
7_ALL_FEATURES
100
AcDbLine
 62
9
  6
CONTINUOUS
 10
144.5405833162
 20
793.077145183
 11
144.4888302693
 21
793.077145183
  0
LINE
  5
4C7
100
AcDbEntity
  8
7_ALL_FEATURES
100
AcDbLine
 62
9
  6
CONTINUOUS
 10
145.953200919
 20
793.1019435839
 11
145.4159387276
 21
793.1019435839
  0
LINE
  5
4C8
100
AcDbEntity
  8
7_ALL_FEATURES
100
AcDbLine
 62
9
  6
CONTINUOUS
 10
144.5544965298
 20
793.1019435839
 11
144.5020158129
 21
793.1019435839
  0
LINE
  5
4C9
100
AcDbEntity
  8
7_ALL_FEATURES
100
AcDbLine
 62
9
  6
CONTINUOUS
 10
146.0205283872
 20
793.2427850527
 11
145.4502255346
 21
793.2427850527
  0
LINE
  5
4CA
100
AcDbEntity
  8
7_ALL_FEATURES
100
AcDbLine
 62
9
  6
CONTINUOUS
 10
144.6218976235
 20
793.2427850527
 11
144.537131535
 21
793.2427850527
  0
LINE
  5
4CB
100
AcDbEntity
  8
7_ALL_FEATURES
100
AcDbLine
 62
9
  6
CONTINUOUS
 10
208.937131535
 20
793.5979866518
 11
208.787131535
 21
793.5979866518
  0
LINE
  5
4CC
100
AcDbEntity
  8
7_ALL_FEATURES
100
AcDbLine
 62
9
  6
CONTINUOUS
 10
207.987131535
 20
793.5979866518
 11
146.887131535
 21
793.5979866518
  0
LINE
  5
4CD
100
AcDbEntity
  8
7_ALL_FEATURES
100
AcDbLine
 62
9
  6
CONTINUOUS
 10
231.3326031254
 20
793.7034394928
 11
769.837131535
 21
793.7034394928
  0
LINE
  5
4CE
100
AcDbEntity
  8
7_ALL_FEATURES
100
AcDbLine
 62
9
  6
CONTINUOUS
 10
208.937131535
 20
793.7179866518
 11
208.787131535
 21
793.7179866518
  0
LINE
  5
4CF
100
AcDbEntity
  8
7_ALL_FEATURES
100
AcDbLine
 62
9
  6
CONTINUOUS
 10
207.987131535
 20
793.7179866518
 11
146.887131535
 21
793.7179866518
  0
LINE
  5
4D0
100
AcDbEntity
  8
3_ALL_AXES
100
AcDbLine
 62
7
  6
CONTINUOUS
 10
138.987131535
 20
793.9179866518
 11
136.587131535
 21
793.9179866518
  0
LINE
  5
4D1
100
AcDbEntity
  8
3_ALL_AXES
100
AcDbLine
 62
7
  6
CONTINUOUS
 10
135.987131535
 20
793.9179866518
 11
133.587131535
 21
793.9179866518
  0
LINE
  5
4D2
100
AcDbEntity
  8
3_ALL_AXES
100
AcDbLine
 62
7
  6
CONTINUOUS
 10
132.987131535
 20
793.9179866518
 11
130.587131535
 21
793.9179866518
  0
LINE
  5
4D3
100
AcDbEntity
  8
3_ALL_AXES
100
AcDbLine
 62
7
  6
CONTINUOUS
 10
129.987131535
 20
793.9179866518
 11
127.587131535
 21
793.9179866518
  0
LINE
  5
4D4
100
AcDbEntity
  8
3_ALL_AXES
100
AcDbLine
 62
7
  6
CONTINUOUS
 10
126.987131535
 20
793.9179866518
 11
124.287131535
 21
793.9179866518
  0
LINE
  5
4D5
100
AcDbEntity
  8
7_ALL_FEATURES
100
AcDbLine
 62
7
  6
CONTINUOUS
 10
126.987131535
 20
793.9179866518
 11
127.587131535
 21
793.9179866518
  0
LINE
  5
4D6
100
AcDbEntity
  8
7_ALL_FEATURES
100
AcDbLine
 62
7
  6
CONTINUOUS
 10
129.987131535
 20
793.9179866518
 11
130.587131535
 21
793.9179866518
  0
LINE
  5
4D7
100
AcDbEntity
  8
7_ALL_FEATURES
100
AcDbLine
 62
7
  6
CONTINUOUS
 10
132.987131535
 20
793.9179866518
 11
133.587131535
 21
793.9179866518
  0
LINE
  5
4D8
100
AcDbEntity
  8
7_ALL_FEATURES
100
AcDbLine
 62
7
  6
CONTINUOUS
 10
135.987131535
 20
793.9179866518
 11
136.587131535
 21
793.9179866518
  0
LINE
  5
4D9
100
AcDbEntity
  8
7_ALL_FEATURES
100
AcDbLine
 62
7
  6
CONTINUOUS
 10
138.987131535
 20
793.9179866518
 11
141.887131535
 21
793.9179866518
  0
LINE
  5
4DA
100
AcDbEntity
  8
7_ALL_FEATURES
100
AcDbLine
 62
7
  6
CONTINUOUS
 10
145.687131535
 20
793.9179866518
 11
207.787131535
 21
793.9179866518
  0
LINE
  5
4DB
100
AcDbEntity
  8
7_ALL_FEATURES
100
AcDbLine
 62
7
  6
CONTINUOUS
 10
208.787131535
 20
793.9179866518
 11
208.937131535
 21
793.9179866518
  0
LINE
  5
4DC
100
AcDbEntity
  8
6_ALL_SURFS
100
AcDbLine
 62
7
  6
CONTINUOUS
 10
211.587131535
 20
793.9179866518
 11
213.887131535
 21
793.9179866518
  0
LINE
  5
4DD
100
AcDbEntity
  8
7_ALL_FEATURES
100
AcDbLine
 62
7
  6
CONTINUOUS
 10
213.887131535
 20
793.9179866518
 11
214.487131535
 21
793.9179866518
  0
LINE
  5
4DE
100
AcDbEntity
  8
6_ALL_SURFS
100
AcDbLine
 62
7
  6
CONTINUOUS
 10
214.487131535
 20
793.9179866518
 11
216.887131535
 21
793.9179866518
  0
LINE
  5
4DF
100
AcDbEntity
  8
6_ALL_SURFS
100
AcDbLine
 62
7
  6
CONTINUOUS
 10
217.487131535
 20
793.9179866518
 11
219.887131535
 21
793.9179866518
  0
LINE
  5
4E0
100
AcDbEntity
  8
7_ALL_FEATURES
100
AcDbLine
 62
7
  6
CONTINUOUS
 10
216.887131535
 20
793.9179866518
 11
217.487131535
 21
793.9179866518
  0
LINE
  5
4E1
100
AcDbEntity
  8
7_ALL_FEATURES
100
AcDbLine
 62
7
  6
CONTINUOUS
 10
219.887131535
 20
793.9179866518
 11
220.487131535
 21
793.9179866518
  0
LINE
  5
4E2
100
AcDbEntity
  8
6_ALL_SURFS
100
AcDbLine
 62
7
  6
CONTINUOUS
 10
220.487131535
 20
793.9179866518
 11
222.887131535
 21
793.9179866518
  0
LINE
  5
4E3
100
AcDbEntity
  8
6_ALL_SURFS
100
AcDbLine
 62
7
  6
CONTINUOUS
 10
223.487131535
 20
793.9179866518
 11
225.887131535
 21
793.9179866518
  0
LINE
  5
4E4
100
AcDbEntity
  8
7_ALL_FEATURES
100
AcDbLine
 62
7
  6
CONTINUOUS
 10
222.887131535
 20
793.9179866518
 11
223.487131535
 21
793.9179866518
  0
LINE
  5
4E5
100
AcDbEntity
  8
7_ALL_FEATURES
100
AcDbLine
 62
7
  6
CONTINUOUS
 10
225.887131535
 20
793.9179866518
 11
226.487131535
 21
793.9179866518
  0
LINE
  5
4E6
100
AcDbEntity
  8
6_ALL_SURFS
100
AcDbLine
 62
7
  6
CONTINUOUS
 10
226.487131535
 20
793.9179866518
 11
229.187131535
 21
793.9179866518
  0
LINE
  5
4E7
100
AcDbEntity
  8
7_ALL_FEATURES
100
AcDbLine
 62
7
  6
CONTINUOUS
 10
229.187131535
 20
793.9179866518
 11
769.837131535
 21
793.9179866518
  0
LINE
  5
4E8
100
AcDbEntity
  8
7_ALL_FEATURES
100
AcDbLine
 62
9
  6
CONTINUOUS
 10
211.387131535
 20
794.1179866518
 11
769.837131535
 21
794.1179866518
  0
LINE
  5
4E9
100
AcDbEntity
  8
7_ALL_FEATURES
100
AcDbLine
 62
9
  6
CONTINUOUS
 10
144.687131535
 20
794.2179866518
 11
144.537131535
 21
794.2179866518
  0
LINE
  5
4EA
100
AcDbEntity
  8
7_ALL_FEATURES
100
AcDbLine
 62
7
  6
CONTINUOUS
 10
143.487131535
 20
794.4179866518
 11
144.487131535
 21
794.4179866518
  0
LINE
  5
4EB
100
AcDbEntity
  8
7_ALL_FEATURES
100
AcDbLine
 62
7
  6
CONTINUOUS
 10
208.987131535
 20
794.4179866518
 11
209.837131535
 21
794.4179866518
  0
LINE
  5
4EC
100
AcDbEntity
  8
6_ALL_SURFS
100
AcDbLine
 62
7
  6
CONTINUOUS
 10
209.137131535
 20
794.4179866518
 11
209.987131535
 21
794.4179866518
  0
LINE
  5
4ED
100
AcDbEntity
  8
7_ALL_FEATURES
100
AcDbLine
 62
9
  6
CONTINUOUS
 10
143.287131535
 20
794.6179866518
 11
143.437131535
 21
794.6179866518
  0
LINE
  5
4EE
100
AcDbEntity
  8
7_ALL_FEATURES
100
AcDbLine
 62
9
  6
CONTINUOUS
 10
769.837131535
 20
795.2179866518
 11
211.387131535
 21
795.2179866518
  0
LINE
  5
4EF
100
AcDbEntity
  8
7_ALL_FEATURES
100
AcDbLine
 62
9
  6
CONTINUOUS
 10
143.437131535
 20
795.2179866518
 11
143.287131535
 21
795.2179866518
  0
LINE
  5
4F0
100
AcDbEntity
  8
7_ALL_FEATURES
100
AcDbLine
 62
7
  6
CONTINUOUS
 10
769.837131535
 20
795.4179866518
 11
211.187131535
 21
795.4179866518
  0
LINE
  5
4F1
100
AcDbEntity
  8
7_ALL_FEATURES
100
AcDbLine
 62
7
  6
CONTINUOUS
 10
210.387131535
 20
795.4179866518
 11
142.287131535
 21
795.4179866518
  0
LINE
  5
4F2
100
AcDbEntity
  8
6_ALL_SURFS
100
AcDbLine
 62
7
  6
CONTINUOUS
 10
210.387131535
 20
795.4179866518
 11
211.187131535
 21
795.4179866518
  0
LINE
  5
4F3
100
AcDbEntity
  8
7_ALL_FEATURES
100
AcDbLine
 62
7
  6
CONTINUOUS
 10
124.287131535
 20
793.9179866518
 11
122.1416599447
 21
793.7034394928
  0
LINE
  5
4F4
100
AcDbEntity
  8
3_ALL_AXES
100
AcDbLine
 62
7
  6
CONTINUOUS
 10
769.837131535
 20
792.9179866518
 11
769.837131535
 21
792.7679866518
  0
LINE
  5
4F5
100
AcDbEntity
  8
7_ALL_FEATURES
100
AcDbLine
 62
7
  6
CONTINUOUS
 10
769.837131535
 20
795.4179866518
 11
769.837131535
 21
792.9179866518
  0
LINE
  5
4F6
100
AcDbEntity
  8
7_ALL_FEATURES
100
AcDbLine
 62
7
  6
CONTINUOUS
 10
769.837131535
 20
792.7679866518
 11
769.837131535
 21
719.4179866518
  0
ARC
  5
4F7
100
AcDbEntity
  8
6_ALL_SURFS
100
AcDbCircle
 62
7
  6
CONTINUOUS
 10
225.687131535
 20
277.2942658509
 40
4.7990381057
100
AcDbArc
 50
87.6115056179
 51
117.2855350899
  0
ARC
  5
4F8
100
AcDbEntity
  8
6_ALL_SURFS
100
AcDbCircle
 62
7
  6
CONTINUOUS
 10
225.687131535
 20
77.2942658509
 40
4.7990381057
100
AcDbArc
 50
87.6115056179
 51
117.2855350899
  0
ARC
  5
4F9
100
AcDbEntity
  8
6_ALL_SURFS
100
AcDbCircle
 62
7
  6
CONTINUOUS
 10
225.687131535
 20
277.2942658509
 40
4.7990381057
100
AcDbArc
 50
242.7144649101
 51
272.3884943821
  0
ARC
  5
4FA
100
AcDbEntity
  8
6_ALL_SURFS
100
AcDbCircle
 62
7
  6
CONTINUOUS
 10
225.687131535
 20
77.2942658509
 40
4.7990381057
100
AcDbArc
 50
242.7144649101
 51
272.3884943821
  0
ARC
  5
4FB
100
AcDbEntity
  8
6_ALL_SURFS
100
AcDbCircle
 62
7
  6
CONTINUOUS
 10
225.687131535
 20
277.2942658509
 40
4.7990381057
100
AcDbArc
 50
43.171184019
 51
80.4039906056
  0
ARC
  5
4FC
100
AcDbEntity
  8
6_ALL_SURFS
100
AcDbCircle
 62
7
  6
CONTINUOUS
 10
225.687131535
 20
77.2942658509
 40
4.7990381057
100
AcDbArc
 50
43.171184019
 51
80.4039906056
  0
ARC
  5
4FD
100
AcDbEntity
  8
6_ALL_SURFS
100
AcDbCircle
 62
7
  6
CONTINUOUS
 10
225.687131535
 20
277.2942658509
 40
4.7990381057
100
AcDbArc
 50
279.5960093944
 51
316.828815981
  0
ARC
  5
4FE
100
AcDbEntity
  8
6_ALL_SURFS
100
AcDbCircle
 62
7
  6
CONTINUOUS
 10
225.687131535
 20
77.2942658509
 40
4.7990381057
100
AcDbArc
 50
125.6935828234
 51
234.3064171766
  0
ARC
  5
4FF
100
AcDbEntity
  8
6_ALL_SURFS
100
AcDbCircle
 62
7
  6
CONTINUOUS
 10
225.687131535
 20
277.2942658509
 40
4.7990381057
100
AcDbArc
 50
125.6935828234
 51
234.3064171766
  0
ARC
  5
500
100
AcDbEntity
  8
6_ALL_SURFS
100
AcDbCircle
 62
7
  6
CONTINUOUS
 10
225.687131535
 20
77.2942658509
 40
4.7990381057
100
AcDbArc
 50
279.5960093944
 51
316.828815981
  0
ARC
  5
501
100
AcDbEntity
  8
7_ALL_FEATURES
100
AcDbCircle
 62
7
  6
CONTINUOUS
 10
127.787131535
 20
77.2942658509
 40
4.7990381057
100
AcDbArc
 50
305.6935828234
 51
54.3064171766
  0
ARC
  5
502
100
AcDbEntity
  8
7_ALL_FEATURES
100
AcDbCircle
 62
7
  6
CONTINUOUS
 10
127.787131535
 20
277.2942658509
 40
4.7990381057
100
AcDbArc
 50
305.6935828234
 51
54.3064171766
  0
ARC
  5
503
100
AcDbEntity
  8
7_ALL_FEATURES
100
AcDbCircle
 62
7
  6
CONTINUOUS
 10
127.787131535
 20
77.2942658509
 40
4.7990381057
100
AcDbArc
 50
267.6115056179
 51
297.2855350899
  0
ARC
  5
504
100
AcDbEntity
  8
7_ALL_FEATURES
100
AcDbCircle
 62
7
  6
CONTINUOUS
 10
127.787131535
 20
277.2942658509
 40
4.7990381057
100
AcDbArc
 50
267.6115056179
 51
297.2855350899
  0
ARC
  5
505
100
AcDbEntity
  8
7_ALL_FEATURES
100
AcDbCircle
 62
7
  6
CONTINUOUS
 10
127.787131535
 20
77.2942658509
 40
4.7990381057
100
AcDbArc
 50
62.7144649101
 51
92.3884943821
  0
ARC
  5
506
100
AcDbEntity
  8
7_ALL_FEATURES
100
AcDbCircle
 62
7
  6
CONTINUOUS
 10
127.787131535
 20
277.2942658509
 40
4.7990381057
100
AcDbArc
 50
62.7144649101
 51
92.3884943821
  0
ARC
  5
507
100
AcDbEntity
  8
7_ALL_FEATURES
100
AcDbCircle
 62
7
  6
CONTINUOUS
 10
127.787131535
 20
77.2942658509
 40
4.7990381057
100
AcDbArc
 50
223.171184019
 51
260.4039906056
  0
ARC
  5
508
100
AcDbEntity
  8
7_ALL_FEATURES
100
AcDbCircle
 62
7
  6
CONTINUOUS
 10
127.787131535
 20
277.2942658509
 40
4.7990381057
100
AcDbArc
 50
223.171184019
 51
260.4039906056
  0
ARC
  5
509
100
AcDbEntity
  8
7_ALL_FEATURES
100
AcDbCircle
 62
7
  6
CONTINUOUS
 10
127.787131535
 20
77.2942658509
 40
4.7990381057
100
AcDbArc
 50
99.5960093944
 51
136.828815981
  0
ARC
  5
50A
100
AcDbEntity
  8
7_ALL_FEATURES
100
AcDbCircle
 62
7
  6
CONTINUOUS
 10
127.787131535
 20
277.2942658509
 40
4.7990381057
100
AcDbArc
 50
99.5960093944
 51
136.828815981
  0
CIRCLE
  5
50B
100
AcDbEntity
  8
6_ALL_SURFS
100
AcDbCircle
 62
7
  6
CONTINUOUS
 10
225.687131535
 20
277.2942658509
 40
3.5
  0
CIRCLE
  5
50C
100
AcDbEntity
  8
6_ALL_SURFS
100
AcDbCircle
 62
7
  6
CONTINUOUS
 10
225.687131535
 20
77.2942658509
 40
3.5
  0
CIRCLE
  5
50D
100
AcDbEntity
  8
6_ALL_SURFS
100
AcDbCircle
 62
7
  6
CONTINUOUS
 10
127.787131535
 20
277.2942658509
 40
3.5
  0
CIRCLE
  5
50E
100
AcDbEntity
  8
6_ALL_SURFS
100
AcDbCircle
 62
7
  6
CONTINUOUS
 10
127.787131535
 20
77.2942658509
 40
3.5
  0
ARC
  5
50F
100
AcDbEntity
  8
6_ALL_SURFS
100
AcDbCircle
 62
7
  6
CONTINUOUS
 10
225.687131535
 20
477.2942658509
 40
4.7990381057
100
AcDbArc
 50
87.6115056179
 51
117.2855350899
  0
ARC
  5
510
100
AcDbEntity
  8
6_ALL_SURFS
100
AcDbCircle
 62
7
  6
CONTINUOUS
 10
225.687131535
 20
477.2942658509
 40
4.7990381057
100
AcDbArc
 50
242.7144649101
 51
272.3884943821
  0
ARC
  5
511
100
AcDbEntity
  8
6_ALL_SURFS
100
AcDbCircle
 62
7
  6
CONTINUOUS
 10
225.687131535
 20
477.2942658509
 40
4.7990381057
100
AcDbArc
 50
43.171184019
 51
80.4039906056
  0
ARC
  5
512
100
AcDbEntity
  8
6_ALL_SURFS
100
AcDbCircle
 62
7
  6
CONTINUOUS
 10
225.687131535
 20
477.2942658509
 40
4.7990381057
100
AcDbArc
 50
279.5960093944
 51
316.828815981
  0
ARC
  5
513
100
AcDbEntity
  8
6_ALL_SURFS
100
AcDbCircle
 62
7
  6
CONTINUOUS
 10
225.687131535
 20
477.2942658509
 40
4.7990381057
100
AcDbArc
 50
125.6935828234
 51
234.3064171766
  0
ARC
  5
514
100
AcDbEntity
  8
7_ALL_FEATURES
100
AcDbCircle
 62
7
  6
CONTINUOUS
 10
127.787131535
 20
477.2942658509
 40
4.7990381057
100
AcDbArc
 50
305.6935828234
 51
54.3064171766
  0
ARC
  5
515
100
AcDbEntity
  8
7_ALL_FEATURES
100
AcDbCircle
 62
7
  6
CONTINUOUS
 10
127.787131535
 20
477.2942658509
 40
4.7990381057
100
AcDbArc
 50
267.6115056179
 51
297.2855350899
  0
ARC
  5
516
100
AcDbEntity
  8
7_ALL_FEATURES
100
AcDbCircle
 62
7
  6
CONTINUOUS
 10
127.787131535
 20
477.2942658509
 40
4.7990381057
100
AcDbArc
 50
62.7144649101
 51
92.3884943821
  0
ARC
  5
517
100
AcDbEntity
  8
7_ALL_FEATURES
100
AcDbCircle
 62
7
  6
CONTINUOUS
 10
127.787131535
 20
477.2942658509
 40
4.7990381057
100
AcDbArc
 50
223.171184019
 51
260.4039906056
  0
ARC
  5
518
100
AcDbEntity
  8
7_ALL_FEATURES
100
AcDbCircle
 62
7
  6
CONTINUOUS
 10
127.787131535
 20
477.2942658509
 40
4.7990381057
100
AcDbArc
 50
99.5960093944
 51
136.828815981
  0
ARC
  5
519
100
AcDbEntity
  8
6_ALL_SURFS
100
AcDbCircle
 62
7
  6
CONTINUOUS
 10
276.837131535
 20
616.7942658509
 40
4.7990381057
100
AcDbArc
 50
332.7144649101
 51
2.3884943821
  0
ARC
  5
51A
100
AcDbEntity
  8
6_ALL_SURFS
100
AcDbCircle
 62
7
  6
CONTINUOUS
 10
276.837131535
 20
616.7942658509
 40
4.7990381057
100
AcDbArc
 50
133.171184019
 51
170.4039906056
  0
ARC
  5
51B
100
AcDbEntity
  8
6_ALL_SURFS
100
AcDbCircle
 62
7
  6
CONTINUOUS
 10
276.837131535
 20
616.7942658509
 40
4.7990381057
100
AcDbArc
 50
9.5960093944
 51
46.828815981
  0
ARC
  5
51C
100
AcDbEntity
  8
6_ALL_SURFS
100
AcDbCircle
 62
7
  6
CONTINUOUS
 10
276.837131535
 20
616.7942658509
 40
4.7990381057
100
AcDbArc
 50
215.6935828234
 51
324.3064171766
  0
ARC
  5
51D
100
AcDbEntity
  8
6_ALL_SURFS
100
AcDbCircle
 62
7
  6
CONTINUOUS
 10
276.837131535
 20
616.7942658509
 40
4.7990381057
100
AcDbArc
 50
177.6115056179
 51
207.2855350899
  0
ARC
  5
51E
100
AcDbEntity
  8
7_ALL_FEATURES
100
AcDbCircle
 62
7
  6
CONTINUOUS
 10
276.837131535
 20
518.8942658509
 40
4.7990381057
100
AcDbArc
 50
35.6935828234
 51
144.3064171766
  0
ARC
  5
51F
100
AcDbEntity
  8
7_ALL_FEATURES
100
AcDbCircle
 62
7
  6
CONTINUOUS
 10
276.837131535
 20
518.8942658509
 40
4.7990381057
100
AcDbArc
 50
357.6115056179
 51
27.2855350899
  0
ARC
  5
520
100
AcDbEntity
  8
7_ALL_FEATURES
100
AcDbCircle
 62
7
  6
CONTINUOUS
 10
276.837131535
 20
518.8942658509
 40
4.7990381057
100
AcDbArc
 50
152.7144649101
 51
182.3884943821
  0
ARC
  5
521
100
AcDbEntity
  8
7_ALL_FEATURES
100
AcDbCircle
 62
7
  6
CONTINUOUS
 10
276.837131535
 20
518.8942658509
 40
4.7990381057
100
AcDbArc
 50
313.171184019
 51
350.4039906056
  0
ARC
  5
522
100
AcDbEntity
  8
7_ALL_FEATURES
100
AcDbCircle
 62
7
  6
CONTINUOUS
 10
276.837131535
 20
518.8942658509
 40
4.7990381057
100
AcDbArc
 50
189.5960093944
 51
226.828815981
  0
CIRCLE
  5
523
100
AcDbEntity
  8
6_ALL_SURFS
100
AcDbCircle
 62
7
  6
CONTINUOUS
 10
225.687131535
 20
477.2942658509
 40
3.5
  0
CIRCLE
  5
524
100
AcDbEntity
  8
6_ALL_SURFS
100
AcDbCircle
 62
7
  6
CONTINUOUS
 10
127.787131535
 20
477.2942658509
 40
3.5
  0
CIRCLE
  5
525
100
AcDbEntity
  8
6_ALL_SURFS
100
AcDbCircle
 62
7
  6
CONTINUOUS
 10
276.837131535
 20
616.7942658509
 40
3.5
  0
CIRCLE
  5
526
100
AcDbEntity
  8
6_ALL_SURFS
100
AcDbCircle
 62
7
  6
CONTINUOUS
 10
276.837131535
 20
518.8942658509
 40
3.5
  0
ARC
  5
527
100
AcDbEntity
  8
6_ALL_SURFS
100
AcDbCircle
 62
7
  6
CONTINUOUS
 10
476.837131535
 20
616.7942658509
 40
4.7990381057
100
AcDbArc
 50
177.6115056179
 51
207.2855350899
  0
ARC
  5
528
100
AcDbEntity
  8
6_ALL_SURFS
100
AcDbCircle
 62
7
  6
CONTINUOUS
 10
476.837131535
 20
616.7942658509
 40
4.7990381057
100
AcDbArc
 50
133.171184019
 51
170.4039906056
  0
ARC
  5
529
100
AcDbEntity
  8
6_ALL_SURFS
100
AcDbCircle
 62
7
  6
CONTINUOUS
 10
676.837131535
 20
616.7942658509
 40
4.7990381057
100
AcDbArc
 50
177.6115056179
 51
207.2855350899
  0
ARC
  5
52A
100
AcDbEntity
  8
6_ALL_SURFS
100
AcDbCircle
 62
7
  6
CONTINUOUS
 10
476.837131535
 20
616.7942658509
 40
4.7990381057
100
AcDbArc
 50
332.7144649101
 51
2.3884943821
  0
ARC
  5
52B
100
AcDbEntity
  8
6_ALL_SURFS
100
AcDbCircle
 62
7
  6
CONTINUOUS
 10
676.837131535
 20
616.7942658509
 40
4.7990381057
100
AcDbArc
 50
332.7144649101
 51
2.3884943821
  0
ARC
  5
52C
100
AcDbEntity
  8
6_ALL_SURFS
100
AcDbCircle
 62
7
  6
CONTINUOUS
 10
676.837131535
 20
616.7942658509
 40
4.7990381057
100
AcDbArc
 50
133.171184019
 51
170.4039906056
  0
ARC
  5
52D
100
AcDbEntity
  8
6_ALL_SURFS
100
AcDbCircle
 62
7
  6
CONTINUOUS
 10
476.837131535
 20
616.7942658509
 40
4.7990381057
100
AcDbArc
 50
9.5960093944
 51
46.828815981
  0
ARC
  5
52E
100
AcDbEntity
  8
6_ALL_SURFS
100
AcDbCircle
 62
7
  6
CONTINUOUS
 10
676.837131535
 20
616.7942658509
 40
4.7990381057
100
AcDbArc
 50
9.5960093944
 51
46.828815981
  0
ARC
  5
52F
100
AcDbEntity
  8
6_ALL_SURFS
100
AcDbCircle
 62
7
  6
CONTINUOUS
 10
676.837131535
 20
616.7942658509
 40
4.7990381057
100
AcDbArc
 50
215.6935828234
 51
324.3064171766
  0
ARC
  5
530
100
AcDbEntity
  8
6_ALL_SURFS
100
AcDbCircle
 62
7
  6
CONTINUOUS
 10
476.837131535
 20
616.7942658509
 40
4.7990381057
100
AcDbArc
 50
215.6935828234
 51
324.3064171766
  0
ARC
  5
531
100
AcDbEntity
  8
7_ALL_FEATURES
100
AcDbCircle
 62
7
  6
CONTINUOUS
 10
676.837131535
 20
518.8942658509
 40
4.7990381057
100
AcDbArc
 50
35.6935828234
 51
144.3064171766
  0
ARC
  5
532
100
AcDbEntity
  8
7_ALL_FEATURES
100
AcDbCircle
 62
7
  6
CONTINUOUS
 10
476.837131535
 20
518.8942658509
 40
4.7990381057
100
AcDbArc
 50
35.6935828234
 51
144.3064171766
  0
ARC
  5
533
100
AcDbEntity
  8
7_ALL_FEATURES
100
AcDbCircle
 62
7
  6
CONTINUOUS
 10
676.837131535
 20
518.8942658509
 40
4.7990381057
100
AcDbArc
 50
357.6115056179
 51
27.2855350899
  0
ARC
  5
534
100
AcDbEntity
  8
7_ALL_FEATURES
100
AcDbCircle
 62
7
  6
CONTINUOUS
 10
476.837131535
 20
518.8942658509
 40
4.7990381057
100
AcDbArc
 50
357.6115056179
 51
27.2855350899
  0
ARC
  5
535
100
AcDbEntity
  8
7_ALL_FEATURES
100
AcDbCircle
 62
7
  6
CONTINUOUS
 10
676.837131535
 20
518.8942658509
 40
4.7990381057
100
AcDbArc
 50
152.7144649101
 51
182.3884943821
  0
ARC
  5
536
100
AcDbEntity
  8
7_ALL_FEATURES
100
AcDbCircle
 62
7
  6
CONTINUOUS
 10
476.837131535
 20
518.8942658509
 40
4.7990381057
100
AcDbArc
 50
152.7144649101
 51
182.3884943821
  0
ARC
  5
537
100
AcDbEntity
  8
7_ALL_FEATURES
100
AcDbCircle
 62
7
  6
CONTINUOUS
 10
676.837131535
 20
518.8942658509
 40
4.7990381057
100
AcDbArc
 50
313.171184019
 51
350.4039906056
  0
ARC
  5
538
100
AcDbEntity
  8
7_ALL_FEATURES
100
AcDbCircle
 62
7
  6
CONTINUOUS
 10
476.837131535
 20
518.8942658509
 40
4.7990381057
100
AcDbArc
 50
313.171184019
 51
350.4039906056
  0
ARC
  5
539
100
AcDbEntity
  8
7_ALL_FEATURES
100
AcDbCircle
 62
7
  6
CONTINUOUS
 10
676.837131535
 20
518.8942658509
 40
4.7990381057
100
AcDbArc
 50
189.5960093944
 51
226.828815981
  0
ARC
  5
53A
100
AcDbEntity
  8
7_ALL_FEATURES
100
AcDbCircle
 62
7
  6
CONTINUOUS
 10
476.837131535
 20
518.8942658509
 40
4.7990381057
100
AcDbArc
 50
189.5960093944
 51
226.828815981
  0
CIRCLE
  5
53B
100
AcDbEntity
  8
6_ALL_SURFS
100
AcDbCircle
 62
7
  6
CONTINUOUS
 10
476.837131535
 20
616.7942658509
 40
3.5
  0
CIRCLE
  5
53C
100
AcDbEntity
  8
6_ALL_SURFS
100
AcDbCircle
 62
7
  6
CONTINUOUS
 10
676.837131535
 20
616.7942658509
 40
3.5
  0
CIRCLE
  5
53D
100
AcDbEntity
  8
6_ALL_SURFS
100
AcDbCircle
 62
7
  6
CONTINUOUS
 10
476.837131535
 20
518.8942658509
 40
3.5
  0
CIRCLE
  5
53E
100
AcDbEntity
  8
6_ALL_SURFS
100
AcDbCircle
 62
7
  6
CONTINUOUS
 10
676.837131535
 20
518.8942658509
 40
3.5
  0
CIRCLE
  5
53F
100
AcDbEntity
  8
3_ALL_AXES
100
AcDbCircle
 62
7
  6
CONTINUOUS
 10
856.2889182425
 20
505.2942658509
 40
4.5
  0
ARC
  5
540
100
AcDbEntity
  8
7_ALL_FEATURES
100
AcDbCircle
 62
7
  6
CONTINUOUS
 10
851.8665328578
 20
594.9942658509
 40
5.0
100
AcDbArc
 50
90.0
 51
101.007742346
  0
ARC
  5
541
100
AcDbEntity
  8
7_ALL_FEATURES
100
AcDbCircle
 62
7
  6
CONTINUOUS
 10
829.5389182424
 20
590.7942658509
 40
2.8
100
AcDbArc
 50
59.999999998
 51
122.158150485
  0
ARC
  5
542
100
AcDbEntity
  8
7_ALL_FEATURES
100
AcDbCircle
 62
7
  6
CONTINUOUS
 10
833.1889182425
 20
594.9266881425
 40
1.5
100
AcDbArc
 50
101.007742346
 51
180.0
  0
ARC
  5
543
100
AcDbEntity
  8
7_ALL_FEATURES
100
AcDbCircle
 62
7
  6
CONTINUOUS
 10
831.1889182425
 20
593.6521496834
 40
0.5
100
AcDbArc
 50
239.999999998
 51
360.0
  0
ARC
  5
544
100
AcDbEntity
  8
7_ALL_FEATURES
100
AcDbCircle
 62
7
  6
CONTINUOUS
 10
826.5889182425
 20
594.7942658509
 40
0.3
100
AcDbArc
 50
90.0
 51
180.0
  0
ARC
  5
545
100
AcDbEntity
  8
7_ALL_FEATURES
100
AcDbCircle
 62
7
  6
CONTINUOUS
 10
827.2889182425
 20
594.7942658509
 40
0.3
100
AcDbArc
 50
0.0
 51
90.0
  0
ARC
  5
546
100
AcDbEntity
  8
7_ALL_FEATURES
100
AcDbCircle
 62
7
  6
CONTINUOUS
 10
827.8889182425
 20
593.4186705454
 40
0.3
100
AcDbArc
 50
180.0
 51
302.158150485
  0
ARC
  5
547
100
AcDbEntity
  8
7_ALL_FEATURES
100
AcDbCircle
 62
7
  6
CONTINUOUS
 10
888.8889182425
 20
601.3942658509
 40
1.5
100
AcDbArc
 50
90.0
 51
180.0
  0
ARC
  5
548
100
AcDbEntity
  8
7_ALL_FEATURES
100
AcDbCircle
 62
7
  6
CONTINUOUS
 10
891.6889182425
 20
601.3942658509
 40
1.5
100
AcDbArc
 50
0.0
 51
90.0
  0
ARC
  5
549
100
AcDbEntity
  8
7_ALL_FEATURES
100
AcDbCircle
 62
7
  6
CONTINUOUS
 10
898.2889182425
 20
601.2942658509
 40
1.5
100
AcDbArc
 50
90.0
 51
133.0
  0
ARC
  5
54A
100
AcDbEntity
  8
7_ALL_FEATURES
100
AcDbCircle
 62
7
  6
CONTINUOUS
 10
900.1826216004
 20
622.400562493
 40
0.3937033579
100
AcDbArc
 50
5.7105931375
 51
180.0
  0
ARC
  5
54B
100
AcDbEntity
  8
7_ALL_FEATURES
100
AcDbCircle
 62
7
  6
CONTINUOUS
 10
887.0889182425
 20
600.2942658509
 40
0.3
100
AcDbArc
 50
270.0
 51
360.0
  0
ARC
  5
54C
100
AcDbEntity
  8
7_ALL_FEATURES
100
AcDbCircle
 62
7
  6
CONTINUOUS
 10
893.4889182425
 20
600.5942658509
 40
0.3
100
AcDbArc
 50
180.0
 51
270.0
  0
ARC
  5
54D
100
AcDbEntity
  8
7_ALL_FEATURES
100
AcDbCircle
 62
7
  6
CONTINUOUS
 10
894.8989576113
 20
600.5942658509
 40
0.3
100
AcDbArc
 50
270.0
 51
313.0
  0
ARC
  5
54E
100
AcDbEntity
  8
7_ALL_FEATURES
100
AcDbCircle
 62
7
  6
CONTINUOUS
 10
902.0889182425
 20
602.2942658509
 40
0.2
100
AcDbArc
 50
0.0
 51
90.0
  0
ARC
  5
54F
100
AcDbEntity
  8
7_ALL_FEATURES
100
AcDbCircle
 62
7
  6
CONTINUOUS
 10
900.9889182425
 20
602.6942658509
 40
0.2
100
AcDbArc
 50
193.807954496
 51
270.0
  0
ARC
  5
550
100
AcDbEntity
  8
7_ALL_FEATURES
100
AcDbCircle
 62
7
  6
CONTINUOUS
 10
176.737131535
 20
722.5179866518
 40
8.0
100
AcDbArc
 50
60.0
 51
75.5224878141
  0
ARC
  5
551
100
AcDbEntity
  8
7_ALL_FEATURES
100
AcDbCircle
 62
7
  6
CONTINUOUS
 10
176.737131535
 20
722.5179866518
 40
8.0
100
AcDbArc
 50
104.4775121859
 51
120.0
  0
ARC
  5
552
100
AcDbEntity
  8
7_ALL_FEATURES
100
AcDbCircle
 62
7
  6
CONTINUOUS
 10
176.737131535
 20
722.5179866518
 40
7.9843597113
100
AcDbArc
 50
75.4935070353
 51
86.4096498625
  0
ARC
  5
553
100
AcDbEntity
  8
7_ALL_FEATURES
100
AcDbCircle
 62
7
  6
CONTINUOUS
 10
176.737131535
 20
722.5179866518
 40
7.9843597113
100
AcDbArc
 50
93.5903501375
 51
104.5064929647
  0
ARC
  5
554
100
AcDbEntity
  8
7_ALL_FEATURES
100
AcDbCircle
 62
7
  6
CONTINUOUS
 10
176.737131535
 20
722.5179866518
 40
7.7459666924
100
AcDbArc
 50
86.2990001561
 51
93.7009998439
  0
ARC
  5
555
100
AcDbEntity
  8
7_ALL_FEATURES
100
AcDbCircle
 62
7
  6
CONTINUOUS
 10
149.587131535
 20
744.9956012672
 40
5.0
100
AcDbArc
 50
180.0
 51
191.007742346
  0
ARC
  5
556
100
AcDbEntity
  8
7_ALL_FEATURES
100
AcDbCircle
 62
7
  6
CONTINUOUS
 10
153.787131535
 20
722.6679866517
 40
2.8
100
AcDbArc
 50
0.0
 51
30.000000002
  0
ARC
  5
557
100
AcDbEntity
  8
7_ALL_FEATURES
100
AcDbCircle
 62
7
  6
CONTINUOUS
 10
153.787131535
 20
722.6679866517
 40
2.8
100
AcDbArc
 50
149.999999998
 51
212.158150485
  0
ARC
  5
558
100
AcDbEntity
  8
7_ALL_FEATURES
100
AcDbCircle
 62
7
  6
CONTINUOUS
 10
149.6547092435
 20
726.3179866518
 40
1.5
100
AcDbArc
 50
191.007742346
 51
270.0
  0
ARC
  5
559
100
AcDbEntity
  8
7_ALL_FEATURES
100
AcDbCircle
 62
7
  6
CONTINUOUS
 10
153.787131535
 20
722.6679866517
 40
1.3
100
AcDbArc
 50
310.8069228753
 51
229.1930771247
  0
ARC
  5
55A
100
AcDbEntity
  8
6_ALL_SURFS
100
AcDbCircle
 62
7
  6
CONTINUOUS
 10
179.337131535
 20
720.4179866518
 40
1.0
100
AcDbArc
 50
270.0
 51
360.0
  0
ARC
  5
55B
100
AcDbEntity
  8
7_ALL_FEATURES
100
AcDbCircle
 62
7
  6
CONTINUOUS
 10
174.137131535
 20
720.4179866518
 40
1.0
100
AcDbArc
 50
180.0
 51
270.0
  0
ARC
  5
55C
100
AcDbEntity
  8
7_ALL_FEATURES
100
AcDbCircle
 62
7
  6
CONTINUOUS
 10
172.637131535
 20
724.3179866518
 40
0.5
100
AcDbArc
 50
0.0
 51
90.0
  0
ARC
  5
55D
100
AcDbEntity
  8
7_ALL_FEATURES
100
AcDbCircle
 62
7
  6
CONTINUOUS
 10
156.6450153675
 20
724.3179866518
 40
0.5
100
AcDbArc
 50
90.0
 51
210.000000002
  0
ARC
  5
55E
100
AcDbEntity
  8
7_ALL_FEATURES
100
AcDbCircle
 62
7
  6
CONTINUOUS
 10
150.9292477026
 20
724.3179866518
 40
0.5
100
AcDbArc
 50
329.999999998
 51
90.0
  0
ARC
  5
55F
100
AcDbEntity
  8
7_ALL_FEATURES
100
AcDbCircle
 62
7
  6
CONTINUOUS
 10
150.1492997279
 20
726.9179866518
 40
0.5
100
AcDbArc
 50
191.0
 51
270.0
  0
ARC
  5
560
100
AcDbEntity
  8
6_ALL_SURFS
100
AcDbCircle
 62
7
  6
CONTINUOUS
 10
178.137131535
 20
721.3179866518
 40
0.3
100
AcDbArc
 50
270.0
 51
360.0
  0
ARC
  5
561
100
AcDbEntity
  8
7_ALL_FEATURES
100
AcDbCircle
 62
7
  6
CONTINUOUS
 10
151.1627268406
 20
721.0179866518
 40
0.3
100
AcDbArc
 50
270.0
 51
32.158150485
  0
ARC
  5
562
100
AcDbEntity
  8
7_ALL_FEATURES
100
AcDbCircle
 62
7
  6
CONTINUOUS
 10
146.487131535
 20
747.067637243
 40
0.3
100
AcDbArc
 50
180.0
 51
200.0
  0
ARC
  5
563
100
AcDbEntity
  8
7_ALL_FEATURES
100
AcDbCircle
 62
7
  6
CONTINUOUS
 10
146.5305095733
 20
744.4868794618
 40
0.3
100
AcDbArc
 50
110.0
 51
191.0
  0
ARC
  5
564
100
AcDbEntity
  8
7_ALL_FEATURES
100
AcDbCircle
 62
7
  6
CONTINUOUS
 10
175.337131535
 20
721.3179866518
 40
0.3
100
AcDbArc
 50
180.0
 51
270.0
  0
ARC
  5
565
100
AcDbEntity
  8
7_ALL_FEATURES
100
AcDbCircle
 62
7
  6
CONTINUOUS
 10
146.5526177058
 20
745.1334328275
 40
0.3
100
AcDbArc
 50
290.0
 51
20.0
  0
ARC
  5
566
100
AcDbEntity
  8
7_ALL_FEATURES
100
AcDbCircle
 62
7
  6
CONTINUOUS
 10
174.737131535
 20
726.1179866518
 40
0.3
100
AcDbArc
 50
0.0
 51
90.0
  0
ARC
  5
567
100
AcDbEntity
  8
6_ALL_SURFS
100
AcDbCircle
 62
7
  6
CONTINUOUS
 10
178.737131535
 20
726.1179866518
 40
0.3
100
AcDbArc
 50
90.0
 51
180.0
  0
ARC
  5
568
100
AcDbEntity
  8
7_ALL_FEATURES
100
AcDbCircle
 62
7
  6
CONTINUOUS
 10
156.287131535
 20
719.7179866518
 40
0.3
100
AcDbArc
 50
270.0
 51
360.0
  0
ARC
  5
569
100
AcDbEntity
  8
7_ALL_FEATURES
100
AcDbCircle
 62
7
  6
CONTINUOUS
 10
155.8367249907
 20
719.7179866518
 40
0.3
100
AcDbArc
 50
210.0000000014
 51
270.0
  0
ARC
  5
56A
100
AcDbEntity
  8
7_ALL_FEATURES
100
AcDbCircle
 62
7
  6
CONTINUOUS
 10
154.8327508385
 20
721.4569208929
 40
0.3
100
AcDbArc
 50
130.8069228753
 51
210.0000000014
  0
ARC
  5
56B
100
AcDbEntity
  8
7_ALL_FEATURES
100
AcDbCircle
 62
7
  6
CONTINUOUS
 10
152.7415122316
 20
721.4569208929
 40
0.3
100
AcDbArc
 50
329.9999999986
 51
49.1930771247
  0
ARC
  5
56C
100
AcDbEntity
  8
7_ALL_FEATURES
100
AcDbCircle
 62
7
  6
CONTINUOUS
 10
151.7375380794
 20
719.7179866518
 40
0.3
100
AcDbArc
 50
270.0
 51
329.9999999986
  0
ARC
  5
56D
100
AcDbEntity
  8
7_ALL_FEATURES
100
AcDbCircle
 62
7
  6
CONTINUOUS
 10
149.787131535
 20
719.7179866518
 40
0.3
100
AcDbArc
 50
180.0
 51
270.0
  0
ARC
  5
56E
100
AcDbEntity
  8
7_ALL_FEATURES
100
AcDbCircle
 62
7
  6
CONTINUOUS
 10
149.787131535
 20
720.4179866518
 40
0.3
100
AcDbArc
 50
90.0
 51
180.0
  0
ARC
  5
56F
100
AcDbEntity
  8
3_ALL_AXES
100
AcDbCircle
 62
7
  6
CONTINUOUS
 10
133.287131535
 20
794.3179866518
 40
0.5
100
AcDbArc
 50
233.1301023542
 51
306.8698976458
  0
ARC
  5
570
100
AcDbEntity
  8
3_ALL_AXES
100
AcDbCircle
 62
7
  6
CONTINUOUS
 10
130.287131535
 20
794.3179866518
 40
0.5
100
AcDbArc
 50
233.1301023542
 51
306.8698976458
  0
ARC
  5
571
100
AcDbEntity
  8
3_ALL_AXES
100
AcDbCircle
 62
7
  6
CONTINUOUS
 10
127.287131535
 20
794.3179866518
 40
0.5
100
AcDbArc
 50
233.1301023542
 51
306.8698976458
  0
ARC
  5
572
100
AcDbEntity
  8
7_ALL_FEATURES
100
AcDbCircle
 62
7
  6
CONTINUOUS
 10
122.180834893
 20
793.3116900098
 40
0.3937033579
100
AcDbArc
 50
95.7105931375
 51
270.0
  0
ARC
  5
573
100
AcDbEntity
  8
7_ALL_FEATURES
100
AcDbCircle
 62
7
  6
CONTINUOUS
 10
143.187131535
 20
784.8179866518
 40
1.5
100
AcDbArc
 50
90.0
 51
180.0
  0
ARC
  5
574
100
AcDbEntity
  8
7_ALL_FEATURES
100
AcDbCircle
 62
7
  6
CONTINUOUS
 10
143.187131535
 20
782.0179866518
 40
1.5
100
AcDbArc
 50
180.0
 51
270.0
  0
ARC
  5
575
100
AcDbEntity
  8
7_ALL_FEATURES
100
AcDbCircle
 62
7
  6
CONTINUOUS
 10
144.637131535
 20
783.4179866518
 40
1.3
100
AcDbArc
 50
40.8069228749
 51
319.1930771252
  0
ARC
  5
576
100
AcDbEntity
  8
7_ALL_FEATURES
100
AcDbCircle
 62
7
  6
CONTINUOUS
 10
146.187131535
 20
786.3422507205
 40
0.3
100
AcDbArc
 50
180.0
 51
225.0
  0
ARC
  5
577
100
AcDbEntity
  8
7_ALL_FEATURES
100
AcDbCircle
 62
7
  6
CONTINUOUS
 10
144.287131535
 20
780.2179866518
 40
0.3
100
AcDbArc
 50
0.0
 51
90.0
  0
ARC
  5
578
100
AcDbEntity
  8
7_ALL_FEATURES
100
AcDbCircle
 62
7
  6
CONTINUOUS
 10
143.987131535
 20
786.6179866518
 40
0.3
100
AcDbArc
 50
270.0
 51
360.0
  0
ARC
  5
579
100
AcDbEntity
  8
7_ALL_FEATURES
100
AcDbCircle
 62
7
  6
CONTINUOUS
 10
145.887131535
 20
785.7937225831
 40
0.3
100
AcDbArc
 50
0.0
 51
45.0
  0
ARC
  5
57A
100
AcDbEntity
  8
7_ALL_FEATURES
100
AcDbCircle
 62
7
  6
CONTINUOUS
 10
145.887131535
 20
784.4860846498
 40
0.3
100
AcDbArc
 50
300.0
 51
360.0
  0
ARC
  5
57B
100
AcDbEntity
  8
7_ALL_FEATURES
100
AcDbCircle
 62
7
  6
CONTINUOUS
 10
145.8481972939
 20
784.4636059552
 40
0.3
100
AcDbArc
 50
220.8069228749
 51
300.0
  0
ARC
  5
57C
100
AcDbEntity
  8
7_ALL_FEATURES
100
AcDbCircle
 62
7
  6
CONTINUOUS
 10
145.8481972939
 20
782.3723673484
 40
0.3
100
AcDbArc
 50
60.0
 51
139.1930771251
  0
ARC
  5
57D
100
AcDbEntity
  8
7_ALL_FEATURES
100
AcDbCircle
 62
7
  6
CONTINUOUS
 10
145.887131535
 20
782.3498886538
 40
0.3
100
AcDbArc
 50
0.0
 51
60.0
  0
ARC
  5
57E
100
AcDbEntity
  8
3_ALL_AXES
100
AcDbCircle
 62
7
  6
CONTINUOUS
 10
143.687131535
 20
793.5979866518
 40
1.8
100
AcDbArc
 50
302.8598803789
 51
360.0
  0
ARC
  5
57F
100
AcDbEntity
  8
7_ALL_FEATURES
100
AcDbCircle
 62
7
  6
CONTINUOUS
 10
143.287131535
 20
791.4179866518
 40
1.5
100
AcDbArc
 50
180.0
 51
223.0
  0
ARC
  5
580
100
AcDbEntity
  8
3_ALL_AXES
100
AcDbCircle
 62
7
  6
CONTINUOUS
 10
144.7723043323
 20
791.9179866518
 40
1.0
100
AcDbArc
 50
122.8598803789
 51
223.0
  0
ARC
  5
581
100
AcDbEntity
  8
3_ALL_AXES
100
AcDbCircle
 62
7
  6
CONTINUOUS
 10
143.687131535
 20
793.5979866518
 40
1.0
100
AcDbArc
 50
302.8598803789
 51
360.0
  0
ARC
  5
582
100
AcDbEntity
  8
3_ALL_AXES
100
AcDbCircle
 62
7
  6
CONTINUOUS
 10
139.287131535
 20
794.3179866518
 40
0.5
100
AcDbArc
 50
233.1301023542
 51
306.8698976458
  0
ARC
  5
583
100
AcDbEntity
  8
3_ALL_AXES
100
AcDbCircle
 62
7
  6
CONTINUOUS
 10
136.287131535
 20
794.3179866518
 40
0.5
100
AcDbArc
 50
233.1301023542
 51
306.8698976458
  0
ARC
  5
584
100
AcDbEntity
  8
3_ALL_AXES
100
AcDbCircle
 62
7
  6
CONTINUOUS
 10
144.6979199246
 20
791.1179866518
 40
0.4
100
AcDbArc
 50
223.0
 51
43.0
  0
ARC
  5
585
100
AcDbEntity
  8
7_ALL_FEATURES
100
AcDbCircle
 62
7
  6
CONTINUOUS
 10
146.187131535
 20
787.8937225831
 40
0.3
100
AcDbArc
 50
135.0
 51
180.0
  0
ARC
  5
586
100
AcDbEntity
  8
7_ALL_FEATURES
100
AcDbCircle
 62
7
  6
CONTINUOUS
 10
143.987131535
 20
788.0280260207
 40
0.3
100
AcDbArc
 50
0.0
 51
43.0
  0
ARC
  5
587
100
AcDbEntity
  8
7_ALL_FEATURES
100
AcDbCircle
 62
7
  6
CONTINUOUS
 10
144.8163478767
 20
790.2179866518
 40
0.3
100
AcDbArc
 50
223.0
 51
270.0
  0
ARC
  5
588
100
AcDbEntity
  8
7_ALL_FEATURES
100
AcDbCircle
 62
7
  6
CONTINUOUS
 10
143.587131535
 20
792.6179866518
 40
0.3
100
AcDbArc
 50
90.0
 51
180.0
  0
ARC
  5
589
100
AcDbEntity
  8
7_ALL_FEATURES
100
AcDbCircle
 62
7
  6
CONTINUOUS
 10
143.587131535
 20
791.5361597945
 40
0.3
100
AcDbArc
 50
180.0
 51
223.0
  0
ARC
  5
58A
100
AcDbEntity
  8
7_ALL_FEATURES
100
AcDbCircle
 62
7
  6
CONTINUOUS
 10
145.887131535
 20
788.4422507205
 40
0.3
100
AcDbArc
 50
315.0
 51
360.0
  0
ARC
  5
58B
100
AcDbEntity
  8
7_ALL_FEATURES
100
AcDbCircle
 62
7
  6
CONTINUOUS
 10
145.887131535
 20
789.6179866518
 40
0.3
100
AcDbArc
 50
0.0
 51
90.0
  0
ARC
  5
58C
100
AcDbEntity
  8
7_ALL_FEATURES
100
AcDbCircle
 62
7
  6
CONTINUOUS
 10
144.2239459914
 20
793.2179866518
 40
0.3
100
AcDbArc
 50
270.0
 51
332.0
  0
ARC
  5
58D
100
AcDbEntity
  8
7_ALL_FEATURES
100
AcDbCircle
 62
7
  6
CONTINUOUS
 10
144.237131535
 20
793.2427850527
 40
0.3
100
AcDbArc
 50
332.0
 51
360.0
  0
ARC
  5
58E
100
AcDbEntity
  8
7_ALL_FEATURES
100
AcDbCircle
 62
7
  6
CONTINUOUS
 10
143.637131535
 20
794.6179866518
 40
0.2
100
AcDbArc
 50
180.0
 51
270.0
  0
ARC
  5
58F
100
AcDbEntity
  8
7_ALL_FEATURES
100
AcDbCircle
 62
7
  6
CONTINUOUS
 10
143.637131535
 20
795.2179866518
 40
0.2
100
AcDbArc
 50
90.0
 51
180.0
  0
ARC
  5
590
100
AcDbEntity
  8
3_ALL_AXES
100
AcDbCircle
 62
7
  6
CONTINUOUS
 10
144.7723043323
 20
791.9179866518
 40
0.2
100
AcDbArc
 50
122.8598803789
 51
223.0
  0
ARC
  5
591
100
AcDbEntity
  8
7_ALL_FEATURES
100
AcDbCircle
 62
7
  6
CONTINUOUS
 10
145.687131535
 20
793.7179866518
 40
0.2
100
AcDbArc
 50
90.0
 51
180.0
  0
ARC
  5
592
100
AcDbEntity
  8
7_ALL_FEATURES
100
AcDbCircle
 62
7
  6
CONTINUOUS
 10
144.487131535
 20
794.2179866518
 40
0.2
100
AcDbArc
 50
0.0
 51
90.0
  0
ARC
  5
593
100
AcDbEntity
  8
7_ALL_FEATURES
100
AcDbCircle
 62
7
  6
CONTINUOUS
 10
141.887131535
 20
794.1179866518
 40
0.2
100
AcDbArc
 50
270.0
 51
360.0
  0
ARC
  5
594
100
AcDbEntity
  8
7_ALL_FEATURES
100
AcDbCircle
 62
7
  6
CONTINUOUS
 10
143.487131535
 20
794.6179866518
 40
0.2
100
AcDbArc
 50
180.0
 51
270.0
  0
ARC
  5
595
100
AcDbEntity
  8
7_ALL_FEATURES
100
AcDbCircle
 62
7
  6
CONTINUOUS
 10
144.337131535
 20
794.2179866518
 40
0.2
100
AcDbArc
 50
0.0
 51
90.0
  0
ARC
  5
596
100
AcDbEntity
  8
7_ALL_FEATURES
100
AcDbCircle
 62
7
  6
CONTINUOUS
 10
143.087131535
 20
795.2179866518
 40
0.2
100
AcDbArc
 50
0.0
 51
90.0
  0
ARC
  5
597
100
AcDbEntity
  8
7_ALL_FEATURES
100
AcDbCircle
 62
7
  6
CONTINUOUS
 10
142.287131535
 20
795.2179866518
 40
0.2
100
AcDbArc
 50
90.0
 51
180.0
  0
ARC
  5
598
100
AcDbEntity
  8
6_ALL_SURFS
100
AcDbCircle
 62
7
  6
CONTINUOUS
 10
203.887131535
 20
744.9956012672
 40
5.0
100
AcDbArc
 50
348.992257654
 51
360.0
  0
CIRCLE
  5
599
100
AcDbEntity
  8
3_ALL_AXES
100
AcDbCircle
 62
7
  6
CONTINUOUS
 10
226.387131535
 20
749.4179866518
 40
4.35
  0
ARC
  5
59A
100
AcDbEntity
  8
6_ALL_SURFS
100
AcDbCircle
 62
7
  6
CONTINUOUS
 10
199.687131535
 20
722.6679866517
 40
2.8
100
AcDbArc
 50
327.841849515
 51
30.000000002
  0
ARC
  5
59B
100
AcDbEntity
  8
6_ALL_SURFS
100
AcDbCircle
 62
7
  6
CONTINUOUS
 10
199.687131535
 20
722.6679866517
 40
2.8
100
AcDbArc
 50
149.999999998
 51
180.0
  0
ARC
  5
59C
100
AcDbEntity
  8
0
100
AcDbCircle
 62
2
  6
CONTINUOUS
 10
226.387131535
 20
749.4179866518
 40
2.5
100
AcDbArc
 50
255.0
 51
360.0
  0
ARC
  5
59D
100
AcDbEntity
  8
0
100
AcDbCircle
 62
2
  6
CONTINUOUS
 10
226.387131535
 20
749.4179866518
 40
2.5
100
AcDbArc
 50
180.0
 51
195.0
  0
ARC
  5
59E
100
AcDbEntity
  8
7_ALL_FEATURES
100
AcDbCircle
 62
7
  6
CONTINUOUS
 10
226.887131535
 20
749.4179866518
 40
2.5
100
AcDbArc
 50
180.0
 51
213.0692338485
  0
CIRCLE
  5
59F
100
AcDbEntity
  8
3_ALL_AXES
100
AcDbCircle
 62
7
  6
CONTINUOUS
 10
238.887131535
 20
749.4179866518
 40
2.5
  0
ARC
  5
5A0
100
AcDbEntity
  8
7_ALL_FEATURES
100
AcDbCircle
 62
7
  6
CONTINUOUS
 10
226.387131535
 20
749.4179866518
 40
2.1
100
AcDbArc
 50
180.0
 51
360.0
  0
CIRCLE
  5
5A1
100
AcDbEntity
  8
7_ALL_FEATURES
100
AcDbCircle
 62
7
  6
CONTINUOUS
 10
226.887131535
 20
749.4179866518
 40
2.0
  0
ARC
  5
5A2
100
AcDbEntity
  8
6_ALL_SURFS
100
AcDbCircle
 62
7
  6
CONTINUOUS
 10
203.8195538266
 20
726.3179866518
 40
1.5
100
AcDbArc
 50
270.0
 51
348.992257654
  0
ARC
  5
5A3
100
AcDbEntity
  8
6_ALL_SURFS
100
AcDbCircle
 62
7
  6
CONTINUOUS
 10
199.687131535
 20
722.6679866517
 40
1.3
100
AcDbArc
 50
310.8069228753
 51
229.1930771247
  0
ARC
  5
5A4
100
AcDbEntity
  8
6_ALL_SURFS
100
AcDbCircle
 62
7
  6
CONTINUOUS
 10
180.837131535
 20
724.3179866518
 40
0.5
100
AcDbArc
 50
90.0
 51
180.0
  0
ARC
  5
5A5
100
AcDbEntity
  8
6_ALL_SURFS
100
AcDbCircle
 62
7
  6
CONTINUOUS
 10
196.8292477026
 20
724.3179866518
 40
0.5
100
AcDbArc
 50
329.999999998
 51
90.0
  0
ARC
  5
5A6
100
AcDbEntity
  8
6_ALL_SURFS
100
AcDbCircle
 62
7
  6
CONTINUOUS
 10
202.5450153675
 20
724.3179866518
 40
0.5
100
AcDbArc
 50
90.0
 51
210.000000002
  0
ARC
  5
5A7
100
AcDbEntity
  8
6_ALL_SURFS
100
AcDbCircle
 62
7
  6
CONTINUOUS
 10
203.3249633421
 20
726.9179866518
 40
0.5
100
AcDbArc
 50
270.0
 51
349.0
  0
ARC
  5
5A8
100
AcDbEntity
  8
6_ALL_SURFS
100
AcDbCircle
 62
7
  6
CONTINUOUS
 10
202.3115362295
 20
721.0179866518
 40
0.3
100
AcDbArc
 50
147.841849515
 51
270.0
  0
ARC
  5
5A9
100
AcDbEntity
  8
6_ALL_SURFS
100
AcDbCircle
 62
7
  6
CONTINUOUS
 10
206.987131535
 20
747.067637243
 40
0.3
100
AcDbArc
 50
340.0
 51
360.0
  0
ARC
  5
5AA
100
AcDbEntity
  8
6_ALL_SURFS
100
AcDbCircle
 62
7
  6
CONTINUOUS
 10
206.9437534967
 20
744.4868794618
 40
0.3
100
AcDbArc
 50
349.0
 51
70.0
  0
ARC
  5
5AB
100
AcDbEntity
  8
6_ALL_SURFS
100
AcDbCircle
 62
7
  6
CONTINUOUS
 10
206.9216453643
 20
745.1334328275
 40
0.3
100
AcDbArc
 50
160.0
 51
250.0
  0
ARC
  5
5AC
100
AcDbEntity
  8
6_ALL_SURFS
100
AcDbCircle
 62
7
  6
CONTINUOUS
 10
203.687131535
 20
720.4179866518
 40
0.3
100
AcDbArc
 50
0.0
 51
90.0
  0
ARC
  5
5AD
100
AcDbEntity
  8
6_ALL_SURFS
100
AcDbCircle
 62
7
  6
CONTINUOUS
 10
203.687131535
 20
719.7179866518
 40
0.3
100
AcDbArc
 50
270.0
 51
360.0
  0
ARC
  5
5AE
100
AcDbEntity
  8
6_ALL_SURFS
100
AcDbCircle
 62
7
  6
CONTINUOUS
 10
201.7367249907
 20
719.7179866518
 40
0.3
100
AcDbArc
 50
210.0000000014
 51
270.0
  0
ARC
  5
5AF
100
AcDbEntity
  8
6_ALL_SURFS
100
AcDbCircle
 62
7
  6
CONTINUOUS
 10
200.7327508385
 20
721.4569208929
 40
0.3
100
AcDbArc
 50
130.8069228753
 51
210.0000000014
  0
ARC
  5
5B0
100
AcDbEntity
  8
6_ALL_SURFS
100
AcDbCircle
 62
7
  6
CONTINUOUS
 10
198.6415122316
 20
721.4569208929
 40
0.3
100
AcDbArc
 50
329.9999999986
 51
49.1930771247
  0
ARC
  5
5B1
100
AcDbEntity
  8
6_ALL_SURFS
100
AcDbCircle
 62
7
  6
CONTINUOUS
 10
197.6375380794
 20
719.7179866518
 40
0.3
100
AcDbArc
 50
270.0
 51
329.9999999986
  0
ARC
  5
5B2
100
AcDbEntity
  8
6_ALL_SURFS
100
AcDbCircle
 62
7
  6
CONTINUOUS
 10
197.187131535
 20
719.7179866518
 40
0.3
100
AcDbArc
 50
180.0
 51
270.0
  0
ARC
  5
5B3
100
AcDbEntity
  8
6_ALL_SURFS
100
AcDbCircle
 62
7
  6
CONTINUOUS
 10
210.287131535
 20
784.8179866518
 40
1.5
100
AcDbArc
 50
0.0
 51
90.0
  0
ARC
  5
5B4
100
AcDbEntity
  8
6_ALL_SURFS
100
AcDbCircle
 62
7
  6
CONTINUOUS
 10
210.287131535
 20
782.0179866518
 40
1.5
100
AcDbArc
 50
270.0
 51
360.0
  0
ARC
  5
5B5
100
AcDbEntity
  8
6_ALL_SURFS
100
AcDbCircle
 62
7
  6
CONTINUOUS
 10
208.837131535
 20
783.4179866518
 40
1.3
100
AcDbArc
 50
220.8069228749
 51
139.1930771251
  0
ARC
  5
5B6
100
AcDbEntity
  8
7_ALL_FEATURES
100
AcDbCircle
 62
7
  6
CONTINUOUS
 10
207.287131535
 20
786.3422507205
 40
0.3
100
AcDbArc
 50
315.0
 51
360.0
  0
ARC
  5
5B7
100
AcDbEntity
  8
6_ALL_SURFS
100
AcDbCircle
 62
7
  6
CONTINUOUS
 10
209.187131535
 20
780.2179866518
 40
0.3
100
AcDbArc
 50
90.0
 51
180.0
  0
ARC
  5
5B8
100
AcDbEntity
  8
6_ALL_SURFS
100
AcDbCircle
 62
7
  6
CONTINUOUS
 10
209.487131535
 20
786.6179866518
 40
0.3
100
AcDbArc
 50
180.0
 51
270.0
  0
ARC
  5
5B9
100
AcDbEntity
  8
6_ALL_SURFS
100
AcDbCircle
 62
7
  6
CONTINUOUS
 10
207.587131535
 20
782.3498886538
 40
0.3
100
AcDbArc
 50
120.0
 51
180.0
  0
ARC
  5
5BA
100
AcDbEntity
  8
6_ALL_SURFS
100
AcDbCircle
 62
7
  6
CONTINUOUS
 10
207.6260657762
 20
782.3723673484
 40
0.3
100
AcDbArc
 50
40.8069228749
 51
120.0
  0
ARC
  5
5BB
100
AcDbEntity
  8
6_ALL_SURFS
100
AcDbCircle
 62
7
  6
CONTINUOUS
 10
207.6260657762
 20
784.4636059552
 40
0.3
100
AcDbArc
 50
240.0
 51
319.1930771251
  0
ARC
  5
5BC
100
AcDbEntity
  8
6_ALL_SURFS
100
AcDbCircle
 62
7
  6
CONTINUOUS
 10
207.587131535
 20
784.4860846498
 40
0.3
100
AcDbArc
 50
180.0
 51
240.0
  0
ARC
  5
5BD
100
AcDbEntity
  8
7_ALL_FEATURES
100
AcDbCircle
 62
7
  6
CONTINUOUS
 10
207.587131535
 20
785.7937225831
 40
0.3
100
AcDbArc
 50
135.0
 51
180.0
  0
ARC
  5
5BE
100
AcDbEntity
  8
3_ALL_AXES
100
AcDbCircle
 62
7
  6
CONTINUOUS
 10
209.787131535
 20
793.5979866518
 40
1.8
100
AcDbArc
 50
180.0
 51
237.1401196211
  0
ARC
  5
5BF
100
AcDbEntity
  8
6_ALL_SURFS
100
AcDbCircle
 62
7
  6
CONTINUOUS
 10
210.187131535
 20
791.4179866518
 40
1.5
100
AcDbArc
 50
317.0
 51
360.0
  0
ARC
  5
5C0
100
AcDbEntity
  8
3_ALL_AXES
100
AcDbCircle
 62
7
  6
CONTINUOUS
 10
209.787131535
 20
793.5979866518
 40
1.0
100
AcDbArc
 50
180.0
 51
237.1401196211
  0
ARC
  5
5C1
100
AcDbEntity
  8
3_ALL_AXES
100
AcDbCircle
 62
7
  6
CONTINUOUS
 10
208.7019587377
 20
791.9179866518
 40
1.0
100
AcDbArc
 50
317.0
 51
57.1401196211
  0
ARC
  5
5C2
100
AcDbEntity
  8
6_ALL_SURFS
100
AcDbCircle
 62
7
  6
CONTINUOUS
 10
214.187131535
 20
794.3179866518
 40
0.5
100
AcDbArc
 50
233.1301023542
 51
306.8698976458
  0
ARC
  5
5C3
100
AcDbEntity
  8
6_ALL_SURFS
100
AcDbCircle
 62
7
  6
CONTINUOUS
 10
217.187131535
 20
794.3179866518
 40
0.5
100
AcDbArc
 50
233.1301023542
 51
306.8698976458
  0
ARC
  5
5C4
100
AcDbEntity
  8
3_ALL_AXES
100
AcDbCircle
 62
7
  6
CONTINUOUS
 10
208.7763431455
 20
791.1179866518
 40
0.4
100
AcDbArc
 50
137.0
 51
317.0
  0
ARC
  5
5C5
100
AcDbEntity
  8
7_ALL_FEATURES
100
AcDbCircle
 62
7
  6
CONTINUOUS
 10
207.287131535
 20
787.8937225831
 40
0.3
100
AcDbArc
 50
0.0
 51
45.0
  0
ARC
  5
5C6
100
AcDbEntity
  8
6_ALL_SURFS
100
AcDbCircle
 62
7
  6
CONTINUOUS
 10
209.487131535
 20
788.0280260207
 40
0.3
100
AcDbArc
 50
137.0
 51
180.0
  0
ARC
  5
5C7
100
AcDbEntity
  8
6_ALL_SURFS
100
AcDbCircle
 62
7
  6
CONTINUOUS
 10
208.6579151933
 20
790.2179866518
 40
0.3
100
AcDbArc
 50
270.0
 51
317.0
  0
ARC
  5
5C8
100
AcDbEntity
  8
6_ALL_SURFS
100
AcDbCircle
 62
7
  6
CONTINUOUS
 10
209.887131535
 20
792.6179866518
 40
0.3
100
AcDbArc
 50
0.0
 51
90.0
  0
ARC
  5
5C9
100
AcDbEntity
  8
6_ALL_SURFS
100
AcDbCircle
 62
7
  6
CONTINUOUS
 10
209.887131535
 20
791.5361597945
 40
0.3
100
AcDbArc
 50
317.0
 51
360.0
  0
ARC
  5
5CA
100
AcDbEntity
  8
7_ALL_FEATURES
100
AcDbCircle
 62
7
  6
CONTINUOUS
 10
207.587131535
 20
788.4422507205
 40
0.3
100
AcDbArc
 50
180.0
 51
225.0
  0
ARC
  5
5CB
100
AcDbEntity
  8
6_ALL_SURFS
100
AcDbCircle
 62
7
  6
CONTINUOUS
 10
207.587131535
 20
789.6179866518
 40
0.3
100
AcDbArc
 50
90.0
 51
180.0
  0
ARC
  5
5CC
100
AcDbEntity
  8
6_ALL_SURFS
100
AcDbCircle
 62
7
  6
CONTINUOUS
 10
209.2503170787
 20
793.2179866518
 40
0.3
100
AcDbArc
 50
208.0
 51
270.0
  0
ARC
  5
5CD
100
AcDbEntity
  8
6_ALL_SURFS
100
AcDbCircle
 62
7
  6
CONTINUOUS
 10
209.237131535
 20
793.2427850527
 40
0.3
100
AcDbArc
 50
180.0
 51
208.0
  0
ARC
  5
5CE
100
AcDbEntity
  8
7_ALL_FEATURES
100
AcDbCircle
 62
7
  6
CONTINUOUS
 10
209.837131535
 20
795.2179866518
 40
0.2
100
AcDbArc
 50
0.0
 51
90.0
  0
ARC
  5
5CF
100
AcDbEntity
  8
7_ALL_FEATURES
100
AcDbCircle
 62
7
  6
CONTINUOUS
 10
209.837131535
 20
794.6179866518
 40
0.2
100
AcDbArc
 50
270.0
 51
360.0
  0
ARC
  5
5D0
100
AcDbEntity
  8
3_ALL_AXES
100
AcDbCircle
 62
7
  6
CONTINUOUS
 10
208.7019587377
 20
791.9179866518
 40
0.2
100
AcDbArc
 50
317.0
 51
57.1401196211
  0
ARC
  5
5D1
100
AcDbEntity
  8
7_ALL_FEATURES
100
AcDbCircle
 62
7
  6
CONTINUOUS
 10
207.787131535
 20
793.7179866518
 40
0.2
100
AcDbArc
 50
0.0
 51
90.0
  0
ARC
  5
5D2
100
AcDbEntity
  8
7_ALL_FEATURES
100
AcDbCircle
 62
7
  6
CONTINUOUS
 10
208.987131535
 20
794.2179866518
 40
0.2
100
AcDbArc
 50
90.0
 51
180.0
  0
ARC
  5
5D3
100
AcDbEntity
  8
6_ALL_SURFS
100
AcDbCircle
 62
7
  6
CONTINUOUS
 10
211.587131535
 20
794.1179866518
 40
0.2
100
AcDbArc
 50
180.0
 51
270.0
  0
ARC
  5
5D4
100
AcDbEntity
  8
6_ALL_SURFS
100
AcDbCircle
 62
7
  6
CONTINUOUS
 10
209.987131535
 20
794.6179866518
 40
0.2
100
AcDbArc
 50
270.0
 51
360.0
  0
ARC
  5
5D5
100
AcDbEntity
  8
6_ALL_SURFS
100
AcDbCircle
 62
7
  6
CONTINUOUS
 10
209.137131535
 20
794.2179866518
 40
0.2
100
AcDbArc
 50
90.0
 51
180.0
  0
ARC
  5
5D6
100
AcDbEntity
  8
6_ALL_SURFS
100
AcDbCircle
 62
7
  6
CONTINUOUS
 10
210.387131535
 20
795.2179866518
 40
0.2
100
AcDbArc
 50
90.0
 51
180.0
  0
ARC
  5
5D7
100
AcDbEntity
  8
6_ALL_SURFS
100
AcDbCircle
 62
7
  6
CONTINUOUS
 10
211.187131535
 20
795.2179866518
 40
0.2
100
AcDbArc
 50
0.0
 51
90.0
  0
ARC
  5
5D8
100
AcDbEntity
  8
6_ALL_SURFS
100
AcDbCircle
 62
7
  6
CONTINUOUS
 10
220.187131535
 20
794.3179866518
 40
0.5
100
AcDbArc
 50
233.1301023542
 51
306.8698976458
  0
ARC
  5
5D9
100
AcDbEntity
  8
6_ALL_SURFS
100
AcDbCircle
 62
7
  6
CONTINUOUS
 10
223.187131535
 20
794.3179866518
 40
0.5
100
AcDbArc
 50
233.1301023542
 51
306.8698976458
  0
ARC
  5
5DA
100
AcDbEntity
  8
6_ALL_SURFS
100
AcDbCircle
 62
7
  6
CONTINUOUS
 10
226.187131535
 20
794.3179866518
 40
0.5
100
AcDbArc
 50
233.1301023542
 51
306.8698976458
  0
ARC
  5
5DB
100
AcDbEntity
  8
6_ALL_SURFS
100
AcDbCircle
 62
7
  6
CONTINUOUS
 10
231.2934281771
 20
793.3116900098
 40
0.3937033579
100
AcDbArc
 50
270.0
 51
84.2894068625
  0
SPLINE
  5
5DC
100
AcDbEntity
  8
6_ALL_SURFS
100
AcDbSpline
 62
7
  6
CONTINUOUS
 70
0
 71
3
 72
13
 73
9
 74
0
 42
0.0000001
 43
0.0000001
 44
0.0000000001
 40
0.0
 40
0.0
 40
0.0
 40
0.0
 40
0.2496611429
 40
0.5055203881
 40
0.6355389583
 40
0.763870716
 40
0.885234941
 40
1.0
 40
1.0
 40
1.0
 40
1.0
 10
223.487131535
 20
481.5593293604
 30
0.0
 10
223.45685322
 20
481.4994542035
 30
0.0
 10
223.3879226595
 20
481.3820171642
 30
0.0
 10
223.2767322071
 20
481.2498819423
 30
0.0
 10
223.1646947709
 20
481.1676763989
 30
0.0
 10
223.0676467853
 20
481.1296960926
 30
0.0
 10
222.9659045472
 20
481.1365458164
 30
0.0
 10
222.9102728866
 20
481.1714093245
 30
0.0
 10
222.887131535
 20
481.1917992683
 30
0.0
  0
SPLINE
  5
5DD
100
AcDbEntity
  8
6_ALL_SURFS
100
AcDbSpline
 62
7
  6
CONTINUOUS
 70
0
 71
3
 72
13
 73
9
 74
0
 42
0.0000001
 43
0.0000001
 44
0.0000000001
 40
0.0
 40
0.0
 40
0.0
 40
0.0
 40
0.2496611429
 40
0.5055203881
 40
0.6355389583
 40
0.763870716
 40
0.885234941
 40
1.0
 40
1.0
 40
1.0
 40
1.0
 10
223.487131535
 20
281.5593293604
 30
0.0
 10
223.45685322
 20
281.4994542035
 30
0.0
 10
223.3879226595
 20
281.3820171642
 30
0.0
 10
223.2767322071
 20
281.2498819423
 30
0.0
 10
223.1646947709
 20
281.1676763989
 30
0.0
 10
223.0676467853
 20
281.1296960926
 30
0.0
 10
222.9659045472
 20
281.1365458164
 30
0.0
 10
222.9102728866
 20
281.1714093245
 30
0.0
 10
222.887131535
 20
281.1917992683
 30
0.0
  0
SPLINE
  5
5DE
100
AcDbEntity
  8
6_ALL_SURFS
100
AcDbSpline
 62
7
  6
CONTINUOUS
 70
0
 71
3
 72
13
 73
9
 74
0
 42
0.0000001
 43
0.0000001
 44
0.0000000001
 40
0.0
 40
0.0
 40
0.0
 40
0.0
 40
0.1147560889
 40
0.2361008395
 40
0.3644242602
 40
0.49444068
 40
0.7503161868
 40
1.0
 40
1.0
 40
1.0
 40
1.0
 10
222.887131535
 20
473.3967324335
 30
0.0
 10
222.9102710483
 20
473.4171207577
 30
0.0
 10
222.9658960699
 20
473.4519786438
 30
0.0
 10
223.0676258653
 20
473.4588375135
 30
0.0
 10
223.164669643
 20
473.4208676277
 30
0.0
 10
223.276714136
 20
473.3386693893
 30
0.0
 10
223.3879146704
 20
473.206528694
 30
0.0
 10
223.4568505093
 20
473.0890828588
 30
0.0
 10
223.487131535
 20
473.0292023415
 30
0.0
  0
SPLINE
  5
5DF
100
AcDbEntity
  8
6_ALL_SURFS
100
AcDbSpline
 62
7
  6
CONTINUOUS
 70
0
 71
3
 72
13
 73
9
 74
0
 42
0.0000001
 43
0.0000001
 44
0.0000000001
 40
0.0
 40
0.0
 40
0.0
 40
0.0
 40
0.2496611429
 40
0.5055203881
 40
0.6355389583
 40
0.763870716
 40
0.885234941
 40
1.0
 40
1.0
 40
1.0
 40
1.0
 10
223.487131535
 20
81.5593293604
 30
0.0
 10
223.45685322
 20
81.4994542035
 30
0.0
 10
223.3879226595
 20
81.3820171642
 30
0.0
 10
223.2767322071
 20
81.2498819423
 30
0.0
 10
223.1646947709
 20
81.1676763989
 30
0.0
 10
223.0676467853
 20
81.1296960926
 30
0.0
 10
222.9659045472
 20
81.1365458164
 30
0.0
 10
222.9102728866
 20
81.1714093245
 30
0.0
 10
222.887131535
 20
81.1917992683
 30
0.0
  0
SPLINE
  5
5E0
100
AcDbEntity
  8
6_ALL_SURFS
100
AcDbSpline
 62
7
  6
CONTINUOUS
 70
0
 71
3
 72
13
 73
9
 74
0
 42
0.0000001
 43
0.0000001
 44
0.0000000001
 40
0.0
 40
0.0
 40
0.0
 40
0.0
 40
0.1147560889
 40
0.2361008395
 40
0.3644242602
 40
0.49444068
 40
0.7503161868
 40
1.0
 40
1.0
 40
1.0
 40
1.0
 10
222.887131535
 20
273.3967324335
 30
0.0
 10
222.9102710483
 20
273.4171207577
 30
0.0
 10
222.9658960699
 20
273.4519786438
 30
0.0
 10
223.0676258653
 20
273.4588375135
 30
0.0
 10
223.164669643
 20
273.4208676277
 30
0.0
 10
223.276714136
 20
273.3386693893
 30
0.0
 10
223.3879146704
 20
273.206528694
 30
0.0
 10
223.4568505093
 20
273.0890828588
 30
0.0
 10
223.487131535
 20
273.0292023415
 30
0.0
  0
SPLINE
  5
5E1
100
AcDbEntity
  8
6_ALL_SURFS
100
AcDbSpline
 62
7
  6
CONTINUOUS
 70
0
 71
3
 72
13
 73
9
 74
0
 42
0.0000001
 43
0.0000001
 44
0.0000000001
 40
0.0
 40
0.0
 40
0.0
 40
0.0
 40
0.1147560889
 40
0.2361008395
 40
0.3644242602
 40
0.49444068
 40
0.7503161868
 40
1.0
 40
1.0
 40
1.0
 40
1.0
 10
222.887131535
 20
73.3967324335
 30
0.0
 10
222.9102710483
 20
73.4171207577
 30
0.0
 10
222.9658960699
 20
73.4519786438
 30
0.0
 10
223.0676258653
 20
73.4588375135
 30
0.0
 10
223.164669643
 20
73.4208676277
 30
0.0
 10
223.276714136
 20
73.3386693893
 30
0.0
 10
223.3879146704
 20
73.206528694
 30
0.0
 10
223.4568505093
 20
73.0890828588
 30
0.0
 10
223.487131535
 20
73.0292023415
 30
0.0
  0
SPLINE
  5
5E2
100
AcDbEntity
  8
6_ALL_SURFS
100
AcDbSpline
 62
7
  6
CONTINUOUS
 70
0
 71
3
 72
12
 73
8
 74
0
 42
0.0000001
 43
0.0000001
 44
0.0000000001
 40
0.0
 40
0.0
 40
0.0
 40
0.0
 40
0.2410590216
 40
0.368585827
 40
0.4993899904
 40
0.7553935585
 40
1.0
 40
1.0
 40
1.0
 40
1.0
 10
226.487131535
 20
482.0261541357
 30
0.0
 10
226.4498672905
 20
481.9833596185
 30
0.0
 10
226.3804637836
 20
481.9258443233
 30
0.0
 10
226.2668845292
 20
481.8900692787
 30
0.0
 10
226.1438158915
 20
481.8899821579
 30
0.0
 10
226.0032661635
 20
481.9559418216
 30
0.0
 10
225.9215382733
 20
482.0429649668
 30
0.0
 10
225.887131535
 20
482.0891346437
 30
0.0
  0
SPLINE
  5
5E3
100
AcDbEntity
  8
6_ALL_SURFS
100
AcDbSpline
 62
7
  6
CONTINUOUS
 70
0
 71
3
 72
12
 73
8
 74
0
 42
0.0000001
 43
0.0000001
 44
0.0000000001
 40
0.0
 40
0.0
 40
0.0
 40
0.0
 40
0.2410590216
 40
0.368585827
 40
0.4993899904
 40
0.7553935585
 40
1.0
 40
1.0
 40
1.0
 40
1.0
 10
226.487131535
 20
282.0261541357
 30
0.0
 10
226.4498672905
 20
281.9833596185
 30
0.0
 10
226.3804637836
 20
281.9258443233
 30
0.0
 10
226.2668845292
 20
281.8900692787
 30
0.0
 10
226.1438158915
 20
281.8899821579
 30
0.0
 10
226.0032661635
 20
281.9559418216
 30
0.0
 10
225.9215382733
 20
282.0429649668
 30
0.0
 10
225.887131535
 20
282.0891346437
 30
0.0
  0
SPLINE
  5
5E4
100
AcDbEntity
  8
6_ALL_SURFS
100
AcDbSpline
 62
7
  6
CONTINUOUS
 70
0
 71
3
 72
12
 73
8
 74
0
 42
0.0000001
 43
0.0000001
 44
0.0000000001
 40
0.0
 40
0.0
 40
0.0
 40
0.0
 40
0.2446064731
 40
0.5006100211
 40
0.6314141565
 40
0.7589409559
 40
1.0
 40
1.0
 40
1.0
 40
1.0
 10
225.887131535
 20
472.4993970582
 30
0.0
 10
225.9215382778
 20
472.545566741
 30
0.0
 10
226.0032661724
 20
472.6325898868
 30
0.0
 10
226.1438158983
 20
472.6985495437
 30
0.0
 10
226.2668845222
 20
472.6984624232
 30
0.0
 10
226.3804637754
 20
472.6626873846
 30
0.0
 10
226.449867287
 20
472.6051720874
 30
0.0
 10
226.487131535
 20
472.5623775662
 30
0.0
  0
SPLINE
  5
5E5
100
AcDbEntity
  8
6_ALL_SURFS
100
AcDbSpline
 62
7
  6
CONTINUOUS
 70
0
 71
3
 72
12
 73
8
 74
0
 42
0.0000001
 43
0.0000001
 44
0.0000000001
 40
0.0
 40
0.0
 40
0.0
 40
0.0
 40
0.2410590216
 40
0.368585827
 40
0.4993899904
 40
0.7553935585
 40
1.0
 40
1.0
 40
1.0
 40
1.0
 10
226.487131535
 20
82.0261541357
 30
0.0
 10
226.4498672905
 20
81.9833596185
 30
0.0
 10
226.3804637836
 20
81.9258443233
 30
0.0
 10
226.2668845292
 20
81.8900692787
 30
0.0
 10
226.1438158915
 20
81.8899821579
 30
0.0
 10
226.0032661635
 20
81.9559418216
 30
0.0
 10
225.9215382733
 20
82.0429649668
 30
0.0
 10
225.887131535
 20
82.0891346437
 30
0.0
  0
SPLINE
  5
5E6
100
AcDbEntity
  8
6_ALL_SURFS
100
AcDbSpline
 62
7
  6
CONTINUOUS
 70
0
 71
3
 72
12
 73
8
 74
0
 42
0.0000001
 43
0.0000001
 44
0.0000000001
 40
0.0
 40
0.0
 40
0.0
 40
0.0
 40
0.2446064731
 40
0.5006100211
 40
0.6314141565
 40
0.7589409559
 40
1.0
 40
1.0
 40
1.0
 40
1.0
 10
225.887131535
 20
272.4993970582
 30
0.0
 10
225.9215382778
 20
272.545566741
 30
0.0
 10
226.0032661724
 20
272.6325898868
 30
0.0
 10
226.1438158983
 20
272.6985495437
 30
0.0
 10
226.2668845222
 20
272.6984624232
 30
0.0
 10
226.3804637754
 20
272.6626873846
 30
0.0
 10
226.449867287
 20
272.6051720874
 30
0.0
 10
226.487131535
 20
272.5623775662
 30
0.0
  0
SPLINE
  5
5E7
100
AcDbEntity
  8
6_ALL_SURFS
100
AcDbSpline
 62
7
  6
CONTINUOUS
 70
0
 71
3
 72
12
 73
8
 74
0
 42
0.0000001
 43
0.0000001
 44
0.0000000001
 40
0.0
 40
0.0
 40
0.0
 40
0.0
 40
0.2446064731
 40
0.5006100211
 40
0.6314141565
 40
0.7589409559
 40
1.0
 40
1.0
 40
1.0
 40
1.0
 10
225.887131535
 20
72.4993970582
 30
0.0
 10
225.9215382778
 20
72.545566741
 30
0.0
 10
226.0032661724
 20
72.6325898868
 30
0.0
 10
226.1438158983
 20
72.6985495437
 30
0.0
 10
226.2668845222
 20
72.6984624232
 30
0.0
 10
226.3804637754
 20
72.6626873846
 30
0.0
 10
226.449867287
 20
72.6051720874
 30
0.0
 10
226.487131535
 20
72.5623775662
 30
0.0
  0
SPLINE
  5
5E8
100
AcDbEntity
  8
7_ALL_FEATURES
100
AcDbSpline
 62
7
  6
CONTINUOUS
 70
0
 71
3
 72
13
 73
9
 74
0
 42
0.0000001
 43
0.0000001
 44
0.0000000001
 40
0.0
 40
0.0
 40
0.0
 40
0.0
 40
0.1147560889
 40
0.2361008395
 40
0.3644242602
 40
0.49444068
 40
0.7503161868
 40
1.0
 40
1.0
 40
1.0
 40
1.0
 10
130.587131535
 20
73.3967324335
 30
0.0
 10
130.5639920218
 20
73.4171207577
 30
0.0
 10
130.5083670002
 20
73.4519786438
 30
0.0
 10
130.4066372047
 20
73.4588375135
 30
0.0
 10
130.3095934271
 20
73.4208676277
 30
0.0
 10
130.1975489341
 20
73.3386693893
 30
0.0
 10
130.0863483996
 20
73.206528694
 30
0.0
 10
130.0174125607
 20
73.0890828588
 30
0.0
 10
129.987131535
 20
73.0292023415
 30
0.0
  0
SPLINE
  5
5E9
100
AcDbEntity
  8
7_ALL_FEATURES
100
AcDbSpline
 62
7
  6
CONTINUOUS
 70
0
 71
3
 72
13
 73
9
 74
0
 42
0.0000001
 43
0.0000001
 44
0.0000000001
 40
0.0
 40
0.0
 40
0.0
 40
0.0
 40
0.1147560889
 40
0.2361008395
 40
0.3644242602
 40
0.49444068
 40
0.7503161868
 40
1.0
 40
1.0
 40
1.0
 40
1.0
 10
130.587131535
 20
273.3967324335
 30
0.0
 10
130.5639920218
 20
273.4171207577
 30
0.0
 10
130.5083670002
 20
273.4519786438
 30
0.0
 10
130.4066372047
 20
273.4588375135
 30
0.0
 10
130.3095934271
 20
273.4208676277
 30
0.0
 10
130.1975489341
 20
273.3386693893
 30
0.0
 10
130.0863483996
 20
273.206528694
 30
0.0
 10
130.0174125607
 20
273.0890828588
 30
0.0
 10
129.987131535
 20
273.0292023415
 30
0.0
  0
SPLINE
  5
5EA
100
AcDbEntity
  8
7_ALL_FEATURES
100
AcDbSpline
 62
7
  6
CONTINUOUS
 70
0
 71
3
 72
13
 73
9
 74
0
 42
0.0000001
 43
0.0000001
 44
0.0000000001
 40
0.0
 40
0.0
 40
0.0
 40
0.0
 40
0.2496611429
 40
0.5055203881
 40
0.6355389583
 40
0.763870716
 40
0.885234941
 40
1.0
 40
1.0
 40
1.0
 40
1.0
 10
129.987131535
 20
81.5593293604
 30
0.0
 10
130.0174098501
 20
81.4994542035
 30
0.0
 10
130.0863404106
 20
81.3820171642
 30
0.0
 10
130.1975308629
 20
81.2498819423
 30
0.0
 10
130.3095682992
 20
81.1676763989
 30
0.0
 10
130.4066162848
 20
81.1296960926
 30
0.0
 10
130.5083585229
 20
81.1365458164
 30
0.0
 10
130.5639901835
 20
81.1714093245
 30
0.0
 10
130.587131535
 20
81.1917992683
 30
0.0
  0
SPLINE
  5
5EB
100
AcDbEntity
  8
7_ALL_FEATURES
100
AcDbSpline
 62
7
  6
CONTINUOUS
 70
0
 71
3
 72
13
 73
9
 74
0
 42
0.0000001
 43
0.0000001
 44
0.0000000001
 40
0.0
 40
0.0
 40
0.0
 40
0.0
 40
0.1147560889
 40
0.2361008395
 40
0.3644242602
 40
0.49444068
 40
0.7503161868
 40
1.0
 40
1.0
 40
1.0
 40
1.0
 10
130.587131535
 20
473.3967324335
 30
0.0
 10
130.5639920218
 20
473.4171207577
 30
0.0
 10
130.5083670002
 20
473.4519786438
 30
0.0
 10
130.4066372047
 20
473.4588375135
 30
0.0
 10
130.3095934271
 20
473.4208676277
 30
0.0
 10
130.1975489341
 20
473.3386693893
 30
0.0
 10
130.0863483996
 20
473.206528694
 30
0.0
 10
130.0174125607
 20
473.0890828588
 30
0.0
 10
129.987131535
 20
473.0292023415
 30
0.0
  0
SPLINE
  5
5EC
100
AcDbEntity
  8
7_ALL_FEATURES
100
AcDbSpline
 62
7
  6
CONTINUOUS
 70
0
 71
3
 72
13
 73
9
 74
0
 42
0.0000001
 43
0.0000001
 44
0.0000000001
 40
0.0
 40
0.0
 40
0.0
 40
0.0
 40
0.2496611429
 40
0.5055203881
 40
0.6355389583
 40
0.763870716
 40
0.885234941
 40
1.0
 40
1.0
 40
1.0
 40
1.0
 10
129.987131535
 20
281.5593293604
 30
0.0
 10
130.0174098501
 20
281.4994542035
 30
0.0
 10
130.0863404106
 20
281.3820171642
 30
0.0
 10
130.1975308629
 20
281.2498819423
 30
0.0
 10
130.3095682992
 20
281.1676763989
 30
0.0
 10
130.4066162848
 20
281.1296960926
 30
0.0
 10
130.5083585229
 20
281.1365458164
 30
0.0
 10
130.5639901835
 20
281.1714093245
 30
0.0
 10
130.587131535
 20
281.1917992683
 30
0.0
  0
SPLINE
  5
5ED
100
AcDbEntity
  8
7_ALL_FEATURES
100
AcDbSpline
 62
7
  6
CONTINUOUS
 70
0
 71
3
 72
13
 73
9
 74
0
 42
0.0000001
 43
0.0000001
 44
0.0000000001
 40
0.0
 40
0.0
 40
0.0
 40
0.0
 40
0.2496611429
 40
0.5055203881
 40
0.6355389583
 40
0.763870716
 40
0.885234941
 40
1.0
 40
1.0
 40
1.0
 40
1.0
 10
129.987131535
 20
481.5593293604
 30
0.0
 10
130.0174098501
 20
481.4994542035
 30
0.0
 10
130.0863404106
 20
481.3820171642
 30
0.0
 10
130.1975308629
 20
481.2498819423
 30
0.0
 10
130.3095682992
 20
481.1676763989
 30
0.0
 10
130.4066162848
 20
481.1296960926
 30
0.0
 10
130.5083585229
 20
481.1365458164
 30
0.0
 10
130.5639901835
 20
481.1714093245
 30
0.0
 10
130.587131535
 20
481.1917992683
 30
0.0
  0
SPLINE
  5
5EE
100
AcDbEntity
  8
7_ALL_FEATURES
100
AcDbSpline
 62
7
  6
CONTINUOUS
 70
0
 71
3
 72
12
 73
8
 74
0
 42
0.0000001
 43
0.0000001
 44
0.0000000001
 40
0.0
 40
0.0
 40
0.0
 40
0.0
 40
0.2446064731
 40
0.5006100211
 40
0.6314141565
 40
0.7589409559
 40
1.0
 40
1.0
 40
1.0
 40
1.0
 10
127.587131535
 20
72.4993970582
 30
0.0
 10
127.5527247923
 20
72.545566741
 30
0.0
 10
127.4709968977
 20
72.6325898868
 30
0.0
 10
127.3304471718
 20
72.6985495437
 30
0.0
 10
127.2073785478
 20
72.6984624232
 30
0.0
 10
127.0937992947
 20
72.6626873846
 30
0.0
 10
127.024395783
 20
72.6051720874
 30
0.0
 10
126.987131535
 20
72.5623775662
 30
0.0
  0
SPLINE
  5
5EF
100
AcDbEntity
  8
7_ALL_FEATURES
100
AcDbSpline
 62
7
  6
CONTINUOUS
 70
0
 71
3
 72
12
 73
8
 74
0
 42
0.0000001
 43
0.0000001
 44
0.0000000001
 40
0.0
 40
0.0
 40
0.0
 40
0.0
 40
0.2446064731
 40
0.5006100211
 40
0.6314141565
 40
0.7589409559
 40
1.0
 40
1.0
 40
1.0
 40
1.0
 10
127.587131535
 20
272.4993970582
 30
0.0
 10
127.5527247923
 20
272.545566741
 30
0.0
 10
127.4709968977
 20
272.6325898868
 30
0.0
 10
127.3304471718
 20
272.6985495437
 30
0.0
 10
127.2073785478
 20
272.6984624232
 30
0.0
 10
127.0937992947
 20
272.6626873846
 30
0.0
 10
127.024395783
 20
272.6051720874
 30
0.0
 10
126.987131535
 20
272.5623775662
 30
0.0
  0
SPLINE
  5
5F0
100
AcDbEntity
  8
7_ALL_FEATURES
100
AcDbSpline
 62
7
  6
CONTINUOUS
 70
0
 71
3
 72
12
 73
8
 74
0
 42
0.0000001
 43
0.0000001
 44
0.0000000001
 40
0.0
 40
0.0
 40
0.0
 40
0.0
 40
0.2410590216
 40
0.368585827
 40
0.4993899904
 40
0.7553935585
 40
1.0
 40
1.0
 40
1.0
 40
1.0
 10
126.987131535
 20
82.0261541357
 30
0.0
 10
127.0243957796
 20
81.9833596185
 30
0.0
 10
127.0937992865
 20
81.9258443233
 30
0.0
 10
127.2073785408
 20
81.8900692787
 30
0.0
 10
127.3304471786
 20
81.8899821579
 30
0.0
 10
127.4709969066
 20
81.9559418216
 30
0.0
 10
127.5527247968
 20
82.0429649668
 30
0.0
 10
127.587131535
 20
82.0891346437
 30
0.0
  0
SPLINE
  5
5F1
100
AcDbEntity
  8
7_ALL_FEATURES
100
AcDbSpline
 62
7
  6
CONTINUOUS
 70
0
 71
3
 72
12
 73
8
 74
0
 42
0.0000001
 43
0.0000001
 44
0.0000000001
 40
0.0
 40
0.0
 40
0.0
 40
0.0
 40
0.2446064731
 40
0.5006100211
 40
0.6314141565
 40
0.7589409559
 40
1.0
 40
1.0
 40
1.0
 40
1.0
 10
127.587131535
 20
472.4993970582
 30
0.0
 10
127.5527247923
 20
472.545566741
 30
0.0
 10
127.4709968977
 20
472.6325898868
 30
0.0
 10
127.3304471718
 20
472.6985495437
 30
0.0
 10
127.2073785478
 20
472.6984624232
 30
0.0
 10
127.0937992947
 20
472.6626873846
 30
0.0
 10
127.024395783
 20
472.6051720874
 30
0.0
 10
126.987131535
 20
472.5623775662
 30
0.0
  0
SPLINE
  5
5F2
100
AcDbEntity
  8
7_ALL_FEATURES
100
AcDbSpline
 62
7
  6
CONTINUOUS
 70
0
 71
3
 72
12
 73
8
 74
0
 42
0.0000001
 43
0.0000001
 44
0.0000000001
 40
0.0
 40
0.0
 40
0.0
 40
0.0
 40
0.2410590216
 40
0.368585827
 40
0.4993899904
 40
0.7553935585
 40
1.0
 40
1.0
 40
1.0
 40
1.0
 10
126.987131535
 20
282.0261541357
 30
0.0
 10
127.0243957796
 20
281.9833596185
 30
0.0
 10
127.0937992865
 20
281.9258443233
 30
0.0
 10
127.2073785408
 20
281.8900692787
 30
0.0
 10
127.3304471786
 20
281.8899821579
 30
0.0
 10
127.4709969066
 20
281.9559418216
 30
0.0
 10
127.5527247968
 20
282.0429649668
 30
0.0
 10
127.587131535
 20
282.0891346437
 30
0.0
  0
SPLINE
  5
5F3
100
AcDbEntity
  8
7_ALL_FEATURES
100
AcDbSpline
 62
7
  6
CONTINUOUS
 70
0
 71
3
 72
12
 73
8
 74
0
 42
0.0000001
 43
0.0000001
 44
0.0000000001
 40
0.0
 40
0.0
 40
0.0
 40
0.0
 40
0.2410590216
 40
0.368585827
 40
0.4993899904
 40
0.7553935585
 40
1.0
 40
1.0
 40
1.0
 40
1.0
 10
126.987131535
 20
482.0261541357
 30
0.0
 10
127.0243957796
 20
481.9833596185
 30
0.0
 10
127.0937992865
 20
481.9258443233
 30
0.0
 10
127.2073785408
 20
481.8900692787
 30
0.0
 10
127.3304471786
 20
481.8899821579
 30
0.0
 10
127.4709969066
 20
481.9559418216
 30
0.0
 10
127.5527247968
 20
482.0429649668
 30
0.0
 10
127.587131535
 20
482.0891346437
 30
0.0
  0
SPLINE
  5
5F4
100
AcDbEntity
  8
6_ALL_SURFS
100
AcDbSpline
 62
7
  6
CONTINUOUS
 70
0
 71
3
 72
13
 73
9
 74
0
 42
0.0000001
 43
0.0000001
 44
0.0000000001
 40
0.0
 40
0.0
 40
0.0
 40
0.0
 40
0.2496594754
 40
0.5055159048
 40
0.6355331322
 40
0.7638658117
 40
0.8852330333
 40
1.0
 40
1.0
 40
1.0
 40
1.0
 10
272.5720680256
 20
614.5942658509
 30
0.0
 10
272.6319427902
 20
614.5639877343
 30
0.0
 10
272.749378974
 20
614.4950579971
 30
0.0
 10
272.881512787
 20
614.38386844
 30
0.0
 10
272.9637189246
 20
614.2718326337
 30
0.0
 10
273.0017012106
 20
614.1747846835
 30
0.0
 10
272.9948526175
 20
614.0730405064
 30
0.0
 10
272.959988403
 20
614.0174075901
 30
0.0
 10
272.9395981176
 20
613.9942658509
 30
0.0
  0
SPLINE
  5
5F5
100
AcDbEntity
  8
6_ALL_SURFS
100
AcDbSpline
 62
7
  6
CONTINUOUS
 70
0
 71
3
 72
13
 73
9
 74
0
 42
0.0000001
 43
0.0000001
 44
0.0000000001
 40
0.0
 40
0.0
 40
0.0
 40
0.0
 40
0.2496594754
 40
0.5055159048
 40
0.6355331322
 40
0.7638658117
 40
0.8852330333
 40
1.0
 40
1.0
 40
1.0
 40
1.0
 10
472.5720680256
 20
614.5942658509
 30
0.0
 10
472.6319427902
 20
614.5639877343
 30
0.0
 10
472.749378974
 20
614.4950579971
 30
0.0
 10
472.881512787
 20
614.38386844
 30
0.0
 10
472.9637189246
 20
614.2718326337
 30
0.0
 10
473.0017012106
 20
614.1747846835
 30
0.0
 10
472.9948526175
 20
614.0730405064
 30
0.0
 10
472.959988403
 20
614.0174075901
 30
0.0
 10
472.9395981176
 20
613.9942658509
 30
0.0
  0
SPLINE
  5
5F6
100
AcDbEntity
  8
6_ALL_SURFS
100
AcDbSpline
 62
7
  6
CONTINUOUS
 70
0
 71
3
 72
13
 73
9
 74
0
 42
0.0000001
 43
0.0000001
 44
0.0000000001
 40
0.0
 40
0.0
 40
0.0
 40
0.0
 40
0.1147645622
 40
0.2361291256
 40
0.3644635613
 40
0.4944829582
 40
0.7503404009
 40
1.0
 40
1.0
 40
1.0
 40
1.0
 10
280.7346649524
 20
613.9942658509
 30
0.0
 10
280.7142750976
 20
614.0174071014
 30
0.0
 10
280.6794115661
 20
614.0730386833
 30
0.0
 10
280.6725617581
 20
614.1747816069
 30
0.0
 10
280.7105426174
 20
614.2718306207
 30
0.0
 10
280.7927494497
 20
614.3838676543
 30
0.0
 10
280.9248837931
 20
614.495057878
 30
0.0
 10
281.0423202601
 20
614.5639877243
 30
0.0
 10
281.1021950445
 20
614.5942658509
 30
0.0
  0
SPLINE
  5
5F7
100
AcDbEntity
  8
6_ALL_SURFS
100
AcDbSpline
 62
7
  6
CONTINUOUS
 70
0
 71
3
 72
13
 73
9
 74
0
 42
0.0000001
 43
0.0000001
 44
0.0000000001
 40
0.0
 40
0.0
 40
0.0
 40
0.0
 40
0.2496594754
 40
0.5055159048
 40
0.6355331322
 40
0.7638658117
 40
0.8852330333
 40
1.0
 40
1.0
 40
1.0
 40
1.0
 10
672.5720680256
 20
614.5942658509
 30
0.0
 10
672.6319427902
 20
614.5639877343
 30
0.0
 10
672.749378974
 20
614.4950579971
 30
0.0
 10
672.8815127869
 20
614.38386844
 30
0.0
 10
672.9637189246
 20
614.2718326337
 30
0.0
 10
673.0017012106
 20
614.1747846835
 30
0.0
 10
672.9948526175
 20
614.0730405064
 30
0.0
 10
672.959988403
 20
614.0174075901
 30
0.0
 10
672.9395981176
 20
613.9942658509
 30
0.0
  0
SPLINE
  5
5F8
100
AcDbEntity
  8
6_ALL_SURFS
100
AcDbSpline
 62
7
  6
CONTINUOUS
 70
0
 71
3
 72
13
 73
9
 74
0
 42
0.0000001
 43
0.0000001
 44
0.0000000001
 40
0.0
 40
0.0
 40
0.0
 40
0.0
 40
0.1147645622
 40
0.2361291256
 40
0.3644635613
 40
0.4944829582
 40
0.7503404009
 40
1.0
 40
1.0
 40
1.0
 40
1.0
 10
480.7346649524
 20
613.9942658509
 30
0.0
 10
480.7142750976
 20
614.0174071014
 30
0.0
 10
480.6794115661
 20
614.0730386833
 30
0.0
 10
480.6725617581
 20
614.1747816069
 30
0.0
 10
480.7105426174
 20
614.2718306207
 30
0.0
 10
480.7927494497
 20
614.3838676543
 30
0.0
 10
480.9248837931
 20
614.495057878
 30
0.0
 10
481.0423202601
 20
614.5639877243
 30
0.0
 10
481.1021950445
 20
614.5942658509
 30
0.0
  0
SPLINE
  5
5F9
100
AcDbEntity
  8
6_ALL_SURFS
100
AcDbSpline
 62
7
  6
CONTINUOUS
 70
0
 71
3
 72
13
 73
9
 74
0
 42
0.0000001
 43
0.0000001
 44
0.0000000001
 40
0.0
 40
0.0
 40
0.0
 40
0.0
 40
0.1147645622
 40
0.2361291256
 40
0.3644635613
 40
0.4944829582
 40
0.7503404009
 40
1.0
 40
1.0
 40
1.0
 40
1.0
 10
680.7346649524
 20
613.9942658509
 30
0.0
 10
680.7142750976
 20
614.0174071014
 30
0.0
 10
680.6794115661
 20
614.0730386833
 30
0.0
 10
680.6725617581
 20
614.1747816069
 30
0.0
 10
680.7105426174
 20
614.2718306207
 30
0.0
 10
680.7927494497
 20
614.3838676543
 30
0.0
 10
680.9248837931
 20
614.495057878
 30
0.0
 10
681.0423202601
 20
614.5639877243
 30
0.0
 10
681.1021950445
 20
614.5942658509
 30
0.0
  0
SPLINE
  5
5FA
100
AcDbEntity
  8
6_ALL_SURFS
100
AcDbSpline
 62
7
  6
CONTINUOUS
 70
0
 71
3
 72
10
 73
6
 74
0
 42
0.0000001
 43
0.0000001
 44
0.0000000001
 40
0.0
 40
0.0
 40
0.0
 40
0.0
 40
0.244009161
 40
0.5026004574
 40
1.0
 40
1.0
 40
1.0
 40
1.0
 10
272.1052432502
 20
617.5942658509
 30
0.0
 10
272.1480375898
 20
617.5570017612
 30
0.0
 10
272.2260647708
 20
617.4645696341
 30
0.0
 10
272.2644900902
 20
617.2198767349
 30
0.0
 10
272.1350118588
 20
617.0633846924
 30
0.0
 10
272.0422627423
 20
616.9942658509
 30
0.0
  0
SPLINE
  5
5FB
100
AcDbEntity
  8
6_ALL_SURFS
100
AcDbSpline
 62
7
  6
CONTINUOUS
 70
0
 71
3
 72
10
 73
6
 74
0
 42
0.0000001
 43
0.0000001
 44
0.0000000001
 40
0.0
 40
0.0
 40
0.0
 40
0.0
 40
0.244009161
 40
0.5026004574
 40
1.0
 40
1.0
 40
1.0
 40
1.0
 10
472.1052432502
 20
617.5942658509
 30
0.0
 10
472.1480375898
 20
617.5570017612
 30
0.0
 10
472.2260647708
 20
617.4645696341
 30
0.0
 10
472.2644900902
 20
617.2198767349
 30
0.0
 10
472.1350118588
 20
617.0633846924
 30
0.0
 10
472.0422627423
 20
616.9942658509
 30
0.0
  0
SPLINE
  5
5FC
100
AcDbEntity
  8
6_ALL_SURFS
100
AcDbSpline
 62
7
  6
CONTINUOUS
 70
0
 71
3
 72
10
 73
6
 74
0
 42
0.0000001
 43
0.0000001
 44
0.0000000001
 40
0.0
 40
0.0
 40
0.0
 40
0.0
 40
0.4973995532
 40
0.7559908144
 40
1.0
 40
1.0
 40
1.0
 40
1.0
 10
281.6320003278
 20
616.9942658509
 30
0.0
 10
281.5392512092
 20
617.0633846939
 30
0.0
 10
281.4097729823
 20
617.2198767339
 30
0.0
 10
281.4481982977
 20
617.4645696297
 30
0.0
 10
281.526225476
 20
617.5570017574
 30
0.0
 10
281.5690198198
 20
617.5942658509
 30
0.0
  0
SPLINE
  5
5FD
100
AcDbEntity
  8
6_ALL_SURFS
100
AcDbSpline
 62
7
  6
CONTINUOUS
 70
0
 71
3
 72
10
 73
6
 74
0
 42
0.0000001
 43
0.0000001
 44
0.0000000001
 40
0.0
 40
0.0
 40
0.0
 40
0.0
 40
0.244009161
 40
0.5026004574
 40
1.0
 40
1.0
 40
1.0
 40
1.0
 10
672.1052432502
 20
617.5942658509
 30
0.0
 10
672.1480375898
 20
617.5570017612
 30
0.0
 10
672.2260647708
 20
617.4645696341
 30
0.0
 10
672.2644900902
 20
617.2198767349
 30
0.0
 10
672.1350118588
 20
617.0633846924
 30
0.0
 10
672.0422627423
 20
616.9942658509
 30
0.0
  0
SPLINE
  5
5FE
100
AcDbEntity
  8
6_ALL_SURFS
100
AcDbSpline
 62
7
  6
CONTINUOUS
 70
0
 71
3
 72
10
 73
6
 74
0
 42
0.0000001
 43
0.0000001
 44
0.0000000001
 40
0.0
 40
0.0
 40
0.0
 40
0.0
 40
0.4973995532
 40
0.7559908144
 40
1.0
 40
1.0
 40
1.0
 40
1.0
 10
481.6320003278
 20
616.9942658509
 30
0.0
 10
481.5392512092
 20
617.0633846939
 30
0.0
 10
481.4097729823
 20
617.2198767339
 30
0.0
 10
481.4481982977
 20
617.4645696297
 30
0.0
 10
481.526225476
 20
617.5570017574
 30
0.0
 10
481.5690198198
 20
617.5942658509
 30
0.0
  0
SPLINE
  5
5FF
100
AcDbEntity
  8
6_ALL_SURFS
100
AcDbSpline
 62
7
  6
CONTINUOUS
 70
0
 71
3
 72
10
 73
6
 74
0
 42
0.0000001
 43
0.0000001
 44
0.0000000001
 40
0.0
 40
0.0
 40
0.0
 40
0.0
 40
0.4973995532
 40
0.7559908144
 40
1.0
 40
1.0
 40
1.0
 40
1.0
 10
681.6320003278
 20
616.9942658509
 30
0.0
 10
681.5392512092
 20
617.0633846939
 30
0.0
 10
681.4097729823
 20
617.2198767339
 30
0.0
 10
681.4481982977
 20
617.4645696297
 30
0.0
 10
681.526225476
 20
617.5570017574
 30
0.0
 10
681.5690198198
 20
617.5942658509
 30
0.0
  0
SPLINE
  5
600
100
AcDbEntity
  8
7_ALL_FEATURES
100
AcDbSpline
 62
7
  6
CONTINUOUS
 70
0
 71
3
 72
13
 73
9
 74
0
 42
0.0000001
 43
0.0000001
 44
0.0000000001
 40
0.0
 40
0.0
 40
0.0
 40
0.0
 40
0.1147645622
 40
0.2361291256
 40
0.3644635613
 40
0.4944829582
 40
0.7503404009
 40
1.0
 40
1.0
 40
1.0
 40
1.0
 10
680.7346649524
 20
521.6942658509
 30
0.0
 10
680.7142750976
 20
521.6711246005
 30
0.0
 10
680.6794115661
 20
521.6154930186
 30
0.0
 10
680.6725617581
 20
521.513750095
 30
0.0
 10
680.7105426174
 20
521.4167010811
 30
0.0
 10
680.7927494497
 20
521.3046640476
 30
0.0
 10
680.9248837931
 20
521.1934738239
 30
0.0
 10
681.0423202601
 20
521.1245439775
 30
0.0
 10
681.1021950445
 20
521.0942658509
 30
0.0
  0
SPLINE
  5
601
100
AcDbEntity
  8
7_ALL_FEATURES
100
AcDbSpline
 62
7
  6
CONTINUOUS
 70
0
 71
3
 72
13
 73
9
 74
0
 42
0.0000001
 43
0.0000001
 44
0.0000000001
 40
0.0
 40
0.0
 40
0.0
 40
0.0
 40
0.1147645622
 40
0.2361291256
 40
0.3644635613
 40
0.4944829582
 40
0.7503404009
 40
1.0
 40
1.0
 40
1.0
 40
1.0
 10
480.7346649524
 20
521.6942658509
 30
0.0
 10
480.7142750976
 20
521.6711246005
 30
0.0
 10
480.6794115661
 20
521.6154930186
 30
0.0
 10
480.6725617581
 20
521.513750095
 30
0.0
 10
480.7105426174
 20
521.4167010811
 30
0.0
 10
480.7927494497
 20
521.3046640476
 30
0.0
 10
480.9248837931
 20
521.1934738239
 30
0.0
 10
481.0423202601
 20
521.1245439775
 30
0.0
 10
481.1021950445
 20
521.0942658509
 30
0.0
  0
SPLINE
  5
602
100
AcDbEntity
  8
7_ALL_FEATURES
100
AcDbSpline
 62
7
  6
CONTINUOUS
 70
0
 71
3
 72
13
 73
9
 74
0
 42
0.0000001
 43
0.0000001
 44
0.0000000001
 40
0.0
 40
0.0
 40
0.0
 40
0.0
 40
0.2496594754
 40
0.5055159048
 40
0.6355331322
 40
0.7638658117
 40
0.8852330333
 40
1.0
 40
1.0
 40
1.0
 40
1.0
 10
672.5720680256
 20
521.0942658509
 30
0.0
 10
672.6319427902
 20
521.1245439676
 30
0.0
 10
672.749378974
 20
521.1934737048
 30
0.0
 10
672.881512787
 20
521.3046632619
 30
0.0
 10
672.9637189246
 20
521.4166990682
 30
0.0
 10
673.0017012106
 20
521.5137470184
 30
0.0
 10
672.9948526175
 20
521.6154911955
 30
0.0
 10
672.959988403
 20
521.6711241118
 30
0.0
 10
672.9395981176
 20
521.6942658509
 30
0.0
  0
SPLINE
  5
603
100
AcDbEntity
  8
7_ALL_FEATURES
100
AcDbSpline
 62
7
  6
CONTINUOUS
 70
0
 71
3
 72
13
 73
9
 74
0
 42
0.0000001
 43
0.0000001
 44
0.0000000001
 40
0.0
 40
0.0
 40
0.0
 40
0.0
 40
0.1147645622
 40
0.2361291256
 40
0.3644635613
 40
0.4944829582
 40
0.7503404009
 40
1.0
 40
1.0
 40
1.0
 40
1.0
 10
280.7346649524
 20
521.6942658509
 30
0.0
 10
280.7142750976
 20
521.6711246005
 30
0.0
 10
280.6794115661
 20
521.6154930186
 30
0.0
 10
280.6725617581
 20
521.513750095
 30
0.0
 10
280.7105426174
 20
521.4167010811
 30
0.0
 10
280.7927494497
 20
521.3046640476
 30
0.0
 10
280.9248837931
 20
521.1934738239
 30
0.0
 10
281.0423202601
 20
521.1245439775
 30
0.0
 10
281.1021950445
 20
521.0942658509
 30
0.0
  0
SPLINE
  5
604
100
AcDbEntity
  8
7_ALL_FEATURES
100
AcDbSpline
 62
7
  6
CONTINUOUS
 70
0
 71
3
 72
13
 73
9
 74
0
 42
0.0000001
 43
0.0000001
 44
0.0000000001
 40
0.0
 40
0.0
 40
0.0
 40
0.0
 40
0.2496594754
 40
0.5055159048
 40
0.6355331322
 40
0.7638658117
 40
0.8852330333
 40
1.0
 40
1.0
 40
1.0
 40
1.0
 10
472.5720680256
 20
521.0942658509
 30
0.0
 10
472.6319427902
 20
521.1245439676
 30
0.0
 10
472.749378974
 20
521.1934737048
 30
0.0
 10
472.881512787
 20
521.3046632619
 30
0.0
 10
472.9637189246
 20
521.4166990682
 30
0.0
 10
473.0017012106
 20
521.5137470184
 30
0.0
 10
472.9948526175
 20
521.6154911955
 30
0.0
 10
472.959988403
 20
521.6711241118
 30
0.0
 10
472.9395981176
 20
521.6942658509
 30
0.0
  0
SPLINE
  5
605
100
AcDbEntity
  8
7_ALL_FEATURES
100
AcDbSpline
 62
7
  6
CONTINUOUS
 70
0
 71
3
 72
13
 73
9
 74
0
 42
0.0000001
 43
0.0000001
 44
0.0000000001
 40
0.0
 40
0.0
 40
0.0
 40
0.0
 40
0.2496594754
 40
0.5055159048
 40
0.6355331322
 40
0.7638658117
 40
0.8852330333
 40
1.0
 40
1.0
 40
1.0
 40
1.0
 10
272.5720680256
 20
521.0942658509
 30
0.0
 10
272.6319427902
 20
521.1245439676
 30
0.0
 10
272.749378974
 20
521.1934737048
 30
0.0
 10
272.881512787
 20
521.3046632619
 30
0.0
 10
272.9637189246
 20
521.4166990682
 30
0.0
 10
273.0017012106
 20
521.5137470184
 30
0.0
 10
272.9948526175
 20
521.6154911955
 30
0.0
 10
272.959988403
 20
521.6711241118
 30
0.0
 10
272.9395981176
 20
521.6942658509
 30
0.0
  0
SPLINE
  5
606
100
AcDbEntity
  8
7_ALL_FEATURES
100
AcDbSpline
 62
7
  6
CONTINUOUS
 70
0
 71
3
 72
10
 73
6
 74
0
 42
0.0000001
 43
0.0000001
 44
0.0000000001
 40
0.0
 40
0.0
 40
0.0
 40
0.0
 40
0.4973995532
 40
0.7559908144
 40
1.0
 40
1.0
 40
1.0
 40
1.0
 10
681.6320003278
 20
518.6942658509
 30
0.0
 10
681.5392512092
 20
518.625147008
 30
0.0
 10
681.4097729823
 20
518.468654968
 30
0.0
 10
681.4481982977
 20
518.2239620722
 30
0.0
 10
681.526225476
 20
518.1315299445
 30
0.0
 10
681.5690198198
 20
518.0942658509
 30
0.0
  0
SPLINE
  5
607
100
AcDbEntity
  8
7_ALL_FEATURES
100
AcDbSpline
 62
7
  6
CONTINUOUS
 70
0
 71
3
 72
10
 73
6
 74
0
 42
0.0000001
 43
0.0000001
 44
0.0000000001
 40
0.0
 40
0.0
 40
0.0
 40
0.0
 40
0.4973995532
 40
0.7559908144
 40
1.0
 40
1.0
 40
1.0
 40
1.0
 10
481.6320003278
 20
518.6942658509
 30
0.0
 10
481.5392512092
 20
518.625147008
 30
0.0
 10
481.4097729823
 20
518.468654968
 30
0.0
 10
481.4481982977
 20
518.2239620722
 30
0.0
 10
481.526225476
 20
518.1315299445
 30
0.0
 10
481.5690198198
 20
518.0942658509
 30
0.0
  0
SPLINE
  5
608
100
AcDbEntity
  8
7_ALL_FEATURES
100
AcDbSpline
 62
7
  6
CONTINUOUS
 70
0
 71
3
 72
10
 73
6
 74
0
 42
0.0000001
 43
0.0000001
 44
0.0000000001
 40
0.0
 40
0.0
 40
0.0
 40
0.0
 40
0.244009161
 40
0.5026004574
 40
1.0
 40
1.0
 40
1.0
 40
1.0
 10
672.1052432502
 20
518.0942658509
 30
0.0
 10
672.1480375898
 20
518.1315299407
 30
0.0
 10
672.2260647708
 20
518.2239620678
 30
0.0
 10
672.2644900902
 20
518.468654967
 30
0.0
 10
672.1350118588
 20
518.6251470095
 30
0.0
 10
672.0422627423
 20
518.6942658509
 30
0.0
  0
SPLINE
  5
609
100
AcDbEntity
  8
7_ALL_FEATURES
100
AcDbSpline
 62
7
  6
CONTINUOUS
 70
0
 71
3
 72
10
 73
6
 74
0
 42
0.0000001
 43
0.0000001
 44
0.0000000001
 40
0.0
 40
0.0
 40
0.0
 40
0.0
 40
0.4973995532
 40
0.7559908144
 40
1.0
 40
1.0
 40
1.0
 40
1.0
 10
281.6320003278
 20
518.6942658509
 30
0.0
 10
281.5392512092
 20
518.625147008
 30
0.0
 10
281.4097729823
 20
518.468654968
 30
0.0
 10
281.4481982977
 20
518.2239620722
 30
0.0
 10
281.526225476
 20
518.1315299445
 30
0.0
 10
281.5690198198
 20
518.0942658509
 30
0.0
  0
SPLINE
  5
60A
100
AcDbEntity
  8
7_ALL_FEATURES
100
AcDbSpline
 62
7
  6
CONTINUOUS
 70
0
 71
3
 72
10
 73
6
 74
0
 42
0.0000001
 43
0.0000001
 44
0.0000000001
 40
0.0
 40
0.0
 40
0.0
 40
0.0
 40
0.244009161
 40
0.5026004574
 40
1.0
 40
1.0
 40
1.0
 40
1.0
 10
472.1052432502
 20
518.0942658509
 30
0.0
 10
472.1480375898
 20
518.1315299407
 30
0.0
 10
472.2260647708
 20
518.2239620678
 30
0.0
 10
472.2644900902
 20
518.468654967
 30
0.0
 10
472.1350118588
 20
518.6251470095
 30
0.0
 10
472.0422627423
 20
518.6942658509
 30
0.0
  0
SPLINE
  5
60B
100
AcDbEntity
  8
7_ALL_FEATURES
100
AcDbSpline
 62
7
  6
CONTINUOUS
 70
0
 71
3
 72
10
 73
6
 74
0
 42
0.0000001
 43
0.0000001
 44
0.0000000001
 40
0.0
 40
0.0
 40
0.0
 40
0.0
 40
0.244009161
 40
0.5026004574
 40
1.0
 40
1.0
 40
1.0
 40
1.0
 10
272.1052432502
 20
518.0942658509
 30
0.0
 10
272.1480375898
 20
518.1315299407
 30
0.0
 10
272.2260647708
 20
518.2239620678
 30
0.0
 10
272.2644900902
 20
518.468654967
 30
0.0
 10
272.1350118588
 20
518.6251470095
 30
0.0
 10
272.0422627423
 20
518.6942658509
 30
0.0
  0
ELLIPSE
  5
60C
100
AcDbEntity
  8
6_ALL_SURFS
100
AcDbEllipse
 62
7
  6
CONTINUOUS
 10
224.7219585632
 20
477.2942658509
 30
0.0
 11
5.5724287509
 21
0.0
 31
0.0
 40
0.9848857802
 41
-0.641335557
 42
0.641335557
  0
ELLIPSE
  5
60D
100
AcDbEntity
  8
6_ALL_SURFS
100
AcDbEllipse
 62
7
  6
CONTINUOUS
 10
224.7219585632
 20
277.2942658509
 30
0.0
 11
5.5724287509
 21
-0.0
 31
0.0
 40
0.9848857802
 41
-0.641335557
 42
0.641335557
  0
ELLIPSE
  5
60E
100
AcDbEntity
  8
6_ALL_SURFS
100
AcDbEllipse
 62
7
  6
CONTINUOUS
 10
224.7219585632
 20
77.2942658509
 30
0.0
 11
5.5724287509
 21
-0.0
 31
0.0
 40
0.9848857802
 41
5.6418497502
 42
6.9245208642
  0
ELLIPSE
  5
60F
100
AcDbEntity
  8
7_ALL_FEATURES
100
AcDbEllipse
 62
7
  6
CONTINUOUS
 10
128.7523045068
 20
477.2942658509
 30
0.0
 11
5.5724287509
 21
-0.0
 31
0.0
 40
0.9848857802
 41
2.5002570966
 42
3.7829282106
  0
ELLIPSE
  5
610
100
AcDbEntity
  8
7_ALL_FEATURES
100
AcDbEllipse
 62
7
  6
CONTINUOUS
 10
128.7523045068
 20
277.2942658509
 30
0.0
 11
5.5724287509
 21
0.0
 31
0.0
 40
0.9848857802
 41
8.7834424038
 42
10.0661135178
  0
ELLIPSE
  5
611
100
AcDbEntity
  8
7_ALL_FEATURES
100
AcDbEllipse
 62
7
  6
CONTINUOUS
 10
128.7523045068
 20
77.2942658509
 30
0.0
 11
5.5724287509
 21
0.0
 31
0.0
 40
0.9848857802
 41
2.5002570966
 42
3.7829282106
  0
ELLIPSE
  5
612
100
AcDbEntity
  8
6_ALL_SURFS
100
AcDbEllipse
 62
7
  6
CONTINUOUS
 10
276.837131535
 20
615.8290928791
 30
0.0
 11
-0.0
 21
5.5724287509
 31
0.0
 40
0.9848857802
 41
-0.641335557
 42
0.641335557
  0
ELLIPSE
  5
613
100
AcDbEntity
  8
6_ALL_SURFS
100
AcDbEllipse
 62
7
  6
CONTINUOUS
 10
476.837131535
 20
615.8290928791
 30
0.0
 11
-0.0
 21
5.5724287509
 31
0.0
 40
0.9848857802
 41
-0.641335557
 42
0.641335557
  0
ELLIPSE
  5
614
100
AcDbEntity
  8
7_ALL_FEATURES
100
AcDbEllipse
 62
7
  6
CONTINUOUS
 10
676.837131535
 20
519.8594388227
 30
0.0
 11
0.0
 21
5.5724287509
 31
0.0
 40
0.9848857802
 41
-3.7829282106
 42
-2.5002570966
  0
ELLIPSE
  5
615
100
AcDbEntity
  8
6_ALL_SURFS
100
AcDbEllipse
 62
7
  6
CONTINUOUS
 10
676.837131535
 20
615.8290928791
 30
0.0
 11
0.0
 21
5.5724287509
 31
0.0
 40
0.9848857802
 41
-0.641335557
 42
0.641335557
  0
ELLIPSE
  5
616
100
AcDbEntity
  8
7_ALL_FEATURES
100
AcDbEllipse
 62
7
  6
CONTINUOUS
 10
276.837131535
 20
519.8594388227
 30
0.0
 11
-0.0
 21
5.5724287509
 31
0.0
 40
0.9848857802
 41
2.5002570966
 42
3.7829282106
  0
ELLIPSE
  5
617
100
AcDbEntity
  8
7_ALL_FEATURES
100
AcDbEllipse
 62
7
  6
CONTINUOUS
 10
476.837131535
 20
519.8594388227
 30
0.0
 11
-0.0
 21
5.5724287509
 31
0.0
 40
0.9848857802
 41
2.5002570966
 42
3.7829282106
  0
ELLIPSE
  5
618
100
AcDbEntity
  8
7_ALL_FEATURES
100
AcDbEllipse
 62
7
  6
CONTINUOUS
 10
902.0889182425
 20
602.2942658509
 30
0.0
 11
0.2
 21
0.0
 31
0.0
 40
1.0
 41
0.0
 42
1.5707963268
  0
ELLIPSE
  5
619
100
AcDbEntity
  8
7_ALL_FEATURES
100
AcDbEllipse
 62
7
  6
CONTINUOUS
 10
900.1826216004
 20
622.400562493
 30
0.0
 11
-0.0
 21
0.3937033579
 31
0.0
 40
1.0
 41
-1.4711276743
 42
1.5707963268
  0
ELLIPSE
  5
61A
100
AcDbEntity
  8
7_ALL_FEATURES
100
AcDbEllipse
 62
7
  6
CONTINUOUS
 10
898.2889182425
 20
601.2942658509
 30
0.0
 11
0.0
 21
1.5
 31
0.0
 40
1.0
 41
0.0
 42
0.7504915784
  0
ELLIPSE
  5
61B
100
AcDbEntity
  8
7_ALL_FEATURES
100
AcDbEllipse
 62
7
  6
CONTINUOUS
 10
891.6889182425
 20
601.3942658509
 30
0.0
 11
0.0
 21
1.5
 31
0.0
 40
1.0
 41
-1.5707963268
 42
0.0
  0
ELLIPSE
  5
61C
100
AcDbEntity
  8
7_ALL_FEATURES
100
AcDbEllipse
 62
7
  6
CONTINUOUS
 10
888.8889182425
 20
601.3942658509
 30
0.0
 11
0.0
 21
1.5
 31
0.0
 40
1.0
 41
0.0
 42
1.5707963268
  0
ELLIPSE
  5
61D
100
AcDbEntity
  8
7_ALL_FEATURES
100
AcDbEllipse
 62
7
  6
CONTINUOUS
 10
851.8665328578
 20
594.9942658509
 30
0.0
 11
5.0
 21
-0.0
 31
0.0
 40
1.0
 41
1.5707963268
 42
1.7629176739
  0
ELLIPSE
  5
61E
100
AcDbEntity
  8
7_ALL_FEATURES
100
AcDbEllipse
 62
7
  6
CONTINUOUS
 10
833.1889182425
 20
594.9266881425
 30
0.0
 11
1.5
 21
0.0
 31
0.0
 40
1.0
 41
1.7629176739
 42
3.1415926536
  0
ELLIPSE
  5
61F
100
AcDbEntity
  8
7_ALL_FEATURES
100
AcDbEllipse
 62
7
  6
CONTINUOUS
 10
829.5389182424
 20
590.7942658509
 30
0.0
 11
0.0
 21
2.8
 31
0.0
 40
1.0
 41
-0.5235987756
 42
0.5612656073
  0
ELLIPSE
  5
620
100
AcDbEntity
  8
7_ALL_FEATURES
100
AcDbEllipse
 62
7
  6
CONTINUOUS
 10
827.2889182425
 20
594.7942658509
 30
0.0
 11
0.0
 21
0.3
 31
0.0
 40
1.0
 41
-1.5707963268
 42
0.0
  0
ELLIPSE
  5
621
100
AcDbEntity
  8
7_ALL_FEATURES
100
AcDbEllipse
 62
7
  6
CONTINUOUS
 10
826.5889182425
 20
594.7942658509
 30
0.0
 11
0.0
 21
0.3
 31
0.0
 40
1.0
 41
0.0
 42
1.5707963268
  0
ELLIPSE
  5
622
100
AcDbEntity
  8
7_ALL_FEATURES
100
AcDbEllipse
 62
7
  6
CONTINUOUS
 10
827.8889182425
 20
593.4186705454
 30
0.0
 11
0.3
 21
0.0
 31
0.0
 40
1.0
 41
-3.1415926536
 42
-2.9146698531
  0
ELLIPSE
  5
623
100
AcDbEntity
  8
7_ALL_FEATURES
100
AcDbEllipse
 62
7
  6
CONTINUOUS
 10
827.8889182425
 20
593.4186705454
 30
0.0
 11
-0.0
 21
0.3
 31
0.0
 40
1.0
 41
-4.4854661799
 42
-2.7484928137
  0
ELLIPSE
  5
624
100
AcDbEntity
  8
7_ALL_FEATURES
100
AcDbEllipse
 62
7
  6
CONTINUOUS
 10
827.8889182425
 20
593.4186705454
 30
0.0
 11
0.3
 21
-0.0
 31
0.0
 40
1.0
 41
-1.1776964869
 42
-1.0095307195
  0
ELLIPSE
  5
625
100
AcDbEntity
  8
7_ALL_FEATURES
100
AcDbEllipse
 62
7
  6
CONTINUOUS
 10
831.1889182425
 20
593.6521496834
 30
0.0
 11
0.5
 21
0.0
 31
0.0
 40
1.0
 41
4.1887902048
 42
4.7581424796
  0
ELLIPSE
  5
626
100
AcDbEntity
  8
7_ALL_FEATURES
100
AcDbEllipse
 62
7
  6
CONTINUOUS
 10
831.1889182425
 20
593.6521496834
 30
0.0
 11
-0.0
 21
0.5
 31
0.0
 40
1.0
 41
3.1873461528
 42
3.3256344023
  0
ELLIPSE
  5
627
100
AcDbEntity
  8
7_ALL_FEATURES
100
AcDbEllipse
 62
7
  6
CONTINUOUS
 10
831.1889182425
 20
593.6521496834
 30
0.0
 11
0.5
 21
-0.0
 31
0.0
 40
1.0
 41
-1.3867545781
 42
-1.2445814192
  0
ELLIPSE
  5
628
100
AcDbEntity
  8
7_ALL_FEATURES
100
AcDbEllipse
 62
7
  6
CONTINUOUS
 10
831.1889182425
 20
593.6521496834
 30
0.0
 11
-0.0
 21
0.5
 31
0.0
 40
1.0
 41
-2.815377746
 42
-1.5707963268
  0
ELLIPSE
  5
629
100
AcDbEntity
  8
7_ALL_FEATURES
100
AcDbEllipse
 62
7
  6
CONTINUOUS
 10
887.0889182425
 20
600.2942658509
 30
0.0
 11
0.3
 21
-0.0
 31
0.0
 40
1.0
 41
-1.5707963268
 42
-1.4265930841
  0
ELLIPSE
  5
62A
100
AcDbEntity
  8
7_ALL_FEATURES
100
AcDbEllipse
 62
7
  6
CONTINUOUS
 10
887.0889182425
 20
600.2942658509
 30
0.0
 11
-0.0
 21
0.3
 31
0.0
 40
1.0
 41
3.2857958963
 42
4.7123889804
  0
ELLIPSE
  5
62B
100
AcDbEntity
  8
7_ALL_FEATURES
100
AcDbEllipse
 62
7
  6
CONTINUOUS
 10
893.4889182425
 20
600.5942658509
 30
0.0
 11
0.0
 21
0.3
 31
0.0
 40
1.0
 41
1.5707963268
 42
3.1415926536
  0
ELLIPSE
  5
62C
100
AcDbEntity
  8
7_ALL_FEATURES
100
AcDbEllipse
 62
7
  6
CONTINUOUS
 10
894.8989576113
 20
600.5942658509
 30
0.0
 11
0.3
 21
0.0
 31
0.0
 40
1.0
 41
4.7123889804
 42
5.4628805587
  0
ELLIPSE
  5
62D
100
AcDbEntity
  8
7_ALL_FEATURES
100
AcDbEllipse
 62
7
  6
CONTINUOUS
 10
900.9889182425
 20
602.6942658509
 30
0.0
 11
0.2
 21
0.0
 31
0.0
 40
1.0
 41
-3.1415926536
 42
-1.7357871878
  0
ELLIPSE
  5
62E
100
AcDbEntity
  8
7_ALL_FEATURES
100
AcDbEllipse
 62
7
  6
CONTINUOUS
 10
900.9889182425
 20
602.6942658509
 30
0.0
 11
-0.0
 21
0.2
 31
0.0
 40
1.0
 41
-3.3065835146
 42
-3.1415926536
  0
ELLIPSE
  5
62F
100
AcDbEntity
  8
7_ALL_FEATURES
100
AcDbEllipse
 62
7
  6
CONTINUOUS
 10
901.2354355397
 20
477.2942658509
 30
0.0
 11
-0.0
 21
5.4882058378
 31
0.0
 40
0.1015346165
 41
0.9294607698
 42
2.2121318838
  0
ELLIPSE
  5
630
100
AcDbEntity
  8
7_ALL_FEATURES
100
AcDbEllipse
 62
7
  6
CONTINUOUS
 10
901.2354355397
 20
277.2942658509
 30
0.0
 11
0.0
 21
5.4882058378
 31
0.0
 40
0.1015346165
 41
7.212646077
 42
8.495317191
  0
ELLIPSE
  5
631
100
AcDbEntity
  8
7_ALL_FEATURES
100
AcDbEllipse
 62
7
  6
CONTINUOUS
 10
901.2354355397
 20
77.2942658509
 30
0.0
 11
0.0
 21
5.4882058378
 31
0.0
 40
0.1015346165
 41
0.9294607698
 42
2.2121318838
  0
ELLIPSE
  5
632
100
AcDbEntity
  8
7_ALL_FEATURES
100
AcDbEllipse
 62
7
  6
CONTINUOUS
 10
145.087131535
 20
793.5979866518
 30
0.0
 11
0.0
 21
1.0
 31
0.0
 40
1.0
 41
3.715105758
 42
4.7123889804
  0
ELLIPSE
  5
633
100
AcDbEntity
  8
7_ALL_FEATURES
100
AcDbEllipse
 62
7
  6
CONTINUOUS
 10
146.1723043323
 20
791.9179866518
 30
0.0
 11
0.0
 21
1.0
 31
0.0
 40
1.0
 41
0.5735131044
 42
2.3212879052
  0
ELLIPSE
  5
634
100
AcDbEntity
  8
7_ALL_FEATURES
100
AcDbEllipse
 62
7
  6
CONTINUOUS
 10
146.0979199246
 20
791.1179866518
 30
0.0
 11
0.4
 21
0.0
 31
0.0
 40
1.0
 41
-2.3911010752
 42
-1.5707962785
  0
ELLIPSE
  5
635
100
AcDbEntity
  8
7_ALL_FEATURES
100
AcDbEllipse
 62
7
  6
CONTINUOUS
 10
211.187131535
 20
793.5979866518
 30
0.0
 11
1.8
 21
0.0
 31
0.0
 40
1.0
 41
-2.7537985802
 42
-2.1601965012
  0
ELLIPSE
  5
636
100
AcDbEntity
  8
7_ALL_FEATURES
100
AcDbEllipse
 62
7
  6
CONTINUOUS
 10
210.1763431455
 20
791.1179866518
 30
0.0
 11
0.0
 21
0.4
 31
0.0
 40
1.0
 41
0.8203047484
 42
1.8761270712
  0
ELLIPSE
  5
637
100
AcDbEntity
  8
7_ALL_FEATURES
100
AcDbEllipse
 62
7
  6
CONTINUOUS
 10
146.1723043323
 20
791.9179866518
 30
0.0
 11
0.0
 21
0.2
 31
0.0
 40
1.0
 41
0.5735131044
 42
2.3212879051
  0
ELLIPSE
  5
638
100
AcDbEntity
  8
7_ALL_FEATURES
100
AcDbEllipse
 62
7
  6
CONTINUOUS
 10
145.087131535
 20
793.5979866518
 30
0.0
 11
-0.0
 21
1.8
 31
0.0
 40
1.0
 41
-2.5680795492
 42
-1.5707963268
  0
ELLIPSE
  5
639
100
AcDbEntity
  8
7_ALL_FEATURES
100
AcDbEllipse
 62
7
  6
CONTINUOUS
 10
146.0979199246
 20
791.1179866518
 30
0.0
 11
0.0
 21
0.4
 31
0.0
 40
1.0
 41
-3.1415926053
 42
-0.8203047484
  0
ELLIPSE
  5
63A
100
AcDbEntity
  8
7_ALL_FEATURES
100
AcDbEllipse
 62
7
  6
CONTINUOUS
 10
147.087131535
 20
793.7179866518
 30
0.0
 11
0.0
 21
0.2
 31
0.0
 40
1.0
 41
-0.0
 42
1.5707963268
  0
ELLIPSE
  5
63B
100
AcDbEntity
  8
7_ALL_FEATURES
100
AcDbEllipse
 62
7
  6
CONTINUOUS
 10
276.837131535
 20
794.364503949
 30
0.0
 11
5.4882058378
 21
0.0
 31
0.0
 40
0.1015346165
 41
4.0710534234
 42
5.3537245374
  0
ELLIPSE
  5
63C
100
AcDbEntity
  8
7_ALL_FEATURES
100
AcDbEllipse
 62
7
  6
CONTINUOUS
 10
476.837131535
 20
794.364503949
 30
0.0
 11
5.4882058378
 21
-0.0
 31
0.0
 40
0.1015346165
 41
4.0710534234
 42
5.3537245374
  0
ELLIPSE
  5
63D
100
AcDbEntity
  8
7_ALL_FEATURES
100
AcDbEllipse
 62
7
  6
CONTINUOUS
 10
676.837131535
 20
794.364503949
 30
0.0
 11
5.4882058378
 21
-0.0
 31
0.0
 40
0.1015346165
 41
4.0710534234
 42
5.3537245374
  0
ENDSEC
  0
SECTION
  2
OBJECTS
  0
DICTIONARY
  5
63E
100
AcDbDictionary
  3
ACAD_GROUP
350
63F
  3
ACAD_MLINESTYLE
350
640
  0
DICTIONARY
  5
63F
102
{ACAD_REACTORS
330
63E
102
}
100
AcDbDictionary
  0
DICTIONARY
  5
640
102
{ACAD_REACTORS
330
63E
102
}
100
AcDbDictionary
  3
STANDARD
350
641
  0
MLINESTYLE
  5
641
102
{ACAD_REACTORS
330
640
102
}
100
AcDbMlineStyle
  2
STANDARD
 70
0
  3

 62
256
 51
90.0
 52
90.0
 71
2
 49
0.5
 62
256
  6
BYLAYER
 49
-0.5
 62
256
  6
BYLAYER
  0
ENDSEC
  0
EOF
