999
DXF file: 6f4_c_046.dxf
999
Pro/ENGINEER 2016360 by Parametric Technology Corporation
  0
SECTION
  2
HEADER
  9
$ACADVER
  1
AC1014
  9
$DWGCODEPAGE
  3
ANSI_1252
  9
$EXTMAX
 10
3200.0
 20
2500.0
 30
0.0
  9
$EXTMIN
 10
0.0
 20
0.0
 30
0.0
  9
$LIMMIN
 10
0.0
 20
0.0
  9
$LIMMAX
 10
3200.0
 20
2500.0
  9
$VIEWCTR
 10
1600.0
 20
1250.0
  9
$VIEWSIZE
 40
2500.0
  9
$CLAYER
  8
0
  9
$LTSCALE
 40
176.0
  9
$CELTYPE
  6
BYLAYER
  9
$DIMSCALE
 40
1.0
  9
$DIMASZ
 40
2.5
  9
$DIMEXO
 40
0.75
  9
$DIMDLI
 40
121.6
  9
$DIMEXE
 40
0.75
  9
$DIMCEN
 40
28.8
  9
$DIMLFAC
 40
1.0
  9
$DIMBLK
  1
_CLOSED
  9
$DIMALT
 70
0
  9
$DIMALTF
 40
25.4
  9
$DIMTXT
 40
3.0
  9
$DIMTOL
 70
1
  9
$DIMLIM
 70
0
  9
$DIMTFAC
 40
1.0
  9
$DIMTP
 40
0.01
  9
$DIMTM
 40
0.01
  9
$DIMGAP
 40
0.625
  9
$AUNITS
 70
0
  9
$PDMODE
 70
3
  9
$PDSIZE
 40
0.3125
  9
$HANDSEED
  5
585
  9
$TILEMODE
 70
1
  9
$MEASUREMENT
 70
1
  0
ENDSEC
  0
SECTION
  2
CLASSES
  0
ENDSEC
  0
SECTION
  2
TABLES
  0
TABLE
  2
VPORT
  5
8
100
AcDbSymbolTable
 70
2
  0
VPORT
  5
1F4
100
AcDbSymbolTableRecord
100
AcDbViewportTableRecord
  2
*ACTIVE
 70
0
 10
0.0
 20
0.0
 11
1.0
 21
1.0
 12
1600.0
 22
1250.0
 13
0.0
 23
0.0
 14
1.0
 24
1.0
 15
0.0
 25
0.0
 16
0.0
 26
0.0
 36
1.0
 17
0.0
 27
0.0
 37
0.0
 40
2500.0
 41
1.28
 42
50.0
 43
0.0
 44
0.0
 50
0.0
 51
0.0
 71
0
 72
100
 73
1
 74
1
 75
0
 76
0
 77
0
 78
0
  0
ENDTAB
  0
TABLE
  2
LTYPE
  5
5
100
AcDbSymbolTable
 70
6
  0
LTYPE
  5
14
100
AcDbSymbolTableRecord
100
AcDbLinetypeTableRecord
  2
BYBLOCK
 70
0
  3

 72
65
 73
0
 40
0.0
  0
LTYPE
  5
15
100
AcDbSymbolTableRecord
100
AcDbLinetypeTableRecord
  2
BYLAYER
 70
0
  3

 72
65
 73
0
 40
0.0
  0
LTYPE
  5
16
100
AcDbSymbolTableRecord
100
AcDbLinetypeTableRecord
  2
CONTINUOUS
 70
64
  3
Solid line
 72
65
 73
0
 40
0.0
  0
LTYPE
  5
1F5
100
AcDbSymbolTableRecord
100
AcDbLinetypeTableRecord
  2
CENTER
 70
64
  3
____ _ ____ _ ____ _ ____ _ ____ _ ____ _ ____
 72
65
 73
4
 40
0.6
 49
0.375
 74
0
 49
-0.075
 74
0
 49
0.075
 74
0
 49
-0.075
 74
0
  0
LTYPE
  5
1F6
100
AcDbSymbolTableRecord
100
AcDbLinetypeTableRecord
  2
HIDDEN
 70
64
  3
- - - - - - - - - - - - - - - - - - - -
 72
65
 73
2
 40
0.2
 49
0.1
 74
0
 49
-0.1
 74
0
  0
LTYPE
  5
1F7
100
AcDbSymbolTableRecord
100
AcDbLinetypeTableRecord
  2
PHANTOM
 70
64
  3
_____ _ _ _____ _ _ _____ _ _ _____
 72
65
 73
6
 40
0.8
 49
0.45
 74
0
 49
-0.05
 74
0
 49
0.1
 74
0
 49
-0.05
 74
0
 49
0.1
 74
0
 49
-0.05
 74
0
  0
LTYPE
  5
1F8
100
AcDbSymbolTableRecord
100
AcDbLinetypeTableRecord
  2
DOT
 70
64
  3
. . . . . . . . . . . . . . . . . . . .
 72
65
 73
2
 40
0.2
 49
0.1
 74
0
 49
-0.1
 74
0
  0
LTYPE
  5
1F9
100
AcDbSymbolTableRecord
100
AcDbLinetypeTableRecord
  2
DASHED
 70
64
  3
- - - - - - - - - - - - - - - - - - - -
 72
65
 73
2
 40
0.2
 49
0.1
 74
0
 49
-0.1
 74
0
  0
ENDTAB
  0
TABLE
  2
LAYER
  5
2
100
AcDbSymbolTable
 70
36
  0
LAYER
  5
10
100
AcDbSymbolTableRecord
100
AcDbLayerTableRecord
  2
0
 70
0
 62
7
  6
CONTINUOUS
  0
LAYER
  5
1FA
100
AcDbSymbolTableRecord
100
AcDbLayerTableRecord
  2
DEFAULT_1
 70
0
 62
7
  6
CENTER
  0
LAYER
  5
1FB
100
AcDbSymbolTableRecord
100
AcDbLayerTableRecord
  2
DEFAULT_2
 70
0
 62
8
  6
HIDDEN
  0
LAYER
  5
1FC
100
AcDbSymbolTableRecord
100
AcDbLayerTableRecord
  2
DEFAULT_3
 70
0
 62
7
  6
PHANTOM
  0
LAYER
  5
1FD
100
AcDbSymbolTableRecord
100
AcDbLayerTableRecord
  2
1_ALL_PLANES
 70
0
 62
7
  6
CONTINUOUS
  0
LAYER
  5
1FE
100
AcDbSymbolTableRecord
100
AcDbLayerTableRecord
  2
2_ALL_CSYS
 70
0
 62
7
  6
CONTINUOUS
  0
LAYER
  5
1FF
100
AcDbSymbolTableRecord
100
AcDbLayerTableRecord
  2
3_ALL_AXES
 70
0
 62
7
  6
CONTINUOUS
  0
LAYER
  5
200
100
AcDbSymbolTableRecord
100
AcDbLayerTableRecord
  2
4_ALL_POINTS
 70
0
 62
7
  6
CONTINUOUS
  0
LAYER
  5
201
100
AcDbSymbolTableRecord
100
AcDbLayerTableRecord
  2
5_ALL_CURVES
 70
0
 62
7
  6
CONTINUOUS
  0
LAYER
  5
202
100
AcDbSymbolTableRecord
100
AcDbLayerTableRecord
  2
5__COSTRUZIONE
 70
0
 62
7
  6
CONTINUOUS
  0
LAYER
  5
203
100
AcDbSymbolTableRecord
100
AcDbLayerTableRecord
  2
6_ALL_SURFS
 70
0
 62
7
  6
CONTINUOUS
  0
LAYER
  5
204
100
AcDbSymbolTableRecord
100
AcDbLayerTableRecord
  2
7_ALL_FEATURES
 70
0
 62
7
  6
CONTINUOUS
  0
LAYER
  5
205
100
AcDbSymbolTableRecord
100
AcDbLayerTableRecord
  2
9_SOLID
 70
0
 62
7
  6
CONTINUOUS
  0
LAYER
  5
206
100
AcDbSymbolTableRecord
100
AcDbLayerTableRecord
  2
PR9036
 70
0
 62
7
  6
CONTINUOUS
  0
LAYER
  5
207
100
AcDbSymbolTableRecord
100
AcDbLayerTableRecord
  2
WHITE
 70
0
 62
7
  6
CONTINUOUS
  0
LAYER
  5
208
100
AcDbSymbolTableRecord
100
AcDbLayerTableRecord
  2
XXX_SOLIDO
 70
0
 62
7
  6
CONTINUOUS
  0
ENDTAB
  0
TABLE
  2
STYLE
  5
3
100
AcDbSymbolTable
 70
1
  0
STYLE
  5
11
100
AcDbSymbolTableRecord
100
AcDbTextStyleTableRecord
  2
STANDARD
 70
0
 40
0.0
 41
1.0
 50
0.0
 71
0
 42
0.2
  3
arial.ttf
  4

  0
STYLE
  5
209
100
AcDbSymbolTableRecord
100
AcDbTextStyleTableRecord
  2
TEXTSTYLE_1
 70
0
 40
0.0
 41
0.8
 50
0.0
 71
0
 42
0.2
  3
gdt
  4

  0
STYLE
  5
20A
100
AcDbSymbolTableRecord
100
AcDbTextStyleTableRecord
  2
TEXTSTYLE_2
 70
0
 40
0.0
 41
0.85
 50
0.0
 71
0
 42
0.2
  3
txt
  4

  0
ENDTAB
  0
TABLE
  2
VIEW
  5
6
100
AcDbSymbolTable
 70
0
  0
ENDTAB
  0
TABLE
  2
UCS
  5
7
100
AcDbSymbolTable
 70
0
  0
ENDTAB
  0
TABLE
  2
APPID
  5
9
100
AcDbSymbolTable
 70
1
  0
APPID
  5
20B
100
AcDbSymbolTableRecord
100
AcDbRegAppTableRecord
  2
ACAD
 70
0
  0
ENDTAB
  0
TABLE
  2
BLOCK_RECORD
  5
1
100
AcDbSymbolTable
 70
0
  0
BLOCK_RECORD
  5
1F
100
AcDbSymbolTableRecord
100
AcDbBlockTableRecord
  2
*MODEL_SPACE
  0
BLOCK_RECORD
  5
1B
100
AcDbSymbolTableRecord
100
AcDbBlockTableRecord
  2
*PAPER_SPACE
  0
BLOCK_RECORD
  5
20C
100
AcDbSymbolTableRecord
100
AcDbBlockTableRecord
  2
_CLOSED
  0
BLOCK_RECORD
  5
20D
100
AcDbSymbolTableRecord
100
AcDbBlockTableRecord
  2
*D0
  0
BLOCK_RECORD
  5
20E
100
AcDbSymbolTableRecord
100
AcDbBlockTableRecord
  2
*D1
  0
BLOCK_RECORD
  5
20F
100
AcDbSymbolTableRecord
100
AcDbBlockTableRecord
  2
*D2
  0
BLOCK_RECORD
  5
210
100
AcDbSymbolTableRecord
100
AcDbBlockTableRecord
  2
*D3
  0
BLOCK_RECORD
  5
211
100
AcDbSymbolTableRecord
100
AcDbBlockTableRecord
  2
LOGO2_BL0
  0
ENDTAB
  0
TABLE
  2
DIMSTYLE
  5
A
100
AcDbSymbolTable
 70
1
  0
DIMSTYLE
105
212
100
AcDbSymbolTableRecord
100
AcDbDimStyleTableRecord
  2
STANDARD
 70
0
  3

  4

  5
_CLOSED
  6
_CLOSED
  7
_CLOSED
 40
1.0
 41
2.5
 42
0.75
 43
0.38
 44
0.75
 45
0.0
 46
0.0
 47
0.01
 48
0.01
140
3.0
141
0.09
142
0.0
143
25.4
144
1.0
145
0.0
146
1.0
147
0.625
 71
1.0
 72
0.0
 73
0
 74
0
 75
0
 76
0
 77
1
 78
8
 79
2
170
0
171
1
172
0
173
0
174
0
175
0
176
0
177
0
178
0
270
2
179
2
271
2
272
2
273
2
274
2
275
0
280
0
281
0
282
0
283
1
284
8
285
0
286
0
287
3
288
0
340
11
  0
DIMSTYLE
105
213
100
AcDbSymbolTableRecord
100
AcDbDimStyleTableRecord
  2
DIMSTYLE_1
 70
0
  3

  4

  5
_CLOSED
  6
_CLOSED
  7
_CLOSED
 40
1.0
 41
2.5
 42
0.75
 43
0.38
 44
0.75
 45
0.0
 46
0.0
 47
0.3
 48
0.3
140
10.0
141
0.09
142
0.0
143
25.4
144
1.0
145
0.0
146
1.0
147
2.5
 71
0.0
 72
0.0
 73
0
 74
0
 75
0
 76
0
 77
1
 78
8
 79
2
170
0
171
1
172
0
173
0
174
0
175
0
176
0
177
0
178
0
270
2
179
2
271
2
272
2
273
2
274
2
275
0
280
0
281
0
282
0
283
1
284
8
285
0
286
0
287
3
288
0
340
11
  0
DIMSTYLE
105
214
100
AcDbSymbolTableRecord
100
AcDbDimStyleTableRecord
  2
DIMSTYLE_2
 70
0
  3

  4

  5
_CLOSED
  6
_CLOSED
  7
_CLOSED
 40
1.0
 41
2.5
 42
0.75
 43
0.38
 44
0.75
 45
0.0
 46
0.0
 47
2.0
 48
2.0
140
10.0
141
0.09
142
0.0
143
25.4
144
1.0
145
0.0
146
1.0
147
2.5
 71
0.0
 72
0.0
 73
0
 74
0
 75
0
 76
0
 77
1
 78
8
 79
2
170
0
171
1
172
0
173
0
174
0
175
0
176
0
177
0
178
0
270
2
179
2
271
2
272
2
273
2
274
2
275
0
280
0
281
0
282
0
283
1
284
8
285
0
286
0
287
3
288
0
340
11
  0
ENDTAB
  0
ENDSEC
  0
SECTION
  2
BLOCKS
  0
BLOCK
  5
20
100
AcDbEntity
  8
0
100
AcDbBlockBegin
  2
*MODEL_SPACE
 70
0
 10
0.0
 20
0.0
 30
0.0
  3
*MODEL_SPACE
  1

  0
ENDBLK
  5
21
100
AcDbEntity
  8
0
100
AcDbBlockEnd
  0
BLOCK
  5
1C
100
AcDbEntity
  8
0
100
AcDbBlockBegin
  2
*PAPER_SPACE
 70
0
 10
0.0
 20
0.0
 30
0.0
  3
*PAPER_SPACE
  1

  0
ENDBLK
  5
1D
100
AcDbEntity
  8
0
100
AcDbBlockEnd
  0
BLOCK
  5
215
100
AcDbEntity
  8
0
100
AcDbBlockBegin
 62
2
  6
CONTINUOUS
  2
LOGO2_BL0
 70
64
 10
3077.3064403707
 20
35.4166949944
  3
LOGO2_BL0
  1

  0
LINE
  5
216
100
AcDbEntity
  8
0
100
AcDbLine
 62
7
  6
CONTINUOUS
 10
3069.0493655989
 20
38.6121863333
 11
3067.7450246695
 21
38.6121863333
  0
LINE
  5
217
100
AcDbEntity
  8
0
100
AcDbLine
 62
7
  6
CONTINUOUS
 10
3067.7450246695
 20
38.6121863333
 11
3067.7450246695
 21
28.1531202734
  0
LINE
  5
218
100
AcDbEntity
  8
0
100
AcDbLine
 62
7
  6
CONTINUOUS
 10
3067.7450246695
 20
28.1531202734
 11
3072.2260795578
 21
28.1531202734
  0
LINE
  5
219
100
AcDbEntity
  8
0
100
AcDbLine
 62
7
  6
CONTINUOUS
 10
3072.2260795578
 20
28.1531202734
 11
3072.2260795578
 21
29.3459745985
  0
LINE
  5
21A
100
AcDbEntity
  8
0
100
AcDbLine
 62
7
  6
CONTINUOUS
 10
3072.2260795578
 20
29.3459745985
 11
3069.0493655989
 21
29.3459745985
  0
LINE
  5
21B
100
AcDbEntity
  8
0
100
AcDbLine
 62
7
  6
CONTINUOUS
 10
3069.0493655989
 20
29.3459745985
 11
3069.0493655989
 21
38.6121863333
  0
LINE
  5
21C
100
AcDbEntity
  8
0
100
AcDbLine
 62
7
  6
CONTINUOUS
 10
3083.9856918152
 20
38.6121863333
 11
3082.6818742971
 21
38.6121863333
  0
LINE
  5
21D
100
AcDbEntity
  8
0
100
AcDbLine
 62
7
  6
CONTINUOUS
 10
3082.6818742971
 20
38.6121863333
 11
3082.6818742971
 21
28.1531202734
  0
LINE
  5
21E
100
AcDbEntity
  8
0
100
AcDbLine
 62
7
  6
CONTINUOUS
 10
3082.6818742971
 20
28.1531202734
 11
3087.1630600382
 21
28.1531202734
  0
LINE
  5
21F
100
AcDbEntity
  8
0
100
AcDbLine
 62
7
  6
CONTINUOUS
 10
3087.1630600382
 20
28.1531202734
 11
3087.1630600382
 21
29.3459745985
  0
LINE
  5
220
100
AcDbEntity
  8
0
100
AcDbLine
 62
7
  6
CONTINUOUS
 10
3087.1630600382
 20
29.3459745985
 11
3083.9856918152
 21
29.3459745985
  0
LINE
  5
221
100
AcDbEntity
  8
0
100
AcDbLine
 62
7
  6
CONTINUOUS
 10
3083.9856918152
 20
29.3459745985
 11
3083.9856918152
 21
38.6121863333
  0
LWPOLYLINE
  5
222
100
AcDbEntity
  8
0
100
AcDbPolyline
 62
7
  6
CONTINUOUS
 90
2
 70
0
 43
0.2
 10
3066.0994195805
 20
24.8095689665
 10
3066.0994195805
 20
22.9525057172
  0
LWPOLYLINE
  5
223
100
AcDbEntity
  8
0
100
AcDbPolyline
 62
7
  6
CONTINUOUS
 90
2
 70
0
 43
0.2
 10
3066.0994195805
 20
22.9525057172
 10
3066.8951355908
 20
22.9525057172
  0
LWPOLYLINE
  5
224
100
AcDbEntity
  8
0
100
AcDbPolyline
 62
7
  6
CONTINUOUS
 90
2
 70
0
 43
0.2
 10
3066.8951355908
 20
22.9525057172
 10
3066.8951355908
 20
23.1644872887
  0
LWPOLYLINE
  5
225
100
AcDbEntity
  8
0
100
AcDbPolyline
 62
7
  6
CONTINUOUS
 90
2
 70
0
 43
0.2
 10
3066.8951355908
 20
23.1644872887
 10
3066.3310290753
 20
23.1644872887
  0
LWPOLYLINE
  5
226
100
AcDbEntity
  8
0
100
AcDbPolyline
 62
7
  6
CONTINUOUS
 90
2
 70
0
 43
0.2
 10
3066.3310290753
 20
23.1644872887
 10
3066.3310290753
 20
24.8095689665
  0
LWPOLYLINE
  5
227
100
AcDbEntity
  8
0
100
AcDbPolyline
 62
7
  6
CONTINUOUS
 90
2
 70
0
 43
0.2
 10
3066.3310290753
 20
24.8095689665
 10
3066.0994195805
 20
24.8095689665
  0
SPLINE
  5
228
100
AcDbEntity
  8
0
100
AcDbSpline
 62
7
  6
CONTINUOUS
 70
2
 71
3
 72
35
 73
31
 74
0
 42
0.0000001
 43
0.0000001
 44
0.0000000001
 40
0.0
 40
0.0
 40
0.0
 40
0.0
 40
1.0
 40
1.0
 40
1.0
 40
2.0
 40
2.0
 40
2.0
 40
3.0
 40
3.0
 40
3.0
 40
4.0
 40
4.0
 40
4.0
 40
5.0
 40
5.0
 40
5.0
 40
6.0
 40
6.0
 40
6.0
 40
7.0
 40
7.0
 40
7.0
 40
8.0
 40
8.0
 40
8.0
 40
9.0
 40
9.0
 40
9.0
 40
10.0
 40
10.0
 40
10.0
 40
10.0
 10
3068.2934288464
 20
24.105057373
 30
0.0
 10
3068.2934288464
 20
24.105057373
 30
0.0
 10
3068.2934288464
 20
23.4429420939
 30
0.0
 10
3068.2934288464
 20
23.4429420939
 30
0.0
 10
3068.2934288464
 20
23.1278484986
 30
0.0
 10
3068.4412925352
 20
22.9132498706
 30
0.0
 10
3068.7813790195
 20
22.9132498706
 30
0.0
 10
3069.1209420925
 20
22.9132498706
 30
0.0
 10
3069.269067487
 20
23.1278484986
 30
0.0
 10
3069.269067487
 20
23.4429420939
 30
0.0
 10
3069.269067487
 20
23.4429420939
 30
0.0
 10
3069.269067487
 20
24.105057373
 30
0.0
 10
3069.269067487
 20
24.105057373
 30
0.0
 10
3069.269067487
 20
24.105057373
 30
0.0
 10
3069.0470102481
 20
24.105057373
 30
0.0
 10
3069.0470102481
 20
24.105057373
 30
0.0
 10
3069.0470102481
 20
24.105057373
 30
0.0
 10
3069.0470102481
 20
23.4680658357
 30
0.0
 10
3069.0470102481
 20
23.4680658357
 30
0.0
 10
3069.0470102481
 20
23.2822548285
 30
0.0
 10
3069.0002957907
 20
23.119473918
 30
0.0
 10
3068.7813790195
 20
23.119473918
 30
0.0
 10
3068.5619388371
 20
23.119473918
 30
0.0
 10
3068.5152243796
 20
23.2822548285
 30
0.0
 10
3068.5152243796
 20
23.4680658357
 30
0.0
 10
3068.5152243796
 20
23.4680658357
 30
0.0
 10
3068.5152243796
 20
24.105057373
 30
0.0
 10
3068.5152243796
 20
24.105057373
 30
0.0
 10
3068.5152243796
 20
24.105057373
 30
0.0
 10
3068.2934288464
 20
24.105057373
 30
0.0
 10
3068.2934288464
 20
24.105057373
 30
0.0
  0
SPLINE
  5
229
100
AcDbEntity
  8
0
100
AcDbSpline
 62
7
  6
CONTINUOUS
 70
2
 71
3
 72
35
 73
31
 74
0
 42
0.0000001
 43
0.0000001
 44
0.0000000001
 40
0.0
 40
0.0
 40
0.0
 40
0.0
 40
1.0
 40
1.0
 40
1.0
 40
2.0
 40
2.0
 40
2.0
 40
3.0
 40
3.0
 40
3.0
 40
4.0
 40
4.0
 40
4.0
 40
5.0
 40
5.0
 40
5.0
 40
6.0
 40
6.0
 40
6.0
 40
7.0
 40
7.0
 40
7.0
 40
8.0
 40
8.0
 40
8.0
 40
9.0
 40
9.0
 40
9.0
 40
10.0
 40
10.0
 40
10.0
 40
10.0
 10
3071.6922000442
 20
24.0637078813
 30
0.0
 10
3071.6037435365
 20
24.1150021875
 30
0.0
 10
3071.4902941399
 20
24.1401259293
 30
0.0
 10
3071.3866587049
 20
24.1401259293
 30
0.0
 10
3071.0317858517
 20
24.1401259293
 30
0.0
 10
3070.7563406615
 20
23.8763266402
 30
0.0
 10
3070.7563406615
 20
23.5188367306
 30
0.0
 10
3070.7563406615
 20
23.1739086919
 30
0.0
 10
3071.0347954666
 20
22.9137732819
 30
0.0
 10
3071.3743585396
 20
22.9137732819
 30
0.0
 10
3071.4902941399
 20
22.9137732819
 30
0.0
 10
3071.5910508128
 20
22.9357565559
 30
0.0
 10
3071.6922000442
 20
22.9896679186
 30
0.0
 10
3071.6922000442
 20
22.9896679186
 30
0.0
 10
3071.6922000442
 20
23.272310014
 30
0.0
 10
3071.6922000442
 20
23.272310014
 30
0.0
 10
3071.6083233853
 20
23.1791428048
 30
0.0
 10
3071.5048188031
 20
23.1199973293
 30
0.0
 10
3071.3767138904
 20
23.1199973293
 30
0.0
 10
3071.1430107504
 20
23.1199973293
 30
0.0
 10
3070.9777436362
 20
23.292199643
 30
0.0
 10
3070.9777436362
 20
23.5287815451
 30
0.0
 10
3070.9777436362
 20
23.7407631167
 30
0.0
 10
3071.145496954
 20
23.9328550593
 30
0.0
 10
3071.36232008
 20
23.9328550593
 30
0.0
 10
3071.4951356943
 20
23.9328550593
 30
0.0
 10
3071.6037435365
 20
23.8789436967
 30
0.0
 10
3071.6922000442
 20
23.7779253181
 30
0.0
 10
3071.6922000442
 20
23.7779253181
 30
0.0
 10
3071.6922000442
 20
24.0637078813
 30
0.0
 10
3071.6922000442
 20
24.0637078813
 30
0.0
  0
SPLINE
  5
22A
100
AcDbEntity
  8
0
100
AcDbSpline
 62
7
  6
CONTINUOUS
 70
2
 71
3
 72
32
 73
28
 74
0
 42
0.0000001
 43
0.0000001
 44
0.0000000001
 40
0.0
 40
0.0
 40
0.0
 40
0.0
 40
1.0
 40
1.0
 40
1.0
 40
2.0
 40
2.0
 40
2.0
 40
3.0
 40
3.0
 40
3.0
 40
4.0
 40
4.0
 40
4.0
 40
5.0
 40
5.0
 40
5.0
 40
6.0
 40
6.0
 40
6.0
 40
7.0
 40
7.0
 40
7.0
 40
8.0
 40
8.0
 40
8.0
 40
9.0
 40
9.0
 40
9.0
 40
9.0
 10
3074.2240712964
 20
23.4921427549
 30
0.0
 10
3074.2240712964
 20
23.4921427549
 30
0.0
 10
3074.2240712964
 20
23.5261644887
 30
0.0
 10
3074.2240712964
 20
23.5261644887
 30
0.0
 10
3074.2240712964
 20
23.8684754709
 30
0.0
 10
3074.0512147186
 20
24.1401259293
 30
0.0
 10
3073.6845651115
 20
24.1401259293
 30
0.0
 10
3073.3129430971
 20
24.1401259293
 30
0.0
 10
3073.1232065052
 20
23.8737095838
 30
0.0
 10
3073.1232065052
 20
23.5188367306
 30
0.0
 10
3073.1232065052
 20
23.1791428048
 30
0.0
 10
3073.337281722
 20
22.9132498706
 30
0.0
 10
3073.6894066659
 20
22.9132498706
 30
0.0
 10
3073.9134266971
 20
22.9132498706
 30
0.0
 10
3074.115594307
 20
23.0289237652
 30
0.0
 10
3074.2240712964
 20
23.2283434659
 30
0.0
 10
3074.2240712964
 20
23.2283434659
 30
0.0
 10
3074.0364283497
 20
23.3351193686
 30
0.0
 10
3074.0364283497
 20
23.3351193686
 30
0.0
 10
3073.9529442493
 20
23.1964153773
 30
0.0
 10
3073.8617398324
 20
23.1105759261
 30
0.0
 10
3073.6921545751
 20
23.1105759261
 30
0.0
 10
3073.4801730035
 20
23.1105759261
 30
0.0
 10
3073.3472265364
 20
23.2953401107
 30
0.0
 10
3073.3448711856
 20
23.4921427549
 30
0.0
 10
3073.3448711856
 20
23.4921427549
 30
0.0
 10
3074.2240712964
 20
23.4921427549
 30
0.0
 10
3074.2240712964
 20
23.4921427549
 30
0.0
  0
SPLINE
  5
22B
100
AcDbEntity
  8
0
100
AcDbSpline
 62
7
  6
CONTINUOUS
 70
2
 71
3
 72
14
 73
10
 74
0
 42
0.0000001
 43
0.0000001
 44
0.0000000001
 40
0.0
 40
0.0
 40
0.0
 40
0.0
 40
1.0
 40
1.0
 40
1.0
 40
2.0
 40
2.0
 40
2.0
 40
3.0
 40
3.0
 40
3.0
 40
3.0
 10
3073.3569096452
 20
23.6596343671
 30
0.0
 10
3073.3845195907
 20
23.8245089227
 30
0.0
 10
3073.5123627977
 20
23.9475105754
 30
0.0
 10
3073.6845651115
 20
23.9475105754
 30
0.0
 10
3073.8617398324
 20
23.9475105754
 30
0.0
 10
3073.975189229
 20
23.8318366808
 30
0.0
 10
3074.002406616
 20
23.6596343671
 30
0.0
 10
3074.002406616
 20
23.6596343671
 30
0.0
 10
3073.3569096452
 20
23.6596343671
 30
0.0
 10
3073.3569096452
 20
23.6596343671
 30
0.0
  0
SPLINE
  5
22C
100
AcDbEntity
  8
0
100
AcDbSpline
 62
7
  6
CONTINUOUS
 70
2
 71
3
 72
20
 73
16
 74
0
 42
0.0000001
 43
0.0000001
 44
0.0000000001
 40
0.0
 40
0.0
 40
0.0
 40
0.0
 40
1.0
 40
1.0
 40
1.0
 40
2.0
 40
2.0
 40
2.0
 40
3.0
 40
3.0
 40
3.0
 40
4.0
 40
4.0
 40
4.0
 40
5.0
 40
5.0
 40
5.0
 40
5.0
 10
3076.2481027466
 20
23.8689988822
 30
0.0
 10
3076.2481027466
 20
23.8689988822
 30
0.0
 10
3076.6592423132
 20
23.3665240459
 30
0.0
 10
3076.6592423132
 20
23.3665240459
 30
0.0
 10
3076.5431758602
 20
23.2508501512
 30
0.0
 10
3076.4053878386
 20
23.1205207406
 30
0.0
 10
3076.2334472306
 20
23.1205207406
 30
0.0
 10
3076.056010804
 20
23.1205207406
 30
0.0
 10
3075.8885191919
 20
23.284871885
 30
0.0
 10
3075.8885191919
 20
23.4617849003
 30
0.0
 10
3075.8885191919
 20
23.6397447381
 30
0.0
 10
3076.0982762655
 20
23.7658868585
 30
0.0
 10
3076.2258577669
 20
23.8538199549
 30
0.0
 10
3076.2258577669
 20
23.8538199549
 30
0.0
 10
3076.2481027466
 20
23.8689988822
 30
0.0
 10
3076.2481027466
 20
23.8689988822
 30
0.0
  0
SPLINE
  5
22D
100
AcDbEntity
  8
0
100
AcDbSpline
 62
7
  6
CONTINUOUS
 70
2
 71
3
 72
23
 73
19
 74
0
 42
0.0000001
 43
0.0000001
 44
0.0000000001
 40
0.0
 40
0.0
 40
0.0
 40
0.0
 40
1.0
 40
1.0
 40
1.0
 40
2.0
 40
2.0
 40
2.0
 40
3.0
 40
3.0
 40
3.0
 40
4.0
 40
4.0
 40
4.0
 40
5.0
 40
5.0
 40
5.0
 40
6.0
 40
6.0
 40
6.0
 40
6.0
 10
3076.2974342605
 20
24.1600155583
 30
0.0
 10
3076.2974342605
 20
24.1600155583
 30
0.0
 10
3076.2358025814
 20
24.2385272515
 30
0.0
 10
3076.2358025814
 20
24.2385272515
 30
0.0
 10
3076.1818912187
 20
24.3070941302
 30
0.0
 10
3076.125101094
 20
24.3761844202
 30
0.0
 10
3076.125101094
 20
24.4698750407
 30
0.0
 10
3076.125101094
 20
24.588689403
 30
0.0
 10
3076.2210162125
 20
24.6661542736
 30
0.0
 10
3076.3319794055
 20
24.6661542736
 30
0.0
 10
3076.4552427638
 20
24.6661542736
 30
0.0
 10
3076.5485408259
 20
24.5949703385
 30
0.0
 10
3076.5485408259
 20
24.4646409278
 30
0.0
 10
3076.5485408259
 20
24.3296008155
 30
0.0
 10
3076.4204359132
 20
24.2531827675
 30
0.0
 10
3076.3268761454
 20
24.1793817759
 30
0.0
 10
3076.3268761454
 20
24.1793817759
 30
0.0
 10
3076.2974342605
 20
24.1600155583
 30
0.0
 10
3076.2974342605
 20
24.1600155583
 30
0.0
  0
SPLINE
  5
22E
100
AcDbEntity
  8
0
100
AcDbSpline
 62
7
  6
CONTINUOUS
 70
2
 71
3
 72
50
 73
46
 74
0
 42
0.0000001
 43
0.0000001
 44
0.0000000001
 40
0.0
 40
0.0
 40
0.0
 40
0.0
 40
1.0
 40
1.0
 40
1.0
 40
2.0
 40
2.0
 40
2.0
 40
3.0
 40
3.0
 40
3.0
 40
4.0
 40
4.0
 40
4.0
 40
5.0
 40
5.0
 40
5.0
 40
6.0
 40
6.0
 40
6.0
 40
7.0
 40
7.0
 40
7.0
 40
8.0
 40
8.0
 40
8.0
 40
9.0
 40
9.0
 40
9.0
 40
10.0
 40
10.0
 40
10.0
 40
11.0
 40
11.0
 40
11.0
 40
12.0
 40
12.0
 40
12.0
 40
13.0
 40
13.0
 40
13.0
 40
14.0
 40
14.0
 40
14.0
 40
15.0
 40
15.0
 40
15.0
 40
15.0
 10
3076.9995905032
 20
22.9530291284
 30
0.0
 10
3076.9995905032
 20
22.9530291284
 30
0.0
 10
3077.2849805079
 20
22.9530291284
 30
0.0
 10
3077.2849805079
 20
22.9530291284
 30
0.0
 10
3077.2849805079
 20
22.9530291284
 30
0.0
 10
3076.9526143401
 20
23.3639069894
 30
0.0
 10
3076.9526143401
 20
23.3639069894
 30
0.0
 10
3076.9526143401
 20
23.3639069894
 30
0.0
 10
3077.1791205749
 20
23.6297999237
 30
0.0
 10
3077.1791205749
 20
23.6297999237
 30
0.0
 10
3077.1791205749
 20
23.6297999237
 30
0.0
 10
3077.0308643276
 20
23.7826360197
 30
0.0
 10
3077.0308643276
 20
23.7826360197
 30
0.0
 10
3077.0308643276
 20
23.7826360197
 30
0.0
 10
3076.8149571714
 20
23.5313986015
 30
0.0
 10
3076.8149571714
 20
23.5313986015
 30
0.0
 10
3076.8149571714
 20
23.5313986015
 30
0.0
 10
3076.427894524
 20
23.9993282929
 30
0.0
 10
3076.427894524
 20
23.9993282929
 30
0.0
 10
3076.5833476765
 20
24.1134319537
 30
0.0
 10
3076.7656256575
 20
24.2531827675
 30
0.0
 10
3076.7656256575
 20
24.4625472827
 30
0.0
 10
3076.7656256575
 20
24.7064569428
 30
0.0
 10
3076.5635889004
 20
24.8498716357
 30
0.0
 10
3076.3370826656
 20
24.8498716357
 30
0.0
 10
3076.0929112998
 20
24.8498716357
 30
0.0
 10
3075.9085396736
 20
24.6991291848
 30
0.0
 10
3075.9085396736
 20
24.4426576537
 30
0.0
 10
3075.9085396736
 20
24.2851108561
 30
0.0
 10
3076.0072027014
 20
24.1474536874
 30
0.0
 10
3076.1125392231
 20
24.0364904943
 30
0.0
 10
3076.1125392231
 20
24.0364904943
 30
0.0
 10
3075.9969961813
 20
23.9527446883
 30
0.0
 10
3075.9969961813
 20
23.9527446883
 30
0.0
 10
3075.819298049
 20
23.8245089227
 30
0.0
 10
3075.6719577715
 20
23.6967965685
 30
0.0
 10
3075.6719577715
 20
23.4596912551
 30
0.0
 10
3075.6719577715
 20
23.1393635469
 30
0.0
 10
3075.9305229477
 20
22.9132498706
 30
0.0
 10
3076.2409058414
 20
22.9132498706
 30
0.0
 10
3076.4598226126
 20
22.9132498706
 30
0.0
 10
3076.6570178153
 20
23.0383451684
 30
0.0
 10
3076.7972920404
 20
23.2042665466
 30
0.0
 10
3076.7972920404
 20
23.2042665466
 30
0.0
 10
3076.9995905032
 20
22.9530291284
 30
0.0
 10
3076.9995905032
 20
22.9530291284
 30
0.0
  0
LWPOLYLINE
  5
22F
100
AcDbEntity
  8
0
100
AcDbPolyline
 62
7
  6
CONTINUOUS
 90
2
 70
0
 43
0.2
 10
3078.9350345929
 20
24.8095689665
 10
3078.7036868037
 20
24.8095689665
  0
LWPOLYLINE
  5
230
100
AcDbEntity
  8
0
100
AcDbPolyline
 62
7
  6
CONTINUOUS
 90
2
 70
0
 43
0.2
 10
3078.7036868037
 20
24.8095689665
 10
3078.7036868037
 20
22.9525057172
  0
LWPOLYLINE
  5
231
100
AcDbEntity
  8
0
100
AcDbPolyline
 62
7
  6
CONTINUOUS
 90
2
 70
0
 43
0.2
 10
3078.7036868037
 20
22.9525057172
 10
3079.4990102556
 20
22.9525057172
  0
LWPOLYLINE
  5
232
100
AcDbEntity
  8
0
100
AcDbPolyline
 62
7
  6
CONTINUOUS
 90
2
 70
0
 43
0.2
 10
3079.4990102556
 20
22.9525057172
 10
3079.4990102556
 20
23.1644872887
  0
LWPOLYLINE
  5
233
100
AcDbEntity
  8
0
100
AcDbPolyline
 62
7
  6
CONTINUOUS
 90
2
 70
0
 43
0.2
 10
3079.4990102556
 20
23.1644872887
 10
3078.9350345929
 20
23.1644872887
  0
LWPOLYLINE
  5
234
100
AcDbEntity
  8
0
100
AcDbPolyline
 62
7
  6
CONTINUOUS
 90
2
 70
0
 43
0.2
 10
3078.9350345929
 20
23.1644872887
 10
3078.9350345929
 20
24.8095689665
  0
LWPOLYLINE
  5
235
100
AcDbEntity
  8
0
100
AcDbPolyline
 62
7
  6
CONTINUOUS
 90
2
 70
0
 43
0.2
 10
3081.1781136671
 20
24.105057373
 10
3080.9569723979
 20
24.105057373
  0
LWPOLYLINE
  5
236
100
AcDbEntity
  8
0
100
AcDbPolyline
 62
7
  6
CONTINUOUS
 90
2
 70
0
 43
0.2
 10
3080.9569723979
 20
24.105057373
 10
3080.9569723979
 20
22.9530291284
  0
LWPOLYLINE
  5
237
100
AcDbEntity
  8
0
100
AcDbPolyline
 62
7
  6
CONTINUOUS
 90
2
 70
0
 43
0.2
 10
3080.9569723979
 20
22.9530291284
 10
3081.1781136671
 20
22.9530291284
  0
LWPOLYLINE
  5
238
100
AcDbEntity
  8
0
100
AcDbPolyline
 62
7
  6
CONTINUOUS
 90
2
 70
0
 43
0.2
 10
3081.1781136671
 20
22.9530291284
 10
3081.1781136671
 20
24.105057373
  0
LWPOLYLINE
  5
239
100
AcDbEntity
  8
0
100
AcDbPolyline
 62
7
  6
CONTINUOUS
 90
2
 70
1
 43
0.2
 10
3080.9150903899
 20
24.635011302
 42
1.0
 10
3081.2202573808
 20
24.635011302
 42
1.0
  0
SPLINE
  5
23A
100
AcDbEntity
  8
0
100
AcDbSpline
 62
7
  6
CONTINUOUS
 70
2
 71
3
 72
17
 73
13
 74
0
 42
0.0000001
 43
0.0000001
 44
0.0000000001
 40
0.0
 40
0.0
 40
0.0
 40
0.0
 40
1.0
 40
1.0
 40
1.0
 40
2.0
 40
2.0
 40
2.0
 40
3.0
 40
3.0
 40
3.0
 40
4.0
 40
4.0
 40
4.0
 40
4.0
 10
3083.3083976087
 20
23.1105759261
 30
0.0
 10
3083.074432763
 20
23.1105759261
 30
0.0
 10
3082.9441033523
 20
23.3126126832
 30
0.0
 10
3082.9441033523
 20
23.5287815451
 30
0.0
 10
3082.9441033523
 20
23.7433801731
 30
0.0
 10
3083.0799285815
 20
23.9422764625
 30
0.0
 10
3083.3083976087
 20
23.9422764625
 30
0.0
 10
3083.5478582729
 20
23.9422764625
 30
0.0
 10
3083.6834217965
 20
23.7533249876
 30
0.0
 10
3083.6834217965
 20
23.5287815451
 30
0.0
 10
3083.6834217965
 20
23.3026678687
 30
0.0
 10
3083.5502136237
 20
23.1105759261
 30
0.0
 10
3083.3083976087
 20
23.1105759261
 30
0.0
  0
SPLINE
  5
23B
100
AcDbEntity
  8
0
100
AcDbSpline
 62
7
  6
CONTINUOUS
 70
2
 71
3
 72
50
 73
46
 74
0
 42
0.0000001
 43
0.0000001
 44
0.0000000001
 40
0.0
 40
0.0
 40
0.0
 40
0.0
 40
1.0
 40
1.0
 40
1.0
 40
2.0
 40
2.0
 40
2.0
 40
3.0
 40
3.0
 40
3.0
 40
4.0
 40
4.0
 40
4.0
 40
5.0
 40
5.0
 40
5.0
 40
6.0
 40
6.0
 40
6.0
 40
7.0
 40
7.0
 40
7.0
 40
8.0
 40
8.0
 40
8.0
 40
9.0
 40
9.0
 40
9.0
 40
10.0
 40
10.0
 40
10.0
 40
11.0
 40
11.0
 40
11.0
 40
12.0
 40
12.0
 40
12.0
 40
13.0
 40
13.0
 40
13.0
 40
14.0
 40
14.0
 40
14.0
 40
15.0
 40
15.0
 40
15.0
 40
15.0
 10
3083.892524606
 20
24.1055807843
 30
0.0
 10
3083.892524606
 20
24.1055807843
 30
0.0
 10
3083.6708599256
 20
24.1055807843
 30
0.0
 10
3083.6708599256
 20
24.1055807843
 30
0.0
 10
3083.6708599256
 20
24.1055807843
 30
0.0
 10
3083.6708599256
 20
23.9082547288
 30
0.0
 10
3083.6708599256
 20
23.9082547288
 30
0.0
 10
3083.6708599256
 20
23.9082547288
 30
0.0
 10
3083.666149224
 20
23.9082547288
 30
0.0
 10
3083.666149224
 20
23.9082547288
 30
0.0
 10
3083.5748139542
 20
24.0511460104
 30
0.0
 10
3083.4368950799
 20
24.139602518
 30
0.0
 10
3083.2641693549
 20
24.139602518
 30
0.0
 10
3082.9318031871
 20
24.139602518
 30
0.0
 10
3082.7227003776
 20
23.8517263097
 30
0.0
 10
3082.7227003776
 20
23.5361093031
 30
0.0
 10
3082.7227003776
 20
23.2063601918
 30
0.0
 10
3082.9197647275
 20
22.9132498706
 30
0.0
 10
3083.2746375806
 20
22.9132498706
 30
0.0
 10
3083.4368950799
 20
22.9132498706
 30
0.0
 10
3083.5769075994
 20
23.0017063782
 30
0.0
 10
3083.666149224
 20
23.1325592002
 30
0.0
 10
3083.666149224
 20
23.1325592002
 30
0.0
 10
3083.6708599256
 20
23.1325592002
 30
0.0
 10
3083.6708599256
 20
23.1325592002
 30
0.0
 10
3083.6708599256
 20
23.1325592002
 30
0.0
 10
3083.6708599256
 20
22.9132498706
 30
0.0
 10
3083.6708599256
 20
22.9132498706
 30
0.0
 10
3083.6708599256
 20
22.6766679684
 30
0.0
 10
3083.6143315065
 20
22.4898101387
 30
0.0
 10
3083.3411108142
 20
22.4898101387
 30
0.0
 10
3083.1388123514
 20
22.4898101387
 30
0.0
 10
3082.9961827755
 20
22.6081010897
 30
0.0
 10
3082.9961827755
 20
22.8143251372
 30
0.0
 10
3082.9961827755
 20
22.8143251372
 30
0.0
 10
3082.7745180951
 20
22.8143251372
 30
0.0
 10
3082.7745180951
 20
22.8143251372
 30
0.0
 10
3082.7794905023
 20
22.4898101387
 30
0.0
 10
3083.0105765859
 20
22.2930074944
 30
0.0
 10
3083.3309042941
 20
22.2930074944
 30
0.0
 10
3083.7789443565
 20
22.2930074944
 30
0.0
 10
3083.892524606
 20
22.5782666463
 30
0.0
 10
3083.892524606
 20
22.9750124025
 30
0.0
 10
3083.892524606
 20
22.9750124025
 30
0.0
 10
3083.892524606
 20
24.1055807843
 30
0.0
 10
3083.892524606
 20
24.1055807843
 30
0.0
  0
SPLINE
  5
23C
100
AcDbEntity
  8
0
100
AcDbSpline
 62
7
  6
CONTINUOUS
 70
2
 71
3
 72
44
 73
40
 74
0
 42
0.0000001
 43
0.0000001
 44
0.0000000001
 40
0.0
 40
0.0
 40
0.0
 40
0.0
 40
1.0
 40
1.0
 40
1.0
 40
2.0
 40
2.0
 40
2.0
 40
3.0
 40
3.0
 40
3.0
 40
4.0
 40
4.0
 40
4.0
 40
5.0
 40
5.0
 40
5.0
 40
6.0
 40
6.0
 40
6.0
 40
7.0
 40
7.0
 40
7.0
 40
8.0
 40
8.0
 40
8.0
 40
9.0
 40
9.0
 40
9.0
 40
10.0
 40
10.0
 40
10.0
 40
11.0
 40
11.0
 40
11.0
 40
12.0
 40
12.0
 40
12.0
 40
13.0
 40
13.0
 40
13.0
 40
13.0
 10
3085.4614499414
 20
25.0906408281
 30
0.0
 10
3085.4614499414
 20
25.0906408281
 30
0.0
 10
3085.4614499414
 20
22.9525057172
 30
0.0
 10
3085.4614499414
 20
22.9525057172
 30
0.0
 10
3085.4614499414
 20
22.9525057172
 30
0.0
 10
3085.6828529161
 20
22.9525057172
 30
0.0
 10
3085.6828529161
 20
22.9525057172
 30
0.0
 10
3085.6828529161
 20
22.9525057172
 30
0.0
 10
3085.6828529161
 20
23.4821979405
 30
0.0
 10
3085.6828529161
 20
23.4821979405
 30
0.0
 10
3085.6828529161
 20
23.6920858669
 30
0.0
 10
3085.6828529161
 20
23.9427998738
 30
0.0
 10
3085.968112068
 20
23.9427998738
 30
0.0
 10
3086.1950108613
 20
23.9427998738
 30
0.0
 10
3086.2219665426
 20
23.8098534067
 30
0.0
 10
3086.2219665426
 20
23.6135741737
 30
0.0
 10
3086.2219665426
 20
23.6135741737
 30
0.0
 10
3086.2219665426
 20
22.9525057172
 30
0.0
 10
3086.2219665426
 20
22.9525057172
 30
0.0
 10
3086.2219665426
 20
22.9525057172
 30
0.0
 10
3086.4438929287
 20
22.9525057172
 30
0.0
 10
3086.4438929287
 20
22.9525057172
 30
0.0
 10
3086.4438929287
 20
22.9525057172
 30
0.0
 10
3086.4438929287
 20
23.6397447381
 30
0.0
 10
3086.4438929287
 20
23.6397447381
 30
0.0
 10
3086.4438929287
 20
23.9202931884
 30
0.0
 10
3086.359885417
 20
24.1401259293
 30
0.0
 10
3086.0348470072
 20
24.1401259293
 30
0.0
 10
3085.8950961934
 20
24.1401259293
 30
0.0
 10
3085.7569156134
 20
24.0736526958
 30
0.0
 10
3085.6875636177
 20
23.9506510431
 30
0.0
 10
3085.6875636177
 20
23.9506510431
 30
0.0
 10
3085.6828529161
 20
23.9506510431
 30
0.0
 10
3085.6828529161
 20
23.9506510431
 30
0.0
 10
3085.6828529161
 20
23.9506510431
 30
0.0
 10
3085.6828529161
 20
25.0906408281
 30
0.0
 10
3085.6828529161
 20
25.0906408281
 30
0.0
 10
3085.6828529161
 20
25.0906408281
 30
0.0
 10
3085.4614499414
 20
25.0906408281
 30
0.0
 10
3085.4614499414
 20
25.0906408281
 30
0.0
  0
LWPOLYLINE
  5
23D
100
AcDbEntity
  8
0
100
AcDbPolyline
 62
7
  6
CONTINUOUS
 90
2
 70
0
 43
0.2
 10
3088.2836836056
 20
23.8983099143
 10
3088.5001141731
 20
23.8983099143
  0
LWPOLYLINE
  5
23E
100
AcDbEntity
  8
0
100
AcDbPolyline
 62
7
  6
CONTINUOUS
 90
2
 70
0
 43
0.2
 10
3088.5001141731
 20
23.8983099143
 10
3088.5001141731
 20
24.105057373
  0
LWPOLYLINE
  5
23F
100
AcDbEntity
  8
0
100
AcDbPolyline
 62
7
  6
CONTINUOUS
 90
2
 70
0
 43
0.2
 10
3088.5001141731
 20
24.105057373
 10
3088.2836836056
 20
24.105057373
  0
LWPOLYLINE
  5
240
100
AcDbEntity
  8
0
100
AcDbPolyline
 62
7
  6
CONTINUOUS
 90
2
 70
0
 43
0.2
 10
3088.2836836056
 20
24.105057373
 10
3088.2836836056
 20
24.5457696774
  0
LWPOLYLINE
  5
241
100
AcDbEntity
  8
0
100
AcDbPolyline
 62
7
  6
CONTINUOUS
 90
2
 70
0
 43
0.2
 10
3088.2836836056
 20
24.5457696774
 10
3088.0620189251
 20
24.5457696774
  0
LWPOLYLINE
  5
242
100
AcDbEntity
  8
0
100
AcDbPolyline
 62
7
  6
CONTINUOUS
 90
2
 70
0
 43
0.2
 10
3088.0620189251
 20
24.5457696774
 10
3088.0620189251
 20
24.105057373
  0
LWPOLYLINE
  5
243
100
AcDbEntity
  8
0
100
AcDbPolyline
 62
7
  6
CONTINUOUS
 90
2
 70
0
 43
0.2
 10
3088.0620189251
 20
24.105057373
 10
3087.9413726233
 20
24.105057373
  0
LWPOLYLINE
  5
244
100
AcDbEntity
  8
0
100
AcDbPolyline
 62
7
  6
CONTINUOUS
 90
2
 70
0
 43
0.2
 10
3087.9413726233
 20
24.105057373
 10
3087.9413726233
 20
23.8983099143
  0
LWPOLYLINE
  5
245
100
AcDbEntity
  8
0
100
AcDbPolyline
 62
7
  6
CONTINUOUS
 90
2
 70
0
 43
0.2
 10
3087.9413726233
 20
23.8983099143
 10
3088.0620189251
 20
23.8983099143
  0
LWPOLYLINE
  5
246
100
AcDbEntity
  8
0
100
AcDbPolyline
 62
7
  6
CONTINUOUS
 90
2
 70
0
 43
0.2
 10
3088.0620189251
 20
23.8983099143
 10
3088.0620189251
 20
22.9525057172
  0
LWPOLYLINE
  5
247
100
AcDbEntity
  8
0
100
AcDbPolyline
 62
7
  6
CONTINUOUS
 90
2
 70
0
 43
0.2
 10
3088.0620189251
 20
22.9525057172
 10
3088.2836836056
 20
22.9525057172
  0
LWPOLYLINE
  5
248
100
AcDbEntity
  8
0
100
AcDbPolyline
 62
7
  6
CONTINUOUS
 90
2
 70
0
 43
0.2
 10
3088.2836836056
 20
22.9525057172
 10
3088.2836836056
 20
23.8983099143
  0
SPLINE
  5
249
100
AcDbEntity
  8
0
100
AcDbSpline
 62
7
  6
CONTINUOUS
 70
2
 71
3
 72
20
 73
16
 74
0
 42
0.0000001
 43
0.0000001
 44
0.0000000001
 40
0.0
 40
0.0
 40
0.0
 40
0.0
 40
1.0
 40
1.0
 40
1.0
 40
2.0
 40
2.0
 40
2.0
 40
3.0
 40
3.0
 40
3.0
 40
4.0
 40
4.0
 40
4.0
 40
5.0
 40
5.0
 40
5.0
 40
5.0
 10
3076.0656939128
 20
33.3134321605
 30
0.0
 10
3076.0656939128
 20
33.3134321605
 30
0.0
 10
3078.3820505673
 20
30.4838707383
 30
0.0
 10
3078.3820505673
 20
30.4838707383
 30
0.0
 10
3077.7304035139
 20
29.8317002736
 30
0.0
 10
3076.9535303098
 20
29.0957840029
 30
0.0
 10
3075.9823406652
 20
29.0957840029
 30
0.0
 10
3074.9838027808
 20
29.0957840029
 30
0.0
 10
3074.0404847872
 20
30.0253624501
 30
0.0
 10
3074.0404847872
 20
31.0245545987
 30
0.0
 10
3074.0404847872
 20
32.0237467472
 30
0.0
 10
3075.2193378603
 20
32.7303519859
 30
0.0
 10
3075.9408603206
 20
33.2302097658
 30
0.0
 10
3075.9408603206
 20
33.2302097658
 30
0.0
 10
3076.0656939128
 20
33.3134321605
 30
0.0
 10
3076.0656939128
 20
33.3134321605
 30
0.0
  0
SPLINE
  5
24A
100
AcDbEntity
  8
0
100
AcDbSpline
 62
7
  6
CONTINUOUS
 70
2
 71
3
 72
23
 73
19
 74
0
 42
0.0000001
 43
0.0000001
 44
0.0000000001
 40
0.0
 40
0.0
 40
0.0
 40
0.0
 40
1.0
 40
1.0
 40
1.0
 40
2.0
 40
2.0
 40
2.0
 40
3.0
 40
3.0
 40
3.0
 40
4.0
 40
4.0
 40
4.0
 40
5.0
 40
5.0
 40
5.0
 40
6.0
 40
6.0
 40
6.0
 40
6.0
 10
3076.3431018954
 20
34.9511860803
 30
0.0
 10
3076.3431018954
 20
34.9511860803
 30
0.0
 10
3075.9966036228
 20
35.3945154411
 30
0.0
 10
3075.9966036228
 20
35.3945154411
 30
0.0
 10
3075.6908005779
 20
35.7826249111
 30
0.0
 10
3075.3719122507
 20
36.1711269395
 30
0.0
 10
3075.3719122507
 20
36.6980712536
 30
0.0
 10
3075.3719122507
 20
37.3642429702
 30
0.0
 10
3075.9132503752
 20
37.8079648895
 30
0.0
 10
3076.5371566303
 20
37.8079648895
 30
0.0
 10
3077.2309382924
 20
37.8079648895
 30
0.0
 10
3077.7581443121
 20
37.4057233148
 30
0.0
 10
3077.7581443121
 20
36.6707230138
 30
0.0
 10
3077.7581443121
 20
35.9074585032
 30
0.0
 10
3077.0368835574
 20
35.4773452774
 30
0.0
 10
3076.5098083906
 20
35.061625862
 30
0.0
 10
3076.5098083906
 20
35.061625862
 30
0.0
 10
3076.3431018954
 20
34.9511860803
 30
0.0
 10
3076.3431018954
 20
34.9511860803
 30
0.0
  0
SPLINE
  5
24B
100
AcDbEntity
  8
0
100
AcDbSpline
 62
7
  6
CONTINUOUS
 70
2
 71
3
 72
50
 73
46
 74
0
 42
0.0000001
 43
0.0000001
 44
0.0000000001
 40
0.0
 40
0.0
 40
0.0
 40
0.0
 40
1.0
 40
1.0
 40
1.0
 40
2.0
 40
2.0
 40
2.0
 40
3.0
 40
3.0
 40
3.0
 40
4.0
 40
4.0
 40
4.0
 40
5.0
 40
5.0
 40
5.0
 40
6.0
 40
6.0
 40
6.0
 40
7.0
 40
7.0
 40
7.0
 40
8.0
 40
8.0
 40
8.0
 40
9.0
 40
9.0
 40
9.0
 40
10.0
 40
10.0
 40
10.0
 40
11.0
 40
11.0
 40
11.0
 40
12.0
 40
12.0
 40
12.0
 40
13.0
 40
13.0
 40
13.0
 40
14.0
 40
14.0
 40
14.0
 40
15.0
 40
15.0
 40
15.0
 40
15.0
 10
3080.2966890583
 20
28.1525968621
 30
0.0
 10
3080.2966890583
 20
28.1525968621
 30
0.0
 10
3081.9059170629
 20
28.1525968621
 30
0.0
 10
3081.9059170629
 20
28.1525968621
 30
0.0
 10
3081.9059170629
 20
28.1525968621
 30
0.0
 10
3080.0328897692
 20
30.4697386335
 30
0.0
 10
3080.0328897692
 20
30.4697386335
 30
0.0
 10
3080.0328897692
 20
30.4697386335
 30
0.0
 10
3081.3092281947
 20
31.9672183281
 30
0.0
 10
3081.3092281947
 20
31.9672183281
 30
0.0
 10
3081.3092281947
 20
31.9672183281
 30
0.0
 10
3080.477004247
 20
32.8282298967
 30
0.0
 10
3080.477004247
 20
32.8282298967
 30
0.0
 10
3080.477004247
 20
32.8282298967
 30
0.0
 10
3079.2564091237
 20
31.4129257743
 30
0.0
 10
3079.2564091237
 20
31.4129257743
 30
0.0
 10
3079.2564091237
 20
31.4129257743
 30
0.0
 10
3077.0784947548
 20
34.0483016087
 30
0.0
 10
3077.0784947548
 20
34.0483016087
 30
0.0
 10
3077.9520681943
 20
34.6863399686
 30
0.0
 10
3078.9787394354
 20
35.4773452774
 30
0.0
 10
3078.9787394354
 20
36.6561983505
 30
0.0
 10
3078.9787394354
 20
38.0298912755
 30
0.0
 10
3077.8408432956
 20
38.834374425
 30
0.0
 10
3076.5655516927
 20
38.834374425
 30
0.0
 10
3075.1921204733
 20
38.834374425
 30
0.0
 10
3074.1511862746
 20
37.9881492253
 30
0.0
 10
3074.1511862746
 20
36.5454968631
 30
0.0
 10
3074.1511862746
 20
35.6579221717
 30
0.0
 10
3074.706525651
 20
34.8810489677
 30
0.0
 10
3075.3026911079
 20
34.2566193013
 30
0.0
 10
3075.3026911079
 20
34.2566193013
 30
0.0
 10
3074.6507823489
 20
33.7850257309
 30
0.0
 10
3074.6507823489
 20
33.7850257309
 30
0.0
 10
3073.6522444644
 20
33.0637649762
 30
0.0
 10
3072.8193662526
 20
32.3425042215
 30
0.0
 10
3072.8193662526
 20
31.0109459052
 30
0.0
 10
3072.8193662526
 20
29.2072706072
 30
0.0
 10
3074.2764124252
 20
27.9306704761
 30
0.0
 10
3076.0239518626
 20
27.9306704761
 30
0.0
 10
3077.2588099435
 20
27.9306704761
 30
0.0
 10
3078.3681801681
 20
28.6388459486
 30
0.0
 10
3079.1590546241
 20
29.5673775733
 30
0.0
 10
3079.1590546241
 20
29.5673775733
 30
0.0
 10
3080.2966890583
 20
28.1525968621
 30
0.0
 10
3080.2966890583
 20
28.1525968621
 30
0.0
  0
LINE
  5
24C
100
AcDbEntity
  8
0
100
AcDbLine
 62
7
  6
CONTINUOUS
 10
3066.0995504333
 20
26.1264717668
 11
3088.5134611609
 21
26.1264717668
  0
LINE
  5
24D
100
AcDbEntity
  8
0
100
AcDbLine
 62
7
  6
CONTINUOUS
 10
3088.5134611609
 20
26.1264717668
 11
3088.5134611609
 21
48.5403824944
  0
LINE
  5
24E
100
AcDbEntity
  8
0
100
AcDbLine
 62
7
  6
CONTINUOUS
 10
3088.5134611609
 20
48.5403824944
 11
3066.0995504333
 21
48.5403824944
  0
LINE
  5
24F
100
AcDbEntity
  8
0
100
AcDbLine
 62
7
  6
CONTINUOUS
 10
3066.0995504333
 20
48.5403824944
 11
3066.0995504333
 21
26.1264717668
  0
ENDBLK
  5
250
100
AcDbEntity
  8
0
  6
BYBLOCK
 62
0
100
AcDbBlockEnd
  0
BLOCK
  5
251
100
AcDbEntity
  8
0
100
AcDbBlockBegin
  2
_CLOSED
 70
64
 10
0.0
 20
0.0
  3
_CLOSED
  1

  0
LINE
  5
252
100
AcDbEntity
  8
0
  6
BYBLOCK
 62
0
100
AcDbLine
 10
0.0
 20
0.0
 11
-1.0
 21
0.2
  0
LINE
  5
253
100
AcDbEntity
  8
0
  6
BYBLOCK
 62
0
100
AcDbLine
 10
-1.0
 20
0.2
 11
-1.0
 21
-0.2
  0
LINE
  5
254
100
AcDbEntity
  8
0
  6
BYBLOCK
 62
0
100
AcDbLine
 10
-1.0
 20
-0.2
 11
0.0
 21
0.0
  0
LINE
  5
255
100
AcDbEntity
  8
0
  6
BYBLOCK
 62
0
100
AcDbLine
 10
-1.0
 20
0.0
 11
0.0
 21
0.0
  0
ENDBLK
  5
256
100
AcDbEntity
  8
0
  6
BYBLOCK
 62
0
100
AcDbBlockEnd
  0
BLOCK
  5
257
100
AcDbEntity
  8
0
100
AcDbBlockBegin
 62
7
  6
CONTINUOUS
  2
*D0
 70
65
 10
0.0
 20
0.0
  3
*D0
  1

  0
MTEXT
  5
258
100
AcDbEntity
  8
0
100
AcDbMText
 62
7
  6
CONTINUOUS
  7
STANDARD
 71
2
 72
1
 10
362.5670702764
 20
1147.8246179376
 30
0.0
 11
1.0
 21
0.0
 31
0.0
  1
69,3
 40
10.0
 41
27.1747211896
  0
LINE
  5
259
100
AcDbEntity
  8
0
100
AcDbLine
 62
7
  6
CONTINUOUS
 10
327.9170702764
 20
1159.1251993832
 11
327.9170702764
 21
1134.5746179376
  0
LINE
  5
25A
100
AcDbEntity
  8
0
100
AcDbLine
 62
7
  6
CONTINUOUS
 10
397.2170702764
 20
1159.1251993832
 11
397.2170702764
 21
1134.5746179376
  0
LINE
  5
25B
100
AcDbEntity
  8
0
100
AcDbLine
 62
7
  6
CONTINUOUS
 10
327.9170702764
 20
1135.3246179376
 11
362.5670702764
 21
1135.3246179376
  0
LINE
  5
25C
100
AcDbEntity
  8
0
100
AcDbLine
 62
7
  6
CONTINUOUS
 10
397.2170702764
 20
1135.3246179376
 11
362.5670702764
 21
1135.3246179376
  0
INSERT
  5
25D
100
AcDbEntity
  8
0
100
AcDbBlockReference
 62
7
  6
CONTINUOUS
  2
_CLOSED
 10
327.9170702764
 20
1135.3246179376
 41
2.5
 42
2.5
 43
2.5
 50
180.0
  0
INSERT
  5
25E
100
AcDbEntity
  8
0
100
AcDbBlockReference
 62
7
  6
CONTINUOUS
  2
_CLOSED
 10
397.2170702764
 20
1135.3246179376
 41
2.5
 42
2.5
 43
2.5
  0
ENDBLK
  5
25F
100
AcDbEntity
  8
0
  6
BYBLOCK
 62
0
100
AcDbBlockEnd
  0
BLOCK
  5
260
100
AcDbEntity
  8
0
100
AcDbBlockBegin
 62
7
  6
CONTINUOUS
  2
*D1
 70
65
 10
0.0
 20
0.0
  3
*D1
  1

  0
MTEXT
  5
261
100
AcDbEntity
  8
0
100
AcDbMText
 62
7
  6
CONTINUOUS
  7
STANDARD
 71
2
 72
1
 10
242.0607679408
 20
1241.2690380543
 30
0.0
 11
0.0
 21
1.0
 31
0.0
  1
76
 40
10.0
 41
15.5390334572
  0
LINE
  5
262
100
AcDbEntity
  8
0
100
AcDbLine
 62
7
  6
CONTINUOUS
 10
280.0704258566
 20
1203.2690380543
 11
253.8107679408
 21
1203.2690380543
  0
LINE
  5
263
100
AcDbEntity
  8
0
100
AcDbLine
 62
7
  6
CONTINUOUS
 10
282.4207925338
 20
1279.2690380543
 11
253.8107679408
 21
1279.2690380543
  0
LINE
  5
264
100
AcDbEntity
  8
0
100
AcDbLine
 62
7
  6
CONTINUOUS
 10
254.5607679408
 20
1203.2690380543
 11
254.5607679408
 21
1241.2690380543
  0
LINE
  5
265
100
AcDbEntity
  8
0
100
AcDbLine
 62
7
  6
CONTINUOUS
 10
254.5607679408
 20
1279.2690380543
 11
254.5607679408
 21
1241.2690380543
  0
INSERT
  5
266
100
AcDbEntity
  8
0
100
AcDbBlockReference
 62
7
  6
CONTINUOUS
  2
_CLOSED
 10
254.5607679408
 20
1203.2690380543
 41
2.5
 42
2.5
 43
2.5
 50
270.0
  0
INSERT
  5
267
100
AcDbEntity
  8
0
100
AcDbBlockReference
 62
7
  6
CONTINUOUS
  2
_CLOSED
 10
254.5607679408
 20
1279.2690380543
 41
2.5
 42
2.5
 43
2.5
 50
90.0
  0
ENDBLK
  5
268
100
AcDbEntity
  8
0
  6
BYBLOCK
 62
0
100
AcDbBlockEnd
  0
BLOCK
  5
269
100
AcDbEntity
  8
0
100
AcDbBlockBegin
 62
7
  6
CONTINUOUS
  2
*D2
 70
65
 10
0.0
 20
0.0
  3
*D2
  1

  0
MTEXT
  5
26A
100
AcDbEntity
  8
0
100
AcDbMText
 62
7
  6
CONTINUOUS
  7
STANDARD
 71
2
 72
1
 10
362.5670702764
 20
1098.7769494606
 30
0.0
 11
1.0
 21
0.0
 31
0.0
  1
109,9
 40
10.0
 41
34.9442379182
  0
LINE
  5
26B
100
AcDbEntity
  8
0
100
AcDbLine
 62
7
  6
CONTINUOUS
 10
307.6170702764
 20
1159.1251993832
 11
307.6170702764
 21
1085.5269494606
  0
LINE
  5
26C
100
AcDbEntity
  8
0
100
AcDbLine
 62
7
  6
CONTINUOUS
 10
417.5170702764
 20
1159.1251993832
 11
417.5170702764
 21
1085.5269494606
  0
LINE
  5
26D
100
AcDbEntity
  8
0
100
AcDbLine
 62
7
  6
CONTINUOUS
 10
307.6170702764
 20
1086.2769494606
 11
362.5670702764
 21
1086.2769494606
  0
LINE
  5
26E
100
AcDbEntity
  8
0
100
AcDbLine
 62
7
  6
CONTINUOUS
 10
417.5170702764
 20
1086.2769494606
 11
362.5670702764
 21
1086.2769494606
  0
INSERT
  5
26F
100
AcDbEntity
  8
0
100
AcDbBlockReference
 62
7
  6
CONTINUOUS
  2
_CLOSED
 10
307.6170702764
 20
1086.2769494606
 41
2.5
 42
2.5
 43
2.5
 50
180.0
  0
INSERT
  5
270
100
AcDbEntity
  8
0
100
AcDbBlockReference
 62
7
  6
CONTINUOUS
  2
_CLOSED
 10
417.5170702764
 20
1086.2769494606
 41
2.5
 42
2.5
 43
2.5
  0
ENDBLK
  5
271
100
AcDbEntity
  8
0
  6
BYBLOCK
 62
0
100
AcDbBlockEnd
  0
BLOCK
  5
272
100
AcDbEntity
  8
0
100
AcDbBlockBegin
 62
7
  6
CONTINUOUS
  2
*D3
 70
65
 10
0.0
 20
0.0
  3
*D3
  1

  0
MTEXT
  5
273
100
AcDbEntity
  8
0
100
AcDbMText
 62
7
  6
CONTINUOUS
  7
STANDARD
 71
2
 72
1
 10
1815.2778055559
 20
1098.7769494606
 30
0.0
 11
1.0
 21
0.0
 31
0.0
  1
2247
 40
10.0
 41
31.0780669145
  0
LINE
  5
274
100
AcDbEntity
  8
0
100
AcDbLine
 62
7
  6
CONTINUOUS
 10
691.7778055559
 20
1157.938695861
 11
691.7778055559
 21
1085.5269494606
  0
LINE
  5
275
100
AcDbEntity
  8
0
100
AcDbLine
 62
7
  6
CONTINUOUS
 10
2938.7778055559
 20
1159.1251993832
 11
2938.7778055559
 21
1085.5269494606
  0
LINE
  5
276
100
AcDbEntity
  8
0
100
AcDbLine
 62
7
  6
CONTINUOUS
 10
691.7778055559
 20
1086.2769494606
 11
1815.2778055559
 21
1086.2769494606
  0
LINE
  5
277
100
AcDbEntity
  8
0
100
AcDbLine
 62
7
  6
CONTINUOUS
 10
2938.7778055559
 20
1086.2769494606
 11
1815.2778055559
 21
1086.2769494606
  0
INSERT
  5
278
100
AcDbEntity
  8
0
100
AcDbBlockReference
 62
7
  6
CONTINUOUS
  2
_CLOSED
 10
691.7778055559
 20
1086.2769494606
 41
2.5
 42
2.5
 43
2.5
 50
180.0
  0
INSERT
  5
279
100
AcDbEntity
  8
0
100
AcDbBlockReference
 62
7
  6
CONTINUOUS
  2
_CLOSED
 10
2938.7778055559
 20
1086.2769494606
 41
2.5
 42
2.5
 43
2.5
  0
ENDBLK
  5
27A
100
AcDbEntity
  8
0
  6
BYBLOCK
 62
0
100
AcDbBlockEnd
  0
ENDSEC
  0
SECTION
  2
ENTITIES
  0
DIMENSION
  5
27B
100
AcDbEntity
  8
0
100
AcDbDimension
 62
7
  6
CONTINUOUS
  2
*D0
 10
397.2170702764
 20
1135.3246179376
 11
362.4983154297
 21
1135.3246179376
 70
160
  3
DIMSTYLE_1
100
AcDbAlignedDimension
 13
327.9170702764
 23
1159.8751993832
 14
397.2170702764
 24
1159.8751993832
100
AcDbRotatedDimension
  0
DIMENSION
  5
27C
100
AcDbEntity
  8
0
100
AcDbDimension
 62
7
  6
CONTINUOUS
  2
*D1
 10
254.5607679408
 20
1279.2690380543
 11
254.5607679408
 21
1241.279390592
 70
160
  3
DIMSTYLE_1
100
AcDbAlignedDimension
 13
280.8204258566
 23
1203.2690380543
 14
283.1707925338
 24
1279.2690380543
 50
90.0
100
AcDbRotatedDimension
  0
DIMENSION
  5
27D
100
AcDbEntity
  8
0
100
AcDbDimension
 62
7
  6
CONTINUOUS
  2
*D2
 10
417.5170702764
 20
1086.2769494606
 11
362.9919433594
 21
1086.2769494606
 70
160
  3
DIMSTYLE_1
100
AcDbAlignedDimension
 13
307.6170702764
 23
1159.8751993832
 14
417.5170702764
 24
1159.8751993832
100
AcDbRotatedDimension
  0
DIMENSION
  5
27E
100
AcDbEntity
  8
0
100
AcDbDimension
 62
7
  6
CONTINUOUS
  2
*D3
 10
2938.7778055559
 20
1086.2769494606
 11
1815.1416015625
 21
1086.2769494606
 70
160
  3
DIMSTYLE_2
100
AcDbAlignedDimension
 13
691.7778055559
 23
1158.688695861
 14
2938.7778055559
 24
1159.8751993832
100
AcDbRotatedDimension
  0
LINE
  5
27F
100
AcDbEntity
  8
0
100
AcDbLine
 62
2
  6
CONTINUOUS
 10
3063.4803933259
 20
48.9166949944
 11
3153.4803933259
 21
48.9166949944
  0
LINE
  5
280
100
AcDbEntity
  8
0
100
AcDbLine
 62
2
  6
CONTINUOUS
 10
3063.4803933259
 20
48.9166949944
 11
3063.4803933259
 21
8.9166949944
  0
LINE
  5
281
100
AcDbEntity
  8
0
100
AcDbLine
 62
2
  6
CONTINUOUS
 10
3093.4803933259
 20
42.9166949944
 11
3153.4803933259
 21
42.9166949944
  0
LINE
  5
282
100
AcDbEntity
  8
0
100
AcDbLine
 62
2
  6
CONTINUOUS
 10
3093.4803933259
 20
36.9166949944
 11
3153.4803933259
 21
36.9166949944
  0
LINE
  5
283
100
AcDbEntity
  8
0
100
AcDbLine
 62
2
  6
CONTINUOUS
 10
3093.4803933259
 20
26.9166949944
 11
3153.4803933259
 21
26.9166949944
  0
LINE
  5
284
100
AcDbEntity
  8
0
100
AcDbLine
 62
2
  6
CONTINUOUS
 10
3063.4803933259
 20
21.9166949944
 11
3153.4803933259
 21
21.9166949944
  0
LINE
  5
285
100
AcDbEntity
  8
0
100
AcDbLine
 62
2
  6
CONTINUOUS
 10
3063.4803933259
 20
8.9166949944
 11
3153.4803933259
 21
8.9166949944
  0
LINE
  5
286
100
AcDbEntity
  8
0
100
AcDbLine
 62
2
  6
CONTINUOUS
 10
3093.4803933259
 20
48.9166949944
 11
3093.4803933259
 21
21.9166949944
  0
LINE
  5
287
100
AcDbEntity
  8
0
100
AcDbLine
 62
2
  6
CONTINUOUS
 10
3133.4803933259
 20
48.9166949944
 11
3133.4803933259
 21
36.9166949944
  0
LINE
  5
288
100
AcDbEntity
  8
0
100
AcDbLine
 62
2
  6
CONTINUOUS
 10
3153.4803933259
 20
48.9166949944
 11
3153.4803933259
 21
8.9166949944
  0
INSERT
  5
289
100
AcDbEntity
  8
0
100
AcDbBlockReference
 62
2
  6
CONTINUOUS
  2
LOGO2_BL0
 10
3077.3064403707
 20
35.4166949944
  0
MTEXT
  5
28A
100
AcDbEntity
  8
9_SOLID
100
AcDbMText
 62
2
  6
CONTINUOUS
  7
TEXTSTYLE_2
 71
1
 72
1
 10
3094.9678933259
 20
47.4166949944
 30
0.0
 11
1.0
 21
0.0
 31
0.0
  1
6F4_C_046
 40
3.0
 41
32.5714285714
  0
MTEXT
  5
28B
100
AcDbEntity
  8
0
100
AcDbMText
 62
2
  6
CONTINUOUS
  7
TEXTSTYLE_2
 71
1
 72
1
 10
3134.9678933259
 20
47.1666949944
 30
0.0
 11
1.0
 21
0.0
 31
0.0
  1
Rev:00
 40
3.5
 41
22.75
  0
MTEXT
  5
28C
100
AcDbEntity
  8
9_SOLID
100
AcDbMText
 62
2
  6
CONTINUOUS
  7
TEXTSTYLE_2
 71
1
 72
1
 10
3094.9678933259
 20
41.1666949944
 30
0.0
 11
1.0
 21
0.0
 31
0.0
  1
Scale:1:1
 40
3.5
 41
28.375
  0
MTEXT
  5
28D
100
AcDbEntity
  8
9_SOLID
100
AcDbMText
 62
2
  6
CONTINUOUS
  7
TEXTSTYLE_2
 71
1
 72
1
 10
3134.9678933259
 20
41.6666949944
 30
0.0
 11
1.0
 21
0.0
 31
0.0
  1
3200 by 2500
 40
3.5
 41
48.5
  0
MTEXT
  5
28E
100
AcDbEntity
  8
0
100
AcDbMText
 62
2
  6
CONTINUOUS
  7
TEXTSTYLE_2
 71
1
 72
1
 10
3094.9678933259
 20
33.6666949944
 30
0.0
 11
1.0
 21
0.0
 31
0.0
  1
CASS. BRENTA 2.7 A FILO NO STANDARD
 40
3.5
 41
145.0
  0
MTEXT
  5
28F
100
AcDbEntity
  8
0
100
AcDbMText
 62
2
  6
CONTINUOUS
  7
TEXTSTYLE_2
 71
1
 72
1
 10
3094.9678933259
 20
25.6666949944
 30
0.0
 11
1.0
 21
0.0
 31
0.0
  1
DATE:08/05/18
 40
2.5
 41
36.875
  0
MTEXT
  5
290
100
AcDbEntity
  8
9_SOLID
100
AcDbMText
 62
2
  6
CONTINUOUS
  7
TEXTSTYLE_2
 71
1
 72
1
 10
3064.9678933259
 20
21.6041949944
 30
0.0
 11
1.0
 21
0.0
 31
0.0
  1
Any integral or partial reproductions are prohibited \Pwithout prior authorisation of L {\Ftxt.shx;\W0.190476;\H2.250000; }& L Luce & Light s.r.l., \Pin accordance with the law in force. \PAll rights reserved.
 40
2.25
 41
134.5982142857
  0
LINE
  5
291
100
AcDbEntity
  8
0
100
AcDbLine
 62
7
  6
CONTINUOUS
 10
0.0
 20
0.0
 11
0.0
 21
2500.0
  0
LINE
  5
292
100
AcDbEntity
  8
0
100
AcDbLine
 62
7
  6
CONTINUOUS
 10
0.0
 20
0.0
 11
3200.0
 21
0.0
  0
LINE
  5
293
100
AcDbEntity
  8
0
100
AcDbLine
 62
7
  6
CONTINUOUS
 10
0.0
 20
2500.0
 11
3200.0
 21
2500.0
  0
LINE
  5
294
100
AcDbEntity
  8
0
100
AcDbLine
 62
7
  6
CONTINUOUS
 10
3200.0
 20
0.0
 11
3200.0
 21
2500.0
  0
LINE
  5
295
100
AcDbEntity
  8
6_ALL_SURFS
100
AcDbLine
 62
7
  6
CONTINUOUS
 10
310.1170702764
 20
1205.9190380543
 11
310.4170702764
 21
1205.7690380543
  0
LINE
  5
296
100
AcDbEntity
  8
6_ALL_SURFS
100
AcDbLine
 62
7
  6
CONTINUOUS
 10
313.1170702764
 20
1205.9190380543
 11
313.4170702764
 21
1205.7690380543
  0
LINE
  5
297
100
AcDbEntity
  8
6_ALL_SURFS
100
AcDbLine
 62
7
  6
CONTINUOUS
 10
316.1170702764
 20
1205.9190380543
 11
316.4170702764
 21
1205.7690380543
  0
LINE
  5
298
100
AcDbEntity
  8
6_ALL_SURFS
100
AcDbLine
 62
7
  6
CONTINUOUS
 10
319.1170702764
 20
1205.9190380543
 11
319.4170702764
 21
1205.7690380543
  0
LINE
  5
299
100
AcDbEntity
  8
6_ALL_SURFS
100
AcDbLine
 62
7
  6
CONTINUOUS
 10
322.1170702764
 20
1205.9190380543
 11
322.4170702764
 21
1205.7690380543
  0
LINE
  5
29A
100
AcDbEntity
  8
6_ALL_SURFS
100
AcDbLine
 62
7
  6
CONTINUOUS
 10
325.1170702764
 20
1205.9190380543
 11
325.4170702764
 21
1205.7690380543
  0
LINE
  5
29B
100
AcDbEntity
  8
6_ALL_SURFS
100
AcDbLine
 62
7
  6
CONTINUOUS
 10
330.3187690106
 20
1205.6098795232
 11
330.3670702764
 21
1205.5190380543
  0
LINE
  5
29C
100
AcDbEntity
  8
7_ALL_FEATURES
100
AcDbLine
 62
7
  6
CONTINUOUS
 10
415.0170702764
 20
1204.7690380543
 11
417.1625418668
 21
1204.9835852134
  0
LINE
  5
29D
100
AcDbEntity
  8
6_ALL_SURFS
100
AcDbLine
 62
7
  6
CONTINUOUS
 10
310.1170702764
 20
1204.7690380543
 11
307.971598686
 21
1204.9835852134
  0
LINE
  5
29E
100
AcDbEntity
  8
7_ALL_FEATURES
100
AcDbLine
 62
7
  6
CONTINUOUS
 10
331.804938242
 20
1210.5811700887
 11
331.9292023108
 21
1210.45690602
  0
LINE
  5
29F
100
AcDbEntity
  8
6_ALL_SURFS
100
AcDbLine
 62
7
  6
CONTINUOUS
 10
327.5170702764
 20
1213.8690380543
 11
327.5170702764
 21
1216.6690380543
  0
LINE
  5
2A0
100
AcDbEntity
  8
6_ALL_SURFS
100
AcDbLine
 62
7
  6
CONTINUOUS
 10
340.4028819587
 20
1277.3801038133
 11
341.4068561109
 21
1279.1190380543
  0
LINE
  5
2A1
100
AcDbEntity
  8
6_ALL_SURFS
100
AcDbLine
 62
7
  6
CONTINUOUS
 10
328.9170702764
 20
1203.2690380543
 11
328.1170702764
 21
1203.2690380543
  0
LINE
  5
2A2
100
AcDbEntity
  8
7_ALL_FEATURES
100
AcDbLine
 62
7
  6
CONTINUOUS
 10
329.4670702764
 20
1203.2690380543
 11
395.6670702764
 21
1203.2690380543
  0
LINE
  5
2A3
100
AcDbEntity
  8
7_ALL_FEATURES
100
AcDbLine
 62
7
  6
CONTINUOUS
 10
396.2170702764
 20
1203.2690380543
 11
397.0170702764
 21
1203.2690380543
  0
LINE
  5
2A4
100
AcDbEntity
  8
7_ALL_FEATURES
100
AcDbLine
 62
7
  6
CONTINUOUS
 10
330.3170702764
 20
1204.2690380543
 11
330.1670702764
 21
1204.2690380543
  0
LINE
  5
2A5
100
AcDbEntity
  8
6_ALL_SURFS
100
AcDbLine
 62
7
  6
CONTINUOUS
 10
330.1670702764
 20
1204.2690380543
 11
329.3170702764
 21
1204.2690380543
  0
LINE
  5
2A6
100
AcDbEntity
  8
7_ALL_FEATURES
100
AcDbLine
 62
7
  6
CONTINUOUS
 10
394.8170702764
 20
1204.2690380543
 11
395.8170702764
 21
1204.2690380543
  0
LINE
  5
2A7
100
AcDbEntity
  8
7_ALL_FEATURES
100
AcDbLine
 62
7
  6
CONTINUOUS
 10
393.6170702764
 20
1204.7690380543
 11
331.5170702764
 21
1204.7690380543
  0
LINE
  5
2A8
100
AcDbEntity
  8
6_ALL_SURFS
100
AcDbLine
 62
7
  6
CONTINUOUS
 10
327.7170702764
 20
1204.7690380543
 11
325.4170702764
 21
1204.7690380543
  0
LINE
  5
2A9
100
AcDbEntity
  8
6_ALL_SURFS
100
AcDbLine
 62
7
  6
CONTINUOUS
 10
324.8170702764
 20
1204.7690380543
 11
322.4170702764
 21
1204.7690380543
  0
LINE
  5
2AA
100
AcDbEntity
  8
6_ALL_SURFS
100
AcDbLine
 62
7
  6
CONTINUOUS
 10
321.8170702764
 20
1204.7690380543
 11
319.4170702764
 21
1204.7690380543
  0
LINE
  5
2AB
100
AcDbEntity
  8
6_ALL_SURFS
100
AcDbLine
 62
7
  6
CONTINUOUS
 10
318.8170702764
 20
1204.7690380543
 11
316.4170702764
 21
1204.7690380543
  0
LINE
  5
2AC
100
AcDbEntity
  8
6_ALL_SURFS
100
AcDbLine
 62
7
  6
CONTINUOUS
 10
315.8170702764
 20
1204.7690380543
 11
313.4170702764
 21
1204.7690380543
  0
LINE
  5
2AD
100
AcDbEntity
  8
6_ALL_SURFS
100
AcDbLine
 62
7
  6
CONTINUOUS
 10
312.8170702764
 20
1204.7690380543
 11
310.1170702764
 21
1204.7690380543
  0
LINE
  5
2AE
100
AcDbEntity
  8
7_ALL_FEATURES
100
AcDbLine
 62
7
  6
CONTINUOUS
 10
397.4170702764
 20
1204.7690380543
 11
399.7170702764
 21
1204.7690380543
  0
LINE
  5
2AF
100
AcDbEntity
  8
3_ALL_AXES
100
AcDbLine
 62
7
  6
CONTINUOUS
 10
400.3170702764
 20
1204.7690380543
 11
402.7170702764
 21
1204.7690380543
  0
LINE
  5
2B0
100
AcDbEntity
  8
3_ALL_AXES
100
AcDbLine
 62
7
  6
CONTINUOUS
 10
406.3170702764
 20
1204.7690380543
 11
408.7170702764
 21
1204.7690380543
  0
LINE
  5
2B1
100
AcDbEntity
  8
3_ALL_AXES
100
AcDbLine
 62
7
  6
CONTINUOUS
 10
403.3170702764
 20
1204.7690380543
 11
405.7170702764
 21
1204.7690380543
  0
LINE
  5
2B2
100
AcDbEntity
  8
3_ALL_AXES
100
AcDbLine
 62
7
  6
CONTINUOUS
 10
409.3170702764
 20
1204.7690380543
 11
411.7170702764
 21
1204.7690380543
  0
LINE
  5
2B3
100
AcDbEntity
  8
3_ALL_AXES
100
AcDbLine
 62
7
  6
CONTINUOUS
 10
412.3170702764
 20
1204.7690380543
 11
415.0170702764
 21
1204.7690380543
  0
LINE
  5
2B4
100
AcDbEntity
  8
7_ALL_FEATURES
100
AcDbLine
 62
7
  6
CONTINUOUS
 10
417.1233669185
 20
1205.7690380543
 11
415.3170702764
 21
1205.7690380543
  0
LINE
  5
2B5
100
AcDbEntity
  8
3_ALL_AXES
100
AcDbLine
 62
7
  6
CONTINUOUS
 10
414.7170702764
 20
1205.7690380543
 11
412.3170702764
 21
1205.7690380543
  0
LINE
  5
2B6
100
AcDbEntity
  8
3_ALL_AXES
100
AcDbLine
 62
7
  6
CONTINUOUS
 10
411.7170702764
 20
1205.7690380543
 11
409.3170702764
 21
1205.7690380543
  0
LINE
  5
2B7
100
AcDbEntity
  8
3_ALL_AXES
100
AcDbLine
 62
7
  6
CONTINUOUS
 10
405.7170702764
 20
1205.7690380543
 11
403.3170702764
 21
1205.7690380543
  0
LINE
  5
2B8
100
AcDbEntity
  8
3_ALL_AXES
100
AcDbLine
 62
7
  6
CONTINUOUS
 10
408.7170702764
 20
1205.7690380543
 11
406.3170702764
 21
1205.7690380543
  0
LINE
  5
2B9
100
AcDbEntity
  8
3_ALL_AXES
100
AcDbLine
 62
7
  6
CONTINUOUS
 10
402.7170702764
 20
1205.7690380543
 11
400.3170702764
 21
1205.7690380543
  0
LINE
  5
2BA
100
AcDbEntity
  8
3_ALL_AXES
100
AcDbLine
 62
7
  6
CONTINUOUS
 10
399.7170702764
 20
1205.7690380543
 11
397.5170702764
 21
1205.7690380543
  0
LINE
  5
2BB
100
AcDbEntity
  8
7_ALL_FEATURES
100
AcDbLine
 62
7
  6
CONTINUOUS
 10
395.7170702764
 20
1205.7690380543
 11
395.08025582
 21
1205.7690380543
  0
LINE
  5
2BC
100
AcDbEntity
  8
6_ALL_SURFS
100
AcDbLine
 62
7
  6
CONTINUOUS
 10
308.0107736343
 20
1205.7690380543
 11
309.8170702764
 21
1205.7690380543
  0
LINE
  5
2BD
100
AcDbEntity
  8
6_ALL_SURFS
100
AcDbLine
 62
7
  6
CONTINUOUS
 10
310.4170702764
 20
1205.7690380543
 11
312.8170702764
 21
1205.7690380543
  0
LINE
  5
2BE
100
AcDbEntity
  8
6_ALL_SURFS
100
AcDbLine
 62
7
  6
CONTINUOUS
 10
313.4170702764
 20
1205.7690380543
 11
315.8170702764
 21
1205.7690380543
  0
LINE
  5
2BF
100
AcDbEntity
  8
6_ALL_SURFS
100
AcDbLine
 62
7
  6
CONTINUOUS
 10
316.4170702764
 20
1205.7690380543
 11
318.8170702764
 21
1205.7690380543
  0
LINE
  5
2C0
100
AcDbEntity
  8
6_ALL_SURFS
100
AcDbLine
 62
7
  6
CONTINUOUS
 10
319.4170702764
 20
1205.7690380543
 11
321.8170702764
 21
1205.7690380543
  0
LINE
  5
2C1
100
AcDbEntity
  8
6_ALL_SURFS
100
AcDbLine
 62
7
  6
CONTINUOUS
 10
322.4170702764
 20
1205.7690380543
 11
324.8170702764
 21
1205.7690380543
  0
LINE
  5
2C2
100
AcDbEntity
  8
6_ALL_SURFS
100
AcDbLine
 62
7
  6
CONTINUOUS
 10
325.4170702764
 20
1205.7690380543
 11
327.6170702764
 21
1205.7690380543
  0
LINE
  5
2C3
100
AcDbEntity
  8
6_ALL_SURFS
100
AcDbLine
 62
7
  6
CONTINUOUS
 10
329.4170702764
 20
1205.7690380543
 11
330.0538847328
 21
1205.7690380543
  0
LINE
  5
2C4
100
AcDbEntity
  8
6_ALL_SURFS
100
AcDbLine
 62
7
  6
CONTINUOUS
 10
331.8281360353
 20
1214.483226372
 11
331.8670702764
 21
1214.4607476775
  0
LINE
  5
2C5
100
AcDbEntity
  8
6_ALL_SURFS
100
AcDbLine
 62
7
  6
CONTINUOUS
 10
327.6170702764
 20
1205.7690380543
 11
327.6170702764
 21
1207.2690380543
  0
LINE
  5
2C6
100
AcDbEntity
  8
6_ALL_SURFS
100
AcDbLine
 62
7
  6
CONTINUOUS
 10
327.9170702764
 20
1203.4690380543
 11
327.9170702764
 21
1204.5690380543
  0
LINE
  5
2C7
100
AcDbEntity
  8
6_ALL_SURFS
100
AcDbLine
 62
7
  6
CONTINUOUS
 10
329.1170702764
 20
1207.1508649116
 11
329.1170702764
 21
1206.0690380543
  0
LINE
  5
2C8
100
AcDbEntity
  8
6_ALL_SURFS
100
AcDbLine
 62
7
  6
CONTINUOUS
 10
329.1170702764
 20
1204.0690380543
 11
329.1170702764
 21
1203.4690380543
  0
LINE
  5
2C9
100
AcDbEntity
  8
7_ALL_FEATURES
100
AcDbLine
 62
7
  6
CONTINUOUS
 10
329.2670702764
 20
1204.0690380543
 11
329.2670702764
 21
1203.4690380543
  0
LINE
  5
2CA
100
AcDbEntity
  8
6_ALL_SURFS
100
AcDbLine
 62
7
  6
CONTINUOUS
 10
330.1170702764
 20
1210.6589986855
 11
330.1170702764
 21
1212.0690380543
  0
LINE
  5
2CB
100
AcDbEntity
  8
6_ALL_SURFS
100
AcDbLine
 62
7
  6
CONTINUOUS
 10
330.3670702764
 20
1205.5190380543
 11
330.3670702764
 21
1204.4690380543
  0
LINE
  5
2CC
100
AcDbEntity
  8
6_ALL_SURFS
100
AcDbLine
 62
7
  6
CONTINUOUS
 10
330.4170702764
 20
1218.4690380543
 11
330.4170702764
 21
1253.691423439
  0
LINE
  5
2CD
100
AcDbEntity
  8
7_ALL_FEATURES
100
AcDbLine
 62
7
  6
CONTINUOUS
 10
330.5170702764
 20
1205.0890380543
 11
330.5170702764
 21
1204.4690380543
  0
LINE
  5
2CE
100
AcDbEntity
  8
7_ALL_FEATURES
100
AcDbLine
 62
7
  6
CONTINUOUS
 10
331.3170702764
 20
1204.9690380543
 11
331.3170702764
 21
1205.0890380543
  0
LINE
  5
2CF
100
AcDbEntity
  8
7_ALL_FEATURES
100
AcDbLine
 62
7
  6
CONTINUOUS
 10
331.7170702764
 20
1212.3447739856
 11
331.7170702764
 21
1210.793302123
  0
LINE
  5
2D0
100
AcDbEntity
  8
6_ALL_SURFS
100
AcDbLine
 62
7
  6
CONTINUOUS
 10
335.4884248776
 20
1271.864442552
 11
332.0659601597
 21
1254.2573879429
  0
LINE
  5
2D1
100
AcDbEntity
  8
6_ALL_SURFS
100
AcDbLine
 62
7
  6
CONTINUOUS
 10
330.5090633235
 20
1254.6461316407
 11
334.012245899
 21
1272.6554505149
  0
LINE
  5
2D2
100
AcDbEntity
  8
6_ALL_SURFS
100
AcDbLine
 62
7
  6
CONTINUOUS
 10
332.6644642334
 20
1253.4509858357
 11
332.0351624902
 21
1251.7219935061
  0
LINE
  5
2D3
100
AcDbEntity
  8
6_ALL_SURFS
100
AcDbLine
 62
7
  6
CONTINUOUS
 10
331.7170702764
 20
1208.7690380543
 11
330.6462866181
 21
1208.7690380543
  0
LINE
  5
2D4
100
AcDbEntity
  8
7_ALL_FEATURES
100
AcDbLine
 62
7
  6
CONTINUOUS
 10
393.4170702764
 20
1208.7690380543
 11
394.4878539347
 21
1208.7690380543
  0
LINE
  5
2D5
100
AcDbEntity
  8
6_ALL_SURFS
100
AcDbLine
 62
7
  6
CONTINUOUS
 10
332.0170702764
 20
1251.6193874631
 11
332.0170702764
 21
1216.3371360523
  0
LINE
  5
2D6
100
AcDbEntity
  8
7_ALL_FEATURES
100
AcDbLine
 62
7
  6
CONTINUOUS
 10
332.0170702764
 20
1214.2009400563
 11
332.0170702764
 21
1212.893302123
  0
LINE
  5
2D7
100
AcDbEntity
  8
7_ALL_FEATURES
100
AcDbLine
 62
7
  6
CONTINUOUS
 10
332.0170702764
 20
1210.2447739856
 11
332.0170702764
 21
1209.0690380543
  0
LINE
  5
2D8
100
AcDbEntity
  8
6_ALL_SURFS
100
AcDbLine
 62
7
  6
CONTINUOUS
 10
335.3170702764
 20
1278.2690380543
 11
335.3170702764
 21
1278.9690380543
  0
LINE
  5
2D9
100
AcDbEntity
  8
7_ALL_FEATURES
100
AcDbLine
 62
7
  6
CONTINUOUS
 10
361.0670702764
 20
1277.2690380543
 11
360.8670702764
 21
1277.0690380543
  0
LINE
  5
2DA
100
AcDbEntity
  8
6_ALL_SURFS
100
AcDbLine
 62
7
  6
CONTINUOUS
 10
329.8170702764
 20
1212.3690380543
 11
329.0170702764
 21
1212.3690380543
  0
LINE
  5
2DB
100
AcDbEntity
  8
7_ALL_FEATURES
100
AcDbLine
 62
7
  6
CONTINUOUS
 10
395.3170702764
 20
1212.3690380543
 11
396.1170702764
 21
1212.3690380543
  0
LINE
  5
2DC
100
AcDbEntity
  8
7_ALL_FEATURES
100
AcDbLine
 62
7
  6
CONTINUOUS
 10
396.1170702764
 20
1218.1690380543
 11
395.0170702764
 21
1218.1690380543
  0
LINE
  5
2DD
100
AcDbEntity
  8
6_ALL_SURFS
100
AcDbLine
 62
7
  6
CONTINUOUS
 10
329.0170702764
 20
1218.1690380543
 11
330.1170702764
 21
1218.1690380543
  0
LINE
  5
2DE
100
AcDbEntity
  8
6_ALL_SURFS
100
AcDbLine
 62
7
  6
CONTINUOUS
 10
342.4170702764
 20
1278.9690380543
 11
342.4170702764
 21
1276.0190380544
  0
LINE
  5
2DF
100
AcDbEntity
  8
3_ALL_AXES
100
AcDbLine
 62
7
  6
CONTINUOUS
 10
400.3170702764
 20
1205.7690380543
 11
400.0170702764
 21
1205.9190380543
  0
LINE
  5
2E0
100
AcDbEntity
  8
3_ALL_AXES
100
AcDbLine
 62
7
  6
CONTINUOUS
 10
403.3170702764
 20
1205.7690380543
 11
403.0170702764
 21
1205.9190380543
  0
LINE
  5
2E1
100
AcDbEntity
  8
3_ALL_AXES
100
AcDbLine
 62
7
  6
CONTINUOUS
 10
406.3170702764
 20
1205.7690380543
 11
406.0170702764
 21
1205.9190380543
  0
LINE
  5
2E2
100
AcDbEntity
  8
3_ALL_AXES
100
AcDbLine
 62
7
  6
CONTINUOUS
 10
409.3170702764
 20
1205.7690380543
 11
409.0170702764
 21
1205.9190380543
  0
LINE
  5
2E3
100
AcDbEntity
  8
3_ALL_AXES
100
AcDbLine
 62
7
  6
CONTINUOUS
 10
412.3170702764
 20
1205.7690380543
 11
412.0170702764
 21
1205.9190380543
  0
LINE
  5
2E4
100
AcDbEntity
  8
7_ALL_FEATURES
100
AcDbLine
 62
7
  6
CONTINUOUS
 10
355.0670702764
 20
1272.2690380543
 11
355.0670702764
 21
1271.2690380543
  0
LINE
  5
2E5
100
AcDbEntity
  8
7_ALL_FEATURES
100
AcDbLine
 62
7
  6
CONTINUOUS
 10
358.5670702764
 20
1269.240834824
 11
358.5670702764
 21
1271.2690380543
  0
LINE
  5
2E6
100
AcDbEntity
  8
3_ALL_AXES
100
AcDbLine
 62
7
  6
CONTINUOUS
 10
415.3170702764
 20
1205.7690380543
 11
415.0170702764
 21
1205.9190380543
  0
LINE
  5
2E7
100
AcDbEntity
  8
7_ALL_FEATURES
100
AcDbLine
 62
7
  6
CONTINUOUS
 10
393.2670702764
 20
1216.0773284312
 11
393.3060045175
 21
1216.0548497366
  0
LINE
  5
2E8
100
AcDbEntity
  8
6_ALL_SURFS
100
AcDbLine
 62
7
  6
CONTINUOUS
 10
358.9670702764
 20
1274.3690380543
 11
358.9670702764
 21
1278.2690380543
  0
LINE
  5
2E9
100
AcDbEntity
  8
7_ALL_FEATURES
100
AcDbLine
 62
7
  6
CONTINUOUS
 10
360.5670702764
 20
1268.4230713619
 11
360.5670702764
 21
1268.4392256375
  0
LINE
  5
2EA
100
AcDbEntity
  8
6_ALL_SURFS
100
AcDbLine
 62
7
  6
CONTINUOUS
 10
360.8670702764
 20
1277.3690380543
 11
360.8670702764
 21
1272.5690380543
  0
LINE
  5
2EB
100
AcDbEntity
  8
7_ALL_FEATURES
100
AcDbLine
 62
7
  6
CONTINUOUS
 10
362.0670702764
 20
1268.2003493291
 11
362.0670702764
 21
1268.4392256375
  0
LINE
  5
2EC
100
AcDbEntity
  8
7_ALL_FEATURES
100
AcDbLine
 62
7
  6
CONTINUOUS
 10
363.0670702764
 20
1268.4392256375
 11
363.0670702764
 21
1268.2003493291
  0
LINE
  5
2ED
100
AcDbEntity
  8
6_ALL_SURFS
100
AcDbLine
 62
7
  6
CONTINUOUS
 10
328.020039724
 20
1208.2920355944
 11
330.0364763869
 21
1210.4543991775
  0
LINE
  5
2EE
100
AcDbEntity
  8
6_ALL_SURFS
100
AcDbLine
 62
7
  6
CONTINUOUS
 10
330.4268805076
 20
1208.6736375623
 11
329.1976641659
 21
1207.3554644197
  0
LINE
  5
2EF
100
AcDbEntity
  8
3_ALL_AXES
100
AcDbLine
 62
7
  6
CONTINUOUS
 10
330.2353171853
 20
1207.8418373983
 11
329.8708893721
 21
1207.4510364144
  0
LINE
  5
2F0
100
AcDbEntity
  8
3_ALL_AXES
100
AcDbLine
 62
7
  6
CONTINUOUS
 10
330.4559723334
 20
1206.9054377263
 11
330.8204001466
 21
1207.2962387103
  0
LINE
  5
2F1
100
AcDbEntity
  8
7_ALL_FEATURES
100
AcDbLine
 62
7
  6
CONTINUOUS
 10
331.9292023108
 20
1212.6811700887
 11
331.804938242
 21
1212.55690602
  0
LINE
  5
2F2
100
AcDbEntity
  8
7_ALL_FEATURES
100
AcDbLine
 62
7
  6
CONTINUOUS
 10
392.8762982811
 20
1253.9182374581
 11
392.6489780626
 21
1253.8354996649
  0
LINE
  5
2F3
100
AcDbEntity
  8
3_ALL_AXES
100
AcDbLine
 62
7
  6
CONTINUOUS
 10
394.3137404062
 20
1207.2962387103
 11
394.6781682194
 21
1206.9054377263
  0
LINE
  5
2F4
100
AcDbEntity
  8
6_ALL_SURFS
100
AcDbLine
 62
7
  6
CONTINUOUS
 10
337.8272844419
 20
1279.1190380543
 11
338.8312585941
 21
1277.3801038133
  0
LINE
  5
2F5
100
AcDbEntity
  8
7_ALL_FEATURES
100
AcDbLine
 62
7
  6
CONTINUOUS
 10
364.2670702764
 20
1277.3690380543
 11
364.2670702764
 21
1272.5690380543
  0
LINE
  5
2F6
100
AcDbEntity
  8
7_ALL_FEATURES
100
AcDbLine
 62
7
  6
CONTINUOUS
 10
364.5670702764
 20
1268.4392256375
 11
364.5670702764
 21
1268.4230713619
  0
LINE
  5
2F7
100
AcDbEntity
  8
7_ALL_FEATURES
100
AcDbLine
 62
7
  6
CONTINUOUS
 10
366.1670702764
 20
1274.3690380543
 11
366.1670702764
 21
1278.2690380543
  0
LINE
  5
2F8
100
AcDbEntity
  8
7_ALL_FEATURES
100
AcDbLine
 62
7
  6
CONTINUOUS
 10
366.5670702764
 20
1269.240834824
 11
366.5670702764
 21
1271.2690380543
  0
LINE
  5
2F9
100
AcDbEntity
  8
7_ALL_FEATURES
100
AcDbLine
 62
7
  6
CONTINUOUS
 10
387.3068561109
 20
1279.1190380543
 11
386.3028819587
 21
1277.3801038133
  0
LINE
  5
2FA
100
AcDbEntity
  8
6_ALL_SURFS
100
AcDbLine
 62
7
  6
CONTINUOUS
 10
332.2578422717
 20
1253.9182374581
 11
332.4851624902
 21
1253.8354996649
  0
LINE
  5
2FB
100
AcDbEntity
  8
7_ALL_FEATURES
100
AcDbLine
 62
7
  6
CONTINUOUS
 10
393.204938242
 20
1212.6811700887
 11
393.3292023108
 21
1212.55690602
  0
LINE
  5
2FC
100
AcDbEntity
  8
3_ALL_AXES
100
AcDbLine
 62
7
  6
CONTINUOUS
 10
395.2632511807
 20
1207.4510364144
 11
394.8988233675
 21
1207.8418373983
  0
LINE
  5
2FD
100
AcDbEntity
  8
7_ALL_FEATURES
100
AcDbLine
 62
7
  6
CONTINUOUS
 10
394.7072600452
 20
1208.6736375623
 11
395.9364763869
 21
1207.3554644197
  0
LINE
  5
2FE
100
AcDbEntity
  8
7_ALL_FEATURES
100
AcDbLine
 62
7
  6
CONTINUOUS
 10
397.1141008288
 20
1208.2920355944
 11
395.0976641659
 21
1210.4543991775
  0
LINE
  5
2FF
100
AcDbEntity
  8
7_ALL_FEATURES
100
AcDbLine
 62
7
  6
CONTINUOUS
 10
370.0670702764
 20
1271.2690380543
 11
370.0670702764
 21
1272.2690380543
  0
LINE
  5
300
100
AcDbEntity
  8
6_ALL_SURFS
100
AcDbLine
 62
7
  6
CONTINUOUS
 10
331.8670702764
 20
1216.0773284312
 11
331.8281360353
 21
1216.0548497366
  0
LINE
  5
301
100
AcDbEntity
  8
6_ALL_SURFS
100
AcDbLine
 62
7
  6
CONTINUOUS
 10
309.8170702764
 20
1205.7690380543
 11
310.1170702764
 21
1205.9190380543
  0
LINE
  5
302
100
AcDbEntity
  8
6_ALL_SURFS
100
AcDbLine
 62
7
  6
CONTINUOUS
 10
312.8170702764
 20
1205.7690380543
 11
313.1170702764
 21
1205.9190380543
  0
LINE
  5
303
100
AcDbEntity
  8
6_ALL_SURFS
100
AcDbLine
 62
7
  6
CONTINUOUS
 10
315.8170702764
 20
1205.7690380543
 11
316.1170702764
 21
1205.9190380543
  0
LINE
  5
304
100
AcDbEntity
  8
6_ALL_SURFS
100
AcDbLine
 62
7
  6
CONTINUOUS
 10
318.8170702764
 20
1205.7690380543
 11
319.1170702764
 21
1205.9190380543
  0
LINE
  5
305
100
AcDbEntity
  8
6_ALL_SURFS
100
AcDbLine
 62
7
  6
CONTINUOUS
 10
321.8170702764
 20
1205.7690380543
 11
322.1170702764
 21
1205.9190380543
  0
LINE
  5
306
100
AcDbEntity
  8
6_ALL_SURFS
100
AcDbLine
 62
7
  6
CONTINUOUS
 10
324.8170702764
 20
1205.7690380543
 11
325.1170702764
 21
1205.9190380543
  0
LINE
  5
307
100
AcDbEntity
  8
7_ALL_FEATURES
100
AcDbLine
 62
7
  6
CONTINUOUS
 10
382.7170702764
 20
1278.9690380543
 11
382.7170702764
 21
1276.0190380544
  0
LINE
  5
308
100
AcDbEntity
  8
7_ALL_FEATURES
100
AcDbLine
 62
7
  6
CONTINUOUS
 10
389.8170702764
 20
1278.2690380543
 11
389.8170702764
 21
1278.9690380543
  0
LINE
  5
309
100
AcDbEntity
  8
7_ALL_FEATURES
100
AcDbLine
 62
7
  6
CONTINUOUS
 10
364.0670702764
 20
1277.2690380543
 11
364.2670702764
 21
1277.0690380543
  0
LINE
  5
30A
100
AcDbEntity
  8
7_ALL_FEATURES
100
AcDbLine
 62
7
  6
CONTINUOUS
 10
393.1170702764
 20
1251.6193874631
 11
393.1170702764
 21
1216.3371360523
  0
LINE
  5
30B
100
AcDbEntity
  8
7_ALL_FEATURES
100
AcDbLine
 62
7
  6
CONTINUOUS
 10
393.1170702764
 20
1214.2009400563
 11
393.1170702764
 21
1212.893302123
  0
LINE
  5
30C
100
AcDbEntity
  8
7_ALL_FEATURES
100
AcDbLine
 62
7
  6
CONTINUOUS
 10
393.1170702764
 20
1210.2447739856
 11
393.1170702764
 21
1209.0690380543
  0
LINE
  5
30D
100
AcDbEntity
  8
7_ALL_FEATURES
100
AcDbLine
 62
7
  6
CONTINUOUS
 10
393.4170702764
 20
1212.3447739856
 11
393.4170702764
 21
1210.793302123
  0
LINE
  5
30E
100
AcDbEntity
  8
7_ALL_FEATURES
100
AcDbLine
 62
7
  6
CONTINUOUS
 10
393.8170702764
 20
1205.0890380543
 11
393.8170702764
 21
1204.9690380543
  0
LINE
  5
30F
100
AcDbEntity
  8
7_ALL_FEATURES
100
AcDbLine
 62
7
  6
CONTINUOUS
 10
366.5670702764
 20
1269.240834824
 11
358.5670702764
 21
1269.240834824
  0
LINE
  5
310
100
AcDbEntity
  8
7_ALL_FEATURES
100
AcDbLine
 62
7
  6
CONTINUOUS
 10
355.0670702764
 20
1271.2690380543
 11
370.0670702764
 21
1271.2690380543
  0
LINE
  5
311
100
AcDbEntity
  8
6_ALL_SURFS
100
AcDbLine
 62
7
  6
CONTINUOUS
 10
360.5670702764
 20
1272.2690380543
 11
335.9792384693
 21
1272.2690380543
  0
LINE
  5
312
100
AcDbEntity
  8
7_ALL_FEATURES
100
AcDbLine
 62
7
  6
CONTINUOUS
 10
360.5670702764
 20
1272.2690380543
 11
389.1549020835
 21
1272.2690380543
  0
LINE
  5
313
100
AcDbEntity
  8
7_ALL_FEATURES
100
AcDbLine
 62
7
  6
CONTINUOUS
 10
394.6170702764
 20
1204.4690380543
 11
394.6170702764
 21
1205.0890380543
  0
LINE
  5
314
100
AcDbEntity
  8
7_ALL_FEATURES
100
AcDbLine
 62
7
  6
CONTINUOUS
 10
394.7170702764
 20
1218.4690380543
 11
394.7170702764
 21
1253.691423439
  0
LINE
  5
315
100
AcDbEntity
  8
7_ALL_FEATURES
100
AcDbLine
 62
7
  6
CONTINUOUS
 10
394.7670702764
 20
1205.5190380543
 11
394.7670702764
 21
1204.4690380543
  0
LINE
  5
316
100
AcDbEntity
  8
7_ALL_FEATURES
100
AcDbLine
 62
7
  6
CONTINUOUS
 10
395.0170702764
 20
1210.6589986855
 11
395.0170702764
 21
1212.0690380543
  0
LINE
  5
317
100
AcDbEntity
  8
7_ALL_FEATURES
100
AcDbLine
 62
7
  6
CONTINUOUS
 10
395.8670702764
 20
1203.4690380543
 11
395.8670702764
 21
1204.0690380543
  0
LINE
  5
318
100
AcDbEntity
  8
7_ALL_FEATURES
100
AcDbLine
 62
7
  6
CONTINUOUS
 10
396.0170702764
 20
1207.1508649116
 11
396.0170702764
 21
1206.0690380543
  0
LINE
  5
319
100
AcDbEntity
  8
7_ALL_FEATURES
100
AcDbLine
 62
7
  6
CONTINUOUS
 10
396.0170702764
 20
1204.0690380543
 11
396.0170702764
 21
1203.4690380543
  0
LINE
  5
31A
100
AcDbEntity
  8
7_ALL_FEATURES
100
AcDbLine
 62
7
  6
CONTINUOUS
 10
397.2170702764
 20
1203.4690380543
 11
397.2170702764
 21
1204.5690380543
  0
LINE
  5
31B
100
AcDbEntity
  8
7_ALL_FEATURES
100
AcDbLine
 62
7
  6
CONTINUOUS
 10
397.5170702764
 20
1205.7690380543
 11
397.5170702764
 21
1207.2690380543
  0
LINE
  5
31C
100
AcDbEntity
  8
7_ALL_FEATURES
100
AcDbLine
 62
7
  6
CONTINUOUS
 10
397.6170702764
 20
1213.8690380543
 11
397.6170702764
 21
1216.6690380543
  0
LINE
  5
31D
100
AcDbEntity
  8
7_ALL_FEATURES
100
AcDbLine
 62
7
  6
CONTINUOUS
 10
389.6494925679
 20
1273.8690380543
 11
388.3749541088
 21
1273.8690380543
  0
LINE
  5
31E
100
AcDbEntity
  8
7_ALL_FEATURES
100
AcDbLine
 62
7
  6
CONTINUOUS
 10
382.659186444
 20
1273.8690380543
 11
366.6670702764
 21
1273.8690380543
  0
LINE
  5
31F
100
AcDbEntity
  8
6_ALL_SURFS
100
AcDbLine
 62
7
  6
CONTINUOUS
 10
335.4846479848
 20
1273.8690380543
 11
336.759186444
 21
1273.8690380543
  0
LINE
  5
320
100
AcDbEntity
  8
6_ALL_SURFS
100
AcDbLine
 62
7
  6
CONTINUOUS
 10
342.4749541088
 20
1273.8690380543
 11
358.4670702764
 21
1273.8690380543
  0
LINE
  5
321
100
AcDbEntity
  8
7_ALL_FEATURES
100
AcDbLine
 62
7
  6
CONTINUOUS
 10
364.2670702764
 20
1276.7690380543
 11
360.8670702764
 21
1276.7690380543
  0
LINE
  5
322
100
AcDbEntity
  8
7_ALL_FEATURES
100
AcDbLine
 62
7
  6
CONTINUOUS
 10
364.0670702764
 20
1277.2690380543
 11
361.0670702764
 21
1277.2690380543
  0
LINE
  5
323
100
AcDbEntity
  8
7_ALL_FEATURES
100
AcDbLine
 62
7
  6
CONTINUOUS
 10
392.4696763194
 20
1253.4509858357
 11
393.0989780626
 21
1251.7219935061
  0
LINE
  5
324
100
AcDbEntity
  8
7_ALL_FEATURES
100
AcDbLine
 62
7
  6
CONTINUOUS
 10
394.6250772293
 20
1254.6461316407
 11
391.1218946538
 21
1272.6554505149
  0
LINE
  5
325
100
AcDbEntity
  8
7_ALL_FEATURES
100
AcDbLine
 62
7
  6
CONTINUOUS
 10
389.6457156752
 20
1271.864442552
 11
393.0681803931
 21
1254.2573879429
  0
LINE
  5
326
100
AcDbEntity
  8
7_ALL_FEATURES
100
AcDbLine
 62
7
  6
CONTINUOUS
 10
393.3060045175
 20
1214.483226372
 11
393.2670702764
 21
1214.4607476775
  0
LINE
  5
327
100
AcDbEntity
  8
7_ALL_FEATURES
100
AcDbLine
 62
7
  6
CONTINUOUS
 10
363.9670702764
 20
1277.6690380543
 11
361.1670702764
 21
1277.6690380543
  0
LINE
  5
328
100
AcDbEntity
  8
6_ALL_SURFS
100
AcDbLine
 62
7
  6
CONTINUOUS
 10
336.9926655819
 20
1277.9690380543
 11
335.6170702764
 21
1277.9690380543
  0
LINE
  5
329
100
AcDbEntity
  8
7_ALL_FEATURES
100
AcDbLine
 62
7
  6
CONTINUOUS
 10
388.1414749709
 20
1277.9690380543
 11
389.5170702764
 21
1277.9690380543
  0
LINE
  5
32A
100
AcDbEntity
  8
7_ALL_FEATURES
100
AcDbLine
 62
7
  6
CONTINUOUS
 10
389.5170702764
 20
1279.2690380543
 11
387.566663732
 21
1279.2690380543
  0
LINE
  5
32B
100
AcDbEntity
  8
7_ALL_FEATURES
100
AcDbLine
 62
7
  6
CONTINUOUS
 10
383.4674768208
 20
1279.2690380543
 11
383.0170702764
 21
1279.2690380543
  0
LINE
  5
32C
100
AcDbEntity
  8
6_ALL_SURFS
100
AcDbLine
 62
7
  6
CONTINUOUS
 10
335.6170702764
 20
1279.2690380543
 11
337.5674768208
 21
1279.2690380543
  0
LINE
  5
32D
100
AcDbEntity
  8
6_ALL_SURFS
100
AcDbLine
 62
7
  6
CONTINUOUS
 10
341.666663732
 20
1279.2690380543
 11
342.1170702764
 21
1279.2690380543
  0
LINE
  5
32E
100
AcDbEntity
  8
7_ALL_FEATURES
100
AcDbLine
 62
7
  6
CONTINUOUS
 10
359.9670702764
 20
1279.2690380543
 11
365.1670702764
 21
1279.2690380543
  0
LINE
  5
32F
100
AcDbEntity
  8
7_ALL_FEATURES
100
AcDbLine
 62
7
  6
CONTINUOUS
 10
384.7312585941
 20
1277.3801038133
 11
383.7272844419
 21
1279.1190380543
  0
LINE
  5
330
100
AcDbEntity
  8
7_ALL_FEATURES
100
AcDbLine
 62
7
  6
CONTINUOUS
 10
393.3292023108
 20
1210.5811700887
 11
393.204938242
 21
1210.45690602
  0
LINE
  5
331
100
AcDbEntity
  8
7_ALL_FEATURES
100
AcDbLine
 62
7
  6
CONTINUOUS
 10
394.8153715422
 20
1205.6098795232
 11
394.7670702764
 21
1205.5190380543
  0
LINE
  5
332
100
AcDbEntity
  8
3_ALL_AXES
100
AcDbLine
 62
7
  6
CONTINUOUS
 10
400.0170702764
 20
1205.9190380543
 11
399.7170702764
 21
1205.7690380543
  0
LINE
  5
333
100
AcDbEntity
  8
3_ALL_AXES
100
AcDbLine
 62
7
  6
CONTINUOUS
 10
403.0170702764
 20
1205.9190380543
 11
402.7170702764
 21
1205.7690380543
  0
LINE
  5
334
100
AcDbEntity
  8
3_ALL_AXES
100
AcDbLine
 62
7
  6
CONTINUOUS
 10
406.0170702764
 20
1205.9190380543
 11
405.7170702764
 21
1205.7690380543
  0
LINE
  5
335
100
AcDbEntity
  8
3_ALL_AXES
100
AcDbLine
 62
7
  6
CONTINUOUS
 10
409.0170702764
 20
1205.9190380543
 11
408.7170702764
 21
1205.7690380543
  0
LINE
  5
336
100
AcDbEntity
  8
3_ALL_AXES
100
AcDbLine
 62
7
  6
CONTINUOUS
 10
412.0170702764
 20
1205.9190380543
 11
411.7170702764
 21
1205.7690380543
  0
LINE
  5
337
100
AcDbEntity
  8
3_ALL_AXES
100
AcDbLine
 62
7
  6
CONTINUOUS
 10
415.0170702764
 20
1205.9190380543
 11
414.7170702764
 21
1205.7690380543
  0
LINE
  5
338
100
AcDbEntity
  8
6_ALL_SURFS
100
AcDbLine
 62
7
  6
CONTINUOUS
 10
691.7778055559
 20
1203.2690380543
 11
691.7778055559
 21
1279.2690380543
  0
LINE
  5
339
100
AcDbEntity
  8
6_ALL_SURFS
100
AcDbLine
 62
7
  6
CONTINUOUS
 10
2938.7778055559
 20
1203.2690380543
 11
691.7778055559
 21
1203.2690380543
  0
LINE
  5
33A
100
AcDbEntity
  8
6_ALL_SURFS
100
AcDbLine
 62
9
  6
CONTINUOUS
 10
2938.7778055559
 20
1203.4690380543
 11
691.7778055559
 21
1203.4690380543
  0
LINE
  5
33B
100
AcDbEntity
  8
6_ALL_SURFS
100
AcDbLine
 62
9
  6
CONTINUOUS
 10
691.7778055559
 20
1204.5690380543
 11
2938.7778055559
 21
1204.5690380543
  0
LINE
  5
33C
100
AcDbEntity
  8
6_ALL_SURFS
100
AcDbLine
 62
7
  6
CONTINUOUS
 10
691.7778055559
 20
1204.7690380543
 11
811.9943977622
 21
1204.7690380543
  0
LINE
  5
33D
100
AcDbEntity
  8
6_ALL_SURFS
100
AcDbLine
 62
7
  6
CONTINUOUS
 10
812.1464564621
 20
1204.7690380543
 11
818.4091546498
 21
1204.7690380543
  0
LINE
  5
33E
100
AcDbEntity
  8
6_ALL_SURFS
100
AcDbLine
 62
7
  6
CONTINUOUS
 10
818.5612133496
 20
1204.7690380543
 11
1061.9943977622
 21
1204.7690380543
  0
LINE
  5
33F
100
AcDbEntity
  8
6_ALL_SURFS
100
AcDbLine
 62
7
  6
CONTINUOUS
 10
1062.1464564621
 20
1204.7690380543
 11
1068.4091546498
 21
1204.7690380543
  0
LINE
  5
340
100
AcDbEntity
  8
6_ALL_SURFS
100
AcDbLine
 62
7
  6
CONTINUOUS
 10
1068.5612133496
 20
1204.7690380543
 11
1311.9943977622
 21
1204.7690380543
  0
LINE
  5
341
100
AcDbEntity
  8
6_ALL_SURFS
100
AcDbLine
 62
7
  6
CONTINUOUS
 10
1312.1464564621
 20
1204.7690380543
 11
1318.4091546498
 21
1204.7690380543
  0
LINE
  5
342
100
AcDbEntity
  8
6_ALL_SURFS
100
AcDbLine
 62
7
  6
CONTINUOUS
 10
1318.5612133496
 20
1204.7690380543
 11
1561.9943977622
 21
1204.7690380543
  0
LINE
  5
343
100
AcDbEntity
  8
6_ALL_SURFS
100
AcDbLine
 62
7
  6
CONTINUOUS
 10
1562.1464564621
 20
1204.7690380543
 11
1568.4091546498
 21
1204.7690380543
  0
LINE
  5
344
100
AcDbEntity
  8
6_ALL_SURFS
100
AcDbLine
 62
7
  6
CONTINUOUS
 10
1568.5612133496
 20
1204.7690380543
 11
1811.9943977622
 21
1204.7690380543
  0
LINE
  5
345
100
AcDbEntity
  8
6_ALL_SURFS
100
AcDbLine
 62
7
  6
CONTINUOUS
 10
1812.1464564621
 20
1204.7690380543
 11
1818.4091546498
 21
1204.7690380543
  0
LINE
  5
346
100
AcDbEntity
  8
6_ALL_SURFS
100
AcDbLine
 62
7
  6
CONTINUOUS
 10
1818.5612133496
 20
1204.7690380543
 11
2061.9943977622
 21
1204.7690380543
  0
LINE
  5
347
100
AcDbEntity
  8
6_ALL_SURFS
100
AcDbLine
 62
7
  6
CONTINUOUS
 10
2062.1464564621
 20
1204.7690380543
 11
2068.4091546498
 21
1204.7690380543
  0
LINE
  5
348
100
AcDbEntity
  8
6_ALL_SURFS
100
AcDbLine
 62
7
  6
CONTINUOUS
 10
2068.5612133496
 20
1204.7690380543
 11
2311.9943977622
 21
1204.7690380543
  0
LINE
  5
349
100
AcDbEntity
  8
6_ALL_SURFS
100
AcDbLine
 62
7
  6
CONTINUOUS
 10
2312.1464564621
 20
1204.7690380543
 11
2318.4091546498
 21
1204.7690380543
  0
LINE
  5
34A
100
AcDbEntity
  8
6_ALL_SURFS
100
AcDbLine
 62
7
  6
CONTINUOUS
 10
2318.5612133496
 20
1204.7690380543
 11
2561.9943977622
 21
1204.7690380543
  0
LINE
  5
34B
100
AcDbEntity
  8
6_ALL_SURFS
100
AcDbLine
 62
7
  6
CONTINUOUS
 10
2562.1464564621
 20
1204.7690380543
 11
2568.4091546498
 21
1204.7690380543
  0
LINE
  5
34C
100
AcDbEntity
  8
6_ALL_SURFS
100
AcDbLine
 62
7
  6
CONTINUOUS
 10
2568.5612133496
 20
1204.7690380543
 11
2811.9943977622
 21
1204.7690380543
  0
LINE
  5
34D
100
AcDbEntity
  8
6_ALL_SURFS
100
AcDbLine
 62
7
  6
CONTINUOUS
 10
2812.1464564621
 20
1204.7690380543
 11
2818.4091546498
 21
1204.7690380543
  0
LINE
  5
34E
100
AcDbEntity
  8
6_ALL_SURFS
100
AcDbLine
 62
7
  6
CONTINUOUS
 10
2818.5612133496
 20
1204.7690380543
 11
2938.7778055559
 21
1204.7690380543
  0
LINE
  5
34F
100
AcDbEntity
  8
6_ALL_SURFS
100
AcDbLine
 62
9
  6
CONTINUOUS
 10
691.7778055559
 20
1204.9835852134
 11
2938.7778055559
 21
1204.9835852134
  0
LINE
  5
350
100
AcDbEntity
  8
6_ALL_SURFS
100
AcDbLine
 62
7
  6
CONTINUOUS
 10
691.7778055559
 20
1205.7690380543
 11
2938.7778055559
 21
1205.7690380543
  0
LINE
  5
351
100
AcDbEntity
  8
6_ALL_SURFS
100
AcDbLine
 62
7
  6
CONTINUOUS
 10
691.7778055559
 20
1205.9190380543
 11
2938.7778055559
 21
1205.9190380543
  0
LINE
  5
352
100
AcDbEntity
  8
6_ALL_SURFS
100
AcDbLine
 62
9
  6
CONTINUOUS
 10
2938.7778055559
 20
1207.2690380543
 11
691.7778055559
 21
1207.2690380543
  0
LINE
  5
353
100
AcDbEntity
  8
6_ALL_SURFS
100
AcDbLine
 62
9
  6
CONTINUOUS
 10
2938.7778055559
 20
1208.2920355944
 11
691.7778055559
 21
1208.2920355944
  0
LINE
  5
354
100
AcDbEntity
  8
6_ALL_SURFS
100
AcDbLine
 62
9
  6
CONTINUOUS
 10
691.7778055559
 20
1210.4543991775
 11
2938.7778055559
 21
1210.4543991775
  0
LINE
  5
355
100
AcDbEntity
  8
6_ALL_SURFS
100
AcDbLine
 62
9
  6
CONTINUOUS
 10
691.7778055559
 20
1210.6589986855
 11
2938.7778055559
 21
1210.6589986855
  0
LINE
  5
356
100
AcDbEntity
  8
6_ALL_SURFS
100
AcDbLine
 62
9
  6
CONTINUOUS
 10
691.7778055559
 20
1212.0690380543
 11
2938.7778055559
 21
1212.0690380543
  0
LINE
  5
357
100
AcDbEntity
  8
6_ALL_SURFS
100
AcDbLine
 62
7
  6
CONTINUOUS
 10
2938.7778055559
 20
1212.3690380543
 11
691.7778055559
 21
1212.3690380543
  0
LINE
  5
358
100
AcDbEntity
  8
6_ALL_SURFS
100
AcDbLine
 62
9
  6
CONTINUOUS
 10
2938.7778055559
 20
1213.8690380543
 11
691.7778055559
 21
1213.8690380543
  0
LINE
  5
359
100
AcDbEntity
  8
6_ALL_SURFS
100
AcDbLine
 62
9
  6
CONTINUOUS
 10
2938.7778055559
 20
1216.6690380543
 11
691.7778055559
 21
1216.6690380543
  0
LINE
  5
35A
100
AcDbEntity
  8
6_ALL_SURFS
100
AcDbLine
 62
7
  6
CONTINUOUS
 10
2938.7778055559
 20
1218.1690380543
 11
691.7778055559
 21
1218.1690380543
  0
LINE
  5
35B
100
AcDbEntity
  8
6_ALL_SURFS
100
AcDbLine
 62
9
  6
CONTINUOUS
 10
691.7778055559
 20
1218.4690380543
 11
2938.7778055559
 21
1218.4690380543
  0
LINE
  5
35C
100
AcDbEntity
  8
6_ALL_SURFS
100
AcDbLine
 62
9
  6
CONTINUOUS
 10
2938.7778055559
 20
1253.691423439
 11
691.7778055559
 21
1253.691423439
  0
LINE
  5
35D
100
AcDbEntity
  8
6_ALL_SURFS
100
AcDbLine
 62
9
  6
CONTINUOUS
 10
2938.7778055559
 20
1254.6461316407
 11
691.7778055559
 21
1254.6461316407
  0
LINE
  5
35E
100
AcDbEntity
  8
6_ALL_SURFS
100
AcDbLine
 62
9
  6
CONTINUOUS
 10
2938.7778055559
 20
1272.6554505149
 11
691.7778055559
 21
1272.6554505149
  0
LINE
  5
35F
100
AcDbEntity
  8
6_ALL_SURFS
100
AcDbLine
 62
7
  6
CONTINUOUS
 10
2938.7778055559
 20
1273.8690380543
 11
691.7778055559
 21
1273.8690380543
  0
LINE
  5
360
100
AcDbEntity
  8
6_ALL_SURFS
100
AcDbLine
 62
9
  6
CONTINUOUS
 10
691.7778055559
 20
1274.6190380543
 11
2938.7778055559
 21
1274.6190380543
  0
LINE
  5
361
100
AcDbEntity
  8
6_ALL_SURFS
100
AcDbLine
 62
9
  6
CONTINUOUS
 10
691.7778055559
 20
1277.509360635
 11
2938.7778055559
 21
1277.509360635
  0
LINE
  5
362
100
AcDbEntity
  8
6_ALL_SURFS
100
AcDbLine
 62
7
  6
CONTINUOUS
 10
2938.7778055559
 20
1277.9690380543
 11
691.7778055559
 21
1277.9690380543
  0
LINE
  5
363
100
AcDbEntity
  8
6_ALL_SURFS
100
AcDbLine
 62
9
  6
CONTINUOUS
 10
2938.7778055559
 20
1278.2690380543
 11
691.7778055559
 21
1278.2690380543
  0
LINE
  5
364
100
AcDbEntity
  8
6_ALL_SURFS
100
AcDbLine
 62
9
  6
CONTINUOUS
 10
2938.7778055559
 20
1278.9690380543
 11
691.7778055559
 21
1278.9690380543
  0
LINE
  5
365
100
AcDbEntity
  8
6_ALL_SURFS
100
AcDbLine
 62
7
  6
CONTINUOUS
 10
2938.7778055559
 20
1279.2690380543
 11
691.7778055559
 21
1279.2690380543
  0
LINE
  5
366
100
AcDbEntity
  8
6_ALL_SURFS
100
AcDbLine
 62
7
  6
CONTINUOUS
 10
2938.7778055559
 20
1203.2690380543
 11
2938.7778055559
 21
1279.2690380543
  0
LINE
  5
367
100
AcDbEntity
  8
3_ALL_AXES
100
AcDbLine
 62
7
  6
CONTINUOUS
 10
691.7778055559
 20
1608.5376208098
 11
691.7778055559
 21
1593.2376208098
  0
LINE
  5
368
100
AcDbEntity
  8
7_ALL_FEATURES
100
AcDbLine
 62
7
  6
CONTINUOUS
 10
691.7778055559
 20
1590.7376360261
 11
691.7778055559
 21
1593.2376208098
  0
LINE
  5
369
100
AcDbEntity
  8
7_ALL_FEATURES
100
AcDbLine
 62
7
  6
CONTINUOUS
 10
691.7778055559
 20
1608.5376208098
 11
691.7778055559
 21
1615.1376208098
  0
LINE
  5
36A
100
AcDbEntity
  8
7_ALL_FEATURES
100
AcDbLine
 62
7
  6
CONTINUOUS
 10
691.7778055559
 20
1615.1557130236
 11
691.7778055559
 21
1647.0876208098
  0
LINE
  5
36B
100
AcDbEntity
  8
6_ALL_SURFS
100
AcDbLine
 62
7
  6
CONTINUOUS
 10
691.7778055559
 20
1647.0876208098
 11
691.7778055559
 21
1676.2195285961
  0
LINE
  5
36C
100
AcDbEntity
  8
6_ALL_SURFS
100
AcDbLine
 62
7
  6
CONTINUOUS
 10
691.7778055559
 20
1676.2376208098
 11
691.7778055559
 21
1700.6376055935
  0
LINE
  5
36D
100
AcDbEntity
  8
7_ALL_FEATURES
100
AcDbLine
 62
7
  6
CONTINUOUS
 10
693.0278055559
 20
1612.3876208098
 11
693.0278055559
 21
1678.9876208098
  0
LINE
  5
36E
100
AcDbEntity
  8
7_ALL_FEATURES
100
AcDbLine
 62
7
  6
CONTINUOUS
 10
691.7778055559
 20
1590.7376208098
 11
2938.7778055559
 21
1590.7376208098
  0
LINE
  5
36F
100
AcDbEntity
  8
7_ALL_FEATURES
100
AcDbLine
 62
9
  6
CONTINUOUS
 10
691.7778055559
 20
1591.0921492194
 11
2938.7778055559
 21
1591.0921492194
  0
LINE
  5
370
100
AcDbEntity
  8
7_ALL_FEATURES
100
AcDbLine
 62
7
  6
CONTINUOUS
 10
691.7778055559
 20
1593.2376208098
 11
811.9943977622
 21
1593.2376208098
  0
LINE
  5
371
100
AcDbEntity
  8
7_ALL_FEATURES
100
AcDbLine
 62
7
  6
CONTINUOUS
 10
818.5612133496
 20
1593.2376208098
 11
1061.9943977622
 21
1593.2376208098
  0
LINE
  5
372
100
AcDbEntity
  8
7_ALL_FEATURES
100
AcDbLine
 62
7
  6
CONTINUOUS
 10
1068.5612133496
 20
1593.2376208098
 11
1311.9943977622
 21
1593.2376208098
  0
LINE
  5
373
100
AcDbEntity
  8
7_ALL_FEATURES
100
AcDbLine
 62
7
  6
CONTINUOUS
 10
1318.5612133496
 20
1593.2376208098
 11
1561.9943977622
 21
1593.2376208098
  0
LINE
  5
374
100
AcDbEntity
  8
7_ALL_FEATURES
100
AcDbLine
 62
7
  6
CONTINUOUS
 10
1568.5612133496
 20
1593.2376208098
 11
1811.9943977622
 21
1593.2376208098
  0
LINE
  5
375
100
AcDbEntity
  8
7_ALL_FEATURES
100
AcDbLine
 62
7
  6
CONTINUOUS
 10
1818.5612133496
 20
1593.2376208098
 11
2061.9943977622
 21
1593.2376208098
  0
LINE
  5
376
100
AcDbEntity
  8
7_ALL_FEATURES
100
AcDbLine
 62
7
  6
CONTINUOUS
 10
2068.5612133496
 20
1593.2376208098
 11
2311.9943977622
 21
1593.2376208098
  0
LINE
  5
377
100
AcDbEntity
  8
7_ALL_FEATURES
100
AcDbLine
 62
7
  6
CONTINUOUS
 10
2318.5612133496
 20
1593.2376208098
 11
2561.9943977622
 21
1593.2376208098
  0
LINE
  5
378
100
AcDbEntity
  8
7_ALL_FEATURES
100
AcDbLine
 62
7
  6
CONTINUOUS
 10
2568.5612133496
 20
1593.2376208098
 11
2811.9943977622
 21
1593.2376208098
  0
LINE
  5
379
100
AcDbEntity
  8
7_ALL_FEATURES
100
AcDbLine
 62
7
  6
CONTINUOUS
 10
2818.5612133496
 20
1593.2376208098
 11
2938.7778055559
 21
1593.2376208098
  0
LINE
  5
37A
100
AcDbEntity
  8
7_ALL_FEATURES
100
AcDbLine
 62
7
  6
CONTINUOUS
 10
691.7778055559
 20
1595.9376208098
 11
810.5459172712
 21
1595.9376208098
  0
LINE
  5
37B
100
AcDbEntity
  8
7_ALL_FEATURES
100
AcDbLine
 62
7
  6
CONTINUOUS
 10
820.0096938407
 20
1595.9376208098
 11
1060.5459172712
 21
1595.9376208098
  0
LINE
  5
37C
100
AcDbEntity
  8
7_ALL_FEATURES
100
AcDbLine
 62
7
  6
CONTINUOUS
 10
1070.0096938407
 20
1595.9376208098
 11
1310.5459172712
 21
1595.9376208098
  0
LINE
  5
37D
100
AcDbEntity
  8
7_ALL_FEATURES
100
AcDbLine
 62
7
  6
CONTINUOUS
 10
1320.0096938407
 20
1595.9376208098
 11
1560.5459172712
 21
1595.9376208098
  0
LINE
  5
37E
100
AcDbEntity
  8
7_ALL_FEATURES
100
AcDbLine
 62
7
  6
CONTINUOUS
 10
1570.0096938407
 20
1595.9376208098
 11
1810.5459172712
 21
1595.9376208098
  0
LINE
  5
37F
100
AcDbEntity
  8
7_ALL_FEATURES
100
AcDbLine
 62
7
  6
CONTINUOUS
 10
1820.0096938407
 20
1595.9376208098
 11
2060.5459172712
 21
1595.9376208098
  0
LINE
  5
380
100
AcDbEntity
  8
7_ALL_FEATURES
100
AcDbLine
 62
7
  6
CONTINUOUS
 10
2070.0096938407
 20
1595.9376208098
 11
2310.5459172712
 21
1595.9376208098
  0
LINE
  5
381
100
AcDbEntity
  8
7_ALL_FEATURES
100
AcDbLine
 62
7
  6
CONTINUOUS
 10
2320.0096938407
 20
1595.9376208098
 11
2560.5459172712
 21
1595.9376208098
  0
LINE
  5
382
100
AcDbEntity
  8
7_ALL_FEATURES
100
AcDbLine
 62
7
  6
CONTINUOUS
 10
2570.0096938407
 20
1595.9376208098
 11
2810.5459172712
 21
1595.9376208098
  0
LINE
  5
383
100
AcDbEntity
  8
7_ALL_FEATURES
100
AcDbLine
 62
7
  6
CONTINUOUS
 10
2820.0096938407
 20
1595.9376208098
 11
2938.7778055559
 21
1595.9376208098
  0
LINE
  5
384
100
AcDbEntity
  8
7_ALL_FEATURES
100
AcDbLine
 62
7
  6
CONTINUOUS
 10
691.7778055559
 20
1596.5376208098
 11
810.4829367632
 21
1596.5376208098
  0
LINE
  5
385
100
AcDbEntity
  8
7_ALL_FEATURES
100
AcDbLine
 62
7
  6
CONTINUOUS
 10
820.0726743487
 20
1596.5376208098
 11
1060.4829367632
 21
1596.5376208098
  0
LINE
  5
386
100
AcDbEntity
  8
7_ALL_FEATURES
100
AcDbLine
 62
7
  6
CONTINUOUS
 10
1070.0726743487
 20
1596.5376208098
 11
1310.4829367632
 21
1596.5376208098
  0
LINE
  5
387
100
AcDbEntity
  8
7_ALL_FEATURES
100
AcDbLine
 62
7
  6
CONTINUOUS
 10
1320.0726743487
 20
1596.5376208098
 11
1560.4829367632
 21
1596.5376208098
  0
LINE
  5
388
100
AcDbEntity
  8
7_ALL_FEATURES
100
AcDbLine
 62
7
  6
CONTINUOUS
 10
1570.0726743487
 20
1596.5376208098
 11
1810.4829367632
 21
1596.5376208098
  0
LINE
  5
389
100
AcDbEntity
  8
7_ALL_FEATURES
100
AcDbLine
 62
7
  6
CONTINUOUS
 10
1820.0726743487
 20
1596.5376208098
 11
2060.4829367632
 21
1596.5376208098
  0
LINE
  5
38A
100
AcDbEntity
  8
7_ALL_FEATURES
100
AcDbLine
 62
7
  6
CONTINUOUS
 10
2070.0726743487
 20
1596.5376208098
 11
2310.4829367632
 21
1596.5376208098
  0
LINE
  5
38B
100
AcDbEntity
  8
7_ALL_FEATURES
100
AcDbLine
 62
7
  6
CONTINUOUS
 10
2320.0726743487
 20
1596.5376208098
 11
2560.4829367632
 21
1596.5376208098
  0
LINE
  5
38C
100
AcDbEntity
  8
7_ALL_FEATURES
100
AcDbLine
 62
7
  6
CONTINUOUS
 10
2570.0726743487
 20
1596.5376208098
 11
2810.4829367632
 21
1596.5376208098
  0
LINE
  5
38D
100
AcDbEntity
  8
7_ALL_FEATURES
100
AcDbLine
 62
7
  6
CONTINUOUS
 10
2820.0726743487
 20
1596.5376208098
 11
2938.7778055559
 21
1596.5376208098
  0
LINE
  5
38E
100
AcDbEntity
  8
7_ALL_FEATURES
100
AcDbLine
 62
7
  6
CONTINUOUS
 10
691.7778055559
 20
1598.9376208098
 11
811.0127420465
 21
1598.9376208098
  0
LINE
  5
38F
100
AcDbEntity
  8
7_ALL_FEATURES
100
AcDbLine
 62
7
  6
CONTINUOUS
 10
819.5428690654
 20
1598.9376208098
 11
1061.0127420465
 21
1598.9376208098
  0
LINE
  5
390
100
AcDbEntity
  8
7_ALL_FEATURES
100
AcDbLine
 62
7
  6
CONTINUOUS
 10
1069.5428690654
 20
1598.9376208098
 11
1311.0127420465
 21
1598.9376208098
  0
LINE
  5
391
100
AcDbEntity
  8
7_ALL_FEATURES
100
AcDbLine
 62
7
  6
CONTINUOUS
 10
1319.5428690654
 20
1598.9376208098
 11
1561.0127420465
 21
1598.9376208098
  0
LINE
  5
392
100
AcDbEntity
  8
7_ALL_FEATURES
100
AcDbLine
 62
7
  6
CONTINUOUS
 10
1569.5428690654
 20
1598.9376208098
 11
1811.0127420465
 21
1598.9376208098
  0
LINE
  5
393
100
AcDbEntity
  8
7_ALL_FEATURES
100
AcDbLine
 62
7
  6
CONTINUOUS
 10
1819.5428690654
 20
1598.9376208098
 11
2061.0127420465
 21
1598.9376208098
  0
LINE
  5
394
100
AcDbEntity
  8
7_ALL_FEATURES
100
AcDbLine
 62
7
  6
CONTINUOUS
 10
2069.5428690654
 20
1598.9376208098
 11
2311.0127420465
 21
1598.9376208098
  0
LINE
  5
395
100
AcDbEntity
  8
7_ALL_FEATURES
100
AcDbLine
 62
7
  6
CONTINUOUS
 10
2319.5428690654
 20
1598.9376208098
 11
2561.0127420465
 21
1598.9376208098
  0
LINE
  5
396
100
AcDbEntity
  8
7_ALL_FEATURES
100
AcDbLine
 62
7
  6
CONTINUOUS
 10
2569.5428690654
 20
1598.9376208098
 11
2811.0127420465
 21
1598.9376208098
  0
LINE
  5
397
100
AcDbEntity
  8
7_ALL_FEATURES
100
AcDbLine
 62
7
  6
CONTINUOUS
 10
2819.5428690654
 20
1598.9376208098
 11
2938.7778055559
 21
1598.9376208098
  0
LINE
  5
398
100
AcDbEntity
  8
7_ALL_FEATURES
100
AcDbLine
 62
7
  6
CONTINUOUS
 10
691.7778055559
 20
1599.5376208098
 11
811.3802721385
 21
1599.5376208098
  0
LINE
  5
399
100
AcDbEntity
  8
7_ALL_FEATURES
100
AcDbLine
 62
7
  6
CONTINUOUS
 10
819.1753389733
 20
1599.5376208098
 11
1061.3802721385
 21
1599.5376208098
  0
LINE
  5
39A
100
AcDbEntity
  8
7_ALL_FEATURES
100
AcDbLine
 62
7
  6
CONTINUOUS
 10
1069.1753389733
 20
1599.5376208098
 11
1311.3802721385
 21
1599.5376208098
  0
LINE
  5
39B
100
AcDbEntity
  8
7_ALL_FEATURES
100
AcDbLine
 62
7
  6
CONTINUOUS
 10
1319.1753389733
 20
1599.5376208098
 11
1561.3802721385
 21
1599.5376208098
  0
LINE
  5
39C
100
AcDbEntity
  8
7_ALL_FEATURES
100
AcDbLine
 62
7
  6
CONTINUOUS
 10
1569.1753389733
 20
1599.5376208098
 11
1811.3802721385
 21
1599.5376208098
  0
LINE
  5
39D
100
AcDbEntity
  8
7_ALL_FEATURES
100
AcDbLine
 62
7
  6
CONTINUOUS
 10
1819.1753389733
 20
1599.5376208098
 11
2061.3802721385
 21
1599.5376208098
  0
LINE
  5
39E
100
AcDbEntity
  8
7_ALL_FEATURES
100
AcDbLine
 62
7
  6
CONTINUOUS
 10
2069.1753389733
 20
1599.5376208098
 11
2311.3802721385
 21
1599.5376208098
  0
LINE
  5
39F
100
AcDbEntity
  8
7_ALL_FEATURES
100
AcDbLine
 62
7
  6
CONTINUOUS
 10
2319.1753389733
 20
1599.5376208098
 11
2561.3802721385
 21
1599.5376208098
  0
LINE
  5
3A0
100
AcDbEntity
  8
7_ALL_FEATURES
100
AcDbLine
 62
7
  6
CONTINUOUS
 10
2569.1753389733
 20
1599.5376208098
 11
2811.3802721385
 21
1599.5376208098
  0
LINE
  5
3A1
100
AcDbEntity
  8
7_ALL_FEATURES
100
AcDbLine
 62
7
  6
CONTINUOUS
 10
2819.1753389733
 20
1599.5376208098
 11
2938.7778055559
 21
1599.5376208098
  0
LINE
  5
3A2
100
AcDbEntity
  8
3_ALL_AXES
100
AcDbLine
 62
7
  6
CONTINUOUS
 10
691.7778055559
 20
1601.9376208098
 11
2938.7778055559
 21
1601.9376208098
  0
LINE
  5
3A3
100
AcDbEntity
  8
3_ALL_AXES
100
AcDbLine
 62
7
  6
CONTINUOUS
 10
691.7778055559
 20
1602.5376208098
 11
2938.7778055559
 21
1602.5376208098
  0
LINE
  5
3A4
100
AcDbEntity
  8
3_ALL_AXES
100
AcDbLine
 62
7
  6
CONTINUOUS
 10
691.7778055559
 20
1604.9376208098
 11
2938.7778055559
 21
1604.9376208098
  0
LINE
  5
3A5
100
AcDbEntity
  8
3_ALL_AXES
100
AcDbLine
 62
7
  6
CONTINUOUS
 10
691.7778055559
 20
1605.5376208098
 11
2938.7778055559
 21
1605.5376208098
  0
LINE
  5
3A6
100
AcDbEntity
  8
3_ALL_AXES
100
AcDbLine
 62
7
  6
CONTINUOUS
 10
691.7778055559
 20
1607.9376208098
 11
2938.7778055559
 21
1607.9376208098
  0
LINE
  5
3A7
100
AcDbEntity
  8
3_ALL_AXES
100
AcDbLine
 62
7
  6
CONTINUOUS
 10
691.7778055559
 20
1608.5376208098
 11
2938.7778055559
 21
1608.5376208098
  0
LINE
  5
3A8
100
AcDbEntity
  8
7_ALL_FEATURES
100
AcDbLine
 62
9
  6
CONTINUOUS
 10
691.7778055559
 20
1610.8376208098
 11
2938.7778055559
 21
1610.8376208098
  0
LINE
  5
3A9
100
AcDbEntity
  8
7_ALL_FEATURES
100
AcDbLine
 62
7
  6
CONTINUOUS
 10
2938.7778055559
 20
1611.0376208098
 11
691.7778055559
 21
1611.0376208098
  0
LINE
  5
3AA
100
AcDbEntity
  8
7_ALL_FEATURES
100
AcDbLine
 62
9
  6
CONTINUOUS
 10
2938.7778055559
 20
1611.2376208098
 11
691.7778055559
 21
1611.2376208098
  0
LINE
  5
3AB
100
AcDbEntity
  8
7_ALL_FEATURES
100
AcDbLine
 62
9
  6
CONTINUOUS
 10
2938.7778055559
 20
1612.0376208098
 11
691.7778055559
 21
1612.0376208098
  0
LINE
  5
3AC
100
AcDbEntity
  8
7_ALL_FEATURES
100
AcDbLine
 62
7
  6
CONTINUOUS
 10
2938.7778055559
 20
1612.2376208098
 11
691.7778055559
 21
1612.2376208098
  0
LINE
  5
3AD
100
AcDbEntity
  8
7_ALL_FEATURES
100
AcDbLine
 62
7
  6
CONTINUOUS
 10
2937.5278055559
 20
1612.3876208098
 11
693.0278055559
 21
1612.3876208098
  0
LINE
  5
3AE
100
AcDbEntity
  8
7_ALL_FEATURES
100
AcDbLine
 62
9
  6
CONTINUOUS
 10
691.7778055559
 20
1612.4376208098
 11
693.0278055559
 21
1612.4376208098
  0
LINE
  5
3AF
100
AcDbEntity
  8
7_ALL_FEATURES
100
AcDbLine
 62
9
  6
CONTINUOUS
 10
2937.5278055559
 20
1612.4376208098
 11
2938.7778055559
 21
1612.4376208098
  0
LINE
  5
3B0
100
AcDbEntity
  8
7_ALL_FEATURES
100
AcDbLine
 62
9
  6
CONTINUOUS
 10
2937.5278055559
 20
1612.5876208098
 11
693.0278055559
 21
1612.5876208098
  0
LINE
  5
3B1
100
AcDbEntity
  8
7_ALL_FEATURES
100
AcDbLine
 62
9
  6
CONTINUOUS
 10
2938.7778055559
 20
1613.2876208098
 11
2937.5278055559
 21
1613.2876208098
  0
LINE
  5
3B2
100
AcDbEntity
  8
7_ALL_FEATURES
100
AcDbLine
 62
9
  6
CONTINUOUS
 10
693.0278055559
 20
1613.2876208098
 11
691.7778055559
 21
1613.2876208098
  0
LINE
  5
3B3
100
AcDbEntity
  8
7_ALL_FEATURES
100
AcDbLine
 62
7
  6
CONTINUOUS
 10
2938.7778055559
 20
1613.4876208098
 11
2937.5278055559
 21
1613.4876208098
  0
LINE
  5
3B4
100
AcDbEntity
  8
7_ALL_FEATURES
100
AcDbLine
 62
7
  6
CONTINUOUS
 10
693.0278055559
 20
1613.4876208098
 11
691.7778055559
 21
1613.4876208098
  0
LINE
  5
3B5
100
AcDbEntity
  8
7_ALL_FEATURES
100
AcDbLine
 62
9
  6
CONTINUOUS
 10
691.7778055559
 20
1613.547431041
 11
693.0278055559
 21
1613.547431041
  0
LINE
  5
3B6
100
AcDbEntity
  8
7_ALL_FEATURES
100
AcDbLine
 62
9
  6
CONTINUOUS
 10
2937.5278055559
 20
1613.547431041
 11
2938.7778055559
 21
1613.547431041
  0
LINE
  5
3B7
100
AcDbEntity
  8
7_ALL_FEATURES
100
AcDbLine
 62
9
  6
CONTINUOUS
 10
691.7778055559
 20
1613.7668371515
 11
693.0278055559
 21
1613.7668371515
  0
LINE
  5
3B8
100
AcDbEntity
  8
7_ALL_FEATURES
100
AcDbLine
 62
9
  6
CONTINUOUS
 10
2937.5278055559
 20
1613.7668371515
 11
2938.7778055559
 21
1613.7668371515
  0
LINE
  5
3B9
100
AcDbEntity
  8
7_ALL_FEATURES
100
AcDbLine
 62
9
  6
CONTINUOUS
 10
2938.7778055559
 20
1614.8376208098
 11
2937.5278055559
 21
1614.8376208098
  0
LINE
  5
3BA
100
AcDbEntity
  8
7_ALL_FEATURES
100
AcDbLine
 62
9
  6
CONTINUOUS
 10
693.0278055559
 20
1614.8376208098
 11
691.7778055559
 21
1614.8376208098
  0
LINE
  5
3BB
100
AcDbEntity
  8
7_ALL_FEATURES
100
AcDbLine
 62
7
  6
CONTINUOUS
 10
2938.7778055559
 20
1615.1376208098
 11
2937.5278055559
 21
1615.1376208098
  0
LINE
  5
3BC
100
AcDbEntity
  8
7_ALL_FEATURES
100
AcDbLine
 62
7
  6
CONTINUOUS
 10
693.0278055559
 20
1615.1376208098
 11
691.7778055559
 21
1615.1376208098
  0
LINE
  5
3BD
100
AcDbEntity
  8
7_ALL_FEATURES
100
AcDbLine
 62
9
  6
CONTINUOUS
 10
2938.7778055559
 20
1615.7850147668
 11
2937.5278055559
 21
1615.7850147668
  0
LINE
  5
3BE
100
AcDbEntity
  8
7_ALL_FEATURES
100
AcDbLine
 62
9
  6
CONTINUOUS
 10
693.0278055559
 20
1615.7850147668
 11
691.7778055559
 21
1615.7850147668
  0
LINE
  5
3BF
100
AcDbEntity
  8
7_ALL_FEATURES
100
AcDbLine
 62
7
  6
CONTINUOUS
 10
2938.7778055559
 20
1615.8031069806
 11
2937.5278055559
 21
1615.8031069806
  0
LINE
  5
3C0
100
AcDbEntity
  8
7_ALL_FEATURES
100
AcDbLine
 62
7
  6
CONTINUOUS
 10
693.0278055559
 20
1615.8031069806
 11
691.7778055559
 21
1615.8031069806
  0
LINE
  5
3C1
100
AcDbEntity
  8
7_ALL_FEATURES
100
AcDbLine
 62
9
  6
CONTINUOUS
 10
691.7778055559
 20
1618.608975411
 11
693.0278055559
 21
1618.608975411
  0
LINE
  5
3C2
100
AcDbEntity
  8
7_ALL_FEATURES
100
AcDbLine
 62
9
  6
CONTINUOUS
 10
2937.5278055559
 20
1618.608975411
 11
2938.7778055559
 21
1618.608975411
  0
LINE
  5
3C3
100
AcDbEntity
  8
7_ALL_FEATURES
100
AcDbLine
 62
9
  6
CONTINUOUS
 10
691.7778055559
 20
1619.0997890027
 11
693.0278055559
 21
1619.0997890027
  0
LINE
  5
3C4
100
AcDbEntity
  8
7_ALL_FEATURES
100
AcDbLine
 62
9
  6
CONTINUOUS
 10
2937.5278055559
 20
1619.0997890027
 11
2938.7778055559
 21
1619.0997890027
  0
LINE
  5
3C5
100
AcDbEntity
  8
7_ALL_FEATURES
100
AcDbLine
 62
9
  6
CONTINUOUS
 10
2938.7778055559
 20
1643.6876208098
 11
2937.5278055559
 21
1643.6876208098
  0
LINE
  5
3C6
100
AcDbEntity
  8
7_ALL_FEATURES
100
AcDbLine
 62
9
  6
CONTINUOUS
 10
693.0278055559
 20
1643.6876208098
 11
691.7778055559
 21
1643.6876208098
  0
LINE
  5
3C7
100
AcDbEntity
  8
7_ALL_FEATURES
100
AcDbLine
 62
7
  6
CONTINUOUS
 10
2938.7778055559
 20
1643.9876208098
 11
2937.5278055559
 21
1643.9876208098
  0
LINE
  5
3C8
100
AcDbEntity
  8
7_ALL_FEATURES
100
AcDbLine
 62
7
  6
CONTINUOUS
 10
693.0278055559
 20
1643.9876208098
 11
691.7778055559
 21
1643.9876208098
  0
LINE
  5
3C9
100
AcDbEntity
  8
7_ALL_FEATURES
100
AcDbLine
 62
9
  6
CONTINUOUS
 10
691.7778055559
 20
1644.2876208098
 11
693.0278055559
 21
1644.2876208098
  0
LINE
  5
3CA
100
AcDbEntity
  8
7_ALL_FEATURES
100
AcDbLine
 62
9
  6
CONTINUOUS
 10
2937.5278055559
 20
1644.2876208098
 11
2938.7778055559
 21
1644.2876208098
  0
LINE
  5
3CB
100
AcDbEntity
  8
6_ALL_SURFS
100
AcDbLine
 62
9
  6
CONTINUOUS
 10
691.7778055559
 20
1647.0876208098
 11
693.0278055559
 21
1647.0876208098
  0
LINE
  5
3CC
100
AcDbEntity
  8
6_ALL_SURFS
100
AcDbLine
 62
9
  6
CONTINUOUS
 10
2937.5278055559
 20
1647.0876208098
 11
2938.7778055559
 21
1647.0876208098
  0
LINE
  5
3CD
100
AcDbEntity
  8
6_ALL_SURFS
100
AcDbLine
 62
7
  6
CONTINUOUS
 10
2938.7778055559
 20
1647.3876208098
 11
2937.5278055559
 21
1647.3876208098
  0
LINE
  5
3CE
100
AcDbEntity
  8
6_ALL_SURFS
100
AcDbLine
 62
7
  6
CONTINUOUS
 10
693.0278055559
 20
1647.3876208098
 11
691.7778055559
 21
1647.3876208098
  0
LINE
  5
3CF
100
AcDbEntity
  8
6_ALL_SURFS
100
AcDbLine
 62
9
  6
CONTINUOUS
 10
2938.7778055559
 20
1647.6876208098
 11
2937.5278055559
 21
1647.6876208098
  0
LINE
  5
3D0
100
AcDbEntity
  8
6_ALL_SURFS
100
AcDbLine
 62
9
  6
CONTINUOUS
 10
693.0278055559
 20
1647.6876208098
 11
691.7778055559
 21
1647.6876208098
  0
LINE
  5
3D1
100
AcDbEntity
  8
6_ALL_SURFS
100
AcDbLine
 62
9
  6
CONTINUOUS
 10
691.7778055559
 20
1672.2754526169
 11
693.0278055559
 21
1672.2754526169
  0
LINE
  5
3D2
100
AcDbEntity
  8
6_ALL_SURFS
100
AcDbLine
 62
9
  6
CONTINUOUS
 10
2937.5278055559
 20
1672.2754526169
 11
2938.7778055559
 21
1672.2754526169
  0
LINE
  5
3D3
100
AcDbEntity
  8
6_ALL_SURFS
100
AcDbLine
 62
9
  6
CONTINUOUS
 10
691.7778055559
 20
1672.7662662086
 11
693.0278055559
 21
1672.7662662086
  0
LINE
  5
3D4
100
AcDbEntity
  8
6_ALL_SURFS
100
AcDbLine
 62
9
  6
CONTINUOUS
 10
2937.5278055559
 20
1672.7662662086
 11
2938.7778055559
 21
1672.7662662086
  0
LINE
  5
3D5
100
AcDbEntity
  8
6_ALL_SURFS
100
AcDbLine
 62
7
  6
CONTINUOUS
 10
691.7778055559
 20
1675.572134639
 11
693.0278055559
 21
1675.572134639
  0
LINE
  5
3D6
100
AcDbEntity
  8
6_ALL_SURFS
100
AcDbLine
 62
7
  6
CONTINUOUS
 10
2937.5278055559
 20
1675.572134639
 11
2938.7778055559
 21
1675.572134639
  0
LINE
  5
3D7
100
AcDbEntity
  8
6_ALL_SURFS
100
AcDbLine
 62
9
  6
CONTINUOUS
 10
2938.7778055559
 20
1675.5902268528
 11
2937.5278055559
 21
1675.5902268528
  0
LINE
  5
3D8
100
AcDbEntity
  8
6_ALL_SURFS
100
AcDbLine
 62
9
  6
CONTINUOUS
 10
693.0278055559
 20
1675.5902268528
 11
691.7778055559
 21
1675.5902268528
  0
LINE
  5
3D9
100
AcDbEntity
  8
6_ALL_SURFS
100
AcDbLine
 62
7
  6
CONTINUOUS
 10
2938.7778055559
 20
1676.2376208098
 11
2937.5278055559
 21
1676.2376208098
  0
LINE
  5
3DA
100
AcDbEntity
  8
6_ALL_SURFS
100
AcDbLine
 62
7
  6
CONTINUOUS
 10
693.0278055559
 20
1676.2376208098
 11
691.7778055559
 21
1676.2376208098
  0
LINE
  5
3DB
100
AcDbEntity
  8
6_ALL_SURFS
100
AcDbLine
 62
9
  6
CONTINUOUS
 10
2938.7778055559
 20
1676.5376208098
 11
2937.5278055559
 21
1676.5376208098
  0
LINE
  5
3DC
100
AcDbEntity
  8
6_ALL_SURFS
100
AcDbLine
 62
9
  6
CONTINUOUS
 10
693.0278055559
 20
1676.5376208098
 11
691.7778055559
 21
1676.5376208098
  0
LINE
  5
3DD
100
AcDbEntity
  8
6_ALL_SURFS
100
AcDbLine
 62
9
  6
CONTINUOUS
 10
691.7778055559
 20
1677.6084044681
 11
693.0278055559
 21
1677.6084044681
  0
LINE
  5
3DE
100
AcDbEntity
  8
6_ALL_SURFS
100
AcDbLine
 62
9
  6
CONTINUOUS
 10
2937.5278055559
 20
1677.6084044681
 11
2938.7778055559
 21
1677.6084044681
  0
LINE
  5
3DF
100
AcDbEntity
  8
6_ALL_SURFS
100
AcDbLine
 62
9
  6
CONTINUOUS
 10
691.7778055559
 20
1677.8278105786
 11
693.0278055559
 21
1677.8278105786
  0
LINE
  5
3E0
100
AcDbEntity
  8
6_ALL_SURFS
100
AcDbLine
 62
9
  6
CONTINUOUS
 10
2937.5278055559
 20
1677.8278105786
 11
2938.7778055559
 21
1677.8278105786
  0
LINE
  5
3E1
100
AcDbEntity
  8
6_ALL_SURFS
100
AcDbLine
 62
7
  6
CONTINUOUS
 10
2938.7778055559
 20
1677.8876208098
 11
2937.5278055559
 21
1677.8876208098
  0
LINE
  5
3E2
100
AcDbEntity
  8
6_ALL_SURFS
100
AcDbLine
 62
7
  6
CONTINUOUS
 10
693.0278055559
 20
1677.8876208098
 11
691.7778055559
 21
1677.8876208098
  0
LINE
  5
3E3
100
AcDbEntity
  8
6_ALL_SURFS
100
AcDbLine
 62
9
  6
CONTINUOUS
 10
2938.7778055559
 20
1678.0876208098
 11
2937.5278055559
 21
1678.0876208098
  0
LINE
  5
3E4
100
AcDbEntity
  8
6_ALL_SURFS
100
AcDbLine
 62
9
  6
CONTINUOUS
 10
693.0278055559
 20
1678.0876208098
 11
691.7778055559
 21
1678.0876208098
  0
LINE
  5
3E5
100
AcDbEntity
  8
7_ALL_FEATURES
100
AcDbLine
 62
9
  6
CONTINUOUS
 10
2937.5278055559
 20
1678.7876208098
 11
693.0278055559
 21
1678.7876208098
  0
LINE
  5
3E6
100
AcDbEntity
  8
6_ALL_SURFS
100
AcDbLine
 62
9
  6
CONTINUOUS
 10
691.7778055559
 20
1678.9376208098
 11
693.0278055559
 21
1678.9376208098
  0
LINE
  5
3E7
100
AcDbEntity
  8
6_ALL_SURFS
100
AcDbLine
 62
9
  6
CONTINUOUS
 10
2937.5278055559
 20
1678.9376208098
 11
2938.7778055559
 21
1678.9376208098
  0
LINE
  5
3E8
100
AcDbEntity
  8
7_ALL_FEATURES
100
AcDbLine
 62
7
  6
CONTINUOUS
 10
2937.5278055559
 20
1678.9876208098
 11
693.0278055559
 21
1678.9876208098
  0
LINE
  5
3E9
100
AcDbEntity
  8
6_ALL_SURFS
100
AcDbLine
 62
7
  6
CONTINUOUS
 10
2938.7778055559
 20
1679.1376208098
 11
691.7778055559
 21
1679.1376208098
  0
LINE
  5
3EA
100
AcDbEntity
  8
6_ALL_SURFS
100
AcDbLine
 62
9
  6
CONTINUOUS
 10
2938.7778055559
 20
1679.3376208098
 11
691.7778055559
 21
1679.3376208098
  0
LINE
  5
3EB
100
AcDbEntity
  8
6_ALL_SURFS
100
AcDbLine
 62
9
  6
CONTINUOUS
 10
2938.7778055559
 20
1680.1376208098
 11
691.7778055559
 21
1680.1376208098
  0
LINE
  5
3EC
100
AcDbEntity
  8
6_ALL_SURFS
100
AcDbLine
 62
7
  6
CONTINUOUS
 10
2938.7778055559
 20
1680.3376208098
 11
691.7778055559
 21
1680.3376208098
  0
LINE
  5
3ED
100
AcDbEntity
  8
6_ALL_SURFS
100
AcDbLine
 62
9
  6
CONTINUOUS
 10
691.7778055559
 20
1680.5376208098
 11
2938.7778055559
 21
1680.5376208098
  0
LINE
  5
3EE
100
AcDbEntity
  8
6_ALL_SURFS
100
AcDbLine
 62
7
  6
CONTINUOUS
 10
691.7778055559
 20
1682.8376208098
 11
2938.7778055559
 21
1682.8376208098
  0
LINE
  5
3EF
100
AcDbEntity
  8
6_ALL_SURFS
100
AcDbLine
 62
7
  6
CONTINUOUS
 10
691.7778055559
 20
1683.4376208098
 11
2938.7778055559
 21
1683.4376208098
  0
LINE
  5
3F0
100
AcDbEntity
  8
6_ALL_SURFS
100
AcDbLine
 62
7
  6
CONTINUOUS
 10
691.7778055559
 20
1685.8376208098
 11
2938.7778055559
 21
1685.8376208098
  0
LINE
  5
3F1
100
AcDbEntity
  8
6_ALL_SURFS
100
AcDbLine
 62
7
  6
CONTINUOUS
 10
691.7778055559
 20
1686.4376208098
 11
2938.7778055559
 21
1686.4376208098
  0
LINE
  5
3F2
100
AcDbEntity
  8
6_ALL_SURFS
100
AcDbLine
 62
7
  6
CONTINUOUS
 10
691.7778055559
 20
1688.8376208098
 11
2938.7778055559
 21
1688.8376208098
  0
LINE
  5
3F3
100
AcDbEntity
  8
6_ALL_SURFS
100
AcDbLine
 62
7
  6
CONTINUOUS
 10
691.7778055559
 20
1689.4376208098
 11
2938.7778055559
 21
1689.4376208098
  0
LINE
  5
3F4
100
AcDbEntity
  8
6_ALL_SURFS
100
AcDbLine
 62
7
  6
CONTINUOUS
 10
691.7778055559
 20
1691.8376208098
 11
811.3802721385
 21
1691.8376208098
  0
LINE
  5
3F5
100
AcDbEntity
  8
6_ALL_SURFS
100
AcDbLine
 62
7
  6
CONTINUOUS
 10
819.1753389733
 20
1691.8376208098
 11
1061.3802721385
 21
1691.8376208098
  0
LINE
  5
3F6
100
AcDbEntity
  8
6_ALL_SURFS
100
AcDbLine
 62
7
  6
CONTINUOUS
 10
1069.1753389733
 20
1691.8376208098
 11
1311.3802721385
 21
1691.8376208098
  0
LINE
  5
3F7
100
AcDbEntity
  8
6_ALL_SURFS
100
AcDbLine
 62
7
  6
CONTINUOUS
 10
1319.1753389733
 20
1691.8376208098
 11
1561.3802721385
 21
1691.8376208098
  0
LINE
  5
3F8
100
AcDbEntity
  8
6_ALL_SURFS
100
AcDbLine
 62
7
  6
CONTINUOUS
 10
1569.1753389733
 20
1691.8376208098
 11
1811.3802721385
 21
1691.8376208098
  0
LINE
  5
3F9
100
AcDbEntity
  8
6_ALL_SURFS
100
AcDbLine
 62
7
  6
CONTINUOUS
 10
1819.1753389733
 20
1691.8376208098
 11
2061.3802721385
 21
1691.8376208098
  0
LINE
  5
3FA
100
AcDbEntity
  8
6_ALL_SURFS
100
AcDbLine
 62
7
  6
CONTINUOUS
 10
2069.1753389733
 20
1691.8376208098
 11
2311.3802721385
 21
1691.8376208098
  0
LINE
  5
3FB
100
AcDbEntity
  8
6_ALL_SURFS
100
AcDbLine
 62
7
  6
CONTINUOUS
 10
2319.1753389733
 20
1691.8376208098
 11
2561.3802721385
 21
1691.8376208098
  0
LINE
  5
3FC
100
AcDbEntity
  8
6_ALL_SURFS
100
AcDbLine
 62
7
  6
CONTINUOUS
 10
2569.1753389733
 20
1691.8376208098
 11
2811.3802721385
 21
1691.8376208098
  0
LINE
  5
3FD
100
AcDbEntity
  8
6_ALL_SURFS
100
AcDbLine
 62
7
  6
CONTINUOUS
 10
2819.1753389733
 20
1691.8376208098
 11
2938.7778055559
 21
1691.8376208098
  0
LINE
  5
3FE
100
AcDbEntity
  8
6_ALL_SURFS
100
AcDbLine
 62
7
  6
CONTINUOUS
 10
691.7778055559
 20
1692.4376208098
 11
811.0127420465
 21
1692.4376208098
  0
LINE
  5
3FF
100
AcDbEntity
  8
6_ALL_SURFS
100
AcDbLine
 62
7
  6
CONTINUOUS
 10
819.5428690654
 20
1692.4376208098
 11
1061.0127420465
 21
1692.4376208098
  0
LINE
  5
400
100
AcDbEntity
  8
6_ALL_SURFS
100
AcDbLine
 62
7
  6
CONTINUOUS
 10
1069.5428690654
 20
1692.4376208098
 11
1311.0127420465
 21
1692.4376208098
  0
LINE
  5
401
100
AcDbEntity
  8
6_ALL_SURFS
100
AcDbLine
 62
7
  6
CONTINUOUS
 10
1319.5428690654
 20
1692.4376208098
 11
1561.0127420465
 21
1692.4376208098
  0
LINE
  5
402
100
AcDbEntity
  8
6_ALL_SURFS
100
AcDbLine
 62
7
  6
CONTINUOUS
 10
1569.5428690654
 20
1692.4376208098
 11
1811.0127420465
 21
1692.4376208098
  0
LINE
  5
403
100
AcDbEntity
  8
6_ALL_SURFS
100
AcDbLine
 62
7
  6
CONTINUOUS
 10
1819.5428690654
 20
1692.4376208098
 11
2061.0127420465
 21
1692.4376208098
  0
LINE
  5
404
100
AcDbEntity
  8
6_ALL_SURFS
100
AcDbLine
 62
7
  6
CONTINUOUS
 10
2069.5428690654
 20
1692.4376208098
 11
2311.0127420465
 21
1692.4376208098
  0
LINE
  5
405
100
AcDbEntity
  8
6_ALL_SURFS
100
AcDbLine
 62
7
  6
CONTINUOUS
 10
2319.5428690654
 20
1692.4376208098
 11
2561.0127420465
 21
1692.4376208098
  0
LINE
  5
406
100
AcDbEntity
  8
6_ALL_SURFS
100
AcDbLine
 62
7
  6
CONTINUOUS
 10
2569.5428690654
 20
1692.4376208098
 11
2811.0127420465
 21
1692.4376208098
  0
LINE
  5
407
100
AcDbEntity
  8
6_ALL_SURFS
100
AcDbLine
 62
7
  6
CONTINUOUS
 10
2819.5428690654
 20
1692.4376208098
 11
2938.7778055559
 21
1692.4376208098
  0
LINE
  5
408
100
AcDbEntity
  8
6_ALL_SURFS
100
AcDbLine
 62
7
  6
CONTINUOUS
 10
691.7778055559
 20
1694.8376208098
 11
810.4829367632
 21
1694.8376208098
  0
LINE
  5
409
100
AcDbEntity
  8
6_ALL_SURFS
100
AcDbLine
 62
7
  6
CONTINUOUS
 10
820.0726743487
 20
1694.8376208098
 11
1060.4829367632
 21
1694.8376208098
  0
LINE
  5
40A
100
AcDbEntity
  8
6_ALL_SURFS
100
AcDbLine
 62
7
  6
CONTINUOUS
 10
1070.0726743487
 20
1694.8376208098
 11
1310.4829367632
 21
1694.8376208098
  0
LINE
  5
40B
100
AcDbEntity
  8
6_ALL_SURFS
100
AcDbLine
 62
7
  6
CONTINUOUS
 10
1320.0726743487
 20
1694.8376208098
 11
1560.4829367632
 21
1694.8376208098
  0
LINE
  5
40C
100
AcDbEntity
  8
6_ALL_SURFS
100
AcDbLine
 62
7
  6
CONTINUOUS
 10
1570.0726743487
 20
1694.8376208098
 11
1810.4829367632
 21
1694.8376208098
  0
LINE
  5
40D
100
AcDbEntity
  8
6_ALL_SURFS
100
AcDbLine
 62
7
  6
CONTINUOUS
 10
1820.0726743487
 20
1694.8376208098
 11
2060.4829367632
 21
1694.8376208098
  0
LINE
  5
40E
100
AcDbEntity
  8
6_ALL_SURFS
100
AcDbLine
 62
7
  6
CONTINUOUS
 10
2070.0726743487
 20
1694.8376208098
 11
2310.4829367632
 21
1694.8376208098
  0
LINE
  5
40F
100
AcDbEntity
  8
6_ALL_SURFS
100
AcDbLine
 62
7
  6
CONTINUOUS
 10
2320.0726743487
 20
1694.8376208098
 11
2560.4829367632
 21
1694.8376208098
  0
LINE
  5
410
100
AcDbEntity
  8
6_ALL_SURFS
100
AcDbLine
 62
7
  6
CONTINUOUS
 10
2570.0726743487
 20
1694.8376208098
 11
2810.4829367632
 21
1694.8376208098
  0
LINE
  5
411
100
AcDbEntity
  8
6_ALL_SURFS
100
AcDbLine
 62
7
  6
CONTINUOUS
 10
2820.0726743487
 20
1694.8376208098
 11
2938.7778055559
 21
1694.8376208098
  0
LINE
  5
412
100
AcDbEntity
  8
6_ALL_SURFS
100
AcDbLine
 62
7
  6
CONTINUOUS
 10
691.7778055559
 20
1695.4376208098
 11
810.5459172712
 21
1695.4376208098
  0
LINE
  5
413
100
AcDbEntity
  8
6_ALL_SURFS
100
AcDbLine
 62
7
  6
CONTINUOUS
 10
820.0096938407
 20
1695.4376208098
 11
1060.5459172712
 21
1695.4376208098
  0
LINE
  5
414
100
AcDbEntity
  8
6_ALL_SURFS
100
AcDbLine
 62
7
  6
CONTINUOUS
 10
1070.0096938407
 20
1695.4376208098
 11
1310.5459172712
 21
1695.4376208098
  0
LINE
  5
415
100
AcDbEntity
  8
6_ALL_SURFS
100
AcDbLine
 62
7
  6
CONTINUOUS
 10
1320.0096938407
 20
1695.4376208098
 11
1560.5459172712
 21
1695.4376208098
  0
LINE
  5
416
100
AcDbEntity
  8
6_ALL_SURFS
100
AcDbLine
 62
7
  6
CONTINUOUS
 10
1570.0096938407
 20
1695.4376208098
 11
1810.5459172712
 21
1695.4376208098
  0
LINE
  5
417
100
AcDbEntity
  8
6_ALL_SURFS
100
AcDbLine
 62
7
  6
CONTINUOUS
 10
1820.0096938407
 20
1695.4376208098
 11
2060.5459172712
 21
1695.4376208098
  0
LINE
  5
418
100
AcDbEntity
  8
6_ALL_SURFS
100
AcDbLine
 62
7
  6
CONTINUOUS
 10
2070.0096938407
 20
1695.4376208098
 11
2310.5459172712
 21
1695.4376208098
  0
LINE
  5
419
100
AcDbEntity
  8
6_ALL_SURFS
100
AcDbLine
 62
7
  6
CONTINUOUS
 10
2320.0096938407
 20
1695.4376208098
 11
2560.5459172712
 21
1695.4376208098
  0
LINE
  5
41A
100
AcDbEntity
  8
6_ALL_SURFS
100
AcDbLine
 62
7
  6
CONTINUOUS
 10
2570.0096938407
 20
1695.4376208098
 11
2810.5459172712
 21
1695.4376208098
  0
LINE
  5
41B
100
AcDbEntity
  8
6_ALL_SURFS
100
AcDbLine
 62
7
  6
CONTINUOUS
 10
2820.0096938407
 20
1695.4376208098
 11
2938.7778055559
 21
1695.4376208098
  0
LINE
  5
41C
100
AcDbEntity
  8
6_ALL_SURFS
100
AcDbLine
 62
7
  6
CONTINUOUS
 10
691.7778055559
 20
1698.1376208098
 11
811.9943977622
 21
1698.1376208098
  0
LINE
  5
41D
100
AcDbEntity
  8
6_ALL_SURFS
100
AcDbLine
 62
7
  6
CONTINUOUS
 10
818.5612133496
 20
1698.1376208098
 11
1061.9943977622
 21
1698.1376208098
  0
LINE
  5
41E
100
AcDbEntity
  8
6_ALL_SURFS
100
AcDbLine
 62
7
  6
CONTINUOUS
 10
1068.5612133496
 20
1698.1376208098
 11
1311.9943977622
 21
1698.1376208098
  0
LINE
  5
41F
100
AcDbEntity
  8
6_ALL_SURFS
100
AcDbLine
 62
7
  6
CONTINUOUS
 10
1318.5612133496
 20
1698.1376208098
 11
1561.9943977622
 21
1698.1376208098
  0
LINE
  5
420
100
AcDbEntity
  8
6_ALL_SURFS
100
AcDbLine
 62
7
  6
CONTINUOUS
 10
1568.5612133496
 20
1698.1376208098
 11
1811.9943977622
 21
1698.1376208098
  0
LINE
  5
421
100
AcDbEntity
  8
6_ALL_SURFS
100
AcDbLine
 62
7
  6
CONTINUOUS
 10
1818.5612133496
 20
1698.1376208098
 11
2061.9943977622
 21
1698.1376208098
  0
LINE
  5
422
100
AcDbEntity
  8
6_ALL_SURFS
100
AcDbLine
 62
7
  6
CONTINUOUS
 10
2068.5612133496
 20
1698.1376208098
 11
2311.9943977622
 21
1698.1376208098
  0
LINE
  5
423
100
AcDbEntity
  8
6_ALL_SURFS
100
AcDbLine
 62
7
  6
CONTINUOUS
 10
2318.5612133496
 20
1698.1376208098
 11
2561.9943977622
 21
1698.1376208098
  0
LINE
  5
424
100
AcDbEntity
  8
6_ALL_SURFS
100
AcDbLine
 62
7
  6
CONTINUOUS
 10
2568.5612133496
 20
1698.1376208098
 11
2811.9943977622
 21
1698.1376208098
  0
LINE
  5
425
100
AcDbEntity
  8
6_ALL_SURFS
100
AcDbLine
 62
7
  6
CONTINUOUS
 10
2818.5612133496
 20
1698.1376208098
 11
2938.7778055559
 21
1698.1376208098
  0
LINE
  5
426
100
AcDbEntity
  8
6_ALL_SURFS
100
AcDbLine
 62
9
  6
CONTINUOUS
 10
691.7778055559
 20
1700.2830924002
 11
2938.7778055559
 21
1700.2830924002
  0
LINE
  5
427
100
AcDbEntity
  8
6_ALL_SURFS
100
AcDbLine
 62
7
  6
CONTINUOUS
 10
2938.7778055559
 20
1700.6376208098
 11
691.7778055559
 21
1700.6376208098
  0
LINE
  5
428
100
AcDbEntity
  8
7_ALL_FEATURES
100
AcDbLine
 62
7
  6
CONTINUOUS
 10
2937.5278055559
 20
1678.9876208098
 11
2937.5278055559
 21
1612.3876208098
  0
LINE
  5
429
100
AcDbEntity
  8
7_ALL_FEATURES
100
AcDbLine
 62
7
  6
CONTINUOUS
 10
2938.7778055559
 20
1615.1376208098
 11
2938.7778055559
 21
1608.5376208098
  0
LINE
  5
42A
100
AcDbEntity
  8
3_ALL_AXES
100
AcDbLine
 62
7
  6
CONTINUOUS
 10
2938.7778055559
 20
1608.5376208098
 11
2938.7778055559
 21
1593.2376208098
  0
LINE
  5
42B
100
AcDbEntity
  8
7_ALL_FEATURES
100
AcDbLine
 62
7
  6
CONTINUOUS
 10
2938.7778055559
 20
1593.2376208098
 11
2938.7778055559
 21
1590.7376360261
  0
LINE
  5
42C
100
AcDbEntity
  8
7_ALL_FEATURES
100
AcDbLine
 62
7
  6
CONTINUOUS
 10
2938.7778055559
 20
1615.1557130236
 11
2938.7778055559
 21
1647.0876208098
  0
LINE
  5
42D
100
AcDbEntity
  8
6_ALL_SURFS
100
AcDbLine
 62
7
  6
CONTINUOUS
 10
2938.7778055559
 20
1647.0876208098
 11
2938.7778055559
 21
1676.2195285961
  0
LINE
  5
42E
100
AcDbEntity
  8
6_ALL_SURFS
100
AcDbLine
 62
7
  6
CONTINUOUS
 10
2938.7778055559
 20
1676.2376208098
 11
2938.7778055559
 21
1700.6376055935
  0
ARC
  5
42F
100
AcDbEntity
  8
6_ALL_SURFS
100
AcDbCircle
 62
7
  6
CONTINUOUS
 10
319.1170702764
 20
1204.3690380543
 40
0.5
100
AcDbArc
 50
53.1301023542
 51
126.8698976458
  0
ARC
  5
430
100
AcDbEntity
  8
6_ALL_SURFS
100
AcDbCircle
 62
7
  6
CONTINUOUS
 10
316.1170702764
 20
1204.3690380543
 40
0.5
100
AcDbArc
 50
53.1301023542
 51
126.8698976458
  0
ARC
  5
431
100
AcDbEntity
  8
6_ALL_SURFS
100
AcDbCircle
 62
7
  6
CONTINUOUS
 10
313.1170702764
 20
1204.3690380543
 40
0.5
100
AcDbArc
 50
53.1301023542
 51
126.8698976458
  0
ARC
  5
432
100
AcDbEntity
  8
6_ALL_SURFS
100
AcDbCircle
 62
7
  6
CONTINUOUS
 10
308.0107736343
 20
1205.3753346964
 40
0.3937033579
100
AcDbArc
 50
90.0
 51
264.2894068625
  0
ARC
  5
433
100
AcDbEntity
  8
3_ALL_AXES
100
AcDbCircle
 62
7
  6
CONTINUOUS
 10
329.5170702764
 20
1205.0890380543
 40
1.8
100
AcDbArc
 50
0.0
 51
57.1401196211
  0
ARC
  5
434
100
AcDbEntity
  8
6_ALL_SURFS
100
AcDbCircle
 62
7
  6
CONTINUOUS
 10
329.1170702764
 20
1207.2690380543
 40
1.5
100
AcDbArc
 50
137.0
 51
180.0
  0
ARC
  5
435
100
AcDbEntity
  8
3_ALL_AXES
100
AcDbCircle
 62
7
  6
CONTINUOUS
 10
330.6022430737
 20
1206.7690380543
 40
1.0
100
AcDbArc
 50
137.0
 51
237.1401196211
  0
ARC
  5
436
100
AcDbEntity
  8
3_ALL_AXES
100
AcDbCircle
 62
7
  6
CONTINUOUS
 10
329.5170702764
 20
1205.0890380543
 40
1.0
100
AcDbArc
 50
0.0
 51
57.1401196211
  0
ARC
  5
437
100
AcDbEntity
  8
6_ALL_SURFS
100
AcDbCircle
 62
7
  6
CONTINUOUS
 10
325.1170702764
 20
1204.3690380543
 40
0.5
100
AcDbArc
 50
53.1301023542
 51
126.8698976458
  0
ARC
  5
438
100
AcDbEntity
  8
6_ALL_SURFS
100
AcDbCircle
 62
7
  6
CONTINUOUS
 10
322.1170702764
 20
1204.3690380543
 40
0.5
100
AcDbArc
 50
53.1301023542
 51
126.8698976458
  0
ARC
  5
439
100
AcDbEntity
  8
3_ALL_AXES
100
AcDbCircle
 62
7
  6
CONTINUOUS
 10
330.5278586659
 20
1207.5690380543
 40
0.4
100
AcDbArc
 50
317.0
 51
137.0
  0
ARC
  5
43A
100
AcDbEntity
  8
7_ALL_FEATURES
100
AcDbCircle
 62
7
  6
CONTINUOUS
 10
332.0170702764
 20
1210.793302123
 40
0.3
100
AcDbArc
 50
180.0
 51
225.0
  0
ARC
  5
43B
100
AcDbEntity
  8
6_ALL_SURFS
100
AcDbCircle
 62
7
  6
CONTINUOUS
 10
329.8170702764
 20
1210.6589986855
 40
0.3
100
AcDbArc
 50
317.0
 51
360.0
  0
ARC
  5
43C
100
AcDbEntity
  8
6_ALL_SURFS
100
AcDbCircle
 62
7
  6
CONTINUOUS
 10
330.6462866181
 20
1208.4690380543
 40
0.3
100
AcDbArc
 50
90.0
 51
137.0
  0
ARC
  5
43D
100
AcDbEntity
  8
6_ALL_SURFS
100
AcDbCircle
 62
7
  6
CONTINUOUS
 10
329.4170702764
 20
1206.0690380543
 40
0.3
100
AcDbArc
 50
180.0
 51
270.0
  0
ARC
  5
43E
100
AcDbEntity
  8
6_ALL_SURFS
100
AcDbCircle
 62
7
  6
CONTINUOUS
 10
329.4170702764
 20
1207.1508649116
 40
0.3
100
AcDbArc
 50
137.0
 51
180.0
  0
ARC
  5
43F
100
AcDbEntity
  8
7_ALL_FEATURES
100
AcDbCircle
 62
7
  6
CONTINUOUS
 10
331.7170702764
 20
1210.2447739856
 40
0.3
100
AcDbArc
 50
0.0
 51
45.0
  0
ARC
  5
440
100
AcDbEntity
  8
6_ALL_SURFS
100
AcDbCircle
 62
7
  6
CONTINUOUS
 10
331.7170702764
 20
1209.0690380543
 40
0.3
100
AcDbArc
 50
270.0
 51
360.0
  0
ARC
  5
441
100
AcDbEntity
  8
6_ALL_SURFS
100
AcDbCircle
 62
7
  6
CONTINUOUS
 10
330.0538847328
 20
1205.4690380543
 40
0.3
100
AcDbArc
 50
28.0
 51
90.0
  0
ARC
  5
442
100
AcDbEntity
  8
7_ALL_FEATURES
100
AcDbCircle
 62
7
  6
CONTINUOUS
 10
331.5170702764
 20
1204.9690380543
 40
0.2
100
AcDbArc
 50
180.0
 51
270.0
  0
ARC
  5
443
100
AcDbEntity
  8
7_ALL_FEATURES
100
AcDbCircle
 62
7
  6
CONTINUOUS
 10
330.3170702764
 20
1204.4690380543
 40
0.2
100
AcDbArc
 50
270.0
 51
360.0
  0
ARC
  5
444
100
AcDbEntity
  8
3_ALL_AXES
100
AcDbCircle
 62
7
  6
CONTINUOUS
 10
330.6022430737
 20
1206.7690380543
 40
0.2
100
AcDbArc
 50
137.0
 51
237.1401196211
  0
ARC
  5
445
100
AcDbEntity
  8
7_ALL_FEATURES
100
AcDbCircle
 62
7
  6
CONTINUOUS
 10
329.4670702764
 20
1204.0690380543
 40
0.2
100
AcDbArc
 50
90.0
 51
180.0
  0
ARC
  5
446
100
AcDbEntity
  8
7_ALL_FEATURES
100
AcDbCircle
 62
7
  6
CONTINUOUS
 10
329.4670702764
 20
1203.4690380543
 40
0.2
100
AcDbArc
 50
180.0
 51
270.0
  0
ARC
  5
447
100
AcDbEntity
  8
6_ALL_SURFS
100
AcDbCircle
 62
7
  6
CONTINUOUS
 10
327.7170702764
 20
1204.5690380543
 40
0.2
100
AcDbArc
 50
0.0
 51
90.0
  0
ARC
  5
448
100
AcDbEntity
  8
6_ALL_SURFS
100
AcDbCircle
 62
7
  6
CONTINUOUS
 10
329.3170702764
 20
1204.0690380543
 40
0.2
100
AcDbArc
 50
90.0
 51
180.0
  0
ARC
  5
449
100
AcDbEntity
  8
6_ALL_SURFS
100
AcDbCircle
 62
7
  6
CONTINUOUS
 10
330.1670702764
 20
1204.4690380543
 40
0.2
100
AcDbArc
 50
270.0
 51
360.0
  0
ARC
  5
44A
100
AcDbEntity
  8
6_ALL_SURFS
100
AcDbCircle
 62
7
  6
CONTINUOUS
 10
328.9170702764
 20
1203.4690380543
 40
0.2
100
AcDbArc
 50
270.0
 51
360.0
  0
ARC
  5
44B
100
AcDbEntity
  8
6_ALL_SURFS
100
AcDbCircle
 62
7
  6
CONTINUOUS
 10
328.1170702764
 20
1203.4690380543
 40
0.2
100
AcDbArc
 50
180.0
 51
270.0
  0
ARC
  5
44C
100
AcDbEntity
  8
6_ALL_SURFS
100
AcDbCircle
 62
7
  6
CONTINUOUS
 10
329.0170702764
 20
1213.8690380543
 40
1.5
100
AcDbArc
 50
180.0
 51
270.0
  0
ARC
  5
44D
100
AcDbEntity
  8
6_ALL_SURFS
100
AcDbCircle
 62
7
  6
CONTINUOUS
 10
329.0170702764
 20
1216.6690380543
 40
1.5
100
AcDbArc
 50
90.0
 51
180.0
  0
ARC
  5
44E
100
AcDbEntity
  8
6_ALL_SURFS
100
AcDbCircle
 62
7
  6
CONTINUOUS
 10
330.4670702764
 20
1215.2690380543
 40
1.3
100
AcDbArc
 50
40.8069228749
 51
319.1930771251
  0
ARC
  5
44F
100
AcDbEntity
  8
7_ALL_FEATURES
100
AcDbCircle
 62
7
  6
CONTINUOUS
 10
332.0170702764
 20
1212.3447739856
 40
0.3
100
AcDbArc
 50
135.0
 51
180.0
  0
ARC
  5
450
100
AcDbEntity
  8
6_ALL_SURFS
100
AcDbCircle
 62
7
  6
CONTINUOUS
 10
330.1170702764
 20
1218.4690380543
 40
0.3
100
AcDbArc
 50
270.0
 51
360.0
  0
ARC
  5
451
100
AcDbEntity
  8
6_ALL_SURFS
100
AcDbCircle
 62
7
  6
CONTINUOUS
 10
329.8170702764
 20
1212.0690380543
 40
0.3
100
AcDbArc
 50
0.0
 51
90.0
  0
ARC
  5
452
100
AcDbEntity
  8
6_ALL_SURFS
100
AcDbCircle
 62
7
  6
CONTINUOUS
 10
331.7170702764
 20
1216.3371360523
 40
0.3
100
AcDbArc
 50
300.0
 51
360.0
  0
ARC
  5
453
100
AcDbEntity
  8
6_ALL_SURFS
100
AcDbCircle
 62
7
  6
CONTINUOUS
 10
331.6781360353
 20
1216.3146573577
 40
0.3
100
AcDbArc
 50
220.8069228749
 51
300.0
  0
ARC
  5
454
100
AcDbEntity
  8
6_ALL_SURFS
100
AcDbCircle
 62
7
  6
CONTINUOUS
 10
331.6781360353
 20
1214.2234187509
 40
0.3
100
AcDbArc
 50
60.0
 51
139.1930771251
  0
ARC
  5
455
100
AcDbEntity
  8
6_ALL_SURFS
100
AcDbCircle
 62
7
  6
CONTINUOUS
 10
331.7170702764
 20
1214.2009400563
 40
0.3
100
AcDbArc
 50
0.0
 51
60.0
  0
ARC
  5
456
100
AcDbEntity
  8
7_ALL_FEATURES
100
AcDbCircle
 62
7
  6
CONTINUOUS
 10
331.7170702764
 20
1212.893302123
 40
0.3
100
AcDbArc
 50
315.0
 51
360.0
  0
ARC
  5
457
100
AcDbEntity
  8
6_ALL_SURFS
100
AcDbCircle
 62
7
  6
CONTINUOUS
 10
335.4170702764
 20
1253.691423439
 40
5.0
100
AcDbArc
 50
168.992257654
 51
180.0
  0
ARC
  5
458
100
AcDbEntity
  8
6_ALL_SURFS
100
AcDbCircle
 62
7
  6
CONTINUOUS
 10
339.6170702764
 20
1276.0190380544
 40
2.8
100
AcDbArc
 50
147.841849515
 51
210.000000002
  0
ARC
  5
459
100
AcDbEntity
  8
6_ALL_SURFS
100
AcDbCircle
 62
7
  6
CONTINUOUS
 10
339.6170702764
 20
1276.0190380544
 40
2.8
100
AcDbArc
 50
329.999999998
 51
360.0
  0
ARC
  5
45A
100
AcDbEntity
  8
6_ALL_SURFS
100
AcDbCircle
 62
7
  6
CONTINUOUS
 10
335.4846479848
 20
1272.3690380543
 40
1.5
100
AcDbArc
 50
90.0
 51
168.992257654
  0
ARC
  5
45B
100
AcDbEntity
  8
6_ALL_SURFS
100
AcDbCircle
 62
7
  6
CONTINUOUS
 10
339.6170702764
 20
1276.0190380544
 40
1.3
100
AcDbArc
 50
130.8069228753
 51
49.1930771247
  0
ARC
  5
45C
100
AcDbEntity
  8
6_ALL_SURFS
100
AcDbCircle
 62
7
  6
CONTINUOUS
 10
359.9670702764
 20
1278.2690380543
 40
1.0
100
AcDbArc
 50
90.0
 51
180.0
  0
ARC
  5
45D
100
AcDbEntity
  8
6_ALL_SURFS
100
AcDbCircle
 62
7
  6
CONTINUOUS
 10
358.4670702764
 20
1274.3690380543
 40
0.5
100
AcDbArc
 50
270.0
 51
360.0
  0
ARC
  5
45E
100
AcDbEntity
  8
6_ALL_SURFS
100
AcDbCircle
 62
7
  6
CONTINUOUS
 10
342.4749541088
 20
1274.3690380543
 40
0.5
100
AcDbArc
 50
149.999999998
 51
270.0
  0
ARC
  5
45F
100
AcDbEntity
  8
6_ALL_SURFS
100
AcDbCircle
 62
7
  6
CONTINUOUS
 10
336.759186444
 20
1274.3690380543
 40
0.5
100
AcDbArc
 50
270.0
 51
30.000000002
  0
ARC
  5
460
100
AcDbEntity
  8
6_ALL_SURFS
100
AcDbCircle
 62
7
  6
CONTINUOUS
 10
335.9792384693
 20
1271.7690380543
 40
0.5
100
AcDbArc
 50
90.0
 51
169.0
  0
ARC
  5
461
100
AcDbEntity
  8
6_ALL_SURFS
100
AcDbCircle
 62
7
  6
CONTINUOUS
 10
336.9926655819
 20
1277.6690380543
 40
0.3
100
AcDbArc
 50
327.841849515
 51
90.0
  0
ARC
  5
462
100
AcDbEntity
  8
6_ALL_SURFS
100
AcDbCircle
 62
7
  6
CONTINUOUS
 10
332.3604483147
 20
1254.2001452443
 40
0.3
100
AcDbArc
 50
169.0
 51
250.0
  0
ARC
  5
463
100
AcDbEntity
  8
6_ALL_SURFS
100
AcDbCircle
 62
7
  6
CONTINUOUS
 10
361.1670702764
 20
1277.3690380543
 40
0.3
100
AcDbArc
 50
90.0
 51
180.0
  0
ARC
  5
464
100
AcDbEntity
  8
6_ALL_SURFS
100
AcDbCircle
 62
7
  6
CONTINUOUS
 10
360.5670702764
 20
1272.5690380543
 40
0.3
100
AcDbArc
 50
270.0
 51
360.0
  0
ARC
  5
465
100
AcDbEntity
  8
6_ALL_SURFS
100
AcDbCircle
 62
7
  6
CONTINUOUS
 10
332.3825564472
 20
1253.5535918787
 40
0.3
100
AcDbArc
 50
340.0
 51
70.0
  0
ARC
  5
466
100
AcDbEntity
  8
6_ALL_SURFS
100
AcDbCircle
 62
7
  6
CONTINUOUS
 10
332.3170702764
 20
1251.6193874631
 40
0.3
100
AcDbArc
 50
160.0
 51
180.0
  0
ARC
  5
467
100
AcDbEntity
  8
6_ALL_SURFS
100
AcDbCircle
 62
7
  6
CONTINUOUS
 10
335.6170702764
 20
1278.2690380543
 40
0.3
100
AcDbArc
 50
180.0
 51
270.0
  0
ARC
  5
468
100
AcDbEntity
  8
6_ALL_SURFS
100
AcDbCircle
 62
7
  6
CONTINUOUS
 10
335.6170702764
 20
1278.9690380543
 40
0.3
100
AcDbArc
 50
90.0
 51
180.0
  0
ARC
  5
469
100
AcDbEntity
  8
6_ALL_SURFS
100
AcDbCircle
 62
7
  6
CONTINUOUS
 10
337.5674768208
 20
1278.9690380543
 40
0.3
100
AcDbArc
 50
30.0000000014
 51
90.0
  0
ARC
  5
46A
100
AcDbEntity
  8
6_ALL_SURFS
100
AcDbCircle
 62
7
  6
CONTINUOUS
 10
338.571450973
 20
1277.2301038133
 40
0.3
100
AcDbArc
 50
310.8069228753
 51
30.0000000014
  0
ARC
  5
46B
100
AcDbEntity
  8
6_ALL_SURFS
100
AcDbCircle
 62
7
  6
CONTINUOUS
 10
340.6626895798
 20
1277.2301038133
 40
0.3
100
AcDbArc
 50
149.9999999986
 51
229.1930771247
  0
ARC
  5
46C
100
AcDbEntity
  8
6_ALL_SURFS
100
AcDbCircle
 62
7
  6
CONTINUOUS
 10
341.666663732
 20
1278.9690380543
 40
0.3
100
AcDbArc
 50
90.0
 51
149.9999999986
  0
ARC
  5
46D
100
AcDbEntity
  8
6_ALL_SURFS
100
AcDbCircle
 62
7
  6
CONTINUOUS
 10
342.1170702764
 20
1278.9690380543
 40
0.3
100
AcDbArc
 50
0.0
 51
90.0
  0
ARC
  5
46E
100
AcDbEntity
  8
3_ALL_AXES
100
AcDbCircle
 62
7
  6
CONTINUOUS
 10
395.6170702764
 20
1205.0890380543
 40
1.8
100
AcDbArc
 50
122.8598803789
 51
180.0
  0
ARC
  5
46F
100
AcDbEntity
  8
7_ALL_FEATURES
100
AcDbCircle
 62
7
  6
CONTINUOUS
 10
396.0170702764
 20
1207.2690380543
 40
1.5
100
AcDbArc
 50
0.0
 51
43.0
  0
ARC
  5
470
100
AcDbEntity
  8
3_ALL_AXES
100
AcDbCircle
 62
7
  6
CONTINUOUS
 10
395.6170702764
 20
1205.0890380543
 40
1.0
100
AcDbArc
 50
122.8598803789
 51
180.0
  0
ARC
  5
471
100
AcDbEntity
  8
3_ALL_AXES
100
AcDbCircle
 62
7
  6
CONTINUOUS
 10
394.5318974791
 20
1206.7690380543
 40
1.0
100
AcDbArc
 50
302.8598803789
 51
43.0
  0
ARC
  5
472
100
AcDbEntity
  8
3_ALL_AXES
100
AcDbCircle
 62
7
  6
CONTINUOUS
 10
403.0170702764
 20
1204.3690380543
 40
0.5
100
AcDbArc
 50
53.1301023542
 51
126.8698976458
  0
ARC
  5
473
100
AcDbEntity
  8
3_ALL_AXES
100
AcDbCircle
 62
7
  6
CONTINUOUS
 10
400.0170702764
 20
1204.3690380543
 40
0.5
100
AcDbArc
 50
53.1301023542
 51
126.8698976458
  0
ARC
  5
474
100
AcDbEntity
  8
3_ALL_AXES
100
AcDbCircle
 62
7
  6
CONTINUOUS
 10
394.6062818868
 20
1207.5690380543
 40
0.4
100
AcDbArc
 50
43.0
 51
223.0
  0
ARC
  5
475
100
AcDbEntity
  8
7_ALL_FEATURES
100
AcDbCircle
 62
7
  6
CONTINUOUS
 10
393.1170702764
 20
1210.793302123
 40
0.3
100
AcDbArc
 50
315.0
 51
360.0
  0
ARC
  5
476
100
AcDbEntity
  8
7_ALL_FEATURES
100
AcDbCircle
 62
7
  6
CONTINUOUS
 10
395.3170702764
 20
1210.6589986855
 40
0.3
100
AcDbArc
 50
180.0
 51
223.0
  0
ARC
  5
477
100
AcDbEntity
  8
7_ALL_FEATURES
100
AcDbCircle
 62
7
  6
CONTINUOUS
 10
394.4878539347
 20
1208.4690380543
 40
0.3
100
AcDbArc
 50
43.0
 51
90.0
  0
ARC
  5
478
100
AcDbEntity
  8
7_ALL_FEATURES
100
AcDbCircle
 62
7
  6
CONTINUOUS
 10
395.7170702764
 20
1206.0690380543
 40
0.3
100
AcDbArc
 50
270.0
 51
360.0
  0
ARC
  5
479
100
AcDbEntity
  8
7_ALL_FEATURES
100
AcDbCircle
 62
7
  6
CONTINUOUS
 10
395.7170702764
 20
1207.1508649116
 40
0.3
100
AcDbArc
 50
0.0
 51
43.0
  0
ARC
  5
47A
100
AcDbEntity
  8
7_ALL_FEATURES
100
AcDbCircle
 62
7
  6
CONTINUOUS
 10
395.08025582
 20
1205.4690380543
 40
0.3
100
AcDbArc
 50
90.0
 51
152.0
  0
ARC
  5
47B
100
AcDbEntity
  8
7_ALL_FEATURES
100
AcDbCircle
 62
7
  6
CONTINUOUS
 10
393.4170702764
 20
1209.0690380543
 40
0.3
100
AcDbArc
 50
180.0
 51
270.0
  0
ARC
  5
47C
100
AcDbEntity
  8
7_ALL_FEATURES
100
AcDbCircle
 62
7
  6
CONTINUOUS
 10
393.4170702764
 20
1210.2447739856
 40
0.3
100
AcDbArc
 50
135.0
 51
180.0
  0
ARC
  5
47D
100
AcDbEntity
  8
7_ALL_FEATURES
100
AcDbCircle
 62
7
  6
CONTINUOUS
 10
393.6170702764
 20
1204.9690380543
 40
0.2
100
AcDbArc
 50
270.0
 51
360.0
  0
ARC
  5
47E
100
AcDbEntity
  8
7_ALL_FEATURES
100
AcDbCircle
 62
7
  6
CONTINUOUS
 10
394.8170702764
 20
1204.4690380543
 40
0.2
100
AcDbArc
 50
180.0
 51
270.0
  0
ARC
  5
47F
100
AcDbEntity
  8
3_ALL_AXES
100
AcDbCircle
 62
7
  6
CONTINUOUS
 10
394.5318974791
 20
1206.7690380543
 40
0.2
100
AcDbArc
 50
302.8598803789
 51
43.0
  0
ARC
  5
480
100
AcDbEntity
  8
7_ALL_FEATURES
100
AcDbCircle
 62
7
  6
CONTINUOUS
 10
395.6670702764
 20
1204.0690380543
 40
0.2
100
AcDbArc
 50
0.0
 51
72.0
  0
ARC
  5
481
100
AcDbEntity
  8
7_ALL_FEATURES
100
AcDbCircle
 62
7
  6
CONTINUOUS
 10
395.6670702764
 20
1203.4690380543
 40
0.2
100
AcDbArc
 50
270.0
 51
360.0
  0
ARC
  5
482
100
AcDbEntity
  8
7_ALL_FEATURES
100
AcDbCircle
 62
7
  6
CONTINUOUS
 10
397.4170702764
 20
1204.5690380543
 40
0.2
100
AcDbArc
 50
90.0
 51
180.0
  0
ARC
  5
483
100
AcDbEntity
  8
7_ALL_FEATURES
100
AcDbCircle
 62
7
  6
CONTINUOUS
 10
395.8170702764
 20
1204.0690380543
 40
0.2
100
AcDbArc
 50
0.0
 51
90.0
  0
ARC
  5
484
100
AcDbEntity
  8
7_ALL_FEATURES
100
AcDbCircle
 62
7
  6
CONTINUOUS
 10
397.0170702764
 20
1203.4690380543
 40
0.2
100
AcDbArc
 50
270.0
 51
360.0
  0
ARC
  5
485
100
AcDbEntity
  8
7_ALL_FEATURES
100
AcDbCircle
 62
7
  6
CONTINUOUS
 10
396.2170702764
 20
1203.4690380543
 40
0.2
100
AcDbArc
 50
180.0
 51
270.0
  0
ARC
  5
486
100
AcDbEntity
  8
7_ALL_FEATURES
100
AcDbCircle
 62
7
  6
CONTINUOUS
 10
394.9670702764
 20
1204.4690380543
 40
0.2
100
AcDbArc
 50
180.0
 51
270.0
  0
ARC
  5
487
100
AcDbEntity
  8
7_ALL_FEATURES
100
AcDbCircle
 62
7
  6
CONTINUOUS
 10
396.1170702764
 20
1216.6690380543
 40
1.5
100
AcDbArc
 50
0.0
 51
90.0
  0
ARC
  5
488
100
AcDbEntity
  8
7_ALL_FEATURES
100
AcDbCircle
 62
7
  6
CONTINUOUS
 10
396.1170702764
 20
1213.8690380543
 40
1.5
100
AcDbArc
 50
270.0
 51
360.0
  0
ARC
  5
489
100
AcDbEntity
  8
7_ALL_FEATURES
100
AcDbCircle
 62
7
  6
CONTINUOUS
 10
394.6670702764
 20
1215.2690380543
 40
1.3
100
AcDbArc
 50
220.8069228749
 51
139.1930771251
  0
ARC
  5
48A
100
AcDbEntity
  8
7_ALL_FEATURES
100
AcDbCircle
 62
7
  6
CONTINUOUS
 10
393.1170702764
 20
1212.3447739856
 40
0.3
100
AcDbArc
 50
0.0
 51
45.0
  0
ARC
  5
48B
100
AcDbEntity
  8
7_ALL_FEATURES
100
AcDbCircle
 62
7
  6
CONTINUOUS
 10
395.0170702764
 20
1218.4690380543
 40
0.3
100
AcDbArc
 50
180.0
 51
270.0
  0
ARC
  5
48C
100
AcDbEntity
  8
7_ALL_FEATURES
100
AcDbCircle
 62
7
  6
CONTINUOUS
 10
395.3170702764
 20
1212.0690380543
 40
0.3
100
AcDbArc
 50
90.0
 51
180.0
  0
ARC
  5
48D
100
AcDbEntity
  8
7_ALL_FEATURES
100
AcDbCircle
 62
7
  6
CONTINUOUS
 10
393.4170702764
 20
1212.893302123
 40
0.3
100
AcDbArc
 50
180.0
 51
225.0
  0
ARC
  5
48E
100
AcDbEntity
  8
7_ALL_FEATURES
100
AcDbCircle
 62
7
  6
CONTINUOUS
 10
393.4170702764
 20
1214.2009400563
 40
0.3
100
AcDbArc
 50
120.0
 51
180.0
  0
ARC
  5
48F
100
AcDbEntity
  8
7_ALL_FEATURES
100
AcDbCircle
 62
7
  6
CONTINUOUS
 10
393.4560045175
 20
1214.2234187509
 40
0.3
100
AcDbArc
 50
40.8069228749
 51
120.0
  0
ARC
  5
490
100
AcDbEntity
  8
7_ALL_FEATURES
100
AcDbCircle
 62
7
  6
CONTINUOUS
 10
393.4560045175
 20
1216.3146573577
 40
0.3
100
AcDbArc
 50
240.0
 51
319.1930771251
  0
ARC
  5
491
100
AcDbEntity
  8
7_ALL_FEATURES
100
AcDbCircle
 62
7
  6
CONTINUOUS
 10
393.4170702764
 20
1216.3371360523
 40
0.3
100
AcDbArc
 50
180.0
 51
240.0
  0
ARC
  5
492
100
AcDbEntity
  8
3_ALL_AXES
100
AcDbCircle
 62
7
  6
CONTINUOUS
 10
412.0170702764
 20
1204.3690380543
 40
0.5
100
AcDbArc
 50
53.1301023542
 51
126.8698976458
  0
ARC
  5
493
100
AcDbEntity
  8
3_ALL_AXES
100
AcDbCircle
 62
7
  6
CONTINUOUS
 10
409.0170702764
 20
1204.3690380543
 40
0.5
100
AcDbArc
 50
53.1301023542
 51
126.8698976458
  0
ARC
  5
494
100
AcDbEntity
  8
3_ALL_AXES
100
AcDbCircle
 62
7
  6
CONTINUOUS
 10
406.0170702764
 20
1204.3690380543
 40
0.5
100
AcDbArc
 50
53.1301023542
 51
126.8698976458
  0
ARC
  5
495
100
AcDbEntity
  8
7_ALL_FEATURES
100
AcDbCircle
 62
7
  6
CONTINUOUS
 10
417.1233669185
 20
1205.3753346964
 40
0.3937033579
100
AcDbArc
 50
275.7105931375
 51
90.0
  0
ARC
  5
496
100
AcDbEntity
  8
7_ALL_FEATURES
100
AcDbCircle
 62
7
  6
CONTINUOUS
 10
362.5670702764
 20
1276.1690380543
 40
8.0
100
AcDbArc
 50
284.4775121859
 51
300.0
  0
ARC
  5
497
100
AcDbEntity
  8
7_ALL_FEATURES
100
AcDbCircle
 62
7
  6
CONTINUOUS
 10
362.5670702764
 20
1276.1690380543
 40
8.0
100
AcDbArc
 50
240.0
 51
255.5224878141
  0
ARC
  5
498
100
AcDbEntity
  8
7_ALL_FEATURES
100
AcDbCircle
 62
7
  6
CONTINUOUS
 10
362.5670702764
 20
1276.1690380543
 40
7.9843597113
100
AcDbArc
 50
255.4935070353
 51
266.4096498625
  0
ARC
  5
499
100
AcDbEntity
  8
7_ALL_FEATURES
100
AcDbCircle
 62
7
  6
CONTINUOUS
 10
362.5670702764
 20
1276.1690380543
 40
7.9843597113
100
AcDbArc
 50
273.5903501375
 51
284.5064929647
  0
ARC
  5
49A
100
AcDbEntity
  8
7_ALL_FEATURES
100
AcDbCircle
 62
7
  6
CONTINUOUS
 10
362.5670702764
 20
1276.1690380543
 40
7.7459666924
100
AcDbArc
 50
266.2990001561
 51
273.7009998439
  0
ARC
  5
49B
100
AcDbEntity
  8
7_ALL_FEATURES
100
AcDbCircle
 62
7
  6
CONTINUOUS
 10
389.7170702764
 20
1253.691423439
 40
5.0
100
AcDbArc
 50
0.0
 51
11.007742346
  0
ARC
  5
49C
100
AcDbEntity
  8
7_ALL_FEATURES
100
AcDbCircle
 62
7
  6
CONTINUOUS
 10
385.5170702764
 20
1276.0190380544
 40
2.8
100
AcDbArc
 50
180.0
 51
210.000000002
  0
ARC
  5
49D
100
AcDbEntity
  8
7_ALL_FEATURES
100
AcDbCircle
 62
7
  6
CONTINUOUS
 10
385.5170702764
 20
1276.0190380544
 40
2.8
100
AcDbArc
 50
329.999999998
 51
32.158150485
  0
ARC
  5
49E
100
AcDbEntity
  8
7_ALL_FEATURES
100
AcDbCircle
 62
7
  6
CONTINUOUS
 10
389.6494925679
 20
1272.3690380543
 40
1.5
100
AcDbArc
 50
11.007742346
 51
90.0
  0
ARC
  5
49F
100
AcDbEntity
  8
7_ALL_FEATURES
100
AcDbCircle
 62
7
  6
CONTINUOUS
 10
385.5170702764
 20
1276.0190380544
 40
1.3
100
AcDbArc
 50
130.8069228753
 51
49.1930771247
  0
ARC
  5
4A0
100
AcDbEntity
  8
7_ALL_FEATURES
100
AcDbCircle
 62
7
  6
CONTINUOUS
 10
365.1670702764
 20
1278.2690380543
 40
1.0
100
AcDbArc
 50
0.0
 51
90.0
  0
ARC
  5
4A1
100
AcDbEntity
  8
7_ALL_FEATURES
100
AcDbCircle
 62
7
  6
CONTINUOUS
 10
366.6670702764
 20
1274.3690380543
 40
0.5
100
AcDbArc
 50
180.0
 51
270.0
  0
ARC
  5
4A2
100
AcDbEntity
  8
7_ALL_FEATURES
100
AcDbCircle
 62
7
  6
CONTINUOUS
 10
382.659186444
 20
1274.3690380543
 40
0.5
100
AcDbArc
 50
270.0
 51
30.000000002
  0
ARC
  5
4A3
100
AcDbEntity
  8
7_ALL_FEATURES
100
AcDbCircle
 62
7
  6
CONTINUOUS
 10
388.3749541088
 20
1274.3690380543
 40
0.5
100
AcDbArc
 50
149.999999998
 51
270.0
  0
ARC
  5
4A4
100
AcDbEntity
  8
7_ALL_FEATURES
100
AcDbCircle
 62
7
  6
CONTINUOUS
 10
389.1549020835
 20
1271.7690380543
 40
0.5
100
AcDbArc
 50
11.0
 51
90.0
  0
ARC
  5
4A5
100
AcDbEntity
  8
7_ALL_FEATURES
100
AcDbCircle
 62
7
  6
CONTINUOUS
 10
388.1414749709
 20
1277.6690380543
 40
0.3
100
AcDbArc
 50
90.0
 51
212.158150485
  0
ARC
  5
4A6
100
AcDbEntity
  8
7_ALL_FEATURES
100
AcDbCircle
 62
7
  6
CONTINUOUS
 10
392.7736922381
 20
1254.2001452443
 40
0.3
100
AcDbArc
 50
290.0
 51
11.0
  0
ARC
  5
4A7
100
AcDbEntity
  8
7_ALL_FEATURES
100
AcDbCircle
 62
7
  6
CONTINUOUS
 10
363.9670702764
 20
1277.3690380543
 40
0.3
100
AcDbArc
 50
0.0
 51
90.0
  0
ARC
  5
4A8
100
AcDbEntity
  8
7_ALL_FEATURES
100
AcDbCircle
 62
7
  6
CONTINUOUS
 10
392.8170702764
 20
1251.6193874631
 40
0.3
100
AcDbArc
 50
0.0
 51
20.0
  0
ARC
  5
4A9
100
AcDbEntity
  8
7_ALL_FEATURES
100
AcDbCircle
 62
7
  6
CONTINUOUS
 10
392.7515841056
 20
1253.5535918787
 40
0.3
100
AcDbArc
 50
110.0
 51
200.0
  0
ARC
  5
4AA
100
AcDbEntity
  8
7_ALL_FEATURES
100
AcDbCircle
 62
7
  6
CONTINUOUS
 10
364.5670702764
 20
1272.5690380543
 40
0.3
100
AcDbArc
 50
180.0
 51
270.0
  0
ARC
  5
4AB
100
AcDbEntity
  8
7_ALL_FEATURES
100
AcDbCircle
 62
7
  6
CONTINUOUS
 10
383.0170702764
 20
1278.9690380543
 40
0.3
100
AcDbArc
 50
90.0
 51
180.0
  0
ARC
  5
4AC
100
AcDbEntity
  8
7_ALL_FEATURES
100
AcDbCircle
 62
7
  6
CONTINUOUS
 10
383.4674768208
 20
1278.9690380543
 40
0.3
100
AcDbArc
 50
30.0000000014
 51
90.0
  0
ARC
  5
4AD
100
AcDbEntity
  8
7_ALL_FEATURES
100
AcDbCircle
 62
7
  6
CONTINUOUS
 10
384.471450973
 20
1277.2301038133
 40
0.3
100
AcDbArc
 50
310.8069228753
 51
30.0000000014
  0
ARC
  5
4AE
100
AcDbEntity
  8
7_ALL_FEATURES
100
AcDbCircle
 62
7
  6
CONTINUOUS
 10
386.5626895798
 20
1277.2301038133
 40
0.3
100
AcDbArc
 50
149.9999999986
 51
229.1930771247
  0
ARC
  5
4AF
100
AcDbEntity
  8
7_ALL_FEATURES
100
AcDbCircle
 62
7
  6
CONTINUOUS
 10
387.566663732
 20
1278.9690380543
 40
0.3
100
AcDbArc
 50
90.0
 51
149.9999999986
  0
ARC
  5
4B0
100
AcDbEntity
  8
7_ALL_FEATURES
100
AcDbCircle
 62
7
  6
CONTINUOUS
 10
389.5170702764
 20
1278.9690380543
 40
0.3
100
AcDbArc
 50
0.0
 51
90.0
  0
ARC
  5
4B1
100
AcDbEntity
  8
7_ALL_FEATURES
100
AcDbCircle
 62
7
  6
CONTINUOUS
 10
389.5170702764
 20
1278.2690380543
 40
0.3
100
AcDbArc
 50
270.0
 51
360.0
  0
ARC
  5
4B2
100
AcDbEntity
  8
7_ALL_FEATURES
100
AcDbCircle
 62
7
  6
CONTINUOUS
 10
815.2778055559
 20
1596.7376208098
 40
4.7990381057
100
AcDbArc
 50
35.6935828234
 51
144.3064171766
  0
ARC
  5
4B3
100
AcDbEntity
  8
7_ALL_FEATURES
100
AcDbCircle
 62
7
  6
CONTINUOUS
 10
1565.2778055559
 20
1596.7376208098
 40
4.7990381057
100
AcDbArc
 50
35.6935828234
 51
144.3064171766
  0
ARC
  5
4B4
100
AcDbEntity
  8
7_ALL_FEATURES
100
AcDbCircle
 62
7
  6
CONTINUOUS
 10
1315.2778055559
 20
1596.7376208098
 40
4.7990381057
100
AcDbArc
 50
35.6935828234
 51
144.3064171766
  0
ARC
  5
4B5
100
AcDbEntity
  8
7_ALL_FEATURES
100
AcDbCircle
 62
7
  6
CONTINUOUS
 10
1065.2778055559
 20
1596.7376208098
 40
4.7990381057
100
AcDbArc
 50
35.6935828234
 51
144.3064171766
  0
ARC
  5
4B6
100
AcDbEntity
  8
7_ALL_FEATURES
100
AcDbCircle
 62
7
  6
CONTINUOUS
 10
1565.2778055559
 20
1596.7376208098
 40
4.7990381057
100
AcDbArc
 50
357.6115056179
 51
27.2855350899
  0
ARC
  5
4B7
100
AcDbEntity
  8
7_ALL_FEATURES
100
AcDbCircle
 62
7
  6
CONTINUOUS
 10
1315.2778055559
 20
1596.7376208098
 40
4.7990381057
100
AcDbArc
 50
357.6115056179
 51
27.2855350899
  0
ARC
  5
4B8
100
AcDbEntity
  8
7_ALL_FEATURES
100
AcDbCircle
 62
7
  6
CONTINUOUS
 10
1565.2778055559
 20
1596.7376208098
 40
4.7990381057
100
AcDbArc
 50
152.7144649101
 51
182.3884943821
  0
ARC
  5
4B9
100
AcDbEntity
  8
7_ALL_FEATURES
100
AcDbCircle
 62
7
  6
CONTINUOUS
 10
1065.2778055559
 20
1596.7376208098
 40
4.7990381057
100
AcDbArc
 50
357.6115056179
 51
27.2855350899
  0
ARC
  5
4BA
100
AcDbEntity
  8
7_ALL_FEATURES
100
AcDbCircle
 62
7
  6
CONTINUOUS
 10
1315.2778055559
 20
1596.7376208098
 40
4.7990381057
100
AcDbArc
 50
152.7144649101
 51
182.3884943821
  0
ARC
  5
4BB
100
AcDbEntity
  8
7_ALL_FEATURES
100
AcDbCircle
 62
7
  6
CONTINUOUS
 10
815.2778055559
 20
1596.7376208098
 40
4.7990381057
100
AcDbArc
 50
357.6115056179
 51
27.2855350899
  0
ARC
  5
4BC
100
AcDbEntity
  8
7_ALL_FEATURES
100
AcDbCircle
 62
7
  6
CONTINUOUS
 10
1065.2778055559
 20
1596.7376208098
 40
4.7990381057
100
AcDbArc
 50
152.7144649101
 51
182.3884943821
  0
ARC
  5
4BD
100
AcDbEntity
  8
7_ALL_FEATURES
100
AcDbCircle
 62
7
  6
CONTINUOUS
 10
815.2778055559
 20
1596.7376208098
 40
4.7990381057
100
AcDbArc
 50
152.7144649101
 51
182.3884943821
  0
ARC
  5
4BE
100
AcDbEntity
  8
7_ALL_FEATURES
100
AcDbCircle
 62
7
  6
CONTINUOUS
 10
1565.2778055559
 20
1596.7376208098
 40
4.7990381057
100
AcDbArc
 50
313.171184019
 51
350.4039906056
  0
ARC
  5
4BF
100
AcDbEntity
  8
7_ALL_FEATURES
100
AcDbCircle
 62
7
  6
CONTINUOUS
 10
1315.2778055559
 20
1596.7376208098
 40
4.7990381057
100
AcDbArc
 50
313.171184019
 51
350.4039906056
  0
ARC
  5
4C0
100
AcDbEntity
  8
7_ALL_FEATURES
100
AcDbCircle
 62
7
  6
CONTINUOUS
 10
1565.2778055559
 20
1596.7376208098
 40
4.7990381057
100
AcDbArc
 50
189.5960093944
 51
226.828815981
  0
ARC
  5
4C1
100
AcDbEntity
  8
7_ALL_FEATURES
100
AcDbCircle
 62
7
  6
CONTINUOUS
 10
1065.2778055559
 20
1596.7376208098
 40
4.7990381057
100
AcDbArc
 50
313.171184019
 51
350.4039906056
  0
ARC
  5
4C2
100
AcDbEntity
  8
7_ALL_FEATURES
100
AcDbCircle
 62
7
  6
CONTINUOUS
 10
1315.2778055559
 20
1596.7376208098
 40
4.7990381057
100
AcDbArc
 50
189.5960093944
 51
226.828815981
  0
ARC
  5
4C3
100
AcDbEntity
  8
7_ALL_FEATURES
100
AcDbCircle
 62
7
  6
CONTINUOUS
 10
815.2778055559
 20
1596.7376208098
 40
4.7990381057
100
AcDbArc
 50
313.171184019
 51
350.4039906056
  0
ARC
  5
4C4
100
AcDbEntity
  8
7_ALL_FEATURES
100
AcDbCircle
 62
7
  6
CONTINUOUS
 10
1065.2778055559
 20
1596.7376208098
 40
4.7990381057
100
AcDbArc
 50
189.5960093944
 51
226.828815981
  0
ARC
  5
4C5
100
AcDbEntity
  8
7_ALL_FEATURES
100
AcDbCircle
 62
7
  6
CONTINUOUS
 10
815.2778055559
 20
1596.7376208098
 40
4.7990381057
100
AcDbArc
 50
189.5960093944
 51
226.828815981
  0
CIRCLE
  5
4C6
100
AcDbEntity
  8
6_ALL_SURFS
100
AcDbCircle
 62
7
  6
CONTINUOUS
 10
815.2778055559
 20
1596.7376208098
 40
3.5
  0
CIRCLE
  5
4C7
100
AcDbEntity
  8
6_ALL_SURFS
100
AcDbCircle
 62
7
  6
CONTINUOUS
 10
1065.2778055559
 20
1596.7376208098
 40
3.5
  0
CIRCLE
  5
4C8
100
AcDbEntity
  8
6_ALL_SURFS
100
AcDbCircle
 62
7
  6
CONTINUOUS
 10
1315.2778055559
 20
1596.7376208098
 40
3.5
  0
CIRCLE
  5
4C9
100
AcDbEntity
  8
6_ALL_SURFS
100
AcDbCircle
 62
7
  6
CONTINUOUS
 10
1565.2778055559
 20
1596.7376208098
 40
3.5
  0
ARC
  5
4CA
100
AcDbEntity
  8
6_ALL_SURFS
100
AcDbCircle
 62
7
  6
CONTINUOUS
 10
1315.2778055559
 20
1694.6376208098
 40
4.7990381057
100
AcDbArc
 50
177.6115056179
 51
207.2855350899
  0
ARC
  5
4CB
100
AcDbEntity
  8
6_ALL_SURFS
100
AcDbCircle
 62
7
  6
CONTINUOUS
 10
1065.2778055559
 20
1694.6376208098
 40
4.7990381057
100
AcDbArc
 50
332.7144649101
 51
2.3884943821
  0
ARC
  5
4CC
100
AcDbEntity
  8
6_ALL_SURFS
100
AcDbCircle
 62
7
  6
CONTINUOUS
 10
1565.2778055559
 20
1694.6376208098
 40
4.7990381057
100
AcDbArc
 50
177.6115056179
 51
207.2855350899
  0
ARC
  5
4CD
100
AcDbEntity
  8
6_ALL_SURFS
100
AcDbCircle
 62
7
  6
CONTINUOUS
 10
1315.2778055559
 20
1694.6376208098
 40
4.7990381057
100
AcDbArc
 50
332.7144649101
 51
2.3884943821
  0
ARC
  5
4CE
100
AcDbEntity
  8
6_ALL_SURFS
100
AcDbCircle
 62
7
  6
CONTINUOUS
 10
1565.2778055559
 20
1694.6376208098
 40
4.7990381057
100
AcDbArc
 50
332.7144649101
 51
2.3884943821
  0
ARC
  5
4CF
100
AcDbEntity
  8
6_ALL_SURFS
100
AcDbCircle
 62
7
  6
CONTINUOUS
 10
815.2778055559
 20
1694.6376208098
 40
4.7990381057
100
AcDbArc
 50
133.171184019
 51
170.4039906056
  0
ARC
  5
4D0
100
AcDbEntity
  8
6_ALL_SURFS
100
AcDbCircle
 62
7
  6
CONTINUOUS
 10
1065.2778055559
 20
1694.6376208098
 40
4.7990381057
100
AcDbArc
 50
133.171184019
 51
170.4039906056
  0
ARC
  5
4D1
100
AcDbEntity
  8
6_ALL_SURFS
100
AcDbCircle
 62
7
  6
CONTINUOUS
 10
815.2778055559
 20
1694.6376208098
 40
4.7990381057
100
AcDbArc
 50
9.5960093944
 51
46.828815981
  0
ARC
  5
4D2
100
AcDbEntity
  8
6_ALL_SURFS
100
AcDbCircle
 62
7
  6
CONTINUOUS
 10
1315.2778055559
 20
1694.6376208098
 40
4.7990381057
100
AcDbArc
 50
133.171184019
 51
170.4039906056
  0
ARC
  5
4D3
100
AcDbEntity
  8
6_ALL_SURFS
100
AcDbCircle
 62
7
  6
CONTINUOUS
 10
1065.2778055559
 20
1694.6376208098
 40
4.7990381057
100
AcDbArc
 50
9.5960093944
 51
46.828815981
  0
ARC
  5
4D4
100
AcDbEntity
  8
6_ALL_SURFS
100
AcDbCircle
 62
7
  6
CONTINUOUS
 10
1565.2778055559
 20
1694.6376208098
 40
4.7990381057
100
AcDbArc
 50
133.171184019
 51
170.4039906056
  0
ARC
  5
4D5
100
AcDbEntity
  8
6_ALL_SURFS
100
AcDbCircle
 62
7
  6
CONTINUOUS
 10
1565.2778055559
 20
1694.6376208098
 40
4.7990381057
100
AcDbArc
 50
215.6935828234
 51
324.3064171766
  0
ARC
  5
4D6
100
AcDbEntity
  8
6_ALL_SURFS
100
AcDbCircle
 62
7
  6
CONTINUOUS
 10
1315.2778055559
 20
1694.6376208098
 40
4.7990381057
100
AcDbArc
 50
9.5960093944
 51
46.828815981
  0
ARC
  5
4D7
100
AcDbEntity
  8
6_ALL_SURFS
100
AcDbCircle
 62
7
  6
CONTINUOUS
 10
1315.2778055559
 20
1694.6376208098
 40
4.7990381057
100
AcDbArc
 50
215.6935828234
 51
324.3064171766
  0
ARC
  5
4D8
100
AcDbEntity
  8
6_ALL_SURFS
100
AcDbCircle
 62
7
  6
CONTINUOUS
 10
1065.2778055559
 20
1694.6376208098
 40
4.7990381057
100
AcDbArc
 50
215.6935828234
 51
324.3064171766
  0
ARC
  5
4D9
100
AcDbEntity
  8
6_ALL_SURFS
100
AcDbCircle
 62
7
  6
CONTINUOUS
 10
815.2778055559
 20
1694.6376208098
 40
4.7990381057
100
AcDbArc
 50
215.6935828234
 51
324.3064171766
  0
ARC
  5
4DA
100
AcDbEntity
  8
6_ALL_SURFS
100
AcDbCircle
 62
7
  6
CONTINUOUS
 10
1565.2778055559
 20
1694.6376208098
 40
4.7990381057
100
AcDbArc
 50
9.5960093944
 51
46.828815981
  0
ARC
  5
4DB
100
AcDbEntity
  8
6_ALL_SURFS
100
AcDbCircle
 62
7
  6
CONTINUOUS
 10
815.2778055559
 20
1694.6376208098
 40
4.7990381057
100
AcDbArc
 50
177.6115056179
 51
207.2855350899
  0
ARC
  5
4DC
100
AcDbEntity
  8
6_ALL_SURFS
100
AcDbCircle
 62
7
  6
CONTINUOUS
 10
1065.2778055559
 20
1694.6376208098
 40
4.7990381057
100
AcDbArc
 50
177.6115056179
 51
207.2855350899
  0
ARC
  5
4DD
100
AcDbEntity
  8
6_ALL_SURFS
100
AcDbCircle
 62
7
  6
CONTINUOUS
 10
815.2778055559
 20
1694.6376208098
 40
4.7990381057
100
AcDbArc
 50
332.7144649101
 51
2.3884943821
  0
CIRCLE
  5
4DE
100
AcDbEntity
  8
6_ALL_SURFS
100
AcDbCircle
 62
7
  6
CONTINUOUS
 10
815.2778055559
 20
1694.6376208098
 40
3.5
  0
CIRCLE
  5
4DF
100
AcDbEntity
  8
6_ALL_SURFS
100
AcDbCircle
 62
7
  6
CONTINUOUS
 10
1065.2778055559
 20
1694.6376208098
 40
3.5
  0
CIRCLE
  5
4E0
100
AcDbEntity
  8
6_ALL_SURFS
100
AcDbCircle
 62
7
  6
CONTINUOUS
 10
1315.2778055559
 20
1694.6376208098
 40
3.5
  0
CIRCLE
  5
4E1
100
AcDbEntity
  8
6_ALL_SURFS
100
AcDbCircle
 62
7
  6
CONTINUOUS
 10
1565.2778055559
 20
1694.6376208098
 40
3.5
  0
ARC
  5
4E2
100
AcDbEntity
  8
7_ALL_FEATURES
100
AcDbCircle
 62
7
  6
CONTINUOUS
 10
2815.2778055559
 20
1596.7376208098
 40
4.7990381057
100
AcDbArc
 50
35.6935828234
 51
144.3064171766
  0
ARC
  5
4E3
100
AcDbEntity
  8
7_ALL_FEATURES
100
AcDbCircle
 62
7
  6
CONTINUOUS
 10
2565.2778055559
 20
1596.7376208098
 40
4.7990381057
100
AcDbArc
 50
35.6935828234
 51
144.3064171766
  0
ARC
  5
4E4
100
AcDbEntity
  8
7_ALL_FEATURES
100
AcDbCircle
 62
7
  6
CONTINUOUS
 10
2315.2778055559
 20
1596.7376208098
 40
4.7990381057
100
AcDbArc
 50
35.6935828234
 51
144.3064171766
  0
ARC
  5
4E5
100
AcDbEntity
  8
7_ALL_FEATURES
100
AcDbCircle
 62
7
  6
CONTINUOUS
 10
2065.2778055559
 20
1596.7376208098
 40
4.7990381057
100
AcDbArc
 50
35.6935828234
 51
144.3064171766
  0
ARC
  5
4E6
100
AcDbEntity
  8
7_ALL_FEATURES
100
AcDbCircle
 62
7
  6
CONTINUOUS
 10
1815.2778055559
 20
1596.7376208098
 40
4.7990381057
100
AcDbArc
 50
35.6935828234
 51
144.3064171766
  0
ARC
  5
4E7
100
AcDbEntity
  8
7_ALL_FEATURES
100
AcDbCircle
 62
7
  6
CONTINUOUS
 10
2815.2778055559
 20
1596.7376208098
 40
4.7990381057
100
AcDbArc
 50
357.6115056179
 51
27.2855350899
  0
ARC
  5
4E8
100
AcDbEntity
  8
7_ALL_FEATURES
100
AcDbCircle
 62
7
  6
CONTINUOUS
 10
2565.2778055559
 20
1596.7376208098
 40
4.7990381057
100
AcDbArc
 50
357.6115056179
 51
27.2855350899
  0
ARC
  5
4E9
100
AcDbEntity
  8
7_ALL_FEATURES
100
AcDbCircle
 62
7
  6
CONTINUOUS
 10
2815.2778055559
 20
1596.7376208098
 40
4.7990381057
100
AcDbArc
 50
152.7144649101
 51
182.3884943821
  0
ARC
  5
4EA
100
AcDbEntity
  8
7_ALL_FEATURES
100
AcDbCircle
 62
7
  6
CONTINUOUS
 10
2315.2778055559
 20
1596.7376208098
 40
4.7990381057
100
AcDbArc
 50
357.6115056179
 51
27.2855350899
  0
ARC
  5
4EB
100
AcDbEntity
  8
7_ALL_FEATURES
100
AcDbCircle
 62
7
  6
CONTINUOUS
 10
2565.2778055559
 20
1596.7376208098
 40
4.7990381057
100
AcDbArc
 50
152.7144649101
 51
182.3884943821
  0
ARC
  5
4EC
100
AcDbEntity
  8
7_ALL_FEATURES
100
AcDbCircle
 62
7
  6
CONTINUOUS
 10
2065.2778055559
 20
1596.7376208098
 40
4.7990381057
100
AcDbArc
 50
357.6115056179
 51
27.2855350899
  0
ARC
  5
4ED
100
AcDbEntity
  8
7_ALL_FEATURES
100
AcDbCircle
 62
7
  6
CONTINUOUS
 10
2315.2778055559
 20
1596.7376208098
 40
4.7990381057
100
AcDbArc
 50
152.7144649101
 51
182.3884943821
  0
ARC
  5
4EE
100
AcDbEntity
  8
7_ALL_FEATURES
100
AcDbCircle
 62
7
  6
CONTINUOUS
 10
1815.2778055559
 20
1596.7376208098
 40
4.7990381057
100
AcDbArc
 50
357.6115056179
 51
27.2855350899
  0
ARC
  5
4EF
100
AcDbEntity
  8
7_ALL_FEATURES
100
AcDbCircle
 62
7
  6
CONTINUOUS
 10
2065.2778055559
 20
1596.7376208098
 40
4.7990381057
100
AcDbArc
 50
152.7144649101
 51
182.3884943821
  0
ARC
  5
4F0
100
AcDbEntity
  8
7_ALL_FEATURES
100
AcDbCircle
 62
7
  6
CONTINUOUS
 10
1815.2778055559
 20
1596.7376208098
 40
4.7990381057
100
AcDbArc
 50
152.7144649101
 51
182.3884943821
  0
ARC
  5
4F1
100
AcDbEntity
  8
7_ALL_FEATURES
100
AcDbCircle
 62
7
  6
CONTINUOUS
 10
2815.2778055559
 20
1596.7376208098
 40
4.7990381057
100
AcDbArc
 50
313.171184019
 51
350.4039906056
  0
ARC
  5
4F2
100
AcDbEntity
  8
7_ALL_FEATURES
100
AcDbCircle
 62
7
  6
CONTINUOUS
 10
2565.2778055559
 20
1596.7376208098
 40
4.7990381057
100
AcDbArc
 50
313.171184019
 51
350.4039906056
  0
ARC
  5
4F3
100
AcDbEntity
  8
7_ALL_FEATURES
100
AcDbCircle
 62
7
  6
CONTINUOUS
 10
2815.2778055559
 20
1596.7376208098
 40
4.7990381057
100
AcDbArc
 50
189.5960093944
 51
226.828815981
  0
ARC
  5
4F4
100
AcDbEntity
  8
7_ALL_FEATURES
100
AcDbCircle
 62
7
  6
CONTINUOUS
 10
2315.2778055559
 20
1596.7376208098
 40
4.7990381057
100
AcDbArc
 50
313.171184019
 51
350.4039906056
  0
ARC
  5
4F5
100
AcDbEntity
  8
7_ALL_FEATURES
100
AcDbCircle
 62
7
  6
CONTINUOUS
 10
2565.2778055559
 20
1596.7376208098
 40
4.7990381057
100
AcDbArc
 50
189.5960093944
 51
226.828815981
  0
ARC
  5
4F6
100
AcDbEntity
  8
7_ALL_FEATURES
100
AcDbCircle
 62
7
  6
CONTINUOUS
 10
2065.2778055559
 20
1596.7376208098
 40
4.7990381057
100
AcDbArc
 50
313.171184019
 51
350.4039906056
  0
ARC
  5
4F7
100
AcDbEntity
  8
7_ALL_FEATURES
100
AcDbCircle
 62
7
  6
CONTINUOUS
 10
2315.2778055559
 20
1596.7376208098
 40
4.7990381057
100
AcDbArc
 50
189.5960093944
 51
226.828815981
  0
ARC
  5
4F8
100
AcDbEntity
  8
7_ALL_FEATURES
100
AcDbCircle
 62
7
  6
CONTINUOUS
 10
1815.2778055559
 20
1596.7376208098
 40
4.7990381057
100
AcDbArc
 50
313.171184019
 51
350.4039906056
  0
ARC
  5
4F9
100
AcDbEntity
  8
7_ALL_FEATURES
100
AcDbCircle
 62
7
  6
CONTINUOUS
 10
2065.2778055559
 20
1596.7376208098
 40
4.7990381057
100
AcDbArc
 50
189.5960093944
 51
226.828815981
  0
ARC
  5
4FA
100
AcDbEntity
  8
7_ALL_FEATURES
100
AcDbCircle
 62
7
  6
CONTINUOUS
 10
1815.2778055559
 20
1596.7376208098
 40
4.7990381057
100
AcDbArc
 50
189.5960093944
 51
226.828815981
  0
CIRCLE
  5
4FB
100
AcDbEntity
  8
6_ALL_SURFS
100
AcDbCircle
 62
7
  6
CONTINUOUS
 10
1815.2778055559
 20
1596.7376208098
 40
3.5
  0
CIRCLE
  5
4FC
100
AcDbEntity
  8
6_ALL_SURFS
100
AcDbCircle
 62
7
  6
CONTINUOUS
 10
2065.2778055559
 20
1596.7376208098
 40
3.5
  0
CIRCLE
  5
4FD
100
AcDbEntity
  8
6_ALL_SURFS
100
AcDbCircle
 62
7
  6
CONTINUOUS
 10
2315.2778055559
 20
1596.7376208098
 40
3.5
  0
CIRCLE
  5
4FE
100
AcDbEntity
  8
6_ALL_SURFS
100
AcDbCircle
 62
7
  6
CONTINUOUS
 10
2565.2778055559
 20
1596.7376208098
 40
3.5
  0
CIRCLE
  5
4FF
100
AcDbEntity
  8
6_ALL_SURFS
100
AcDbCircle
 62
7
  6
CONTINUOUS
 10
2815.2778055559
 20
1596.7376208098
 40
3.5
  0
ARC
  5
500
100
AcDbEntity
  8
6_ALL_SURFS
100
AcDbCircle
 62
7
  6
CONTINUOUS
 10
1815.2778055559
 20
1694.6376208098
 40
4.7990381057
100
AcDbArc
 50
177.6115056179
 51
207.2855350899
  0
ARC
  5
501
100
AcDbEntity
  8
6_ALL_SURFS
100
AcDbCircle
 62
7
  6
CONTINUOUS
 10
2065.2778055559
 20
1694.6376208098
 40
4.7990381057
100
AcDbArc
 50
177.6115056179
 51
207.2855350899
  0
ARC
  5
502
100
AcDbEntity
  8
6_ALL_SURFS
100
AcDbCircle
 62
7
  6
CONTINUOUS
 10
1815.2778055559
 20
1694.6376208098
 40
4.7990381057
100
AcDbArc
 50
332.7144649101
 51
2.3884943821
  0
ARC
  5
503
100
AcDbEntity
  8
6_ALL_SURFS
100
AcDbCircle
 62
7
  6
CONTINUOUS
 10
2315.2778055559
 20
1694.6376208098
 40
4.7990381057
100
AcDbArc
 50
177.6115056179
 51
207.2855350899
  0
ARC
  5
504
100
AcDbEntity
  8
6_ALL_SURFS
100
AcDbCircle
 62
7
  6
CONTINUOUS
 10
2065.2778055559
 20
1694.6376208098
 40
4.7990381057
100
AcDbArc
 50
332.7144649101
 51
2.3884943821
  0
ARC
  5
505
100
AcDbEntity
  8
6_ALL_SURFS
100
AcDbCircle
 62
7
  6
CONTINUOUS
 10
2565.2778055559
 20
1694.6376208098
 40
4.7990381057
100
AcDbArc
 50
177.6115056179
 51
207.2855350899
  0
ARC
  5
506
100
AcDbEntity
  8
6_ALL_SURFS
100
AcDbCircle
 62
7
  6
CONTINUOUS
 10
2315.2778055559
 20
1694.6376208098
 40
4.7990381057
100
AcDbArc
 50
332.7144649101
 51
2.3884943821
  0
ARC
  5
507
100
AcDbEntity
  8
6_ALL_SURFS
100
AcDbCircle
 62
7
  6
CONTINUOUS
 10
2815.2778055559
 20
1694.6376208098
 40
4.7990381057
100
AcDbArc
 50
177.6115056179
 51
207.2855350899
  0
ARC
  5
508
100
AcDbEntity
  8
6_ALL_SURFS
100
AcDbCircle
 62
7
  6
CONTINUOUS
 10
2565.2778055559
 20
1694.6376208098
 40
4.7990381057
100
AcDbArc
 50
332.7144649101
 51
2.3884943821
  0
ARC
  5
509
100
AcDbEntity
  8
6_ALL_SURFS
100
AcDbCircle
 62
7
  6
CONTINUOUS
 10
2815.2778055559
 20
1694.6376208098
 40
4.7990381057
100
AcDbArc
 50
332.7144649101
 51
2.3884943821
  0
ARC
  5
50A
100
AcDbEntity
  8
6_ALL_SURFS
100
AcDbCircle
 62
7
  6
CONTINUOUS
 10
2815.2778055559
 20
1694.6376208098
 40
4.7990381057
100
AcDbArc
 50
215.6935828234
 51
324.3064171766
  0
ARC
  5
50B
100
AcDbEntity
  8
6_ALL_SURFS
100
AcDbCircle
 62
7
  6
CONTINUOUS
 10
2565.2778055559
 20
1694.6376208098
 40
4.7990381057
100
AcDbArc
 50
215.6935828234
 51
324.3064171766
  0
ARC
  5
50C
100
AcDbEntity
  8
6_ALL_SURFS
100
AcDbCircle
 62
7
  6
CONTINUOUS
 10
2315.2778055559
 20
1694.6376208098
 40
4.7990381057
100
AcDbArc
 50
215.6935828234
 51
324.3064171766
  0
ARC
  5
50D
100
AcDbEntity
  8
6_ALL_SURFS
100
AcDbCircle
 62
7
  6
CONTINUOUS
 10
2065.2778055559
 20
1694.6376208098
 40
4.7990381057
100
AcDbArc
 50
215.6935828234
 51
324.3064171766
  0
ARC
  5
50E
100
AcDbEntity
  8
6_ALL_SURFS
100
AcDbCircle
 62
7
  6
CONTINUOUS
 10
1815.2778055559
 20
1694.6376208098
 40
4.7990381057
100
AcDbArc
 50
215.6935828234
 51
324.3064171766
  0
ARC
  5
50F
100
AcDbEntity
  8
6_ALL_SURFS
100
AcDbCircle
 62
7
  6
CONTINUOUS
 10
1815.2778055559
 20
1694.6376208098
 40
4.7990381057
100
AcDbArc
 50
133.171184019
 51
170.4039906056
  0
ARC
  5
510
100
AcDbEntity
  8
6_ALL_SURFS
100
AcDbCircle
 62
7
  6
CONTINUOUS
 10
2065.2778055559
 20
1694.6376208098
 40
4.7990381057
100
AcDbArc
 50
133.171184019
 51
170.4039906056
  0
ARC
  5
511
100
AcDbEntity
  8
6_ALL_SURFS
100
AcDbCircle
 62
7
  6
CONTINUOUS
 10
1815.2778055559
 20
1694.6376208098
 40
4.7990381057
100
AcDbArc
 50
9.5960093944
 51
46.828815981
  0
ARC
  5
512
100
AcDbEntity
  8
6_ALL_SURFS
100
AcDbCircle
 62
7
  6
CONTINUOUS
 10
2315.2778055559
 20
1694.6376208098
 40
4.7990381057
100
AcDbArc
 50
133.171184019
 51
170.4039906056
  0
ARC
  5
513
100
AcDbEntity
  8
6_ALL_SURFS
100
AcDbCircle
 62
7
  6
CONTINUOUS
 10
2065.2778055559
 20
1694.6376208098
 40
4.7990381057
100
AcDbArc
 50
9.5960093944
 51
46.828815981
  0
ARC
  5
514
100
AcDbEntity
  8
6_ALL_SURFS
100
AcDbCircle
 62
7
  6
CONTINUOUS
 10
2565.2778055559
 20
1694.6376208098
 40
4.7990381057
100
AcDbArc
 50
133.171184019
 51
170.4039906056
  0
ARC
  5
515
100
AcDbEntity
  8
6_ALL_SURFS
100
AcDbCircle
 62
7
  6
CONTINUOUS
 10
2315.2778055559
 20
1694.6376208098
 40
4.7990381057
100
AcDbArc
 50
9.5960093944
 51
46.828815981
  0
ARC
  5
516
100
AcDbEntity
  8
6_ALL_SURFS
100
AcDbCircle
 62
7
  6
CONTINUOUS
 10
2815.2778055559
 20
1694.6376208098
 40
4.7990381057
100
AcDbArc
 50
133.171184019
 51
170.4039906056
  0
ARC
  5
517
100
AcDbEntity
  8
6_ALL_SURFS
100
AcDbCircle
 62
7
  6
CONTINUOUS
 10
2565.2778055559
 20
1694.6376208098
 40
4.7990381057
100
AcDbArc
 50
9.5960093944
 51
46.828815981
  0
ARC
  5
518
100
AcDbEntity
  8
6_ALL_SURFS
100
AcDbCircle
 62
7
  6
CONTINUOUS
 10
2815.2778055559
 20
1694.6376208098
 40
4.7990381057
100
AcDbArc
 50
9.5960093944
 51
46.828815981
  0
CIRCLE
  5
519
100
AcDbEntity
  8
6_ALL_SURFS
100
AcDbCircle
 62
7
  6
CONTINUOUS
 10
1815.2778055559
 20
1694.6376208098
 40
3.5
  0
CIRCLE
  5
51A
100
AcDbEntity
  8
6_ALL_SURFS
100
AcDbCircle
 62
7
  6
CONTINUOUS
 10
2065.2778055559
 20
1694.6376208098
 40
3.5
  0
CIRCLE
  5
51B
100
AcDbEntity
  8
6_ALL_SURFS
100
AcDbCircle
 62
7
  6
CONTINUOUS
 10
2315.2778055559
 20
1694.6376208098
 40
3.5
  0
CIRCLE
  5
51C
100
AcDbEntity
  8
6_ALL_SURFS
100
AcDbCircle
 62
7
  6
CONTINUOUS
 10
2565.2778055559
 20
1694.6376208098
 40
3.5
  0
CIRCLE
  5
51D
100
AcDbEntity
  8
6_ALL_SURFS
100
AcDbCircle
 62
7
  6
CONTINUOUS
 10
2815.2778055559
 20
1694.6376208098
 40
3.5
  0
SPLINE
  5
51E
100
AcDbEntity
  8
6_ALL_SURFS
100
AcDbSpline
 62
7
  6
CONTINUOUS
 70
0
 71
3
 72
11
 73
7
 74
0
 42
0.0000001
 43
0.0000001
 44
0.0000000001
 40
0.0
 40
0.0
 40
0.0
 40
0.0
 40
0.2516618379
 40
0.5095932869
 40
0.7677741861
 40
1.0
 40
1.0
 40
1.0
 40
1.0
 10
811.0127420465
 20
1692.4376208098
 30
0.0
 10
811.0725836837
 20
1692.4073594454
 30
0.0
 10
811.1907092589
 20
1692.3381375324
 30
0.0
 10
811.3455664539
 20
1692.2065062231
 30
0.0
 10
811.4648461881
 20
1692.029054725
 30
0.0
 10
811.4211800429
 20
1691.884048804
 30
0.0
 10
811.3802721385
 20
1691.8376208098
 30
0.0
  0
SPLINE
  5
51F
100
AcDbEntity
  8
6_ALL_SURFS
100
AcDbSpline
 62
7
  6
CONTINUOUS
 70
0
 71
3
 72
11
 73
7
 74
0
 42
0.0000001
 43
0.0000001
 44
0.0000000001
 40
0.0
 40
0.0
 40
0.0
 40
0.0
 40
0.2516618379
 40
0.5095932869
 40
0.7677741861
 40
1.0
 40
1.0
 40
1.0
 40
1.0
 10
1061.0127420465
 20
1692.4376208098
 30
0.0
 10
1061.0725836837
 20
1692.4073594454
 30
0.0
 10
1061.1907092589
 20
1692.3381375324
 30
0.0
 10
1061.3455664539
 20
1692.2065062231
 30
0.0
 10
1061.4648461881
 20
1692.029054725
 30
0.0
 10
1061.4211800429
 20
1691.884048804
 30
0.0
 10
1061.3802721385
 20
1691.8376208098
 30
0.0
  0
SPLINE
  5
520
100
AcDbEntity
  8
6_ALL_SURFS
100
AcDbSpline
 62
7
  6
CONTINUOUS
 70
0
 71
3
 72
11
 73
7
 74
0
 42
0.0000001
 43
0.0000001
 44
0.0000000001
 40
0.0
 40
0.0
 40
0.0
 40
0.0
 40
0.2322264884
 40
0.4904134186
 40
0.7483439449
 40
1.0
 40
1.0
 40
1.0
 40
1.0
 10
819.1753389733
 20
1691.8376208098
 30
0.0
 10
819.1344309606
 20
1691.8840489271
 30
0.0
 10
819.0907642945
 20
1692.0290568998
 30
0.0
 10
819.2100472793
 20
1692.2065089412
 30
0.0
 10
819.3649051498
 20
1692.3381386406
 30
0.0
 10
819.4830288185
 20
1692.4073601485
 30
0.0
 10
819.5428690654
 20
1692.4376208098
 30
0.0
  0
SPLINE
  5
521
100
AcDbEntity
  8
6_ALL_SURFS
100
AcDbSpline
 62
7
  6
CONTINUOUS
 70
0
 71
3
 72
11
 73
7
 74
0
 42
0.0000001
 43
0.0000001
 44
0.0000000001
 40
0.0
 40
0.0
 40
0.0
 40
0.0
 40
0.2516618379
 40
0.5095932869
 40
0.7677741861
 40
1.0
 40
1.0
 40
1.0
 40
1.0
 10
1311.0127420465
 20
1692.4376208098
 30
0.0
 10
1311.0725836837
 20
1692.4073594454
 30
0.0
 10
1311.1907092589
 20
1692.3381375324
 30
0.0
 10
1311.3455664539
 20
1692.2065062231
 30
0.0
 10
1311.4648461881
 20
1692.029054725
 30
0.0
 10
1311.4211800429
 20
1691.884048804
 30
0.0
 10
1311.3802721385
 20
1691.8376208098
 30
0.0
  0
SPLINE
  5
522
100
AcDbEntity
  8
6_ALL_SURFS
100
AcDbSpline
 62
7
  6
CONTINUOUS
 70
0
 71
3
 72
11
 73
7
 74
0
 42
0.0000001
 43
0.0000001
 44
0.0000000001
 40
0.0
 40
0.0
 40
0.0
 40
0.0
 40
0.2322264884
 40
0.4904134186
 40
0.7483439449
 40
1.0
 40
1.0
 40
1.0
 40
1.0
 10
1069.1753389733
 20
1691.8376208098
 30
0.0
 10
1069.1344309606
 20
1691.8840489271
 30
0.0
 10
1069.0907642945
 20
1692.0290568998
 30
0.0
 10
1069.2100472793
 20
1692.2065089412
 30
0.0
 10
1069.3649051498
 20
1692.3381386406
 30
0.0
 10
1069.4830288185
 20
1692.4073601485
 30
0.0
 10
1069.5428690654
 20
1692.4376208098
 30
0.0
  0
SPLINE
  5
523
100
AcDbEntity
  8
6_ALL_SURFS
100
AcDbSpline
 62
7
  6
CONTINUOUS
 70
0
 71
3
 72
11
 73
7
 74
0
 42
0.0000001
 43
0.0000001
 44
0.0000000001
 40
0.0
 40
0.0
 40
0.0
 40
0.0
 40
0.2516618379
 40
0.5095932869
 40
0.7677741861
 40
1.0
 40
1.0
 40
1.0
 40
1.0
 10
1561.0127420465
 20
1692.4376208098
 30
0.0
 10
1561.0725836837
 20
1692.4073594454
 30
0.0
 10
1561.1907092589
 20
1692.3381375324
 30
0.0
 10
1561.3455664539
 20
1692.2065062231
 30
0.0
 10
1561.4648461881
 20
1692.029054725
 30
0.0
 10
1561.4211800429
 20
1691.884048804
 30
0.0
 10
1561.3802721385
 20
1691.8376208098
 30
0.0
  0
SPLINE
  5
524
100
AcDbEntity
  8
6_ALL_SURFS
100
AcDbSpline
 62
7
  6
CONTINUOUS
 70
0
 71
3
 72
11
 73
7
 74
0
 42
0.0000001
 43
0.0000001
 44
0.0000000001
 40
0.0
 40
0.0
 40
0.0
 40
0.0
 40
0.2322264884
 40
0.4904134186
 40
0.7483439449
 40
1.0
 40
1.0
 40
1.0
 40
1.0
 10
1319.1753389733
 20
1691.8376208098
 30
0.0
 10
1319.1344309606
 20
1691.8840489271
 30
0.0
 10
1319.0907642945
 20
1692.0290568998
 30
0.0
 10
1319.2100472793
 20
1692.2065089412
 30
0.0
 10
1319.3649051498
 20
1692.3381386406
 30
0.0
 10
1319.4830288185
 20
1692.4073601485
 30
0.0
 10
1319.5428690654
 20
1692.4376208098
 30
0.0
  0
SPLINE
  5
525
100
AcDbEntity
  8
6_ALL_SURFS
100
AcDbSpline
 62
7
  6
CONTINUOUS
 70
0
 71
3
 72
11
 73
7
 74
0
 42
0.0000001
 43
0.0000001
 44
0.0000000001
 40
0.0
 40
0.0
 40
0.0
 40
0.0
 40
0.2516618379
 40
0.5095932869
 40
0.7677741861
 40
1.0
 40
1.0
 40
1.0
 40
1.0
 10
1811.0127420465
 20
1692.4376208098
 30
0.0
 10
1811.0725836837
 20
1692.4073594454
 30
0.0
 10
1811.1907092589
 20
1692.3381375324
 30
0.0
 10
1811.3455664539
 20
1692.2065062231
 30
0.0
 10
1811.4648461881
 20
1692.029054725
 30
0.0
 10
1811.4211800429
 20
1691.884048804
 30
0.0
 10
1811.3802721385
 20
1691.8376208098
 30
0.0
  0
SPLINE
  5
526
100
AcDbEntity
  8
6_ALL_SURFS
100
AcDbSpline
 62
7
  6
CONTINUOUS
 70
0
 71
3
 72
11
 73
7
 74
0
 42
0.0000001
 43
0.0000001
 44
0.0000000001
 40
0.0
 40
0.0
 40
0.0
 40
0.0
 40
0.2322264884
 40
0.4904134186
 40
0.7483439449
 40
1.0
 40
1.0
 40
1.0
 40
1.0
 10
1569.1753389733
 20
1691.8376208098
 30
0.0
 10
1569.1344309606
 20
1691.8840489271
 30
0.0
 10
1569.0907642945
 20
1692.0290568998
 30
0.0
 10
1569.2100472793
 20
1692.2065089412
 30
0.0
 10
1569.3649051498
 20
1692.3381386406
 30
0.0
 10
1569.4830288185
 20
1692.4073601485
 30
0.0
 10
1569.5428690654
 20
1692.4376208098
 30
0.0
  0
SPLINE
  5
527
100
AcDbEntity
  8
6_ALL_SURFS
100
AcDbSpline
 62
7
  6
CONTINUOUS
 70
0
 71
3
 72
11
 73
7
 74
0
 42
0.0000001
 43
0.0000001
 44
0.0000000001
 40
0.0
 40
0.0
 40
0.0
 40
0.0
 40
0.2516618379
 40
0.5095932869
 40
0.7677741861
 40
1.0
 40
1.0
 40
1.0
 40
1.0
 10
2061.0127420465
 20
1692.4376208098
 30
0.0
 10
2061.0725836837
 20
1692.4073594454
 30
0.0
 10
2061.1907092589
 20
1692.3381375324
 30
0.0
 10
2061.3455664539
 20
1692.2065062231
 30
0.0
 10
2061.4648461881
 20
1692.029054725
 30
0.0
 10
2061.4211800429
 20
1691.884048804
 30
0.0
 10
2061.3802721385
 20
1691.8376208098
 30
0.0
  0
SPLINE
  5
528
100
AcDbEntity
  8
6_ALL_SURFS
100
AcDbSpline
 62
7
  6
CONTINUOUS
 70
0
 71
3
 72
11
 73
7
 74
0
 42
0.0000001
 43
0.0000001
 44
0.0000000001
 40
0.0
 40
0.0
 40
0.0
 40
0.0
 40
0.2322264884
 40
0.4904134186
 40
0.7483439449
 40
1.0
 40
1.0
 40
1.0
 40
1.0
 10
1819.1753389733
 20
1691.8376208098
 30
0.0
 10
1819.1344309606
 20
1691.8840489271
 30
0.0
 10
1819.0907642945
 20
1692.0290568998
 30
0.0
 10
1819.2100472793
 20
1692.2065089412
 30
0.0
 10
1819.3649051498
 20
1692.3381386406
 30
0.0
 10
1819.4830288185
 20
1692.4073601485
 30
0.0
 10
1819.5428690654
 20
1692.4376208098
 30
0.0
  0
SPLINE
  5
529
100
AcDbEntity
  8
6_ALL_SURFS
100
AcDbSpline
 62
7
  6
CONTINUOUS
 70
0
 71
3
 72
11
 73
7
 74
0
 42
0.0000001
 43
0.0000001
 44
0.0000000001
 40
0.0
 40
0.0
 40
0.0
 40
0.0
 40
0.2516618379
 40
0.5095932869
 40
0.7677741861
 40
1.0
 40
1.0
 40
1.0
 40
1.0
 10
2311.0127420465
 20
1692.4376208098
 30
0.0
 10
2311.0725836837
 20
1692.4073594454
 30
0.0
 10
2311.1907092589
 20
1692.3381375324
 30
0.0
 10
2311.3455664539
 20
1692.2065062231
 30
0.0
 10
2311.4648461881
 20
1692.029054725
 30
0.0
 10
2311.4211800429
 20
1691.884048804
 30
0.0
 10
2311.3802721385
 20
1691.8376208098
 30
0.0
  0
SPLINE
  5
52A
100
AcDbEntity
  8
6_ALL_SURFS
100
AcDbSpline
 62
7
  6
CONTINUOUS
 70
0
 71
3
 72
11
 73
7
 74
0
 42
0.0000001
 43
0.0000001
 44
0.0000000001
 40
0.0
 40
0.0
 40
0.0
 40
0.0
 40
0.2322264884
 40
0.4904134186
 40
0.7483439449
 40
1.0
 40
1.0
 40
1.0
 40
1.0
 10
2069.1753389733
 20
1691.8376208098
 30
0.0
 10
2069.1344309606
 20
1691.8840489271
 30
0.0
 10
2069.0907642945
 20
1692.0290568998
 30
0.0
 10
2069.2100472793
 20
1692.2065089412
 30
0.0
 10
2069.3649051498
 20
1692.3381386406
 30
0.0
 10
2069.4830288185
 20
1692.4073601485
 30
0.0
 10
2069.5428690654
 20
1692.4376208098
 30
0.0
  0
SPLINE
  5
52B
100
AcDbEntity
  8
6_ALL_SURFS
100
AcDbSpline
 62
7
  6
CONTINUOUS
 70
0
 71
3
 72
11
 73
7
 74
0
 42
0.0000001
 43
0.0000001
 44
0.0000000001
 40
0.0
 40
0.0
 40
0.0
 40
0.0
 40
0.2516618379
 40
0.5095932869
 40
0.7677741861
 40
1.0
 40
1.0
 40
1.0
 40
1.0
 10
2561.0127420465
 20
1692.4376208098
 30
0.0
 10
2561.0725836837
 20
1692.4073594454
 30
0.0
 10
2561.1907092589
 20
1692.3381375324
 30
0.0
 10
2561.3455664539
 20
1692.2065062231
 30
0.0
 10
2561.4648461881
 20
1692.029054725
 30
0.0
 10
2561.4211800429
 20
1691.884048804
 30
0.0
 10
2561.3802721385
 20
1691.8376208098
 30
0.0
  0
SPLINE
  5
52C
100
AcDbEntity
  8
6_ALL_SURFS
100
AcDbSpline
 62
7
  6
CONTINUOUS
 70
0
 71
3
 72
11
 73
7
 74
0
 42
0.0000001
 43
0.0000001
 44
0.0000000001
 40
0.0
 40
0.0
 40
0.0
 40
0.0
 40
0.2322264884
 40
0.4904134186
 40
0.7483439449
 40
1.0
 40
1.0
 40
1.0
 40
1.0
 10
2319.1753389733
 20
1691.8376208098
 30
0.0
 10
2319.1344309606
 20
1691.8840489271
 30
0.0
 10
2319.0907642945
 20
1692.0290568998
 30
0.0
 10
2319.2100472793
 20
1692.2065089412
 30
0.0
 10
2319.3649051498
 20
1692.3381386406
 30
0.0
 10
2319.4830288185
 20
1692.4073601485
 30
0.0
 10
2319.5428690654
 20
1692.4376208098
 30
0.0
  0
SPLINE
  5
52D
100
AcDbEntity
  8
6_ALL_SURFS
100
AcDbSpline
 62
7
  6
CONTINUOUS
 70
0
 71
3
 72
11
 73
7
 74
0
 42
0.0000001
 43
0.0000001
 44
0.0000000001
 40
0.0
 40
0.0
 40
0.0
 40
0.0
 40
0.2516618379
 40
0.5095932869
 40
0.7677741861
 40
1.0
 40
1.0
 40
1.0
 40
1.0
 10
2811.0127420465
 20
1692.4376208098
 30
0.0
 10
2811.0725836837
 20
1692.4073594454
 30
0.0
 10
2811.1907092589
 20
1692.3381375324
 30
0.0
 10
2811.3455664539
 20
1692.2065062231
 30
0.0
 10
2811.4648461881
 20
1692.029054725
 30
0.0
 10
2811.4211800429
 20
1691.884048804
 30
0.0
 10
2811.3802721385
 20
1691.8376208098
 30
0.0
  0
SPLINE
  5
52E
100
AcDbEntity
  8
6_ALL_SURFS
100
AcDbSpline
 62
7
  6
CONTINUOUS
 70
0
 71
3
 72
11
 73
7
 74
0
 42
0.0000001
 43
0.0000001
 44
0.0000000001
 40
0.0
 40
0.0
 40
0.0
 40
0.0
 40
0.2322264884
 40
0.4904134186
 40
0.7483439449
 40
1.0
 40
1.0
 40
1.0
 40
1.0
 10
2569.1753389733
 20
1691.8376208098
 30
0.0
 10
2569.1344309606
 20
1691.8840489271
 30
0.0
 10
2569.0907642945
 20
1692.0290568998
 30
0.0
 10
2569.2100472793
 20
1692.2065089412
 30
0.0
 10
2569.3649051498
 20
1692.3381386406
 30
0.0
 10
2569.4830288185
 20
1692.4073601485
 30
0.0
 10
2569.5428690654
 20
1692.4376208098
 30
0.0
  0
SPLINE
  5
52F
100
AcDbEntity
  8
6_ALL_SURFS
100
AcDbSpline
 62
7
  6
CONTINUOUS
 70
0
 71
3
 72
11
 73
7
 74
0
 42
0.0000001
 43
0.0000001
 44
0.0000000001
 40
0.0
 40
0.0
 40
0.0
 40
0.0
 40
0.2322264884
 40
0.4904134186
 40
0.7483439449
 40
1.0
 40
1.0
 40
1.0
 40
1.0
 10
2819.1753389733
 20
1691.8376208098
 30
0.0
 10
2819.1344309606
 20
1691.8840489271
 30
0.0
 10
2819.0907642945
 20
1692.0290568998
 30
0.0
 10
2819.2100472793
 20
1692.2065089412
 30
0.0
 10
2819.3649051498
 20
1692.3381386406
 30
0.0
 10
2819.4830288185
 20
1692.4073601485
 30
0.0
 10
2819.5428690654
 20
1692.4376208098
 30
0.0
  0
SPLINE
  5
530
100
AcDbEntity
  8
7_ALL_FEATURES
100
AcDbSpline
 62
7
  6
CONTINUOUS
 70
0
 71
3
 72
11
 73
7
 74
0
 42
0.0000001
 43
0.0000001
 44
0.0000000001
 40
0.0
 40
0.0
 40
0.0
 40
0.0
 40
0.2322264884
 40
0.4904134186
 40
0.7483439449
 40
1.0
 40
1.0
 40
1.0
 40
1.0
 10
2819.1753389733
 20
1599.5376208098
 30
0.0
 10
2819.1344309606
 20
1599.4911926926
 30
0.0
 10
2819.0907642945
 20
1599.3461847198
 30
0.0
 10
2819.2100472793
 20
1599.1687326784
 30
0.0
 10
2819.3649051498
 20
1599.037102979
 30
0.0
 10
2819.4830288185
 20
1598.9678814711
 30
0.0
 10
2819.5428690654
 20
1598.9376208098
 30
0.0
  0
SPLINE
  5
531
100
AcDbEntity
  8
7_ALL_FEATURES
100
AcDbSpline
 62
7
  6
CONTINUOUS
 70
0
 71
3
 72
11
 73
7
 74
0
 42
0.0000001
 43
0.0000001
 44
0.0000000001
 40
0.0
 40
0.0
 40
0.0
 40
0.0
 40
0.2322264884
 40
0.4904134186
 40
0.7483439449
 40
1.0
 40
1.0
 40
1.0
 40
1.0
 10
2569.1753389733
 20
1599.5376208098
 30
0.0
 10
2569.1344309606
 20
1599.4911926926
 30
0.0
 10
2569.0907642945
 20
1599.3461847198
 30
0.0
 10
2569.2100472793
 20
1599.1687326784
 30
0.0
 10
2569.3649051498
 20
1599.037102979
 30
0.0
 10
2569.4830288185
 20
1598.9678814711
 30
0.0
 10
2569.5428690654
 20
1598.9376208098
 30
0.0
  0
SPLINE
  5
532
100
AcDbEntity
  8
7_ALL_FEATURES
100
AcDbSpline
 62
7
  6
CONTINUOUS
 70
0
 71
3
 72
11
 73
7
 74
0
 42
0.0000001
 43
0.0000001
 44
0.0000000001
 40
0.0
 40
0.0
 40
0.0
 40
0.0
 40
0.2516618379
 40
0.5095932869
 40
0.7677741861
 40
1.0
 40
1.0
 40
1.0
 40
1.0
 10
2811.0127420465
 20
1598.9376208098
 30
0.0
 10
2811.0725836837
 20
1598.9678821742
 30
0.0
 10
2811.1907092589
 20
1599.0371040873
 30
0.0
 10
2811.3455664539
 20
1599.1687353965
 30
0.0
 10
2811.4648461881
 20
1599.3461868946
 30
0.0
 10
2811.4211800429
 20
1599.4911928156
 30
0.0
 10
2811.3802721385
 20
1599.5376208098
 30
0.0
  0
SPLINE
  5
533
100
AcDbEntity
  8
7_ALL_FEATURES
100
AcDbSpline
 62
7
  6
CONTINUOUS
 70
0
 71
3
 72
11
 73
7
 74
0
 42
0.0000001
 43
0.0000001
 44
0.0000000001
 40
0.0
 40
0.0
 40
0.0
 40
0.0
 40
0.2322264884
 40
0.4904134186
 40
0.7483439449
 40
1.0
 40
1.0
 40
1.0
 40
1.0
 10
2319.1753389733
 20
1599.5376208098
 30
0.0
 10
2319.1344309606
 20
1599.4911926926
 30
0.0
 10
2319.0907642945
 20
1599.3461847198
 30
0.0
 10
2319.2100472793
 20
1599.1687326784
 30
0.0
 10
2319.3649051498
 20
1599.037102979
 30
0.0
 10
2319.4830288185
 20
1598.9678814711
 30
0.0
 10
2319.5428690654
 20
1598.9376208098
 30
0.0
  0
SPLINE
  5
534
100
AcDbEntity
  8
7_ALL_FEATURES
100
AcDbSpline
 62
7
  6
CONTINUOUS
 70
0
 71
3
 72
11
 73
7
 74
0
 42
0.0000001
 43
0.0000001
 44
0.0000000001
 40
0.0
 40
0.0
 40
0.0
 40
0.0
 40
0.2516618379
 40
0.5095932869
 40
0.7677741861
 40
1.0
 40
1.0
 40
1.0
 40
1.0
 10
2561.0127420465
 20
1598.9376208098
 30
0.0
 10
2561.0725836837
 20
1598.9678821742
 30
0.0
 10
2561.1907092589
 20
1599.0371040873
 30
0.0
 10
2561.3455664539
 20
1599.1687353965
 30
0.0
 10
2561.4648461881
 20
1599.3461868946
 30
0.0
 10
2561.4211800429
 20
1599.4911928156
 30
0.0
 10
2561.3802721385
 20
1599.5376208098
 30
0.0
  0
SPLINE
  5
535
100
AcDbEntity
  8
7_ALL_FEATURES
100
AcDbSpline
 62
7
  6
CONTINUOUS
 70
0
 71
3
 72
11
 73
7
 74
0
 42
0.0000001
 43
0.0000001
 44
0.0000000001
 40
0.0
 40
0.0
 40
0.0
 40
0.0
 40
0.2322264884
 40
0.4904134186
 40
0.7483439449
 40
1.0
 40
1.0
 40
1.0
 40
1.0
 10
2069.1753389733
 20
1599.5376208098
 30
0.0
 10
2069.1344309606
 20
1599.4911926926
 30
0.0
 10
2069.0907642945
 20
1599.3461847198
 30
0.0
 10
2069.2100472793
 20
1599.1687326784
 30
0.0
 10
2069.3649051498
 20
1599.037102979
 30
0.0
 10
2069.4830288185
 20
1598.9678814711
 30
0.0
 10
2069.5428690654
 20
1598.9376208098
 30
0.0
  0
SPLINE
  5
536
100
AcDbEntity
  8
7_ALL_FEATURES
100
AcDbSpline
 62
7
  6
CONTINUOUS
 70
0
 71
3
 72
11
 73
7
 74
0
 42
0.0000001
 43
0.0000001
 44
0.0000000001
 40
0.0
 40
0.0
 40
0.0
 40
0.0
 40
0.2516618379
 40
0.5095932869
 40
0.7677741861
 40
1.0
 40
1.0
 40
1.0
 40
1.0
 10
2311.0127420465
 20
1598.9376208098
 30
0.0
 10
2311.0725836837
 20
1598.9678821742
 30
0.0
 10
2311.1907092589
 20
1599.0371040873
 30
0.0
 10
2311.3455664539
 20
1599.1687353965
 30
0.0
 10
2311.4648461881
 20
1599.3461868946
 30
0.0
 10
2311.4211800429
 20
1599.4911928156
 30
0.0
 10
2311.3802721385
 20
1599.5376208098
 30
0.0
  0
SPLINE
  5
537
100
AcDbEntity
  8
7_ALL_FEATURES
100
AcDbSpline
 62
7
  6
CONTINUOUS
 70
0
 71
3
 72
11
 73
7
 74
0
 42
0.0000001
 43
0.0000001
 44
0.0000000001
 40
0.0
 40
0.0
 40
0.0
 40
0.0
 40
0.2322264884
 40
0.4904134186
 40
0.7483439449
 40
1.0
 40
1.0
 40
1.0
 40
1.0
 10
1819.1753389733
 20
1599.5376208098
 30
0.0
 10
1819.1344309606
 20
1599.4911926926
 30
0.0
 10
1819.0907642945
 20
1599.3461847198
 30
0.0
 10
1819.2100472793
 20
1599.1687326784
 30
0.0
 10
1819.3649051498
 20
1599.037102979
 30
0.0
 10
1819.4830288185
 20
1598.9678814711
 30
0.0
 10
1819.5428690654
 20
1598.9376208098
 30
0.0
  0
SPLINE
  5
538
100
AcDbEntity
  8
7_ALL_FEATURES
100
AcDbSpline
 62
7
  6
CONTINUOUS
 70
0
 71
3
 72
11
 73
7
 74
0
 42
0.0000001
 43
0.0000001
 44
0.0000000001
 40
0.0
 40
0.0
 40
0.0
 40
0.0
 40
0.2516618379
 40
0.5095932869
 40
0.7677741861
 40
1.0
 40
1.0
 40
1.0
 40
1.0
 10
2061.0127420465
 20
1598.9376208098
 30
0.0
 10
2061.0725836837
 20
1598.9678821742
 30
0.0
 10
2061.1907092589
 20
1599.0371040873
 30
0.0
 10
2061.3455664539
 20
1599.1687353965
 30
0.0
 10
2061.4648461881
 20
1599.3461868946
 30
0.0
 10
2061.4211800429
 20
1599.4911928156
 30
0.0
 10
2061.3802721385
 20
1599.5376208098
 30
0.0
  0
SPLINE
  5
539
100
AcDbEntity
  8
7_ALL_FEATURES
100
AcDbSpline
 62
7
  6
CONTINUOUS
 70
0
 71
3
 72
11
 73
7
 74
0
 42
0.0000001
 43
0.0000001
 44
0.0000000001
 40
0.0
 40
0.0
 40
0.0
 40
0.0
 40
0.2322264884
 40
0.4904134186
 40
0.7483439449
 40
1.0
 40
1.0
 40
1.0
 40
1.0
 10
1569.1753389733
 20
1599.5376208098
 30
0.0
 10
1569.1344309606
 20
1599.4911926926
 30
0.0
 10
1569.0907642945
 20
1599.3461847198
 30
0.0
 10
1569.2100472793
 20
1599.1687326784
 30
0.0
 10
1569.3649051498
 20
1599.037102979
 30
0.0
 10
1569.4830288185
 20
1598.9678814711
 30
0.0
 10
1569.5428690654
 20
1598.9376208098
 30
0.0
  0
SPLINE
  5
53A
100
AcDbEntity
  8
7_ALL_FEATURES
100
AcDbSpline
 62
7
  6
CONTINUOUS
 70
0
 71
3
 72
11
 73
7
 74
0
 42
0.0000001
 43
0.0000001
 44
0.0000000001
 40
0.0
 40
0.0
 40
0.0
 40
0.0
 40
0.2516618379
 40
0.5095932869
 40
0.7677741861
 40
1.0
 40
1.0
 40
1.0
 40
1.0
 10
1811.0127420465
 20
1598.9376208098
 30
0.0
 10
1811.0725836837
 20
1598.9678821742
 30
0.0
 10
1811.1907092589
 20
1599.0371040873
 30
0.0
 10
1811.3455664539
 20
1599.1687353965
 30
0.0
 10
1811.4648461881
 20
1599.3461868946
 30
0.0
 10
1811.4211800429
 20
1599.4911928156
 30
0.0
 10
1811.3802721385
 20
1599.5376208098
 30
0.0
  0
SPLINE
  5
53B
100
AcDbEntity
  8
7_ALL_FEATURES
100
AcDbSpline
 62
7
  6
CONTINUOUS
 70
0
 71
3
 72
11
 73
7
 74
0
 42
0.0000001
 43
0.0000001
 44
0.0000000001
 40
0.0
 40
0.0
 40
0.0
 40
0.0
 40
0.2322264884
 40
0.4904134186
 40
0.7483439449
 40
1.0
 40
1.0
 40
1.0
 40
1.0
 10
1319.1753389733
 20
1599.5376208098
 30
0.0
 10
1319.1344309606
 20
1599.4911926926
 30
0.0
 10
1319.0907642945
 20
1599.3461847198
 30
0.0
 10
1319.2100472793
 20
1599.1687326784
 30
0.0
 10
1319.3649051498
 20
1599.037102979
 30
0.0
 10
1319.4830288185
 20
1598.9678814711
 30
0.0
 10
1319.5428690654
 20
1598.9376208098
 30
0.0
  0
SPLINE
  5
53C
100
AcDbEntity
  8
7_ALL_FEATURES
100
AcDbSpline
 62
7
  6
CONTINUOUS
 70
0
 71
3
 72
11
 73
7
 74
0
 42
0.0000001
 43
0.0000001
 44
0.0000000001
 40
0.0
 40
0.0
 40
0.0
 40
0.0
 40
0.2516618379
 40
0.5095932869
 40
0.7677741861
 40
1.0
 40
1.0
 40
1.0
 40
1.0
 10
1561.0127420465
 20
1598.9376208098
 30
0.0
 10
1561.0725836837
 20
1598.9678821742
 30
0.0
 10
1561.1907092589
 20
1599.0371040873
 30
0.0
 10
1561.3455664539
 20
1599.1687353965
 30
0.0
 10
1561.4648461881
 20
1599.3461868946
 30
0.0
 10
1561.4211800429
 20
1599.4911928156
 30
0.0
 10
1561.3802721385
 20
1599.5376208098
 30
0.0
  0
SPLINE
  5
53D
100
AcDbEntity
  8
7_ALL_FEATURES
100
AcDbSpline
 62
7
  6
CONTINUOUS
 70
0
 71
3
 72
11
 73
7
 74
0
 42
0.0000001
 43
0.0000001
 44
0.0000000001
 40
0.0
 40
0.0
 40
0.0
 40
0.0
 40
0.2322264884
 40
0.4904134186
 40
0.7483439449
 40
1.0
 40
1.0
 40
1.0
 40
1.0
 10
1069.1753389733
 20
1599.5376208098
 30
0.0
 10
1069.1344309606
 20
1599.4911926926
 30
0.0
 10
1069.0907642945
 20
1599.3461847198
 30
0.0
 10
1069.2100472793
 20
1599.1687326784
 30
0.0
 10
1069.3649051498
 20
1599.037102979
 30
0.0
 10
1069.4830288185
 20
1598.9678814711
 30
0.0
 10
1069.5428690654
 20
1598.9376208098
 30
0.0
  0
SPLINE
  5
53E
100
AcDbEntity
  8
7_ALL_FEATURES
100
AcDbSpline
 62
7
  6
CONTINUOUS
 70
0
 71
3
 72
11
 73
7
 74
0
 42
0.0000001
 43
0.0000001
 44
0.0000000001
 40
0.0
 40
0.0
 40
0.0
 40
0.0
 40
0.2516618379
 40
0.5095932869
 40
0.7677741861
 40
1.0
 40
1.0
 40
1.0
 40
1.0
 10
1311.0127420465
 20
1598.9376208098
 30
0.0
 10
1311.0725836837
 20
1598.9678821742
 30
0.0
 10
1311.1907092589
 20
1599.0371040873
 30
0.0
 10
1311.3455664539
 20
1599.1687353965
 30
0.0
 10
1311.4648461881
 20
1599.3461868946
 30
0.0
 10
1311.4211800429
 20
1599.4911928156
 30
0.0
 10
1311.3802721385
 20
1599.5376208098
 30
0.0
  0
SPLINE
  5
53F
100
AcDbEntity
  8
7_ALL_FEATURES
100
AcDbSpline
 62
7
  6
CONTINUOUS
 70
0
 71
3
 72
11
 73
7
 74
0
 42
0.0000001
 43
0.0000001
 44
0.0000000001
 40
0.0
 40
0.0
 40
0.0
 40
0.0
 40
0.2322264884
 40
0.4904134186
 40
0.7483439449
 40
1.0
 40
1.0
 40
1.0
 40
1.0
 10
819.1753389733
 20
1599.5376208098
 30
0.0
 10
819.1344309606
 20
1599.4911926926
 30
0.0
 10
819.0907642945
 20
1599.3461847198
 30
0.0
 10
819.2100472793
 20
1599.1687326784
 30
0.0
 10
819.3649051498
 20
1599.037102979
 30
0.0
 10
819.4830288185
 20
1598.9678814711
 30
0.0
 10
819.5428690654
 20
1598.9376208098
 30
0.0
  0
SPLINE
  5
540
100
AcDbEntity
  8
7_ALL_FEATURES
100
AcDbSpline
 62
7
  6
CONTINUOUS
 70
0
 71
3
 72
11
 73
7
 74
0
 42
0.0000001
 43
0.0000001
 44
0.0000000001
 40
0.0
 40
0.0
 40
0.0
 40
0.0
 40
0.2516618379
 40
0.5095932869
 40
0.7677741861
 40
1.0
 40
1.0
 40
1.0
 40
1.0
 10
1061.0127420465
 20
1598.9376208098
 30
0.0
 10
1061.0725836837
 20
1598.9678821742
 30
0.0
 10
1061.1907092589
 20
1599.0371040873
 30
0.0
 10
1061.3455664539
 20
1599.1687353965
 30
0.0
 10
1061.4648461881
 20
1599.3461868946
 30
0.0
 10
1061.4211800429
 20
1599.4911928156
 30
0.0
 10
1061.3802721385
 20
1599.5376208098
 30
0.0
  0
SPLINE
  5
541
100
AcDbEntity
  8
7_ALL_FEATURES
100
AcDbSpline
 62
7
  6
CONTINUOUS
 70
0
 71
3
 72
11
 73
7
 74
0
 42
0.0000001
 43
0.0000001
 44
0.0000000001
 40
0.0
 40
0.0
 40
0.0
 40
0.0
 40
0.2516618379
 40
0.5095932869
 40
0.7677741861
 40
1.0
 40
1.0
 40
1.0
 40
1.0
 10
811.0127420465
 20
1598.9376208098
 30
0.0
 10
811.0725836837
 20
1598.9678821742
 30
0.0
 10
811.1907092589
 20
1599.0371040873
 30
0.0
 10
811.3455664539
 20
1599.1687353965
 30
0.0
 10
811.4648461881
 20
1599.3461868946
 30
0.0
 10
811.4211800429
 20
1599.4911928156
 30
0.0
 10
811.3802721385
 20
1599.5376208098
 30
0.0
  0
SPLINE
  5
542
100
AcDbEntity
  8
7_ALL_FEATURES
100
AcDbSpline
 62
7
  6
CONTINUOUS
 70
0
 71
3
 72
9
 73
5
 74
0
 42
0.0000001
 43
0.0000001
 44
0.0000000001
 40
0.0
 40
0.0
 40
0.0
 40
0.0
 40
0.5056312755
 40
1.0
 40
1.0
 40
1.0
 40
1.0
 10
2820.0726743487
 20
1596.5376208098
 30
0.0
 10
2819.979943599
 20
1596.4685156557
 30
0.0
 10
2819.8048075324
 20
1596.2655726801
 30
0.0
 10
2819.9244198426
 20
1596.0118749743
 30
0.0
 10
2820.0096938407
 20
1595.9376208098
 30
0.0
  0
SPLINE
  5
543
100
AcDbEntity
  8
7_ALL_FEATURES
100
AcDbSpline
 62
7
  6
CONTINUOUS
 70
0
 71
3
 72
9
 73
5
 74
0
 42
0.0000001
 43
0.0000001
 44
0.0000000001
 40
0.0
 40
0.0
 40
0.0
 40
0.0
 40
0.5056312755
 40
1.0
 40
1.0
 40
1.0
 40
1.0
 10
2570.0726743487
 20
1596.5376208098
 30
0.0
 10
2569.979943599
 20
1596.4685156557
 30
0.0
 10
2569.8048075324
 20
1596.2655726801
 30
0.0
 10
2569.9244198426
 20
1596.0118749743
 30
0.0
 10
2570.0096938407
 20
1595.9376208098
 30
0.0
  0
SPLINE
  5
544
100
AcDbEntity
  8
7_ALL_FEATURES
100
AcDbSpline
 62
7
  6
CONTINUOUS
 70
0
 71
3
 72
9
 73
5
 74
0
 42
0.0000001
 43
0.0000001
 44
0.0000000001
 40
0.0
 40
0.0
 40
0.0
 40
0.0
 40
0.4943687245
 40
1.0
 40
1.0
 40
1.0
 40
1.0
 10
2810.5459172712
 20
1595.9376208098
 30
0.0
 10
2810.6311912693
 20
1596.0118749743
 30
0.0
 10
2810.7508035795
 20
1596.2655726801
 30
0.0
 10
2810.5756675129
 20
1596.4685156557
 30
0.0
 10
2810.4829367632
 20
1596.5376208098
 30
0.0
  0
SPLINE
  5
545
100
AcDbEntity
  8
7_ALL_FEATURES
100
AcDbSpline
 62
7
  6
CONTINUOUS
 70
0
 71
3
 72
9
 73
5
 74
0
 42
0.0000001
 43
0.0000001
 44
0.0000000001
 40
0.0
 40
0.0
 40
0.0
 40
0.0
 40
0.5056312755
 40
1.0
 40
1.0
 40
1.0
 40
1.0
 10
2320.0726743487
 20
1596.5376208098
 30
0.0
 10
2319.979943599
 20
1596.4685156557
 30
0.0
 10
2319.8048075324
 20
1596.2655726801
 30
0.0
 10
2319.9244198426
 20
1596.0118749743
 30
0.0
 10
2320.0096938407
 20
1595.9376208098
 30
0.0
  0
SPLINE
  5
546
100
AcDbEntity
  8
7_ALL_FEATURES
100
AcDbSpline
 62
7
  6
CONTINUOUS
 70
0
 71
3
 72
9
 73
5
 74
0
 42
0.0000001
 43
0.0000001
 44
0.0000000001
 40
0.0
 40
0.0
 40
0.0
 40
0.0
 40
0.4943687245
 40
1.0
 40
1.0
 40
1.0
 40
1.0
 10
2560.5459172712
 20
1595.9376208098
 30
0.0
 10
2560.6311912693
 20
1596.0118749743
 30
0.0
 10
2560.7508035795
 20
1596.2655726801
 30
0.0
 10
2560.5756675129
 20
1596.4685156557
 30
0.0
 10
2560.4829367632
 20
1596.5376208098
 30
0.0
  0
SPLINE
  5
547
100
AcDbEntity
  8
7_ALL_FEATURES
100
AcDbSpline
 62
7
  6
CONTINUOUS
 70
0
 71
3
 72
9
 73
5
 74
0
 42
0.0000001
 43
0.0000001
 44
0.0000000001
 40
0.0
 40
0.0
 40
0.0
 40
0.0
 40
0.5056312755
 40
1.0
 40
1.0
 40
1.0
 40
1.0
 10
2070.0726743487
 20
1596.5376208098
 30
0.0
 10
2069.979943599
 20
1596.4685156557
 30
0.0
 10
2069.8048075324
 20
1596.2655726801
 30
0.0
 10
2069.9244198426
 20
1596.0118749743
 30
0.0
 10
2070.0096938407
 20
1595.9376208098
 30
0.0
  0
SPLINE
  5
548
100
AcDbEntity
  8
7_ALL_FEATURES
100
AcDbSpline
 62
7
  6
CONTINUOUS
 70
0
 71
3
 72
9
 73
5
 74
0
 42
0.0000001
 43
0.0000001
 44
0.0000000001
 40
0.0
 40
0.0
 40
0.0
 40
0.0
 40
0.4943687245
 40
1.0
 40
1.0
 40
1.0
 40
1.0
 10
2310.5459172712
 20
1595.9376208098
 30
0.0
 10
2310.6311912693
 20
1596.0118749743
 30
0.0
 10
2310.7508035795
 20
1596.2655726801
 30
0.0
 10
2310.5756675129
 20
1596.4685156557
 30
0.0
 10
2310.4829367632
 20
1596.5376208098
 30
0.0
  0
SPLINE
  5
549
100
AcDbEntity
  8
7_ALL_FEATURES
100
AcDbSpline
 62
7
  6
CONTINUOUS
 70
0
 71
3
 72
9
 73
5
 74
0
 42
0.0000001
 43
0.0000001
 44
0.0000000001
 40
0.0
 40
0.0
 40
0.0
 40
0.0
 40
0.5056312755
 40
1.0
 40
1.0
 40
1.0
 40
1.0
 10
1820.0726743487
 20
1596.5376208098
 30
0.0
 10
1819.979943599
 20
1596.4685156557
 30
0.0
 10
1819.8048075324
 20
1596.2655726801
 30
0.0
 10
1819.9244198426
 20
1596.0118749743
 30
0.0
 10
1820.0096938407
 20
1595.9376208098
 30
0.0
  0
SPLINE
  5
54A
100
AcDbEntity
  8
7_ALL_FEATURES
100
AcDbSpline
 62
7
  6
CONTINUOUS
 70
0
 71
3
 72
9
 73
5
 74
0
 42
0.0000001
 43
0.0000001
 44
0.0000000001
 40
0.0
 40
0.0
 40
0.0
 40
0.0
 40
0.4943687245
 40
1.0
 40
1.0
 40
1.0
 40
1.0
 10
2060.5459172712
 20
1595.9376208098
 30
0.0
 10
2060.6311912693
 20
1596.0118749743
 30
0.0
 10
2060.7508035795
 20
1596.2655726801
 30
0.0
 10
2060.5756675129
 20
1596.4685156557
 30
0.0
 10
2060.4829367632
 20
1596.5376208098
 30
0.0
  0
SPLINE
  5
54B
100
AcDbEntity
  8
7_ALL_FEATURES
100
AcDbSpline
 62
7
  6
CONTINUOUS
 70
0
 71
3
 72
9
 73
5
 74
0
 42
0.0000001
 43
0.0000001
 44
0.0000000001
 40
0.0
 40
0.0
 40
0.0
 40
0.0
 40
0.5056312755
 40
1.0
 40
1.0
 40
1.0
 40
1.0
 10
1570.0726743487
 20
1596.5376208098
 30
0.0
 10
1569.979943599
 20
1596.4685156557
 30
0.0
 10
1569.8048075324
 20
1596.2655726801
 30
0.0
 10
1569.9244198426
 20
1596.0118749743
 30
0.0
 10
1570.0096938407
 20
1595.9376208098
 30
0.0
  0
SPLINE
  5
54C
100
AcDbEntity
  8
7_ALL_FEATURES
100
AcDbSpline
 62
7
  6
CONTINUOUS
 70
0
 71
3
 72
9
 73
5
 74
0
 42
0.0000001
 43
0.0000001
 44
0.0000000001
 40
0.0
 40
0.0
 40
0.0
 40
0.0
 40
0.4943687245
 40
1.0
 40
1.0
 40
1.0
 40
1.0
 10
1810.5459172712
 20
1595.9376208098
 30
0.0
 10
1810.6311912693
 20
1596.0118749743
 30
0.0
 10
1810.7508035795
 20
1596.2655726801
 30
0.0
 10
1810.5756675129
 20
1596.4685156557
 30
0.0
 10
1810.4829367632
 20
1596.5376208098
 30
0.0
  0
SPLINE
  5
54D
100
AcDbEntity
  8
7_ALL_FEATURES
100
AcDbSpline
 62
7
  6
CONTINUOUS
 70
0
 71
3
 72
9
 73
5
 74
0
 42
0.0000001
 43
0.0000001
 44
0.0000000001
 40
0.0
 40
0.0
 40
0.0
 40
0.0
 40
0.5056312755
 40
1.0
 40
1.0
 40
1.0
 40
1.0
 10
1320.0726743487
 20
1596.5376208098
 30
0.0
 10
1319.979943599
 20
1596.4685156557
 30
0.0
 10
1319.8048075324
 20
1596.2655726801
 30
0.0
 10
1319.9244198426
 20
1596.0118749743
 30
0.0
 10
1320.0096938407
 20
1595.9376208098
 30
0.0
  0
SPLINE
  5
54E
100
AcDbEntity
  8
7_ALL_FEATURES
100
AcDbSpline
 62
7
  6
CONTINUOUS
 70
0
 71
3
 72
9
 73
5
 74
0
 42
0.0000001
 43
0.0000001
 44
0.0000000001
 40
0.0
 40
0.0
 40
0.0
 40
0.0
 40
0.4943687245
 40
1.0
 40
1.0
 40
1.0
 40
1.0
 10
1560.5459172712
 20
1595.9376208098
 30
0.0
 10
1560.6311912693
 20
1596.0118749743
 30
0.0
 10
1560.7508035795
 20
1596.2655726801
 30
0.0
 10
1560.5756675129
 20
1596.4685156557
 30
0.0
 10
1560.4829367632
 20
1596.5376208098
 30
0.0
  0
SPLINE
  5
54F
100
AcDbEntity
  8
7_ALL_FEATURES
100
AcDbSpline
 62
7
  6
CONTINUOUS
 70
0
 71
3
 72
9
 73
5
 74
0
 42
0.0000001
 43
0.0000001
 44
0.0000000001
 40
0.0
 40
0.0
 40
0.0
 40
0.0
 40
0.5056312755
 40
1.0
 40
1.0
 40
1.0
 40
1.0
 10
1070.0726743487
 20
1596.5376208098
 30
0.0
 10
1069.979943599
 20
1596.4685156557
 30
0.0
 10
1069.8048075324
 20
1596.2655726801
 30
0.0
 10
1069.9244198426
 20
1596.0118749743
 30
0.0
 10
1070.0096938407
 20
1595.9376208098
 30
0.0
  0
SPLINE
  5
550
100
AcDbEntity
  8
7_ALL_FEATURES
100
AcDbSpline
 62
7
  6
CONTINUOUS
 70
0
 71
3
 72
9
 73
5
 74
0
 42
0.0000001
 43
0.0000001
 44
0.0000000001
 40
0.0
 40
0.0
 40
0.0
 40
0.0
 40
0.4943687245
 40
1.0
 40
1.0
 40
1.0
 40
1.0
 10
1310.5459172712
 20
1595.9376208098
 30
0.0
 10
1310.6311912693
 20
1596.0118749743
 30
0.0
 10
1310.7508035795
 20
1596.2655726801
 30
0.0
 10
1310.5756675129
 20
1596.4685156557
 30
0.0
 10
1310.4829367632
 20
1596.5376208098
 30
0.0
  0
SPLINE
  5
551
100
AcDbEntity
  8
7_ALL_FEATURES
100
AcDbSpline
 62
7
  6
CONTINUOUS
 70
0
 71
3
 72
9
 73
5
 74
0
 42
0.0000001
 43
0.0000001
 44
0.0000000001
 40
0.0
 40
0.0
 40
0.0
 40
0.0
 40
0.5056312755
 40
1.0
 40
1.0
 40
1.0
 40
1.0
 10
820.0726743487
 20
1596.5376208098
 30
0.0
 10
819.979943599
 20
1596.4685156557
 30
0.0
 10
819.8048075324
 20
1596.2655726801
 30
0.0
 10
819.9244198426
 20
1596.0118749743
 30
0.0
 10
820.0096938407
 20
1595.9376208098
 30
0.0
  0
SPLINE
  5
552
100
AcDbEntity
  8
7_ALL_FEATURES
100
AcDbSpline
 62
7
  6
CONTINUOUS
 70
0
 71
3
 72
9
 73
5
 74
0
 42
0.0000001
 43
0.0000001
 44
0.0000000001
 40
0.0
 40
0.0
 40
0.0
 40
0.0
 40
0.4943687245
 40
1.0
 40
1.0
 40
1.0
 40
1.0
 10
1060.5459172712
 20
1595.9376208098
 30
0.0
 10
1060.6311912693
 20
1596.0118749743
 30
0.0
 10
1060.7508035795
 20
1596.2655726801
 30
0.0
 10
1060.5756675129
 20
1596.4685156557
 30
0.0
 10
1060.4829367632
 20
1596.5376208098
 30
0.0
  0
SPLINE
  5
553
100
AcDbEntity
  8
7_ALL_FEATURES
100
AcDbSpline
 62
7
  6
CONTINUOUS
 70
0
 71
3
 72
9
 73
5
 74
0
 42
0.0000001
 43
0.0000001
 44
0.0000000001
 40
0.0
 40
0.0
 40
0.0
 40
0.0
 40
0.4943687245
 40
1.0
 40
1.0
 40
1.0
 40
1.0
 10
810.5459172712
 20
1595.9376208098
 30
0.0
 10
810.6311912693
 20
1596.0118749743
 30
0.0
 10
810.7508035795
 20
1596.2655726801
 30
0.0
 10
810.5756675129
 20
1596.4685156557
 30
0.0
 10
810.4829367632
 20
1596.5376208098
 30
0.0
  0
SPLINE
  5
554
100
AcDbEntity
  8
6_ALL_SURFS
100
AcDbSpline
 62
7
  6
CONTINUOUS
 70
0
 71
3
 72
9
 73
5
 74
0
 42
0.0000001
 43
0.0000001
 44
0.0000000001
 40
0.0
 40
0.0
 40
0.0
 40
0.0
 40
0.4943687245
 40
1.0
 40
1.0
 40
1.0
 40
1.0
 10
810.5459172712
 20
1695.4376208098
 30
0.0
 10
810.6311912693
 20
1695.3633666454
 30
0.0
 10
810.7508035795
 20
1695.1096689395
 30
0.0
 10
810.5756675129
 20
1694.9067259639
 30
0.0
 10
810.4829367632
 20
1694.8376208098
 30
0.0
  0
SPLINE
  5
555
100
AcDbEntity
  8
6_ALL_SURFS
100
AcDbSpline
 62
7
  6
CONTINUOUS
 70
0
 71
3
 72
9
 73
5
 74
0
 42
0.0000001
 43
0.0000001
 44
0.0000000001
 40
0.0
 40
0.0
 40
0.0
 40
0.0
 40
0.4943687245
 40
1.0
 40
1.0
 40
1.0
 40
1.0
 10
1060.5459172712
 20
1695.4376208098
 30
0.0
 10
1060.6311912693
 20
1695.3633666454
 30
0.0
 10
1060.7508035795
 20
1695.1096689395
 30
0.0
 10
1060.5756675129
 20
1694.9067259639
 30
0.0
 10
1060.4829367632
 20
1694.8376208098
 30
0.0
  0
SPLINE
  5
556
100
AcDbEntity
  8
6_ALL_SURFS
100
AcDbSpline
 62
7
  6
CONTINUOUS
 70
0
 71
3
 72
9
 73
5
 74
0
 42
0.0000001
 43
0.0000001
 44
0.0000000001
 40
0.0
 40
0.0
 40
0.0
 40
0.0
 40
0.5056312755
 40
1.0
 40
1.0
 40
1.0
 40
1.0
 10
820.0726743487
 20
1694.8376208098
 30
0.0
 10
819.979943599
 20
1694.9067259639
 30
0.0
 10
819.8048075324
 20
1695.1096689395
 30
0.0
 10
819.9244198426
 20
1695.3633666454
 30
0.0
 10
820.0096938407
 20
1695.4376208098
 30
0.0
  0
SPLINE
  5
557
100
AcDbEntity
  8
6_ALL_SURFS
100
AcDbSpline
 62
7
  6
CONTINUOUS
 70
0
 71
3
 72
9
 73
5
 74
0
 42
0.0000001
 43
0.0000001
 44
0.0000000001
 40
0.0
 40
0.0
 40
0.0
 40
0.0
 40
0.4943687245
 40
1.0
 40
1.0
 40
1.0
 40
1.0
 10
1310.5459172712
 20
1695.4376208098
 30
0.0
 10
1310.6311912693
 20
1695.3633666454
 30
0.0
 10
1310.7508035795
 20
1695.1096689395
 30
0.0
 10
1310.5756675129
 20
1694.9067259639
 30
0.0
 10
1310.4829367632
 20
1694.8376208098
 30
0.0
  0
SPLINE
  5
558
100
AcDbEntity
  8
6_ALL_SURFS
100
AcDbSpline
 62
7
  6
CONTINUOUS
 70
0
 71
3
 72
9
 73
5
 74
0
 42
0.0000001
 43
0.0000001
 44
0.0000000001
 40
0.0
 40
0.0
 40
0.0
 40
0.0
 40
0.5056312755
 40
1.0
 40
1.0
 40
1.0
 40
1.0
 10
1070.0726743487
 20
1694.8376208098
 30
0.0
 10
1069.979943599
 20
1694.9067259639
 30
0.0
 10
1069.8048075324
 20
1695.1096689395
 30
0.0
 10
1069.9244198426
 20
1695.3633666454
 30
0.0
 10
1070.0096938407
 20
1695.4376208098
 30
0.0
  0
SPLINE
  5
559
100
AcDbEntity
  8
6_ALL_SURFS
100
AcDbSpline
 62
7
  6
CONTINUOUS
 70
0
 71
3
 72
9
 73
5
 74
0
 42
0.0000001
 43
0.0000001
 44
0.0000000001
 40
0.0
 40
0.0
 40
0.0
 40
0.0
 40
0.4943687245
 40
1.0
 40
1.0
 40
1.0
 40
1.0
 10
1560.5459172712
 20
1695.4376208098
 30
0.0
 10
1560.6311912693
 20
1695.3633666454
 30
0.0
 10
1560.7508035795
 20
1695.1096689395
 30
0.0
 10
1560.5756675129
 20
1694.9067259639
 30
0.0
 10
1560.4829367632
 20
1694.8376208098
 30
0.0
  0
SPLINE
  5
55A
100
AcDbEntity
  8
6_ALL_SURFS
100
AcDbSpline
 62
7
  6
CONTINUOUS
 70
0
 71
3
 72
9
 73
5
 74
0
 42
0.0000001
 43
0.0000001
 44
0.0000000001
 40
0.0
 40
0.0
 40
0.0
 40
0.0
 40
0.5056312755
 40
1.0
 40
1.0
 40
1.0
 40
1.0
 10
1320.0726743487
 20
1694.8376208098
 30
0.0
 10
1319.979943599
 20
1694.9067259639
 30
0.0
 10
1319.8048075324
 20
1695.1096689395
 30
0.0
 10
1319.9244198426
 20
1695.3633666454
 30
0.0
 10
1320.0096938407
 20
1695.4376208098
 30
0.0
  0
SPLINE
  5
55B
100
AcDbEntity
  8
6_ALL_SURFS
100
AcDbSpline
 62
7
  6
CONTINUOUS
 70
0
 71
3
 72
9
 73
5
 74
0
 42
0.0000001
 43
0.0000001
 44
0.0000000001
 40
0.0
 40
0.0
 40
0.0
 40
0.0
 40
0.4943687245
 40
1.0
 40
1.0
 40
1.0
 40
1.0
 10
1810.5459172712
 20
1695.4376208098
 30
0.0
 10
1810.6311912693
 20
1695.3633666454
 30
0.0
 10
1810.7508035795
 20
1695.1096689395
 30
0.0
 10
1810.5756675129
 20
1694.9067259639
 30
0.0
 10
1810.4829367632
 20
1694.8376208098
 30
0.0
  0
SPLINE
  5
55C
100
AcDbEntity
  8
6_ALL_SURFS
100
AcDbSpline
 62
7
  6
CONTINUOUS
 70
0
 71
3
 72
9
 73
5
 74
0
 42
0.0000001
 43
0.0000001
 44
0.0000000001
 40
0.0
 40
0.0
 40
0.0
 40
0.0
 40
0.5056312755
 40
1.0
 40
1.0
 40
1.0
 40
1.0
 10
1570.0726743487
 20
1694.8376208098
 30
0.0
 10
1569.979943599
 20
1694.9067259639
 30
0.0
 10
1569.8048075324
 20
1695.1096689395
 30
0.0
 10
1569.9244198426
 20
1695.3633666454
 30
0.0
 10
1570.0096938407
 20
1695.4376208098
 30
0.0
  0
SPLINE
  5
55D
100
AcDbEntity
  8
6_ALL_SURFS
100
AcDbSpline
 62
7
  6
CONTINUOUS
 70
0
 71
3
 72
9
 73
5
 74
0
 42
0.0000001
 43
0.0000001
 44
0.0000000001
 40
0.0
 40
0.0
 40
0.0
 40
0.0
 40
0.4943687245
 40
1.0
 40
1.0
 40
1.0
 40
1.0
 10
2060.5459172712
 20
1695.4376208098
 30
0.0
 10
2060.6311912693
 20
1695.3633666454
 30
0.0
 10
2060.7508035795
 20
1695.1096689395
 30
0.0
 10
2060.5756675129
 20
1694.9067259639
 30
0.0
 10
2060.4829367632
 20
1694.8376208098
 30
0.0
  0
SPLINE
  5
55E
100
AcDbEntity
  8
6_ALL_SURFS
100
AcDbSpline
 62
7
  6
CONTINUOUS
 70
0
 71
3
 72
9
 73
5
 74
0
 42
0.0000001
 43
0.0000001
 44
0.0000000001
 40
0.0
 40
0.0
 40
0.0
 40
0.0
 40
0.5056312755
 40
1.0
 40
1.0
 40
1.0
 40
1.0
 10
1820.0726743487
 20
1694.8376208098
 30
0.0
 10
1819.979943599
 20
1694.9067259639
 30
0.0
 10
1819.8048075324
 20
1695.1096689395
 30
0.0
 10
1819.9244198426
 20
1695.3633666454
 30
0.0
 10
1820.0096938407
 20
1695.4376208098
 30
0.0
  0
SPLINE
  5
55F
100
AcDbEntity
  8
6_ALL_SURFS
100
AcDbSpline
 62
7
  6
CONTINUOUS
 70
0
 71
3
 72
9
 73
5
 74
0
 42
0.0000001
 43
0.0000001
 44
0.0000000001
 40
0.0
 40
0.0
 40
0.0
 40
0.0
 40
0.4943687245
 40
1.0
 40
1.0
 40
1.0
 40
1.0
 10
2310.5459172712
 20
1695.4376208098
 30
0.0
 10
2310.6311912693
 20
1695.3633666454
 30
0.0
 10
2310.7508035795
 20
1695.1096689395
 30
0.0
 10
2310.5756675129
 20
1694.9067259639
 30
0.0
 10
2310.4829367632
 20
1694.8376208098
 30
0.0
  0
SPLINE
  5
560
100
AcDbEntity
  8
6_ALL_SURFS
100
AcDbSpline
 62
7
  6
CONTINUOUS
 70
0
 71
3
 72
9
 73
5
 74
0
 42
0.0000001
 43
0.0000001
 44
0.0000000001
 40
0.0
 40
0.0
 40
0.0
 40
0.0
 40
0.5056312755
 40
1.0
 40
1.0
 40
1.0
 40
1.0
 10
2070.0726743487
 20
1694.8376208098
 30
0.0
 10
2069.979943599
 20
1694.9067259639
 30
0.0
 10
2069.8048075324
 20
1695.1096689395
 30
0.0
 10
2069.9244198426
 20
1695.3633666454
 30
0.0
 10
2070.0096938407
 20
1695.4376208098
 30
0.0
  0
SPLINE
  5
561
100
AcDbEntity
  8
6_ALL_SURFS
100
AcDbSpline
 62
7
  6
CONTINUOUS
 70
0
 71
3
 72
9
 73
5
 74
0
 42
0.0000001
 43
0.0000001
 44
0.0000000001
 40
0.0
 40
0.0
 40
0.0
 40
0.0
 40
0.4943687245
 40
1.0
 40
1.0
 40
1.0
 40
1.0
 10
2560.5459172712
 20
1695.4376208098
 30
0.0
 10
2560.6311912693
 20
1695.3633666454
 30
0.0
 10
2560.7508035795
 20
1695.1096689395
 30
0.0
 10
2560.5756675129
 20
1694.9067259639
 30
0.0
 10
2560.4829367632
 20
1694.8376208098
 30
0.0
  0
SPLINE
  5
562
100
AcDbEntity
  8
6_ALL_SURFS
100
AcDbSpline
 62
7
  6
CONTINUOUS
 70
0
 71
3
 72
9
 73
5
 74
0
 42
0.0000001
 43
0.0000001
 44
0.0000000001
 40
0.0
 40
0.0
 40
0.0
 40
0.0
 40
0.5056312755
 40
1.0
 40
1.0
 40
1.0
 40
1.0
 10
2320.0726743487
 20
1694.8376208098
 30
0.0
 10
2319.979943599
 20
1694.9067259639
 30
0.0
 10
2319.8048075324
 20
1695.1096689395
 30
0.0
 10
2319.9244198426
 20
1695.3633666454
 30
0.0
 10
2320.0096938407
 20
1695.4376208098
 30
0.0
  0
SPLINE
  5
563
100
AcDbEntity
  8
6_ALL_SURFS
100
AcDbSpline
 62
7
  6
CONTINUOUS
 70
0
 71
3
 72
9
 73
5
 74
0
 42
0.0000001
 43
0.0000001
 44
0.0000000001
 40
0.0
 40
0.0
 40
0.0
 40
0.0
 40
0.4943687245
 40
1.0
 40
1.0
 40
1.0
 40
1.0
 10
2810.5459172712
 20
1695.4376208098
 30
0.0
 10
2810.6311912693
 20
1695.3633666454
 30
0.0
 10
2810.7508035795
 20
1695.1096689395
 30
0.0
 10
2810.5756675129
 20
1694.9067259639
 30
0.0
 10
2810.4829367632
 20
1694.8376208098
 30
0.0
  0
SPLINE
  5
564
100
AcDbEntity
  8
6_ALL_SURFS
100
AcDbSpline
 62
7
  6
CONTINUOUS
 70
0
 71
3
 72
9
 73
5
 74
0
 42
0.0000001
 43
0.0000001
 44
0.0000000001
 40
0.0
 40
0.0
 40
0.0
 40
0.0
 40
0.5056312755
 40
1.0
 40
1.0
 40
1.0
 40
1.0
 10
2570.0726743487
 20
1694.8376208098
 30
0.0
 10
2569.979943599
 20
1694.9067259639
 30
0.0
 10
2569.8048075324
 20
1695.1096689395
 30
0.0
 10
2569.9244198426
 20
1695.3633666454
 30
0.0
 10
2570.0096938407
 20
1695.4376208098
 30
0.0
  0
SPLINE
  5
565
100
AcDbEntity
  8
6_ALL_SURFS
100
AcDbSpline
 62
7
  6
CONTINUOUS
 70
0
 71
3
 72
9
 73
5
 74
0
 42
0.0000001
 43
0.0000001
 44
0.0000000001
 40
0.0
 40
0.0
 40
0.0
 40
0.0
 40
0.5056312755
 40
1.0
 40
1.0
 40
1.0
 40
1.0
 10
2820.0726743487
 20
1694.8376208098
 30
0.0
 10
2819.979943599
 20
1694.9067259639
 30
0.0
 10
2819.8048075324
 20
1695.1096689395
 30
0.0
 10
2819.9244198426
 20
1695.3633666454
 30
0.0
 10
2820.0096938407
 20
1695.4376208098
 30
0.0
  0
ELLIPSE
  5
566
100
AcDbEntity
  8
6_ALL_SURFS
100
AcDbEllipse
 62
7
  6
CONTINUOUS
 10
815.2778055559
 20
1204.3225207571
 30
0.0
 11
5.4882058378
 21
-0.0
 31
0.0
 40
0.1015346165
 41
0.9294607698
 42
2.2121318838
  0
ELLIPSE
  5
567
100
AcDbEntity
  8
6_ALL_SURFS
100
AcDbEllipse
 62
7
  6
CONTINUOUS
 10
1065.2778055559
 20
1204.3225207571
 30
0.0
 11
5.4882058378
 21
0.0
 31
0.0
 40
0.1015346165
 41
0.9294607698
 42
2.2121318838
  0
ELLIPSE
  5
568
100
AcDbEntity
  8
6_ALL_SURFS
100
AcDbEllipse
 62
7
  6
CONTINUOUS
 10
1315.2778055559
 20
1204.3225207571
 30
0.0
 11
5.4882058378
 21
0.0
 31
0.0
 40
0.1015346165
 41
0.9294607698
 42
2.2121318838
  0
ELLIPSE
  5
569
100
AcDbEntity
  8
6_ALL_SURFS
100
AcDbEllipse
 62
7
  6
CONTINUOUS
 10
1565.2778055559
 20
1204.3225207571
 30
0.0
 11
5.4882058378
 21
0.0
 31
0.0
 40
0.1015346165
 41
0.9294607698
 42
2.2121318838
  0
ELLIPSE
  5
56A
100
AcDbEntity
  8
6_ALL_SURFS
100
AcDbEllipse
 62
7
  6
CONTINUOUS
 10
1815.2778055559
 20
1204.3225207571
 30
0.0
 11
5.4882058378
 21
0.0
 31
0.0
 40
0.1015346165
 41
0.9294607698
 42
2.2121318838
  0
ELLIPSE
  5
56B
100
AcDbEntity
  8
6_ALL_SURFS
100
AcDbEllipse
 62
7
  6
CONTINUOUS
 10
2065.2778055559
 20
1204.3225207571
 30
0.0
 11
5.4882058378
 21
0.0
 31
0.0
 40
0.1015346165
 41
0.9294607698
 42
2.2121318838
  0
ELLIPSE
  5
56C
100
AcDbEntity
  8
6_ALL_SURFS
100
AcDbEllipse
 62
7
  6
CONTINUOUS
 10
2315.2778055559
 20
1204.3225207571
 30
0.0
 11
5.4882058378
 21
0.0
 31
0.0
 40
0.1015346165
 41
0.9294607698
 42
2.2121318838
  0
ELLIPSE
  5
56D
100
AcDbEntity
  8
6_ALL_SURFS
100
AcDbEllipse
 62
7
  6
CONTINUOUS
 10
2565.2778055559
 20
1204.3225207571
 30
0.0
 11
5.4882058378
 21
-0.0
 31
0.0
 40
0.1015346165
 41
0.9294607698
 42
2.2121318838
  0
ELLIPSE
  5
56E
100
AcDbEntity
  8
6_ALL_SURFS
100
AcDbEllipse
 62
7
  6
CONTINUOUS
 10
2815.2778055559
 20
1204.3225207571
 30
0.0
 11
5.4882058378
 21
0.0
 31
0.0
 40
0.1015346165
 41
0.9294607698
 42
2.2121318838
  0
ELLIPSE
  5
56F
100
AcDbEntity
  8
6_ALL_SURFS
100
AcDbEllipse
 62
7
  6
CONTINUOUS
 10
815.2778055559
 20
1693.672447838
 30
0.0
 11
-0.0
 21
5.5724287509
 31
0.0
 40
0.9848857802
 41
-0.641335557
 42
0.641335557
  0
ELLIPSE
  5
570
100
AcDbEntity
  8
6_ALL_SURFS
100
AcDbEllipse
 62
7
  6
CONTINUOUS
 10
2815.2778055559
 20
1693.672447838
 30
0.0
 11
0.0
 21
5.5724287509
 31
0.0
 40
0.9848857802
 41
-0.641335557
 42
0.641335557
  0
ELLIPSE
  5
571
100
AcDbEntity
  8
6_ALL_SURFS
100
AcDbEllipse
 62
7
  6
CONTINUOUS
 10
1065.2778055559
 20
1693.672447838
 30
0.0
 11
-0.0
 21
5.5724287509
 31
0.0
 40
0.9848857802
 41
-0.641335557
 42
0.641335557
  0
ELLIPSE
  5
572
100
AcDbEntity
  8
6_ALL_SURFS
100
AcDbEllipse
 62
7
  6
CONTINUOUS
 10
1315.2778055559
 20
1693.672447838
 30
0.0
 11
-0.0
 21
5.5724287509
 31
0.0
 40
0.9848857802
 41
-0.641335557
 42
0.641335557
  0
ELLIPSE
  5
573
100
AcDbEntity
  8
6_ALL_SURFS
100
AcDbEllipse
 62
7
  6
CONTINUOUS
 10
1565.2778055559
 20
1693.672447838
 30
0.0
 11
-0.0
 21
5.5724287509
 31
0.0
 40
0.9848857802
 41
-0.641335557
 42
0.641335557
  0
ELLIPSE
  5
574
100
AcDbEntity
  8
7_ALL_FEATURES
100
AcDbEllipse
 62
7
  6
CONTINUOUS
 10
815.2778055559
 20
1597.7027937816
 30
0.0
 11
0.0
 21
5.5724287509
 31
0.0
 40
0.9848857802
 41
2.5002570966
 42
3.7829282106
  0
ELLIPSE
  5
575
100
AcDbEntity
  8
7_ALL_FEATURES
100
AcDbEllipse
 62
7
  6
CONTINUOUS
 10
1065.2778055559
 20
1597.7027937816
 30
0.0
 11
0.0
 21
5.5724287509
 31
0.0
 40
0.9848857802
 41
2.5002570966
 42
3.7829282106
  0
ELLIPSE
  5
576
100
AcDbEntity
  8
7_ALL_FEATURES
100
AcDbEllipse
 62
7
  6
CONTINUOUS
 10
1315.2778055559
 20
1597.7027937816
 30
0.0
 11
0.0
 21
5.5724287509
 31
0.0
 40
0.9848857802
 41
2.5002570966
 42
3.7829282106
  0
ELLIPSE
  5
577
100
AcDbEntity
  8
7_ALL_FEATURES
100
AcDbEllipse
 62
7
  6
CONTINUOUS
 10
1565.2778055559
 20
1597.7027937816
 30
0.0
 11
0.0
 21
5.5724287509
 31
0.0
 40
0.9848857802
 41
2.5002570966
 42
3.7829282106
  0
ELLIPSE
  5
578
100
AcDbEntity
  8
7_ALL_FEATURES
100
AcDbEllipse
 62
7
  6
CONTINUOUS
 10
1815.2778055559
 20
1597.7027937816
 30
0.0
 11
0.0
 21
5.5724287509
 31
0.0
 40
0.9848857802
 41
2.5002570966
 42
3.7829282106
  0
ELLIPSE
  5
579
100
AcDbEntity
  8
7_ALL_FEATURES
100
AcDbEllipse
 62
7
  6
CONTINUOUS
 10
2065.2778055559
 20
1597.7027937816
 30
0.0
 11
0.0
 21
5.5724287509
 31
0.0
 40
0.9848857802
 41
2.5002570966
 42
3.7829282106
  0
ELLIPSE
  5
57A
100
AcDbEntity
  8
7_ALL_FEATURES
100
AcDbEllipse
 62
7
  6
CONTINUOUS
 10
2315.2778055559
 20
1597.7027937816
 30
0.0
 11
-0.0
 21
5.5724287509
 31
0.0
 40
0.9848857802
 41
2.5002570966
 42
3.7829282106
  0
ELLIPSE
  5
57B
100
AcDbEntity
  8
7_ALL_FEATURES
100
AcDbEllipse
 62
7
  6
CONTINUOUS
 10
2565.2778055559
 20
1597.7027937816
 30
0.0
 11
0.0
 21
5.5724287509
 31
0.0
 40
0.9848857802
 41
2.5002570966
 42
3.7829282106
  0
ELLIPSE
  5
57C
100
AcDbEntity
  8
7_ALL_FEATURES
100
AcDbEllipse
 62
7
  6
CONTINUOUS
 10
2815.2778055559
 20
1597.7027937816
 30
0.0
 11
-0.0
 21
5.5724287509
 31
0.0
 40
0.9848857802
 41
2.5002570966
 42
3.7829282106
  0
ELLIPSE
  5
57D
100
AcDbEntity
  8
6_ALL_SURFS
100
AcDbEllipse
 62
7
  6
CONTINUOUS
 10
1815.2778055559
 20
1693.672447838
 30
0.0
 11
-0.0
 21
5.5724287509
 31
0.0
 40
0.9848857802
 41
-0.641335557
 42
0.641335557
  0
ELLIPSE
  5
57E
100
AcDbEntity
  8
6_ALL_SURFS
100
AcDbEllipse
 62
7
  6
CONTINUOUS
 10
2065.2778055559
 20
1693.672447838
 30
0.0
 11
-0.0
 21
5.5724287509
 31
0.0
 40
0.9848857802
 41
-0.641335557
 42
0.641335557
  0
ELLIPSE
  5
57F
100
AcDbEntity
  8
6_ALL_SURFS
100
AcDbEllipse
 62
7
  6
CONTINUOUS
 10
2315.2778055559
 20
1693.672447838
 30
0.0
 11
0.0
 21
5.5724287509
 31
0.0
 40
0.9848857802
 41
-0.641335557
 42
0.641335557
  0
ELLIPSE
  5
580
100
AcDbEntity
  8
6_ALL_SURFS
100
AcDbEllipse
 62
7
  6
CONTINUOUS
 10
2565.2778055559
 20
1693.672447838
 30
0.0
 11
-0.0
 21
5.5724287509
 31
0.0
 40
0.9848857802
 41
5.6418497502
 42
6.9245208642
  0
ENDSEC
  0
SECTION
  2
OBJECTS
  0
DICTIONARY
  5
581
100
AcDbDictionary
  3
ACAD_GROUP
350
582
  3
ACAD_MLINESTYLE
350
583
  0
DICTIONARY
  5
582
102
{ACAD_REACTORS
330
581
102
}
100
AcDbDictionary
  0
DICTIONARY
  5
583
102
{ACAD_REACTORS
330
581
102
}
100
AcDbDictionary
  3
STANDARD
350
584
  0
MLINESTYLE
  5
584
102
{ACAD_REACTORS
330
583
102
}
100
AcDbMlineStyle
  2
STANDARD
 70
0
  3

 62
256
 51
90.0
 52
90.0
 71
2
 49
0.5
 62
256
  6
BYLAYER
 49
-0.5
 62
256
  6
BYLAYER
  0
ENDSEC
  0
EOF
