999
DXF file: 6f4_c_246.dxf
999
Pro/ENGINEER 2016360 by Parametric Technology Corporation
  0
SECTION
  2
HEADER
  9
$ACADVER
  1
AC1014
  9
$DWGCODEPAGE
  3
ANSI_1252
  9
$EXTMAX
 10
3200.0
 20
2500.0
 30
0.0
  9
$EXTMIN
 10
0.0
 20
0.0
 30
0.0
  9
$LIMMIN
 10
0.0
 20
0.0
  9
$LIMMAX
 10
3200.0
 20
2500.0
  9
$VIEWCTR
 10
1600.0
 20
1250.0
  9
$VIEWSIZE
 40
2500.0
  9
$CLAYER
  8
0
  9
$LTSCALE
 40
176.0
  9
$CELTYPE
  6
BYLAYER
  9
$DIMSCALE
 40
1.0
  9
$DIMASZ
 40
2.5
  9
$DIMEXO
 40
0.75
  9
$DIMDLI
 40
121.6
  9
$DIMEXE
 40
0.75
  9
$DIMCEN
 40
28.8
  9
$DIMLFAC
 40
1.0
  9
$DIMBLK
  1
_CLOSED
  9
$DIMALT
 70
0
  9
$DIMALTF
 40
25.4
  9
$DIMTXT
 40
3.0
  9
$DIMTOL
 70
1
  9
$DIMLIM
 70
0
  9
$DIMTFAC
 40
1.0
  9
$DIMTP
 40
0.01
  9
$DIMTM
 40
0.01
  9
$DIMGAP
 40
0.625
  9
$AUNITS
 70
0
  9
$PDMODE
 70
3
  9
$PDSIZE
 40
0.3125
  9
$HANDSEED
  5
595
  9
$TILEMODE
 70
1
  9
$MEASUREMENT
 70
1
  0
ENDSEC
  0
SECTION
  2
CLASSES
  0
ENDSEC
  0
SECTION
  2
TABLES
  0
TABLE
  2
VPORT
  5
8
100
AcDbSymbolTable
 70
2
  0
VPORT
  5
1F4
100
AcDbSymbolTableRecord
100
AcDbViewportTableRecord
  2
*ACTIVE
 70
0
 10
0.0
 20
0.0
 11
1.0
 21
1.0
 12
1600.0
 22
1250.0
 13
0.0
 23
0.0
 14
1.0
 24
1.0
 15
0.0
 25
0.0
 16
0.0
 26
0.0
 36
1.0
 17
0.0
 27
0.0
 37
0.0
 40
2500.0
 41
1.28
 42
50.0
 43
0.0
 44
0.0
 50
0.0
 51
0.0
 71
0
 72
100
 73
1
 74
1
 75
0
 76
0
 77
0
 78
0
  0
ENDTAB
  0
TABLE
  2
LTYPE
  5
5
100
AcDbSymbolTable
 70
6
  0
LTYPE
  5
14
100
AcDbSymbolTableRecord
100
AcDbLinetypeTableRecord
  2
BYBLOCK
 70
0
  3

 72
65
 73
0
 40
0.0
  0
LTYPE
  5
15
100
AcDbSymbolTableRecord
100
AcDbLinetypeTableRecord
  2
BYLAYER
 70
0
  3

 72
65
 73
0
 40
0.0
  0
LTYPE
  5
16
100
AcDbSymbolTableRecord
100
AcDbLinetypeTableRecord
  2
CONTINUOUS
 70
64
  3
Solid line
 72
65
 73
0
 40
0.0
  0
LTYPE
  5
1F5
100
AcDbSymbolTableRecord
100
AcDbLinetypeTableRecord
  2
CENTER
 70
64
  3
____ _ ____ _ ____ _ ____ _ ____ _ ____ _ ____
 72
65
 73
4
 40
0.6
 49
0.375
 74
0
 49
-0.075
 74
0
 49
0.075
 74
0
 49
-0.075
 74
0
  0
LTYPE
  5
1F6
100
AcDbSymbolTableRecord
100
AcDbLinetypeTableRecord
  2
HIDDEN
 70
64
  3
- - - - - - - - - - - - - - - - - - - -
 72
65
 73
2
 40
0.2
 49
0.1
 74
0
 49
-0.1
 74
0
  0
LTYPE
  5
1F7
100
AcDbSymbolTableRecord
100
AcDbLinetypeTableRecord
  2
PHANTOM
 70
64
  3
_____ _ _ _____ _ _ _____ _ _ _____
 72
65
 73
6
 40
0.8
 49
0.45
 74
0
 49
-0.05
 74
0
 49
0.1
 74
0
 49
-0.05
 74
0
 49
0.1
 74
0
 49
-0.05
 74
0
  0
LTYPE
  5
1F8
100
AcDbSymbolTableRecord
100
AcDbLinetypeTableRecord
  2
DOT
 70
64
  3
. . . . . . . . . . . . . . . . . . . .
 72
65
 73
2
 40
0.2
 49
0.1
 74
0
 49
-0.1
 74
0
  0
LTYPE
  5
1F9
100
AcDbSymbolTableRecord
100
AcDbLinetypeTableRecord
  2
DASHED
 70
64
  3
- - - - - - - - - - - - - - - - - - - -
 72
65
 73
2
 40
0.2
 49
0.1
 74
0
 49
-0.1
 74
0
  0
ENDTAB
  0
TABLE
  2
LAYER
  5
2
100
AcDbSymbolTable
 70
36
  0
LAYER
  5
10
100
AcDbSymbolTableRecord
100
AcDbLayerTableRecord
  2
0
 70
0
 62
7
  6
CONTINUOUS
  0
LAYER
  5
1FA
100
AcDbSymbolTableRecord
100
AcDbLayerTableRecord
  2
DEFAULT_1
 70
0
 62
7
  6
CENTER
  0
LAYER
  5
1FB
100
AcDbSymbolTableRecord
100
AcDbLayerTableRecord
  2
DEFAULT_2
 70
0
 62
8
  6
HIDDEN
  0
LAYER
  5
1FC
100
AcDbSymbolTableRecord
100
AcDbLayerTableRecord
  2
DEFAULT_3
 70
0
 62
7
  6
PHANTOM
  0
LAYER
  5
1FD
100
AcDbSymbolTableRecord
100
AcDbLayerTableRecord
  2
1_ALL_PLANES
 70
0
 62
7
  6
CONTINUOUS
  0
LAYER
  5
1FE
100
AcDbSymbolTableRecord
100
AcDbLayerTableRecord
  2
2_ALL_CSYS
 70
0
 62
7
  6
CONTINUOUS
  0
LAYER
  5
1FF
100
AcDbSymbolTableRecord
100
AcDbLayerTableRecord
  2
3_ALL_AXES
 70
0
 62
7
  6
CONTINUOUS
  0
LAYER
  5
200
100
AcDbSymbolTableRecord
100
AcDbLayerTableRecord
  2
4_ALL_POINTS
 70
0
 62
7
  6
CONTINUOUS
  0
LAYER
  5
201
100
AcDbSymbolTableRecord
100
AcDbLayerTableRecord
  2
5_ALL_CURVES
 70
0
 62
7
  6
CONTINUOUS
  0
LAYER
  5
202
100
AcDbSymbolTableRecord
100
AcDbLayerTableRecord
  2
5__COSTRUZIONE
 70
0
 62
7
  6
CONTINUOUS
  0
LAYER
  5
203
100
AcDbSymbolTableRecord
100
AcDbLayerTableRecord
  2
6_ALL_SURFS
 70
0
 62
7
  6
CONTINUOUS
  0
LAYER
  5
204
100
AcDbSymbolTableRecord
100
AcDbLayerTableRecord
  2
7_ALL_FEATURES
 70
0
 62
7
  6
CONTINUOUS
  0
LAYER
  5
205
100
AcDbSymbolTableRecord
100
AcDbLayerTableRecord
  2
9_SOLID
 70
0
 62
7
  6
CONTINUOUS
  0
LAYER
  5
206
100
AcDbSymbolTableRecord
100
AcDbLayerTableRecord
  2
PR9037
 70
0
 62
7
  6
CONTINUOUS
  0
LAYER
  5
207
100
AcDbSymbolTableRecord
100
AcDbLayerTableRecord
  2
WHITE
 70
0
 62
7
  6
CONTINUOUS
  0
LAYER
  5
208
100
AcDbSymbolTableRecord
100
AcDbLayerTableRecord
  2
XXX_SOLIDO
 70
0
 62
7
  6
CONTINUOUS
  0
ENDTAB
  0
TABLE
  2
STYLE
  5
3
100
AcDbSymbolTable
 70
1
  0
STYLE
  5
11
100
AcDbSymbolTableRecord
100
AcDbTextStyleTableRecord
  2
STANDARD
 70
0
 40
0.0
 41
1.0
 50
0.0
 71
0
 42
0.2
  3
arial.ttf
  4

  0
STYLE
  5
209
100
AcDbSymbolTableRecord
100
AcDbTextStyleTableRecord
  2
TEXTSTYLE_1
 70
0
 40
0.0
 41
0.8
 50
0.0
 71
0
 42
0.2
  3
gdt
  4

  0
STYLE
  5
20A
100
AcDbSymbolTableRecord
100
AcDbTextStyleTableRecord
  2
TEXTSTYLE_2
 70
0
 40
0.0
 41
0.85
 50
0.0
 71
0
 42
0.2
  3
txt
  4

  0
ENDTAB
  0
TABLE
  2
VIEW
  5
6
100
AcDbSymbolTable
 70
0
  0
ENDTAB
  0
TABLE
  2
UCS
  5
7
100
AcDbSymbolTable
 70
0
  0
ENDTAB
  0
TABLE
  2
APPID
  5
9
100
AcDbSymbolTable
 70
1
  0
APPID
  5
20B
100
AcDbSymbolTableRecord
100
AcDbRegAppTableRecord
  2
ACAD
 70
0
  0
ENDTAB
  0
TABLE
  2
BLOCK_RECORD
  5
1
100
AcDbSymbolTable
 70
0
  0
BLOCK_RECORD
  5
1F
100
AcDbSymbolTableRecord
100
AcDbBlockTableRecord
  2
*MODEL_SPACE
  0
BLOCK_RECORD
  5
1B
100
AcDbSymbolTableRecord
100
AcDbBlockTableRecord
  2
*PAPER_SPACE
  0
BLOCK_RECORD
  5
20C
100
AcDbSymbolTableRecord
100
AcDbBlockTableRecord
  2
_CLOSED
  0
BLOCK_RECORD
  5
20D
100
AcDbSymbolTableRecord
100
AcDbBlockTableRecord
  2
*D0
  0
BLOCK_RECORD
  5
20E
100
AcDbSymbolTableRecord
100
AcDbBlockTableRecord
  2
*D1
  0
BLOCK_RECORD
  5
20F
100
AcDbSymbolTableRecord
100
AcDbBlockTableRecord
  2
*D2
  0
BLOCK_RECORD
  5
210
100
AcDbSymbolTableRecord
100
AcDbBlockTableRecord
  2
*D3
  0
BLOCK_RECORD
  5
211
100
AcDbSymbolTableRecord
100
AcDbBlockTableRecord
  2
LOGO2_BL0
  0
ENDTAB
  0
TABLE
  2
DIMSTYLE
  5
A
100
AcDbSymbolTable
 70
1
  0
DIMSTYLE
105
212
100
AcDbSymbolTableRecord
100
AcDbDimStyleTableRecord
  2
STANDARD
 70
0
  3

  4

  5
_CLOSED
  6
_CLOSED
  7
_CLOSED
 40
1.0
 41
2.5
 42
0.75
 43
0.38
 44
0.75
 45
0.0
 46
0.0
 47
0.01
 48
0.01
140
3.0
141
0.09
142
0.0
143
25.4
144
1.0
145
0.0
146
1.0
147
0.625
 71
1.0
 72
0.0
 73
0
 74
0
 75
0
 76
0
 77
1
 78
8
 79
2
170
0
171
1
172
0
173
0
174
0
175
0
176
0
177
0
178
0
270
2
179
2
271
2
272
2
273
2
274
2
275
0
280
0
281
0
282
0
283
1
284
8
285
0
286
0
287
3
288
0
340
11
  0
DIMSTYLE
105
213
100
AcDbSymbolTableRecord
100
AcDbDimStyleTableRecord
  2
DIMSTYLE_1
 70
0
  3

  4

  5
_CLOSED
  6
_CLOSED
  7
_CLOSED
 40
1.0
 41
2.5
 42
0.75
 43
0.38
 44
0.75
 45
0.0
 46
0.0
 47
0.3
 48
0.3
140
10.0
141
0.09
142
0.0
143
25.4
144
1.0
145
0.0
146
1.0
147
2.5
 71
0.0
 72
0.0
 73
0
 74
0
 75
0
 76
0
 77
1
 78
8
 79
2
170
0
171
1
172
0
173
0
174
0
175
0
176
0
177
0
178
0
270
2
179
2
271
2
272
2
273
2
274
2
275
0
280
0
281
0
282
0
283
1
284
8
285
0
286
0
287
3
288
0
340
11
  0
DIMSTYLE
105
214
100
AcDbSymbolTableRecord
100
AcDbDimStyleTableRecord
  2
DIMSTYLE_2
 70
0
  3

  4

  5
_CLOSED
  6
_CLOSED
  7
_CLOSED
 40
1.0
 41
2.5
 42
0.75
 43
0.38
 44
0.75
 45
0.0
 46
0.0
 47
2.0
 48
2.0
140
10.0
141
0.09
142
0.0
143
25.4
144
1.0
145
0.0
146
1.0
147
2.5
 71
0.0
 72
0.0
 73
0
 74
0
 75
0
 76
0
 77
1
 78
8
 79
2
170
0
171
1
172
0
173
0
174
0
175
0
176
0
177
0
178
0
270
2
179
2
271
2
272
2
273
2
274
2
275
0
280
0
281
0
282
0
283
1
284
8
285
0
286
0
287
3
288
0
340
11
  0
ENDTAB
  0
ENDSEC
  0
SECTION
  2
BLOCKS
  0
BLOCK
  5
20
100
AcDbEntity
  8
0
100
AcDbBlockBegin
  2
*MODEL_SPACE
 70
0
 10
0.0
 20
0.0
 30
0.0
  3
*MODEL_SPACE
  1

  0
ENDBLK
  5
21
100
AcDbEntity
  8
0
100
AcDbBlockEnd
  0
BLOCK
  5
1C
100
AcDbEntity
  8
0
100
AcDbBlockBegin
  2
*PAPER_SPACE
 70
0
 10
0.0
 20
0.0
 30
0.0
  3
*PAPER_SPACE
  1

  0
ENDBLK
  5
1D
100
AcDbEntity
  8
0
100
AcDbBlockEnd
  0
BLOCK
  5
215
100
AcDbEntity
  8
0
100
AcDbBlockBegin
 62
2
  6
CONTINUOUS
  2
LOGO2_BL0
 70
64
 10
3113.3767684765
 20
37.2776170738
  3
LOGO2_BL0
  1

  0
LINE
  5
216
100
AcDbEntity
  8
0
100
AcDbLine
 62
7
  6
CONTINUOUS
 10
3105.1196937047
 20
40.4731084126
 11
3103.8153527753
 21
40.4731084126
  0
LINE
  5
217
100
AcDbEntity
  8
0
100
AcDbLine
 62
7
  6
CONTINUOUS
 10
3103.8153527753
 20
40.4731084126
 11
3103.8153527753
 21
30.0140423528
  0
LINE
  5
218
100
AcDbEntity
  8
0
100
AcDbLine
 62
7
  6
CONTINUOUS
 10
3103.8153527753
 20
30.0140423528
 11
3108.2964076636
 21
30.0140423528
  0
LINE
  5
219
100
AcDbEntity
  8
0
100
AcDbLine
 62
7
  6
CONTINUOUS
 10
3108.2964076636
 20
30.0140423528
 11
3108.2964076636
 21
31.2068966778
  0
LINE
  5
21A
100
AcDbEntity
  8
0
100
AcDbLine
 62
7
  6
CONTINUOUS
 10
3108.2964076636
 20
31.2068966778
 11
3105.1196937047
 21
31.2068966778
  0
LINE
  5
21B
100
AcDbEntity
  8
0
100
AcDbLine
 62
7
  6
CONTINUOUS
 10
3105.1196937047
 20
31.2068966778
 11
3105.1196937047
 21
40.4731084126
  0
LINE
  5
21C
100
AcDbEntity
  8
0
100
AcDbLine
 62
7
  6
CONTINUOUS
 10
3120.056019921
 20
40.4731084126
 11
3118.7522024029
 21
40.4731084126
  0
LINE
  5
21D
100
AcDbEntity
  8
0
100
AcDbLine
 62
7
  6
CONTINUOUS
 10
3118.7522024029
 20
40.4731084126
 11
3118.7522024029
 21
30.0140423528
  0
LINE
  5
21E
100
AcDbEntity
  8
0
100
AcDbLine
 62
7
  6
CONTINUOUS
 10
3118.7522024029
 20
30.0140423528
 11
3123.233388144
 21
30.0140423528
  0
LINE
  5
21F
100
AcDbEntity
  8
0
100
AcDbLine
 62
7
  6
CONTINUOUS
 10
3123.233388144
 20
30.0140423528
 11
3123.233388144
 21
31.2068966778
  0
LINE
  5
220
100
AcDbEntity
  8
0
100
AcDbLine
 62
7
  6
CONTINUOUS
 10
3123.233388144
 20
31.2068966778
 11
3120.056019921
 21
31.2068966778
  0
LINE
  5
221
100
AcDbEntity
  8
0
100
AcDbLine
 62
7
  6
CONTINUOUS
 10
3120.056019921
 20
31.2068966778
 11
3120.056019921
 21
40.4731084126
  0
LWPOLYLINE
  5
222
100
AcDbEntity
  8
0
100
AcDbPolyline
 62
7
  6
CONTINUOUS
 90
2
 70
0
 43
0.2
 10
3102.1697476862
 20
26.6704910458
 10
3102.1697476862
 20
24.8134277965
  0
LWPOLYLINE
  5
223
100
AcDbEntity
  8
0
100
AcDbPolyline
 62
7
  6
CONTINUOUS
 90
2
 70
0
 43
0.2
 10
3102.1697476862
 20
24.8134277965
 10
3102.9654636966
 20
24.8134277965
  0
LWPOLYLINE
  5
224
100
AcDbEntity
  8
0
100
AcDbPolyline
 62
7
  6
CONTINUOUS
 90
2
 70
0
 43
0.2
 10
3102.9654636966
 20
24.8134277965
 10
3102.9654636966
 20
25.0254093681
  0
LWPOLYLINE
  5
225
100
AcDbEntity
  8
0
100
AcDbPolyline
 62
7
  6
CONTINUOUS
 90
2
 70
0
 43
0.2
 10
3102.9654636966
 20
25.0254093681
 10
3102.4013571811
 20
25.0254093681
  0
LWPOLYLINE
  5
226
100
AcDbEntity
  8
0
100
AcDbPolyline
 62
7
  6
CONTINUOUS
 90
2
 70
0
 43
0.2
 10
3102.4013571811
 20
25.0254093681
 10
3102.4013571811
 20
26.6704910458
  0
LWPOLYLINE
  5
227
100
AcDbEntity
  8
0
100
AcDbPolyline
 62
7
  6
CONTINUOUS
 90
2
 70
0
 43
0.2
 10
3102.4013571811
 20
26.6704910458
 10
3102.1697476862
 20
26.6704910458
  0
SPLINE
  5
228
100
AcDbEntity
  8
0
100
AcDbSpline
 62
7
  6
CONTINUOUS
 70
2
 71
3
 72
35
 73
31
 74
0
 42
0.0000001
 43
0.0000001
 44
0.0000000001
 40
0.0
 40
0.0
 40
0.0
 40
0.0
 40
1.0
 40
1.0
 40
1.0
 40
2.0
 40
2.0
 40
2.0
 40
3.0
 40
3.0
 40
3.0
 40
4.0
 40
4.0
 40
4.0
 40
5.0
 40
5.0
 40
5.0
 40
6.0
 40
6.0
 40
6.0
 40
7.0
 40
7.0
 40
7.0
 40
8.0
 40
8.0
 40
8.0
 40
9.0
 40
9.0
 40
9.0
 40
10.0
 40
10.0
 40
10.0
 40
10.0
 10
3104.3637569522
 20
25.9659794524
 30
0.0
 10
3104.3637569522
 20
25.9659794524
 30
0.0
 10
3104.3637569522
 20
25.3038641732
 30
0.0
 10
3104.3637569522
 20
25.3038641732
 30
0.0
 10
3104.3637569522
 20
24.9887705779
 30
0.0
 10
3104.511620641
 20
24.7741719499
 30
0.0
 10
3104.8517071253
 20
24.7741719499
 30
0.0
 10
3105.1912701983
 20
24.7741719499
 30
0.0
 10
3105.3393955928
 20
24.9887705779
 30
0.0
 10
3105.3393955928
 20
25.3038641732
 30
0.0
 10
3105.3393955928
 20
25.3038641732
 30
0.0
 10
3105.3393955928
 20
25.9659794524
 30
0.0
 10
3105.3393955928
 20
25.9659794524
 30
0.0
 10
3105.3393955928
 20
25.9659794524
 30
0.0
 10
3105.1173383539
 20
25.9659794524
 30
0.0
 10
3105.1173383539
 20
25.9659794524
 30
0.0
 10
3105.1173383539
 20
25.9659794524
 30
0.0
 10
3105.1173383539
 20
25.328987915
 30
0.0
 10
3105.1173383539
 20
25.328987915
 30
0.0
 10
3105.1173383539
 20
25.1431769078
 30
0.0
 10
3105.0706238964
 20
24.9803959973
 30
0.0
 10
3104.8517071253
 20
24.9803959973
 30
0.0
 10
3104.6322669428
 20
24.9803959973
 30
0.0
 10
3104.5855524854
 20
25.1431769078
 30
0.0
 10
3104.5855524854
 20
25.328987915
 30
0.0
 10
3104.5855524854
 20
25.328987915
 30
0.0
 10
3104.5855524854
 20
25.9659794524
 30
0.0
 10
3104.5855524854
 20
25.9659794524
 30
0.0
 10
3104.5855524854
 20
25.9659794524
 30
0.0
 10
3104.3637569522
 20
25.9659794524
 30
0.0
 10
3104.3637569522
 20
25.9659794524
 30
0.0
  0
SPLINE
  5
229
100
AcDbEntity
  8
0
100
AcDbSpline
 62
7
  6
CONTINUOUS
 70
2
 71
3
 72
35
 73
31
 74
0
 42
0.0000001
 43
0.0000001
 44
0.0000000001
 40
0.0
 40
0.0
 40
0.0
 40
0.0
 40
1.0
 40
1.0
 40
1.0
 40
2.0
 40
2.0
 40
2.0
 40
3.0
 40
3.0
 40
3.0
 40
4.0
 40
4.0
 40
4.0
 40
5.0
 40
5.0
 40
5.0
 40
6.0
 40
6.0
 40
6.0
 40
7.0
 40
7.0
 40
7.0
 40
8.0
 40
8.0
 40
8.0
 40
9.0
 40
9.0
 40
9.0
 40
10.0
 40
10.0
 40
10.0
 40
10.0
 10
3107.76252815
 20
25.9246299606
 30
0.0
 10
3107.6740716423
 20
25.9759242668
 30
0.0
 10
3107.5606222457
 20
26.0010480087
 30
0.0
 10
3107.4569868107
 20
26.0010480087
 30
0.0
 10
3107.1021139575
 20
26.0010480087
 30
0.0
 10
3106.8266687672
 20
25.7372487196
 30
0.0
 10
3106.8266687672
 20
25.37975881
 30
0.0
 10
3106.8266687672
 20
25.0348307713
 30
0.0
 10
3107.1051235724
 20
24.7746953612
 30
0.0
 10
3107.4446866454
 20
24.7746953612
 30
0.0
 10
3107.5606222457
 20
24.7746953612
 30
0.0
 10
3107.6613789186
 20
24.7966786353
 30
0.0
 10
3107.76252815
 20
24.8505899979
 30
0.0
 10
3107.76252815
 20
24.8505899979
 30
0.0
 10
3107.76252815
 20
25.1332320934
 30
0.0
 10
3107.76252815
 20
25.1332320934
 30
0.0
 10
3107.6786514911
 20
25.0400648841
 30
0.0
 10
3107.5751469089
 20
24.9809194086
 30
0.0
 10
3107.4470419962
 20
24.9809194086
 30
0.0
 10
3107.2133388562
 20
24.9809194086
 30
0.0
 10
3107.048071742
 20
25.1531217223
 30
0.0
 10
3107.048071742
 20
25.3897036244
 30
0.0
 10
3107.048071742
 20
25.601685196
 30
0.0
 10
3107.2158250598
 20
25.7937771387
 30
0.0
 10
3107.4326481858
 20
25.7937771387
 30
0.0
 10
3107.5654638001
 20
25.7937771387
 30
0.0
 10
3107.6740716423
 20
25.739865776
 30
0.0
 10
3107.76252815
 20
25.6388473975
 30
0.0
 10
3107.76252815
 20
25.6388473975
 30
0.0
 10
3107.76252815
 20
25.9246299606
 30
0.0
 10
3107.76252815
 20
25.9246299606
 30
0.0
  0
SPLINE
  5
22A
100
AcDbEntity
  8
0
100
AcDbSpline
 62
7
  6
CONTINUOUS
 70
2
 71
3
 72
32
 73
28
 74
0
 42
0.0000001
 43
0.0000001
 44
0.0000000001
 40
0.0
 40
0.0
 40
0.0
 40
0.0
 40
1.0
 40
1.0
 40
1.0
 40
2.0
 40
2.0
 40
2.0
 40
3.0
 40
3.0
 40
3.0
 40
4.0
 40
4.0
 40
4.0
 40
5.0
 40
5.0
 40
5.0
 40
6.0
 40
6.0
 40
6.0
 40
7.0
 40
7.0
 40
7.0
 40
8.0
 40
8.0
 40
8.0
 40
9.0
 40
9.0
 40
9.0
 40
9.0
 10
3110.2943994022
 20
25.3530648343
 30
0.0
 10
3110.2943994022
 20
25.3530648343
 30
0.0
 10
3110.2943994022
 20
25.387086568
 30
0.0
 10
3110.2943994022
 20
25.387086568
 30
0.0
 10
3110.2943994022
 20
25.7293975503
 30
0.0
 10
3110.1215428244
 20
26.0010480087
 30
0.0
 10
3109.7548932172
 20
26.0010480087
 30
0.0
 10
3109.3832712028
 20
26.0010480087
 30
0.0
 10
3109.193534611
 20
25.7346316631
 30
0.0
 10
3109.193534611
 20
25.37975881
 30
0.0
 10
3109.193534611
 20
25.0400648841
 30
0.0
 10
3109.4076098277
 20
24.7741719499
 30
0.0
 10
3109.7597347716
 20
24.7741719499
 30
0.0
 10
3109.9837548029
 20
24.7741719499
 30
0.0
 10
3110.1859224128
 20
24.8898458445
 30
0.0
 10
3110.2943994022
 20
25.0892655452
 30
0.0
 10
3110.2943994022
 20
25.0892655452
 30
0.0
 10
3110.1067564555
 20
25.1960414479
 30
0.0
 10
3110.1067564555
 20
25.1960414479
 30
0.0
 10
3110.0232723551
 20
25.0573374566
 30
0.0
 10
3109.9320679382
 20
24.9714980054
 30
0.0
 10
3109.7624826809
 20
24.9714980054
 30
0.0
 10
3109.5505011093
 20
24.9714980054
 30
0.0
 10
3109.4175546422
 20
25.15626219
 30
0.0
 10
3109.4151992914
 20
25.3530648343
 30
0.0
 10
3109.4151992914
 20
25.3530648343
 30
0.0
 10
3110.2943994022
 20
25.3530648343
 30
0.0
 10
3110.2943994022
 20
25.3530648343
 30
0.0
  0
SPLINE
  5
22B
100
AcDbEntity
  8
0
100
AcDbSpline
 62
7
  6
CONTINUOUS
 70
2
 71
3
 72
14
 73
10
 74
0
 42
0.0000001
 43
0.0000001
 44
0.0000000001
 40
0.0
 40
0.0
 40
0.0
 40
0.0
 40
1.0
 40
1.0
 40
1.0
 40
2.0
 40
2.0
 40
2.0
 40
3.0
 40
3.0
 40
3.0
 40
3.0
 10
3109.427237751
 20
25.5205564464
 30
0.0
 10
3109.4548476965
 20
25.6854310021
 30
0.0
 10
3109.5826909035
 20
25.8084326547
 30
0.0
 10
3109.7548932172
 20
25.8084326547
 30
0.0
 10
3109.9320679382
 20
25.8084326547
 30
0.0
 10
3110.0455173348
 20
25.6927587601
 30
0.0
 10
3110.0727347218
 20
25.5205564464
 30
0.0
 10
3110.0727347218
 20
25.5205564464
 30
0.0
 10
3109.427237751
 20
25.5205564464
 30
0.0
 10
3109.427237751
 20
25.5205564464
 30
0.0
  0
SPLINE
  5
22C
100
AcDbEntity
  8
0
100
AcDbSpline
 62
7
  6
CONTINUOUS
 70
2
 71
3
 72
20
 73
16
 74
0
 42
0.0000001
 43
0.0000001
 44
0.0000000001
 40
0.0
 40
0.0
 40
0.0
 40
0.0
 40
1.0
 40
1.0
 40
1.0
 40
2.0
 40
2.0
 40
2.0
 40
3.0
 40
3.0
 40
3.0
 40
4.0
 40
4.0
 40
4.0
 40
5.0
 40
5.0
 40
5.0
 40
5.0
 10
3112.3184308524
 20
25.7299209615
 30
0.0
 10
3112.3184308524
 20
25.7299209615
 30
0.0
 10
3112.729570419
 20
25.2274461252
 30
0.0
 10
3112.729570419
 20
25.2274461252
 30
0.0
 10
3112.6135039659
 20
25.1117722306
 30
0.0
 10
3112.4757159444
 20
24.9814428199
 30
0.0
 10
3112.3037753363
 20
24.9814428199
 30
0.0
 10
3112.1263389098
 20
24.9814428199
 30
0.0
 10
3111.9588472976
 20
25.1457939643
 30
0.0
 10
3111.9588472976
 20
25.3227069796
 30
0.0
 10
3111.9588472976
 20
25.5006668175
 30
0.0
 10
3112.1686043712
 20
25.6268089378
 30
0.0
 10
3112.2961858727
 20
25.7147420342
 30
0.0
 10
3112.2961858727
 20
25.7147420342
 30
0.0
 10
3112.3184308524
 20
25.7299209615
 30
0.0
 10
3112.3184308524
 20
25.7299209615
 30
0.0
  0
SPLINE
  5
22D
100
AcDbEntity
  8
0
100
AcDbSpline
 62
7
  6
CONTINUOUS
 70
2
 71
3
 72
23
 73
19
 74
0
 42
0.0000001
 43
0.0000001
 44
0.0000000001
 40
0.0
 40
0.0
 40
0.0
 40
0.0
 40
1.0
 40
1.0
 40
1.0
 40
2.0
 40
2.0
 40
2.0
 40
3.0
 40
3.0
 40
3.0
 40
4.0
 40
4.0
 40
4.0
 40
5.0
 40
5.0
 40
5.0
 40
6.0
 40
6.0
 40
6.0
 40
6.0
 10
3112.3677623663
 20
26.0209376376
 30
0.0
 10
3112.3677623663
 20
26.0209376376
 30
0.0
 10
3112.3061306871
 20
26.0994493308
 30
0.0
 10
3112.3061306871
 20
26.0994493308
 30
0.0
 10
3112.2522193245
 20
26.1680162095
 30
0.0
 10
3112.1954291998
 20
26.2371064995
 30
0.0
 10
3112.1954291998
 20
26.33079712
 30
0.0
 10
3112.1954291998
 20
26.4496114824
 30
0.0
 10
3112.2913443183
 20
26.527076353
 30
0.0
 10
3112.4023075113
 20
26.527076353
 30
0.0
 10
3112.5255708696
 20
26.527076353
 30
0.0
 10
3112.6188689316
 20
26.4558924178
 30
0.0
 10
3112.6188689316
 20
26.3255630071
 30
0.0
 10
3112.6188689316
 20
26.1905228949
 30
0.0
 10
3112.4907640189
 20
26.1141048468
 30
0.0
 10
3112.3972042512
 20
26.0403038553
 30
0.0
 10
3112.3972042512
 20
26.0403038553
 30
0.0
 10
3112.3677623663
 20
26.0209376376
 30
0.0
 10
3112.3677623663
 20
26.0209376376
 30
0.0
  0
SPLINE
  5
22E
100
AcDbEntity
  8
0
100
AcDbSpline
 62
7
  6
CONTINUOUS
 70
2
 71
3
 72
50
 73
46
 74
0
 42
0.0000001
 43
0.0000001
 44
0.0000000001
 40
0.0
 40
0.0
 40
0.0
 40
0.0
 40
1.0
 40
1.0
 40
1.0
 40
2.0
 40
2.0
 40
2.0
 40
3.0
 40
3.0
 40
3.0
 40
4.0
 40
4.0
 40
4.0
 40
5.0
 40
5.0
 40
5.0
 40
6.0
 40
6.0
 40
6.0
 40
7.0
 40
7.0
 40
7.0
 40
8.0
 40
8.0
 40
8.0
 40
9.0
 40
9.0
 40
9.0
 40
10.0
 40
10.0
 40
10.0
 40
11.0
 40
11.0
 40
11.0
 40
12.0
 40
12.0
 40
12.0
 40
13.0
 40
13.0
 40
13.0
 40
14.0
 40
14.0
 40
14.0
 40
15.0
 40
15.0
 40
15.0
 40
15.0
 10
3113.069918609
 20
24.8139512078
 30
0.0
 10
3113.069918609
 20
24.8139512078
 30
0.0
 10
3113.3553086137
 20
24.8139512078
 30
0.0
 10
3113.3553086137
 20
24.8139512078
 30
0.0
 10
3113.3553086137
 20
24.8139512078
 30
0.0
 10
3113.0229424459
 20
25.2248290688
 30
0.0
 10
3113.0229424459
 20
25.2248290688
 30
0.0
 10
3113.0229424459
 20
25.2248290688
 30
0.0
 10
3113.2494486807
 20
25.490722003
 30
0.0
 10
3113.2494486807
 20
25.490722003
 30
0.0
 10
3113.2494486807
 20
25.490722003
 30
0.0
 10
3113.1011924334
 20
25.643558099
 30
0.0
 10
3113.1011924334
 20
25.643558099
 30
0.0
 10
3113.1011924334
 20
25.643558099
 30
0.0
 10
3112.8852852772
 20
25.3923206809
 30
0.0
 10
3112.8852852772
 20
25.3923206809
 30
0.0
 10
3112.8852852772
 20
25.3923206809
 30
0.0
 10
3112.4982226298
 20
25.8602503722
 30
0.0
 10
3112.4982226298
 20
25.8602503722
 30
0.0
 10
3112.6536757823
 20
25.974354033
 30
0.0
 10
3112.8359537633
 20
26.1141048468
 30
0.0
 10
3112.8359537633
 20
26.323469362
 30
0.0
 10
3112.8359537633
 20
26.5673790221
 30
0.0
 10
3112.6339170062
 20
26.710793715
 30
0.0
 10
3112.4074107713
 20
26.710793715
 30
0.0
 10
3112.1632394055
 20
26.710793715
 30
0.0
 10
3111.9788677794
 20
26.5600512641
 30
0.0
 10
3111.9788677794
 20
26.3035797331
 30
0.0
 10
3111.9788677794
 20
26.1460329354
 30
0.0
 10
3112.0775308072
 20
26.0083757667
 30
0.0
 10
3112.1828673288
 20
25.8974125737
 30
0.0
 10
3112.1828673288
 20
25.8974125737
 30
0.0
 10
3112.067324287
 20
25.8136667676
 30
0.0
 10
3112.067324287
 20
25.8136667676
 30
0.0
 10
3111.8896261548
 20
25.6854310021
 30
0.0
 10
3111.7422858773
 20
25.5577186478
 30
0.0
 10
3111.7422858773
 20
25.3206133344
 30
0.0
 10
3111.7422858773
 20
25.0002856263
 30
0.0
 10
3112.0008510535
 20
24.7741719499
 30
0.0
 10
3112.3112339472
 20
24.7741719499
 30
0.0
 10
3112.5301507183
 20
24.7741719499
 30
0.0
 10
3112.727345921
 20
24.8992672477
 30
0.0
 10
3112.8676201462
 20
25.065188626
 30
0.0
 10
3112.8676201462
 20
25.065188626
 30
0.0
 10
3113.069918609
 20
24.8139512078
 30
0.0
 10
3113.069918609
 20
24.8139512078
 30
0.0
  0
LWPOLYLINE
  5
22F
100
AcDbEntity
  8
0
100
AcDbPolyline
 62
7
  6
CONTINUOUS
 90
2
 70
0
 43
0.2
 10
3115.0053626987
 20
26.6704910458
 10
3114.7740149094
 20
26.6704910458
  0
LWPOLYLINE
  5
230
100
AcDbEntity
  8
0
100
AcDbPolyline
 62
7
  6
CONTINUOUS
 90
2
 70
0
 43
0.2
 10
3114.7740149094
 20
26.6704910458
 10
3114.7740149094
 20
24.8134277965
  0
LWPOLYLINE
  5
231
100
AcDbEntity
  8
0
100
AcDbPolyline
 62
7
  6
CONTINUOUS
 90
2
 70
0
 43
0.2
 10
3114.7740149094
 20
24.8134277965
 10
3115.5693383614
 20
24.8134277965
  0
LWPOLYLINE
  5
232
100
AcDbEntity
  8
0
100
AcDbPolyline
 62
7
  6
CONTINUOUS
 90
2
 70
0
 43
0.2
 10
3115.5693383614
 20
24.8134277965
 10
3115.5693383614
 20
25.0254093681
  0
LWPOLYLINE
  5
233
100
AcDbEntity
  8
0
100
AcDbPolyline
 62
7
  6
CONTINUOUS
 90
2
 70
0
 43
0.2
 10
3115.5693383614
 20
25.0254093681
 10
3115.0053626987
 20
25.0254093681
  0
LWPOLYLINE
  5
234
100
AcDbEntity
  8
0
100
AcDbPolyline
 62
7
  6
CONTINUOUS
 90
2
 70
0
 43
0.2
 10
3115.0053626987
 20
25.0254093681
 10
3115.0053626987
 20
26.6704910458
  0
LWPOLYLINE
  5
235
100
AcDbEntity
  8
0
100
AcDbPolyline
 62
7
  6
CONTINUOUS
 90
2
 70
0
 43
0.2
 10
3117.2484417728
 20
25.9659794524
 10
3117.0273005037
 20
25.9659794524
  0
LWPOLYLINE
  5
236
100
AcDbEntity
  8
0
100
AcDbPolyline
 62
7
  6
CONTINUOUS
 90
2
 70
0
 43
0.2
 10
3117.0273005037
 20
25.9659794524
 10
3117.0273005037
 20
24.8139512078
  0
LWPOLYLINE
  5
237
100
AcDbEntity
  8
0
100
AcDbPolyline
 62
7
  6
CONTINUOUS
 90
2
 70
0
 43
0.2
 10
3117.0273005037
 20
24.8139512078
 10
3117.2484417728
 20
24.8139512078
  0
LWPOLYLINE
  5
238
100
AcDbEntity
  8
0
100
AcDbPolyline
 62
7
  6
CONTINUOUS
 90
2
 70
0
 43
0.2
 10
3117.2484417728
 20
24.8139512078
 10
3117.2484417728
 20
25.9659794524
  0
LWPOLYLINE
  5
239
100
AcDbEntity
  8
0
100
AcDbPolyline
 62
7
  6
CONTINUOUS
 90
2
 70
1
 43
0.2
 10
3116.9854184956
 20
26.4959333813
 42
1.0
 10
3117.2905854866
 20
26.4959333813
 42
1.0
  0
SPLINE
  5
23A
100
AcDbEntity
  8
0
100
AcDbSpline
 62
7
  6
CONTINUOUS
 70
2
 71
3
 72
17
 73
13
 74
0
 42
0.0000001
 43
0.0000001
 44
0.0000000001
 40
0.0
 40
0.0
 40
0.0
 40
0.0
 40
1.0
 40
1.0
 40
1.0
 40
2.0
 40
2.0
 40
2.0
 40
3.0
 40
3.0
 40
3.0
 40
4.0
 40
4.0
 40
4.0
 40
4.0
 10
3119.3787257145
 20
24.9714980054
 30
0.0
 10
3119.1447608688
 20
24.9714980054
 30
0.0
 10
3119.0144314581
 20
25.1735347625
 30
0.0
 10
3119.0144314581
 20
25.3897036244
 30
0.0
 10
3119.0144314581
 20
25.6043022525
 30
0.0
 10
3119.1502566873
 20
25.8031985418
 30
0.0
 10
3119.3787257145
 20
25.8031985418
 30
0.0
 10
3119.6181863787
 20
25.8031985418
 30
0.0
 10
3119.7537499022
 20
25.6142470669
 30
0.0
 10
3119.7537499022
 20
25.3897036244
 30
0.0
 10
3119.7537499022
 20
25.1635899481
 30
0.0
 10
3119.6205417295
 20
24.9714980054
 30
0.0
 10
3119.3787257145
 20
24.9714980054
 30
0.0
  0
SPLINE
  5
23B
100
AcDbEntity
  8
0
100
AcDbSpline
 62
7
  6
CONTINUOUS
 70
2
 71
3
 72
50
 73
46
 74
0
 42
0.0000001
 43
0.0000001
 44
0.0000000001
 40
0.0
 40
0.0
 40
0.0
 40
0.0
 40
1.0
 40
1.0
 40
1.0
 40
2.0
 40
2.0
 40
2.0
 40
3.0
 40
3.0
 40
3.0
 40
4.0
 40
4.0
 40
4.0
 40
5.0
 40
5.0
 40
5.0
 40
6.0
 40
6.0
 40
6.0
 40
7.0
 40
7.0
 40
7.0
 40
8.0
 40
8.0
 40
8.0
 40
9.0
 40
9.0
 40
9.0
 40
10.0
 40
10.0
 40
10.0
 40
11.0
 40
11.0
 40
11.0
 40
12.0
 40
12.0
 40
12.0
 40
13.0
 40
13.0
 40
13.0
 40
14.0
 40
14.0
 40
14.0
 40
15.0
 40
15.0
 40
15.0
 40
15.0
 10
3119.9628527117
 20
25.9665028637
 30
0.0
 10
3119.9628527117
 20
25.9665028637
 30
0.0
 10
3119.7411880313
 20
25.9665028637
 30
0.0
 10
3119.7411880313
 20
25.9665028637
 30
0.0
 10
3119.7411880313
 20
25.9665028637
 30
0.0
 10
3119.7411880313
 20
25.7691768081
 30
0.0
 10
3119.7411880313
 20
25.7691768081
 30
0.0
 10
3119.7411880313
 20
25.7691768081
 30
0.0
 10
3119.7364773297
 20
25.7691768081
 30
0.0
 10
3119.7364773297
 20
25.7691768081
 30
0.0
 10
3119.64514206
 20
25.9120680897
 30
0.0
 10
3119.5072231857
 20
26.0005245974
 30
0.0
 10
3119.3344974607
 20
26.0005245974
 30
0.0
 10
3119.0021312929
 20
26.0005245974
 30
0.0
 10
3118.7930284834
 20
25.712648389
 30
0.0
 10
3118.7930284834
 20
25.3970313825
 30
0.0
 10
3118.7930284834
 20
25.0672822711
 30
0.0
 10
3118.9900928332
 20
24.7741719499
 30
0.0
 10
3119.3449656864
 20
24.7741719499
 30
0.0
 10
3119.5072231857
 20
24.7741719499
 30
0.0
 10
3119.6472357052
 20
24.8626284575
 30
0.0
 10
3119.7364773297
 20
24.9934812795
 30
0.0
 10
3119.7364773297
 20
24.9934812795
 30
0.0
 10
3119.7411880313
 20
24.9934812795
 30
0.0
 10
3119.7411880313
 20
24.9934812795
 30
0.0
 10
3119.7411880313
 20
24.9934812795
 30
0.0
 10
3119.7411880313
 20
24.7741719499
 30
0.0
 10
3119.7411880313
 20
24.7741719499
 30
0.0
 10
3119.7411880313
 20
24.5375900478
 30
0.0
 10
3119.6846596122
 20
24.350732218
 30
0.0
 10
3119.41143892
 20
24.350732218
 30
0.0
 10
3119.2091404572
 20
24.350732218
 30
0.0
 10
3119.0665108813
 20
24.4690231691
 30
0.0
 10
3119.0665108813
 20
24.6752472165
 30
0.0
 10
3119.0665108813
 20
24.6752472165
 30
0.0
 10
3118.8448462009
 20
24.6752472165
 30
0.0
 10
3118.8448462009
 20
24.6752472165
 30
0.0
 10
3118.8498186081
 20
24.350732218
 30
0.0
 10
3119.0809046917
 20
24.1539295738
 30
0.0
 10
3119.4012323999
 20
24.1539295738
 30
0.0
 10
3119.8492724623
 20
24.1539295738
 30
0.0
 10
3119.9628527117
 20
24.4391887257
 30
0.0
 10
3119.9628527117
 20
24.8359344819
 30
0.0
 10
3119.9628527117
 20
24.8359344819
 30
0.0
 10
3119.9628527117
 20
25.9665028637
 30
0.0
 10
3119.9628527117
 20
25.9665028637
 30
0.0
  0
SPLINE
  5
23C
100
AcDbEntity
  8
0
100
AcDbSpline
 62
7
  6
CONTINUOUS
 70
2
 71
3
 72
44
 73
40
 74
0
 42
0.0000001
 43
0.0000001
 44
0.0000000001
 40
0.0
 40
0.0
 40
0.0
 40
0.0
 40
1.0
 40
1.0
 40
1.0
 40
2.0
 40
2.0
 40
2.0
 40
3.0
 40
3.0
 40
3.0
 40
4.0
 40
4.0
 40
4.0
 40
5.0
 40
5.0
 40
5.0
 40
6.0
 40
6.0
 40
6.0
 40
7.0
 40
7.0
 40
7.0
 40
8.0
 40
8.0
 40
8.0
 40
9.0
 40
9.0
 40
9.0
 40
10.0
 40
10.0
 40
10.0
 40
11.0
 40
11.0
 40
11.0
 40
12.0
 40
12.0
 40
12.0
 40
13.0
 40
13.0
 40
13.0
 40
13.0
 10
3121.5317780471
 20
26.9515629074
 30
0.0
 10
3121.5317780471
 20
26.9515629074
 30
0.0
 10
3121.5317780471
 20
24.8134277965
 30
0.0
 10
3121.5317780471
 20
24.8134277965
 30
0.0
 10
3121.5317780471
 20
24.8134277965
 30
0.0
 10
3121.7531810219
 20
24.8134277965
 30
0.0
 10
3121.7531810219
 20
24.8134277965
 30
0.0
 10
3121.7531810219
 20
24.8134277965
 30
0.0
 10
3121.7531810219
 20
25.3431200198
 30
0.0
 10
3121.7531810219
 20
25.3431200198
 30
0.0
 10
3121.7531810219
 20
25.5530079462
 30
0.0
 10
3121.7531810219
 20
25.8037219531
 30
0.0
 10
3122.0384401738
 20
25.8037219531
 30
0.0
 10
3122.2653389671
 20
25.8037219531
 30
0.0
 10
3122.2922946484
 20
25.670775486
 30
0.0
 10
3122.2922946484
 20
25.4744962531
 30
0.0
 10
3122.2922946484
 20
25.4744962531
 30
0.0
 10
3122.2922946484
 20
24.8134277965
 30
0.0
 10
3122.2922946484
 20
24.8134277965
 30
0.0
 10
3122.2922946484
 20
24.8134277965
 30
0.0
 10
3122.5142210345
 20
24.8134277965
 30
0.0
 10
3122.5142210345
 20
24.8134277965
 30
0.0
 10
3122.5142210345
 20
24.8134277965
 30
0.0
 10
3122.5142210345
 20
25.5006668175
 30
0.0
 10
3122.5142210345
 20
25.5006668175
 30
0.0
 10
3122.5142210345
 20
25.7812152678
 30
0.0
 10
3122.4302135228
 20
26.0010480087
 30
0.0
 10
3122.105175113
 20
26.0010480087
 30
0.0
 10
3121.9654242991
 20
26.0010480087
 30
0.0
 10
3121.8272437191
 20
25.9345747751
 30
0.0
 10
3121.7578917235
 20
25.8115731225
 30
0.0
 10
3121.7578917235
 20
25.8115731225
 30
0.0
 10
3121.7531810219
 20
25.8115731225
 30
0.0
 10
3121.7531810219
 20
25.8115731225
 30
0.0
 10
3121.7531810219
 20
25.8115731225
 30
0.0
 10
3121.7531810219
 20
26.9515629074
 30
0.0
 10
3121.7531810219
 20
26.9515629074
 30
0.0
 10
3121.7531810219
 20
26.9515629074
 30
0.0
 10
3121.5317780471
 20
26.9515629074
 30
0.0
 10
3121.5317780471
 20
26.9515629074
 30
0.0
  0
LWPOLYLINE
  5
23D
100
AcDbEntity
  8
0
100
AcDbPolyline
 62
7
  6
CONTINUOUS
 90
2
 70
0
 43
0.2
 10
3124.3540117113
 20
25.7592319937
 10
3124.5704422789
 20
25.7592319937
  0
LWPOLYLINE
  5
23E
100
AcDbEntity
  8
0
100
AcDbPolyline
 62
7
  6
CONTINUOUS
 90
2
 70
0
 43
0.2
 10
3124.5704422789
 20
25.7592319937
 10
3124.5704422789
 20
25.9659794524
  0
LWPOLYLINE
  5
23F
100
AcDbEntity
  8
0
100
AcDbPolyline
 62
7
  6
CONTINUOUS
 90
2
 70
0
 43
0.2
 10
3124.5704422789
 20
25.9659794524
 10
3124.3540117113
 20
25.9659794524
  0
LWPOLYLINE
  5
240
100
AcDbEntity
  8
0
100
AcDbPolyline
 62
7
  6
CONTINUOUS
 90
2
 70
0
 43
0.2
 10
3124.3540117113
 20
25.9659794524
 10
3124.3540117113
 20
26.4066917568
  0
LWPOLYLINE
  5
241
100
AcDbEntity
  8
0
100
AcDbPolyline
 62
7
  6
CONTINUOUS
 90
2
 70
0
 43
0.2
 10
3124.3540117113
 20
26.4066917568
 10
3124.1323470309
 20
26.4066917568
  0
LWPOLYLINE
  5
242
100
AcDbEntity
  8
0
100
AcDbPolyline
 62
7
  6
CONTINUOUS
 90
2
 70
0
 43
0.2
 10
3124.1323470309
 20
26.4066917568
 10
3124.1323470309
 20
25.9659794524
  0
LWPOLYLINE
  5
243
100
AcDbEntity
  8
0
100
AcDbPolyline
 62
7
  6
CONTINUOUS
 90
2
 70
0
 43
0.2
 10
3124.1323470309
 20
25.9659794524
 10
3124.0117007291
 20
25.9659794524
  0
LWPOLYLINE
  5
244
100
AcDbEntity
  8
0
100
AcDbPolyline
 62
7
  6
CONTINUOUS
 90
2
 70
0
 43
0.2
 10
3124.0117007291
 20
25.9659794524
 10
3124.0117007291
 20
25.7592319937
  0
LWPOLYLINE
  5
245
100
AcDbEntity
  8
0
100
AcDbPolyline
 62
7
  6
CONTINUOUS
 90
2
 70
0
 43
0.2
 10
3124.0117007291
 20
25.7592319937
 10
3124.1323470309
 20
25.7592319937
  0
LWPOLYLINE
  5
246
100
AcDbEntity
  8
0
100
AcDbPolyline
 62
7
  6
CONTINUOUS
 90
2
 70
0
 43
0.2
 10
3124.1323470309
 20
25.7592319937
 10
3124.1323470309
 20
24.8134277965
  0
LWPOLYLINE
  5
247
100
AcDbEntity
  8
0
100
AcDbPolyline
 62
7
  6
CONTINUOUS
 90
2
 70
0
 43
0.2
 10
3124.1323470309
 20
24.8134277965
 10
3124.3540117113
 20
24.8134277965
  0
LWPOLYLINE
  5
248
100
AcDbEntity
  8
0
100
AcDbPolyline
 62
7
  6
CONTINUOUS
 90
2
 70
0
 43
0.2
 10
3124.3540117113
 20
24.8134277965
 10
3124.3540117113
 20
25.7592319937
  0
SPLINE
  5
249
100
AcDbEntity
  8
0
100
AcDbSpline
 62
7
  6
CONTINUOUS
 70
2
 71
3
 72
20
 73
16
 74
0
 42
0.0000001
 43
0.0000001
 44
0.0000000001
 40
0.0
 40
0.0
 40
0.0
 40
0.0
 40
1.0
 40
1.0
 40
1.0
 40
2.0
 40
2.0
 40
2.0
 40
3.0
 40
3.0
 40
3.0
 40
4.0
 40
4.0
 40
4.0
 40
5.0
 40
5.0
 40
5.0
 40
5.0
 10
3112.1360220186
 20
35.1743542399
 30
0.0
 10
3112.1360220186
 20
35.1743542399
 30
0.0
 10
3114.452378673
 20
32.3447928176
 30
0.0
 10
3114.452378673
 20
32.3447928176
 30
0.0
 10
3113.8007316196
 20
31.692622353
 30
0.0
 10
3113.0238584156
 20
30.9567060822
 30
0.0
 10
3112.052668771
 20
30.9567060822
 30
0.0
 10
3111.0541308865
 20
30.9567060822
 30
0.0
 10
3110.110812893
 20
31.8862845295
 30
0.0
 10
3110.110812893
 20
32.885476678
 30
0.0
 10
3110.110812893
 20
33.8846688266
 30
0.0
 10
3111.2896659661
 20
34.5912740652
 30
0.0
 10
3112.0111884264
 20
35.0911318451
 30
0.0
 10
3112.0111884264
 20
35.0911318451
 30
0.0
 10
3112.1360220186
 20
35.1743542399
 30
0.0
 10
3112.1360220186
 20
35.1743542399
 30
0.0
  0
SPLINE
  5
24A
100
AcDbEntity
  8
0
100
AcDbSpline
 62
7
  6
CONTINUOUS
 70
2
 71
3
 72
23
 73
19
 74
0
 42
0.0000001
 43
0.0000001
 44
0.0000000001
 40
0.0
 40
0.0
 40
0.0
 40
0.0
 40
1.0
 40
1.0
 40
1.0
 40
2.0
 40
2.0
 40
2.0
 40
3.0
 40
3.0
 40
3.0
 40
4.0
 40
4.0
 40
4.0
 40
5.0
 40
5.0
 40
5.0
 40
6.0
 40
6.0
 40
6.0
 40
6.0
 10
3112.4134300011
 20
36.8121081596
 30
0.0
 10
3112.4134300011
 20
36.8121081596
 30
0.0
 10
3112.0669317286
 20
37.2554375204
 30
0.0
 10
3112.0669317286
 20
37.2554375204
 30
0.0
 10
3111.7611286836
 20
37.6435469904
 30
0.0
 10
3111.4422403565
 20
38.0320490188
 30
0.0
 10
3111.4422403565
 20
38.5589933329
 30
0.0
 10
3111.4422403565
 20
39.2251650495
 30
0.0
 10
3111.983578481
 20
39.6688869688
 30
0.0
 10
3112.6074847361
 20
39.6688869688
 30
0.0
 10
3113.3012663982
 20
39.6688869688
 30
0.0
 10
3113.8284724179
 20
39.2666453941
 30
0.0
 10
3113.8284724179
 20
38.5316450931
 30
0.0
 10
3113.8284724179
 20
37.7683805826
 30
0.0
 10
3113.1072116632
 20
37.3382673568
 30
0.0
 10
3112.5801364963
 20
36.9225479414
 30
0.0
 10
3112.5801364963
 20
36.9225479414
 30
0.0
 10
3112.4134300011
 20
36.8121081596
 30
0.0
 10
3112.4134300011
 20
36.8121081596
 30
0.0
  0
SPLINE
  5
24B
100
AcDbEntity
  8
0
100
AcDbSpline
 62
7
  6
CONTINUOUS
 70
2
 71
3
 72
50
 73
46
 74
0
 42
0.0000001
 43
0.0000001
 44
0.0000000001
 40
0.0
 40
0.0
 40
0.0
 40
0.0
 40
1.0
 40
1.0
 40
1.0
 40
2.0
 40
2.0
 40
2.0
 40
3.0
 40
3.0
 40
3.0
 40
4.0
 40
4.0
 40
4.0
 40
5.0
 40
5.0
 40
5.0
 40
6.0
 40
6.0
 40
6.0
 40
7.0
 40
7.0
 40
7.0
 40
8.0
 40
8.0
 40
8.0
 40
9.0
 40
9.0
 40
9.0
 40
10.0
 40
10.0
 40
10.0
 40
11.0
 40
11.0
 40
11.0
 40
12.0
 40
12.0
 40
12.0
 40
13.0
 40
13.0
 40
13.0
 40
14.0
 40
14.0
 40
14.0
 40
15.0
 40
15.0
 40
15.0
 40
15.0
 10
3116.3670171641
 20
30.0135189415
 30
0.0
 10
3116.3670171641
 20
30.0135189415
 30
0.0
 10
3117.9762451686
 20
30.0135189415
 30
0.0
 10
3117.9762451686
 20
30.0135189415
 30
0.0
 10
3117.9762451686
 20
30.0135189415
 30
0.0
 10
3116.103217875
 20
32.3306607129
 30
0.0
 10
3116.103217875
 20
32.3306607129
 30
0.0
 10
3116.103217875
 20
32.3306607129
 30
0.0
 10
3117.3795563005
 20
33.8281404075
 30
0.0
 10
3117.3795563005
 20
33.8281404075
 30
0.0
 10
3117.3795563005
 20
33.8281404075
 30
0.0
 10
3116.5473323527
 20
34.689151976
 30
0.0
 10
3116.5473323527
 20
34.689151976
 30
0.0
 10
3116.5473323527
 20
34.689151976
 30
0.0
 10
3115.3267372294
 20
33.2738478536
 30
0.0
 10
3115.3267372294
 20
33.2738478536
 30
0.0
 10
3115.3267372294
 20
33.2738478536
 30
0.0
 10
3113.1488228606
 20
35.909223688
 30
0.0
 10
3113.1488228606
 20
35.909223688
 30
0.0
 10
3114.0223963001
 20
36.547262048
 30
0.0
 10
3115.0490675412
 20
37.3382673568
 30
0.0
 10
3115.0490675412
 20
38.5171204299
 30
0.0
 10
3115.0490675412
 20
39.8908133549
 30
0.0
 10
3113.9111714014
 20
40.6952965043
 30
0.0
 10
3112.6358797985
 20
40.6952965043
 30
0.0
 10
3111.2624485791
 20
40.6952965043
 30
0.0
 10
3110.2215143804
 20
39.8490713047
 30
0.0
 10
3110.2215143804
 20
38.4064189425
 30
0.0
 10
3110.2215143804
 20
37.5188442511
 30
0.0
 10
3110.7768537568
 20
36.741971047
 30
0.0
 10
3111.3730192137
 20
36.1175413806
 30
0.0
 10
3111.3730192137
 20
36.1175413806
 30
0.0
 10
3110.7211104546
 20
35.6459478102
 30
0.0
 10
3110.7211104546
 20
35.6459478102
 30
0.0
 10
3109.7225725702
 20
34.9246870556
 30
0.0
 10
3108.8896943584
 20
34.2034263009
 30
0.0
 10
3108.8896943584
 20
32.8718679845
 30
0.0
 10
3108.8896943584
 20
31.0681926865
 30
0.0
 10
3110.346740531
 20
29.7915925554
 30
0.0
 10
3112.0942799684
 20
29.7915925554
 30
0.0
 10
3113.3291380493
 20
29.7915925554
 30
0.0
 10
3114.4385082739
 20
30.4997680279
 30
0.0
 10
3115.2293827299
 20
31.4282996526
 30
0.0
 10
3115.2293827299
 20
31.4282996526
 30
0.0
 10
3116.3670171641
 20
30.0135189415
 30
0.0
 10
3116.3670171641
 20
30.0135189415
 30
0.0
  0
LINE
  5
24C
100
AcDbEntity
  8
0
100
AcDbLine
 62
7
  6
CONTINUOUS
 10
3102.1698785391
 20
27.9873938461
 11
3124.5837892667
 21
27.9873938461
  0
LINE
  5
24D
100
AcDbEntity
  8
0
100
AcDbLine
 62
7
  6
CONTINUOUS
 10
3124.5837892667
 20
27.9873938461
 11
3124.5837892667
 21
50.4013045738
  0
LINE
  5
24E
100
AcDbEntity
  8
0
100
AcDbLine
 62
7
  6
CONTINUOUS
 10
3124.5837892667
 20
50.4013045738
 11
3102.1698785391
 21
50.4013045738
  0
LINE
  5
24F
100
AcDbEntity
  8
0
100
AcDbLine
 62
7
  6
CONTINUOUS
 10
3102.1698785391
 20
50.4013045738
 11
3102.1698785391
 21
27.9873938461
  0
ENDBLK
  5
250
100
AcDbEntity
  8
0
  6
BYBLOCK
 62
0
100
AcDbBlockEnd
  0
BLOCK
  5
251
100
AcDbEntity
  8
0
100
AcDbBlockBegin
  2
_CLOSED
 70
64
 10
0.0
 20
0.0
  3
_CLOSED
  1

  0
LINE
  5
252
100
AcDbEntity
  8
0
  6
BYBLOCK
 62
0
100
AcDbLine
 10
0.0
 20
0.0
 11
-1.0
 21
0.2
  0
LINE
  5
253
100
AcDbEntity
  8
0
  6
BYBLOCK
 62
0
100
AcDbLine
 10
-1.0
 20
0.2
 11
-1.0
 21
-0.2
  0
LINE
  5
254
100
AcDbEntity
  8
0
  6
BYBLOCK
 62
0
100
AcDbLine
 10
-1.0
 20
-0.2
 11
0.0
 21
0.0
  0
LINE
  5
255
100
AcDbEntity
  8
0
  6
BYBLOCK
 62
0
100
AcDbLine
 10
-1.0
 20
0.0
 11
0.0
 21
0.0
  0
ENDBLK
  5
256
100
AcDbEntity
  8
0
  6
BYBLOCK
 62
0
100
AcDbBlockEnd
  0
BLOCK
  5
257
100
AcDbEntity
  8
0
100
AcDbBlockBegin
 62
7
  6
CONTINUOUS
  2
*D0
 70
65
 10
0.0
 20
0.0
  3
*D0
  1

  0
MTEXT
  5
258
100
AcDbEntity
  8
0
100
AcDbMText
 62
7
  6
CONTINUOUS
  7
STANDARD
 71
2
 72
1
 10
389.6549280277
 20
857.9137380377
 30
0.0
 11
1.0
 21
0.0
 31
0.0
  1
69,4
 40
10.0
 41
27.1747211896
  0
LINE
  5
259
100
AcDbEntity
  8
0
100
AcDbLine
 62
7
  6
CONTINUOUS
 10
354.9549280277
 20
851.9120716729
 11
354.9549280277
 21
844.6637380377
  0
LINE
  5
25A
100
AcDbEntity
  8
0
100
AcDbLine
 62
7
  6
CONTINUOUS
 10
424.3549280277
 20
851.9120716729
 11
424.3549280277
 21
844.6637380377
  0
LINE
  5
25B
100
AcDbEntity
  8
0
100
AcDbLine
 62
7
  6
CONTINUOUS
 10
354.9549280277
 20
845.4137380377
 11
389.6549280277
 21
845.4137380377
  0
LINE
  5
25C
100
AcDbEntity
  8
0
100
AcDbLine
 62
7
  6
CONTINUOUS
 10
424.3549280277
 20
845.4137380377
 11
389.6549280277
 21
845.4137380377
  0
INSERT
  5
25D
100
AcDbEntity
  8
0
100
AcDbBlockReference
 62
7
  6
CONTINUOUS
  2
_CLOSED
 10
354.9549280277
 20
845.4137380377
 41
2.5
 42
2.5
 43
2.5
 50
180.0
  0
INSERT
  5
25E
100
AcDbEntity
  8
0
100
AcDbBlockReference
 62
7
  6
CONTINUOUS
  2
_CLOSED
 10
424.3549280277
 20
845.4137380377
 41
2.5
 42
2.5
 43
2.5
  0
ENDBLK
  5
25F
100
AcDbEntity
  8
0
  6
BYBLOCK
 62
0
100
AcDbBlockEnd
  0
BLOCK
  5
260
100
AcDbEntity
  8
0
100
AcDbBlockBegin
 62
7
  6
CONTINUOUS
  2
*D1
 70
65
 10
0.0
 20
0.0
  3
*D1
  1

  0
MTEXT
  5
261
100
AcDbEntity
  8
0
100
AcDbMText
 62
7
  6
CONTINUOUS
  7
STANDARD
 71
2
 72
1
 10
389.6549280277
 20
830.0654287363
 30
0.0
 11
1.0
 21
0.0
 31
0.0
  1
109,9
 40
10.0
 41
34.9442379182
  0
LINE
  5
262
100
AcDbEntity
  8
0
100
AcDbLine
 62
7
  6
CONTINUOUS
 10
334.7049280277
 20
851.9120716729
 11
334.7049280277
 21
816.8154287363
  0
LINE
  5
263
100
AcDbEntity
  8
0
100
AcDbLine
 62
7
  6
CONTINUOUS
 10
444.6049280277
 20
851.9120716729
 11
444.6049280277
 21
816.8154287363
  0
LINE
  5
264
100
AcDbEntity
  8
0
100
AcDbLine
 62
7
  6
CONTINUOUS
 10
334.7049280277
 20
817.5654287363
 11
389.6549280277
 21
817.5654287363
  0
LINE
  5
265
100
AcDbEntity
  8
0
100
AcDbLine
 62
7
  6
CONTINUOUS
 10
444.6049280277
 20
817.5654287363
 11
389.6549280277
 21
817.5654287363
  0
INSERT
  5
266
100
AcDbEntity
  8
0
100
AcDbBlockReference
 62
7
  6
CONTINUOUS
  2
_CLOSED
 10
334.7049280277
 20
817.5654287363
 41
2.5
 42
2.5
 43
2.5
 50
180.0
  0
INSERT
  5
267
100
AcDbEntity
  8
0
100
AcDbBlockReference
 62
7
  6
CONTINUOUS
  2
_CLOSED
 10
444.6049280277
 20
817.5654287363
 41
2.5
 42
2.5
 43
2.5
  0
ENDBLK
  5
268
100
AcDbEntity
  8
0
  6
BYBLOCK
 62
0
100
AcDbBlockEnd
  0
BLOCK
  5
269
100
AcDbEntity
  8
0
100
AcDbBlockBegin
 62
7
  6
CONTINUOUS
  2
*D2
 70
65
 10
0.0
 20
0.0
  3
*D2
  1

  0
MTEXT
  5
26A
100
AcDbEntity
  8
0
100
AcDbMText
 62
7
  6
CONTINUOUS
  7
STANDARD
 71
2
 72
1
 10
290.4876670073
 20
927.1412680756
 30
0.0
 11
0.0
 21
1.0
 31
0.0
  1
91
 40
10.0
 41
15.5390334572
  0
LINE
  5
26B
100
AcDbEntity
  8
0
100
AcDbLine
 62
7
  6
CONTINUOUS
 10
354.5049280277
 20
881.6412680756
 11
302.2376670073
 21
881.6412680756
  0
LINE
  5
26C
100
AcDbEntity
  8
0
100
AcDbLine
 62
7
  6
CONTINUOUS
 10
362.4470441952
 20
972.6412680756
 11
302.2376670073
 21
972.6412680756
  0
LINE
  5
26D
100
AcDbEntity
  8
0
100
AcDbLine
 62
7
  6
CONTINUOUS
 10
302.9876670073
 20
881.6412680756
 11
302.9876670073
 21
927.1412680756
  0
LINE
  5
26E
100
AcDbEntity
  8
0
100
AcDbLine
 62
7
  6
CONTINUOUS
 10
302.9876670073
 20
972.6412680756
 11
302.9876670073
 21
927.1412680756
  0
INSERT
  5
26F
100
AcDbEntity
  8
0
100
AcDbBlockReference
 62
7
  6
CONTINUOUS
  2
_CLOSED
 10
302.9876670073
 20
881.6412680756
 41
2.5
 42
2.5
 43
2.5
 50
270.0
  0
INSERT
  5
270
100
AcDbEntity
  8
0
100
AcDbBlockReference
 62
7
  6
CONTINUOUS
  2
_CLOSED
 10
302.9876670073
 20
972.6412680756
 41
2.5
 42
2.5
 43
2.5
 50
90.0
  0
ENDBLK
  5
271
100
AcDbEntity
  8
0
  6
BYBLOCK
 62
0
100
AcDbBlockEnd
  0
BLOCK
  5
272
100
AcDbEntity
  8
0
100
AcDbBlockBegin
 62
7
  6
CONTINUOUS
  2
*D3
 70
65
 10
0.0
 20
0.0
  3
*D3
  1

  0
MTEXT
  5
273
100
AcDbEntity
  8
0
100
AcDbMText
 62
7
  6
CONTINUOUS
  7
STANDARD
 71
2
 72
1
 10
1849.276974416
 20
830.0654287363
 30
0.0
 11
1.0
 21
0.0
 31
0.0
  1
2247
 40
10.0
 41
31.0780669145
  0
LINE
  5
274
100
AcDbEntity
  8
0
100
AcDbLine
 62
7
  6
CONTINUOUS
 10
725.776974416
 20
856.6275973303
 11
725.776974416
 21
816.8154287363
  0
LINE
  5
275
100
AcDbEntity
  8
0
100
AcDbLine
 62
7
  6
CONTINUOUS
 10
2972.776974416
 20
851.9120716729
 11
2972.776974416
 21
816.8154287363
  0
LINE
  5
276
100
AcDbEntity
  8
0
100
AcDbLine
 62
7
  6
CONTINUOUS
 10
725.776974416
 20
817.5654287363
 11
1849.276974416
 21
817.5654287363
  0
LINE
  5
277
100
AcDbEntity
  8
0
100
AcDbLine
 62
7
  6
CONTINUOUS
 10
2972.776974416
 20
817.5654287363
 11
1849.276974416
 21
817.5654287363
  0
INSERT
  5
278
100
AcDbEntity
  8
0
100
AcDbBlockReference
 62
7
  6
CONTINUOUS
  2
_CLOSED
 10
725.776974416
 20
817.5654287363
 41
2.5
 42
2.5
 43
2.5
 50
180.0
  0
INSERT
  5
279
100
AcDbEntity
  8
0
100
AcDbBlockReference
 62
7
  6
CONTINUOUS
  2
_CLOSED
 10
2972.776974416
 20
817.5654287363
 41
2.5
 42
2.5
 43
2.5
  0
ENDBLK
  5
27A
100
AcDbEntity
  8
0
  6
BYBLOCK
 62
0
100
AcDbBlockEnd
  0
ENDSEC
  0
SECTION
  2
ENTITIES
  0
DIMENSION
  5
27B
100
AcDbEntity
  8
0
100
AcDbDimension
 62
7
  6
CONTINUOUS
  2
*D0
 10
424.3549280277
 20
845.4137380377
 11
389.5861816406
 21
845.4137380377
 70
160
  3
DIMSTYLE_1
100
AcDbAlignedDimension
 13
354.9549280277
 23
852.6620716729
 14
424.3549280277
 24
852.6620716729
100
AcDbRotatedDimension
  0
DIMENSION
  5
27C
100
AcDbEntity
  8
0
100
AcDbDimension
 62
7
  6
CONTINUOUS
  2
*D1
 10
444.6049280277
 20
817.5654287363
 11
390.0798095703
 21
817.5654287363
 70
160
  3
DIMSTYLE_1
100
AcDbAlignedDimension
 13
334.7049280277
 23
852.6620716729
 14
444.6049280277
 24
852.6620716729
100
AcDbRotatedDimension
  0
DIMENSION
  5
27D
100
AcDbEntity
  8
0
100
AcDbDimension
 62
7
  6
CONTINUOUS
  2
*D2
 10
302.9876670073
 20
972.6412680756
 11
302.9876670073
 21
926.1479149061
 70
160
  3
DIMSTYLE_1
100
AcDbAlignedDimension
 13
355.2549280277
 23
881.6412680756
 14
363.1970441952
 24
972.6412680756
 50
90.0
100
AcDbRotatedDimension
  0
DIMENSION
  5
27E
100
AcDbEntity
  8
0
100
AcDbDimension
 62
7
  6
CONTINUOUS
  2
*D3
 10
2972.776974416
 20
817.5654287363
 11
1849.1407226563
 21
817.5654287363
 70
160
  3
DIMSTYLE_2
100
AcDbAlignedDimension
 13
725.776974416
 23
857.3775973303
 14
2972.776974416
 24
852.6620716729
100
AcDbRotatedDimension
  0
LINE
  5
27F
100
AcDbEntity
  8
0
100
AcDbLine
 62
2
  6
CONTINUOUS
 10
3099.5507214317
 20
50.7776170738
 11
3189.5507214317
 21
50.7776170738
  0
LINE
  5
280
100
AcDbEntity
  8
0
100
AcDbLine
 62
2
  6
CONTINUOUS
 10
3099.5507214317
 20
50.7776170738
 11
3099.5507214317
 21
10.7776170738
  0
LINE
  5
281
100
AcDbEntity
  8
0
100
AcDbLine
 62
2
  6
CONTINUOUS
 10
3129.5507214317
 20
44.7776170738
 11
3189.5507214317
 21
44.7776170738
  0
LINE
  5
282
100
AcDbEntity
  8
0
100
AcDbLine
 62
2
  6
CONTINUOUS
 10
3129.5507214317
 20
38.7776170738
 11
3189.5507214317
 21
38.7776170738
  0
LINE
  5
283
100
AcDbEntity
  8
0
100
AcDbLine
 62
2
  6
CONTINUOUS
 10
3129.5507214317
 20
28.7776170738
 11
3189.5507214317
 21
28.7776170738
  0
LINE
  5
284
100
AcDbEntity
  8
0
100
AcDbLine
 62
2
  6
CONTINUOUS
 10
3099.5507214317
 20
23.7776170738
 11
3189.5507214317
 21
23.7776170738
  0
LINE
  5
285
100
AcDbEntity
  8
0
100
AcDbLine
 62
2
  6
CONTINUOUS
 10
3099.5507214317
 20
10.7776170738
 11
3189.5507214317
 21
10.7776170738
  0
LINE
  5
286
100
AcDbEntity
  8
0
100
AcDbLine
 62
2
  6
CONTINUOUS
 10
3129.5507214317
 20
50.7776170738
 11
3129.5507214317
 21
23.7776170738
  0
LINE
  5
287
100
AcDbEntity
  8
0
100
AcDbLine
 62
2
  6
CONTINUOUS
 10
3169.5507214317
 20
50.7776170738
 11
3169.5507214317
 21
38.7776170738
  0
LINE
  5
288
100
AcDbEntity
  8
0
100
AcDbLine
 62
2
  6
CONTINUOUS
 10
3189.5507214317
 20
50.7776170738
 11
3189.5507214317
 21
10.7776170738
  0
INSERT
  5
289
100
AcDbEntity
  8
0
100
AcDbBlockReference
 62
2
  6
CONTINUOUS
  2
LOGO2_BL0
 10
3113.3767684765
 20
37.2776170738
  0
MTEXT
  5
28A
100
AcDbEntity
  8
9_SOLID
100
AcDbMText
 62
2
  6
CONTINUOUS
  7
TEXTSTYLE_2
 71
1
 72
1
 10
3131.0382214317
 20
49.2776170738
 30
0.0
 11
1.0
 21
0.0
 31
0.0
  1
6F4_C_246
 40
3.0
 41
32.5714285714
  0
MTEXT
  5
28B
100
AcDbEntity
  8
0
100
AcDbMText
 62
2
  6
CONTINUOUS
  7
TEXTSTYLE_2
 71
1
 72
1
 10
3171.0382214317
 20
49.0276170738
 30
0.0
 11
1.0
 21
0.0
 31
0.0
  1
Rev:00
 40
3.5
 41
22.75
  0
MTEXT
  5
28C
100
AcDbEntity
  8
9_SOLID
100
AcDbMText
 62
2
  6
CONTINUOUS
  7
TEXTSTYLE_2
 71
1
 72
1
 10
3131.0382214317
 20
43.0276170738
 30
0.0
 11
1.0
 21
0.0
 31
0.0
  1
Scale:1:1
 40
3.5
 41
28.375
  0
MTEXT
  5
28D
100
AcDbEntity
  8
9_SOLID
100
AcDbMText
 62
2
  6
CONTINUOUS
  7
TEXTSTYLE_2
 71
1
 72
1
 10
3171.0382214317
 20
43.5276170738
 30
0.0
 11
1.0
 21
0.0
 31
0.0
  1
3200 by 2500
 40
3.5
 41
48.5
  0
MTEXT
  5
28E
100
AcDbEntity
  8
0
100
AcDbMText
 62
2
  6
CONTINUOUS
  7
TEXTSTYLE_2
 71
1
 72
1
 10
3131.0382214317
 20
35.5276170738
 30
0.0
 11
1.0
 21
0.0
 31
0.0
  1
CASS. BRENTA 2.7 ARRETRATA NO STANDARD
 40
3.5
 41
160.375
  0
MTEXT
  5
28F
100
AcDbEntity
  8
0
100
AcDbMText
 62
2
  6
CONTINUOUS
  7
TEXTSTYLE_2
 71
1
 72
1
 10
3131.0382214317
 20
27.5276170738
 30
0.0
 11
1.0
 21
0.0
 31
0.0
  1
DATE:08/05/18
 40
2.5
 41
36.875
  0
MTEXT
  5
290
100
AcDbEntity
  8
9_SOLID
100
AcDbMText
 62
2
  6
CONTINUOUS
  7
TEXTSTYLE_2
 71
1
 72
1
 10
3101.0382214317
 20
23.4651170738
 30
0.0
 11
1.0
 21
0.0
 31
0.0
  1
Any integral or partial reproductions are prohibited \Pwithout prior authorisation of L {\Ftxt.shx;\W0.190476;\H2.250000; }& L Luce & Light s.r.l., \Pin accordance with the law in force. \PAll rights reserved.
 40
2.25
 41
134.5982142857
  0
LINE
  5
291
100
AcDbEntity
  8
0
100
AcDbLine
 62
7
  6
CONTINUOUS
 10
0.0
 20
0.0
 11
0.0
 21
2500.0
  0
LINE
  5
292
100
AcDbEntity
  8
0
100
AcDbLine
 62
7
  6
CONTINUOUS
 10
0.0
 20
0.0
 11
3200.0
 21
0.0
  0
LINE
  5
293
100
AcDbEntity
  8
0
100
AcDbLine
 62
7
  6
CONTINUOUS
 10
0.0
 20
2500.0
 11
3200.0
 21
2500.0
  0
LINE
  5
294
100
AcDbEntity
  8
0
100
AcDbLine
 62
7
  6
CONTINUOUS
 10
3200.0
 20
0.0
 11
3200.0
 21
2500.0
  0
LINE
  5
295
100
AcDbEntity
  8
6_ALL_SURFS
100
AcDbLine
 62
7
  6
CONTINUOUS
 10
337.2049280277
 20
884.2912680756
 11
337.5049280277
 21
884.1412680756
  0
LINE
  5
296
100
AcDbEntity
  8
6_ALL_SURFS
100
AcDbLine
 62
7
  6
CONTINUOUS
 10
340.2049280277
 20
884.2912680756
 11
340.5049280277
 21
884.1412680756
  0
LINE
  5
297
100
AcDbEntity
  8
6_ALL_SURFS
100
AcDbLine
 62
7
  6
CONTINUOUS
 10
343.2049280277
 20
884.2912680756
 11
343.5049280277
 21
884.1412680756
  0
LINE
  5
298
100
AcDbEntity
  8
6_ALL_SURFS
100
AcDbLine
 62
7
  6
CONTINUOUS
 10
346.2049280277
 20
884.2912680756
 11
346.5049280277
 21
884.1412680756
  0
LINE
  5
299
100
AcDbEntity
  8
6_ALL_SURFS
100
AcDbLine
 62
7
  6
CONTINUOUS
 10
349.2049280277
 20
884.2912680756
 11
349.5049280277
 21
884.1412680756
  0
LINE
  5
29A
100
AcDbEntity
  8
6_ALL_SURFS
100
AcDbLine
 62
7
  6
CONTINUOUS
 10
352.2049280277
 20
884.2912680756
 11
352.5049280277
 21
884.1412680756
  0
LINE
  5
29B
100
AcDbEntity
  8
7_ALL_FEATURES
100
AcDbLine
 62
7
  6
CONTINUOUS
 10
442.1049280277
 20
883.1412680756
 11
444.2503996181
 21
883.3558152347
  0
LINE
  5
29C
100
AcDbEntity
  8
6_ALL_SURFS
100
AcDbLine
 62
7
  6
CONTINUOUS
 10
337.2049280277
 20
883.1412680756
 11
335.0594564373
 21
883.3558152347
  0
LINE
  5
29D
100
AcDbEntity
  8
6_ALL_SURFS
100
AcDbLine
 62
7
  6
CONTINUOUS
 10
355.9049280277
 20
881.6412680756
 11
355.2549280277
 21
881.6412680756
  0
LINE
  5
29E
100
AcDbEntity
  8
7_ALL_FEATURES
100
AcDbLine
 62
7
  6
CONTINUOUS
 10
423.4049280277
 20
881.6412680756
 11
424.0549280277
 21
881.6412680756
  0
LINE
  5
29F
100
AcDbEntity
  8
6_ALL_SURFS
100
AcDbLine
 62
7
  6
CONTINUOUS
 10
354.6549280277
 20
883.1412680756
 11
352.5049280277
 21
883.1412680756
  0
LINE
  5
2A0
100
AcDbEntity
  8
6_ALL_SURFS
100
AcDbLine
 62
7
  6
CONTINUOUS
 10
351.9049280277
 20
883.1412680756
 11
349.5049280277
 21
883.1412680756
  0
LINE
  5
2A1
100
AcDbEntity
  8
6_ALL_SURFS
100
AcDbLine
 62
7
  6
CONTINUOUS
 10
348.9049280277
 20
883.1412680756
 11
346.5049280277
 21
883.1412680756
  0
LINE
  5
2A2
100
AcDbEntity
  8
6_ALL_SURFS
100
AcDbLine
 62
7
  6
CONTINUOUS
 10
345.9049280277
 20
883.1412680756
 11
343.5049280277
 21
883.1412680756
  0
LINE
  5
2A3
100
AcDbEntity
  8
6_ALL_SURFS
100
AcDbLine
 62
7
  6
CONTINUOUS
 10
342.9049280277
 20
883.1412680756
 11
340.5049280277
 21
883.1412680756
  0
LINE
  5
2A4
100
AcDbEntity
  8
6_ALL_SURFS
100
AcDbLine
 62
7
  6
CONTINUOUS
 10
339.9049280277
 20
883.1412680756
 11
337.2049280277
 21
883.1412680756
  0
LINE
  5
2A5
100
AcDbEntity
  8
7_ALL_FEATURES
100
AcDbLine
 62
7
  6
CONTINUOUS
 10
424.6549280277
 20
883.1412680756
 11
426.8049280277
 21
883.1412680756
  0
LINE
  5
2A6
100
AcDbEntity
  8
6_ALL_SURFS
100
AcDbLine
 62
7
  6
CONTINUOUS
 10
427.4049280277
 20
883.1412680756
 11
429.8049280277
 21
883.1412680756
  0
LINE
  5
2A7
100
AcDbEntity
  8
6_ALL_SURFS
100
AcDbLine
 62
7
  6
CONTINUOUS
 10
430.4049280277
 20
883.1412680756
 11
432.8049280277
 21
883.1412680756
  0
LINE
  5
2A8
100
AcDbEntity
  8
6_ALL_SURFS
100
AcDbLine
 62
7
  6
CONTINUOUS
 10
433.4049280277
 20
883.1412680756
 11
435.8049280277
 21
883.1412680756
  0
LINE
  5
2A9
100
AcDbEntity
  8
6_ALL_SURFS
100
AcDbLine
 62
7
  6
CONTINUOUS
 10
436.4049280277
 20
883.1412680756
 11
438.8049280277
 21
883.1412680756
  0
LINE
  5
2AA
100
AcDbEntity
  8
6_ALL_SURFS
100
AcDbLine
 62
7
  6
CONTINUOUS
 10
439.4049280277
 20
883.1412680756
 11
442.1049280277
 21
883.1412680756
  0
LINE
  5
2AB
100
AcDbEntity
  8
7_ALL_FEATURES
100
AcDbLine
 62
7
  6
CONTINUOUS
 10
444.2112246698
 20
884.1412680756
 11
442.4049280277
 21
884.1412680756
  0
LINE
  5
2AC
100
AcDbEntity
  8
6_ALL_SURFS
100
AcDbLine
 62
7
  6
CONTINUOUS
 10
441.8049280277
 20
884.1412680756
 11
439.4049280277
 21
884.1412680756
  0
LINE
  5
2AD
100
AcDbEntity
  8
6_ALL_SURFS
100
AcDbLine
 62
7
  6
CONTINUOUS
 10
438.8049280277
 20
884.1412680756
 11
436.4049280277
 21
884.1412680756
  0
LINE
  5
2AE
100
AcDbEntity
  8
6_ALL_SURFS
100
AcDbLine
 62
7
  6
CONTINUOUS
 10
435.8049280277
 20
884.1412680756
 11
433.4049280277
 21
884.1412680756
  0
LINE
  5
2AF
100
AcDbEntity
  8
6_ALL_SURFS
100
AcDbLine
 62
7
  6
CONTINUOUS
 10
432.8049280277
 20
884.1412680756
 11
430.4049280277
 21
884.1412680756
  0
LINE
  5
2B0
100
AcDbEntity
  8
6_ALL_SURFS
100
AcDbLine
 62
7
  6
CONTINUOUS
 10
429.8049280277
 20
884.1412680756
 11
427.4049280277
 21
884.1412680756
  0
LINE
  5
2B1
100
AcDbEntity
  8
7_ALL_FEATURES
100
AcDbLine
 62
7
  6
CONTINUOUS
 10
426.8049280277
 20
884.1412680756
 11
424.9049280277
 21
884.1412680756
  0
LINE
  5
2B2
100
AcDbEntity
  8
6_ALL_SURFS
100
AcDbLine
 62
7
  6
CONTINUOUS
 10
335.0986313857
 20
884.1412680756
 11
336.9049280277
 21
884.1412680756
  0
LINE
  5
2B3
100
AcDbEntity
  8
6_ALL_SURFS
100
AcDbLine
 62
7
  6
CONTINUOUS
 10
337.5049280277
 20
884.1412680756
 11
339.9049280277
 21
884.1412680756
  0
LINE
  5
2B4
100
AcDbEntity
  8
6_ALL_SURFS
100
AcDbLine
 62
7
  6
CONTINUOUS
 10
340.5049280277
 20
884.1412680756
 11
342.9049280277
 21
884.1412680756
  0
LINE
  5
2B5
100
AcDbEntity
  8
6_ALL_SURFS
100
AcDbLine
 62
7
  6
CONTINUOUS
 10
343.5049280277
 20
884.1412680756
 11
345.9049280277
 21
884.1412680756
  0
LINE
  5
2B6
100
AcDbEntity
  8
6_ALL_SURFS
100
AcDbLine
 62
7
  6
CONTINUOUS
 10
346.5049280277
 20
884.1412680756
 11
348.9049280277
 21
884.1412680756
  0
LINE
  5
2B7
100
AcDbEntity
  8
6_ALL_SURFS
100
AcDbLine
 62
7
  6
CONTINUOUS
 10
349.5049280277
 20
884.1412680756
 11
351.9049280277
 21
884.1412680756
  0
LINE
  5
2B8
100
AcDbEntity
  8
6_ALL_SURFS
100
AcDbLine
 62
7
  6
CONTINUOUS
 10
352.5049280277
 20
884.1412680756
 11
354.4049280277
 21
884.1412680756
  0
LINE
  5
2B9
100
AcDbEntity
  8
6_ALL_SURFS
100
AcDbLine
 62
7
  6
CONTINUOUS
 10
367.99073971
 20
970.8023338346
 11
368.9658463487
 21
972.4912680756
  0
LINE
  5
2BA
100
AcDbEntity
  8
6_ALL_SURFS
100
AcDbLine
 62
7
  6
CONTINUOUS
 10
359.0170600621
 20
903.8291360413
 11
358.8927959934
 21
903.95340011
  0
LINE
  5
2BB
100
AcDbEntity
  8
6_ALL_SURFS
100
AcDbLine
 62
7
  6
CONTINUOUS
 10
354.6049280277
 20
907.2412680756
 11
354.6049280277
 21
910.0412680756
  0
LINE
  5
2BC
100
AcDbEntity
  8
6_ALL_SURFS
100
AcDbLine
 62
7
  6
CONTINUOUS
 10
354.7049280277
 20
884.4412680756
 11
354.7049280277
 21
894.1532275632
  0
LINE
  5
2BD
100
AcDbEntity
  8
6_ALL_SURFS
100
AcDbLine
 62
7
  6
CONTINUOUS
 10
354.7049280277
 20
897.1331604484
 11
354.7049280277
 21
900.6412680756
  0
LINE
  5
2BE
100
AcDbEntity
  8
6_ALL_SURFS
100
AcDbLine
 62
7
  6
CONTINUOUS
 10
354.9549280277
 20
881.9412680756
 11
354.9549280277
 21
882.8412680756
  0
LINE
  5
2BF
100
AcDbEntity
  8
6_ALL_SURFS
100
AcDbLine
 62
7
  6
CONTINUOUS
 10
356.2049280277
 20
900.523094933
 11
356.2049280277
 21
899.4412680756
  0
LINE
  5
2C0
100
AcDbEntity
  8
6_ALL_SURFS
100
AcDbLine
 62
7
  6
CONTINUOUS
 10
356.2049280277
 20
897.189431798
 11
356.2049280277
 21
896.5263700924
  0
LINE
  5
2C1
100
AcDbEntity
  8
6_ALL_SURFS
100
AcDbLine
 62
7
  6
CONTINUOUS
 10
356.2049280277
 20
894.7600179192
 11
356.2049280277
 21
881.9412680756
  0
LINE
  5
2C2
100
AcDbEntity
  8
7_ALL_FEATURES
100
AcDbLine
 62
7
  6
CONTINUOUS
 10
356.3549280277
 20
897.4412680756
 11
356.3549280277
 21
896.8412680756
  0
LINE
  5
2C3
100
AcDbEntity
  8
6_ALL_SURFS
100
AcDbLine
 62
7
  6
CONTINUOUS
 10
357.6236782666
 20
948.1017778641
 11
361.6103120966
 21
966.0662389501
  0
LINE
  5
2C4
100
AcDbEntity
  8
6_ALL_SURFS
100
AcDbLine
 62
7
  6
CONTINUOUS
 10
363.0680080649
 20
965.2495917005
 11
359.1592350509
 21
947.6359849085
  0
LINE
  5
2C5
100
AcDbEntity
  8
6_ALL_SURFS
100
AcDbLine
 62
7
  6
CONTINUOUS
 10
359.7523219847
 20
946.823215857
 11
359.2255427862
 21
945.3759019039
  0
LINE
  5
2C6
100
AcDbEntity
  8
6_ALL_SURFS
100
AcDbLine
 62
7
  6
CONTINUOUS
 10
357.2049280277
 20
904.0312287068
 11
357.2049280277
 21
905.4412680756
  0
LINE
  5
2C7
100
AcDbEntity
  8
6_ALL_SURFS
100
AcDbLine
 62
7
  6
CONTINUOUS
 10
357.5049280277
 20
911.8412680756
 11
357.5049280277
 21
947.0185416158
  0
LINE
  5
2C8
100
AcDbEntity
  8
7_ALL_FEATURES
100
AcDbLine
 62
7
  6
CONTINUOUS
 10
357.6049280277
 20
898.4612680756
 11
357.6049280277
 21
897.8412680756
  0
LINE
  5
2C9
100
AcDbEntity
  8
7_ALL_FEATURES
100
AcDbLine
 62
7
  6
CONTINUOUS
 10
358.4049280277
 20
898.3412680756
 11
358.4049280277
 21
898.4612680756
  0
LINE
  5
2CA
100
AcDbEntity
  8
6_ALL_SURFS
100
AcDbLine
 62
7
  6
CONTINUOUS
 10
358.8049280277
 20
904.1655321444
 11
358.8049280277
 21
905.7170040069
  0
LINE
  5
2CB
100
AcDbEntity
  8
6_ALL_SURFS
100
AcDbLine
 62
7
  6
CONTINUOUS
 10
359.1049280277
 20
944.6918616172
 11
359.1049280277
 21
909.7382335871
  0
LINE
  5
2CC
100
AcDbEntity
  8
6_ALL_SURFS
100
AcDbLine
 62
7
  6
CONTINUOUS
 10
359.1049280277
 20
907.5443025642
 11
359.1049280277
 21
906.2655321444
  0
LINE
  5
2CD
100
AcDbEntity
  8
6_ALL_SURFS
100
AcDbLine
 62
7
  6
CONTINUOUS
 10
359.1049280277
 20
903.6170040069
 11
359.1049280277
 21
902.4412680756
  0
LINE
  5
2CE
100
AcDbEntity
  8
7_ALL_FEATURES
100
AcDbLine
 62
7
  6
CONTINUOUS
 10
388.1549280277
 20
970.6412680756
 11
387.9549280277
 21
970.4412680756
  0
LINE
  5
2CF
100
AcDbEntity
  8
7_ALL_FEATURES
100
AcDbLine
 62
7
  6
CONTINUOUS
 10
356.5549280277
 20
896.6412680756
 11
422.7549280277
 21
896.6412680756
  0
LINE
  5
2D0
100
AcDbEntity
  8
7_ALL_FEATURES
100
AcDbLine
 62
7
  6
CONTINUOUS
 10
422.7549280277
 20
897.6412680756
 11
421.9049280277
 21
897.6412680756
  0
LINE
  5
2D1
100
AcDbEntity
  8
7_ALL_FEATURES
100
AcDbLine
 62
7
  6
CONTINUOUS
 10
357.4049280277
 20
897.6412680756
 11
356.5549280277
 21
897.6412680756
  0
LINE
  5
2D2
100
AcDbEntity
  8
7_ALL_FEATURES
100
AcDbLine
 62
7
  6
CONTINUOUS
 10
420.7049280277
 20
898.1412680756
 11
358.6049280277
 21
898.1412680756
  0
LINE
  5
2D3
100
AcDbEntity
  8
7_ALL_FEATURES
100
AcDbLine
 62
7
  6
CONTINUOUS
 10
422.8049280277
 20
899.1412680756
 11
422.0909329804
 21
899.1412680756
  0
LINE
  5
2D4
100
AcDbEntity
  8
6_ALL_SURFS
100
AcDbLine
 62
7
  6
CONTINUOUS
 10
356.5049280277
 20
899.1412680756
 11
357.2189230751
 21
899.1412680756
  0
LINE
  5
2D5
100
AcDbEntity
  8
6_ALL_SURFS
100
AcDbLine
 62
7
  6
CONTINUOUS
 10
358.8659937866
 20
907.8554563934
 11
358.9549280277
 21
907.8041101853
  0
LINE
  5
2D6
100
AcDbEntity
  8
6_ALL_SURFS
100
AcDbLine
 62
7
  6
CONTINUOUS
 10
362.8970441952
 20
971.6412680756
 11
362.8970441952
 21
972.3412680756
  0
LINE
  5
2D7
100
AcDbEntity
  8
6_ALL_SURFS
100
AcDbLine
 62
7
  6
CONTINUOUS
 10
358.8049280277
 20
902.1412680756
 11
357.7341443694
 21
902.1412680756
  0
LINE
  5
2D8
100
AcDbEntity
  8
7_ALL_FEATURES
100
AcDbLine
 62
7
  6
CONTINUOUS
 10
420.5049280277
 20
902.1412680756
 11
421.575711686
 21
902.1412680756
  0
LINE
  5
2D9
100
AcDbEntity
  8
6_ALL_SURFS
100
AcDbLine
 62
7
  6
CONTINUOUS
 10
370.0049280277
 20
972.3412680756
 11
370.0049280277
 21
969.3912680756
  0
LINE
  5
2DA
100
AcDbEntity
  8
6_ALL_SURFS
100
AcDbLine
 62
7
  6
CONTINUOUS
 10
356.9049280277
 20
905.7412680756
 11
356.1049280277
 21
905.7412680756
  0
LINE
  5
2DB
100
AcDbEntity
  8
7_ALL_FEATURES
100
AcDbLine
 62
7
  6
CONTINUOUS
 10
422.4049280277
 20
905.7412680756
 11
423.2049280277
 21
905.7412680756
  0
LINE
  5
2DC
100
AcDbEntity
  8
6_ALL_SURFS
100
AcDbLine
 62
7
  6
CONTINUOUS
 10
427.4049280277
 20
884.1412680756
 11
427.1049280277
 21
884.2912680756
  0
LINE
  5
2DD
100
AcDbEntity
  8
6_ALL_SURFS
100
AcDbLine
 62
7
  6
CONTINUOUS
 10
430.4049280277
 20
884.1412680756
 11
430.1049280277
 21
884.2912680756
  0
LINE
  5
2DE
100
AcDbEntity
  8
6_ALL_SURFS
100
AcDbLine
 62
7
  6
CONTINUOUS
 10
433.4049280277
 20
884.1412680756
 11
433.1049280277
 21
884.2912680756
  0
LINE
  5
2DF
100
AcDbEntity
  8
7_ALL_FEATURES
100
AcDbLine
 62
7
  6
CONTINUOUS
 10
423.2049280277
 20
911.5412680756
 11
422.1049280277
 21
911.5412680756
  0
LINE
  5
2E0
100
AcDbEntity
  8
6_ALL_SURFS
100
AcDbLine
 62
7
  6
CONTINUOUS
 10
356.1049280277
 20
911.5412680756
 11
357.2049280277
 21
911.5412680756
  0
LINE
  5
2E1
100
AcDbEntity
  8
6_ALL_SURFS
100
AcDbLine
 62
7
  6
CONTINUOUS
 10
436.4049280277
 20
884.1412680756
 11
436.1049280277
 21
884.2912680756
  0
LINE
  5
2E2
100
AcDbEntity
  8
6_ALL_SURFS
100
AcDbLine
 62
7
  6
CONTINUOUS
 10
439.4049280277
 20
884.1412680756
 11
439.1049280277
 21
884.2912680756
  0
LINE
  5
2E3
100
AcDbEntity
  8
6_ALL_SURFS
100
AcDbLine
 62
7
  6
CONTINUOUS
 10
442.4049280277
 20
884.1412680756
 11
442.1049280277
 21
884.2912680756
  0
LINE
  5
2E4
100
AcDbEntity
  8
7_ALL_FEATURES
100
AcDbLine
 62
7
  6
CONTINUOUS
 10
382.1549280277
 20
965.6412680756
 11
382.1549280277
 21
964.6412680756
  0
LINE
  5
2E5
100
AcDbEntity
  8
6_ALL_SURFS
100
AcDbLine
 62
7
  6
CONTINUOUS
 10
357.3775937432
 20
898.8195157898
 11
356.2669220256
 21
897.3720602267
  0
LINE
  5
2E6
100
AcDbEntity
  8
6_ALL_SURFS
100
AcDbLine
 62
7
  6
CONTINUOUS
 10
355.1078974753
 20
901.6642656157
 11
357.1243341382
 21
903.8266291988
  0
LINE
  5
2E7
100
AcDbEntity
  8
6_ALL_SURFS
100
AcDbLine
 62
7
  6
CONTINUOUS
 10
357.5147382589
 20
902.0458675837
 11
356.2855219172
 21
900.727694441
  0
LINE
  5
2E8
100
AcDbEntity
  8
3_ALL_AXES
100
AcDbLine
 62
7
  6
CONTINUOUS
 10
357.3231749366
 20
901.2140674197
 11
356.9587471234
 21
900.8232664357
  0
LINE
  5
2E9
100
AcDbEntity
  8
3_ALL_AXES
100
AcDbLine
 62
7
  6
CONTINUOUS
 10
357.5438300847
 20
900.2776677477
 11
357.9082578979
 21
900.6684687316
  0
LINE
  5
2EA
100
AcDbEntity
  8
6_ALL_SURFS
100
AcDbLine
 62
7
  6
CONTINUOUS
 10
358.8927959934
 20
905.9291360413
 11
359.0170600621
 21
906.05340011
  0
LINE
  5
2EB
100
AcDbEntity
  8
7_ALL_FEATURES
100
AcDbLine
 62
7
  6
CONTINUOUS
 10
419.9603520619
 20
947.2890829474
 11
419.736835814
 21
947.2077296862
  0
LINE
  5
2EC
100
AcDbEntity
  8
7_ALL_FEATURES
100
AcDbLine
 62
7
  6
CONTINUOUS
 10
385.6549280277
 20
962.6130648454
 11
385.6549280277
 21
964.6412680756
  0
LINE
  5
2ED
100
AcDbEntity
  8
6_ALL_SURFS
100
AcDbLine
 62
7
  6
CONTINUOUS
 10
386.0549280277
 20
967.5412680756
 11
386.0549280277
 21
971.1412680756
  0
LINE
  5
2EE
100
AcDbEntity
  8
7_ALL_FEATURES
100
AcDbLine
 62
7
  6
CONTINUOUS
 10
387.6549280277
 20
961.7953013832
 11
387.6549280277
 21
961.8114556588
  0
LINE
  5
2EF
100
AcDbEntity
  8
6_ALL_SURFS
100
AcDbLine
 62
7
  6
CONTINUOUS
 10
387.9549280277
 20
970.7412680756
 11
387.9549280277
 21
965.9412680756
  0
LINE
  5
2F0
100
AcDbEntity
  8
7_ALL_FEATURES
100
AcDbLine
 62
7
  6
CONTINUOUS
 10
389.1549280277
 20
961.5725793504
 11
389.1549280277
 21
961.8114556588
  0
LINE
  5
2F1
100
AcDbEntity
  8
7_ALL_FEATURES
100
AcDbLine
 62
7
  6
CONTINUOUS
 10
390.1549280277
 20
961.8114556588
 11
390.1549280277
 21
961.5725793504
  0
LINE
  5
2F2
100
AcDbEntity
  8
7_ALL_FEATURES
100
AcDbLine
 62
7
  6
CONTINUOUS
 10
413.8658463488
 20
972.4912680756
 11
412.89073971
 21
970.8023338345
  0
LINE
  5
2F3
100
AcDbEntity
  8
6_ALL_SURFS
100
AcDbLine
 62
7
  6
CONTINUOUS
 10
358.9549280277
 20
909.478425966
 11
358.8659937866
 21
909.4270797579
  0
LINE
  5
2F4
100
AcDbEntity
  8
7_ALL_FEATURES
100
AcDbLine
 62
7
  6
CONTINUOUS
 10
420.3549280277
 20
909.478425966
 11
420.4438622689
 21
909.4270797579
  0
LINE
  5
2F5
100
AcDbEntity
  8
7_ALL_FEATURES
100
AcDbLine
 62
7
  6
CONTINUOUS
 10
391.3549280277
 20
970.7412680756
 11
391.3549280277
 21
965.9412680756
  0
LINE
  5
2F6
100
AcDbEntity
  8
7_ALL_FEATURES
100
AcDbLine
 62
7
  6
CONTINUOUS
 10
391.6549280277
 20
961.8114556588
 11
391.6549280277
 21
961.7953013832
  0
LINE
  5
2F7
100
AcDbEntity
  8
7_ALL_FEATURES
100
AcDbLine
 62
7
  6
CONTINUOUS
 10
393.2549280277
 20
967.5412680756
 11
393.2549280277
 21
971.1412680756
  0
LINE
  5
2F8
100
AcDbEntity
  8
7_ALL_FEATURES
100
AcDbLine
 62
7
  6
CONTINUOUS
 10
393.6549280277
 20
962.6130648454
 11
393.6549280277
 21
964.6412680756
  0
LINE
  5
2F9
100
AcDbEntity
  8
3_ALL_AXES
100
AcDbLine
 62
7
  6
CONTINUOUS
 10
421.4015981575
 20
900.6684687316
 11
421.7660259708
 21
900.2776677477
  0
LINE
  5
2FA
100
AcDbEntity
  8
6_ALL_SURFS
100
AcDbLine
 62
7
  6
CONTINUOUS
 10
365.4440097066
 20
972.4912680756
 11
366.4191163454
 21
970.8023338345
  0
LINE
  5
2FB
100
AcDbEntity
  8
7_ALL_FEATURES
100
AcDbLine
 62
7
  6
CONTINUOUS
 10
397.1549280277
 20
964.6412680756
 11
397.1549280277
 21
965.6412680756
  0
LINE
  5
2FC
100
AcDbEntity
  8
6_ALL_SURFS
100
AcDbLine
 62
7
  6
CONTINUOUS
 10
359.3495039936
 20
947.2890829474
 11
359.5730202415
 21
947.2077296862
  0
LINE
  5
2FD
100
AcDbEntity
  8
7_ALL_FEATURES
100
AcDbLine
 62
7
  6
CONTINUOUS
 10
420.4170600621
 20
905.9291360413
 11
420.2927959934
 21
906.05340011
  0
LINE
  5
2FE
100
AcDbEntity
  8
3_ALL_AXES
100
AcDbLine
 62
7
  6
CONTINUOUS
 10
422.3511089321
 20
900.8232664357
 11
421.9866811188
 21
901.2140674197
  0
LINE
  5
2FF
100
AcDbEntity
  8
7_ALL_FEATURES
100
AcDbLine
 62
7
  6
CONTINUOUS
 10
421.7951177965
 20
902.0458675837
 11
423.0243341382
 21
900.727694441
  0
LINE
  5
300
100
AcDbEntity
  8
7_ALL_FEATURES
100
AcDbLine
 62
7
  6
CONTINUOUS
 10
424.2019585802
 20
901.6642656157
 11
422.1855219172
 21
903.8266291988
  0
LINE
  5
301
100
AcDbEntity
  8
7_ALL_FEATURES
100
AcDbLine
 62
7
  6
CONTINUOUS
 10
421.9322623123
 20
898.8195157898
 11
423.0429340298
 21
897.3720602267
  0
LINE
  5
302
100
AcDbEntity
  8
6_ALL_SURFS
100
AcDbLine
 62
7
  6
CONTINUOUS
 10
336.9049280277
 20
884.1412680756
 11
337.2049280277
 21
884.2912680756
  0
LINE
  5
303
100
AcDbEntity
  8
7_ALL_FEATURES
100
AcDbLine
 62
7
  6
CONTINUOUS
 10
409.3049280277
 20
972.3412680756
 11
409.3049280277
 21
969.3912680756
  0
LINE
  5
304
100
AcDbEntity
  8
6_ALL_SURFS
100
AcDbLine
 62
7
  6
CONTINUOUS
 10
339.9049280277
 20
884.1412680756
 11
340.2049280277
 21
884.2912680756
  0
LINE
  5
305
100
AcDbEntity
  8
6_ALL_SURFS
100
AcDbLine
 62
7
  6
CONTINUOUS
 10
342.9049280277
 20
884.1412680756
 11
343.2049280277
 21
884.2912680756
  0
LINE
  5
306
100
AcDbEntity
  8
6_ALL_SURFS
100
AcDbLine
 62
7
  6
CONTINUOUS
 10
345.9049280277
 20
884.1412680756
 11
346.2049280277
 21
884.2912680756
  0
LINE
  5
307
100
AcDbEntity
  8
6_ALL_SURFS
100
AcDbLine
 62
7
  6
CONTINUOUS
 10
348.9049280277
 20
884.1412680756
 11
349.2049280277
 21
884.2912680756
  0
LINE
  5
308
100
AcDbEntity
  8
6_ALL_SURFS
100
AcDbLine
 62
7
  6
CONTINUOUS
 10
351.9049280277
 20
884.1412680756
 11
352.2049280277
 21
884.2912680756
  0
LINE
  5
309
100
AcDbEntity
  8
7_ALL_FEATURES
100
AcDbLine
 62
7
  6
CONTINUOUS
 10
416.4128118602
 20
971.6412680756
 11
416.4128118602
 21
972.3412680756
  0
LINE
  5
30A
100
AcDbEntity
  8
7_ALL_FEATURES
100
AcDbLine
 62
7
  6
CONTINUOUS
 10
420.2049280277
 20
944.6918616172
 11
420.2049280277
 21
909.7382335871
  0
LINE
  5
30B
100
AcDbEntity
  8
7_ALL_FEATURES
100
AcDbLine
 62
7
  6
CONTINUOUS
 10
420.2049280277
 20
907.5443025642
 11
420.2049280277
 21
906.2655321444
  0
LINE
  5
30C
100
AcDbEntity
  8
7_ALL_FEATURES
100
AcDbLine
 62
7
  6
CONTINUOUS
 10
420.2049280277
 20
903.6170040069
 11
420.2049280277
 21
902.4412680756
  0
LINE
  5
30D
100
AcDbEntity
  8
7_ALL_FEATURES
100
AcDbLine
 62
7
  6
CONTINUOUS
 10
420.5049280277
 20
904.1655321444
 11
420.5049280277
 21
905.7170040069
  0
LINE
  5
30E
100
AcDbEntity
  8
7_ALL_FEATURES
100
AcDbLine
 62
7
  6
CONTINUOUS
 10
420.9049280277
 20
898.4612680756
 11
420.9049280277
 21
898.3412680756
  0
LINE
  5
30F
100
AcDbEntity
  8
7_ALL_FEATURES
100
AcDbLine
 62
7
  6
CONTINUOUS
 10
421.7049280277
 20
897.8412680756
 11
421.7049280277
 21
898.4612680756
  0
LINE
  5
310
100
AcDbEntity
  8
7_ALL_FEATURES
100
AcDbLine
 62
7
  6
CONTINUOUS
 10
421.8049280277
 20
911.8412680756
 11
421.8049280277
 21
947.0185416158
  0
LINE
  5
311
100
AcDbEntity
  8
7_ALL_FEATURES
100
AcDbLine
 62
7
  6
CONTINUOUS
 10
422.1049280277
 20
904.0312287068
 11
422.1049280277
 21
905.4412680756
  0
LINE
  5
312
100
AcDbEntity
  8
7_ALL_FEATURES
100
AcDbLine
 62
7
  6
CONTINUOUS
 10
422.9549280277
 20
896.8412680756
 11
422.9549280277
 21
897.4412680756
  0
LINE
  5
313
100
AcDbEntity
  8
7_ALL_FEATURES
100
AcDbLine
 62
7
  6
CONTINUOUS
 10
423.1049280277
 20
900.523094933
 11
423.1049280277
 21
899.4412680756
  0
LINE
  5
314
100
AcDbEntity
  8
7_ALL_FEATURES
100
AcDbLine
 62
7
  6
CONTINUOUS
 10
423.1049280277
 20
897.189431798
 11
423.1049280277
 21
896.5263700924
  0
LINE
  5
315
100
AcDbEntity
  8
7_ALL_FEATURES
100
AcDbLine
 62
7
  6
CONTINUOUS
 10
423.1049280277
 20
894.7600179192
 11
423.1049280277
 21
881.9412680756
  0
LINE
  5
316
100
AcDbEntity
  8
7_ALL_FEATURES
100
AcDbLine
 62
7
  6
CONTINUOUS
 10
420.4438622689
 20
907.8554563934
 11
420.3549280277
 21
907.8041101853
  0
LINE
  5
317
100
AcDbEntity
  8
7_ALL_FEATURES
100
AcDbLine
 62
7
  6
CONTINUOUS
 10
391.1549280277
 20
970.6412680756
 11
391.3549280277
 21
970.4412680756
  0
LINE
  5
318
100
AcDbEntity
  8
7_ALL_FEATURES
100
AcDbLine
 62
7
  6
CONTINUOUS
 10
424.3549280277
 20
881.9412680756
 11
424.3549280277
 21
882.8412680756
  0
LINE
  5
319
100
AcDbEntity
  8
7_ALL_FEATURES
100
AcDbLine
 62
7
  6
CONTINUOUS
 10
424.6049280277
 20
884.4412680756
 11
424.6049280277
 21
894.1532275632
  0
LINE
  5
31A
100
AcDbEntity
  8
7_ALL_FEATURES
100
AcDbLine
 62
7
  6
CONTINUOUS
 10
424.6049280277
 20
897.1331604484
 11
424.6049280277
 21
900.6412680756
  0
LINE
  5
31B
100
AcDbEntity
  8
7_ALL_FEATURES
100
AcDbLine
 62
7
  6
CONTINUOUS
 10
424.7049280277
 20
907.2412680756
 11
424.7049280277
 21
910.0412680756
  0
LINE
  5
31C
100
AcDbEntity
  8
7_ALL_FEATURES
100
AcDbLine
 62
7
  6
CONTINUOUS
 10
420.2927959934
 20
903.8291360413
 11
420.4170600621
 21
903.95340011
  0
LINE
  5
31D
100
AcDbEntity
  8
7_ALL_FEATURES
100
AcDbLine
 62
7
  6
CONTINUOUS
 10
393.6549280277
 20
962.6130648454
 11
385.6549280277
 21
962.6130648454
  0
LINE
  5
31E
100
AcDbEntity
  8
7_ALL_FEATURES
100
AcDbLine
 62
7
  6
CONTINUOUS
 10
382.1549280277
 20
964.6412680756
 11
397.1549280277
 21
964.6412680756
  0
LINE
  5
31F
100
AcDbEntity
  8
6_ALL_SURFS
100
AcDbLine
 62
7
  6
CONTINUOUS
 10
387.6549280277
 20
965.6412680756
 11
363.5561330411
 21
965.6412680756
  0
LINE
  5
320
100
AcDbEntity
  8
7_ALL_FEATURES
100
AcDbLine
 62
7
  6
CONTINUOUS
 10
387.6549280277
 20
965.6412680756
 11
415.7537230144
 21
965.6412680756
  0
LINE
  5
321
100
AcDbEntity
  8
7_ALL_FEATURES
100
AcDbLine
 62
7
  6
CONTINUOUS
 10
419.5575340707
 20
946.823215857
 11
420.0843132693
 21
945.3759019039
  0
LINE
  5
322
100
AcDbEntity
  8
7_ALL_FEATURES
100
AcDbLine
 62
7
  6
CONTINUOUS
 10
416.2418479905
 20
965.2495917005
 11
420.1506210046
 21
947.6359849085
  0
LINE
  5
323
100
AcDbEntity
  8
7_ALL_FEATURES
100
AcDbLine
 62
7
  6
CONTINUOUS
 10
421.6861777888
 20
948.1017778641
 11
417.6995439588
 21
966.0662389501
  0
LINE
  5
324
100
AcDbEntity
  8
7_ALL_FEATURES
100
AcDbLine
 62
7
  6
CONTINUOUS
 10
416.2351690305
 20
967.2412680756
 11
414.9628118602
 21
967.2412680756
  0
LINE
  5
325
100
AcDbEntity
  8
7_ALL_FEATURES
100
AcDbLine
 62
7
  6
CONTINUOUS
 10
409.2470441952
 20
967.2412680756
 11
393.5549280277
 21
967.2412680756
  0
LINE
  5
326
100
AcDbEntity
  8
6_ALL_SURFS
100
AcDbLine
 62
7
  6
CONTINUOUS
 10
363.074687025
 20
967.2412680756
 11
364.3470441952
 21
967.2412680756
  0
LINE
  5
327
100
AcDbEntity
  8
6_ALL_SURFS
100
AcDbLine
 62
7
  6
CONTINUOUS
 10
370.0628118602
 20
967.2412680756
 11
385.7549280277
 21
967.2412680756
  0
LINE
  5
328
100
AcDbEntity
  8
7_ALL_FEATURES
100
AcDbLine
 62
7
  6
CONTINUOUS
 10
391.3549280277
 20
970.1412680756
 11
387.9549280277
 21
970.1412680756
  0
LINE
  5
329
100
AcDbEntity
  8
7_ALL_FEATURES
100
AcDbLine
 62
7
  6
CONTINUOUS
 10
411.3191163455
 20
970.8023338346
 11
410.3440097067
 21
972.4912680756
  0
LINE
  5
32A
100
AcDbEntity
  8
7_ALL_FEATURES
100
AcDbLine
 62
7
  6
CONTINUOUS
 10
391.1549280277
 20
970.6412680756
 11
388.1549280277
 21
970.6412680756
  0
LINE
  5
32B
100
AcDbEntity
  8
7_ALL_FEATURES
100
AcDbLine
 62
7
  6
CONTINUOUS
 10
391.0549280277
 20
971.0412680756
 11
388.2549280277
 21
971.0412680756
  0
LINE
  5
32C
100
AcDbEntity
  8
6_ALL_SURFS
100
AcDbLine
 62
7
  6
CONTINUOUS
 10
364.2405562562
 20
971.3412680756
 11
363.1970441952
 21
971.3412680756
  0
LINE
  5
32D
100
AcDbEntity
  8
7_ALL_FEATURES
100
AcDbLine
 62
7
  6
CONTINUOUS
 10
415.0692997993
 20
971.3412680756
 11
416.1128118602
 21
971.3412680756
  0
LINE
  5
32E
100
AcDbEntity
  8
7_ALL_FEATURES
100
AcDbLine
 62
7
  6
CONTINUOUS
 10
416.1128118602
 20
972.6412680756
 11
414.12565397
 21
972.6412680756
  0
LINE
  5
32F
100
AcDbEntity
  8
7_ALL_FEATURES
100
AcDbLine
 62
7
  6
CONTINUOUS
 10
410.0842020856
 20
972.6412680756
 11
409.6049280277
 21
972.6412680756
  0
LINE
  5
330
100
AcDbEntity
  8
6_ALL_SURFS
100
AcDbLine
 62
7
  6
CONTINUOUS
 10
363.1970441952
 20
972.6412680756
 11
365.1842020855
 21
972.6412680756
  0
LINE
  5
331
100
AcDbEntity
  8
6_ALL_SURFS
100
AcDbLine
 62
7
  6
CONTINUOUS
 10
369.2256539699
 20
972.6412680756
 11
369.7049280277
 21
972.6412680756
  0
LINE
  5
332
100
AcDbEntity
  8
7_ALL_FEATURES
100
AcDbLine
 62
7
  6
CONTINUOUS
 10
387.5549280277
 20
972.6412680756
 11
391.7549280277
 21
972.6412680756
  0
LINE
  5
333
100
AcDbEntity
  8
6_ALL_SURFS
100
AcDbLine
 62
7
  6
CONTINUOUS
 10
427.1049280277
 20
884.2912680756
 11
426.8049280277
 21
884.1412680756
  0
LINE
  5
334
100
AcDbEntity
  8
6_ALL_SURFS
100
AcDbLine
 62
7
  6
CONTINUOUS
 10
430.1049280277
 20
884.2912680756
 11
429.8049280277
 21
884.1412680756
  0
LINE
  5
335
100
AcDbEntity
  8
6_ALL_SURFS
100
AcDbLine
 62
7
  6
CONTINUOUS
 10
433.1049280277
 20
884.2912680756
 11
432.8049280277
 21
884.1412680756
  0
LINE
  5
336
100
AcDbEntity
  8
6_ALL_SURFS
100
AcDbLine
 62
7
  6
CONTINUOUS
 10
436.1049280277
 20
884.2912680756
 11
435.8049280277
 21
884.1412680756
  0
LINE
  5
337
100
AcDbEntity
  8
6_ALL_SURFS
100
AcDbLine
 62
7
  6
CONTINUOUS
 10
439.1049280277
 20
884.2912680756
 11
438.8049280277
 21
884.1412680756
  0
LINE
  5
338
100
AcDbEntity
  8
6_ALL_SURFS
100
AcDbLine
 62
7
  6
CONTINUOUS
 10
442.1049280277
 20
884.2912680756
 11
441.8049280277
 21
884.1412680756
  0
LINE
  5
339
100
AcDbEntity
  8
6_ALL_SURFS
100
AcDbLine
 62
7
  6
CONTINUOUS
 10
725.776974416
 20
881.6412680756
 11
725.776974416
 21
884.2912680756
  0
LINE
  5
33A
100
AcDbEntity
  8
6_ALL_SURFS
100
AcDbLine
 62
7
  6
CONTINUOUS
 10
725.776974416
 20
884.4412680756
 11
725.776974416
 21
972.6412680756
  0
LINE
  5
33B
100
AcDbEntity
  8
6_ALL_SURFS
100
AcDbLine
 62
7
  6
CONTINUOUS
 10
2972.776974416
 20
881.6412680756
 11
725.776974416
 21
881.6412680756
  0
LINE
  5
33C
100
AcDbEntity
  8
6_ALL_SURFS
100
AcDbLine
 62
9
  6
CONTINUOUS
 10
2972.776974416
 20
881.9412680756
 11
725.776974416
 21
881.9412680756
  0
LINE
  5
33D
100
AcDbEntity
  8
6_ALL_SURFS
100
AcDbLine
 62
9
  6
CONTINUOUS
 10
725.776974416
 20
882.8412680756
 11
2972.776974416
 21
882.8412680756
  0
LINE
  5
33E
100
AcDbEntity
  8
6_ALL_SURFS
100
AcDbLine
 62
7
  6
CONTINUOUS
 10
725.776974416
 20
883.1412680756
 11
845.9935666223
 21
883.1412680756
  0
LINE
  5
33F
100
AcDbEntity
  8
6_ALL_SURFS
100
AcDbLine
 62
7
  6
CONTINUOUS
 10
846.1456243944
 20
883.1412680756
 11
852.4083244376
 21
883.1412680756
  0
LINE
  5
340
100
AcDbEntity
  8
6_ALL_SURFS
100
AcDbLine
 62
7
  6
CONTINUOUS
 10
852.5603822097
 20
883.1412680756
 11
1095.9935666223
 21
883.1412680756
  0
LINE
  5
341
100
AcDbEntity
  8
6_ALL_SURFS
100
AcDbLine
 62
7
  6
CONTINUOUS
 10
1096.1456243944
 20
883.1412680756
 11
1102.4083244376
 21
883.1412680756
  0
LINE
  5
342
100
AcDbEntity
  8
6_ALL_SURFS
100
AcDbLine
 62
7
  6
CONTINUOUS
 10
1102.5603822097
 20
883.1412680756
 11
1345.9935666223
 21
883.1412680756
  0
LINE
  5
343
100
AcDbEntity
  8
6_ALL_SURFS
100
AcDbLine
 62
7
  6
CONTINUOUS
 10
1346.1456243944
 20
883.1412680756
 11
1352.4083244376
 21
883.1412680756
  0
LINE
  5
344
100
AcDbEntity
  8
6_ALL_SURFS
100
AcDbLine
 62
7
  6
CONTINUOUS
 10
1352.5603822097
 20
883.1412680756
 11
1595.9935666223
 21
883.1412680756
  0
LINE
  5
345
100
AcDbEntity
  8
6_ALL_SURFS
100
AcDbLine
 62
7
  6
CONTINUOUS
 10
1596.1456243944
 20
883.1412680756
 11
1602.4083244376
 21
883.1412680756
  0
LINE
  5
346
100
AcDbEntity
  8
6_ALL_SURFS
100
AcDbLine
 62
7
  6
CONTINUOUS
 10
1602.5603822097
 20
883.1412680756
 11
1845.9935666223
 21
883.1412680756
  0
LINE
  5
347
100
AcDbEntity
  8
6_ALL_SURFS
100
AcDbLine
 62
7
  6
CONTINUOUS
 10
1846.1456243944
 20
883.1412680756
 11
1852.4083244376
 21
883.1412680756
  0
LINE
  5
348
100
AcDbEntity
  8
6_ALL_SURFS
100
AcDbLine
 62
7
  6
CONTINUOUS
 10
1852.5603822097
 20
883.1412680756
 11
2095.9935666223
 21
883.1412680756
  0
LINE
  5
349
100
AcDbEntity
  8
6_ALL_SURFS
100
AcDbLine
 62
7
  6
CONTINUOUS
 10
2096.1456243944
 20
883.1412680756
 11
2102.4083244376
 21
883.1412680756
  0
LINE
  5
34A
100
AcDbEntity
  8
6_ALL_SURFS
100
AcDbLine
 62
7
  6
CONTINUOUS
 10
2102.5603822097
 20
883.1412680756
 11
2345.9935666223
 21
883.1412680756
  0
LINE
  5
34B
100
AcDbEntity
  8
6_ALL_SURFS
100
AcDbLine
 62
7
  6
CONTINUOUS
 10
2346.1456243944
 20
883.1412680756
 11
2352.4083244376
 21
883.1412680756
  0
LINE
  5
34C
100
AcDbEntity
  8
6_ALL_SURFS
100
AcDbLine
 62
7
  6
CONTINUOUS
 10
2352.5603822097
 20
883.1412680756
 11
2595.9935666223
 21
883.1412680756
  0
LINE
  5
34D
100
AcDbEntity
  8
6_ALL_SURFS
100
AcDbLine
 62
7
  6
CONTINUOUS
 10
2596.1456243944
 20
883.1412680756
 11
2602.4083244376
 21
883.1412680756
  0
LINE
  5
34E
100
AcDbEntity
  8
6_ALL_SURFS
100
AcDbLine
 62
7
  6
CONTINUOUS
 10
2602.5603822097
 20
883.1412680756
 11
2845.9935666223
 21
883.1412680756
  0
LINE
  5
34F
100
AcDbEntity
  8
6_ALL_SURFS
100
AcDbLine
 62
7
  6
CONTINUOUS
 10
2846.1456243944
 20
883.1412680756
 11
2852.4083244376
 21
883.1412680756
  0
LINE
  5
350
100
AcDbEntity
  8
6_ALL_SURFS
100
AcDbLine
 62
7
  6
CONTINUOUS
 10
2852.5603822097
 20
883.1412680756
 11
2972.776974416
 21
883.1412680756
  0
LINE
  5
351
100
AcDbEntity
  8
6_ALL_SURFS
100
AcDbLine
 62
9
  6
CONTINUOUS
 10
725.776974416
 20
883.3558152347
 11
2972.776974416
 21
883.3558152347
  0
LINE
  5
352
100
AcDbEntity
  8
6_ALL_SURFS
100
AcDbLine
 62
7
  6
CONTINUOUS
 10
725.776974416
 20
884.1412680756
 11
2972.776974416
 21
884.1412680756
  0
LINE
  5
353
100
AcDbEntity
  8
6_ALL_SURFS
100
AcDbLine
 62
7
  6
CONTINUOUS
 10
725.776974416
 20
884.2912680756
 11
2972.776974416
 21
884.2912680756
  0
LINE
  5
354
100
AcDbEntity
  8
6_ALL_SURFS
100
AcDbLine
 62
9
  6
CONTINUOUS
 10
725.776974416
 20
884.4412680756
 11
2972.776974416
 21
884.4412680756
  0
LINE
  5
355
100
AcDbEntity
  8
6_ALL_SURFS
100
AcDbLine
 62
7
  6
CONTINUOUS
 10
725.776974416
 20
894.1532275632
 11
2972.776974416
 21
894.1532275632
  0
LINE
  5
356
100
AcDbEntity
  8
6_ALL_SURFS
100
AcDbLine
 62
7
  6
CONTINUOUS
 10
725.776974416
 20
897.1331604484
 11
2972.776974416
 21
897.1331604484
  0
LINE
  5
357
100
AcDbEntity
  8
6_ALL_SURFS
100
AcDbLine
 62
9
  6
CONTINUOUS
 10
2972.776974416
 20
900.6412680756
 11
725.776974416
 21
900.6412680756
  0
LINE
  5
358
100
AcDbEntity
  8
6_ALL_SURFS
100
AcDbLine
 62
9
  6
CONTINUOUS
 10
2972.776974416
 20
901.6642656157
 11
725.776974416
 21
901.6642656157
  0
LINE
  5
359
100
AcDbEntity
  8
6_ALL_SURFS
100
AcDbLine
 62
9
  6
CONTINUOUS
 10
725.776974416
 20
903.8266291988
 11
2972.776974416
 21
903.8266291988
  0
LINE
  5
35A
100
AcDbEntity
  8
6_ALL_SURFS
100
AcDbLine
 62
9
  6
CONTINUOUS
 10
725.776974416
 20
904.0312287068
 11
2972.776974416
 21
904.0312287068
  0
LINE
  5
35B
100
AcDbEntity
  8
6_ALL_SURFS
100
AcDbLine
 62
9
  6
CONTINUOUS
 10
725.776974416
 20
905.4412680756
 11
2972.776974416
 21
905.4412680756
  0
LINE
  5
35C
100
AcDbEntity
  8
6_ALL_SURFS
100
AcDbLine
 62
7
  6
CONTINUOUS
 10
2972.776974416
 20
905.7412680756
 11
725.776974416
 21
905.7412680756
  0
LINE
  5
35D
100
AcDbEntity
  8
6_ALL_SURFS
100
AcDbLine
 62
9
  6
CONTINUOUS
 10
2972.776974416
 20
907.2412680756
 11
725.776974416
 21
907.2412680756
  0
LINE
  5
35E
100
AcDbEntity
  8
6_ALL_SURFS
100
AcDbLine
 62
9
  6
CONTINUOUS
 10
2972.776974416
 20
910.0412680756
 11
725.776974416
 21
910.0412680756
  0
LINE
  5
35F
100
AcDbEntity
  8
6_ALL_SURFS
100
AcDbLine
 62
7
  6
CONTINUOUS
 10
2972.776974416
 20
911.5412680756
 11
725.776974416
 21
911.5412680756
  0
LINE
  5
360
100
AcDbEntity
  8
6_ALL_SURFS
100
AcDbLine
 62
9
  6
CONTINUOUS
 10
725.776974416
 20
911.8412680756
 11
2972.776974416
 21
911.8412680756
  0
LINE
  5
361
100
AcDbEntity
  8
6_ALL_SURFS
100
AcDbLine
 62
9
  6
CONTINUOUS
 10
2972.776974416
 20
947.0185416158
 11
725.776974416
 21
947.0185416158
  0
LINE
  5
362
100
AcDbEntity
  8
6_ALL_SURFS
100
AcDbLine
 62
9
  6
CONTINUOUS
 10
2972.776974416
 20
948.1017778641
 11
725.776974416
 21
948.1017778641
  0
LINE
  5
363
100
AcDbEntity
  8
6_ALL_SURFS
100
AcDbLine
 62
9
  6
CONTINUOUS
 10
2972.776974416
 20
966.0662389501
 11
725.776974416
 21
966.0662389501
  0
LINE
  5
364
100
AcDbEntity
  8
6_ALL_SURFS
100
AcDbLine
 62
7
  6
CONTINUOUS
 10
2972.776974416
 20
967.2412680756
 11
725.776974416
 21
967.2412680756
  0
LINE
  5
365
100
AcDbEntity
  8
6_ALL_SURFS
100
AcDbLine
 62
9
  6
CONTINUOUS
 10
725.776974416
 20
967.9912680756
 11
2972.776974416
 21
967.9912680756
  0
LINE
  5
366
100
AcDbEntity
  8
6_ALL_SURFS
100
AcDbLine
 62
9
  6
CONTINUOUS
 10
725.776974416
 20
970.6215711059
 11
2972.776974416
 21
970.6215711059
  0
LINE
  5
367
100
AcDbEntity
  8
6_ALL_SURFS
100
AcDbLine
 62
7
  6
CONTINUOUS
 10
2972.776974416
 20
971.3412680756
 11
725.776974416
 21
971.3412680756
  0
LINE
  5
368
100
AcDbEntity
  8
6_ALL_SURFS
100
AcDbLine
 62
9
  6
CONTINUOUS
 10
2972.776974416
 20
971.6412680756
 11
725.776974416
 21
971.6412680756
  0
LINE
  5
369
100
AcDbEntity
  8
6_ALL_SURFS
100
AcDbLine
 62
9
  6
CONTINUOUS
 10
2972.776974416
 20
972.3412680756
 11
725.776974416
 21
972.3412680756
  0
LINE
  5
36A
100
AcDbEntity
  8
6_ALL_SURFS
100
AcDbLine
 62
7
  6
CONTINUOUS
 10
2972.776974416
 20
972.6412680756
 11
725.776974416
 21
972.6412680756
  0
LINE
  5
36B
100
AcDbEntity
  8
6_ALL_SURFS
100
AcDbLine
 62
7
  6
CONTINUOUS
 10
2972.776974416
 20
881.6412680756
 11
2972.776974416
 21
884.2912680756
  0
LINE
  5
36C
100
AcDbEntity
  8
6_ALL_SURFS
100
AcDbLine
 62
7
  6
CONTINUOUS
 10
2972.776974416
 20
884.3636223621
 11
2972.776974416
 21
972.6412680756
  0
LINE
  5
36D
100
AcDbEntity
  8
6_ALL_SURFS
100
AcDbLine
 62
7
  6
CONTINUOUS
 10
725.776974416
 20
1199.3352277009
 11
725.776974416
 21
1184.0352277009
  0
LINE
  5
36E
100
AcDbEntity
  8
7_ALL_FEATURES
100
AcDbLine
 62
7
  6
CONTINUOUS
 10
725.776974416
 20
1181.5352429172
 11
725.776974416
 21
1184.0352277009
  0
LINE
  5
36F
100
AcDbEntity
  8
7_ALL_FEATURES
100
AcDbLine
 62
7
  6
CONTINUOUS
 10
725.776974416
 20
1199.3352277009
 11
725.776974416
 21
1203.0352277009
  0
LINE
  5
370
100
AcDbEntity
  8
7_ALL_FEATURES
100
AcDbLine
 62
7
  6
CONTINUOUS
 10
725.776974416
 20
1203.0972216988
 11
725.776974416
 21
1205.9352277009
  0
LINE
  5
371
100
AcDbEntity
  8
7_ALL_FEATURES
100
AcDbLine
 62
7
  6
CONTINUOUS
 10
725.776974416
 20
1205.9487509854
 11
725.776974416
 21
1237.8852277009
  0
LINE
  5
372
100
AcDbEntity
  8
6_ALL_SURFS
100
AcDbLine
 62
7
  6
CONTINUOUS
 10
725.776974416
 20
1237.8852277009
 11
725.776974416
 21
1267.0217044163
  0
LINE
  5
373
100
AcDbEntity
  8
6_ALL_SURFS
100
AcDbLine
 62
7
  6
CONTINUOUS
 10
725.776974416
 20
1267.0352277009
 11
725.776974416
 21
1269.8732337029
  0
LINE
  5
374
100
AcDbEntity
  8
6_ALL_SURFS
100
AcDbLine
 62
7
  6
CONTINUOUS
 10
725.776974416
 20
1269.9352277009
 11
725.776974416
 21
1291.4352124845
  0
LINE
  5
375
100
AcDbEntity
  8
7_ALL_FEATURES
100
AcDbLine
 62
7
  6
CONTINUOUS
 10
727.026974416
 20
1203.1852277009
 11
727.026974416
 21
1269.7852277009
  0
LINE
  5
376
100
AcDbEntity
  8
7_ALL_FEATURES
100
AcDbLine
 62
7
  6
CONTINUOUS
 10
725.776974416
 20
1181.5352277009
 11
2972.776974416
 21
1181.5352277009
  0
LINE
  5
377
100
AcDbEntity
  8
7_ALL_FEATURES
100
AcDbLine
 62
9
  6
CONTINUOUS
 10
725.776974416
 20
1181.8897561105
 11
2972.776974416
 21
1181.8897561105
  0
LINE
  5
378
100
AcDbEntity
  8
7_ALL_FEATURES
100
AcDbLine
 62
7
  6
CONTINUOUS
 10
725.776974416
 20
1184.0352277009
 11
845.9935666223
 21
1184.0352277009
  0
LINE
  5
379
100
AcDbEntity
  8
7_ALL_FEATURES
100
AcDbLine
 62
7
  6
CONTINUOUS
 10
852.5603822097
 20
1184.0352277009
 11
1095.9935666223
 21
1184.0352277009
  0
LINE
  5
37A
100
AcDbEntity
  8
7_ALL_FEATURES
100
AcDbLine
 62
7
  6
CONTINUOUS
 10
1102.5603822097
 20
1184.0352277009
 11
1345.9935666223
 21
1184.0352277009
  0
LINE
  5
37B
100
AcDbEntity
  8
7_ALL_FEATURES
100
AcDbLine
 62
7
  6
CONTINUOUS
 10
1352.5603822097
 20
1184.0352277009
 11
1595.9935666223
 21
1184.0352277009
  0
LINE
  5
37C
100
AcDbEntity
  8
7_ALL_FEATURES
100
AcDbLine
 62
7
  6
CONTINUOUS
 10
1602.5603822097
 20
1184.0352277009
 11
1845.9935666223
 21
1184.0352277009
  0
LINE
  5
37D
100
AcDbEntity
  8
7_ALL_FEATURES
100
AcDbLine
 62
7
  6
CONTINUOUS
 10
1852.5603822097
 20
1184.0352277009
 11
2095.9935666223
 21
1184.0352277009
  0
LINE
  5
37E
100
AcDbEntity
  8
7_ALL_FEATURES
100
AcDbLine
 62
7
  6
CONTINUOUS
 10
2102.5603822097
 20
1184.0352277009
 11
2345.9935666223
 21
1184.0352277009
  0
LINE
  5
37F
100
AcDbEntity
  8
7_ALL_FEATURES
100
AcDbLine
 62
7
  6
CONTINUOUS
 10
2352.5603822097
 20
1184.0352277009
 11
2595.9935666223
 21
1184.0352277009
  0
LINE
  5
380
100
AcDbEntity
  8
7_ALL_FEATURES
100
AcDbLine
 62
7
  6
CONTINUOUS
 10
2602.5603822097
 20
1184.0352277009
 11
2845.9935666223
 21
1184.0352277009
  0
LINE
  5
381
100
AcDbEntity
  8
7_ALL_FEATURES
100
AcDbLine
 62
7
  6
CONTINUOUS
 10
2852.5603822097
 20
1184.0352277009
 11
2972.776974416
 21
1184.0352277009
  0
LINE
  5
382
100
AcDbEntity
  8
7_ALL_FEATURES
100
AcDbLine
 62
7
  6
CONTINUOUS
 10
725.776974416
 20
1186.7352277009
 11
844.5450861312
 21
1186.7352277009
  0
LINE
  5
383
100
AcDbEntity
  8
7_ALL_FEATURES
100
AcDbLine
 62
7
  6
CONTINUOUS
 10
854.0088627008
 20
1186.7352277009
 11
1094.5450861312
 21
1186.7352277009
  0
LINE
  5
384
100
AcDbEntity
  8
7_ALL_FEATURES
100
AcDbLine
 62
7
  6
CONTINUOUS
 10
1104.0088627008
 20
1186.7352277009
 11
1344.5450861312
 21
1186.7352277009
  0
LINE
  5
385
100
AcDbEntity
  8
7_ALL_FEATURES
100
AcDbLine
 62
7
  6
CONTINUOUS
 10
1354.0088627008
 20
1186.7352277009
 11
1594.5450861312
 21
1186.7352277009
  0
LINE
  5
386
100
AcDbEntity
  8
7_ALL_FEATURES
100
AcDbLine
 62
7
  6
CONTINUOUS
 10
1604.0088627008
 20
1186.7352277009
 11
1844.5450861312
 21
1186.7352277009
  0
LINE
  5
387
100
AcDbEntity
  8
7_ALL_FEATURES
100
AcDbLine
 62
7
  6
CONTINUOUS
 10
1854.0088627008
 20
1186.7352277009
 11
2094.5450861312
 21
1186.7352277009
  0
LINE
  5
388
100
AcDbEntity
  8
7_ALL_FEATURES
100
AcDbLine
 62
7
  6
CONTINUOUS
 10
2104.0088627008
 20
1186.7352277009
 11
2344.5450861312
 21
1186.7352277009
  0
LINE
  5
389
100
AcDbEntity
  8
7_ALL_FEATURES
100
AcDbLine
 62
7
  6
CONTINUOUS
 10
2354.0088627008
 20
1186.7352277009
 11
2594.5450861312
 21
1186.7352277009
  0
LINE
  5
38A
100
AcDbEntity
  8
7_ALL_FEATURES
100
AcDbLine
 62
7
  6
CONTINUOUS
 10
2604.0088627008
 20
1186.7352277009
 11
2844.5450861312
 21
1186.7352277009
  0
LINE
  5
38B
100
AcDbEntity
  8
7_ALL_FEATURES
100
AcDbLine
 62
7
  6
CONTINUOUS
 10
2854.0088627008
 20
1186.7352277009
 11
2972.776974416
 21
1186.7352277009
  0
LINE
  5
38C
100
AcDbEntity
  8
7_ALL_FEATURES
100
AcDbLine
 62
7
  6
CONTINUOUS
 10
725.776974416
 20
1187.3352277009
 11
844.4821056233
 21
1187.3352277009
  0
LINE
  5
38D
100
AcDbEntity
  8
7_ALL_FEATURES
100
AcDbLine
 62
7
  6
CONTINUOUS
 10
854.0718432088
 20
1187.3352277009
 11
1094.4821056233
 21
1187.3352277009
  0
LINE
  5
38E
100
AcDbEntity
  8
7_ALL_FEATURES
100
AcDbLine
 62
7
  6
CONTINUOUS
 10
1104.0718432088
 20
1187.3352277009
 11
1344.4821056233
 21
1187.3352277009
  0
LINE
  5
38F
100
AcDbEntity
  8
7_ALL_FEATURES
100
AcDbLine
 62
7
  6
CONTINUOUS
 10
1354.0718432088
 20
1187.3352277009
 11
1594.4821056233
 21
1187.3352277009
  0
LINE
  5
390
100
AcDbEntity
  8
7_ALL_FEATURES
100
AcDbLine
 62
7
  6
CONTINUOUS
 10
1604.0718432088
 20
1187.3352277009
 11
1844.4821056233
 21
1187.3352277009
  0
LINE
  5
391
100
AcDbEntity
  8
7_ALL_FEATURES
100
AcDbLine
 62
7
  6
CONTINUOUS
 10
1854.0718432088
 20
1187.3352277009
 11
2094.4821056233
 21
1187.3352277009
  0
LINE
  5
392
100
AcDbEntity
  8
7_ALL_FEATURES
100
AcDbLine
 62
7
  6
CONTINUOUS
 10
2104.0718432088
 20
1187.3352277009
 11
2344.4821056233
 21
1187.3352277009
  0
LINE
  5
393
100
AcDbEntity
  8
7_ALL_FEATURES
100
AcDbLine
 62
7
  6
CONTINUOUS
 10
2354.0718432088
 20
1187.3352277009
 11
2594.4821056233
 21
1187.3352277009
  0
LINE
  5
394
100
AcDbEntity
  8
7_ALL_FEATURES
100
AcDbLine
 62
7
  6
CONTINUOUS
 10
2604.0718432088
 20
1187.3352277009
 11
2844.4821056233
 21
1187.3352277009
  0
LINE
  5
395
100
AcDbEntity
  8
7_ALL_FEATURES
100
AcDbLine
 62
7
  6
CONTINUOUS
 10
2854.0718432088
 20
1187.3352277009
 11
2972.776974416
 21
1187.3352277009
  0
LINE
  5
396
100
AcDbEntity
  8
7_ALL_FEATURES
100
AcDbLine
 62
7
  6
CONTINUOUS
 10
725.776974416
 20
1189.7352277009
 11
845.0119109066
 21
1189.7352277009
  0
LINE
  5
397
100
AcDbEntity
  8
7_ALL_FEATURES
100
AcDbLine
 62
7
  6
CONTINUOUS
 10
853.5420379255
 20
1189.7352277009
 11
1095.0119109066
 21
1189.7352277009
  0
LINE
  5
398
100
AcDbEntity
  8
7_ALL_FEATURES
100
AcDbLine
 62
7
  6
CONTINUOUS
 10
1103.5420379255
 20
1189.7352277009
 11
1345.0119109066
 21
1189.7352277009
  0
LINE
  5
399
100
AcDbEntity
  8
7_ALL_FEATURES
100
AcDbLine
 62
7
  6
CONTINUOUS
 10
1353.5420379255
 20
1189.7352277009
 11
1595.0119109066
 21
1189.7352277009
  0
LINE
  5
39A
100
AcDbEntity
  8
7_ALL_FEATURES
100
AcDbLine
 62
7
  6
CONTINUOUS
 10
1603.5420379255
 20
1189.7352277009
 11
1845.0119109066
 21
1189.7352277009
  0
LINE
  5
39B
100
AcDbEntity
  8
7_ALL_FEATURES
100
AcDbLine
 62
7
  6
CONTINUOUS
 10
1853.5420379255
 20
1189.7352277009
 11
2095.0119109066
 21
1189.7352277009
  0
LINE
  5
39C
100
AcDbEntity
  8
7_ALL_FEATURES
100
AcDbLine
 62
7
  6
CONTINUOUS
 10
2103.5420379255
 20
1189.7352277009
 11
2345.0119109066
 21
1189.7352277009
  0
LINE
  5
39D
100
AcDbEntity
  8
7_ALL_FEATURES
100
AcDbLine
 62
7
  6
CONTINUOUS
 10
2353.5420379255
 20
1189.7352277009
 11
2595.0119109066
 21
1189.7352277009
  0
LINE
  5
39E
100
AcDbEntity
  8
7_ALL_FEATURES
100
AcDbLine
 62
7
  6
CONTINUOUS
 10
2603.5420379255
 20
1189.7352277009
 11
2845.0119109066
 21
1189.7352277009
  0
LINE
  5
39F
100
AcDbEntity
  8
7_ALL_FEATURES
100
AcDbLine
 62
7
  6
CONTINUOUS
 10
2853.5420379255
 20
1189.7352277009
 11
2972.776974416
 21
1189.7352277009
  0
LINE
  5
3A0
100
AcDbEntity
  8
7_ALL_FEATURES
100
AcDbLine
 62
7
  6
CONTINUOUS
 10
725.776974416
 20
1190.3352277009
 11
845.3794409986
 21
1190.3352277009
  0
LINE
  5
3A1
100
AcDbEntity
  8
7_ALL_FEATURES
100
AcDbLine
 62
7
  6
CONTINUOUS
 10
853.1745078334
 20
1190.3352277009
 11
1095.3794409986
 21
1190.3352277009
  0
LINE
  5
3A2
100
AcDbEntity
  8
7_ALL_FEATURES
100
AcDbLine
 62
7
  6
CONTINUOUS
 10
1103.1745078334
 20
1190.3352277009
 11
1345.3794409986
 21
1190.3352277009
  0
LINE
  5
3A3
100
AcDbEntity
  8
7_ALL_FEATURES
100
AcDbLine
 62
7
  6
CONTINUOUS
 10
1353.1745078334
 20
1190.3352277009
 11
1595.3794409986
 21
1190.3352277009
  0
LINE
  5
3A4
100
AcDbEntity
  8
7_ALL_FEATURES
100
AcDbLine
 62
7
  6
CONTINUOUS
 10
1603.1745078334
 20
1190.3352277009
 11
1845.3794409986
 21
1190.3352277009
  0
LINE
  5
3A5
100
AcDbEntity
  8
7_ALL_FEATURES
100
AcDbLine
 62
7
  6
CONTINUOUS
 10
1853.1745078334
 20
1190.3352277009
 11
2095.3794409986
 21
1190.3352277009
  0
LINE
  5
3A6
100
AcDbEntity
  8
7_ALL_FEATURES
100
AcDbLine
 62
7
  6
CONTINUOUS
 10
2103.1745078334
 20
1190.3352277009
 11
2345.3794409986
 21
1190.3352277009
  0
LINE
  5
3A7
100
AcDbEntity
  8
7_ALL_FEATURES
100
AcDbLine
 62
7
  6
CONTINUOUS
 10
2353.1745078334
 20
1190.3352277009
 11
2595.3794409986
 21
1190.3352277009
  0
LINE
  5
3A8
100
AcDbEntity
  8
7_ALL_FEATURES
100
AcDbLine
 62
7
  6
CONTINUOUS
 10
2603.1745078334
 20
1190.3352277009
 11
2845.3794409986
 21
1190.3352277009
  0
LINE
  5
3A9
100
AcDbEntity
  8
7_ALL_FEATURES
100
AcDbLine
 62
7
  6
CONTINUOUS
 10
2853.1745078334
 20
1190.3352277009
 11
2972.776974416
 21
1190.3352277009
  0
LINE
  5
3AA
100
AcDbEntity
  8
6_ALL_SURFS
100
AcDbLine
 62
7
  6
CONTINUOUS
 10
725.776974416
 20
1192.7352277009
 11
2972.776974416
 21
1192.7352277009
  0
LINE
  5
3AB
100
AcDbEntity
  8
6_ALL_SURFS
100
AcDbLine
 62
7
  6
CONTINUOUS
 10
725.776974416
 20
1193.3352277009
 11
2972.776974416
 21
1193.3352277009
  0
LINE
  5
3AC
100
AcDbEntity
  8
6_ALL_SURFS
100
AcDbLine
 62
7
  6
CONTINUOUS
 10
725.776974416
 20
1195.7352277009
 11
2972.776974416
 21
1195.7352277009
  0
LINE
  5
3AD
100
AcDbEntity
  8
6_ALL_SURFS
100
AcDbLine
 62
7
  6
CONTINUOUS
 10
725.776974416
 20
1196.3352277009
 11
2972.776974416
 21
1196.3352277009
  0
LINE
  5
3AE
100
AcDbEntity
  8
6_ALL_SURFS
100
AcDbLine
 62
7
  6
CONTINUOUS
 10
725.776974416
 20
1198.7352277009
 11
2972.776974416
 21
1198.7352277009
  0
LINE
  5
3AF
100
AcDbEntity
  8
6_ALL_SURFS
100
AcDbLine
 62
7
  6
CONTINUOUS
 10
725.776974416
 20
1199.3352277009
 11
2972.776974416
 21
1199.3352277009
  0
LINE
  5
3B0
100
AcDbEntity
  8
7_ALL_FEATURES
100
AcDbLine
 62
9
  6
CONTINUOUS
 10
725.776974416
 20
1201.4852277009
 11
2972.776974416
 21
1201.4852277009
  0
LINE
  5
3B1
100
AcDbEntity
  8
7_ALL_FEATURES
100
AcDbLine
 62
7
  6
CONTINUOUS
 10
2972.776974416
 20
1201.7852277009
 11
725.776974416
 21
1201.7852277009
  0
LINE
  5
3B2
100
AcDbEntity
  8
7_ALL_FEATURES
100
AcDbLine
 62
9
  6
CONTINUOUS
 10
2972.776974416
 20
1202.0852277009
 11
725.776974416
 21
1202.0852277009
  0
LINE
  5
3B3
100
AcDbEntity
  8
7_ALL_FEATURES
100
AcDbLine
 62
9
  6
CONTINUOUS
 10
2972.776974416
 20
1202.7352277009
 11
725.776974416
 21
1202.7352277009
  0
LINE
  5
3B4
100
AcDbEntity
  8
7_ALL_FEATURES
100
AcDbLine
 62
7
  6
CONTINUOUS
 10
2972.776974416
 20
1203.0352277009
 11
725.776974416
 21
1203.0352277009
  0
LINE
  5
3B5
100
AcDbEntity
  8
7_ALL_FEATURES
100
AcDbLine
 62
9
  6
CONTINUOUS
 10
725.776974416
 20
1203.0972216988
 11
2972.776974416
 21
1203.0972216988
  0
LINE
  5
3B6
100
AcDbEntity
  8
7_ALL_FEATURES
100
AcDbLine
 62
7
  6
CONTINUOUS
 10
2971.526974416
 20
1203.1852277009
 11
727.026974416
 21
1203.1852277009
  0
LINE
  5
3B7
100
AcDbEntity
  8
7_ALL_FEATURES
100
AcDbLine
 62
9
  6
CONTINUOUS
 10
2971.526974416
 20
1203.3852277009
 11
727.026974416
 21
1203.3852277009
  0
LINE
  5
3B8
100
AcDbEntity
  8
7_ALL_FEATURES
100
AcDbLine
 62
9
  6
CONTINUOUS
 10
725.776974416
 20
1204.2078934163
 11
727.026974416
 21
1204.2078934163
  0
LINE
  5
3B9
100
AcDbEntity
  8
7_ALL_FEATURES
100
AcDbLine
 62
9
  6
CONTINUOUS
 10
2971.526974416
 20
1204.2078934163
 11
2972.776974416
 21
1204.2078934163
  0
LINE
  5
3BA
100
AcDbEntity
  8
7_ALL_FEATURES
100
AcDbLine
 62
7
  6
CONTINUOUS
 10
725.776974416
 20
1204.2492227482
 11
727.026974416
 21
1204.2492227482
  0
LINE
  5
3BB
100
AcDbEntity
  8
7_ALL_FEATURES
100
AcDbLine
 62
7
  6
CONTINUOUS
 10
2971.526974416
 20
1204.2492227482
 11
2972.776974416
 21
1204.2492227482
  0
LINE
  5
3BC
100
AcDbEntity
  8
7_ALL_FEATURES
100
AcDbLine
 62
9
  6
CONTINUOUS
 10
725.776974416
 20
1204.3450379321
 11
727.026974416
 21
1204.3450379321
  0
LINE
  5
3BD
100
AcDbEntity
  8
7_ALL_FEATURES
100
AcDbLine
 62
9
  6
CONTINUOUS
 10
2971.526974416
 20
1204.3450379321
 11
2972.776974416
 21
1204.3450379321
  0
LINE
  5
3BE
100
AcDbEntity
  8
7_ALL_FEATURES
100
AcDbLine
 62
9
  6
CONTINUOUS
 10
725.776974416
 20
1204.5644440425
 11
727.026974416
 21
1204.5644440425
  0
LINE
  5
3BF
100
AcDbEntity
  8
7_ALL_FEATURES
100
AcDbLine
 62
9
  6
CONTINUOUS
 10
2971.526974416
 20
1204.5644440425
 11
2972.776974416
 21
1204.5644440425
  0
LINE
  5
3C0
100
AcDbEntity
  8
7_ALL_FEATURES
100
AcDbLine
 62
9
  6
CONTINUOUS
 10
2972.776974416
 20
1205.6352277009
 11
2971.526974416
 21
1205.6352277009
  0
LINE
  5
3C1
100
AcDbEntity
  8
7_ALL_FEATURES
100
AcDbLine
 62
9
  6
CONTINUOUS
 10
727.026974416
 20
1205.6352277009
 11
725.776974416
 21
1205.6352277009
  0
LINE
  5
3C2
100
AcDbEntity
  8
7_ALL_FEATURES
100
AcDbLine
 62
7
  6
CONTINUOUS
 10
2972.776974416
 20
1205.9352277009
 11
2971.526974416
 21
1205.9352277009
  0
LINE
  5
3C3
100
AcDbEntity
  8
7_ALL_FEATURES
100
AcDbLine
 62
7
  6
CONTINUOUS
 10
727.026974416
 20
1205.9352277009
 11
725.776974416
 21
1205.9352277009
  0
LINE
  5
3C4
100
AcDbEntity
  8
7_ALL_FEATURES
100
AcDbLine
 62
9
  6
CONTINUOUS
 10
725.776974416
 20
1206.0558424593
 11
727.026974416
 21
1206.0558424593
  0
LINE
  5
3C5
100
AcDbEntity
  8
7_ALL_FEATURES
100
AcDbLine
 62
9
  6
CONTINUOUS
 10
2971.526974416
 20
1206.0558424593
 11
2972.776974416
 21
1206.0558424593
  0
LINE
  5
3C6
100
AcDbEntity
  8
7_ALL_FEATURES
100
AcDbLine
 62
9
  6
CONTINUOUS
 10
2972.776974416
 20
1206.5826216579
 11
2971.526974416
 21
1206.5826216579
  0
LINE
  5
3C7
100
AcDbEntity
  8
7_ALL_FEATURES
100
AcDbLine
 62
9
  6
CONTINUOUS
 10
727.026974416
 20
1206.5826216579
 11
725.776974416
 21
1206.5826216579
  0
LINE
  5
3C8
100
AcDbEntity
  8
7_ALL_FEATURES
100
AcDbLine
 62
7
  6
CONTINUOUS
 10
2972.776974416
 20
1206.6007138716
 11
2971.526974416
 21
1206.6007138716
  0
LINE
  5
3C9
100
AcDbEntity
  8
7_ALL_FEATURES
100
AcDbLine
 62
7
  6
CONTINUOUS
 10
727.026974416
 20
1206.6007138716
 11
725.776974416
 21
1206.6007138716
  0
LINE
  5
3CA
100
AcDbEntity
  8
7_ALL_FEATURES
100
AcDbLine
 62
9
  6
CONTINUOUS
 10
725.776974416
 20
1209.8983077381
 11
727.026974416
 21
1209.8983077381
  0
LINE
  5
3CB
100
AcDbEntity
  8
7_ALL_FEATURES
100
AcDbLine
 62
9
  6
CONTINUOUS
 10
2971.526974416
 20
1209.8983077381
 11
2972.776974416
 21
1209.8983077381
  0
LINE
  5
3CC
100
AcDbEntity
  8
7_ALL_FEATURES
100
AcDbLine
 62
9
  6
CONTINUOUS
 10
725.776974416
 20
1210.3864327142
 11
727.026974416
 21
1210.3864327142
  0
LINE
  5
3CD
100
AcDbEntity
  8
7_ALL_FEATURES
100
AcDbLine
 62
9
  6
CONTINUOUS
 10
2971.526974416
 20
1210.3864327142
 11
2972.776974416
 21
1210.3864327142
  0
LINE
  5
3CE
100
AcDbEntity
  8
7_ALL_FEATURES
100
AcDbLine
 62
9
  6
CONTINUOUS
 10
2972.776974416
 20
1234.4852277009
 11
2971.526974416
 21
1234.4852277009
  0
LINE
  5
3CF
100
AcDbEntity
  8
7_ALL_FEATURES
100
AcDbLine
 62
9
  6
CONTINUOUS
 10
727.026974416
 20
1234.4852277009
 11
725.776974416
 21
1234.4852277009
  0
LINE
  5
3D0
100
AcDbEntity
  8
7_ALL_FEATURES
100
AcDbLine
 62
7
  6
CONTINUOUS
 10
2972.776974416
 20
1234.7852277009
 11
2971.526974416
 21
1234.7852277009
  0
LINE
  5
3D1
100
AcDbEntity
  8
7_ALL_FEATURES
100
AcDbLine
 62
7
  6
CONTINUOUS
 10
727.026974416
 20
1234.7852277009
 11
725.776974416
 21
1234.7852277009
  0
LINE
  5
3D2
100
AcDbEntity
  8
7_ALL_FEATURES
100
AcDbLine
 62
9
  6
CONTINUOUS
 10
725.776974416
 20
1235.0852277009
 11
727.026974416
 21
1235.0852277009
  0
LINE
  5
3D3
100
AcDbEntity
  8
7_ALL_FEATURES
100
AcDbLine
 62
9
  6
CONTINUOUS
 10
2971.526974416
 20
1235.0852277009
 11
2972.776974416
 21
1235.0852277009
  0
LINE
  5
3D4
100
AcDbEntity
  8
6_ALL_SURFS
100
AcDbLine
 62
9
  6
CONTINUOUS
 10
725.776974416
 20
1237.8852277009
 11
727.026974416
 21
1237.8852277009
  0
LINE
  5
3D5
100
AcDbEntity
  8
6_ALL_SURFS
100
AcDbLine
 62
9
  6
CONTINUOUS
 10
2971.526974416
 20
1237.8852277009
 11
2972.776974416
 21
1237.8852277009
  0
LINE
  5
3D6
100
AcDbEntity
  8
6_ALL_SURFS
100
AcDbLine
 62
7
  6
CONTINUOUS
 10
2972.776974416
 20
1238.1852277009
 11
2971.526974416
 21
1238.1852277009
  0
LINE
  5
3D7
100
AcDbEntity
  8
6_ALL_SURFS
100
AcDbLine
 62
7
  6
CONTINUOUS
 10
727.026974416
 20
1238.1852277009
 11
725.776974416
 21
1238.1852277009
  0
LINE
  5
3D8
100
AcDbEntity
  8
6_ALL_SURFS
100
AcDbLine
 62
9
  6
CONTINUOUS
 10
2972.776974416
 20
1238.4852277009
 11
2971.526974416
 21
1238.4852277009
  0
LINE
  5
3D9
100
AcDbEntity
  8
6_ALL_SURFS
100
AcDbLine
 62
9
  6
CONTINUOUS
 10
727.026974416
 20
1238.4852277009
 11
725.776974416
 21
1238.4852277009
  0
LINE
  5
3DA
100
AcDbEntity
  8
6_ALL_SURFS
100
AcDbLine
 62
9
  6
CONTINUOUS
 10
725.776974416
 20
1262.5840226875
 11
727.026974416
 21
1262.5840226875
  0
LINE
  5
3DB
100
AcDbEntity
  8
6_ALL_SURFS
100
AcDbLine
 62
9
  6
CONTINUOUS
 10
2971.526974416
 20
1262.5840226875
 11
2972.776974416
 21
1262.5840226875
  0
LINE
  5
3DC
100
AcDbEntity
  8
6_ALL_SURFS
100
AcDbLine
 62
9
  6
CONTINUOUS
 10
725.776974416
 20
1263.0721476636
 11
727.026974416
 21
1263.0721476636
  0
LINE
  5
3DD
100
AcDbEntity
  8
6_ALL_SURFS
100
AcDbLine
 62
9
  6
CONTINUOUS
 10
2971.526974416
 20
1263.0721476636
 11
2972.776974416
 21
1263.0721476636
  0
LINE
  5
3DE
100
AcDbEntity
  8
6_ALL_SURFS
100
AcDbLine
 62
7
  6
CONTINUOUS
 10
725.776974416
 20
1266.3697415301
 11
727.026974416
 21
1266.3697415301
  0
LINE
  5
3DF
100
AcDbEntity
  8
6_ALL_SURFS
100
AcDbLine
 62
7
  6
CONTINUOUS
 10
2971.526974416
 20
1266.3697415301
 11
2972.776974416
 21
1266.3697415301
  0
LINE
  5
3E0
100
AcDbEntity
  8
6_ALL_SURFS
100
AcDbLine
 62
9
  6
CONTINUOUS
 10
2972.776974416
 20
1266.3878337439
 11
2971.526974416
 21
1266.3878337439
  0
LINE
  5
3E1
100
AcDbEntity
  8
6_ALL_SURFS
100
AcDbLine
 62
9
  6
CONTINUOUS
 10
727.026974416
 20
1266.3878337439
 11
725.776974416
 21
1266.3878337439
  0
LINE
  5
3E2
100
AcDbEntity
  8
6_ALL_SURFS
100
AcDbLine
 62
9
  6
CONTINUOUS
 10
725.776974416
 20
1266.9146129424
 11
727.026974416
 21
1266.9146129424
  0
LINE
  5
3E3
100
AcDbEntity
  8
6_ALL_SURFS
100
AcDbLine
 62
9
  6
CONTINUOUS
 10
2971.526974416
 20
1266.9146129424
 11
2972.776974416
 21
1266.9146129424
  0
LINE
  5
3E4
100
AcDbEntity
  8
6_ALL_SURFS
100
AcDbLine
 62
7
  6
CONTINUOUS
 10
2972.776974416
 20
1267.0352277009
 11
2971.526974416
 21
1267.0352277009
  0
LINE
  5
3E5
100
AcDbEntity
  8
6_ALL_SURFS
100
AcDbLine
 62
7
  6
CONTINUOUS
 10
727.026974416
 20
1267.0352277009
 11
725.776974416
 21
1267.0352277009
  0
LINE
  5
3E6
100
AcDbEntity
  8
6_ALL_SURFS
100
AcDbLine
 62
9
  6
CONTINUOUS
 10
2972.776974416
 20
1267.3352277009
 11
2971.526974416
 21
1267.3352277009
  0
LINE
  5
3E7
100
AcDbEntity
  8
6_ALL_SURFS
100
AcDbLine
 62
9
  6
CONTINUOUS
 10
727.026974416
 20
1267.3352277009
 11
725.776974416
 21
1267.3352277009
  0
LINE
  5
3E8
100
AcDbEntity
  8
6_ALL_SURFS
100
AcDbLine
 62
9
  6
CONTINUOUS
 10
725.776974416
 20
1268.4060113592
 11
727.026974416
 21
1268.4060113592
  0
LINE
  5
3E9
100
AcDbEntity
  8
6_ALL_SURFS
100
AcDbLine
 62
9
  6
CONTINUOUS
 10
2971.526974416
 20
1268.4060113592
 11
2972.776974416
 21
1268.4060113592
  0
LINE
  5
3EA
100
AcDbEntity
  8
6_ALL_SURFS
100
AcDbLine
 62
9
  6
CONTINUOUS
 10
725.776974416
 20
1268.6254174696
 11
727.026974416
 21
1268.6254174696
  0
LINE
  5
3EB
100
AcDbEntity
  8
6_ALL_SURFS
100
AcDbLine
 62
9
  6
CONTINUOUS
 10
2971.526974416
 20
1268.6254174696
 11
2972.776974416
 21
1268.6254174696
  0
LINE
  5
3EC
100
AcDbEntity
  8
6_ALL_SURFS
100
AcDbLine
 62
7
  6
CONTINUOUS
 10
2972.776974416
 20
1268.7212326535
 11
2971.526974416
 21
1268.7212326535
  0
LINE
  5
3ED
100
AcDbEntity
  8
6_ALL_SURFS
100
AcDbLine
 62
7
  6
CONTINUOUS
 10
727.026974416
 20
1268.7212326535
 11
725.776974416
 21
1268.7212326535
  0
LINE
  5
3EE
100
AcDbEntity
  8
6_ALL_SURFS
100
AcDbLine
 62
9
  6
CONTINUOUS
 10
725.776974416
 20
1268.7625619854
 11
727.026974416
 21
1268.7625619854
  0
LINE
  5
3EF
100
AcDbEntity
  8
6_ALL_SURFS
100
AcDbLine
 62
9
  6
CONTINUOUS
 10
2971.526974416
 20
1268.7625619854
 11
2972.776974416
 21
1268.7625619854
  0
LINE
  5
3F0
100
AcDbEntity
  8
7_ALL_FEATURES
100
AcDbLine
 62
9
  6
CONTINUOUS
 10
2971.526974416
 20
1269.5852277009
 11
727.026974416
 21
1269.5852277009
  0
LINE
  5
3F1
100
AcDbEntity
  8
7_ALL_FEATURES
100
AcDbLine
 62
7
  6
CONTINUOUS
 10
2971.526974416
 20
1269.7852277009
 11
727.026974416
 21
1269.7852277009
  0
LINE
  5
3F2
100
AcDbEntity
  8
6_ALL_SURFS
100
AcDbLine
 62
9
  6
CONTINUOUS
 10
725.776974416
 20
1269.8732337029
 11
2972.776974416
 21
1269.8732337029
  0
LINE
  5
3F3
100
AcDbEntity
  8
6_ALL_SURFS
100
AcDbLine
 62
7
  6
CONTINUOUS
 10
2972.776974416
 20
1269.9352277009
 11
725.776974416
 21
1269.9352277009
  0
LINE
  5
3F4
100
AcDbEntity
  8
6_ALL_SURFS
100
AcDbLine
 62
9
  6
CONTINUOUS
 10
2972.776974416
 20
1270.2352277009
 11
725.776974416
 21
1270.2352277009
  0
LINE
  5
3F5
100
AcDbEntity
  8
6_ALL_SURFS
100
AcDbLine
 62
9
  6
CONTINUOUS
 10
2972.776974416
 20
1270.8852277009
 11
725.776974416
 21
1270.8852277009
  0
LINE
  5
3F6
100
AcDbEntity
  8
6_ALL_SURFS
100
AcDbLine
 62
7
  6
CONTINUOUS
 10
2972.776974416
 20
1271.1852277009
 11
725.776974416
 21
1271.1852277009
  0
LINE
  5
3F7
100
AcDbEntity
  8
6_ALL_SURFS
100
AcDbLine
 62
9
  6
CONTINUOUS
 10
725.776974416
 20
1271.4852277009
 11
2972.776974416
 21
1271.4852277009
  0
LINE
  5
3F8
100
AcDbEntity
  8
6_ALL_SURFS
100
AcDbLine
 62
7
  6
CONTINUOUS
 10
725.776974416
 20
1273.6352277009
 11
2972.776974416
 21
1273.6352277009
  0
LINE
  5
3F9
100
AcDbEntity
  8
6_ALL_SURFS
100
AcDbLine
 62
7
  6
CONTINUOUS
 10
725.776974416
 20
1274.2352277009
 11
2972.776974416
 21
1274.2352277009
  0
LINE
  5
3FA
100
AcDbEntity
  8
6_ALL_SURFS
100
AcDbLine
 62
7
  6
CONTINUOUS
 10
725.776974416
 20
1276.6352277009
 11
2972.776974416
 21
1276.6352277009
  0
LINE
  5
3FB
100
AcDbEntity
  8
6_ALL_SURFS
100
AcDbLine
 62
7
  6
CONTINUOUS
 10
725.776974416
 20
1277.2352277009
 11
2972.776974416
 21
1277.2352277009
  0
LINE
  5
3FC
100
AcDbEntity
  8
6_ALL_SURFS
100
AcDbLine
 62
7
  6
CONTINUOUS
 10
725.776974416
 20
1279.6352277009
 11
2972.776974416
 21
1279.6352277009
  0
LINE
  5
3FD
100
AcDbEntity
  8
6_ALL_SURFS
100
AcDbLine
 62
7
  6
CONTINUOUS
 10
725.776974416
 20
1280.2352277009
 11
2972.776974416
 21
1280.2352277009
  0
LINE
  5
3FE
100
AcDbEntity
  8
6_ALL_SURFS
100
AcDbLine
 62
7
  6
CONTINUOUS
 10
725.776974416
 20
1282.6352277009
 11
845.3794409986
 21
1282.6352277009
  0
LINE
  5
3FF
100
AcDbEntity
  8
6_ALL_SURFS
100
AcDbLine
 62
7
  6
CONTINUOUS
 10
853.1745078334
 20
1282.6352277009
 11
1095.3794409986
 21
1282.6352277009
  0
LINE
  5
400
100
AcDbEntity
  8
6_ALL_SURFS
100
AcDbLine
 62
7
  6
CONTINUOUS
 10
1103.1745078334
 20
1282.6352277009
 11
1345.3794409986
 21
1282.6352277009
  0
LINE
  5
401
100
AcDbEntity
  8
6_ALL_SURFS
100
AcDbLine
 62
7
  6
CONTINUOUS
 10
1353.1745078334
 20
1282.6352277009
 11
1595.3794409986
 21
1282.6352277009
  0
LINE
  5
402
100
AcDbEntity
  8
6_ALL_SURFS
100
AcDbLine
 62
7
  6
CONTINUOUS
 10
1603.1745078334
 20
1282.6352277009
 11
1845.3794409986
 21
1282.6352277009
  0
LINE
  5
403
100
AcDbEntity
  8
6_ALL_SURFS
100
AcDbLine
 62
7
  6
CONTINUOUS
 10
1853.1745078334
 20
1282.6352277009
 11
2095.3794409986
 21
1282.6352277009
  0
LINE
  5
404
100
AcDbEntity
  8
6_ALL_SURFS
100
AcDbLine
 62
7
  6
CONTINUOUS
 10
2103.1745078334
 20
1282.6352277009
 11
2345.3794409986
 21
1282.6352277009
  0
LINE
  5
405
100
AcDbEntity
  8
6_ALL_SURFS
100
AcDbLine
 62
7
  6
CONTINUOUS
 10
2353.1745078334
 20
1282.6352277009
 11
2595.3794409986
 21
1282.6352277009
  0
LINE
  5
406
100
AcDbEntity
  8
6_ALL_SURFS
100
AcDbLine
 62
7
  6
CONTINUOUS
 10
2603.1745078334
 20
1282.6352277009
 11
2845.3794409986
 21
1282.6352277009
  0
LINE
  5
407
100
AcDbEntity
  8
6_ALL_SURFS
100
AcDbLine
 62
7
  6
CONTINUOUS
 10
2853.1745078334
 20
1282.6352277009
 11
2972.776974416
 21
1282.6352277009
  0
LINE
  5
408
100
AcDbEntity
  8
6_ALL_SURFS
100
AcDbLine
 62
7
  6
CONTINUOUS
 10
725.776974416
 20
1283.2352277009
 11
845.0119109066
 21
1283.2352277009
  0
LINE
  5
409
100
AcDbEntity
  8
6_ALL_SURFS
100
AcDbLine
 62
7
  6
CONTINUOUS
 10
853.5420379255
 20
1283.2352277009
 11
1095.0119109066
 21
1283.2352277009
  0
LINE
  5
40A
100
AcDbEntity
  8
6_ALL_SURFS
100
AcDbLine
 62
7
  6
CONTINUOUS
 10
1103.5420379255
 20
1283.2352277009
 11
1345.0119109066
 21
1283.2352277009
  0
LINE
  5
40B
100
AcDbEntity
  8
6_ALL_SURFS
100
AcDbLine
 62
7
  6
CONTINUOUS
 10
1353.5420379255
 20
1283.2352277009
 11
1595.0119109066
 21
1283.2352277009
  0
LINE
  5
40C
100
AcDbEntity
  8
6_ALL_SURFS
100
AcDbLine
 62
7
  6
CONTINUOUS
 10
1603.5420379255
 20
1283.2352277009
 11
1845.0119109066
 21
1283.2352277009
  0
LINE
  5
40D
100
AcDbEntity
  8
6_ALL_SURFS
100
AcDbLine
 62
7
  6
CONTINUOUS
 10
1853.5420379255
 20
1283.2352277009
 11
2095.0119109066
 21
1283.2352277009
  0
LINE
  5
40E
100
AcDbEntity
  8
6_ALL_SURFS
100
AcDbLine
 62
7
  6
CONTINUOUS
 10
2103.5420379255
 20
1283.2352277009
 11
2345.0119109066
 21
1283.2352277009
  0
LINE
  5
40F
100
AcDbEntity
  8
6_ALL_SURFS
100
AcDbLine
 62
7
  6
CONTINUOUS
 10
2353.5420379255
 20
1283.2352277009
 11
2595.0119109066
 21
1283.2352277009
  0
LINE
  5
410
100
AcDbEntity
  8
6_ALL_SURFS
100
AcDbLine
 62
7
  6
CONTINUOUS
 10
2603.5420379255
 20
1283.2352277009
 11
2845.0119109066
 21
1283.2352277009
  0
LINE
  5
411
100
AcDbEntity
  8
6_ALL_SURFS
100
AcDbLine
 62
7
  6
CONTINUOUS
 10
2853.5420379255
 20
1283.2352277009
 11
2972.776974416
 21
1283.2352277009
  0
LINE
  5
412
100
AcDbEntity
  8
6_ALL_SURFS
100
AcDbLine
 62
7
  6
CONTINUOUS
 10
725.776974416
 20
1285.6352277009
 11
844.4821056233
 21
1285.6352277009
  0
LINE
  5
413
100
AcDbEntity
  8
6_ALL_SURFS
100
AcDbLine
 62
7
  6
CONTINUOUS
 10
854.0718432088
 20
1285.6352277009
 11
1094.4821056233
 21
1285.6352277009
  0
LINE
  5
414
100
AcDbEntity
  8
6_ALL_SURFS
100
AcDbLine
 62
7
  6
CONTINUOUS
 10
1104.0718432088
 20
1285.6352277009
 11
1344.4821056233
 21
1285.6352277009
  0
LINE
  5
415
100
AcDbEntity
  8
6_ALL_SURFS
100
AcDbLine
 62
7
  6
CONTINUOUS
 10
1354.0718432088
 20
1285.6352277009
 11
1594.4821056233
 21
1285.6352277009
  0
LINE
  5
416
100
AcDbEntity
  8
6_ALL_SURFS
100
AcDbLine
 62
7
  6
CONTINUOUS
 10
1604.0718432088
 20
1285.6352277009
 11
1844.4821056233
 21
1285.6352277009
  0
LINE
  5
417
100
AcDbEntity
  8
6_ALL_SURFS
100
AcDbLine
 62
7
  6
CONTINUOUS
 10
1854.0718432088
 20
1285.6352277009
 11
2094.4821056233
 21
1285.6352277009
  0
LINE
  5
418
100
AcDbEntity
  8
6_ALL_SURFS
100
AcDbLine
 62
7
  6
CONTINUOUS
 10
2104.0718432088
 20
1285.6352277009
 11
2344.4821056233
 21
1285.6352277009
  0
LINE
  5
419
100
AcDbEntity
  8
6_ALL_SURFS
100
AcDbLine
 62
7
  6
CONTINUOUS
 10
2354.0718432088
 20
1285.6352277009
 11
2594.4821056233
 21
1285.6352277009
  0
LINE
  5
41A
100
AcDbEntity
  8
6_ALL_SURFS
100
AcDbLine
 62
7
  6
CONTINUOUS
 10
2604.0718432088
 20
1285.6352277009
 11
2844.4821056233
 21
1285.6352277009
  0
LINE
  5
41B
100
AcDbEntity
  8
6_ALL_SURFS
100
AcDbLine
 62
7
  6
CONTINUOUS
 10
2854.0718432088
 20
1285.6352277009
 11
2972.776974416
 21
1285.6352277009
  0
LINE
  5
41C
100
AcDbEntity
  8
6_ALL_SURFS
100
AcDbLine
 62
7
  6
CONTINUOUS
 10
725.776974416
 20
1286.2352277009
 11
844.5450861312
 21
1286.2352277009
  0
LINE
  5
41D
100
AcDbEntity
  8
6_ALL_SURFS
100
AcDbLine
 62
7
  6
CONTINUOUS
 10
854.0088627008
 20
1286.2352277009
 11
1094.5450861312
 21
1286.2352277009
  0
LINE
  5
41E
100
AcDbEntity
  8
6_ALL_SURFS
100
AcDbLine
 62
7
  6
CONTINUOUS
 10
1104.0088627008
 20
1286.2352277009
 11
1344.5450861312
 21
1286.2352277009
  0
LINE
  5
41F
100
AcDbEntity
  8
6_ALL_SURFS
100
AcDbLine
 62
7
  6
CONTINUOUS
 10
1354.0088627008
 20
1286.2352277009
 11
1594.5450861312
 21
1286.2352277009
  0
LINE
  5
420
100
AcDbEntity
  8
6_ALL_SURFS
100
AcDbLine
 62
7
  6
CONTINUOUS
 10
1604.0088627008
 20
1286.2352277009
 11
1844.5450861312
 21
1286.2352277009
  0
LINE
  5
421
100
AcDbEntity
  8
6_ALL_SURFS
100
AcDbLine
 62
7
  6
CONTINUOUS
 10
1854.0088627008
 20
1286.2352277009
 11
2094.5450861312
 21
1286.2352277009
  0
LINE
  5
422
100
AcDbEntity
  8
6_ALL_SURFS
100
AcDbLine
 62
7
  6
CONTINUOUS
 10
2104.0088627008
 20
1286.2352277009
 11
2344.5450861312
 21
1286.2352277009
  0
LINE
  5
423
100
AcDbEntity
  8
6_ALL_SURFS
100
AcDbLine
 62
7
  6
CONTINUOUS
 10
2354.0088627008
 20
1286.2352277009
 11
2594.5450861312
 21
1286.2352277009
  0
LINE
  5
424
100
AcDbEntity
  8
6_ALL_SURFS
100
AcDbLine
 62
7
  6
CONTINUOUS
 10
2604.0088627008
 20
1286.2352277009
 11
2844.5450861312
 21
1286.2352277009
  0
LINE
  5
425
100
AcDbEntity
  8
6_ALL_SURFS
100
AcDbLine
 62
7
  6
CONTINUOUS
 10
2854.0088627008
 20
1286.2352277009
 11
2972.776974416
 21
1286.2352277009
  0
LINE
  5
426
100
AcDbEntity
  8
6_ALL_SURFS
100
AcDbLine
 62
7
  6
CONTINUOUS
 10
725.776974416
 20
1288.9352277009
 11
845.9935666223
 21
1288.9352277009
  0
LINE
  5
427
100
AcDbEntity
  8
6_ALL_SURFS
100
AcDbLine
 62
7
  6
CONTINUOUS
 10
852.5603822097
 20
1288.9352277009
 11
1095.9935666223
 21
1288.9352277009
  0
LINE
  5
428
100
AcDbEntity
  8
6_ALL_SURFS
100
AcDbLine
 62
7
  6
CONTINUOUS
 10
1102.5603822097
 20
1288.9352277009
 11
1345.9935666223
 21
1288.9352277009
  0
LINE
  5
429
100
AcDbEntity
  8
6_ALL_SURFS
100
AcDbLine
 62
7
  6
CONTINUOUS
 10
1352.5603822097
 20
1288.9352277009
 11
1595.9935666223
 21
1288.9352277009
  0
LINE
  5
42A
100
AcDbEntity
  8
6_ALL_SURFS
100
AcDbLine
 62
7
  6
CONTINUOUS
 10
1602.5603822097
 20
1288.9352277009
 11
1845.9935666223
 21
1288.9352277009
  0
LINE
  5
42B
100
AcDbEntity
  8
6_ALL_SURFS
100
AcDbLine
 62
7
  6
CONTINUOUS
 10
1852.5603822097
 20
1288.9352277009
 11
2095.9935666223
 21
1288.9352277009
  0
LINE
  5
42C
100
AcDbEntity
  8
6_ALL_SURFS
100
AcDbLine
 62
7
  6
CONTINUOUS
 10
2102.5603822097
 20
1288.9352277009
 11
2345.9935666223
 21
1288.9352277009
  0
LINE
  5
42D
100
AcDbEntity
  8
6_ALL_SURFS
100
AcDbLine
 62
7
  6
CONTINUOUS
 10
2352.5603822097
 20
1288.9352277009
 11
2595.9935666223
 21
1288.9352277009
  0
LINE
  5
42E
100
AcDbEntity
  8
6_ALL_SURFS
100
AcDbLine
 62
7
  6
CONTINUOUS
 10
2602.5603822097
 20
1288.9352277009
 11
2845.9935666223
 21
1288.9352277009
  0
LINE
  5
42F
100
AcDbEntity
  8
6_ALL_SURFS
100
AcDbLine
 62
7
  6
CONTINUOUS
 10
2852.5603822097
 20
1288.9352277009
 11
2972.776974416
 21
1288.9352277009
  0
LINE
  5
430
100
AcDbEntity
  8
6_ALL_SURFS
100
AcDbLine
 62
9
  6
CONTINUOUS
 10
725.776974416
 20
1291.0806992912
 11
2972.776974416
 21
1291.0806992912
  0
LINE
  5
431
100
AcDbEntity
  8
6_ALL_SURFS
100
AcDbLine
 62
7
  6
CONTINUOUS
 10
2972.776974416
 20
1291.4352277009
 11
725.776974416
 21
1291.4352277009
  0
LINE
  5
432
100
AcDbEntity
  8
7_ALL_FEATURES
100
AcDbLine
 62
7
  6
CONTINUOUS
 10
2971.526974416
 20
1269.7852277009
 11
2971.526974416
 21
1203.1852277009
  0
LINE
  5
433
100
AcDbEntity
  8
6_ALL_SURFS
100
AcDbLine
 62
7
  6
CONTINUOUS
 10
2972.776974416
 20
1199.3352277009
 11
2972.776974416
 21
1184.0352277009
  0
LINE
  5
434
100
AcDbEntity
  8
7_ALL_FEATURES
100
AcDbLine
 62
7
  6
CONTINUOUS
 10
2972.776974416
 20
1184.0352277009
 11
2972.776974416
 21
1181.5352429172
  0
LINE
  5
435
100
AcDbEntity
  8
7_ALL_FEATURES
100
AcDbLine
 62
7
  6
CONTINUOUS
 10
2972.776974416
 20
1199.3352277009
 11
2972.776974416
 21
1237.8852277009
  0
LINE
  5
436
100
AcDbEntity
  8
6_ALL_SURFS
100
AcDbLine
 62
7
  6
CONTINUOUS
 10
2972.776974416
 20
1237.8852277009
 11
2972.776974416
 21
1291.4352124845
  0
ARC
  5
437
100
AcDbEntity
  8
6_ALL_SURFS
100
AcDbCircle
 62
7
  6
CONTINUOUS
 10
340.2049280277
 20
882.7412680756
 40
0.5
100
AcDbArc
 50
53.1301023542
 51
126.8698976458
  0
ARC
  5
438
100
AcDbEntity
  8
6_ALL_SURFS
100
AcDbCircle
 62
7
  6
CONTINUOUS
 10
343.2049280277
 20
882.7412680756
 40
0.5
100
AcDbArc
 50
53.1301023542
 51
126.8698976458
  0
ARC
  5
439
100
AcDbEntity
  8
6_ALL_SURFS
100
AcDbCircle
 62
7
  6
CONTINUOUS
 10
346.2049280277
 20
882.7412680756
 40
0.5
100
AcDbArc
 50
53.1301023542
 51
126.8698976458
  0
ARC
  5
43A
100
AcDbEntity
  8
6_ALL_SURFS
100
AcDbCircle
 62
7
  6
CONTINUOUS
 10
335.0986313857
 20
883.7475647177
 40
0.3937033579
100
AcDbArc
 50
90.0
 51
264.2894068625
  0
ARC
  5
43B
100
AcDbEntity
  8
6_ALL_SURFS
100
AcDbCircle
 62
7
  6
CONTINUOUS
 10
356.2549280277
 20
895.6431940058
 40
2.15
100
AcDbArc
 50
136.1313356567
 51
223.8686643433
  0
ARC
  5
43C
100
AcDbEntity
  8
6_ALL_SURFS
100
AcDbCircle
 62
7
  6
CONTINUOUS
 10
356.2549280277
 20
895.6431940058
 40
0.65
100
AcDbArc
 50
111.6182724222
 51
248.3817275778
  0
ARC
  5
43D
100
AcDbEntity
  8
6_ALL_SURFS
100
AcDbCircle
 62
7
  6
CONTINUOUS
 10
349.2049280277
 20
882.7412680756
 40
0.5
100
AcDbArc
 50
53.1301023542
 51
126.8698976458
  0
ARC
  5
43E
100
AcDbEntity
  8
6_ALL_SURFS
100
AcDbCircle
 62
7
  6
CONTINUOUS
 10
352.2049280277
 20
882.7412680756
 40
0.5
100
AcDbArc
 50
53.1301023542
 51
126.8698976458
  0
ARC
  5
43F
100
AcDbEntity
  8
6_ALL_SURFS
100
AcDbCircle
 62
7
  6
CONTINUOUS
 10
355.2549280277
 20
881.9412680756
 40
0.3
100
AcDbArc
 50
180.0
 51
270.0
  0
ARC
  5
440
100
AcDbEntity
  8
6_ALL_SURFS
100
AcDbCircle
 62
7
  6
CONTINUOUS
 10
355.9049280277
 20
881.9412680756
 40
0.3
100
AcDbArc
 50
270.0
 51
360.0
  0
ARC
  5
441
100
AcDbEntity
  8
6_ALL_SURFS
100
AcDbCircle
 62
7
  6
CONTINUOUS
 10
355.9049280277
 20
894.7600179192
 40
0.3
100
AcDbArc
 50
0.0
 51
68.3817275778
  0
ARC
  5
442
100
AcDbEntity
  8
6_ALL_SURFS
100
AcDbCircle
 62
7
  6
CONTINUOUS
 10
355.9049280277
 20
896.5263700924
 40
0.3
100
AcDbArc
 50
291.6182724222
 51
360.0
  0
ARC
  5
443
100
AcDbEntity
  8
6_ALL_SURFS
100
AcDbCircle
 62
7
  6
CONTINUOUS
 10
354.4049280277
 20
884.4412680756
 40
0.3
100
AcDbArc
 50
270.0
 51
360.0
  0
ARC
  5
444
100
AcDbEntity
  8
6_ALL_SURFS
100
AcDbCircle
 62
7
  6
CONTINUOUS
 10
354.6549280277
 20
882.8412680756
 40
0.3
100
AcDbArc
 50
0.0
 51
90.0
  0
ARC
  5
445
100
AcDbEntity
  8
7_ALL_FEATURES
100
AcDbCircle
 62
7
  6
CONTINUOUS
 10
356.5549280277
 20
896.8412680756
 40
0.2
100
AcDbArc
 50
180.0
 51
270.0
  0
ARC
  5
446
100
AcDbEntity
  8
3_ALL_AXES
100
AcDbCircle
 62
7
  6
CONTINUOUS
 10
356.6049280277
 20
898.4612680756
 40
1.8
100
AcDbArc
 50
0.0
 51
57.1401196211
  0
ARC
  5
447
100
AcDbEntity
  8
6_ALL_SURFS
100
AcDbCircle
 62
7
  6
CONTINUOUS
 10
356.1049280277
 20
910.0412680756
 40
1.5
100
AcDbArc
 50
90.0
 51
180.0
  0
ARC
  5
448
100
AcDbEntity
  8
6_ALL_SURFS
100
AcDbCircle
 62
7
  6
CONTINUOUS
 10
356.1049280277
 20
907.2412680756
 40
1.5
100
AcDbArc
 50
180.0
 51
270.0
  0
ARC
  5
449
100
AcDbEntity
  8
6_ALL_SURFS
100
AcDbCircle
 62
7
  6
CONTINUOUS
 10
356.2049280277
 20
900.6412680756
 40
1.5
100
AcDbArc
 50
137.0
 51
180.0
  0
ARC
  5
44A
100
AcDbEntity
  8
6_ALL_SURFS
100
AcDbCircle
 62
7
  6
CONTINUOUS
 10
357.5049280277
 20
908.6412680756
 40
1.3
100
AcDbArc
 50
40.8069228749
 51
319.1930771251
  0
ARC
  5
44B
100
AcDbEntity
  8
3_ALL_AXES
100
AcDbCircle
 62
7
  6
CONTINUOUS
 10
357.690100825
 20
900.1412680756
 40
1.0
100
AcDbArc
 50
137.0
 51
237.1401196211
  0
ARC
  5
44C
100
AcDbEntity
  8
3_ALL_AXES
100
AcDbCircle
 62
7
  6
CONTINUOUS
 10
356.6049280277
 20
898.4612680756
 40
1.0
100
AcDbArc
 50
0.0
 51
57.1401196211
  0
ARC
  5
44D
100
AcDbEntity
  8
3_ALL_AXES
100
AcDbCircle
 62
7
  6
CONTINUOUS
 10
357.6157164173
 20
900.9412680756
 40
0.4
100
AcDbArc
 50
317.0
 51
137.0
  0
ARC
  5
44E
100
AcDbEntity
  8
6_ALL_SURFS
100
AcDbCircle
 62
7
  6
CONTINUOUS
 10
358.8049280277
 20
902.4412680756
 40
0.3
100
AcDbArc
 50
270.0
 51
360.0
  0
ARC
  5
44F
100
AcDbEntity
  8
6_ALL_SURFS
100
AcDbCircle
 62
7
  6
CONTINUOUS
 10
358.8049280277
 20
903.6170040069
 40
0.3
100
AcDbArc
 50
0.0
 51
45.0
  0
ARC
  5
450
100
AcDbEntity
  8
6_ALL_SURFS
100
AcDbCircle
 62
7
  6
CONTINUOUS
 10
358.8049280277
 20
906.2655321444
 40
0.3
100
AcDbArc
 50
315.0
 51
360.0
  0
ARC
  5
451
100
AcDbEntity
  8
6_ALL_SURFS
100
AcDbCircle
 62
7
  6
CONTINUOUS
 10
358.8049280277
 20
907.5443025642
 40
0.3
100
AcDbArc
 50
0.0
 51
60.0
  0
ARC
  5
452
100
AcDbEntity
  8
6_ALL_SURFS
100
AcDbCircle
 62
7
  6
CONTINUOUS
 10
358.7159937866
 20
907.5956487722
 40
0.3
100
AcDbArc
 50
60.0
 51
139.1930771251
  0
ARC
  5
453
100
AcDbEntity
  8
6_ALL_SURFS
100
AcDbCircle
 62
7
  6
CONTINUOUS
 10
358.7159937866
 20
909.686887379
 40
0.3
100
AcDbArc
 50
220.8069228749
 51
300.0
  0
ARC
  5
454
100
AcDbEntity
  8
6_ALL_SURFS
100
AcDbCircle
 62
7
  6
CONTINUOUS
 10
358.8049280277
 20
909.7382335871
 40
0.3
100
AcDbArc
 50
300.0
 51
360.0
  0
ARC
  5
455
100
AcDbEntity
  8
6_ALL_SURFS
100
AcDbCircle
 62
7
  6
CONTINUOUS
 10
356.5049280277
 20
897.189431798
 40
0.3
100
AcDbArc
 50
142.5
 51
180.0
  0
ARC
  5
456
100
AcDbEntity
  8
6_ALL_SURFS
100
AcDbCircle
 62
7
  6
CONTINUOUS
 10
357.2049280277
 20
911.8412680756
 40
0.3
100
AcDbArc
 50
270.0
 51
360.0
  0
ARC
  5
457
100
AcDbEntity
  8
6_ALL_SURFS
100
AcDbCircle
 62
7
  6
CONTINUOUS
 10
359.1049280277
 20
905.7170040069
 40
0.3
100
AcDbArc
 50
135.0
 51
180.0
  0
ARC
  5
458
100
AcDbEntity
  8
6_ALL_SURFS
100
AcDbCircle
 62
7
  6
CONTINUOUS
 10
359.1049280277
 20
904.1655321444
 40
0.3
100
AcDbArc
 50
180.0
 51
225.0
  0
ARC
  5
459
100
AcDbEntity
  8
6_ALL_SURFS
100
AcDbCircle
 62
7
  6
CONTINUOUS
 10
357.7341443694
 20
901.8412680756
 40
0.3
100
AcDbArc
 50
90.0
 51
137.0
  0
ARC
  5
45A
100
AcDbEntity
  8
6_ALL_SURFS
100
AcDbCircle
 62
7
  6
CONTINUOUS
 10
356.5049280277
 20
900.523094933
 40
0.3
100
AcDbArc
 50
137.0
 51
180.0
  0
ARC
  5
45B
100
AcDbEntity
  8
6_ALL_SURFS
100
AcDbCircle
 62
7
  6
CONTINUOUS
 10
356.5049280277
 20
899.4412680756
 40
0.3
100
AcDbArc
 50
180.0
 51
270.0
  0
ARC
  5
45C
100
AcDbEntity
  8
6_ALL_SURFS
100
AcDbCircle
 62
7
  6
CONTINUOUS
 10
356.9049280277
 20
905.4412680756
 40
0.3
100
AcDbArc
 50
0.0
 51
90.0
  0
ARC
  5
45D
100
AcDbEntity
  8
6_ALL_SURFS
100
AcDbCircle
 62
7
  6
CONTINUOUS
 10
356.9049280277
 20
904.0312287068
 40
0.3
100
AcDbArc
 50
317.0
 51
360.0
  0
ARC
  5
45E
100
AcDbEntity
  8
7_ALL_FEATURES
100
AcDbCircle
 62
7
  6
CONTINUOUS
 10
358.6049280277
 20
898.3412680756
 40
0.2
100
AcDbArc
 50
180.0
 51
270.0
  0
ARC
  5
45F
100
AcDbEntity
  8
7_ALL_FEATURES
100
AcDbCircle
 62
7
  6
CONTINUOUS
 10
357.4049280277
 20
897.8412680756
 40
0.2
100
AcDbArc
 50
270.0
 51
360.0
  0
ARC
  5
460
100
AcDbEntity
  8
3_ALL_AXES
100
AcDbCircle
 62
7
  6
CONTINUOUS
 10
357.690100825
 20
900.1412680756
 40
0.2
100
AcDbArc
 50
137.0
 51
237.1401196211
  0
ARC
  5
461
100
AcDbEntity
  8
7_ALL_FEATURES
100
AcDbCircle
 62
7
  6
CONTINUOUS
 10
356.5549280277
 20
897.4412680756
 40
0.2
100
AcDbArc
 50
90.0
 51
122.4173692109
  0
ARC
  5
462
100
AcDbEntity
  8
6_ALL_SURFS
100
AcDbCircle
 62
7
  6
CONTINUOUS
 10
357.2189230751
 20
898.9412680756
 40
0.2
100
AcDbArc
 50
322.5
 51
90.0
  0
ARC
  5
463
100
AcDbEntity
  8
6_ALL_SURFS
100
AcDbCircle
 62
7
  6
CONTINUOUS
 10
362.5049280277
 20
947.0185416158
 40
5.0
100
AcDbArc
 50
167.4878142167
 51
180.0
  0
ARC
  5
464
100
AcDbEntity
  8
6_ALL_SURFS
100
AcDbCircle
 62
7
  6
CONTINUOUS
 10
367.2049280277
 20
969.3912680756
 40
2.8
100
AcDbArc
 50
330.0
 51
360.0
  0
ARC
  5
465
100
AcDbEntity
  8
6_ALL_SURFS
100
AcDbCircle
 62
7
  6
CONTINUOUS
 10
367.2049280277
 20
969.3912680756
 40
2.8
100
AcDbArc
 50
153.9347815174
 51
210.0
  0
ARC
  5
466
100
AcDbEntity
  8
6_ALL_SURFS
100
AcDbCircle
 62
7
  6
CONTINUOUS
 10
361.1049280277
 20
944.6918616172
 40
2.0
100
AcDbArc
 50
160.0
 51
180.0
  0
ARC
  5
467
100
AcDbEntity
  8
6_ALL_SURFS
100
AcDbCircle
 62
7
  6
CONTINUOUS
 10
387.5549280277
 20
971.1412680756
 40
1.5
100
AcDbArc
 50
90.0
 51
180.0
  0
ARC
  5
468
100
AcDbEntity
  8
6_ALL_SURFS
100
AcDbCircle
 62
7
  6
CONTINUOUS
 10
363.074687025
 20
965.7412680756
 40
1.5
100
AcDbArc
 50
90.0
 51
167.4878142167
  0
ARC
  5
469
100
AcDbEntity
  8
6_ALL_SURFS
100
AcDbCircle
 62
7
  6
CONTINUOUS
 10
367.2049280277
 20
969.4412680756
 40
1.3
100
AcDbArc
 50
130.8069228753
 51
49.1930771278
  0
ARC
  5
46A
100
AcDbEntity
  8
6_ALL_SURFS
100
AcDbCircle
 62
7
  6
CONTINUOUS
 10
364.2405562562
 20
970.8412680756
 40
0.5
100
AcDbArc
 50
333.9347815174
 51
90.0
  0
ARC
  5
46B
100
AcDbEntity
  8
6_ALL_SURFS
100
AcDbCircle
 62
7
  6
CONTINUOUS
 10
364.3470441952
 20
967.7412680756
 40
0.5
100
AcDbArc
 50
270.0
 51
30.0
  0
ARC
  5
46C
100
AcDbEntity
  8
6_ALL_SURFS
100
AcDbCircle
 62
7
  6
CONTINUOUS
 10
370.0628118602
 20
967.7412680756
 40
0.5
100
AcDbArc
 50
150.0
 51
270.0
  0
ARC
  5
46D
100
AcDbEntity
  8
6_ALL_SURFS
100
AcDbCircle
 62
7
  6
CONTINUOUS
 10
363.5561330411
 20
965.1412680756
 40
0.5
100
AcDbArc
 50
90.0
 51
167.4878142168
  0
ARC
  5
46E
100
AcDbEntity
  8
6_ALL_SURFS
100
AcDbCircle
 62
7
  6
CONTINUOUS
 10
369.7049280277
 20
972.3412680756
 40
0.3
100
AcDbArc
 50
0.0
 51
90.0
  0
ARC
  5
46F
100
AcDbEntity
  8
6_ALL_SURFS
100
AcDbCircle
 62
7
  6
CONTINUOUS
 10
369.2256539699
 20
972.3412680756
 40
0.3
100
AcDbArc
 50
90.0
 51
149.9999999986
  0
ARC
  5
470
100
AcDbEntity
  8
6_ALL_SURFS
100
AcDbCircle
 62
7
  6
CONTINUOUS
 10
368.2505473311
 20
970.6523338346
 40
0.3
100
AcDbArc
 50
149.9999999986
 51
229.1930771278
  0
ARC
  5
471
100
AcDbEntity
  8
6_ALL_SURFS
100
AcDbCircle
 62
7
  6
CONTINUOUS
 10
366.1593087243
 20
970.6523338345
 40
0.3
100
AcDbArc
 50
310.8069228753
 51
30.0000000015
  0
ARC
  5
472
100
AcDbEntity
  8
6_ALL_SURFS
100
AcDbCircle
 62
7
  6
CONTINUOUS
 10
365.1842020855
 20
972.3412680756
 40
0.3
100
AcDbArc
 50
30.0000000014
 51
90.0
  0
ARC
  5
473
100
AcDbEntity
  8
6_ALL_SURFS
100
AcDbCircle
 62
7
  6
CONTINUOUS
 10
363.1970441952
 20
972.3412680756
 40
0.3
100
AcDbArc
 50
90.0
 51
180.0
  0
ARC
  5
474
100
AcDbEntity
  8
6_ALL_SURFS
100
AcDbCircle
 62
7
  6
CONTINUOUS
 10
363.1970441952
 20
971.6412680756
 40
0.3
100
AcDbArc
 50
180.0
 51
270.0
  0
ARC
  5
475
100
AcDbEntity
  8
6_ALL_SURFS
100
AcDbCircle
 62
7
  6
CONTINUOUS
 10
359.4704141985
 20
946.9258219
 40
0.3
100
AcDbArc
 50
340.0
 51
70.0
  0
ARC
  5
476
100
AcDbEntity
  8
6_ALL_SURFS
100
AcDbCircle
 62
7
  6
CONTINUOUS
 10
387.6549280277
 20
965.9412680756
 40
0.3
100
AcDbArc
 50
270.0
 51
360.0
  0
ARC
  5
477
100
AcDbEntity
  8
6_ALL_SURFS
100
AcDbCircle
 62
7
  6
CONTINUOUS
 10
385.7549280277
 20
967.5412680756
 40
0.3
100
AcDbArc
 50
270.0
 51
360.0
  0
ARC
  5
478
100
AcDbEntity
  8
6_ALL_SURFS
100
AcDbCircle
 62
7
  6
CONTINUOUS
 10
388.2549280277
 20
970.7412680756
 40
0.3
100
AcDbArc
 50
90.0
 51
180.0
  0
ARC
  5
479
100
AcDbEntity
  8
6_ALL_SURFS
100
AcDbCircle
 62
7
  6
CONTINUOUS
 10
359.4521100366
 20
947.5709907336
 40
0.3
100
AcDbArc
 50
167.4878142168
 51
250.0
  0
ARC
  5
47A
100
AcDbEntity
  8
7_ALL_FEATURES
100
AcDbCircle
 62
7
  6
CONTINUOUS
 10
423.0549280277
 20
895.6431940058
 40
2.15
100
AcDbArc
 50
316.1313356567
 51
43.8686643433
  0
ARC
  5
47B
100
AcDbEntity
  8
7_ALL_FEATURES
100
AcDbCircle
 62
7
  6
CONTINUOUS
 10
423.0549280277
 20
895.6431940058
 40
0.65
100
AcDbArc
 50
291.6182724222
 51
68.3817275778
  0
ARC
  5
47C
100
AcDbEntity
  8
6_ALL_SURFS
100
AcDbCircle
 62
7
  6
CONTINUOUS
 10
427.1049280277
 20
882.7412680756
 40
0.5
100
AcDbArc
 50
53.1301023542
 51
126.8698976458
  0
ARC
  5
47D
100
AcDbEntity
  8
6_ALL_SURFS
100
AcDbCircle
 62
7
  6
CONTINUOUS
 10
430.1049280277
 20
882.7412680756
 40
0.5
100
AcDbArc
 50
53.1301023542
 51
126.8698976458
  0
ARC
  5
47E
100
AcDbEntity
  8
7_ALL_FEATURES
100
AcDbCircle
 62
7
  6
CONTINUOUS
 10
424.9049280277
 20
884.4412680756
 40
0.3
100
AcDbArc
 50
180.0
 51
270.0
  0
ARC
  5
47F
100
AcDbEntity
  8
7_ALL_FEATURES
100
AcDbCircle
 62
7
  6
CONTINUOUS
 10
424.6549280277
 20
882.8412680756
 40
0.3
100
AcDbArc
 50
90.0
 51
180.0
  0
ARC
  5
480
100
AcDbEntity
  8
7_ALL_FEATURES
100
AcDbCircle
 62
7
  6
CONTINUOUS
 10
423.4049280277
 20
896.5263700924
 40
0.3
100
AcDbArc
 50
180.0
 51
248.3817275778
  0
ARC
  5
481
100
AcDbEntity
  8
7_ALL_FEATURES
100
AcDbCircle
 62
7
  6
CONTINUOUS
 10
423.4049280277
 20
894.7600179192
 40
0.3
100
AcDbArc
 50
111.6182724222
 51
180.0
  0
ARC
  5
482
100
AcDbEntity
  8
7_ALL_FEATURES
100
AcDbCircle
 62
7
  6
CONTINUOUS
 10
423.4049280277
 20
881.9412680756
 40
0.3
100
AcDbArc
 50
180.0
 51
270.0
  0
ARC
  5
483
100
AcDbEntity
  8
7_ALL_FEATURES
100
AcDbCircle
 62
7
  6
CONTINUOUS
 10
424.0549280277
 20
881.9412680756
 40
0.3
100
AcDbArc
 50
270.0
 51
360.0
  0
ARC
  5
484
100
AcDbEntity
  8
7_ALL_FEATURES
100
AcDbCircle
 62
7
  6
CONTINUOUS
 10
422.7549280277
 20
896.8412680756
 40
0.2
100
AcDbArc
 50
270.0
 51
360.0
  0
ARC
  5
485
100
AcDbEntity
  8
3_ALL_AXES
100
AcDbCircle
 62
7
  6
CONTINUOUS
 10
422.7049280277
 20
898.4612680756
 40
1.8
100
AcDbArc
 50
122.8598803789
 51
180.0
  0
ARC
  5
486
100
AcDbEntity
  8
7_ALL_FEATURES
100
AcDbCircle
 62
7
  6
CONTINUOUS
 10
423.1049280277
 20
900.6412680756
 40
1.5
100
AcDbArc
 50
0.0
 51
43.0
  0
ARC
  5
487
100
AcDbEntity
  8
7_ALL_FEATURES
100
AcDbCircle
 62
7
  6
CONTINUOUS
 10
423.2049280277
 20
907.2412680756
 40
1.5
100
AcDbArc
 50
270.0
 51
360.0
  0
ARC
  5
488
100
AcDbEntity
  8
7_ALL_FEATURES
100
AcDbCircle
 62
7
  6
CONTINUOUS
 10
423.2049280277
 20
910.0412680756
 40
1.5
100
AcDbArc
 50
0.0
 51
90.0
  0
ARC
  5
489
100
AcDbEntity
  8
7_ALL_FEATURES
100
AcDbCircle
 62
7
  6
CONTINUOUS
 10
421.8049280277
 20
908.6412680756
 40
1.3
100
AcDbArc
 50
220.8069228749
 51
139.1930771251
  0
ARC
  5
48A
100
AcDbEntity
  8
3_ALL_AXES
100
AcDbCircle
 62
7
  6
CONTINUOUS
 10
422.7049280277
 20
898.4612680756
 40
1.0
100
AcDbArc
 50
122.8598803789
 51
180.0
  0
ARC
  5
48B
100
AcDbEntity
  8
3_ALL_AXES
100
AcDbCircle
 62
7
  6
CONTINUOUS
 10
421.6197552304
 20
900.1412680756
 40
1.0
100
AcDbArc
 50
302.8598803789
 51
43.0
  0
ARC
  5
48C
100
AcDbEntity
  8
3_ALL_AXES
100
AcDbCircle
 62
7
  6
CONTINUOUS
 10
421.6941396382
 20
900.9412680756
 40
0.4
100
AcDbArc
 50
43.0
 51
223.0
  0
ARC
  5
48D
100
AcDbEntity
  8
7_ALL_FEATURES
100
AcDbCircle
 62
7
  6
CONTINUOUS
 10
422.8049280277
 20
897.189431798
 40
0.3
100
AcDbArc
 50
0.0
 51
37.5
  0
ARC
  5
48E
100
AcDbEntity
  8
7_ALL_FEATURES
100
AcDbCircle
 62
7
  6
CONTINUOUS
 10
422.1049280277
 20
911.8412680756
 40
0.3
100
AcDbArc
 50
180.0
 51
270.0
  0
ARC
  5
48F
100
AcDbEntity
  8
7_ALL_FEATURES
100
AcDbCircle
 62
7
  6
CONTINUOUS
 10
420.2049280277
 20
905.7170040069
 40
0.3
100
AcDbArc
 50
0.0
 51
45.0
  0
ARC
  5
490
100
AcDbEntity
  8
7_ALL_FEATURES
100
AcDbCircle
 62
7
  6
CONTINUOUS
 10
420.2049280277
 20
904.1655321444
 40
0.3
100
AcDbArc
 50
315.0
 51
360.0
  0
ARC
  5
491
100
AcDbEntity
  8
7_ALL_FEATURES
100
AcDbCircle
 62
7
  6
CONTINUOUS
 10
421.575711686
 20
901.8412680756
 40
0.3
100
AcDbArc
 50
43.0
 51
90.0
  0
ARC
  5
492
100
AcDbEntity
  8
7_ALL_FEATURES
100
AcDbCircle
 62
7
  6
CONTINUOUS
 10
422.8049280277
 20
900.523094933
 40
0.3
100
AcDbArc
 50
0.0
 51
43.0
  0
ARC
  5
493
100
AcDbEntity
  8
7_ALL_FEATURES
100
AcDbCircle
 62
7
  6
CONTINUOUS
 10
422.8049280277
 20
899.4412680756
 40
0.3
100
AcDbArc
 50
270.0
 51
360.0
  0
ARC
  5
494
100
AcDbEntity
  8
7_ALL_FEATURES
100
AcDbCircle
 62
7
  6
CONTINUOUS
 10
422.4049280277
 20
905.4412680756
 40
0.3
100
AcDbArc
 50
90.0
 51
180.0
  0
ARC
  5
495
100
AcDbEntity
  8
7_ALL_FEATURES
100
AcDbCircle
 62
7
  6
CONTINUOUS
 10
422.4049280277
 20
904.0312287068
 40
0.3
100
AcDbArc
 50
180.0
 51
223.0
  0
ARC
  5
496
100
AcDbEntity
  8
7_ALL_FEATURES
100
AcDbCircle
 62
7
  6
CONTINUOUS
 10
420.5049280277
 20
909.7382335871
 40
0.3
100
AcDbArc
 50
180.0
 51
240.0
  0
ARC
  5
497
100
AcDbEntity
  8
7_ALL_FEATURES
100
AcDbCircle
 62
7
  6
CONTINUOUS
 10
420.5938622689
 20
909.686887379
 40
0.3
100
AcDbArc
 50
240.0
 51
319.1930771251
  0
ARC
  5
498
100
AcDbEntity
  8
7_ALL_FEATURES
100
AcDbCircle
 62
7
  6
CONTINUOUS
 10
420.5938622689
 20
907.5956487722
 40
0.3
100
AcDbArc
 50
40.8069228749
 51
120.0
  0
ARC
  5
499
100
AcDbEntity
  8
7_ALL_FEATURES
100
AcDbCircle
 62
7
  6
CONTINUOUS
 10
420.5049280277
 20
907.5443025642
 40
0.3
100
AcDbArc
 50
120.0
 51
180.0
  0
ARC
  5
49A
100
AcDbEntity
  8
7_ALL_FEATURES
100
AcDbCircle
 62
7
  6
CONTINUOUS
 10
420.5049280277
 20
906.2655321444
 40
0.3
100
AcDbArc
 50
180.0
 51
225.0
  0
ARC
  5
49B
100
AcDbEntity
  8
7_ALL_FEATURES
100
AcDbCircle
 62
7
  6
CONTINUOUS
 10
420.5049280277
 20
903.6170040069
 40
0.3
100
AcDbArc
 50
135.0
 51
180.0
  0
ARC
  5
49C
100
AcDbEntity
  8
7_ALL_FEATURES
100
AcDbCircle
 62
7
  6
CONTINUOUS
 10
420.5049280277
 20
902.4412680756
 40
0.3
100
AcDbArc
 50
180.0
 51
270.0
  0
ARC
  5
49D
100
AcDbEntity
  8
7_ALL_FEATURES
100
AcDbCircle
 62
7
  6
CONTINUOUS
 10
420.7049280277
 20
898.3412680756
 40
0.2
100
AcDbArc
 50
270.0
 51
360.0
  0
ARC
  5
49E
100
AcDbEntity
  8
7_ALL_FEATURES
100
AcDbCircle
 62
7
  6
CONTINUOUS
 10
421.9049280277
 20
897.8412680756
 40
0.2
100
AcDbArc
 50
180.0
 51
270.0
  0
ARC
  5
49F
100
AcDbEntity
  8
3_ALL_AXES
100
AcDbCircle
 62
7
  6
CONTINUOUS
 10
421.6197552304
 20
900.1412680756
 40
0.2
100
AcDbArc
 50
302.8598803789
 51
43.0
  0
ARC
  5
4A0
100
AcDbEntity
  8
7_ALL_FEATURES
100
AcDbCircle
 62
7
  6
CONTINUOUS
 10
422.7549280277
 20
897.4412680756
 40
0.2
100
AcDbArc
 50
72.0
 51
90.0
  0
ARC
  5
4A1
100
AcDbEntity
  8
7_ALL_FEATURES
100
AcDbCircle
 62
7
  6
CONTINUOUS
 10
422.0909329804
 20
898.9412680756
 40
0.2
100
AcDbArc
 50
90.0
 51
217.5
  0
ARC
  5
4A2
100
AcDbEntity
  8
6_ALL_SURFS
100
AcDbCircle
 62
7
  6
CONTINUOUS
 10
433.1049280277
 20
882.7412680756
 40
0.5
100
AcDbArc
 50
53.1301023542
 51
126.8698976458
  0
ARC
  5
4A3
100
AcDbEntity
  8
6_ALL_SURFS
100
AcDbCircle
 62
7
  6
CONTINUOUS
 10
436.1049280277
 20
882.7412680756
 40
0.5
100
AcDbArc
 50
53.1301023542
 51
126.8698976458
  0
ARC
  5
4A4
100
AcDbEntity
  8
6_ALL_SURFS
100
AcDbCircle
 62
7
  6
CONTINUOUS
 10
439.1049280277
 20
882.7412680756
 40
0.5
100
AcDbArc
 50
53.1301023542
 51
126.8698976458
  0
ARC
  5
4A5
100
AcDbEntity
  8
7_ALL_FEATURES
100
AcDbCircle
 62
7
  6
CONTINUOUS
 10
444.2112246698
 20
883.7475647177
 40
0.3937033579
100
AcDbArc
 50
275.7105931375
 51
90.0
  0
ARC
  5
4A6
100
AcDbEntity
  8
7_ALL_FEATURES
100
AcDbCircle
 62
7
  6
CONTINUOUS
 10
389.6549280277
 20
969.5412680756
 40
8.0
100
AcDbArc
 50
284.4775121859
 51
300.0
  0
ARC
  5
4A7
100
AcDbEntity
  8
7_ALL_FEATURES
100
AcDbCircle
 62
7
  6
CONTINUOUS
 10
389.6549280277
 20
969.5412680756
 40
8.0
100
AcDbArc
 50
240.0
 51
255.5224878141
  0
ARC
  5
4A8
100
AcDbEntity
  8
7_ALL_FEATURES
100
AcDbCircle
 62
7
  6
CONTINUOUS
 10
389.6549280277
 20
969.5412680756
 40
7.9843597113
100
AcDbArc
 50
255.4935070353
 51
266.4096498625
  0
ARC
  5
4A9
100
AcDbEntity
  8
7_ALL_FEATURES
100
AcDbCircle
 62
7
  6
CONTINUOUS
 10
389.6549280277
 20
969.5412680756
 40
7.9843597113
100
AcDbArc
 50
273.5903501375
 51
284.5064929647
  0
ARC
  5
4AA
100
AcDbEntity
  8
7_ALL_FEATURES
100
AcDbCircle
 62
7
  6
CONTINUOUS
 10
389.6549280277
 20
969.5412680756
 40
7.7459666924
100
AcDbArc
 50
266.2990001561
 51
273.7009998439
  0
ARC
  5
4AB
100
AcDbEntity
  8
7_ALL_FEATURES
100
AcDbCircle
 62
7
  6
CONTINUOUS
 10
416.8049280277
 20
947.0185416158
 40
5.0
100
AcDbArc
 50
0.0
 51
12.5121857833
  0
ARC
  5
4AC
100
AcDbEntity
  8
7_ALL_FEATURES
100
AcDbCircle
 62
7
  6
CONTINUOUS
 10
412.1049280277
 20
969.3912680756
 40
2.8
100
AcDbArc
 50
330.0
 51
26.0652184826
  0
ARC
  5
4AD
100
AcDbEntity
  8
7_ALL_FEATURES
100
AcDbCircle
 62
7
  6
CONTINUOUS
 10
412.1049280277
 20
969.3912680756
 40
2.8
100
AcDbArc
 50
180.0
 51
210.0
  0
ARC
  5
4AE
100
AcDbEntity
  8
7_ALL_FEATURES
100
AcDbCircle
 62
7
  6
CONTINUOUS
 10
418.2049280277
 20
944.6918616172
 40
2.0
100
AcDbArc
 50
0.0
 51
20.0
  0
ARC
  5
4AF
100
AcDbEntity
  8
7_ALL_FEATURES
100
AcDbCircle
 62
7
  6
CONTINUOUS
 10
416.2351690305
 20
965.7412680756
 40
1.5
100
AcDbArc
 50
12.5121857833
 51
90.0
  0
ARC
  5
4B0
100
AcDbEntity
  8
7_ALL_FEATURES
100
AcDbCircle
 62
7
  6
CONTINUOUS
 10
391.7549280277
 20
971.1412680756
 40
1.5
100
AcDbArc
 50
0.0
 51
90.0
  0
ARC
  5
4B1
100
AcDbEntity
  8
7_ALL_FEATURES
100
AcDbCircle
 62
7
  6
CONTINUOUS
 10
412.1049280277
 20
969.4412680756
 40
1.3
100
AcDbArc
 50
130.8069228722
 51
49.1930771247
  0
ARC
  5
4B2
100
AcDbEntity
  8
7_ALL_FEATURES
100
AcDbCircle
 62
7
  6
CONTINUOUS
 10
415.0692997993
 20
970.8412680756
 40
0.5
100
AcDbArc
 50
90.0
 51
206.0652184826
  0
ARC
  5
4B3
100
AcDbEntity
  8
7_ALL_FEATURES
100
AcDbCircle
 62
7
  6
CONTINUOUS
 10
414.9628118602
 20
967.7412680756
 40
0.5
100
AcDbArc
 50
150.0
 51
270.0
  0
ARC
  5
4B4
100
AcDbEntity
  8
7_ALL_FEATURES
100
AcDbCircle
 62
7
  6
CONTINUOUS
 10
409.2470441952
 20
967.7412680756
 40
0.5
100
AcDbArc
 50
270.0
 51
30.0
  0
ARC
  5
4B5
100
AcDbEntity
  8
7_ALL_FEATURES
100
AcDbCircle
 62
7
  6
CONTINUOUS
 10
415.7537230144
 20
965.1412680756
 40
0.5
100
AcDbArc
 50
12.5121857832
 51
90.0
  0
ARC
  5
4B6
100
AcDbEntity
  8
7_ALL_FEATURES
100
AcDbCircle
 62
7
  6
CONTINUOUS
 10
393.5549280277
 20
967.5412680756
 40
0.3
100
AcDbArc
 50
180.0
 51
270.0
  0
ARC
  5
4B7
100
AcDbEntity
  8
7_ALL_FEATURES
100
AcDbCircle
 62
7
  6
CONTINUOUS
 10
391.0549280277
 20
970.7412680756
 40
0.3
100
AcDbArc
 50
0.0
 51
90.0
  0
ARC
  5
4B8
100
AcDbEntity
  8
7_ALL_FEATURES
100
AcDbCircle
 62
7
  6
CONTINUOUS
 10
419.8577460189
 20
947.5709907336
 40
0.3
100
AcDbArc
 50
290.0
 51
12.5121857832
  0
ARC
  5
4B9
100
AcDbEntity
  8
7_ALL_FEATURES
100
AcDbCircle
 62
7
  6
CONTINUOUS
 10
391.6549280277
 20
965.9412680756
 40
0.3
100
AcDbArc
 50
180.0
 51
270.0
  0
ARC
  5
4BA
100
AcDbEntity
  8
7_ALL_FEATURES
100
AcDbCircle
 62
7
  6
CONTINUOUS
 10
419.839441857
 20
946.9258219
 40
0.3
100
AcDbArc
 50
110.0
 51
200.0
  0
ARC
  5
4BB
100
AcDbEntity
  8
7_ALL_FEATURES
100
AcDbCircle
 62
7
  6
CONTINUOUS
 10
416.1128118602
 20
971.6412680756
 40
0.3
100
AcDbArc
 50
270.0
 51
360.0
  0
ARC
  5
4BC
100
AcDbEntity
  8
7_ALL_FEATURES
100
AcDbCircle
 62
7
  6
CONTINUOUS
 10
416.1128118602
 20
972.3412680756
 40
0.3
100
AcDbArc
 50
0.0
 51
90.0
  0
ARC
  5
4BD
100
AcDbEntity
  8
7_ALL_FEATURES
100
AcDbCircle
 62
7
  6
CONTINUOUS
 10
414.12565397
 20
972.3412680756
 40
0.3
100
AcDbArc
 50
90.0
 51
149.9999999986
  0
ARC
  5
4BE
100
AcDbEntity
  8
7_ALL_FEATURES
100
AcDbCircle
 62
7
  6
CONTINUOUS
 10
413.1505473312
 20
970.6523338345
 40
0.3
100
AcDbArc
 50
149.9999999985
 51
229.1930771247
  0
ARC
  5
4BF
100
AcDbEntity
  8
7_ALL_FEATURES
100
AcDbCircle
 62
7
  6
CONTINUOUS
 10
411.0593087244
 20
970.6523338346
 40
0.3
100
AcDbArc
 50
310.8069228722
 51
30.0000000014
  0
ARC
  5
4C0
100
AcDbEntity
  8
7_ALL_FEATURES
100
AcDbCircle
 62
7
  6
CONTINUOUS
 10
410.0842020856
 20
972.3412680756
 40
0.3
100
AcDbArc
 50
30.0000000014
 51
90.0
  0
ARC
  5
4C1
100
AcDbEntity
  8
7_ALL_FEATURES
100
AcDbCircle
 62
7
  6
CONTINUOUS
 10
409.6049280277
 20
972.3412680756
 40
0.3
100
AcDbArc
 50
90.0
 51
180.0
  0
ARC
  5
4C2
100
AcDbEntity
  8
7_ALL_FEATURES
100
AcDbCircle
 62
7
  6
CONTINUOUS
 10
849.276974416
 20
1187.5352277009
 40
4.7990381057
100
AcDbArc
 50
189.5960093944
 51
226.828815981
  0
ARC
  5
4C3
100
AcDbEntity
  8
7_ALL_FEATURES
100
AcDbCircle
 62
7
  6
CONTINUOUS
 10
1099.276974416
 20
1187.5352277009
 40
4.7990381057
100
AcDbArc
 50
189.5960093944
 51
226.828815981
  0
ARC
  5
4C4
100
AcDbEntity
  8
7_ALL_FEATURES
100
AcDbCircle
 62
7
  6
CONTINUOUS
 10
849.276974416
 20
1187.5352277009
 40
4.7990381057
100
AcDbArc
 50
313.171184019
 51
350.4039906056
  0
ARC
  5
4C5
100
AcDbEntity
  8
7_ALL_FEATURES
100
AcDbCircle
 62
7
  6
CONTINUOUS
 10
1349.276974416
 20
1187.5352277009
 40
4.7990381057
100
AcDbArc
 50
189.5960093944
 51
226.828815981
  0
ARC
  5
4C6
100
AcDbEntity
  8
7_ALL_FEATURES
100
AcDbCircle
 62
7
  6
CONTINUOUS
 10
1099.276974416
 20
1187.5352277009
 40
4.7990381057
100
AcDbArc
 50
313.171184019
 51
350.4039906056
  0
ARC
  5
4C7
100
AcDbEntity
  8
7_ALL_FEATURES
100
AcDbCircle
 62
7
  6
CONTINUOUS
 10
1599.276974416
 20
1187.5352277009
 40
4.7990381057
100
AcDbArc
 50
189.5960093944
 51
226.828815981
  0
ARC
  5
4C8
100
AcDbEntity
  8
7_ALL_FEATURES
100
AcDbCircle
 62
7
  6
CONTINUOUS
 10
1349.276974416
 20
1187.5352277009
 40
4.7990381057
100
AcDbArc
 50
313.171184019
 51
350.4039906056
  0
ARC
  5
4C9
100
AcDbEntity
  8
7_ALL_FEATURES
100
AcDbCircle
 62
7
  6
CONTINUOUS
 10
1599.276974416
 20
1187.5352277009
 40
4.7990381057
100
AcDbArc
 50
313.171184019
 51
350.4039906056
  0
ARC
  5
4CA
100
AcDbEntity
  8
7_ALL_FEATURES
100
AcDbCircle
 62
7
  6
CONTINUOUS
 10
849.276974416
 20
1187.5352277009
 40
4.7990381057
100
AcDbArc
 50
152.7144649101
 51
182.3884943821
  0
ARC
  5
4CB
100
AcDbEntity
  8
7_ALL_FEATURES
100
AcDbCircle
 62
7
  6
CONTINUOUS
 10
1099.276974416
 20
1187.5352277009
 40
4.7990381057
100
AcDbArc
 50
152.7144649101
 51
182.3884943821
  0
ARC
  5
4CC
100
AcDbEntity
  8
7_ALL_FEATURES
100
AcDbCircle
 62
7
  6
CONTINUOUS
 10
849.276974416
 20
1187.5352277009
 40
4.7990381057
100
AcDbArc
 50
357.6115056179
 51
27.2855350899
  0
ARC
  5
4CD
100
AcDbEntity
  8
7_ALL_FEATURES
100
AcDbCircle
 62
7
  6
CONTINUOUS
 10
1349.276974416
 20
1187.5352277009
 40
4.7990381057
100
AcDbArc
 50
152.7144649101
 51
182.3884943821
  0
ARC
  5
4CE
100
AcDbEntity
  8
7_ALL_FEATURES
100
AcDbCircle
 62
7
  6
CONTINUOUS
 10
1099.276974416
 20
1187.5352277009
 40
4.7990381057
100
AcDbArc
 50
357.6115056179
 51
27.2855350899
  0
ARC
  5
4CF
100
AcDbEntity
  8
7_ALL_FEATURES
100
AcDbCircle
 62
7
  6
CONTINUOUS
 10
1599.276974416
 20
1187.5352277009
 40
4.7990381057
100
AcDbArc
 50
152.7144649101
 51
182.3884943821
  0
ARC
  5
4D0
100
AcDbEntity
  8
7_ALL_FEATURES
100
AcDbCircle
 62
7
  6
CONTINUOUS
 10
1349.276974416
 20
1187.5352277009
 40
4.7990381057
100
AcDbArc
 50
357.6115056179
 51
27.2855350899
  0
ARC
  5
4D1
100
AcDbEntity
  8
7_ALL_FEATURES
100
AcDbCircle
 62
7
  6
CONTINUOUS
 10
1599.276974416
 20
1187.5352277009
 40
4.7990381057
100
AcDbArc
 50
357.6115056179
 51
27.2855350899
  0
ARC
  5
4D2
100
AcDbEntity
  8
7_ALL_FEATURES
100
AcDbCircle
 62
7
  6
CONTINUOUS
 10
1099.276974416
 20
1187.5352277009
 40
4.7990381057
100
AcDbArc
 50
35.6935828234
 51
144.3064171766
  0
ARC
  5
4D3
100
AcDbEntity
  8
7_ALL_FEATURES
100
AcDbCircle
 62
7
  6
CONTINUOUS
 10
1349.276974416
 20
1187.5352277009
 40
4.7990381057
100
AcDbArc
 50
35.6935828234
 51
144.3064171766
  0
ARC
  5
4D4
100
AcDbEntity
  8
7_ALL_FEATURES
100
AcDbCircle
 62
7
  6
CONTINUOUS
 10
1599.276974416
 20
1187.5352277009
 40
4.7990381057
100
AcDbArc
 50
35.6935828234
 51
144.3064171766
  0
ARC
  5
4D5
100
AcDbEntity
  8
7_ALL_FEATURES
100
AcDbCircle
 62
7
  6
CONTINUOUS
 10
849.276974416
 20
1187.5352277009
 40
4.7990381057
100
AcDbArc
 50
35.6935828234
 51
144.3064171766
  0
CIRCLE
  5
4D6
100
AcDbEntity
  8
6_ALL_SURFS
100
AcDbCircle
 62
7
  6
CONTINUOUS
 10
849.276974416
 20
1187.5352277009
 40
3.5
  0
CIRCLE
  5
4D7
100
AcDbEntity
  8
6_ALL_SURFS
100
AcDbCircle
 62
7
  6
CONTINUOUS
 10
1099.276974416
 20
1187.5352277009
 40
3.5
  0
CIRCLE
  5
4D8
100
AcDbEntity
  8
6_ALL_SURFS
100
AcDbCircle
 62
7
  6
CONTINUOUS
 10
1349.276974416
 20
1187.5352277009
 40
3.5
  0
CIRCLE
  5
4D9
100
AcDbEntity
  8
6_ALL_SURFS
100
AcDbCircle
 62
7
  6
CONTINUOUS
 10
1599.276974416
 20
1187.5352277009
 40
3.5
  0
ARC
  5
4DA
100
AcDbEntity
  8
6_ALL_SURFS
100
AcDbCircle
 62
7
  6
CONTINUOUS
 10
1599.276974416
 20
1285.4352277009
 40
4.7990381057
100
AcDbArc
 50
9.5960093944
 51
46.828815981
  0
ARC
  5
4DB
100
AcDbEntity
  8
6_ALL_SURFS
100
AcDbCircle
 62
7
  6
CONTINUOUS
 10
1349.276974416
 20
1285.4352277009
 40
4.7990381057
100
AcDbArc
 50
9.5960093944
 51
46.828815981
  0
ARC
  5
4DC
100
AcDbEntity
  8
6_ALL_SURFS
100
AcDbCircle
 62
7
  6
CONTINUOUS
 10
1599.276974416
 20
1285.4352277009
 40
4.7990381057
100
AcDbArc
 50
133.171184019
 51
170.4039906056
  0
ARC
  5
4DD
100
AcDbEntity
  8
6_ALL_SURFS
100
AcDbCircle
 62
7
  6
CONTINUOUS
 10
1099.276974416
 20
1285.4352277009
 40
4.7990381057
100
AcDbArc
 50
9.5960093944
 51
46.828815981
  0
ARC
  5
4DE
100
AcDbEntity
  8
6_ALL_SURFS
100
AcDbCircle
 62
7
  6
CONTINUOUS
 10
1349.276974416
 20
1285.4352277009
 40
4.7990381057
100
AcDbArc
 50
133.171184019
 51
170.4039906056
  0
ARC
  5
4DF
100
AcDbEntity
  8
6_ALL_SURFS
100
AcDbCircle
 62
7
  6
CONTINUOUS
 10
849.276974416
 20
1285.4352277009
 40
4.7990381057
100
AcDbArc
 50
9.5960093944
 51
46.828815981
  0
ARC
  5
4E0
100
AcDbEntity
  8
6_ALL_SURFS
100
AcDbCircle
 62
7
  6
CONTINUOUS
 10
1099.276974416
 20
1285.4352277009
 40
4.7990381057
100
AcDbArc
 50
133.171184019
 51
170.4039906056
  0
ARC
  5
4E1
100
AcDbEntity
  8
6_ALL_SURFS
100
AcDbCircle
 62
7
  6
CONTINUOUS
 10
849.276974416
 20
1285.4352277009
 40
4.7990381057
100
AcDbArc
 50
133.171184019
 51
170.4039906056
  0
ARC
  5
4E2
100
AcDbEntity
  8
6_ALL_SURFS
100
AcDbCircle
 62
7
  6
CONTINUOUS
 10
1099.276974416
 20
1285.4352277009
 40
4.7990381057
100
AcDbArc
 50
215.6935828234
 51
324.3064171766
  0
ARC
  5
4E3
100
AcDbEntity
  8
6_ALL_SURFS
100
AcDbCircle
 62
7
  6
CONTINUOUS
 10
1349.276974416
 20
1285.4352277009
 40
4.7990381057
100
AcDbArc
 50
215.6935828234
 51
324.3064171766
  0
ARC
  5
4E4
100
AcDbEntity
  8
6_ALL_SURFS
100
AcDbCircle
 62
7
  6
CONTINUOUS
 10
1599.276974416
 20
1285.4352277009
 40
4.7990381057
100
AcDbArc
 50
215.6935828234
 51
324.3064171766
  0
ARC
  5
4E5
100
AcDbEntity
  8
6_ALL_SURFS
100
AcDbCircle
 62
7
  6
CONTINUOUS
 10
849.276974416
 20
1285.4352277009
 40
4.7990381057
100
AcDbArc
 50
215.6935828234
 51
324.3064171766
  0
ARC
  5
4E6
100
AcDbEntity
  8
6_ALL_SURFS
100
AcDbCircle
 62
7
  6
CONTINUOUS
 10
1599.276974416
 20
1285.4352277009
 40
4.7990381057
100
AcDbArc
 50
332.7144649101
 51
2.3884943821
  0
ARC
  5
4E7
100
AcDbEntity
  8
6_ALL_SURFS
100
AcDbCircle
 62
7
  6
CONTINUOUS
 10
1349.276974416
 20
1285.4352277009
 40
4.7990381057
100
AcDbArc
 50
332.7144649101
 51
2.3884943821
  0
ARC
  5
4E8
100
AcDbEntity
  8
6_ALL_SURFS
100
AcDbCircle
 62
7
  6
CONTINUOUS
 10
1599.276974416
 20
1285.4352277009
 40
4.7990381057
100
AcDbArc
 50
177.6115056179
 51
207.2855350899
  0
ARC
  5
4E9
100
AcDbEntity
  8
6_ALL_SURFS
100
AcDbCircle
 62
7
  6
CONTINUOUS
 10
1099.276974416
 20
1285.4352277009
 40
4.7990381057
100
AcDbArc
 50
332.7144649101
 51
2.3884943821
  0
ARC
  5
4EA
100
AcDbEntity
  8
6_ALL_SURFS
100
AcDbCircle
 62
7
  6
CONTINUOUS
 10
1349.276974416
 20
1285.4352277009
 40
4.7990381057
100
AcDbArc
 50
177.6115056179
 51
207.2855350899
  0
ARC
  5
4EB
100
AcDbEntity
  8
6_ALL_SURFS
100
AcDbCircle
 62
7
  6
CONTINUOUS
 10
849.276974416
 20
1285.4352277009
 40
4.7990381057
100
AcDbArc
 50
332.7144649101
 51
2.3884943821
  0
ARC
  5
4EC
100
AcDbEntity
  8
6_ALL_SURFS
100
AcDbCircle
 62
7
  6
CONTINUOUS
 10
1099.276974416
 20
1285.4352277009
 40
4.7990381057
100
AcDbArc
 50
177.6115056179
 51
207.2855350899
  0
ARC
  5
4ED
100
AcDbEntity
  8
6_ALL_SURFS
100
AcDbCircle
 62
7
  6
CONTINUOUS
 10
849.276974416
 20
1285.4352277009
 40
4.7990381057
100
AcDbArc
 50
177.6115056179
 51
207.2855350899
  0
CIRCLE
  5
4EE
100
AcDbEntity
  8
6_ALL_SURFS
100
AcDbCircle
 62
7
  6
CONTINUOUS
 10
1599.276974416
 20
1285.4352277009
 40
3.5
  0
CIRCLE
  5
4EF
100
AcDbEntity
  8
6_ALL_SURFS
100
AcDbCircle
 62
7
  6
CONTINUOUS
 10
1349.276974416
 20
1285.4352277009
 40
3.5
  0
CIRCLE
  5
4F0
100
AcDbEntity
  8
6_ALL_SURFS
100
AcDbCircle
 62
7
  6
CONTINUOUS
 10
1099.276974416
 20
1285.4352277009
 40
3.5
  0
CIRCLE
  5
4F1
100
AcDbEntity
  8
6_ALL_SURFS
100
AcDbCircle
 62
7
  6
CONTINUOUS
 10
849.276974416
 20
1285.4352277009
 40
3.5
  0
ARC
  5
4F2
100
AcDbEntity
  8
7_ALL_FEATURES
100
AcDbCircle
 62
7
  6
CONTINUOUS
 10
1849.276974416
 20
1187.5352277009
 40
4.7990381057
100
AcDbArc
 50
189.5960093944
 51
226.828815981
  0
ARC
  5
4F3
100
AcDbEntity
  8
7_ALL_FEATURES
100
AcDbCircle
 62
7
  6
CONTINUOUS
 10
2099.276974416
 20
1187.5352277009
 40
4.7990381057
100
AcDbArc
 50
189.5960093944
 51
226.828815981
  0
ARC
  5
4F4
100
AcDbEntity
  8
7_ALL_FEATURES
100
AcDbCircle
 62
7
  6
CONTINUOUS
 10
1849.276974416
 20
1187.5352277009
 40
4.7990381057
100
AcDbArc
 50
313.171184019
 51
350.4039906056
  0
ARC
  5
4F5
100
AcDbEntity
  8
7_ALL_FEATURES
100
AcDbCircle
 62
7
  6
CONTINUOUS
 10
2349.276974416
 20
1187.5352277009
 40
4.7990381057
100
AcDbArc
 50
189.5960093944
 51
226.828815981
  0
ARC
  5
4F6
100
AcDbEntity
  8
7_ALL_FEATURES
100
AcDbCircle
 62
7
  6
CONTINUOUS
 10
2099.276974416
 20
1187.5352277009
 40
4.7990381057
100
AcDbArc
 50
313.171184019
 51
350.4039906056
  0
ARC
  5
4F7
100
AcDbEntity
  8
7_ALL_FEATURES
100
AcDbCircle
 62
7
  6
CONTINUOUS
 10
2599.276974416
 20
1187.5352277009
 40
4.7990381057
100
AcDbArc
 50
189.5960093944
 51
226.828815981
  0
ARC
  5
4F8
100
AcDbEntity
  8
7_ALL_FEATURES
100
AcDbCircle
 62
7
  6
CONTINUOUS
 10
2349.276974416
 20
1187.5352277009
 40
4.7990381057
100
AcDbArc
 50
313.171184019
 51
350.4039906056
  0
ARC
  5
4F9
100
AcDbEntity
  8
7_ALL_FEATURES
100
AcDbCircle
 62
7
  6
CONTINUOUS
 10
2849.276974416
 20
1187.5352277009
 40
4.7990381057
100
AcDbArc
 50
189.5960093944
 51
226.828815981
  0
ARC
  5
4FA
100
AcDbEntity
  8
7_ALL_FEATURES
100
AcDbCircle
 62
7
  6
CONTINUOUS
 10
2599.276974416
 20
1187.5352277009
 40
4.7990381057
100
AcDbArc
 50
313.171184019
 51
350.4039906056
  0
ARC
  5
4FB
100
AcDbEntity
  8
7_ALL_FEATURES
100
AcDbCircle
 62
7
  6
CONTINUOUS
 10
2849.276974416
 20
1187.5352277009
 40
4.7990381057
100
AcDbArc
 50
313.171184019
 51
350.4039906056
  0
ARC
  5
4FC
100
AcDbEntity
  8
7_ALL_FEATURES
100
AcDbCircle
 62
7
  6
CONTINUOUS
 10
1849.276974416
 20
1187.5352277009
 40
4.7990381057
100
AcDbArc
 50
152.7144649101
 51
182.3884943821
  0
ARC
  5
4FD
100
AcDbEntity
  8
7_ALL_FEATURES
100
AcDbCircle
 62
7
  6
CONTINUOUS
 10
2099.276974416
 20
1187.5352277009
 40
4.7990381057
100
AcDbArc
 50
152.7144649101
 51
182.3884943821
  0
ARC
  5
4FE
100
AcDbEntity
  8
7_ALL_FEATURES
100
AcDbCircle
 62
7
  6
CONTINUOUS
 10
1849.276974416
 20
1187.5352277009
 40
4.7990381057
100
AcDbArc
 50
357.6115056179
 51
27.2855350899
  0
ARC
  5
4FF
100
AcDbEntity
  8
7_ALL_FEATURES
100
AcDbCircle
 62
7
  6
CONTINUOUS
 10
2349.276974416
 20
1187.5352277009
 40
4.7990381057
100
AcDbArc
 50
152.7144649101
 51
182.3884943821
  0
ARC
  5
500
100
AcDbEntity
  8
7_ALL_FEATURES
100
AcDbCircle
 62
7
  6
CONTINUOUS
 10
2099.276974416
 20
1187.5352277009
 40
4.7990381057
100
AcDbArc
 50
357.6115056179
 51
27.2855350899
  0
ARC
  5
501
100
AcDbEntity
  8
7_ALL_FEATURES
100
AcDbCircle
 62
7
  6
CONTINUOUS
 10
2599.276974416
 20
1187.5352277009
 40
4.7990381057
100
AcDbArc
 50
152.7144649101
 51
182.3884943821
  0
ARC
  5
502
100
AcDbEntity
  8
7_ALL_FEATURES
100
AcDbCircle
 62
7
  6
CONTINUOUS
 10
2349.276974416
 20
1187.5352277009
 40
4.7990381057
100
AcDbArc
 50
357.6115056179
 51
27.2855350899
  0
ARC
  5
503
100
AcDbEntity
  8
7_ALL_FEATURES
100
AcDbCircle
 62
7
  6
CONTINUOUS
 10
2849.276974416
 20
1187.5352277009
 40
4.7990381057
100
AcDbArc
 50
152.7144649101
 51
182.3884943821
  0
ARC
  5
504
100
AcDbEntity
  8
7_ALL_FEATURES
100
AcDbCircle
 62
7
  6
CONTINUOUS
 10
2599.276974416
 20
1187.5352277009
 40
4.7990381057
100
AcDbArc
 50
357.6115056179
 51
27.2855350899
  0
ARC
  5
505
100
AcDbEntity
  8
7_ALL_FEATURES
100
AcDbCircle
 62
7
  6
CONTINUOUS
 10
2849.276974416
 20
1187.5352277009
 40
4.7990381057
100
AcDbArc
 50
357.6115056179
 51
27.2855350899
  0
ARC
  5
506
100
AcDbEntity
  8
7_ALL_FEATURES
100
AcDbCircle
 62
7
  6
CONTINUOUS
 10
1849.276974416
 20
1187.5352277009
 40
4.7990381057
100
AcDbArc
 50
35.6935828234
 51
144.3064171766
  0
ARC
  5
507
100
AcDbEntity
  8
7_ALL_FEATURES
100
AcDbCircle
 62
7
  6
CONTINUOUS
 10
2099.276974416
 20
1187.5352277009
 40
4.7990381057
100
AcDbArc
 50
35.6935828234
 51
144.3064171766
  0
ARC
  5
508
100
AcDbEntity
  8
7_ALL_FEATURES
100
AcDbCircle
 62
7
  6
CONTINUOUS
 10
2349.276974416
 20
1187.5352277009
 40
4.7990381057
100
AcDbArc
 50
35.6935828234
 51
144.3064171766
  0
ARC
  5
509
100
AcDbEntity
  8
7_ALL_FEATURES
100
AcDbCircle
 62
7
  6
CONTINUOUS
 10
2599.276974416
 20
1187.5352277009
 40
4.7990381057
100
AcDbArc
 50
35.6935828234
 51
144.3064171766
  0
ARC
  5
50A
100
AcDbEntity
  8
7_ALL_FEATURES
100
AcDbCircle
 62
7
  6
CONTINUOUS
 10
2849.276974416
 20
1187.5352277009
 40
4.7990381057
100
AcDbArc
 50
35.6935828234
 51
144.3064171766
  0
CIRCLE
  5
50B
100
AcDbEntity
  8
6_ALL_SURFS
100
AcDbCircle
 62
7
  6
CONTINUOUS
 10
1849.276974416
 20
1187.5352277009
 40
3.5
  0
CIRCLE
  5
50C
100
AcDbEntity
  8
6_ALL_SURFS
100
AcDbCircle
 62
7
  6
CONTINUOUS
 10
2099.276974416
 20
1187.5352277009
 40
3.5
  0
CIRCLE
  5
50D
100
AcDbEntity
  8
6_ALL_SURFS
100
AcDbCircle
 62
7
  6
CONTINUOUS
 10
2349.276974416
 20
1187.5352277009
 40
3.5
  0
CIRCLE
  5
50E
100
AcDbEntity
  8
6_ALL_SURFS
100
AcDbCircle
 62
7
  6
CONTINUOUS
 10
2599.276974416
 20
1187.5352277009
 40
3.5
  0
CIRCLE
  5
50F
100
AcDbEntity
  8
6_ALL_SURFS
100
AcDbCircle
 62
7
  6
CONTINUOUS
 10
2849.276974416
 20
1187.5352277009
 40
3.5
  0
ARC
  5
510
100
AcDbEntity
  8
6_ALL_SURFS
100
AcDbCircle
 62
7
  6
CONTINUOUS
 10
2849.276974416
 20
1285.4352277009
 40
4.7990381057
100
AcDbArc
 50
9.5960093944
 51
46.828815981
  0
ARC
  5
511
100
AcDbEntity
  8
6_ALL_SURFS
100
AcDbCircle
 62
7
  6
CONTINUOUS
 10
2599.276974416
 20
1285.4352277009
 40
4.7990381057
100
AcDbArc
 50
9.5960093944
 51
46.828815981
  0
ARC
  5
512
100
AcDbEntity
  8
6_ALL_SURFS
100
AcDbCircle
 62
7
  6
CONTINUOUS
 10
2849.276974416
 20
1285.4352277009
 40
4.7990381057
100
AcDbArc
 50
133.171184019
 51
170.4039906056
  0
ARC
  5
513
100
AcDbEntity
  8
6_ALL_SURFS
100
AcDbCircle
 62
7
  6
CONTINUOUS
 10
2349.276974416
 20
1285.4352277009
 40
4.7990381057
100
AcDbArc
 50
9.5960093944
 51
46.828815981
  0
ARC
  5
514
100
AcDbEntity
  8
6_ALL_SURFS
100
AcDbCircle
 62
7
  6
CONTINUOUS
 10
2599.276974416
 20
1285.4352277009
 40
4.7990381057
100
AcDbArc
 50
133.171184019
 51
170.4039906056
  0
ARC
  5
515
100
AcDbEntity
  8
6_ALL_SURFS
100
AcDbCircle
 62
7
  6
CONTINUOUS
 10
2099.276974416
 20
1285.4352277009
 40
4.7990381057
100
AcDbArc
 50
9.5960093944
 51
46.828815981
  0
ARC
  5
516
100
AcDbEntity
  8
6_ALL_SURFS
100
AcDbCircle
 62
7
  6
CONTINUOUS
 10
2349.276974416
 20
1285.4352277009
 40
4.7990381057
100
AcDbArc
 50
133.171184019
 51
170.4039906056
  0
ARC
  5
517
100
AcDbEntity
  8
6_ALL_SURFS
100
AcDbCircle
 62
7
  6
CONTINUOUS
 10
1849.276974416
 20
1285.4352277009
 40
4.7990381057
100
AcDbArc
 50
9.5960093944
 51
46.828815981
  0
ARC
  5
518
100
AcDbEntity
  8
6_ALL_SURFS
100
AcDbCircle
 62
7
  6
CONTINUOUS
 10
2099.276974416
 20
1285.4352277009
 40
4.7990381057
100
AcDbArc
 50
133.171184019
 51
170.4039906056
  0
ARC
  5
519
100
AcDbEntity
  8
6_ALL_SURFS
100
AcDbCircle
 62
7
  6
CONTINUOUS
 10
1849.276974416
 20
1285.4352277009
 40
4.7990381057
100
AcDbArc
 50
133.171184019
 51
170.4039906056
  0
ARC
  5
51A
100
AcDbEntity
  8
6_ALL_SURFS
100
AcDbCircle
 62
7
  6
CONTINUOUS
 10
1849.276974416
 20
1285.4352277009
 40
4.7990381057
100
AcDbArc
 50
215.6935828234
 51
324.3064171766
  0
ARC
  5
51B
100
AcDbEntity
  8
6_ALL_SURFS
100
AcDbCircle
 62
7
  6
CONTINUOUS
 10
2099.276974416
 20
1285.4352277009
 40
4.7990381057
100
AcDbArc
 50
215.6935828234
 51
324.3064171766
  0
ARC
  5
51C
100
AcDbEntity
  8
6_ALL_SURFS
100
AcDbCircle
 62
7
  6
CONTINUOUS
 10
2349.276974416
 20
1285.4352277009
 40
4.7990381057
100
AcDbArc
 50
215.6935828234
 51
324.3064171766
  0
ARC
  5
51D
100
AcDbEntity
  8
6_ALL_SURFS
100
AcDbCircle
 62
7
  6
CONTINUOUS
 10
2599.276974416
 20
1285.4352277009
 40
4.7990381057
100
AcDbArc
 50
215.6935828234
 51
324.3064171766
  0
ARC
  5
51E
100
AcDbEntity
  8
6_ALL_SURFS
100
AcDbCircle
 62
7
  6
CONTINUOUS
 10
2849.276974416
 20
1285.4352277009
 40
4.7990381057
100
AcDbArc
 50
215.6935828234
 51
324.3064171766
  0
ARC
  5
51F
100
AcDbEntity
  8
6_ALL_SURFS
100
AcDbCircle
 62
7
  6
CONTINUOUS
 10
2849.276974416
 20
1285.4352277009
 40
4.7990381057
100
AcDbArc
 50
332.7144649101
 51
2.3884943821
  0
ARC
  5
520
100
AcDbEntity
  8
6_ALL_SURFS
100
AcDbCircle
 62
7
  6
CONTINUOUS
 10
2599.276974416
 20
1285.4352277009
 40
4.7990381057
100
AcDbArc
 50
332.7144649101
 51
2.3884943821
  0
ARC
  5
521
100
AcDbEntity
  8
6_ALL_SURFS
100
AcDbCircle
 62
7
  6
CONTINUOUS
 10
2849.276974416
 20
1285.4352277009
 40
4.7990381057
100
AcDbArc
 50
177.6115056179
 51
207.2855350899
  0
ARC
  5
522
100
AcDbEntity
  8
6_ALL_SURFS
100
AcDbCircle
 62
7
  6
CONTINUOUS
 10
2349.276974416
 20
1285.4352277009
 40
4.7990381057
100
AcDbArc
 50
332.7144649101
 51
2.3884943821
  0
ARC
  5
523
100
AcDbEntity
  8
6_ALL_SURFS
100
AcDbCircle
 62
7
  6
CONTINUOUS
 10
2599.276974416
 20
1285.4352277009
 40
4.7990381057
100
AcDbArc
 50
177.6115056179
 51
207.2855350899
  0
ARC
  5
524
100
AcDbEntity
  8
6_ALL_SURFS
100
AcDbCircle
 62
7
  6
CONTINUOUS
 10
2099.276974416
 20
1285.4352277009
 40
4.7990381057
100
AcDbArc
 50
332.7144649101
 51
2.3884943821
  0
ARC
  5
525
100
AcDbEntity
  8
6_ALL_SURFS
100
AcDbCircle
 62
7
  6
CONTINUOUS
 10
2349.276974416
 20
1285.4352277009
 40
4.7990381057
100
AcDbArc
 50
177.6115056179
 51
207.2855350899
  0
ARC
  5
526
100
AcDbEntity
  8
6_ALL_SURFS
100
AcDbCircle
 62
7
  6
CONTINUOUS
 10
1849.276974416
 20
1285.4352277009
 40
4.7990381057
100
AcDbArc
 50
332.7144649101
 51
2.3884943821
  0
ARC
  5
527
100
AcDbEntity
  8
6_ALL_SURFS
100
AcDbCircle
 62
7
  6
CONTINUOUS
 10
2099.276974416
 20
1285.4352277009
 40
4.7990381057
100
AcDbArc
 50
177.6115056179
 51
207.2855350899
  0
ARC
  5
528
100
AcDbEntity
  8
6_ALL_SURFS
100
AcDbCircle
 62
7
  6
CONTINUOUS
 10
1849.276974416
 20
1285.4352277009
 40
4.7990381057
100
AcDbArc
 50
177.6115056179
 51
207.2855350899
  0
CIRCLE
  5
529
100
AcDbEntity
  8
6_ALL_SURFS
100
AcDbCircle
 62
7
  6
CONTINUOUS
 10
2849.276974416
 20
1285.4352277009
 40
3.5
  0
CIRCLE
  5
52A
100
AcDbEntity
  8
6_ALL_SURFS
100
AcDbCircle
 62
7
  6
CONTINUOUS
 10
2599.276974416
 20
1285.4352277009
 40
3.5
  0
CIRCLE
  5
52B
100
AcDbEntity
  8
6_ALL_SURFS
100
AcDbCircle
 62
7
  6
CONTINUOUS
 10
2349.276974416
 20
1285.4352277009
 40
3.5
  0
CIRCLE
  5
52C
100
AcDbEntity
  8
6_ALL_SURFS
100
AcDbCircle
 62
7
  6
CONTINUOUS
 10
2099.276974416
 20
1285.4352277009
 40
3.5
  0
CIRCLE
  5
52D
100
AcDbEntity
  8
6_ALL_SURFS
100
AcDbCircle
 62
7
  6
CONTINUOUS
 10
1849.276974416
 20
1285.4352277009
 40
3.5
  0
SPLINE
  5
52E
100
AcDbEntity
  8
7_ALL_FEATURES
100
AcDbSpline
 62
7
  6
CONTINUOUS
 70
0
 71
3
 72
9
 73
5
 74
0
 42
0.0000001
 43
0.0000001
 44
0.0000000001
 40
0.0
 40
0.0
 40
0.0
 40
0.0
 40
0.4943686921
 40
1.0
 40
1.0
 40
1.0
 40
1.0
 10
844.5450861312
 20
1186.7352277009
 30
0.0
 10
844.6303601244
 20
1186.8094818609
 30
0.0
 10
844.7499724501
 20
1187.063179556
 30
0.0
 10
844.5748363795
 20
1187.2661225419
 30
0.0
 10
844.4821056233
 20
1187.3352277009
 30
0.0
  0
SPLINE
  5
52F
100
AcDbEntity
  8
7_ALL_FEATURES
100
AcDbSpline
 62
7
  6
CONTINUOUS
 70
0
 71
3
 72
9
 73
5
 74
0
 42
0.0000001
 43
0.0000001
 44
0.0000000001
 40
0.0
 40
0.0
 40
0.0
 40
0.0
 40
0.4943686921
 40
1.0
 40
1.0
 40
1.0
 40
1.0
 10
1094.5450861312
 20
1186.7352277009
 30
0.0
 10
1094.6303601244
 20
1186.8094818609
 30
0.0
 10
1094.7499724501
 20
1187.063179556
 30
0.0
 10
1094.5748363795
 20
1187.2661225419
 30
0.0
 10
1094.4821056233
 20
1187.3352277009
 30
0.0
  0
SPLINE
  5
530
100
AcDbEntity
  8
7_ALL_FEATURES
100
AcDbSpline
 62
7
  6
CONTINUOUS
 70
0
 71
3
 72
9
 73
5
 74
0
 42
0.0000001
 43
0.0000001
 44
0.0000000001
 40
0.0
 40
0.0
 40
0.0
 40
0.0
 40
0.5056313079
 40
1.0
 40
1.0
 40
1.0
 40
1.0
 10
854.0718432088
 20
1187.3352277009
 30
0.0
 10
853.9791124525
 20
1187.2661225419
 30
0.0
 10
853.8039763819
 20
1187.063179556
 30
0.0
 10
853.9235887077
 20
1186.8094818609
 30
0.0
 10
854.0088627008
 20
1186.7352277009
 30
0.0
  0
SPLINE
  5
531
100
AcDbEntity
  8
7_ALL_FEATURES
100
AcDbSpline
 62
7
  6
CONTINUOUS
 70
0
 71
3
 72
9
 73
5
 74
0
 42
0.0000001
 43
0.0000001
 44
0.0000000001
 40
0.0
 40
0.0
 40
0.0
 40
0.0
 40
0.4943686921
 40
1.0
 40
1.0
 40
1.0
 40
1.0
 10
1344.5450861312
 20
1186.7352277009
 30
0.0
 10
1344.6303601244
 20
1186.8094818609
 30
0.0
 10
1344.7499724501
 20
1187.063179556
 30
0.0
 10
1344.5748363795
 20
1187.2661225419
 30
0.0
 10
1344.4821056233
 20
1187.3352277009
 30
0.0
  0
SPLINE
  5
532
100
AcDbEntity
  8
7_ALL_FEATURES
100
AcDbSpline
 62
7
  6
CONTINUOUS
 70
0
 71
3
 72
9
 73
5
 74
0
 42
0.0000001
 43
0.0000001
 44
0.0000000001
 40
0.0
 40
0.0
 40
0.0
 40
0.0
 40
0.5056313079
 40
1.0
 40
1.0
 40
1.0
 40
1.0
 10
1104.0718432088
 20
1187.3352277009
 30
0.0
 10
1103.9791124525
 20
1187.2661225419
 30
0.0
 10
1103.8039763819
 20
1187.063179556
 30
0.0
 10
1103.9235887077
 20
1186.8094818609
 30
0.0
 10
1104.0088627008
 20
1186.7352277009
 30
0.0
  0
SPLINE
  5
533
100
AcDbEntity
  8
7_ALL_FEATURES
100
AcDbSpline
 62
7
  6
CONTINUOUS
 70
0
 71
3
 72
9
 73
5
 74
0
 42
0.0000001
 43
0.0000001
 44
0.0000000001
 40
0.0
 40
0.0
 40
0.0
 40
0.0
 40
0.4943686921
 40
1.0
 40
1.0
 40
1.0
 40
1.0
 10
1594.5450861312
 20
1186.7352277009
 30
0.0
 10
1594.6303601244
 20
1186.8094818609
 30
0.0
 10
1594.7499724501
 20
1187.063179556
 30
0.0
 10
1594.5748363795
 20
1187.2661225419
 30
0.0
 10
1594.4821056233
 20
1187.3352277009
 30
0.0
  0
SPLINE
  5
534
100
AcDbEntity
  8
7_ALL_FEATURES
100
AcDbSpline
 62
7
  6
CONTINUOUS
 70
0
 71
3
 72
9
 73
5
 74
0
 42
0.0000001
 43
0.0000001
 44
0.0000000001
 40
0.0
 40
0.0
 40
0.0
 40
0.0
 40
0.5056313079
 40
1.0
 40
1.0
 40
1.0
 40
1.0
 10
1354.0718432088
 20
1187.3352277009
 30
0.0
 10
1353.9791124525
 20
1187.2661225419
 30
0.0
 10
1353.8039763819
 20
1187.063179556
 30
0.0
 10
1353.9235887077
 20
1186.8094818609
 30
0.0
 10
1354.0088627008
 20
1186.7352277009
 30
0.0
  0
SPLINE
  5
535
100
AcDbEntity
  8
7_ALL_FEATURES
100
AcDbSpline
 62
7
  6
CONTINUOUS
 70
0
 71
3
 72
9
 73
5
 74
0
 42
0.0000001
 43
0.0000001
 44
0.0000000001
 40
0.0
 40
0.0
 40
0.0
 40
0.0
 40
0.4943686921
 40
1.0
 40
1.0
 40
1.0
 40
1.0
 10
1844.5450861312
 20
1186.7352277009
 30
0.0
 10
1844.6303601244
 20
1186.8094818609
 30
0.0
 10
1844.7499724501
 20
1187.063179556
 30
0.0
 10
1844.5748363795
 20
1187.2661225419
 30
0.0
 10
1844.4821056233
 20
1187.3352277009
 30
0.0
  0
SPLINE
  5
536
100
AcDbEntity
  8
7_ALL_FEATURES
100
AcDbSpline
 62
7
  6
CONTINUOUS
 70
0
 71
3
 72
9
 73
5
 74
0
 42
0.0000001
 43
0.0000001
 44
0.0000000001
 40
0.0
 40
0.0
 40
0.0
 40
0.0
 40
0.5056313079
 40
1.0
 40
1.0
 40
1.0
 40
1.0
 10
1604.0718432088
 20
1187.3352277009
 30
0.0
 10
1603.9791124525
 20
1187.2661225419
 30
0.0
 10
1603.8039763819
 20
1187.063179556
 30
0.0
 10
1603.9235887077
 20
1186.8094818609
 30
0.0
 10
1604.0088627008
 20
1186.7352277009
 30
0.0
  0
SPLINE
  5
537
100
AcDbEntity
  8
7_ALL_FEATURES
100
AcDbSpline
 62
7
  6
CONTINUOUS
 70
0
 71
3
 72
9
 73
5
 74
0
 42
0.0000001
 43
0.0000001
 44
0.0000000001
 40
0.0
 40
0.0
 40
0.0
 40
0.0
 40
0.4943686921
 40
1.0
 40
1.0
 40
1.0
 40
1.0
 10
2094.5450861312
 20
1186.7352277009
 30
0.0
 10
2094.6303601244
 20
1186.8094818609
 30
0.0
 10
2094.7499724501
 20
1187.063179556
 30
0.0
 10
2094.5748363795
 20
1187.2661225419
 30
0.0
 10
2094.4821056233
 20
1187.3352277009
 30
0.0
  0
SPLINE
  5
538
100
AcDbEntity
  8
7_ALL_FEATURES
100
AcDbSpline
 62
7
  6
CONTINUOUS
 70
0
 71
3
 72
9
 73
5
 74
0
 42
0.0000001
 43
0.0000001
 44
0.0000000001
 40
0.0
 40
0.0
 40
0.0
 40
0.0
 40
0.5056313079
 40
1.0
 40
1.0
 40
1.0
 40
1.0
 10
1854.0718432088
 20
1187.3352277009
 30
0.0
 10
1853.9791124525
 20
1187.2661225419
 30
0.0
 10
1853.8039763819
 20
1187.063179556
 30
0.0
 10
1853.9235887077
 20
1186.8094818609
 30
0.0
 10
1854.0088627008
 20
1186.7352277009
 30
0.0
  0
SPLINE
  5
539
100
AcDbEntity
  8
7_ALL_FEATURES
100
AcDbSpline
 62
7
  6
CONTINUOUS
 70
0
 71
3
 72
9
 73
5
 74
0
 42
0.0000001
 43
0.0000001
 44
0.0000000001
 40
0.0
 40
0.0
 40
0.0
 40
0.0
 40
0.4943686921
 40
1.0
 40
1.0
 40
1.0
 40
1.0
 10
2344.5450861312
 20
1186.7352277009
 30
0.0
 10
2344.6303601244
 20
1186.8094818609
 30
0.0
 10
2344.7499724501
 20
1187.063179556
 30
0.0
 10
2344.5748363795
 20
1187.2661225419
 30
0.0
 10
2344.4821056233
 20
1187.3352277009
 30
0.0
  0
SPLINE
  5
53A
100
AcDbEntity
  8
7_ALL_FEATURES
100
AcDbSpline
 62
7
  6
CONTINUOUS
 70
0
 71
3
 72
9
 73
5
 74
0
 42
0.0000001
 43
0.0000001
 44
0.0000000001
 40
0.0
 40
0.0
 40
0.0
 40
0.0
 40
0.5056313079
 40
1.0
 40
1.0
 40
1.0
 40
1.0
 10
2104.0718432088
 20
1187.3352277009
 30
0.0
 10
2103.9791124525
 20
1187.2661225419
 30
0.0
 10
2103.8039763819
 20
1187.063179556
 30
0.0
 10
2103.9235887077
 20
1186.8094818609
 30
0.0
 10
2104.0088627008
 20
1186.7352277009
 30
0.0
  0
SPLINE
  5
53B
100
AcDbEntity
  8
7_ALL_FEATURES
100
AcDbSpline
 62
7
  6
CONTINUOUS
 70
0
 71
3
 72
9
 73
5
 74
0
 42
0.0000001
 43
0.0000001
 44
0.0000000001
 40
0.0
 40
0.0
 40
0.0
 40
0.0
 40
0.4943686921
 40
1.0
 40
1.0
 40
1.0
 40
1.0
 10
2594.5450861312
 20
1186.7352277009
 30
0.0
 10
2594.6303601244
 20
1186.8094818609
 30
0.0
 10
2594.7499724501
 20
1187.063179556
 30
0.0
 10
2594.5748363795
 20
1187.2661225419
 30
0.0
 10
2594.4821056233
 20
1187.3352277009
 30
0.0
  0
SPLINE
  5
53C
100
AcDbEntity
  8
7_ALL_FEATURES
100
AcDbSpline
 62
7
  6
CONTINUOUS
 70
0
 71
3
 72
9
 73
5
 74
0
 42
0.0000001
 43
0.0000001
 44
0.0000000001
 40
0.0
 40
0.0
 40
0.0
 40
0.0
 40
0.5056313079
 40
1.0
 40
1.0
 40
1.0
 40
1.0
 10
2354.0718432088
 20
1187.3352277009
 30
0.0
 10
2353.9791124525
 20
1187.2661225419
 30
0.0
 10
2353.8039763819
 20
1187.063179556
 30
0.0
 10
2353.9235887077
 20
1186.8094818609
 30
0.0
 10
2354.0088627008
 20
1186.7352277009
 30
0.0
  0
SPLINE
  5
53D
100
AcDbEntity
  8
7_ALL_FEATURES
100
AcDbSpline
 62
7
  6
CONTINUOUS
 70
0
 71
3
 72
9
 73
5
 74
0
 42
0.0000001
 43
0.0000001
 44
0.0000000001
 40
0.0
 40
0.0
 40
0.0
 40
0.0
 40
0.4943686921
 40
1.0
 40
1.0
 40
1.0
 40
1.0
 10
2844.5450861312
 20
1186.7352277009
 30
0.0
 10
2844.6303601244
 20
1186.8094818609
 30
0.0
 10
2844.7499724501
 20
1187.063179556
 30
0.0
 10
2844.5748363795
 20
1187.2661225419
 30
0.0
 10
2844.4821056233
 20
1187.3352277009
 30
0.0
  0
SPLINE
  5
53E
100
AcDbEntity
  8
6_ALL_SURFS
100
AcDbSpline
 62
7
  6
CONTINUOUS
 70
0
 71
3
 72
9
 73
5
 74
0
 42
0.0000001
 43
0.0000001
 44
0.0000000001
 40
0.0
 40
0.0
 40
0.0
 40
0.0
 40
0.4943686921
 40
1.0
 40
1.0
 40
1.0
 40
1.0
 10
844.5450861312
 20
1286.2352277009
 30
0.0
 10
844.6303601244
 20
1286.1609735408
 30
0.0
 10
844.7499724501
 20
1285.9072758457
 30
0.0
 10
844.5748363795
 20
1285.7043328598
 30
0.0
 10
844.4821056233
 20
1285.6352277009
 30
0.0
  0
SPLINE
  5
53F
100
AcDbEntity
  8
7_ALL_FEATURES
100
AcDbSpline
 62
7
  6
CONTINUOUS
 70
0
 71
3
 72
9
 73
5
 74
0
 42
0.0000001
 43
0.0000001
 44
0.0000000001
 40
0.0
 40
0.0
 40
0.0
 40
0.0
 40
0.5056313079
 40
1.0
 40
1.0
 40
1.0
 40
1.0
 10
2604.0718432088
 20
1187.3352277009
 30
0.0
 10
2603.9791124525
 20
1187.2661225419
 30
0.0
 10
2603.8039763819
 20
1187.063179556
 30
0.0
 10
2603.9235887077
 20
1186.8094818609
 30
0.0
 10
2604.0088627008
 20
1186.7352277009
 30
0.0
  0
SPLINE
  5
540
100
AcDbEntity
  8
7_ALL_FEATURES
100
AcDbSpline
 62
7
  6
CONTINUOUS
 70
0
 71
3
 72
9
 73
5
 74
0
 42
0.0000001
 43
0.0000001
 44
0.0000000001
 40
0.0
 40
0.0
 40
0.0
 40
0.0
 40
0.5056313079
 40
1.0
 40
1.0
 40
1.0
 40
1.0
 10
2854.0718432088
 20
1187.3352277009
 30
0.0
 10
2853.9791124525
 20
1187.2661225419
 30
0.0
 10
2853.8039763819
 20
1187.063179556
 30
0.0
 10
2853.9235887077
 20
1186.8094818609
 30
0.0
 10
2854.0088627008
 20
1186.7352277009
 30
0.0
  0
SPLINE
  5
541
100
AcDbEntity
  8
7_ALL_FEATURES
100
AcDbSpline
 62
7
  6
CONTINUOUS
 70
0
 71
3
 72
11
 73
7
 74
0
 42
0.0000001
 43
0.0000001
 44
0.0000000001
 40
0.0
 40
0.0
 40
0.0
 40
0.0
 40
0.2516618547
 40
0.5095933096
 40
0.7677741982
 40
1.0
 40
1.0
 40
1.0
 40
1.0
 10
845.0119109066
 20
1189.7352277009
 30
0.0
 10
845.0717525478
 20
1189.7654890673
 30
0.0
 10
845.1898781291
 20
1189.8347109824
 30
0.0
 10
845.3447353245
 20
1189.9663422975
 30
0.0
 10
845.4640150469
 20
1190.1437937974
 30
0.0
 10
845.4203489009
 20
1190.288799709
 30
0.0
 10
845.3794409986
 20
1190.3352277009
 30
0.0
  0
SPLINE
  5
542
100
AcDbEntity
  8
7_ALL_FEATURES
100
AcDbSpline
 62
7
  6
CONTINUOUS
 70
0
 71
3
 72
11
 73
7
 74
0
 42
0.0000001
 43
0.0000001
 44
0.0000000001
 40
0.0
 40
0.0
 40
0.0
 40
0.0
 40
0.2516618547
 40
0.5095933096
 40
0.7677741982
 40
1.0
 40
1.0
 40
1.0
 40
1.0
 10
1095.0119109066
 20
1189.7352277009
 30
0.0
 10
1095.0717525478
 20
1189.7654890673
 30
0.0
 10
1095.1898781291
 20
1189.8347109824
 30
0.0
 10
1095.3447353245
 20
1189.9663422975
 30
0.0
 10
1095.4640150469
 20
1190.1437937974
 30
0.0
 10
1095.4203489009
 20
1190.288799709
 30
0.0
 10
1095.3794409986
 20
1190.3352277009
 30
0.0
  0
SPLINE
  5
543
100
AcDbEntity
  8
7_ALL_FEATURES
100
AcDbSpline
 62
7
  6
CONTINUOUS
 70
0
 71
3
 72
11
 73
7
 74
0
 42
0.0000001
 43
0.0000001
 44
0.0000000001
 40
0.0
 40
0.0
 40
0.0
 40
0.0
 40
0.2322264696
 40
0.4904133832
 40
0.748343926
 40
1.0
 40
1.0
 40
1.0
 40
1.0
 10
853.1745078334
 20
1190.3352277009
 30
0.0
 10
853.1335998239
 20
1190.2887995873
 30
0.0
 10
853.0899331566
 20
1190.1437916292
 30
0.0
 10
853.2092161241
 20
1189.9663395832
 30
0.0
 10
853.3640739968
 20
1189.8347098767
 30
0.0
 10
853.482197674
 20
1189.7654883645
 30
0.0
 10
853.5420379255
 20
1189.7352277009
 30
0.0
  0
SPLINE
  5
544
100
AcDbEntity
  8
7_ALL_FEATURES
100
AcDbSpline
 62
7
  6
CONTINUOUS
 70
0
 71
3
 72
11
 73
7
 74
0
 42
0.0000001
 43
0.0000001
 44
0.0000000001
 40
0.0
 40
0.0
 40
0.0
 40
0.0
 40
0.2516618547
 40
0.5095933096
 40
0.7677741982
 40
1.0
 40
1.0
 40
1.0
 40
1.0
 10
1345.0119109066
 20
1189.7352277009
 30
0.0
 10
1345.0717525478
 20
1189.7654890673
 30
0.0
 10
1345.1898781291
 20
1189.8347109824
 30
0.0
 10
1345.3447353245
 20
1189.9663422975
 30
0.0
 10
1345.4640150469
 20
1190.1437937974
 30
0.0
 10
1345.4203489009
 20
1190.288799709
 30
0.0
 10
1345.3794409986
 20
1190.3352277009
 30
0.0
  0
SPLINE
  5
545
100
AcDbEntity
  8
7_ALL_FEATURES
100
AcDbSpline
 62
7
  6
CONTINUOUS
 70
0
 71
3
 72
11
 73
7
 74
0
 42
0.0000001
 43
0.0000001
 44
0.0000000001
 40
0.0
 40
0.0
 40
0.0
 40
0.0
 40
0.2322264696
 40
0.4904133832
 40
0.748343926
 40
1.0
 40
1.0
 40
1.0
 40
1.0
 10
1103.1745078334
 20
1190.3352277009
 30
0.0
 10
1103.1335998239
 20
1190.2887995873
 30
0.0
 10
1103.0899331566
 20
1190.1437916292
 30
0.0
 10
1103.2092161241
 20
1189.9663395832
 30
0.0
 10
1103.3640739968
 20
1189.8347098767
 30
0.0
 10
1103.482197674
 20
1189.7654883645
 30
0.0
 10
1103.5420379255
 20
1189.7352277009
 30
0.0
  0
SPLINE
  5
546
100
AcDbEntity
  8
7_ALL_FEATURES
100
AcDbSpline
 62
7
  6
CONTINUOUS
 70
0
 71
3
 72
11
 73
7
 74
0
 42
0.0000001
 43
0.0000001
 44
0.0000000001
 40
0.0
 40
0.0
 40
0.0
 40
0.0
 40
0.2516618547
 40
0.5095933096
 40
0.7677741982
 40
1.0
 40
1.0
 40
1.0
 40
1.0
 10
1595.0119109066
 20
1189.7352277009
 30
0.0
 10
1595.0717525478
 20
1189.7654890673
 30
0.0
 10
1595.1898781291
 20
1189.8347109824
 30
0.0
 10
1595.3447353245
 20
1189.9663422975
 30
0.0
 10
1595.4640150469
 20
1190.1437937974
 30
0.0
 10
1595.4203489009
 20
1190.288799709
 30
0.0
 10
1595.3794409986
 20
1190.3352277009
 30
0.0
  0
SPLINE
  5
547
100
AcDbEntity
  8
7_ALL_FEATURES
100
AcDbSpline
 62
7
  6
CONTINUOUS
 70
0
 71
3
 72
11
 73
7
 74
0
 42
0.0000001
 43
0.0000001
 44
0.0000000001
 40
0.0
 40
0.0
 40
0.0
 40
0.0
 40
0.2322264696
 40
0.4904133832
 40
0.748343926
 40
1.0
 40
1.0
 40
1.0
 40
1.0
 10
1353.1745078334
 20
1190.3352277009
 30
0.0
 10
1353.1335998239
 20
1190.2887995873
 30
0.0
 10
1353.0899331565
 20
1190.1437916292
 30
0.0
 10
1353.2092161241
 20
1189.9663395832
 30
0.0
 10
1353.3640739968
 20
1189.8347098767
 30
0.0
 10
1353.482197674
 20
1189.7654883645
 30
0.0
 10
1353.5420379255
 20
1189.7352277009
 30
0.0
  0
SPLINE
  5
548
100
AcDbEntity
  8
7_ALL_FEATURES
100
AcDbSpline
 62
7
  6
CONTINUOUS
 70
0
 71
3
 72
11
 73
7
 74
0
 42
0.0000001
 43
0.0000001
 44
0.0000000001
 40
0.0
 40
0.0
 40
0.0
 40
0.0
 40
0.2516618547
 40
0.5095933096
 40
0.7677741982
 40
1.0
 40
1.0
 40
1.0
 40
1.0
 10
1845.0119109066
 20
1189.7352277009
 30
0.0
 10
1845.0717525478
 20
1189.7654890673
 30
0.0
 10
1845.1898781291
 20
1189.8347109824
 30
0.0
 10
1845.3447353245
 20
1189.9663422975
 30
0.0
 10
1845.4640150469
 20
1190.1437937974
 30
0.0
 10
1845.4203489009
 20
1190.288799709
 30
0.0
 10
1845.3794409986
 20
1190.3352277009
 30
0.0
  0
SPLINE
  5
549
100
AcDbEntity
  8
7_ALL_FEATURES
100
AcDbSpline
 62
7
  6
CONTINUOUS
 70
0
 71
3
 72
11
 73
7
 74
0
 42
0.0000001
 43
0.0000001
 44
0.0000000001
 40
0.0
 40
0.0
 40
0.0
 40
0.0
 40
0.2322264696
 40
0.4904133832
 40
0.748343926
 40
1.0
 40
1.0
 40
1.0
 40
1.0
 10
1603.1745078334
 20
1190.3352277009
 30
0.0
 10
1603.1335998239
 20
1190.2887995873
 30
0.0
 10
1603.0899331566
 20
1190.1437916292
 30
0.0
 10
1603.2092161241
 20
1189.9663395832
 30
0.0
 10
1603.3640739968
 20
1189.8347098767
 30
0.0
 10
1603.482197674
 20
1189.7654883645
 30
0.0
 10
1603.5420379255
 20
1189.7352277009
 30
0.0
  0
SPLINE
  5
54A
100
AcDbEntity
  8
7_ALL_FEATURES
100
AcDbSpline
 62
7
  6
CONTINUOUS
 70
0
 71
3
 72
11
 73
7
 74
0
 42
0.0000001
 43
0.0000001
 44
0.0000000001
 40
0.0
 40
0.0
 40
0.0
 40
0.0
 40
0.2516618547
 40
0.5095933096
 40
0.7677741982
 40
1.0
 40
1.0
 40
1.0
 40
1.0
 10
2095.0119109066
 20
1189.7352277009
 30
0.0
 10
2095.0717525478
 20
1189.7654890673
 30
0.0
 10
2095.1898781291
 20
1189.8347109824
 30
0.0
 10
2095.3447353245
 20
1189.9663422975
 30
0.0
 10
2095.4640150469
 20
1190.1437937974
 30
0.0
 10
2095.4203489009
 20
1190.288799709
 30
0.0
 10
2095.3794409986
 20
1190.3352277009
 30
0.0
  0
SPLINE
  5
54B
100
AcDbEntity
  8
7_ALL_FEATURES
100
AcDbSpline
 62
7
  6
CONTINUOUS
 70
0
 71
3
 72
11
 73
7
 74
0
 42
0.0000001
 43
0.0000001
 44
0.0000000001
 40
0.0
 40
0.0
 40
0.0
 40
0.0
 40
0.2322264696
 40
0.4904133832
 40
0.748343926
 40
1.0
 40
1.0
 40
1.0
 40
1.0
 10
1853.1745078334
 20
1190.3352277009
 30
0.0
 10
1853.1335998239
 20
1190.2887995873
 30
0.0
 10
1853.0899331566
 20
1190.1437916292
 30
0.0
 10
1853.2092161241
 20
1189.9663395832
 30
0.0
 10
1853.3640739968
 20
1189.8347098767
 30
0.0
 10
1853.482197674
 20
1189.7654883645
 30
0.0
 10
1853.5420379255
 20
1189.7352277009
 30
0.0
  0
SPLINE
  5
54C
100
AcDbEntity
  8
7_ALL_FEATURES
100
AcDbSpline
 62
7
  6
CONTINUOUS
 70
0
 71
3
 72
11
 73
7
 74
0
 42
0.0000001
 43
0.0000001
 44
0.0000000001
 40
0.0
 40
0.0
 40
0.0
 40
0.0
 40
0.2516618547
 40
0.5095933096
 40
0.7677741982
 40
1.0
 40
1.0
 40
1.0
 40
1.0
 10
2345.0119109066
 20
1189.7352277009
 30
0.0
 10
2345.0717525478
 20
1189.7654890673
 30
0.0
 10
2345.1898781291
 20
1189.8347109824
 30
0.0
 10
2345.3447353245
 20
1189.9663422975
 30
0.0
 10
2345.4640150469
 20
1190.1437937974
 30
0.0
 10
2345.4203489009
 20
1190.288799709
 30
0.0
 10
2345.3794409986
 20
1190.3352277009
 30
0.0
  0
SPLINE
  5
54D
100
AcDbEntity
  8
7_ALL_FEATURES
100
AcDbSpline
 62
7
  6
CONTINUOUS
 70
0
 71
3
 72
11
 73
7
 74
0
 42
0.0000001
 43
0.0000001
 44
0.0000000001
 40
0.0
 40
0.0
 40
0.0
 40
0.0
 40
0.2322264696
 40
0.4904133832
 40
0.748343926
 40
1.0
 40
1.0
 40
1.0
 40
1.0
 10
2103.1745078334
 20
1190.3352277009
 30
0.0
 10
2103.1335998239
 20
1190.2887995873
 30
0.0
 10
2103.0899331565
 20
1190.1437916292
 30
0.0
 10
2103.2092161241
 20
1189.9663395832
 30
0.0
 10
2103.3640739968
 20
1189.8347098767
 30
0.0
 10
2103.482197674
 20
1189.7654883645
 30
0.0
 10
2103.5420379255
 20
1189.7352277009
 30
0.0
  0
SPLINE
  5
54E
100
AcDbEntity
  8
7_ALL_FEATURES
100
AcDbSpline
 62
7
  6
CONTINUOUS
 70
0
 71
3
 72
11
 73
7
 74
0
 42
0.0000001
 43
0.0000001
 44
0.0000000001
 40
0.0
 40
0.0
 40
0.0
 40
0.0
 40
0.2516618547
 40
0.5095933096
 40
0.7677741982
 40
1.0
 40
1.0
 40
1.0
 40
1.0
 10
2595.0119109066
 20
1189.7352277009
 30
0.0
 10
2595.0717525478
 20
1189.7654890673
 30
0.0
 10
2595.1898781291
 20
1189.8347109824
 30
0.0
 10
2595.3447353245
 20
1189.9663422975
 30
0.0
 10
2595.4640150469
 20
1190.1437937974
 30
0.0
 10
2595.4203489009
 20
1190.288799709
 30
0.0
 10
2595.3794409986
 20
1190.3352277009
 30
0.0
  0
SPLINE
  5
54F
100
AcDbEntity
  8
7_ALL_FEATURES
100
AcDbSpline
 62
7
  6
CONTINUOUS
 70
0
 71
3
 72
11
 73
7
 74
0
 42
0.0000001
 43
0.0000001
 44
0.0000000001
 40
0.0
 40
0.0
 40
0.0
 40
0.0
 40
0.2322264696
 40
0.4904133832
 40
0.748343926
 40
1.0
 40
1.0
 40
1.0
 40
1.0
 10
2353.1745078334
 20
1190.3352277009
 30
0.0
 10
2353.1335998239
 20
1190.2887995873
 30
0.0
 10
2353.0899331566
 20
1190.1437916292
 30
0.0
 10
2353.2092161241
 20
1189.9663395832
 30
0.0
 10
2353.3640739968
 20
1189.8347098767
 30
0.0
 10
2353.482197674
 20
1189.7654883645
 30
0.0
 10
2353.5420379255
 20
1189.7352277009
 30
0.0
  0
SPLINE
  5
550
100
AcDbEntity
  8
7_ALL_FEATURES
100
AcDbSpline
 62
7
  6
CONTINUOUS
 70
0
 71
3
 72
11
 73
7
 74
0
 42
0.0000001
 43
0.0000001
 44
0.0000000001
 40
0.0
 40
0.0
 40
0.0
 40
0.0
 40
0.2516618547
 40
0.5095933096
 40
0.7677741982
 40
1.0
 40
1.0
 40
1.0
 40
1.0
 10
2845.0119109066
 20
1189.7352277009
 30
0.0
 10
2845.0717525478
 20
1189.7654890673
 30
0.0
 10
2845.1898781291
 20
1189.8347109824
 30
0.0
 10
2845.3447353245
 20
1189.9663422975
 30
0.0
 10
2845.4640150469
 20
1190.1437937974
 30
0.0
 10
2845.4203489009
 20
1190.288799709
 30
0.0
 10
2845.3794409986
 20
1190.3352277009
 30
0.0
  0
SPLINE
  5
551
100
AcDbEntity
  8
7_ALL_FEATURES
100
AcDbSpline
 62
7
  6
CONTINUOUS
 70
0
 71
3
 72
11
 73
7
 74
0
 42
0.0000001
 43
0.0000001
 44
0.0000000001
 40
0.0
 40
0.0
 40
0.0
 40
0.0
 40
0.2322264696
 40
0.4904133832
 40
0.748343926
 40
1.0
 40
1.0
 40
1.0
 40
1.0
 10
2603.1745078334
 20
1190.3352277009
 30
0.0
 10
2603.1335998239
 20
1190.2887995873
 30
0.0
 10
2603.0899331566
 20
1190.1437916292
 30
0.0
 10
2603.2092161241
 20
1189.9663395832
 30
0.0
 10
2603.3640739968
 20
1189.8347098767
 30
0.0
 10
2603.482197674
 20
1189.7654883645
 30
0.0
 10
2603.5420379255
 20
1189.7352277009
 30
0.0
  0
SPLINE
  5
552
100
AcDbEntity
  8
7_ALL_FEATURES
100
AcDbSpline
 62
7
  6
CONTINUOUS
 70
0
 71
3
 72
11
 73
7
 74
0
 42
0.0000001
 43
0.0000001
 44
0.0000000001
 40
0.0
 40
0.0
 40
0.0
 40
0.0
 40
0.2322264696
 40
0.4904133832
 40
0.748343926
 40
1.0
 40
1.0
 40
1.0
 40
1.0
 10
2853.1745078334
 20
1190.3352277009
 30
0.0
 10
2853.1335998239
 20
1190.2887995873
 30
0.0
 10
2853.0899331566
 20
1190.1437916292
 30
0.0
 10
2853.2092161241
 20
1189.9663395832
 30
0.0
 10
2853.3640739968
 20
1189.8347098767
 30
0.0
 10
2853.482197674
 20
1189.7654883645
 30
0.0
 10
2853.5420379255
 20
1189.7352277009
 30
0.0
  0
SPLINE
  5
553
100
AcDbEntity
  8
6_ALL_SURFS
100
AcDbSpline
 62
7
  6
CONTINUOUS
 70
0
 71
3
 72
11
 73
7
 74
0
 42
0.0000001
 43
0.0000001
 44
0.0000000001
 40
0.0
 40
0.0
 40
0.0
 40
0.0
 40
0.2322264696
 40
0.4904133832
 40
0.748343926
 40
1.0
 40
1.0
 40
1.0
 40
1.0
 10
2853.1745078334
 20
1282.6352277009
 30
0.0
 10
2853.1335998239
 20
1282.6816558144
 30
0.0
 10
2853.0899331565
 20
1282.8266637725
 30
0.0
 10
2853.2092161241
 20
1283.0041158185
 30
0.0
 10
2853.3640739968
 20
1283.135745525
 30
0.0
 10
2853.482197674
 20
1283.2049670372
 30
0.0
 10
2853.5420379255
 20
1283.2352277009
 30
0.0
  0
SPLINE
  5
554
100
AcDbEntity
  8
6_ALL_SURFS
100
AcDbSpline
 62
7
  6
CONTINUOUS
 70
0
 71
3
 72
11
 73
7
 74
0
 42
0.0000001
 43
0.0000001
 44
0.0000000001
 40
0.0
 40
0.0
 40
0.0
 40
0.0
 40
0.2322264696
 40
0.4904133832
 40
0.748343926
 40
1.0
 40
1.0
 40
1.0
 40
1.0
 10
2603.1745078334
 20
1282.6352277009
 30
0.0
 10
2603.1335998239
 20
1282.6816558144
 30
0.0
 10
2603.0899331566
 20
1282.8266637725
 30
0.0
 10
2603.2092161241
 20
1283.0041158185
 30
0.0
 10
2603.3640739968
 20
1283.135745525
 30
0.0
 10
2603.482197674
 20
1283.2049670372
 30
0.0
 10
2603.5420379255
 20
1283.2352277009
 30
0.0
  0
SPLINE
  5
555
100
AcDbEntity
  8
6_ALL_SURFS
100
AcDbSpline
 62
7
  6
CONTINUOUS
 70
0
 71
3
 72
11
 73
7
 74
0
 42
0.0000001
 43
0.0000001
 44
0.0000000001
 40
0.0
 40
0.0
 40
0.0
 40
0.0
 40
0.2516618547
 40
0.5095933096
 40
0.7677741982
 40
1.0
 40
1.0
 40
1.0
 40
1.0
 10
2845.0119109066
 20
1283.2352277009
 30
0.0
 10
2845.0717525478
 20
1283.2049663344
 30
0.0
 10
2845.1898781291
 20
1283.1357444193
 30
0.0
 10
2845.3447353245
 20
1283.0041131042
 30
0.0
 10
2845.4640150469
 20
1282.8266616043
 30
0.0
 10
2845.4203489009
 20
1282.6816556927
 30
0.0
 10
2845.3794409986
 20
1282.6352277009
 30
0.0
  0
SPLINE
  5
556
100
AcDbEntity
  8
6_ALL_SURFS
100
AcDbSpline
 62
7
  6
CONTINUOUS
 70
0
 71
3
 72
11
 73
7
 74
0
 42
0.0000001
 43
0.0000001
 44
0.0000000001
 40
0.0
 40
0.0
 40
0.0
 40
0.0
 40
0.2322264696
 40
0.4904133832
 40
0.748343926
 40
1.0
 40
1.0
 40
1.0
 40
1.0
 10
2353.1745078334
 20
1282.6352277009
 30
0.0
 10
2353.1335998239
 20
1282.6816558144
 30
0.0
 10
2353.0899331565
 20
1282.8266637725
 30
0.0
 10
2353.2092161241
 20
1283.0041158185
 30
0.0
 10
2353.3640739968
 20
1283.135745525
 30
0.0
 10
2353.482197674
 20
1283.2049670372
 30
0.0
 10
2353.5420379255
 20
1283.2352277009
 30
0.0
  0
SPLINE
  5
557
100
AcDbEntity
  8
6_ALL_SURFS
100
AcDbSpline
 62
7
  6
CONTINUOUS
 70
0
 71
3
 72
11
 73
7
 74
0
 42
0.0000001
 43
0.0000001
 44
0.0000000001
 40
0.0
 40
0.0
 40
0.0
 40
0.0
 40
0.2516618547
 40
0.5095933096
 40
0.7677741982
 40
1.0
 40
1.0
 40
1.0
 40
1.0
 10
2595.0119109066
 20
1283.2352277009
 30
0.0
 10
2595.0717525478
 20
1283.2049663344
 30
0.0
 10
2595.1898781291
 20
1283.1357444193
 30
0.0
 10
2595.3447353245
 20
1283.0041131042
 30
0.0
 10
2595.4640150469
 20
1282.8266616043
 30
0.0
 10
2595.4203489009
 20
1282.6816556927
 30
0.0
 10
2595.3794409986
 20
1282.6352277009
 30
0.0
  0
SPLINE
  5
558
100
AcDbEntity
  8
6_ALL_SURFS
100
AcDbSpline
 62
7
  6
CONTINUOUS
 70
0
 71
3
 72
11
 73
7
 74
0
 42
0.0000001
 43
0.0000001
 44
0.0000000001
 40
0.0
 40
0.0
 40
0.0
 40
0.0
 40
0.2322264696
 40
0.4904133832
 40
0.748343926
 40
1.0
 40
1.0
 40
1.0
 40
1.0
 10
2103.1745078334
 20
1282.6352277009
 30
0.0
 10
2103.1335998239
 20
1282.6816558144
 30
0.0
 10
2103.0899331565
 20
1282.8266637725
 30
0.0
 10
2103.2092161241
 20
1283.0041158185
 30
0.0
 10
2103.3640739968
 20
1283.135745525
 30
0.0
 10
2103.482197674
 20
1283.2049670372
 30
0.0
 10
2103.5420379255
 20
1283.2352277009
 30
0.0
  0
SPLINE
  5
559
100
AcDbEntity
  8
6_ALL_SURFS
100
AcDbSpline
 62
7
  6
CONTINUOUS
 70
0
 71
3
 72
11
 73
7
 74
0
 42
0.0000001
 43
0.0000001
 44
0.0000000001
 40
0.0
 40
0.0
 40
0.0
 40
0.0
 40
0.2516618547
 40
0.5095933096
 40
0.7677741982
 40
1.0
 40
1.0
 40
1.0
 40
1.0
 10
2345.0119109066
 20
1283.2352277009
 30
0.0
 10
2345.0717525478
 20
1283.2049663344
 30
0.0
 10
2345.1898781291
 20
1283.1357444193
 30
0.0
 10
2345.3447353245
 20
1283.0041131042
 30
0.0
 10
2345.4640150469
 20
1282.8266616043
 30
0.0
 10
2345.4203489009
 20
1282.6816556927
 30
0.0
 10
2345.3794409986
 20
1282.6352277009
 30
0.0
  0
SPLINE
  5
55A
100
AcDbEntity
  8
6_ALL_SURFS
100
AcDbSpline
 62
7
  6
CONTINUOUS
 70
0
 71
3
 72
11
 73
7
 74
0
 42
0.0000001
 43
0.0000001
 44
0.0000000001
 40
0.0
 40
0.0
 40
0.0
 40
0.0
 40
0.2322264696
 40
0.4904133832
 40
0.748343926
 40
1.0
 40
1.0
 40
1.0
 40
1.0
 10
1853.1745078334
 20
1282.6352277009
 30
0.0
 10
1853.1335998239
 20
1282.6816558144
 30
0.0
 10
1853.0899331565
 20
1282.8266637725
 30
0.0
 10
1853.2092161241
 20
1283.0041158185
 30
0.0
 10
1853.3640739968
 20
1283.135745525
 30
0.0
 10
1853.482197674
 20
1283.2049670372
 30
0.0
 10
1853.5420379255
 20
1283.2352277009
 30
0.0
  0
SPLINE
  5
55B
100
AcDbEntity
  8
6_ALL_SURFS
100
AcDbSpline
 62
7
  6
CONTINUOUS
 70
0
 71
3
 72
11
 73
7
 74
0
 42
0.0000001
 43
0.0000001
 44
0.0000000001
 40
0.0
 40
0.0
 40
0.0
 40
0.0
 40
0.2516618547
 40
0.5095933096
 40
0.7677741982
 40
1.0
 40
1.0
 40
1.0
 40
1.0
 10
2095.0119109066
 20
1283.2352277009
 30
0.0
 10
2095.0717525478
 20
1283.2049663344
 30
0.0
 10
2095.1898781291
 20
1283.1357444193
 30
0.0
 10
2095.3447353245
 20
1283.0041131042
 30
0.0
 10
2095.4640150469
 20
1282.8266616043
 30
0.0
 10
2095.4203489009
 20
1282.6816556927
 30
0.0
 10
2095.3794409986
 20
1282.6352277009
 30
0.0
  0
SPLINE
  5
55C
100
AcDbEntity
  8
6_ALL_SURFS
100
AcDbSpline
 62
7
  6
CONTINUOUS
 70
0
 71
3
 72
11
 73
7
 74
0
 42
0.0000001
 43
0.0000001
 44
0.0000000001
 40
0.0
 40
0.0
 40
0.0
 40
0.0
 40
0.2322264696
 40
0.4904133832
 40
0.748343926
 40
1.0
 40
1.0
 40
1.0
 40
1.0
 10
1603.1745078334
 20
1282.6352277009
 30
0.0
 10
1603.1335998239
 20
1282.6816558144
 30
0.0
 10
1603.0899331566
 20
1282.8266637725
 30
0.0
 10
1603.2092161241
 20
1283.0041158185
 30
0.0
 10
1603.3640739968
 20
1283.135745525
 30
0.0
 10
1603.482197674
 20
1283.2049670372
 30
0.0
 10
1603.5420379255
 20
1283.2352277009
 30
0.0
  0
SPLINE
  5
55D
100
AcDbEntity
  8
6_ALL_SURFS
100
AcDbSpline
 62
7
  6
CONTINUOUS
 70
0
 71
3
 72
11
 73
7
 74
0
 42
0.0000001
 43
0.0000001
 44
0.0000000001
 40
0.0
 40
0.0
 40
0.0
 40
0.0
 40
0.2516618547
 40
0.5095933096
 40
0.7677741982
 40
1.0
 40
1.0
 40
1.0
 40
1.0
 10
1845.0119109066
 20
1283.2352277009
 30
0.0
 10
1845.0717525478
 20
1283.2049663344
 30
0.0
 10
1845.1898781291
 20
1283.1357444193
 30
0.0
 10
1845.3447353245
 20
1283.0041131042
 30
0.0
 10
1845.4640150469
 20
1282.8266616043
 30
0.0
 10
1845.4203489009
 20
1282.6816556927
 30
0.0
 10
1845.3794409986
 20
1282.6352277009
 30
0.0
  0
SPLINE
  5
55E
100
AcDbEntity
  8
6_ALL_SURFS
100
AcDbSpline
 62
7
  6
CONTINUOUS
 70
0
 71
3
 72
11
 73
7
 74
0
 42
0.0000001
 43
0.0000001
 44
0.0000000001
 40
0.0
 40
0.0
 40
0.0
 40
0.0
 40
0.2322264696
 40
0.4904133832
 40
0.748343926
 40
1.0
 40
1.0
 40
1.0
 40
1.0
 10
1353.1745078334
 20
1282.6352277009
 30
0.0
 10
1353.1335998239
 20
1282.6816558144
 30
0.0
 10
1353.0899331566
 20
1282.8266637725
 30
0.0
 10
1353.2092161241
 20
1283.0041158185
 30
0.0
 10
1353.3640739968
 20
1283.135745525
 30
0.0
 10
1353.482197674
 20
1283.2049670372
 30
0.0
 10
1353.5420379255
 20
1283.2352277009
 30
0.0
  0
SPLINE
  5
55F
100
AcDbEntity
  8
6_ALL_SURFS
100
AcDbSpline
 62
7
  6
CONTINUOUS
 70
0
 71
3
 72
11
 73
7
 74
0
 42
0.0000001
 43
0.0000001
 44
0.0000000001
 40
0.0
 40
0.0
 40
0.0
 40
0.0
 40
0.2516618547
 40
0.5095933096
 40
0.7677741982
 40
1.0
 40
1.0
 40
1.0
 40
1.0
 10
1595.0119109066
 20
1283.2352277009
 30
0.0
 10
1595.0717525478
 20
1283.2049663344
 30
0.0
 10
1595.1898781291
 20
1283.1357444193
 30
0.0
 10
1595.3447353245
 20
1283.0041131042
 30
0.0
 10
1595.4640150469
 20
1282.8266616043
 30
0.0
 10
1595.4203489009
 20
1282.6816556927
 30
0.0
 10
1595.3794409986
 20
1282.6352277009
 30
0.0
  0
SPLINE
  5
560
100
AcDbEntity
  8
6_ALL_SURFS
100
AcDbSpline
 62
7
  6
CONTINUOUS
 70
0
 71
3
 72
11
 73
7
 74
0
 42
0.0000001
 43
0.0000001
 44
0.0000000001
 40
0.0
 40
0.0
 40
0.0
 40
0.0
 40
0.2322264696
 40
0.4904133832
 40
0.748343926
 40
1.0
 40
1.0
 40
1.0
 40
1.0
 10
1103.1745078334
 20
1282.6352277009
 30
0.0
 10
1103.1335998239
 20
1282.6816558144
 30
0.0
 10
1103.0899331566
 20
1282.8266637725
 30
0.0
 10
1103.2092161241
 20
1283.0041158185
 30
0.0
 10
1103.3640739968
 20
1283.135745525
 30
0.0
 10
1103.482197674
 20
1283.2049670372
 30
0.0
 10
1103.5420379255
 20
1283.2352277009
 30
0.0
  0
SPLINE
  5
561
100
AcDbEntity
  8
6_ALL_SURFS
100
AcDbSpline
 62
7
  6
CONTINUOUS
 70
0
 71
3
 72
11
 73
7
 74
0
 42
0.0000001
 43
0.0000001
 44
0.0000000001
 40
0.0
 40
0.0
 40
0.0
 40
0.0
 40
0.2516618547
 40
0.5095933096
 40
0.7677741982
 40
1.0
 40
1.0
 40
1.0
 40
1.0
 10
1345.0119109066
 20
1283.2352277009
 30
0.0
 10
1345.0717525478
 20
1283.2049663344
 30
0.0
 10
1345.1898781291
 20
1283.1357444193
 30
0.0
 10
1345.3447353245
 20
1283.0041131042
 30
0.0
 10
1345.4640150469
 20
1282.8266616043
 30
0.0
 10
1345.4203489009
 20
1282.6816556927
 30
0.0
 10
1345.3794409986
 20
1282.6352277009
 30
0.0
  0
SPLINE
  5
562
100
AcDbEntity
  8
6_ALL_SURFS
100
AcDbSpline
 62
7
  6
CONTINUOUS
 70
0
 71
3
 72
11
 73
7
 74
0
 42
0.0000001
 43
0.0000001
 44
0.0000000001
 40
0.0
 40
0.0
 40
0.0
 40
0.0
 40
0.2322264696
 40
0.4904133832
 40
0.748343926
 40
1.0
 40
1.0
 40
1.0
 40
1.0
 10
853.1745078334
 20
1282.6352277009
 30
0.0
 10
853.1335998239
 20
1282.6816558144
 30
0.0
 10
853.0899331566
 20
1282.8266637725
 30
0.0
 10
853.2092161241
 20
1283.0041158185
 30
0.0
 10
853.3640739968
 20
1283.135745525
 30
0.0
 10
853.482197674
 20
1283.2049670372
 30
0.0
 10
853.5420379255
 20
1283.2352277009
 30
0.0
  0
SPLINE
  5
563
100
AcDbEntity
  8
6_ALL_SURFS
100
AcDbSpline
 62
7
  6
CONTINUOUS
 70
0
 71
3
 72
11
 73
7
 74
0
 42
0.0000001
 43
0.0000001
 44
0.0000000001
 40
0.0
 40
0.0
 40
0.0
 40
0.0
 40
0.2516618547
 40
0.5095933096
 40
0.7677741982
 40
1.0
 40
1.0
 40
1.0
 40
1.0
 10
1095.0119109066
 20
1283.2352277009
 30
0.0
 10
1095.0717525478
 20
1283.2049663344
 30
0.0
 10
1095.1898781291
 20
1283.1357444193
 30
0.0
 10
1095.3447353245
 20
1283.0041131042
 30
0.0
 10
1095.4640150469
 20
1282.8266616043
 30
0.0
 10
1095.4203489009
 20
1282.6816556927
 30
0.0
 10
1095.3794409986
 20
1282.6352277009
 30
0.0
  0
SPLINE
  5
564
100
AcDbEntity
  8
6_ALL_SURFS
100
AcDbSpline
 62
7
  6
CONTINUOUS
 70
0
 71
3
 72
11
 73
7
 74
0
 42
0.0000001
 43
0.0000001
 44
0.0000000001
 40
0.0
 40
0.0
 40
0.0
 40
0.0
 40
0.2516618547
 40
0.5095933096
 40
0.7677741982
 40
1.0
 40
1.0
 40
1.0
 40
1.0
 10
845.0119109066
 20
1283.2352277009
 30
0.0
 10
845.0717525478
 20
1283.2049663344
 30
0.0
 10
845.1898781291
 20
1283.1357444193
 30
0.0
 10
845.3447353245
 20
1283.0041131042
 30
0.0
 10
845.4640150469
 20
1282.8266616043
 30
0.0
 10
845.4203489009
 20
1282.6816556927
 30
0.0
 10
845.3794409986
 20
1282.6352277009
 30
0.0
  0
SPLINE
  5
565
100
AcDbEntity
  8
6_ALL_SURFS
100
AcDbSpline
 62
7
  6
CONTINUOUS
 70
0
 71
3
 72
9
 73
5
 74
0
 42
0.0000001
 43
0.0000001
 44
0.0000000001
 40
0.0
 40
0.0
 40
0.0
 40
0.0
 40
0.5056313079
 40
1.0
 40
1.0
 40
1.0
 40
1.0
 10
2854.0718432088
 20
1285.6352277009
 30
0.0
 10
2853.9791124525
 20
1285.7043328598
 30
0.0
 10
2853.8039763819
 20
1285.9072758457
 30
0.0
 10
2853.9235887077
 20
1286.1609735408
 30
0.0
 10
2854.0088627008
 20
1286.2352277009
 30
0.0
  0
SPLINE
  5
566
100
AcDbEntity
  8
6_ALL_SURFS
100
AcDbSpline
 62
7
  6
CONTINUOUS
 70
0
 71
3
 72
9
 73
5
 74
0
 42
0.0000001
 43
0.0000001
 44
0.0000000001
 40
0.0
 40
0.0
 40
0.0
 40
0.0
 40
0.5056313079
 40
1.0
 40
1.0
 40
1.0
 40
1.0
 10
2604.0718432088
 20
1285.6352277009
 30
0.0
 10
2603.9791124525
 20
1285.7043328598
 30
0.0
 10
2603.8039763819
 20
1285.9072758457
 30
0.0
 10
2603.9235887077
 20
1286.1609735408
 30
0.0
 10
2604.0088627008
 20
1286.2352277009
 30
0.0
  0
SPLINE
  5
567
100
AcDbEntity
  8
6_ALL_SURFS
100
AcDbSpline
 62
7
  6
CONTINUOUS
 70
0
 71
3
 72
9
 73
5
 74
0
 42
0.0000001
 43
0.0000001
 44
0.0000000001
 40
0.0
 40
0.0
 40
0.0
 40
0.0
 40
0.4943686921
 40
1.0
 40
1.0
 40
1.0
 40
1.0
 10
2844.5450861312
 20
1286.2352277009
 30
0.0
 10
2844.6303601244
 20
1286.1609735408
 30
0.0
 10
2844.7499724501
 20
1285.9072758457
 30
0.0
 10
2844.5748363795
 20
1285.7043328598
 30
0.0
 10
2844.4821056233
 20
1285.6352277009
 30
0.0
  0
SPLINE
  5
568
100
AcDbEntity
  8
6_ALL_SURFS
100
AcDbSpline
 62
7
  6
CONTINUOUS
 70
0
 71
3
 72
9
 73
5
 74
0
 42
0.0000001
 43
0.0000001
 44
0.0000000001
 40
0.0
 40
0.0
 40
0.0
 40
0.0
 40
0.5056313079
 40
1.0
 40
1.0
 40
1.0
 40
1.0
 10
2354.0718432088
 20
1285.6352277009
 30
0.0
 10
2353.9791124525
 20
1285.7043328598
 30
0.0
 10
2353.8039763819
 20
1285.9072758457
 30
0.0
 10
2353.9235887077
 20
1286.1609735408
 30
0.0
 10
2354.0088627008
 20
1286.2352277009
 30
0.0
  0
SPLINE
  5
569
100
AcDbEntity
  8
6_ALL_SURFS
100
AcDbSpline
 62
7
  6
CONTINUOUS
 70
0
 71
3
 72
9
 73
5
 74
0
 42
0.0000001
 43
0.0000001
 44
0.0000000001
 40
0.0
 40
0.0
 40
0.0
 40
0.0
 40
0.4943686921
 40
1.0
 40
1.0
 40
1.0
 40
1.0
 10
2594.5450861312
 20
1286.2352277009
 30
0.0
 10
2594.6303601244
 20
1286.1609735408
 30
0.0
 10
2594.7499724501
 20
1285.9072758457
 30
0.0
 10
2594.5748363795
 20
1285.7043328598
 30
0.0
 10
2594.4821056233
 20
1285.6352277009
 30
0.0
  0
SPLINE
  5
56A
100
AcDbEntity
  8
6_ALL_SURFS
100
AcDbSpline
 62
7
  6
CONTINUOUS
 70
0
 71
3
 72
9
 73
5
 74
0
 42
0.0000001
 43
0.0000001
 44
0.0000000001
 40
0.0
 40
0.0
 40
0.0
 40
0.0
 40
0.5056313079
 40
1.0
 40
1.0
 40
1.0
 40
1.0
 10
2104.0718432088
 20
1285.6352277009
 30
0.0
 10
2103.9791124525
 20
1285.7043328598
 30
0.0
 10
2103.8039763819
 20
1285.9072758457
 30
0.0
 10
2103.9235887077
 20
1286.1609735408
 30
0.0
 10
2104.0088627008
 20
1286.2352277009
 30
0.0
  0
SPLINE
  5
56B
100
AcDbEntity
  8
6_ALL_SURFS
100
AcDbSpline
 62
7
  6
CONTINUOUS
 70
0
 71
3
 72
9
 73
5
 74
0
 42
0.0000001
 43
0.0000001
 44
0.0000000001
 40
0.0
 40
0.0
 40
0.0
 40
0.0
 40
0.4943686921
 40
1.0
 40
1.0
 40
1.0
 40
1.0
 10
2344.5450861312
 20
1286.2352277009
 30
0.0
 10
2344.6303601244
 20
1286.1609735408
 30
0.0
 10
2344.7499724501
 20
1285.9072758457
 30
0.0
 10
2344.5748363795
 20
1285.7043328598
 30
0.0
 10
2344.4821056233
 20
1285.6352277009
 30
0.0
  0
SPLINE
  5
56C
100
AcDbEntity
  8
6_ALL_SURFS
100
AcDbSpline
 62
7
  6
CONTINUOUS
 70
0
 71
3
 72
9
 73
5
 74
0
 42
0.0000001
 43
0.0000001
 44
0.0000000001
 40
0.0
 40
0.0
 40
0.0
 40
0.0
 40
0.5056313079
 40
1.0
 40
1.0
 40
1.0
 40
1.0
 10
1854.0718432088
 20
1285.6352277009
 30
0.0
 10
1853.9791124525
 20
1285.7043328598
 30
0.0
 10
1853.8039763819
 20
1285.9072758457
 30
0.0
 10
1853.9235887077
 20
1286.1609735408
 30
0.0
 10
1854.0088627008
 20
1286.2352277009
 30
0.0
  0
SPLINE
  5
56D
100
AcDbEntity
  8
6_ALL_SURFS
100
AcDbSpline
 62
7
  6
CONTINUOUS
 70
0
 71
3
 72
9
 73
5
 74
0
 42
0.0000001
 43
0.0000001
 44
0.0000000001
 40
0.0
 40
0.0
 40
0.0
 40
0.0
 40
0.4943686921
 40
1.0
 40
1.0
 40
1.0
 40
1.0
 10
2094.5450861312
 20
1286.2352277009
 30
0.0
 10
2094.6303601244
 20
1286.1609735408
 30
0.0
 10
2094.7499724501
 20
1285.9072758457
 30
0.0
 10
2094.5748363795
 20
1285.7043328598
 30
0.0
 10
2094.4821056233
 20
1285.6352277009
 30
0.0
  0
SPLINE
  5
56E
100
AcDbEntity
  8
6_ALL_SURFS
100
AcDbSpline
 62
7
  6
CONTINUOUS
 70
0
 71
3
 72
9
 73
5
 74
0
 42
0.0000001
 43
0.0000001
 44
0.0000000001
 40
0.0
 40
0.0
 40
0.0
 40
0.0
 40
0.5056313079
 40
1.0
 40
1.0
 40
1.0
 40
1.0
 10
1604.0718432088
 20
1285.6352277009
 30
0.0
 10
1603.9791124525
 20
1285.7043328598
 30
0.0
 10
1603.8039763819
 20
1285.9072758457
 30
0.0
 10
1603.9235887077
 20
1286.1609735408
 30
0.0
 10
1604.0088627008
 20
1286.2352277009
 30
0.0
  0
SPLINE
  5
56F
100
AcDbEntity
  8
6_ALL_SURFS
100
AcDbSpline
 62
7
  6
CONTINUOUS
 70
0
 71
3
 72
9
 73
5
 74
0
 42
0.0000001
 43
0.0000001
 44
0.0000000001
 40
0.0
 40
0.0
 40
0.0
 40
0.0
 40
0.4943686921
 40
1.0
 40
1.0
 40
1.0
 40
1.0
 10
1844.5450861312
 20
1286.2352277009
 30
0.0
 10
1844.6303601244
 20
1286.1609735408
 30
0.0
 10
1844.7499724501
 20
1285.9072758457
 30
0.0
 10
1844.5748363795
 20
1285.7043328598
 30
0.0
 10
1844.4821056233
 20
1285.6352277009
 30
0.0
  0
SPLINE
  5
570
100
AcDbEntity
  8
6_ALL_SURFS
100
AcDbSpline
 62
7
  6
CONTINUOUS
 70
0
 71
3
 72
9
 73
5
 74
0
 42
0.0000001
 43
0.0000001
 44
0.0000000001
 40
0.0
 40
0.0
 40
0.0
 40
0.0
 40
0.5056313079
 40
1.0
 40
1.0
 40
1.0
 40
1.0
 10
1354.0718432088
 20
1285.6352277009
 30
0.0
 10
1353.9791124525
 20
1285.7043328598
 30
0.0
 10
1353.8039763819
 20
1285.9072758457
 30
0.0
 10
1353.9235887077
 20
1286.1609735408
 30
0.0
 10
1354.0088627008
 20
1286.2352277009
 30
0.0
  0
SPLINE
  5
571
100
AcDbEntity
  8
6_ALL_SURFS
100
AcDbSpline
 62
7
  6
CONTINUOUS
 70
0
 71
3
 72
9
 73
5
 74
0
 42
0.0000001
 43
0.0000001
 44
0.0000000001
 40
0.0
 40
0.0
 40
0.0
 40
0.0
 40
0.4943686921
 40
1.0
 40
1.0
 40
1.0
 40
1.0
 10
1594.5450861312
 20
1286.2352277009
 30
0.0
 10
1594.6303601244
 20
1286.1609735408
 30
0.0
 10
1594.7499724501
 20
1285.9072758457
 30
0.0
 10
1594.5748363795
 20
1285.7043328598
 30
0.0
 10
1594.4821056233
 20
1285.6352277009
 30
0.0
  0
SPLINE
  5
572
100
AcDbEntity
  8
6_ALL_SURFS
100
AcDbSpline
 62
7
  6
CONTINUOUS
 70
0
 71
3
 72
9
 73
5
 74
0
 42
0.0000001
 43
0.0000001
 44
0.0000000001
 40
0.0
 40
0.0
 40
0.0
 40
0.0
 40
0.5056313079
 40
1.0
 40
1.0
 40
1.0
 40
1.0
 10
1104.0718432088
 20
1285.6352277009
 30
0.0
 10
1103.9791124525
 20
1285.7043328598
 30
0.0
 10
1103.8039763819
 20
1285.9072758457
 30
0.0
 10
1103.9235887077
 20
1286.1609735408
 30
0.0
 10
1104.0088627008
 20
1286.2352277009
 30
0.0
  0
SPLINE
  5
573
100
AcDbEntity
  8
6_ALL_SURFS
100
AcDbSpline
 62
7
  6
CONTINUOUS
 70
0
 71
3
 72
9
 73
5
 74
0
 42
0.0000001
 43
0.0000001
 44
0.0000000001
 40
0.0
 40
0.0
 40
0.0
 40
0.0
 40
0.4943686921
 40
1.0
 40
1.0
 40
1.0
 40
1.0
 10
1344.5450861312
 20
1286.2352277009
 30
0.0
 10
1344.6303601244
 20
1286.1609735408
 30
0.0
 10
1344.7499724501
 20
1285.9072758457
 30
0.0
 10
1344.5748363795
 20
1285.7043328598
 30
0.0
 10
1344.4821056233
 20
1285.6352277009
 30
0.0
  0
SPLINE
  5
574
100
AcDbEntity
  8
6_ALL_SURFS
100
AcDbSpline
 62
7
  6
CONTINUOUS
 70
0
 71
3
 72
9
 73
5
 74
0
 42
0.0000001
 43
0.0000001
 44
0.0000000001
 40
0.0
 40
0.0
 40
0.0
 40
0.0
 40
0.5056313079
 40
1.0
 40
1.0
 40
1.0
 40
1.0
 10
854.0718432088
 20
1285.6352277009
 30
0.0
 10
853.9791124525
 20
1285.7043328598
 30
0.0
 10
853.8039763819
 20
1285.9072758457
 30
0.0
 10
853.9235887077
 20
1286.1609735408
 30
0.0
 10
854.0088627008
 20
1286.2352277009
 30
0.0
  0
SPLINE
  5
575
100
AcDbEntity
  8
6_ALL_SURFS
100
AcDbSpline
 62
7
  6
CONTINUOUS
 70
0
 71
3
 72
9
 73
5
 74
0
 42
0.0000001
 43
0.0000001
 44
0.0000000001
 40
0.0
 40
0.0
 40
0.0
 40
0.0
 40
0.4943686921
 40
1.0
 40
1.0
 40
1.0
 40
1.0
 10
1094.5450861312
 20
1286.2352277009
 30
0.0
 10
1094.6303601244
 20
1286.1609735408
 30
0.0
 10
1094.7499724501
 20
1285.9072758457
 30
0.0
 10
1094.5748363795
 20
1285.7043328598
 30
0.0
 10
1094.4821056233
 20
1285.6352277009
 30
0.0
  0
ELLIPSE
  5
576
100
AcDbEntity
  8
6_ALL_SURFS
100
AcDbEllipse
 62
7
  6
CONTINUOUS
 10
2849.276974416
 20
882.6947507785
 30
0.0
 11
5.4882058378
 21
0.0
 31
0.0
 40
0.1015346165
 41
7.212646077
 42
8.495317191
  0
ELLIPSE
  5
577
100
AcDbEntity
  8
6_ALL_SURFS
100
AcDbEllipse
 62
7
  6
CONTINUOUS
 10
2599.276974416
 20
882.6947507785
 30
0.0
 11
5.4882058378
 21
0.0
 31
0.0
 40
0.1015346165
 41
7.212646077
 42
8.495317191
  0
ELLIPSE
  5
578
100
AcDbEntity
  8
6_ALL_SURFS
100
AcDbEllipse
 62
7
  6
CONTINUOUS
 10
2349.276974416
 20
882.6947507785
 30
0.0
 11
5.4882058378
 21
-0.0
 31
0.0
 40
0.1015346165
 41
7.212646077
 42
8.495317191
  0
ELLIPSE
  5
579
100
AcDbEntity
  8
6_ALL_SURFS
100
AcDbEllipse
 62
7
  6
CONTINUOUS
 10
2099.276974416
 20
882.6947507785
 30
0.0
 11
5.4882058378
 21
0.0
 31
0.0
 40
0.1015346165
 41
7.212646077
 42
8.495317191
  0
ELLIPSE
  5
57A
100
AcDbEntity
  8
6_ALL_SURFS
100
AcDbEllipse
 62
7
  6
CONTINUOUS
 10
1849.276974416
 20
882.6947507785
 30
0.0
 11
5.4882058378
 21
0.0
 31
0.0
 40
0.1015346165
 41
7.212646077
 42
8.495317191
  0
ELLIPSE
  5
57B
100
AcDbEntity
  8
6_ALL_SURFS
100
AcDbEllipse
 62
7
  6
CONTINUOUS
 10
1599.276974416
 20
882.6947507785
 30
0.0
 11
5.4882058378
 21
0.0
 31
0.0
 40
0.1015346165
 41
7.212646077
 42
8.495317191
  0
ELLIPSE
  5
57C
100
AcDbEntity
  8
6_ALL_SURFS
100
AcDbEllipse
 62
7
  6
CONTINUOUS
 10
1349.276974416
 20
882.6947507785
 30
0.0
 11
5.4882058378
 21
0.0
 31
0.0
 40
0.1015346165
 41
7.212646077
 42
8.495317191
  0
ELLIPSE
  5
57D
100
AcDbEntity
  8
6_ALL_SURFS
100
AcDbEllipse
 62
7
  6
CONTINUOUS
 10
1099.276974416
 20
882.6947507785
 30
0.0
 11
5.4882058378
 21
0.0
 31
0.0
 40
0.1015346165
 41
7.212646077
 42
8.495317191
  0
ELLIPSE
  5
57E
100
AcDbEntity
  8
6_ALL_SURFS
100
AcDbEllipse
 62
7
  6
CONTINUOUS
 10
849.276974416
 20
882.6947507785
 30
0.0
 11
5.4882058378
 21
0.0
 31
0.0
 40
0.1015346165
 41
7.212646077
 42
8.495317191
  0
ELLIPSE
  5
57F
100
AcDbEntity
  8
7_ALL_FEATURES
100
AcDbEllipse
 62
7
  6
CONTINUOUS
 10
1349.276974416
 20
1188.5004006727
 30
0.0
 11
0.0
 21
5.5724287509
 31
0.0
 40
0.9848857802
 41
-3.7829282106
 42
-2.5002570966
  0
ELLIPSE
  5
580
100
AcDbEntity
  8
7_ALL_FEATURES
100
AcDbEllipse
 62
7
  6
CONTINUOUS
 10
1099.276974416
 20
1188.5004006727
 30
0.0
 11
0.0
 21
5.5724287509
 31
0.0
 40
0.9848857802
 41
-3.7829282106
 42
-2.5002570966
  0
ELLIPSE
  5
581
100
AcDbEntity
  8
7_ALL_FEATURES
100
AcDbEllipse
 62
7
  6
CONTINUOUS
 10
849.276974416
 20
1188.5004006727
 30
0.0
 11
0.0
 21
5.5724287509
 31
0.0
 40
0.9848857802
 41
-3.7829282106
 42
-2.5002570966
  0
ELLIPSE
  5
582
100
AcDbEntity
  8
6_ALL_SURFS
100
AcDbEllipse
 62
7
  6
CONTINUOUS
 10
2849.276974416
 20
1284.4700547291
 30
0.0
 11
-0.0
 21
5.5724287509
 31
0.0
 40
0.9848857802
 41
5.6418497502
 42
6.9245208642
  0
ELLIPSE
  5
583
100
AcDbEntity
  8
6_ALL_SURFS
100
AcDbEllipse
 62
7
  6
CONTINUOUS
 10
2599.276974416
 20
1284.4700547291
 30
0.0
 11
-0.0
 21
5.5724287509
 31
0.0
 40
0.9848857802
 41
5.6418497502
 42
6.9245208642
  0
ELLIPSE
  5
584
100
AcDbEntity
  8
6_ALL_SURFS
100
AcDbEllipse
 62
7
  6
CONTINUOUS
 10
2349.276974416
 20
1284.4700547291
 30
0.0
 11
0.0
 21
5.5724287509
 31
0.0
 40
0.9848857802
 41
5.6418497502
 42
6.9245208642
  0
ELLIPSE
  5
585
100
AcDbEntity
  8
6_ALL_SURFS
100
AcDbEllipse
 62
7
  6
CONTINUOUS
 10
2099.276974416
 20
1284.4700547291
 30
0.0
 11
0.0
 21
5.5724287509
 31
0.0
 40
0.9848857802
 41
5.6418497502
 42
6.9245208642
  0
ELLIPSE
  5
586
100
AcDbEntity
  8
6_ALL_SURFS
100
AcDbEllipse
 62
7
  6
CONTINUOUS
 10
1849.276974416
 20
1284.4700547291
 30
0.0
 11
0.0
 21
5.5724287509
 31
0.0
 40
0.9848857802
 41
5.6418497502
 42
6.9245208642
  0
ELLIPSE
  5
587
100
AcDbEntity
  8
6_ALL_SURFS
100
AcDbEllipse
 62
7
  6
CONTINUOUS
 10
1599.276974416
 20
1284.4700547291
 30
0.0
 11
-0.0
 21
5.5724287509
 31
0.0
 40
0.9848857802
 41
5.6418497502
 42
6.9245208642
  0
ELLIPSE
  5
588
100
AcDbEntity
  8
6_ALL_SURFS
100
AcDbEllipse
 62
7
  6
CONTINUOUS
 10
1349.276974416
 20
1284.4700547291
 30
0.0
 11
-0.0
 21
5.5724287509
 31
0.0
 40
0.9848857802
 41
5.6418497502
 42
6.9245208642
  0
ELLIPSE
  5
589
100
AcDbEntity
  8
6_ALL_SURFS
100
AcDbEllipse
 62
7
  6
CONTINUOUS
 10
1099.276974416
 20
1284.4700547291
 30
0.0
 11
0.0
 21
5.5724287509
 31
0.0
 40
0.9848857802
 41
5.6418497502
 42
6.9245208642
  0
ELLIPSE
  5
58A
100
AcDbEntity
  8
6_ALL_SURFS
100
AcDbEllipse
 62
7
  6
CONTINUOUS
 10
849.276974416
 20
1284.4700547291
 30
0.0
 11
-0.0
 21
5.5724287509
 31
0.0
 40
0.9848857802
 41
5.6418497502
 42
6.9245208642
  0
ELLIPSE
  5
58B
100
AcDbEntity
  8
7_ALL_FEATURES
100
AcDbEllipse
 62
7
  6
CONTINUOUS
 10
2849.276974416
 20
1188.5004006727
 30
0.0
 11
-0.0
 21
5.5724287509
 31
0.0
 40
0.9848857802
 41
-3.7829282106
 42
-2.5002570966
  0
ELLIPSE
  5
58C
100
AcDbEntity
  8
7_ALL_FEATURES
100
AcDbEllipse
 62
7
  6
CONTINUOUS
 10
2599.276974416
 20
1188.5004006727
 30
0.0
 11
0.0
 21
5.5724287509
 31
0.0
 40
0.9848857802
 41
-3.7829282106
 42
-2.5002570966
  0
ELLIPSE
  5
58D
100
AcDbEntity
  8
7_ALL_FEATURES
100
AcDbEllipse
 62
7
  6
CONTINUOUS
 10
2349.276974416
 20
1188.5004006727
 30
0.0
 11
0.0
 21
5.5724287509
 31
0.0
 40
0.9848857802
 41
-3.7829282106
 42
-2.5002570966
  0
ELLIPSE
  5
58E
100
AcDbEntity
  8
7_ALL_FEATURES
100
AcDbEllipse
 62
7
  6
CONTINUOUS
 10
2099.276974416
 20
1188.5004006727
 30
0.0
 11
-0.0
 21
5.5724287509
 31
0.0
 40
0.9848857802
 41
-3.7829282106
 42
-2.5002570966
  0
ELLIPSE
  5
58F
100
AcDbEntity
  8
7_ALL_FEATURES
100
AcDbEllipse
 62
7
  6
CONTINUOUS
 10
1849.276974416
 20
1188.5004006727
 30
0.0
 11
0.0
 21
5.5724287509
 31
0.0
 40
0.9848857802
 41
-3.7829282106
 42
-2.5002570966
  0
ELLIPSE
  5
590
100
AcDbEntity
  8
7_ALL_FEATURES
100
AcDbEllipse
 62
7
  6
CONTINUOUS
 10
1599.276974416
 20
1188.5004006727
 30
0.0
 11
-0.0
 21
5.5724287509
 31
0.0
 40
0.9848857802
 41
-3.7829282106
 42
-2.5002570966
  0
ENDSEC
  0
SECTION
  2
OBJECTS
  0
DICTIONARY
  5
591
100
AcDbDictionary
  3
ACAD_GROUP
350
592
  3
ACAD_MLINESTYLE
350
593
  0
DICTIONARY
  5
592
102
{ACAD_REACTORS
330
591
102
}
100
AcDbDictionary
  0
DICTIONARY
  5
593
102
{ACAD_REACTORS
330
591
102
}
100
AcDbDictionary
  3
STANDARD
350
594
  0
MLINESTYLE
  5
594
102
{ACAD_REACTORS
330
593
102
}
100
AcDbMlineStyle
  2
STANDARD
 70
0
  3

 62
256
 51
90.0
 52
90.0
 71
2
 49
0.5
 62
256
  6
BYLAYER
 49
-0.5
 62
256
  6
BYLAYER
  0
ENDSEC
  0
EOF
