999
DXF file: 6f4_c_244.dxf
999
Pro/ENGINEER 2016360 by Parametric Technology Corporation
  0
SECTION
  2
HEADER
  9
$ACADVER
  1
AC1014
  9
$DWGCODEPAGE
  3
ANSI_1252
  9
$EXTMAX
 10
3200.0
 20
2500.0
 30
0.0
  9
$EXTMIN
 10
0.0
 20
0.0
 30
0.0
  9
$LIMMIN
 10
0.0
 20
0.0
  9
$LIMMAX
 10
3200.0
 20
2500.0
  9
$VIEWCTR
 10
1600.0
 20
1250.0
  9
$VIEWSIZE
 40
2500.0
  9
$CLAYER
  8
0
  9
$LTSCALE
 40
176.0
  9
$CELTYPE
  6
BYLAYER
  9
$DIMSCALE
 40
1.0
  9
$DIMASZ
 40
2.5
  9
$DIMEXO
 40
0.75
  9
$DIMDLI
 40
121.6
  9
$DIMEXE
 40
0.75
  9
$DIMCEN
 40
28.8
  9
$DIMLFAC
 40
1.0
  9
$DIMBLK
  1
_CLOSED
  9
$DIMALT
 70
0
  9
$DIMALTF
 40
25.4
  9
$DIMTXT
 40
3.0
  9
$DIMTOL
 70
1
  9
$DIMLIM
 70
0
  9
$DIMTFAC
 40
1.0
  9
$DIMTP
 40
0.01
  9
$DIMTM
 40
0.01
  9
$DIMGAP
 40
0.625
  9
$AUNITS
 70
0
  9
$PDMODE
 70
3
  9
$PDSIZE
 40
0.3125
  9
$HANDSEED
  5
586
  9
$TILEMODE
 70
1
  9
$MEASUREMENT
 70
1
  0
ENDSEC
  0
SECTION
  2
CLASSES
  0
ENDSEC
  0
SECTION
  2
TABLES
  0
TABLE
  2
VPORT
  5
8
100
AcDbSymbolTable
 70
2
  0
VPORT
  5
1F4
100
AcDbSymbolTableRecord
100
AcDbViewportTableRecord
  2
*ACTIVE
 70
0
 10
0.0
 20
0.0
 11
1.0
 21
1.0
 12
1600.0
 22
1250.0
 13
0.0
 23
0.0
 14
1.0
 24
1.0
 15
0.0
 25
0.0
 16
0.0
 26
0.0
 36
1.0
 17
0.0
 27
0.0
 37
0.0
 40
2500.0
 41
1.28
 42
50.0
 43
0.0
 44
0.0
 50
0.0
 51
0.0
 71
0
 72
100
 73
1
 74
1
 75
0
 76
0
 77
0
 78
0
  0
ENDTAB
  0
TABLE
  2
LTYPE
  5
5
100
AcDbSymbolTable
 70
6
  0
LTYPE
  5
14
100
AcDbSymbolTableRecord
100
AcDbLinetypeTableRecord
  2
BYBLOCK
 70
0
  3

 72
65
 73
0
 40
0.0
  0
LTYPE
  5
15
100
AcDbSymbolTableRecord
100
AcDbLinetypeTableRecord
  2
BYLAYER
 70
0
  3

 72
65
 73
0
 40
0.0
  0
LTYPE
  5
16
100
AcDbSymbolTableRecord
100
AcDbLinetypeTableRecord
  2
CONTINUOUS
 70
64
  3
Solid line
 72
65
 73
0
 40
0.0
  0
LTYPE
  5
1F5
100
AcDbSymbolTableRecord
100
AcDbLinetypeTableRecord
  2
CENTER
 70
64
  3
____ _ ____ _ ____ _ ____ _ ____ _ ____ _ ____
 72
65
 73
4
 40
0.6
 49
0.375
 74
0
 49
-0.075
 74
0
 49
0.075
 74
0
 49
-0.075
 74
0
  0
LTYPE
  5
1F6
100
AcDbSymbolTableRecord
100
AcDbLinetypeTableRecord
  2
HIDDEN
 70
64
  3
- - - - - - - - - - - - - - - - - - - -
 72
65
 73
2
 40
0.2
 49
0.1
 74
0
 49
-0.1
 74
0
  0
LTYPE
  5
1F7
100
AcDbSymbolTableRecord
100
AcDbLinetypeTableRecord
  2
PHANTOM
 70
64
  3
_____ _ _ _____ _ _ _____ _ _ _____
 72
65
 73
6
 40
0.8
 49
0.45
 74
0
 49
-0.05
 74
0
 49
0.1
 74
0
 49
-0.05
 74
0
 49
0.1
 74
0
 49
-0.05
 74
0
  0
LTYPE
  5
1F8
100
AcDbSymbolTableRecord
100
AcDbLinetypeTableRecord
  2
DOT
 70
64
  3
. . . . . . . . . . . . . . . . . . . .
 72
65
 73
2
 40
0.2
 49
0.1
 74
0
 49
-0.1
 74
0
  0
LTYPE
  5
1F9
100
AcDbSymbolTableRecord
100
AcDbLinetypeTableRecord
  2
DASHED
 70
64
  3
- - - - - - - - - - - - - - - - - - - -
 72
65
 73
2
 40
0.2
 49
0.1
 74
0
 49
-0.1
 74
0
  0
ENDTAB
  0
TABLE
  2
LAYER
  5
2
100
AcDbSymbolTable
 70
36
  0
LAYER
  5
10
100
AcDbSymbolTableRecord
100
AcDbLayerTableRecord
  2
0
 70
0
 62
7
  6
CONTINUOUS
  0
LAYER
  5
1FA
100
AcDbSymbolTableRecord
100
AcDbLayerTableRecord
  2
DEFAULT_1
 70
0
 62
7
  6
CENTER
  0
LAYER
  5
1FB
100
AcDbSymbolTableRecord
100
AcDbLayerTableRecord
  2
DEFAULT_2
 70
0
 62
8
  6
HIDDEN
  0
LAYER
  5
1FC
100
AcDbSymbolTableRecord
100
AcDbLayerTableRecord
  2
DEFAULT_3
 70
0
 62
7
  6
PHANTOM
  0
LAYER
  5
1FD
100
AcDbSymbolTableRecord
100
AcDbLayerTableRecord
  2
1_ALL_PLANES
 70
0
 62
7
  6
CONTINUOUS
  0
LAYER
  5
1FE
100
AcDbSymbolTableRecord
100
AcDbLayerTableRecord
  2
2_ALL_CSYS
 70
0
 62
7
  6
CONTINUOUS
  0
LAYER
  5
1FF
100
AcDbSymbolTableRecord
100
AcDbLayerTableRecord
  2
3_ALL_AXES
 70
0
 62
7
  6
CONTINUOUS
  0
LAYER
  5
200
100
AcDbSymbolTableRecord
100
AcDbLayerTableRecord
  2
4_ALL_POINTS
 70
0
 62
7
  6
CONTINUOUS
  0
LAYER
  5
201
100
AcDbSymbolTableRecord
100
AcDbLayerTableRecord
  2
5_ALL_CURVES
 70
0
 62
7
  6
CONTINUOUS
  0
LAYER
  5
202
100
AcDbSymbolTableRecord
100
AcDbLayerTableRecord
  2
5__COSTRUZIONE
 70
0
 62
7
  6
CONTINUOUS
  0
LAYER
  5
203
100
AcDbSymbolTableRecord
100
AcDbLayerTableRecord
  2
6_ALL_SURFS
 70
0
 62
7
  6
CONTINUOUS
  0
LAYER
  5
204
100
AcDbSymbolTableRecord
100
AcDbLayerTableRecord
  2
7_ALL_FEATURES
 70
0
 62
7
  6
CONTINUOUS
  0
LAYER
  5
205
100
AcDbSymbolTableRecord
100
AcDbLayerTableRecord
  2
9_SOLID
 70
0
 62
7
  6
CONTINUOUS
  0
LAYER
  5
206
100
AcDbSymbolTableRecord
100
AcDbLayerTableRecord
  2
PR9037
 70
0
 62
7
  6
CONTINUOUS
  0
LAYER
  5
207
100
AcDbSymbolTableRecord
100
AcDbLayerTableRecord
  2
WHITE
 70
0
 62
7
  6
CONTINUOUS
  0
LAYER
  5
208
100
AcDbSymbolTableRecord
100
AcDbLayerTableRecord
  2
XXX_SOLIDO
 70
0
 62
7
  6
CONTINUOUS
  0
ENDTAB
  0
TABLE
  2
STYLE
  5
3
100
AcDbSymbolTable
 70
1
  0
STYLE
  5
11
100
AcDbSymbolTableRecord
100
AcDbTextStyleTableRecord
  2
STANDARD
 70
0
 40
0.0
 41
1.0
 50
0.0
 71
0
 42
0.2
  3
arial.ttf
  4

  0
STYLE
  5
209
100
AcDbSymbolTableRecord
100
AcDbTextStyleTableRecord
  2
TEXTSTYLE_1
 70
0
 40
0.0
 41
0.8
 50
0.0
 71
0
 42
0.2
  3
gdt
  4

  0
STYLE
  5
20A
100
AcDbSymbolTableRecord
100
AcDbTextStyleTableRecord
  2
TEXTSTYLE_2
 70
0
 40
0.0
 41
0.85
 50
0.0
 71
0
 42
0.2
  3
txt
  4

  0
ENDTAB
  0
TABLE
  2
VIEW
  5
6
100
AcDbSymbolTable
 70
0
  0
ENDTAB
  0
TABLE
  2
UCS
  5
7
100
AcDbSymbolTable
 70
0
  0
ENDTAB
  0
TABLE
  2
APPID
  5
9
100
AcDbSymbolTable
 70
1
  0
APPID
  5
20B
100
AcDbSymbolTableRecord
100
AcDbRegAppTableRecord
  2
ACAD
 70
0
  0
ENDTAB
  0
TABLE
  2
BLOCK_RECORD
  5
1
100
AcDbSymbolTable
 70
0
  0
BLOCK_RECORD
  5
1F
100
AcDbSymbolTableRecord
100
AcDbBlockTableRecord
  2
*MODEL_SPACE
  0
BLOCK_RECORD
  5
1B
100
AcDbSymbolTableRecord
100
AcDbBlockTableRecord
  2
*PAPER_SPACE
  0
BLOCK_RECORD
  5
20C
100
AcDbSymbolTableRecord
100
AcDbBlockTableRecord
  2
_CLOSED
  0
BLOCK_RECORD
  5
20D
100
AcDbSymbolTableRecord
100
AcDbBlockTableRecord
  2
*D0
  0
BLOCK_RECORD
  5
20E
100
AcDbSymbolTableRecord
100
AcDbBlockTableRecord
  2
*D1
  0
BLOCK_RECORD
  5
20F
100
AcDbSymbolTableRecord
100
AcDbBlockTableRecord
  2
*D2
  0
BLOCK_RECORD
  5
210
100
AcDbSymbolTableRecord
100
AcDbBlockTableRecord
  2
*D3
  0
BLOCK_RECORD
  5
211
100
AcDbSymbolTableRecord
100
AcDbBlockTableRecord
  2
LOGO2_BL0
  0
ENDTAB
  0
TABLE
  2
DIMSTYLE
  5
A
100
AcDbSymbolTable
 70
1
  0
DIMSTYLE
105
212
100
AcDbSymbolTableRecord
100
AcDbDimStyleTableRecord
  2
STANDARD
 70
0
  3

  4

  5
_CLOSED
  6
_CLOSED
  7
_CLOSED
 40
1.0
 41
2.5
 42
0.75
 43
0.38
 44
0.75
 45
0.0
 46
0.0
 47
0.01
 48
0.01
140
3.0
141
0.09
142
0.0
143
25.4
144
1.0
145
0.0
146
1.0
147
0.625
 71
1.0
 72
0.0
 73
0
 74
0
 75
0
 76
0
 77
1
 78
8
 79
2
170
0
171
1
172
0
173
0
174
0
175
0
176
0
177
0
178
0
270
2
179
2
271
2
272
2
273
2
274
2
275
0
280
0
281
0
282
0
283
1
284
8
285
0
286
0
287
3
288
0
340
11
  0
DIMSTYLE
105
213
100
AcDbSymbolTableRecord
100
AcDbDimStyleTableRecord
  2
DIMSTYLE_1
 70
0
  3

  4

  5
_CLOSED
  6
_CLOSED
  7
_CLOSED
 40
1.0
 41
2.5
 42
0.75
 43
0.38
 44
0.75
 45
0.0
 46
0.0
 47
0.3
 48
0.3
140
10.0
141
0.09
142
0.0
143
25.4
144
1.0
145
0.0
146
1.0
147
2.5
 71
0.0
 72
0.0
 73
0
 74
0
 75
0
 76
0
 77
1
 78
8
 79
2
170
0
171
1
172
0
173
0
174
0
175
0
176
0
177
0
178
0
270
2
179
2
271
2
272
2
273
2
274
2
275
0
280
0
281
0
282
0
283
1
284
8
285
0
286
0
287
3
288
0
340
11
  0
DIMSTYLE
105
214
100
AcDbSymbolTableRecord
100
AcDbDimStyleTableRecord
  2
DIMSTYLE_2
 70
0
  3

  4

  5
_CLOSED
  6
_CLOSED
  7
_CLOSED
 40
1.0
 41
2.5
 42
0.75
 43
0.38
 44
0.75
 45
0.0
 46
0.0
 47
2.0
 48
2.0
140
10.0
141
0.09
142
0.0
143
25.4
144
1.0
145
0.0
146
1.0
147
2.5
 71
0.0
 72
0.0
 73
0
 74
0
 75
0
 76
0
 77
1
 78
8
 79
2
170
0
171
1
172
0
173
0
174
0
175
0
176
0
177
0
178
0
270
2
179
2
271
2
272
2
273
2
274
2
275
0
280
0
281
0
282
0
283
1
284
8
285
0
286
0
287
3
288
0
340
11
  0
ENDTAB
  0
ENDSEC
  0
SECTION
  2
BLOCKS
  0
BLOCK
  5
20
100
AcDbEntity
  8
0
100
AcDbBlockBegin
  2
*MODEL_SPACE
 70
0
 10
0.0
 20
0.0
 30
0.0
  3
*MODEL_SPACE
  1

  0
ENDBLK
  5
21
100
AcDbEntity
  8
0
100
AcDbBlockEnd
  0
BLOCK
  5
1C
100
AcDbEntity
  8
0
100
AcDbBlockBegin
  2
*PAPER_SPACE
 70
0
 10
0.0
 20
0.0
 30
0.0
  3
*PAPER_SPACE
  1

  0
ENDBLK
  5
1D
100
AcDbEntity
  8
0
100
AcDbBlockEnd
  0
BLOCK
  5
215
100
AcDbEntity
  8
0
100
AcDbBlockBegin
 62
2
  6
CONTINUOUS
  2
LOGO2_BL0
 70
64
 10
3113.3767684765
 20
37.2776170738
  3
LOGO2_BL0
  1

  0
LINE
  5
216
100
AcDbEntity
  8
0
100
AcDbLine
 62
7
  6
CONTINUOUS
 10
3105.1196937047
 20
40.4731084126
 11
3103.8153527753
 21
40.4731084126
  0
LINE
  5
217
100
AcDbEntity
  8
0
100
AcDbLine
 62
7
  6
CONTINUOUS
 10
3103.8153527753
 20
40.4731084126
 11
3103.8153527753
 21
30.0140423528
  0
LINE
  5
218
100
AcDbEntity
  8
0
100
AcDbLine
 62
7
  6
CONTINUOUS
 10
3103.8153527753
 20
30.0140423528
 11
3108.2964076636
 21
30.0140423528
  0
LINE
  5
219
100
AcDbEntity
  8
0
100
AcDbLine
 62
7
  6
CONTINUOUS
 10
3108.2964076636
 20
30.0140423528
 11
3108.2964076636
 21
31.2068966778
  0
LINE
  5
21A
100
AcDbEntity
  8
0
100
AcDbLine
 62
7
  6
CONTINUOUS
 10
3108.2964076636
 20
31.2068966778
 11
3105.1196937047
 21
31.2068966778
  0
LINE
  5
21B
100
AcDbEntity
  8
0
100
AcDbLine
 62
7
  6
CONTINUOUS
 10
3105.1196937047
 20
31.2068966778
 11
3105.1196937047
 21
40.4731084126
  0
LINE
  5
21C
100
AcDbEntity
  8
0
100
AcDbLine
 62
7
  6
CONTINUOUS
 10
3120.056019921
 20
40.4731084126
 11
3118.7522024029
 21
40.4731084126
  0
LINE
  5
21D
100
AcDbEntity
  8
0
100
AcDbLine
 62
7
  6
CONTINUOUS
 10
3118.7522024029
 20
40.4731084126
 11
3118.7522024029
 21
30.0140423528
  0
LINE
  5
21E
100
AcDbEntity
  8
0
100
AcDbLine
 62
7
  6
CONTINUOUS
 10
3118.7522024029
 20
30.0140423528
 11
3123.233388144
 21
30.0140423528
  0
LINE
  5
21F
100
AcDbEntity
  8
0
100
AcDbLine
 62
7
  6
CONTINUOUS
 10
3123.233388144
 20
30.0140423528
 11
3123.233388144
 21
31.2068966778
  0
LINE
  5
220
100
AcDbEntity
  8
0
100
AcDbLine
 62
7
  6
CONTINUOUS
 10
3123.233388144
 20
31.2068966778
 11
3120.056019921
 21
31.2068966778
  0
LINE
  5
221
100
AcDbEntity
  8
0
100
AcDbLine
 62
7
  6
CONTINUOUS
 10
3120.056019921
 20
31.2068966778
 11
3120.056019921
 21
40.4731084126
  0
LWPOLYLINE
  5
222
100
AcDbEntity
  8
0
100
AcDbPolyline
 62
7
  6
CONTINUOUS
 90
2
 70
0
 43
0.2
 10
3102.1697476862
 20
26.6704910458
 10
3102.1697476862
 20
24.8134277965
  0
LWPOLYLINE
  5
223
100
AcDbEntity
  8
0
100
AcDbPolyline
 62
7
  6
CONTINUOUS
 90
2
 70
0
 43
0.2
 10
3102.1697476862
 20
24.8134277965
 10
3102.9654636966
 20
24.8134277965
  0
LWPOLYLINE
  5
224
100
AcDbEntity
  8
0
100
AcDbPolyline
 62
7
  6
CONTINUOUS
 90
2
 70
0
 43
0.2
 10
3102.9654636966
 20
24.8134277965
 10
3102.9654636966
 20
25.0254093681
  0
LWPOLYLINE
  5
225
100
AcDbEntity
  8
0
100
AcDbPolyline
 62
7
  6
CONTINUOUS
 90
2
 70
0
 43
0.2
 10
3102.9654636966
 20
25.0254093681
 10
3102.4013571811
 20
25.0254093681
  0
LWPOLYLINE
  5
226
100
AcDbEntity
  8
0
100
AcDbPolyline
 62
7
  6
CONTINUOUS
 90
2
 70
0
 43
0.2
 10
3102.4013571811
 20
25.0254093681
 10
3102.4013571811
 20
26.6704910458
  0
LWPOLYLINE
  5
227
100
AcDbEntity
  8
0
100
AcDbPolyline
 62
7
  6
CONTINUOUS
 90
2
 70
0
 43
0.2
 10
3102.4013571811
 20
26.6704910458
 10
3102.1697476862
 20
26.6704910458
  0
SPLINE
  5
228
100
AcDbEntity
  8
0
100
AcDbSpline
 62
7
  6
CONTINUOUS
 70
2
 71
3
 72
35
 73
31
 74
0
 42
0.0000001
 43
0.0000001
 44
0.0000000001
 40
0.0
 40
0.0
 40
0.0
 40
0.0
 40
1.0
 40
1.0
 40
1.0
 40
2.0
 40
2.0
 40
2.0
 40
3.0
 40
3.0
 40
3.0
 40
4.0
 40
4.0
 40
4.0
 40
5.0
 40
5.0
 40
5.0
 40
6.0
 40
6.0
 40
6.0
 40
7.0
 40
7.0
 40
7.0
 40
8.0
 40
8.0
 40
8.0
 40
9.0
 40
9.0
 40
9.0
 40
10.0
 40
10.0
 40
10.0
 40
10.0
 10
3104.3637569522
 20
25.9659794524
 30
0.0
 10
3104.3637569522
 20
25.9659794524
 30
0.0
 10
3104.3637569522
 20
25.3038641732
 30
0.0
 10
3104.3637569522
 20
25.3038641732
 30
0.0
 10
3104.3637569522
 20
24.9887705779
 30
0.0
 10
3104.511620641
 20
24.7741719499
 30
0.0
 10
3104.8517071253
 20
24.7741719499
 30
0.0
 10
3105.1912701983
 20
24.7741719499
 30
0.0
 10
3105.3393955928
 20
24.9887705779
 30
0.0
 10
3105.3393955928
 20
25.3038641732
 30
0.0
 10
3105.3393955928
 20
25.3038641732
 30
0.0
 10
3105.3393955928
 20
25.9659794524
 30
0.0
 10
3105.3393955928
 20
25.9659794524
 30
0.0
 10
3105.3393955928
 20
25.9659794524
 30
0.0
 10
3105.1173383539
 20
25.9659794524
 30
0.0
 10
3105.1173383539
 20
25.9659794524
 30
0.0
 10
3105.1173383539
 20
25.9659794524
 30
0.0
 10
3105.1173383539
 20
25.328987915
 30
0.0
 10
3105.1173383539
 20
25.328987915
 30
0.0
 10
3105.1173383539
 20
25.1431769078
 30
0.0
 10
3105.0706238964
 20
24.9803959973
 30
0.0
 10
3104.8517071253
 20
24.9803959973
 30
0.0
 10
3104.6322669428
 20
24.9803959973
 30
0.0
 10
3104.5855524854
 20
25.1431769078
 30
0.0
 10
3104.5855524854
 20
25.328987915
 30
0.0
 10
3104.5855524854
 20
25.328987915
 30
0.0
 10
3104.5855524854
 20
25.9659794524
 30
0.0
 10
3104.5855524854
 20
25.9659794524
 30
0.0
 10
3104.5855524854
 20
25.9659794524
 30
0.0
 10
3104.3637569522
 20
25.9659794524
 30
0.0
 10
3104.3637569522
 20
25.9659794524
 30
0.0
  0
SPLINE
  5
229
100
AcDbEntity
  8
0
100
AcDbSpline
 62
7
  6
CONTINUOUS
 70
2
 71
3
 72
35
 73
31
 74
0
 42
0.0000001
 43
0.0000001
 44
0.0000000001
 40
0.0
 40
0.0
 40
0.0
 40
0.0
 40
1.0
 40
1.0
 40
1.0
 40
2.0
 40
2.0
 40
2.0
 40
3.0
 40
3.0
 40
3.0
 40
4.0
 40
4.0
 40
4.0
 40
5.0
 40
5.0
 40
5.0
 40
6.0
 40
6.0
 40
6.0
 40
7.0
 40
7.0
 40
7.0
 40
8.0
 40
8.0
 40
8.0
 40
9.0
 40
9.0
 40
9.0
 40
10.0
 40
10.0
 40
10.0
 40
10.0
 10
3107.76252815
 20
25.9246299606
 30
0.0
 10
3107.6740716423
 20
25.9759242668
 30
0.0
 10
3107.5606222457
 20
26.0010480087
 30
0.0
 10
3107.4569868107
 20
26.0010480087
 30
0.0
 10
3107.1021139575
 20
26.0010480087
 30
0.0
 10
3106.8266687672
 20
25.7372487196
 30
0.0
 10
3106.8266687672
 20
25.37975881
 30
0.0
 10
3106.8266687672
 20
25.0348307713
 30
0.0
 10
3107.1051235724
 20
24.7746953612
 30
0.0
 10
3107.4446866454
 20
24.7746953612
 30
0.0
 10
3107.5606222457
 20
24.7746953612
 30
0.0
 10
3107.6613789186
 20
24.7966786353
 30
0.0
 10
3107.76252815
 20
24.8505899979
 30
0.0
 10
3107.76252815
 20
24.8505899979
 30
0.0
 10
3107.76252815
 20
25.1332320934
 30
0.0
 10
3107.76252815
 20
25.1332320934
 30
0.0
 10
3107.6786514911
 20
25.0400648841
 30
0.0
 10
3107.5751469089
 20
24.9809194086
 30
0.0
 10
3107.4470419962
 20
24.9809194086
 30
0.0
 10
3107.2133388562
 20
24.9809194086
 30
0.0
 10
3107.048071742
 20
25.1531217223
 30
0.0
 10
3107.048071742
 20
25.3897036244
 30
0.0
 10
3107.048071742
 20
25.601685196
 30
0.0
 10
3107.2158250598
 20
25.7937771387
 30
0.0
 10
3107.4326481858
 20
25.7937771387
 30
0.0
 10
3107.5654638001
 20
25.7937771387
 30
0.0
 10
3107.6740716423
 20
25.739865776
 30
0.0
 10
3107.76252815
 20
25.6388473975
 30
0.0
 10
3107.76252815
 20
25.6388473975
 30
0.0
 10
3107.76252815
 20
25.9246299606
 30
0.0
 10
3107.76252815
 20
25.9246299606
 30
0.0
  0
SPLINE
  5
22A
100
AcDbEntity
  8
0
100
AcDbSpline
 62
7
  6
CONTINUOUS
 70
2
 71
3
 72
32
 73
28
 74
0
 42
0.0000001
 43
0.0000001
 44
0.0000000001
 40
0.0
 40
0.0
 40
0.0
 40
0.0
 40
1.0
 40
1.0
 40
1.0
 40
2.0
 40
2.0
 40
2.0
 40
3.0
 40
3.0
 40
3.0
 40
4.0
 40
4.0
 40
4.0
 40
5.0
 40
5.0
 40
5.0
 40
6.0
 40
6.0
 40
6.0
 40
7.0
 40
7.0
 40
7.0
 40
8.0
 40
8.0
 40
8.0
 40
9.0
 40
9.0
 40
9.0
 40
9.0
 10
3110.2943994022
 20
25.3530648343
 30
0.0
 10
3110.2943994022
 20
25.3530648343
 30
0.0
 10
3110.2943994022
 20
25.387086568
 30
0.0
 10
3110.2943994022
 20
25.387086568
 30
0.0
 10
3110.2943994022
 20
25.7293975503
 30
0.0
 10
3110.1215428244
 20
26.0010480087
 30
0.0
 10
3109.7548932172
 20
26.0010480087
 30
0.0
 10
3109.3832712028
 20
26.0010480087
 30
0.0
 10
3109.193534611
 20
25.7346316631
 30
0.0
 10
3109.193534611
 20
25.37975881
 30
0.0
 10
3109.193534611
 20
25.0400648841
 30
0.0
 10
3109.4076098277
 20
24.7741719499
 30
0.0
 10
3109.7597347716
 20
24.7741719499
 30
0.0
 10
3109.9837548029
 20
24.7741719499
 30
0.0
 10
3110.1859224128
 20
24.8898458445
 30
0.0
 10
3110.2943994022
 20
25.0892655452
 30
0.0
 10
3110.2943994022
 20
25.0892655452
 30
0.0
 10
3110.1067564555
 20
25.1960414479
 30
0.0
 10
3110.1067564555
 20
25.1960414479
 30
0.0
 10
3110.0232723551
 20
25.0573374566
 30
0.0
 10
3109.9320679382
 20
24.9714980054
 30
0.0
 10
3109.7624826809
 20
24.9714980054
 30
0.0
 10
3109.5505011093
 20
24.9714980054
 30
0.0
 10
3109.4175546422
 20
25.15626219
 30
0.0
 10
3109.4151992914
 20
25.3530648343
 30
0.0
 10
3109.4151992914
 20
25.3530648343
 30
0.0
 10
3110.2943994022
 20
25.3530648343
 30
0.0
 10
3110.2943994022
 20
25.3530648343
 30
0.0
  0
SPLINE
  5
22B
100
AcDbEntity
  8
0
100
AcDbSpline
 62
7
  6
CONTINUOUS
 70
2
 71
3
 72
14
 73
10
 74
0
 42
0.0000001
 43
0.0000001
 44
0.0000000001
 40
0.0
 40
0.0
 40
0.0
 40
0.0
 40
1.0
 40
1.0
 40
1.0
 40
2.0
 40
2.0
 40
2.0
 40
3.0
 40
3.0
 40
3.0
 40
3.0
 10
3109.427237751
 20
25.5205564464
 30
0.0
 10
3109.4548476965
 20
25.6854310021
 30
0.0
 10
3109.5826909035
 20
25.8084326547
 30
0.0
 10
3109.7548932172
 20
25.8084326547
 30
0.0
 10
3109.9320679382
 20
25.8084326547
 30
0.0
 10
3110.0455173348
 20
25.6927587601
 30
0.0
 10
3110.0727347218
 20
25.5205564464
 30
0.0
 10
3110.0727347218
 20
25.5205564464
 30
0.0
 10
3109.427237751
 20
25.5205564464
 30
0.0
 10
3109.427237751
 20
25.5205564464
 30
0.0
  0
SPLINE
  5
22C
100
AcDbEntity
  8
0
100
AcDbSpline
 62
7
  6
CONTINUOUS
 70
2
 71
3
 72
20
 73
16
 74
0
 42
0.0000001
 43
0.0000001
 44
0.0000000001
 40
0.0
 40
0.0
 40
0.0
 40
0.0
 40
1.0
 40
1.0
 40
1.0
 40
2.0
 40
2.0
 40
2.0
 40
3.0
 40
3.0
 40
3.0
 40
4.0
 40
4.0
 40
4.0
 40
5.0
 40
5.0
 40
5.0
 40
5.0
 10
3112.3184308524
 20
25.7299209615
 30
0.0
 10
3112.3184308524
 20
25.7299209615
 30
0.0
 10
3112.729570419
 20
25.2274461252
 30
0.0
 10
3112.729570419
 20
25.2274461252
 30
0.0
 10
3112.6135039659
 20
25.1117722306
 30
0.0
 10
3112.4757159444
 20
24.9814428199
 30
0.0
 10
3112.3037753363
 20
24.9814428199
 30
0.0
 10
3112.1263389098
 20
24.9814428199
 30
0.0
 10
3111.9588472976
 20
25.1457939643
 30
0.0
 10
3111.9588472976
 20
25.3227069796
 30
0.0
 10
3111.9588472976
 20
25.5006668175
 30
0.0
 10
3112.1686043712
 20
25.6268089378
 30
0.0
 10
3112.2961858727
 20
25.7147420342
 30
0.0
 10
3112.2961858727
 20
25.7147420342
 30
0.0
 10
3112.3184308524
 20
25.7299209615
 30
0.0
 10
3112.3184308524
 20
25.7299209615
 30
0.0
  0
SPLINE
  5
22D
100
AcDbEntity
  8
0
100
AcDbSpline
 62
7
  6
CONTINUOUS
 70
2
 71
3
 72
23
 73
19
 74
0
 42
0.0000001
 43
0.0000001
 44
0.0000000001
 40
0.0
 40
0.0
 40
0.0
 40
0.0
 40
1.0
 40
1.0
 40
1.0
 40
2.0
 40
2.0
 40
2.0
 40
3.0
 40
3.0
 40
3.0
 40
4.0
 40
4.0
 40
4.0
 40
5.0
 40
5.0
 40
5.0
 40
6.0
 40
6.0
 40
6.0
 40
6.0
 10
3112.3677623663
 20
26.0209376376
 30
0.0
 10
3112.3677623663
 20
26.0209376376
 30
0.0
 10
3112.3061306871
 20
26.0994493308
 30
0.0
 10
3112.3061306871
 20
26.0994493308
 30
0.0
 10
3112.2522193245
 20
26.1680162095
 30
0.0
 10
3112.1954291998
 20
26.2371064995
 30
0.0
 10
3112.1954291998
 20
26.33079712
 30
0.0
 10
3112.1954291998
 20
26.4496114824
 30
0.0
 10
3112.2913443183
 20
26.527076353
 30
0.0
 10
3112.4023075113
 20
26.527076353
 30
0.0
 10
3112.5255708696
 20
26.527076353
 30
0.0
 10
3112.6188689316
 20
26.4558924178
 30
0.0
 10
3112.6188689316
 20
26.3255630071
 30
0.0
 10
3112.6188689316
 20
26.1905228949
 30
0.0
 10
3112.4907640189
 20
26.1141048468
 30
0.0
 10
3112.3972042512
 20
26.0403038553
 30
0.0
 10
3112.3972042512
 20
26.0403038553
 30
0.0
 10
3112.3677623663
 20
26.0209376376
 30
0.0
 10
3112.3677623663
 20
26.0209376376
 30
0.0
  0
SPLINE
  5
22E
100
AcDbEntity
  8
0
100
AcDbSpline
 62
7
  6
CONTINUOUS
 70
2
 71
3
 72
50
 73
46
 74
0
 42
0.0000001
 43
0.0000001
 44
0.0000000001
 40
0.0
 40
0.0
 40
0.0
 40
0.0
 40
1.0
 40
1.0
 40
1.0
 40
2.0
 40
2.0
 40
2.0
 40
3.0
 40
3.0
 40
3.0
 40
4.0
 40
4.0
 40
4.0
 40
5.0
 40
5.0
 40
5.0
 40
6.0
 40
6.0
 40
6.0
 40
7.0
 40
7.0
 40
7.0
 40
8.0
 40
8.0
 40
8.0
 40
9.0
 40
9.0
 40
9.0
 40
10.0
 40
10.0
 40
10.0
 40
11.0
 40
11.0
 40
11.0
 40
12.0
 40
12.0
 40
12.0
 40
13.0
 40
13.0
 40
13.0
 40
14.0
 40
14.0
 40
14.0
 40
15.0
 40
15.0
 40
15.0
 40
15.0
 10
3113.069918609
 20
24.8139512078
 30
0.0
 10
3113.069918609
 20
24.8139512078
 30
0.0
 10
3113.3553086137
 20
24.8139512078
 30
0.0
 10
3113.3553086137
 20
24.8139512078
 30
0.0
 10
3113.3553086137
 20
24.8139512078
 30
0.0
 10
3113.0229424459
 20
25.2248290688
 30
0.0
 10
3113.0229424459
 20
25.2248290688
 30
0.0
 10
3113.0229424459
 20
25.2248290688
 30
0.0
 10
3113.2494486807
 20
25.490722003
 30
0.0
 10
3113.2494486807
 20
25.490722003
 30
0.0
 10
3113.2494486807
 20
25.490722003
 30
0.0
 10
3113.1011924334
 20
25.643558099
 30
0.0
 10
3113.1011924334
 20
25.643558099
 30
0.0
 10
3113.1011924334
 20
25.643558099
 30
0.0
 10
3112.8852852772
 20
25.3923206809
 30
0.0
 10
3112.8852852772
 20
25.3923206809
 30
0.0
 10
3112.8852852772
 20
25.3923206809
 30
0.0
 10
3112.4982226298
 20
25.8602503722
 30
0.0
 10
3112.4982226298
 20
25.8602503722
 30
0.0
 10
3112.6536757823
 20
25.974354033
 30
0.0
 10
3112.8359537633
 20
26.1141048468
 30
0.0
 10
3112.8359537633
 20
26.323469362
 30
0.0
 10
3112.8359537633
 20
26.5673790221
 30
0.0
 10
3112.6339170062
 20
26.710793715
 30
0.0
 10
3112.4074107713
 20
26.710793715
 30
0.0
 10
3112.1632394055
 20
26.710793715
 30
0.0
 10
3111.9788677794
 20
26.5600512641
 30
0.0
 10
3111.9788677794
 20
26.3035797331
 30
0.0
 10
3111.9788677794
 20
26.1460329354
 30
0.0
 10
3112.0775308072
 20
26.0083757667
 30
0.0
 10
3112.1828673288
 20
25.8974125737
 30
0.0
 10
3112.1828673288
 20
25.8974125737
 30
0.0
 10
3112.067324287
 20
25.8136667676
 30
0.0
 10
3112.067324287
 20
25.8136667676
 30
0.0
 10
3111.8896261548
 20
25.6854310021
 30
0.0
 10
3111.7422858773
 20
25.5577186478
 30
0.0
 10
3111.7422858773
 20
25.3206133344
 30
0.0
 10
3111.7422858773
 20
25.0002856263
 30
0.0
 10
3112.0008510535
 20
24.7741719499
 30
0.0
 10
3112.3112339472
 20
24.7741719499
 30
0.0
 10
3112.5301507183
 20
24.7741719499
 30
0.0
 10
3112.727345921
 20
24.8992672477
 30
0.0
 10
3112.8676201462
 20
25.065188626
 30
0.0
 10
3112.8676201462
 20
25.065188626
 30
0.0
 10
3113.069918609
 20
24.8139512078
 30
0.0
 10
3113.069918609
 20
24.8139512078
 30
0.0
  0
LWPOLYLINE
  5
22F
100
AcDbEntity
  8
0
100
AcDbPolyline
 62
7
  6
CONTINUOUS
 90
2
 70
0
 43
0.2
 10
3115.0053626987
 20
26.6704910458
 10
3114.7740149094
 20
26.6704910458
  0
LWPOLYLINE
  5
230
100
AcDbEntity
  8
0
100
AcDbPolyline
 62
7
  6
CONTINUOUS
 90
2
 70
0
 43
0.2
 10
3114.7740149094
 20
26.6704910458
 10
3114.7740149094
 20
24.8134277965
  0
LWPOLYLINE
  5
231
100
AcDbEntity
  8
0
100
AcDbPolyline
 62
7
  6
CONTINUOUS
 90
2
 70
0
 43
0.2
 10
3114.7740149094
 20
24.8134277965
 10
3115.5693383614
 20
24.8134277965
  0
LWPOLYLINE
  5
232
100
AcDbEntity
  8
0
100
AcDbPolyline
 62
7
  6
CONTINUOUS
 90
2
 70
0
 43
0.2
 10
3115.5693383614
 20
24.8134277965
 10
3115.5693383614
 20
25.0254093681
  0
LWPOLYLINE
  5
233
100
AcDbEntity
  8
0
100
AcDbPolyline
 62
7
  6
CONTINUOUS
 90
2
 70
0
 43
0.2
 10
3115.5693383614
 20
25.0254093681
 10
3115.0053626987
 20
25.0254093681
  0
LWPOLYLINE
  5
234
100
AcDbEntity
  8
0
100
AcDbPolyline
 62
7
  6
CONTINUOUS
 90
2
 70
0
 43
0.2
 10
3115.0053626987
 20
25.0254093681
 10
3115.0053626987
 20
26.6704910458
  0
LWPOLYLINE
  5
235
100
AcDbEntity
  8
0
100
AcDbPolyline
 62
7
  6
CONTINUOUS
 90
2
 70
0
 43
0.2
 10
3117.2484417728
 20
25.9659794524
 10
3117.0273005037
 20
25.9659794524
  0
LWPOLYLINE
  5
236
100
AcDbEntity
  8
0
100
AcDbPolyline
 62
7
  6
CONTINUOUS
 90
2
 70
0
 43
0.2
 10
3117.0273005037
 20
25.9659794524
 10
3117.0273005037
 20
24.8139512078
  0
LWPOLYLINE
  5
237
100
AcDbEntity
  8
0
100
AcDbPolyline
 62
7
  6
CONTINUOUS
 90
2
 70
0
 43
0.2
 10
3117.0273005037
 20
24.8139512078
 10
3117.2484417728
 20
24.8139512078
  0
LWPOLYLINE
  5
238
100
AcDbEntity
  8
0
100
AcDbPolyline
 62
7
  6
CONTINUOUS
 90
2
 70
0
 43
0.2
 10
3117.2484417728
 20
24.8139512078
 10
3117.2484417728
 20
25.9659794524
  0
LWPOLYLINE
  5
239
100
AcDbEntity
  8
0
100
AcDbPolyline
 62
7
  6
CONTINUOUS
 90
2
 70
1
 43
0.2
 10
3116.9854184956
 20
26.4959333813
 42
1.0
 10
3117.2905854866
 20
26.4959333813
 42
1.0
  0
SPLINE
  5
23A
100
AcDbEntity
  8
0
100
AcDbSpline
 62
7
  6
CONTINUOUS
 70
2
 71
3
 72
17
 73
13
 74
0
 42
0.0000001
 43
0.0000001
 44
0.0000000001
 40
0.0
 40
0.0
 40
0.0
 40
0.0
 40
1.0
 40
1.0
 40
1.0
 40
2.0
 40
2.0
 40
2.0
 40
3.0
 40
3.0
 40
3.0
 40
4.0
 40
4.0
 40
4.0
 40
4.0
 10
3119.3787257145
 20
24.9714980054
 30
0.0
 10
3119.1447608688
 20
24.9714980054
 30
0.0
 10
3119.0144314581
 20
25.1735347625
 30
0.0
 10
3119.0144314581
 20
25.3897036244
 30
0.0
 10
3119.0144314581
 20
25.6043022525
 30
0.0
 10
3119.1502566873
 20
25.8031985418
 30
0.0
 10
3119.3787257145
 20
25.8031985418
 30
0.0
 10
3119.6181863787
 20
25.8031985418
 30
0.0
 10
3119.7537499022
 20
25.6142470669
 30
0.0
 10
3119.7537499022
 20
25.3897036244
 30
0.0
 10
3119.7537499022
 20
25.1635899481
 30
0.0
 10
3119.6205417295
 20
24.9714980054
 30
0.0
 10
3119.3787257145
 20
24.9714980054
 30
0.0
  0
SPLINE
  5
23B
100
AcDbEntity
  8
0
100
AcDbSpline
 62
7
  6
CONTINUOUS
 70
2
 71
3
 72
50
 73
46
 74
0
 42
0.0000001
 43
0.0000001
 44
0.0000000001
 40
0.0
 40
0.0
 40
0.0
 40
0.0
 40
1.0
 40
1.0
 40
1.0
 40
2.0
 40
2.0
 40
2.0
 40
3.0
 40
3.0
 40
3.0
 40
4.0
 40
4.0
 40
4.0
 40
5.0
 40
5.0
 40
5.0
 40
6.0
 40
6.0
 40
6.0
 40
7.0
 40
7.0
 40
7.0
 40
8.0
 40
8.0
 40
8.0
 40
9.0
 40
9.0
 40
9.0
 40
10.0
 40
10.0
 40
10.0
 40
11.0
 40
11.0
 40
11.0
 40
12.0
 40
12.0
 40
12.0
 40
13.0
 40
13.0
 40
13.0
 40
14.0
 40
14.0
 40
14.0
 40
15.0
 40
15.0
 40
15.0
 40
15.0
 10
3119.9628527117
 20
25.9665028637
 30
0.0
 10
3119.9628527117
 20
25.9665028637
 30
0.0
 10
3119.7411880313
 20
25.9665028637
 30
0.0
 10
3119.7411880313
 20
25.9665028637
 30
0.0
 10
3119.7411880313
 20
25.9665028637
 30
0.0
 10
3119.7411880313
 20
25.7691768081
 30
0.0
 10
3119.7411880313
 20
25.7691768081
 30
0.0
 10
3119.7411880313
 20
25.7691768081
 30
0.0
 10
3119.7364773297
 20
25.7691768081
 30
0.0
 10
3119.7364773297
 20
25.7691768081
 30
0.0
 10
3119.64514206
 20
25.9120680897
 30
0.0
 10
3119.5072231857
 20
26.0005245974
 30
0.0
 10
3119.3344974607
 20
26.0005245974
 30
0.0
 10
3119.0021312929
 20
26.0005245974
 30
0.0
 10
3118.7930284834
 20
25.712648389
 30
0.0
 10
3118.7930284834
 20
25.3970313825
 30
0.0
 10
3118.7930284834
 20
25.0672822711
 30
0.0
 10
3118.9900928332
 20
24.7741719499
 30
0.0
 10
3119.3449656864
 20
24.7741719499
 30
0.0
 10
3119.5072231857
 20
24.7741719499
 30
0.0
 10
3119.6472357052
 20
24.8626284575
 30
0.0
 10
3119.7364773297
 20
24.9934812795
 30
0.0
 10
3119.7364773297
 20
24.9934812795
 30
0.0
 10
3119.7411880313
 20
24.9934812795
 30
0.0
 10
3119.7411880313
 20
24.9934812795
 30
0.0
 10
3119.7411880313
 20
24.9934812795
 30
0.0
 10
3119.7411880313
 20
24.7741719499
 30
0.0
 10
3119.7411880313
 20
24.7741719499
 30
0.0
 10
3119.7411880313
 20
24.5375900478
 30
0.0
 10
3119.6846596122
 20
24.350732218
 30
0.0
 10
3119.41143892
 20
24.350732218
 30
0.0
 10
3119.2091404572
 20
24.350732218
 30
0.0
 10
3119.0665108813
 20
24.4690231691
 30
0.0
 10
3119.0665108813
 20
24.6752472165
 30
0.0
 10
3119.0665108813
 20
24.6752472165
 30
0.0
 10
3118.8448462009
 20
24.6752472165
 30
0.0
 10
3118.8448462009
 20
24.6752472165
 30
0.0
 10
3118.8498186081
 20
24.350732218
 30
0.0
 10
3119.0809046917
 20
24.1539295738
 30
0.0
 10
3119.4012323999
 20
24.1539295738
 30
0.0
 10
3119.8492724623
 20
24.1539295738
 30
0.0
 10
3119.9628527117
 20
24.4391887257
 30
0.0
 10
3119.9628527117
 20
24.8359344819
 30
0.0
 10
3119.9628527117
 20
24.8359344819
 30
0.0
 10
3119.9628527117
 20
25.9665028637
 30
0.0
 10
3119.9628527117
 20
25.9665028637
 30
0.0
  0
SPLINE
  5
23C
100
AcDbEntity
  8
0
100
AcDbSpline
 62
7
  6
CONTINUOUS
 70
2
 71
3
 72
44
 73
40
 74
0
 42
0.0000001
 43
0.0000001
 44
0.0000000001
 40
0.0
 40
0.0
 40
0.0
 40
0.0
 40
1.0
 40
1.0
 40
1.0
 40
2.0
 40
2.0
 40
2.0
 40
3.0
 40
3.0
 40
3.0
 40
4.0
 40
4.0
 40
4.0
 40
5.0
 40
5.0
 40
5.0
 40
6.0
 40
6.0
 40
6.0
 40
7.0
 40
7.0
 40
7.0
 40
8.0
 40
8.0
 40
8.0
 40
9.0
 40
9.0
 40
9.0
 40
10.0
 40
10.0
 40
10.0
 40
11.0
 40
11.0
 40
11.0
 40
12.0
 40
12.0
 40
12.0
 40
13.0
 40
13.0
 40
13.0
 40
13.0
 10
3121.5317780471
 20
26.9515629074
 30
0.0
 10
3121.5317780471
 20
26.9515629074
 30
0.0
 10
3121.5317780471
 20
24.8134277965
 30
0.0
 10
3121.5317780471
 20
24.8134277965
 30
0.0
 10
3121.5317780471
 20
24.8134277965
 30
0.0
 10
3121.7531810219
 20
24.8134277965
 30
0.0
 10
3121.7531810219
 20
24.8134277965
 30
0.0
 10
3121.7531810219
 20
24.8134277965
 30
0.0
 10
3121.7531810219
 20
25.3431200198
 30
0.0
 10
3121.7531810219
 20
25.3431200198
 30
0.0
 10
3121.7531810219
 20
25.5530079462
 30
0.0
 10
3121.7531810219
 20
25.8037219531
 30
0.0
 10
3122.0384401738
 20
25.8037219531
 30
0.0
 10
3122.2653389671
 20
25.8037219531
 30
0.0
 10
3122.2922946484
 20
25.670775486
 30
0.0
 10
3122.2922946484
 20
25.4744962531
 30
0.0
 10
3122.2922946484
 20
25.4744962531
 30
0.0
 10
3122.2922946484
 20
24.8134277965
 30
0.0
 10
3122.2922946484
 20
24.8134277965
 30
0.0
 10
3122.2922946484
 20
24.8134277965
 30
0.0
 10
3122.5142210345
 20
24.8134277965
 30
0.0
 10
3122.5142210345
 20
24.8134277965
 30
0.0
 10
3122.5142210345
 20
24.8134277965
 30
0.0
 10
3122.5142210345
 20
25.5006668175
 30
0.0
 10
3122.5142210345
 20
25.5006668175
 30
0.0
 10
3122.5142210345
 20
25.7812152678
 30
0.0
 10
3122.4302135228
 20
26.0010480087
 30
0.0
 10
3122.105175113
 20
26.0010480087
 30
0.0
 10
3121.9654242991
 20
26.0010480087
 30
0.0
 10
3121.8272437191
 20
25.9345747751
 30
0.0
 10
3121.7578917235
 20
25.8115731225
 30
0.0
 10
3121.7578917235
 20
25.8115731225
 30
0.0
 10
3121.7531810219
 20
25.8115731225
 30
0.0
 10
3121.7531810219
 20
25.8115731225
 30
0.0
 10
3121.7531810219
 20
25.8115731225
 30
0.0
 10
3121.7531810219
 20
26.9515629074
 30
0.0
 10
3121.7531810219
 20
26.9515629074
 30
0.0
 10
3121.7531810219
 20
26.9515629074
 30
0.0
 10
3121.5317780471
 20
26.9515629074
 30
0.0
 10
3121.5317780471
 20
26.9515629074
 30
0.0
  0
LWPOLYLINE
  5
23D
100
AcDbEntity
  8
0
100
AcDbPolyline
 62
7
  6
CONTINUOUS
 90
2
 70
0
 43
0.2
 10
3124.3540117113
 20
25.7592319937
 10
3124.5704422789
 20
25.7592319937
  0
LWPOLYLINE
  5
23E
100
AcDbEntity
  8
0
100
AcDbPolyline
 62
7
  6
CONTINUOUS
 90
2
 70
0
 43
0.2
 10
3124.5704422789
 20
25.7592319937
 10
3124.5704422789
 20
25.9659794524
  0
LWPOLYLINE
  5
23F
100
AcDbEntity
  8
0
100
AcDbPolyline
 62
7
  6
CONTINUOUS
 90
2
 70
0
 43
0.2
 10
3124.5704422789
 20
25.9659794524
 10
3124.3540117113
 20
25.9659794524
  0
LWPOLYLINE
  5
240
100
AcDbEntity
  8
0
100
AcDbPolyline
 62
7
  6
CONTINUOUS
 90
2
 70
0
 43
0.2
 10
3124.3540117113
 20
25.9659794524
 10
3124.3540117113
 20
26.4066917568
  0
LWPOLYLINE
  5
241
100
AcDbEntity
  8
0
100
AcDbPolyline
 62
7
  6
CONTINUOUS
 90
2
 70
0
 43
0.2
 10
3124.3540117113
 20
26.4066917568
 10
3124.1323470309
 20
26.4066917568
  0
LWPOLYLINE
  5
242
100
AcDbEntity
  8
0
100
AcDbPolyline
 62
7
  6
CONTINUOUS
 90
2
 70
0
 43
0.2
 10
3124.1323470309
 20
26.4066917568
 10
3124.1323470309
 20
25.9659794524
  0
LWPOLYLINE
  5
243
100
AcDbEntity
  8
0
100
AcDbPolyline
 62
7
  6
CONTINUOUS
 90
2
 70
0
 43
0.2
 10
3124.1323470309
 20
25.9659794524
 10
3124.0117007291
 20
25.9659794524
  0
LWPOLYLINE
  5
244
100
AcDbEntity
  8
0
100
AcDbPolyline
 62
7
  6
CONTINUOUS
 90
2
 70
0
 43
0.2
 10
3124.0117007291
 20
25.9659794524
 10
3124.0117007291
 20
25.7592319937
  0
LWPOLYLINE
  5
245
100
AcDbEntity
  8
0
100
AcDbPolyline
 62
7
  6
CONTINUOUS
 90
2
 70
0
 43
0.2
 10
3124.0117007291
 20
25.7592319937
 10
3124.1323470309
 20
25.7592319937
  0
LWPOLYLINE
  5
246
100
AcDbEntity
  8
0
100
AcDbPolyline
 62
7
  6
CONTINUOUS
 90
2
 70
0
 43
0.2
 10
3124.1323470309
 20
25.7592319937
 10
3124.1323470309
 20
24.8134277965
  0
LWPOLYLINE
  5
247
100
AcDbEntity
  8
0
100
AcDbPolyline
 62
7
  6
CONTINUOUS
 90
2
 70
0
 43
0.2
 10
3124.1323470309
 20
24.8134277965
 10
3124.3540117113
 20
24.8134277965
  0
LWPOLYLINE
  5
248
100
AcDbEntity
  8
0
100
AcDbPolyline
 62
7
  6
CONTINUOUS
 90
2
 70
0
 43
0.2
 10
3124.3540117113
 20
24.8134277965
 10
3124.3540117113
 20
25.7592319937
  0
SPLINE
  5
249
100
AcDbEntity
  8
0
100
AcDbSpline
 62
7
  6
CONTINUOUS
 70
2
 71
3
 72
20
 73
16
 74
0
 42
0.0000001
 43
0.0000001
 44
0.0000000001
 40
0.0
 40
0.0
 40
0.0
 40
0.0
 40
1.0
 40
1.0
 40
1.0
 40
2.0
 40
2.0
 40
2.0
 40
3.0
 40
3.0
 40
3.0
 40
4.0
 40
4.0
 40
4.0
 40
5.0
 40
5.0
 40
5.0
 40
5.0
 10
3112.1360220186
 20
35.1743542399
 30
0.0
 10
3112.1360220186
 20
35.1743542399
 30
0.0
 10
3114.452378673
 20
32.3447928176
 30
0.0
 10
3114.452378673
 20
32.3447928176
 30
0.0
 10
3113.8007316196
 20
31.692622353
 30
0.0
 10
3113.0238584156
 20
30.9567060822
 30
0.0
 10
3112.052668771
 20
30.9567060822
 30
0.0
 10
3111.0541308865
 20
30.9567060822
 30
0.0
 10
3110.110812893
 20
31.8862845295
 30
0.0
 10
3110.110812893
 20
32.885476678
 30
0.0
 10
3110.110812893
 20
33.8846688266
 30
0.0
 10
3111.2896659661
 20
34.5912740652
 30
0.0
 10
3112.0111884264
 20
35.0911318451
 30
0.0
 10
3112.0111884264
 20
35.0911318451
 30
0.0
 10
3112.1360220186
 20
35.1743542399
 30
0.0
 10
3112.1360220186
 20
35.1743542399
 30
0.0
  0
SPLINE
  5
24A
100
AcDbEntity
  8
0
100
AcDbSpline
 62
7
  6
CONTINUOUS
 70
2
 71
3
 72
23
 73
19
 74
0
 42
0.0000001
 43
0.0000001
 44
0.0000000001
 40
0.0
 40
0.0
 40
0.0
 40
0.0
 40
1.0
 40
1.0
 40
1.0
 40
2.0
 40
2.0
 40
2.0
 40
3.0
 40
3.0
 40
3.0
 40
4.0
 40
4.0
 40
4.0
 40
5.0
 40
5.0
 40
5.0
 40
6.0
 40
6.0
 40
6.0
 40
6.0
 10
3112.4134300011
 20
36.8121081596
 30
0.0
 10
3112.4134300011
 20
36.8121081596
 30
0.0
 10
3112.0669317286
 20
37.2554375204
 30
0.0
 10
3112.0669317286
 20
37.2554375204
 30
0.0
 10
3111.7611286836
 20
37.6435469904
 30
0.0
 10
3111.4422403565
 20
38.0320490188
 30
0.0
 10
3111.4422403565
 20
38.5589933329
 30
0.0
 10
3111.4422403565
 20
39.2251650495
 30
0.0
 10
3111.983578481
 20
39.6688869688
 30
0.0
 10
3112.6074847361
 20
39.6688869688
 30
0.0
 10
3113.3012663982
 20
39.6688869688
 30
0.0
 10
3113.8284724179
 20
39.2666453941
 30
0.0
 10
3113.8284724179
 20
38.5316450931
 30
0.0
 10
3113.8284724179
 20
37.7683805826
 30
0.0
 10
3113.1072116632
 20
37.3382673568
 30
0.0
 10
3112.5801364963
 20
36.9225479414
 30
0.0
 10
3112.5801364963
 20
36.9225479414
 30
0.0
 10
3112.4134300011
 20
36.8121081596
 30
0.0
 10
3112.4134300011
 20
36.8121081596
 30
0.0
  0
SPLINE
  5
24B
100
AcDbEntity
  8
0
100
AcDbSpline
 62
7
  6
CONTINUOUS
 70
2
 71
3
 72
50
 73
46
 74
0
 42
0.0000001
 43
0.0000001
 44
0.0000000001
 40
0.0
 40
0.0
 40
0.0
 40
0.0
 40
1.0
 40
1.0
 40
1.0
 40
2.0
 40
2.0
 40
2.0
 40
3.0
 40
3.0
 40
3.0
 40
4.0
 40
4.0
 40
4.0
 40
5.0
 40
5.0
 40
5.0
 40
6.0
 40
6.0
 40
6.0
 40
7.0
 40
7.0
 40
7.0
 40
8.0
 40
8.0
 40
8.0
 40
9.0
 40
9.0
 40
9.0
 40
10.0
 40
10.0
 40
10.0
 40
11.0
 40
11.0
 40
11.0
 40
12.0
 40
12.0
 40
12.0
 40
13.0
 40
13.0
 40
13.0
 40
14.0
 40
14.0
 40
14.0
 40
15.0
 40
15.0
 40
15.0
 40
15.0
 10
3116.3670171641
 20
30.0135189415
 30
0.0
 10
3116.3670171641
 20
30.0135189415
 30
0.0
 10
3117.9762451686
 20
30.0135189415
 30
0.0
 10
3117.9762451686
 20
30.0135189415
 30
0.0
 10
3117.9762451686
 20
30.0135189415
 30
0.0
 10
3116.103217875
 20
32.3306607129
 30
0.0
 10
3116.103217875
 20
32.3306607129
 30
0.0
 10
3116.103217875
 20
32.3306607129
 30
0.0
 10
3117.3795563005
 20
33.8281404075
 30
0.0
 10
3117.3795563005
 20
33.8281404075
 30
0.0
 10
3117.3795563005
 20
33.8281404075
 30
0.0
 10
3116.5473323527
 20
34.689151976
 30
0.0
 10
3116.5473323527
 20
34.689151976
 30
0.0
 10
3116.5473323527
 20
34.689151976
 30
0.0
 10
3115.3267372294
 20
33.2738478536
 30
0.0
 10
3115.3267372294
 20
33.2738478536
 30
0.0
 10
3115.3267372294
 20
33.2738478536
 30
0.0
 10
3113.1488228606
 20
35.909223688
 30
0.0
 10
3113.1488228606
 20
35.909223688
 30
0.0
 10
3114.0223963001
 20
36.547262048
 30
0.0
 10
3115.0490675412
 20
37.3382673568
 30
0.0
 10
3115.0490675412
 20
38.5171204299
 30
0.0
 10
3115.0490675412
 20
39.8908133549
 30
0.0
 10
3113.9111714014
 20
40.6952965043
 30
0.0
 10
3112.6358797985
 20
40.6952965043
 30
0.0
 10
3111.2624485791
 20
40.6952965043
 30
0.0
 10
3110.2215143804
 20
39.8490713047
 30
0.0
 10
3110.2215143804
 20
38.4064189425
 30
0.0
 10
3110.2215143804
 20
37.5188442511
 30
0.0
 10
3110.7768537568
 20
36.741971047
 30
0.0
 10
3111.3730192137
 20
36.1175413806
 30
0.0
 10
3111.3730192137
 20
36.1175413806
 30
0.0
 10
3110.7211104546
 20
35.6459478102
 30
0.0
 10
3110.7211104546
 20
35.6459478102
 30
0.0
 10
3109.7225725702
 20
34.9246870556
 30
0.0
 10
3108.8896943584
 20
34.2034263009
 30
0.0
 10
3108.8896943584
 20
32.8718679845
 30
0.0
 10
3108.8896943584
 20
31.0681926865
 30
0.0
 10
3110.346740531
 20
29.7915925554
 30
0.0
 10
3112.0942799684
 20
29.7915925554
 30
0.0
 10
3113.3291380493
 20
29.7915925554
 30
0.0
 10
3114.4385082739
 20
30.4997680279
 30
0.0
 10
3115.2293827299
 20
31.4282996526
 30
0.0
 10
3115.2293827299
 20
31.4282996526
 30
0.0
 10
3116.3670171641
 20
30.0135189415
 30
0.0
 10
3116.3670171641
 20
30.0135189415
 30
0.0
  0
LINE
  5
24C
100
AcDbEntity
  8
0
100
AcDbLine
 62
7
  6
CONTINUOUS
 10
3102.1698785391
 20
27.9873938461
 11
3124.5837892667
 21
27.9873938461
  0
LINE
  5
24D
100
AcDbEntity
  8
0
100
AcDbLine
 62
7
  6
CONTINUOUS
 10
3124.5837892667
 20
27.9873938461
 11
3124.5837892667
 21
50.4013045738
  0
LINE
  5
24E
100
AcDbEntity
  8
0
100
AcDbLine
 62
7
  6
CONTINUOUS
 10
3124.5837892667
 20
50.4013045738
 11
3102.1698785391
 21
50.4013045738
  0
LINE
  5
24F
100
AcDbEntity
  8
0
100
AcDbLine
 62
7
  6
CONTINUOUS
 10
3102.1698785391
 20
50.4013045738
 11
3102.1698785391
 21
27.9873938461
  0
ENDBLK
  5
250
100
AcDbEntity
  8
0
  6
BYBLOCK
 62
0
100
AcDbBlockEnd
  0
BLOCK
  5
251
100
AcDbEntity
  8
0
100
AcDbBlockBegin
  2
_CLOSED
 70
64
 10
0.0
 20
0.0
  3
_CLOSED
  1

  0
LINE
  5
252
100
AcDbEntity
  8
0
  6
BYBLOCK
 62
0
100
AcDbLine
 10
0.0
 20
0.0
 11
-1.0
 21
0.2
  0
LINE
  5
253
100
AcDbEntity
  8
0
  6
BYBLOCK
 62
0
100
AcDbLine
 10
-1.0
 20
0.2
 11
-1.0
 21
-0.2
  0
LINE
  5
254
100
AcDbEntity
  8
0
  6
BYBLOCK
 62
0
100
AcDbLine
 10
-1.0
 20
-0.2
 11
0.0
 21
0.0
  0
LINE
  5
255
100
AcDbEntity
  8
0
  6
BYBLOCK
 62
0
100
AcDbLine
 10
-1.0
 20
0.0
 11
0.0
 21
0.0
  0
ENDBLK
  5
256
100
AcDbEntity
  8
0
  6
BYBLOCK
 62
0
100
AcDbBlockEnd
  0
BLOCK
  5
257
100
AcDbEntity
  8
0
100
AcDbBlockBegin
 62
7
  6
CONTINUOUS
  2
*D0
 70
65
 10
0.0
 20
0.0
  3
*D0
  1

  0
MTEXT
  5
258
100
AcDbEntity
  8
0
100
AcDbMText
 62
7
  6
CONTINUOUS
  7
STANDARD
 71
2
 72
1
 10
384.0804668443
 20
700.3692849461
 30
0.0
 11
1.0
 21
0.0
 31
0.0
  1
70,1
 40
10.0
 41
27.1747211896
  0
LINE
  5
259
100
AcDbEntity
  8
0
100
AcDbLine
 62
7
  6
CONTINUOUS
 10
349.0304668443
 20
698.5817116472
 11
349.0304668443
 21
687.1192849461
  0
LINE
  5
25A
100
AcDbEntity
  8
0
100
AcDbLine
 62
7
  6
CONTINUOUS
 10
419.1304668443
 20
698.5817116472
 11
419.1304668443
 21
687.1192849461
  0
LINE
  5
25B
100
AcDbEntity
  8
0
100
AcDbLine
 62
7
  6
CONTINUOUS
 10
349.0304668443
 20
687.8692849461
 11
384.0804668443
 21
687.8692849461
  0
LINE
  5
25C
100
AcDbEntity
  8
0
100
AcDbLine
 62
7
  6
CONTINUOUS
 10
419.1304668443
 20
687.8692849461
 11
384.0804668443
 21
687.8692849461
  0
INSERT
  5
25D
100
AcDbEntity
  8
0
100
AcDbBlockReference
 62
7
  6
CONTINUOUS
  2
_CLOSED
 10
349.0304668443
 20
687.8692849461
 41
2.5
 42
2.5
 43
2.5
 50
180.0
  0
INSERT
  5
25E
100
AcDbEntity
  8
0
100
AcDbBlockReference
 62
7
  6
CONTINUOUS
  2
_CLOSED
 10
419.1304668443
 20
687.8692849461
 41
2.5
 42
2.5
 43
2.5
  0
ENDBLK
  5
25F
100
AcDbEntity
  8
0
  6
BYBLOCK
 62
0
100
AcDbBlockEnd
  0
BLOCK
  5
260
100
AcDbEntity
  8
0
100
AcDbBlockBegin
 62
7
  6
CONTINUOUS
  2
*D1
 70
65
 10
0.0
 20
0.0
  3
*D1
  1

  0
MTEXT
  5
261
100
AcDbEntity
  8
0
100
AcDbMText
 62
7
  6
CONTINUOUS
  7
STANDARD
 71
2
 72
1
 10
262.6252956458
 20
775.6928392659
 30
0.0
 11
0.0
 21
1.0
 31
0.0
  1
91
 40
10.0
 41
15.5390334572
  0
LINE
  5
262
100
AcDbEntity
  8
0
100
AcDbLine
 62
7
  6
CONTINUOUS
 10
299.9971562987
 20
730.1928392659
 11
274.3752956458
 21
730.1928392659
  0
LINE
  5
263
100
AcDbEntity
  8
0
100
AcDbLine
 62
7
  6
CONTINUOUS
 10
305.3188171813
 20
821.1928392659
 11
274.3752956458
 21
821.1928392659
  0
LINE
  5
264
100
AcDbEntity
  8
0
100
AcDbLine
 62
7
  6
CONTINUOUS
 10
275.1252956458
 20
730.1928392659
 11
275.1252956458
 21
775.6928392659
  0
LINE
  5
265
100
AcDbEntity
  8
0
100
AcDbLine
 62
7
  6
CONTINUOUS
 10
275.1252956458
 20
821.1928392659
 11
275.1252956458
 21
775.6928392659
  0
INSERT
  5
266
100
AcDbEntity
  8
0
100
AcDbBlockReference
 62
7
  6
CONTINUOUS
  2
_CLOSED
 10
275.1252956458
 20
730.1928392659
 41
2.5
 42
2.5
 43
2.5
 50
270.0
  0
INSERT
  5
267
100
AcDbEntity
  8
0
100
AcDbBlockReference
 62
7
  6
CONTINUOUS
  2
_CLOSED
 10
275.1252956458
 20
821.1928392659
 41
2.5
 42
2.5
 43
2.5
 50
90.0
  0
ENDBLK
  5
268
100
AcDbEntity
  8
0
  6
BYBLOCK
 62
0
100
AcDbBlockEnd
  0
BLOCK
  5
269
100
AcDbEntity
  8
0
100
AcDbBlockBegin
 62
7
  6
CONTINUOUS
  2
*D2
 70
65
 10
0.0
 20
0.0
  3
*D2
  1

  0
MTEXT
  5
26A
100
AcDbEntity
  8
0
100
AcDbMText
 62
7
  6
CONTINUOUS
  7
STANDARD
 71
2
 72
1
 10
384.0804668443
 20
673.9568374655
 30
0.0
 11
1.0
 21
0.0
 31
0.0
  1
109,9
 40
10.0
 41
34.9442379182
  0
LINE
  5
26B
100
AcDbEntity
  8
0
100
AcDbLine
 62
7
  6
CONTINUOUS
 10
329.1304668443
 20
696.3457334649
 11
329.1304668443
 21
660.7068374655
  0
LINE
  5
26C
100
AcDbEntity
  8
0
100
AcDbLine
 62
7
  6
CONTINUOUS
 10
439.0304668443
 20
698.5817116472
 11
439.0304668443
 21
660.7068374655
  0
LINE
  5
26D
100
AcDbEntity
  8
0
100
AcDbLine
 62
7
  6
CONTINUOUS
 10
329.1304668443
 20
661.4568374655
 11
384.0804668443
 21
661.4568374655
  0
LINE
  5
26E
100
AcDbEntity
  8
0
100
AcDbLine
 62
7
  6
CONTINUOUS
 10
439.0304668443
 20
661.4568374655
 11
384.0804668443
 21
661.4568374655
  0
INSERT
  5
26F
100
AcDbEntity
  8
0
100
AcDbBlockReference
 62
7
  6
CONTINUOUS
  2
_CLOSED
 10
329.1304668443
 20
661.4568374655
 41
2.5
 42
2.5
 43
2.5
 50
180.0
  0
INSERT
  5
270
100
AcDbEntity
  8
0
100
AcDbBlockReference
 62
7
  6
CONTINUOUS
  2
_CLOSED
 10
439.0304668443
 20
661.4568374655
 41
2.5
 42
2.5
 43
2.5
  0
ENDBLK
  5
271
100
AcDbEntity
  8
0
  6
BYBLOCK
 62
0
100
AcDbBlockEnd
  0
BLOCK
  5
272
100
AcDbEntity
  8
0
100
AcDbBlockBegin
 62
7
  6
CONTINUOUS
  2
*D3
 70
65
 10
0.0
 20
0.0
  3
*D3
  1

  0
MTEXT
  5
273
100
AcDbEntity
  8
0
100
AcDbMText
 62
7
  6
CONTINUOUS
  7
STANDARD
 71
2
 72
1
 10
1790.6813994716
 20
700.3692849461
 30
0.0
 11
1.0
 21
0.0
 31
0.0
  1
2250
 40
10.0
 41
31.0780669145
  0
LINE
  5
274
100
AcDbEntity
  8
0
100
AcDbLine
 62
7
  6
CONTINUOUS
 10
665.6813994716
 20
698.5817116472
 11
665.6813994716
 21
687.1192849461
  0
LINE
  5
275
100
AcDbEntity
  8
0
100
AcDbLine
 62
7
  6
CONTINUOUS
 10
2915.6813994716
 20
698.5817116472
 11
2915.6813994716
 21
687.1192849461
  0
LINE
  5
276
100
AcDbEntity
  8
0
100
AcDbLine
 62
7
  6
CONTINUOUS
 10
665.6813994716
 20
687.8692849461
 11
1790.6813994716
 21
687.8692849461
  0
LINE
  5
277
100
AcDbEntity
  8
0
100
AcDbLine
 62
7
  6
CONTINUOUS
 10
2915.6813994716
 20
687.8692849461
 11
1790.6813994716
 21
687.8692849461
  0
INSERT
  5
278
100
AcDbEntity
  8
0
100
AcDbBlockReference
 62
7
  6
CONTINUOUS
  2
_CLOSED
 10
665.6813994716
 20
687.8692849461
 41
2.5
 42
2.5
 43
2.5
 50
180.0
  0
INSERT
  5
279
100
AcDbEntity
  8
0
100
AcDbBlockReference
 62
7
  6
CONTINUOUS
  2
_CLOSED
 10
2915.6813994716
 20
687.8692849461
 41
2.5
 42
2.5
 43
2.5
  0
ENDBLK
  5
27A
100
AcDbEntity
  8
0
  6
BYBLOCK
 62
0
100
AcDbBlockEnd
  0
ENDSEC
  0
SECTION
  2
ENTITIES
  0
DIMENSION
  5
27B
100
AcDbEntity
  8
0
100
AcDbDimension
 62
7
  6
CONTINUOUS
  2
*D0
 10
419.1304668443
 20
687.8692849461
 11
383.11953125
 21
687.8692849461
 70
160
  3
DIMSTYLE_1
100
AcDbAlignedDimension
 13
349.0304668443
 23
699.3317116472
 14
419.1304668443
 24
699.3317116472
100
AcDbRotatedDimension
  0
DIMENSION
  5
27C
100
AcDbEntity
  8
0
100
AcDbDimension
 62
7
  6
CONTINUOUS
  2
*D1
 10
275.1252956458
 20
821.1928392659
 11
275.1252956458
 21
774.6994795281
 70
160
  3
DIMSTYLE_1
100
AcDbAlignedDimension
 13
300.7471562987
 23
730.1928392659
 14
306.0688171813
 24
821.1928392659
 50
90.0
100
AcDbRotatedDimension
  0
DIMENSION
  5
27D
100
AcDbEntity
  8
0
100
AcDbDimension
 62
7
  6
CONTINUOUS
  2
*D2
 10
439.0304668443
 20
661.4568374655
 11
384.5053466797
 21
661.4568374655
 70
160
  3
DIMSTYLE_1
100
AcDbAlignedDimension
 13
329.1304668443
 23
697.0957334649
 14
439.0304668443
 24
699.3317116472
100
AcDbRotatedDimension
  0
DIMENSION
  5
27E
100
AcDbEntity
  8
0
100
AcDbDimension
 62
7
  6
CONTINUOUS
  2
*D3
 10
2915.6813994716
 20
687.8692849461
 11
1790.5452148438
 21
687.8692849461
 70
160
  3
DIMSTYLE_2
100
AcDbAlignedDimension
 13
665.6813994716
 23
699.3317116472
 14
2915.6813994716
 24
699.3317116472
100
AcDbRotatedDimension
  0
LINE
  5
27F
100
AcDbEntity
  8
0
100
AcDbLine
 62
2
  6
CONTINUOUS
 10
3099.5507214317
 20
50.7776170738
 11
3189.5507214317
 21
50.7776170738
  0
LINE
  5
280
100
AcDbEntity
  8
0
100
AcDbLine
 62
2
  6
CONTINUOUS
 10
3099.5507214317
 20
50.7776170738
 11
3099.5507214317
 21
10.7776170738
  0
LINE
  5
281
100
AcDbEntity
  8
0
100
AcDbLine
 62
2
  6
CONTINUOUS
 10
3129.5507214317
 20
44.7776170738
 11
3189.5507214317
 21
44.7776170738
  0
LINE
  5
282
100
AcDbEntity
  8
0
100
AcDbLine
 62
2
  6
CONTINUOUS
 10
3129.5507214317
 20
38.7776170738
 11
3189.5507214317
 21
38.7776170738
  0
LINE
  5
283
100
AcDbEntity
  8
0
100
AcDbLine
 62
2
  6
CONTINUOUS
 10
3129.5507214317
 20
28.7776170738
 11
3189.5507214317
 21
28.7776170738
  0
LINE
  5
284
100
AcDbEntity
  8
0
100
AcDbLine
 62
2
  6
CONTINUOUS
 10
3099.5507214317
 20
23.7776170738
 11
3189.5507214317
 21
23.7776170738
  0
LINE
  5
285
100
AcDbEntity
  8
0
100
AcDbLine
 62
2
  6
CONTINUOUS
 10
3099.5507214317
 20
10.7776170738
 11
3189.5507214317
 21
10.7776170738
  0
LINE
  5
286
100
AcDbEntity
  8
0
100
AcDbLine
 62
2
  6
CONTINUOUS
 10
3129.5507214317
 20
50.7776170738
 11
3129.5507214317
 21
23.7776170738
  0
LINE
  5
287
100
AcDbEntity
  8
0
100
AcDbLine
 62
2
  6
CONTINUOUS
 10
3169.5507214317
 20
50.7776170738
 11
3169.5507214317
 21
38.7776170738
  0
LINE
  5
288
100
AcDbEntity
  8
0
100
AcDbLine
 62
2
  6
CONTINUOUS
 10
3189.5507214317
 20
50.7776170738
 11
3189.5507214317
 21
10.7776170738
  0
INSERT
  5
289
100
AcDbEntity
  8
0
100
AcDbBlockReference
 62
2
  6
CONTINUOUS
  2
LOGO2_BL0
 10
3113.3767684765
 20
37.2776170738
  0
MTEXT
  5
28A
100
AcDbEntity
  8
9_SOLID
100
AcDbMText
 62
2
  6
CONTINUOUS
  7
TEXTSTYLE_2
 71
1
 72
1
 10
3131.0382214317
 20
49.2776170738
 30
0.0
 11
1.0
 21
0.0
 31
0.0
  1
6F4_C_244
 40
3.0
 41
32.5714285714
  0
MTEXT
  5
28B
100
AcDbEntity
  8
0
100
AcDbMText
 62
2
  6
CONTINUOUS
  7
TEXTSTYLE_2
 71
1
 72
1
 10
3171.0382214317
 20
49.0276170738
 30
0.0
 11
1.0
 21
0.0
 31
0.0
  1
Rev:00
 40
3.5
 41
22.75
  0
MTEXT
  5
28C
100
AcDbEntity
  8
9_SOLID
100
AcDbMText
 62
2
  6
CONTINUOUS
  7
TEXTSTYLE_2
 71
1
 72
1
 10
3131.0382214317
 20
43.0276170738
 30
0.0
 11
1.0
 21
0.0
 31
0.0
  1
Scale:1:1
 40
3.5
 41
28.375
  0
MTEXT
  5
28D
100
AcDbEntity
  8
9_SOLID
100
AcDbMText
 62
2
  6
CONTINUOUS
  7
TEXTSTYLE_2
 71
1
 72
1
 10
3171.0382214317
 20
43.5276170738
 30
0.0
 11
1.0
 21
0.0
 31
0.0
  1
3200 by 2500
 40
3.5
 41
48.5
  0
MTEXT
  5
28E
100
AcDbEntity
  8
0
100
AcDbMText
 62
2
  6
CONTINUOUS
  7
TEXTSTYLE_2
 71
1
 72
1
 10
3131.0382214317
 20
35.5276170738
 30
0.0
 11
1.0
 21
0.0
 31
0.0
  1
CASS. BRENTA 2.7 ARRETRATA
 40
3.5
 41
108.5
  0
MTEXT
  5
28F
100
AcDbEntity
  8
0
100
AcDbMText
 62
2
  6
CONTINUOUS
  7
TEXTSTYLE_2
 71
1
 72
1
 10
3131.0382214317
 20
27.5276170738
 30
0.0
 11
1.0
 21
0.0
 31
0.0
  1
DATE:08/05/18
 40
2.5
 41
36.875
  0
MTEXT
  5
290
100
AcDbEntity
  8
9_SOLID
100
AcDbMText
 62
2
  6
CONTINUOUS
  7
TEXTSTYLE_2
 71
1
 72
1
 10
3101.0382214317
 20
23.4651170738
 30
0.0
 11
1.0
 21
0.0
 31
0.0
  1
Any integral or partial reproductions are prohibited \Pwithout prior authorisation of L {\Ftxt.shx;\W0.190476;\H2.250000; }& L Luce & Light s.r.l., \Pin accordance with the law in force. \PAll rights reserved.
 40
2.25
 41
134.5982142857
  0
LINE
  5
291
100
AcDbEntity
  8
0
100
AcDbLine
 62
7
  6
CONTINUOUS
 10
0.0
 20
0.0
 11
0.0
 21
2500.0
  0
LINE
  5
292
100
AcDbEntity
  8
0
100
AcDbLine
 62
7
  6
CONTINUOUS
 10
0.0
 20
0.0
 11
3200.0
 21
0.0
  0
LINE
  5
293
100
AcDbEntity
  8
0
100
AcDbLine
 62
7
  6
CONTINUOUS
 10
0.0
 20
2500.0
 11
3200.0
 21
2500.0
  0
LINE
  5
294
100
AcDbEntity
  8
0
100
AcDbLine
 62
7
  6
CONTINUOUS
 10
3200.0
 20
0.0
 11
3200.0
 21
2500.0
  0
LINE
  5
295
100
AcDbEntity
  8
6_ALL_SURFS
100
AcDbLine
 62
7
  6
CONTINUOUS
 10
331.6304668443
 20
732.8428392659
 11
331.9304668443
 21
732.6928392659
  0
LINE
  5
296
100
AcDbEntity
  8
6_ALL_SURFS
100
AcDbLine
 62
7
  6
CONTINUOUS
 10
334.6304668443
 20
732.8428392659
 11
334.9304668443
 21
732.6928392659
  0
LINE
  5
297
100
AcDbEntity
  8
6_ALL_SURFS
100
AcDbLine
 62
7
  6
CONTINUOUS
 10
337.6304668443
 20
732.8428392659
 11
337.9304668443
 21
732.6928392659
  0
LINE
  5
298
100
AcDbEntity
  8
6_ALL_SURFS
100
AcDbLine
 62
7
  6
CONTINUOUS
 10
340.6304668443
 20
732.8428392659
 11
340.9304668443
 21
732.6928392659
  0
LINE
  5
299
100
AcDbEntity
  8
6_ALL_SURFS
100
AcDbLine
 62
7
  6
CONTINUOUS
 10
343.6304668443
 20
732.8428392659
 11
343.9304668443
 21
732.6928392659
  0
LINE
  5
29A
100
AcDbEntity
  8
6_ALL_SURFS
100
AcDbLine
 62
7
  6
CONTINUOUS
 10
346.6304668443
 20
732.8428392659
 11
346.9304668443
 21
732.6928392659
  0
LINE
  5
29B
100
AcDbEntity
  8
7_ALL_FEATURES
100
AcDbLine
 62
7
  6
CONTINUOUS
 10
436.5304668443
 20
731.6928392659
 11
438.6759384347
 21
731.9073864249
  0
LINE
  5
29C
100
AcDbEntity
  8
6_ALL_SURFS
100
AcDbLine
 62
7
  6
CONTINUOUS
 10
331.6304668443
 20
731.6928392659
 11
329.4849952539
 21
731.9073864249
  0
LINE
  5
29D
100
AcDbEntity
  8
6_ALL_SURFS
100
AcDbLine
 62
7
  6
CONTINUOUS
 10
349.7804668443
 20
730.1928392659
 11
349.6804668443
 21
730.1928392659
  0
LINE
  5
29E
100
AcDbEntity
  8
7_ALL_FEATURES
100
AcDbLine
 62
7
  6
CONTINUOUS
 10
349.7804668443
 20
730.1928392659
 11
418.4804668443
 21
730.1928392659
  0
LINE
  5
29F
100
AcDbEntity
  8
6_ALL_SURFS
100
AcDbLine
 62
7
  6
CONTINUOUS
 10
349.0304668443
 20
731.6928392659
 11
346.9304668443
 21
731.6928392659
  0
LINE
  5
2A0
100
AcDbEntity
  8
6_ALL_SURFS
100
AcDbLine
 62
7
  6
CONTINUOUS
 10
346.3304668443
 20
731.6928392659
 11
343.9304668443
 21
731.6928392659
  0
LINE
  5
2A1
100
AcDbEntity
  8
6_ALL_SURFS
100
AcDbLine
 62
7
  6
CONTINUOUS
 10
343.3304668443
 20
731.6928392659
 11
340.9304668443
 21
731.6928392659
  0
LINE
  5
2A2
100
AcDbEntity
  8
6_ALL_SURFS
100
AcDbLine
 62
7
  6
CONTINUOUS
 10
340.3304668443
 20
731.6928392659
 11
337.9304668443
 21
731.6928392659
  0
LINE
  5
2A3
100
AcDbEntity
  8
6_ALL_SURFS
100
AcDbLine
 62
7
  6
CONTINUOUS
 10
337.3304668443
 20
731.6928392659
 11
334.9304668443
 21
731.6928392659
  0
LINE
  5
2A4
100
AcDbEntity
  8
6_ALL_SURFS
100
AcDbLine
 62
7
  6
CONTINUOUS
 10
334.3304668443
 20
731.6928392659
 11
331.6304668443
 21
731.6928392659
  0
LINE
  5
2A5
100
AcDbEntity
  8
7_ALL_FEATURES
100
AcDbLine
 62
7
  6
CONTINUOUS
 10
419.1304668443
 20
731.6928392659
 11
421.2304668443
 21
731.6928392659
  0
LINE
  5
2A6
100
AcDbEntity
  8
6_ALL_SURFS
100
AcDbLine
 62
7
  6
CONTINUOUS
 10
421.8304668443
 20
731.6928392659
 11
424.2304668443
 21
731.6928392659
  0
LINE
  5
2A7
100
AcDbEntity
  8
6_ALL_SURFS
100
AcDbLine
 62
7
  6
CONTINUOUS
 10
424.8304668443
 20
731.6928392659
 11
427.2304668443
 21
731.6928392659
  0
LINE
  5
2A8
100
AcDbEntity
  8
6_ALL_SURFS
100
AcDbLine
 62
7
  6
CONTINUOUS
 10
427.8304668443
 20
731.6928392659
 11
430.2304668443
 21
731.6928392659
  0
LINE
  5
2A9
100
AcDbEntity
  8
6_ALL_SURFS
100
AcDbLine
 62
7
  6
CONTINUOUS
 10
430.8304668443
 20
731.6928392659
 11
433.2304668443
 21
731.6928392659
  0
LINE
  5
2AA
100
AcDbEntity
  8
6_ALL_SURFS
100
AcDbLine
 62
7
  6
CONTINUOUS
 10
433.8304668443
 20
731.6928392659
 11
436.5304668443
 21
731.6928392659
  0
LINE
  5
2AB
100
AcDbEntity
  8
7_ALL_FEATURES
100
AcDbLine
 62
7
  6
CONTINUOUS
 10
438.6367634864
 20
732.6928392659
 11
436.8304668443
 21
732.6928392659
  0
LINE
  5
2AC
100
AcDbEntity
  8
6_ALL_SURFS
100
AcDbLine
 62
7
  6
CONTINUOUS
 10
436.2304668443
 20
732.6928392659
 11
433.8304668443
 21
732.6928392659
  0
LINE
  5
2AD
100
AcDbEntity
  8
6_ALL_SURFS
100
AcDbLine
 62
7
  6
CONTINUOUS
 10
433.2304668443
 20
732.6928392659
 11
430.8304668443
 21
732.6928392659
  0
LINE
  5
2AE
100
AcDbEntity
  8
6_ALL_SURFS
100
AcDbLine
 62
7
  6
CONTINUOUS
 10
430.2304668443
 20
732.6928392659
 11
427.8304668443
 21
732.6928392659
  0
LINE
  5
2AF
100
AcDbEntity
  8
6_ALL_SURFS
100
AcDbLine
 62
7
  6
CONTINUOUS
 10
427.2304668443
 20
732.6928392659
 11
424.8304668443
 21
732.6928392659
  0
LINE
  5
2B0
100
AcDbEntity
  8
6_ALL_SURFS
100
AcDbLine
 62
7
  6
CONTINUOUS
 10
424.2304668443
 20
732.6928392659
 11
421.8304668443
 21
732.6928392659
  0
LINE
  5
2B1
100
AcDbEntity
  8
7_ALL_FEATURES
100
AcDbLine
 62
7
  6
CONTINUOUS
 10
421.2304668443
 20
732.6928392659
 11
419.3304668443
 21
732.6928392659
  0
LINE
  5
2B2
100
AcDbEntity
  8
6_ALL_SURFS
100
AcDbLine
 62
7
  6
CONTINUOUS
 10
329.5241702022
 20
732.6928392659
 11
331.3304668443
 21
732.6928392659
  0
LINE
  5
2B3
100
AcDbEntity
  8
6_ALL_SURFS
100
AcDbLine
 62
7
  6
CONTINUOUS
 10
331.9304668443
 20
732.6928392659
 11
334.3304668443
 21
732.6928392659
  0
LINE
  5
2B4
100
AcDbEntity
  8
6_ALL_SURFS
100
AcDbLine
 62
7
  6
CONTINUOUS
 10
334.9304668443
 20
732.6928392659
 11
337.3304668443
 21
732.6928392659
  0
LINE
  5
2B5
100
AcDbEntity
  8
6_ALL_SURFS
100
AcDbLine
 62
7
  6
CONTINUOUS
 10
337.9304668443
 20
732.6928392659
 11
340.3304668443
 21
732.6928392659
  0
LINE
  5
2B6
100
AcDbEntity
  8
6_ALL_SURFS
100
AcDbLine
 62
7
  6
CONTINUOUS
 10
340.9304668443
 20
732.6928392659
 11
343.3304668443
 21
732.6928392659
  0
LINE
  5
2B7
100
AcDbEntity
  8
6_ALL_SURFS
100
AcDbLine
 62
7
  6
CONTINUOUS
 10
343.9304668443
 20
732.6928392659
 11
346.3304668443
 21
732.6928392659
  0
LINE
  5
2B8
100
AcDbEntity
  8
6_ALL_SURFS
100
AcDbLine
 62
7
  6
CONTINUOUS
 10
346.9304668443
 20
732.6928392659
 11
348.8304668443
 21
732.6928392659
  0
LINE
  5
2B9
100
AcDbEntity
  8
7_ALL_FEATURES
100
AcDbLine
 62
7
  6
CONTINUOUS
 10
349.0304668443
 20
730.9428392659
 11
349.0304668443
 21
760.8428392659
  0
LINE
  5
2BA
100
AcDbEntity
  8
7_ALL_FEATURES
100
AcDbLine
 62
7
  6
CONTINUOUS
 10
350.7304668443
 20
756.8178392659
 11
350.7304668443
 21
757.5678392659
  0
LINE
  5
2BB
100
AcDbEntity
  8
7_ALL_FEATURES
100
AcDbLine
 62
7
  6
CONTINUOUS
 10
352.801827855
 20
800.0447432731
 11
356.7925460881
 21
820.58587441
  0
LINE
  5
2BC
100
AcDbEntity
  8
7_ALL_FEATURES
100
AcDbLine
 62
7
  6
CONTINUOUS
 10
356.8809100149
 20
820.5883629742
 11
351.9589739285
 21
795.7037783032
  0
LINE
  5
2BD
100
AcDbEntity
  8
6_ALL_SURFS
100
AcDbLine
 62
7
  6
CONTINUOUS
 10
352.0492170832
 20
796.6533490543
 11
352.9466749034
 21
800.6974491086
  0
LINE
  5
2BE
100
AcDbEntity
  8
7_ALL_FEATURES
100
AcDbLine
 62
7
  6
CONTINUOUS
 10
351.6054668443
 20
758.4428392659
 11
351.6054668443
 21
757.5678392659
  0
LINE
  5
2BF
100
AcDbEntity
  8
7_ALL_FEATURES
100
AcDbLine
 62
7
  6
CONTINUOUS
 10
351.6054668443
 20
756.8178392659
 11
351.6054668443
 21
755.9428392659
  0
LINE
  5
2C0
100
AcDbEntity
  8
6_ALL_SURFS
100
AcDbLine
 62
7
  6
CONTINUOUS
 10
351.9304668443
 20
763.0928392659
 11
351.9304668443
 21
795.570112806
  0
LINE
  5
2C1
100
AcDbEntity
  8
7_ALL_FEATURES
100
AcDbLine
 62
7
  6
CONTINUOUS
 10
352.3554668443
 20
755.9428392659
 11
352.3554668443
 21
756.8178392659
  0
LINE
  5
2C2
100
AcDbEntity
  8
7_ALL_FEATURES
100
AcDbLine
 62
7
  6
CONTINUOUS
 10
352.3554668443
 20
757.5678392659
 11
352.3554668443
 21
758.4428392659
  0
LINE
  5
2C3
100
AcDbEntity
  8
7_ALL_FEATURES
100
AcDbLine
 62
7
  6
CONTINUOUS
 10
353.2304668443
 20
757.5678392659
 11
353.2304668443
 21
756.8178392659
  0
LINE
  5
2C4
100
AcDbEntity
  8
7_ALL_FEATURES
100
AcDbLine
 62
7
  6
CONTINUOUS
 10
359.8804668443
 20
817.5678392659
 11
359.8804668443
 21
818.3178392659
  0
LINE
  5
2C5
100
AcDbEntity
  8
7_ALL_FEATURES
100
AcDbLine
 62
7
  6
CONTINUOUS
 10
360.7554668443
 20
819.1928392659
 11
360.7554668443
 21
818.3178392659
  0
LINE
  5
2C6
100
AcDbEntity
  8
7_ALL_FEATURES
100
AcDbLine
 62
7
  6
CONTINUOUS
 10
360.7554668443
 20
817.5678392659
 11
360.7554668443
 21
816.6928392659
  0
LINE
  5
2C7
100
AcDbEntity
  8
7_ALL_FEATURES
100
AcDbLine
 62
7
  6
CONTINUOUS
 10
361.5054668443
 20
816.6928392659
 11
361.5054668443
 21
817.5678392659
  0
LINE
  5
2C8
100
AcDbEntity
  8
7_ALL_FEATURES
100
AcDbLine
 62
7
  6
CONTINUOUS
 10
361.5054668443
 20
818.3178392659
 11
361.5054668443
 21
819.1928392659
  0
LINE
  5
2C9
100
AcDbEntity
  8
7_ALL_FEATURES
100
AcDbLine
 62
7
  6
CONTINUOUS
 10
362.3804668443
 20
818.3178392659
 11
362.3804668443
 21
817.5678392659
  0
LINE
  5
2CA
100
AcDbEntity
  8
7_ALL_FEATURES
100
AcDbLine
 62
7
  6
CONTINUOUS
 10
416.5554668443
 20
755.9428392659
 11
415.8054668443
 21
755.9428392659
  0
LINE
  5
2CB
100
AcDbEntity
  8
7_ALL_FEATURES
100
AcDbLine
 62
7
  6
CONTINUOUS
 10
352.3554668443
 20
755.9428392659
 11
351.6054668443
 21
755.9428392659
  0
LINE
  5
2CC
100
AcDbEntity
  8
7_ALL_FEATURES
100
AcDbLine
 62
7
  6
CONTINUOUS
 10
350.7304668443
 20
756.8178392659
 11
351.6054668443
 21
756.8178392659
  0
LINE
  5
2CD
100
AcDbEntity
  8
7_ALL_FEATURES
100
AcDbLine
 62
7
  6
CONTINUOUS
 10
352.3554668443
 20
756.8178392659
 11
353.2304668443
 21
756.8178392659
  0
LINE
  5
2CE
100
AcDbEntity
  8
7_ALL_FEATURES
100
AcDbLine
 62
7
  6
CONTINUOUS
 10
414.9304668443
 20
756.8178392659
 11
415.8054668443
 21
756.8178392659
  0
LINE
  5
2CF
100
AcDbEntity
  8
7_ALL_FEATURES
100
AcDbLine
 62
7
  6
CONTINUOUS
 10
416.5554668443
 20
756.8178392659
 11
417.4304668443
 21
756.8178392659
  0
LINE
  5
2D0
100
AcDbEntity
  8
6_ALL_SURFS
100
AcDbLine
 62
7
  6
CONTINUOUS
 10
421.8304668443
 20
732.6928392659
 11
421.5304668443
 21
732.8428392659
  0
LINE
  5
2D1
100
AcDbEntity
  8
6_ALL_SURFS
100
AcDbLine
 62
7
  6
CONTINUOUS
 10
424.8304668443
 20
732.6928392659
 11
424.5304668443
 21
732.8428392659
  0
LINE
  5
2D2
100
AcDbEntity
  8
6_ALL_SURFS
100
AcDbLine
 62
7
  6
CONTINUOUS
 10
427.8304668443
 20
732.6928392659
 11
427.5304668443
 21
732.8428392659
  0
LINE
  5
2D3
100
AcDbEntity
  8
7_ALL_FEATURES
100
AcDbLine
 62
7
  6
CONTINUOUS
 10
417.4304668443
 20
757.5678392659
 11
416.5554668443
 21
757.5678392659
  0
LINE
  5
2D4
100
AcDbEntity
  8
7_ALL_FEATURES
100
AcDbLine
 62
7
  6
CONTINUOUS
 10
415.8054668443
 20
757.5678392659
 11
414.9304668443
 21
757.5678392659
  0
LINE
  5
2D5
100
AcDbEntity
  8
7_ALL_FEATURES
100
AcDbLine
 62
7
  6
CONTINUOUS
 10
353.2304668443
 20
757.5678392659
 11
352.3554668443
 21
757.5678392659
  0
LINE
  5
2D6
100
AcDbEntity
  8
7_ALL_FEATURES
100
AcDbLine
 62
7
  6
CONTINUOUS
 10
351.6054668443
 20
757.5678392659
 11
350.7304668443
 21
757.5678392659
  0
LINE
  5
2D7
100
AcDbEntity
  8
7_ALL_FEATURES
100
AcDbLine
 62
7
  6
CONTINUOUS
 10
351.6054668443
 20
758.4428392659
 11
352.3554668443
 21
758.4428392659
  0
LINE
  5
2D8
100
AcDbEntity
  8
7_ALL_FEATURES
100
AcDbLine
 62
7
  6
CONTINUOUS
 10
415.8054668443
 20
758.4428392659
 11
416.5554668443
 21
758.4428392659
  0
LINE
  5
2D9
100
AcDbEntity
  8
6_ALL_SURFS
100
AcDbLine
 62
7
  6
CONTINUOUS
 10
418.3804668443
 20
761.5928392659
 11
417.7304668443
 21
761.5928392659
  0
LINE
  5
2DA
100
AcDbEntity
  8
6_ALL_SURFS
100
AcDbLine
 62
7
  6
CONTINUOUS
 10
350.4304668443
 20
761.5928392659
 11
349.7804668443
 21
761.5928392659
  0
LINE
  5
2DB
100
AcDbEntity
  8
6_ALL_SURFS
100
AcDbLine
 62
7
  6
CONTINUOUS
 10
430.8304668443
 20
732.6928392659
 11
430.5304668443
 21
732.8428392659
  0
LINE
  5
2DC
100
AcDbEntity
  8
6_ALL_SURFS
100
AcDbLine
 62
7
  6
CONTINUOUS
 10
433.8304668443
 20
732.6928392659
 11
433.5304668443
 21
732.8428392659
  0
LINE
  5
2DD
100
AcDbEntity
  8
6_ALL_SURFS
100
AcDbLine
 62
7
  6
CONTINUOUS
 10
436.8304668443
 20
732.6928392659
 11
436.5304668443
 21
732.8428392659
  0
LINE
  5
2DE
100
AcDbEntity
  8
7_ALL_FEATURES
100
AcDbLine
 62
7
  6
CONTINUOUS
 10
380.0804668443
 20
811.627487961
 11
380.0804668443
 21
812.4380227593
  0
LINE
  5
2DF
100
AcDbEntity
  8
7_ALL_FEATURES
100
AcDbLine
 62
7
  6
CONTINUOUS
 10
388.0804668443
 20
811.627487961
 11
388.0804668443
 21
812.4380227593
  0
LINE
  5
2E0
100
AcDbEntity
  8
6_ALL_SURFS
100
AcDbLine
 62
7
  6
CONTINUOUS
 10
331.3304668443
 20
732.6928392659
 11
331.6304668443
 21
732.8428392659
  0
LINE
  5
2E1
100
AcDbEntity
  8
6_ALL_SURFS
100
AcDbLine
 62
7
  6
CONTINUOUS
 10
334.3304668443
 20
732.6928392659
 11
334.6304668443
 21
732.8428392659
  0
LINE
  5
2E2
100
AcDbEntity
  8
6_ALL_SURFS
100
AcDbLine
 62
7
  6
CONTINUOUS
 10
337.3304668443
 20
732.6928392659
 11
337.6304668443
 21
732.8428392659
  0
LINE
  5
2E3
100
AcDbEntity
  8
6_ALL_SURFS
100
AcDbLine
 62
7
  6
CONTINUOUS
 10
340.3304668443
 20
732.6928392659
 11
340.6304668443
 21
732.8428392659
  0
LINE
  5
2E4
100
AcDbEntity
  8
7_ALL_FEATURES
100
AcDbLine
 62
7
  6
CONTINUOUS
 10
405.7804668443
 20
817.5678392659
 11
405.7804668443
 21
818.3178392659
  0
LINE
  5
2E5
100
AcDbEntity
  8
7_ALL_FEATURES
100
AcDbLine
 62
7
  6
CONTINUOUS
 10
406.6554668443
 20
819.1928392659
 11
406.6554668443
 21
818.3178392659
  0
LINE
  5
2E6
100
AcDbEntity
  8
7_ALL_FEATURES
100
AcDbLine
 62
7
  6
CONTINUOUS
 10
406.6554668443
 20
817.5678392659
 11
406.6554668443
 21
816.6928392659
  0
LINE
  5
2E7
100
AcDbEntity
  8
7_ALL_FEATURES
100
AcDbLine
 62
7
  6
CONTINUOUS
 10
407.4054668443
 20
816.6928392659
 11
407.4054668443
 21
817.5678392659
  0
LINE
  5
2E8
100
AcDbEntity
  8
7_ALL_FEATURES
100
AcDbLine
 62
7
  6
CONTINUOUS
 10
407.4054668443
 20
818.3178392659
 11
407.4054668443
 21
819.1928392659
  0
LINE
  5
2E9
100
AcDbEntity
  8
7_ALL_FEATURES
100
AcDbLine
 62
7
  6
CONTINUOUS
 10
408.2804668443
 20
818.3178392659
 11
408.2804668443
 21
817.5678392659
  0
LINE
  5
2EA
100
AcDbEntity
  8
6_ALL_SURFS
100
AcDbLine
 62
7
  6
CONTINUOUS
 10
343.3304668443
 20
732.6928392659
 11
343.6304668443
 21
732.8428392659
  0
LINE
  5
2EB
100
AcDbEntity
  8
6_ALL_SURFS
100
AcDbLine
 62
7
  6
CONTINUOUS
 10
346.3304668443
 20
732.6928392659
 11
346.6304668443
 21
732.8428392659
  0
LINE
  5
2EC
100
AcDbEntity
  8
6_ALL_SURFS
100
AcDbLine
 62
7
  6
CONTINUOUS
 10
395.0626968091
 20
801.5678392659
 11
394.3113942216
 21
801.5678392659
  0
LINE
  5
2ED
100
AcDbEntity
  8
6_ALL_SURFS
100
AcDbLine
 62
7
  6
CONTINUOUS
 10
373.849539467
 20
801.5678392659
 11
373.0982368795
 21
801.5678392659
  0
LINE
  5
2EE
100
AcDbEntity
  8
6_ALL_SURFS
100
AcDbLine
 62
7
  6
CONTINUOUS
 10
373.0982368795
 20
802.8178392659
 11
373.849539467
 21
802.8178392659
  0
LINE
  5
2EF
100
AcDbEntity
  8
6_ALL_SURFS
100
AcDbLine
 62
7
  6
CONTINUOUS
 10
394.3113942216
 20
802.8178392659
 11
395.0626968091
 21
802.8178392659
  0
LINE
  5
2F0
100
AcDbEntity
  8
7_ALL_FEATURES
100
AcDbLine
 62
7
  6
CONTINUOUS
 10
414.9304668443
 20
756.8178392659
 11
414.9304668443
 21
757.5678392659
  0
LINE
  5
2F1
100
AcDbEntity
  8
7_ALL_FEATURES
100
AcDbLine
 62
7
  6
CONTINUOUS
 10
415.8054668443
 20
758.4428392659
 11
415.8054668443
 21
757.5678392659
  0
LINE
  5
2F2
100
AcDbEntity
  8
7_ALL_FEATURES
100
AcDbLine
 62
7
  6
CONTINUOUS
 10
415.8054668443
 20
756.8178392659
 11
415.8054668443
 21
755.9428392659
  0
LINE
  5
2F3
100
AcDbEntity
  8
6_ALL_SURFS
100
AcDbLine
 62
7
  6
CONTINUOUS
 10
416.2304668443
 20
763.0928392659
 11
416.2304668443
 21
795.4175682745
  0
LINE
  5
2F4
100
AcDbEntity
  8
7_ALL_FEATURES
100
AcDbLine
 62
7
  6
CONTINUOUS
 10
416.2304668443
 20
795.4175682745
 11
416.2304668443
 21
795.570112806
  0
LINE
  5
2F5
100
AcDbEntity
  8
7_ALL_FEATURES
100
AcDbLine
 62
7
  6
CONTINUOUS
 10
416.5554668443
 20
755.9428392659
 11
416.5554668443
 21
756.8178392659
  0
LINE
  5
2F6
100
AcDbEntity
  8
7_ALL_FEATURES
100
AcDbLine
 62
7
  6
CONTINUOUS
 10
416.5554668443
 20
757.5678392659
 11
416.5554668443
 21
758.4428392659
  0
LINE
  5
2F7
100
AcDbEntity
  8
7_ALL_FEATURES
100
AcDbLine
 62
7
  6
CONTINUOUS
 10
417.4304668443
 20
757.5678392659
 11
417.4304668443
 21
756.8178392659
  0
LINE
  5
2F8
100
AcDbEntity
  8
7_ALL_FEATURES
100
AcDbLine
 62
7
  6
CONTINUOUS
 10
419.1304668443
 20
760.8428392659
 11
419.1304668443
 21
730.9428392659
  0
LINE
  5
2F9
100
AcDbEntity
  8
7_ALL_FEATURES
100
AcDbLine
 62
7
  6
CONTINUOUS
 10
416.1117166054
 20
796.6533490543
 11
415.3591058336
 21
800.0447432731
  0
LINE
  5
2FA
100
AcDbEntity
  8
7_ALL_FEATURES
100
AcDbLine
 62
7
  6
CONTINUOUS
 10
411.3683876005
 20
820.58587441
 11
416.2093929733
 21
795.6681226698
  0
LINE
  5
2FB
100
AcDbEntity
  8
7_ALL_FEATURES
100
AcDbLine
 62
7
  6
CONTINUOUS
 10
407.4054668443
 20
816.6928392659
 11
406.6554668443
 21
816.6928392659
  0
LINE
  5
2FC
100
AcDbEntity
  8
7_ALL_FEATURES
100
AcDbLine
 62
7
  6
CONTINUOUS
 10
361.5054668443
 20
816.6928392659
 11
360.7554668443
 21
816.6928392659
  0
LINE
  5
2FD
100
AcDbEntity
  8
7_ALL_FEATURES
100
AcDbLine
 62
7
  6
CONTINUOUS
 10
361.5054668443
 20
817.5678392659
 11
362.3804668443
 21
817.5678392659
  0
LINE
  5
2FE
100
AcDbEntity
  8
7_ALL_FEATURES
100
AcDbLine
 62
7
  6
CONTINUOUS
 10
359.8804668443
 20
817.5678392659
 11
360.7554668443
 21
817.5678392659
  0
LINE
  5
2FF
100
AcDbEntity
  8
7_ALL_FEATURES
100
AcDbLine
 62
7
  6
CONTINUOUS
 10
405.7804668443
 20
817.5678392659
 11
406.6554668443
 21
817.5678392659
  0
LINE
  5
300
100
AcDbEntity
  8
7_ALL_FEATURES
100
AcDbLine
 62
7
  6
CONTINUOUS
 10
407.4054668443
 20
817.5678392659
 11
408.2804668443
 21
817.5678392659
  0
LINE
  5
301
100
AcDbEntity
  8
7_ALL_FEATURES
100
AcDbLine
 62
7
  6
CONTINUOUS
 10
408.2804668443
 20
818.3178392659
 11
407.4054668443
 21
818.3178392659
  0
LINE
  5
302
100
AcDbEntity
  8
7_ALL_FEATURES
100
AcDbLine
 62
7
  6
CONTINUOUS
 10
406.6554668443
 20
818.3178392659
 11
405.7804668443
 21
818.3178392659
  0
LINE
  5
303
100
AcDbEntity
  8
7_ALL_FEATURES
100
AcDbLine
 62
7
  6
CONTINUOUS
 10
362.3804668443
 20
818.3178392659
 11
361.5054668443
 21
818.3178392659
  0
LINE
  5
304
100
AcDbEntity
  8
7_ALL_FEATURES
100
AcDbLine
 62
7
  6
CONTINUOUS
 10
360.7554668443
 20
818.3178392659
 11
359.8804668443
 21
818.3178392659
  0
LINE
  5
305
100
AcDbEntity
  8
7_ALL_FEATURES
100
AcDbLine
 62
7
  6
CONTINUOUS
 10
360.7554668443
 20
819.1928392659
 11
361.5054668443
 21
819.1928392659
  0
LINE
  5
306
100
AcDbEntity
  8
7_ALL_FEATURES
100
AcDbLine
 62
7
  6
CONTINUOUS
 10
406.6554668443
 20
819.1928392659
 11
407.4054668443
 21
819.1928392659
  0
LINE
  5
307
100
AcDbEntity
  8
7_ALL_FEATURES
100
AcDbLine
 62
7
  6
CONTINUOUS
 10
410.6321532984
 20
821.1928392659
 11
386.7262181553
 21
821.1928392659
  0
LINE
  5
308
100
AcDbEntity
  8
7_ALL_FEATURES
100
AcDbLine
 62
7
  6
CONTINUOUS
 10
381.4347155332
 20
821.1928392659
 11
357.6166564728
 21
821.1928392659
  0
LINE
  5
309
100
AcDbEntity
  8
7_ALL_FEATURES
100
AcDbLine
 62
7
  6
CONTINUOUS
 10
381.9804668443
 20
821.1928392659
 11
386.1804668443
 21
821.1928392659
  0
LINE
  5
30A
100
AcDbEntity
  8
6_ALL_SURFS
100
AcDbLine
 62
7
  6
CONTINUOUS
 10
421.5304668443
 20
732.8428392659
 11
421.2304668443
 21
732.6928392659
  0
LINE
  5
30B
100
AcDbEntity
  8
6_ALL_SURFS
100
AcDbLine
 62
7
  6
CONTINUOUS
 10
424.5304668443
 20
732.8428392659
 11
424.2304668443
 21
732.6928392659
  0
LINE
  5
30C
100
AcDbEntity
  8
6_ALL_SURFS
100
AcDbLine
 62
7
  6
CONTINUOUS
 10
427.5304668443
 20
732.8428392659
 11
427.2304668443
 21
732.6928392659
  0
LINE
  5
30D
100
AcDbEntity
  8
6_ALL_SURFS
100
AcDbLine
 62
7
  6
CONTINUOUS
 10
430.5304668443
 20
732.8428392659
 11
430.2304668443
 21
732.6928392659
  0
LINE
  5
30E
100
AcDbEntity
  8
6_ALL_SURFS
100
AcDbLine
 62
7
  6
CONTINUOUS
 10
433.5304668443
 20
732.8428392659
 11
433.2304668443
 21
732.6928392659
  0
LINE
  5
30F
100
AcDbEntity
  8
6_ALL_SURFS
100
AcDbLine
 62
7
  6
CONTINUOUS
 10
436.5304668443
 20
732.8428392659
 11
436.2304668443
 21
732.6928392659
  0
LINE
  5
310
100
AcDbEntity
  8
3_ALL_AXES
100
AcDbLine
 62
7
  6
CONTINUOUS
 10
664.5813994716
 20
754.442887332
 11
664.5813994716
 21
759.9427911997
  0
LINE
  5
311
100
AcDbEntity
  8
3_ALL_AXES
100
AcDbLine
 62
7
  6
CONTINUOUS
 10
664.5813994716
 20
815.242887332
 11
664.5813994716
 21
820.7427911997
  0
LINE
  5
312
100
AcDbEntity
  8
3_ALL_AXES
100
AcDbLine
 62
7
  6
CONTINUOUS
 10
664.7321198013
 20
754.4428392659
 11
664.7321198013
 21
759.9428392659
  0
LINE
  5
313
100
AcDbEntity
  8
3_ALL_AXES
100
AcDbLine
 62
7
  6
CONTINUOUS
 10
664.7321198013
 20
815.2428392659
 11
664.7321198013
 21
820.7428392659
  0
LINE
  5
314
100
AcDbEntity
  8
7_ALL_FEATURES
100
AcDbLine
 62
7
  6
CONTINUOUS
 10
665.6813994716
 20
730.1928392659
 11
665.6813994716
 21
760.8428392659
  0
LINE
  5
315
100
AcDbEntity
  8
6_ALL_SURFS
100
AcDbLine
 62
7
  6
CONTINUOUS
 10
665.6813994716
 20
760.8428392659
 11
665.6813994716
 21
795.4175682745
  0
LINE
  5
316
100
AcDbEntity
  8
7_ALL_FEATURES
100
AcDbLine
 62
7
  6
CONTINUOUS
 10
665.6813994716
 20
795.4175682745
 11
665.6813994716
 21
821.1928392659
  0
LINE
  5
317
100
AcDbEntity
  8
7_ALL_FEATURES
100
AcDbLine
 62
7
  6
CONTINUOUS
 10
667.1813994716
 20
795.5014505246
 11
667.1813994716
 21
795.4175682745
  0
LINE
  5
318
100
AcDbEntity
  8
7_ALL_FEATURES
100
AcDbLine
 62
7
  6
CONTINUOUS
 10
667.1813994716
 20
760.8428392659
 11
667.1813994716
 21
745.5612253144
  0
LINE
  5
319
100
AcDbEntity
  8
7_ALL_FEATURES
100
AcDbLine
 62
7
  6
CONTINUOUS
 10
667.1813994716
 20
742.8283050776
 11
667.1813994716
 21
732.8428392659
  0
LINE
  5
31A
100
AcDbEntity
  8
6_ALL_SURFS
100
AcDbLine
 62
7
  6
CONTINUOUS
 10
667.1813994716
 20
730.239211671
 11
667.1813994716
 21
730.1928392659
  0
LINE
  5
31B
100
AcDbEntity
  8
7_ALL_FEATURES
100
AcDbLine
 62
7
  6
CONTINUOUS
 10
667.1813994716
 20
730.239211671
 11
667.1813994716
 21
731.6928392659
  0
LINE
  5
31C
100
AcDbEntity
  8
6_ALL_SURFS
100
AcDbLine
 62
7
  6
CONTINUOUS
 10
667.1813994716
 20
731.6928392659
 11
667.1813994716
 21
732.8428392659
  0
LINE
  5
31D
100
AcDbEntity
  8
6_ALL_SURFS
100
AcDbLine
 62
7
  6
CONTINUOUS
 10
667.1813994716
 20
742.7047987534
 11
667.1813994716
 21
745.6847316386
  0
LINE
  5
31E
100
AcDbEntity
  8
6_ALL_SURFS
100
AcDbLine
 62
7
  6
CONTINUOUS
 10
667.1813994716
 20
755.7928392659
 11
667.1813994716
 21
758.5928392659
  0
LINE
  5
31F
100
AcDbEntity
  8
6_ALL_SURFS
100
AcDbLine
 62
7
  6
CONTINUOUS
 10
667.1813994716
 20
760.8428392659
 11
667.1813994716
 21
800.0447432731
  0
LINE
  5
320
100
AcDbEntity
  8
7_ALL_FEATURES
100
AcDbLine
 62
7
  6
CONTINUOUS
 10
667.1813994716
 20
800.0447432731
 11
667.1813994716
 21
821.1928392659
  0
LINE
  5
321
100
AcDbEntity
  8
3_ALL_AXES
100
AcDbLine
 62
7
  6
CONTINUOUS
 10
665.6813994716
 20
816.0393794871
 11
664.7321198013
 21
815.2428392659
  0
LINE
  5
322
100
AcDbEntity
  8
3_ALL_AXES
100
AcDbLine
 62
7
  6
CONTINUOUS
 10
665.6813994716
 20
755.2393794871
 11
664.7321198013
 21
754.4428392659
  0
LINE
  5
323
100
AcDbEntity
  8
3_ALL_AXES
100
AcDbLine
 62
7
  6
CONTINUOUS
 10
665.6813994716
 20
759.1462990446
 11
664.7321198013
 21
759.9428392659
  0
LINE
  5
324
100
AcDbEntity
  8
3_ALL_AXES
100
AcDbLine
 62
7
  6
CONTINUOUS
 10
665.6813994716
 20
819.9462990446
 11
664.7321198013
 21
820.7428392659
  0
LINE
  5
325
100
AcDbEntity
  8
7_ALL_FEATURES
100
AcDbLine
 62
7
  6
CONTINUOUS
 10
667.1813994716
 20
730.1928392659
 11
665.6813994716
 21
730.1928392659
  0
LINE
  5
326
100
AcDbEntity
  8
6_ALL_SURFS
100
AcDbLine
 62
7
  6
CONTINUOUS
 10
2914.1813994716
 20
730.1928392659
 11
667.1813994716
 21
730.1928392659
  0
LINE
  5
327
100
AcDbEntity
  8
7_ALL_FEATURES
100
AcDbLine
 62
7
  6
CONTINUOUS
 10
2914.1813994716
 20
730.1928392659
 11
2915.6813994716
 21
730.1928392659
  0
LINE
  5
328
100
AcDbEntity
  8
6_ALL_SURFS
100
AcDbLine
 62
9
  6
CONTINUOUS
 10
2914.1813994716
 20
730.4928392659
 11
667.1813994716
 21
730.4928392659
  0
LINE
  5
329
100
AcDbEntity
  8
7_ALL_FEATURES
100
AcDbLine
 62
9
  6
CONTINUOUS
 10
667.1813994716
 20
730.9428392659
 11
665.6813994716
 21
730.9428392659
  0
LINE
  5
32A
100
AcDbEntity
  8
7_ALL_FEATURES
100
AcDbLine
 62
9
  6
CONTINUOUS
 10
2914.1813994716
 20
730.9428392659
 11
2915.6813994716
 21
730.9428392659
  0
LINE
  5
32B
100
AcDbEntity
  8
6_ALL_SURFS
100
AcDbLine
 62
9
  6
CONTINUOUS
 10
667.1813994716
 20
731.3928392659
 11
2914.1813994716
 21
731.3928392659
  0
LINE
  5
32C
100
AcDbEntity
  8
6_ALL_SURFS
100
AcDbLine
 62
7
  6
CONTINUOUS
 10
667.1813994716
 20
731.6928392659
 11
787.3979916779
 21
731.6928392659
  0
LINE
  5
32D
100
AcDbEntity
  8
6_ALL_SURFS
100
AcDbLine
 62
7
  6
CONTINUOUS
 10
787.55004945
 20
731.6928392659
 11
793.8127494933
 21
731.6928392659
  0
LINE
  5
32E
100
AcDbEntity
  8
6_ALL_SURFS
100
AcDbLine
 62
7
  6
CONTINUOUS
 10
793.9648072653
 20
731.6928392659
 11
1037.3979916779
 21
731.6928392659
  0
LINE
  5
32F
100
AcDbEntity
  8
6_ALL_SURFS
100
AcDbLine
 62
7
  6
CONTINUOUS
 10
1037.55004945
 20
731.6928392659
 11
1043.8127494933
 21
731.6928392659
  0
LINE
  5
330
100
AcDbEntity
  8
6_ALL_SURFS
100
AcDbLine
 62
7
  6
CONTINUOUS
 10
1043.9648072653
 20
731.6928392659
 11
1287.3979916779
 21
731.6928392659
  0
LINE
  5
331
100
AcDbEntity
  8
6_ALL_SURFS
100
AcDbLine
 62
7
  6
CONTINUOUS
 10
1287.55004945
 20
731.6928392659
 11
1293.8127494933
 21
731.6928392659
  0
LINE
  5
332
100
AcDbEntity
  8
6_ALL_SURFS
100
AcDbLine
 62
7
  6
CONTINUOUS
 10
1293.9648072653
 20
731.6928392659
 11
1537.3979916779
 21
731.6928392659
  0
LINE
  5
333
100
AcDbEntity
  8
6_ALL_SURFS
100
AcDbLine
 62
7
  6
CONTINUOUS
 10
1537.55004945
 20
731.6928392659
 11
1543.8127494933
 21
731.6928392659
  0
LINE
  5
334
100
AcDbEntity
  8
6_ALL_SURFS
100
AcDbLine
 62
7
  6
CONTINUOUS
 10
1543.9648072653
 20
731.6928392659
 11
1787.3979916779
 21
731.6928392659
  0
LINE
  5
335
100
AcDbEntity
  8
6_ALL_SURFS
100
AcDbLine
 62
7
  6
CONTINUOUS
 10
1787.55004945
 20
731.6928392659
 11
1793.8127494933
 21
731.6928392659
  0
LINE
  5
336
100
AcDbEntity
  8
6_ALL_SURFS
100
AcDbLine
 62
7
  6
CONTINUOUS
 10
1793.9648072653
 20
731.6928392659
 11
2037.3979916779
 21
731.6928392659
  0
LINE
  5
337
100
AcDbEntity
  8
6_ALL_SURFS
100
AcDbLine
 62
7
  6
CONTINUOUS
 10
2037.55004945
 20
731.6928392659
 11
2043.8127494933
 21
731.6928392659
  0
LINE
  5
338
100
AcDbEntity
  8
6_ALL_SURFS
100
AcDbLine
 62
7
  6
CONTINUOUS
 10
2043.9648072653
 20
731.6928392659
 11
2287.3979916779
 21
731.6928392659
  0
LINE
  5
339
100
AcDbEntity
  8
6_ALL_SURFS
100
AcDbLine
 62
7
  6
CONTINUOUS
 10
2287.55004945
 20
731.6928392659
 11
2293.8127494933
 21
731.6928392659
  0
LINE
  5
33A
100
AcDbEntity
  8
6_ALL_SURFS
100
AcDbLine
 62
7
  6
CONTINUOUS
 10
2293.9648072653
 20
731.6928392659
 11
2537.3979916779
 21
731.6928392659
  0
LINE
  5
33B
100
AcDbEntity
  8
6_ALL_SURFS
100
AcDbLine
 62
7
  6
CONTINUOUS
 10
2537.55004945
 20
731.6928392659
 11
2543.8127494933
 21
731.6928392659
  0
LINE
  5
33C
100
AcDbEntity
  8
6_ALL_SURFS
100
AcDbLine
 62
7
  6
CONTINUOUS
 10
2543.9648072653
 20
731.6928392659
 11
2787.3979916779
 21
731.6928392659
  0
LINE
  5
33D
100
AcDbEntity
  8
6_ALL_SURFS
100
AcDbLine
 62
7
  6
CONTINUOUS
 10
2787.55004945
 20
731.6928392659
 11
2793.8127494933
 21
731.6928392659
  0
LINE
  5
33E
100
AcDbEntity
  8
6_ALL_SURFS
100
AcDbLine
 62
7
  6
CONTINUOUS
 10
2793.9648072653
 20
731.6928392659
 11
2914.1813994716
 21
731.6928392659
  0
LINE
  5
33F
100
AcDbEntity
  8
6_ALL_SURFS
100
AcDbLine
 62
9
  6
CONTINUOUS
 10
667.1813994716
 20
731.9073864249
 11
2914.1813994716
 21
731.9073864249
  0
LINE
  5
340
100
AcDbEntity
  8
6_ALL_SURFS
100
AcDbLine
 62
7
  6
CONTINUOUS
 10
667.1813994716
 20
732.6928392659
 11
2914.1813994716
 21
732.6928392659
  0
LINE
  5
341
100
AcDbEntity
  8
6_ALL_SURFS
100
AcDbLine
 62
7
  6
CONTINUOUS
 10
667.1813994716
 20
732.8428392659
 11
2914.1813994716
 21
732.8428392659
  0
LINE
  5
342
100
AcDbEntity
  8
6_ALL_SURFS
100
AcDbLine
 62
9
  6
CONTINUOUS
 10
667.1813994716
 20
732.9928392659
 11
2914.1813994716
 21
732.9928392659
  0
LINE
  5
343
100
AcDbEntity
  8
6_ALL_SURFS
100
AcDbLine
 62
7
  6
CONTINUOUS
 10
667.1813994716
 20
742.7047987534
 11
2914.1813994716
 21
742.7047987534
  0
LINE
  5
344
100
AcDbEntity
  8
6_ALL_SURFS
100
AcDbLine
 62
7
  6
CONTINUOUS
 10
667.1813994716
 20
745.6847316386
 11
2914.1813994716
 21
745.6847316386
  0
LINE
  5
345
100
AcDbEntity
  8
6_ALL_SURFS
100
AcDbLine
 62
9
  6
CONTINUOUS
 10
2914.1813994716
 20
749.1928392659
 11
667.1813994716
 21
749.1928392659
  0
LINE
  5
346
100
AcDbEntity
  8
6_ALL_SURFS
100
AcDbLine
 62
9
  6
CONTINUOUS
 10
2914.1813994716
 20
750.2158368059
 11
667.1813994716
 21
750.2158368059
  0
LINE
  5
347
100
AcDbEntity
  8
6_ALL_SURFS
100
AcDbLine
 62
9
  6
CONTINUOUS
 10
667.1813994716
 20
752.378200389
 11
2914.1813994716
 21
752.378200389
  0
LINE
  5
348
100
AcDbEntity
  8
6_ALL_SURFS
100
AcDbLine
 62
9
  6
CONTINUOUS
 10
667.1813994716
 20
752.582799897
 11
2914.1813994716
 21
752.582799897
  0
LINE
  5
349
100
AcDbEntity
  8
6_ALL_SURFS
100
AcDbLine
 62
9
  6
CONTINUOUS
 10
667.1813994716
 20
753.9928392659
 11
2914.1813994716
 21
753.9928392659
  0
LINE
  5
34A
100
AcDbEntity
  8
6_ALL_SURFS
100
AcDbLine
 62
7
  6
CONTINUOUS
 10
2914.1813994716
 20
754.2928392659
 11
667.1813994716
 21
754.2928392659
  0
LINE
  5
34B
100
AcDbEntity
  8
3_ALL_AXES
100
AcDbLine
 62
7
  6
CONTINUOUS
 10
664.7321198013
 20
754.4428392659
 11
664.5813994716
 21
754.4428392659
  0
LINE
  5
34C
100
AcDbEntity
  8
3_ALL_AXES
100
AcDbLine
 62
7
  6
CONTINUOUS
 10
2916.630679142
 20
754.4428392659
 11
2916.7813994716
 21
754.4428392659
  0
LINE
  5
34D
100
AcDbEntity
  8
6_ALL_SURFS
100
AcDbLine
 62
9
  6
CONTINUOUS
 10
2914.1813994716
 20
755.7928392659
 11
667.1813994716
 21
755.7928392659
  0
LINE
  5
34E
100
AcDbEntity
  8
6_ALL_SURFS
100
AcDbLine
 62
9
  6
CONTINUOUS
 10
2914.1813994716
 20
758.5928392659
 11
667.1813994716
 21
758.5928392659
  0
LINE
  5
34F
100
AcDbEntity
  8
3_ALL_AXES
100
AcDbLine
 62
7
  6
CONTINUOUS
 10
664.7321198013
 20
759.9428392659
 11
664.5813994716
 21
759.9428392659
  0
LINE
  5
350
100
AcDbEntity
  8
3_ALL_AXES
100
AcDbLine
 62
7
  6
CONTINUOUS
 10
2916.630679142
 20
759.9428392659
 11
2916.7813994716
 21
759.9428392659
  0
LINE
  5
351
100
AcDbEntity
  8
6_ALL_SURFS
100
AcDbLine
 62
7
  6
CONTINUOUS
 10
2914.1813994716
 20
760.0928392659
 11
667.1813994716
 21
760.0928392659
  0
LINE
  5
352
100
AcDbEntity
  8
6_ALL_SURFS
100
AcDbLine
 62
9
  6
CONTINUOUS
 10
667.1813994716
 20
760.3928392659
 11
2914.1813994716
 21
760.3928392659
  0
LINE
  5
353
100
AcDbEntity
  8
6_ALL_SURFS
100
AcDbLine
 62
9
  6
CONTINUOUS
 10
2915.6813994716
 20
760.8428392659
 11
2914.1813994716
 21
760.8428392659
  0
LINE
  5
354
100
AcDbEntity
  8
6_ALL_SURFS
100
AcDbLine
 62
9
  6
CONTINUOUS
 10
665.6813994716
 20
760.8428392659
 11
667.1813994716
 21
760.8428392659
  0
LINE
  5
355
100
AcDbEntity
  8
6_ALL_SURFS
100
AcDbLine
 62
7
  6
CONTINUOUS
 10
2915.6813994716
 20
761.5928392659
 11
2914.1813994716
 21
761.5928392659
  0
LINE
  5
356
100
AcDbEntity
  8
6_ALL_SURFS
100
AcDbLine
 62
7
  6
CONTINUOUS
 10
665.6813994716
 20
761.5928392659
 11
667.1813994716
 21
761.5928392659
  0
LINE
  5
357
100
AcDbEntity
  8
6_ALL_SURFS
100
AcDbLine
 62
9
  6
CONTINUOUS
 10
667.1813994716
 20
763.0928392659
 11
665.6813994716
 21
763.0928392659
  0
LINE
  5
358
100
AcDbEntity
  8
6_ALL_SURFS
100
AcDbLine
 62
9
  6
CONTINUOUS
 10
2914.1813994716
 20
763.0928392659
 11
2915.6813994716
 21
763.0928392659
  0
LINE
  5
359
100
AcDbEntity
  8
6_ALL_SURFS
100
AcDbLine
 62
9
  6
CONTINUOUS
 10
2915.6813994716
 20
795.4127308866
 11
2914.1813994716
 21
795.4127308866
  0
LINE
  5
35A
100
AcDbEntity
  8
6_ALL_SURFS
100
AcDbLine
 62
9
  6
CONTINUOUS
 10
665.6813994716
 20
795.4175682745
 11
667.1813994716
 21
795.4175682745
  0
LINE
  5
35B
100
AcDbEntity
  8
6_ALL_SURFS
100
AcDbLine
 62
9
  6
CONTINUOUS
 10
2914.1813994716
 20
795.570112806
 11
667.1813994716
 21
795.570112806
  0
LINE
  5
35C
100
AcDbEntity
  8
7_ALL_FEATURES
100
AcDbLine
 62
7
  6
CONTINUOUS
 10
665.6813994716
 20
795.6681226698
 11
667.1813994716
 21
795.6681226698
  0
LINE
  5
35D
100
AcDbEntity
  8
6_ALL_SURFS
100
AcDbLine
 62
9
  6
CONTINUOUS
 10
2915.6813994716
 20
795.7037783032
 11
2914.1813994716
 21
795.7037783032
  0
LINE
  5
35E
100
AcDbEntity
  8
6_ALL_SURFS
100
AcDbLine
 62
9
  6
CONTINUOUS
 10
2914.1813994716
 20
796.6533490543
 11
667.1813994716
 21
796.6533490543
  0
LINE
  5
35F
100
AcDbEntity
  8
6_ALL_SURFS
100
AcDbLine
 62
9
  6
CONTINUOUS
 10
2914.1813994716
 20
814.6178101404
 11
667.1813994716
 21
814.6178101404
  0
LINE
  5
360
100
AcDbEntity
  8
3_ALL_AXES
100
AcDbLine
 62
7
  6
CONTINUOUS
 10
2916.630679142
 20
815.1928392659
 11
2916.7813994716
 21
815.1928392659
  0
LINE
  5
361
100
AcDbEntity
  8
3_ALL_AXES
100
AcDbLine
 62
7
  6
CONTINUOUS
 10
664.7321198013
 20
815.2428392659
 11
664.5813994716
 21
815.2428392659
  0
LINE
  5
362
100
AcDbEntity
  8
6_ALL_SURFS
100
AcDbLine
 62
7
  6
CONTINUOUS
 10
2914.1813994716
 20
815.7928392659
 11
667.1813994716
 21
815.7928392659
  0
LINE
  5
363
100
AcDbEntity
  8
6_ALL_SURFS
100
AcDbLine
 62
9
  6
CONTINUOUS
 10
667.1813994716
 20
816.5428392659
 11
2914.1813994716
 21
816.5428392659
  0
LINE
  5
364
100
AcDbEntity
  8
6_ALL_SURFS
100
AcDbLine
 62
9
  6
CONTINUOUS
 10
667.1813994716
 20
819.1731422962
 11
2914.1813994716
 21
819.1731422962
  0
LINE
  5
365
100
AcDbEntity
  8
6_ALL_SURFS
100
AcDbLine
 62
7
  6
CONTINUOUS
 10
2914.1813994716
 20
819.8928392659
 11
667.1813994716
 21
819.8928392659
  0
LINE
  5
366
100
AcDbEntity
  8
6_ALL_SURFS
100
AcDbLine
 62
9
  6
CONTINUOUS
 10
2914.1813994716
 20
820.1928392659
 11
667.1813994716
 21
820.1928392659
  0
LINE
  5
367
100
AcDbEntity
  8
7_ALL_FEATURES
100
AcDbLine
 62
9
  6
CONTINUOUS
 10
665.6813994716
 20
820.58587441
 11
667.1813994716
 21
820.58587441
  0
LINE
  5
368
100
AcDbEntity
  8
7_ALL_FEATURES
100
AcDbLine
 62
9
  6
CONTINUOUS
 10
2915.6813994716
 20
820.5883629742
 11
2914.1813994716
 21
820.5883629742
  0
LINE
  5
369
100
AcDbEntity
  8
3_ALL_AXES
100
AcDbLine
 62
7
  6
CONTINUOUS
 10
2916.630679142
 20
820.6928392659
 11
2916.7813994716
 21
820.6928392659
  0
LINE
  5
36A
100
AcDbEntity
  8
3_ALL_AXES
100
AcDbLine
 62
7
  6
CONTINUOUS
 10
664.7321198013
 20
820.7428392659
 11
664.5813994716
 21
820.7428392659
  0
LINE
  5
36B
100
AcDbEntity
  8
6_ALL_SURFS
100
AcDbLine
 62
9
  6
CONTINUOUS
 10
2914.1813994716
 20
820.8928392659
 11
667.1813994716
 21
820.8928392659
  0
LINE
  5
36C
100
AcDbEntity
  8
7_ALL_FEATURES
100
AcDbLine
 62
7
  6
CONTINUOUS
 10
2915.6813994716
 20
821.1928392659
 11
2914.1813994716
 21
821.1928392659
  0
LINE
  5
36D
100
AcDbEntity
  8
6_ALL_SURFS
100
AcDbLine
 62
7
  6
CONTINUOUS
 10
2914.1813994716
 20
821.1928392659
 11
667.1813994716
 21
821.1928392659
  0
LINE
  5
36E
100
AcDbEntity
  8
7_ALL_FEATURES
100
AcDbLine
 62
7
  6
CONTINUOUS
 10
665.6813994716
 20
821.1928392659
 11
667.1813994716
 21
821.1928392659
  0
LINE
  5
36F
100
AcDbEntity
  8
3_ALL_AXES
100
AcDbLine
 62
7
  6
CONTINUOUS
 10
2915.6813994716
 20
819.8962990446
 11
2916.630679142
 21
820.6928392659
  0
LINE
  5
370
100
AcDbEntity
  8
3_ALL_AXES
100
AcDbLine
 62
7
  6
CONTINUOUS
 10
2915.6813994716
 20
759.1462990446
 11
2916.630679142
 21
759.9428392659
  0
LINE
  5
371
100
AcDbEntity
  8
3_ALL_AXES
100
AcDbLine
 62
7
  6
CONTINUOUS
 10
2915.6813994716
 20
755.2393794871
 11
2916.630679142
 21
754.4428392659
  0
LINE
  5
372
100
AcDbEntity
  8
3_ALL_AXES
100
AcDbLine
 62
7
  6
CONTINUOUS
 10
2915.6813994716
 20
815.9893794871
 11
2916.630679142
 21
815.1928392659
  0
LINE
  5
373
100
AcDbEntity
  8
7_ALL_FEATURES
100
AcDbLine
 62
7
  6
CONTINUOUS
 10
2914.1813994716
 20
730.239211671
 11
2914.1813994716
 21
731.6928392659
  0
LINE
  5
374
100
AcDbEntity
  8
6_ALL_SURFS
100
AcDbLine
 62
7
  6
CONTINUOUS
 10
2914.1813994716
 20
730.1928392659
 11
2914.1813994716
 21
730.239211671
  0
LINE
  5
375
100
AcDbEntity
  8
6_ALL_SURFS
100
AcDbLine
 62
7
  6
CONTINUOUS
 10
2914.1813994716
 20
731.6928392659
 11
2914.1813994716
 21
732.8428392659
  0
LINE
  5
376
100
AcDbEntity
  8
7_ALL_FEATURES
100
AcDbLine
 62
7
  6
CONTINUOUS
 10
2914.1813994716
 20
732.8428392659
 11
2914.1813994716
 21
742.8283050776
  0
LINE
  5
377
100
AcDbEntity
  8
6_ALL_SURFS
100
AcDbLine
 62
7
  6
CONTINUOUS
 10
2914.1813994716
 20
742.7047987534
 11
2914.1813994716
 21
745.6847316386
  0
LINE
  5
378
100
AcDbEntity
  8
6_ALL_SURFS
100
AcDbLine
 62
7
  6
CONTINUOUS
 10
2914.1813994716
 20
755.7928392659
 11
2914.1813994716
 21
758.5928392659
  0
LINE
  5
379
100
AcDbEntity
  8
7_ALL_FEATURES
100
AcDbLine
 62
7
  6
CONTINUOUS
 10
2914.1813994716
 20
745.5612253144
 11
2914.1813994716
 21
760.8428392659
  0
LINE
  5
37A
100
AcDbEntity
  8
6_ALL_SURFS
100
AcDbLine
 62
7
  6
CONTINUOUS
 10
2914.1813994716
 20
760.8428392659
 11
2914.1813994716
 21
800.6974491086
  0
LINE
  5
37B
100
AcDbEntity
  8
7_ALL_FEATURES
100
AcDbLine
 62
7
  6
CONTINUOUS
 10
2914.1813994716
 20
800.6974491086
 11
2914.1813994716
 21
821.1928392659
  0
LINE
  5
37C
100
AcDbEntity
  8
7_ALL_FEATURES
100
AcDbLine
 62
7
  6
CONTINUOUS
 10
2915.6813994716
 20
821.1928392659
 11
2915.6813994716
 21
795.7037783032
  0
LINE
  5
37D
100
AcDbEntity
  8
6_ALL_SURFS
100
AcDbLine
 62
7
  6
CONTINUOUS
 10
2915.6813994716
 20
795.7037783032
 11
2915.6813994716
 21
760.8428392659
  0
LINE
  5
37E
100
AcDbEntity
  8
7_ALL_FEATURES
100
AcDbLine
 62
7
  6
CONTINUOUS
 10
2915.6813994716
 20
730.1928392659
 11
2915.6813994716
 21
760.8428392659
  0
LINE
  5
37F
100
AcDbEntity
  8
3_ALL_AXES
100
AcDbLine
 62
7
  6
CONTINUOUS
 10
2916.630679142
 20
754.4428392659
 11
2916.630679142
 21
759.9428392659
  0
LINE
  5
380
100
AcDbEntity
  8
3_ALL_AXES
100
AcDbLine
 62
7
  6
CONTINUOUS
 10
2916.630679142
 20
815.1928392659
 11
2916.630679142
 21
820.6928392659
  0
LINE
  5
381
100
AcDbEntity
  8
3_ALL_AXES
100
AcDbLine
 62
7
  6
CONTINUOUS
 10
2916.7813994716
 20
754.442887332
 11
2916.7813994716
 21
759.9427911997
  0
LINE
  5
382
100
AcDbEntity
  8
3_ALL_AXES
100
AcDbLine
 62
7
  6
CONTINUOUS
 10
2916.7813994716
 20
815.192887332
 11
2916.7813994716
 21
820.6927911997
  0
LINE
  5
383
100
AcDbEntity
  8
3_ALL_AXES
100
AcDbLine
 62
7
  6
CONTINUOUS
 10
664.5813994716
 20
1450.1867641302
 11
664.5813994716
 21
1444.6867641302
  0
LINE
  5
384
100
AcDbEntity
  8
3_ALL_AXES
100
AcDbLine
 62
7
  6
CONTINUOUS
 10
664.5813994716
 20
1440.5367641302
 11
664.5813994716
 21
1435.0367641302
  0
LINE
  5
385
100
AcDbEntity
  8
3_ALL_AXES
100
AcDbLine
 62
7
  6
CONTINUOUS
 10
664.5813994716
 20
1395.6367641302
 11
664.5813994716
 21
1390.1367641302
  0
LINE
  5
386
100
AcDbEntity
  8
3_ALL_AXES
100
AcDbLine
 62
7
  6
CONTINUOUS
 10
664.5813994716
 20
1385.9867641302
 11
664.5813994716
 21
1380.4867641302
  0
LINE
  5
387
100
AcDbEntity
  8
3_ALL_AXES
100
AcDbLine
 62
7
  6
CONTINUOUS
 10
664.7321198013
 20
1450.1867641302
 11
664.7321198013
 21
1444.6867641302
  0
LINE
  5
388
100
AcDbEntity
  8
3_ALL_AXES
100
AcDbLine
 62
7
  6
CONTINUOUS
 10
664.7321198013
 20
1440.5367641302
 11
664.7321198013
 21
1435.0367641302
  0
LINE
  5
389
100
AcDbEntity
  8
3_ALL_AXES
100
AcDbLine
 62
7
  6
CONTINUOUS
 10
664.7321198013
 20
1395.6367641302
 11
664.7321198013
 21
1390.1367641302
  0
LINE
  5
38A
100
AcDbEntity
  8
3_ALL_AXES
100
AcDbLine
 62
7
  6
CONTINUOUS
 10
664.7321198013
 20
1385.9867641302
 11
664.7321198013
 21
1380.4867641302
  0
LINE
  5
38B
100
AcDbEntity
  8
7_ALL_FEATURES
100
AcDbLine
 62
7
  6
CONTINUOUS
 10
665.6813994716
 20
1380.2867641302
 11
665.6813994716
 21
1450.3867641302
  0
LINE
  5
38C
100
AcDbEntity
  8
6_ALL_SURFS
100
AcDbLine
 62
7
  6
CONTINUOUS
 10
667.1813994716
 20
1378.1867641302
 11
667.1813994716
 21
1362.8867641302
  0
LINE
  5
38D
100
AcDbEntity
  8
7_ALL_FEATURES
100
AcDbLine
 62
7
  6
CONTINUOUS
 10
667.1813994716
 20
1360.3867793465
 11
667.1813994716
 21
1362.8867641302
  0
LINE
  5
38E
100
AcDbEntity
  8
7_ALL_FEATURES
100
AcDbLine
 62
7
  6
CONTINUOUS
 10
667.1813994716
 20
1378.1867641302
 11
667.1813994716
 21
1449.6367641302
  0
LINE
  5
38F
100
AcDbEntity
  8
7_ALL_FEATURES
100
AcDbLine
 62
7
  6
CONTINUOUS
 10
667.1813994716
 20
1449.8844734267
 11
667.1813994716
 21
1450.3867641302
  0
LINE
  5
390
100
AcDbEntity
  8
6_ALL_SURFS
100
AcDbLine
 62
7
  6
CONTINUOUS
 10
667.1813994716
 20
1448.7867641302
 11
667.1813994716
 21
1449.8948180972
  0
LINE
  5
391
100
AcDbEntity
  8
6_ALL_SURFS
100
AcDbLine
 62
7
  6
CONTINUOUS
 10
667.1813994716
 20
1450.3867641302
 11
667.1813994716
 21
1470.2867489139
  0
LINE
  5
392
100
AcDbEntity
  8
7_ALL_FEATURES
100
AcDbLine
 62
7
  6
CONTINUOUS
 10
668.4313994716
 20
1382.0367641302
 11
668.4313994716
 21
1448.6367641302
  0
LINE
  5
393
100
AcDbEntity
  8
3_ALL_AXES
100
AcDbLine
 62
7
  6
CONTINUOUS
 10
664.7321198013
 20
1444.6867641302
 11
665.6813994716
 21
1445.4833043515
  0
LINE
  5
394
100
AcDbEntity
  8
3_ALL_AXES
100
AcDbLine
 62
7
  6
CONTINUOUS
 10
664.7321198013
 20
1385.9867641302
 11
665.6813994716
 21
1385.1902239089
  0
LINE
  5
395
100
AcDbEntity
  8
3_ALL_AXES
100
AcDbLine
 62
7
  6
CONTINUOUS
 10
664.7321198013
 20
1435.0367641302
 11
665.6813994716
 21
1435.8333043515
  0
LINE
  5
396
100
AcDbEntity
  8
3_ALL_AXES
100
AcDbLine
 62
7
  6
CONTINUOUS
 10
664.7321198013
 20
1390.1367641302
 11
665.6813994716
 21
1390.9333043515
  0
LINE
  5
397
100
AcDbEntity
  8
3_ALL_AXES
100
AcDbLine
 62
7
  6
CONTINUOUS
 10
664.7321198013
 20
1380.4867641302
 11
665.6813994716
 21
1381.2833043515
  0
LINE
  5
398
100
AcDbEntity
  8
3_ALL_AXES
100
AcDbLine
 62
7
  6
CONTINUOUS
 10
664.7321198013
 20
1395.6367641302
 11
665.6813994716
 21
1394.8402239089
  0
LINE
  5
399
100
AcDbEntity
  8
3_ALL_AXES
100
AcDbLine
 62
7
  6
CONTINUOUS
 10
664.7321198013
 20
1440.5367641302
 11
665.6813994716
 21
1439.7402239089
  0
LINE
  5
39A
100
AcDbEntity
  8
3_ALL_AXES
100
AcDbLine
 62
7
  6
CONTINUOUS
 10
664.7321198013
 20
1450.1867641302
 11
665.6813994716
 21
1449.3902239089
  0
LINE
  5
39B
100
AcDbEntity
  8
7_ALL_FEATURES
100
AcDbLine
 62
7
  6
CONTINUOUS
 10
667.1813994716
 20
1360.3867641302
 11
2914.1813994716
 21
1360.3867641302
  0
LINE
  5
39C
100
AcDbEntity
  8
7_ALL_FEATURES
100
AcDbLine
 62
9
  6
CONTINUOUS
 10
667.1813994716
 20
1360.7412925398
 11
2914.1813994716
 21
1360.7412925398
  0
LINE
  5
39D
100
AcDbEntity
  8
7_ALL_FEATURES
100
AcDbLine
 62
7
  6
CONTINUOUS
 10
667.1813994716
 20
1362.8867641302
 11
787.3979916779
 21
1362.8867641302
  0
LINE
  5
39E
100
AcDbEntity
  8
7_ALL_FEATURES
100
AcDbLine
 62
7
  6
CONTINUOUS
 10
793.9648072653
 20
1362.8867641302
 11
1037.3979916779
 21
1362.8867641302
  0
LINE
  5
39F
100
AcDbEntity
  8
7_ALL_FEATURES
100
AcDbLine
 62
7
  6
CONTINUOUS
 10
1043.9648072653
 20
1362.8867641302
 11
1287.3979916779
 21
1362.8867641302
  0
LINE
  5
3A0
100
AcDbEntity
  8
7_ALL_FEATURES
100
AcDbLine
 62
7
  6
CONTINUOUS
 10
1293.9648072653
 20
1362.8867641302
 11
1537.3979916779
 21
1362.8867641302
  0
LINE
  5
3A1
100
AcDbEntity
  8
7_ALL_FEATURES
100
AcDbLine
 62
7
  6
CONTINUOUS
 10
1543.9648072653
 20
1362.8867641302
 11
1787.3979916779
 21
1362.8867641302
  0
LINE
  5
3A2
100
AcDbEntity
  8
7_ALL_FEATURES
100
AcDbLine
 62
7
  6
CONTINUOUS
 10
1793.9648072653
 20
1362.8867641302
 11
2037.3979916779
 21
1362.8867641302
  0
LINE
  5
3A3
100
AcDbEntity
  8
7_ALL_FEATURES
100
AcDbLine
 62
7
  6
CONTINUOUS
 10
2043.9648072653
 20
1362.8867641302
 11
2287.3979916779
 21
1362.8867641302
  0
LINE
  5
3A4
100
AcDbEntity
  8
7_ALL_FEATURES
100
AcDbLine
 62
7
  6
CONTINUOUS
 10
2293.9648072653
 20
1362.8867641302
 11
2537.3979916779
 21
1362.8867641302
  0
LINE
  5
3A5
100
AcDbEntity
  8
7_ALL_FEATURES
100
AcDbLine
 62
7
  6
CONTINUOUS
 10
2543.9648072653
 20
1362.8867641302
 11
2787.3979916779
 21
1362.8867641302
  0
LINE
  5
3A6
100
AcDbEntity
  8
7_ALL_FEATURES
100
AcDbLine
 62
7
  6
CONTINUOUS
 10
2793.9648072653
 20
1362.8867641302
 11
2914.1813994716
 21
1362.8867641302
  0
LINE
  5
3A7
100
AcDbEntity
  8
7_ALL_FEATURES
100
AcDbLine
 62
7
  6
CONTINUOUS
 10
667.1813994716
 20
1365.5867641302
 11
785.9495111868
 21
1365.5867641302
  0
LINE
  5
3A8
100
AcDbEntity
  8
7_ALL_FEATURES
100
AcDbLine
 62
7
  6
CONTINUOUS
 10
795.4132877564
 20
1365.5867641302
 11
1035.9495111868
 21
1365.5867641302
  0
LINE
  5
3A9
100
AcDbEntity
  8
7_ALL_FEATURES
100
AcDbLine
 62
7
  6
CONTINUOUS
 10
1045.4132877564
 20
1365.5867641302
 11
1285.9495111868
 21
1365.5867641302
  0
LINE
  5
3AA
100
AcDbEntity
  8
7_ALL_FEATURES
100
AcDbLine
 62
7
  6
CONTINUOUS
 10
1295.4132877564
 20
1365.5867641302
 11
1535.9495111868
 21
1365.5867641302
  0
LINE
  5
3AB
100
AcDbEntity
  8
7_ALL_FEATURES
100
AcDbLine
 62
7
  6
CONTINUOUS
 10
1545.4132877564
 20
1365.5867641302
 11
1785.9495111868
 21
1365.5867641302
  0
LINE
  5
3AC
100
AcDbEntity
  8
7_ALL_FEATURES
100
AcDbLine
 62
7
  6
CONTINUOUS
 10
1795.4132877564
 20
1365.5867641302
 11
2035.9495111868
 21
1365.5867641302
  0
LINE
  5
3AD
100
AcDbEntity
  8
7_ALL_FEATURES
100
AcDbLine
 62
7
  6
CONTINUOUS
 10
2045.4132877564
 20
1365.5867641302
 11
2285.9495111868
 21
1365.5867641302
  0
LINE
  5
3AE
100
AcDbEntity
  8
7_ALL_FEATURES
100
AcDbLine
 62
7
  6
CONTINUOUS
 10
2295.4132877564
 20
1365.5867641302
 11
2535.9495111868
 21
1365.5867641302
  0
LINE
  5
3AF
100
AcDbEntity
  8
7_ALL_FEATURES
100
AcDbLine
 62
7
  6
CONTINUOUS
 10
2545.4132877564
 20
1365.5867641302
 11
2785.9495111868
 21
1365.5867641302
  0
LINE
  5
3B0
100
AcDbEntity
  8
7_ALL_FEATURES
100
AcDbLine
 62
7
  6
CONTINUOUS
 10
2795.4132877564
 20
1365.5867641302
 11
2914.1813994716
 21
1365.5867641302
  0
LINE
  5
3B1
100
AcDbEntity
  8
7_ALL_FEATURES
100
AcDbLine
 62
7
  6
CONTINUOUS
 10
667.1813994716
 20
1366.1867641302
 11
785.8865306789
 21
1366.1867641302
  0
LINE
  5
3B2
100
AcDbEntity
  8
7_ALL_FEATURES
100
AcDbLine
 62
7
  6
CONTINUOUS
 10
795.4762682644
 20
1366.1867641302
 11
1035.8865306789
 21
1366.1867641302
  0
LINE
  5
3B3
100
AcDbEntity
  8
7_ALL_FEATURES
100
AcDbLine
 62
7
  6
CONTINUOUS
 10
1045.4762682644
 20
1366.1867641302
 11
1285.8865306789
 21
1366.1867641302
  0
LINE
  5
3B4
100
AcDbEntity
  8
7_ALL_FEATURES
100
AcDbLine
 62
7
  6
CONTINUOUS
 10
1295.4762682644
 20
1366.1867641302
 11
1535.8865306789
 21
1366.1867641302
  0
LINE
  5
3B5
100
AcDbEntity
  8
7_ALL_FEATURES
100
AcDbLine
 62
7
  6
CONTINUOUS
 10
1545.4762682644
 20
1366.1867641302
 11
1785.8865306789
 21
1366.1867641302
  0
LINE
  5
3B6
100
AcDbEntity
  8
7_ALL_FEATURES
100
AcDbLine
 62
7
  6
CONTINUOUS
 10
1795.4762682644
 20
1366.1867641302
 11
2035.8865306789
 21
1366.1867641302
  0
LINE
  5
3B7
100
AcDbEntity
  8
7_ALL_FEATURES
100
AcDbLine
 62
7
  6
CONTINUOUS
 10
2045.4762682644
 20
1366.1867641302
 11
2285.8865306789
 21
1366.1867641302
  0
LINE
  5
3B8
100
AcDbEntity
  8
7_ALL_FEATURES
100
AcDbLine
 62
7
  6
CONTINUOUS
 10
2295.4762682644
 20
1366.1867641302
 11
2535.8865306789
 21
1366.1867641302
  0
LINE
  5
3B9
100
AcDbEntity
  8
7_ALL_FEATURES
100
AcDbLine
 62
7
  6
CONTINUOUS
 10
2545.4762682644
 20
1366.1867641302
 11
2785.8865306789
 21
1366.1867641302
  0
LINE
  5
3BA
100
AcDbEntity
  8
7_ALL_FEATURES
100
AcDbLine
 62
7
  6
CONTINUOUS
 10
2795.4762682644
 20
1366.1867641302
 11
2914.1813994716
 21
1366.1867641302
  0
LINE
  5
3BB
100
AcDbEntity
  8
7_ALL_FEATURES
100
AcDbLine
 62
7
  6
CONTINUOUS
 10
667.1813994716
 20
1368.5867641302
 11
786.4163359622
 21
1368.5867641302
  0
LINE
  5
3BC
100
AcDbEntity
  8
7_ALL_FEATURES
100
AcDbLine
 62
7
  6
CONTINUOUS
 10
794.9464629811
 20
1368.5867641302
 11
1036.4163359622
 21
1368.5867641302
  0
LINE
  5
3BD
100
AcDbEntity
  8
7_ALL_FEATURES
100
AcDbLine
 62
7
  6
CONTINUOUS
 10
1044.9464629811
 20
1368.5867641302
 11
1286.4163359622
 21
1368.5867641302
  0
LINE
  5
3BE
100
AcDbEntity
  8
7_ALL_FEATURES
100
AcDbLine
 62
7
  6
CONTINUOUS
 10
1294.9464629811
 20
1368.5867641302
 11
1536.4163359622
 21
1368.5867641302
  0
LINE
  5
3BF
100
AcDbEntity
  8
7_ALL_FEATURES
100
AcDbLine
 62
7
  6
CONTINUOUS
 10
1544.9464629811
 20
1368.5867641302
 11
1786.4163359622
 21
1368.5867641302
  0
LINE
  5
3C0
100
AcDbEntity
  8
7_ALL_FEATURES
100
AcDbLine
 62
7
  6
CONTINUOUS
 10
1794.9464629811
 20
1368.5867641302
 11
2036.4163359622
 21
1368.5867641302
  0
LINE
  5
3C1
100
AcDbEntity
  8
7_ALL_FEATURES
100
AcDbLine
 62
7
  6
CONTINUOUS
 10
2044.9464629811
 20
1368.5867641302
 11
2286.4163359622
 21
1368.5867641302
  0
LINE
  5
3C2
100
AcDbEntity
  8
7_ALL_FEATURES
100
AcDbLine
 62
7
  6
CONTINUOUS
 10
2294.9464629811
 20
1368.5867641302
 11
2536.4163359622
 21
1368.5867641302
  0
LINE
  5
3C3
100
AcDbEntity
  8
7_ALL_FEATURES
100
AcDbLine
 62
7
  6
CONTINUOUS
 10
2544.9464629811
 20
1368.5867641302
 11
2786.4163359622
 21
1368.5867641302
  0
LINE
  5
3C4
100
AcDbEntity
  8
7_ALL_FEATURES
100
AcDbLine
 62
7
  6
CONTINUOUS
 10
2794.9464629811
 20
1368.5867641302
 11
2914.1813994716
 21
1368.5867641302
  0
LINE
  5
3C5
100
AcDbEntity
  8
7_ALL_FEATURES
100
AcDbLine
 62
7
  6
CONTINUOUS
 10
667.1813994716
 20
1369.1867641302
 11
786.7838660542
 21
1369.1867641302
  0
LINE
  5
3C6
100
AcDbEntity
  8
7_ALL_FEATURES
100
AcDbLine
 62
7
  6
CONTINUOUS
 10
794.578932889
 20
1369.1867641302
 11
1036.7838660542
 21
1369.1867641302
  0
LINE
  5
3C7
100
AcDbEntity
  8
7_ALL_FEATURES
100
AcDbLine
 62
7
  6
CONTINUOUS
 10
1044.578932889
 20
1369.1867641302
 11
1286.7838660542
 21
1369.1867641302
  0
LINE
  5
3C8
100
AcDbEntity
  8
7_ALL_FEATURES
100
AcDbLine
 62
7
  6
CONTINUOUS
 10
1294.578932889
 20
1369.1867641302
 11
1536.7838660542
 21
1369.1867641302
  0
LINE
  5
3C9
100
AcDbEntity
  8
7_ALL_FEATURES
100
AcDbLine
 62
7
  6
CONTINUOUS
 10
1544.578932889
 20
1369.1867641302
 11
1786.7838660542
 21
1369.1867641302
  0
LINE
  5
3CA
100
AcDbEntity
  8
7_ALL_FEATURES
100
AcDbLine
 62
7
  6
CONTINUOUS
 10
1794.578932889
 20
1369.1867641302
 11
2036.7838660542
 21
1369.1867641302
  0
LINE
  5
3CB
100
AcDbEntity
  8
7_ALL_FEATURES
100
AcDbLine
 62
7
  6
CONTINUOUS
 10
2044.578932889
 20
1369.1867641302
 11
2286.7838660542
 21
1369.1867641302
  0
LINE
  5
3CC
100
AcDbEntity
  8
7_ALL_FEATURES
100
AcDbLine
 62
7
  6
CONTINUOUS
 10
2294.578932889
 20
1369.1867641302
 11
2536.7838660542
 21
1369.1867641302
  0
LINE
  5
3CD
100
AcDbEntity
  8
7_ALL_FEATURES
100
AcDbLine
 62
7
  6
CONTINUOUS
 10
2544.578932889
 20
1369.1867641302
 11
2786.7838660542
 21
1369.1867641302
  0
LINE
  5
3CE
100
AcDbEntity
  8
7_ALL_FEATURES
100
AcDbLine
 62
7
  6
CONTINUOUS
 10
2794.578932889
 20
1369.1867641302
 11
2914.1813994716
 21
1369.1867641302
  0
LINE
  5
3CF
100
AcDbEntity
  8
6_ALL_SURFS
100
AcDbLine
 62
7
  6
CONTINUOUS
 10
667.1813994716
 20
1371.5867641302
 11
2914.1813994716
 21
1371.5867641302
  0
LINE
  5
3D0
100
AcDbEntity
  8
6_ALL_SURFS
100
AcDbLine
 62
7
  6
CONTINUOUS
 10
667.1813994716
 20
1372.1867641302
 11
2914.1813994716
 21
1372.1867641302
  0
LINE
  5
3D1
100
AcDbEntity
  8
6_ALL_SURFS
100
AcDbLine
 62
7
  6
CONTINUOUS
 10
667.1813994716
 20
1374.5867641302
 11
2914.1813994716
 21
1374.5867641302
  0
LINE
  5
3D2
100
AcDbEntity
  8
6_ALL_SURFS
100
AcDbLine
 62
7
  6
CONTINUOUS
 10
667.1813994716
 20
1375.1867641302
 11
2914.1813994716
 21
1375.1867641302
  0
LINE
  5
3D3
100
AcDbEntity
  8
6_ALL_SURFS
100
AcDbLine
 62
7
  6
CONTINUOUS
 10
667.1813994716
 20
1377.5867641302
 11
2914.1813994716
 21
1377.5867641302
  0
LINE
  5
3D4
100
AcDbEntity
  8
6_ALL_SURFS
100
AcDbLine
 62
7
  6
CONTINUOUS
 10
667.1813994716
 20
1378.1867641302
 11
2914.1813994716
 21
1378.1867641302
  0
LINE
  5
3D5
100
AcDbEntity
  8
7_ALL_FEATURES
100
AcDbLine
 62
7
  6
CONTINUOUS
 10
667.1813994716
 20
1380.2867641302
 11
665.6813994716
 21
1380.2867641302
  0
LINE
  5
3D6
100
AcDbEntity
  8
7_ALL_FEATURES
100
AcDbLine
 62
7
  6
CONTINUOUS
 10
2914.1813994716
 20
1380.2867641302
 11
2915.6813994716
 21
1380.2867641302
  0
LINE
  5
3D7
100
AcDbEntity
  8
7_ALL_FEATURES
100
AcDbLine
 62
9
  6
CONTINUOUS
 10
667.1813994716
 20
1380.3367641302
 11
2914.1813994716
 21
1380.3367641302
  0
LINE
  5
3D8
100
AcDbEntity
  8
3_ALL_AXES
100
AcDbLine
 62
7
  6
CONTINUOUS
 10
2916.7813994716
 20
1380.4867641302
 11
2916.630679142
 21
1380.4867641302
  0
LINE
  5
3D9
100
AcDbEntity
  8
3_ALL_AXES
100
AcDbLine
 62
7
  6
CONTINUOUS
 10
664.5813994716
 20
1380.4867641302
 11
664.7321198013
 21
1380.4867641302
  0
LINE
  5
3DA
100
AcDbEntity
  8
7_ALL_FEATURES
100
AcDbLine
 62
7
  6
CONTINUOUS
 10
2914.1813994716
 20
1380.6367641302
 11
667.1813994716
 21
1380.6367641302
  0
LINE
  5
3DB
100
AcDbEntity
  8
7_ALL_FEATURES
100
AcDbLine
 62
9
  6
CONTINUOUS
 10
2914.1813994716
 20
1380.9367641302
 11
667.1813994716
 21
1380.9367641302
  0
LINE
  5
3DC
100
AcDbEntity
  8
7_ALL_FEATURES
100
AcDbLine
 62
9
  6
CONTINUOUS
 10
667.1813994716
 20
1381.0367641302
 11
665.6813994716
 21
1381.0367641302
  0
LINE
  5
3DD
100
AcDbEntity
  8
7_ALL_FEATURES
100
AcDbLine
 62
9
  6
CONTINUOUS
 10
2914.1813994716
 20
1381.0367641302
 11
2915.6813994716
 21
1381.0367641302
  0
LINE
  5
3DE
100
AcDbEntity
  8
7_ALL_FEATURES
100
AcDbLine
 62
9
  6
CONTINUOUS
 10
2914.1813994716
 20
1381.5867641302
 11
667.1813994716
 21
1381.5867641302
  0
LINE
  5
3DF
100
AcDbEntity
  8
7_ALL_FEATURES
100
AcDbLine
 62
7
  6
CONTINUOUS
 10
2914.1813994716
 20
1381.8867641302
 11
667.1813994716
 21
1381.8867641302
  0
LINE
  5
3E0
100
AcDbEntity
  8
7_ALL_FEATURES
100
AcDbLine
 62
9
  6
CONTINUOUS
 10
667.1813994716
 20
1381.9487581281
 11
2914.1813994716
 21
1381.9487581281
  0
LINE
  5
3E1
100
AcDbEntity
  8
7_ALL_FEATURES
100
AcDbLine
 62
7
  6
CONTINUOUS
 10
2912.9313994716
 20
1382.0367641302
 11
668.4313994716
 21
1382.0367641302
  0
LINE
  5
3E2
100
AcDbEntity
  8
7_ALL_FEATURES
100
AcDbLine
 62
9
  6
CONTINUOUS
 10
2912.9313994716
 20
1382.2367641302
 11
668.4313994716
 21
1382.2367641302
  0
LINE
  5
3E3
100
AcDbEntity
  8
7_ALL_FEATURES
100
AcDbLine
 62
9
  6
CONTINUOUS
 10
667.1813994716
 20
1383.0594298456
 11
668.4313994716
 21
1383.0594298456
  0
LINE
  5
3E4
100
AcDbEntity
  8
7_ALL_FEATURES
100
AcDbLine
 62
9
  6
CONTINUOUS
 10
2912.9313994716
 20
1383.0594298456
 11
2914.1813994716
 21
1383.0594298456
  0
LINE
  5
3E5
100
AcDbEntity
  8
7_ALL_FEATURES
100
AcDbLine
 62
7
  6
CONTINUOUS
 10
667.1813994716
 20
1383.1007591776
 11
668.4313994716
 21
1383.1007591776
  0
LINE
  5
3E6
100
AcDbEntity
  8
7_ALL_FEATURES
100
AcDbLine
 62
7
  6
CONTINUOUS
 10
2912.9313994716
 20
1383.1007591776
 11
2914.1813994716
 21
1383.1007591776
  0
LINE
  5
3E7
100
AcDbEntity
  8
7_ALL_FEATURES
100
AcDbLine
 62
9
  6
CONTINUOUS
 10
667.1813994716
 20
1383.1965743614
 11
668.4313994716
 21
1383.1965743614
  0
LINE
  5
3E8
100
AcDbEntity
  8
7_ALL_FEATURES
100
AcDbLine
 62
9
  6
CONTINUOUS
 10
2912.9313994716
 20
1383.1965743614
 11
2914.1813994716
 21
1383.1965743614
  0
LINE
  5
3E9
100
AcDbEntity
  8
7_ALL_FEATURES
100
AcDbLine
 62
9
  6
CONTINUOUS
 10
667.1813994716
 20
1383.4159804719
 11
668.4313994716
 21
1383.4159804719
  0
LINE
  5
3EA
100
AcDbEntity
  8
7_ALL_FEATURES
100
AcDbLine
 62
9
  6
CONTINUOUS
 10
2912.9313994716
 20
1383.4159804719
 11
2914.1813994716
 21
1383.4159804719
  0
LINE
  5
3EB
100
AcDbEntity
  8
7_ALL_FEATURES
100
AcDbLine
 62
9
  6
CONTINUOUS
 10
2914.1813994716
 20
1384.4867641302
 11
2912.9313994716
 21
1384.4867641302
  0
LINE
  5
3EC
100
AcDbEntity
  8
7_ALL_FEATURES
100
AcDbLine
 62
9
  6
CONTINUOUS
 10
668.4313994716
 20
1384.4867641302
 11
667.1813994716
 21
1384.4867641302
  0
LINE
  5
3ED
100
AcDbEntity
  8
7_ALL_FEATURES
100
AcDbLine
 62
7
  6
CONTINUOUS
 10
2914.1813994716
 20
1384.7867641302
 11
2912.9313994716
 21
1384.7867641302
  0
LINE
  5
3EE
100
AcDbEntity
  8
7_ALL_FEATURES
100
AcDbLine
 62
7
  6
CONTINUOUS
 10
668.4313994716
 20
1384.7867641302
 11
667.1813994716
 21
1384.7867641302
  0
LINE
  5
3EF
100
AcDbEntity
  8
7_ALL_FEATURES
100
AcDbLine
 62
9
  6
CONTINUOUS
 10
667.1813994716
 20
1384.9073788886
 11
668.4313994716
 21
1384.9073788886
  0
LINE
  5
3F0
100
AcDbEntity
  8
7_ALL_FEATURES
100
AcDbLine
 62
9
  6
CONTINUOUS
 10
2912.9313994716
 20
1384.9073788886
 11
2914.1813994716
 21
1384.9073788886
  0
LINE
  5
3F1
100
AcDbEntity
  8
7_ALL_FEATURES
100
AcDbLine
 62
9
  6
CONTINUOUS
 10
2914.1813994716
 20
1385.4341580872
 11
2912.9313994716
 21
1385.4341580872
  0
LINE
  5
3F2
100
AcDbEntity
  8
7_ALL_FEATURES
100
AcDbLine
 62
9
  6
CONTINUOUS
 10
668.4313994716
 20
1385.4341580872
 11
667.1813994716
 21
1385.4341580872
  0
LINE
  5
3F3
100
AcDbEntity
  8
7_ALL_FEATURES
100
AcDbLine
 62
7
  6
CONTINUOUS
 10
2914.1813994716
 20
1385.452250301
 11
2912.9313994716
 21
1385.452250301
  0
LINE
  5
3F4
100
AcDbEntity
  8
7_ALL_FEATURES
100
AcDbLine
 62
7
  6
CONTINUOUS
 10
668.4313994716
 20
1385.452250301
 11
667.1813994716
 21
1385.452250301
  0
LINE
  5
3F5
100
AcDbEntity
  8
3_ALL_AXES
100
AcDbLine
 62
7
  6
CONTINUOUS
 10
2916.7813994716
 20
1385.9867641302
 11
2916.630679142
 21
1385.9867641302
  0
LINE
  5
3F6
100
AcDbEntity
  8
3_ALL_AXES
100
AcDbLine
 62
7
  6
CONTINUOUS
 10
664.5813994716
 20
1385.9867641302
 11
664.7321198013
 21
1385.9867641302
  0
LINE
  5
3F7
100
AcDbEntity
  8
7_ALL_FEATURES
100
AcDbLine
 62
9
  6
CONTINUOUS
 10
667.1813994716
 20
1388.7498441674
 11
668.4313994716
 21
1388.7498441674
  0
LINE
  5
3F8
100
AcDbEntity
  8
7_ALL_FEATURES
100
AcDbLine
 62
9
  6
CONTINUOUS
 10
2912.9313994716
 20
1388.7498441674
 11
2914.1813994716
 21
1388.7498441674
  0
LINE
  5
3F9
100
AcDbEntity
  8
7_ALL_FEATURES
100
AcDbLine
 62
9
  6
CONTINUOUS
 10
667.1813994716
 20
1389.2379691435
 11
668.4313994716
 21
1389.2379691435
  0
LINE
  5
3FA
100
AcDbEntity
  8
7_ALL_FEATURES
100
AcDbLine
 62
9
  6
CONTINUOUS
 10
2912.9313994716
 20
1389.2379691435
 11
2914.1813994716
 21
1389.2379691435
  0
LINE
  5
3FB
100
AcDbEntity
  8
3_ALL_AXES
100
AcDbLine
 62
7
  6
CONTINUOUS
 10
2916.7813994716
 20
1389.6367641302
 11
2916.630679142
 21
1389.6367641302
  0
LINE
  5
3FC
100
AcDbEntity
  8
3_ALL_AXES
100
AcDbLine
 62
7
  6
CONTINUOUS
 10
664.5813994716
 20
1390.1367641302
 11
664.7321198013
 21
1390.1367641302
  0
LINE
  5
3FD
100
AcDbEntity
  8
3_ALL_AXES
100
AcDbLine
 62
7
  6
CONTINUOUS
 10
2916.7813994716
 20
1395.1367641302
 11
2916.630679142
 21
1395.1367641302
  0
LINE
  5
3FE
100
AcDbEntity
  8
3_ALL_AXES
100
AcDbLine
 62
7
  6
CONTINUOUS
 10
664.5813994716
 20
1395.6367641302
 11
664.7321198013
 21
1395.6367641302
  0
LINE
  5
3FF
100
AcDbEntity
  8
7_ALL_FEATURES
100
AcDbLine
 62
9
  6
CONTINUOUS
 10
2914.1813994716
 20
1413.3367641302
 11
2912.9313994716
 21
1413.3367641302
  0
LINE
  5
400
100
AcDbEntity
  8
7_ALL_FEATURES
100
AcDbLine
 62
9
  6
CONTINUOUS
 10
668.4313994716
 20
1413.3367641302
 11
667.1813994716
 21
1413.3367641302
  0
LINE
  5
401
100
AcDbEntity
  8
7_ALL_FEATURES
100
AcDbLine
 62
7
  6
CONTINUOUS
 10
2914.1813994716
 20
1413.6367641302
 11
2912.9313994716
 21
1413.6367641302
  0
LINE
  5
402
100
AcDbEntity
  8
7_ALL_FEATURES
100
AcDbLine
 62
7
  6
CONTINUOUS
 10
668.4313994716
 20
1413.6367641302
 11
667.1813994716
 21
1413.6367641302
  0
LINE
  5
403
100
AcDbEntity
  8
7_ALL_FEATURES
100
AcDbLine
 62
9
  6
CONTINUOUS
 10
667.1813994716
 20
1413.9367641302
 11
668.4313994716
 21
1413.9367641302
  0
LINE
  5
404
100
AcDbEntity
  8
7_ALL_FEATURES
100
AcDbLine
 62
9
  6
CONTINUOUS
 10
2912.9313994716
 20
1413.9367641302
 11
2914.1813994716
 21
1413.9367641302
  0
LINE
  5
405
100
AcDbEntity
  8
6_ALL_SURFS
100
AcDbLine
 62
9
  6
CONTINUOUS
 10
667.1813994716
 20
1416.7367641302
 11
668.4313994716
 21
1416.7367641302
  0
LINE
  5
406
100
AcDbEntity
  8
6_ALL_SURFS
100
AcDbLine
 62
9
  6
CONTINUOUS
 10
2912.9313994716
 20
1416.7367641302
 11
2914.1813994716
 21
1416.7367641302
  0
LINE
  5
407
100
AcDbEntity
  8
6_ALL_SURFS
100
AcDbLine
 62
7
  6
CONTINUOUS
 10
2914.1813994716
 20
1417.0367641302
 11
2912.9313994716
 21
1417.0367641302
  0
LINE
  5
408
100
AcDbEntity
  8
6_ALL_SURFS
100
AcDbLine
 62
7
  6
CONTINUOUS
 10
668.4313994716
 20
1417.0367641302
 11
667.1813994716
 21
1417.0367641302
  0
LINE
  5
409
100
AcDbEntity
  8
6_ALL_SURFS
100
AcDbLine
 62
9
  6
CONTINUOUS
 10
2914.1813994716
 20
1417.3367641302
 11
2912.9313994716
 21
1417.3367641302
  0
LINE
  5
40A
100
AcDbEntity
  8
6_ALL_SURFS
100
AcDbLine
 62
9
  6
CONTINUOUS
 10
668.4313994716
 20
1417.3367641302
 11
667.1813994716
 21
1417.3367641302
  0
LINE
  5
40B
100
AcDbEntity
  8
3_ALL_AXES
100
AcDbLine
 62
7
  6
CONTINUOUS
 10
664.5813994716
 20
1435.0367641302
 11
664.7321198013
 21
1435.0367641302
  0
LINE
  5
40C
100
AcDbEntity
  8
3_ALL_AXES
100
AcDbLine
 62
7
  6
CONTINUOUS
 10
2916.7813994716
 20
1435.5367641302
 11
2916.630679142
 21
1435.5367641302
  0
LINE
  5
40D
100
AcDbEntity
  8
3_ALL_AXES
100
AcDbLine
 62
7
  6
CONTINUOUS
 10
664.5813994716
 20
1440.5367641302
 11
664.7321198013
 21
1440.5367641302
  0
LINE
  5
40E
100
AcDbEntity
  8
3_ALL_AXES
100
AcDbLine
 62
7
  6
CONTINUOUS
 10
2916.7813994716
 20
1441.0367641302
 11
2916.630679142
 21
1441.0367641302
  0
LINE
  5
40F
100
AcDbEntity
  8
6_ALL_SURFS
100
AcDbLine
 62
9
  6
CONTINUOUS
 10
667.1813994716
 20
1441.4355591169
 11
668.4313994716
 21
1441.4355591169
  0
LINE
  5
410
100
AcDbEntity
  8
6_ALL_SURFS
100
AcDbLine
 62
9
  6
CONTINUOUS
 10
2912.9313994716
 20
1441.4355591169
 11
2914.1813994716
 21
1441.4355591169
  0
LINE
  5
411
100
AcDbEntity
  8
6_ALL_SURFS
100
AcDbLine
 62
9
  6
CONTINUOUS
 10
667.1813994716
 20
1441.923684093
 11
668.4313994716
 21
1441.923684093
  0
LINE
  5
412
100
AcDbEntity
  8
6_ALL_SURFS
100
AcDbLine
 62
9
  6
CONTINUOUS
 10
2912.9313994716
 20
1441.923684093
 11
2914.1813994716
 21
1441.923684093
  0
LINE
  5
413
100
AcDbEntity
  8
3_ALL_AXES
100
AcDbLine
 62
7
  6
CONTINUOUS
 10
2916.7813994716
 20
1444.6867641302
 11
2916.630679142
 21
1444.6867641302
  0
LINE
  5
414
100
AcDbEntity
  8
3_ALL_AXES
100
AcDbLine
 62
7
  6
CONTINUOUS
 10
664.5813994716
 20
1444.6867641302
 11
664.7321198013
 21
1444.6867641302
  0
LINE
  5
415
100
AcDbEntity
  8
6_ALL_SURFS
100
AcDbLine
 62
7
  6
CONTINUOUS
 10
667.1813994716
 20
1445.2212779595
 11
668.4313994716
 21
1445.2212779595
  0
LINE
  5
416
100
AcDbEntity
  8
6_ALL_SURFS
100
AcDbLine
 62
7
  6
CONTINUOUS
 10
2912.9313994716
 20
1445.2212779595
 11
2914.1813994716
 21
1445.2212779595
  0
LINE
  5
417
100
AcDbEntity
  8
6_ALL_SURFS
100
AcDbLine
 62
9
  6
CONTINUOUS
 10
2914.1813994716
 20
1445.2393701732
 11
2912.9313994716
 21
1445.2393701732
  0
LINE
  5
418
100
AcDbEntity
  8
6_ALL_SURFS
100
AcDbLine
 62
9
  6
CONTINUOUS
 10
668.4313994716
 20
1445.2393701732
 11
667.1813994716
 21
1445.2393701732
  0
LINE
  5
419
100
AcDbEntity
  8
6_ALL_SURFS
100
AcDbLine
 62
9
  6
CONTINUOUS
 10
667.1813994716
 20
1445.7661493718
 11
668.4313994716
 21
1445.7661493718
  0
LINE
  5
41A
100
AcDbEntity
  8
6_ALL_SURFS
100
AcDbLine
 62
9
  6
CONTINUOUS
 10
2912.9313994716
 20
1445.7661493718
 11
2914.1813994716
 21
1445.7661493718
  0
LINE
  5
41B
100
AcDbEntity
  8
6_ALL_SURFS
100
AcDbLine
 62
7
  6
CONTINUOUS
 10
2914.1813994716
 20
1445.8867641302
 11
2912.9313994716
 21
1445.8867641302
  0
LINE
  5
41C
100
AcDbEntity
  8
6_ALL_SURFS
100
AcDbLine
 62
7
  6
CONTINUOUS
 10
668.4313994716
 20
1445.8867641302
 11
667.1813994716
 21
1445.8867641302
  0
LINE
  5
41D
100
AcDbEntity
  8
6_ALL_SURFS
100
AcDbLine
 62
9
  6
CONTINUOUS
 10
2914.1813994716
 20
1446.1867641302
 11
2912.9313994716
 21
1446.1867641302
  0
LINE
  5
41E
100
AcDbEntity
  8
6_ALL_SURFS
100
AcDbLine
 62
9
  6
CONTINUOUS
 10
668.4313994716
 20
1446.1867641302
 11
667.1813994716
 21
1446.1867641302
  0
LINE
  5
41F
100
AcDbEntity
  8
6_ALL_SURFS
100
AcDbLine
 62
9
  6
CONTINUOUS
 10
667.1813994716
 20
1447.2575477885
 11
668.4313994716
 21
1447.2575477885
  0
LINE
  5
420
100
AcDbEntity
  8
6_ALL_SURFS
100
AcDbLine
 62
9
  6
CONTINUOUS
 10
2912.9313994716
 20
1447.2575477885
 11
2914.1813994716
 21
1447.2575477885
  0
LINE
  5
421
100
AcDbEntity
  8
6_ALL_SURFS
100
AcDbLine
 62
9
  6
CONTINUOUS
 10
667.1813994716
 20
1447.476953899
 11
668.4313994716
 21
1447.476953899
  0
LINE
  5
422
100
AcDbEntity
  8
6_ALL_SURFS
100
AcDbLine
 62
9
  6
CONTINUOUS
 10
2912.9313994716
 20
1447.476953899
 11
2914.1813994716
 21
1447.476953899
  0
LINE
  5
423
100
AcDbEntity
  8
6_ALL_SURFS
100
AcDbLine
 62
7
  6
CONTINUOUS
 10
2914.1813994716
 20
1447.5727690829
 11
2912.9313994716
 21
1447.5727690829
  0
LINE
  5
424
100
AcDbEntity
  8
6_ALL_SURFS
100
AcDbLine
 62
7
  6
CONTINUOUS
 10
668.4313994716
 20
1447.5727690829
 11
667.1813994716
 21
1447.5727690829
  0
LINE
  5
425
100
AcDbEntity
  8
6_ALL_SURFS
100
AcDbLine
 62
9
  6
CONTINUOUS
 10
667.1813994716
 20
1447.6140984148
 11
668.4313994716
 21
1447.6140984148
  0
LINE
  5
426
100
AcDbEntity
  8
6_ALL_SURFS
100
AcDbLine
 62
9
  6
CONTINUOUS
 10
2912.9313994716
 20
1447.6140984148
 11
2914.1813994716
 21
1447.6140984148
  0
LINE
  5
427
100
AcDbEntity
  8
7_ALL_FEATURES
100
AcDbLine
 62
9
  6
CONTINUOUS
 10
2912.9313994716
 20
1448.4367641302
 11
668.4313994716
 21
1448.4367641302
  0
LINE
  5
428
100
AcDbEntity
  8
7_ALL_FEATURES
100
AcDbLine
 62
7
  6
CONTINUOUS
 10
2912.9313994716
 20
1448.6367641302
 11
668.4313994716
 21
1448.6367641302
  0
LINE
  5
429
100
AcDbEntity
  8
6_ALL_SURFS
100
AcDbLine
 62
9
  6
CONTINUOUS
 10
667.1813994716
 20
1448.7247701323
 11
2914.1813994716
 21
1448.7247701323
  0
LINE
  5
42A
100
AcDbEntity
  8
6_ALL_SURFS
100
AcDbLine
 62
7
  6
CONTINUOUS
 10
2914.1813994716
 20
1448.7867641302
 11
667.1813994716
 21
1448.7867641302
  0
LINE
  5
42B
100
AcDbEntity
  8
6_ALL_SURFS
100
AcDbLine
 62
9
  6
CONTINUOUS
 10
2914.1813994716
 20
1449.0867641302
 11
667.1813994716
 21
1449.0867641302
  0
LINE
  5
42C
100
AcDbEntity
  8
7_ALL_FEATURES
100
AcDbLine
 62
9
  6
CONTINUOUS
 10
667.1813994716
 20
1449.6367641302
 11
665.6813994716
 21
1449.6367641302
  0
LINE
  5
42D
100
AcDbEntity
  8
7_ALL_FEATURES
100
AcDbLine
 62
9
  6
CONTINUOUS
 10
2914.1813994716
 20
1449.6367641302
 11
2915.6813994716
 21
1449.6367641302
  0
LINE
  5
42E
100
AcDbEntity
  8
6_ALL_SURFS
100
AcDbLine
 62
9
  6
CONTINUOUS
 10
2914.1813994716
 20
1449.7367641302
 11
667.1813994716
 21
1449.7367641302
  0
LINE
  5
42F
100
AcDbEntity
  8
6_ALL_SURFS
100
AcDbLine
 62
7
  6
CONTINUOUS
 10
2914.1813994716
 20
1450.0367641302
 11
667.1813994716
 21
1450.0367641302
  0
LINE
  5
430
100
AcDbEntity
  8
3_ALL_AXES
100
AcDbLine
 62
7
  6
CONTINUOUS
 10
2916.7813994716
 20
1450.1867641302
 11
2916.630679142
 21
1450.1867641302
  0
LINE
  5
431
100
AcDbEntity
  8
3_ALL_AXES
100
AcDbLine
 62
7
  6
CONTINUOUS
 10
664.5813994716
 20
1450.1867641302
 11
664.7321198013
 21
1450.1867641302
  0
LINE
  5
432
100
AcDbEntity
  8
6_ALL_SURFS
100
AcDbLine
 62
9
  6
CONTINUOUS
 10
667.1813994716
 20
1450.3367641302
 11
2914.1813994716
 21
1450.3367641302
  0
LINE
  5
433
100
AcDbEntity
  8
7_ALL_FEATURES
100
AcDbLine
 62
7
  6
CONTINUOUS
 10
667.1813994716
 20
1450.3867641302
 11
665.6813994716
 21
1450.3867641302
  0
LINE
  5
434
100
AcDbEntity
  8
7_ALL_FEATURES
100
AcDbLine
 62
7
  6
CONTINUOUS
 10
2914.1813994716
 20
1450.3867641302
 11
2915.6813994716
 21
1450.3867641302
  0
LINE
  5
435
100
AcDbEntity
  8
6_ALL_SURFS
100
AcDbLine
 62
7
  6
CONTINUOUS
 10
667.1813994716
 20
1452.4867641302
 11
2914.1813994716
 21
1452.4867641302
  0
LINE
  5
436
100
AcDbEntity
  8
6_ALL_SURFS
100
AcDbLine
 62
7
  6
CONTINUOUS
 10
667.1813994716
 20
1453.0867641302
 11
2914.1813994716
 21
1453.0867641302
  0
LINE
  5
437
100
AcDbEntity
  8
6_ALL_SURFS
100
AcDbLine
 62
7
  6
CONTINUOUS
 10
667.1813994716
 20
1455.4867641302
 11
2914.1813994716
 21
1455.4867641302
  0
LINE
  5
438
100
AcDbEntity
  8
6_ALL_SURFS
100
AcDbLine
 62
7
  6
CONTINUOUS
 10
667.1813994716
 20
1456.0867641302
 11
2914.1813994716
 21
1456.0867641302
  0
LINE
  5
439
100
AcDbEntity
  8
6_ALL_SURFS
100
AcDbLine
 62
7
  6
CONTINUOUS
 10
667.1813994716
 20
1458.4867641302
 11
2914.1813994716
 21
1458.4867641302
  0
LINE
  5
43A
100
AcDbEntity
  8
6_ALL_SURFS
100
AcDbLine
 62
7
  6
CONTINUOUS
 10
667.1813994716
 20
1459.0867641302
 11
2914.1813994716
 21
1459.0867641302
  0
LINE
  5
43B
100
AcDbEntity
  8
6_ALL_SURFS
100
AcDbLine
 62
7
  6
CONTINUOUS
 10
667.1813994716
 20
1461.4867641302
 11
786.7838660542
 21
1461.4867641302
  0
LINE
  5
43C
100
AcDbEntity
  8
6_ALL_SURFS
100
AcDbLine
 62
7
  6
CONTINUOUS
 10
794.578932889
 20
1461.4867641302
 11
1036.7838660542
 21
1461.4867641302
  0
LINE
  5
43D
100
AcDbEntity
  8
6_ALL_SURFS
100
AcDbLine
 62
7
  6
CONTINUOUS
 10
1044.578932889
 20
1461.4867641302
 11
1286.7838660542
 21
1461.4867641302
  0
LINE
  5
43E
100
AcDbEntity
  8
6_ALL_SURFS
100
AcDbLine
 62
7
  6
CONTINUOUS
 10
1294.578932889
 20
1461.4867641302
 11
1536.7838660542
 21
1461.4867641302
  0
LINE
  5
43F
100
AcDbEntity
  8
6_ALL_SURFS
100
AcDbLine
 62
7
  6
CONTINUOUS
 10
1544.578932889
 20
1461.4867641302
 11
1786.7838660542
 21
1461.4867641302
  0
LINE
  5
440
100
AcDbEntity
  8
6_ALL_SURFS
100
AcDbLine
 62
7
  6
CONTINUOUS
 10
1794.578932889
 20
1461.4867641302
 11
2036.7838660542
 21
1461.4867641302
  0
LINE
  5
441
100
AcDbEntity
  8
6_ALL_SURFS
100
AcDbLine
 62
7
  6
CONTINUOUS
 10
2044.578932889
 20
1461.4867641302
 11
2286.7838660542
 21
1461.4867641302
  0
LINE
  5
442
100
AcDbEntity
  8
6_ALL_SURFS
100
AcDbLine
 62
7
  6
CONTINUOUS
 10
2294.578932889
 20
1461.4867641302
 11
2536.7838660542
 21
1461.4867641302
  0
LINE
  5
443
100
AcDbEntity
  8
6_ALL_SURFS
100
AcDbLine
 62
7
  6
CONTINUOUS
 10
2544.578932889
 20
1461.4867641302
 11
2786.7838660542
 21
1461.4867641302
  0
LINE
  5
444
100
AcDbEntity
  8
6_ALL_SURFS
100
AcDbLine
 62
7
  6
CONTINUOUS
 10
2794.578932889
 20
1461.4867641302
 11
2914.1813994716
 21
1461.4867641302
  0
LINE
  5
445
100
AcDbEntity
  8
6_ALL_SURFS
100
AcDbLine
 62
7
  6
CONTINUOUS
 10
667.1813994716
 20
1462.0867641302
 11
786.4163359622
 21
1462.0867641302
  0
LINE
  5
446
100
AcDbEntity
  8
6_ALL_SURFS
100
AcDbLine
 62
7
  6
CONTINUOUS
 10
794.9464629811
 20
1462.0867641302
 11
1036.4163359622
 21
1462.0867641302
  0
LINE
  5
447
100
AcDbEntity
  8
6_ALL_SURFS
100
AcDbLine
 62
7
  6
CONTINUOUS
 10
1044.9464629811
 20
1462.0867641302
 11
1286.4163359622
 21
1462.0867641302
  0
LINE
  5
448
100
AcDbEntity
  8
6_ALL_SURFS
100
AcDbLine
 62
7
  6
CONTINUOUS
 10
1294.9464629811
 20
1462.0867641302
 11
1536.4163359622
 21
1462.0867641302
  0
LINE
  5
449
100
AcDbEntity
  8
6_ALL_SURFS
100
AcDbLine
 62
7
  6
CONTINUOUS
 10
1544.9464629811
 20
1462.0867641302
 11
1786.4163359622
 21
1462.0867641302
  0
LINE
  5
44A
100
AcDbEntity
  8
6_ALL_SURFS
100
AcDbLine
 62
7
  6
CONTINUOUS
 10
1794.9464629811
 20
1462.0867641302
 11
2036.4163359622
 21
1462.0867641302
  0
LINE
  5
44B
100
AcDbEntity
  8
6_ALL_SURFS
100
AcDbLine
 62
7
  6
CONTINUOUS
 10
2044.9464629811
 20
1462.0867641302
 11
2286.4163359622
 21
1462.0867641302
  0
LINE
  5
44C
100
AcDbEntity
  8
6_ALL_SURFS
100
AcDbLine
 62
7
  6
CONTINUOUS
 10
2294.9464629811
 20
1462.0867641302
 11
2536.4163359622
 21
1462.0867641302
  0
LINE
  5
44D
100
AcDbEntity
  8
6_ALL_SURFS
100
AcDbLine
 62
7
  6
CONTINUOUS
 10
2544.9464629811
 20
1462.0867641302
 11
2786.4163359622
 21
1462.0867641302
  0
LINE
  5
44E
100
AcDbEntity
  8
6_ALL_SURFS
100
AcDbLine
 62
7
  6
CONTINUOUS
 10
2794.9464629811
 20
1462.0867641302
 11
2914.1813994716
 21
1462.0867641302
  0
LINE
  5
44F
100
AcDbEntity
  8
6_ALL_SURFS
100
AcDbLine
 62
7
  6
CONTINUOUS
 10
667.1813994716
 20
1464.4867641302
 11
785.8865306789
 21
1464.4867641302
  0
LINE
  5
450
100
AcDbEntity
  8
6_ALL_SURFS
100
AcDbLine
 62
7
  6
CONTINUOUS
 10
795.4762682644
 20
1464.4867641302
 11
1035.8865306789
 21
1464.4867641302
  0
LINE
  5
451
100
AcDbEntity
  8
6_ALL_SURFS
100
AcDbLine
 62
7
  6
CONTINUOUS
 10
1045.4762682644
 20
1464.4867641302
 11
1285.8865306789
 21
1464.4867641302
  0
LINE
  5
452
100
AcDbEntity
  8
6_ALL_SURFS
100
AcDbLine
 62
7
  6
CONTINUOUS
 10
1295.4762682644
 20
1464.4867641302
 11
1535.8865306789
 21
1464.4867641302
  0
LINE
  5
453
100
AcDbEntity
  8
6_ALL_SURFS
100
AcDbLine
 62
7
  6
CONTINUOUS
 10
1545.4762682644
 20
1464.4867641302
 11
1785.8865306789
 21
1464.4867641302
  0
LINE
  5
454
100
AcDbEntity
  8
6_ALL_SURFS
100
AcDbLine
 62
7
  6
CONTINUOUS
 10
1795.4762682644
 20
1464.4867641302
 11
2035.8865306789
 21
1464.4867641302
  0
LINE
  5
455
100
AcDbEntity
  8
6_ALL_SURFS
100
AcDbLine
 62
7
  6
CONTINUOUS
 10
2045.4762682644
 20
1464.4867641302
 11
2285.8865306789
 21
1464.4867641302
  0
LINE
  5
456
100
AcDbEntity
  8
6_ALL_SURFS
100
AcDbLine
 62
7
  6
CONTINUOUS
 10
2295.4762682644
 20
1464.4867641302
 11
2535.8865306789
 21
1464.4867641302
  0
LINE
  5
457
100
AcDbEntity
  8
6_ALL_SURFS
100
AcDbLine
 62
7
  6
CONTINUOUS
 10
2545.4762682644
 20
1464.4867641302
 11
2785.8865306789
 21
1464.4867641302
  0
LINE
  5
458
100
AcDbEntity
  8
6_ALL_SURFS
100
AcDbLine
 62
7
  6
CONTINUOUS
 10
2795.4762682644
 20
1464.4867641302
 11
2914.1813994716
 21
1464.4867641302
  0
LINE
  5
459
100
AcDbEntity
  8
6_ALL_SURFS
100
AcDbLine
 62
7
  6
CONTINUOUS
 10
667.1813994716
 20
1465.0867641302
 11
785.9495111868
 21
1465.0867641302
  0
LINE
  5
45A
100
AcDbEntity
  8
6_ALL_SURFS
100
AcDbLine
 62
7
  6
CONTINUOUS
 10
795.4132877564
 20
1465.0867641302
 11
1035.9495111868
 21
1465.0867641302
  0
LINE
  5
45B
100
AcDbEntity
  8
6_ALL_SURFS
100
AcDbLine
 62
7
  6
CONTINUOUS
 10
1045.4132877564
 20
1465.0867641302
 11
1285.9495111868
 21
1465.0867641302
  0
LINE
  5
45C
100
AcDbEntity
  8
6_ALL_SURFS
100
AcDbLine
 62
7
  6
CONTINUOUS
 10
1295.4132877564
 20
1465.0867641302
 11
1535.9495111868
 21
1465.0867641302
  0
LINE
  5
45D
100
AcDbEntity
  8
6_ALL_SURFS
100
AcDbLine
 62
7
  6
CONTINUOUS
 10
1545.4132877564
 20
1465.0867641302
 11
1785.9495111868
 21
1465.0867641302
  0
LINE
  5
45E
100
AcDbEntity
  8
6_ALL_SURFS
100
AcDbLine
 62
7
  6
CONTINUOUS
 10
1795.4132877564
 20
1465.0867641302
 11
2035.9495111868
 21
1465.0867641302
  0
LINE
  5
45F
100
AcDbEntity
  8
6_ALL_SURFS
100
AcDbLine
 62
7
  6
CONTINUOUS
 10
2045.4132877564
 20
1465.0867641302
 11
2285.9495111868
 21
1465.0867641302
  0
LINE
  5
460
100
AcDbEntity
  8
6_ALL_SURFS
100
AcDbLine
 62
7
  6
CONTINUOUS
 10
2295.4132877564
 20
1465.0867641302
 11
2535.9495111868
 21
1465.0867641302
  0
LINE
  5
461
100
AcDbEntity
  8
6_ALL_SURFS
100
AcDbLine
 62
7
  6
CONTINUOUS
 10
2545.4132877564
 20
1465.0867641302
 11
2785.9495111868
 21
1465.0867641302
  0
LINE
  5
462
100
AcDbEntity
  8
6_ALL_SURFS
100
AcDbLine
 62
7
  6
CONTINUOUS
 10
2795.4132877564
 20
1465.0867641302
 11
2914.1813994716
 21
1465.0867641302
  0
LINE
  5
463
100
AcDbEntity
  8
6_ALL_SURFS
100
AcDbLine
 62
7
  6
CONTINUOUS
 10
667.1813994716
 20
1467.7867641302
 11
787.3979916779
 21
1467.7867641302
  0
LINE
  5
464
100
AcDbEntity
  8
6_ALL_SURFS
100
AcDbLine
 62
7
  6
CONTINUOUS
 10
793.9648072653
 20
1467.7867641302
 11
1037.3979916779
 21
1467.7867641302
  0
LINE
  5
465
100
AcDbEntity
  8
6_ALL_SURFS
100
AcDbLine
 62
7
  6
CONTINUOUS
 10
1043.9648072653
 20
1467.7867641302
 11
1287.3979916779
 21
1467.7867641302
  0
LINE
  5
466
100
AcDbEntity
  8
6_ALL_SURFS
100
AcDbLine
 62
7
  6
CONTINUOUS
 10
1293.9648072653
 20
1467.7867641302
 11
1537.3979916779
 21
1467.7867641302
  0
LINE
  5
467
100
AcDbEntity
  8
6_ALL_SURFS
100
AcDbLine
 62
7
  6
CONTINUOUS
 10
1543.9648072653
 20
1467.7867641302
 11
1787.3979916779
 21
1467.7867641302
  0
LINE
  5
468
100
AcDbEntity
  8
6_ALL_SURFS
100
AcDbLine
 62
7
  6
CONTINUOUS
 10
1793.9648072653
 20
1467.7867641302
 11
2037.3979916779
 21
1467.7867641302
  0
LINE
  5
469
100
AcDbEntity
  8
6_ALL_SURFS
100
AcDbLine
 62
7
  6
CONTINUOUS
 10
2043.9648072653
 20
1467.7867641302
 11
2287.3979916779
 21
1467.7867641302
  0
LINE
  5
46A
100
AcDbEntity
  8
6_ALL_SURFS
100
AcDbLine
 62
7
  6
CONTINUOUS
 10
2293.9648072653
 20
1467.7867641302
 11
2537.3979916779
 21
1467.7867641302
  0
LINE
  5
46B
100
AcDbEntity
  8
6_ALL_SURFS
100
AcDbLine
 62
7
  6
CONTINUOUS
 10
2543.9648072653
 20
1467.7867641302
 11
2787.3979916779
 21
1467.7867641302
  0
LINE
  5
46C
100
AcDbEntity
  8
6_ALL_SURFS
100
AcDbLine
 62
7
  6
CONTINUOUS
 10
2793.9648072653
 20
1467.7867641302
 11
2914.1813994716
 21
1467.7867641302
  0
LINE
  5
46D
100
AcDbEntity
  8
6_ALL_SURFS
100
AcDbLine
 62
9
  6
CONTINUOUS
 10
667.1813994716
 20
1469.9322357206
 11
2914.1813994716
 21
1469.9322357206
  0
LINE
  5
46E
100
AcDbEntity
  8
6_ALL_SURFS
100
AcDbLine
 62
7
  6
CONTINUOUS
 10
2914.1813994716
 20
1470.2867641302
 11
667.1813994716
 21
1470.2867641302
  0
LINE
  5
46F
100
AcDbEntity
  8
3_ALL_AXES
100
AcDbLine
 62
7
  6
CONTINUOUS
 10
2916.630679142
 20
1450.1867641302
 11
2915.6813994716
 21
1449.3902239089
  0
LINE
  5
470
100
AcDbEntity
  8
3_ALL_AXES
100
AcDbLine
 62
7
  6
CONTINUOUS
 10
2916.630679142
 20
1441.0367641302
 11
2915.6813994716
 21
1440.2402239089
  0
LINE
  5
471
100
AcDbEntity
  8
3_ALL_AXES
100
AcDbLine
 62
7
  6
CONTINUOUS
 10
2916.630679142
 20
1395.1367641302
 11
2915.6813994716
 21
1394.3402239089
  0
LINE
  5
472
100
AcDbEntity
  8
3_ALL_AXES
100
AcDbLine
 62
7
  6
CONTINUOUS
 10
2916.630679142
 20
1385.9867641302
 11
2915.6813994716
 21
1385.1902239089
  0
LINE
  5
473
100
AcDbEntity
  8
3_ALL_AXES
100
AcDbLine
 62
7
  6
CONTINUOUS
 10
2916.630679142
 20
1380.4867641302
 11
2915.6813994716
 21
1381.2833043515
  0
LINE
  5
474
100
AcDbEntity
  8
3_ALL_AXES
100
AcDbLine
 62
7
  6
CONTINUOUS
 10
2916.630679142
 20
1389.6367641302
 11
2915.6813994716
 21
1390.4333043515
  0
LINE
  5
475
100
AcDbEntity
  8
3_ALL_AXES
100
AcDbLine
 62
7
  6
CONTINUOUS
 10
2916.630679142
 20
1435.5367641302
 11
2915.6813994716
 21
1436.3333043515
  0
LINE
  5
476
100
AcDbEntity
  8
3_ALL_AXES
100
AcDbLine
 62
7
  6
CONTINUOUS
 10
2916.630679142
 20
1444.6867641302
 11
2915.6813994716
 21
1445.4833043515
  0
LINE
  5
477
100
AcDbEntity
  8
7_ALL_FEATURES
100
AcDbLine
 62
7
  6
CONTINUOUS
 10
2912.9313994716
 20
1448.6367641302
 11
2912.9313994716
 21
1382.0367641302
  0
LINE
  5
478
100
AcDbEntity
  8
7_ALL_FEATURES
100
AcDbLine
 62
7
  6
CONTINUOUS
 10
2914.1813994716
 20
1450.3867641302
 11
2914.1813994716
 21
1449.8844734267
  0
LINE
  5
479
100
AcDbEntity
  8
7_ALL_FEATURES
100
AcDbLine
 62
7
  6
CONTINUOUS
 10
2914.1813994716
 20
1449.7207374873
 11
2914.1813994716
 21
1378.1867641302
  0
LINE
  5
47A
100
AcDbEntity
  8
6_ALL_SURFS
100
AcDbLine
 62
7
  6
CONTINUOUS
 10
2914.1813994716
 20
1378.1867641302
 11
2914.1813994716
 21
1362.8867641302
  0
LINE
  5
47B
100
AcDbEntity
  8
7_ALL_FEATURES
100
AcDbLine
 62
7
  6
CONTINUOUS
 10
2914.1813994716
 20
1362.8867641302
 11
2914.1813994716
 21
1360.3867793465
  0
LINE
  5
47C
100
AcDbEntity
  8
6_ALL_SURFS
100
AcDbLine
 62
7
  6
CONTINUOUS
 10
2914.1813994716
 20
1449.0867641302
 11
2914.1813994716
 21
1449.8948180972
  0
LINE
  5
47D
100
AcDbEntity
  8
6_ALL_SURFS
100
AcDbLine
 62
7
  6
CONTINUOUS
 10
2914.1813994716
 20
1450.3867641302
 11
2914.1813994716
 21
1470.2867489139
  0
LINE
  5
47E
100
AcDbEntity
  8
7_ALL_FEATURES
100
AcDbLine
 62
7
  6
CONTINUOUS
 10
2915.6813994716
 20
1450.3867641302
 11
2915.6813994716
 21
1380.2867641302
  0
LINE
  5
47F
100
AcDbEntity
  8
3_ALL_AXES
100
AcDbLine
 62
7
  6
CONTINUOUS
 10
2916.630679142
 20
1380.4867641302
 11
2916.630679142
 21
1385.9867641302
  0
LINE
  5
480
100
AcDbEntity
  8
3_ALL_AXES
100
AcDbLine
 62
7
  6
CONTINUOUS
 10
2916.630679142
 20
1389.6367641302
 11
2916.630679142
 21
1395.1367641302
  0
LINE
  5
481
100
AcDbEntity
  8
3_ALL_AXES
100
AcDbLine
 62
7
  6
CONTINUOUS
 10
2916.630679142
 20
1435.5367641302
 11
2916.630679142
 21
1441.0367641302
  0
LINE
  5
482
100
AcDbEntity
  8
3_ALL_AXES
100
AcDbLine
 62
7
  6
CONTINUOUS
 10
2916.630679142
 20
1444.6867641302
 11
2916.630679142
 21
1450.1867641302
  0
LINE
  5
483
100
AcDbEntity
  8
3_ALL_AXES
100
AcDbLine
 62
7
  6
CONTINUOUS
 10
2916.7813994716
 20
1380.4867641302
 11
2916.7813994716
 21
1385.9867641302
  0
LINE
  5
484
100
AcDbEntity
  8
3_ALL_AXES
100
AcDbLine
 62
7
  6
CONTINUOUS
 10
2916.7813994716
 20
1389.6367641302
 11
2916.7813994716
 21
1395.1367641302
  0
LINE
  5
485
100
AcDbEntity
  8
3_ALL_AXES
100
AcDbLine
 62
7
  6
CONTINUOUS
 10
2916.7813994716
 20
1435.5367641302
 11
2916.7813994716
 21
1441.0367641302
  0
LINE
  5
486
100
AcDbEntity
  8
3_ALL_AXES
100
AcDbLine
 62
7
  6
CONTINUOUS
 10
2916.7813994716
 20
1444.6867641302
 11
2916.7813994716
 21
1450.1867641302
  0
CIRCLE
  5
487
100
AcDbEntity
  8
3_ALL_AXES
100
AcDbCircle
 62
7
  6
CONTINUOUS
 10
351.9804668443
 20
757.1928392659
 40
2.75
  0
ARC
  5
488
100
AcDbEntity
  8
6_ALL_SURFS
100
AcDbCircle
 62
7
  6
CONTINUOUS
 10
350.6804668443
 20
744.194765196
 40
2.15
100
AcDbArc
 50
140.38727379
 51
219.61272621
  0
ARC
  5
489
100
AcDbEntity
  8
6_ALL_SURFS
100
AcDbCircle
 62
7
  6
CONTINUOUS
 10
350.4304668443
 20
763.0928392659
 40
1.5
100
AcDbArc
 50
270.0
 51
360.0
  0
ARC
  5
48A
100
AcDbEntity
  8
6_ALL_SURFS
100
AcDbCircle
 62
7
  6
CONTINUOUS
 10
349.7804668443
 20
760.8428392659
 40
0.75
100
AcDbArc
 50
90.0
 51
180.0
  0
ARC
  5
48B
100
AcDbEntity
  8
7_ALL_FEATURES
100
AcDbCircle
 62
7
  6
CONTINUOUS
 10
349.7804668443
 20
730.9428392659
 40
0.75
100
AcDbArc
 50
180.0
 51
270.0
  0
ARC
  5
48C
100
AcDbEntity
  8
6_ALL_SURFS
100
AcDbCircle
 62
7
  6
CONTINUOUS
 10
334.6304668443
 20
731.2928392659
 40
0.5
100
AcDbArc
 50
53.1301023542
 51
126.8698976458
  0
ARC
  5
48D
100
AcDbEntity
  8
6_ALL_SURFS
100
AcDbCircle
 62
7
  6
CONTINUOUS
 10
337.6304668443
 20
731.2928392659
 40
0.5
100
AcDbArc
 50
53.1301023542
 51
126.8698976458
  0
ARC
  5
48E
100
AcDbEntity
  8
6_ALL_SURFS
100
AcDbCircle
 62
7
  6
CONTINUOUS
 10
340.6304668443
 20
731.2928392659
 40
0.5
100
AcDbArc
 50
53.1301023542
 51
126.8698976458
  0
ARC
  5
48F
100
AcDbEntity
  8
6_ALL_SURFS
100
AcDbCircle
 62
7
  6
CONTINUOUS
 10
343.6304668443
 20
731.2928392659
 40
0.5
100
AcDbArc
 50
53.1301023542
 51
126.8698976458
  0
ARC
  5
490
100
AcDbEntity
  8
6_ALL_SURFS
100
AcDbCircle
 62
7
  6
CONTINUOUS
 10
346.6304668443
 20
731.2928392659
 40
0.5
100
AcDbArc
 50
53.1301023542
 51
126.8698976458
  0
ARC
  5
491
100
AcDbEntity
  8
6_ALL_SURFS
100
AcDbCircle
 62
7
  6
CONTINUOUS
 10
329.5241702022
 20
732.2991359079
 40
0.3937033579
100
AcDbArc
 50
90.0
 51
264.2894068625
  0
ARC
  5
492
100
AcDbEntity
  8
6_ALL_SURFS
100
AcDbCircle
 62
7
  6
CONTINUOUS
 10
349.6804668443
 20
730.4928392659
 40
0.3
100
AcDbArc
 50
237.8009271307
 51
270.0
  0
ARC
  5
493
100
AcDbEntity
  8
6_ALL_SURFS
100
AcDbCircle
 62
7
  6
CONTINUOUS
 10
348.8304668443
 20
732.9928392659
 40
0.3
100
AcDbArc
 50
270.0
 51
312.0875275651
  0
ARC
  5
494
100
AcDbEntity
  8
6_ALL_SURFS
100
AcDbCircle
 62
7
  6
CONTINUOUS
 10
356.9304668443
 20
795.570112806
 40
5.0
100
AcDbArc
 50
167.4878142167
 51
180.0
  0
CIRCLE
  5
495
100
AcDbEntity
  8
3_ALL_AXES
100
AcDbCircle
 62
7
  6
CONTINUOUS
 10
361.1304668443
 20
817.9428392659
 40
2.75
  0
ARC
  5
496
100
AcDbEntity
  8
6_ALL_SURFS
100
AcDbCircle
 62
7
  6
CONTINUOUS
 10
353.4304668443
 20
795.4127308866
 40
1.5
100
AcDbArc
 50
168.8118414334
 51
180.0
  0
ARC
  5
497
100
AcDbEntity
  8
6_ALL_SURFS
100
AcDbCircle
 62
7
  6
CONTINUOUS
 10
381.9804668443
 20
819.6928392659
 40
1.5
100
AcDbArc
 50
90.0
 51
101.4075829131
  0
ARC
  5
498
100
AcDbEntity
  8
6_ALL_SURFS
100
AcDbCircle
 62
7
  6
CONTINUOUS
 10
381.4347155332
 20
820.1928392659
 40
1.0
100
AcDbArc
 50
48.5903778907
 51
90.0
  0
ARC
  5
499
100
AcDbEntity
  8
7_ALL_FEATURES
100
AcDbCircle
 62
7
  6
CONTINUOUS
 10
357.5287803901
 20
820.4428392659
 40
0.75
100
AcDbArc
 50
90.0
 51
169.0055723475
  0
ARC
  5
49A
100
AcDbEntity
  8
7_ALL_FEATURES
100
AcDbCircle
 62
7
  6
CONTINUOUS
 10
357.6166564728
 20
820.4428392659
 40
0.75
100
AcDbArc
 50
90.0
 51
168.8118414334
  0
CIRCLE
  5
49B
100
AcDbEntity
  8
3_ALL_AXES
100
AcDbCircle
 62
7
  6
CONTINUOUS
 10
416.1804668443
 20
757.1928392659
 40
2.75
  0
ARC
  5
49C
100
AcDbEntity
  8
7_ALL_FEATURES
100
AcDbCircle
 62
7
  6
CONTINUOUS
 10
417.4804668443
 20
744.194765196
 40
2.15
100
AcDbArc
 50
320.38727379
 51
39.61272621
  0
ARC
  5
49D
100
AcDbEntity
  8
6_ALL_SURFS
100
AcDbCircle
 62
7
  6
CONTINUOUS
 10
417.7304668443
 20
763.0928392659
 40
1.5
100
AcDbArc
 50
180.0
 51
270.0
  0
ARC
  5
49E
100
AcDbEntity
  8
7_ALL_FEATURES
100
AcDbCircle
 62
7
  6
CONTINUOUS
 10
418.3804668443
 20
730.9428392659
 40
0.75
100
AcDbArc
 50
270.0
 51
360.0
  0
ARC
  5
49F
100
AcDbEntity
  8
6_ALL_SURFS
100
AcDbCircle
 62
7
  6
CONTINUOUS
 10
418.3804668443
 20
760.8428392659
 40
0.75
100
AcDbArc
 50
0.0
 51
90.0
  0
ARC
  5
4A0
100
AcDbEntity
  8
6_ALL_SURFS
100
AcDbCircle
 62
7
  6
CONTINUOUS
 10
421.5304668443
 20
731.2928392659
 40
0.5
100
AcDbArc
 50
53.1301023542
 51
126.8698976458
  0
ARC
  5
4A1
100
AcDbEntity
  8
6_ALL_SURFS
100
AcDbCircle
 62
7
  6
CONTINUOUS
 10
424.5304668443
 20
731.2928392659
 40
0.5
100
AcDbArc
 50
53.1301023542
 51
126.8698976458
  0
ARC
  5
4A2
100
AcDbEntity
  8
6_ALL_SURFS
100
AcDbCircle
 62
7
  6
CONTINUOUS
 10
427.5304668443
 20
731.2928392659
 40
0.5
100
AcDbArc
 50
53.1301023542
 51
126.8698976458
  0
ARC
  5
4A3
100
AcDbEntity
  8
6_ALL_SURFS
100
AcDbCircle
 62
7
  6
CONTINUOUS
 10
430.5304668443
 20
731.2928392659
 40
0.5
100
AcDbArc
 50
53.1301023542
 51
126.8698976458
  0
ARC
  5
4A4
100
AcDbEntity
  8
6_ALL_SURFS
100
AcDbCircle
 62
7
  6
CONTINUOUS
 10
433.5304668443
 20
731.2928392659
 40
0.5
100
AcDbArc
 50
53.1301023542
 51
126.8698976458
  0
ARC
  5
4A5
100
AcDbEntity
  8
7_ALL_FEATURES
100
AcDbCircle
 62
7
  6
CONTINUOUS
 10
438.6367634864
 20
732.2991359079
 40
0.3937033579
100
AcDbArc
 50
275.7105931375
 51
90.0
  0
ARC
  5
4A6
100
AcDbEntity
  8
7_ALL_FEATURES
100
AcDbCircle
 62
7
  6
CONTINUOUS
 10
419.3304668443
 20
732.9928392659
 40
0.3
100
AcDbArc
 50
227.9124724349
 51
270.0
  0
ARC
  5
4A7
100
AcDbEntity
  8
7_ALL_FEATURES
100
AcDbCircle
 62
7
  6
CONTINUOUS
 10
418.4804668443
 20
730.4928392659
 40
0.3
100
AcDbArc
 50
270.0
 51
302.1990728693
  0
ARC
  5
4A8
100
AcDbEntity
  8
6_ALL_SURFS
100
AcDbCircle
 62
7
  6
CONTINUOUS
 10
384.0804668443
 20
802.1928392659
 40
11.0
100
AcDbArc
 50
3.257196161
 51
176.742803839
  0
ARC
  5
4A9
100
AcDbEntity
  8
6_ALL_SURFS
100
AcDbCircle
 62
7
  6
CONTINUOUS
 10
384.0804668443
 20
802.1928392659
 40
11.0
100
AcDbArc
 50
183.257196161
 51
356.742803839
  0
ARC
  5
4AA
100
AcDbEntity
  8
6_ALL_SURFS
100
AcDbCircle
 62
7
  6
CONTINUOUS
 10
384.0804668443
 20
802.1928392659
 40
10.25
100
AcDbArc
 50
3.4958136324
 51
176.5041863676
  0
ARC
  5
4AB
100
AcDbEntity
  8
6_ALL_SURFS
100
AcDbCircle
 62
7
  6
CONTINUOUS
 10
384.0804668443
 20
802.1928392659
 40
10.25
100
AcDbArc
 50
183.4958136324
 51
356.5041863676
  0
ARC
  5
4AC
100
AcDbEntity
  8
7_ALL_FEATURES
100
AcDbCircle
 62
7
  6
CONTINUOUS
 10
411.2304668443
 20
795.570112806
 40
5.0
100
AcDbArc
 50
0.0
 51
12.5121857833
  0
ARC
  5
4AD
100
AcDbEntity
  8
6_ALL_SURFS
100
AcDbCircle
 62
7
  6
CONTINUOUS
 10
384.0804668443
 20
823.1928392659
 40
3.0
100
AcDbArc
 50
228.5903778907
 51
311.4096221093
  0
CIRCLE
  5
4AE
100
AcDbEntity
  8
3_ALL_AXES
100
AcDbCircle
 62
7
  6
CONTINUOUS
 10
407.0304668443
 20
817.9428392659
 40
2.75
  0
ARC
  5
4AF
100
AcDbEntity
  8
7_ALL_FEATURES
100
AcDbCircle
 62
7
  6
CONTINUOUS
 10
414.7304668443
 20
795.4175682745
 40
1.5
100
AcDbArc
 50
0.0
 51
9.6155456361
  0
ARC
  5
4B0
100
AcDbEntity
  8
7_ALL_FEATURES
100
AcDbCircle
 62
7
  6
CONTINUOUS
 10
386.1804668443
 20
819.6928392659
 40
1.5
100
AcDbArc
 50
78.5924170869
 51
90.0
  0
ARC
  5
4B1
100
AcDbEntity
  8
6_ALL_SURFS
100
AcDbCircle
 62
7
  6
CONTINUOUS
 10
386.7262181553
 20
820.1928392659
 40
1.0
100
AcDbArc
 50
90.0
 51
131.4096221093
  0
ARC
  5
4B2
100
AcDbEntity
  8
7_ALL_FEATURES
100
AcDbCircle
 62
7
  6
CONTINUOUS
 10
410.6321532984
 20
820.4428392659
 40
0.75
100
AcDbArc
 50
10.9944276525
 51
90.0
  0
ARC
  5
4B3
100
AcDbEntity
  8
7_ALL_FEATURES
100
AcDbCircle
 62
7
  6
CONTINUOUS
 10
790.6813994716
 20
1366.3867641302
 40
4.7990381057
100
AcDbArc
 50
189.5960093944
 51
226.828815981
  0
ARC
  5
4B4
100
AcDbEntity
  8
7_ALL_FEATURES
100
AcDbCircle
 62
7
  6
CONTINUOUS
 10
1040.6813994716
 20
1366.3867641302
 40
4.7990381057
100
AcDbArc
 50
189.5960093944
 51
226.828815981
  0
ARC
  5
4B5
100
AcDbEntity
  8
7_ALL_FEATURES
100
AcDbCircle
 62
7
  6
CONTINUOUS
 10
790.6813994716
 20
1366.3867641302
 40
4.7990381057
100
AcDbArc
 50
313.171184019
 51
350.4039906056
  0
ARC
  5
4B6
100
AcDbEntity
  8
7_ALL_FEATURES
100
AcDbCircle
 62
7
  6
CONTINUOUS
 10
1290.6813994716
 20
1366.3867641302
 40
4.7990381057
100
AcDbArc
 50
189.5960093944
 51
226.828815981
  0
ARC
  5
4B7
100
AcDbEntity
  8
7_ALL_FEATURES
100
AcDbCircle
 62
7
  6
CONTINUOUS
 10
1040.6813994716
 20
1366.3867641302
 40
4.7990381057
100
AcDbArc
 50
313.171184019
 51
350.4039906056
  0
ARC
  5
4B8
100
AcDbEntity
  8
7_ALL_FEATURES
100
AcDbCircle
 62
7
  6
CONTINUOUS
 10
1540.6813994716
 20
1366.3867641302
 40
4.7990381057
100
AcDbArc
 50
189.5960093944
 51
226.828815981
  0
ARC
  5
4B9
100
AcDbEntity
  8
7_ALL_FEATURES
100
AcDbCircle
 62
7
  6
CONTINUOUS
 10
1290.6813994716
 20
1366.3867641302
 40
4.7990381057
100
AcDbArc
 50
313.171184019
 51
350.4039906056
  0
ARC
  5
4BA
100
AcDbEntity
  8
7_ALL_FEATURES
100
AcDbCircle
 62
7
  6
CONTINUOUS
 10
1540.6813994716
 20
1366.3867641302
 40
4.7990381057
100
AcDbArc
 50
313.171184019
 51
350.4039906056
  0
ARC
  5
4BB
100
AcDbEntity
  8
7_ALL_FEATURES
100
AcDbCircle
 62
7
  6
CONTINUOUS
 10
790.6813994716
 20
1366.3867641302
 40
4.7990381057
100
AcDbArc
 50
152.7144649101
 51
182.3884943821
  0
ARC
  5
4BC
100
AcDbEntity
  8
7_ALL_FEATURES
100
AcDbCircle
 62
7
  6
CONTINUOUS
 10
1040.6813994716
 20
1366.3867641302
 40
4.7990381057
100
AcDbArc
 50
152.7144649101
 51
182.3884943821
  0
ARC
  5
4BD
100
AcDbEntity
  8
7_ALL_FEATURES
100
AcDbCircle
 62
7
  6
CONTINUOUS
 10
790.6813994716
 20
1366.3867641302
 40
4.7990381057
100
AcDbArc
 50
357.6115056179
 51
27.2855350899
  0
ARC
  5
4BE
100
AcDbEntity
  8
7_ALL_FEATURES
100
AcDbCircle
 62
7
  6
CONTINUOUS
 10
1290.6813994716
 20
1366.3867641302
 40
4.7990381057
100
AcDbArc
 50
152.7144649101
 51
182.3884943821
  0
ARC
  5
4BF
100
AcDbEntity
  8
7_ALL_FEATURES
100
AcDbCircle
 62
7
  6
CONTINUOUS
 10
1040.6813994716
 20
1366.3867641302
 40
4.7990381057
100
AcDbArc
 50
357.6115056179
 51
27.2855350899
  0
ARC
  5
4C0
100
AcDbEntity
  8
7_ALL_FEATURES
100
AcDbCircle
 62
7
  6
CONTINUOUS
 10
1540.6813994716
 20
1366.3867641302
 40
4.7990381057
100
AcDbArc
 50
152.7144649101
 51
182.3884943821
  0
ARC
  5
4C1
100
AcDbEntity
  8
7_ALL_FEATURES
100
AcDbCircle
 62
7
  6
CONTINUOUS
 10
1290.6813994716
 20
1366.3867641302
 40
4.7990381057
100
AcDbArc
 50
357.6115056179
 51
27.2855350899
  0
ARC
  5
4C2
100
AcDbEntity
  8
7_ALL_FEATURES
100
AcDbCircle
 62
7
  6
CONTINUOUS
 10
1540.6813994716
 20
1366.3867641302
 40
4.7990381057
100
AcDbArc
 50
357.6115056179
 51
27.2855350899
  0
ARC
  5
4C3
100
AcDbEntity
  8
7_ALL_FEATURES
100
AcDbCircle
 62
7
  6
CONTINUOUS
 10
1040.6813994716
 20
1366.3867641302
 40
4.7990381057
100
AcDbArc
 50
35.6935828234
 51
144.3064171766
  0
ARC
  5
4C4
100
AcDbEntity
  8
7_ALL_FEATURES
100
AcDbCircle
 62
7
  6
CONTINUOUS
 10
1290.6813994716
 20
1366.3867641302
 40
4.7990381057
100
AcDbArc
 50
35.6935828234
 51
144.3064171766
  0
ARC
  5
4C5
100
AcDbEntity
  8
7_ALL_FEATURES
100
AcDbCircle
 62
7
  6
CONTINUOUS
 10
1540.6813994716
 20
1366.3867641302
 40
4.7990381057
100
AcDbArc
 50
35.6935828234
 51
144.3064171766
  0
ARC
  5
4C6
100
AcDbEntity
  8
7_ALL_FEATURES
100
AcDbCircle
 62
7
  6
CONTINUOUS
 10
790.6813994716
 20
1366.3867641302
 40
4.7990381057
100
AcDbArc
 50
35.6935828234
 51
144.3064171766
  0
CIRCLE
  5
4C7
100
AcDbEntity
  8
6_ALL_SURFS
100
AcDbCircle
 62
7
  6
CONTINUOUS
 10
790.6813994716
 20
1366.3867641302
 40
3.5
  0
CIRCLE
  5
4C8
100
AcDbEntity
  8
6_ALL_SURFS
100
AcDbCircle
 62
7
  6
CONTINUOUS
 10
1040.6813994716
 20
1366.3867641302
 40
3.5
  0
CIRCLE
  5
4C9
100
AcDbEntity
  8
6_ALL_SURFS
100
AcDbCircle
 62
7
  6
CONTINUOUS
 10
1290.6813994716
 20
1366.3867641302
 40
3.5
  0
CIRCLE
  5
4CA
100
AcDbEntity
  8
6_ALL_SURFS
100
AcDbCircle
 62
7
  6
CONTINUOUS
 10
1540.6813994716
 20
1366.3867641302
 40
3.5
  0
ARC
  5
4CB
100
AcDbEntity
  8
6_ALL_SURFS
100
AcDbCircle
 62
7
  6
CONTINUOUS
 10
1540.6813994716
 20
1464.2867641302
 40
4.7990381057
100
AcDbArc
 50
9.5960093944
 51
46.828815981
  0
ARC
  5
4CC
100
AcDbEntity
  8
6_ALL_SURFS
100
AcDbCircle
 62
7
  6
CONTINUOUS
 10
1290.6813994716
 20
1464.2867641302
 40
4.7990381057
100
AcDbArc
 50
9.5960093944
 51
46.828815981
  0
ARC
  5
4CD
100
AcDbEntity
  8
6_ALL_SURFS
100
AcDbCircle
 62
7
  6
CONTINUOUS
 10
1540.6813994716
 20
1464.2867641302
 40
4.7990381057
100
AcDbArc
 50
133.171184019
 51
170.4039906056
  0
ARC
  5
4CE
100
AcDbEntity
  8
6_ALL_SURFS
100
AcDbCircle
 62
7
  6
CONTINUOUS
 10
1040.6813994716
 20
1464.2867641302
 40
4.7990381057
100
AcDbArc
 50
9.5960093944
 51
46.828815981
  0
ARC
  5
4CF
100
AcDbEntity
  8
6_ALL_SURFS
100
AcDbCircle
 62
7
  6
CONTINUOUS
 10
1290.6813994716
 20
1464.2867641302
 40
4.7990381057
100
AcDbArc
 50
133.171184019
 51
170.4039906056
  0
ARC
  5
4D0
100
AcDbEntity
  8
6_ALL_SURFS
100
AcDbCircle
 62
7
  6
CONTINUOUS
 10
790.6813994716
 20
1464.2867641302
 40
4.7990381057
100
AcDbArc
 50
9.5960093944
 51
46.828815981
  0
ARC
  5
4D1
100
AcDbEntity
  8
6_ALL_SURFS
100
AcDbCircle
 62
7
  6
CONTINUOUS
 10
1040.6813994716
 20
1464.2867641302
 40
4.7990381057
100
AcDbArc
 50
133.171184019
 51
170.4039906056
  0
ARC
  5
4D2
100
AcDbEntity
  8
6_ALL_SURFS
100
AcDbCircle
 62
7
  6
CONTINUOUS
 10
790.6813994716
 20
1464.2867641302
 40
4.7990381057
100
AcDbArc
 50
133.171184019
 51
170.4039906056
  0
ARC
  5
4D3
100
AcDbEntity
  8
6_ALL_SURFS
100
AcDbCircle
 62
7
  6
CONTINUOUS
 10
1040.6813994716
 20
1464.2867641302
 40
4.7990381057
100
AcDbArc
 50
215.6935828234
 51
324.3064171766
  0
ARC
  5
4D4
100
AcDbEntity
  8
6_ALL_SURFS
100
AcDbCircle
 62
7
  6
CONTINUOUS
 10
1290.6813994716
 20
1464.2867641302
 40
4.7990381057
100
AcDbArc
 50
215.6935828234
 51
324.3064171766
  0
ARC
  5
4D5
100
AcDbEntity
  8
6_ALL_SURFS
100
AcDbCircle
 62
7
  6
CONTINUOUS
 10
1540.6813994716
 20
1464.2867641302
 40
4.7990381057
100
AcDbArc
 50
215.6935828234
 51
324.3064171766
  0
ARC
  5
4D6
100
AcDbEntity
  8
6_ALL_SURFS
100
AcDbCircle
 62
7
  6
CONTINUOUS
 10
790.6813994716
 20
1464.2867641302
 40
4.7990381057
100
AcDbArc
 50
215.6935828234
 51
324.3064171766
  0
ARC
  5
4D7
100
AcDbEntity
  8
6_ALL_SURFS
100
AcDbCircle
 62
7
  6
CONTINUOUS
 10
1540.6813994716
 20
1464.2867641302
 40
4.7990381057
100
AcDbArc
 50
332.7144649101
 51
2.3884943821
  0
ARC
  5
4D8
100
AcDbEntity
  8
6_ALL_SURFS
100
AcDbCircle
 62
7
  6
CONTINUOUS
 10
1290.6813994716
 20
1464.2867641302
 40
4.7990381057
100
AcDbArc
 50
332.7144649101
 51
2.3884943821
  0
ARC
  5
4D9
100
AcDbEntity
  8
6_ALL_SURFS
100
AcDbCircle
 62
7
  6
CONTINUOUS
 10
1540.6813994716
 20
1464.2867641302
 40
4.7990381057
100
AcDbArc
 50
177.6115056179
 51
207.2855350899
  0
ARC
  5
4DA
100
AcDbEntity
  8
6_ALL_SURFS
100
AcDbCircle
 62
7
  6
CONTINUOUS
 10
1040.6813994716
 20
1464.2867641302
 40
4.7990381057
100
AcDbArc
 50
332.7144649101
 51
2.3884943821
  0
ARC
  5
4DB
100
AcDbEntity
  8
6_ALL_SURFS
100
AcDbCircle
 62
7
  6
CONTINUOUS
 10
1290.6813994716
 20
1464.2867641302
 40
4.7990381057
100
AcDbArc
 50
177.6115056179
 51
207.2855350899
  0
ARC
  5
4DC
100
AcDbEntity
  8
6_ALL_SURFS
100
AcDbCircle
 62
7
  6
CONTINUOUS
 10
790.6813994716
 20
1464.2867641302
 40
4.7990381057
100
AcDbArc
 50
332.7144649101
 51
2.3884943821
  0
ARC
  5
4DD
100
AcDbEntity
  8
6_ALL_SURFS
100
AcDbCircle
 62
7
  6
CONTINUOUS
 10
1040.6813994716
 20
1464.2867641302
 40
4.7990381057
100
AcDbArc
 50
177.6115056179
 51
207.2855350899
  0
ARC
  5
4DE
100
AcDbEntity
  8
6_ALL_SURFS
100
AcDbCircle
 62
7
  6
CONTINUOUS
 10
790.6813994716
 20
1464.2867641302
 40
4.7990381057
100
AcDbArc
 50
177.6115056179
 51
207.2855350899
  0
CIRCLE
  5
4DF
100
AcDbEntity
  8
6_ALL_SURFS
100
AcDbCircle
 62
7
  6
CONTINUOUS
 10
1540.6813994716
 20
1464.2867641302
 40
3.5
  0
CIRCLE
  5
4E0
100
AcDbEntity
  8
6_ALL_SURFS
100
AcDbCircle
 62
7
  6
CONTINUOUS
 10
1290.6813994716
 20
1464.2867641302
 40
3.5
  0
CIRCLE
  5
4E1
100
AcDbEntity
  8
6_ALL_SURFS
100
AcDbCircle
 62
7
  6
CONTINUOUS
 10
1040.6813994716
 20
1464.2867641302
 40
3.5
  0
CIRCLE
  5
4E2
100
AcDbEntity
  8
6_ALL_SURFS
100
AcDbCircle
 62
7
  6
CONTINUOUS
 10
790.6813994716
 20
1464.2867641302
 40
3.5
  0
ARC
  5
4E3
100
AcDbEntity
  8
7_ALL_FEATURES
100
AcDbCircle
 62
7
  6
CONTINUOUS
 10
1790.6813994716
 20
1366.3867641302
 40
4.7990381057
100
AcDbArc
 50
189.5960093944
 51
226.828815981
  0
ARC
  5
4E4
100
AcDbEntity
  8
7_ALL_FEATURES
100
AcDbCircle
 62
7
  6
CONTINUOUS
 10
2040.6813994716
 20
1366.3867641302
 40
4.7990381057
100
AcDbArc
 50
189.5960093944
 51
226.828815981
  0
ARC
  5
4E5
100
AcDbEntity
  8
7_ALL_FEATURES
100
AcDbCircle
 62
7
  6
CONTINUOUS
 10
1790.6813994716
 20
1366.3867641302
 40
4.7990381057
100
AcDbArc
 50
313.171184019
 51
350.4039906056
  0
ARC
  5
4E6
100
AcDbEntity
  8
7_ALL_FEATURES
100
AcDbCircle
 62
7
  6
CONTINUOUS
 10
2290.6813994716
 20
1366.3867641302
 40
4.7990381057
100
AcDbArc
 50
189.5960093944
 51
226.828815981
  0
ARC
  5
4E7
100
AcDbEntity
  8
7_ALL_FEATURES
100
AcDbCircle
 62
7
  6
CONTINUOUS
 10
2040.6813994716
 20
1366.3867641302
 40
4.7990381057
100
AcDbArc
 50
313.171184019
 51
350.4039906056
  0
ARC
  5
4E8
100
AcDbEntity
  8
7_ALL_FEATURES
100
AcDbCircle
 62
7
  6
CONTINUOUS
 10
2540.6813994716
 20
1366.3867641302
 40
4.7990381057
100
AcDbArc
 50
189.5960093944
 51
226.828815981
  0
ARC
  5
4E9
100
AcDbEntity
  8
7_ALL_FEATURES
100
AcDbCircle
 62
7
  6
CONTINUOUS
 10
2290.6813994716
 20
1366.3867641302
 40
4.7990381057
100
AcDbArc
 50
313.171184019
 51
350.4039906056
  0
ARC
  5
4EA
100
AcDbEntity
  8
7_ALL_FEATURES
100
AcDbCircle
 62
7
  6
CONTINUOUS
 10
2790.6813994716
 20
1366.3867641302
 40
4.7990381057
100
AcDbArc
 50
189.5960093944
 51
226.828815981
  0
ARC
  5
4EB
100
AcDbEntity
  8
7_ALL_FEATURES
100
AcDbCircle
 62
7
  6
CONTINUOUS
 10
2540.6813994716
 20
1366.3867641302
 40
4.7990381057
100
AcDbArc
 50
313.171184019
 51
350.4039906056
  0
ARC
  5
4EC
100
AcDbEntity
  8
7_ALL_FEATURES
100
AcDbCircle
 62
7
  6
CONTINUOUS
 10
2790.6813994716
 20
1366.3867641302
 40
4.7990381057
100
AcDbArc
 50
313.171184019
 51
350.4039906056
  0
ARC
  5
4ED
100
AcDbEntity
  8
7_ALL_FEATURES
100
AcDbCircle
 62
7
  6
CONTINUOUS
 10
1790.6813994716
 20
1366.3867641302
 40
4.7990381057
100
AcDbArc
 50
152.7144649101
 51
182.3884943821
  0
ARC
  5
4EE
100
AcDbEntity
  8
7_ALL_FEATURES
100
AcDbCircle
 62
7
  6
CONTINUOUS
 10
2040.6813994716
 20
1366.3867641302
 40
4.7990381057
100
AcDbArc
 50
152.7144649101
 51
182.3884943821
  0
ARC
  5
4EF
100
AcDbEntity
  8
7_ALL_FEATURES
100
AcDbCircle
 62
7
  6
CONTINUOUS
 10
1790.6813994716
 20
1366.3867641302
 40
4.7990381057
100
AcDbArc
 50
357.6115056179
 51
27.2855350899
  0
ARC
  5
4F0
100
AcDbEntity
  8
7_ALL_FEATURES
100
AcDbCircle
 62
7
  6
CONTINUOUS
 10
2290.6813994716
 20
1366.3867641302
 40
4.7990381057
100
AcDbArc
 50
152.7144649101
 51
182.3884943821
  0
ARC
  5
4F1
100
AcDbEntity
  8
7_ALL_FEATURES
100
AcDbCircle
 62
7
  6
CONTINUOUS
 10
2040.6813994716
 20
1366.3867641302
 40
4.7990381057
100
AcDbArc
 50
357.6115056179
 51
27.2855350899
  0
ARC
  5
4F2
100
AcDbEntity
  8
7_ALL_FEATURES
100
AcDbCircle
 62
7
  6
CONTINUOUS
 10
2540.6813994716
 20
1366.3867641302
 40
4.7990381057
100
AcDbArc
 50
152.7144649101
 51
182.3884943821
  0
ARC
  5
4F3
100
AcDbEntity
  8
7_ALL_FEATURES
100
AcDbCircle
 62
7
  6
CONTINUOUS
 10
2290.6813994716
 20
1366.3867641302
 40
4.7990381057
100
AcDbArc
 50
357.6115056179
 51
27.2855350899
  0
ARC
  5
4F4
100
AcDbEntity
  8
7_ALL_FEATURES
100
AcDbCircle
 62
7
  6
CONTINUOUS
 10
2790.6813994716
 20
1366.3867641302
 40
4.7990381057
100
AcDbArc
 50
152.7144649101
 51
182.3884943821
  0
ARC
  5
4F5
100
AcDbEntity
  8
7_ALL_FEATURES
100
AcDbCircle
 62
7
  6
CONTINUOUS
 10
2540.6813994716
 20
1366.3867641302
 40
4.7990381057
100
AcDbArc
 50
357.6115056179
 51
27.2855350899
  0
ARC
  5
4F6
100
AcDbEntity
  8
7_ALL_FEATURES
100
AcDbCircle
 62
7
  6
CONTINUOUS
 10
2790.6813994716
 20
1366.3867641302
 40
4.7990381057
100
AcDbArc
 50
357.6115056179
 51
27.2855350899
  0
ARC
  5
4F7
100
AcDbEntity
  8
7_ALL_FEATURES
100
AcDbCircle
 62
7
  6
CONTINUOUS
 10
1790.6813994716
 20
1366.3867641302
 40
4.7990381057
100
AcDbArc
 50
35.6935828234
 51
144.3064171766
  0
ARC
  5
4F8
100
AcDbEntity
  8
7_ALL_FEATURES
100
AcDbCircle
 62
7
  6
CONTINUOUS
 10
2040.6813994716
 20
1366.3867641302
 40
4.7990381057
100
AcDbArc
 50
35.6935828234
 51
144.3064171766
  0
ARC
  5
4F9
100
AcDbEntity
  8
7_ALL_FEATURES
100
AcDbCircle
 62
7
  6
CONTINUOUS
 10
2290.6813994716
 20
1366.3867641302
 40
4.7990381057
100
AcDbArc
 50
35.6935828234
 51
144.3064171766
  0
ARC
  5
4FA
100
AcDbEntity
  8
7_ALL_FEATURES
100
AcDbCircle
 62
7
  6
CONTINUOUS
 10
2540.6813994716
 20
1366.3867641302
 40
4.7990381057
100
AcDbArc
 50
35.6935828234
 51
144.3064171766
  0
ARC
  5
4FB
100
AcDbEntity
  8
7_ALL_FEATURES
100
AcDbCircle
 62
7
  6
CONTINUOUS
 10
2790.6813994716
 20
1366.3867641302
 40
4.7990381057
100
AcDbArc
 50
35.6935828234
 51
144.3064171766
  0
CIRCLE
  5
4FC
100
AcDbEntity
  8
6_ALL_SURFS
100
AcDbCircle
 62
7
  6
CONTINUOUS
 10
1790.6813994716
 20
1366.3867641302
 40
3.5
  0
CIRCLE
  5
4FD
100
AcDbEntity
  8
6_ALL_SURFS
100
AcDbCircle
 62
7
  6
CONTINUOUS
 10
2040.6813994716
 20
1366.3867641302
 40
3.5
  0
CIRCLE
  5
4FE
100
AcDbEntity
  8
6_ALL_SURFS
100
AcDbCircle
 62
7
  6
CONTINUOUS
 10
2290.6813994716
 20
1366.3867641302
 40
3.5
  0
CIRCLE
  5
4FF
100
AcDbEntity
  8
6_ALL_SURFS
100
AcDbCircle
 62
7
  6
CONTINUOUS
 10
2540.6813994716
 20
1366.3867641302
 40
3.5
  0
CIRCLE
  5
500
100
AcDbEntity
  8
6_ALL_SURFS
100
AcDbCircle
 62
7
  6
CONTINUOUS
 10
2790.6813994716
 20
1366.3867641302
 40
3.5
  0
ARC
  5
501
100
AcDbEntity
  8
6_ALL_SURFS
100
AcDbCircle
 62
7
  6
CONTINUOUS
 10
2790.6813994716
 20
1464.2867641302
 40
4.7990381057
100
AcDbArc
 50
9.5960093944
 51
46.828815981
  0
ARC
  5
502
100
AcDbEntity
  8
6_ALL_SURFS
100
AcDbCircle
 62
7
  6
CONTINUOUS
 10
2540.6813994716
 20
1464.2867641302
 40
4.7990381057
100
AcDbArc
 50
9.5960093944
 51
46.828815981
  0
ARC
  5
503
100
AcDbEntity
  8
6_ALL_SURFS
100
AcDbCircle
 62
7
  6
CONTINUOUS
 10
2790.6813994716
 20
1464.2867641302
 40
4.7990381057
100
AcDbArc
 50
133.171184019
 51
170.4039906056
  0
ARC
  5
504
100
AcDbEntity
  8
6_ALL_SURFS
100
AcDbCircle
 62
7
  6
CONTINUOUS
 10
2290.6813994716
 20
1464.2867641302
 40
4.7990381057
100
AcDbArc
 50
9.5960093944
 51
46.828815981
  0
ARC
  5
505
100
AcDbEntity
  8
6_ALL_SURFS
100
AcDbCircle
 62
7
  6
CONTINUOUS
 10
2540.6813994716
 20
1464.2867641302
 40
4.7990381057
100
AcDbArc
 50
133.171184019
 51
170.4039906056
  0
ARC
  5
506
100
AcDbEntity
  8
6_ALL_SURFS
100
AcDbCircle
 62
7
  6
CONTINUOUS
 10
2040.6813994716
 20
1464.2867641302
 40
4.7990381057
100
AcDbArc
 50
9.5960093944
 51
46.828815981
  0
ARC
  5
507
100
AcDbEntity
  8
6_ALL_SURFS
100
AcDbCircle
 62
7
  6
CONTINUOUS
 10
2290.6813994716
 20
1464.2867641302
 40
4.7990381057
100
AcDbArc
 50
133.171184019
 51
170.4039906056
  0
ARC
  5
508
100
AcDbEntity
  8
6_ALL_SURFS
100
AcDbCircle
 62
7
  6
CONTINUOUS
 10
1790.6813994716
 20
1464.2867641302
 40
4.7990381057
100
AcDbArc
 50
9.5960093944
 51
46.828815981
  0
ARC
  5
509
100
AcDbEntity
  8
6_ALL_SURFS
100
AcDbCircle
 62
7
  6
CONTINUOUS
 10
2040.6813994716
 20
1464.2867641302
 40
4.7990381057
100
AcDbArc
 50
133.171184019
 51
170.4039906056
  0
ARC
  5
50A
100
AcDbEntity
  8
6_ALL_SURFS
100
AcDbCircle
 62
7
  6
CONTINUOUS
 10
1790.6813994716
 20
1464.2867641302
 40
4.7990381057
100
AcDbArc
 50
133.171184019
 51
170.4039906056
  0
ARC
  5
50B
100
AcDbEntity
  8
6_ALL_SURFS
100
AcDbCircle
 62
7
  6
CONTINUOUS
 10
1790.6813994716
 20
1464.2867641302
 40
4.7990381057
100
AcDbArc
 50
215.6935828234
 51
324.3064171766
  0
ARC
  5
50C
100
AcDbEntity
  8
6_ALL_SURFS
100
AcDbCircle
 62
7
  6
CONTINUOUS
 10
2040.6813994716
 20
1464.2867641302
 40
4.7990381057
100
AcDbArc
 50
215.6935828234
 51
324.3064171766
  0
ARC
  5
50D
100
AcDbEntity
  8
6_ALL_SURFS
100
AcDbCircle
 62
7
  6
CONTINUOUS
 10
2290.6813994716
 20
1464.2867641302
 40
4.7990381057
100
AcDbArc
 50
215.6935828234
 51
324.3064171766
  0
ARC
  5
50E
100
AcDbEntity
  8
6_ALL_SURFS
100
AcDbCircle
 62
7
  6
CONTINUOUS
 10
2540.6813994716
 20
1464.2867641302
 40
4.7990381057
100
AcDbArc
 50
215.6935828234
 51
324.3064171766
  0
ARC
  5
50F
100
AcDbEntity
  8
6_ALL_SURFS
100
AcDbCircle
 62
7
  6
CONTINUOUS
 10
2790.6813994716
 20
1464.2867641302
 40
4.7990381057
100
AcDbArc
 50
215.6935828234
 51
324.3064171766
  0
ARC
  5
510
100
AcDbEntity
  8
6_ALL_SURFS
100
AcDbCircle
 62
7
  6
CONTINUOUS
 10
2790.6813994716
 20
1464.2867641302
 40
4.7990381057
100
AcDbArc
 50
332.7144649101
 51
2.3884943821
  0
ARC
  5
511
100
AcDbEntity
  8
6_ALL_SURFS
100
AcDbCircle
 62
7
  6
CONTINUOUS
 10
2540.6813994716
 20
1464.2867641302
 40
4.7990381057
100
AcDbArc
 50
332.7144649101
 51
2.3884943821
  0
ARC
  5
512
100
AcDbEntity
  8
6_ALL_SURFS
100
AcDbCircle
 62
7
  6
CONTINUOUS
 10
2790.6813994716
 20
1464.2867641302
 40
4.7990381057
100
AcDbArc
 50
177.6115056179
 51
207.2855350899
  0
ARC
  5
513
100
AcDbEntity
  8
6_ALL_SURFS
100
AcDbCircle
 62
7
  6
CONTINUOUS
 10
2290.6813994716
 20
1464.2867641302
 40
4.7990381057
100
AcDbArc
 50
332.7144649101
 51
2.3884943821
  0
ARC
  5
514
100
AcDbEntity
  8
6_ALL_SURFS
100
AcDbCircle
 62
7
  6
CONTINUOUS
 10
2540.6813994716
 20
1464.2867641302
 40
4.7990381057
100
AcDbArc
 50
177.6115056179
 51
207.2855350899
  0
ARC
  5
515
100
AcDbEntity
  8
6_ALL_SURFS
100
AcDbCircle
 62
7
  6
CONTINUOUS
 10
2040.6813994716
 20
1464.2867641302
 40
4.7990381057
100
AcDbArc
 50
332.7144649101
 51
2.3884943821
  0
ARC
  5
516
100
AcDbEntity
  8
6_ALL_SURFS
100
AcDbCircle
 62
7
  6
CONTINUOUS
 10
2290.6813994716
 20
1464.2867641302
 40
4.7990381057
100
AcDbArc
 50
177.6115056179
 51
207.2855350899
  0
ARC
  5
517
100
AcDbEntity
  8
6_ALL_SURFS
100
AcDbCircle
 62
7
  6
CONTINUOUS
 10
1790.6813994716
 20
1464.2867641302
 40
4.7990381057
100
AcDbArc
 50
332.7144649101
 51
2.3884943821
  0
ARC
  5
518
100
AcDbEntity
  8
6_ALL_SURFS
100
AcDbCircle
 62
7
  6
CONTINUOUS
 10
2040.6813994716
 20
1464.2867641302
 40
4.7990381057
100
AcDbArc
 50
177.6115056179
 51
207.2855350899
  0
ARC
  5
519
100
AcDbEntity
  8
6_ALL_SURFS
100
AcDbCircle
 62
7
  6
CONTINUOUS
 10
1790.6813994716
 20
1464.2867641302
 40
4.7990381057
100
AcDbArc
 50
177.6115056179
 51
207.2855350899
  0
CIRCLE
  5
51A
100
AcDbEntity
  8
6_ALL_SURFS
100
AcDbCircle
 62
7
  6
CONTINUOUS
 10
2790.6813994716
 20
1464.2867641302
 40
3.5
  0
CIRCLE
  5
51B
100
AcDbEntity
  8
6_ALL_SURFS
100
AcDbCircle
 62
7
  6
CONTINUOUS
 10
2540.6813994716
 20
1464.2867641302
 40
3.5
  0
CIRCLE
  5
51C
100
AcDbEntity
  8
6_ALL_SURFS
100
AcDbCircle
 62
7
  6
CONTINUOUS
 10
2290.6813994716
 20
1464.2867641302
 40
3.5
  0
CIRCLE
  5
51D
100
AcDbEntity
  8
6_ALL_SURFS
100
AcDbCircle
 62
7
  6
CONTINUOUS
 10
2040.6813994716
 20
1464.2867641302
 40
3.5
  0
CIRCLE
  5
51E
100
AcDbEntity
  8
6_ALL_SURFS
100
AcDbCircle
 62
7
  6
CONTINUOUS
 10
1790.6813994716
 20
1464.2867641302
 40
3.5
  0
SPLINE
  5
51F
100
AcDbEntity
  8
7_ALL_FEATURES
100
AcDbSpline
 62
7
  6
CONTINUOUS
 70
0
 71
3
 72
9
 73
5
 74
0
 42
0.0000001
 43
0.0000001
 44
0.0000000001
 40
0.0
 40
0.0
 40
0.0
 40
0.0
 40
0.4943686921
 40
1.0
 40
1.0
 40
1.0
 40
1.0
 10
785.9495111868
 20
1365.5867641302
 30
0.0
 10
786.03478518
 20
1365.6610182903
 30
0.0
 10
786.1543975057
 20
1365.9147159854
 30
0.0
 10
785.9792614351
 20
1366.1176589713
 30
0.0
 10
785.8865306789
 20
1366.1867641302
 30
0.0
  0
SPLINE
  5
520
100
AcDbEntity
  8
7_ALL_FEATURES
100
AcDbSpline
 62
7
  6
CONTINUOUS
 70
0
 71
3
 72
9
 73
5
 74
0
 42
0.0000001
 43
0.0000001
 44
0.0000000001
 40
0.0
 40
0.0
 40
0.0
 40
0.0
 40
0.4943686921
 40
1.0
 40
1.0
 40
1.0
 40
1.0
 10
1035.9495111868
 20
1365.5867641302
 30
0.0
 10
1036.03478518
 20
1365.6610182903
 30
0.0
 10
1036.1543975057
 20
1365.9147159854
 30
0.0
 10
1035.9792614351
 20
1366.1176589713
 30
0.0
 10
1035.8865306789
 20
1366.1867641302
 30
0.0
  0
SPLINE
  5
521
100
AcDbEntity
  8
7_ALL_FEATURES
100
AcDbSpline
 62
7
  6
CONTINUOUS
 70
0
 71
3
 72
9
 73
5
 74
0
 42
0.0000001
 43
0.0000001
 44
0.0000000001
 40
0.0
 40
0.0
 40
0.0
 40
0.0
 40
0.5056313079
 40
1.0
 40
1.0
 40
1.0
 40
1.0
 10
795.4762682644
 20
1366.1867641302
 30
0.0
 10
795.3835375081
 20
1366.1176589713
 30
0.0
 10
795.2084014376
 20
1365.9147159854
 30
0.0
 10
795.3280137633
 20
1365.6610182903
 30
0.0
 10
795.4132877564
 20
1365.5867641302
 30
0.0
  0
SPLINE
  5
522
100
AcDbEntity
  8
7_ALL_FEATURES
100
AcDbSpline
 62
7
  6
CONTINUOUS
 70
0
 71
3
 72
9
 73
5
 74
0
 42
0.0000001
 43
0.0000001
 44
0.0000000001
 40
0.0
 40
0.0
 40
0.0
 40
0.0
 40
0.4943686921
 40
1.0
 40
1.0
 40
1.0
 40
1.0
 10
1285.9495111868
 20
1365.5867641302
 30
0.0
 10
1286.03478518
 20
1365.6610182903
 30
0.0
 10
1286.1543975057
 20
1365.9147159854
 30
0.0
 10
1285.9792614351
 20
1366.1176589713
 30
0.0
 10
1285.8865306789
 20
1366.1867641302
 30
0.0
  0
SPLINE
  5
523
100
AcDbEntity
  8
7_ALL_FEATURES
100
AcDbSpline
 62
7
  6
CONTINUOUS
 70
0
 71
3
 72
9
 73
5
 74
0
 42
0.0000001
 43
0.0000001
 44
0.0000000001
 40
0.0
 40
0.0
 40
0.0
 40
0.0
 40
0.5056313079
 40
1.0
 40
1.0
 40
1.0
 40
1.0
 10
1045.4762682644
 20
1366.1867641302
 30
0.0
 10
1045.3835375081
 20
1366.1176589713
 30
0.0
 10
1045.2084014376
 20
1365.9147159854
 30
0.0
 10
1045.3280137633
 20
1365.6610182903
 30
0.0
 10
1045.4132877564
 20
1365.5867641302
 30
0.0
  0
SPLINE
  5
524
100
AcDbEntity
  8
7_ALL_FEATURES
100
AcDbSpline
 62
7
  6
CONTINUOUS
 70
0
 71
3
 72
9
 73
5
 74
0
 42
0.0000001
 43
0.0000001
 44
0.0000000001
 40
0.0
 40
0.0
 40
0.0
 40
0.0
 40
0.4943686921
 40
1.0
 40
1.0
 40
1.0
 40
1.0
 10
1535.9495111868
 20
1365.5867641302
 30
0.0
 10
1536.03478518
 20
1365.6610182903
 30
0.0
 10
1536.1543975057
 20
1365.9147159854
 30
0.0
 10
1535.9792614351
 20
1366.1176589713
 30
0.0
 10
1535.8865306789
 20
1366.1867641302
 30
0.0
  0
SPLINE
  5
525
100
AcDbEntity
  8
7_ALL_FEATURES
100
AcDbSpline
 62
7
  6
CONTINUOUS
 70
0
 71
3
 72
9
 73
5
 74
0
 42
0.0000001
 43
0.0000001
 44
0.0000000001
 40
0.0
 40
0.0
 40
0.0
 40
0.0
 40
0.5056313079
 40
1.0
 40
1.0
 40
1.0
 40
1.0
 10
1295.4762682644
 20
1366.1867641302
 30
0.0
 10
1295.3835375081
 20
1366.1176589713
 30
0.0
 10
1295.2084014376
 20
1365.9147159854
 30
0.0
 10
1295.3280137633
 20
1365.6610182903
 30
0.0
 10
1295.4132877564
 20
1365.5867641302
 30
0.0
  0
SPLINE
  5
526
100
AcDbEntity
  8
7_ALL_FEATURES
100
AcDbSpline
 62
7
  6
CONTINUOUS
 70
0
 71
3
 72
9
 73
5
 74
0
 42
0.0000001
 43
0.0000001
 44
0.0000000001
 40
0.0
 40
0.0
 40
0.0
 40
0.0
 40
0.4943686921
 40
1.0
 40
1.0
 40
1.0
 40
1.0
 10
1785.9495111868
 20
1365.5867641302
 30
0.0
 10
1786.03478518
 20
1365.6610182903
 30
0.0
 10
1786.1543975057
 20
1365.9147159854
 30
0.0
 10
1785.9792614351
 20
1366.1176589713
 30
0.0
 10
1785.8865306789
 20
1366.1867641302
 30
0.0
  0
SPLINE
  5
527
100
AcDbEntity
  8
7_ALL_FEATURES
100
AcDbSpline
 62
7
  6
CONTINUOUS
 70
0
 71
3
 72
9
 73
5
 74
0
 42
0.0000001
 43
0.0000001
 44
0.0000000001
 40
0.0
 40
0.0
 40
0.0
 40
0.0
 40
0.5056313079
 40
1.0
 40
1.0
 40
1.0
 40
1.0
 10
1545.4762682644
 20
1366.1867641302
 30
0.0
 10
1545.3835375081
 20
1366.1176589713
 30
0.0
 10
1545.2084014376
 20
1365.9147159854
 30
0.0
 10
1545.3280137633
 20
1365.6610182903
 30
0.0
 10
1545.4132877564
 20
1365.5867641302
 30
0.0
  0
SPLINE
  5
528
100
AcDbEntity
  8
7_ALL_FEATURES
100
AcDbSpline
 62
7
  6
CONTINUOUS
 70
0
 71
3
 72
9
 73
5
 74
0
 42
0.0000001
 43
0.0000001
 44
0.0000000001
 40
0.0
 40
0.0
 40
0.0
 40
0.0
 40
0.4943686921
 40
1.0
 40
1.0
 40
1.0
 40
1.0
 10
2035.9495111868
 20
1365.5867641302
 30
0.0
 10
2036.03478518
 20
1365.6610182903
 30
0.0
 10
2036.1543975057
 20
1365.9147159854
 30
0.0
 10
2035.9792614351
 20
1366.1176589713
 30
0.0
 10
2035.8865306789
 20
1366.1867641302
 30
0.0
  0
SPLINE
  5
529
100
AcDbEntity
  8
7_ALL_FEATURES
100
AcDbSpline
 62
7
  6
CONTINUOUS
 70
0
 71
3
 72
9
 73
5
 74
0
 42
0.0000001
 43
0.0000001
 44
0.0000000001
 40
0.0
 40
0.0
 40
0.0
 40
0.0
 40
0.5056313079
 40
1.0
 40
1.0
 40
1.0
 40
1.0
 10
1795.4762682644
 20
1366.1867641302
 30
0.0
 10
1795.3835375081
 20
1366.1176589713
 30
0.0
 10
1795.2084014376
 20
1365.9147159854
 30
0.0
 10
1795.3280137633
 20
1365.6610182903
 30
0.0
 10
1795.4132877564
 20
1365.5867641302
 30
0.0
  0
SPLINE
  5
52A
100
AcDbEntity
  8
7_ALL_FEATURES
100
AcDbSpline
 62
7
  6
CONTINUOUS
 70
0
 71
3
 72
9
 73
5
 74
0
 42
0.0000001
 43
0.0000001
 44
0.0000000001
 40
0.0
 40
0.0
 40
0.0
 40
0.0
 40
0.4943686921
 40
1.0
 40
1.0
 40
1.0
 40
1.0
 10
2285.9495111868
 20
1365.5867641302
 30
0.0
 10
2286.03478518
 20
1365.6610182903
 30
0.0
 10
2286.1543975057
 20
1365.9147159854
 30
0.0
 10
2285.9792614351
 20
1366.1176589713
 30
0.0
 10
2285.8865306789
 20
1366.1867641302
 30
0.0
  0
SPLINE
  5
52B
100
AcDbEntity
  8
7_ALL_FEATURES
100
AcDbSpline
 62
7
  6
CONTINUOUS
 70
0
 71
3
 72
9
 73
5
 74
0
 42
0.0000001
 43
0.0000001
 44
0.0000000001
 40
0.0
 40
0.0
 40
0.0
 40
0.0
 40
0.5056313079
 40
1.0
 40
1.0
 40
1.0
 40
1.0
 10
2045.4762682644
 20
1366.1867641302
 30
0.0
 10
2045.3835375081
 20
1366.1176589713
 30
0.0
 10
2045.2084014376
 20
1365.9147159854
 30
0.0
 10
2045.3280137633
 20
1365.6610182903
 30
0.0
 10
2045.4132877564
 20
1365.5867641302
 30
0.0
  0
SPLINE
  5
52C
100
AcDbEntity
  8
7_ALL_FEATURES
100
AcDbSpline
 62
7
  6
CONTINUOUS
 70
0
 71
3
 72
9
 73
5
 74
0
 42
0.0000001
 43
0.0000001
 44
0.0000000001
 40
0.0
 40
0.0
 40
0.0
 40
0.0
 40
0.4943686921
 40
1.0
 40
1.0
 40
1.0
 40
1.0
 10
2535.9495111868
 20
1365.5867641302
 30
0.0
 10
2536.03478518
 20
1365.6610182903
 30
0.0
 10
2536.1543975057
 20
1365.9147159854
 30
0.0
 10
2535.9792614351
 20
1366.1176589713
 30
0.0
 10
2535.8865306789
 20
1366.1867641302
 30
0.0
  0
SPLINE
  5
52D
100
AcDbEntity
  8
7_ALL_FEATURES
100
AcDbSpline
 62
7
  6
CONTINUOUS
 70
0
 71
3
 72
9
 73
5
 74
0
 42
0.0000001
 43
0.0000001
 44
0.0000000001
 40
0.0
 40
0.0
 40
0.0
 40
0.0
 40
0.5056313079
 40
1.0
 40
1.0
 40
1.0
 40
1.0
 10
2295.4762682644
 20
1366.1867641302
 30
0.0
 10
2295.3835375081
 20
1366.1176589713
 30
0.0
 10
2295.2084014376
 20
1365.9147159854
 30
0.0
 10
2295.3280137633
 20
1365.6610182903
 30
0.0
 10
2295.4132877564
 20
1365.5867641302
 30
0.0
  0
SPLINE
  5
52E
100
AcDbEntity
  8
7_ALL_FEATURES
100
AcDbSpline
 62
7
  6
CONTINUOUS
 70
0
 71
3
 72
9
 73
5
 74
0
 42
0.0000001
 43
0.0000001
 44
0.0000000001
 40
0.0
 40
0.0
 40
0.0
 40
0.0
 40
0.4943686921
 40
1.0
 40
1.0
 40
1.0
 40
1.0
 10
2785.9495111868
 20
1365.5867641302
 30
0.0
 10
2786.03478518
 20
1365.6610182903
 30
0.0
 10
2786.1543975057
 20
1365.9147159854
 30
0.0
 10
2785.9792614351
 20
1366.1176589713
 30
0.0
 10
2785.8865306789
 20
1366.1867641302
 30
0.0
  0
SPLINE
  5
52F
100
AcDbEntity
  8
6_ALL_SURFS
100
AcDbSpline
 62
7
  6
CONTINUOUS
 70
0
 71
3
 72
9
 73
5
 74
0
 42
0.0000001
 43
0.0000001
 44
0.0000000001
 40
0.0
 40
0.0
 40
0.0
 40
0.0
 40
0.4943686921
 40
1.0
 40
1.0
 40
1.0
 40
1.0
 10
785.9495111868
 20
1465.0867641302
 30
0.0
 10
786.03478518
 20
1465.0125099701
 30
0.0
 10
786.1543975057
 20
1464.7588122751
 30
0.0
 10
785.9792614351
 20
1464.5558692892
 30
0.0
 10
785.8865306789
 20
1464.4867641302
 30
0.0
  0
SPLINE
  5
530
100
AcDbEntity
  8
7_ALL_FEATURES
100
AcDbSpline
 62
7
  6
CONTINUOUS
 70
0
 71
3
 72
9
 73
5
 74
0
 42
0.0000001
 43
0.0000001
 44
0.0000000001
 40
0.0
 40
0.0
 40
0.0
 40
0.0
 40
0.5056313079
 40
1.0
 40
1.0
 40
1.0
 40
1.0
 10
2545.4762682644
 20
1366.1867641302
 30
0.0
 10
2545.3835375081
 20
1366.1176589713
 30
0.0
 10
2545.2084014376
 20
1365.9147159854
 30
0.0
 10
2545.3280137633
 20
1365.6610182903
 30
0.0
 10
2545.4132877564
 20
1365.5867641302
 30
0.0
  0
SPLINE
  5
531
100
AcDbEntity
  8
7_ALL_FEATURES
100
AcDbSpline
 62
7
  6
CONTINUOUS
 70
0
 71
3
 72
9
 73
5
 74
0
 42
0.0000001
 43
0.0000001
 44
0.0000000001
 40
0.0
 40
0.0
 40
0.0
 40
0.0
 40
0.5056313079
 40
1.0
 40
1.0
 40
1.0
 40
1.0
 10
2795.4762682644
 20
1366.1867641302
 30
0.0
 10
2795.3835375081
 20
1366.1176589713
 30
0.0
 10
2795.2084014376
 20
1365.9147159854
 30
0.0
 10
2795.3280137633
 20
1365.6610182903
 30
0.0
 10
2795.4132877564
 20
1365.5867641302
 30
0.0
  0
SPLINE
  5
532
100
AcDbEntity
  8
7_ALL_FEATURES
100
AcDbSpline
 62
7
  6
CONTINUOUS
 70
0
 71
3
 72
11
 73
7
 74
0
 42
0.0000001
 43
0.0000001
 44
0.0000000001
 40
0.0
 40
0.0
 40
0.0
 40
0.0
 40
0.2516618547
 40
0.5095933096
 40
0.7677741982
 40
1.0
 40
1.0
 40
1.0
 40
1.0
 10
786.4163359622
 20
1368.5867641302
 30
0.0
 10
786.4761776034
 20
1368.6170254966
 30
0.0
 10
786.5943031847
 20
1368.6862474117
 30
0.0
 10
786.7491603802
 20
1368.8178787268
 30
0.0
 10
786.8684401025
 20
1368.9953302268
 30
0.0
 10
786.8247739565
 20
1369.1403361384
 30
0.0
 10
786.7838660542
 20
1369.1867641302
 30
0.0
  0
SPLINE
  5
533
100
AcDbEntity
  8
7_ALL_FEATURES
100
AcDbSpline
 62
7
  6
CONTINUOUS
 70
0
 71
3
 72
11
 73
7
 74
0
 42
0.0000001
 43
0.0000001
 44
0.0000000001
 40
0.0
 40
0.0
 40
0.0
 40
0.0
 40
0.2516618547
 40
0.5095933096
 40
0.7677741982
 40
1.0
 40
1.0
 40
1.0
 40
1.0
 10
1036.4163359622
 20
1368.5867641302
 30
0.0
 10
1036.4761776034
 20
1368.6170254966
 30
0.0
 10
1036.5943031847
 20
1368.6862474117
 30
0.0
 10
1036.7491603802
 20
1368.8178787268
 30
0.0
 10
1036.8684401025
 20
1368.9953302268
 30
0.0
 10
1036.8247739565
 20
1369.1403361384
 30
0.0
 10
1036.7838660542
 20
1369.1867641302
 30
0.0
  0
SPLINE
  5
534
100
AcDbEntity
  8
7_ALL_FEATURES
100
AcDbSpline
 62
7
  6
CONTINUOUS
 70
0
 71
3
 72
11
 73
7
 74
0
 42
0.0000001
 43
0.0000001
 44
0.0000000001
 40
0.0
 40
0.0
 40
0.0
 40
0.0
 40
0.2322264696
 40
0.4904133832
 40
0.748343926
 40
1.0
 40
1.0
 40
1.0
 40
1.0
 10
794.578932889
 20
1369.1867641302
 30
0.0
 10
794.5380248795
 20
1369.1403360167
 30
0.0
 10
794.4943582122
 20
1368.9953280585
 30
0.0
 10
794.6136411797
 20
1368.8178760125
 30
0.0
 10
794.7684990524
 20
1368.6862463061
 30
0.0
 10
794.8866227296
 20
1368.6170247938
 30
0.0
 10
794.9464629811
 20
1368.5867641302
 30
0.0
  0
SPLINE
  5
535
100
AcDbEntity
  8
7_ALL_FEATURES
100
AcDbSpline
 62
7
  6
CONTINUOUS
 70
0
 71
3
 72
11
 73
7
 74
0
 42
0.0000001
 43
0.0000001
 44
0.0000000001
 40
0.0
 40
0.0
 40
0.0
 40
0.0
 40
0.2516618547
 40
0.5095933096
 40
0.7677741982
 40
1.0
 40
1.0
 40
1.0
 40
1.0
 10
1286.4163359622
 20
1368.5867641302
 30
0.0
 10
1286.4761776034
 20
1368.6170254966
 30
0.0
 10
1286.5943031847
 20
1368.6862474117
 30
0.0
 10
1286.7491603802
 20
1368.8178787268
 30
0.0
 10
1286.8684401025
 20
1368.9953302268
 30
0.0
 10
1286.8247739565
 20
1369.1403361384
 30
0.0
 10
1286.7838660542
 20
1369.1867641302
 30
0.0
  0
SPLINE
  5
536
100
AcDbEntity
  8
7_ALL_FEATURES
100
AcDbSpline
 62
7
  6
CONTINUOUS
 70
0
 71
3
 72
11
 73
7
 74
0
 42
0.0000001
 43
0.0000001
 44
0.0000000001
 40
0.0
 40
0.0
 40
0.0
 40
0.0
 40
0.2322264696
 40
0.4904133832
 40
0.748343926
 40
1.0
 40
1.0
 40
1.0
 40
1.0
 10
1044.578932889
 20
1369.1867641302
 30
0.0
 10
1044.5380248795
 20
1369.1403360167
 30
0.0
 10
1044.4943582122
 20
1368.9953280585
 30
0.0
 10
1044.6136411797
 20
1368.8178760125
 30
0.0
 10
1044.7684990524
 20
1368.6862463061
 30
0.0
 10
1044.8866227296
 20
1368.6170247938
 30
0.0
 10
1044.9464629811
 20
1368.5867641302
 30
0.0
  0
SPLINE
  5
537
100
AcDbEntity
  8
7_ALL_FEATURES
100
AcDbSpline
 62
7
  6
CONTINUOUS
 70
0
 71
3
 72
11
 73
7
 74
0
 42
0.0000001
 43
0.0000001
 44
0.0000000001
 40
0.0
 40
0.0
 40
0.0
 40
0.0
 40
0.2516618547
 40
0.5095933096
 40
0.7677741982
 40
1.0
 40
1.0
 40
1.0
 40
1.0
 10
1536.4163359622
 20
1368.5867641302
 30
0.0
 10
1536.4761776034
 20
1368.6170254966
 30
0.0
 10
1536.5943031847
 20
1368.6862474117
 30
0.0
 10
1536.7491603802
 20
1368.8178787268
 30
0.0
 10
1536.8684401025
 20
1368.9953302268
 30
0.0
 10
1536.8247739565
 20
1369.1403361384
 30
0.0
 10
1536.7838660542
 20
1369.1867641302
 30
0.0
  0
SPLINE
  5
538
100
AcDbEntity
  8
7_ALL_FEATURES
100
AcDbSpline
 62
7
  6
CONTINUOUS
 70
0
 71
3
 72
11
 73
7
 74
0
 42
0.0000001
 43
0.0000001
 44
0.0000000001
 40
0.0
 40
0.0
 40
0.0
 40
0.0
 40
0.2322264696
 40
0.4904133832
 40
0.748343926
 40
1.0
 40
1.0
 40
1.0
 40
1.0
 10
1294.578932889
 20
1369.1867641302
 30
0.0
 10
1294.5380248795
 20
1369.1403360167
 30
0.0
 10
1294.4943582122
 20
1368.9953280585
 30
0.0
 10
1294.6136411797
 20
1368.8178760125
 30
0.0
 10
1294.7684990524
 20
1368.6862463061
 30
0.0
 10
1294.8866227296
 20
1368.6170247938
 30
0.0
 10
1294.9464629811
 20
1368.5867641302
 30
0.0
  0
SPLINE
  5
539
100
AcDbEntity
  8
7_ALL_FEATURES
100
AcDbSpline
 62
7
  6
CONTINUOUS
 70
0
 71
3
 72
11
 73
7
 74
0
 42
0.0000001
 43
0.0000001
 44
0.0000000001
 40
0.0
 40
0.0
 40
0.0
 40
0.0
 40
0.2516618547
 40
0.5095933096
 40
0.7677741982
 40
1.0
 40
1.0
 40
1.0
 40
1.0
 10
1786.4163359622
 20
1368.5867641302
 30
0.0
 10
1786.4761776034
 20
1368.6170254966
 30
0.0
 10
1786.5943031847
 20
1368.6862474117
 30
0.0
 10
1786.7491603802
 20
1368.8178787268
 30
0.0
 10
1786.8684401025
 20
1368.9953302268
 30
0.0
 10
1786.8247739565
 20
1369.1403361384
 30
0.0
 10
1786.7838660542
 20
1369.1867641302
 30
0.0
  0
SPLINE
  5
53A
100
AcDbEntity
  8
7_ALL_FEATURES
100
AcDbSpline
 62
7
  6
CONTINUOUS
 70
0
 71
3
 72
11
 73
7
 74
0
 42
0.0000001
 43
0.0000001
 44
0.0000000001
 40
0.0
 40
0.0
 40
0.0
 40
0.0
 40
0.2322264696
 40
0.4904133832
 40
0.748343926
 40
1.0
 40
1.0
 40
1.0
 40
1.0
 10
1544.578932889
 20
1369.1867641302
 30
0.0
 10
1544.5380248795
 20
1369.1403360167
 30
0.0
 10
1544.4943582122
 20
1368.9953280585
 30
0.0
 10
1544.6136411797
 20
1368.8178760125
 30
0.0
 10
1544.7684990524
 20
1368.6862463061
 30
0.0
 10
1544.8866227296
 20
1368.6170247938
 30
0.0
 10
1544.9464629811
 20
1368.5867641302
 30
0.0
  0
SPLINE
  5
53B
100
AcDbEntity
  8
7_ALL_FEATURES
100
AcDbSpline
 62
7
  6
CONTINUOUS
 70
0
 71
3
 72
11
 73
7
 74
0
 42
0.0000001
 43
0.0000001
 44
0.0000000001
 40
0.0
 40
0.0
 40
0.0
 40
0.0
 40
0.2516618547
 40
0.5095933096
 40
0.7677741982
 40
1.0
 40
1.0
 40
1.0
 40
1.0
 10
2036.4163359622
 20
1368.5867641302
 30
0.0
 10
2036.4761776034
 20
1368.6170254966
 30
0.0
 10
2036.5943031847
 20
1368.6862474117
 30
0.0
 10
2036.7491603802
 20
1368.8178787268
 30
0.0
 10
2036.8684401025
 20
1368.9953302268
 30
0.0
 10
2036.8247739565
 20
1369.1403361384
 30
0.0
 10
2036.7838660542
 20
1369.1867641302
 30
0.0
  0
SPLINE
  5
53C
100
AcDbEntity
  8
7_ALL_FEATURES
100
AcDbSpline
 62
7
  6
CONTINUOUS
 70
0
 71
3
 72
11
 73
7
 74
0
 42
0.0000001
 43
0.0000001
 44
0.0000000001
 40
0.0
 40
0.0
 40
0.0
 40
0.0
 40
0.2322264696
 40
0.4904133832
 40
0.748343926
 40
1.0
 40
1.0
 40
1.0
 40
1.0
 10
1794.578932889
 20
1369.1867641302
 30
0.0
 10
1794.5380248795
 20
1369.1403360167
 30
0.0
 10
1794.4943582122
 20
1368.9953280585
 30
0.0
 10
1794.6136411797
 20
1368.8178760125
 30
0.0
 10
1794.7684990524
 20
1368.6862463061
 30
0.0
 10
1794.8866227296
 20
1368.6170247938
 30
0.0
 10
1794.9464629811
 20
1368.5867641302
 30
0.0
  0
SPLINE
  5
53D
100
AcDbEntity
  8
7_ALL_FEATURES
100
AcDbSpline
 62
7
  6
CONTINUOUS
 70
0
 71
3
 72
11
 73
7
 74
0
 42
0.0000001
 43
0.0000001
 44
0.0000000001
 40
0.0
 40
0.0
 40
0.0
 40
0.0
 40
0.2516618547
 40
0.5095933096
 40
0.7677741982
 40
1.0
 40
1.0
 40
1.0
 40
1.0
 10
2286.4163359622
 20
1368.5867641302
 30
0.0
 10
2286.4761776034
 20
1368.6170254966
 30
0.0
 10
2286.5943031847
 20
1368.6862474117
 30
0.0
 10
2286.7491603802
 20
1368.8178787268
 30
0.0
 10
2286.8684401025
 20
1368.9953302268
 30
0.0
 10
2286.8247739565
 20
1369.1403361384
 30
0.0
 10
2286.7838660542
 20
1369.1867641302
 30
0.0
  0
SPLINE
  5
53E
100
AcDbEntity
  8
7_ALL_FEATURES
100
AcDbSpline
 62
7
  6
CONTINUOUS
 70
0
 71
3
 72
11
 73
7
 74
0
 42
0.0000001
 43
0.0000001
 44
0.0000000001
 40
0.0
 40
0.0
 40
0.0
 40
0.0
 40
0.2322264696
 40
0.4904133832
 40
0.748343926
 40
1.0
 40
1.0
 40
1.0
 40
1.0
 10
2044.578932889
 20
1369.1867641302
 30
0.0
 10
2044.5380248795
 20
1369.1403360167
 30
0.0
 10
2044.4943582122
 20
1368.9953280585
 30
0.0
 10
2044.6136411797
 20
1368.8178760125
 30
0.0
 10
2044.7684990524
 20
1368.6862463061
 30
0.0
 10
2044.8866227296
 20
1368.6170247938
 30
0.0
 10
2044.9464629811
 20
1368.5867641302
 30
0.0
  0
SPLINE
  5
53F
100
AcDbEntity
  8
7_ALL_FEATURES
100
AcDbSpline
 62
7
  6
CONTINUOUS
 70
0
 71
3
 72
11
 73
7
 74
0
 42
0.0000001
 43
0.0000001
 44
0.0000000001
 40
0.0
 40
0.0
 40
0.0
 40
0.0
 40
0.2516618547
 40
0.5095933096
 40
0.7677741982
 40
1.0
 40
1.0
 40
1.0
 40
1.0
 10
2536.4163359622
 20
1368.5867641302
 30
0.0
 10
2536.4761776034
 20
1368.6170254966
 30
0.0
 10
2536.5943031847
 20
1368.6862474117
 30
0.0
 10
2536.7491603802
 20
1368.8178787268
 30
0.0
 10
2536.8684401025
 20
1368.9953302268
 30
0.0
 10
2536.8247739565
 20
1369.1403361384
 30
0.0
 10
2536.7838660542
 20
1369.1867641302
 30
0.0
  0
SPLINE
  5
540
100
AcDbEntity
  8
7_ALL_FEATURES
100
AcDbSpline
 62
7
  6
CONTINUOUS
 70
0
 71
3
 72
11
 73
7
 74
0
 42
0.0000001
 43
0.0000001
 44
0.0000000001
 40
0.0
 40
0.0
 40
0.0
 40
0.0
 40
0.2322264696
 40
0.4904133832
 40
0.748343926
 40
1.0
 40
1.0
 40
1.0
 40
1.0
 10
2294.578932889
 20
1369.1867641302
 30
0.0
 10
2294.5380248795
 20
1369.1403360167
 30
0.0
 10
2294.4943582122
 20
1368.9953280585
 30
0.0
 10
2294.6136411797
 20
1368.8178760125
 30
0.0
 10
2294.7684990524
 20
1368.6862463061
 30
0.0
 10
2294.8866227296
 20
1368.6170247938
 30
0.0
 10
2294.9464629811
 20
1368.5867641302
 30
0.0
  0
SPLINE
  5
541
100
AcDbEntity
  8
7_ALL_FEATURES
100
AcDbSpline
 62
7
  6
CONTINUOUS
 70
0
 71
3
 72
11
 73
7
 74
0
 42
0.0000001
 43
0.0000001
 44
0.0000000001
 40
0.0
 40
0.0
 40
0.0
 40
0.0
 40
0.2516618547
 40
0.5095933096
 40
0.7677741982
 40
1.0
 40
1.0
 40
1.0
 40
1.0
 10
2786.4163359622
 20
1368.5867641302
 30
0.0
 10
2786.4761776034
 20
1368.6170254966
 30
0.0
 10
2786.5943031847
 20
1368.6862474117
 30
0.0
 10
2786.7491603802
 20
1368.8178787268
 30
0.0
 10
2786.8684401025
 20
1368.9953302268
 30
0.0
 10
2786.8247739565
 20
1369.1403361384
 30
0.0
 10
2786.7838660542
 20
1369.1867641302
 30
0.0
  0
SPLINE
  5
542
100
AcDbEntity
  8
7_ALL_FEATURES
100
AcDbSpline
 62
7
  6
CONTINUOUS
 70
0
 71
3
 72
11
 73
7
 74
0
 42
0.0000001
 43
0.0000001
 44
0.0000000001
 40
0.0
 40
0.0
 40
0.0
 40
0.0
 40
0.2322264696
 40
0.4904133832
 40
0.748343926
 40
1.0
 40
1.0
 40
1.0
 40
1.0
 10
2544.578932889
 20
1369.1867641302
 30
0.0
 10
2544.5380248795
 20
1369.1403360167
 30
0.0
 10
2544.4943582122
 20
1368.9953280585
 30
0.0
 10
2544.6136411797
 20
1368.8178760125
 30
0.0
 10
2544.7684990524
 20
1368.6862463061
 30
0.0
 10
2544.8866227296
 20
1368.6170247938
 30
0.0
 10
2544.9464629811
 20
1368.5867641302
 30
0.0
  0
SPLINE
  5
543
100
AcDbEntity
  8
7_ALL_FEATURES
100
AcDbSpline
 62
7
  6
CONTINUOUS
 70
0
 71
3
 72
11
 73
7
 74
0
 42
0.0000001
 43
0.0000001
 44
0.0000000001
 40
0.0
 40
0.0
 40
0.0
 40
0.0
 40
0.2322264696
 40
0.4904133832
 40
0.748343926
 40
1.0
 40
1.0
 40
1.0
 40
1.0
 10
2794.578932889
 20
1369.1867641302
 30
0.0
 10
2794.5380248795
 20
1369.1403360167
 30
0.0
 10
2794.4943582122
 20
1368.9953280585
 30
0.0
 10
2794.6136411797
 20
1368.8178760125
 30
0.0
 10
2794.7684990524
 20
1368.6862463061
 30
0.0
 10
2794.8866227296
 20
1368.6170247938
 30
0.0
 10
2794.9464629811
 20
1368.5867641302
 30
0.0
  0
SPLINE
  5
544
100
AcDbEntity
  8
6_ALL_SURFS
100
AcDbSpline
 62
7
  6
CONTINUOUS
 70
0
 71
3
 72
11
 73
7
 74
0
 42
0.0000001
 43
0.0000001
 44
0.0000000001
 40
0.0
 40
0.0
 40
0.0
 40
0.0
 40
0.2322264696
 40
0.4904133832
 40
0.748343926
 40
1.0
 40
1.0
 40
1.0
 40
1.0
 10
2794.578932889
 20
1461.4867641302
 30
0.0
 10
2794.5380248795
 20
1461.5331922438
 30
0.0
 10
2794.4943582122
 20
1461.6782002019
 30
0.0
 10
2794.6136411797
 20
1461.8556522479
 30
0.0
 10
2794.7684990524
 20
1461.9872819544
 30
0.0
 10
2794.8866227296
 20
1462.0565034666
 30
0.0
 10
2794.9464629811
 20
1462.0867641302
 30
0.0
  0
SPLINE
  5
545
100
AcDbEntity
  8
6_ALL_SURFS
100
AcDbSpline
 62
7
  6
CONTINUOUS
 70
0
 71
3
 72
11
 73
7
 74
0
 42
0.0000001
 43
0.0000001
 44
0.0000000001
 40
0.0
 40
0.0
 40
0.0
 40
0.0
 40
0.2322264696
 40
0.4904133832
 40
0.748343926
 40
1.0
 40
1.0
 40
1.0
 40
1.0
 10
2544.578932889
 20
1461.4867641302
 30
0.0
 10
2544.5380248795
 20
1461.5331922438
 30
0.0
 10
2544.4943582122
 20
1461.6782002019
 30
0.0
 10
2544.6136411797
 20
1461.8556522479
 30
0.0
 10
2544.7684990524
 20
1461.9872819544
 30
0.0
 10
2544.8866227296
 20
1462.0565034666
 30
0.0
 10
2544.9464629811
 20
1462.0867641302
 30
0.0
  0
SPLINE
  5
546
100
AcDbEntity
  8
6_ALL_SURFS
100
AcDbSpline
 62
7
  6
CONTINUOUS
 70
0
 71
3
 72
11
 73
7
 74
0
 42
0.0000001
 43
0.0000001
 44
0.0000000001
 40
0.0
 40
0.0
 40
0.0
 40
0.0
 40
0.2516618547
 40
0.5095933096
 40
0.7677741982
 40
1.0
 40
1.0
 40
1.0
 40
1.0
 10
2786.4163359622
 20
1462.0867641302
 30
0.0
 10
2786.4761776034
 20
1462.0565027638
 30
0.0
 10
2786.5943031847
 20
1461.9872808487
 30
0.0
 10
2786.7491603802
 20
1461.8556495336
 30
0.0
 10
2786.8684401025
 20
1461.6781980337
 30
0.0
 10
2786.8247739565
 20
1461.533192122
 30
0.0
 10
2786.7838660542
 20
1461.4867641302
 30
0.0
  0
SPLINE
  5
547
100
AcDbEntity
  8
6_ALL_SURFS
100
AcDbSpline
 62
7
  6
CONTINUOUS
 70
0
 71
3
 72
11
 73
7
 74
0
 42
0.0000001
 43
0.0000001
 44
0.0000000001
 40
0.0
 40
0.0
 40
0.0
 40
0.0
 40
0.2322264696
 40
0.4904133832
 40
0.748343926
 40
1.0
 40
1.0
 40
1.0
 40
1.0
 10
2294.578932889
 20
1461.4867641302
 30
0.0
 10
2294.5380248795
 20
1461.5331922438
 30
0.0
 10
2294.4943582122
 20
1461.6782002019
 30
0.0
 10
2294.6136411797
 20
1461.8556522479
 30
0.0
 10
2294.7684990524
 20
1461.9872819544
 30
0.0
 10
2294.8866227296
 20
1462.0565034666
 30
0.0
 10
2294.9464629811
 20
1462.0867641302
 30
0.0
  0
SPLINE
  5
548
100
AcDbEntity
  8
6_ALL_SURFS
100
AcDbSpline
 62
7
  6
CONTINUOUS
 70
0
 71
3
 72
11
 73
7
 74
0
 42
0.0000001
 43
0.0000001
 44
0.0000000001
 40
0.0
 40
0.0
 40
0.0
 40
0.0
 40
0.2516618547
 40
0.5095933096
 40
0.7677741982
 40
1.0
 40
1.0
 40
1.0
 40
1.0
 10
2536.4163359622
 20
1462.0867641302
 30
0.0
 10
2536.4761776034
 20
1462.0565027638
 30
0.0
 10
2536.5943031847
 20
1461.9872808487
 30
0.0
 10
2536.7491603802
 20
1461.8556495336
 30
0.0
 10
2536.8684401025
 20
1461.6781980337
 30
0.0
 10
2536.8247739565
 20
1461.533192122
 30
0.0
 10
2536.7838660542
 20
1461.4867641302
 30
0.0
  0
SPLINE
  5
549
100
AcDbEntity
  8
6_ALL_SURFS
100
AcDbSpline
 62
7
  6
CONTINUOUS
 70
0
 71
3
 72
11
 73
7
 74
0
 42
0.0000001
 43
0.0000001
 44
0.0000000001
 40
0.0
 40
0.0
 40
0.0
 40
0.0
 40
0.2322264696
 40
0.4904133832
 40
0.748343926
 40
1.0
 40
1.0
 40
1.0
 40
1.0
 10
2044.578932889
 20
1461.4867641302
 30
0.0
 10
2044.5380248795
 20
1461.5331922438
 30
0.0
 10
2044.4943582122
 20
1461.6782002019
 30
0.0
 10
2044.6136411797
 20
1461.8556522479
 30
0.0
 10
2044.7684990524
 20
1461.9872819544
 30
0.0
 10
2044.8866227296
 20
1462.0565034666
 30
0.0
 10
2044.9464629811
 20
1462.0867641302
 30
0.0
  0
SPLINE
  5
54A
100
AcDbEntity
  8
6_ALL_SURFS
100
AcDbSpline
 62
7
  6
CONTINUOUS
 70
0
 71
3
 72
11
 73
7
 74
0
 42
0.0000001
 43
0.0000001
 44
0.0000000001
 40
0.0
 40
0.0
 40
0.0
 40
0.0
 40
0.2516618547
 40
0.5095933096
 40
0.7677741982
 40
1.0
 40
1.0
 40
1.0
 40
1.0
 10
2286.4163359622
 20
1462.0867641302
 30
0.0
 10
2286.4761776034
 20
1462.0565027638
 30
0.0
 10
2286.5943031847
 20
1461.9872808487
 30
0.0
 10
2286.7491603802
 20
1461.8556495336
 30
0.0
 10
2286.8684401025
 20
1461.6781980337
 30
0.0
 10
2286.8247739565
 20
1461.533192122
 30
0.0
 10
2286.7838660542
 20
1461.4867641302
 30
0.0
  0
SPLINE
  5
54B
100
AcDbEntity
  8
6_ALL_SURFS
100
AcDbSpline
 62
7
  6
CONTINUOUS
 70
0
 71
3
 72
11
 73
7
 74
0
 42
0.0000001
 43
0.0000001
 44
0.0000000001
 40
0.0
 40
0.0
 40
0.0
 40
0.0
 40
0.2322264696
 40
0.4904133832
 40
0.748343926
 40
1.0
 40
1.0
 40
1.0
 40
1.0
 10
1794.578932889
 20
1461.4867641302
 30
0.0
 10
1794.5380248795
 20
1461.5331922438
 30
0.0
 10
1794.4943582122
 20
1461.6782002019
 30
0.0
 10
1794.6136411797
 20
1461.8556522479
 30
0.0
 10
1794.7684990524
 20
1461.9872819544
 30
0.0
 10
1794.8866227296
 20
1462.0565034666
 30
0.0
 10
1794.9464629811
 20
1462.0867641302
 30
0.0
  0
SPLINE
  5
54C
100
AcDbEntity
  8
6_ALL_SURFS
100
AcDbSpline
 62
7
  6
CONTINUOUS
 70
0
 71
3
 72
11
 73
7
 74
0
 42
0.0000001
 43
0.0000001
 44
0.0000000001
 40
0.0
 40
0.0
 40
0.0
 40
0.0
 40
0.2516618547
 40
0.5095933096
 40
0.7677741982
 40
1.0
 40
1.0
 40
1.0
 40
1.0
 10
2036.4163359622
 20
1462.0867641302
 30
0.0
 10
2036.4761776034
 20
1462.0565027638
 30
0.0
 10
2036.5943031847
 20
1461.9872808487
 30
0.0
 10
2036.7491603802
 20
1461.8556495336
 30
0.0
 10
2036.8684401025
 20
1461.6781980337
 30
0.0
 10
2036.8247739565
 20
1461.533192122
 30
0.0
 10
2036.7838660542
 20
1461.4867641302
 30
0.0
  0
SPLINE
  5
54D
100
AcDbEntity
  8
6_ALL_SURFS
100
AcDbSpline
 62
7
  6
CONTINUOUS
 70
0
 71
3
 72
11
 73
7
 74
0
 42
0.0000001
 43
0.0000001
 44
0.0000000001
 40
0.0
 40
0.0
 40
0.0
 40
0.0
 40
0.2322264696
 40
0.4904133832
 40
0.748343926
 40
1.0
 40
1.0
 40
1.0
 40
1.0
 10
1544.578932889
 20
1461.4867641302
 30
0.0
 10
1544.5380248795
 20
1461.5331922438
 30
0.0
 10
1544.4943582122
 20
1461.6782002019
 30
0.0
 10
1544.6136411797
 20
1461.8556522479
 30
0.0
 10
1544.7684990524
 20
1461.9872819544
 30
0.0
 10
1544.8866227296
 20
1462.0565034666
 30
0.0
 10
1544.9464629811
 20
1462.0867641302
 30
0.0
  0
SPLINE
  5
54E
100
AcDbEntity
  8
6_ALL_SURFS
100
AcDbSpline
 62
7
  6
CONTINUOUS
 70
0
 71
3
 72
11
 73
7
 74
0
 42
0.0000001
 43
0.0000001
 44
0.0000000001
 40
0.0
 40
0.0
 40
0.0
 40
0.0
 40
0.2516618547
 40
0.5095933096
 40
0.7677741982
 40
1.0
 40
1.0
 40
1.0
 40
1.0
 10
1786.4163359622
 20
1462.0867641302
 30
0.0
 10
1786.4761776034
 20
1462.0565027638
 30
0.0
 10
1786.5943031847
 20
1461.9872808487
 30
0.0
 10
1786.7491603802
 20
1461.8556495336
 30
0.0
 10
1786.8684401025
 20
1461.6781980337
 30
0.0
 10
1786.8247739565
 20
1461.533192122
 30
0.0
 10
1786.7838660542
 20
1461.4867641302
 30
0.0
  0
SPLINE
  5
54F
100
AcDbEntity
  8
6_ALL_SURFS
100
AcDbSpline
 62
7
  6
CONTINUOUS
 70
0
 71
3
 72
11
 73
7
 74
0
 42
0.0000001
 43
0.0000001
 44
0.0000000001
 40
0.0
 40
0.0
 40
0.0
 40
0.0
 40
0.2322264696
 40
0.4904133832
 40
0.748343926
 40
1.0
 40
1.0
 40
1.0
 40
1.0
 10
1294.578932889
 20
1461.4867641302
 30
0.0
 10
1294.5380248795
 20
1461.5331922438
 30
0.0
 10
1294.4943582122
 20
1461.6782002019
 30
0.0
 10
1294.6136411797
 20
1461.8556522479
 30
0.0
 10
1294.7684990524
 20
1461.9872819544
 30
0.0
 10
1294.8866227296
 20
1462.0565034666
 30
0.0
 10
1294.9464629811
 20
1462.0867641302
 30
0.0
  0
SPLINE
  5
550
100
AcDbEntity
  8
6_ALL_SURFS
100
AcDbSpline
 62
7
  6
CONTINUOUS
 70
0
 71
3
 72
11
 73
7
 74
0
 42
0.0000001
 43
0.0000001
 44
0.0000000001
 40
0.0
 40
0.0
 40
0.0
 40
0.0
 40
0.2516618547
 40
0.5095933096
 40
0.7677741982
 40
1.0
 40
1.0
 40
1.0
 40
1.0
 10
1536.4163359622
 20
1462.0867641302
 30
0.0
 10
1536.4761776034
 20
1462.0565027638
 30
0.0
 10
1536.5943031847
 20
1461.9872808487
 30
0.0
 10
1536.7491603802
 20
1461.8556495336
 30
0.0
 10
1536.8684401025
 20
1461.6781980337
 30
0.0
 10
1536.8247739565
 20
1461.533192122
 30
0.0
 10
1536.7838660542
 20
1461.4867641302
 30
0.0
  0
SPLINE
  5
551
100
AcDbEntity
  8
6_ALL_SURFS
100
AcDbSpline
 62
7
  6
CONTINUOUS
 70
0
 71
3
 72
11
 73
7
 74
0
 42
0.0000001
 43
0.0000001
 44
0.0000000001
 40
0.0
 40
0.0
 40
0.0
 40
0.0
 40
0.2322264696
 40
0.4904133832
 40
0.748343926
 40
1.0
 40
1.0
 40
1.0
 40
1.0
 10
1044.578932889
 20
1461.4867641302
 30
0.0
 10
1044.5380248795
 20
1461.5331922438
 30
0.0
 10
1044.4943582122
 20
1461.6782002019
 30
0.0
 10
1044.6136411797
 20
1461.8556522479
 30
0.0
 10
1044.7684990524
 20
1461.9872819544
 30
0.0
 10
1044.8866227296
 20
1462.0565034666
 30
0.0
 10
1044.9464629811
 20
1462.0867641302
 30
0.0
  0
SPLINE
  5
552
100
AcDbEntity
  8
6_ALL_SURFS
100
AcDbSpline
 62
7
  6
CONTINUOUS
 70
0
 71
3
 72
11
 73
7
 74
0
 42
0.0000001
 43
0.0000001
 44
0.0000000001
 40
0.0
 40
0.0
 40
0.0
 40
0.0
 40
0.2516618547
 40
0.5095933096
 40
0.7677741982
 40
1.0
 40
1.0
 40
1.0
 40
1.0
 10
1286.4163359622
 20
1462.0867641302
 30
0.0
 10
1286.4761776034
 20
1462.0565027638
 30
0.0
 10
1286.5943031847
 20
1461.9872808487
 30
0.0
 10
1286.7491603802
 20
1461.8556495336
 30
0.0
 10
1286.8684401025
 20
1461.6781980337
 30
0.0
 10
1286.8247739565
 20
1461.533192122
 30
0.0
 10
1286.7838660542
 20
1461.4867641302
 30
0.0
  0
SPLINE
  5
553
100
AcDbEntity
  8
6_ALL_SURFS
100
AcDbSpline
 62
7
  6
CONTINUOUS
 70
0
 71
3
 72
11
 73
7
 74
0
 42
0.0000001
 43
0.0000001
 44
0.0000000001
 40
0.0
 40
0.0
 40
0.0
 40
0.0
 40
0.2322264696
 40
0.4904133832
 40
0.748343926
 40
1.0
 40
1.0
 40
1.0
 40
1.0
 10
794.578932889
 20
1461.4867641302
 30
0.0
 10
794.5380248795
 20
1461.5331922438
 30
0.0
 10
794.4943582122
 20
1461.6782002019
 30
0.0
 10
794.6136411797
 20
1461.8556522479
 30
0.0
 10
794.7684990524
 20
1461.9872819544
 30
0.0
 10
794.8866227296
 20
1462.0565034666
 30
0.0
 10
794.9464629811
 20
1462.0867641302
 30
0.0
  0
SPLINE
  5
554
100
AcDbEntity
  8
6_ALL_SURFS
100
AcDbSpline
 62
7
  6
CONTINUOUS
 70
0
 71
3
 72
11
 73
7
 74
0
 42
0.0000001
 43
0.0000001
 44
0.0000000001
 40
0.0
 40
0.0
 40
0.0
 40
0.0
 40
0.2516618547
 40
0.5095933096
 40
0.7677741982
 40
1.0
 40
1.0
 40
1.0
 40
1.0
 10
1036.4163359622
 20
1462.0867641302
 30
0.0
 10
1036.4761776034
 20
1462.0565027638
 30
0.0
 10
1036.5943031847
 20
1461.9872808487
 30
0.0
 10
1036.7491603802
 20
1461.8556495336
 30
0.0
 10
1036.8684401025
 20
1461.6781980337
 30
0.0
 10
1036.8247739565
 20
1461.533192122
 30
0.0
 10
1036.7838660542
 20
1461.4867641302
 30
0.0
  0
SPLINE
  5
555
100
AcDbEntity
  8
6_ALL_SURFS
100
AcDbSpline
 62
7
  6
CONTINUOUS
 70
0
 71
3
 72
11
 73
7
 74
0
 42
0.0000001
 43
0.0000001
 44
0.0000000001
 40
0.0
 40
0.0
 40
0.0
 40
0.0
 40
0.2516618547
 40
0.5095933096
 40
0.7677741982
 40
1.0
 40
1.0
 40
1.0
 40
1.0
 10
786.4163359622
 20
1462.0867641302
 30
0.0
 10
786.4761776034
 20
1462.0565027638
 30
0.0
 10
786.5943031847
 20
1461.9872808487
 30
0.0
 10
786.7491603802
 20
1461.8556495336
 30
0.0
 10
786.8684401025
 20
1461.6781980337
 30
0.0
 10
786.8247739565
 20
1461.533192122
 30
0.0
 10
786.7838660542
 20
1461.4867641302
 30
0.0
  0
SPLINE
  5
556
100
AcDbEntity
  8
6_ALL_SURFS
100
AcDbSpline
 62
7
  6
CONTINUOUS
 70
0
 71
3
 72
9
 73
5
 74
0
 42
0.0000001
 43
0.0000001
 44
0.0000000001
 40
0.0
 40
0.0
 40
0.0
 40
0.0
 40
0.5056313079
 40
1.0
 40
1.0
 40
1.0
 40
1.0
 10
2795.4762682644
 20
1464.4867641302
 30
0.0
 10
2795.3835375081
 20
1464.5558692892
 30
0.0
 10
2795.2084014376
 20
1464.7588122751
 30
0.0
 10
2795.3280137633
 20
1465.0125099701
 30
0.0
 10
2795.4132877564
 20
1465.0867641302
 30
0.0
  0
SPLINE
  5
557
100
AcDbEntity
  8
6_ALL_SURFS
100
AcDbSpline
 62
7
  6
CONTINUOUS
 70
0
 71
3
 72
9
 73
5
 74
0
 42
0.0000001
 43
0.0000001
 44
0.0000000001
 40
0.0
 40
0.0
 40
0.0
 40
0.0
 40
0.5056313079
 40
1.0
 40
1.0
 40
1.0
 40
1.0
 10
2545.4762682644
 20
1464.4867641302
 30
0.0
 10
2545.3835375081
 20
1464.5558692892
 30
0.0
 10
2545.2084014376
 20
1464.7588122751
 30
0.0
 10
2545.3280137633
 20
1465.0125099701
 30
0.0
 10
2545.4132877564
 20
1465.0867641302
 30
0.0
  0
SPLINE
  5
558
100
AcDbEntity
  8
6_ALL_SURFS
100
AcDbSpline
 62
7
  6
CONTINUOUS
 70
0
 71
3
 72
9
 73
5
 74
0
 42
0.0000001
 43
0.0000001
 44
0.0000000001
 40
0.0
 40
0.0
 40
0.0
 40
0.0
 40
0.4943686921
 40
1.0
 40
1.0
 40
1.0
 40
1.0
 10
2785.9495111868
 20
1465.0867641302
 30
0.0
 10
2786.03478518
 20
1465.0125099701
 30
0.0
 10
2786.1543975057
 20
1464.7588122751
 30
0.0
 10
2785.9792614351
 20
1464.5558692892
 30
0.0
 10
2785.8865306789
 20
1464.4867641302
 30
0.0
  0
SPLINE
  5
559
100
AcDbEntity
  8
6_ALL_SURFS
100
AcDbSpline
 62
7
  6
CONTINUOUS
 70
0
 71
3
 72
9
 73
5
 74
0
 42
0.0000001
 43
0.0000001
 44
0.0000000001
 40
0.0
 40
0.0
 40
0.0
 40
0.0
 40
0.5056313079
 40
1.0
 40
1.0
 40
1.0
 40
1.0
 10
2295.4762682644
 20
1464.4867641302
 30
0.0
 10
2295.3835375081
 20
1464.5558692892
 30
0.0
 10
2295.2084014376
 20
1464.7588122751
 30
0.0
 10
2295.3280137633
 20
1465.0125099701
 30
0.0
 10
2295.4132877564
 20
1465.0867641302
 30
0.0
  0
SPLINE
  5
55A
100
AcDbEntity
  8
6_ALL_SURFS
100
AcDbSpline
 62
7
  6
CONTINUOUS
 70
0
 71
3
 72
9
 73
5
 74
0
 42
0.0000001
 43
0.0000001
 44
0.0000000001
 40
0.0
 40
0.0
 40
0.0
 40
0.0
 40
0.4943686921
 40
1.0
 40
1.0
 40
1.0
 40
1.0
 10
2535.9495111868
 20
1465.0867641302
 30
0.0
 10
2536.03478518
 20
1465.0125099701
 30
0.0
 10
2536.1543975057
 20
1464.7588122751
 30
0.0
 10
2535.9792614351
 20
1464.5558692892
 30
0.0
 10
2535.8865306789
 20
1464.4867641302
 30
0.0
  0
SPLINE
  5
55B
100
AcDbEntity
  8
6_ALL_SURFS
100
AcDbSpline
 62
7
  6
CONTINUOUS
 70
0
 71
3
 72
9
 73
5
 74
0
 42
0.0000001
 43
0.0000001
 44
0.0000000001
 40
0.0
 40
0.0
 40
0.0
 40
0.0
 40
0.5056313079
 40
1.0
 40
1.0
 40
1.0
 40
1.0
 10
2045.4762682644
 20
1464.4867641302
 30
0.0
 10
2045.3835375081
 20
1464.5558692892
 30
0.0
 10
2045.2084014376
 20
1464.7588122751
 30
0.0
 10
2045.3280137633
 20
1465.0125099701
 30
0.0
 10
2045.4132877564
 20
1465.0867641302
 30
0.0
  0
SPLINE
  5
55C
100
AcDbEntity
  8
6_ALL_SURFS
100
AcDbSpline
 62
7
  6
CONTINUOUS
 70
0
 71
3
 72
9
 73
5
 74
0
 42
0.0000001
 43
0.0000001
 44
0.0000000001
 40
0.0
 40
0.0
 40
0.0
 40
0.0
 40
0.4943686921
 40
1.0
 40
1.0
 40
1.0
 40
1.0
 10
2285.9495111868
 20
1465.0867641302
 30
0.0
 10
2286.03478518
 20
1465.0125099701
 30
0.0
 10
2286.1543975057
 20
1464.7588122751
 30
0.0
 10
2285.9792614351
 20
1464.5558692892
 30
0.0
 10
2285.8865306789
 20
1464.4867641302
 30
0.0
  0
SPLINE
  5
55D
100
AcDbEntity
  8
6_ALL_SURFS
100
AcDbSpline
 62
7
  6
CONTINUOUS
 70
0
 71
3
 72
9
 73
5
 74
0
 42
0.0000001
 43
0.0000001
 44
0.0000000001
 40
0.0
 40
0.0
 40
0.0
 40
0.0
 40
0.5056313079
 40
1.0
 40
1.0
 40
1.0
 40
1.0
 10
1795.4762682644
 20
1464.4867641302
 30
0.0
 10
1795.3835375081
 20
1464.5558692892
 30
0.0
 10
1795.2084014376
 20
1464.7588122751
 30
0.0
 10
1795.3280137633
 20
1465.0125099701
 30
0.0
 10
1795.4132877564
 20
1465.0867641302
 30
0.0
  0
SPLINE
  5
55E
100
AcDbEntity
  8
6_ALL_SURFS
100
AcDbSpline
 62
7
  6
CONTINUOUS
 70
0
 71
3
 72
9
 73
5
 74
0
 42
0.0000001
 43
0.0000001
 44
0.0000000001
 40
0.0
 40
0.0
 40
0.0
 40
0.0
 40
0.4943686921
 40
1.0
 40
1.0
 40
1.0
 40
1.0
 10
2035.9495111868
 20
1465.0867641302
 30
0.0
 10
2036.03478518
 20
1465.0125099701
 30
0.0
 10
2036.1543975057
 20
1464.7588122751
 30
0.0
 10
2035.9792614351
 20
1464.5558692892
 30
0.0
 10
2035.8865306789
 20
1464.4867641302
 30
0.0
  0
SPLINE
  5
55F
100
AcDbEntity
  8
6_ALL_SURFS
100
AcDbSpline
 62
7
  6
CONTINUOUS
 70
0
 71
3
 72
9
 73
5
 74
0
 42
0.0000001
 43
0.0000001
 44
0.0000000001
 40
0.0
 40
0.0
 40
0.0
 40
0.0
 40
0.5056313079
 40
1.0
 40
1.0
 40
1.0
 40
1.0
 10
1545.4762682644
 20
1464.4867641302
 30
0.0
 10
1545.3835375081
 20
1464.5558692892
 30
0.0
 10
1545.2084014376
 20
1464.7588122751
 30
0.0
 10
1545.3280137633
 20
1465.0125099701
 30
0.0
 10
1545.4132877564
 20
1465.0867641302
 30
0.0
  0
SPLINE
  5
560
100
AcDbEntity
  8
6_ALL_SURFS
100
AcDbSpline
 62
7
  6
CONTINUOUS
 70
0
 71
3
 72
9
 73
5
 74
0
 42
0.0000001
 43
0.0000001
 44
0.0000000001
 40
0.0
 40
0.0
 40
0.0
 40
0.0
 40
0.4943686921
 40
1.0
 40
1.0
 40
1.0
 40
1.0
 10
1785.9495111868
 20
1465.0867641302
 30
0.0
 10
1786.03478518
 20
1465.0125099701
 30
0.0
 10
1786.1543975057
 20
1464.7588122751
 30
0.0
 10
1785.9792614351
 20
1464.5558692892
 30
0.0
 10
1785.8865306789
 20
1464.4867641302
 30
0.0
  0
SPLINE
  5
561
100
AcDbEntity
  8
6_ALL_SURFS
100
AcDbSpline
 62
7
  6
CONTINUOUS
 70
0
 71
3
 72
9
 73
5
 74
0
 42
0.0000001
 43
0.0000001
 44
0.0000000001
 40
0.0
 40
0.0
 40
0.0
 40
0.0
 40
0.5056313079
 40
1.0
 40
1.0
 40
1.0
 40
1.0
 10
1295.4762682644
 20
1464.4867641302
 30
0.0
 10
1295.3835375081
 20
1464.5558692892
 30
0.0
 10
1295.2084014376
 20
1464.7588122751
 30
0.0
 10
1295.3280137633
 20
1465.0125099701
 30
0.0
 10
1295.4132877564
 20
1465.0867641302
 30
0.0
  0
SPLINE
  5
562
100
AcDbEntity
  8
6_ALL_SURFS
100
AcDbSpline
 62
7
  6
CONTINUOUS
 70
0
 71
3
 72
9
 73
5
 74
0
 42
0.0000001
 43
0.0000001
 44
0.0000000001
 40
0.0
 40
0.0
 40
0.0
 40
0.0
 40
0.4943686921
 40
1.0
 40
1.0
 40
1.0
 40
1.0
 10
1535.9495111868
 20
1465.0867641302
 30
0.0
 10
1536.03478518
 20
1465.0125099701
 30
0.0
 10
1536.1543975057
 20
1464.7588122751
 30
0.0
 10
1535.9792614351
 20
1464.5558692892
 30
0.0
 10
1535.8865306789
 20
1464.4867641302
 30
0.0
  0
SPLINE
  5
563
100
AcDbEntity
  8
6_ALL_SURFS
100
AcDbSpline
 62
7
  6
CONTINUOUS
 70
0
 71
3
 72
9
 73
5
 74
0
 42
0.0000001
 43
0.0000001
 44
0.0000000001
 40
0.0
 40
0.0
 40
0.0
 40
0.0
 40
0.5056313079
 40
1.0
 40
1.0
 40
1.0
 40
1.0
 10
1045.4762682644
 20
1464.4867641302
 30
0.0
 10
1045.3835375081
 20
1464.5558692892
 30
0.0
 10
1045.2084014376
 20
1464.7588122751
 30
0.0
 10
1045.3280137633
 20
1465.0125099701
 30
0.0
 10
1045.4132877564
 20
1465.0867641302
 30
0.0
  0
SPLINE
  5
564
100
AcDbEntity
  8
6_ALL_SURFS
100
AcDbSpline
 62
7
  6
CONTINUOUS
 70
0
 71
3
 72
9
 73
5
 74
0
 42
0.0000001
 43
0.0000001
 44
0.0000000001
 40
0.0
 40
0.0
 40
0.0
 40
0.0
 40
0.4943686921
 40
1.0
 40
1.0
 40
1.0
 40
1.0
 10
1285.9495111868
 20
1465.0867641302
 30
0.0
 10
1286.03478518
 20
1465.0125099701
 30
0.0
 10
1286.1543975057
 20
1464.7588122751
 30
0.0
 10
1285.9792614351
 20
1464.5558692892
 30
0.0
 10
1285.8865306789
 20
1464.4867641302
 30
0.0
  0
SPLINE
  5
565
100
AcDbEntity
  8
6_ALL_SURFS
100
AcDbSpline
 62
7
  6
CONTINUOUS
 70
0
 71
3
 72
9
 73
5
 74
0
 42
0.0000001
 43
0.0000001
 44
0.0000000001
 40
0.0
 40
0.0
 40
0.0
 40
0.0
 40
0.5056313079
 40
1.0
 40
1.0
 40
1.0
 40
1.0
 10
795.4762682644
 20
1464.4867641302
 30
0.0
 10
795.3835375081
 20
1464.5558692892
 30
0.0
 10
795.2084014376
 20
1464.7588122751
 30
0.0
 10
795.3280137633
 20
1465.0125099701
 30
0.0
 10
795.4132877564
 20
1465.0867641302
 30
0.0
  0
SPLINE
  5
566
100
AcDbEntity
  8
6_ALL_SURFS
100
AcDbSpline
 62
7
  6
CONTINUOUS
 70
0
 71
3
 72
9
 73
5
 74
0
 42
0.0000001
 43
0.0000001
 44
0.0000000001
 40
0.0
 40
0.0
 40
0.0
 40
0.0
 40
0.4943686921
 40
1.0
 40
1.0
 40
1.0
 40
1.0
 10
1035.9495111868
 20
1465.0867641302
 30
0.0
 10
1036.03478518
 20
1465.0125099701
 30
0.0
 10
1036.1543975057
 20
1464.7588122751
 30
0.0
 10
1035.9792614351
 20
1464.5558692892
 30
0.0
 10
1035.8865306789
 20
1464.4867641302
 30
0.0
  0
ELLIPSE
  5
567
100
AcDbEntity
  8
6_ALL_SURFS
100
AcDbEllipse
 62
7
  6
CONTINUOUS
 10
2790.6813994716
 20
731.2463219687
 30
0.0
 11
5.4882058378
 21
-0.0
 31
0.0
 40
0.1015346165
 41
7.212646077
 42
8.495317191
  0
ELLIPSE
  5
568
100
AcDbEntity
  8
6_ALL_SURFS
100
AcDbEllipse
 62
7
  6
CONTINUOUS
 10
2540.6813994716
 20
731.2463219687
 30
0.0
 11
5.4882058378
 21
0.0
 31
0.0
 40
0.1015346165
 41
7.212646077
 42
8.495317191
  0
ELLIPSE
  5
569
100
AcDbEntity
  8
6_ALL_SURFS
100
AcDbEllipse
 62
7
  6
CONTINUOUS
 10
2290.6813994716
 20
731.2463219687
 30
0.0
 11
5.4882058378
 21
0.0
 31
0.0
 40
0.1015346165
 41
7.212646077
 42
8.495317191
  0
ELLIPSE
  5
56A
100
AcDbEntity
  8
6_ALL_SURFS
100
AcDbEllipse
 62
7
  6
CONTINUOUS
 10
2040.6813994716
 20
731.2463219687
 30
0.0
 11
5.4882058378
 21
0.0
 31
0.0
 40
0.1015346165
 41
7.212646077
 42
8.495317191
  0
ELLIPSE
  5
56B
100
AcDbEntity
  8
6_ALL_SURFS
100
AcDbEllipse
 62
7
  6
CONTINUOUS
 10
1790.6813994716
 20
731.2463219687
 30
0.0
 11
5.4882058378
 21
0.0
 31
0.0
 40
0.1015346165
 41
7.212646077
 42
8.495317191
  0
ELLIPSE
  5
56C
100
AcDbEntity
  8
6_ALL_SURFS
100
AcDbEllipse
 62
7
  6
CONTINUOUS
 10
1540.6813994716
 20
731.2463219687
 30
0.0
 11
5.4882058378
 21
0.0
 31
0.0
 40
0.1015346165
 41
7.212646077
 42
8.495317191
  0
ELLIPSE
  5
56D
100
AcDbEntity
  8
6_ALL_SURFS
100
AcDbEllipse
 62
7
  6
CONTINUOUS
 10
1290.6813994716
 20
731.2463219687
 30
0.0
 11
5.4882058378
 21
0.0
 31
0.0
 40
0.1015346165
 41
7.212646077
 42
8.495317191
  0
ELLIPSE
  5
56E
100
AcDbEntity
  8
6_ALL_SURFS
100
AcDbEllipse
 62
7
  6
CONTINUOUS
 10
1040.6813994716
 20
731.2463219687
 30
0.0
 11
5.4882058378
 21
-0.0
 31
0.0
 40
0.1015346165
 41
7.212646077
 42
8.495317191
  0
ELLIPSE
  5
56F
100
AcDbEntity
  8
6_ALL_SURFS
100
AcDbEllipse
 62
7
  6
CONTINUOUS
 10
790.6813994716
 20
731.2463219687
 30
0.0
 11
5.4882058378
 21
0.0
 31
0.0
 40
0.1015346165
 41
7.212646077
 42
8.495317191
  0
ELLIPSE
  5
570
100
AcDbEntity
  8
7_ALL_FEATURES
100
AcDbEllipse
 62
7
  6
CONTINUOUS
 10
1290.6813994716
 20
1367.351937102
 30
0.0
 11
-0.0
 21
5.5724287509
 31
0.0
 40
0.9848857802
 41
-3.7829282106
 42
-2.5002570966
  0
ELLIPSE
  5
571
100
AcDbEntity
  8
7_ALL_FEATURES
100
AcDbEllipse
 62
7
  6
CONTINUOUS
 10
1040.6813994716
 20
1367.351937102
 30
0.0
 11
0.0
 21
5.5724287509
 31
0.0
 40
0.9848857802
 41
-3.7829282106
 42
-2.5002570966
  0
ELLIPSE
  5
572
100
AcDbEntity
  8
7_ALL_FEATURES
100
AcDbEllipse
 62
7
  6
CONTINUOUS
 10
790.6813994716
 20
1367.351937102
 30
0.0
 11
0.0
 21
5.5724287509
 31
0.0
 40
0.9848857802
 41
-3.7829282106
 42
-2.5002570966
  0
ELLIPSE
  5
573
100
AcDbEntity
  8
6_ALL_SURFS
100
AcDbEllipse
 62
7
  6
CONTINUOUS
 10
2790.6813994716
 20
1463.3215911584
 30
0.0
 11
0.0
 21
5.5724287509
 31
0.0
 40
0.9848857802
 41
5.6418497502
 42
6.9245208642
  0
ELLIPSE
  5
574
100
AcDbEntity
  8
6_ALL_SURFS
100
AcDbEllipse
 62
7
  6
CONTINUOUS
 10
2540.6813994716
 20
1463.3215911584
 30
0.0
 11
0.0
 21
5.5724287509
 31
0.0
 40
0.9848857802
 41
5.6418497502
 42
6.9245208642
  0
ELLIPSE
  5
575
100
AcDbEntity
  8
6_ALL_SURFS
100
AcDbEllipse
 62
7
  6
CONTINUOUS
 10
2290.6813994716
 20
1463.3215911584
 30
0.0
 11
-0.0
 21
5.5724287509
 31
0.0
 40
0.9848857802
 41
5.6418497502
 42
6.9245208642
  0
ELLIPSE
  5
576
100
AcDbEntity
  8
6_ALL_SURFS
100
AcDbEllipse
 62
7
  6
CONTINUOUS
 10
2040.6813994716
 20
1463.3215911584
 30
0.0
 11
-0.0
 21
5.5724287509
 31
0.0
 40
0.9848857802
 41
5.6418497502
 42
6.9245208642
  0
ELLIPSE
  5
577
100
AcDbEntity
  8
6_ALL_SURFS
100
AcDbEllipse
 62
7
  6
CONTINUOUS
 10
1790.6813994716
 20
1463.3215911584
 30
0.0
 11
-0.0
 21
5.5724287509
 31
0.0
 40
0.9848857802
 41
5.6418497502
 42
6.9245208642
  0
ELLIPSE
  5
578
100
AcDbEntity
  8
6_ALL_SURFS
100
AcDbEllipse
 62
7
  6
CONTINUOUS
 10
1540.6813994716
 20
1463.3215911584
 30
0.0
 11
-0.0
 21
5.5724287509
 31
0.0
 40
0.9848857802
 41
5.6418497502
 42
6.9245208642
  0
ELLIPSE
  5
579
100
AcDbEntity
  8
6_ALL_SURFS
100
AcDbEllipse
 62
7
  6
CONTINUOUS
 10
1290.6813994716
 20
1463.3215911584
 30
0.0
 11
-0.0
 21
5.5724287509
 31
0.0
 40
0.9848857802
 41
5.6418497502
 42
6.9245208642
  0
ELLIPSE
  5
57A
100
AcDbEntity
  8
6_ALL_SURFS
100
AcDbEllipse
 62
7
  6
CONTINUOUS
 10
1040.6813994716
 20
1463.3215911584
 30
0.0
 11
-0.0
 21
5.5724287509
 31
0.0
 40
0.9848857802
 41
5.6418497502
 42
6.9245208642
  0
ELLIPSE
  5
57B
100
AcDbEntity
  8
6_ALL_SURFS
100
AcDbEllipse
 62
7
  6
CONTINUOUS
 10
790.6813994716
 20
1463.3215911584
 30
0.0
 11
0.0
 21
5.5724287509
 31
0.0
 40
0.9848857802
 41
5.6418497502
 42
6.9245208642
  0
ELLIPSE
  5
57C
100
AcDbEntity
  8
7_ALL_FEATURES
100
AcDbEllipse
 62
7
  6
CONTINUOUS
 10
2790.6813994716
 20
1367.351937102
 30
0.0
 11
0.0
 21
5.5724287509
 31
0.0
 40
0.9848857802
 41
-3.7829282106
 42
-2.5002570966
  0
ELLIPSE
  5
57D
100
AcDbEntity
  8
7_ALL_FEATURES
100
AcDbEllipse
 62
7
  6
CONTINUOUS
 10
2540.6813994716
 20
1367.351937102
 30
0.0
 11
0.0
 21
5.5724287509
 31
0.0
 40
0.9848857802
 41
-3.7829282106
 42
-2.5002570966
  0
ELLIPSE
  5
57E
100
AcDbEntity
  8
7_ALL_FEATURES
100
AcDbEllipse
 62
7
  6
CONTINUOUS
 10
2290.6813994716
 20
1367.351937102
 30
0.0
 11
0.0
 21
5.5724287509
 31
0.0
 40
0.9848857802
 41
-3.7829282106
 42
-2.5002570966
  0
ELLIPSE
  5
57F
100
AcDbEntity
  8
7_ALL_FEATURES
100
AcDbEllipse
 62
7
  6
CONTINUOUS
 10
2040.6813994716
 20
1367.351937102
 30
0.0
 11
-0.0
 21
5.5724287509
 31
0.0
 40
0.9848857802
 41
-3.7829282106
 42
-2.5002570966
  0
ELLIPSE
  5
580
100
AcDbEntity
  8
7_ALL_FEATURES
100
AcDbEllipse
 62
7
  6
CONTINUOUS
 10
1790.6813994716
 20
1367.351937102
 30
0.0
 11
0.0
 21
5.5724287509
 31
0.0
 40
0.9848857802
 41
-3.7829282106
 42
-2.5002570966
  0
ELLIPSE
  5
581
100
AcDbEntity
  8
7_ALL_FEATURES
100
AcDbEllipse
 62
7
  6
CONTINUOUS
 10
1540.6813994716
 20
1367.351937102
 30
0.0
 11
-0.0
 21
5.5724287509
 31
0.0
 40
0.9848857802
 41
-3.7829282106
 42
-2.5002570966
  0
ENDSEC
  0
SECTION
  2
OBJECTS
  0
DICTIONARY
  5
582
100
AcDbDictionary
  3
ACAD_GROUP
350
583
  3
ACAD_MLINESTYLE
350
584
  0
DICTIONARY
  5
583
102
{ACAD_REACTORS
330
582
102
}
100
AcDbDictionary
  0
DICTIONARY
  5
584
102
{ACAD_REACTORS
330
582
102
}
100
AcDbDictionary
  3
STANDARD
350
585
  0
MLINESTYLE
  5
585
102
{ACAD_REACTORS
330
584
102
}
100
AcDbMlineStyle
  2
STANDARD
 70
0
  3

 62
256
 51
90.0
 52
90.0
 71
2
 49
0.5
 62
256
  6
BYLAYER
 49
-0.5
 62
256
  6
BYLAYER
  0
ENDSEC
  0
EOF
