999
DXF file: 6f4_c_042.dxf
999
Pro/ENGINEER 2016360 by Parametric Technology Corporation
  0
SECTION
  2
HEADER
  9
$ACADVER
  1
AC1014
  9
$DWGCODEPAGE
  3
ANSI_1252
  9
$EXTMAX
 10
3200.0
 20
2500.0
 30
0.0
  9
$EXTMIN
 10
0.0
 20
0.0
 30
0.0
  9
$LIMMIN
 10
0.0
 20
0.0
  9
$LIMMAX
 10
3200.0
 20
2500.0
  9
$VIEWCTR
 10
1600.0
 20
1250.0
  9
$VIEWSIZE
 40
2500.0
  9
$CLAYER
  8
0
  9
$LTSCALE
 40
176.0
  9
$CELTYPE
  6
BYLAYER
  9
$DIMSCALE
 40
1.0
  9
$DIMASZ
 40
2.5
  9
$DIMEXO
 40
0.75
  9
$DIMDLI
 40
121.6
  9
$DIMEXE
 40
0.75
  9
$DIMCEN
 40
28.8
  9
$DIMLFAC
 40
1.0
  9
$DIMBLK
  1
_CLOSED
  9
$DIMALT
 70
0
  9
$DIMALTF
 40
25.4
  9
$DIMTXT
 40
3.0
  9
$DIMTOL
 70
1
  9
$DIMLIM
 70
0
  9
$DIMTFAC
 40
1.0
  9
$DIMTP
 40
0.01
  9
$DIMTM
 40
0.01
  9
$DIMGAP
 40
0.625
  9
$AUNITS
 70
0
  9
$PDMODE
 70
3
  9
$PDSIZE
 40
0.3125
  9
$HANDSEED
  5
4F3
  9
$TILEMODE
 70
1
  9
$MEASUREMENT
 70
1
  0
ENDSEC
  0
SECTION
  2
CLASSES
  0
ENDSEC
  0
SECTION
  2
TABLES
  0
TABLE
  2
VPORT
  5
8
100
AcDbSymbolTable
 70
2
  0
VPORT
  5
1F4
100
AcDbSymbolTableRecord
100
AcDbViewportTableRecord
  2
*ACTIVE
 70
0
 10
0.0
 20
0.0
 11
1.0
 21
1.0
 12
1600.0
 22
1250.0
 13
0.0
 23
0.0
 14
1.0
 24
1.0
 15
0.0
 25
0.0
 16
0.0
 26
0.0
 36
1.0
 17
0.0
 27
0.0
 37
0.0
 40
2500.0
 41
1.28
 42
50.0
 43
0.0
 44
0.0
 50
0.0
 51
0.0
 71
0
 72
100
 73
1
 74
1
 75
0
 76
0
 77
0
 78
0
  0
ENDTAB
  0
TABLE
  2
LTYPE
  5
5
100
AcDbSymbolTable
 70
6
  0
LTYPE
  5
14
100
AcDbSymbolTableRecord
100
AcDbLinetypeTableRecord
  2
BYBLOCK
 70
0
  3

 72
65
 73
0
 40
0.0
  0
LTYPE
  5
15
100
AcDbSymbolTableRecord
100
AcDbLinetypeTableRecord
  2
BYLAYER
 70
0
  3

 72
65
 73
0
 40
0.0
  0
LTYPE
  5
16
100
AcDbSymbolTableRecord
100
AcDbLinetypeTableRecord
  2
CONTINUOUS
 70
64
  3
Solid line
 72
65
 73
0
 40
0.0
  0
LTYPE
  5
1F5
100
AcDbSymbolTableRecord
100
AcDbLinetypeTableRecord
  2
CENTER
 70
64
  3
____ _ ____ _ ____ _ ____ _ ____ _ ____ _ ____
 72
65
 73
4
 40
0.6
 49
0.375
 74
0
 49
-0.075
 74
0
 49
0.075
 74
0
 49
-0.075
 74
0
  0
LTYPE
  5
1F6
100
AcDbSymbolTableRecord
100
AcDbLinetypeTableRecord
  2
HIDDEN
 70
64
  3
- - - - - - - - - - - - - - - - - - - -
 72
65
 73
2
 40
0.2
 49
0.1
 74
0
 49
-0.1
 74
0
  0
LTYPE
  5
1F7
100
AcDbSymbolTableRecord
100
AcDbLinetypeTableRecord
  2
PHANTOM
 70
64
  3
_____ _ _ _____ _ _ _____ _ _ _____
 72
65
 73
6
 40
0.8
 49
0.45
 74
0
 49
-0.05
 74
0
 49
0.1
 74
0
 49
-0.05
 74
0
 49
0.1
 74
0
 49
-0.05
 74
0
  0
LTYPE
  5
1F8
100
AcDbSymbolTableRecord
100
AcDbLinetypeTableRecord
  2
DOT
 70
64
  3
. . . . . . . . . . . . . . . . . . . .
 72
65
 73
2
 40
0.2
 49
0.1
 74
0
 49
-0.1
 74
0
  0
LTYPE
  5
1F9
100
AcDbSymbolTableRecord
100
AcDbLinetypeTableRecord
  2
DASHED
 70
64
  3
- - - - - - - - - - - - - - - - - - - -
 72
65
 73
2
 40
0.2
 49
0.1
 74
0
 49
-0.1
 74
0
  0
ENDTAB
  0
TABLE
  2
LAYER
  5
2
100
AcDbSymbolTable
 70
36
  0
LAYER
  5
10
100
AcDbSymbolTableRecord
100
AcDbLayerTableRecord
  2
0
 70
0
 62
7
  6
CONTINUOUS
  0
LAYER
  5
1FA
100
AcDbSymbolTableRecord
100
AcDbLayerTableRecord
  2
DEFAULT_1
 70
0
 62
7
  6
CENTER
  0
LAYER
  5
1FB
100
AcDbSymbolTableRecord
100
AcDbLayerTableRecord
  2
DEFAULT_2
 70
0
 62
8
  6
HIDDEN
  0
LAYER
  5
1FC
100
AcDbSymbolTableRecord
100
AcDbLayerTableRecord
  2
DEFAULT_3
 70
0
 62
7
  6
PHANTOM
  0
LAYER
  5
1FD
100
AcDbSymbolTableRecord
100
AcDbLayerTableRecord
  2
1_ALL_PLANES
 70
0
 62
7
  6
CONTINUOUS
  0
LAYER
  5
1FE
100
AcDbSymbolTableRecord
100
AcDbLayerTableRecord
  2
2_ALL_CSYS
 70
0
 62
7
  6
CONTINUOUS
  0
LAYER
  5
1FF
100
AcDbSymbolTableRecord
100
AcDbLayerTableRecord
  2
3_ALL_AXES
 70
0
 62
7
  6
CONTINUOUS
  0
LAYER
  5
200
100
AcDbSymbolTableRecord
100
AcDbLayerTableRecord
  2
4_ALL_POINTS
 70
0
 62
7
  6
CONTINUOUS
  0
LAYER
  5
201
100
AcDbSymbolTableRecord
100
AcDbLayerTableRecord
  2
5_ALL_CURVES
 70
0
 62
7
  6
CONTINUOUS
  0
LAYER
  5
202
100
AcDbSymbolTableRecord
100
AcDbLayerTableRecord
  2
5__COSTRUZIONE
 70
0
 62
7
  6
CONTINUOUS
  0
LAYER
  5
203
100
AcDbSymbolTableRecord
100
AcDbLayerTableRecord
  2
6_ALL_SURFS
 70
0
 62
7
  6
CONTINUOUS
  0
LAYER
  5
204
100
AcDbSymbolTableRecord
100
AcDbLayerTableRecord
  2
7_ALL_FEATURES
 70
0
 62
7
  6
CONTINUOUS
  0
LAYER
  5
205
100
AcDbSymbolTableRecord
100
AcDbLayerTableRecord
  2
9_SOLID
 70
0
 62
7
  6
CONTINUOUS
  0
LAYER
  5
206
100
AcDbSymbolTableRecord
100
AcDbLayerTableRecord
  2
PR9036
 70
0
 62
7
  6
CONTINUOUS
  0
LAYER
  5
207
100
AcDbSymbolTableRecord
100
AcDbLayerTableRecord
  2
WHITE
 70
0
 62
7
  6
CONTINUOUS
  0
LAYER
  5
208
100
AcDbSymbolTableRecord
100
AcDbLayerTableRecord
  2
XXX_SOLIDO
 70
0
 62
7
  6
CONTINUOUS
  0
ENDTAB
  0
TABLE
  2
STYLE
  5
3
100
AcDbSymbolTable
 70
1
  0
STYLE
  5
11
100
AcDbSymbolTableRecord
100
AcDbTextStyleTableRecord
  2
STANDARD
 70
0
 40
0.0
 41
1.0
 50
0.0
 71
0
 42
0.2
  3
arial.ttf
  4

  0
STYLE
  5
209
100
AcDbSymbolTableRecord
100
AcDbTextStyleTableRecord
  2
TEXTSTYLE_1
 70
0
 40
0.0
 41
0.8
 50
0.0
 71
0
 42
0.2
  3
gdt
  4

  0
STYLE
  5
20A
100
AcDbSymbolTableRecord
100
AcDbTextStyleTableRecord
  2
TEXTSTYLE_2
 70
0
 40
0.0
 41
0.85
 50
0.0
 71
0
 42
0.2
  3
txt
  4

  0
ENDTAB
  0
TABLE
  2
VIEW
  5
6
100
AcDbSymbolTable
 70
0
  0
ENDTAB
  0
TABLE
  2
UCS
  5
7
100
AcDbSymbolTable
 70
0
  0
ENDTAB
  0
TABLE
  2
APPID
  5
9
100
AcDbSymbolTable
 70
1
  0
APPID
  5
20B
100
AcDbSymbolTableRecord
100
AcDbRegAppTableRecord
  2
ACAD
 70
0
  0
ENDTAB
  0
TABLE
  2
BLOCK_RECORD
  5
1
100
AcDbSymbolTable
 70
0
  0
BLOCK_RECORD
  5
1F
100
AcDbSymbolTableRecord
100
AcDbBlockTableRecord
  2
*MODEL_SPACE
  0
BLOCK_RECORD
  5
1B
100
AcDbSymbolTableRecord
100
AcDbBlockTableRecord
  2
*PAPER_SPACE
  0
BLOCK_RECORD
  5
20C
100
AcDbSymbolTableRecord
100
AcDbBlockTableRecord
  2
_CLOSED
  0
BLOCK_RECORD
  5
20D
100
AcDbSymbolTableRecord
100
AcDbBlockTableRecord
  2
*D0
  0
BLOCK_RECORD
  5
20E
100
AcDbSymbolTableRecord
100
AcDbBlockTableRecord
  2
*D1
  0
BLOCK_RECORD
  5
20F
100
AcDbSymbolTableRecord
100
AcDbBlockTableRecord
  2
*D2
  0
BLOCK_RECORD
  5
210
100
AcDbSymbolTableRecord
100
AcDbBlockTableRecord
  2
*D3
  0
BLOCK_RECORD
  5
211
100
AcDbSymbolTableRecord
100
AcDbBlockTableRecord
  2
LOGO2_BL0
  0
ENDTAB
  0
TABLE
  2
DIMSTYLE
  5
A
100
AcDbSymbolTable
 70
1
  0
DIMSTYLE
105
212
100
AcDbSymbolTableRecord
100
AcDbDimStyleTableRecord
  2
STANDARD
 70
0
  3

  4

  5
_CLOSED
  6
_CLOSED
  7
_CLOSED
 40
1.0
 41
2.5
 42
0.75
 43
0.38
 44
0.75
 45
0.0
 46
0.0
 47
0.01
 48
0.01
140
3.0
141
0.09
142
0.0
143
25.4
144
1.0
145
0.0
146
1.0
147
0.625
 71
1.0
 72
0.0
 73
0
 74
0
 75
0
 76
0
 77
1
 78
8
 79
2
170
0
171
1
172
0
173
0
174
0
175
0
176
0
177
0
178
0
270
2
179
2
271
2
272
2
273
2
274
2
275
0
280
0
281
0
282
0
283
1
284
8
285
0
286
0
287
3
288
0
340
11
  0
DIMSTYLE
105
213
100
AcDbSymbolTableRecord
100
AcDbDimStyleTableRecord
  2
DIMSTYLE_1
 70
0
  3

  4

  5
_CLOSED
  6
_CLOSED
  7
_CLOSED
 40
1.0
 41
2.5
 42
0.75
 43
0.38
 44
0.75
 45
0.0
 46
0.0
 47
0.3
 48
0.3
140
10.0
141
0.09
142
0.0
143
25.4
144
1.0
145
0.0
146
1.0
147
2.5
 71
0.0
 72
0.0
 73
0
 74
0
 75
0
 76
0
 77
1
 78
8
 79
2
170
0
171
1
172
0
173
0
174
0
175
0
176
0
177
0
178
0
270
2
179
2
271
2
272
2
273
2
274
2
275
0
280
0
281
0
282
0
283
1
284
8
285
0
286
0
287
3
288
0
340
11
  0
DIMSTYLE
105
214
100
AcDbSymbolTableRecord
100
AcDbDimStyleTableRecord
  2
DIMSTYLE_2
 70
0
  3

  4

  5
_CLOSED
  6
_CLOSED
  7
_CLOSED
 40
1.0
 41
2.5
 42
0.75
 43
0.38
 44
0.75
 45
0.0
 46
0.0
 47
1.2
 48
1.2
140
10.0
141
0.09
142
0.0
143
25.4
144
1.0
145
0.0
146
1.0
147
2.5
 71
0.0
 72
0.0
 73
0
 74
0
 75
0
 76
0
 77
1
 78
8
 79
2
170
0
171
1
172
0
173
0
174
0
175
0
176
0
177
0
178
0
270
2
179
2
271
2
272
2
273
2
274
2
275
0
280
0
281
0
282
0
283
1
284
8
285
0
286
0
287
3
288
0
340
11
  0
ENDTAB
  0
ENDSEC
  0
SECTION
  2
BLOCKS
  0
BLOCK
  5
20
100
AcDbEntity
  8
0
100
AcDbBlockBegin
  2
*MODEL_SPACE
 70
0
 10
0.0
 20
0.0
 30
0.0
  3
*MODEL_SPACE
  1

  0
ENDBLK
  5
21
100
AcDbEntity
  8
0
100
AcDbBlockEnd
  0
BLOCK
  5
1C
100
AcDbEntity
  8
0
100
AcDbBlockBegin
  2
*PAPER_SPACE
 70
0
 10
0.0
 20
0.0
 30
0.0
  3
*PAPER_SPACE
  1

  0
ENDBLK
  5
1D
100
AcDbEntity
  8
0
100
AcDbBlockEnd
  0
BLOCK
  5
215
100
AcDbEntity
  8
0
100
AcDbBlockBegin
 62
2
  6
CONTINUOUS
  2
LOGO2_BL0
 70
64
 10
3098.5426695192
 20
48.2170508203
  3
LOGO2_BL0
  1

  0
LINE
  5
216
100
AcDbEntity
  8
0
100
AcDbLine
 62
7
  6
CONTINUOUS
 10
3090.2855947474
 20
51.4125421592
 11
3088.981253818
 21
51.4125421592
  0
LINE
  5
217
100
AcDbEntity
  8
0
100
AcDbLine
 62
7
  6
CONTINUOUS
 10
3088.981253818
 20
51.4125421592
 11
3088.981253818
 21
40.9534760993
  0
LINE
  5
218
100
AcDbEntity
  8
0
100
AcDbLine
 62
7
  6
CONTINUOUS
 10
3088.981253818
 20
40.9534760993
 11
3093.4623087063
 21
40.9534760993
  0
LINE
  5
219
100
AcDbEntity
  8
0
100
AcDbLine
 62
7
  6
CONTINUOUS
 10
3093.4623087063
 20
40.9534760993
 11
3093.4623087063
 21
42.1463304244
  0
LINE
  5
21A
100
AcDbEntity
  8
0
100
AcDbLine
 62
7
  6
CONTINUOUS
 10
3093.4623087063
 20
42.1463304244
 11
3090.2855947474
 21
42.1463304244
  0
LINE
  5
21B
100
AcDbEntity
  8
0
100
AcDbLine
 62
7
  6
CONTINUOUS
 10
3090.2855947474
 20
42.1463304244
 11
3090.2855947474
 21
51.4125421592
  0
LINE
  5
21C
100
AcDbEntity
  8
0
100
AcDbLine
 62
7
  6
CONTINUOUS
 10
3105.2219209637
 20
51.4125421592
 11
3103.9181034456
 21
51.4125421592
  0
LINE
  5
21D
100
AcDbEntity
  8
0
100
AcDbLine
 62
7
  6
CONTINUOUS
 10
3103.9181034456
 20
51.4125421592
 11
3103.9181034456
 21
40.9534760993
  0
LINE
  5
21E
100
AcDbEntity
  8
0
100
AcDbLine
 62
7
  6
CONTINUOUS
 10
3103.9181034456
 20
40.9534760993
 11
3108.3992891867
 21
40.9534760993
  0
LINE
  5
21F
100
AcDbEntity
  8
0
100
AcDbLine
 62
7
  6
CONTINUOUS
 10
3108.3992891867
 20
40.9534760993
 11
3108.3992891867
 21
42.1463304244
  0
LINE
  5
220
100
AcDbEntity
  8
0
100
AcDbLine
 62
7
  6
CONTINUOUS
 10
3108.3992891867
 20
42.1463304244
 11
3105.2219209637
 21
42.1463304244
  0
LINE
  5
221
100
AcDbEntity
  8
0
100
AcDbLine
 62
7
  6
CONTINUOUS
 10
3105.2219209637
 20
42.1463304244
 11
3105.2219209637
 21
51.4125421592
  0
LWPOLYLINE
  5
222
100
AcDbEntity
  8
0
100
AcDbPolyline
 62
7
  6
CONTINUOUS
 90
2
 70
0
 43
0.2
 10
3087.3356487289
 20
37.6099247924
 10
3087.3356487289
 20
35.7528615431
  0
LWPOLYLINE
  5
223
100
AcDbEntity
  8
0
100
AcDbPolyline
 62
7
  6
CONTINUOUS
 90
2
 70
0
 43
0.2
 10
3087.3356487289
 20
35.7528615431
 10
3088.1313647393
 20
35.7528615431
  0
LWPOLYLINE
  5
224
100
AcDbEntity
  8
0
100
AcDbPolyline
 62
7
  6
CONTINUOUS
 90
2
 70
0
 43
0.2
 10
3088.1313647393
 20
35.7528615431
 10
3088.1313647393
 20
35.9648431146
  0
LWPOLYLINE
  5
225
100
AcDbEntity
  8
0
100
AcDbPolyline
 62
7
  6
CONTINUOUS
 90
2
 70
0
 43
0.2
 10
3088.1313647393
 20
35.9648431146
 10
3087.5672582238
 20
35.9648431146
  0
LWPOLYLINE
  5
226
100
AcDbEntity
  8
0
100
AcDbPolyline
 62
7
  6
CONTINUOUS
 90
2
 70
0
 43
0.2
 10
3087.5672582238
 20
35.9648431146
 10
3087.5672582238
 20
37.6099247924
  0
LWPOLYLINE
  5
227
100
AcDbEntity
  8
0
100
AcDbPolyline
 62
7
  6
CONTINUOUS
 90
2
 70
0
 43
0.2
 10
3087.5672582238
 20
37.6099247924
 10
3087.3356487289
 20
37.6099247924
  0
SPLINE
  5
228
100
AcDbEntity
  8
0
100
AcDbSpline
 62
7
  6
CONTINUOUS
 70
2
 71
3
 72
35
 73
31
 74
0
 42
0.0000001
 43
0.0000001
 44
0.0000000001
 40
0.0
 40
0.0
 40
0.0
 40
0.0
 40
1.0
 40
1.0
 40
1.0
 40
2.0
 40
2.0
 40
2.0
 40
3.0
 40
3.0
 40
3.0
 40
4.0
 40
4.0
 40
4.0
 40
5.0
 40
5.0
 40
5.0
 40
6.0
 40
6.0
 40
6.0
 40
7.0
 40
7.0
 40
7.0
 40
8.0
 40
8.0
 40
8.0
 40
9.0
 40
9.0
 40
9.0
 40
10.0
 40
10.0
 40
10.0
 40
10.0
 10
3089.5296579949
 20
36.9054131989
 30
0.0
 10
3089.5296579949
 20
36.9054131989
 30
0.0
 10
3089.5296579949
 20
36.2432979198
 30
0.0
 10
3089.5296579949
 20
36.2432979198
 30
0.0
 10
3089.5296579949
 20
35.9282043245
 30
0.0
 10
3089.6775216837
 20
35.7136056965
 30
0.0
 10
3090.017608168
 20
35.7136056965
 30
0.0
 10
3090.357171241
 20
35.7136056965
 30
0.0
 10
3090.5052966354
 20
35.9282043245
 30
0.0
 10
3090.5052966354
 20
36.2432979198
 30
0.0
 10
3090.5052966354
 20
36.2432979198
 30
0.0
 10
3090.5052966354
 20
36.9054131989
 30
0.0
 10
3090.5052966354
 20
36.9054131989
 30
0.0
 10
3090.5052966354
 20
36.9054131989
 30
0.0
 10
3090.2832393966
 20
36.9054131989
 30
0.0
 10
3090.2832393966
 20
36.9054131989
 30
0.0
 10
3090.2832393966
 20
36.9054131989
 30
0.0
 10
3090.2832393966
 20
36.2684216616
 30
0.0
 10
3090.2832393966
 20
36.2684216616
 30
0.0
 10
3090.2832393966
 20
36.0826106544
 30
0.0
 10
3090.2365249391
 20
35.9198297439
 30
0.0
 10
3090.017608168
 20
35.9198297439
 30
0.0
 10
3089.7981679855
 20
35.9198297439
 30
0.0
 10
3089.7514535281
 20
36.0826106544
 30
0.0
 10
3089.7514535281
 20
36.2684216616
 30
0.0
 10
3089.7514535281
 20
36.2684216616
 30
0.0
 10
3089.7514535281
 20
36.9054131989
 30
0.0
 10
3089.7514535281
 20
36.9054131989
 30
0.0
 10
3089.7514535281
 20
36.9054131989
 30
0.0
 10
3089.5296579949
 20
36.9054131989
 30
0.0
 10
3089.5296579949
 20
36.9054131989
 30
0.0
  0
SPLINE
  5
229
100
AcDbEntity
  8
0
100
AcDbSpline
 62
7
  6
CONTINUOUS
 70
2
 71
3
 72
35
 73
31
 74
0
 42
0.0000001
 43
0.0000001
 44
0.0000000001
 40
0.0
 40
0.0
 40
0.0
 40
0.0
 40
1.0
 40
1.0
 40
1.0
 40
2.0
 40
2.0
 40
2.0
 40
3.0
 40
3.0
 40
3.0
 40
4.0
 40
4.0
 40
4.0
 40
5.0
 40
5.0
 40
5.0
 40
6.0
 40
6.0
 40
6.0
 40
7.0
 40
7.0
 40
7.0
 40
8.0
 40
8.0
 40
8.0
 40
9.0
 40
9.0
 40
9.0
 40
10.0
 40
10.0
 40
10.0
 40
10.0
 10
3092.9284291926
 20
36.8640637072
 30
0.0
 10
3092.839972685
 20
36.9153580134
 30
0.0
 10
3092.7265232883
 20
36.9404817552
 30
0.0
 10
3092.6228878533
 20
36.9404817552
 30
0.0
 10
3092.2680150002
 20
36.9404817552
 30
0.0
 10
3091.9925698099
 20
36.6766824662
 30
0.0
 10
3091.9925698099
 20
36.3191925565
 30
0.0
 10
3091.9925698099
 20
35.9742645178
 30
0.0
 10
3092.2710246151
 20
35.7141291078
 30
0.0
 10
3092.6105876881
 20
35.7141291078
 30
0.0
 10
3092.7265232883
 20
35.7141291078
 30
0.0
 10
3092.8272799613
 20
35.7361123818
 30
0.0
 10
3092.9284291926
 20
35.7900237445
 30
0.0
 10
3092.9284291926
 20
35.7900237445
 30
0.0
 10
3092.9284291926
 20
36.0726658399
 30
0.0
 10
3092.9284291926
 20
36.0726658399
 30
0.0
 10
3092.8445525338
 20
35.9794986307
 30
0.0
 10
3092.7410479516
 20
35.9203531552
 30
0.0
 10
3092.6129430389
 20
35.9203531552
 30
0.0
 10
3092.3792398988
 20
35.9203531552
 30
0.0
 10
3092.2139727847
 20
36.0925554689
 30
0.0
 10
3092.2139727847
 20
36.329137371
 30
0.0
 10
3092.2139727847
 20
36.5411189426
 30
0.0
 10
3092.3817261025
 20
36.7332108852
 30
0.0
 10
3092.5985492285
 20
36.7332108852
 30
0.0
 10
3092.7313648428
 20
36.7332108852
 30
0.0
 10
3092.839972685
 20
36.6792995226
 30
0.0
 10
3092.9284291926
 20
36.578281144
 30
0.0
 10
3092.9284291926
 20
36.578281144
 30
0.0
 10
3092.9284291926
 20
36.8640637072
 30
0.0
 10
3092.9284291926
 20
36.8640637072
 30
0.0
  0
SPLINE
  5
22A
100
AcDbEntity
  8
0
100
AcDbSpline
 62
7
  6
CONTINUOUS
 70
2
 71
3
 72
32
 73
28
 74
0
 42
0.0000001
 43
0.0000001
 44
0.0000000001
 40
0.0
 40
0.0
 40
0.0
 40
0.0
 40
1.0
 40
1.0
 40
1.0
 40
2.0
 40
2.0
 40
2.0
 40
3.0
 40
3.0
 40
3.0
 40
4.0
 40
4.0
 40
4.0
 40
5.0
 40
5.0
 40
5.0
 40
6.0
 40
6.0
 40
6.0
 40
7.0
 40
7.0
 40
7.0
 40
8.0
 40
8.0
 40
8.0
 40
9.0
 40
9.0
 40
9.0
 40
9.0
 10
3095.4603004449
 20
36.2924985809
 30
0.0
 10
3095.4603004449
 20
36.2924985809
 30
0.0
 10
3095.4603004449
 20
36.3265203146
 30
0.0
 10
3095.4603004449
 20
36.3265203146
 30
0.0
 10
3095.4603004449
 20
36.6688312968
 30
0.0
 10
3095.2874438671
 20
36.9404817552
 30
0.0
 10
3094.9207942599
 20
36.9404817552
 30
0.0
 10
3094.5491722455
 20
36.9404817552
 30
0.0
 10
3094.3594356537
 20
36.6740654097
 30
0.0
 10
3094.3594356537
 20
36.3191925565
 30
0.0
 10
3094.3594356537
 20
35.9794986307
 30
0.0
 10
3094.5735108704
 20
35.7136056965
 30
0.0
 10
3094.9256358143
 20
35.7136056965
 30
0.0
 10
3095.1496558455
 20
35.7136056965
 30
0.0
 10
3095.3518234555
 20
35.8292795911
 30
0.0
 10
3095.4603004449
 20
36.0286992918
 30
0.0
 10
3095.4603004449
 20
36.0286992918
 30
0.0
 10
3095.2726574982
 20
36.1354751945
 30
0.0
 10
3095.2726574982
 20
36.1354751945
 30
0.0
 10
3095.1891733978
 20
35.9967712032
 30
0.0
 10
3095.0979689809
 20
35.910931752
 30
0.0
 10
3094.9283837236
 20
35.910931752
 30
0.0
 10
3094.716402152
 20
35.910931752
 30
0.0
 10
3094.5834556849
 20
36.0956959366
 30
0.0
 10
3094.5811003341
 20
36.2924985809
 30
0.0
 10
3094.5811003341
 20
36.2924985809
 30
0.0
 10
3095.4603004449
 20
36.2924985809
 30
0.0
 10
3095.4603004449
 20
36.2924985809
 30
0.0
  0
SPLINE
  5
22B
100
AcDbEntity
  8
0
100
AcDbSpline
 62
7
  6
CONTINUOUS
 70
2
 71
3
 72
14
 73
10
 74
0
 42
0.0000001
 43
0.0000001
 44
0.0000000001
 40
0.0
 40
0.0
 40
0.0
 40
0.0
 40
1.0
 40
1.0
 40
1.0
 40
2.0
 40
2.0
 40
2.0
 40
3.0
 40
3.0
 40
3.0
 40
3.0
 10
3094.5931387937
 20
36.459990193
 30
0.0
 10
3094.6207487392
 20
36.6248647487
 30
0.0
 10
3094.7485919462
 20
36.7478664013
 30
0.0
 10
3094.9207942599
 20
36.7478664013
 30
0.0
 10
3095.0979689809
 20
36.7478664013
 30
0.0
 10
3095.2114183775
 20
36.6321925067
 30
0.0
 10
3095.2386357645
 20
36.459990193
 30
0.0
 10
3095.2386357645
 20
36.459990193
 30
0.0
 10
3094.5931387937
 20
36.459990193
 30
0.0
 10
3094.5931387937
 20
36.459990193
 30
0.0
  0
SPLINE
  5
22C
100
AcDbEntity
  8
0
100
AcDbSpline
 62
7
  6
CONTINUOUS
 70
2
 71
3
 72
20
 73
16
 74
0
 42
0.0000001
 43
0.0000001
 44
0.0000000001
 40
0.0
 40
0.0
 40
0.0
 40
0.0
 40
1.0
 40
1.0
 40
1.0
 40
2.0
 40
2.0
 40
2.0
 40
3.0
 40
3.0
 40
3.0
 40
4.0
 40
4.0
 40
4.0
 40
5.0
 40
5.0
 40
5.0
 40
5.0
 10
3097.4843318951
 20
36.6693547081
 30
0.0
 10
3097.4843318951
 20
36.6693547081
 30
0.0
 10
3097.8954714617
 20
36.1668798718
 30
0.0
 10
3097.8954714617
 20
36.1668798718
 30
0.0
 10
3097.7794050086
 20
36.0512059771
 30
0.0
 10
3097.6416169871
 20
35.9208765665
 30
0.0
 10
3097.469676379
 20
35.9208765665
 30
0.0
 10
3097.2922399524
 20
35.9208765665
 30
0.0
 10
3097.1247483403
 20
36.0852277109
 30
0.0
 10
3097.1247483403
 20
36.2621407262
 30
0.0
 10
3097.1247483403
 20
36.440100564
 30
0.0
 10
3097.3345054139
 20
36.5662426844
 30
0.0
 10
3097.4620869154
 20
36.6541757808
 30
0.0
 10
3097.4620869154
 20
36.6541757808
 30
0.0
 10
3097.4843318951
 20
36.6693547081
 30
0.0
 10
3097.4843318951
 20
36.6693547081
 30
0.0
  0
SPLINE
  5
22D
100
AcDbEntity
  8
0
100
AcDbSpline
 62
7
  6
CONTINUOUS
 70
2
 71
3
 72
23
 73
19
 74
0
 42
0.0000001
 43
0.0000001
 44
0.0000000001
 40
0.0
 40
0.0
 40
0.0
 40
0.0
 40
1.0
 40
1.0
 40
1.0
 40
2.0
 40
2.0
 40
2.0
 40
3.0
 40
3.0
 40
3.0
 40
4.0
 40
4.0
 40
4.0
 40
5.0
 40
5.0
 40
5.0
 40
6.0
 40
6.0
 40
6.0
 40
6.0
 10
3097.533663409
 20
36.9603713842
 30
0.0
 10
3097.533663409
 20
36.9603713842
 30
0.0
 10
3097.4720317298
 20
37.0388830774
 30
0.0
 10
3097.4720317298
 20
37.0388830774
 30
0.0
 10
3097.4181203672
 20
37.1074499561
 30
0.0
 10
3097.3613302424
 20
37.1765402461
 30
0.0
 10
3097.3613302424
 20
37.2702308666
 30
0.0
 10
3097.3613302424
 20
37.3890452289
 30
0.0
 10
3097.4572453609
 20
37.4665100995
 30
0.0
 10
3097.568208554
 20
37.4665100995
 30
0.0
 10
3097.6914719123
 20
37.4665100995
 30
0.0
 10
3097.7847699743
 20
37.3953261644
 30
0.0
 10
3097.7847699743
 20
37.2649967537
 30
0.0
 10
3097.7847699743
 20
37.1299566414
 30
0.0
 10
3097.6566650616
 20
37.0535385934
 30
0.0
 10
3097.5631052939
 20
36.9797376018
 30
0.0
 10
3097.5631052939
 20
36.9797376018
 30
0.0
 10
3097.533663409
 20
36.9603713842
 30
0.0
 10
3097.533663409
 20
36.9603713842
 30
0.0
  0
SPLINE
  5
22E
100
AcDbEntity
  8
0
100
AcDbSpline
 62
7
  6
CONTINUOUS
 70
2
 71
3
 72
50
 73
46
 74
0
 42
0.0000001
 43
0.0000001
 44
0.0000000001
 40
0.0
 40
0.0
 40
0.0
 40
0.0
 40
1.0
 40
1.0
 40
1.0
 40
2.0
 40
2.0
 40
2.0
 40
3.0
 40
3.0
 40
3.0
 40
4.0
 40
4.0
 40
4.0
 40
5.0
 40
5.0
 40
5.0
 40
6.0
 40
6.0
 40
6.0
 40
7.0
 40
7.0
 40
7.0
 40
8.0
 40
8.0
 40
8.0
 40
9.0
 40
9.0
 40
9.0
 40
10.0
 40
10.0
 40
10.0
 40
11.0
 40
11.0
 40
11.0
 40
12.0
 40
12.0
 40
12.0
 40
13.0
 40
13.0
 40
13.0
 40
14.0
 40
14.0
 40
14.0
 40
15.0
 40
15.0
 40
15.0
 40
15.0
 10
3098.2358196516
 20
35.7533849543
 30
0.0
 10
3098.2358196516
 20
35.7533849543
 30
0.0
 10
3098.5212096564
 20
35.7533849543
 30
0.0
 10
3098.5212096564
 20
35.7533849543
 30
0.0
 10
3098.5212096564
 20
35.7533849543
 30
0.0
 10
3098.1888434886
 20
36.1642628153
 30
0.0
 10
3098.1888434886
 20
36.1642628153
 30
0.0
 10
3098.1888434886
 20
36.1642628153
 30
0.0
 10
3098.4153497234
 20
36.4301557496
 30
0.0
 10
3098.4153497234
 20
36.4301557496
 30
0.0
 10
3098.4153497234
 20
36.4301557496
 30
0.0
 10
3098.2670934761
 20
36.5829918456
 30
0.0
 10
3098.2670934761
 20
36.5829918456
 30
0.0
 10
3098.2670934761
 20
36.5829918456
 30
0.0
 10
3098.0511863199
 20
36.3317544274
 30
0.0
 10
3098.0511863199
 20
36.3317544274
 30
0.0
 10
3098.0511863199
 20
36.3317544274
 30
0.0
 10
3097.6641236725
 20
36.7996841188
 30
0.0
 10
3097.6641236725
 20
36.7996841188
 30
0.0
 10
3097.819576825
 20
36.9137877796
 30
0.0
 10
3098.001854806
 20
37.0535385934
 30
0.0
 10
3098.001854806
 20
37.2629031086
 30
0.0
 10
3098.001854806
 20
37.5068127687
 30
0.0
 10
3097.7998180489
 20
37.6502274616
 30
0.0
 10
3097.573311814
 20
37.6502274616
 30
0.0
 10
3097.3291404482
 20
37.6502274616
 30
0.0
 10
3097.1447688221
 20
37.4994850107
 30
0.0
 10
3097.1447688221
 20
37.2430134796
 30
0.0
 10
3097.1447688221
 20
37.085466682
 30
0.0
 10
3097.2434318498
 20
36.9478095133
 30
0.0
 10
3097.3487683715
 20
36.8368463202
 30
0.0
 10
3097.3487683715
 20
36.8368463202
 30
0.0
 10
3097.2332253297
 20
36.7531005142
 30
0.0
 10
3097.2332253297
 20
36.7531005142
 30
0.0
 10
3097.0555271975
 20
36.6248647487
 30
0.0
 10
3096.90818692
 20
36.4971523944
 30
0.0
 10
3096.90818692
 20
36.260047081
 30
0.0
 10
3096.90818692
 20
35.9397193728
 30
0.0
 10
3097.1667520962
 20
35.7136056965
 30
0.0
 10
3097.4771349899
 20
35.7136056965
 30
0.0
 10
3097.696051761
 20
35.7136056965
 30
0.0
 10
3097.8932469637
 20
35.8387009943
 30
0.0
 10
3098.0335211889
 20
36.0046223725
 30
0.0
 10
3098.0335211889
 20
36.0046223725
 30
0.0
 10
3098.2358196516
 20
35.7533849543
 30
0.0
 10
3098.2358196516
 20
35.7533849543
 30
0.0
  0
LWPOLYLINE
  5
22F
100
AcDbEntity
  8
0
100
AcDbPolyline
 62
7
  6
CONTINUOUS
 90
2
 70
0
 43
0.2
 10
3100.1712637414
 20
37.6099247924
 10
3099.9399159521
 20
37.6099247924
  0
LWPOLYLINE
  5
230
100
AcDbEntity
  8
0
100
AcDbPolyline
 62
7
  6
CONTINUOUS
 90
2
 70
0
 43
0.2
 10
3099.9399159521
 20
37.6099247924
 10
3099.9399159521
 20
35.7528615431
  0
LWPOLYLINE
  5
231
100
AcDbEntity
  8
0
100
AcDbPolyline
 62
7
  6
CONTINUOUS
 90
2
 70
0
 43
0.2
 10
3099.9399159521
 20
35.7528615431
 10
3100.735239404
 20
35.7528615431
  0
LWPOLYLINE
  5
232
100
AcDbEntity
  8
0
100
AcDbPolyline
 62
7
  6
CONTINUOUS
 90
2
 70
0
 43
0.2
 10
3100.735239404
 20
35.7528615431
 10
3100.735239404
 20
35.9648431146
  0
LWPOLYLINE
  5
233
100
AcDbEntity
  8
0
100
AcDbPolyline
 62
7
  6
CONTINUOUS
 90
2
 70
0
 43
0.2
 10
3100.735239404
 20
35.9648431146
 10
3100.1712637414
 20
35.9648431146
  0
LWPOLYLINE
  5
234
100
AcDbEntity
  8
0
100
AcDbPolyline
 62
7
  6
CONTINUOUS
 90
2
 70
0
 43
0.2
 10
3100.1712637414
 20
35.9648431146
 10
3100.1712637414
 20
37.6099247924
  0
LWPOLYLINE
  5
235
100
AcDbEntity
  8
0
100
AcDbPolyline
 62
7
  6
CONTINUOUS
 90
2
 70
0
 43
0.2
 10
3102.4143428155
 20
36.9054131989
 10
3102.1932015464
 20
36.9054131989
  0
LWPOLYLINE
  5
236
100
AcDbEntity
  8
0
100
AcDbPolyline
 62
7
  6
CONTINUOUS
 90
2
 70
0
 43
0.2
 10
3102.1932015464
 20
36.9054131989
 10
3102.1932015464
 20
35.7533849543
  0
LWPOLYLINE
  5
237
100
AcDbEntity
  8
0
100
AcDbPolyline
 62
7
  6
CONTINUOUS
 90
2
 70
0
 43
0.2
 10
3102.1932015464
 20
35.7533849543
 10
3102.4143428155
 20
35.7533849543
  0
LWPOLYLINE
  5
238
100
AcDbEntity
  8
0
100
AcDbPolyline
 62
7
  6
CONTINUOUS
 90
2
 70
0
 43
0.2
 10
3102.4143428155
 20
35.7533849543
 10
3102.4143428155
 20
36.9054131989
  0
LWPOLYLINE
  5
239
100
AcDbEntity
  8
0
100
AcDbPolyline
 62
7
  6
CONTINUOUS
 90
2
 70
1
 43
0.2
 10
3102.1513195383
 20
37.4353671279
 42
1.0
 10
3102.4564865293
 20
37.4353671279
 42
1.0
  0
SPLINE
  5
23A
100
AcDbEntity
  8
0
100
AcDbSpline
 62
7
  6
CONTINUOUS
 70
2
 71
3
 72
17
 73
13
 74
0
 42
0.0000001
 43
0.0000001
 44
0.0000000001
 40
0.0
 40
0.0
 40
0.0
 40
0.0
 40
1.0
 40
1.0
 40
1.0
 40
2.0
 40
2.0
 40
2.0
 40
3.0
 40
3.0
 40
3.0
 40
4.0
 40
4.0
 40
4.0
 40
4.0
 10
3104.5446267572
 20
35.910931752
 30
0.0
 10
3104.3106619115
 20
35.910931752
 30
0.0
 10
3104.1803325008
 20
36.1129685091
 30
0.0
 10
3104.1803325008
 20
36.329137371
 30
0.0
 10
3104.1803325008
 20
36.543735999
 30
0.0
 10
3104.31615773
 20
36.7426322884
 30
0.0
 10
3104.5446267572
 20
36.7426322884
 30
0.0
 10
3104.7840874214
 20
36.7426322884
 30
0.0
 10
3104.9196509449
 20
36.5536808135
 30
0.0
 10
3104.9196509449
 20
36.329137371
 30
0.0
 10
3104.9196509449
 20
36.1030236946
 30
0.0
 10
3104.7864427722
 20
35.910931752
 30
0.0
 10
3104.5446267572
 20
35.910931752
 30
0.0
  0
SPLINE
  5
23B
100
AcDbEntity
  8
0
100
AcDbSpline
 62
7
  6
CONTINUOUS
 70
2
 71
3
 72
50
 73
46
 74
0
 42
0.0000001
 43
0.0000001
 44
0.0000000001
 40
0.0
 40
0.0
 40
0.0
 40
0.0
 40
1.0
 40
1.0
 40
1.0
 40
2.0
 40
2.0
 40
2.0
 40
3.0
 40
3.0
 40
3.0
 40
4.0
 40
4.0
 40
4.0
 40
5.0
 40
5.0
 40
5.0
 40
6.0
 40
6.0
 40
6.0
 40
7.0
 40
7.0
 40
7.0
 40
8.0
 40
8.0
 40
8.0
 40
9.0
 40
9.0
 40
9.0
 40
10.0
 40
10.0
 40
10.0
 40
11.0
 40
11.0
 40
11.0
 40
12.0
 40
12.0
 40
12.0
 40
13.0
 40
13.0
 40
13.0
 40
14.0
 40
14.0
 40
14.0
 40
15.0
 40
15.0
 40
15.0
 40
15.0
 10
3105.1287537544
 20
36.9059366102
 30
0.0
 10
3105.1287537544
 20
36.9059366102
 30
0.0
 10
3104.907089074
 20
36.9059366102
 30
0.0
 10
3104.907089074
 20
36.9059366102
 30
0.0
 10
3104.907089074
 20
36.9059366102
 30
0.0
 10
3104.907089074
 20
36.7086105547
 30
0.0
 10
3104.907089074
 20
36.7086105547
 30
0.0
 10
3104.907089074
 20
36.7086105547
 30
0.0
 10
3104.9023783724
 20
36.7086105547
 30
0.0
 10
3104.9023783724
 20
36.7086105547
 30
0.0
 10
3104.8110431027
 20
36.8515018363
 30
0.0
 10
3104.6731242283
 20
36.9399583439
 30
0.0
 10
3104.5003985033
 20
36.9399583439
 30
0.0
 10
3104.1680323355
 20
36.9399583439
 30
0.0
 10
3103.958929526
 20
36.6520821356
 30
0.0
 10
3103.958929526
 20
36.336465129
 30
0.0
 10
3103.958929526
 20
36.0067160177
 30
0.0
 10
3104.1559938759
 20
35.7136056965
 30
0.0
 10
3104.5108667291
 20
35.7136056965
 30
0.0
 10
3104.6731242283
 20
35.7136056965
 30
0.0
 10
3104.8131367478
 20
35.8020622041
 30
0.0
 10
3104.9023783724
 20
35.9329150261
 30
0.0
 10
3104.9023783724
 20
35.9329150261
 30
0.0
 10
3104.907089074
 20
35.9329150261
 30
0.0
 10
3104.907089074
 20
35.9329150261
 30
0.0
 10
3104.907089074
 20
35.9329150261
 30
0.0
 10
3104.907089074
 20
35.7136056965
 30
0.0
 10
3104.907089074
 20
35.7136056965
 30
0.0
 10
3104.907089074
 20
35.4770237944
 30
0.0
 10
3104.8505606549
 20
35.2901659646
 30
0.0
 10
3104.5773399627
 20
35.2901659646
 30
0.0
 10
3104.3750414999
 20
35.2901659646
 30
0.0
 10
3104.232411924
 20
35.4084569156
 30
0.0
 10
3104.232411924
 20
35.6146809631
 30
0.0
 10
3104.232411924
 20
35.6146809631
 30
0.0
 10
3104.0107472435
 20
35.6146809631
 30
0.0
 10
3104.0107472435
 20
35.6146809631
 30
0.0
 10
3104.0157196508
 20
35.2901659646
 30
0.0
 10
3104.2468057344
 20
35.0933633203
 30
0.0
 10
3104.5671334425
 20
35.0933633203
 30
0.0
 10
3105.015173505
 20
35.0933633203
 30
0.0
 10
3105.1287537544
 20
35.3786224722
 30
0.0
 10
3105.1287537544
 20
35.7753682284
 30
0.0
 10
3105.1287537544
 20
35.7753682284
 30
0.0
 10
3105.1287537544
 20
36.9059366102
 30
0.0
 10
3105.1287537544
 20
36.9059366102
 30
0.0
  0
SPLINE
  5
23C
100
AcDbEntity
  8
0
100
AcDbSpline
 62
7
  6
CONTINUOUS
 70
2
 71
3
 72
44
 73
40
 74
0
 42
0.0000001
 43
0.0000001
 44
0.0000000001
 40
0.0
 40
0.0
 40
0.0
 40
0.0
 40
1.0
 40
1.0
 40
1.0
 40
2.0
 40
2.0
 40
2.0
 40
3.0
 40
3.0
 40
3.0
 40
4.0
 40
4.0
 40
4.0
 40
5.0
 40
5.0
 40
5.0
 40
6.0
 40
6.0
 40
6.0
 40
7.0
 40
7.0
 40
7.0
 40
8.0
 40
8.0
 40
8.0
 40
9.0
 40
9.0
 40
9.0
 40
10.0
 40
10.0
 40
10.0
 40
11.0
 40
11.0
 40
11.0
 40
12.0
 40
12.0
 40
12.0
 40
13.0
 40
13.0
 40
13.0
 40
13.0
 10
3106.6976790898
 20
37.890996654
 30
0.0
 10
3106.6976790898
 20
37.890996654
 30
0.0
 10
3106.6976790898
 20
35.7528615431
 30
0.0
 10
3106.6976790898
 20
35.7528615431
 30
0.0
 10
3106.6976790898
 20
35.7528615431
 30
0.0
 10
3106.9190820646
 20
35.7528615431
 30
0.0
 10
3106.9190820646
 20
35.7528615431
 30
0.0
 10
3106.9190820646
 20
35.7528615431
 30
0.0
 10
3106.9190820646
 20
36.2825537664
 30
0.0
 10
3106.9190820646
 20
36.2825537664
 30
0.0
 10
3106.9190820646
 20
36.4924416928
 30
0.0
 10
3106.9190820646
 20
36.7431556997
 30
0.0
 10
3107.2043412165
 20
36.7431556997
 30
0.0
 10
3107.4312400098
 20
36.7431556997
 30
0.0
 10
3107.4581956911
 20
36.6102092326
 30
0.0
 10
3107.4581956911
 20
36.4139299996
 30
0.0
 10
3107.4581956911
 20
36.4139299996
 30
0.0
 10
3107.4581956911
 20
35.7528615431
 30
0.0
 10
3107.4581956911
 20
35.7528615431
 30
0.0
 10
3107.4581956911
 20
35.7528615431
 30
0.0
 10
3107.6801220772
 20
35.7528615431
 30
0.0
 10
3107.6801220772
 20
35.7528615431
 30
0.0
 10
3107.6801220772
 20
35.7528615431
 30
0.0
 10
3107.6801220772
 20
36.440100564
 30
0.0
 10
3107.6801220772
 20
36.440100564
 30
0.0
 10
3107.6801220772
 20
36.7206490143
 30
0.0
 10
3107.5961145655
 20
36.9404817552
 30
0.0
 10
3107.2710761557
 20
36.9404817552
 30
0.0
 10
3107.1313253418
 20
36.9404817552
 30
0.0
 10
3106.9931447618
 20
36.8740085217
 30
0.0
 10
3106.9237927662
 20
36.751006869
 30
0.0
 10
3106.9237927662
 20
36.751006869
 30
0.0
 10
3106.9190820646
 20
36.751006869
 30
0.0
 10
3106.9190820646
 20
36.751006869
 30
0.0
 10
3106.9190820646
 20
36.751006869
 30
0.0
 10
3106.9190820646
 20
37.890996654
 30
0.0
 10
3106.9190820646
 20
37.890996654
 30
0.0
 10
3106.9190820646
 20
37.890996654
 30
0.0
 10
3106.6976790898
 20
37.890996654
 30
0.0
 10
3106.6976790898
 20
37.890996654
 30
0.0
  0
LWPOLYLINE
  5
23D
100
AcDbEntity
  8
0
100
AcDbPolyline
 62
7
  6
CONTINUOUS
 90
2
 70
0
 43
0.2
 10
3109.519912754
 20
36.6986657402
 10
3109.7363433216
 20
36.6986657402
  0
LWPOLYLINE
  5
23E
100
AcDbEntity
  8
0
100
AcDbPolyline
 62
7
  6
CONTINUOUS
 90
2
 70
0
 43
0.2
 10
3109.7363433216
 20
36.6986657402
 10
3109.7363433216
 20
36.9054131989
  0
LWPOLYLINE
  5
23F
100
AcDbEntity
  8
0
100
AcDbPolyline
 62
7
  6
CONTINUOUS
 90
2
 70
0
 43
0.2
 10
3109.7363433216
 20
36.9054131989
 10
3109.519912754
 20
36.9054131989
  0
LWPOLYLINE
  5
240
100
AcDbEntity
  8
0
100
AcDbPolyline
 62
7
  6
CONTINUOUS
 90
2
 70
0
 43
0.2
 10
3109.519912754
 20
36.9054131989
 10
3109.519912754
 20
37.3461255033
  0
LWPOLYLINE
  5
241
100
AcDbEntity
  8
0
100
AcDbPolyline
 62
7
  6
CONTINUOUS
 90
2
 70
0
 43
0.2
 10
3109.519912754
 20
37.3461255033
 10
3109.2982480736
 20
37.3461255033
  0
LWPOLYLINE
  5
242
100
AcDbEntity
  8
0
100
AcDbPolyline
 62
7
  6
CONTINUOUS
 90
2
 70
0
 43
0.2
 10
3109.2982480736
 20
37.3461255033
 10
3109.2982480736
 20
36.9054131989
  0
LWPOLYLINE
  5
243
100
AcDbEntity
  8
0
100
AcDbPolyline
 62
7
  6
CONTINUOUS
 90
2
 70
0
 43
0.2
 10
3109.2982480736
 20
36.9054131989
 10
3109.1776017717
 20
36.9054131989
  0
LWPOLYLINE
  5
244
100
AcDbEntity
  8
0
100
AcDbPolyline
 62
7
  6
CONTINUOUS
 90
2
 70
0
 43
0.2
 10
3109.1776017717
 20
36.9054131989
 10
3109.1776017717
 20
36.6986657402
  0
LWPOLYLINE
  5
245
100
AcDbEntity
  8
0
100
AcDbPolyline
 62
7
  6
CONTINUOUS
 90
2
 70
0
 43
0.2
 10
3109.1776017717
 20
36.6986657402
 10
3109.2982480736
 20
36.6986657402
  0
LWPOLYLINE
  5
246
100
AcDbEntity
  8
0
100
AcDbPolyline
 62
7
  6
CONTINUOUS
 90
2
 70
0
 43
0.2
 10
3109.2982480736
 20
36.6986657402
 10
3109.2982480736
 20
35.7528615431
  0
LWPOLYLINE
  5
247
100
AcDbEntity
  8
0
100
AcDbPolyline
 62
7
  6
CONTINUOUS
 90
2
 70
0
 43
0.2
 10
3109.2982480736
 20
35.7528615431
 10
3109.519912754
 20
35.7528615431
  0
LWPOLYLINE
  5
248
100
AcDbEntity
  8
0
100
AcDbPolyline
 62
7
  6
CONTINUOUS
 90
2
 70
0
 43
0.2
 10
3109.519912754
 20
35.7528615431
 10
3109.519912754
 20
36.6986657402
  0
SPLINE
  5
249
100
AcDbEntity
  8
0
100
AcDbSpline
 62
7
  6
CONTINUOUS
 70
2
 71
3
 72
20
 73
16
 74
0
 42
0.0000001
 43
0.0000001
 44
0.0000000001
 40
0.0
 40
0.0
 40
0.0
 40
0.0
 40
1.0
 40
1.0
 40
1.0
 40
2.0
 40
2.0
 40
2.0
 40
3.0
 40
3.0
 40
3.0
 40
4.0
 40
4.0
 40
4.0
 40
5.0
 40
5.0
 40
5.0
 40
5.0
 10
3097.3019230613
 20
46.1137879864
 30
0.0
 10
3097.3019230613
 20
46.1137879864
 30
0.0
 10
3099.6182797157
 20
43.2842265642
 30
0.0
 10
3099.6182797157
 20
43.2842265642
 30
0.0
 10
3098.9666326623
 20
42.6320560995
 30
0.0
 10
3098.1897594583
 20
41.8961398288
 30
0.0
 10
3097.2185698137
 20
41.8961398288
 30
0.0
 10
3096.2200319292
 20
41.8961398288
 30
0.0
 10
3095.2767139357
 20
42.825718276
 30
0.0
 10
3095.2767139357
 20
43.8249104246
 30
0.0
 10
3095.2767139357
 20
44.8241025731
 30
0.0
 10
3096.4555670088
 20
45.5307078118
 30
0.0
 10
3097.1770894691
 20
46.0305655917
 30
0.0
 10
3097.1770894691
 20
46.0305655917
 30
0.0
 10
3097.3019230613
 20
46.1137879864
 30
0.0
 10
3097.3019230613
 20
46.1137879864
 30
0.0
  0
SPLINE
  5
24A
100
AcDbEntity
  8
0
100
AcDbSpline
 62
7
  6
CONTINUOUS
 70
2
 71
3
 72
23
 73
19
 74
0
 42
0.0000001
 43
0.0000001
 44
0.0000000001
 40
0.0
 40
0.0
 40
0.0
 40
0.0
 40
1.0
 40
1.0
 40
1.0
 40
2.0
 40
2.0
 40
2.0
 40
3.0
 40
3.0
 40
3.0
 40
4.0
 40
4.0
 40
4.0
 40
5.0
 40
5.0
 40
5.0
 40
6.0
 40
6.0
 40
6.0
 40
6.0
 10
3097.5793310438
 20
47.7515419062
 30
0.0
 10
3097.5793310438
 20
47.7515419062
 30
0.0
 10
3097.2328327713
 20
48.194871267
 30
0.0
 10
3097.2328327713
 20
48.194871267
 30
0.0
 10
3096.9270297263
 20
48.582980737
 30
0.0
 10
3096.6081413992
 20
48.9714827654
 30
0.0
 10
3096.6081413992
 20
49.4984270795
 30
0.0
 10
3096.6081413992
 20
50.1645987961
 30
0.0
 10
3097.1494795237
 20
50.6083207154
 30
0.0
 10
3097.7733857788
 20
50.6083207154
 30
0.0
 10
3098.4671674409
 20
50.6083207154
 30
0.0
 10
3098.9943734606
 20
50.2060791407
 30
0.0
 10
3098.9943734606
 20
49.4710788397
 30
0.0
 10
3098.9943734606
 20
48.7078143291
 30
0.0
 10
3098.2731127059
 20
48.2777011033
 30
0.0
 10
3097.746037539
 20
47.8619816879
 30
0.0
 10
3097.746037539
 20
47.8619816879
 30
0.0
 10
3097.5793310438
 20
47.7515419062
 30
0.0
 10
3097.5793310438
 20
47.7515419062
 30
0.0
  0
SPLINE
  5
24B
100
AcDbEntity
  8
0
100
AcDbSpline
 62
7
  6
CONTINUOUS
 70
2
 71
3
 72
50
 73
46
 74
0
 42
0.0000001
 43
0.0000001
 44
0.0000000001
 40
0.0
 40
0.0
 40
0.0
 40
0.0
 40
1.0
 40
1.0
 40
1.0
 40
2.0
 40
2.0
 40
2.0
 40
3.0
 40
3.0
 40
3.0
 40
4.0
 40
4.0
 40
4.0
 40
5.0
 40
5.0
 40
5.0
 40
6.0
 40
6.0
 40
6.0
 40
7.0
 40
7.0
 40
7.0
 40
8.0
 40
8.0
 40
8.0
 40
9.0
 40
9.0
 40
9.0
 40
10.0
 40
10.0
 40
10.0
 40
11.0
 40
11.0
 40
11.0
 40
12.0
 40
12.0
 40
12.0
 40
13.0
 40
13.0
 40
13.0
 40
14.0
 40
14.0
 40
14.0
 40
15.0
 40
15.0
 40
15.0
 40
15.0
 10
3101.5329182068
 20
40.952952688
 30
0.0
 10
3101.5329182068
 20
40.952952688
 30
0.0
 10
3103.1421462113
 20
40.952952688
 30
0.0
 10
3103.1421462113
 20
40.952952688
 30
0.0
 10
3103.1421462113
 20
40.952952688
 30
0.0
 10
3101.2691189177
 20
43.2700944595
 30
0.0
 10
3101.2691189177
 20
43.2700944595
 30
0.0
 10
3101.2691189177
 20
43.2700944595
 30
0.0
 10
3102.5454573431
 20
44.767574154
 30
0.0
 10
3102.5454573431
 20
44.767574154
 30
0.0
 10
3102.5454573431
 20
44.767574154
 30
0.0
 10
3101.7132333954
 20
45.6285857226
 30
0.0
 10
3101.7132333954
 20
45.6285857226
 30
0.0
 10
3101.7132333954
 20
45.6285857226
 30
0.0
 10
3100.4926382721
 20
44.2132816002
 30
0.0
 10
3100.4926382721
 20
44.2132816002
 30
0.0
 10
3100.4926382721
 20
44.2132816002
 30
0.0
 10
3098.3147239033
 20
46.8486574346
 30
0.0
 10
3098.3147239033
 20
46.8486574346
 30
0.0
 10
3099.1882973427
 20
47.4866957945
 30
0.0
 10
3100.2149685839
 20
48.2777011033
 30
0.0
 10
3100.2149685839
 20
49.4565541764
 30
0.0
 10
3100.2149685839
 20
50.8302471014
 30
0.0
 10
3099.0770724441
 20
51.6347302509
 30
0.0
 10
3097.8017808412
 20
51.6347302509
 30
0.0
 10
3096.4283496218
 20
51.6347302509
 30
0.0
 10
3095.3874154231
 20
50.7885050512
 30
0.0
 10
3095.3874154231
 20
49.345852689
 30
0.0
 10
3095.3874154231
 20
48.4582779976
 30
0.0
 10
3095.9427547995
 20
47.6814047936
 30
0.0
 10
3096.5389202564
 20
47.0569751272
 30
0.0
 10
3096.5389202564
 20
47.0569751272
 30
0.0
 10
3095.8870114973
 20
46.5853815568
 30
0.0
 10
3095.8870114973
 20
46.5853815568
 30
0.0
 10
3094.8884736129
 20
45.8641208021
 30
0.0
 10
3094.0555954011
 20
45.1428600474
 30
0.0
 10
3094.0555954011
 20
43.8113017311
 30
0.0
 10
3094.0555954011
 20
42.0076264331
 30
0.0
 10
3095.5126415737
 20
40.731026302
 30
0.0
 10
3097.2601810111
 20
40.731026302
 30
0.0
 10
3098.495039092
 20
40.731026302
 30
0.0
 10
3099.6044093166
 20
41.4392017745
 30
0.0
 10
3100.3952837726
 20
42.3677333992
 30
0.0
 10
3100.3952837726
 20
42.3677333992
 30
0.0
 10
3101.5329182068
 20
40.952952688
 30
0.0
 10
3101.5329182068
 20
40.952952688
 30
0.0
  0
LINE
  5
24C
100
AcDbEntity
  8
0
100
AcDbLine
 62
7
  6
CONTINUOUS
 10
3087.3357795818
 20
38.9268275927
 11
3109.7496903094
 21
38.9268275927
  0
LINE
  5
24D
100
AcDbEntity
  8
0
100
AcDbLine
 62
7
  6
CONTINUOUS
 10
3109.7496903094
 20
38.9268275927
 11
3109.7496903094
 21
61.3407383203
  0
LINE
  5
24E
100
AcDbEntity
  8
0
100
AcDbLine
 62
7
  6
CONTINUOUS
 10
3109.7496903094
 20
61.3407383203
 11
3087.3357795818
 21
61.3407383203
  0
LINE
  5
24F
100
AcDbEntity
  8
0
100
AcDbLine
 62
7
  6
CONTINUOUS
 10
3087.3357795818
 20
61.3407383203
 11
3087.3357795818
 21
38.9268275927
  0
ENDBLK
  5
250
100
AcDbEntity
  8
0
  6
BYBLOCK
 62
0
100
AcDbBlockEnd
  0
BLOCK
  5
251
100
AcDbEntity
  8
0
100
AcDbBlockBegin
  2
_CLOSED
 70
64
 10
0.0
 20
0.0
  3
_CLOSED
  1

  0
LINE
  5
252
100
AcDbEntity
  8
0
  6
BYBLOCK
 62
0
100
AcDbLine
 10
0.0
 20
0.0
 11
-1.0
 21
0.2
  0
LINE
  5
253
100
AcDbEntity
  8
0
  6
BYBLOCK
 62
0
100
AcDbLine
 10
-1.0
 20
0.2
 11
-1.0
 21
-0.2
  0
LINE
  5
254
100
AcDbEntity
  8
0
  6
BYBLOCK
 62
0
100
AcDbLine
 10
-1.0
 20
-0.2
 11
0.0
 21
0.0
  0
LINE
  5
255
100
AcDbEntity
  8
0
  6
BYBLOCK
 62
0
100
AcDbLine
 10
-1.0
 20
0.0
 11
0.0
 21
0.0
  0
ENDBLK
  5
256
100
AcDbEntity
  8
0
  6
BYBLOCK
 62
0
100
AcDbBlockEnd
  0
BLOCK
  5
257
100
AcDbEntity
  8
0
100
AcDbBlockBegin
 62
7
  6
CONTINUOUS
  2
*D0
 70
65
 10
0.0
 20
0.0
  3
*D0
  1

  0
MTEXT
  5
258
100
AcDbEntity
  8
0
100
AcDbMText
 62
7
  6
CONTINUOUS
  7
STANDARD
 71
2
 72
1
 10
726.0399304783
 20
630.2406017572
 30
0.0
 11
1.0
 21
0.0
 31
0.0
  1
70,1
 40
10.0
 41
27.1747211896
  0
LINE
  5
259
100
AcDbEntity
  8
0
100
AcDbLine
 62
7
  6
CONTINUOUS
 10
690.9899304783
 20
633.2530502485
 11
690.9899304783
 21
616.9906017572
  0
LINE
  5
25A
100
AcDbEntity
  8
0
100
AcDbLine
 62
7
  6
CONTINUOUS
 10
761.0899304783
 20
633.2530502485
 11
761.0899304783
 21
616.9906017572
  0
LINE
  5
25B
100
AcDbEntity
  8
0
100
AcDbLine
 62
7
  6
CONTINUOUS
 10
690.9899304783
 20
617.7406017572
 11
726.0399304783
 21
617.7406017572
  0
LINE
  5
25C
100
AcDbEntity
  8
0
100
AcDbLine
 62
7
  6
CONTINUOUS
 10
761.0899304783
 20
617.7406017572
 11
726.0399304783
 21
617.7406017572
  0
INSERT
  5
25D
100
AcDbEntity
  8
0
100
AcDbBlockReference
 62
7
  6
CONTINUOUS
  2
_CLOSED
 10
690.9899304783
 20
617.7406017572
 41
2.5
 42
2.5
 43
2.5
 50
180.0
  0
INSERT
  5
25E
100
AcDbEntity
  8
0
100
AcDbBlockReference
 62
7
  6
CONTINUOUS
  2
_CLOSED
 10
761.0899304783
 20
617.7406017572
 41
2.5
 42
2.5
 43
2.5
  0
ENDBLK
  5
25F
100
AcDbEntity
  8
0
  6
BYBLOCK
 62
0
100
AcDbBlockEnd
  0
BLOCK
  5
260
100
AcDbEntity
  8
0
100
AcDbBlockBegin
 62
7
  6
CONTINUOUS
  2
*D1
 70
65
 10
0.0
 20
0.0
  3
*D1
  1

  0
MTEXT
  5
261
100
AcDbEntity
  8
0
100
AcDbMText
 62
7
  6
CONTINUOUS
  7
STANDARD
 71
2
 72
1
 10
726.0399304783
 20
609.2182879535
 30
0.0
 11
1.0
 21
0.0
 31
0.0
  1
109,9
 40
10.0
 41
34.9442379182
  0
LINE
  5
262
100
AcDbEntity
  8
0
100
AcDbLine
 62
7
  6
CONTINUOUS
 10
671.0899304783
 20
630.0917228101
 11
671.0899304783
 21
595.9682879535
  0
LINE
  5
263
100
AcDbEntity
  8
0
100
AcDbLine
 62
7
  6
CONTINUOUS
 10
780.9899304783
 20
633.2530502485
 11
780.9899304783
 21
595.9682879535
  0
LINE
  5
264
100
AcDbEntity
  8
0
100
AcDbLine
 62
7
  6
CONTINUOUS
 10
671.0899304783
 20
596.7182879535
 11
726.0399304783
 21
596.7182879535
  0
LINE
  5
265
100
AcDbEntity
  8
0
100
AcDbLine
 62
7
  6
CONTINUOUS
 10
780.9899304783
 20
596.7182879535
 11
726.0399304783
 21
596.7182879535
  0
INSERT
  5
266
100
AcDbEntity
  8
0
100
AcDbBlockReference
 62
7
  6
CONTINUOUS
  2
_CLOSED
 10
671.0899304783
 20
596.7182879535
 41
2.5
 42
2.5
 43
2.5
 50
180.0
  0
INSERT
  5
267
100
AcDbEntity
  8
0
100
AcDbBlockReference
 62
7
  6
CONTINUOUS
  2
_CLOSED
 10
780.9899304783
 20
596.7182879535
 41
2.5
 42
2.5
 43
2.5
  0
ENDBLK
  5
268
100
AcDbEntity
  8
0
  6
BYBLOCK
 62
0
100
AcDbBlockEnd
  0
BLOCK
  5
269
100
AcDbEntity
  8
0
100
AcDbBlockBegin
 62
7
  6
CONTINUOUS
  2
*D2
 70
65
 10
0.0
 20
0.0
  3
*D2
  1

  0
MTEXT
  5
26A
100
AcDbEntity
  8
0
100
AcDbMText
 62
7
  6
CONTINUOUS
  7
STANDARD
 71
2
 72
1
 10
1562.7014825501
 20
630.2406017572
 30
0.0
 11
1.0
 21
0.0
 31
0.0
  1
1127
 40
10.0
 41
31.0780669145
  0
LINE
  5
26B
100
AcDbEntity
  8
0
100
AcDbLine
 62
7
  6
CONTINUOUS
 10
999.2014825501
 20
633.2530502485
 11
999.2014825501
 21
616.9906017572
  0
LINE
  5
26C
100
AcDbEntity
  8
0
100
AcDbLine
 62
7
  6
CONTINUOUS
 10
2126.2014825501
 20
633.2530502485
 11
2126.2014825501
 21
616.9906017572
  0
LINE
  5
26D
100
AcDbEntity
  8
0
100
AcDbLine
 62
7
  6
CONTINUOUS
 10
999.2014825501
 20
617.7406017572
 11
1562.7014825501
 21
617.7406017572
  0
LINE
  5
26E
100
AcDbEntity
  8
0
100
AcDbLine
 62
7
  6
CONTINUOUS
 10
2126.2014825501
 20
617.7406017572
 11
1562.7014825501
 21
617.7406017572
  0
INSERT
  5
26F
100
AcDbEntity
  8
0
100
AcDbBlockReference
 62
7
  6
CONTINUOUS
  2
_CLOSED
 10
999.2014825501
 20
617.7406017572
 41
2.5
 42
2.5
 43
2.5
 50
180.0
  0
INSERT
  5
270
100
AcDbEntity
  8
0
100
AcDbBlockReference
 62
7
  6
CONTINUOUS
  2
_CLOSED
 10
2126.2014825501
 20
617.7406017572
 41
2.5
 42
2.5
 43
2.5
  0
ENDBLK
  5
271
100
AcDbEntity
  8
0
  6
BYBLOCK
 62
0
100
AcDbBlockEnd
  0
BLOCK
  5
272
100
AcDbEntity
  8
0
100
AcDbBlockBegin
 62
7
  6
CONTINUOUS
  2
*D3
 70
65
 10
0.0
 20
0.0
  3
*D3
  1

  0
MTEXT
  5
273
100
AcDbEntity
  8
0
100
AcDbMText
 62
7
  6
CONTINUOUS
  7
STANDARD
 71
2
 72
1
 10
622.2044591288
 20
694.926749861
 30
0.0
 11
0.0
 21
1.0
 31
0.0
  1
76
 40
10.0
 41
15.5390334572
  0
LINE
  5
274
100
AcDbEntity
  8
0
100
AcDbLine
 62
7
  6
CONTINUOUS
 10
665.1242782247
 20
656.926749861
 11
633.9544591288
 21
656.926749861
  0
LINE
  5
275
100
AcDbEntity
  8
0
100
AcDbLine
 62
7
  6
CONTINUOUS
 10
664.2266112481
 20
732.926749861
 11
633.9544591288
 21
732.926749861
  0
LINE
  5
276
100
AcDbEntity
  8
0
100
AcDbLine
 62
7
  6
CONTINUOUS
 10
634.7044591288
 20
656.926749861
 11
634.7044591288
 21
694.926749861
  0
LINE
  5
277
100
AcDbEntity
  8
0
100
AcDbLine
 62
7
  6
CONTINUOUS
 10
634.7044591288
 20
732.926749861
 11
634.7044591288
 21
694.926749861
  0
INSERT
  5
278
100
AcDbEntity
  8
0
100
AcDbBlockReference
 62
7
  6
CONTINUOUS
  2
_CLOSED
 10
634.7044591288
 20
656.926749861
 41
2.5
 42
2.5
 43
2.5
 50
270.0
  0
INSERT
  5
279
100
AcDbEntity
  8
0
100
AcDbBlockReference
 62
7
  6
CONTINUOUS
  2
_CLOSED
 10
634.7044591288
 20
732.926749861
 41
2.5
 42
2.5
 43
2.5
 50
90.0
  0
ENDBLK
  5
27A
100
AcDbEntity
  8
0
  6
BYBLOCK
 62
0
100
AcDbBlockEnd
  0
ENDSEC
  0
SECTION
  2
ENTITIES
  0
DIMENSION
  5
27B
100
AcDbEntity
  8
0
100
AcDbDimension
 62
7
  6
CONTINUOUS
  2
*D0
 10
761.0899304783
 20
617.7406017572
 11
725.0790039063
 21
617.7406017572
 70
160
  3
DIMSTYLE_1
100
AcDbAlignedDimension
 13
690.9899304783
 23
634.0030502485
 14
761.0899304783
 24
634.0030502485
100
AcDbRotatedDimension
  0
DIMENSION
  5
27C
100
AcDbEntity
  8
0
100
AcDbDimension
 62
7
  6
CONTINUOUS
  2
*D1
 10
780.9899304783
 20
596.7182879535
 11
726.4648193359
 21
596.7182879535
 70
160
  3
DIMSTYLE_1
100
AcDbAlignedDimension
 13
671.0899304783
 23
630.8417228101
 14
780.9899304783
 24
634.0030502485
100
AcDbRotatedDimension
  0
DIMENSION
  5
27D
100
AcDbEntity
  8
0
100
AcDbDimension
 62
7
  6
CONTINUOUS
  2
*D2
 10
2126.2014825501
 20
617.7406017572
 11
1563.1229003906
 21
617.7406017572
 70
160
  3
DIMSTYLE_2
100
AcDbAlignedDimension
 13
999.2014825501
 23
634.0030502485
 14
2126.2014825501
 24
634.0030502485
100
AcDbRotatedDimension
  0
DIMENSION
  5
27E
100
AcDbEntity
  8
0
100
AcDbDimension
 62
7
  6
CONTINUOUS
  2
*D3
 10
634.7044591288
 20
732.926749861
 11
634.7044591288
 21
694.9371001754
 70
160
  3
DIMSTYLE_1
100
AcDbAlignedDimension
 13
665.8742782247
 23
656.926749861
 14
664.9766112481
 24
732.926749861
 50
90.0
100
AcDbRotatedDimension
  0
LINE
  5
27F
100
AcDbEntity
  8
0
100
AcDbLine
 62
2
  6
CONTINUOUS
 10
3084.7166224744
 20
61.7170508203
 11
3174.7166224744
 21
61.7170508203
  0
LINE
  5
280
100
AcDbEntity
  8
0
100
AcDbLine
 62
2
  6
CONTINUOUS
 10
3084.7166224744
 20
61.7170508203
 11
3084.7166224744
 21
21.7170508203
  0
LINE
  5
281
100
AcDbEntity
  8
0
100
AcDbLine
 62
2
  6
CONTINUOUS
 10
3114.7166224744
 20
55.7170508203
 11
3174.7166224744
 21
55.7170508203
  0
LINE
  5
282
100
AcDbEntity
  8
0
100
AcDbLine
 62
2
  6
CONTINUOUS
 10
3114.7166224744
 20
49.7170508203
 11
3174.7166224744
 21
49.7170508203
  0
LINE
  5
283
100
AcDbEntity
  8
0
100
AcDbLine
 62
2
  6
CONTINUOUS
 10
3114.7166224744
 20
39.7170508203
 11
3174.7166224744
 21
39.7170508203
  0
LINE
  5
284
100
AcDbEntity
  8
0
100
AcDbLine
 62
2
  6
CONTINUOUS
 10
3084.7166224744
 20
34.7170508203
 11
3174.7166224744
 21
34.7170508203
  0
LINE
  5
285
100
AcDbEntity
  8
0
100
AcDbLine
 62
2
  6
CONTINUOUS
 10
3084.7166224744
 20
21.7170508203
 11
3174.7166224744
 21
21.7170508203
  0
LINE
  5
286
100
AcDbEntity
  8
0
100
AcDbLine
 62
2
  6
CONTINUOUS
 10
3114.7166224744
 20
61.7170508203
 11
3114.7166224744
 21
34.7170508203
  0
LINE
  5
287
100
AcDbEntity
  8
0
100
AcDbLine
 62
2
  6
CONTINUOUS
 10
3154.7166224744
 20
61.7170508203
 11
3154.7166224744
 21
49.7170508203
  0
LINE
  5
288
100
AcDbEntity
  8
0
100
AcDbLine
 62
2
  6
CONTINUOUS
 10
3174.7166224744
 20
61.7170508203
 11
3174.7166224744
 21
21.7170508203
  0
INSERT
  5
289
100
AcDbEntity
  8
0
100
AcDbBlockReference
 62
2
  6
CONTINUOUS
  2
LOGO2_BL0
 10
3098.5426695192
 20
48.2170508203
  0
MTEXT
  5
28A
100
AcDbEntity
  8
9_SOLID
100
AcDbMText
 62
2
  6
CONTINUOUS
  7
TEXTSTYLE_2
 71
1
 72
1
 10
3116.2041224744
 20
60.2170508203
 30
0.0
 11
1.0
 21
0.0
 31
0.0
  1
6F4_C_042
 40
3.0
 41
32.5714285714
  0
MTEXT
  5
28B
100
AcDbEntity
  8
0
100
AcDbMText
 62
2
  6
CONTINUOUS
  7
TEXTSTYLE_2
 71
1
 72
1
 10
3156.2041224744
 20
59.9670508203
 30
0.0
 11
1.0
 21
0.0
 31
0.0
  1
Rev:00
 40
3.5
 41
22.75
  0
MTEXT
  5
28C
100
AcDbEntity
  8
9_SOLID
100
AcDbMText
 62
2
  6
CONTINUOUS
  7
TEXTSTYLE_2
 71
1
 72
1
 10
3116.2041224744
 20
53.9670508203
 30
0.0
 11
1.0
 21
0.0
 31
0.0
  1
Scale:1:1
 40
3.5
 41
28.375
  0
MTEXT
  5
28D
100
AcDbEntity
  8
9_SOLID
100
AcDbMText
 62
2
  6
CONTINUOUS
  7
TEXTSTYLE_2
 71
1
 72
1
 10
3156.2041224744
 20
54.4670508203
 30
0.0
 11
1.0
 21
0.0
 31
0.0
  1
3200 by 2500
 40
3.5
 41
48.5
  0
MTEXT
  5
28E
100
AcDbEntity
  8
0
100
AcDbMText
 62
2
  6
CONTINUOUS
  7
TEXTSTYLE_2
 71
1
 72
1
 10
3116.2041224744
 20
46.4670508203
 30
0.0
 11
1.0
 21
0.0
 31
0.0
  1
CASS. BRENTA 2.3 A FILO
 40
3.5
 41
92.75
  0
MTEXT
  5
28F
100
AcDbEntity
  8
0
100
AcDbMText
 62
2
  6
CONTINUOUS
  7
TEXTSTYLE_2
 71
1
 72
1
 10
3116.2041224744
 20
38.4670508203
 30
0.0
 11
1.0
 21
0.0
 31
0.0
  1
DATE:08/05/18
 40
2.5
 41
36.875
  0
MTEXT
  5
290
100
AcDbEntity
  8
9_SOLID
100
AcDbMText
 62
2
  6
CONTINUOUS
  7
TEXTSTYLE_2
 71
1
 72
1
 10
3086.2041224744
 20
34.4045508203
 30
0.0
 11
1.0
 21
0.0
 31
0.0
  1
Any integral or partial reproductions are prohibited \Pwithout prior authorisation of L {\Ftxt.shx;\W0.190476;\H2.250000; }& L Luce & Light s.r.l., \Pin accordance with the law in force. \PAll rights reserved.
 40
2.25
 41
134.5982142857
  0
LINE
  5
291
100
AcDbEntity
  8
0
100
AcDbLine
 62
7
  6
CONTINUOUS
 10
0.0
 20
0.0
 11
0.0
 21
2500.0
  0
LINE
  5
292
100
AcDbEntity
  8
0
100
AcDbLine
 62
7
  6
CONTINUOUS
 10
0.0
 20
0.0
 11
3200.0
 21
0.0
  0
LINE
  5
293
100
AcDbEntity
  8
0
100
AcDbLine
 62
7
  6
CONTINUOUS
 10
0.0
 20
2500.0
 11
3200.0
 21
2500.0
  0
LINE
  5
294
100
AcDbEntity
  8
0
100
AcDbLine
 62
7
  6
CONTINUOUS
 10
3200.0
 20
0.0
 11
3200.0
 21
2500.0
  0
LINE
  5
295
100
AcDbEntity
  8
6_ALL_SURFS
100
AcDbLine
 62
7
  6
CONTINUOUS
 10
673.5899304783
 20
659.5767498609
 11
673.8899304783
 21
659.4267498609
  0
LINE
  5
296
100
AcDbEntity
  8
6_ALL_SURFS
100
AcDbLine
 62
7
  6
CONTINUOUS
 10
676.5899304783
 20
659.5767498609
 11
676.8899304783
 21
659.4267498609
  0
LINE
  5
297
100
AcDbEntity
  8
6_ALL_SURFS
100
AcDbLine
 62
7
  6
CONTINUOUS
 10
679.5899304783
 20
659.5767498609
 11
679.8899304783
 21
659.4267498609
  0
LINE
  5
298
100
AcDbEntity
  8
6_ALL_SURFS
100
AcDbLine
 62
7
  6
CONTINUOUS
 10
682.5899304783
 20
659.5767498609
 11
682.8899304783
 21
659.4267498609
  0
LINE
  5
299
100
AcDbEntity
  8
6_ALL_SURFS
100
AcDbLine
 62
7
  6
CONTINUOUS
 10
685.5899304783
 20
659.5767498609
 11
685.8899304783
 21
659.4267498609
  0
LINE
  5
29A
100
AcDbEntity
  8
6_ALL_SURFS
100
AcDbLine
 62
7
  6
CONTINUOUS
 10
688.5899304783
 20
659.5767498609
 11
688.8899304783
 21
659.4267498609
  0
LINE
  5
29B
100
AcDbEntity
  8
7_ALL_FEATURES
100
AcDbLine
 62
7
  6
CONTINUOUS
 10
778.4899304783
 20
658.4267498609
 11
780.6354020687
 21
658.6412970199
  0
LINE
  5
29C
100
AcDbEntity
  8
6_ALL_SURFS
100
AcDbLine
 62
7
  6
CONTINUOUS
 10
673.5899304783
 20
658.4267498609
 11
671.4444588879
 21
658.6412970199
  0
LINE
  5
29D
100
AcDbEntity
  8
7_ALL_FEATURES
100
AcDbLine
 62
7
  6
CONTINUOUS
 10
690.9899304783
 20
672.576749861
 11
690.9899304783
 21
657.676749861
  0
LINE
  5
29E
100
AcDbEntity
  8
6_ALL_SURFS
100
AcDbLine
 62
7
  6
CONTINUOUS
 10
691.7399304783
 20
656.9267498609
 11
691.5899304783
 21
656.9267498609
  0
LINE
  5
29F
100
AcDbEntity
  8
7_ALL_FEATURES
100
AcDbLine
 62
7
  6
CONTINUOUS
 10
691.7399304783
 20
656.926749861
 11
760.4899304783
 21
656.9267498609
  0
LINE
  5
2A0
100
AcDbEntity
  8
6_ALL_SURFS
100
AcDbLine
 62
7
  6
CONTINUOUS
 10
690.9899304783
 20
658.4267498609
 11
688.8899304783
 21
658.4267498609
  0
LINE
  5
2A1
100
AcDbEntity
  8
6_ALL_SURFS
100
AcDbLine
 62
7
  6
CONTINUOUS
 10
688.2899304783
 20
658.4267498609
 11
685.8899304783
 21
658.4267498609
  0
LINE
  5
2A2
100
AcDbEntity
  8
6_ALL_SURFS
100
AcDbLine
 62
7
  6
CONTINUOUS
 10
685.2899304783
 20
658.4267498609
 11
682.8899304783
 21
658.4267498609
  0
LINE
  5
2A3
100
AcDbEntity
  8
6_ALL_SURFS
100
AcDbLine
 62
7
  6
CONTINUOUS
 10
682.2899304783
 20
658.4267498609
 11
679.8899304783
 21
658.4267498609
  0
LINE
  5
2A4
100
AcDbEntity
  8
6_ALL_SURFS
100
AcDbLine
 62
7
  6
CONTINUOUS
 10
679.2899304783
 20
658.4267498609
 11
676.8899304783
 21
658.4267498609
  0
LINE
  5
2A5
100
AcDbEntity
  8
6_ALL_SURFS
100
AcDbLine
 62
7
  6
CONTINUOUS
 10
676.2899304783
 20
658.4267498609
 11
673.5899304783
 21
658.4267498609
  0
LINE
  5
2A6
100
AcDbEntity
  8
7_ALL_FEATURES
100
AcDbLine
 62
7
  6
CONTINUOUS
 10
761.0899304783
 20
658.4267498609
 11
763.1899304783
 21
658.4267498609
  0
LINE
  5
2A7
100
AcDbEntity
  8
3_ALL_AXES
100
AcDbLine
 62
7
  6
CONTINUOUS
 10
763.7899304783
 20
658.4267498609
 11
766.1899304783
 21
658.4267498609
  0
LINE
  5
2A8
100
AcDbEntity
  8
3_ALL_AXES
100
AcDbLine
 62
7
  6
CONTINUOUS
 10
766.7899304783
 20
658.4267498609
 11
769.1899304783
 21
658.4267498609
  0
LINE
  5
2A9
100
AcDbEntity
  8
3_ALL_AXES
100
AcDbLine
 62
7
  6
CONTINUOUS
 10
769.7899304783
 20
658.4267498609
 11
772.1899304783
 21
658.4267498609
  0
LINE
  5
2AA
100
AcDbEntity
  8
3_ALL_AXES
100
AcDbLine
 62
7
  6
CONTINUOUS
 10
772.7899304783
 20
658.4267498609
 11
775.1899304783
 21
658.4267498609
  0
LINE
  5
2AB
100
AcDbEntity
  8
3_ALL_AXES
100
AcDbLine
 62
7
  6
CONTINUOUS
 10
775.7899304783
 20
658.4267498609
 11
778.4899304783
 21
658.4267498609
  0
LINE
  5
2AC
100
AcDbEntity
  8
7_ALL_FEATURES
100
AcDbLine
 62
7
  6
CONTINUOUS
 10
780.5962271204
 20
659.4267498609
 11
778.7899304783
 21
659.4267498609
  0
LINE
  5
2AD
100
AcDbEntity
  8
3_ALL_AXES
100
AcDbLine
 62
7
  6
CONTINUOUS
 10
778.1899304783
 20
659.4267498609
 11
775.7899304783
 21
659.4267498609
  0
LINE
  5
2AE
100
AcDbEntity
  8
3_ALL_AXES
100
AcDbLine
 62
7
  6
CONTINUOUS
 10
775.1899304783
 20
659.4267498609
 11
772.7899304783
 21
659.4267498609
  0
LINE
  5
2AF
100
AcDbEntity
  8
3_ALL_AXES
100
AcDbLine
 62
7
  6
CONTINUOUS
 10
772.1899304783
 20
659.4267498609
 11
769.7899304783
 21
659.4267498609
  0
LINE
  5
2B0
100
AcDbEntity
  8
3_ALL_AXES
100
AcDbLine
 62
7
  6
CONTINUOUS
 10
769.1899304783
 20
659.4267498609
 11
766.7899304783
 21
659.4267498609
  0
LINE
  5
2B1
100
AcDbEntity
  8
3_ALL_AXES
100
AcDbLine
 62
7
  6
CONTINUOUS
 10
766.1899304783
 20
659.4267498609
 11
763.7899304783
 21
659.4267498609
  0
LINE
  5
2B2
100
AcDbEntity
  8
3_ALL_AXES
100
AcDbLine
 62
7
  6
CONTINUOUS
 10
763.1899304783
 20
659.4267498609
 11
761.0899304783
 21
659.4267498609
  0
LINE
  5
2B3
100
AcDbEntity
  8
6_ALL_SURFS
100
AcDbLine
 62
7
  6
CONTINUOUS
 10
671.4836338362
 20
659.4267498609
 11
673.2899304783
 21
659.4267498609
  0
LINE
  5
2B4
100
AcDbEntity
  8
6_ALL_SURFS
100
AcDbLine
 62
7
  6
CONTINUOUS
 10
673.8899304783
 20
659.4267498609
 11
676.2899304783
 21
659.4267498609
  0
LINE
  5
2B5
100
AcDbEntity
  8
6_ALL_SURFS
100
AcDbLine
 62
7
  6
CONTINUOUS
 10
676.8899304783
 20
659.4267498609
 11
679.2899304783
 21
659.4267498609
  0
LINE
  5
2B6
100
AcDbEntity
  8
6_ALL_SURFS
100
AcDbLine
 62
7
  6
CONTINUOUS
 10
679.8899304783
 20
659.4267498609
 11
682.2899304783
 21
659.4267498609
  0
LINE
  5
2B7
100
AcDbEntity
  8
6_ALL_SURFS
100
AcDbLine
 62
7
  6
CONTINUOUS
 10
682.8899304783
 20
659.4267498609
 11
685.2899304783
 21
659.4267498609
  0
LINE
  5
2B8
100
AcDbEntity
  8
6_ALL_SURFS
100
AcDbLine
 62
7
  6
CONTINUOUS
 10
685.8899304783
 20
659.4267498609
 11
688.2899304783
 21
659.4267498609
  0
LINE
  5
2B9
100
AcDbEntity
  8
6_ALL_SURFS
100
AcDbLine
 62
7
  6
CONTINUOUS
 10
688.8899304783
 20
659.4267498609
 11
690.9899304783
 21
659.4267498609
  0
LINE
  5
2BA
100
AcDbEntity
  8
7_ALL_FEATURES
100
AcDbLine
 62
7
  6
CONTINUOUS
 10
692.6899304783
 20
668.551749861
 11
692.6899304783
 21
669.301749861
  0
LINE
  5
2BB
100
AcDbEntity
  8
7_ALL_FEATURES
100
AcDbLine
 62
7
  6
CONTINUOUS
 10
693.5649304783
 20
670.176749861
 11
693.5649304783
 21
669.301749861
  0
LINE
  5
2BC
100
AcDbEntity
  8
7_ALL_FEATURES
100
AcDbLine
 62
7
  6
CONTINUOUS
 10
693.5649304783
 20
668.551749861
 11
693.5649304783
 21
667.676749861
  0
LINE
  5
2BD
100
AcDbEntity
  8
7_ALL_FEATURES
100
AcDbLine
 62
7
  6
CONTINUOUS
 10
693.8899304783
 20
707.1466414817
 11
693.8899304783
 21
674.826749861
  0
LINE
  5
2BE
100
AcDbEntity
  8
6_ALL_SURFS
100
AcDbLine
 62
7
  6
CONTINUOUS
 10
693.8899304783
 20
707.1466414817
 11
693.8899304783
 21
707.3491352455
  0
LINE
  5
2BF
100
AcDbEntity
  8
7_ALL_FEATURES
100
AcDbLine
 62
7
  6
CONTINUOUS
 10
694.3149304783
 20
667.676749861
 11
694.3149304783
 21
668.551749861
  0
LINE
  5
2C0
100
AcDbEntity
  8
7_ALL_FEATURES
100
AcDbLine
 62
7
  6
CONTINUOUS
 10
694.3149304783
 20
669.301749861
 11
694.3149304783
 21
670.176749861
  0
LINE
  5
2C1
100
AcDbEntity
  8
7_ALL_FEATURES
100
AcDbLine
 62
7
  6
CONTINUOUS
 10
695.1899304783
 20
669.301749861
 11
695.1899304783
 21
668.551749861
  0
LINE
  5
2C2
100
AcDbEntity
  8
7_ALL_FEATURES
100
AcDbLine
 62
7
  6
CONTINUOUS
 10
697.5842675101
 20
726.6196211662
 11
698.6734775776
 21
732.3175688131
  0
LINE
  5
2C3
100
AcDbEntity
  8
6_ALL_SURFS
100
AcDbLine
 62
7
  6
CONTINUOUS
 10
693.9819235254
 20
708.3038434473
 11
697.4851061009
 21
726.3131623214
  0
LINE
  5
2C4
100
AcDbEntity
  8
7_ALL_FEATURES
100
AcDbLine
 62
7
  6
CONTINUOUS
 10
698.8403736489
 20
732.3222735693
 11
693.9184375625
 21
707.4376888984
  0
LINE
  5
2C5
100
AcDbEntity
  8
6_ALL_SURFS
100
AcDbLine
 62
7
  6
CONTINUOUS
 10
698.7899304783
 20
732.0672403206
 11
698.7899304783
 21
732.6267498609
  0
LINE
  5
2C6
100
AcDbEntity
  8
7_ALL_FEATURES
100
AcDbLine
 62
7
  6
CONTINUOUS
 10
758.5149304783
 20
667.676749861
 11
757.7649304783
 21
667.676749861
  0
LINE
  5
2C7
100
AcDbEntity
  8
7_ALL_FEATURES
100
AcDbLine
 62
7
  6
CONTINUOUS
 10
694.3149304783
 20
667.676749861
 11
693.5649304783
 21
667.676749861
  0
LINE
  5
2C8
100
AcDbEntity
  8
7_ALL_FEATURES
100
AcDbLine
 62
7
  6
CONTINUOUS
 10
694.3149304783
 20
668.551749861
 11
695.1899304783
 21
668.551749861
  0
LINE
  5
2C9
100
AcDbEntity
  8
7_ALL_FEATURES
100
AcDbLine
 62
7
  6
CONTINUOUS
 10
692.6899304783
 20
668.551749861
 11
693.5649304783
 21
668.551749861
  0
LINE
  5
2CA
100
AcDbEntity
  8
7_ALL_FEATURES
100
AcDbLine
 62
7
  6
CONTINUOUS
 10
756.8899304783
 20
668.551749861
 11
757.7649304783
 21
668.551749861
  0
LINE
  5
2CB
100
AcDbEntity
  8
7_ALL_FEATURES
100
AcDbLine
 62
7
  6
CONTINUOUS
 10
758.5149304783
 20
668.551749861
 11
759.3899304783
 21
668.551749861
  0
LINE
  5
2CC
100
AcDbEntity
  8
7_ALL_FEATURES
100
AcDbLine
 62
7
  6
CONTINUOUS
 10
701.8399304783
 20
729.301749861
 11
701.8399304783
 21
730.051749861
  0
LINE
  5
2CD
100
AcDbEntity
  8
7_ALL_FEATURES
100
AcDbLine
 62
7
  6
CONTINUOUS
 10
702.7149304783
 20
730.926749861
 11
702.7149304783
 21
730.051749861
  0
LINE
  5
2CE
100
AcDbEntity
  8
7_ALL_FEATURES
100
AcDbLine
 62
7
  6
CONTINUOUS
 10
702.7149304783
 20
729.301749861
 11
702.7149304783
 21
728.426749861
  0
LINE
  5
2CF
100
AcDbEntity
  8
7_ALL_FEATURES
100
AcDbLine
 62
7
  6
CONTINUOUS
 10
703.4649304783
 20
728.426749861
 11
703.4649304783
 21
729.301749861
  0
LINE
  5
2D0
100
AcDbEntity
  8
7_ALL_FEATURES
100
AcDbLine
 62
7
  6
CONTINUOUS
 10
703.4649304783
 20
730.051749861
 11
703.4649304783
 21
730.926749861
  0
LINE
  5
2D1
100
AcDbEntity
  8
7_ALL_FEATURES
100
AcDbLine
 62
7
  6
CONTINUOUS
 10
704.3399304783
 20
730.051749861
 11
704.3399304783
 21
729.301749861
  0
LINE
  5
2D2
100
AcDbEntity
  8
7_ALL_FEATURES
100
AcDbLine
 62
7
  6
CONTINUOUS
 10
759.3899304783
 20
669.301749861
 11
758.5149304783
 21
669.301749861
  0
LINE
  5
2D3
100
AcDbEntity
  8
7_ALL_FEATURES
100
AcDbLine
 62
7
  6
CONTINUOUS
 10
757.7649304783
 20
669.301749861
 11
756.8899304783
 21
669.301749861
  0
LINE
  5
2D4
100
AcDbEntity
  8
7_ALL_FEATURES
100
AcDbLine
 62
7
  6
CONTINUOUS
 10
695.1899304783
 20
669.301749861
 11
694.3149304783
 21
669.301749861
  0
LINE
  5
2D5
100
AcDbEntity
  8
7_ALL_FEATURES
100
AcDbLine
 62
7
  6
CONTINUOUS
 10
693.5649304783
 20
669.301749861
 11
692.6899304783
 21
669.301749861
  0
LINE
  5
2D6
100
AcDbEntity
  8
7_ALL_FEATURES
100
AcDbLine
 62
7
  6
CONTINUOUS
 10
693.5649304783
 20
670.176749861
 11
694.3149304783
 21
670.176749861
  0
LINE
  5
2D7
100
AcDbEntity
  8
7_ALL_FEATURES
100
AcDbLine
 62
7
  6
CONTINUOUS
 10
757.7649304783
 20
670.176749861
 11
758.5149304783
 21
670.176749861
  0
LINE
  5
2D8
100
AcDbEntity
  8
7_ALL_FEATURES
100
AcDbLine
 62
7
  6
CONTINUOUS
 10
760.3399304783
 20
673.326749861
 11
759.6899304783
 21
673.326749861
  0
LINE
  5
2D9
100
AcDbEntity
  8
7_ALL_FEATURES
100
AcDbLine
 62
7
  6
CONTINUOUS
 10
692.3899304783
 20
673.326749861
 11
691.7399304783
 21
673.326749861
  0
LINE
  5
2DA
100
AcDbEntity
  8
3_ALL_AXES
100
AcDbLine
 62
7
  6
CONTINUOUS
 10
763.7899304783
 20
659.4267498609
 11
763.4899304783
 21
659.5767498609
  0
LINE
  5
2DB
100
AcDbEntity
  8
3_ALL_AXES
100
AcDbLine
 62
7
  6
CONTINUOUS
 10
766.7899304783
 20
659.4267498609
 11
766.4899304783
 21
659.5767498609
  0
LINE
  5
2DC
100
AcDbEntity
  8
3_ALL_AXES
100
AcDbLine
 62
7
  6
CONTINUOUS
 10
769.7899304783
 20
659.4267498609
 11
769.4899304783
 21
659.5767498609
  0
LINE
  5
2DD
100
AcDbEntity
  8
3_ALL_AXES
100
AcDbLine
 62
7
  6
CONTINUOUS
 10
772.7899304783
 20
659.4267498609
 11
772.4899304783
 21
659.5767498609
  0
LINE
  5
2DE
100
AcDbEntity
  8
3_ALL_AXES
100
AcDbLine
 62
7
  6
CONTINUOUS
 10
775.7899304783
 20
659.4267498609
 11
775.4899304783
 21
659.5767498609
  0
LINE
  5
2DF
100
AcDbEntity
  8
7_ALL_FEATURES
100
AcDbLine
 62
7
  6
CONTINUOUS
 10
722.0399304783
 20
723.3613985561
 11
722.0399304783
 21
724.1719333544
  0
LINE
  5
2E0
100
AcDbEntity
  8
3_ALL_AXES
100
AcDbLine
 62
7
  6
CONTINUOUS
 10
778.7899304783
 20
659.4267498609
 11
778.4899304783
 21
659.5767498609
  0
LINE
  5
2E1
100
AcDbEntity
  8
7_ALL_FEATURES
100
AcDbLine
 62
7
  6
CONTINUOUS
 10
730.0399304783
 20
723.3613985561
 11
730.0399304783
 21
724.1719333544
  0
LINE
  5
2E2
100
AcDbEntity
  8
6_ALL_SURFS
100
AcDbLine
 62
7
  6
CONTINUOUS
 10
673.2899304783
 20
659.4267498609
 11
673.5899304783
 21
659.5767498609
  0
LINE
  5
2E3
100
AcDbEntity
  8
6_ALL_SURFS
100
AcDbLine
 62
7
  6
CONTINUOUS
 10
676.2899304783
 20
659.4267498609
 11
676.5899304783
 21
659.5767498609
  0
LINE
  5
2E4
100
AcDbEntity
  8
6_ALL_SURFS
100
AcDbLine
 62
7
  6
CONTINUOUS
 10
679.2899304783
 20
659.4267498609
 11
679.5899304783
 21
659.5767498609
  0
LINE
  5
2E5
100
AcDbEntity
  8
6_ALL_SURFS
100
AcDbLine
 62
7
  6
CONTINUOUS
 10
682.2899304783
 20
659.4267498609
 11
682.5899304783
 21
659.5767498609
  0
LINE
  5
2E6
100
AcDbEntity
  8
6_ALL_SURFS
100
AcDbLine
 62
7
  6
CONTINUOUS
 10
685.2899304783
 20
659.4267498609
 11
685.5899304783
 21
659.5767498609
  0
LINE
  5
2E7
100
AcDbEntity
  8
6_ALL_SURFS
100
AcDbLine
 62
7
  6
CONTINUOUS
 10
688.2899304783
 20
659.4267498609
 11
688.5899304783
 21
659.5767498609
  0
LINE
  5
2E8
100
AcDbEntity
  8
7_ALL_FEATURES
100
AcDbLine
 62
7
  6
CONTINUOUS
 10
737.0221604431
 20
713.301749861
 11
736.2708578556
 21
713.301749861
  0
LINE
  5
2E9
100
AcDbEntity
  8
7_ALL_FEATURES
100
AcDbLine
 62
7
  6
CONTINUOUS
 10
715.809003101
 20
713.301749861
 11
715.0577005135
 21
713.301749861
  0
LINE
  5
2EA
100
AcDbEntity
  8
7_ALL_FEATURES
100
AcDbLine
 62
7
  6
CONTINUOUS
 10
747.7399304783
 20
729.301749861
 11
747.7399304783
 21
730.051749861
  0
LINE
  5
2EB
100
AcDbEntity
  8
7_ALL_FEATURES
100
AcDbLine
 62
7
  6
CONTINUOUS
 10
748.6149304783
 20
730.926749861
 11
748.6149304783
 21
730.051749861
  0
LINE
  5
2EC
100
AcDbEntity
  8
7_ALL_FEATURES
100
AcDbLine
 62
7
  6
CONTINUOUS
 10
748.6149304783
 20
729.301749861
 11
748.6149304783
 21
728.426749861
  0
LINE
  5
2ED
100
AcDbEntity
  8
7_ALL_FEATURES
100
AcDbLine
 62
7
  6
CONTINUOUS
 10
715.0577005135
 20
714.551749861
 11
715.809003101
 21
714.551749861
  0
LINE
  5
2EE
100
AcDbEntity
  8
7_ALL_FEATURES
100
AcDbLine
 62
7
  6
CONTINUOUS
 10
736.2708578556
 20
714.551749861
 11
737.0221604431
 21
714.551749861
  0
LINE
  5
2EF
100
AcDbEntity
  8
7_ALL_FEATURES
100
AcDbLine
 62
7
  6
CONTINUOUS
 10
749.3649304783
 20
728.426749861
 11
749.3649304783
 21
729.301749861
  0
LINE
  5
2F0
100
AcDbEntity
  8
7_ALL_FEATURES
100
AcDbLine
 62
7
  6
CONTINUOUS
 10
749.3649304783
 20
730.051749861
 11
749.3649304783
 21
730.926749861
  0
LINE
  5
2F1
100
AcDbEntity
  8
7_ALL_FEATURES
100
AcDbLine
 62
7
  6
CONTINUOUS
 10
750.2399304783
 20
730.051749861
 11
750.2399304783
 21
729.301749861
  0
LINE
  5
2F2
100
AcDbEntity
  8
7_ALL_FEATURES
100
AcDbLine
 62
7
  6
CONTINUOUS
 10
753.2899304783
 20
732.5973955941
 11
753.2899304783
 21
732.6267498609
  0
LINE
  5
2F3
100
AcDbEntity
  8
7_ALL_FEATURES
100
AcDbLine
 62
7
  6
CONTINUOUS
 10
756.8899304783
 20
668.551749861
 11
756.8899304783
 21
669.301749861
  0
LINE
  5
2F4
100
AcDbEntity
  8
7_ALL_FEATURES
100
AcDbLine
 62
7
  6
CONTINUOUS
 10
757.7649304783
 20
670.176749861
 11
757.7649304783
 21
669.301749861
  0
LINE
  5
2F5
100
AcDbEntity
  8
7_ALL_FEATURES
100
AcDbLine
 62
7
  6
CONTINUOUS
 10
757.7649304783
 20
668.551749861
 11
757.7649304783
 21
667.676749861
  0
LINE
  5
2F6
100
AcDbEntity
  8
7_ALL_FEATURES
100
AcDbLine
 62
7
  6
CONTINUOUS
 10
758.1899304783
 20
674.826749861
 11
758.1899304783
 21
707.3491352455
  0
LINE
  5
2F7
100
AcDbEntity
  8
7_ALL_FEATURES
100
AcDbLine
 62
7
  6
CONTINUOUS
 10
758.5149304783
 20
667.676749861
 11
758.5149304783
 21
668.551749861
  0
LINE
  5
2F8
100
AcDbEntity
  8
7_ALL_FEATURES
100
AcDbLine
 62
7
  6
CONTINUOUS
 10
758.5149304783
 20
669.301749861
 11
758.5149304783
 21
670.176749861
  0
LINE
  5
2F9
100
AcDbEntity
  8
7_ALL_FEATURES
100
AcDbLine
 62
7
  6
CONTINUOUS
 10
759.3899304783
 20
669.301749861
 11
759.3899304783
 21
668.551749861
  0
LINE
  5
2FA
100
AcDbEntity
  8
7_ALL_FEATURES
100
AcDbLine
 62
7
  6
CONTINUOUS
 10
761.0899304783
 20
657.676749861
 11
761.0899304783
 21
672.576749861
  0
LINE
  5
2FB
100
AcDbEntity
  8
7_ALL_FEATURES
100
AcDbLine
 62
7
  6
CONTINUOUS
 10
749.3649304783
 20
728.426749861
 11
748.6149304783
 21
728.426749861
  0
LINE
  5
2FC
100
AcDbEntity
  8
7_ALL_FEATURES
100
AcDbLine
 62
7
  6
CONTINUOUS
 10
703.4649304783
 20
728.426749861
 11
702.7149304783
 21
728.426749861
  0
LINE
  5
2FD
100
AcDbEntity
  8
7_ALL_FEATURES
100
AcDbLine
 62
7
  6
CONTINUOUS
 10
703.4649304783
 20
729.301749861
 11
704.3399304783
 21
729.301749861
  0
LINE
  5
2FE
100
AcDbEntity
  8
7_ALL_FEATURES
100
AcDbLine
 62
7
  6
CONTINUOUS
 10
701.8399304783
 20
729.301749861
 11
702.7149304783
 21
729.301749861
  0
LINE
  5
2FF
100
AcDbEntity
  8
7_ALL_FEATURES
100
AcDbLine
 62
7
  6
CONTINUOUS
 10
747.7399304783
 20
729.301749861
 11
748.6149304783
 21
729.301749861
  0
LINE
  5
300
100
AcDbEntity
  8
7_ALL_FEATURES
100
AcDbLine
 62
7
  6
CONTINUOUS
 10
749.3649304783
 20
729.301749861
 11
750.2399304783
 21
729.301749861
  0
LINE
  5
301
100
AcDbEntity
  8
7_ALL_FEATURES
100
AcDbLine
 62
7
  6
CONTINUOUS
 10
750.2399304783
 20
730.051749861
 11
749.3649304783
 21
730.051749861
  0
LINE
  5
302
100
AcDbEntity
  8
7_ALL_FEATURES
100
AcDbLine
 62
7
  6
CONTINUOUS
 10
748.6149304783
 20
730.051749861
 11
747.7399304783
 21
730.051749861
  0
LINE
  5
303
100
AcDbEntity
  8
7_ALL_FEATURES
100
AcDbLine
 62
7
  6
CONTINUOUS
 10
704.3399304783
 20
730.051749861
 11
703.4649304783
 21
730.051749861
  0
LINE
  5
304
100
AcDbEntity
  8
7_ALL_FEATURES
100
AcDbLine
 62
7
  6
CONTINUOUS
 10
702.7149304783
 20
730.051749861
 11
701.8399304783
 21
730.051749861
  0
LINE
  5
305
100
AcDbEntity
  8
7_ALL_FEATURES
100
AcDbLine
 62
7
  6
CONTINUOUS
 10
702.7149304783
 20
730.926749861
 11
703.4649304783
 21
730.926749861
  0
LINE
  5
306
100
AcDbEntity
  8
7_ALL_FEATURES
100
AcDbLine
 62
7
  6
CONTINUOUS
 10
748.6149304783
 20
730.926749861
 11
749.3649304783
 21
730.926749861
  0
LINE
  5
307
100
AcDbEntity
  8
7_ALL_FEATURES
100
AcDbLine
 62
7
  6
CONTINUOUS
 10
758.0979374312
 20
708.3038434473
 11
754.5947548557
 21
726.3131623214
  0
LINE
  5
308
100
AcDbEntity
  8
7_ALL_FEATURES
100
AcDbLine
 62
7
  6
CONTINUOUS
 10
758.1632532844
 20
707.4331167738
 11
753.406383379
 21
732.3175688131
  0
LINE
  5
309
100
AcDbEntity
  8
7_ALL_FEATURES
100
AcDbLine
 62
7
  6
CONTINUOUS
 10
752.9899304783
 20
732.9267498609
 11
728.6856817894
 21
732.926749861
  0
LINE
  5
30A
100
AcDbEntity
  8
7_ALL_FEATURES
100
AcDbLine
 62
7
  6
CONTINUOUS
 10
723.3941791672
 20
732.926749861
 11
699.5761201068
 21
732.926749861
  0
LINE
  5
30B
100
AcDbEntity
  8
6_ALL_SURFS
100
AcDbLine
 62
7
  6
CONTINUOUS
 10
699.0899304783
 20
732.9267498609
 11
699.5761201068
 21
732.9267498609
  0
LINE
  5
30C
100
AcDbEntity
  8
7_ALL_FEATURES
100
AcDbLine
 62
7
  6
CONTINUOUS
 10
723.4399304783
 20
732.9267498609
 11
728.6399304783
 21
732.9267498609
  0
LINE
  5
30D
100
AcDbEntity
  8
3_ALL_AXES
100
AcDbLine
 62
7
  6
CONTINUOUS
 10
763.4899304783
 20
659.5767498609
 11
763.1899304783
 21
659.4267498609
  0
LINE
  5
30E
100
AcDbEntity
  8
3_ALL_AXES
100
AcDbLine
 62
7
  6
CONTINUOUS
 10
766.4899304783
 20
659.5767498609
 11
766.1899304783
 21
659.4267498609
  0
LINE
  5
30F
100
AcDbEntity
  8
3_ALL_AXES
100
AcDbLine
 62
7
  6
CONTINUOUS
 10
769.4899304783
 20
659.5767498609
 11
769.1899304783
 21
659.4267498609
  0
LINE
  5
310
100
AcDbEntity
  8
3_ALL_AXES
100
AcDbLine
 62
7
  6
CONTINUOUS
 10
772.4899304783
 20
659.5767498609
 11
772.1899304783
 21
659.4267498609
  0
LINE
  5
311
100
AcDbEntity
  8
3_ALL_AXES
100
AcDbLine
 62
7
  6
CONTINUOUS
 10
775.4899304783
 20
659.5767498609
 11
775.1899304783
 21
659.4267498609
  0
LINE
  5
312
100
AcDbEntity
  8
3_ALL_AXES
100
AcDbLine
 62
7
  6
CONTINUOUS
 10
778.4899304783
 20
659.5767498609
 11
778.1899304783
 21
659.4267498609
  0
LINE
  5
313
100
AcDbEntity
  8
3_ALL_AXES
100
AcDbLine
 62
7
  6
CONTINUOUS
 10
997.9514825501
 20
666.1767979272
 11
997.9514825501
 21
671.6767017948
  0
LINE
  5
314
100
AcDbEntity
  8
3_ALL_AXES
100
AcDbLine
 62
7
  6
CONTINUOUS
 10
997.9514825501
 20
726.9267979272
 11
997.9514825501
 21
732.4267017948
  0
LINE
  5
315
100
AcDbEntity
  8
3_ALL_AXES
100
AcDbLine
 62
7
  6
CONTINUOUS
 10
998.1022028797
 20
666.176749861
 11
998.1022028797
 21
671.676749861
  0
LINE
  5
316
100
AcDbEntity
  8
3_ALL_AXES
100
AcDbLine
 62
7
  6
CONTINUOUS
 10
998.1022028797
 20
726.926749861
 11
998.1022028797
 21
732.426749861
  0
LINE
  5
317
100
AcDbEntity
  8
7_ALL_FEATURES
100
AcDbLine
 62
7
  6
CONTINUOUS
 10
999.2014825501
 20
656.926749861
 11
999.2014825501
 21
732.926749861
  0
LINE
  5
318
100
AcDbEntity
  8
6_ALL_SURFS
100
AcDbLine
 62
7
  6
CONTINUOUS
 10
1000.7014825501
 20
656.9867882296
 11
1000.7014825501
 21
656.9267498609
  0
LINE
  5
319
100
AcDbEntity
  8
7_ALL_FEATURES
100
AcDbLine
 62
7
  6
CONTINUOUS
 10
1000.7014825501
 20
656.9867882296
 11
1000.7014825501
 21
658.4267498609
  0
LINE
  5
31A
100
AcDbEntity
  8
6_ALL_SURFS
100
AcDbLine
 62
7
  6
CONTINUOUS
 10
1000.7014825501
 20
658.4267498609
 11
1000.7014825501
 21
659.5767498609
  0
LINE
  5
31B
100
AcDbEntity
  8
6_ALL_SURFS
100
AcDbLine
 62
7
  6
CONTINUOUS
 10
1000.7014825501
 20
667.5267498609
 11
1000.7014825501
 21
670.3267498609
  0
LINE
  5
31C
100
AcDbEntity
  8
7_ALL_FEATURES
100
AcDbLine
 62
7
  6
CONTINUOUS
 10
1000.7014825501
 20
659.5767498609
 11
1000.7014825501
 21
707.245856322
  0
LINE
  5
31D
100
AcDbEntity
  8
6_ALL_SURFS
100
AcDbLine
 62
7
  6
CONTINUOUS
 10
1000.7014825501
 20
674.826749861
 11
1000.7014825501
 21
726.6196211662
  0
LINE
  5
31E
100
AcDbEntity
  8
7_ALL_FEATURES
100
AcDbLine
 62
7
  6
CONTINUOUS
 10
1000.7014825501
 20
726.6196211662
 11
1000.7014825501
 21
732.5973955941
  0
LINE
  5
31F
100
AcDbEntity
  8
6_ALL_SURFS
100
AcDbLine
 62
7
  6
CONTINUOUS
 10
1000.7014825501
 20
732.5973955941
 11
1000.7014825501
 21
732.9267498609
  0
LINE
  5
320
100
AcDbEntity
  8
3_ALL_AXES
100
AcDbLine
 62
7
  6
CONTINUOUS
 10
999.2014825501
 20
727.849155027
 11
998.1022028797
 21
726.926749861
  0
LINE
  5
321
100
AcDbEntity
  8
3_ALL_AXES
100
AcDbLine
 62
7
  6
CONTINUOUS
 10
999.2014825501
 20
670.754344695
 11
998.1022028797
 21
671.676749861
  0
LINE
  5
322
100
AcDbEntity
  8
3_ALL_AXES
100
AcDbLine
 62
7
  6
CONTINUOUS
 10
999.2014825501
 20
667.099155027
 11
998.1022028797
 21
666.176749861
  0
LINE
  5
323
100
AcDbEntity
  8
3_ALL_AXES
100
AcDbLine
 62
7
  6
CONTINUOUS
 10
999.2014825501
 20
731.504344695
 11
998.1022028797
 21
732.426749861
  0
LINE
  5
324
100
AcDbEntity
  8
7_ALL_FEATURES
100
AcDbLine
 62
7
  6
CONTINUOUS
 10
2126.2014825501
 20
656.926749861
 11
2124.7014825501
 21
656.926749861
  0
LINE
  5
325
100
AcDbEntity
  8
6_ALL_SURFS
100
AcDbLine
 62
7
  6
CONTINUOUS
 10
2124.7014825501
 20
656.9267498609
 11
1000.7014825501
 21
656.9267498609
  0
LINE
  5
326
100
AcDbEntity
  8
7_ALL_FEATURES
100
AcDbLine
 62
7
  6
CONTINUOUS
 10
999.2014825501
 20
656.926749861
 11
1000.7014825501
 21
656.926749861
  0
LINE
  5
327
100
AcDbEntity
  8
6_ALL_SURFS
100
AcDbLine
 62
9
  6
CONTINUOUS
 10
2124.7014825501
 20
657.1267498609
 11
1000.7014825501
 21
657.1267498609
  0
LINE
  5
328
100
AcDbEntity
  8
7_ALL_FEATURES
100
AcDbLine
 62
9
  6
CONTINUOUS
 10
2126.2014825501
 20
657.676749861
 11
2124.7014825501
 21
657.676749861
  0
LINE
  5
329
100
AcDbEntity
  8
7_ALL_FEATURES
100
AcDbLine
 62
9
  6
CONTINUOUS
 10
999.2014825501
 20
657.676749861
 11
1000.7014825501
 21
657.676749861
  0
LINE
  5
32A
100
AcDbEntity
  8
6_ALL_SURFS
100
AcDbLine
 62
9
  6
CONTINUOUS
 10
1000.7014825501
 20
658.2267498609
 11
2124.7014825501
 21
658.2267498609
  0
LINE
  5
32B
100
AcDbEntity
  8
6_ALL_SURFS
100
AcDbLine
 62
7
  6
CONTINUOUS
 10
1000.7014825501
 20
658.4267498609
 11
1059.4180747564
 21
658.4267498609
  0
LINE
  5
32C
100
AcDbEntity
  8
6_ALL_SURFS
100
AcDbLine
 62
7
  6
CONTINUOUS
 10
1059.4754554069
 20
658.4267498609
 11
1065.9275096932
 21
658.4267498609
  0
LINE
  5
32D
100
AcDbEntity
  8
6_ALL_SURFS
100
AcDbLine
 62
7
  6
CONTINUOUS
 10
1065.9848903438
 20
658.4267498609
 11
1309.4180747564
 21
658.4267498609
  0
LINE
  5
32E
100
AcDbEntity
  8
6_ALL_SURFS
100
AcDbLine
 62
7
  6
CONTINUOUS
 10
1309.4754554069
 20
658.4267498609
 11
1315.9275096932
 21
658.4267498609
  0
LINE
  5
32F
100
AcDbEntity
  8
6_ALL_SURFS
100
AcDbLine
 62
7
  6
CONTINUOUS
 10
1315.9848903438
 20
658.4267498609
 11
1559.4180747564
 21
658.4267498609
  0
LINE
  5
330
100
AcDbEntity
  8
6_ALL_SURFS
100
AcDbLine
 62
7
  6
CONTINUOUS
 10
1559.4754554069
 20
658.4267498609
 11
1565.9275096932
 21
658.4267498609
  0
LINE
  5
331
100
AcDbEntity
  8
6_ALL_SURFS
100
AcDbLine
 62
7
  6
CONTINUOUS
 10
1565.9848903438
 20
658.4267498609
 11
1809.4180747564
 21
658.4267498609
  0
LINE
  5
332
100
AcDbEntity
  8
6_ALL_SURFS
100
AcDbLine
 62
7
  6
CONTINUOUS
 10
1809.4754554069
 20
658.4267498609
 11
1815.9275096932
 21
658.4267498609
  0
LINE
  5
333
100
AcDbEntity
  8
6_ALL_SURFS
100
AcDbLine
 62
7
  6
CONTINUOUS
 10
1815.9848903438
 20
658.4267498609
 11
2059.4180747564
 21
658.4267498609
  0
LINE
  5
334
100
AcDbEntity
  8
6_ALL_SURFS
100
AcDbLine
 62
7
  6
CONTINUOUS
 10
2059.4754554069
 20
658.4267498609
 11
2065.9275096932
 21
658.4267498609
  0
LINE
  5
335
100
AcDbEntity
  8
6_ALL_SURFS
100
AcDbLine
 62
7
  6
CONTINUOUS
 10
2065.9848903438
 20
658.4267498609
 11
2124.7014825501
 21
658.4267498609
  0
LINE
  5
336
100
AcDbEntity
  8
6_ALL_SURFS
100
AcDbLine
 62
9
  6
CONTINUOUS
 10
1000.7014825501
 20
658.6412970199
 11
2124.7014825501
 21
658.6412970199
  0
LINE
  5
337
100
AcDbEntity
  8
6_ALL_SURFS
100
AcDbLine
 62
7
  6
CONTINUOUS
 10
1000.7014825501
 20
659.4267498609
 11
2124.7014825501
 21
659.4267498609
  0
LINE
  5
338
100
AcDbEntity
  8
6_ALL_SURFS
100
AcDbLine
 62
7
  6
CONTINUOUS
 10
1000.7014825501
 20
659.5767498609
 11
2124.7014825501
 21
659.5767498609
  0
LINE
  5
339
100
AcDbEntity
  8
6_ALL_SURFS
100
AcDbLine
 62
9
  6
CONTINUOUS
 10
2124.7014825501
 20
660.9267498609
 11
1000.7014825501
 21
660.9267498609
  0
LINE
  5
33A
100
AcDbEntity
  8
6_ALL_SURFS
100
AcDbLine
 62
9
  6
CONTINUOUS
 10
2124.7014825501
 20
661.949747401
 11
1000.7014825501
 21
661.949747401
  0
LINE
  5
33B
100
AcDbEntity
  8
6_ALL_SURFS
100
AcDbLine
 62
9
  6
CONTINUOUS
 10
1000.7014825501
 20
664.1121109841
 11
2124.7014825501
 21
664.1121109841
  0
LINE
  5
33C
100
AcDbEntity
  8
6_ALL_SURFS
100
AcDbLine
 62
9
  6
CONTINUOUS
 10
1000.7014825501
 20
664.3167104921
 11
2124.7014825501
 21
664.3167104921
  0
LINE
  5
33D
100
AcDbEntity
  8
6_ALL_SURFS
100
AcDbLine
 62
9
  6
CONTINUOUS
 10
1000.7014825501
 20
665.7267498609
 11
2124.7014825501
 21
665.7267498609
  0
LINE
  5
33E
100
AcDbEntity
  8
6_ALL_SURFS
100
AcDbLine
 62
7
  6
CONTINUOUS
 10
2124.7014825501
 20
666.0267498609
 11
1000.7014825501
 21
666.0267498609
  0
LINE
  5
33F
100
AcDbEntity
  8
3_ALL_AXES
100
AcDbLine
 62
7
  6
CONTINUOUS
 10
998.1022028797
 20
666.176749861
 11
997.9514825501
 21
666.176749861
  0
LINE
  5
340
100
AcDbEntity
  8
3_ALL_AXES
100
AcDbLine
 62
7
  6
CONTINUOUS
 10
2127.3007622204
 20
666.176749861
 11
2127.4514825501
 21
666.176749861
  0
LINE
  5
341
100
AcDbEntity
  8
6_ALL_SURFS
100
AcDbLine
 62
9
  6
CONTINUOUS
 10
2124.7014825501
 20
667.5267498609
 11
1000.7014825501
 21
667.5267498609
  0
LINE
  5
342
100
AcDbEntity
  8
6_ALL_SURFS
100
AcDbLine
 62
9
  6
CONTINUOUS
 10
2124.7014825501
 20
670.3267498609
 11
1000.7014825501
 21
670.3267498609
  0
LINE
  5
343
100
AcDbEntity
  8
3_ALL_AXES
100
AcDbLine
 62
7
  6
CONTINUOUS
 10
998.1022028797
 20
671.676749861
 11
997.9514825501
 21
671.676749861
  0
LINE
  5
344
100
AcDbEntity
  8
3_ALL_AXES
100
AcDbLine
 62
7
  6
CONTINUOUS
 10
2127.3007622204
 20
671.676749861
 11
2127.4514825501
 21
671.676749861
  0
LINE
  5
345
100
AcDbEntity
  8
6_ALL_SURFS
100
AcDbLine
 62
7
  6
CONTINUOUS
 10
2124.7014825501
 20
671.8267498609
 11
1000.7014825501
 21
671.8267498609
  0
LINE
  5
346
100
AcDbEntity
  8
6_ALL_SURFS
100
AcDbLine
 62
9
  6
CONTINUOUS
 10
1000.7014825501
 20
672.1267498609
 11
2124.7014825501
 21
672.1267498609
  0
LINE
  5
347
100
AcDbEntity
  8
7_ALL_FEATURES
100
AcDbLine
 62
9
  6
CONTINUOUS
 10
2126.2014825501
 20
672.576749861
 11
2124.7014825501
 21
672.576749861
  0
LINE
  5
348
100
AcDbEntity
  8
7_ALL_FEATURES
100
AcDbLine
 62
9
  6
CONTINUOUS
 10
999.2014825501
 20
672.576749861
 11
1000.7014825501
 21
672.576749861
  0
LINE
  5
349
100
AcDbEntity
  8
7_ALL_FEATURES
100
AcDbLine
 62
7
  6
CONTINUOUS
 10
2126.2014825501
 20
673.326749861
 11
2124.7014825501
 21
673.326749861
  0
LINE
  5
34A
100
AcDbEntity
  8
7_ALL_FEATURES
100
AcDbLine
 62
7
  6
CONTINUOUS
 10
999.2014825501
 20
673.326749861
 11
1000.7014825501
 21
673.326749861
  0
LINE
  5
34B
100
AcDbEntity
  8
7_ALL_FEATURES
100
AcDbLine
 62
9
  6
CONTINUOUS
 10
1000.7014825501
 20
674.826749861
 11
999.2014825501
 21
674.826749861
  0
LINE
  5
34C
100
AcDbEntity
  8
7_ALL_FEATURES
100
AcDbLine
 62
9
  6
CONTINUOUS
 10
2124.7014825501
 20
674.826749861
 11
2126.2014825501
 21
674.826749861
  0
LINE
  5
34D
100
AcDbEntity
  8
7_ALL_FEATURES
100
AcDbLine
 62
9
  6
CONTINUOUS
 10
2126.2014825501
 20
707.1466414817
 11
2124.7014825501
 21
707.1466414817
  0
LINE
  5
34E
100
AcDbEntity
  8
7_ALL_FEATURES
100
AcDbLine
 62
9
  6
CONTINUOUS
 10
999.2014825501
 20
707.1514788697
 11
1000.7014825501
 21
707.1514788697
  0
LINE
  5
34F
100
AcDbEntity
  8
6_ALL_SURFS
100
AcDbLine
 62
9
  6
CONTINUOUS
 10
2124.7014825501
 20
707.3491352455
 11
1000.7014825501
 21
707.3491352455
  0
LINE
  5
350
100
AcDbEntity
  8
7_ALL_FEATURES
100
AcDbLine
 62
9
  6
CONTINUOUS
 10
999.2014825501
 20
707.4331167738
 11
1000.7014825501
 21
707.4331167738
  0
LINE
  5
351
100
AcDbEntity
  8
7_ALL_FEATURES
100
AcDbLine
 62
9
  6
CONTINUOUS
 10
2126.2014825501
 20
707.4376888984
 11
2124.7014825501
 21
707.4376888984
  0
LINE
  5
352
100
AcDbEntity
  8
6_ALL_SURFS
100
AcDbLine
 62
9
  6
CONTINUOUS
 10
2124.7014825501
 20
708.3038434473
 11
1000.7014825501
 21
708.3038434473
  0
LINE
  5
353
100
AcDbEntity
  8
6_ALL_SURFS
100
AcDbLine
 62
9
  6
CONTINUOUS
 10
2124.7014825501
 20
726.3131623214
 11
1000.7014825501
 21
726.3131623214
  0
LINE
  5
354
100
AcDbEntity
  8
3_ALL_AXES
100
AcDbLine
 62
7
  6
CONTINUOUS
 10
998.1022028797
 20
726.926749861
 11
997.9514825501
 21
726.926749861
  0
LINE
  5
355
100
AcDbEntity
  8
3_ALL_AXES
100
AcDbLine
 62
7
  6
CONTINUOUS
 10
2127.3007622204
 20
726.926749861
 11
2127.4514825501
 21
726.926749861
  0
LINE
  5
356
100
AcDbEntity
  8
6_ALL_SURFS
100
AcDbLine
 62
7
  6
CONTINUOUS
 10
2124.7014825501
 20
727.5267498609
 11
1000.7014825501
 21
727.5267498609
  0
LINE
  5
357
100
AcDbEntity
  8
6_ALL_SURFS
100
AcDbLine
 62
9
  6
CONTINUOUS
 10
1000.7014825501
 20
728.2767498609
 11
2124.7014825501
 21
728.2767498609
  0
LINE
  5
358
100
AcDbEntity
  8
6_ALL_SURFS
100
AcDbLine
 62
9
  6
CONTINUOUS
 10
1000.7014825501
 20
731.1670724416
 11
2124.7014825501
 21
731.1670724416
  0
LINE
  5
359
100
AcDbEntity
  8
6_ALL_SURFS
100
AcDbLine
 62
7
  6
CONTINUOUS
 10
2124.7014825501
 20
731.6267498609
 11
1000.7014825501
 21
731.6267498609
  0
LINE
  5
35A
100
AcDbEntity
  8
6_ALL_SURFS
100
AcDbLine
 62
9
  6
CONTINUOUS
 10
2124.7014825501
 20
731.9267498609
 11
1000.7014825501
 21
731.9267498609
  0
LINE
  5
35B
100
AcDbEntity
  8
7_ALL_FEATURES
100
AcDbLine
 62
9
  6
CONTINUOUS
 10
999.2014825501
 20
732.3175688131
 11
1000.7014825501
 21
732.3175688131
  0
LINE
  5
35C
100
AcDbEntity
  8
7_ALL_FEATURES
100
AcDbLine
 62
9
  6
CONTINUOUS
 10
2126.2014825501
 20
732.3222735693
 11
2124.7014825501
 21
732.3222735693
  0
LINE
  5
35D
100
AcDbEntity
  8
3_ALL_AXES
100
AcDbLine
 62
7
  6
CONTINUOUS
 10
998.1022028797
 20
732.426749861
 11
997.9514825501
 21
732.426749861
  0
LINE
  5
35E
100
AcDbEntity
  8
3_ALL_AXES
100
AcDbLine
 62
7
  6
CONTINUOUS
 10
2127.3007622204
 20
732.426749861
 11
2127.4514825501
 21
732.426749861
  0
LINE
  5
35F
100
AcDbEntity
  8
6_ALL_SURFS
100
AcDbLine
 62
9
  6
CONTINUOUS
 10
2124.7014825501
 20
732.6267498609
 11
1000.7014825501
 21
732.6267498609
  0
LINE
  5
360
100
AcDbEntity
  8
7_ALL_FEATURES
100
AcDbLine
 62
7
  6
CONTINUOUS
 10
2126.2014825501
 20
732.926749861
 11
2124.7014825501
 21
732.926749861
  0
LINE
  5
361
100
AcDbEntity
  8
6_ALL_SURFS
100
AcDbLine
 62
7
  6
CONTINUOUS
 10
2124.7014825501
 20
732.9267498609
 11
1000.7014825501
 21
732.9267498609
  0
LINE
  5
362
100
AcDbEntity
  8
7_ALL_FEATURES
100
AcDbLine
 62
7
  6
CONTINUOUS
 10
999.2014825501
 20
732.926749861
 11
1000.7014825501
 21
732.926749861
  0
LINE
  5
363
100
AcDbEntity
  8
3_ALL_AXES
100
AcDbLine
 62
7
  6
CONTINUOUS
 10
2126.2014825501
 20
731.504344695
 11
2127.3007622204
 21
732.426749861
  0
LINE
  5
364
100
AcDbEntity
  8
3_ALL_AXES
100
AcDbLine
 62
7
  6
CONTINUOUS
 10
2126.2014825501
 20
667.099155027
 11
2127.3007622204
 21
666.176749861
  0
LINE
  5
365
100
AcDbEntity
  8
3_ALL_AXES
100
AcDbLine
 62
7
  6
CONTINUOUS
 10
2126.2014825501
 20
670.754344695
 11
2127.3007622204
 21
671.676749861
  0
LINE
  5
366
100
AcDbEntity
  8
3_ALL_AXES
100
AcDbLine
 62
7
  6
CONTINUOUS
 10
2126.2014825501
 20
727.849155027
 11
2127.3007622204
 21
726.926749861
  0
LINE
  5
367
100
AcDbEntity
  8
7_ALL_FEATURES
100
AcDbLine
 62
7
  6
CONTINUOUS
 10
2124.7014825501
 20
732.0672403206
 11
2124.7014825501
 21
726.951254246
  0
LINE
  5
368
100
AcDbEntity
  8
7_ALL_FEATURES
100
AcDbLine
 62
7
  6
CONTINUOUS
 10
2124.7014825501
 20
656.9867882296
 11
2124.7014825501
 21
658.4267498609
  0
LINE
  5
369
100
AcDbEntity
  8
6_ALL_SURFS
100
AcDbLine
 62
7
  6
CONTINUOUS
 10
2124.7014825501
 20
656.9267498609
 11
2124.7014825501
 21
656.9867882296
  0
LINE
  5
36A
100
AcDbEntity
  8
6_ALL_SURFS
100
AcDbLine
 62
7
  6
CONTINUOUS
 10
2124.7014825501
 20
658.4267498609
 11
2124.7014825501
 21
659.5767498609
  0
LINE
  5
36B
100
AcDbEntity
  8
6_ALL_SURFS
100
AcDbLine
 62
7
  6
CONTINUOUS
 10
2124.7014825501
 20
667.5267498609
 11
2124.7014825501
 21
670.3267498609
  0
LINE
  5
36C
100
AcDbEntity
  8
7_ALL_FEATURES
100
AcDbLine
 62
7
  6
CONTINUOUS
 10
2124.7014825501
 20
659.5767498609
 11
2124.7014825501
 21
707.2442076564
  0
LINE
  5
36D
100
AcDbEntity
  8
6_ALL_SURFS
100
AcDbLine
 62
7
  6
CONTINUOUS
 10
2124.7014825501
 20
674.826749861
 11
2124.7014825501
 21
726.951254246
  0
LINE
  5
36E
100
AcDbEntity
  8
6_ALL_SURFS
100
AcDbLine
 62
7
  6
CONTINUOUS
 10
2124.7014825501
 20
731.9267498609
 11
2124.7014825501
 21
732.9267498609
  0
LINE
  5
36F
100
AcDbEntity
  8
7_ALL_FEATURES
100
AcDbLine
 62
7
  6
CONTINUOUS
 10
2126.2014825501
 20
732.926749861
 11
2126.2014825501
 21
656.926749861
  0
LINE
  5
370
100
AcDbEntity
  8
3_ALL_AXES
100
AcDbLine
 62
7
  6
CONTINUOUS
 10
2127.3007622204
 20
666.176749861
 11
2127.3007622204
 21
671.676749861
  0
LINE
  5
371
100
AcDbEntity
  8
3_ALL_AXES
100
AcDbLine
 62
7
  6
CONTINUOUS
 10
2127.3007622204
 20
726.926749861
 11
2127.3007622204
 21
732.426749861
  0
LINE
  5
372
100
AcDbEntity
  8
3_ALL_AXES
100
AcDbLine
 62
7
  6
CONTINUOUS
 10
2127.4514825501
 20
666.1767979272
 11
2127.4514825501
 21
671.6767017948
  0
LINE
  5
373
100
AcDbEntity
  8
3_ALL_AXES
100
AcDbLine
 62
7
  6
CONTINUOUS
 10
2127.4514825501
 20
726.9267979272
 11
2127.4514825501
 21
732.4267017948
  0
LINE
  5
374
100
AcDbEntity
  8
3_ALL_AXES
100
AcDbLine
 62
7
  6
CONTINUOUS
 10
997.9514825501
 20
970.8849401418
 11
997.9514825501
 21
965.3849401418
  0
LINE
  5
375
100
AcDbEntity
  8
3_ALL_AXES
100
AcDbLine
 62
7
  6
CONTINUOUS
 10
997.9514825501
 20
961.7349401418
 11
997.9514825501
 21
956.2349401418
  0
LINE
  5
376
100
AcDbEntity
  8
3_ALL_AXES
100
AcDbLine
 62
7
  6
CONTINUOUS
 10
997.9514825501
 20
915.8349401418
 11
997.9514825501
 21
910.3349401418
  0
LINE
  5
377
100
AcDbEntity
  8
3_ALL_AXES
100
AcDbLine
 62
7
  6
CONTINUOUS
 10
997.9514825501
 20
906.6849401418
 11
997.9514825501
 21
901.1849401418
  0
LINE
  5
378
100
AcDbEntity
  8
3_ALL_AXES
100
AcDbLine
 62
7
  6
CONTINUOUS
 10
998.1022028797
 20
970.8849401418
 11
998.1022028797
 21
965.3849401418
  0
LINE
  5
379
100
AcDbEntity
  8
3_ALL_AXES
100
AcDbLine
 62
7
  6
CONTINUOUS
 10
998.1022028797
 20
961.7349401418
 11
998.1022028797
 21
956.2349401418
  0
LINE
  5
37A
100
AcDbEntity
  8
3_ALL_AXES
100
AcDbLine
 62
7
  6
CONTINUOUS
 10
998.1022028797
 20
915.8349401418
 11
998.1022028797
 21
910.3349401418
  0
LINE
  5
37B
100
AcDbEntity
  8
3_ALL_AXES
100
AcDbLine
 62
7
  6
CONTINUOUS
 10
998.1022028797
 20
906.6849401418
 11
998.1022028797
 21
901.1849401418
  0
LINE
  5
37C
100
AcDbEntity
  8
7_ALL_FEATURES
100
AcDbLine
 62
7
  6
CONTINUOUS
 10
999.2014825501
 20
900.9849401418
 11
999.2014825501
 21
971.0849401418
  0
LINE
  5
37D
100
AcDbEntity
  8
7_ALL_FEATURES
100
AcDbLine
 62
7
  6
CONTINUOUS
 10
1000.7014825501
 20
971.0849401418
 11
1000.7014825501
 21
970.6274815844
  0
LINE
  5
37E
100
AcDbEntity
  8
3_ALL_AXES
100
AcDbLine
 62
7
  6
CONTINUOUS
 10
1000.7014825501
 20
898.8849401418
 11
1000.7014825501
 21
883.5849401418
  0
LINE
  5
37F
100
AcDbEntity
  8
7_ALL_FEATURES
100
AcDbLine
 62
7
  6
CONTINUOUS
 10
1000.7014825501
 20
881.0849504172
 11
1000.7014825501
 21
883.5849401418
  0
LINE
  5
380
100
AcDbEntity
  8
7_ALL_FEATURES
100
AcDbLine
 62
7
  6
CONTINUOUS
 10
1000.7014825501
 20
898.8849401418
 11
1000.7014825501
 21
970.4133364893
  0
LINE
  5
381
100
AcDbEntity
  8
6_ALL_SURFS
100
AcDbLine
 62
7
  6
CONTINUOUS
 10
1000.7014825501
 20
969.4849401418
 11
1000.7014825501
 21
970.6274815844
  0
LINE
  5
382
100
AcDbEntity
  8
6_ALL_SURFS
100
AcDbLine
 62
7
  6
CONTINUOUS
 10
1000.7014825501
 20
971.0849401418
 11
1000.7014825501
 21
990.9849298664
  0
LINE
  5
383
100
AcDbEntity
  8
7_ALL_FEATURES
100
AcDbLine
 62
7
  6
CONTINUOUS
 10
1001.4514825501
 20
902.7349401418
 11
1001.4514825501
 21
969.3349401418
  0
LINE
  5
384
100
AcDbEntity
  8
3_ALL_AXES
100
AcDbLine
 62
7
  6
CONTINUOUS
 10
998.1022028797
 20
965.3849401418
 11
999.2014825501
 21
966.3073453078
  0
LINE
  5
385
100
AcDbEntity
  8
3_ALL_AXES
100
AcDbLine
 62
7
  6
CONTINUOUS
 10
998.1022028797
 20
956.2349401418
 11
999.2014825501
 21
957.1573453078
  0
LINE
  5
386
100
AcDbEntity
  8
3_ALL_AXES
100
AcDbLine
 62
7
  6
CONTINUOUS
 10
998.1022028797
 20
906.6849401418
 11
999.2014825501
 21
905.7625349758
  0
LINE
  5
387
100
AcDbEntity
  8
3_ALL_AXES
100
AcDbLine
 62
7
  6
CONTINUOUS
 10
998.1022028797
 20
915.8349401418
 11
999.2014825501
 21
914.9125349758
  0
LINE
  5
388
100
AcDbEntity
  8
3_ALL_AXES
100
AcDbLine
 62
7
  6
CONTINUOUS
 10
998.1022028797
 20
910.3349401418
 11
999.2014825501
 21
911.2573453078
  0
LINE
  5
389
100
AcDbEntity
  8
3_ALL_AXES
100
AcDbLine
 62
7
  6
CONTINUOUS
 10
998.1022028797
 20
901.1849401418
 11
999.2014825501
 21
902.1073453078
  0
LINE
  5
38A
100
AcDbEntity
  8
3_ALL_AXES
100
AcDbLine
 62
7
  6
CONTINUOUS
 10
998.1022028797
 20
961.7349401418
 11
999.2014825501
 21
960.8125349758
  0
LINE
  5
38B
100
AcDbEntity
  8
3_ALL_AXES
100
AcDbLine
 62
7
  6
CONTINUOUS
 10
998.1022028797
 20
970.8849401418
 11
999.2014825501
 21
969.9625349758
  0
LINE
  5
38C
100
AcDbEntity
  8
7_ALL_FEATURES
100
AcDbLine
 62
7
  6
CONTINUOUS
 10
1000.7014825501
 20
881.0849401418
 11
2124.7014825501
 21
881.0849401418
  0
LINE
  5
38D
100
AcDbEntity
  8
7_ALL_FEATURES
100
AcDbLine
 62
9
  6
CONTINUOUS
 10
1000.7014825501
 20
881.4394685514
 11
2124.7014825501
 21
881.4394685514
  0
LINE
  5
38E
100
AcDbEntity
  8
7_ALL_FEATURES
100
AcDbLine
 62
7
  6
CONTINUOUS
 10
1000.7014825501
 20
883.5849401418
 11
1059.4180747564
 21
883.5849401418
  0
LINE
  5
38F
100
AcDbEntity
  8
7_ALL_FEATURES
100
AcDbLine
 62
7
  6
CONTINUOUS
 10
1065.9848903438
 20
883.5849401418
 11
1309.4180747564
 21
883.5849401418
  0
LINE
  5
390
100
AcDbEntity
  8
7_ALL_FEATURES
100
AcDbLine
 62
7
  6
CONTINUOUS
 10
1315.9848903438
 20
883.5849401418
 11
1559.4180747564
 21
883.5849401418
  0
LINE
  5
391
100
AcDbEntity
  8
7_ALL_FEATURES
100
AcDbLine
 62
7
  6
CONTINUOUS
 10
1565.9848903438
 20
883.5849401418
 11
1809.4180747564
 21
883.5849401418
  0
LINE
  5
392
100
AcDbEntity
  8
7_ALL_FEATURES
100
AcDbLine
 62
7
  6
CONTINUOUS
 10
1815.9848903438
 20
883.5849401418
 11
2059.4180747564
 21
883.5849401418
  0
LINE
  5
393
100
AcDbEntity
  8
7_ALL_FEATURES
100
AcDbLine
 62
7
  6
CONTINUOUS
 10
2065.9848903438
 20
883.5849401418
 11
2124.7014825501
 21
883.5849401418
  0
LINE
  5
394
100
AcDbEntity
  8
7_ALL_FEATURES
100
AcDbLine
 62
7
  6
CONTINUOUS
 10
1000.7014825501
 20
886.2849401418
 11
1057.9695942653
 21
886.2849401418
  0
LINE
  5
395
100
AcDbEntity
  8
7_ALL_FEATURES
100
AcDbLine
 62
7
  6
CONTINUOUS
 10
1067.4333708348
 20
886.2849401418
 11
1307.9695942653
 21
886.2849401418
  0
LINE
  5
396
100
AcDbEntity
  8
7_ALL_FEATURES
100
AcDbLine
 62
7
  6
CONTINUOUS
 10
1317.4333708348
 20
886.2849401418
 11
1557.9695942653
 21
886.2849401418
  0
LINE
  5
397
100
AcDbEntity
  8
7_ALL_FEATURES
100
AcDbLine
 62
7
  6
CONTINUOUS
 10
1567.4333708348
 20
886.2849401418
 11
1807.9695942653
 21
886.2849401418
  0
LINE
  5
398
100
AcDbEntity
  8
7_ALL_FEATURES
100
AcDbLine
 62
7
  6
CONTINUOUS
 10
1817.4333708348
 20
886.2849401418
 11
2057.9695942653
 21
886.2849401418
  0
LINE
  5
399
100
AcDbEntity
  8
7_ALL_FEATURES
100
AcDbLine
 62
7
  6
CONTINUOUS
 10
2067.4333708348
 20
886.2849401418
 11
2124.7014825501
 21
886.2849401418
  0
LINE
  5
39A
100
AcDbEntity
  8
7_ALL_FEATURES
100
AcDbLine
 62
7
  6
CONTINUOUS
 10
1000.7014825501
 20
886.8849401418
 11
1057.9066137573
 21
886.8849401418
  0
LINE
  5
39B
100
AcDbEntity
  8
7_ALL_FEATURES
100
AcDbLine
 62
7
  6
CONTINUOUS
 10
1067.4963513428
 20
886.8849401418
 11
1307.9066137573
 21
886.8849401418
  0
LINE
  5
39C
100
AcDbEntity
  8
7_ALL_FEATURES
100
AcDbLine
 62
7
  6
CONTINUOUS
 10
1317.4963513428
 20
886.8849401418
 11
1557.9066137573
 21
886.8849401418
  0
LINE
  5
39D
100
AcDbEntity
  8
7_ALL_FEATURES
100
AcDbLine
 62
7
  6
CONTINUOUS
 10
1567.4963513428
 20
886.8849401418
 11
1807.9066137573
 21
886.8849401418
  0
LINE
  5
39E
100
AcDbEntity
  8
7_ALL_FEATURES
100
AcDbLine
 62
7
  6
CONTINUOUS
 10
1817.4963513428
 20
886.8849401418
 11
2057.9066137573
 21
886.8849401418
  0
LINE
  5
39F
100
AcDbEntity
  8
7_ALL_FEATURES
100
AcDbLine
 62
7
  6
CONTINUOUS
 10
2067.4963513428
 20
886.8849401418
 11
2124.7014825501
 21
886.8849401418
  0
LINE
  5
3A0
100
AcDbEntity
  8
7_ALL_FEATURES
100
AcDbLine
 62
7
  6
CONTINUOUS
 10
1000.7014825501
 20
889.2849401418
 11
1058.4364190406
 21
889.2849401418
  0
LINE
  5
3A1
100
AcDbEntity
  8
7_ALL_FEATURES
100
AcDbLine
 62
7
  6
CONTINUOUS
 10
1066.9665460595
 20
889.2849401418
 11
1308.4364190406
 21
889.2849401418
  0
LINE
  5
3A2
100
AcDbEntity
  8
7_ALL_FEATURES
100
AcDbLine
 62
7
  6
CONTINUOUS
 10
1316.9665460595
 20
889.2849401418
 11
1558.4364190406
 21
889.2849401418
  0
LINE
  5
3A3
100
AcDbEntity
  8
7_ALL_FEATURES
100
AcDbLine
 62
7
  6
CONTINUOUS
 10
1566.9665460595
 20
889.2849401418
 11
1808.4364190406
 21
889.2849401418
  0
LINE
  5
3A4
100
AcDbEntity
  8
7_ALL_FEATURES
100
AcDbLine
 62
7
  6
CONTINUOUS
 10
1816.9665460595
 20
889.2849401418
 11
2058.4364190406
 21
889.2849401418
  0
LINE
  5
3A5
100
AcDbEntity
  8
7_ALL_FEATURES
100
AcDbLine
 62
7
  6
CONTINUOUS
 10
2066.9665460595
 20
889.2849401418
 11
2124.7014825501
 21
889.2849401418
  0
LINE
  5
3A6
100
AcDbEntity
  8
7_ALL_FEATURES
100
AcDbLine
 62
7
  6
CONTINUOUS
 10
1000.7014825501
 20
889.8849401418
 11
1058.8039491327
 21
889.8849401418
  0
LINE
  5
3A7
100
AcDbEntity
  8
7_ALL_FEATURES
100
AcDbLine
 62
7
  6
CONTINUOUS
 10
1066.5990159675
 20
889.8849401418
 11
1308.8039491327
 21
889.8849401418
  0
LINE
  5
3A8
100
AcDbEntity
  8
7_ALL_FEATURES
100
AcDbLine
 62
7
  6
CONTINUOUS
 10
1316.5990159675
 20
889.8849401418
 11
1558.8039491327
 21
889.8849401418
  0
LINE
  5
3A9
100
AcDbEntity
  8
7_ALL_FEATURES
100
AcDbLine
 62
7
  6
CONTINUOUS
 10
1566.5990159675
 20
889.8849401418
 11
1808.8039491327
 21
889.8849401418
  0
LINE
  5
3AA
100
AcDbEntity
  8
7_ALL_FEATURES
100
AcDbLine
 62
7
  6
CONTINUOUS
 10
1816.5990159675
 20
889.8849401418
 11
2058.8039491327
 21
889.8849401418
  0
LINE
  5
3AB
100
AcDbEntity
  8
7_ALL_FEATURES
100
AcDbLine
 62
7
  6
CONTINUOUS
 10
2066.5990159675
 20
889.8849401418
 11
2124.7014825501
 21
889.8849401418
  0
LINE
  5
3AC
100
AcDbEntity
  8
3_ALL_AXES
100
AcDbLine
 62
7
  6
CONTINUOUS
 10
1000.7014825501
 20
892.2849401418
 11
2124.7014825501
 21
892.2849401418
  0
LINE
  5
3AD
100
AcDbEntity
  8
3_ALL_AXES
100
AcDbLine
 62
7
  6
CONTINUOUS
 10
1000.7014825501
 20
892.8849401418
 11
2124.7014825501
 21
892.8849401418
  0
LINE
  5
3AE
100
AcDbEntity
  8
3_ALL_AXES
100
AcDbLine
 62
7
  6
CONTINUOUS
 10
1000.7014825501
 20
895.2849401418
 11
2124.7014825501
 21
895.2849401418
  0
LINE
  5
3AF
100
AcDbEntity
  8
3_ALL_AXES
100
AcDbLine
 62
7
  6
CONTINUOUS
 10
1000.7014825501
 20
895.8849401418
 11
2124.7014825501
 21
895.8849401418
  0
LINE
  5
3B0
100
AcDbEntity
  8
3_ALL_AXES
100
AcDbLine
 62
7
  6
CONTINUOUS
 10
1000.7014825501
 20
898.2849401418
 11
2124.7014825501
 21
898.2849401418
  0
LINE
  5
3B1
100
AcDbEntity
  8
3_ALL_AXES
100
AcDbLine
 62
7
  6
CONTINUOUS
 10
1000.7014825501
 20
898.8849401418
 11
2124.7014825501
 21
898.8849401418
  0
LINE
  5
3B2
100
AcDbEntity
  8
7_ALL_FEATURES
100
AcDbLine
 62
7
  6
CONTINUOUS
 10
2126.2014825501
 20
900.9849401418
 11
2124.7014825501
 21
900.9849401418
  0
LINE
  5
3B3
100
AcDbEntity
  8
7_ALL_FEATURES
100
AcDbLine
 62
7
  6
CONTINUOUS
 10
999.2014825501
 20
900.9849401418
 11
1000.7014825501
 21
900.9849401418
  0
LINE
  5
3B4
100
AcDbEntity
  8
3_ALL_AXES
100
AcDbLine
 62
7
  6
CONTINUOUS
 10
2127.4514825501
 20
901.1849401418
 11
2127.3007622204
 21
901.1849401418
  0
LINE
  5
3B5
100
AcDbEntity
  8
3_ALL_AXES
100
AcDbLine
 62
7
  6
CONTINUOUS
 10
997.9514825501
 20
901.1849401418
 11
998.1022028797
 21
901.1849401418
  0
LINE
  5
3B6
100
AcDbEntity
  8
7_ALL_FEATURES
100
AcDbLine
 62
9
  6
CONTINUOUS
 10
1000.7014825501
 20
901.1849401418
 11
2124.7014825501
 21
901.1849401418
  0
LINE
  5
3B7
100
AcDbEntity
  8
7_ALL_FEATURES
100
AcDbLine
 62
7
  6
CONTINUOUS
 10
2124.7014825501
 20
901.3849401418
 11
1000.7014825501
 21
901.3849401418
  0
LINE
  5
3B8
100
AcDbEntity
  8
7_ALL_FEATURES
100
AcDbLine
 62
9
  6
CONTINUOUS
 10
2124.7014825501
 20
901.5849401418
 11
1000.7014825501
 21
901.5849401418
  0
LINE
  5
3B9
100
AcDbEntity
  8
7_ALL_FEATURES
100
AcDbLine
 62
9
  6
CONTINUOUS
 10
2126.2014825501
 20
901.7349401418
 11
2124.7014825501
 21
901.7349401418
  0
LINE
  5
3BA
100
AcDbEntity
  8
7_ALL_FEATURES
100
AcDbLine
 62
9
  6
CONTINUOUS
 10
999.2014825501
 20
901.7349401418
 11
1000.7014825501
 21
901.7349401418
  0
LINE
  5
3BB
100
AcDbEntity
  8
7_ALL_FEATURES
100
AcDbLine
 62
9
  6
CONTINUOUS
 10
2124.7014825501
 20
902.3849401418
 11
1000.7014825501
 21
902.3849401418
  0
LINE
  5
3BC
100
AcDbEntity
  8
7_ALL_FEATURES
100
AcDbLine
 62
7
  6
CONTINUOUS
 10
2124.7014825501
 20
902.5849401418
 11
1000.7014825501
 21
902.5849401418
  0
LINE
  5
3BD
100
AcDbEntity
  8
7_ALL_FEATURES
100
AcDbLine
 62
7
  6
CONTINUOUS
 10
2123.9514825501
 20
902.7349401418
 11
1001.4514825501
 21
902.7349401418
  0
LINE
  5
3BE
100
AcDbEntity
  8
7_ALL_FEATURES
100
AcDbLine
 62
9
  6
CONTINUOUS
 10
1000.7014825501
 20
902.7849401418
 11
1001.4514825501
 21
902.7849401418
  0
LINE
  5
3BF
100
AcDbEntity
  8
7_ALL_FEATURES
100
AcDbLine
 62
9
  6
CONTINUOUS
 10
2123.9514825501
 20
902.7849401418
 11
2124.7014825501
 21
902.7849401418
  0
LINE
  5
3C0
100
AcDbEntity
  8
7_ALL_FEATURES
100
AcDbLine
 62
9
  6
CONTINUOUS
 10
2123.9514825501
 20
902.9349401418
 11
1001.4514825501
 21
902.9349401418
  0
LINE
  5
3C1
100
AcDbEntity
  8
7_ALL_FEATURES
100
AcDbLine
 62
9
  6
CONTINUOUS
 10
2124.7014825501
 20
903.6349401418
 11
2123.9514825501
 21
903.6349401418
  0
LINE
  5
3C2
100
AcDbEntity
  8
7_ALL_FEATURES
100
AcDbLine
 62
9
  6
CONTINUOUS
 10
1001.4514825501
 20
903.6349401418
 11
1000.7014825501
 21
903.6349401418
  0
LINE
  5
3C3
100
AcDbEntity
  8
7_ALL_FEATURES
100
AcDbLine
 62
7
  6
CONTINUOUS
 10
2124.7014825501
 20
903.8349401418
 11
2123.9514825501
 21
903.8349401418
  0
LINE
  5
3C4
100
AcDbEntity
  8
7_ALL_FEATURES
100
AcDbLine
 62
7
  6
CONTINUOUS
 10
1001.4514825501
 20
903.8349401418
 11
1000.7014825501
 21
903.8349401418
  0
LINE
  5
3C5
100
AcDbEntity
  8
7_ALL_FEATURES
100
AcDbLine
 62
9
  6
CONTINUOUS
 10
1000.7014825501
 20
903.894750373
 11
1001.4514825501
 21
903.894750373
  0
LINE
  5
3C6
100
AcDbEntity
  8
7_ALL_FEATURES
100
AcDbLine
 62
9
  6
CONTINUOUS
 10
2123.9514825501
 20
903.894750373
 11
2124.7014825501
 21
903.894750373
  0
LINE
  5
3C7
100
AcDbEntity
  8
7_ALL_FEATURES
100
AcDbLine
 62
9
  6
CONTINUOUS
 10
1000.7014825501
 20
904.1141564835
 11
1001.4514825501
 21
904.1141564835
  0
LINE
  5
3C8
100
AcDbEntity
  8
7_ALL_FEATURES
100
AcDbLine
 62
9
  6
CONTINUOUS
 10
2123.9514825501
 20
904.1141564835
 11
2124.7014825501
 21
904.1141564835
  0
LINE
  5
3C9
100
AcDbEntity
  8
7_ALL_FEATURES
100
AcDbLine
 62
9
  6
CONTINUOUS
 10
2124.7014825501
 20
905.1849401418
 11
2123.9514825501
 21
905.1849401418
  0
LINE
  5
3CA
100
AcDbEntity
  8
7_ALL_FEATURES
100
AcDbLine
 62
9
  6
CONTINUOUS
 10
1001.4514825501
 20
905.1849401418
 11
1000.7014825501
 21
905.1849401418
  0
LINE
  5
3CB
100
AcDbEntity
  8
7_ALL_FEATURES
100
AcDbLine
 62
7
  6
CONTINUOUS
 10
2124.7014825501
 20
905.4849401418
 11
2123.9514825501
 21
905.4849401418
  0
LINE
  5
3CC
100
AcDbEntity
  8
7_ALL_FEATURES
100
AcDbLine
 62
7
  6
CONTINUOUS
 10
1001.4514825501
 20
905.4849401418
 11
1000.7014825501
 21
905.4849401418
  0
LINE
  5
3CD
100
AcDbEntity
  8
7_ALL_FEATURES
100
AcDbLine
 62
9
  6
CONTINUOUS
 10
1000.7014825501
 20
905.5030323556
 11
1001.4514825501
 21
905.5030323556
  0
LINE
  5
3CE
100
AcDbEntity
  8
7_ALL_FEATURES
100
AcDbLine
 62
9
  6
CONTINUOUS
 10
2123.9514825501
 20
905.5030323556
 11
2124.7014825501
 21
905.5030323556
  0
LINE
  5
3CF
100
AcDbEntity
  8
7_ALL_FEATURES
100
AcDbLine
 62
9
  6
CONTINUOUS
 10
2124.7014825501
 20
906.1323340988
 11
2123.9514825501
 21
906.1323340988
  0
LINE
  5
3D0
100
AcDbEntity
  8
7_ALL_FEATURES
100
AcDbLine
 62
9
  6
CONTINUOUS
 10
1001.4514825501
 20
906.1323340988
 11
1000.7014825501
 21
906.1323340988
  0
LINE
  5
3D1
100
AcDbEntity
  8
7_ALL_FEATURES
100
AcDbLine
 62
7
  6
CONTINUOUS
 10
2124.7014825501
 20
906.1504263126
 11
2123.9514825501
 21
906.1504263126
  0
LINE
  5
3D2
100
AcDbEntity
  8
7_ALL_FEATURES
100
AcDbLine
 62
7
  6
CONTINUOUS
 10
1001.4514825501
 20
906.1504263126
 11
1000.7014825501
 21
906.1504263126
  0
LINE
  5
3D3
100
AcDbEntity
  8
3_ALL_AXES
100
AcDbLine
 62
7
  6
CONTINUOUS
 10
2127.4514825501
 20
906.6849401418
 11
2127.3007622204
 21
906.6849401418
  0
LINE
  5
3D4
100
AcDbEntity
  8
3_ALL_AXES
100
AcDbLine
 62
7
  6
CONTINUOUS
 10
997.9514825501
 20
906.6849401418
 11
998.1022028797
 21
906.6849401418
  0
LINE
  5
3D5
100
AcDbEntity
  8
7_ALL_FEATURES
100
AcDbLine
 62
9
  6
CONTINUOUS
 10
1000.7014825501
 20
908.956294743
 11
1001.4514825501
 21
908.956294743
  0
LINE
  5
3D6
100
AcDbEntity
  8
7_ALL_FEATURES
100
AcDbLine
 62
9
  6
CONTINUOUS
 10
2123.9514825501
 20
908.956294743
 11
2124.7014825501
 21
908.956294743
  0
LINE
  5
3D7
100
AcDbEntity
  8
7_ALL_FEATURES
100
AcDbLine
 62
9
  6
CONTINUOUS
 10
1000.7014825501
 20
909.4471083347
 11
1001.4514825501
 21
909.4471083347
  0
LINE
  5
3D8
100
AcDbEntity
  8
7_ALL_FEATURES
100
AcDbLine
 62
9
  6
CONTINUOUS
 10
2123.9514825501
 20
909.4471083347
 11
2124.7014825501
 21
909.4471083347
  0
LINE
  5
3D9
100
AcDbEntity
  8
3_ALL_AXES
100
AcDbLine
 62
7
  6
CONTINUOUS
 10
2127.4514825501
 20
910.3349401418
 11
2127.3007622204
 21
910.3349401418
  0
LINE
  5
3DA
100
AcDbEntity
  8
3_ALL_AXES
100
AcDbLine
 62
7
  6
CONTINUOUS
 10
997.9514825501
 20
910.3349401418
 11
998.1022028797
 21
910.3349401418
  0
LINE
  5
3DB
100
AcDbEntity
  8
3_ALL_AXES
100
AcDbLine
 62
7
  6
CONTINUOUS
 10
2127.4514825501
 20
915.8349401418
 11
2127.3007622204
 21
915.8349401418
  0
LINE
  5
3DC
100
AcDbEntity
  8
3_ALL_AXES
100
AcDbLine
 62
7
  6
CONTINUOUS
 10
997.9514825501
 20
915.8349401418
 11
998.1022028797
 21
915.8349401418
  0
LINE
  5
3DD
100
AcDbEntity
  8
7_ALL_FEATURES
100
AcDbLine
 62
9
  6
CONTINUOUS
 10
2124.7014825501
 20
934.0349401418
 11
2123.9514825501
 21
934.0349401418
  0
LINE
  5
3DE
100
AcDbEntity
  8
7_ALL_FEATURES
100
AcDbLine
 62
9
  6
CONTINUOUS
 10
1001.4514825501
 20
934.0349401418
 11
1000.7014825501
 21
934.0349401418
  0
LINE
  5
3DF
100
AcDbEntity
  8
7_ALL_FEATURES
100
AcDbLine
 62
7
  6
CONTINUOUS
 10
2124.7014825501
 20
934.3349401418
 11
2123.9514825501
 21
934.3349401418
  0
LINE
  5
3E0
100
AcDbEntity
  8
7_ALL_FEATURES
100
AcDbLine
 62
7
  6
CONTINUOUS
 10
1001.4514825501
 20
934.3349401418
 11
1000.7014825501
 21
934.3349401418
  0
LINE
  5
3E1
100
AcDbEntity
  8
7_ALL_FEATURES
100
AcDbLine
 62
9
  6
CONTINUOUS
 10
1000.7014825501
 20
934.6349401418
 11
1001.4514825501
 21
934.6349401418
  0
LINE
  5
3E2
100
AcDbEntity
  8
7_ALL_FEATURES
100
AcDbLine
 62
9
  6
CONTINUOUS
 10
2123.9514825501
 20
934.6349401418
 11
2124.7014825501
 21
934.6349401418
  0
LINE
  5
3E3
100
AcDbEntity
  8
6_ALL_SURFS
100
AcDbLine
 62
9
  6
CONTINUOUS
 10
1000.7014825501
 20
937.4349401418
 11
1001.4514825501
 21
937.4349401418
  0
LINE
  5
3E4
100
AcDbEntity
  8
6_ALL_SURFS
100
AcDbLine
 62
9
  6
CONTINUOUS
 10
2123.9514825501
 20
937.4349401418
 11
2124.7014825501
 21
937.4349401418
  0
LINE
  5
3E5
100
AcDbEntity
  8
6_ALL_SURFS
100
AcDbLine
 62
7
  6
CONTINUOUS
 10
2124.7014825501
 20
937.7349401418
 11
2123.9514825501
 21
937.7349401418
  0
LINE
  5
3E6
100
AcDbEntity
  8
6_ALL_SURFS
100
AcDbLine
 62
7
  6
CONTINUOUS
 10
1001.4514825501
 20
937.7349401418
 11
1000.7014825501
 21
937.7349401418
  0
LINE
  5
3E7
100
AcDbEntity
  8
6_ALL_SURFS
100
AcDbLine
 62
9
  6
CONTINUOUS
 10
2124.7014825501
 20
938.0349401418
 11
2123.9514825501
 21
938.0349401418
  0
LINE
  5
3E8
100
AcDbEntity
  8
6_ALL_SURFS
100
AcDbLine
 62
9
  6
CONTINUOUS
 10
1001.4514825501
 20
938.0349401418
 11
1000.7014825501
 21
938.0349401418
  0
LINE
  5
3E9
100
AcDbEntity
  8
3_ALL_AXES
100
AcDbLine
 62
7
  6
CONTINUOUS
 10
2127.4514825501
 20
956.2349401418
 11
2127.3007622204
 21
956.2349401418
  0
LINE
  5
3EA
100
AcDbEntity
  8
3_ALL_AXES
100
AcDbLine
 62
7
  6
CONTINUOUS
 10
997.9514825501
 20
956.2349401418
 11
998.1022028797
 21
956.2349401418
  0
LINE
  5
3EB
100
AcDbEntity
  8
3_ALL_AXES
100
AcDbLine
 62
7
  6
CONTINUOUS
 10
2127.4514825501
 20
961.7349401418
 11
2127.3007622204
 21
961.7349401418
  0
LINE
  5
3EC
100
AcDbEntity
  8
3_ALL_AXES
100
AcDbLine
 62
7
  6
CONTINUOUS
 10
997.9514825501
 20
961.7349401418
 11
998.1022028797
 21
961.7349401418
  0
LINE
  5
3ED
100
AcDbEntity
  8
6_ALL_SURFS
100
AcDbLine
 62
9
  6
CONTINUOUS
 10
1000.7014825501
 20
962.6227719489
 11
1001.4514825501
 21
962.6227719489
  0
LINE
  5
3EE
100
AcDbEntity
  8
6_ALL_SURFS
100
AcDbLine
 62
9
  6
CONTINUOUS
 10
2123.9514825501
 20
962.6227719489
 11
2124.7014825501
 21
962.6227719489
  0
LINE
  5
3EF
100
AcDbEntity
  8
6_ALL_SURFS
100
AcDbLine
 62
9
  6
CONTINUOUS
 10
1000.7014825501
 20
963.1135855406
 11
1001.4514825501
 21
963.1135855406
  0
LINE
  5
3F0
100
AcDbEntity
  8
6_ALL_SURFS
100
AcDbLine
 62
9
  6
CONTINUOUS
 10
2123.9514825501
 20
963.1135855406
 11
2124.7014825501
 21
963.1135855406
  0
LINE
  5
3F1
100
AcDbEntity
  8
3_ALL_AXES
100
AcDbLine
 62
7
  6
CONTINUOUS
 10
2127.4514825501
 20
965.3849401418
 11
2127.3007622204
 21
965.3849401418
  0
LINE
  5
3F2
100
AcDbEntity
  8
3_ALL_AXES
100
AcDbLine
 62
7
  6
CONTINUOUS
 10
997.9514825501
 20
965.3849401418
 11
998.1022028797
 21
965.3849401418
  0
LINE
  5
3F3
100
AcDbEntity
  8
6_ALL_SURFS
100
AcDbLine
 62
7
  6
CONTINUOUS
 10
1000.7014825501
 20
965.919453971
 11
1001.4514825501
 21
965.919453971
  0
LINE
  5
3F4
100
AcDbEntity
  8
6_ALL_SURFS
100
AcDbLine
 62
7
  6
CONTINUOUS
 10
2123.9514825501
 20
965.919453971
 11
2124.7014825501
 21
965.919453971
  0
LINE
  5
3F5
100
AcDbEntity
  8
6_ALL_SURFS
100
AcDbLine
 62
9
  6
CONTINUOUS
 10
2124.7014825501
 20
965.9375461848
 11
2123.9514825501
 21
965.9375461848
  0
LINE
  5
3F6
100
AcDbEntity
  8
6_ALL_SURFS
100
AcDbLine
 62
9
  6
CONTINUOUS
 10
1001.4514825501
 20
965.9375461848
 11
1000.7014825501
 21
965.9375461848
  0
LINE
  5
3F7
100
AcDbEntity
  8
6_ALL_SURFS
100
AcDbLine
 62
9
  6
CONTINUOUS
 10
1000.7014825501
 20
966.566847928
 11
1001.4514825501
 21
966.566847928
  0
LINE
  5
3F8
100
AcDbEntity
  8
6_ALL_SURFS
100
AcDbLine
 62
9
  6
CONTINUOUS
 10
2123.9514825501
 20
966.566847928
 11
2124.7014825501
 21
966.566847928
  0
LINE
  5
3F9
100
AcDbEntity
  8
6_ALL_SURFS
100
AcDbLine
 62
7
  6
CONTINUOUS
 10
2124.7014825501
 20
966.5849401418
 11
2123.9514825501
 21
966.5849401418
  0
LINE
  5
3FA
100
AcDbEntity
  8
6_ALL_SURFS
100
AcDbLine
 62
7
  6
CONTINUOUS
 10
1001.4514825501
 20
966.5849401418
 11
1000.7014825501
 21
966.5849401418
  0
LINE
  5
3FB
100
AcDbEntity
  8
6_ALL_SURFS
100
AcDbLine
 62
9
  6
CONTINUOUS
 10
2124.7014825501
 20
966.8849401418
 11
2123.9514825501
 21
966.8849401418
  0
LINE
  5
3FC
100
AcDbEntity
  8
6_ALL_SURFS
100
AcDbLine
 62
9
  6
CONTINUOUS
 10
1001.4514825501
 20
966.8849401418
 11
1000.7014825501
 21
966.8849401418
  0
LINE
  5
3FD
100
AcDbEntity
  8
6_ALL_SURFS
100
AcDbLine
 62
9
  6
CONTINUOUS
 10
1000.7014825501
 20
967.9557238001
 11
1001.4514825501
 21
967.9557238001
  0
LINE
  5
3FE
100
AcDbEntity
  8
6_ALL_SURFS
100
AcDbLine
 62
9
  6
CONTINUOUS
 10
2123.9514825501
 20
967.9557238001
 11
2124.7014825501
 21
967.9557238001
  0
LINE
  5
3FF
100
AcDbEntity
  8
6_ALL_SURFS
100
AcDbLine
 62
9
  6
CONTINUOUS
 10
1000.7014825501
 20
968.1751299106
 11
1001.4514825501
 21
968.1751299106
  0
LINE
  5
400
100
AcDbEntity
  8
6_ALL_SURFS
100
AcDbLine
 62
9
  6
CONTINUOUS
 10
2123.9514825501
 20
968.1751299106
 11
2124.7014825501
 21
968.1751299106
  0
LINE
  5
401
100
AcDbEntity
  8
6_ALL_SURFS
100
AcDbLine
 62
7
  6
CONTINUOUS
 10
2124.7014825501
 20
968.2349401418
 11
2123.9514825501
 21
968.2349401418
  0
LINE
  5
402
100
AcDbEntity
  8
6_ALL_SURFS
100
AcDbLine
 62
7
  6
CONTINUOUS
 10
1001.4514825501
 20
968.2349401418
 11
1000.7014825501
 21
968.2349401418
  0
LINE
  5
403
100
AcDbEntity
  8
6_ALL_SURFS
100
AcDbLine
 62
9
  6
CONTINUOUS
 10
2124.7014825501
 20
968.4349401418
 11
2123.9514825501
 21
968.4349401418
  0
LINE
  5
404
100
AcDbEntity
  8
6_ALL_SURFS
100
AcDbLine
 62
9
  6
CONTINUOUS
 10
1001.4514825501
 20
968.4349401418
 11
1000.7014825501
 21
968.4349401418
  0
LINE
  5
405
100
AcDbEntity
  8
7_ALL_FEATURES
100
AcDbLine
 62
9
  6
CONTINUOUS
 10
2123.9514825501
 20
969.1349401418
 11
1001.4514825501
 21
969.1349401418
  0
LINE
  5
406
100
AcDbEntity
  8
6_ALL_SURFS
100
AcDbLine
 62
9
  6
CONTINUOUS
 10
1000.7014825501
 20
969.2849401418
 11
1001.4514825501
 21
969.2849401418
  0
LINE
  5
407
100
AcDbEntity
  8
6_ALL_SURFS
100
AcDbLine
 62
9
  6
CONTINUOUS
 10
2123.9514825501
 20
969.2849401418
 11
2124.7014825501
 21
969.2849401418
  0
LINE
  5
408
100
AcDbEntity
  8
7_ALL_FEATURES
100
AcDbLine
 62
7
  6
CONTINUOUS
 10
2123.9514825501
 20
969.3349401418
 11
1001.4514825501
 21
969.3349401418
  0
LINE
  5
409
100
AcDbEntity
  8
6_ALL_SURFS
100
AcDbLine
 62
7
  6
CONTINUOUS
 10
2124.7014825501
 20
969.4849401418
 11
1000.7014825501
 21
969.4849401418
  0
LINE
  5
40A
100
AcDbEntity
  8
6_ALL_SURFS
100
AcDbLine
 62
9
  6
CONTINUOUS
 10
2124.7014825501
 20
969.6849401418
 11
1000.7014825501
 21
969.6849401418
  0
LINE
  5
40B
100
AcDbEntity
  8
7_ALL_FEATURES
100
AcDbLine
 62
9
  6
CONTINUOUS
 10
2126.2014825501
 20
970.3349401418
 11
2124.7014825501
 21
970.3349401418
  0
LINE
  5
40C
100
AcDbEntity
  8
7_ALL_FEATURES
100
AcDbLine
 62
9
  6
CONTINUOUS
 10
999.2014825501
 20
970.3349401418
 11
1000.7014825501
 21
970.3349401418
  0
LINE
  5
40D
100
AcDbEntity
  8
6_ALL_SURFS
100
AcDbLine
 62
9
  6
CONTINUOUS
 10
2124.7014825501
 20
970.4849401418
 11
1000.7014825501
 21
970.4849401418
  0
LINE
  5
40E
100
AcDbEntity
  8
6_ALL_SURFS
100
AcDbLine
 62
7
  6
CONTINUOUS
 10
2124.7014825501
 20
970.6849401418
 11
1000.7014825501
 21
970.6849401418
  0
LINE
  5
40F
100
AcDbEntity
  8
3_ALL_AXES
100
AcDbLine
 62
7
  6
CONTINUOUS
 10
2127.4514825501
 20
970.8849401418
 11
2127.3007622204
 21
970.8849401418
  0
LINE
  5
410
100
AcDbEntity
  8
3_ALL_AXES
100
AcDbLine
 62
7
  6
CONTINUOUS
 10
997.9514825501
 20
970.8849401418
 11
998.1022028797
 21
970.8849401418
  0
LINE
  5
411
100
AcDbEntity
  8
6_ALL_SURFS
100
AcDbLine
 62
9
  6
CONTINUOUS
 10
1000.7014825501
 20
970.8849401418
 11
2124.7014825501
 21
970.8849401418
  0
LINE
  5
412
100
AcDbEntity
  8
7_ALL_FEATURES
100
AcDbLine
 62
7
  6
CONTINUOUS
 10
2126.2014825501
 20
971.0849401418
 11
2124.7014825501
 21
971.0849401418
  0
LINE
  5
413
100
AcDbEntity
  8
7_ALL_FEATURES
100
AcDbLine
 62
7
  6
CONTINUOUS
 10
999.2014825501
 20
971.0849401418
 11
1000.7014825501
 21
971.0849401418
  0
LINE
  5
414
100
AcDbEntity
  8
6_ALL_SURFS
100
AcDbLine
 62
7
  6
CONTINUOUS
 10
1000.7014825501
 20
973.1849401418
 11
2124.7014825501
 21
973.1849401418
  0
LINE
  5
415
100
AcDbEntity
  8
6_ALL_SURFS
100
AcDbLine
 62
7
  6
CONTINUOUS
 10
1000.7014825501
 20
973.7849401418
 11
2124.7014825501
 21
973.7849401418
  0
LINE
  5
416
100
AcDbEntity
  8
6_ALL_SURFS
100
AcDbLine
 62
7
  6
CONTINUOUS
 10
1000.7014825501
 20
976.1849401418
 11
2124.7014825501
 21
976.1849401418
  0
LINE
  5
417
100
AcDbEntity
  8
6_ALL_SURFS
100
AcDbLine
 62
7
  6
CONTINUOUS
 10
1000.7014825501
 20
976.7849401418
 11
2124.7014825501
 21
976.7849401418
  0
LINE
  5
418
100
AcDbEntity
  8
6_ALL_SURFS
100
AcDbLine
 62
7
  6
CONTINUOUS
 10
1000.7014825501
 20
979.1849401418
 11
2124.7014825501
 21
979.1849401418
  0
LINE
  5
419
100
AcDbEntity
  8
6_ALL_SURFS
100
AcDbLine
 62
7
  6
CONTINUOUS
 10
1000.7014825501
 20
979.7849401418
 11
2124.7014825501
 21
979.7849401418
  0
LINE
  5
41A
100
AcDbEntity
  8
6_ALL_SURFS
100
AcDbLine
 62
7
  6
CONTINUOUS
 10
1000.7014825501
 20
982.1849401418
 11
1058.8039491327
 21
982.1849401418
  0
LINE
  5
41B
100
AcDbEntity
  8
6_ALL_SURFS
100
AcDbLine
 62
7
  6
CONTINUOUS
 10
1066.5990159675
 20
982.1849401418
 11
1308.8039491327
 21
982.1849401418
  0
LINE
  5
41C
100
AcDbEntity
  8
6_ALL_SURFS
100
AcDbLine
 62
7
  6
CONTINUOUS
 10
1316.5990159675
 20
982.1849401418
 11
1558.8039491327
 21
982.1849401418
  0
LINE
  5
41D
100
AcDbEntity
  8
6_ALL_SURFS
100
AcDbLine
 62
7
  6
CONTINUOUS
 10
1566.5990159675
 20
982.1849401418
 11
1808.8039491327
 21
982.1849401418
  0
LINE
  5
41E
100
AcDbEntity
  8
6_ALL_SURFS
100
AcDbLine
 62
7
  6
CONTINUOUS
 10
1816.5990159675
 20
982.1849401418
 11
2058.8039491327
 21
982.1849401418
  0
LINE
  5
41F
100
AcDbEntity
  8
6_ALL_SURFS
100
AcDbLine
 62
7
  6
CONTINUOUS
 10
2066.5990159675
 20
982.1849401418
 11
2124.7014825501
 21
982.1849401418
  0
LINE
  5
420
100
AcDbEntity
  8
6_ALL_SURFS
100
AcDbLine
 62
7
  6
CONTINUOUS
 10
1000.7014825501
 20
982.7849401418
 11
1058.4364190406
 21
982.7849401418
  0
LINE
  5
421
100
AcDbEntity
  8
6_ALL_SURFS
100
AcDbLine
 62
7
  6
CONTINUOUS
 10
1066.9665460595
 20
982.7849401418
 11
1308.4364190406
 21
982.7849401418
  0
LINE
  5
422
100
AcDbEntity
  8
6_ALL_SURFS
100
AcDbLine
 62
7
  6
CONTINUOUS
 10
1316.9665460595
 20
982.7849401418
 11
1558.4364190406
 21
982.7849401418
  0
LINE
  5
423
100
AcDbEntity
  8
6_ALL_SURFS
100
AcDbLine
 62
7
  6
CONTINUOUS
 10
1566.9665460595
 20
982.7849401418
 11
1808.4364190406
 21
982.7849401418
  0
LINE
  5
424
100
AcDbEntity
  8
6_ALL_SURFS
100
AcDbLine
 62
7
  6
CONTINUOUS
 10
1816.9665460595
 20
982.7849401418
 11
2058.4364190406
 21
982.7849401418
  0
LINE
  5
425
100
AcDbEntity
  8
6_ALL_SURFS
100
AcDbLine
 62
7
  6
CONTINUOUS
 10
2066.9665460595
 20
982.7849401418
 11
2124.7014825501
 21
982.7849401418
  0
LINE
  5
426
100
AcDbEntity
  8
6_ALL_SURFS
100
AcDbLine
 62
7
  6
CONTINUOUS
 10
1000.7014825501
 20
985.1849401418
 11
1057.9066137573
 21
985.1849401418
  0
LINE
  5
427
100
AcDbEntity
  8
6_ALL_SURFS
100
AcDbLine
 62
7
  6
CONTINUOUS
 10
1067.4963513428
 20
985.1849401418
 11
1307.9066137573
 21
985.1849401418
  0
LINE
  5
428
100
AcDbEntity
  8
6_ALL_SURFS
100
AcDbLine
 62
7
  6
CONTINUOUS
 10
1317.4963513428
 20
985.1849401418
 11
1557.9066137573
 21
985.1849401418
  0
LINE
  5
429
100
AcDbEntity
  8
6_ALL_SURFS
100
AcDbLine
 62
7
  6
CONTINUOUS
 10
1567.4963513428
 20
985.1849401418
 11
1807.9066137573
 21
985.1849401418
  0
LINE
  5
42A
100
AcDbEntity
  8
6_ALL_SURFS
100
AcDbLine
 62
7
  6
CONTINUOUS
 10
1817.4963513428
 20
985.1849401418
 11
2057.9066137573
 21
985.1849401418
  0
LINE
  5
42B
100
AcDbEntity
  8
6_ALL_SURFS
100
AcDbLine
 62
7
  6
CONTINUOUS
 10
2067.4963513428
 20
985.1849401418
 11
2124.7014825501
 21
985.1849401418
  0
LINE
  5
42C
100
AcDbEntity
  8
6_ALL_SURFS
100
AcDbLine
 62
7
  6
CONTINUOUS
 10
1000.7014825501
 20
985.7849401418
 11
1057.9695942653
 21
985.7849401418
  0
LINE
  5
42D
100
AcDbEntity
  8
6_ALL_SURFS
100
AcDbLine
 62
7
  6
CONTINUOUS
 10
1067.4333708348
 20
985.7849401418
 11
1307.9695942653
 21
985.7849401418
  0
LINE
  5
42E
100
AcDbEntity
  8
6_ALL_SURFS
100
AcDbLine
 62
7
  6
CONTINUOUS
 10
1317.4333708348
 20
985.7849401418
 11
1557.9695942653
 21
985.7849401418
  0
LINE
  5
42F
100
AcDbEntity
  8
6_ALL_SURFS
100
AcDbLine
 62
7
  6
CONTINUOUS
 10
1567.4333708348
 20
985.7849401418
 11
1807.9695942653
 21
985.7849401418
  0
LINE
  5
430
100
AcDbEntity
  8
6_ALL_SURFS
100
AcDbLine
 62
7
  6
CONTINUOUS
 10
1817.4333708348
 20
985.7849401418
 11
2057.9695942653
 21
985.7849401418
  0
LINE
  5
431
100
AcDbEntity
  8
6_ALL_SURFS
100
AcDbLine
 62
7
  6
CONTINUOUS
 10
2067.4333708348
 20
985.7849401418
 11
2124.7014825501
 21
985.7849401418
  0
LINE
  5
432
100
AcDbEntity
  8
6_ALL_SURFS
100
AcDbLine
 62
7
  6
CONTINUOUS
 10
1000.7014825501
 20
988.4849401418
 11
1059.4180747564
 21
988.4849401418
  0
LINE
  5
433
100
AcDbEntity
  8
6_ALL_SURFS
100
AcDbLine
 62
7
  6
CONTINUOUS
 10
1065.9848903438
 20
988.4849401418
 11
1309.4180747564
 21
988.4849401418
  0
LINE
  5
434
100
AcDbEntity
  8
6_ALL_SURFS
100
AcDbLine
 62
7
  6
CONTINUOUS
 10
1315.9848903438
 20
988.4849401418
 11
1559.4180747564
 21
988.4849401418
  0
LINE
  5
435
100
AcDbEntity
  8
6_ALL_SURFS
100
AcDbLine
 62
7
  6
CONTINUOUS
 10
1565.9848903438
 20
988.4849401418
 11
1809.4180747564
 21
988.4849401418
  0
LINE
  5
436
100
AcDbEntity
  8
6_ALL_SURFS
100
AcDbLine
 62
7
  6
CONTINUOUS
 10
1815.9848903438
 20
988.4849401418
 11
2059.4180747564
 21
988.4849401418
  0
LINE
  5
437
100
AcDbEntity
  8
6_ALL_SURFS
100
AcDbLine
 62
7
  6
CONTINUOUS
 10
2065.9848903438
 20
988.4849401418
 11
2124.7014825501
 21
988.4849401418
  0
LINE
  5
438
100
AcDbEntity
  8
6_ALL_SURFS
100
AcDbLine
 62
9
  6
CONTINUOUS
 10
1000.7014825501
 20
990.6304117322
 11
2124.7014825501
 21
990.6304117322
  0
LINE
  5
439
100
AcDbEntity
  8
6_ALL_SURFS
100
AcDbLine
 62
7
  6
CONTINUOUS
 10
2124.7014825501
 20
990.9849401418
 11
1000.7014825501
 21
990.9849401418
  0
LINE
  5
43A
100
AcDbEntity
  8
3_ALL_AXES
100
AcDbLine
 62
7
  6
CONTINUOUS
 10
2127.3007622204
 20
970.8849401418
 11
2126.2014825501
 21
969.9625349758
  0
LINE
  5
43B
100
AcDbEntity
  8
3_ALL_AXES
100
AcDbLine
 62
7
  6
CONTINUOUS
 10
2127.3007622204
 20
961.7349401418
 11
2126.2014825501
 21
960.8125349758
  0
LINE
  5
43C
100
AcDbEntity
  8
3_ALL_AXES
100
AcDbLine
 62
7
  6
CONTINUOUS
 10
2127.3007622204
 20
901.1849401418
 11
2126.2014825501
 21
902.1073453078
  0
LINE
  5
43D
100
AcDbEntity
  8
3_ALL_AXES
100
AcDbLine
 62
7
  6
CONTINUOUS
 10
2127.3007622204
 20
910.3349401418
 11
2126.2014825501
 21
911.2573453078
  0
LINE
  5
43E
100
AcDbEntity
  8
3_ALL_AXES
100
AcDbLine
 62
7
  6
CONTINUOUS
 10
2127.3007622204
 20
915.8349401418
 11
2126.2014825501
 21
914.9125349758
  0
LINE
  5
43F
100
AcDbEntity
  8
3_ALL_AXES
100
AcDbLine
 62
7
  6
CONTINUOUS
 10
2127.3007622204
 20
956.2349401418
 11
2126.2014825501
 21
957.1573453078
  0
LINE
  5
440
100
AcDbEntity
  8
3_ALL_AXES
100
AcDbLine
 62
7
  6
CONTINUOUS
 10
2127.3007622204
 20
906.6849401418
 11
2126.2014825501
 21
905.7625349758
  0
LINE
  5
441
100
AcDbEntity
  8
3_ALL_AXES
100
AcDbLine
 62
7
  6
CONTINUOUS
 10
2127.3007622204
 20
965.3849401418
 11
2126.2014825501
 21
966.3073453078
  0
LINE
  5
442
100
AcDbEntity
  8
7_ALL_FEATURES
100
AcDbLine
 62
7
  6
CONTINUOUS
 10
2123.9514825501
 20
969.3349401418
 11
2123.9514825501
 21
902.7349401418
  0
LINE
  5
443
100
AcDbEntity
  8
3_ALL_AXES
100
AcDbLine
 62
7
  6
CONTINUOUS
 10
2124.7014825501
 20
898.8849401418
 11
2124.7014825501
 21
883.5849401418
  0
LINE
  5
444
100
AcDbEntity
  8
7_ALL_FEATURES
100
AcDbLine
 62
7
  6
CONTINUOUS
 10
2124.7014825501
 20
883.5849401418
 11
2124.7014825501
 21
881.0849504172
  0
LINE
  5
445
100
AcDbEntity
  8
7_ALL_FEATURES
100
AcDbLine
 62
7
  6
CONTINUOUS
 10
2124.7014825501
 20
898.8849401418
 11
2124.7014825501
 21
970.4133364893
  0
LINE
  5
446
100
AcDbEntity
  8
7_ALL_FEATURES
100
AcDbLine
 62
7
  6
CONTINUOUS
 10
2124.7014825501
 20
970.6274815844
 11
2124.7014825501
 21
971.0849401418
  0
LINE
  5
447
100
AcDbEntity
  8
6_ALL_SURFS
100
AcDbLine
 62
7
  6
CONTINUOUS
 10
2124.7014825501
 20
969.6849401418
 11
2124.7014825501
 21
970.6849401418
  0
LINE
  5
448
100
AcDbEntity
  8
6_ALL_SURFS
100
AcDbLine
 62
7
  6
CONTINUOUS
 10
2124.7014825501
 20
971.0849401418
 11
2124.7014825501
 21
990.9849298664
  0
LINE
  5
449
100
AcDbEntity
  8
7_ALL_FEATURES
100
AcDbLine
 62
7
  6
CONTINUOUS
 10
2126.2014825501
 20
971.0849401418
 11
2126.2014825501
 21
900.9849401418
  0
LINE
  5
44A
100
AcDbEntity
  8
3_ALL_AXES
100
AcDbLine
 62
7
  6
CONTINUOUS
 10
2127.3007622204
 20
901.1849401418
 11
2127.3007622204
 21
906.6849401418
  0
LINE
  5
44B
100
AcDbEntity
  8
3_ALL_AXES
100
AcDbLine
 62
7
  6
CONTINUOUS
 10
2127.3007622204
 20
910.3349401418
 11
2127.3007622204
 21
915.8349401418
  0
LINE
  5
44C
100
AcDbEntity
  8
3_ALL_AXES
100
AcDbLine
 62
7
  6
CONTINUOUS
 10
2127.3007622204
 20
956.2349401418
 11
2127.3007622204
 21
961.7349401418
  0
LINE
  5
44D
100
AcDbEntity
  8
3_ALL_AXES
100
AcDbLine
 62
7
  6
CONTINUOUS
 10
2127.3007622204
 20
965.3849401418
 11
2127.3007622204
 21
970.8849401418
  0
LINE
  5
44E
100
AcDbEntity
  8
3_ALL_AXES
100
AcDbLine
 62
7
  6
CONTINUOUS
 10
2127.4514825501
 20
901.1849401418
 11
2127.4514825501
 21
906.6849401418
  0
LINE
  5
44F
100
AcDbEntity
  8
3_ALL_AXES
100
AcDbLine
 62
7
  6
CONTINUOUS
 10
2127.4514825501
 20
910.3349401418
 11
2127.4514825501
 21
915.8349401418
  0
LINE
  5
450
100
AcDbEntity
  8
3_ALL_AXES
100
AcDbLine
 62
7
  6
CONTINUOUS
 10
2127.4514825501
 20
956.2349401418
 11
2127.4514825501
 21
961.7349401418
  0
LINE
  5
451
100
AcDbEntity
  8
3_ALL_AXES
100
AcDbLine
 62
7
  6
CONTINUOUS
 10
2127.4514825501
 20
965.3849401418
 11
2127.4514825501
 21
970.8849401418
  0
CIRCLE
  5
452
100
AcDbEntity
  8
3_ALL_AXES
100
AcDbCircle
 62
7
  6
CONTINUOUS
 10
693.9399304783
 20
668.926749861
 40
2.75
  0
ARC
  5
453
100
AcDbEntity
  8
7_ALL_FEATURES
100
AcDbCircle
 62
7
  6
CONTINUOUS
 10
692.3899304783
 20
674.826749861
 40
1.5
100
AcDbArc
 50
270.0
 51
360.0
  0
ARC
  5
454
100
AcDbEntity
  8
7_ALL_FEATURES
100
AcDbCircle
 62
7
  6
CONTINUOUS
 10
691.7399304783
 20
672.576749861
 40
0.75
100
AcDbArc
 50
90.0
 51
180.0
  0
ARC
  5
455
100
AcDbEntity
  8
7_ALL_FEATURES
100
AcDbCircle
 62
7
  6
CONTINUOUS
 10
691.7399304783
 20
657.676749861
 40
0.75
100
AcDbArc
 50
180.0
 51
270.0
  0
ARC
  5
456
100
AcDbEntity
  8
6_ALL_SURFS
100
AcDbCircle
 62
7
  6
CONTINUOUS
 10
688.5899304783
 20
658.0267498609
 40
0.5
100
AcDbArc
 50
53.1301023542
 51
126.8698976458
  0
ARC
  5
457
100
AcDbEntity
  8
6_ALL_SURFS
100
AcDbCircle
 62
7
  6
CONTINUOUS
 10
685.5899304783
 20
658.0267498609
 40
0.5
100
AcDbArc
 50
53.1301023542
 51
126.8698976458
  0
ARC
  5
458
100
AcDbEntity
  8
6_ALL_SURFS
100
AcDbCircle
 62
7
  6
CONTINUOUS
 10
682.5899304783
 20
658.0267498609
 40
0.5
100
AcDbArc
 50
53.1301023542
 51
126.8698976458
  0
ARC
  5
459
100
AcDbEntity
  8
6_ALL_SURFS
100
AcDbCircle
 62
7
  6
CONTINUOUS
 10
679.5899304783
 20
658.0267498609
 40
0.5
100
AcDbArc
 50
53.1301023542
 51
126.8698976458
  0
ARC
  5
45A
100
AcDbEntity
  8
6_ALL_SURFS
100
AcDbCircle
 62
7
  6
CONTINUOUS
 10
676.5899304783
 20
658.0267498609
 40
0.5
100
AcDbArc
 50
53.1301023542
 51
126.8698976458
  0
ARC
  5
45B
100
AcDbEntity
  8
6_ALL_SURFS
100
AcDbCircle
 62
7
  6
CONTINUOUS
 10
671.4836338362
 20
659.033046503
 40
0.3937033579
100
AcDbArc
 50
90.0
 51
264.2894068625
  0
ARC
  5
45C
100
AcDbEntity
  8
6_ALL_SURFS
100
AcDbCircle
 62
7
  6
CONTINUOUS
 10
691.5899304783
 20
657.1267498609
 40
0.2
100
AcDbArc
 50
224.4767908759
 51
270.0
  0
ARC
  5
45D
100
AcDbEntity
  8
6_ALL_SURFS
100
AcDbCircle
 62
7
  6
CONTINUOUS
 10
698.8899304783
 20
707.3491352455
 40
5.0
100
AcDbArc
 50
168.992257654
 51
180.0
  0
CIRCLE
  5
45E
100
AcDbEntity
  8
3_ALL_AXES
100
AcDbCircle
 62
7
  6
CONTINUOUS
 10
703.0899304783
 20
729.676749861
 40
2.75
  0
ARC
  5
45F
100
AcDbEntity
  8
7_ALL_FEATURES
100
AcDbCircle
 62
7
  6
CONTINUOUS
 10
695.3899304783
 20
707.1466414817
 40
1.5
100
AcDbArc
 50
168.8118414334
 51
180.0
  0
ARC
  5
460
100
AcDbEntity
  8
6_ALL_SURFS
100
AcDbCircle
 62
7
  6
CONTINUOUS
 10
698.9575081868
 20
726.0267498609
 40
1.5
100
AcDbArc
 50
141.9096094856
 51
168.992257654
  0
ARC
  5
461
100
AcDbEntity
  8
7_ALL_FEATURES
100
AcDbCircle
 62
7
  6
CONTINUOUS
 10
723.3941791672
 20
731.926749861
 40
1.0
100
AcDbArc
 50
48.5903778907
 51
90.0
  0
ARC
  5
462
100
AcDbEntity
  8
7_ALL_FEATURES
100
AcDbCircle
 62
7
  6
CONTINUOUS
 10
699.4101389806
 20
732.176749861
 40
0.75
100
AcDbArc
 50
145.8535934133
 51
169.1779923731
  0
ARC
  5
463
100
AcDbEntity
  8
7_ALL_FEATURES
100
AcDbCircle
 62
7
  6
CONTINUOUS
 10
699.5761201068
 20
732.176749861
 40
0.75
100
AcDbArc
 50
90.0
 51
168.8118414334
  0
ARC
  5
464
100
AcDbEntity
  8
6_ALL_SURFS
100
AcDbCircle
 62
7
  6
CONTINUOUS
 10
699.0899304783
 20
732.6267498609
 40
0.3
100
AcDbArc
 50
90.0
 51
180.0
  0
CIRCLE
  5
465
100
AcDbEntity
  8
3_ALL_AXES
100
AcDbCircle
 62
7
  6
CONTINUOUS
 10
758.1399304783
 20
668.926749861
 40
2.75
  0
ARC
  5
466
100
AcDbEntity
  8
7_ALL_FEATURES
100
AcDbCircle
 62
7
  6
CONTINUOUS
 10
759.6899304783
 20
674.826749861
 40
1.5
100
AcDbArc
 50
180.0
 51
270.0
  0
ARC
  5
467
100
AcDbEntity
  8
7_ALL_FEATURES
100
AcDbCircle
 62
7
  6
CONTINUOUS
 10
760.3399304783
 20
657.676749861
 40
0.75
100
AcDbArc
 50
270.0
 51
360.0
  0
ARC
  5
468
100
AcDbEntity
  8
7_ALL_FEATURES
100
AcDbCircle
 62
7
  6
CONTINUOUS
 10
760.3399304783
 20
672.576749861
 40
0.75
100
AcDbArc
 50
0.0
 51
90.0
  0
ARC
  5
469
100
AcDbEntity
  8
3_ALL_AXES
100
AcDbCircle
 62
7
  6
CONTINUOUS
 10
763.4899304783
 20
658.0267498609
 40
0.5
100
AcDbArc
 50
53.1301023542
 51
126.8698976458
  0
ARC
  5
46A
100
AcDbEntity
  8
3_ALL_AXES
100
AcDbCircle
 62
7
  6
CONTINUOUS
 10
775.4899304783
 20
658.0267498609
 40
0.5
100
AcDbArc
 50
53.1301023542
 51
126.8698976458
  0
ARC
  5
46B
100
AcDbEntity
  8
3_ALL_AXES
100
AcDbCircle
 62
7
  6
CONTINUOUS
 10
772.4899304783
 20
658.0267498609
 40
0.5
100
AcDbArc
 50
53.1301023542
 51
126.8698976458
  0
ARC
  5
46C
100
AcDbEntity
  8
3_ALL_AXES
100
AcDbCircle
 62
7
  6
CONTINUOUS
 10
769.4899304783
 20
658.0267498609
 40
0.5
100
AcDbArc
 50
53.1301023542
 51
126.8698976458
  0
ARC
  5
46D
100
AcDbEntity
  8
3_ALL_AXES
100
AcDbCircle
 62
7
  6
CONTINUOUS
 10
766.4899304783
 20
658.0267498609
 40
0.5
100
AcDbArc
 50
53.1301023542
 51
126.8698976458
  0
ARC
  5
46E
100
AcDbEntity
  8
7_ALL_FEATURES
100
AcDbCircle
 62
7
  6
CONTINUOUS
 10
780.5962271204
 20
659.033046503
 40
0.3937033579
100
AcDbArc
 50
275.7105931375
 51
90.0
  0
ARC
  5
46F
100
AcDbEntity
  8
7_ALL_FEATURES
100
AcDbCircle
 62
7
  6
CONTINUOUS
 10
760.4899304783
 20
657.1267498609
 40
0.2
100
AcDbArc
 50
270.0
 51
315.5232091241
  0
ARC
  5
470
100
AcDbEntity
  8
7_ALL_FEATURES
100
AcDbCircle
 62
7
  6
CONTINUOUS
 10
726.0399304783
 20
713.926749861
 40
11.0
100
AcDbArc
 50
3.257196161
 51
176.742803839
  0
ARC
  5
471
100
AcDbEntity
  8
7_ALL_FEATURES
100
AcDbCircle
 62
7
  6
CONTINUOUS
 10
726.0399304783
 20
713.926749861
 40
11.0
100
AcDbArc
 50
183.257196161
 51
356.742803839
  0
ARC
  5
472
100
AcDbEntity
  8
7_ALL_FEATURES
100
AcDbCircle
 62
7
  6
CONTINUOUS
 10
726.0399304783
 20
713.926749861
 40
10.25
100
AcDbArc
 50
3.4958136324
 51
176.5041863676
  0
ARC
  5
473
100
AcDbEntity
  8
7_ALL_FEATURES
100
AcDbCircle
 62
7
  6
CONTINUOUS
 10
726.0399304783
 20
713.926749861
 40
10.25
100
AcDbArc
 50
183.4958136324
 51
356.5041863676
  0
ARC
  5
474
100
AcDbEntity
  8
7_ALL_FEATURES
100
AcDbCircle
 62
7
  6
CONTINUOUS
 10
753.1899304783
 20
707.3491352455
 40
5.0
100
AcDbArc
 50
0.0
 51
11.007742346
  0
ARC
  5
475
100
AcDbEntity
  8
7_ALL_FEATURES
100
AcDbCircle
 62
7
  6
CONTINUOUS
 10
726.0399304783
 20
734.926749861
 40
3.0
100
AcDbArc
 50
228.5903778907
 51
311.4096221093
  0
CIRCLE
  5
476
100
AcDbEntity
  8
3_ALL_AXES
100
AcDbCircle
 62
7
  6
CONTINUOUS
 10
748.9899304783
 20
729.676749861
 40
2.75
  0
ARC
  5
477
100
AcDbEntity
  8
7_ALL_FEATURES
100
AcDbCircle
 62
7
  6
CONTINUOUS
 10
756.6899304783
 20
707.1514788697
 40
1.5
100
AcDbArc
 50
0.0
 51
10.8220076269
  0
ARC
  5
478
100
AcDbEntity
  8
7_ALL_FEATURES
100
AcDbCircle
 62
7
  6
CONTINUOUS
 10
753.1223527699
 20
726.0267498609
 40
1.5
100
AcDbArc
 50
11.007742346
 51
23.3513804599
  0
ARC
  5
479
100
AcDbEntity
  8
7_ALL_FEATURES
100
AcDbCircle
 62
7
  6
CONTINUOUS
 10
728.6856817894
 20
731.926749861
 40
1.0
100
AcDbArc
 50
90.0
 51
131.4096221093
  0
ARC
  5
47A
100
AcDbEntity
  8
7_ALL_FEATURES
100
AcDbCircle
 62
7
  6
CONTINUOUS
 10
752.669721976
 20
732.176749861
 40
0.75
100
AcDbArc
 50
10.8220076269
 51
90.0
  0
ARC
  5
47B
100
AcDbEntity
  8
7_ALL_FEATURES
100
AcDbCircle
 62
7
  6
CONTINUOUS
 10
752.9899304783
 20
732.6267498609
 40
0.3
100
AcDbArc
 50
0.0
 51
90.0
  0
ARC
  5
47C
100
AcDbEntity
  8
7_ALL_FEATURES
100
AcDbCircle
 62
7
  6
CONTINUOUS
 10
1062.7014825501
 20
887.0849401418
 40
4.7990381057
100
AcDbArc
 50
35.6935828234
 51
144.3064171766
  0
ARC
  5
47D
100
AcDbEntity
  8
7_ALL_FEATURES
100
AcDbCircle
 62
7
  6
CONTINUOUS
 10
1312.7014825501
 20
887.0849401418
 40
4.7990381057
100
AcDbArc
 50
35.6935828234
 51
144.3064171766
  0
ARC
  5
47E
100
AcDbEntity
  8
7_ALL_FEATURES
100
AcDbCircle
 62
7
  6
CONTINUOUS
 10
1312.7014825501
 20
887.0849401418
 40
4.7990381057
100
AcDbArc
 50
357.6115056179
 51
27.2855350899
  0
ARC
  5
47F
100
AcDbEntity
  8
7_ALL_FEATURES
100
AcDbCircle
 62
7
  6
CONTINUOUS
 10
1062.7014825501
 20
887.0849401418
 40
4.7990381057
100
AcDbArc
 50
357.6115056179
 51
27.2855350899
  0
ARC
  5
480
100
AcDbEntity
  8
7_ALL_FEATURES
100
AcDbCircle
 62
7
  6
CONTINUOUS
 10
1312.7014825501
 20
887.0849401418
 40
4.7990381057
100
AcDbArc
 50
152.7144649101
 51
182.3884943821
  0
ARC
  5
481
100
AcDbEntity
  8
7_ALL_FEATURES
100
AcDbCircle
 62
7
  6
CONTINUOUS
 10
1062.7014825501
 20
887.0849401418
 40
4.7990381057
100
AcDbArc
 50
152.7144649101
 51
182.3884943821
  0
ARC
  5
482
100
AcDbEntity
  8
7_ALL_FEATURES
100
AcDbCircle
 62
7
  6
CONTINUOUS
 10
1312.7014825501
 20
887.0849401418
 40
4.7990381057
100
AcDbArc
 50
313.171184019
 51
350.4039906056
  0
ARC
  5
483
100
AcDbEntity
  8
7_ALL_FEATURES
100
AcDbCircle
 62
7
  6
CONTINUOUS
 10
1062.7014825501
 20
887.0849401418
 40
4.7990381057
100
AcDbArc
 50
313.171184019
 51
350.4039906056
  0
ARC
  5
484
100
AcDbEntity
  8
7_ALL_FEATURES
100
AcDbCircle
 62
7
  6
CONTINUOUS
 10
1312.7014825501
 20
887.0849401418
 40
4.7990381057
100
AcDbArc
 50
189.5960093944
 51
226.828815981
  0
ARC
  5
485
100
AcDbEntity
  8
7_ALL_FEATURES
100
AcDbCircle
 62
7
  6
CONTINUOUS
 10
1062.7014825501
 20
887.0849401418
 40
4.7990381057
100
AcDbArc
 50
189.5960093944
 51
226.828815981
  0
CIRCLE
  5
486
100
AcDbEntity
  8
6_ALL_SURFS
100
AcDbCircle
 62
7
  6
CONTINUOUS
 10
1062.7014825501
 20
887.0849401418
 40
3.5
  0
CIRCLE
  5
487
100
AcDbEntity
  8
6_ALL_SURFS
100
AcDbCircle
 62
7
  6
CONTINUOUS
 10
1312.7014825501
 20
887.0849401418
 40
3.5
  0
ARC
  5
488
100
AcDbEntity
  8
6_ALL_SURFS
100
AcDbCircle
 62
7
  6
CONTINUOUS
 10
1062.7014825501
 20
984.9849401418
 40
4.7990381057
100
AcDbArc
 50
133.171184019
 51
170.4039906056
  0
ARC
  5
489
100
AcDbEntity
  8
6_ALL_SURFS
100
AcDbCircle
 62
7
  6
CONTINUOUS
 10
1312.7014825501
 20
984.9849401418
 40
4.7990381057
100
AcDbArc
 50
133.171184019
 51
170.4039906056
  0
ARC
  5
48A
100
AcDbEntity
  8
6_ALL_SURFS
100
AcDbCircle
 62
7
  6
CONTINUOUS
 10
1062.7014825501
 20
984.9849401418
 40
4.7990381057
100
AcDbArc
 50
177.6115056179
 51
207.2855350899
  0
ARC
  5
48B
100
AcDbEntity
  8
6_ALL_SURFS
100
AcDbCircle
 62
7
  6
CONTINUOUS
 10
1062.7014825501
 20
984.9849401418
 40
4.7990381057
100
AcDbArc
 50
9.5960093944
 51
46.828815981
  0
ARC
  5
48C
100
AcDbEntity
  8
6_ALL_SURFS
100
AcDbCircle
 62
7
  6
CONTINUOUS
 10
1312.7014825501
 20
984.9849401418
 40
4.7990381057
100
AcDbArc
 50
177.6115056179
 51
207.2855350899
  0
ARC
  5
48D
100
AcDbEntity
  8
6_ALL_SURFS
100
AcDbCircle
 62
7
  6
CONTINUOUS
 10
1062.7014825501
 20
984.9849401418
 40
4.7990381057
100
AcDbArc
 50
332.7144649101
 51
2.3884943821
  0
ARC
  5
48E
100
AcDbEntity
  8
6_ALL_SURFS
100
AcDbCircle
 62
7
  6
CONTINUOUS
 10
1312.7014825501
 20
984.9849401418
 40
4.7990381057
100
AcDbArc
 50
9.5960093944
 51
46.828815981
  0
ARC
  5
48F
100
AcDbEntity
  8
6_ALL_SURFS
100
AcDbCircle
 62
7
  6
CONTINUOUS
 10
1312.7014825501
 20
984.9849401418
 40
4.7990381057
100
AcDbArc
 50
332.7144649101
 51
2.3884943821
  0
ARC
  5
490
100
AcDbEntity
  8
6_ALL_SURFS
100
AcDbCircle
 62
7
  6
CONTINUOUS
 10
1312.7014825501
 20
984.9849401418
 40
4.7990381057
100
AcDbArc
 50
215.6935828234
 51
324.3064171766
  0
ARC
  5
491
100
AcDbEntity
  8
6_ALL_SURFS
100
AcDbCircle
 62
7
  6
CONTINUOUS
 10
1062.7014825501
 20
984.9849401418
 40
4.7990381057
100
AcDbArc
 50
215.6935828234
 51
324.3064171766
  0
CIRCLE
  5
492
100
AcDbEntity
  8
6_ALL_SURFS
100
AcDbCircle
 62
7
  6
CONTINUOUS
 10
1062.7014825501
 20
984.9849401418
 40
3.5
  0
CIRCLE
  5
493
100
AcDbEntity
  8
6_ALL_SURFS
100
AcDbCircle
 62
7
  6
CONTINUOUS
 10
1312.7014825501
 20
984.9849401418
 40
3.5
  0
ARC
  5
494
100
AcDbEntity
  8
7_ALL_FEATURES
100
AcDbCircle
 62
7
  6
CONTINUOUS
 10
2062.7014825501
 20
887.0849401418
 40
4.7990381057
100
AcDbArc
 50
35.6935828234
 51
144.3064171766
  0
ARC
  5
495
100
AcDbEntity
  8
7_ALL_FEATURES
100
AcDbCircle
 62
7
  6
CONTINUOUS
 10
1812.7014825501
 20
887.0849401418
 40
4.7990381057
100
AcDbArc
 50
35.6935828234
 51
144.3064171766
  0
ARC
  5
496
100
AcDbEntity
  8
7_ALL_FEATURES
100
AcDbCircle
 62
7
  6
CONTINUOUS
 10
1562.7014825501
 20
887.0849401418
 40
4.7990381057
100
AcDbArc
 50
35.6935828234
 51
144.3064171766
  0
ARC
  5
497
100
AcDbEntity
  8
7_ALL_FEATURES
100
AcDbCircle
 62
7
  6
CONTINUOUS
 10
2062.7014825501
 20
887.0849401418
 40
4.7990381057
100
AcDbArc
 50
357.6115056179
 51
27.2855350899
  0
ARC
  5
498
100
AcDbEntity
  8
7_ALL_FEATURES
100
AcDbCircle
 62
7
  6
CONTINUOUS
 10
1812.7014825501
 20
887.0849401418
 40
4.7990381057
100
AcDbArc
 50
357.6115056179
 51
27.2855350899
  0
ARC
  5
499
100
AcDbEntity
  8
7_ALL_FEATURES
100
AcDbCircle
 62
7
  6
CONTINUOUS
 10
2062.7014825501
 20
887.0849401418
 40
4.7990381057
100
AcDbArc
 50
152.7144649101
 51
182.3884943821
  0
ARC
  5
49A
100
AcDbEntity
  8
7_ALL_FEATURES
100
AcDbCircle
 62
7
  6
CONTINUOUS
 10
1562.7014825501
 20
887.0849401418
 40
4.7990381057
100
AcDbArc
 50
357.6115056179
 51
27.2855350899
  0
ARC
  5
49B
100
AcDbEntity
  8
7_ALL_FEATURES
100
AcDbCircle
 62
7
  6
CONTINUOUS
 10
1812.7014825501
 20
887.0849401418
 40
4.7990381057
100
AcDbArc
 50
152.7144649101
 51
182.3884943821
  0
ARC
  5
49C
100
AcDbEntity
  8
7_ALL_FEATURES
100
AcDbCircle
 62
7
  6
CONTINUOUS
 10
1562.7014825501
 20
887.0849401418
 40
4.7990381057
100
AcDbArc
 50
152.7144649101
 51
182.3884943821
  0
ARC
  5
49D
100
AcDbEntity
  8
7_ALL_FEATURES
100
AcDbCircle
 62
7
  6
CONTINUOUS
 10
2062.7014825501
 20
887.0849401418
 40
4.7990381057
100
AcDbArc
 50
313.171184019
 51
350.4039906056
  0
ARC
  5
49E
100
AcDbEntity
  8
7_ALL_FEATURES
100
AcDbCircle
 62
7
  6
CONTINUOUS
 10
1812.7014825501
 20
887.0849401418
 40
4.7990381057
100
AcDbArc
 50
313.171184019
 51
350.4039906056
  0
ARC
  5
49F
100
AcDbEntity
  8
7_ALL_FEATURES
100
AcDbCircle
 62
7
  6
CONTINUOUS
 10
2062.7014825501
 20
887.0849401418
 40
4.7990381057
100
AcDbArc
 50
189.5960093944
 51
226.828815981
  0
ARC
  5
4A0
100
AcDbEntity
  8
7_ALL_FEATURES
100
AcDbCircle
 62
7
  6
CONTINUOUS
 10
1562.7014825501
 20
887.0849401418
 40
4.7990381057
100
AcDbArc
 50
313.171184019
 51
350.4039906056
  0
ARC
  5
4A1
100
AcDbEntity
  8
7_ALL_FEATURES
100
AcDbCircle
 62
7
  6
CONTINUOUS
 10
1812.7014825501
 20
887.0849401418
 40
4.7990381057
100
AcDbArc
 50
189.5960093944
 51
226.828815981
  0
ARC
  5
4A2
100
AcDbEntity
  8
7_ALL_FEATURES
100
AcDbCircle
 62
7
  6
CONTINUOUS
 10
1562.7014825501
 20
887.0849401418
 40
4.7990381057
100
AcDbArc
 50
189.5960093944
 51
226.828815981
  0
CIRCLE
  5
4A3
100
AcDbEntity
  8
6_ALL_SURFS
100
AcDbCircle
 62
7
  6
CONTINUOUS
 10
1562.7014825501
 20
887.0849401418
 40
3.5
  0
CIRCLE
  5
4A4
100
AcDbEntity
  8
6_ALL_SURFS
100
AcDbCircle
 62
7
  6
CONTINUOUS
 10
1812.7014825501
 20
887.0849401418
 40
3.5
  0
CIRCLE
  5
4A5
100
AcDbEntity
  8
6_ALL_SURFS
100
AcDbCircle
 62
7
  6
CONTINUOUS
 10
2062.7014825501
 20
887.0849401418
 40
3.5
  0
ARC
  5
4A6
100
AcDbEntity
  8
6_ALL_SURFS
100
AcDbCircle
 62
7
  6
CONTINUOUS
 10
1562.7014825501
 20
984.9849401418
 40
4.7990381057
100
AcDbArc
 50
133.171184019
 51
170.4039906056
  0
ARC
  5
4A7
100
AcDbEntity
  8
6_ALL_SURFS
100
AcDbCircle
 62
7
  6
CONTINUOUS
 10
1562.7014825501
 20
984.9849401418
 40
4.7990381057
100
AcDbArc
 50
177.6115056179
 51
207.2855350899
  0
ARC
  5
4A8
100
AcDbEntity
  8
6_ALL_SURFS
100
AcDbCircle
 62
7
  6
CONTINUOUS
 10
1812.7014825501
 20
984.9849401418
 40
4.7990381057
100
AcDbArc
 50
177.6115056179
 51
207.2855350899
  0
ARC
  5
4A9
100
AcDbEntity
  8
6_ALL_SURFS
100
AcDbCircle
 62
7
  6
CONTINUOUS
 10
1562.7014825501
 20
984.9849401418
 40
4.7990381057
100
AcDbArc
 50
332.7144649101
 51
2.3884943821
  0
ARC
  5
4AA
100
AcDbEntity
  8
6_ALL_SURFS
100
AcDbCircle
 62
7
  6
CONTINUOUS
 10
2062.7014825501
 20
984.9849401418
 40
4.7990381057
100
AcDbArc
 50
177.6115056179
 51
207.2855350899
  0
ARC
  5
4AB
100
AcDbEntity
  8
6_ALL_SURFS
100
AcDbCircle
 62
7
  6
CONTINUOUS
 10
1812.7014825501
 20
984.9849401418
 40
4.7990381057
100
AcDbArc
 50
332.7144649101
 51
2.3884943821
  0
ARC
  5
4AC
100
AcDbEntity
  8
6_ALL_SURFS
100
AcDbCircle
 62
7
  6
CONTINUOUS
 10
2062.7014825501
 20
984.9849401418
 40
4.7990381057
100
AcDbArc
 50
332.7144649101
 51
2.3884943821
  0
ARC
  5
4AD
100
AcDbEntity
  8
6_ALL_SURFS
100
AcDbCircle
 62
7
  6
CONTINUOUS
 10
1812.7014825501
 20
984.9849401418
 40
4.7990381057
100
AcDbArc
 50
133.171184019
 51
170.4039906056
  0
ARC
  5
4AE
100
AcDbEntity
  8
6_ALL_SURFS
100
AcDbCircle
 62
7
  6
CONTINUOUS
 10
1562.7014825501
 20
984.9849401418
 40
4.7990381057
100
AcDbArc
 50
9.5960093944
 51
46.828815981
  0
ARC
  5
4AF
100
AcDbEntity
  8
6_ALL_SURFS
100
AcDbCircle
 62
7
  6
CONTINUOUS
 10
2062.7014825501
 20
984.9849401418
 40
4.7990381057
100
AcDbArc
 50
133.171184019
 51
170.4039906056
  0
ARC
  5
4B0
100
AcDbEntity
  8
6_ALL_SURFS
100
AcDbCircle
 62
7
  6
CONTINUOUS
 10
1812.7014825501
 20
984.9849401418
 40
4.7990381057
100
AcDbArc
 50
9.5960093944
 51
46.828815981
  0
ARC
  5
4B1
100
AcDbEntity
  8
6_ALL_SURFS
100
AcDbCircle
 62
7
  6
CONTINUOUS
 10
2062.7014825501
 20
984.9849401418
 40
4.7990381057
100
AcDbArc
 50
9.5960093944
 51
46.828815981
  0
ARC
  5
4B2
100
AcDbEntity
  8
6_ALL_SURFS
100
AcDbCircle
 62
7
  6
CONTINUOUS
 10
2062.7014825501
 20
984.9849401418
 40
4.7990381057
100
AcDbArc
 50
215.6935828234
 51
324.3064171766
  0
ARC
  5
4B3
100
AcDbEntity
  8
6_ALL_SURFS
100
AcDbCircle
 62
7
  6
CONTINUOUS
 10
1812.7014825501
 20
984.9849401418
 40
4.7990381057
100
AcDbArc
 50
215.6935828234
 51
324.3064171766
  0
ARC
  5
4B4
100
AcDbEntity
  8
6_ALL_SURFS
100
AcDbCircle
 62
7
  6
CONTINUOUS
 10
1562.7014825501
 20
984.9849401418
 40
4.7990381057
100
AcDbArc
 50
215.6935828234
 51
324.3064171766
  0
CIRCLE
  5
4B5
100
AcDbEntity
  8
6_ALL_SURFS
100
AcDbCircle
 62
7
  6
CONTINUOUS
 10
1562.7014825501
 20
984.9849401418
 40
3.5
  0
CIRCLE
  5
4B6
100
AcDbEntity
  8
6_ALL_SURFS
100
AcDbCircle
 62
7
  6
CONTINUOUS
 10
1812.7014825501
 20
984.9849401418
 40
3.5
  0
CIRCLE
  5
4B7
100
AcDbEntity
  8
6_ALL_SURFS
100
AcDbCircle
 62
7
  6
CONTINUOUS
 10
2062.7014825501
 20
984.9849401418
 40
3.5
  0
SPLINE
  5
4B8
100
AcDbEntity
  8
6_ALL_SURFS
100
AcDbSpline
 62
7
  6
CONTINUOUS
 70
0
 71
3
 72
10
 73
6
 74
0
 42
0.0000001
 43
0.0000001
 44
0.0000000001
 40
0.0
 40
0.0
 40
0.0
 40
0.0
 40
0.2439769584
 40
0.5026269208
 40
1.0
 40
1.0
 40
1.0
 40
1.0
 10
1057.9695942653
 20
985.7849401418
 30
0.0
 10
1058.0123828883
 20
985.7476810298
 30
0.0
 10
1058.0904139526
 20
985.6552462579
 30
0.0
 10
1058.1288419448
 20
985.4105481394
 30
0.0
 10
1057.9993577901
 20
985.2540551948
 30
0.0
 10
1057.9066137573
 20
985.1849401418
 30
0.0
  0
SPLINE
  5
4B9
100
AcDbEntity
  8
6_ALL_SURFS
100
AcDbSpline
 62
7
  6
CONTINUOUS
 70
0
 71
3
 72
10
 73
6
 74
0
 42
0.0000001
 43
0.0000001
 44
0.0000000001
 40
0.0
 40
0.0
 40
0.0
 40
0.0
 40
0.2439769584
 40
0.5026269208
 40
1.0
 40
1.0
 40
1.0
 40
1.0
 10
1307.9695942653
 20
985.7849401418
 30
0.0
 10
1308.0123828883
 20
985.7476810298
 30
0.0
 10
1308.0904139526
 20
985.6552462579
 30
0.0
 10
1308.1288419448
 20
985.4105481394
 30
0.0
 10
1307.9993577901
 20
985.2540551948
 30
0.0
 10
1307.9066137573
 20
985.1849401418
 30
0.0
  0
SPLINE
  5
4BA
100
AcDbEntity
  8
6_ALL_SURFS
100
AcDbSpline
 62
7
  6
CONTINUOUS
 70
0
 71
3
 72
10
 73
6
 74
0
 42
0.0000001
 43
0.0000001
 44
0.0000000001
 40
0.0
 40
0.0
 40
0.0
 40
0.0
 40
0.4973730792
 40
0.7560230416
 40
1.0
 40
1.0
 40
1.0
 40
1.0
 10
1067.4963513428
 20
985.1849401418
 30
0.0
 10
1067.40360731
 20
985.2540551948
 30
0.0
 10
1067.2741231553
 20
985.4105481394
 30
0.0
 10
1067.3125511475
 20
985.6552462579
 30
0.0
 10
1067.3905822118
 20
985.7476810298
 30
0.0
 10
1067.4333708348
 20
985.7849401418
 30
0.0
  0
SPLINE
  5
4BB
100
AcDbEntity
  8
6_ALL_SURFS
100
AcDbSpline
 62
7
  6
CONTINUOUS
 70
0
 71
3
 72
10
 73
6
 74
0
 42
0.0000001
 43
0.0000001
 44
0.0000000001
 40
0.0
 40
0.0
 40
0.0
 40
0.0
 40
0.2439769584
 40
0.5026269208
 40
1.0
 40
1.0
 40
1.0
 40
1.0
 10
1557.9695942653
 20
985.7849401418
 30
0.0
 10
1558.0123828883
 20
985.7476810298
 30
0.0
 10
1558.0904139526
 20
985.6552462579
 30
0.0
 10
1558.1288419448
 20
985.4105481394
 30
0.0
 10
1557.9993577901
 20
985.2540551948
 30
0.0
 10
1557.9066137573
 20
985.1849401418
 30
0.0
  0
SPLINE
  5
4BC
100
AcDbEntity
  8
6_ALL_SURFS
100
AcDbSpline
 62
7
  6
CONTINUOUS
 70
0
 71
3
 72
10
 73
6
 74
0
 42
0.0000001
 43
0.0000001
 44
0.0000000001
 40
0.0
 40
0.0
 40
0.0
 40
0.0
 40
0.4973730792
 40
0.7560230416
 40
1.0
 40
1.0
 40
1.0
 40
1.0
 10
1317.4963513428
 20
985.1849401418
 30
0.0
 10
1317.40360731
 20
985.2540551948
 30
0.0
 10
1317.2741231553
 20
985.4105481394
 30
0.0
 10
1317.3125511475
 20
985.6552462579
 30
0.0
 10
1317.3905822118
 20
985.7476810298
 30
0.0
 10
1317.4333708348
 20
985.7849401418
 30
0.0
  0
SPLINE
  5
4BD
100
AcDbEntity
  8
6_ALL_SURFS
100
AcDbSpline
 62
7
  6
CONTINUOUS
 70
0
 71
3
 72
10
 73
6
 74
0
 42
0.0000001
 43
0.0000001
 44
0.0000000001
 40
0.0
 40
0.0
 40
0.0
 40
0.0
 40
0.2439769584
 40
0.5026269208
 40
1.0
 40
1.0
 40
1.0
 40
1.0
 10
1807.9695942653
 20
985.7849401418
 30
0.0
 10
1808.0123828883
 20
985.7476810298
 30
0.0
 10
1808.0904139526
 20
985.6552462579
 30
0.0
 10
1808.1288419448
 20
985.4105481394
 30
0.0
 10
1807.9993577901
 20
985.2540551948
 30
0.0
 10
1807.9066137573
 20
985.1849401418
 30
0.0
  0
SPLINE
  5
4BE
100
AcDbEntity
  8
6_ALL_SURFS
100
AcDbSpline
 62
7
  6
CONTINUOUS
 70
0
 71
3
 72
10
 73
6
 74
0
 42
0.0000001
 43
0.0000001
 44
0.0000000001
 40
0.0
 40
0.0
 40
0.0
 40
0.0
 40
0.4973730792
 40
0.7560230416
 40
1.0
 40
1.0
 40
1.0
 40
1.0
 10
1567.4963513428
 20
985.1849401418
 30
0.0
 10
1567.40360731
 20
985.2540551948
 30
0.0
 10
1567.2741231553
 20
985.4105481394
 30
0.0
 10
1567.3125511475
 20
985.6552462579
 30
0.0
 10
1567.3905822118
 20
985.7476810298
 30
0.0
 10
1567.4333708348
 20
985.7849401418
 30
0.0
  0
SPLINE
  5
4BF
100
AcDbEntity
  8
6_ALL_SURFS
100
AcDbSpline
 62
7
  6
CONTINUOUS
 70
0
 71
3
 72
10
 73
6
 74
0
 42
0.0000001
 43
0.0000001
 44
0.0000000001
 40
0.0
 40
0.0
 40
0.0
 40
0.0
 40
0.2439769584
 40
0.5026269208
 40
1.0
 40
1.0
 40
1.0
 40
1.0
 10
2057.9695942653
 20
985.7849401418
 30
0.0
 10
2058.0123828883
 20
985.7476810298
 30
0.0
 10
2058.0904139526
 20
985.6552462579
 30
0.0
 10
2058.1288419448
 20
985.4105481394
 30
0.0
 10
2057.9993577901
 20
985.2540551948
 30
0.0
 10
2057.9066137573
 20
985.1849401418
 30
0.0
  0
SPLINE
  5
4C0
100
AcDbEntity
  8
6_ALL_SURFS
100
AcDbSpline
 62
7
  6
CONTINUOUS
 70
0
 71
3
 72
10
 73
6
 74
0
 42
0.0000001
 43
0.0000001
 44
0.0000000001
 40
0.0
 40
0.0
 40
0.0
 40
0.0
 40
0.4973730792
 40
0.7560230416
 40
1.0
 40
1.0
 40
1.0
 40
1.0
 10
1817.4963513428
 20
985.1849401418
 30
0.0
 10
1817.40360731
 20
985.2540551948
 30
0.0
 10
1817.2741231553
 20
985.4105481394
 30
0.0
 10
1817.3125511475
 20
985.6552462579
 30
0.0
 10
1817.3905822118
 20
985.7476810298
 30
0.0
 10
1817.4333708348
 20
985.7849401418
 30
0.0
  0
SPLINE
  5
4C1
100
AcDbEntity
  8
6_ALL_SURFS
100
AcDbSpline
 62
7
  6
CONTINUOUS
 70
0
 71
3
 72
10
 73
6
 74
0
 42
0.0000001
 43
0.0000001
 44
0.0000000001
 40
0.0
 40
0.0
 40
0.0
 40
0.0
 40
0.4973730792
 40
0.7560230416
 40
1.0
 40
1.0
 40
1.0
 40
1.0
 10
2067.4963513428
 20
985.1849401418
 30
0.0
 10
2067.40360731
 20
985.2540551948
 30
0.0
 10
2067.2741231553
 20
985.4105481394
 30
0.0
 10
2067.3125511475
 20
985.6552462579
 30
0.0
 10
2067.3905822118
 20
985.7476810298
 30
0.0
 10
2067.4333708348
 20
985.7849401418
 30
0.0
  0
SPLINE
  5
4C2
100
AcDbEntity
  8
6_ALL_SURFS
100
AcDbSpline
 62
7
  6
CONTINUOUS
 70
0
 71
3
 72
11
 73
7
 74
0
 42
0.0000001
 43
0.0000001
 44
0.0000000001
 40
0.0
 40
0.0
 40
0.0
 40
0.0
 40
0.2517159439
 40
0.5096938069
 40
0.7678178694
 40
1.0
 40
1.0
 40
1.0
 40
1.0
 10
1058.4364190406
 20
982.7849401418
 30
0.0
 10
1058.4962735258
 20
982.7546722803
 30
0.0
 10
1058.6144181636
 20
982.6854315338
 30
0.0
 10
1058.7692887467
 20
982.5537918343
 30
0.0
 10
1058.8885114087
 20
982.3763257399
 30
0.0
 10
1058.8448493299
 20
982.2313593889
 30
0.0
 10
1058.8039491327
 20
982.1849401418
 30
0.0
  0
SPLINE
  5
4C3
100
AcDbEntity
  8
6_ALL_SURFS
100
AcDbSpline
 62
7
  6
CONTINUOUS
 70
0
 71
3
 72
11
 73
7
 74
0
 42
0.0000001
 43
0.0000001
 44
0.0000000001
 40
0.0
 40
0.0
 40
0.0
 40
0.0
 40
0.2517159439
 40
0.5096938069
 40
0.7678178694
 40
1.0
 40
1.0
 40
1.0
 40
1.0
 10
1308.4364190406
 20
982.7849401418
 30
0.0
 10
1308.4962735258
 20
982.7546722803
 30
0.0
 10
1308.6144181636
 20
982.6854315338
 30
0.0
 10
1308.7692887467
 20
982.5537918343
 30
0.0
 10
1308.8885114087
 20
982.3763257399
 30
0.0
 10
1308.8448493299
 20
982.2313593889
 30
0.0
 10
1308.8039491327
 20
982.1849401418
 30
0.0
  0
SPLINE
  5
4C4
100
AcDbEntity
  8
6_ALL_SURFS
100
AcDbSpline
 62
7
  6
CONTINUOUS
 70
0
 71
3
 72
11
 73
7
 74
0
 42
0.0000001
 43
0.0000001
 44
0.0000000001
 40
0.0
 40
0.0
 40
0.0
 40
0.0
 40
0.2321629376
 40
0.4902906901
 40
0.7482783318
 40
1.0
 40
1.0
 40
1.0
 40
1.0
 10
1066.5990159675
 20
982.1849401418
 30
0.0
 10
1066.5581191686
 20
982.2313555319
 30
0.0
 10
1066.5144543155
 20
982.376313018
 30
0.0
 10
1066.6336684487
 20
982.5537845548
 30
0.0
 10
1066.788542136
 20
982.685428671
 30
0.0
 10
1066.9066902387
 20
982.7546716049
 30
0.0
 10
1066.9665460595
 20
982.7849401418
 30
0.0
  0
SPLINE
  5
4C5
100
AcDbEntity
  8
6_ALL_SURFS
100
AcDbSpline
 62
7
  6
CONTINUOUS
 70
0
 71
3
 72
11
 73
7
 74
0
 42
0.0000001
 43
0.0000001
 44
0.0000000001
 40
0.0
 40
0.0
 40
0.0
 40
0.0
 40
0.2517159439
 40
0.5096938069
 40
0.7678178694
 40
1.0
 40
1.0
 40
1.0
 40
1.0
 10
1558.4364190406
 20
982.7849401418
 30
0.0
 10
1558.4962735258
 20
982.7546722803
 30
0.0
 10
1558.6144181636
 20
982.6854315338
 30
0.0
 10
1558.7692887467
 20
982.5537918343
 30
0.0
 10
1558.8885114087
 20
982.3763257399
 30
0.0
 10
1558.8448493299
 20
982.2313593889
 30
0.0
 10
1558.8039491327
 20
982.1849401418
 30
0.0
  0
SPLINE
  5
4C6
100
AcDbEntity
  8
6_ALL_SURFS
100
AcDbSpline
 62
7
  6
CONTINUOUS
 70
0
 71
3
 72
11
 73
7
 74
0
 42
0.0000001
 43
0.0000001
 44
0.0000000001
 40
0.0
 40
0.0
 40
0.0
 40
0.0
 40
0.2321629376
 40
0.4902906901
 40
0.7482783318
 40
1.0
 40
1.0
 40
1.0
 40
1.0
 10
1316.5990159675
 20
982.1849401418
 30
0.0
 10
1316.5581191686
 20
982.2313555319
 30
0.0
 10
1316.5144543155
 20
982.376313018
 30
0.0
 10
1316.6336684487
 20
982.5537845548
 30
0.0
 10
1316.788542136
 20
982.685428671
 30
0.0
 10
1316.9066902387
 20
982.7546716049
 30
0.0
 10
1316.9665460595
 20
982.7849401418
 30
0.0
  0
SPLINE
  5
4C7
100
AcDbEntity
  8
6_ALL_SURFS
100
AcDbSpline
 62
7
  6
CONTINUOUS
 70
0
 71
3
 72
11
 73
7
 74
0
 42
0.0000001
 43
0.0000001
 44
0.0000000001
 40
0.0
 40
0.0
 40
0.0
 40
0.0
 40
0.2517159439
 40
0.5096938069
 40
0.7678178694
 40
1.0
 40
1.0
 40
1.0
 40
1.0
 10
1808.4364190406
 20
982.7849401418
 30
0.0
 10
1808.4962735258
 20
982.7546722803
 30
0.0
 10
1808.6144181636
 20
982.6854315338
 30
0.0
 10
1808.7692887467
 20
982.5537918343
 30
0.0
 10
1808.8885114087
 20
982.3763257399
 30
0.0
 10
1808.8448493299
 20
982.2313593889
 30
0.0
 10
1808.8039491327
 20
982.1849401418
 30
0.0
  0
SPLINE
  5
4C8
100
AcDbEntity
  8
6_ALL_SURFS
100
AcDbSpline
 62
7
  6
CONTINUOUS
 70
0
 71
3
 72
11
 73
7
 74
0
 42
0.0000001
 43
0.0000001
 44
0.0000000001
 40
0.0
 40
0.0
 40
0.0
 40
0.0
 40
0.2321629376
 40
0.4902906901
 40
0.7482783318
 40
1.0
 40
1.0
 40
1.0
 40
1.0
 10
1566.5990159675
 20
982.1849401418
 30
0.0
 10
1566.5581191686
 20
982.2313555319
 30
0.0
 10
1566.5144543155
 20
982.376313018
 30
0.0
 10
1566.6336684487
 20
982.5537845548
 30
0.0
 10
1566.788542136
 20
982.685428671
 30
0.0
 10
1566.9066902387
 20
982.7546716049
 30
0.0
 10
1566.9665460595
 20
982.7849401418
 30
0.0
  0
SPLINE
  5
4C9
100
AcDbEntity
  8
6_ALL_SURFS
100
AcDbSpline
 62
7
  6
CONTINUOUS
 70
0
 71
3
 72
11
 73
7
 74
0
 42
0.0000001
 43
0.0000001
 44
0.0000000001
 40
0.0
 40
0.0
 40
0.0
 40
0.0
 40
0.2517159439
 40
0.5096938069
 40
0.7678178694
 40
1.0
 40
1.0
 40
1.0
 40
1.0
 10
2058.4364190406
 20
982.7849401418
 30
0.0
 10
2058.4962735258
 20
982.7546722803
 30
0.0
 10
2058.6144181636
 20
982.6854315338
 30
0.0
 10
2058.7692887467
 20
982.5537918343
 30
0.0
 10
2058.8885114087
 20
982.3763257399
 30
0.0
 10
2058.8448493299
 20
982.2313593889
 30
0.0
 10
2058.8039491327
 20
982.1849401418
 30
0.0
  0
SPLINE
  5
4CA
100
AcDbEntity
  8
6_ALL_SURFS
100
AcDbSpline
 62
7
  6
CONTINUOUS
 70
0
 71
3
 72
11
 73
7
 74
0
 42
0.0000001
 43
0.0000001
 44
0.0000000001
 40
0.0
 40
0.0
 40
0.0
 40
0.0
 40
0.2321629376
 40
0.4902906901
 40
0.7482783318
 40
1.0
 40
1.0
 40
1.0
 40
1.0
 10
1816.5990159675
 20
982.1849401418
 30
0.0
 10
1816.5581191686
 20
982.2313555319
 30
0.0
 10
1816.5144543155
 20
982.376313018
 30
0.0
 10
1816.6336684487
 20
982.5537845548
 30
0.0
 10
1816.788542136
 20
982.685428671
 30
0.0
 10
1816.9066902387
 20
982.7546716049
 30
0.0
 10
1816.9665460595
 20
982.7849401418
 30
0.0
  0
SPLINE
  5
4CB
100
AcDbEntity
  8
6_ALL_SURFS
100
AcDbSpline
 62
7
  6
CONTINUOUS
 70
0
 71
3
 72
11
 73
7
 74
0
 42
0.0000001
 43
0.0000001
 44
0.0000000001
 40
0.0
 40
0.0
 40
0.0
 40
0.0
 40
0.2321629376
 40
0.4902906901
 40
0.7482783318
 40
1.0
 40
1.0
 40
1.0
 40
1.0
 10
2066.5990159675
 20
982.1849401418
 30
0.0
 10
2066.5581191686
 20
982.2313555319
 30
0.0
 10
2066.5144543155
 20
982.376313018
 30
0.0
 10
2066.6336684487
 20
982.5537845548
 30
0.0
 10
2066.788542136
 20
982.685428671
 30
0.0
 10
2066.9066902387
 20
982.7546716049
 30
0.0
 10
2066.9665460595
 20
982.7849401418
 30
0.0
  0
SPLINE
  5
4CC
100
AcDbEntity
  8
7_ALL_FEATURES
100
AcDbSpline
 62
7
  6
CONTINUOUS
 70
0
 71
3
 72
11
 73
7
 74
0
 42
0.0000001
 43
0.0000001
 44
0.0000000001
 40
0.0
 40
0.0
 40
0.0
 40
0.0
 40
0.2321629376
 40
0.4902906901
 40
0.7482783318
 40
1.0
 40
1.0
 40
1.0
 40
1.0
 10
2066.5990159675
 20
889.8849401418
 30
0.0
 10
2066.5581191686
 20
889.8385247517
 30
0.0
 10
2066.5144543155
 20
889.6935672656
 30
0.0
 10
2066.6336684487
 20
889.5160957288
 30
0.0
 10
2066.788542136
 20
889.3844516126
 30
0.0
 10
2066.9066902387
 20
889.3152086787
 30
0.0
 10
2066.9665460595
 20
889.2849401418
 30
0.0
  0
SPLINE
  5
4CD
100
AcDbEntity
  8
7_ALL_FEATURES
100
AcDbSpline
 62
7
  6
CONTINUOUS
 70
0
 71
3
 72
11
 73
7
 74
0
 42
0.0000001
 43
0.0000001
 44
0.0000000001
 40
0.0
 40
0.0
 40
0.0
 40
0.0
 40
0.2321629376
 40
0.4902906901
 40
0.7482783318
 40
1.0
 40
1.0
 40
1.0
 40
1.0
 10
1816.5990159675
 20
889.8849401418
 30
0.0
 10
1816.5581191686
 20
889.8385247517
 30
0.0
 10
1816.5144543155
 20
889.6935672656
 30
0.0
 10
1816.6336684487
 20
889.5160957288
 30
0.0
 10
1816.788542136
 20
889.3844516126
 30
0.0
 10
1816.9066902387
 20
889.3152086787
 30
0.0
 10
1816.9665460595
 20
889.2849401418
 30
0.0
  0
SPLINE
  5
4CE
100
AcDbEntity
  8
7_ALL_FEATURES
100
AcDbSpline
 62
7
  6
CONTINUOUS
 70
0
 71
3
 72
11
 73
7
 74
0
 42
0.0000001
 43
0.0000001
 44
0.0000000001
 40
0.0
 40
0.0
 40
0.0
 40
0.0
 40
0.2517159439
 40
0.5096938069
 40
0.7678178694
 40
1.0
 40
1.0
 40
1.0
 40
1.0
 10
2058.4364190406
 20
889.2849401418
 30
0.0
 10
2058.4962735258
 20
889.3152080033
 30
0.0
 10
2058.6144181636
 20
889.3844487498
 30
0.0
 10
2058.7692887467
 20
889.5160884493
 30
0.0
 10
2058.8885114087
 20
889.6935545437
 30
0.0
 10
2058.8448493299
 20
889.8385208947
 30
0.0
 10
2058.8039491327
 20
889.8849401418
 30
0.0
  0
SPLINE
  5
4CF
100
AcDbEntity
  8
7_ALL_FEATURES
100
AcDbSpline
 62
7
  6
CONTINUOUS
 70
0
 71
3
 72
11
 73
7
 74
0
 42
0.0000001
 43
0.0000001
 44
0.0000000001
 40
0.0
 40
0.0
 40
0.0
 40
0.0
 40
0.2321629376
 40
0.4902906901
 40
0.7482783318
 40
1.0
 40
1.0
 40
1.0
 40
1.0
 10
1566.5990159675
 20
889.8849401418
 30
0.0
 10
1566.5581191686
 20
889.8385247517
 30
0.0
 10
1566.5144543155
 20
889.6935672656
 30
0.0
 10
1566.6336684487
 20
889.5160957288
 30
0.0
 10
1566.788542136
 20
889.3844516126
 30
0.0
 10
1566.9066902387
 20
889.3152086787
 30
0.0
 10
1566.9665460595
 20
889.2849401418
 30
0.0
  0
SPLINE
  5
4D0
100
AcDbEntity
  8
7_ALL_FEATURES
100
AcDbSpline
 62
7
  6
CONTINUOUS
 70
0
 71
3
 72
11
 73
7
 74
0
 42
0.0000001
 43
0.0000001
 44
0.0000000001
 40
0.0
 40
0.0
 40
0.0
 40
0.0
 40
0.2517159439
 40
0.5096938069
 40
0.7678178694
 40
1.0
 40
1.0
 40
1.0
 40
1.0
 10
1808.4364190406
 20
889.2849401418
 30
0.0
 10
1808.4962735258
 20
889.3152080033
 30
0.0
 10
1808.6144181636
 20
889.3844487498
 30
0.0
 10
1808.7692887467
 20
889.5160884493
 30
0.0
 10
1808.8885114087
 20
889.6935545437
 30
0.0
 10
1808.8448493299
 20
889.8385208947
 30
0.0
 10
1808.8039491327
 20
889.8849401418
 30
0.0
  0
SPLINE
  5
4D1
100
AcDbEntity
  8
7_ALL_FEATURES
100
AcDbSpline
 62
7
  6
CONTINUOUS
 70
0
 71
3
 72
11
 73
7
 74
0
 42
0.0000001
 43
0.0000001
 44
0.0000000001
 40
0.0
 40
0.0
 40
0.0
 40
0.0
 40
0.2321629376
 40
0.4902906901
 40
0.7482783318
 40
1.0
 40
1.0
 40
1.0
 40
1.0
 10
1316.5990159675
 20
889.8849401418
 30
0.0
 10
1316.5581191686
 20
889.8385247517
 30
0.0
 10
1316.5144543155
 20
889.6935672656
 30
0.0
 10
1316.6336684487
 20
889.5160957288
 30
0.0
 10
1316.788542136
 20
889.3844516126
 30
0.0
 10
1316.9066902387
 20
889.3152086787
 30
0.0
 10
1316.9665460595
 20
889.2849401418
 30
0.0
  0
SPLINE
  5
4D2
100
AcDbEntity
  8
7_ALL_FEATURES
100
AcDbSpline
 62
7
  6
CONTINUOUS
 70
0
 71
3
 72
11
 73
7
 74
0
 42
0.0000001
 43
0.0000001
 44
0.0000000001
 40
0.0
 40
0.0
 40
0.0
 40
0.0
 40
0.2517159439
 40
0.5096938069
 40
0.7678178694
 40
1.0
 40
1.0
 40
1.0
 40
1.0
 10
1558.4364190406
 20
889.2849401418
 30
0.0
 10
1558.4962735258
 20
889.3152080033
 30
0.0
 10
1558.6144181636
 20
889.3844487498
 30
0.0
 10
1558.7692887467
 20
889.5160884493
 30
0.0
 10
1558.8885114087
 20
889.6935545437
 30
0.0
 10
1558.8448493299
 20
889.8385208947
 30
0.0
 10
1558.8039491327
 20
889.8849401418
 30
0.0
  0
SPLINE
  5
4D3
100
AcDbEntity
  8
7_ALL_FEATURES
100
AcDbSpline
 62
7
  6
CONTINUOUS
 70
0
 71
3
 72
11
 73
7
 74
0
 42
0.0000001
 43
0.0000001
 44
0.0000000001
 40
0.0
 40
0.0
 40
0.0
 40
0.0
 40
0.2321629376
 40
0.4902906901
 40
0.7482783318
 40
1.0
 40
1.0
 40
1.0
 40
1.0
 10
1066.5990159675
 20
889.8849401418
 30
0.0
 10
1066.5581191686
 20
889.8385247517
 30
0.0
 10
1066.5144543155
 20
889.6935672656
 30
0.0
 10
1066.6336684487
 20
889.5160957288
 30
0.0
 10
1066.788542136
 20
889.3844516126
 30
0.0
 10
1066.9066902387
 20
889.3152086787
 30
0.0
 10
1066.9665460595
 20
889.2849401418
 30
0.0
  0
SPLINE
  5
4D4
100
AcDbEntity
  8
7_ALL_FEATURES
100
AcDbSpline
 62
7
  6
CONTINUOUS
 70
0
 71
3
 72
11
 73
7
 74
0
 42
0.0000001
 43
0.0000001
 44
0.0000000001
 40
0.0
 40
0.0
 40
0.0
 40
0.0
 40
0.2517159439
 40
0.5096938069
 40
0.7678178694
 40
1.0
 40
1.0
 40
1.0
 40
1.0
 10
1308.4364190406
 20
889.2849401418
 30
0.0
 10
1308.4962735258
 20
889.3152080033
 30
0.0
 10
1308.6144181636
 20
889.3844487498
 30
0.0
 10
1308.7692887467
 20
889.5160884493
 30
0.0
 10
1308.8885114087
 20
889.6935545437
 30
0.0
 10
1308.8448493299
 20
889.8385208947
 30
0.0
 10
1308.8039491327
 20
889.8849401418
 30
0.0
  0
SPLINE
  5
4D5
100
AcDbEntity
  8
7_ALL_FEATURES
100
AcDbSpline
 62
7
  6
CONTINUOUS
 70
0
 71
3
 72
11
 73
7
 74
0
 42
0.0000001
 43
0.0000001
 44
0.0000000001
 40
0.0
 40
0.0
 40
0.0
 40
0.0
 40
0.2517159439
 40
0.5096938069
 40
0.7678178694
 40
1.0
 40
1.0
 40
1.0
 40
1.0
 10
1058.4364190406
 20
889.2849401418
 30
0.0
 10
1058.4962735258
 20
889.3152080033
 30
0.0
 10
1058.6144181636
 20
889.3844487498
 30
0.0
 10
1058.7692887467
 20
889.5160884493
 30
0.0
 10
1058.8885114087
 20
889.6935545437
 30
0.0
 10
1058.8448493299
 20
889.8385208947
 30
0.0
 10
1058.8039491327
 20
889.8849401418
 30
0.0
  0
SPLINE
  5
4D6
100
AcDbEntity
  8
7_ALL_FEATURES
100
AcDbSpline
 62
7
  6
CONTINUOUS
 70
0
 71
3
 72
10
 73
6
 74
0
 42
0.0000001
 43
0.0000001
 44
0.0000000001
 40
0.0
 40
0.0
 40
0.0
 40
0.0
 40
0.4973730792
 40
0.7560230416
 40
1.0
 40
1.0
 40
1.0
 40
1.0
 10
2067.4963513428
 20
886.8849401418
 30
0.0
 10
2067.40360731
 20
886.8158250888
 30
0.0
 10
2067.2741231553
 20
886.6593321442
 30
0.0
 10
2067.3125511475
 20
886.4146340258
 30
0.0
 10
2067.3905822118
 20
886.3221992538
 30
0.0
 10
2067.4333708348
 20
886.2849401418
 30
0.0
  0
SPLINE
  5
4D7
100
AcDbEntity
  8
7_ALL_FEATURES
100
AcDbSpline
 62
7
  6
CONTINUOUS
 70
0
 71
3
 72
10
 73
6
 74
0
 42
0.0000001
 43
0.0000001
 44
0.0000000001
 40
0.0
 40
0.0
 40
0.0
 40
0.0
 40
0.4973730792
 40
0.7560230416
 40
1.0
 40
1.0
 40
1.0
 40
1.0
 10
1817.4963513428
 20
886.8849401418
 30
0.0
 10
1817.40360731
 20
886.8158250888
 30
0.0
 10
1817.2741231553
 20
886.6593321442
 30
0.0
 10
1817.3125511475
 20
886.4146340258
 30
0.0
 10
1817.3905822118
 20
886.3221992538
 30
0.0
 10
1817.4333708348
 20
886.2849401418
 30
0.0
  0
SPLINE
  5
4D8
100
AcDbEntity
  8
7_ALL_FEATURES
100
AcDbSpline
 62
7
  6
CONTINUOUS
 70
0
 71
3
 72
10
 73
6
 74
0
 42
0.0000001
 43
0.0000001
 44
0.0000000001
 40
0.0
 40
0.0
 40
0.0
 40
0.0
 40
0.2439769584
 40
0.5026269208
 40
1.0
 40
1.0
 40
1.0
 40
1.0
 10
2057.9695942653
 20
886.2849401418
 30
0.0
 10
2058.0123828883
 20
886.3221992538
 30
0.0
 10
2058.0904139526
 20
886.4146340258
 30
0.0
 10
2058.1288419448
 20
886.6593321442
 30
0.0
 10
2057.9993577901
 20
886.8158250888
 30
0.0
 10
2057.9066137573
 20
886.8849401418
 30
0.0
  0
SPLINE
  5
4D9
100
AcDbEntity
  8
7_ALL_FEATURES
100
AcDbSpline
 62
7
  6
CONTINUOUS
 70
0
 71
3
 72
10
 73
6
 74
0
 42
0.0000001
 43
0.0000001
 44
0.0000000001
 40
0.0
 40
0.0
 40
0.0
 40
0.0
 40
0.4973730792
 40
0.7560230416
 40
1.0
 40
1.0
 40
1.0
 40
1.0
 10
1567.4963513428
 20
886.8849401418
 30
0.0
 10
1567.40360731
 20
886.8158250888
 30
0.0
 10
1567.2741231553
 20
886.6593321442
 30
0.0
 10
1567.3125511475
 20
886.4146340258
 30
0.0
 10
1567.3905822118
 20
886.3221992538
 30
0.0
 10
1567.4333708348
 20
886.2849401418
 30
0.0
  0
SPLINE
  5
4DA
100
AcDbEntity
  8
7_ALL_FEATURES
100
AcDbSpline
 62
7
  6
CONTINUOUS
 70
0
 71
3
 72
10
 73
6
 74
0
 42
0.0000001
 43
0.0000001
 44
0.0000000001
 40
0.0
 40
0.0
 40
0.0
 40
0.0
 40
0.2439769584
 40
0.5026269208
 40
1.0
 40
1.0
 40
1.0
 40
1.0
 10
1807.9695942653
 20
886.2849401418
 30
0.0
 10
1808.0123828883
 20
886.3221992538
 30
0.0
 10
1808.0904139526
 20
886.4146340258
 30
0.0
 10
1808.1288419448
 20
886.6593321442
 30
0.0
 10
1807.9993577901
 20
886.8158250888
 30
0.0
 10
1807.9066137573
 20
886.8849401418
 30
0.0
  0
SPLINE
  5
4DB
100
AcDbEntity
  8
7_ALL_FEATURES
100
AcDbSpline
 62
7
  6
CONTINUOUS
 70
0
 71
3
 72
10
 73
6
 74
0
 42
0.0000001
 43
0.0000001
 44
0.0000000001
 40
0.0
 40
0.0
 40
0.0
 40
0.0
 40
0.4973730792
 40
0.7560230416
 40
1.0
 40
1.0
 40
1.0
 40
1.0
 10
1317.4963513428
 20
886.8849401418
 30
0.0
 10
1317.40360731
 20
886.8158250888
 30
0.0
 10
1317.2741231553
 20
886.6593321442
 30
0.0
 10
1317.3125511475
 20
886.4146340258
 30
0.0
 10
1317.3905822118
 20
886.3221992538
 30
0.0
 10
1317.4333708348
 20
886.2849401418
 30
0.0
  0
SPLINE
  5
4DC
100
AcDbEntity
  8
7_ALL_FEATURES
100
AcDbSpline
 62
7
  6
CONTINUOUS
 70
0
 71
3
 72
10
 73
6
 74
0
 42
0.0000001
 43
0.0000001
 44
0.0000000001
 40
0.0
 40
0.0
 40
0.0
 40
0.0
 40
0.2439769584
 40
0.5026269208
 40
1.0
 40
1.0
 40
1.0
 40
1.0
 10
1557.9695942653
 20
886.2849401418
 30
0.0
 10
1558.0123828883
 20
886.3221992538
 30
0.0
 10
1558.0904139526
 20
886.4146340258
 30
0.0
 10
1558.1288419448
 20
886.6593321442
 30
0.0
 10
1557.9993577901
 20
886.8158250888
 30
0.0
 10
1557.9066137573
 20
886.8849401418
 30
0.0
  0
SPLINE
  5
4DD
100
AcDbEntity
  8
7_ALL_FEATURES
100
AcDbSpline
 62
7
  6
CONTINUOUS
 70
0
 71
3
 72
10
 73
6
 74
0
 42
0.0000001
 43
0.0000001
 44
0.0000000001
 40
0.0
 40
0.0
 40
0.0
 40
0.0
 40
0.4973730792
 40
0.7560230416
 40
1.0
 40
1.0
 40
1.0
 40
1.0
 10
1067.4963513428
 20
886.8849401418
 30
0.0
 10
1067.40360731
 20
886.8158250888
 30
0.0
 10
1067.2741231553
 20
886.6593321442
 30
0.0
 10
1067.3125511475
 20
886.4146340258
 30
0.0
 10
1067.3905822118
 20
886.3221992538
 30
0.0
 10
1067.4333708348
 20
886.2849401418
 30
0.0
  0
SPLINE
  5
4DE
100
AcDbEntity
  8
7_ALL_FEATURES
100
AcDbSpline
 62
7
  6
CONTINUOUS
 70
0
 71
3
 72
10
 73
6
 74
0
 42
0.0000001
 43
0.0000001
 44
0.0000000001
 40
0.0
 40
0.0
 40
0.0
 40
0.0
 40
0.2439769584
 40
0.5026269208
 40
1.0
 40
1.0
 40
1.0
 40
1.0
 10
1307.9695942653
 20
886.2849401418
 30
0.0
 10
1308.0123828883
 20
886.3221992538
 30
0.0
 10
1308.0904139526
 20
886.4146340258
 30
0.0
 10
1308.1288419448
 20
886.6593321442
 30
0.0
 10
1307.9993577901
 20
886.8158250888
 30
0.0
 10
1307.9066137573
 20
886.8849401418
 30
0.0
  0
SPLINE
  5
4DF
100
AcDbEntity
  8
7_ALL_FEATURES
100
AcDbSpline
 62
7
  6
CONTINUOUS
 70
0
 71
3
 72
10
 73
6
 74
0
 42
0.0000001
 43
0.0000001
 44
0.0000000001
 40
0.0
 40
0.0
 40
0.0
 40
0.0
 40
0.2439769584
 40
0.5026269208
 40
1.0
 40
1.0
 40
1.0
 40
1.0
 10
1057.9695942653
 20
886.2849401418
 30
0.0
 10
1058.0123828883
 20
886.3221992538
 30
0.0
 10
1058.0904139526
 20
886.4146340258
 30
0.0
 10
1058.1288419448
 20
886.6593321442
 30
0.0
 10
1057.9993577901
 20
886.8158250888
 30
0.0
 10
1057.9066137573
 20
886.8849401418
 30
0.0
  0
ELLIPSE
  5
4E0
100
AcDbEntity
  8
6_ALL_SURFS
100
AcDbEllipse
 62
7
  6
CONTINUOUS
 10
1062.7014825501
 20
657.9802325637
 30
0.0
 11
5.4882058378
 21
0.0
 31
0.0
 40
0.1015346165
 41
0.9294607698
 42
2.2121318838
  0
ELLIPSE
  5
4E1
100
AcDbEntity
  8
6_ALL_SURFS
100
AcDbEllipse
 62
7
  6
CONTINUOUS
 10
1312.7014825501
 20
657.9802325637
 30
0.0
 11
5.4882058378
 21
0.0
 31
0.0
 40
0.1015346165
 41
0.9294607698
 42
2.2121318838
  0
ELLIPSE
  5
4E2
100
AcDbEntity
  8
6_ALL_SURFS
100
AcDbEllipse
 62
7
  6
CONTINUOUS
 10
1562.7014825501
 20
657.9802325637
 30
0.0
 11
5.4882058378
 21
-0.0
 31
0.0
 40
0.1015346165
 41
0.9294607698
 42
2.2121318838
  0
ELLIPSE
  5
4E3
100
AcDbEntity
  8
6_ALL_SURFS
100
AcDbEllipse
 62
7
  6
CONTINUOUS
 10
1812.7014825501
 20
657.9802325637
 30
0.0
 11
5.4882058378
 21
-0.0
 31
0.0
 40
0.1015346165
 41
0.9294607698
 42
2.2121318838
  0
ELLIPSE
  5
4E4
100
AcDbEntity
  8
6_ALL_SURFS
100
AcDbEllipse
 62
7
  6
CONTINUOUS
 10
2062.7014825501
 20
657.9802325637
 30
0.0
 11
5.4882058378
 21
-0.0
 31
0.0
 40
0.1015346165
 41
0.9294607698
 42
2.2121318838
  0
ELLIPSE
  5
4E5
100
AcDbEntity
  8
6_ALL_SURFS
100
AcDbEllipse
 62
7
  6
CONTINUOUS
 10
2062.7014825501
 20
984.01976717
 30
0.0
 11
-0.0
 21
5.5724287509
 31
0.0
 40
0.9848857802
 41
-0.641335557
 42
0.641335557
  0
ELLIPSE
  5
4E6
100
AcDbEntity
  8
6_ALL_SURFS
100
AcDbEllipse
 62
7
  6
CONTINUOUS
 10
1062.7014825501
 20
984.01976717
 30
0.0
 11
-0.0
 21
5.5724287509
 31
0.0
 40
0.9848857802
 41
-0.641335557
 42
0.641335557
  0
ELLIPSE
  5
4E7
100
AcDbEntity
  8
6_ALL_SURFS
100
AcDbEllipse
 62
7
  6
CONTINUOUS
 10
1312.7014825501
 20
984.01976717
 30
0.0
 11
-0.0
 21
5.5724287509
 31
0.0
 40
0.9848857802
 41
-0.641335557
 42
0.641335557
  0
ELLIPSE
  5
4E8
100
AcDbEntity
  8
6_ALL_SURFS
100
AcDbEllipse
 62
7
  6
CONTINUOUS
 10
1562.7014825501
 20
984.01976717
 30
0.0
 11
-0.0
 21
5.5724287509
 31
0.0
 40
0.9848857802
 41
-0.641335557
 42
0.641335557
  0
ELLIPSE
  5
4E9
100
AcDbEntity
  8
6_ALL_SURFS
100
AcDbEllipse
 62
7
  6
CONTINUOUS
 10
1812.7014825501
 20
984.01976717
 30
0.0
 11
-0.0
 21
5.5724287509
 31
0.0
 40
0.9848857802
 41
-0.641335557
 42
0.641335557
  0
ELLIPSE
  5
4EA
100
AcDbEntity
  8
7_ALL_FEATURES
100
AcDbEllipse
 62
7
  6
CONTINUOUS
 10
1062.7014825501
 20
888.0501131136
 30
0.0
 11
0.0
 21
5.5724287509
 31
0.0
 40
0.9848857802
 41
2.5002570966
 42
3.7829282106
  0
ELLIPSE
  5
4EB
100
AcDbEntity
  8
7_ALL_FEATURES
100
AcDbEllipse
 62
7
  6
CONTINUOUS
 10
1312.7014825501
 20
888.0501131136
 30
0.0
 11
0.0
 21
5.5724287509
 31
0.0
 40
0.9848857802
 41
2.5002570966
 42
3.7829282106
  0
ELLIPSE
  5
4EC
100
AcDbEntity
  8
7_ALL_FEATURES
100
AcDbEllipse
 62
7
  6
CONTINUOUS
 10
1562.7014825501
 20
888.0501131136
 30
0.0
 11
0.0
 21
5.5724287509
 31
0.0
 40
0.9848857802
 41
2.5002570966
 42
3.7829282106
  0
ELLIPSE
  5
4ED
100
AcDbEntity
  8
7_ALL_FEATURES
100
AcDbEllipse
 62
7
  6
CONTINUOUS
 10
1812.7014825501
 20
888.0501131136
 30
0.0
 11
-0.0
 21
5.5724287509
 31
0.0
 40
0.9848857802
 41
2.5002570966
 42
3.7829282106
  0
ELLIPSE
  5
4EE
100
AcDbEntity
  8
7_ALL_FEATURES
100
AcDbEllipse
 62
7
  6
CONTINUOUS
 10
2062.7014825501
 20
888.0501131136
 30
0.0
 11
0.0
 21
5.5724287509
 31
0.0
 40
0.9848857802
 41
2.5002570966
 42
3.7829282106
  0
ENDSEC
  0
SECTION
  2
OBJECTS
  0
DICTIONARY
  5
4EF
100
AcDbDictionary
  3
ACAD_GROUP
350
4F0
  3
ACAD_MLINESTYLE
350
4F1
  0
DICTIONARY
  5
4F0
102
{ACAD_REACTORS
330
4EF
102
}
100
AcDbDictionary
  0
DICTIONARY
  5
4F1
102
{ACAD_REACTORS
330
4EF
102
}
100
AcDbDictionary
  3
STANDARD
350
4F2
  0
MLINESTYLE
  5
4F2
102
{ACAD_REACTORS
330
4F1
102
}
100
AcDbMlineStyle
  2
STANDARD
 70
0
  3

 62
256
 51
90.0
 52
90.0
 71
2
 49
0.5
 62
256
  6
BYLAYER
 49
-0.5
 62
256
  6
BYLAYER
  0
ENDSEC
  0
EOF
