999
DXF file: 6f4_c_242.dxf
999
Pro/ENGINEER 2016360 by Parametric Technology Corporation
  0
SECTION
  2
HEADER
  9
$ACADVER
  1
AC1014
  9
$DWGCODEPAGE
  3
ANSI_1252
  9
$EXTMAX
 10
3200.0
 20
2500.0
 30
0.0
  9
$EXTMIN
 10
0.0
 20
0.0
 30
0.0
  9
$LIMMIN
 10
0.0
 20
0.0
  9
$LIMMAX
 10
3200.0
 20
2500.0
  9
$VIEWCTR
 10
1600.0
 20
1250.0
  9
$VIEWSIZE
 40
2500.0
  9
$CLAYER
  8
0
  9
$LTSCALE
 40
176.0
  9
$CELTYPE
  6
BYLAYER
  9
$DIMSCALE
 40
1.0
  9
$DIMASZ
 40
2.5
  9
$DIMEXO
 40
0.75
  9
$DIMDLI
 40
121.6
  9
$DIMEXE
 40
0.75
  9
$DIMCEN
 40
28.8
  9
$DIMLFAC
 40
1.0
  9
$DIMBLK
  1
_CLOSED
  9
$DIMALT
 70
0
  9
$DIMALTF
 40
25.4
  9
$DIMTXT
 40
3.0
  9
$DIMTOL
 70
1
  9
$DIMLIM
 70
0
  9
$DIMTFAC
 40
1.0
  9
$DIMTP
 40
0.01
  9
$DIMTM
 40
0.01
  9
$DIMGAP
 40
0.625
  9
$AUNITS
 70
0
  9
$PDMODE
 70
3
  9
$PDSIZE
 40
0.3125
  9
$HANDSEED
  5
4FA
  9
$TILEMODE
 70
1
  9
$MEASUREMENT
 70
1
  0
ENDSEC
  0
SECTION
  2
CLASSES
  0
ENDSEC
  0
SECTION
  2
TABLES
  0
TABLE
  2
VPORT
  5
8
100
AcDbSymbolTable
 70
2
  0
VPORT
  5
1F4
100
AcDbSymbolTableRecord
100
AcDbViewportTableRecord
  2
*ACTIVE
 70
0
 10
0.0
 20
0.0
 11
1.0
 21
1.0
 12
1600.0
 22
1250.0
 13
0.0
 23
0.0
 14
1.0
 24
1.0
 15
0.0
 25
0.0
 16
0.0
 26
0.0
 36
1.0
 17
0.0
 27
0.0
 37
0.0
 40
2500.0
 41
1.28
 42
50.0
 43
0.0
 44
0.0
 50
0.0
 51
0.0
 71
0
 72
100
 73
1
 74
1
 75
0
 76
0
 77
0
 78
0
  0
ENDTAB
  0
TABLE
  2
LTYPE
  5
5
100
AcDbSymbolTable
 70
6
  0
LTYPE
  5
14
100
AcDbSymbolTableRecord
100
AcDbLinetypeTableRecord
  2
BYBLOCK
 70
0
  3

 72
65
 73
0
 40
0.0
  0
LTYPE
  5
15
100
AcDbSymbolTableRecord
100
AcDbLinetypeTableRecord
  2
BYLAYER
 70
0
  3

 72
65
 73
0
 40
0.0
  0
LTYPE
  5
16
100
AcDbSymbolTableRecord
100
AcDbLinetypeTableRecord
  2
CONTINUOUS
 70
64
  3
Solid line
 72
65
 73
0
 40
0.0
  0
LTYPE
  5
1F5
100
AcDbSymbolTableRecord
100
AcDbLinetypeTableRecord
  2
CENTER
 70
64
  3
____ _ ____ _ ____ _ ____ _ ____ _ ____ _ ____
 72
65
 73
4
 40
0.6
 49
0.375
 74
0
 49
-0.075
 74
0
 49
0.075
 74
0
 49
-0.075
 74
0
  0
LTYPE
  5
1F6
100
AcDbSymbolTableRecord
100
AcDbLinetypeTableRecord
  2
HIDDEN
 70
64
  3
- - - - - - - - - - - - - - - - - - - -
 72
65
 73
2
 40
0.2
 49
0.1
 74
0
 49
-0.1
 74
0
  0
LTYPE
  5
1F7
100
AcDbSymbolTableRecord
100
AcDbLinetypeTableRecord
  2
PHANTOM
 70
64
  3
_____ _ _ _____ _ _ _____ _ _ _____
 72
65
 73
6
 40
0.8
 49
0.45
 74
0
 49
-0.05
 74
0
 49
0.1
 74
0
 49
-0.05
 74
0
 49
0.1
 74
0
 49
-0.05
 74
0
  0
LTYPE
  5
1F8
100
AcDbSymbolTableRecord
100
AcDbLinetypeTableRecord
  2
DOT
 70
64
  3
. . . . . . . . . . . . . . . . . . . .
 72
65
 73
2
 40
0.2
 49
0.1
 74
0
 49
-0.1
 74
0
  0
LTYPE
  5
1F9
100
AcDbSymbolTableRecord
100
AcDbLinetypeTableRecord
  2
DASHED
 70
64
  3
- - - - - - - - - - - - - - - - - - - -
 72
65
 73
2
 40
0.2
 49
0.1
 74
0
 49
-0.1
 74
0
  0
ENDTAB
  0
TABLE
  2
LAYER
  5
2
100
AcDbSymbolTable
 70
36
  0
LAYER
  5
10
100
AcDbSymbolTableRecord
100
AcDbLayerTableRecord
  2
0
 70
0
 62
7
  6
CONTINUOUS
  0
LAYER
  5
1FA
100
AcDbSymbolTableRecord
100
AcDbLayerTableRecord
  2
DEFAULT_1
 70
0
 62
7
  6
CENTER
  0
LAYER
  5
1FB
100
AcDbSymbolTableRecord
100
AcDbLayerTableRecord
  2
DEFAULT_2
 70
0
 62
8
  6
HIDDEN
  0
LAYER
  5
1FC
100
AcDbSymbolTableRecord
100
AcDbLayerTableRecord
  2
DEFAULT_3
 70
0
 62
7
  6
PHANTOM
  0
LAYER
  5
1FD
100
AcDbSymbolTableRecord
100
AcDbLayerTableRecord
  2
1_ALL_PLANES
 70
0
 62
7
  6
CONTINUOUS
  0
LAYER
  5
1FE
100
AcDbSymbolTableRecord
100
AcDbLayerTableRecord
  2
2_ALL_CSYS
 70
0
 62
7
  6
CONTINUOUS
  0
LAYER
  5
1FF
100
AcDbSymbolTableRecord
100
AcDbLayerTableRecord
  2
3_ALL_AXES
 70
0
 62
7
  6
CONTINUOUS
  0
LAYER
  5
200
100
AcDbSymbolTableRecord
100
AcDbLayerTableRecord
  2
4_ALL_POINTS
 70
0
 62
7
  6
CONTINUOUS
  0
LAYER
  5
201
100
AcDbSymbolTableRecord
100
AcDbLayerTableRecord
  2
5_ALL_CURVES
 70
0
 62
7
  6
CONTINUOUS
  0
LAYER
  5
202
100
AcDbSymbolTableRecord
100
AcDbLayerTableRecord
  2
5__COSTRUZIONE
 70
0
 62
7
  6
CONTINUOUS
  0
LAYER
  5
203
100
AcDbSymbolTableRecord
100
AcDbLayerTableRecord
  2
6_ALL_SURFS
 70
0
 62
7
  6
CONTINUOUS
  0
LAYER
  5
204
100
AcDbSymbolTableRecord
100
AcDbLayerTableRecord
  2
7_ALL_FEATURES
 70
0
 62
7
  6
CONTINUOUS
  0
LAYER
  5
205
100
AcDbSymbolTableRecord
100
AcDbLayerTableRecord
  2
9_SOLID
 70
0
 62
7
  6
CONTINUOUS
  0
LAYER
  5
206
100
AcDbSymbolTableRecord
100
AcDbLayerTableRecord
  2
PR9037
 70
0
 62
7
  6
CONTINUOUS
  0
LAYER
  5
207
100
AcDbSymbolTableRecord
100
AcDbLayerTableRecord
  2
WHITE
 70
0
 62
7
  6
CONTINUOUS
  0
LAYER
  5
208
100
AcDbSymbolTableRecord
100
AcDbLayerTableRecord
  2
XXX_SOLIDO
 70
0
 62
7
  6
CONTINUOUS
  0
ENDTAB
  0
TABLE
  2
STYLE
  5
3
100
AcDbSymbolTable
 70
1
  0
STYLE
  5
11
100
AcDbSymbolTableRecord
100
AcDbTextStyleTableRecord
  2
STANDARD
 70
0
 40
0.0
 41
1.0
 50
0.0
 71
0
 42
0.2
  3
arial.ttf
  4

  0
STYLE
  5
209
100
AcDbSymbolTableRecord
100
AcDbTextStyleTableRecord
  2
TEXTSTYLE_1
 70
0
 40
0.0
 41
0.8
 50
0.0
 71
0
 42
0.2
  3
gdt
  4

  0
STYLE
  5
20A
100
AcDbSymbolTableRecord
100
AcDbTextStyleTableRecord
  2
TEXTSTYLE_2
 70
0
 40
0.0
 41
0.85
 50
0.0
 71
0
 42
0.2
  3
txt
  4

  0
ENDTAB
  0
TABLE
  2
VIEW
  5
6
100
AcDbSymbolTable
 70
0
  0
ENDTAB
  0
TABLE
  2
UCS
  5
7
100
AcDbSymbolTable
 70
0
  0
ENDTAB
  0
TABLE
  2
APPID
  5
9
100
AcDbSymbolTable
 70
1
  0
APPID
  5
20B
100
AcDbSymbolTableRecord
100
AcDbRegAppTableRecord
  2
ACAD
 70
0
  0
ENDTAB
  0
TABLE
  2
BLOCK_RECORD
  5
1
100
AcDbSymbolTable
 70
0
  0
BLOCK_RECORD
  5
1F
100
AcDbSymbolTableRecord
100
AcDbBlockTableRecord
  2
*MODEL_SPACE
  0
BLOCK_RECORD
  5
1B
100
AcDbSymbolTableRecord
100
AcDbBlockTableRecord
  2
*PAPER_SPACE
  0
BLOCK_RECORD
  5
20C
100
AcDbSymbolTableRecord
100
AcDbBlockTableRecord
  2
_CLOSED
  0
BLOCK_RECORD
  5
20D
100
AcDbSymbolTableRecord
100
AcDbBlockTableRecord
  2
*D0
  0
BLOCK_RECORD
  5
20E
100
AcDbSymbolTableRecord
100
AcDbBlockTableRecord
  2
*D1
  0
BLOCK_RECORD
  5
20F
100
AcDbSymbolTableRecord
100
AcDbBlockTableRecord
  2
*D2
  0
BLOCK_RECORD
  5
210
100
AcDbSymbolTableRecord
100
AcDbBlockTableRecord
  2
*D3
  0
BLOCK_RECORD
  5
211
100
AcDbSymbolTableRecord
100
AcDbBlockTableRecord
  2
LOGO2_BL0
  0
ENDTAB
  0
TABLE
  2
DIMSTYLE
  5
A
100
AcDbSymbolTable
 70
1
  0
DIMSTYLE
105
212
100
AcDbSymbolTableRecord
100
AcDbDimStyleTableRecord
  2
STANDARD
 70
0
  3

  4

  5
_CLOSED
  6
_CLOSED
  7
_CLOSED
 40
1.0
 41
2.5
 42
0.75
 43
0.38
 44
0.75
 45
0.0
 46
0.0
 47
0.01
 48
0.01
140
3.0
141
0.09
142
0.0
143
25.4
144
1.0
145
0.0
146
1.0
147
0.625
 71
1.0
 72
0.0
 73
0
 74
0
 75
0
 76
0
 77
1
 78
8
 79
2
170
0
171
1
172
0
173
0
174
0
175
0
176
0
177
0
178
0
270
2
179
2
271
2
272
2
273
2
274
2
275
0
280
0
281
0
282
0
283
1
284
8
285
0
286
0
287
3
288
0
340
11
  0
DIMSTYLE
105
213
100
AcDbSymbolTableRecord
100
AcDbDimStyleTableRecord
  2
DIMSTYLE_1
 70
0
  3

  4

  5
_CLOSED
  6
_CLOSED
  7
_CLOSED
 40
1.0
 41
2.5
 42
0.75
 43
0.38
 44
0.75
 45
0.0
 46
0.0
 47
0.3
 48
0.3
140
7.0
141
0.09
142
0.0
143
25.4
144
1.0
145
0.0
146
1.0
147
1.75
 71
0.0
 72
0.0
 73
0
 74
0
 75
0
 76
0
 77
1
 78
8
 79
2
170
0
171
1
172
0
173
0
174
0
175
0
176
0
177
0
178
0
270
2
179
2
271
2
272
2
273
2
274
2
275
0
280
0
281
0
282
0
283
1
284
8
285
0
286
0
287
3
288
0
340
11
  0
DIMSTYLE
105
214
100
AcDbSymbolTableRecord
100
AcDbDimStyleTableRecord
  2
DIMSTYLE_2
 70
0
  3

  4

  5
_CLOSED
  6
_CLOSED
  7
_CLOSED
 40
1.0
 41
2.5
 42
0.75
 43
0.38
 44
0.75
 45
0.0
 46
0.0
 47
1.2
 48
1.2
140
7.0
141
0.09
142
0.0
143
25.4
144
1.0
145
0.0
146
1.0
147
1.75
 71
0.0
 72
0.0
 73
0
 74
0
 75
0
 76
0
 77
1
 78
8
 79
2
170
0
171
1
172
0
173
0
174
0
175
0
176
0
177
0
178
0
270
2
179
2
271
2
272
2
273
2
274
2
275
0
280
0
281
0
282
0
283
1
284
8
285
0
286
0
287
3
288
0
340
11
  0
ENDTAB
  0
ENDSEC
  0
SECTION
  2
BLOCKS
  0
BLOCK
  5
20
100
AcDbEntity
  8
0
100
AcDbBlockBegin
  2
*MODEL_SPACE
 70
0
 10
0.0
 20
0.0
 30
0.0
  3
*MODEL_SPACE
  1

  0
ENDBLK
  5
21
100
AcDbEntity
  8
0
100
AcDbBlockEnd
  0
BLOCK
  5
1C
100
AcDbEntity
  8
0
100
AcDbBlockBegin
  2
*PAPER_SPACE
 70
0
 10
0.0
 20
0.0
 30
0.0
  3
*PAPER_SPACE
  1

  0
ENDBLK
  5
1D
100
AcDbEntity
  8
0
100
AcDbBlockEnd
  0
BLOCK
  5
215
100
AcDbEntity
  8
0
100
AcDbBlockBegin
 62
2
  6
CONTINUOUS
  2
LOGO2_BL0
 70
64
 10
3104.6388139499
 20
37.2862227406
  3
LOGO2_BL0
  1

  0
LINE
  5
216
100
AcDbEntity
  8
0
100
AcDbLine
 62
7
  6
CONTINUOUS
 10
3096.3817391781
 20
40.4817140795
 11
3095.0773982487
 21
40.4817140795
  0
LINE
  5
217
100
AcDbEntity
  8
0
100
AcDbLine
 62
7
  6
CONTINUOUS
 10
3095.0773982487
 20
40.4817140795
 11
3095.0773982487
 21
30.0226480196
  0
LINE
  5
218
100
AcDbEntity
  8
0
100
AcDbLine
 62
7
  6
CONTINUOUS
 10
3095.0773982487
 20
30.0226480196
 11
3099.558453137
 21
30.0226480196
  0
LINE
  5
219
100
AcDbEntity
  8
0
100
AcDbLine
 62
7
  6
CONTINUOUS
 10
3099.558453137
 20
30.0226480196
 11
3099.558453137
 21
31.2155023447
  0
LINE
  5
21A
100
AcDbEntity
  8
0
100
AcDbLine
 62
7
  6
CONTINUOUS
 10
3099.558453137
 20
31.2155023447
 11
3096.3817391781
 21
31.2155023447
  0
LINE
  5
21B
100
AcDbEntity
  8
0
100
AcDbLine
 62
7
  6
CONTINUOUS
 10
3096.3817391781
 20
31.2155023447
 11
3096.3817391781
 21
40.4817140795
  0
LINE
  5
21C
100
AcDbEntity
  8
0
100
AcDbLine
 62
7
  6
CONTINUOUS
 10
3111.3180653944
 20
40.4817140795
 11
3110.0142478763
 21
40.4817140795
  0
LINE
  5
21D
100
AcDbEntity
  8
0
100
AcDbLine
 62
7
  6
CONTINUOUS
 10
3110.0142478763
 20
40.4817140795
 11
3110.0142478763
 21
30.0226480196
  0
LINE
  5
21E
100
AcDbEntity
  8
0
100
AcDbLine
 62
7
  6
CONTINUOUS
 10
3110.0142478763
 20
30.0226480196
 11
3114.4954336174
 21
30.0226480196
  0
LINE
  5
21F
100
AcDbEntity
  8
0
100
AcDbLine
 62
7
  6
CONTINUOUS
 10
3114.4954336174
 20
30.0226480196
 11
3114.4954336174
 21
31.2155023447
  0
LINE
  5
220
100
AcDbEntity
  8
0
100
AcDbLine
 62
7
  6
CONTINUOUS
 10
3114.4954336174
 20
31.2155023447
 11
3111.3180653944
 21
31.2155023447
  0
LINE
  5
221
100
AcDbEntity
  8
0
100
AcDbLine
 62
7
  6
CONTINUOUS
 10
3111.3180653944
 20
31.2155023447
 11
3111.3180653944
 21
40.4817140795
  0
LWPOLYLINE
  5
222
100
AcDbEntity
  8
0
100
AcDbPolyline
 62
7
  6
CONTINUOUS
 90
2
 70
0
 43
0.2
 10
3093.4317931596
 20
26.6790967127
 10
3093.4317931596
 20
24.8220334634
  0
LWPOLYLINE
  5
223
100
AcDbEntity
  8
0
100
AcDbPolyline
 62
7
  6
CONTINUOUS
 90
2
 70
0
 43
0.2
 10
3093.4317931596
 20
24.8220334634
 10
3094.22750917
 20
24.8220334634
  0
LWPOLYLINE
  5
224
100
AcDbEntity
  8
0
100
AcDbPolyline
 62
7
  6
CONTINUOUS
 90
2
 70
0
 43
0.2
 10
3094.22750917
 20
24.8220334634
 10
3094.22750917
 20
25.0340150349
  0
LWPOLYLINE
  5
225
100
AcDbEntity
  8
0
100
AcDbPolyline
 62
7
  6
CONTINUOUS
 90
2
 70
0
 43
0.2
 10
3094.22750917
 20
25.0340150349
 10
3093.6634026545
 20
25.0340150349
  0
LWPOLYLINE
  5
226
100
AcDbEntity
  8
0
100
AcDbPolyline
 62
7
  6
CONTINUOUS
 90
2
 70
0
 43
0.2
 10
3093.6634026545
 20
25.0340150349
 10
3093.6634026545
 20
26.6790967127
  0
LWPOLYLINE
  5
227
100
AcDbEntity
  8
0
100
AcDbPolyline
 62
7
  6
CONTINUOUS
 90
2
 70
0
 43
0.2
 10
3093.6634026545
 20
26.6790967127
 10
3093.4317931596
 20
26.6790967127
  0
SPLINE
  5
228
100
AcDbEntity
  8
0
100
AcDbSpline
 62
7
  6
CONTINUOUS
 70
2
 71
3
 72
35
 73
31
 74
0
 42
0.0000001
 43
0.0000001
 44
0.0000000001
 40
0.0
 40
0.0
 40
0.0
 40
0.0
 40
1.0
 40
1.0
 40
1.0
 40
2.0
 40
2.0
 40
2.0
 40
3.0
 40
3.0
 40
3.0
 40
4.0
 40
4.0
 40
4.0
 40
5.0
 40
5.0
 40
5.0
 40
6.0
 40
6.0
 40
6.0
 40
7.0
 40
7.0
 40
7.0
 40
8.0
 40
8.0
 40
8.0
 40
9.0
 40
9.0
 40
9.0
 40
10.0
 40
10.0
 40
10.0
 40
10.0
 10
3095.6258024256
 20
25.9745851193
 30
0.0
 10
3095.6258024256
 20
25.9745851193
 30
0.0
 10
3095.6258024256
 20
25.3124698401
 30
0.0
 10
3095.6258024256
 20
25.3124698401
 30
0.0
 10
3095.6258024256
 20
24.9973762448
 30
0.0
 10
3095.7736661144
 20
24.7827776168
 30
0.0
 10
3096.1137525987
 20
24.7827776168
 30
0.0
 10
3096.4533156717
 20
24.7827776168
 30
0.0
 10
3096.6014410662
 20
24.9973762448
 30
0.0
 10
3096.6014410662
 20
25.3124698401
 30
0.0
 10
3096.6014410662
 20
25.3124698401
 30
0.0
 10
3096.6014410662
 20
25.9745851193
 30
0.0
 10
3096.6014410662
 20
25.9745851193
 30
0.0
 10
3096.6014410662
 20
25.9745851193
 30
0.0
 10
3096.3793838273
 20
25.9745851193
 30
0.0
 10
3096.3793838273
 20
25.9745851193
 30
0.0
 10
3096.3793838273
 20
25.9745851193
 30
0.0
 10
3096.3793838273
 20
25.3375935819
 30
0.0
 10
3096.3793838273
 20
25.3375935819
 30
0.0
 10
3096.3793838273
 20
25.1517825747
 30
0.0
 10
3096.3326693698
 20
24.9890016642
 30
0.0
 10
3096.1137525987
 20
24.9890016642
 30
0.0
 10
3095.8943124162
 20
24.9890016642
 30
0.0
 10
3095.8475979588
 20
25.1517825747
 30
0.0
 10
3095.8475979588
 20
25.3375935819
 30
0.0
 10
3095.8475979588
 20
25.3375935819
 30
0.0
 10
3095.8475979588
 20
25.9745851193
 30
0.0
 10
3095.8475979588
 20
25.9745851193
 30
0.0
 10
3095.8475979588
 20
25.9745851193
 30
0.0
 10
3095.6258024256
 20
25.9745851193
 30
0.0
 10
3095.6258024256
 20
25.9745851193
 30
0.0
  0
SPLINE
  5
229
100
AcDbEntity
  8
0
100
AcDbSpline
 62
7
  6
CONTINUOUS
 70
2
 71
3
 72
35
 73
31
 74
0
 42
0.0000001
 43
0.0000001
 44
0.0000000001
 40
0.0
 40
0.0
 40
0.0
 40
0.0
 40
1.0
 40
1.0
 40
1.0
 40
2.0
 40
2.0
 40
2.0
 40
3.0
 40
3.0
 40
3.0
 40
4.0
 40
4.0
 40
4.0
 40
5.0
 40
5.0
 40
5.0
 40
6.0
 40
6.0
 40
6.0
 40
7.0
 40
7.0
 40
7.0
 40
8.0
 40
8.0
 40
8.0
 40
9.0
 40
9.0
 40
9.0
 40
10.0
 40
10.0
 40
10.0
 40
10.0
 10
3099.0245736234
 20
25.9332356275
 30
0.0
 10
3098.9361171157
 20
25.9845299337
 30
0.0
 10
3098.8226677191
 20
26.0096536755
 30
0.0
 10
3098.7190322841
 20
26.0096536755
 30
0.0
 10
3098.3641594309
 20
26.0096536755
 30
0.0
 10
3098.0887142406
 20
25.7458543865
 30
0.0
 10
3098.0887142406
 20
25.3883644768
 30
0.0
 10
3098.0887142406
 20
25.0434364381
 30
0.0
 10
3098.3671690458
 20
24.7833010281
 30
0.0
 10
3098.7067321188
 20
24.7833010281
 30
0.0
 10
3098.8226677191
 20
24.7833010281
 30
0.0
 10
3098.923424392
 20
24.8052843022
 30
0.0
 10
3099.0245736234
 20
24.8591956648
 30
0.0
 10
3099.0245736234
 20
24.8591956648
 30
0.0
 10
3099.0245736234
 20
25.1418377603
 30
0.0
 10
3099.0245736234
 20
25.1418377603
 30
0.0
 10
3098.9406969645
 20
25.048670551
 30
0.0
 10
3098.8371923823
 20
24.9895250755
 30
0.0
 10
3098.7090874696
 20
24.9895250755
 30
0.0
 10
3098.4753843296
 20
24.9895250755
 30
0.0
 10
3098.3101172154
 20
25.1617273892
 30
0.0
 10
3098.3101172154
 20
25.3983092913
 30
0.0
 10
3098.3101172154
 20
25.6102908629
 30
0.0
 10
3098.4778705332
 20
25.8023828055
 30
0.0
 10
3098.6946936592
 20
25.8023828055
 30
0.0
 10
3098.8275092735
 20
25.8023828055
 30
0.0
 10
3098.9361171157
 20
25.7484714429
 30
0.0
 10
3099.0245736234
 20
25.6474530643
 30
0.0
 10
3099.0245736234
 20
25.6474530643
 30
0.0
 10
3099.0245736234
 20
25.9332356275
 30
0.0
 10
3099.0245736234
 20
25.9332356275
 30
0.0
  0
SPLINE
  5
22A
100
AcDbEntity
  8
0
100
AcDbSpline
 62
7
  6
CONTINUOUS
 70
2
 71
3
 72
32
 73
28
 74
0
 42
0.0000001
 43
0.0000001
 44
0.0000000001
 40
0.0
 40
0.0
 40
0.0
 40
0.0
 40
1.0
 40
1.0
 40
1.0
 40
2.0
 40
2.0
 40
2.0
 40
3.0
 40
3.0
 40
3.0
 40
4.0
 40
4.0
 40
4.0
 40
5.0
 40
5.0
 40
5.0
 40
6.0
 40
6.0
 40
6.0
 40
7.0
 40
7.0
 40
7.0
 40
8.0
 40
8.0
 40
8.0
 40
9.0
 40
9.0
 40
9.0
 40
9.0
 10
3101.5564448756
 20
25.3616705012
 30
0.0
 10
3101.5564448756
 20
25.3616705012
 30
0.0
 10
3101.5564448756
 20
25.3956922349
 30
0.0
 10
3101.5564448756
 20
25.3956922349
 30
0.0
 10
3101.5564448756
 20
25.7380032171
 30
0.0
 10
3101.3835882978
 20
26.0096536755
 30
0.0
 10
3101.0169386906
 20
26.0096536755
 30
0.0
 10
3100.6453166762
 20
26.0096536755
 30
0.0
 10
3100.4555800844
 20
25.74323733
 30
0.0
 10
3100.4555800844
 20
25.3883644768
 30
0.0
 10
3100.4555800844
 20
25.048670551
 30
0.0
 10
3100.6696553011
 20
24.7827776168
 30
0.0
 10
3101.021780245
 20
24.7827776168
 30
0.0
 10
3101.2458002763
 20
24.7827776168
 30
0.0
 10
3101.4479678862
 20
24.8984515114
 30
0.0
 10
3101.5564448756
 20
25.0978712121
 30
0.0
 10
3101.5564448756
 20
25.0978712121
 30
0.0
 10
3101.3688019289
 20
25.2046471148
 30
0.0
 10
3101.3688019289
 20
25.2046471148
 30
0.0
 10
3101.2853178285
 20
25.0659431235
 30
0.0
 10
3101.1941134116
 20
24.9801036723
 30
0.0
 10
3101.0245281543
 20
24.9801036723
 30
0.0
 10
3100.8125465827
 20
24.9801036723
 30
0.0
 10
3100.6796001156
 20
25.1648678569
 30
0.0
 10
3100.6772447648
 20
25.3616705012
 30
0.0
 10
3100.6772447648
 20
25.3616705012
 30
0.0
 10
3101.5564448756
 20
25.3616705012
 30
0.0
 10
3101.5564448756
 20
25.3616705012
 30
0.0
  0
SPLINE
  5
22B
100
AcDbEntity
  8
0
100
AcDbSpline
 62
7
  6
CONTINUOUS
 70
2
 71
3
 72
14
 73
10
 74
0
 42
0.0000001
 43
0.0000001
 44
0.0000000001
 40
0.0
 40
0.0
 40
0.0
 40
0.0
 40
1.0
 40
1.0
 40
1.0
 40
2.0
 40
2.0
 40
2.0
 40
3.0
 40
3.0
 40
3.0
 40
3.0
 10
3100.6892832244
 20
25.5291621133
 30
0.0
 10
3100.7168931699
 20
25.694036669
 30
0.0
 10
3100.8447363769
 20
25.8170383216
 30
0.0
 10
3101.0169386906
 20
25.8170383216
 30
0.0
 10
3101.1941134116
 20
25.8170383216
 30
0.0
 10
3101.3075628082
 20
25.701364427
 30
0.0
 10
3101.3347801952
 20
25.5291621133
 30
0.0
 10
3101.3347801952
 20
25.5291621133
 30
0.0
 10
3100.6892832244
 20
25.5291621133
 30
0.0
 10
3100.6892832244
 20
25.5291621133
 30
0.0
  0
SPLINE
  5
22C
100
AcDbEntity
  8
0
100
AcDbSpline
 62
7
  6
CONTINUOUS
 70
2
 71
3
 72
20
 73
16
 74
0
 42
0.0000001
 43
0.0000001
 44
0.0000000001
 40
0.0
 40
0.0
 40
0.0
 40
0.0
 40
1.0
 40
1.0
 40
1.0
 40
2.0
 40
2.0
 40
2.0
 40
3.0
 40
3.0
 40
3.0
 40
4.0
 40
4.0
 40
4.0
 40
5.0
 40
5.0
 40
5.0
 40
5.0
 10
3103.5804763258
 20
25.7385266284
 30
0.0
 10
3103.5804763258
 20
25.7385266284
 30
0.0
 10
3103.9916158924
 20
25.2360517921
 30
0.0
 10
3103.9916158924
 20
25.2360517921
 30
0.0
 10
3103.8755494393
 20
25.1203778974
 30
0.0
 10
3103.7377614178
 20
24.9900484868
 30
0.0
 10
3103.5658208097
 20
24.9900484868
 30
0.0
 10
3103.3883843831
 20
24.9900484868
 30
0.0
 10
3103.220892771
 20
25.1543996312
 30
0.0
 10
3103.220892771
 20
25.3313126465
 30
0.0
 10
3103.220892771
 20
25.5092724843
 30
0.0
 10
3103.4306498446
 20
25.6354146047
 30
0.0
 10
3103.5582313461
 20
25.7233477011
 30
0.0
 10
3103.5582313461
 20
25.7233477011
 30
0.0
 10
3103.5804763258
 20
25.7385266284
 30
0.0
 10
3103.5804763258
 20
25.7385266284
 30
0.0
  0
SPLINE
  5
22D
100
AcDbEntity
  8
0
100
AcDbSpline
 62
7
  6
CONTINUOUS
 70
2
 71
3
 72
23
 73
19
 74
0
 42
0.0000001
 43
0.0000001
 44
0.0000000001
 40
0.0
 40
0.0
 40
0.0
 40
0.0
 40
1.0
 40
1.0
 40
1.0
 40
2.0
 40
2.0
 40
2.0
 40
3.0
 40
3.0
 40
3.0
 40
4.0
 40
4.0
 40
4.0
 40
5.0
 40
5.0
 40
5.0
 40
6.0
 40
6.0
 40
6.0
 40
6.0
 10
3103.6298078397
 20
26.0295433045
 30
0.0
 10
3103.6298078397
 20
26.0295433045
 30
0.0
 10
3103.5681761605
 20
26.1080549977
 30
0.0
 10
3103.5681761605
 20
26.1080549977
 30
0.0
 10
3103.5142647979
 20
26.1766218764
 30
0.0
 10
3103.4574746731
 20
26.2457121664
 30
0.0
 10
3103.4574746731
 20
26.3394027869
 30
0.0
 10
3103.4574746731
 20
26.4582171492
 30
0.0
 10
3103.5533897917
 20
26.5356820198
 30
0.0
 10
3103.6643529847
 20
26.5356820198
 30
0.0
 10
3103.787616343
 20
26.5356820198
 30
0.0
 10
3103.880914405
 20
26.4644980847
 30
0.0
 10
3103.880914405
 20
26.334168674
 30
0.0
 10
3103.880914405
 20
26.1991285617
 30
0.0
 10
3103.7528094923
 20
26.1227105137
 30
0.0
 10
3103.6592497246
 20
26.0489095221
 30
0.0
 10
3103.6592497246
 20
26.0489095221
 30
0.0
 10
3103.6298078397
 20
26.0295433045
 30
0.0
 10
3103.6298078397
 20
26.0295433045
 30
0.0
  0
SPLINE
  5
22E
100
AcDbEntity
  8
0
100
AcDbSpline
 62
7
  6
CONTINUOUS
 70
2
 71
3
 72
50
 73
46
 74
0
 42
0.0000001
 43
0.0000001
 44
0.0000000001
 40
0.0
 40
0.0
 40
0.0
 40
0.0
 40
1.0
 40
1.0
 40
1.0
 40
2.0
 40
2.0
 40
2.0
 40
3.0
 40
3.0
 40
3.0
 40
4.0
 40
4.0
 40
4.0
 40
5.0
 40
5.0
 40
5.0
 40
6.0
 40
6.0
 40
6.0
 40
7.0
 40
7.0
 40
7.0
 40
8.0
 40
8.0
 40
8.0
 40
9.0
 40
9.0
 40
9.0
 40
10.0
 40
10.0
 40
10.0
 40
11.0
 40
11.0
 40
11.0
 40
12.0
 40
12.0
 40
12.0
 40
13.0
 40
13.0
 40
13.0
 40
14.0
 40
14.0
 40
14.0
 40
15.0
 40
15.0
 40
15.0
 40
15.0
 10
3104.3319640824
 20
24.8225568746
 30
0.0
 10
3104.3319640824
 20
24.8225568746
 30
0.0
 10
3104.6173540871
 20
24.8225568746
 30
0.0
 10
3104.6173540871
 20
24.8225568746
 30
0.0
 10
3104.6173540871
 20
24.8225568746
 30
0.0
 10
3104.2849879193
 20
25.2334347356
 30
0.0
 10
3104.2849879193
 20
25.2334347356
 30
0.0
 10
3104.2849879193
 20
25.2334347356
 30
0.0
 10
3104.5114941541
 20
25.4993276699
 30
0.0
 10
3104.5114941541
 20
25.4993276699
 30
0.0
 10
3104.5114941541
 20
25.4993276699
 30
0.0
 10
3104.3632379068
 20
25.6521637659
 30
0.0
 10
3104.3632379068
 20
25.6521637659
 30
0.0
 10
3104.3632379068
 20
25.6521637659
 30
0.0
 10
3104.1473307506
 20
25.4009263477
 30
0.0
 10
3104.1473307506
 20
25.4009263477
 30
0.0
 10
3104.1473307506
 20
25.4009263477
 30
0.0
 10
3103.7602681032
 20
25.8688560391
 30
0.0
 10
3103.7602681032
 20
25.8688560391
 30
0.0
 10
3103.9157212557
 20
25.9829596999
 30
0.0
 10
3104.0979992367
 20
26.1227105137
 30
0.0
 10
3104.0979992367
 20
26.3320750289
 30
0.0
 10
3104.0979992367
 20
26.575984689
 30
0.0
 10
3103.8959624796
 20
26.7193993819
 30
0.0
 10
3103.6694562447
 20
26.7193993819
 30
0.0
 10
3103.4252848789
 20
26.7193993819
 30
0.0
 10
3103.2409132528
 20
26.568656931
 30
0.0
 10
3103.2409132528
 20
26.3121853999
 30
0.0
 10
3103.2409132528
 20
26.1546386023
 30
0.0
 10
3103.3395762806
 20
26.0169814336
 30
0.0
 10
3103.4449128022
 20
25.9060182405
 30
0.0
 10
3103.4449128022
 20
25.9060182405
 30
0.0
 10
3103.3293697604
 20
25.8222724345
 30
0.0
 10
3103.3293697604
 20
25.8222724345
 30
0.0
 10
3103.1516716282
 20
25.694036669
 30
0.0
 10
3103.0043313507
 20
25.5663243147
 30
0.0
 10
3103.0043313507
 20
25.3292190013
 30
0.0
 10
3103.0043313507
 20
25.0088912931
 30
0.0
 10
3103.2628965269
 20
24.7827776168
 30
0.0
 10
3103.5732794206
 20
24.7827776168
 30
0.0
 10
3103.7921961917
 20
24.7827776168
 30
0.0
 10
3103.9893913944
 20
24.9078729146
 30
0.0
 10
3104.1296656196
 20
25.0737942928
 30
0.0
 10
3104.1296656196
 20
25.0737942928
 30
0.0
 10
3104.3319640824
 20
24.8225568746
 30
0.0
 10
3104.3319640824
 20
24.8225568746
 30
0.0
  0
LWPOLYLINE
  5
22F
100
AcDbEntity
  8
0
100
AcDbPolyline
 62
7
  6
CONTINUOUS
 90
2
 70
0
 43
0.2
 10
3106.2674081721
 20
26.6790967127
 10
3106.0360603828
 20
26.6790967127
  0
LWPOLYLINE
  5
230
100
AcDbEntity
  8
0
100
AcDbPolyline
 62
7
  6
CONTINUOUS
 90
2
 70
0
 43
0.2
 10
3106.0360603828
 20
26.6790967127
 10
3106.0360603828
 20
24.8220334634
  0
LWPOLYLINE
  5
231
100
AcDbEntity
  8
0
100
AcDbPolyline
 62
7
  6
CONTINUOUS
 90
2
 70
0
 43
0.2
 10
3106.0360603828
 20
24.8220334634
 10
3106.8313838348
 20
24.8220334634
  0
LWPOLYLINE
  5
232
100
AcDbEntity
  8
0
100
AcDbPolyline
 62
7
  6
CONTINUOUS
 90
2
 70
0
 43
0.2
 10
3106.8313838348
 20
24.8220334634
 10
3106.8313838348
 20
25.0340150349
  0
LWPOLYLINE
  5
233
100
AcDbEntity
  8
0
100
AcDbPolyline
 62
7
  6
CONTINUOUS
 90
2
 70
0
 43
0.2
 10
3106.8313838348
 20
25.0340150349
 10
3106.2674081721
 20
25.0340150349
  0
LWPOLYLINE
  5
234
100
AcDbEntity
  8
0
100
AcDbPolyline
 62
7
  6
CONTINUOUS
 90
2
 70
0
 43
0.2
 10
3106.2674081721
 20
25.0340150349
 10
3106.2674081721
 20
26.6790967127
  0
LWPOLYLINE
  5
235
100
AcDbEntity
  8
0
100
AcDbPolyline
 62
7
  6
CONTINUOUS
 90
2
 70
0
 43
0.2
 10
3108.5104872462
 20
25.9745851193
 10
3108.2893459771
 20
25.9745851193
  0
LWPOLYLINE
  5
236
100
AcDbEntity
  8
0
100
AcDbPolyline
 62
7
  6
CONTINUOUS
 90
2
 70
0
 43
0.2
 10
3108.2893459771
 20
25.9745851193
 10
3108.2893459771
 20
24.8225568746
  0
LWPOLYLINE
  5
237
100
AcDbEntity
  8
0
100
AcDbPolyline
 62
7
  6
CONTINUOUS
 90
2
 70
0
 43
0.2
 10
3108.2893459771
 20
24.8225568746
 10
3108.5104872462
 20
24.8225568746
  0
LWPOLYLINE
  5
238
100
AcDbEntity
  8
0
100
AcDbPolyline
 62
7
  6
CONTINUOUS
 90
2
 70
0
 43
0.2
 10
3108.5104872462
 20
24.8225568746
 10
3108.5104872462
 20
25.9745851193
  0
LWPOLYLINE
  5
239
100
AcDbEntity
  8
0
100
AcDbPolyline
 62
7
  6
CONTINUOUS
 90
2
 70
1
 43
0.2
 10
3108.247463969
 20
26.5045390482
 42
1.0
 10
3108.55263096
 20
26.5045390482
 42
1.0
  0
SPLINE
  5
23A
100
AcDbEntity
  8
0
100
AcDbSpline
 62
7
  6
CONTINUOUS
 70
2
 71
3
 72
17
 73
13
 74
0
 42
0.0000001
 43
0.0000001
 44
0.0000000001
 40
0.0
 40
0.0
 40
0.0
 40
0.0
 40
1.0
 40
1.0
 40
1.0
 40
2.0
 40
2.0
 40
2.0
 40
3.0
 40
3.0
 40
3.0
 40
4.0
 40
4.0
 40
4.0
 40
4.0
 10
3110.6407711879
 20
24.9801036723
 30
0.0
 10
3110.4068063422
 20
24.9801036723
 30
0.0
 10
3110.2764769315
 20
25.1821404294
 30
0.0
 10
3110.2764769315
 20
25.3983092913
 30
0.0
 10
3110.2764769315
 20
25.6129079193
 30
0.0
 10
3110.4123021607
 20
25.8118042087
 30
0.0
 10
3110.6407711879
 20
25.8118042087
 30
0.0
 10
3110.8802318521
 20
25.8118042087
 30
0.0
 10
3111.0157953756
 20
25.6228527338
 30
0.0
 10
3111.0157953756
 20
25.3983092913
 30
0.0
 10
3111.0157953756
 20
25.1721956149
 30
0.0
 10
3110.8825872029
 20
24.9801036723
 30
0.0
 10
3110.6407711879
 20
24.9801036723
 30
0.0
  0
SPLINE
  5
23B
100
AcDbEntity
  8
0
100
AcDbSpline
 62
7
  6
CONTINUOUS
 70
2
 71
3
 72
50
 73
46
 74
0
 42
0.0000001
 43
0.0000001
 44
0.0000000001
 40
0.0
 40
0.0
 40
0.0
 40
0.0
 40
1.0
 40
1.0
 40
1.0
 40
2.0
 40
2.0
 40
2.0
 40
3.0
 40
3.0
 40
3.0
 40
4.0
 40
4.0
 40
4.0
 40
5.0
 40
5.0
 40
5.0
 40
6.0
 40
6.0
 40
6.0
 40
7.0
 40
7.0
 40
7.0
 40
8.0
 40
8.0
 40
8.0
 40
9.0
 40
9.0
 40
9.0
 40
10.0
 40
10.0
 40
10.0
 40
11.0
 40
11.0
 40
11.0
 40
12.0
 40
12.0
 40
12.0
 40
13.0
 40
13.0
 40
13.0
 40
14.0
 40
14.0
 40
14.0
 40
15.0
 40
15.0
 40
15.0
 40
15.0
 10
3111.2248981851
 20
25.9751085305
 30
0.0
 10
3111.2248981851
 20
25.9751085305
 30
0.0
 10
3111.0032335047
 20
25.9751085305
 30
0.0
 10
3111.0032335047
 20
25.9751085305
 30
0.0
 10
3111.0032335047
 20
25.9751085305
 30
0.0
 10
3111.0032335047
 20
25.777782475
 30
0.0
 10
3111.0032335047
 20
25.777782475
 30
0.0
 10
3111.0032335047
 20
25.777782475
 30
0.0
 10
3110.9985228031
 20
25.777782475
 30
0.0
 10
3110.9985228031
 20
25.777782475
 30
0.0
 10
3110.9071875334
 20
25.9206737566
 30
0.0
 10
3110.769268659
 20
26.0091302643
 30
0.0
 10
3110.5965429341
 20
26.0091302643
 30
0.0
 10
3110.2641767663
 20
26.0091302643
 30
0.0
 10
3110.0550739568
 20
25.7212540559
 30
0.0
 10
3110.0550739568
 20
25.4056370493
 30
0.0
 10
3110.0550739568
 20
25.075887938
 30
0.0
 10
3110.2521383066
 20
24.7827776168
 30
0.0
 10
3110.6070111598
 20
24.7827776168
 30
0.0
 10
3110.769268659
 20
24.7827776168
 30
0.0
 10
3110.9092811786
 20
24.8712341244
 30
0.0
 10
3110.9985228031
 20
25.0020869464
 30
0.0
 10
3110.9985228031
 20
25.0020869464
 30
0.0
 10
3111.0032335047
 20
25.0020869464
 30
0.0
 10
3111.0032335047
 20
25.0020869464
 30
0.0
 10
3111.0032335047
 20
25.0020869464
 30
0.0
 10
3111.0032335047
 20
24.7827776168
 30
0.0
 10
3111.0032335047
 20
24.7827776168
 30
0.0
 10
3111.0032335047
 20
24.5461957147
 30
0.0
 10
3110.9467050856
 20
24.3593378849
 30
0.0
 10
3110.6734843934
 20
24.3593378849
 30
0.0
 10
3110.4711859306
 20
24.3593378849
 30
0.0
 10
3110.3285563547
 20
24.4776288359
 30
0.0
 10
3110.3285563547
 20
24.6838528834
 30
0.0
 10
3110.3285563547
 20
24.6838528834
 30
0.0
 10
3110.1068916742
 20
24.6838528834
 30
0.0
 10
3110.1068916742
 20
24.6838528834
 30
0.0
 10
3110.1118640815
 20
24.3593378849
 30
0.0
 10
3110.3429501651
 20
24.1625352406
 30
0.0
 10
3110.6632778733
 20
24.1625352406
 30
0.0
 10
3111.1113179357
 20
24.1625352406
 30
0.0
 10
3111.2248981851
 20
24.4477943925
 30
0.0
 10
3111.2248981851
 20
24.8445401487
 30
0.0
 10
3111.2248981851
 20
24.8445401487
 30
0.0
 10
3111.2248981851
 20
25.9751085305
 30
0.0
 10
3111.2248981851
 20
25.9751085305
 30
0.0
  0
SPLINE
  5
23C
100
AcDbEntity
  8
0
100
AcDbSpline
 62
7
  6
CONTINUOUS
 70
2
 71
3
 72
44
 73
40
 74
0
 42
0.0000001
 43
0.0000001
 44
0.0000000001
 40
0.0
 40
0.0
 40
0.0
 40
0.0
 40
1.0
 40
1.0
 40
1.0
 40
2.0
 40
2.0
 40
2.0
 40
3.0
 40
3.0
 40
3.0
 40
4.0
 40
4.0
 40
4.0
 40
5.0
 40
5.0
 40
5.0
 40
6.0
 40
6.0
 40
6.0
 40
7.0
 40
7.0
 40
7.0
 40
8.0
 40
8.0
 40
8.0
 40
9.0
 40
9.0
 40
9.0
 40
10.0
 40
10.0
 40
10.0
 40
11.0
 40
11.0
 40
11.0
 40
12.0
 40
12.0
 40
12.0
 40
13.0
 40
13.0
 40
13.0
 40
13.0
 10
3112.7938235205
 20
26.9601685743
 30
0.0
 10
3112.7938235205
 20
26.9601685743
 30
0.0
 10
3112.7938235205
 20
24.8220334634
 30
0.0
 10
3112.7938235205
 20
24.8220334634
 30
0.0
 10
3112.7938235205
 20
24.8220334634
 30
0.0
 10
3113.0152264953
 20
24.8220334634
 30
0.0
 10
3113.0152264953
 20
24.8220334634
 30
0.0
 10
3113.0152264953
 20
24.8220334634
 30
0.0
 10
3113.0152264953
 20
25.3517256867
 30
0.0
 10
3113.0152264953
 20
25.3517256867
 30
0.0
 10
3113.0152264953
 20
25.5616136131
 30
0.0
 10
3113.0152264953
 20
25.81232762
 30
0.0
 10
3113.3004856472
 20
25.81232762
 30
0.0
 10
3113.5273844405
 20
25.81232762
 30
0.0
 10
3113.5543401218
 20
25.6793811529
 30
0.0
 10
3113.5543401218
 20
25.4831019199
 30
0.0
 10
3113.5543401218
 20
25.4831019199
 30
0.0
 10
3113.5543401218
 20
24.8220334634
 30
0.0
 10
3113.5543401218
 20
24.8220334634
 30
0.0
 10
3113.5543401218
 20
24.8220334634
 30
0.0
 10
3113.7762665079
 20
24.8220334634
 30
0.0
 10
3113.7762665079
 20
24.8220334634
 30
0.0
 10
3113.7762665079
 20
24.8220334634
 30
0.0
 10
3113.7762665079
 20
25.5092724843
 30
0.0
 10
3113.7762665079
 20
25.5092724843
 30
0.0
 10
3113.7762665079
 20
25.7898209346
 30
0.0
 10
3113.6922589962
 20
26.0096536755
 30
0.0
 10
3113.3672205864
 20
26.0096536755
 30
0.0
 10
3113.2274697725
 20
26.0096536755
 30
0.0
 10
3113.0892891925
 20
25.943180442
 30
0.0
 10
3113.0199371969
 20
25.8201787893
 30
0.0
 10
3113.0199371969
 20
25.8201787893
 30
0.0
 10
3113.0152264953
 20
25.8201787893
 30
0.0
 10
3113.0152264953
 20
25.8201787893
 30
0.0
 10
3113.0152264953
 20
25.8201787893
 30
0.0
 10
3113.0152264953
 20
26.9601685743
 30
0.0
 10
3113.0152264953
 20
26.9601685743
 30
0.0
 10
3113.0152264953
 20
26.9601685743
 30
0.0
 10
3112.7938235205
 20
26.9601685743
 30
0.0
 10
3112.7938235205
 20
26.9601685743
 30
0.0
  0
LWPOLYLINE
  5
23D
100
AcDbEntity
  8
0
100
AcDbPolyline
 62
7
  6
CONTINUOUS
 90
2
 70
0
 43
0.2
 10
3115.6160571847
 20
25.7678376605
 10
3115.8324877523
 20
25.7678376605
  0
LWPOLYLINE
  5
23E
100
AcDbEntity
  8
0
100
AcDbPolyline
 62
7
  6
CONTINUOUS
 90
2
 70
0
 43
0.2
 10
3115.8324877523
 20
25.7678376605
 10
3115.8324877523
 20
25.9745851193
  0
LWPOLYLINE
  5
23F
100
AcDbEntity
  8
0
100
AcDbPolyline
 62
7
  6
CONTINUOUS
 90
2
 70
0
 43
0.2
 10
3115.8324877523
 20
25.9745851193
 10
3115.6160571847
 20
25.9745851193
  0
LWPOLYLINE
  5
240
100
AcDbEntity
  8
0
100
AcDbPolyline
 62
7
  6
CONTINUOUS
 90
2
 70
0
 43
0.2
 10
3115.6160571847
 20
25.9745851193
 10
3115.6160571847
 20
26.4152974236
  0
LWPOLYLINE
  5
241
100
AcDbEntity
  8
0
100
AcDbPolyline
 62
7
  6
CONTINUOUS
 90
2
 70
0
 43
0.2
 10
3115.6160571847
 20
26.4152974236
 10
3115.3943925043
 20
26.4152974236
  0
LWPOLYLINE
  5
242
100
AcDbEntity
  8
0
100
AcDbPolyline
 62
7
  6
CONTINUOUS
 90
2
 70
0
 43
0.2
 10
3115.3943925043
 20
26.4152974236
 10
3115.3943925043
 20
25.9745851193
  0
LWPOLYLINE
  5
243
100
AcDbEntity
  8
0
100
AcDbPolyline
 62
7
  6
CONTINUOUS
 90
2
 70
0
 43
0.2
 10
3115.3943925043
 20
25.9745851193
 10
3115.2737462025
 20
25.9745851193
  0
LWPOLYLINE
  5
244
100
AcDbEntity
  8
0
100
AcDbPolyline
 62
7
  6
CONTINUOUS
 90
2
 70
0
 43
0.2
 10
3115.2737462025
 20
25.9745851193
 10
3115.2737462025
 20
25.7678376605
  0
LWPOLYLINE
  5
245
100
AcDbEntity
  8
0
100
AcDbPolyline
 62
7
  6
CONTINUOUS
 90
2
 70
0
 43
0.2
 10
3115.2737462025
 20
25.7678376605
 10
3115.3943925043
 20
25.7678376605
  0
LWPOLYLINE
  5
246
100
AcDbEntity
  8
0
100
AcDbPolyline
 62
7
  6
CONTINUOUS
 90
2
 70
0
 43
0.2
 10
3115.3943925043
 20
25.7678376605
 10
3115.3943925043
 20
24.8220334634
  0
LWPOLYLINE
  5
247
100
AcDbEntity
  8
0
100
AcDbPolyline
 62
7
  6
CONTINUOUS
 90
2
 70
0
 43
0.2
 10
3115.3943925043
 20
24.8220334634
 10
3115.6160571847
 20
24.8220334634
  0
LWPOLYLINE
  5
248
100
AcDbEntity
  8
0
100
AcDbPolyline
 62
7
  6
CONTINUOUS
 90
2
 70
0
 43
0.2
 10
3115.6160571847
 20
24.8220334634
 10
3115.6160571847
 20
25.7678376605
  0
SPLINE
  5
249
100
AcDbEntity
  8
0
100
AcDbSpline
 62
7
  6
CONTINUOUS
 70
2
 71
3
 72
20
 73
16
 74
0
 42
0.0000001
 43
0.0000001
 44
0.0000000001
 40
0.0
 40
0.0
 40
0.0
 40
0.0
 40
1.0
 40
1.0
 40
1.0
 40
2.0
 40
2.0
 40
2.0
 40
3.0
 40
3.0
 40
3.0
 40
4.0
 40
4.0
 40
4.0
 40
5.0
 40
5.0
 40
5.0
 40
5.0
 10
3103.398067492
 20
35.1829599068
 30
0.0
 10
3103.398067492
 20
35.1829599068
 30
0.0
 10
3105.7144241464
 20
32.3533984845
 30
0.0
 10
3105.7144241464
 20
32.3533984845
 30
0.0
 10
3105.062777093
 20
31.7012280198
 30
0.0
 10
3104.285903889
 20
30.9653117491
 30
0.0
 10
3103.3147142444
 20
30.9653117491
 30
0.0
 10
3102.3161763599
 20
30.9653117491
 30
0.0
 10
3101.3728583664
 20
31.8948901964
 30
0.0
 10
3101.3728583664
 20
32.8940823449
 30
0.0
 10
3101.3728583664
 20
33.8932744934
 30
0.0
 10
3102.5517114395
 20
34.5998797321
 30
0.0
 10
3103.2732338998
 20
35.099737512
 30
0.0
 10
3103.2732338998
 20
35.099737512
 30
0.0
 10
3103.398067492
 20
35.1829599068
 30
0.0
 10
3103.398067492
 20
35.1829599068
 30
0.0
  0
SPLINE
  5
24A
100
AcDbEntity
  8
0
100
AcDbSpline
 62
7
  6
CONTINUOUS
 70
2
 71
3
 72
23
 73
19
 74
0
 42
0.0000001
 43
0.0000001
 44
0.0000000001
 40
0.0
 40
0.0
 40
0.0
 40
0.0
 40
1.0
 40
1.0
 40
1.0
 40
2.0
 40
2.0
 40
2.0
 40
3.0
 40
3.0
 40
3.0
 40
4.0
 40
4.0
 40
4.0
 40
5.0
 40
5.0
 40
5.0
 40
6.0
 40
6.0
 40
6.0
 40
6.0
 10
3103.6754754745
 20
36.8207138265
 30
0.0
 10
3103.6754754745
 20
36.8207138265
 30
0.0
 10
3103.328977202
 20
37.2640431873
 30
0.0
 10
3103.328977202
 20
37.2640431873
 30
0.0
 10
3103.023174157
 20
37.6521526573
 30
0.0
 10
3102.7042858299
 20
38.0406546857
 30
0.0
 10
3102.7042858299
 20
38.5675989998
 30
0.0
 10
3102.7042858299
 20
39.2337707164
 30
0.0
 10
3103.2456239544
 20
39.6774926357
 30
0.0
 10
3103.8695302095
 20
39.6774926357
 30
0.0
 10
3104.5633118716
 20
39.6774926357
 30
0.0
 10
3105.0905178913
 20
39.275251061
 30
0.0
 10
3105.0905178913
 20
38.54025076
 30
0.0
 10
3105.0905178913
 20
37.7769862494
 30
0.0
 10
3104.3692571366
 20
37.3468730236
 30
0.0
 10
3103.8421819697
 20
36.9311536082
 30
0.0
 10
3103.8421819697
 20
36.9311536082
 30
0.0
 10
3103.6754754745
 20
36.8207138265
 30
0.0
 10
3103.6754754745
 20
36.8207138265
 30
0.0
  0
SPLINE
  5
24B
100
AcDbEntity
  8
0
100
AcDbSpline
 62
7
  6
CONTINUOUS
 70
2
 71
3
 72
50
 73
46
 74
0
 42
0.0000001
 43
0.0000001
 44
0.0000000001
 40
0.0
 40
0.0
 40
0.0
 40
0.0
 40
1.0
 40
1.0
 40
1.0
 40
2.0
 40
2.0
 40
2.0
 40
3.0
 40
3.0
 40
3.0
 40
4.0
 40
4.0
 40
4.0
 40
5.0
 40
5.0
 40
5.0
 40
6.0
 40
6.0
 40
6.0
 40
7.0
 40
7.0
 40
7.0
 40
8.0
 40
8.0
 40
8.0
 40
9.0
 40
9.0
 40
9.0
 40
10.0
 40
10.0
 40
10.0
 40
11.0
 40
11.0
 40
11.0
 40
12.0
 40
12.0
 40
12.0
 40
13.0
 40
13.0
 40
13.0
 40
14.0
 40
14.0
 40
14.0
 40
15.0
 40
15.0
 40
15.0
 40
15.0
 10
3107.6290626375
 20
30.0221246084
 30
0.0
 10
3107.6290626375
 20
30.0221246084
 30
0.0
 10
3109.238290642
 20
30.0221246084
 30
0.0
 10
3109.238290642
 20
30.0221246084
 30
0.0
 10
3109.238290642
 20
30.0221246084
 30
0.0
 10
3107.3652633484
 20
32.3392663798
 30
0.0
 10
3107.3652633484
 20
32.3392663798
 30
0.0
 10
3107.3652633484
 20
32.3392663798
 30
0.0
 10
3108.6416017739
 20
33.8367460743
 30
0.0
 10
3108.6416017739
 20
33.8367460743
 30
0.0
 10
3108.6416017739
 20
33.8367460743
 30
0.0
 10
3107.8093778261
 20
34.6977576429
 30
0.0
 10
3107.8093778261
 20
34.6977576429
 30
0.0
 10
3107.8093778261
 20
34.6977576429
 30
0.0
 10
3106.5887827028
 20
33.2824535205
 30
0.0
 10
3106.5887827028
 20
33.2824535205
 30
0.0
 10
3106.5887827028
 20
33.2824535205
 30
0.0
 10
3104.410868334
 20
35.9178293549
 30
0.0
 10
3104.410868334
 20
35.9178293549
 30
0.0
 10
3105.2844417735
 20
36.5558677148
 30
0.0
 10
3106.3111130146
 20
37.3468730236
 30
0.0
 10
3106.3111130146
 20
38.5257260967
 30
0.0
 10
3106.3111130146
 20
39.8994190217
 30
0.0
 10
3105.1732168748
 20
40.7039021712
 30
0.0
 10
3103.8979252719
 20
40.7039021712
 30
0.0
 10
3102.5244940525
 20
40.7039021712
 30
0.0
 10
3101.4835598538
 20
39.8576769715
 30
0.0
 10
3101.4835598538
 20
38.4150246093
 30
0.0
 10
3101.4835598538
 20
37.5274499179
 30
0.0
 10
3102.0388992302
 20
36.7505767139
 30
0.0
 10
3102.6350646871
 20
36.1261470475
 30
0.0
 10
3102.6350646871
 20
36.1261470475
 30
0.0
 10
3101.983155928
 20
35.6545534771
 30
0.0
 10
3101.983155928
 20
35.6545534771
 30
0.0
 10
3100.9846180436
 20
34.9332927224
 30
0.0
 10
3100.1517398318
 20
34.2120319678
 30
0.0
 10
3100.1517398318
 20
32.8804736514
 30
0.0
 10
3100.1517398318
 20
31.0767983534
 30
0.0
 10
3101.6087860044
 20
29.8001982223
 30
0.0
 10
3103.3563254418
 20
29.8001982223
 30
0.0
 10
3104.5911835227
 20
29.8001982223
 30
0.0
 10
3105.7005537473
 20
30.5083736948
 30
0.0
 10
3106.4914282033
 20
31.4369053195
 30
0.0
 10
3106.4914282033
 20
31.4369053195
 30
0.0
 10
3107.6290626375
 20
30.0221246084
 30
0.0
 10
3107.6290626375
 20
30.0221246084
 30
0.0
  0
LINE
  5
24C
100
AcDbEntity
  8
0
100
AcDbLine
 62
7
  6
CONTINUOUS
 10
3093.4319240125
 20
27.995999513
 11
3115.8458347401
 21
27.995999513
  0
LINE
  5
24D
100
AcDbEntity
  8
0
100
AcDbLine
 62
7
  6
CONTINUOUS
 10
3115.8458347401
 20
27.995999513
 11
3115.8458347401
 21
50.4099102406
  0
LINE
  5
24E
100
AcDbEntity
  8
0
100
AcDbLine
 62
7
  6
CONTINUOUS
 10
3115.8458347401
 20
50.4099102406
 11
3093.4319240125
 21
50.4099102406
  0
LINE
  5
24F
100
AcDbEntity
  8
0
100
AcDbLine
 62
7
  6
CONTINUOUS
 10
3093.4319240125
 20
50.4099102406
 11
3093.4319240125
 21
27.995999513
  0
ENDBLK
  5
250
100
AcDbEntity
  8
0
  6
BYBLOCK
 62
0
100
AcDbBlockEnd
  0
BLOCK
  5
251
100
AcDbEntity
  8
0
100
AcDbBlockBegin
  2
_CLOSED
 70
64
 10
0.0
 20
0.0
  3
_CLOSED
  1

  0
LINE
  5
252
100
AcDbEntity
  8
0
  6
BYBLOCK
 62
0
100
AcDbLine
 10
0.0
 20
0.0
 11
-1.0
 21
0.2
  0
LINE
  5
253
100
AcDbEntity
  8
0
  6
BYBLOCK
 62
0
100
AcDbLine
 10
-1.0
 20
0.2
 11
-1.0
 21
-0.2
  0
LINE
  5
254
100
AcDbEntity
  8
0
  6
BYBLOCK
 62
0
100
AcDbLine
 10
-1.0
 20
-0.2
 11
0.0
 21
0.0
  0
LINE
  5
255
100
AcDbEntity
  8
0
  6
BYBLOCK
 62
0
100
AcDbLine
 10
-1.0
 20
0.0
 11
0.0
 21
0.0
  0
ENDBLK
  5
256
100
AcDbEntity
  8
0
  6
BYBLOCK
 62
0
100
AcDbBlockEnd
  0
BLOCK
  5
257
100
AcDbEntity
  8
0
100
AcDbBlockBegin
 62
7
  6
CONTINUOUS
  2
*D0
 70
65
 10
0.0
 20
0.0
  3
*D0
  1

  0
MTEXT
  5
258
100
AcDbEntity
  8
0
100
AcDbMText
 62
7
  6
CONTINUOUS
  7
STANDARD
 71
2
 72
1
 10
672.5317355917
 20
947.4060323734
 30
0.0
 11
1.0
 21
0.0
 31
0.0
  1
70,1
 40
7.0
 41
19.0223048327
  0
LINE
  5
259
100
AcDbEntity
  8
0
100
AcDbLine
 62
7
  6
CONTINUOUS
 10
637.4817355917
 20
962.391726183
 11
637.4817355917
 21
937.9060323734
  0
LINE
  5
25A
100
AcDbEntity
  8
0
100
AcDbLine
 62
7
  6
CONTINUOUS
 10
707.5817355917
 20
961.1331157117
 11
707.5817355917
 21
937.9060323734
  0
LINE
  5
25B
100
AcDbEntity
  8
0
100
AcDbLine
 62
7
  6
CONTINUOUS
 10
637.4817355917
 20
938.6560323734
 11
672.5317355917
 21
938.6560323734
  0
LINE
  5
25C
100
AcDbEntity
  8
0
100
AcDbLine
 62
7
  6
CONTINUOUS
 10
707.5817355917
 20
938.6560323734
 11
672.5317355917
 21
938.6560323734
  0
INSERT
  5
25D
100
AcDbEntity
  8
0
100
AcDbBlockReference
 62
7
  6
CONTINUOUS
  2
_CLOSED
 10
637.4817355917
 20
938.6560323734
 41
2.5
 42
2.5
 43
2.5
 50
180.0
  0
INSERT
  5
25E
100
AcDbEntity
  8
0
100
AcDbBlockReference
 62
7
  6
CONTINUOUS
  2
_CLOSED
 10
707.5817355917
 20
938.6560323734
 41
2.5
 42
2.5
 43
2.5
  0
ENDBLK
  5
25F
100
AcDbEntity
  8
0
  6
BYBLOCK
 62
0
100
AcDbBlockEnd
  0
BLOCK
  5
260
100
AcDbEntity
  8
0
100
AcDbBlockBegin
 62
7
  6
CONTINUOUS
  2
*D1
 70
65
 10
0.0
 20
0.0
  3
*D1
  1

  0
MTEXT
  5
261
100
AcDbEntity
  8
0
100
AcDbMText
 62
7
  6
CONTINUOUS
  7
STANDARD
 71
2
 72
1
 10
572.7130915572
 20
1022.4033648498
 30
0.0
 11
0.0
 21
1.0
 31
0.0
  1
91
 40
7.0
 41
10.8773234201
  0
LINE
  5
262
100
AcDbEntity
  8
0
100
AcDbLine
 62
7
  6
CONTINUOUS
 10
598.7840324798
 20
976.9033648498
 11
580.7130915572
 21
976.9033648498
  0
LINE
  5
263
100
AcDbEntity
  8
0
100
AcDbLine
 62
7
  6
CONTINUOUS
 10
601.3799081453
 20
1067.9033648498
 11
580.7130915572
 21
1067.9033648498
  0
LINE
  5
264
100
AcDbEntity
  8
0
100
AcDbLine
 62
7
  6
CONTINUOUS
 10
581.4630915572
 20
976.9033648498
 11
581.4630915572
 21
1022.4033648498
  0
LINE
  5
265
100
AcDbEntity
  8
0
100
AcDbLine
 62
7
  6
CONTINUOUS
 10
581.4630915572
 20
1067.9033648498
 11
581.4630915572
 21
1022.4033648498
  0
INSERT
  5
266
100
AcDbEntity
  8
0
100
AcDbBlockReference
 62
7
  6
CONTINUOUS
  2
_CLOSED
 10
581.4630915572
 20
976.9033648498
 41
2.5
 42
2.5
 43
2.5
 50
270.0
  0
INSERT
  5
267
100
AcDbEntity
  8
0
100
AcDbBlockReference
 62
7
  6
CONTINUOUS
  2
_CLOSED
 10
581.4630915572
 20
1067.9033648498
 41
2.5
 42
2.5
 43
2.5
 50
90.0
  0
ENDBLK
  5
268
100
AcDbEntity
  8
0
  6
BYBLOCK
 62
0
100
AcDbBlockEnd
  0
BLOCK
  5
269
100
AcDbEntity
  8
0
100
AcDbBlockBegin
 62
7
  6
CONTINUOUS
  2
*D2
 70
65
 10
0.0
 20
0.0
  3
*D2
  1

  0
MTEXT
  5
26A
100
AcDbEntity
  8
0
100
AcDbMText
 62
7
  6
CONTINUOUS
  7
STANDARD
 71
2
 72
1
 10
672.5317355917
 20
917.8072580721
 30
0.0
 11
1.0
 21
0.0
 31
0.0
  1
109,9
 40
7.0
 41
24.4609665428
  0
LINE
  5
26B
100
AcDbEntity
  8
0
100
AcDbLine
 62
7
  6
CONTINUOUS
 10
617.5817355917
 20
960.5232142324
 11
617.5817355917
 21
908.3072580721
  0
LINE
  5
26C
100
AcDbEntity
  8
0
100
AcDbLine
 62
7
  6
CONTINUOUS
 10
727.4817355917
 20
957.7015067138
 11
727.4817355917
 21
908.3072580721
  0
LINE
  5
26D
100
AcDbEntity
  8
0
100
AcDbLine
 62
7
  6
CONTINUOUS
 10
617.5817355917
 20
909.0572580721
 11
672.5317355917
 21
909.0572580721
  0
LINE
  5
26E
100
AcDbEntity
  8
0
100
AcDbLine
 62
7
  6
CONTINUOUS
 10
727.4817355917
 20
909.0572580721
 11
672.5317355917
 21
909.0572580721
  0
INSERT
  5
26F
100
AcDbEntity
  8
0
100
AcDbBlockReference
 62
7
  6
CONTINUOUS
  2
_CLOSED
 10
617.5817355917
 20
909.0572580721
 41
2.5
 42
2.5
 43
2.5
 50
180.0
  0
INSERT
  5
270
100
AcDbEntity
  8
0
100
AcDbBlockReference
 62
7
  6
CONTINUOUS
  2
_CLOSED
 10
727.4817355917
 20
909.0572580721
 41
2.5
 42
2.5
 43
2.5
  0
ENDBLK
  5
271
100
AcDbEntity
  8
0
  6
BYBLOCK
 62
0
100
AcDbBlockEnd
  0
BLOCK
  5
272
100
AcDbEntity
  8
0
100
AcDbBlockBegin
 62
7
  6
CONTINUOUS
  2
*D3
 70
65
 10
0.0
 20
0.0
  3
*D3
  1

  0
MTEXT
  5
273
100
AcDbEntity
  8
0
100
AcDbMText
 62
7
  6
CONTINUOUS
  7
STANDARD
 71
2
 72
1
 10
1558.516407119
 20
947.4060323734
 30
0.0
 11
1.0
 21
0.0
 31
0.0
  1
1127
 40
7.0
 41
21.7546468401
  0
LINE
  5
274
100
AcDbEntity
  8
0
100
AcDbLine
 62
7
  6
CONTINUOUS
 10
2122.016407119
 20
961.1331157117
 11
2122.016407119
 21
937.9060323734
  0
LINE
  5
275
100
AcDbEntity
  8
0
100
AcDbLine
 62
7
  6
CONTINUOUS
 10
995.016407119
 20
961.1331157117
 11
995.016407119
 21
937.9060323734
  0
LINE
  5
276
100
AcDbEntity
  8
0
100
AcDbLine
 62
7
  6
CONTINUOUS
 10
2122.016407119
 20
938.6560323734
 11
1558.516407119
 21
938.6560323734
  0
LINE
  5
277
100
AcDbEntity
  8
0
100
AcDbLine
 62
7
  6
CONTINUOUS
 10
995.016407119
 20
938.6560323734
 11
1558.516407119
 21
938.6560323734
  0
INSERT
  5
278
100
AcDbEntity
  8
0
100
AcDbBlockReference
 62
7
  6
CONTINUOUS
  2
_CLOSED
 10
2122.016407119
 20
938.6560323734
 41
2.5
 42
2.5
 43
2.5
  0
INSERT
  5
279
100
AcDbEntity
  8
0
100
AcDbBlockReference
 62
7
  6
CONTINUOUS
  2
_CLOSED
 10
995.016407119
 20
938.6560323734
 41
2.5
 42
2.5
 43
2.5
 50
180.0
  0
ENDBLK
  5
27A
100
AcDbEntity
  8
0
  6
BYBLOCK
 62
0
100
AcDbBlockEnd
  0
ENDSEC
  0
SECTION
  2
ENTITIES
  0
DIMENSION
  5
27B
100
AcDbEntity
  8
0
100
AcDbDimension
 62
7
  6
CONTINUOUS
  2
*D0
 10
707.5817355917
 20
938.6560323734
 11
671.8590576172
 21
938.6560323734
 70
160
  3
DIMSTYLE_1
100
AcDbAlignedDimension
 13
637.4817355917
 23
963.141726183
 14
707.5817355917
 24
961.8831157117
100
AcDbRotatedDimension
  0
DIMENSION
  5
27C
100
AcDbEntity
  8
0
100
AcDbDimension
 62
7
  6
CONTINUOUS
  2
*D1
 10
581.4630915572
 20
1067.9033648498
 11
581.4630915572
 21
1021.7080080669
 70
160
  3
DIMSTYLE_1
100
AcDbAlignedDimension
 13
599.5340324798
 23
976.9033648498
 14
602.1299081453
 24
1067.9033648498
 50
90.0
100
AcDbRotatedDimension
  0
DIMENSION
  5
27D
100
AcDbEntity
  8
0
100
AcDbDimension
 62
7
  6
CONTINUOUS
  2
*D2
 10
727.4817355917
 20
909.0572580721
 11
672.8291503906
 21
909.0572580721
 70
160
  3
DIMSTYLE_1
100
AcDbAlignedDimension
 13
617.5817355917
 23
961.2732142324
 14
727.4817355917
 24
958.4515067138
100
AcDbRotatedDimension
  0
DIMENSION
  5
27E
100
AcDbEntity
  8
0
100
AcDbDimension
 62
7
  6
CONTINUOUS
  2
*D3
 10
995.016407119
 20
938.6560323734
 11
1558.8113769531
 21
938.6560323734
 70
160
  3
DIMSTYLE_2
100
AcDbAlignedDimension
 13
2122.016407119
 23
961.8831157117
 14
995.016407119
 24
961.8831157117
 50
180.0
100
AcDbRotatedDimension
  0
LINE
  5
27F
100
AcDbEntity
  8
0
100
AcDbLine
 62
2
  6
CONTINUOUS
 10
3090.8127669051
 20
50.7862227406
 11
3180.8127669051
 21
50.7862227406
  0
LINE
  5
280
100
AcDbEntity
  8
0
100
AcDbLine
 62
2
  6
CONTINUOUS
 10
3090.8127669051
 20
50.7862227406
 11
3090.8127669051
 21
10.7862227406
  0
LINE
  5
281
100
AcDbEntity
  8
0
100
AcDbLine
 62
2
  6
CONTINUOUS
 10
3120.8127669051
 20
44.7862227406
 11
3180.8127669051
 21
44.7862227406
  0
LINE
  5
282
100
AcDbEntity
  8
0
100
AcDbLine
 62
2
  6
CONTINUOUS
 10
3120.8127669051
 20
38.7862227406
 11
3180.8127669051
 21
38.7862227406
  0
LINE
  5
283
100
AcDbEntity
  8
0
100
AcDbLine
 62
2
  6
CONTINUOUS
 10
3120.8127669051
 20
28.7862227406
 11
3180.8127669051
 21
28.7862227406
  0
LINE
  5
284
100
AcDbEntity
  8
0
100
AcDbLine
 62
2
  6
CONTINUOUS
 10
3090.8127669051
 20
23.7862227406
 11
3180.8127669051
 21
23.7862227406
  0
LINE
  5
285
100
AcDbEntity
  8
0
100
AcDbLine
 62
2
  6
CONTINUOUS
 10
3090.8127669051
 20
10.7862227406
 11
3180.8127669051
 21
10.7862227406
  0
LINE
  5
286
100
AcDbEntity
  8
0
100
AcDbLine
 62
2
  6
CONTINUOUS
 10
3120.8127669051
 20
50.7862227406
 11
3120.8127669051
 21
23.7862227406
  0
LINE
  5
287
100
AcDbEntity
  8
0
100
AcDbLine
 62
2
  6
CONTINUOUS
 10
3160.8127669051
 20
50.7862227406
 11
3160.8127669051
 21
38.7862227406
  0
LINE
  5
288
100
AcDbEntity
  8
0
100
AcDbLine
 62
2
  6
CONTINUOUS
 10
3180.8127669051
 20
50.7862227406
 11
3180.8127669051
 21
10.7862227406
  0
INSERT
  5
289
100
AcDbEntity
  8
0
100
AcDbBlockReference
 62
2
  6
CONTINUOUS
  2
LOGO2_BL0
 10
3104.6388139499
 20
37.2862227406
  0
MTEXT
  5
28A
100
AcDbEntity
  8
9_SOLID
100
AcDbMText
 62
2
  6
CONTINUOUS
  7
TEXTSTYLE_2
 71
1
 72
1
 10
3122.3002669051
 20
49.2862227406
 30
0.0
 11
1.0
 21
0.0
 31
0.0
  1
6F4_C_242
 40
3.0
 41
32.5714285714
  0
MTEXT
  5
28B
100
AcDbEntity
  8
0
100
AcDbMText
 62
2
  6
CONTINUOUS
  7
TEXTSTYLE_2
 71
1
 72
1
 10
3162.3002669051
 20
49.0362227406
 30
0.0
 11
1.0
 21
0.0
 31
0.0
  1
Rev:00
 40
3.5
 41
22.75
  0
MTEXT
  5
28C
100
AcDbEntity
  8
9_SOLID
100
AcDbMText
 62
2
  6
CONTINUOUS
  7
TEXTSTYLE_2
 71
1
 72
1
 10
3122.3002669051
 20
43.0362227406
 30
0.0
 11
1.0
 21
0.0
 31
0.0
  1
Scale:1:1
 40
3.5
 41
28.375
  0
MTEXT
  5
28D
100
AcDbEntity
  8
9_SOLID
100
AcDbMText
 62
2
  6
CONTINUOUS
  7
TEXTSTYLE_2
 71
1
 72
1
 10
3162.3002669051
 20
43.5362227406
 30
0.0
 11
1.0
 21
0.0
 31
0.0
  1
3200 by 2500
 40
3.5
 41
48.5
  0
MTEXT
  5
28E
100
AcDbEntity
  8
0
100
AcDbMText
 62
2
  6
CONTINUOUS
  7
TEXTSTYLE_2
 71
1
 72
1
 10
3122.3002669051
 20
35.5362227406
 30
0.0
 11
1.0
 21
0.0
 31
0.0
  1
CASS. BRENTA 2.3 ARRETRATA
 40
3.5
 41
108.125
  0
MTEXT
  5
28F
100
AcDbEntity
  8
0
100
AcDbMText
 62
2
  6
CONTINUOUS
  7
TEXTSTYLE_2
 71
1
 72
1
 10
3122.3002669051
 20
27.5362227406
 30
0.0
 11
1.0
 21
0.0
 31
0.0
  1
DATE:08/05/18
 40
2.5
 41
36.875
  0
MTEXT
  5
290
100
AcDbEntity
  8
9_SOLID
100
AcDbMText
 62
2
  6
CONTINUOUS
  7
TEXTSTYLE_2
 71
1
 72
1
 10
3092.3002669051
 20
23.4737227406
 30
0.0
 11
1.0
 21
0.0
 31
0.0
  1
Any integral or partial reproductions are prohibited \Pwithout prior authorisation of L {\Ftxt.shx;\W0.190476;\H2.250000; }& L Luce & Light s.r.l., \Pin accordance with the law in force. \PAll rights reserved.
 40
2.25
 41
134.5982142857
  0
LINE
  5
291
100
AcDbEntity
  8
0
100
AcDbLine
 62
7
  6
CONTINUOUS
 10
0.0
 20
0.0
 11
0.0
 21
2500.0
  0
LINE
  5
292
100
AcDbEntity
  8
0
100
AcDbLine
 62
7
  6
CONTINUOUS
 10
0.0
 20
0.0
 11
3200.0
 21
0.0
  0
LINE
  5
293
100
AcDbEntity
  8
0
100
AcDbLine
 62
7
  6
CONTINUOUS
 10
0.0
 20
2500.0
 11
3200.0
 21
2500.0
  0
LINE
  5
294
100
AcDbEntity
  8
0
100
AcDbLine
 62
7
  6
CONTINUOUS
 10
3200.0
 20
0.0
 11
3200.0
 21
2500.0
  0
LINE
  5
295
100
AcDbEntity
  8
6_ALL_SURFS
100
AcDbLine
 62
7
  6
CONTINUOUS
 10
620.0817355917
 20
979.5533648498
 11
620.3817355917
 21
979.4033648498
  0
LINE
  5
296
100
AcDbEntity
  8
6_ALL_SURFS
100
AcDbLine
 62
7
  6
CONTINUOUS
 10
623.0817355917
 20
979.5533648498
 11
623.3817355917
 21
979.4033648498
  0
LINE
  5
297
100
AcDbEntity
  8
6_ALL_SURFS
100
AcDbLine
 62
7
  6
CONTINUOUS
 10
626.0817355917
 20
979.5533648498
 11
626.3817355917
 21
979.4033648498
  0
LINE
  5
298
100
AcDbEntity
  8
6_ALL_SURFS
100
AcDbLine
 62
7
  6
CONTINUOUS
 10
629.0817355917
 20
979.5533648498
 11
629.3817355917
 21
979.4033648498
  0
LINE
  5
299
100
AcDbEntity
  8
6_ALL_SURFS
100
AcDbLine
 62
7
  6
CONTINUOUS
 10
632.0817355917
 20
979.5533648498
 11
632.3817355917
 21
979.4033648498
  0
LINE
  5
29A
100
AcDbEntity
  8
6_ALL_SURFS
100
AcDbLine
 62
7
  6
CONTINUOUS
 10
635.0817355917
 20
979.5533648498
 11
635.3817355917
 21
979.4033648498
  0
LINE
  5
29B
100
AcDbEntity
  8
7_ALL_FEATURES
100
AcDbLine
 62
7
  6
CONTINUOUS
 10
724.9817355917
 20
978.4033648498
 11
727.1272071821
 21
978.6179120089
  0
LINE
  5
29C
100
AcDbEntity
  8
6_ALL_SURFS
100
AcDbLine
 62
7
  6
CONTINUOUS
 10
620.0817355917
 20
978.4033648498
 11
617.9362640013
 21
978.6179120089
  0
LINE
  5
29D
100
AcDbEntity
  8
6_ALL_SURFS
100
AcDbLine
 62
7
  6
CONTINUOUS
 10
638.2317355917
 20
976.9033648498
 11
638.1317355917
 21
976.9033648498
  0
LINE
  5
29E
100
AcDbEntity
  8
7_ALL_FEATURES
100
AcDbLine
 62
7
  6
CONTINUOUS
 10
638.2317355917
 20
976.9033648498
 11
706.9317355917
 21
976.9033648498
  0
LINE
  5
29F
100
AcDbEntity
  8
6_ALL_SURFS
100
AcDbLine
 62
7
  6
CONTINUOUS
 10
637.4817355917
 20
978.4033648498
 11
635.3817355917
 21
978.4033648498
  0
LINE
  5
2A0
100
AcDbEntity
  8
6_ALL_SURFS
100
AcDbLine
 62
7
  6
CONTINUOUS
 10
634.7817355917
 20
978.4033648498
 11
632.3817355917
 21
978.4033648498
  0
LINE
  5
2A1
100
AcDbEntity
  8
6_ALL_SURFS
100
AcDbLine
 62
7
  6
CONTINUOUS
 10
631.7817355917
 20
978.4033648498
 11
629.3817355917
 21
978.4033648498
  0
LINE
  5
2A2
100
AcDbEntity
  8
6_ALL_SURFS
100
AcDbLine
 62
7
  6
CONTINUOUS
 10
628.7817355917
 20
978.4033648498
 11
626.3817355917
 21
978.4033648498
  0
LINE
  5
2A3
100
AcDbEntity
  8
6_ALL_SURFS
100
AcDbLine
 62
7
  6
CONTINUOUS
 10
625.7817355917
 20
978.4033648498
 11
623.3817355917
 21
978.4033648498
  0
LINE
  5
2A4
100
AcDbEntity
  8
6_ALL_SURFS
100
AcDbLine
 62
7
  6
CONTINUOUS
 10
622.7817355917
 20
978.4033648498
 11
620.0817355917
 21
978.4033648498
  0
LINE
  5
2A5
100
AcDbEntity
  8
7_ALL_FEATURES
100
AcDbLine
 62
7
  6
CONTINUOUS
 10
707.5817355917
 20
978.4033648498
 11
709.6817355917
 21
978.4033648498
  0
LINE
  5
2A6
100
AcDbEntity
  8
6_ALL_SURFS
100
AcDbLine
 62
7
  6
CONTINUOUS
 10
710.2817355917
 20
978.4033648498
 11
712.6817355917
 21
978.4033648498
  0
LINE
  5
2A7
100
AcDbEntity
  8
6_ALL_SURFS
100
AcDbLine
 62
7
  6
CONTINUOUS
 10
713.2817355917
 20
978.4033648498
 11
715.6817355917
 21
978.4033648498
  0
LINE
  5
2A8
100
AcDbEntity
  8
6_ALL_SURFS
100
AcDbLine
 62
7
  6
CONTINUOUS
 10
716.2817355917
 20
978.4033648498
 11
718.6817355917
 21
978.4033648498
  0
LINE
  5
2A9
100
AcDbEntity
  8
6_ALL_SURFS
100
AcDbLine
 62
7
  6
CONTINUOUS
 10
719.2817355917
 20
978.4033648498
 11
721.6817355917
 21
978.4033648498
  0
LINE
  5
2AA
100
AcDbEntity
  8
6_ALL_SURFS
100
AcDbLine
 62
7
  6
CONTINUOUS
 10
722.2817355917
 20
978.4033648498
 11
724.9817355917
 21
978.4033648498
  0
LINE
  5
2AB
100
AcDbEntity
  8
7_ALL_FEATURES
100
AcDbLine
 62
7
  6
CONTINUOUS
 10
727.0880322338
 20
979.4033648498
 11
725.2817355917
 21
979.4033648498
  0
LINE
  5
2AC
100
AcDbEntity
  8
6_ALL_SURFS
100
AcDbLine
 62
7
  6
CONTINUOUS
 10
724.6817355917
 20
979.4033648498
 11
722.2817355917
 21
979.4033648498
  0
LINE
  5
2AD
100
AcDbEntity
  8
6_ALL_SURFS
100
AcDbLine
 62
7
  6
CONTINUOUS
 10
721.6817355917
 20
979.4033648498
 11
719.2817355917
 21
979.4033648498
  0
LINE
  5
2AE
100
AcDbEntity
  8
6_ALL_SURFS
100
AcDbLine
 62
7
  6
CONTINUOUS
 10
718.6817355917
 20
979.4033648498
 11
716.2817355917
 21
979.4033648498
  0
LINE
  5
2AF
100
AcDbEntity
  8
6_ALL_SURFS
100
AcDbLine
 62
7
  6
CONTINUOUS
 10
715.6817355917
 20
979.4033648498
 11
713.2817355917
 21
979.4033648498
  0
LINE
  5
2B0
100
AcDbEntity
  8
6_ALL_SURFS
100
AcDbLine
 62
7
  6
CONTINUOUS
 10
712.6817355917
 20
979.4033648498
 11
710.2817355917
 21
979.4033648498
  0
LINE
  5
2B1
100
AcDbEntity
  8
7_ALL_FEATURES
100
AcDbLine
 62
7
  6
CONTINUOUS
 10
709.6817355917
 20
979.4033648498
 11
707.7817355917
 21
979.4033648498
  0
LINE
  5
2B2
100
AcDbEntity
  8
6_ALL_SURFS
100
AcDbLine
 62
7
  6
CONTINUOUS
 10
620.3817355917
 20
979.4033648498
 11
622.7817355917
 21
979.4033648498
  0
LINE
  5
2B3
100
AcDbEntity
  8
6_ALL_SURFS
100
AcDbLine
 62
7
  6
CONTINUOUS
 10
617.9754389496
 20
979.4033648498
 11
619.7817355917
 21
979.4033648498
  0
LINE
  5
2B4
100
AcDbEntity
  8
6_ALL_SURFS
100
AcDbLine
 62
7
  6
CONTINUOUS
 10
623.3817355917
 20
979.4033648498
 11
625.7817355917
 21
979.4033648498
  0
LINE
  5
2B5
100
AcDbEntity
  8
6_ALL_SURFS
100
AcDbLine
 62
7
  6
CONTINUOUS
 10
626.3817355917
 20
979.4033648498
 11
628.7817355917
 21
979.4033648498
  0
LINE
  5
2B6
100
AcDbEntity
  8
6_ALL_SURFS
100
AcDbLine
 62
7
  6
CONTINUOUS
 10
629.3817355917
 20
979.4033648498
 11
631.7817355917
 21
979.4033648498
  0
LINE
  5
2B7
100
AcDbEntity
  8
6_ALL_SURFS
100
AcDbLine
 62
7
  6
CONTINUOUS
 10
632.3817355917
 20
979.4033648498
 11
634.7817355917
 21
979.4033648498
  0
LINE
  5
2B8
100
AcDbEntity
  8
6_ALL_SURFS
100
AcDbLine
 62
7
  6
CONTINUOUS
 10
635.3817355917
 20
979.4033648498
 11
637.2817355917
 21
979.4033648498
  0
LINE
  5
2B9
100
AcDbEntity
  8
7_ALL_FEATURES
100
AcDbLine
 62
7
  6
CONTINUOUS
 10
637.4817355917
 20
977.6533648498
 11
637.4817355917
 21
1007.5533648498
  0
LINE
  5
2BA
100
AcDbEntity
  8
7_ALL_FEATURES
100
AcDbLine
 62
7
  6
CONTINUOUS
 10
639.1817355917
 20
1003.5283648498
 11
639.1817355917
 21
1004.2783648498
  0
LINE
  5
2BB
100
AcDbEntity
  8
7_ALL_FEATURES
100
AcDbLine
 62
7
  6
CONTINUOUS
 10
641.2530966024
 20
1046.7552688571
 11
645.2438148355
 21
1067.296399994
  0
LINE
  5
2BC
100
AcDbEntity
  8
7_ALL_FEATURES
100
AcDbLine
 62
7
  6
CONTINUOUS
 10
645.3321787623
 20
1067.2988885582
 11
640.4102426759
 21
1042.4143038872
  0
LINE
  5
2BD
100
AcDbEntity
  8
6_ALL_SURFS
100
AcDbLine
 62
7
  6
CONTINUOUS
 10
640.5004858306
 20
1043.3638746383
 11
641.3979436508
 21
1047.4079746925
  0
LINE
  5
2BE
100
AcDbEntity
  8
7_ALL_FEATURES
100
AcDbLine
 62
7
  6
CONTINUOUS
 10
640.0567355917
 20
1005.1533648498
 11
640.0567355917
 21
1004.2783648498
  0
LINE
  5
2BF
100
AcDbEntity
  8
7_ALL_FEATURES
100
AcDbLine
 62
7
  6
CONTINUOUS
 10
640.0567355917
 20
1003.5283648498
 11
640.0567355917
 21
1002.6533648498
  0
LINE
  5
2C0
100
AcDbEntity
  8
6_ALL_SURFS
100
AcDbLine
 62
7
  6
CONTINUOUS
 10
640.3817355917
 20
1009.8033648498
 11
640.3817355917
 21
1042.28063839
  0
LINE
  5
2C1
100
AcDbEntity
  8
7_ALL_FEATURES
100
AcDbLine
 62
7
  6
CONTINUOUS
 10
640.8067355917
 20
1002.6533648498
 11
640.8067355917
 21
1003.5283648498
  0
LINE
  5
2C2
100
AcDbEntity
  8
7_ALL_FEATURES
100
AcDbLine
 62
7
  6
CONTINUOUS
 10
640.8067355917
 20
1004.2783648498
 11
640.8067355917
 21
1005.1533648498
  0
LINE
  5
2C3
100
AcDbEntity
  8
7_ALL_FEATURES
100
AcDbLine
 62
7
  6
CONTINUOUS
 10
641.6817355917
 20
1004.2783648498
 11
641.6817355917
 21
1003.5283648498
  0
LINE
  5
2C4
100
AcDbEntity
  8
7_ALL_FEATURES
100
AcDbLine
 62
7
  6
CONTINUOUS
 10
648.3317355917
 20
1064.2783648498
 11
648.3317355917
 21
1065.0283648498
  0
LINE
  5
2C5
100
AcDbEntity
  8
7_ALL_FEATURES
100
AcDbLine
 62
7
  6
CONTINUOUS
 10
649.2067355917
 20
1065.9033648498
 11
649.2067355917
 21
1065.0283648498
  0
LINE
  5
2C6
100
AcDbEntity
  8
7_ALL_FEATURES
100
AcDbLine
 62
7
  6
CONTINUOUS
 10
649.2067355917
 20
1064.2783648498
 11
649.2067355917
 21
1063.4033648498
  0
LINE
  5
2C7
100
AcDbEntity
  8
7_ALL_FEATURES
100
AcDbLine
 62
7
  6
CONTINUOUS
 10
649.9567355917
 20
1063.4033648498
 11
649.9567355917
 21
1064.2783648498
  0
LINE
  5
2C8
100
AcDbEntity
  8
7_ALL_FEATURES
100
AcDbLine
 62
7
  6
CONTINUOUS
 10
649.9567355917
 20
1065.0283648498
 11
649.9567355917
 21
1065.9033648498
  0
LINE
  5
2C9
100
AcDbEntity
  8
7_ALL_FEATURES
100
AcDbLine
 62
7
  6
CONTINUOUS
 10
650.8317355917
 20
1065.0283648498
 11
650.8317355917
 21
1064.2783648498
  0
LINE
  5
2CA
100
AcDbEntity
  8
7_ALL_FEATURES
100
AcDbLine
 62
7
  6
CONTINUOUS
 10
705.0067355917
 20
1002.6533648498
 11
704.2567355917
 21
1002.6533648498
  0
LINE
  5
2CB
100
AcDbEntity
  8
7_ALL_FEATURES
100
AcDbLine
 62
7
  6
CONTINUOUS
 10
640.8067355917
 20
1002.6533648498
 11
640.0567355917
 21
1002.6533648498
  0
LINE
  5
2CC
100
AcDbEntity
  8
7_ALL_FEATURES
100
AcDbLine
 62
7
  6
CONTINUOUS
 10
639.1817355917
 20
1003.5283648498
 11
640.0567355917
 21
1003.5283648498
  0
LINE
  5
2CD
100
AcDbEntity
  8
7_ALL_FEATURES
100
AcDbLine
 62
7
  6
CONTINUOUS
 10
640.8067355917
 20
1003.5283648498
 11
641.6817355917
 21
1003.5283648498
  0
LINE
  5
2CE
100
AcDbEntity
  8
7_ALL_FEATURES
100
AcDbLine
 62
7
  6
CONTINUOUS
 10
703.3817355917
 20
1003.5283648498
 11
704.2567355917
 21
1003.5283648498
  0
LINE
  5
2CF
100
AcDbEntity
  8
7_ALL_FEATURES
100
AcDbLine
 62
7
  6
CONTINUOUS
 10
705.0067355917
 20
1003.5283648498
 11
705.8817355917
 21
1003.5283648498
  0
LINE
  5
2D0
100
AcDbEntity
  8
6_ALL_SURFS
100
AcDbLine
 62
7
  6
CONTINUOUS
 10
710.2817355917
 20
979.4033648498
 11
709.9817355917
 21
979.5533648498
  0
LINE
  5
2D1
100
AcDbEntity
  8
6_ALL_SURFS
100
AcDbLine
 62
7
  6
CONTINUOUS
 10
713.2817355917
 20
979.4033648498
 11
712.9817355917
 21
979.5533648498
  0
LINE
  5
2D2
100
AcDbEntity
  8
6_ALL_SURFS
100
AcDbLine
 62
7
  6
CONTINUOUS
 10
716.2817355917
 20
979.4033648498
 11
715.9817355917
 21
979.5533648498
  0
LINE
  5
2D3
100
AcDbEntity
  8
7_ALL_FEATURES
100
AcDbLine
 62
7
  6
CONTINUOUS
 10
705.8817355917
 20
1004.2783648498
 11
705.0067355917
 21
1004.2783648498
  0
LINE
  5
2D4
100
AcDbEntity
  8
7_ALL_FEATURES
100
AcDbLine
 62
7
  6
CONTINUOUS
 10
704.2567355917
 20
1004.2783648498
 11
703.3817355917
 21
1004.2783648498
  0
LINE
  5
2D5
100
AcDbEntity
  8
7_ALL_FEATURES
100
AcDbLine
 62
7
  6
CONTINUOUS
 10
641.6817355917
 20
1004.2783648498
 11
640.8067355917
 21
1004.2783648498
  0
LINE
  5
2D6
100
AcDbEntity
  8
7_ALL_FEATURES
100
AcDbLine
 62
7
  6
CONTINUOUS
 10
640.0567355917
 20
1004.2783648498
 11
639.1817355917
 21
1004.2783648498
  0
LINE
  5
2D7
100
AcDbEntity
  8
7_ALL_FEATURES
100
AcDbLine
 62
7
  6
CONTINUOUS
 10
640.0567355917
 20
1005.1533648498
 11
640.8067355917
 21
1005.1533648498
  0
LINE
  5
2D8
100
AcDbEntity
  8
7_ALL_FEATURES
100
AcDbLine
 62
7
  6
CONTINUOUS
 10
704.2567355917
 20
1005.1533648498
 11
705.0067355917
 21
1005.1533648498
  0
LINE
  5
2D9
100
AcDbEntity
  8
6_ALL_SURFS
100
AcDbLine
 62
7
  6
CONTINUOUS
 10
706.8317355917
 20
1008.3033648498
 11
706.1817355917
 21
1008.3033648498
  0
LINE
  5
2DA
100
AcDbEntity
  8
6_ALL_SURFS
100
AcDbLine
 62
7
  6
CONTINUOUS
 10
638.8817355917
 20
1008.3033648498
 11
638.2317355917
 21
1008.3033648498
  0
LINE
  5
2DB
100
AcDbEntity
  8
6_ALL_SURFS
100
AcDbLine
 62
7
  6
CONTINUOUS
 10
719.2817355917
 20
979.4033648498
 11
718.9817355917
 21
979.5533648498
  0
LINE
  5
2DC
100
AcDbEntity
  8
6_ALL_SURFS
100
AcDbLine
 62
7
  6
CONTINUOUS
 10
722.2817355917
 20
979.4033648498
 11
721.9817355917
 21
979.5533648498
  0
LINE
  5
2DD
100
AcDbEntity
  8
6_ALL_SURFS
100
AcDbLine
 62
7
  6
CONTINUOUS
 10
725.2817355917
 20
979.4033648498
 11
724.9817355917
 21
979.5533648498
  0
LINE
  5
2DE
100
AcDbEntity
  8
7_ALL_FEATURES
100
AcDbLine
 62
7
  6
CONTINUOUS
 10
668.5317355917
 20
1058.338013545
 11
668.5317355917
 21
1059.1485483433
  0
LINE
  5
2DF
100
AcDbEntity
  8
7_ALL_FEATURES
100
AcDbLine
 62
7
  6
CONTINUOUS
 10
676.5317355917
 20
1058.338013545
 11
676.5317355917
 21
1059.1485483433
  0
LINE
  5
2E0
100
AcDbEntity
  8
6_ALL_SURFS
100
AcDbLine
 62
7
  6
CONTINUOUS
 10
619.7817355917
 20
979.4033648498
 11
620.0817355917
 21
979.5533648498
  0
LINE
  5
2E1
100
AcDbEntity
  8
6_ALL_SURFS
100
AcDbLine
 62
7
  6
CONTINUOUS
 10
622.7817355917
 20
979.4033648498
 11
623.0817355917
 21
979.5533648498
  0
LINE
  5
2E2
100
AcDbEntity
  8
6_ALL_SURFS
100
AcDbLine
 62
7
  6
CONTINUOUS
 10
625.7817355917
 20
979.4033648498
 11
626.0817355917
 21
979.5533648498
  0
LINE
  5
2E3
100
AcDbEntity
  8
6_ALL_SURFS
100
AcDbLine
 62
7
  6
CONTINUOUS
 10
628.7817355917
 20
979.4033648498
 11
629.0817355917
 21
979.5533648498
  0
LINE
  5
2E4
100
AcDbEntity
  8
7_ALL_FEATURES
100
AcDbLine
 62
7
  6
CONTINUOUS
 10
694.2317355917
 20
1064.2783648498
 11
694.2317355917
 21
1065.0283648498
  0
LINE
  5
2E5
100
AcDbEntity
  8
7_ALL_FEATURES
100
AcDbLine
 62
7
  6
CONTINUOUS
 10
695.1067355917
 20
1065.9033648498
 11
695.1067355917
 21
1065.0283648498
  0
LINE
  5
2E6
100
AcDbEntity
  8
7_ALL_FEATURES
100
AcDbLine
 62
7
  6
CONTINUOUS
 10
695.1067355917
 20
1064.2783648498
 11
695.1067355917
 21
1063.4033648498
  0
LINE
  5
2E7
100
AcDbEntity
  8
7_ALL_FEATURES
100
AcDbLine
 62
7
  6
CONTINUOUS
 10
695.8567355917
 20
1063.4033648498
 11
695.8567355917
 21
1064.2783648498
  0
LINE
  5
2E8
100
AcDbEntity
  8
7_ALL_FEATURES
100
AcDbLine
 62
7
  6
CONTINUOUS
 10
695.8567355917
 20
1065.0283648498
 11
695.8567355917
 21
1065.9033648498
  0
LINE
  5
2E9
100
AcDbEntity
  8
7_ALL_FEATURES
100
AcDbLine
 62
7
  6
CONTINUOUS
 10
696.7317355917
 20
1065.0283648498
 11
696.7317355917
 21
1064.2783648498
  0
LINE
  5
2EA
100
AcDbEntity
  8
6_ALL_SURFS
100
AcDbLine
 62
7
  6
CONTINUOUS
 10
631.7817355917
 20
979.4033648498
 11
632.0817355917
 21
979.5533648498
  0
LINE
  5
2EB
100
AcDbEntity
  8
6_ALL_SURFS
100
AcDbLine
 62
7
  6
CONTINUOUS
 10
634.7817355917
 20
979.4033648498
 11
635.0817355917
 21
979.5533648498
  0
LINE
  5
2EC
100
AcDbEntity
  8
6_ALL_SURFS
100
AcDbLine
 62
7
  6
CONTINUOUS
 10
683.5139655565
 20
1048.2783648498
 11
682.762662969
 21
1048.2783648498
  0
LINE
  5
2ED
100
AcDbEntity
  8
6_ALL_SURFS
100
AcDbLine
 62
7
  6
CONTINUOUS
 10
662.3008082144
 20
1048.2783648498
 11
661.5495056269
 21
1048.2783648498
  0
LINE
  5
2EE
100
AcDbEntity
  8
6_ALL_SURFS
100
AcDbLine
 62
7
  6
CONTINUOUS
 10
661.5495056269
 20
1049.5283648498
 11
662.3008082144
 21
1049.5283648498
  0
LINE
  5
2EF
100
AcDbEntity
  8
6_ALL_SURFS
100
AcDbLine
 62
7
  6
CONTINUOUS
 10
682.762662969
 20
1049.5283648498
 11
683.5139655565
 21
1049.5283648498
  0
LINE
  5
2F0
100
AcDbEntity
  8
7_ALL_FEATURES
100
AcDbLine
 62
7
  6
CONTINUOUS
 10
703.3817355917
 20
1003.5283648498
 11
703.3817355917
 21
1004.2783648498
  0
LINE
  5
2F1
100
AcDbEntity
  8
7_ALL_FEATURES
100
AcDbLine
 62
7
  6
CONTINUOUS
 10
704.2567355917
 20
1005.1533648498
 11
704.2567355917
 21
1004.2783648498
  0
LINE
  5
2F2
100
AcDbEntity
  8
7_ALL_FEATURES
100
AcDbLine
 62
7
  6
CONTINUOUS
 10
704.2567355917
 20
1003.5283648498
 11
704.2567355917
 21
1002.6533648498
  0
LINE
  5
2F3
100
AcDbEntity
  8
6_ALL_SURFS
100
AcDbLine
 62
7
  6
CONTINUOUS
 10
704.6817355917
 20
1009.8033648498
 11
704.6817355917
 21
1042.1280938585
  0
LINE
  5
2F4
100
AcDbEntity
  8
7_ALL_FEATURES
100
AcDbLine
 62
7
  6
CONTINUOUS
 10
704.6817355917
 20
1042.1280938585
 11
704.6817355917
 21
1042.28063839
  0
LINE
  5
2F5
100
AcDbEntity
  8
7_ALL_FEATURES
100
AcDbLine
 62
7
  6
CONTINUOUS
 10
705.0067355917
 20
1002.6533648498
 11
705.0067355917
 21
1003.5283648498
  0
LINE
  5
2F6
100
AcDbEntity
  8
7_ALL_FEATURES
100
AcDbLine
 62
7
  6
CONTINUOUS
 10
705.0067355917
 20
1004.2783648498
 11
705.0067355917
 21
1005.1533648498
  0
LINE
  5
2F7
100
AcDbEntity
  8
7_ALL_FEATURES
100
AcDbLine
 62
7
  6
CONTINUOUS
 10
705.8817355917
 20
1004.2783648498
 11
705.8817355917
 21
1003.5283648498
  0
LINE
  5
2F8
100
AcDbEntity
  8
7_ALL_FEATURES
100
AcDbLine
 62
7
  6
CONTINUOUS
 10
707.5817355917
 20
1007.5533648498
 11
707.5817355917
 21
977.6533648498
  0
LINE
  5
2F9
100
AcDbEntity
  8
7_ALL_FEATURES
100
AcDbLine
 62
7
  6
CONTINUOUS
 10
704.5629853528
 20
1043.3638746383
 11
703.810374581
 21
1046.7552688571
  0
LINE
  5
2FA
100
AcDbEntity
  8
7_ALL_FEATURES
100
AcDbLine
 62
7
  6
CONTINUOUS
 10
699.8196563479
 20
1067.296399994
 11
704.6606617207
 21
1042.3786482538
  0
LINE
  5
2FB
100
AcDbEntity
  8
7_ALL_FEATURES
100
AcDbLine
 62
7
  6
CONTINUOUS
 10
695.8567355917
 20
1063.4033648498
 11
695.1067355917
 21
1063.4033648498
  0
LINE
  5
2FC
100
AcDbEntity
  8
7_ALL_FEATURES
100
AcDbLine
 62
7
  6
CONTINUOUS
 10
649.9567355917
 20
1063.4033648498
 11
649.2067355917
 21
1063.4033648498
  0
LINE
  5
2FD
100
AcDbEntity
  8
7_ALL_FEATURES
100
AcDbLine
 62
7
  6
CONTINUOUS
 10
648.3317355917
 20
1064.2783648498
 11
649.2067355917
 21
1064.2783648498
  0
LINE
  5
2FE
100
AcDbEntity
  8
7_ALL_FEATURES
100
AcDbLine
 62
7
  6
CONTINUOUS
 10
649.9567355917
 20
1064.2783648498
 11
650.8317355917
 21
1064.2783648498
  0
LINE
  5
2FF
100
AcDbEntity
  8
7_ALL_FEATURES
100
AcDbLine
 62
7
  6
CONTINUOUS
 10
694.2317355917
 20
1064.2783648498
 11
695.1067355917
 21
1064.2783648498
  0
LINE
  5
300
100
AcDbEntity
  8
7_ALL_FEATURES
100
AcDbLine
 62
7
  6
CONTINUOUS
 10
695.8567355917
 20
1064.2783648498
 11
696.7317355917
 21
1064.2783648498
  0
LINE
  5
301
100
AcDbEntity
  8
7_ALL_FEATURES
100
AcDbLine
 62
7
  6
CONTINUOUS
 10
696.7317355917
 20
1065.0283648498
 11
695.8567355917
 21
1065.0283648498
  0
LINE
  5
302
100
AcDbEntity
  8
7_ALL_FEATURES
100
AcDbLine
 62
7
  6
CONTINUOUS
 10
695.1067355917
 20
1065.0283648498
 11
694.2317355917
 21
1065.0283648498
  0
LINE
  5
303
100
AcDbEntity
  8
7_ALL_FEATURES
100
AcDbLine
 62
7
  6
CONTINUOUS
 10
650.8317355917
 20
1065.0283648498
 11
649.9567355917
 21
1065.0283648498
  0
LINE
  5
304
100
AcDbEntity
  8
7_ALL_FEATURES
100
AcDbLine
 62
7
  6
CONTINUOUS
 10
649.2067355917
 20
1065.0283648498
 11
648.3317355917
 21
1065.0283648498
  0
LINE
  5
305
100
AcDbEntity
  8
7_ALL_FEATURES
100
AcDbLine
 62
7
  6
CONTINUOUS
 10
649.2067355917
 20
1065.9033648498
 11
649.9567355917
 21
1065.9033648498
  0
LINE
  5
306
100
AcDbEntity
  8
7_ALL_FEATURES
100
AcDbLine
 62
7
  6
CONTINUOUS
 10
695.1067355917
 20
1065.9033648498
 11
695.8567355917
 21
1065.9033648498
  0
LINE
  5
307
100
AcDbEntity
  8
7_ALL_FEATURES
100
AcDbLine
 62
7
  6
CONTINUOUS
 10
699.0834220458
 20
1067.9033648498
 11
675.1774869028
 21
1067.9033648498
  0
LINE
  5
308
100
AcDbEntity
  8
7_ALL_FEATURES
100
AcDbLine
 62
7
  6
CONTINUOUS
 10
669.8859842806
 20
1067.9033648498
 11
646.0679252202
 21
1067.9033648498
  0
LINE
  5
309
100
AcDbEntity
  8
7_ALL_FEATURES
100
AcDbLine
 62
7
  6
CONTINUOUS
 10
670.4317355917
 20
1067.9033648498
 11
674.6317355917
 21
1067.9033648498
  0
LINE
  5
30A
100
AcDbEntity
  8
6_ALL_SURFS
100
AcDbLine
 62
7
  6
CONTINUOUS
 10
709.9817355917
 20
979.5533648498
 11
709.6817355917
 21
979.4033648498
  0
LINE
  5
30B
100
AcDbEntity
  8
6_ALL_SURFS
100
AcDbLine
 62
7
  6
CONTINUOUS
 10
712.9817355917
 20
979.5533648498
 11
712.6817355917
 21
979.4033648498
  0
LINE
  5
30C
100
AcDbEntity
  8
6_ALL_SURFS
100
AcDbLine
 62
7
  6
CONTINUOUS
 10
715.9817355917
 20
979.5533648498
 11
715.6817355917
 21
979.4033648498
  0
LINE
  5
30D
100
AcDbEntity
  8
6_ALL_SURFS
100
AcDbLine
 62
7
  6
CONTINUOUS
 10
718.9817355917
 20
979.5533648498
 11
718.6817355917
 21
979.4033648498
  0
LINE
  5
30E
100
AcDbEntity
  8
6_ALL_SURFS
100
AcDbLine
 62
7
  6
CONTINUOUS
 10
721.9817355917
 20
979.5533648498
 11
721.6817355917
 21
979.4033648498
  0
LINE
  5
30F
100
AcDbEntity
  8
6_ALL_SURFS
100
AcDbLine
 62
7
  6
CONTINUOUS
 10
724.9817355917
 20
979.5533648498
 11
724.6817355917
 21
979.4033648498
  0
LINE
  5
310
100
AcDbEntity
  8
3_ALL_AXES
100
AcDbLine
 62
7
  6
CONTINUOUS
 10
993.916407119
 20
1001.153412916
 11
993.916407119
 21
1006.6533167837
  0
LINE
  5
311
100
AcDbEntity
  8
3_ALL_AXES
100
AcDbLine
 62
7
  6
CONTINUOUS
 10
993.916407119
 20
1061.903412916
 11
993.916407119
 21
1067.4033167837
  0
LINE
  5
312
100
AcDbEntity
  8
3_ALL_AXES
100
AcDbLine
 62
7
  6
CONTINUOUS
 10
994.0671274486
 20
1001.1533648498
 11
994.0671274486
 21
1006.6533648498
  0
LINE
  5
313
100
AcDbEntity
  8
3_ALL_AXES
100
AcDbLine
 62
7
  6
CONTINUOUS
 10
994.0671274486
 20
1061.9033648498
 11
994.0671274486
 21
1067.4033648498
  0
LINE
  5
314
100
AcDbEntity
  8
7_ALL_FEATURES
100
AcDbLine
 62
7
  6
CONTINUOUS
 10
995.016407119
 20
976.9033648498
 11
995.016407119
 21
1007.5533648498
  0
LINE
  5
315
100
AcDbEntity
  8
6_ALL_SURFS
100
AcDbLine
 62
7
  6
CONTINUOUS
 10
995.016407119
 20
1007.5533648498
 11
995.016407119
 21
1042.1280938585
  0
LINE
  5
316
100
AcDbEntity
  8
7_ALL_FEATURES
100
AcDbLine
 62
7
  6
CONTINUOUS
 10
995.016407119
 20
1042.1280938585
 11
995.016407119
 21
1067.9033648498
  0
LINE
  5
317
100
AcDbEntity
  8
7_ALL_FEATURES
100
AcDbLine
 62
7
  6
CONTINUOUS
 10
996.516407119
 20
1042.2119761086
 11
996.516407119
 21
1042.1280938585
  0
LINE
  5
318
100
AcDbEntity
  8
7_ALL_FEATURES
100
AcDbLine
 62
7
  6
CONTINUOUS
 10
996.516407119
 20
1007.5533648498
 11
996.516407119
 21
992.2755795679
  0
LINE
  5
319
100
AcDbEntity
  8
7_ALL_FEATURES
100
AcDbLine
 62
7
  6
CONTINUOUS
 10
996.516407119
 20
989.5350019921
 11
996.516407119
 21
979.5533648498
  0
LINE
  5
31A
100
AcDbEntity
  8
6_ALL_SURFS
100
AcDbLine
 62
7
  6
CONTINUOUS
 10
996.516407119
 20
976.9480723823
 11
996.516407119
 21
976.9033648498
  0
LINE
  5
31B
100
AcDbEntity
  8
7_ALL_FEATURES
100
AcDbLine
 62
7
  6
CONTINUOUS
 10
996.516407119
 20
976.9480723823
 11
996.516407119
 21
978.4033648498
  0
LINE
  5
31C
100
AcDbEntity
  8
6_ALL_SURFS
100
AcDbLine
 62
7
  6
CONTINUOUS
 10
996.516407119
 20
978.4033648498
 11
996.516407119
 21
979.5533648498
  0
LINE
  5
31D
100
AcDbEntity
  8
6_ALL_SURFS
100
AcDbLine
 62
7
  6
CONTINUOUS
 10
996.516407119
 20
989.5350019921
 11
996.516407119
 21
992.2755795679
  0
LINE
  5
31E
100
AcDbEntity
  8
6_ALL_SURFS
100
AcDbLine
 62
7
  6
CONTINUOUS
 10
996.516407119
 20
1002.5033648498
 11
996.516407119
 21
1005.3033648498
  0
LINE
  5
31F
100
AcDbEntity
  8
6_ALL_SURFS
100
AcDbLine
 62
7
  6
CONTINUOUS
 10
996.516407119
 20
1007.5533648498
 11
996.516407119
 21
1046.7552688571
  0
LINE
  5
320
100
AcDbEntity
  8
7_ALL_FEATURES
100
AcDbLine
 62
7
  6
CONTINUOUS
 10
996.516407119
 20
1046.7552688571
 11
996.516407119
 21
1067.9033648498
  0
LINE
  5
321
100
AcDbEntity
  8
3_ALL_AXES
100
AcDbLine
 62
7
  6
CONTINUOUS
 10
995.016407119
 20
1062.6999050711
 11
994.0671274486
 21
1061.9033648498
  0
LINE
  5
322
100
AcDbEntity
  8
3_ALL_AXES
100
AcDbLine
 62
7
  6
CONTINUOUS
 10
995.016407119
 20
1005.8568246285
 11
994.0671274486
 21
1006.6533648498
  0
LINE
  5
323
100
AcDbEntity
  8
3_ALL_AXES
100
AcDbLine
 62
7
  6
CONTINUOUS
 10
995.016407119
 20
1001.9499050711
 11
994.0671274486
 21
1001.1533648498
  0
LINE
  5
324
100
AcDbEntity
  8
3_ALL_AXES
100
AcDbLine
 62
7
  6
CONTINUOUS
 10
995.016407119
 20
1066.6068246285
 11
994.0671274486
 21
1067.4033648498
  0
LINE
  5
325
100
AcDbEntity
  8
6_ALL_SURFS
100
AcDbLine
 62
7
  6
CONTINUOUS
 10
2120.516407119
 20
976.9033648498
 11
996.516407119
 21
976.9033648498
  0
LINE
  5
326
100
AcDbEntity
  8
7_ALL_FEATURES
100
AcDbLine
 62
7
  6
CONTINUOUS
 10
996.516407119
 20
976.9033648498
 11
995.016407119
 21
976.9033648498
  0
LINE
  5
327
100
AcDbEntity
  8
7_ALL_FEATURES
100
AcDbLine
 62
7
  6
CONTINUOUS
 10
2120.516407119
 20
976.9033648498
 11
2122.016407119
 21
976.9033648498
  0
LINE
  5
328
100
AcDbEntity
  8
6_ALL_SURFS
100
AcDbLine
 62
9
  6
CONTINUOUS
 10
2120.516407119
 20
977.2033648498
 11
996.516407119
 21
977.2033648498
  0
LINE
  5
329
100
AcDbEntity
  8
7_ALL_FEATURES
100
AcDbLine
 62
9
  6
CONTINUOUS
 10
996.516407119
 20
977.6533648498
 11
995.016407119
 21
977.6533648498
  0
LINE
  5
32A
100
AcDbEntity
  8
7_ALL_FEATURES
100
AcDbLine
 62
9
  6
CONTINUOUS
 10
2120.516407119
 20
977.6533648498
 11
2122.016407119
 21
977.6533648498
  0
LINE
  5
32B
100
AcDbEntity
  8
6_ALL_SURFS
100
AcDbLine
 62
9
  6
CONTINUOUS
 10
996.516407119
 20
978.1033648498
 11
2120.516407119
 21
978.1033648498
  0
LINE
  5
32C
100
AcDbEntity
  8
6_ALL_SURFS
100
AcDbLine
 62
7
  6
CONTINUOUS
 10
996.516407119
 20
978.4033648498
 11
1055.2329993253
 21
978.4033648498
  0
LINE
  5
32D
100
AcDbEntity
  8
6_ALL_SURFS
100
AcDbLine
 62
7
  6
CONTINUOUS
 10
1055.2903804317
 20
978.4033648498
 11
1061.7424338063
 21
978.4033648498
  0
LINE
  5
32E
100
AcDbEntity
  8
6_ALL_SURFS
100
AcDbLine
 62
7
  6
CONTINUOUS
 10
1061.7998149127
 20
978.4033648498
 11
1305.2329993253
 21
978.4033648498
  0
LINE
  5
32F
100
AcDbEntity
  8
6_ALL_SURFS
100
AcDbLine
 62
7
  6
CONTINUOUS
 10
1305.2903804317
 20
978.4033648498
 11
1311.7424338063
 21
978.4033648498
  0
LINE
  5
330
100
AcDbEntity
  8
6_ALL_SURFS
100
AcDbLine
 62
7
  6
CONTINUOUS
 10
1311.7998149127
 20
978.4033648498
 11
1555.2329993253
 21
978.4033648498
  0
LINE
  5
331
100
AcDbEntity
  8
6_ALL_SURFS
100
AcDbLine
 62
7
  6
CONTINUOUS
 10
1555.2903804317
 20
978.4033648498
 11
1561.7424338063
 21
978.4033648498
  0
LINE
  5
332
100
AcDbEntity
  8
6_ALL_SURFS
100
AcDbLine
 62
7
  6
CONTINUOUS
 10
1561.7998149127
 20
978.4033648498
 11
1805.2329993253
 21
978.4033648498
  0
LINE
  5
333
100
AcDbEntity
  8
6_ALL_SURFS
100
AcDbLine
 62
7
  6
CONTINUOUS
 10
1805.2903804317
 20
978.4033648498
 11
1811.7424338063
 21
978.4033648498
  0
LINE
  5
334
100
AcDbEntity
  8
6_ALL_SURFS
100
AcDbLine
 62
7
  6
CONTINUOUS
 10
1811.7998149127
 20
978.4033648498
 11
2055.2329993253
 21
978.4033648498
  0
LINE
  5
335
100
AcDbEntity
  8
6_ALL_SURFS
100
AcDbLine
 62
7
  6
CONTINUOUS
 10
2055.2903804317
 20
978.4033648498
 11
2061.7424338063
 21
978.4033648498
  0
LINE
  5
336
100
AcDbEntity
  8
6_ALL_SURFS
100
AcDbLine
 62
7
  6
CONTINUOUS
 10
2061.7998149127
 20
978.4033648498
 11
2120.516407119
 21
978.4033648498
  0
LINE
  5
337
100
AcDbEntity
  8
6_ALL_SURFS
100
AcDbLine
 62
9
  6
CONTINUOUS
 10
996.516407119
 20
978.6179120089
 11
2120.516407119
 21
978.6179120089
  0
LINE
  5
338
100
AcDbEntity
  8
6_ALL_SURFS
100
AcDbLine
 62
7
  6
CONTINUOUS
 10
996.516407119
 20
979.4033648498
 11
2120.516407119
 21
979.4033648498
  0
LINE
  5
339
100
AcDbEntity
  8
6_ALL_SURFS
100
AcDbLine
 62
7
  6
CONTINUOUS
 10
996.516407119
 20
979.5533648498
 11
2120.516407119
 21
979.5533648498
  0
LINE
  5
33A
100
AcDbEntity
  8
6_ALL_SURFS
100
AcDbLine
 62
9
  6
CONTINUOUS
 10
996.516407119
 20
979.7033648498
 11
2120.516407119
 21
979.7033648498
  0
LINE
  5
33B
100
AcDbEntity
  8
6_ALL_SURFS
100
AcDbLine
 62
7
  6
CONTINUOUS
 10
996.516407119
 20
989.4153243374
 11
2120.516407119
 21
989.4153243374
  0
LINE
  5
33C
100
AcDbEntity
  8
6_ALL_SURFS
100
AcDbLine
 62
7
  6
CONTINUOUS
 10
996.516407119
 20
992.3952572226
 11
2120.516407119
 21
992.3952572226
  0
LINE
  5
33D
100
AcDbEntity
  8
6_ALL_SURFS
100
AcDbLine
 62
9
  6
CONTINUOUS
 10
2120.516407119
 20
995.9033648498
 11
996.516407119
 21
995.9033648498
  0
LINE
  5
33E
100
AcDbEntity
  8
6_ALL_SURFS
100
AcDbLine
 62
9
  6
CONTINUOUS
 10
2120.516407119
 20
996.9263623899
 11
996.516407119
 21
996.9263623899
  0
LINE
  5
33F
100
AcDbEntity
  8
6_ALL_SURFS
100
AcDbLine
 62
9
  6
CONTINUOUS
 10
996.516407119
 20
999.088725973
 11
2120.516407119
 21
999.088725973
  0
LINE
  5
340
100
AcDbEntity
  8
6_ALL_SURFS
100
AcDbLine
 62
9
  6
CONTINUOUS
 10
996.516407119
 20
999.293325481
 11
2120.516407119
 21
999.293325481
  0
LINE
  5
341
100
AcDbEntity
  8
6_ALL_SURFS
100
AcDbLine
 62
9
  6
CONTINUOUS
 10
996.516407119
 20
1000.7033648498
 11
2120.516407119
 21
1000.7033648498
  0
LINE
  5
342
100
AcDbEntity
  8
6_ALL_SURFS
100
AcDbLine
 62
7
  6
CONTINUOUS
 10
2120.516407119
 20
1001.0033648498
 11
996.516407119
 21
1001.0033648498
  0
LINE
  5
343
100
AcDbEntity
  8
3_ALL_AXES
100
AcDbLine
 62
7
  6
CONTINUOUS
 10
994.0671274486
 20
1001.1533648498
 11
993.916407119
 21
1001.1533648498
  0
LINE
  5
344
100
AcDbEntity
  8
3_ALL_AXES
100
AcDbLine
 62
7
  6
CONTINUOUS
 10
2122.9656867894
 20
1001.1533648498
 11
2123.116407119
 21
1001.1533648498
  0
LINE
  5
345
100
AcDbEntity
  8
6_ALL_SURFS
100
AcDbLine
 62
9
  6
CONTINUOUS
 10
2120.516407119
 20
1002.5033648498
 11
996.516407119
 21
1002.5033648498
  0
LINE
  5
346
100
AcDbEntity
  8
6_ALL_SURFS
100
AcDbLine
 62
9
  6
CONTINUOUS
 10
2120.516407119
 20
1005.3033648498
 11
996.516407119
 21
1005.3033648498
  0
LINE
  5
347
100
AcDbEntity
  8
3_ALL_AXES
100
AcDbLine
 62
7
  6
CONTINUOUS
 10
994.0671274486
 20
1006.6533648498
 11
993.916407119
 21
1006.6533648498
  0
LINE
  5
348
100
AcDbEntity
  8
3_ALL_AXES
100
AcDbLine
 62
7
  6
CONTINUOUS
 10
2122.9656867894
 20
1006.6533648498
 11
2123.116407119
 21
1006.6533648498
  0
LINE
  5
349
100
AcDbEntity
  8
6_ALL_SURFS
100
AcDbLine
 62
7
  6
CONTINUOUS
 10
2120.516407119
 20
1006.8033648498
 11
996.516407119
 21
1006.8033648498
  0
LINE
  5
34A
100
AcDbEntity
  8
6_ALL_SURFS
100
AcDbLine
 62
9
  6
CONTINUOUS
 10
996.516407119
 20
1007.1033648498
 11
2120.516407119
 21
1007.1033648498
  0
LINE
  5
34B
100
AcDbEntity
  8
6_ALL_SURFS
100
AcDbLine
 62
9
  6
CONTINUOUS
 10
2122.016407119
 20
1007.5533648498
 11
2120.516407119
 21
1007.5533648498
  0
LINE
  5
34C
100
AcDbEntity
  8
6_ALL_SURFS
100
AcDbLine
 62
9
  6
CONTINUOUS
 10
995.016407119
 20
1007.5533648498
 11
996.516407119
 21
1007.5533648498
  0
LINE
  5
34D
100
AcDbEntity
  8
6_ALL_SURFS
100
AcDbLine
 62
7
  6
CONTINUOUS
 10
2122.016407119
 20
1008.3033648498
 11
2120.516407119
 21
1008.3033648498
  0
LINE
  5
34E
100
AcDbEntity
  8
6_ALL_SURFS
100
AcDbLine
 62
7
  6
CONTINUOUS
 10
995.016407119
 20
1008.3033648498
 11
996.516407119
 21
1008.3033648498
  0
LINE
  5
34F
100
AcDbEntity
  8
6_ALL_SURFS
100
AcDbLine
 62
9
  6
CONTINUOUS
 10
996.516407119
 20
1009.8033648498
 11
995.016407119
 21
1009.8033648498
  0
LINE
  5
350
100
AcDbEntity
  8
6_ALL_SURFS
100
AcDbLine
 62
9
  6
CONTINUOUS
 10
2120.516407119
 20
1009.8033648498
 11
2122.016407119
 21
1009.8033648498
  0
LINE
  5
351
100
AcDbEntity
  8
6_ALL_SURFS
100
AcDbLine
 62
9
  6
CONTINUOUS
 10
2122.016407119
 20
1042.1232564705
 11
2120.516407119
 21
1042.1232564705
  0
LINE
  5
352
100
AcDbEntity
  8
6_ALL_SURFS
100
AcDbLine
 62
9
  6
CONTINUOUS
 10
995.016407119
 20
1042.1280938585
 11
996.516407119
 21
1042.1280938585
  0
LINE
  5
353
100
AcDbEntity
  8
6_ALL_SURFS
100
AcDbLine
 62
9
  6
CONTINUOUS
 10
2120.516407119
 20
1042.28063839
 11
996.516407119
 21
1042.28063839
  0
LINE
  5
354
100
AcDbEntity
  8
7_ALL_FEATURES
100
AcDbLine
 62
7
  6
CONTINUOUS
 10
995.016407119
 20
1042.3786482538
 11
996.516407119
 21
1042.3786482538
  0
LINE
  5
355
100
AcDbEntity
  8
6_ALL_SURFS
100
AcDbLine
 62
9
  6
CONTINUOUS
 10
2122.016407119
 20
1042.4143038872
 11
2120.516407119
 21
1042.4143038872
  0
LINE
  5
356
100
AcDbEntity
  8
6_ALL_SURFS
100
AcDbLine
 62
9
  6
CONTINUOUS
 10
2120.516407119
 20
1043.3638746383
 11
996.516407119
 21
1043.3638746383
  0
LINE
  5
357
100
AcDbEntity
  8
6_ALL_SURFS
100
AcDbLine
 62
9
  6
CONTINUOUS
 10
2120.516407119
 20
1061.3283357243
 11
996.516407119
 21
1061.3283357243
  0
LINE
  5
358
100
AcDbEntity
  8
3_ALL_AXES
100
AcDbLine
 62
7
  6
CONTINUOUS
 10
994.0671274486
 20
1061.9033648498
 11
993.916407119
 21
1061.9033648498
  0
LINE
  5
359
100
AcDbEntity
  8
3_ALL_AXES
100
AcDbLine
 62
7
  6
CONTINUOUS
 10
2122.9656867894
 20
1061.9033648498
 11
2123.116407119
 21
1061.9033648498
  0
LINE
  5
35A
100
AcDbEntity
  8
6_ALL_SURFS
100
AcDbLine
 62
7
  6
CONTINUOUS
 10
2120.516407119
 20
1062.5033648498
 11
996.516407119
 21
1062.5033648498
  0
LINE
  5
35B
100
AcDbEntity
  8
6_ALL_SURFS
100
AcDbLine
 62
9
  6
CONTINUOUS
 10
996.516407119
 20
1063.2533648498
 11
2120.516407119
 21
1063.2533648498
  0
LINE
  5
35C
100
AcDbEntity
  8
6_ALL_SURFS
100
AcDbLine
 62
9
  6
CONTINUOUS
 10
996.516407119
 20
1065.8836678801
 11
2120.516407119
 21
1065.8836678801
  0
LINE
  5
35D
100
AcDbEntity
  8
6_ALL_SURFS
100
AcDbLine
 62
7
  6
CONTINUOUS
 10
2120.516407119
 20
1066.6033648498
 11
996.516407119
 21
1066.6033648498
  0
LINE
  5
35E
100
AcDbEntity
  8
6_ALL_SURFS
100
AcDbLine
 62
9
  6
CONTINUOUS
 10
2120.516407119
 20
1066.9033648498
 11
996.516407119
 21
1066.9033648498
  0
LINE
  5
35F
100
AcDbEntity
  8
7_ALL_FEATURES
100
AcDbLine
 62
9
  6
CONTINUOUS
 10
995.016407119
 20
1067.296399994
 11
996.516407119
 21
1067.296399994
  0
LINE
  5
360
100
AcDbEntity
  8
7_ALL_FEATURES
100
AcDbLine
 62
9
  6
CONTINUOUS
 10
2122.016407119
 20
1067.2988885582
 11
2120.516407119
 21
1067.2988885582
  0
LINE
  5
361
100
AcDbEntity
  8
3_ALL_AXES
100
AcDbLine
 62
7
  6
CONTINUOUS
 10
994.0671274486
 20
1067.4033648498
 11
993.916407119
 21
1067.4033648498
  0
LINE
  5
362
100
AcDbEntity
  8
3_ALL_AXES
100
AcDbLine
 62
7
  6
CONTINUOUS
 10
2122.9656867894
 20
1067.4033648498
 11
2123.116407119
 21
1067.4033648498
  0
LINE
  5
363
100
AcDbEntity
  8
6_ALL_SURFS
100
AcDbLine
 62
9
  6
CONTINUOUS
 10
2120.516407119
 20
1067.6033648498
 11
996.516407119
 21
1067.6033648498
  0
LINE
  5
364
100
AcDbEntity
  8
7_ALL_FEATURES
100
AcDbLine
 62
7
  6
CONTINUOUS
 10
2122.016407119
 20
1067.9033648498
 11
2120.516407119
 21
1067.9033648498
  0
LINE
  5
365
100
AcDbEntity
  8
6_ALL_SURFS
100
AcDbLine
 62
7
  6
CONTINUOUS
 10
2120.516407119
 20
1067.9033648498
 11
996.516407119
 21
1067.9033648498
  0
LINE
  5
366
100
AcDbEntity
  8
7_ALL_FEATURES
100
AcDbLine
 62
7
  6
CONTINUOUS
 10
995.016407119
 20
1067.9033648498
 11
996.516407119
 21
1067.9033648498
  0
LINE
  5
367
100
AcDbEntity
  8
3_ALL_AXES
100
AcDbLine
 62
7
  6
CONTINUOUS
 10
2122.016407119
 20
1066.6068246285
 11
2122.9656867894
 21
1067.4033648498
  0
LINE
  5
368
100
AcDbEntity
  8
3_ALL_AXES
100
AcDbLine
 62
7
  6
CONTINUOUS
 10
2122.016407119
 20
1005.8568246285
 11
2122.9656867894
 21
1006.6533648498
  0
LINE
  5
369
100
AcDbEntity
  8
3_ALL_AXES
100
AcDbLine
 62
7
  6
CONTINUOUS
 10
2122.016407119
 20
1001.9499050711
 11
2122.9656867894
 21
1001.1533648498
  0
LINE
  5
36A
100
AcDbEntity
  8
3_ALL_AXES
100
AcDbLine
 62
7
  6
CONTINUOUS
 10
2122.016407119
 20
1062.6999050711
 11
2122.9656867894
 21
1061.9033648498
  0
LINE
  5
36B
100
AcDbEntity
  8
6_ALL_SURFS
100
AcDbLine
 62
7
  6
CONTINUOUS
 10
2120.516407119
 20
976.9033648498
 11
2120.516407119
 21
976.9480723823
  0
LINE
  5
36C
100
AcDbEntity
  8
7_ALL_FEATURES
100
AcDbLine
 62
7
  6
CONTINUOUS
 10
2120.516407119
 20
976.9480723823
 11
2120.516407119
 21
978.4033648498
  0
LINE
  5
36D
100
AcDbEntity
  8
6_ALL_SURFS
100
AcDbLine
 62
7
  6
CONTINUOUS
 10
2120.516407119
 20
978.4033648498
 11
2120.516407119
 21
979.5533648498
  0
LINE
  5
36E
100
AcDbEntity
  8
7_ALL_FEATURES
100
AcDbLine
 62
7
  6
CONTINUOUS
 10
2120.516407119
 20
979.5533648498
 11
2120.516407119
 21
989.5350019921
  0
LINE
  5
36F
100
AcDbEntity
  8
6_ALL_SURFS
100
AcDbLine
 62
7
  6
CONTINUOUS
 10
2120.516407119
 20
989.5350019921
 11
2120.516407119
 21
992.2755795679
  0
LINE
  5
370
100
AcDbEntity
  8
6_ALL_SURFS
100
AcDbLine
 62
7
  6
CONTINUOUS
 10
2120.516407119
 20
1002.5033648498
 11
2120.516407119
 21
1005.3033648498
  0
LINE
  5
371
100
AcDbEntity
  8
7_ALL_FEATURES
100
AcDbLine
 62
7
  6
CONTINUOUS
 10
2120.516407119
 20
992.2755795679
 11
2120.516407119
 21
1007.5533648498
  0
LINE
  5
372
100
AcDbEntity
  8
6_ALL_SURFS
100
AcDbLine
 62
7
  6
CONTINUOUS
 10
2120.516407119
 20
1007.5533648498
 11
2120.516407119
 21
1047.4079746925
  0
LINE
  5
373
100
AcDbEntity
  8
7_ALL_FEATURES
100
AcDbLine
 62
7
  6
CONTINUOUS
 10
2120.516407119
 20
1047.4079746925
 11
2120.516407119
 21
1067.9033648498
  0
LINE
  5
374
100
AcDbEntity
  8
7_ALL_FEATURES
100
AcDbLine
 62
7
  6
CONTINUOUS
 10
2122.016407119
 20
1067.9033648498
 11
2122.016407119
 21
1042.4143038872
  0
LINE
  5
375
100
AcDbEntity
  8
6_ALL_SURFS
100
AcDbLine
 62
7
  6
CONTINUOUS
 10
2122.016407119
 20
1042.4143038872
 11
2122.016407119
 21
1007.5533648498
  0
LINE
  5
376
100
AcDbEntity
  8
7_ALL_FEATURES
100
AcDbLine
 62
7
  6
CONTINUOUS
 10
2122.016407119
 20
976.9033648498
 11
2122.016407119
 21
1007.5533648498
  0
LINE
  5
377
100
AcDbEntity
  8
3_ALL_AXES
100
AcDbLine
 62
7
  6
CONTINUOUS
 10
2122.9656867894
 20
1001.1533648498
 11
2122.9656867894
 21
1006.6533648498
  0
LINE
  5
378
100
AcDbEntity
  8
3_ALL_AXES
100
AcDbLine
 62
7
  6
CONTINUOUS
 10
2122.9656867894
 20
1061.9033648498
 11
2122.9656867894
 21
1067.4033648498
  0
LINE
  5
379
100
AcDbEntity
  8
3_ALL_AXES
100
AcDbLine
 62
7
  6
CONTINUOUS
 10
2123.116407119
 20
1001.153412916
 11
2123.116407119
 21
1006.6533167837
  0
LINE
  5
37A
100
AcDbEntity
  8
3_ALL_AXES
100
AcDbLine
 62
7
  6
CONTINUOUS
 10
2123.116407119
 20
1061.903412916
 11
2123.116407119
 21
1067.4033167837
  0
LINE
  5
37B
100
AcDbEntity
  8
3_ALL_AXES
100
AcDbLine
 62
7
  6
CONTINUOUS
 10
993.916407119
 20
1501.7474913271
 11
993.916407119
 21
1496.2474913271
  0
LINE
  5
37C
100
AcDbEntity
  8
3_ALL_AXES
100
AcDbLine
 62
7
  6
CONTINUOUS
 10
993.916407119
 20
1492.5974913271
 11
993.916407119
 21
1487.0974913271
  0
LINE
  5
37D
100
AcDbEntity
  8
3_ALL_AXES
100
AcDbLine
 62
7
  6
CONTINUOUS
 10
993.916407119
 20
1446.6974913271
 11
993.916407119
 21
1441.1974913271
  0
LINE
  5
37E
100
AcDbEntity
  8
3_ALL_AXES
100
AcDbLine
 62
7
  6
CONTINUOUS
 10
993.916407119
 20
1437.5474913271
 11
993.916407119
 21
1432.0474913271
  0
LINE
  5
37F
100
AcDbEntity
  8
3_ALL_AXES
100
AcDbLine
 62
7
  6
CONTINUOUS
 10
994.0671274486
 20
1501.7474913271
 11
994.0671274486
 21
1496.2474913271
  0
LINE
  5
380
100
AcDbEntity
  8
3_ALL_AXES
100
AcDbLine
 62
7
  6
CONTINUOUS
 10
994.0671274486
 20
1492.5974913271
 11
994.0671274486
 21
1487.0974913271
  0
LINE
  5
381
100
AcDbEntity
  8
3_ALL_AXES
100
AcDbLine
 62
7
  6
CONTINUOUS
 10
994.0671274486
 20
1446.6974913271
 11
994.0671274486
 21
1441.1974913271
  0
LINE
  5
382
100
AcDbEntity
  8
3_ALL_AXES
100
AcDbLine
 62
7
  6
CONTINUOUS
 10
994.0671274486
 20
1437.5474913271
 11
994.0671274486
 21
1432.0474913271
  0
LINE
  5
383
100
AcDbEntity
  8
7_ALL_FEATURES
100
AcDbLine
 62
7
  6
CONTINUOUS
 10
995.016407119
 20
1431.8474913271
 11
995.016407119
 21
1501.9474913271
  0
LINE
  5
384
100
AcDbEntity
  8
6_ALL_SURFS
100
AcDbLine
 62
7
  6
CONTINUOUS
 10
996.516407119
 20
1429.7474913271
 11
996.516407119
 21
1414.4474913271
  0
LINE
  5
385
100
AcDbEntity
  8
7_ALL_FEATURES
100
AcDbLine
 62
7
  6
CONTINUOUS
 10
996.516407119
 20
1411.9475016025
 11
996.516407119
 21
1414.4474913271
  0
LINE
  5
386
100
AcDbEntity
  8
7_ALL_FEATURES
100
AcDbLine
 62
7
  6
CONTINUOUS
 10
996.516407119
 20
1429.7474913271
 11
996.516407119
 21
1501.1974913271
  0
LINE
  5
387
100
AcDbEntity
  8
7_ALL_FEATURES
100
AcDbLine
 62
7
  6
CONTINUOUS
 10
996.516407119
 20
1501.451525936
 11
996.516407119
 21
1501.9474913271
  0
LINE
  5
388
100
AcDbEntity
  8
6_ALL_SURFS
100
AcDbLine
 62
7
  6
CONTINUOUS
 10
996.516407119
 20
1500.6474913271
 11
996.516407119
 21
1501.451525936
  0
LINE
  5
389
100
AcDbEntity
  8
6_ALL_SURFS
100
AcDbLine
 62
7
  6
CONTINUOUS
 10
996.516407119
 20
1501.9474913271
 11
996.516407119
 21
1521.8474810517
  0
LINE
  5
38A
100
AcDbEntity
  8
7_ALL_FEATURES
100
AcDbLine
 62
7
  6
CONTINUOUS
 10
997.266407119
 20
1433.5974913271
 11
997.266407119
 21
1500.1974913271
  0
LINE
  5
38B
100
AcDbEntity
  8
3_ALL_AXES
100
AcDbLine
 62
7
  6
CONTINUOUS
 10
994.0671274486
 20
1496.2474913271
 11
995.016407119
 21
1497.0440315484
  0
LINE
  5
38C
100
AcDbEntity
  8
3_ALL_AXES
100
AcDbLine
 62
7
  6
CONTINUOUS
 10
994.0671274486
 20
1487.0974913271
 11
995.016407119
 21
1487.8940315484
  0
LINE
  5
38D
100
AcDbEntity
  8
3_ALL_AXES
100
AcDbLine
 62
7
  6
CONTINUOUS
 10
994.0671274486
 20
1437.5474913271
 11
995.016407119
 21
1436.7509511058
  0
LINE
  5
38E
100
AcDbEntity
  8
3_ALL_AXES
100
AcDbLine
 62
7
  6
CONTINUOUS
 10
994.0671274486
 20
1446.6974913271
 11
995.016407119
 21
1445.9009511058
  0
LINE
  5
38F
100
AcDbEntity
  8
3_ALL_AXES
100
AcDbLine
 62
7
  6
CONTINUOUS
 10
994.0671274486
 20
1441.1974913271
 11
995.016407119
 21
1441.9940315484
  0
LINE
  5
390
100
AcDbEntity
  8
3_ALL_AXES
100
AcDbLine
 62
7
  6
CONTINUOUS
 10
994.0671274486
 20
1432.0474913271
 11
995.016407119
 21
1432.8440315484
  0
LINE
  5
391
100
AcDbEntity
  8
3_ALL_AXES
100
AcDbLine
 62
7
  6
CONTINUOUS
 10
994.0671274486
 20
1492.5974913271
 11
995.016407119
 21
1491.8009511058
  0
LINE
  5
392
100
AcDbEntity
  8
3_ALL_AXES
100
AcDbLine
 62
7
  6
CONTINUOUS
 10
994.0671274486
 20
1501.7474913271
 11
995.016407119
 21
1500.9509511058
  0
LINE
  5
393
100
AcDbEntity
  8
7_ALL_FEATURES
100
AcDbLine
 62
7
  6
CONTINUOUS
 10
996.516407119
 20
1411.9474913271
 11
2120.516407119
 21
1411.9474913271
  0
LINE
  5
394
100
AcDbEntity
  8
7_ALL_FEATURES
100
AcDbLine
 62
9
  6
CONTINUOUS
 10
996.516407119
 20
1412.3020197367
 11
2120.516407119
 21
1412.3020197367
  0
LINE
  5
395
100
AcDbEntity
  8
7_ALL_FEATURES
100
AcDbLine
 62
7
  6
CONTINUOUS
 10
996.516407119
 20
1414.4474913271
 11
1055.2329993253
 21
1414.4474913271
  0
LINE
  5
396
100
AcDbEntity
  8
7_ALL_FEATURES
100
AcDbLine
 62
7
  6
CONTINUOUS
 10
1061.7998149127
 20
1414.4474913271
 11
1305.2329993253
 21
1414.4474913271
  0
LINE
  5
397
100
AcDbEntity
  8
7_ALL_FEATURES
100
AcDbLine
 62
7
  6
CONTINUOUS
 10
1311.7998149127
 20
1414.4474913271
 11
1555.2329993253
 21
1414.4474913271
  0
LINE
  5
398
100
AcDbEntity
  8
7_ALL_FEATURES
100
AcDbLine
 62
7
  6
CONTINUOUS
 10
1561.7998149127
 20
1414.4474913271
 11
1805.2329993253
 21
1414.4474913271
  0
LINE
  5
399
100
AcDbEntity
  8
7_ALL_FEATURES
100
AcDbLine
 62
7
  6
CONTINUOUS
 10
1811.7998149127
 20
1414.4474913271
 11
2055.2329993253
 21
1414.4474913271
  0
LINE
  5
39A
100
AcDbEntity
  8
7_ALL_FEATURES
100
AcDbLine
 62
7
  6
CONTINUOUS
 10
2061.7998149127
 20
1414.4474913271
 11
2120.516407119
 21
1414.4474913271
  0
LINE
  5
39B
100
AcDbEntity
  8
7_ALL_FEATURES
100
AcDbLine
 62
7
  6
CONTINUOUS
 10
996.516407119
 20
1417.1474913271
 11
1053.7845188342
 21
1417.1474913271
  0
LINE
  5
39C
100
AcDbEntity
  8
7_ALL_FEATURES
100
AcDbLine
 62
7
  6
CONTINUOUS
 10
1063.2482954038
 20
1417.1474913271
 11
1303.7845188342
 21
1417.1474913271
  0
LINE
  5
39D
100
AcDbEntity
  8
7_ALL_FEATURES
100
AcDbLine
 62
7
  6
CONTINUOUS
 10
1313.2482954038
 20
1417.1474913271
 11
1553.7845188342
 21
1417.1474913271
  0
LINE
  5
39E
100
AcDbEntity
  8
7_ALL_FEATURES
100
AcDbLine
 62
7
  6
CONTINUOUS
 10
1563.2482954038
 20
1417.1474913271
 11
1803.7845188342
 21
1417.1474913271
  0
LINE
  5
39F
100
AcDbEntity
  8
7_ALL_FEATURES
100
AcDbLine
 62
7
  6
CONTINUOUS
 10
1813.2482954038
 20
1417.1474913271
 11
2053.7845188342
 21
1417.1474913271
  0
LINE
  5
3A0
100
AcDbEntity
  8
7_ALL_FEATURES
100
AcDbLine
 62
7
  6
CONTINUOUS
 10
2063.2482954038
 20
1417.1474913271
 11
2120.516407119
 21
1417.1474913271
  0
LINE
  5
3A1
100
AcDbEntity
  8
7_ALL_FEATURES
100
AcDbLine
 62
7
  6
CONTINUOUS
 10
996.516407119
 20
1417.7474913271
 11
1053.7215383263
 21
1417.7474913271
  0
LINE
  5
3A2
100
AcDbEntity
  8
7_ALL_FEATURES
100
AcDbLine
 62
7
  6
CONTINUOUS
 10
1063.3112759118
 20
1417.7474913271
 11
1303.7215383263
 21
1417.7474913271
  0
LINE
  5
3A3
100
AcDbEntity
  8
7_ALL_FEATURES
100
AcDbLine
 62
7
  6
CONTINUOUS
 10
1313.3112759118
 20
1417.7474913271
 11
1553.7215383263
 21
1417.7474913271
  0
LINE
  5
3A4
100
AcDbEntity
  8
7_ALL_FEATURES
100
AcDbLine
 62
7
  6
CONTINUOUS
 10
1563.3112759118
 20
1417.7474913271
 11
1803.7215383263
 21
1417.7474913271
  0
LINE
  5
3A5
100
AcDbEntity
  8
7_ALL_FEATURES
100
AcDbLine
 62
7
  6
CONTINUOUS
 10
1813.3112759118
 20
1417.7474913271
 11
2053.7215383263
 21
1417.7474913271
  0
LINE
  5
3A6
100
AcDbEntity
  8
7_ALL_FEATURES
100
AcDbLine
 62
7
  6
CONTINUOUS
 10
2063.3112759118
 20
1417.7474913271
 11
2120.516407119
 21
1417.7474913271
  0
LINE
  5
3A7
100
AcDbEntity
  8
7_ALL_FEATURES
100
AcDbLine
 62
7
  6
CONTINUOUS
 10
996.516407119
 20
1420.1474913271
 11
1054.2513436096
 21
1420.1474913271
  0
LINE
  5
3A8
100
AcDbEntity
  8
7_ALL_FEATURES
100
AcDbLine
 62
7
  6
CONTINUOUS
 10
1062.7814706285
 20
1420.1474913271
 11
1304.2513436096
 21
1420.1474913271
  0
LINE
  5
3A9
100
AcDbEntity
  8
7_ALL_FEATURES
100
AcDbLine
 62
7
  6
CONTINUOUS
 10
1312.7814706285
 20
1420.1474913271
 11
1554.2513436096
 21
1420.1474913271
  0
LINE
  5
3AA
100
AcDbEntity
  8
7_ALL_FEATURES
100
AcDbLine
 62
7
  6
CONTINUOUS
 10
1562.7814706285
 20
1420.1474913271
 11
1804.2513436096
 21
1420.1474913271
  0
LINE
  5
3AB
100
AcDbEntity
  8
7_ALL_FEATURES
100
AcDbLine
 62
7
  6
CONTINUOUS
 10
1812.7814706285
 20
1420.1474913271
 11
2054.2513436096
 21
1420.1474913271
  0
LINE
  5
3AC
100
AcDbEntity
  8
7_ALL_FEATURES
100
AcDbLine
 62
7
  6
CONTINUOUS
 10
2062.7814706285
 20
1420.1474913271
 11
2120.516407119
 21
1420.1474913271
  0
LINE
  5
3AD
100
AcDbEntity
  8
7_ALL_FEATURES
100
AcDbLine
 62
7
  6
CONTINUOUS
 10
996.516407119
 20
1420.7474913271
 11
1054.6188737016
 21
1420.7474913271
  0
LINE
  5
3AE
100
AcDbEntity
  8
7_ALL_FEATURES
100
AcDbLine
 62
7
  6
CONTINUOUS
 10
1062.4139405364
 20
1420.7474913271
 11
1304.6188737016
 21
1420.7474913271
  0
LINE
  5
3AF
100
AcDbEntity
  8
7_ALL_FEATURES
100
AcDbLine
 62
7
  6
CONTINUOUS
 10
1312.4139405364
 20
1420.7474913271
 11
1554.6188737016
 21
1420.7474913271
  0
LINE
  5
3B0
100
AcDbEntity
  8
7_ALL_FEATURES
100
AcDbLine
 62
7
  6
CONTINUOUS
 10
1562.4139405364
 20
1420.7474913271
 11
1804.6188737016
 21
1420.7474913271
  0
LINE
  5
3B1
100
AcDbEntity
  8
7_ALL_FEATURES
100
AcDbLine
 62
7
  6
CONTINUOUS
 10
1812.4139405364
 20
1420.7474913271
 11
2054.6188737016
 21
1420.7474913271
  0
LINE
  5
3B2
100
AcDbEntity
  8
7_ALL_FEATURES
100
AcDbLine
 62
7
  6
CONTINUOUS
 10
2062.4139405364
 20
1420.7474913271
 11
2120.516407119
 21
1420.7474913271
  0
LINE
  5
3B3
100
AcDbEntity
  8
6_ALL_SURFS
100
AcDbLine
 62
7
  6
CONTINUOUS
 10
996.516407119
 20
1423.1474913271
 11
2120.516407119
 21
1423.1474913271
  0
LINE
  5
3B4
100
AcDbEntity
  8
6_ALL_SURFS
100
AcDbLine
 62
7
  6
CONTINUOUS
 10
996.516407119
 20
1423.7474913271
 11
2120.516407119
 21
1423.7474913271
  0
LINE
  5
3B5
100
AcDbEntity
  8
6_ALL_SURFS
100
AcDbLine
 62
7
  6
CONTINUOUS
 10
996.516407119
 20
1426.1474913271
 11
2120.516407119
 21
1426.1474913271
  0
LINE
  5
3B6
100
AcDbEntity
  8
6_ALL_SURFS
100
AcDbLine
 62
7
  6
CONTINUOUS
 10
996.516407119
 20
1426.7474913271
 11
2120.516407119
 21
1426.7474913271
  0
LINE
  5
3B7
100
AcDbEntity
  8
6_ALL_SURFS
100
AcDbLine
 62
7
  6
CONTINUOUS
 10
996.516407119
 20
1429.1474913271
 11
2120.516407119
 21
1429.1474913271
  0
LINE
  5
3B8
100
AcDbEntity
  8
6_ALL_SURFS
100
AcDbLine
 62
7
  6
CONTINUOUS
 10
996.516407119
 20
1429.7474913271
 11
2120.516407119
 21
1429.7474913271
  0
LINE
  5
3B9
100
AcDbEntity
  8
7_ALL_FEATURES
100
AcDbLine
 62
7
  6
CONTINUOUS
 10
996.516407119
 20
1431.8474913271
 11
995.016407119
 21
1431.8474913271
  0
LINE
  5
3BA
100
AcDbEntity
  8
7_ALL_FEATURES
100
AcDbLine
 62
7
  6
CONTINUOUS
 10
2120.516407119
 20
1431.8474913271
 11
2122.016407119
 21
1431.8474913271
  0
LINE
  5
3BB
100
AcDbEntity
  8
7_ALL_FEATURES
100
AcDbLine
 62
9
  6
CONTINUOUS
 10
996.516407119
 20
1431.8974913271
 11
2120.516407119
 21
1431.8974913271
  0
LINE
  5
3BC
100
AcDbEntity
  8
3_ALL_AXES
100
AcDbLine
 62
7
  6
CONTINUOUS
 10
2123.116407119
 20
1432.0474913271
 11
2122.9656867894
 21
1432.0474913271
  0
LINE
  5
3BD
100
AcDbEntity
  8
3_ALL_AXES
100
AcDbLine
 62
7
  6
CONTINUOUS
 10
993.916407119
 20
1432.0474913271
 11
994.0671274486
 21
1432.0474913271
  0
LINE
  5
3BE
100
AcDbEntity
  8
7_ALL_FEATURES
100
AcDbLine
 62
7
  6
CONTINUOUS
 10
2120.516407119
 20
1432.1974913271
 11
996.516407119
 21
1432.1974913271
  0
LINE
  5
3BF
100
AcDbEntity
  8
7_ALL_FEATURES
100
AcDbLine
 62
9
  6
CONTINUOUS
 10
2120.516407119
 20
1432.4974913271
 11
996.516407119
 21
1432.4974913271
  0
LINE
  5
3C0
100
AcDbEntity
  8
7_ALL_FEATURES
100
AcDbLine
 62
9
  6
CONTINUOUS
 10
996.516407119
 20
1432.5974913271
 11
995.016407119
 21
1432.5974913271
  0
LINE
  5
3C1
100
AcDbEntity
  8
7_ALL_FEATURES
100
AcDbLine
 62
9
  6
CONTINUOUS
 10
2120.516407119
 20
1432.5974913271
 11
2122.016407119
 21
1432.5974913271
  0
LINE
  5
3C2
100
AcDbEntity
  8
7_ALL_FEATURES
100
AcDbLine
 62
9
  6
CONTINUOUS
 10
2120.516407119
 20
1433.1474913271
 11
996.516407119
 21
1433.1474913271
  0
LINE
  5
3C3
100
AcDbEntity
  8
7_ALL_FEATURES
100
AcDbLine
 62
7
  6
CONTINUOUS
 10
2120.516407119
 20
1433.4474913271
 11
996.516407119
 21
1433.4474913271
  0
LINE
  5
3C4
100
AcDbEntity
  8
7_ALL_FEATURES
100
AcDbLine
 62
9
  6
CONTINUOUS
 10
996.516407119
 20
1433.509485325
 11
2120.516407119
 21
1433.509485325
  0
LINE
  5
3C5
100
AcDbEntity
  8
7_ALL_FEATURES
100
AcDbLine
 62
7
  6
CONTINUOUS
 10
2119.766407119
 20
1433.5974913271
 11
997.266407119
 21
1433.5974913271
  0
LINE
  5
3C6
100
AcDbEntity
  8
7_ALL_FEATURES
100
AcDbLine
 62
9
  6
CONTINUOUS
 10
2119.766407119
 20
1433.7974913271
 11
997.266407119
 21
1433.7974913271
  0
LINE
  5
3C7
100
AcDbEntity
  8
7_ALL_FEATURES
100
AcDbLine
 62
9
  6
CONTINUOUS
 10
996.516407119
 20
1434.6201570425
 11
997.266407119
 21
1434.6201570425
  0
LINE
  5
3C8
100
AcDbEntity
  8
7_ALL_FEATURES
100
AcDbLine
 62
9
  6
CONTINUOUS
 10
2119.766407119
 20
1434.6201570425
 11
2120.516407119
 21
1434.6201570425
  0
LINE
  5
3C9
100
AcDbEntity
  8
7_ALL_FEATURES
100
AcDbLine
 62
7
  6
CONTINUOUS
 10
996.516407119
 20
1434.6614863745
 11
997.266407119
 21
1434.6614863745
  0
LINE
  5
3CA
100
AcDbEntity
  8
7_ALL_FEATURES
100
AcDbLine
 62
7
  6
CONTINUOUS
 10
2119.766407119
 20
1434.6614863745
 11
2120.516407119
 21
1434.6614863745
  0
LINE
  5
3CB
100
AcDbEntity
  8
7_ALL_FEATURES
100
AcDbLine
 62
9
  6
CONTINUOUS
 10
996.516407119
 20
1434.7573015583
 11
997.266407119
 21
1434.7573015583
  0
LINE
  5
3CC
100
AcDbEntity
  8
7_ALL_FEATURES
100
AcDbLine
 62
9
  6
CONTINUOUS
 10
2119.766407119
 20
1434.7573015583
 11
2120.516407119
 21
1434.7573015583
  0
LINE
  5
3CD
100
AcDbEntity
  8
7_ALL_FEATURES
100
AcDbLine
 62
9
  6
CONTINUOUS
 10
996.516407119
 20
1434.9767076688
 11
997.266407119
 21
1434.9767076688
  0
LINE
  5
3CE
100
AcDbEntity
  8
7_ALL_FEATURES
100
AcDbLine
 62
9
  6
CONTINUOUS
 10
2119.766407119
 20
1434.9767076688
 11
2120.516407119
 21
1434.9767076688
  0
LINE
  5
3CF
100
AcDbEntity
  8
7_ALL_FEATURES
100
AcDbLine
 62
9
  6
CONTINUOUS
 10
2120.516407119
 20
1436.0474913271
 11
2119.766407119
 21
1436.0474913271
  0
LINE
  5
3D0
100
AcDbEntity
  8
7_ALL_FEATURES
100
AcDbLine
 62
9
  6
CONTINUOUS
 10
997.266407119
 20
1436.0474913271
 11
996.516407119
 21
1436.0474913271
  0
LINE
  5
3D1
100
AcDbEntity
  8
7_ALL_FEATURES
100
AcDbLine
 62
7
  6
CONTINUOUS
 10
2120.516407119
 20
1436.3474913271
 11
2119.766407119
 21
1436.3474913271
  0
LINE
  5
3D2
100
AcDbEntity
  8
7_ALL_FEATURES
100
AcDbLine
 62
7
  6
CONTINUOUS
 10
997.266407119
 20
1436.3474913271
 11
996.516407119
 21
1436.3474913271
  0
LINE
  5
3D3
100
AcDbEntity
  8
7_ALL_FEATURES
100
AcDbLine
 62
9
  6
CONTINUOUS
 10
996.516407119
 20
1436.4681060855
 11
997.266407119
 21
1436.4681060855
  0
LINE
  5
3D4
100
AcDbEntity
  8
7_ALL_FEATURES
100
AcDbLine
 62
9
  6
CONTINUOUS
 10
2119.766407119
 20
1436.4681060855
 11
2120.516407119
 21
1436.4681060855
  0
LINE
  5
3D5
100
AcDbEntity
  8
7_ALL_FEATURES
100
AcDbLine
 62
9
  6
CONTINUOUS
 10
2120.516407119
 20
1436.9948852841
 11
2119.766407119
 21
1436.9948852841
  0
LINE
  5
3D6
100
AcDbEntity
  8
7_ALL_FEATURES
100
AcDbLine
 62
9
  6
CONTINUOUS
 10
997.266407119
 20
1436.9948852841
 11
996.516407119
 21
1436.9948852841
  0
LINE
  5
3D7
100
AcDbEntity
  8
7_ALL_FEATURES
100
AcDbLine
 62
7
  6
CONTINUOUS
 10
2120.516407119
 20
1437.0129774979
 11
2119.766407119
 21
1437.0129774979
  0
LINE
  5
3D8
100
AcDbEntity
  8
7_ALL_FEATURES
100
AcDbLine
 62
7
  6
CONTINUOUS
 10
997.266407119
 20
1437.0129774979
 11
996.516407119
 21
1437.0129774979
  0
LINE
  5
3D9
100
AcDbEntity
  8
3_ALL_AXES
100
AcDbLine
 62
7
  6
CONTINUOUS
 10
2123.116407119
 20
1437.5474913271
 11
2122.9656867894
 21
1437.5474913271
  0
LINE
  5
3DA
100
AcDbEntity
  8
3_ALL_AXES
100
AcDbLine
 62
7
  6
CONTINUOUS
 10
993.916407119
 20
1437.5474913271
 11
994.0671274486
 21
1437.5474913271
  0
LINE
  5
3DB
100
AcDbEntity
  8
7_ALL_FEATURES
100
AcDbLine
 62
9
  6
CONTINUOUS
 10
996.516407119
 20
1440.3105713643
 11
997.266407119
 21
1440.3105713643
  0
LINE
  5
3DC
100
AcDbEntity
  8
7_ALL_FEATURES
100
AcDbLine
 62
9
  6
CONTINUOUS
 10
2119.766407119
 20
1440.3105713643
 11
2120.516407119
 21
1440.3105713643
  0
LINE
  5
3DD
100
AcDbEntity
  8
7_ALL_FEATURES
100
AcDbLine
 62
9
  6
CONTINUOUS
 10
996.516407119
 20
1440.7986963404
 11
997.266407119
 21
1440.7986963404
  0
LINE
  5
3DE
100
AcDbEntity
  8
7_ALL_FEATURES
100
AcDbLine
 62
9
  6
CONTINUOUS
 10
2119.766407119
 20
1440.7986963404
 11
2120.516407119
 21
1440.7986963404
  0
LINE
  5
3DF
100
AcDbEntity
  8
3_ALL_AXES
100
AcDbLine
 62
7
  6
CONTINUOUS
 10
2123.116407119
 20
1441.1974913271
 11
2122.9656867894
 21
1441.1974913271
  0
LINE
  5
3E0
100
AcDbEntity
  8
3_ALL_AXES
100
AcDbLine
 62
7
  6
CONTINUOUS
 10
993.916407119
 20
1441.1974913271
 11
994.0671274486
 21
1441.1974913271
  0
LINE
  5
3E1
100
AcDbEntity
  8
3_ALL_AXES
100
AcDbLine
 62
7
  6
CONTINUOUS
 10
2123.116407119
 20
1446.6974913271
 11
2122.9656867894
 21
1446.6974913271
  0
LINE
  5
3E2
100
AcDbEntity
  8
3_ALL_AXES
100
AcDbLine
 62
7
  6
CONTINUOUS
 10
993.916407119
 20
1446.6974913271
 11
994.0671274486
 21
1446.6974913271
  0
LINE
  5
3E3
100
AcDbEntity
  8
7_ALL_FEATURES
100
AcDbLine
 62
9
  6
CONTINUOUS
 10
2120.516407119
 20
1464.8974913271
 11
2119.766407119
 21
1464.8974913271
  0
LINE
  5
3E4
100
AcDbEntity
  8
7_ALL_FEATURES
100
AcDbLine
 62
9
  6
CONTINUOUS
 10
997.266407119
 20
1464.8974913271
 11
996.516407119
 21
1464.8974913271
  0
LINE
  5
3E5
100
AcDbEntity
  8
7_ALL_FEATURES
100
AcDbLine
 62
7
  6
CONTINUOUS
 10
2120.516407119
 20
1465.1974913271
 11
2119.766407119
 21
1465.1974913271
  0
LINE
  5
3E6
100
AcDbEntity
  8
7_ALL_FEATURES
100
AcDbLine
 62
7
  6
CONTINUOUS
 10
997.266407119
 20
1465.1974913271
 11
996.516407119
 21
1465.1974913271
  0
LINE
  5
3E7
100
AcDbEntity
  8
7_ALL_FEATURES
100
AcDbLine
 62
9
  6
CONTINUOUS
 10
996.516407119
 20
1465.4974913271
 11
997.266407119
 21
1465.4974913271
  0
LINE
  5
3E8
100
AcDbEntity
  8
7_ALL_FEATURES
100
AcDbLine
 62
9
  6
CONTINUOUS
 10
2119.766407119
 20
1465.4974913271
 11
2120.516407119
 21
1465.4974913271
  0
LINE
  5
3E9
100
AcDbEntity
  8
6_ALL_SURFS
100
AcDbLine
 62
9
  6
CONTINUOUS
 10
996.516407119
 20
1468.2974913271
 11
997.266407119
 21
1468.2974913271
  0
LINE
  5
3EA
100
AcDbEntity
  8
6_ALL_SURFS
100
AcDbLine
 62
9
  6
CONTINUOUS
 10
2119.766407119
 20
1468.2974913271
 11
2120.516407119
 21
1468.2974913271
  0
LINE
  5
3EB
100
AcDbEntity
  8
6_ALL_SURFS
100
AcDbLine
 62
7
  6
CONTINUOUS
 10
2120.516407119
 20
1468.5974913271
 11
2119.766407119
 21
1468.5974913271
  0
LINE
  5
3EC
100
AcDbEntity
  8
6_ALL_SURFS
100
AcDbLine
 62
7
  6
CONTINUOUS
 10
997.266407119
 20
1468.5974913271
 11
996.516407119
 21
1468.5974913271
  0
LINE
  5
3ED
100
AcDbEntity
  8
6_ALL_SURFS
100
AcDbLine
 62
9
  6
CONTINUOUS
 10
2120.516407119
 20
1468.8974913271
 11
2119.766407119
 21
1468.8974913271
  0
LINE
  5
3EE
100
AcDbEntity
  8
6_ALL_SURFS
100
AcDbLine
 62
9
  6
CONTINUOUS
 10
997.266407119
 20
1468.8974913271
 11
996.516407119
 21
1468.8974913271
  0
LINE
  5
3EF
100
AcDbEntity
  8
3_ALL_AXES
100
AcDbLine
 62
7
  6
CONTINUOUS
 10
2123.116407119
 20
1487.0974913271
 11
2122.9656867894
 21
1487.0974913271
  0
LINE
  5
3F0
100
AcDbEntity
  8
3_ALL_AXES
100
AcDbLine
 62
7
  6
CONTINUOUS
 10
993.916407119
 20
1487.0974913271
 11
994.0671274486
 21
1487.0974913271
  0
LINE
  5
3F1
100
AcDbEntity
  8
3_ALL_AXES
100
AcDbLine
 62
7
  6
CONTINUOUS
 10
2123.116407119
 20
1492.5974913271
 11
2122.9656867894
 21
1492.5974913271
  0
LINE
  5
3F2
100
AcDbEntity
  8
3_ALL_AXES
100
AcDbLine
 62
7
  6
CONTINUOUS
 10
993.916407119
 20
1492.5974913271
 11
994.0671274486
 21
1492.5974913271
  0
LINE
  5
3F3
100
AcDbEntity
  8
6_ALL_SURFS
100
AcDbLine
 62
9
  6
CONTINUOUS
 10
996.516407119
 20
1492.9962863138
 11
997.266407119
 21
1492.9962863138
  0
LINE
  5
3F4
100
AcDbEntity
  8
6_ALL_SURFS
100
AcDbLine
 62
9
  6
CONTINUOUS
 10
2119.766407119
 20
1492.9962863138
 11
2120.516407119
 21
1492.9962863138
  0
LINE
  5
3F5
100
AcDbEntity
  8
6_ALL_SURFS
100
AcDbLine
 62
9
  6
CONTINUOUS
 10
996.516407119
 20
1493.4844112899
 11
997.266407119
 21
1493.4844112899
  0
LINE
  5
3F6
100
AcDbEntity
  8
6_ALL_SURFS
100
AcDbLine
 62
9
  6
CONTINUOUS
 10
2119.766407119
 20
1493.4844112899
 11
2120.516407119
 21
1493.4844112899
  0
LINE
  5
3F7
100
AcDbEntity
  8
3_ALL_AXES
100
AcDbLine
 62
7
  6
CONTINUOUS
 10
2123.116407119
 20
1496.2474913271
 11
2122.9656867894
 21
1496.2474913271
  0
LINE
  5
3F8
100
AcDbEntity
  8
3_ALL_AXES
100
AcDbLine
 62
7
  6
CONTINUOUS
 10
993.916407119
 20
1496.2474913271
 11
994.0671274486
 21
1496.2474913271
  0
LINE
  5
3F9
100
AcDbEntity
  8
6_ALL_SURFS
100
AcDbLine
 62
7
  6
CONTINUOUS
 10
996.516407119
 20
1496.7820051563
 11
997.266407119
 21
1496.7820051563
  0
LINE
  5
3FA
100
AcDbEntity
  8
6_ALL_SURFS
100
AcDbLine
 62
7
  6
CONTINUOUS
 10
2119.766407119
 20
1496.7820051563
 11
2120.516407119
 21
1496.7820051563
  0
LINE
  5
3FB
100
AcDbEntity
  8
6_ALL_SURFS
100
AcDbLine
 62
9
  6
CONTINUOUS
 10
2120.516407119
 20
1496.8000973701
 11
2119.766407119
 21
1496.8000973701
  0
LINE
  5
3FC
100
AcDbEntity
  8
6_ALL_SURFS
100
AcDbLine
 62
9
  6
CONTINUOUS
 10
997.266407119
 20
1496.8000973701
 11
996.516407119
 21
1496.8000973701
  0
LINE
  5
3FD
100
AcDbEntity
  8
6_ALL_SURFS
100
AcDbLine
 62
9
  6
CONTINUOUS
 10
996.516407119
 20
1497.3268765687
 11
997.266407119
 21
1497.3268765687
  0
LINE
  5
3FE
100
AcDbEntity
  8
6_ALL_SURFS
100
AcDbLine
 62
9
  6
CONTINUOUS
 10
2119.766407119
 20
1497.3268765687
 11
2120.516407119
 21
1497.3268765687
  0
LINE
  5
3FF
100
AcDbEntity
  8
6_ALL_SURFS
100
AcDbLine
 62
7
  6
CONTINUOUS
 10
2120.516407119
 20
1497.4474913271
 11
2119.766407119
 21
1497.4474913271
  0
LINE
  5
400
100
AcDbEntity
  8
6_ALL_SURFS
100
AcDbLine
 62
7
  6
CONTINUOUS
 10
997.266407119
 20
1497.4474913271
 11
996.516407119
 21
1497.4474913271
  0
LINE
  5
401
100
AcDbEntity
  8
6_ALL_SURFS
100
AcDbLine
 62
9
  6
CONTINUOUS
 10
2120.516407119
 20
1497.7474913271
 11
2119.766407119
 21
1497.7474913271
  0
LINE
  5
402
100
AcDbEntity
  8
6_ALL_SURFS
100
AcDbLine
 62
9
  6
CONTINUOUS
 10
997.266407119
 20
1497.7474913271
 11
996.516407119
 21
1497.7474913271
  0
LINE
  5
403
100
AcDbEntity
  8
6_ALL_SURFS
100
AcDbLine
 62
9
  6
CONTINUOUS
 10
996.516407119
 20
1498.8182749854
 11
997.266407119
 21
1498.8182749854
  0
LINE
  5
404
100
AcDbEntity
  8
6_ALL_SURFS
100
AcDbLine
 62
9
  6
CONTINUOUS
 10
2119.766407119
 20
1498.8182749854
 11
2120.516407119
 21
1498.8182749854
  0
LINE
  5
405
100
AcDbEntity
  8
6_ALL_SURFS
100
AcDbLine
 62
9
  6
CONTINUOUS
 10
996.516407119
 20
1499.0376810959
 11
997.266407119
 21
1499.0376810959
  0
LINE
  5
406
100
AcDbEntity
  8
6_ALL_SURFS
100
AcDbLine
 62
9
  6
CONTINUOUS
 10
2119.766407119
 20
1499.0376810959
 11
2120.516407119
 21
1499.0376810959
  0
LINE
  5
407
100
AcDbEntity
  8
6_ALL_SURFS
100
AcDbLine
 62
7
  6
CONTINUOUS
 10
2120.516407119
 20
1499.1334962797
 11
2119.766407119
 21
1499.1334962797
  0
LINE
  5
408
100
AcDbEntity
  8
6_ALL_SURFS
100
AcDbLine
 62
7
  6
CONTINUOUS
 10
997.266407119
 20
1499.1334962797
 11
996.516407119
 21
1499.1334962797
  0
LINE
  5
409
100
AcDbEntity
  8
6_ALL_SURFS
100
AcDbLine
 62
9
  6
CONTINUOUS
 10
996.516407119
 20
1499.1748256117
 11
997.266407119
 21
1499.1748256117
  0
LINE
  5
40A
100
AcDbEntity
  8
6_ALL_SURFS
100
AcDbLine
 62
9
  6
CONTINUOUS
 10
2119.766407119
 20
1499.1748256117
 11
2120.516407119
 21
1499.1748256117
  0
LINE
  5
40B
100
AcDbEntity
  8
7_ALL_FEATURES
100
AcDbLine
 62
9
  6
CONTINUOUS
 10
2119.766407119
 20
1499.9974913271
 11
997.266407119
 21
1499.9974913271
  0
LINE
  5
40C
100
AcDbEntity
  8
7_ALL_FEATURES
100
AcDbLine
 62
7
  6
CONTINUOUS
 10
2119.766407119
 20
1500.1974913271
 11
997.266407119
 21
1500.1974913271
  0
LINE
  5
40D
100
AcDbEntity
  8
6_ALL_SURFS
100
AcDbLine
 62
9
  6
CONTINUOUS
 10
996.516407119
 20
1500.2854973292
 11
2120.516407119
 21
1500.2854973292
  0
LINE
  5
40E
100
AcDbEntity
  8
6_ALL_SURFS
100
AcDbLine
 62
7
  6
CONTINUOUS
 10
2120.516407119
 20
1500.3474913271
 11
996.516407119
 21
1500.3474913271
  0
LINE
  5
40F
100
AcDbEntity
  8
6_ALL_SURFS
100
AcDbLine
 62
9
  6
CONTINUOUS
 10
2120.516407119
 20
1500.6474913271
 11
996.516407119
 21
1500.6474913271
  0
LINE
  5
410
100
AcDbEntity
  8
7_ALL_FEATURES
100
AcDbLine
 62
9
  6
CONTINUOUS
 10
996.516407119
 20
1501.1974913271
 11
995.016407119
 21
1501.1974913271
  0
LINE
  5
411
100
AcDbEntity
  8
7_ALL_FEATURES
100
AcDbLine
 62
9
  6
CONTINUOUS
 10
2120.516407119
 20
1501.1974913271
 11
2122.016407119
 21
1501.1974913271
  0
LINE
  5
412
100
AcDbEntity
  8
6_ALL_SURFS
100
AcDbLine
 62
9
  6
CONTINUOUS
 10
2120.516407119
 20
1501.2974913271
 11
996.516407119
 21
1501.2974913271
  0
LINE
  5
413
100
AcDbEntity
  8
6_ALL_SURFS
100
AcDbLine
 62
7
  6
CONTINUOUS
 10
2120.516407119
 20
1501.5974913271
 11
996.516407119
 21
1501.5974913271
  0
LINE
  5
414
100
AcDbEntity
  8
3_ALL_AXES
100
AcDbLine
 62
7
  6
CONTINUOUS
 10
2123.116407119
 20
1501.7474913271
 11
2122.9656867894
 21
1501.7474913271
  0
LINE
  5
415
100
AcDbEntity
  8
3_ALL_AXES
100
AcDbLine
 62
7
  6
CONTINUOUS
 10
993.916407119
 20
1501.7474913271
 11
994.0671274486
 21
1501.7474913271
  0
LINE
  5
416
100
AcDbEntity
  8
6_ALL_SURFS
100
AcDbLine
 62
9
  6
CONTINUOUS
 10
996.516407119
 20
1501.8974913271
 11
2120.516407119
 21
1501.8974913271
  0
LINE
  5
417
100
AcDbEntity
  8
7_ALL_FEATURES
100
AcDbLine
 62
7
  6
CONTINUOUS
 10
996.516407119
 20
1501.9474913271
 11
995.016407119
 21
1501.9474913271
  0
LINE
  5
418
100
AcDbEntity
  8
7_ALL_FEATURES
100
AcDbLine
 62
7
  6
CONTINUOUS
 10
2120.516407119
 20
1501.9474913271
 11
2122.016407119
 21
1501.9474913271
  0
LINE
  5
419
100
AcDbEntity
  8
6_ALL_SURFS
100
AcDbLine
 62
7
  6
CONTINUOUS
 10
996.516407119
 20
1504.0474913271
 11
2120.516407119
 21
1504.0474913271
  0
LINE
  5
41A
100
AcDbEntity
  8
6_ALL_SURFS
100
AcDbLine
 62
7
  6
CONTINUOUS
 10
996.516407119
 20
1504.6474913271
 11
2120.516407119
 21
1504.6474913271
  0
LINE
  5
41B
100
AcDbEntity
  8
6_ALL_SURFS
100
AcDbLine
 62
7
  6
CONTINUOUS
 10
996.516407119
 20
1507.0474913271
 11
2120.516407119
 21
1507.0474913271
  0
LINE
  5
41C
100
AcDbEntity
  8
6_ALL_SURFS
100
AcDbLine
 62
7
  6
CONTINUOUS
 10
996.516407119
 20
1507.6474913271
 11
2120.516407119
 21
1507.6474913271
  0
LINE
  5
41D
100
AcDbEntity
  8
6_ALL_SURFS
100
AcDbLine
 62
7
  6
CONTINUOUS
 10
996.516407119
 20
1510.0474913271
 11
2120.516407119
 21
1510.0474913271
  0
LINE
  5
41E
100
AcDbEntity
  8
6_ALL_SURFS
100
AcDbLine
 62
7
  6
CONTINUOUS
 10
996.516407119
 20
1510.6474913271
 11
2120.516407119
 21
1510.6474913271
  0
LINE
  5
41F
100
AcDbEntity
  8
6_ALL_SURFS
100
AcDbLine
 62
7
  6
CONTINUOUS
 10
996.516407119
 20
1513.0474913271
 11
1054.6188737016
 21
1513.0474913271
  0
LINE
  5
420
100
AcDbEntity
  8
6_ALL_SURFS
100
AcDbLine
 62
7
  6
CONTINUOUS
 10
1062.4139405364
 20
1513.0474913271
 11
1304.6188737016
 21
1513.0474913271
  0
LINE
  5
421
100
AcDbEntity
  8
6_ALL_SURFS
100
AcDbLine
 62
7
  6
CONTINUOUS
 10
1312.4139405364
 20
1513.0474913271
 11
1554.6188737016
 21
1513.0474913271
  0
LINE
  5
422
100
AcDbEntity
  8
6_ALL_SURFS
100
AcDbLine
 62
7
  6
CONTINUOUS
 10
1562.4139405364
 20
1513.0474913271
 11
1804.6188737016
 21
1513.0474913271
  0
LINE
  5
423
100
AcDbEntity
  8
6_ALL_SURFS
100
AcDbLine
 62
7
  6
CONTINUOUS
 10
1812.4139405364
 20
1513.0474913271
 11
2054.6188737016
 21
1513.0474913271
  0
LINE
  5
424
100
AcDbEntity
  8
6_ALL_SURFS
100
AcDbLine
 62
7
  6
CONTINUOUS
 10
2062.4139405364
 20
1513.0474913271
 11
2120.516407119
 21
1513.0474913271
  0
LINE
  5
425
100
AcDbEntity
  8
6_ALL_SURFS
100
AcDbLine
 62
7
  6
CONTINUOUS
 10
996.516407119
 20
1513.6474913271
 11
1054.2513436096
 21
1513.6474913271
  0
LINE
  5
426
100
AcDbEntity
  8
6_ALL_SURFS
100
AcDbLine
 62
7
  6
CONTINUOUS
 10
1062.7814706285
 20
1513.6474913271
 11
1304.2513436096
 21
1513.6474913271
  0
LINE
  5
427
100
AcDbEntity
  8
6_ALL_SURFS
100
AcDbLine
 62
7
  6
CONTINUOUS
 10
1312.7814706285
 20
1513.6474913271
 11
1554.2513436096
 21
1513.6474913271
  0
LINE
  5
428
100
AcDbEntity
  8
6_ALL_SURFS
100
AcDbLine
 62
7
  6
CONTINUOUS
 10
1562.7814706285
 20
1513.6474913271
 11
1804.2513436096
 21
1513.6474913271
  0
LINE
  5
429
100
AcDbEntity
  8
6_ALL_SURFS
100
AcDbLine
 62
7
  6
CONTINUOUS
 10
1812.7814706285
 20
1513.6474913271
 11
2054.2513436096
 21
1513.6474913271
  0
LINE
  5
42A
100
AcDbEntity
  8
6_ALL_SURFS
100
AcDbLine
 62
7
  6
CONTINUOUS
 10
2062.7814706285
 20
1513.6474913271
 11
2120.516407119
 21
1513.6474913271
  0
LINE
  5
42B
100
AcDbEntity
  8
6_ALL_SURFS
100
AcDbLine
 62
7
  6
CONTINUOUS
 10
996.516407119
 20
1516.0474913271
 11
1053.7215383263
 21
1516.0474913271
  0
LINE
  5
42C
100
AcDbEntity
  8
6_ALL_SURFS
100
AcDbLine
 62
7
  6
CONTINUOUS
 10
1063.3112759118
 20
1516.0474913271
 11
1303.7215383263
 21
1516.0474913271
  0
LINE
  5
42D
100
AcDbEntity
  8
6_ALL_SURFS
100
AcDbLine
 62
7
  6
CONTINUOUS
 10
1313.3112759118
 20
1516.0474913271
 11
1553.7215383263
 21
1516.0474913271
  0
LINE
  5
42E
100
AcDbEntity
  8
6_ALL_SURFS
100
AcDbLine
 62
7
  6
CONTINUOUS
 10
1563.3112759118
 20
1516.0474913271
 11
1803.7215383263
 21
1516.0474913271
  0
LINE
  5
42F
100
AcDbEntity
  8
6_ALL_SURFS
100
AcDbLine
 62
7
  6
CONTINUOUS
 10
1813.3112759118
 20
1516.0474913271
 11
2053.7215383263
 21
1516.0474913271
  0
LINE
  5
430
100
AcDbEntity
  8
6_ALL_SURFS
100
AcDbLine
 62
7
  6
CONTINUOUS
 10
2063.3112759118
 20
1516.0474913271
 11
2120.516407119
 21
1516.0474913271
  0
LINE
  5
431
100
AcDbEntity
  8
6_ALL_SURFS
100
AcDbLine
 62
7
  6
CONTINUOUS
 10
996.516407119
 20
1516.6474913271
 11
1053.7845188342
 21
1516.6474913271
  0
LINE
  5
432
100
AcDbEntity
  8
6_ALL_SURFS
100
AcDbLine
 62
7
  6
CONTINUOUS
 10
1063.2482954038
 20
1516.6474913271
 11
1303.7845188342
 21
1516.6474913271
  0
LINE
  5
433
100
AcDbEntity
  8
6_ALL_SURFS
100
AcDbLine
 62
7
  6
CONTINUOUS
 10
1313.2482954038
 20
1516.6474913271
 11
1553.7845188342
 21
1516.6474913271
  0
LINE
  5
434
100
AcDbEntity
  8
6_ALL_SURFS
100
AcDbLine
 62
7
  6
CONTINUOUS
 10
1563.2482954038
 20
1516.6474913271
 11
1803.7845188342
 21
1516.6474913271
  0
LINE
  5
435
100
AcDbEntity
  8
6_ALL_SURFS
100
AcDbLine
 62
7
  6
CONTINUOUS
 10
1813.2482954038
 20
1516.6474913271
 11
2053.7845188342
 21
1516.6474913271
  0
LINE
  5
436
100
AcDbEntity
  8
6_ALL_SURFS
100
AcDbLine
 62
7
  6
CONTINUOUS
 10
2063.2482954038
 20
1516.6474913271
 11
2120.516407119
 21
1516.6474913271
  0
LINE
  5
437
100
AcDbEntity
  8
6_ALL_SURFS
100
AcDbLine
 62
7
  6
CONTINUOUS
 10
996.516407119
 20
1519.3474913271
 11
1055.2329993253
 21
1519.3474913271
  0
LINE
  5
438
100
AcDbEntity
  8
6_ALL_SURFS
100
AcDbLine
 62
7
  6
CONTINUOUS
 10
1061.7998149127
 20
1519.3474913271
 11
1305.2329993253
 21
1519.3474913271
  0
LINE
  5
439
100
AcDbEntity
  8
6_ALL_SURFS
100
AcDbLine
 62
7
  6
CONTINUOUS
 10
1311.7998149127
 20
1519.3474913271
 11
1555.2329993253
 21
1519.3474913271
  0
LINE
  5
43A
100
AcDbEntity
  8
6_ALL_SURFS
100
AcDbLine
 62
7
  6
CONTINUOUS
 10
1561.7998149127
 20
1519.3474913271
 11
1805.2329993253
 21
1519.3474913271
  0
LINE
  5
43B
100
AcDbEntity
  8
6_ALL_SURFS
100
AcDbLine
 62
7
  6
CONTINUOUS
 10
1811.7998149127
 20
1519.3474913271
 11
2055.2329993253
 21
1519.3474913271
  0
LINE
  5
43C
100
AcDbEntity
  8
6_ALL_SURFS
100
AcDbLine
 62
7
  6
CONTINUOUS
 10
2061.7998149127
 20
1519.3474913271
 11
2120.516407119
 21
1519.3474913271
  0
LINE
  5
43D
100
AcDbEntity
  8
6_ALL_SURFS
100
AcDbLine
 62
9
  6
CONTINUOUS
 10
996.516407119
 20
1521.4929629175
 11
2120.516407119
 21
1521.4929629175
  0
LINE
  5
43E
100
AcDbEntity
  8
6_ALL_SURFS
100
AcDbLine
 62
7
  6
CONTINUOUS
 10
2120.516407119
 20
1521.8474913271
 11
996.516407119
 21
1521.8474913271
  0
LINE
  5
43F
100
AcDbEntity
  8
3_ALL_AXES
100
AcDbLine
 62
7
  6
CONTINUOUS
 10
2122.9656867894
 20
1501.7474913271
 11
2122.016407119
 21
1500.9509511058
  0
LINE
  5
440
100
AcDbEntity
  8
3_ALL_AXES
100
AcDbLine
 62
7
  6
CONTINUOUS
 10
2122.9656867894
 20
1492.5974913271
 11
2122.016407119
 21
1491.8009511058
  0
LINE
  5
441
100
AcDbEntity
  8
3_ALL_AXES
100
AcDbLine
 62
7
  6
CONTINUOUS
 10
2122.9656867894
 20
1432.0474913271
 11
2122.016407119
 21
1432.8440315484
  0
LINE
  5
442
100
AcDbEntity
  8
3_ALL_AXES
100
AcDbLine
 62
7
  6
CONTINUOUS
 10
2122.9656867894
 20
1441.1974913271
 11
2122.016407119
 21
1441.9940315484
  0
LINE
  5
443
100
AcDbEntity
  8
3_ALL_AXES
100
AcDbLine
 62
7
  6
CONTINUOUS
 10
2122.9656867894
 20
1446.6974913271
 11
2122.016407119
 21
1445.9009511058
  0
LINE
  5
444
100
AcDbEntity
  8
3_ALL_AXES
100
AcDbLine
 62
7
  6
CONTINUOUS
 10
2122.9656867894
 20
1487.0974913271
 11
2122.016407119
 21
1487.8940315484
  0
LINE
  5
445
100
AcDbEntity
  8
3_ALL_AXES
100
AcDbLine
 62
7
  6
CONTINUOUS
 10
2122.9656867894
 20
1437.5474913271
 11
2122.016407119
 21
1436.7509511058
  0
LINE
  5
446
100
AcDbEntity
  8
3_ALL_AXES
100
AcDbLine
 62
7
  6
CONTINUOUS
 10
2122.9656867894
 20
1496.2474913271
 11
2122.016407119
 21
1497.0440315484
  0
LINE
  5
447
100
AcDbEntity
  8
7_ALL_FEATURES
100
AcDbLine
 62
7
  6
CONTINUOUS
 10
2119.766407119
 20
1500.1974913271
 11
2119.766407119
 21
1433.5974913271
  0
LINE
  5
448
100
AcDbEntity
  8
7_ALL_FEATURES
100
AcDbLine
 62
7
  6
CONTINUOUS
 10
2120.516407119
 20
1501.9474913271
 11
2120.516407119
 21
1501.451525936
  0
LINE
  5
449
100
AcDbEntity
  8
7_ALL_FEATURES
100
AcDbLine
 62
7
  6
CONTINUOUS
 10
2120.516407119
 20
1501.1974913271
 11
2120.516407119
 21
1429.7474913271
  0
LINE
  5
44A
100
AcDbEntity
  8
6_ALL_SURFS
100
AcDbLine
 62
7
  6
CONTINUOUS
 10
2120.516407119
 20
1429.7474913271
 11
2120.516407119
 21
1414.4474913271
  0
LINE
  5
44B
100
AcDbEntity
  8
7_ALL_FEATURES
100
AcDbLine
 62
7
  6
CONTINUOUS
 10
2120.516407119
 20
1414.4474913271
 11
2120.516407119
 21
1411.9475016025
  0
LINE
  5
44C
100
AcDbEntity
  8
6_ALL_SURFS
100
AcDbLine
 62
7
  6
CONTINUOUS
 10
2120.516407119
 20
1500.6474913271
 11
2120.516407119
 21
1501.451525936
  0
LINE
  5
44D
100
AcDbEntity
  8
6_ALL_SURFS
100
AcDbLine
 62
7
  6
CONTINUOUS
 10
2120.516407119
 20
1501.9474913271
 11
2120.516407119
 21
1521.8474810517
  0
LINE
  5
44E
100
AcDbEntity
  8
7_ALL_FEATURES
100
AcDbLine
 62
7
  6
CONTINUOUS
 10
2122.016407119
 20
1501.9474913271
 11
2122.016407119
 21
1431.8474913271
  0
LINE
  5
44F
100
AcDbEntity
  8
3_ALL_AXES
100
AcDbLine
 62
7
  6
CONTINUOUS
 10
2122.9656867894
 20
1432.0474913271
 11
2122.9656867894
 21
1437.5474913271
  0
LINE
  5
450
100
AcDbEntity
  8
3_ALL_AXES
100
AcDbLine
 62
7
  6
CONTINUOUS
 10
2122.9656867894
 20
1441.1974913271
 11
2122.9656867894
 21
1446.6974913271
  0
LINE
  5
451
100
AcDbEntity
  8
3_ALL_AXES
100
AcDbLine
 62
7
  6
CONTINUOUS
 10
2122.9656867894
 20
1487.0974913271
 11
2122.9656867894
 21
1492.5974913271
  0
LINE
  5
452
100
AcDbEntity
  8
3_ALL_AXES
100
AcDbLine
 62
7
  6
CONTINUOUS
 10
2122.9656867894
 20
1496.2474913271
 11
2122.9656867894
 21
1501.7474913271
  0
LINE
  5
453
100
AcDbEntity
  8
3_ALL_AXES
100
AcDbLine
 62
7
  6
CONTINUOUS
 10
2123.116407119
 20
1432.0474913271
 11
2123.116407119
 21
1437.5474913271
  0
LINE
  5
454
100
AcDbEntity
  8
3_ALL_AXES
100
AcDbLine
 62
7
  6
CONTINUOUS
 10
2123.116407119
 20
1441.1974913271
 11
2123.116407119
 21
1446.6974913271
  0
LINE
  5
455
100
AcDbEntity
  8
3_ALL_AXES
100
AcDbLine
 62
7
  6
CONTINUOUS
 10
2123.116407119
 20
1487.0974913271
 11
2123.116407119
 21
1492.5974913271
  0
LINE
  5
456
100
AcDbEntity
  8
3_ALL_AXES
100
AcDbLine
 62
7
  6
CONTINUOUS
 10
2123.116407119
 20
1496.2474913271
 11
2123.116407119
 21
1501.7474913271
  0
CIRCLE
  5
457
100
AcDbEntity
  8
3_ALL_AXES
100
AcDbCircle
 62
7
  6
CONTINUOUS
 10
640.4317355917
 20
1003.9033648498
 40
2.75
  0
ARC
  5
458
100
AcDbEntity
  8
6_ALL_SURFS
100
AcDbCircle
 62
7
  6
CONTINUOUS
 10
639.1317355917
 20
990.90529078
 40
2.15
100
AcDbArc
 50
140.2993625998
 51
219.7006374002
  0
ARC
  5
459
100
AcDbEntity
  8
6_ALL_SURFS
100
AcDbCircle
 62
7
  6
CONTINUOUS
 10
638.8817355917
 20
1009.8033648498
 40
1.5
100
AcDbArc
 50
270.0
 51
360.0
  0
ARC
  5
45A
100
AcDbEntity
  8
6_ALL_SURFS
100
AcDbCircle
 62
7
  6
CONTINUOUS
 10
638.2317355917
 20
1007.5533648498
 40
0.75
100
AcDbArc
 50
90.0
 51
180.0
  0
ARC
  5
45B
100
AcDbEntity
  8
7_ALL_FEATURES
100
AcDbCircle
 62
7
  6
CONTINUOUS
 10
638.2317355917
 20
977.6533648498
 40
0.75
100
AcDbArc
 50
180.0
 51
270.0
  0
ARC
  5
45C
100
AcDbEntity
  8
6_ALL_SURFS
100
AcDbCircle
 62
7
  6
CONTINUOUS
 10
623.0817355917
 20
978.0033648498
 40
0.5
100
AcDbArc
 50
53.1301023542
 51
126.8698976458
  0
ARC
  5
45D
100
AcDbEntity
  8
6_ALL_SURFS
100
AcDbCircle
 62
7
  6
CONTINUOUS
 10
626.0817355917
 20
978.0033648498
 40
0.5
100
AcDbArc
 50
53.1301023542
 51
126.8698976458
  0
ARC
  5
45E
100
AcDbEntity
  8
6_ALL_SURFS
100
AcDbCircle
 62
7
  6
CONTINUOUS
 10
629.0817355917
 20
978.0033648498
 40
0.5
100
AcDbArc
 50
53.1301023542
 51
126.8698976458
  0
ARC
  5
45F
100
AcDbEntity
  8
6_ALL_SURFS
100
AcDbCircle
 62
7
  6
CONTINUOUS
 10
632.0817355917
 20
978.0033648498
 40
0.5
100
AcDbArc
 50
53.1301023542
 51
126.8698976458
  0
ARC
  5
460
100
AcDbEntity
  8
6_ALL_SURFS
100
AcDbCircle
 62
7
  6
CONTINUOUS
 10
635.0817355917
 20
978.0033648498
 40
0.5
100
AcDbArc
 50
53.1301023542
 51
126.8698976458
  0
ARC
  5
461
100
AcDbEntity
  8
6_ALL_SURFS
100
AcDbCircle
 62
7
  6
CONTINUOUS
 10
617.9754389496
 20
979.0096614919
 40
0.3937033579
100
AcDbArc
 50
90.0
 51
264.2894068625
  0
ARC
  5
462
100
AcDbEntity
  8
6_ALL_SURFS
100
AcDbCircle
 62
7
  6
CONTINUOUS
 10
638.1317355917
 20
977.2033648498
 40
0.3
100
AcDbArc
 50
238.3835279493
 51
270.0
  0
ARC
  5
463
100
AcDbEntity
  8
6_ALL_SURFS
100
AcDbCircle
 62
7
  6
CONTINUOUS
 10
637.2817355917
 20
979.7033648498
 40
0.3
100
AcDbArc
 50
270.0
 51
312.0675718143
  0
ARC
  5
464
100
AcDbEntity
  8
6_ALL_SURFS
100
AcDbCircle
 62
7
  6
CONTINUOUS
 10
645.3817355917
 20
1042.28063839
 40
5.0
100
AcDbArc
 50
167.4878142167
 51
180.0
  0
CIRCLE
  5
465
100
AcDbEntity
  8
3_ALL_AXES
100
AcDbCircle
 62
7
  6
CONTINUOUS
 10
649.5817355917
 20
1064.6533648498
 40
2.75
  0
ARC
  5
466
100
AcDbEntity
  8
6_ALL_SURFS
100
AcDbCircle
 62
7
  6
CONTINUOUS
 10
641.8817355917
 20
1042.1232564705
 40
1.5
100
AcDbArc
 50
168.8118414334
 51
180.0
  0
ARC
  5
467
100
AcDbEntity
  8
6_ALL_SURFS
100
AcDbCircle
 62
7
  6
CONTINUOUS
 10
670.4317355917
 20
1066.4033648498
 40
1.5
100
AcDbArc
 50
90.0
 51
101.3402284246
  0
ARC
  5
468
100
AcDbEntity
  8
6_ALL_SURFS
100
AcDbCircle
 62
7
  6
CONTINUOUS
 10
669.8859842806
 20
1066.9033648498
 40
1.0
100
AcDbArc
 50
48.5903778907
 51
90.0
  0
ARC
  5
469
100
AcDbEntity
  8
7_ALL_FEATURES
100
AcDbCircle
 62
7
  6
CONTINUOUS
 10
645.9800491375
 20
1067.1533648498
 40
0.75
100
AcDbArc
 50
90.0
 51
169.0055723475
  0
ARC
  5
46A
100
AcDbEntity
  8
7_ALL_FEATURES
100
AcDbCircle
 62
7
  6
CONTINUOUS
 10
646.0679252202
 20
1067.1533648498
 40
0.75
100
AcDbArc
 50
90.0
 51
168.8118414334
  0
CIRCLE
  5
46B
100
AcDbEntity
  8
3_ALL_AXES
100
AcDbCircle
 62
7
  6
CONTINUOUS
 10
704.6317355917
 20
1003.9033648498
 40
2.75
  0
ARC
  5
46C
100
AcDbEntity
  8
7_ALL_FEATURES
100
AcDbCircle
 62
7
  6
CONTINUOUS
 10
705.9317355917
 20
990.90529078
 40
2.15
100
AcDbArc
 50
320.2993625998
 51
39.7006374002
  0
ARC
  5
46D
100
AcDbEntity
  8
6_ALL_SURFS
100
AcDbCircle
 62
7
  6
CONTINUOUS
 10
706.1817355917
 20
1009.8033648498
 40
1.5
100
AcDbArc
 50
180.0
 51
270.0
  0
ARC
  5
46E
100
AcDbEntity
  8
7_ALL_FEATURES
100
AcDbCircle
 62
7
  6
CONTINUOUS
 10
706.8317355917
 20
977.6533648498
 40
0.75
100
AcDbArc
 50
270.0
 51
360.0
  0
ARC
  5
46F
100
AcDbEntity
  8
6_ALL_SURFS
100
AcDbCircle
 62
7
  6
CONTINUOUS
 10
706.8317355917
 20
1007.5533648498
 40
0.75
100
AcDbArc
 50
0.0
 51
90.0
  0
ARC
  5
470
100
AcDbEntity
  8
6_ALL_SURFS
100
AcDbCircle
 62
7
  6
CONTINUOUS
 10
709.9817355917
 20
978.0033648498
 40
0.5
100
AcDbArc
 50
53.1301023542
 51
126.8698976458
  0
ARC
  5
471
100
AcDbEntity
  8
6_ALL_SURFS
100
AcDbCircle
 62
7
  6
CONTINUOUS
 10
712.9817355917
 20
978.0033648498
 40
0.5
100
AcDbArc
 50
53.1301023542
 51
126.8698976458
  0
ARC
  5
472
100
AcDbEntity
  8
6_ALL_SURFS
100
AcDbCircle
 62
7
  6
CONTINUOUS
 10
715.9817355917
 20
978.0033648498
 40
0.5
100
AcDbArc
 50
53.1301023542
 51
126.8698976458
  0
ARC
  5
473
100
AcDbEntity
  8
6_ALL_SURFS
100
AcDbCircle
 62
7
  6
CONTINUOUS
 10
718.9817355917
 20
978.0033648498
 40
0.5
100
AcDbArc
 50
53.1301023542
 51
126.8698976458
  0
ARC
  5
474
100
AcDbEntity
  8
6_ALL_SURFS
100
AcDbCircle
 62
7
  6
CONTINUOUS
 10
721.9817355917
 20
978.0033648498
 40
0.5
100
AcDbArc
 50
53.1301023542
 51
126.8698976458
  0
ARC
  5
475
100
AcDbEntity
  8
7_ALL_FEATURES
100
AcDbCircle
 62
7
  6
CONTINUOUS
 10
727.0880322338
 20
979.0096614919
 40
0.3937033579
100
AcDbArc
 50
275.7105931375
 51
90.0
  0
ARC
  5
476
100
AcDbEntity
  8
7_ALL_FEATURES
100
AcDbCircle
 62
7
  6
CONTINUOUS
 10
707.7817355917
 20
979.7033648498
 40
0.3
100
AcDbArc
 50
227.9324281857
 51
270.0
  0
ARC
  5
477
100
AcDbEntity
  8
7_ALL_FEATURES
100
AcDbCircle
 62
7
  6
CONTINUOUS
 10
706.9317355917
 20
977.2033648498
 40
0.3
100
AcDbArc
 50
270.0
 51
301.6164720507
  0
ARC
  5
478
100
AcDbEntity
  8
6_ALL_SURFS
100
AcDbCircle
 62
7
  6
CONTINUOUS
 10
672.5317355917
 20
1048.9033648498
 40
11.0
100
AcDbArc
 50
3.257196161
 51
176.742803839
  0
ARC
  5
479
100
AcDbEntity
  8
6_ALL_SURFS
100
AcDbCircle
 62
7
  6
CONTINUOUS
 10
672.5317355917
 20
1048.9033648498
 40
11.0
100
AcDbArc
 50
183.257196161
 51
356.742803839
  0
ARC
  5
47A
100
AcDbEntity
  8
6_ALL_SURFS
100
AcDbCircle
 62
7
  6
CONTINUOUS
 10
672.5317355917
 20
1048.9033648498
 40
10.25
100
AcDbArc
 50
3.4958136324
 51
176.5041863676
  0
ARC
  5
47B
100
AcDbEntity
  8
6_ALL_SURFS
100
AcDbCircle
 62
7
  6
CONTINUOUS
 10
672.5317355917
 20
1048.9033648498
 40
10.25
100
AcDbArc
 50
183.4958136324
 51
356.5041863676
  0
ARC
  5
47C
100
AcDbEntity
  8
7_ALL_FEATURES
100
AcDbCircle
 62
7
  6
CONTINUOUS
 10
699.6817355917
 20
1042.28063839
 40
5.0
100
AcDbArc
 50
0.0
 51
12.5121857833
  0
ARC
  5
47D
100
AcDbEntity
  8
6_ALL_SURFS
100
AcDbCircle
 62
7
  6
CONTINUOUS
 10
672.5317355917
 20
1069.9033648498
 40
3.0
100
AcDbArc
 50
228.5903778907
 51
311.4096221093
  0
CIRCLE
  5
47E
100
AcDbEntity
  8
3_ALL_AXES
100
AcDbCircle
 62
7
  6
CONTINUOUS
 10
695.4817355917
 20
1064.6533648498
 40
2.75
  0
ARC
  5
47F
100
AcDbEntity
  8
7_ALL_FEATURES
100
AcDbCircle
 62
7
  6
CONTINUOUS
 10
703.1817355917
 20
1042.1280938585
 40
1.5
100
AcDbArc
 50
0.0
 51
9.6155456361
  0
ARC
  5
480
100
AcDbEntity
  8
7_ALL_FEATURES
100
AcDbCircle
 62
7
  6
CONTINUOUS
 10
674.6317355917
 20
1066.4033648498
 40
1.5
100
AcDbArc
 50
78.6597715754
 51
90.0
  0
ARC
  5
481
100
AcDbEntity
  8
6_ALL_SURFS
100
AcDbCircle
 62
7
  6
CONTINUOUS
 10
675.1774869028
 20
1066.9033648498
 40
1.0
100
AcDbArc
 50
90.0
 51
131.4096221093
  0
ARC
  5
482
100
AcDbEntity
  8
7_ALL_FEATURES
100
AcDbCircle
 62
7
  6
CONTINUOUS
 10
699.0834220458
 20
1067.1533648498
 40
0.75
100
AcDbArc
 50
10.9944276525
 51
90.0
  0
ARC
  5
483
100
AcDbEntity
  8
7_ALL_FEATURES
100
AcDbCircle
 62
7
  6
CONTINUOUS
 10
1058.516407119
 20
1417.9474913271
 40
4.7990381057
100
AcDbArc
 50
152.7144649101
 51
182.3884943821
  0
ARC
  5
484
100
AcDbEntity
  8
7_ALL_FEATURES
100
AcDbCircle
 62
7
  6
CONTINUOUS
 10
1308.516407119
 20
1417.9474913271
 40
4.7990381057
100
AcDbArc
 50
152.7144649101
 51
182.3884943821
  0
ARC
  5
485
100
AcDbEntity
  8
7_ALL_FEATURES
100
AcDbCircle
 62
7
  6
CONTINUOUS
 10
1058.516407119
 20
1417.9474913271
 40
4.7990381057
100
AcDbArc
 50
357.6115056179
 51
27.2855350899
  0
ARC
  5
486
100
AcDbEntity
  8
7_ALL_FEATURES
100
AcDbCircle
 62
7
  6
CONTINUOUS
 10
1308.516407119
 20
1417.9474913271
 40
4.7990381057
100
AcDbArc
 50
357.6115056179
 51
27.2855350899
  0
ARC
  5
487
100
AcDbEntity
  8
7_ALL_FEATURES
100
AcDbCircle
 62
7
  6
CONTINUOUS
 10
1308.516407119
 20
1417.9474913271
 40
4.7990381057
100
AcDbArc
 50
35.6935828234
 51
144.3064171766
  0
ARC
  5
488
100
AcDbEntity
  8
7_ALL_FEATURES
100
AcDbCircle
 62
7
  6
CONTINUOUS
 10
1058.516407119
 20
1417.9474913271
 40
4.7990381057
100
AcDbArc
 50
35.6935828234
 51
144.3064171766
  0
ARC
  5
489
100
AcDbEntity
  8
7_ALL_FEATURES
100
AcDbCircle
 62
7
  6
CONTINUOUS
 10
1058.516407119
 20
1417.9474913271
 40
4.7990381057
100
AcDbArc
 50
189.5960093944
 51
226.828815981
  0
ARC
  5
48A
100
AcDbEntity
  8
7_ALL_FEATURES
100
AcDbCircle
 62
7
  6
CONTINUOUS
 10
1308.516407119
 20
1417.9474913271
 40
4.7990381057
100
AcDbArc
 50
189.5960093944
 51
226.828815981
  0
ARC
  5
48B
100
AcDbEntity
  8
7_ALL_FEATURES
100
AcDbCircle
 62
7
  6
CONTINUOUS
 10
1058.516407119
 20
1417.9474913271
 40
4.7990381057
100
AcDbArc
 50
313.171184019
 51
350.4039906056
  0
ARC
  5
48C
100
AcDbEntity
  8
7_ALL_FEATURES
100
AcDbCircle
 62
7
  6
CONTINUOUS
 10
1308.516407119
 20
1417.9474913271
 40
4.7990381057
100
AcDbArc
 50
313.171184019
 51
350.4039906056
  0
CIRCLE
  5
48D
100
AcDbEntity
  8
6_ALL_SURFS
100
AcDbCircle
 62
7
  6
CONTINUOUS
 10
1058.516407119
 20
1417.9474913271
 40
3.5
  0
CIRCLE
  5
48E
100
AcDbEntity
  8
6_ALL_SURFS
100
AcDbCircle
 62
7
  6
CONTINUOUS
 10
1308.516407119
 20
1417.9474913271
 40
3.5
  0
ARC
  5
48F
100
AcDbEntity
  8
6_ALL_SURFS
100
AcDbCircle
 62
7
  6
CONTINUOUS
 10
1308.516407119
 20
1515.8474913271
 40
4.7990381057
100
AcDbArc
 50
332.7144649101
 51
2.3884943821
  0
ARC
  5
490
100
AcDbEntity
  8
6_ALL_SURFS
100
AcDbCircle
 62
7
  6
CONTINUOUS
 10
1058.516407119
 20
1515.8474913271
 40
4.7990381057
100
AcDbArc
 50
332.7144649101
 51
2.3884943821
  0
ARC
  5
491
100
AcDbEntity
  8
6_ALL_SURFS
100
AcDbCircle
 62
7
  6
CONTINUOUS
 10
1308.516407119
 20
1515.8474913271
 40
4.7990381057
100
AcDbArc
 50
177.6115056179
 51
207.2855350899
  0
ARC
  5
492
100
AcDbEntity
  8
6_ALL_SURFS
100
AcDbCircle
 62
7
  6
CONTINUOUS
 10
1058.516407119
 20
1515.8474913271
 40
4.7990381057
100
AcDbArc
 50
177.6115056179
 51
207.2855350899
  0
ARC
  5
493
100
AcDbEntity
  8
6_ALL_SURFS
100
AcDbCircle
 62
7
  6
CONTINUOUS
 10
1308.516407119
 20
1515.8474913271
 40
4.7990381057
100
AcDbArc
 50
9.5960093944
 51
46.828815981
  0
ARC
  5
494
100
AcDbEntity
  8
6_ALL_SURFS
100
AcDbCircle
 62
7
  6
CONTINUOUS
 10
1058.516407119
 20
1515.8474913271
 40
4.7990381057
100
AcDbArc
 50
9.5960093944
 51
46.828815981
  0
ARC
  5
495
100
AcDbEntity
  8
6_ALL_SURFS
100
AcDbCircle
 62
7
  6
CONTINUOUS
 10
1308.516407119
 20
1515.8474913271
 40
4.7990381057
100
AcDbArc
 50
133.171184019
 51
170.4039906056
  0
ARC
  5
496
100
AcDbEntity
  8
6_ALL_SURFS
100
AcDbCircle
 62
7
  6
CONTINUOUS
 10
1058.516407119
 20
1515.8474913271
 40
4.7990381057
100
AcDbArc
 50
133.171184019
 51
170.4039906056
  0
ARC
  5
497
100
AcDbEntity
  8
6_ALL_SURFS
100
AcDbCircle
 62
7
  6
CONTINUOUS
 10
1308.516407119
 20
1515.8474913271
 40
4.7990381057
100
AcDbArc
 50
215.6935828234
 51
324.3064171766
  0
ARC
  5
498
100
AcDbEntity
  8
6_ALL_SURFS
100
AcDbCircle
 62
7
  6
CONTINUOUS
 10
1058.516407119
 20
1515.8474913271
 40
4.7990381057
100
AcDbArc
 50
215.6935828234
 51
324.3064171766
  0
CIRCLE
  5
499
100
AcDbEntity
  8
6_ALL_SURFS
100
AcDbCircle
 62
7
  6
CONTINUOUS
 10
1308.516407119
 20
1515.8474913271
 40
3.5
  0
CIRCLE
  5
49A
100
AcDbEntity
  8
6_ALL_SURFS
100
AcDbCircle
 62
7
  6
CONTINUOUS
 10
1058.516407119
 20
1515.8474913271
 40
3.5
  0
ARC
  5
49B
100
AcDbEntity
  8
7_ALL_FEATURES
100
AcDbCircle
 62
7
  6
CONTINUOUS
 10
1558.516407119
 20
1417.9474913271
 40
4.7990381057
100
AcDbArc
 50
152.7144649101
 51
182.3884943821
  0
ARC
  5
49C
100
AcDbEntity
  8
7_ALL_FEATURES
100
AcDbCircle
 62
7
  6
CONTINUOUS
 10
1808.516407119
 20
1417.9474913271
 40
4.7990381057
100
AcDbArc
 50
152.7144649101
 51
182.3884943821
  0
ARC
  5
49D
100
AcDbEntity
  8
7_ALL_FEATURES
100
AcDbCircle
 62
7
  6
CONTINUOUS
 10
1558.516407119
 20
1417.9474913271
 40
4.7990381057
100
AcDbArc
 50
357.6115056179
 51
27.2855350899
  0
ARC
  5
49E
100
AcDbEntity
  8
7_ALL_FEATURES
100
AcDbCircle
 62
7
  6
CONTINUOUS
 10
2058.516407119
 20
1417.9474913271
 40
4.7990381057
100
AcDbArc
 50
152.7144649101
 51
182.3884943821
  0
ARC
  5
49F
100
AcDbEntity
  8
7_ALL_FEATURES
100
AcDbCircle
 62
7
  6
CONTINUOUS
 10
1808.516407119
 20
1417.9474913271
 40
4.7990381057
100
AcDbArc
 50
357.6115056179
 51
27.2855350899
  0
ARC
  5
4A0
100
AcDbEntity
  8
7_ALL_FEATURES
100
AcDbCircle
 62
7
  6
CONTINUOUS
 10
2058.516407119
 20
1417.9474913271
 40
4.7990381057
100
AcDbArc
 50
357.6115056179
 51
27.2855350899
  0
ARC
  5
4A1
100
AcDbEntity
  8
7_ALL_FEATURES
100
AcDbCircle
 62
7
  6
CONTINUOUS
 10
1558.516407119
 20
1417.9474913271
 40
4.7990381057
100
AcDbArc
 50
35.6935828234
 51
144.3064171766
  0
ARC
  5
4A2
100
AcDbEntity
  8
7_ALL_FEATURES
100
AcDbCircle
 62
7
  6
CONTINUOUS
 10
1808.516407119
 20
1417.9474913271
 40
4.7990381057
100
AcDbArc
 50
35.6935828234
 51
144.3064171766
  0
ARC
  5
4A3
100
AcDbEntity
  8
7_ALL_FEATURES
100
AcDbCircle
 62
7
  6
CONTINUOUS
 10
2058.516407119
 20
1417.9474913271
 40
4.7990381057
100
AcDbArc
 50
35.6935828234
 51
144.3064171766
  0
ARC
  5
4A4
100
AcDbEntity
  8
7_ALL_FEATURES
100
AcDbCircle
 62
7
  6
CONTINUOUS
 10
1558.516407119
 20
1417.9474913271
 40
4.7990381057
100
AcDbArc
 50
189.5960093944
 51
226.828815981
  0
ARC
  5
4A5
100
AcDbEntity
  8
7_ALL_FEATURES
100
AcDbCircle
 62
7
  6
CONTINUOUS
 10
1808.516407119
 20
1417.9474913271
 40
4.7990381057
100
AcDbArc
 50
189.5960093944
 51
226.828815981
  0
ARC
  5
4A6
100
AcDbEntity
  8
7_ALL_FEATURES
100
AcDbCircle
 62
7
  6
CONTINUOUS
 10
1558.516407119
 20
1417.9474913271
 40
4.7990381057
100
AcDbArc
 50
313.171184019
 51
350.4039906056
  0
ARC
  5
4A7
100
AcDbEntity
  8
7_ALL_FEATURES
100
AcDbCircle
 62
7
  6
CONTINUOUS
 10
2058.516407119
 20
1417.9474913271
 40
4.7990381057
100
AcDbArc
 50
189.5960093944
 51
226.828815981
  0
ARC
  5
4A8
100
AcDbEntity
  8
7_ALL_FEATURES
100
AcDbCircle
 62
7
  6
CONTINUOUS
 10
1808.516407119
 20
1417.9474913271
 40
4.7990381057
100
AcDbArc
 50
313.171184019
 51
350.4039906056
  0
ARC
  5
4A9
100
AcDbEntity
  8
7_ALL_FEATURES
100
AcDbCircle
 62
7
  6
CONTINUOUS
 10
2058.516407119
 20
1417.9474913271
 40
4.7990381057
100
AcDbArc
 50
313.171184019
 51
350.4039906056
  0
CIRCLE
  5
4AA
100
AcDbEntity
  8
6_ALL_SURFS
100
AcDbCircle
 62
7
  6
CONTINUOUS
 10
1558.516407119
 20
1417.9474913271
 40
3.5
  0
CIRCLE
  5
4AB
100
AcDbEntity
  8
6_ALL_SURFS
100
AcDbCircle
 62
7
  6
CONTINUOUS
 10
1808.516407119
 20
1417.9474913271
 40
3.5
  0
CIRCLE
  5
4AC
100
AcDbEntity
  8
6_ALL_SURFS
100
AcDbCircle
 62
7
  6
CONTINUOUS
 10
2058.516407119
 20
1417.9474913271
 40
3.5
  0
ARC
  5
4AD
100
AcDbEntity
  8
6_ALL_SURFS
100
AcDbCircle
 62
7
  6
CONTINUOUS
 10
2058.516407119
 20
1515.8474913271
 40
4.7990381057
100
AcDbArc
 50
332.7144649101
 51
2.3884943821
  0
ARC
  5
4AE
100
AcDbEntity
  8
6_ALL_SURFS
100
AcDbCircle
 62
7
  6
CONTINUOUS
 10
1808.516407119
 20
1515.8474913271
 40
4.7990381057
100
AcDbArc
 50
332.7144649101
 51
2.3884943821
  0
ARC
  5
4AF
100
AcDbEntity
  8
6_ALL_SURFS
100
AcDbCircle
 62
7
  6
CONTINUOUS
 10
2058.516407119
 20
1515.8474913271
 40
4.7990381057
100
AcDbArc
 50
177.6115056179
 51
207.2855350899
  0
ARC
  5
4B0
100
AcDbEntity
  8
6_ALL_SURFS
100
AcDbCircle
 62
7
  6
CONTINUOUS
 10
1558.516407119
 20
1515.8474913271
 40
4.7990381057
100
AcDbArc
 50
332.7144649101
 51
2.3884943821
  0
ARC
  5
4B1
100
AcDbEntity
  8
6_ALL_SURFS
100
AcDbCircle
 62
7
  6
CONTINUOUS
 10
1808.516407119
 20
1515.8474913271
 40
4.7990381057
100
AcDbArc
 50
177.6115056179
 51
207.2855350899
  0
ARC
  5
4B2
100
AcDbEntity
  8
6_ALL_SURFS
100
AcDbCircle
 62
7
  6
CONTINUOUS
 10
1558.516407119
 20
1515.8474913271
 40
4.7990381057
100
AcDbArc
 50
177.6115056179
 51
207.2855350899
  0
ARC
  5
4B3
100
AcDbEntity
  8
6_ALL_SURFS
100
AcDbCircle
 62
7
  6
CONTINUOUS
 10
2058.516407119
 20
1515.8474913271
 40
4.7990381057
100
AcDbArc
 50
9.5960093944
 51
46.828815981
  0
ARC
  5
4B4
100
AcDbEntity
  8
6_ALL_SURFS
100
AcDbCircle
 62
7
  6
CONTINUOUS
 10
1808.516407119
 20
1515.8474913271
 40
4.7990381057
100
AcDbArc
 50
9.5960093944
 51
46.828815981
  0
ARC
  5
4B5
100
AcDbEntity
  8
6_ALL_SURFS
100
AcDbCircle
 62
7
  6
CONTINUOUS
 10
2058.516407119
 20
1515.8474913271
 40
4.7990381057
100
AcDbArc
 50
133.171184019
 51
170.4039906056
  0
ARC
  5
4B6
100
AcDbEntity
  8
6_ALL_SURFS
100
AcDbCircle
 62
7
  6
CONTINUOUS
 10
1558.516407119
 20
1515.8474913271
 40
4.7990381057
100
AcDbArc
 50
9.5960093944
 51
46.828815981
  0
ARC
  5
4B7
100
AcDbEntity
  8
6_ALL_SURFS
100
AcDbCircle
 62
7
  6
CONTINUOUS
 10
1808.516407119
 20
1515.8474913271
 40
4.7990381057
100
AcDbArc
 50
133.171184019
 51
170.4039906056
  0
ARC
  5
4B8
100
AcDbEntity
  8
6_ALL_SURFS
100
AcDbCircle
 62
7
  6
CONTINUOUS
 10
1558.516407119
 20
1515.8474913271
 40
4.7990381057
100
AcDbArc
 50
133.171184019
 51
170.4039906056
  0
ARC
  5
4B9
100
AcDbEntity
  8
6_ALL_SURFS
100
AcDbCircle
 62
7
  6
CONTINUOUS
 10
1558.516407119
 20
1515.8474913271
 40
4.7990381057
100
AcDbArc
 50
215.6935828234
 51
324.3064171766
  0
ARC
  5
4BA
100
AcDbEntity
  8
6_ALL_SURFS
100
AcDbCircle
 62
7
  6
CONTINUOUS
 10
1808.516407119
 20
1515.8474913271
 40
4.7990381057
100
AcDbArc
 50
215.6935828234
 51
324.3064171766
  0
ARC
  5
4BB
100
AcDbEntity
  8
6_ALL_SURFS
100
AcDbCircle
 62
7
  6
CONTINUOUS
 10
2058.516407119
 20
1515.8474913271
 40
4.7990381057
100
AcDbArc
 50
215.6935828234
 51
324.3064171766
  0
CIRCLE
  5
4BC
100
AcDbEntity
  8
6_ALL_SURFS
100
AcDbCircle
 62
7
  6
CONTINUOUS
 10
2058.516407119
 20
1515.8474913271
 40
3.5
  0
CIRCLE
  5
4BD
100
AcDbEntity
  8
6_ALL_SURFS
100
AcDbCircle
 62
7
  6
CONTINUOUS
 10
1808.516407119
 20
1515.8474913271
 40
3.5
  0
CIRCLE
  5
4BE
100
AcDbEntity
  8
6_ALL_SURFS
100
AcDbCircle
 62
7
  6
CONTINUOUS
 10
1558.516407119
 20
1515.8474913271
 40
3.5
  0
SPLINE
  5
4BF
100
AcDbEntity
  8
7_ALL_FEATURES
100
AcDbSpline
 62
7
  6
CONTINUOUS
 70
0
 71
3
 72
10
 73
6
 74
0
 42
0.0000001
 43
0.0000001
 44
0.0000000001
 40
0.0
 40
0.0
 40
0.0
 40
0.0
 40
0.243976962
 40
0.502626745
 40
1.0
 40
1.0
 40
1.0
 40
1.0
 10
1053.7845188342
 20
1417.1474913271
 30
0.0
 10
1053.8273074569
 20
1417.1847504388
 30
0.0
 10
1053.9053384946
 20
1417.2771851768
 30
0.0
 10
1053.943766517
 20
1417.5218832628
 30
0.0
 10
1053.8142823898
 20
1417.6783762512
 30
0.0
 10
1053.7215383263
 20
1417.7474913271
 30
0.0
  0
SPLINE
  5
4C0
100
AcDbEntity
  8
6_ALL_SURFS
100
AcDbSpline
 62
7
  6
CONTINUOUS
 70
0
 71
3
 72
11
 73
7
 74
0
 42
0.0000001
 43
0.0000001
 44
0.0000000001
 40
0.0
 40
0.0
 40
0.0
 40
0.0
 40
0.2321628201
 40
0.4902905571
 40
0.7482782646
 40
1.0
 40
1.0
 40
1.0
 40
1.0
 10
1062.4139405364
 20
1513.0474913271
 30
0.0
 10
1062.3730437582
 20
1513.0939066939
 30
0.0
 10
1062.3293788788
 20
1513.2388641141
 30
0.0
 10
1062.4485929615
 20
1513.4163356741
 30
0.0
 10
1062.6034666557
 20
1513.5479798314
 30
0.0
 10
1062.7216147915
 20
1513.617222782
 30
0.0
 10
1062.7814706285
 20
1513.6474913271
 30
0.0
  0
SPLINE
  5
4C1
100
AcDbEntity
  8
7_ALL_FEATURES
100
AcDbSpline
 62
7
  6
CONTINUOUS
 70
0
 71
3
 72
10
 73
6
 74
0
 42
0.0000001
 43
0.0000001
 44
0.0000000001
 40
0.0
 40
0.0
 40
0.0
 40
0.0
 40
0.243976962
 40
0.502626745
 40
1.0
 40
1.0
 40
1.0
 40
1.0
 10
1303.7845188342
 20
1417.1474913271
 30
0.0
 10
1303.8273074569
 20
1417.1847504388
 30
0.0
 10
1303.9053384946
 20
1417.2771851768
 30
0.0
 10
1303.943766517
 20
1417.5218832628
 30
0.0
 10
1303.8142823898
 20
1417.6783762512
 30
0.0
 10
1303.7215383263
 20
1417.7474913271
 30
0.0
  0
SPLINE
  5
4C2
100
AcDbEntity
  8
6_ALL_SURFS
100
AcDbSpline
 62
7
  6
CONTINUOUS
 70
0
 71
3
 72
11
 73
7
 74
0
 42
0.0000001
 43
0.0000001
 44
0.0000000001
 40
0.0
 40
0.0
 40
0.0
 40
0.0
 40
0.2517159456
 40
0.5096938011
 40
0.7678176764
 40
1.0
 40
1.0
 40
1.0
 40
1.0
 10
1304.2513436096
 20
1513.6474913271
 30
0.0
 10
1304.3111980958
 20
1513.6172234651
 30
0.0
 10
1304.4293427371
 20
1513.5479827229
 30
0.0
 10
1304.5842132673
 20
1513.4163430377
 30
0.0
 10
1304.7034359873
 20
1513.2388770097
 30
0.0
 10
1304.6597739332
 20
1513.0939106132
 30
0.0
 10
1304.6188737016
 20
1513.0474913271
 30
0.0
  0
SPLINE
  5
4C3
100
AcDbEntity
  8
7_ALL_FEATURES
100
AcDbSpline
 62
7
  6
CONTINUOUS
 70
0
 71
3
 72
10
 73
6
 74
0
 42
0.0000001
 43
0.0000001
 44
0.0000000001
 40
0.0
 40
0.0
 40
0.0
 40
0.0
 40
0.497373255
 40
0.756023038
 40
1.0
 40
1.0
 40
1.0
 40
1.0
 10
1063.3112759118
 20
1417.7474913271
 30
0.0
 10
1063.2185318482
 20
1417.6783762512
 30
0.0
 10
1063.089047721
 20
1417.5218832628
 30
0.0
 10
1063.1274757434
 20
1417.2771851768
 30
0.0
 10
1063.2055067811
 20
1417.1847504388
 30
0.0
 10
1063.2482954038
 20
1417.1474913271
 30
0.0
  0
SPLINE
  5
4C4
100
AcDbEntity
  8
6_ALL_SURFS
100
AcDbSpline
 62
7
  6
CONTINUOUS
 70
0
 71
3
 72
11
 73
7
 74
0
 42
0.0000001
 43
0.0000001
 44
0.0000000001
 40
0.0
 40
0.0
 40
0.0
 40
0.0
 40
0.2517159456
 40
0.5096938011
 40
0.7678176764
 40
1.0
 40
1.0
 40
1.0
 40
1.0
 10
1054.2513436096
 20
1513.6474913271
 30
0.0
 10
1054.3111980958
 20
1513.6172234651
 30
0.0
 10
1054.4293427371
 20
1513.5479827229
 30
0.0
 10
1054.5842132673
 20
1513.4163430377
 30
0.0
 10
1054.7034359873
 20
1513.2388770097
 30
0.0
 10
1054.6597739332
 20
1513.0939106132
 30
0.0
 10
1054.6188737016
 20
1513.0474913271
 30
0.0
  0
SPLINE
  5
4C5
100
AcDbEntity
  8
7_ALL_FEATURES
100
AcDbSpline
 62
7
  6
CONTINUOUS
 70
0
 71
3
 72
10
 73
6
 74
0
 42
0.0000001
 43
0.0000001
 44
0.0000000001
 40
0.0
 40
0.0
 40
0.0
 40
0.0
 40
0.243976962
 40
0.502626745
 40
1.0
 40
1.0
 40
1.0
 40
1.0
 10
1553.7845188342
 20
1417.1474913271
 30
0.0
 10
1553.8273074569
 20
1417.1847504388
 30
0.0
 10
1553.9053384946
 20
1417.2771851768
 30
0.0
 10
1553.943766517
 20
1417.5218832628
 30
0.0
 10
1553.8142823898
 20
1417.6783762512
 30
0.0
 10
1553.7215383263
 20
1417.7474913271
 30
0.0
  0
SPLINE
  5
4C6
100
AcDbEntity
  8
7_ALL_FEATURES
100
AcDbSpline
 62
7
  6
CONTINUOUS
 70
0
 71
3
 72
10
 73
6
 74
0
 42
0.0000001
 43
0.0000001
 44
0.0000000001
 40
0.0
 40
0.0
 40
0.0
 40
0.0
 40
0.497373255
 40
0.756023038
 40
1.0
 40
1.0
 40
1.0
 40
1.0
 10
1313.3112759118
 20
1417.7474913271
 30
0.0
 10
1313.2185318482
 20
1417.6783762512
 30
0.0
 10
1313.089047721
 20
1417.5218832628
 30
0.0
 10
1313.1274757434
 20
1417.2771851768
 30
0.0
 10
1313.2055067811
 20
1417.1847504388
 30
0.0
 10
1313.2482954038
 20
1417.1474913271
 30
0.0
  0
SPLINE
  5
4C7
100
AcDbEntity
  8
7_ALL_FEATURES
100
AcDbSpline
 62
7
  6
CONTINUOUS
 70
0
 71
3
 72
10
 73
6
 74
0
 42
0.0000001
 43
0.0000001
 44
0.0000000001
 40
0.0
 40
0.0
 40
0.0
 40
0.0
 40
0.243976962
 40
0.502626745
 40
1.0
 40
1.0
 40
1.0
 40
1.0
 10
1803.7845188342
 20
1417.1474913271
 30
0.0
 10
1803.8273074569
 20
1417.1847504388
 30
0.0
 10
1803.9053384946
 20
1417.2771851768
 30
0.0
 10
1803.943766517
 20
1417.5218832628
 30
0.0
 10
1803.8142823898
 20
1417.6783762512
 30
0.0
 10
1803.7215383263
 20
1417.7474913271
 30
0.0
  0
SPLINE
  5
4C8
100
AcDbEntity
  8
7_ALL_FEATURES
100
AcDbSpline
 62
7
  6
CONTINUOUS
 70
0
 71
3
 72
10
 73
6
 74
0
 42
0.0000001
 43
0.0000001
 44
0.0000000001
 40
0.0
 40
0.0
 40
0.0
 40
0.0
 40
0.497373255
 40
0.756023038
 40
1.0
 40
1.0
 40
1.0
 40
1.0
 10
1563.3112759118
 20
1417.7474913271
 30
0.0
 10
1563.2185318482
 20
1417.6783762512
 30
0.0
 10
1563.089047721
 20
1417.5218832628
 30
0.0
 10
1563.1274757434
 20
1417.2771851768
 30
0.0
 10
1563.2055067811
 20
1417.1847504388
 30
0.0
 10
1563.2482954038
 20
1417.1474913271
 30
0.0
  0
SPLINE
  5
4C9
100
AcDbEntity
  8
7_ALL_FEATURES
100
AcDbSpline
 62
7
  6
CONTINUOUS
 70
0
 71
3
 72
10
 73
6
 74
0
 42
0.0000001
 43
0.0000001
 44
0.0000000001
 40
0.0
 40
0.0
 40
0.0
 40
0.0
 40
0.243976962
 40
0.502626745
 40
1.0
 40
1.0
 40
1.0
 40
1.0
 10
2053.7845188342
 20
1417.1474913271
 30
0.0
 10
2053.8273074569
 20
1417.1847504388
 30
0.0
 10
2053.9053384946
 20
1417.2771851768
 30
0.0
 10
2053.943766517
 20
1417.5218832628
 30
0.0
 10
2053.8142823898
 20
1417.6783762512
 30
0.0
 10
2053.7215383263
 20
1417.7474913271
 30
0.0
  0
SPLINE
  5
4CA
100
AcDbEntity
  8
7_ALL_FEATURES
100
AcDbSpline
 62
7
  6
CONTINUOUS
 70
0
 71
3
 72
10
 73
6
 74
0
 42
0.0000001
 43
0.0000001
 44
0.0000000001
 40
0.0
 40
0.0
 40
0.0
 40
0.0
 40
0.497373255
 40
0.756023038
 40
1.0
 40
1.0
 40
1.0
 40
1.0
 10
1813.3112759118
 20
1417.7474913271
 30
0.0
 10
1813.2185318482
 20
1417.6783762512
 30
0.0
 10
1813.089047721
 20
1417.5218832628
 30
0.0
 10
1813.1274757434
 20
1417.2771851768
 30
0.0
 10
1813.2055067811
 20
1417.1847504388
 30
0.0
 10
1813.2482954038
 20
1417.1474913271
 30
0.0
  0
SPLINE
  5
4CB
100
AcDbEntity
  8
7_ALL_FEATURES
100
AcDbSpline
 62
7
  6
CONTINUOUS
 70
0
 71
3
 72
10
 73
6
 74
0
 42
0.0000001
 43
0.0000001
 44
0.0000000001
 40
0.0
 40
0.0
 40
0.0
 40
0.0
 40
0.497373255
 40
0.756023038
 40
1.0
 40
1.0
 40
1.0
 40
1.0
 10
2063.3112759118
 20
1417.7474913271
 30
0.0
 10
2063.2185318482
 20
1417.6783762512
 30
0.0
 10
2063.089047721
 20
1417.5218832628
 30
0.0
 10
2063.1274757434
 20
1417.2771851768
 30
0.0
 10
2063.2055067811
 20
1417.1847504388
 30
0.0
 10
2063.2482954038
 20
1417.1474913271
 30
0.0
  0
SPLINE
  5
4CC
100
AcDbEntity
  8
6_ALL_SURFS
100
AcDbSpline
 62
7
  6
CONTINUOUS
 70
0
 71
3
 72
10
 73
6
 74
0
 42
0.0000001
 43
0.0000001
 44
0.0000000001
 40
0.0
 40
0.0
 40
0.0
 40
0.0
 40
0.497373255
 40
0.756023038
 40
1.0
 40
1.0
 40
1.0
 40
1.0
 10
2063.3112759118
 20
1516.0474913271
 30
0.0
 10
2063.2185318482
 20
1516.116606403
 30
0.0
 10
2063.089047721
 20
1516.2730993914
 30
0.0
 10
2063.1274757434
 20
1516.5177974774
 30
0.0
 10
2063.2055067811
 20
1516.6102322154
 30
0.0
 10
2063.2482954038
 20
1516.6474913271
 30
0.0
  0
SPLINE
  5
4CD
100
AcDbEntity
  8
6_ALL_SURFS
100
AcDbSpline
 62
7
  6
CONTINUOUS
 70
0
 71
3
 72
10
 73
6
 74
0
 42
0.0000001
 43
0.0000001
 44
0.0000000001
 40
0.0
 40
0.0
 40
0.0
 40
0.0
 40
0.497373255
 40
0.756023038
 40
1.0
 40
1.0
 40
1.0
 40
1.0
 10
1813.3112759118
 20
1516.0474913271
 30
0.0
 10
1813.2185318482
 20
1516.116606403
 30
0.0
 10
1813.089047721
 20
1516.2730993914
 30
0.0
 10
1813.1274757434
 20
1516.5177974774
 30
0.0
 10
1813.2055067811
 20
1516.6102322154
 30
0.0
 10
1813.2482954038
 20
1516.6474913271
 30
0.0
  0
SPLINE
  5
4CE
100
AcDbEntity
  8
6_ALL_SURFS
100
AcDbSpline
 62
7
  6
CONTINUOUS
 70
0
 71
3
 72
10
 73
6
 74
0
 42
0.0000001
 43
0.0000001
 44
0.0000000001
 40
0.0
 40
0.0
 40
0.0
 40
0.0
 40
0.243976962
 40
0.502626745
 40
1.0
 40
1.0
 40
1.0
 40
1.0
 10
2053.7845188342
 20
1516.6474913271
 30
0.0
 10
2053.8273074569
 20
1516.6102322154
 30
0.0
 10
2053.9053384946
 20
1516.5177974774
 30
0.0
 10
2053.943766517
 20
1516.2730993914
 30
0.0
 10
2053.8142823898
 20
1516.116606403
 30
0.0
 10
2053.7215383263
 20
1516.0474913271
 30
0.0
  0
SPLINE
  5
4CF
100
AcDbEntity
  8
6_ALL_SURFS
100
AcDbSpline
 62
7
  6
CONTINUOUS
 70
0
 71
3
 72
10
 73
6
 74
0
 42
0.0000001
 43
0.0000001
 44
0.0000000001
 40
0.0
 40
0.0
 40
0.0
 40
0.0
 40
0.497373255
 40
0.756023038
 40
1.0
 40
1.0
 40
1.0
 40
1.0
 10
1563.3112759118
 20
1516.0474913271
 30
0.0
 10
1563.2185318482
 20
1516.116606403
 30
0.0
 10
1563.089047721
 20
1516.2730993914
 30
0.0
 10
1563.1274757434
 20
1516.5177974774
 30
0.0
 10
1563.2055067811
 20
1516.6102322154
 30
0.0
 10
1563.2482954038
 20
1516.6474913271
 30
0.0
  0
SPLINE
  5
4D0
100
AcDbEntity
  8
6_ALL_SURFS
100
AcDbSpline
 62
7
  6
CONTINUOUS
 70
0
 71
3
 72
10
 73
6
 74
0
 42
0.0000001
 43
0.0000001
 44
0.0000000001
 40
0.0
 40
0.0
 40
0.0
 40
0.0
 40
0.243976962
 40
0.502626745
 40
1.0
 40
1.0
 40
1.0
 40
1.0
 10
1803.7845188342
 20
1516.6474913271
 30
0.0
 10
1803.8273074569
 20
1516.6102322154
 30
0.0
 10
1803.9053384946
 20
1516.5177974774
 30
0.0
 10
1803.943766517
 20
1516.2730993914
 30
0.0
 10
1803.8142823898
 20
1516.116606403
 30
0.0
 10
1803.7215383263
 20
1516.0474913271
 30
0.0
  0
SPLINE
  5
4D1
100
AcDbEntity
  8
6_ALL_SURFS
100
AcDbSpline
 62
7
  6
CONTINUOUS
 70
0
 71
3
 72
10
 73
6
 74
0
 42
0.0000001
 43
0.0000001
 44
0.0000000001
 40
0.0
 40
0.0
 40
0.0
 40
0.0
 40
0.497373255
 40
0.756023038
 40
1.0
 40
1.0
 40
1.0
 40
1.0
 10
1313.3112759118
 20
1516.0474913271
 30
0.0
 10
1313.2185318482
 20
1516.116606403
 30
0.0
 10
1313.089047721
 20
1516.2730993914
 30
0.0
 10
1313.1274757434
 20
1516.5177974774
 30
0.0
 10
1313.2055067811
 20
1516.6102322154
 30
0.0
 10
1313.2482954038
 20
1516.6474913271
 30
0.0
  0
SPLINE
  5
4D2
100
AcDbEntity
  8
6_ALL_SURFS
100
AcDbSpline
 62
7
  6
CONTINUOUS
 70
0
 71
3
 72
10
 73
6
 74
0
 42
0.0000001
 43
0.0000001
 44
0.0000000001
 40
0.0
 40
0.0
 40
0.0
 40
0.0
 40
0.243976962
 40
0.502626745
 40
1.0
 40
1.0
 40
1.0
 40
1.0
 10
1553.7845188342
 20
1516.6474913271
 30
0.0
 10
1553.8273074569
 20
1516.6102322154
 30
0.0
 10
1553.9053384946
 20
1516.5177974774
 30
0.0
 10
1553.943766517
 20
1516.2730993914
 30
0.0
 10
1553.8142823898
 20
1516.116606403
 30
0.0
 10
1553.7215383263
 20
1516.0474913271
 30
0.0
  0
SPLINE
  5
4D3
100
AcDbEntity
  8
6_ALL_SURFS
100
AcDbSpline
 62
7
  6
CONTINUOUS
 70
0
 71
3
 72
10
 73
6
 74
0
 42
0.0000001
 43
0.0000001
 44
0.0000000001
 40
0.0
 40
0.0
 40
0.0
 40
0.0
 40
0.497373255
 40
0.756023038
 40
1.0
 40
1.0
 40
1.0
 40
1.0
 10
1063.3112759118
 20
1516.0474913271
 30
0.0
 10
1063.2185318482
 20
1516.116606403
 30
0.0
 10
1063.089047721
 20
1516.2730993914
 30
0.0
 10
1063.1274757434
 20
1516.5177974774
 30
0.0
 10
1063.2055067811
 20
1516.6102322154
 30
0.0
 10
1063.2482954038
 20
1516.6474913271
 30
0.0
  0
SPLINE
  5
4D4
100
AcDbEntity
  8
6_ALL_SURFS
100
AcDbSpline
 62
7
  6
CONTINUOUS
 70
0
 71
3
 72
10
 73
6
 74
0
 42
0.0000001
 43
0.0000001
 44
0.0000000001
 40
0.0
 40
0.0
 40
0.0
 40
0.0
 40
0.243976962
 40
0.502626745
 40
1.0
 40
1.0
 40
1.0
 40
1.0
 10
1303.7845188342
 20
1516.6474913271
 30
0.0
 10
1303.8273074569
 20
1516.6102322154
 30
0.0
 10
1303.9053384946
 20
1516.5177974774
 30
0.0
 10
1303.943766517
 20
1516.2730993914
 30
0.0
 10
1303.8142823898
 20
1516.116606403
 30
0.0
 10
1303.7215383263
 20
1516.0474913271
 30
0.0
  0
SPLINE
  5
4D5
100
AcDbEntity
  8
6_ALL_SURFS
100
AcDbSpline
 62
7
  6
CONTINUOUS
 70
0
 71
3
 72
10
 73
6
 74
0
 42
0.0000001
 43
0.0000001
 44
0.0000000001
 40
0.0
 40
0.0
 40
0.0
 40
0.0
 40
0.243976962
 40
0.502626745
 40
1.0
 40
1.0
 40
1.0
 40
1.0
 10
1053.7845188342
 20
1516.6474913271
 30
0.0
 10
1053.8273074569
 20
1516.6102322154
 30
0.0
 10
1053.9053384946
 20
1516.5177974774
 30
0.0
 10
1053.943766517
 20
1516.2730993914
 30
0.0
 10
1053.8142823898
 20
1516.116606403
 30
0.0
 10
1053.7215383263
 20
1516.0474913271
 30
0.0
  0
SPLINE
  5
4D6
100
AcDbEntity
  8
7_ALL_FEATURES
100
AcDbSpline
 62
7
  6
CONTINUOUS
 70
0
 71
3
 72
11
 73
7
 74
0
 42
0.0000001
 43
0.0000001
 44
0.0000000001
 40
0.0
 40
0.0
 40
0.0
 40
0.0
 40
0.2517159456
 40
0.5096938011
 40
0.7678176764
 40
1.0
 40
1.0
 40
1.0
 40
1.0
 10
1054.2513436096
 20
1420.1474913271
 30
0.0
 10
1054.3111980958
 20
1420.1777591891
 30
0.0
 10
1054.4293427371
 20
1420.2469999314
 30
0.0
 10
1054.5842132673
 20
1420.3786396165
 30
0.0
 10
1054.7034359873
 20
1420.5561056445
 30
0.0
 10
1054.6597739332
 20
1420.701072041
 30
0.0
 10
1054.6188737016
 20
1420.7474913271
 30
0.0
  0
SPLINE
  5
4D7
100
AcDbEntity
  8
7_ALL_FEATURES
100
AcDbSpline
 62
7
  6
CONTINUOUS
 70
0
 71
3
 72
11
 73
7
 74
0
 42
0.0000001
 43
0.0000001
 44
0.0000000001
 40
0.0
 40
0.0
 40
0.0
 40
0.0
 40
0.2517159456
 40
0.5096938011
 40
0.7678176764
 40
1.0
 40
1.0
 40
1.0
 40
1.0
 10
1304.2513436096
 20
1420.1474913271
 30
0.0
 10
1304.3111980958
 20
1420.1777591891
 30
0.0
 10
1304.4293427371
 20
1420.2469999314
 30
0.0
 10
1304.5842132673
 20
1420.3786396165
 30
0.0
 10
1304.7034359873
 20
1420.5561056445
 30
0.0
 10
1304.6597739332
 20
1420.701072041
 30
0.0
 10
1304.6188737016
 20
1420.7474913271
 30
0.0
  0
SPLINE
  5
4D8
100
AcDbEntity
  8
7_ALL_FEATURES
100
AcDbSpline
 62
7
  6
CONTINUOUS
 70
0
 71
3
 72
11
 73
7
 74
0
 42
0.0000001
 43
0.0000001
 44
0.0000000001
 40
0.0
 40
0.0
 40
0.0
 40
0.0
 40
0.2321628201
 40
0.4902905571
 40
0.7482782646
 40
1.0
 40
1.0
 40
1.0
 40
1.0
 10
1062.4139405364
 20
1420.7474913271
 30
0.0
 10
1062.3730437582
 20
1420.7010759603
 30
0.0
 10
1062.3293788788
 20
1420.5561185401
 30
0.0
 10
1062.4485929615
 20
1420.3786469801
 30
0.0
 10
1062.6034666557
 20
1420.2470028229
 30
0.0
 10
1062.7216147915
 20
1420.1777598722
 30
0.0
 10
1062.7814706285
 20
1420.1474913271
 30
0.0
  0
SPLINE
  5
4D9
100
AcDbEntity
  8
7_ALL_FEATURES
100
AcDbSpline
 62
7
  6
CONTINUOUS
 70
0
 71
3
 72
11
 73
7
 74
0
 42
0.0000001
 43
0.0000001
 44
0.0000000001
 40
0.0
 40
0.0
 40
0.0
 40
0.0
 40
0.2517159456
 40
0.5096938011
 40
0.7678176764
 40
1.0
 40
1.0
 40
1.0
 40
1.0
 10
1554.2513436096
 20
1420.1474913271
 30
0.0
 10
1554.3111980958
 20
1420.1777591891
 30
0.0
 10
1554.4293427371
 20
1420.2469999314
 30
0.0
 10
1554.5842132673
 20
1420.3786396165
 30
0.0
 10
1554.7034359873
 20
1420.5561056445
 30
0.0
 10
1554.6597739332
 20
1420.701072041
 30
0.0
 10
1554.6188737016
 20
1420.7474913271
 30
0.0
  0
SPLINE
  5
4DA
100
AcDbEntity
  8
7_ALL_FEATURES
100
AcDbSpline
 62
7
  6
CONTINUOUS
 70
0
 71
3
 72
11
 73
7
 74
0
 42
0.0000001
 43
0.0000001
 44
0.0000000001
 40
0.0
 40
0.0
 40
0.0
 40
0.0
 40
0.2321628201
 40
0.4902905571
 40
0.7482782646
 40
1.0
 40
1.0
 40
1.0
 40
1.0
 10
1312.4139405364
 20
1420.7474913271
 30
0.0
 10
1312.3730437582
 20
1420.7010759603
 30
0.0
 10
1312.3293788788
 20
1420.5561185401
 30
0.0
 10
1312.4485929615
 20
1420.3786469801
 30
0.0
 10
1312.6034666557
 20
1420.2470028229
 30
0.0
 10
1312.7216147915
 20
1420.1777598722
 30
0.0
 10
1312.7814706285
 20
1420.1474913271
 30
0.0
  0
SPLINE
  5
4DB
100
AcDbEntity
  8
7_ALL_FEATURES
100
AcDbSpline
 62
7
  6
CONTINUOUS
 70
0
 71
3
 72
11
 73
7
 74
0
 42
0.0000001
 43
0.0000001
 44
0.0000000001
 40
0.0
 40
0.0
 40
0.0
 40
0.0
 40
0.2517159456
 40
0.5096938011
 40
0.7678176764
 40
1.0
 40
1.0
 40
1.0
 40
1.0
 10
1804.2513436096
 20
1420.1474913271
 30
0.0
 10
1804.3111980958
 20
1420.1777591891
 30
0.0
 10
1804.4293427371
 20
1420.2469999314
 30
0.0
 10
1804.5842132673
 20
1420.3786396165
 30
0.0
 10
1804.7034359873
 20
1420.5561056445
 30
0.0
 10
1804.6597739332
 20
1420.701072041
 30
0.0
 10
1804.6188737016
 20
1420.7474913271
 30
0.0
  0
SPLINE
  5
4DC
100
AcDbEntity
  8
7_ALL_FEATURES
100
AcDbSpline
 62
7
  6
CONTINUOUS
 70
0
 71
3
 72
11
 73
7
 74
0
 42
0.0000001
 43
0.0000001
 44
0.0000000001
 40
0.0
 40
0.0
 40
0.0
 40
0.0
 40
0.2321628201
 40
0.4902905571
 40
0.7482782646
 40
1.0
 40
1.0
 40
1.0
 40
1.0
 10
1562.4139405364
 20
1420.7474913271
 30
0.0
 10
1562.3730437582
 20
1420.7010759603
 30
0.0
 10
1562.3293788788
 20
1420.5561185401
 30
0.0
 10
1562.4485929615
 20
1420.3786469801
 30
0.0
 10
1562.6034666557
 20
1420.2470028229
 30
0.0
 10
1562.7216147915
 20
1420.1777598722
 30
0.0
 10
1562.7814706285
 20
1420.1474913271
 30
0.0
  0
SPLINE
  5
4DD
100
AcDbEntity
  8
7_ALL_FEATURES
100
AcDbSpline
 62
7
  6
CONTINUOUS
 70
0
 71
3
 72
11
 73
7
 74
0
 42
0.0000001
 43
0.0000001
 44
0.0000000001
 40
0.0
 40
0.0
 40
0.0
 40
0.0
 40
0.2517159456
 40
0.5096938011
 40
0.7678176764
 40
1.0
 40
1.0
 40
1.0
 40
1.0
 10
2054.2513436096
 20
1420.1474913271
 30
0.0
 10
2054.3111980958
 20
1420.1777591891
 30
0.0
 10
2054.4293427371
 20
1420.2469999314
 30
0.0
 10
2054.5842132673
 20
1420.3786396165
 30
0.0
 10
2054.7034359873
 20
1420.5561056445
 30
0.0
 10
2054.6597739332
 20
1420.701072041
 30
0.0
 10
2054.6188737016
 20
1420.7474913271
 30
0.0
  0
SPLINE
  5
4DE
100
AcDbEntity
  8
7_ALL_FEATURES
100
AcDbSpline
 62
7
  6
CONTINUOUS
 70
0
 71
3
 72
11
 73
7
 74
0
 42
0.0000001
 43
0.0000001
 44
0.0000000001
 40
0.0
 40
0.0
 40
0.0
 40
0.0
 40
0.2321628201
 40
0.4902905571
 40
0.7482782646
 40
1.0
 40
1.0
 40
1.0
 40
1.0
 10
1812.4139405364
 20
1420.7474913271
 30
0.0
 10
1812.3730437582
 20
1420.7010759603
 30
0.0
 10
1812.3293788788
 20
1420.5561185401
 30
0.0
 10
1812.4485929615
 20
1420.3786469801
 30
0.0
 10
1812.6034666557
 20
1420.2470028229
 30
0.0
 10
1812.7216147915
 20
1420.1777598722
 30
0.0
 10
1812.7814706285
 20
1420.1474913271
 30
0.0
  0
SPLINE
  5
4DF
100
AcDbEntity
  8
7_ALL_FEATURES
100
AcDbSpline
 62
7
  6
CONTINUOUS
 70
0
 71
3
 72
11
 73
7
 74
0
 42
0.0000001
 43
0.0000001
 44
0.0000000001
 40
0.0
 40
0.0
 40
0.0
 40
0.0
 40
0.2321628201
 40
0.4902905571
 40
0.7482782646
 40
1.0
 40
1.0
 40
1.0
 40
1.0
 10
2062.4139405364
 20
1420.7474913271
 30
0.0
 10
2062.3730437582
 20
1420.7010759603
 30
0.0
 10
2062.3293788788
 20
1420.5561185401
 30
0.0
 10
2062.4485929615
 20
1420.3786469801
 30
0.0
 10
2062.6034666557
 20
1420.2470028229
 30
0.0
 10
2062.7216147915
 20
1420.1777598722
 30
0.0
 10
2062.7814706285
 20
1420.1474913271
 30
0.0
  0
SPLINE
  5
4E0
100
AcDbEntity
  8
6_ALL_SURFS
100
AcDbSpline
 62
7
  6
CONTINUOUS
 70
0
 71
3
 72
11
 73
7
 74
0
 42
0.0000001
 43
0.0000001
 44
0.0000000001
 40
0.0
 40
0.0
 40
0.0
 40
0.0
 40
0.2321628201
 40
0.4902905571
 40
0.7482782646
 40
1.0
 40
1.0
 40
1.0
 40
1.0
 10
2062.4139405364
 20
1513.0474913271
 30
0.0
 10
2062.3730437582
 20
1513.0939066939
 30
0.0
 10
2062.3293788788
 20
1513.2388641141
 30
0.0
 10
2062.4485929615
 20
1513.4163356741
 30
0.0
 10
2062.6034666557
 20
1513.5479798314
 30
0.0
 10
2062.7216147915
 20
1513.617222782
 30
0.0
 10
2062.7814706285
 20
1513.6474913271
 30
0.0
  0
SPLINE
  5
4E1
100
AcDbEntity
  8
6_ALL_SURFS
100
AcDbSpline
 62
7
  6
CONTINUOUS
 70
0
 71
3
 72
11
 73
7
 74
0
 42
0.0000001
 43
0.0000001
 44
0.0000000001
 40
0.0
 40
0.0
 40
0.0
 40
0.0
 40
0.2321628201
 40
0.4902905571
 40
0.7482782646
 40
1.0
 40
1.0
 40
1.0
 40
1.0
 10
1812.4139405364
 20
1513.0474913271
 30
0.0
 10
1812.3730437582
 20
1513.0939066939
 30
0.0
 10
1812.3293788788
 20
1513.2388641141
 30
0.0
 10
1812.4485929615
 20
1513.4163356741
 30
0.0
 10
1812.6034666557
 20
1513.5479798314
 30
0.0
 10
1812.7216147915
 20
1513.617222782
 30
0.0
 10
1812.7814706285
 20
1513.6474913271
 30
0.0
  0
SPLINE
  5
4E2
100
AcDbEntity
  8
6_ALL_SURFS
100
AcDbSpline
 62
7
  6
CONTINUOUS
 70
0
 71
3
 72
11
 73
7
 74
0
 42
0.0000001
 43
0.0000001
 44
0.0000000001
 40
0.0
 40
0.0
 40
0.0
 40
0.0
 40
0.2517159456
 40
0.5096938011
 40
0.7678176764
 40
1.0
 40
1.0
 40
1.0
 40
1.0
 10
2054.2513436096
 20
1513.6474913271
 30
0.0
 10
2054.3111980958
 20
1513.6172234651
 30
0.0
 10
2054.4293427371
 20
1513.5479827229
 30
0.0
 10
2054.5842132673
 20
1513.4163430377
 30
0.0
 10
2054.7034359873
 20
1513.2388770097
 30
0.0
 10
2054.6597739332
 20
1513.0939106132
 30
0.0
 10
2054.6188737016
 20
1513.0474913271
 30
0.0
  0
SPLINE
  5
4E3
100
AcDbEntity
  8
6_ALL_SURFS
100
AcDbSpline
 62
7
  6
CONTINUOUS
 70
0
 71
3
 72
11
 73
7
 74
0
 42
0.0000001
 43
0.0000001
 44
0.0000000001
 40
0.0
 40
0.0
 40
0.0
 40
0.0
 40
0.2321628201
 40
0.4902905571
 40
0.7482782646
 40
1.0
 40
1.0
 40
1.0
 40
1.0
 10
1562.4139405364
 20
1513.0474913271
 30
0.0
 10
1562.3730437582
 20
1513.0939066939
 30
0.0
 10
1562.3293788788
 20
1513.2388641141
 30
0.0
 10
1562.4485929615
 20
1513.4163356741
 30
0.0
 10
1562.6034666557
 20
1513.5479798314
 30
0.0
 10
1562.7216147915
 20
1513.617222782
 30
0.0
 10
1562.7814706285
 20
1513.6474913271
 30
0.0
  0
SPLINE
  5
4E4
100
AcDbEntity
  8
6_ALL_SURFS
100
AcDbSpline
 62
7
  6
CONTINUOUS
 70
0
 71
3
 72
11
 73
7
 74
0
 42
0.0000001
 43
0.0000001
 44
0.0000000001
 40
0.0
 40
0.0
 40
0.0
 40
0.0
 40
0.2517159456
 40
0.5096938011
 40
0.7678176764
 40
1.0
 40
1.0
 40
1.0
 40
1.0
 10
1804.2513436096
 20
1513.6474913271
 30
0.0
 10
1804.3111980958
 20
1513.6172234651
 30
0.0
 10
1804.4293427371
 20
1513.5479827229
 30
0.0
 10
1804.5842132673
 20
1513.4163430377
 30
0.0
 10
1804.7034359873
 20
1513.2388770097
 30
0.0
 10
1804.6597739332
 20
1513.0939106132
 30
0.0
 10
1804.6188737016
 20
1513.0474913271
 30
0.0
  0
SPLINE
  5
4E5
100
AcDbEntity
  8
6_ALL_SURFS
100
AcDbSpline
 62
7
  6
CONTINUOUS
 70
0
 71
3
 72
11
 73
7
 74
0
 42
0.0000001
 43
0.0000001
 44
0.0000000001
 40
0.0
 40
0.0
 40
0.0
 40
0.0
 40
0.2321628201
 40
0.4902905571
 40
0.7482782646
 40
1.0
 40
1.0
 40
1.0
 40
1.0
 10
1312.4139405364
 20
1513.0474913271
 30
0.0
 10
1312.3730437582
 20
1513.0939066939
 30
0.0
 10
1312.3293788788
 20
1513.2388641141
 30
0.0
 10
1312.4485929615
 20
1513.4163356741
 30
0.0
 10
1312.6034666557
 20
1513.5479798314
 30
0.0
 10
1312.7216147915
 20
1513.617222782
 30
0.0
 10
1312.7814706285
 20
1513.6474913271
 30
0.0
  0
SPLINE
  5
4E6
100
AcDbEntity
  8
6_ALL_SURFS
100
AcDbSpline
 62
7
  6
CONTINUOUS
 70
0
 71
3
 72
11
 73
7
 74
0
 42
0.0000001
 43
0.0000001
 44
0.0000000001
 40
0.0
 40
0.0
 40
0.0
 40
0.0
 40
0.2517159456
 40
0.5096938011
 40
0.7678176764
 40
1.0
 40
1.0
 40
1.0
 40
1.0
 10
1554.2513436096
 20
1513.6474913271
 30
0.0
 10
1554.3111980958
 20
1513.6172234651
 30
0.0
 10
1554.4293427371
 20
1513.5479827229
 30
0.0
 10
1554.5842132673
 20
1513.4163430377
 30
0.0
 10
1554.7034359873
 20
1513.2388770097
 30
0.0
 10
1554.6597739332
 20
1513.0939106132
 30
0.0
 10
1554.6188737016
 20
1513.0474913271
 30
0.0
  0
ELLIPSE
  5
4E7
100
AcDbEntity
  8
6_ALL_SURFS
100
AcDbEllipse
 62
7
  6
CONTINUOUS
 10
2058.516407119
 20
977.9568475527
 30
0.0
 11
5.4882058378
 21
0.0
 31
0.0
 40
0.1015346165
 41
7.212646077
 42
8.495317191
  0
ELLIPSE
  5
4E8
100
AcDbEntity
  8
6_ALL_SURFS
100
AcDbEllipse
 62
7
  6
CONTINUOUS
 10
1808.516407119
 20
977.9568475527
 30
0.0
 11
5.4882058378
 21
-0.0
 31
0.0
 40
0.1015346165
 41
7.212646077
 42
8.495317191
  0
ELLIPSE
  5
4E9
100
AcDbEntity
  8
6_ALL_SURFS
100
AcDbEllipse
 62
7
  6
CONTINUOUS
 10
1558.516407119
 20
977.9568475527
 30
0.0
 11
5.4882058378
 21
0.0
 31
0.0
 40
0.1015346165
 41
7.212646077
 42
8.495317191
  0
ELLIPSE
  5
4EA
100
AcDbEntity
  8
6_ALL_SURFS
100
AcDbEllipse
 62
7
  6
CONTINUOUS
 10
1308.516407119
 20
977.9568475527
 30
0.0
 11
5.4882058378
 21
0.0
 31
0.0
 40
0.1015346165
 41
7.212646077
 42
8.495317191
  0
ELLIPSE
  5
4EB
100
AcDbEntity
  8
6_ALL_SURFS
100
AcDbEllipse
 62
7
  6
CONTINUOUS
 10
1058.516407119
 20
977.9568475527
 30
0.0
 11
5.4882058378
 21
0.0
 31
0.0
 40
0.1015346165
 41
7.212646077
 42
8.495317191
  0
ELLIPSE
  5
4EC
100
AcDbEntity
  8
6_ALL_SURFS
100
AcDbEllipse
 62
7
  6
CONTINUOUS
 10
2058.516407119
 20
1514.8823183553
 30
0.0
 11
0.0
 21
5.5724287509
 31
0.0
 40
0.9848857802
 41
5.6418497502
 42
6.9245208642
  0
ELLIPSE
  5
4ED
100
AcDbEntity
  8
6_ALL_SURFS
100
AcDbEllipse
 62
7
  6
CONTINUOUS
 10
1808.516407119
 20
1514.8823183553
 30
0.0
 11
-0.0
 21
5.5724287509
 31
0.0
 40
0.9848857802
 41
5.6418497502
 42
6.9245208642
  0
ELLIPSE
  5
4EE
100
AcDbEntity
  8
6_ALL_SURFS
100
AcDbEllipse
 62
7
  6
CONTINUOUS
 10
1558.516407119
 20
1514.8823183553
 30
0.0
 11
-0.0
 21
5.5724287509
 31
0.0
 40
0.9848857802
 41
5.6418497502
 42
6.9245208642
  0
ELLIPSE
  5
4EF
100
AcDbEntity
  8
6_ALL_SURFS
100
AcDbEllipse
 62
7
  6
CONTINUOUS
 10
1308.516407119
 20
1514.8823183553
 30
0.0
 11
-0.0
 21
5.5724287509
 31
0.0
 40
0.9848857802
 41
5.6418497502
 42
6.9245208642
  0
ELLIPSE
  5
4F0
100
AcDbEntity
  8
6_ALL_SURFS
100
AcDbEllipse
 62
7
  6
CONTINUOUS
 10
1058.516407119
 20
1514.8823183553
 30
0.0
 11
-0.0
 21
5.5724287509
 31
0.0
 40
0.9848857802
 41
5.6418497502
 42
6.9245208642
  0
ELLIPSE
  5
4F1
100
AcDbEntity
  8
7_ALL_FEATURES
100
AcDbEllipse
 62
7
  6
CONTINUOUS
 10
2058.516407119
 20
1418.9126642989
 30
0.0
 11
0.0
 21
5.5724287509
 31
0.0
 40
0.9848857802
 41
-3.7829282106
 42
-2.5002570966
  0
ELLIPSE
  5
4F2
100
AcDbEntity
  8
7_ALL_FEATURES
100
AcDbEllipse
 62
7
  6
CONTINUOUS
 10
1808.516407119
 20
1418.9126642989
 30
0.0
 11
0.0
 21
5.5724287509
 31
0.0
 40
0.9848857802
 41
-3.7829282106
 42
-2.5002570966
  0
ELLIPSE
  5
4F3
100
AcDbEntity
  8
7_ALL_FEATURES
100
AcDbEllipse
 62
7
  6
CONTINUOUS
 10
1558.516407119
 20
1418.9126642989
 30
0.0
 11
-0.0
 21
5.5724287509
 31
0.0
 40
0.9848857802
 41
-3.7829282106
 42
-2.5002570966
  0
ELLIPSE
  5
4F4
100
AcDbEntity
  8
7_ALL_FEATURES
100
AcDbEllipse
 62
7
  6
CONTINUOUS
 10
1308.516407119
 20
1418.9126642989
 30
0.0
 11
-0.0
 21
5.5724287509
 31
0.0
 40
0.9848857802
 41
-3.7829282106
 42
-2.5002570966
  0
ELLIPSE
  5
4F5
100
AcDbEntity
  8
7_ALL_FEATURES
100
AcDbEllipse
 62
7
  6
CONTINUOUS
 10
1058.516407119
 20
1418.9126642989
 30
0.0
 11
0.0
 21
5.5724287509
 31
0.0
 40
0.9848857802
 41
-3.7829282106
 42
-2.5002570966
  0
ENDSEC
  0
SECTION
  2
OBJECTS
  0
DICTIONARY
  5
4F6
100
AcDbDictionary
  3
ACAD_GROUP
350
4F7
  3
ACAD_MLINESTYLE
350
4F8
  0
DICTIONARY
  5
4F7
102
{ACAD_REACTORS
330
4F6
102
}
100
AcDbDictionary
  0
DICTIONARY
  5
4F8
102
{ACAD_REACTORS
330
4F6
102
}
100
AcDbDictionary
  3
STANDARD
350
4F9
  0
MLINESTYLE
  5
4F9
102
{ACAD_REACTORS
330
4F8
102
}
100
AcDbMlineStyle
  2
STANDARD
 70
0
  3

 62
256
 51
90.0
 52
90.0
 71
2
 49
0.5
 62
256
  6
BYLAYER
 49
-0.5
 62
256
  6
BYLAYER
  0
ENDSEC
  0
EOF
