999
DXF file: 6f4_c_049.dxf
999
Pro/ENGINEER 2016360 by Parametric Technology Corporation
  0
SECTION
  2
HEADER
  9
$ACADVER
  1
AC1014
  9
$DWGCODEPAGE
  3
ANSI_1252
  9
$EXTMAX
 10
1189.0
 20
841.0
 30
0.0
  9
$EXTMIN
 10
0.0
 20
0.0
 30
0.0
  9
$LIMMIN
 10
0.0
 20
0.0
  9
$LIMMAX
 10
1189.0
 20
841.0
  9
$VIEWCTR
 10
594.5
 20
420.5
  9
$VIEWSIZE
 40
841.0
  9
$CLAYER
  8
0
  9
$LTSCALE
 40
65.395
  9
$CELTYPE
  6
BYLAYER
  9
$DIMSCALE
 40
1.0
  9
$DIMASZ
 40
2.5
  9
$DIMEXO
 40
0.75
  9
$DIMDLI
 40
45.182
  9
$DIMEXE
 40
0.75
  9
$DIMCEN
 40
10.701
  9
$DIMLFAC
 40
1.0
  9
$DIMBLK
  1
_CLOSED
  9
$DIMALT
 70
0
  9
$DIMALTF
 40
25.4
  9
$DIMTXT
 40
3.0
  9
$DIMTOL
 70
1
  9
$DIMLIM
 70
0
  9
$DIMTFAC
 40
1.0
  9
$DIMTP
 40
0.01
  9
$DIMTM
 40
0.01
  9
$DIMGAP
 40
0.625
  9
$AUNITS
 70
0
  9
$PDMODE
 70
3
  9
$PDSIZE
 40
0.3125
  9
$HANDSEED
  5
4BD
  9
$TILEMODE
 70
1
  9
$MEASUREMENT
 70
1
  0
ENDSEC
  0
SECTION
  2
CLASSES
  0
ENDSEC
  0
SECTION
  2
TABLES
  0
TABLE
  2
VPORT
  5
8
100
AcDbSymbolTable
 70
2
  0
VPORT
  5
1F4
100
AcDbSymbolTableRecord
100
AcDbViewportTableRecord
  2
*ACTIVE
 70
0
 10
0.0
 20
0.0
 11
1.0
 21
1.0
 12
594.5
 22
420.5
 13
0.0
 23
0.0
 14
1.0
 24
1.0
 15
0.0
 25
0.0
 16
0.0
 26
0.0
 36
1.0
 17
0.0
 27
0.0
 37
0.0
 40
841.0
 41
1.4137931034
 42
50.0
 43
0.0
 44
0.0
 50
0.0
 51
0.0
 71
0
 72
100
 73
1
 74
1
 75
0
 76
0
 77
0
 78
0
  0
ENDTAB
  0
TABLE
  2
LTYPE
  5
5
100
AcDbSymbolTable
 70
6
  0
LTYPE
  5
14
100
AcDbSymbolTableRecord
100
AcDbLinetypeTableRecord
  2
BYBLOCK
 70
0
  3

 72
65
 73
0
 40
0.0
  0
LTYPE
  5
15
100
AcDbSymbolTableRecord
100
AcDbLinetypeTableRecord
  2
BYLAYER
 70
0
  3

 72
65
 73
0
 40
0.0
  0
LTYPE
  5
16
100
AcDbSymbolTableRecord
100
AcDbLinetypeTableRecord
  2
CONTINUOUS
 70
64
  3
Solid line
 72
65
 73
0
 40
0.0
  0
LTYPE
  5
1F5
100
AcDbSymbolTableRecord
100
AcDbLinetypeTableRecord
  2
CENTER
 70
64
  3
____ _ ____ _ ____ _ ____ _ ____ _ ____ _ ____
 72
65
 73
4
 40
0.6
 49
0.375
 74
0
 49
-0.075
 74
0
 49
0.075
 74
0
 49
-0.075
 74
0
  0
LTYPE
  5
1F6
100
AcDbSymbolTableRecord
100
AcDbLinetypeTableRecord
  2
HIDDEN
 70
64
  3
- - - - - - - - - - - - - - - - - - - -
 72
65
 73
2
 40
0.2
 49
0.1
 74
0
 49
-0.1
 74
0
  0
LTYPE
  5
1F7
100
AcDbSymbolTableRecord
100
AcDbLinetypeTableRecord
  2
PHANTOM
 70
64
  3
_____ _ _ _____ _ _ _____ _ _ _____
 72
65
 73
6
 40
0.8
 49
0.45
 74
0
 49
-0.05
 74
0
 49
0.1
 74
0
 49
-0.05
 74
0
 49
0.1
 74
0
 49
-0.05
 74
0
  0
LTYPE
  5
1F8
100
AcDbSymbolTableRecord
100
AcDbLinetypeTableRecord
  2
DOT
 70
64
  3
. . . . . . . . . . . . . . . . . . . .
 72
65
 73
2
 40
0.2
 49
0.1
 74
0
 49
-0.1
 74
0
  0
LTYPE
  5
1F9
100
AcDbSymbolTableRecord
100
AcDbLinetypeTableRecord
  2
DASHED
 70
64
  3
- - - - - - - - - - - - - - - - - - - -
 72
65
 73
2
 40
0.2
 49
0.1
 74
0
 49
-0.1
 74
0
  0
ENDTAB
  0
TABLE
  2
LAYER
  5
2
100
AcDbSymbolTable
 70
36
  0
LAYER
  5
10
100
AcDbSymbolTableRecord
100
AcDbLayerTableRecord
  2
0
 70
0
 62
7
  6
CONTINUOUS
  0
LAYER
  5
1FA
100
AcDbSymbolTableRecord
100
AcDbLayerTableRecord
  2
DEFAULT_1
 70
0
 62
7
  6
CENTER
  0
LAYER
  5
1FB
100
AcDbSymbolTableRecord
100
AcDbLayerTableRecord
  2
DEFAULT_2
 70
0
 62
8
  6
HIDDEN
  0
LAYER
  5
1FC
100
AcDbSymbolTableRecord
100
AcDbLayerTableRecord
  2
DEFAULT_3
 70
0
 62
7
  6
PHANTOM
  0
LAYER
  5
1FD
100
AcDbSymbolTableRecord
100
AcDbLayerTableRecord
  2
1_ALL_PLANES
 70
0
 62
7
  6
CONTINUOUS
  0
LAYER
  5
1FE
100
AcDbSymbolTableRecord
100
AcDbLayerTableRecord
  2
2_ALL_CSYS
 70
0
 62
7
  6
CONTINUOUS
  0
LAYER
  5
1FF
100
AcDbSymbolTableRecord
100
AcDbLayerTableRecord
  2
3_ALL_AXES
 70
0
 62
7
  6
CONTINUOUS
  0
LAYER
  5
200
100
AcDbSymbolTableRecord
100
AcDbLayerTableRecord
  2
4_ALL_POINTS
 70
0
 62
7
  6
CONTINUOUS
  0
LAYER
  5
201
100
AcDbSymbolTableRecord
100
AcDbLayerTableRecord
  2
5_ALL_CURVES
 70
0
 62
7
  6
CONTINUOUS
  0
LAYER
  5
202
100
AcDbSymbolTableRecord
100
AcDbLayerTableRecord
  2
5__COSTRUZIONE
 70
0
 62
7
  6
CONTINUOUS
  0
LAYER
  5
203
100
AcDbSymbolTableRecord
100
AcDbLayerTableRecord
  2
6_ALL_SURFS
 70
0
 62
7
  6
CONTINUOUS
  0
LAYER
  5
204
100
AcDbSymbolTableRecord
100
AcDbLayerTableRecord
  2
7_ALL_FEATURES
 70
0
 62
7
  6
CONTINUOUS
  0
LAYER
  5
205
100
AcDbSymbolTableRecord
100
AcDbLayerTableRecord
  2
9_SOLID
 70
0
 62
7
  6
CONTINUOUS
  0
LAYER
  5
206
100
AcDbSymbolTableRecord
100
AcDbLayerTableRecord
  2
PR9036
 70
0
 62
7
  6
CONTINUOUS
  0
LAYER
  5
207
100
AcDbSymbolTableRecord
100
AcDbLayerTableRecord
  2
WHITE
 70
0
 62
7
  6
CONTINUOUS
  0
LAYER
  5
208
100
AcDbSymbolTableRecord
100
AcDbLayerTableRecord
  2
XXX_SOLIDO
 70
0
 62
7
  6
CONTINUOUS
  0
ENDTAB
  0
TABLE
  2
STYLE
  5
3
100
AcDbSymbolTable
 70
1
  0
STYLE
  5
11
100
AcDbSymbolTableRecord
100
AcDbTextStyleTableRecord
  2
STANDARD
 70
0
 40
0.0
 41
1.0
 50
0.0
 71
0
 42
0.2
  3
arial.ttf
  4

  0
STYLE
  5
209
100
AcDbSymbolTableRecord
100
AcDbTextStyleTableRecord
  2
TEXTSTYLE_1
 70
0
 40
0.0
 41
0.8
 50
0.0
 71
0
 42
0.2
  3
gdt
  4

  0
STYLE
  5
20A
100
AcDbSymbolTableRecord
100
AcDbTextStyleTableRecord
  2
TEXTSTYLE_2
 70
0
 40
0.0
 41
0.85
 50
0.0
 71
0
 42
0.2
  3
txt
  4

  0
ENDTAB
  0
TABLE
  2
VIEW
  5
6
100
AcDbSymbolTable
 70
0
  0
ENDTAB
  0
TABLE
  2
UCS
  5
7
100
AcDbSymbolTable
 70
0
  0
ENDTAB
  0
TABLE
  2
APPID
  5
9
100
AcDbSymbolTable
 70
1
  0
APPID
  5
20B
100
AcDbSymbolTableRecord
100
AcDbRegAppTableRecord
  2
ACAD
 70
0
  0
ENDTAB
  0
TABLE
  2
BLOCK_RECORD
  5
1
100
AcDbSymbolTable
 70
0
  0
BLOCK_RECORD
  5
1F
100
AcDbSymbolTableRecord
100
AcDbBlockTableRecord
  2
*MODEL_SPACE
  0
BLOCK_RECORD
  5
1B
100
AcDbSymbolTableRecord
100
AcDbBlockTableRecord
  2
*PAPER_SPACE
  0
BLOCK_RECORD
  5
20C
100
AcDbSymbolTableRecord
100
AcDbBlockTableRecord
  2
_CLOSED
  0
BLOCK_RECORD
  5
20D
100
AcDbSymbolTableRecord
100
AcDbBlockTableRecord
  2
*D0
  0
BLOCK_RECORD
  5
20E
100
AcDbSymbolTableRecord
100
AcDbBlockTableRecord
  2
*D1
  0
BLOCK_RECORD
  5
20F
100
AcDbSymbolTableRecord
100
AcDbBlockTableRecord
  2
*D2
  0
BLOCK_RECORD
  5
210
100
AcDbSymbolTableRecord
100
AcDbBlockTableRecord
  2
LOGO2_BL0
  0
ENDTAB
  0
TABLE
  2
DIMSTYLE
  5
A
100
AcDbSymbolTable
 70
1
  0
DIMSTYLE
105
211
100
AcDbSymbolTableRecord
100
AcDbDimStyleTableRecord
  2
STANDARD
 70
0
  3

  4

  5
_CLOSED
  6
_CLOSED
  7
_CLOSED
 40
1.0
 41
2.5
 42
0.75
 43
0.38
 44
0.75
 45
0.0
 46
0.0
 47
0.01
 48
0.01
140
3.0
141
0.09
142
0.0
143
25.4
144
1.0
145
0.0
146
1.0
147
0.625
 71
1.0
 72
0.0
 73
0
 74
0
 75
0
 76
0
 77
1
 78
8
 79
2
170
0
171
1
172
0
173
0
174
0
175
0
176
0
177
0
178
0
270
2
179
2
271
2
272
2
273
2
274
2
275
0
280
0
281
0
282
0
283
1
284
8
285
0
286
0
287
3
288
0
340
11
  0
DIMSTYLE
105
212
100
AcDbSymbolTableRecord
100
AcDbDimStyleTableRecord
  2
DIMSTYLE_1
 70
0
  3

  4

  5
_CLOSED
  6
_CLOSED
  7
_CLOSED
 40
1.0
 41
2.5
 42
0.75
 43
0.38
 44
0.75
 45
0.0
 46
0.0
 47
0.8
 48
0.8
140
6.0
141
0.09
142
0.0
143
25.4
144
1.0
145
0.0
146
1.0
147
1.5
 71
0.0
 72
0.0
 73
0
 74
0
 75
0
 76
0
 77
1
 78
8
 79
2
170
0
171
1
172
0
173
0
174
0
175
0
176
0
177
0
178
0
270
2
179
2
271
2
272
2
273
2
274
2
275
0
280
0
281
0
282
0
283
1
284
8
285
0
286
0
287
3
288
0
340
11
  0
DIMSTYLE
105
213
100
AcDbSymbolTableRecord
100
AcDbDimStyleTableRecord
  2
DIMSTYLE_2
 70
0
  3

  4

  5
_CLOSED
  6
_CLOSED
  7
_CLOSED
 40
1.0
 41
2.5
 42
0.75
 43
0.38
 44
0.75
 45
0.0
 46
0.0
 47
0.3
 48
0.3
140
6.0
141
0.09
142
0.0
143
25.4
144
1.0
145
0.0
146
1.0
147
1.5
 71
0.0
 72
0.0
 73
0
 74
0
 75
0
 76
0
 77
1
 78
8
 79
2
170
0
171
1
172
0
173
0
174
0
175
0
176
0
177
0
178
0
270
2
179
2
271
2
272
2
273
2
274
2
275
0
280
0
281
0
282
0
283
1
284
8
285
0
286
0
287
3
288
0
340
11
  0
ENDTAB
  0
ENDSEC
  0
SECTION
  2
BLOCKS
  0
BLOCK
  5
20
100
AcDbEntity
  8
0
100
AcDbBlockBegin
  2
*MODEL_SPACE
 70
0
 10
0.0
 20
0.0
 30
0.0
  3
*MODEL_SPACE
  1

  0
ENDBLK
  5
21
100
AcDbEntity
  8
0
100
AcDbBlockEnd
  0
BLOCK
  5
1C
100
AcDbEntity
  8
0
100
AcDbBlockBegin
  2
*PAPER_SPACE
 70
0
 10
0.0
 20
0.0
 30
0.0
  3
*PAPER_SPACE
  1

  0
ENDBLK
  5
1D
100
AcDbEntity
  8
0
100
AcDbBlockEnd
  0
BLOCK
  5
214
100
AcDbEntity
  8
0
100
AcDbBlockBegin
 62
2
  6
CONTINUOUS
  2
LOGO2_BL0
 70
64
 10
1102.8066660318
 20
36.5195544423
  3
LOGO2_BL0
  1

  0
LINE
  5
215
100
AcDbEntity
  8
0
100
AcDbLine
 62
7
  6
CONTINUOUS
 10
1094.54959126
 20
39.7150457811
 11
1093.2452503307
 21
39.7150457811
  0
LINE
  5
216
100
AcDbEntity
  8
0
100
AcDbLine
 62
7
  6
CONTINUOUS
 10
1093.2452503307
 20
39.7150457811
 11
1093.2452503307
 21
29.2559797212
  0
LINE
  5
217
100
AcDbEntity
  8
0
100
AcDbLine
 62
7
  6
CONTINUOUS
 10
1093.2452503307
 20
29.2559797212
 11
1097.7263052189
 21
29.2559797212
  0
LINE
  5
218
100
AcDbEntity
  8
0
100
AcDbLine
 62
7
  6
CONTINUOUS
 10
1097.7263052189
 20
29.2559797212
 11
1097.7263052189
 21
30.4488340463
  0
LINE
  5
219
100
AcDbEntity
  8
0
100
AcDbLine
 62
7
  6
CONTINUOUS
 10
1097.7263052189
 20
30.4488340463
 11
1094.54959126
 21
30.4488340463
  0
LINE
  5
21A
100
AcDbEntity
  8
0
100
AcDbLine
 62
7
  6
CONTINUOUS
 10
1094.54959126
 20
30.4488340463
 11
1094.54959126
 21
39.7150457811
  0
LINE
  5
21B
100
AcDbEntity
  8
0
100
AcDbLine
 62
7
  6
CONTINUOUS
 10
1109.4859174763
 20
39.7150457811
 11
1108.1820999583
 21
39.7150457811
  0
LINE
  5
21C
100
AcDbEntity
  8
0
100
AcDbLine
 62
7
  6
CONTINUOUS
 10
1108.1820999583
 20
39.7150457811
 11
1108.1820999583
 21
29.2559797212
  0
LINE
  5
21D
100
AcDbEntity
  8
0
100
AcDbLine
 62
7
  6
CONTINUOUS
 10
1108.1820999583
 20
29.2559797212
 11
1112.6632856994
 21
29.2559797212
  0
LINE
  5
21E
100
AcDbEntity
  8
0
100
AcDbLine
 62
7
  6
CONTINUOUS
 10
1112.6632856994
 20
29.2559797212
 11
1112.6632856994
 21
30.4488340463
  0
LINE
  5
21F
100
AcDbEntity
  8
0
100
AcDbLine
 62
7
  6
CONTINUOUS
 10
1112.6632856994
 20
30.4488340463
 11
1109.4859174763
 21
30.4488340463
  0
LINE
  5
220
100
AcDbEntity
  8
0
100
AcDbLine
 62
7
  6
CONTINUOUS
 10
1109.4859174763
 20
30.4488340463
 11
1109.4859174763
 21
39.7150457811
  0
LWPOLYLINE
  5
221
100
AcDbEntity
  8
0
100
AcDbPolyline
 62
7
  6
CONTINUOUS
 90
2
 70
0
 43
0.2
 10
1091.5996452416
 20
25.9124284143
 10
1091.5996452416
 20
24.055365165
  0
LWPOLYLINE
  5
222
100
AcDbEntity
  8
0
100
AcDbPolyline
 62
7
  6
CONTINUOUS
 90
2
 70
0
 43
0.2
 10
1091.5996452416
 20
24.055365165
 10
1092.395361252
 20
24.055365165
  0
LWPOLYLINE
  5
223
100
AcDbEntity
  8
0
100
AcDbPolyline
 62
7
  6
CONTINUOUS
 90
2
 70
0
 43
0.2
 10
1092.395361252
 20
24.055365165
 10
1092.395361252
 20
24.2673467366
  0
LWPOLYLINE
  5
224
100
AcDbEntity
  8
0
100
AcDbPolyline
 62
7
  6
CONTINUOUS
 90
2
 70
0
 43
0.2
 10
1092.395361252
 20
24.2673467366
 10
1091.8312547365
 20
24.2673467366
  0
LWPOLYLINE
  5
225
100
AcDbEntity
  8
0
100
AcDbPolyline
 62
7
  6
CONTINUOUS
 90
2
 70
0
 43
0.2
 10
1091.8312547365
 20
24.2673467366
 10
1091.8312547365
 20
25.9124284143
  0
LWPOLYLINE
  5
226
100
AcDbEntity
  8
0
100
AcDbPolyline
 62
7
  6
CONTINUOUS
 90
2
 70
0
 43
0.2
 10
1091.8312547365
 20
25.9124284143
 10
1091.5996452416
 20
25.9124284143
  0
SPLINE
  5
227
100
AcDbEntity
  8
0
100
AcDbSpline
 62
7
  6
CONTINUOUS
 70
2
 71
3
 72
35
 73
31
 74
0
 42
0.0000001
 43
0.0000001
 44
0.0000000001
 40
0.0
 40
0.0
 40
0.0
 40
0.0
 40
1.0
 40
1.0
 40
1.0
 40
2.0
 40
2.0
 40
2.0
 40
3.0
 40
3.0
 40
3.0
 40
4.0
 40
4.0
 40
4.0
 40
5.0
 40
5.0
 40
5.0
 40
6.0
 40
6.0
 40
6.0
 40
7.0
 40
7.0
 40
7.0
 40
8.0
 40
8.0
 40
8.0
 40
9.0
 40
9.0
 40
9.0
 40
10.0
 40
10.0
 40
10.0
 40
10.0
 10
1093.7936545075
 20
25.2079168209
 30
0.0
 10
1093.7936545075
 20
25.2079168209
 30
0.0
 10
1093.7936545075
 20
24.5458015417
 30
0.0
 10
1093.7936545075
 20
24.5458015417
 30
0.0
 10
1093.7936545075
 20
24.2307079464
 30
0.0
 10
1093.9415181963
 20
24.0161093184
 30
0.0
 10
1094.2816046806
 20
24.0161093184
 30
0.0
 10
1094.6211677536
 20
24.0161093184
 30
0.0
 10
1094.7692931481
 20
24.2307079464
 30
0.0
 10
1094.7692931481
 20
24.5458015417
 30
0.0
 10
1094.7692931481
 20
24.5458015417
 30
0.0
 10
1094.7692931481
 20
25.2079168209
 30
0.0
 10
1094.7692931481
 20
25.2079168209
 30
0.0
 10
1094.7692931481
 20
25.2079168209
 30
0.0
 10
1094.5472359092
 20
25.2079168209
 30
0.0
 10
1094.5472359092
 20
25.2079168209
 30
0.0
 10
1094.5472359092
 20
25.2079168209
 30
0.0
 10
1094.5472359092
 20
24.5709252835
 30
0.0
 10
1094.5472359092
 20
24.5709252835
 30
0.0
 10
1094.5472359092
 20
24.3851142763
 30
0.0
 10
1094.5005214518
 20
24.2223333658
 30
0.0
 10
1094.2816046806
 20
24.2223333658
 30
0.0
 10
1094.0621644982
 20
24.2223333658
 30
0.0
 10
1094.0154500408
 20
24.3851142763
 30
0.0
 10
1094.0154500408
 20
24.5709252835
 30
0.0
 10
1094.0154500408
 20
24.5709252835
 30
0.0
 10
1094.0154500408
 20
25.2079168209
 30
0.0
 10
1094.0154500408
 20
25.2079168209
 30
0.0
 10
1094.0154500408
 20
25.2079168209
 30
0.0
 10
1093.7936545075
 20
25.2079168209
 30
0.0
 10
1093.7936545075
 20
25.2079168209
 30
0.0
  0
SPLINE
  5
228
100
AcDbEntity
  8
0
100
AcDbSpline
 62
7
  6
CONTINUOUS
 70
2
 71
3
 72
35
 73
31
 74
0
 42
0.0000001
 43
0.0000001
 44
0.0000000001
 40
0.0
 40
0.0
 40
0.0
 40
0.0
 40
1.0
 40
1.0
 40
1.0
 40
2.0
 40
2.0
 40
2.0
 40
3.0
 40
3.0
 40
3.0
 40
4.0
 40
4.0
 40
4.0
 40
5.0
 40
5.0
 40
5.0
 40
6.0
 40
6.0
 40
6.0
 40
7.0
 40
7.0
 40
7.0
 40
8.0
 40
8.0
 40
8.0
 40
9.0
 40
9.0
 40
9.0
 40
10.0
 40
10.0
 40
10.0
 40
10.0
 10
1097.1924257053
 20
25.1665673291
 30
0.0
 10
1097.1039691977
 20
25.2178616353
 30
0.0
 10
1096.990519801
 20
25.2429853771
 30
0.0
 10
1096.886884366
 20
25.2429853771
 30
0.0
 10
1096.5320115128
 20
25.2429853771
 30
0.0
 10
1096.2565663226
 20
24.9791860881
 30
0.0
 10
1096.2565663226
 20
24.6216961784
 30
0.0
 10
1096.2565663226
 20
24.2767681397
 30
0.0
 10
1096.5350211277
 20
24.0166327297
 30
0.0
 10
1096.8745842008
 20
24.0166327297
 30
0.0
 10
1096.990519801
 20
24.0166327297
 30
0.0
 10
1097.0912764739
 20
24.0386160038
 30
0.0
 10
1097.1924257053
 20
24.0925273664
 30
0.0
 10
1097.1924257053
 20
24.0925273664
 30
0.0
 10
1097.1924257053
 20
24.3751694619
 30
0.0
 10
1097.1924257053
 20
24.3751694619
 30
0.0
 10
1097.1085490464
 20
24.2820022526
 30
0.0
 10
1097.0050444643
 20
24.2228567771
 30
0.0
 10
1096.8769395515
 20
24.2228567771
 30
0.0
 10
1096.6432364115
 20
24.2228567771
 30
0.0
 10
1096.4779692974
 20
24.3950590908
 30
0.0
 10
1096.4779692974
 20
24.6316409929
 30
0.0
 10
1096.4779692974
 20
24.8436225645
 30
0.0
 10
1096.6457226151
 20
25.0357145071
 30
0.0
 10
1096.8625457411
 20
25.0357145071
 30
0.0
 10
1096.9953613554
 20
25.0357145071
 30
0.0
 10
1097.1039691977
 20
24.9818031445
 30
0.0
 10
1097.1924257053
 20
24.8807847659
 30
0.0
 10
1097.1924257053
 20
24.8807847659
 30
0.0
 10
1097.1924257053
 20
25.1665673291
 30
0.0
 10
1097.1924257053
 20
25.1665673291
 30
0.0
  0
SPLINE
  5
229
100
AcDbEntity
  8
0
100
AcDbSpline
 62
7
  6
CONTINUOUS
 70
2
 71
3
 72
32
 73
28
 74
0
 42
0.0000001
 43
0.0000001
 44
0.0000000001
 40
0.0
 40
0.0
 40
0.0
 40
0.0
 40
1.0
 40
1.0
 40
1.0
 40
2.0
 40
2.0
 40
2.0
 40
3.0
 40
3.0
 40
3.0
 40
4.0
 40
4.0
 40
4.0
 40
5.0
 40
5.0
 40
5.0
 40
6.0
 40
6.0
 40
6.0
 40
7.0
 40
7.0
 40
7.0
 40
8.0
 40
8.0
 40
8.0
 40
9.0
 40
9.0
 40
9.0
 40
9.0
 10
1099.7242969576
 20
24.5950022028
 30
0.0
 10
1099.7242969576
 20
24.5950022028
 30
0.0
 10
1099.7242969576
 20
24.6290239365
 30
0.0
 10
1099.7242969576
 20
24.6290239365
 30
0.0
 10
1099.7242969576
 20
24.9713349187
 30
0.0
 10
1099.5514403797
 20
25.2429853771
 30
0.0
 10
1099.1847907726
 20
25.2429853771
 30
0.0
 10
1098.8131687582
 20
25.2429853771
 30
0.0
 10
1098.6234321663
 20
24.9765690316
 30
0.0
 10
1098.6234321663
 20
24.6216961784
 30
0.0
 10
1098.6234321663
 20
24.2820022526
 30
0.0
 10
1098.8375073831
 20
24.0161093184
 30
0.0
 10
1099.189632327
 20
24.0161093184
 30
0.0
 10
1099.4136523582
 20
24.0161093184
 30
0.0
 10
1099.6158199681
 20
24.131783213
 30
0.0
 10
1099.7242969576
 20
24.3312029137
 30
0.0
 10
1099.7242969576
 20
24.3312029137
 30
0.0
 10
1099.5366540109
 20
24.4379788164
 30
0.0
 10
1099.5366540109
 20
24.4379788164
 30
0.0
 10
1099.4531699104
 20
24.2992748251
 30
0.0
 10
1099.3619654935
 20
24.2134353739
 30
0.0
 10
1099.1923802363
 20
24.2134353739
 30
0.0
 10
1098.9803986647
 20
24.2134353739
 30
0.0
 10
1098.8474521976
 20
24.3981995585
 30
0.0
 10
1098.8450968468
 20
24.5950022028
 30
0.0
 10
1098.8450968468
 20
24.5950022028
 30
0.0
 10
1099.7242969576
 20
24.5950022028
 30
0.0
 10
1099.7242969576
 20
24.5950022028
 30
0.0
  0
SPLINE
  5
22A
100
AcDbEntity
  8
0
100
AcDbSpline
 62
7
  6
CONTINUOUS
 70
2
 71
3
 72
14
 73
10
 74
0
 42
0.0000001
 43
0.0000001
 44
0.0000000001
 40
0.0
 40
0.0
 40
0.0
 40
0.0
 40
1.0
 40
1.0
 40
1.0
 40
2.0
 40
2.0
 40
2.0
 40
3.0
 40
3.0
 40
3.0
 40
3.0
 10
1098.8571353064
 20
24.7624938149
 30
0.0
 10
1098.8847452518
 20
24.9273683706
 30
0.0
 10
1099.0125884589
 20
25.0503700232
 30
0.0
 10
1099.1847907726
 20
25.0503700232
 30
0.0
 10
1099.3619654935
 20
25.0503700232
 30
0.0
 10
1099.4754148902
 20
24.9346961286
 30
0.0
 10
1099.5026322771
 20
24.7624938149
 30
0.0
 10
1099.5026322771
 20
24.7624938149
 30
0.0
 10
1098.8571353064
 20
24.7624938149
 30
0.0
 10
1098.8571353064
 20
24.7624938149
 30
0.0
  0
SPLINE
  5
22B
100
AcDbEntity
  8
0
100
AcDbSpline
 62
7
  6
CONTINUOUS
 70
2
 71
3
 72
20
 73
16
 74
0
 42
0.0000001
 43
0.0000001
 44
0.0000000001
 40
0.0
 40
0.0
 40
0.0
 40
0.0
 40
1.0
 40
1.0
 40
1.0
 40
2.0
 40
2.0
 40
2.0
 40
3.0
 40
3.0
 40
3.0
 40
4.0
 40
4.0
 40
4.0
 40
5.0
 40
5.0
 40
5.0
 40
5.0
 10
1101.7483284078
 20
24.97185833
 30
0.0
 10
1101.7483284078
 20
24.97185833
 30
0.0
 10
1102.1594679744
 20
24.4693834937
 30
0.0
 10
1102.1594679744
 20
24.4693834937
 30
0.0
 10
1102.0434015213
 20
24.3537095991
 30
0.0
 10
1101.9056134998
 20
24.2233801884
 30
0.0
 10
1101.7336728917
 20
24.2233801884
 30
0.0
 10
1101.5562364651
 20
24.2233801884
 30
0.0
 10
1101.388744853
 20
24.3877313328
 30
0.0
 10
1101.388744853
 20
24.5646443481
 30
0.0
 10
1101.388744853
 20
24.7426041859
 30
0.0
 10
1101.5985019266
 20
24.8687463063
 30
0.0
 10
1101.726083428
 20
24.9566794027
 30
0.0
 10
1101.726083428
 20
24.9566794027
 30
0.0
 10
1101.7483284078
 20
24.97185833
 30
0.0
 10
1101.7483284078
 20
24.97185833
 30
0.0
  0
SPLINE
  5
22C
100
AcDbEntity
  8
0
100
AcDbSpline
 62
7
  6
CONTINUOUS
 70
2
 71
3
 72
23
 73
19
 74
0
 42
0.0000001
 43
0.0000001
 44
0.0000000001
 40
0.0
 40
0.0
 40
0.0
 40
0.0
 40
1.0
 40
1.0
 40
1.0
 40
2.0
 40
2.0
 40
2.0
 40
3.0
 40
3.0
 40
3.0
 40
4.0
 40
4.0
 40
4.0
 40
5.0
 40
5.0
 40
5.0
 40
6.0
 40
6.0
 40
6.0
 40
6.0
 10
1101.7976599216
 20
25.2628750061
 30
0.0
 10
1101.7976599216
 20
25.2628750061
 30
0.0
 10
1101.7360282425
 20
25.3413866993
 30
0.0
 10
1101.7360282425
 20
25.3413866993
 30
0.0
 10
1101.6821168798
 20
25.409953578
 30
0.0
 10
1101.6253267551
 20
25.479043868
 30
0.0
 10
1101.6253267551
 20
25.5727344885
 30
0.0
 10
1101.6253267551
 20
25.6915488509
 30
0.0
 10
1101.7212418736
 20
25.7690137215
 30
0.0
 10
1101.8322050666
 20
25.7690137215
 30
0.0
 10
1101.9554684249
 20
25.7690137215
 30
0.0
 10
1102.048766487
 20
25.6978297863
 30
0.0
 10
1102.048766487
 20
25.5675003756
 30
0.0
 10
1102.048766487
 20
25.4324602634
 30
0.0
 10
1101.9206615743
 20
25.3560422153
 30
0.0
 10
1101.8271018066
 20
25.2822412237
 30
0.0
 10
1101.8271018066
 20
25.2822412237
 30
0.0
 10
1101.7976599216
 20
25.2628750061
 30
0.0
 10
1101.7976599216
 20
25.2628750061
 30
0.0
  0
SPLINE
  5
22D
100
AcDbEntity
  8
0
100
AcDbSpline
 62
7
  6
CONTINUOUS
 70
2
 71
3
 72
50
 73
46
 74
0
 42
0.0000001
 43
0.0000001
 44
0.0000000001
 40
0.0
 40
0.0
 40
0.0
 40
0.0
 40
1.0
 40
1.0
 40
1.0
 40
2.0
 40
2.0
 40
2.0
 40
3.0
 40
3.0
 40
3.0
 40
4.0
 40
4.0
 40
4.0
 40
5.0
 40
5.0
 40
5.0
 40
6.0
 40
6.0
 40
6.0
 40
7.0
 40
7.0
 40
7.0
 40
8.0
 40
8.0
 40
8.0
 40
9.0
 40
9.0
 40
9.0
 40
10.0
 40
10.0
 40
10.0
 40
11.0
 40
11.0
 40
11.0
 40
12.0
 40
12.0
 40
12.0
 40
13.0
 40
13.0
 40
13.0
 40
14.0
 40
14.0
 40
14.0
 40
15.0
 40
15.0
 40
15.0
 40
15.0
 10
1102.4998161643
 20
24.0558885763
 30
0.0
 10
1102.4998161643
 20
24.0558885763
 30
0.0
 10
1102.785206169
 20
24.0558885763
 30
0.0
 10
1102.785206169
 20
24.0558885763
 30
0.0
 10
1102.785206169
 20
24.0558885763
 30
0.0
 10
1102.4528400012
 20
24.4667664372
 30
0.0
 10
1102.4528400012
 20
24.4667664372
 30
0.0
 10
1102.4528400012
 20
24.4667664372
 30
0.0
 10
1102.6793462361
 20
24.7326593715
 30
0.0
 10
1102.6793462361
 20
24.7326593715
 30
0.0
 10
1102.6793462361
 20
24.7326593715
 30
0.0
 10
1102.5310899888
 20
24.8854954675
 30
0.0
 10
1102.5310899888
 20
24.8854954675
 30
0.0
 10
1102.5310899888
 20
24.8854954675
 30
0.0
 10
1102.3151828325
 20
24.6342580494
 30
0.0
 10
1102.3151828325
 20
24.6342580494
 30
0.0
 10
1102.3151828325
 20
24.6342580494
 30
0.0
 10
1101.9281201851
 20
25.1021877407
 30
0.0
 10
1101.9281201851
 20
25.1021877407
 30
0.0
 10
1102.0835733376
 20
25.2162914015
 30
0.0
 10
1102.2658513186
 20
25.3560422153
 30
0.0
 10
1102.2658513186
 20
25.5654067305
 30
0.0
 10
1102.2658513186
 20
25.8093163906
 30
0.0
 10
1102.0638145615
 20
25.9527310835
 30
0.0
 10
1101.8373083267
 20
25.9527310835
 30
0.0
 10
1101.5931369609
 20
25.9527310835
 30
0.0
 10
1101.4087653347
 20
25.8019886326
 30
0.0
 10
1101.4087653347
 20
25.5455171015
 30
0.0
 10
1101.4087653347
 20
25.3879703039
 30
0.0
 10
1101.5074283625
 20
25.2503131352
 30
0.0
 10
1101.6127648842
 20
25.1393499421
 30
0.0
 10
1101.6127648842
 20
25.1393499421
 30
0.0
 10
1101.4972218424
 20
25.0556041361
 30
0.0
 10
1101.4972218424
 20
25.0556041361
 30
0.0
 10
1101.3195237102
 20
24.9273683706
 30
0.0
 10
1101.1721834326
 20
24.7996560163
 30
0.0
 10
1101.1721834326
 20
24.5625507029
 30
0.0
 10
1101.1721834326
 20
24.2422229947
 30
0.0
 10
1101.4307486088
 20
24.0161093184
 30
0.0
 10
1101.7411315025
 20
24.0161093184
 30
0.0
 10
1101.9600482737
 20
24.0161093184
 30
0.0
 10
1102.1572434764
 20
24.1412046162
 30
0.0
 10
1102.2975177016
 20
24.3071259944
 30
0.0
 10
1102.2975177016
 20
24.3071259944
 30
0.0
 10
1102.4998161643
 20
24.0558885763
 30
0.0
 10
1102.4998161643
 20
24.0558885763
 30
0.0
  0
LWPOLYLINE
  5
22E
100
AcDbEntity
  8
0
100
AcDbPolyline
 62
7
  6
CONTINUOUS
 90
2
 70
0
 43
0.2
 10
1104.435260254
 20
25.9124284143
 10
1104.2039124648
 20
25.9124284143
  0
LWPOLYLINE
  5
22F
100
AcDbEntity
  8
0
100
AcDbPolyline
 62
7
  6
CONTINUOUS
 90
2
 70
0
 43
0.2
 10
1104.2039124648
 20
25.9124284143
 10
1104.2039124648
 20
24.055365165
  0
LWPOLYLINE
  5
230
100
AcDbEntity
  8
0
100
AcDbPolyline
 62
7
  6
CONTINUOUS
 90
2
 70
0
 43
0.2
 10
1104.2039124648
 20
24.055365165
 10
1104.9992359167
 20
24.055365165
  0
LWPOLYLINE
  5
231
100
AcDbEntity
  8
0
100
AcDbPolyline
 62
7
  6
CONTINUOUS
 90
2
 70
0
 43
0.2
 10
1104.9992359167
 20
24.055365165
 10
1104.9992359167
 20
24.2673467366
  0
LWPOLYLINE
  5
232
100
AcDbEntity
  8
0
100
AcDbPolyline
 62
7
  6
CONTINUOUS
 90
2
 70
0
 43
0.2
 10
1104.9992359167
 20
24.2673467366
 10
1104.435260254
 20
24.2673467366
  0
LWPOLYLINE
  5
233
100
AcDbEntity
  8
0
100
AcDbPolyline
 62
7
  6
CONTINUOUS
 90
2
 70
0
 43
0.2
 10
1104.435260254
 20
24.2673467366
 10
1104.435260254
 20
25.9124284143
  0
LWPOLYLINE
  5
234
100
AcDbEntity
  8
0
100
AcDbPolyline
 62
7
  6
CONTINUOUS
 90
2
 70
0
 43
0.2
 10
1106.6783393282
 20
25.2079168209
 10
1106.4571980591
 20
25.2079168209
  0
LWPOLYLINE
  5
235
100
AcDbEntity
  8
0
100
AcDbPolyline
 62
7
  6
CONTINUOUS
 90
2
 70
0
 43
0.2
 10
1106.4571980591
 20
25.2079168209
 10
1106.4571980591
 20
24.0558885763
  0
LWPOLYLINE
  5
236
100
AcDbEntity
  8
0
100
AcDbPolyline
 62
7
  6
CONTINUOUS
 90
2
 70
0
 43
0.2
 10
1106.4571980591
 20
24.0558885763
 10
1106.6783393282
 20
24.0558885763
  0
LWPOLYLINE
  5
237
100
AcDbEntity
  8
0
100
AcDbPolyline
 62
7
  6
CONTINUOUS
 90
2
 70
0
 43
0.2
 10
1106.6783393282
 20
24.0558885763
 10
1106.6783393282
 20
25.2079168209
  0
LWPOLYLINE
  5
238
100
AcDbEntity
  8
0
100
AcDbPolyline
 62
7
  6
CONTINUOUS
 90
2
 70
1
 43
0.2
 10
1106.415316051
 20
25.7378707498
 42
1.0
 10
1106.7204830419
 20
25.7378707498
 42
1.0
  0
SPLINE
  5
239
100
AcDbEntity
  8
0
100
AcDbSpline
 62
7
  6
CONTINUOUS
 70
2
 71
3
 72
17
 73
13
 74
0
 42
0.0000001
 43
0.0000001
 44
0.0000000001
 40
0.0
 40
0.0
 40
0.0
 40
0.0
 40
1.0
 40
1.0
 40
1.0
 40
2.0
 40
2.0
 40
2.0
 40
3.0
 40
3.0
 40
3.0
 40
4.0
 40
4.0
 40
4.0
 40
4.0
 10
1108.8086232698
 20
24.2134353739
 30
0.0
 10
1108.5746584242
 20
24.2134353739
 30
0.0
 10
1108.4443290135
 20
24.415472131
 30
0.0
 10
1108.4443290135
 20
24.6316409929
 30
0.0
 10
1108.4443290135
 20
24.8462396209
 30
0.0
 10
1108.5801542427
 20
25.0451359103
 30
0.0
 10
1108.8086232698
 20
25.0451359103
 30
0.0
 10
1109.048083934
 20
25.0451359103
 30
0.0
 10
1109.1836474576
 20
24.8561844354
 30
0.0
 10
1109.1836474576
 20
24.6316409929
 30
0.0
 10
1109.1836474576
 20
24.4055273166
 30
0.0
 10
1109.0504392848
 20
24.2134353739
 30
0.0
 10
1108.8086232698
 20
24.2134353739
 30
0.0
  0
SPLINE
  5
23A
100
AcDbEntity
  8
0
100
AcDbSpline
 62
7
  6
CONTINUOUS
 70
2
 71
3
 72
50
 73
46
 74
0
 42
0.0000001
 43
0.0000001
 44
0.0000000001
 40
0.0
 40
0.0
 40
0.0
 40
0.0
 40
1.0
 40
1.0
 40
1.0
 40
2.0
 40
2.0
 40
2.0
 40
3.0
 40
3.0
 40
3.0
 40
4.0
 40
4.0
 40
4.0
 40
5.0
 40
5.0
 40
5.0
 40
6.0
 40
6.0
 40
6.0
 40
7.0
 40
7.0
 40
7.0
 40
8.0
 40
8.0
 40
8.0
 40
9.0
 40
9.0
 40
9.0
 40
10.0
 40
10.0
 40
10.0
 40
11.0
 40
11.0
 40
11.0
 40
12.0
 40
12.0
 40
12.0
 40
13.0
 40
13.0
 40
13.0
 40
14.0
 40
14.0
 40
14.0
 40
15.0
 40
15.0
 40
15.0
 40
15.0
 10
1109.3927502671
 20
25.2084402321
 30
0.0
 10
1109.3927502671
 20
25.2084402321
 30
0.0
 10
1109.1710855867
 20
25.2084402321
 30
0.0
 10
1109.1710855867
 20
25.2084402321
 30
0.0
 10
1109.1710855867
 20
25.2084402321
 30
0.0
 10
1109.1710855867
 20
25.0111141766
 30
0.0
 10
1109.1710855867
 20
25.0111141766
 30
0.0
 10
1109.1710855867
 20
25.0111141766
 30
0.0
 10
1109.1663748851
 20
25.0111141766
 30
0.0
 10
1109.1663748851
 20
25.0111141766
 30
0.0
 10
1109.0750396154
 20
25.1540054582
 30
0.0
 10
1108.937120741
 20
25.2424619659
 30
0.0
 10
1108.764395016
 20
25.2424619659
 30
0.0
 10
1108.4320288482
 20
25.2424619659
 30
0.0
 10
1108.2229260387
 20
24.9545857575
 30
0.0
 10
1108.2229260387
 20
24.6389687509
 30
0.0
 10
1108.2229260387
 20
24.3092196396
 30
0.0
 10
1108.4199903886
 20
24.0161093184
 30
0.0
 10
1108.7748632418
 20
24.0161093184
 30
0.0
 10
1108.937120741
 20
24.0161093184
 30
0.0
 10
1109.0771332605
 20
24.104565826
 30
0.0
 10
1109.1663748851
 20
24.235418648
 30
0.0
 10
1109.1663748851
 20
24.235418648
 30
0.0
 10
1109.1710855867
 20
24.235418648
 30
0.0
 10
1109.1710855867
 20
24.235418648
 30
0.0
 10
1109.1710855867
 20
24.235418648
 30
0.0
 10
1109.1710855867
 20
24.0161093184
 30
0.0
 10
1109.1710855867
 20
24.0161093184
 30
0.0
 10
1109.1710855867
 20
23.7795274163
 30
0.0
 10
1109.1145571676
 20
23.5926695865
 30
0.0
 10
1108.8413364753
 20
23.5926695865
 30
0.0
 10
1108.6390380126
 20
23.5926695865
 30
0.0
 10
1108.4964084366
 20
23.7109605375
 30
0.0
 10
1108.4964084366
 20
23.917184585
 30
0.0
 10
1108.4964084366
 20
23.917184585
 30
0.0
 10
1108.2747437562
 20
23.917184585
 30
0.0
 10
1108.2747437562
 20
23.917184585
 30
0.0
 10
1108.2797161634
 20
23.5926695865
 30
0.0
 10
1108.510802247
 20
23.3958669423
 30
0.0
 10
1108.8311299552
 20
23.3958669423
 30
0.0
 10
1109.2791700176
 20
23.3958669423
 30
0.0
 10
1109.3927502671
 20
23.6811260941
 30
0.0
 10
1109.3927502671
 20
24.0778718503
 30
0.0
 10
1109.3927502671
 20
24.0778718503
 30
0.0
 10
1109.3927502671
 20
25.2084402321
 30
0.0
 10
1109.3927502671
 20
25.2084402321
 30
0.0
  0
SPLINE
  5
23B
100
AcDbEntity
  8
0
100
AcDbSpline
 62
7
  6
CONTINUOUS
 70
2
 71
3
 72
44
 73
40
 74
0
 42
0.0000001
 43
0.0000001
 44
0.0000000001
 40
0.0
 40
0.0
 40
0.0
 40
0.0
 40
1.0
 40
1.0
 40
1.0
 40
2.0
 40
2.0
 40
2.0
 40
3.0
 40
3.0
 40
3.0
 40
4.0
 40
4.0
 40
4.0
 40
5.0
 40
5.0
 40
5.0
 40
6.0
 40
6.0
 40
6.0
 40
7.0
 40
7.0
 40
7.0
 40
8.0
 40
8.0
 40
8.0
 40
9.0
 40
9.0
 40
9.0
 40
10.0
 40
10.0
 40
10.0
 40
11.0
 40
11.0
 40
11.0
 40
12.0
 40
12.0
 40
12.0
 40
13.0
 40
13.0
 40
13.0
 40
13.0
 10
1110.9616756025
 20
26.1935002759
 30
0.0
 10
1110.9616756025
 20
26.1935002759
 30
0.0
 10
1110.9616756025
 20
24.055365165
 30
0.0
 10
1110.9616756025
 20
24.055365165
 30
0.0
 10
1110.9616756025
 20
24.055365165
 30
0.0
 10
1111.1830785773
 20
24.055365165
 30
0.0
 10
1111.1830785773
 20
24.055365165
 30
0.0
 10
1111.1830785773
 20
24.055365165
 30
0.0
 10
1111.1830785773
 20
24.5850573883
 30
0.0
 10
1111.1830785773
 20
24.5850573883
 30
0.0
 10
1111.1830785773
 20
24.7949453147
 30
0.0
 10
1111.1830785773
 20
25.0456593216
 30
0.0
 10
1111.4683377291
 20
25.0456593216
 30
0.0
 10
1111.6952365224
 20
25.0456593216
 30
0.0
 10
1111.7221922038
 20
24.9127128545
 30
0.0
 10
1111.7221922038
 20
24.7164336215
 30
0.0
 10
1111.7221922038
 20
24.7164336215
 30
0.0
 10
1111.7221922038
 20
24.055365165
 30
0.0
 10
1111.7221922038
 20
24.055365165
 30
0.0
 10
1111.7221922038
 20
24.055365165
 30
0.0
 10
1111.9441185898
 20
24.055365165
 30
0.0
 10
1111.9441185898
 20
24.055365165
 30
0.0
 10
1111.9441185898
 20
24.055365165
 30
0.0
 10
1111.9441185898
 20
24.7426041859
 30
0.0
 10
1111.9441185898
 20
24.7426041859
 30
0.0
 10
1111.9441185898
 20
25.0231526362
 30
0.0
 10
1111.8601110781
 20
25.2429853771
 30
0.0
 10
1111.5350726683
 20
25.2429853771
 30
0.0
 10
1111.3953218545
 20
25.2429853771
 30
0.0
 10
1111.2571412745
 20
25.1765121436
 30
0.0
 10
1111.1877892788
 20
25.0535104909
 30
0.0
 10
1111.1877892788
 20
25.0535104909
 30
0.0
 10
1111.1830785773
 20
25.0535104909
 30
0.0
 10
1111.1830785773
 20
25.0535104909
 30
0.0
 10
1111.1830785773
 20
25.0535104909
 30
0.0
 10
1111.1830785773
 20
26.1935002759
 30
0.0
 10
1111.1830785773
 20
26.1935002759
 30
0.0
 10
1111.1830785773
 20
26.1935002759
 30
0.0
 10
1110.9616756025
 20
26.1935002759
 30
0.0
 10
1110.9616756025
 20
26.1935002759
 30
0.0
  0
LWPOLYLINE
  5
23C
100
AcDbEntity
  8
0
100
AcDbPolyline
 62
7
  6
CONTINUOUS
 90
2
 70
0
 43
0.2
 10
1113.7839092667
 20
25.0011693621
 10
1114.0003398342
 20
25.0011693621
  0
LWPOLYLINE
  5
23D
100
AcDbEntity
  8
0
100
AcDbPolyline
 62
7
  6
CONTINUOUS
 90
2
 70
0
 43
0.2
 10
1114.0003398342
 20
25.0011693621
 10
1114.0003398342
 20
25.2079168209
  0
LWPOLYLINE
  5
23E
100
AcDbEntity
  8
0
100
AcDbPolyline
 62
7
  6
CONTINUOUS
 90
2
 70
0
 43
0.2
 10
1114.0003398342
 20
25.2079168209
 10
1113.7839092667
 20
25.2079168209
  0
LWPOLYLINE
  5
23F
100
AcDbEntity
  8
0
100
AcDbPolyline
 62
7
  6
CONTINUOUS
 90
2
 70
0
 43
0.2
 10
1113.7839092667
 20
25.2079168209
 10
1113.7839092667
 20
25.6486291252
  0
LWPOLYLINE
  5
240
100
AcDbEntity
  8
0
100
AcDbPolyline
 62
7
  6
CONTINUOUS
 90
2
 70
0
 43
0.2
 10
1113.7839092667
 20
25.6486291252
 10
1113.5622445863
 20
25.6486291252
  0
LWPOLYLINE
  5
241
100
AcDbEntity
  8
0
100
AcDbPolyline
 62
7
  6
CONTINUOUS
 90
2
 70
0
 43
0.2
 10
1113.5622445863
 20
25.6486291252
 10
1113.5622445863
 20
25.2079168209
  0
LWPOLYLINE
  5
242
100
AcDbEntity
  8
0
100
AcDbPolyline
 62
7
  6
CONTINUOUS
 90
2
 70
0
 43
0.2
 10
1113.5622445863
 20
25.2079168209
 10
1113.4415982844
 20
25.2079168209
  0
LWPOLYLINE
  5
243
100
AcDbEntity
  8
0
100
AcDbPolyline
 62
7
  6
CONTINUOUS
 90
2
 70
0
 43
0.2
 10
1113.4415982844
 20
25.2079168209
 10
1113.4415982844
 20
25.0011693621
  0
LWPOLYLINE
  5
244
100
AcDbEntity
  8
0
100
AcDbPolyline
 62
7
  6
CONTINUOUS
 90
2
 70
0
 43
0.2
 10
1113.4415982844
 20
25.0011693621
 10
1113.5622445863
 20
25.0011693621
  0
LWPOLYLINE
  5
245
100
AcDbEntity
  8
0
100
AcDbPolyline
 62
7
  6
CONTINUOUS
 90
2
 70
0
 43
0.2
 10
1113.5622445863
 20
25.0011693621
 10
1113.5622445863
 20
24.055365165
  0
LWPOLYLINE
  5
246
100
AcDbEntity
  8
0
100
AcDbPolyline
 62
7
  6
CONTINUOUS
 90
2
 70
0
 43
0.2
 10
1113.5622445863
 20
24.055365165
 10
1113.7839092667
 20
24.055365165
  0
LWPOLYLINE
  5
247
100
AcDbEntity
  8
0
100
AcDbPolyline
 62
7
  6
CONTINUOUS
 90
2
 70
0
 43
0.2
 10
1113.7839092667
 20
24.055365165
 10
1113.7839092667
 20
25.0011693621
  0
SPLINE
  5
248
100
AcDbEntity
  8
0
100
AcDbSpline
 62
7
  6
CONTINUOUS
 70
2
 71
3
 72
20
 73
16
 74
0
 42
0.0000001
 43
0.0000001
 44
0.0000000001
 40
0.0
 40
0.0
 40
0.0
 40
0.0
 40
1.0
 40
1.0
 40
1.0
 40
2.0
 40
2.0
 40
2.0
 40
3.0
 40
3.0
 40
3.0
 40
4.0
 40
4.0
 40
4.0
 40
5.0
 40
5.0
 40
5.0
 40
5.0
 10
1101.5659195739
 20
34.4162916084
 30
0.0
 10
1101.5659195739
 20
34.4162916084
 30
0.0
 10
1103.8822762284
 20
31.5867301861
 30
0.0
 10
1103.8822762284
 20
31.5867301861
 30
0.0
 10
1103.230629175
 20
30.9345597214
 30
0.0
 10
1102.453755971
 20
30.1986434507
 30
0.0
 10
1101.4825663263
 20
30.1986434507
 30
0.0
 10
1100.4840284419
 20
30.1986434507
 30
0.0
 10
1099.5407104483
 20
31.128221898
 30
0.0
 10
1099.5407104483
 20
32.1274140465
 30
0.0
 10
1099.5407104483
 20
33.126606195
 30
0.0
 10
1100.7195635214
 20
33.8332114337
 30
0.0
 10
1101.4410859818
 20
34.3330692136
 30
0.0
 10
1101.4410859818
 20
34.3330692136
 30
0.0
 10
1101.5659195739
 20
34.4162916084
 30
0.0
 10
1101.5659195739
 20
34.4162916084
 30
0.0
  0
SPLINE
  5
249
100
AcDbEntity
  8
0
100
AcDbSpline
 62
7
  6
CONTINUOUS
 70
2
 71
3
 72
23
 73
19
 74
0
 42
0.0000001
 43
0.0000001
 44
0.0000000001
 40
0.0
 40
0.0
 40
0.0
 40
0.0
 40
1.0
 40
1.0
 40
1.0
 40
2.0
 40
2.0
 40
2.0
 40
3.0
 40
3.0
 40
3.0
 40
4.0
 40
4.0
 40
4.0
 40
5.0
 40
5.0
 40
5.0
 40
6.0
 40
6.0
 40
6.0
 40
6.0
 10
1101.8433275565
 20
36.0540455281
 30
0.0
 10
1101.8433275565
 20
36.0540455281
 30
0.0
 10
1101.4968292839
 20
36.4973748889
 30
0.0
 10
1101.4968292839
 20
36.4973748889
 30
0.0
 10
1101.191026239
 20
36.8854843589
 30
0.0
 10
1100.8721379119
 20
37.2739863873
 30
0.0
 10
1100.8721379119
 20
37.8009307014
 30
0.0
 10
1100.8721379119
 20
38.467102418
 30
0.0
 10
1101.4134760363
 20
38.9108243373
 30
0.0
 10
1102.0373822915
 20
38.9108243373
 30
0.0
 10
1102.7311639536
 20
38.9108243373
 30
0.0
 10
1103.2583699733
 20
38.5085827626
 30
0.0
 10
1103.2583699733
 20
37.7735824616
 30
0.0
 10
1103.2583699733
 20
37.010317951
 30
0.0
 10
1102.5371092186
 20
36.5802047252
 30
0.0
 10
1102.0100340517
 20
36.1644853098
 30
0.0
 10
1102.0100340517
 20
36.1644853098
 30
0.0
 10
1101.8433275565
 20
36.0540455281
 30
0.0
 10
1101.8433275565
 20
36.0540455281
 30
0.0
  0
SPLINE
  5
24A
100
AcDbEntity
  8
0
100
AcDbSpline
 62
7
  6
CONTINUOUS
 70
2
 71
3
 72
50
 73
46
 74
0
 42
0.0000001
 43
0.0000001
 44
0.0000000001
 40
0.0
 40
0.0
 40
0.0
 40
0.0
 40
1.0
 40
1.0
 40
1.0
 40
2.0
 40
2.0
 40
2.0
 40
3.0
 40
3.0
 40
3.0
 40
4.0
 40
4.0
 40
4.0
 40
5.0
 40
5.0
 40
5.0
 40
6.0
 40
6.0
 40
6.0
 40
7.0
 40
7.0
 40
7.0
 40
8.0
 40
8.0
 40
8.0
 40
9.0
 40
9.0
 40
9.0
 40
10.0
 40
10.0
 40
10.0
 40
11.0
 40
11.0
 40
11.0
 40
12.0
 40
12.0
 40
12.0
 40
13.0
 40
13.0
 40
13.0
 40
14.0
 40
14.0
 40
14.0
 40
15.0
 40
15.0
 40
15.0
 40
15.0
 10
1105.7969147194
 20
29.25545631
 30
0.0
 10
1105.7969147194
 20
29.25545631
 30
0.0
 10
1107.406142724
 20
29.25545631
 30
0.0
 10
1107.406142724
 20
29.25545631
 30
0.0
 10
1107.406142724
 20
29.25545631
 30
0.0
 10
1105.5331154303
 20
31.5725980814
 30
0.0
 10
1105.5331154303
 20
31.5725980814
 30
0.0
 10
1105.5331154303
 20
31.5725980814
 30
0.0
 10
1106.8094538558
 20
33.070077776
 30
0.0
 10
1106.8094538558
 20
33.070077776
 30
0.0
 10
1106.8094538558
 20
33.070077776
 30
0.0
 10
1105.9772299081
 20
33.9310893445
 30
0.0
 10
1105.9772299081
 20
33.9310893445
 30
0.0
 10
1105.9772299081
 20
33.9310893445
 30
0.0
 10
1104.7566347848
 20
32.5157852221
 30
0.0
 10
1104.7566347848
 20
32.5157852221
 30
0.0
 10
1104.7566347848
 20
32.5157852221
 30
0.0
 10
1102.578720416
 20
35.1511610565
 30
0.0
 10
1102.578720416
 20
35.1511610565
 30
0.0
 10
1103.4522938554
 20
35.7891994164
 30
0.0
 10
1104.4789650966
 20
36.5802047252
 30
0.0
 10
1104.4789650966
 20
37.7590577983
 30
0.0
 10
1104.4789650966
 20
39.1327507234
 30
0.0
 10
1103.3410689567
 20
39.9372338728
 30
0.0
 10
1102.0657773538
 20
39.9372338728
 30
0.0
 10
1100.6923461345
 20
39.9372338728
 30
0.0
 10
1099.6514119357
 20
39.0910086731
 30
0.0
 10
1099.6514119357
 20
37.648356311
 30
0.0
 10
1099.6514119357
 20
36.7607816195
 30
0.0
 10
1100.2067513122
 20
35.9839084155
 30
0.0
 10
1100.802916769
 20
35.3594787491
 30
0.0
 10
1100.802916769
 20
35.3594787491
 30
0.0
 10
1100.15100801
 20
34.8878851787
 30
0.0
 10
1100.15100801
 20
34.8878851787
 30
0.0
 10
1099.1524701256
 20
34.166624424
 30
0.0
 10
1098.3195919137
 20
33.4453636694
 30
0.0
 10
1098.3195919137
 20
32.113805353
 30
0.0
 10
1098.3195919137
 20
30.310130055
 30
0.0
 10
1099.7766380863
 20
29.0335299239
 30
0.0
 10
1101.5241775237
 20
29.0335299239
 30
0.0
 10
1102.7590356046
 20
29.0335299239
 30
0.0
 10
1103.8684058293
 20
29.7417053964
 30
0.0
 10
1104.6592802852
 20
30.6702370211
 30
0.0
 10
1104.6592802852
 20
30.6702370211
 30
0.0
 10
1105.7969147194
 20
29.25545631
 30
0.0
 10
1105.7969147194
 20
29.25545631
 30
0.0
  0
LINE
  5
24B
100
AcDbEntity
  8
0
100
AcDbLine
 62
7
  6
CONTINUOUS
 10
1091.5997760944
 20
27.2293312146
 11
1114.0136868221
 21
27.2293312146
  0
LINE
  5
24C
100
AcDbEntity
  8
0
100
AcDbLine
 62
7
  6
CONTINUOUS
 10
1114.0136868221
 20
27.2293312146
 11
1114.0136868221
 21
49.6432419423
  0
LINE
  5
24D
100
AcDbEntity
  8
0
100
AcDbLine
 62
7
  6
CONTINUOUS
 10
1114.0136868221
 20
49.6432419423
 11
1091.5997760944
 21
49.6432419423
  0
LINE
  5
24E
100
AcDbEntity
  8
0
100
AcDbLine
 62
7
  6
CONTINUOUS
 10
1091.5997760944
 20
49.6432419423
 11
1091.5997760944
 21
27.2293312146
  0
ENDBLK
  5
24F
100
AcDbEntity
  8
0
  6
BYBLOCK
 62
0
100
AcDbBlockEnd
  0
BLOCK
  5
250
100
AcDbEntity
  8
0
100
AcDbBlockBegin
  2
_CLOSED
 70
64
 10
0.0
 20
0.0
  3
_CLOSED
  1

  0
LINE
  5
251
100
AcDbEntity
  8
0
  6
BYBLOCK
 62
0
100
AcDbLine
 10
0.0
 20
0.0
 11
-1.0
 21
0.2
  0
LINE
  5
252
100
AcDbEntity
  8
0
  6
BYBLOCK
 62
0
100
AcDbLine
 10
-1.0
 20
0.2
 11
-1.0
 21
-0.2
  0
LINE
  5
253
100
AcDbEntity
  8
0
  6
BYBLOCK
 62
0
100
AcDbLine
 10
-1.0
 20
-0.2
 11
0.0
 21
0.0
  0
LINE
  5
254
100
AcDbEntity
  8
0
  6
BYBLOCK
 62
0
100
AcDbLine
 10
-1.0
 20
0.0
 11
0.0
 21
0.0
  0
ENDBLK
  5
255
100
AcDbEntity
  8
0
  6
BYBLOCK
 62
0
100
AcDbBlockEnd
  0
BLOCK
  5
256
100
AcDbEntity
  8
0
100
AcDbBlockBegin
 62
7
  6
CONTINUOUS
  2
*D0
 70
65
 10
0.0
 20
0.0
  3
*D0
  1

  0
MTEXT
  5
257
100
AcDbEntity
  8
0
100
AcDbMText
 62
7
  6
CONTINUOUS
  7
STANDARD
 71
2
 72
1
 10
703.0821741935
 20
147.4937723683
 30
0.0
 11
1.0
 21
0.0
 31
0.0
  1
847
 40
6.0
 41
13.9851301115
  0
LINE
  5
258
100
AcDbEntity
  8
0
100
AcDbLine
 62
7
  6
CONTINUOUS
 10
279.5821741935
 20
151.9694853385
 11
279.5821741935
 21
139.2437723683
  0
LINE
  5
259
100
AcDbEntity
  8
0
100
AcDbLine
 62
7
  6
CONTINUOUS
 10
1126.5821741935
 20
151.9694853385
 11
1126.5821741935
 21
139.2437723683
  0
LINE
  5
25A
100
AcDbEntity
  8
0
100
AcDbLine
 62
7
  6
CONTINUOUS
 10
279.5821741935
 20
139.9937723683
 11
703.0821741935
 21
139.9937723683
  0
LINE
  5
25B
100
AcDbEntity
  8
0
100
AcDbLine
 62
7
  6
CONTINUOUS
 10
1126.5821741935
 20
139.9937723683
 11
703.0821741935
 21
139.9937723683
  0
INSERT
  5
25C
100
AcDbEntity
  8
0
100
AcDbBlockReference
 62
7
  6
CONTINUOUS
  2
_CLOSED
 10
279.5821741935
 20
139.9937723683
 41
2.5
 42
2.5
 43
2.5
 50
180.0
  0
INSERT
  5
25D
100
AcDbEntity
  8
0
100
AcDbBlockReference
 62
7
  6
CONTINUOUS
  2
_CLOSED
 10
1126.5821741935
 20
139.9937723683
 41
2.5
 42
2.5
 43
2.5
  0
ENDBLK
  5
25E
100
AcDbEntity
  8
0
  6
BYBLOCK
 62
0
100
AcDbBlockEnd
  0
BLOCK
  5
25F
100
AcDbEntity
  8
0
100
AcDbBlockBegin
 62
7
  6
CONTINUOUS
  2
*D1
 70
65
 10
0.0
 20
0.0
  3
*D1
  1

  0
MTEXT
  5
260
100
AcDbEntity
  8
0
100
AcDbMText
 62
7
  6
CONTINUOUS
  7
STANDARD
 71
2
 72
1
 10
128.3646622451
 20
147.4937723683
 30
0.0
 11
1.0
 21
0.0
 31
0.0
  1
70,1
 40
6.0
 41
16.3048327138
  0
LINE
  5
261
100
AcDbEntity
  8
0
100
AcDbLine
 62
7
  6
CONTINUOUS
 10
93.3146622451
 20
150.2155705097
 11
93.3146622451
 21
139.2437723683
  0
LINE
  5
262
100
AcDbEntity
  8
0
100
AcDbLine
 62
7
  6
CONTINUOUS
 10
163.4146622451
 20
151.9694853385
 11
163.4146622451
 21
139.2437723683
  0
LINE
  5
263
100
AcDbEntity
  8
0
100
AcDbLine
 62
7
  6
CONTINUOUS
 10
93.3146622451
 20
139.9937723683
 11
128.3646622451
 21
139.9937723683
  0
LINE
  5
264
100
AcDbEntity
  8
0
100
AcDbLine
 62
7
  6
CONTINUOUS
 10
163.4146622451
 20
139.9937723683
 11
128.3646622451
 21
139.9937723683
  0
INSERT
  5
265
100
AcDbEntity
  8
0
100
AcDbBlockReference
 62
7
  6
CONTINUOUS
  2
_CLOSED
 10
93.3146622451
 20
139.9937723683
 41
2.5
 42
2.5
 43
2.5
 50
180.0
  0
INSERT
  5
266
100
AcDbEntity
  8
0
100
AcDbBlockReference
 62
7
  6
CONTINUOUS
  2
_CLOSED
 10
163.4146622451
 20
139.9937723683
 41
2.5
 42
2.5
 43
2.5
  0
ENDBLK
  5
267
100
AcDbEntity
  8
0
  6
BYBLOCK
 62
0
100
AcDbBlockEnd
  0
BLOCK
  5
268
100
AcDbEntity
  8
0
100
AcDbBlockBegin
 62
7
  6
CONTINUOUS
  2
*D2
 70
65
 10
0.0
 20
0.0
  3
*D2
  1

  0
MTEXT
  5
269
100
AcDbEntity
  8
0
100
AcDbMText
 62
7
  6
CONTINUOUS
  7
STANDARD
 71
2
 72
1
 10
51.5356241934
 20
203.0707963161
 30
0.0
 11
0.0
 21
1.0
 31
0.0
  1
76
 40
6.0
 41
9.3234200743
  0
LINE
  5
26A
100
AcDbEntity
  8
0
100
AcDbLine
 62
7
  6
CONTINUOUS
 10
74.5925068903
 20
165.0707963161
 11
58.2856241934
 21
165.0707963161
  0
LINE
  5
26B
100
AcDbEntity
  8
0
100
AcDbLine
 62
7
  6
CONTINUOUS
 10
73.3601525188
 20
241.0707963161
 11
58.2856241934
 21
241.0707963161
  0
LINE
  5
26C
100
AcDbEntity
  8
0
100
AcDbLine
 62
7
  6
CONTINUOUS
 10
59.0356241934
 20
165.0707963161
 11
59.0356241934
 21
203.0707963161
  0
LINE
  5
26D
100
AcDbEntity
  8
0
100
AcDbLine
 62
7
  6
CONTINUOUS
 10
59.0356241934
 20
241.0707963161
 11
59.0356241934
 21
203.0707963161
  0
INSERT
  5
26E
100
AcDbEntity
  8
0
100
AcDbBlockReference
 62
7
  6
CONTINUOUS
  2
_CLOSED
 10
59.0356241934
 20
165.0707963161
 41
2.5
 42
2.5
 43
2.5
 50
270.0
  0
INSERT
  5
26F
100
AcDbEntity
  8
0
100
AcDbBlockReference
 62
7
  6
CONTINUOUS
  2
_CLOSED
 10
59.0356241934
 20
241.0707963161
 41
2.5
 42
2.5
 43
2.5
 50
90.0
  0
ENDBLK
  5
270
100
AcDbEntity
  8
0
  6
BYBLOCK
 62
0
100
AcDbBlockEnd
  0
ENDSEC
  0
SECTION
  2
ENTITIES
  0
DIMENSION
  5
271
100
AcDbEntity
  8
0
100
AcDbDimension
 62
7
  6
CONTINUOUS
  2
*D0
 10
1126.5821741935
 20
139.9937723683
 11
703.049988678
 21
139.9937723683
 70
160
  3
DIMSTYLE_1
100
AcDbAlignedDimension
 13
279.5821741935
 23
152.7194853385
 14
1126.5821741935
 24
152.7194853385
100
AcDbRotatedDimension
  0
DIMENSION
  5
272
100
AcDbEntity
  8
0
100
AcDbDimension
 62
7
  6
CONTINUOUS
  2
*D1
 10
163.4146622451
 20
139.9937723683
 11
127.7880952187
 21
139.9937723683
 70
160
  3
DIMSTYLE_2
100
AcDbAlignedDimension
 13
93.3146622451
 23
150.9655705097
 14
163.4146622451
 24
152.7194853385
100
AcDbRotatedDimension
  0
DIMENSION
  5
273
100
AcDbEntity
  8
0
100
AcDbDimension
 62
7
  6
CONTINUOUS
  2
*D2
 10
59.0356241934
 20
241.0707963161
 11
59.0356241934
 21
203.077009176
 70
160
  3
DIMSTYLE_2
100
AcDbAlignedDimension
 13
75.3425068903
 23
165.0707963161
 14
74.1101525188
 24
241.0707963161
 50
90.0
100
AcDbRotatedDimension
  0
LINE
  5
274
100
AcDbEntity
  8
0
100
AcDbLine
 62
2
  6
CONTINUOUS
 10
1088.980618987
 20
50.0195544423
 11
1178.980618987
 21
50.0195544423
  0
LINE
  5
275
100
AcDbEntity
  8
0
100
AcDbLine
 62
2
  6
CONTINUOUS
 10
1088.980618987
 20
50.0195544423
 11
1088.980618987
 21
10.0195544423
  0
LINE
  5
276
100
AcDbEntity
  8
0
100
AcDbLine
 62
2
  6
CONTINUOUS
 10
1118.980618987
 20
44.0195544423
 11
1178.980618987
 21
44.0195544423
  0
LINE
  5
277
100
AcDbEntity
  8
0
100
AcDbLine
 62
2
  6
CONTINUOUS
 10
1118.980618987
 20
38.0195544423
 11
1178.980618987
 21
38.0195544423
  0
LINE
  5
278
100
AcDbEntity
  8
0
100
AcDbLine
 62
2
  6
CONTINUOUS
 10
1118.980618987
 20
28.0195544423
 11
1178.980618987
 21
28.0195544423
  0
LINE
  5
279
100
AcDbEntity
  8
0
100
AcDbLine
 62
2
  6
CONTINUOUS
 10
1088.980618987
 20
23.0195544423
 11
1178.980618987
 21
23.0195544423
  0
LINE
  5
27A
100
AcDbEntity
  8
0
100
AcDbLine
 62
2
  6
CONTINUOUS
 10
1088.980618987
 20
10.0195544423
 11
1178.980618987
 21
10.0195544423
  0
LINE
  5
27B
100
AcDbEntity
  8
0
100
AcDbLine
 62
2
  6
CONTINUOUS
 10
1118.980618987
 20
50.0195544423
 11
1118.980618987
 21
23.0195544423
  0
LINE
  5
27C
100
AcDbEntity
  8
0
100
AcDbLine
 62
2
  6
CONTINUOUS
 10
1158.980618987
 20
50.0195544423
 11
1158.980618987
 21
38.0195544423
  0
LINE
  5
27D
100
AcDbEntity
  8
0
100
AcDbLine
 62
2
  6
CONTINUOUS
 10
1178.980618987
 20
50.0195544423
 11
1178.980618987
 21
10.0195544423
  0
INSERT
  5
27E
100
AcDbEntity
  8
0
100
AcDbBlockReference
 62
2
  6
CONTINUOUS
  2
LOGO2_BL0
 10
1102.8066660318
 20
36.5195544423
  0
MTEXT
  5
27F
100
AcDbEntity
  8
9_SOLID
100
AcDbMText
 62
2
  6
CONTINUOUS
  7
TEXTSTYLE_2
 71
1
 72
1
 10
1120.468118987
 20
48.5195544423
 30
0.0
 11
1.0
 21
0.0
 31
0.0
  1
6F4_C_049
 40
3.0
 41
32.5714285714
  0
MTEXT
  5
280
100
AcDbEntity
  8
0
100
AcDbMText
 62
2
  6
CONTINUOUS
  7
TEXTSTYLE_2
 71
1
 72
1
 10
1160.468118987
 20
48.2695544423
 30
0.0
 11
1.0
 21
0.0
 31
0.0
  1
Rev:00
 40
3.5
 41
22.75
  0
MTEXT
  5
281
100
AcDbEntity
  8
9_SOLID
100
AcDbMText
 62
2
  6
CONTINUOUS
  7
TEXTSTYLE_2
 71
1
 72
1
 10
1120.468118987
 20
42.2695544423
 30
0.0
 11
1.0
 21
0.0
 31
0.0
  1
Scale:1:1
 40
3.5
 41
28.375
  0
MTEXT
  5
282
100
AcDbEntity
  8
9_SOLID
100
AcDbMText
 62
2
  6
CONTINUOUS
  7
TEXTSTYLE_2
 71
1
 72
1
 10
1160.468118987
 20
42.7695544423
 30
0.0
 11
1.0
 21
0.0
 31
0.0
  1
A0
 40
3.5
 41
9.625
  0
MTEXT
  5
283
100
AcDbEntity
  8
0
100
AcDbMText
 62
2
  6
CONTINUOUS
  7
TEXTSTYLE_2
 71
1
 72
1
 10
1120.468118987
 20
34.7695544423
 30
0.0
 11
1.0
 21
0.0
 31
0.0
  1
CASS. BRENTA 2.2 A FILO
 40
3.5
 41
93.125
  0
MTEXT
  5
284
100
AcDbEntity
  8
0
100
AcDbMText
 62
2
  6
CONTINUOUS
  7
TEXTSTYLE_2
 71
1
 72
1
 10
1120.468118987
 20
26.7695544423
 30
0.0
 11
1.0
 21
0.0
 31
0.0
  1
DATE: 08/05/18
 40
2.5
 41
39.8214285714
  0
MTEXT
  5
285
100
AcDbEntity
  8
9_SOLID
100
AcDbMText
 62
2
  6
CONTINUOUS
  7
TEXTSTYLE_2
 71
1
 72
1
 10
1090.468118987
 20
22.7070544423
 30
0.0
 11
1.0
 21
0.0
 31
0.0
  1
Any integral or partial reproductions are prohibited \Pwithout prior authorisation of L {\Ftxt.shx;\W0.190476;\H2.250000; }& L Luce & Light s.r.l., \Pin accordance with the law in force. \PAll rights reserved.
 40
2.25
 41
134.5982142857
  0
LINE
  5
286
100
AcDbEntity
  8
0
100
AcDbLine
 62
7
  6
CONTINUOUS
 10
0.0
 20
0.0
 11
0.0
 21
841.0
  0
LINE
  5
287
100
AcDbEntity
  8
0
100
AcDbLine
 62
7
  6
CONTINUOUS
 10
0.0
 20
0.0
 11
1189.0
 21
0.0
  0
LINE
  5
288
100
AcDbEntity
  8
0
100
AcDbLine
 62
7
  6
CONTINUOUS
 10
0.0
 20
841.0
 11
1189.0
 21
841.0
  0
LINE
  5
289
100
AcDbEntity
  8
0
100
AcDbLine
 62
7
  6
CONTINUOUS
 10
1189.0
 20
0.0
 11
1189.0
 21
841.0
  0
LINE
  5
28A
100
AcDbEntity
  8
6_ALL_SURFS
100
AcDbLine
 62
7
  6
CONTINUOUS
 10
75.9146622451
 20
167.720796316
 11
76.2146622451
 21
167.570796316
  0
LINE
  5
28B
100
AcDbEntity
  8
6_ALL_SURFS
100
AcDbLine
 62
7
  6
CONTINUOUS
 10
78.9146622451
 20
167.720796316
 11
79.2146622451
 21
167.570796316
  0
LINE
  5
28C
100
AcDbEntity
  8
6_ALL_SURFS
100
AcDbLine
 62
7
  6
CONTINUOUS
 10
81.9146622451
 20
167.720796316
 11
82.2146622451
 21
167.570796316
  0
LINE
  5
28D
100
AcDbEntity
  8
6_ALL_SURFS
100
AcDbLine
 62
7
  6
CONTINUOUS
 10
84.9146622451
 20
167.720796316
 11
85.2146622451
 21
167.570796316
  0
LINE
  5
28E
100
AcDbEntity
  8
6_ALL_SURFS
100
AcDbLine
 62
7
  6
CONTINUOUS
 10
87.9146622451
 20
167.720796316
 11
88.2146622451
 21
167.570796316
  0
LINE
  5
28F
100
AcDbEntity
  8
6_ALL_SURFS
100
AcDbLine
 62
7
  6
CONTINUOUS
 10
90.9146622451
 20
167.720796316
 11
91.2146622451
 21
167.570796316
  0
LINE
  5
290
100
AcDbEntity
  8
7_ALL_FEATURES
100
AcDbLine
 62
7
  6
CONTINUOUS
 10
180.8146622451
 20
166.570796316
 11
182.9601338355
 21
166.785343475
  0
LINE
  5
291
100
AcDbEntity
  8
6_ALL_SURFS
100
AcDbLine
 62
7
  6
CONTINUOUS
 10
75.9146622451
 20
166.570796316
 11
73.7691906547
 21
166.785343475
  0
LINE
  5
292
100
AcDbEntity
  8
7_ALL_FEATURES
100
AcDbLine
 62
7
  6
CONTINUOUS
 10
93.3146622451
 20
180.7207963161
 11
93.3146622451
 21
165.8207963161
  0
LINE
  5
293
100
AcDbEntity
  8
6_ALL_SURFS
100
AcDbLine
 62
7
  6
CONTINUOUS
 10
94.0646622451
 20
165.070796316
 11
93.9146622451
 21
165.070796316
  0
LINE
  5
294
100
AcDbEntity
  8
7_ALL_FEATURES
100
AcDbLine
 62
7
  6
CONTINUOUS
 10
94.0646622451
 20
165.0707963161
 11
162.8146622451
 21
165.070796316
  0
LINE
  5
295
100
AcDbEntity
  8
6_ALL_SURFS
100
AcDbLine
 62
7
  6
CONTINUOUS
 10
93.3146622451
 20
166.570796316
 11
91.2146622451
 21
166.570796316
  0
LINE
  5
296
100
AcDbEntity
  8
6_ALL_SURFS
100
AcDbLine
 62
7
  6
CONTINUOUS
 10
90.6146622451
 20
166.570796316
 11
88.2146622451
 21
166.570796316
  0
LINE
  5
297
100
AcDbEntity
  8
6_ALL_SURFS
100
AcDbLine
 62
7
  6
CONTINUOUS
 10
87.6146622451
 20
166.570796316
 11
85.2146622451
 21
166.570796316
  0
LINE
  5
298
100
AcDbEntity
  8
6_ALL_SURFS
100
AcDbLine
 62
7
  6
CONTINUOUS
 10
84.6146622451
 20
166.570796316
 11
82.2146622451
 21
166.570796316
  0
LINE
  5
299
100
AcDbEntity
  8
6_ALL_SURFS
100
AcDbLine
 62
7
  6
CONTINUOUS
 10
81.6146622451
 20
166.570796316
 11
79.2146622451
 21
166.570796316
  0
LINE
  5
29A
100
AcDbEntity
  8
6_ALL_SURFS
100
AcDbLine
 62
7
  6
CONTINUOUS
 10
78.6146622451
 20
166.570796316
 11
75.9146622451
 21
166.570796316
  0
LINE
  5
29B
100
AcDbEntity
  8
7_ALL_FEATURES
100
AcDbLine
 62
7
  6
CONTINUOUS
 10
163.4146622451
 20
166.570796316
 11
165.5146622451
 21
166.570796316
  0
LINE
  5
29C
100
AcDbEntity
  8
3_ALL_AXES
100
AcDbLine
 62
7
  6
CONTINUOUS
 10
166.1146622451
 20
166.570796316
 11
168.5146622451
 21
166.570796316
  0
LINE
  5
29D
100
AcDbEntity
  8
3_ALL_AXES
100
AcDbLine
 62
7
  6
CONTINUOUS
 10
169.1146622451
 20
166.570796316
 11
171.5146622451
 21
166.570796316
  0
LINE
  5
29E
100
AcDbEntity
  8
3_ALL_AXES
100
AcDbLine
 62
7
  6
CONTINUOUS
 10
172.1146622451
 20
166.570796316
 11
174.5146622451
 21
166.570796316
  0
LINE
  5
29F
100
AcDbEntity
  8
3_ALL_AXES
100
AcDbLine
 62
7
  6
CONTINUOUS
 10
175.1146622451
 20
166.570796316
 11
177.5146622451
 21
166.570796316
  0
LINE
  5
2A0
100
AcDbEntity
  8
3_ALL_AXES
100
AcDbLine
 62
7
  6
CONTINUOUS
 10
178.1146622451
 20
166.570796316
 11
180.8146622451
 21
166.570796316
  0
LINE
  5
2A1
100
AcDbEntity
  8
7_ALL_FEATURES
100
AcDbLine
 62
7
  6
CONTINUOUS
 10
182.9209588872
 20
167.570796316
 11
181.1146622451
 21
167.570796316
  0
LINE
  5
2A2
100
AcDbEntity
  8
3_ALL_AXES
100
AcDbLine
 62
7
  6
CONTINUOUS
 10
180.5146622451
 20
167.570796316
 11
178.1146622451
 21
167.570796316
  0
LINE
  5
2A3
100
AcDbEntity
  8
3_ALL_AXES
100
AcDbLine
 62
7
  6
CONTINUOUS
 10
177.5146622451
 20
167.570796316
 11
175.1146622451
 21
167.570796316
  0
LINE
  5
2A4
100
AcDbEntity
  8
3_ALL_AXES
100
AcDbLine
 62
7
  6
CONTINUOUS
 10
174.5146622451
 20
167.570796316
 11
172.1146622451
 21
167.570796316
  0
LINE
  5
2A5
100
AcDbEntity
  8
3_ALL_AXES
100
AcDbLine
 62
7
  6
CONTINUOUS
 10
171.5146622451
 20
167.570796316
 11
169.1146622451
 21
167.570796316
  0
LINE
  5
2A6
100
AcDbEntity
  8
3_ALL_AXES
100
AcDbLine
 62
7
  6
CONTINUOUS
 10
168.5146622451
 20
167.570796316
 11
166.1146622451
 21
167.570796316
  0
LINE
  5
2A7
100
AcDbEntity
  8
3_ALL_AXES
100
AcDbLine
 62
7
  6
CONTINUOUS
 10
165.5146622451
 20
167.570796316
 11
163.4146622451
 21
167.570796316
  0
LINE
  5
2A8
100
AcDbEntity
  8
6_ALL_SURFS
100
AcDbLine
 62
7
  6
CONTINUOUS
 10
73.808365603
 20
167.570796316
 11
75.6146622451
 21
167.570796316
  0
LINE
  5
2A9
100
AcDbEntity
  8
6_ALL_SURFS
100
AcDbLine
 62
7
  6
CONTINUOUS
 10
76.2146622451
 20
167.570796316
 11
78.6146622451
 21
167.570796316
  0
LINE
  5
2AA
100
AcDbEntity
  8
6_ALL_SURFS
100
AcDbLine
 62
7
  6
CONTINUOUS
 10
79.2146622451
 20
167.570796316
 11
81.6146622451
 21
167.570796316
  0
LINE
  5
2AB
100
AcDbEntity
  8
6_ALL_SURFS
100
AcDbLine
 62
7
  6
CONTINUOUS
 10
82.2146622451
 20
167.570796316
 11
84.6146622451
 21
167.570796316
  0
LINE
  5
2AC
100
AcDbEntity
  8
6_ALL_SURFS
100
AcDbLine
 62
7
  6
CONTINUOUS
 10
85.2146622451
 20
167.570796316
 11
87.6146622451
 21
167.570796316
  0
LINE
  5
2AD
100
AcDbEntity
  8
6_ALL_SURFS
100
AcDbLine
 62
7
  6
CONTINUOUS
 10
88.2146622451
 20
167.570796316
 11
90.6146622451
 21
167.570796316
  0
LINE
  5
2AE
100
AcDbEntity
  8
6_ALL_SURFS
100
AcDbLine
 62
7
  6
CONTINUOUS
 10
91.2146622451
 20
167.570796316
 11
93.3146622451
 21
167.570796316
  0
LINE
  5
2AF
100
AcDbEntity
  8
7_ALL_FEATURES
100
AcDbLine
 62
7
  6
CONTINUOUS
 10
95.0146622451
 20
176.6957963161
 11
95.0146622451
 21
177.4457963161
  0
LINE
  5
2B0
100
AcDbEntity
  8
7_ALL_FEATURES
100
AcDbLine
 62
7
  6
CONTINUOUS
 10
95.8896622451
 20
178.3207963161
 11
95.8896622451
 21
177.4457963161
  0
LINE
  5
2B1
100
AcDbEntity
  8
7_ALL_FEATURES
100
AcDbLine
 62
7
  6
CONTINUOUS
 10
95.8896622451
 20
176.6957963161
 11
95.8896622451
 21
175.8207963161
  0
LINE
  5
2B2
100
AcDbEntity
  8
7_ALL_FEATURES
100
AcDbLine
 62
7
  6
CONTINUOUS
 10
96.2146622451
 20
215.2906879368
 11
96.2146622451
 21
182.9707963161
  0
LINE
  5
2B3
100
AcDbEntity
  8
6_ALL_SURFS
100
AcDbLine
 62
7
  6
CONTINUOUS
 10
96.2146622451
 20
215.2906879368
 11
96.2146622451
 21
215.4931817006
  0
LINE
  5
2B4
100
AcDbEntity
  8
7_ALL_FEATURES
100
AcDbLine
 62
7
  6
CONTINUOUS
 10
96.6396622451
 20
175.8207963161
 11
96.6396622451
 21
176.6957963161
  0
LINE
  5
2B5
100
AcDbEntity
  8
7_ALL_FEATURES
100
AcDbLine
 62
7
  6
CONTINUOUS
 10
96.6396622451
 20
177.4457963161
 11
96.6396622451
 21
178.3207963161
  0
LINE
  5
2B6
100
AcDbEntity
  8
7_ALL_FEATURES
100
AcDbLine
 62
7
  6
CONTINUOUS
 10
97.5146622451
 20
177.4457963161
 11
97.5146622451
 21
176.6957963161
  0
LINE
  5
2B7
100
AcDbEntity
  8
7_ALL_FEATURES
100
AcDbLine
 62
7
  6
CONTINUOUS
 10
99.9096631169
 20
234.7671403446
 11
100.9982093444
 21
240.4616152681
  0
LINE
  5
2B8
100
AcDbEntity
  8
6_ALL_SURFS
100
AcDbLine
 62
7
  6
CONTINUOUS
 10
96.3066552922
 20
216.4478899024
 11
99.8098378677
 21
234.4572087765
  0
LINE
  5
2B9
100
AcDbEntity
  8
7_ALL_FEATURES
100
AcDbLine
 62
7
  6
CONTINUOUS
 10
101.1651054157
 20
240.4663200244
 11
96.2431693293
 21
215.5817353534
  0
LINE
  5
2BA
100
AcDbEntity
  8
6_ALL_SURFS
100
AcDbLine
 62
7
  6
CONTINUOUS
 10
101.1146622451
 20
240.2112867757
 11
101.1146622451
 21
240.770796316
  0
LINE
  5
2BB
100
AcDbEntity
  8
7_ALL_FEATURES
100
AcDbLine
 62
7
  6
CONTINUOUS
 10
160.8396622451
 20
175.8207963161
 11
160.0896622451
 21
175.8207963161
  0
LINE
  5
2BC
100
AcDbEntity
  8
7_ALL_FEATURES
100
AcDbLine
 62
7
  6
CONTINUOUS
 10
96.6396622451
 20
175.8207963161
 11
95.8896622451
 21
175.8207963161
  0
LINE
  5
2BD
100
AcDbEntity
  8
7_ALL_FEATURES
100
AcDbLine
 62
7
  6
CONTINUOUS
 10
95.0146622451
 20
176.6957963161
 11
95.8896622451
 21
176.6957963161
  0
LINE
  5
2BE
100
AcDbEntity
  8
7_ALL_FEATURES
100
AcDbLine
 62
7
  6
CONTINUOUS
 10
96.6396622451
 20
176.6957963161
 11
97.5146622451
 21
176.6957963161
  0
LINE
  5
2BF
100
AcDbEntity
  8
7_ALL_FEATURES
100
AcDbLine
 62
7
  6
CONTINUOUS
 10
159.2146622451
 20
176.6957963161
 11
160.0896622451
 21
176.6957963161
  0
LINE
  5
2C0
100
AcDbEntity
  8
7_ALL_FEATURES
100
AcDbLine
 62
7
  6
CONTINUOUS
 10
160.8396622451
 20
176.6957963161
 11
161.7146622451
 21
176.6957963161
  0
LINE
  5
2C1
100
AcDbEntity
  8
7_ALL_FEATURES
100
AcDbLine
 62
7
  6
CONTINUOUS
 10
104.1646622451
 20
237.4457963161
 11
104.1646622451
 21
238.1957963161
  0
LINE
  5
2C2
100
AcDbEntity
  8
7_ALL_FEATURES
100
AcDbLine
 62
7
  6
CONTINUOUS
 10
105.0396622451
 20
239.0707963161
 11
105.0396622451
 21
238.1957963161
  0
LINE
  5
2C3
100
AcDbEntity
  8
7_ALL_FEATURES
100
AcDbLine
 62
7
  6
CONTINUOUS
 10
105.0396622451
 20
237.4457963161
 11
105.0396622451
 21
236.5707963161
  0
LINE
  5
2C4
100
AcDbEntity
  8
7_ALL_FEATURES
100
AcDbLine
 62
7
  6
CONTINUOUS
 10
105.7896622451
 20
236.5707963161
 11
105.7896622451
 21
237.4457963161
  0
LINE
  5
2C5
100
AcDbEntity
  8
7_ALL_FEATURES
100
AcDbLine
 62
7
  6
CONTINUOUS
 10
105.7896622451
 20
238.1957963161
 11
105.7896622451
 21
239.0707963161
  0
LINE
  5
2C6
100
AcDbEntity
  8
7_ALL_FEATURES
100
AcDbLine
 62
7
  6
CONTINUOUS
 10
106.6646622451
 20
238.1957963161
 11
106.6646622451
 21
237.4457963161
  0
LINE
  5
2C7
100
AcDbEntity
  8
7_ALL_FEATURES
100
AcDbLine
 62
7
  6
CONTINUOUS
 10
161.7146622451
 20
177.4457963161
 11
160.8396622451
 21
177.4457963161
  0
LINE
  5
2C8
100
AcDbEntity
  8
7_ALL_FEATURES
100
AcDbLine
 62
7
  6
CONTINUOUS
 10
160.0896622451
 20
177.4457963161
 11
159.2146622451
 21
177.4457963161
  0
LINE
  5
2C9
100
AcDbEntity
  8
7_ALL_FEATURES
100
AcDbLine
 62
7
  6
CONTINUOUS
 10
97.5146622451
 20
177.4457963161
 11
96.6396622451
 21
177.4457963161
  0
LINE
  5
2CA
100
AcDbEntity
  8
7_ALL_FEATURES
100
AcDbLine
 62
7
  6
CONTINUOUS
 10
95.8896622451
 20
177.4457963161
 11
95.0146622451
 21
177.4457963161
  0
LINE
  5
2CB
100
AcDbEntity
  8
7_ALL_FEATURES
100
AcDbLine
 62
7
  6
CONTINUOUS
 10
95.8896622451
 20
178.3207963161
 11
96.6396622451
 21
178.3207963161
  0
LINE
  5
2CC
100
AcDbEntity
  8
7_ALL_FEATURES
100
AcDbLine
 62
7
  6
CONTINUOUS
 10
160.0896622451
 20
178.3207963161
 11
160.8396622451
 21
178.3207963161
  0
LINE
  5
2CD
100
AcDbEntity
  8
7_ALL_FEATURES
100
AcDbLine
 62
7
  6
CONTINUOUS
 10
162.6646622451
 20
181.4707963161
 11
162.0146622451
 21
181.4707963161
  0
LINE
  5
2CE
100
AcDbEntity
  8
7_ALL_FEATURES
100
AcDbLine
 62
7
  6
CONTINUOUS
 10
94.7146622451
 20
181.4707963161
 11
94.0646622451
 21
181.4707963161
  0
LINE
  5
2CF
100
AcDbEntity
  8
3_ALL_AXES
100
AcDbLine
 62
7
  6
CONTINUOUS
 10
166.1146622451
 20
167.570796316
 11
165.8146622451
 21
167.720796316
  0
LINE
  5
2D0
100
AcDbEntity
  8
3_ALL_AXES
100
AcDbLine
 62
7
  6
CONTINUOUS
 10
169.1146622451
 20
167.570796316
 11
168.8146622451
 21
167.720796316
  0
LINE
  5
2D1
100
AcDbEntity
  8
3_ALL_AXES
100
AcDbLine
 62
7
  6
CONTINUOUS
 10
172.1146622451
 20
167.570796316
 11
171.8146622451
 21
167.720796316
  0
LINE
  5
2D2
100
AcDbEntity
  8
3_ALL_AXES
100
AcDbLine
 62
7
  6
CONTINUOUS
 10
175.1146622451
 20
167.570796316
 11
174.8146622451
 21
167.720796316
  0
LINE
  5
2D3
100
AcDbEntity
  8
3_ALL_AXES
100
AcDbLine
 62
7
  6
CONTINUOUS
 10
178.1146622451
 20
167.570796316
 11
177.8146622451
 21
167.720796316
  0
LINE
  5
2D4
100
AcDbEntity
  8
7_ALL_FEATURES
100
AcDbLine
 62
7
  6
CONTINUOUS
 10
124.3646622451
 20
231.5054450112
 11
124.3646622451
 21
232.3159798095
  0
LINE
  5
2D5
100
AcDbEntity
  8
3_ALL_AXES
100
AcDbLine
 62
7
  6
CONTINUOUS
 10
181.1146622451
 20
167.570796316
 11
180.8146622451
 21
167.720796316
  0
LINE
  5
2D6
100
AcDbEntity
  8
7_ALL_FEATURES
100
AcDbLine
 62
7
  6
CONTINUOUS
 10
132.3646622451
 20
231.5054450112
 11
132.3646622451
 21
232.3159798095
  0
LINE
  5
2D7
100
AcDbEntity
  8
6_ALL_SURFS
100
AcDbLine
 62
7
  6
CONTINUOUS
 10
75.6146622451
 20
167.570796316
 11
75.9146622451
 21
167.720796316
  0
LINE
  5
2D8
100
AcDbEntity
  8
6_ALL_SURFS
100
AcDbLine
 62
7
  6
CONTINUOUS
 10
78.6146622451
 20
167.570796316
 11
78.9146622451
 21
167.720796316
  0
LINE
  5
2D9
100
AcDbEntity
  8
6_ALL_SURFS
100
AcDbLine
 62
7
  6
CONTINUOUS
 10
81.6146622451
 20
167.570796316
 11
81.9146622451
 21
167.720796316
  0
LINE
  5
2DA
100
AcDbEntity
  8
6_ALL_SURFS
100
AcDbLine
 62
7
  6
CONTINUOUS
 10
84.6146622451
 20
167.570796316
 11
84.9146622451
 21
167.720796316
  0
LINE
  5
2DB
100
AcDbEntity
  8
6_ALL_SURFS
100
AcDbLine
 62
7
  6
CONTINUOUS
 10
87.6146622451
 20
167.570796316
 11
87.9146622451
 21
167.720796316
  0
LINE
  5
2DC
100
AcDbEntity
  8
6_ALL_SURFS
100
AcDbLine
 62
7
  6
CONTINUOUS
 10
90.6146622451
 20
167.570796316
 11
90.9146622451
 21
167.720796316
  0
LINE
  5
2DD
100
AcDbEntity
  8
7_ALL_FEATURES
100
AcDbLine
 62
7
  6
CONTINUOUS
 10
139.3468922099
 20
221.4457963161
 11
138.5955896224
 21
221.4457963161
  0
LINE
  5
2DE
100
AcDbEntity
  8
7_ALL_FEATURES
100
AcDbLine
 62
7
  6
CONTINUOUS
 10
118.1337348678
 20
221.4457963161
 11
117.3824322803
 21
221.4457963161
  0
LINE
  5
2DF
100
AcDbEntity
  8
7_ALL_FEATURES
100
AcDbLine
 62
7
  6
CONTINUOUS
 10
150.0646622451
 20
237.4457963161
 11
150.0646622451
 21
238.1957963161
  0
LINE
  5
2E0
100
AcDbEntity
  8
7_ALL_FEATURES
100
AcDbLine
 62
7
  6
CONTINUOUS
 10
150.9396622451
 20
239.0707963161
 11
150.9396622451
 21
238.1957963161
  0
LINE
  5
2E1
100
AcDbEntity
  8
7_ALL_FEATURES
100
AcDbLine
 62
7
  6
CONTINUOUS
 10
150.9396622451
 20
237.4457963161
 11
150.9396622451
 21
236.5707963161
  0
LINE
  5
2E2
100
AcDbEntity
  8
7_ALL_FEATURES
100
AcDbLine
 62
7
  6
CONTINUOUS
 10
117.3824322803
 20
222.6957963161
 11
118.1337348678
 21
222.6957963161
  0
LINE
  5
2E3
100
AcDbEntity
  8
7_ALL_FEATURES
100
AcDbLine
 62
7
  6
CONTINUOUS
 10
138.5955896224
 20
222.6957963161
 11
139.3468922099
 21
222.6957963161
  0
LINE
  5
2E4
100
AcDbEntity
  8
7_ALL_FEATURES
100
AcDbLine
 62
7
  6
CONTINUOUS
 10
151.6896622451
 20
236.5707963161
 11
151.6896622451
 21
237.4457963161
  0
LINE
  5
2E5
100
AcDbEntity
  8
7_ALL_FEATURES
100
AcDbLine
 62
7
  6
CONTINUOUS
 10
151.6896622451
 20
238.1957963161
 11
151.6896622451
 21
239.0707963161
  0
LINE
  5
2E6
100
AcDbEntity
  8
7_ALL_FEATURES
100
AcDbLine
 62
7
  6
CONTINUOUS
 10
152.5646622451
 20
238.1957963161
 11
152.5646622451
 21
237.4457963161
  0
LINE
  5
2E7
100
AcDbEntity
  8
7_ALL_FEATURES
100
AcDbLine
 62
7
  6
CONTINUOUS
 10
155.6146622451
 20
240.7414420492
 11
155.6146622451
 21
240.770796316
  0
LINE
  5
2E8
100
AcDbEntity
  8
7_ALL_FEATURES
100
AcDbLine
 62
7
  6
CONTINUOUS
 10
159.2146622451
 20
176.6957963161
 11
159.2146622451
 21
177.4457963161
  0
LINE
  5
2E9
100
AcDbEntity
  8
7_ALL_FEATURES
100
AcDbLine
 62
7
  6
CONTINUOUS
 10
160.0896622451
 20
178.3207963161
 11
160.0896622451
 21
177.4457963161
  0
LINE
  5
2EA
100
AcDbEntity
  8
7_ALL_FEATURES
100
AcDbLine
 62
7
  6
CONTINUOUS
 10
160.0896622451
 20
176.6957963161
 11
160.0896622451
 21
175.8207963161
  0
LINE
  5
2EB
100
AcDbEntity
  8
7_ALL_FEATURES
100
AcDbLine
 62
7
  6
CONTINUOUS
 10
160.5146622451
 20
182.9707963161
 11
160.5146622451
 21
215.4931817006
  0
LINE
  5
2EC
100
AcDbEntity
  8
7_ALL_FEATURES
100
AcDbLine
 62
7
  6
CONTINUOUS
 10
160.8396622451
 20
175.8207963161
 11
160.8396622451
 21
176.6957963161
  0
LINE
  5
2ED
100
AcDbEntity
  8
7_ALL_FEATURES
100
AcDbLine
 62
7
  6
CONTINUOUS
 10
160.8396622451
 20
177.4457963161
 11
160.8396622451
 21
178.3207963161
  0
LINE
  5
2EE
100
AcDbEntity
  8
7_ALL_FEATURES
100
AcDbLine
 62
7
  6
CONTINUOUS
 10
161.7146622451
 20
177.4457963161
 11
161.7146622451
 21
176.6957963161
  0
LINE
  5
2EF
100
AcDbEntity
  8
7_ALL_FEATURES
100
AcDbLine
 62
7
  6
CONTINUOUS
 10
163.4146622451
 20
165.8207963161
 11
163.4146622451
 21
180.7207963161
  0
LINE
  5
2F0
100
AcDbEntity
  8
7_ALL_FEATURES
100
AcDbLine
 62
7
  6
CONTINUOUS
 10
151.6896622451
 20
236.5707963161
 11
150.9396622451
 21
236.5707963161
  0
LINE
  5
2F1
100
AcDbEntity
  8
7_ALL_FEATURES
100
AcDbLine
 62
7
  6
CONTINUOUS
 10
105.7896622451
 20
236.5707963161
 11
105.0396622451
 21
236.5707963161
  0
LINE
  5
2F2
100
AcDbEntity
  8
7_ALL_FEATURES
100
AcDbLine
 62
7
  6
CONTINUOUS
 10
104.1646622451
 20
237.4457963161
 11
105.0396622451
 21
237.4457963161
  0
LINE
  5
2F3
100
AcDbEntity
  8
7_ALL_FEATURES
100
AcDbLine
 62
7
  6
CONTINUOUS
 10
105.7896622451
 20
237.4457963161
 11
106.6646622451
 21
237.4457963161
  0
LINE
  5
2F4
100
AcDbEntity
  8
7_ALL_FEATURES
100
AcDbLine
 62
7
  6
CONTINUOUS
 10
150.0646622451
 20
237.4457963161
 11
150.9396622451
 21
237.4457963161
  0
LINE
  5
2F5
100
AcDbEntity
  8
7_ALL_FEATURES
100
AcDbLine
 62
7
  6
CONTINUOUS
 10
151.6896622451
 20
237.4457963161
 11
152.5646622451
 21
237.4457963161
  0
LINE
  5
2F6
100
AcDbEntity
  8
7_ALL_FEATURES
100
AcDbLine
 62
7
  6
CONTINUOUS
 10
152.5646622451
 20
238.1957963161
 11
151.6896622451
 21
238.1957963161
  0
LINE
  5
2F7
100
AcDbEntity
  8
7_ALL_FEATURES
100
AcDbLine
 62
7
  6
CONTINUOUS
 10
150.9396622451
 20
238.1957963161
 11
150.0646622451
 21
238.1957963161
  0
LINE
  5
2F8
100
AcDbEntity
  8
7_ALL_FEATURES
100
AcDbLine
 62
7
  6
CONTINUOUS
 10
106.6646622451
 20
238.1957963161
 11
105.7896622451
 21
238.1957963161
  0
LINE
  5
2F9
100
AcDbEntity
  8
7_ALL_FEATURES
100
AcDbLine
 62
7
  6
CONTINUOUS
 10
105.0396622451
 20
238.1957963161
 11
104.1646622451
 21
238.1957963161
  0
LINE
  5
2FA
100
AcDbEntity
  8
7_ALL_FEATURES
100
AcDbLine
 62
7
  6
CONTINUOUS
 10
105.0396622451
 20
239.0707963161
 11
105.7896622451
 21
239.0707963161
  0
LINE
  5
2FB
100
AcDbEntity
  8
7_ALL_FEATURES
100
AcDbLine
 62
7
  6
CONTINUOUS
 10
150.9396622451
 20
239.0707963161
 11
151.6896622451
 21
239.0707963161
  0
LINE
  5
2FC
100
AcDbEntity
  8
7_ALL_FEATURES
100
AcDbLine
 62
7
  6
CONTINUOUS
 10
160.422669198
 20
216.4478899024
 11
156.9194866225
 21
234.4572087765
  0
LINE
  5
2FD
100
AcDbEntity
  8
7_ALL_FEATURES
100
AcDbLine
 62
7
  6
CONTINUOUS
 10
160.4879850512
 20
215.5771632288
 11
155.7311151458
 21
240.4616152681
  0
LINE
  5
2FE
100
AcDbEntity
  8
7_ALL_FEATURES
100
AcDbLine
 62
7
  6
CONTINUOUS
 10
155.3146622451
 20
241.070796316
 11
131.0104135562
 21
241.0707963161
  0
LINE
  5
2FF
100
AcDbEntity
  8
7_ALL_FEATURES
100
AcDbLine
 62
7
  6
CONTINUOUS
 10
125.718910934
 20
241.0707963161
 11
101.9008518736
 21
241.0707963161
  0
LINE
  5
300
100
AcDbEntity
  8
6_ALL_SURFS
100
AcDbLine
 62
7
  6
CONTINUOUS
 10
101.4146622451
 20
241.070796316
 11
101.9008518736
 21
241.070796316
  0
LINE
  5
301
100
AcDbEntity
  8
7_ALL_FEATURES
100
AcDbLine
 62
7
  6
CONTINUOUS
 10
125.7646622451
 20
241.070796316
 11
130.9646622451
 21
241.070796316
  0
LINE
  5
302
100
AcDbEntity
  8
3_ALL_AXES
100
AcDbLine
 62
7
  6
CONTINUOUS
 10
165.8146622451
 20
167.720796316
 11
165.5146622451
 21
167.570796316
  0
LINE
  5
303
100
AcDbEntity
  8
3_ALL_AXES
100
AcDbLine
 62
7
  6
CONTINUOUS
 10
168.8146622451
 20
167.720796316
 11
168.5146622451
 21
167.570796316
  0
LINE
  5
304
100
AcDbEntity
  8
3_ALL_AXES
100
AcDbLine
 62
7
  6
CONTINUOUS
 10
171.8146622451
 20
167.720796316
 11
171.5146622451
 21
167.570796316
  0
LINE
  5
305
100
AcDbEntity
  8
3_ALL_AXES
100
AcDbLine
 62
7
  6
CONTINUOUS
 10
174.8146622451
 20
167.720796316
 11
174.5146622451
 21
167.570796316
  0
LINE
  5
306
100
AcDbEntity
  8
3_ALL_AXES
100
AcDbLine
 62
7
  6
CONTINUOUS
 10
177.8146622451
 20
167.720796316
 11
177.5146622451
 21
167.570796316
  0
LINE
  5
307
100
AcDbEntity
  8
3_ALL_AXES
100
AcDbLine
 62
7
  6
CONTINUOUS
 10
180.8146622451
 20
167.720796316
 11
180.5146622451
 21
167.570796316
  0
LINE
  5
308
100
AcDbEntity
  8
3_ALL_AXES
100
AcDbLine
 62
7
  6
CONTINUOUS
 10
278.3321741935
 20
174.3208443822
 11
278.3321741935
 21
179.8207482499
  0
LINE
  5
309
100
AcDbEntity
  8
3_ALL_AXES
100
AcDbLine
 62
7
  6
CONTINUOUS
 10
278.3321741935
 20
235.0708443822
 11
278.3321741935
 21
240.5707482499
  0
LINE
  5
30A
100
AcDbEntity
  8
3_ALL_AXES
100
AcDbLine
 62
7
  6
CONTINUOUS
 10
278.4828945232
 20
174.3207963161
 11
278.4828945232
 21
179.8207963161
  0
LINE
  5
30B
100
AcDbEntity
  8
3_ALL_AXES
100
AcDbLine
 62
7
  6
CONTINUOUS
 10
278.4828945232
 20
235.0707963161
 11
278.4828945232
 21
240.5707963161
  0
LINE
  5
30C
100
AcDbEntity
  8
7_ALL_FEATURES
100
AcDbLine
 62
7
  6
CONTINUOUS
 10
279.5821741935
 20
165.0707963161
 11
279.5821741935
 21
241.0707963161
  0
LINE
  5
30D
100
AcDbEntity
  8
6_ALL_SURFS
100
AcDbLine
 62
7
  6
CONTINUOUS
 10
281.0821741935
 20
165.1299382752
 11
281.0821741935
 21
165.070796316
  0
LINE
  5
30E
100
AcDbEntity
  8
7_ALL_FEATURES
100
AcDbLine
 62
7
  6
CONTINUOUS
 10
281.0821741935
 20
165.1299382752
 11
281.0821741935
 21
166.570796316
  0
LINE
  5
30F
100
AcDbEntity
  8
6_ALL_SURFS
100
AcDbLine
 62
7
  6
CONTINUOUS
 10
281.0821741935
 20
166.570796316
 11
281.0821741935
 21
167.720796316
  0
LINE
  5
310
100
AcDbEntity
  8
6_ALL_SURFS
100
AcDbLine
 62
7
  6
CONTINUOUS
 10
281.0821741935
 20
175.670796316
 11
281.0821741935
 21
178.470796316
  0
LINE
  5
311
100
AcDbEntity
  8
7_ALL_FEATURES
100
AcDbLine
 62
7
  6
CONTINUOUS
 10
281.0821741935
 20
167.720796316
 11
281.0821741935
 21
215.2955253247
  0
LINE
  5
312
100
AcDbEntity
  8
6_ALL_SURFS
100
AcDbLine
 62
7
  6
CONTINUOUS
 10
281.0821741935
 20
182.9707963161
 11
281.0821741935
 21
234.7671403446
  0
LINE
  5
313
100
AcDbEntity
  8
7_ALL_FEATURES
100
AcDbLine
 62
7
  6
CONTINUOUS
 10
281.0821741935
 20
234.7671403446
 11
281.0821741935
 21
240.7414420492
  0
LINE
  5
314
100
AcDbEntity
  8
6_ALL_SURFS
100
AcDbLine
 62
7
  6
CONTINUOUS
 10
281.0821741935
 20
240.7414420492
 11
281.0821741935
 21
241.070796316
  0
LINE
  5
315
100
AcDbEntity
  8
3_ALL_AXES
100
AcDbLine
 62
7
  6
CONTINUOUS
 10
279.5821741935
 20
235.993201482
 11
278.4828945232
 21
235.0707963161
  0
LINE
  5
316
100
AcDbEntity
  8
3_ALL_AXES
100
AcDbLine
 62
7
  6
CONTINUOUS
 10
279.5821741935
 20
178.8983911501
 11
278.4828945232
 21
179.8207963161
  0
LINE
  5
317
100
AcDbEntity
  8
3_ALL_AXES
100
AcDbLine
 62
7
  6
CONTINUOUS
 10
279.5821741935
 20
175.243201482
 11
278.4828945232
 21
174.3207963161
  0
LINE
  5
318
100
AcDbEntity
  8
3_ALL_AXES
100
AcDbLine
 62
7
  6
CONTINUOUS
 10
279.5821741935
 20
239.6483911501
 11
278.4828945232
 21
240.5707963161
  0
LINE
  5
319
100
AcDbEntity
  8
7_ALL_FEATURES
100
AcDbLine
 62
7
  6
CONTINUOUS
 10
1126.5821741935
 20
165.0707963161
 11
1125.0821741935
 21
165.0707963161
  0
LINE
  5
31A
100
AcDbEntity
  8
6_ALL_SURFS
100
AcDbLine
 62
7
  6
CONTINUOUS
 10
1125.0821741935
 20
165.070796316
 11
281.0821741935
 21
165.070796316
  0
LINE
  5
31B
100
AcDbEntity
  8
7_ALL_FEATURES
100
AcDbLine
 62
7
  6
CONTINUOUS
 10
279.5821741935
 20
165.0707963161
 11
281.0821741935
 21
165.0707963161
  0
LINE
  5
31C
100
AcDbEntity
  8
6_ALL_SURFS
100
AcDbLine
 62
9
  6
CONTINUOUS
 10
1125.0821741935
 20
165.270796316
 11
281.0821741935
 21
165.270796316
  0
LINE
  5
31D
100
AcDbEntity
  8
7_ALL_FEATURES
100
AcDbLine
 62
9
  6
CONTINUOUS
 10
1126.5821741935
 20
165.8207963161
 11
1125.0821741935
 21
165.8207963161
  0
LINE
  5
31E
100
AcDbEntity
  8
7_ALL_FEATURES
100
AcDbLine
 62
9
  6
CONTINUOUS
 10
279.5821741935
 20
165.8207963161
 11
281.0821741935
 21
165.8207963161
  0
LINE
  5
31F
100
AcDbEntity
  8
6_ALL_SURFS
100
AcDbLine
 62
9
  6
CONTINUOUS
 10
281.0821741935
 20
166.370796316
 11
1125.0821741935
 21
166.370796316
  0
LINE
  5
320
100
AcDbEntity
  8
6_ALL_SURFS
100
AcDbLine
 62
7
  6
CONTINUOUS
 10
281.0821741935
 20
166.570796316
 11
1125.0821741935
 21
166.570796316
  0
LINE
  5
321
100
AcDbEntity
  8
6_ALL_SURFS
100
AcDbLine
 62
9
  6
CONTINUOUS
 10
281.0821741935
 20
166.785343475
 11
1125.0821741935
 21
166.785343475
  0
LINE
  5
322
100
AcDbEntity
  8
6_ALL_SURFS
100
AcDbLine
 62
7
  6
CONTINUOUS
 10
281.0821741935
 20
167.570796316
 11
1125.0821741935
 21
167.570796316
  0
LINE
  5
323
100
AcDbEntity
  8
6_ALL_SURFS
100
AcDbLine
 62
7
  6
CONTINUOUS
 10
281.0821741935
 20
167.720796316
 11
1125.0821741935
 21
167.720796316
  0
LINE
  5
324
100
AcDbEntity
  8
6_ALL_SURFS
100
AcDbLine
 62
9
  6
CONTINUOUS
 10
1125.0821741935
 20
169.070796316
 11
281.0821741935
 21
169.070796316
  0
LINE
  5
325
100
AcDbEntity
  8
6_ALL_SURFS
100
AcDbLine
 62
9
  6
CONTINUOUS
 10
1125.0821741935
 20
170.0937938561
 11
281.0821741935
 21
170.0937938561
  0
LINE
  5
326
100
AcDbEntity
  8
6_ALL_SURFS
100
AcDbLine
 62
9
  6
CONTINUOUS
 10
281.0821741935
 20
172.2561574391
 11
1125.0821741935
 21
172.2561574391
  0
LINE
  5
327
100
AcDbEntity
  8
6_ALL_SURFS
100
AcDbLine
 62
9
  6
CONTINUOUS
 10
281.0821741935
 20
172.4607569471
 11
1125.0821741935
 21
172.4607569471
  0
LINE
  5
328
100
AcDbEntity
  8
6_ALL_SURFS
100
AcDbLine
 62
9
  6
CONTINUOUS
 10
281.0821741935
 20
173.870796316
 11
1125.0821741935
 21
173.870796316
  0
LINE
  5
329
100
AcDbEntity
  8
6_ALL_SURFS
100
AcDbLine
 62
7
  6
CONTINUOUS
 10
1125.0821741935
 20
174.170796316
 11
281.0821741935
 21
174.170796316
  0
LINE
  5
32A
100
AcDbEntity
  8
3_ALL_AXES
100
AcDbLine
 62
7
  6
CONTINUOUS
 10
278.4828945232
 20
174.3207963161
 11
278.3321741935
 21
174.3207963161
  0
LINE
  5
32B
100
AcDbEntity
  8
3_ALL_AXES
100
AcDbLine
 62
7
  6
CONTINUOUS
 10
1127.6814538639
 20
174.3207963161
 11
1127.8321741935
 21
174.3207963161
  0
LINE
  5
32C
100
AcDbEntity
  8
6_ALL_SURFS
100
AcDbLine
 62
9
  6
CONTINUOUS
 10
1125.0821741935
 20
175.670796316
 11
281.0821741935
 21
175.670796316
  0
LINE
  5
32D
100
AcDbEntity
  8
6_ALL_SURFS
100
AcDbLine
 62
9
  6
CONTINUOUS
 10
1125.0821741935
 20
178.470796316
 11
281.0821741935
 21
178.470796316
  0
LINE
  5
32E
100
AcDbEntity
  8
3_ALL_AXES
100
AcDbLine
 62
7
  6
CONTINUOUS
 10
278.4828945232
 20
179.8207963161
 11
278.3321741935
 21
179.8207963161
  0
LINE
  5
32F
100
AcDbEntity
  8
3_ALL_AXES
100
AcDbLine
 62
7
  6
CONTINUOUS
 10
1127.6814538639
 20
179.8207963161
 11
1127.8321741935
 21
179.8207963161
  0
LINE
  5
330
100
AcDbEntity
  8
6_ALL_SURFS
100
AcDbLine
 62
7
  6
CONTINUOUS
 10
1125.0821741935
 20
179.970796316
 11
281.0821741935
 21
179.970796316
  0
LINE
  5
331
100
AcDbEntity
  8
6_ALL_SURFS
100
AcDbLine
 62
9
  6
CONTINUOUS
 10
281.0821741935
 20
180.270796316
 11
1125.0821741935
 21
180.270796316
  0
LINE
  5
332
100
AcDbEntity
  8
7_ALL_FEATURES
100
AcDbLine
 62
9
  6
CONTINUOUS
 10
1126.5821741935
 20
180.7207963161
 11
1125.0821741935
 21
180.7207963161
  0
LINE
  5
333
100
AcDbEntity
  8
7_ALL_FEATURES
100
AcDbLine
 62
9
  6
CONTINUOUS
 10
279.5821741935
 20
180.7207963161
 11
281.0821741935
 21
180.7207963161
  0
LINE
  5
334
100
AcDbEntity
  8
7_ALL_FEATURES
100
AcDbLine
 62
7
  6
CONTINUOUS
 10
1126.5821741935
 20
181.4707963161
 11
1125.0821741935
 21
181.4707963161
  0
LINE
  5
335
100
AcDbEntity
  8
7_ALL_FEATURES
100
AcDbLine
 62
7
  6
CONTINUOUS
 10
279.5821741935
 20
181.4707963161
 11
281.0821741935
 21
181.4707963161
  0
LINE
  5
336
100
AcDbEntity
  8
7_ALL_FEATURES
100
AcDbLine
 62
9
  6
CONTINUOUS
 10
281.0821741935
 20
182.9707963161
 11
279.5821741935
 21
182.9707963161
  0
LINE
  5
337
100
AcDbEntity
  8
7_ALL_FEATURES
100
AcDbLine
 62
9
  6
CONTINUOUS
 10
1125.0821741935
 20
182.9707963161
 11
1126.5821741935
 21
182.9707963161
  0
LINE
  5
338
100
AcDbEntity
  8
7_ALL_FEATURES
100
AcDbLine
 62
9
  6
CONTINUOUS
 10
1126.5821741935
 20
215.2906879368
 11
1125.0821741935
 21
215.2906879368
  0
LINE
  5
339
100
AcDbEntity
  8
7_ALL_FEATURES
100
AcDbLine
 62
9
  6
CONTINUOUS
 10
279.5821741935
 20
215.2955253247
 11
281.0821741935
 21
215.2955253247
  0
LINE
  5
33A
100
AcDbEntity
  8
6_ALL_SURFS
100
AcDbLine
 62
9
  6
CONTINUOUS
 10
1125.0821741935
 20
215.4931817006
 11
281.0821741935
 21
215.4931817006
  0
LINE
  5
33B
100
AcDbEntity
  8
7_ALL_FEATURES
100
AcDbLine
 62
9
  6
CONTINUOUS
 10
279.5821741935
 20
215.5771632288
 11
281.0821741935
 21
215.5771632288
  0
LINE
  5
33C
100
AcDbEntity
  8
7_ALL_FEATURES
100
AcDbLine
 62
9
  6
CONTINUOUS
 10
1126.5821741935
 20
215.5817353534
 11
1125.0821741935
 21
215.5817353534
  0
LINE
  5
33D
100
AcDbEntity
  8
6_ALL_SURFS
100
AcDbLine
 62
9
  6
CONTINUOUS
 10
1125.0821741935
 20
216.4478899024
 11
281.0821741935
 21
216.4478899024
  0
LINE
  5
33E
100
AcDbEntity
  8
6_ALL_SURFS
100
AcDbLine
 62
9
  6
CONTINUOUS
 10
1125.0821741935
 20
234.4572087765
 11
281.0821741935
 21
234.4572087765
  0
LINE
  5
33F
100
AcDbEntity
  8
3_ALL_AXES
100
AcDbLine
 62
7
  6
CONTINUOUS
 10
278.4828945232
 20
235.0707963161
 11
278.3321741935
 21
235.0707963161
  0
LINE
  5
340
100
AcDbEntity
  8
3_ALL_AXES
100
AcDbLine
 62
7
  6
CONTINUOUS
 10
1127.6814538639
 20
235.0707963161
 11
1127.8321741935
 21
235.0707963161
  0
LINE
  5
341
100
AcDbEntity
  8
6_ALL_SURFS
100
AcDbLine
 62
7
  6
CONTINUOUS
 10
1125.0821741935
 20
235.670796316
 11
281.0821741935
 21
235.670796316
  0
LINE
  5
342
100
AcDbEntity
  8
6_ALL_SURFS
100
AcDbLine
 62
9
  6
CONTINUOUS
 10
281.0821741935
 20
236.420796316
 11
1125.0821741935
 21
236.420796316
  0
LINE
  5
343
100
AcDbEntity
  8
6_ALL_SURFS
100
AcDbLine
 62
9
  6
CONTINUOUS
 10
281.0821741935
 20
239.3111188966
 11
1125.0821741935
 21
239.3111188966
  0
LINE
  5
344
100
AcDbEntity
  8
6_ALL_SURFS
100
AcDbLine
 62
7
  6
CONTINUOUS
 10
1125.0821741935
 20
239.770796316
 11
281.0821741935
 21
239.770796316
  0
LINE
  5
345
100
AcDbEntity
  8
6_ALL_SURFS
100
AcDbLine
 62
9
  6
CONTINUOUS
 10
1125.0821741935
 20
240.070796316
 11
281.0821741935
 21
240.070796316
  0
LINE
  5
346
100
AcDbEntity
  8
7_ALL_FEATURES
100
AcDbLine
 62
9
  6
CONTINUOUS
 10
279.5821741935
 20
240.4616152681
 11
281.0821741935
 21
240.4616152681
  0
LINE
  5
347
100
AcDbEntity
  8
7_ALL_FEATURES
100
AcDbLine
 62
9
  6
CONTINUOUS
 10
1126.5821741935
 20
240.4663200244
 11
1125.0821741935
 21
240.4663200244
  0
LINE
  5
348
100
AcDbEntity
  8
3_ALL_AXES
100
AcDbLine
 62
7
  6
CONTINUOUS
 10
278.4828945232
 20
240.5707963161
 11
278.3321741935
 21
240.5707963161
  0
LINE
  5
349
100
AcDbEntity
  8
3_ALL_AXES
100
AcDbLine
 62
7
  6
CONTINUOUS
 10
1127.6814538639
 20
240.5707963161
 11
1127.8321741935
 21
240.5707963161
  0
LINE
  5
34A
100
AcDbEntity
  8
6_ALL_SURFS
100
AcDbLine
 62
9
  6
CONTINUOUS
 10
1125.0821741935
 20
240.770796316
 11
281.0821741935
 21
240.770796316
  0
LINE
  5
34B
100
AcDbEntity
  8
7_ALL_FEATURES
100
AcDbLine
 62
7
  6
CONTINUOUS
 10
1126.5821741935
 20
241.0707963161
 11
1125.0821741935
 21
241.0707963161
  0
LINE
  5
34C
100
AcDbEntity
  8
6_ALL_SURFS
100
AcDbLine
 62
7
  6
CONTINUOUS
 10
1125.0821741935
 20
241.070796316
 11
281.0821741935
 21
241.070796316
  0
LINE
  5
34D
100
AcDbEntity
  8
7_ALL_FEATURES
100
AcDbLine
 62
7
  6
CONTINUOUS
 10
279.5821741935
 20
241.0707963161
 11
281.0821741935
 21
241.0707963161
  0
LINE
  5
34E
100
AcDbEntity
  8
3_ALL_AXES
100
AcDbLine
 62
7
  6
CONTINUOUS
 10
1126.5821741935
 20
239.6483911501
 11
1127.6814538639
 21
240.5707963161
  0
LINE
  5
34F
100
AcDbEntity
  8
3_ALL_AXES
100
AcDbLine
 62
7
  6
CONTINUOUS
 10
1126.5821741935
 20
175.243201482
 11
1127.6814538639
 21
174.3207963161
  0
LINE
  5
350
100
AcDbEntity
  8
3_ALL_AXES
100
AcDbLine
 62
7
  6
CONTINUOUS
 10
1126.5821741935
 20
178.8983911501
 11
1127.6814538639
 21
179.8207963161
  0
LINE
  5
351
100
AcDbEntity
  8
3_ALL_AXES
100
AcDbLine
 62
7
  6
CONTINUOUS
 10
1126.5821741935
 20
235.993201482
 11
1127.6814538639
 21
235.0707963161
  0
LINE
  5
352
100
AcDbEntity
  8
7_ALL_FEATURES
100
AcDbLine
 62
7
  6
CONTINUOUS
 10
1125.0821741935
 20
240.2112867757
 11
1125.0821741935
 21
235.090813973
  0
LINE
  5
353
100
AcDbEntity
  8
7_ALL_FEATURES
100
AcDbLine
 62
7
  6
CONTINUOUS
 10
1125.0821741935
 20
165.1299382752
 11
1125.0821741935
 21
166.570796316
  0
LINE
  5
354
100
AcDbEntity
  8
6_ALL_SURFS
100
AcDbLine
 62
7
  6
CONTINUOUS
 10
1125.0821741935
 20
165.070796316
 11
1125.0821741935
 21
165.1299382752
  0
LINE
  5
355
100
AcDbEntity
  8
6_ALL_SURFS
100
AcDbLine
 62
7
  6
CONTINUOUS
 10
1125.0821741935
 20
166.570796316
 11
1125.0821741935
 21
167.720796316
  0
LINE
  5
356
100
AcDbEntity
  8
6_ALL_SURFS
100
AcDbLine
 62
7
  6
CONTINUOUS
 10
1125.0821741935
 20
175.670796316
 11
1125.0821741935
 21
178.470796316
  0
LINE
  5
357
100
AcDbEntity
  8
7_ALL_FEATURES
100
AcDbLine
 62
7
  6
CONTINUOUS
 10
1125.0821741935
 20
167.720796316
 11
1125.0821741935
 21
215.2906879368
  0
LINE
  5
358
100
AcDbEntity
  8
6_ALL_SURFS
100
AcDbLine
 62
7
  6
CONTINUOUS
 10
1125.0821741935
 20
182.9707963161
 11
1125.0821741935
 21
235.090813973
  0
LINE
  5
359
100
AcDbEntity
  8
6_ALL_SURFS
100
AcDbLine
 62
7
  6
CONTINUOUS
 10
1125.0821741935
 20
240.070796316
 11
1125.0821741935
 21
241.070796316
  0
LINE
  5
35A
100
AcDbEntity
  8
7_ALL_FEATURES
100
AcDbLine
 62
7
  6
CONTINUOUS
 10
1126.5821741935
 20
241.0707963161
 11
1126.5821741935
 21
165.0707963161
  0
LINE
  5
35B
100
AcDbEntity
  8
3_ALL_AXES
100
AcDbLine
 62
7
  6
CONTINUOUS
 10
1127.6814538639
 20
174.3207963161
 11
1127.6814538639
 21
179.8207963161
  0
LINE
  5
35C
100
AcDbEntity
  8
3_ALL_AXES
100
AcDbLine
 62
7
  6
CONTINUOUS
 10
1127.6814538639
 20
235.0707963161
 11
1127.6814538639
 21
240.5707963161
  0
LINE
  5
35D
100
AcDbEntity
  8
3_ALL_AXES
100
AcDbLine
 62
7
  6
CONTINUOUS
 10
1127.8321741935
 20
174.3208443822
 11
1127.8321741935
 21
179.8207482499
  0
LINE
  5
35E
100
AcDbEntity
  8
3_ALL_AXES
100
AcDbLine
 62
7
  6
CONTINUOUS
 10
1127.8321741935
 20
235.0708443822
 11
1127.8321741935
 21
240.5707482499
  0
LINE
  5
35F
100
AcDbEntity
  8
3_ALL_AXES
100
AcDbLine
 62
7
  6
CONTINUOUS
 10
278.3321741935
 20
437.3928225257
 11
278.3321741935
 21
431.8928225257
  0
LINE
  5
360
100
AcDbEntity
  8
3_ALL_AXES
100
AcDbLine
 62
7
  6
CONTINUOUS
 10
278.3321741935
 20
428.2428225257
 11
278.3321741935
 21
422.7428225257
  0
LINE
  5
361
100
AcDbEntity
  8
3_ALL_AXES
100
AcDbLine
 62
7
  6
CONTINUOUS
 10
278.3321741935
 20
382.3428225257
 11
278.3321741935
 21
376.8428225257
  0
LINE
  5
362
100
AcDbEntity
  8
3_ALL_AXES
100
AcDbLine
 62
7
  6
CONTINUOUS
 10
278.3321741935
 20
373.1928225257
 11
278.3321741935
 21
367.6928225257
  0
LINE
  5
363
100
AcDbEntity
  8
3_ALL_AXES
100
AcDbLine
 62
7
  6
CONTINUOUS
 10
278.4828945232
 20
437.3928225257
 11
278.4828945232
 21
431.8928225257
  0
LINE
  5
364
100
AcDbEntity
  8
3_ALL_AXES
100
AcDbLine
 62
7
  6
CONTINUOUS
 10
278.4828945232
 20
428.2428225257
 11
278.4828945232
 21
422.7428225257
  0
LINE
  5
365
100
AcDbEntity
  8
3_ALL_AXES
100
AcDbLine
 62
7
  6
CONTINUOUS
 10
278.4828945232
 20
382.3428225257
 11
278.4828945232
 21
376.8428225257
  0
LINE
  5
366
100
AcDbEntity
  8
3_ALL_AXES
100
AcDbLine
 62
7
  6
CONTINUOUS
 10
278.4828945232
 20
373.1928225257
 11
278.4828945232
 21
367.6928225257
  0
LINE
  5
367
100
AcDbEntity
  8
7_ALL_FEATURES
100
AcDbLine
 62
7
  6
CONTINUOUS
 10
279.5821741935
 20
367.4928225257
 11
279.5821741935
 21
437.5928225257
  0
LINE
  5
368
100
AcDbEntity
  8
7_ALL_FEATURES
100
AcDbLine
 62
7
  6
CONTINUOUS
 10
281.0821741935
 20
437.5928225257
 11
281.0821741935
 21
437.1330287418
  0
LINE
  5
369
100
AcDbEntity
  8
3_ALL_AXES
100
AcDbLine
 62
7
  6
CONTINUOUS
 10
281.0821741935
 20
365.3928225257
 11
281.0821741935
 21
350.0928225257
  0
LINE
  5
36A
100
AcDbEntity
  8
7_ALL_FEATURES
100
AcDbLine
 62
7
  6
CONTINUOUS
 10
281.0821741935
 20
347.5928314949
 11
281.0821741935
 21
350.0928225257
  0
LINE
  5
36B
100
AcDbEntity
  8
7_ALL_FEATURES
100
AcDbLine
 62
7
  6
CONTINUOUS
 10
281.0821741935
 20
365.3928225257
 11
281.0821741935
 21
436.9212188731
  0
LINE
  5
36C
100
AcDbEntity
  8
6_ALL_SURFS
100
AcDbLine
 62
7
  6
CONTINUOUS
 10
281.0821741935
 20
436.1928225257
 11
281.0821741935
 21
437.1330287418
  0
LINE
  5
36D
100
AcDbEntity
  8
6_ALL_SURFS
100
AcDbLine
 62
7
  6
CONTINUOUS
 10
281.0821741935
 20
437.5928225257
 11
281.0821741935
 21
457.4928135565
  0
LINE
  5
36E
100
AcDbEntity
  8
7_ALL_FEATURES
100
AcDbLine
 62
7
  6
CONTINUOUS
 10
281.5821741935
 20
369.2428225257
 11
281.5821741935
 21
435.8428225257
  0
LINE
  5
36F
100
AcDbEntity
  8
3_ALL_AXES
100
AcDbLine
 62
7
  6
CONTINUOUS
 10
278.4828945232
 20
431.8928225257
 11
279.5821741935
 21
432.8152276917
  0
LINE
  5
370
100
AcDbEntity
  8
3_ALL_AXES
100
AcDbLine
 62
7
  6
CONTINUOUS
 10
278.4828945232
 20
422.7428225257
 11
279.5821741935
 21
423.6652276917
  0
LINE
  5
371
100
AcDbEntity
  8
3_ALL_AXES
100
AcDbLine
 62
7
  6
CONTINUOUS
 10
278.4828945232
 20
373.1928225257
 11
279.5821741935
 21
372.2704173597
  0
LINE
  5
372
100
AcDbEntity
  8
3_ALL_AXES
100
AcDbLine
 62
7
  6
CONTINUOUS
 10
278.4828945232
 20
382.3428225257
 11
279.5821741935
 21
381.4204173597
  0
LINE
  5
373
100
AcDbEntity
  8
3_ALL_AXES
100
AcDbLine
 62
7
  6
CONTINUOUS
 10
278.4828945232
 20
376.8428225257
 11
279.5821741935
 21
377.7652276917
  0
LINE
  5
374
100
AcDbEntity
  8
3_ALL_AXES
100
AcDbLine
 62
7
  6
CONTINUOUS
 10
278.4828945232
 20
428.2428225257
 11
279.5821741935
 21
427.3204173597
  0
LINE
  5
375
100
AcDbEntity
  8
3_ALL_AXES
100
AcDbLine
 62
7
  6
CONTINUOUS
 10
278.4828945232
 20
367.6928225257
 11
279.5821741935
 21
368.6152276917
  0
LINE
  5
376
100
AcDbEntity
  8
3_ALL_AXES
100
AcDbLine
 62
7
  6
CONTINUOUS
 10
278.4828945232
 20
437.3928225257
 11
279.5821741935
 21
436.4704173597
  0
LINE
  5
377
100
AcDbEntity
  8
7_ALL_FEATURES
100
AcDbLine
 62
7
  6
CONTINUOUS
 10
281.0821741935
 20
347.5928225257
 11
1125.0821741935
 21
347.5928225257
  0
LINE
  5
378
100
AcDbEntity
  8
7_ALL_FEATURES
100
AcDbLine
 62
9
  6
CONTINUOUS
 10
281.0821741935
 20
347.9473509353
 11
1125.0821741935
 21
347.9473509353
  0
LINE
  5
379
100
AcDbEntity
  8
7_ALL_FEATURES
100
AcDbLine
 62
7
  6
CONTINUOUS
 10
281.0821741935
 20
350.0928225257
 11
324.7987663998
 21
350.0928225257
  0
LINE
  5
37A
100
AcDbEntity
  8
7_ALL_FEATURES
100
AcDbLine
 62
7
  6
CONTINUOUS
 10
331.3655819872
 20
350.0928225257
 11
574.7987663998
 21
350.0928225257
  0
LINE
  5
37B
100
AcDbEntity
  8
7_ALL_FEATURES
100
AcDbLine
 62
7
  6
CONTINUOUS
 10
581.3655819872
 20
350.0928225257
 11
824.7987663998
 21
350.0928225257
  0
LINE
  5
37C
100
AcDbEntity
  8
7_ALL_FEATURES
100
AcDbLine
 62
7
  6
CONTINUOUS
 10
831.3655819872
 20
350.0928225257
 11
1074.7987663998
 21
350.0928225257
  0
LINE
  5
37D
100
AcDbEntity
  8
7_ALL_FEATURES
100
AcDbLine
 62
7
  6
CONTINUOUS
 10
1081.3655819872
 20
350.0928225257
 11
1125.0821741935
 21
350.0928225257
  0
LINE
  5
37E
100
AcDbEntity
  8
7_ALL_FEATURES
100
AcDbLine
 62
7
  6
CONTINUOUS
 10
281.0821741935
 20
352.7928225257
 11
323.3502859088
 21
352.7928225257
  0
LINE
  5
37F
100
AcDbEntity
  8
7_ALL_FEATURES
100
AcDbLine
 62
7
  6
CONTINUOUS
 10
332.8140624783
 20
352.7928225257
 11
573.3502859088
 21
352.7928225257
  0
LINE
  5
380
100
AcDbEntity
  8
7_ALL_FEATURES
100
AcDbLine
 62
7
  6
CONTINUOUS
 10
582.8140624783
 20
352.7928225257
 11
823.3502859088
 21
352.7928225257
  0
LINE
  5
381
100
AcDbEntity
  8
7_ALL_FEATURES
100
AcDbLine
 62
7
  6
CONTINUOUS
 10
832.8140624783
 20
352.7928225257
 11
1073.3502859088
 21
352.7928225257
  0
LINE
  5
382
100
AcDbEntity
  8
7_ALL_FEATURES
100
AcDbLine
 62
7
  6
CONTINUOUS
 10
1082.8140624783
 20
352.7928225257
 11
1125.0821741935
 21
352.7928225257
  0
LINE
  5
383
100
AcDbEntity
  8
7_ALL_FEATURES
100
AcDbLine
 62
7
  6
CONTINUOUS
 10
281.0821741935
 20
353.3928225257
 11
323.2873054008
 21
353.3928225257
  0
LINE
  5
384
100
AcDbEntity
  8
7_ALL_FEATURES
100
AcDbLine
 62
7
  6
CONTINUOUS
 10
332.8770429863
 20
353.3928225257
 11
573.2873054008
 21
353.3928225257
  0
LINE
  5
385
100
AcDbEntity
  8
7_ALL_FEATURES
100
AcDbLine
 62
7
  6
CONTINUOUS
 10
582.8770429863
 20
353.3928225257
 11
823.2873054008
 21
353.3928225257
  0
LINE
  5
386
100
AcDbEntity
  8
7_ALL_FEATURES
100
AcDbLine
 62
7
  6
CONTINUOUS
 10
832.8770429863
 20
353.3928225257
 11
1073.2873054008
 21
353.3928225257
  0
LINE
  5
387
100
AcDbEntity
  8
7_ALL_FEATURES
100
AcDbLine
 62
7
  6
CONTINUOUS
 10
1082.8770429863
 20
353.3928225257
 11
1125.0821741935
 21
353.3928225257
  0
LINE
  5
388
100
AcDbEntity
  8
7_ALL_FEATURES
100
AcDbLine
 62
7
  6
CONTINUOUS
 10
281.0821741935
 20
355.7928225257
 11
323.8171106841
 21
355.7928225257
  0
LINE
  5
389
100
AcDbEntity
  8
7_ALL_FEATURES
100
AcDbLine
 62
7
  6
CONTINUOUS
 10
332.347237703
 20
355.7928225257
 11
573.8171106841
 21
355.7928225257
  0
LINE
  5
38A
100
AcDbEntity
  8
7_ALL_FEATURES
100
AcDbLine
 62
7
  6
CONTINUOUS
 10
582.347237703
 20
355.7928225257
 11
823.8171106841
 21
355.7928225257
  0
LINE
  5
38B
100
AcDbEntity
  8
7_ALL_FEATURES
100
AcDbLine
 62
7
  6
CONTINUOUS
 10
832.347237703
 20
355.7928225257
 11
1073.8171106841
 21
355.7928225257
  0
LINE
  5
38C
100
AcDbEntity
  8
7_ALL_FEATURES
100
AcDbLine
 62
7
  6
CONTINUOUS
 10
1082.347237703
 20
355.7928225257
 11
1125.0821741935
 21
355.7928225257
  0
LINE
  5
38D
100
AcDbEntity
  8
7_ALL_FEATURES
100
AcDbLine
 62
7
  6
CONTINUOUS
 10
281.0821741935
 20
356.3928225257
 11
324.1846407761
 21
356.3928225257
  0
LINE
  5
38E
100
AcDbEntity
  8
7_ALL_FEATURES
100
AcDbLine
 62
7
  6
CONTINUOUS
 10
331.9797076109
 20
356.3928225257
 11
574.1846407761
 21
356.3928225257
  0
LINE
  5
38F
100
AcDbEntity
  8
7_ALL_FEATURES
100
AcDbLine
 62
7
  6
CONTINUOUS
 10
581.9797076109
 20
356.3928225257
 11
824.1846407761
 21
356.3928225257
  0
LINE
  5
390
100
AcDbEntity
  8
7_ALL_FEATURES
100
AcDbLine
 62
7
  6
CONTINUOUS
 10
831.9797076109
 20
356.3928225257
 11
1074.1846407761
 21
356.3928225257
  0
LINE
  5
391
100
AcDbEntity
  8
7_ALL_FEATURES
100
AcDbLine
 62
7
  6
CONTINUOUS
 10
1081.9797076109
 20
356.3928225257
 11
1125.0821741935
 21
356.3928225257
  0
LINE
  5
392
100
AcDbEntity
  8
3_ALL_AXES
100
AcDbLine
 62
7
  6
CONTINUOUS
 10
281.0821741935
 20
358.7928225257
 11
1125.0821741935
 21
358.7928225257
  0
LINE
  5
393
100
AcDbEntity
  8
3_ALL_AXES
100
AcDbLine
 62
7
  6
CONTINUOUS
 10
281.0821741935
 20
359.3928225257
 11
1125.0821741935
 21
359.3928225257
  0
LINE
  5
394
100
AcDbEntity
  8
3_ALL_AXES
100
AcDbLine
 62
7
  6
CONTINUOUS
 10
281.0821741935
 20
361.7928225257
 11
1125.0821741935
 21
361.7928225257
  0
LINE
  5
395
100
AcDbEntity
  8
3_ALL_AXES
100
AcDbLine
 62
7
  6
CONTINUOUS
 10
281.0821741935
 20
362.3928225257
 11
1125.0821741935
 21
362.3928225257
  0
LINE
  5
396
100
AcDbEntity
  8
3_ALL_AXES
100
AcDbLine
 62
7
  6
CONTINUOUS
 10
281.0821741935
 20
364.7928225257
 11
1125.0821741935
 21
364.7928225257
  0
LINE
  5
397
100
AcDbEntity
  8
3_ALL_AXES
100
AcDbLine
 62
7
  6
CONTINUOUS
 10
281.0821741935
 20
365.3928225257
 11
1125.0821741935
 21
365.3928225257
  0
LINE
  5
398
100
AcDbEntity
  8
7_ALL_FEATURES
100
AcDbLine
 62
7
  6
CONTINUOUS
 10
1126.5821741935
 20
367.4928225257
 11
1125.0821741935
 21
367.4928225257
  0
LINE
  5
399
100
AcDbEntity
  8
7_ALL_FEATURES
100
AcDbLine
 62
7
  6
CONTINUOUS
 10
279.5821741935
 20
367.4928225257
 11
281.0821741935
 21
367.4928225257
  0
LINE
  5
39A
100
AcDbEntity
  8
3_ALL_AXES
100
AcDbLine
 62
7
  6
CONTINUOUS
 10
1127.8321741935
 20
367.6928225257
 11
1127.6814538639
 21
367.6928225257
  0
LINE
  5
39B
100
AcDbEntity
  8
3_ALL_AXES
100
AcDbLine
 62
7
  6
CONTINUOUS
 10
278.3321741935
 20
367.6928225257
 11
278.4828945232
 21
367.6928225257
  0
LINE
  5
39C
100
AcDbEntity
  8
7_ALL_FEATURES
100
AcDbLine
 62
9
  6
CONTINUOUS
 10
281.0821741935
 20
367.6928225257
 11
1125.0821741935
 21
367.6928225257
  0
LINE
  5
39D
100
AcDbEntity
  8
7_ALL_FEATURES
100
AcDbLine
 62
7
  6
CONTINUOUS
 10
1125.0821741935
 20
367.8928225257
 11
281.0821741935
 21
367.8928225257
  0
LINE
  5
39E
100
AcDbEntity
  8
7_ALL_FEATURES
100
AcDbLine
 62
9
  6
CONTINUOUS
 10
1125.0821741935
 20
368.0928225257
 11
281.0821741935
 21
368.0928225257
  0
LINE
  5
39F
100
AcDbEntity
  8
7_ALL_FEATURES
100
AcDbLine
 62
9
  6
CONTINUOUS
 10
1126.5821741935
 20
368.2428225257
 11
1125.0821741935
 21
368.2428225257
  0
LINE
  5
3A0
100
AcDbEntity
  8
7_ALL_FEATURES
100
AcDbLine
 62
9
  6
CONTINUOUS
 10
279.5821741935
 20
368.2428225257
 11
281.0821741935
 21
368.2428225257
  0
LINE
  5
3A1
100
AcDbEntity
  8
7_ALL_FEATURES
100
AcDbLine
 62
9
  6
CONTINUOUS
 10
1125.0821741935
 20
368.8928225257
 11
281.0821741935
 21
368.8928225257
  0
LINE
  5
3A2
100
AcDbEntity
  8
7_ALL_FEATURES
100
AcDbLine
 62
7
  6
CONTINUOUS
 10
1125.0821741935
 20
369.0928225257
 11
281.0821741935
 21
369.0928225257
  0
LINE
  5
3A3
100
AcDbEntity
  8
7_ALL_FEATURES
100
AcDbLine
 62
7
  6
CONTINUOUS
 10
1124.5821741935
 20
369.2428225257
 11
281.5821741935
 21
369.2428225257
  0
LINE
  5
3A4
100
AcDbEntity
  8
7_ALL_FEATURES
100
AcDbLine
 62
9
  6
CONTINUOUS
 10
281.0821741935
 20
369.2928225257
 11
281.5821741935
 21
369.2928225257
  0
LINE
  5
3A5
100
AcDbEntity
  8
7_ALL_FEATURES
100
AcDbLine
 62
9
  6
CONTINUOUS
 10
1124.5821741935
 20
369.2928225257
 11
1125.0821741935
 21
369.2928225257
  0
LINE
  5
3A6
100
AcDbEntity
  8
7_ALL_FEATURES
100
AcDbLine
 62
9
  6
CONTINUOUS
 10
1124.5821741935
 20
369.4428225257
 11
281.5821741935
 21
369.4428225257
  0
LINE
  5
3A7
100
AcDbEntity
  8
7_ALL_FEATURES
100
AcDbLine
 62
9
  6
CONTINUOUS
 10
1125.0821741935
 20
370.1428225257
 11
1124.5821741935
 21
370.1428225257
  0
LINE
  5
3A8
100
AcDbEntity
  8
7_ALL_FEATURES
100
AcDbLine
 62
9
  6
CONTINUOUS
 10
281.5821741935
 20
370.1428225257
 11
281.0821741935
 21
370.1428225257
  0
LINE
  5
3A9
100
AcDbEntity
  8
7_ALL_FEATURES
100
AcDbLine
 62
7
  6
CONTINUOUS
 10
1125.0821741935
 20
370.3428225257
 11
1124.5821741935
 21
370.3428225257
  0
LINE
  5
3AA
100
AcDbEntity
  8
7_ALL_FEATURES
100
AcDbLine
 62
7
  6
CONTINUOUS
 10
281.5821741935
 20
370.3428225257
 11
281.0821741935
 21
370.3428225257
  0
LINE
  5
3AB
100
AcDbEntity
  8
7_ALL_FEATURES
100
AcDbLine
 62
9
  6
CONTINUOUS
 10
281.0821741935
 20
370.4026327569
 11
281.5821741935
 21
370.4026327569
  0
LINE
  5
3AC
100
AcDbEntity
  8
7_ALL_FEATURES
100
AcDbLine
 62
9
  6
CONTINUOUS
 10
1124.5821741935
 20
370.4026327569
 11
1125.0821741935
 21
370.4026327569
  0
LINE
  5
3AD
100
AcDbEntity
  8
7_ALL_FEATURES
100
AcDbLine
 62
9
  6
CONTINUOUS
 10
281.0821741935
 20
370.6220388674
 11
281.5821741935
 21
370.6220388674
  0
LINE
  5
3AE
100
AcDbEntity
  8
7_ALL_FEATURES
100
AcDbLine
 62
9
  6
CONTINUOUS
 10
1124.5821741935
 20
370.6220388674
 11
1125.0821741935
 21
370.6220388674
  0
LINE
  5
3AF
100
AcDbEntity
  8
7_ALL_FEATURES
100
AcDbLine
 62
9
  6
CONTINUOUS
 10
1125.0821741935
 20
371.6928225257
 11
1124.5821741935
 21
371.6928225257
  0
LINE
  5
3B0
100
AcDbEntity
  8
7_ALL_FEATURES
100
AcDbLine
 62
9
  6
CONTINUOUS
 10
281.5821741935
 20
371.6928225257
 11
281.0821741935
 21
371.6928225257
  0
LINE
  5
3B1
100
AcDbEntity
  8
7_ALL_FEATURES
100
AcDbLine
 62
7
  6
CONTINUOUS
 10
1125.0821741935
 20
371.9928225257
 11
1124.5821741935
 21
371.9928225257
  0
LINE
  5
3B2
100
AcDbEntity
  8
7_ALL_FEATURES
100
AcDbLine
 62
7
  6
CONTINUOUS
 10
281.5821741935
 20
371.9928225257
 11
281.0821741935
 21
371.9928225257
  0
LINE
  5
3B3
100
AcDbEntity
  8
7_ALL_FEATURES
100
AcDbLine
 62
9
  6
CONTINUOUS
 10
281.0821741935
 20
372.0109147395
 11
281.5821741935
 21
372.0109147395
  0
LINE
  5
3B4
100
AcDbEntity
  8
7_ALL_FEATURES
100
AcDbLine
 62
9
  6
CONTINUOUS
 10
1124.5821741935
 20
372.0109147395
 11
1125.0821741935
 21
372.0109147395
  0
LINE
  5
3B5
100
AcDbEntity
  8
7_ALL_FEATURES
100
AcDbLine
 62
9
  6
CONTINUOUS
 10
1125.0821741935
 20
372.6402164827
 11
1124.5821741935
 21
372.6402164827
  0
LINE
  5
3B6
100
AcDbEntity
  8
7_ALL_FEATURES
100
AcDbLine
 62
9
  6
CONTINUOUS
 10
281.5821741935
 20
372.6402164827
 11
281.0821741935
 21
372.6402164827
  0
LINE
  5
3B7
100
AcDbEntity
  8
7_ALL_FEATURES
100
AcDbLine
 62
7
  6
CONTINUOUS
 10
1125.0821741935
 20
372.6583086965
 11
1124.5821741935
 21
372.6583086965
  0
LINE
  5
3B8
100
AcDbEntity
  8
7_ALL_FEATURES
100
AcDbLine
 62
7
  6
CONTINUOUS
 10
281.5821741935
 20
372.6583086965
 11
281.0821741935
 21
372.6583086965
  0
LINE
  5
3B9
100
AcDbEntity
  8
3_ALL_AXES
100
AcDbLine
 62
7
  6
CONTINUOUS
 10
1127.8321741935
 20
373.1928225257
 11
1127.6814538639
 21
373.1928225257
  0
LINE
  5
3BA
100
AcDbEntity
  8
3_ALL_AXES
100
AcDbLine
 62
7
  6
CONTINUOUS
 10
278.3321741935
 20
373.1928225257
 11
278.4828945232
 21
373.1928225257
  0
LINE
  5
3BB
100
AcDbEntity
  8
7_ALL_FEATURES
100
AcDbLine
 62
9
  6
CONTINUOUS
 10
281.0821741935
 20
375.4641771269
 11
281.5821741935
 21
375.4641771269
  0
LINE
  5
3BC
100
AcDbEntity
  8
7_ALL_FEATURES
100
AcDbLine
 62
9
  6
CONTINUOUS
 10
1124.5821741935
 20
375.4641771269
 11
1125.0821741935
 21
375.4641771269
  0
LINE
  5
3BD
100
AcDbEntity
  8
7_ALL_FEATURES
100
AcDbLine
 62
9
  6
CONTINUOUS
 10
281.0821741935
 20
375.9549907186
 11
281.5821741935
 21
375.9549907186
  0
LINE
  5
3BE
100
AcDbEntity
  8
7_ALL_FEATURES
100
AcDbLine
 62
9
  6
CONTINUOUS
 10
1124.5821741935
 20
375.9549907186
 11
1125.0821741935
 21
375.9549907186
  0
LINE
  5
3BF
100
AcDbEntity
  8
3_ALL_AXES
100
AcDbLine
 62
7
  6
CONTINUOUS
 10
1127.8321741935
 20
376.8428225257
 11
1127.6814538639
 21
376.8428225257
  0
LINE
  5
3C0
100
AcDbEntity
  8
3_ALL_AXES
100
AcDbLine
 62
7
  6
CONTINUOUS
 10
278.3321741935
 20
376.8428225257
 11
278.4828945232
 21
376.8428225257
  0
LINE
  5
3C1
100
AcDbEntity
  8
3_ALL_AXES
100
AcDbLine
 62
7
  6
CONTINUOUS
 10
1127.8321741935
 20
382.3428225257
 11
1127.6814538639
 21
382.3428225257
  0
LINE
  5
3C2
100
AcDbEntity
  8
3_ALL_AXES
100
AcDbLine
 62
7
  6
CONTINUOUS
 10
278.3321741935
 20
382.3428225257
 11
278.4828945232
 21
382.3428225257
  0
LINE
  5
3C3
100
AcDbEntity
  8
7_ALL_FEATURES
100
AcDbLine
 62
9
  6
CONTINUOUS
 10
1125.0821741935
 20
400.5428225257
 11
1124.5821741935
 21
400.5428225257
  0
LINE
  5
3C4
100
AcDbEntity
  8
7_ALL_FEATURES
100
AcDbLine
 62
9
  6
CONTINUOUS
 10
281.5821741935
 20
400.5428225257
 11
281.0821741935
 21
400.5428225257
  0
LINE
  5
3C5
100
AcDbEntity
  8
7_ALL_FEATURES
100
AcDbLine
 62
7
  6
CONTINUOUS
 10
1125.0821741935
 20
400.8428225257
 11
1124.5821741935
 21
400.8428225257
  0
LINE
  5
3C6
100
AcDbEntity
  8
7_ALL_FEATURES
100
AcDbLine
 62
7
  6
CONTINUOUS
 10
281.5821741935
 20
400.8428225257
 11
281.0821741935
 21
400.8428225257
  0
LINE
  5
3C7
100
AcDbEntity
  8
7_ALL_FEATURES
100
AcDbLine
 62
9
  6
CONTINUOUS
 10
281.0821741935
 20
401.1428225257
 11
281.5821741935
 21
401.1428225257
  0
LINE
  5
3C8
100
AcDbEntity
  8
7_ALL_FEATURES
100
AcDbLine
 62
9
  6
CONTINUOUS
 10
1124.5821741935
 20
401.1428225257
 11
1125.0821741935
 21
401.1428225257
  0
LINE
  5
3C9
100
AcDbEntity
  8
6_ALL_SURFS
100
AcDbLine
 62
9
  6
CONTINUOUS
 10
281.0821741935
 20
403.9428225257
 11
281.5821741935
 21
403.9428225257
  0
LINE
  5
3CA
100
AcDbEntity
  8
6_ALL_SURFS
100
AcDbLine
 62
9
  6
CONTINUOUS
 10
1124.5821741935
 20
403.9428225257
 11
1125.0821741935
 21
403.9428225257
  0
LINE
  5
3CB
100
AcDbEntity
  8
6_ALL_SURFS
100
AcDbLine
 62
7
  6
CONTINUOUS
 10
1125.0821741935
 20
404.2428225257
 11
1124.5821741935
 21
404.2428225257
  0
LINE
  5
3CC
100
AcDbEntity
  8
6_ALL_SURFS
100
AcDbLine
 62
7
  6
CONTINUOUS
 10
281.5821741935
 20
404.2428225257
 11
281.0821741935
 21
404.2428225257
  0
LINE
  5
3CD
100
AcDbEntity
  8
6_ALL_SURFS
100
AcDbLine
 62
9
  6
CONTINUOUS
 10
1125.0821741935
 20
404.5428225257
 11
1124.5821741935
 21
404.5428225257
  0
LINE
  5
3CE
100
AcDbEntity
  8
6_ALL_SURFS
100
AcDbLine
 62
9
  6
CONTINUOUS
 10
281.5821741935
 20
404.5428225257
 11
281.0821741935
 21
404.5428225257
  0
LINE
  5
3CF
100
AcDbEntity
  8
3_ALL_AXES
100
AcDbLine
 62
7
  6
CONTINUOUS
 10
1127.8321741935
 20
422.7428225257
 11
1127.6814538639
 21
422.7428225257
  0
LINE
  5
3D0
100
AcDbEntity
  8
3_ALL_AXES
100
AcDbLine
 62
7
  6
CONTINUOUS
 10
278.3321741935
 20
422.7428225257
 11
278.4828945232
 21
422.7428225257
  0
LINE
  5
3D1
100
AcDbEntity
  8
3_ALL_AXES
100
AcDbLine
 62
7
  6
CONTINUOUS
 10
1127.8321741935
 20
428.2428225257
 11
1127.6814538639
 21
428.2428225257
  0
LINE
  5
3D2
100
AcDbEntity
  8
3_ALL_AXES
100
AcDbLine
 62
7
  6
CONTINUOUS
 10
278.3321741935
 20
428.2428225257
 11
278.4828945232
 21
428.2428225257
  0
LINE
  5
3D3
100
AcDbEntity
  8
6_ALL_SURFS
100
AcDbLine
 62
9
  6
CONTINUOUS
 10
281.0821741935
 20
429.1306543328
 11
281.5821741935
 21
429.1306543328
  0
LINE
  5
3D4
100
AcDbEntity
  8
6_ALL_SURFS
100
AcDbLine
 62
9
  6
CONTINUOUS
 10
1124.5821741935
 20
429.1306543328
 11
1125.0821741935
 21
429.1306543328
  0
LINE
  5
3D5
100
AcDbEntity
  8
6_ALL_SURFS
100
AcDbLine
 62
9
  6
CONTINUOUS
 10
281.0821741935
 20
429.6214679245
 11
281.5821741935
 21
429.6214679245
  0
LINE
  5
3D6
100
AcDbEntity
  8
6_ALL_SURFS
100
AcDbLine
 62
9
  6
CONTINUOUS
 10
1124.5821741935
 20
429.6214679245
 11
1125.0821741935
 21
429.6214679245
  0
LINE
  5
3D7
100
AcDbEntity
  8
3_ALL_AXES
100
AcDbLine
 62
7
  6
CONTINUOUS
 10
1127.8321741935
 20
431.8928225257
 11
1127.6814538639
 21
431.8928225257
  0
LINE
  5
3D8
100
AcDbEntity
  8
3_ALL_AXES
100
AcDbLine
 62
7
  6
CONTINUOUS
 10
278.3321741935
 20
431.8928225257
 11
278.4828945232
 21
431.8928225257
  0
LINE
  5
3D9
100
AcDbEntity
  8
6_ALL_SURFS
100
AcDbLine
 62
7
  6
CONTINUOUS
 10
281.0821741935
 20
432.4273363549
 11
281.5821741935
 21
432.4273363549
  0
LINE
  5
3DA
100
AcDbEntity
  8
6_ALL_SURFS
100
AcDbLine
 62
7
  6
CONTINUOUS
 10
1124.5821741935
 20
432.4273363549
 11
1125.0821741935
 21
432.4273363549
  0
LINE
  5
3DB
100
AcDbEntity
  8
6_ALL_SURFS
100
AcDbLine
 62
9
  6
CONTINUOUS
 10
1125.0821741935
 20
432.4454285687
 11
1124.5821741935
 21
432.4454285687
  0
LINE
  5
3DC
100
AcDbEntity
  8
6_ALL_SURFS
100
AcDbLine
 62
9
  6
CONTINUOUS
 10
281.5821741935
 20
432.4454285687
 11
281.0821741935
 21
432.4454285687
  0
LINE
  5
3DD
100
AcDbEntity
  8
6_ALL_SURFS
100
AcDbLine
 62
9
  6
CONTINUOUS
 10
281.0821741935
 20
433.0747303119
 11
281.5821741935
 21
433.0747303119
  0
LINE
  5
3DE
100
AcDbEntity
  8
6_ALL_SURFS
100
AcDbLine
 62
9
  6
CONTINUOUS
 10
1124.5821741935
 20
433.0747303119
 11
1125.0821741935
 21
433.0747303119
  0
LINE
  5
3DF
100
AcDbEntity
  8
6_ALL_SURFS
100
AcDbLine
 62
7
  6
CONTINUOUS
 10
1125.0821741935
 20
433.0928225257
 11
1124.5821741935
 21
433.0928225257
  0
LINE
  5
3E0
100
AcDbEntity
  8
6_ALL_SURFS
100
AcDbLine
 62
7
  6
CONTINUOUS
 10
281.5821741935
 20
433.0928225257
 11
281.0821741935
 21
433.0928225257
  0
LINE
  5
3E1
100
AcDbEntity
  8
6_ALL_SURFS
100
AcDbLine
 62
9
  6
CONTINUOUS
 10
1125.0821741935
 20
433.3928225257
 11
1124.5821741935
 21
433.3928225257
  0
LINE
  5
3E2
100
AcDbEntity
  8
6_ALL_SURFS
100
AcDbLine
 62
9
  6
CONTINUOUS
 10
281.5821741935
 20
433.3928225257
 11
281.0821741935
 21
433.3928225257
  0
LINE
  5
3E3
100
AcDbEntity
  8
6_ALL_SURFS
100
AcDbLine
 62
9
  6
CONTINUOUS
 10
281.0821741935
 20
434.463606184
 11
281.5821741935
 21
434.463606184
  0
LINE
  5
3E4
100
AcDbEntity
  8
6_ALL_SURFS
100
AcDbLine
 62
9
  6
CONTINUOUS
 10
1124.5821741935
 20
434.463606184
 11
1125.0821741935
 21
434.463606184
  0
LINE
  5
3E5
100
AcDbEntity
  8
6_ALL_SURFS
100
AcDbLine
 62
9
  6
CONTINUOUS
 10
281.0821741935
 20
434.6830122945
 11
281.5821741935
 21
434.6830122945
  0
LINE
  5
3E6
100
AcDbEntity
  8
6_ALL_SURFS
100
AcDbLine
 62
9
  6
CONTINUOUS
 10
1124.5821741935
 20
434.6830122945
 11
1125.0821741935
 21
434.6830122945
  0
LINE
  5
3E7
100
AcDbEntity
  8
6_ALL_SURFS
100
AcDbLine
 62
7
  6
CONTINUOUS
 10
1125.0821741935
 20
434.7428225257
 11
1124.5821741935
 21
434.7428225257
  0
LINE
  5
3E8
100
AcDbEntity
  8
6_ALL_SURFS
100
AcDbLine
 62
7
  6
CONTINUOUS
 10
281.5821741935
 20
434.7428225257
 11
281.0821741935
 21
434.7428225257
  0
LINE
  5
3E9
100
AcDbEntity
  8
6_ALL_SURFS
100
AcDbLine
 62
9
  6
CONTINUOUS
 10
1125.0821741935
 20
434.9428225257
 11
1124.5821741935
 21
434.9428225257
  0
LINE
  5
3EA
100
AcDbEntity
  8
6_ALL_SURFS
100
AcDbLine
 62
9
  6
CONTINUOUS
 10
281.5821741935
 20
434.9428225257
 11
281.0821741935
 21
434.9428225257
  0
LINE
  5
3EB
100
AcDbEntity
  8
7_ALL_FEATURES
100
AcDbLine
 62
9
  6
CONTINUOUS
 10
1124.5821741935
 20
435.6428225257
 11
281.5821741935
 21
435.6428225257
  0
LINE
  5
3EC
100
AcDbEntity
  8
6_ALL_SURFS
100
AcDbLine
 62
9
  6
CONTINUOUS
 10
281.0821741935
 20
435.7928225257
 11
281.5821741935
 21
435.7928225257
  0
LINE
  5
3ED
100
AcDbEntity
  8
6_ALL_SURFS
100
AcDbLine
 62
9
  6
CONTINUOUS
 10
1124.5821741935
 20
435.7928225257
 11
1125.0821741935
 21
435.7928225257
  0
LINE
  5
3EE
100
AcDbEntity
  8
7_ALL_FEATURES
100
AcDbLine
 62
7
  6
CONTINUOUS
 10
1124.5821741935
 20
435.8428225257
 11
281.5821741935
 21
435.8428225257
  0
LINE
  5
3EF
100
AcDbEntity
  8
6_ALL_SURFS
100
AcDbLine
 62
7
  6
CONTINUOUS
 10
1125.0821741935
 20
435.9928225257
 11
281.0821741935
 21
435.9928225257
  0
LINE
  5
3F0
100
AcDbEntity
  8
6_ALL_SURFS
100
AcDbLine
 62
9
  6
CONTINUOUS
 10
1125.0821741935
 20
436.1928225257
 11
281.0821741935
 21
436.1928225257
  0
LINE
  5
3F1
100
AcDbEntity
  8
7_ALL_FEATURES
100
AcDbLine
 62
9
  6
CONTINUOUS
 10
1126.5821741935
 20
436.8428225257
 11
1125.0821741935
 21
436.8428225257
  0
LINE
  5
3F2
100
AcDbEntity
  8
7_ALL_FEATURES
100
AcDbLine
 62
9
  6
CONTINUOUS
 10
279.5821741935
 20
436.8428225257
 11
281.0821741935
 21
436.8428225257
  0
LINE
  5
3F3
100
AcDbEntity
  8
6_ALL_SURFS
100
AcDbLine
 62
9
  6
CONTINUOUS
 10
1125.0821741935
 20
436.9928225257
 11
281.0821741935
 21
436.9928225257
  0
LINE
  5
3F4
100
AcDbEntity
  8
6_ALL_SURFS
100
AcDbLine
 62
7
  6
CONTINUOUS
 10
1125.0821741935
 20
437.1928225257
 11
281.0821741935
 21
437.1928225257
  0
LINE
  5
3F5
100
AcDbEntity
  8
3_ALL_AXES
100
AcDbLine
 62
7
  6
CONTINUOUS
 10
1127.8321741935
 20
437.3928225257
 11
1127.6814538639
 21
437.3928225257
  0
LINE
  5
3F6
100
AcDbEntity
  8
3_ALL_AXES
100
AcDbLine
 62
7
  6
CONTINUOUS
 10
278.3321741935
 20
437.3928225257
 11
278.4828945232
 21
437.3928225257
  0
LINE
  5
3F7
100
AcDbEntity
  8
6_ALL_SURFS
100
AcDbLine
 62
9
  6
CONTINUOUS
 10
281.0821741935
 20
437.3928225257
 11
1125.0821741935
 21
437.3928225257
  0
LINE
  5
3F8
100
AcDbEntity
  8
7_ALL_FEATURES
100
AcDbLine
 62
7
  6
CONTINUOUS
 10
1126.5821741935
 20
437.5928225257
 11
1125.0821741935
 21
437.5928225257
  0
LINE
  5
3F9
100
AcDbEntity
  8
7_ALL_FEATURES
100
AcDbLine
 62
7
  6
CONTINUOUS
 10
279.5821741935
 20
437.5928225257
 11
281.0821741935
 21
437.5928225257
  0
LINE
  5
3FA
100
AcDbEntity
  8
6_ALL_SURFS
100
AcDbLine
 62
7
  6
CONTINUOUS
 10
281.0821741935
 20
439.6928225257
 11
1125.0821741935
 21
439.6928225257
  0
LINE
  5
3FB
100
AcDbEntity
  8
6_ALL_SURFS
100
AcDbLine
 62
7
  6
CONTINUOUS
 10
281.0821741935
 20
440.2928225257
 11
1125.0821741935
 21
440.2928225257
  0
LINE
  5
3FC
100
AcDbEntity
  8
6_ALL_SURFS
100
AcDbLine
 62
7
  6
CONTINUOUS
 10
281.0821741935
 20
442.6928225257
 11
1125.0821741935
 21
442.6928225257
  0
LINE
  5
3FD
100
AcDbEntity
  8
6_ALL_SURFS
100
AcDbLine
 62
7
  6
CONTINUOUS
 10
281.0821741935
 20
443.2928225257
 11
1125.0821741935
 21
443.2928225257
  0
LINE
  5
3FE
100
AcDbEntity
  8
6_ALL_SURFS
100
AcDbLine
 62
7
  6
CONTINUOUS
 10
281.0821741935
 20
445.6928225257
 11
1125.0821741935
 21
445.6928225257
  0
LINE
  5
3FF
100
AcDbEntity
  8
6_ALL_SURFS
100
AcDbLine
 62
7
  6
CONTINUOUS
 10
281.0821741935
 20
446.2928225257
 11
1125.0821741935
 21
446.2928225257
  0
LINE
  5
400
100
AcDbEntity
  8
6_ALL_SURFS
100
AcDbLine
 62
7
  6
CONTINUOUS
 10
281.0821741935
 20
448.6928225257
 11
324.1846407761
 21
448.6928225257
  0
LINE
  5
401
100
AcDbEntity
  8
6_ALL_SURFS
100
AcDbLine
 62
7
  6
CONTINUOUS
 10
331.9797076109
 20
448.6928225257
 11
574.1846407761
 21
448.6928225257
  0
LINE
  5
402
100
AcDbEntity
  8
6_ALL_SURFS
100
AcDbLine
 62
7
  6
CONTINUOUS
 10
581.9797076109
 20
448.6928225257
 11
824.1846407761
 21
448.6928225257
  0
LINE
  5
403
100
AcDbEntity
  8
6_ALL_SURFS
100
AcDbLine
 62
7
  6
CONTINUOUS
 10
831.9797076109
 20
448.6928225257
 11
1074.1846407761
 21
448.6928225257
  0
LINE
  5
404
100
AcDbEntity
  8
6_ALL_SURFS
100
AcDbLine
 62
7
  6
CONTINUOUS
 10
1081.9797076109
 20
448.6928225257
 11
1125.0821741935
 21
448.6928225257
  0
LINE
  5
405
100
AcDbEntity
  8
6_ALL_SURFS
100
AcDbLine
 62
7
  6
CONTINUOUS
 10
281.0821741935
 20
449.2928225257
 11
323.8171106841
 21
449.2928225257
  0
LINE
  5
406
100
AcDbEntity
  8
6_ALL_SURFS
100
AcDbLine
 62
7
  6
CONTINUOUS
 10
332.347237703
 20
449.2928225257
 11
573.8171106841
 21
449.2928225257
  0
LINE
  5
407
100
AcDbEntity
  8
6_ALL_SURFS
100
AcDbLine
 62
7
  6
CONTINUOUS
 10
582.347237703
 20
449.2928225257
 11
823.8171106841
 21
449.2928225257
  0
LINE
  5
408
100
AcDbEntity
  8
6_ALL_SURFS
100
AcDbLine
 62
7
  6
CONTINUOUS
 10
832.347237703
 20
449.2928225257
 11
1073.8171106841
 21
449.2928225257
  0
LINE
  5
409
100
AcDbEntity
  8
6_ALL_SURFS
100
AcDbLine
 62
7
  6
CONTINUOUS
 10
1082.347237703
 20
449.2928225257
 11
1125.0821741935
 21
449.2928225257
  0
LINE
  5
40A
100
AcDbEntity
  8
6_ALL_SURFS
100
AcDbLine
 62
7
  6
CONTINUOUS
 10
281.0821741935
 20
451.6928225257
 11
323.2873054008
 21
451.6928225257
  0
LINE
  5
40B
100
AcDbEntity
  8
6_ALL_SURFS
100
AcDbLine
 62
7
  6
CONTINUOUS
 10
332.8770429863
 20
451.6928225257
 11
573.2873054008
 21
451.6928225257
  0
LINE
  5
40C
100
AcDbEntity
  8
6_ALL_SURFS
100
AcDbLine
 62
7
  6
CONTINUOUS
 10
582.8770429863
 20
451.6928225257
 11
823.2873054008
 21
451.6928225257
  0
LINE
  5
40D
100
AcDbEntity
  8
6_ALL_SURFS
100
AcDbLine
 62
7
  6
CONTINUOUS
 10
832.8770429863
 20
451.6928225257
 11
1073.2873054008
 21
451.6928225257
  0
LINE
  5
40E
100
AcDbEntity
  8
6_ALL_SURFS
100
AcDbLine
 62
7
  6
CONTINUOUS
 10
1082.8770429863
 20
451.6928225257
 11
1125.0821741935
 21
451.6928225257
  0
LINE
  5
40F
100
AcDbEntity
  8
6_ALL_SURFS
100
AcDbLine
 62
7
  6
CONTINUOUS
 10
281.0821741935
 20
452.2928225257
 11
323.3502859088
 21
452.2928225257
  0
LINE
  5
410
100
AcDbEntity
  8
6_ALL_SURFS
100
AcDbLine
 62
7
  6
CONTINUOUS
 10
332.8140624783
 20
452.2928225257
 11
573.3502859088
 21
452.2928225257
  0
LINE
  5
411
100
AcDbEntity
  8
6_ALL_SURFS
100
AcDbLine
 62
7
  6
CONTINUOUS
 10
582.8140624783
 20
452.2928225257
 11
823.3502859088
 21
452.2928225257
  0
LINE
  5
412
100
AcDbEntity
  8
6_ALL_SURFS
100
AcDbLine
 62
7
  6
CONTINUOUS
 10
832.8140624783
 20
452.2928225257
 11
1073.3502859088
 21
452.2928225257
  0
LINE
  5
413
100
AcDbEntity
  8
6_ALL_SURFS
100
AcDbLine
 62
7
  6
CONTINUOUS
 10
1082.8140624783
 20
452.2928225257
 11
1125.0821741935
 21
452.2928225257
  0
LINE
  5
414
100
AcDbEntity
  8
6_ALL_SURFS
100
AcDbLine
 62
7
  6
CONTINUOUS
 10
281.0821741935
 20
454.9928225257
 11
324.7987663998
 21
454.9928225257
  0
LINE
  5
415
100
AcDbEntity
  8
6_ALL_SURFS
100
AcDbLine
 62
7
  6
CONTINUOUS
 10
331.3655819872
 20
454.9928225257
 11
574.7987663998
 21
454.9928225257
  0
LINE
  5
416
100
AcDbEntity
  8
6_ALL_SURFS
100
AcDbLine
 62
7
  6
CONTINUOUS
 10
581.3655819872
 20
454.9928225257
 11
824.7987663998
 21
454.9928225257
  0
LINE
  5
417
100
AcDbEntity
  8
6_ALL_SURFS
100
AcDbLine
 62
7
  6
CONTINUOUS
 10
831.3655819872
 20
454.9928225257
 11
1074.7987663998
 21
454.9928225257
  0
LINE
  5
418
100
AcDbEntity
  8
6_ALL_SURFS
100
AcDbLine
 62
7
  6
CONTINUOUS
 10
1081.3655819872
 20
454.9928225257
 11
1125.0821741935
 21
454.9928225257
  0
LINE
  5
419
100
AcDbEntity
  8
6_ALL_SURFS
100
AcDbLine
 62
9
  6
CONTINUOUS
 10
281.0821741935
 20
457.1382941161
 11
1125.0821741935
 21
457.1382941161
  0
LINE
  5
41A
100
AcDbEntity
  8
6_ALL_SURFS
100
AcDbLine
 62
7
  6
CONTINUOUS
 10
1125.0821741935
 20
457.4928225257
 11
281.0821741935
 21
457.4928225257
  0
LINE
  5
41B
100
AcDbEntity
  8
3_ALL_AXES
100
AcDbLine
 62
7
  6
CONTINUOUS
 10
1127.6814538639
 20
437.3928225257
 11
1126.5821741935
 21
436.4704173597
  0
LINE
  5
41C
100
AcDbEntity
  8
3_ALL_AXES
100
AcDbLine
 62
7
  6
CONTINUOUS
 10
1127.6814538639
 20
428.2428225257
 11
1126.5821741935
 21
427.3204173597
  0
LINE
  5
41D
100
AcDbEntity
  8
3_ALL_AXES
100
AcDbLine
 62
7
  6
CONTINUOUS
 10
1127.6814538639
 20
367.6928225257
 11
1126.5821741935
 21
368.6152276917
  0
LINE
  5
41E
100
AcDbEntity
  8
3_ALL_AXES
100
AcDbLine
 62
7
  6
CONTINUOUS
 10
1127.6814538639
 20
376.8428225257
 11
1126.5821741935
 21
377.7652276917
  0
LINE
  5
41F
100
AcDbEntity
  8
3_ALL_AXES
100
AcDbLine
 62
7
  6
CONTINUOUS
 10
1127.6814538639
 20
382.3428225257
 11
1126.5821741935
 21
381.4204173597
  0
LINE
  5
420
100
AcDbEntity
  8
3_ALL_AXES
100
AcDbLine
 62
7
  6
CONTINUOUS
 10
1127.6814538639
 20
422.7428225257
 11
1126.5821741935
 21
423.6652276917
  0
LINE
  5
421
100
AcDbEntity
  8
3_ALL_AXES
100
AcDbLine
 62
7
  6
CONTINUOUS
 10
1127.6814538639
 20
373.1928225257
 11
1126.5821741935
 21
372.2704173597
  0
LINE
  5
422
100
AcDbEntity
  8
3_ALL_AXES
100
AcDbLine
 62
7
  6
CONTINUOUS
 10
1127.6814538639
 20
431.8928225257
 11
1126.5821741935
 21
432.8152276917
  0
LINE
  5
423
100
AcDbEntity
  8
7_ALL_FEATURES
100
AcDbLine
 62
7
  6
CONTINUOUS
 10
1124.5821741935
 20
435.8428225257
 11
1124.5821741935
 21
369.2428225257
  0
LINE
  5
424
100
AcDbEntity
  8
3_ALL_AXES
100
AcDbLine
 62
7
  6
CONTINUOUS
 10
1125.0821741935
 20
365.3928225257
 11
1125.0821741935
 21
350.0928225257
  0
LINE
  5
425
100
AcDbEntity
  8
7_ALL_FEATURES
100
AcDbLine
 62
7
  6
CONTINUOUS
 10
1125.0821741935
 20
350.0928225257
 11
1125.0821741935
 21
347.5928314949
  0
LINE
  5
426
100
AcDbEntity
  8
7_ALL_FEATURES
100
AcDbLine
 62
7
  6
CONTINUOUS
 10
1125.0821741935
 20
365.3928225257
 11
1125.0821741935
 21
436.9212188731
  0
LINE
  5
427
100
AcDbEntity
  8
6_ALL_SURFS
100
AcDbLine
 62
7
  6
CONTINUOUS
 10
1125.0821741935
 20
436.1928225257
 11
1125.0821741935
 21
437.1330287418
  0
LINE
  5
428
100
AcDbEntity
  8
7_ALL_FEATURES
100
AcDbLine
 62
7
  6
CONTINUOUS
 10
1125.0821741935
 20
437.1330287418
 11
1125.0821741935
 21
437.5928225257
  0
LINE
  5
429
100
AcDbEntity
  8
6_ALL_SURFS
100
AcDbLine
 62
7
  6
CONTINUOUS
 10
1125.0821741935
 20
437.5928225257
 11
1125.0821741935
 21
457.4928135565
  0
LINE
  5
42A
100
AcDbEntity
  8
7_ALL_FEATURES
100
AcDbLine
 62
7
  6
CONTINUOUS
 10
1126.5821741935
 20
437.5928225257
 11
1126.5821741935
 21
367.4928225257
  0
LINE
  5
42B
100
AcDbEntity
  8
3_ALL_AXES
100
AcDbLine
 62
7
  6
CONTINUOUS
 10
1127.6814538639
 20
367.6928225257
 11
1127.6814538639
 21
373.1928225257
  0
LINE
  5
42C
100
AcDbEntity
  8
3_ALL_AXES
100
AcDbLine
 62
7
  6
CONTINUOUS
 10
1127.6814538639
 20
376.8428225257
 11
1127.6814538639
 21
382.3428225257
  0
LINE
  5
42D
100
AcDbEntity
  8
3_ALL_AXES
100
AcDbLine
 62
7
  6
CONTINUOUS
 10
1127.6814538639
 20
422.7428225257
 11
1127.6814538639
 21
428.2428225257
  0
LINE
  5
42E
100
AcDbEntity
  8
3_ALL_AXES
100
AcDbLine
 62
7
  6
CONTINUOUS
 10
1127.6814538639
 20
431.8928225257
 11
1127.6814538639
 21
437.3928225257
  0
LINE
  5
42F
100
AcDbEntity
  8
3_ALL_AXES
100
AcDbLine
 62
7
  6
CONTINUOUS
 10
1127.8321741935
 20
367.6928225257
 11
1127.8321741935
 21
373.1928225257
  0
LINE
  5
430
100
AcDbEntity
  8
3_ALL_AXES
100
AcDbLine
 62
7
  6
CONTINUOUS
 10
1127.8321741935
 20
376.8428225257
 11
1127.8321741935
 21
382.3428225257
  0
LINE
  5
431
100
AcDbEntity
  8
3_ALL_AXES
100
AcDbLine
 62
7
  6
CONTINUOUS
 10
1127.8321741935
 20
422.7428225257
 11
1127.8321741935
 21
428.2428225257
  0
LINE
  5
432
100
AcDbEntity
  8
3_ALL_AXES
100
AcDbLine
 62
7
  6
CONTINUOUS
 10
1127.8321741935
 20
431.8928225257
 11
1127.8321741935
 21
437.3928225257
  0
CIRCLE
  5
433
100
AcDbEntity
  8
3_ALL_AXES
100
AcDbCircle
 62
7
  6
CONTINUOUS
 10
96.2646622451
 20
177.0707963161
 40
2.75
  0
ARC
  5
434
100
AcDbEntity
  8
7_ALL_FEATURES
100
AcDbCircle
 62
7
  6
CONTINUOUS
 10
94.7146622451
 20
182.9707963161
 40
1.5
100
AcDbArc
 50
270.0
 51
360.0
  0
ARC
  5
435
100
AcDbEntity
  8
7_ALL_FEATURES
100
AcDbCircle
 62
7
  6
CONTINUOUS
 10
94.0646622451
 20
180.7207963161
 40
0.75
100
AcDbArc
 50
90.0
 51
180.0
  0
ARC
  5
436
100
AcDbEntity
  8
7_ALL_FEATURES
100
AcDbCircle
 62
7
  6
CONTINUOUS
 10
94.0646622451
 20
165.8207963161
 40
0.75
100
AcDbArc
 50
180.0
 51
270.0
  0
ARC
  5
437
100
AcDbEntity
  8
6_ALL_SURFS
100
AcDbCircle
 62
7
  6
CONTINUOUS
 10
90.9146622451
 20
166.170796316
 40
0.5
100
AcDbArc
 50
53.1301023542
 51
126.8698976458
  0
ARC
  5
438
100
AcDbEntity
  8
6_ALL_SURFS
100
AcDbCircle
 62
7
  6
CONTINUOUS
 10
87.9146622451
 20
166.170796316
 40
0.5
100
AcDbArc
 50
53.1301023542
 51
126.8698976458
  0
ARC
  5
439
100
AcDbEntity
  8
6_ALL_SURFS
100
AcDbCircle
 62
7
  6
CONTINUOUS
 10
84.9146622451
 20
166.170796316
 40
0.5
100
AcDbArc
 50
53.1301023542
 51
126.8698976458
  0
ARC
  5
43A
100
AcDbEntity
  8
6_ALL_SURFS
100
AcDbCircle
 62
7
  6
CONTINUOUS
 10
81.9146622451
 20
166.170796316
 40
0.5
100
AcDbArc
 50
53.1301023542
 51
126.8698976458
  0
ARC
  5
43B
100
AcDbEntity
  8
6_ALL_SURFS
100
AcDbCircle
 62
7
  6
CONTINUOUS
 10
78.9146622451
 20
166.170796316
 40
0.5
100
AcDbArc
 50
53.1301023542
 51
126.8698976458
  0
ARC
  5
43C
100
AcDbEntity
  8
6_ALL_SURFS
100
AcDbCircle
 62
7
  6
CONTINUOUS
 10
73.808365603
 20
167.177092958
 40
0.3937033579
100
AcDbArc
 50
90.0
 51
264.2894068625
  0
ARC
  5
43D
100
AcDbEntity
  8
6_ALL_SURFS
100
AcDbCircle
 62
7
  6
CONTINUOUS
 10
93.9146622451
 20
165.270796316
 40
0.2
100
AcDbArc
 50
225.1328761583
 51
270.0
  0
ARC
  5
43E
100
AcDbEntity
  8
6_ALL_SURFS
100
AcDbCircle
 62
7
  6
CONTINUOUS
 10
101.2146622451
 20
215.4931817006
 40
5.0
100
AcDbArc
 50
168.992257654
 51
180.0
  0
CIRCLE
  5
43F
100
AcDbEntity
  8
3_ALL_AXES
100
AcDbCircle
 62
7
  6
CONTINUOUS
 10
105.4146622451
 20
237.8207963161
 40
2.75
  0
ARC
  5
440
100
AcDbEntity
  8
7_ALL_FEATURES
100
AcDbCircle
 62
7
  6
CONTINUOUS
 10
97.7146622451
 20
215.2906879368
 40
1.5
100
AcDbArc
 50
168.8118414334
 51
180.0
  0
ARC
  5
441
100
AcDbEntity
  8
6_ALL_SURFS
100
AcDbCircle
 62
7
  6
CONTINUOUS
 10
101.2822399535
 20
234.170796316
 40
1.5
100
AcDbArc
 50
142.0657626298
 51
168.992257654
  0
ARC
  5
442
100
AcDbEntity
  8
7_ALL_FEATURES
100
AcDbCircle
 62
7
  6
CONTINUOUS
 10
125.718910934
 20
240.0707963161
 40
1.0
100
AcDbArc
 50
48.5903778907
 51
90.0
  0
ARC
  5
443
100
AcDbEntity
  8
7_ALL_FEATURES
100
AcDbCircle
 62
7
  6
CONTINUOUS
 10
101.7348707474
 20
240.3207963161
 40
0.75
100
AcDbArc
 50
145.8535934133
 51
169.1779923731
  0
ARC
  5
444
100
AcDbEntity
  8
7_ALL_FEATURES
100
AcDbCircle
 62
7
  6
CONTINUOUS
 10
101.9008518736
 20
240.3207963161
 40
0.75
100
AcDbArc
 50
90.0
 51
168.8118414334
  0
ARC
  5
445
100
AcDbEntity
  8
6_ALL_SURFS
100
AcDbCircle
 62
7
  6
CONTINUOUS
 10
101.4146622451
 20
240.770796316
 40
0.3
100
AcDbArc
 50
90.0
 51
180.0
  0
CIRCLE
  5
446
100
AcDbEntity
  8
3_ALL_AXES
100
AcDbCircle
 62
7
  6
CONTINUOUS
 10
160.4646622451
 20
177.0707963161
 40
2.75
  0
ARC
  5
447
100
AcDbEntity
  8
7_ALL_FEATURES
100
AcDbCircle
 62
7
  6
CONTINUOUS
 10
162.0146622451
 20
182.9707963161
 40
1.5
100
AcDbArc
 50
180.0
 51
270.0
  0
ARC
  5
448
100
AcDbEntity
  8
7_ALL_FEATURES
100
AcDbCircle
 62
7
  6
CONTINUOUS
 10
162.6646622451
 20
165.8207963161
 40
0.75
100
AcDbArc
 50
270.0
 51
360.0
  0
ARC
  5
449
100
AcDbEntity
  8
7_ALL_FEATURES
100
AcDbCircle
 62
7
  6
CONTINUOUS
 10
162.6646622451
 20
180.7207963161
 40
0.75
100
AcDbArc
 50
0.0
 51
90.0
  0
ARC
  5
44A
100
AcDbEntity
  8
3_ALL_AXES
100
AcDbCircle
 62
7
  6
CONTINUOUS
 10
165.8146622451
 20
166.170796316
 40
0.5
100
AcDbArc
 50
53.1301023542
 51
126.8698976458
  0
ARC
  5
44B
100
AcDbEntity
  8
3_ALL_AXES
100
AcDbCircle
 62
7
  6
CONTINUOUS
 10
168.8146622451
 20
166.170796316
 40
0.5
100
AcDbArc
 50
53.1301023542
 51
126.8698976458
  0
ARC
  5
44C
100
AcDbEntity
  8
3_ALL_AXES
100
AcDbCircle
 62
7
  6
CONTINUOUS
 10
171.8146622451
 20
166.170796316
 40
0.5
100
AcDbArc
 50
53.1301023542
 51
126.8698976458
  0
ARC
  5
44D
100
AcDbEntity
  8
3_ALL_AXES
100
AcDbCircle
 62
7
  6
CONTINUOUS
 10
174.8146622451
 20
166.170796316
 40
0.5
100
AcDbArc
 50
53.1301023542
 51
126.8698976458
  0
ARC
  5
44E
100
AcDbEntity
  8
3_ALL_AXES
100
AcDbCircle
 62
7
  6
CONTINUOUS
 10
177.8146622451
 20
166.170796316
 40
0.5
100
AcDbArc
 50
53.1301023542
 51
126.8698976458
  0
ARC
  5
44F
100
AcDbEntity
  8
7_ALL_FEATURES
100
AcDbCircle
 62
7
  6
CONTINUOUS
 10
182.9209588872
 20
167.177092958
 40
0.3937033579
100
AcDbArc
 50
275.7105931375
 51
90.0
  0
ARC
  5
450
100
AcDbEntity
  8
7_ALL_FEATURES
100
AcDbCircle
 62
7
  6
CONTINUOUS
 10
162.8146622451
 20
165.270796316
 40
0.2
100
AcDbArc
 50
270.0
 51
314.8671238417
  0
ARC
  5
451
100
AcDbEntity
  8
7_ALL_FEATURES
100
AcDbCircle
 62
7
  6
CONTINUOUS
 10
128.3646622451
 20
222.0707963161
 40
11.0
100
AcDbArc
 50
3.257196161
 51
176.742803839
  0
ARC
  5
452
100
AcDbEntity
  8
7_ALL_FEATURES
100
AcDbCircle
 62
7
  6
CONTINUOUS
 10
128.3646622451
 20
222.0707963161
 40
11.0
100
AcDbArc
 50
183.257196161
 51
356.742803839
  0
ARC
  5
453
100
AcDbEntity
  8
7_ALL_FEATURES
100
AcDbCircle
 62
7
  6
CONTINUOUS
 10
128.3646622451
 20
222.0707963161
 40
10.25
100
AcDbArc
 50
3.4958136324
 51
176.5041863676
  0
ARC
  5
454
100
AcDbEntity
  8
7_ALL_FEATURES
100
AcDbCircle
 62
7
  6
CONTINUOUS
 10
128.3646622451
 20
222.0707963161
 40
10.25
100
AcDbArc
 50
183.4958136324
 51
356.5041863676
  0
ARC
  5
455
100
AcDbEntity
  8
7_ALL_FEATURES
100
AcDbCircle
 62
7
  6
CONTINUOUS
 10
155.5146622451
 20
215.4931817006
 40
5.0
100
AcDbArc
 50
0.0
 51
11.007742346
  0
ARC
  5
456
100
AcDbEntity
  8
7_ALL_FEATURES
100
AcDbCircle
 62
7
  6
CONTINUOUS
 10
128.3646622451
 20
243.0707963161
 40
3.0
100
AcDbArc
 50
228.5903778907
 51
311.4096221093
  0
CIRCLE
  5
457
100
AcDbEntity
  8
3_ALL_AXES
100
AcDbCircle
 62
7
  6
CONTINUOUS
 10
151.3146622451
 20
237.8207963161
 40
2.75
  0
ARC
  5
458
100
AcDbEntity
  8
7_ALL_FEATURES
100
AcDbCircle
 62
7
  6
CONTINUOUS
 10
159.0146622451
 20
215.2955253247
 40
1.5
100
AcDbArc
 50
0.0
 51
10.8220076269
  0
ARC
  5
459
100
AcDbEntity
  8
7_ALL_FEATURES
100
AcDbCircle
 62
7
  6
CONTINUOUS
 10
155.4470845366
 20
234.170796316
 40
1.5
100
AcDbArc
 50
11.007742346
 51
23.483520387
  0
ARC
  5
45A
100
AcDbEntity
  8
7_ALL_FEATURES
100
AcDbCircle
 62
7
  6
CONTINUOUS
 10
131.0104135562
 20
240.0707963161
 40
1.0
100
AcDbArc
 50
90.0
 51
131.4096221093
  0
ARC
  5
45B
100
AcDbEntity
  8
7_ALL_FEATURES
100
AcDbCircle
 62
7
  6
CONTINUOUS
 10
154.9944537428
 20
240.3207963161
 40
0.75
100
AcDbArc
 50
10.8220076269
 51
90.0
  0
ARC
  5
45C
100
AcDbEntity
  8
7_ALL_FEATURES
100
AcDbCircle
 62
7
  6
CONTINUOUS
 10
155.3146622451
 20
240.770796316
 40
0.3
100
AcDbArc
 50
0.0
 51
90.0
  0
ARC
  5
45D
100
AcDbEntity
  8
7_ALL_FEATURES
100
AcDbCircle
 62
7
  6
CONTINUOUS
 10
328.0821741935
 20
353.5928225257
 40
4.7990381057
100
AcDbArc
 50
35.6935828234
 51
144.3064171766
  0
ARC
  5
45E
100
AcDbEntity
  8
7_ALL_FEATURES
100
AcDbCircle
 62
7
  6
CONTINUOUS
 10
578.0821741935
 20
353.5928225257
 40
4.7990381057
100
AcDbArc
 50
35.6935828234
 51
144.3064171766
  0
ARC
  5
45F
100
AcDbEntity
  8
7_ALL_FEATURES
100
AcDbCircle
 62
7
  6
CONTINUOUS
 10
578.0821741935
 20
353.5928225257
 40
4.7990381057
100
AcDbArc
 50
357.6115056179
 51
27.2855350899
  0
ARC
  5
460
100
AcDbEntity
  8
7_ALL_FEATURES
100
AcDbCircle
 62
7
  6
CONTINUOUS
 10
328.0821741935
 20
353.5928225257
 40
4.7990381057
100
AcDbArc
 50
357.6115056179
 51
27.2855350899
  0
ARC
  5
461
100
AcDbEntity
  8
7_ALL_FEATURES
100
AcDbCircle
 62
7
  6
CONTINUOUS
 10
578.0821741935
 20
353.5928225257
 40
4.7990381057
100
AcDbArc
 50
152.7144649101
 51
182.3884943821
  0
ARC
  5
462
100
AcDbEntity
  8
7_ALL_FEATURES
100
AcDbCircle
 62
7
  6
CONTINUOUS
 10
328.0821741935
 20
353.5928225257
 40
4.7990381057
100
AcDbArc
 50
152.7144649101
 51
182.3884943821
  0
ARC
  5
463
100
AcDbEntity
  8
7_ALL_FEATURES
100
AcDbCircle
 62
7
  6
CONTINUOUS
 10
578.0821741935
 20
353.5928225257
 40
4.7990381057
100
AcDbArc
 50
313.171184019
 51
350.4039906056
  0
ARC
  5
464
100
AcDbEntity
  8
7_ALL_FEATURES
100
AcDbCircle
 62
7
  6
CONTINUOUS
 10
328.0821741935
 20
353.5928225257
 40
4.7990381057
100
AcDbArc
 50
313.171184019
 51
350.4039906056
  0
ARC
  5
465
100
AcDbEntity
  8
7_ALL_FEATURES
100
AcDbCircle
 62
7
  6
CONTINUOUS
 10
578.0821741935
 20
353.5928225257
 40
4.7990381057
100
AcDbArc
 50
189.5960093944
 51
226.828815981
  0
ARC
  5
466
100
AcDbEntity
  8
7_ALL_FEATURES
100
AcDbCircle
 62
7
  6
CONTINUOUS
 10
328.0821741935
 20
353.5928225257
 40
4.7990381057
100
AcDbArc
 50
189.5960093944
 51
226.828815981
  0
CIRCLE
  5
467
100
AcDbEntity
  8
6_ALL_SURFS
100
AcDbCircle
 62
7
  6
CONTINUOUS
 10
328.0821741935
 20
353.5928225257
 40
3.5
  0
CIRCLE
  5
468
100
AcDbEntity
  8
6_ALL_SURFS
100
AcDbCircle
 62
7
  6
CONTINUOUS
 10
578.0821741935
 20
353.5928225257
 40
3.5
  0
ARC
  5
469
100
AcDbEntity
  8
6_ALL_SURFS
100
AcDbCircle
 62
7
  6
CONTINUOUS
 10
328.0821741935
 20
451.4928225257
 40
4.7990381057
100
AcDbArc
 50
177.6115056179
 51
207.2855350899
  0
ARC
  5
46A
100
AcDbEntity
  8
6_ALL_SURFS
100
AcDbCircle
 62
7
  6
CONTINUOUS
 10
578.0821741935
 20
451.4928225257
 40
4.7990381057
100
AcDbArc
 50
177.6115056179
 51
207.2855350899
  0
ARC
  5
46B
100
AcDbEntity
  8
6_ALL_SURFS
100
AcDbCircle
 62
7
  6
CONTINUOUS
 10
328.0821741935
 20
451.4928225257
 40
4.7990381057
100
AcDbArc
 50
332.7144649101
 51
2.3884943821
  0
ARC
  5
46C
100
AcDbEntity
  8
6_ALL_SURFS
100
AcDbCircle
 62
7
  6
CONTINUOUS
 10
578.0821741935
 20
451.4928225257
 40
4.7990381057
100
AcDbArc
 50
133.171184019
 51
170.4039906056
  0
ARC
  5
46D
100
AcDbEntity
  8
6_ALL_SURFS
100
AcDbCircle
 62
7
  6
CONTINUOUS
 10
578.0821741935
 20
451.4928225257
 40
4.7990381057
100
AcDbArc
 50
332.7144649101
 51
2.3884943821
  0
ARC
  5
46E
100
AcDbEntity
  8
6_ALL_SURFS
100
AcDbCircle
 62
7
  6
CONTINUOUS
 10
328.0821741935
 20
451.4928225257
 40
4.7990381057
100
AcDbArc
 50
9.5960093944
 51
46.828815981
  0
ARC
  5
46F
100
AcDbEntity
  8
6_ALL_SURFS
100
AcDbCircle
 62
7
  6
CONTINUOUS
 10
578.0821741935
 20
451.4928225257
 40
4.7990381057
100
AcDbArc
 50
9.5960093944
 51
46.828815981
  0
ARC
  5
470
100
AcDbEntity
  8
6_ALL_SURFS
100
AcDbCircle
 62
7
  6
CONTINUOUS
 10
328.0821741935
 20
451.4928225257
 40
4.7990381057
100
AcDbArc
 50
133.171184019
 51
170.4039906056
  0
ARC
  5
471
100
AcDbEntity
  8
6_ALL_SURFS
100
AcDbCircle
 62
7
  6
CONTINUOUS
 10
578.0821741935
 20
451.4928225257
 40
4.7990381057
100
AcDbArc
 50
215.6935828234
 51
324.3064171766
  0
ARC
  5
472
100
AcDbEntity
  8
6_ALL_SURFS
100
AcDbCircle
 62
7
  6
CONTINUOUS
 10
328.0821741935
 20
451.4928225257
 40
4.7990381057
100
AcDbArc
 50
215.6935828234
 51
324.3064171766
  0
CIRCLE
  5
473
100
AcDbEntity
  8
6_ALL_SURFS
100
AcDbCircle
 62
7
  6
CONTINUOUS
 10
328.0821741935
 20
451.4928225257
 40
3.5
  0
CIRCLE
  5
474
100
AcDbEntity
  8
6_ALL_SURFS
100
AcDbCircle
 62
7
  6
CONTINUOUS
 10
578.0821741935
 20
451.4928225257
 40
3.5
  0
ARC
  5
475
100
AcDbEntity
  8
7_ALL_FEATURES
100
AcDbCircle
 62
7
  6
CONTINUOUS
 10
1078.0821741935
 20
353.5928225257
 40
4.7990381057
100
AcDbArc
 50
35.6935828234
 51
144.3064171766
  0
ARC
  5
476
100
AcDbEntity
  8
7_ALL_FEATURES
100
AcDbCircle
 62
7
  6
CONTINUOUS
 10
828.0821741935
 20
353.5928225257
 40
4.7990381057
100
AcDbArc
 50
35.6935828234
 51
144.3064171766
  0
ARC
  5
477
100
AcDbEntity
  8
7_ALL_FEATURES
100
AcDbCircle
 62
7
  6
CONTINUOUS
 10
1078.0821741935
 20
353.5928225257
 40
4.7990381057
100
AcDbArc
 50
357.6115056179
 51
27.2855350899
  0
ARC
  5
478
100
AcDbEntity
  8
7_ALL_FEATURES
100
AcDbCircle
 62
7
  6
CONTINUOUS
 10
828.0821741935
 20
353.5928225257
 40
4.7990381057
100
AcDbArc
 50
357.6115056179
 51
27.2855350899
  0
ARC
  5
479
100
AcDbEntity
  8
7_ALL_FEATURES
100
AcDbCircle
 62
7
  6
CONTINUOUS
 10
1078.0821741935
 20
353.5928225257
 40
4.7990381057
100
AcDbArc
 50
152.7144649101
 51
182.3884943821
  0
ARC
  5
47A
100
AcDbEntity
  8
7_ALL_FEATURES
100
AcDbCircle
 62
7
  6
CONTINUOUS
 10
828.0821741935
 20
353.5928225257
 40
4.7990381057
100
AcDbArc
 50
152.7144649101
 51
182.3884943821
  0
ARC
  5
47B
100
AcDbEntity
  8
7_ALL_FEATURES
100
AcDbCircle
 62
7
  6
CONTINUOUS
 10
1078.0821741935
 20
353.5928225257
 40
4.7990381057
100
AcDbArc
 50
313.171184019
 51
350.4039906056
  0
ARC
  5
47C
100
AcDbEntity
  8
7_ALL_FEATURES
100
AcDbCircle
 62
7
  6
CONTINUOUS
 10
828.0821741935
 20
353.5928225257
 40
4.7990381057
100
AcDbArc
 50
313.171184019
 51
350.4039906056
  0
ARC
  5
47D
100
AcDbEntity
  8
7_ALL_FEATURES
100
AcDbCircle
 62
7
  6
CONTINUOUS
 10
1078.0821741935
 20
353.5928225257
 40
4.7990381057
100
AcDbArc
 50
189.5960093944
 51
226.828815981
  0
ARC
  5
47E
100
AcDbEntity
  8
7_ALL_FEATURES
100
AcDbCircle
 62
7
  6
CONTINUOUS
 10
828.0821741935
 20
353.5928225257
 40
4.7990381057
100
AcDbArc
 50
189.5960093944
 51
226.828815981
  0
CIRCLE
  5
47F
100
AcDbEntity
  8
6_ALL_SURFS
100
AcDbCircle
 62
7
  6
CONTINUOUS
 10
828.0821741935
 20
353.5928225257
 40
3.5
  0
CIRCLE
  5
480
100
AcDbEntity
  8
6_ALL_SURFS
100
AcDbCircle
 62
7
  6
CONTINUOUS
 10
1078.0821741935
 20
353.5928225257
 40
3.5
  0
ARC
  5
481
100
AcDbEntity
  8
6_ALL_SURFS
100
AcDbCircle
 62
7
  6
CONTINUOUS
 10
828.0821741935
 20
451.4928225257
 40
4.7990381057
100
AcDbArc
 50
177.6115056179
 51
207.2855350899
  0
ARC
  5
482
100
AcDbEntity
  8
6_ALL_SURFS
100
AcDbCircle
 62
7
  6
CONTINUOUS
 10
1078.0821741935
 20
451.4928225257
 40
4.7990381057
100
AcDbArc
 50
177.6115056179
 51
207.2855350899
  0
ARC
  5
483
100
AcDbEntity
  8
6_ALL_SURFS
100
AcDbCircle
 62
7
  6
CONTINUOUS
 10
828.0821741935
 20
451.4928225257
 40
4.7990381057
100
AcDbArc
 50
332.7144649101
 51
2.3884943821
  0
ARC
  5
484
100
AcDbEntity
  8
6_ALL_SURFS
100
AcDbCircle
 62
7
  6
CONTINUOUS
 10
828.0821741935
 20
451.4928225257
 40
4.7990381057
100
AcDbArc
 50
133.171184019
 51
170.4039906056
  0
ARC
  5
485
100
AcDbEntity
  8
6_ALL_SURFS
100
AcDbCircle
 62
7
  6
CONTINUOUS
 10
1078.0821741935
 20
451.4928225257
 40
4.7990381057
100
AcDbArc
 50
332.7144649101
 51
2.3884943821
  0
ARC
  5
486
100
AcDbEntity
  8
6_ALL_SURFS
100
AcDbCircle
 62
7
  6
CONTINUOUS
 10
1078.0821741935
 20
451.4928225257
 40
4.7990381057
100
AcDbArc
 50
133.171184019
 51
170.4039906056
  0
ARC
  5
487
100
AcDbEntity
  8
6_ALL_SURFS
100
AcDbCircle
 62
7
  6
CONTINUOUS
 10
828.0821741935
 20
451.4928225257
 40
4.7990381057
100
AcDbArc
 50
9.5960093944
 51
46.828815981
  0
ARC
  5
488
100
AcDbEntity
  8
6_ALL_SURFS
100
AcDbCircle
 62
7
  6
CONTINUOUS
 10
1078.0821741935
 20
451.4928225257
 40
4.7990381057
100
AcDbArc
 50
9.5960093944
 51
46.828815981
  0
ARC
  5
489
100
AcDbEntity
  8
6_ALL_SURFS
100
AcDbCircle
 62
7
  6
CONTINUOUS
 10
1078.0821741935
 20
451.4928225257
 40
4.7990381057
100
AcDbArc
 50
215.6935828234
 51
324.3064171766
  0
ARC
  5
48A
100
AcDbEntity
  8
6_ALL_SURFS
100
AcDbCircle
 62
7
  6
CONTINUOUS
 10
828.0821741935
 20
451.4928225257
 40
4.7990381057
100
AcDbArc
 50
215.6935828234
 51
324.3064171766
  0
CIRCLE
  5
48B
100
AcDbEntity
  8
6_ALL_SURFS
100
AcDbCircle
 62
7
  6
CONTINUOUS
 10
828.0821741935
 20
451.4928225257
 40
3.5
  0
CIRCLE
  5
48C
100
AcDbEntity
  8
6_ALL_SURFS
100
AcDbCircle
 62
7
  6
CONTINUOUS
 10
1078.0821741935
 20
451.4928225257
 40
3.5
  0
SPLINE
  5
48D
100
AcDbEntity
  8
6_ALL_SURFS
100
AcDbSpline
 62
7
  6
CONTINUOUS
 70
0
 71
3
 72
10
 73
6
 74
0
 42
0.0000001
 43
0.0000001
 44
0.0000000001
 40
0.0
 40
0.0
 40
0.0
 40
0.0
 40
0.4973879441
 40
0.7560060218
 40
1.0
 40
1.0
 40
1.0
 40
1.0
 10
1082.8770429863
 20
451.6928225257
 30
0.0
 10
1082.7842959439
 20
451.7619398215
 30
0.0
 10
1082.6548127794
 20
451.9184319296
 30
0.0
 10
1082.6932417234
 20
452.1631276392
 30
0.0
 10
1082.7712707607
 20
452.255560719
 30
0.0
 10
1082.8140624783
 20
452.2928225257
 30
0.0
  0
SPLINE
  5
48E
100
AcDbEntity
  8
6_ALL_SURFS
100
AcDbSpline
 62
7
  6
CONTINUOUS
 70
0
 71
3
 72
13
 73
9
 74
0
 42
0.0000001
 43
0.0000001
 44
0.0000000001
 40
0.0
 40
0.0
 40
0.0
 40
0.0
 40
0.249624324
 40
0.5054548963
 40
0.6354632106
 40
0.7638096095
 40
0.8852075555
 40
1.0
 40
1.0
 40
1.0
 40
1.0
 10
323.8171106841
 20
449.2928225257
 30
0.0
 10
323.8769769486
 20
449.2625487075
 30
0.0
 10
323.9943975327
 20
449.1936263322
 30
0.0
 10
324.1265255709
 20
449.0824598051
 30
0.0
 10
324.2087335746
 20
448.9704331196
 30
0.0
 10
324.2467364677
 20
448.8733846536
 30
0.0
 10
324.2399073063
 20
448.7716177092
 30
0.0
 10
324.2050355643
 20
448.7159693752
 30
0.0
 10
324.1846407761
 20
448.6928225257
 30
0.0
  0
SPLINE
  5
48F
100
AcDbEntity
  8
6_ALL_SURFS
100
AcDbSpline
 62
7
  6
CONTINUOUS
 70
0
 71
3
 72
13
 73
9
 74
0
 42
0.0000001
 43
0.0000001
 44
0.0000000001
 40
0.0
 40
0.0
 40
0.0
 40
0.0
 40
0.249624324
 40
0.5054548963
 40
0.6354632106
 40
0.7638096095
 40
0.8852075555
 40
1.0
 40
1.0
 40
1.0
 40
1.0
 10
573.8171106841
 20
449.2928225257
 30
0.0
 10
573.8769769486
 20
449.2625487075
 30
0.0
 10
573.9943975327
 20
449.1936263322
 30
0.0
 10
574.1265255709
 20
449.0824598051
 30
0.0
 10
574.2087335746
 20
448.9704331196
 30
0.0
 10
574.2467364677
 20
448.8733846536
 30
0.0
 10
574.2399073063
 20
448.7716177092
 30
0.0
 10
574.2050355643
 20
448.7159693752
 30
0.0
 10
574.1846407761
 20
448.6928225257
 30
0.0
  0
SPLINE
  5
490
100
AcDbEntity
  8
6_ALL_SURFS
100
AcDbSpline
 62
7
  6
CONTINUOUS
 70
0
 71
3
 72
13
 73
9
 74
0
 42
0.0000001
 43
0.0000001
 44
0.0000000001
 40
0.0
 40
0.0
 40
0.0
 40
0.0
 40
0.1147840388
 40
0.2361807099
 40
0.3645312554
 40
0.4945424888
 40
0.7503752652
 40
1.0
 40
1.0
 40
1.0
 40
1.0
 10
331.9797076109
 20
448.6928225257
 30
0.0
 10
331.9593143037
 20
448.7159676945
 30
0.0
 10
331.9244431737
 20
448.7716126566
 30
0.0
 10
331.9176093116
 20
448.8733780463
 30
0.0
 10
331.9556124754
 20
448.9704286125
 30
0.0
 10
332.0378204597
 20
449.0824583632
 30
0.0
 10
332.1699501813
 20
449.1936257892
 30
0.0
 10
332.2873713031
 20
449.262548639
 30
0.0
 10
332.347237703
 20
449.2928225257
 30
0.0
  0
SPLINE
  5
491
100
AcDbEntity
  8
6_ALL_SURFS
100
AcDbSpline
 62
7
  6
CONTINUOUS
 70
0
 71
3
 72
13
 73
9
 74
0
 42
0.0000001
 43
0.0000001
 44
0.0000000001
 40
0.0
 40
0.0
 40
0.0
 40
0.0
 40
0.249624324
 40
0.5054548963
 40
0.6354632106
 40
0.7638096095
 40
0.8852075555
 40
1.0
 40
1.0
 40
1.0
 40
1.0
 10
823.8171106841
 20
449.2928225257
 30
0.0
 10
823.8769769486
 20
449.2625487075
 30
0.0
 10
823.9943975327
 20
449.1936263322
 30
0.0
 10
824.1265255709
 20
449.0824598051
 30
0.0
 10
824.2087335746
 20
448.9704331196
 30
0.0
 10
824.2467364677
 20
448.8733846536
 30
0.0
 10
824.2399073063
 20
448.7716177092
 30
0.0
 10
824.2050355643
 20
448.7159693752
 30
0.0
 10
824.1846407761
 20
448.6928225257
 30
0.0
  0
SPLINE
  5
492
100
AcDbEntity
  8
6_ALL_SURFS
100
AcDbSpline
 62
7
  6
CONTINUOUS
 70
0
 71
3
 72
13
 73
9
 74
0
 42
0.0000001
 43
0.0000001
 44
0.0000000001
 40
0.0
 40
0.0
 40
0.0
 40
0.0
 40
0.1147840388
 40
0.2361807099
 40
0.3645312554
 40
0.4945424888
 40
0.7503752652
 40
1.0
 40
1.0
 40
1.0
 40
1.0
 10
581.9797076109
 20
448.6928225257
 30
0.0
 10
581.9593143037
 20
448.7159676945
 30
0.0
 10
581.9244431737
 20
448.7716126566
 30
0.0
 10
581.9176093116
 20
448.8733780463
 30
0.0
 10
581.9556124754
 20
448.9704286125
 30
0.0
 10
582.0378204597
 20
449.0824583632
 30
0.0
 10
582.1699501813
 20
449.1936257892
 30
0.0
 10
582.2873713031
 20
449.262548639
 30
0.0
 10
582.347237703
 20
449.2928225257
 30
0.0
  0
SPLINE
  5
493
100
AcDbEntity
  8
6_ALL_SURFS
100
AcDbSpline
 62
7
  6
CONTINUOUS
 70
0
 71
3
 72
13
 73
9
 74
0
 42
0.0000001
 43
0.0000001
 44
0.0000000001
 40
0.0
 40
0.0
 40
0.0
 40
0.0
 40
0.249624324
 40
0.5054548963
 40
0.6354632106
 40
0.7638096095
 40
0.8852075555
 40
1.0
 40
1.0
 40
1.0
 40
1.0
 10
1073.8171106841
 20
449.2928225257
 30
0.0
 10
1073.8769769486
 20
449.2625487075
 30
0.0
 10
1073.9943975327
 20
449.1936263322
 30
0.0
 10
1074.1265255709
 20
449.0824598051
 30
0.0
 10
1074.2087335746
 20
448.9704331196
 30
0.0
 10
1074.2467364677
 20
448.8733846536
 30
0.0
 10
1074.2399073063
 20
448.7716177092
 30
0.0
 10
1074.2050355643
 20
448.7159693752
 30
0.0
 10
1074.1846407761
 20
448.6928225257
 30
0.0
  0
SPLINE
  5
494
100
AcDbEntity
  8
6_ALL_SURFS
100
AcDbSpline
 62
7
  6
CONTINUOUS
 70
0
 71
3
 72
10
 73
6
 74
0
 42
0.0000001
 43
0.0000001
 44
0.0000000001
 40
0.0
 40
0.0
 40
0.0
 40
0.0
 40
0.2439939782
 40
0.5026120559
 40
1.0
 40
1.0
 40
1.0
 40
1.0
 10
323.3502859088
 20
452.2928225257
 30
0.0
 10
323.3930776264
 20
452.255560719
 30
0.0
 10
323.4711066637
 20
452.1631276392
 30
0.0
 10
323.5095356077
 20
451.9184319296
 30
0.0
 10
323.3800524432
 20
451.7619398215
 30
0.0
 10
323.2873054008
 20
451.6928225257
 30
0.0
  0
SPLINE
  5
495
100
AcDbEntity
  8
6_ALL_SURFS
100
AcDbSpline
 62
7
  6
CONTINUOUS
 70
0
 71
3
 72
13
 73
9
 74
0
 42
0.0000001
 43
0.0000001
 44
0.0000000001
 40
0.0
 40
0.0
 40
0.0
 40
0.0
 40
0.1147840388
 40
0.2361807099
 40
0.3645312554
 40
0.4945424888
 40
0.7503752652
 40
1.0
 40
1.0
 40
1.0
 40
1.0
 10
831.9797076109
 20
448.6928225257
 30
0.0
 10
831.9593143037
 20
448.7159676945
 30
0.0
 10
831.9244431737
 20
448.7716126566
 30
0.0
 10
831.9176093116
 20
448.8733780463
 30
0.0
 10
831.9556124754
 20
448.9704286125
 30
0.0
 10
832.0378204597
 20
449.0824583632
 30
0.0
 10
832.1699501813
 20
449.1936257892
 30
0.0
 10
832.2873713031
 20
449.262548639
 30
0.0
 10
832.347237703
 20
449.2928225257
 30
0.0
  0
SPLINE
  5
496
100
AcDbEntity
  8
6_ALL_SURFS
100
AcDbSpline
 62
7
  6
CONTINUOUS
 70
0
 71
3
 72
13
 73
9
 74
0
 42
0.0000001
 43
0.0000001
 44
0.0000000001
 40
0.0
 40
0.0
 40
0.0
 40
0.0
 40
0.1147840388
 40
0.2361807099
 40
0.3645312554
 40
0.4945424888
 40
0.7503752652
 40
1.0
 40
1.0
 40
1.0
 40
1.0
 10
1081.9797076109
 20
448.6928225257
 30
0.0
 10
1081.9593143037
 20
448.7159676945
 30
0.0
 10
1081.9244431737
 20
448.7716126566
 30
0.0
 10
1081.9176093116
 20
448.8733780463
 30
0.0
 10
1081.9556124754
 20
448.9704286125
 30
0.0
 10
1082.0378204597
 20
449.0824583632
 30
0.0
 10
1082.1699501813
 20
449.1936257892
 30
0.0
 10
1082.2873713031
 20
449.262548639
 30
0.0
 10
1082.347237703
 20
449.2928225257
 30
0.0
  0
SPLINE
  5
497
100
AcDbEntity
  8
6_ALL_SURFS
100
AcDbSpline
 62
7
  6
CONTINUOUS
 70
0
 71
3
 72
10
 73
6
 74
0
 42
0.0000001
 43
0.0000001
 44
0.0000000001
 40
0.0
 40
0.0
 40
0.0
 40
0.0
 40
0.2439939782
 40
0.5026120559
 40
1.0
 40
1.0
 40
1.0
 40
1.0
 10
573.3502859088
 20
452.2928225257
 30
0.0
 10
573.3930776264
 20
452.255560719
 30
0.0
 10
573.4711066637
 20
452.1631276392
 30
0.0
 10
573.5095356077
 20
451.9184319296
 30
0.0
 10
573.3800524432
 20
451.7619398215
 30
0.0
 10
573.2873054008
 20
451.6928225257
 30
0.0
  0
SPLINE
  5
498
100
AcDbEntity
  8
6_ALL_SURFS
100
AcDbSpline
 62
7
  6
CONTINUOUS
 70
0
 71
3
 72
10
 73
6
 74
0
 42
0.0000001
 43
0.0000001
 44
0.0000000001
 40
0.0
 40
0.0
 40
0.0
 40
0.0
 40
0.4973879441
 40
0.7560060218
 40
1.0
 40
1.0
 40
1.0
 40
1.0
 10
332.8770429863
 20
451.6928225257
 30
0.0
 10
332.7842959439
 20
451.7619398215
 30
0.0
 10
332.6548127794
 20
451.9184319296
 30
0.0
 10
332.6932417234
 20
452.1631276392
 30
0.0
 10
332.7712707607
 20
452.255560719
 30
0.0
 10
332.8140624783
 20
452.2928225257
 30
0.0
  0
SPLINE
  5
499
100
AcDbEntity
  8
6_ALL_SURFS
100
AcDbSpline
 62
7
  6
CONTINUOUS
 70
0
 71
3
 72
10
 73
6
 74
0
 42
0.0000001
 43
0.0000001
 44
0.0000000001
 40
0.0
 40
0.0
 40
0.0
 40
0.0
 40
0.2439939782
 40
0.5026120559
 40
1.0
 40
1.0
 40
1.0
 40
1.0
 10
823.3502859088
 20
452.2928225257
 30
0.0
 10
823.3930776264
 20
452.255560719
 30
0.0
 10
823.4711066637
 20
452.1631276392
 30
0.0
 10
823.5095356077
 20
451.9184319296
 30
0.0
 10
823.3800524432
 20
451.7619398215
 30
0.0
 10
823.2873054008
 20
451.6928225257
 30
0.0
  0
SPLINE
  5
49A
100
AcDbEntity
  8
6_ALL_SURFS
100
AcDbSpline
 62
7
  6
CONTINUOUS
 70
0
 71
3
 72
10
 73
6
 74
0
 42
0.0000001
 43
0.0000001
 44
0.0000000001
 40
0.0
 40
0.0
 40
0.0
 40
0.0
 40
0.4973879441
 40
0.7560060218
 40
1.0
 40
1.0
 40
1.0
 40
1.0
 10
582.8770429863
 20
451.6928225257
 30
0.0
 10
582.7842959439
 20
451.7619398215
 30
0.0
 10
582.6548127794
 20
451.9184319296
 30
0.0
 10
582.6932417234
 20
452.1631276392
 30
0.0
 10
582.7712707607
 20
452.255560719
 30
0.0
 10
582.8140624783
 20
452.2928225257
 30
0.0
  0
SPLINE
  5
49B
100
AcDbEntity
  8
6_ALL_SURFS
100
AcDbSpline
 62
7
  6
CONTINUOUS
 70
0
 71
3
 72
10
 73
6
 74
0
 42
0.0000001
 43
0.0000001
 44
0.0000000001
 40
0.0
 40
0.0
 40
0.0
 40
0.0
 40
0.2439939782
 40
0.5026120559
 40
1.0
 40
1.0
 40
1.0
 40
1.0
 10
1073.3502859088
 20
452.2928225257
 30
0.0
 10
1073.3930776264
 20
452.255560719
 30
0.0
 10
1073.4711066637
 20
452.1631276392
 30
0.0
 10
1073.5095356077
 20
451.9184319296
 30
0.0
 10
1073.3800524432
 20
451.7619398215
 30
0.0
 10
1073.2873054008
 20
451.6928225257
 30
0.0
  0
SPLINE
  5
49C
100
AcDbEntity
  8
6_ALL_SURFS
100
AcDbSpline
 62
7
  6
CONTINUOUS
 70
0
 71
3
 72
10
 73
6
 74
0
 42
0.0000001
 43
0.0000001
 44
0.0000000001
 40
0.0
 40
0.0
 40
0.0
 40
0.0
 40
0.4973879441
 40
0.7560060218
 40
1.0
 40
1.0
 40
1.0
 40
1.0
 10
832.8770429863
 20
451.6928225257
 30
0.0
 10
832.7842959439
 20
451.7619398215
 30
0.0
 10
832.6548127794
 20
451.9184319296
 30
0.0
 10
832.6932417234
 20
452.1631276392
 30
0.0
 10
832.7712707607
 20
452.255560719
 30
0.0
 10
832.8140624783
 20
452.2928225257
 30
0.0
  0
SPLINE
  5
49D
100
AcDbEntity
  8
7_ALL_FEATURES
100
AcDbSpline
 62
7
  6
CONTINUOUS
 70
0
 71
3
 72
13
 73
9
 74
0
 42
0.0000001
 43
0.0000001
 44
0.0000000001
 40
0.0
 40
0.0
 40
0.0
 40
0.0
 40
0.1147840388
 40
0.2361807099
 40
0.3645312554
 40
0.4945424888
 40
0.7503752652
 40
1.0
 40
1.0
 40
1.0
 40
1.0
 10
1081.9797076109
 20
356.3928225257
 30
0.0
 10
1081.9593143037
 20
356.3696773569
 30
0.0
 10
1081.9244431737
 20
356.3140323948
 30
0.0
 10
1081.9176093116
 20
356.2122670051
 30
0.0
 10
1081.9556124754
 20
356.1152164389
 30
0.0
 10
1082.0378204597
 20
356.0031866882
 30
0.0
 10
1082.1699501813
 20
355.8920192622
 30
0.0
 10
1082.2873713031
 20
355.8230964123
 30
0.0
 10
1082.347237703
 20
355.7928225257
 30
0.0
  0
SPLINE
  5
49E
100
AcDbEntity
  8
7_ALL_FEATURES
100
AcDbSpline
 62
7
  6
CONTINUOUS
 70
0
 71
3
 72
13
 73
9
 74
0
 42
0.0000001
 43
0.0000001
 44
0.0000000001
 40
0.0
 40
0.0
 40
0.0
 40
0.0
 40
0.1147840388
 40
0.2361807099
 40
0.3645312554
 40
0.4945424888
 40
0.7503752652
 40
1.0
 40
1.0
 40
1.0
 40
1.0
 10
831.9797076109
 20
356.3928225257
 30
0.0
 10
831.9593143037
 20
356.3696773569
 30
0.0
 10
831.9244431737
 20
356.3140323948
 30
0.0
 10
831.9176093116
 20
356.2122670051
 30
0.0
 10
831.9556124754
 20
356.1152164389
 30
0.0
 10
832.0378204597
 20
356.0031866882
 30
0.0
 10
832.1699501813
 20
355.8920192622
 30
0.0
 10
832.2873713031
 20
355.8230964123
 30
0.0
 10
832.347237703
 20
355.7928225257
 30
0.0
  0
SPLINE
  5
49F
100
AcDbEntity
  8
7_ALL_FEATURES
100
AcDbSpline
 62
7
  6
CONTINUOUS
 70
0
 71
3
 72
13
 73
9
 74
0
 42
0.0000001
 43
0.0000001
 44
0.0000000001
 40
0.0
 40
0.0
 40
0.0
 40
0.0
 40
0.249624324
 40
0.5054548963
 40
0.6354632106
 40
0.7638096095
 40
0.8852075555
 40
1.0
 40
1.0
 40
1.0
 40
1.0
 10
1073.8171106841
 20
355.7928225257
 30
0.0
 10
1073.8769769486
 20
355.8230963439
 30
0.0
 10
1073.9943975327
 20
355.8920187192
 30
0.0
 10
1074.1265255709
 20
356.0031852463
 30
0.0
 10
1074.2087335746
 20
356.1152119318
 30
0.0
 10
1074.2467364677
 20
356.2122603978
 30
0.0
 10
1074.2399073063
 20
356.3140273422
 30
0.0
 10
1074.2050355643
 20
356.3696756762
 30
0.0
 10
1074.1846407761
 20
356.3928225257
 30
0.0
  0
SPLINE
  5
4A0
100
AcDbEntity
  8
7_ALL_FEATURES
100
AcDbSpline
 62
7
  6
CONTINUOUS
 70
0
 71
3
 72
13
 73
9
 74
0
 42
0.0000001
 43
0.0000001
 44
0.0000000001
 40
0.0
 40
0.0
 40
0.0
 40
0.0
 40
0.1147840388
 40
0.2361807099
 40
0.3645312554
 40
0.4945424888
 40
0.7503752652
 40
1.0
 40
1.0
 40
1.0
 40
1.0
 10
581.9797076109
 20
356.3928225257
 30
0.0
 10
581.9593143037
 20
356.3696773569
 30
0.0
 10
581.9244431737
 20
356.3140323948
 30
0.0
 10
581.9176093116
 20
356.2122670051
 30
0.0
 10
581.9556124754
 20
356.1152164389
 30
0.0
 10
582.0378204597
 20
356.0031866882
 30
0.0
 10
582.1699501813
 20
355.8920192622
 30
0.0
 10
582.2873713031
 20
355.8230964123
 30
0.0
 10
582.347237703
 20
355.7928225257
 30
0.0
  0
SPLINE
  5
4A1
100
AcDbEntity
  8
7_ALL_FEATURES
100
AcDbSpline
 62
7
  6
CONTINUOUS
 70
0
 71
3
 72
13
 73
9
 74
0
 42
0.0000001
 43
0.0000001
 44
0.0000000001
 40
0.0
 40
0.0
 40
0.0
 40
0.0
 40
0.249624324
 40
0.5054548963
 40
0.6354632106
 40
0.7638096095
 40
0.8852075555
 40
1.0
 40
1.0
 40
1.0
 40
1.0
 10
823.8171106841
 20
355.7928225257
 30
0.0
 10
823.8769769486
 20
355.8230963439
 30
0.0
 10
823.9943975327
 20
355.8920187192
 30
0.0
 10
824.1265255709
 20
356.0031852463
 30
0.0
 10
824.2087335746
 20
356.1152119318
 30
0.0
 10
824.2467364677
 20
356.2122603978
 30
0.0
 10
824.2399073063
 20
356.3140273422
 30
0.0
 10
824.2050355643
 20
356.3696756762
 30
0.0
 10
824.1846407761
 20
356.3928225257
 30
0.0
  0
SPLINE
  5
4A2
100
AcDbEntity
  8
7_ALL_FEATURES
100
AcDbSpline
 62
7
  6
CONTINUOUS
 70
0
 71
3
 72
13
 73
9
 74
0
 42
0.0000001
 43
0.0000001
 44
0.0000000001
 40
0.0
 40
0.0
 40
0.0
 40
0.0
 40
0.1147840388
 40
0.2361807099
 40
0.3645312554
 40
0.4945424888
 40
0.7503752652
 40
1.0
 40
1.0
 40
1.0
 40
1.0
 10
331.9797076109
 20
356.3928225257
 30
0.0
 10
331.9593143037
 20
356.3696773569
 30
0.0
 10
331.9244431737
 20
356.3140323948
 30
0.0
 10
331.9176093116
 20
356.2122670051
 30
0.0
 10
331.9556124754
 20
356.1152164389
 30
0.0
 10
332.0378204597
 20
356.0031866882
 30
0.0
 10
332.1699501813
 20
355.8920192622
 30
0.0
 10
332.2873713031
 20
355.8230964123
 30
0.0
 10
332.347237703
 20
355.7928225257
 30
0.0
  0
SPLINE
  5
4A3
100
AcDbEntity
  8
7_ALL_FEATURES
100
AcDbSpline
 62
7
  6
CONTINUOUS
 70
0
 71
3
 72
13
 73
9
 74
0
 42
0.0000001
 43
0.0000001
 44
0.0000000001
 40
0.0
 40
0.0
 40
0.0
 40
0.0
 40
0.249624324
 40
0.5054548963
 40
0.6354632106
 40
0.7638096095
 40
0.8852075555
 40
1.0
 40
1.0
 40
1.0
 40
1.0
 10
573.8171106841
 20
355.7928225257
 30
0.0
 10
573.8769769486
 20
355.8230963439
 30
0.0
 10
573.9943975327
 20
355.8920187192
 30
0.0
 10
574.1265255709
 20
356.0031852463
 30
0.0
 10
574.2087335746
 20
356.1152119318
 30
0.0
 10
574.2467364677
 20
356.2122603978
 30
0.0
 10
574.2399073063
 20
356.3140273422
 30
0.0
 10
574.2050355643
 20
356.3696756762
 30
0.0
 10
574.1846407761
 20
356.3928225257
 30
0.0
  0
SPLINE
  5
4A4
100
AcDbEntity
  8
7_ALL_FEATURES
100
AcDbSpline
 62
7
  6
CONTINUOUS
 70
0
 71
3
 72
13
 73
9
 74
0
 42
0.0000001
 43
0.0000001
 44
0.0000000001
 40
0.0
 40
0.0
 40
0.0
 40
0.0
 40
0.249624324
 40
0.5054548963
 40
0.6354632106
 40
0.7638096095
 40
0.8852075555
 40
1.0
 40
1.0
 40
1.0
 40
1.0
 10
323.8171106841
 20
355.7928225257
 30
0.0
 10
323.8769769486
 20
355.8230963439
 30
0.0
 10
323.9943975327
 20
355.8920187192
 30
0.0
 10
324.1265255709
 20
356.0031852463
 30
0.0
 10
324.2087335746
 20
356.1152119318
 30
0.0
 10
324.2467364677
 20
356.2122603978
 30
0.0
 10
324.2399073063
 20
356.3140273422
 30
0.0
 10
324.2050355643
 20
356.3696756762
 30
0.0
 10
324.1846407761
 20
356.3928225257
 30
0.0
  0
SPLINE
  5
4A5
100
AcDbEntity
  8
7_ALL_FEATURES
100
AcDbSpline
 62
7
  6
CONTINUOUS
 70
0
 71
3
 72
10
 73
6
 74
0
 42
0.0000001
 43
0.0000001
 44
0.0000000001
 40
0.0
 40
0.0
 40
0.0
 40
0.0
 40
0.4973879441
 40
0.7560060218
 40
1.0
 40
1.0
 40
1.0
 40
1.0
 10
1082.8770429863
 20
353.3928225257
 30
0.0
 10
1082.7842959439
 20
353.3237052299
 30
0.0
 10
1082.6548127794
 20
353.1672131218
 30
0.0
 10
1082.6932417234
 20
352.9225174122
 30
0.0
 10
1082.7712707607
 20
352.8300843324
 30
0.0
 10
1082.8140624783
 20
352.7928225257
 30
0.0
  0
SPLINE
  5
4A6
100
AcDbEntity
  8
7_ALL_FEATURES
100
AcDbSpline
 62
7
  6
CONTINUOUS
 70
0
 71
3
 72
10
 73
6
 74
0
 42
0.0000001
 43
0.0000001
 44
0.0000000001
 40
0.0
 40
0.0
 40
0.0
 40
0.0
 40
0.4973879441
 40
0.7560060218
 40
1.0
 40
1.0
 40
1.0
 40
1.0
 10
832.8770429863
 20
353.3928225257
 30
0.0
 10
832.7842959439
 20
353.3237052299
 30
0.0
 10
832.6548127794
 20
353.1672131218
 30
0.0
 10
832.6932417234
 20
352.9225174122
 30
0.0
 10
832.7712707607
 20
352.8300843324
 30
0.0
 10
832.8140624783
 20
352.7928225257
 30
0.0
  0
SPLINE
  5
4A7
100
AcDbEntity
  8
7_ALL_FEATURES
100
AcDbSpline
 62
7
  6
CONTINUOUS
 70
0
 71
3
 72
10
 73
6
 74
0
 42
0.0000001
 43
0.0000001
 44
0.0000000001
 40
0.0
 40
0.0
 40
0.0
 40
0.0
 40
0.2439939782
 40
0.5026120559
 40
1.0
 40
1.0
 40
1.0
 40
1.0
 10
1073.3502859088
 20
352.7928225257
 30
0.0
 10
1073.3930776264
 20
352.8300843324
 30
0.0
 10
1073.4711066637
 20
352.9225174122
 30
0.0
 10
1073.5095356077
 20
353.1672131218
 30
0.0
 10
1073.3800524432
 20
353.3237052299
 30
0.0
 10
1073.2873054008
 20
353.3928225257
 30
0.0
  0
SPLINE
  5
4A8
100
AcDbEntity
  8
7_ALL_FEATURES
100
AcDbSpline
 62
7
  6
CONTINUOUS
 70
0
 71
3
 72
10
 73
6
 74
0
 42
0.0000001
 43
0.0000001
 44
0.0000000001
 40
0.0
 40
0.0
 40
0.0
 40
0.0
 40
0.4973879441
 40
0.7560060218
 40
1.0
 40
1.0
 40
1.0
 40
1.0
 10
582.8770429863
 20
353.3928225257
 30
0.0
 10
582.7842959439
 20
353.3237052299
 30
0.0
 10
582.6548127794
 20
353.1672131218
 30
0.0
 10
582.6932417234
 20
352.9225174122
 30
0.0
 10
582.7712707607
 20
352.8300843324
 30
0.0
 10
582.8140624783
 20
352.7928225257
 30
0.0
  0
SPLINE
  5
4A9
100
AcDbEntity
  8
7_ALL_FEATURES
100
AcDbSpline
 62
7
  6
CONTINUOUS
 70
0
 71
3
 72
10
 73
6
 74
0
 42
0.0000001
 43
0.0000001
 44
0.0000000001
 40
0.0
 40
0.0
 40
0.0
 40
0.0
 40
0.2439939782
 40
0.5026120559
 40
1.0
 40
1.0
 40
1.0
 40
1.0
 10
823.3502859088
 20
352.7928225257
 30
0.0
 10
823.3930776264
 20
352.8300843324
 30
0.0
 10
823.4711066637
 20
352.9225174122
 30
0.0
 10
823.5095356077
 20
353.1672131218
 30
0.0
 10
823.3800524432
 20
353.3237052299
 30
0.0
 10
823.2873054008
 20
353.3928225257
 30
0.0
  0
SPLINE
  5
4AA
100
AcDbEntity
  8
7_ALL_FEATURES
100
AcDbSpline
 62
7
  6
CONTINUOUS
 70
0
 71
3
 72
10
 73
6
 74
0
 42
0.0000001
 43
0.0000001
 44
0.0000000001
 40
0.0
 40
0.0
 40
0.0
 40
0.0
 40
0.4973879441
 40
0.7560060218
 40
1.0
 40
1.0
 40
1.0
 40
1.0
 10
332.8770429863
 20
353.3928225257
 30
0.0
 10
332.7842959439
 20
353.3237052299
 30
0.0
 10
332.6548127794
 20
353.1672131218
 30
0.0
 10
332.6932417234
 20
352.9225174122
 30
0.0
 10
332.7712707607
 20
352.8300843324
 30
0.0
 10
332.8140624783
 20
352.7928225257
 30
0.0
  0
SPLINE
  5
4AB
100
AcDbEntity
  8
7_ALL_FEATURES
100
AcDbSpline
 62
7
  6
CONTINUOUS
 70
0
 71
3
 72
10
 73
6
 74
0
 42
0.0000001
 43
0.0000001
 44
0.0000000001
 40
0.0
 40
0.0
 40
0.0
 40
0.0
 40
0.2439939782
 40
0.5026120559
 40
1.0
 40
1.0
 40
1.0
 40
1.0
 10
573.3502859088
 20
352.7928225257
 30
0.0
 10
573.3930776264
 20
352.8300843324
 30
0.0
 10
573.4711066637
 20
352.9225174122
 30
0.0
 10
573.5095356077
 20
353.1672131218
 30
0.0
 10
573.3800524432
 20
353.3237052299
 30
0.0
 10
573.2873054008
 20
353.3928225257
 30
0.0
  0
SPLINE
  5
4AC
100
AcDbEntity
  8
7_ALL_FEATURES
100
AcDbSpline
 62
7
  6
CONTINUOUS
 70
0
 71
3
 72
10
 73
6
 74
0
 42
0.0000001
 43
0.0000001
 44
0.0000000001
 40
0.0
 40
0.0
 40
0.0
 40
0.0
 40
0.2439939782
 40
0.5026120559
 40
1.0
 40
1.0
 40
1.0
 40
1.0
 10
323.3502859088
 20
352.7928225257
 30
0.0
 10
323.3930776264
 20
352.8300843324
 30
0.0
 10
323.4711066637
 20
352.9225174122
 30
0.0
 10
323.5095356077
 20
353.1672131218
 30
0.0
 10
323.3800524432
 20
353.3237052299
 30
0.0
 10
323.2873054008
 20
353.3928225257
 30
0.0
  0
ELLIPSE
  5
4AD
100
AcDbEntity
  8
6_ALL_SURFS
100
AcDbEllipse
 62
7
  6
CONTINUOUS
 10
328.0821741935
 20
166.1242790188
 30
0.0
 11
5.4882058378
 21
0.0
 31
0.0
 40
0.1015346165
 41
0.9294607698
 42
2.2121318838
  0
ELLIPSE
  5
4AE
100
AcDbEntity
  8
6_ALL_SURFS
100
AcDbEllipse
 62
7
  6
CONTINUOUS
 10
578.0821741935
 20
166.1242790188
 30
0.0
 11
5.4882058378
 21
0.0
 31
0.0
 40
0.1015346165
 41
0.9294607698
 42
2.2121318838
  0
ELLIPSE
  5
4AF
100
AcDbEntity
  8
6_ALL_SURFS
100
AcDbEllipse
 62
7
  6
CONTINUOUS
 10
828.0821741935
 20
166.1242790188
 30
0.0
 11
5.4882058378
 21
0.0
 31
0.0
 40
0.1015346165
 41
0.9294607698
 42
2.2121318838
  0
ELLIPSE
  5
4B0
100
AcDbEntity
  8
6_ALL_SURFS
100
AcDbEllipse
 62
7
  6
CONTINUOUS
 10
1078.0821741935
 20
166.1242790188
 30
0.0
 11
5.4882058378
 21
0.0
 31
0.0
 40
0.1015346165
 41
0.9294607698
 42
2.2121318838
  0
ELLIPSE
  5
4B1
100
AcDbEntity
  8
6_ALL_SURFS
100
AcDbEllipse
 62
7
  6
CONTINUOUS
 10
328.0821741935
 20
450.5276495539
 30
0.0
 11
0.0
 21
5.5724287509
 31
0.0
 40
0.9848857802
 41
-0.641335557
 42
0.641335557
  0
ELLIPSE
  5
4B2
100
AcDbEntity
  8
6_ALL_SURFS
100
AcDbEllipse
 62
7
  6
CONTINUOUS
 10
578.0821741935
 20
450.5276495539
 30
0.0
 11
0.0
 21
5.5724287509
 31
0.0
 40
0.9848857802
 41
-0.641335557
 42
0.641335557
  0
ELLIPSE
  5
4B3
100
AcDbEntity
  8
6_ALL_SURFS
100
AcDbEllipse
 62
7
  6
CONTINUOUS
 10
828.0821741935
 20
450.5276495539
 30
0.0
 11
-0.0
 21
5.5724287509
 31
0.0
 40
0.9848857802
 41
-0.641335557
 42
0.641335557
  0
ELLIPSE
  5
4B4
100
AcDbEntity
  8
6_ALL_SURFS
100
AcDbEllipse
 62
7
  6
CONTINUOUS
 10
1078.0821741935
 20
450.5276495539
 30
0.0
 11
-0.0
 21
5.5724287509
 31
0.0
 40
0.9848857802
 41
-0.641335557
 42
0.641335557
  0
ELLIPSE
  5
4B5
100
AcDbEntity
  8
7_ALL_FEATURES
100
AcDbEllipse
 62
7
  6
CONTINUOUS
 10
1078.0821741935
 20
354.5579954975
 30
0.0
 11
0.0
 21
5.5724287509
 31
0.0
 40
0.9848857802
 41
-3.7829282106
 42
-2.5002570966
  0
ELLIPSE
  5
4B6
100
AcDbEntity
  8
7_ALL_FEATURES
100
AcDbEllipse
 62
7
  6
CONTINUOUS
 10
828.0821741935
 20
354.5579954975
 30
0.0
 11
0.0
 21
5.5724287509
 31
0.0
 40
0.9848857802
 41
-3.7829282106
 42
-2.5002570966
  0
ELLIPSE
  5
4B7
100
AcDbEntity
  8
7_ALL_FEATURES
100
AcDbEllipse
 62
7
  6
CONTINUOUS
 10
578.0821741935
 20
354.5579954975
 30
0.0
 11
0.0
 21
5.5724287509
 31
0.0
 40
0.9848857802
 41
-3.7829282106
 42
-2.5002570966
  0
ELLIPSE
  5
4B8
100
AcDbEntity
  8
7_ALL_FEATURES
100
AcDbEllipse
 62
7
  6
CONTINUOUS
 10
328.0821741935
 20
354.5579954975
 30
0.0
 11
-0.0
 21
5.5724287509
 31
0.0
 40
0.9848857802
 41
-3.7829282106
 42
-2.5002570966
  0
ENDSEC
  0
SECTION
  2
OBJECTS
  0
DICTIONARY
  5
4B9
100
AcDbDictionary
  3
ACAD_GROUP
350
4BA
  3
ACAD_MLINESTYLE
350
4BB
  0
DICTIONARY
  5
4BA
102
{ACAD_REACTORS
330
4B9
102
}
100
AcDbDictionary
  0
DICTIONARY
  5
4BB
102
{ACAD_REACTORS
330
4B9
102
}
100
AcDbDictionary
  3
STANDARD
350
4BC
  0
MLINESTYLE
  5
4BC
102
{ACAD_REACTORS
330
4BB
102
}
100
AcDbMlineStyle
  2
STANDARD
 70
0
  3

 62
256
 51
90.0
 52
90.0
 71
2
 49
0.5
 62
256
  6
BYLAYER
 49
-0.5
 62
256
  6
BYLAYER
  0
ENDSEC
  0
EOF
