999
DXF file: 6f4_c_249.dxf
999
Pro/ENGINEER 2016360 by Parametric Technology Corporation
  0
SECTION
  2
HEADER
  9
$ACADVER
  1
AC1014
  9
$DWGCODEPAGE
  3
ANSI_1252
  9
$EXTMAX
 10
1189.0
 20
841.0
 30
0.0
  9
$EXTMIN
 10
0.0
 20
0.0
 30
0.0
  9
$LIMMIN
 10
0.0
 20
0.0
  9
$LIMMAX
 10
1189.0
 20
841.0
  9
$VIEWCTR
 10
594.5
 20
420.5
  9
$VIEWSIZE
 40
841.0
  9
$CLAYER
  8
0
  9
$LTSCALE
 40
65.395
  9
$CELTYPE
  6
BYLAYER
  9
$DIMSCALE
 40
1.0
  9
$DIMASZ
 40
2.5
  9
$DIMEXO
 40
0.75
  9
$DIMDLI
 40
45.182
  9
$DIMEXE
 40
0.75
  9
$DIMCEN
 40
10.701
  9
$DIMLFAC
 40
1.0
  9
$DIMBLK
  1
_CLOSED
  9
$DIMALT
 70
0
  9
$DIMALTF
 40
25.4
  9
$DIMTXT
 40
3.0
  9
$DIMTOL
 70
1
  9
$DIMLIM
 70
0
  9
$DIMTFAC
 40
1.0
  9
$DIMTP
 40
0.01
  9
$DIMTM
 40
0.01
  9
$DIMGAP
 40
0.625
  9
$AUNITS
 70
0
  9
$PDMODE
 70
3
  9
$PDSIZE
 40
0.3125
  9
$HANDSEED
  5
4CF
  9
$TILEMODE
 70
1
  9
$MEASUREMENT
 70
1
  0
ENDSEC
  0
SECTION
  2
CLASSES
  0
ENDSEC
  0
SECTION
  2
TABLES
  0
TABLE
  2
VPORT
  5
8
100
AcDbSymbolTable
 70
2
  0
VPORT
  5
1F4
100
AcDbSymbolTableRecord
100
AcDbViewportTableRecord
  2
*ACTIVE
 70
0
 10
0.0
 20
0.0
 11
1.0
 21
1.0
 12
594.5
 22
420.5
 13
0.0
 23
0.0
 14
1.0
 24
1.0
 15
0.0
 25
0.0
 16
0.0
 26
0.0
 36
1.0
 17
0.0
 27
0.0
 37
0.0
 40
841.0
 41
1.4137931034
 42
50.0
 43
0.0
 44
0.0
 50
0.0
 51
0.0
 71
0
 72
100
 73
1
 74
1
 75
0
 76
0
 77
0
 78
0
  0
ENDTAB
  0
TABLE
  2
LTYPE
  5
5
100
AcDbSymbolTable
 70
6
  0
LTYPE
  5
14
100
AcDbSymbolTableRecord
100
AcDbLinetypeTableRecord
  2
BYBLOCK
 70
0
  3

 72
65
 73
0
 40
0.0
  0
LTYPE
  5
15
100
AcDbSymbolTableRecord
100
AcDbLinetypeTableRecord
  2
BYLAYER
 70
0
  3

 72
65
 73
0
 40
0.0
  0
LTYPE
  5
16
100
AcDbSymbolTableRecord
100
AcDbLinetypeTableRecord
  2
CONTINUOUS
 70
64
  3
Solid line
 72
65
 73
0
 40
0.0
  0
LTYPE
  5
1F5
100
AcDbSymbolTableRecord
100
AcDbLinetypeTableRecord
  2
CENTER
 70
64
  3
____ _ ____ _ ____ _ ____ _ ____ _ ____ _ ____
 72
65
 73
4
 40
0.6
 49
0.375
 74
0
 49
-0.075
 74
0
 49
0.075
 74
0
 49
-0.075
 74
0
  0
LTYPE
  5
1F6
100
AcDbSymbolTableRecord
100
AcDbLinetypeTableRecord
  2
HIDDEN
 70
64
  3
- - - - - - - - - - - - - - - - - - - -
 72
65
 73
2
 40
0.2
 49
0.1
 74
0
 49
-0.1
 74
0
  0
LTYPE
  5
1F7
100
AcDbSymbolTableRecord
100
AcDbLinetypeTableRecord
  2
PHANTOM
 70
64
  3
_____ _ _ _____ _ _ _____ _ _ _____
 72
65
 73
6
 40
0.8
 49
0.45
 74
0
 49
-0.05
 74
0
 49
0.1
 74
0
 49
-0.05
 74
0
 49
0.1
 74
0
 49
-0.05
 74
0
  0
LTYPE
  5
1F8
100
AcDbSymbolTableRecord
100
AcDbLinetypeTableRecord
  2
DOT
 70
64
  3
. . . . . . . . . . . . . . . . . . . .
 72
65
 73
2
 40
0.2
 49
0.1
 74
0
 49
-0.1
 74
0
  0
LTYPE
  5
1F9
100
AcDbSymbolTableRecord
100
AcDbLinetypeTableRecord
  2
DASHED
 70
64
  3
- - - - - - - - - - - - - - - - - - - -
 72
65
 73
2
 40
0.2
 49
0.1
 74
0
 49
-0.1
 74
0
  0
ENDTAB
  0
TABLE
  2
LAYER
  5
2
100
AcDbSymbolTable
 70
36
  0
LAYER
  5
10
100
AcDbSymbolTableRecord
100
AcDbLayerTableRecord
  2
0
 70
0
 62
7
  6
CONTINUOUS
  0
LAYER
  5
1FA
100
AcDbSymbolTableRecord
100
AcDbLayerTableRecord
  2
DEFAULT_1
 70
0
 62
7
  6
CENTER
  0
LAYER
  5
1FB
100
AcDbSymbolTableRecord
100
AcDbLayerTableRecord
  2
DEFAULT_2
 70
0
 62
8
  6
HIDDEN
  0
LAYER
  5
1FC
100
AcDbSymbolTableRecord
100
AcDbLayerTableRecord
  2
DEFAULT_3
 70
0
 62
7
  6
PHANTOM
  0
LAYER
  5
1FD
100
AcDbSymbolTableRecord
100
AcDbLayerTableRecord
  2
1_ALL_PLANES
 70
0
 62
7
  6
CONTINUOUS
  0
LAYER
  5
1FE
100
AcDbSymbolTableRecord
100
AcDbLayerTableRecord
  2
2_ALL_CSYS
 70
0
 62
7
  6
CONTINUOUS
  0
LAYER
  5
1FF
100
AcDbSymbolTableRecord
100
AcDbLayerTableRecord
  2
3_ALL_AXES
 70
0
 62
7
  6
CONTINUOUS
  0
LAYER
  5
200
100
AcDbSymbolTableRecord
100
AcDbLayerTableRecord
  2
4_ALL_POINTS
 70
0
 62
7
  6
CONTINUOUS
  0
LAYER
  5
201
100
AcDbSymbolTableRecord
100
AcDbLayerTableRecord
  2
5_ALL_CURVES
 70
0
 62
7
  6
CONTINUOUS
  0
LAYER
  5
202
100
AcDbSymbolTableRecord
100
AcDbLayerTableRecord
  2
5__COSTRUZIONE
 70
0
 62
7
  6
CONTINUOUS
  0
LAYER
  5
203
100
AcDbSymbolTableRecord
100
AcDbLayerTableRecord
  2
6_ALL_SURFS
 70
0
 62
7
  6
CONTINUOUS
  0
LAYER
  5
204
100
AcDbSymbolTableRecord
100
AcDbLayerTableRecord
  2
7_ALL_FEATURES
 70
0
 62
7
  6
CONTINUOUS
  0
LAYER
  5
205
100
AcDbSymbolTableRecord
100
AcDbLayerTableRecord
  2
9_SOLID
 70
0
 62
7
  6
CONTINUOUS
  0
LAYER
  5
206
100
AcDbSymbolTableRecord
100
AcDbLayerTableRecord
  2
PR9037
 70
0
 62
7
  6
CONTINUOUS
  0
LAYER
  5
207
100
AcDbSymbolTableRecord
100
AcDbLayerTableRecord
  2
WHITE
 70
0
 62
7
  6
CONTINUOUS
  0
LAYER
  5
208
100
AcDbSymbolTableRecord
100
AcDbLayerTableRecord
  2
XXX_SOLIDO
 70
0
 62
7
  6
CONTINUOUS
  0
ENDTAB
  0
TABLE
  2
STYLE
  5
3
100
AcDbSymbolTable
 70
1
  0
STYLE
  5
11
100
AcDbSymbolTableRecord
100
AcDbTextStyleTableRecord
  2
STANDARD
 70
0
 40
0.0
 41
1.0
 50
0.0
 71
0
 42
0.2
  3
arial.ttf
  4

  0
STYLE
  5
209
100
AcDbSymbolTableRecord
100
AcDbTextStyleTableRecord
  2
TEXTSTYLE_1
 70
0
 40
0.0
 41
0.8
 50
0.0
 71
0
 42
0.2
  3
gdt
  4

  0
STYLE
  5
20A
100
AcDbSymbolTableRecord
100
AcDbTextStyleTableRecord
  2
TEXTSTYLE_2
 70
0
 40
0.0
 41
0.85
 50
0.0
 71
0
 42
0.2
  3
txt
  4

  0
ENDTAB
  0
TABLE
  2
VIEW
  5
6
100
AcDbSymbolTable
 70
0
  0
ENDTAB
  0
TABLE
  2
UCS
  5
7
100
AcDbSymbolTable
 70
0
  0
ENDTAB
  0
TABLE
  2
APPID
  5
9
100
AcDbSymbolTable
 70
1
  0
APPID
  5
20B
100
AcDbSymbolTableRecord
100
AcDbRegAppTableRecord
  2
ACAD
 70
0
  0
ENDTAB
  0
TABLE
  2
BLOCK_RECORD
  5
1
100
AcDbSymbolTable
 70
0
  0
BLOCK_RECORD
  5
1F
100
AcDbSymbolTableRecord
100
AcDbBlockTableRecord
  2
*MODEL_SPACE
  0
BLOCK_RECORD
  5
1B
100
AcDbSymbolTableRecord
100
AcDbBlockTableRecord
  2
*PAPER_SPACE
  0
BLOCK_RECORD
  5
20C
100
AcDbSymbolTableRecord
100
AcDbBlockTableRecord
  2
_CLOSED
  0
BLOCK_RECORD
  5
20D
100
AcDbSymbolTableRecord
100
AcDbBlockTableRecord
  2
*D0
  0
BLOCK_RECORD
  5
20E
100
AcDbSymbolTableRecord
100
AcDbBlockTableRecord
  2
*D1
  0
BLOCK_RECORD
  5
20F
100
AcDbSymbolTableRecord
100
AcDbBlockTableRecord
  2
*D2
  0
BLOCK_RECORD
  5
210
100
AcDbSymbolTableRecord
100
AcDbBlockTableRecord
  2
*D3
  0
BLOCK_RECORD
  5
211
100
AcDbSymbolTableRecord
100
AcDbBlockTableRecord
  2
LOGO2_BL0
  0
ENDTAB
  0
TABLE
  2
DIMSTYLE
  5
A
100
AcDbSymbolTable
 70
1
  0
DIMSTYLE
105
212
100
AcDbSymbolTableRecord
100
AcDbDimStyleTableRecord
  2
STANDARD
 70
0
  3

  4

  5
_CLOSED
  6
_CLOSED
  7
_CLOSED
 40
1.0
 41
2.5
 42
0.75
 43
0.38
 44
0.75
 45
0.0
 46
0.0
 47
0.01
 48
0.01
140
3.0
141
0.09
142
0.0
143
25.4
144
1.0
145
0.0
146
1.0
147
0.625
 71
1.0
 72
0.0
 73
0
 74
0
 75
0
 76
0
 77
1
 78
8
 79
2
170
0
171
1
172
0
173
0
174
0
175
0
176
0
177
0
178
0
270
2
179
2
271
2
272
2
273
2
274
2
275
0
280
0
281
0
282
0
283
1
284
8
285
0
286
0
287
3
288
0
340
11
  0
DIMSTYLE
105
213
100
AcDbSymbolTableRecord
100
AcDbDimStyleTableRecord
  2
DIMSTYLE_1
 70
0
  3

  4

  5
_CLOSED
  6
_CLOSED
  7
_CLOSED
 40
1.0
 41
2.5
 42
0.75
 43
0.38
 44
0.75
 45
0.0
 46
0.0
 47
0.3
 48
0.3
140
10.0
141
0.09
142
0.0
143
25.4
144
1.0
145
0.0
146
1.0
147
2.5
 71
0.0
 72
0.0
 73
0
 74
0
 75
0
 76
0
 77
1
 78
8
 79
2
170
0
171
1
172
0
173
0
174
0
175
0
176
0
177
0
178
0
270
2
179
2
271
2
272
2
273
2
274
2
275
0
280
0
281
0
282
0
283
1
284
8
285
0
286
0
287
3
288
0
340
11
  0
DIMSTYLE
105
214
100
AcDbSymbolTableRecord
100
AcDbDimStyleTableRecord
  2
DIMSTYLE_2
 70
0
  3

  4

  5
_CLOSED
  6
_CLOSED
  7
_CLOSED
 40
1.0
 41
2.5
 42
0.75
 43
0.38
 44
0.75
 45
0.0
 46
0.0
 47
0.8
 48
0.8
140
10.0
141
0.09
142
0.0
143
25.4
144
1.0
145
0.0
146
1.0
147
2.5
 71
0.0
 72
0.0
 73
0
 74
0
 75
0
 76
0
 77
1
 78
8
 79
2
170
0
171
1
172
0
173
0
174
0
175
0
176
0
177
0
178
0
270
2
179
2
271
2
272
2
273
2
274
2
275
0
280
0
281
0
282
0
283
1
284
8
285
0
286
0
287
3
288
0
340
11
  0
ENDTAB
  0
ENDSEC
  0
SECTION
  2
BLOCKS
  0
BLOCK
  5
20
100
AcDbEntity
  8
0
100
AcDbBlockBegin
  2
*MODEL_SPACE
 70
0
 10
0.0
 20
0.0
 30
0.0
  3
*MODEL_SPACE
  1

  0
ENDBLK
  5
21
100
AcDbEntity
  8
0
100
AcDbBlockEnd
  0
BLOCK
  5
1C
100
AcDbEntity
  8
0
100
AcDbBlockBegin
  2
*PAPER_SPACE
 70
0
 10
0.0
 20
0.0
 30
0.0
  3
*PAPER_SPACE
  1

  0
ENDBLK
  5
1D
100
AcDbEntity
  8
0
100
AcDbBlockEnd
  0
BLOCK
  5
215
100
AcDbEntity
  8
0
100
AcDbBlockBegin
 62
2
  6
CONTINUOUS
  2
LOGO2_BL0
 70
64
 10
1102.8066660318
 20
36.5195544423
  3
LOGO2_BL0
  1

  0
LINE
  5
216
100
AcDbEntity
  8
0
100
AcDbLine
 62
7
  6
CONTINUOUS
 10
1094.54959126
 20
39.7150457811
 11
1093.2452503307
 21
39.7150457811
  0
LINE
  5
217
100
AcDbEntity
  8
0
100
AcDbLine
 62
7
  6
CONTINUOUS
 10
1093.2452503307
 20
39.7150457811
 11
1093.2452503307
 21
29.2559797212
  0
LINE
  5
218
100
AcDbEntity
  8
0
100
AcDbLine
 62
7
  6
CONTINUOUS
 10
1093.2452503307
 20
29.2559797212
 11
1097.7263052189
 21
29.2559797212
  0
LINE
  5
219
100
AcDbEntity
  8
0
100
AcDbLine
 62
7
  6
CONTINUOUS
 10
1097.7263052189
 20
29.2559797212
 11
1097.7263052189
 21
30.4488340463
  0
LINE
  5
21A
100
AcDbEntity
  8
0
100
AcDbLine
 62
7
  6
CONTINUOUS
 10
1097.7263052189
 20
30.4488340463
 11
1094.54959126
 21
30.4488340463
  0
LINE
  5
21B
100
AcDbEntity
  8
0
100
AcDbLine
 62
7
  6
CONTINUOUS
 10
1094.54959126
 20
30.4488340463
 11
1094.54959126
 21
39.7150457811
  0
LINE
  5
21C
100
AcDbEntity
  8
0
100
AcDbLine
 62
7
  6
CONTINUOUS
 10
1109.4859174763
 20
39.7150457811
 11
1108.1820999583
 21
39.7150457811
  0
LINE
  5
21D
100
AcDbEntity
  8
0
100
AcDbLine
 62
7
  6
CONTINUOUS
 10
1108.1820999583
 20
39.7150457811
 11
1108.1820999583
 21
29.2559797212
  0
LINE
  5
21E
100
AcDbEntity
  8
0
100
AcDbLine
 62
7
  6
CONTINUOUS
 10
1108.1820999583
 20
29.2559797212
 11
1112.6632856994
 21
29.2559797212
  0
LINE
  5
21F
100
AcDbEntity
  8
0
100
AcDbLine
 62
7
  6
CONTINUOUS
 10
1112.6632856994
 20
29.2559797212
 11
1112.6632856994
 21
30.4488340463
  0
LINE
  5
220
100
AcDbEntity
  8
0
100
AcDbLine
 62
7
  6
CONTINUOUS
 10
1112.6632856994
 20
30.4488340463
 11
1109.4859174763
 21
30.4488340463
  0
LINE
  5
221
100
AcDbEntity
  8
0
100
AcDbLine
 62
7
  6
CONTINUOUS
 10
1109.4859174763
 20
30.4488340463
 11
1109.4859174763
 21
39.7150457811
  0
LWPOLYLINE
  5
222
100
AcDbEntity
  8
0
100
AcDbPolyline
 62
7
  6
CONTINUOUS
 90
2
 70
0
 43
0.2
 10
1091.5996452416
 20
25.9124284143
 10
1091.5996452416
 20
24.055365165
  0
LWPOLYLINE
  5
223
100
AcDbEntity
  8
0
100
AcDbPolyline
 62
7
  6
CONTINUOUS
 90
2
 70
0
 43
0.2
 10
1091.5996452416
 20
24.055365165
 10
1092.395361252
 20
24.055365165
  0
LWPOLYLINE
  5
224
100
AcDbEntity
  8
0
100
AcDbPolyline
 62
7
  6
CONTINUOUS
 90
2
 70
0
 43
0.2
 10
1092.395361252
 20
24.055365165
 10
1092.395361252
 20
24.2673467366
  0
LWPOLYLINE
  5
225
100
AcDbEntity
  8
0
100
AcDbPolyline
 62
7
  6
CONTINUOUS
 90
2
 70
0
 43
0.2
 10
1092.395361252
 20
24.2673467366
 10
1091.8312547365
 20
24.2673467366
  0
LWPOLYLINE
  5
226
100
AcDbEntity
  8
0
100
AcDbPolyline
 62
7
  6
CONTINUOUS
 90
2
 70
0
 43
0.2
 10
1091.8312547365
 20
24.2673467366
 10
1091.8312547365
 20
25.9124284143
  0
LWPOLYLINE
  5
227
100
AcDbEntity
  8
0
100
AcDbPolyline
 62
7
  6
CONTINUOUS
 90
2
 70
0
 43
0.2
 10
1091.8312547365
 20
25.9124284143
 10
1091.5996452416
 20
25.9124284143
  0
SPLINE
  5
228
100
AcDbEntity
  8
0
100
AcDbSpline
 62
7
  6
CONTINUOUS
 70
2
 71
3
 72
35
 73
31
 74
0
 42
0.0000001
 43
0.0000001
 44
0.0000000001
 40
0.0
 40
0.0
 40
0.0
 40
0.0
 40
1.0
 40
1.0
 40
1.0
 40
2.0
 40
2.0
 40
2.0
 40
3.0
 40
3.0
 40
3.0
 40
4.0
 40
4.0
 40
4.0
 40
5.0
 40
5.0
 40
5.0
 40
6.0
 40
6.0
 40
6.0
 40
7.0
 40
7.0
 40
7.0
 40
8.0
 40
8.0
 40
8.0
 40
9.0
 40
9.0
 40
9.0
 40
10.0
 40
10.0
 40
10.0
 40
10.0
 10
1093.7936545075
 20
25.2079168209
 30
0.0
 10
1093.7936545075
 20
25.2079168209
 30
0.0
 10
1093.7936545075
 20
24.5458015417
 30
0.0
 10
1093.7936545075
 20
24.5458015417
 30
0.0
 10
1093.7936545075
 20
24.2307079464
 30
0.0
 10
1093.9415181963
 20
24.0161093184
 30
0.0
 10
1094.2816046806
 20
24.0161093184
 30
0.0
 10
1094.6211677536
 20
24.0161093184
 30
0.0
 10
1094.7692931481
 20
24.2307079464
 30
0.0
 10
1094.7692931481
 20
24.5458015417
 30
0.0
 10
1094.7692931481
 20
24.5458015417
 30
0.0
 10
1094.7692931481
 20
25.2079168209
 30
0.0
 10
1094.7692931481
 20
25.2079168209
 30
0.0
 10
1094.7692931481
 20
25.2079168209
 30
0.0
 10
1094.5472359092
 20
25.2079168209
 30
0.0
 10
1094.5472359092
 20
25.2079168209
 30
0.0
 10
1094.5472359092
 20
25.2079168209
 30
0.0
 10
1094.5472359092
 20
24.5709252835
 30
0.0
 10
1094.5472359092
 20
24.5709252835
 30
0.0
 10
1094.5472359092
 20
24.3851142763
 30
0.0
 10
1094.5005214518
 20
24.2223333658
 30
0.0
 10
1094.2816046806
 20
24.2223333658
 30
0.0
 10
1094.0621644982
 20
24.2223333658
 30
0.0
 10
1094.0154500408
 20
24.3851142763
 30
0.0
 10
1094.0154500408
 20
24.5709252835
 30
0.0
 10
1094.0154500408
 20
24.5709252835
 30
0.0
 10
1094.0154500408
 20
25.2079168209
 30
0.0
 10
1094.0154500408
 20
25.2079168209
 30
0.0
 10
1094.0154500408
 20
25.2079168209
 30
0.0
 10
1093.7936545075
 20
25.2079168209
 30
0.0
 10
1093.7936545075
 20
25.2079168209
 30
0.0
  0
SPLINE
  5
229
100
AcDbEntity
  8
0
100
AcDbSpline
 62
7
  6
CONTINUOUS
 70
2
 71
3
 72
35
 73
31
 74
0
 42
0.0000001
 43
0.0000001
 44
0.0000000001
 40
0.0
 40
0.0
 40
0.0
 40
0.0
 40
1.0
 40
1.0
 40
1.0
 40
2.0
 40
2.0
 40
2.0
 40
3.0
 40
3.0
 40
3.0
 40
4.0
 40
4.0
 40
4.0
 40
5.0
 40
5.0
 40
5.0
 40
6.0
 40
6.0
 40
6.0
 40
7.0
 40
7.0
 40
7.0
 40
8.0
 40
8.0
 40
8.0
 40
9.0
 40
9.0
 40
9.0
 40
10.0
 40
10.0
 40
10.0
 40
10.0
 10
1097.1924257053
 20
25.1665673291
 30
0.0
 10
1097.1039691977
 20
25.2178616353
 30
0.0
 10
1096.990519801
 20
25.2429853771
 30
0.0
 10
1096.886884366
 20
25.2429853771
 30
0.0
 10
1096.5320115128
 20
25.2429853771
 30
0.0
 10
1096.2565663226
 20
24.9791860881
 30
0.0
 10
1096.2565663226
 20
24.6216961784
 30
0.0
 10
1096.2565663226
 20
24.2767681397
 30
0.0
 10
1096.5350211277
 20
24.0166327297
 30
0.0
 10
1096.8745842008
 20
24.0166327297
 30
0.0
 10
1096.990519801
 20
24.0166327297
 30
0.0
 10
1097.0912764739
 20
24.0386160038
 30
0.0
 10
1097.1924257053
 20
24.0925273664
 30
0.0
 10
1097.1924257053
 20
24.0925273664
 30
0.0
 10
1097.1924257053
 20
24.3751694619
 30
0.0
 10
1097.1924257053
 20
24.3751694619
 30
0.0
 10
1097.1085490464
 20
24.2820022526
 30
0.0
 10
1097.0050444643
 20
24.2228567771
 30
0.0
 10
1096.8769395515
 20
24.2228567771
 30
0.0
 10
1096.6432364115
 20
24.2228567771
 30
0.0
 10
1096.4779692974
 20
24.3950590908
 30
0.0
 10
1096.4779692974
 20
24.6316409929
 30
0.0
 10
1096.4779692974
 20
24.8436225645
 30
0.0
 10
1096.6457226151
 20
25.0357145071
 30
0.0
 10
1096.8625457411
 20
25.0357145071
 30
0.0
 10
1096.9953613554
 20
25.0357145071
 30
0.0
 10
1097.1039691977
 20
24.9818031445
 30
0.0
 10
1097.1924257053
 20
24.8807847659
 30
0.0
 10
1097.1924257053
 20
24.8807847659
 30
0.0
 10
1097.1924257053
 20
25.1665673291
 30
0.0
 10
1097.1924257053
 20
25.1665673291
 30
0.0
  0
SPLINE
  5
22A
100
AcDbEntity
  8
0
100
AcDbSpline
 62
7
  6
CONTINUOUS
 70
2
 71
3
 72
32
 73
28
 74
0
 42
0.0000001
 43
0.0000001
 44
0.0000000001
 40
0.0
 40
0.0
 40
0.0
 40
0.0
 40
1.0
 40
1.0
 40
1.0
 40
2.0
 40
2.0
 40
2.0
 40
3.0
 40
3.0
 40
3.0
 40
4.0
 40
4.0
 40
4.0
 40
5.0
 40
5.0
 40
5.0
 40
6.0
 40
6.0
 40
6.0
 40
7.0
 40
7.0
 40
7.0
 40
8.0
 40
8.0
 40
8.0
 40
9.0
 40
9.0
 40
9.0
 40
9.0
 10
1099.7242969576
 20
24.5950022028
 30
0.0
 10
1099.7242969576
 20
24.5950022028
 30
0.0
 10
1099.7242969576
 20
24.6290239365
 30
0.0
 10
1099.7242969576
 20
24.6290239365
 30
0.0
 10
1099.7242969576
 20
24.9713349187
 30
0.0
 10
1099.5514403797
 20
25.2429853771
 30
0.0
 10
1099.1847907726
 20
25.2429853771
 30
0.0
 10
1098.8131687582
 20
25.2429853771
 30
0.0
 10
1098.6234321663
 20
24.9765690316
 30
0.0
 10
1098.6234321663
 20
24.6216961784
 30
0.0
 10
1098.6234321663
 20
24.2820022526
 30
0.0
 10
1098.8375073831
 20
24.0161093184
 30
0.0
 10
1099.189632327
 20
24.0161093184
 30
0.0
 10
1099.4136523582
 20
24.0161093184
 30
0.0
 10
1099.6158199681
 20
24.131783213
 30
0.0
 10
1099.7242969576
 20
24.3312029137
 30
0.0
 10
1099.7242969576
 20
24.3312029137
 30
0.0
 10
1099.5366540109
 20
24.4379788164
 30
0.0
 10
1099.5366540109
 20
24.4379788164
 30
0.0
 10
1099.4531699104
 20
24.2992748251
 30
0.0
 10
1099.3619654935
 20
24.2134353739
 30
0.0
 10
1099.1923802363
 20
24.2134353739
 30
0.0
 10
1098.9803986647
 20
24.2134353739
 30
0.0
 10
1098.8474521976
 20
24.3981995585
 30
0.0
 10
1098.8450968468
 20
24.5950022028
 30
0.0
 10
1098.8450968468
 20
24.5950022028
 30
0.0
 10
1099.7242969576
 20
24.5950022028
 30
0.0
 10
1099.7242969576
 20
24.5950022028
 30
0.0
  0
SPLINE
  5
22B
100
AcDbEntity
  8
0
100
AcDbSpline
 62
7
  6
CONTINUOUS
 70
2
 71
3
 72
14
 73
10
 74
0
 42
0.0000001
 43
0.0000001
 44
0.0000000001
 40
0.0
 40
0.0
 40
0.0
 40
0.0
 40
1.0
 40
1.0
 40
1.0
 40
2.0
 40
2.0
 40
2.0
 40
3.0
 40
3.0
 40
3.0
 40
3.0
 10
1098.8571353064
 20
24.7624938149
 30
0.0
 10
1098.8847452518
 20
24.9273683706
 30
0.0
 10
1099.0125884589
 20
25.0503700232
 30
0.0
 10
1099.1847907726
 20
25.0503700232
 30
0.0
 10
1099.3619654935
 20
25.0503700232
 30
0.0
 10
1099.4754148902
 20
24.9346961286
 30
0.0
 10
1099.5026322771
 20
24.7624938149
 30
0.0
 10
1099.5026322771
 20
24.7624938149
 30
0.0
 10
1098.8571353064
 20
24.7624938149
 30
0.0
 10
1098.8571353064
 20
24.7624938149
 30
0.0
  0
SPLINE
  5
22C
100
AcDbEntity
  8
0
100
AcDbSpline
 62
7
  6
CONTINUOUS
 70
2
 71
3
 72
20
 73
16
 74
0
 42
0.0000001
 43
0.0000001
 44
0.0000000001
 40
0.0
 40
0.0
 40
0.0
 40
0.0
 40
1.0
 40
1.0
 40
1.0
 40
2.0
 40
2.0
 40
2.0
 40
3.0
 40
3.0
 40
3.0
 40
4.0
 40
4.0
 40
4.0
 40
5.0
 40
5.0
 40
5.0
 40
5.0
 10
1101.7483284078
 20
24.97185833
 30
0.0
 10
1101.7483284078
 20
24.97185833
 30
0.0
 10
1102.1594679744
 20
24.4693834937
 30
0.0
 10
1102.1594679744
 20
24.4693834937
 30
0.0
 10
1102.0434015213
 20
24.3537095991
 30
0.0
 10
1101.9056134998
 20
24.2233801884
 30
0.0
 10
1101.7336728917
 20
24.2233801884
 30
0.0
 10
1101.5562364651
 20
24.2233801884
 30
0.0
 10
1101.388744853
 20
24.3877313328
 30
0.0
 10
1101.388744853
 20
24.5646443481
 30
0.0
 10
1101.388744853
 20
24.7426041859
 30
0.0
 10
1101.5985019266
 20
24.8687463063
 30
0.0
 10
1101.726083428
 20
24.9566794027
 30
0.0
 10
1101.726083428
 20
24.9566794027
 30
0.0
 10
1101.7483284078
 20
24.97185833
 30
0.0
 10
1101.7483284078
 20
24.97185833
 30
0.0
  0
SPLINE
  5
22D
100
AcDbEntity
  8
0
100
AcDbSpline
 62
7
  6
CONTINUOUS
 70
2
 71
3
 72
23
 73
19
 74
0
 42
0.0000001
 43
0.0000001
 44
0.0000000001
 40
0.0
 40
0.0
 40
0.0
 40
0.0
 40
1.0
 40
1.0
 40
1.0
 40
2.0
 40
2.0
 40
2.0
 40
3.0
 40
3.0
 40
3.0
 40
4.0
 40
4.0
 40
4.0
 40
5.0
 40
5.0
 40
5.0
 40
6.0
 40
6.0
 40
6.0
 40
6.0
 10
1101.7976599216
 20
25.2628750061
 30
0.0
 10
1101.7976599216
 20
25.2628750061
 30
0.0
 10
1101.7360282425
 20
25.3413866993
 30
0.0
 10
1101.7360282425
 20
25.3413866993
 30
0.0
 10
1101.6821168798
 20
25.409953578
 30
0.0
 10
1101.6253267551
 20
25.479043868
 30
0.0
 10
1101.6253267551
 20
25.5727344885
 30
0.0
 10
1101.6253267551
 20
25.6915488509
 30
0.0
 10
1101.7212418736
 20
25.7690137215
 30
0.0
 10
1101.8322050666
 20
25.7690137215
 30
0.0
 10
1101.9554684249
 20
25.7690137215
 30
0.0
 10
1102.048766487
 20
25.6978297863
 30
0.0
 10
1102.048766487
 20
25.5675003756
 30
0.0
 10
1102.048766487
 20
25.4324602634
 30
0.0
 10
1101.9206615743
 20
25.3560422153
 30
0.0
 10
1101.8271018066
 20
25.2822412237
 30
0.0
 10
1101.8271018066
 20
25.2822412237
 30
0.0
 10
1101.7976599216
 20
25.2628750061
 30
0.0
 10
1101.7976599216
 20
25.2628750061
 30
0.0
  0
SPLINE
  5
22E
100
AcDbEntity
  8
0
100
AcDbSpline
 62
7
  6
CONTINUOUS
 70
2
 71
3
 72
50
 73
46
 74
0
 42
0.0000001
 43
0.0000001
 44
0.0000000001
 40
0.0
 40
0.0
 40
0.0
 40
0.0
 40
1.0
 40
1.0
 40
1.0
 40
2.0
 40
2.0
 40
2.0
 40
3.0
 40
3.0
 40
3.0
 40
4.0
 40
4.0
 40
4.0
 40
5.0
 40
5.0
 40
5.0
 40
6.0
 40
6.0
 40
6.0
 40
7.0
 40
7.0
 40
7.0
 40
8.0
 40
8.0
 40
8.0
 40
9.0
 40
9.0
 40
9.0
 40
10.0
 40
10.0
 40
10.0
 40
11.0
 40
11.0
 40
11.0
 40
12.0
 40
12.0
 40
12.0
 40
13.0
 40
13.0
 40
13.0
 40
14.0
 40
14.0
 40
14.0
 40
15.0
 40
15.0
 40
15.0
 40
15.0
 10
1102.4998161643
 20
24.0558885763
 30
0.0
 10
1102.4998161643
 20
24.0558885763
 30
0.0
 10
1102.785206169
 20
24.0558885763
 30
0.0
 10
1102.785206169
 20
24.0558885763
 30
0.0
 10
1102.785206169
 20
24.0558885763
 30
0.0
 10
1102.4528400012
 20
24.4667664372
 30
0.0
 10
1102.4528400012
 20
24.4667664372
 30
0.0
 10
1102.4528400012
 20
24.4667664372
 30
0.0
 10
1102.6793462361
 20
24.7326593715
 30
0.0
 10
1102.6793462361
 20
24.7326593715
 30
0.0
 10
1102.6793462361
 20
24.7326593715
 30
0.0
 10
1102.5310899888
 20
24.8854954675
 30
0.0
 10
1102.5310899888
 20
24.8854954675
 30
0.0
 10
1102.5310899888
 20
24.8854954675
 30
0.0
 10
1102.3151828325
 20
24.6342580494
 30
0.0
 10
1102.3151828325
 20
24.6342580494
 30
0.0
 10
1102.3151828325
 20
24.6342580494
 30
0.0
 10
1101.9281201851
 20
25.1021877407
 30
0.0
 10
1101.9281201851
 20
25.1021877407
 30
0.0
 10
1102.0835733376
 20
25.2162914015
 30
0.0
 10
1102.2658513186
 20
25.3560422153
 30
0.0
 10
1102.2658513186
 20
25.5654067305
 30
0.0
 10
1102.2658513186
 20
25.8093163906
 30
0.0
 10
1102.0638145615
 20
25.9527310835
 30
0.0
 10
1101.8373083267
 20
25.9527310835
 30
0.0
 10
1101.5931369609
 20
25.9527310835
 30
0.0
 10
1101.4087653347
 20
25.8019886326
 30
0.0
 10
1101.4087653347
 20
25.5455171015
 30
0.0
 10
1101.4087653347
 20
25.3879703039
 30
0.0
 10
1101.5074283625
 20
25.2503131352
 30
0.0
 10
1101.6127648842
 20
25.1393499421
 30
0.0
 10
1101.6127648842
 20
25.1393499421
 30
0.0
 10
1101.4972218424
 20
25.0556041361
 30
0.0
 10
1101.4972218424
 20
25.0556041361
 30
0.0
 10
1101.3195237102
 20
24.9273683706
 30
0.0
 10
1101.1721834326
 20
24.7996560163
 30
0.0
 10
1101.1721834326
 20
24.5625507029
 30
0.0
 10
1101.1721834326
 20
24.2422229947
 30
0.0
 10
1101.4307486088
 20
24.0161093184
 30
0.0
 10
1101.7411315025
 20
24.0161093184
 30
0.0
 10
1101.9600482737
 20
24.0161093184
 30
0.0
 10
1102.1572434764
 20
24.1412046162
 30
0.0
 10
1102.2975177016
 20
24.3071259944
 30
0.0
 10
1102.2975177016
 20
24.3071259944
 30
0.0
 10
1102.4998161643
 20
24.0558885763
 30
0.0
 10
1102.4998161643
 20
24.0558885763
 30
0.0
  0
LWPOLYLINE
  5
22F
100
AcDbEntity
  8
0
100
AcDbPolyline
 62
7
  6
CONTINUOUS
 90
2
 70
0
 43
0.2
 10
1104.435260254
 20
25.9124284143
 10
1104.2039124648
 20
25.9124284143
  0
LWPOLYLINE
  5
230
100
AcDbEntity
  8
0
100
AcDbPolyline
 62
7
  6
CONTINUOUS
 90
2
 70
0
 43
0.2
 10
1104.2039124648
 20
25.9124284143
 10
1104.2039124648
 20
24.055365165
  0
LWPOLYLINE
  5
231
100
AcDbEntity
  8
0
100
AcDbPolyline
 62
7
  6
CONTINUOUS
 90
2
 70
0
 43
0.2
 10
1104.2039124648
 20
24.055365165
 10
1104.9992359167
 20
24.055365165
  0
LWPOLYLINE
  5
232
100
AcDbEntity
  8
0
100
AcDbPolyline
 62
7
  6
CONTINUOUS
 90
2
 70
0
 43
0.2
 10
1104.9992359167
 20
24.055365165
 10
1104.9992359167
 20
24.2673467366
  0
LWPOLYLINE
  5
233
100
AcDbEntity
  8
0
100
AcDbPolyline
 62
7
  6
CONTINUOUS
 90
2
 70
0
 43
0.2
 10
1104.9992359167
 20
24.2673467366
 10
1104.435260254
 20
24.2673467366
  0
LWPOLYLINE
  5
234
100
AcDbEntity
  8
0
100
AcDbPolyline
 62
7
  6
CONTINUOUS
 90
2
 70
0
 43
0.2
 10
1104.435260254
 20
24.2673467366
 10
1104.435260254
 20
25.9124284143
  0
LWPOLYLINE
  5
235
100
AcDbEntity
  8
0
100
AcDbPolyline
 62
7
  6
CONTINUOUS
 90
2
 70
0
 43
0.2
 10
1106.6783393282
 20
25.2079168209
 10
1106.4571980591
 20
25.2079168209
  0
LWPOLYLINE
  5
236
100
AcDbEntity
  8
0
100
AcDbPolyline
 62
7
  6
CONTINUOUS
 90
2
 70
0
 43
0.2
 10
1106.4571980591
 20
25.2079168209
 10
1106.4571980591
 20
24.0558885763
  0
LWPOLYLINE
  5
237
100
AcDbEntity
  8
0
100
AcDbPolyline
 62
7
  6
CONTINUOUS
 90
2
 70
0
 43
0.2
 10
1106.4571980591
 20
24.0558885763
 10
1106.6783393282
 20
24.0558885763
  0
LWPOLYLINE
  5
238
100
AcDbEntity
  8
0
100
AcDbPolyline
 62
7
  6
CONTINUOUS
 90
2
 70
0
 43
0.2
 10
1106.6783393282
 20
24.0558885763
 10
1106.6783393282
 20
25.2079168209
  0
LWPOLYLINE
  5
239
100
AcDbEntity
  8
0
100
AcDbPolyline
 62
7
  6
CONTINUOUS
 90
2
 70
1
 43
0.2
 10
1106.415316051
 20
25.7378707498
 42
1.0
 10
1106.7204830419
 20
25.7378707498
 42
1.0
  0
SPLINE
  5
23A
100
AcDbEntity
  8
0
100
AcDbSpline
 62
7
  6
CONTINUOUS
 70
2
 71
3
 72
17
 73
13
 74
0
 42
0.0000001
 43
0.0000001
 44
0.0000000001
 40
0.0
 40
0.0
 40
0.0
 40
0.0
 40
1.0
 40
1.0
 40
1.0
 40
2.0
 40
2.0
 40
2.0
 40
3.0
 40
3.0
 40
3.0
 40
4.0
 40
4.0
 40
4.0
 40
4.0
 10
1108.8086232698
 20
24.2134353739
 30
0.0
 10
1108.5746584242
 20
24.2134353739
 30
0.0
 10
1108.4443290135
 20
24.415472131
 30
0.0
 10
1108.4443290135
 20
24.6316409929
 30
0.0
 10
1108.4443290135
 20
24.8462396209
 30
0.0
 10
1108.5801542427
 20
25.0451359103
 30
0.0
 10
1108.8086232698
 20
25.0451359103
 30
0.0
 10
1109.048083934
 20
25.0451359103
 30
0.0
 10
1109.1836474576
 20
24.8561844354
 30
0.0
 10
1109.1836474576
 20
24.6316409929
 30
0.0
 10
1109.1836474576
 20
24.4055273166
 30
0.0
 10
1109.0504392848
 20
24.2134353739
 30
0.0
 10
1108.8086232698
 20
24.2134353739
 30
0.0
  0
SPLINE
  5
23B
100
AcDbEntity
  8
0
100
AcDbSpline
 62
7
  6
CONTINUOUS
 70
2
 71
3
 72
50
 73
46
 74
0
 42
0.0000001
 43
0.0000001
 44
0.0000000001
 40
0.0
 40
0.0
 40
0.0
 40
0.0
 40
1.0
 40
1.0
 40
1.0
 40
2.0
 40
2.0
 40
2.0
 40
3.0
 40
3.0
 40
3.0
 40
4.0
 40
4.0
 40
4.0
 40
5.0
 40
5.0
 40
5.0
 40
6.0
 40
6.0
 40
6.0
 40
7.0
 40
7.0
 40
7.0
 40
8.0
 40
8.0
 40
8.0
 40
9.0
 40
9.0
 40
9.0
 40
10.0
 40
10.0
 40
10.0
 40
11.0
 40
11.0
 40
11.0
 40
12.0
 40
12.0
 40
12.0
 40
13.0
 40
13.0
 40
13.0
 40
14.0
 40
14.0
 40
14.0
 40
15.0
 40
15.0
 40
15.0
 40
15.0
 10
1109.3927502671
 20
25.2084402321
 30
0.0
 10
1109.3927502671
 20
25.2084402321
 30
0.0
 10
1109.1710855867
 20
25.2084402321
 30
0.0
 10
1109.1710855867
 20
25.2084402321
 30
0.0
 10
1109.1710855867
 20
25.2084402321
 30
0.0
 10
1109.1710855867
 20
25.0111141766
 30
0.0
 10
1109.1710855867
 20
25.0111141766
 30
0.0
 10
1109.1710855867
 20
25.0111141766
 30
0.0
 10
1109.1663748851
 20
25.0111141766
 30
0.0
 10
1109.1663748851
 20
25.0111141766
 30
0.0
 10
1109.0750396154
 20
25.1540054582
 30
0.0
 10
1108.937120741
 20
25.2424619659
 30
0.0
 10
1108.764395016
 20
25.2424619659
 30
0.0
 10
1108.4320288482
 20
25.2424619659
 30
0.0
 10
1108.2229260387
 20
24.9545857575
 30
0.0
 10
1108.2229260387
 20
24.6389687509
 30
0.0
 10
1108.2229260387
 20
24.3092196396
 30
0.0
 10
1108.4199903886
 20
24.0161093184
 30
0.0
 10
1108.7748632418
 20
24.0161093184
 30
0.0
 10
1108.937120741
 20
24.0161093184
 30
0.0
 10
1109.0771332605
 20
24.104565826
 30
0.0
 10
1109.1663748851
 20
24.235418648
 30
0.0
 10
1109.1663748851
 20
24.235418648
 30
0.0
 10
1109.1710855867
 20
24.235418648
 30
0.0
 10
1109.1710855867
 20
24.235418648
 30
0.0
 10
1109.1710855867
 20
24.235418648
 30
0.0
 10
1109.1710855867
 20
24.0161093184
 30
0.0
 10
1109.1710855867
 20
24.0161093184
 30
0.0
 10
1109.1710855867
 20
23.7795274163
 30
0.0
 10
1109.1145571676
 20
23.5926695865
 30
0.0
 10
1108.8413364753
 20
23.5926695865
 30
0.0
 10
1108.6390380126
 20
23.5926695865
 30
0.0
 10
1108.4964084366
 20
23.7109605375
 30
0.0
 10
1108.4964084366
 20
23.917184585
 30
0.0
 10
1108.4964084366
 20
23.917184585
 30
0.0
 10
1108.2747437562
 20
23.917184585
 30
0.0
 10
1108.2747437562
 20
23.917184585
 30
0.0
 10
1108.2797161634
 20
23.5926695865
 30
0.0
 10
1108.510802247
 20
23.3958669423
 30
0.0
 10
1108.8311299552
 20
23.3958669423
 30
0.0
 10
1109.2791700176
 20
23.3958669423
 30
0.0
 10
1109.3927502671
 20
23.6811260941
 30
0.0
 10
1109.3927502671
 20
24.0778718503
 30
0.0
 10
1109.3927502671
 20
24.0778718503
 30
0.0
 10
1109.3927502671
 20
25.2084402321
 30
0.0
 10
1109.3927502671
 20
25.2084402321
 30
0.0
  0
SPLINE
  5
23C
100
AcDbEntity
  8
0
100
AcDbSpline
 62
7
  6
CONTINUOUS
 70
2
 71
3
 72
44
 73
40
 74
0
 42
0.0000001
 43
0.0000001
 44
0.0000000001
 40
0.0
 40
0.0
 40
0.0
 40
0.0
 40
1.0
 40
1.0
 40
1.0
 40
2.0
 40
2.0
 40
2.0
 40
3.0
 40
3.0
 40
3.0
 40
4.0
 40
4.0
 40
4.0
 40
5.0
 40
5.0
 40
5.0
 40
6.0
 40
6.0
 40
6.0
 40
7.0
 40
7.0
 40
7.0
 40
8.0
 40
8.0
 40
8.0
 40
9.0
 40
9.0
 40
9.0
 40
10.0
 40
10.0
 40
10.0
 40
11.0
 40
11.0
 40
11.0
 40
12.0
 40
12.0
 40
12.0
 40
13.0
 40
13.0
 40
13.0
 40
13.0
 10
1110.9616756025
 20
26.1935002759
 30
0.0
 10
1110.9616756025
 20
26.1935002759
 30
0.0
 10
1110.9616756025
 20
24.055365165
 30
0.0
 10
1110.9616756025
 20
24.055365165
 30
0.0
 10
1110.9616756025
 20
24.055365165
 30
0.0
 10
1111.1830785773
 20
24.055365165
 30
0.0
 10
1111.1830785773
 20
24.055365165
 30
0.0
 10
1111.1830785773
 20
24.055365165
 30
0.0
 10
1111.1830785773
 20
24.5850573883
 30
0.0
 10
1111.1830785773
 20
24.5850573883
 30
0.0
 10
1111.1830785773
 20
24.7949453147
 30
0.0
 10
1111.1830785773
 20
25.0456593216
 30
0.0
 10
1111.4683377291
 20
25.0456593216
 30
0.0
 10
1111.6952365224
 20
25.0456593216
 30
0.0
 10
1111.7221922038
 20
24.9127128545
 30
0.0
 10
1111.7221922038
 20
24.7164336215
 30
0.0
 10
1111.7221922038
 20
24.7164336215
 30
0.0
 10
1111.7221922038
 20
24.055365165
 30
0.0
 10
1111.7221922038
 20
24.055365165
 30
0.0
 10
1111.7221922038
 20
24.055365165
 30
0.0
 10
1111.9441185898
 20
24.055365165
 30
0.0
 10
1111.9441185898
 20
24.055365165
 30
0.0
 10
1111.9441185898
 20
24.055365165
 30
0.0
 10
1111.9441185898
 20
24.7426041859
 30
0.0
 10
1111.9441185898
 20
24.7426041859
 30
0.0
 10
1111.9441185898
 20
25.0231526362
 30
0.0
 10
1111.8601110781
 20
25.2429853771
 30
0.0
 10
1111.5350726683
 20
25.2429853771
 30
0.0
 10
1111.3953218545
 20
25.2429853771
 30
0.0
 10
1111.2571412745
 20
25.1765121436
 30
0.0
 10
1111.1877892788
 20
25.0535104909
 30
0.0
 10
1111.1877892788
 20
25.0535104909
 30
0.0
 10
1111.1830785773
 20
25.0535104909
 30
0.0
 10
1111.1830785773
 20
25.0535104909
 30
0.0
 10
1111.1830785773
 20
25.0535104909
 30
0.0
 10
1111.1830785773
 20
26.1935002759
 30
0.0
 10
1111.1830785773
 20
26.1935002759
 30
0.0
 10
1111.1830785773
 20
26.1935002759
 30
0.0
 10
1110.9616756025
 20
26.1935002759
 30
0.0
 10
1110.9616756025
 20
26.1935002759
 30
0.0
  0
LWPOLYLINE
  5
23D
100
AcDbEntity
  8
0
100
AcDbPolyline
 62
7
  6
CONTINUOUS
 90
2
 70
0
 43
0.2
 10
1113.7839092667
 20
25.0011693621
 10
1114.0003398342
 20
25.0011693621
  0
LWPOLYLINE
  5
23E
100
AcDbEntity
  8
0
100
AcDbPolyline
 62
7
  6
CONTINUOUS
 90
2
 70
0
 43
0.2
 10
1114.0003398342
 20
25.0011693621
 10
1114.0003398342
 20
25.2079168209
  0
LWPOLYLINE
  5
23F
100
AcDbEntity
  8
0
100
AcDbPolyline
 62
7
  6
CONTINUOUS
 90
2
 70
0
 43
0.2
 10
1114.0003398342
 20
25.2079168209
 10
1113.7839092667
 20
25.2079168209
  0
LWPOLYLINE
  5
240
100
AcDbEntity
  8
0
100
AcDbPolyline
 62
7
  6
CONTINUOUS
 90
2
 70
0
 43
0.2
 10
1113.7839092667
 20
25.2079168209
 10
1113.7839092667
 20
25.6486291252
  0
LWPOLYLINE
  5
241
100
AcDbEntity
  8
0
100
AcDbPolyline
 62
7
  6
CONTINUOUS
 90
2
 70
0
 43
0.2
 10
1113.7839092667
 20
25.6486291252
 10
1113.5622445863
 20
25.6486291252
  0
LWPOLYLINE
  5
242
100
AcDbEntity
  8
0
100
AcDbPolyline
 62
7
  6
CONTINUOUS
 90
2
 70
0
 43
0.2
 10
1113.5622445863
 20
25.6486291252
 10
1113.5622445863
 20
25.2079168209
  0
LWPOLYLINE
  5
243
100
AcDbEntity
  8
0
100
AcDbPolyline
 62
7
  6
CONTINUOUS
 90
2
 70
0
 43
0.2
 10
1113.5622445863
 20
25.2079168209
 10
1113.4415982844
 20
25.2079168209
  0
LWPOLYLINE
  5
244
100
AcDbEntity
  8
0
100
AcDbPolyline
 62
7
  6
CONTINUOUS
 90
2
 70
0
 43
0.2
 10
1113.4415982844
 20
25.2079168209
 10
1113.4415982844
 20
25.0011693621
  0
LWPOLYLINE
  5
245
100
AcDbEntity
  8
0
100
AcDbPolyline
 62
7
  6
CONTINUOUS
 90
2
 70
0
 43
0.2
 10
1113.4415982844
 20
25.0011693621
 10
1113.5622445863
 20
25.0011693621
  0
LWPOLYLINE
  5
246
100
AcDbEntity
  8
0
100
AcDbPolyline
 62
7
  6
CONTINUOUS
 90
2
 70
0
 43
0.2
 10
1113.5622445863
 20
25.0011693621
 10
1113.5622445863
 20
24.055365165
  0
LWPOLYLINE
  5
247
100
AcDbEntity
  8
0
100
AcDbPolyline
 62
7
  6
CONTINUOUS
 90
2
 70
0
 43
0.2
 10
1113.5622445863
 20
24.055365165
 10
1113.7839092667
 20
24.055365165
  0
LWPOLYLINE
  5
248
100
AcDbEntity
  8
0
100
AcDbPolyline
 62
7
  6
CONTINUOUS
 90
2
 70
0
 43
0.2
 10
1113.7839092667
 20
24.055365165
 10
1113.7839092667
 20
25.0011693621
  0
SPLINE
  5
249
100
AcDbEntity
  8
0
100
AcDbSpline
 62
7
  6
CONTINUOUS
 70
2
 71
3
 72
20
 73
16
 74
0
 42
0.0000001
 43
0.0000001
 44
0.0000000001
 40
0.0
 40
0.0
 40
0.0
 40
0.0
 40
1.0
 40
1.0
 40
1.0
 40
2.0
 40
2.0
 40
2.0
 40
3.0
 40
3.0
 40
3.0
 40
4.0
 40
4.0
 40
4.0
 40
5.0
 40
5.0
 40
5.0
 40
5.0
 10
1101.5659195739
 20
34.4162916084
 30
0.0
 10
1101.5659195739
 20
34.4162916084
 30
0.0
 10
1103.8822762284
 20
31.5867301861
 30
0.0
 10
1103.8822762284
 20
31.5867301861
 30
0.0
 10
1103.230629175
 20
30.9345597214
 30
0.0
 10
1102.453755971
 20
30.1986434507
 30
0.0
 10
1101.4825663263
 20
30.1986434507
 30
0.0
 10
1100.4840284419
 20
30.1986434507
 30
0.0
 10
1099.5407104483
 20
31.128221898
 30
0.0
 10
1099.5407104483
 20
32.1274140465
 30
0.0
 10
1099.5407104483
 20
33.126606195
 30
0.0
 10
1100.7195635214
 20
33.8332114337
 30
0.0
 10
1101.4410859818
 20
34.3330692136
 30
0.0
 10
1101.4410859818
 20
34.3330692136
 30
0.0
 10
1101.5659195739
 20
34.4162916084
 30
0.0
 10
1101.5659195739
 20
34.4162916084
 30
0.0
  0
SPLINE
  5
24A
100
AcDbEntity
  8
0
100
AcDbSpline
 62
7
  6
CONTINUOUS
 70
2
 71
3
 72
23
 73
19
 74
0
 42
0.0000001
 43
0.0000001
 44
0.0000000001
 40
0.0
 40
0.0
 40
0.0
 40
0.0
 40
1.0
 40
1.0
 40
1.0
 40
2.0
 40
2.0
 40
2.0
 40
3.0
 40
3.0
 40
3.0
 40
4.0
 40
4.0
 40
4.0
 40
5.0
 40
5.0
 40
5.0
 40
6.0
 40
6.0
 40
6.0
 40
6.0
 10
1101.8433275565
 20
36.0540455281
 30
0.0
 10
1101.8433275565
 20
36.0540455281
 30
0.0
 10
1101.4968292839
 20
36.4973748889
 30
0.0
 10
1101.4968292839
 20
36.4973748889
 30
0.0
 10
1101.191026239
 20
36.8854843589
 30
0.0
 10
1100.8721379119
 20
37.2739863873
 30
0.0
 10
1100.8721379119
 20
37.8009307014
 30
0.0
 10
1100.8721379119
 20
38.467102418
 30
0.0
 10
1101.4134760363
 20
38.9108243373
 30
0.0
 10
1102.0373822915
 20
38.9108243373
 30
0.0
 10
1102.7311639536
 20
38.9108243373
 30
0.0
 10
1103.2583699733
 20
38.5085827626
 30
0.0
 10
1103.2583699733
 20
37.7735824616
 30
0.0
 10
1103.2583699733
 20
37.010317951
 30
0.0
 10
1102.5371092186
 20
36.5802047252
 30
0.0
 10
1102.0100340517
 20
36.1644853098
 30
0.0
 10
1102.0100340517
 20
36.1644853098
 30
0.0
 10
1101.8433275565
 20
36.0540455281
 30
0.0
 10
1101.8433275565
 20
36.0540455281
 30
0.0
  0
SPLINE
  5
24B
100
AcDbEntity
  8
0
100
AcDbSpline
 62
7
  6
CONTINUOUS
 70
2
 71
3
 72
50
 73
46
 74
0
 42
0.0000001
 43
0.0000001
 44
0.0000000001
 40
0.0
 40
0.0
 40
0.0
 40
0.0
 40
1.0
 40
1.0
 40
1.0
 40
2.0
 40
2.0
 40
2.0
 40
3.0
 40
3.0
 40
3.0
 40
4.0
 40
4.0
 40
4.0
 40
5.0
 40
5.0
 40
5.0
 40
6.0
 40
6.0
 40
6.0
 40
7.0
 40
7.0
 40
7.0
 40
8.0
 40
8.0
 40
8.0
 40
9.0
 40
9.0
 40
9.0
 40
10.0
 40
10.0
 40
10.0
 40
11.0
 40
11.0
 40
11.0
 40
12.0
 40
12.0
 40
12.0
 40
13.0
 40
13.0
 40
13.0
 40
14.0
 40
14.0
 40
14.0
 40
15.0
 40
15.0
 40
15.0
 40
15.0
 10
1105.7969147194
 20
29.25545631
 30
0.0
 10
1105.7969147194
 20
29.25545631
 30
0.0
 10
1107.406142724
 20
29.25545631
 30
0.0
 10
1107.406142724
 20
29.25545631
 30
0.0
 10
1107.406142724
 20
29.25545631
 30
0.0
 10
1105.5331154303
 20
31.5725980814
 30
0.0
 10
1105.5331154303
 20
31.5725980814
 30
0.0
 10
1105.5331154303
 20
31.5725980814
 30
0.0
 10
1106.8094538558
 20
33.070077776
 30
0.0
 10
1106.8094538558
 20
33.070077776
 30
0.0
 10
1106.8094538558
 20
33.070077776
 30
0.0
 10
1105.9772299081
 20
33.9310893445
 30
0.0
 10
1105.9772299081
 20
33.9310893445
 30
0.0
 10
1105.9772299081
 20
33.9310893445
 30
0.0
 10
1104.7566347848
 20
32.5157852221
 30
0.0
 10
1104.7566347848
 20
32.5157852221
 30
0.0
 10
1104.7566347848
 20
32.5157852221
 30
0.0
 10
1102.578720416
 20
35.1511610565
 30
0.0
 10
1102.578720416
 20
35.1511610565
 30
0.0
 10
1103.4522938554
 20
35.7891994164
 30
0.0
 10
1104.4789650966
 20
36.5802047252
 30
0.0
 10
1104.4789650966
 20
37.7590577983
 30
0.0
 10
1104.4789650966
 20
39.1327507234
 30
0.0
 10
1103.3410689567
 20
39.9372338728
 30
0.0
 10
1102.0657773538
 20
39.9372338728
 30
0.0
 10
1100.6923461345
 20
39.9372338728
 30
0.0
 10
1099.6514119357
 20
39.0910086731
 30
0.0
 10
1099.6514119357
 20
37.648356311
 30
0.0
 10
1099.6514119357
 20
36.7607816195
 30
0.0
 10
1100.2067513122
 20
35.9839084155
 30
0.0
 10
1100.802916769
 20
35.3594787491
 30
0.0
 10
1100.802916769
 20
35.3594787491
 30
0.0
 10
1100.15100801
 20
34.8878851787
 30
0.0
 10
1100.15100801
 20
34.8878851787
 30
0.0
 10
1099.1524701256
 20
34.166624424
 30
0.0
 10
1098.3195919137
 20
33.4453636694
 30
0.0
 10
1098.3195919137
 20
32.113805353
 30
0.0
 10
1098.3195919137
 20
30.310130055
 30
0.0
 10
1099.7766380863
 20
29.0335299239
 30
0.0
 10
1101.5241775237
 20
29.0335299239
 30
0.0
 10
1102.7590356046
 20
29.0335299239
 30
0.0
 10
1103.8684058293
 20
29.7417053964
 30
0.0
 10
1104.6592802852
 20
30.6702370211
 30
0.0
 10
1104.6592802852
 20
30.6702370211
 30
0.0
 10
1105.7969147194
 20
29.25545631
 30
0.0
 10
1105.7969147194
 20
29.25545631
 30
0.0
  0
LINE
  5
24C
100
AcDbEntity
  8
0
100
AcDbLine
 62
7
  6
CONTINUOUS
 10
1091.5997760944
 20
27.2293312146
 11
1114.0136868221
 21
27.2293312146
  0
LINE
  5
24D
100
AcDbEntity
  8
0
100
AcDbLine
 62
7
  6
CONTINUOUS
 10
1114.0136868221
 20
27.2293312146
 11
1114.0136868221
 21
49.6432419423
  0
LINE
  5
24E
100
AcDbEntity
  8
0
100
AcDbLine
 62
7
  6
CONTINUOUS
 10
1114.0136868221
 20
49.6432419423
 11
1091.5997760944
 21
49.6432419423
  0
LINE
  5
24F
100
AcDbEntity
  8
0
100
AcDbLine
 62
7
  6
CONTINUOUS
 10
1091.5997760944
 20
49.6432419423
 11
1091.5997760944
 21
27.2293312146
  0
ENDBLK
  5
250
100
AcDbEntity
  8
0
  6
BYBLOCK
 62
0
100
AcDbBlockEnd
  0
BLOCK
  5
251
100
AcDbEntity
  8
0
100
AcDbBlockBegin
  2
_CLOSED
 70
64
 10
0.0
 20
0.0
  3
_CLOSED
  1

  0
LINE
  5
252
100
AcDbEntity
  8
0
  6
BYBLOCK
 62
0
100
AcDbLine
 10
0.0
 20
0.0
 11
-1.0
 21
0.2
  0
LINE
  5
253
100
AcDbEntity
  8
0
  6
BYBLOCK
 62
0
100
AcDbLine
 10
-1.0
 20
0.2
 11
-1.0
 21
-0.2
  0
LINE
  5
254
100
AcDbEntity
  8
0
  6
BYBLOCK
 62
0
100
AcDbLine
 10
-1.0
 20
-0.2
 11
0.0
 21
0.0
  0
LINE
  5
255
100
AcDbEntity
  8
0
  6
BYBLOCK
 62
0
100
AcDbLine
 10
-1.0
 20
0.0
 11
0.0
 21
0.0
  0
ENDBLK
  5
256
100
AcDbEntity
  8
0
  6
BYBLOCK
 62
0
100
AcDbBlockEnd
  0
BLOCK
  5
257
100
AcDbEntity
  8
0
100
AcDbBlockBegin
 62
7
  6
CONTINUOUS
  2
*D0
 70
65
 10
0.0
 20
0.0
  3
*D0
  1

  0
MTEXT
  5
258
100
AcDbEntity
  8
0
100
AcDbMText
 62
7
  6
CONTINUOUS
  7
STANDARD
 71
2
 72
1
 10
160.0939923998
 20
302.8819625759
 30
0.0
 11
1.0
 21
0.0
 31
0.0
  1
70,1
 40
10.0
 41
27.1747211896
  0
LINE
  5
259
100
AcDbEntity
  8
0
100
AcDbLine
 62
7
  6
CONTINUOUS
 10
123.4940932063
 20
323.1235830396
 11
123.4940932063
 21
289.6319625759
  0
LINE
  5
25A
100
AcDbEntity
  8
0
100
AcDbLine
 62
7
  6
CONTINUOUS
 10
193.5940932063
 20
323.1235830396
 11
193.5940932063
 21
289.6319625759
  0
LINE
  5
25B
100
AcDbEntity
  8
0
100
AcDbLine
 62
7
  6
CONTINUOUS
 10
123.4940932063
 20
290.3819625759
 11
158.5440932063
 21
290.3819625759
  0
LINE
  5
25C
100
AcDbEntity
  8
0
100
AcDbLine
 62
7
  6
CONTINUOUS
 10
193.5940932063
 20
290.3819625759
 11
158.5440932063
 21
290.3819625759
  0
INSERT
  5
25D
100
AcDbEntity
  8
0
100
AcDbBlockReference
 62
7
  6
CONTINUOUS
  2
_CLOSED
 10
123.4940932063
 20
290.3819625759
 41
2.5
 42
2.5
 43
2.5
 50
180.0
  0
INSERT
  5
25E
100
AcDbEntity
  8
0
100
AcDbBlockReference
 62
7
  6
CONTINUOUS
  2
_CLOSED
 10
193.5940932063
 20
290.3819625759
 41
2.5
 42
2.5
 43
2.5
  0
ENDBLK
  5
25F
100
AcDbEntity
  8
0
  6
BYBLOCK
 62
0
100
AcDbBlockEnd
  0
BLOCK
  5
260
100
AcDbEntity
  8
0
100
AcDbBlockBegin
 62
7
  6
CONTINUOUS
  2
*D1
 70
65
 10
0.0
 20
0.0
  3
*D1
  1

  0
MTEXT
  5
261
100
AcDbEntity
  8
0
100
AcDbMText
 62
7
  6
CONTINUOUS
  7
STANDARD
 71
2
 72
1
 10
160.0939923998
 20
274.5579071999
 30
0.0
 11
1.0
 21
0.0
 31
0.0
  1
109,9
 40
10.0
 41
34.9442379182
  0
LINE
  5
262
100
AcDbEntity
  8
0
100
AcDbLine
 62
7
  6
CONTINUOUS
 10
213.4940932063
 20
323.1235830396
 11
213.4940932063
 21
261.3079071999
  0
LINE
  5
263
100
AcDbEntity
  8
0
100
AcDbLine
 62
7
  6
CONTINUOUS
 10
103.5940932063
 20
323.1235830396
 11
103.5940932063
 21
261.3079071999
  0
LINE
  5
264
100
AcDbEntity
  8
0
100
AcDbLine
 62
7
  6
CONTINUOUS
 10
213.4940932063
 20
262.0579071999
 11
158.5440932063
 21
262.0579071999
  0
LINE
  5
265
100
AcDbEntity
  8
0
100
AcDbLine
 62
7
  6
CONTINUOUS
 10
103.5940932063
 20
262.0579071999
 11
158.5440932063
 21
262.0579071999
  0
INSERT
  5
266
100
AcDbEntity
  8
0
100
AcDbBlockReference
 62
7
  6
CONTINUOUS
  2
_CLOSED
 10
213.4940932063
 20
262.0579071999
 41
2.5
 42
2.5
 43
2.5
  0
INSERT
  5
267
100
AcDbEntity
  8
0
100
AcDbBlockReference
 62
7
  6
CONTINUOUS
  2
_CLOSED
 10
103.5940932063
 20
262.0579071999
 41
2.5
 42
2.5
 43
2.5
 50
180.0
  0
ENDBLK
  5
268
100
AcDbEntity
  8
0
  6
BYBLOCK
 62
0
100
AcDbBlockEnd
  0
BLOCK
  5
269
100
AcDbEntity
  8
0
100
AcDbBlockBegin
 62
7
  6
CONTINUOUS
  2
*D2
 70
65
 10
0.0
 20
0.0
  3
*D2
  1

  0
MTEXT
  5
26A
100
AcDbEntity
  8
0
100
AcDbMText
 62
7
  6
CONTINUOUS
  7
STANDARD
 71
2
 72
1
 10
688.2379032258
 20
302.8819625759
 30
0.0
 11
1.0
 21
0.0
 31
0.0
  1
847
 40
10.0
 41
23.3085501859
  0
LINE
  5
26B
100
AcDbEntity
  8
0
100
AcDbLine
 62
7
  6
CONTINUOUS
 10
264.7379032258
 20
322.1639364919
 11
264.7379032258
 21
289.6319625759
  0
LINE
  5
26C
100
AcDbEntity
  8
0
100
AcDbLine
 62
7
  6
CONTINUOUS
 10
1111.7379032258
 20
323.1235830396
 11
1111.7379032258
 21
289.6319625759
  0
LINE
  5
26D
100
AcDbEntity
  8
0
100
AcDbLine
 62
7
  6
CONTINUOUS
 10
264.7379032258
 20
290.3819625759
 11
688.2379032258
 21
290.3819625759
  0
LINE
  5
26E
100
AcDbEntity
  8
0
100
AcDbLine
 62
7
  6
CONTINUOUS
 10
1111.7379032258
 20
290.3819625759
 11
688.2379032258
 21
290.3819625759
  0
INSERT
  5
26F
100
AcDbEntity
  8
0
100
AcDbBlockReference
 62
7
  6
CONTINUOUS
  2
_CLOSED
 10
264.7379032258
 20
290.3819625759
 41
2.5
 42
2.5
 43
2.5
 50
180.0
  0
INSERT
  5
270
100
AcDbEntity
  8
0
100
AcDbBlockReference
 62
7
  6
CONTINUOUS
  2
_CLOSED
 10
1111.7379032258
 20
290.3819625759
 41
2.5
 42
2.5
 43
2.5
  0
ENDBLK
  5
271
100
AcDbEntity
  8
0
  6
BYBLOCK
 62
0
100
AcDbBlockEnd
  0
BLOCK
  5
272
100
AcDbEntity
  8
0
100
AcDbBlockBegin
 62
7
  6
CONTINUOUS
  2
*D3
 70
65
 10
0.0
 20
0.0
  3
*D3
  1

  0
MTEXT
  5
273
100
AcDbEntity
  8
0
100
AcDbMText
 62
7
  6
CONTINUOUS
  7
STANDARD
 71
2
 72
1
 10
46.3898759094
 20
381.2255544355
 30
0.0
 11
0.0
 21
1.0
 31
0.0
  1
91
 40
10.0
 41
15.5390334572
  0
LINE
  5
274
100
AcDbEntity
  8
0
100
AcDbLine
 62
7
  6
CONTINUOUS
 10
98.6957061095
 20
335.7255544355
 11
58.1398759094
 21
335.7255544355
  0
LINE
  5
275
100
AcDbEntity
  8
0
100
AcDbLine
 62
7
  6
CONTINUOUS
 10
98.7823997702
 20
426.7255544355
 11
58.1398759094
 21
426.7255544355
  0
LINE
  5
276
100
AcDbEntity
  8
0
100
AcDbLine
 62
7
  6
CONTINUOUS
 10
58.8898759094
 20
335.7255544355
 11
58.8898759094
 21
381.2255544355
  0
LINE
  5
277
100
AcDbEntity
  8
0
100
AcDbLine
 62
7
  6
CONTINUOUS
 10
58.8898759094
 20
426.7255544355
 11
58.8898759094
 21
381.2255544355
  0
INSERT
  5
278
100
AcDbEntity
  8
0
100
AcDbBlockReference
 62
7
  6
CONTINUOUS
  2
_CLOSED
 10
58.8898759094
 20
335.7255544355
 41
2.5
 42
2.5
 43
2.5
 50
270.0
  0
INSERT
  5
279
100
AcDbEntity
  8
0
100
AcDbBlockReference
 62
7
  6
CONTINUOUS
  2
_CLOSED
 10
58.8898759094
 20
426.7255544355
 41
2.5
 42
2.5
 43
2.5
 50
90.0
  0
ENDBLK
  5
27A
100
AcDbEntity
  8
0
  6
BYBLOCK
 62
0
100
AcDbBlockEnd
  0
ENDSEC
  0
SECTION
  2
ENTITIES
  0
DIMENSION
  5
27B
100
AcDbEntity
  8
0
100
AcDbDimension
 62
7
  6
CONTINUOUS
  2
*D0
 10
193.5940932063
 20
290.3819625759
 11
159.1330523834
 21
290.3819625759
 70
160
  3
DIMSTYLE_1
100
AcDbAlignedDimension
 13
123.4940932063
 23
323.8735830396
 14
193.5940932063
 24
323.8735830396
100
AcDbRotatedDimension
  0
DIMENSION
  5
27C
100
AcDbEntity
  8
0
100
AcDbDimension
 62
7
  6
CONTINUOUS
  2
*D1
 10
103.5940932063
 20
262.0579071999
 11
160.5188734665
 21
262.0579071999
 70
160
  3
DIMSTYLE_1
100
AcDbAlignedDimension
 13
213.4940932063
 23
323.8735830396
 14
103.5940932063
 24
323.8735830396
 50
180.0
100
AcDbRotatedDimension
  0
DIMENSION
  5
27D
100
AcDbEntity
  8
0
100
AcDbDimension
 62
7
  6
CONTINUOUS
  2
*D2
 10
1111.7379032258
 20
290.3819625759
 11
688.1842592773
 21
290.3819625759
 70
160
  3
DIMSTYLE_2
100
AcDbAlignedDimension
 13
264.7379032258
 23
322.9139364919
 14
1111.7379032258
 24
323.8735830396
100
AcDbRotatedDimension
  0
DIMENSION
  5
27E
100
AcDbEntity
  8
0
100
AcDbDimension
 62
7
  6
CONTINUOUS
  2
*D3
 10
58.8898759094
 20
426.7255544355
 11
58.8898759094
 21
380.2321927404
 70
160
  3
DIMSTYLE_1
100
AcDbAlignedDimension
 13
99.4457061095
 23
335.7255544355
 14
99.5323997702
 24
426.7255544355
 50
90.0
100
AcDbRotatedDimension
  0
LINE
  5
27F
100
AcDbEntity
  8
0
100
AcDbLine
 62
2
  6
CONTINUOUS
 10
1088.980618987
 20
50.0195544423
 11
1178.980618987
 21
50.0195544423
  0
LINE
  5
280
100
AcDbEntity
  8
0
100
AcDbLine
 62
2
  6
CONTINUOUS
 10
1088.980618987
 20
50.0195544423
 11
1088.980618987
 21
10.0195544423
  0
LINE
  5
281
100
AcDbEntity
  8
0
100
AcDbLine
 62
2
  6
CONTINUOUS
 10
1118.980618987
 20
44.0195544423
 11
1178.980618987
 21
44.0195544423
  0
LINE
  5
282
100
AcDbEntity
  8
0
100
AcDbLine
 62
2
  6
CONTINUOUS
 10
1118.980618987
 20
38.0195544423
 11
1178.980618987
 21
38.0195544423
  0
LINE
  5
283
100
AcDbEntity
  8
0
100
AcDbLine
 62
2
  6
CONTINUOUS
 10
1118.980618987
 20
28.0195544423
 11
1178.980618987
 21
28.0195544423
  0
LINE
  5
284
100
AcDbEntity
  8
0
100
AcDbLine
 62
2
  6
CONTINUOUS
 10
1088.980618987
 20
23.0195544423
 11
1178.980618987
 21
23.0195544423
  0
LINE
  5
285
100
AcDbEntity
  8
0
100
AcDbLine
 62
2
  6
CONTINUOUS
 10
1088.980618987
 20
10.0195544423
 11
1178.980618987
 21
10.0195544423
  0
LINE
  5
286
100
AcDbEntity
  8
0
100
AcDbLine
 62
2
  6
CONTINUOUS
 10
1118.980618987
 20
50.0195544423
 11
1118.980618987
 21
23.0195544423
  0
LINE
  5
287
100
AcDbEntity
  8
0
100
AcDbLine
 62
2
  6
CONTINUOUS
 10
1158.980618987
 20
50.0195544423
 11
1158.980618987
 21
38.0195544423
  0
LINE
  5
288
100
AcDbEntity
  8
0
100
AcDbLine
 62
2
  6
CONTINUOUS
 10
1178.980618987
 20
50.0195544423
 11
1178.980618987
 21
10.0195544423
  0
INSERT
  5
289
100
AcDbEntity
  8
0
100
AcDbBlockReference
 62
2
  6
CONTINUOUS
  2
LOGO2_BL0
 10
1102.8066660318
 20
36.5195544423
  0
MTEXT
  5
28A
100
AcDbEntity
  8
9_SOLID
100
AcDbMText
 62
2
  6
CONTINUOUS
  7
TEXTSTYLE_2
 71
1
 72
1
 10
1120.468118987
 20
48.5195544423
 30
0.0
 11
1.0
 21
0.0
 31
0.0
  1
6F4_C_249
 40
3.0
 41
32.5714285714
  0
MTEXT
  5
28B
100
AcDbEntity
  8
0
100
AcDbMText
 62
2
  6
CONTINUOUS
  7
TEXTSTYLE_2
 71
1
 72
1
 10
1160.468118987
 20
48.2695544423
 30
0.0
 11
1.0
 21
0.0
 31
0.0
  1
Rev:00
 40
3.5
 41
22.75
  0
MTEXT
  5
28C
100
AcDbEntity
  8
9_SOLID
100
AcDbMText
 62
2
  6
CONTINUOUS
  7
TEXTSTYLE_2
 71
1
 72
1
 10
1120.468118987
 20
42.2695544423
 30
0.0
 11
1.0
 21
0.0
 31
0.0
  1
Scale:1:1
 40
3.5
 41
28.375
  0
MTEXT
  5
28D
100
AcDbEntity
  8
9_SOLID
100
AcDbMText
 62
2
  6
CONTINUOUS
  7
TEXTSTYLE_2
 71
1
 72
1
 10
1160.468118987
 20
42.7695544423
 30
0.0
 11
1.0
 21
0.0
 31
0.0
  1
A0
 40
3.5
 41
9.625
  0
MTEXT
  5
28E
100
AcDbEntity
  8
0
100
AcDbMText
 62
2
  6
CONTINUOUS
  7
TEXTSTYLE_2
 71
1
 72
1
 10
1120.468118987
 20
34.7695544423
 30
0.0
 11
1.0
 21
0.0
 31
0.0
  1
CASS. BRENTA 2.2 ARRETRATA
 40
3.5
 41
108.5
  0
MTEXT
  5
28F
100
AcDbEntity
  8
0
100
AcDbMText
 62
2
  6
CONTINUOUS
  7
TEXTSTYLE_2
 71
1
 72
1
 10
1120.468118987
 20
26.7695544423
 30
0.0
 11
1.0
 21
0.0
 31
0.0
  1
DATE:08/05/18
 40
2.5
 41
36.875
  0
MTEXT
  5
290
100
AcDbEntity
  8
9_SOLID
100
AcDbMText
 62
2
  6
CONTINUOUS
  7
TEXTSTYLE_2
 71
1
 72
1
 10
1090.468118987
 20
22.7070544423
 30
0.0
 11
1.0
 21
0.0
 31
0.0
  1
Any integral or partial reproductions are prohibited \Pwithout prior authorisation of L {\Ftxt.shx;\W0.190476;\H2.250000; }& L Luce & Light s.r.l., \Pin accordance with the law in force. \PAll rights reserved.
 40
2.25
 41
134.5982142857
  0
LINE
  5
291
100
AcDbEntity
  8
0
100
AcDbLine
 62
7
  6
CONTINUOUS
 10
0.0
 20
0.0
 11
0.0
 21
841.0
  0
LINE
  5
292
100
AcDbEntity
  8
0
100
AcDbLine
 62
7
  6
CONTINUOUS
 10
0.0
 20
0.0
 11
1189.0
 21
0.0
  0
LINE
  5
293
100
AcDbEntity
  8
0
100
AcDbLine
 62
7
  6
CONTINUOUS
 10
0.0
 20
841.0
 11
1189.0
 21
841.0
  0
LINE
  5
294
100
AcDbEntity
  8
0
100
AcDbLine
 62
7
  6
CONTINUOUS
 10
1189.0
 20
0.0
 11
1189.0
 21
841.0
  0
LINE
  5
295
100
AcDbEntity
  8
6_ALL_SURFS
100
AcDbLine
 62
7
  6
CONTINUOUS
 10
106.0940932063
 20
338.3755544355
 11
106.3940932063
 21
338.2255544355
  0
LINE
  5
296
100
AcDbEntity
  8
6_ALL_SURFS
100
AcDbLine
 62
7
  6
CONTINUOUS
 10
109.0940932063
 20
338.3755544355
 11
109.3940932063
 21
338.2255544355
  0
LINE
  5
297
100
AcDbEntity
  8
6_ALL_SURFS
100
AcDbLine
 62
7
  6
CONTINUOUS
 10
112.0940932063
 20
338.3755544355
 11
112.3940932063
 21
338.2255544355
  0
LINE
  5
298
100
AcDbEntity
  8
6_ALL_SURFS
100
AcDbLine
 62
7
  6
CONTINUOUS
 10
115.0940932063
 20
338.3755544355
 11
115.3940932063
 21
338.2255544355
  0
LINE
  5
299
100
AcDbEntity
  8
6_ALL_SURFS
100
AcDbLine
 62
7
  6
CONTINUOUS
 10
118.0940932063
 20
338.3755544355
 11
118.3940932063
 21
338.2255544355
  0
LINE
  5
29A
100
AcDbEntity
  8
6_ALL_SURFS
100
AcDbLine
 62
7
  6
CONTINUOUS
 10
121.0940932063
 20
338.3755544355
 11
121.3940932063
 21
338.2255544355
  0
LINE
  5
29B
100
AcDbEntity
  8
7_ALL_FEATURES
100
AcDbLine
 62
7
  6
CONTINUOUS
 10
210.9940932063
 20
337.2255544355
 11
213.1395647966
 21
337.4401015945
  0
LINE
  5
29C
100
AcDbEntity
  8
6_ALL_SURFS
100
AcDbLine
 62
7
  6
CONTINUOUS
 10
106.0940932063
 20
337.2255544355
 11
103.9486216159
 21
337.4401015945
  0
LINE
  5
29D
100
AcDbEntity
  8
6_ALL_SURFS
100
AcDbLine
 62
7
  6
CONTINUOUS
 10
124.2440932063
 20
335.7255544355
 11
124.1440932063
 21
335.7255544355
  0
LINE
  5
29E
100
AcDbEntity
  8
7_ALL_FEATURES
100
AcDbLine
 62
7
  6
CONTINUOUS
 10
124.2440932063
 20
335.7255544355
 11
192.9440932063
 21
335.7255544355
  0
LINE
  5
29F
100
AcDbEntity
  8
6_ALL_SURFS
100
AcDbLine
 62
7
  6
CONTINUOUS
 10
123.4940932063
 20
337.2255544355
 11
121.3940932063
 21
337.2255544355
  0
LINE
  5
2A0
100
AcDbEntity
  8
6_ALL_SURFS
100
AcDbLine
 62
7
  6
CONTINUOUS
 10
120.7940932063
 20
337.2255544355
 11
118.3940932063
 21
337.2255544355
  0
LINE
  5
2A1
100
AcDbEntity
  8
6_ALL_SURFS
100
AcDbLine
 62
7
  6
CONTINUOUS
 10
117.7940932063
 20
337.2255544355
 11
115.3940932063
 21
337.2255544355
  0
LINE
  5
2A2
100
AcDbEntity
  8
6_ALL_SURFS
100
AcDbLine
 62
7
  6
CONTINUOUS
 10
114.7940932063
 20
337.2255544355
 11
112.3940932063
 21
337.2255544355
  0
LINE
  5
2A3
100
AcDbEntity
  8
6_ALL_SURFS
100
AcDbLine
 62
7
  6
CONTINUOUS
 10
111.7940932063
 20
337.2255544355
 11
109.3940932063
 21
337.2255544355
  0
LINE
  5
2A4
100
AcDbEntity
  8
6_ALL_SURFS
100
AcDbLine
 62
7
  6
CONTINUOUS
 10
108.7940932063
 20
337.2255544355
 11
106.0940932063
 21
337.2255544355
  0
LINE
  5
2A5
100
AcDbEntity
  8
7_ALL_FEATURES
100
AcDbLine
 62
7
  6
CONTINUOUS
 10
193.5940932063
 20
337.2255544355
 11
195.6940932063
 21
337.2255544355
  0
LINE
  5
2A6
100
AcDbEntity
  8
6_ALL_SURFS
100
AcDbLine
 62
7
  6
CONTINUOUS
 10
196.2940932063
 20
337.2255544355
 11
198.6940932063
 21
337.2255544355
  0
LINE
  5
2A7
100
AcDbEntity
  8
6_ALL_SURFS
100
AcDbLine
 62
7
  6
CONTINUOUS
 10
199.2940932063
 20
337.2255544355
 11
201.6940932063
 21
337.2255544355
  0
LINE
  5
2A8
100
AcDbEntity
  8
6_ALL_SURFS
100
AcDbLine
 62
7
  6
CONTINUOUS
 10
202.2940932063
 20
337.2255544355
 11
204.6940932063
 21
337.2255544355
  0
LINE
  5
2A9
100
AcDbEntity
  8
6_ALL_SURFS
100
AcDbLine
 62
7
  6
CONTINUOUS
 10
205.2940932063
 20
337.2255544355
 11
207.6940932063
 21
337.2255544355
  0
LINE
  5
2AA
100
AcDbEntity
  8
6_ALL_SURFS
100
AcDbLine
 62
7
  6
CONTINUOUS
 10
208.2940932063
 20
337.2255544355
 11
210.9940932063
 21
337.2255544355
  0
LINE
  5
2AB
100
AcDbEntity
  8
7_ALL_FEATURES
100
AcDbLine
 62
7
  6
CONTINUOUS
 10
213.1003898483
 20
338.2255544355
 11
211.2940932063
 21
338.2255544355
  0
LINE
  5
2AC
100
AcDbEntity
  8
6_ALL_SURFS
100
AcDbLine
 62
7
  6
CONTINUOUS
 10
210.6940932063
 20
338.2255544355
 11
208.2940932063
 21
338.2255544355
  0
LINE
  5
2AD
100
AcDbEntity
  8
6_ALL_SURFS
100
AcDbLine
 62
7
  6
CONTINUOUS
 10
207.6940932063
 20
338.2255544355
 11
205.2940932063
 21
338.2255544355
  0
LINE
  5
2AE
100
AcDbEntity
  8
6_ALL_SURFS
100
AcDbLine
 62
7
  6
CONTINUOUS
 10
204.6940932063
 20
338.2255544355
 11
202.2940932063
 21
338.2255544355
  0
LINE
  5
2AF
100
AcDbEntity
  8
6_ALL_SURFS
100
AcDbLine
 62
7
  6
CONTINUOUS
 10
201.6940932063
 20
338.2255544355
 11
199.2940932063
 21
338.2255544355
  0
LINE
  5
2B0
100
AcDbEntity
  8
6_ALL_SURFS
100
AcDbLine
 62
7
  6
CONTINUOUS
 10
198.6940932063
 20
338.2255544355
 11
196.2940932063
 21
338.2255544355
  0
LINE
  5
2B1
100
AcDbEntity
  8
7_ALL_FEATURES
100
AcDbLine
 62
7
  6
CONTINUOUS
 10
195.6940932063
 20
338.2255544355
 11
193.7940932063
 21
338.2255544355
  0
LINE
  5
2B2
100
AcDbEntity
  8
6_ALL_SURFS
100
AcDbLine
 62
7
  6
CONTINUOUS
 10
103.9877965642
 20
338.2255544355
 11
105.7940932063
 21
338.2255544355
  0
LINE
  5
2B3
100
AcDbEntity
  8
6_ALL_SURFS
100
AcDbLine
 62
7
  6
CONTINUOUS
 10
106.3940932063
 20
338.2255544355
 11
108.7940932063
 21
338.2255544355
  0
LINE
  5
2B4
100
AcDbEntity
  8
6_ALL_SURFS
100
AcDbLine
 62
7
  6
CONTINUOUS
 10
109.3940932063
 20
338.2255544355
 11
111.7940932063
 21
338.2255544355
  0
LINE
  5
2B5
100
AcDbEntity
  8
6_ALL_SURFS
100
AcDbLine
 62
7
  6
CONTINUOUS
 10
112.3940932063
 20
338.2255544355
 11
114.7940932063
 21
338.2255544355
  0
LINE
  5
2B6
100
AcDbEntity
  8
6_ALL_SURFS
100
AcDbLine
 62
7
  6
CONTINUOUS
 10
115.3940932063
 20
338.2255544355
 11
117.7940932063
 21
338.2255544355
  0
LINE
  5
2B7
100
AcDbEntity
  8
6_ALL_SURFS
100
AcDbLine
 62
7
  6
CONTINUOUS
 10
118.3940932063
 20
338.2255544355
 11
120.7940932063
 21
338.2255544355
  0
LINE
  5
2B8
100
AcDbEntity
  8
6_ALL_SURFS
100
AcDbLine
 62
7
  6
CONTINUOUS
 10
121.3940932063
 20
338.2255544355
 11
123.2940932063
 21
338.2255544355
  0
LINE
  5
2B9
100
AcDbEntity
  8
7_ALL_FEATURES
100
AcDbLine
 62
7
  6
CONTINUOUS
 10
123.4940932063
 20
336.4755544355
 11
123.4940932063
 21
366.3755544355
  0
LINE
  5
2BA
100
AcDbEntity
  8
7_ALL_FEATURES
100
AcDbLine
 62
7
  6
CONTINUOUS
 10
125.1940932063
 20
362.3505544355
 11
125.1940932063
 21
363.1005544355
  0
LINE
  5
2BB
100
AcDbEntity
  8
7_ALL_FEATURES
100
AcDbLine
 62
7
  6
CONTINUOUS
 10
127.265454217
 20
405.5774584427
 11
131.25617245
 21
426.1185895796
  0
LINE
  5
2BC
100
AcDbEntity
  8
7_ALL_FEATURES
100
AcDbLine
 62
7
  6
CONTINUOUS
 10
131.3445363769
 20
426.1210781438
 11
126.4226002904
 21
401.2364934728
  0
LINE
  5
2BD
100
AcDbEntity
  8
6_ALL_SURFS
100
AcDbLine
 62
7
  6
CONTINUOUS
 10
126.5128434451
 20
402.186064224
 11
127.4103012654
 21
406.2301642782
  0
LINE
  5
2BE
100
AcDbEntity
  8
7_ALL_FEATURES
100
AcDbLine
 62
7
  6
CONTINUOUS
 10
126.0690932063
 20
363.9755544355
 11
126.0690932063
 21
363.1005544355
  0
LINE
  5
2BF
100
AcDbEntity
  8
7_ALL_FEATURES
100
AcDbLine
 62
7
  6
CONTINUOUS
 10
126.0690932063
 20
362.3505544355
 11
126.0690932063
 21
361.4755544355
  0
LINE
  5
2C0
100
AcDbEntity
  8
6_ALL_SURFS
100
AcDbLine
 62
7
  6
CONTINUOUS
 10
126.3940932063
 20
368.6255544355
 11
126.3940932063
 21
401.1028279756
  0
LINE
  5
2C1
100
AcDbEntity
  8
7_ALL_FEATURES
100
AcDbLine
 62
7
  6
CONTINUOUS
 10
126.8190932063
 20
361.4755544355
 11
126.8190932063
 21
362.3505544355
  0
LINE
  5
2C2
100
AcDbEntity
  8
7_ALL_FEATURES
100
AcDbLine
 62
7
  6
CONTINUOUS
 10
126.8190932063
 20
363.1005544355
 11
126.8190932063
 21
363.9755544355
  0
LINE
  5
2C3
100
AcDbEntity
  8
7_ALL_FEATURES
100
AcDbLine
 62
7
  6
CONTINUOUS
 10
127.6940932063
 20
363.1005544355
 11
127.6940932063
 21
362.3505544355
  0
LINE
  5
2C4
100
AcDbEntity
  8
7_ALL_FEATURES
100
AcDbLine
 62
7
  6
CONTINUOUS
 10
134.3440932063
 20
423.1005544355
 11
134.3440932063
 21
423.8505544355
  0
LINE
  5
2C5
100
AcDbEntity
  8
7_ALL_FEATURES
100
AcDbLine
 62
7
  6
CONTINUOUS
 10
135.2190932063
 20
424.7255544355
 11
135.2190932063
 21
423.8505544355
  0
LINE
  5
2C6
100
AcDbEntity
  8
7_ALL_FEATURES
100
AcDbLine
 62
7
  6
CONTINUOUS
 10
135.2190932063
 20
423.1005544355
 11
135.2190932063
 21
422.2255544355
  0
LINE
  5
2C7
100
AcDbEntity
  8
7_ALL_FEATURES
100
AcDbLine
 62
7
  6
CONTINUOUS
 10
135.9690932063
 20
422.2255544355
 11
135.9690932063
 21
423.1005544355
  0
LINE
  5
2C8
100
AcDbEntity
  8
7_ALL_FEATURES
100
AcDbLine
 62
7
  6
CONTINUOUS
 10
135.9690932063
 20
423.8505544355
 11
135.9690932063
 21
424.7255544355
  0
LINE
  5
2C9
100
AcDbEntity
  8
7_ALL_FEATURES
100
AcDbLine
 62
7
  6
CONTINUOUS
 10
136.8440932063
 20
423.8505544355
 11
136.8440932063
 21
423.1005544355
  0
LINE
  5
2CA
100
AcDbEntity
  8
7_ALL_FEATURES
100
AcDbLine
 62
7
  6
CONTINUOUS
 10
191.0190932063
 20
361.4755544355
 11
190.2690932063
 21
361.4755544355
  0
LINE
  5
2CB
100
AcDbEntity
  8
7_ALL_FEATURES
100
AcDbLine
 62
7
  6
CONTINUOUS
 10
126.8190932063
 20
361.4755544355
 11
126.0690932063
 21
361.4755544355
  0
LINE
  5
2CC
100
AcDbEntity
  8
7_ALL_FEATURES
100
AcDbLine
 62
7
  6
CONTINUOUS
 10
125.1940932063
 20
362.3505544355
 11
126.0690932063
 21
362.3505544355
  0
LINE
  5
2CD
100
AcDbEntity
  8
7_ALL_FEATURES
100
AcDbLine
 62
7
  6
CONTINUOUS
 10
126.8190932063
 20
362.3505544355
 11
127.6940932063
 21
362.3505544355
  0
LINE
  5
2CE
100
AcDbEntity
  8
7_ALL_FEATURES
100
AcDbLine
 62
7
  6
CONTINUOUS
 10
189.3940932063
 20
362.3505544355
 11
190.2690932063
 21
362.3505544355
  0
LINE
  5
2CF
100
AcDbEntity
  8
7_ALL_FEATURES
100
AcDbLine
 62
7
  6
CONTINUOUS
 10
191.0190932063
 20
362.3505544355
 11
191.8940932063
 21
362.3505544355
  0
LINE
  5
2D0
100
AcDbEntity
  8
6_ALL_SURFS
100
AcDbLine
 62
7
  6
CONTINUOUS
 10
196.2940932063
 20
338.2255544355
 11
195.9940932063
 21
338.3755544355
  0
LINE
  5
2D1
100
AcDbEntity
  8
6_ALL_SURFS
100
AcDbLine
 62
7
  6
CONTINUOUS
 10
199.2940932063
 20
338.2255544355
 11
198.9940932063
 21
338.3755544355
  0
LINE
  5
2D2
100
AcDbEntity
  8
6_ALL_SURFS
100
AcDbLine
 62
7
  6
CONTINUOUS
 10
202.2940932063
 20
338.2255544355
 11
201.9940932063
 21
338.3755544355
  0
LINE
  5
2D3
100
AcDbEntity
  8
7_ALL_FEATURES
100
AcDbLine
 62
7
  6
CONTINUOUS
 10
191.8940932063
 20
363.1005544355
 11
191.0190932063
 21
363.1005544355
  0
LINE
  5
2D4
100
AcDbEntity
  8
7_ALL_FEATURES
100
AcDbLine
 62
7
  6
CONTINUOUS
 10
190.2690932063
 20
363.1005544355
 11
189.3940932063
 21
363.1005544355
  0
LINE
  5
2D5
100
AcDbEntity
  8
7_ALL_FEATURES
100
AcDbLine
 62
7
  6
CONTINUOUS
 10
127.6940932063
 20
363.1005544355
 11
126.8190932063
 21
363.1005544355
  0
LINE
  5
2D6
100
AcDbEntity
  8
7_ALL_FEATURES
100
AcDbLine
 62
7
  6
CONTINUOUS
 10
126.0690932063
 20
363.1005544355
 11
125.1940932063
 21
363.1005544355
  0
LINE
  5
2D7
100
AcDbEntity
  8
7_ALL_FEATURES
100
AcDbLine
 62
7
  6
CONTINUOUS
 10
126.0690932063
 20
363.9755544355
 11
126.8190932063
 21
363.9755544355
  0
LINE
  5
2D8
100
AcDbEntity
  8
7_ALL_FEATURES
100
AcDbLine
 62
7
  6
CONTINUOUS
 10
190.2690932063
 20
363.9755544355
 11
191.0190932063
 21
363.9755544355
  0
LINE
  5
2D9
100
AcDbEntity
  8
6_ALL_SURFS
100
AcDbLine
 62
7
  6
CONTINUOUS
 10
192.8440932063
 20
367.1255544355
 11
192.1940932063
 21
367.1255544355
  0
LINE
  5
2DA
100
AcDbEntity
  8
6_ALL_SURFS
100
AcDbLine
 62
7
  6
CONTINUOUS
 10
124.8940932063
 20
367.1255544355
 11
124.2440932063
 21
367.1255544355
  0
LINE
  5
2DB
100
AcDbEntity
  8
6_ALL_SURFS
100
AcDbLine
 62
7
  6
CONTINUOUS
 10
205.2940932063
 20
338.2255544355
 11
204.9940932063
 21
338.3755544355
  0
LINE
  5
2DC
100
AcDbEntity
  8
6_ALL_SURFS
100
AcDbLine
 62
7
  6
CONTINUOUS
 10
208.2940932063
 20
338.2255544355
 11
207.9940932063
 21
338.3755544355
  0
LINE
  5
2DD
100
AcDbEntity
  8
6_ALL_SURFS
100
AcDbLine
 62
7
  6
CONTINUOUS
 10
211.2940932063
 20
338.2255544355
 11
210.9940932063
 21
338.3755544355
  0
LINE
  5
2DE
100
AcDbEntity
  8
7_ALL_FEATURES
100
AcDbLine
 62
7
  6
CONTINUOUS
 10
154.5440932063
 20
417.1602031306
 11
154.5440932063
 21
417.9707379289
  0
LINE
  5
2DF
100
AcDbEntity
  8
7_ALL_FEATURES
100
AcDbLine
 62
7
  6
CONTINUOUS
 10
162.5440932063
 20
417.1602031306
 11
162.5440932063
 21
417.9707379289
  0
LINE
  5
2E0
100
AcDbEntity
  8
6_ALL_SURFS
100
AcDbLine
 62
7
  6
CONTINUOUS
 10
105.7940932063
 20
338.2255544355
 11
106.0940932063
 21
338.3755544355
  0
LINE
  5
2E1
100
AcDbEntity
  8
6_ALL_SURFS
100
AcDbLine
 62
7
  6
CONTINUOUS
 10
108.7940932063
 20
338.2255544355
 11
109.0940932063
 21
338.3755544355
  0
LINE
  5
2E2
100
AcDbEntity
  8
6_ALL_SURFS
100
AcDbLine
 62
7
  6
CONTINUOUS
 10
111.7940932063
 20
338.2255544355
 11
112.0940932063
 21
338.3755544355
  0
LINE
  5
2E3
100
AcDbEntity
  8
6_ALL_SURFS
100
AcDbLine
 62
7
  6
CONTINUOUS
 10
114.7940932063
 20
338.2255544355
 11
115.0940932063
 21
338.3755544355
  0
LINE
  5
2E4
100
AcDbEntity
  8
7_ALL_FEATURES
100
AcDbLine
 62
7
  6
CONTINUOUS
 10
180.2440932063
 20
423.1005544355
 11
180.2440932063
 21
423.8505544355
  0
LINE
  5
2E5
100
AcDbEntity
  8
7_ALL_FEATURES
100
AcDbLine
 62
7
  6
CONTINUOUS
 10
181.1190932063
 20
424.7255544355
 11
181.1190932063
 21
423.8505544355
  0
LINE
  5
2E6
100
AcDbEntity
  8
7_ALL_FEATURES
100
AcDbLine
 62
7
  6
CONTINUOUS
 10
181.1190932063
 20
423.1005544355
 11
181.1190932063
 21
422.2255544355
  0
LINE
  5
2E7
100
AcDbEntity
  8
7_ALL_FEATURES
100
AcDbLine
 62
7
  6
CONTINUOUS
 10
181.8690932063
 20
422.2255544355
 11
181.8690932063
 21
423.1005544355
  0
LINE
  5
2E8
100
AcDbEntity
  8
7_ALL_FEATURES
100
AcDbLine
 62
7
  6
CONTINUOUS
 10
181.8690932063
 20
423.8505544355
 11
181.8690932063
 21
424.7255544355
  0
LINE
  5
2E9
100
AcDbEntity
  8
7_ALL_FEATURES
100
AcDbLine
 62
7
  6
CONTINUOUS
 10
182.7440932063
 20
423.8505544355
 11
182.7440932063
 21
423.1005544355
  0
LINE
  5
2EA
100
AcDbEntity
  8
6_ALL_SURFS
100
AcDbLine
 62
7
  6
CONTINUOUS
 10
117.7940932063
 20
338.2255544355
 11
118.0940932063
 21
338.3755544355
  0
LINE
  5
2EB
100
AcDbEntity
  8
6_ALL_SURFS
100
AcDbLine
 62
7
  6
CONTINUOUS
 10
120.7940932063
 20
338.2255544355
 11
121.0940932063
 21
338.3755544355
  0
LINE
  5
2EC
100
AcDbEntity
  8
6_ALL_SURFS
100
AcDbLine
 62
7
  6
CONTINUOUS
 10
169.5263231711
 20
407.1005544355
 11
168.7750205836
 21
407.1005544355
  0
LINE
  5
2ED
100
AcDbEntity
  8
6_ALL_SURFS
100
AcDbLine
 62
7
  6
CONTINUOUS
 10
148.3131658289
 20
407.1005544355
 11
147.5618632414
 21
407.1005544355
  0
LINE
  5
2EE
100
AcDbEntity
  8
6_ALL_SURFS
100
AcDbLine
 62
7
  6
CONTINUOUS
 10
147.5618632414
 20
408.3505544355
 11
148.3131658289
 21
408.3505544355
  0
LINE
  5
2EF
100
AcDbEntity
  8
6_ALL_SURFS
100
AcDbLine
 62
7
  6
CONTINUOUS
 10
168.7750205836
 20
408.3505544355
 11
169.5263231711
 21
408.3505544355
  0
LINE
  5
2F0
100
AcDbEntity
  8
7_ALL_FEATURES
100
AcDbLine
 62
7
  6
CONTINUOUS
 10
189.3940932063
 20
362.3505544355
 11
189.3940932063
 21
363.1005544355
  0
LINE
  5
2F1
100
AcDbEntity
  8
7_ALL_FEATURES
100
AcDbLine
 62
7
  6
CONTINUOUS
 10
190.2690932063
 20
363.9755544355
 11
190.2690932063
 21
363.1005544355
  0
LINE
  5
2F2
100
AcDbEntity
  8
7_ALL_FEATURES
100
AcDbLine
 62
7
  6
CONTINUOUS
 10
190.2690932063
 20
362.3505544355
 11
190.2690932063
 21
361.4755544355
  0
LINE
  5
2F3
100
AcDbEntity
  8
6_ALL_SURFS
100
AcDbLine
 62
7
  6
CONTINUOUS
 10
190.6940932063
 20
368.6255544355
 11
190.6940932063
 21
400.9502834441
  0
LINE
  5
2F4
100
AcDbEntity
  8
7_ALL_FEATURES
100
AcDbLine
 62
7
  6
CONTINUOUS
 10
190.6940932063
 20
400.9502834441
 11
190.6940932063
 21
401.1028279756
  0
LINE
  5
2F5
100
AcDbEntity
  8
7_ALL_FEATURES
100
AcDbLine
 62
7
  6
CONTINUOUS
 10
191.0190932063
 20
361.4755544355
 11
191.0190932063
 21
362.3505544355
  0
LINE
  5
2F6
100
AcDbEntity
  8
7_ALL_FEATURES
100
AcDbLine
 62
7
  6
CONTINUOUS
 10
191.0190932063
 20
363.1005544355
 11
191.0190932063
 21
363.9755544355
  0
LINE
  5
2F7
100
AcDbEntity
  8
7_ALL_FEATURES
100
AcDbLine
 62
7
  6
CONTINUOUS
 10
191.8940932063
 20
363.1005544355
 11
191.8940932063
 21
362.3505544355
  0
LINE
  5
2F8
100
AcDbEntity
  8
7_ALL_FEATURES
100
AcDbLine
 62
7
  6
CONTINUOUS
 10
193.5940932063
 20
366.3755544355
 11
193.5940932063
 21
336.4755544355
  0
LINE
  5
2F9
100
AcDbEntity
  8
7_ALL_FEATURES
100
AcDbLine
 62
7
  6
CONTINUOUS
 10
190.5753429674
 20
402.186064224
 11
189.8227321955
 21
405.5774584427
  0
LINE
  5
2FA
100
AcDbEntity
  8
7_ALL_FEATURES
100
AcDbLine
 62
7
  6
CONTINUOUS
 10
185.8320139625
 20
426.1185895796
 11
190.6730193352
 21
401.2008378394
  0
LINE
  5
2FB
100
AcDbEntity
  8
7_ALL_FEATURES
100
AcDbLine
 62
7
  6
CONTINUOUS
 10
181.8690932063
 20
422.2255544355
 11
181.1190932063
 21
422.2255544355
  0
LINE
  5
2FC
100
AcDbEntity
  8
7_ALL_FEATURES
100
AcDbLine
 62
7
  6
CONTINUOUS
 10
135.9690932063
 20
422.2255544355
 11
135.2190932063
 21
422.2255544355
  0
LINE
  5
2FD
100
AcDbEntity
  8
7_ALL_FEATURES
100
AcDbLine
 62
7
  6
CONTINUOUS
 10
134.3440932063
 20
423.1005544355
 11
135.2190932063
 21
423.1005544355
  0
LINE
  5
2FE
100
AcDbEntity
  8
7_ALL_FEATURES
100
AcDbLine
 62
7
  6
CONTINUOUS
 10
135.9690932063
 20
423.1005544355
 11
136.8440932063
 21
423.1005544355
  0
LINE
  5
2FF
100
AcDbEntity
  8
7_ALL_FEATURES
100
AcDbLine
 62
7
  6
CONTINUOUS
 10
180.2440932063
 20
423.1005544355
 11
181.1190932063
 21
423.1005544355
  0
LINE
  5
300
100
AcDbEntity
  8
7_ALL_FEATURES
100
AcDbLine
 62
7
  6
CONTINUOUS
 10
181.8690932063
 20
423.1005544355
 11
182.7440932063
 21
423.1005544355
  0
LINE
  5
301
100
AcDbEntity
  8
7_ALL_FEATURES
100
AcDbLine
 62
7
  6
CONTINUOUS
 10
182.7440932063
 20
423.8505544355
 11
181.8690932063
 21
423.8505544355
  0
LINE
  5
302
100
AcDbEntity
  8
7_ALL_FEATURES
100
AcDbLine
 62
7
  6
CONTINUOUS
 10
181.1190932063
 20
423.8505544355
 11
180.2440932063
 21
423.8505544355
  0
LINE
  5
303
100
AcDbEntity
  8
7_ALL_FEATURES
100
AcDbLine
 62
7
  6
CONTINUOUS
 10
136.8440932063
 20
423.8505544355
 11
135.9690932063
 21
423.8505544355
  0
LINE
  5
304
100
AcDbEntity
  8
7_ALL_FEATURES
100
AcDbLine
 62
7
  6
CONTINUOUS
 10
135.2190932063
 20
423.8505544355
 11
134.3440932063
 21
423.8505544355
  0
LINE
  5
305
100
AcDbEntity
  8
7_ALL_FEATURES
100
AcDbLine
 62
7
  6
CONTINUOUS
 10
135.2190932063
 20
424.7255544355
 11
135.9690932063
 21
424.7255544355
  0
LINE
  5
306
100
AcDbEntity
  8
7_ALL_FEATURES
100
AcDbLine
 62
7
  6
CONTINUOUS
 10
181.1190932063
 20
424.7255544355
 11
181.8690932063
 21
424.7255544355
  0
LINE
  5
307
100
AcDbEntity
  8
7_ALL_FEATURES
100
AcDbLine
 62
7
  6
CONTINUOUS
 10
185.0957796604
 20
426.7255544355
 11
161.1898445173
 21
426.7255544355
  0
LINE
  5
308
100
AcDbEntity
  8
7_ALL_FEATURES
100
AcDbLine
 62
7
  6
CONTINUOUS
 10
155.8983418952
 20
426.7255544355
 11
132.0802828348
 21
426.7255544355
  0
LINE
  5
309
100
AcDbEntity
  8
7_ALL_FEATURES
100
AcDbLine
 62
7
  6
CONTINUOUS
 10
156.4440932063
 20
426.7255544355
 11
160.6440932063
 21
426.7255544355
  0
LINE
  5
30A
100
AcDbEntity
  8
6_ALL_SURFS
100
AcDbLine
 62
7
  6
CONTINUOUS
 10
195.9940932063
 20
338.3755544355
 11
195.6940932063
 21
338.2255544355
  0
LINE
  5
30B
100
AcDbEntity
  8
6_ALL_SURFS
100
AcDbLine
 62
7
  6
CONTINUOUS
 10
198.9940932063
 20
338.3755544355
 11
198.6940932063
 21
338.2255544355
  0
LINE
  5
30C
100
AcDbEntity
  8
6_ALL_SURFS
100
AcDbLine
 62
7
  6
CONTINUOUS
 10
201.9940932063
 20
338.3755544355
 11
201.6940932063
 21
338.2255544355
  0
LINE
  5
30D
100
AcDbEntity
  8
6_ALL_SURFS
100
AcDbLine
 62
7
  6
CONTINUOUS
 10
204.9940932063
 20
338.3755544355
 11
204.6940932063
 21
338.2255544355
  0
LINE
  5
30E
100
AcDbEntity
  8
6_ALL_SURFS
100
AcDbLine
 62
7
  6
CONTINUOUS
 10
207.9940932063
 20
338.3755544355
 11
207.6940932063
 21
338.2255544355
  0
LINE
  5
30F
100
AcDbEntity
  8
6_ALL_SURFS
100
AcDbLine
 62
7
  6
CONTINUOUS
 10
210.9940932063
 20
338.3755544355
 11
210.6940932063
 21
338.2255544355
  0
LINE
  5
310
100
AcDbEntity
  8
3_ALL_AXES
100
AcDbLine
 62
7
  6
CONTINUOUS
 10
263.6379032258
 20
359.9756025017
 11
263.6379032258
 21
365.4755063693
  0
LINE
  5
311
100
AcDbEntity
  8
3_ALL_AXES
100
AcDbLine
 62
7
  6
CONTINUOUS
 10
263.6379032258
 20
420.7256025017
 11
263.6379032258
 21
426.2255063693
  0
LINE
  5
312
100
AcDbEntity
  8
3_ALL_AXES
100
AcDbLine
 62
7
  6
CONTINUOUS
 10
263.7886235554
 20
359.9755544355
 11
263.7886235554
 21
365.4755544355
  0
LINE
  5
313
100
AcDbEntity
  8
3_ALL_AXES
100
AcDbLine
 62
7
  6
CONTINUOUS
 10
263.7886235554
 20
420.7255544355
 11
263.7886235554
 21
426.2255544355
  0
LINE
  5
314
100
AcDbEntity
  8
7_ALL_FEATURES
100
AcDbLine
 62
7
  6
CONTINUOUS
 10
264.7379032258
 20
335.7255544355
 11
264.7379032258
 21
366.3755544355
  0
LINE
  5
315
100
AcDbEntity
  8
6_ALL_SURFS
100
AcDbLine
 62
7
  6
CONTINUOUS
 10
264.7379032258
 20
366.3755544355
 11
264.7379032258
 21
400.9502834441
  0
LINE
  5
316
100
AcDbEntity
  8
7_ALL_FEATURES
100
AcDbLine
 62
7
  6
CONTINUOUS
 10
264.7379032258
 20
400.9502834441
 11
264.7379032258
 21
426.7255544355
  0
LINE
  5
317
100
AcDbEntity
  8
7_ALL_FEATURES
100
AcDbLine
 62
7
  6
CONTINUOUS
 10
266.2379032258
 20
401.0341656943
 11
266.2379032258
 21
400.9502834441
  0
LINE
  5
318
100
AcDbEntity
  8
7_ALL_FEATURES
100
AcDbLine
 62
7
  6
CONTINUOUS
 10
266.2379032258
 20
366.3755544355
 11
266.2379032258
 21
351.0991728662
  0
LINE
  5
319
100
AcDbEntity
  8
7_ALL_FEATURES
100
AcDbLine
 62
7
  6
CONTINUOUS
 10
266.2379032258
 20
348.3557878651
 11
266.2379032258
 21
338.3755544355
  0
LINE
  5
31A
100
AcDbEntity
  8
6_ALL_SURFS
100
AcDbLine
 62
7
  6
CONTINUOUS
 10
266.2379032258
 20
335.7733703377
 11
266.2379032258
 21
335.7255544355
  0
LINE
  5
31B
100
AcDbEntity
  8
7_ALL_FEATURES
100
AcDbLine
 62
7
  6
CONTINUOUS
 10
266.2379032258
 20
335.7733703377
 11
266.2379032258
 21
337.2255544355
  0
LINE
  5
31C
100
AcDbEntity
  8
6_ALL_SURFS
100
AcDbLine
 62
7
  6
CONTINUOUS
 10
266.2379032258
 20
337.2255544355
 11
266.2379032258
 21
338.3755544355
  0
LINE
  5
31D
100
AcDbEntity
  8
6_ALL_SURFS
100
AcDbLine
 62
7
  6
CONTINUOUS
 10
266.2379032258
 20
348.3557878651
 11
266.2379032258
 21
351.0991728662
  0
LINE
  5
31E
100
AcDbEntity
  8
6_ALL_SURFS
100
AcDbLine
 62
7
  6
CONTINUOUS
 10
266.2379032258
 20
361.3255544355
 11
266.2379032258
 21
364.1255544355
  0
LINE
  5
31F
100
AcDbEntity
  8
6_ALL_SURFS
100
AcDbLine
 62
7
  6
CONTINUOUS
 10
266.2379032258
 20
366.3755544355
 11
266.2379032258
 21
405.5774584427
  0
LINE
  5
320
100
AcDbEntity
  8
7_ALL_FEATURES
100
AcDbLine
 62
7
  6
CONTINUOUS
 10
266.2379032258
 20
405.5774584427
 11
266.2379032258
 21
426.7255544355
  0
LINE
  5
321
100
AcDbEntity
  8
3_ALL_AXES
100
AcDbLine
 62
7
  6
CONTINUOUS
 10
264.7379032258
 20
421.5220946568
 11
263.7886235554
 21
420.7255544355
  0
LINE
  5
322
100
AcDbEntity
  8
3_ALL_AXES
100
AcDbLine
 62
7
  6
CONTINUOUS
 10
264.7379032258
 20
364.6790142142
 11
263.7886235554
 21
365.4755544355
  0
LINE
  5
323
100
AcDbEntity
  8
3_ALL_AXES
100
AcDbLine
 62
7
  6
CONTINUOUS
 10
264.7379032258
 20
360.7720946568
 11
263.7886235554
 21
359.9755544355
  0
LINE
  5
324
100
AcDbEntity
  8
3_ALL_AXES
100
AcDbLine
 62
7
  6
CONTINUOUS
 10
264.7379032258
 20
425.4290142142
 11
263.7886235554
 21
426.2255544355
  0
LINE
  5
325
100
AcDbEntity
  8
6_ALL_SURFS
100
AcDbLine
 62
7
  6
CONTINUOUS
 10
1110.2379032258
 20
335.7255544355
 11
266.2379032258
 21
335.7255544355
  0
LINE
  5
326
100
AcDbEntity
  8
7_ALL_FEATURES
100
AcDbLine
 62
7
  6
CONTINUOUS
 10
266.2379032258
 20
335.7255544355
 11
264.7379032258
 21
335.7255544355
  0
LINE
  5
327
100
AcDbEntity
  8
7_ALL_FEATURES
100
AcDbLine
 62
7
  6
CONTINUOUS
 10
1110.2379032258
 20
335.7255544355
 11
1111.7379032258
 21
335.7255544355
  0
LINE
  5
328
100
AcDbEntity
  8
6_ALL_SURFS
100
AcDbLine
 62
9
  6
CONTINUOUS
 10
1110.2379032258
 20
336.0255544355
 11
266.2379032258
 21
336.0255544355
  0
LINE
  5
329
100
AcDbEntity
  8
7_ALL_FEATURES
100
AcDbLine
 62
9
  6
CONTINUOUS
 10
266.2379032258
 20
336.4755544355
 11
264.7379032258
 21
336.4755544355
  0
LINE
  5
32A
100
AcDbEntity
  8
7_ALL_FEATURES
100
AcDbLine
 62
9
  6
CONTINUOUS
 10
1110.2379032258
 20
336.4755544355
 11
1111.7379032258
 21
336.4755544355
  0
LINE
  5
32B
100
AcDbEntity
  8
6_ALL_SURFS
100
AcDbLine
 62
9
  6
CONTINUOUS
 10
266.2379032258
 20
336.9255544355
 11
1110.2379032258
 21
336.9255544355
  0
LINE
  5
32C
100
AcDbEntity
  8
6_ALL_SURFS
100
AcDbLine
 62
7
  6
CONTINUOUS
 10
266.2379032258
 20
337.2255544355
 11
1110.2379032258
 21
337.2255544355
  0
LINE
  5
32D
100
AcDbEntity
  8
6_ALL_SURFS
100
AcDbLine
 62
9
  6
CONTINUOUS
 10
266.2379032258
 20
337.4401015945
 11
1110.2379032258
 21
337.4401015945
  0
LINE
  5
32E
100
AcDbEntity
  8
6_ALL_SURFS
100
AcDbLine
 62
7
  6
CONTINUOUS
 10
266.2379032258
 20
338.2255544355
 11
1110.2379032258
 21
338.2255544355
  0
LINE
  5
32F
100
AcDbEntity
  8
6_ALL_SURFS
100
AcDbLine
 62
7
  6
CONTINUOUS
 10
266.2379032258
 20
338.3755544355
 11
1110.2379032258
 21
338.3755544355
  0
LINE
  5
330
100
AcDbEntity
  8
6_ALL_SURFS
100
AcDbLine
 62
9
  6
CONTINUOUS
 10
266.2379032258
 20
338.5255544355
 11
1110.2379032258
 21
338.5255544355
  0
LINE
  5
331
100
AcDbEntity
  8
6_ALL_SURFS
100
AcDbLine
 62
7
  6
CONTINUOUS
 10
266.2379032258
 20
348.2375139231
 11
1110.2379032258
 21
348.2375139231
  0
LINE
  5
332
100
AcDbEntity
  8
6_ALL_SURFS
100
AcDbLine
 62
7
  6
CONTINUOUS
 10
266.2379032258
 20
351.2174468082
 11
1110.2379032258
 21
351.2174468082
  0
LINE
  5
333
100
AcDbEntity
  8
6_ALL_SURFS
100
AcDbLine
 62
9
  6
CONTINUOUS
 10
1110.2379032258
 20
354.7255544355
 11
266.2379032258
 21
354.7255544355
  0
LINE
  5
334
100
AcDbEntity
  8
6_ALL_SURFS
100
AcDbLine
 62
9
  6
CONTINUOUS
 10
1110.2379032258
 20
355.7485519756
 11
266.2379032258
 21
355.7485519756
  0
LINE
  5
335
100
AcDbEntity
  8
6_ALL_SURFS
100
AcDbLine
 62
9
  6
CONTINUOUS
 10
266.2379032258
 20
357.9109155586
 11
1110.2379032258
 21
357.9109155586
  0
LINE
  5
336
100
AcDbEntity
  8
6_ALL_SURFS
100
AcDbLine
 62
9
  6
CONTINUOUS
 10
266.2379032258
 20
358.1155150667
 11
1110.2379032258
 21
358.1155150667
  0
LINE
  5
337
100
AcDbEntity
  8
6_ALL_SURFS
100
AcDbLine
 62
9
  6
CONTINUOUS
 10
266.2379032258
 20
359.5255544355
 11
1110.2379032258
 21
359.5255544355
  0
LINE
  5
338
100
AcDbEntity
  8
6_ALL_SURFS
100
AcDbLine
 62
7
  6
CONTINUOUS
 10
1110.2379032258
 20
359.8255544355
 11
266.2379032258
 21
359.8255544355
  0
LINE
  5
339
100
AcDbEntity
  8
3_ALL_AXES
100
AcDbLine
 62
7
  6
CONTINUOUS
 10
263.7886235554
 20
359.9755544355
 11
263.6379032258
 21
359.9755544355
  0
LINE
  5
33A
100
AcDbEntity
  8
3_ALL_AXES
100
AcDbLine
 62
7
  6
CONTINUOUS
 10
1112.6871828962
 20
359.9755544355
 11
1112.8379032258
 21
359.9755544355
  0
LINE
  5
33B
100
AcDbEntity
  8
6_ALL_SURFS
100
AcDbLine
 62
9
  6
CONTINUOUS
 10
1110.2379032258
 20
361.3255544355
 11
266.2379032258
 21
361.3255544355
  0
LINE
  5
33C
100
AcDbEntity
  8
6_ALL_SURFS
100
AcDbLine
 62
9
  6
CONTINUOUS
 10
1110.2379032258
 20
364.1255544355
 11
266.2379032258
 21
364.1255544355
  0
LINE
  5
33D
100
AcDbEntity
  8
3_ALL_AXES
100
AcDbLine
 62
7
  6
CONTINUOUS
 10
263.7886235554
 20
365.4755544355
 11
263.6379032258
 21
365.4755544355
  0
LINE
  5
33E
100
AcDbEntity
  8
3_ALL_AXES
100
AcDbLine
 62
7
  6
CONTINUOUS
 10
1112.6871828962
 20
365.4755544355
 11
1112.8379032258
 21
365.4755544355
  0
LINE
  5
33F
100
AcDbEntity
  8
6_ALL_SURFS
100
AcDbLine
 62
7
  6
CONTINUOUS
 10
1110.2379032258
 20
365.6255544355
 11
266.2379032258
 21
365.6255544355
  0
LINE
  5
340
100
AcDbEntity
  8
6_ALL_SURFS
100
AcDbLine
 62
9
  6
CONTINUOUS
 10
266.2379032258
 20
365.9255544355
 11
1110.2379032258
 21
365.9255544355
  0
LINE
  5
341
100
AcDbEntity
  8
6_ALL_SURFS
100
AcDbLine
 62
9
  6
CONTINUOUS
 10
1111.7379032258
 20
366.3755544355
 11
1110.2379032258
 21
366.3755544355
  0
LINE
  5
342
100
AcDbEntity
  8
6_ALL_SURFS
100
AcDbLine
 62
9
  6
CONTINUOUS
 10
264.7379032258
 20
366.3755544355
 11
266.2379032258
 21
366.3755544355
  0
LINE
  5
343
100
AcDbEntity
  8
6_ALL_SURFS
100
AcDbLine
 62
7
  6
CONTINUOUS
 10
1111.7379032258
 20
367.1255544355
 11
1110.2379032258
 21
367.1255544355
  0
LINE
  5
344
100
AcDbEntity
  8
6_ALL_SURFS
100
AcDbLine
 62
7
  6
CONTINUOUS
 10
264.7379032258
 20
367.1255544355
 11
266.2379032258
 21
367.1255544355
  0
LINE
  5
345
100
AcDbEntity
  8
6_ALL_SURFS
100
AcDbLine
 62
9
  6
CONTINUOUS
 10
266.2379032258
 20
368.6255544355
 11
264.7379032258
 21
368.6255544355
  0
LINE
  5
346
100
AcDbEntity
  8
6_ALL_SURFS
100
AcDbLine
 62
9
  6
CONTINUOUS
 10
1110.2379032258
 20
368.6255544355
 11
1111.7379032258
 21
368.6255544355
  0
LINE
  5
347
100
AcDbEntity
  8
6_ALL_SURFS
100
AcDbLine
 62
9
  6
CONTINUOUS
 10
1111.7379032258
 20
400.9454460562
 11
1110.2379032258
 21
400.9454460562
  0
LINE
  5
348
100
AcDbEntity
  8
6_ALL_SURFS
100
AcDbLine
 62
9
  6
CONTINUOUS
 10
264.7379032258
 20
400.9502834441
 11
266.2379032258
 21
400.9502834441
  0
LINE
  5
349
100
AcDbEntity
  8
6_ALL_SURFS
100
AcDbLine
 62
9
  6
CONTINUOUS
 10
1110.2379032258
 20
401.1028279756
 11
266.2379032258
 21
401.1028279756
  0
LINE
  5
34A
100
AcDbEntity
  8
7_ALL_FEATURES
100
AcDbLine
 62
7
  6
CONTINUOUS
 10
264.7379032258
 20
401.2008378394
 11
266.2379032258
 21
401.2008378394
  0
LINE
  5
34B
100
AcDbEntity
  8
6_ALL_SURFS
100
AcDbLine
 62
9
  6
CONTINUOUS
 10
1111.7379032258
 20
401.2364934728
 11
1110.2379032258
 21
401.2364934728
  0
LINE
  5
34C
100
AcDbEntity
  8
6_ALL_SURFS
100
AcDbLine
 62
9
  6
CONTINUOUS
 10
1110.2379032258
 20
402.186064224
 11
266.2379032258
 21
402.186064224
  0
LINE
  5
34D
100
AcDbEntity
  8
6_ALL_SURFS
100
AcDbLine
 62
9
  6
CONTINUOUS
 10
1110.2379032258
 20
420.15052531
 11
266.2379032258
 21
420.15052531
  0
LINE
  5
34E
100
AcDbEntity
  8
3_ALL_AXES
100
AcDbLine
 62
7
  6
CONTINUOUS
 10
263.7886235554
 20
420.7255544355
 11
263.6379032258
 21
420.7255544355
  0
LINE
  5
34F
100
AcDbEntity
  8
3_ALL_AXES
100
AcDbLine
 62
7
  6
CONTINUOUS
 10
1112.6871828962
 20
420.7255544355
 11
1112.8379032258
 21
420.7255544355
  0
LINE
  5
350
100
AcDbEntity
  8
6_ALL_SURFS
100
AcDbLine
 62
7
  6
CONTINUOUS
 10
1110.2379032258
 20
421.3255544355
 11
266.2379032258
 21
421.3255544355
  0
LINE
  5
351
100
AcDbEntity
  8
6_ALL_SURFS
100
AcDbLine
 62
9
  6
CONTINUOUS
 10
266.2379032258
 20
422.0755544355
 11
1110.2379032258
 21
422.0755544355
  0
LINE
  5
352
100
AcDbEntity
  8
6_ALL_SURFS
100
AcDbLine
 62
9
  6
CONTINUOUS
 10
266.2379032258
 20
424.7058574658
 11
1110.2379032258
 21
424.7058574658
  0
LINE
  5
353
100
AcDbEntity
  8
6_ALL_SURFS
100
AcDbLine
 62
7
  6
CONTINUOUS
 10
1110.2379032258
 20
425.4255544355
 11
266.2379032258
 21
425.4255544355
  0
LINE
  5
354
100
AcDbEntity
  8
6_ALL_SURFS
100
AcDbLine
 62
9
  6
CONTINUOUS
 10
1110.2379032258
 20
425.7255544355
 11
266.2379032258
 21
425.7255544355
  0
LINE
  5
355
100
AcDbEntity
  8
7_ALL_FEATURES
100
AcDbLine
 62
9
  6
CONTINUOUS
 10
264.7379032258
 20
426.1185895796
 11
266.2379032258
 21
426.1185895796
  0
LINE
  5
356
100
AcDbEntity
  8
7_ALL_FEATURES
100
AcDbLine
 62
9
  6
CONTINUOUS
 10
1111.7379032258
 20
426.1210781438
 11
1110.2379032258
 21
426.1210781438
  0
LINE
  5
357
100
AcDbEntity
  8
3_ALL_AXES
100
AcDbLine
 62
7
  6
CONTINUOUS
 10
263.7886235554
 20
426.2255544355
 11
263.6379032258
 21
426.2255544355
  0
LINE
  5
358
100
AcDbEntity
  8
3_ALL_AXES
100
AcDbLine
 62
7
  6
CONTINUOUS
 10
1112.6871828962
 20
426.2255544355
 11
1112.8379032258
 21
426.2255544355
  0
LINE
  5
359
100
AcDbEntity
  8
6_ALL_SURFS
100
AcDbLine
 62
9
  6
CONTINUOUS
 10
1110.2379032258
 20
426.4255544355
 11
266.2379032258
 21
426.4255544355
  0
LINE
  5
35A
100
AcDbEntity
  8
7_ALL_FEATURES
100
AcDbLine
 62
7
  6
CONTINUOUS
 10
1111.7379032258
 20
426.7255544355
 11
1110.2379032258
 21
426.7255544355
  0
LINE
  5
35B
100
AcDbEntity
  8
6_ALL_SURFS
100
AcDbLine
 62
7
  6
CONTINUOUS
 10
1110.2379032258
 20
426.7255544355
 11
266.2379032258
 21
426.7255544355
  0
LINE
  5
35C
100
AcDbEntity
  8
7_ALL_FEATURES
100
AcDbLine
 62
7
  6
CONTINUOUS
 10
264.7379032258
 20
426.7255544355
 11
266.2379032258
 21
426.7255544355
  0
LINE
  5
35D
100
AcDbEntity
  8
3_ALL_AXES
100
AcDbLine
 62
7
  6
CONTINUOUS
 10
1111.7379032258
 20
425.4290142142
 11
1112.6871828962
 21
426.2255544355
  0
LINE
  5
35E
100
AcDbEntity
  8
3_ALL_AXES
100
AcDbLine
 62
7
  6
CONTINUOUS
 10
1111.7379032258
 20
360.7720946568
 11
1112.6871828962
 21
359.9755544355
  0
LINE
  5
35F
100
AcDbEntity
  8
3_ALL_AXES
100
AcDbLine
 62
7
  6
CONTINUOUS
 10
1111.7379032258
 20
364.6790142142
 11
1112.6871828962
 21
365.4755544355
  0
LINE
  5
360
100
AcDbEntity
  8
3_ALL_AXES
100
AcDbLine
 62
7
  6
CONTINUOUS
 10
1111.7379032258
 20
421.5220946568
 11
1112.6871828962
 21
420.7255544355
  0
LINE
  5
361
100
AcDbEntity
  8
6_ALL_SURFS
100
AcDbLine
 62
7
  6
CONTINUOUS
 10
1110.2379032258
 20
335.7255544355
 11
1110.2379032258
 21
335.7733703377
  0
LINE
  5
362
100
AcDbEntity
  8
7_ALL_FEATURES
100
AcDbLine
 62
7
  6
CONTINUOUS
 10
1110.2379032258
 20
335.7733703377
 11
1110.2379032258
 21
337.2255544355
  0
LINE
  5
363
100
AcDbEntity
  8
6_ALL_SURFS
100
AcDbLine
 62
7
  6
CONTINUOUS
 10
1110.2379032258
 20
337.2255544355
 11
1110.2379032258
 21
338.3755544355
  0
LINE
  5
364
100
AcDbEntity
  8
7_ALL_FEATURES
100
AcDbLine
 62
7
  6
CONTINUOUS
 10
1110.2379032258
 20
338.3755544355
 11
1110.2379032258
 21
348.3557878651
  0
LINE
  5
365
100
AcDbEntity
  8
6_ALL_SURFS
100
AcDbLine
 62
7
  6
CONTINUOUS
 10
1110.2379032258
 20
348.3557878651
 11
1110.2379032258
 21
351.0991728662
  0
LINE
  5
366
100
AcDbEntity
  8
6_ALL_SURFS
100
AcDbLine
 62
7
  6
CONTINUOUS
 10
1110.2379032258
 20
361.3255544355
 11
1110.2379032258
 21
364.1255544355
  0
LINE
  5
367
100
AcDbEntity
  8
7_ALL_FEATURES
100
AcDbLine
 62
7
  6
CONTINUOUS
 10
1110.2379032258
 20
351.0991728662
 11
1110.2379032258
 21
366.3755544355
  0
LINE
  5
368
100
AcDbEntity
  8
6_ALL_SURFS
100
AcDbLine
 62
7
  6
CONTINUOUS
 10
1110.2379032258
 20
366.3755544355
 11
1110.2379032258
 21
406.2301642782
  0
LINE
  5
369
100
AcDbEntity
  8
7_ALL_FEATURES
100
AcDbLine
 62
7
  6
CONTINUOUS
 10
1110.2379032258
 20
406.2301642782
 11
1110.2379032258
 21
426.7255544355
  0
LINE
  5
36A
100
AcDbEntity
  8
7_ALL_FEATURES
100
AcDbLine
 62
7
  6
CONTINUOUS
 10
1111.7379032258
 20
426.7255544355
 11
1111.7379032258
 21
401.2364934728
  0
LINE
  5
36B
100
AcDbEntity
  8
6_ALL_SURFS
100
AcDbLine
 62
7
  6
CONTINUOUS
 10
1111.7379032258
 20
401.2364934728
 11
1111.7379032258
 21
366.3755544355
  0
LINE
  5
36C
100
AcDbEntity
  8
7_ALL_FEATURES
100
AcDbLine
 62
7
  6
CONTINUOUS
 10
1111.7379032258
 20
335.7255544355
 11
1111.7379032258
 21
366.3755544355
  0
LINE
  5
36D
100
AcDbEntity
  8
3_ALL_AXES
100
AcDbLine
 62
7
  6
CONTINUOUS
 10
1112.6871828962
 20
359.9755544355
 11
1112.6871828962
 21
365.4755544355
  0
LINE
  5
36E
100
AcDbEntity
  8
3_ALL_AXES
100
AcDbLine
 62
7
  6
CONTINUOUS
 10
1112.6871828962
 20
420.7255544355
 11
1112.6871828962
 21
426.2255544355
  0
LINE
  5
36F
100
AcDbEntity
  8
3_ALL_AXES
100
AcDbLine
 62
7
  6
CONTINUOUS
 10
1112.8379032258
 20
359.9756025017
 11
1112.8379032258
 21
365.4755063693
  0
LINE
  5
370
100
AcDbEntity
  8
3_ALL_AXES
100
AcDbLine
 62
7
  6
CONTINUOUS
 10
1112.8379032258
 20
420.7256025017
 11
1112.8379032258
 21
426.2255063693
  0
LINE
  5
371
100
AcDbEntity
  8
3_ALL_AXES
100
AcDbLine
 62
7
  6
CONTINUOUS
 10
263.6379032258
 20
667.9344350196
 11
263.6379032258
 21
662.4344350196
  0
LINE
  5
372
100
AcDbEntity
  8
3_ALL_AXES
100
AcDbLine
 62
7
  6
CONTINUOUS
 10
263.6379032258
 20
658.7844350196
 11
263.6379032258
 21
653.2844350196
  0
LINE
  5
373
100
AcDbEntity
  8
3_ALL_AXES
100
AcDbLine
 62
7
  6
CONTINUOUS
 10
263.6379032258
 20
612.8844350196
 11
263.6379032258
 21
607.3844350196
  0
LINE
  5
374
100
AcDbEntity
  8
3_ALL_AXES
100
AcDbLine
 62
7
  6
CONTINUOUS
 10
263.6379032258
 20
603.7344350196
 11
263.6379032258
 21
598.2344350196
  0
LINE
  5
375
100
AcDbEntity
  8
3_ALL_AXES
100
AcDbLine
 62
7
  6
CONTINUOUS
 10
263.7886235554
 20
667.9344350196
 11
263.7886235554
 21
662.4344350196
  0
LINE
  5
376
100
AcDbEntity
  8
3_ALL_AXES
100
AcDbLine
 62
7
  6
CONTINUOUS
 10
263.7886235554
 20
658.7844350196
 11
263.7886235554
 21
653.2844350196
  0
LINE
  5
377
100
AcDbEntity
  8
3_ALL_AXES
100
AcDbLine
 62
7
  6
CONTINUOUS
 10
263.7886235554
 20
612.8844350196
 11
263.7886235554
 21
607.3844350196
  0
LINE
  5
378
100
AcDbEntity
  8
3_ALL_AXES
100
AcDbLine
 62
7
  6
CONTINUOUS
 10
263.7886235554
 20
603.7344350196
 11
263.7886235554
 21
598.2344350196
  0
LINE
  5
379
100
AcDbEntity
  8
7_ALL_FEATURES
100
AcDbLine
 62
7
  6
CONTINUOUS
 10
264.7379032258
 20
598.0344350196
 11
264.7379032258
 21
668.1344350196
  0
LINE
  5
37A
100
AcDbEntity
  8
6_ALL_SURFS
100
AcDbLine
 62
7
  6
CONTINUOUS
 10
266.2379032258
 20
595.9344350196
 11
266.2379032258
 21
580.6344350196
  0
LINE
  5
37B
100
AcDbEntity
  8
7_ALL_FEATURES
100
AcDbLine
 62
7
  6
CONTINUOUS
 10
266.2379032258
 20
578.1344439888
 11
266.2379032258
 21
580.6344350196
  0
LINE
  5
37C
100
AcDbEntity
  8
7_ALL_FEATURES
100
AcDbLine
 62
7
  6
CONTINUOUS
 10
266.2379032258
 20
595.9344350196
 11
266.2379032258
 21
667.4684083766
  0
LINE
  5
37D
100
AcDbEntity
  8
6_ALL_SURFS
100
AcDbLine
 62
7
  6
CONTINUOUS
 10
266.2379032258
 20
666.8344350196
 11
266.2379032258
 21
667.6459738969
  0
LINE
  5
37E
100
AcDbEntity
  8
7_ALL_FEATURES
100
AcDbLine
 62
7
  6
CONTINUOUS
 10
266.2379032258
 20
667.6459738969
 11
266.2379032258
 21
668.1344350196
  0
LINE
  5
37F
100
AcDbEntity
  8
6_ALL_SURFS
100
AcDbLine
 62
7
  6
CONTINUOUS
 10
266.2379032258
 20
668.1344350196
 11
266.2379032258
 21
688.0344260503
  0
LINE
  5
380
100
AcDbEntity
  8
7_ALL_FEATURES
100
AcDbLine
 62
7
  6
CONTINUOUS
 10
266.7379032258
 20
599.7844350196
 11
266.7379032258
 21
666.3844350196
  0
LINE
  5
381
100
AcDbEntity
  8
3_ALL_AXES
100
AcDbLine
 62
7
  6
CONTINUOUS
 10
263.7886235554
 20
662.4344350196
 11
264.7379032258
 21
663.2309752408
  0
LINE
  5
382
100
AcDbEntity
  8
3_ALL_AXES
100
AcDbLine
 62
7
  6
CONTINUOUS
 10
263.7886235554
 20
653.2844350196
 11
264.7379032258
 21
654.0809752408
  0
LINE
  5
383
100
AcDbEntity
  8
3_ALL_AXES
100
AcDbLine
 62
7
  6
CONTINUOUS
 10
263.7886235554
 20
603.7344350196
 11
264.7379032258
 21
602.9378947983
  0
LINE
  5
384
100
AcDbEntity
  8
3_ALL_AXES
100
AcDbLine
 62
7
  6
CONTINUOUS
 10
263.7886235554
 20
612.8844350196
 11
264.7379032258
 21
612.0878947983
  0
LINE
  5
385
100
AcDbEntity
  8
3_ALL_AXES
100
AcDbLine
 62
7
  6
CONTINUOUS
 10
263.7886235554
 20
607.3844350196
 11
264.7379032258
 21
608.1809752408
  0
LINE
  5
386
100
AcDbEntity
  8
3_ALL_AXES
100
AcDbLine
 62
7
  6
CONTINUOUS
 10
263.7886235554
 20
658.7844350196
 11
264.7379032258
 21
657.9878947983
  0
LINE
  5
387
100
AcDbEntity
  8
3_ALL_AXES
100
AcDbLine
 62
7
  6
CONTINUOUS
 10
263.7886235554
 20
598.2344350196
 11
264.7379032258
 21
599.0309752408
  0
LINE
  5
388
100
AcDbEntity
  8
3_ALL_AXES
100
AcDbLine
 62
7
  6
CONTINUOUS
 10
263.7886235554
 20
667.9344350196
 11
264.7379032258
 21
667.1378947983
  0
LINE
  5
389
100
AcDbEntity
  8
7_ALL_FEATURES
100
AcDbLine
 62
7
  6
CONTINUOUS
 10
266.2379032258
 20
578.1344350196
 11
1110.2379032258
 21
578.1344350196
  0
LINE
  5
38A
100
AcDbEntity
  8
7_ALL_FEATURES
100
AcDbLine
 62
9
  6
CONTINUOUS
 10
266.2379032258
 20
578.4889634292
 11
1110.2379032258
 21
578.4889634292
  0
LINE
  5
38B
100
AcDbEntity
  8
7_ALL_FEATURES
100
AcDbLine
 62
7
  6
CONTINUOUS
 10
266.2379032258
 20
580.6344350196
 11
309.9544954321
 21
580.6344350196
  0
LINE
  5
38C
100
AcDbEntity
  8
7_ALL_FEATURES
100
AcDbLine
 62
7
  6
CONTINUOUS
 10
316.5213110195
 20
580.6344350196
 11
559.9544954321
 21
580.6344350196
  0
LINE
  5
38D
100
AcDbEntity
  8
7_ALL_FEATURES
100
AcDbLine
 62
7
  6
CONTINUOUS
 10
566.5213110195
 20
580.6344350196
 11
809.9544954321
 21
580.6344350196
  0
LINE
  5
38E
100
AcDbEntity
  8
7_ALL_FEATURES
100
AcDbLine
 62
7
  6
CONTINUOUS
 10
816.5213110195
 20
580.6344350196
 11
1059.9544954321
 21
580.6344350196
  0
LINE
  5
38F
100
AcDbEntity
  8
7_ALL_FEATURES
100
AcDbLine
 62
7
  6
CONTINUOUS
 10
1066.5213110195
 20
580.6344350196
 11
1110.2379032258
 21
580.6344350196
  0
LINE
  5
390
100
AcDbEntity
  8
7_ALL_FEATURES
100
AcDbLine
 62
7
  6
CONTINUOUS
 10
266.2379032258
 20
583.3344350196
 11
308.506014941
 21
583.3344350196
  0
LINE
  5
391
100
AcDbEntity
  8
7_ALL_FEATURES
100
AcDbLine
 62
7
  6
CONTINUOUS
 10
317.9697915106
 20
583.3344350196
 11
558.506014941
 21
583.3344350196
  0
LINE
  5
392
100
AcDbEntity
  8
7_ALL_FEATURES
100
AcDbLine
 62
7
  6
CONTINUOUS
 10
567.9697915106
 20
583.3344350196
 11
808.506014941
 21
583.3344350196
  0
LINE
  5
393
100
AcDbEntity
  8
7_ALL_FEATURES
100
AcDbLine
 62
7
  6
CONTINUOUS
 10
817.9697915106
 20
583.3344350196
 11
1058.506014941
 21
583.3344350196
  0
LINE
  5
394
100
AcDbEntity
  8
7_ALL_FEATURES
100
AcDbLine
 62
7
  6
CONTINUOUS
 10
1067.9697915106
 20
583.3344350196
 11
1110.2379032258
 21
583.3344350196
  0
LINE
  5
395
100
AcDbEntity
  8
7_ALL_FEATURES
100
AcDbLine
 62
7
  6
CONTINUOUS
 10
266.2379032258
 20
583.9344350196
 11
308.4430344331
 21
583.9344350196
  0
LINE
  5
396
100
AcDbEntity
  8
7_ALL_FEATURES
100
AcDbLine
 62
7
  6
CONTINUOUS
 10
318.0327720186
 20
583.9344350196
 11
558.4430344331
 21
583.9344350196
  0
LINE
  5
397
100
AcDbEntity
  8
7_ALL_FEATURES
100
AcDbLine
 62
7
  6
CONTINUOUS
 10
568.0327720186
 20
583.9344350196
 11
808.4430344331
 21
583.9344350196
  0
LINE
  5
398
100
AcDbEntity
  8
7_ALL_FEATURES
100
AcDbLine
 62
7
  6
CONTINUOUS
 10
818.0327720186
 20
583.9344350196
 11
1058.4430344331
 21
583.9344350196
  0
LINE
  5
399
100
AcDbEntity
  8
7_ALL_FEATURES
100
AcDbLine
 62
7
  6
CONTINUOUS
 10
1068.0327720186
 20
583.9344350196
 11
1110.2379032258
 21
583.9344350196
  0
LINE
  5
39A
100
AcDbEntity
  8
7_ALL_FEATURES
100
AcDbLine
 62
7
  6
CONTINUOUS
 10
266.2379032258
 20
586.3344350196
 11
308.9728397163
 21
586.3344350196
  0
LINE
  5
39B
100
AcDbEntity
  8
7_ALL_FEATURES
100
AcDbLine
 62
7
  6
CONTINUOUS
 10
317.5029667353
 20
586.3344350196
 11
558.9728397163
 21
586.3344350196
  0
LINE
  5
39C
100
AcDbEntity
  8
7_ALL_FEATURES
100
AcDbLine
 62
7
  6
CONTINUOUS
 10
567.5029667353
 20
586.3344350196
 11
808.9728397163
 21
586.3344350196
  0
LINE
  5
39D
100
AcDbEntity
  8
7_ALL_FEATURES
100
AcDbLine
 62
7
  6
CONTINUOUS
 10
817.5029667353
 20
586.3344350196
 11
1058.9728397163
 21
586.3344350196
  0
LINE
  5
39E
100
AcDbEntity
  8
7_ALL_FEATURES
100
AcDbLine
 62
7
  6
CONTINUOUS
 10
1067.5029667353
 20
586.3344350196
 11
1110.2379032258
 21
586.3344350196
  0
LINE
  5
39F
100
AcDbEntity
  8
7_ALL_FEATURES
100
AcDbLine
 62
7
  6
CONTINUOUS
 10
266.2379032258
 20
586.9344350196
 11
309.3403698084
 21
586.9344350196
  0
LINE
  5
3A0
100
AcDbEntity
  8
7_ALL_FEATURES
100
AcDbLine
 62
7
  6
CONTINUOUS
 10
317.1354366432
 20
586.9344350196
 11
559.3403698084
 21
586.9344350196
  0
LINE
  5
3A1
100
AcDbEntity
  8
7_ALL_FEATURES
100
AcDbLine
 62
7
  6
CONTINUOUS
 10
567.1354366432
 20
586.9344350196
 11
809.3403698084
 21
586.9344350196
  0
LINE
  5
3A2
100
AcDbEntity
  8
7_ALL_FEATURES
100
AcDbLine
 62
7
  6
CONTINUOUS
 10
817.1354366432
 20
586.9344350196
 11
1059.3403698084
 21
586.9344350196
  0
LINE
  5
3A3
100
AcDbEntity
  8
7_ALL_FEATURES
100
AcDbLine
 62
7
  6
CONTINUOUS
 10
1067.1354366432
 20
586.9344350196
 11
1110.2379032258
 21
586.9344350196
  0
LINE
  5
3A4
100
AcDbEntity
  8
6_ALL_SURFS
100
AcDbLine
 62
7
  6
CONTINUOUS
 10
266.2379032258
 20
589.3344350196
 11
1110.2379032258
 21
589.3344350196
  0
LINE
  5
3A5
100
AcDbEntity
  8
6_ALL_SURFS
100
AcDbLine
 62
7
  6
CONTINUOUS
 10
266.2379032258
 20
589.9344350196
 11
1110.2379032258
 21
589.9344350196
  0
LINE
  5
3A6
100
AcDbEntity
  8
6_ALL_SURFS
100
AcDbLine
 62
7
  6
CONTINUOUS
 10
266.2379032258
 20
592.3344350196
 11
1110.2379032258
 21
592.3344350196
  0
LINE
  5
3A7
100
AcDbEntity
  8
6_ALL_SURFS
100
AcDbLine
 62
7
  6
CONTINUOUS
 10
266.2379032258
 20
592.9344350196
 11
1110.2379032258
 21
592.9344350196
  0
LINE
  5
3A8
100
AcDbEntity
  8
6_ALL_SURFS
100
AcDbLine
 62
7
  6
CONTINUOUS
 10
266.2379032258
 20
595.3344350196
 11
1110.2379032258
 21
595.3344350196
  0
LINE
  5
3A9
100
AcDbEntity
  8
6_ALL_SURFS
100
AcDbLine
 62
7
  6
CONTINUOUS
 10
266.2379032258
 20
595.9344350196
 11
1110.2379032258
 21
595.9344350196
  0
LINE
  5
3AA
100
AcDbEntity
  8
7_ALL_FEATURES
100
AcDbLine
 62
7
  6
CONTINUOUS
 10
266.2379032258
 20
598.0344350196
 11
264.7379032258
 21
598.0344350196
  0
LINE
  5
3AB
100
AcDbEntity
  8
7_ALL_FEATURES
100
AcDbLine
 62
7
  6
CONTINUOUS
 10
1110.2379032258
 20
598.0344350196
 11
1111.7379032258
 21
598.0344350196
  0
LINE
  5
3AC
100
AcDbEntity
  8
7_ALL_FEATURES
100
AcDbLine
 62
9
  6
CONTINUOUS
 10
266.2379032258
 20
598.0844350196
 11
1110.2379032258
 21
598.0844350196
  0
LINE
  5
3AD
100
AcDbEntity
  8
3_ALL_AXES
100
AcDbLine
 62
7
  6
CONTINUOUS
 10
1112.8379032258
 20
598.2344350196
 11
1112.6871828962
 21
598.2344350196
  0
LINE
  5
3AE
100
AcDbEntity
  8
3_ALL_AXES
100
AcDbLine
 62
7
  6
CONTINUOUS
 10
263.6379032258
 20
598.2344350196
 11
263.7886235554
 21
598.2344350196
  0
LINE
  5
3AF
100
AcDbEntity
  8
7_ALL_FEATURES
100
AcDbLine
 62
7
  6
CONTINUOUS
 10
1110.2379032258
 20
598.3844350196
 11
266.2379032258
 21
598.3844350196
  0
LINE
  5
3B0
100
AcDbEntity
  8
7_ALL_FEATURES
100
AcDbLine
 62
9
  6
CONTINUOUS
 10
1110.2379032258
 20
598.6844350196
 11
266.2379032258
 21
598.6844350196
  0
LINE
  5
3B1
100
AcDbEntity
  8
7_ALL_FEATURES
100
AcDbLine
 62
9
  6
CONTINUOUS
 10
266.2379032258
 20
598.7844350196
 11
264.7379032258
 21
598.7844350196
  0
LINE
  5
3B2
100
AcDbEntity
  8
7_ALL_FEATURES
100
AcDbLine
 62
9
  6
CONTINUOUS
 10
1110.2379032258
 20
598.7844350196
 11
1111.7379032258
 21
598.7844350196
  0
LINE
  5
3B3
100
AcDbEntity
  8
7_ALL_FEATURES
100
AcDbLine
 62
9
  6
CONTINUOUS
 10
1110.2379032258
 20
599.3344350196
 11
266.2379032258
 21
599.3344350196
  0
LINE
  5
3B4
100
AcDbEntity
  8
7_ALL_FEATURES
100
AcDbLine
 62
7
  6
CONTINUOUS
 10
1110.2379032258
 20
599.6344350196
 11
266.2379032258
 21
599.6344350196
  0
LINE
  5
3B5
100
AcDbEntity
  8
7_ALL_FEATURES
100
AcDbLine
 62
9
  6
CONTINUOUS
 10
266.2379032258
 20
599.6964290175
 11
1110.2379032258
 21
599.6964290175
  0
LINE
  5
3B6
100
AcDbEntity
  8
7_ALL_FEATURES
100
AcDbLine
 62
7
  6
CONTINUOUS
 10
1109.7379032258
 20
599.7844350196
 11
266.7379032258
 21
599.7844350196
  0
LINE
  5
3B7
100
AcDbEntity
  8
7_ALL_FEATURES
100
AcDbLine
 62
9
  6
CONTINUOUS
 10
1109.7379032258
 20
599.9844350196
 11
266.7379032258
 21
599.9844350196
  0
LINE
  5
3B8
100
AcDbEntity
  8
7_ALL_FEATURES
100
AcDbLine
 62
9
  6
CONTINUOUS
 10
266.2379032258
 20
600.807100735
 11
266.7379032258
 21
600.807100735
  0
LINE
  5
3B9
100
AcDbEntity
  8
7_ALL_FEATURES
100
AcDbLine
 62
9
  6
CONTINUOUS
 10
1109.7379032258
 20
600.807100735
 11
1110.2379032258
 21
600.807100735
  0
LINE
  5
3BA
100
AcDbEntity
  8
7_ALL_FEATURES
100
AcDbLine
 62
7
  6
CONTINUOUS
 10
266.2379032258
 20
600.8484300669
 11
266.7379032258
 21
600.8484300669
  0
LINE
  5
3BB
100
AcDbEntity
  8
7_ALL_FEATURES
100
AcDbLine
 62
7
  6
CONTINUOUS
 10
1109.7379032258
 20
600.8484300669
 11
1110.2379032258
 21
600.8484300669
  0
LINE
  5
3BC
100
AcDbEntity
  8
7_ALL_FEATURES
100
AcDbLine
 62
9
  6
CONTINUOUS
 10
266.2379032258
 20
600.9442452508
 11
266.7379032258
 21
600.9442452508
  0
LINE
  5
3BD
100
AcDbEntity
  8
7_ALL_FEATURES
100
AcDbLine
 62
9
  6
CONTINUOUS
 10
1109.7379032258
 20
600.9442452508
 11
1110.2379032258
 21
600.9442452508
  0
LINE
  5
3BE
100
AcDbEntity
  8
7_ALL_FEATURES
100
AcDbLine
 62
9
  6
CONTINUOUS
 10
266.2379032258
 20
601.1636513613
 11
266.7379032258
 21
601.1636513613
  0
LINE
  5
3BF
100
AcDbEntity
  8
7_ALL_FEATURES
100
AcDbLine
 62
9
  6
CONTINUOUS
 10
1109.7379032258
 20
601.1636513613
 11
1110.2379032258
 21
601.1636513613
  0
LINE
  5
3C0
100
AcDbEntity
  8
7_ALL_FEATURES
100
AcDbLine
 62
9
  6
CONTINUOUS
 10
1110.2379032258
 20
602.2344350196
 11
1109.7379032258
 21
602.2344350196
  0
LINE
  5
3C1
100
AcDbEntity
  8
7_ALL_FEATURES
100
AcDbLine
 62
9
  6
CONTINUOUS
 10
266.7379032258
 20
602.2344350196
 11
266.2379032258
 21
602.2344350196
  0
LINE
  5
3C2
100
AcDbEntity
  8
7_ALL_FEATURES
100
AcDbLine
 62
7
  6
CONTINUOUS
 10
1110.2379032258
 20
602.5344350196
 11
1109.7379032258
 21
602.5344350196
  0
LINE
  5
3C3
100
AcDbEntity
  8
7_ALL_FEATURES
100
AcDbLine
 62
7
  6
CONTINUOUS
 10
266.7379032258
 20
602.5344350196
 11
266.2379032258
 21
602.5344350196
  0
LINE
  5
3C4
100
AcDbEntity
  8
7_ALL_FEATURES
100
AcDbLine
 62
9
  6
CONTINUOUS
 10
266.2379032258
 20
602.655049778
 11
266.7379032258
 21
602.655049778
  0
LINE
  5
3C5
100
AcDbEntity
  8
7_ALL_FEATURES
100
AcDbLine
 62
9
  6
CONTINUOUS
 10
1109.7379032258
 20
602.655049778
 11
1110.2379032258
 21
602.655049778
  0
LINE
  5
3C6
100
AcDbEntity
  8
7_ALL_FEATURES
100
AcDbLine
 62
9
  6
CONTINUOUS
 10
1110.2379032258
 20
603.1818289766
 11
1109.7379032258
 21
603.1818289766
  0
LINE
  5
3C7
100
AcDbEntity
  8
7_ALL_FEATURES
100
AcDbLine
 62
9
  6
CONTINUOUS
 10
266.7379032258
 20
603.1818289766
 11
266.2379032258
 21
603.1818289766
  0
LINE
  5
3C8
100
AcDbEntity
  8
7_ALL_FEATURES
100
AcDbLine
 62
7
  6
CONTINUOUS
 10
1110.2379032258
 20
603.1999211903
 11
1109.7379032258
 21
603.1999211903
  0
LINE
  5
3C9
100
AcDbEntity
  8
7_ALL_FEATURES
100
AcDbLine
 62
7
  6
CONTINUOUS
 10
266.7379032258
 20
603.1999211903
 11
266.2379032258
 21
603.1999211903
  0
LINE
  5
3CA
100
AcDbEntity
  8
3_ALL_AXES
100
AcDbLine
 62
7
  6
CONTINUOUS
 10
1112.8379032258
 20
603.7344350196
 11
1112.6871828962
 21
603.7344350196
  0
LINE
  5
3CB
100
AcDbEntity
  8
3_ALL_AXES
100
AcDbLine
 62
7
  6
CONTINUOUS
 10
263.6379032258
 20
603.7344350196
 11
263.7886235554
 21
603.7344350196
  0
LINE
  5
3CC
100
AcDbEntity
  8
7_ALL_FEATURES
100
AcDbLine
 62
9
  6
CONTINUOUS
 10
266.2379032258
 20
606.4975150568
 11
266.7379032258
 21
606.4975150568
  0
LINE
  5
3CD
100
AcDbEntity
  8
7_ALL_FEATURES
100
AcDbLine
 62
9
  6
CONTINUOUS
 10
1109.7379032258
 20
606.4975150568
 11
1110.2379032258
 21
606.4975150568
  0
LINE
  5
3CE
100
AcDbEntity
  8
7_ALL_FEATURES
100
AcDbLine
 62
9
  6
CONTINUOUS
 10
266.2379032258
 20
606.9856400329
 11
266.7379032258
 21
606.9856400329
  0
LINE
  5
3CF
100
AcDbEntity
  8
7_ALL_FEATURES
100
AcDbLine
 62
9
  6
CONTINUOUS
 10
1109.7379032258
 20
606.9856400329
 11
1110.2379032258
 21
606.9856400329
  0
LINE
  5
3D0
100
AcDbEntity
  8
3_ALL_AXES
100
AcDbLine
 62
7
  6
CONTINUOUS
 10
1112.8379032258
 20
607.3844350196
 11
1112.6871828962
 21
607.3844350196
  0
LINE
  5
3D1
100
AcDbEntity
  8
3_ALL_AXES
100
AcDbLine
 62
7
  6
CONTINUOUS
 10
263.6379032258
 20
607.3844350196
 11
263.7886235554
 21
607.3844350196
  0
LINE
  5
3D2
100
AcDbEntity
  8
3_ALL_AXES
100
AcDbLine
 62
7
  6
CONTINUOUS
 10
1112.8379032258
 20
612.8844350196
 11
1112.6871828962
 21
612.8844350196
  0
LINE
  5
3D3
100
AcDbEntity
  8
3_ALL_AXES
100
AcDbLine
 62
7
  6
CONTINUOUS
 10
263.6379032258
 20
612.8844350196
 11
263.7886235554
 21
612.8844350196
  0
LINE
  5
3D4
100
AcDbEntity
  8
7_ALL_FEATURES
100
AcDbLine
 62
9
  6
CONTINUOUS
 10
1110.2379032258
 20
631.0844350196
 11
1109.7379032258
 21
631.0844350196
  0
LINE
  5
3D5
100
AcDbEntity
  8
7_ALL_FEATURES
100
AcDbLine
 62
9
  6
CONTINUOUS
 10
266.7379032258
 20
631.0844350196
 11
266.2379032258
 21
631.0844350196
  0
LINE
  5
3D6
100
AcDbEntity
  8
7_ALL_FEATURES
100
AcDbLine
 62
7
  6
CONTINUOUS
 10
1110.2379032258
 20
631.3844350196
 11
1109.7379032258
 21
631.3844350196
  0
LINE
  5
3D7
100
AcDbEntity
  8
7_ALL_FEATURES
100
AcDbLine
 62
7
  6
CONTINUOUS
 10
266.7379032258
 20
631.3844350196
 11
266.2379032258
 21
631.3844350196
  0
LINE
  5
3D8
100
AcDbEntity
  8
7_ALL_FEATURES
100
AcDbLine
 62
9
  6
CONTINUOUS
 10
266.2379032258
 20
631.6844350196
 11
266.7379032258
 21
631.6844350196
  0
LINE
  5
3D9
100
AcDbEntity
  8
7_ALL_FEATURES
100
AcDbLine
 62
9
  6
CONTINUOUS
 10
1109.7379032258
 20
631.6844350196
 11
1110.2379032258
 21
631.6844350196
  0
LINE
  5
3DA
100
AcDbEntity
  8
6_ALL_SURFS
100
AcDbLine
 62
9
  6
CONTINUOUS
 10
266.2379032258
 20
634.4844350196
 11
266.7379032258
 21
634.4844350196
  0
LINE
  5
3DB
100
AcDbEntity
  8
6_ALL_SURFS
100
AcDbLine
 62
9
  6
CONTINUOUS
 10
1109.7379032258
 20
634.4844350196
 11
1110.2379032258
 21
634.4844350196
  0
LINE
  5
3DC
100
AcDbEntity
  8
6_ALL_SURFS
100
AcDbLine
 62
7
  6
CONTINUOUS
 10
1110.2379032258
 20
634.7844350196
 11
1109.7379032258
 21
634.7844350196
  0
LINE
  5
3DD
100
AcDbEntity
  8
6_ALL_SURFS
100
AcDbLine
 62
7
  6
CONTINUOUS
 10
266.7379032258
 20
634.7844350196
 11
266.2379032258
 21
634.7844350196
  0
LINE
  5
3DE
100
AcDbEntity
  8
6_ALL_SURFS
100
AcDbLine
 62
9
  6
CONTINUOUS
 10
1110.2379032258
 20
635.0844350196
 11
1109.7379032258
 21
635.0844350196
  0
LINE
  5
3DF
100
AcDbEntity
  8
6_ALL_SURFS
100
AcDbLine
 62
9
  6
CONTINUOUS
 10
266.7379032258
 20
635.0844350196
 11
266.2379032258
 21
635.0844350196
  0
LINE
  5
3E0
100
AcDbEntity
  8
3_ALL_AXES
100
AcDbLine
 62
7
  6
CONTINUOUS
 10
1112.8379032258
 20
653.2844350196
 11
1112.6871828962
 21
653.2844350196
  0
LINE
  5
3E1
100
AcDbEntity
  8
3_ALL_AXES
100
AcDbLine
 62
7
  6
CONTINUOUS
 10
263.6379032258
 20
653.2844350196
 11
263.7886235554
 21
653.2844350196
  0
LINE
  5
3E2
100
AcDbEntity
  8
3_ALL_AXES
100
AcDbLine
 62
7
  6
CONTINUOUS
 10
1112.8379032258
 20
658.7844350196
 11
1112.6871828962
 21
658.7844350196
  0
LINE
  5
3E3
100
AcDbEntity
  8
3_ALL_AXES
100
AcDbLine
 62
7
  6
CONTINUOUS
 10
263.6379032258
 20
658.7844350196
 11
263.7886235554
 21
658.7844350196
  0
LINE
  5
3E4
100
AcDbEntity
  8
6_ALL_SURFS
100
AcDbLine
 62
9
  6
CONTINUOUS
 10
266.2379032258
 20
659.1832300062
 11
266.7379032258
 21
659.1832300062
  0
LINE
  5
3E5
100
AcDbEntity
  8
6_ALL_SURFS
100
AcDbLine
 62
9
  6
CONTINUOUS
 10
1109.7379032258
 20
659.1832300062
 11
1110.2379032258
 21
659.1832300062
  0
LINE
  5
3E6
100
AcDbEntity
  8
6_ALL_SURFS
100
AcDbLine
 62
9
  6
CONTINUOUS
 10
266.2379032258
 20
659.6713549823
 11
266.7379032258
 21
659.6713549823
  0
LINE
  5
3E7
100
AcDbEntity
  8
6_ALL_SURFS
100
AcDbLine
 62
9
  6
CONTINUOUS
 10
1109.7379032258
 20
659.6713549823
 11
1110.2379032258
 21
659.6713549823
  0
LINE
  5
3E8
100
AcDbEntity
  8
3_ALL_AXES
100
AcDbLine
 62
7
  6
CONTINUOUS
 10
1112.8379032258
 20
662.4344350196
 11
1112.6871828962
 21
662.4344350196
  0
LINE
  5
3E9
100
AcDbEntity
  8
3_ALL_AXES
100
AcDbLine
 62
7
  6
CONTINUOUS
 10
263.6379032258
 20
662.4344350196
 11
263.7886235554
 21
662.4344350196
  0
LINE
  5
3EA
100
AcDbEntity
  8
6_ALL_SURFS
100
AcDbLine
 62
7
  6
CONTINUOUS
 10
266.2379032258
 20
662.9689488488
 11
266.7379032258
 21
662.9689488488
  0
LINE
  5
3EB
100
AcDbEntity
  8
6_ALL_SURFS
100
AcDbLine
 62
7
  6
CONTINUOUS
 10
1109.7379032258
 20
662.9689488488
 11
1110.2379032258
 21
662.9689488488
  0
LINE
  5
3EC
100
AcDbEntity
  8
6_ALL_SURFS
100
AcDbLine
 62
9
  6
CONTINUOUS
 10
1110.2379032258
 20
662.9870410626
 11
1109.7379032258
 21
662.9870410626
  0
LINE
  5
3ED
100
AcDbEntity
  8
6_ALL_SURFS
100
AcDbLine
 62
9
  6
CONTINUOUS
 10
266.7379032258
 20
662.9870410626
 11
266.2379032258
 21
662.9870410626
  0
LINE
  5
3EE
100
AcDbEntity
  8
6_ALL_SURFS
100
AcDbLine
 62
9
  6
CONTINUOUS
 10
266.2379032258
 20
663.5138202611
 11
266.7379032258
 21
663.5138202611
  0
LINE
  5
3EF
100
AcDbEntity
  8
6_ALL_SURFS
100
AcDbLine
 62
9
  6
CONTINUOUS
 10
1109.7379032258
 20
663.5138202611
 11
1110.2379032258
 21
663.5138202611
  0
LINE
  5
3F0
100
AcDbEntity
  8
6_ALL_SURFS
100
AcDbLine
 62
7
  6
CONTINUOUS
 10
1110.2379032258
 20
663.6344350196
 11
1109.7379032258
 21
663.6344350196
  0
LINE
  5
3F1
100
AcDbEntity
  8
6_ALL_SURFS
100
AcDbLine
 62
7
  6
CONTINUOUS
 10
266.7379032258
 20
663.6344350196
 11
266.2379032258
 21
663.6344350196
  0
LINE
  5
3F2
100
AcDbEntity
  8
6_ALL_SURFS
100
AcDbLine
 62
9
  6
CONTINUOUS
 10
1110.2379032258
 20
663.9344350196
 11
1109.7379032258
 21
663.9344350196
  0
LINE
  5
3F3
100
AcDbEntity
  8
6_ALL_SURFS
100
AcDbLine
 62
9
  6
CONTINUOUS
 10
266.7379032258
 20
663.9344350196
 11
266.2379032258
 21
663.9344350196
  0
LINE
  5
3F4
100
AcDbEntity
  8
6_ALL_SURFS
100
AcDbLine
 62
9
  6
CONTINUOUS
 10
266.2379032258
 20
665.0052186779
 11
266.7379032258
 21
665.0052186779
  0
LINE
  5
3F5
100
AcDbEntity
  8
6_ALL_SURFS
100
AcDbLine
 62
9
  6
CONTINUOUS
 10
1109.7379032258
 20
665.0052186779
 11
1110.2379032258
 21
665.0052186779
  0
LINE
  5
3F6
100
AcDbEntity
  8
6_ALL_SURFS
100
AcDbLine
 62
9
  6
CONTINUOUS
 10
266.2379032258
 20
665.2246247883
 11
266.7379032258
 21
665.2246247883
  0
LINE
  5
3F7
100
AcDbEntity
  8
6_ALL_SURFS
100
AcDbLine
 62
9
  6
CONTINUOUS
 10
1109.7379032258
 20
665.2246247883
 11
1110.2379032258
 21
665.2246247883
  0
LINE
  5
3F8
100
AcDbEntity
  8
6_ALL_SURFS
100
AcDbLine
 62
7
  6
CONTINUOUS
 10
1110.2379032258
 20
665.3204399722
 11
1109.7379032258
 21
665.3204399722
  0
LINE
  5
3F9
100
AcDbEntity
  8
6_ALL_SURFS
100
AcDbLine
 62
7
  6
CONTINUOUS
 10
266.7379032258
 20
665.3204399722
 11
266.2379032258
 21
665.3204399722
  0
LINE
  5
3FA
100
AcDbEntity
  8
6_ALL_SURFS
100
AcDbLine
 62
9
  6
CONTINUOUS
 10
266.2379032258
 20
665.3617693041
 11
266.7379032258
 21
665.3617693041
  0
LINE
  5
3FB
100
AcDbEntity
  8
6_ALL_SURFS
100
AcDbLine
 62
9
  6
CONTINUOUS
 10
1109.7379032258
 20
665.3617693041
 11
1110.2379032258
 21
665.3617693041
  0
LINE
  5
3FC
100
AcDbEntity
  8
7_ALL_FEATURES
100
AcDbLine
 62
9
  6
CONTINUOUS
 10
1109.7379032258
 20
666.1844350196
 11
266.7379032258
 21
666.1844350196
  0
LINE
  5
3FD
100
AcDbEntity
  8
7_ALL_FEATURES
100
AcDbLine
 62
7
  6
CONTINUOUS
 10
1109.7379032258
 20
666.3844350196
 11
266.7379032258
 21
666.3844350196
  0
LINE
  5
3FE
100
AcDbEntity
  8
6_ALL_SURFS
100
AcDbLine
 62
9
  6
CONTINUOUS
 10
266.2379032258
 20
666.4724410216
 11
1110.2379032258
 21
666.4724410216
  0
LINE
  5
3FF
100
AcDbEntity
  8
6_ALL_SURFS
100
AcDbLine
 62
7
  6
CONTINUOUS
 10
1110.2379032258
 20
666.5344350196
 11
266.2379032258
 21
666.5344350196
  0
LINE
  5
400
100
AcDbEntity
  8
6_ALL_SURFS
100
AcDbLine
 62
9
  6
CONTINUOUS
 10
1110.2379032258
 20
666.8344350196
 11
266.2379032258
 21
666.8344350196
  0
LINE
  5
401
100
AcDbEntity
  8
7_ALL_FEATURES
100
AcDbLine
 62
9
  6
CONTINUOUS
 10
266.2379032258
 20
667.3844350196
 11
264.7379032258
 21
667.3844350196
  0
LINE
  5
402
100
AcDbEntity
  8
7_ALL_FEATURES
100
AcDbLine
 62
9
  6
CONTINUOUS
 10
1110.2379032258
 20
667.3844350196
 11
1111.7379032258
 21
667.3844350196
  0
LINE
  5
403
100
AcDbEntity
  8
6_ALL_SURFS
100
AcDbLine
 62
9
  6
CONTINUOUS
 10
1110.2379032258
 20
667.4844350196
 11
266.2379032258
 21
667.4844350196
  0
LINE
  5
404
100
AcDbEntity
  8
6_ALL_SURFS
100
AcDbLine
 62
7
  6
CONTINUOUS
 10
1110.2379032258
 20
667.7844350196
 11
266.2379032258
 21
667.7844350196
  0
LINE
  5
405
100
AcDbEntity
  8
3_ALL_AXES
100
AcDbLine
 62
7
  6
CONTINUOUS
 10
1112.8379032258
 20
667.9344350196
 11
1112.6871828962
 21
667.9344350196
  0
LINE
  5
406
100
AcDbEntity
  8
3_ALL_AXES
100
AcDbLine
 62
7
  6
CONTINUOUS
 10
263.6379032258
 20
667.9344350196
 11
263.7886235554
 21
667.9344350196
  0
LINE
  5
407
100
AcDbEntity
  8
6_ALL_SURFS
100
AcDbLine
 62
9
  6
CONTINUOUS
 10
266.2379032258
 20
668.0844350196
 11
1110.2379032258
 21
668.0844350196
  0
LINE
  5
408
100
AcDbEntity
  8
7_ALL_FEATURES
100
AcDbLine
 62
7
  6
CONTINUOUS
 10
266.2379032258
 20
668.1344350196
 11
264.7379032258
 21
668.1344350196
  0
LINE
  5
409
100
AcDbEntity
  8
7_ALL_FEATURES
100
AcDbLine
 62
7
  6
CONTINUOUS
 10
1110.2379032258
 20
668.1344350196
 11
1111.7379032258
 21
668.1344350196
  0
LINE
  5
40A
100
AcDbEntity
  8
6_ALL_SURFS
100
AcDbLine
 62
7
  6
CONTINUOUS
 10
266.2379032258
 20
670.2344350196
 11
1110.2379032258
 21
670.2344350196
  0
LINE
  5
40B
100
AcDbEntity
  8
6_ALL_SURFS
100
AcDbLine
 62
7
  6
CONTINUOUS
 10
266.2379032258
 20
670.8344350196
 11
1110.2379032258
 21
670.8344350196
  0
LINE
  5
40C
100
AcDbEntity
  8
6_ALL_SURFS
100
AcDbLine
 62
7
  6
CONTINUOUS
 10
266.2379032258
 20
673.2344350196
 11
1110.2379032258
 21
673.2344350196
  0
LINE
  5
40D
100
AcDbEntity
  8
6_ALL_SURFS
100
AcDbLine
 62
7
  6
CONTINUOUS
 10
266.2379032258
 20
673.8344350196
 11
1110.2379032258
 21
673.8344350196
  0
LINE
  5
40E
100
AcDbEntity
  8
6_ALL_SURFS
100
AcDbLine
 62
7
  6
CONTINUOUS
 10
266.2379032258
 20
676.2344350196
 11
1110.2379032258
 21
676.2344350196
  0
LINE
  5
40F
100
AcDbEntity
  8
6_ALL_SURFS
100
AcDbLine
 62
7
  6
CONTINUOUS
 10
266.2379032258
 20
676.8344350196
 11
1110.2379032258
 21
676.8344350196
  0
LINE
  5
410
100
AcDbEntity
  8
6_ALL_SURFS
100
AcDbLine
 62
7
  6
CONTINUOUS
 10
266.2379032258
 20
679.2344350196
 11
309.3403698084
 21
679.2344350196
  0
LINE
  5
411
100
AcDbEntity
  8
6_ALL_SURFS
100
AcDbLine
 62
7
  6
CONTINUOUS
 10
317.1354366432
 20
679.2344350196
 11
559.3403698084
 21
679.2344350196
  0
LINE
  5
412
100
AcDbEntity
  8
6_ALL_SURFS
100
AcDbLine
 62
7
  6
CONTINUOUS
 10
567.1354366432
 20
679.2344350196
 11
809.3403698084
 21
679.2344350196
  0
LINE
  5
413
100
AcDbEntity
  8
6_ALL_SURFS
100
AcDbLine
 62
7
  6
CONTINUOUS
 10
817.1354366432
 20
679.2344350196
 11
1059.3403698084
 21
679.2344350196
  0
LINE
  5
414
100
AcDbEntity
  8
6_ALL_SURFS
100
AcDbLine
 62
7
  6
CONTINUOUS
 10
1067.1354366432
 20
679.2344350196
 11
1110.2379032258
 21
679.2344350196
  0
LINE
  5
415
100
AcDbEntity
  8
6_ALL_SURFS
100
AcDbLine
 62
7
  6
CONTINUOUS
 10
266.2379032258
 20
679.8344350196
 11
308.9728397163
 21
679.8344350196
  0
LINE
  5
416
100
AcDbEntity
  8
6_ALL_SURFS
100
AcDbLine
 62
7
  6
CONTINUOUS
 10
317.5029667353
 20
679.8344350196
 11
558.9728397163
 21
679.8344350196
  0
LINE
  5
417
100
AcDbEntity
  8
6_ALL_SURFS
100
AcDbLine
 62
7
  6
CONTINUOUS
 10
567.5029667353
 20
679.8344350196
 11
808.9728397163
 21
679.8344350196
  0
LINE
  5
418
100
AcDbEntity
  8
6_ALL_SURFS
100
AcDbLine
 62
7
  6
CONTINUOUS
 10
817.5029667353
 20
679.8344350196
 11
1058.9728397163
 21
679.8344350196
  0
LINE
  5
419
100
AcDbEntity
  8
6_ALL_SURFS
100
AcDbLine
 62
7
  6
CONTINUOUS
 10
1067.5029667353
 20
679.8344350196
 11
1110.2379032258
 21
679.8344350196
  0
LINE
  5
41A
100
AcDbEntity
  8
6_ALL_SURFS
100
AcDbLine
 62
7
  6
CONTINUOUS
 10
266.2379032258
 20
682.2344350196
 11
308.4430344331
 21
682.2344350196
  0
LINE
  5
41B
100
AcDbEntity
  8
6_ALL_SURFS
100
AcDbLine
 62
7
  6
CONTINUOUS
 10
318.0327720186
 20
682.2344350196
 11
558.4430344331
 21
682.2344350196
  0
LINE
  5
41C
100
AcDbEntity
  8
6_ALL_SURFS
100
AcDbLine
 62
7
  6
CONTINUOUS
 10
568.0327720186
 20
682.2344350196
 11
808.4430344331
 21
682.2344350196
  0
LINE
  5
41D
100
AcDbEntity
  8
6_ALL_SURFS
100
AcDbLine
 62
7
  6
CONTINUOUS
 10
818.0327720186
 20
682.2344350196
 11
1058.4430344331
 21
682.2344350196
  0
LINE
  5
41E
100
AcDbEntity
  8
6_ALL_SURFS
100
AcDbLine
 62
7
  6
CONTINUOUS
 10
1068.0327720186
 20
682.2344350196
 11
1110.2379032258
 21
682.2344350196
  0
LINE
  5
41F
100
AcDbEntity
  8
6_ALL_SURFS
100
AcDbLine
 62
7
  6
CONTINUOUS
 10
266.2379032258
 20
682.8344350196
 11
308.506014941
 21
682.8344350196
  0
LINE
  5
420
100
AcDbEntity
  8
6_ALL_SURFS
100
AcDbLine
 62
7
  6
CONTINUOUS
 10
317.9697915106
 20
682.8344350196
 11
558.506014941
 21
682.8344350196
  0
LINE
  5
421
100
AcDbEntity
  8
6_ALL_SURFS
100
AcDbLine
 62
7
  6
CONTINUOUS
 10
567.9697915106
 20
682.8344350196
 11
808.506014941
 21
682.8344350196
  0
LINE
  5
422
100
AcDbEntity
  8
6_ALL_SURFS
100
AcDbLine
 62
7
  6
CONTINUOUS
 10
817.9697915106
 20
682.8344350196
 11
1058.506014941
 21
682.8344350196
  0
LINE
  5
423
100
AcDbEntity
  8
6_ALL_SURFS
100
AcDbLine
 62
7
  6
CONTINUOUS
 10
1067.9697915106
 20
682.8344350196
 11
1110.2379032258
 21
682.8344350196
  0
LINE
  5
424
100
AcDbEntity
  8
6_ALL_SURFS
100
AcDbLine
 62
7
  6
CONTINUOUS
 10
266.2379032258
 20
685.5344350196
 11
309.9544954321
 21
685.5344350196
  0
LINE
  5
425
100
AcDbEntity
  8
6_ALL_SURFS
100
AcDbLine
 62
7
  6
CONTINUOUS
 10
316.5213110195
 20
685.5344350196
 11
559.9544954321
 21
685.5344350196
  0
LINE
  5
426
100
AcDbEntity
  8
6_ALL_SURFS
100
AcDbLine
 62
7
  6
CONTINUOUS
 10
566.5213110195
 20
685.5344350196
 11
809.9544954321
 21
685.5344350196
  0
LINE
  5
427
100
AcDbEntity
  8
6_ALL_SURFS
100
AcDbLine
 62
7
  6
CONTINUOUS
 10
816.5213110195
 20
685.5344350196
 11
1059.9544954321
 21
685.5344350196
  0
LINE
  5
428
100
AcDbEntity
  8
6_ALL_SURFS
100
AcDbLine
 62
7
  6
CONTINUOUS
 10
1066.5213110195
 20
685.5344350196
 11
1110.2379032258
 21
685.5344350196
  0
LINE
  5
429
100
AcDbEntity
  8
6_ALL_SURFS
100
AcDbLine
 62
9
  6
CONTINUOUS
 10
266.2379032258
 20
687.6799066099
 11
1110.2379032258
 21
687.6799066099
  0
LINE
  5
42A
100
AcDbEntity
  8
6_ALL_SURFS
100
AcDbLine
 62
7
  6
CONTINUOUS
 10
1110.2379032258
 20
688.0344350196
 11
266.2379032258
 21
688.0344350196
  0
LINE
  5
42B
100
AcDbEntity
  8
3_ALL_AXES
100
AcDbLine
 62
7
  6
CONTINUOUS
 10
1112.6871828962
 20
667.9344350196
 11
1111.7379032258
 21
667.1378947983
  0
LINE
  5
42C
100
AcDbEntity
  8
3_ALL_AXES
100
AcDbLine
 62
7
  6
CONTINUOUS
 10
1112.6871828962
 20
658.7844350196
 11
1111.7379032258
 21
657.9878947983
  0
LINE
  5
42D
100
AcDbEntity
  8
3_ALL_AXES
100
AcDbLine
 62
7
  6
CONTINUOUS
 10
1112.6871828962
 20
598.2344350196
 11
1111.7379032258
 21
599.0309752408
  0
LINE
  5
42E
100
AcDbEntity
  8
3_ALL_AXES
100
AcDbLine
 62
7
  6
CONTINUOUS
 10
1112.6871828962
 20
607.3844350196
 11
1111.7379032258
 21
608.1809752408
  0
LINE
  5
42F
100
AcDbEntity
  8
3_ALL_AXES
100
AcDbLine
 62
7
  6
CONTINUOUS
 10
1112.6871828962
 20
612.8844350196
 11
1111.7379032258
 21
612.0878947983
  0
LINE
  5
430
100
AcDbEntity
  8
3_ALL_AXES
100
AcDbLine
 62
7
  6
CONTINUOUS
 10
1112.6871828962
 20
653.2844350196
 11
1111.7379032258
 21
654.0809752408
  0
LINE
  5
431
100
AcDbEntity
  8
3_ALL_AXES
100
AcDbLine
 62
7
  6
CONTINUOUS
 10
1112.6871828962
 20
603.7344350196
 11
1111.7379032258
 21
602.9378947983
  0
LINE
  5
432
100
AcDbEntity
  8
3_ALL_AXES
100
AcDbLine
 62
7
  6
CONTINUOUS
 10
1112.6871828962
 20
662.4344350196
 11
1111.7379032258
 21
663.2309752408
  0
LINE
  5
433
100
AcDbEntity
  8
7_ALL_FEATURES
100
AcDbLine
 62
7
  6
CONTINUOUS
 10
1109.7379032258
 20
666.3844350196
 11
1109.7379032258
 21
599.7844350196
  0
LINE
  5
434
100
AcDbEntity
  8
7_ALL_FEATURES
100
AcDbLine
 62
7
  6
CONTINUOUS
 10
1110.2379032258
 20
668.1344350196
 11
1110.2379032258
 21
667.6459738969
  0
LINE
  5
435
100
AcDbEntity
  8
7_ALL_FEATURES
100
AcDbLine
 62
7
  6
CONTINUOUS
 10
1110.2379032258
 20
667.4684083766
 11
1110.2379032258
 21
595.9344350196
  0
LINE
  5
436
100
AcDbEntity
  8
6_ALL_SURFS
100
AcDbLine
 62
7
  6
CONTINUOUS
 10
1110.2379032258
 20
595.9344350196
 11
1110.2379032258
 21
580.6344350196
  0
LINE
  5
437
100
AcDbEntity
  8
7_ALL_FEATURES
100
AcDbLine
 62
7
  6
CONTINUOUS
 10
1110.2379032258
 20
580.6344350196
 11
1110.2379032258
 21
578.1344439888
  0
LINE
  5
438
100
AcDbEntity
  8
6_ALL_SURFS
100
AcDbLine
 62
7
  6
CONTINUOUS
 10
1110.2379032258
 20
666.8344350196
 11
1110.2379032258
 21
667.6459738969
  0
LINE
  5
439
100
AcDbEntity
  8
6_ALL_SURFS
100
AcDbLine
 62
7
  6
CONTINUOUS
 10
1110.2379032258
 20
668.1344350196
 11
1110.2379032258
 21
688.0344260503
  0
LINE
  5
43A
100
AcDbEntity
  8
7_ALL_FEATURES
100
AcDbLine
 62
7
  6
CONTINUOUS
 10
1111.7379032258
 20
668.1344350196
 11
1111.7379032258
 21
598.0344350196
  0
LINE
  5
43B
100
AcDbEntity
  8
3_ALL_AXES
100
AcDbLine
 62
7
  6
CONTINUOUS
 10
1112.6871828962
 20
598.2344350196
 11
1112.6871828962
 21
603.7344350196
  0
LINE
  5
43C
100
AcDbEntity
  8
3_ALL_AXES
100
AcDbLine
 62
7
  6
CONTINUOUS
 10
1112.6871828962
 20
607.3844350196
 11
1112.6871828962
 21
612.8844350196
  0
LINE
  5
43D
100
AcDbEntity
  8
3_ALL_AXES
100
AcDbLine
 62
7
  6
CONTINUOUS
 10
1112.6871828962
 20
653.2844350196
 11
1112.6871828962
 21
658.7844350196
  0
LINE
  5
43E
100
AcDbEntity
  8
3_ALL_AXES
100
AcDbLine
 62
7
  6
CONTINUOUS
 10
1112.6871828962
 20
662.4344350196
 11
1112.6871828962
 21
667.9344350196
  0
LINE
  5
43F
100
AcDbEntity
  8
3_ALL_AXES
100
AcDbLine
 62
7
  6
CONTINUOUS
 10
1112.8379032258
 20
598.2344350196
 11
1112.8379032258
 21
603.7344350196
  0
LINE
  5
440
100
AcDbEntity
  8
3_ALL_AXES
100
AcDbLine
 62
7
  6
CONTINUOUS
 10
1112.8379032258
 20
607.3844350196
 11
1112.8379032258
 21
612.8844350196
  0
LINE
  5
441
100
AcDbEntity
  8
3_ALL_AXES
100
AcDbLine
 62
7
  6
CONTINUOUS
 10
1112.8379032258
 20
653.2844350196
 11
1112.8379032258
 21
658.7844350196
  0
LINE
  5
442
100
AcDbEntity
  8
3_ALL_AXES
100
AcDbLine
 62
7
  6
CONTINUOUS
 10
1112.8379032258
 20
662.4344350196
 11
1112.8379032258
 21
667.9344350196
  0
CIRCLE
  5
443
100
AcDbEntity
  8
3_ALL_AXES
100
AcDbCircle
 62
7
  6
CONTINUOUS
 10
126.4440932063
 20
362.7255544355
 40
2.75
  0
ARC
  5
444
100
AcDbEntity
  8
6_ALL_SURFS
100
AcDbCircle
 62
7
  6
CONTINUOUS
 10
125.1440932063
 20
349.7274803656
 40
2.15
100
AcDbArc
 50
140.2671714571
 51
219.7328285429
  0
ARC
  5
445
100
AcDbEntity
  8
6_ALL_SURFS
100
AcDbCircle
 62
7
  6
CONTINUOUS
 10
124.8940932063
 20
368.6255544355
 40
1.5
100
AcDbArc
 50
270.0
 51
360.0
  0
ARC
  5
446
100
AcDbEntity
  8
6_ALL_SURFS
100
AcDbCircle
 62
7
  6
CONTINUOUS
 10
124.2440932063
 20
366.3755544355
 40
0.75
100
AcDbArc
 50
90.0
 51
180.0
  0
ARC
  5
447
100
AcDbEntity
  8
7_ALL_FEATURES
100
AcDbCircle
 62
7
  6
CONTINUOUS
 10
124.2440932063
 20
336.4755544355
 40
0.75
100
AcDbArc
 50
180.0
 51
270.0
  0
ARC
  5
448
100
AcDbEntity
  8
6_ALL_SURFS
100
AcDbCircle
 62
7
  6
CONTINUOUS
 10
109.0940932063
 20
336.8255544355
 40
0.5
100
AcDbArc
 50
53.1301023542
 51
126.8698976458
  0
ARC
  5
449
100
AcDbEntity
  8
6_ALL_SURFS
100
AcDbCircle
 62
7
  6
CONTINUOUS
 10
112.0940932063
 20
336.8255544355
 40
0.5
100
AcDbArc
 50
53.1301023542
 51
126.8698976458
  0
ARC
  5
44A
100
AcDbEntity
  8
6_ALL_SURFS
100
AcDbCircle
 62
7
  6
CONTINUOUS
 10
115.0940932063
 20
336.8255544355
 40
0.5
100
AcDbArc
 50
53.1301023542
 51
126.8698976458
  0
ARC
  5
44B
100
AcDbEntity
  8
6_ALL_SURFS
100
AcDbCircle
 62
7
  6
CONTINUOUS
 10
118.0940932063
 20
336.8255544355
 40
0.5
100
AcDbArc
 50
53.1301023542
 51
126.8698976458
  0
ARC
  5
44C
100
AcDbEntity
  8
6_ALL_SURFS
100
AcDbCircle
 62
7
  6
CONTINUOUS
 10
121.0940932063
 20
336.8255544355
 40
0.5
100
AcDbArc
 50
53.1301023542
 51
126.8698976458
  0
ARC
  5
44D
100
AcDbEntity
  8
6_ALL_SURFS
100
AcDbCircle
 62
7
  6
CONTINUOUS
 10
103.9877965642
 20
337.8318510776
 40
0.3937033579
100
AcDbArc
 50
90.0
 51
264.2894068625
  0
ARC
  5
44E
100
AcDbEntity
  8
6_ALL_SURFS
100
AcDbCircle
 62
7
  6
CONTINUOUS
 10
124.1440932063
 20
336.0255544355
 40
0.3
100
AcDbArc
 50
236.8947115174
 51
270.0
  0
ARC
  5
44F
100
AcDbEntity
  8
6_ALL_SURFS
100
AcDbCircle
 62
7
  6
CONTINUOUS
 10
123.2940932063
 20
338.5255544355
 40
0.3
100
AcDbArc
 50
270.0
 51
312.0043569931
  0
ARC
  5
450
100
AcDbEntity
  8
6_ALL_SURFS
100
AcDbCircle
 62
7
  6
CONTINUOUS
 10
131.3940932063
 20
401.1028279756
 40
5.0
100
AcDbArc
 50
167.4878142167
 51
180.0
  0
CIRCLE
  5
451
100
AcDbEntity
  8
3_ALL_AXES
100
AcDbCircle
 62
7
  6
CONTINUOUS
 10
135.5940932063
 20
423.4755544355
 40
2.75
  0
ARC
  5
452
100
AcDbEntity
  8
6_ALL_SURFS
100
AcDbCircle
 62
7
  6
CONTINUOUS
 10
127.8940932063
 20
400.9454460562
 40
1.5
100
AcDbArc
 50
168.8118414334
 51
180.0
  0
ARC
  5
453
100
AcDbEntity
  8
6_ALL_SURFS
100
AcDbCircle
 62
7
  6
CONTINUOUS
 10
156.4440932063
 20
425.2255544355
 40
1.5
100
AcDbArc
 50
90.0
 51
101.3350928742
  0
ARC
  5
454
100
AcDbEntity
  8
6_ALL_SURFS
100
AcDbCircle
 62
7
  6
CONTINUOUS
 10
155.8983418952
 20
425.7255544355
 40
1.0
100
AcDbArc
 50
48.5903778907
 51
90.0
  0
ARC
  5
455
100
AcDbEntity
  8
7_ALL_FEATURES
100
AcDbCircle
 62
7
  6
CONTINUOUS
 10
131.9924067521
 20
425.9755544355
 40
0.75
100
AcDbArc
 50
90.0
 51
169.0055723475
  0
ARC
  5
456
100
AcDbEntity
  8
7_ALL_FEATURES
100
AcDbCircle
 62
7
  6
CONTINUOUS
 10
132.0802828348
 20
425.9755544355
 40
0.75
100
AcDbArc
 50
90.0
 51
168.8118414334
  0
CIRCLE
  5
457
100
AcDbEntity
  8
3_ALL_AXES
100
AcDbCircle
 62
7
  6
CONTINUOUS
 10
190.6440932063
 20
362.7255544355
 40
2.75
  0
ARC
  5
458
100
AcDbEntity
  8
7_ALL_FEATURES
100
AcDbCircle
 62
7
  6
CONTINUOUS
 10
191.9440932063
 20
349.7274803656
 40
2.15
100
AcDbArc
 50
320.2671714571
 51
39.7328285429
  0
ARC
  5
459
100
AcDbEntity
  8
6_ALL_SURFS
100
AcDbCircle
 62
7
  6
CONTINUOUS
 10
192.1940932063
 20
368.6255544355
 40
1.5
100
AcDbArc
 50
180.0
 51
270.0
  0
ARC
  5
45A
100
AcDbEntity
  8
7_ALL_FEATURES
100
AcDbCircle
 62
7
  6
CONTINUOUS
 10
192.8440932063
 20
336.4755544355
 40
0.75
100
AcDbArc
 50
270.0
 51
360.0
  0
ARC
  5
45B
100
AcDbEntity
  8
6_ALL_SURFS
100
AcDbCircle
 62
7
  6
CONTINUOUS
 10
192.8440932063
 20
366.3755544355
 40
0.75
100
AcDbArc
 50
0.0
 51
90.0
  0
ARC
  5
45C
100
AcDbEntity
  8
6_ALL_SURFS
100
AcDbCircle
 62
7
  6
CONTINUOUS
 10
195.9940932063
 20
336.8255544355
 40
0.5
100
AcDbArc
 50
53.1301023542
 51
126.8698976458
  0
ARC
  5
45D
100
AcDbEntity
  8
6_ALL_SURFS
100
AcDbCircle
 62
7
  6
CONTINUOUS
 10
198.9940932063
 20
336.8255544355
 40
0.5
100
AcDbArc
 50
53.1301023542
 51
126.8698976458
  0
ARC
  5
45E
100
AcDbEntity
  8
6_ALL_SURFS
100
AcDbCircle
 62
7
  6
CONTINUOUS
 10
201.9940932063
 20
336.8255544355
 40
0.5
100
AcDbArc
 50
53.1301023542
 51
126.8698976458
  0
ARC
  5
45F
100
AcDbEntity
  8
6_ALL_SURFS
100
AcDbCircle
 62
7
  6
CONTINUOUS
 10
204.9940932063
 20
336.8255544355
 40
0.5
100
AcDbArc
 50
53.1301023542
 51
126.8698976458
  0
ARC
  5
460
100
AcDbEntity
  8
6_ALL_SURFS
100
AcDbCircle
 62
7
  6
CONTINUOUS
 10
207.9940932063
 20
336.8255544355
 40
0.5
100
AcDbArc
 50
53.1301023542
 51
126.8698976458
  0
ARC
  5
461
100
AcDbEntity
  8
7_ALL_FEATURES
100
AcDbCircle
 62
7
  6
CONTINUOUS
 10
213.1003898483
 20
337.8318510776
 40
0.3937033579
100
AcDbArc
 50
275.7105931375
 51
90.0
  0
ARC
  5
462
100
AcDbEntity
  8
7_ALL_FEATURES
100
AcDbCircle
 62
7
  6
CONTINUOUS
 10
193.7940932063
 20
338.5255544355
 40
0.3
100
AcDbArc
 50
227.9956430069
 51
270.0
  0
ARC
  5
463
100
AcDbEntity
  8
7_ALL_FEATURES
100
AcDbCircle
 62
7
  6
CONTINUOUS
 10
192.9440932063
 20
336.0255544355
 40
0.3
100
AcDbArc
 50
270.0
 51
303.1052884826
  0
ARC
  5
464
100
AcDbEntity
  8
6_ALL_SURFS
100
AcDbCircle
 62
7
  6
CONTINUOUS
 10
158.5440932063
 20
407.7255544355
 40
11.0
100
AcDbArc
 50
3.257196161
 51
176.742803839
  0
ARC
  5
465
100
AcDbEntity
  8
6_ALL_SURFS
100
AcDbCircle
 62
7
  6
CONTINUOUS
 10
158.5440932063
 20
407.7255544355
 40
11.0
100
AcDbArc
 50
183.257196161
 51
356.742803839
  0
ARC
  5
466
100
AcDbEntity
  8
6_ALL_SURFS
100
AcDbCircle
 62
7
  6
CONTINUOUS
 10
158.5440932063
 20
407.7255544355
 40
10.25
100
AcDbArc
 50
3.4958136324
 51
176.5041863676
  0
ARC
  5
467
100
AcDbEntity
  8
6_ALL_SURFS
100
AcDbCircle
 62
7
  6
CONTINUOUS
 10
158.5440932063
 20
407.7255544355
 40
10.25
100
AcDbArc
 50
183.4958136324
 51
356.5041863676
  0
ARC
  5
468
100
AcDbEntity
  8
7_ALL_FEATURES
100
AcDbCircle
 62
7
  6
CONTINUOUS
 10
185.6940932063
 20
401.1028279756
 40
5.0
100
AcDbArc
 50
0.0
 51
12.5121857833
  0
ARC
  5
469
100
AcDbEntity
  8
6_ALL_SURFS
100
AcDbCircle
 62
7
  6
CONTINUOUS
 10
158.5440932063
 20
428.7255544355
 40
3.0
100
AcDbArc
 50
228.5903778907
 51
311.4096221093
  0
CIRCLE
  5
46A
100
AcDbEntity
  8
3_ALL_AXES
100
AcDbCircle
 62
7
  6
CONTINUOUS
 10
181.4940932063
 20
423.4755544355
 40
2.75
  0
ARC
  5
46B
100
AcDbEntity
  8
7_ALL_FEATURES
100
AcDbCircle
 62
7
  6
CONTINUOUS
 10
189.1940932063
 20
400.9502834441
 40
1.5
100
AcDbArc
 50
0.0
 51
9.6155456361
  0
ARC
  5
46C
100
AcDbEntity
  8
7_ALL_FEATURES
100
AcDbCircle
 62
7
  6
CONTINUOUS
 10
160.6440932063
 20
425.2255544355
 40
1.5
100
AcDbArc
 50
78.6649071258
 51
90.0
  0
ARC
  5
46D
100
AcDbEntity
  8
6_ALL_SURFS
100
AcDbCircle
 62
7
  6
CONTINUOUS
 10
161.1898445173
 20
425.7255544355
 40
1.0
100
AcDbArc
 50
90.0
 51
131.4096221093
  0
ARC
  5
46E
100
AcDbEntity
  8
7_ALL_FEATURES
100
AcDbCircle
 62
7
  6
CONTINUOUS
 10
185.0957796604
 20
425.9755544355
 40
0.75
100
AcDbArc
 50
10.9944276525
 51
90.0
  0
ARC
  5
46F
100
AcDbEntity
  8
7_ALL_FEATURES
100
AcDbCircle
 62
7
  6
CONTINUOUS
 10
313.2379032258
 20
584.1344350196
 40
4.7990381057
100
AcDbArc
 50
152.7144649101
 51
182.3884943821
  0
ARC
  5
470
100
AcDbEntity
  8
7_ALL_FEATURES
100
AcDbCircle
 62
7
  6
CONTINUOUS
 10
563.2379032258
 20
584.1344350196
 40
4.7990381057
100
AcDbArc
 50
152.7144649101
 51
182.3884943821
  0
ARC
  5
471
100
AcDbEntity
  8
7_ALL_FEATURES
100
AcDbCircle
 62
7
  6
CONTINUOUS
 10
313.2379032258
 20
584.1344350196
 40
4.7990381057
100
AcDbArc
 50
357.6115056179
 51
27.2855350899
  0
ARC
  5
472
100
AcDbEntity
  8
7_ALL_FEATURES
100
AcDbCircle
 62
7
  6
CONTINUOUS
 10
563.2379032258
 20
584.1344350196
 40
4.7990381057
100
AcDbArc
 50
357.6115056179
 51
27.2855350899
  0
ARC
  5
473
100
AcDbEntity
  8
7_ALL_FEATURES
100
AcDbCircle
 62
7
  6
CONTINUOUS
 10
563.2379032258
 20
584.1344350196
 40
4.7990381057
100
AcDbArc
 50
35.6935828234
 51
144.3064171766
  0
ARC
  5
474
100
AcDbEntity
  8
7_ALL_FEATURES
100
AcDbCircle
 62
7
  6
CONTINUOUS
 10
313.2379032258
 20
584.1344350196
 40
4.7990381057
100
AcDbArc
 50
35.6935828234
 51
144.3064171766
  0
ARC
  5
475
100
AcDbEntity
  8
7_ALL_FEATURES
100
AcDbCircle
 62
7
  6
CONTINUOUS
 10
313.2379032258
 20
584.1344350196
 40
4.7990381057
100
AcDbArc
 50
189.5960093944
 51
226.828815981
  0
ARC
  5
476
100
AcDbEntity
  8
7_ALL_FEATURES
100
AcDbCircle
 62
7
  6
CONTINUOUS
 10
563.2379032258
 20
584.1344350196
 40
4.7990381057
100
AcDbArc
 50
189.5960093944
 51
226.828815981
  0
ARC
  5
477
100
AcDbEntity
  8
7_ALL_FEATURES
100
AcDbCircle
 62
7
  6
CONTINUOUS
 10
313.2379032258
 20
584.1344350196
 40
4.7990381057
100
AcDbArc
 50
313.171184019
 51
350.4039906056
  0
ARC
  5
478
100
AcDbEntity
  8
7_ALL_FEATURES
100
AcDbCircle
 62
7
  6
CONTINUOUS
 10
563.2379032258
 20
584.1344350196
 40
4.7990381057
100
AcDbArc
 50
313.171184019
 51
350.4039906056
  0
CIRCLE
  5
479
100
AcDbEntity
  8
6_ALL_SURFS
100
AcDbCircle
 62
7
  6
CONTINUOUS
 10
313.2379032258
 20
584.1344350196
 40
3.5
  0
CIRCLE
  5
47A
100
AcDbEntity
  8
6_ALL_SURFS
100
AcDbCircle
 62
7
  6
CONTINUOUS
 10
563.2379032258
 20
584.1344350196
 40
3.5
  0
ARC
  5
47B
100
AcDbEntity
  8
6_ALL_SURFS
100
AcDbCircle
 62
7
  6
CONTINUOUS
 10
563.2379032258
 20
682.0344350196
 40
4.7990381057
100
AcDbArc
 50
9.5960093944
 51
46.828815981
  0
ARC
  5
47C
100
AcDbEntity
  8
6_ALL_SURFS
100
AcDbCircle
 62
7
  6
CONTINUOUS
 10
313.2379032258
 20
682.0344350196
 40
4.7990381057
100
AcDbArc
 50
9.5960093944
 51
46.828815981
  0
ARC
  5
47D
100
AcDbEntity
  8
6_ALL_SURFS
100
AcDbCircle
 62
7
  6
CONTINUOUS
 10
563.2379032258
 20
682.0344350196
 40
4.7990381057
100
AcDbArc
 50
133.171184019
 51
170.4039906056
  0
ARC
  5
47E
100
AcDbEntity
  8
6_ALL_SURFS
100
AcDbCircle
 62
7
  6
CONTINUOUS
 10
313.2379032258
 20
682.0344350196
 40
4.7990381057
100
AcDbArc
 50
133.171184019
 51
170.4039906056
  0
ARC
  5
47F
100
AcDbEntity
  8
6_ALL_SURFS
100
AcDbCircle
 62
7
  6
CONTINUOUS
 10
563.2379032258
 20
682.0344350196
 40
4.7990381057
100
AcDbArc
 50
215.6935828234
 51
324.3064171766
  0
ARC
  5
480
100
AcDbEntity
  8
6_ALL_SURFS
100
AcDbCircle
 62
7
  6
CONTINUOUS
 10
313.2379032258
 20
682.0344350196
 40
4.7990381057
100
AcDbArc
 50
215.6935828234
 51
324.3064171766
  0
ARC
  5
481
100
AcDbEntity
  8
6_ALL_SURFS
100
AcDbCircle
 62
7
  6
CONTINUOUS
 10
563.2379032258
 20
682.0344350196
 40
4.7990381057
100
AcDbArc
 50
332.7144649101
 51
2.3884943821
  0
ARC
  5
482
100
AcDbEntity
  8
6_ALL_SURFS
100
AcDbCircle
 62
7
  6
CONTINUOUS
 10
313.2379032258
 20
682.0344350196
 40
4.7990381057
100
AcDbArc
 50
332.7144649101
 51
2.3884943821
  0
ARC
  5
483
100
AcDbEntity
  8
6_ALL_SURFS
100
AcDbCircle
 62
7
  6
CONTINUOUS
 10
563.2379032258
 20
682.0344350196
 40
4.7990381057
100
AcDbArc
 50
177.6115056179
 51
207.2855350899
  0
ARC
  5
484
100
AcDbEntity
  8
6_ALL_SURFS
100
AcDbCircle
 62
7
  6
CONTINUOUS
 10
313.2379032258
 20
682.0344350196
 40
4.7990381057
100
AcDbArc
 50
177.6115056179
 51
207.2855350899
  0
CIRCLE
  5
485
100
AcDbEntity
  8
6_ALL_SURFS
100
AcDbCircle
 62
7
  6
CONTINUOUS
 10
563.2379032258
 20
682.0344350196
 40
3.5
  0
CIRCLE
  5
486
100
AcDbEntity
  8
6_ALL_SURFS
100
AcDbCircle
 62
7
  6
CONTINUOUS
 10
313.2379032258
 20
682.0344350196
 40
3.5
  0
ARC
  5
487
100
AcDbEntity
  8
7_ALL_FEATURES
100
AcDbCircle
 62
7
  6
CONTINUOUS
 10
813.2379032258
 20
584.1344350196
 40
4.7990381057
100
AcDbArc
 50
152.7144649101
 51
182.3884943821
  0
ARC
  5
488
100
AcDbEntity
  8
7_ALL_FEATURES
100
AcDbCircle
 62
7
  6
CONTINUOUS
 10
1063.2379032258
 20
584.1344350196
 40
4.7990381057
100
AcDbArc
 50
152.7144649101
 51
182.3884943821
  0
ARC
  5
489
100
AcDbEntity
  8
7_ALL_FEATURES
100
AcDbCircle
 62
7
  6
CONTINUOUS
 10
813.2379032258
 20
584.1344350196
 40
4.7990381057
100
AcDbArc
 50
357.6115056179
 51
27.2855350899
  0
ARC
  5
48A
100
AcDbEntity
  8
7_ALL_FEATURES
100
AcDbCircle
 62
7
  6
CONTINUOUS
 10
1063.2379032258
 20
584.1344350196
 40
4.7990381057
100
AcDbArc
 50
357.6115056179
 51
27.2855350899
  0
ARC
  5
48B
100
AcDbEntity
  8
7_ALL_FEATURES
100
AcDbCircle
 62
7
  6
CONTINUOUS
 10
813.2379032258
 20
584.1344350196
 40
4.7990381057
100
AcDbArc
 50
35.6935828234
 51
144.3064171766
  0
ARC
  5
48C
100
AcDbEntity
  8
7_ALL_FEATURES
100
AcDbCircle
 62
7
  6
CONTINUOUS
 10
1063.2379032258
 20
584.1344350196
 40
4.7990381057
100
AcDbArc
 50
35.6935828234
 51
144.3064171766
  0
ARC
  5
48D
100
AcDbEntity
  8
7_ALL_FEATURES
100
AcDbCircle
 62
7
  6
CONTINUOUS
 10
813.2379032258
 20
584.1344350196
 40
4.7990381057
100
AcDbArc
 50
189.5960093944
 51
226.828815981
  0
ARC
  5
48E
100
AcDbEntity
  8
7_ALL_FEATURES
100
AcDbCircle
 62
7
  6
CONTINUOUS
 10
1063.2379032258
 20
584.1344350196
 40
4.7990381057
100
AcDbArc
 50
189.5960093944
 51
226.828815981
  0
ARC
  5
48F
100
AcDbEntity
  8
7_ALL_FEATURES
100
AcDbCircle
 62
7
  6
CONTINUOUS
 10
813.2379032258
 20
584.1344350196
 40
4.7990381057
100
AcDbArc
 50
313.171184019
 51
350.4039906056
  0
ARC
  5
490
100
AcDbEntity
  8
7_ALL_FEATURES
100
AcDbCircle
 62
7
  6
CONTINUOUS
 10
1063.2379032258
 20
584.1344350196
 40
4.7990381057
100
AcDbArc
 50
313.171184019
 51
350.4039906056
  0
CIRCLE
  5
491
100
AcDbEntity
  8
6_ALL_SURFS
100
AcDbCircle
 62
7
  6
CONTINUOUS
 10
813.2379032258
 20
584.1344350196
 40
3.5
  0
CIRCLE
  5
492
100
AcDbEntity
  8
6_ALL_SURFS
100
AcDbCircle
 62
7
  6
CONTINUOUS
 10
1063.2379032258
 20
584.1344350196
 40
3.5
  0
ARC
  5
493
100
AcDbEntity
  8
6_ALL_SURFS
100
AcDbCircle
 62
7
  6
CONTINUOUS
 10
813.2379032258
 20
682.0344350196
 40
4.7990381057
100
AcDbArc
 50
9.5960093944
 51
46.828815981
  0
ARC
  5
494
100
AcDbEntity
  8
6_ALL_SURFS
100
AcDbCircle
 62
7
  6
CONTINUOUS
 10
1063.2379032258
 20
682.0344350196
 40
4.7990381057
100
AcDbArc
 50
133.171184019
 51
170.4039906056
  0
ARC
  5
495
100
AcDbEntity
  8
6_ALL_SURFS
100
AcDbCircle
 62
7
  6
CONTINUOUS
 10
813.2379032258
 20
682.0344350196
 40
4.7990381057
100
AcDbArc
 50
133.171184019
 51
170.4039906056
  0
ARC
  5
496
100
AcDbEntity
  8
6_ALL_SURFS
100
AcDbCircle
 62
7
  6
CONTINUOUS
 10
813.2379032258
 20
682.0344350196
 40
4.7990381057
100
AcDbArc
 50
215.6935828234
 51
324.3064171766
  0
ARC
  5
497
100
AcDbEntity
  8
6_ALL_SURFS
100
AcDbCircle
 62
7
  6
CONTINUOUS
 10
1063.2379032258
 20
682.0344350196
 40
4.7990381057
100
AcDbArc
 50
215.6935828234
 51
324.3064171766
  0
ARC
  5
498
100
AcDbEntity
  8
6_ALL_SURFS
100
AcDbCircle
 62
7
  6
CONTINUOUS
 10
1063.2379032258
 20
682.0344350196
 40
4.7990381057
100
AcDbArc
 50
332.7144649101
 51
2.3884943821
  0
ARC
  5
499
100
AcDbEntity
  8
6_ALL_SURFS
100
AcDbCircle
 62
7
  6
CONTINUOUS
 10
813.2379032258
 20
682.0344350196
 40
4.7990381057
100
AcDbArc
 50
332.7144649101
 51
2.3884943821
  0
ARC
  5
49A
100
AcDbEntity
  8
6_ALL_SURFS
100
AcDbCircle
 62
7
  6
CONTINUOUS
 10
1063.2379032258
 20
682.0344350196
 40
4.7990381057
100
AcDbArc
 50
177.6115056179
 51
207.2855350899
  0
ARC
  5
49B
100
AcDbEntity
  8
6_ALL_SURFS
100
AcDbCircle
 62
7
  6
CONTINUOUS
 10
813.2379032258
 20
682.0344350196
 40
4.7990381057
100
AcDbArc
 50
177.6115056179
 51
207.2855350899
  0
ARC
  5
49C
100
AcDbEntity
  8
6_ALL_SURFS
100
AcDbCircle
 62
7
  6
CONTINUOUS
 10
1063.2379032258
 20
682.0344350196
 40
4.7990381057
100
AcDbArc
 50
9.5960093944
 51
46.828815981
  0
CIRCLE
  5
49D
100
AcDbEntity
  8
6_ALL_SURFS
100
AcDbCircle
 62
7
  6
CONTINUOUS
 10
1063.2379032258
 20
682.0344350196
 40
3.5
  0
CIRCLE
  5
49E
100
AcDbEntity
  8
6_ALL_SURFS
100
AcDbCircle
 62
7
  6
CONTINUOUS
 10
813.2379032258
 20
682.0344350196
 40
3.5
  0
SPLINE
  5
49F
100
AcDbEntity
  8
7_ALL_FEATURES
100
AcDbSpline
 62
7
  6
CONTINUOUS
 70
0
 71
3
 72
10
 73
6
 74
0
 42
0.0000001
 43
0.0000001
 44
0.0000000001
 40
0.0
 40
0.0
 40
0.0
 40
0.0
 40
0.2439940782
 40
0.5026120238
 40
1.0
 40
1.0
 40
1.0
 40
1.0
 10
558.506014941
 20
583.3344350196
 30
0.0
 10
558.5488066762
 20
583.3716968416
 30
0.0
 10
558.6268356992
 20
583.4641299288
 30
0.0
 10
558.6652646325
 20
583.708825624
 30
0.0
 10
558.5357814815
 20
583.8653177193
 30
0.0
 10
558.4430344331
 20
583.9344350196
 30
0.0
  0
SPLINE
  5
4A0
100
AcDbEntity
  8
7_ALL_FEATURES
100
AcDbSpline
 62
7
  6
CONTINUOUS
 70
0
 71
3
 72
10
 73
6
 74
0
 42
0.0000001
 43
0.0000001
 44
0.0000000001
 40
0.0
 40
0.0
 40
0.0
 40
0.0
 40
0.4973879762
 40
0.7560059218
 40
1.0
 40
1.0
 40
1.0
 40
1.0
 10
318.0327720186
 20
583.9344350196
 30
0.0
 10
317.9400249701
 20
583.8653177193
 30
0.0
 10
317.8105418191
 20
583.708825624
 30
0.0
 10
317.8489707524
 20
583.4641299288
 30
0.0
 10
317.9269997754
 20
583.3716968416
 30
0.0
 10
317.9697915106
 20
583.3344350196
 30
0.0
  0
SPLINE
  5
4A1
100
AcDbEntity
  8
7_ALL_FEATURES
100
AcDbSpline
 62
7
  6
CONTINUOUS
 70
0
 71
3
 72
10
 73
6
 74
0
 42
0.0000001
 43
0.0000001
 44
0.0000000001
 40
0.0
 40
0.0
 40
0.0
 40
0.0
 40
0.2439940782
 40
0.5026120238
 40
1.0
 40
1.0
 40
1.0
 40
1.0
 10
808.506014941
 20
583.3344350196
 30
0.0
 10
808.5488066762
 20
583.3716968416
 30
0.0
 10
808.6268356992
 20
583.4641299288
 30
0.0
 10
808.6652646325
 20
583.708825624
 30
0.0
 10
808.5357814815
 20
583.8653177193
 30
0.0
 10
808.4430344331
 20
583.9344350196
 30
0.0
  0
SPLINE
  5
4A2
100
AcDbEntity
  8
7_ALL_FEATURES
100
AcDbSpline
 62
7
  6
CONTINUOUS
 70
0
 71
3
 72
10
 73
6
 74
0
 42
0.0000001
 43
0.0000001
 44
0.0000000001
 40
0.0
 40
0.0
 40
0.0
 40
0.0
 40
0.4973879762
 40
0.7560059218
 40
1.0
 40
1.0
 40
1.0
 40
1.0
 10
568.0327720186
 20
583.9344350196
 30
0.0
 10
567.9400249701
 20
583.8653177193
 30
0.0
 10
567.8105418191
 20
583.708825624
 30
0.0
 10
567.8489707524
 20
583.4641299288
 30
0.0
 10
567.9269997754
 20
583.3716968416
 30
0.0
 10
567.9697915106
 20
583.3344350196
 30
0.0
  0
SPLINE
  5
4A3
100
AcDbEntity
  8
7_ALL_FEATURES
100
AcDbSpline
 62
7
  6
CONTINUOUS
 70
0
 71
3
 72
10
 73
6
 74
0
 42
0.0000001
 43
0.0000001
 44
0.0000000001
 40
0.0
 40
0.0
 40
0.0
 40
0.0
 40
0.2439940782
 40
0.5026120238
 40
1.0
 40
1.0
 40
1.0
 40
1.0
 10
1058.506014941
 20
583.3344350196
 30
0.0
 10
1058.5488066762
 20
583.3716968416
 30
0.0
 10
1058.6268356992
 20
583.4641299288
 30
0.0
 10
1058.6652646325
 20
583.708825624
 30
0.0
 10
1058.5357814815
 20
583.8653177193
 30
0.0
 10
1058.4430344331
 20
583.9344350196
 30
0.0
  0
SPLINE
  5
4A4
100
AcDbEntity
  8
7_ALL_FEATURES
100
AcDbSpline
 62
7
  6
CONTINUOUS
 70
0
 71
3
 72
10
 73
6
 74
0
 42
0.0000001
 43
0.0000001
 44
0.0000000001
 40
0.0
 40
0.0
 40
0.0
 40
0.0
 40
0.4973879762
 40
0.7560059218
 40
1.0
 40
1.0
 40
1.0
 40
1.0
 10
818.0327720186
 20
583.9344350196
 30
0.0
 10
817.9400249701
 20
583.8653177193
 30
0.0
 10
817.8105418191
 20
583.708825624
 30
0.0
 10
817.8489707524
 20
583.4641299288
 30
0.0
 10
817.9269997754
 20
583.3716968416
 30
0.0
 10
817.9697915106
 20
583.3344350196
 30
0.0
  0
SPLINE
  5
4A5
100
AcDbEntity
  8
7_ALL_FEATURES
100
AcDbSpline
 62
7
  6
CONTINUOUS
 70
0
 71
3
 72
10
 73
6
 74
0
 42
0.0000001
 43
0.0000001
 44
0.0000000001
 40
0.0
 40
0.0
 40
0.0
 40
0.0
 40
0.4973879762
 40
0.7560059218
 40
1.0
 40
1.0
 40
1.0
 40
1.0
 10
1068.0327720186
 20
583.9344350196
 30
0.0
 10
1067.9400249701
 20
583.8653177193
 30
0.0
 10
1067.8105418191
 20
583.708825624
 30
0.0
 10
1067.8489707524
 20
583.4641299288
 30
0.0
 10
1067.9269997754
 20
583.3716968416
 30
0.0
 10
1067.9697915106
 20
583.3344350196
 30
0.0
  0
SPLINE
  5
4A6
100
AcDbEntity
  8
7_ALL_FEATURES
100
AcDbSpline
 62
7
  6
CONTINUOUS
 70
0
 71
3
 72
13
 73
9
 74
0
 42
0.0000001
 43
0.0000001
 44
0.0000000001
 40
0.0
 40
0.0
 40
0.0
 40
0.0
 40
0.2496243991
 40
0.5054551102
 40
0.6354634586
 40
0.76380986
 40
0.8852077504
 40
1.0
 40
1.0
 40
1.0
 40
1.0
 10
308.9728397163
 20
586.3344350196
 30
0.0
 10
309.032706
 20
586.3647088474
 30
0.0
 10
309.1501266268
 20
586.4336312619
 30
0.0
 10
309.2822547348
 20
586.5447978329
 30
0.0
 10
309.3644626924
 20
586.6568246098
 30
0.0
 10
309.4024655706
 20
586.7538730858
 30
0.0
 10
309.3956362873
 20
586.8556399611
 30
0.0
 10
309.3607645623
 20
586.9112882089
 30
0.0
 10
309.3403698084
 20
586.9344350196
 30
0.0
  0
SPLINE
  5
4A7
100
AcDbEntity
  8
7_ALL_FEATURES
100
AcDbSpline
 62
7
  6
CONTINUOUS
 70
0
 71
3
 72
13
 73
9
 74
0
 42
0.0000001
 43
0.0000001
 44
0.0000000001
 40
0.0
 40
0.0
 40
0.0
 40
0.0
 40
0.2496243991
 40
0.5054551102
 40
0.6354634586
 40
0.76380986
 40
0.8852077504
 40
1.0
 40
1.0
 40
1.0
 40
1.0
 10
558.9728397163
 20
586.3344350196
 30
0.0
 10
559.032706
 20
586.3647088474
 30
0.0
 10
559.1501266268
 20
586.4336312619
 30
0.0
 10
559.2822547348
 20
586.5447978329
 30
0.0
 10
559.3644626924
 20
586.6568246098
 30
0.0
 10
559.4024655706
 20
586.7538730858
 30
0.0
 10
559.3956362873
 20
586.8556399611
 30
0.0
 10
559.3607645623
 20
586.9112882089
 30
0.0
 10
559.3403698084
 20
586.9344350196
 30
0.0
  0
SPLINE
  5
4A8
100
AcDbEntity
  8
7_ALL_FEATURES
100
AcDbSpline
 62
7
  6
CONTINUOUS
 70
0
 71
3
 72
13
 73
9
 74
0
 42
0.0000001
 43
0.0000001
 44
0.0000000001
 40
0.0
 40
0.0
 40
0.0
 40
0.0
 40
0.1147839229
 40
0.2361805088
 40
0.3645310407
 40
0.494542296
 40
0.7503751961
 40
1.0
 40
1.0
 40
1.0
 40
1.0
 10
317.1354366432
 20
586.9344350196
 30
0.0
 10
317.1150433563
 20
586.9112898738
 30
0.0
 10
317.0801722521
 20
586.8556449726
 30
0.0
 10
317.0733382877
 20
586.7538796479
 30
0.0
 10
317.1113414356
 20
586.6568290886
 30
0.0
 10
317.1935493767
 20
586.5447992644
 30
0.0
 10
317.3256791581
 20
586.4336317999
 30
0.0
 10
317.443100318
 20
586.364708915
 30
0.0
 10
317.5029667353
 20
586.3344350196
 30
0.0
  0
SPLINE
  5
4A9
100
AcDbEntity
  8
7_ALL_FEATURES
100
AcDbSpline
 62
7
  6
CONTINUOUS
 70
0
 71
3
 72
13
 73
9
 74
0
 42
0.0000001
 43
0.0000001
 44
0.0000000001
 40
0.0
 40
0.0
 40
0.0
 40
0.0
 40
0.2496243991
 40
0.5054551102
 40
0.6354634586
 40
0.76380986
 40
0.8852077504
 40
1.0
 40
1.0
 40
1.0
 40
1.0
 10
808.9728397163
 20
586.3344350196
 30
0.0
 10
809.032706
 20
586.3647088474
 30
0.0
 10
809.1501266268
 20
586.4336312619
 30
0.0
 10
809.2822547348
 20
586.5447978329
 30
0.0
 10
809.3644626924
 20
586.6568246098
 30
0.0
 10
809.4024655706
 20
586.7538730858
 30
0.0
 10
809.3956362873
 20
586.8556399611
 30
0.0
 10
809.3607645623
 20
586.9112882089
 30
0.0
 10
809.3403698084
 20
586.9344350196
 30
0.0
  0
SPLINE
  5
4AA
100
AcDbEntity
  8
7_ALL_FEATURES
100
AcDbSpline
 62
7
  6
CONTINUOUS
 70
0
 71
3
 72
13
 73
9
 74
0
 42
0.0000001
 43
0.0000001
 44
0.0000000001
 40
0.0
 40
0.0
 40
0.0
 40
0.0
 40
0.1147839229
 40
0.2361805088
 40
0.3645310407
 40
0.494542296
 40
0.7503751961
 40
1.0
 40
1.0
 40
1.0
 40
1.0
 10
567.1354366432
 20
586.9344350196
 30
0.0
 10
567.1150433563
 20
586.9112898738
 30
0.0
 10
567.0801722521
 20
586.8556449726
 30
0.0
 10
567.0733382877
 20
586.7538796479
 30
0.0
 10
567.1113414356
 20
586.6568290886
 30
0.0
 10
567.1935493767
 20
586.5447992644
 30
0.0
 10
567.3256791581
 20
586.4336317999
 30
0.0
 10
567.443100318
 20
586.364708915
 30
0.0
 10
567.5029667353
 20
586.3344350196
 30
0.0
  0
SPLINE
  5
4AB
100
AcDbEntity
  8
7_ALL_FEATURES
100
AcDbSpline
 62
7
  6
CONTINUOUS
 70
0
 71
3
 72
13
 73
9
 74
0
 42
0.0000001
 43
0.0000001
 44
0.0000000001
 40
0.0
 40
0.0
 40
0.0
 40
0.0
 40
0.2496243991
 40
0.5054551102
 40
0.6354634586
 40
0.76380986
 40
0.8852077504
 40
1.0
 40
1.0
 40
1.0
 40
1.0
 10
1058.9728397163
 20
586.3344350196
 30
0.0
 10
1059.032706
 20
586.3647088474
 30
0.0
 10
1059.1501266268
 20
586.4336312619
 30
0.0
 10
1059.2822547348
 20
586.5447978329
 30
0.0
 10
1059.3644626924
 20
586.6568246098
 30
0.0
 10
1059.4024655706
 20
586.7538730858
 30
0.0
 10
1059.3956362873
 20
586.8556399611
 30
0.0
 10
1059.3607645623
 20
586.9112882089
 30
0.0
 10
1059.3403698084
 20
586.9344350196
 30
0.0
  0
SPLINE
  5
4AC
100
AcDbEntity
  8
7_ALL_FEATURES
100
AcDbSpline
 62
7
  6
CONTINUOUS
 70
0
 71
3
 72
13
 73
9
 74
0
 42
0.0000001
 43
0.0000001
 44
0.0000000001
 40
0.0
 40
0.0
 40
0.0
 40
0.0
 40
0.1147839229
 40
0.2361805088
 40
0.3645310407
 40
0.494542296
 40
0.7503751961
 40
1.0
 40
1.0
 40
1.0
 40
1.0
 10
817.1354366432
 20
586.9344350196
 30
0.0
 10
817.1150433563
 20
586.9112898738
 30
0.0
 10
817.0801722521
 20
586.8556449726
 30
0.0
 10
817.0733382877
 20
586.7538796479
 30
0.0
 10
817.1113414356
 20
586.6568290886
 30
0.0
 10
817.1935493767
 20
586.5447992644
 30
0.0
 10
817.3256791581
 20
586.4336317999
 30
0.0
 10
817.443100318
 20
586.364708915
 30
0.0
 10
817.5029667353
 20
586.3344350196
 30
0.0
  0
SPLINE
  5
4AD
100
AcDbEntity
  8
7_ALL_FEATURES
100
AcDbSpline
 62
7
  6
CONTINUOUS
 70
0
 71
3
 72
13
 73
9
 74
0
 42
0.0000001
 43
0.0000001
 44
0.0000000001
 40
0.0
 40
0.0
 40
0.0
 40
0.0
 40
0.1147839229
 40
0.2361805088
 40
0.3645310407
 40
0.494542296
 40
0.7503751961
 40
1.0
 40
1.0
 40
1.0
 40
1.0
 10
1067.1354366432
 20
586.9344350196
 30
0.0
 10
1067.1150433563
 20
586.9112898738
 30
0.0
 10
1067.0801722521
 20
586.8556449726
 30
0.0
 10
1067.0733382877
 20
586.7538796479
 30
0.0
 10
1067.1113414356
 20
586.6568290886
 30
0.0
 10
1067.1935493767
 20
586.5447992644
 30
0.0
 10
1067.3256791581
 20
586.4336317999
 30
0.0
 10
1067.443100318
 20
586.364708915
 30
0.0
 10
1067.5029667353
 20
586.3344350196
 30
0.0
  0
SPLINE
  5
4AE
100
AcDbEntity
  8
6_ALL_SURFS
100
AcDbSpline
 62
7
  6
CONTINUOUS
 70
0
 71
3
 72
13
 73
9
 74
0
 42
0.0000001
 43
0.0000001
 44
0.0000000001
 40
0.0
 40
0.0
 40
0.0
 40
0.0
 40
0.1147839229
 40
0.2361805088
 40
0.3645310407
 40
0.494542296
 40
0.7503751961
 40
1.0
 40
1.0
 40
1.0
 40
1.0
 10
1067.1354366432
 20
679.2344350196
 30
0.0
 10
1067.1150433563
 20
679.2575801653
 30
0.0
 10
1067.0801722521
 20
679.3132250665
 30
0.0
 10
1067.0733382877
 20
679.4149903912
 30
0.0
 10
1067.1113414356
 20
679.5120409505
 30
0.0
 10
1067.1935493767
 20
679.6240707748
 30
0.0
 10
1067.3256791581
 20
679.7352382392
 30
0.0
 10
1067.443100318
 20
679.8041611241
 30
0.0
 10
1067.5029667353
 20
679.8344350196
 30
0.0
  0
SPLINE
  5
4AF
100
AcDbEntity
  8
6_ALL_SURFS
100
AcDbSpline
 62
7
  6
CONTINUOUS
 70
0
 71
3
 72
13
 73
9
 74
0
 42
0.0000001
 43
0.0000001
 44
0.0000000001
 40
0.0
 40
0.0
 40
0.0
 40
0.0
 40
0.1147839229
 40
0.2361805088
 40
0.3645310407
 40
0.494542296
 40
0.7503751961
 40
1.0
 40
1.0
 40
1.0
 40
1.0
 10
817.1354366432
 20
679.2344350196
 30
0.0
 10
817.1150433563
 20
679.2575801653
 30
0.0
 10
817.0801722521
 20
679.3132250665
 30
0.0
 10
817.0733382877
 20
679.4149903912
 30
0.0
 10
817.1113414356
 20
679.5120409505
 30
0.0
 10
817.1935493767
 20
679.6240707748
 30
0.0
 10
817.3256791581
 20
679.7352382392
 30
0.0
 10
817.443100318
 20
679.8041611241
 30
0.0
 10
817.5029667353
 20
679.8344350196
 30
0.0
  0
SPLINE
  5
4B0
100
AcDbEntity
  8
6_ALL_SURFS
100
AcDbSpline
 62
7
  6
CONTINUOUS
 70
0
 71
3
 72
13
 73
9
 74
0
 42
0.0000001
 43
0.0000001
 44
0.0000000001
 40
0.0
 40
0.0
 40
0.0
 40
0.0
 40
0.2496243991
 40
0.5054551102
 40
0.6354634586
 40
0.76380986
 40
0.8852077504
 40
1.0
 40
1.0
 40
1.0
 40
1.0
 10
1058.9728397163
 20
679.8344350196
 30
0.0
 10
1059.032706
 20
679.8041611917
 30
0.0
 10
1059.1501266268
 20
679.7352387772
 30
0.0
 10
1059.2822547348
 20
679.6240722062
 30
0.0
 10
1059.3644626924
 20
679.5120454293
 30
0.0
 10
1059.4024655706
 20
679.4149969533
 30
0.0
 10
1059.3956362873
 20
679.313230078
 30
0.0
 10
1059.3607645623
 20
679.2575818302
 30
0.0
 10
1059.3403698084
 20
679.2344350196
 30
0.0
  0
SPLINE
  5
4B1
100
AcDbEntity
  8
6_ALL_SURFS
100
AcDbSpline
 62
7
  6
CONTINUOUS
 70
0
 71
3
 72
13
 73
9
 74
0
 42
0.0000001
 43
0.0000001
 44
0.0000000001
 40
0.0
 40
0.0
 40
0.0
 40
0.0
 40
0.1147839229
 40
0.2361805088
 40
0.3645310407
 40
0.494542296
 40
0.7503751961
 40
1.0
 40
1.0
 40
1.0
 40
1.0
 10
567.1354366432
 20
679.2344350196
 30
0.0
 10
567.1150433563
 20
679.2575801653
 30
0.0
 10
567.0801722521
 20
679.3132250665
 30
0.0
 10
567.0733382877
 20
679.4149903912
 30
0.0
 10
567.1113414356
 20
679.5120409505
 30
0.0
 10
567.1935493767
 20
679.6240707748
 30
0.0
 10
567.3256791581
 20
679.7352382392
 30
0.0
 10
567.443100318
 20
679.8041611241
 30
0.0
 10
567.5029667353
 20
679.8344350196
 30
0.0
  0
SPLINE
  5
4B2
100
AcDbEntity
  8
6_ALL_SURFS
100
AcDbSpline
 62
7
  6
CONTINUOUS
 70
0
 71
3
 72
13
 73
9
 74
0
 42
0.0000001
 43
0.0000001
 44
0.0000000001
 40
0.0
 40
0.0
 40
0.0
 40
0.0
 40
0.2496243991
 40
0.5054551102
 40
0.6354634586
 40
0.76380986
 40
0.8852077504
 40
1.0
 40
1.0
 40
1.0
 40
1.0
 10
808.9728397163
 20
679.8344350196
 30
0.0
 10
809.032706
 20
679.8041611917
 30
0.0
 10
809.1501266268
 20
679.7352387772
 30
0.0
 10
809.2822547348
 20
679.6240722062
 30
0.0
 10
809.3644626924
 20
679.5120454293
 30
0.0
 10
809.4024655706
 20
679.4149969533
 30
0.0
 10
809.3956362873
 20
679.313230078
 30
0.0
 10
809.3607645623
 20
679.2575818302
 30
0.0
 10
809.3403698084
 20
679.2344350196
 30
0.0
  0
SPLINE
  5
4B3
100
AcDbEntity
  8
6_ALL_SURFS
100
AcDbSpline
 62
7
  6
CONTINUOUS
 70
0
 71
3
 72
13
 73
9
 74
0
 42
0.0000001
 43
0.0000001
 44
0.0000000001
 40
0.0
 40
0.0
 40
0.0
 40
0.0
 40
0.1147839229
 40
0.2361805088
 40
0.3645310407
 40
0.494542296
 40
0.7503751961
 40
1.0
 40
1.0
 40
1.0
 40
1.0
 10
317.1354366432
 20
679.2344350196
 30
0.0
 10
317.1150433563
 20
679.2575801653
 30
0.0
 10
317.0801722521
 20
679.3132250665
 30
0.0
 10
317.0733382877
 20
679.4149903912
 30
0.0
 10
317.1113414356
 20
679.5120409505
 30
0.0
 10
317.1935493767
 20
679.6240707748
 30
0.0
 10
317.3256791581
 20
679.7352382392
 30
0.0
 10
317.443100318
 20
679.8041611241
 30
0.0
 10
317.5029667353
 20
679.8344350196
 30
0.0
  0
SPLINE
  5
4B4
100
AcDbEntity
  8
6_ALL_SURFS
100
AcDbSpline
 62
7
  6
CONTINUOUS
 70
0
 71
3
 72
13
 73
9
 74
0
 42
0.0000001
 43
0.0000001
 44
0.0000000001
 40
0.0
 40
0.0
 40
0.0
 40
0.0
 40
0.2496243991
 40
0.5054551102
 40
0.6354634586
 40
0.76380986
 40
0.8852077504
 40
1.0
 40
1.0
 40
1.0
 40
1.0
 10
558.9728397163
 20
679.8344350196
 30
0.0
 10
559.032706
 20
679.8041611917
 30
0.0
 10
559.1501266268
 20
679.7352387772
 30
0.0
 10
559.2822547348
 20
679.6240722062
 30
0.0
 10
559.3644626924
 20
679.5120454293
 30
0.0
 10
559.4024655706
 20
679.4149969533
 30
0.0
 10
559.3956362873
 20
679.313230078
 30
0.0
 10
559.3607645623
 20
679.2575818302
 30
0.0
 10
559.3403698084
 20
679.2344350196
 30
0.0
  0
SPLINE
  5
4B5
100
AcDbEntity
  8
6_ALL_SURFS
100
AcDbSpline
 62
7
  6
CONTINUOUS
 70
0
 71
3
 72
13
 73
9
 74
0
 42
0.0000001
 43
0.0000001
 44
0.0000000001
 40
0.0
 40
0.0
 40
0.0
 40
0.0
 40
0.2496243991
 40
0.5054551102
 40
0.6354634586
 40
0.76380986
 40
0.8852077504
 40
1.0
 40
1.0
 40
1.0
 40
1.0
 10
308.9728397163
 20
679.8344350196
 30
0.0
 10
309.032706
 20
679.8041611917
 30
0.0
 10
309.1501266268
 20
679.7352387772
 30
0.0
 10
309.2822547348
 20
679.6240722062
 30
0.0
 10
309.3644626924
 20
679.5120454293
 30
0.0
 10
309.4024655706
 20
679.4149969533
 30
0.0
 10
309.3956362873
 20
679.313230078
 30
0.0
 10
309.3607645623
 20
679.2575818302
 30
0.0
 10
309.3403698084
 20
679.2344350196
 30
0.0
  0
SPLINE
  5
4B6
100
AcDbEntity
  8
6_ALL_SURFS
100
AcDbSpline
 62
7
  6
CONTINUOUS
 70
0
 71
3
 72
10
 73
6
 74
0
 42
0.0000001
 43
0.0000001
 44
0.0000000001
 40
0.0
 40
0.0
 40
0.0
 40
0.0
 40
0.4973879762
 40
0.7560059218
 40
1.0
 40
1.0
 40
1.0
 40
1.0
 10
1068.0327720186
 20
682.2344350196
 30
0.0
 10
1067.9400249701
 20
682.3035523198
 30
0.0
 10
1067.8105418191
 20
682.4600444151
 30
0.0
 10
1067.8489707524
 20
682.7047401103
 30
0.0
 10
1067.9269997754
 20
682.7971731976
 30
0.0
 10
1067.9697915106
 20
682.8344350196
 30
0.0
  0
SPLINE
  5
4B7
100
AcDbEntity
  8
6_ALL_SURFS
100
AcDbSpline
 62
7
  6
CONTINUOUS
 70
0
 71
3
 72
10
 73
6
 74
0
 42
0.0000001
 43
0.0000001
 44
0.0000000001
 40
0.0
 40
0.0
 40
0.0
 40
0.0
 40
0.4973879762
 40
0.7560059218
 40
1.0
 40
1.0
 40
1.0
 40
1.0
 10
818.0327720186
 20
682.2344350196
 30
0.0
 10
817.9400249701
 20
682.3035523198
 30
0.0
 10
817.8105418191
 20
682.4600444151
 30
0.0
 10
817.8489707524
 20
682.7047401103
 30
0.0
 10
817.9269997754
 20
682.7971731976
 30
0.0
 10
817.9697915106
 20
682.8344350196
 30
0.0
  0
SPLINE
  5
4B8
100
AcDbEntity
  8
6_ALL_SURFS
100
AcDbSpline
 62
7
  6
CONTINUOUS
 70
0
 71
3
 72
10
 73
6
 74
0
 42
0.0000001
 43
0.0000001
 44
0.0000000001
 40
0.0
 40
0.0
 40
0.0
 40
0.0
 40
0.2439940782
 40
0.5026120238
 40
1.0
 40
1.0
 40
1.0
 40
1.0
 10
1058.506014941
 20
682.8344350196
 30
0.0
 10
1058.5488066762
 20
682.7971731976
 30
0.0
 10
1058.6268356992
 20
682.7047401103
 30
0.0
 10
1058.6652646325
 20
682.4600444151
 30
0.0
 10
1058.5357814815
 20
682.3035523198
 30
0.0
 10
1058.4430344331
 20
682.2344350196
 30
0.0
  0
SPLINE
  5
4B9
100
AcDbEntity
  8
6_ALL_SURFS
100
AcDbSpline
 62
7
  6
CONTINUOUS
 70
0
 71
3
 72
10
 73
6
 74
0
 42
0.0000001
 43
0.0000001
 44
0.0000000001
 40
0.0
 40
0.0
 40
0.0
 40
0.0
 40
0.4973879762
 40
0.7560059218
 40
1.0
 40
1.0
 40
1.0
 40
1.0
 10
568.0327720186
 20
682.2344350196
 30
0.0
 10
567.9400249701
 20
682.3035523198
 30
0.0
 10
567.8105418191
 20
682.4600444151
 30
0.0
 10
567.8489707524
 20
682.7047401103
 30
0.0
 10
567.9269997754
 20
682.7971731976
 30
0.0
 10
567.9697915106
 20
682.8344350196
 30
0.0
  0
SPLINE
  5
4BA
100
AcDbEntity
  8
6_ALL_SURFS
100
AcDbSpline
 62
7
  6
CONTINUOUS
 70
0
 71
3
 72
10
 73
6
 74
0
 42
0.0000001
 43
0.0000001
 44
0.0000000001
 40
0.0
 40
0.0
 40
0.0
 40
0.0
 40
0.2439940782
 40
0.5026120238
 40
1.0
 40
1.0
 40
1.0
 40
1.0
 10
808.506014941
 20
682.8344350196
 30
0.0
 10
808.5488066762
 20
682.7971731976
 30
0.0
 10
808.6268356992
 20
682.7047401103
 30
0.0
 10
808.6652646325
 20
682.4600444151
 30
0.0
 10
808.5357814815
 20
682.3035523198
 30
0.0
 10
808.4430344331
 20
682.2344350196
 30
0.0
  0
SPLINE
  5
4BB
100
AcDbEntity
  8
6_ALL_SURFS
100
AcDbSpline
 62
7
  6
CONTINUOUS
 70
0
 71
3
 72
10
 73
6
 74
0
 42
0.0000001
 43
0.0000001
 44
0.0000000001
 40
0.0
 40
0.0
 40
0.0
 40
0.0
 40
0.4973879762
 40
0.7560059218
 40
1.0
 40
1.0
 40
1.0
 40
1.0
 10
318.0327720186
 20
682.2344350196
 30
0.0
 10
317.9400249701
 20
682.3035523198
 30
0.0
 10
317.8105418191
 20
682.4600444151
 30
0.0
 10
317.8489707524
 20
682.7047401103
 30
0.0
 10
317.9269997754
 20
682.7971731976
 30
0.0
 10
317.9697915106
 20
682.8344350196
 30
0.0
  0
SPLINE
  5
4BC
100
AcDbEntity
  8
6_ALL_SURFS
100
AcDbSpline
 62
7
  6
CONTINUOUS
 70
0
 71
3
 72
10
 73
6
 74
0
 42
0.0000001
 43
0.0000001
 44
0.0000000001
 40
0.0
 40
0.0
 40
0.0
 40
0.0
 40
0.2439940782
 40
0.5026120238
 40
1.0
 40
1.0
 40
1.0
 40
1.0
 10
558.506014941
 20
682.8344350196
 30
0.0
 10
558.5488066762
 20
682.7971731976
 30
0.0
 10
558.6268356992
 20
682.7047401103
 30
0.0
 10
558.6652646325
 20
682.4600444151
 30
0.0
 10
558.5357814815
 20
682.3035523198
 30
0.0
 10
558.4430344331
 20
682.2344350196
 30
0.0
  0
SPLINE
  5
4BD
100
AcDbEntity
  8
6_ALL_SURFS
100
AcDbSpline
 62
7
  6
CONTINUOUS
 70
0
 71
3
 72
10
 73
6
 74
0
 42
0.0000001
 43
0.0000001
 44
0.0000000001
 40
0.0
 40
0.0
 40
0.0
 40
0.0
 40
0.2439940782
 40
0.5026120238
 40
1.0
 40
1.0
 40
1.0
 40
1.0
 10
308.506014941
 20
682.8344350196
 30
0.0
 10
308.5488066762
 20
682.7971731976
 30
0.0
 10
308.6268356992
 20
682.7047401103
 30
0.0
 10
308.6652646325
 20
682.4600444151
 30
0.0
 10
308.5357814815
 20
682.3035523198
 30
0.0
 10
308.4430344331
 20
682.2344350196
 30
0.0
  0
SPLINE
  5
4BE
100
AcDbEntity
  8
7_ALL_FEATURES
100
AcDbSpline
 62
7
  6
CONTINUOUS
 70
0
 71
3
 72
10
 73
6
 74
0
 42
0.0000001
 43
0.0000001
 44
0.0000000001
 40
0.0
 40
0.0
 40
0.0
 40
0.0
 40
0.2439940782
 40
0.5026120238
 40
1.0
 40
1.0
 40
1.0
 40
1.0
 10
308.506014941
 20
583.3344350196
 30
0.0
 10
308.5488066762
 20
583.3716968416
 30
0.0
 10
308.6268356992
 20
583.4641299288
 30
0.0
 10
308.6652646325
 20
583.708825624
 30
0.0
 10
308.5357814815
 20
583.8653177193
 30
0.0
 10
308.4430344331
 20
583.9344350196
 30
0.0
  0
ELLIPSE
  5
4BF
100
AcDbEntity
  8
6_ALL_SURFS
100
AcDbEllipse
 62
7
  6
CONTINUOUS
 10
1063.2379032258
 20
336.7790371383
 30
0.0
 11
5.4882058378
 21
-0.0
 31
0.0
 40
0.1015346165
 41
7.212646077
 42
8.495317191
  0
ELLIPSE
  5
4C0
100
AcDbEntity
  8
6_ALL_SURFS
100
AcDbEllipse
 62
7
  6
CONTINUOUS
 10
813.2379032258
 20
336.7790371383
 30
0.0
 11
5.4882058378
 21
0.0
 31
0.0
 40
0.1015346165
 41
7.212646077
 42
8.495317191
  0
ELLIPSE
  5
4C1
100
AcDbEntity
  8
6_ALL_SURFS
100
AcDbEllipse
 62
7
  6
CONTINUOUS
 10
563.2379032258
 20
336.7790371383
 30
0.0
 11
5.4882058378
 21
0.0
 31
0.0
 40
0.1015346165
 41
7.212646077
 42
8.495317191
  0
ELLIPSE
  5
4C2
100
AcDbEntity
  8
6_ALL_SURFS
100
AcDbEllipse
 62
7
  6
CONTINUOUS
 10
313.2379032258
 20
336.7790371383
 30
0.0
 11
5.4882058378
 21
0.0
 31
0.0
 40
0.1015346165
 41
7.212646077
 42
8.495317191
  0
ELLIPSE
  5
4C3
100
AcDbEntity
  8
6_ALL_SURFS
100
AcDbEllipse
 62
7
  6
CONTINUOUS
 10
1063.2379032258
 20
681.0692620478
 30
0.0
 11
0.0
 21
5.5724287509
 31
0.0
 40
0.9848857802
 41
5.6418497502
 42
6.9245208642
  0
ELLIPSE
  5
4C4
100
AcDbEntity
  8
6_ALL_SURFS
100
AcDbEllipse
 62
7
  6
CONTINUOUS
 10
813.2379032258
 20
681.0692620478
 30
0.0
 11
-0.0
 21
5.5724287509
 31
0.0
 40
0.9848857802
 41
5.6418497502
 42
6.9245208642
  0
ELLIPSE
  5
4C5
100
AcDbEntity
  8
6_ALL_SURFS
100
AcDbEllipse
 62
7
  6
CONTINUOUS
 10
563.2379032258
 20
681.0692620478
 30
0.0
 11
-0.0
 21
5.5724287509
 31
0.0
 40
0.9848857802
 41
5.6418497502
 42
6.9245208642
  0
ELLIPSE
  5
4C6
100
AcDbEntity
  8
6_ALL_SURFS
100
AcDbEllipse
 62
7
  6
CONTINUOUS
 10
313.2379032258
 20
681.0692620478
 30
0.0
 11
0.0
 21
5.5724287509
 31
0.0
 40
0.9848857802
 41
5.6418497502
 42
6.9245208642
  0
ELLIPSE
  5
4C7
100
AcDbEntity
  8
7_ALL_FEATURES
100
AcDbEllipse
 62
7
  6
CONTINUOUS
 10
1063.2379032258
 20
585.0996079914
 30
0.0
 11
0.0
 21
5.5724287509
 31
0.0
 40
0.9848857802
 41
-3.7829282106
 42
-2.5002570966
  0
ELLIPSE
  5
4C8
100
AcDbEntity
  8
7_ALL_FEATURES
100
AcDbEllipse
 62
7
  6
CONTINUOUS
 10
813.2379032258
 20
585.0996079914
 30
0.0
 11
0.0
 21
5.5724287509
 31
0.0
 40
0.9848857802
 41
-3.7829282106
 42
-2.5002570966
  0
ELLIPSE
  5
4C9
100
AcDbEntity
  8
7_ALL_FEATURES
100
AcDbEllipse
 62
7
  6
CONTINUOUS
 10
563.2379032258
 20
585.0996079914
 30
0.0
 11
0.0
 21
5.5724287509
 31
0.0
 40
0.9848857802
 41
-3.7829282106
 42
-2.5002570966
  0
ELLIPSE
  5
4CA
100
AcDbEntity
  8
7_ALL_FEATURES
100
AcDbEllipse
 62
7
  6
CONTINUOUS
 10
313.2379032258
 20
585.0996079914
 30
0.0
 11
-0.0
 21
5.5724287509
 31
0.0
 40
0.9848857802
 41
-3.7829282106
 42
-2.5002570966
  0
ENDSEC
  0
SECTION
  2
OBJECTS
  0
DICTIONARY
  5
4CB
100
AcDbDictionary
  3
ACAD_GROUP
350
4CC
  3
ACAD_MLINESTYLE
350
4CD
  0
DICTIONARY
  5
4CC
102
{ACAD_REACTORS
330
4CB
102
}
100
AcDbDictionary
  0
DICTIONARY
  5
4CD
102
{ACAD_REACTORS
330
4CB
102
}
100
AcDbDictionary
  3
STANDARD
350
4CE
  0
MLINESTYLE
  5
4CE
102
{ACAD_REACTORS
330
4CD
102
}
100
AcDbMlineStyle
  2
STANDARD
 70
0
  3

 62
256
 51
90.0
 52
90.0
 71
2
 49
0.5
 62
256
  6
BYLAYER
 49
-0.5
 62
256
  6
BYLAYER
  0
ENDSEC
  0
EOF
