999
DXF file: 6f4_c_241.dxf
999
Pro/ENGINEER 2016360 by Parametric Technology Corporation
  0
SECTION
  2
HEADER
  9
$ACADVER
  1
AC1014
  9
$DWGCODEPAGE
  3
ANSI_1252
  9
$EXTMAX
 10
841.0
 20
594.0
 30
0.0
  9
$EXTMIN
 10
0.0
 20
0.0
 30
0.0
  9
$LIMMIN
 10
0.0
 20
0.0
  9
$LIMMAX
 10
841.0
 20
594.0
  9
$VIEWCTR
 10
420.5
 20
297.0
  9
$VIEWSIZE
 40
594.0
  9
$CLAYER
  8
0
  9
$LTSCALE
 40
46.255
  9
$CELTYPE
  6
BYLAYER
  9
$DIMSCALE
 40
1.0
  9
$DIMASZ
 40
2.5
  9
$DIMEXO
 40
0.75
  9
$DIMDLI
 40
31.958
  9
$DIMEXE
 40
0.75
  9
$DIMCEN
 40
7.569
  9
$DIMLFAC
 40
1.0
  9
$DIMBLK
  1
_CLOSED
  9
$DIMALT
 70
0
  9
$DIMALTF
 40
25.4
  9
$DIMTXT
 40
3.0
  9
$DIMTOL
 70
1
  9
$DIMLIM
 70
0
  9
$DIMTFAC
 40
1.0
  9
$DIMTP
 40
0.01
  9
$DIMTM
 40
0.01
  9
$DIMGAP
 40
0.625
  9
$AUNITS
 70
0
  9
$PDMODE
 70
3
  9
$PDSIZE
 40
0.3125
  9
$HANDSEED
  5
4AE
  9
$TILEMODE
 70
1
  9
$MEASUREMENT
 70
1
  0
ENDSEC
  0
SECTION
  2
CLASSES
  0
ENDSEC
  0
SECTION
  2
TABLES
  0
TABLE
  2
VPORT
  5
8
100
AcDbSymbolTable
 70
2
  0
VPORT
  5
1F4
100
AcDbSymbolTableRecord
100
AcDbViewportTableRecord
  2
*ACTIVE
 70
0
 10
0.0
 20
0.0
 11
1.0
 21
1.0
 12
420.5
 22
297.0
 13
0.0
 23
0.0
 14
1.0
 24
1.0
 15
0.0
 25
0.0
 16
0.0
 26
0.0
 36
1.0
 17
0.0
 27
0.0
 37
0.0
 40
594.0
 41
1.4158249158
 42
50.0
 43
0.0
 44
0.0
 50
0.0
 51
0.0
 71
0
 72
100
 73
1
 74
1
 75
0
 76
0
 77
0
 78
0
  0
ENDTAB
  0
TABLE
  2
LTYPE
  5
5
100
AcDbSymbolTable
 70
6
  0
LTYPE
  5
14
100
AcDbSymbolTableRecord
100
AcDbLinetypeTableRecord
  2
BYBLOCK
 70
0
  3

 72
65
 73
0
 40
0.0
  0
LTYPE
  5
15
100
AcDbSymbolTableRecord
100
AcDbLinetypeTableRecord
  2
BYLAYER
 70
0
  3

 72
65
 73
0
 40
0.0
  0
LTYPE
  5
16
100
AcDbSymbolTableRecord
100
AcDbLinetypeTableRecord
  2
CONTINUOUS
 70
64
  3
Solid line
 72
65
 73
0
 40
0.0
  0
LTYPE
  5
1F5
100
AcDbSymbolTableRecord
100
AcDbLinetypeTableRecord
  2
CENTER
 70
64
  3
____ _ ____ _ ____ _ ____ _ ____ _ ____ _ ____
 72
65
 73
4
 40
0.6
 49
0.375
 74
0
 49
-0.075
 74
0
 49
0.075
 74
0
 49
-0.075
 74
0
  0
LTYPE
  5
1F6
100
AcDbSymbolTableRecord
100
AcDbLinetypeTableRecord
  2
HIDDEN
 70
64
  3
- - - - - - - - - - - - - - - - - - - -
 72
65
 73
2
 40
0.2
 49
0.1
 74
0
 49
-0.1
 74
0
  0
LTYPE
  5
1F7
100
AcDbSymbolTableRecord
100
AcDbLinetypeTableRecord
  2
PHANTOM
 70
64
  3
_____ _ _ _____ _ _ _____ _ _ _____
 72
65
 73
6
 40
0.8
 49
0.45
 74
0
 49
-0.05
 74
0
 49
0.1
 74
0
 49
-0.05
 74
0
 49
0.1
 74
0
 49
-0.05
 74
0
  0
LTYPE
  5
1F8
100
AcDbSymbolTableRecord
100
AcDbLinetypeTableRecord
  2
DOT
 70
64
  3
. . . . . . . . . . . . . . . . . . . .
 72
65
 73
2
 40
0.2
 49
0.1
 74
0
 49
-0.1
 74
0
  0
LTYPE
  5
1F9
100
AcDbSymbolTableRecord
100
AcDbLinetypeTableRecord
  2
DASHED
 70
64
  3
- - - - - - - - - - - - - - - - - - - -
 72
65
 73
2
 40
0.2
 49
0.1
 74
0
 49
-0.1
 74
0
  0
ENDTAB
  0
TABLE
  2
LAYER
  5
2
100
AcDbSymbolTable
 70
36
  0
LAYER
  5
10
100
AcDbSymbolTableRecord
100
AcDbLayerTableRecord
  2
0
 70
0
 62
7
  6
CONTINUOUS
  0
LAYER
  5
1FA
100
AcDbSymbolTableRecord
100
AcDbLayerTableRecord
  2
DEFAULT_1
 70
0
 62
7
  6
CENTER
  0
LAYER
  5
1FB
100
AcDbSymbolTableRecord
100
AcDbLayerTableRecord
  2
DEFAULT_2
 70
0
 62
8
  6
HIDDEN
  0
LAYER
  5
1FC
100
AcDbSymbolTableRecord
100
AcDbLayerTableRecord
  2
DEFAULT_3
 70
0
 62
7
  6
PHANTOM
  0
LAYER
  5
1FD
100
AcDbSymbolTableRecord
100
AcDbLayerTableRecord
  2
1_ALL_PLANES
 70
0
 62
7
  6
CONTINUOUS
  0
LAYER
  5
1FE
100
AcDbSymbolTableRecord
100
AcDbLayerTableRecord
  2
2_ALL_CSYS
 70
0
 62
7
  6
CONTINUOUS
  0
LAYER
  5
1FF
100
AcDbSymbolTableRecord
100
AcDbLayerTableRecord
  2
3_ALL_AXES
 70
0
 62
7
  6
CONTINUOUS
  0
LAYER
  5
200
100
AcDbSymbolTableRecord
100
AcDbLayerTableRecord
  2
4_ALL_POINTS
 70
0
 62
7
  6
CONTINUOUS
  0
LAYER
  5
201
100
AcDbSymbolTableRecord
100
AcDbLayerTableRecord
  2
5_ALL_CURVES
 70
0
 62
7
  6
CONTINUOUS
  0
LAYER
  5
202
100
AcDbSymbolTableRecord
100
AcDbLayerTableRecord
  2
5__COSTRUZIONE
 70
0
 62
7
  6
CONTINUOUS
  0
LAYER
  5
203
100
AcDbSymbolTableRecord
100
AcDbLayerTableRecord
  2
6_ALL_SURFS
 70
0
 62
7
  6
CONTINUOUS
  0
LAYER
  5
204
100
AcDbSymbolTableRecord
100
AcDbLayerTableRecord
  2
7_ALL_FEATURES
 70
0
 62
7
  6
CONTINUOUS
  0
LAYER
  5
205
100
AcDbSymbolTableRecord
100
AcDbLayerTableRecord
  2
9_SOLID
 70
0
 62
7
  6
CONTINUOUS
  0
LAYER
  5
206
100
AcDbSymbolTableRecord
100
AcDbLayerTableRecord
  2
PR9037
 70
0
 62
7
  6
CONTINUOUS
  0
LAYER
  5
207
100
AcDbSymbolTableRecord
100
AcDbLayerTableRecord
  2
WHITE
 70
0
 62
7
  6
CONTINUOUS
  0
LAYER
  5
208
100
AcDbSymbolTableRecord
100
AcDbLayerTableRecord
  2
XXX_SOLIDO
 70
0
 62
7
  6
CONTINUOUS
  0
ENDTAB
  0
TABLE
  2
STYLE
  5
3
100
AcDbSymbolTable
 70
1
  0
STYLE
  5
11
100
AcDbSymbolTableRecord
100
AcDbTextStyleTableRecord
  2
STANDARD
 70
0
 40
0.0
 41
1.0
 50
0.0
 71
0
 42
0.2
  3
arial.ttf
  4

  0
STYLE
  5
209
100
AcDbSymbolTableRecord
100
AcDbTextStyleTableRecord
  2
TEXTSTYLE_1
 70
0
 40
0.0
 41
0.8
 50
0.0
 71
0
 42
0.2
  3
gdt
  4

  0
STYLE
  5
20A
100
AcDbSymbolTableRecord
100
AcDbTextStyleTableRecord
  2
TEXTSTYLE_2
 70
0
 40
0.0
 41
0.85
 50
0.0
 71
0
 42
0.2
  3
txt
  4

  0
ENDTAB
  0
TABLE
  2
VIEW
  5
6
100
AcDbSymbolTable
 70
0
  0
ENDTAB
  0
TABLE
  2
UCS
  5
7
100
AcDbSymbolTable
 70
0
  0
ENDTAB
  0
TABLE
  2
APPID
  5
9
100
AcDbSymbolTable
 70
1
  0
APPID
  5
20B
100
AcDbSymbolTableRecord
100
AcDbRegAppTableRecord
  2
ACAD
 70
0
  0
ENDTAB
  0
TABLE
  2
BLOCK_RECORD
  5
1
100
AcDbSymbolTable
 70
0
  0
BLOCK_RECORD
  5
1F
100
AcDbSymbolTableRecord
100
AcDbBlockTableRecord
  2
*MODEL_SPACE
  0
BLOCK_RECORD
  5
1B
100
AcDbSymbolTableRecord
100
AcDbBlockTableRecord
  2
*PAPER_SPACE
  0
BLOCK_RECORD
  5
20C
100
AcDbSymbolTableRecord
100
AcDbBlockTableRecord
  2
_CLOSED
  0
BLOCK_RECORD
  5
20D
100
AcDbSymbolTableRecord
100
AcDbBlockTableRecord
  2
*D0
  0
BLOCK_RECORD
  5
20E
100
AcDbSymbolTableRecord
100
AcDbBlockTableRecord
  2
*D1
  0
BLOCK_RECORD
  5
20F
100
AcDbSymbolTableRecord
100
AcDbBlockTableRecord
  2
*D2
  0
BLOCK_RECORD
  5
210
100
AcDbSymbolTableRecord
100
AcDbBlockTableRecord
  2
*D3
  0
BLOCK_RECORD
  5
211
100
AcDbSymbolTableRecord
100
AcDbBlockTableRecord
  2
LOGO2_BL0
  0
ENDTAB
  0
TABLE
  2
DIMSTYLE
  5
A
100
AcDbSymbolTable
 70
1
  0
DIMSTYLE
105
212
100
AcDbSymbolTableRecord
100
AcDbDimStyleTableRecord
  2
STANDARD
 70
0
  3

  4

  5
_CLOSED
  6
_CLOSED
  7
_CLOSED
 40
1.0
 41
2.5
 42
0.75
 43
0.38
 44
0.75
 45
0.0
 46
0.0
 47
0.01
 48
0.01
140
3.0
141
0.09
142
0.0
143
25.4
144
1.0
145
0.0
146
1.0
147
0.625
 71
1.0
 72
0.0
 73
0
 74
0
 75
0
 76
0
 77
1
 78
8
 79
2
170
0
171
1
172
0
173
0
174
0
175
0
176
0
177
0
178
0
270
2
179
2
271
2
272
2
273
2
274
2
275
0
280
0
281
0
282
0
283
1
284
8
285
0
286
0
287
3
288
0
340
11
  0
DIMSTYLE
105
213
100
AcDbSymbolTableRecord
100
AcDbDimStyleTableRecord
  2
DIMSTYLE_1
 70
0
  3

  4

  5
_CLOSED
  6
_CLOSED
  7
_CLOSED
 40
1.0
 41
2.5
 42
0.75
 43
0.38
 44
0.75
 45
0.0
 46
0.0
 47
0.3
 48
0.3
140
8.0
141
0.09
142
0.0
143
25.4
144
1.0
145
0.0
146
1.0
147
2.0
 71
0.0
 72
0.0
 73
0
 74
0
 75
0
 76
0
 77
1
 78
8
 79
2
170
0
171
1
172
0
173
0
174
0
175
0
176
0
177
0
178
0
270
2
179
2
271
2
272
2
273
2
274
2
275
0
280
0
281
0
282
0
283
1
284
8
285
0
286
0
287
3
288
0
340
11
  0
DIMSTYLE
105
214
100
AcDbSymbolTableRecord
100
AcDbDimStyleTableRecord
  2
DIMSTYLE_2
 70
0
  3

  4

  5
_CLOSED
  6
_CLOSED
  7
_CLOSED
 40
1.0
 41
2.5
 42
0.75
 43
0.38
 44
0.75
 45
0.0
 46
0.0
 47
0.8
 48
0.8
140
8.0
141
0.09
142
0.0
143
25.4
144
1.0
145
0.0
146
1.0
147
2.0
 71
0.0
 72
0.0
 73
0
 74
0
 75
0
 76
0
 77
1
 78
8
 79
2
170
0
171
1
172
0
173
0
174
0
175
0
176
0
177
0
178
0
270
2
179
2
271
2
272
2
273
2
274
2
275
0
280
0
281
0
282
0
283
1
284
8
285
0
286
0
287
3
288
0
340
11
  0
ENDTAB
  0
ENDSEC
  0
SECTION
  2
BLOCKS
  0
BLOCK
  5
20
100
AcDbEntity
  8
0
100
AcDbBlockBegin
  2
*MODEL_SPACE
 70
0
 10
0.0
 20
0.0
 30
0.0
  3
*MODEL_SPACE
  1

  0
ENDBLK
  5
21
100
AcDbEntity
  8
0
100
AcDbBlockEnd
  0
BLOCK
  5
1C
100
AcDbEntity
  8
0
100
AcDbBlockBegin
  2
*PAPER_SPACE
 70
0
 10
0.0
 20
0.0
 30
0.0
  3
*PAPER_SPACE
  1

  0
ENDBLK
  5
1D
100
AcDbEntity
  8
0
100
AcDbBlockEnd
  0
BLOCK
  5
215
100
AcDbEntity
  8
0
100
AcDbBlockBegin
 62
2
  6
CONTINUOUS
  2
LOGO2_BL0
 70
64
 10
754.8956694115
 20
36.581561713
  3
LOGO2_BL0
  1

  0
LINE
  5
216
100
AcDbEntity
  8
0
100
AcDbLine
 62
7
  6
CONTINUOUS
 10
746.6385946397
 20
39.7770530518
 11
745.3342537104
 21
39.7770530518
  0
LINE
  5
217
100
AcDbEntity
  8
0
100
AcDbLine
 62
7
  6
CONTINUOUS
 10
745.3342537104
 20
39.7770530518
 11
745.3342537104
 21
29.317986992
  0
LINE
  5
218
100
AcDbEntity
  8
0
100
AcDbLine
 62
7
  6
CONTINUOUS
 10
745.3342537104
 20
29.317986992
 11
749.8153085986
 21
29.317986992
  0
LINE
  5
219
100
AcDbEntity
  8
0
100
AcDbLine
 62
7
  6
CONTINUOUS
 10
749.8153085986
 20
29.317986992
 11
749.8153085986
 21
30.510841317
  0
LINE
  5
21A
100
AcDbEntity
  8
0
100
AcDbLine
 62
7
  6
CONTINUOUS
 10
749.8153085986
 20
30.510841317
 11
746.6385946397
 21
30.510841317
  0
LINE
  5
21B
100
AcDbEntity
  8
0
100
AcDbLine
 62
7
  6
CONTINUOUS
 10
746.6385946397
 20
30.510841317
 11
746.6385946397
 21
39.7770530518
  0
LINE
  5
21C
100
AcDbEntity
  8
0
100
AcDbLine
 62
7
  6
CONTINUOUS
 10
761.574920856
 20
39.7770530518
 11
760.2711033379
 21
39.7770530518
  0
LINE
  5
21D
100
AcDbEntity
  8
0
100
AcDbLine
 62
7
  6
CONTINUOUS
 10
760.2711033379
 20
39.7770530518
 11
760.2711033379
 21
29.317986992
  0
LINE
  5
21E
100
AcDbEntity
  8
0
100
AcDbLine
 62
7
  6
CONTINUOUS
 10
760.2711033379
 20
29.317986992
 11
764.752289079
 21
29.317986992
  0
LINE
  5
21F
100
AcDbEntity
  8
0
100
AcDbLine
 62
7
  6
CONTINUOUS
 10
764.752289079
 20
29.317986992
 11
764.752289079
 21
30.510841317
  0
LINE
  5
220
100
AcDbEntity
  8
0
100
AcDbLine
 62
7
  6
CONTINUOUS
 10
764.752289079
 20
30.510841317
 11
761.574920856
 21
30.510841317
  0
LINE
  5
221
100
AcDbEntity
  8
0
100
AcDbLine
 62
7
  6
CONTINUOUS
 10
761.574920856
 20
30.510841317
 11
761.574920856
 21
39.7770530518
  0
LWPOLYLINE
  5
222
100
AcDbEntity
  8
0
100
AcDbPolyline
 62
7
  6
CONTINUOUS
 90
2
 70
0
 43
0.2
 10
743.6886486213
 20
25.974435685
 10
743.6886486213
 20
24.1173724357
  0
LWPOLYLINE
  5
223
100
AcDbEntity
  8
0
100
AcDbPolyline
 62
7
  6
CONTINUOUS
 90
2
 70
0
 43
0.2
 10
743.6886486213
 20
24.1173724357
 10
744.4843646317
 20
24.1173724357
  0
LWPOLYLINE
  5
224
100
AcDbEntity
  8
0
100
AcDbPolyline
 62
7
  6
CONTINUOUS
 90
2
 70
0
 43
0.2
 10
744.4843646317
 20
24.1173724357
 10
744.4843646317
 20
24.3293540073
  0
LWPOLYLINE
  5
225
100
AcDbEntity
  8
0
100
AcDbPolyline
 62
7
  6
CONTINUOUS
 90
2
 70
0
 43
0.2
 10
744.4843646317
 20
24.3293540073
 10
743.9202581162
 20
24.3293540073
  0
LWPOLYLINE
  5
226
100
AcDbEntity
  8
0
100
AcDbPolyline
 62
7
  6
CONTINUOUS
 90
2
 70
0
 43
0.2
 10
743.9202581162
 20
24.3293540073
 10
743.9202581162
 20
25.974435685
  0
LWPOLYLINE
  5
227
100
AcDbEntity
  8
0
100
AcDbPolyline
 62
7
  6
CONTINUOUS
 90
2
 70
0
 43
0.2
 10
743.9202581162
 20
25.974435685
 10
743.6886486213
 20
25.974435685
  0
SPLINE
  5
228
100
AcDbEntity
  8
0
100
AcDbSpline
 62
7
  6
CONTINUOUS
 70
2
 71
3
 72
35
 73
31
 74
0
 42
0.0000001
 43
0.0000001
 44
0.0000000001
 40
0.0
 40
0.0
 40
0.0
 40
0.0
 40
1.0
 40
1.0
 40
1.0
 40
2.0
 40
2.0
 40
2.0
 40
3.0
 40
3.0
 40
3.0
 40
4.0
 40
4.0
 40
4.0
 40
5.0
 40
5.0
 40
5.0
 40
6.0
 40
6.0
 40
6.0
 40
7.0
 40
7.0
 40
7.0
 40
8.0
 40
8.0
 40
8.0
 40
9.0
 40
9.0
 40
9.0
 40
10.0
 40
10.0
 40
10.0
 40
10.0
 10
745.8826578872
 20
25.2699240916
 30
0.0
 10
745.8826578872
 20
25.2699240916
 30
0.0
 10
745.8826578872
 20
24.6078088124
 30
0.0
 10
745.8826578872
 20
24.6078088124
 30
0.0
 10
745.8826578872
 20
24.2927152171
 30
0.0
 10
746.030521576
 20
24.0781165891
 30
0.0
 10
746.3706080603
 20
24.0781165891
 30
0.0
 10
746.7101711333
 20
24.0781165891
 30
0.0
 10
746.8582965278
 20
24.2927152171
 30
0.0
 10
746.8582965278
 20
24.6078088124
 30
0.0
 10
746.8582965278
 20
24.6078088124
 30
0.0
 10
746.8582965278
 20
25.2699240916
 30
0.0
 10
746.8582965278
 20
25.2699240916
 30
0.0
 10
746.8582965278
 20
25.2699240916
 30
0.0
 10
746.6362392889
 20
25.2699240916
 30
0.0
 10
746.6362392889
 20
25.2699240916
 30
0.0
 10
746.6362392889
 20
25.2699240916
 30
0.0
 10
746.6362392889
 20
24.6329325542
 30
0.0
 10
746.6362392889
 20
24.6329325542
 30
0.0
 10
746.6362392889
 20
24.447121547
 30
0.0
 10
746.5895248315
 20
24.2843406365
 30
0.0
 10
746.3706080603
 20
24.2843406365
 30
0.0
 10
746.1511678779
 20
24.2843406365
 30
0.0
 10
746.1044534205
 20
24.447121547
 30
0.0
 10
746.1044534205
 20
24.6329325542
 30
0.0
 10
746.1044534205
 20
24.6329325542
 30
0.0
 10
746.1044534205
 20
25.2699240916
 30
0.0
 10
746.1044534205
 20
25.2699240916
 30
0.0
 10
746.1044534205
 20
25.2699240916
 30
0.0
 10
745.8826578872
 20
25.2699240916
 30
0.0
 10
745.8826578872
 20
25.2699240916
 30
0.0
  0
SPLINE
  5
229
100
AcDbEntity
  8
0
100
AcDbSpline
 62
7
  6
CONTINUOUS
 70
2
 71
3
 72
35
 73
31
 74
0
 42
0.0000001
 43
0.0000001
 44
0.0000000001
 40
0.0
 40
0.0
 40
0.0
 40
0.0
 40
1.0
 40
1.0
 40
1.0
 40
2.0
 40
2.0
 40
2.0
 40
3.0
 40
3.0
 40
3.0
 40
4.0
 40
4.0
 40
4.0
 40
5.0
 40
5.0
 40
5.0
 40
6.0
 40
6.0
 40
6.0
 40
7.0
 40
7.0
 40
7.0
 40
8.0
 40
8.0
 40
8.0
 40
9.0
 40
9.0
 40
9.0
 40
10.0
 40
10.0
 40
10.0
 40
10.0
 10
749.281429085
 20
25.2285745998
 30
0.0
 10
749.1929725774
 20
25.279868906
 30
0.0
 10
749.0795231807
 20
25.3049926479
 30
0.0
 10
748.9758877457
 20
25.3049926479
 30
0.0
 10
748.6210148925
 20
25.3049926479
 30
0.0
 10
748.3455697023
 20
25.0411933588
 30
0.0
 10
748.3455697023
 20
24.6837034492
 30
0.0
 10
748.3455697023
 20
24.3387754104
 30
0.0
 10
748.6240245074
 20
24.0786400004
 30
0.0
 10
748.9635875804
 20
24.0786400004
 30
0.0
 10
749.0795231807
 20
24.0786400004
 30
0.0
 10
749.1802798536
 20
24.1006232745
 30
0.0
 10
749.281429085
 20
24.1545346371
 30
0.0
 10
749.281429085
 20
24.1545346371
 30
0.0
 10
749.281429085
 20
24.4371767326
 30
0.0
 10
749.281429085
 20
24.4371767326
 30
0.0
 10
749.1975524261
 20
24.3440095233
 30
0.0
 10
749.0940478439
 20
24.2848640478
 30
0.0
 10
748.9659429312
 20
24.2848640478
 30
0.0
 10
748.7322397912
 20
24.2848640478
 30
0.0
 10
748.5669726771
 20
24.4570663615
 30
0.0
 10
748.5669726771
 20
24.6936482636
 30
0.0
 10
748.5669726771
 20
24.9056298352
 30
0.0
 10
748.7347259948
 20
25.0977217779
 30
0.0
 10
748.9515491208
 20
25.0977217779
 30
0.0
 10
749.0843647351
 20
25.0977217779
 30
0.0
 10
749.1929725774
 20
25.0438104152
 30
0.0
 10
749.281429085
 20
24.9427920367
 30
0.0
 10
749.281429085
 20
24.9427920367
 30
0.0
 10
749.281429085
 20
25.2285745998
 30
0.0
 10
749.281429085
 20
25.2285745998
 30
0.0
  0
SPLINE
  5
22A
100
AcDbEntity
  8
0
100
AcDbSpline
 62
7
  6
CONTINUOUS
 70
2
 71
3
 72
32
 73
28
 74
0
 42
0.0000001
 43
0.0000001
 44
0.0000000001
 40
0.0
 40
0.0
 40
0.0
 40
0.0
 40
1.0
 40
1.0
 40
1.0
 40
2.0
 40
2.0
 40
2.0
 40
3.0
 40
3.0
 40
3.0
 40
4.0
 40
4.0
 40
4.0
 40
5.0
 40
5.0
 40
5.0
 40
6.0
 40
6.0
 40
6.0
 40
7.0
 40
7.0
 40
7.0
 40
8.0
 40
8.0
 40
8.0
 40
9.0
 40
9.0
 40
9.0
 40
9.0
 10
751.8133003373
 20
24.6570094735
 30
0.0
 10
751.8133003373
 20
24.6570094735
 30
0.0
 10
751.8133003373
 20
24.6910312072
 30
0.0
 10
751.8133003373
 20
24.6910312072
 30
0.0
 10
751.8133003373
 20
25.0333421895
 30
0.0
 10
751.6404437594
 20
25.3049926479
 30
0.0
 10
751.2737941523
 20
25.3049926479
 30
0.0
 10
750.9021721379
 20
25.3049926479
 30
0.0
 10
750.712435546
 20
25.0385763023
 30
0.0
 10
750.712435546
 20
24.6837034492
 30
0.0
 10
750.712435546
 20
24.3440095233
 30
0.0
 10
750.9265107628
 20
24.0781165891
 30
0.0
 10
751.2786357067
 20
24.0781165891
 30
0.0
 10
751.5026557379
 20
24.0781165891
 30
0.0
 10
751.7048233478
 20
24.1937904837
 30
0.0
 10
751.8133003373
 20
24.3932101844
 30
0.0
 10
751.8133003373
 20
24.3932101844
 30
0.0
 10
751.6256573906
 20
24.4999860871
 30
0.0
 10
751.6256573906
 20
24.4999860871
 30
0.0
 10
751.5421732901
 20
24.3612820958
 30
0.0
 10
751.4509688732
 20
24.2754426446
 30
0.0
 10
751.281383616
 20
24.2754426446
 30
0.0
 10
751.0694020444
 20
24.2754426446
 30
0.0
 10
750.9364555773
 20
24.4602068292
 30
0.0
 10
750.9341002265
 20
24.6570094735
 30
0.0
 10
750.9341002265
 20
24.6570094735
 30
0.0
 10
751.8133003373
 20
24.6570094735
 30
0.0
 10
751.8133003373
 20
24.6570094735
 30
0.0
  0
SPLINE
  5
22B
100
AcDbEntity
  8
0
100
AcDbSpline
 62
7
  6
CONTINUOUS
 70
2
 71
3
 72
14
 73
10
 74
0
 42
0.0000001
 43
0.0000001
 44
0.0000000001
 40
0.0
 40
0.0
 40
0.0
 40
0.0
 40
1.0
 40
1.0
 40
1.0
 40
2.0
 40
2.0
 40
2.0
 40
3.0
 40
3.0
 40
3.0
 40
3.0
 10
750.9461386861
 20
24.8245010856
 30
0.0
 10
750.9737486315
 20
24.9893756413
 30
0.0
 10
751.1015918386
 20
25.1123772939
 30
0.0
 10
751.2737941523
 20
25.1123772939
 30
0.0
 10
751.4509688732
 20
25.1123772939
 30
0.0
 10
751.5644182699
 20
24.9967033993
 30
0.0
 10
751.5916356568
 20
24.8245010856
 30
0.0
 10
751.5916356568
 20
24.8245010856
 30
0.0
 10
750.9461386861
 20
24.8245010856
 30
0.0
 10
750.9461386861
 20
24.8245010856
 30
0.0
  0
SPLINE
  5
22C
100
AcDbEntity
  8
0
100
AcDbSpline
 62
7
  6
CONTINUOUS
 70
2
 71
3
 72
20
 73
16
 74
0
 42
0.0000001
 43
0.0000001
 44
0.0000000001
 40
0.0
 40
0.0
 40
0.0
 40
0.0
 40
1.0
 40
1.0
 40
1.0
 40
2.0
 40
2.0
 40
2.0
 40
3.0
 40
3.0
 40
3.0
 40
4.0
 40
4.0
 40
4.0
 40
5.0
 40
5.0
 40
5.0
 40
5.0
 10
753.8373317875
 20
25.0338656007
 30
0.0
 10
753.8373317875
 20
25.0338656007
 30
0.0
 10
754.2484713541
 20
24.5313907644
 30
0.0
 10
754.2484713541
 20
24.5313907644
 30
0.0
 10
754.132404901
 20
24.4157168698
 30
0.0
 10
753.9946168795
 20
24.2853874591
 30
0.0
 10
753.8226762714
 20
24.2853874591
 30
0.0
 10
753.6452398448
 20
24.2853874591
 30
0.0
 10
753.4777482327
 20
24.4497386035
 30
0.0
 10
753.4777482327
 20
24.6266516188
 30
0.0
 10
753.4777482327
 20
24.8046114567
 30
0.0
 10
753.6875053063
 20
24.930753577
 30
0.0
 10
753.8150868077
 20
25.0186866734
 30
0.0
 10
753.8150868077
 20
25.0186866734
 30
0.0
 10
753.8373317875
 20
25.0338656007
 30
0.0
 10
753.8373317875
 20
25.0338656007
 30
0.0
  0
SPLINE
  5
22D
100
AcDbEntity
  8
0
100
AcDbSpline
 62
7
  6
CONTINUOUS
 70
2
 71
3
 72
23
 73
19
 74
0
 42
0.0000001
 43
0.0000001
 44
0.0000000001
 40
0.0
 40
0.0
 40
0.0
 40
0.0
 40
1.0
 40
1.0
 40
1.0
 40
2.0
 40
2.0
 40
2.0
 40
3.0
 40
3.0
 40
3.0
 40
4.0
 40
4.0
 40
4.0
 40
5.0
 40
5.0
 40
5.0
 40
6.0
 40
6.0
 40
6.0
 40
6.0
 10
753.8866633013
 20
25.3248822768
 30
0.0
 10
753.8866633013
 20
25.3248822768
 30
0.0
 10
753.8250316222
 20
25.40339397
 30
0.0
 10
753.8250316222
 20
25.40339397
 30
0.0
 10
753.7711202595
 20
25.4719608487
 30
0.0
 10
753.7143301348
 20
25.5410511387
 30
0.0
 10
753.7143301348
 20
25.6347417592
 30
0.0
 10
753.7143301348
 20
25.7535561216
 30
0.0
 10
753.8102452533
 20
25.8310209922
 30
0.0
 10
753.9212084463
 20
25.8310209922
 30
0.0
 10
754.0444718046
 20
25.8310209922
 30
0.0
 10
754.1377698667
 20
25.759837057
 30
0.0
 10
754.1377698667
 20
25.6295076463
 30
0.0
 10
754.1377698667
 20
25.4944675341
 30
0.0
 10
754.009664954
 20
25.418049486
 30
0.0
 10
753.9161051863
 20
25.3442484944
 30
0.0
 10
753.9161051863
 20
25.3442484944
 30
0.0
 10
753.8866633013
 20
25.3248822768
 30
0.0
 10
753.8866633013
 20
25.3248822768
 30
0.0
  0
SPLINE
  5
22E
100
AcDbEntity
  8
0
100
AcDbSpline
 62
7
  6
CONTINUOUS
 70
2
 71
3
 72
50
 73
46
 74
0
 42
0.0000001
 43
0.0000001
 44
0.0000000001
 40
0.0
 40
0.0
 40
0.0
 40
0.0
 40
1.0
 40
1.0
 40
1.0
 40
2.0
 40
2.0
 40
2.0
 40
3.0
 40
3.0
 40
3.0
 40
4.0
 40
4.0
 40
4.0
 40
5.0
 40
5.0
 40
5.0
 40
6.0
 40
6.0
 40
6.0
 40
7.0
 40
7.0
 40
7.0
 40
8.0
 40
8.0
 40
8.0
 40
9.0
 40
9.0
 40
9.0
 40
10.0
 40
10.0
 40
10.0
 40
11.0
 40
11.0
 40
11.0
 40
12.0
 40
12.0
 40
12.0
 40
13.0
 40
13.0
 40
13.0
 40
14.0
 40
14.0
 40
14.0
 40
15.0
 40
15.0
 40
15.0
 40
15.0
 10
754.588819544
 20
24.117895847
 30
0.0
 10
754.588819544
 20
24.117895847
 30
0.0
 10
754.8742095487
 20
24.117895847
 30
0.0
 10
754.8742095487
 20
24.117895847
 30
0.0
 10
754.8742095487
 20
24.117895847
 30
0.0
 10
754.5418433809
 20
24.5287737079
 30
0.0
 10
754.5418433809
 20
24.5287737079
 30
0.0
 10
754.5418433809
 20
24.5287737079
 30
0.0
 10
754.7683496157
 20
24.7946666422
 30
0.0
 10
754.7683496157
 20
24.7946666422
 30
0.0
 10
754.7683496157
 20
24.7946666422
 30
0.0
 10
754.6200933685
 20
24.9475027382
 30
0.0
 10
754.6200933685
 20
24.9475027382
 30
0.0
 10
754.6200933685
 20
24.9475027382
 30
0.0
 10
754.4041862122
 20
24.6962653201
 30
0.0
 10
754.4041862122
 20
24.6962653201
 30
0.0
 10
754.4041862122
 20
24.6962653201
 30
0.0
 10
754.0171235648
 20
25.1641950114
 30
0.0
 10
754.0171235648
 20
25.1641950114
 30
0.0
 10
754.1725767173
 20
25.2782986722
 30
0.0
 10
754.3548546983
 20
25.418049486
 30
0.0
 10
754.3548546983
 20
25.6274140012
 30
0.0
 10
754.3548546983
 20
25.8713236613
 30
0.0
 10
754.1528179412
 20
26.0147383542
 30
0.0
 10
753.9263117064
 20
26.0147383542
 30
0.0
 10
753.6821403406
 20
26.0147383542
 30
0.0
 10
753.4977687144
 20
25.8639959033
 30
0.0
 10
753.4977687144
 20
25.6075243722
 30
0.0
 10
753.4977687144
 20
25.4499775746
 30
0.0
 10
753.5964317422
 20
25.3123204059
 30
0.0
 10
753.7017682639
 20
25.2013572129
 30
0.0
 10
753.7017682639
 20
25.2013572129
 30
0.0
 10
753.5862252221
 20
25.1176114068
 30
0.0
 10
753.5862252221
 20
25.1176114068
 30
0.0
 10
753.4085270899
 20
24.9893756413
 30
0.0
 10
753.2611868123
 20
24.861663287
 30
0.0
 10
753.2611868123
 20
24.6245579736
 30
0.0
 10
753.2611868123
 20
24.3042302655
 30
0.0
 10
753.5197519885
 20
24.0781165891
 30
0.0
 10
753.8301348822
 20
24.0781165891
 30
0.0
 10
754.0490516534
 20
24.0781165891
 30
0.0
 10
754.2462468561
 20
24.2032118869
 30
0.0
 10
754.3865210812
 20
24.3691332651
 30
0.0
 10
754.3865210812
 20
24.3691332651
 30
0.0
 10
754.588819544
 20
24.117895847
 30
0.0
 10
754.588819544
 20
24.117895847
 30
0.0
  0
LWPOLYLINE
  5
22F
100
AcDbEntity
  8
0
100
AcDbPolyline
 62
7
  6
CONTINUOUS
 90
2
 70
0
 43
0.2
 10
756.5242636337
 20
25.974435685
 10
756.2929158445
 20
25.974435685
  0
LWPOLYLINE
  5
230
100
AcDbEntity
  8
0
100
AcDbPolyline
 62
7
  6
CONTINUOUS
 90
2
 70
0
 43
0.2
 10
756.2929158445
 20
25.974435685
 10
756.2929158445
 20
24.1173724357
  0
LWPOLYLINE
  5
231
100
AcDbEntity
  8
0
100
AcDbPolyline
 62
7
  6
CONTINUOUS
 90
2
 70
0
 43
0.2
 10
756.2929158445
 20
24.1173724357
 10
757.0882392964
 20
24.1173724357
  0
LWPOLYLINE
  5
232
100
AcDbEntity
  8
0
100
AcDbPolyline
 62
7
  6
CONTINUOUS
 90
2
 70
0
 43
0.2
 10
757.0882392964
 20
24.1173724357
 10
757.0882392964
 20
24.3293540073
  0
LWPOLYLINE
  5
233
100
AcDbEntity
  8
0
100
AcDbPolyline
 62
7
  6
CONTINUOUS
 90
2
 70
0
 43
0.2
 10
757.0882392964
 20
24.3293540073
 10
756.5242636337
 20
24.3293540073
  0
LWPOLYLINE
  5
234
100
AcDbEntity
  8
0
100
AcDbPolyline
 62
7
  6
CONTINUOUS
 90
2
 70
0
 43
0.2
 10
756.5242636337
 20
24.3293540073
 10
756.5242636337
 20
25.974435685
  0
LWPOLYLINE
  5
235
100
AcDbEntity
  8
0
100
AcDbPolyline
 62
7
  6
CONTINUOUS
 90
2
 70
0
 43
0.2
 10
758.7673427079
 20
25.2699240916
 10
758.5462014388
 20
25.2699240916
  0
LWPOLYLINE
  5
236
100
AcDbEntity
  8
0
100
AcDbPolyline
 62
7
  6
CONTINUOUS
 90
2
 70
0
 43
0.2
 10
758.5462014388
 20
25.2699240916
 10
758.5462014388
 20
24.117895847
  0
LWPOLYLINE
  5
237
100
AcDbEntity
  8
0
100
AcDbPolyline
 62
7
  6
CONTINUOUS
 90
2
 70
0
 43
0.2
 10
758.5462014388
 20
24.117895847
 10
758.7673427079
 20
24.117895847
  0
LWPOLYLINE
  5
238
100
AcDbEntity
  8
0
100
AcDbPolyline
 62
7
  6
CONTINUOUS
 90
2
 70
0
 43
0.2
 10
758.7673427079
 20
24.117895847
 10
758.7673427079
 20
25.2699240916
  0
LWPOLYLINE
  5
239
100
AcDbEntity
  8
0
100
AcDbPolyline
 62
7
  6
CONTINUOUS
 90
2
 70
1
 43
0.2
 10
758.5043194307
 20
25.7998780205
 42
1.0
 10
758.8094864216
 20
25.7998780205
 42
1.0
  0
SPLINE
  5
23A
100
AcDbEntity
  8
0
100
AcDbSpline
 62
7
  6
CONTINUOUS
 70
2
 71
3
 72
17
 73
13
 74
0
 42
0.0000001
 43
0.0000001
 44
0.0000000001
 40
0.0
 40
0.0
 40
0.0
 40
0.0
 40
1.0
 40
1.0
 40
1.0
 40
2.0
 40
2.0
 40
2.0
 40
3.0
 40
3.0
 40
3.0
 40
4.0
 40
4.0
 40
4.0
 40
4.0
 10
760.8976266495
 20
24.2754426446
 30
0.0
 10
760.6636618039
 20
24.2754426446
 30
0.0
 10
760.5333323932
 20
24.4774794017
 30
0.0
 10
760.5333323932
 20
24.6936482636
 30
0.0
 10
760.5333323932
 20
24.9082468917
 30
0.0
 10
760.6691576224
 20
25.107143181
 30
0.0
 10
760.8976266495
 20
25.107143181
 30
0.0
 10
761.1370873137
 20
25.107143181
 30
0.0
 10
761.2726508373
 20
24.9181917061
 30
0.0
 10
761.2726508373
 20
24.6936482636
 30
0.0
 10
761.2726508373
 20
24.4675345873
 30
0.0
 10
761.1394426645
 20
24.2754426446
 30
0.0
 10
760.8976266495
 20
24.2754426446
 30
0.0
  0
SPLINE
  5
23B
100
AcDbEntity
  8
0
100
AcDbSpline
 62
7
  6
CONTINUOUS
 70
2
 71
3
 72
50
 73
46
 74
0
 42
0.0000001
 43
0.0000001
 44
0.0000000001
 40
0.0
 40
0.0
 40
0.0
 40
0.0
 40
1.0
 40
1.0
 40
1.0
 40
2.0
 40
2.0
 40
2.0
 40
3.0
 40
3.0
 40
3.0
 40
4.0
 40
4.0
 40
4.0
 40
5.0
 40
5.0
 40
5.0
 40
6.0
 40
6.0
 40
6.0
 40
7.0
 40
7.0
 40
7.0
 40
8.0
 40
8.0
 40
8.0
 40
9.0
 40
9.0
 40
9.0
 40
10.0
 40
10.0
 40
10.0
 40
11.0
 40
11.0
 40
11.0
 40
12.0
 40
12.0
 40
12.0
 40
13.0
 40
13.0
 40
13.0
 40
14.0
 40
14.0
 40
14.0
 40
15.0
 40
15.0
 40
15.0
 40
15.0
 10
761.4817536468
 20
25.2704475029
 30
0.0
 10
761.4817536468
 20
25.2704475029
 30
0.0
 10
761.2600889664
 20
25.2704475029
 30
0.0
 10
761.2600889664
 20
25.2704475029
 30
0.0
 10
761.2600889664
 20
25.2704475029
 30
0.0
 10
761.2600889664
 20
25.0731214473
 30
0.0
 10
761.2600889664
 20
25.0731214473
 30
0.0
 10
761.2600889664
 20
25.0731214473
 30
0.0
 10
761.2553782648
 20
25.0731214473
 30
0.0
 10
761.2553782648
 20
25.0731214473
 30
0.0
 10
761.1640429951
 20
25.2160127289
 30
0.0
 10
761.0261241207
 20
25.3044692366
 30
0.0
 10
760.8533983957
 20
25.3044692366
 30
0.0
 10
760.5210322279
 20
25.3044692366
 30
0.0
 10
760.3119294184
 20
25.0165930282
 30
0.0
 10
760.3119294184
 20
24.7009760217
 30
0.0
 10
760.3119294184
 20
24.3712269103
 30
0.0
 10
760.5089937683
 20
24.0781165891
 30
0.0
 10
760.8638666215
 20
24.0781165891
 30
0.0
 10
761.0261241207
 20
24.0781165891
 30
0.0
 10
761.1661366402
 20
24.1665730967
 30
0.0
 10
761.2553782648
 20
24.2974259187
 30
0.0
 10
761.2553782648
 20
24.2974259187
 30
0.0
 10
761.2600889664
 20
24.2974259187
 30
0.0
 10
761.2600889664
 20
24.2974259187
 30
0.0
 10
761.2600889664
 20
24.2974259187
 30
0.0
 10
761.2600889664
 20
24.0781165891
 30
0.0
 10
761.2600889664
 20
24.0781165891
 30
0.0
 10
761.2600889664
 20
23.841534687
 30
0.0
 10
761.2035605473
 20
23.6546768572
 30
0.0
 10
760.930339855
 20
23.6546768572
 30
0.0
 10
760.7280413923
 20
23.6546768572
 30
0.0
 10
760.5854118163
 20
23.7729678083
 30
0.0
 10
760.5854118163
 20
23.9791918557
 30
0.0
 10
760.5854118163
 20
23.9791918557
 30
0.0
 10
760.3637471359
 20
23.9791918557
 30
0.0
 10
760.3637471359
 20
23.9791918557
 30
0.0
 10
760.3687195431
 20
23.6546768572
 30
0.0
 10
760.5998056267
 20
23.457874213
 30
0.0
 10
760.9201333349
 20
23.457874213
 30
0.0
 10
761.3681733973
 20
23.457874213
 30
0.0
 10
761.4817536468
 20
23.7431333649
 30
0.0
 10
761.4817536468
 20
24.1398791211
 30
0.0
 10
761.4817536468
 20
24.1398791211
 30
0.0
 10
761.4817536468
 20
25.2704475029
 30
0.0
 10
761.4817536468
 20
25.2704475029
 30
0.0
  0
SPLINE
  5
23C
100
AcDbEntity
  8
0
100
AcDbSpline
 62
7
  6
CONTINUOUS
 70
2
 71
3
 72
44
 73
40
 74
0
 42
0.0000001
 43
0.0000001
 44
0.0000000001
 40
0.0
 40
0.0
 40
0.0
 40
0.0
 40
1.0
 40
1.0
 40
1.0
 40
2.0
 40
2.0
 40
2.0
 40
3.0
 40
3.0
 40
3.0
 40
4.0
 40
4.0
 40
4.0
 40
5.0
 40
5.0
 40
5.0
 40
6.0
 40
6.0
 40
6.0
 40
7.0
 40
7.0
 40
7.0
 40
8.0
 40
8.0
 40
8.0
 40
9.0
 40
9.0
 40
9.0
 40
10.0
 40
10.0
 40
10.0
 40
11.0
 40
11.0
 40
11.0
 40
12.0
 40
12.0
 40
12.0
 40
13.0
 40
13.0
 40
13.0
 40
13.0
 10
763.0506789822
 20
26.2555075466
 30
0.0
 10
763.0506789822
 20
26.2555075466
 30
0.0
 10
763.0506789822
 20
24.1173724357
 30
0.0
 10
763.0506789822
 20
24.1173724357
 30
0.0
 10
763.0506789822
 20
24.1173724357
 30
0.0
 10
763.272081957
 20
24.1173724357
 30
0.0
 10
763.272081957
 20
24.1173724357
 30
0.0
 10
763.272081957
 20
24.1173724357
 30
0.0
 10
763.272081957
 20
24.647064659
 30
0.0
 10
763.272081957
 20
24.647064659
 30
0.0
 10
763.272081957
 20
24.8569525854
 30
0.0
 10
763.272081957
 20
25.1076665923
 30
0.0
 10
763.5573411088
 20
25.1076665923
 30
0.0
 10
763.7842399021
 20
25.1076665923
 30
0.0
 10
763.8111955835
 20
24.9747201252
 30
0.0
 10
763.8111955835
 20
24.7784408923
 30
0.0
 10
763.8111955835
 20
24.7784408923
 30
0.0
 10
763.8111955835
 20
24.1173724357
 30
0.0
 10
763.8111955835
 20
24.1173724357
 30
0.0
 10
763.8111955835
 20
24.1173724357
 30
0.0
 10
764.0331219695
 20
24.1173724357
 30
0.0
 10
764.0331219695
 20
24.1173724357
 30
0.0
 10
764.0331219695
 20
24.1173724357
 30
0.0
 10
764.0331219695
 20
24.8046114567
 30
0.0
 10
764.0331219695
 20
24.8046114567
 30
0.0
 10
764.0331219695
 20
25.085159907
 30
0.0
 10
763.9491144578
 20
25.3049926479
 30
0.0
 10
763.624076048
 20
25.3049926479
 30
0.0
 10
763.4843252342
 20
25.3049926479
 30
0.0
 10
763.3461446542
 20
25.2385194143
 30
0.0
 10
763.2767926585
 20
25.1155177616
 30
0.0
 10
763.2767926585
 20
25.1155177616
 30
0.0
 10
763.272081957
 20
25.1155177616
 30
0.0
 10
763.272081957
 20
25.1155177616
 30
0.0
 10
763.272081957
 20
25.1155177616
 30
0.0
 10
763.272081957
 20
26.2555075466
 30
0.0
 10
763.272081957
 20
26.2555075466
 30
0.0
 10
763.272081957
 20
26.2555075466
 30
0.0
 10
763.0506789822
 20
26.2555075466
 30
0.0
 10
763.0506789822
 20
26.2555075466
 30
0.0
  0
LWPOLYLINE
  5
23D
100
AcDbEntity
  8
0
100
AcDbPolyline
 62
7
  6
CONTINUOUS
 90
2
 70
0
 43
0.2
 10
765.8729126464
 20
25.0631766329
 10
766.0893432139
 20
25.0631766329
  0
LWPOLYLINE
  5
23E
100
AcDbEntity
  8
0
100
AcDbPolyline
 62
7
  6
CONTINUOUS
 90
2
 70
0
 43
0.2
 10
766.0893432139
 20
25.0631766329
 10
766.0893432139
 20
25.2699240916
  0
LWPOLYLINE
  5
23F
100
AcDbEntity
  8
0
100
AcDbPolyline
 62
7
  6
CONTINUOUS
 90
2
 70
0
 43
0.2
 10
766.0893432139
 20
25.2699240916
 10
765.8729126464
 20
25.2699240916
  0
LWPOLYLINE
  5
240
100
AcDbEntity
  8
0
100
AcDbPolyline
 62
7
  6
CONTINUOUS
 90
2
 70
0
 43
0.2
 10
765.8729126464
 20
25.2699240916
 10
765.8729126464
 20
25.710636396
  0
LWPOLYLINE
  5
241
100
AcDbEntity
  8
0
100
AcDbPolyline
 62
7
  6
CONTINUOUS
 90
2
 70
0
 43
0.2
 10
765.8729126464
 20
25.710636396
 10
765.651247966
 20
25.710636396
  0
LWPOLYLINE
  5
242
100
AcDbEntity
  8
0
100
AcDbPolyline
 62
7
  6
CONTINUOUS
 90
2
 70
0
 43
0.2
 10
765.651247966
 20
25.710636396
 10
765.651247966
 20
25.2699240916
  0
LWPOLYLINE
  5
243
100
AcDbEntity
  8
0
100
AcDbPolyline
 62
7
  6
CONTINUOUS
 90
2
 70
0
 43
0.2
 10
765.651247966
 20
25.2699240916
 10
765.5306016641
 20
25.2699240916
  0
LWPOLYLINE
  5
244
100
AcDbEntity
  8
0
100
AcDbPolyline
 62
7
  6
CONTINUOUS
 90
2
 70
0
 43
0.2
 10
765.5306016641
 20
25.2699240916
 10
765.5306016641
 20
25.0631766329
  0
LWPOLYLINE
  5
245
100
AcDbEntity
  8
0
100
AcDbPolyline
 62
7
  6
CONTINUOUS
 90
2
 70
0
 43
0.2
 10
765.5306016641
 20
25.0631766329
 10
765.651247966
 20
25.0631766329
  0
LWPOLYLINE
  5
246
100
AcDbEntity
  8
0
100
AcDbPolyline
 62
7
  6
CONTINUOUS
 90
2
 70
0
 43
0.2
 10
765.651247966
 20
25.0631766329
 10
765.651247966
 20
24.1173724357
  0
LWPOLYLINE
  5
247
100
AcDbEntity
  8
0
100
AcDbPolyline
 62
7
  6
CONTINUOUS
 90
2
 70
0
 43
0.2
 10
765.651247966
 20
24.1173724357
 10
765.8729126464
 20
24.1173724357
  0
LWPOLYLINE
  5
248
100
AcDbEntity
  8
0
100
AcDbPolyline
 62
7
  6
CONTINUOUS
 90
2
 70
0
 43
0.2
 10
765.8729126464
 20
24.1173724357
 10
765.8729126464
 20
25.0631766329
  0
SPLINE
  5
249
100
AcDbEntity
  8
0
100
AcDbSpline
 62
7
  6
CONTINUOUS
 70
2
 71
3
 72
20
 73
16
 74
0
 42
0.0000001
 43
0.0000001
 44
0.0000000001
 40
0.0
 40
0.0
 40
0.0
 40
0.0
 40
1.0
 40
1.0
 40
1.0
 40
2.0
 40
2.0
 40
2.0
 40
3.0
 40
3.0
 40
3.0
 40
4.0
 40
4.0
 40
4.0
 40
5.0
 40
5.0
 40
5.0
 40
5.0
 10
753.6549229536
 20
34.4782988791
 30
0.0
 10
753.6549229536
 20
34.4782988791
 30
0.0
 10
755.9712796081
 20
31.6487374568
 30
0.0
 10
755.9712796081
 20
31.6487374568
 30
0.0
 10
755.3196325547
 20
30.9965669922
 30
0.0
 10
754.5427593507
 20
30.2606507214
 30
0.0
 10
753.571569706
 20
30.2606507214
 30
0.0
 10
752.5730318216
 20
30.2606507214
 30
0.0
 10
751.629713828
 20
31.1902291687
 30
0.0
 10
751.629713828
 20
32.1894213172
 30
0.0
 10
751.629713828
 20
33.1886134658
 30
0.0
 10
752.8085669011
 20
33.8952187044
 30
0.0
 10
753.5300893615
 20
34.3950764843
 30
0.0
 10
753.5300893615
 20
34.3950764843
 30
0.0
 10
753.6549229536
 20
34.4782988791
 30
0.0
 10
753.6549229536
 20
34.4782988791
 30
0.0
  0
SPLINE
  5
24A
100
AcDbEntity
  8
0
100
AcDbSpline
 62
7
  6
CONTINUOUS
 70
2
 71
3
 72
23
 73
19
 74
0
 42
0.0000001
 43
0.0000001
 44
0.0000000001
 40
0.0
 40
0.0
 40
0.0
 40
0.0
 40
1.0
 40
1.0
 40
1.0
 40
2.0
 40
2.0
 40
2.0
 40
3.0
 40
3.0
 40
3.0
 40
4.0
 40
4.0
 40
4.0
 40
5.0
 40
5.0
 40
5.0
 40
6.0
 40
6.0
 40
6.0
 40
6.0
 10
753.9323309362
 20
36.1160527988
 30
0.0
 10
753.9323309362
 20
36.1160527988
 30
0.0
 10
753.5858326636
 20
36.5593821596
 30
0.0
 10
753.5858326636
 20
36.5593821596
 30
0.0
 10
753.2800296187
 20
36.9474916296
 30
0.0
 10
752.9611412916
 20
37.335993658
 30
0.0
 10
752.9611412916
 20
37.8629379721
 30
0.0
 10
752.9611412916
 20
38.5291096887
 30
0.0
 10
753.502479416
 20
38.972831608
 30
0.0
 10
754.1263856712
 20
38.972831608
 30
0.0
 10
754.8201673332
 20
38.972831608
 30
0.0
 10
755.347373353
 20
38.5705900333
 30
0.0
 10
755.347373353
 20
37.8355897323
 30
0.0
 10
755.347373353
 20
37.0723252218
 30
0.0
 10
754.6261125983
 20
36.6422119959
 30
0.0
 10
754.0990374314
 20
36.2264925806
 30
0.0
 10
754.0990374314
 20
36.2264925806
 30
0.0
 10
753.9323309362
 20
36.1160527988
 30
0.0
 10
753.9323309362
 20
36.1160527988
 30
0.0
  0
SPLINE
  5
24B
100
AcDbEntity
  8
0
100
AcDbSpline
 62
7
  6
CONTINUOUS
 70
2
 71
3
 72
50
 73
46
 74
0
 42
0.0000001
 43
0.0000001
 44
0.0000000001
 40
0.0
 40
0.0
 40
0.0
 40
0.0
 40
1.0
 40
1.0
 40
1.0
 40
2.0
 40
2.0
 40
2.0
 40
3.0
 40
3.0
 40
3.0
 40
4.0
 40
4.0
 40
4.0
 40
5.0
 40
5.0
 40
5.0
 40
6.0
 40
6.0
 40
6.0
 40
7.0
 40
7.0
 40
7.0
 40
8.0
 40
8.0
 40
8.0
 40
9.0
 40
9.0
 40
9.0
 40
10.0
 40
10.0
 40
10.0
 40
11.0
 40
11.0
 40
11.0
 40
12.0
 40
12.0
 40
12.0
 40
13.0
 40
13.0
 40
13.0
 40
14.0
 40
14.0
 40
14.0
 40
15.0
 40
15.0
 40
15.0
 40
15.0
 10
757.8859180991
 20
29.3174635807
 30
0.0
 10
757.8859180991
 20
29.3174635807
 30
0.0
 10
759.4951461037
 20
29.3174635807
 30
0.0
 10
759.4951461037
 20
29.3174635807
 30
0.0
 10
759.4951461037
 20
29.3174635807
 30
0.0
 10
757.62211881
 20
31.6346053521
 30
0.0
 10
757.62211881
 20
31.6346053521
 30
0.0
 10
757.62211881
 20
31.6346053521
 30
0.0
 10
758.8984572355
 20
33.1320850467
 30
0.0
 10
758.8984572355
 20
33.1320850467
 30
0.0
 10
758.8984572355
 20
33.1320850467
 30
0.0
 10
758.0662332878
 20
33.9930966152
 30
0.0
 10
758.0662332878
 20
33.9930966152
 30
0.0
 10
758.0662332878
 20
33.9930966152
 30
0.0
 10
756.8456381645
 20
32.5777924928
 30
0.0
 10
756.8456381645
 20
32.5777924928
 30
0.0
 10
756.8456381645
 20
32.5777924928
 30
0.0
 10
754.6677237957
 20
35.2131683272
 30
0.0
 10
754.6677237957
 20
35.2131683272
 30
0.0
 10
755.5412972351
 20
35.8512066872
 30
0.0
 10
756.5679684763
 20
36.6422119959
 30
0.0
 10
756.5679684763
 20
37.8210650691
 30
0.0
 10
756.5679684763
 20
39.1947579941
 30
0.0
 10
755.4300723364
 20
39.9992411435
 30
0.0
 10
754.1547807335
 20
39.9992411435
 30
0.0
 10
752.7813495142
 20
39.9992411435
 30
0.0
 10
751.7404153154
 20
39.1530159439
 30
0.0
 10
751.7404153154
 20
37.7103635817
 30
0.0
 10
751.7404153154
 20
36.8227888903
 30
0.0
 10
752.2957546919
 20
36.0459156862
 30
0.0
 10
752.8919201487
 20
35.4214860198
 30
0.0
 10
752.8919201487
 20
35.4214860198
 30
0.0
 10
752.2400113897
 20
34.9498924494
 30
0.0
 10
752.2400113897
 20
34.9498924494
 30
0.0
 10
751.2414735053
 20
34.2286316948
 30
0.0
 10
750.4085952934
 20
33.5073709401
 30
0.0
 10
750.4085952934
 20
32.1758126237
 30
0.0
 10
750.4085952934
 20
30.3721373257
 30
0.0
 10
751.865641466
 20
29.0955371946
 30
0.0
 10
753.6131809034
 20
29.0955371946
 30
0.0
 10
754.8480389843
 20
29.0955371946
 30
0.0
 10
755.957409209
 20
29.8037126671
 30
0.0
 10
756.7482836649
 20
30.7322442918
 30
0.0
 10
756.7482836649
 20
30.7322442918
 30
0.0
 10
757.8859180991
 20
29.3174635807
 30
0.0
 10
757.8859180991
 20
29.3174635807
 30
0.0
  0
LINE
  5
24C
100
AcDbEntity
  8
0
100
AcDbLine
 62
7
  6
CONTINUOUS
 10
743.6887794741
 20
27.2913384853
 11
766.1026902018
 21
27.2913384853
  0
LINE
  5
24D
100
AcDbEntity
  8
0
100
AcDbLine
 62
7
  6
CONTINUOUS
 10
766.1026902018
 20
27.2913384853
 11
766.1026902018
 21
49.705249213
  0
LINE
  5
24E
100
AcDbEntity
  8
0
100
AcDbLine
 62
7
  6
CONTINUOUS
 10
766.1026902018
 20
49.705249213
 11
743.6887794741
 21
49.705249213
  0
LINE
  5
24F
100
AcDbEntity
  8
0
100
AcDbLine
 62
7
  6
CONTINUOUS
 10
743.6887794741
 20
49.705249213
 11
743.6887794741
 21
27.2913384853
  0
ENDBLK
  5
250
100
AcDbEntity
  8
0
  6
BYBLOCK
 62
0
100
AcDbBlockEnd
  0
BLOCK
  5
251
100
AcDbEntity
  8
0
100
AcDbBlockBegin
  2
_CLOSED
 70
64
 10
0.0
 20
0.0
  3
_CLOSED
  1

  0
LINE
  5
252
100
AcDbEntity
  8
0
  6
BYBLOCK
 62
0
100
AcDbLine
 10
0.0
 20
0.0
 11
-1.0
 21
0.2
  0
LINE
  5
253
100
AcDbEntity
  8
0
  6
BYBLOCK
 62
0
100
AcDbLine
 10
-1.0
 20
0.2
 11
-1.0
 21
-0.2
  0
LINE
  5
254
100
AcDbEntity
  8
0
  6
BYBLOCK
 62
0
100
AcDbLine
 10
-1.0
 20
-0.2
 11
0.0
 21
0.0
  0
LINE
  5
255
100
AcDbEntity
  8
0
  6
BYBLOCK
 62
0
100
AcDbLine
 10
-1.0
 20
0.0
 11
0.0
 21
0.0
  0
ENDBLK
  5
256
100
AcDbEntity
  8
0
  6
BYBLOCK
 62
0
100
AcDbBlockEnd
  0
BLOCK
  5
257
100
AcDbEntity
  8
0
100
AcDbBlockBegin
 62
7
  6
CONTINUOUS
  2
*D0
 70
65
 10
0.0
 20
0.0
  3
*D0
  1

  0
MTEXT
  5
258
100
AcDbEntity
  8
0
100
AcDbMText
 62
7
  6
CONTINUOUS
  7
STANDARD
 71
2
 72
1
 10
107.6927703964
 20
160.4880179542
 30
0.0
 11
1.0
 21
0.0
 31
0.0
  1
70,1
 40
8.0
 41
21.7397769517
  0
LINE
  5
259
100
AcDbEntity
  8
0
100
AcDbLine
 62
7
  6
CONTINUOUS
 10
72.6427703964
 20
160.0536765049
 11
72.6427703964
 21
149.7380179542
  0
LINE
  5
25A
100
AcDbEntity
  8
0
100
AcDbLine
 62
7
  6
CONTINUOUS
 10
142.7427703964
 20
160.0536765049
 11
142.7427703964
 21
149.7380179542
  0
LINE
  5
25B
100
AcDbEntity
  8
0
100
AcDbLine
 62
7
  6
CONTINUOUS
 10
72.6427703964
 20
150.4880179542
 11
107.6927703964
 21
150.4880179542
  0
LINE
  5
25C
100
AcDbEntity
  8
0
100
AcDbLine
 62
7
  6
CONTINUOUS
 10
142.7427703964
 20
150.4880179542
 11
107.6927703964
 21
150.4880179542
  0
INSERT
  5
25D
100
AcDbEntity
  8
0
100
AcDbBlockReference
 62
7
  6
CONTINUOUS
  2
_CLOSED
 10
72.6427703964
 20
150.4880179542
 41
2.5
 42
2.5
 43
2.5
 50
180.0
  0
INSERT
  5
25E
100
AcDbEntity
  8
0
100
AcDbBlockReference
 62
7
  6
CONTINUOUS
  2
_CLOSED
 10
142.7427703964
 20
150.4880179542
 41
2.5
 42
2.5
 43
2.5
  0
ENDBLK
  5
25F
100
AcDbEntity
  8
0
  6
BYBLOCK
 62
0
100
AcDbBlockEnd
  0
BLOCK
  5
260
100
AcDbEntity
  8
0
100
AcDbBlockBegin
 62
7
  6
CONTINUOUS
  2
*D1
 70
65
 10
0.0
 20
0.0
  3
*D1
  1

  0
MTEXT
  5
261
100
AcDbEntity
  8
0
100
AcDbMText
 62
7
  6
CONTINUOUS
  7
STANDARD
 71
2
 72
1
 10
107.6927703964
 20
135.6898701508
 30
0.0
 11
1.0
 21
0.0
 31
0.0
  1
109,9
 40
8.0
 41
27.9553903346
  0
LINE
  5
262
100
AcDbEntity
  8
0
100
AcDbLine
 62
7
  6
CONTINUOUS
 10
52.7427703964
 20
160.0536765049
 11
52.7427703964
 21
124.9398701508
  0
LINE
  5
263
100
AcDbEntity
  8
0
100
AcDbLine
 62
7
  6
CONTINUOUS
 10
162.6427703964
 20
160.0536765049
 11
162.6427703964
 21
124.9398701508
  0
LINE
  5
264
100
AcDbEntity
  8
0
100
AcDbLine
 62
7
  6
CONTINUOUS
 10
52.7427703964
 20
125.6898701508
 11
107.6927703964
 21
125.6898701508
  0
LINE
  5
265
100
AcDbEntity
  8
0
100
AcDbLine
 62
7
  6
CONTINUOUS
 10
162.6427703964
 20
125.6898701508
 11
107.6927703964
 21
125.6898701508
  0
INSERT
  5
266
100
AcDbEntity
  8
0
100
AcDbBlockReference
 62
7
  6
CONTINUOUS
  2
_CLOSED
 10
52.7427703964
 20
125.6898701508
 41
2.5
 42
2.5
 43
2.5
 50
180.0
  0
INSERT
  5
267
100
AcDbEntity
  8
0
100
AcDbBlockReference
 62
7
  6
CONTINUOUS
  2
_CLOSED
 10
162.6427703964
 20
125.6898701508
 41
2.5
 42
2.5
 43
2.5
  0
ENDBLK
  5
268
100
AcDbEntity
  8
0
  6
BYBLOCK
 62
0
100
AcDbBlockEnd
  0
BLOCK
  5
269
100
AcDbEntity
  8
0
100
AcDbBlockBegin
 62
7
  6
CONTINUOUS
  2
*D2
 70
65
 10
0.0
 20
0.0
  3
*D2
  1

  0
MTEXT
  5
26A
100
AcDbEntity
  8
0
100
AcDbMText
 62
7
  6
CONTINUOUS
  7
STANDARD
 71
2
 72
1
 10
494.8516951503
 20
160.4880179542
 30
0.0
 11
1.0
 21
0.0
 31
0.0
  1
567
 40
8.0
 41
18.6468401487
  0
LINE
  5
26B
100
AcDbEntity
  8
0
100
AcDbLine
 62
7
  6
CONTINUOUS
 10
211.3516951503
 20
162.4980469574
 11
211.3516951503
 21
149.7380179542
  0
LINE
  5
26C
100
AcDbEntity
  8
0
100
AcDbLine
 62
7
  6
CONTINUOUS
 10
778.3516951503
 20
160.0536765049
 11
778.3516951503
 21
149.7380179542
  0
LINE
  5
26D
100
AcDbEntity
  8
0
100
AcDbLine
 62
7
  6
CONTINUOUS
 10
211.3516951503
 20
150.4880179542
 11
494.8516951503
 21
150.4880179542
  0
LINE
  5
26E
100
AcDbEntity
  8
0
100
AcDbLine
 62
7
  6
CONTINUOUS
 10
778.3516951503
 20
150.4880179542
 11
494.8516951503
 21
150.4880179542
  0
INSERT
  5
26F
100
AcDbEntity
  8
0
100
AcDbBlockReference
 62
7
  6
CONTINUOUS
  2
_CLOSED
 10
211.3516951503
 20
150.4880179542
 41
2.5
 42
2.5
 43
2.5
 50
180.0
  0
INSERT
  5
270
100
AcDbEntity
  8
0
100
AcDbBlockReference
 62
7
  6
CONTINUOUS
  2
_CLOSED
 10
778.3516951503
 20
150.4880179542
 41
2.5
 42
2.5
 43
2.5
  0
ENDBLK
  5
271
100
AcDbEntity
  8
0
  6
BYBLOCK
 62
0
100
AcDbBlockEnd
  0
BLOCK
  5
272
100
AcDbEntity
  8
0
100
AcDbBlockBegin
 62
7
  6
CONTINUOUS
  2
*D3
 70
65
 10
0.0
 20
0.0
  3
*D3
  1

  0
MTEXT
  5
273
100
AcDbEntity
  8
0
100
AcDbMText
 62
7
  6
CONTINUOUS
  7
STANDARD
 71
2
 72
1
 10
22.6539459642
 20
231.9932082478
 30
0.0
 11
0.0
 21
1.0
 31
0.0
  1
91
 40
8.0
 41
12.4312267658
  0
LINE
  5
274
100
AcDbEntity
  8
0
100
AcDbLine
 62
7
  6
CONTINUOUS
 10
49.279060719
 20
186.4932082478
 11
31.9039459642
 21
186.4932082478
  0
LINE
  5
275
100
AcDbEntity
  8
0
100
AcDbLine
 62
7
  6
CONTINUOUS
 10
50.8007342185
 20
277.4932082478
 11
31.9039459642
 21
277.4932082478
  0
LINE
  5
276
100
AcDbEntity
  8
0
100
AcDbLine
 62
7
  6
CONTINUOUS
 10
32.6539459642
 20
186.4932082478
 11
32.6539459642
 21
231.9932082478
  0
LINE
  5
277
100
AcDbEntity
  8
0
100
AcDbLine
 62
7
  6
CONTINUOUS
 10
32.6539459642
 20
277.4932082478
 11
32.6539459642
 21
231.9932082478
  0
INSERT
  5
278
100
AcDbEntity
  8
0
100
AcDbBlockReference
 62
7
  6
CONTINUOUS
  2
_CLOSED
 10
32.6539459642
 20
186.4932082478
 41
2.5
 42
2.5
 43
2.5
 50
270.0
  0
INSERT
  5
279
100
AcDbEntity
  8
0
100
AcDbBlockReference
 62
7
  6
CONTINUOUS
  2
_CLOSED
 10
32.6539459642
 20
277.4932082478
 41
2.5
 42
2.5
 43
2.5
 50
90.0
  0
ENDBLK
  5
27A
100
AcDbEntity
  8
0
  6
BYBLOCK
 62
0
100
AcDbBlockEnd
  0
ENDSEC
  0
SECTION
  2
ENTITIES
  0
DIMENSION
  5
27B
100
AcDbEntity
  8
0
100
AcDbDimension
 62
7
  6
CONTINUOUS
  2
*D0
 10
142.7427703964
 20
150.4880179542
 11
106.9240144424
 21
150.4880179542
 70
160
  3
DIMSTYLE_1
100
AcDbAlignedDimension
 13
72.6427703964
 23
160.8036765049
 14
142.7427703964
 24
160.8036765049
100
AcDbRotatedDimension
  0
DIMENSION
  5
27C
100
AcDbEntity
  8
0
100
AcDbDimension
 62
7
  6
CONTINUOUS
  2
*D1
 10
162.6427703964
 20
125.6898701508
 11
108.0326712646
 21
125.6898701508
 70
160
  3
DIMSTYLE_1
100
AcDbAlignedDimension
 13
52.7427703964
 23
160.8036765049
 14
162.6427703964
 24
160.8036765049
100
AcDbRotatedDimension
  0
DIMENSION
  5
27D
100
AcDbEntity
  8
0
100
AcDbDimension
 62
7
  6
CONTINUOUS
  2
*D2
 10
778.3516951503
 20
150.4880179542
 11
494.8236573181
 21
150.4880179542
 70
160
  3
DIMSTYLE_2
100
AcDbAlignedDimension
 13
211.3516951503
 23
163.2480469574
 14
778.3516951503
 24
160.8036765049
100
AcDbRotatedDimension
  0
DIMENSION
  5
27E
100
AcDbEntity
  8
0
100
AcDbDimension
 62
7
  6
CONTINUOUS
  2
*D3
 10
32.6539459642
 20
277.4932082478
 11
32.6539459642
 21
231.1985175263
 70
160
  3
DIMSTYLE_1
100
AcDbAlignedDimension
 13
50.029060719
 23
186.4932082478
 14
51.5507342185
 24
277.4932082478
 50
90.0
100
AcDbRotatedDimension
  0
LINE
  5
27F
100
AcDbEntity
  8
0
100
AcDbLine
 62
2
  6
CONTINUOUS
 10
741.0696223667
 20
50.081561713
 11
831.0696223667
 21
50.081561713
  0
LINE
  5
280
100
AcDbEntity
  8
0
100
AcDbLine
 62
2
  6
CONTINUOUS
 10
741.0696223667
 20
50.081561713
 11
741.0696223667
 21
10.081561713
  0
LINE
  5
281
100
AcDbEntity
  8
0
100
AcDbLine
 62
2
  6
CONTINUOUS
 10
771.0696223667
 20
44.081561713
 11
831.0696223667
 21
44.081561713
  0
LINE
  5
282
100
AcDbEntity
  8
0
100
AcDbLine
 62
2
  6
CONTINUOUS
 10
771.0696223667
 20
38.081561713
 11
831.0696223667
 21
38.081561713
  0
LINE
  5
283
100
AcDbEntity
  8
0
100
AcDbLine
 62
2
  6
CONTINUOUS
 10
771.0696223667
 20
28.081561713
 11
831.0696223667
 21
28.081561713
  0
LINE
  5
284
100
AcDbEntity
  8
0
100
AcDbLine
 62
2
  6
CONTINUOUS
 10
741.0696223667
 20
23.081561713
 11
831.0696223667
 21
23.081561713
  0
LINE
  5
285
100
AcDbEntity
  8
0
100
AcDbLine
 62
2
  6
CONTINUOUS
 10
741.0696223667
 20
10.081561713
 11
831.0696223667
 21
10.081561713
  0
LINE
  5
286
100
AcDbEntity
  8
0
100
AcDbLine
 62
2
  6
CONTINUOUS
 10
771.0696223667
 20
50.081561713
 11
771.0696223667
 21
23.081561713
  0
LINE
  5
287
100
AcDbEntity
  8
0
100
AcDbLine
 62
2
  6
CONTINUOUS
 10
811.0696223667
 20
50.081561713
 11
811.0696223667
 21
38.081561713
  0
LINE
  5
288
100
AcDbEntity
  8
0
100
AcDbLine
 62
2
  6
CONTINUOUS
 10
831.0696223667
 20
50.081561713
 11
831.0696223667
 21
10.081561713
  0
INSERT
  5
289
100
AcDbEntity
  8
0
100
AcDbBlockReference
 62
2
  6
CONTINUOUS
  2
LOGO2_BL0
 10
754.8956694115
 20
36.581561713
  0
MTEXT
  5
28A
100
AcDbEntity
  8
9_SOLID
100
AcDbMText
 62
2
  6
CONTINUOUS
  7
TEXTSTYLE_2
 71
1
 72
1
 10
772.5571223667
 20
48.581561713
 30
0.0
 11
1.0
 21
0.0
 31
0.0
  1
6F4_C_241
 40
3.0
 41
31.6071428571
  0
MTEXT
  5
28B
100
AcDbEntity
  8
0
100
AcDbMText
 62
2
  6
CONTINUOUS
  7
TEXTSTYLE_2
 71
1
 72
1
 10
812.5571223667
 20
48.331561713
 30
0.0
 11
1.0
 21
0.0
 31
0.0
  1
Rev:00
 40
3.5
 41
22.75
  0
MTEXT
  5
28C
100
AcDbEntity
  8
9_SOLID
100
AcDbMText
 62
2
  6
CONTINUOUS
  7
TEXTSTYLE_2
 71
1
 72
1
 10
772.5571223667
 20
42.331561713
 30
0.0
 11
1.0
 21
0.0
 31
0.0
  1
Scale:1:1
 40
3.5
 41
28.375
  0
MTEXT
  5
28D
100
AcDbEntity
  8
9_SOLID
100
AcDbMText
 62
2
  6
CONTINUOUS
  7
TEXTSTYLE_2
 71
1
 72
1
 10
812.5571223667
 20
42.831561713
 30
0.0
 11
1.0
 21
0.0
 31
0.0
  1
A1
 40
3.5
 41
8.5
  0
MTEXT
  5
28E
100
AcDbEntity
  8
0
100
AcDbMText
 62
2
  6
CONTINUOUS
  7
TEXTSTYLE_2
 71
1
 72
1
 10
772.5571223667
 20
34.831561713
 30
0.0
 11
1.0
 21
0.0
 31
0.0
  1
CASS. BRENTA 2.1 ARRETRATA
 40
3.5
 41
107.375
  0
MTEXT
  5
28F
100
AcDbEntity
  8
0
100
AcDbMText
 62
2
  6
CONTINUOUS
  7
TEXTSTYLE_2
 71
1
 72
1
 10
772.5571223667
 20
26.831561713
 30
0.0
 11
1.0
 21
0.0
 31
0.0
  1
DATE:08/05/18
 40
2.5
 41
36.875
  0
MTEXT
  5
290
100
AcDbEntity
  8
9_SOLID
100
AcDbMText
 62
2
  6
CONTINUOUS
  7
TEXTSTYLE_2
 71
1
 72
1
 10
742.5571223667
 20
22.769061713
 30
0.0
 11
1.0
 21
0.0
 31
0.0
  1
Any integral or partial reproductions are prohibited \Pwithout prior authorisation of L {\Ftxt.shx;\W0.190476;\H2.250000; }& L Luce & Light s.r.l., \Pin accordance with the law in force. \PAll rights reserved.
 40
2.25
 41
134.5982142857
  0
LINE
  5
291
100
AcDbEntity
  8
0
100
AcDbLine
 62
7
  6
CONTINUOUS
 10
0.0
 20
0.0
 11
0.0
 21
594.0
  0
LINE
  5
292
100
AcDbEntity
  8
0
100
AcDbLine
 62
7
  6
CONTINUOUS
 10
0.0
 20
0.0
 11
841.0
 21
0.0
  0
LINE
  5
293
100
AcDbEntity
  8
0
100
AcDbLine
 62
7
  6
CONTINUOUS
 10
0.0
 20
594.0
 11
841.0
 21
594.0
  0
LINE
  5
294
100
AcDbEntity
  8
0
100
AcDbLine
 62
7
  6
CONTINUOUS
 10
841.0
 20
0.0
 11
841.0
 21
594.0
  0
LINE
  5
295
100
AcDbEntity
  8
6_ALL_SURFS
100
AcDbLine
 62
7
  6
CONTINUOUS
 10
55.2427703964
 20
189.1432082478
 11
55.5427703964
 21
188.9932082478
  0
LINE
  5
296
100
AcDbEntity
  8
6_ALL_SURFS
100
AcDbLine
 62
7
  6
CONTINUOUS
 10
58.2427703964
 20
189.1432082478
 11
58.5427703964
 21
188.9932082478
  0
LINE
  5
297
100
AcDbEntity
  8
6_ALL_SURFS
100
AcDbLine
 62
7
  6
CONTINUOUS
 10
61.2427703964
 20
189.1432082478
 11
61.5427703964
 21
188.9932082478
  0
LINE
  5
298
100
AcDbEntity
  8
6_ALL_SURFS
100
AcDbLine
 62
7
  6
CONTINUOUS
 10
64.2427703964
 20
189.1432082478
 11
64.5427703964
 21
188.9932082478
  0
LINE
  5
299
100
AcDbEntity
  8
6_ALL_SURFS
100
AcDbLine
 62
7
  6
CONTINUOUS
 10
67.2427703964
 20
189.1432082478
 11
67.5427703964
 21
188.9932082478
  0
LINE
  5
29A
100
AcDbEntity
  8
6_ALL_SURFS
100
AcDbLine
 62
7
  6
CONTINUOUS
 10
70.2427703964
 20
189.1432082478
 11
70.5427703964
 21
188.9932082478
  0
LINE
  5
29B
100
AcDbEntity
  8
7_ALL_FEATURES
100
AcDbLine
 62
7
  6
CONTINUOUS
 10
160.1427703964
 20
187.9932082478
 11
162.2882419868
 21
188.2077554068
  0
LINE
  5
29C
100
AcDbEntity
  8
6_ALL_SURFS
100
AcDbLine
 62
7
  6
CONTINUOUS
 10
55.2427703964
 20
187.9932082478
 11
53.097298806
 21
188.2077554068
  0
LINE
  5
29D
100
AcDbEntity
  8
6_ALL_SURFS
100
AcDbLine
 62
7
  6
CONTINUOUS
 10
73.3927703964
 20
186.4932082478
 11
73.2927703964
 21
186.4932082478
  0
LINE
  5
29E
100
AcDbEntity
  8
7_ALL_FEATURES
100
AcDbLine
 62
7
  6
CONTINUOUS
 10
73.3927703964
 20
186.4932082478
 11
142.0927703964
 21
186.4932082478
  0
LINE
  5
29F
100
AcDbEntity
  8
6_ALL_SURFS
100
AcDbLine
 62
7
  6
CONTINUOUS
 10
72.6427703964
 20
187.9932082478
 11
70.5427703964
 21
187.9932082478
  0
LINE
  5
2A0
100
AcDbEntity
  8
6_ALL_SURFS
100
AcDbLine
 62
7
  6
CONTINUOUS
 10
69.9427703964
 20
187.9932082478
 11
67.5427703964
 21
187.9932082478
  0
LINE
  5
2A1
100
AcDbEntity
  8
6_ALL_SURFS
100
AcDbLine
 62
7
  6
CONTINUOUS
 10
66.9427703964
 20
187.9932082478
 11
64.5427703964
 21
187.9932082478
  0
LINE
  5
2A2
100
AcDbEntity
  8
6_ALL_SURFS
100
AcDbLine
 62
7
  6
CONTINUOUS
 10
63.9427703964
 20
187.9932082478
 11
61.5427703964
 21
187.9932082478
  0
LINE
  5
2A3
100
AcDbEntity
  8
6_ALL_SURFS
100
AcDbLine
 62
7
  6
CONTINUOUS
 10
60.9427703964
 20
187.9932082478
 11
58.5427703964
 21
187.9932082478
  0
LINE
  5
2A4
100
AcDbEntity
  8
6_ALL_SURFS
100
AcDbLine
 62
7
  6
CONTINUOUS
 10
57.9427703964
 20
187.9932082478
 11
55.2427703964
 21
187.9932082478
  0
LINE
  5
2A5
100
AcDbEntity
  8
7_ALL_FEATURES
100
AcDbLine
 62
7
  6
CONTINUOUS
 10
142.7427703964
 20
187.9932082478
 11
144.8427703964
 21
187.9932082478
  0
LINE
  5
2A6
100
AcDbEntity
  8
6_ALL_SURFS
100
AcDbLine
 62
7
  6
CONTINUOUS
 10
145.4427703964
 20
187.9932082478
 11
147.8427703964
 21
187.9932082478
  0
LINE
  5
2A7
100
AcDbEntity
  8
6_ALL_SURFS
100
AcDbLine
 62
7
  6
CONTINUOUS
 10
148.4427703964
 20
187.9932082478
 11
150.8427703964
 21
187.9932082478
  0
LINE
  5
2A8
100
AcDbEntity
  8
6_ALL_SURFS
100
AcDbLine
 62
7
  6
CONTINUOUS
 10
151.4427703964
 20
187.9932082478
 11
153.8427703964
 21
187.9932082478
  0
LINE
  5
2A9
100
AcDbEntity
  8
6_ALL_SURFS
100
AcDbLine
 62
7
  6
CONTINUOUS
 10
154.4427703964
 20
187.9932082478
 11
156.8427703964
 21
187.9932082478
  0
LINE
  5
2AA
100
AcDbEntity
  8
6_ALL_SURFS
100
AcDbLine
 62
7
  6
CONTINUOUS
 10
157.4427703964
 20
187.9932082478
 11
160.1427703964
 21
187.9932082478
  0
LINE
  5
2AB
100
AcDbEntity
  8
7_ALL_FEATURES
100
AcDbLine
 62
7
  6
CONTINUOUS
 10
162.2490670385
 20
188.9932082478
 11
160.4427703964
 21
188.9932082478
  0
LINE
  5
2AC
100
AcDbEntity
  8
6_ALL_SURFS
100
AcDbLine
 62
7
  6
CONTINUOUS
 10
159.8427703964
 20
188.9932082478
 11
157.4427703964
 21
188.9932082478
  0
LINE
  5
2AD
100
AcDbEntity
  8
6_ALL_SURFS
100
AcDbLine
 62
7
  6
CONTINUOUS
 10
156.8427703964
 20
188.9932082478
 11
154.4427703964
 21
188.9932082478
  0
LINE
  5
2AE
100
AcDbEntity
  8
6_ALL_SURFS
100
AcDbLine
 62
7
  6
CONTINUOUS
 10
153.8427703964
 20
188.9932082478
 11
151.4427703964
 21
188.9932082478
  0
LINE
  5
2AF
100
AcDbEntity
  8
6_ALL_SURFS
100
AcDbLine
 62
7
  6
CONTINUOUS
 10
150.8427703964
 20
188.9932082478
 11
148.4427703964
 21
188.9932082478
  0
LINE
  5
2B0
100
AcDbEntity
  8
6_ALL_SURFS
100
AcDbLine
 62
7
  6
CONTINUOUS
 10
147.8427703964
 20
188.9932082478
 11
145.4427703964
 21
188.9932082478
  0
LINE
  5
2B1
100
AcDbEntity
  8
7_ALL_FEATURES
100
AcDbLine
 62
7
  6
CONTINUOUS
 10
144.8427703964
 20
188.9932082478
 11
142.9427703964
 21
188.9932082478
  0
LINE
  5
2B2
100
AcDbEntity
  8
6_ALL_SURFS
100
AcDbLine
 62
7
  6
CONTINUOUS
 10
53.1364737543
 20
188.9932082478
 11
54.9427703964
 21
188.9932082478
  0
LINE
  5
2B3
100
AcDbEntity
  8
6_ALL_SURFS
100
AcDbLine
 62
7
  6
CONTINUOUS
 10
55.5427703964
 20
188.9932082478
 11
57.9427703964
 21
188.9932082478
  0
LINE
  5
2B4
100
AcDbEntity
  8
6_ALL_SURFS
100
AcDbLine
 62
7
  6
CONTINUOUS
 10
58.5427703964
 20
188.9932082478
 11
60.9427703964
 21
188.9932082478
  0
LINE
  5
2B5
100
AcDbEntity
  8
6_ALL_SURFS
100
AcDbLine
 62
7
  6
CONTINUOUS
 10
61.5427703964
 20
188.9932082478
 11
63.9427703964
 21
188.9932082478
  0
LINE
  5
2B6
100
AcDbEntity
  8
6_ALL_SURFS
100
AcDbLine
 62
7
  6
CONTINUOUS
 10
64.5427703964
 20
188.9932082478
 11
66.9427703964
 21
188.9932082478
  0
LINE
  5
2B7
100
AcDbEntity
  8
6_ALL_SURFS
100
AcDbLine
 62
7
  6
CONTINUOUS
 10
67.5427703964
 20
188.9932082478
 11
69.9427703964
 21
188.9932082478
  0
LINE
  5
2B8
100
AcDbEntity
  8
6_ALL_SURFS
100
AcDbLine
 62
7
  6
CONTINUOUS
 10
70.5427703964
 20
188.9932082478
 11
72.4427703964
 21
188.9932082478
  0
LINE
  5
2B9
100
AcDbEntity
  8
7_ALL_FEATURES
100
AcDbLine
 62
7
  6
CONTINUOUS
 10
72.6427703964
 20
187.2432082478
 11
72.6427703964
 21
217.1432082478
  0
LINE
  5
2BA
100
AcDbEntity
  8
7_ALL_FEATURES
100
AcDbLine
 62
7
  6
CONTINUOUS
 10
74.3427703964
 20
213.1182082478
 11
74.3427703964
 21
213.8682082478
  0
LINE
  5
2BB
100
AcDbEntity
  8
7_ALL_FEATURES
100
AcDbLine
 62
7
  6
CONTINUOUS
 10
76.4141314071
 20
256.345112255
 11
80.4048496402
 21
276.8862433919
  0
LINE
  5
2BC
100
AcDbEntity
  8
7_ALL_FEATURES
100
AcDbLine
 62
7
  6
CONTINUOUS
 10
80.493213567
 20
276.8887319561
 11
75.5712774806
 21
252.0041472851
  0
LINE
  5
2BD
100
AcDbEntity
  8
6_ALL_SURFS
100
AcDbLine
 62
7
  6
CONTINUOUS
 10
75.6615206353
 20
252.9537180363
 11
76.5589784555
 21
256.9978180905
  0
LINE
  5
2BE
100
AcDbEntity
  8
7_ALL_FEATURES
100
AcDbLine
 62
7
  6
CONTINUOUS
 10
75.2177703964
 20
214.7432082478
 11
75.2177703964
 21
213.8682082478
  0
LINE
  5
2BF
100
AcDbEntity
  8
7_ALL_FEATURES
100
AcDbLine
 62
7
  6
CONTINUOUS
 10
75.2177703964
 20
213.1182082478
 11
75.2177703964
 21
212.2432082478
  0
LINE
  5
2C0
100
AcDbEntity
  8
6_ALL_SURFS
100
AcDbLine
 62
7
  6
CONTINUOUS
 10
75.5427703964
 20
219.3932082478
 11
75.5427703964
 21
251.8704817879
  0
LINE
  5
2C1
100
AcDbEntity
  8
7_ALL_FEATURES
100
AcDbLine
 62
7
  6
CONTINUOUS
 10
75.9677703964
 20
212.2432082478
 11
75.9677703964
 21
213.1182082478
  0
LINE
  5
2C2
100
AcDbEntity
  8
7_ALL_FEATURES
100
AcDbLine
 62
7
  6
CONTINUOUS
 10
75.9677703964
 20
213.8682082478
 11
75.9677703964
 21
214.7432082478
  0
LINE
  5
2C3
100
AcDbEntity
  8
7_ALL_FEATURES
100
AcDbLine
 62
7
  6
CONTINUOUS
 10
76.8427703964
 20
213.8682082478
 11
76.8427703964
 21
213.1182082478
  0
LINE
  5
2C4
100
AcDbEntity
  8
7_ALL_FEATURES
100
AcDbLine
 62
7
  6
CONTINUOUS
 10
83.4927703964
 20
273.8682082478
 11
83.4927703964
 21
274.6182082478
  0
LINE
  5
2C5
100
AcDbEntity
  8
7_ALL_FEATURES
100
AcDbLine
 62
7
  6
CONTINUOUS
 10
84.3677703964
 20
275.4932082478
 11
84.3677703964
 21
274.6182082478
  0
LINE
  5
2C6
100
AcDbEntity
  8
7_ALL_FEATURES
100
AcDbLine
 62
7
  6
CONTINUOUS
 10
84.3677703964
 20
273.8682082478
 11
84.3677703964
 21
272.9932082478
  0
LINE
  5
2C7
100
AcDbEntity
  8
7_ALL_FEATURES
100
AcDbLine
 62
7
  6
CONTINUOUS
 10
85.1177703964
 20
272.9932082478
 11
85.1177703964
 21
273.8682082478
  0
LINE
  5
2C8
100
AcDbEntity
  8
7_ALL_FEATURES
100
AcDbLine
 62
7
  6
CONTINUOUS
 10
85.1177703964
 20
274.6182082478
 11
85.1177703964
 21
275.4932082478
  0
LINE
  5
2C9
100
AcDbEntity
  8
7_ALL_FEATURES
100
AcDbLine
 62
7
  6
CONTINUOUS
 10
85.9927703964
 20
274.6182082478
 11
85.9927703964
 21
273.8682082478
  0
LINE
  5
2CA
100
AcDbEntity
  8
7_ALL_FEATURES
100
AcDbLine
 62
7
  6
CONTINUOUS
 10
140.1677703964
 20
212.2432082478
 11
139.4177703964
 21
212.2432082478
  0
LINE
  5
2CB
100
AcDbEntity
  8
7_ALL_FEATURES
100
AcDbLine
 62
7
  6
CONTINUOUS
 10
75.9677703964
 20
212.2432082478
 11
75.2177703964
 21
212.2432082478
  0
LINE
  5
2CC
100
AcDbEntity
  8
7_ALL_FEATURES
100
AcDbLine
 62
7
  6
CONTINUOUS
 10
74.3427703964
 20
213.1182082478
 11
75.2177703964
 21
213.1182082478
  0
LINE
  5
2CD
100
AcDbEntity
  8
7_ALL_FEATURES
100
AcDbLine
 62
7
  6
CONTINUOUS
 10
75.9677703964
 20
213.1182082478
 11
76.8427703964
 21
213.1182082478
  0
LINE
  5
2CE
100
AcDbEntity
  8
7_ALL_FEATURES
100
AcDbLine
 62
7
  6
CONTINUOUS
 10
138.5427703964
 20
213.1182082478
 11
139.4177703964
 21
213.1182082478
  0
LINE
  5
2CF
100
AcDbEntity
  8
7_ALL_FEATURES
100
AcDbLine
 62
7
  6
CONTINUOUS
 10
140.1677703964
 20
213.1182082478
 11
141.0427703964
 21
213.1182082478
  0
LINE
  5
2D0
100
AcDbEntity
  8
6_ALL_SURFS
100
AcDbLine
 62
7
  6
CONTINUOUS
 10
145.4427703964
 20
188.9932082478
 11
145.1427703964
 21
189.1432082478
  0
LINE
  5
2D1
100
AcDbEntity
  8
6_ALL_SURFS
100
AcDbLine
 62
7
  6
CONTINUOUS
 10
148.4427703964
 20
188.9932082478
 11
148.1427703964
 21
189.1432082478
  0
LINE
  5
2D2
100
AcDbEntity
  8
6_ALL_SURFS
100
AcDbLine
 62
7
  6
CONTINUOUS
 10
151.4427703964
 20
188.9932082478
 11
151.1427703964
 21
189.1432082478
  0
LINE
  5
2D3
100
AcDbEntity
  8
7_ALL_FEATURES
100
AcDbLine
 62
7
  6
CONTINUOUS
 10
141.0427703964
 20
213.8682082478
 11
140.1677703964
 21
213.8682082478
  0
LINE
  5
2D4
100
AcDbEntity
  8
7_ALL_FEATURES
100
AcDbLine
 62
7
  6
CONTINUOUS
 10
139.4177703964
 20
213.8682082478
 11
138.5427703964
 21
213.8682082478
  0
LINE
  5
2D5
100
AcDbEntity
  8
7_ALL_FEATURES
100
AcDbLine
 62
7
  6
CONTINUOUS
 10
76.8427703964
 20
213.8682082478
 11
75.9677703964
 21
213.8682082478
  0
LINE
  5
2D6
100
AcDbEntity
  8
7_ALL_FEATURES
100
AcDbLine
 62
7
  6
CONTINUOUS
 10
75.2177703964
 20
213.8682082478
 11
74.3427703964
 21
213.8682082478
  0
LINE
  5
2D7
100
AcDbEntity
  8
7_ALL_FEATURES
100
AcDbLine
 62
7
  6
CONTINUOUS
 10
75.2177703964
 20
214.7432082478
 11
75.9677703964
 21
214.7432082478
  0
LINE
  5
2D8
100
AcDbEntity
  8
7_ALL_FEATURES
100
AcDbLine
 62
7
  6
CONTINUOUS
 10
139.4177703964
 20
214.7432082478
 11
140.1677703964
 21
214.7432082478
  0
LINE
  5
2D9
100
AcDbEntity
  8
6_ALL_SURFS
100
AcDbLine
 62
7
  6
CONTINUOUS
 10
141.9927703964
 20
217.8932082478
 11
141.3427703964
 21
217.8932082478
  0
LINE
  5
2DA
100
AcDbEntity
  8
6_ALL_SURFS
100
AcDbLine
 62
7
  6
CONTINUOUS
 10
74.0427703964
 20
217.8932082478
 11
73.3927703964
 21
217.8932082478
  0
LINE
  5
2DB
100
AcDbEntity
  8
6_ALL_SURFS
100
AcDbLine
 62
7
  6
CONTINUOUS
 10
154.4427703964
 20
188.9932082478
 11
154.1427703964
 21
189.1432082478
  0
LINE
  5
2DC
100
AcDbEntity
  8
6_ALL_SURFS
100
AcDbLine
 62
7
  6
CONTINUOUS
 10
157.4427703964
 20
188.9932082478
 11
157.1427703964
 21
189.1432082478
  0
LINE
  5
2DD
100
AcDbEntity
  8
6_ALL_SURFS
100
AcDbLine
 62
7
  6
CONTINUOUS
 10
160.4427703964
 20
188.9932082478
 11
160.1427703964
 21
189.1432082478
  0
LINE
  5
2DE
100
AcDbEntity
  8
7_ALL_FEATURES
100
AcDbLine
 62
7
  6
CONTINUOUS
 10
103.6927703964
 20
267.9278569429
 11
103.6927703964
 21
268.7383917412
  0
LINE
  5
2DF
100
AcDbEntity
  8
7_ALL_FEATURES
100
AcDbLine
 62
7
  6
CONTINUOUS
 10
111.6927703964
 20
267.9278569429
 11
111.6927703964
 21
268.7383917412
  0
LINE
  5
2E0
100
AcDbEntity
  8
6_ALL_SURFS
100
AcDbLine
 62
7
  6
CONTINUOUS
 10
54.9427703964
 20
188.9932082478
 11
55.2427703964
 21
189.1432082478
  0
LINE
  5
2E1
100
AcDbEntity
  8
6_ALL_SURFS
100
AcDbLine
 62
7
  6
CONTINUOUS
 10
57.9427703964
 20
188.9932082478
 11
58.2427703964
 21
189.1432082478
  0
LINE
  5
2E2
100
AcDbEntity
  8
6_ALL_SURFS
100
AcDbLine
 62
7
  6
CONTINUOUS
 10
60.9427703964
 20
188.9932082478
 11
61.2427703964
 21
189.1432082478
  0
LINE
  5
2E3
100
AcDbEntity
  8
6_ALL_SURFS
100
AcDbLine
 62
7
  6
CONTINUOUS
 10
63.9427703964
 20
188.9932082478
 11
64.2427703964
 21
189.1432082478
  0
LINE
  5
2E4
100
AcDbEntity
  8
7_ALL_FEATURES
100
AcDbLine
 62
7
  6
CONTINUOUS
 10
129.3927703964
 20
273.8682082478
 11
129.3927703964
 21
274.6182082478
  0
LINE
  5
2E5
100
AcDbEntity
  8
7_ALL_FEATURES
100
AcDbLine
 62
7
  6
CONTINUOUS
 10
130.2677703964
 20
275.4932082478
 11
130.2677703964
 21
274.6182082478
  0
LINE
  5
2E6
100
AcDbEntity
  8
7_ALL_FEATURES
100
AcDbLine
 62
7
  6
CONTINUOUS
 10
130.2677703964
 20
273.8682082478
 11
130.2677703964
 21
272.9932082478
  0
LINE
  5
2E7
100
AcDbEntity
  8
7_ALL_FEATURES
100
AcDbLine
 62
7
  6
CONTINUOUS
 10
131.0177703964
 20
272.9932082478
 11
131.0177703964
 21
273.8682082478
  0
LINE
  5
2E8
100
AcDbEntity
  8
7_ALL_FEATURES
100
AcDbLine
 62
7
  6
CONTINUOUS
 10
131.0177703964
 20
274.6182082478
 11
131.0177703964
 21
275.4932082478
  0
LINE
  5
2E9
100
AcDbEntity
  8
7_ALL_FEATURES
100
AcDbLine
 62
7
  6
CONTINUOUS
 10
131.8927703964
 20
274.6182082478
 11
131.8927703964
 21
273.8682082478
  0
LINE
  5
2EA
100
AcDbEntity
  8
6_ALL_SURFS
100
AcDbLine
 62
7
  6
CONTINUOUS
 10
66.9427703964
 20
188.9932082478
 11
67.2427703964
 21
189.1432082478
  0
LINE
  5
2EB
100
AcDbEntity
  8
6_ALL_SURFS
100
AcDbLine
 62
7
  6
CONTINUOUS
 10
69.9427703964
 20
188.9932082478
 11
70.2427703964
 21
189.1432082478
  0
LINE
  5
2EC
100
AcDbEntity
  8
6_ALL_SURFS
100
AcDbLine
 62
7
  6
CONTINUOUS
 10
118.6750003612
 20
257.8682082478
 11
117.9236977737
 21
257.8682082478
  0
LINE
  5
2ED
100
AcDbEntity
  8
6_ALL_SURFS
100
AcDbLine
 62
7
  6
CONTINUOUS
 10
97.4618430191
 20
257.8682082478
 11
96.7105404316
 21
257.8682082478
  0
LINE
  5
2EE
100
AcDbEntity
  8
6_ALL_SURFS
100
AcDbLine
 62
7
  6
CONTINUOUS
 10
96.7105404316
 20
259.1182082478
 11
97.4618430191
 21
259.1182082478
  0
LINE
  5
2EF
100
AcDbEntity
  8
6_ALL_SURFS
100
AcDbLine
 62
7
  6
CONTINUOUS
 10
117.9236977737
 20
259.1182082478
 11
118.6750003612
 21
259.1182082478
  0
LINE
  5
2F0
100
AcDbEntity
  8
7_ALL_FEATURES
100
AcDbLine
 62
7
  6
CONTINUOUS
 10
138.5427703964
 20
213.1182082478
 11
138.5427703964
 21
213.8682082478
  0
LINE
  5
2F1
100
AcDbEntity
  8
7_ALL_FEATURES
100
AcDbLine
 62
7
  6
CONTINUOUS
 10
139.4177703964
 20
214.7432082478
 11
139.4177703964
 21
213.8682082478
  0
LINE
  5
2F2
100
AcDbEntity
  8
7_ALL_FEATURES
100
AcDbLine
 62
7
  6
CONTINUOUS
 10
139.4177703964
 20
213.1182082478
 11
139.4177703964
 21
212.2432082478
  0
LINE
  5
2F3
100
AcDbEntity
  8
6_ALL_SURFS
100
AcDbLine
 62
7
  6
CONTINUOUS
 10
139.8427703964
 20
219.3932082478
 11
139.8427703964
 21
251.7179372564
  0
LINE
  5
2F4
100
AcDbEntity
  8
7_ALL_FEATURES
100
AcDbLine
 62
7
  6
CONTINUOUS
 10
139.8427703964
 20
251.7179372564
 11
139.8427703964
 21
251.8704817879
  0
LINE
  5
2F5
100
AcDbEntity
  8
7_ALL_FEATURES
100
AcDbLine
 62
7
  6
CONTINUOUS
 10
140.1677703964
 20
212.2432082478
 11
140.1677703964
 21
213.1182082478
  0
LINE
  5
2F6
100
AcDbEntity
  8
7_ALL_FEATURES
100
AcDbLine
 62
7
  6
CONTINUOUS
 10
140.1677703964
 20
213.8682082478
 11
140.1677703964
 21
214.7432082478
  0
LINE
  5
2F7
100
AcDbEntity
  8
7_ALL_FEATURES
100
AcDbLine
 62
7
  6
CONTINUOUS
 10
141.0427703964
 20
213.8682082478
 11
141.0427703964
 21
213.1182082478
  0
LINE
  5
2F8
100
AcDbEntity
  8
7_ALL_FEATURES
100
AcDbLine
 62
7
  6
CONTINUOUS
 10
142.7427703964
 20
217.1432082478
 11
142.7427703964
 21
187.2432082478
  0
LINE
  5
2F9
100
AcDbEntity
  8
7_ALL_FEATURES
100
AcDbLine
 62
7
  6
CONTINUOUS
 10
139.7240201575
 20
252.9537180363
 11
138.9714093857
 21
256.345112255
  0
LINE
  5
2FA
100
AcDbEntity
  8
7_ALL_FEATURES
100
AcDbLine
 62
7
  6
CONTINUOUS
 10
134.9806911526
 20
276.8862433919
 11
139.8216965254
 21
251.9684916517
  0
LINE
  5
2FB
100
AcDbEntity
  8
7_ALL_FEATURES
100
AcDbLine
 62
7
  6
CONTINUOUS
 10
131.0177703964
 20
272.9932082478
 11
130.2677703964
 21
272.9932082478
  0
LINE
  5
2FC
100
AcDbEntity
  8
7_ALL_FEATURES
100
AcDbLine
 62
7
  6
CONTINUOUS
 10
85.1177703964
 20
272.9932082478
 11
84.3677703964
 21
272.9932082478
  0
LINE
  5
2FD
100
AcDbEntity
  8
7_ALL_FEATURES
100
AcDbLine
 62
7
  6
CONTINUOUS
 10
83.4927703964
 20
273.8682082478
 11
84.3677703964
 21
273.8682082478
  0
LINE
  5
2FE
100
AcDbEntity
  8
7_ALL_FEATURES
100
AcDbLine
 62
7
  6
CONTINUOUS
 10
85.1177703964
 20
273.8682082478
 11
85.9927703964
 21
273.8682082478
  0
LINE
  5
2FF
100
AcDbEntity
  8
7_ALL_FEATURES
100
AcDbLine
 62
7
  6
CONTINUOUS
 10
129.3927703964
 20
273.8682082478
 11
130.2677703964
 21
273.8682082478
  0
LINE
  5
300
100
AcDbEntity
  8
7_ALL_FEATURES
100
AcDbLine
 62
7
  6
CONTINUOUS
 10
131.0177703964
 20
273.8682082478
 11
131.8927703964
 21
273.8682082478
  0
LINE
  5
301
100
AcDbEntity
  8
7_ALL_FEATURES
100
AcDbLine
 62
7
  6
CONTINUOUS
 10
131.8927703964
 20
274.6182082478
 11
131.0177703964
 21
274.6182082478
  0
LINE
  5
302
100
AcDbEntity
  8
7_ALL_FEATURES
100
AcDbLine
 62
7
  6
CONTINUOUS
 10
130.2677703964
 20
274.6182082478
 11
129.3927703964
 21
274.6182082478
  0
LINE
  5
303
100
AcDbEntity
  8
7_ALL_FEATURES
100
AcDbLine
 62
7
  6
CONTINUOUS
 10
85.9927703964
 20
274.6182082478
 11
85.1177703964
 21
274.6182082478
  0
LINE
  5
304
100
AcDbEntity
  8
7_ALL_FEATURES
100
AcDbLine
 62
7
  6
CONTINUOUS
 10
84.3677703964
 20
274.6182082478
 11
83.4927703964
 21
274.6182082478
  0
LINE
  5
305
100
AcDbEntity
  8
7_ALL_FEATURES
100
AcDbLine
 62
7
  6
CONTINUOUS
 10
84.3677703964
 20
275.4932082478
 11
85.1177703964
 21
275.4932082478
  0
LINE
  5
306
100
AcDbEntity
  8
7_ALL_FEATURES
100
AcDbLine
 62
7
  6
CONTINUOUS
 10
130.2677703964
 20
275.4932082478
 11
131.0177703964
 21
275.4932082478
  0
LINE
  5
307
100
AcDbEntity
  8
7_ALL_FEATURES
100
AcDbLine
 62
7
  6
CONTINUOUS
 10
134.2444568505
 20
277.4932082478
 11
110.3385217074
 21
277.4932082478
  0
LINE
  5
308
100
AcDbEntity
  8
7_ALL_FEATURES
100
AcDbLine
 62
7
  6
CONTINUOUS
 10
81.1410839422
 20
277.4932082478
 11
105.0470190853
 21
277.4932082478
  0
LINE
  5
309
100
AcDbEntity
  8
7_ALL_FEATURES
100
AcDbLine
 62
7
  6
CONTINUOUS
 10
105.5927703964
 20
277.4932082478
 11
109.7927703964
 21
277.4932082478
  0
LINE
  5
30A
100
AcDbEntity
  8
6_ALL_SURFS
100
AcDbLine
 62
7
  6
CONTINUOUS
 10
145.1427703964
 20
189.1432082478
 11
144.8427703964
 21
188.9932082478
  0
LINE
  5
30B
100
AcDbEntity
  8
6_ALL_SURFS
100
AcDbLine
 62
7
  6
CONTINUOUS
 10
148.1427703964
 20
189.1432082478
 11
147.8427703964
 21
188.9932082478
  0
LINE
  5
30C
100
AcDbEntity
  8
6_ALL_SURFS
100
AcDbLine
 62
7
  6
CONTINUOUS
 10
151.1427703964
 20
189.1432082478
 11
150.8427703964
 21
188.9932082478
  0
LINE
  5
30D
100
AcDbEntity
  8
6_ALL_SURFS
100
AcDbLine
 62
7
  6
CONTINUOUS
 10
154.1427703964
 20
189.1432082478
 11
153.8427703964
 21
188.9932082478
  0
LINE
  5
30E
100
AcDbEntity
  8
6_ALL_SURFS
100
AcDbLine
 62
7
  6
CONTINUOUS
 10
157.1427703964
 20
189.1432082478
 11
156.8427703964
 21
188.9932082478
  0
LINE
  5
30F
100
AcDbEntity
  8
6_ALL_SURFS
100
AcDbLine
 62
7
  6
CONTINUOUS
 10
160.1427703964
 20
189.1432082478
 11
159.8427703964
 21
188.9932082478
  0
LINE
  5
310
100
AcDbEntity
  8
3_ALL_AXES
100
AcDbLine
 62
7
  6
CONTINUOUS
 10
210.2516951503
 20
210.7432563139
 11
210.2516951503
 21
216.2431601816
  0
LINE
  5
311
100
AcDbEntity
  8
3_ALL_AXES
100
AcDbLine
 62
7
  6
CONTINUOUS
 10
210.2516951503
 20
271.4932563139
 11
210.2516951503
 21
276.9931601816
  0
LINE
  5
312
100
AcDbEntity
  8
3_ALL_AXES
100
AcDbLine
 62
7
  6
CONTINUOUS
 10
210.4024154799
 20
210.7432082478
 11
210.4024154799
 21
216.2432082478
  0
LINE
  5
313
100
AcDbEntity
  8
3_ALL_AXES
100
AcDbLine
 62
7
  6
CONTINUOUS
 10
210.4024154799
 20
271.4932082478
 11
210.4024154799
 21
276.9932082478
  0
LINE
  5
314
100
AcDbEntity
  8
7_ALL_FEATURES
100
AcDbLine
 62
7
  6
CONTINUOUS
 10
211.3516951503
 20
186.4932082478
 11
211.3516951503
 21
217.1432082478
  0
LINE
  5
315
100
AcDbEntity
  8
6_ALL_SURFS
100
AcDbLine
 62
7
  6
CONTINUOUS
 10
211.3516951503
 20
217.1432082478
 11
211.3516951503
 21
251.7179372564
  0
LINE
  5
316
100
AcDbEntity
  8
7_ALL_FEATURES
100
AcDbLine
 62
7
  6
CONTINUOUS
 10
211.3516951503
 20
251.7179372564
 11
211.3516951503
 21
277.4932082478
  0
LINE
  5
317
100
AcDbEntity
  8
7_ALL_FEATURES
100
AcDbLine
 62
7
  6
CONTINUOUS
 10
212.8516951503
 20
251.8018195065
 11
212.8516951503
 21
251.7179372564
  0
LINE
  5
318
100
AcDbEntity
  8
7_ALL_FEATURES
100
AcDbLine
 62
7
  6
CONTINUOUS
 10
212.8516951503
 20
217.1432082478
 11
212.8516951503
 21
201.867993041
  0
LINE
  5
319
100
AcDbEntity
  8
7_ALL_FEATURES
100
AcDbLine
 62
7
  6
CONTINUOUS
 10
212.8516951503
 20
199.1222753149
 11
212.8516951503
 21
189.1432082478
  0
LINE
  5
31A
100
AcDbEntity
  8
6_ALL_SURFS
100
AcDbLine
 62
7
  6
CONTINUOUS
 10
212.8516951503
 20
186.54102415
 11
212.8516951503
 21
186.4932082478
  0
LINE
  5
31B
100
AcDbEntity
  8
7_ALL_FEATURES
100
AcDbLine
 62
7
  6
CONTINUOUS
 10
212.8516951503
 20
186.54102415
 11
212.8516951503
 21
187.9932082478
  0
LINE
  5
31C
100
AcDbEntity
  8
6_ALL_SURFS
100
AcDbLine
 62
7
  6
CONTINUOUS
 10
212.8516951503
 20
187.9932082478
 11
212.8516951503
 21
189.1432082478
  0
LINE
  5
31D
100
AcDbEntity
  8
6_ALL_SURFS
100
AcDbLine
 62
7
  6
CONTINUOUS
 10
212.8516951503
 20
199.1222753149
 11
212.8516951503
 21
201.867993041
  0
LINE
  5
31E
100
AcDbEntity
  8
6_ALL_SURFS
100
AcDbLine
 62
7
  6
CONTINUOUS
 10
212.8516951503
 20
212.0932082478
 11
212.8516951503
 21
214.8932082478
  0
LINE
  5
31F
100
AcDbEntity
  8
6_ALL_SURFS
100
AcDbLine
 62
7
  6
CONTINUOUS
 10
212.8516951503
 20
217.1432082478
 11
212.8516951503
 21
256.345112255
  0
LINE
  5
320
100
AcDbEntity
  8
7_ALL_FEATURES
100
AcDbLine
 62
7
  6
CONTINUOUS
 10
212.8516951503
 20
256.345112255
 11
212.8516951503
 21
277.4932082478
  0
LINE
  5
321
100
AcDbEntity
  8
3_ALL_AXES
100
AcDbLine
 62
7
  6
CONTINUOUS
 10
211.3516951503
 20
272.2897484691
 11
210.4024154799
 21
271.4932082478
  0
LINE
  5
322
100
AcDbEntity
  8
3_ALL_AXES
100
AcDbLine
 62
7
  6
CONTINUOUS
 10
211.3516951503
 20
215.4466680265
 11
210.4024154799
 21
216.2432082478
  0
LINE
  5
323
100
AcDbEntity
  8
3_ALL_AXES
100
AcDbLine
 62
7
  6
CONTINUOUS
 10
211.3516951503
 20
211.5397484691
 11
210.4024154799
 21
210.7432082478
  0
LINE
  5
324
100
AcDbEntity
  8
3_ALL_AXES
100
AcDbLine
 62
7
  6
CONTINUOUS
 10
211.3516951503
 20
276.1966680265
 11
210.4024154799
 21
276.9932082478
  0
LINE
  5
325
100
AcDbEntity
  8
6_ALL_SURFS
100
AcDbLine
 62
7
  6
CONTINUOUS
 10
776.8516951503
 20
186.4932082478
 11
212.8516951503
 21
186.4932082478
  0
LINE
  5
326
100
AcDbEntity
  8
7_ALL_FEATURES
100
AcDbLine
 62
7
  6
CONTINUOUS
 10
212.8516951503
 20
186.4932082478
 11
211.3516951503
 21
186.4932082478
  0
LINE
  5
327
100
AcDbEntity
  8
7_ALL_FEATURES
100
AcDbLine
 62
7
  6
CONTINUOUS
 10
776.8516951503
 20
186.4932082478
 11
778.3516951503
 21
186.4932082478
  0
LINE
  5
328
100
AcDbEntity
  8
6_ALL_SURFS
100
AcDbLine
 62
9
  6
CONTINUOUS
 10
776.8516951503
 20
186.7932082478
 11
212.8516951503
 21
186.7932082478
  0
LINE
  5
329
100
AcDbEntity
  8
7_ALL_FEATURES
100
AcDbLine
 62
9
  6
CONTINUOUS
 10
212.8516951503
 20
187.2432082478
 11
211.3516951503
 21
187.2432082478
  0
LINE
  5
32A
100
AcDbEntity
  8
7_ALL_FEATURES
100
AcDbLine
 62
9
  6
CONTINUOUS
 10
776.8516951503
 20
187.2432082478
 11
778.3516951503
 21
187.2432082478
  0
LINE
  5
32B
100
AcDbEntity
  8
6_ALL_SURFS
100
AcDbLine
 62
9
  6
CONTINUOUS
 10
212.8516951503
 20
187.6932082478
 11
776.8516951503
 21
187.6932082478
  0
LINE
  5
32C
100
AcDbEntity
  8
6_ALL_SURFS
100
AcDbLine
 62
7
  6
CONTINUOUS
 10
212.8516951503
 20
187.9932082478
 11
776.8516951503
 21
187.9932082478
  0
LINE
  5
32D
100
AcDbEntity
  8
6_ALL_SURFS
100
AcDbLine
 62
9
  6
CONTINUOUS
 10
212.8516951503
 20
188.2077554068
 11
776.8516951503
 21
188.2077554068
  0
LINE
  5
32E
100
AcDbEntity
  8
6_ALL_SURFS
100
AcDbLine
 62
7
  6
CONTINUOUS
 10
212.8516951503
 20
188.9932082478
 11
776.8516951503
 21
188.9932082478
  0
LINE
  5
32F
100
AcDbEntity
  8
6_ALL_SURFS
100
AcDbLine
 62
7
  6
CONTINUOUS
 10
212.8516951503
 20
189.1432082478
 11
776.8516951503
 21
189.1432082478
  0
LINE
  5
330
100
AcDbEntity
  8
6_ALL_SURFS
100
AcDbLine
 62
9
  6
CONTINUOUS
 10
212.8516951503
 20
189.2932082478
 11
776.8516951503
 21
189.2932082478
  0
LINE
  5
331
100
AcDbEntity
  8
6_ALL_SURFS
100
AcDbLine
 62
7
  6
CONTINUOUS
 10
212.8516951503
 20
199.0051677354
 11
776.8516951503
 21
199.0051677354
  0
LINE
  5
332
100
AcDbEntity
  8
6_ALL_SURFS
100
AcDbLine
 62
7
  6
CONTINUOUS
 10
212.8516951503
 20
201.9851006205
 11
776.8516951503
 21
201.9851006205
  0
LINE
  5
333
100
AcDbEntity
  8
6_ALL_SURFS
100
AcDbLine
 62
9
  6
CONTINUOUS
 10
776.8516951503
 20
205.4932082478
 11
212.8516951503
 21
205.4932082478
  0
LINE
  5
334
100
AcDbEntity
  8
6_ALL_SURFS
100
AcDbLine
 62
9
  6
CONTINUOUS
 10
776.8516951503
 20
206.5162057879
 11
212.8516951503
 21
206.5162057879
  0
LINE
  5
335
100
AcDbEntity
  8
6_ALL_SURFS
100
AcDbLine
 62
9
  6
CONTINUOUS
 10
212.8516951503
 20
208.6785693709
 11
776.8516951503
 21
208.6785693709
  0
LINE
  5
336
100
AcDbEntity
  8
6_ALL_SURFS
100
AcDbLine
 62
9
  6
CONTINUOUS
 10
212.8516951503
 20
208.8831688789
 11
776.8516951503
 21
208.8831688789
  0
LINE
  5
337
100
AcDbEntity
  8
6_ALL_SURFS
100
AcDbLine
 62
9
  6
CONTINUOUS
 10
212.8516951503
 20
210.2932082478
 11
776.8516951503
 21
210.2932082478
  0
LINE
  5
338
100
AcDbEntity
  8
6_ALL_SURFS
100
AcDbLine
 62
7
  6
CONTINUOUS
 10
776.8516951503
 20
210.5932082478
 11
212.8516951503
 21
210.5932082478
  0
LINE
  5
339
100
AcDbEntity
  8
3_ALL_AXES
100
AcDbLine
 62
7
  6
CONTINUOUS
 10
210.4024154799
 20
210.7432082478
 11
210.2516951503
 21
210.7432082478
  0
LINE
  5
33A
100
AcDbEntity
  8
3_ALL_AXES
100
AcDbLine
 62
7
  6
CONTINUOUS
 10
779.3009748206
 20
210.7432082478
 11
779.4516951503
 21
210.7432082478
  0
LINE
  5
33B
100
AcDbEntity
  8
6_ALL_SURFS
100
AcDbLine
 62
9
  6
CONTINUOUS
 10
776.8516951503
 20
212.0932082478
 11
212.8516951503
 21
212.0932082478
  0
LINE
  5
33C
100
AcDbEntity
  8
6_ALL_SURFS
100
AcDbLine
 62
9
  6
CONTINUOUS
 10
776.8516951503
 20
214.8932082478
 11
212.8516951503
 21
214.8932082478
  0
LINE
  5
33D
100
AcDbEntity
  8
3_ALL_AXES
100
AcDbLine
 62
7
  6
CONTINUOUS
 10
210.4024154799
 20
216.2432082478
 11
210.2516951503
 21
216.2432082478
  0
LINE
  5
33E
100
AcDbEntity
  8
3_ALL_AXES
100
AcDbLine
 62
7
  6
CONTINUOUS
 10
779.3009748206
 20
216.2432082478
 11
779.4516951503
 21
216.2432082478
  0
LINE
  5
33F
100
AcDbEntity
  8
6_ALL_SURFS
100
AcDbLine
 62
7
  6
CONTINUOUS
 10
776.8516951503
 20
216.3932082478
 11
212.8516951503
 21
216.3932082478
  0
LINE
  5
340
100
AcDbEntity
  8
6_ALL_SURFS
100
AcDbLine
 62
9
  6
CONTINUOUS
 10
212.8516951503
 20
216.6932082478
 11
776.8516951503
 21
216.6932082478
  0
LINE
  5
341
100
AcDbEntity
  8
6_ALL_SURFS
100
AcDbLine
 62
9
  6
CONTINUOUS
 10
778.3516951503
 20
217.1432082478
 11
776.8516951503
 21
217.1432082478
  0
LINE
  5
342
100
AcDbEntity
  8
6_ALL_SURFS
100
AcDbLine
 62
9
  6
CONTINUOUS
 10
211.3516951503
 20
217.1432082478
 11
212.8516951503
 21
217.1432082478
  0
LINE
  5
343
100
AcDbEntity
  8
6_ALL_SURFS
100
AcDbLine
 62
7
  6
CONTINUOUS
 10
778.3516951503
 20
217.8932082478
 11
776.8516951503
 21
217.8932082478
  0
LINE
  5
344
100
AcDbEntity
  8
6_ALL_SURFS
100
AcDbLine
 62
7
  6
CONTINUOUS
 10
211.3516951503
 20
217.8932082478
 11
212.8516951503
 21
217.8932082478
  0
LINE
  5
345
100
AcDbEntity
  8
6_ALL_SURFS
100
AcDbLine
 62
9
  6
CONTINUOUS
 10
212.8516951503
 20
219.3932082478
 11
211.3516951503
 21
219.3932082478
  0
LINE
  5
346
100
AcDbEntity
  8
6_ALL_SURFS
100
AcDbLine
 62
9
  6
CONTINUOUS
 10
776.8516951503
 20
219.3932082478
 11
778.3516951503
 21
219.3932082478
  0
LINE
  5
347
100
AcDbEntity
  8
6_ALL_SURFS
100
AcDbLine
 62
9
  6
CONTINUOUS
 10
778.3516951503
 20
251.7130998685
 11
776.8516951503
 21
251.7130998685
  0
LINE
  5
348
100
AcDbEntity
  8
6_ALL_SURFS
100
AcDbLine
 62
9
  6
CONTINUOUS
 10
211.3516951503
 20
251.7179372564
 11
212.8516951503
 21
251.7179372564
  0
LINE
  5
349
100
AcDbEntity
  8
6_ALL_SURFS
100
AcDbLine
 62
9
  6
CONTINUOUS
 10
776.8516951503
 20
251.8704817879
 11
212.8516951503
 21
251.8704817879
  0
LINE
  5
34A
100
AcDbEntity
  8
7_ALL_FEATURES
100
AcDbLine
 62
7
  6
CONTINUOUS
 10
211.3516951503
 20
251.9684916517
 11
212.8516951503
 21
251.9684916517
  0
LINE
  5
34B
100
AcDbEntity
  8
6_ALL_SURFS
100
AcDbLine
 62
9
  6
CONTINUOUS
 10
778.3516951503
 20
252.0041472851
 11
776.8516951503
 21
252.0041472851
  0
LINE
  5
34C
100
AcDbEntity
  8
6_ALL_SURFS
100
AcDbLine
 62
9
  6
CONTINUOUS
 10
776.8516951503
 20
252.9537180363
 11
212.8516951503
 21
252.9537180363
  0
LINE
  5
34D
100
AcDbEntity
  8
6_ALL_SURFS
100
AcDbLine
 62
9
  6
CONTINUOUS
 10
776.8516951503
 20
270.9181791223
 11
212.8516951503
 21
270.9181791223
  0
LINE
  5
34E
100
AcDbEntity
  8
3_ALL_AXES
100
AcDbLine
 62
7
  6
CONTINUOUS
 10
210.4024154799
 20
271.4932082478
 11
210.2516951503
 21
271.4932082478
  0
LINE
  5
34F
100
AcDbEntity
  8
3_ALL_AXES
100
AcDbLine
 62
7
  6
CONTINUOUS
 10
779.3009748206
 20
271.4932082478
 11
779.4516951503
 21
271.4932082478
  0
LINE
  5
350
100
AcDbEntity
  8
6_ALL_SURFS
100
AcDbLine
 62
7
  6
CONTINUOUS
 10
776.8516951503
 20
272.0932082478
 11
212.8516951503
 21
272.0932082478
  0
LINE
  5
351
100
AcDbEntity
  8
6_ALL_SURFS
100
AcDbLine
 62
9
  6
CONTINUOUS
 10
212.8516951503
 20
272.8432082478
 11
776.8516951503
 21
272.8432082478
  0
LINE
  5
352
100
AcDbEntity
  8
6_ALL_SURFS
100
AcDbLine
 62
9
  6
CONTINUOUS
 10
212.8516951503
 20
275.4735112781
 11
776.8516951503
 21
275.4735112781
  0
LINE
  5
353
100
AcDbEntity
  8
6_ALL_SURFS
100
AcDbLine
 62
7
  6
CONTINUOUS
 10
776.8516951503
 20
276.1932082478
 11
212.8516951503
 21
276.1932082478
  0
LINE
  5
354
100
AcDbEntity
  8
6_ALL_SURFS
100
AcDbLine
 62
9
  6
CONTINUOUS
 10
776.8516951503
 20
276.4932082478
 11
212.8516951503
 21
276.4932082478
  0
LINE
  5
355
100
AcDbEntity
  8
7_ALL_FEATURES
100
AcDbLine
 62
9
  6
CONTINUOUS
 10
211.3516951503
 20
276.8862433919
 11
212.8516951503
 21
276.8862433919
  0
LINE
  5
356
100
AcDbEntity
  8
7_ALL_FEATURES
100
AcDbLine
 62
9
  6
CONTINUOUS
 10
778.3516951503
 20
276.8887319561
 11
776.8516951503
 21
276.8887319561
  0
LINE
  5
357
100
AcDbEntity
  8
3_ALL_AXES
100
AcDbLine
 62
7
  6
CONTINUOUS
 10
210.4024154799
 20
276.9932082478
 11
210.2516951503
 21
276.9932082478
  0
LINE
  5
358
100
AcDbEntity
  8
3_ALL_AXES
100
AcDbLine
 62
7
  6
CONTINUOUS
 10
779.3009748206
 20
276.9932082478
 11
779.4516951503
 21
276.9932082478
  0
LINE
  5
359
100
AcDbEntity
  8
6_ALL_SURFS
100
AcDbLine
 62
9
  6
CONTINUOUS
 10
776.8516951503
 20
277.1932082478
 11
212.8516951503
 21
277.1932082478
  0
LINE
  5
35A
100
AcDbEntity
  8
7_ALL_FEATURES
100
AcDbLine
 62
7
  6
CONTINUOUS
 10
778.3516951503
 20
277.4932082478
 11
776.8516951503
 21
277.4932082478
  0
LINE
  5
35B
100
AcDbEntity
  8
6_ALL_SURFS
100
AcDbLine
 62
7
  6
CONTINUOUS
 10
776.8516951503
 20
277.4932082478
 11
212.8516951503
 21
277.4932082478
  0
LINE
  5
35C
100
AcDbEntity
  8
7_ALL_FEATURES
100
AcDbLine
 62
7
  6
CONTINUOUS
 10
211.3516951503
 20
277.4932082478
 11
212.8516951503
 21
277.4932082478
  0
LINE
  5
35D
100
AcDbEntity
  8
3_ALL_AXES
100
AcDbLine
 62
7
  6
CONTINUOUS
 10
778.3516951503
 20
276.1966680265
 11
779.3009748206
 21
276.9932082478
  0
LINE
  5
35E
100
AcDbEntity
  8
3_ALL_AXES
100
AcDbLine
 62
7
  6
CONTINUOUS
 10
778.3516951503
 20
211.5397484691
 11
779.3009748206
 21
210.7432082478
  0
LINE
  5
35F
100
AcDbEntity
  8
3_ALL_AXES
100
AcDbLine
 62
7
  6
CONTINUOUS
 10
778.3516951503
 20
215.4466680265
 11
779.3009748206
 21
216.2432082478
  0
LINE
  5
360
100
AcDbEntity
  8
3_ALL_AXES
100
AcDbLine
 62
7
  6
CONTINUOUS
 10
778.3516951503
 20
272.2897484691
 11
779.3009748206
 21
271.4932082478
  0
LINE
  5
361
100
AcDbEntity
  8
6_ALL_SURFS
100
AcDbLine
 62
7
  6
CONTINUOUS
 10
776.8516951503
 20
186.4932082478
 11
776.8516951503
 21
186.54102415
  0
LINE
  5
362
100
AcDbEntity
  8
7_ALL_FEATURES
100
AcDbLine
 62
7
  6
CONTINUOUS
 10
776.8516951503
 20
186.54102415
 11
776.8516951503
 21
187.9932082478
  0
LINE
  5
363
100
AcDbEntity
  8
6_ALL_SURFS
100
AcDbLine
 62
7
  6
CONTINUOUS
 10
776.8516951503
 20
187.9932082478
 11
776.8516951503
 21
189.1432082478
  0
LINE
  5
364
100
AcDbEntity
  8
7_ALL_FEATURES
100
AcDbLine
 62
7
  6
CONTINUOUS
 10
776.8516951503
 20
189.1432082478
 11
776.8516951503
 21
199.1222753149
  0
LINE
  5
365
100
AcDbEntity
  8
6_ALL_SURFS
100
AcDbLine
 62
7
  6
CONTINUOUS
 10
776.8516951503
 20
199.1222753149
 11
776.8516951503
 21
201.867993041
  0
LINE
  5
366
100
AcDbEntity
  8
6_ALL_SURFS
100
AcDbLine
 62
7
  6
CONTINUOUS
 10
776.8516951503
 20
212.0932082478
 11
776.8516951503
 21
214.8932082478
  0
LINE
  5
367
100
AcDbEntity
  8
7_ALL_FEATURES
100
AcDbLine
 62
7
  6
CONTINUOUS
 10
776.8516951503
 20
201.867993041
 11
776.8516951503
 21
217.1432082478
  0
LINE
  5
368
100
AcDbEntity
  8
6_ALL_SURFS
100
AcDbLine
 62
7
  6
CONTINUOUS
 10
776.8516951503
 20
217.1432082478
 11
776.8516951503
 21
256.9978180905
  0
LINE
  5
369
100
AcDbEntity
  8
7_ALL_FEATURES
100
AcDbLine
 62
7
  6
CONTINUOUS
 10
776.8516951503
 20
256.9978180905
 11
776.8516951503
 21
277.4932082478
  0
LINE
  5
36A
100
AcDbEntity
  8
7_ALL_FEATURES
100
AcDbLine
 62
7
  6
CONTINUOUS
 10
778.3516951503
 20
277.4932082478
 11
778.3516951503
 21
252.0041472851
  0
LINE
  5
36B
100
AcDbEntity
  8
6_ALL_SURFS
100
AcDbLine
 62
7
  6
CONTINUOUS
 10
778.3516951503
 20
252.0041472851
 11
778.3516951503
 21
217.1432082478
  0
LINE
  5
36C
100
AcDbEntity
  8
7_ALL_FEATURES
100
AcDbLine
 62
7
  6
CONTINUOUS
 10
778.3516951503
 20
186.4932082478
 11
778.3516951503
 21
217.1432082478
  0
LINE
  5
36D
100
AcDbEntity
  8
3_ALL_AXES
100
AcDbLine
 62
7
  6
CONTINUOUS
 10
779.3009748206
 20
210.7432082478
 11
779.3009748206
 21
216.2432082478
  0
LINE
  5
36E
100
AcDbEntity
  8
3_ALL_AXES
100
AcDbLine
 62
7
  6
CONTINUOUS
 10
779.3009748206
 20
271.4932082478
 11
779.3009748206
 21
276.9932082478
  0
LINE
  5
36F
100
AcDbEntity
  8
3_ALL_AXES
100
AcDbLine
 62
7
  6
CONTINUOUS
 10
779.4516951503
 20
210.7432563139
 11
779.4516951503
 21
216.2431601816
  0
LINE
  5
370
100
AcDbEntity
  8
3_ALL_AXES
100
AcDbLine
 62
7
  6
CONTINUOUS
 10
779.4516951503
 20
271.4932563139
 11
779.4516951503
 21
276.9931601816
  0
LINE
  5
371
100
AcDbEntity
  8
3_ALL_AXES
100
AcDbLine
 62
7
  6
CONTINUOUS
 10
210.2516951503
 20
478.2612559855
 11
210.2516951503
 21
472.7612559855
  0
LINE
  5
372
100
AcDbEntity
  8
3_ALL_AXES
100
AcDbLine
 62
7
  6
CONTINUOUS
 10
210.2516951503
 20
469.1112559855
 11
210.2516951503
 21
463.6112559855
  0
LINE
  5
373
100
AcDbEntity
  8
3_ALL_AXES
100
AcDbLine
 62
7
  6
CONTINUOUS
 10
210.2516951503
 20
423.2112559855
 11
210.2516951503
 21
417.7112559855
  0
LINE
  5
374
100
AcDbEntity
  8
3_ALL_AXES
100
AcDbLine
 62
7
  6
CONTINUOUS
 10
210.2516951503
 20
414.0612559855
 11
210.2516951503
 21
408.5612559855
  0
LINE
  5
375
100
AcDbEntity
  8
3_ALL_AXES
100
AcDbLine
 62
7
  6
CONTINUOUS
 10
210.4024154799
 20
478.2612559855
 11
210.4024154799
 21
472.7612559855
  0
LINE
  5
376
100
AcDbEntity
  8
3_ALL_AXES
100
AcDbLine
 62
7
  6
CONTINUOUS
 10
210.4024154799
 20
469.1112559855
 11
210.4024154799
 21
463.6112559855
  0
LINE
  5
377
100
AcDbEntity
  8
3_ALL_AXES
100
AcDbLine
 62
7
  6
CONTINUOUS
 10
210.4024154799
 20
423.2112559855
 11
210.4024154799
 21
417.7112559855
  0
LINE
  5
378
100
AcDbEntity
  8
3_ALL_AXES
100
AcDbLine
 62
7
  6
CONTINUOUS
 10
210.4024154799
 20
414.0612559855
 11
210.4024154799
 21
408.5612559855
  0
LINE
  5
379
100
AcDbEntity
  8
7_ALL_FEATURES
100
AcDbLine
 62
7
  6
CONTINUOUS
 10
211.3516951503
 20
408.3612559855
 11
211.3516951503
 21
478.4612559855
  0
LINE
  5
37A
100
AcDbEntity
  8
6_ALL_SURFS
100
AcDbLine
 62
7
  6
CONTINUOUS
 10
212.8516951503
 20
406.2612559855
 11
212.8516951503
 21
390.9612559855
  0
LINE
  5
37B
100
AcDbEntity
  8
7_ALL_FEATURES
100
AcDbLine
 62
7
  6
CONTINUOUS
 10
212.8516951503
 20
388.4612604851
 11
212.8516951503
 21
390.9612559855
  0
LINE
  5
37C
100
AcDbEntity
  8
7_ALL_FEATURES
100
AcDbLine
 62
7
  6
CONTINUOUS
 10
212.8516951503
 20
406.2612559855
 11
212.8516951503
 21
477.7952293426
  0
LINE
  5
37D
100
AcDbEntity
  8
6_ALL_SURFS
100
AcDbLine
 62
7
  6
CONTINUOUS
 10
212.8516951503
 20
477.1612559855
 11
212.8516951503
 21
477.9727948628
  0
LINE
  5
37E
100
AcDbEntity
  8
7_ALL_FEATURES
100
AcDbLine
 62
7
  6
CONTINUOUS
 10
212.8516951503
 20
477.9727948628
 11
212.8516951503
 21
478.4612559855
  0
LINE
  5
37F
100
AcDbEntity
  8
6_ALL_SURFS
100
AcDbLine
 62
7
  6
CONTINUOUS
 10
212.8516951503
 20
478.4612559855
 11
212.8516951503
 21
498.3612514859
  0
LINE
  5
380
100
AcDbEntity
  8
7_ALL_FEATURES
100
AcDbLine
 62
7
  6
CONTINUOUS
 10
213.3516951503
 20
410.1112559855
 11
213.3516951503
 21
476.7112559855
  0
LINE
  5
381
100
AcDbEntity
  8
3_ALL_AXES
100
AcDbLine
 62
7
  6
CONTINUOUS
 10
210.4024154799
 20
472.7612559855
 11
211.3516951503
 21
473.5577962068
  0
LINE
  5
382
100
AcDbEntity
  8
3_ALL_AXES
100
AcDbLine
 62
7
  6
CONTINUOUS
 10
210.4024154799
 20
463.6112559855
 11
211.3516951503
 21
464.4077962068
  0
LINE
  5
383
100
AcDbEntity
  8
3_ALL_AXES
100
AcDbLine
 62
7
  6
CONTINUOUS
 10
210.4024154799
 20
414.0612559855
 11
211.3516951503
 21
413.2647157642
  0
LINE
  5
384
100
AcDbEntity
  8
3_ALL_AXES
100
AcDbLine
 62
7
  6
CONTINUOUS
 10
210.4024154799
 20
423.2112559855
 11
211.3516951503
 21
422.4147157642
  0
LINE
  5
385
100
AcDbEntity
  8
3_ALL_AXES
100
AcDbLine
 62
7
  6
CONTINUOUS
 10
210.4024154799
 20
417.7112559855
 11
211.3516951503
 21
418.5077962068
  0
LINE
  5
386
100
AcDbEntity
  8
3_ALL_AXES
100
AcDbLine
 62
7
  6
CONTINUOUS
 10
210.4024154799
 20
408.5612559855
 11
211.3516951503
 21
409.3577962068
  0
LINE
  5
387
100
AcDbEntity
  8
3_ALL_AXES
100
AcDbLine
 62
7
  6
CONTINUOUS
 10
210.4024154799
 20
469.1112559855
 11
211.3516951503
 21
468.3147157642
  0
LINE
  5
388
100
AcDbEntity
  8
3_ALL_AXES
100
AcDbLine
 62
7
  6
CONTINUOUS
 10
210.4024154799
 20
478.2612559855
 11
211.3516951503
 21
477.4647157642
  0
LINE
  5
389
100
AcDbEntity
  8
7_ALL_FEATURES
100
AcDbLine
 62
7
  6
CONTINUOUS
 10
212.8516951503
 20
388.4612559855
 11
776.8516951503
 21
388.4612559855
  0
LINE
  5
38A
100
AcDbEntity
  8
7_ALL_FEATURES
100
AcDbLine
 62
9
  6
CONTINUOUS
 10
212.8516951503
 20
388.8157843951
 11
776.8516951503
 21
388.8157843951
  0
LINE
  5
38B
100
AcDbEntity
  8
7_ALL_FEATURES
100
AcDbLine
 62
7
  6
CONTINUOUS
 10
212.8516951503
 20
390.9612559855
 11
238.5682873566
 21
390.9612559855
  0
LINE
  5
38C
100
AcDbEntity
  8
7_ALL_FEATURES
100
AcDbLine
 62
7
  6
CONTINUOUS
 10
245.135102944
 20
390.9612559855
 11
488.5682873566
 21
390.9612559855
  0
LINE
  5
38D
100
AcDbEntity
  8
7_ALL_FEATURES
100
AcDbLine
 62
7
  6
CONTINUOUS
 10
495.135102944
 20
390.9612559855
 11
738.5682873566
 21
390.9612559855
  0
LINE
  5
38E
100
AcDbEntity
  8
7_ALL_FEATURES
100
AcDbLine
 62
7
  6
CONTINUOUS
 10
745.135102944
 20
390.9612559855
 11
776.8516951503
 21
390.9612559855
  0
LINE
  5
38F
100
AcDbEntity
  8
7_ALL_FEATURES
100
AcDbLine
 62
7
  6
CONTINUOUS
 10
212.8516951503
 20
393.6612559855
 11
237.1198068655
 21
393.6612559855
  0
LINE
  5
390
100
AcDbEntity
  8
7_ALL_FEATURES
100
AcDbLine
 62
7
  6
CONTINUOUS
 10
246.583583435
 20
393.6612559855
 11
487.1198068655
 21
393.6612559855
  0
LINE
  5
391
100
AcDbEntity
  8
7_ALL_FEATURES
100
AcDbLine
 62
7
  6
CONTINUOUS
 10
496.583583435
 20
393.6612559855
 11
737.1198068655
 21
393.6612559855
  0
LINE
  5
392
100
AcDbEntity
  8
7_ALL_FEATURES
100
AcDbLine
 62
7
  6
CONTINUOUS
 10
746.583583435
 20
393.6612559855
 11
776.8516951503
 21
393.6612559855
  0
LINE
  5
393
100
AcDbEntity
  8
7_ALL_FEATURES
100
AcDbLine
 62
7
  6
CONTINUOUS
 10
212.8516951503
 20
394.2612559855
 11
237.0568263575
 21
394.2612559855
  0
LINE
  5
394
100
AcDbEntity
  8
7_ALL_FEATURES
100
AcDbLine
 62
7
  6
CONTINUOUS
 10
246.646563943
 20
394.2612559855
 11
487.0568263575
 21
394.2612559855
  0
LINE
  5
395
100
AcDbEntity
  8
7_ALL_FEATURES
100
AcDbLine
 62
7
  6
CONTINUOUS
 10
496.646563943
 20
394.2612559855
 11
737.0568263575
 21
394.2612559855
  0
LINE
  5
396
100
AcDbEntity
  8
7_ALL_FEATURES
100
AcDbLine
 62
7
  6
CONTINUOUS
 10
746.646563943
 20
394.2612559855
 11
776.8516951503
 21
394.2612559855
  0
LINE
  5
397
100
AcDbEntity
  8
7_ALL_FEATURES
100
AcDbLine
 62
7
  6
CONTINUOUS
 10
212.8516951503
 20
396.6612559855
 11
237.5866316408
 21
396.6612559855
  0
LINE
  5
398
100
AcDbEntity
  8
7_ALL_FEATURES
100
AcDbLine
 62
7
  6
CONTINUOUS
 10
246.1167586597
 20
396.6612559855
 11
487.5866316408
 21
396.6612559855
  0
LINE
  5
399
100
AcDbEntity
  8
7_ALL_FEATURES
100
AcDbLine
 62
7
  6
CONTINUOUS
 10
496.1167586597
 20
396.6612559855
 11
737.5866316408
 21
396.6612559855
  0
LINE
  5
39A
100
AcDbEntity
  8
7_ALL_FEATURES
100
AcDbLine
 62
7
  6
CONTINUOUS
 10
746.1167586597
 20
396.6612559855
 11
776.8516951503
 21
396.6612559855
  0
LINE
  5
39B
100
AcDbEntity
  8
7_ALL_FEATURES
100
AcDbLine
 62
7
  6
CONTINUOUS
 10
212.8516951503
 20
397.2612559855
 11
237.9541617329
 21
397.2612559855
  0
LINE
  5
39C
100
AcDbEntity
  8
7_ALL_FEATURES
100
AcDbLine
 62
7
  6
CONTINUOUS
 10
245.7492285676
 20
397.2612559855
 11
487.9541617329
 21
397.2612559855
  0
LINE
  5
39D
100
AcDbEntity
  8
7_ALL_FEATURES
100
AcDbLine
 62
7
  6
CONTINUOUS
 10
495.7492285676
 20
397.2612559855
 11
737.9541617329
 21
397.2612559855
  0
LINE
  5
39E
100
AcDbEntity
  8
7_ALL_FEATURES
100
AcDbLine
 62
7
  6
CONTINUOUS
 10
745.7492285676
 20
397.2612559855
 11
776.8516951503
 21
397.2612559855
  0
LINE
  5
39F
100
AcDbEntity
  8
6_ALL_SURFS
100
AcDbLine
 62
7
  6
CONTINUOUS
 10
212.8516951503
 20
399.6612559855
 11
776.8516951503
 21
399.6612559855
  0
LINE
  5
3A0
100
AcDbEntity
  8
6_ALL_SURFS
100
AcDbLine
 62
7
  6
CONTINUOUS
 10
212.8516951503
 20
400.2612559855
 11
776.8516951503
 21
400.2612559855
  0
LINE
  5
3A1
100
AcDbEntity
  8
6_ALL_SURFS
100
AcDbLine
 62
7
  6
CONTINUOUS
 10
212.8516951503
 20
402.6612559855
 11
776.8516951503
 21
402.6612559855
  0
LINE
  5
3A2
100
AcDbEntity
  8
6_ALL_SURFS
100
AcDbLine
 62
7
  6
CONTINUOUS
 10
212.8516951503
 20
403.2612559855
 11
776.8516951503
 21
403.2612559855
  0
LINE
  5
3A3
100
AcDbEntity
  8
6_ALL_SURFS
100
AcDbLine
 62
7
  6
CONTINUOUS
 10
212.8516951503
 20
405.6612559855
 11
776.8516951503
 21
405.6612559855
  0
LINE
  5
3A4
100
AcDbEntity
  8
6_ALL_SURFS
100
AcDbLine
 62
7
  6
CONTINUOUS
 10
212.8516951503
 20
406.2612559855
 11
776.8516951503
 21
406.2612559855
  0
LINE
  5
3A5
100
AcDbEntity
  8
7_ALL_FEATURES
100
AcDbLine
 62
7
  6
CONTINUOUS
 10
212.8516951503
 20
408.3612559855
 11
211.3516951503
 21
408.3612559855
  0
LINE
  5
3A6
100
AcDbEntity
  8
7_ALL_FEATURES
100
AcDbLine
 62
7
  6
CONTINUOUS
 10
776.8516951503
 20
408.3612559855
 11
778.3516951503
 21
408.3612559855
  0
LINE
  5
3A7
100
AcDbEntity
  8
7_ALL_FEATURES
100
AcDbLine
 62
9
  6
CONTINUOUS
 10
212.8516951503
 20
408.4112559855
 11
776.8516951503
 21
408.4112559855
  0
LINE
  5
3A8
100
AcDbEntity
  8
3_ALL_AXES
100
AcDbLine
 62
7
  6
CONTINUOUS
 10
779.4516951503
 20
408.5612559855
 11
779.3009748206
 21
408.5612559855
  0
LINE
  5
3A9
100
AcDbEntity
  8
3_ALL_AXES
100
AcDbLine
 62
7
  6
CONTINUOUS
 10
210.2516951503
 20
408.5612559855
 11
210.4024154799
 21
408.5612559855
  0
LINE
  5
3AA
100
AcDbEntity
  8
7_ALL_FEATURES
100
AcDbLine
 62
7
  6
CONTINUOUS
 10
776.8516951503
 20
408.7112559855
 11
212.8516951503
 21
408.7112559855
  0
LINE
  5
3AB
100
AcDbEntity
  8
7_ALL_FEATURES
100
AcDbLine
 62
9
  6
CONTINUOUS
 10
776.8516951503
 20
409.0112559855
 11
212.8516951503
 21
409.0112559855
  0
LINE
  5
3AC
100
AcDbEntity
  8
7_ALL_FEATURES
100
AcDbLine
 62
9
  6
CONTINUOUS
 10
212.8516951503
 20
409.1112559855
 11
211.3516951503
 21
409.1112559855
  0
LINE
  5
3AD
100
AcDbEntity
  8
7_ALL_FEATURES
100
AcDbLine
 62
9
  6
CONTINUOUS
 10
776.8516951503
 20
409.1112559855
 11
778.3516951503
 21
409.1112559855
  0
LINE
  5
3AE
100
AcDbEntity
  8
7_ALL_FEATURES
100
AcDbLine
 62
9
  6
CONTINUOUS
 10
776.8516951503
 20
409.6612559855
 11
212.8516951503
 21
409.6612559855
  0
LINE
  5
3AF
100
AcDbEntity
  8
7_ALL_FEATURES
100
AcDbLine
 62
7
  6
CONTINUOUS
 10
776.8516951503
 20
409.9612559855
 11
212.8516951503
 21
409.9612559855
  0
LINE
  5
3B0
100
AcDbEntity
  8
7_ALL_FEATURES
100
AcDbLine
 62
9
  6
CONTINUOUS
 10
212.8516951503
 20
410.0232499834
 11
776.8516951503
 21
410.0232499834
  0
LINE
  5
3B1
100
AcDbEntity
  8
7_ALL_FEATURES
100
AcDbLine
 62
7
  6
CONTINUOUS
 10
776.3516951503
 20
410.1112559855
 11
213.3516951503
 21
410.1112559855
  0
LINE
  5
3B2
100
AcDbEntity
  8
7_ALL_FEATURES
100
AcDbLine
 62
9
  6
CONTINUOUS
 10
776.3516951503
 20
410.3112559855
 11
213.3516951503
 21
410.3112559855
  0
LINE
  5
3B3
100
AcDbEntity
  8
7_ALL_FEATURES
100
AcDbLine
 62
9
  6
CONTINUOUS
 10
212.8516951503
 20
411.1339217009
 11
213.3516951503
 21
411.1339217009
  0
LINE
  5
3B4
100
AcDbEntity
  8
7_ALL_FEATURES
100
AcDbLine
 62
9
  6
CONTINUOUS
 10
776.3516951503
 20
411.1339217009
 11
776.8516951503
 21
411.1339217009
  0
LINE
  5
3B5
100
AcDbEntity
  8
7_ALL_FEATURES
100
AcDbLine
 62
7
  6
CONTINUOUS
 10
212.8516951503
 20
411.1752510329
 11
213.3516951503
 21
411.1752510329
  0
LINE
  5
3B6
100
AcDbEntity
  8
7_ALL_FEATURES
100
AcDbLine
 62
7
  6
CONTINUOUS
 10
776.3516951503
 20
411.1752510329
 11
776.8516951503
 21
411.1752510329
  0
LINE
  5
3B7
100
AcDbEntity
  8
7_ALL_FEATURES
100
AcDbLine
 62
9
  6
CONTINUOUS
 10
212.8516951503
 20
411.2710662167
 11
213.3516951503
 21
411.2710662167
  0
LINE
  5
3B8
100
AcDbEntity
  8
7_ALL_FEATURES
100
AcDbLine
 62
9
  6
CONTINUOUS
 10
776.3516951503
 20
411.2710662167
 11
776.8516951503
 21
411.2710662167
  0
LINE
  5
3B9
100
AcDbEntity
  8
7_ALL_FEATURES
100
AcDbLine
 62
9
  6
CONTINUOUS
 10
212.8516951503
 20
411.4904723272
 11
213.3516951503
 21
411.4904723272
  0
LINE
  5
3BA
100
AcDbEntity
  8
7_ALL_FEATURES
100
AcDbLine
 62
9
  6
CONTINUOUS
 10
776.3516951503
 20
411.4904723272
 11
776.8516951503
 21
411.4904723272
  0
LINE
  5
3BB
100
AcDbEntity
  8
7_ALL_FEATURES
100
AcDbLine
 62
9
  6
CONTINUOUS
 10
776.8516951503
 20
412.5612559855
 11
776.3516951503
 21
412.5612559855
  0
LINE
  5
3BC
100
AcDbEntity
  8
7_ALL_FEATURES
100
AcDbLine
 62
9
  6
CONTINUOUS
 10
213.3516951503
 20
412.5612559855
 11
212.8516951503
 21
412.5612559855
  0
LINE
  5
3BD
100
AcDbEntity
  8
7_ALL_FEATURES
100
AcDbLine
 62
7
  6
CONTINUOUS
 10
776.8516951503
 20
412.8612559855
 11
776.3516951503
 21
412.8612559855
  0
LINE
  5
3BE
100
AcDbEntity
  8
7_ALL_FEATURES
100
AcDbLine
 62
7
  6
CONTINUOUS
 10
213.3516951503
 20
412.8612559855
 11
212.8516951503
 21
412.8612559855
  0
LINE
  5
3BF
100
AcDbEntity
  8
7_ALL_FEATURES
100
AcDbLine
 62
9
  6
CONTINUOUS
 10
212.8516951503
 20
412.9818707439
 11
213.3516951503
 21
412.9818707439
  0
LINE
  5
3C0
100
AcDbEntity
  8
7_ALL_FEATURES
100
AcDbLine
 62
9
  6
CONTINUOUS
 10
776.3516951503
 20
412.9818707439
 11
776.8516951503
 21
412.9818707439
  0
LINE
  5
3C1
100
AcDbEntity
  8
7_ALL_FEATURES
100
AcDbLine
 62
9
  6
CONTINUOUS
 10
776.8516951503
 20
413.5086499425
 11
776.3516951503
 21
413.5086499425
  0
LINE
  5
3C2
100
AcDbEntity
  8
7_ALL_FEATURES
100
AcDbLine
 62
9
  6
CONTINUOUS
 10
213.3516951503
 20
413.5086499425
 11
212.8516951503
 21
413.5086499425
  0
LINE
  5
3C3
100
AcDbEntity
  8
7_ALL_FEATURES
100
AcDbLine
 62
7
  6
CONTINUOUS
 10
776.8516951503
 20
413.5267421563
 11
776.3516951503
 21
413.5267421563
  0
LINE
  5
3C4
100
AcDbEntity
  8
7_ALL_FEATURES
100
AcDbLine
 62
7
  6
CONTINUOUS
 10
213.3516951503
 20
413.5267421563
 11
212.8516951503
 21
413.5267421563
  0
LINE
  5
3C5
100
AcDbEntity
  8
3_ALL_AXES
100
AcDbLine
 62
7
  6
CONTINUOUS
 10
779.4516951503
 20
414.0612559855
 11
779.3009748206
 21
414.0612559855
  0
LINE
  5
3C6
100
AcDbEntity
  8
3_ALL_AXES
100
AcDbLine
 62
7
  6
CONTINUOUS
 10
210.2516951503
 20
414.0612559855
 11
210.4024154799
 21
414.0612559855
  0
LINE
  5
3C7
100
AcDbEntity
  8
7_ALL_FEATURES
100
AcDbLine
 62
9
  6
CONTINUOUS
 10
212.8516951503
 20
416.8243360227
 11
213.3516951503
 21
416.8243360227
  0
LINE
  5
3C8
100
AcDbEntity
  8
7_ALL_FEATURES
100
AcDbLine
 62
9
  6
CONTINUOUS
 10
776.3516951503
 20
416.8243360227
 11
776.8516951503
 21
416.8243360227
  0
LINE
  5
3C9
100
AcDbEntity
  8
7_ALL_FEATURES
100
AcDbLine
 62
9
  6
CONTINUOUS
 10
212.8516951503
 20
417.3124609988
 11
213.3516951503
 21
417.3124609988
  0
LINE
  5
3CA
100
AcDbEntity
  8
7_ALL_FEATURES
100
AcDbLine
 62
9
  6
CONTINUOUS
 10
776.3516951503
 20
417.3124609988
 11
776.8516951503
 21
417.3124609988
  0
LINE
  5
3CB
100
AcDbEntity
  8
3_ALL_AXES
100
AcDbLine
 62
7
  6
CONTINUOUS
 10
779.4516951503
 20
417.7112559855
 11
779.3009748206
 21
417.7112559855
  0
LINE
  5
3CC
100
AcDbEntity
  8
3_ALL_AXES
100
AcDbLine
 62
7
  6
CONTINUOUS
 10
210.2516951503
 20
417.7112559855
 11
210.4024154799
 21
417.7112559855
  0
LINE
  5
3CD
100
AcDbEntity
  8
3_ALL_AXES
100
AcDbLine
 62
7
  6
CONTINUOUS
 10
779.4516951503
 20
423.2112559855
 11
779.3009748206
 21
423.2112559855
  0
LINE
  5
3CE
100
AcDbEntity
  8
3_ALL_AXES
100
AcDbLine
 62
7
  6
CONTINUOUS
 10
210.2516951503
 20
423.2112559855
 11
210.4024154799
 21
423.2112559855
  0
LINE
  5
3CF
100
AcDbEntity
  8
7_ALL_FEATURES
100
AcDbLine
 62
9
  6
CONTINUOUS
 10
776.8516951503
 20
441.4112559855
 11
776.3516951503
 21
441.4112559855
  0
LINE
  5
3D0
100
AcDbEntity
  8
7_ALL_FEATURES
100
AcDbLine
 62
9
  6
CONTINUOUS
 10
213.3516951503
 20
441.4112559855
 11
212.8516951503
 21
441.4112559855
  0
LINE
  5
3D1
100
AcDbEntity
  8
7_ALL_FEATURES
100
AcDbLine
 62
7
  6
CONTINUOUS
 10
776.8516951503
 20
441.7112559855
 11
776.3516951503
 21
441.7112559855
  0
LINE
  5
3D2
100
AcDbEntity
  8
7_ALL_FEATURES
100
AcDbLine
 62
7
  6
CONTINUOUS
 10
213.3516951503
 20
441.7112559855
 11
212.8516951503
 21
441.7112559855
  0
LINE
  5
3D3
100
AcDbEntity
  8
7_ALL_FEATURES
100
AcDbLine
 62
9
  6
CONTINUOUS
 10
212.8516951503
 20
442.0112559855
 11
213.3516951503
 21
442.0112559855
  0
LINE
  5
3D4
100
AcDbEntity
  8
7_ALL_FEATURES
100
AcDbLine
 62
9
  6
CONTINUOUS
 10
776.3516951503
 20
442.0112559855
 11
776.8516951503
 21
442.0112559855
  0
LINE
  5
3D5
100
AcDbEntity
  8
6_ALL_SURFS
100
AcDbLine
 62
9
  6
CONTINUOUS
 10
212.8516951503
 20
444.8112559855
 11
213.3516951503
 21
444.8112559855
  0
LINE
  5
3D6
100
AcDbEntity
  8
6_ALL_SURFS
100
AcDbLine
 62
9
  6
CONTINUOUS
 10
776.3516951503
 20
444.8112559855
 11
776.8516951503
 21
444.8112559855
  0
LINE
  5
3D7
100
AcDbEntity
  8
6_ALL_SURFS
100
AcDbLine
 62
7
  6
CONTINUOUS
 10
776.8516951503
 20
445.1112559855
 11
776.3516951503
 21
445.1112559855
  0
LINE
  5
3D8
100
AcDbEntity
  8
6_ALL_SURFS
100
AcDbLine
 62
7
  6
CONTINUOUS
 10
213.3516951503
 20
445.1112559855
 11
212.8516951503
 21
445.1112559855
  0
LINE
  5
3D9
100
AcDbEntity
  8
6_ALL_SURFS
100
AcDbLine
 62
9
  6
CONTINUOUS
 10
776.8516951503
 20
445.4112559855
 11
776.3516951503
 21
445.4112559855
  0
LINE
  5
3DA
100
AcDbEntity
  8
6_ALL_SURFS
100
AcDbLine
 62
9
  6
CONTINUOUS
 10
213.3516951503
 20
445.4112559855
 11
212.8516951503
 21
445.4112559855
  0
LINE
  5
3DB
100
AcDbEntity
  8
3_ALL_AXES
100
AcDbLine
 62
7
  6
CONTINUOUS
 10
779.4516951503
 20
463.6112559855
 11
779.3009748206
 21
463.6112559855
  0
LINE
  5
3DC
100
AcDbEntity
  8
3_ALL_AXES
100
AcDbLine
 62
7
  6
CONTINUOUS
 10
210.2516951503
 20
463.6112559855
 11
210.4024154799
 21
463.6112559855
  0
LINE
  5
3DD
100
AcDbEntity
  8
3_ALL_AXES
100
AcDbLine
 62
7
  6
CONTINUOUS
 10
779.4516951503
 20
469.1112559855
 11
779.3009748206
 21
469.1112559855
  0
LINE
  5
3DE
100
AcDbEntity
  8
3_ALL_AXES
100
AcDbLine
 62
7
  6
CONTINUOUS
 10
210.2516951503
 20
469.1112559855
 11
210.4024154799
 21
469.1112559855
  0
LINE
  5
3DF
100
AcDbEntity
  8
6_ALL_SURFS
100
AcDbLine
 62
9
  6
CONTINUOUS
 10
212.8516951503
 20
469.5100509722
 11
213.3516951503
 21
469.5100509722
  0
LINE
  5
3E0
100
AcDbEntity
  8
6_ALL_SURFS
100
AcDbLine
 62
9
  6
CONTINUOUS
 10
776.3516951503
 20
469.5100509722
 11
776.8516951503
 21
469.5100509722
  0
LINE
  5
3E1
100
AcDbEntity
  8
6_ALL_SURFS
100
AcDbLine
 62
9
  6
CONTINUOUS
 10
212.8516951503
 20
469.9981759483
 11
213.3516951503
 21
469.9981759483
  0
LINE
  5
3E2
100
AcDbEntity
  8
6_ALL_SURFS
100
AcDbLine
 62
9
  6
CONTINUOUS
 10
776.3516951503
 20
469.9981759483
 11
776.8516951503
 21
469.9981759483
  0
LINE
  5
3E3
100
AcDbEntity
  8
3_ALL_AXES
100
AcDbLine
 62
7
  6
CONTINUOUS
 10
779.4516951503
 20
472.7612559855
 11
779.3009748206
 21
472.7612559855
  0
LINE
  5
3E4
100
AcDbEntity
  8
3_ALL_AXES
100
AcDbLine
 62
7
  6
CONTINUOUS
 10
210.2516951503
 20
472.7612559855
 11
210.4024154799
 21
472.7612559855
  0
LINE
  5
3E5
100
AcDbEntity
  8
6_ALL_SURFS
100
AcDbLine
 62
7
  6
CONTINUOUS
 10
212.8516951503
 20
473.2957698148
 11
213.3516951503
 21
473.2957698148
  0
LINE
  5
3E6
100
AcDbEntity
  8
6_ALL_SURFS
100
AcDbLine
 62
7
  6
CONTINUOUS
 10
776.3516951503
 20
473.2957698148
 11
776.8516951503
 21
473.2957698148
  0
LINE
  5
3E7
100
AcDbEntity
  8
6_ALL_SURFS
100
AcDbLine
 62
9
  6
CONTINUOUS
 10
776.8516951503
 20
473.3138620285
 11
776.3516951503
 21
473.3138620285
  0
LINE
  5
3E8
100
AcDbEntity
  8
6_ALL_SURFS
100
AcDbLine
 62
9
  6
CONTINUOUS
 10
213.3516951503
 20
473.3138620285
 11
212.8516951503
 21
473.3138620285
  0
LINE
  5
3E9
100
AcDbEntity
  8
6_ALL_SURFS
100
AcDbLine
 62
9
  6
CONTINUOUS
 10
212.8516951503
 20
473.8406412271
 11
213.3516951503
 21
473.8406412271
  0
LINE
  5
3EA
100
AcDbEntity
  8
6_ALL_SURFS
100
AcDbLine
 62
9
  6
CONTINUOUS
 10
776.3516951503
 20
473.8406412271
 11
776.8516951503
 21
473.8406412271
  0
LINE
  5
3EB
100
AcDbEntity
  8
6_ALL_SURFS
100
AcDbLine
 62
7
  6
CONTINUOUS
 10
776.8516951503
 20
473.9612559855
 11
776.3516951503
 21
473.9612559855
  0
LINE
  5
3EC
100
AcDbEntity
  8
6_ALL_SURFS
100
AcDbLine
 62
7
  6
CONTINUOUS
 10
213.3516951503
 20
473.9612559855
 11
212.8516951503
 21
473.9612559855
  0
LINE
  5
3ED
100
AcDbEntity
  8
6_ALL_SURFS
100
AcDbLine
 62
9
  6
CONTINUOUS
 10
776.8516951503
 20
474.2612559855
 11
776.3516951503
 21
474.2612559855
  0
LINE
  5
3EE
100
AcDbEntity
  8
6_ALL_SURFS
100
AcDbLine
 62
9
  6
CONTINUOUS
 10
213.3516951503
 20
474.2612559855
 11
212.8516951503
 21
474.2612559855
  0
LINE
  5
3EF
100
AcDbEntity
  8
6_ALL_SURFS
100
AcDbLine
 62
9
  6
CONTINUOUS
 10
212.8516951503
 20
475.3320396438
 11
213.3516951503
 21
475.3320396438
  0
LINE
  5
3F0
100
AcDbEntity
  8
6_ALL_SURFS
100
AcDbLine
 62
9
  6
CONTINUOUS
 10
776.3516951503
 20
475.3320396438
 11
776.8516951503
 21
475.3320396438
  0
LINE
  5
3F1
100
AcDbEntity
  8
6_ALL_SURFS
100
AcDbLine
 62
9
  6
CONTINUOUS
 10
212.8516951503
 20
475.5514457543
 11
213.3516951503
 21
475.5514457543
  0
LINE
  5
3F2
100
AcDbEntity
  8
6_ALL_SURFS
100
AcDbLine
 62
9
  6
CONTINUOUS
 10
776.3516951503
 20
475.5514457543
 11
776.8516951503
 21
475.5514457543
  0
LINE
  5
3F3
100
AcDbEntity
  8
6_ALL_SURFS
100
AcDbLine
 62
7
  6
CONTINUOUS
 10
776.8516951503
 20
475.6472609382
 11
776.3516951503
 21
475.6472609382
  0
LINE
  5
3F4
100
AcDbEntity
  8
6_ALL_SURFS
100
AcDbLine
 62
7
  6
CONTINUOUS
 10
213.3516951503
 20
475.6472609382
 11
212.8516951503
 21
475.6472609382
  0
LINE
  5
3F5
100
AcDbEntity
  8
6_ALL_SURFS
100
AcDbLine
 62
9
  6
CONTINUOUS
 10
212.8516951503
 20
475.6885902701
 11
213.3516951503
 21
475.6885902701
  0
LINE
  5
3F6
100
AcDbEntity
  8
6_ALL_SURFS
100
AcDbLine
 62
9
  6
CONTINUOUS
 10
776.3516951503
 20
475.6885902701
 11
776.8516951503
 21
475.6885902701
  0
LINE
  5
3F7
100
AcDbEntity
  8
7_ALL_FEATURES
100
AcDbLine
 62
9
  6
CONTINUOUS
 10
776.3516951503
 20
476.5112559855
 11
213.3516951503
 21
476.5112559855
  0
LINE
  5
3F8
100
AcDbEntity
  8
7_ALL_FEATURES
100
AcDbLine
 62
7
  6
CONTINUOUS
 10
776.3516951503
 20
476.7112559855
 11
213.3516951503
 21
476.7112559855
  0
LINE
  5
3F9
100
AcDbEntity
  8
6_ALL_SURFS
100
AcDbLine
 62
9
  6
CONTINUOUS
 10
212.8516951503
 20
476.7992619876
 11
776.8516951503
 21
476.7992619876
  0
LINE
  5
3FA
100
AcDbEntity
  8
6_ALL_SURFS
100
AcDbLine
 62
7
  6
CONTINUOUS
 10
776.8516951503
 20
476.8612559855
 11
212.8516951503
 21
476.8612559855
  0
LINE
  5
3FB
100
AcDbEntity
  8
6_ALL_SURFS
100
AcDbLine
 62
9
  6
CONTINUOUS
 10
776.8516951503
 20
477.1612559855
 11
212.8516951503
 21
477.1612559855
  0
LINE
  5
3FC
100
AcDbEntity
  8
7_ALL_FEATURES
100
AcDbLine
 62
9
  6
CONTINUOUS
 10
212.8516951503
 20
477.7112559855
 11
211.3516951503
 21
477.7112559855
  0
LINE
  5
3FD
100
AcDbEntity
  8
7_ALL_FEATURES
100
AcDbLine
 62
9
  6
CONTINUOUS
 10
776.8516951503
 20
477.7112559855
 11
778.3516951503
 21
477.7112559855
  0
LINE
  5
3FE
100
AcDbEntity
  8
6_ALL_SURFS
100
AcDbLine
 62
9
  6
CONTINUOUS
 10
776.8516951503
 20
477.8112559855
 11
212.8516951503
 21
477.8112559855
  0
LINE
  5
3FF
100
AcDbEntity
  8
6_ALL_SURFS
100
AcDbLine
 62
7
  6
CONTINUOUS
 10
776.8516951503
 20
478.1112559855
 11
212.8516951503
 21
478.1112559855
  0
LINE
  5
400
100
AcDbEntity
  8
3_ALL_AXES
100
AcDbLine
 62
7
  6
CONTINUOUS
 10
779.4516951503
 20
478.2612559855
 11
779.3009748206
 21
478.2612559855
  0
LINE
  5
401
100
AcDbEntity
  8
3_ALL_AXES
100
AcDbLine
 62
7
  6
CONTINUOUS
 10
210.2516951503
 20
478.2612559855
 11
210.4024154799
 21
478.2612559855
  0
LINE
  5
402
100
AcDbEntity
  8
6_ALL_SURFS
100
AcDbLine
 62
9
  6
CONTINUOUS
 10
212.8516951503
 20
478.4112559855
 11
776.8516951503
 21
478.4112559855
  0
LINE
  5
403
100
AcDbEntity
  8
7_ALL_FEATURES
100
AcDbLine
 62
7
  6
CONTINUOUS
 10
212.8516951503
 20
478.4612559855
 11
211.3516951503
 21
478.4612559855
  0
LINE
  5
404
100
AcDbEntity
  8
7_ALL_FEATURES
100
AcDbLine
 62
7
  6
CONTINUOUS
 10
776.8516951503
 20
478.4612559855
 11
778.3516951503
 21
478.4612559855
  0
LINE
  5
405
100
AcDbEntity
  8
6_ALL_SURFS
100
AcDbLine
 62
7
  6
CONTINUOUS
 10
212.8516951503
 20
480.5612559855
 11
776.8516951503
 21
480.5612559855
  0
LINE
  5
406
100
AcDbEntity
  8
6_ALL_SURFS
100
AcDbLine
 62
7
  6
CONTINUOUS
 10
212.8516951503
 20
481.1612559855
 11
776.8516951503
 21
481.1612559855
  0
LINE
  5
407
100
AcDbEntity
  8
6_ALL_SURFS
100
AcDbLine
 62
7
  6
CONTINUOUS
 10
212.8516951503
 20
483.5612559855
 11
776.8516951503
 21
483.5612559855
  0
LINE
  5
408
100
AcDbEntity
  8
6_ALL_SURFS
100
AcDbLine
 62
7
  6
CONTINUOUS
 10
212.8516951503
 20
484.1612559855
 11
776.8516951503
 21
484.1612559855
  0
LINE
  5
409
100
AcDbEntity
  8
6_ALL_SURFS
100
AcDbLine
 62
7
  6
CONTINUOUS
 10
212.8516951503
 20
486.5612559855
 11
776.8516951503
 21
486.5612559855
  0
LINE
  5
40A
100
AcDbEntity
  8
6_ALL_SURFS
100
AcDbLine
 62
7
  6
CONTINUOUS
 10
212.8516951503
 20
487.1612559855
 11
776.8516951503
 21
487.1612559855
  0
LINE
  5
40B
100
AcDbEntity
  8
6_ALL_SURFS
100
AcDbLine
 62
7
  6
CONTINUOUS
 10
212.8516951503
 20
489.5612559855
 11
237.9541617329
 21
489.5612559855
  0
LINE
  5
40C
100
AcDbEntity
  8
6_ALL_SURFS
100
AcDbLine
 62
7
  6
CONTINUOUS
 10
245.7492285676
 20
489.5612559855
 11
487.9541617329
 21
489.5612559855
  0
LINE
  5
40D
100
AcDbEntity
  8
6_ALL_SURFS
100
AcDbLine
 62
7
  6
CONTINUOUS
 10
495.7492285676
 20
489.5612559855
 11
737.9541617329
 21
489.5612559855
  0
LINE
  5
40E
100
AcDbEntity
  8
6_ALL_SURFS
100
AcDbLine
 62
7
  6
CONTINUOUS
 10
745.7492285676
 20
489.5612559855
 11
776.8516951503
 21
489.5612559855
  0
LINE
  5
40F
100
AcDbEntity
  8
6_ALL_SURFS
100
AcDbLine
 62
7
  6
CONTINUOUS
 10
212.8516951503
 20
490.1612559855
 11
237.5866316408
 21
490.1612559855
  0
LINE
  5
410
100
AcDbEntity
  8
6_ALL_SURFS
100
AcDbLine
 62
7
  6
CONTINUOUS
 10
246.1167586597
 20
490.1612559855
 11
487.5866316408
 21
490.1612559855
  0
LINE
  5
411
100
AcDbEntity
  8
6_ALL_SURFS
100
AcDbLine
 62
7
  6
CONTINUOUS
 10
496.1167586597
 20
490.1612559855
 11
737.5866316408
 21
490.1612559855
  0
LINE
  5
412
100
AcDbEntity
  8
6_ALL_SURFS
100
AcDbLine
 62
7
  6
CONTINUOUS
 10
746.1167586597
 20
490.1612559855
 11
776.8516951503
 21
490.1612559855
  0
LINE
  5
413
100
AcDbEntity
  8
6_ALL_SURFS
100
AcDbLine
 62
7
  6
CONTINUOUS
 10
212.8516951503
 20
492.5612559855
 11
237.0568263575
 21
492.5612559855
  0
LINE
  5
414
100
AcDbEntity
  8
6_ALL_SURFS
100
AcDbLine
 62
7
  6
CONTINUOUS
 10
246.646563943
 20
492.5612559855
 11
487.0568263575
 21
492.5612559855
  0
LINE
  5
415
100
AcDbEntity
  8
6_ALL_SURFS
100
AcDbLine
 62
7
  6
CONTINUOUS
 10
496.646563943
 20
492.5612559855
 11
737.0568263575
 21
492.5612559855
  0
LINE
  5
416
100
AcDbEntity
  8
6_ALL_SURFS
100
AcDbLine
 62
7
  6
CONTINUOUS
 10
746.646563943
 20
492.5612559855
 11
776.8516951503
 21
492.5612559855
  0
LINE
  5
417
100
AcDbEntity
  8
6_ALL_SURFS
100
AcDbLine
 62
7
  6
CONTINUOUS
 10
212.8516951503
 20
493.1612559855
 11
237.1198068655
 21
493.1612559855
  0
LINE
  5
418
100
AcDbEntity
  8
6_ALL_SURFS
100
AcDbLine
 62
7
  6
CONTINUOUS
 10
246.583583435
 20
493.1612559855
 11
487.1198068655
 21
493.1612559855
  0
LINE
  5
419
100
AcDbEntity
  8
6_ALL_SURFS
100
AcDbLine
 62
7
  6
CONTINUOUS
 10
496.583583435
 20
493.1612559855
 11
737.1198068655
 21
493.1612559855
  0
LINE
  5
41A
100
AcDbEntity
  8
6_ALL_SURFS
100
AcDbLine
 62
7
  6
CONTINUOUS
 10
746.583583435
 20
493.1612559855
 11
776.8516951503
 21
493.1612559855
  0
LINE
  5
41B
100
AcDbEntity
  8
6_ALL_SURFS
100
AcDbLine
 62
7
  6
CONTINUOUS
 10
212.8516951503
 20
495.8612559855
 11
238.5682873566
 21
495.8612559855
  0
LINE
  5
41C
100
AcDbEntity
  8
6_ALL_SURFS
100
AcDbLine
 62
7
  6
CONTINUOUS
 10
245.135102944
 20
495.8612559855
 11
488.5682873566
 21
495.8612559855
  0
LINE
  5
41D
100
AcDbEntity
  8
6_ALL_SURFS
100
AcDbLine
 62
7
  6
CONTINUOUS
 10
495.135102944
 20
495.8612559855
 11
738.5682873566
 21
495.8612559855
  0
LINE
  5
41E
100
AcDbEntity
  8
6_ALL_SURFS
100
AcDbLine
 62
7
  6
CONTINUOUS
 10
745.135102944
 20
495.8612559855
 11
776.8516951503
 21
495.8612559855
  0
LINE
  5
41F
100
AcDbEntity
  8
6_ALL_SURFS
100
AcDbLine
 62
9
  6
CONTINUOUS
 10
212.8516951503
 20
498.0067275759
 11
776.8516951503
 21
498.0067275759
  0
LINE
  5
420
100
AcDbEntity
  8
6_ALL_SURFS
100
AcDbLine
 62
7
  6
CONTINUOUS
 10
776.8516951503
 20
498.3612559855
 11
212.8516951503
 21
498.3612559855
  0
LINE
  5
421
100
AcDbEntity
  8
3_ALL_AXES
100
AcDbLine
 62
7
  6
CONTINUOUS
 10
779.3009748206
 20
478.2612559855
 11
778.3516951503
 21
477.4647157642
  0
LINE
  5
422
100
AcDbEntity
  8
3_ALL_AXES
100
AcDbLine
 62
7
  6
CONTINUOUS
 10
779.3009748206
 20
408.5612559855
 11
778.3516951503
 21
409.3577962068
  0
LINE
  5
423
100
AcDbEntity
  8
3_ALL_AXES
100
AcDbLine
 62
7
  6
CONTINUOUS
 10
779.3009748206
 20
469.1112559855
 11
778.3516951503
 21
468.3147157642
  0
LINE
  5
424
100
AcDbEntity
  8
3_ALL_AXES
100
AcDbLine
 62
7
  6
CONTINUOUS
 10
779.3009748206
 20
417.7112559855
 11
778.3516951503
 21
418.5077962068
  0
LINE
  5
425
100
AcDbEntity
  8
3_ALL_AXES
100
AcDbLine
 62
7
  6
CONTINUOUS
 10
779.3009748206
 20
423.2112559855
 11
778.3516951503
 21
422.4147157642
  0
LINE
  5
426
100
AcDbEntity
  8
3_ALL_AXES
100
AcDbLine
 62
7
  6
CONTINUOUS
 10
779.3009748206
 20
414.0612559855
 11
778.3516951503
 21
413.2647157642
  0
LINE
  5
427
100
AcDbEntity
  8
3_ALL_AXES
100
AcDbLine
 62
7
  6
CONTINUOUS
 10
779.3009748206
 20
463.6112559855
 11
778.3516951503
 21
464.4077962068
  0
LINE
  5
428
100
AcDbEntity
  8
3_ALL_AXES
100
AcDbLine
 62
7
  6
CONTINUOUS
 10
779.3009748206
 20
472.7612559855
 11
778.3516951503
 21
473.5577962068
  0
LINE
  5
429
100
AcDbEntity
  8
7_ALL_FEATURES
100
AcDbLine
 62
7
  6
CONTINUOUS
 10
776.3516951503
 20
476.7112559855
 11
776.3516951503
 21
410.1112559855
  0
LINE
  5
42A
100
AcDbEntity
  8
7_ALL_FEATURES
100
AcDbLine
 62
7
  6
CONTINUOUS
 10
776.8516951503
 20
478.4612559855
 11
776.8516951503
 21
477.9727948628
  0
LINE
  5
42B
100
AcDbEntity
  8
7_ALL_FEATURES
100
AcDbLine
 62
7
  6
CONTINUOUS
 10
776.8516951503
 20
477.7952293426
 11
776.8516951503
 21
406.2612559855
  0
LINE
  5
42C
100
AcDbEntity
  8
6_ALL_SURFS
100
AcDbLine
 62
7
  6
CONTINUOUS
 10
776.8516951503
 20
406.2612559855
 11
776.8516951503
 21
390.9612559855
  0
LINE
  5
42D
100
AcDbEntity
  8
7_ALL_FEATURES
100
AcDbLine
 62
7
  6
CONTINUOUS
 10
776.8516951503
 20
390.9612559855
 11
776.8516951503
 21
388.4612604851
  0
LINE
  5
42E
100
AcDbEntity
  8
6_ALL_SURFS
100
AcDbLine
 62
7
  6
CONTINUOUS
 10
776.8516951503
 20
477.1612559855
 11
776.8516951503
 21
477.9727948628
  0
LINE
  5
42F
100
AcDbEntity
  8
6_ALL_SURFS
100
AcDbLine
 62
7
  6
CONTINUOUS
 10
776.8516951503
 20
478.4612559855
 11
776.8516951503
 21
498.3612514859
  0
LINE
  5
430
100
AcDbEntity
  8
7_ALL_FEATURES
100
AcDbLine
 62
7
  6
CONTINUOUS
 10
778.3516951503
 20
478.4612559855
 11
778.3516951503
 21
408.3612559855
  0
LINE
  5
431
100
AcDbEntity
  8
3_ALL_AXES
100
AcDbLine
 62
7
  6
CONTINUOUS
 10
779.3009748206
 20
408.5612559855
 11
779.3009748206
 21
414.0612559855
  0
LINE
  5
432
100
AcDbEntity
  8
3_ALL_AXES
100
AcDbLine
 62
7
  6
CONTINUOUS
 10
779.3009748206
 20
417.7112559855
 11
779.3009748206
 21
423.2112559855
  0
LINE
  5
433
100
AcDbEntity
  8
3_ALL_AXES
100
AcDbLine
 62
7
  6
CONTINUOUS
 10
779.3009748206
 20
463.6112559855
 11
779.3009748206
 21
469.1112559855
  0
LINE
  5
434
100
AcDbEntity
  8
3_ALL_AXES
100
AcDbLine
 62
7
  6
CONTINUOUS
 10
779.3009748206
 20
472.7612559855
 11
779.3009748206
 21
478.2612559855
  0
LINE
  5
435
100
AcDbEntity
  8
3_ALL_AXES
100
AcDbLine
 62
7
  6
CONTINUOUS
 10
779.4516951503
 20
408.5612559855
 11
779.4516951503
 21
414.0612559855
  0
LINE
  5
436
100
AcDbEntity
  8
3_ALL_AXES
100
AcDbLine
 62
7
  6
CONTINUOUS
 10
779.4516951503
 20
417.7112559855
 11
779.4516951503
 21
423.2112559855
  0
LINE
  5
437
100
AcDbEntity
  8
3_ALL_AXES
100
AcDbLine
 62
7
  6
CONTINUOUS
 10
779.4516951503
 20
463.6112559855
 11
779.4516951503
 21
469.1112559855
  0
LINE
  5
438
100
AcDbEntity
  8
3_ALL_AXES
100
AcDbLine
 62
7
  6
CONTINUOUS
 10
779.4516951503
 20
472.7612559855
 11
779.4516951503
 21
478.2612559855
  0
CIRCLE
  5
439
100
AcDbEntity
  8
3_ALL_AXES
100
AcDbCircle
 62
7
  6
CONTINUOUS
 10
75.5927703964
 20
213.4932082478
 40
2.75
  0
ARC
  5
43A
100
AcDbEntity
  8
6_ALL_SURFS
100
AcDbCircle
 62
7
  6
CONTINUOUS
 10
74.2927703964
 20
200.4951341779
 40
2.15
100
AcDbArc
 50
140.2422335634
 51
219.7577664366
  0
ARC
  5
43B
100
AcDbEntity
  8
6_ALL_SURFS
100
AcDbCircle
 62
7
  6
CONTINUOUS
 10
74.0427703964
 20
219.3932082478
 40
1.5
100
AcDbArc
 50
270.0
 51
360.0
  0
ARC
  5
43C
100
AcDbEntity
  8
6_ALL_SURFS
100
AcDbCircle
 62
7
  6
CONTINUOUS
 10
73.3927703964
 20
217.1432082478
 40
0.75
100
AcDbArc
 50
90.0
 51
180.0
  0
ARC
  5
43D
100
AcDbEntity
  8
7_ALL_FEATURES
100
AcDbCircle
 62
7
  6
CONTINUOUS
 10
73.3927703964
 20
187.2432082478
 40
0.75
100
AcDbArc
 50
180.0
 51
270.0
  0
ARC
  5
43E
100
AcDbEntity
  8
6_ALL_SURFS
100
AcDbCircle
 62
7
  6
CONTINUOUS
 10
58.2427703964
 20
187.5932082478
 40
0.5
100
AcDbArc
 50
53.1301023542
 51
126.8698976458
  0
ARC
  5
43F
100
AcDbEntity
  8
6_ALL_SURFS
100
AcDbCircle
 62
7
  6
CONTINUOUS
 10
61.2427703964
 20
187.5932082478
 40
0.5
100
AcDbArc
 50
53.1301023542
 51
126.8698976458
  0
ARC
  5
440
100
AcDbEntity
  8
6_ALL_SURFS
100
AcDbCircle
 62
7
  6
CONTINUOUS
 10
64.2427703964
 20
187.5932082478
 40
0.5
100
AcDbArc
 50
53.1301023542
 51
126.8698976458
  0
ARC
  5
441
100
AcDbEntity
  8
6_ALL_SURFS
100
AcDbCircle
 62
7
  6
CONTINUOUS
 10
67.2427703964
 20
187.5932082478
 40
0.5
100
AcDbArc
 50
53.1301023542
 51
126.8698976458
  0
ARC
  5
442
100
AcDbEntity
  8
6_ALL_SURFS
100
AcDbCircle
 62
7
  6
CONTINUOUS
 10
70.2427703964
 20
187.5932082478
 40
0.5
100
AcDbArc
 50
53.1301023542
 51
126.8698976458
  0
ARC
  5
443
100
AcDbEntity
  8
6_ALL_SURFS
100
AcDbCircle
 62
7
  6
CONTINUOUS
 10
53.1364737543
 20
188.5995048899
 40
0.3937033579
100
AcDbArc
 50
90.0
 51
264.2894068625
  0
ARC
  5
444
100
AcDbEntity
  8
6_ALL_SURFS
100
AcDbCircle
 62
7
  6
CONTINUOUS
 10
73.2927703964
 20
186.7932082478
 40
0.3
100
AcDbArc
 50
236.8947115174
 51
270.0
  0
ARC
  5
445
100
AcDbEntity
  8
6_ALL_SURFS
100
AcDbCircle
 62
7
  6
CONTINUOUS
 10
72.4427703964
 20
189.2932082478
 40
0.3
100
AcDbArc
 50
270.0
 51
312.0043569931
  0
ARC
  5
446
100
AcDbEntity
  8
6_ALL_SURFS
100
AcDbCircle
 62
7
  6
CONTINUOUS
 10
80.5427703964
 20
251.8704817879
 40
5.0
100
AcDbArc
 50
167.4878142167
 51
180.0
  0
CIRCLE
  5
447
100
AcDbEntity
  8
3_ALL_AXES
100
AcDbCircle
 62
7
  6
CONTINUOUS
 10
84.7427703964
 20
274.2432082478
 40
2.75
  0
ARC
  5
448
100
AcDbEntity
  8
6_ALL_SURFS
100
AcDbCircle
 62
7
  6
CONTINUOUS
 10
77.0427703964
 20
251.7130998685
 40
1.5
100
AcDbArc
 50
168.8118414334
 51
180.0
  0
ARC
  5
449
100
AcDbEntity
  8
6_ALL_SURFS
100
AcDbCircle
 62
7
  6
CONTINUOUS
 10
105.5927703964
 20
275.9932082478
 40
1.5
100
AcDbArc
 50
90.0
 51
101.3701341795
  0
ARC
  5
44A
100
AcDbEntity
  8
6_ALL_SURFS
100
AcDbCircle
 62
7
  6
CONTINUOUS
 10
105.0470190853
 20
276.4932082478
 40
1.0
100
AcDbArc
 50
48.5903778907
 51
90.0
  0
ARC
  5
44B
100
AcDbEntity
  8
7_ALL_FEATURES
100
AcDbCircle
 62
7
  6
CONTINUOUS
 10
81.1410839422
 20
276.7432082478
 40
0.75
100
AcDbArc
 50
90.0
 51
169.0055723475
  0
ARC
  5
44C
100
AcDbEntity
  8
7_ALL_FEATURES
100
AcDbCircle
 62
7
  6
CONTINUOUS
 10
81.2289600249
 20
276.7432082478
 40
0.75
100
AcDbArc
 50
90.0
 51
168.8118414334
  0
CIRCLE
  5
44D
100
AcDbEntity
  8
3_ALL_AXES
100
AcDbCircle
 62
7
  6
CONTINUOUS
 10
139.7927703964
 20
213.4932082478
 40
2.75
  0
ARC
  5
44E
100
AcDbEntity
  8
7_ALL_FEATURES
100
AcDbCircle
 62
7
  6
CONTINUOUS
 10
141.0927703964
 20
200.4951341779
 40
2.15
100
AcDbArc
 50
320.2422335634
 51
39.7577664366
  0
ARC
  5
44F
100
AcDbEntity
  8
6_ALL_SURFS
100
AcDbCircle
 62
7
  6
CONTINUOUS
 10
141.3427703964
 20
219.3932082478
 40
1.5
100
AcDbArc
 50
180.0
 51
270.0
  0
ARC
  5
450
100
AcDbEntity
  8
7_ALL_FEATURES
100
AcDbCircle
 62
7
  6
CONTINUOUS
 10
141.9927703964
 20
187.2432082478
 40
0.75
100
AcDbArc
 50
270.0
 51
360.0
  0
ARC
  5
451
100
AcDbEntity
  8
6_ALL_SURFS
100
AcDbCircle
 62
7
  6
CONTINUOUS
 10
141.9927703964
 20
217.1432082478
 40
0.75
100
AcDbArc
 50
0.0
 51
90.0
  0
ARC
  5
452
100
AcDbEntity
  8
6_ALL_SURFS
100
AcDbCircle
 62
7
  6
CONTINUOUS
 10
145.1427703964
 20
187.5932082478
 40
0.5
100
AcDbArc
 50
53.1301023542
 51
126.8698976458
  0
ARC
  5
453
100
AcDbEntity
  8
6_ALL_SURFS
100
AcDbCircle
 62
7
  6
CONTINUOUS
 10
148.1427703964
 20
187.5932082478
 40
0.5
100
AcDbArc
 50
53.1301023542
 51
126.8698976458
  0
ARC
  5
454
100
AcDbEntity
  8
6_ALL_SURFS
100
AcDbCircle
 62
7
  6
CONTINUOUS
 10
151.1427703964
 20
187.5932082478
 40
0.5
100
AcDbArc
 50
53.1301023542
 51
126.8698976458
  0
ARC
  5
455
100
AcDbEntity
  8
6_ALL_SURFS
100
AcDbCircle
 62
7
  6
CONTINUOUS
 10
154.1427703964
 20
187.5932082478
 40
0.5
100
AcDbArc
 50
53.1301023542
 51
126.8698976458
  0
ARC
  5
456
100
AcDbEntity
  8
6_ALL_SURFS
100
AcDbCircle
 62
7
  6
CONTINUOUS
 10
157.1427703964
 20
187.5932082478
 40
0.5
100
AcDbArc
 50
53.1301023542
 51
126.8698976458
  0
ARC
  5
457
100
AcDbEntity
  8
7_ALL_FEATURES
100
AcDbCircle
 62
7
  6
CONTINUOUS
 10
162.2490670385
 20
188.5995048899
 40
0.3937033579
100
AcDbArc
 50
275.7105931375
 51
90.0
  0
ARC
  5
458
100
AcDbEntity
  8
7_ALL_FEATURES
100
AcDbCircle
 62
7
  6
CONTINUOUS
 10
142.9427703964
 20
189.2932082478
 40
0.3
100
AcDbArc
 50
227.9956430069
 51
270.0
  0
ARC
  5
459
100
AcDbEntity
  8
7_ALL_FEATURES
100
AcDbCircle
 62
7
  6
CONTINUOUS
 10
142.0927703964
 20
186.7932082478
 40
0.3
100
AcDbArc
 50
270.0
 51
303.1052884825
  0
ARC
  5
45A
100
AcDbEntity
  8
6_ALL_SURFS
100
AcDbCircle
 62
7
  6
CONTINUOUS
 10
107.6927703964
 20
258.4932082478
 40
11.0
100
AcDbArc
 50
3.257196161
 51
176.742803839
  0
ARC
  5
45B
100
AcDbEntity
  8
6_ALL_SURFS
100
AcDbCircle
 62
7
  6
CONTINUOUS
 10
107.6927703964
 20
258.4932082478
 40
11.0
100
AcDbArc
 50
183.257196161
 51
356.742803839
  0
ARC
  5
45C
100
AcDbEntity
  8
6_ALL_SURFS
100
AcDbCircle
 62
7
  6
CONTINUOUS
 10
107.6927703964
 20
258.4932082478
 40
10.25
100
AcDbArc
 50
3.4958136324
 51
176.5041863676
  0
ARC
  5
45D
100
AcDbEntity
  8
6_ALL_SURFS
100
AcDbCircle
 62
7
  6
CONTINUOUS
 10
107.6927703964
 20
258.4932082478
 40
10.25
100
AcDbArc
 50
183.4958136324
 51
356.5041863676
  0
ARC
  5
45E
100
AcDbEntity
  8
7_ALL_FEATURES
100
AcDbCircle
 62
7
  6
CONTINUOUS
 10
134.8427703964
 20
251.8704817879
 40
5.0
100
AcDbArc
 50
0.0
 51
12.5121857833
  0
ARC
  5
45F
100
AcDbEntity
  8
6_ALL_SURFS
100
AcDbCircle
 62
7
  6
CONTINUOUS
 10
107.6927703964
 20
279.4932082478
 40
3.0
100
AcDbArc
 50
228.5903778907
 51
311.4096221093
  0
CIRCLE
  5
460
100
AcDbEntity
  8
3_ALL_AXES
100
AcDbCircle
 62
7
  6
CONTINUOUS
 10
130.6427703964
 20
274.2432082478
 40
2.75
  0
ARC
  5
461
100
AcDbEntity
  8
7_ALL_FEATURES
100
AcDbCircle
 62
7
  6
CONTINUOUS
 10
138.3427703964
 20
251.7179372564
 40
1.5
100
AcDbArc
 50
0.0
 51
9.6155456361
  0
ARC
  5
462
100
AcDbEntity
  8
7_ALL_FEATURES
100
AcDbCircle
 62
7
  6
CONTINUOUS
 10
109.7927703964
 20
275.9932082478
 40
1.5
100
AcDbArc
 50
78.6298658205
 51
90.0
  0
ARC
  5
463
100
AcDbEntity
  8
6_ALL_SURFS
100
AcDbCircle
 62
7
  6
CONTINUOUS
 10
110.3385217074
 20
276.4932082478
 40
1.0
100
AcDbArc
 50
90.0
 51
131.4096221093
  0
ARC
  5
464
100
AcDbEntity
  8
7_ALL_FEATURES
100
AcDbCircle
 62
7
  6
CONTINUOUS
 10
134.2444568505
 20
276.7432082478
 40
0.75
100
AcDbArc
 50
10.9944276525
 51
90.0
  0
ARC
  5
465
100
AcDbEntity
  8
7_ALL_FEATURES
100
AcDbCircle
 62
7
  6
CONTINUOUS
 10
241.8516951503
 20
394.4612559855
 40
4.7990381057
100
AcDbArc
 50
152.7144649101
 51
182.3884943821
  0
ARC
  5
466
100
AcDbEntity
  8
7_ALL_FEATURES
100
AcDbCircle
 62
7
  6
CONTINUOUS
 10
241.8516951503
 20
394.4612559855
 40
4.7990381057
100
AcDbArc
 50
357.6115056179
 51
27.2855350899
  0
ARC
  5
467
100
AcDbEntity
  8
7_ALL_FEATURES
100
AcDbCircle
 62
7
  6
CONTINUOUS
 10
241.8516951503
 20
394.4612559855
 40
4.7990381057
100
AcDbArc
 50
35.6935828234
 51
144.3064171766
  0
ARC
  5
468
100
AcDbEntity
  8
7_ALL_FEATURES
100
AcDbCircle
 62
7
  6
CONTINUOUS
 10
241.8516951503
 20
394.4612559855
 40
4.7990381057
100
AcDbArc
 50
189.5960093944
 51
226.828815981
  0
ARC
  5
469
100
AcDbEntity
  8
7_ALL_FEATURES
100
AcDbCircle
 62
7
  6
CONTINUOUS
 10
241.8516951503
 20
394.4612559855
 40
4.7990381057
100
AcDbArc
 50
313.171184019
 51
350.4039906056
  0
CIRCLE
  5
46A
100
AcDbEntity
  8
6_ALL_SURFS
100
AcDbCircle
 62
7
  6
CONTINUOUS
 10
241.8516951503
 20
394.4612559855
 40
3.5
  0
ARC
  5
46B
100
AcDbEntity
  8
6_ALL_SURFS
100
AcDbCircle
 62
7
  6
CONTINUOUS
 10
241.8516951503
 20
492.3612559855
 40
4.7990381057
100
AcDbArc
 50
332.7144649101
 51
2.3884943821
  0
ARC
  5
46C
100
AcDbEntity
  8
6_ALL_SURFS
100
AcDbCircle
 62
7
  6
CONTINUOUS
 10
241.8516951503
 20
492.3612559855
 40
4.7990381057
100
AcDbArc
 50
177.6115056179
 51
207.2855350899
  0
ARC
  5
46D
100
AcDbEntity
  8
6_ALL_SURFS
100
AcDbCircle
 62
7
  6
CONTINUOUS
 10
241.8516951503
 20
492.3612559855
 40
4.7990381057
100
AcDbArc
 50
9.5960093944
 51
46.828815981
  0
ARC
  5
46E
100
AcDbEntity
  8
6_ALL_SURFS
100
AcDbCircle
 62
7
  6
CONTINUOUS
 10
241.8516951503
 20
492.3612559855
 40
4.7990381057
100
AcDbArc
 50
133.171184019
 51
170.4039906056
  0
ARC
  5
46F
100
AcDbEntity
  8
6_ALL_SURFS
100
AcDbCircle
 62
7
  6
CONTINUOUS
 10
241.8516951503
 20
492.3612559855
 40
4.7990381057
100
AcDbArc
 50
215.6935828234
 51
324.3064171766
  0
CIRCLE
  5
470
100
AcDbEntity
  8
6_ALL_SURFS
100
AcDbCircle
 62
7
  6
CONTINUOUS
 10
241.8516951503
 20
492.3612559855
 40
3.5
  0
ARC
  5
471
100
AcDbEntity
  8
7_ALL_FEATURES
100
AcDbCircle
 62
7
  6
CONTINUOUS
 10
491.8516951503
 20
394.4612559855
 40
4.7990381057
100
AcDbArc
 50
152.7144649101
 51
182.3884943821
  0
ARC
  5
472
100
AcDbEntity
  8
7_ALL_FEATURES
100
AcDbCircle
 62
7
  6
CONTINUOUS
 10
741.8516951503
 20
394.4612559855
 40
4.7990381057
100
AcDbArc
 50
152.7144649101
 51
182.3884943821
  0
ARC
  5
473
100
AcDbEntity
  8
7_ALL_FEATURES
100
AcDbCircle
 62
7
  6
CONTINUOUS
 10
491.8516951503
 20
394.4612559855
 40
4.7990381057
100
AcDbArc
 50
357.6115056179
 51
27.2855350899
  0
ARC
  5
474
100
AcDbEntity
  8
7_ALL_FEATURES
100
AcDbCircle
 62
7
  6
CONTINUOUS
 10
741.8516951503
 20
394.4612559855
 40
4.7990381057
100
AcDbArc
 50
357.6115056179
 51
27.2855350899
  0
ARC
  5
475
100
AcDbEntity
  8
7_ALL_FEATURES
100
AcDbCircle
 62
7
  6
CONTINUOUS
 10
491.8516951503
 20
394.4612559855
 40
4.7990381057
100
AcDbArc
 50
35.6935828234
 51
144.3064171766
  0
ARC
  5
476
100
AcDbEntity
  8
7_ALL_FEATURES
100
AcDbCircle
 62
7
  6
CONTINUOUS
 10
741.8516951503
 20
394.4612559855
 40
4.7990381057
100
AcDbArc
 50
35.6935828234
 51
144.3064171766
  0
ARC
  5
477
100
AcDbEntity
  8
7_ALL_FEATURES
100
AcDbCircle
 62
7
  6
CONTINUOUS
 10
491.8516951503
 20
394.4612559855
 40
4.7990381057
100
AcDbArc
 50
189.5960093944
 51
226.828815981
  0
ARC
  5
478
100
AcDbEntity
  8
7_ALL_FEATURES
100
AcDbCircle
 62
7
  6
CONTINUOUS
 10
741.8516951503
 20
394.4612559855
 40
4.7990381057
100
AcDbArc
 50
189.5960093944
 51
226.828815981
  0
ARC
  5
479
100
AcDbEntity
  8
7_ALL_FEATURES
100
AcDbCircle
 62
7
  6
CONTINUOUS
 10
491.8516951503
 20
394.4612559855
 40
4.7990381057
100
AcDbArc
 50
313.171184019
 51
350.4039906056
  0
ARC
  5
47A
100
AcDbEntity
  8
7_ALL_FEATURES
100
AcDbCircle
 62
7
  6
CONTINUOUS
 10
741.8516951503
 20
394.4612559855
 40
4.7990381057
100
AcDbArc
 50
313.171184019
 51
350.4039906056
  0
CIRCLE
  5
47B
100
AcDbEntity
  8
6_ALL_SURFS
100
AcDbCircle
 62
7
  6
CONTINUOUS
 10
491.8516951503
 20
394.4612559855
 40
3.5
  0
CIRCLE
  5
47C
100
AcDbEntity
  8
6_ALL_SURFS
100
AcDbCircle
 62
7
  6
CONTINUOUS
 10
741.8516951503
 20
394.4612559855
 40
3.5
  0
ARC
  5
47D
100
AcDbEntity
  8
6_ALL_SURFS
100
AcDbCircle
 62
7
  6
CONTINUOUS
 10
741.8516951503
 20
492.3612559855
 40
4.7990381057
100
AcDbArc
 50
332.7144649101
 51
2.3884943821
  0
ARC
  5
47E
100
AcDbEntity
  8
6_ALL_SURFS
100
AcDbCircle
 62
7
  6
CONTINUOUS
 10
491.8516951503
 20
492.3612559855
 40
4.7990381057
100
AcDbArc
 50
332.7144649101
 51
2.3884943821
  0
ARC
  5
47F
100
AcDbEntity
  8
6_ALL_SURFS
100
AcDbCircle
 62
7
  6
CONTINUOUS
 10
741.8516951503
 20
492.3612559855
 40
4.7990381057
100
AcDbArc
 50
177.6115056179
 51
207.2855350899
  0
ARC
  5
480
100
AcDbEntity
  8
6_ALL_SURFS
100
AcDbCircle
 62
7
  6
CONTINUOUS
 10
491.8516951503
 20
492.3612559855
 40
4.7990381057
100
AcDbArc
 50
177.6115056179
 51
207.2855350899
  0
ARC
  5
481
100
AcDbEntity
  8
6_ALL_SURFS
100
AcDbCircle
 62
7
  6
CONTINUOUS
 10
741.8516951503
 20
492.3612559855
 40
4.7990381057
100
AcDbArc
 50
9.5960093944
 51
46.828815981
  0
ARC
  5
482
100
AcDbEntity
  8
6_ALL_SURFS
100
AcDbCircle
 62
7
  6
CONTINUOUS
 10
491.8516951503
 20
492.3612559855
 40
4.7990381057
100
AcDbArc
 50
9.5960093944
 51
46.828815981
  0
ARC
  5
483
100
AcDbEntity
  8
6_ALL_SURFS
100
AcDbCircle
 62
7
  6
CONTINUOUS
 10
741.8516951503
 20
492.3612559855
 40
4.7990381057
100
AcDbArc
 50
133.171184019
 51
170.4039906056
  0
ARC
  5
484
100
AcDbEntity
  8
6_ALL_SURFS
100
AcDbCircle
 62
7
  6
CONTINUOUS
 10
491.8516951503
 20
492.3612559855
 40
4.7990381057
100
AcDbArc
 50
133.171184019
 51
170.4039906056
  0
ARC
  5
485
100
AcDbEntity
  8
6_ALL_SURFS
100
AcDbCircle
 62
7
  6
CONTINUOUS
 10
491.8516951503
 20
492.3612559855
 40
4.7990381057
100
AcDbArc
 50
215.6935828234
 51
324.3064171766
  0
ARC
  5
486
100
AcDbEntity
  8
6_ALL_SURFS
100
AcDbCircle
 62
7
  6
CONTINUOUS
 10
741.8516951503
 20
492.3612559855
 40
4.7990381057
100
AcDbArc
 50
215.6935828234
 51
324.3064171766
  0
CIRCLE
  5
487
100
AcDbEntity
  8
6_ALL_SURFS
100
AcDbCircle
 62
7
  6
CONTINUOUS
 10
741.8516951503
 20
492.3612559855
 40
3.5
  0
CIRCLE
  5
488
100
AcDbEntity
  8
6_ALL_SURFS
100
AcDbCircle
 62
7
  6
CONTINUOUS
 10
491.8516951503
 20
492.3612559855
 40
3.5
  0
SPLINE
  5
489
100
AcDbEntity
  8
7_ALL_FEATURES
100
AcDbSpline
 62
7
  6
CONTINUOUS
 70
0
 71
3
 72
12
 73
8
 74
0
 42
0.0000001
 43
0.0000001
 44
0.0000000001
 40
0.0
 40
0.0
 40
0.0
 40
0.0
 40
0.2410580804
 40
0.3685852225
 40
0.4993903554
 40
0.7553946584
 40
1.0
 40
1.0
 40
1.0
 40
1.0
 10
237.1198068655
 20
393.6612559855
 30
0.0
 10
237.1626012155
 20
393.6985200845
 30
0.0
 10
237.2201164411
 20
393.7679234108
 30
0.0
 10
237.2558917113
 20
393.8815026933
 30
0.0
 10
237.2559788506
 20
394.0045718456
 30
0.0
 10
237.1900189595
 20
394.145121661
 30
0.0
 10
237.1029958267
 20
394.226849402
 30
0.0
 10
237.0568263575
 20
394.2612559855
 30
0.0
  0
SPLINE
  5
48A
100
AcDbEntity
  8
7_ALL_FEATURES
100
AcDbSpline
 62
7
  6
CONTINUOUS
 70
0
 71
3
 72
12
 73
8
 74
0
 42
0.0000001
 43
0.0000001
 44
0.0000000001
 40
0.0
 40
0.0
 40
0.0
 40
0.0
 40
0.2410580804
 40
0.3685852225
 40
0.4993903554
 40
0.7553946584
 40
1.0
 40
1.0
 40
1.0
 40
1.0
 10
487.1198068655
 20
393.6612559855
 30
0.0
 10
487.1626012155
 20
393.6985200845
 30
0.0
 10
487.2201164411
 20
393.7679234108
 30
0.0
 10
487.2558917113
 20
393.8815026933
 30
0.0
 10
487.2559788506
 20
394.0045718456
 30
0.0
 10
487.1900189595
 20
394.145121661
 30
0.0
 10
487.1029958267
 20
394.226849402
 30
0.0
 10
487.0568263575
 20
394.2612559855
 30
0.0
  0
SPLINE
  5
48B
100
AcDbEntity
  8
7_ALL_FEATURES
100
AcDbSpline
 62
7
  6
CONTINUOUS
 70
0
 71
3
 72
12
 73
8
 74
0
 42
0.0000001
 43
0.0000001
 44
0.0000000001
 40
0.0
 40
0.0
 40
0.0
 40
0.0
 40
0.2446053742
 40
0.500609656
 40
0.6314147595
 40
0.7589418953
 40
1.0
 40
1.0
 40
1.0
 40
1.0
 10
246.646563943
 20
394.2612559855
 30
0.0
 10
246.6003944677
 20
394.2268493975
 30
0.0
 10
246.5133713344
 20
394.1451216519
 30
0.0
 10
246.4474114503
 20
394.004571839
 30
0.0
 10
246.4474985892
 20
393.8815027012
 30
0.0
 10
246.4832738528
 20
393.7679234196
 30
0.0
 10
246.5407890807
 20
393.6985200882
 30
0.0
 10
246.583583435
 20
393.6612559855
 30
0.0
  0
SPLINE
  5
48C
100
AcDbEntity
  8
6_ALL_SURFS
100
AcDbSpline
 62
7
  6
CONTINUOUS
 70
0
 71
3
 72
13
 73
9
 74
0
 42
0.0000001
 43
0.0000001
 44
0.0000000001
 40
0.0
 40
0.0
 40
0.0
 40
0.0
 40
0.1147644736
 40
0.2361288435
 40
0.3644631951
 40
0.4944826673
 40
0.7503402907
 40
1.0
 40
1.0
 40
1.0
 40
1.0
 10
745.7492285676
 20
489.5612559855
 30
0.0
 10
745.7288387287
 20
489.584397218
 30
0.0
 10
745.6939752381
 20
489.6400287292
 30
0.0
 10
745.6871253717
 20
489.7417715319
 30
0.0
 10
745.725106107
 20
489.8388205343
 30
0.0
 10
745.8073128934
 20
489.9508576663
 30
0.0
 10
745.9394473269
 20
490.0620479455
 30
0.0
 10
746.0568838493
 20
490.1309778458
 30
0.0
 10
746.1167586597
 20
490.1612559855
 30
0.0
  0
SPLINE
  5
48D
100
AcDbEntity
  8
7_ALL_FEATURES
100
AcDbSpline
 62
7
  6
CONTINUOUS
 70
0
 71
3
 72
12
 73
8
 74
0
 42
0.0000001
 43
0.0000001
 44
0.0000000001
 40
0.0
 40
0.0
 40
0.0
 40
0.0
 40
0.2410580804
 40
0.3685852225
 40
0.4993903554
 40
0.7553946584
 40
1.0
 40
1.0
 40
1.0
 40
1.0
 10
737.1198068655
 20
393.6612559855
 30
0.0
 10
737.1626012155
 20
393.6985200845
 30
0.0
 10
737.2201164411
 20
393.7679234108
 30
0.0
 10
737.2558917113
 20
393.8815026933
 30
0.0
 10
737.2559788506
 20
394.0045718456
 30
0.0
 10
737.1900189595
 20
394.145121661
 30
0.0
 10
737.1029958267
 20
394.226849402
 30
0.0
 10
737.0568263575
 20
394.2612559855
 30
0.0
  0
SPLINE
  5
48E
100
AcDbEntity
  8
7_ALL_FEATURES
100
AcDbSpline
 62
7
  6
CONTINUOUS
 70
0
 71
3
 72
12
 73
8
 74
0
 42
0.0000001
 43
0.0000001
 44
0.0000000001
 40
0.0
 40
0.0
 40
0.0
 40
0.0
 40
0.2446053742
 40
0.500609656
 40
0.6314147595
 40
0.7589418953
 40
1.0
 40
1.0
 40
1.0
 40
1.0
 10
496.646563943
 20
394.2612559855
 30
0.0
 10
496.6003944677
 20
394.2268493975
 30
0.0
 10
496.5133713344
 20
394.1451216519
 30
0.0
 10
496.4474114503
 20
394.004571839
 30
0.0
 10
496.4474985892
 20
393.8815027012
 30
0.0
 10
496.4832738528
 20
393.7679234196
 30
0.0
 10
496.5407890807
 20
393.6985200882
 30
0.0
 10
496.583583435
 20
393.6612559855
 30
0.0
  0
SPLINE
  5
48F
100
AcDbEntity
  8
6_ALL_SURFS
100
AcDbSpline
 62
7
  6
CONTINUOUS
 70
0
 71
3
 72
13
 73
9
 74
0
 42
0.0000001
 43
0.0000001
 44
0.0000000001
 40
0.0
 40
0.0
 40
0.0
 40
0.0
 40
0.1147644736
 40
0.2361288435
 40
0.3644631951
 40
0.4944826673
 40
0.7503402907
 40
1.0
 40
1.0
 40
1.0
 40
1.0
 10
495.7492285676
 20
489.5612559855
 30
0.0
 10
495.7288387287
 20
489.584397218
 30
0.0
 10
495.6939752381
 20
489.6400287292
 30
0.0
 10
495.6871253717
 20
489.7417715319
 30
0.0
 10
495.725106107
 20
489.8388205343
 30
0.0
 10
495.8073128934
 20
489.9508576663
 30
0.0
 10
495.9394473269
 20
490.0620479455
 30
0.0
 10
496.0568838493
 20
490.1309778458
 30
0.0
 10
496.1167586597
 20
490.1612559855
 30
0.0
  0
SPLINE
  5
490
100
AcDbEntity
  8
7_ALL_FEATURES
100
AcDbSpline
 62
7
  6
CONTINUOUS
 70
0
 71
3
 72
12
 73
8
 74
0
 42
0.0000001
 43
0.0000001
 44
0.0000000001
 40
0.0
 40
0.0
 40
0.0
 40
0.0
 40
0.2446053742
 40
0.500609656
 40
0.6314147595
 40
0.7589418953
 40
1.0
 40
1.0
 40
1.0
 40
1.0
 10
746.646563943
 20
394.2612559855
 30
0.0
 10
746.6003944677
 20
394.2268493975
 30
0.0
 10
746.5133713344
 20
394.1451216519
 30
0.0
 10
746.4474114503
 20
394.004571839
 30
0.0
 10
746.4474985892
 20
393.8815027012
 30
0.0
 10
746.4832738528
 20
393.7679234196
 30
0.0
 10
746.5407890807
 20
393.6985200882
 30
0.0
 10
746.583583435
 20
393.6612559855
 30
0.0
  0
SPLINE
  5
491
100
AcDbEntity
  8
6_ALL_SURFS
100
AcDbSpline
 62
7
  6
CONTINUOUS
 70
0
 71
3
 72
13
 73
9
 74
0
 42
0.0000001
 43
0.0000001
 44
0.0000000001
 40
0.0
 40
0.0
 40
0.0
 40
0.0
 40
0.2496595905
 40
0.5055162159
 40
0.6355335415
 40
0.7638661595
 40
0.8852331757
 40
1.0
 40
1.0
 40
1.0
 40
1.0
 10
737.5866316408
 20
490.1612559855
 30
0.0
 10
737.6465064325
 20
490.1309778552
 30
0.0
 10
737.7639426765
 20
490.0620480617
 30
0.0
 10
737.8960765856
 20
489.9508584395
 30
0.0
 10
737.9782826866
 20
489.8388225204
 30
0.0
 10
738.0162648322
 20
489.7417745632
 30
0.0
 10
738.0094161576
 20
489.6400305224
 30
0.0
 10
737.9745519928
 20
489.5843976958
 30
0.0
 10
737.9541617329
 20
489.5612559855
 30
0.0
  0
SPLINE
  5
492
100
AcDbEntity
  8
6_ALL_SURFS
100
AcDbSpline
 62
7
  6
CONTINUOUS
 70
0
 71
3
 72
13
 73
9
 74
0
 42
0.0000001
 43
0.0000001
 44
0.0000000001
 40
0.0
 40
0.0
 40
0.0
 40
0.0
 40
0.1147644736
 40
0.2361288435
 40
0.3644631951
 40
0.4944826673
 40
0.7503402907
 40
1.0
 40
1.0
 40
1.0
 40
1.0
 10
245.7492285676
 20
489.5612559855
 30
0.0
 10
245.7288387287
 20
489.584397218
 30
0.0
 10
245.6939752381
 20
489.6400287292
 30
0.0
 10
245.6871253717
 20
489.7417715319
 30
0.0
 10
245.725106107
 20
489.8388205343
 30
0.0
 10
245.8073128934
 20
489.9508576663
 30
0.0
 10
245.9394473269
 20
490.0620479455
 30
0.0
 10
246.0568838493
 20
490.1309778458
 30
0.0
 10
246.1167586597
 20
490.1612559855
 30
0.0
  0
SPLINE
  5
493
100
AcDbEntity
  8
6_ALL_SURFS
100
AcDbSpline
 62
7
  6
CONTINUOUS
 70
0
 71
3
 72
13
 73
9
 74
0
 42
0.0000001
 43
0.0000001
 44
0.0000000001
 40
0.0
 40
0.0
 40
0.0
 40
0.0
 40
0.2496595905
 40
0.5055162159
 40
0.6355335415
 40
0.7638661595
 40
0.8852331757
 40
1.0
 40
1.0
 40
1.0
 40
1.0
 10
487.5866316408
 20
490.1612559855
 30
0.0
 10
487.6465064325
 20
490.1309778552
 30
0.0
 10
487.7639426765
 20
490.0620480617
 30
0.0
 10
487.8960765856
 20
489.9508584395
 30
0.0
 10
487.9782826866
 20
489.8388225204
 30
0.0
 10
488.0162648322
 20
489.7417745632
 30
0.0
 10
488.0094161576
 20
489.6400305224
 30
0.0
 10
487.9745519928
 20
489.5843976958
 30
0.0
 10
487.9541617329
 20
489.5612559855
 30
0.0
  0
SPLINE
  5
494
100
AcDbEntity
  8
6_ALL_SURFS
100
AcDbSpline
 62
7
  6
CONTINUOUS
 70
0
 71
3
 72
13
 73
9
 74
0
 42
0.0000001
 43
0.0000001
 44
0.0000000001
 40
0.0
 40
0.0
 40
0.0
 40
0.0
 40
0.2496595905
 40
0.5055162159
 40
0.6355335415
 40
0.7638661595
 40
0.8852331757
 40
1.0
 40
1.0
 40
1.0
 40
1.0
 10
237.5866316408
 20
490.1612559855
 30
0.0
 10
237.6465064325
 20
490.1309778552
 30
0.0
 10
237.7639426765
 20
490.0620480617
 30
0.0
 10
237.8960765856
 20
489.9508584395
 30
0.0
 10
237.9782826866
 20
489.8388225204
 30
0.0
 10
238.0162648322
 20
489.7417745632
 30
0.0
 10
238.0094161576
 20
489.6400305224
 30
0.0
 10
237.9745519928
 20
489.5843976958
 30
0.0
 10
237.9541617329
 20
489.5612559855
 30
0.0
  0
SPLINE
  5
495
100
AcDbEntity
  8
7_ALL_FEATURES
100
AcDbSpline
 62
7
  6
CONTINUOUS
 70
0
 71
3
 72
13
 73
9
 74
0
 42
0.0000001
 43
0.0000001
 44
0.0000000001
 40
0.0
 40
0.0
 40
0.0
 40
0.0
 40
0.2496595905
 40
0.5055162159
 40
0.6355335415
 40
0.7638661595
 40
0.8852331757
 40
1.0
 40
1.0
 40
1.0
 40
1.0
 10
237.5866316408
 20
396.6612559855
 30
0.0
 10
237.6465064325
 20
396.6915341158
 30
0.0
 10
237.7639426765
 20
396.7604639093
 30
0.0
 10
237.8960765856
 20
396.8716535316
 30
0.0
 10
237.9782826866
 20
396.9836894506
 30
0.0
 10
238.0162648322
 20
397.0807374079
 30
0.0
 10
238.0094161576
 20
397.1824814486
 30
0.0
 10
237.9745519928
 20
397.2381142753
 30
0.0
 10
237.9541617329
 20
397.2612559855
 30
0.0
  0
SPLINE
  5
496
100
AcDbEntity
  8
7_ALL_FEATURES
100
AcDbSpline
 62
7
  6
CONTINUOUS
 70
0
 71
3
 72
13
 73
9
 74
0
 42
0.0000001
 43
0.0000001
 44
0.0000000001
 40
0.0
 40
0.0
 40
0.0
 40
0.0
 40
0.2496595905
 40
0.5055162159
 40
0.6355335415
 40
0.7638661595
 40
0.8852331757
 40
1.0
 40
1.0
 40
1.0
 40
1.0
 10
487.5866316408
 20
396.6612559855
 30
0.0
 10
487.6465064325
 20
396.6915341158
 30
0.0
 10
487.7639426765
 20
396.7604639093
 30
0.0
 10
487.8960765856
 20
396.8716535316
 30
0.0
 10
487.9782826866
 20
396.9836894506
 30
0.0
 10
488.0162648322
 20
397.0807374079
 30
0.0
 10
488.0094161576
 20
397.1824814486
 30
0.0
 10
487.9745519928
 20
397.2381142753
 30
0.0
 10
487.9541617329
 20
397.2612559855
 30
0.0
  0
SPLINE
  5
497
100
AcDbEntity
  8
7_ALL_FEATURES
100
AcDbSpline
 62
7
  6
CONTINUOUS
 70
0
 71
3
 72
13
 73
9
 74
0
 42
0.0000001
 43
0.0000001
 44
0.0000000001
 40
0.0
 40
0.0
 40
0.0
 40
0.0
 40
0.1147644736
 40
0.2361288435
 40
0.3644631951
 40
0.4944826673
 40
0.7503402907
 40
1.0
 40
1.0
 40
1.0
 40
1.0
 10
245.7492285676
 20
397.2612559855
 30
0.0
 10
245.7288387287
 20
397.2381147531
 30
0.0
 10
245.6939752381
 20
397.1824832419
 30
0.0
 10
245.6871253717
 20
397.0807404391
 30
0.0
 10
245.725106107
 20
396.9836914367
 30
0.0
 10
245.8073128934
 20
396.8716543048
 30
0.0
 10
245.9394473269
 20
396.7604640255
 30
0.0
 10
246.0568838493
 20
396.6915341253
 30
0.0
 10
246.1167586597
 20
396.6612559855
 30
0.0
  0
SPLINE
  5
498
100
AcDbEntity
  8
7_ALL_FEATURES
100
AcDbSpline
 62
7
  6
CONTINUOUS
 70
0
 71
3
 72
13
 73
9
 74
0
 42
0.0000001
 43
0.0000001
 44
0.0000000001
 40
0.0
 40
0.0
 40
0.0
 40
0.0
 40
0.2496595905
 40
0.5055162159
 40
0.6355335415
 40
0.7638661595
 40
0.8852331757
 40
1.0
 40
1.0
 40
1.0
 40
1.0
 10
737.5866316408
 20
396.6612559855
 30
0.0
 10
737.6465064325
 20
396.6915341158
 30
0.0
 10
737.7639426765
 20
396.7604639093
 30
0.0
 10
737.8960765856
 20
396.8716535316
 30
0.0
 10
737.9782826866
 20
396.9836894506
 30
0.0
 10
738.0162648322
 20
397.0807374079
 30
0.0
 10
738.0094161576
 20
397.1824814486
 30
0.0
 10
737.9745519928
 20
397.2381142753
 30
0.0
 10
737.9541617329
 20
397.2612559855
 30
0.0
  0
SPLINE
  5
499
100
AcDbEntity
  8
7_ALL_FEATURES
100
AcDbSpline
 62
7
  6
CONTINUOUS
 70
0
 71
3
 72
13
 73
9
 74
0
 42
0.0000001
 43
0.0000001
 44
0.0000000001
 40
0.0
 40
0.0
 40
0.0
 40
0.0
 40
0.1147644736
 40
0.2361288435
 40
0.3644631951
 40
0.4944826673
 40
0.7503402907
 40
1.0
 40
1.0
 40
1.0
 40
1.0
 10
495.7492285676
 20
397.2612559855
 30
0.0
 10
495.7288387287
 20
397.2381147531
 30
0.0
 10
495.6939752381
 20
397.1824832419
 30
0.0
 10
495.6871253717
 20
397.0807404391
 30
0.0
 10
495.725106107
 20
396.9836914367
 30
0.0
 10
495.8073128934
 20
396.8716543048
 30
0.0
 10
495.9394473269
 20
396.7604640255
 30
0.0
 10
496.0568838493
 20
396.6915341253
 30
0.0
 10
496.1167586597
 20
396.6612559855
 30
0.0
  0
SPLINE
  5
49A
100
AcDbEntity
  8
7_ALL_FEATURES
100
AcDbSpline
 62
7
  6
CONTINUOUS
 70
0
 71
3
 72
13
 73
9
 74
0
 42
0.0000001
 43
0.0000001
 44
0.0000000001
 40
0.0
 40
0.0
 40
0.0
 40
0.0
 40
0.1147644736
 40
0.2361288435
 40
0.3644631951
 40
0.4944826673
 40
0.7503402907
 40
1.0
 40
1.0
 40
1.0
 40
1.0
 10
745.7492285676
 20
397.2612559855
 30
0.0
 10
745.7288387287
 20
397.2381147531
 30
0.0
 10
745.6939752381
 20
397.1824832419
 30
0.0
 10
745.6871253717
 20
397.0807404391
 30
0.0
 10
745.725106107
 20
396.9836914367
 30
0.0
 10
745.8073128934
 20
396.8716543048
 30
0.0
 10
745.9394473269
 20
396.7604640255
 30
0.0
 10
746.0568838493
 20
396.6915341253
 30
0.0
 10
746.1167586597
 20
396.6612559855
 30
0.0
  0
SPLINE
  5
49B
100
AcDbEntity
  8
6_ALL_SURFS
100
AcDbSpline
 62
7
  6
CONTINUOUS
 70
0
 71
3
 72
12
 73
8
 74
0
 42
0.0000001
 43
0.0000001
 44
0.0000000001
 40
0.0
 40
0.0
 40
0.0
 40
0.0
 40
0.2446053742
 40
0.500609656
 40
0.6314147595
 40
0.7589418953
 40
1.0
 40
1.0
 40
1.0
 40
1.0
 10
746.646563943
 20
492.5612559855
 30
0.0
 10
746.6003944677
 20
492.5956625736
 30
0.0
 10
746.5133713344
 20
492.6773903191
 30
0.0
 10
746.4474114503
 20
492.8179401321
 30
0.0
 10
746.4474985892
 20
492.9410092698
 30
0.0
 10
746.4832738528
 20
493.0545885514
 30
0.0
 10
746.5407890807
 20
493.1239918828
 30
0.0
 10
746.583583435
 20
493.1612559855
 30
0.0
  0
SPLINE
  5
49C
100
AcDbEntity
  8
6_ALL_SURFS
100
AcDbSpline
 62
7
  6
CONTINUOUS
 70
0
 71
3
 72
12
 73
8
 74
0
 42
0.0000001
 43
0.0000001
 44
0.0000000001
 40
0.0
 40
0.0
 40
0.0
 40
0.0
 40
0.2446053742
 40
0.500609656
 40
0.6314147595
 40
0.7589418953
 40
1.0
 40
1.0
 40
1.0
 40
1.0
 10
496.646563943
 20
492.5612559855
 30
0.0
 10
496.6003944677
 20
492.5956625736
 30
0.0
 10
496.5133713344
 20
492.6773903191
 30
0.0
 10
496.4474114503
 20
492.8179401321
 30
0.0
 10
496.4474985892
 20
492.9410092698
 30
0.0
 10
496.4832738528
 20
493.0545885514
 30
0.0
 10
496.5407890807
 20
493.1239918828
 30
0.0
 10
496.583583435
 20
493.1612559855
 30
0.0
  0
SPLINE
  5
49D
100
AcDbEntity
  8
6_ALL_SURFS
100
AcDbSpline
 62
7
  6
CONTINUOUS
 70
0
 71
3
 72
12
 73
8
 74
0
 42
0.0000001
 43
0.0000001
 44
0.0000000001
 40
0.0
 40
0.0
 40
0.0
 40
0.0
 40
0.2410580804
 40
0.3685852225
 40
0.4993903554
 40
0.7553946584
 40
1.0
 40
1.0
 40
1.0
 40
1.0
 10
737.1198068655
 20
493.1612559855
 30
0.0
 10
737.1626012155
 20
493.1239918866
 30
0.0
 10
737.2201164411
 20
493.0545885602
 30
0.0
 10
737.2558917113
 20
492.9410092777
 30
0.0
 10
737.2559788506
 20
492.8179401254
 30
0.0
 10
737.1900189595
 20
492.67739031
 30
0.0
 10
737.1029958267
 20
492.595662569
 30
0.0
 10
737.0568263575
 20
492.5612559855
 30
0.0
  0
SPLINE
  5
49E
100
AcDbEntity
  8
6_ALL_SURFS
100
AcDbSpline
 62
7
  6
CONTINUOUS
 70
0
 71
3
 72
12
 73
8
 74
0
 42
0.0000001
 43
0.0000001
 44
0.0000000001
 40
0.0
 40
0.0
 40
0.0
 40
0.0
 40
0.2446053742
 40
0.500609656
 40
0.6314147595
 40
0.7589418953
 40
1.0
 40
1.0
 40
1.0
 40
1.0
 10
246.646563943
 20
492.5612559855
 30
0.0
 10
246.6003944677
 20
492.5956625736
 30
0.0
 10
246.5133713344
 20
492.6773903191
 30
0.0
 10
246.4474114503
 20
492.8179401321
 30
0.0
 10
246.4474985892
 20
492.9410092698
 30
0.0
 10
246.4832738528
 20
493.0545885514
 30
0.0
 10
246.5407890807
 20
493.1239918828
 30
0.0
 10
246.583583435
 20
493.1612559855
 30
0.0
  0
SPLINE
  5
49F
100
AcDbEntity
  8
6_ALL_SURFS
100
AcDbSpline
 62
7
  6
CONTINUOUS
 70
0
 71
3
 72
12
 73
8
 74
0
 42
0.0000001
 43
0.0000001
 44
0.0000000001
 40
0.0
 40
0.0
 40
0.0
 40
0.0
 40
0.2410580804
 40
0.3685852225
 40
0.4993903554
 40
0.7553946584
 40
1.0
 40
1.0
 40
1.0
 40
1.0
 10
487.1198068655
 20
493.1612559855
 30
0.0
 10
487.1626012155
 20
493.1239918866
 30
0.0
 10
487.2201164411
 20
493.0545885602
 30
0.0
 10
487.2558917113
 20
492.9410092777
 30
0.0
 10
487.2559788506
 20
492.8179401254
 30
0.0
 10
487.1900189595
 20
492.67739031
 30
0.0
 10
487.1029958267
 20
492.595662569
 30
0.0
 10
487.0568263575
 20
492.5612559855
 30
0.0
  0
SPLINE
  5
4A0
100
AcDbEntity
  8
6_ALL_SURFS
100
AcDbSpline
 62
7
  6
CONTINUOUS
 70
0
 71
3
 72
12
 73
8
 74
0
 42
0.0000001
 43
0.0000001
 44
0.0000000001
 40
0.0
 40
0.0
 40
0.0
 40
0.0
 40
0.2410580804
 40
0.3685852225
 40
0.4993903554
 40
0.7553946584
 40
1.0
 40
1.0
 40
1.0
 40
1.0
 10
237.1198068655
 20
493.1612559855
 30
0.0
 10
237.1626012155
 20
493.1239918866
 30
0.0
 10
237.2201164411
 20
493.0545885602
 30
0.0
 10
237.2558917113
 20
492.9410092777
 30
0.0
 10
237.2559788506
 20
492.8179401254
 30
0.0
 10
237.1900189595
 20
492.67739031
 30
0.0
 10
237.1029958267
 20
492.595662569
 30
0.0
 10
237.0568263575
 20
492.5612559855
 30
0.0
  0
ELLIPSE
  5
4A1
100
AcDbEntity
  8
6_ALL_SURFS
100
AcDbEllipse
 62
7
  6
CONTINUOUS
 10
741.8516951503
 20
187.5466909506
 30
0.0
 11
5.4882058378
 21
-0.0
 31
0.0
 40
0.1015346165
 41
7.212646077
 42
8.495317191
  0
ELLIPSE
  5
4A2
100
AcDbEntity
  8
6_ALL_SURFS
100
AcDbEllipse
 62
7
  6
CONTINUOUS
 10
491.8516951503
 20
187.5466909506
 30
0.0
 11
5.4882058378
 21
-0.0
 31
0.0
 40
0.1015346165
 41
7.212646077
 42
8.495317191
  0
ELLIPSE
  5
4A3
100
AcDbEntity
  8
6_ALL_SURFS
100
AcDbEllipse
 62
7
  6
CONTINUOUS
 10
241.8516951503
 20
187.5466909506
 30
0.0
 11
5.4882058378
 21
-0.0
 31
0.0
 40
0.1015346165
 41
7.212646077
 42
8.495317191
  0
ELLIPSE
  5
4A4
100
AcDbEntity
  8
6_ALL_SURFS
100
AcDbEllipse
 62
7
  6
CONTINUOUS
 10
741.8516951503
 20
491.3960830137
 30
0.0
 11
-0.0
 21
5.5724287509
 31
0.0
 40
0.9848857802
 41
5.6418497502
 42
6.9245208642
  0
ELLIPSE
  5
4A5
100
AcDbEntity
  8
6_ALL_SURFS
100
AcDbEllipse
 62
7
  6
CONTINUOUS
 10
491.8516951503
 20
491.3960830137
 30
0.0
 11
-0.0
 21
5.5724287509
 31
0.0
 40
0.9848857802
 41
5.6418497502
 42
6.9245208642
  0
ELLIPSE
  5
4A6
100
AcDbEntity
  8
7_ALL_FEATURES
100
AcDbEllipse
 62
7
  6
CONTINUOUS
 10
741.8516951503
 20
395.4264289573
 30
0.0
 11
-0.0
 21
5.5724287509
 31
0.0
 40
0.9848857802
 41
-3.7829282106
 42
-2.5002570966
  0
ELLIPSE
  5
4A7
100
AcDbEntity
  8
6_ALL_SURFS
100
AcDbEllipse
 62
7
  6
CONTINUOUS
 10
241.8516951503
 20
491.3960830137
 30
0.0
 11
0.0
 21
5.5724287509
 31
0.0
 40
0.9848857802
 41
5.6418497502
 42
6.9245208642
  0
ELLIPSE
  5
4A8
100
AcDbEntity
  8
7_ALL_FEATURES
100
AcDbEllipse
 62
7
  6
CONTINUOUS
 10
491.8516951503
 20
395.4264289573
 30
0.0
 11
-0.0
 21
5.5724287509
 31
0.0
 40
0.9848857802
 41
-3.7829282106
 42
-2.5002570966
  0
ELLIPSE
  5
4A9
100
AcDbEntity
  8
7_ALL_FEATURES
100
AcDbEllipse
 62
7
  6
CONTINUOUS
 10
241.8516951503
 20
395.4264289573
 30
0.0
 11
0.0
 21
5.5724287509
 31
0.0
 40
0.9848857802
 41
-3.7829282106
 42
-2.5002570966
  0
ENDSEC
  0
SECTION
  2
OBJECTS
  0
DICTIONARY
  5
4AA
100
AcDbDictionary
  3
ACAD_GROUP
350
4AB
  3
ACAD_MLINESTYLE
350
4AC
  0
DICTIONARY
  5
4AB
102
{ACAD_REACTORS
330
4AA
102
}
100
AcDbDictionary
  0
DICTIONARY
  5
4AC
102
{ACAD_REACTORS
330
4AA
102
}
100
AcDbDictionary
  3
STANDARD
350
4AD
  0
MLINESTYLE
  5
4AD
102
{ACAD_REACTORS
330
4AC
102
}
100
AcDbMlineStyle
  2
STANDARD
 70
0
  3

 62
256
 51
90.0
 52
90.0
 71
2
 49
0.5
 62
256
  6
BYLAYER
 49
-0.5
 62
256
  6
BYLAYER
  0
ENDSEC
  0
EOF
