999
DXF file: 6f3_c_047.dxf
999
Pro/ENGINEER 2016360 by Parametric Technology Corporation
  0
SECTION
  2
HEADER
  9
$ACADVER
  1
AC1014
  9
$DWGCODEPAGE
  3
ANSI_1252
  9
$EXTMAX
 10
3200.0
 20
2500.0
 30
0.0
  9
$EXTMIN
 10
0.0
 20
0.0
 30
0.0
  9
$LIMMIN
 10
0.0
 20
0.0
  9
$LIMMAX
 10
3200.0
 20
2500.0
  9
$VIEWCTR
 10
1600.0
 20
1250.0
  9
$VIEWSIZE
 40
2500.0
  9
$CLAYER
  8
0
  9
$LTSCALE
 40
176.0
  9
$CELTYPE
  6
BYLAYER
  9
$DIMSCALE
 40
1.0
  9
$DIMASZ
 40
2.5
  9
$DIMEXO
 40
0.75
  9
$DIMDLI
 40
121.6
  9
$DIMEXE
 40
0.75
  9
$DIMCEN
 40
28.8
  9
$DIMLFAC
 40
1.0
  9
$DIMBLK
  1
_CLOSED
  9
$DIMALT
 70
0
  9
$DIMALTF
 40
25.4
  9
$DIMTXT
 40
3.0
  9
$DIMTOL
 70
1
  9
$DIMLIM
 70
0
  9
$DIMTFAC
 40
1.0
  9
$DIMTP
 40
0.01
  9
$DIMTM
 40
0.01
  9
$DIMGAP
 40
0.625
  9
$AUNITS
 70
0
  9
$PDMODE
 70
3
  9
$PDSIZE
 40
0.3125
  9
$HANDSEED
  5
5D9
  9
$TILEMODE
 70
1
  9
$MEASUREMENT
 70
1
  0
ENDSEC
  0
SECTION
  2
CLASSES
  0
ENDSEC
  0
SECTION
  2
TABLES
  0
TABLE
  2
VPORT
  5
8
100
AcDbSymbolTable
 70
2
  0
VPORT
  5
1F4
100
AcDbSymbolTableRecord
100
AcDbViewportTableRecord
  2
*ACTIVE
 70
0
 10
0.0
 20
0.0
 11
1.0
 21
1.0
 12
1600.0
 22
1250.0
 13
0.0
 23
0.0
 14
1.0
 24
1.0
 15
0.0
 25
0.0
 16
0.0
 26
0.0
 36
1.0
 17
0.0
 27
0.0
 37
0.0
 40
2500.0
 41
1.28
 42
50.0
 43
0.0
 44
0.0
 50
0.0
 51
0.0
 71
0
 72
100
 73
1
 74
1
 75
0
 76
0
 77
0
 78
0
  0
ENDTAB
  0
TABLE
  2
LTYPE
  5
5
100
AcDbSymbolTable
 70
6
  0
LTYPE
  5
14
100
AcDbSymbolTableRecord
100
AcDbLinetypeTableRecord
  2
BYBLOCK
 70
0
  3

 72
65
 73
0
 40
0.0
  0
LTYPE
  5
15
100
AcDbSymbolTableRecord
100
AcDbLinetypeTableRecord
  2
BYLAYER
 70
0
  3

 72
65
 73
0
 40
0.0
  0
LTYPE
  5
16
100
AcDbSymbolTableRecord
100
AcDbLinetypeTableRecord
  2
CONTINUOUS
 70
64
  3
Solid line
 72
65
 73
0
 40
0.0
  0
LTYPE
  5
1F5
100
AcDbSymbolTableRecord
100
AcDbLinetypeTableRecord
  2
CENTER
 70
64
  3
____ _ ____ _ ____ _ ____ _ ____ _ ____ _ ____
 72
65
 73
4
 40
0.6
 49
0.375
 74
0
 49
-0.075
 74
0
 49
0.075
 74
0
 49
-0.075
 74
0
  0
LTYPE
  5
1F6
100
AcDbSymbolTableRecord
100
AcDbLinetypeTableRecord
  2
HIDDEN
 70
64
  3
- - - - - - - - - - - - - - - - - - - -
 72
65
 73
2
 40
0.2
 49
0.1
 74
0
 49
-0.1
 74
0
  0
LTYPE
  5
1F7
100
AcDbSymbolTableRecord
100
AcDbLinetypeTableRecord
  2
PHANTOM
 70
64
  3
_____ _ _ _____ _ _ _____ _ _ _____
 72
65
 73
6
 40
0.8
 49
0.45
 74
0
 49
-0.05
 74
0
 49
0.1
 74
0
 49
-0.05
 74
0
 49
0.1
 74
0
 49
-0.05
 74
0
  0
LTYPE
  5
1F8
100
AcDbSymbolTableRecord
100
AcDbLinetypeTableRecord
  2
DOT
 70
64
  3
. . . . . . . . . . . . . . . . . . . .
 72
65
 73
2
 40
0.2
 49
0.1
 74
0
 49
-0.1
 74
0
  0
LTYPE
  5
1F9
100
AcDbSymbolTableRecord
100
AcDbLinetypeTableRecord
  2
DASHED
 70
64
  3
- - - - - - - - - - - - - - - - - - - -
 72
65
 73
2
 40
0.2
 49
0.1
 74
0
 49
-0.1
 74
0
  0
ENDTAB
  0
TABLE
  2
LAYER
  5
2
100
AcDbSymbolTable
 70
36
  0
LAYER
  5
10
100
AcDbSymbolTableRecord
100
AcDbLayerTableRecord
  2
0
 70
0
 62
7
  6
CONTINUOUS
  0
LAYER
  5
1FA
100
AcDbSymbolTableRecord
100
AcDbLayerTableRecord
  2
DEFAULT_1
 70
0
 62
7
  6
CENTER
  0
LAYER
  5
1FB
100
AcDbSymbolTableRecord
100
AcDbLayerTableRecord
  2
DEFAULT_2
 70
0
 62
8
  6
HIDDEN
  0
LAYER
  5
1FC
100
AcDbSymbolTableRecord
100
AcDbLayerTableRecord
  2
DEFAULT_3
 70
0
 62
7
  6
PHANTOM
  0
LAYER
  5
1FD
100
AcDbSymbolTableRecord
100
AcDbLayerTableRecord
  2
1_ALL_PLANES
 70
0
 62
7
  6
CONTINUOUS
  0
LAYER
  5
1FE
100
AcDbSymbolTableRecord
100
AcDbLayerTableRecord
  2
2_ALL_CSYS
 70
0
 62
7
  6
CONTINUOUS
  0
LAYER
  5
1FF
100
AcDbSymbolTableRecord
100
AcDbLayerTableRecord
  2
3_ALL_AXES
 70
0
 62
7
  6
CONTINUOUS
  0
LAYER
  5
200
100
AcDbSymbolTableRecord
100
AcDbLayerTableRecord
  2
4_ALL_POINTS
 70
0
 62
7
  6
CONTINUOUS
  0
LAYER
  5
201
100
AcDbSymbolTableRecord
100
AcDbLayerTableRecord
  2
5_ALL_CURVES
 70
0
 62
7
  6
CONTINUOUS
  0
LAYER
  5
202
100
AcDbSymbolTableRecord
100
AcDbLayerTableRecord
  2
5__COSTRUZIONE
 70
0
 62
7
  6
CONTINUOUS
  0
LAYER
  5
203
100
AcDbSymbolTableRecord
100
AcDbLayerTableRecord
  2
6_ALL_SURFS
 70
0
 62
7
  6
CONTINUOUS
  0
LAYER
  5
204
100
AcDbSymbolTableRecord
100
AcDbLayerTableRecord
  2
7_ALL_FEATURES
 70
0
 62
7
  6
CONTINUOUS
  0
LAYER
  5
205
100
AcDbSymbolTableRecord
100
AcDbLayerTableRecord
  2
9_SOLID
 70
0
 62
7
  6
CONTINUOUS
  0
LAYER
  5
206
100
AcDbSymbolTableRecord
100
AcDbLayerTableRecord
  2
PR9034
 70
0
 62
7
  6
CONTINUOUS
  0
LAYER
  5
207
100
AcDbSymbolTableRecord
100
AcDbLayerTableRecord
  2
WHITE
 70
0
 62
7
  6
CONTINUOUS
  0
LAYER
  5
208
100
AcDbSymbolTableRecord
100
AcDbLayerTableRecord
  2
XXX_SOLIDO
 70
0
 62
7
  6
CONTINUOUS
  0
ENDTAB
  0
TABLE
  2
STYLE
  5
3
100
AcDbSymbolTable
 70
1
  0
STYLE
  5
11
100
AcDbSymbolTableRecord
100
AcDbTextStyleTableRecord
  2
STANDARD
 70
0
 40
0.0
 41
1.0
 50
0.0
 71
0
 42
0.2
  3
arial.ttf
  4

  0
STYLE
  5
209
100
AcDbSymbolTableRecord
100
AcDbTextStyleTableRecord
  2
TEXTSTYLE_1
 70
0
 40
0.0
 41
0.8
 50
0.0
 71
0
 42
0.2
  3
gdt
  4

  0
STYLE
  5
20A
100
AcDbSymbolTableRecord
100
AcDbTextStyleTableRecord
  2
TEXTSTYLE_2
 70
0
 40
0.0
 41
0.85
 50
0.0
 71
0
 42
0.2
  3
txt
  4

  0
ENDTAB
  0
TABLE
  2
VIEW
  5
6
100
AcDbSymbolTable
 70
0
  0
ENDTAB
  0
TABLE
  2
UCS
  5
7
100
AcDbSymbolTable
 70
0
  0
ENDTAB
  0
TABLE
  2
APPID
  5
9
100
AcDbSymbolTable
 70
1
  0
APPID
  5
20B
100
AcDbSymbolTableRecord
100
AcDbRegAppTableRecord
  2
ACAD
 70
0
  0
ENDTAB
  0
TABLE
  2
BLOCK_RECORD
  5
1
100
AcDbSymbolTable
 70
0
  0
BLOCK_RECORD
  5
1F
100
AcDbSymbolTableRecord
100
AcDbBlockTableRecord
  2
*MODEL_SPACE
  0
BLOCK_RECORD
  5
1B
100
AcDbSymbolTableRecord
100
AcDbBlockTableRecord
  2
*PAPER_SPACE
  0
BLOCK_RECORD
  5
20C
100
AcDbSymbolTableRecord
100
AcDbBlockTableRecord
  2
_CLOSED
  0
BLOCK_RECORD
  5
20D
100
AcDbSymbolTableRecord
100
AcDbBlockTableRecord
  2
*D0
  0
BLOCK_RECORD
  5
20E
100
AcDbSymbolTableRecord
100
AcDbBlockTableRecord
  2
*D1
  0
BLOCK_RECORD
  5
20F
100
AcDbSymbolTableRecord
100
AcDbBlockTableRecord
  2
*D2
  0
BLOCK_RECORD
  5
210
100
AcDbSymbolTableRecord
100
AcDbBlockTableRecord
  2
*D3
  0
BLOCK_RECORD
  5
211
100
AcDbSymbolTableRecord
100
AcDbBlockTableRecord
  2
LOGO2_BL0
  0
ENDTAB
  0
TABLE
  2
DIMSTYLE
  5
A
100
AcDbSymbolTable
 70
1
  0
DIMSTYLE
105
212
100
AcDbSymbolTableRecord
100
AcDbDimStyleTableRecord
  2
STANDARD
 70
0
  3

  4

  5
_CLOSED
  6
_CLOSED
  7
_CLOSED
 40
1.0
 41
2.5
 42
0.75
 43
0.38
 44
0.75
 45
0.0
 46
0.0
 47
0.01
 48
0.01
140
3.0
141
0.09
142
0.0
143
25.4
144
1.0
145
0.0
146
1.0
147
0.625
 71
1.0
 72
0.0
 73
0
 74
0
 75
0
 76
0
 77
1
 78
8
 79
2
170
0
171
1
172
0
173
0
174
0
175
0
176
0
177
0
178
0
270
2
179
2
271
2
272
2
273
2
274
2
275
0
280
0
281
0
282
0
283
1
284
8
285
0
286
0
287
3
288
0
340
11
  0
DIMSTYLE
105
213
100
AcDbSymbolTableRecord
100
AcDbDimStyleTableRecord
  2
DIMSTYLE_1
 70
0
  3

  4

  5
_CLOSED
  6
_CLOSED
  7
_CLOSED
 40
1.0
 41
2.5
 42
0.75
 43
0.38
 44
0.75
 45
0.0
 46
0.0
 47
0.3
 48
0.3
140
10.0
141
0.09
142
0.0
143
25.4
144
1.0
145
0.0
146
1.0
147
2.5
 71
0.0
 72
0.0
 73
0
 74
0
 75
0
 76
0
 77
1
 78
8
 79
2
170
0
171
1
172
0
173
0
174
0
175
0
176
0
177
0
178
0
270
2
179
2
271
2
272
2
273
2
274
2
275
0
280
0
281
0
282
0
283
1
284
8
285
0
286
0
287
3
288
0
340
11
  0
DIMSTYLE
105
214
100
AcDbSymbolTableRecord
100
AcDbDimStyleTableRecord
  2
DIMSTYLE_2
 70
0
  3

  4

  5
_CLOSED
  6
_CLOSED
  7
_CLOSED
 40
1.0
 41
2.5
 42
0.75
 43
0.38
 44
0.75
 45
0.0
 46
0.0
 47
2.0
 48
2.0
140
10.0
141
0.09
142
0.0
143
25.4
144
1.0
145
0.0
146
1.0
147
2.5
 71
0.0
 72
0.0
 73
0
 74
0
 75
0
 76
0
 77
1
 78
8
 79
2
170
0
171
1
172
0
173
0
174
0
175
0
176
0
177
0
178
0
270
2
179
2
271
2
272
2
273
2
274
2
275
0
280
0
281
0
282
0
283
1
284
8
285
0
286
0
287
3
288
0
340
11
  0
ENDTAB
  0
ENDSEC
  0
SECTION
  2
BLOCKS
  0
BLOCK
  5
20
100
AcDbEntity
  8
0
100
AcDbBlockBegin
  2
*MODEL_SPACE
 70
0
 10
0.0
 20
0.0
 30
0.0
  3
*MODEL_SPACE
  1

  0
ENDBLK
  5
21
100
AcDbEntity
  8
0
100
AcDbBlockEnd
  0
BLOCK
  5
1C
100
AcDbEntity
  8
0
100
AcDbBlockBegin
  2
*PAPER_SPACE
 70
0
 10
0.0
 20
0.0
 30
0.0
  3
*PAPER_SPACE
  1

  0
ENDBLK
  5
1D
100
AcDbEntity
  8
0
100
AcDbBlockEnd
  0
BLOCK
  5
215
100
AcDbEntity
  8
0
100
AcDbBlockBegin
 62
2
  6
CONTINUOUS
  2
LOGO2_BL0
 70
64
 10
3056.6670842488
 20
41.7423900789
  3
LOGO2_BL0
  1

  0
LINE
  5
216
100
AcDbEntity
  8
0
100
AcDbLine
 62
7
  6
CONTINUOUS
 10
3048.410009477
 20
44.9378814178
 11
3047.1056685477
 21
44.9378814178
  0
LINE
  5
217
100
AcDbEntity
  8
0
100
AcDbLine
 62
7
  6
CONTINUOUS
 10
3047.1056685477
 20
44.9378814178
 11
3047.1056685477
 21
34.4788153579
  0
LINE
  5
218
100
AcDbEntity
  8
0
100
AcDbLine
 62
7
  6
CONTINUOUS
 10
3047.1056685477
 20
34.4788153579
 11
3051.5867234359
 21
34.4788153579
  0
LINE
  5
219
100
AcDbEntity
  8
0
100
AcDbLine
 62
7
  6
CONTINUOUS
 10
3051.5867234359
 20
34.4788153579
 11
3051.5867234359
 21
35.671669683
  0
LINE
  5
21A
100
AcDbEntity
  8
0
100
AcDbLine
 62
7
  6
CONTINUOUS
 10
3051.5867234359
 20
35.671669683
 11
3048.410009477
 21
35.671669683
  0
LINE
  5
21B
100
AcDbEntity
  8
0
100
AcDbLine
 62
7
  6
CONTINUOUS
 10
3048.410009477
 20
35.671669683
 11
3048.410009477
 21
44.9378814178
  0
LINE
  5
21C
100
AcDbEntity
  8
0
100
AcDbLine
 62
7
  6
CONTINUOUS
 10
3063.3463356933
 20
44.9378814178
 11
3062.0425181753
 21
44.9378814178
  0
LINE
  5
21D
100
AcDbEntity
  8
0
100
AcDbLine
 62
7
  6
CONTINUOUS
 10
3062.0425181753
 20
44.9378814178
 11
3062.0425181753
 21
34.4788153579
  0
LINE
  5
21E
100
AcDbEntity
  8
0
100
AcDbLine
 62
7
  6
CONTINUOUS
 10
3062.0425181753
 20
34.4788153579
 11
3066.5237039164
 21
34.4788153579
  0
LINE
  5
21F
100
AcDbEntity
  8
0
100
AcDbLine
 62
7
  6
CONTINUOUS
 10
3066.5237039164
 20
34.4788153579
 11
3066.5237039164
 21
35.671669683
  0
LINE
  5
220
100
AcDbEntity
  8
0
100
AcDbLine
 62
7
  6
CONTINUOUS
 10
3066.5237039164
 20
35.671669683
 11
3063.3463356933
 21
35.671669683
  0
LINE
  5
221
100
AcDbEntity
  8
0
100
AcDbLine
 62
7
  6
CONTINUOUS
 10
3063.3463356933
 20
35.671669683
 11
3063.3463356933
 21
44.9378814178
  0
LWPOLYLINE
  5
222
100
AcDbEntity
  8
0
100
AcDbPolyline
 62
7
  6
CONTINUOUS
 90
2
 70
0
 43
0.2
 10
3045.4600634586
 20
31.135264051
 10
3045.4600634586
 20
29.2782008016
  0
LWPOLYLINE
  5
223
100
AcDbEntity
  8
0
100
AcDbPolyline
 62
7
  6
CONTINUOUS
 90
2
 70
0
 43
0.2
 10
3045.4600634586
 20
29.2782008016
 10
3046.255779469
 20
29.2782008016
  0
LWPOLYLINE
  5
224
100
AcDbEntity
  8
0
100
AcDbPolyline
 62
7
  6
CONTINUOUS
 90
2
 70
0
 43
0.2
 10
3046.255779469
 20
29.2782008016
 10
3046.255779469
 20
29.4901823732
  0
LWPOLYLINE
  5
225
100
AcDbEntity
  8
0
100
AcDbPolyline
 62
7
  6
CONTINUOUS
 90
2
 70
0
 43
0.2
 10
3046.255779469
 20
29.4901823732
 10
3045.6916729535
 20
29.4901823732
  0
LWPOLYLINE
  5
226
100
AcDbEntity
  8
0
100
AcDbPolyline
 62
7
  6
CONTINUOUS
 90
2
 70
0
 43
0.2
 10
3045.6916729535
 20
29.4901823732
 10
3045.6916729535
 20
31.135264051
  0
LWPOLYLINE
  5
227
100
AcDbEntity
  8
0
100
AcDbPolyline
 62
7
  6
CONTINUOUS
 90
2
 70
0
 43
0.2
 10
3045.6916729535
 20
31.135264051
 10
3045.4600634586
 20
31.135264051
  0
SPLINE
  5
228
100
AcDbEntity
  8
0
100
AcDbSpline
 62
7
  6
CONTINUOUS
 70
2
 71
3
 72
35
 73
31
 74
0
 42
0.0000001
 43
0.0000001
 44
0.0000000001
 40
0.0
 40
0.0
 40
0.0
 40
0.0
 40
1.0
 40
1.0
 40
1.0
 40
2.0
 40
2.0
 40
2.0
 40
3.0
 40
3.0
 40
3.0
 40
4.0
 40
4.0
 40
4.0
 40
5.0
 40
5.0
 40
5.0
 40
6.0
 40
6.0
 40
6.0
 40
7.0
 40
7.0
 40
7.0
 40
8.0
 40
8.0
 40
8.0
 40
9.0
 40
9.0
 40
9.0
 40
10.0
 40
10.0
 40
10.0
 40
10.0
 10
3047.6540727245
 20
30.4307524575
 30
0.0
 10
3047.6540727245
 20
30.4307524575
 30
0.0
 10
3047.6540727245
 20
29.7686371784
 30
0.0
 10
3047.6540727245
 20
29.7686371784
 30
0.0
 10
3047.6540727245
 20
29.4535435831
 30
0.0
 10
3047.8019364134
 20
29.238944955
 30
0.0
 10
3048.1420228977
 20
29.238944955
 30
0.0
 10
3048.4815859707
 20
29.238944955
 30
0.0
 10
3048.6297113651
 20
29.4535435831
 30
0.0
 10
3048.6297113651
 20
29.7686371784
 30
0.0
 10
3048.6297113651
 20
29.7686371784
 30
0.0
 10
3048.6297113651
 20
30.4307524575
 30
0.0
 10
3048.6297113651
 20
30.4307524575
 30
0.0
 10
3048.6297113651
 20
30.4307524575
 30
0.0
 10
3048.4076541262
 20
30.4307524575
 30
0.0
 10
3048.4076541262
 20
30.4307524575
 30
0.0
 10
3048.4076541262
 20
30.4307524575
 30
0.0
 10
3048.4076541262
 20
29.7937609202
 30
0.0
 10
3048.4076541262
 20
29.7937609202
 30
0.0
 10
3048.4076541262
 20
29.607949913
 30
0.0
 10
3048.3609396688
 20
29.4451690025
 30
0.0
 10
3048.1420228977
 20
29.4451690025
 30
0.0
 10
3047.9225827152
 20
29.4451690025
 30
0.0
 10
3047.8758682578
 20
29.607949913
 30
0.0
 10
3047.8758682578
 20
29.7937609202
 30
0.0
 10
3047.8758682578
 20
29.7937609202
 30
0.0
 10
3047.8758682578
 20
30.4307524575
 30
0.0
 10
3047.8758682578
 20
30.4307524575
 30
0.0
 10
3047.8758682578
 20
30.4307524575
 30
0.0
 10
3047.6540727245
 20
30.4307524575
 30
0.0
 10
3047.6540727245
 20
30.4307524575
 30
0.0
  0
SPLINE
  5
229
100
AcDbEntity
  8
0
100
AcDbSpline
 62
7
  6
CONTINUOUS
 70
2
 71
3
 72
35
 73
31
 74
0
 42
0.0000001
 43
0.0000001
 44
0.0000000001
 40
0.0
 40
0.0
 40
0.0
 40
0.0
 40
1.0
 40
1.0
 40
1.0
 40
2.0
 40
2.0
 40
2.0
 40
3.0
 40
3.0
 40
3.0
 40
4.0
 40
4.0
 40
4.0
 40
5.0
 40
5.0
 40
5.0
 40
6.0
 40
6.0
 40
6.0
 40
7.0
 40
7.0
 40
7.0
 40
8.0
 40
8.0
 40
8.0
 40
9.0
 40
9.0
 40
9.0
 40
10.0
 40
10.0
 40
10.0
 40
10.0
 10
3051.0528439223
 20
30.3894029658
 30
0.0
 10
3050.9643874147
 20
30.440697272
 30
0.0
 10
3050.850938018
 20
30.4658210138
 30
0.0
 10
3050.747302583
 20
30.4658210138
 30
0.0
 10
3050.3924297298
 20
30.4658210138
 30
0.0
 10
3050.1169845396
 20
30.2020217247
 30
0.0
 10
3050.1169845396
 20
29.8445318151
 30
0.0
 10
3050.1169845396
 20
29.4996037764
 30
0.0
 10
3050.3954393448
 20
29.2394683663
 30
0.0
 10
3050.7350024178
 20
29.2394683663
 30
0.0
 10
3050.850938018
 20
29.2394683663
 30
0.0
 10
3050.9516946909
 20
29.2614516404
 30
0.0
 10
3051.0528439223
 20
29.3153630031
 30
0.0
 10
3051.0528439223
 20
29.3153630031
 30
0.0
 10
3051.0528439223
 20
29.5980050985
 30
0.0
 10
3051.0528439223
 20
29.5980050985
 30
0.0
 10
3050.9689672634
 20
29.5048378893
 30
0.0
 10
3050.8654626813
 20
29.4456924138
 30
0.0
 10
3050.7373577686
 20
29.4456924138
 30
0.0
 10
3050.5036546285
 20
29.4456924138
 30
0.0
 10
3050.3383875144
 20
29.6178947275
 30
0.0
 10
3050.3383875144
 20
29.8544766296
 30
0.0
 10
3050.3383875144
 20
30.0664582012
 30
0.0
 10
3050.5061408321
 20
30.2585501438
 30
0.0
 10
3050.7229639581
 20
30.2585501438
 30
0.0
 10
3050.8557795724
 20
30.2585501438
 30
0.0
 10
3050.9643874147
 20
30.2046387812
 30
0.0
 10
3051.0528439223
 20
30.1036204026
 30
0.0
 10
3051.0528439223
 20
30.1036204026
 30
0.0
 10
3051.0528439223
 20
30.3894029658
 30
0.0
 10
3051.0528439223
 20
30.3894029658
 30
0.0
  0
SPLINE
  5
22A
100
AcDbEntity
  8
0
100
AcDbSpline
 62
7
  6
CONTINUOUS
 70
2
 71
3
 72
32
 73
28
 74
0
 42
0.0000001
 43
0.0000001
 44
0.0000000001
 40
0.0
 40
0.0
 40
0.0
 40
0.0
 40
1.0
 40
1.0
 40
1.0
 40
2.0
 40
2.0
 40
2.0
 40
3.0
 40
3.0
 40
3.0
 40
4.0
 40
4.0
 40
4.0
 40
5.0
 40
5.0
 40
5.0
 40
6.0
 40
6.0
 40
6.0
 40
7.0
 40
7.0
 40
7.0
 40
8.0
 40
8.0
 40
8.0
 40
9.0
 40
9.0
 40
9.0
 40
9.0
 10
3053.5847151746
 20
29.8178378394
 30
0.0
 10
3053.5847151746
 20
29.8178378394
 30
0.0
 10
3053.5847151746
 20
29.8518595731
 30
0.0
 10
3053.5847151746
 20
29.8518595731
 30
0.0
 10
3053.5847151746
 20
30.1941705554
 30
0.0
 10
3053.4118585968
 20
30.4658210138
 30
0.0
 10
3053.0452089896
 20
30.4658210138
 30
0.0
 10
3052.6735869752
 20
30.4658210138
 30
0.0
 10
3052.4838503834
 20
30.1994046683
 30
0.0
 10
3052.4838503834
 20
29.8445318151
 30
0.0
 10
3052.4838503834
 20
29.5048378893
 30
0.0
 10
3052.6979256001
 20
29.238944955
 30
0.0
 10
3053.050050544
 20
29.238944955
 30
0.0
 10
3053.2740705752
 20
29.238944955
 30
0.0
 10
3053.4762381852
 20
29.3546188497
 30
0.0
 10
3053.5847151746
 20
29.5540385503
 30
0.0
 10
3053.5847151746
 20
29.5540385503
 30
0.0
 10
3053.3970722279
 20
29.6608144531
 30
0.0
 10
3053.3970722279
 20
29.6608144531
 30
0.0
 10
3053.3135881275
 20
29.5221104618
 30
0.0
 10
3053.2223837105
 20
29.4362710106
 30
0.0
 10
3053.0527984533
 20
29.4362710106
 30
0.0
 10
3052.8408168817
 20
29.4362710106
 30
0.0
 10
3052.7078704146
 20
29.6210351952
 30
0.0
 10
3052.7055150638
 20
29.8178378394
 30
0.0
 10
3052.7055150638
 20
29.8178378394
 30
0.0
 10
3053.5847151746
 20
29.8178378394
 30
0.0
 10
3053.5847151746
 20
29.8178378394
 30
0.0
  0
SPLINE
  5
22B
100
AcDbEntity
  8
0
100
AcDbSpline
 62
7
  6
CONTINUOUS
 70
2
 71
3
 72
14
 73
10
 74
0
 42
0.0000001
 43
0.0000001
 44
0.0000000001
 40
0.0
 40
0.0
 40
0.0
 40
0.0
 40
1.0
 40
1.0
 40
1.0
 40
2.0
 40
2.0
 40
2.0
 40
3.0
 40
3.0
 40
3.0
 40
3.0
 10
3052.7175535234
 20
29.9853294515
 30
0.0
 10
3052.7451634688
 20
30.1502040072
 30
0.0
 10
3052.8730066759
 20
30.2732056599
 30
0.0
 10
3053.0452089896
 20
30.2732056599
 30
0.0
 10
3053.2223837105
 20
30.2732056599
 30
0.0
 10
3053.3358331072
 20
30.1575317653
 30
0.0
 10
3053.3630504942
 20
29.9853294515
 30
0.0
 10
3053.3630504942
 20
29.9853294515
 30
0.0
 10
3052.7175535234
 20
29.9853294515
 30
0.0
 10
3052.7175535234
 20
29.9853294515
 30
0.0
  0
SPLINE
  5
22C
100
AcDbEntity
  8
0
100
AcDbSpline
 62
7
  6
CONTINUOUS
 70
2
 71
3
 72
20
 73
16
 74
0
 42
0.0000001
 43
0.0000001
 44
0.0000000001
 40
0.0
 40
0.0
 40
0.0
 40
0.0
 40
1.0
 40
1.0
 40
1.0
 40
2.0
 40
2.0
 40
2.0
 40
3.0
 40
3.0
 40
3.0
 40
4.0
 40
4.0
 40
4.0
 40
5.0
 40
5.0
 40
5.0
 40
5.0
 10
3055.6087466248
 20
30.1946939667
 30
0.0
 10
3055.6087466248
 20
30.1946939667
 30
0.0
 10
3056.0198861914
 20
29.6922191303
 30
0.0
 10
3056.0198861914
 20
29.6922191303
 30
0.0
 10
3055.9038197383
 20
29.5765452357
 30
0.0
 10
3055.7660317168
 20
29.446215825
 30
0.0
 10
3055.5940911087
 20
29.446215825
 30
0.0
 10
3055.4166546821
 20
29.446215825
 30
0.0
 10
3055.24916307
 20
29.6105669694
 30
0.0
 10
3055.24916307
 20
29.7874799847
 30
0.0
 10
3055.24916307
 20
29.9654398226
 30
0.0
 10
3055.4589201436
 20
30.091581943
 30
0.0
 10
3055.586501645
 20
30.1795150393
 30
0.0
 10
3055.586501645
 20
30.1795150393
 30
0.0
 10
3055.6087466248
 20
30.1946939667
 30
0.0
 10
3055.6087466248
 20
30.1946939667
 30
0.0
  0
SPLINE
  5
22D
100
AcDbEntity
  8
0
100
AcDbSpline
 62
7
  6
CONTINUOUS
 70
2
 71
3
 72
23
 73
19
 74
0
 42
0.0000001
 43
0.0000001
 44
0.0000000001
 40
0.0
 40
0.0
 40
0.0
 40
0.0
 40
1.0
 40
1.0
 40
1.0
 40
2.0
 40
2.0
 40
2.0
 40
3.0
 40
3.0
 40
3.0
 40
4.0
 40
4.0
 40
4.0
 40
5.0
 40
5.0
 40
5.0
 40
6.0
 40
6.0
 40
6.0
 40
6.0
 10
3055.6580781386
 20
30.4857106428
 30
0.0
 10
3055.6580781386
 20
30.4857106428
 30
0.0
 10
3055.5964464595
 20
30.5642223359
 30
0.0
 10
3055.5964464595
 20
30.5642223359
 30
0.0
 10
3055.5425350968
 20
30.6327892146
 30
0.0
 10
3055.4857449721
 20
30.7018795046
 30
0.0
 10
3055.4857449721
 20
30.7955701252
 30
0.0
 10
3055.4857449721
 20
30.9143844875
 30
0.0
 10
3055.5816600906
 20
30.9918493581
 30
0.0
 10
3055.6926232836
 20
30.9918493581
 30
0.0
 10
3055.8158866419
 20
30.9918493581
 30
0.0
 10
3055.909184704
 20
30.920665423
 30
0.0
 10
3055.909184704
 20
30.7903360123
 30
0.0
 10
3055.909184704
 20
30.6552959
 30
0.0
 10
3055.7810797913
 20
30.578877852
 30
0.0
 10
3055.6875200236
 20
30.5050768604
 30
0.0
 10
3055.6875200236
 20
30.5050768604
 30
0.0
 10
3055.6580781386
 20
30.4857106428
 30
0.0
 10
3055.6580781386
 20
30.4857106428
 30
0.0
  0
SPLINE
  5
22E
100
AcDbEntity
  8
0
100
AcDbSpline
 62
7
  6
CONTINUOUS
 70
2
 71
3
 72
50
 73
46
 74
0
 42
0.0000001
 43
0.0000001
 44
0.0000000001
 40
0.0
 40
0.0
 40
0.0
 40
0.0
 40
1.0
 40
1.0
 40
1.0
 40
2.0
 40
2.0
 40
2.0
 40
3.0
 40
3.0
 40
3.0
 40
4.0
 40
4.0
 40
4.0
 40
5.0
 40
5.0
 40
5.0
 40
6.0
 40
6.0
 40
6.0
 40
7.0
 40
7.0
 40
7.0
 40
8.0
 40
8.0
 40
8.0
 40
9.0
 40
9.0
 40
9.0
 40
10.0
 40
10.0
 40
10.0
 40
11.0
 40
11.0
 40
11.0
 40
12.0
 40
12.0
 40
12.0
 40
13.0
 40
13.0
 40
13.0
 40
14.0
 40
14.0
 40
14.0
 40
15.0
 40
15.0
 40
15.0
 40
15.0
 10
3056.3602343813
 20
29.2787242129
 30
0.0
 10
3056.3602343813
 20
29.2787242129
 30
0.0
 10
3056.645624386
 20
29.2787242129
 30
0.0
 10
3056.645624386
 20
29.2787242129
 30
0.0
 10
3056.645624386
 20
29.2787242129
 30
0.0
 10
3056.3132582182
 20
29.6896020739
 30
0.0
 10
3056.3132582182
 20
29.6896020739
 30
0.0
 10
3056.3132582182
 20
29.6896020739
 30
0.0
 10
3056.5397644531
 20
29.9554950081
 30
0.0
 10
3056.5397644531
 20
29.9554950081
 30
0.0
 10
3056.5397644531
 20
29.9554950081
 30
0.0
 10
3056.3915082058
 20
30.1083311042
 30
0.0
 10
3056.3915082058
 20
30.1083311042
 30
0.0
 10
3056.3915082058
 20
30.1083311042
 30
0.0
 10
3056.1756010495
 20
29.857093686
 30
0.0
 10
3056.1756010495
 20
29.857093686
 30
0.0
 10
3056.1756010495
 20
29.857093686
 30
0.0
 10
3055.7885384021
 20
30.3250233774
 30
0.0
 10
3055.7885384021
 20
30.3250233774
 30
0.0
 10
3055.9439915546
 20
30.4391270381
 30
0.0
 10
3056.1262695356
 20
30.578877852
 30
0.0
 10
3056.1262695356
 20
30.7882423671
 30
0.0
 10
3056.1262695356
 20
31.0321520273
 30
0.0
 10
3055.9242327785
 20
31.1755667202
 30
0.0
 10
3055.6977265437
 20
31.1755667202
 30
0.0
 10
3055.4535551779
 20
31.1755667202
 30
0.0
 10
3055.2691835518
 20
31.0248242693
 30
0.0
 10
3055.2691835518
 20
30.7683527382
 30
0.0
 10
3055.2691835518
 20
30.6108059406
 30
0.0
 10
3055.3678465795
 20
30.4731487718
 30
0.0
 10
3055.4731831012
 20
30.3621855788
 30
0.0
 10
3055.4731831012
 20
30.3621855788
 30
0.0
 10
3055.3576400594
 20
30.2784397728
 30
0.0
 10
3055.3576400594
 20
30.2784397728
 30
0.0
 10
3055.1799419272
 20
30.1502040072
 30
0.0
 10
3055.0326016496
 20
30.022491653
 30
0.0
 10
3055.0326016496
 20
29.7853863396
 30
0.0
 10
3055.0326016496
 20
29.4650586314
 30
0.0
 10
3055.2911668258
 20
29.238944955
 30
0.0
 10
3055.6015497196
 20
29.238944955
 30
0.0
 10
3055.8204664907
 20
29.238944955
 30
0.0
 10
3056.0176616934
 20
29.3640402528
 30
0.0
 10
3056.1579359186
 20
29.5299616311
 30
0.0
 10
3056.1579359186
 20
29.5299616311
 30
0.0
 10
3056.3602343813
 20
29.2787242129
 30
0.0
 10
3056.3602343813
 20
29.2787242129
 30
0.0
  0
LWPOLYLINE
  5
22F
100
AcDbEntity
  8
0
100
AcDbPolyline
 62
7
  6
CONTINUOUS
 90
2
 70
0
 43
0.2
 10
3058.295678471
 20
31.135264051
 10
3058.0643306818
 20
31.135264051
  0
LWPOLYLINE
  5
230
100
AcDbEntity
  8
0
100
AcDbPolyline
 62
7
  6
CONTINUOUS
 90
2
 70
0
 43
0.2
 10
3058.0643306818
 20
31.135264051
 10
3058.0643306818
 20
29.2782008016
  0
LWPOLYLINE
  5
231
100
AcDbEntity
  8
0
100
AcDbPolyline
 62
7
  6
CONTINUOUS
 90
2
 70
0
 43
0.2
 10
3058.0643306818
 20
29.2782008016
 10
3058.8596541337
 20
29.2782008016
  0
LWPOLYLINE
  5
232
100
AcDbEntity
  8
0
100
AcDbPolyline
 62
7
  6
CONTINUOUS
 90
2
 70
0
 43
0.2
 10
3058.8596541337
 20
29.2782008016
 10
3058.8596541337
 20
29.4901823732
  0
LWPOLYLINE
  5
233
100
AcDbEntity
  8
0
100
AcDbPolyline
 62
7
  6
CONTINUOUS
 90
2
 70
0
 43
0.2
 10
3058.8596541337
 20
29.4901823732
 10
3058.295678471
 20
29.4901823732
  0
LWPOLYLINE
  5
234
100
AcDbEntity
  8
0
100
AcDbPolyline
 62
7
  6
CONTINUOUS
 90
2
 70
0
 43
0.2
 10
3058.295678471
 20
29.4901823732
 10
3058.295678471
 20
31.135264051
  0
LWPOLYLINE
  5
235
100
AcDbEntity
  8
0
100
AcDbPolyline
 62
7
  6
CONTINUOUS
 90
2
 70
0
 43
0.2
 10
3060.5387575452
 20
30.4307524575
 10
3060.3176162761
 20
30.4307524575
  0
LWPOLYLINE
  5
236
100
AcDbEntity
  8
0
100
AcDbPolyline
 62
7
  6
CONTINUOUS
 90
2
 70
0
 43
0.2
 10
3060.3176162761
 20
30.4307524575
 10
3060.3176162761
 20
29.2787242129
  0
LWPOLYLINE
  5
237
100
AcDbEntity
  8
0
100
AcDbPolyline
 62
7
  6
CONTINUOUS
 90
2
 70
0
 43
0.2
 10
3060.3176162761
 20
29.2787242129
 10
3060.5387575452
 20
29.2787242129
  0
LWPOLYLINE
  5
238
100
AcDbEntity
  8
0
100
AcDbPolyline
 62
7
  6
CONTINUOUS
 90
2
 70
0
 43
0.2
 10
3060.5387575452
 20
29.2787242129
 10
3060.5387575452
 20
30.4307524575
  0
LWPOLYLINE
  5
239
100
AcDbEntity
  8
0
100
AcDbPolyline
 62
7
  6
CONTINUOUS
 90
2
 70
1
 43
0.2
 10
3060.275734268
 20
30.9607063865
 42
1.0
 10
3060.5809012589
 20
30.9607063865
 42
1.0
  0
SPLINE
  5
23A
100
AcDbEntity
  8
0
100
AcDbSpline
 62
7
  6
CONTINUOUS
 70
2
 71
3
 72
17
 73
13
 74
0
 42
0.0000001
 43
0.0000001
 44
0.0000000001
 40
0.0
 40
0.0
 40
0.0
 40
0.0
 40
1.0
 40
1.0
 40
1.0
 40
2.0
 40
2.0
 40
2.0
 40
3.0
 40
3.0
 40
3.0
 40
4.0
 40
4.0
 40
4.0
 40
4.0
 10
3062.6690414868
 20
29.4362710106
 30
0.0
 10
3062.4350766412
 20
29.4362710106
 30
0.0
 10
3062.3047472305
 20
29.6383077677
 30
0.0
 10
3062.3047472305
 20
29.8544766296
 30
0.0
 10
3062.3047472305
 20
30.0690752576
 30
0.0
 10
3062.4405724597
 20
30.267971547
 30
0.0
 10
3062.6690414868
 20
30.267971547
 30
0.0
 10
3062.908502151
 20
30.267971547
 30
0.0
 10
3063.0440656746
 20
30.0790200721
 30
0.0
 10
3063.0440656746
 20
29.8544766296
 30
0.0
 10
3063.0440656746
 20
29.6283629532
 30
0.0
 10
3062.9108575018
 20
29.4362710106
 30
0.0
 10
3062.6690414868
 20
29.4362710106
 30
0.0
  0
SPLINE
  5
23B
100
AcDbEntity
  8
0
100
AcDbSpline
 62
7
  6
CONTINUOUS
 70
2
 71
3
 72
50
 73
46
 74
0
 42
0.0000001
 43
0.0000001
 44
0.0000000001
 40
0.0
 40
0.0
 40
0.0
 40
0.0
 40
1.0
 40
1.0
 40
1.0
 40
2.0
 40
2.0
 40
2.0
 40
3.0
 40
3.0
 40
3.0
 40
4.0
 40
4.0
 40
4.0
 40
5.0
 40
5.0
 40
5.0
 40
6.0
 40
6.0
 40
6.0
 40
7.0
 40
7.0
 40
7.0
 40
8.0
 40
8.0
 40
8.0
 40
9.0
 40
9.0
 40
9.0
 40
10.0
 40
10.0
 40
10.0
 40
11.0
 40
11.0
 40
11.0
 40
12.0
 40
12.0
 40
12.0
 40
13.0
 40
13.0
 40
13.0
 40
14.0
 40
14.0
 40
14.0
 40
15.0
 40
15.0
 40
15.0
 40
15.0
 10
3063.2531684841
 20
30.4312758688
 30
0.0
 10
3063.2531684841
 20
30.4312758688
 30
0.0
 10
3063.0315038037
 20
30.4312758688
 30
0.0
 10
3063.0315038037
 20
30.4312758688
 30
0.0
 10
3063.0315038037
 20
30.4312758688
 30
0.0
 10
3063.0315038037
 20
30.2339498133
 30
0.0
 10
3063.0315038037
 20
30.2339498133
 30
0.0
 10
3063.0315038037
 20
30.2339498133
 30
0.0
 10
3063.0267931021
 20
30.2339498133
 30
0.0
 10
3063.0267931021
 20
30.2339498133
 30
0.0
 10
3062.9354578324
 20
30.3768410949
 30
0.0
 10
3062.797538958
 20
30.4652976025
 30
0.0
 10
3062.624813233
 20
30.4652976025
 30
0.0
 10
3062.2924470652
 20
30.4652976025
 30
0.0
 10
3062.0833442557
 20
30.1774213942
 30
0.0
 10
3062.0833442557
 20
29.8618043876
 30
0.0
 10
3062.0833442557
 20
29.5320552763
 30
0.0
 10
3062.2804086056
 20
29.238944955
 30
0.0
 10
3062.6352814588
 20
29.238944955
 30
0.0
 10
3062.797538958
 20
29.238944955
 30
0.0
 10
3062.9375514775
 20
29.3274014627
 30
0.0
 10
3063.0267931021
 20
29.4582542847
 30
0.0
 10
3063.0267931021
 20
29.4582542847
 30
0.0
 10
3063.0315038037
 20
29.4582542847
 30
0.0
 10
3063.0315038037
 20
29.4582542847
 30
0.0
 10
3063.0315038037
 20
29.4582542847
 30
0.0
 10
3063.0315038037
 20
29.238944955
 30
0.0
 10
3063.0315038037
 20
29.238944955
 30
0.0
 10
3063.0315038037
 20
29.0023630529
 30
0.0
 10
3062.9749753846
 20
28.8155052232
 30
0.0
 10
3062.7017546923
 20
28.8155052232
 30
0.0
 10
3062.4994562296
 20
28.8155052232
 30
0.0
 10
3062.3568266536
 20
28.9337961742
 30
0.0
 10
3062.3568266536
 20
29.1400202216
 30
0.0
 10
3062.3568266536
 20
29.1400202216
 30
0.0
 10
3062.1351619732
 20
29.1400202216
 30
0.0
 10
3062.1351619732
 20
29.1400202216
 30
0.0
 10
3062.1401343805
 20
28.8155052232
 30
0.0
 10
3062.371220464
 20
28.6187025789
 30
0.0
 10
3062.6915481722
 20
28.6187025789
 30
0.0
 10
3063.1395882346
 20
28.6187025789
 30
0.0
 10
3063.2531684841
 20
28.9039617308
 30
0.0
 10
3063.2531684841
 20
29.300707487
 30
0.0
 10
3063.2531684841
 20
29.300707487
 30
0.0
 10
3063.2531684841
 20
30.4312758688
 30
0.0
 10
3063.2531684841
 20
30.4312758688
 30
0.0
  0
SPLINE
  5
23C
100
AcDbEntity
  8
0
100
AcDbSpline
 62
7
  6
CONTINUOUS
 70
2
 71
3
 72
44
 73
40
 74
0
 42
0.0000001
 43
0.0000001
 44
0.0000000001
 40
0.0
 40
0.0
 40
0.0
 40
0.0
 40
1.0
 40
1.0
 40
1.0
 40
2.0
 40
2.0
 40
2.0
 40
3.0
 40
3.0
 40
3.0
 40
4.0
 40
4.0
 40
4.0
 40
5.0
 40
5.0
 40
5.0
 40
6.0
 40
6.0
 40
6.0
 40
7.0
 40
7.0
 40
7.0
 40
8.0
 40
8.0
 40
8.0
 40
9.0
 40
9.0
 40
9.0
 40
10.0
 40
10.0
 40
10.0
 40
11.0
 40
11.0
 40
11.0
 40
12.0
 40
12.0
 40
12.0
 40
13.0
 40
13.0
 40
13.0
 40
13.0
 10
3064.8220938195
 20
31.4163359126
 30
0.0
 10
3064.8220938195
 20
31.4163359126
 30
0.0
 10
3064.8220938195
 20
29.2782008016
 30
0.0
 10
3064.8220938195
 20
29.2782008016
 30
0.0
 10
3064.8220938195
 20
29.2782008016
 30
0.0
 10
3065.0434967943
 20
29.2782008016
 30
0.0
 10
3065.0434967943
 20
29.2782008016
 30
0.0
 10
3065.0434967943
 20
29.2782008016
 30
0.0
 10
3065.0434967943
 20
29.807893025
 30
0.0
 10
3065.0434967943
 20
29.807893025
 30
0.0
 10
3065.0434967943
 20
30.0177809514
 30
0.0
 10
3065.0434967943
 20
30.2684949583
 30
0.0
 10
3065.3287559462
 20
30.2684949583
 30
0.0
 10
3065.5556547394
 20
30.2684949583
 30
0.0
 10
3065.5826104208
 20
30.1355484912
 30
0.0
 10
3065.5826104208
 20
29.9392692582
 30
0.0
 10
3065.5826104208
 20
29.9392692582
 30
0.0
 10
3065.5826104208
 20
29.2782008016
 30
0.0
 10
3065.5826104208
 20
29.2782008016
 30
0.0
 10
3065.5826104208
 20
29.2782008016
 30
0.0
 10
3065.8045368068
 20
29.2782008016
 30
0.0
 10
3065.8045368068
 20
29.2782008016
 30
0.0
 10
3065.8045368068
 20
29.2782008016
 30
0.0
 10
3065.8045368068
 20
29.9654398226
 30
0.0
 10
3065.8045368068
 20
29.9654398226
 30
0.0
 10
3065.8045368068
 20
30.2459882729
 30
0.0
 10
3065.7205292951
 20
30.4658210138
 30
0.0
 10
3065.3954908854
 20
30.4658210138
 30
0.0
 10
3065.2557400715
 20
30.4658210138
 30
0.0
 10
3065.1175594915
 20
30.3993477803
 30
0.0
 10
3065.0482074959
 20
30.2763461276
 30
0.0
 10
3065.0482074959
 20
30.2763461276
 30
0.0
 10
3065.0434967943
 20
30.2763461276
 30
0.0
 10
3065.0434967943
 20
30.2763461276
 30
0.0
 10
3065.0434967943
 20
30.2763461276
 30
0.0
 10
3065.0434967943
 20
31.4163359126
 30
0.0
 10
3065.0434967943
 20
31.4163359126
 30
0.0
 10
3065.0434967943
 20
31.4163359126
 30
0.0
 10
3064.8220938195
 20
31.4163359126
 30
0.0
 10
3064.8220938195
 20
31.4163359126
 30
0.0
  0
LWPOLYLINE
  5
23D
100
AcDbEntity
  8
0
100
AcDbPolyline
 62
7
  6
CONTINUOUS
 90
2
 70
0
 43
0.2
 10
3067.6443274837
 20
30.2240049988
 10
3067.8607580512
 20
30.2240049988
  0
LWPOLYLINE
  5
23E
100
AcDbEntity
  8
0
100
AcDbPolyline
 62
7
  6
CONTINUOUS
 90
2
 70
0
 43
0.2
 10
3067.8607580512
 20
30.2240049988
 10
3067.8607580512
 20
30.4307524575
  0
LWPOLYLINE
  5
23F
100
AcDbEntity
  8
0
100
AcDbPolyline
 62
7
  6
CONTINUOUS
 90
2
 70
0
 43
0.2
 10
3067.8607580512
 20
30.4307524575
 10
3067.6443274837
 20
30.4307524575
  0
LWPOLYLINE
  5
240
100
AcDbEntity
  8
0
100
AcDbPolyline
 62
7
  6
CONTINUOUS
 90
2
 70
0
 43
0.2
 10
3067.6443274837
 20
30.4307524575
 10
3067.6443274837
 20
30.8714647619
  0
LWPOLYLINE
  5
241
100
AcDbEntity
  8
0
100
AcDbPolyline
 62
7
  6
CONTINUOUS
 90
2
 70
0
 43
0.2
 10
3067.6443274837
 20
30.8714647619
 10
3067.4226628033
 20
30.8714647619
  0
LWPOLYLINE
  5
242
100
AcDbEntity
  8
0
100
AcDbPolyline
 62
7
  6
CONTINUOUS
 90
2
 70
0
 43
0.2
 10
3067.4226628033
 20
30.8714647619
 10
3067.4226628033
 20
30.4307524575
  0
LWPOLYLINE
  5
243
100
AcDbEntity
  8
0
100
AcDbPolyline
 62
7
  6
CONTINUOUS
 90
2
 70
0
 43
0.2
 10
3067.4226628033
 20
30.4307524575
 10
3067.3020165014
 20
30.4307524575
  0
LWPOLYLINE
  5
244
100
AcDbEntity
  8
0
100
AcDbPolyline
 62
7
  6
CONTINUOUS
 90
2
 70
0
 43
0.2
 10
3067.3020165014
 20
30.4307524575
 10
3067.3020165014
 20
30.2240049988
  0
LWPOLYLINE
  5
245
100
AcDbEntity
  8
0
100
AcDbPolyline
 62
7
  6
CONTINUOUS
 90
2
 70
0
 43
0.2
 10
3067.3020165014
 20
30.2240049988
 10
3067.4226628033
 20
30.2240049988
  0
LWPOLYLINE
  5
246
100
AcDbEntity
  8
0
100
AcDbPolyline
 62
7
  6
CONTINUOUS
 90
2
 70
0
 43
0.2
 10
3067.4226628033
 20
30.2240049988
 10
3067.4226628033
 20
29.2782008016
  0
LWPOLYLINE
  5
247
100
AcDbEntity
  8
0
100
AcDbPolyline
 62
7
  6
CONTINUOUS
 90
2
 70
0
 43
0.2
 10
3067.4226628033
 20
29.2782008016
 10
3067.6443274837
 20
29.2782008016
  0
LWPOLYLINE
  5
248
100
AcDbEntity
  8
0
100
AcDbPolyline
 62
7
  6
CONTINUOUS
 90
2
 70
0
 43
0.2
 10
3067.6443274837
 20
29.2782008016
 10
3067.6443274837
 20
30.2240049988
  0
SPLINE
  5
249
100
AcDbEntity
  8
0
100
AcDbSpline
 62
7
  6
CONTINUOUS
 70
2
 71
3
 72
20
 73
16
 74
0
 42
0.0000001
 43
0.0000001
 44
0.0000000001
 40
0.0
 40
0.0
 40
0.0
 40
0.0
 40
1.0
 40
1.0
 40
1.0
 40
2.0
 40
2.0
 40
2.0
 40
3.0
 40
3.0
 40
3.0
 40
4.0
 40
4.0
 40
4.0
 40
5.0
 40
5.0
 40
5.0
 40
5.0
 10
3055.4263377909
 20
39.639127245
 30
0.0
 10
3055.4263377909
 20
39.639127245
 30
0.0
 10
3057.7426944454
 20
36.8095658228
 30
0.0
 10
3057.7426944454
 20
36.8095658228
 30
0.0
 10
3057.091047392
 20
36.1573953581
 30
0.0
 10
3056.314174188
 20
35.4214790874
 30
0.0
 10
3055.3429845433
 20
35.4214790874
 30
0.0
 10
3054.3444466589
 20
35.4214790874
 30
0.0
 10
3053.4011286653
 20
36.3510575346
 30
0.0
 10
3053.4011286653
 20
37.3502496832
 30
0.0
 10
3053.4011286653
 20
38.3494418317
 30
0.0
 10
3054.5799817385
 20
39.0560470703
 30
0.0
 10
3055.3015041988
 20
39.5559048503
 30
0.0
 10
3055.3015041988
 20
39.5559048503
 30
0.0
 10
3055.4263377909
 20
39.639127245
 30
0.0
 10
3055.4263377909
 20
39.639127245
 30
0.0
  0
SPLINE
  5
24A
100
AcDbEntity
  8
0
100
AcDbSpline
 62
7
  6
CONTINUOUS
 70
2
 71
3
 72
23
 73
19
 74
0
 42
0.0000001
 43
0.0000001
 44
0.0000000001
 40
0.0
 40
0.0
 40
0.0
 40
0.0
 40
1.0
 40
1.0
 40
1.0
 40
2.0
 40
2.0
 40
2.0
 40
3.0
 40
3.0
 40
3.0
 40
4.0
 40
4.0
 40
4.0
 40
5.0
 40
5.0
 40
5.0
 40
6.0
 40
6.0
 40
6.0
 40
6.0
 10
3055.7037457735
 20
41.2768811648
 30
0.0
 10
3055.7037457735
 20
41.2768811648
 30
0.0
 10
3055.3572475009
 20
41.7202105256
 30
0.0
 10
3055.3572475009
 20
41.7202105256
 30
0.0
 10
3055.051444456
 20
42.1083199955
 30
0.0
 10
3054.7325561289
 20
42.496822024
 30
0.0
 10
3054.7325561289
 20
43.023766338
 30
0.0
 10
3054.7325561289
 20
43.6899380547
 30
0.0
 10
3055.2738942533
 20
44.133659974
 30
0.0
 10
3055.8978005085
 20
44.133659974
 30
0.0
 10
3056.5915821706
 20
44.133659974
 30
0.0
 10
3057.1187881903
 20
43.7314183992
 30
0.0
 10
3057.1187881903
 20
42.9964180982
 30
0.0
 10
3057.1187881903
 20
42.2331535877
 30
0.0
 10
3056.3975274356
 20
41.8030403619
 30
0.0
 10
3055.8704522687
 20
41.3873209465
 30
0.0
 10
3055.8704522687
 20
41.3873209465
 30
0.0
 10
3055.7037457735
 20
41.2768811648
 30
0.0
 10
3055.7037457735
 20
41.2768811648
 30
0.0
  0
SPLINE
  5
24B
100
AcDbEntity
  8
0
100
AcDbSpline
 62
7
  6
CONTINUOUS
 70
2
 71
3
 72
50
 73
46
 74
0
 42
0.0000001
 43
0.0000001
 44
0.0000000001
 40
0.0
 40
0.0
 40
0.0
 40
0.0
 40
1.0
 40
1.0
 40
1.0
 40
2.0
 40
2.0
 40
2.0
 40
3.0
 40
3.0
 40
3.0
 40
4.0
 40
4.0
 40
4.0
 40
5.0
 40
5.0
 40
5.0
 40
6.0
 40
6.0
 40
6.0
 40
7.0
 40
7.0
 40
7.0
 40
8.0
 40
8.0
 40
8.0
 40
9.0
 40
9.0
 40
9.0
 40
10.0
 40
10.0
 40
10.0
 40
11.0
 40
11.0
 40
11.0
 40
12.0
 40
12.0
 40
12.0
 40
13.0
 40
13.0
 40
13.0
 40
14.0
 40
14.0
 40
14.0
 40
15.0
 40
15.0
 40
15.0
 40
15.0
 10
3059.6573329364
 20
34.4782919466
 30
0.0
 10
3059.6573329364
 20
34.4782919466
 30
0.0
 10
3061.266560941
 20
34.4782919466
 30
0.0
 10
3061.266560941
 20
34.4782919466
 30
0.0
 10
3061.266560941
 20
34.4782919466
 30
0.0
 10
3059.3935336474
 20
36.795433718
 30
0.0
 10
3059.3935336474
 20
36.795433718
 30
0.0
 10
3059.3935336474
 20
36.795433718
 30
0.0
 10
3060.6698720728
 20
38.2929134126
 30
0.0
 10
3060.6698720728
 20
38.2929134126
 30
0.0
 10
3060.6698720728
 20
38.2929134126
 30
0.0
 10
3059.8376481251
 20
39.1539249812
 30
0.0
 10
3059.8376481251
 20
39.1539249812
 30
0.0
 10
3059.8376481251
 20
39.1539249812
 30
0.0
 10
3058.6170530018
 20
37.7386208588
 30
0.0
 10
3058.6170530018
 20
37.7386208588
 30
0.0
 10
3058.6170530018
 20
37.7386208588
 30
0.0
 10
3056.439138633
 20
40.3739966932
 30
0.0
 10
3056.439138633
 20
40.3739966932
 30
0.0
 10
3057.3127120724
 20
41.0120350531
 30
0.0
 10
3058.3393833136
 20
41.8030403619
 30
0.0
 10
3058.3393833136
 20
42.981893435
 30
0.0
 10
3058.3393833136
 20
44.35558636
 30
0.0
 10
3057.2014871738
 20
45.1600695095
 30
0.0
 10
3055.9261955709
 20
45.1600695095
 30
0.0
 10
3054.5527643515
 20
45.1600695095
 30
0.0
 10
3053.5118301527
 20
44.3138443098
 30
0.0
 10
3053.5118301527
 20
42.8711919476
 30
0.0
 10
3053.5118301527
 20
41.9836172562
 30
0.0
 10
3054.0671695292
 20
41.2067440522
 30
0.0
 10
3054.663334986
 20
40.5823143858
 30
0.0
 10
3054.663334986
 20
40.5823143858
 30
0.0
 10
3054.011426227
 20
40.1107208154
 30
0.0
 10
3054.011426227
 20
40.1107208154
 30
0.0
 10
3053.0128883426
 20
39.3894600607
 30
0.0
 10
3052.1800101307
 20
38.668199306
 30
0.0
 10
3052.1800101307
 20
37.3366409897
 30
0.0
 10
3052.1800101307
 20
35.5329656917
 30
0.0
 10
3053.6370563034
 20
34.2563655606
 30
0.0
 10
3055.3845957407
 20
34.2563655606
 30
0.0
 10
3056.6194538216
 20
34.2563655606
 30
0.0
 10
3057.7288240463
 20
34.9645410331
 30
0.0
 10
3058.5196985023
 20
35.8930726577
 30
0.0
 10
3058.5196985023
 20
35.8930726577
 30
0.0
 10
3059.6573329364
 20
34.4782919466
 30
0.0
 10
3059.6573329364
 20
34.4782919466
 30
0.0
  0
LINE
  5
24C
100
AcDbEntity
  8
0
100
AcDbLine
 62
7
  6
CONTINUOUS
 10
3045.4601943114
 20
32.4521668513
 11
3067.8741050391
 21
32.4521668513
  0
LINE
  5
24D
100
AcDbEntity
  8
0
100
AcDbLine
 62
7
  6
CONTINUOUS
 10
3067.8741050391
 20
32.4521668513
 11
3067.8741050391
 21
54.8660775789
  0
LINE
  5
24E
100
AcDbEntity
  8
0
100
AcDbLine
 62
7
  6
CONTINUOUS
 10
3067.8741050391
 20
54.8660775789
 11
3045.4601943114
 21
54.8660775789
  0
LINE
  5
24F
100
AcDbEntity
  8
0
100
AcDbLine
 62
7
  6
CONTINUOUS
 10
3045.4601943114
 20
54.8660775789
 11
3045.4601943114
 21
32.4521668513
  0
ENDBLK
  5
250
100
AcDbEntity
  8
0
  6
BYBLOCK
 62
0
100
AcDbBlockEnd
  0
BLOCK
  5
251
100
AcDbEntity
  8
0
100
AcDbBlockBegin
  2
_CLOSED
 70
64
 10
0.0
 20
0.0
  3
_CLOSED
  1

  0
LINE
  5
252
100
AcDbEntity
  8
0
  6
BYBLOCK
 62
0
100
AcDbLine
 10
0.0
 20
0.0
 11
-1.0
 21
0.2
  0
LINE
  5
253
100
AcDbEntity
  8
0
  6
BYBLOCK
 62
0
100
AcDbLine
 10
-1.0
 20
0.2
 11
-1.0
 21
-0.2
  0
LINE
  5
254
100
AcDbEntity
  8
0
  6
BYBLOCK
 62
0
100
AcDbLine
 10
-1.0
 20
-0.2
 11
0.0
 21
0.0
  0
LINE
  5
255
100
AcDbEntity
  8
0
  6
BYBLOCK
 62
0
100
AcDbLine
 10
-1.0
 20
0.0
 11
0.0
 21
0.0
  0
ENDBLK
  5
256
100
AcDbEntity
  8
0
  6
BYBLOCK
 62
0
100
AcDbBlockEnd
  0
BLOCK
  5
257
100
AcDbEntity
  8
0
100
AcDbBlockBegin
 62
7
  6
CONTINUOUS
  2
*D0
 70
65
 10
0.0
 20
0.0
  3
*D0
  1

  0
MTEXT
  5
258
100
AcDbEntity
  8
0
100
AcDbMText
 62
7
  6
CONTINUOUS
  7
STANDARD
 71
2
 72
1
 10
72.213248125
 20
735.1054949944
 30
0.0
 11
0.0
 21
1.0
 31
0.0
  1
79,8
 40
10.0
 41
27.1747211896
  0
LINE
  5
259
100
AcDbEntity
  8
0
100
AcDbLine
 62
7
  6
CONTINUOUS
 10
108.6947368567
 20
695.2054949944
 11
83.963248125
 21
695.2054949944
  0
LINE
  5
25A
100
AcDbEntity
  8
0
100
AcDbLine
 62
7
  6
CONTINUOUS
 10
115.8352374129
 20
775.0054949944
 11
83.963248125
 21
775.0054949944
  0
LINE
  5
25B
100
AcDbEntity
  8
0
100
AcDbLine
 62
7
  6
CONTINUOUS
 10
84.713248125
 20
695.2054949944
 11
84.713248125
 21
735.1054949944
  0
LINE
  5
25C
100
AcDbEntity
  8
0
100
AcDbLine
 62
7
  6
CONTINUOUS
 10
84.713248125
 20
775.0054949944
 11
84.713248125
 21
735.1054949944
  0
INSERT
  5
25D
100
AcDbEntity
  8
0
100
AcDbBlockReference
 62
7
  6
CONTINUOUS
  2
_CLOSED
 10
84.713248125
 20
695.2054949944
 41
2.5
 42
2.5
 43
2.5
 50
270.0
  0
INSERT
  5
25E
100
AcDbEntity
  8
0
100
AcDbBlockReference
 62
7
  6
CONTINUOUS
  2
_CLOSED
 10
84.713248125
 20
775.0054949944
 41
2.5
 42
2.5
 43
2.5
 50
90.0
  0
ENDBLK
  5
25F
100
AcDbEntity
  8
0
  6
BYBLOCK
 62
0
100
AcDbBlockEnd
  0
BLOCK
  5
260
100
AcDbEntity
  8
0
100
AcDbBlockBegin
 62
7
  6
CONTINUOUS
  2
*D1
 70
65
 10
0.0
 20
0.0
  3
*D1
  1

  0
MTEXT
  5
261
100
AcDbEntity
  8
0
100
AcDbMText
 62
7
  6
CONTINUOUS
  7
STANDARD
 71
2
 72
1
 10
161.8092418621
 20
662.2431439763
 30
0.0
 11
1.0
 21
0.0
 31
0.0
  1
41,6
 40
10.0
 41
27.1747211896
  0
LINE
  5
262
100
AcDbEntity
  8
0
100
AcDbLine
 62
7
  6
CONTINUOUS
 10
141.0092418621
 20
660.0789652314
 11
141.0092418621
 21
648.9931439763
  0
LINE
  5
263
100
AcDbEntity
  8
0
100
AcDbLine
 62
7
  6
CONTINUOUS
 10
182.6092418621
 20
660.0789652314
 11
182.6092418621
 21
648.9931439763
  0
LINE
  5
264
100
AcDbEntity
  8
0
100
AcDbLine
 62
7
  6
CONTINUOUS
 10
141.0092418621
 20
649.7431439763
 11
161.8092418621
 21
649.7431439763
  0
LINE
  5
265
100
AcDbEntity
  8
0
100
AcDbLine
 62
7
  6
CONTINUOUS
 10
182.6092418621
 20
649.7431439763
 11
161.8092418621
 21
649.7431439763
  0
INSERT
  5
266
100
AcDbEntity
  8
0
100
AcDbBlockReference
 62
7
  6
CONTINUOUS
  2
_CLOSED
 10
141.0092418621
 20
649.7431439763
 41
2.5
 42
2.5
 43
2.5
 50
180.0
  0
INSERT
  5
267
100
AcDbEntity
  8
0
100
AcDbBlockReference
 62
7
  6
CONTINUOUS
  2
_CLOSED
 10
182.6092418621
 20
649.7431439763
 41
2.5
 42
2.5
 43
2.5
  0
ENDBLK
  5
268
100
AcDbEntity
  8
0
  6
BYBLOCK
 62
0
100
AcDbBlockEnd
  0
BLOCK
  5
269
100
AcDbEntity
  8
0
100
AcDbBlockBegin
 62
7
  6
CONTINUOUS
  2
*D2
 70
65
 10
0.0
 20
0.0
  3
*D2
  1

  0
MTEXT
  5
26A
100
AcDbEntity
  8
0
100
AcDbMText
 62
7
  6
CONTINUOUS
  7
STANDARD
 71
2
 72
1
 10
161.8092418621
 20
629.3835439887
 30
0.0
 11
1.0
 21
0.0
 31
0.0
  1
82,1
 40
10.0
 41
27.1747211896
  0
LINE
  5
26B
100
AcDbEntity
  8
0
100
AcDbLine
 62
7
  6
CONTINUOUS
 10
202.8592418621
 20
660.0789652314
 11
202.8592418621
 21
616.1335439887
  0
LINE
  5
26C
100
AcDbEntity
  8
0
100
AcDbLine
 62
7
  6
CONTINUOUS
 10
120.7592418621
 20
660.0789652314
 11
120.7592418621
 21
616.1335439887
  0
LINE
  5
26D
100
AcDbEntity
  8
0
100
AcDbLine
 62
7
  6
CONTINUOUS
 10
202.8592418621
 20
616.8835439887
 11
161.8092418621
 21
616.8835439887
  0
LINE
  5
26E
100
AcDbEntity
  8
0
100
AcDbLine
 62
7
  6
CONTINUOUS
 10
120.7592418621
 20
616.8835439887
 11
161.8092418621
 21
616.8835439887
  0
INSERT
  5
26F
100
AcDbEntity
  8
0
100
AcDbBlockReference
 62
7
  6
CONTINUOUS
  2
_CLOSED
 10
202.8592418621
 20
616.8835439887
 41
2.5
 42
2.5
 43
2.5
  0
INSERT
  5
270
100
AcDbEntity
  8
0
100
AcDbBlockReference
 62
7
  6
CONTINUOUS
  2
_CLOSED
 10
120.7592418621
 20
616.8835439887
 41
2.5
 42
2.5
 43
2.5
 50
180.0
  0
ENDBLK
  5
271
100
AcDbEntity
  8
0
  6
BYBLOCK
 62
0
100
AcDbBlockEnd
  0
BLOCK
  5
272
100
AcDbEntity
  8
0
100
AcDbBlockBegin
 62
7
  6
CONTINUOUS
  2
*D3
 70
65
 10
0.0
 20
0.0
  3
*D3
  1

  0
MTEXT
  5
273
100
AcDbEntity
  8
0
100
AcDbMText
 62
7
  6
CONTINUOUS
  7
STANDARD
 71
2
 72
1
 10
1702.1134593993
 20
629.3835439887
 30
0.0
 11
1.0
 21
0.0
 31
0.0
  1
2807
 40
10.0
 41
31.0780669145
  0
LINE
  5
274
100
AcDbEntity
  8
0
100
AcDbLine
 62
7
  6
CONTINUOUS
 10
298.6134593993
 20
667.2066538319
 11
298.6134593993
 21
616.1335439887
  0
LINE
  5
275
100
AcDbEntity
  8
0
100
AcDbLine
 62
7
  6
CONTINUOUS
 10
3105.6134593993
 20
660.0789652314
 11
3105.6134593993
 21
616.1335439887
  0
LINE
  5
276
100
AcDbEntity
  8
0
100
AcDbLine
 62
7
  6
CONTINUOUS
 10
298.6134593993
 20
616.8835439887
 11
1702.1134593993
 21
616.8835439887
  0
LINE
  5
277
100
AcDbEntity
  8
0
100
AcDbLine
 62
7
  6
CONTINUOUS
 10
3105.6134593993
 20
616.8835439887
 11
1702.1134593993
 21
616.8835439887
  0
INSERT
  5
278
100
AcDbEntity
  8
0
100
AcDbBlockReference
 62
7
  6
CONTINUOUS
  2
_CLOSED
 10
298.6134593993
 20
616.8835439887
 41
2.5
 42
2.5
 43
2.5
 50
180.0
  0
INSERT
  5
279
100
AcDbEntity
  8
0
100
AcDbBlockReference
 62
7
  6
CONTINUOUS
  2
_CLOSED
 10
3105.6134593993
 20
616.8835439887
 41
2.5
 42
2.5
 43
2.5
  0
ENDBLK
  5
27A
100
AcDbEntity
  8
0
  6
BYBLOCK
 62
0
100
AcDbBlockEnd
  0
ENDSEC
  0
SECTION
  2
ENTITIES
  0
DIMENSION
  5
27B
100
AcDbEntity
  8
0
100
AcDbDimension
 62
7
  6
CONTINUOUS
  2
*D0
 10
84.713248125
 20
775.0054949944
 11
84.713248125
 21
735.0925052932
 70
160
  3
DIMSTYLE_1
100
AcDbAlignedDimension
 13
109.4447368567
 23
695.2054949944
 14
116.5852374129
 24
775.0054949944
 50
90.0
100
AcDbRotatedDimension
  0
DIMENSION
  5
27C
100
AcDbEntity
  8
0
100
AcDbDimension
 62
7
  6
CONTINUOUS
  2
*D1
 10
182.6092418621
 20
649.7431439763
 11
161.5546203613
 21
649.7431439763
 70
160
  3
DIMSTYLE_1
100
AcDbAlignedDimension
 13
141.0092418621
 23
660.8289652314
 14
182.6092418621
 24
660.8289652314
100
AcDbRotatedDimension
  0
DIMENSION
  5
27D
100
AcDbEntity
  8
0
100
AcDbDimension
 62
7
  6
CONTINUOUS
  2
*D2
 10
120.7592418621
 20
616.8835439887
 11
160.7925354004
 21
616.8835439887
 70
160
  3
DIMSTYLE_1
100
AcDbAlignedDimension
 13
202.8592418621
 23
660.8289652314
 14
120.7592418621
 24
660.8289652314
 50
180.0
100
AcDbRotatedDimension
  0
DIMENSION
  5
27E
100
AcDbEntity
  8
0
100
AcDbDimension
 62
7
  6
CONTINUOUS
  2
*D3
 10
3105.6134593993
 20
616.8835439887
 11
1701.9772460938
 21
616.8835439887
 70
160
  3
DIMSTYLE_2
100
AcDbAlignedDimension
 13
298.6134593993
 23
667.9566538319
 14
3105.6134593993
 24
660.8289652314
100
AcDbRotatedDimension
  0
LINE
  5
27F
100
AcDbEntity
  8
0
100
AcDbLine
 62
2
  6
CONTINUOUS
 10
3042.8410372041
 20
55.2423900789
 11
3132.8410372041
 21
55.2423900789
  0
LINE
  5
280
100
AcDbEntity
  8
0
100
AcDbLine
 62
2
  6
CONTINUOUS
 10
3042.8410372041
 20
55.2423900789
 11
3042.8410372041
 21
15.2423900789
  0
LINE
  5
281
100
AcDbEntity
  8
0
100
AcDbLine
 62
2
  6
CONTINUOUS
 10
3072.8410372041
 20
49.2423900789
 11
3132.8410372041
 21
49.2423900789
  0
LINE
  5
282
100
AcDbEntity
  8
0
100
AcDbLine
 62
2
  6
CONTINUOUS
 10
3072.8410372041
 20
43.2423900789
 11
3132.8410372041
 21
43.2423900789
  0
LINE
  5
283
100
AcDbEntity
  8
0
100
AcDbLine
 62
2
  6
CONTINUOUS
 10
3072.8410372041
 20
33.2423900789
 11
3132.8410372041
 21
33.2423900789
  0
LINE
  5
284
100
AcDbEntity
  8
0
100
AcDbLine
 62
2
  6
CONTINUOUS
 10
3042.8410372041
 20
28.2423900789
 11
3132.8410372041
 21
28.2423900789
  0
LINE
  5
285
100
AcDbEntity
  8
0
100
AcDbLine
 62
2
  6
CONTINUOUS
 10
3042.8410372041
 20
15.2423900789
 11
3132.8410372041
 21
15.2423900789
  0
LINE
  5
286
100
AcDbEntity
  8
0
100
AcDbLine
 62
2
  6
CONTINUOUS
 10
3072.8410372041
 20
55.2423900789
 11
3072.8410372041
 21
28.2423900789
  0
LINE
  5
287
100
AcDbEntity
  8
0
100
AcDbLine
 62
2
  6
CONTINUOUS
 10
3112.8410372041
 20
55.2423900789
 11
3112.8410372041
 21
43.2423900789
  0
LINE
  5
288
100
AcDbEntity
  8
0
100
AcDbLine
 62
2
  6
CONTINUOUS
 10
3132.8410372041
 20
55.2423900789
 11
3132.8410372041
 21
15.2423900789
  0
INSERT
  5
289
100
AcDbEntity
  8
0
100
AcDbBlockReference
 62
2
  6
CONTINUOUS
  2
LOGO2_BL0
 10
3056.6670842488
 20
41.7423900789
  0
MTEXT
  5
28A
100
AcDbEntity
  8
9_SOLID
100
AcDbMText
 62
2
  6
CONTINUOUS
  7
TEXTSTYLE_2
 71
1
 72
1
 10
3074.3285372041
 20
53.7423900789
 30
0.0
 11
1.0
 21
0.0
 31
0.0
  1
6F3_C_047
 40
3.0
 41
32.25
  0
MTEXT
  5
28B
100
AcDbEntity
  8
0
100
AcDbMText
 62
2
  6
CONTINUOUS
  7
TEXTSTYLE_2
 71
1
 72
1
 10
3114.3285372041
 20
53.4923900789
 30
0.0
 11
1.0
 21
0.0
 31
0.0
  1
Rev:00
 40
3.5
 41
22.75
  0
MTEXT
  5
28C
100
AcDbEntity
  8
9_SOLID
100
AcDbMText
 62
2
  6
CONTINUOUS
  7
TEXTSTYLE_2
 71
1
 72
1
 10
3074.3285372041
 20
47.4923900789
 30
0.0
 11
1.0
 21
0.0
 31
0.0
  1
Scale:1:1
 40
3.5
 41
28.375
  0
MTEXT
  5
28D
100
AcDbEntity
  8
9_SOLID
100
AcDbMText
 62
2
  6
CONTINUOUS
  7
TEXTSTYLE_2
 71
1
 72
1
 10
3114.3285372041
 20
47.9923900789
 30
0.0
 11
1.0
 21
0.0
 31
0.0
  1
3200 by 2500
 40
3.5
 41
48.5
  0
MTEXT
  5
28E
100
AcDbEntity
  8
0
100
AcDbMText
 62
2
  6
CONTINUOUS
  7
TEXTSTYLE_2
 71
1
 72
1
 10
3074.3285372041
 20
39.9923900789
 30
0.0
 11
1.0
 21
0.0
 31
0.0
  1
CASS. BRENTA 1.9 A FILO NO STANDARD
 40
3.5
 41
143.875
  0
MTEXT
  5
28F
100
AcDbEntity
  8
0
100
AcDbMText
 62
2
  6
CONTINUOUS
  7
TEXTSTYLE_2
 71
1
 72
1
 10
3074.3285372041
 20
31.9923900789
 30
0.0
 11
1.0
 21
0.0
 31
0.0
  1
DATE:08/05/18
 40
2.5
 41
36.875
  0
MTEXT
  5
290
100
AcDbEntity
  8
9_SOLID
100
AcDbMText
 62
2
  6
CONTINUOUS
  7
TEXTSTYLE_2
 71
1
 72
1
 10
3044.3285372041
 20
27.9298900789
 30
0.0
 11
1.0
 21
0.0
 31
0.0
  1
Any integral or partial reproductions are prohibited \Pwithout prior authorisation of L {\Ftxt.shx;\W0.190476;\H2.250000; }& L Luce & Light s.r.l., \Pin accordance with the law in force. \PAll rights reserved.
 40
2.25
 41
134.5982142857
  0
LINE
  5
291
100
AcDbEntity
  8
0
100
AcDbLine
 62
7
  6
CONTINUOUS
 10
0.0
 20
0.0
 11
0.0
 21
2500.0
  0
LINE
  5
292
100
AcDbEntity
  8
0
100
AcDbLine
 62
7
  6
CONTINUOUS
 10
0.0
 20
0.0
 11
3200.0
 21
0.0
  0
LINE
  5
293
100
AcDbEntity
  8
0
100
AcDbLine
 62
7
  6
CONTINUOUS
 10
0.0
 20
2500.0
 11
3200.0
 21
2500.0
  0
LINE
  5
294
100
AcDbEntity
  8
0
100
AcDbLine
 62
7
  6
CONTINUOUS
 10
3200.0
 20
0.0
 11
3200.0
 21
2500.0
  0
LINE
  5
295
100
AcDbEntity
  8
6_ALL_SURFS
100
AcDbLine
 62
7
  6
CONTINUOUS
 10
123.4592418621
 20
697.8554949944
 11
123.7592418621
 21
697.7054949944
  0
LINE
  5
296
100
AcDbEntity
  8
6_ALL_SURFS
100
AcDbLine
 62
7
  6
CONTINUOUS
 10
126.4592418621
 20
697.8554949944
 11
126.7592418621
 21
697.7054949944
  0
LINE
  5
297
100
AcDbEntity
  8
6_ALL_SURFS
100
AcDbLine
 62
7
  6
CONTINUOUS
 10
129.4592418621
 20
697.8554949944
 11
129.7592418621
 21
697.7054949944
  0
LINE
  5
298
100
AcDbEntity
  8
6_ALL_SURFS
100
AcDbLine
 62
7
  6
CONTINUOUS
 10
132.4592418621
 20
697.8554949944
 11
132.7592418621
 21
697.7054949944
  0
LINE
  5
299
100
AcDbEntity
  8
7_ALL_FEATURES
100
AcDbLine
 62
7
  6
CONTINUOUS
 10
200.3592418621
 20
696.7054949944
 11
202.5047134525
 21
696.9200421535
  0
LINE
  5
29A
100
AcDbEntity
  8
5_ALL_CURVES
100
AcDbLine
 62
40
  6
CONTINUOUS
 10
202.5047134525
 20
696.9200421535
 11
202.8592418621
 21
696.9554949944
  0
LINE
  5
29B
100
AcDbEntity
  8
6_ALL_SURFS
100
AcDbLine
 62
7
  6
CONTINUOUS
 10
123.2592418621
 20
696.7054949944
 11
121.1137702718
 21
696.9200421535
  0
LINE
  5
29C
100
AcDbEntity
  8
6_ALL_SURFS
100
AcDbLine
 62
7
  6
CONTINUOUS
 10
135.4592418621
 20
697.8554949944
 11
135.7592418621
 21
697.7054949944
  0
LINE
  5
29D
100
AcDbEntity
  8
6_ALL_SURFS
100
AcDbLine
 62
7
  6
CONTINUOUS
 10
138.4592418621
 20
697.8554949944
 11
138.7592418621
 21
697.7054949944
  0
LINE
  5
29E
100
AcDbEntity
  8
6_ALL_SURFS
100
AcDbLine
 62
7
  6
CONTINUOUS
 10
141.9592418621
 20
695.2054949944
 11
141.3092418621
 21
695.2054949944
  0
LINE
  5
29F
100
AcDbEntity
  8
7_ALL_FEATURES
100
AcDbLine
 62
7
  6
CONTINUOUS
 10
142.6592418621
 20
695.2054949944
 11
180.9592418621
 21
695.2054949944
  0
LINE
  5
2A0
100
AcDbEntity
  8
7_ALL_FEATURES
100
AcDbLine
 62
7
  6
CONTINUOUS
 10
181.6592418621
 20
695.2054949944
 11
182.3092418621
 21
695.2054949944
  0
LINE
  5
2A1
100
AcDbEntity
  8
5_ALL_CURVES
100
AcDbLine
 62
40
  6
CONTINUOUS
 10
182.3092418621
 20
695.2054949944
 11
182.6092418621
 21
695.2054949944
  0
LINE
  5
2A2
100
AcDbEntity
  8
7_ALL_FEATURES
100
AcDbLine
 62
7
  6
CONTINUOUS
 10
143.5092418621
 20
696.2054949944
 11
143.2092418621
 21
696.2054949944
  0
LINE
  5
2A3
100
AcDbEntity
  8
6_ALL_SURFS
100
AcDbLine
 62
7
  6
CONTINUOUS
 10
143.2092418621
 20
696.2054949944
 11
142.5592418621
 21
696.2054949944
  0
LINE
  5
2A4
100
AcDbEntity
  8
7_ALL_FEATURES
100
AcDbLine
 62
7
  6
CONTINUOUS
 10
180.1092418621
 20
696.2054949944
 11
181.0592418621
 21
696.2054949944
  0
LINE
  5
2A5
100
AcDbEntity
  8
7_ALL_FEATURES
100
AcDbLine
 62
7
  6
CONTINUOUS
 10
178.9092418621
 20
696.3054949944
 11
144.7092418621
 21
696.3054949944
  0
LINE
  5
2A6
100
AcDbEntity
  8
3_ALL_AXES
100
AcDbLine
 62
2
  6
CONTINUOUS
 10
201.6582799678
 20
696.7054949944
 11
200.7417452463
 21
696.7054949944
  0
LINE
  5
2A7
100
AcDbEntity
  8
3_ALL_AXES
100
AcDbLine
 62
2
  6
CONTINUOUS
 10
197.4592418621
 20
696.7054949944
 11
196.8592418621
 21
696.7054949944
  0
LINE
  5
2A8
100
AcDbEntity
  8
3_ALL_AXES
100
AcDbLine
 62
2
  6
CONTINUOUS
 10
194.4592418621
 20
696.7054949944
 11
194.0384380384
 21
696.7054949944
  0
LINE
  5
2A9
100
AcDbEntity
  8
6_ALL_SURFS
100
AcDbLine
 62
7
  6
CONTINUOUS
 10
140.7092418621
 20
696.7054949944
 11
138.7592418621
 21
696.7054949944
  0
LINE
  5
2AA
100
AcDbEntity
  8
6_ALL_SURFS
100
AcDbLine
 62
7
  6
CONTINUOUS
 10
138.1592418621
 20
696.7054949944
 11
135.7592418621
 21
696.7054949944
  0
LINE
  5
2AB
100
AcDbEntity
  8
6_ALL_SURFS
100
AcDbLine
 62
7
  6
CONTINUOUS
 10
135.1592418621
 20
696.7054949944
 11
132.7592418621
 21
696.7054949944
  0
LINE
  5
2AC
100
AcDbEntity
  8
6_ALL_SURFS
100
AcDbLine
 62
7
  6
CONTINUOUS
 10
132.1592418621
 20
696.7054949944
 11
129.7592418621
 21
696.7054949944
  0
LINE
  5
2AD
100
AcDbEntity
  8
6_ALL_SURFS
100
AcDbLine
 62
7
  6
CONTINUOUS
 10
129.1592418621
 20
696.7054949944
 11
126.7592418621
 21
696.7054949944
  0
LINE
  5
2AE
100
AcDbEntity
  8
6_ALL_SURFS
100
AcDbLine
 62
7
  6
CONTINUOUS
 10
126.1592418621
 20
696.7054949944
 11
123.2592418621
 21
696.7054949944
  0
LINE
  5
2AF
100
AcDbEntity
  8
3_ALL_AXES
100
AcDbLine
 62
7
  6
CONTINUOUS
 10
185.4592418621
 20
696.7054949944
 11
187.8592418621
 21
696.7054949944
  0
LINE
  5
2B0
100
AcDbEntity
  8
7_ALL_FEATURES
100
AcDbLine
 62
7
  6
CONTINUOUS
 10
182.9092418621
 20
696.7054949944
 11
184.8592418621
 21
696.7054949944
  0
LINE
  5
2B1
100
AcDbEntity
  8
3_ALL_AXES
100
AcDbLine
 62
7
  6
CONTINUOUS
 10
188.4592418621
 20
696.7054949944
 11
190.8592418621
 21
696.7054949944
  0
LINE
  5
2B2
100
AcDbEntity
  8
3_ALL_AXES
100
AcDbLine
 62
7
  6
CONTINUOUS
 10
191.4592418621
 20
696.7054949944
 11
193.8592418621
 21
696.7054949944
  0
LINE
  5
2B3
100
AcDbEntity
  8
3_ALL_AXES
100
AcDbLine
 62
7
  6
CONTINUOUS
 10
194.4592418621
 20
696.7054949944
 11
196.8592418621
 21
696.7054949944
  0
LINE
  5
2B4
100
AcDbEntity
  8
3_ALL_AXES
100
AcDbLine
 62
7
  6
CONTINUOUS
 10
197.4592418621
 20
696.7054949944
 11
200.3592418621
 21
696.7054949944
  0
LINE
  5
2B5
100
AcDbEntity
  8
5_ALL_CURVES
100
AcDbLine
 62
40
  6
CONTINUOUS
 10
202.8592418621
 20
697.7054949944
 11
202.4655385042
 21
697.7054949944
  0
LINE
  5
2B6
100
AcDbEntity
  8
7_ALL_FEATURES
100
AcDbLine
 62
7
  6
CONTINUOUS
 10
202.4655385042
 20
697.7054949944
 11
200.4592418621
 21
697.7054949944
  0
LINE
  5
2B7
100
AcDbEntity
  8
3_ALL_AXES
100
AcDbLine
 62
7
  6
CONTINUOUS
 10
199.8592418621
 20
697.7054949944
 11
197.4592418621
 21
697.7054949944
  0
LINE
  5
2B8
100
AcDbEntity
  8
3_ALL_AXES
100
AcDbLine
 62
7
  6
CONTINUOUS
 10
196.8592418621
 20
697.7054949944
 11
194.4592418621
 21
697.7054949944
  0
LINE
  5
2B9
100
AcDbEntity
  8
3_ALL_AXES
100
AcDbLine
 62
7
  6
CONTINUOUS
 10
193.8592418621
 20
697.7054949944
 11
191.4592418621
 21
697.7054949944
  0
LINE
  5
2BA
100
AcDbEntity
  8
3_ALL_AXES
100
AcDbLine
 62
7
  6
CONTINUOUS
 10
190.8592418621
 20
697.7054949944
 11
188.4592418621
 21
697.7054949944
  0
LINE
  5
2BB
100
AcDbEntity
  8
7_ALL_FEATURES
100
AcDbLine
 62
7
  6
CONTINUOUS
 10
184.8592418621
 20
697.7054949944
 11
183.1592418621
 21
697.7054949944
  0
LINE
  5
2BC
100
AcDbEntity
  8
3_ALL_AXES
100
AcDbLine
 62
7
  6
CONTINUOUS
 10
187.8592418621
 20
697.7054949944
 11
185.4592418621
 21
697.7054949944
  0
LINE
  5
2BD
100
AcDbEntity
  8
7_ALL_FEATURES
100
AcDbLine
 62
7
  6
CONTINUOUS
 10
181.0592418621
 20
697.7054949944
 11
180.2421692201
 21
697.7054949944
  0
LINE
  5
2BE
100
AcDbEntity
  8
6_ALL_SURFS
100
AcDbLine
 62
7
  6
CONTINUOUS
 10
121.1529452201
 20
697.7054949944
 11
123.1592418621
 21
697.7054949944
  0
LINE
  5
2BF
100
AcDbEntity
  8
6_ALL_SURFS
100
AcDbLine
 62
7
  6
CONTINUOUS
 10
123.7592418621
 20
697.7054949944
 11
126.1592418621
 21
697.7054949944
  0
LINE
  5
2C0
100
AcDbEntity
  8
6_ALL_SURFS
100
AcDbLine
 62
7
  6
CONTINUOUS
 10
126.7592418621
 20
697.7054949944
 11
129.1592418621
 21
697.7054949944
  0
LINE
  5
2C1
100
AcDbEntity
  8
6_ALL_SURFS
100
AcDbLine
 62
7
  6
CONTINUOUS
 10
129.7592418621
 20
697.7054949944
 11
132.1592418621
 21
697.7054949944
  0
LINE
  5
2C2
100
AcDbEntity
  8
6_ALL_SURFS
100
AcDbLine
 62
7
  6
CONTINUOUS
 10
132.7592418621
 20
697.7054949944
 11
135.1592418621
 21
697.7054949944
  0
LINE
  5
2C3
100
AcDbEntity
  8
6_ALL_SURFS
100
AcDbLine
 62
7
  6
CONTINUOUS
 10
135.7592418621
 20
697.7054949944
 11
138.1592418621
 21
697.7054949944
  0
LINE
  5
2C4
100
AcDbEntity
  8
6_ALL_SURFS
100
AcDbLine
 62
7
  6
CONTINUOUS
 10
138.7592418621
 20
697.7054949944
 11
140.4592418621
 21
697.7054949944
  0
LINE
  5
2C5
100
AcDbEntity
  8
6_ALL_SURFS
100
AcDbLine
 62
7
  6
CONTINUOUS
 10
142.5592418621
 20
697.7054949944
 11
143.3763145042
 21
697.7054949944
  0
LINE
  5
2C6
100
AcDbEntity
  8
3_ALL_AXES
100
AcDbLine
 62
2
  6
CONTINUOUS
 10
200.3592418621
 20
698.6594033917
 11
193.3592418621
 21
698.6594033917
  0
LINE
  5
2C7
100
AcDbEntity
  8
6_ALL_SURFS
100
AcDbLine
 62
7
  6
CONTINUOUS
 10
145.1092418621
 20
700.9554949944
 11
144.2896855746
 21
700.9554949944
  0
LINE
  5
2C8
100
AcDbEntity
  8
7_ALL_FEATURES
100
AcDbLine
 62
7
  6
CONTINUOUS
 10
178.5092418621
 20
700.9554949944
 11
179.3287981497
 21
700.9554949944
  0
LINE
  5
2C9
100
AcDbEntity
  8
6_ALL_SURFS
100
AcDbLine
 62
7
  6
CONTINUOUS
 10
144.870307621
 20
705.4196833122
 11
145.2592418621
 21
705.1951320234
  0
LINE
  5
2CA
100
AcDbEntity
  8
5_ALL_CURVES
100
AcDbLine
 62
40
  6
CONTINUOUS
 10
183.0092418621
 20
703.3054949944
 11
181.0092418621
 21
703.3054949944
  0
LINE
  5
2CB
100
AcDbEntity
  8
6_ALL_SURFS
100
AcDbLine
 62
7
  6
CONTINUOUS
 10
143.3592418621
 20
703.3054949944
 11
142.6092418621
 21
703.3054949944
  0
LINE
  5
2CC
100
AcDbEntity
  8
7_ALL_FEATURES
100
AcDbLine
 62
7
  6
CONTINUOUS
 10
180.2592418621
 20
703.3054949944
 11
181.0092418621
 21
703.3054949944
  0
LINE
  5
2CD
100
AcDbEntity
  8
6_ALL_SURFS
100
AcDbLine
 62
7
  6
CONTINUOUS
 10
143.3763145042
 20
697.7054949944
 11
143.47412614
 21
697.5215380624
  0
LINE
  5
2CE
100
AcDbEntity
  8
6_ALL_SURFS
100
AcDbLine
 62
7
  6
CONTINUOUS
 10
150.5950535444
 20
773.1665607533
 11
151.5701601832
 21
774.8554949944
  0
LINE
  5
2CF
100
AcDbEntity
  8
7_ALL_FEATURES
100
AcDbLine
 62
7
  6
CONTINUOUS
 10
160.3092418621
 20
773.0554949944
 11
160.1092418621
 21
772.8554949944
  0
LINE
  5
2D0
100
AcDbEntity
  8
7_ALL_FEATURES
100
AcDbLine
 62
7
  6
CONTINUOUS
 10
181.0092418621
 20
709.1054949944
 11
180.1092418621
 21
709.1054949944
  0
LINE
  5
2D1
100
AcDbEntity
  8
6_ALL_SURFS
100
AcDbLine
 62
7
  6
CONTINUOUS
 10
142.6092418621
 20
709.1054949944
 11
143.5092418621
 21
709.1054949944
  0
LINE
  5
2D2
100
AcDbEntity
  8
5_ALL_CURVES
100
AcDbLine
 62
40
  6
CONTINUOUS
 10
181.0092418621
 20
709.1054949944
 11
183.0092418621
 21
709.1054949944
  0
LINE
  5
2D3
100
AcDbEntity
  8
3_ALL_AXES
100
AcDbLine
 62
7
  6
CONTINUOUS
 10
185.4592418621
 20
697.7054949944
 11
185.1592418621
 21
697.8554949944
  0
LINE
  5
2D4
100
AcDbEntity
  8
6_ALL_SURFS
100
AcDbLine
 62
7
  6
CONTINUOUS
 10
140.6092418621
 20
705.3054949944
 11
140.6092418621
 21
707.1054949944
  0
LINE
  5
2D5
100
AcDbEntity
  8
6_ALL_SURFS
100
AcDbLine
 62
7
  6
CONTINUOUS
 10
140.7592418621
 20
698.0054949944
 11
140.7592418621
 21
698.9179944454
  0
LINE
  5
2D6
100
AcDbEntity
  8
6_ALL_SURFS
100
AcDbLine
 62
7
  6
CONTINUOUS
 10
141.0092418621
 20
695.5054949944
 11
141.0092418621
 21
696.4054949944
  0
LINE
  5
2D7
100
AcDbEntity
  8
6_ALL_SURFS
100
AcDbLine
 62
7
  6
CONTINUOUS
 10
142.2592418621
 20
698.7998213027
 11
142.2592418621
 21
698.0054949944
  0
LINE
  5
2D8
100
AcDbEntity
  8
6_ALL_SURFS
100
AcDbLine
 62
7
  6
CONTINUOUS
 10
142.2592418621
 20
695.9054949944
 11
142.2592418621
 21
695.5054949944
  0
LINE
  5
2D9
100
AcDbEntity
  8
7_ALL_FEATURES
100
AcDbLine
 62
7
  6
CONTINUOUS
 10
142.4592418621
 20
696.0054949944
 11
142.4592418621
 21
695.4054949944
  0
LINE
  5
2DA
100
AcDbEntity
  8
6_ALL_SURFS
100
AcDbLine
 62
7
  6
CONTINUOUS
 10
143.9277618265
 20
755.2332069934
 11
146.9543961734
 21
768.8854722793
  0
LINE
  5
2DB
100
AcDbEntity
  8
6_ALL_SURFS
100
AcDbLine
 62
7
  6
CONTINUOUS
 10
148.2355307067
 20
767.2719346084
 11
145.4560173173
 21
754.7343599269
  0
LINE
  5
2DC
100
AcDbEntity
  8
6_ALL_SURFS
100
AcDbLine
 62
7
  6
CONTINUOUS
 10
145.8246054481
 20
753.9908328469
 11
145.4695492414
 21
753.0153239363
  0
LINE
  5
2DD
100
AcDbEntity
  8
3_ALL_AXES
100
AcDbLine
 62
7
  6
CONTINUOUS
 10
188.4592418621
 20
697.7054949944
 11
188.1592418621
 21
697.8554949944
  0
LINE
  5
2DE
100
AcDbEntity
  8
3_ALL_AXES
100
AcDbLine
 62
7
  6
CONTINUOUS
 10
191.4592418621
 20
697.7054949944
 11
191.1592418621
 21
697.8554949944
  0
LINE
  5
2DF
100
AcDbEntity
  8
3_ALL_AXES
100
AcDbLine
 62
7
  6
CONTINUOUS
 10
194.4592418621
 20
697.7054949944
 11
194.1592418621
 21
697.8554949944
  0
LINE
  5
2E0
100
AcDbEntity
  8
6_ALL_SURFS
100
AcDbLine
 62
7
  6
CONTINUOUS
 10
143.5092418621
 20
697.3806965936
 11
143.5092418621
 21
696.5054949944
  0
LINE
  5
2E1
100
AcDbEntity
  8
6_ALL_SURFS
100
AcDbLine
 62
7
  6
CONTINUOUS
 10
143.6592418621
 20
702.8156846557
 11
143.6592418621
 21
703.0054949944
  0
LINE
  5
2E2
100
AcDbEntity
  8
7_ALL_FEATURES
100
AcDbLine
 62
7
  6
CONTINUOUS
 10
143.7092418621
 20
697.0254949944
 11
143.7092418621
 21
696.4054949944
  0
LINE
  5
2E3
100
AcDbEntity
  8
6_ALL_SURFS
100
AcDbLine
 62
7
  6
CONTINUOUS
 10
143.8092418621
 20
709.4054949944
 11
143.8092418621
 21
754.1510089237
  0
LINE
  5
2E4
100
AcDbEntity
  8
7_ALL_FEATURES
100
AcDbLine
 62
7
  6
CONTINUOUS
 10
144.5092418621
 20
696.5054949944
 11
144.5092418621
 21
697.0254949944
  0
LINE
  5
2E5
100
AcDbEntity
  8
6_ALL_SURFS
100
AcDbLine
 62
7
  6
CONTINUOUS
 10
145.4092418621
 20
752.673303793
 11
145.4092418621
 21
707.4756655867
  0
LINE
  5
2E6
100
AcDbEntity
  8
6_ALL_SURFS
100
AcDbLine
 62
7
  6
CONTINUOUS
 10
145.4092418621
 20
704.9353244022
 11
145.4092418621
 21
701.2554949944
  0
LINE
  5
2E7
100
AcDbEntity
  8
6_ALL_SURFS
100
AcDbLine
 62
7
  6
CONTINUOUS
 10
145.8092418621
 20
774.0054949944
 11
145.8092418621
 21
774.7054949944
  0
LINE
  5
2E8
100
AcDbEntity
  8
3_ALL_AXES
100
AcDbLine
 62
7
  6
CONTINUOUS
 10
197.4592418621
 20
697.7054949944
 11
197.1592418621
 21
697.8554949944
  0
LINE
  5
2E9
100
AcDbEntity
  8
3_ALL_AXES
100
AcDbLine
 62
7
  6
CONTINUOUS
 10
200.4592418621
 20
697.7054949944
 11
200.1592418621
 21
697.8554949944
  0
LINE
  5
2EA
100
AcDbEntity
  8
7_ALL_FEATURES
100
AcDbLine
 62
7
  6
CONTINUOUS
 10
178.3592418621
 20
707.2158579655
 11
178.7481761033
 21
706.9913066767
  0
LINE
  5
2EB
100
AcDbEntity
  8
5_ALL_CURVES
100
AcDbLine
 62
40
  6
CONTINUOUS
 10
178.9834088372
 20
706.8554949944
 11
178.7481761033
 21
706.9913066767
  0
LINE
  5
2EC
100
AcDbEntity
  8
3_ALL_AXES
100
AcDbLine
 62
6
  6
CONTINUOUS
 10
201.6582799678
 20
696.7054949944
 11
201.4664976412
 21
696.8162205723
  0
LINE
  5
2ED
100
AcDbEntity
  8
7_ALL_FEATURES
100
AcDbLine
 62
7
  6
CONTINUOUS
 10
179.6059119919
 20
699.2326956504
 11
179.9703398051
 21
698.8418946665
  0
LINE
  5
2EE
100
AcDbEntity
  8
6_ALL_SURFS
100
AcDbLine
 62
7
  6
CONTINUOUS
 10
152.6092418621
 20
774.7054949944
 11
152.6092418621
 21
771.8054949944
  0
LINE
  5
2EF
100
AcDbEntity
  8
7_ALL_FEATURES
100
AcDbLine
 62
7
  6
CONTINUOUS
 10
154.3092418621
 20
768.0554949944
 11
154.3092418621
 21
767.0554949944
  0
LINE
  5
2F0
100
AcDbEntity
  8
7_ALL_FEATURES
100
AcDbLine
 62
7
  6
CONTINUOUS
 10
175.5701601832
 20
774.8554949944
 11
174.5950535444
 21
773.1665607533
  0
LINE
  5
2F1
100
AcDbEntity
  8
5_ALL_CURVES
100
AcDbLine
 62
40
  6
CONTINUOUS
 10
174.4592418621
 20
772.9313280194
 11
174.5950535444
 21
773.1665607533
  0
LINE
  5
2F2
100
AcDbEntity
  8
7_ALL_FEATURES
100
AcDbLine
 62
7
  6
CONTINUOUS
 10
178.0239263314
 20
754.412180165
 11
177.9214373358
 21
754.3506867677
  0
LINE
  5
2F3
100
AcDbEntity
  8
5_ALL_CURVES
100
AcDbLine
 62
40
  6
CONTINUOUS
 10
177.7092418621
 20
754.2233694835
 11
177.9214373358
 21
754.3506867677
  0
LINE
  5
2F4
100
AcDbEntity
  8
7_ALL_FEATURES
100
AcDbLine
 62
7
  6
CONTINUOUS
 10
180.5554227665
 20
699.3874933545
 11
180.1909949532
 21
699.7782943385
  0
LINE
  5
2F5
100
AcDbEntity
  8
7_ALL_FEATURES
100
AcDbLine
 62
7
  6
CONTINUOUS
 10
179.5482042601
 20
700.8600945025
 11
181.2786479726
 21
699.0044208107
  0
LINE
  5
2F6
100
AcDbEntity
  8
7_ALL_FEATURES
100
AcDbLine
 62
7
  6
CONTINUOUS
 10
182.4562724146
 20
699.9409919855
 11
180.0935650113
 21
702.4746854757
  0
LINE
  5
2F7
100
AcDbEntity
  8
7_ALL_FEATURES
100
AcDbLine
 62
7
  6
CONTINUOUS
 10
157.8092418621
 20
765.0272917642
 11
157.8092418621
 21
767.0554949944
  0
LINE
  5
2F8
100
AcDbEntity
  8
6_ALL_SURFS
100
AcDbLine
 62
7
  6
CONTINUOUS
 10
158.2092418621
 20
769.9554949944
 11
158.2092418621
 21
773.2054949944
  0
LINE
  5
2F9
100
AcDbEntity
  8
7_ALL_FEATURES
100
AcDbLine
 62
7
  6
CONTINUOUS
 10
159.8092418621
 20
764.209528302
 11
159.8092418621
 21
764.2256825776
  0
LINE
  5
2FA
100
AcDbEntity
  8
6_ALL_SURFS
100
AcDbLine
 62
7
  6
CONTINUOUS
 10
160.1092418621
 20
773.1054949944
 11
160.1092418621
 21
768.3554949944
  0
LINE
  5
2FB
100
AcDbEntity
  8
7_ALL_FEATURES
100
AcDbLine
 62
7
  6
CONTINUOUS
 10
161.3092418621
 20
763.9868062692
 11
161.3092418621
 21
764.2256825776
  0
LINE
  5
2FC
100
AcDbEntity
  8
7_ALL_FEATURES
100
AcDbLine
 62
7
  6
CONTINUOUS
 10
162.3092418621
 20
764.2256825776
 11
162.3092418621
 21
763.9868062692
  0
LINE
  5
2FD
100
AcDbEntity
  8
7_ALL_FEATURES
100
AcDbLine
 62
7
  6
CONTINUOUS
 10
163.5092418621
 20
773.1054949944
 11
163.5092418621
 21
768.3554949944
  0
LINE
  5
2FE
100
AcDbEntity
  8
7_ALL_FEATURES
100
AcDbLine
 62
7
  6
CONTINUOUS
 10
163.8092418621
 20
764.2256825776
 11
163.8092418621
 21
764.209528302
  0
LINE
  5
2FF
100
AcDbEntity
  8
7_ALL_FEATURES
100
AcDbLine
 62
7
  6
CONTINUOUS
 10
165.4092418621
 20
769.9554949944
 11
165.4092418621
 21
773.2054949944
  0
LINE
  5
300
100
AcDbEntity
  8
5_ALL_CURVES
100
AcDbLine
 62
40
  6
CONTINUOUS
 10
165.4092418621
 20
773.2054949944
 11
165.4092418621
 21
775.0054949944
  0
LINE
  5
301
100
AcDbEntity
  8
7_ALL_FEATURES
100
AcDbLine
 62
7
  6
CONTINUOUS
 10
165.8092418621
 20
765.0272917642
 11
165.8092418621
 21
767.0554949944
  0
LINE
  5
302
100
AcDbEntity
  8
7_ALL_FEATURES
100
AcDbLine
 62
7
  6
CONTINUOUS
 10
169.3092418621
 20
767.0554949944
 11
169.3092418621
 21
768.0554949944
  0
LINE
  5
303
100
AcDbEntity
  8
6_ALL_SURFS
100
AcDbLine
 62
7
  6
CONTINUOUS
 10
148.0483235411
 20
774.8554949944
 11
149.0234301799
 21
773.1665607533
  0
LINE
  5
304
100
AcDbEntity
  8
7_ALL_FEATURES
100
AcDbLine
 62
7
  6
CONTINUOUS
 10
171.0092418621
 20
774.7054949944
 11
171.0092418621
 21
771.8054949944
  0
LINE
  5
305
100
AcDbEntity
  8
6_ALL_SURFS
100
AcDbLine
 62
7
  6
CONTINUOUS
 10
141.1622113097
 20
699.9409919855
 11
143.5249187129
 21
702.4746854757
  0
LINE
  5
306
100
AcDbEntity
  8
6_ALL_SURFS
100
AcDbLine
 62
7
  6
CONTINUOUS
 10
144.0702794641
 20
700.8600945025
 11
142.3398357517
 21
699.0044208107
  0
LINE
  5
307
100
AcDbEntity
  8
7_ALL_FEATURES
100
AcDbLine
 62
7
  6
CONTINUOUS
 10
143.4274887711
 20
699.7782943385
 11
143.0630609578
 21
699.3874933545
  0
LINE
  5
308
100
AcDbEntity
  8
7_ALL_FEATURES
100
AcDbLine
 62
7
  6
CONTINUOUS
 10
143.6481439191
 20
698.8418946665
 11
144.0125717323
 21
699.2326956504
  0
LINE
  5
309
100
AcDbEntity
  8
6_ALL_SURFS
100
AcDbLine
 62
7
  6
CONTINUOUS
 10
145.5945573928
 20
754.412180165
 11
145.6970463885
 21
754.3506867677
  0
LINE
  5
30A
100
AcDbEntity
  8
5_ALL_CURVES
100
AcDbLine
 62
40
  6
CONTINUOUS
 10
177.8092418621
 20
774.0054949944
 11
177.8092418621
 21
773.5054949944
  0
LINE
  5
30B
100
AcDbEntity
  8
5_ALL_CURVES
100
AcDbLine
 62
40
  6
CONTINUOUS
 10
177.8092418621
 20
775.0054949944
 11
177.8092418621
 21
774.7054949944
  0
LINE
  5
30C
100
AcDbEntity
  8
7_ALL_FEATURES
100
AcDbLine
 62
7
  6
CONTINUOUS
 10
177.8092418621
 20
774.0054949944
 11
177.8092418621
 21
774.7054949944
  0
LINE
  5
30D
100
AcDbEntity
  8
7_ALL_FEATURES
100
AcDbLine
 62
7
  6
CONTINUOUS
 10
178.2092418621
 20
752.673303793
 11
178.2092418621
 21
707.4756655867
  0
LINE
  5
30E
100
AcDbEntity
  8
7_ALL_FEATURES
100
AcDbLine
 62
7
  6
CONTINUOUS
 10
178.2092418621
 20
704.9353244022
 11
178.2092418621
 21
701.2554949944
  0
LINE
  5
30F
100
AcDbEntity
  8
5_ALL_CURVES
100
AcDbLine
 62
40
  6
CONTINUOUS
 10
178.2092418621
 20
700.9554949944
 11
178.2092418621
 21
701.2554949944
  0
LINE
  5
310
100
AcDbEntity
  8
5_ALL_CURVES
100
AcDbLine
 62
40
  6
CONTINUOUS
 10
178.2092418621
 20
705.1951320234
 11
178.2092418621
 21
707.4756655867
  0
LINE
  5
311
100
AcDbEntity
  8
7_ALL_FEATURES
100
AcDbLine
 62
7
  6
CONTINUOUS
 10
179.1092418621
 20
697.0254949944
 11
179.1092418621
 21
696.5054949944
  0
LINE
  5
312
100
AcDbEntity
  8
7_ALL_FEATURES
100
AcDbLine
 62
7
  6
CONTINUOUS
 10
179.8092418621
 20
709.4054949944
 11
179.8092418621
 21
754.1510089237
  0
LINE
  5
313
100
AcDbEntity
  8
7_ALL_FEATURES
100
AcDbLine
 62
7
  6
CONTINUOUS
 10
179.9092418621
 20
696.4054949944
 11
179.9092418621
 21
697.0254949944
  0
LINE
  5
314
100
AcDbEntity
  8
7_ALL_FEATURES
100
AcDbLine
 62
7
  6
CONTINUOUS
 10
179.9592418621
 20
702.8156846557
 11
179.9592418621
 21
703.0054949944
  0
LINE
  5
315
100
AcDbEntity
  8
7_ALL_FEATURES
100
AcDbLine
 62
7
  6
CONTINUOUS
 10
180.1092418621
 20
697.3806965936
 11
180.1092418621
 21
696.5054949944
  0
LINE
  5
316
100
AcDbEntity
  8
5_ALL_CURVES
100
AcDbLine
 62
40
  6
CONTINUOUS
 10
180.1092418621
 20
696.2054949944
 11
180.1092418621
 21
696.5054949944
  0
LINE
  5
317
100
AcDbEntity
  8
7_ALL_FEATURES
100
AcDbLine
 62
7
  6
CONTINUOUS
 10
181.1592418621
 20
695.4054949944
 11
181.1592418621
 21
696.0054949944
  0
LINE
  5
318
100
AcDbEntity
  8
7_ALL_FEATURES
100
AcDbLine
 62
7
  6
CONTINUOUS
 10
181.3592418621
 20
698.7998213027
 11
181.3592418621
 21
698.0054949944
  0
LINE
  5
319
100
AcDbEntity
  8
7_ALL_FEATURES
100
AcDbLine
 62
7
  6
CONTINUOUS
 10
181.3592418621
 20
695.9054949944
 11
181.3592418621
 21
695.5054949944
  0
LINE
  5
31A
100
AcDbEntity
  8
5_ALL_CURVES
100
AcDbLine
 62
40
  6
CONTINUOUS
 10
181.3592418621
 20
695.2054949944
 11
181.3592418621
 21
695.5054949944
  0
LINE
  5
31B
100
AcDbEntity
  8
6_ALL_SURFS
100
AcDbLine
 62
7
  6
CONTINUOUS
 10
145.2592418621
 20
707.2158579655
 11
144.870307621
 21
706.9913066767
  0
LINE
  5
31C
100
AcDbEntity
  8
6_ALL_SURFS
100
AcDbLine
 62
7
  6
CONTINUOUS
 10
123.1592418621
 20
697.7054949944
 11
123.4592418621
 21
697.8554949944
  0
LINE
  5
31D
100
AcDbEntity
  8
6_ALL_SURFS
100
AcDbLine
 62
7
  6
CONTINUOUS
 10
126.1592418621
 20
697.7054949944
 11
126.4592418621
 21
697.8554949944
  0
LINE
  5
31E
100
AcDbEntity
  8
6_ALL_SURFS
100
AcDbLine
 62
7
  6
CONTINUOUS
 10
129.1592418621
 20
697.7054949944
 11
129.4592418621
 21
697.8554949944
  0
LINE
  5
31F
100
AcDbEntity
  8
7_ALL_FEATURES
100
AcDbLine
 62
7
  6
CONTINUOUS
 10
182.6092418621
 20
695.5054949944
 11
182.6092418621
 21
696.4054949944
  0
LINE
  5
320
100
AcDbEntity
  8
7_ALL_FEATURES
100
AcDbLine
 62
7
  6
CONTINUOUS
 10
182.8592418621
 20
698.0054949944
 11
182.8592418621
 21
698.9179944454
  0
LINE
  5
321
100
AcDbEntity
  8
5_ALL_CURVES
100
AcDbLine
 62
40
  6
CONTINUOUS
 10
182.8592418621
 20
698.9179944454
 11
182.8592418621
 21
699.5088601588
  0
LINE
  5
322
100
AcDbEntity
  8
5_ALL_CURVES
100
AcDbLine
 62
40
  6
CONTINUOUS
 10
183.0092418621
 20
703.3054949944
 11
183.0092418621
 21
705.3054949944
  0
LINE
  5
323
100
AcDbEntity
  8
7_ALL_FEATURES
100
AcDbLine
 62
7
  6
CONTINUOUS
 10
183.0092418621
 20
705.3054949944
 11
183.0092418621
 21
707.1054949944
  0
LINE
  5
324
100
AcDbEntity
  8
5_ALL_CURVES
100
AcDbLine
 62
40
  6
CONTINUOUS
 10
183.0092418621
 20
707.1054949944
 11
183.0092418621
 21
709.1054949944
  0
LINE
  5
325
100
AcDbEntity
  8
6_ALL_SURFS
100
AcDbLine
 62
7
  6
CONTINUOUS
 10
132.1592418621
 20
697.7054949944
 11
132.4592418621
 21
697.8554949944
  0
LINE
  5
326
100
AcDbEntity
  8
6_ALL_SURFS
100
AcDbLine
 62
7
  6
CONTINUOUS
 10
135.1592418621
 20
697.7054949944
 11
135.4592418621
 21
697.8554949944
  0
LINE
  5
327
100
AcDbEntity
  8
6_ALL_SURFS
100
AcDbLine
 62
7
  6
CONTINUOUS
 10
138.1592418621
 20
697.7054949944
 11
138.4592418621
 21
697.8554949944
  0
LINE
  5
328
100
AcDbEntity
  8
7_ALL_FEATURES
100
AcDbLine
 62
7
  6
CONTINUOUS
 10
177.7938782762
 20
753.9908328469
 11
178.1489344829
 21
753.0153239363
  0
LINE
  5
329
100
AcDbEntity
  8
7_ALL_FEATURES
100
AcDbLine
 62
7
  6
CONTINUOUS
 10
175.3829530176
 20
767.2719346084
 11
178.162466407
 21
754.7343599269
  0
LINE
  5
32A
100
AcDbEntity
  8
7_ALL_FEATURES
100
AcDbLine
 62
7
  6
CONTINUOUS
 10
179.6907218977
 20
755.2332069934
 11
176.6640875509
 21
768.8854722793
  0
LINE
  5
32B
100
AcDbEntity
  8
5_ALL_CURVES
100
AcDbLine
 62
40
  6
CONTINUOUS
 10
176.6640875509
 20
768.8854722793
 11
176.5155470911
 21
769.5554949944
  0
LINE
  5
32C
100
AcDbEntity
  8
7_ALL_FEATURES
100
AcDbLine
 62
7
  6
CONTINUOUS
 10
165.8092418621
 20
765.0272917642
 11
157.8092418621
 21
765.0272917642
  0
LINE
  5
32D
100
AcDbEntity
  8
7_ALL_FEATURES
100
AcDbLine
 62
7
  6
CONTINUOUS
 10
163.3092418621
 20
773.0554949944
 11
163.5092418621
 21
772.8554949944
  0
LINE
  5
32E
100
AcDbEntity
  8
7_ALL_FEATURES
100
AcDbLine
 62
7
  6
CONTINUOUS
 10
173.0234301799
 20
773.1665607533
 11
172.0483235411
 21
774.8554949944
  0
LINE
  5
32F
100
AcDbEntity
  8
3_ALL_AXES
100
AcDbLine
 62
6
  6
CONTINUOUS
 10
193.3592418621
 20
697.7054949944
 11
193.3592418621
 21
698.6594033917
  0
LINE
  5
330
100
AcDbEntity
  8
7_ALL_FEATURES
100
AcDbLine
 62
7
  6
CONTINUOUS
 10
180.2421692201
 20
697.7054949944
 11
180.1443575843
 21
697.5215380624
  0
LINE
  5
331
100
AcDbEntity
  8
7_ALL_FEATURES
100
AcDbLine
 62
7
  6
CONTINUOUS
 10
178.7481761033
 20
705.4196833122
 11
178.3592418621
 21
705.1951320234
  0
LINE
  5
332
100
AcDbEntity
  8
7_ALL_FEATURES
100
AcDbLine
 62
7
  6
CONTINUOUS
 10
154.3092418621
 20
767.0554949944
 11
169.3092418621
 21
767.0554949944
  0
LINE
  5
333
100
AcDbEntity
  8
6_ALL_SURFS
100
AcDbLine
 62
7
  6
CONTINUOUS
 10
159.8092418621
 20
768.0554949944
 11
149.2118267138
 21
768.0554949944
  0
LINE
  5
334
100
AcDbEntity
  8
7_ALL_FEATURES
100
AcDbLine
 62
7
  6
CONTINUOUS
 10
159.8092418621
 20
768.0554949944
 11
174.4066570105
 21
768.0554949944
  0
LINE
  5
335
100
AcDbEntity
  8
5_ALL_CURVES
100
AcDbLine
 62
40
  6
CONTINUOUS
 10
176.1428864057
 20
769.5554949944
 11
176.5155470911
 21
769.5554949944
  0
LINE
  5
336
100
AcDbEntity
  8
7_ALL_FEATURES
100
AcDbLine
 62
7
  6
CONTINUOUS
 10
170.9513580296
 20
769.6554949944
 11
165.7092418621
 21
769.6554949944
  0
LINE
  5
337
100
AcDbEntity
  8
6_ALL_SURFS
100
AcDbLine
 62
7
  6
CONTINUOUS
 10
152.6671256946
 20
769.6554949944
 11
157.9092418621
 21
769.6554949944
  0
LINE
  5
338
100
AcDbEntity
  8
3_ALL_AXES
100
AcDbLine
 62
6
  6
CONTINUOUS
 10
200.3592418621
 20
697.7554949944
 11
200.3592418621
 21
698.6594033917
  0
LINE
  5
339
100
AcDbEntity
  8
7_ALL_FEATURES
100
AcDbLine
 62
7
  6
CONTINUOUS
 10
163.5092418621
 20
772.5554949944
 11
160.1092418621
 21
772.5554949944
  0
LINE
  5
33A
100
AcDbEntity
  8
7_ALL_FEATURES
100
AcDbLine
 62
7
  6
CONTINUOUS
 10
163.3092418621
 20
773.0554949944
 11
160.3092418621
 21
773.0554949944
  0
LINE
  5
33B
100
AcDbEntity
  8
7_ALL_FEATURES
100
AcDbLine
 62
7
  6
CONTINUOUS
 10
163.2092418621
 20
773.4054949944
 11
160.4092418621
 21
773.4054949944
  0
LINE
  5
33C
100
AcDbEntity
  8
5_ALL_CURVES
100
AcDbLine
 62
40
  6
CONTINUOUS
 10
177.8092418621
 20
773.5054949944
 11
177.3092418621
 21
773.5054949944
  0
LINE
  5
33D
100
AcDbEntity
  8
6_ALL_SURFS
100
AcDbLine
 62
7
  6
CONTINUOUS
 10
147.043378525
 20
773.5054949944
 11
146.3092418621
 21
773.5054949944
  0
LINE
  5
33E
100
AcDbEntity
  8
7_ALL_FEATURES
100
AcDbLine
 62
7
  6
CONTINUOUS
 10
176.5751051993
 20
773.5054949944
 11
177.3092418621
 21
773.5054949944
  0
LINE
  5
33F
100
AcDbEntity
  8
7_ALL_FEATURES
100
AcDbLine
 62
7
  6
CONTINUOUS
 10
177.5092418621
 20
775.0054949944
 11
175.8299678043
 21
775.0054949944
  0
LINE
  5
340
100
AcDbEntity
  8
7_ALL_FEATURES
100
AcDbLine
 62
7
  6
CONTINUOUS
 10
171.78851592
 20
775.0054949944
 11
171.3092418621
 21
775.0054949944
  0
LINE
  5
341
100
AcDbEntity
  8
5_ALL_CURVES
100
AcDbLine
 62
40
  6
CONTINUOUS
 10
171.3092418621
 20
775.0054949944
 11
171.0092418621
 21
775.0054949944
  0
LINE
  5
342
100
AcDbEntity
  8
5_ALL_CURVES
100
AcDbLine
 62
40
  6
CONTINUOUS
 10
165.4092418621
 20
775.0054949944
 11
163.6092418621
 21
775.0054949944
  0
LINE
  5
343
100
AcDbEntity
  8
6_ALL_SURFS
100
AcDbLine
 62
7
  6
CONTINUOUS
 10
146.1092418621
 20
775.0054949944
 11
147.78851592
 21
775.0054949944
  0
LINE
  5
344
100
AcDbEntity
  8
6_ALL_SURFS
100
AcDbLine
 62
7
  6
CONTINUOUS
 10
151.8299678043
 20
775.0054949944
 11
152.3092418621
 21
775.0054949944
  0
LINE
  5
345
100
AcDbEntity
  8
7_ALL_FEATURES
100
AcDbLine
 62
7
  6
CONTINUOUS
 10
160.0092418621
 20
775.0054949944
 11
163.6092418621
 21
775.0054949944
  0
LINE
  5
346
100
AcDbEntity
  8
3_ALL_AXES
100
AcDbLine
 62
7
  6
CONTINUOUS
 10
185.1592418621
 20
697.8554949944
 11
184.8592418621
 21
697.7054949944
  0
LINE
  5
347
100
AcDbEntity
  8
3_ALL_AXES
100
AcDbLine
 62
7
  6
CONTINUOUS
 10
188.1592418621
 20
697.8554949944
 11
187.8592418621
 21
697.7054949944
  0
LINE
  5
348
100
AcDbEntity
  8
3_ALL_AXES
100
AcDbLine
 62
7
  6
CONTINUOUS
 10
191.1592418621
 20
697.8554949944
 11
190.8592418621
 21
697.7054949944
  0
LINE
  5
349
100
AcDbEntity
  8
3_ALL_AXES
100
AcDbLine
 62
7
  6
CONTINUOUS
 10
194.1592418621
 20
697.8554949944
 11
193.8592418621
 21
697.7054949944
  0
LINE
  5
34A
100
AcDbEntity
  8
3_ALL_AXES
100
AcDbLine
 62
7
  6
CONTINUOUS
 10
197.1592418621
 20
697.8554949944
 11
196.8592418621
 21
697.7054949944
  0
LINE
  5
34B
100
AcDbEntity
  8
3_ALL_AXES
100
AcDbLine
 62
7
  6
CONTINUOUS
 10
200.1592418621
 20
697.8554949944
 11
199.8592418621
 21
697.7054949944
  0
LINE
  5
34C
100
AcDbEntity
  8
6_ALL_SURFS
100
AcDbLine
 62
7
  6
CONTINUOUS
 10
298.6134593993
 20
695.2054949944
 11
298.6134593993
 21
696.6952727423
  0
LINE
  5
34D
100
AcDbEntity
  8
6_ALL_SURFS
100
AcDbLine
 62
7
  6
CONTINUOUS
 10
298.6134593993
 20
696.7054949944
 11
298.6134593993
 21
775.0054949944
  0
LINE
  5
34E
100
AcDbEntity
  8
6_ALL_SURFS
100
AcDbLine
 62
7
  6
CONTINUOUS
 10
3105.6134593993
 20
695.2054949944
 11
298.6134593993
 21
695.2054949944
  0
LINE
  5
34F
100
AcDbEntity
  8
6_ALL_SURFS
100
AcDbLine
 62
9
  6
CONTINUOUS
 10
3105.6134593993
 20
695.5054949944
 11
298.6134593993
 21
695.5054949944
  0
LINE
  5
350
100
AcDbEntity
  8
6_ALL_SURFS
100
AcDbLine
 62
9
  6
CONTINUOUS
 10
298.6134593993
 20
696.4054949944
 11
3105.6134593993
 21
696.4054949944
  0
LINE
  5
351
100
AcDbEntity
  8
6_ALL_SURFS
100
AcDbLine
 62
7
  6
CONTINUOUS
 10
298.6134593993
 20
696.7054949944
 11
3105.6134593993
 21
696.7054949944
  0
LINE
  5
352
100
AcDbEntity
  8
6_ALL_SURFS
100
AcDbLine
 62
9
  6
CONTINUOUS
 10
3105.6134593993
 20
696.9200421535
 11
298.6134593993
 21
696.9200421535
  0
LINE
  5
353
100
AcDbEntity
  8
6_ALL_SURFS
100
AcDbLine
 62
7
  6
CONTINUOUS
 10
3105.6134593993
 20
697.7054949944
 11
298.6134593993
 21
697.7054949944
  0
LINE
  5
354
100
AcDbEntity
  8
6_ALL_SURFS
100
AcDbLine
 62
7
  6
CONTINUOUS
 10
298.6134593993
 20
697.8554949944
 11
3105.6134593993
 21
697.8554949944
  0
LINE
  5
355
100
AcDbEntity
  8
6_ALL_SURFS
100
AcDbLine
 62
9
  6
CONTINUOUS
 10
298.6134593993
 20
698.0054949944
 11
3105.6134593993
 21
698.0054949944
  0
LINE
  5
356
100
AcDbEntity
  8
6_ALL_SURFS
100
AcDbLine
 62
9
  6
CONTINUOUS
 10
3105.6134593993
 20
698.9179944454
 11
298.6134593993
 21
698.9179944454
  0
LINE
  5
357
100
AcDbEntity
  8
6_ALL_SURFS
100
AcDbLine
 62
9
  6
CONTINUOUS
 10
3105.6134593993
 20
699.9409919855
 11
298.6134593993
 21
699.9409919855
  0
LINE
  5
358
100
AcDbEntity
  8
6_ALL_SURFS
100
AcDbLine
 62
9
  6
CONTINUOUS
 10
298.6134593993
 20
702.4746854757
 11
3105.6134593993
 21
702.4746854757
  0
LINE
  5
359
100
AcDbEntity
  8
6_ALL_SURFS
100
AcDbLine
 62
9
  6
CONTINUOUS
 10
298.6134593993
 20
702.8156846557
 11
3105.6134593993
 21
702.8156846557
  0
LINE
  5
35A
100
AcDbEntity
  8
6_ALL_SURFS
100
AcDbLine
 62
9
  6
CONTINUOUS
 10
298.6134593993
 20
703.0054949944
 11
3105.6134593993
 21
703.0054949944
  0
LINE
  5
35B
100
AcDbEntity
  8
6_ALL_SURFS
100
AcDbLine
 62
7
  6
CONTINUOUS
 10
3105.6134593993
 20
703.3054949944
 11
298.6134593993
 21
703.3054949944
  0
LINE
  5
35C
100
AcDbEntity
  8
6_ALL_SURFS
100
AcDbLine
 62
9
  6
CONTINUOUS
 10
3105.6134593993
 20
705.3054949944
 11
298.6134593993
 21
705.3054949944
  0
LINE
  5
35D
100
AcDbEntity
  8
6_ALL_SURFS
100
AcDbLine
 62
9
  6
CONTINUOUS
 10
3105.6134593993
 20
707.1054949944
 11
298.6134593993
 21
707.1054949944
  0
LINE
  5
35E
100
AcDbEntity
  8
6_ALL_SURFS
100
AcDbLine
 62
7
  6
CONTINUOUS
 10
3105.6134593993
 20
709.1054949944
 11
298.6134593993
 21
709.1054949944
  0
LINE
  5
35F
100
AcDbEntity
  8
6_ALL_SURFS
100
AcDbLine
 62
9
  6
CONTINUOUS
 10
298.6134593993
 20
709.4054949944
 11
3105.6134593993
 21
709.4054949944
  0
LINE
  5
360
100
AcDbEntity
  8
6_ALL_SURFS
100
AcDbLine
 62
9
  6
CONTINUOUS
 10
3105.6134593993
 20
754.1510089237
 11
298.6134593993
 21
754.1510089237
  0
LINE
  5
361
100
AcDbEntity
  8
6_ALL_SURFS
100
AcDbLine
 62
9
  6
CONTINUOUS
 10
3105.6134593993
 20
755.2332069934
 11
298.6134593993
 21
755.2332069934
  0
LINE
  5
362
100
AcDbEntity
  8
6_ALL_SURFS
100
AcDbLine
 62
9
  6
CONTINUOUS
 10
3105.6134593993
 20
768.8854722793
 11
298.6134593993
 21
768.8854722793
  0
LINE
  5
363
100
AcDbEntity
  8
6_ALL_SURFS
100
AcDbLine
 62
9
  6
CONTINUOUS
 10
3105.6134593993
 20
769.5816959954
 11
298.6134593993
 21
769.5816959954
  0
LINE
  5
364
100
AcDbEntity
  8
6_ALL_SURFS
100
AcDbLine
 62
9
  6
CONTINUOUS
 10
298.6134593993
 20
770.0442046719
 11
3105.6134593993
 21
770.0442046719
  0
LINE
  5
365
100
AcDbEntity
  8
6_ALL_SURFS
100
AcDbLine
 62
9
  6
CONTINUOUS
 10
298.6134593993
 20
773.0700111235
 11
3105.6134593993
 21
773.0700111235
  0
LINE
  5
366
100
AcDbEntity
  8
6_ALL_SURFS
100
AcDbLine
 62
7
  6
CONTINUOUS
 10
3105.6134593993
 20
773.5054949944
 11
298.6134593993
 21
773.5054949944
  0
LINE
  5
367
100
AcDbEntity
  8
6_ALL_SURFS
100
AcDbLine
 62
9
  6
CONTINUOUS
 10
3105.6134593993
 20
774.0054949944
 11
298.6134593993
 21
774.0054949944
  0
LINE
  5
368
100
AcDbEntity
  8
6_ALL_SURFS
100
AcDbLine
 62
9
  6
CONTINUOUS
 10
298.6134593993
 20
774.7054949944
 11
3105.6134593993
 21
774.7054949944
  0
LINE
  5
369
100
AcDbEntity
  8
6_ALL_SURFS
100
AcDbLine
 62
7
  6
CONTINUOUS
 10
298.6134593993
 20
775.0054949944
 11
3105.6134593993
 21
775.0054949944
  0
LINE
  5
36A
100
AcDbEntity
  8
6_ALL_SURFS
100
AcDbLine
 62
7
  6
CONTINUOUS
 10
3105.6134593993
 20
695.2054949944
 11
3105.6134593993
 21
775.0054949944
  0
LINE
  5
36B
100
AcDbEntity
  8
3_ALL_AXES
100
AcDbLine
 62
7
  6
CONTINUOUS
 10
298.6134593993
 20
1042.2455412302
 11
298.6134593993
 21
1026.7455412302
  0
LINE
  5
36C
100
AcDbEntity
  8
7_ALL_FEATURES
100
AcDbLine
 62
7
  6
CONTINUOUS
 10
298.6134593993
 20
1024.2455819262
 11
298.6134593993
 21
1026.7455412302
  0
LINE
  5
36D
100
AcDbEntity
  8
7_ALL_FEATURES
100
AcDbLine
 62
7
  6
CONTINUOUS
 10
298.6134593993
 20
1042.2455412302
 11
298.6134593993
 21
1048.8955412302
  0
LINE
  5
36E
100
AcDbEntity
  8
7_ALL_FEATURES
100
AcDbLine
 62
7
  6
CONTINUOUS
 10
298.6134593993
 20
1048.9558486094
 11
298.6134593993
 21
1066.6955412302
  0
LINE
  5
36F
100
AcDbEntity
  8
6_ALL_SURFS
100
AcDbLine
 62
7
  6
CONTINUOUS
 10
298.6134593993
 20
1066.6955412302
 11
298.6134593993
 21
1081.635233851
  0
LINE
  5
370
100
AcDbEntity
  8
6_ALL_SURFS
100
AcDbLine
 62
7
  6
CONTINUOUS
 10
298.6134593993
 20
1081.6955412302
 11
298.6134593993
 21
1106.3455005342
  0
LINE
  5
371
100
AcDbEntity
  8
7_ALL_FEATURES
100
AcDbLine
 62
7
  6
CONTINUOUS
 10
299.8634593993
 20
1084.6455412302
 11
299.8634593993
 21
1045.9455412302
  0
LINE
  5
372
100
AcDbEntity
  8
5_ALL_CURVES
100
AcDbLine
 62
40
  6
CONTINUOUS
 10
1702.1134593993
 20
1024.2455412302
 11
1702.1134593993
 21
1045.9455412302
  0
LINE
  5
373
100
AcDbEntity
  8
7_ALL_FEATURES
100
AcDbLine
 62
7
  6
CONTINUOUS
 10
3105.6134593993
 20
1024.2455412302
 11
298.6134593993
 21
1024.2455412302
  0
LINE
  5
374
100
AcDbEntity
  8
7_ALL_FEATURES
100
AcDbLine
 62
9
  6
CONTINUOUS
 10
3105.6134593993
 20
1024.6000696398
 11
298.6134593993
 21
1024.6000696398
  0
LINE
  5
375
100
AcDbEntity
  8
7_ALL_FEATURES
100
AcDbLine
 62
7
  6
CONTINUOUS
 10
298.6134593993
 20
1026.7455412302
 11
448.8300516056
 21
1026.7455412302
  0
LINE
  5
376
100
AcDbEntity
  8
7_ALL_FEATURES
100
AcDbLine
 62
7
  6
CONTINUOUS
 10
455.396867193
 20
1026.7455412302
 11
698.8300516056
 21
1026.7455412302
  0
LINE
  5
377
100
AcDbEntity
  8
7_ALL_FEATURES
100
AcDbLine
 62
7
  6
CONTINUOUS
 10
705.396867193
 20
1026.7455412302
 11
948.8300516056
 21
1026.7455412302
  0
LINE
  5
378
100
AcDbEntity
  8
7_ALL_FEATURES
100
AcDbLine
 62
7
  6
CONTINUOUS
 10
955.396867193
 20
1026.7455412302
 11
1198.8300516056
 21
1026.7455412302
  0
LINE
  5
379
100
AcDbEntity
  8
7_ALL_FEATURES
100
AcDbLine
 62
7
  6
CONTINUOUS
 10
1205.396867193
 20
1026.7455412302
 11
1448.8300516056
 21
1026.7455412302
  0
LINE
  5
37A
100
AcDbEntity
  8
7_ALL_FEATURES
100
AcDbLine
 62
7
  6
CONTINUOUS
 10
1455.396867193
 20
1026.7455412302
 11
1698.8300516056
 21
1026.7455412302
  0
LINE
  5
37B
100
AcDbEntity
  8
7_ALL_FEATURES
100
AcDbLine
 62
7
  6
CONTINUOUS
 10
1705.396867193
 20
1026.7455412302
 11
1948.8300516056
 21
1026.7455412302
  0
LINE
  5
37C
100
AcDbEntity
  8
7_ALL_FEATURES
100
AcDbLine
 62
7
  6
CONTINUOUS
 10
1955.396867193
 20
1026.7455412302
 11
2198.8300516056
 21
1026.7455412302
  0
LINE
  5
37D
100
AcDbEntity
  8
7_ALL_FEATURES
100
AcDbLine
 62
7
  6
CONTINUOUS
 10
2205.396867193
 20
1026.7455412302
 11
2448.8300516056
 21
1026.7455412302
  0
LINE
  5
37E
100
AcDbEntity
  8
7_ALL_FEATURES
100
AcDbLine
 62
7
  6
CONTINUOUS
 10
2455.396867193
 20
1026.7455412302
 11
2698.8300516056
 21
1026.7455412302
  0
LINE
  5
37F
100
AcDbEntity
  8
7_ALL_FEATURES
100
AcDbLine
 62
7
  6
CONTINUOUS
 10
2705.396867193
 20
1026.7455412302
 11
2948.8300516056
 21
1026.7455412302
  0
LINE
  5
380
100
AcDbEntity
  8
7_ALL_FEATURES
100
AcDbLine
 62
7
  6
CONTINUOUS
 10
2955.396867193
 20
1026.7455412302
 11
3105.6134593993
 21
1026.7455412302
  0
LINE
  5
381
100
AcDbEntity
  8
7_ALL_FEATURES
100
AcDbLine
 62
7
  6
CONTINUOUS
 10
298.6134593993
 20
1029.6455412302
 11
447.3520765393
 21
1029.6455412302
  0
LINE
  5
382
100
AcDbEntity
  8
7_ALL_FEATURES
100
AcDbLine
 62
7
  6
CONTINUOUS
 10
456.8748422594
 20
1029.6455412302
 11
697.3520765393
 21
1029.6455412302
  0
LINE
  5
383
100
AcDbEntity
  8
7_ALL_FEATURES
100
AcDbLine
 62
7
  6
CONTINUOUS
 10
706.8748422594
 20
1029.6455412302
 11
947.3520765393
 21
1029.6455412302
  0
LINE
  5
384
100
AcDbEntity
  8
7_ALL_FEATURES
100
AcDbLine
 62
7
  6
CONTINUOUS
 10
956.8748422594
 20
1029.6455412302
 11
1197.3520765393
 21
1029.6455412302
  0
LINE
  5
385
100
AcDbEntity
  8
7_ALL_FEATURES
100
AcDbLine
 62
7
  6
CONTINUOUS
 10
1206.8748422594
 20
1029.6455412302
 11
1447.3520765393
 21
1029.6455412302
  0
LINE
  5
386
100
AcDbEntity
  8
7_ALL_FEATURES
100
AcDbLine
 62
7
  6
CONTINUOUS
 10
1456.8748422594
 20
1029.6455412302
 11
1697.3520765393
 21
1029.6455412302
  0
LINE
  5
387
100
AcDbEntity
  8
7_ALL_FEATURES
100
AcDbLine
 62
7
  6
CONTINUOUS
 10
1706.8748422594
 20
1029.6455412302
 11
1947.3520765393
 21
1029.6455412302
  0
LINE
  5
388
100
AcDbEntity
  8
7_ALL_FEATURES
100
AcDbLine
 62
7
  6
CONTINUOUS
 10
1956.8748422594
 20
1029.6455412302
 11
2197.3520765393
 21
1029.6455412302
  0
LINE
  5
389
100
AcDbEntity
  8
7_ALL_FEATURES
100
AcDbLine
 62
7
  6
CONTINUOUS
 10
2206.8748422594
 20
1029.6455412302
 11
2447.3520765393
 21
1029.6455412302
  0
LINE
  5
38A
100
AcDbEntity
  8
7_ALL_FEATURES
100
AcDbLine
 62
7
  6
CONTINUOUS
 10
2456.8748422594
 20
1029.6455412302
 11
2697.3520765393
 21
1029.6455412302
  0
LINE
  5
38B
100
AcDbEntity
  8
7_ALL_FEATURES
100
AcDbLine
 62
7
  6
CONTINUOUS
 10
2706.8748422594
 20
1029.6455412302
 11
2947.3520765393
 21
1029.6455412302
  0
LINE
  5
38C
100
AcDbEntity
  8
7_ALL_FEATURES
100
AcDbLine
 62
7
  6
CONTINUOUS
 10
2956.8748422594
 20
1029.6455412302
 11
3105.6134593993
 21
1029.6455412302
  0
LINE
  5
38D
100
AcDbEntity
  8
7_ALL_FEATURES
100
AcDbLine
 62
7
  6
CONTINUOUS
 10
298.6134593993
 20
1030.2455412302
 11
447.3144212937
 21
1030.2455412302
  0
LINE
  5
38E
100
AcDbEntity
  8
7_ALL_FEATURES
100
AcDbLine
 62
7
  6
CONTINUOUS
 10
456.912497505
 20
1030.2455412302
 11
697.3144212937
 21
1030.2455412302
  0
LINE
  5
38F
100
AcDbEntity
  8
7_ALL_FEATURES
100
AcDbLine
 62
7
  6
CONTINUOUS
 10
706.912497505
 20
1030.2455412302
 11
947.3144212937
 21
1030.2455412302
  0
LINE
  5
390
100
AcDbEntity
  8
7_ALL_FEATURES
100
AcDbLine
 62
7
  6
CONTINUOUS
 10
956.912497505
 20
1030.2455412302
 11
1197.3144212937
 21
1030.2455412302
  0
LINE
  5
391
100
AcDbEntity
  8
7_ALL_FEATURES
100
AcDbLine
 62
7
  6
CONTINUOUS
 10
1206.912497505
 20
1030.2455412302
 11
1447.3144212937
 21
1030.2455412302
  0
LINE
  5
392
100
AcDbEntity
  8
7_ALL_FEATURES
100
AcDbLine
 62
7
  6
CONTINUOUS
 10
1456.912497505
 20
1030.2455412302
 11
1697.3144212937
 21
1030.2455412302
  0
LINE
  5
393
100
AcDbEntity
  8
7_ALL_FEATURES
100
AcDbLine
 62
7
  6
CONTINUOUS
 10
1706.912497505
 20
1030.2455412302
 11
1947.3144212937
 21
1030.2455412302
  0
LINE
  5
394
100
AcDbEntity
  8
7_ALL_FEATURES
100
AcDbLine
 62
7
  6
CONTINUOUS
 10
1956.912497505
 20
1030.2455412302
 11
2197.3144212937
 21
1030.2455412302
  0
LINE
  5
395
100
AcDbEntity
  8
7_ALL_FEATURES
100
AcDbLine
 62
7
  6
CONTINUOUS
 10
2206.912497505
 20
1030.2455412302
 11
2447.3144212937
 21
1030.2455412302
  0
LINE
  5
396
100
AcDbEntity
  8
7_ALL_FEATURES
100
AcDbLine
 62
7
  6
CONTINUOUS
 10
2456.912497505
 20
1030.2455412302
 11
2697.3144212937
 21
1030.2455412302
  0
LINE
  5
397
100
AcDbEntity
  8
7_ALL_FEATURES
100
AcDbLine
 62
7
  6
CONTINUOUS
 10
2706.912497505
 20
1030.2455412302
 11
2947.3144212937
 21
1030.2455412302
  0
LINE
  5
398
100
AcDbEntity
  8
7_ALL_FEATURES
100
AcDbLine
 62
7
  6
CONTINUOUS
 10
2956.912497505
 20
1030.2455412302
 11
3105.6134593993
 21
1030.2455412302
  0
LINE
  5
399
100
AcDbEntity
  8
7_ALL_FEATURES
100
AcDbLine
 62
7
  6
CONTINUOUS
 10
298.6134593993
 20
1032.6455412302
 11
447.9576481982
 21
1032.6455412302
  0
LINE
  5
39A
100
AcDbEntity
  8
7_ALL_FEATURES
100
AcDbLine
 62
7
  6
CONTINUOUS
 10
456.2692706005
 20
1032.6455412302
 11
697.9576481982
 21
1032.6455412302
  0
LINE
  5
39B
100
AcDbEntity
  8
7_ALL_FEATURES
100
AcDbLine
 62
7
  6
CONTINUOUS
 10
706.2692706005
 20
1032.6455412302
 11
947.9576481982
 21
1032.6455412302
  0
LINE
  5
39C
100
AcDbEntity
  8
7_ALL_FEATURES
100
AcDbLine
 62
7
  6
CONTINUOUS
 10
956.2692706005
 20
1032.6455412302
 11
1197.9576481982
 21
1032.6455412302
  0
LINE
  5
39D
100
AcDbEntity
  8
7_ALL_FEATURES
100
AcDbLine
 62
7
  6
CONTINUOUS
 10
1206.2692706005
 20
1032.6455412302
 11
1447.9576481982
 21
1032.6455412302
  0
LINE
  5
39E
100
AcDbEntity
  8
7_ALL_FEATURES
100
AcDbLine
 62
7
  6
CONTINUOUS
 10
1456.2692706005
 20
1032.6455412302
 11
1697.9576481982
 21
1032.6455412302
  0
LINE
  5
39F
100
AcDbEntity
  8
7_ALL_FEATURES
100
AcDbLine
 62
7
  6
CONTINUOUS
 10
1706.2692706005
 20
1032.6455412302
 11
1947.9576481982
 21
1032.6455412302
  0
LINE
  5
3A0
100
AcDbEntity
  8
7_ALL_FEATURES
100
AcDbLine
 62
7
  6
CONTINUOUS
 10
1956.2692706005
 20
1032.6455412302
 11
2197.9576481982
 21
1032.6455412302
  0
LINE
  5
3A1
100
AcDbEntity
  8
7_ALL_FEATURES
100
AcDbLine
 62
7
  6
CONTINUOUS
 10
2206.2692706005
 20
1032.6455412302
 11
2447.9576481982
 21
1032.6455412302
  0
LINE
  5
3A2
100
AcDbEntity
  8
7_ALL_FEATURES
100
AcDbLine
 62
7
  6
CONTINUOUS
 10
2456.2692706005
 20
1032.6455412302
 11
2697.9576481982
 21
1032.6455412302
  0
LINE
  5
3A3
100
AcDbEntity
  8
7_ALL_FEATURES
100
AcDbLine
 62
7
  6
CONTINUOUS
 10
2706.2692706005
 20
1032.6455412302
 11
2947.9576481982
 21
1032.6455412302
  0
LINE
  5
3A4
100
AcDbEntity
  8
7_ALL_FEATURES
100
AcDbLine
 62
7
  6
CONTINUOUS
 10
2956.2692706005
 20
1032.6455412302
 11
3105.6134593993
 21
1032.6455412302
  0
LINE
  5
3A5
100
AcDbEntity
  8
7_ALL_FEATURES
100
AcDbLine
 62
7
  6
CONTINUOUS
 10
298.6134593993
 20
1033.2455412302
 11
448.3676928904
 21
1033.2455412302
  0
LINE
  5
3A6
100
AcDbEntity
  8
7_ALL_FEATURES
100
AcDbLine
 62
7
  6
CONTINUOUS
 10
455.8592259083
 20
1033.2455412302
 11
698.3676928904
 21
1033.2455412302
  0
LINE
  5
3A7
100
AcDbEntity
  8
7_ALL_FEATURES
100
AcDbLine
 62
7
  6
CONTINUOUS
 10
705.8592259083
 20
1033.2455412302
 11
948.3676928904
 21
1033.2455412302
  0
LINE
  5
3A8
100
AcDbEntity
  8
7_ALL_FEATURES
100
AcDbLine
 62
7
  6
CONTINUOUS
 10
955.8592259083
 20
1033.2455412302
 11
1198.3676928904
 21
1033.2455412302
  0
LINE
  5
3A9
100
AcDbEntity
  8
7_ALL_FEATURES
100
AcDbLine
 62
7
  6
CONTINUOUS
 10
1205.8592259083
 20
1033.2455412302
 11
1448.3676928904
 21
1033.2455412302
  0
LINE
  5
3AA
100
AcDbEntity
  8
7_ALL_FEATURES
100
AcDbLine
 62
7
  6
CONTINUOUS
 10
1455.8592259083
 20
1033.2455412302
 11
1698.3676928904
 21
1033.2455412302
  0
LINE
  5
3AB
100
AcDbEntity
  8
7_ALL_FEATURES
100
AcDbLine
 62
7
  6
CONTINUOUS
 10
1705.8592259083
 20
1033.2455412302
 11
1948.3676928904
 21
1033.2455412302
  0
LINE
  5
3AC
100
AcDbEntity
  8
7_ALL_FEATURES
100
AcDbLine
 62
7
  6
CONTINUOUS
 10
1955.8592259083
 20
1033.2455412302
 11
2198.3676928904
 21
1033.2455412302
  0
LINE
  5
3AD
100
AcDbEntity
  8
7_ALL_FEATURES
100
AcDbLine
 62
7
  6
CONTINUOUS
 10
2205.8592259083
 20
1033.2455412302
 11
2448.3676928904
 21
1033.2455412302
  0
LINE
  5
3AE
100
AcDbEntity
  8
7_ALL_FEATURES
100
AcDbLine
 62
7
  6
CONTINUOUS
 10
2455.8592259083
 20
1033.2455412302
 11
2698.3676928904
 21
1033.2455412302
  0
LINE
  5
3AF
100
AcDbEntity
  8
7_ALL_FEATURES
100
AcDbLine
 62
7
  6
CONTINUOUS
 10
2705.8592259083
 20
1033.2455412302
 11
2948.3676928904
 21
1033.2455412302
  0
LINE
  5
3B0
100
AcDbEntity
  8
7_ALL_FEATURES
100
AcDbLine
 62
7
  6
CONTINUOUS
 10
2955.8592259083
 20
1033.2455412302
 11
3105.6134593993
 21
1033.2455412302
  0
LINE
  5
3B1
100
AcDbEntity
  8
3_ALL_AXES
100
AcDbLine
 62
7
  6
CONTINUOUS
 10
298.6134593993
 20
1035.6455412302
 11
3105.6134593993
 21
1035.6455412302
  0
LINE
  5
3B2
100
AcDbEntity
  8
3_ALL_AXES
100
AcDbLine
 62
7
  6
CONTINUOUS
 10
298.6134593993
 20
1036.2455412302
 11
3105.6134593993
 21
1036.2455412302
  0
LINE
  5
3B3
100
AcDbEntity
  8
3_ALL_AXES
100
AcDbLine
 62
7
  6
CONTINUOUS
 10
298.6134593993
 20
1038.6455412302
 11
3105.6134593993
 21
1038.6455412302
  0
LINE
  5
3B4
100
AcDbEntity
  8
3_ALL_AXES
100
AcDbLine
 62
7
  6
CONTINUOUS
 10
298.6134593993
 20
1039.2455412302
 11
3105.6134593993
 21
1039.2455412302
  0
LINE
  5
3B5
100
AcDbEntity
  8
3_ALL_AXES
100
AcDbLine
 62
7
  6
CONTINUOUS
 10
298.6134593993
 20
1041.6455412302
 11
3105.6134593993
 21
1041.6455412302
  0
LINE
  5
3B6
100
AcDbEntity
  8
3_ALL_AXES
100
AcDbLine
 62
7
  6
CONTINUOUS
 10
298.6134593993
 20
1042.2455412302
 11
3105.6134593993
 21
1042.2455412302
  0
LINE
  5
3B7
100
AcDbEntity
  8
7_ALL_FEATURES
100
AcDbLine
 62
9
  6
CONTINUOUS
 10
298.6134593993
 20
1044.1955412302
 11
3105.6134593993
 21
1044.1955412302
  0
LINE
  5
3B8
100
AcDbEntity
  8
7_ALL_FEATURES
100
AcDbLine
 62
7
  6
CONTINUOUS
 10
3105.6134593993
 20
1044.4955412302
 11
298.6134593993
 21
1044.4955412302
  0
LINE
  5
3B9
100
AcDbEntity
  8
7_ALL_FEATURES
100
AcDbLine
 62
9
  6
CONTINUOUS
 10
3105.6134593993
 20
1044.7955412302
 11
298.6134593993
 21
1044.7955412302
  0
LINE
  5
3BA
100
AcDbEntity
  8
7_ALL_FEATURES
100
AcDbLine
 62
9
  6
CONTINUOUS
 10
3105.6134593993
 20
1045.4455412302
 11
298.6134593993
 21
1045.4455412302
  0
LINE
  5
3BB
100
AcDbEntity
  8
7_ALL_FEATURES
100
AcDbLine
 62
7
  6
CONTINUOUS
 10
3105.6134593993
 20
1045.7455412302
 11
298.6134593993
 21
1045.7455412302
  0
LINE
  5
3BC
100
AcDbEntity
  8
7_ALL_FEATURES
100
AcDbLine
 62
7
  6
CONTINUOUS
 10
299.8634593993
 20
1045.9455412302
 11
3104.3634593993
 21
1045.9455412302
  0
LINE
  5
3BD
100
AcDbEntity
  8
7_ALL_FEATURES
100
AcDbLine
 62
9
  6
CONTINUOUS
 10
298.6134593993
 20
1046.0455412302
 11
299.8634593993
 21
1046.0455412302
  0
LINE
  5
3BE
100
AcDbEntity
  8
7_ALL_FEATURES
100
AcDbLine
 62
9
  6
CONTINUOUS
 10
3104.3634593993
 20
1046.0455412302
 11
3105.6134593993
 21
1046.0455412302
  0
LINE
  5
3BF
100
AcDbEntity
  8
7_ALL_FEATURES
100
AcDbLine
 62
9
  6
CONTINUOUS
 10
299.8634593993
 20
1046.1455412302
 11
3104.3634593993
 21
1046.1455412302
  0
LINE
  5
3C0
100
AcDbEntity
  8
7_ALL_FEATURES
100
AcDbLine
 62
9
  6
CONTINUOUS
 10
3105.6134593993
 20
1046.6955412302
 11
3104.3634593993
 21
1046.6955412302
  0
LINE
  5
3C1
100
AcDbEntity
  8
7_ALL_FEATURES
100
AcDbLine
 62
9
  6
CONTINUOUS
 10
299.8634593993
 20
1046.6955412302
 11
298.6134593993
 21
1046.6955412302
  0
LINE
  5
3C2
100
AcDbEntity
  8
7_ALL_FEATURES
100
AcDbLine
 62
7
  6
CONTINUOUS
 10
3105.6134593993
 20
1046.9955412302
 11
3104.3634593993
 21
1046.9955412302
  0
LINE
  5
3C3
100
AcDbEntity
  8
7_ALL_FEATURES
100
AcDbLine
 62
7
  6
CONTINUOUS
 10
299.8634593993
 20
1046.9955412302
 11
298.6134593993
 21
1046.9955412302
  0
LINE
  5
3C4
100
AcDbEntity
  8
7_ALL_FEATURES
100
AcDbLine
 62
9
  6
CONTINUOUS
 10
298.6134593993
 20
1047.5565788322
 11
299.8634593993
 21
1047.5565788322
  0
LINE
  5
3C5
100
AcDbEntity
  8
7_ALL_FEATURES
100
AcDbLine
 62
9
  6
CONTINUOUS
 10
3104.3634593993
 20
1047.5565788322
 11
3105.6134593993
 21
1047.5565788322
  0
LINE
  5
3C6
100
AcDbEntity
  8
7_ALL_FEATURES
100
AcDbLine
 62
9
  6
CONTINUOUS
 10
298.6134593993
 20
1047.7759849427
 11
299.8634593993
 21
1047.7759849427
  0
LINE
  5
3C7
100
AcDbEntity
  8
7_ALL_FEATURES
100
AcDbLine
 62
9
  6
CONTINUOUS
 10
3104.3634593993
 20
1047.7759849427
 11
3105.6134593993
 21
1047.7759849427
  0
LINE
  5
3C8
100
AcDbEntity
  8
7_ALL_FEATURES
100
AcDbLine
 62
9
  6
CONTINUOUS
 10
3105.6134593993
 20
1048.5955412302
 11
3104.3634593993
 21
1048.5955412302
  0
LINE
  5
3C9
100
AcDbEntity
  8
7_ALL_FEATURES
100
AcDbLine
 62
9
  6
CONTINUOUS
 10
299.8634593993
 20
1048.5955412302
 11
298.6134593993
 21
1048.5955412302
  0
LINE
  5
3CA
100
AcDbEntity
  8
7_ALL_FEATURES
100
AcDbLine
 62
7
  6
CONTINUOUS
 10
3105.6134593993
 20
1048.8955412302
 11
3104.3634593993
 21
1048.8955412302
  0
LINE
  5
3CB
100
AcDbEntity
  8
7_ALL_FEATURES
100
AcDbLine
 62
7
  6
CONTINUOUS
 10
299.8634593993
 20
1048.8955412302
 11
298.6134593993
 21
1048.8955412302
  0
LINE
  5
3CC
100
AcDbEntity
  8
7_ALL_FEATURES
100
AcDbLine
 62
9
  6
CONTINUOUS
 10
298.6134593993
 20
1048.9558486094
 11
299.8634593993
 21
1048.9558486094
  0
LINE
  5
3CD
100
AcDbEntity
  8
7_ALL_FEATURES
100
AcDbLine
 62
9
  6
CONTINUOUS
 10
3104.3634593993
 20
1048.9558486094
 11
3105.6134593993
 21
1048.9558486094
  0
LINE
  5
3CE
100
AcDbEntity
  8
7_ALL_FEATURES
100
AcDbLine
 62
9
  6
CONTINUOUS
 10
3105.6134593993
 20
1049.3109048161
 11
3104.3634593993
 21
1049.3109048161
  0
LINE
  5
3CF
100
AcDbEntity
  8
7_ALL_FEATURES
100
AcDbLine
 62
9
  6
CONTINUOUS
 10
299.8634593993
 20
1049.3109048161
 11
298.6134593993
 21
1049.3109048161
  0
LINE
  5
3D0
100
AcDbEntity
  8
7_ALL_FEATURES
100
AcDbLine
 62
7
  6
CONTINUOUS
 10
3105.6134593993
 20
1049.3289970299
 11
3104.3634593993
 21
1049.3289970299
  0
LINE
  5
3D1
100
AcDbEntity
  8
7_ALL_FEATURES
100
AcDbLine
 62
7
  6
CONTINUOUS
 10
299.8634593993
 20
1049.3289970299
 11
298.6134593993
 21
1049.3289970299
  0
LINE
  5
3D2
100
AcDbEntity
  8
7_ALL_FEATURES
100
AcDbLine
 62
9
  6
CONTINUOUS
 10
298.6134593993
 20
1051.7218300747
 11
299.8634593993
 21
1051.7218300747
  0
LINE
  5
3D3
100
AcDbEntity
  8
7_ALL_FEATURES
100
AcDbLine
 62
9
  6
CONTINUOUS
 10
3104.3634593993
 20
1051.7218300747
 11
3105.6134593993
 21
1051.7218300747
  0
LINE
  5
3D4
100
AcDbEntity
  8
7_ALL_FEATURES
100
AcDbLine
 62
9
  6
CONTINUOUS
 10
298.6134593993
 20
1052.6981260819
 11
299.8634593993
 21
1052.6981260819
  0
LINE
  5
3D5
100
AcDbEntity
  8
7_ALL_FEATURES
100
AcDbLine
 62
9
  6
CONTINUOUS
 10
3104.3634593993
 20
1052.6981260819
 11
3105.6134593993
 21
1052.6981260819
  0
LINE
  5
3D6
100
AcDbEntity
  8
7_ALL_FEATURES
100
AcDbLine
 62
9
  6
CONTINUOUS
 10
3105.6134593993
 20
1063.2955412302
 11
3104.3634593993
 21
1063.2955412302
  0
LINE
  5
3D7
100
AcDbEntity
  8
7_ALL_FEATURES
100
AcDbLine
 62
9
  6
CONTINUOUS
 10
299.8634593993
 20
1063.2955412302
 11
298.6134593993
 21
1063.2955412302
  0
LINE
  5
3D8
100
AcDbEntity
  8
7_ALL_FEATURES
100
AcDbLine
 62
7
  6
CONTINUOUS
 10
3105.6134593993
 20
1063.5955412302
 11
3104.3634593993
 21
1063.5955412302
  0
LINE
  5
3D9
100
AcDbEntity
  8
7_ALL_FEATURES
100
AcDbLine
 62
7
  6
CONTINUOUS
 10
299.8634593993
 20
1063.5955412302
 11
298.6134593993
 21
1063.5955412302
  0
LINE
  5
3DA
100
AcDbEntity
  8
7_ALL_FEATURES
100
AcDbLine
 62
9
  6
CONTINUOUS
 10
298.6134593993
 20
1063.8955412302
 11
299.8634593993
 21
1063.8955412302
  0
LINE
  5
3DB
100
AcDbEntity
  8
7_ALL_FEATURES
100
AcDbLine
 62
9
  6
CONTINUOUS
 10
3104.3634593993
 20
1063.8955412302
 11
3105.6134593993
 21
1063.8955412302
  0
LINE
  5
3DC
100
AcDbEntity
  8
6_ALL_SURFS
100
AcDbLine
 62
9
  6
CONTINUOUS
 10
298.6134593993
 20
1066.6955412302
 11
299.8634593993
 21
1066.6955412302
  0
LINE
  5
3DD
100
AcDbEntity
  8
6_ALL_SURFS
100
AcDbLine
 62
9
  6
CONTINUOUS
 10
3104.3634593993
 20
1066.6955412302
 11
3105.6134593993
 21
1066.6955412302
  0
LINE
  5
3DE
100
AcDbEntity
  8
6_ALL_SURFS
100
AcDbLine
 62
7
  6
CONTINUOUS
 10
3105.6134593993
 20
1066.9955412302
 11
3104.3634593993
 21
1066.9955412302
  0
LINE
  5
3DF
100
AcDbEntity
  8
6_ALL_SURFS
100
AcDbLine
 62
7
  6
CONTINUOUS
 10
299.8634593993
 20
1066.9955412302
 11
298.6134593993
 21
1066.9955412302
  0
LINE
  5
3E0
100
AcDbEntity
  8
6_ALL_SURFS
100
AcDbLine
 62
9
  6
CONTINUOUS
 10
3105.6134593993
 20
1067.2955412302
 11
3104.3634593993
 21
1067.2955412302
  0
LINE
  5
3E1
100
AcDbEntity
  8
6_ALL_SURFS
100
AcDbLine
 62
9
  6
CONTINUOUS
 10
299.8634593993
 20
1067.2955412302
 11
298.6134593993
 21
1067.2955412302
  0
LINE
  5
3E2
100
AcDbEntity
  8
6_ALL_SURFS
100
AcDbLine
 62
9
  6
CONTINUOUS
 10
298.6134593993
 20
1077.8929563785
 11
299.8634593993
 21
1077.8929563785
  0
LINE
  5
3E3
100
AcDbEntity
  8
6_ALL_SURFS
100
AcDbLine
 62
9
  6
CONTINUOUS
 10
3104.3634593993
 20
1077.8929563785
 11
3105.6134593993
 21
1077.8929563785
  0
LINE
  5
3E4
100
AcDbEntity
  8
6_ALL_SURFS
100
AcDbLine
 62
9
  6
CONTINUOUS
 10
298.6134593993
 20
1078.8692523856
 11
299.8634593993
 21
1078.8692523856
  0
LINE
  5
3E5
100
AcDbEntity
  8
6_ALL_SURFS
100
AcDbLine
 62
9
  6
CONTINUOUS
 10
3104.3634593993
 20
1078.8692523856
 11
3105.6134593993
 21
1078.8692523856
  0
LINE
  5
3E6
100
AcDbEntity
  8
6_ALL_SURFS
100
AcDbLine
 62
7
  6
CONTINUOUS
 10
298.6134593993
 20
1081.2620854305
 11
299.8634593993
 21
1081.2620854305
  0
LINE
  5
3E7
100
AcDbEntity
  8
6_ALL_SURFS
100
AcDbLine
 62
7
  6
CONTINUOUS
 10
3104.3634593993
 20
1081.2620854305
 11
3105.6134593993
 21
1081.2620854305
  0
LINE
  5
3E8
100
AcDbEntity
  8
6_ALL_SURFS
100
AcDbLine
 62
9
  6
CONTINUOUS
 10
3105.6134593993
 20
1081.2801776443
 11
3104.3634593993
 21
1081.2801776443
  0
LINE
  5
3E9
100
AcDbEntity
  8
6_ALL_SURFS
100
AcDbLine
 62
9
  6
CONTINUOUS
 10
299.8634593993
 20
1081.2801776443
 11
298.6134593993
 21
1081.2801776443
  0
LINE
  5
3EA
100
AcDbEntity
  8
6_ALL_SURFS
100
AcDbLine
 62
9
  6
CONTINUOUS
 10
298.6134593993
 20
1081.635233851
 11
299.8634593993
 21
1081.635233851
  0
LINE
  5
3EB
100
AcDbEntity
  8
6_ALL_SURFS
100
AcDbLine
 62
9
  6
CONTINUOUS
 10
3104.3634593993
 20
1081.635233851
 11
3105.6134593993
 21
1081.635233851
  0
LINE
  5
3EC
100
AcDbEntity
  8
6_ALL_SURFS
100
AcDbLine
 62
7
  6
CONTINUOUS
 10
3105.6134593993
 20
1081.6955412302
 11
3104.3634593993
 21
1081.6955412302
  0
LINE
  5
3ED
100
AcDbEntity
  8
6_ALL_SURFS
100
AcDbLine
 62
7
  6
CONTINUOUS
 10
299.8634593993
 20
1081.6955412302
 11
298.6134593993
 21
1081.6955412302
  0
LINE
  5
3EE
100
AcDbEntity
  8
6_ALL_SURFS
100
AcDbLine
 62
9
  6
CONTINUOUS
 10
3105.6134593993
 20
1081.9955412302
 11
3104.3634593993
 21
1081.9955412302
  0
LINE
  5
3EF
100
AcDbEntity
  8
6_ALL_SURFS
100
AcDbLine
 62
9
  6
CONTINUOUS
 10
299.8634593993
 20
1081.9955412302
 11
298.6134593993
 21
1081.9955412302
  0
LINE
  5
3F0
100
AcDbEntity
  8
6_ALL_SURFS
100
AcDbLine
 62
9
  6
CONTINUOUS
 10
298.6134593993
 20
1082.8150975177
 11
299.8634593993
 21
1082.8150975177
  0
LINE
  5
3F1
100
AcDbEntity
  8
6_ALL_SURFS
100
AcDbLine
 62
9
  6
CONTINUOUS
 10
3104.3634593993
 20
1082.8150975177
 11
3105.6134593993
 21
1082.8150975177
  0
LINE
  5
3F2
100
AcDbEntity
  8
6_ALL_SURFS
100
AcDbLine
 62
9
  6
CONTINUOUS
 10
298.6134593993
 20
1083.0345036282
 11
299.8634593993
 21
1083.0345036282
  0
LINE
  5
3F3
100
AcDbEntity
  8
6_ALL_SURFS
100
AcDbLine
 62
9
  6
CONTINUOUS
 10
3104.3634593993
 20
1083.0345036282
 11
3105.6134593993
 21
1083.0345036282
  0
LINE
  5
3F4
100
AcDbEntity
  8
6_ALL_SURFS
100
AcDbLine
 62
7
  6
CONTINUOUS
 10
3105.6134593993
 20
1083.5955412302
 11
3104.3634593993
 21
1083.5955412302
  0
LINE
  5
3F5
100
AcDbEntity
  8
6_ALL_SURFS
100
AcDbLine
 62
7
  6
CONTINUOUS
 10
299.8634593993
 20
1083.5955412302
 11
298.6134593993
 21
1083.5955412302
  0
LINE
  5
3F6
100
AcDbEntity
  8
6_ALL_SURFS
100
AcDbLine
 62
9
  6
CONTINUOUS
 10
3105.6134593993
 20
1083.8955412302
 11
3104.3634593993
 21
1083.8955412302
  0
LINE
  5
3F7
100
AcDbEntity
  8
6_ALL_SURFS
100
AcDbLine
 62
9
  6
CONTINUOUS
 10
299.8634593993
 20
1083.8955412302
 11
298.6134593993
 21
1083.8955412302
  0
LINE
  5
3F8
100
AcDbEntity
  8
7_ALL_FEATURES
100
AcDbLine
 62
9
  6
CONTINUOUS
 10
299.8634593993
 20
1084.4455412302
 11
3104.3634593993
 21
1084.4455412302
  0
LINE
  5
3F9
100
AcDbEntity
  8
6_ALL_SURFS
100
AcDbLine
 62
9
  6
CONTINUOUS
 10
298.6134593993
 20
1084.5455412302
 11
299.8634593993
 21
1084.5455412302
  0
LINE
  5
3FA
100
AcDbEntity
  8
6_ALL_SURFS
100
AcDbLine
 62
9
  6
CONTINUOUS
 10
3104.3634593993
 20
1084.5455412302
 11
3105.6134593993
 21
1084.5455412302
  0
LINE
  5
3FB
100
AcDbEntity
  8
7_ALL_FEATURES
100
AcDbLine
 62
7
  6
CONTINUOUS
 10
299.8634593993
 20
1084.6455412302
 11
3104.3634593993
 21
1084.6455412302
  0
LINE
  5
3FC
100
AcDbEntity
  8
6_ALL_SURFS
100
AcDbLine
 62
7
  6
CONTINUOUS
 10
3105.6134593993
 20
1084.8455412302
 11
298.6134593993
 21
1084.8455412302
  0
LINE
  5
3FD
100
AcDbEntity
  8
6_ALL_SURFS
100
AcDbLine
 62
9
  6
CONTINUOUS
 10
3105.6134593993
 20
1085.1455412302
 11
298.6134593993
 21
1085.1455412302
  0
LINE
  5
3FE
100
AcDbEntity
  8
6_ALL_SURFS
100
AcDbLine
 62
9
  6
CONTINUOUS
 10
3105.6134593993
 20
1085.7955412302
 11
298.6134593993
 21
1085.7955412302
  0
LINE
  5
3FF
100
AcDbEntity
  8
6_ALL_SURFS
100
AcDbLine
 62
7
  6
CONTINUOUS
 10
3105.6134593993
 20
1086.0955412302
 11
298.6134593993
 21
1086.0955412302
  0
LINE
  5
400
100
AcDbEntity
  8
6_ALL_SURFS
100
AcDbLine
 62
9
  6
CONTINUOUS
 10
298.6134593993
 20
1086.3955412302
 11
3105.6134593993
 21
1086.3955412302
  0
LINE
  5
401
100
AcDbEntity
  8
6_ALL_SURFS
100
AcDbLine
 62
7
  6
CONTINUOUS
 10
298.6134593993
 20
1088.3455412302
 11
3105.6134593993
 21
1088.3455412302
  0
LINE
  5
402
100
AcDbEntity
  8
6_ALL_SURFS
100
AcDbLine
 62
7
  6
CONTINUOUS
 10
298.6134593993
 20
1088.9455412302
 11
3105.6134593993
 21
1088.9455412302
  0
LINE
  5
403
100
AcDbEntity
  8
6_ALL_SURFS
100
AcDbLine
 62
7
  6
CONTINUOUS
 10
298.6134593993
 20
1091.3455412302
 11
3105.6134593993
 21
1091.3455412302
  0
LINE
  5
404
100
AcDbEntity
  8
6_ALL_SURFS
100
AcDbLine
 62
7
  6
CONTINUOUS
 10
298.6134593993
 20
1091.9455412302
 11
3105.6134593993
 21
1091.9455412302
  0
LINE
  5
405
100
AcDbEntity
  8
6_ALL_SURFS
100
AcDbLine
 62
7
  6
CONTINUOUS
 10
298.6134593993
 20
1094.3455412302
 11
3105.6134593993
 21
1094.3455412302
  0
LINE
  5
406
100
AcDbEntity
  8
6_ALL_SURFS
100
AcDbLine
 62
7
  6
CONTINUOUS
 10
298.6134593993
 20
1094.9455412302
 11
3105.6134593993
 21
1094.9455412302
  0
LINE
  5
407
100
AcDbEntity
  8
6_ALL_SURFS
100
AcDbLine
 62
7
  6
CONTINUOUS
 10
298.6134593993
 20
1097.3455412302
 11
448.3676928904
 21
1097.3455412302
  0
LINE
  5
408
100
AcDbEntity
  8
6_ALL_SURFS
100
AcDbLine
 62
7
  6
CONTINUOUS
 10
455.8592259083
 20
1097.3455412302
 11
698.3676928904
 21
1097.3455412302
  0
LINE
  5
409
100
AcDbEntity
  8
6_ALL_SURFS
100
AcDbLine
 62
7
  6
CONTINUOUS
 10
705.8592259083
 20
1097.3455412302
 11
948.3676928904
 21
1097.3455412302
  0
LINE
  5
40A
100
AcDbEntity
  8
6_ALL_SURFS
100
AcDbLine
 62
7
  6
CONTINUOUS
 10
955.8592259083
 20
1097.3455412302
 11
1198.3676928904
 21
1097.3455412302
  0
LINE
  5
40B
100
AcDbEntity
  8
6_ALL_SURFS
100
AcDbLine
 62
7
  6
CONTINUOUS
 10
1205.8592259083
 20
1097.3455412302
 11
1448.3676928904
 21
1097.3455412302
  0
LINE
  5
40C
100
AcDbEntity
  8
6_ALL_SURFS
100
AcDbLine
 62
7
  6
CONTINUOUS
 10
1455.8592259083
 20
1097.3455412302
 11
1698.3676928904
 21
1097.3455412302
  0
LINE
  5
40D
100
AcDbEntity
  8
6_ALL_SURFS
100
AcDbLine
 62
7
  6
CONTINUOUS
 10
1705.8592259083
 20
1097.3455412302
 11
1948.3676928904
 21
1097.3455412302
  0
LINE
  5
40E
100
AcDbEntity
  8
6_ALL_SURFS
100
AcDbLine
 62
7
  6
CONTINUOUS
 10
1955.8592259083
 20
1097.3455412302
 11
2198.3676928904
 21
1097.3455412302
  0
LINE
  5
40F
100
AcDbEntity
  8
6_ALL_SURFS
100
AcDbLine
 62
7
  6
CONTINUOUS
 10
2205.8592259083
 20
1097.3455412302
 11
2448.3676928904
 21
1097.3455412302
  0
LINE
  5
410
100
AcDbEntity
  8
6_ALL_SURFS
100
AcDbLine
 62
7
  6
CONTINUOUS
 10
2455.8592259083
 20
1097.3455412302
 11
2698.3676928904
 21
1097.3455412302
  0
LINE
  5
411
100
AcDbEntity
  8
6_ALL_SURFS
100
AcDbLine
 62
7
  6
CONTINUOUS
 10
2705.8592259083
 20
1097.3455412302
 11
2948.3676928904
 21
1097.3455412302
  0
LINE
  5
412
100
AcDbEntity
  8
6_ALL_SURFS
100
AcDbLine
 62
7
  6
CONTINUOUS
 10
2955.8592259083
 20
1097.3455412302
 11
3105.6134593993
 21
1097.3455412302
  0
LINE
  5
413
100
AcDbEntity
  8
6_ALL_SURFS
100
AcDbLine
 62
7
  6
CONTINUOUS
 10
298.6134593993
 20
1097.9455412302
 11
447.9576481982
 21
1097.9455412302
  0
LINE
  5
414
100
AcDbEntity
  8
6_ALL_SURFS
100
AcDbLine
 62
7
  6
CONTINUOUS
 10
456.2692706005
 20
1097.9455412302
 11
697.9576481982
 21
1097.9455412302
  0
LINE
  5
415
100
AcDbEntity
  8
6_ALL_SURFS
100
AcDbLine
 62
7
  6
CONTINUOUS
 10
706.2692706005
 20
1097.9455412302
 11
947.9576481982
 21
1097.9455412302
  0
LINE
  5
416
100
AcDbEntity
  8
6_ALL_SURFS
100
AcDbLine
 62
7
  6
CONTINUOUS
 10
956.2692706005
 20
1097.9455412302
 11
1197.9576481982
 21
1097.9455412302
  0
LINE
  5
417
100
AcDbEntity
  8
6_ALL_SURFS
100
AcDbLine
 62
7
  6
CONTINUOUS
 10
1206.2692706005
 20
1097.9455412302
 11
1447.9576481982
 21
1097.9455412302
  0
LINE
  5
418
100
AcDbEntity
  8
6_ALL_SURFS
100
AcDbLine
 62
7
  6
CONTINUOUS
 10
1456.2692706005
 20
1097.9455412302
 11
1697.9576481982
 21
1097.9455412302
  0
LINE
  5
419
100
AcDbEntity
  8
6_ALL_SURFS
100
AcDbLine
 62
7
  6
CONTINUOUS
 10
1706.2692706005
 20
1097.9455412302
 11
1947.9576481982
 21
1097.9455412302
  0
LINE
  5
41A
100
AcDbEntity
  8
6_ALL_SURFS
100
AcDbLine
 62
7
  6
CONTINUOUS
 10
1956.2692706005
 20
1097.9455412302
 11
2197.9576481982
 21
1097.9455412302
  0
LINE
  5
41B
100
AcDbEntity
  8
6_ALL_SURFS
100
AcDbLine
 62
7
  6
CONTINUOUS
 10
2206.2692706005
 20
1097.9455412302
 11
2447.9576481982
 21
1097.9455412302
  0
LINE
  5
41C
100
AcDbEntity
  8
6_ALL_SURFS
100
AcDbLine
 62
7
  6
CONTINUOUS
 10
2456.2692706005
 20
1097.9455412302
 11
2697.9576481982
 21
1097.9455412302
  0
LINE
  5
41D
100
AcDbEntity
  8
6_ALL_SURFS
100
AcDbLine
 62
7
  6
CONTINUOUS
 10
2706.2692706005
 20
1097.9455412302
 11
2947.9576481982
 21
1097.9455412302
  0
LINE
  5
41E
100
AcDbEntity
  8
6_ALL_SURFS
100
AcDbLine
 62
7
  6
CONTINUOUS
 10
2956.2692706005
 20
1097.9455412302
 11
3105.6134593993
 21
1097.9455412302
  0
LINE
  5
41F
100
AcDbEntity
  8
6_ALL_SURFS
100
AcDbLine
 62
7
  6
CONTINUOUS
 10
298.6134593993
 20
1100.3455412302
 11
447.3144212937
 21
1100.3455412302
  0
LINE
  5
420
100
AcDbEntity
  8
6_ALL_SURFS
100
AcDbLine
 62
7
  6
CONTINUOUS
 10
456.912497505
 20
1100.3455412302
 11
697.3144212937
 21
1100.3455412302
  0
LINE
  5
421
100
AcDbEntity
  8
6_ALL_SURFS
100
AcDbLine
 62
7
  6
CONTINUOUS
 10
706.912497505
 20
1100.3455412302
 11
947.3144212937
 21
1100.3455412302
  0
LINE
  5
422
100
AcDbEntity
  8
6_ALL_SURFS
100
AcDbLine
 62
7
  6
CONTINUOUS
 10
956.912497505
 20
1100.3455412302
 11
1197.3144212937
 21
1100.3455412302
  0
LINE
  5
423
100
AcDbEntity
  8
6_ALL_SURFS
100
AcDbLine
 62
7
  6
CONTINUOUS
 10
1206.912497505
 20
1100.3455412302
 11
1447.3144212937
 21
1100.3455412302
  0
LINE
  5
424
100
AcDbEntity
  8
6_ALL_SURFS
100
AcDbLine
 62
7
  6
CONTINUOUS
 10
1456.912497505
 20
1100.3455412302
 11
1697.3144212937
 21
1100.3455412302
  0
LINE
  5
425
100
AcDbEntity
  8
6_ALL_SURFS
100
AcDbLine
 62
7
  6
CONTINUOUS
 10
1706.912497505
 20
1100.3455412302
 11
1947.3144212937
 21
1100.3455412302
  0
LINE
  5
426
100
AcDbEntity
  8
6_ALL_SURFS
100
AcDbLine
 62
7
  6
CONTINUOUS
 10
1956.912497505
 20
1100.3455412302
 11
2197.3144212937
 21
1100.3455412302
  0
LINE
  5
427
100
AcDbEntity
  8
6_ALL_SURFS
100
AcDbLine
 62
7
  6
CONTINUOUS
 10
2206.912497505
 20
1100.3455412302
 11
2447.3144212937
 21
1100.3455412302
  0
LINE
  5
428
100
AcDbEntity
  8
6_ALL_SURFS
100
AcDbLine
 62
7
  6
CONTINUOUS
 10
2456.912497505
 20
1100.3455412302
 11
2697.3144212937
 21
1100.3455412302
  0
LINE
  5
429
100
AcDbEntity
  8
6_ALL_SURFS
100
AcDbLine
 62
7
  6
CONTINUOUS
 10
2706.912497505
 20
1100.3455412302
 11
2947.3144212937
 21
1100.3455412302
  0
LINE
  5
42A
100
AcDbEntity
  8
6_ALL_SURFS
100
AcDbLine
 62
7
  6
CONTINUOUS
 10
2956.912497505
 20
1100.3455412302
 11
3105.6134593993
 21
1100.3455412302
  0
LINE
  5
42B
100
AcDbEntity
  8
6_ALL_SURFS
100
AcDbLine
 62
7
  6
CONTINUOUS
 10
298.6134593993
 20
1100.9455412302
 11
447.3520765393
 21
1100.9455412302
  0
LINE
  5
42C
100
AcDbEntity
  8
6_ALL_SURFS
100
AcDbLine
 62
7
  6
CONTINUOUS
 10
456.8748422594
 20
1100.9455412302
 11
697.3520765393
 21
1100.9455412302
  0
LINE
  5
42D
100
AcDbEntity
  8
6_ALL_SURFS
100
AcDbLine
 62
7
  6
CONTINUOUS
 10
706.8748422594
 20
1100.9455412302
 11
947.3520765393
 21
1100.9455412302
  0
LINE
  5
42E
100
AcDbEntity
  8
6_ALL_SURFS
100
AcDbLine
 62
7
  6
CONTINUOUS
 10
956.8748422594
 20
1100.9455412302
 11
1197.3520765393
 21
1100.9455412302
  0
LINE
  5
42F
100
AcDbEntity
  8
6_ALL_SURFS
100
AcDbLine
 62
7
  6
CONTINUOUS
 10
1206.8748422594
 20
1100.9455412302
 11
1447.3520765393
 21
1100.9455412302
  0
LINE
  5
430
100
AcDbEntity
  8
6_ALL_SURFS
100
AcDbLine
 62
7
  6
CONTINUOUS
 10
1456.8748422594
 20
1100.9455412302
 11
1697.3520765393
 21
1100.9455412302
  0
LINE
  5
431
100
AcDbEntity
  8
6_ALL_SURFS
100
AcDbLine
 62
7
  6
CONTINUOUS
 10
1706.8748422594
 20
1100.9455412302
 11
1947.3520765393
 21
1100.9455412302
  0
LINE
  5
432
100
AcDbEntity
  8
6_ALL_SURFS
100
AcDbLine
 62
7
  6
CONTINUOUS
 10
1956.8748422594
 20
1100.9455412302
 11
2197.3520765393
 21
1100.9455412302
  0
LINE
  5
433
100
AcDbEntity
  8
6_ALL_SURFS
100
AcDbLine
 62
7
  6
CONTINUOUS
 10
2206.8748422594
 20
1100.9455412302
 11
2447.3520765393
 21
1100.9455412302
  0
LINE
  5
434
100
AcDbEntity
  8
6_ALL_SURFS
100
AcDbLine
 62
7
  6
CONTINUOUS
 10
2456.8748422594
 20
1100.9455412302
 11
2697.3520765393
 21
1100.9455412302
  0
LINE
  5
435
100
AcDbEntity
  8
6_ALL_SURFS
100
AcDbLine
 62
7
  6
CONTINUOUS
 10
2706.8748422594
 20
1100.9455412302
 11
2947.3520765393
 21
1100.9455412302
  0
LINE
  5
436
100
AcDbEntity
  8
6_ALL_SURFS
100
AcDbLine
 62
7
  6
CONTINUOUS
 10
2956.8748422594
 20
1100.9455412302
 11
3105.6134593993
 21
1100.9455412302
  0
LINE
  5
437
100
AcDbEntity
  8
6_ALL_SURFS
100
AcDbLine
 62
7
  6
CONTINUOUS
 10
298.6134593993
 20
1103.8455412302
 11
448.8300516056
 21
1103.8455412302
  0
LINE
  5
438
100
AcDbEntity
  8
6_ALL_SURFS
100
AcDbLine
 62
7
  6
CONTINUOUS
 10
455.396867193
 20
1103.8455412302
 11
698.8300516056
 21
1103.8455412302
  0
LINE
  5
439
100
AcDbEntity
  8
6_ALL_SURFS
100
AcDbLine
 62
7
  6
CONTINUOUS
 10
705.396867193
 20
1103.8455412302
 11
948.8300516056
 21
1103.8455412302
  0
LINE
  5
43A
100
AcDbEntity
  8
6_ALL_SURFS
100
AcDbLine
 62
7
  6
CONTINUOUS
 10
955.396867193
 20
1103.8455412302
 11
1198.8300516056
 21
1103.8455412302
  0
LINE
  5
43B
100
AcDbEntity
  8
6_ALL_SURFS
100
AcDbLine
 62
7
  6
CONTINUOUS
 10
1205.396867193
 20
1103.8455412302
 11
1448.8300516056
 21
1103.8455412302
  0
LINE
  5
43C
100
AcDbEntity
  8
6_ALL_SURFS
100
AcDbLine
 62
7
  6
CONTINUOUS
 10
1455.396867193
 20
1103.8455412302
 11
1698.8300516056
 21
1103.8455412302
  0
LINE
  5
43D
100
AcDbEntity
  8
6_ALL_SURFS
100
AcDbLine
 62
7
  6
CONTINUOUS
 10
1705.396867193
 20
1103.8455412302
 11
1948.8300516056
 21
1103.8455412302
  0
LINE
  5
43E
100
AcDbEntity
  8
6_ALL_SURFS
100
AcDbLine
 62
7
  6
CONTINUOUS
 10
1955.396867193
 20
1103.8455412302
 11
2198.8300516056
 21
1103.8455412302
  0
LINE
  5
43F
100
AcDbEntity
  8
6_ALL_SURFS
100
AcDbLine
 62
7
  6
CONTINUOUS
 10
2205.396867193
 20
1103.8455412302
 11
2448.8300516056
 21
1103.8455412302
  0
LINE
  5
440
100
AcDbEntity
  8
6_ALL_SURFS
100
AcDbLine
 62
7
  6
CONTINUOUS
 10
2455.396867193
 20
1103.8455412302
 11
2698.8300516056
 21
1103.8455412302
  0
LINE
  5
441
100
AcDbEntity
  8
6_ALL_SURFS
100
AcDbLine
 62
7
  6
CONTINUOUS
 10
2705.396867193
 20
1103.8455412302
 11
2948.8300516056
 21
1103.8455412302
  0
LINE
  5
442
100
AcDbEntity
  8
6_ALL_SURFS
100
AcDbLine
 62
7
  6
CONTINUOUS
 10
2955.396867193
 20
1103.8455412302
 11
3105.6134593993
 21
1103.8455412302
  0
LINE
  5
443
100
AcDbEntity
  8
6_ALL_SURFS
100
AcDbLine
 62
9
  6
CONTINUOUS
 10
3105.6134593993
 20
1105.9910128206
 11
298.6134593993
 21
1105.9910128206
  0
LINE
  5
444
100
AcDbEntity
  8
6_ALL_SURFS
100
AcDbLine
 62
7
  6
CONTINUOUS
 10
298.6134593993
 20
1106.3455412302
 11
3105.6134593993
 21
1106.3455412302
  0
LINE
  5
445
100
AcDbEntity
  8
7_ALL_FEATURES
100
AcDbLine
 62
7
  6
CONTINUOUS
 10
3104.3634593993
 20
1084.6455412302
 11
3104.3634593993
 21
1045.9455412302
  0
LINE
  5
446
100
AcDbEntity
  8
7_ALL_FEATURES
100
AcDbLine
 62
7
  6
CONTINUOUS
 10
3105.6134593993
 20
1048.8955412302
 11
3105.6134593993
 21
1042.2455412302
  0
LINE
  5
447
100
AcDbEntity
  8
3_ALL_AXES
100
AcDbLine
 62
7
  6
CONTINUOUS
 10
3105.6134593993
 20
1042.2455412302
 11
3105.6134593993
 21
1026.7455412302
  0
LINE
  5
448
100
AcDbEntity
  8
7_ALL_FEATURES
100
AcDbLine
 62
7
  6
CONTINUOUS
 10
3105.6134593993
 20
1026.7455412302
 11
3105.6134593993
 21
1024.2455819262
  0
LINE
  5
449
100
AcDbEntity
  8
7_ALL_FEATURES
100
AcDbLine
 62
7
  6
CONTINUOUS
 10
3105.6134593993
 20
1048.9380599821
 11
3105.6134593993
 21
1066.6955412302
  0
LINE
  5
44A
100
AcDbEntity
  8
6_ALL_SURFS
100
AcDbLine
 62
7
  6
CONTINUOUS
 10
3105.6134593993
 20
1066.6955412302
 11
3105.6134593993
 21
1081.6530224782
  0
LINE
  5
44B
100
AcDbEntity
  8
6_ALL_SURFS
100
AcDbLine
 62
7
  6
CONTINUOUS
 10
3105.6134593993
 20
1081.6955412302
 11
3105.6134593993
 21
1106.3455005342
  0
ARC
  5
44C
100
AcDbEntity
  8
6_ALL_SURFS
100
AcDbCircle
 62
7
  6
CONTINUOUS
 10
132.4592418621
 20
696.3054949944
 40
0.5
100
AcDbArc
 50
53.1301023542
 51
126.8698976458
  0
ARC
  5
44D
100
AcDbEntity
  8
6_ALL_SURFS
100
AcDbCircle
 62
7
  6
CONTINUOUS
 10
129.4592418621
 20
696.3054949944
 40
0.5
100
AcDbArc
 50
53.1301023542
 51
126.8698976458
  0
ARC
  5
44E
100
AcDbEntity
  8
6_ALL_SURFS
100
AcDbCircle
 62
7
  6
CONTINUOUS
 10
126.4592418621
 20
696.3054949944
 40
0.5
100
AcDbArc
 50
53.1301023542
 51
126.8698976458
  0
ARC
  5
44F
100
AcDbEntity
  8
6_ALL_SURFS
100
AcDbCircle
 62
7
  6
CONTINUOUS
 10
121.1529452201
 20
697.3117916365
 40
0.3937033579
100
AcDbArc
 50
90.0
 51
264.2894068625
  0
ARC
  5
450
100
AcDbEntity
  8
7_ALL_FEATURES
100
AcDbCircle
 62
7
  6
CONTINUOUS
 10
142.7092418621
 20
697.0254949944
 40
1.8
100
AcDbArc
 50
0.0
 51
57.1401196212
  0
ARC
  5
451
100
AcDbEntity
  8
6_ALL_SURFS
100
AcDbCircle
 62
7
  6
CONTINUOUS
 10
142.2592418621
 20
698.9179944454
 40
1.5
100
AcDbArc
 50
137.0
 51
180.0
  0
ARC
  5
452
100
AcDbEntity
  8
7_ALL_FEATURES
100
AcDbCircle
 62
7
  6
CONTINUOUS
 10
143.7944146594
 20
698.7054949944
 40
1.0
100
AcDbArc
 50
137.0
 51
237.140119621
  0
ARC
  5
453
100
AcDbEntity
  8
7_ALL_FEATURES
100
AcDbCircle
 62
7
  6
CONTINUOUS
 10
142.7092418621
 20
697.0254949944
 40
1.0
100
AcDbArc
 50
0.0
 51
57.1401196213
  0
ARC
  5
454
100
AcDbEntity
  8
6_ALL_SURFS
100
AcDbCircle
 62
7
  6
CONTINUOUS
 10
138.4592418621
 20
696.3054949944
 40
0.5
100
AcDbArc
 50
53.1301023542
 51
126.8698976458
  0
ARC
  5
455
100
AcDbEntity
  8
6_ALL_SURFS
100
AcDbCircle
 62
7
  6
CONTINUOUS
 10
135.4592418621
 20
696.3054949944
 40
0.5
100
AcDbArc
 50
53.1301023542
 51
126.8698976458
  0
ARC
  5
456
100
AcDbEntity
  8
7_ALL_FEATURES
100
AcDbCircle
 62
7
  6
CONTINUOUS
 10
143.7200302517
 20
699.5054949944
 40
0.4
100
AcDbArc
 50
317.0
 51
136.9999999971
  0
ARC
  5
457
100
AcDbEntity
  8
6_ALL_SURFS
100
AcDbCircle
 62
7
  6
CONTINUOUS
 10
140.4592418621
 20
698.0054949944
 40
0.3
100
AcDbArc
 50
270.0
 51
360.0
  0
ARC
  5
458
100
AcDbEntity
  8
6_ALL_SURFS
100
AcDbCircle
 62
7
  6
CONTINUOUS
 10
140.7092418621
 20
696.4054949944
 40
0.3
100
AcDbArc
 50
0.0
 51
90.0
  0
ARC
  5
459
100
AcDbEntity
  8
6_ALL_SURFS
100
AcDbCircle
 62
7
  6
CONTINUOUS
 10
144.2896855746
 20
700.6554949944
 40
0.3
100
AcDbArc
 50
90.0
 51
137.0
  0
ARC
  5
45A
100
AcDbEntity
  8
6_ALL_SURFS
100
AcDbCircle
 62
7
  6
CONTINUOUS
 10
142.5592418621
 20
698.7998213027
 40
0.3
100
AcDbArc
 50
137.0
 51
180.0
  0
ARC
  5
45B
100
AcDbEntity
  8
6_ALL_SURFS
100
AcDbCircle
 62
7
  6
CONTINUOUS
 10
142.5592418621
 20
698.0054949944
 40
0.3
100
AcDbArc
 50
180.0
 51
270.0
  0
ARC
  5
45C
100
AcDbEntity
  8
6_ALL_SURFS
100
AcDbCircle
 62
7
  6
CONTINUOUS
 10
142.5592418621
 20
695.9054949944
 40
0.3
100
AcDbArc
 50
90.0
 51
180.0
  0
ARC
  5
45D
100
AcDbEntity
  8
6_ALL_SURFS
100
AcDbCircle
 62
7
  6
CONTINUOUS
 10
145.1092418621
 20
701.2554949944
 40
0.3
100
AcDbArc
 50
270.0
 51
360.0
  0
ARC
  5
45E
100
AcDbEntity
  8
6_ALL_SURFS
100
AcDbCircle
 62
7
  6
CONTINUOUS
 10
143.2092418621
 20
697.3806965936
 40
0.3
100
AcDbArc
 50
0.0
 51
28.0
  0
ARC
  5
45F
100
AcDbEntity
  8
6_ALL_SURFS
100
AcDbCircle
 62
7
  6
CONTINUOUS
 10
143.2092418621
 20
696.5054949944
 40
0.3
100
AcDbArc
 50
270.0
 51
360.0
  0
ARC
  5
460
100
AcDbEntity
  8
6_ALL_SURFS
100
AcDbCircle
 62
7
  6
CONTINUOUS
 10
141.9592418621
 20
695.5054949944
 40
0.3
100
AcDbArc
 50
270.0
 51
360.0
  0
ARC
  5
461
100
AcDbEntity
  8
6_ALL_SURFS
100
AcDbCircle
 62
7
  6
CONTINUOUS
 10
141.3092418621
 20
695.5054949944
 40
0.3
100
AcDbArc
 50
180.0
 51
270.0
  0
ARC
  5
462
100
AcDbEntity
  8
7_ALL_FEATURES
100
AcDbCircle
 62
7
  6
CONTINUOUS
 10
144.7092418621
 20
696.5054949944
 40
0.2
100
AcDbArc
 50
180.0
 51
270.0
  0
ARC
  5
463
100
AcDbEntity
  8
7_ALL_FEATURES
100
AcDbCircle
 62
7
  6
CONTINUOUS
 10
143.7944146594
 20
698.7054949944
 40
0.2
100
AcDbArc
 50
136.9999999886
 51
237.1401196205
  0
ARC
  5
464
100
AcDbEntity
  8
7_ALL_FEATURES
100
AcDbCircle
 62
7
  6
CONTINUOUS
 10
143.5092418621
 20
696.4054949944
 40
0.2
100
AcDbArc
 50
270.0
 51
360.0
  0
ARC
  5
465
100
AcDbEntity
  8
7_ALL_FEATURES
100
AcDbCircle
 62
7
  6
CONTINUOUS
 10
142.6592418621
 20
695.4054949944
 40
0.2
100
AcDbArc
 50
180.0
 51
270.0
  0
ARC
  5
466
100
AcDbEntity
  8
6_ALL_SURFS
100
AcDbCircle
 62
7
  6
CONTINUOUS
 10
142.6092418621
 20
705.3054949944
 40
2.0
100
AcDbArc
 50
180.0
 51
270.0
  0
ARC
  5
467
100
AcDbEntity
  8
6_ALL_SURFS
100
AcDbCircle
 62
7
  6
CONTINUOUS
 10
142.6092418621
 20
707.1054949944
 40
2.0
100
AcDbArc
 50
90.0
 51
180.0
  0
ARC
  5
468
100
AcDbEntity
  8
6_ALL_SURFS
100
AcDbCircle
 62
7
  6
CONTINUOUS
 10
143.5092418621
 20
706.2054949944
 40
1.3
100
AcDbArc
 50
40.8069228745
 51
319.1930771255
  0
ARC
  5
469
100
AcDbEntity
  8
6_ALL_SURFS
100
AcDbCircle
 62
7
  6
CONTINUOUS
 10
143.1592418621
 20
702.8156846557
 40
0.5
100
AcDbArc
 50
317.0
 51
360.0
  0
ARC
  5
46A
100
AcDbEntity
  8
6_ALL_SURFS
100
AcDbCircle
 62
7
  6
CONTINUOUS
 10
143.5092418621
 20
709.4054949944
 40
0.3
100
AcDbArc
 50
270.0
 51
360.0
  0
ARC
  5
46B
100
AcDbEntity
  8
6_ALL_SURFS
100
AcDbCircle
 62
7
  6
CONTINUOUS
 10
143.3592418621
 20
703.0054949944
 40
0.3
100
AcDbArc
 50
0.0
 51
90.0
  0
ARC
  5
46C
100
AcDbEntity
  8
6_ALL_SURFS
100
AcDbCircle
 62
7
  6
CONTINUOUS
 10
145.1092418621
 20
707.4756655867
 40
0.3
100
AcDbArc
 50
300.0
 51
360.0
  0
ARC
  5
46D
100
AcDbEntity
  8
6_ALL_SURFS
100
AcDbCircle
 62
7
  6
CONTINUOUS
 10
144.720307621
 20
707.2511142978
 40
0.3
100
AcDbArc
 50
220.8069228763
 51
300.0
  0
ARC
  5
46E
100
AcDbEntity
  8
6_ALL_SURFS
100
AcDbCircle
 62
7
  6
CONTINUOUS
 10
144.720307621
 20
705.159875691
 40
0.3
100
AcDbArc
 50
60.0
 51
139.1930771237
  0
ARC
  5
46F
100
AcDbEntity
  8
6_ALL_SURFS
100
AcDbCircle
 62
7
  6
CONTINUOUS
 10
145.1092418621
 20
704.9353244022
 40
0.3
100
AcDbArc
 50
0.0
 51
60.0
  0
ARC
  5
470
100
AcDbEntity
  8
6_ALL_SURFS
100
AcDbCircle
 62
7
  6
CONTINUOUS
 10
148.8092418621
 20
754.1510089237
 40
5.0
100
AcDbArc
 50
167.5
 51
180.0
  0
ARC
  5
471
100
AcDbEntity
  8
6_ALL_SURFS
100
AcDbCircle
 62
7
  6
CONTINUOUS
 10
149.8092418621
 20
771.8054949944
 40
2.8
100
AcDbArc
 50
153.152786674
 51
218.978760326
  0
ARC
  5
472
100
AcDbEntity
  8
6_ALL_SURFS
100
AcDbCircle
 62
7
  6
CONTINUOUS
 10
149.8092418621
 20
771.8054949944
 40
2.8
100
AcDbArc
 50
330.0
 51
360.0
  0
ARC
  5
473
100
AcDbEntity
  8
6_ALL_SURFS
100
AcDbCircle
 62
7
  6
CONTINUOUS
 10
160.0092418621
 20
773.2054949944
 40
1.8
100
AcDbArc
 50
90.0
 51
180.0
  0
ARC
  5
474
100
AcDbEntity
  8
6_ALL_SURFS
100
AcDbCircle
 62
7
  6
CONTINUOUS
 10
149.8092418621
 20
771.8054949944
 40
1.3
100
AcDbArc
 50
130.8069228745
 51
49.1930771255
  0
ARC
  5
475
100
AcDbEntity
  8
6_ALL_SURFS
100
AcDbCircle
 62
7
  6
CONTINUOUS
 10
149.2118267138
 20
767.0554949944
 40
1.0
100
AcDbArc
 50
90.0
 51
167.5
  0
ARC
  5
476
100
AcDbEntity
  8
6_ALL_SURFS
100
AcDbCircle
 62
7
  6
CONTINUOUS
 10
146.4092418621
 20
752.673303793
 40
1.0
100
AcDbArc
 50
160.0
 51
180.0
  0
ARC
  5
477
100
AcDbEntity
  8
6_ALL_SURFS
100
AcDbCircle
 62
7
  6
CONTINUOUS
 10
147.9306921805
 20
768.6690326654
 40
1.0
100
AcDbArc
 50
114.1239615962
 51
167.5
  0
ARC
  5
478
100
AcDbEntity
  8
6_ALL_SURFS
100
AcDbCircle
 62
7
  6
CONTINUOUS
 10
152.6671256946
 20
770.1554949944
 40
0.5
100
AcDbArc
 50
150.0
 51
270.0
  0
ARC
  5
479
100
AcDbEntity
  8
6_ALL_SURFS
100
AcDbCircle
 62
7
  6
CONTINUOUS
 10
146.3092418621
 20
774.0054949944
 40
0.5
100
AcDbArc
 50
180.0
 51
270.0
  0
ARC
  5
47A
100
AcDbEntity
  8
6_ALL_SURFS
100
AcDbCircle
 62
7
  6
CONTINUOUS
 10
160.4092418621
 20
773.1054949944
 40
0.3
100
AcDbArc
 50
90.0
 51
180.0
  0
ARC
  5
47B
100
AcDbEntity
  8
6_ALL_SURFS
100
AcDbCircle
 62
7
  6
CONTINUOUS
 10
157.9092418621
 20
769.9554949944
 40
0.3
100
AcDbArc
 50
270.0
 51
360.0
  0
ARC
  5
47C
100
AcDbEntity
  8
6_ALL_SURFS
100
AcDbCircle
 62
7
  6
CONTINUOUS
 10
147.3993663467
 20
769.8554949944
 40
0.3
100
AcDbArc
 50
294.123961591
 51
38.978760326
  0
ARC
  5
47D
100
AcDbEntity
  8
6_ALL_SURFS
100
AcDbCircle
 62
7
  6
CONTINUOUS
 10
147.043378525
 20
773.2054949944
 40
0.3
100
AcDbArc
 50
333.152786674
 51
90.0
  0
ARC
  5
47E
100
AcDbEntity
  8
6_ALL_SURFS
100
AcDbCircle
 62
7
  6
CONTINUOUS
 10
145.7489061195
 20
754.6694280427
 40
0.3
100
AcDbArc
 50
167.5
 51
239.0362434679
  0
ARC
  5
47F
100
AcDbEntity
  8
6_ALL_SURFS
100
AcDbCircle
 62
7
  6
CONTINUOUS
 10
159.8092418621
 20
768.3554949944
 40
0.3
100
AcDbArc
 50
270.0
 51
360.0
  0
ARC
  5
480
100
AcDbEntity
  8
6_ALL_SURFS
100
AcDbCircle
 62
7
  6
CONTINUOUS
 10
145.5426976618
 20
754.0934388899
 40
0.3
100
AcDbArc
 50
340.0
 51
59.0362434679
  0
ARC
  5
481
100
AcDbEntity
  8
6_ALL_SURFS
100
AcDbCircle
 62
7
  6
CONTINUOUS
 10
146.1092418621
 20
774.7054949944
 40
0.3
100
AcDbArc
 50
90.0
 51
180.0
  0
ARC
  5
482
100
AcDbEntity
  8
6_ALL_SURFS
100
AcDbCircle
 62
7
  6
CONTINUOUS
 10
147.78851592
 20
774.7054949944
 40
0.3
100
AcDbArc
 50
30.0
 51
90.0
  0
ARC
  5
483
100
AcDbEntity
  8
6_ALL_SURFS
100
AcDbCircle
 62
7
  6
CONTINUOUS
 10
148.7636225587
 20
773.0165607533
 40
0.3
100
AcDbArc
 50
310.8069228763
 51
30.0
  0
ARC
  5
484
100
AcDbEntity
  8
6_ALL_SURFS
100
AcDbCircle
 62
7
  6
CONTINUOUS
 10
150.8548611655
 20
773.0165607533
 40
0.3
100
AcDbArc
 50
150.0
 51
229.1930771237
  0
ARC
  5
485
100
AcDbEntity
  8
6_ALL_SURFS
100
AcDbCircle
 62
7
  6
CONTINUOUS
 10
151.8299678043
 20
774.7054949944
 40
0.3
100
AcDbArc
 50
90.0
 51
150.0
  0
ARC
  5
486
100
AcDbEntity
  8
6_ALL_SURFS
100
AcDbCircle
 62
7
  6
CONTINUOUS
 10
152.3092418621
 20
774.7054949944
 40
0.3
100
AcDbArc
 50
0.0
 51
90.0
  0
ARC
  5
487
100
AcDbEntity
  8
7_ALL_FEATURES
100
AcDbCircle
 62
7
  6
CONTINUOUS
 10
180.9092418621
 20
697.0254949944
 40
1.8
100
AcDbArc
 50
122.8598803788
 51
180.0
  0
ARC
  5
488
100
AcDbEntity
  8
7_ALL_FEATURES
100
AcDbCircle
 62
7
  6
CONTINUOUS
 10
181.3592418621
 20
698.9179944454
 40
1.5
100
AcDbArc
 50
0.0
 51
43.0
  0
ARC
  5
489
100
AcDbEntity
  8
7_ALL_FEATURES
100
AcDbCircle
 62
7
  6
CONTINUOUS
 10
180.9092418621
 20
697.0254949944
 40
1.0
100
AcDbArc
 50
122.8598803789
 51
180.0
  0
ARC
  5
48A
100
AcDbEntity
  8
7_ALL_FEATURES
100
AcDbCircle
 62
7
  6
CONTINUOUS
 10
179.8240690648
 20
698.7054949944
 40
1.0
100
AcDbArc
 50
302.8598803789
 51
43.0
  0
ARC
  5
48B
100
AcDbEntity
  8
3_ALL_AXES
100
AcDbCircle
 62
7
  6
CONTINUOUS
 10
188.1592418621
 20
696.3054949944
 40
0.5
100
AcDbArc
 50
53.1301023542
 51
126.8698976458
  0
ARC
  5
48C
100
AcDbEntity
  8
3_ALL_AXES
100
AcDbCircle
 62
7
  6
CONTINUOUS
 10
185.1592418621
 20
696.3054949944
 40
0.5
100
AcDbArc
 50
53.1301023542
 51
126.8698976458
  0
ARC
  5
48D
100
AcDbEntity
  8
7_ALL_FEATURES
100
AcDbCircle
 62
7
  6
CONTINUOUS
 10
179.8984534726
 20
699.5054949944
 40
0.4
100
AcDbArc
 50
42.9999999998
 51
223.0000000002
  0
ARC
  5
48E
100
AcDbEntity
  8
7_ALL_FEATURES
100
AcDbCircle
 62
7
  6
CONTINUOUS
 10
182.3092418621
 20
695.5054949944
 40
0.3
100
AcDbArc
 50
270.0
 51
360.0
  0
ARC
  5
48F
100
AcDbEntity
  8
7_ALL_FEATURES
100
AcDbCircle
 62
7
  6
CONTINUOUS
 10
181.6592418621
 20
695.5054949944
 40
0.3
100
AcDbArc
 50
180.0
 51
270.0
  0
ARC
  5
490
100
AcDbEntity
  8
7_ALL_FEATURES
100
AcDbCircle
 62
7
  6
CONTINUOUS
 10
180.4092418621
 20
696.5054949944
 40
0.3
100
AcDbArc
 50
180.0
 51
270.0
  0
ARC
  5
491
100
AcDbEntity
  8
7_ALL_FEATURES
100
AcDbCircle
 62
7
  6
CONTINUOUS
 10
180.4092418621
 20
697.3806965936
 40
0.3
100
AcDbArc
 50
152.0
 51
180.0
  0
ARC
  5
492
100
AcDbEntity
  8
7_ALL_FEATURES
100
AcDbCircle
 62
7
  6
CONTINUOUS
 10
178.5092418621
 20
701.2554949944
 40
0.3
100
AcDbArc
 50
180.0
 51
270.0
  0
ARC
  5
493
100
AcDbEntity
  8
7_ALL_FEATURES
100
AcDbCircle
 62
7
  6
CONTINUOUS
 10
183.1592418621
 20
698.0054949944
 40
0.3
100
AcDbArc
 50
180.0
 51
270.0
  0
ARC
  5
494
100
AcDbEntity
  8
7_ALL_FEATURES
100
AcDbCircle
 62
7
  6
CONTINUOUS
 10
182.9092418621
 20
696.4054949944
 40
0.3
100
AcDbArc
 50
90.0
 51
180.0
  0
ARC
  5
495
100
AcDbEntity
  8
7_ALL_FEATURES
100
AcDbCircle
 62
7
  6
CONTINUOUS
 10
179.3287981497
 20
700.6554949944
 40
0.3
100
AcDbArc
 50
43.0
 51
90.0
  0
ARC
  5
496
100
AcDbEntity
  8
7_ALL_FEATURES
100
AcDbCircle
 62
7
  6
CONTINUOUS
 10
181.0592418621
 20
698.7998213027
 40
0.3
100
AcDbArc
 50
0.0
 51
43.0
  0
ARC
  5
497
100
AcDbEntity
  8
7_ALL_FEATURES
100
AcDbCircle
 62
7
  6
CONTINUOUS
 10
181.0592418621
 20
698.0054949944
 40
0.3
100
AcDbArc
 50
270.0
 51
360.0
  0
ARC
  5
498
100
AcDbEntity
  8
7_ALL_FEATURES
100
AcDbCircle
 62
7
  6
CONTINUOUS
 10
181.0592418621
 20
695.9054949944
 40
0.3
100
AcDbArc
 50
0.0
 51
90.0
  0
ARC
  5
499
100
AcDbEntity
  8
7_ALL_FEATURES
100
AcDbCircle
 62
7
  6
CONTINUOUS
 10
180.9592418621
 20
695.4054949944
 40
0.2
100
AcDbArc
 50
270.0
 51
360.0
  0
ARC
  5
49A
100
AcDbEntity
  8
7_ALL_FEATURES
100
AcDbCircle
 62
7
  6
CONTINUOUS
 10
180.9592418621
 20
696.0054949944
 40
0.2
100
AcDbArc
 50
0.0
 51
90.0
  0
ARC
  5
49B
100
AcDbEntity
  8
7_ALL_FEATURES
100
AcDbCircle
 62
7
  6
CONTINUOUS
 10
180.1092418621
 20
696.4054949944
 40
0.2
100
AcDbArc
 50
180.0
 51
270.0
  0
ARC
  5
49C
100
AcDbEntity
  8
7_ALL_FEATURES
100
AcDbCircle
 62
7
  6
CONTINUOUS
 10
179.8240690648
 20
698.7054949944
 40
0.2
100
AcDbArc
 50
302.8598803795
 51
43.0000000114
  0
ARC
  5
49D
100
AcDbEntity
  8
7_ALL_FEATURES
100
AcDbCircle
 62
7
  6
CONTINUOUS
 10
178.9092418621
 20
696.5054949944
 40
0.2
100
AcDbArc
 50
270.0
 51
360.0
  0
ARC
  5
49E
100
AcDbEntity
  8
7_ALL_FEATURES
100
AcDbCircle
 62
7
  6
CONTINUOUS
 10
181.0092418621
 20
707.1054949944
 40
2.0
100
AcDbArc
 50
0.0
 51
90.0
  0
ARC
  5
49F
100
AcDbEntity
  8
7_ALL_FEATURES
100
AcDbCircle
 62
7
  6
CONTINUOUS
 10
181.0092418621
 20
705.3054949944
 40
2.0
100
AcDbArc
 50
270.0
 51
360.0
  0
ARC
  5
4A0
100
AcDbEntity
  8
7_ALL_FEATURES
100
AcDbCircle
 62
7
  6
CONTINUOUS
 10
180.1092418621
 20
706.2054949944
 40
1.3
100
AcDbArc
 50
220.8069228745
 51
139.1930771255
  0
ARC
  5
4A1
100
AcDbEntity
  8
5_ALL_CURVES
100
AcDbCircle
 62
40
  6
CONTINUOUS
 10
180.1092418621
 20
706.2054949944
 40
1.3
100
AcDbArc
 50
139.1093574421
 51
220.8125035721
  0
ARC
  5
4A2
100
AcDbEntity
  8
7_ALL_FEATURES
100
AcDbCircle
 62
7
  6
CONTINUOUS
 10
180.4592418621
 20
702.8156846557
 40
0.5
100
AcDbArc
 50
180.0
 51
223.0
  0
ARC
  5
4A3
100
AcDbEntity
  8
7_ALL_FEATURES
100
AcDbCircle
 62
7
  6
CONTINUOUS
 10
178.5092418621
 20
704.9353244022
 40
0.3
100
AcDbArc
 50
120.0
 51
180.0
  0
ARC
  5
4A4
100
AcDbEntity
  8
7_ALL_FEATURES
100
AcDbCircle
 62
7
  6
CONTINUOUS
 10
178.8981761033
 20
705.159875691
 40
0.3
100
AcDbArc
 50
40.8069228763
 51
120.0
  0
ARC
  5
4A5
100
AcDbEntity
  8
7_ALL_FEATURES
100
AcDbCircle
 62
7
  6
CONTINUOUS
 10
178.8981761033
 20
707.2511142978
 40
0.3
100
AcDbArc
 50
240.0
 51
319.1930771237
  0
ARC
  5
4A6
100
AcDbEntity
  8
7_ALL_FEATURES
100
AcDbCircle
 62
7
  6
CONTINUOUS
 10
178.5092418621
 20
707.4756655867
 40
0.3
100
AcDbArc
 50
180.0
 51
240.0
  0
ARC
  5
4A7
100
AcDbEntity
  8
7_ALL_FEATURES
100
AcDbCircle
 62
7
  6
CONTINUOUS
 10
180.1092418621
 20
709.4054949944
 40
0.3
100
AcDbArc
 50
180.0
 51
270.0
  0
ARC
  5
4A8
100
AcDbEntity
  8
7_ALL_FEATURES
100
AcDbCircle
 62
7
  6
CONTINUOUS
 10
180.2592418621
 20
703.0054949944
 40
0.3
100
AcDbArc
 50
90.0
 51
180.0
  0
ARC
  5
4A9
100
AcDbEntity
  8
3_ALL_AXES
100
AcDbCircle
 62
7
  6
CONTINUOUS
 10
197.1592418621
 20
696.3054949944
 40
0.5
100
AcDbArc
 50
53.1301023542
 51
126.8698976458
  0
ARC
  5
4AA
100
AcDbEntity
  8
3_ALL_AXES
100
AcDbCircle
 62
7
  6
CONTINUOUS
 10
194.1592418621
 20
696.3054949944
 40
0.5
100
AcDbArc
 50
53.1301023542
 51
126.8698976458
  0
ARC
  5
4AB
100
AcDbEntity
  8
3_ALL_AXES
100
AcDbCircle
 62
7
  6
CONTINUOUS
 10
191.1592418621
 20
696.3054949944
 40
0.5
100
AcDbArc
 50
53.1301023542
 51
126.8698976458
  0
ARC
  5
4AC
100
AcDbEntity
  8
7_ALL_FEATURES
100
AcDbCircle
 62
7
  6
CONTINUOUS
 10
202.4655385042
 20
697.3117916365
 40
0.3937033579
100
AcDbArc
 50
275.7105931375
 51
90.0
  0
ARC
  5
4AD
100
AcDbEntity
  8
7_ALL_FEATURES
100
AcDbCircle
 62
7
  6
CONTINUOUS
 10
161.8092418621
 20
771.9554949944
 40
8.0
100
AcDbArc
 50
284.4775121859
 51
300.0
  0
ARC
  5
4AE
100
AcDbEntity
  8
7_ALL_FEATURES
100
AcDbCircle
 62
7
  6
CONTINUOUS
 10
161.8092418621
 20
771.9554949944
 40
8.0
100
AcDbArc
 50
240.0
 51
255.5224878141
  0
ARC
  5
4AF
100
AcDbEntity
  8
7_ALL_FEATURES
100
AcDbCircle
 62
7
  6
CONTINUOUS
 10
161.8092418621
 20
771.9554949944
 40
7.9843597113
100
AcDbArc
 50
255.4935070353
 51
266.4096498625
  0
ARC
  5
4B0
100
AcDbEntity
  8
7_ALL_FEATURES
100
AcDbCircle
 62
7
  6
CONTINUOUS
 10
161.8092418621
 20
771.9554949944
 40
7.9843597113
100
AcDbArc
 50
273.5903501375
 51
284.5064929647
  0
ARC
  5
4B1
100
AcDbEntity
  8
7_ALL_FEATURES
100
AcDbCircle
 62
7
  6
CONTINUOUS
 10
161.8092418621
 20
771.9554949944
 40
7.7459666924
100
AcDbArc
 50
266.2990001561
 51
273.7009998439
  0
ARC
  5
4B2
100
AcDbEntity
  8
7_ALL_FEATURES
100
AcDbCircle
 62
7
  6
CONTINUOUS
 10
174.8092418621
 20
754.1510089237
 40
5.0
100
AcDbArc
 50
0.0
 51
12.5
  0
ARC
  5
4B3
100
AcDbEntity
  8
7_ALL_FEATURES
100
AcDbCircle
 62
7
  6
CONTINUOUS
 10
173.8092418621
 20
771.8054949944
 40
2.8
100
AcDbArc
 50
180.0
 51
210.0
  0
ARC
  5
4B4
100
AcDbEntity
  8
7_ALL_FEATURES
100
AcDbCircle
 62
7
  6
CONTINUOUS
 10
173.8092418621
 20
771.8054949944
 40
2.8
100
AcDbArc
 50
321.021239674
 51
26.847213326
  0
ARC
  5
4B5
100
AcDbEntity
  8
7_ALL_FEATURES
100
AcDbCircle
 62
7
  6
CONTINUOUS
 10
163.6092418621
 20
773.2054949944
 40
1.8
100
AcDbArc
 50
0.0
 51
90.0
  0
ARC
  5
4B6
100
AcDbEntity
  8
7_ALL_FEATURES
100
AcDbCircle
 62
7
  6
CONTINUOUS
 10
173.8092418621
 20
771.8054949944
 40
1.3
100
AcDbArc
 50
130.8069228745
 51
49.1930771255
  0
ARC
  5
4B7
100
AcDbEntity
  8
5_ALL_CURVES
100
AcDbCircle
 62
40
  6
CONTINUOUS
 10
173.8092418621
 20
771.8054949944
 40
1.3
100
AcDbArc
 50
49.109357442
 51
60.0
  0
ARC
  5
4B8
100
AcDbEntity
  8
5_ALL_CURVES
100
AcDbCircle
 62
40
  6
CONTINUOUS
 10
173.8092418621
 20
771.8054949944
 40
1.3
100
AcDbArc
 50
120.0
 51
122.6785714286
  0
ARC
  5
4B9
100
AcDbEntity
  8
7_ALL_FEATURES
100
AcDbCircle
 62
7
  6
CONTINUOUS
 10
175.6877915438
 20
768.6690326654
 40
1.0
100
AcDbArc
 50
12.5
 51
65.8760384038
  0
ARC
  5
4BA
100
AcDbEntity
  8
7_ALL_FEATURES
100
AcDbCircle
 62
7
  6
CONTINUOUS
 10
177.2092418621
 20
752.673303793
 40
1.0
100
AcDbArc
 50
0.0
 51
20.0
  0
ARC
  5
4BB
100
AcDbEntity
  8
7_ALL_FEATURES
100
AcDbCircle
 62
7
  6
CONTINUOUS
 10
174.4066570105
 20
767.0554949944
 40
1.0
100
AcDbArc
 50
12.5
 51
90.0
  0
ARC
  5
4BC
100
AcDbEntity
  8
7_ALL_FEATURES
100
AcDbCircle
 62
7
  6
CONTINUOUS
 10
177.3092418621
 20
774.0054949944
 40
0.5
100
AcDbArc
 50
270.0
 51
360.0
  0
ARC
  5
4BD
100
AcDbEntity
  8
7_ALL_FEATURES
100
AcDbCircle
 62
7
  6
CONTINUOUS
 10
170.9513580296
 20
770.1554949944
 40
0.5
100
AcDbArc
 50
270.0
 51
30.0
  0
ARC
  5
4BE
100
AcDbEntity
  8
7_ALL_FEATURES
100
AcDbCircle
 62
7
  6
CONTINUOUS
 10
171.3092418621
 20
774.7054949944
 40
0.3
100
AcDbArc
 50
90.0
 51
180.0
  0
ARC
  5
4BF
100
AcDbEntity
  8
7_ALL_FEATURES
100
AcDbCircle
 62
7
  6
CONTINUOUS
 10
171.78851592
 20
774.7054949944
 40
0.3
100
AcDbArc
 50
30.0
 51
90.0
  0
ARC
  5
4C0
100
AcDbEntity
  8
7_ALL_FEATURES
100
AcDbCircle
 62
7
  6
CONTINUOUS
 10
172.7636225587
 20
773.0165607533
 40
0.3
100
AcDbArc
 50
310.8069228763
 51
30.0
  0
ARC
  5
4C1
100
AcDbEntity
  8
7_ALL_FEATURES
100
AcDbCircle
 62
7
  6
CONTINUOUS
 10
174.8548611655
 20
773.0165607533
 40
0.3
100
AcDbArc
 50
150.0
 51
229.1930771237
  0
ARC
  5
4C2
100
AcDbEntity
  8
7_ALL_FEATURES
100
AcDbCircle
 62
7
  6
CONTINUOUS
 10
175.8299678043
 20
774.7054949944
 40
0.3
100
AcDbArc
 50
90.0
 51
150.0
  0
ARC
  5
4C3
100
AcDbEntity
  8
7_ALL_FEATURES
100
AcDbCircle
 62
7
  6
CONTINUOUS
 10
177.5092418621
 20
774.7054949944
 40
0.3
100
AcDbArc
 50
0.0
 51
90.0
  0
ARC
  5
4C4
100
AcDbEntity
  8
7_ALL_FEATURES
100
AcDbCircle
 62
7
  6
CONTINUOUS
 10
178.0757860624
 20
754.0934388899
 40
0.3
100
AcDbArc
 50
120.9637565321
 51
200.0
  0
ARC
  5
4C5
100
AcDbEntity
  8
7_ALL_FEATURES
100
AcDbCircle
 62
7
  6
CONTINUOUS
 10
163.8092418621
 20
768.3554949944
 40
0.3
100
AcDbArc
 50
180.0
 51
270.0
  0
ARC
  5
4C6
100
AcDbEntity
  8
7_ALL_FEATURES
100
AcDbCircle
 62
7
  6
CONTINUOUS
 10
163.2092418621
 20
773.1054949944
 40
0.3
100
AcDbArc
 50
0.0
 51
90.0
  0
ARC
  5
4C7
100
AcDbEntity
  8
7_ALL_FEATURES
100
AcDbCircle
 62
7
  6
CONTINUOUS
 10
165.7092418621
 20
769.9554949944
 40
0.3
100
AcDbArc
 50
180.0
 51
270.0
  0
ARC
  5
4C8
100
AcDbEntity
  8
7_ALL_FEATURES
100
AcDbCircle
 62
7
  6
CONTINUOUS
 10
176.2191173776
 20
769.8554949944
 40
0.3
100
AcDbArc
 50
141.021239674
 51
245.876038409
  0
ARC
  5
4C9
100
AcDbEntity
  8
7_ALL_FEATURES
100
AcDbCircle
 62
7
  6
CONTINUOUS
 10
176.5751051993
 20
773.2054949944
 40
0.3
100
AcDbArc
 50
90.0
 51
206.847213326
  0
ARC
  5
4CA
100
AcDbEntity
  8
7_ALL_FEATURES
100
AcDbCircle
 62
7
  6
CONTINUOUS
 10
177.8695776048
 20
754.6694280427
 40
0.3
100
AcDbArc
 50
300.9637565321
 51
12.5
  0
ARC
  5
4CB
100
AcDbEntity
  8
7_ALL_FEATURES
100
AcDbCircle
 62
7
  6
CONTINUOUS
 10
452.1134593993
 20
1030.2455412302
 40
4.7990381057
100
AcDbArc
 50
149.9933694481
 51
180.0
  0
ARC
  5
4CC
100
AcDbEntity
  8
7_ALL_FEATURES
100
AcDbCircle
 62
7
  6
CONTINUOUS
 10
702.1134593993
 20
1030.2455412302
 40
4.7990381057
100
AcDbArc
 50
149.9933694481
 51
180.0
  0
ARC
  5
4CD
100
AcDbEntity
  8
7_ALL_FEATURES
100
AcDbCircle
 62
7
  6
CONTINUOUS
 10
452.1134593993
 20
1030.2455412302
 40
4.7990381057
100
AcDbArc
 50
0.0
 51
30.0066305519
  0
ARC
  5
4CE
100
AcDbEntity
  8
7_ALL_FEATURES
100
AcDbCircle
 62
7
  6
CONTINUOUS
 10
952.1134593993
 20
1030.2455412302
 40
4.7990381057
100
AcDbArc
 50
149.9933694481
 51
180.0
  0
ARC
  5
4CF
100
AcDbEntity
  8
7_ALL_FEATURES
100
AcDbCircle
 62
7
  6
CONTINUOUS
 10
702.1134593993
 20
1030.2455412302
 40
4.7990381057
100
AcDbArc
 50
0.0
 51
30.0066305519
  0
ARC
  5
4D0
100
AcDbEntity
  8
7_ALL_FEATURES
100
AcDbCircle
 62
7
  6
CONTINUOUS
 10
1202.1134593993
 20
1030.2455412302
 40
4.7990381057
100
AcDbArc
 50
149.9933694481
 51
180.0
  0
ARC
  5
4D1
100
AcDbEntity
  8
7_ALL_FEATURES
100
AcDbCircle
 62
7
  6
CONTINUOUS
 10
952.1134593993
 20
1030.2455412302
 40
4.7990381057
100
AcDbArc
 50
0.0
 51
30.0066305519
  0
ARC
  5
4D2
100
AcDbEntity
  8
7_ALL_FEATURES
100
AcDbCircle
 62
7
  6
CONTINUOUS
 10
1452.1134593993
 20
1030.2455412302
 40
4.7990381057
100
AcDbArc
 50
149.9933694481
 51
180.0
  0
ARC
  5
4D3
100
AcDbEntity
  8
7_ALL_FEATURES
100
AcDbCircle
 62
7
  6
CONTINUOUS
 10
1202.1134593993
 20
1030.2455412302
 40
4.7990381057
100
AcDbArc
 50
0.0
 51
30.0066305519
  0
ARC
  5
4D4
100
AcDbEntity
  8
7_ALL_FEATURES
100
AcDbCircle
 62
7
  6
CONTINUOUS
 10
1452.1134593993
 20
1030.2455412302
 40
4.7990381057
100
AcDbArc
 50
0.0
 51
30.0066305519
  0
ARC
  5
4D5
100
AcDbEntity
  8
7_ALL_FEATURES
100
AcDbCircle
 62
7
  6
CONTINUOUS
 10
452.1134593993
 20
1030.2455412302
 40
4.7990381057
100
AcDbArc
 50
187.1822026405
 51
226.828815981
  0
ARC
  5
4D6
100
AcDbEntity
  8
7_ALL_FEATURES
100
AcDbCircle
 62
7
  6
CONTINUOUS
 10
702.1134593993
 20
1030.2455412302
 40
4.7990381057
100
AcDbArc
 50
187.1822026405
 51
226.828815981
  0
ARC
  5
4D7
100
AcDbEntity
  8
7_ALL_FEATURES
100
AcDbCircle
 62
7
  6
CONTINUOUS
 10
452.1134593993
 20
1030.2455412302
 40
4.7990381057
100
AcDbArc
 50
313.171184019
 51
352.8177973595
  0
ARC
  5
4D8
100
AcDbEntity
  8
7_ALL_FEATURES
100
AcDbCircle
 62
7
  6
CONTINUOUS
 10
952.1134593993
 20
1030.2455412302
 40
4.7990381057
100
AcDbArc
 50
187.1822026405
 51
226.828815981
  0
ARC
  5
4D9
100
AcDbEntity
  8
7_ALL_FEATURES
100
AcDbCircle
 62
7
  6
CONTINUOUS
 10
702.1134593993
 20
1030.2455412302
 40
4.7990381057
100
AcDbArc
 50
313.171184019
 51
352.8177973595
  0
ARC
  5
4DA
100
AcDbEntity
  8
7_ALL_FEATURES
100
AcDbCircle
 62
7
  6
CONTINUOUS
 10
1202.1134593993
 20
1030.2455412302
 40
4.7990381057
100
AcDbArc
 50
187.1822026405
 51
226.828815981
  0
ARC
  5
4DB
100
AcDbEntity
  8
7_ALL_FEATURES
100
AcDbCircle
 62
7
  6
CONTINUOUS
 10
952.1134593993
 20
1030.2455412302
 40
4.7990381057
100
AcDbArc
 50
313.171184019
 51
352.8177973595
  0
ARC
  5
4DC
100
AcDbEntity
  8
7_ALL_FEATURES
100
AcDbCircle
 62
7
  6
CONTINUOUS
 10
1452.1134593993
 20
1030.2455412302
 40
4.7990381057
100
AcDbArc
 50
187.1822026405
 51
226.828815981
  0
ARC
  5
4DD
100
AcDbEntity
  8
7_ALL_FEATURES
100
AcDbCircle
 62
7
  6
CONTINUOUS
 10
1202.1134593993
 20
1030.2455412302
 40
4.7990381057
100
AcDbArc
 50
313.171184019
 51
352.8177973595
  0
ARC
  5
4DE
100
AcDbEntity
  8
7_ALL_FEATURES
100
AcDbCircle
 62
7
  6
CONTINUOUS
 10
1452.1134593993
 20
1030.2455412302
 40
4.7990381057
100
AcDbArc
 50
313.171184019
 51
352.8177973595
  0
ARC
  5
4DF
100
AcDbEntity
  8
7_ALL_FEATURES
100
AcDbCircle
 62
7
  6
CONTINUOUS
 10
1452.1134593993
 20
1030.2455412302
 40
4.7990381057
100
AcDbArc
 50
38.6913826582
 51
141.3086173418
  0
ARC
  5
4E0
100
AcDbEntity
  8
7_ALL_FEATURES
100
AcDbCircle
 62
7
  6
CONTINUOUS
 10
1202.1134593993
 20
1030.2455412302
 40
4.7990381057
100
AcDbArc
 50
38.6913826582
 51
141.3086173418
  0
ARC
  5
4E1
100
AcDbEntity
  8
7_ALL_FEATURES
100
AcDbCircle
 62
7
  6
CONTINUOUS
 10
952.1134593993
 20
1030.2455412302
 40
4.7990381057
100
AcDbArc
 50
38.6913826582
 51
141.3086173418
  0
ARC
  5
4E2
100
AcDbEntity
  8
7_ALL_FEATURES
100
AcDbCircle
 62
7
  6
CONTINUOUS
 10
702.1134593993
 20
1030.2455412302
 40
4.7990381057
100
AcDbArc
 50
38.6913826582
 51
141.3086173418
  0
ARC
  5
4E3
100
AcDbEntity
  8
7_ALL_FEATURES
100
AcDbCircle
 62
7
  6
CONTINUOUS
 10
452.1134593993
 20
1030.2455412302
 40
4.7990381057
100
AcDbArc
 50
38.6913826582
 51
141.3086173418
  0
CIRCLE
  5
4E4
100
AcDbEntity
  8
3_ALL_AXES
100
AcDbCircle
 62
2
  6
CONTINUOUS
 10
452.1134593993
 20
1030.2455412302
 40
4.7990381057
  0
CIRCLE
  5
4E5
100
AcDbEntity
  8
6_ALL_SURFS
100
AcDbCircle
 62
7
  6
CONTINUOUS
 10
1452.1134593993
 20
1030.2455412302
 40
3.5
  0
CIRCLE
  5
4E6
100
AcDbEntity
  8
6_ALL_SURFS
100
AcDbCircle
 62
7
  6
CONTINUOUS
 10
1202.1134593993
 20
1030.2455412302
 40
3.5
  0
CIRCLE
  5
4E7
100
AcDbEntity
  8
6_ALL_SURFS
100
AcDbCircle
 62
7
  6
CONTINUOUS
 10
952.1134593993
 20
1030.2455412302
 40
3.5
  0
CIRCLE
  5
4E8
100
AcDbEntity
  8
6_ALL_SURFS
100
AcDbCircle
 62
7
  6
CONTINUOUS
 10
702.1134593993
 20
1030.2455412302
 40
3.5
  0
CIRCLE
  5
4E9
100
AcDbEntity
  8
6_ALL_SURFS
100
AcDbCircle
 62
7
  6
CONTINUOUS
 10
452.1134593993
 20
1030.2455412302
 40
3.5
  0
CIRCLE
  5
4EA
100
AcDbEntity
  8
3_ALL_AXES
100
AcDbCircle
 62
6
  6
CONTINUOUS
 10
452.1134593993
 20
1030.2455412302
 40
3.5
  0
ARC
  5
4EB
100
AcDbEntity
  8
6_ALL_SURFS
100
AcDbCircle
 62
7
  6
CONTINUOUS
 10
1452.1134593993
 20
1100.3455412302
 40
4.7990381057
100
AcDbArc
 50
7.1822026405
 51
46.828815981
  0
ARC
  5
4EC
100
AcDbEntity
  8
6_ALL_SURFS
100
AcDbCircle
 62
7
  6
CONTINUOUS
 10
1202.1134593993
 20
1100.3455412302
 40
4.7990381057
100
AcDbArc
 50
7.1822026405
 51
46.828815981
  0
ARC
  5
4ED
100
AcDbEntity
  8
6_ALL_SURFS
100
AcDbCircle
 62
7
  6
CONTINUOUS
 10
1452.1134593993
 20
1100.3455412302
 40
4.7990381057
100
AcDbArc
 50
133.171184019
 51
172.8177973595
  0
ARC
  5
4EE
100
AcDbEntity
  8
6_ALL_SURFS
100
AcDbCircle
 62
7
  6
CONTINUOUS
 10
952.1134593993
 20
1100.3455412302
 40
4.7990381057
100
AcDbArc
 50
7.1822026405
 51
46.828815981
  0
ARC
  5
4EF
100
AcDbEntity
  8
6_ALL_SURFS
100
AcDbCircle
 62
7
  6
CONTINUOUS
 10
1202.1134593993
 20
1100.3455412302
 40
4.7990381057
100
AcDbArc
 50
133.171184019
 51
172.8177973595
  0
ARC
  5
4F0
100
AcDbEntity
  8
6_ALL_SURFS
100
AcDbCircle
 62
7
  6
CONTINUOUS
 10
702.1134593993
 20
1100.3455412302
 40
4.7990381057
100
AcDbArc
 50
7.1822026405
 51
46.828815981
  0
ARC
  5
4F1
100
AcDbEntity
  8
6_ALL_SURFS
100
AcDbCircle
 62
7
  6
CONTINUOUS
 10
952.1134593993
 20
1100.3455412302
 40
4.7990381057
100
AcDbArc
 50
133.171184019
 51
172.8177973595
  0
ARC
  5
4F2
100
AcDbEntity
  8
6_ALL_SURFS
100
AcDbCircle
 62
7
  6
CONTINUOUS
 10
452.1134593993
 20
1100.3455412302
 40
4.7990381057
100
AcDbArc
 50
7.1822026405
 51
46.828815981
  0
ARC
  5
4F3
100
AcDbEntity
  8
6_ALL_SURFS
100
AcDbCircle
 62
7
  6
CONTINUOUS
 10
702.1134593993
 20
1100.3455412302
 40
4.7990381057
100
AcDbArc
 50
133.171184019
 51
172.8177973595
  0
ARC
  5
4F4
100
AcDbEntity
  8
6_ALL_SURFS
100
AcDbCircle
 62
7
  6
CONTINUOUS
 10
452.1134593993
 20
1100.3455412302
 40
4.7990381057
100
AcDbArc
 50
133.171184019
 51
172.8177973595
  0
ARC
  5
4F5
100
AcDbEntity
  8
6_ALL_SURFS
100
AcDbCircle
 62
7
  6
CONTINUOUS
 10
1452.1134593993
 20
1100.3455412302
 40
4.7990381057
100
AcDbArc
 50
329.9933694481
 51
360.0
  0
ARC
  5
4F6
100
AcDbEntity
  8
6_ALL_SURFS
100
AcDbCircle
 62
7
  6
CONTINUOUS
 10
1202.1134593993
 20
1100.3455412302
 40
4.7990381057
100
AcDbArc
 50
329.9933694481
 51
360.0
  0
ARC
  5
4F7
100
AcDbEntity
  8
6_ALL_SURFS
100
AcDbCircle
 62
7
  6
CONTINUOUS
 10
1452.1134593993
 20
1100.3455412302
 40
4.7990381057
100
AcDbArc
 50
180.0
 51
210.0066305519
  0
ARC
  5
4F8
100
AcDbEntity
  8
6_ALL_SURFS
100
AcDbCircle
 62
7
  6
CONTINUOUS
 10
952.1134593993
 20
1100.3455412302
 40
4.7990381057
100
AcDbArc
 50
329.9933694481
 51
360.0
  0
ARC
  5
4F9
100
AcDbEntity
  8
6_ALL_SURFS
100
AcDbCircle
 62
7
  6
CONTINUOUS
 10
1202.1134593993
 20
1100.3455412302
 40
4.7990381057
100
AcDbArc
 50
180.0
 51
210.0066305519
  0
ARC
  5
4FA
100
AcDbEntity
  8
6_ALL_SURFS
100
AcDbCircle
 62
7
  6
CONTINUOUS
 10
702.1134593993
 20
1100.3455412302
 40
4.7990381057
100
AcDbArc
 50
329.9933694481
 51
360.0
  0
ARC
  5
4FB
100
AcDbEntity
  8
6_ALL_SURFS
100
AcDbCircle
 62
7
  6
CONTINUOUS
 10
952.1134593993
 20
1100.3455412302
 40
4.7990381057
100
AcDbArc
 50
180.0
 51
210.0066305519
  0
ARC
  5
4FC
100
AcDbEntity
  8
6_ALL_SURFS
100
AcDbCircle
 62
7
  6
CONTINUOUS
 10
452.1134593993
 20
1100.3455412302
 40
4.7990381057
100
AcDbArc
 50
329.9933694481
 51
360.0
  0
ARC
  5
4FD
100
AcDbEntity
  8
6_ALL_SURFS
100
AcDbCircle
 62
7
  6
CONTINUOUS
 10
702.1134593993
 20
1100.3455412302
 40
4.7990381057
100
AcDbArc
 50
180.0
 51
210.0066305519
  0
ARC
  5
4FE
100
AcDbEntity
  8
6_ALL_SURFS
100
AcDbCircle
 62
7
  6
CONTINUOUS
 10
452.1134593993
 20
1100.3455412302
 40
4.7990381057
100
AcDbArc
 50
180.0
 51
210.0066305519
  0
ARC
  5
4FF
100
AcDbEntity
  8
6_ALL_SURFS
100
AcDbCircle
 62
7
  6
CONTINUOUS
 10
1452.1134593993
 20
1100.3455412302
 40
4.7990381057
100
AcDbArc
 50
218.6913826582
 51
321.3086173418
  0
ARC
  5
500
100
AcDbEntity
  8
6_ALL_SURFS
100
AcDbCircle
 62
7
  6
CONTINUOUS
 10
1202.1134593993
 20
1100.3455412302
 40
4.7990381057
100
AcDbArc
 50
218.6913826582
 51
321.3086173418
  0
ARC
  5
501
100
AcDbEntity
  8
6_ALL_SURFS
100
AcDbCircle
 62
7
  6
CONTINUOUS
 10
952.1134593993
 20
1100.3455412302
 40
4.7990381057
100
AcDbArc
 50
218.6913826582
 51
321.3086173418
  0
ARC
  5
502
100
AcDbEntity
  8
6_ALL_SURFS
100
AcDbCircle
 62
7
  6
CONTINUOUS
 10
702.1134593993
 20
1100.3455412302
 40
4.7990381057
100
AcDbArc
 50
218.6913826582
 51
321.3086173418
  0
ARC
  5
503
100
AcDbEntity
  8
6_ALL_SURFS
100
AcDbCircle
 62
7
  6
CONTINUOUS
 10
452.1134593993
 20
1100.3455412302
 40
4.7990381057
100
AcDbArc
 50
218.6913826582
 51
321.3086173418
  0
CIRCLE
  5
504
100
AcDbEntity
  8
6_ALL_SURFS
100
AcDbCircle
 62
7
  6
CONTINUOUS
 10
1452.1134593993
 20
1100.3455412302
 40
3.5
  0
CIRCLE
  5
505
100
AcDbEntity
  8
6_ALL_SURFS
100
AcDbCircle
 62
7
  6
CONTINUOUS
 10
1202.1134593993
 20
1100.3455412302
 40
3.5
  0
CIRCLE
  5
506
100
AcDbEntity
  8
6_ALL_SURFS
100
AcDbCircle
 62
7
  6
CONTINUOUS
 10
952.1134593993
 20
1100.3455412302
 40
3.5
  0
CIRCLE
  5
507
100
AcDbEntity
  8
6_ALL_SURFS
100
AcDbCircle
 62
7
  6
CONTINUOUS
 10
702.1134593993
 20
1100.3455412302
 40
3.5
  0
CIRCLE
  5
508
100
AcDbEntity
  8
6_ALL_SURFS
100
AcDbCircle
 62
7
  6
CONTINUOUS
 10
452.1134593993
 20
1100.3455412302
 40
3.5
  0
ARC
  5
509
100
AcDbEntity
  8
7_ALL_FEATURES
100
AcDbCircle
 62
7
  6
CONTINUOUS
 10
1702.1134593993
 20
1030.2455412302
 40
4.7990381057
100
AcDbArc
 50
149.9933694481
 51
180.0
  0
ARC
  5
50A
100
AcDbEntity
  8
7_ALL_FEATURES
100
AcDbCircle
 62
7
  6
CONTINUOUS
 10
1952.1134593993
 20
1030.2455412302
 40
4.7990381057
100
AcDbArc
 50
149.9933694481
 51
180.0
  0
ARC
  5
50B
100
AcDbEntity
  8
7_ALL_FEATURES
100
AcDbCircle
 62
7
  6
CONTINUOUS
 10
1702.1134593993
 20
1030.2455412302
 40
4.7990381057
100
AcDbArc
 50
0.0
 51
30.0066305519
  0
ARC
  5
50C
100
AcDbEntity
  8
7_ALL_FEATURES
100
AcDbCircle
 62
7
  6
CONTINUOUS
 10
2202.1134593993
 20
1030.2455412302
 40
4.7990381057
100
AcDbArc
 50
149.9933694481
 51
180.0
  0
ARC
  5
50D
100
AcDbEntity
  8
7_ALL_FEATURES
100
AcDbCircle
 62
7
  6
CONTINUOUS
 10
1952.1134593993
 20
1030.2455412302
 40
4.7990381057
100
AcDbArc
 50
0.0
 51
30.0066305519
  0
ARC
  5
50E
100
AcDbEntity
  8
7_ALL_FEATURES
100
AcDbCircle
 62
7
  6
CONTINUOUS
 10
2452.1134593993
 20
1030.2455412302
 40
4.7990381057
100
AcDbArc
 50
149.9933694481
 51
180.0
  0
ARC
  5
50F
100
AcDbEntity
  8
7_ALL_FEATURES
100
AcDbCircle
 62
7
  6
CONTINUOUS
 10
2202.1134593993
 20
1030.2455412302
 40
4.7990381057
100
AcDbArc
 50
0.0
 51
30.0066305519
  0
ARC
  5
510
100
AcDbEntity
  8
7_ALL_FEATURES
100
AcDbCircle
 62
7
  6
CONTINUOUS
 10
2702.1134593993
 20
1030.2455412302
 40
4.7990381057
100
AcDbArc
 50
149.9933694481
 51
180.0
  0
ARC
  5
511
100
AcDbEntity
  8
7_ALL_FEATURES
100
AcDbCircle
 62
7
  6
CONTINUOUS
 10
2452.1134593993
 20
1030.2455412302
 40
4.7990381057
100
AcDbArc
 50
0.0
 51
30.0066305519
  0
ARC
  5
512
100
AcDbEntity
  8
7_ALL_FEATURES
100
AcDbCircle
 62
7
  6
CONTINUOUS
 10
2952.1134593993
 20
1030.2455412302
 40
4.7990381057
100
AcDbArc
 50
149.9933694481
 51
180.0
  0
ARC
  5
513
100
AcDbEntity
  8
7_ALL_FEATURES
100
AcDbCircle
 62
7
  6
CONTINUOUS
 10
2702.1134593993
 20
1030.2455412302
 40
4.7990381057
100
AcDbArc
 50
0.0
 51
30.0066305519
  0
ARC
  5
514
100
AcDbEntity
  8
7_ALL_FEATURES
100
AcDbCircle
 62
7
  6
CONTINUOUS
 10
2952.1134593993
 20
1030.2455412302
 40
4.7990381057
100
AcDbArc
 50
0.0
 51
30.0066305519
  0
ARC
  5
515
100
AcDbEntity
  8
7_ALL_FEATURES
100
AcDbCircle
 62
7
  6
CONTINUOUS
 10
1702.1134593993
 20
1030.2455412302
 40
4.7990381057
100
AcDbArc
 50
187.1822026405
 51
226.828815981
  0
ARC
  5
516
100
AcDbEntity
  8
7_ALL_FEATURES
100
AcDbCircle
 62
7
  6
CONTINUOUS
 10
1952.1134593993
 20
1030.2455412302
 40
4.7990381057
100
AcDbArc
 50
187.1822026405
 51
226.828815981
  0
ARC
  5
517
100
AcDbEntity
  8
7_ALL_FEATURES
100
AcDbCircle
 62
7
  6
CONTINUOUS
 10
1702.1134593993
 20
1030.2455412302
 40
4.7990381057
100
AcDbArc
 50
313.171184019
 51
352.8177973595
  0
ARC
  5
518
100
AcDbEntity
  8
7_ALL_FEATURES
100
AcDbCircle
 62
7
  6
CONTINUOUS
 10
2202.1134593993
 20
1030.2455412302
 40
4.7990381057
100
AcDbArc
 50
187.1822026405
 51
226.828815981
  0
ARC
  5
519
100
AcDbEntity
  8
7_ALL_FEATURES
100
AcDbCircle
 62
7
  6
CONTINUOUS
 10
1952.1134593993
 20
1030.2455412302
 40
4.7990381057
100
AcDbArc
 50
313.171184019
 51
352.8177973595
  0
ARC
  5
51A
100
AcDbEntity
  8
7_ALL_FEATURES
100
AcDbCircle
 62
7
  6
CONTINUOUS
 10
2452.1134593993
 20
1030.2455412302
 40
4.7990381057
100
AcDbArc
 50
187.1822026405
 51
226.828815981
  0
ARC
  5
51B
100
AcDbEntity
  8
7_ALL_FEATURES
100
AcDbCircle
 62
7
  6
CONTINUOUS
 10
2202.1134593993
 20
1030.2455412302
 40
4.7990381057
100
AcDbArc
 50
313.171184019
 51
352.8177973595
  0
ARC
  5
51C
100
AcDbEntity
  8
7_ALL_FEATURES
100
AcDbCircle
 62
7
  6
CONTINUOUS
 10
2702.1134593993
 20
1030.2455412302
 40
4.7990381057
100
AcDbArc
 50
187.1822026405
 51
226.828815981
  0
ARC
  5
51D
100
AcDbEntity
  8
7_ALL_FEATURES
100
AcDbCircle
 62
7
  6
CONTINUOUS
 10
2452.1134593993
 20
1030.2455412302
 40
4.7990381057
100
AcDbArc
 50
313.171184019
 51
352.8177973595
  0
ARC
  5
51E
100
AcDbEntity
  8
7_ALL_FEATURES
100
AcDbCircle
 62
7
  6
CONTINUOUS
 10
2952.1134593993
 20
1030.2455412302
 40
4.7990381057
100
AcDbArc
 50
187.1822026405
 51
226.828815981
  0
ARC
  5
51F
100
AcDbEntity
  8
7_ALL_FEATURES
100
AcDbCircle
 62
7
  6
CONTINUOUS
 10
2702.1134593993
 20
1030.2455412302
 40
4.7990381057
100
AcDbArc
 50
313.171184019
 51
352.8177973595
  0
ARC
  5
520
100
AcDbEntity
  8
7_ALL_FEATURES
100
AcDbCircle
 62
7
  6
CONTINUOUS
 10
2952.1134593993
 20
1030.2455412302
 40
4.7990381057
100
AcDbArc
 50
313.171184019
 51
352.8177973595
  0
ARC
  5
521
100
AcDbEntity
  8
7_ALL_FEATURES
100
AcDbCircle
 62
7
  6
CONTINUOUS
 10
2702.1134593993
 20
1030.2455412302
 40
4.7990381057
100
AcDbArc
 50
38.6913826582
 51
141.3086173418
  0
ARC
  5
522
100
AcDbEntity
  8
7_ALL_FEATURES
100
AcDbCircle
 62
7
  6
CONTINUOUS
 10
2452.1134593993
 20
1030.2455412302
 40
4.7990381057
100
AcDbArc
 50
38.6913826582
 51
141.3086173418
  0
ARC
  5
523
100
AcDbEntity
  8
7_ALL_FEATURES
100
AcDbCircle
 62
7
  6
CONTINUOUS
 10
2202.1134593993
 20
1030.2455412302
 40
4.7990381057
100
AcDbArc
 50
38.6913826582
 51
141.3086173418
  0
ARC
  5
524
100
AcDbEntity
  8
7_ALL_FEATURES
100
AcDbCircle
 62
7
  6
CONTINUOUS
 10
1952.1134593993
 20
1030.2455412302
 40
4.7990381057
100
AcDbArc
 50
38.6913826582
 51
141.3086173418
  0
ARC
  5
525
100
AcDbEntity
  8
7_ALL_FEATURES
100
AcDbCircle
 62
7
  6
CONTINUOUS
 10
1702.1134593993
 20
1030.2455412302
 40
4.7990381057
100
AcDbArc
 50
38.6913826582
 51
141.3086173418
  0
ARC
  5
526
100
AcDbEntity
  8
7_ALL_FEATURES
100
AcDbCircle
 62
7
  6
CONTINUOUS
 10
2952.1134593993
 20
1030.2455412302
 40
4.7990381057
100
AcDbArc
 50
38.6913826582
 51
141.3086173418
  0
CIRCLE
  5
527
100
AcDbEntity
  8
6_ALL_SURFS
100
AcDbCircle
 62
7
  6
CONTINUOUS
 10
2952.1134593993
 20
1030.2455412302
 40
3.5
  0
CIRCLE
  5
528
100
AcDbEntity
  8
6_ALL_SURFS
100
AcDbCircle
 62
7
  6
CONTINUOUS
 10
2702.1134593993
 20
1030.2455412302
 40
3.5
  0
CIRCLE
  5
529
100
AcDbEntity
  8
6_ALL_SURFS
100
AcDbCircle
 62
7
  6
CONTINUOUS
 10
2452.1134593993
 20
1030.2455412302
 40
3.5
  0
CIRCLE
  5
52A
100
AcDbEntity
  8
6_ALL_SURFS
100
AcDbCircle
 62
7
  6
CONTINUOUS
 10
2202.1134593993
 20
1030.2455412302
 40
3.5
  0
CIRCLE
  5
52B
100
AcDbEntity
  8
6_ALL_SURFS
100
AcDbCircle
 62
7
  6
CONTINUOUS
 10
1952.1134593993
 20
1030.2455412302
 40
3.5
  0
CIRCLE
  5
52C
100
AcDbEntity
  8
6_ALL_SURFS
100
AcDbCircle
 62
7
  6
CONTINUOUS
 10
1702.1134593993
 20
1030.2455412302
 40
3.5
  0
ARC
  5
52D
100
AcDbEntity
  8
6_ALL_SURFS
100
AcDbCircle
 62
7
  6
CONTINUOUS
 10
2952.1134593993
 20
1100.3455412302
 40
4.7990381057
100
AcDbArc
 50
7.1822026405
 51
46.828815981
  0
ARC
  5
52E
100
AcDbEntity
  8
6_ALL_SURFS
100
AcDbCircle
 62
7
  6
CONTINUOUS
 10
2702.1134593993
 20
1100.3455412302
 40
4.7990381057
100
AcDbArc
 50
7.1822026405
 51
46.828815981
  0
ARC
  5
52F
100
AcDbEntity
  8
6_ALL_SURFS
100
AcDbCircle
 62
7
  6
CONTINUOUS
 10
2952.1134593993
 20
1100.3455412302
 40
4.7990381057
100
AcDbArc
 50
133.171184019
 51
172.8177973595
  0
ARC
  5
530
100
AcDbEntity
  8
6_ALL_SURFS
100
AcDbCircle
 62
7
  6
CONTINUOUS
 10
2452.1134593993
 20
1100.3455412302
 40
4.7990381057
100
AcDbArc
 50
7.1822026405
 51
46.828815981
  0
ARC
  5
531
100
AcDbEntity
  8
6_ALL_SURFS
100
AcDbCircle
 62
7
  6
CONTINUOUS
 10
2702.1134593993
 20
1100.3455412302
 40
4.7990381057
100
AcDbArc
 50
133.171184019
 51
172.8177973595
  0
ARC
  5
532
100
AcDbEntity
  8
6_ALL_SURFS
100
AcDbCircle
 62
7
  6
CONTINUOUS
 10
2202.1134593993
 20
1100.3455412302
 40
4.7990381057
100
AcDbArc
 50
7.1822026405
 51
46.828815981
  0
ARC
  5
533
100
AcDbEntity
  8
6_ALL_SURFS
100
AcDbCircle
 62
7
  6
CONTINUOUS
 10
2452.1134593993
 20
1100.3455412302
 40
4.7990381057
100
AcDbArc
 50
133.171184019
 51
172.8177973595
  0
ARC
  5
534
100
AcDbEntity
  8
6_ALL_SURFS
100
AcDbCircle
 62
7
  6
CONTINUOUS
 10
1952.1134593993
 20
1100.3455412302
 40
4.7990381057
100
AcDbArc
 50
7.1822026405
 51
46.828815981
  0
ARC
  5
535
100
AcDbEntity
  8
6_ALL_SURFS
100
AcDbCircle
 62
7
  6
CONTINUOUS
 10
2202.1134593993
 20
1100.3455412302
 40
4.7990381057
100
AcDbArc
 50
133.171184019
 51
172.8177973595
  0
ARC
  5
536
100
AcDbEntity
  8
6_ALL_SURFS
100
AcDbCircle
 62
7
  6
CONTINUOUS
 10
1702.1134593993
 20
1100.3455412302
 40
4.7990381057
100
AcDbArc
 50
7.1822026405
 51
46.828815981
  0
ARC
  5
537
100
AcDbEntity
  8
6_ALL_SURFS
100
AcDbCircle
 62
7
  6
CONTINUOUS
 10
1952.1134593993
 20
1100.3455412302
 40
4.7990381057
100
AcDbArc
 50
133.171184019
 51
172.8177973595
  0
ARC
  5
538
100
AcDbEntity
  8
6_ALL_SURFS
100
AcDbCircle
 62
7
  6
CONTINUOUS
 10
1702.1134593993
 20
1100.3455412302
 40
4.7990381057
100
AcDbArc
 50
133.171184019
 51
172.8177973595
  0
ARC
  5
539
100
AcDbEntity
  8
6_ALL_SURFS
100
AcDbCircle
 62
7
  6
CONTINUOUS
 10
2952.1134593993
 20
1100.3455412302
 40
4.7990381057
100
AcDbArc
 50
329.9933694481
 51
360.0
  0
ARC
  5
53A
100
AcDbEntity
  8
6_ALL_SURFS
100
AcDbCircle
 62
7
  6
CONTINUOUS
 10
2702.1134593993
 20
1100.3455412302
 40
4.7990381057
100
AcDbArc
 50
329.9933694481
 51
360.0
  0
ARC
  5
53B
100
AcDbEntity
  8
6_ALL_SURFS
100
AcDbCircle
 62
7
  6
CONTINUOUS
 10
2952.1134593993
 20
1100.3455412302
 40
4.7990381057
100
AcDbArc
 50
180.0
 51
210.0066305519
  0
ARC
  5
53C
100
AcDbEntity
  8
6_ALL_SURFS
100
AcDbCircle
 62
7
  6
CONTINUOUS
 10
2452.1134593993
 20
1100.3455412302
 40
4.7990381057
100
AcDbArc
 50
329.9933694481
 51
360.0
  0
ARC
  5
53D
100
AcDbEntity
  8
6_ALL_SURFS
100
AcDbCircle
 62
7
  6
CONTINUOUS
 10
2702.1134593993
 20
1100.3455412302
 40
4.7990381057
100
AcDbArc
 50
180.0
 51
210.0066305519
  0
ARC
  5
53E
100
AcDbEntity
  8
6_ALL_SURFS
100
AcDbCircle
 62
7
  6
CONTINUOUS
 10
2202.1134593993
 20
1100.3455412302
 40
4.7990381057
100
AcDbArc
 50
329.9933694481
 51
360.0
  0
ARC
  5
53F
100
AcDbEntity
  8
6_ALL_SURFS
100
AcDbCircle
 62
7
  6
CONTINUOUS
 10
2452.1134593993
 20
1100.3455412302
 40
4.7990381057
100
AcDbArc
 50
180.0
 51
210.0066305519
  0
ARC
  5
540
100
AcDbEntity
  8
6_ALL_SURFS
100
AcDbCircle
 62
7
  6
CONTINUOUS
 10
1952.1134593993
 20
1100.3455412302
 40
4.7990381057
100
AcDbArc
 50
329.9933694481
 51
360.0
  0
ARC
  5
541
100
AcDbEntity
  8
6_ALL_SURFS
100
AcDbCircle
 62
7
  6
CONTINUOUS
 10
2202.1134593993
 20
1100.3455412302
 40
4.7990381057
100
AcDbArc
 50
180.0
 51
210.0066305519
  0
ARC
  5
542
100
AcDbEntity
  8
6_ALL_SURFS
100
AcDbCircle
 62
7
  6
CONTINUOUS
 10
1702.1134593993
 20
1100.3455412302
 40
4.7990381057
100
AcDbArc
 50
329.9933694481
 51
360.0
  0
ARC
  5
543
100
AcDbEntity
  8
6_ALL_SURFS
100
AcDbCircle
 62
7
  6
CONTINUOUS
 10
1952.1134593993
 20
1100.3455412302
 40
4.7990381057
100
AcDbArc
 50
180.0
 51
210.0066305519
  0
ARC
  5
544
100
AcDbEntity
  8
6_ALL_SURFS
100
AcDbCircle
 62
7
  6
CONTINUOUS
 10
1702.1134593993
 20
1100.3455412302
 40
4.7990381057
100
AcDbArc
 50
180.0
 51
210.0066305519
  0
ARC
  5
545
100
AcDbEntity
  8
6_ALL_SURFS
100
AcDbCircle
 62
7
  6
CONTINUOUS
 10
2702.1134593993
 20
1100.3455412302
 40
4.7990381057
100
AcDbArc
 50
218.6913826582
 51
321.3086173418
  0
ARC
  5
546
100
AcDbEntity
  8
6_ALL_SURFS
100
AcDbCircle
 62
7
  6
CONTINUOUS
 10
2452.1134593993
 20
1100.3455412302
 40
4.7990381057
100
AcDbArc
 50
218.6913826582
 51
321.3086173418
  0
ARC
  5
547
100
AcDbEntity
  8
6_ALL_SURFS
100
AcDbCircle
 62
7
  6
CONTINUOUS
 10
2202.1134593993
 20
1100.3455412302
 40
4.7990381057
100
AcDbArc
 50
218.6913826582
 51
321.3086173418
  0
ARC
  5
548
100
AcDbEntity
  8
6_ALL_SURFS
100
AcDbCircle
 62
7
  6
CONTINUOUS
 10
1952.1134593993
 20
1100.3455412302
 40
4.7990381057
100
AcDbArc
 50
218.6913826582
 51
321.3086173418
  0
ARC
  5
549
100
AcDbEntity
  8
6_ALL_SURFS
100
AcDbCircle
 62
7
  6
CONTINUOUS
 10
1702.1134593993
 20
1100.3455412302
 40
4.7990381057
100
AcDbArc
 50
218.6913826582
 51
321.3086173418
  0
ARC
  5
54A
100
AcDbEntity
  8
6_ALL_SURFS
100
AcDbCircle
 62
7
  6
CONTINUOUS
 10
2952.1134593993
 20
1100.3455412302
 40
4.7990381057
100
AcDbArc
 50
218.6913826582
 51
321.3086173418
  0
CIRCLE
  5
54B
100
AcDbEntity
  8
6_ALL_SURFS
100
AcDbCircle
 62
7
  6
CONTINUOUS
 10
2952.1134593993
 20
1100.3455412302
 40
3.5
  0
CIRCLE
  5
54C
100
AcDbEntity
  8
6_ALL_SURFS
100
AcDbCircle
 62
7
  6
CONTINUOUS
 10
2702.1134593993
 20
1100.3455412302
 40
3.5
  0
CIRCLE
  5
54D
100
AcDbEntity
  8
6_ALL_SURFS
100
AcDbCircle
 62
7
  6
CONTINUOUS
 10
2452.1134593993
 20
1100.3455412302
 40
3.5
  0
CIRCLE
  5
54E
100
AcDbEntity
  8
6_ALL_SURFS
100
AcDbCircle
 62
7
  6
CONTINUOUS
 10
2202.1134593993
 20
1100.3455412302
 40
3.5
  0
CIRCLE
  5
54F
100
AcDbEntity
  8
6_ALL_SURFS
100
AcDbCircle
 62
7
  6
CONTINUOUS
 10
1952.1134593993
 20
1100.3455412302
 40
3.5
  0
CIRCLE
  5
550
100
AcDbEntity
  8
6_ALL_SURFS
100
AcDbCircle
 62
7
  6
CONTINUOUS
 10
1702.1134593993
 20
1100.3455412302
 40
3.5
  0
SPLINE
  5
551
100
AcDbEntity
  8
7_ALL_FEATURES
100
AcDbSpline
 62
7
  6
CONTINUOUS
 70
0
 71
3
 72
11
 73
7
 74
0
 42
0.0000001
 43
0.0000001
 44
0.0000000001
 40
0.0
 40
0.0
 40
0.0
 40
0.0
 40
0.2502466225
 40
0.5061861605
 40
0.7644256387
 40
1.0
 40
1.0
 40
1.0
 40
1.0
 10
1197.9576481982
 20
1032.6455412302
 30
0.0
 10
1198.019346551
 20
1032.6752380967
 30
0.0
 10
1198.1416932619
 20
1032.7425752024
 30
0.0
 10
1198.304205069
 20
1032.8713381095
 30
0.0
 10
1198.4429467308
 20
1033.0399701523
 30
0.0
 10
1198.4098180026
 20
1033.1967520133
 30
0.0
 10
1198.3676928904
 20
1033.2455412302
 30
0.0
  0
SPLINE
  5
552
100
AcDbEntity
  8
7_ALL_FEATURES
100
AcDbSpline
 62
7
  6
CONTINUOUS
 70
0
 71
3
 72
11
 73
7
 74
0
 42
0.0000001
 43
0.0000001
 44
0.0000000001
 40
0.0
 40
0.0
 40
0.0
 40
0.0
 40
0.2319264254
 40
0.4914444864
 40
0.7485895219
 40
1.0
 40
1.0
 40
1.0
 40
1.0
 10
955.8592259083
 20
1033.2455412302
 30
0.0
 10
955.8177719872
 20
1033.1975293854
 30
0.0
 10
955.7846767666
 20
1033.0423183959
 30
0.0
 10
955.9210485187
 20
1032.8722661089
 30
0.0
 10
956.0845559925
 20
1032.7430894849
 30
0.0
 10
956.2073135045
 20
1032.6753626358
 30
0.0
 10
956.2692706005
 20
1032.6455412302
 30
0.0
  0
SPLINE
  5
553
100
AcDbEntity
  8
7_ALL_FEATURES
100
AcDbSpline
 62
7
  6
CONTINUOUS
 70
0
 71
3
 72
11
 73
7
 74
0
 42
0.0000001
 43
0.0000001
 44
0.0000000001
 40
0.0
 40
0.0
 40
0.0
 40
0.0
 40
0.2502466225
 40
0.5061861605
 40
0.7644256387
 40
1.0
 40
1.0
 40
1.0
 40
1.0
 10
1447.9576481982
 20
1032.6455412302
 30
0.0
 10
1448.019346551
 20
1032.6752380967
 30
0.0
 10
1448.1416932619
 20
1032.7425752024
 30
0.0
 10
1448.304205069
 20
1032.8713381095
 30
0.0
 10
1448.4429467308
 20
1033.0399701523
 30
0.0
 10
1448.4098180026
 20
1033.1967520133
 30
0.0
 10
1448.3676928904
 20
1033.2455412302
 30
0.0
  0
SPLINE
  5
554
100
AcDbEntity
  8
7_ALL_FEATURES
100
AcDbSpline
 62
7
  6
CONTINUOUS
 70
0
 71
3
 72
11
 73
7
 74
0
 42
0.0000001
 43
0.0000001
 44
0.0000000001
 40
0.0
 40
0.0
 40
0.0
 40
0.0
 40
0.2319264254
 40
0.4914444864
 40
0.7485895219
 40
1.0
 40
1.0
 40
1.0
 40
1.0
 10
1205.8592259083
 20
1033.2455412302
 30
0.0
 10
1205.8177719872
 20
1033.1975293854
 30
0.0
 10
1205.7846767666
 20
1033.0423183959
 30
0.0
 10
1205.9210485187
 20
1032.8722661089
 30
0.0
 10
1206.0845559925
 20
1032.7430894849
 30
0.0
 10
1206.2073135045
 20
1032.6753626358
 30
0.0
 10
1206.2692706005
 20
1032.6455412302
 30
0.0
  0
SPLINE
  5
555
100
AcDbEntity
  8
7_ALL_FEATURES
100
AcDbSpline
 62
7
  6
CONTINUOUS
 70
0
 71
3
 72
11
 73
7
 74
0
 42
0.0000001
 43
0.0000001
 44
0.0000000001
 40
0.0
 40
0.0
 40
0.0
 40
0.0
 40
0.2502466225
 40
0.5061861605
 40
0.7644256387
 40
1.0
 40
1.0
 40
1.0
 40
1.0
 10
1697.9576481982
 20
1032.6455412302
 30
0.0
 10
1698.019346551
 20
1032.6752380967
 30
0.0
 10
1698.1416932619
 20
1032.7425752024
 30
0.0
 10
1698.304205069
 20
1032.8713381095
 30
0.0
 10
1698.4429467308
 20
1033.0399701523
 30
0.0
 10
1698.4098180026
 20
1033.1967520133
 30
0.0
 10
1698.3676928904
 20
1033.2455412302
 30
0.0
  0
SPLINE
  5
556
100
AcDbEntity
  8
7_ALL_FEATURES
100
AcDbSpline
 62
7
  6
CONTINUOUS
 70
0
 71
3
 72
11
 73
7
 74
0
 42
0.0000001
 43
0.0000001
 44
0.0000000001
 40
0.0
 40
0.0
 40
0.0
 40
0.0
 40
0.2319264254
 40
0.4914444864
 40
0.7485895219
 40
1.0
 40
1.0
 40
1.0
 40
1.0
 10
1455.8592259083
 20
1033.2455412302
 30
0.0
 10
1455.8177719872
 20
1033.1975293854
 30
0.0
 10
1455.7846767666
 20
1033.0423183959
 30
0.0
 10
1455.9210485187
 20
1032.8722661089
 30
0.0
 10
1456.0845559925
 20
1032.7430894849
 30
0.0
 10
1456.2073135045
 20
1032.6753626358
 30
0.0
 10
1456.2692706005
 20
1032.6455412302
 30
0.0
  0
SPLINE
  5
557
100
AcDbEntity
  8
7_ALL_FEATURES
100
AcDbSpline
 62
7
  6
CONTINUOUS
 70
0
 71
3
 72
11
 73
7
 74
0
 42
0.0000001
 43
0.0000001
 44
0.0000000001
 40
0.0
 40
0.0
 40
0.0
 40
0.0
 40
0.2502466225
 40
0.5061861605
 40
0.7644256387
 40
1.0
 40
1.0
 40
1.0
 40
1.0
 10
1947.9576481982
 20
1032.6455412302
 30
0.0
 10
1948.019346551
 20
1032.6752380967
 30
0.0
 10
1948.1416932619
 20
1032.7425752024
 30
0.0
 10
1948.304205069
 20
1032.8713381095
 30
0.0
 10
1948.4429467308
 20
1033.0399701523
 30
0.0
 10
1948.4098180026
 20
1033.1967520133
 30
0.0
 10
1948.3676928904
 20
1033.2455412302
 30
0.0
  0
SPLINE
  5
558
100
AcDbEntity
  8
7_ALL_FEATURES
100
AcDbSpline
 62
7
  6
CONTINUOUS
 70
0
 71
3
 72
11
 73
7
 74
0
 42
0.0000001
 43
0.0000001
 44
0.0000000001
 40
0.0
 40
0.0
 40
0.0
 40
0.0
 40
0.2319264254
 40
0.4914444864
 40
0.7485895219
 40
1.0
 40
1.0
 40
1.0
 40
1.0
 10
1705.8592259083
 20
1033.2455412302
 30
0.0
 10
1705.8177719872
 20
1033.1975293854
 30
0.0
 10
1705.7846767666
 20
1033.0423183959
 30
0.0
 10
1705.9210485187
 20
1032.8722661089
 30
0.0
 10
1706.0845559925
 20
1032.7430894849
 30
0.0
 10
1706.2073135045
 20
1032.6753626358
 30
0.0
 10
1706.2692706005
 20
1032.6455412302
 30
0.0
  0
SPLINE
  5
559
100
AcDbEntity
  8
7_ALL_FEATURES
100
AcDbSpline
 62
7
  6
CONTINUOUS
 70
0
 71
3
 72
11
 73
7
 74
0
 42
0.0000001
 43
0.0000001
 44
0.0000000001
 40
0.0
 40
0.0
 40
0.0
 40
0.0
 40
0.2502466225
 40
0.5061861605
 40
0.7644256387
 40
1.0
 40
1.0
 40
1.0
 40
1.0
 10
2197.9576481982
 20
1032.6455412302
 30
0.0
 10
2198.019346551
 20
1032.6752380967
 30
0.0
 10
2198.1416932619
 20
1032.7425752024
 30
0.0
 10
2198.304205069
 20
1032.8713381095
 30
0.0
 10
2198.4429467308
 20
1033.0399701523
 30
0.0
 10
2198.4098180026
 20
1033.1967520133
 30
0.0
 10
2198.3676928904
 20
1033.2455412302
 30
0.0
  0
SPLINE
  5
55A
100
AcDbEntity
  8
7_ALL_FEATURES
100
AcDbSpline
 62
7
  6
CONTINUOUS
 70
0
 71
3
 72
11
 73
7
 74
0
 42
0.0000001
 43
0.0000001
 44
0.0000000001
 40
0.0
 40
0.0
 40
0.0
 40
0.0
 40
0.2319264254
 40
0.4914444864
 40
0.7485895219
 40
1.0
 40
1.0
 40
1.0
 40
1.0
 10
1955.8592259083
 20
1033.2455412302
 30
0.0
 10
1955.8177719872
 20
1033.1975293854
 30
0.0
 10
1955.7846767666
 20
1033.0423183959
 30
0.0
 10
1955.9210485187
 20
1032.8722661089
 30
0.0
 10
1956.0845559925
 20
1032.7430894849
 30
0.0
 10
1956.2073135045
 20
1032.6753626358
 30
0.0
 10
1956.2692706005
 20
1032.6455412302
 30
0.0
  0
SPLINE
  5
55B
100
AcDbEntity
  8
7_ALL_FEATURES
100
AcDbSpline
 62
7
  6
CONTINUOUS
 70
0
 71
3
 72
11
 73
7
 74
0
 42
0.0000001
 43
0.0000001
 44
0.0000000001
 40
0.0
 40
0.0
 40
0.0
 40
0.0
 40
0.2502466225
 40
0.5061861605
 40
0.7644256387
 40
1.0
 40
1.0
 40
1.0
 40
1.0
 10
2447.9576481982
 20
1032.6455412302
 30
0.0
 10
2448.019346551
 20
1032.6752380967
 30
0.0
 10
2448.1416932619
 20
1032.7425752024
 30
0.0
 10
2448.304205069
 20
1032.8713381095
 30
0.0
 10
2448.4429467308
 20
1033.0399701523
 30
0.0
 10
2448.4098180026
 20
1033.1967520133
 30
0.0
 10
2448.3676928904
 20
1033.2455412302
 30
0.0
  0
SPLINE
  5
55C
100
AcDbEntity
  8
7_ALL_FEATURES
100
AcDbSpline
 62
7
  6
CONTINUOUS
 70
0
 71
3
 72
11
 73
7
 74
0
 42
0.0000001
 43
0.0000001
 44
0.0000000001
 40
0.0
 40
0.0
 40
0.0
 40
0.0
 40
0.2319264254
 40
0.4914444864
 40
0.7485895219
 40
1.0
 40
1.0
 40
1.0
 40
1.0
 10
2205.8592259083
 20
1033.2455412302
 30
0.0
 10
2205.8177719872
 20
1033.1975293854
 30
0.0
 10
2205.7846767666
 20
1033.0423183959
 30
0.0
 10
2205.9210485187
 20
1032.8722661089
 30
0.0
 10
2206.0845559925
 20
1032.7430894849
 30
0.0
 10
2206.2073135045
 20
1032.6753626358
 30
0.0
 10
2206.2692706005
 20
1032.6455412302
 30
0.0
  0
SPLINE
  5
55D
100
AcDbEntity
  8
7_ALL_FEATURES
100
AcDbSpline
 62
7
  6
CONTINUOUS
 70
0
 71
3
 72
11
 73
7
 74
0
 42
0.0000001
 43
0.0000001
 44
0.0000000001
 40
0.0
 40
0.0
 40
0.0
 40
0.0
 40
0.2502466225
 40
0.5061861605
 40
0.7644256387
 40
1.0
 40
1.0
 40
1.0
 40
1.0
 10
2697.9576481982
 20
1032.6455412302
 30
0.0
 10
2698.019346551
 20
1032.6752380967
 30
0.0
 10
2698.1416932619
 20
1032.7425752024
 30
0.0
 10
2698.304205069
 20
1032.8713381095
 30
0.0
 10
2698.4429467308
 20
1033.0399701523
 30
0.0
 10
2698.4098180026
 20
1033.1967520133
 30
0.0
 10
2698.3676928904
 20
1033.2455412302
 30
0.0
  0
SPLINE
  5
55E
100
AcDbEntity
  8
7_ALL_FEATURES
100
AcDbSpline
 62
7
  6
CONTINUOUS
 70
0
 71
3
 72
11
 73
7
 74
0
 42
0.0000001
 43
0.0000001
 44
0.0000000001
 40
0.0
 40
0.0
 40
0.0
 40
0.0
 40
0.2319264254
 40
0.4914444864
 40
0.7485895219
 40
1.0
 40
1.0
 40
1.0
 40
1.0
 10
2455.8592259083
 20
1033.2455412302
 30
0.0
 10
2455.8177719872
 20
1033.1975293854
 30
0.0
 10
2455.7846767666
 20
1033.0423183959
 30
0.0
 10
2455.9210485187
 20
1032.8722661089
 30
0.0
 10
2456.0845559925
 20
1032.7430894849
 30
0.0
 10
2456.2073135045
 20
1032.6753626358
 30
0.0
 10
2456.2692706005
 20
1032.6455412302
 30
0.0
  0
SPLINE
  5
55F
100
AcDbEntity
  8
7_ALL_FEATURES
100
AcDbSpline
 62
7
  6
CONTINUOUS
 70
0
 71
3
 72
11
 73
7
 74
0
 42
0.0000001
 43
0.0000001
 44
0.0000000001
 40
0.0
 40
0.0
 40
0.0
 40
0.0
 40
0.2502466225
 40
0.5061861605
 40
0.7644256387
 40
1.0
 40
1.0
 40
1.0
 40
1.0
 10
2947.9576481982
 20
1032.6455412302
 30
0.0
 10
2948.019346551
 20
1032.6752380967
 30
0.0
 10
2948.1416932619
 20
1032.7425752024
 30
0.0
 10
2948.304205069
 20
1032.8713381095
 30
0.0
 10
2948.4429467308
 20
1033.0399701523
 30
0.0
 10
2948.4098180026
 20
1033.1967520133
 30
0.0
 10
2948.3676928904
 20
1033.2455412302
 30
0.0
  0
SPLINE
  5
560
100
AcDbEntity
  8
7_ALL_FEATURES
100
AcDbSpline
 62
7
  6
CONTINUOUS
 70
0
 71
3
 72
11
 73
7
 74
0
 42
0.0000001
 43
0.0000001
 44
0.0000000001
 40
0.0
 40
0.0
 40
0.0
 40
0.0
 40
0.2319264254
 40
0.4914444864
 40
0.7485895219
 40
1.0
 40
1.0
 40
1.0
 40
1.0
 10
2705.8592259083
 20
1033.2455412302
 30
0.0
 10
2705.8177719872
 20
1033.1975293854
 30
0.0
 10
2705.7846767666
 20
1033.0423183959
 30
0.0
 10
2705.9210485187
 20
1032.8722661089
 30
0.0
 10
2706.0845559925
 20
1032.7430894849
 30
0.0
 10
2706.2073135045
 20
1032.6753626358
 30
0.0
 10
2706.2692706005
 20
1032.6455412302
 30
0.0
  0
SPLINE
  5
561
100
AcDbEntity
  8
7_ALL_FEATURES
100
AcDbSpline
 62
7
  6
CONTINUOUS
 70
0
 71
3
 72
11
 73
7
 74
0
 42
0.0000001
 43
0.0000001
 44
0.0000000001
 40
0.0
 40
0.0
 40
0.0
 40
0.0
 40
0.2319264254
 40
0.4914444864
 40
0.7485895219
 40
1.0
 40
1.0
 40
1.0
 40
1.0
 10
2955.8592259083
 20
1033.2455412302
 30
0.0
 10
2955.8177719872
 20
1033.1975293854
 30
0.0
 10
2955.7846767666
 20
1033.0423183959
 30
0.0
 10
2955.9210485187
 20
1032.8722661089
 30
0.0
 10
2956.0845559925
 20
1032.7430894849
 30
0.0
 10
2956.2073135045
 20
1032.6753626358
 30
0.0
 10
2956.2692706005
 20
1032.6455412302
 30
0.0
  0
SPLINE
  5
562
100
AcDbEntity
  8
7_ALL_FEATURES
100
AcDbSpline
 62
7
  6
CONTINUOUS
 70
0
 71
3
 72
9
 73
5
 74
0
 42
0.0000001
 43
0.0000001
 44
0.0000000001
 40
0.0
 40
0.0
 40
0.0
 40
0.0
 40
0.4973334647
 40
1.0
 40
1.0
 40
1.0
 40
1.0
 10
447.3520765393
 20
1029.6455412302
 30
0.0
 10
447.4387268575
 20
1029.7187690565
 30
0.0
 10
447.5708948894
 20
1029.9626694277
 30
0.0
 10
447.4052826487
 20
1030.1755961265
 30
0.0
 10
447.3144212937
 20
1030.2455412302
 30
0.0
  0
SPLINE
  5
563
100
AcDbEntity
  8
7_ALL_FEATURES
100
AcDbSpline
 62
7
  6
CONTINUOUS
 70
0
 71
3
 72
9
 73
5
 74
0
 42
0.0000001
 43
0.0000001
 44
0.0000000001
 40
0.0
 40
0.0
 40
0.0
 40
0.0
 40
0.4973334647
 40
1.0
 40
1.0
 40
1.0
 40
1.0
 10
697.3520765393
 20
1029.6455412302
 30
0.0
 10
697.4387268575
 20
1029.7187690565
 30
0.0
 10
697.5708948894
 20
1029.9626694277
 30
0.0
 10
697.4052826487
 20
1030.1755961265
 30
0.0
 10
697.3144212937
 20
1030.2455412302
 30
0.0
  0
SPLINE
  5
564
100
AcDbEntity
  8
7_ALL_FEATURES
100
AcDbSpline
 62
7
  6
CONTINUOUS
 70
0
 71
3
 72
9
 73
5
 74
0
 42
0.0000001
 43
0.0000001
 44
0.0000000001
 40
0.0
 40
0.0
 40
0.0
 40
0.0
 40
0.5033837483
 40
1.0
 40
1.0
 40
1.0
 40
1.0
 10
456.912497505
 20
1030.2455412302
 30
0.0
 10
456.8214806932
 20
1030.1754764557
 30
0.0
 10
456.6556232157
 20
1029.9623339898
 30
0.0
 10
456.7882923536
 20
1029.7186841983
 30
0.0
 10
456.8748422594
 20
1029.6455412302
 30
0.0
  0
SPLINE
  5
565
100
AcDbEntity
  8
7_ALL_FEATURES
100
AcDbSpline
 62
7
  6
CONTINUOUS
 70
0
 71
3
 72
9
 73
5
 74
0
 42
0.0000001
 43
0.0000001
 44
0.0000000001
 40
0.0
 40
0.0
 40
0.0
 40
0.0
 40
0.4973334647
 40
1.0
 40
1.0
 40
1.0
 40
1.0
 10
947.3520765393
 20
1029.6455412302
 30
0.0
 10
947.4387268575
 20
1029.7187690565
 30
0.0
 10
947.5708948894
 20
1029.9626694277
 30
0.0
 10
947.4052826487
 20
1030.1755961265
 30
0.0
 10
947.3144212937
 20
1030.2455412302
 30
0.0
  0
SPLINE
  5
566
100
AcDbEntity
  8
7_ALL_FEATURES
100
AcDbSpline
 62
7
  6
CONTINUOUS
 70
0
 71
3
 72
9
 73
5
 74
0
 42
0.0000001
 43
0.0000001
 44
0.0000000001
 40
0.0
 40
0.0
 40
0.0
 40
0.0
 40
0.5033837483
 40
1.0
 40
1.0
 40
1.0
 40
1.0
 10
706.912497505
 20
1030.2455412302
 30
0.0
 10
706.8214806932
 20
1030.1754764557
 30
0.0
 10
706.6556232157
 20
1029.9623339898
 30
0.0
 10
706.7882923536
 20
1029.7186841983
 30
0.0
 10
706.8748422594
 20
1029.6455412302
 30
0.0
  0
SPLINE
  5
567
100
AcDbEntity
  8
7_ALL_FEATURES
100
AcDbSpline
 62
7
  6
CONTINUOUS
 70
0
 71
3
 72
9
 73
5
 74
0
 42
0.0000001
 43
0.0000001
 44
0.0000000001
 40
0.0
 40
0.0
 40
0.0
 40
0.0
 40
0.4973334647
 40
1.0
 40
1.0
 40
1.0
 40
1.0
 10
1197.3520765393
 20
1029.6455412302
 30
0.0
 10
1197.4387268575
 20
1029.7187690565
 30
0.0
 10
1197.5708948894
 20
1029.9626694277
 30
0.0
 10
1197.4052826487
 20
1030.1755961265
 30
0.0
 10
1197.3144212937
 20
1030.2455412302
 30
0.0
  0
SPLINE
  5
568
100
AcDbEntity
  8
7_ALL_FEATURES
100
AcDbSpline
 62
7
  6
CONTINUOUS
 70
0
 71
3
 72
9
 73
5
 74
0
 42
0.0000001
 43
0.0000001
 44
0.0000000001
 40
0.0
 40
0.0
 40
0.0
 40
0.0
 40
0.5033837483
 40
1.0
 40
1.0
 40
1.0
 40
1.0
 10
956.912497505
 20
1030.2455412302
 30
0.0
 10
956.8214806932
 20
1030.1754764557
 30
0.0
 10
956.6556232157
 20
1029.9623339898
 30
0.0
 10
956.7882923536
 20
1029.7186841983
 30
0.0
 10
956.8748422594
 20
1029.6455412302
 30
0.0
  0
SPLINE
  5
569
100
AcDbEntity
  8
7_ALL_FEATURES
100
AcDbSpline
 62
7
  6
CONTINUOUS
 70
0
 71
3
 72
9
 73
5
 74
0
 42
0.0000001
 43
0.0000001
 44
0.0000000001
 40
0.0
 40
0.0
 40
0.0
 40
0.0
 40
0.4973334647
 40
1.0
 40
1.0
 40
1.0
 40
1.0
 10
1447.3520765393
 20
1029.6455412302
 30
0.0
 10
1447.4387268575
 20
1029.7187690565
 30
0.0
 10
1447.5708948894
 20
1029.9626694277
 30
0.0
 10
1447.4052826487
 20
1030.1755961265
 30
0.0
 10
1447.3144212937
 20
1030.2455412302
 30
0.0
  0
SPLINE
  5
56A
100
AcDbEntity
  8
7_ALL_FEATURES
100
AcDbSpline
 62
7
  6
CONTINUOUS
 70
0
 71
3
 72
9
 73
5
 74
0
 42
0.0000001
 43
0.0000001
 44
0.0000000001
 40
0.0
 40
0.0
 40
0.0
 40
0.0
 40
0.5033837483
 40
1.0
 40
1.0
 40
1.0
 40
1.0
 10
1206.912497505
 20
1030.2455412302
 30
0.0
 10
1206.8214806932
 20
1030.1754764557
 30
0.0
 10
1206.6556232157
 20
1029.9623339898
 30
0.0
 10
1206.7882923536
 20
1029.7186841983
 30
0.0
 10
1206.8748422594
 20
1029.6455412302
 30
0.0
  0
SPLINE
  5
56B
100
AcDbEntity
  8
7_ALL_FEATURES
100
AcDbSpline
 62
7
  6
CONTINUOUS
 70
0
 71
3
 72
9
 73
5
 74
0
 42
0.0000001
 43
0.0000001
 44
0.0000000001
 40
0.0
 40
0.0
 40
0.0
 40
0.0
 40
0.4973334647
 40
1.0
 40
1.0
 40
1.0
 40
1.0
 10
1697.3520765393
 20
1029.6455412302
 30
0.0
 10
1697.4387268575
 20
1029.7187690565
 30
0.0
 10
1697.5708948894
 20
1029.9626694277
 30
0.0
 10
1697.4052826487
 20
1030.1755961265
 30
0.0
 10
1697.3144212937
 20
1030.2455412302
 30
0.0
  0
SPLINE
  5
56C
100
AcDbEntity
  8
7_ALL_FEATURES
100
AcDbSpline
 62
7
  6
CONTINUOUS
 70
0
 71
3
 72
9
 73
5
 74
0
 42
0.0000001
 43
0.0000001
 44
0.0000000001
 40
0.0
 40
0.0
 40
0.0
 40
0.0
 40
0.5033837483
 40
1.0
 40
1.0
 40
1.0
 40
1.0
 10
1456.912497505
 20
1030.2455412302
 30
0.0
 10
1456.8214806932
 20
1030.1754764557
 30
0.0
 10
1456.6556232157
 20
1029.9623339898
 30
0.0
 10
1456.7882923536
 20
1029.7186841983
 30
0.0
 10
1456.8748422594
 20
1029.6455412302
 30
0.0
  0
SPLINE
  5
56D
100
AcDbEntity
  8
7_ALL_FEATURES
100
AcDbSpline
 62
7
  6
CONTINUOUS
 70
0
 71
3
 72
9
 73
5
 74
0
 42
0.0000001
 43
0.0000001
 44
0.0000000001
 40
0.0
 40
0.0
 40
0.0
 40
0.0
 40
0.4973334647
 40
1.0
 40
1.0
 40
1.0
 40
1.0
 10
1947.3520765393
 20
1029.6455412302
 30
0.0
 10
1947.4387268575
 20
1029.7187690565
 30
0.0
 10
1947.5708948894
 20
1029.9626694277
 30
0.0
 10
1947.4052826487
 20
1030.1755961265
 30
0.0
 10
1947.3144212937
 20
1030.2455412302
 30
0.0
  0
SPLINE
  5
56E
100
AcDbEntity
  8
7_ALL_FEATURES
100
AcDbSpline
 62
7
  6
CONTINUOUS
 70
0
 71
3
 72
9
 73
5
 74
0
 42
0.0000001
 43
0.0000001
 44
0.0000000001
 40
0.0
 40
0.0
 40
0.0
 40
0.0
 40
0.5033837483
 40
1.0
 40
1.0
 40
1.0
 40
1.0
 10
1706.912497505
 20
1030.2455412302
 30
0.0
 10
1706.8214806932
 20
1030.1754764557
 30
0.0
 10
1706.6556232157
 20
1029.9623339898
 30
0.0
 10
1706.7882923536
 20
1029.7186841983
 30
0.0
 10
1706.8748422594
 20
1029.6455412302
 30
0.0
  0
SPLINE
  5
56F
100
AcDbEntity
  8
7_ALL_FEATURES
100
AcDbSpline
 62
7
  6
CONTINUOUS
 70
0
 71
3
 72
9
 73
5
 74
0
 42
0.0000001
 43
0.0000001
 44
0.0000000001
 40
0.0
 40
0.0
 40
0.0
 40
0.0
 40
0.4973334647
 40
1.0
 40
1.0
 40
1.0
 40
1.0
 10
2197.3520765393
 20
1029.6455412302
 30
0.0
 10
2197.4387268575
 20
1029.7187690565
 30
0.0
 10
2197.5708948894
 20
1029.9626694277
 30
0.0
 10
2197.4052826487
 20
1030.1755961265
 30
0.0
 10
2197.3144212937
 20
1030.2455412302
 30
0.0
  0
SPLINE
  5
570
100
AcDbEntity
  8
7_ALL_FEATURES
100
AcDbSpline
 62
7
  6
CONTINUOUS
 70
0
 71
3
 72
9
 73
5
 74
0
 42
0.0000001
 43
0.0000001
 44
0.0000000001
 40
0.0
 40
0.0
 40
0.0
 40
0.0
 40
0.5033837483
 40
1.0
 40
1.0
 40
1.0
 40
1.0
 10
1956.912497505
 20
1030.2455412302
 30
0.0
 10
1956.8214806932
 20
1030.1754764557
 30
0.0
 10
1956.6556232157
 20
1029.9623339898
 30
0.0
 10
1956.7882923536
 20
1029.7186841983
 30
0.0
 10
1956.8748422594
 20
1029.6455412302
 30
0.0
  0
SPLINE
  5
571
100
AcDbEntity
  8
7_ALL_FEATURES
100
AcDbSpline
 62
7
  6
CONTINUOUS
 70
0
 71
3
 72
9
 73
5
 74
0
 42
0.0000001
 43
0.0000001
 44
0.0000000001
 40
0.0
 40
0.0
 40
0.0
 40
0.0
 40
0.4973334647
 40
1.0
 40
1.0
 40
1.0
 40
1.0
 10
2447.3520765393
 20
1029.6455412302
 30
0.0
 10
2447.4387268575
 20
1029.7187690565
 30
0.0
 10
2447.5708948894
 20
1029.9626694277
 30
0.0
 10
2447.4052826487
 20
1030.1755961265
 30
0.0
 10
2447.3144212937
 20
1030.2455412302
 30
0.0
  0
SPLINE
  5
572
100
AcDbEntity
  8
7_ALL_FEATURES
100
AcDbSpline
 62
7
  6
CONTINUOUS
 70
0
 71
3
 72
9
 73
5
 74
0
 42
0.0000001
 43
0.0000001
 44
0.0000000001
 40
0.0
 40
0.0
 40
0.0
 40
0.0
 40
0.5033837483
 40
1.0
 40
1.0
 40
1.0
 40
1.0
 10
2206.912497505
 20
1030.2455412302
 30
0.0
 10
2206.8214806932
 20
1030.1754764557
 30
0.0
 10
2206.6556232157
 20
1029.9623339898
 30
0.0
 10
2206.7882923536
 20
1029.7186841983
 30
0.0
 10
2206.8748422594
 20
1029.6455412302
 30
0.0
  0
SPLINE
  5
573
100
AcDbEntity
  8
7_ALL_FEATURES
100
AcDbSpline
 62
7
  6
CONTINUOUS
 70
0
 71
3
 72
9
 73
5
 74
0
 42
0.0000001
 43
0.0000001
 44
0.0000000001
 40
0.0
 40
0.0
 40
0.0
 40
0.0
 40
0.4973334647
 40
1.0
 40
1.0
 40
1.0
 40
1.0
 10
2697.3520765393
 20
1029.6455412302
 30
0.0
 10
2697.4387268575
 20
1029.7187690565
 30
0.0
 10
2697.5708948894
 20
1029.9626694277
 30
0.0
 10
2697.4052826487
 20
1030.1755961265
 30
0.0
 10
2697.3144212937
 20
1030.2455412302
 30
0.0
  0
SPLINE
  5
574
100
AcDbEntity
  8
7_ALL_FEATURES
100
AcDbSpline
 62
7
  6
CONTINUOUS
 70
0
 71
3
 72
9
 73
5
 74
0
 42
0.0000001
 43
0.0000001
 44
0.0000000001
 40
0.0
 40
0.0
 40
0.0
 40
0.0
 40
0.5033837483
 40
1.0
 40
1.0
 40
1.0
 40
1.0
 10
2456.912497505
 20
1030.2455412302
 30
0.0
 10
2456.8214806932
 20
1030.1754764557
 30
0.0
 10
2456.6556232157
 20
1029.9623339898
 30
0.0
 10
2456.7882923536
 20
1029.7186841983
 30
0.0
 10
2456.8748422594
 20
1029.6455412302
 30
0.0
  0
SPLINE
  5
575
100
AcDbEntity
  8
7_ALL_FEATURES
100
AcDbSpline
 62
7
  6
CONTINUOUS
 70
0
 71
3
 72
9
 73
5
 74
0
 42
0.0000001
 43
0.0000001
 44
0.0000000001
 40
0.0
 40
0.0
 40
0.0
 40
0.0
 40
0.4973334647
 40
1.0
 40
1.0
 40
1.0
 40
1.0
 10
2947.3520765393
 20
1029.6455412302
 30
0.0
 10
2947.4387268575
 20
1029.7187690565
 30
0.0
 10
2947.5708948894
 20
1029.9626694277
 30
0.0
 10
2947.4052826487
 20
1030.1755961265
 30
0.0
 10
2947.3144212937
 20
1030.2455412302
 30
0.0
  0
SPLINE
  5
576
100
AcDbEntity
  8
7_ALL_FEATURES
100
AcDbSpline
 62
7
  6
CONTINUOUS
 70
0
 71
3
 72
9
 73
5
 74
0
 42
0.0000001
 43
0.0000001
 44
0.0000000001
 40
0.0
 40
0.0
 40
0.0
 40
0.0
 40
0.5033837483
 40
1.0
 40
1.0
 40
1.0
 40
1.0
 10
2706.912497505
 20
1030.2455412302
 30
0.0
 10
2706.8214806932
 20
1030.1754764557
 30
0.0
 10
2706.6556232157
 20
1029.9623339898
 30
0.0
 10
2706.7882923536
 20
1029.7186841983
 30
0.0
 10
2706.8748422594
 20
1029.6455412302
 30
0.0
  0
SPLINE
  5
577
100
AcDbEntity
  8
7_ALL_FEATURES
100
AcDbSpline
 62
7
  6
CONTINUOUS
 70
0
 71
3
 72
9
 73
5
 74
0
 42
0.0000001
 43
0.0000001
 44
0.0000000001
 40
0.0
 40
0.0
 40
0.0
 40
0.0
 40
0.5033837483
 40
1.0
 40
1.0
 40
1.0
 40
1.0
 10
2956.912497505
 20
1030.2455412302
 30
0.0
 10
2956.8214806932
 20
1030.1754764557
 30
0.0
 10
2956.6556232157
 20
1029.9623339898
 30
0.0
 10
2956.7882923536
 20
1029.7186841983
 30
0.0
 10
2956.8748422594
 20
1029.6455412302
 30
0.0
  0
SPLINE
  5
578
100
AcDbEntity
  8
6_ALL_SURFS
100
AcDbSpline
 62
7
  6
CONTINUOUS
 70
0
 71
3
 72
9
 73
5
 74
0
 42
0.0000001
 43
0.0000001
 44
0.0000000001
 40
0.0
 40
0.0
 40
0.0
 40
0.0
 40
0.5033837483
 40
1.0
 40
1.0
 40
1.0
 40
1.0
 10
2956.912497505
 20
1100.3455412302
 30
0.0
 10
2956.8214806932
 20
1100.4156060046
 30
0.0
 10
2956.6556232157
 20
1100.6287484706
 30
0.0
 10
2956.7882923536
 20
1100.872398262
 30
0.0
 10
2956.8748422594
 20
1100.9455412302
 30
0.0
  0
SPLINE
  5
579
100
AcDbEntity
  8
6_ALL_SURFS
100
AcDbSpline
 62
7
  6
CONTINUOUS
 70
0
 71
3
 72
9
 73
5
 74
0
 42
0.0000001
 43
0.0000001
 44
0.0000000001
 40
0.0
 40
0.0
 40
0.0
 40
0.0
 40
0.5033837483
 40
1.0
 40
1.0
 40
1.0
 40
1.0
 10
2706.912497505
 20
1100.3455412302
 30
0.0
 10
2706.8214806932
 20
1100.4156060046
 30
0.0
 10
2706.6556232157
 20
1100.6287484706
 30
0.0
 10
2706.7882923536
 20
1100.872398262
 30
0.0
 10
2706.8748422594
 20
1100.9455412302
 30
0.0
  0
SPLINE
  5
57A
100
AcDbEntity
  8
6_ALL_SURFS
100
AcDbSpline
 62
7
  6
CONTINUOUS
 70
0
 71
3
 72
9
 73
5
 74
0
 42
0.0000001
 43
0.0000001
 44
0.0000000001
 40
0.0
 40
0.0
 40
0.0
 40
0.0
 40
0.4973334647
 40
1.0
 40
1.0
 40
1.0
 40
1.0
 10
2947.3520765393
 20
1100.9455412302
 30
0.0
 10
2947.4387268575
 20
1100.8723134039
 30
0.0
 10
2947.5708948894
 20
1100.6284130327
 30
0.0
 10
2947.4052826487
 20
1100.4154863339
 30
0.0
 10
2947.3144212937
 20
1100.3455412302
 30
0.0
  0
SPLINE
  5
57B
100
AcDbEntity
  8
6_ALL_SURFS
100
AcDbSpline
 62
7
  6
CONTINUOUS
 70
0
 71
3
 72
9
 73
5
 74
0
 42
0.0000001
 43
0.0000001
 44
0.0000000001
 40
0.0
 40
0.0
 40
0.0
 40
0.0
 40
0.5033837483
 40
1.0
 40
1.0
 40
1.0
 40
1.0
 10
2456.912497505
 20
1100.3455412302
 30
0.0
 10
2456.8214806932
 20
1100.4156060046
 30
0.0
 10
2456.6556232157
 20
1100.6287484706
 30
0.0
 10
2456.7882923536
 20
1100.872398262
 30
0.0
 10
2456.8748422594
 20
1100.9455412302
 30
0.0
  0
SPLINE
  5
57C
100
AcDbEntity
  8
6_ALL_SURFS
100
AcDbSpline
 62
7
  6
CONTINUOUS
 70
0
 71
3
 72
9
 73
5
 74
0
 42
0.0000001
 43
0.0000001
 44
0.0000000001
 40
0.0
 40
0.0
 40
0.0
 40
0.0
 40
0.4973334647
 40
1.0
 40
1.0
 40
1.0
 40
1.0
 10
2697.3520765393
 20
1100.9455412302
 30
0.0
 10
2697.4387268575
 20
1100.8723134039
 30
0.0
 10
2697.5708948894
 20
1100.6284130327
 30
0.0
 10
2697.4052826487
 20
1100.4154863339
 30
0.0
 10
2697.3144212937
 20
1100.3455412302
 30
0.0
  0
SPLINE
  5
57D
100
AcDbEntity
  8
6_ALL_SURFS
100
AcDbSpline
 62
7
  6
CONTINUOUS
 70
0
 71
3
 72
9
 73
5
 74
0
 42
0.0000001
 43
0.0000001
 44
0.0000000001
 40
0.0
 40
0.0
 40
0.0
 40
0.0
 40
0.5033837483
 40
1.0
 40
1.0
 40
1.0
 40
1.0
 10
2206.912497505
 20
1100.3455412302
 30
0.0
 10
2206.8214806932
 20
1100.4156060046
 30
0.0
 10
2206.6556232157
 20
1100.6287484706
 30
0.0
 10
2206.7882923536
 20
1100.872398262
 30
0.0
 10
2206.8748422594
 20
1100.9455412302
 30
0.0
  0
SPLINE
  5
57E
100
AcDbEntity
  8
6_ALL_SURFS
100
AcDbSpline
 62
7
  6
CONTINUOUS
 70
0
 71
3
 72
9
 73
5
 74
0
 42
0.0000001
 43
0.0000001
 44
0.0000000001
 40
0.0
 40
0.0
 40
0.0
 40
0.0
 40
0.4973334647
 40
1.0
 40
1.0
 40
1.0
 40
1.0
 10
2447.3520765393
 20
1100.9455412302
 30
0.0
 10
2447.4387268575
 20
1100.8723134039
 30
0.0
 10
2447.5708948894
 20
1100.6284130327
 30
0.0
 10
2447.4052826487
 20
1100.4154863339
 30
0.0
 10
2447.3144212937
 20
1100.3455412302
 30
0.0
  0
SPLINE
  5
57F
100
AcDbEntity
  8
6_ALL_SURFS
100
AcDbSpline
 62
7
  6
CONTINUOUS
 70
0
 71
3
 72
9
 73
5
 74
0
 42
0.0000001
 43
0.0000001
 44
0.0000000001
 40
0.0
 40
0.0
 40
0.0
 40
0.0
 40
0.5033837483
 40
1.0
 40
1.0
 40
1.0
 40
1.0
 10
1956.912497505
 20
1100.3455412302
 30
0.0
 10
1956.8214806932
 20
1100.4156060046
 30
0.0
 10
1956.6556232157
 20
1100.6287484706
 30
0.0
 10
1956.7882923536
 20
1100.872398262
 30
0.0
 10
1956.8748422594
 20
1100.9455412302
 30
0.0
  0
SPLINE
  5
580
100
AcDbEntity
  8
6_ALL_SURFS
100
AcDbSpline
 62
7
  6
CONTINUOUS
 70
0
 71
3
 72
9
 73
5
 74
0
 42
0.0000001
 43
0.0000001
 44
0.0000000001
 40
0.0
 40
0.0
 40
0.0
 40
0.0
 40
0.4973334647
 40
1.0
 40
1.0
 40
1.0
 40
1.0
 10
2197.3520765393
 20
1100.9455412302
 30
0.0
 10
2197.4387268575
 20
1100.8723134039
 30
0.0
 10
2197.5708948894
 20
1100.6284130327
 30
0.0
 10
2197.4052826487
 20
1100.4154863339
 30
0.0
 10
2197.3144212937
 20
1100.3455412302
 30
0.0
  0
SPLINE
  5
581
100
AcDbEntity
  8
6_ALL_SURFS
100
AcDbSpline
 62
7
  6
CONTINUOUS
 70
0
 71
3
 72
9
 73
5
 74
0
 42
0.0000001
 43
0.0000001
 44
0.0000000001
 40
0.0
 40
0.0
 40
0.0
 40
0.0
 40
0.5033837483
 40
1.0
 40
1.0
 40
1.0
 40
1.0
 10
1706.912497505
 20
1100.3455412302
 30
0.0
 10
1706.8214806932
 20
1100.4156060046
 30
0.0
 10
1706.6556232157
 20
1100.6287484706
 30
0.0
 10
1706.7882923536
 20
1100.872398262
 30
0.0
 10
1706.8748422594
 20
1100.9455412302
 30
0.0
  0
SPLINE
  5
582
100
AcDbEntity
  8
6_ALL_SURFS
100
AcDbSpline
 62
7
  6
CONTINUOUS
 70
0
 71
3
 72
9
 73
5
 74
0
 42
0.0000001
 43
0.0000001
 44
0.0000000001
 40
0.0
 40
0.0
 40
0.0
 40
0.0
 40
0.4973334647
 40
1.0
 40
1.0
 40
1.0
 40
1.0
 10
1947.3520765393
 20
1100.9455412302
 30
0.0
 10
1947.4387268575
 20
1100.8723134039
 30
0.0
 10
1947.5708948894
 20
1100.6284130327
 30
0.0
 10
1947.4052826487
 20
1100.4154863339
 30
0.0
 10
1947.3144212937
 20
1100.3455412302
 30
0.0
  0
SPLINE
  5
583
100
AcDbEntity
  8
6_ALL_SURFS
100
AcDbSpline
 62
7
  6
CONTINUOUS
 70
0
 71
3
 72
9
 73
5
 74
0
 42
0.0000001
 43
0.0000001
 44
0.0000000001
 40
0.0
 40
0.0
 40
0.0
 40
0.0
 40
0.5033837483
 40
1.0
 40
1.0
 40
1.0
 40
1.0
 10
1456.912497505
 20
1100.3455412302
 30
0.0
 10
1456.8214806932
 20
1100.4156060046
 30
0.0
 10
1456.6556232157
 20
1100.6287484706
 30
0.0
 10
1456.7882923536
 20
1100.872398262
 30
0.0
 10
1456.8748422594
 20
1100.9455412302
 30
0.0
  0
SPLINE
  5
584
100
AcDbEntity
  8
6_ALL_SURFS
100
AcDbSpline
 62
7
  6
CONTINUOUS
 70
0
 71
3
 72
9
 73
5
 74
0
 42
0.0000001
 43
0.0000001
 44
0.0000000001
 40
0.0
 40
0.0
 40
0.0
 40
0.0
 40
0.4973334647
 40
1.0
 40
1.0
 40
1.0
 40
1.0
 10
1697.3520765393
 20
1100.9455412302
 30
0.0
 10
1697.4387268575
 20
1100.8723134039
 30
0.0
 10
1697.5708948894
 20
1100.6284130327
 30
0.0
 10
1697.4052826487
 20
1100.4154863339
 30
0.0
 10
1697.3144212937
 20
1100.3455412302
 30
0.0
  0
SPLINE
  5
585
100
AcDbEntity
  8
6_ALL_SURFS
100
AcDbSpline
 62
7
  6
CONTINUOUS
 70
0
 71
3
 72
9
 73
5
 74
0
 42
0.0000001
 43
0.0000001
 44
0.0000000001
 40
0.0
 40
0.0
 40
0.0
 40
0.0
 40
0.5033837483
 40
1.0
 40
1.0
 40
1.0
 40
1.0
 10
1206.912497505
 20
1100.3455412302
 30
0.0
 10
1206.8214806932
 20
1100.4156060046
 30
0.0
 10
1206.6556232157
 20
1100.6287484706
 30
0.0
 10
1206.7882923536
 20
1100.872398262
 30
0.0
 10
1206.8748422594
 20
1100.9455412302
 30
0.0
  0
SPLINE
  5
586
100
AcDbEntity
  8
6_ALL_SURFS
100
AcDbSpline
 62
7
  6
CONTINUOUS
 70
0
 71
3
 72
9
 73
5
 74
0
 42
0.0000001
 43
0.0000001
 44
0.0000000001
 40
0.0
 40
0.0
 40
0.0
 40
0.0
 40
0.4973334647
 40
1.0
 40
1.0
 40
1.0
 40
1.0
 10
1447.3520765393
 20
1100.9455412302
 30
0.0
 10
1447.4387268575
 20
1100.8723134039
 30
0.0
 10
1447.5708948894
 20
1100.6284130327
 30
0.0
 10
1447.4052826487
 20
1100.4154863339
 30
0.0
 10
1447.3144212937
 20
1100.3455412302
 30
0.0
  0
SPLINE
  5
587
100
AcDbEntity
  8
6_ALL_SURFS
100
AcDbSpline
 62
7
  6
CONTINUOUS
 70
0
 71
3
 72
9
 73
5
 74
0
 42
0.0000001
 43
0.0000001
 44
0.0000000001
 40
0.0
 40
0.0
 40
0.0
 40
0.0
 40
0.5033837483
 40
1.0
 40
1.0
 40
1.0
 40
1.0
 10
956.912497505
 20
1100.3455412302
 30
0.0
 10
956.8214806932
 20
1100.4156060046
 30
0.0
 10
956.6556232157
 20
1100.6287484706
 30
0.0
 10
956.7882923536
 20
1100.872398262
 30
0.0
 10
956.8748422594
 20
1100.9455412302
 30
0.0
  0
SPLINE
  5
588
100
AcDbEntity
  8
6_ALL_SURFS
100
AcDbSpline
 62
7
  6
CONTINUOUS
 70
0
 71
3
 72
9
 73
5
 74
0
 42
0.0000001
 43
0.0000001
 44
0.0000000001
 40
0.0
 40
0.0
 40
0.0
 40
0.0
 40
0.4973334647
 40
1.0
 40
1.0
 40
1.0
 40
1.0
 10
1197.3520765393
 20
1100.9455412302
 30
0.0
 10
1197.4387268575
 20
1100.8723134039
 30
0.0
 10
1197.5708948894
 20
1100.6284130327
 30
0.0
 10
1197.4052826487
 20
1100.4154863339
 30
0.0
 10
1197.3144212937
 20
1100.3455412302
 30
0.0
  0
SPLINE
  5
589
100
AcDbEntity
  8
6_ALL_SURFS
100
AcDbSpline
 62
7
  6
CONTINUOUS
 70
0
 71
3
 72
9
 73
5
 74
0
 42
0.0000001
 43
0.0000001
 44
0.0000000001
 40
0.0
 40
0.0
 40
0.0
 40
0.0
 40
0.5033837483
 40
1.0
 40
1.0
 40
1.0
 40
1.0
 10
706.912497505
 20
1100.3455412302
 30
0.0
 10
706.8214806932
 20
1100.4156060046
 30
0.0
 10
706.6556232157
 20
1100.6287484706
 30
0.0
 10
706.7882923536
 20
1100.872398262
 30
0.0
 10
706.8748422594
 20
1100.9455412302
 30
0.0
  0
SPLINE
  5
58A
100
AcDbEntity
  8
6_ALL_SURFS
100
AcDbSpline
 62
7
  6
CONTINUOUS
 70
0
 71
3
 72
9
 73
5
 74
0
 42
0.0000001
 43
0.0000001
 44
0.0000000001
 40
0.0
 40
0.0
 40
0.0
 40
0.0
 40
0.4973334647
 40
1.0
 40
1.0
 40
1.0
 40
1.0
 10
947.3520765393
 20
1100.9455412302
 30
0.0
 10
947.4387268575
 20
1100.8723134039
 30
0.0
 10
947.5708948894
 20
1100.6284130327
 30
0.0
 10
947.4052826487
 20
1100.4154863339
 30
0.0
 10
947.3144212937
 20
1100.3455412302
 30
0.0
  0
SPLINE
  5
58B
100
AcDbEntity
  8
6_ALL_SURFS
100
AcDbSpline
 62
7
  6
CONTINUOUS
 70
0
 71
3
 72
9
 73
5
 74
0
 42
0.0000001
 43
0.0000001
 44
0.0000000001
 40
0.0
 40
0.0
 40
0.0
 40
0.0
 40
0.5033837483
 40
1.0
 40
1.0
 40
1.0
 40
1.0
 10
456.912497505
 20
1100.3455412302
 30
0.0
 10
456.8214806932
 20
1100.4156060046
 30
0.0
 10
456.6556232157
 20
1100.6287484706
 30
0.0
 10
456.7882923536
 20
1100.872398262
 30
0.0
 10
456.8748422594
 20
1100.9455412302
 30
0.0
  0
SPLINE
  5
58C
100
AcDbEntity
  8
6_ALL_SURFS
100
AcDbSpline
 62
7
  6
CONTINUOUS
 70
0
 71
3
 72
9
 73
5
 74
0
 42
0.0000001
 43
0.0000001
 44
0.0000000001
 40
0.0
 40
0.0
 40
0.0
 40
0.0
 40
0.4973334647
 40
1.0
 40
1.0
 40
1.0
 40
1.0
 10
697.3520765393
 20
1100.9455412302
 30
0.0
 10
697.4387268575
 20
1100.8723134039
 30
0.0
 10
697.5708948894
 20
1100.6284130327
 30
0.0
 10
697.4052826487
 20
1100.4154863339
 30
0.0
 10
697.3144212937
 20
1100.3455412302
 30
0.0
  0
SPLINE
  5
58D
100
AcDbEntity
  8
6_ALL_SURFS
100
AcDbSpline
 62
7
  6
CONTINUOUS
 70
0
 71
3
 72
9
 73
5
 74
0
 42
0.0000001
 43
0.0000001
 44
0.0000000001
 40
0.0
 40
0.0
 40
0.0
 40
0.0
 40
0.4973334647
 40
1.0
 40
1.0
 40
1.0
 40
1.0
 10
447.3520765393
 20
1100.9455412302
 30
0.0
 10
447.4387268575
 20
1100.8723134039
 30
0.0
 10
447.5708948894
 20
1100.6284130327
 30
0.0
 10
447.4052826487
 20
1100.4154863339
 30
0.0
 10
447.3144212937
 20
1100.3455412302
 30
0.0
  0
SPLINE
  5
58E
100
AcDbEntity
  8
6_ALL_SURFS
100
AcDbSpline
 62
7
  6
CONTINUOUS
 70
0
 71
3
 72
11
 73
7
 74
0
 42
0.0000001
 43
0.0000001
 44
0.0000000001
 40
0.0
 40
0.0
 40
0.0
 40
0.0
 40
0.2319264254
 40
0.4914444864
 40
0.7485895219
 40
1.0
 40
1.0
 40
1.0
 40
1.0
 10
2955.8592259083
 20
1097.3455412302
 30
0.0
 10
2955.8177719872
 20
1097.393553075
 30
0.0
 10
2955.7846767666
 20
1097.5487640645
 30
0.0
 10
2955.9210485187
 20
1097.7188163515
 30
0.0
 10
2956.0845559925
 20
1097.8479929755
 30
0.0
 10
2956.2073135045
 20
1097.9157198246
 30
0.0
 10
2956.2692706005
 20
1097.9455412302
 30
0.0
  0
SPLINE
  5
58F
100
AcDbEntity
  8
6_ALL_SURFS
100
AcDbSpline
 62
7
  6
CONTINUOUS
 70
0
 71
3
 72
11
 73
7
 74
0
 42
0.0000001
 43
0.0000001
 44
0.0000000001
 40
0.0
 40
0.0
 40
0.0
 40
0.0
 40
0.2319264254
 40
0.4914444864
 40
0.7485895219
 40
1.0
 40
1.0
 40
1.0
 40
1.0
 10
2705.8592259083
 20
1097.3455412302
 30
0.0
 10
2705.8177719872
 20
1097.393553075
 30
0.0
 10
2705.7846767666
 20
1097.5487640645
 30
0.0
 10
2705.9210485187
 20
1097.7188163515
 30
0.0
 10
2706.0845559925
 20
1097.8479929755
 30
0.0
 10
2706.2073135045
 20
1097.9157198246
 30
0.0
 10
2706.2692706005
 20
1097.9455412302
 30
0.0
  0
SPLINE
  5
590
100
AcDbEntity
  8
6_ALL_SURFS
100
AcDbSpline
 62
7
  6
CONTINUOUS
 70
0
 71
3
 72
11
 73
7
 74
0
 42
0.0000001
 43
0.0000001
 44
0.0000000001
 40
0.0
 40
0.0
 40
0.0
 40
0.0
 40
0.2502466225
 40
0.5061861605
 40
0.7644256387
 40
1.0
 40
1.0
 40
1.0
 40
1.0
 10
2947.9576481982
 20
1097.9455412302
 30
0.0
 10
2948.019346551
 20
1097.9158443637
 30
0.0
 10
2948.1416932619
 20
1097.8485072579
 30
0.0
 10
2948.304205069
 20
1097.7197443509
 30
0.0
 10
2948.4429467308
 20
1097.5511123081
 30
0.0
 10
2948.4098180026
 20
1097.3943304471
 30
0.0
 10
2948.3676928904
 20
1097.3455412302
 30
0.0
  0
SPLINE
  5
591
100
AcDbEntity
  8
6_ALL_SURFS
100
AcDbSpline
 62
7
  6
CONTINUOUS
 70
0
 71
3
 72
11
 73
7
 74
0
 42
0.0000001
 43
0.0000001
 44
0.0000000001
 40
0.0
 40
0.0
 40
0.0
 40
0.0
 40
0.2319264254
 40
0.4914444864
 40
0.7485895219
 40
1.0
 40
1.0
 40
1.0
 40
1.0
 10
2455.8592259083
 20
1097.3455412302
 30
0.0
 10
2455.8177719872
 20
1097.393553075
 30
0.0
 10
2455.7846767666
 20
1097.5487640645
 30
0.0
 10
2455.9210485187
 20
1097.7188163515
 30
0.0
 10
2456.0845559925
 20
1097.8479929755
 30
0.0
 10
2456.2073135045
 20
1097.9157198246
 30
0.0
 10
2456.2692706005
 20
1097.9455412302
 30
0.0
  0
SPLINE
  5
592
100
AcDbEntity
  8
6_ALL_SURFS
100
AcDbSpline
 62
7
  6
CONTINUOUS
 70
0
 71
3
 72
11
 73
7
 74
0
 42
0.0000001
 43
0.0000001
 44
0.0000000001
 40
0.0
 40
0.0
 40
0.0
 40
0.0
 40
0.2502466225
 40
0.5061861605
 40
0.7644256387
 40
1.0
 40
1.0
 40
1.0
 40
1.0
 10
2697.9576481982
 20
1097.9455412302
 30
0.0
 10
2698.019346551
 20
1097.9158443637
 30
0.0
 10
2698.1416932619
 20
1097.8485072579
 30
0.0
 10
2698.304205069
 20
1097.7197443509
 30
0.0
 10
2698.4429467308
 20
1097.5511123081
 30
0.0
 10
2698.4098180026
 20
1097.3943304471
 30
0.0
 10
2698.3676928904
 20
1097.3455412302
 30
0.0
  0
SPLINE
  5
593
100
AcDbEntity
  8
6_ALL_SURFS
100
AcDbSpline
 62
7
  6
CONTINUOUS
 70
0
 71
3
 72
11
 73
7
 74
0
 42
0.0000001
 43
0.0000001
 44
0.0000000001
 40
0.0
 40
0.0
 40
0.0
 40
0.0
 40
0.2319264254
 40
0.4914444864
 40
0.7485895219
 40
1.0
 40
1.0
 40
1.0
 40
1.0
 10
2205.8592259083
 20
1097.3455412302
 30
0.0
 10
2205.8177719872
 20
1097.393553075
 30
0.0
 10
2205.7846767666
 20
1097.5487640645
 30
0.0
 10
2205.9210485187
 20
1097.7188163515
 30
0.0
 10
2206.0845559925
 20
1097.8479929755
 30
0.0
 10
2206.2073135045
 20
1097.9157198246
 30
0.0
 10
2206.2692706005
 20
1097.9455412302
 30
0.0
  0
SPLINE
  5
594
100
AcDbEntity
  8
6_ALL_SURFS
100
AcDbSpline
 62
7
  6
CONTINUOUS
 70
0
 71
3
 72
11
 73
7
 74
0
 42
0.0000001
 43
0.0000001
 44
0.0000000001
 40
0.0
 40
0.0
 40
0.0
 40
0.0
 40
0.2502466225
 40
0.5061861605
 40
0.7644256387
 40
1.0
 40
1.0
 40
1.0
 40
1.0
 10
2447.9576481982
 20
1097.9455412302
 30
0.0
 10
2448.019346551
 20
1097.9158443637
 30
0.0
 10
2448.1416932619
 20
1097.8485072579
 30
0.0
 10
2448.304205069
 20
1097.7197443509
 30
0.0
 10
2448.4429467308
 20
1097.5511123081
 30
0.0
 10
2448.4098180026
 20
1097.3943304471
 30
0.0
 10
2448.3676928904
 20
1097.3455412302
 30
0.0
  0
SPLINE
  5
595
100
AcDbEntity
  8
6_ALL_SURFS
100
AcDbSpline
 62
7
  6
CONTINUOUS
 70
0
 71
3
 72
11
 73
7
 74
0
 42
0.0000001
 43
0.0000001
 44
0.0000000001
 40
0.0
 40
0.0
 40
0.0
 40
0.0
 40
0.2319264254
 40
0.4914444864
 40
0.7485895219
 40
1.0
 40
1.0
 40
1.0
 40
1.0
 10
1955.8592259083
 20
1097.3455412302
 30
0.0
 10
1955.8177719872
 20
1097.393553075
 30
0.0
 10
1955.7846767666
 20
1097.5487640645
 30
0.0
 10
1955.9210485187
 20
1097.7188163515
 30
0.0
 10
1956.0845559925
 20
1097.8479929755
 30
0.0
 10
1956.2073135045
 20
1097.9157198246
 30
0.0
 10
1956.2692706005
 20
1097.9455412302
 30
0.0
  0
SPLINE
  5
596
100
AcDbEntity
  8
6_ALL_SURFS
100
AcDbSpline
 62
7
  6
CONTINUOUS
 70
0
 71
3
 72
11
 73
7
 74
0
 42
0.0000001
 43
0.0000001
 44
0.0000000001
 40
0.0
 40
0.0
 40
0.0
 40
0.0
 40
0.2502466225
 40
0.5061861605
 40
0.7644256387
 40
1.0
 40
1.0
 40
1.0
 40
1.0
 10
2197.9576481982
 20
1097.9455412302
 30
0.0
 10
2198.019346551
 20
1097.9158443637
 30
0.0
 10
2198.1416932619
 20
1097.8485072579
 30
0.0
 10
2198.304205069
 20
1097.7197443509
 30
0.0
 10
2198.4429467308
 20
1097.5511123081
 30
0.0
 10
2198.4098180026
 20
1097.3943304471
 30
0.0
 10
2198.3676928904
 20
1097.3455412302
 30
0.0
  0
SPLINE
  5
597
100
AcDbEntity
  8
6_ALL_SURFS
100
AcDbSpline
 62
7
  6
CONTINUOUS
 70
0
 71
3
 72
11
 73
7
 74
0
 42
0.0000001
 43
0.0000001
 44
0.0000000001
 40
0.0
 40
0.0
 40
0.0
 40
0.0
 40
0.2319264254
 40
0.4914444864
 40
0.7485895219
 40
1.0
 40
1.0
 40
1.0
 40
1.0
 10
1705.8592259083
 20
1097.3455412302
 30
0.0
 10
1705.8177719872
 20
1097.393553075
 30
0.0
 10
1705.7846767666
 20
1097.5487640645
 30
0.0
 10
1705.9210485187
 20
1097.7188163515
 30
0.0
 10
1706.0845559925
 20
1097.8479929755
 30
0.0
 10
1706.2073135045
 20
1097.9157198246
 30
0.0
 10
1706.2692706005
 20
1097.9455412302
 30
0.0
  0
SPLINE
  5
598
100
AcDbEntity
  8
6_ALL_SURFS
100
AcDbSpline
 62
7
  6
CONTINUOUS
 70
0
 71
3
 72
11
 73
7
 74
0
 42
0.0000001
 43
0.0000001
 44
0.0000000001
 40
0.0
 40
0.0
 40
0.0
 40
0.0
 40
0.2502466225
 40
0.5061861605
 40
0.7644256387
 40
1.0
 40
1.0
 40
1.0
 40
1.0
 10
1947.9576481982
 20
1097.9455412302
 30
0.0
 10
1948.019346551
 20
1097.9158443637
 30
0.0
 10
1948.1416932619
 20
1097.8485072579
 30
0.0
 10
1948.304205069
 20
1097.7197443509
 30
0.0
 10
1948.4429467308
 20
1097.5511123081
 30
0.0
 10
1948.4098180026
 20
1097.3943304471
 30
0.0
 10
1948.3676928904
 20
1097.3455412302
 30
0.0
  0
SPLINE
  5
599
100
AcDbEntity
  8
6_ALL_SURFS
100
AcDbSpline
 62
7
  6
CONTINUOUS
 70
0
 71
3
 72
11
 73
7
 74
0
 42
0.0000001
 43
0.0000001
 44
0.0000000001
 40
0.0
 40
0.0
 40
0.0
 40
0.0
 40
0.2319264254
 40
0.4914444864
 40
0.7485895219
 40
1.0
 40
1.0
 40
1.0
 40
1.0
 10
1455.8592259083
 20
1097.3455412302
 30
0.0
 10
1455.8177719872
 20
1097.393553075
 30
0.0
 10
1455.7846767666
 20
1097.5487640645
 30
0.0
 10
1455.9210485187
 20
1097.7188163515
 30
0.0
 10
1456.0845559925
 20
1097.8479929755
 30
0.0
 10
1456.2073135045
 20
1097.9157198246
 30
0.0
 10
1456.2692706005
 20
1097.9455412302
 30
0.0
  0
SPLINE
  5
59A
100
AcDbEntity
  8
6_ALL_SURFS
100
AcDbSpline
 62
7
  6
CONTINUOUS
 70
0
 71
3
 72
11
 73
7
 74
0
 42
0.0000001
 43
0.0000001
 44
0.0000000001
 40
0.0
 40
0.0
 40
0.0
 40
0.0
 40
0.2502466225
 40
0.5061861605
 40
0.7644256387
 40
1.0
 40
1.0
 40
1.0
 40
1.0
 10
1697.9576481982
 20
1097.9455412302
 30
0.0
 10
1698.019346551
 20
1097.9158443637
 30
0.0
 10
1698.1416932619
 20
1097.8485072579
 30
0.0
 10
1698.304205069
 20
1097.7197443509
 30
0.0
 10
1698.4429467308
 20
1097.5511123081
 30
0.0
 10
1698.4098180026
 20
1097.3943304471
 30
0.0
 10
1698.3676928904
 20
1097.3455412302
 30
0.0
  0
SPLINE
  5
59B
100
AcDbEntity
  8
6_ALL_SURFS
100
AcDbSpline
 62
7
  6
CONTINUOUS
 70
0
 71
3
 72
11
 73
7
 74
0
 42
0.0000001
 43
0.0000001
 44
0.0000000001
 40
0.0
 40
0.0
 40
0.0
 40
0.0
 40
0.2319264254
 40
0.4914444864
 40
0.7485895219
 40
1.0
 40
1.0
 40
1.0
 40
1.0
 10
1205.8592259083
 20
1097.3455412302
 30
0.0
 10
1205.8177719872
 20
1097.393553075
 30
0.0
 10
1205.7846767666
 20
1097.5487640645
 30
0.0
 10
1205.9210485187
 20
1097.7188163515
 30
0.0
 10
1206.0845559925
 20
1097.8479929755
 30
0.0
 10
1206.2073135045
 20
1097.9157198246
 30
0.0
 10
1206.2692706005
 20
1097.9455412302
 30
0.0
  0
SPLINE
  5
59C
100
AcDbEntity
  8
6_ALL_SURFS
100
AcDbSpline
 62
7
  6
CONTINUOUS
 70
0
 71
3
 72
11
 73
7
 74
0
 42
0.0000001
 43
0.0000001
 44
0.0000000001
 40
0.0
 40
0.0
 40
0.0
 40
0.0
 40
0.2502466225
 40
0.5061861605
 40
0.7644256387
 40
1.0
 40
1.0
 40
1.0
 40
1.0
 10
1447.9576481982
 20
1097.9455412302
 30
0.0
 10
1448.019346551
 20
1097.9158443637
 30
0.0
 10
1448.1416932619
 20
1097.8485072579
 30
0.0
 10
1448.304205069
 20
1097.7197443509
 30
0.0
 10
1448.4429467308
 20
1097.5511123081
 30
0.0
 10
1448.4098180026
 20
1097.3943304471
 30
0.0
 10
1448.3676928904
 20
1097.3455412302
 30
0.0
  0
SPLINE
  5
59D
100
AcDbEntity
  8
6_ALL_SURFS
100
AcDbSpline
 62
7
  6
CONTINUOUS
 70
0
 71
3
 72
11
 73
7
 74
0
 42
0.0000001
 43
0.0000001
 44
0.0000000001
 40
0.0
 40
0.0
 40
0.0
 40
0.0
 40
0.2319264254
 40
0.4914444864
 40
0.7485895219
 40
1.0
 40
1.0
 40
1.0
 40
1.0
 10
955.8592259083
 20
1097.3455412302
 30
0.0
 10
955.8177719872
 20
1097.393553075
 30
0.0
 10
955.7846767666
 20
1097.5487640645
 30
0.0
 10
955.9210485187
 20
1097.7188163515
 30
0.0
 10
956.0845559925
 20
1097.8479929755
 30
0.0
 10
956.2073135045
 20
1097.9157198246
 30
0.0
 10
956.2692706005
 20
1097.9455412302
 30
0.0
  0
SPLINE
  5
59E
100
AcDbEntity
  8
6_ALL_SURFS
100
AcDbSpline
 62
7
  6
CONTINUOUS
 70
0
 71
3
 72
11
 73
7
 74
0
 42
0.0000001
 43
0.0000001
 44
0.0000000001
 40
0.0
 40
0.0
 40
0.0
 40
0.0
 40
0.2502466225
 40
0.5061861605
 40
0.7644256387
 40
1.0
 40
1.0
 40
1.0
 40
1.0
 10
1197.9576481982
 20
1097.9455412302
 30
0.0
 10
1198.019346551
 20
1097.9158443637
 30
0.0
 10
1198.1416932619
 20
1097.8485072579
 30
0.0
 10
1198.304205069
 20
1097.7197443509
 30
0.0
 10
1198.4429467308
 20
1097.5511123081
 30
0.0
 10
1198.4098180026
 20
1097.3943304471
 30
0.0
 10
1198.3676928904
 20
1097.3455412302
 30
0.0
  0
SPLINE
  5
59F
100
AcDbEntity
  8
6_ALL_SURFS
100
AcDbSpline
 62
7
  6
CONTINUOUS
 70
0
 71
3
 72
11
 73
7
 74
0
 42
0.0000001
 43
0.0000001
 44
0.0000000001
 40
0.0
 40
0.0
 40
0.0
 40
0.0
 40
0.2319264254
 40
0.4914444864
 40
0.7485895219
 40
1.0
 40
1.0
 40
1.0
 40
1.0
 10
705.8592259083
 20
1097.3455412302
 30
0.0
 10
705.8177719872
 20
1097.393553075
 30
0.0
 10
705.7846767666
 20
1097.5487640645
 30
0.0
 10
705.9210485187
 20
1097.7188163515
 30
0.0
 10
706.0845559925
 20
1097.8479929755
 30
0.0
 10
706.2073135045
 20
1097.9157198246
 30
0.0
 10
706.2692706005
 20
1097.9455412302
 30
0.0
  0
SPLINE
  5
5A0
100
AcDbEntity
  8
6_ALL_SURFS
100
AcDbSpline
 62
7
  6
CONTINUOUS
 70
0
 71
3
 72
11
 73
7
 74
0
 42
0.0000001
 43
0.0000001
 44
0.0000000001
 40
0.0
 40
0.0
 40
0.0
 40
0.0
 40
0.2502466225
 40
0.5061861605
 40
0.7644256387
 40
1.0
 40
1.0
 40
1.0
 40
1.0
 10
947.9576481982
 20
1097.9455412302
 30
0.0
 10
948.019346551
 20
1097.9158443637
 30
0.0
 10
948.1416932619
 20
1097.8485072579
 30
0.0
 10
948.304205069
 20
1097.7197443509
 30
0.0
 10
948.4429467308
 20
1097.5511123081
 30
0.0
 10
948.4098180026
 20
1097.3943304471
 30
0.0
 10
948.3676928904
 20
1097.3455412302
 30
0.0
  0
SPLINE
  5
5A1
100
AcDbEntity
  8
6_ALL_SURFS
100
AcDbSpline
 62
7
  6
CONTINUOUS
 70
0
 71
3
 72
11
 73
7
 74
0
 42
0.0000001
 43
0.0000001
 44
0.0000000001
 40
0.0
 40
0.0
 40
0.0
 40
0.0
 40
0.2319264254
 40
0.4914444864
 40
0.7485895219
 40
1.0
 40
1.0
 40
1.0
 40
1.0
 10
455.8592259083
 20
1097.3455412302
 30
0.0
 10
455.8177719872
 20
1097.393553075
 30
0.0
 10
455.7846767666
 20
1097.5487640645
 30
0.0
 10
455.9210485187
 20
1097.7188163515
 30
0.0
 10
456.0845559925
 20
1097.8479929755
 30
0.0
 10
456.2073135045
 20
1097.9157198246
 30
0.0
 10
456.2692706005
 20
1097.9455412302
 30
0.0
  0
SPLINE
  5
5A2
100
AcDbEntity
  8
6_ALL_SURFS
100
AcDbSpline
 62
7
  6
CONTINUOUS
 70
0
 71
3
 72
11
 73
7
 74
0
 42
0.0000001
 43
0.0000001
 44
0.0000000001
 40
0.0
 40
0.0
 40
0.0
 40
0.0
 40
0.2502466225
 40
0.5061861605
 40
0.7644256387
 40
1.0
 40
1.0
 40
1.0
 40
1.0
 10
697.9576481982
 20
1097.9455412302
 30
0.0
 10
698.019346551
 20
1097.9158443637
 30
0.0
 10
698.1416932619
 20
1097.8485072579
 30
0.0
 10
698.304205069
 20
1097.7197443509
 30
0.0
 10
698.4429467308
 20
1097.5511123081
 30
0.0
 10
698.4098180026
 20
1097.3943304471
 30
0.0
 10
698.3676928904
 20
1097.3455412302
 30
0.0
  0
SPLINE
  5
5A3
100
AcDbEntity
  8
6_ALL_SURFS
100
AcDbSpline
 62
7
  6
CONTINUOUS
 70
0
 71
3
 72
11
 73
7
 74
0
 42
0.0000001
 43
0.0000001
 44
0.0000000001
 40
0.0
 40
0.0
 40
0.0
 40
0.0
 40
0.2502466225
 40
0.5061861605
 40
0.7644256387
 40
1.0
 40
1.0
 40
1.0
 40
1.0
 10
447.9576481982
 20
1097.9455412302
 30
0.0
 10
448.019346551
 20
1097.9158443637
 30
0.0
 10
448.1416932619
 20
1097.8485072579
 30
0.0
 10
448.304205069
 20
1097.7197443509
 30
0.0
 10
448.4429467308
 20
1097.5511123081
 30
0.0
 10
448.4098180026
 20
1097.3943304471
 30
0.0
 10
448.3676928904
 20
1097.3455412302
 30
0.0
  0
SPLINE
  5
5A4
100
AcDbEntity
  8
7_ALL_FEATURES
100
AcDbSpline
 62
7
  6
CONTINUOUS
 70
0
 71
3
 72
11
 73
7
 74
0
 42
0.0000001
 43
0.0000001
 44
0.0000000001
 40
0.0
 40
0.0
 40
0.0
 40
0.0
 40
0.2502466225
 40
0.5061861605
 40
0.7644256387
 40
1.0
 40
1.0
 40
1.0
 40
1.0
 10
447.9576481982
 20
1032.6455412302
 30
0.0
 10
448.019346551
 20
1032.6752380967
 30
0.0
 10
448.1416932619
 20
1032.7425752024
 30
0.0
 10
448.304205069
 20
1032.8713381095
 30
0.0
 10
448.4429467308
 20
1033.0399701523
 30
0.0
 10
448.4098180026
 20
1033.1967520133
 30
0.0
 10
448.3676928904
 20
1033.2455412302
 30
0.0
  0
SPLINE
  5
5A5
100
AcDbEntity
  8
7_ALL_FEATURES
100
AcDbSpline
 62
7
  6
CONTINUOUS
 70
0
 71
3
 72
11
 73
7
 74
0
 42
0.0000001
 43
0.0000001
 44
0.0000000001
 40
0.0
 40
0.0
 40
0.0
 40
0.0
 40
0.2502466225
 40
0.5061861605
 40
0.7644256387
 40
1.0
 40
1.0
 40
1.0
 40
1.0
 10
697.9576481982
 20
1032.6455412302
 30
0.0
 10
698.019346551
 20
1032.6752380967
 30
0.0
 10
698.1416932619
 20
1032.7425752024
 30
0.0
 10
698.304205069
 20
1032.8713381095
 30
0.0
 10
698.4429467308
 20
1033.0399701523
 30
0.0
 10
698.4098180026
 20
1033.1967520133
 30
0.0
 10
698.3676928904
 20
1033.2455412302
 30
0.0
  0
SPLINE
  5
5A6
100
AcDbEntity
  8
7_ALL_FEATURES
100
AcDbSpline
 62
7
  6
CONTINUOUS
 70
0
 71
3
 72
11
 73
7
 74
0
 42
0.0000001
 43
0.0000001
 44
0.0000000001
 40
0.0
 40
0.0
 40
0.0
 40
0.0
 40
0.2319264254
 40
0.4914444864
 40
0.7485895219
 40
1.0
 40
1.0
 40
1.0
 40
1.0
 10
455.8592259083
 20
1033.2455412302
 30
0.0
 10
455.8177719872
 20
1033.1975293854
 30
0.0
 10
455.7846767666
 20
1033.0423183959
 30
0.0
 10
455.9210485187
 20
1032.8722661089
 30
0.0
 10
456.0845559925
 20
1032.7430894849
 30
0.0
 10
456.2073135045
 20
1032.6753626358
 30
0.0
 10
456.2692706005
 20
1032.6455412302
 30
0.0
  0
SPLINE
  5
5A7
100
AcDbEntity
  8
7_ALL_FEATURES
100
AcDbSpline
 62
7
  6
CONTINUOUS
 70
0
 71
3
 72
11
 73
7
 74
0
 42
0.0000001
 43
0.0000001
 44
0.0000000001
 40
0.0
 40
0.0
 40
0.0
 40
0.0
 40
0.2502466225
 40
0.5061861605
 40
0.7644256387
 40
1.0
 40
1.0
 40
1.0
 40
1.0
 10
947.9576481982
 20
1032.6455412302
 30
0.0
 10
948.019346551
 20
1032.6752380967
 30
0.0
 10
948.1416932619
 20
1032.7425752024
 30
0.0
 10
948.304205069
 20
1032.8713381095
 30
0.0
 10
948.4429467308
 20
1033.0399701523
 30
0.0
 10
948.4098180026
 20
1033.1967520133
 30
0.0
 10
948.3676928904
 20
1033.2455412302
 30
0.0
  0
SPLINE
  5
5A8
100
AcDbEntity
  8
7_ALL_FEATURES
100
AcDbSpline
 62
7
  6
CONTINUOUS
 70
0
 71
3
 72
11
 73
7
 74
0
 42
0.0000001
 43
0.0000001
 44
0.0000000001
 40
0.0
 40
0.0
 40
0.0
 40
0.0
 40
0.2319264254
 40
0.4914444864
 40
0.7485895219
 40
1.0
 40
1.0
 40
1.0
 40
1.0
 10
705.8592259083
 20
1033.2455412302
 30
0.0
 10
705.8177719872
 20
1033.1975293854
 30
0.0
 10
705.7846767666
 20
1033.0423183959
 30
0.0
 10
705.9210485187
 20
1032.8722661089
 30
0.0
 10
706.0845559925
 20
1032.7430894849
 30
0.0
 10
706.2073135045
 20
1032.6753626358
 30
0.0
 10
706.2692706005
 20
1032.6455412302
 30
0.0
  0
ELLIPSE
  5
5A9
100
AcDbEntity
  8
6_ALL_SURFS
100
AcDbEllipse
 62
7
  6
CONTINUOUS
 10
2702.1134593993
 20
699.5054949944
 30
0.0
 11
3.5
 21
0.0
 31
0.0
 40
0.5
 41
-1.910488903
 42
-1.2311037506
  0
ELLIPSE
  5
5AA
100
AcDbEntity
  8
6_ALL_SURFS
100
AcDbEllipse
 62
7
  6
CONTINUOUS
 10
2452.1134593993
 20
699.5054949944
 30
0.0
 11
3.5
 21
0.0
 31
0.0
 40
0.5
 41
-1.910488903
 42
-1.2311037506
  0
ELLIPSE
  5
5AB
100
AcDbEntity
  8
6_ALL_SURFS
100
AcDbEllipse
 62
7
  6
CONTINUOUS
 10
2202.1134593993
 20
699.5054949944
 30
0.0
 11
3.5
 21
0.0
 31
0.0
 40
0.5
 41
-1.910488903
 42
-1.2311037506
  0
ELLIPSE
  5
5AC
100
AcDbEntity
  8
6_ALL_SURFS
100
AcDbEllipse
 62
7
  6
CONTINUOUS
 10
1952.1134593993
 20
699.5054949944
 30
0.0
 11
3.5
 21
0.0
 31
0.0
 40
0.5
 41
-1.910488903
 42
-1.2311037506
  0
ELLIPSE
  5
5AD
100
AcDbEntity
  8
6_ALL_SURFS
100
AcDbEllipse
 62
7
  6
CONTINUOUS
 10
1702.1134593993
 20
699.5054949944
 30
0.0
 11
3.5
 21
-0.0
 31
0.0
 40
0.5
 41
-1.910488903
 42
-1.2311037506
  0
ELLIPSE
  5
5AE
100
AcDbEntity
  8
6_ALL_SURFS
100
AcDbEllipse
 62
7
  6
CONTINUOUS
 10
1452.1134593993
 20
699.5054949944
 30
0.0
 11
3.5
 21
-0.0
 31
0.0
 40
0.5
 41
-1.910488903
 42
-1.2311037506
  0
ELLIPSE
  5
5AF
100
AcDbEntity
  8
6_ALL_SURFS
100
AcDbEllipse
 62
7
  6
CONTINUOUS
 10
1202.1134593993
 20
699.5054949944
 30
0.0
 11
3.5
 21
0.0
 31
0.0
 40
0.5
 41
-1.910488903
 42
-1.2311037506
  0
ELLIPSE
  5
5B0
100
AcDbEntity
  8
6_ALL_SURFS
100
AcDbEllipse
 62
7
  6
CONTINUOUS
 10
952.1134593993
 20
699.5054949944
 30
0.0
 11
3.5
 21
0.0
 31
0.0
 40
0.5
 41
-1.910488903
 42
-1.2311037506
  0
ELLIPSE
  5
5B1
100
AcDbEntity
  8
6_ALL_SURFS
100
AcDbEllipse
 62
7
  6
CONTINUOUS
 10
702.1134593993
 20
699.5054949944
 30
0.0
 11
3.5
 21
-0.0
 31
0.0
 40
0.5
 41
-1.910488903
 42
-1.2311037506
  0
ELLIPSE
  5
5B2
100
AcDbEntity
  8
6_ALL_SURFS
100
AcDbEllipse
 62
7
  6
CONTINUOUS
 10
452.1134593993
 20
699.5054949944
 30
0.0
 11
3.5
 21
0.0
 31
0.0
 40
0.5
 41
-1.910488903
 42
-1.2311037506
  0
ELLIPSE
  5
5B3
100
AcDbEntity
  8
6_ALL_SURFS
100
AcDbEllipse
 62
7
  6
CONTINUOUS
 10
2952.1134593993
 20
699.5054949944
 30
0.0
 11
3.5
 21
0.0
 31
0.0
 40
0.5
 41
-1.910488903
 42
-1.2311037506
  0
ELLIPSE
  5
5B4
100
AcDbEntity
  8
6_ALL_SURFS
100
AcDbEllipse
 62
7
  6
CONTINUOUS
 10
452.1134593993
 20
696.2589776973
 30
0.0
 11
5.4882058378
 21
0.0
 31
0.0
 40
0.1015346165
 41
0.9294607698
 42
2.2121318838
  0
ELLIPSE
  5
5B5
100
AcDbEntity
  8
6_ALL_SURFS
100
AcDbEllipse
 62
7
  6
CONTINUOUS
 10
702.1134593993
 20
696.2589776973
 30
0.0
 11
5.4882058378
 21
-0.0
 31
0.0
 40
0.1015346165
 41
0.9294607698
 42
2.2121318838
  0
ELLIPSE
  5
5B6
100
AcDbEntity
  8
6_ALL_SURFS
100
AcDbEllipse
 62
7
  6
CONTINUOUS
 10
952.1134593993
 20
696.2589776973
 30
0.0
 11
5.4882058378
 21
0.0
 31
0.0
 40
0.1015346165
 41
0.9294607698
 42
2.2121318838
  0
ELLIPSE
  5
5B7
100
AcDbEntity
  8
6_ALL_SURFS
100
AcDbEllipse
 62
7
  6
CONTINUOUS
 10
1202.1134593993
 20
696.2589776973
 30
0.0
 11
5.4882058378
 21
0.0
 31
0.0
 40
0.1015346165
 41
0.9294607698
 42
2.2121318838
  0
ELLIPSE
  5
5B8
100
AcDbEntity
  8
6_ALL_SURFS
100
AcDbEllipse
 62
7
  6
CONTINUOUS
 10
1452.1134593993
 20
696.2589776973
 30
0.0
 11
5.4882058378
 21
0.0
 31
0.0
 40
0.1015346165
 41
0.9294607698
 42
2.2121318838
  0
ELLIPSE
  5
5B9
100
AcDbEntity
  8
6_ALL_SURFS
100
AcDbEllipse
 62
7
  6
CONTINUOUS
 10
1702.1134593993
 20
696.2589776973
 30
0.0
 11
5.4882058378
 21
0.0
 31
0.0
 40
0.1015346165
 41
0.9294607698
 42
2.2121318838
  0
ELLIPSE
  5
5BA
100
AcDbEntity
  8
6_ALL_SURFS
100
AcDbEllipse
 62
7
  6
CONTINUOUS
 10
1952.1134593993
 20
696.2589776973
 30
0.0
 11
5.4882058378
 21
0.0
 31
0.0
 40
0.1015346165
 41
0.9294607698
 42
2.2121318838
  0
ELLIPSE
  5
5BB
100
AcDbEntity
  8
6_ALL_SURFS
100
AcDbEllipse
 62
7
  6
CONTINUOUS
 10
2202.1134593993
 20
696.2589776973
 30
0.0
 11
5.4882058378
 21
0.0
 31
0.0
 40
0.1015346165
 41
0.9294607698
 42
2.2121318838
  0
ELLIPSE
  5
5BC
100
AcDbEntity
  8
6_ALL_SURFS
100
AcDbEllipse
 62
7
  6
CONTINUOUS
 10
2452.1134593993
 20
696.2589776973
 30
0.0
 11
5.4882058378
 21
-0.0
 31
0.0
 40
0.1015346165
 41
0.9294607698
 42
2.2121318838
  0
ELLIPSE
  5
5BD
100
AcDbEntity
  8
6_ALL_SURFS
100
AcDbEllipse
 62
7
  6
CONTINUOUS
 10
2702.1134593993
 20
696.2589776973
 30
0.0
 11
5.4882058378
 21
0.0
 31
0.0
 40
0.1015346165
 41
0.9294607698
 42
2.2121318838
  0
ELLIPSE
  5
5BE
100
AcDbEntity
  8
6_ALL_SURFS
100
AcDbEllipse
 62
7
  6
CONTINUOUS
 10
2952.1134593993
 20
696.2589776973
 30
0.0
 11
5.4882058378
 21
-0.0
 31
0.0
 40
0.1015346165
 41
7.212646077
 42
8.495317191
  0
ELLIPSE
  5
5BF
100
AcDbEntity
  8
7_ALL_FEATURES
100
AcDbEllipse
 62
7
  6
CONTINUOUS
 10
2952.1134593993
 20
1031.210714202
 30
0.0
 11
-0.0
 21
5.5724287509
 31
0.0
 40
0.9848857802
 41
2.5002570966
 42
3.7829282106
  0
ELLIPSE
  5
5C0
100
AcDbEntity
  8
7_ALL_FEATURES
100
AcDbEllipse
 62
7
  6
CONTINUOUS
 10
452.1134593993
 20
1031.210714202
 30
0.0
 11
-0.0
 21
5.5724287509
 31
0.0
 40
0.9848857802
 41
2.5002570966
 42
3.7829282106
  0
ELLIPSE
  5
5C1
100
AcDbEntity
  8
7_ALL_FEATURES
100
AcDbEllipse
 62
7
  6
CONTINUOUS
 10
702.1134593993
 20
1031.210714202
 30
0.0
 11
-0.0
 21
5.5724287509
 31
0.0
 40
0.9848857802
 41
2.5002570966
 42
3.7829282106
  0
ELLIPSE
  5
5C2
100
AcDbEntity
  8
7_ALL_FEATURES
100
AcDbEllipse
 62
7
  6
CONTINUOUS
 10
952.1134593993
 20
1031.210714202
 30
0.0
 11
-0.0
 21
5.5724287509
 31
0.0
 40
0.9848857802
 41
2.5002570966
 42
3.7829282106
  0
ELLIPSE
  5
5C3
100
AcDbEntity
  8
7_ALL_FEATURES
100
AcDbEllipse
 62
7
  6
CONTINUOUS
 10
1202.1134593993
 20
1031.210714202
 30
0.0
 11
-0.0
 21
5.5724287509
 31
0.0
 40
0.9848857802
 41
2.5002570966
 42
3.7829282106
  0
ELLIPSE
  5
5C4
100
AcDbEntity
  8
7_ALL_FEATURES
100
AcDbEllipse
 62
7
  6
CONTINUOUS
 10
1452.1134593993
 20
1031.210714202
 30
0.0
 11
-0.0
 21
5.5724287509
 31
0.0
 40
0.9848857802
 41
2.5002570966
 42
3.7829282106
  0
ELLIPSE
  5
5C5
100
AcDbEntity
  8
7_ALL_FEATURES
100
AcDbEllipse
 62
7
  6
CONTINUOUS
 10
1702.1134593993
 20
1031.210714202
 30
0.0
 11
-0.0
 21
5.5724287509
 31
0.0
 40
0.9848857802
 41
2.5002570966
 42
3.7829282106
  0
ELLIPSE
  5
5C6
100
AcDbEntity
  8
7_ALL_FEATURES
100
AcDbEllipse
 62
7
  6
CONTINUOUS
 10
1952.1134593993
 20
1031.210714202
 30
0.0
 11
-0.0
 21
5.5724287509
 31
0.0
 40
0.9848857802
 41
2.5002570966
 42
3.7829282106
  0
ELLIPSE
  5
5C7
100
AcDbEntity
  8
7_ALL_FEATURES
100
AcDbEllipse
 62
7
  6
CONTINUOUS
 10
2202.1134593993
 20
1031.210714202
 30
0.0
 11
-0.0
 21
5.5724287509
 31
0.0
 40
0.9848857802
 41
2.5002570966
 42
3.7829282106
  0
ELLIPSE
  5
5C8
100
AcDbEntity
  8
7_ALL_FEATURES
100
AcDbEllipse
 62
7
  6
CONTINUOUS
 10
2452.1134593993
 20
1031.210714202
 30
0.0
 11
-0.0
 21
5.5724287509
 31
0.0
 40
0.9848857802
 41
2.5002570966
 42
3.7829282106
  0
ELLIPSE
  5
5C9
100
AcDbEntity
  8
7_ALL_FEATURES
100
AcDbEllipse
 62
7
  6
CONTINUOUS
 10
2702.1134593993
 20
1031.210714202
 30
0.0
 11
-0.0
 21
5.5724287509
 31
0.0
 40
0.9848857802
 41
2.5002570966
 42
3.7829282106
  0
ELLIPSE
  5
5CA
100
AcDbEntity
  8
6_ALL_SURFS
100
AcDbEllipse
 62
7
  6
CONTINUOUS
 10
452.1134593993
 20
1099.3803682584
 30
0.0
 11
-0.0
 21
5.5724287509
 31
0.0
 40
0.9848857802
 41
-0.641335557
 42
0.641335557
  0
ELLIPSE
  5
5CB
100
AcDbEntity
  8
6_ALL_SURFS
100
AcDbEllipse
 62
7
  6
CONTINUOUS
 10
702.1134593993
 20
1099.3803682584
 30
0.0
 11
-0.0
 21
5.5724287509
 31
0.0
 40
0.9848857802
 41
-0.641335557
 42
0.641335557
  0
ELLIPSE
  5
5CC
100
AcDbEntity
  8
6_ALL_SURFS
100
AcDbEllipse
 62
7
  6
CONTINUOUS
 10
952.1134593993
 20
1099.3803682584
 30
0.0
 11
0.0
 21
5.5724287509
 31
0.0
 40
0.9848857802
 41
-0.641335557
 42
0.641335557
  0
ELLIPSE
  5
5CD
100
AcDbEntity
  8
6_ALL_SURFS
100
AcDbEllipse
 62
7
  6
CONTINUOUS
 10
1202.1134593993
 20
1099.3803682584
 30
0.0
 11
0.0
 21
5.5724287509
 31
0.0
 40
0.9848857802
 41
-0.641335557
 42
0.641335557
  0
ELLIPSE
  5
5CE
100
AcDbEntity
  8
6_ALL_SURFS
100
AcDbEllipse
 62
7
  6
CONTINUOUS
 10
1452.1134593993
 20
1099.3803682584
 30
0.0
 11
0.0
 21
5.5724287509
 31
0.0
 40
0.9848857802
 41
-0.641335557
 42
0.641335557
  0
ELLIPSE
  5
5CF
100
AcDbEntity
  8
6_ALL_SURFS
100
AcDbEllipse
 62
7
  6
CONTINUOUS
 10
1702.1134593993
 20
1099.3803682584
 30
0.0
 11
0.0
 21
5.5724287509
 31
0.0
 40
0.9848857802
 41
-0.641335557
 42
0.641335557
  0
ELLIPSE
  5
5D0
100
AcDbEntity
  8
6_ALL_SURFS
100
AcDbEllipse
 62
7
  6
CONTINUOUS
 10
1952.1134593993
 20
1099.3803682584
 30
0.0
 11
0.0
 21
5.5724287509
 31
0.0
 40
0.9848857802
 41
-0.641335557
 42
0.641335557
  0
ELLIPSE
  5
5D1
100
AcDbEntity
  8
6_ALL_SURFS
100
AcDbEllipse
 62
7
  6
CONTINUOUS
 10
2202.1134593993
 20
1099.3803682584
 30
0.0
 11
0.0
 21
5.5724287509
 31
0.0
 40
0.9848857802
 41
-0.641335557
 42
0.641335557
  0
ELLIPSE
  5
5D2
100
AcDbEntity
  8
6_ALL_SURFS
100
AcDbEllipse
 62
7
  6
CONTINUOUS
 10
2452.1134593993
 20
1099.3803682584
 30
0.0
 11
-0.0
 21
5.5724287509
 31
0.0
 40
0.9848857802
 41
-0.641335557
 42
0.641335557
  0
ELLIPSE
  5
5D3
100
AcDbEntity
  8
6_ALL_SURFS
100
AcDbEllipse
 62
7
  6
CONTINUOUS
 10
2702.1134593993
 20
1099.3803682584
 30
0.0
 11
0.0
 21
5.5724287509
 31
0.0
 40
0.9848857802
 41
-0.641335557
 42
0.641335557
  0
ELLIPSE
  5
5D4
100
AcDbEntity
  8
6_ALL_SURFS
100
AcDbEllipse
 62
7
  6
CONTINUOUS
 10
2952.1134593993
 20
1099.3803682584
 30
0.0
 11
-0.0
 21
5.5724287509
 31
0.0
 40
0.9848857802
 41
5.6418497502
 42
6.9245208642
  0
ENDSEC
  0
SECTION
  2
OBJECTS
  0
DICTIONARY
  5
5D5
100
AcDbDictionary
  3
ACAD_GROUP
350
5D6
  3
ACAD_MLINESTYLE
350
5D7
  0
DICTIONARY
  5
5D6
102
{ACAD_REACTORS
330
5D5
102
}
100
AcDbDictionary
  0
DICTIONARY
  5
5D7
102
{ACAD_REACTORS
330
5D5
102
}
100
AcDbDictionary
  3
STANDARD
350
5D8
  0
MLINESTYLE
  5
5D8
102
{ACAD_REACTORS
330
5D7
102
}
100
AcDbMlineStyle
  2
STANDARD
 70
0
  3

 62
256
 51
90.0
 52
90.0
 71
2
 49
0.5
 62
256
  6
BYLAYER
 49
-0.5
 62
256
  6
BYLAYER
  0
ENDSEC
  0
EOF
