999
DXF file: 6f3_c_147.dxf
999
Pro/ENGINEER 2016360 by Parametric Technology Corporation
  0
SECTION
  2
HEADER
  9
$ACADVER
  1
AC1014
  9
$DWGCODEPAGE
  3
ANSI_1252
  9
$EXTMAX
 10
3200.0
 20
2500.0
 30
0.0
  9
$EXTMIN
 10
0.0
 20
0.0
 30
0.0
  9
$LIMMIN
 10
0.0
 20
0.0
  9
$LIMMAX
 10
3200.0
 20
2500.0
  9
$VIEWCTR
 10
1600.0
 20
1250.0
  9
$VIEWSIZE
 40
2500.0
  9
$CLAYER
  8
0
  9
$LTSCALE
 40
176.0
  9
$CELTYPE
  6
BYLAYER
  9
$DIMSCALE
 40
1.0
  9
$DIMASZ
 40
2.5
  9
$DIMEXO
 40
0.75
  9
$DIMDLI
 40
121.6
  9
$DIMEXE
 40
0.75
  9
$DIMCEN
 40
28.8
  9
$DIMLFAC
 40
1.0
  9
$DIMBLK
  1
_CLOSED
  9
$DIMALT
 70
0
  9
$DIMALTF
 40
25.4
  9
$DIMTXT
 40
3.0
  9
$DIMTOL
 70
1
  9
$DIMLIM
 70
0
  9
$DIMTFAC
 40
1.0
  9
$DIMTP
 40
0.01
  9
$DIMTM
 40
0.01
  9
$DIMGAP
 40
0.625
  9
$AUNITS
 70
0
  9
$PDMODE
 70
3
  9
$PDSIZE
 40
0.3125
  9
$HANDSEED
  5
5BE
  9
$TILEMODE
 70
1
  9
$MEASUREMENT
 70
1
  0
ENDSEC
  0
SECTION
  2
CLASSES
  0
ENDSEC
  0
SECTION
  2
TABLES
  0
TABLE
  2
VPORT
  5
8
100
AcDbSymbolTable
 70
2
  0
VPORT
  5
1F4
100
AcDbSymbolTableRecord
100
AcDbViewportTableRecord
  2
*ACTIVE
 70
0
 10
0.0
 20
0.0
 11
1.0
 21
1.0
 12
1600.0
 22
1250.0
 13
0.0
 23
0.0
 14
1.0
 24
1.0
 15
0.0
 25
0.0
 16
0.0
 26
0.0
 36
1.0
 17
0.0
 27
0.0
 37
0.0
 40
2500.0
 41
1.28
 42
50.0
 43
0.0
 44
0.0
 50
0.0
 51
0.0
 71
0
 72
100
 73
1
 74
1
 75
0
 76
0
 77
0
 78
0
  0
ENDTAB
  0
TABLE
  2
LTYPE
  5
5
100
AcDbSymbolTable
 70
6
  0
LTYPE
  5
14
100
AcDbSymbolTableRecord
100
AcDbLinetypeTableRecord
  2
BYBLOCK
 70
0
  3

 72
65
 73
0
 40
0.0
  0
LTYPE
  5
15
100
AcDbSymbolTableRecord
100
AcDbLinetypeTableRecord
  2
BYLAYER
 70
0
  3

 72
65
 73
0
 40
0.0
  0
LTYPE
  5
16
100
AcDbSymbolTableRecord
100
AcDbLinetypeTableRecord
  2
CONTINUOUS
 70
64
  3
Solid line
 72
65
 73
0
 40
0.0
  0
LTYPE
  5
1F5
100
AcDbSymbolTableRecord
100
AcDbLinetypeTableRecord
  2
CENTER
 70
64
  3
____ _ ____ _ ____ _ ____ _ ____ _ ____ _ ____
 72
65
 73
4
 40
0.6
 49
0.375
 74
0
 49
-0.075
 74
0
 49
0.075
 74
0
 49
-0.075
 74
0
  0
LTYPE
  5
1F6
100
AcDbSymbolTableRecord
100
AcDbLinetypeTableRecord
  2
HIDDEN
 70
64
  3
- - - - - - - - - - - - - - - - - - - -
 72
65
 73
2
 40
0.2
 49
0.1
 74
0
 49
-0.1
 74
0
  0
LTYPE
  5
1F7
100
AcDbSymbolTableRecord
100
AcDbLinetypeTableRecord
  2
PHANTOM
 70
64
  3
_____ _ _ _____ _ _ _____ _ _ _____
 72
65
 73
6
 40
0.8
 49
0.45
 74
0
 49
-0.05
 74
0
 49
0.1
 74
0
 49
-0.05
 74
0
 49
0.1
 74
0
 49
-0.05
 74
0
  0
LTYPE
  5
1F8
100
AcDbSymbolTableRecord
100
AcDbLinetypeTableRecord
  2
DOT
 70
64
  3
. . . . . . . . . . . . . . . . . . . .
 72
65
 73
2
 40
0.2
 49
0.1
 74
0
 49
-0.1
 74
0
  0
LTYPE
  5
1F9
100
AcDbSymbolTableRecord
100
AcDbLinetypeTableRecord
  2
DASHED
 70
64
  3
- - - - - - - - - - - - - - - - - - - -
 72
65
 73
2
 40
0.2
 49
0.1
 74
0
 49
-0.1
 74
0
  0
ENDTAB
  0
TABLE
  2
LAYER
  5
2
100
AcDbSymbolTable
 70
36
  0
LAYER
  5
10
100
AcDbSymbolTableRecord
100
AcDbLayerTableRecord
  2
0
 70
0
 62
7
  6
CONTINUOUS
  0
LAYER
  5
1FA
100
AcDbSymbolTableRecord
100
AcDbLayerTableRecord
  2
DEFAULT_1
 70
0
 62
7
  6
CENTER
  0
LAYER
  5
1FB
100
AcDbSymbolTableRecord
100
AcDbLayerTableRecord
  2
DEFAULT_2
 70
0
 62
8
  6
HIDDEN
  0
LAYER
  5
1FC
100
AcDbSymbolTableRecord
100
AcDbLayerTableRecord
  2
DEFAULT_3
 70
0
 62
7
  6
PHANTOM
  0
LAYER
  5
1FD
100
AcDbSymbolTableRecord
100
AcDbLayerTableRecord
  2
1_ALL_PLANES
 70
0
 62
7
  6
CONTINUOUS
  0
LAYER
  5
1FE
100
AcDbSymbolTableRecord
100
AcDbLayerTableRecord
  2
2_ALL_CSYS
 70
0
 62
7
  6
CONTINUOUS
  0
LAYER
  5
1FF
100
AcDbSymbolTableRecord
100
AcDbLayerTableRecord
  2
3_ALL_AXES
 70
0
 62
7
  6
CONTINUOUS
  0
LAYER
  5
200
100
AcDbSymbolTableRecord
100
AcDbLayerTableRecord
  2
4_ALL_POINTS
 70
0
 62
7
  6
CONTINUOUS
  0
LAYER
  5
201
100
AcDbSymbolTableRecord
100
AcDbLayerTableRecord
  2
5_ALL_CURVES
 70
0
 62
7
  6
CONTINUOUS
  0
LAYER
  5
202
100
AcDbSymbolTableRecord
100
AcDbLayerTableRecord
  2
5__COSTRUZIONE
 70
0
 62
7
  6
CONTINUOUS
  0
LAYER
  5
203
100
AcDbSymbolTableRecord
100
AcDbLayerTableRecord
  2
6_ALL_SURFS
 70
0
 62
7
  6
CONTINUOUS
  0
LAYER
  5
204
100
AcDbSymbolTableRecord
100
AcDbLayerTableRecord
  2
7_ALL_FEATURES
 70
0
 62
7
  6
CONTINUOUS
  0
LAYER
  5
205
100
AcDbSymbolTableRecord
100
AcDbLayerTableRecord
  2
9_SOLID
 70
0
 62
7
  6
CONTINUOUS
  0
LAYER
  5
206
100
AcDbSymbolTableRecord
100
AcDbLayerTableRecord
  2
PR9035
 70
0
 62
7
  6
CONTINUOUS
  0
LAYER
  5
207
100
AcDbSymbolTableRecord
100
AcDbLayerTableRecord
  2
WHITE
 70
0
 62
7
  6
CONTINUOUS
  0
LAYER
  5
208
100
AcDbSymbolTableRecord
100
AcDbLayerTableRecord
  2
XXX_SOLIDO
 70
0
 62
7
  6
CONTINUOUS
  0
ENDTAB
  0
TABLE
  2
STYLE
  5
3
100
AcDbSymbolTable
 70
1
  0
STYLE
  5
11
100
AcDbSymbolTableRecord
100
AcDbTextStyleTableRecord
  2
STANDARD
 70
0
 40
0.0
 41
1.0
 50
0.0
 71
0
 42
0.2
  3
arial.ttf
  4

  0
STYLE
  5
209
100
AcDbSymbolTableRecord
100
AcDbTextStyleTableRecord
  2
TEXTSTYLE_1
 70
0
 40
0.0
 41
0.8
 50
0.0
 71
0
 42
0.2
  3
gdt
  4

  0
STYLE
  5
20A
100
AcDbSymbolTableRecord
100
AcDbTextStyleTableRecord
  2
TEXTSTYLE_2
 70
0
 40
0.0
 41
0.85
 50
0.0
 71
0
 42
0.2
  3
txt
  4

  0
ENDTAB
  0
TABLE
  2
VIEW
  5
6
100
AcDbSymbolTable
 70
0
  0
ENDTAB
  0
TABLE
  2
UCS
  5
7
100
AcDbSymbolTable
 70
0
  0
ENDTAB
  0
TABLE
  2
APPID
  5
9
100
AcDbSymbolTable
 70
1
  0
APPID
  5
20B
100
AcDbSymbolTableRecord
100
AcDbRegAppTableRecord
  2
ACAD
 70
0
  0
ENDTAB
  0
TABLE
  2
BLOCK_RECORD
  5
1
100
AcDbSymbolTable
 70
0
  0
BLOCK_RECORD
  5
1F
100
AcDbSymbolTableRecord
100
AcDbBlockTableRecord
  2
*MODEL_SPACE
  0
BLOCK_RECORD
  5
1B
100
AcDbSymbolTableRecord
100
AcDbBlockTableRecord
  2
*PAPER_SPACE
  0
BLOCK_RECORD
  5
20C
100
AcDbSymbolTableRecord
100
AcDbBlockTableRecord
  2
_CLOSED
  0
BLOCK_RECORD
  5
20D
100
AcDbSymbolTableRecord
100
AcDbBlockTableRecord
  2
*D0
  0
BLOCK_RECORD
  5
20E
100
AcDbSymbolTableRecord
100
AcDbBlockTableRecord
  2
*D1
  0
BLOCK_RECORD
  5
20F
100
AcDbSymbolTableRecord
100
AcDbBlockTableRecord
  2
*D2
  0
BLOCK_RECORD
  5
210
100
AcDbSymbolTableRecord
100
AcDbBlockTableRecord
  2
*D3
  0
BLOCK_RECORD
  5
211
100
AcDbSymbolTableRecord
100
AcDbBlockTableRecord
  2
LOGO2_BL0
  0
ENDTAB
  0
TABLE
  2
DIMSTYLE
  5
A
100
AcDbSymbolTable
 70
1
  0
DIMSTYLE
105
212
100
AcDbSymbolTableRecord
100
AcDbDimStyleTableRecord
  2
STANDARD
 70
0
  3

  4

  5
_CLOSED
  6
_CLOSED
  7
_CLOSED
 40
1.0
 41
2.5
 42
0.75
 43
0.38
 44
0.75
 45
0.0
 46
0.0
 47
0.01
 48
0.01
140
3.0
141
0.09
142
0.0
143
25.4
144
1.0
145
0.0
146
1.0
147
0.625
 71
1.0
 72
0.0
 73
0
 74
0
 75
0
 76
0
 77
1
 78
8
 79
2
170
0
171
1
172
0
173
0
174
0
175
0
176
0
177
0
178
0
270
2
179
2
271
2
272
2
273
2
274
2
275
0
280
0
281
0
282
0
283
1
284
8
285
0
286
0
287
3
288
0
340
11
  0
DIMSTYLE
105
213
100
AcDbSymbolTableRecord
100
AcDbDimStyleTableRecord
  2
DIMSTYLE_1
 70
0
  3

  4

  5
_CLOSED
  6
_CLOSED
  7
_CLOSED
 40
1.0
 41
2.5
 42
0.75
 43
0.38
 44
0.75
 45
0.0
 46
0.0
 47
0.3
 48
0.3
140
10.0
141
0.09
142
0.0
143
25.4
144
1.0
145
0.0
146
1.0
147
2.5
 71
0.0
 72
0.0
 73
0
 74
0
 75
0
 76
0
 77
1
 78
8
 79
2
170
0
171
1
172
0
173
0
174
0
175
0
176
0
177
0
178
0
270
2
179
2
271
2
272
2
273
2
274
2
275
0
280
0
281
0
282
0
283
1
284
8
285
0
286
0
287
3
288
0
340
11
  0
DIMSTYLE
105
214
100
AcDbSymbolTableRecord
100
AcDbDimStyleTableRecord
  2
DIMSTYLE_2
 70
0
  3

  4

  5
_CLOSED
  6
_CLOSED
  7
_CLOSED
 40
1.0
 41
2.5
 42
0.75
 43
0.38
 44
0.75
 45
0.0
 46
0.0
 47
2.0
 48
2.0
140
10.0
141
0.09
142
0.0
143
25.4
144
1.0
145
0.0
146
1.0
147
2.5
 71
0.0
 72
0.0
 73
0
 74
0
 75
0
 76
0
 77
1
 78
8
 79
2
170
0
171
1
172
0
173
0
174
0
175
0
176
0
177
0
178
0
270
2
179
2
271
2
272
2
273
2
274
2
275
0
280
0
281
0
282
0
283
1
284
8
285
0
286
0
287
3
288
0
340
11
  0
ENDTAB
  0
ENDSEC
  0
SECTION
  2
BLOCKS
  0
BLOCK
  5
20
100
AcDbEntity
  8
0
100
AcDbBlockBegin
  2
*MODEL_SPACE
 70
0
 10
0.0
 20
0.0
 30
0.0
  3
*MODEL_SPACE
  1

  0
ENDBLK
  5
21
100
AcDbEntity
  8
0
100
AcDbBlockEnd
  0
BLOCK
  5
1C
100
AcDbEntity
  8
0
100
AcDbBlockBegin
  2
*PAPER_SPACE
 70
0
 10
0.0
 20
0.0
 30
0.0
  3
*PAPER_SPACE
  1

  0
ENDBLK
  5
1D
100
AcDbEntity
  8
0
100
AcDbBlockEnd
  0
BLOCK
  5
215
100
AcDbEntity
  8
0
100
AcDbBlockBegin
 62
2
  6
CONTINUOUS
  2
LOGO2_BL0
 70
64
 10
3014.051526188
 20
47.8303269448
  3
LOGO2_BL0
  1

  0
LINE
  5
216
100
AcDbEntity
  8
0
100
AcDbLine
 62
7
  6
CONTINUOUS
 10
3005.7944514162
 20
51.0258182836
 11
3004.4901104868
 21
51.0258182836
  0
LINE
  5
217
100
AcDbEntity
  8
0
100
AcDbLine
 62
7
  6
CONTINUOUS
 10
3004.4901104868
 20
51.0258182836
 11
3004.4901104868
 21
40.5667522238
  0
LINE
  5
218
100
AcDbEntity
  8
0
100
AcDbLine
 62
7
  6
CONTINUOUS
 10
3004.4901104868
 20
40.5667522238
 11
3008.9711653751
 21
40.5667522238
  0
LINE
  5
219
100
AcDbEntity
  8
0
100
AcDbLine
 62
7
  6
CONTINUOUS
 10
3008.9711653751
 20
40.5667522238
 11
3008.9711653751
 21
41.7596065488
  0
LINE
  5
21A
100
AcDbEntity
  8
0
100
AcDbLine
 62
7
  6
CONTINUOUS
 10
3008.9711653751
 20
41.7596065488
 11
3005.7944514162
 21
41.7596065488
  0
LINE
  5
21B
100
AcDbEntity
  8
0
100
AcDbLine
 62
7
  6
CONTINUOUS
 10
3005.7944514162
 20
41.7596065488
 11
3005.7944514162
 21
51.0258182836
  0
LINE
  5
21C
100
AcDbEntity
  8
0
100
AcDbLine
 62
7
  6
CONTINUOUS
 10
3020.7307776325
 20
51.0258182836
 11
3019.4269601144
 21
51.0258182836
  0
LINE
  5
21D
100
AcDbEntity
  8
0
100
AcDbLine
 62
7
  6
CONTINUOUS
 10
3019.4269601144
 20
51.0258182836
 11
3019.4269601144
 21
40.5667522238
  0
LINE
  5
21E
100
AcDbEntity
  8
0
100
AcDbLine
 62
7
  6
CONTINUOUS
 10
3019.4269601144
 20
40.5667522238
 11
3023.9081458555
 21
40.5667522238
  0
LINE
  5
21F
100
AcDbEntity
  8
0
100
AcDbLine
 62
7
  6
CONTINUOUS
 10
3023.9081458555
 20
40.5667522238
 11
3023.9081458555
 21
41.7596065488
  0
LINE
  5
220
100
AcDbEntity
  8
0
100
AcDbLine
 62
7
  6
CONTINUOUS
 10
3023.9081458555
 20
41.7596065488
 11
3020.7307776325
 21
41.7596065488
  0
LINE
  5
221
100
AcDbEntity
  8
0
100
AcDbLine
 62
7
  6
CONTINUOUS
 10
3020.7307776325
 20
41.7596065488
 11
3020.7307776325
 21
51.0258182836
  0
LWPOLYLINE
  5
222
100
AcDbEntity
  8
0
100
AcDbPolyline
 62
7
  6
CONTINUOUS
 90
2
 70
0
 43
0.2
 10
3002.8445053977
 20
37.2232009168
 10
3002.8445053977
 20
35.3661376675
  0
LWPOLYLINE
  5
223
100
AcDbEntity
  8
0
100
AcDbPolyline
 62
7
  6
CONTINUOUS
 90
2
 70
0
 43
0.2
 10
3002.8445053977
 20
35.3661376675
 10
3003.6402214081
 20
35.3661376675
  0
LWPOLYLINE
  5
224
100
AcDbEntity
  8
0
100
AcDbPolyline
 62
7
  6
CONTINUOUS
 90
2
 70
0
 43
0.2
 10
3003.6402214081
 20
35.3661376675
 10
3003.6402214081
 20
35.5781192391
  0
LWPOLYLINE
  5
225
100
AcDbEntity
  8
0
100
AcDbPolyline
 62
7
  6
CONTINUOUS
 90
2
 70
0
 43
0.2
 10
3003.6402214081
 20
35.5781192391
 10
3003.0761148926
 20
35.5781192391
  0
LWPOLYLINE
  5
226
100
AcDbEntity
  8
0
100
AcDbPolyline
 62
7
  6
CONTINUOUS
 90
2
 70
0
 43
0.2
 10
3003.0761148926
 20
35.5781192391
 10
3003.0761148926
 20
37.2232009168
  0
LWPOLYLINE
  5
227
100
AcDbEntity
  8
0
100
AcDbPolyline
 62
7
  6
CONTINUOUS
 90
2
 70
0
 43
0.2
 10
3003.0761148926
 20
37.2232009168
 10
3002.8445053977
 20
37.2232009168
  0
SPLINE
  5
228
100
AcDbEntity
  8
0
100
AcDbSpline
 62
7
  6
CONTINUOUS
 70
2
 71
3
 72
35
 73
31
 74
0
 42
0.0000001
 43
0.0000001
 44
0.0000000001
 40
0.0
 40
0.0
 40
0.0
 40
0.0
 40
1.0
 40
1.0
 40
1.0
 40
2.0
 40
2.0
 40
2.0
 40
3.0
 40
3.0
 40
3.0
 40
4.0
 40
4.0
 40
4.0
 40
5.0
 40
5.0
 40
5.0
 40
6.0
 40
6.0
 40
6.0
 40
7.0
 40
7.0
 40
7.0
 40
8.0
 40
8.0
 40
8.0
 40
9.0
 40
9.0
 40
9.0
 40
10.0
 40
10.0
 40
10.0
 40
10.0
 10
3005.0385146637
 20
36.5186893234
 30
0.0
 10
3005.0385146637
 20
36.5186893234
 30
0.0
 10
3005.0385146637
 20
35.8565740442
 30
0.0
 10
3005.0385146637
 20
35.8565740442
 30
0.0
 10
3005.0385146637
 20
35.5414804489
 30
0.0
 10
3005.1863783525
 20
35.3268818209
 30
0.0
 10
3005.5264648368
 20
35.3268818209
 30
0.0
 10
3005.8660279098
 20
35.3268818209
 30
0.0
 10
3006.0141533042
 20
35.5414804489
 30
0.0
 10
3006.0141533042
 20
35.8565740442
 30
0.0
 10
3006.0141533042
 20
35.8565740442
 30
0.0
 10
3006.0141533042
 20
36.5186893234
 30
0.0
 10
3006.0141533042
 20
36.5186893234
 30
0.0
 10
3006.0141533042
 20
36.5186893234
 30
0.0
 10
3005.7920960654
 20
36.5186893234
 30
0.0
 10
3005.7920960654
 20
36.5186893234
 30
0.0
 10
3005.7920960654
 20
36.5186893234
 30
0.0
 10
3005.7920960654
 20
35.881697786
 30
0.0
 10
3005.7920960654
 20
35.881697786
 30
0.0
 10
3005.7920960654
 20
35.6958867788
 30
0.0
 10
3005.7453816079
 20
35.5331058683
 30
0.0
 10
3005.5264648368
 20
35.5331058683
 30
0.0
 10
3005.3070246543
 20
35.5331058683
 30
0.0
 10
3005.2603101969
 20
35.6958867788
 30
0.0
 10
3005.2603101969
 20
35.881697786
 30
0.0
 10
3005.2603101969
 20
35.881697786
 30
0.0
 10
3005.2603101969
 20
36.5186893234
 30
0.0
 10
3005.2603101969
 20
36.5186893234
 30
0.0
 10
3005.2603101969
 20
36.5186893234
 30
0.0
 10
3005.0385146637
 20
36.5186893234
 30
0.0
 10
3005.0385146637
 20
36.5186893234
 30
0.0
  0
SPLINE
  5
229
100
AcDbEntity
  8
0
100
AcDbSpline
 62
7
  6
CONTINUOUS
 70
2
 71
3
 72
35
 73
31
 74
0
 42
0.0000001
 43
0.0000001
 44
0.0000000001
 40
0.0
 40
0.0
 40
0.0
 40
0.0
 40
1.0
 40
1.0
 40
1.0
 40
2.0
 40
2.0
 40
2.0
 40
3.0
 40
3.0
 40
3.0
 40
4.0
 40
4.0
 40
4.0
 40
5.0
 40
5.0
 40
5.0
 40
6.0
 40
6.0
 40
6.0
 40
7.0
 40
7.0
 40
7.0
 40
8.0
 40
8.0
 40
8.0
 40
9.0
 40
9.0
 40
9.0
 40
10.0
 40
10.0
 40
10.0
 40
10.0
 10
3008.4372858614
 20
36.4773398316
 30
0.0
 10
3008.3488293538
 20
36.5286341378
 30
0.0
 10
3008.2353799571
 20
36.5537578797
 30
0.0
 10
3008.1317445221
 20
36.5537578797
 30
0.0
 10
3007.776871669
 20
36.5537578797
 30
0.0
 10
3007.5014264787
 20
36.2899585906
 30
0.0
 10
3007.5014264787
 20
35.9324686809
 30
0.0
 10
3007.5014264787
 20
35.5875406422
 30
0.0
 10
3007.7798812839
 20
35.3274052322
 30
0.0
 10
3008.1194443569
 20
35.3274052322
 30
0.0
 10
3008.2353799571
 20
35.3274052322
 30
0.0
 10
3008.3361366301
 20
35.3493885063
 30
0.0
 10
3008.4372858614
 20
35.4032998689
 30
0.0
 10
3008.4372858614
 20
35.4032998689
 30
0.0
 10
3008.4372858614
 20
35.6859419644
 30
0.0
 10
3008.4372858614
 20
35.6859419644
 30
0.0
 10
3008.3534092026
 20
35.5927747551
 30
0.0
 10
3008.2499046204
 20
35.5336292796
 30
0.0
 10
3008.1217997077
 20
35.5336292796
 30
0.0
 10
3007.8880965676
 20
35.5336292796
 30
0.0
 10
3007.7228294535
 20
35.7058315933
 30
0.0
 10
3007.7228294535
 20
35.9424134954
 30
0.0
 10
3007.7228294535
 20
36.154395067
 30
0.0
 10
3007.8905827713
 20
36.3464870097
 30
0.0
 10
3008.1074058973
 20
36.3464870097
 30
0.0
 10
3008.2402215116
 20
36.3464870097
 30
0.0
 10
3008.3488293538
 20
36.292575647
 30
0.0
 10
3008.4372858614
 20
36.1915572684
 30
0.0
 10
3008.4372858614
 20
36.1915572684
 30
0.0
 10
3008.4372858614
 20
36.4773398316
 30
0.0
 10
3008.4372858614
 20
36.4773398316
 30
0.0
  0
SPLINE
  5
22A
100
AcDbEntity
  8
0
100
AcDbSpline
 62
7
  6
CONTINUOUS
 70
2
 71
3
 72
32
 73
28
 74
0
 42
0.0000001
 43
0.0000001
 44
0.0000000001
 40
0.0
 40
0.0
 40
0.0
 40
0.0
 40
1.0
 40
1.0
 40
1.0
 40
2.0
 40
2.0
 40
2.0
 40
3.0
 40
3.0
 40
3.0
 40
4.0
 40
4.0
 40
4.0
 40
5.0
 40
5.0
 40
5.0
 40
6.0
 40
6.0
 40
6.0
 40
7.0
 40
7.0
 40
7.0
 40
8.0
 40
8.0
 40
8.0
 40
9.0
 40
9.0
 40
9.0
 40
9.0
 10
3010.9691571137
 20
35.9057747053
 30
0.0
 10
3010.9691571137
 20
35.9057747053
 30
0.0
 10
3010.9691571137
 20
35.939796439
 30
0.0
 10
3010.9691571137
 20
35.939796439
 30
0.0
 10
3010.9691571137
 20
36.2821074212
 30
0.0
 10
3010.7963005359
 20
36.5537578797
 30
0.0
 10
3010.4296509287
 20
36.5537578797
 30
0.0
 10
3010.0580289143
 20
36.5537578797
 30
0.0
 10
3009.8682923225
 20
36.2873415341
 30
0.0
 10
3009.8682923225
 20
35.9324686809
 30
0.0
 10
3009.8682923225
 20
35.5927747551
 30
0.0
 10
3010.0823675392
 20
35.3268818209
 30
0.0
 10
3010.4344924831
 20
35.3268818209
 30
0.0
 10
3010.6585125143
 20
35.3268818209
 30
0.0
 10
3010.8606801243
 20
35.4425557155
 30
0.0
 10
3010.9691571137
 20
35.6419754162
 30
0.0
 10
3010.9691571137
 20
35.6419754162
 30
0.0
 10
3010.781514167
 20
35.7487513189
 30
0.0
 10
3010.781514167
 20
35.7487513189
 30
0.0
 10
3010.6980300666
 20
35.6100473276
 30
0.0
 10
3010.6068256497
 20
35.5242078764
 30
0.0
 10
3010.4372403924
 20
35.5242078764
 30
0.0
 10
3010.2252588208
 20
35.5242078764
 30
0.0
 10
3010.0923123537
 20
35.708972061
 30
0.0
 10
3010.0899570029
 20
35.9057747053
 30
0.0
 10
3010.0899570029
 20
35.9057747053
 30
0.0
 10
3010.9691571137
 20
35.9057747053
 30
0.0
 10
3010.9691571137
 20
35.9057747053
 30
0.0
  0
SPLINE
  5
22B
100
AcDbEntity
  8
0
100
AcDbSpline
 62
7
  6
CONTINUOUS
 70
2
 71
3
 72
14
 73
10
 74
0
 42
0.0000001
 43
0.0000001
 44
0.0000000001
 40
0.0
 40
0.0
 40
0.0
 40
0.0
 40
1.0
 40
1.0
 40
1.0
 40
2.0
 40
2.0
 40
2.0
 40
3.0
 40
3.0
 40
3.0
 40
3.0
 10
3010.1019954625
 20
36.0732663174
 30
0.0
 10
3010.1296054079
 20
36.2381408731
 30
0.0
 10
3010.257448615
 20
36.3611425257
 30
0.0
 10
3010.4296509287
 20
36.3611425257
 30
0.0
 10
3010.6068256497
 20
36.3611425257
 30
0.0
 10
3010.7202750463
 20
36.2454686311
 30
0.0
 10
3010.7474924333
 20
36.0732663174
 30
0.0
 10
3010.7474924333
 20
36.0732663174
 30
0.0
 10
3010.1019954625
 20
36.0732663174
 30
0.0
 10
3010.1019954625
 20
36.0732663174
 30
0.0
  0
SPLINE
  5
22C
100
AcDbEntity
  8
0
100
AcDbSpline
 62
7
  6
CONTINUOUS
 70
2
 71
3
 72
20
 73
16
 74
0
 42
0.0000001
 43
0.0000001
 44
0.0000000001
 40
0.0
 40
0.0
 40
0.0
 40
0.0
 40
1.0
 40
1.0
 40
1.0
 40
2.0
 40
2.0
 40
2.0
 40
3.0
 40
3.0
 40
3.0
 40
4.0
 40
4.0
 40
4.0
 40
5.0
 40
5.0
 40
5.0
 40
5.0
 10
3012.9931885639
 20
36.2826308325
 30
0.0
 10
3012.9931885639
 20
36.2826308325
 30
0.0
 10
3013.4043281305
 20
35.7801559962
 30
0.0
 10
3013.4043281305
 20
35.7801559962
 30
0.0
 10
3013.2882616774
 20
35.6644821016
 30
0.0
 10
3013.1504736559
 20
35.5341526909
 30
0.0
 10
3012.9785330478
 20
35.5341526909
 30
0.0
 10
3012.8010966212
 20
35.5341526909
 30
0.0
 10
3012.6336050091
 20
35.6985038353
 30
0.0
 10
3012.6336050091
 20
35.8754168506
 30
0.0
 10
3012.6336050091
 20
36.0533766884
 30
0.0
 10
3012.8433620827
 20
36.1795188088
 30
0.0
 10
3012.9709435841
 20
36.2674519052
 30
0.0
 10
3012.9709435841
 20
36.2674519052
 30
0.0
 10
3012.9931885639
 20
36.2826308325
 30
0.0
 10
3012.9931885639
 20
36.2826308325
 30
0.0
  0
SPLINE
  5
22D
100
AcDbEntity
  8
0
100
AcDbSpline
 62
7
  6
CONTINUOUS
 70
2
 71
3
 72
23
 73
19
 74
0
 42
0.0000001
 43
0.0000001
 44
0.0000000001
 40
0.0
 40
0.0
 40
0.0
 40
0.0
 40
1.0
 40
1.0
 40
1.0
 40
2.0
 40
2.0
 40
2.0
 40
3.0
 40
3.0
 40
3.0
 40
4.0
 40
4.0
 40
4.0
 40
5.0
 40
5.0
 40
5.0
 40
6.0
 40
6.0
 40
6.0
 40
6.0
 10
3013.0425200778
 20
36.5736475086
 30
0.0
 10
3013.0425200778
 20
36.5736475086
 30
0.0
 10
3012.9808883986
 20
36.6521592018
 30
0.0
 10
3012.9808883986
 20
36.6521592018
 30
0.0
 10
3012.926977036
 20
36.7207260805
 30
0.0
 10
3012.8701869112
 20
36.7898163705
 30
0.0
 10
3012.8701869112
 20
36.883506991
 30
0.0
 10
3012.8701869112
 20
37.0023213534
 30
0.0
 10
3012.9661020297
 20
37.079786224
 30
0.0
 10
3013.0770652228
 20
37.079786224
 30
0.0
 10
3013.2003285811
 20
37.079786224
 30
0.0
 10
3013.2936266431
 20
37.0086022888
 30
0.0
 10
3013.2936266431
 20
36.8782728781
 30
0.0
 10
3013.2936266431
 20
36.7432327659
 30
0.0
 10
3013.1655217304
 20
36.6668147178
 30
0.0
 10
3013.0719619627
 20
36.5930137262
 30
0.0
 10
3013.0719619627
 20
36.5930137262
 30
0.0
 10
3013.0425200778
 20
36.5736475086
 30
0.0
 10
3013.0425200778
 20
36.5736475086
 30
0.0
  0
SPLINE
  5
22E
100
AcDbEntity
  8
0
100
AcDbSpline
 62
7
  6
CONTINUOUS
 70
2
 71
3
 72
50
 73
46
 74
0
 42
0.0000001
 43
0.0000001
 44
0.0000000001
 40
0.0
 40
0.0
 40
0.0
 40
0.0
 40
1.0
 40
1.0
 40
1.0
 40
2.0
 40
2.0
 40
2.0
 40
3.0
 40
3.0
 40
3.0
 40
4.0
 40
4.0
 40
4.0
 40
5.0
 40
5.0
 40
5.0
 40
6.0
 40
6.0
 40
6.0
 40
7.0
 40
7.0
 40
7.0
 40
8.0
 40
8.0
 40
8.0
 40
9.0
 40
9.0
 40
9.0
 40
10.0
 40
10.0
 40
10.0
 40
11.0
 40
11.0
 40
11.0
 40
12.0
 40
12.0
 40
12.0
 40
13.0
 40
13.0
 40
13.0
 40
14.0
 40
14.0
 40
14.0
 40
15.0
 40
15.0
 40
15.0
 40
15.0
 10
3013.7446763204
 20
35.3666610788
 30
0.0
 10
3013.7446763204
 20
35.3666610788
 30
0.0
 10
3014.0300663252
 20
35.3666610788
 30
0.0
 10
3014.0300663252
 20
35.3666610788
 30
0.0
 10
3014.0300663252
 20
35.3666610788
 30
0.0
 10
3013.6977001574
 20
35.7775389397
 30
0.0
 10
3013.6977001574
 20
35.7775389397
 30
0.0
 10
3013.6977001574
 20
35.7775389397
 30
0.0
 10
3013.9242063922
 20
36.043431874
 30
0.0
 10
3013.9242063922
 20
36.043431874
 30
0.0
 10
3013.9242063922
 20
36.043431874
 30
0.0
 10
3013.7759501449
 20
36.19626797
 30
0.0
 10
3013.7759501449
 20
36.19626797
 30
0.0
 10
3013.7759501449
 20
36.19626797
 30
0.0
 10
3013.5600429886
 20
35.9450305519
 30
0.0
 10
3013.5600429886
 20
35.9450305519
 30
0.0
 10
3013.5600429886
 20
35.9450305519
 30
0.0
 10
3013.1729803413
 20
36.4129602432
 30
0.0
 10
3013.1729803413
 20
36.4129602432
 30
0.0
 10
3013.3284334938
 20
36.527063904
 30
0.0
 10
3013.5107114748
 20
36.6668147178
 30
0.0
 10
3013.5107114748
 20
36.876179233
 30
0.0
 10
3013.5107114748
 20
37.1200888931
 30
0.0
 10
3013.3086747176
 20
37.263503586
 30
0.0
 10
3013.0821684828
 20
37.263503586
 30
0.0
 10
3012.837997117
 20
37.263503586
 30
0.0
 10
3012.6536254909
 20
37.1127611351
 30
0.0
 10
3012.6536254909
 20
36.856289604
 30
0.0
 10
3012.6536254909
 20
36.6987428064
 30
0.0
 10
3012.7522885186
 20
36.5610856377
 30
0.0
 10
3012.8576250403
 20
36.4501224447
 30
0.0
 10
3012.8576250403
 20
36.4501224447
 30
0.0
 10
3012.7420819985
 20
36.3663766386
 30
0.0
 10
3012.7420819985
 20
36.3663766386
 30
0.0
 10
3012.5643838663
 20
36.2381408731
 30
0.0
 10
3012.4170435888
 20
36.1104285188
 30
0.0
 10
3012.4170435888
 20
35.8733232054
 30
0.0
 10
3012.4170435888
 20
35.5529954972
 30
0.0
 10
3012.675608765
 20
35.3268818209
 30
0.0
 10
3012.9859916587
 20
35.3268818209
 30
0.0
 10
3013.2049084298
 20
35.3268818209
 30
0.0
 10
3013.4021036325
 20
35.4519771187
 30
0.0
 10
3013.5423778577
 20
35.6178984969
 30
0.0
 10
3013.5423778577
 20
35.6178984969
 30
0.0
 10
3013.7446763204
 20
35.3666610788
 30
0.0
 10
3013.7446763204
 20
35.3666610788
 30
0.0
  0
LWPOLYLINE
  5
22F
100
AcDbEntity
  8
0
100
AcDbPolyline
 62
7
  6
CONTINUOUS
 90
2
 70
0
 43
0.2
 10
3015.6801204102
 20
37.2232009168
 10
3015.4487726209
 20
37.2232009168
  0
LWPOLYLINE
  5
230
100
AcDbEntity
  8
0
100
AcDbPolyline
 62
7
  6
CONTINUOUS
 90
2
 70
0
 43
0.2
 10
3015.4487726209
 20
37.2232009168
 10
3015.4487726209
 20
35.3661376675
  0
LWPOLYLINE
  5
231
100
AcDbEntity
  8
0
100
AcDbPolyline
 62
7
  6
CONTINUOUS
 90
2
 70
0
 43
0.2
 10
3015.4487726209
 20
35.3661376675
 10
3016.2440960728
 20
35.3661376675
  0
LWPOLYLINE
  5
232
100
AcDbEntity
  8
0
100
AcDbPolyline
 62
7
  6
CONTINUOUS
 90
2
 70
0
 43
0.2
 10
3016.2440960728
 20
35.3661376675
 10
3016.2440960728
 20
35.5781192391
  0
LWPOLYLINE
  5
233
100
AcDbEntity
  8
0
100
AcDbPolyline
 62
7
  6
CONTINUOUS
 90
2
 70
0
 43
0.2
 10
3016.2440960728
 20
35.5781192391
 10
3015.6801204102
 20
35.5781192391
  0
LWPOLYLINE
  5
234
100
AcDbEntity
  8
0
100
AcDbPolyline
 62
7
  6
CONTINUOUS
 90
2
 70
0
 43
0.2
 10
3015.6801204102
 20
35.5781192391
 10
3015.6801204102
 20
37.2232009168
  0
LWPOLYLINE
  5
235
100
AcDbEntity
  8
0
100
AcDbPolyline
 62
7
  6
CONTINUOUS
 90
2
 70
0
 43
0.2
 10
3017.9231994843
 20
36.5186893234
 10
3017.7020582152
 20
36.5186893234
  0
LWPOLYLINE
  5
236
100
AcDbEntity
  8
0
100
AcDbPolyline
 62
7
  6
CONTINUOUS
 90
2
 70
0
 43
0.2
 10
3017.7020582152
 20
36.5186893234
 10
3017.7020582152
 20
35.3666610788
  0
LWPOLYLINE
  5
237
100
AcDbEntity
  8
0
100
AcDbPolyline
 62
7
  6
CONTINUOUS
 90
2
 70
0
 43
0.2
 10
3017.7020582152
 20
35.3666610788
 10
3017.9231994843
 20
35.3666610788
  0
LWPOLYLINE
  5
238
100
AcDbEntity
  8
0
100
AcDbPolyline
 62
7
  6
CONTINUOUS
 90
2
 70
0
 43
0.2
 10
3017.9231994843
 20
35.3666610788
 10
3017.9231994843
 20
36.5186893234
  0
LWPOLYLINE
  5
239
100
AcDbEntity
  8
0
100
AcDbPolyline
 62
7
  6
CONTINUOUS
 90
2
 70
1
 43
0.2
 10
3017.6601762071
 20
37.0486432523
 42
1.0
 10
3017.9653431981
 20
37.0486432523
 42
1.0
  0
SPLINE
  5
23A
100
AcDbEntity
  8
0
100
AcDbSpline
 62
7
  6
CONTINUOUS
 70
2
 71
3
 72
17
 73
13
 74
0
 42
0.0000001
 43
0.0000001
 44
0.0000000001
 40
0.0
 40
0.0
 40
0.0
 40
0.0
 40
1.0
 40
1.0
 40
1.0
 40
2.0
 40
2.0
 40
2.0
 40
3.0
 40
3.0
 40
3.0
 40
4.0
 40
4.0
 40
4.0
 40
4.0
 10
3020.053483426
 20
35.5242078764
 30
0.0
 10
3019.8195185803
 20
35.5242078764
 30
0.0
 10
3019.6891891696
 20
35.7262446335
 30
0.0
 10
3019.6891891696
 20
35.9424134954
 30
0.0
 10
3019.6891891696
 20
36.1570121234
 30
0.0
 10
3019.8250143988
 20
36.3559084128
 30
0.0
 10
3020.053483426
 20
36.3559084128
 30
0.0
 10
3020.2929440902
 20
36.3559084128
 30
0.0
 10
3020.4285076137
 20
36.1669569379
 30
0.0
 10
3020.4285076137
 20
35.9424134954
 30
0.0
 10
3020.4285076137
 20
35.7162998191
 30
0.0
 10
3020.295299441
 20
35.5242078764
 30
0.0
 10
3020.053483426
 20
35.5242078764
 30
0.0
  0
SPLINE
  5
23B
100
AcDbEntity
  8
0
100
AcDbSpline
 62
7
  6
CONTINUOUS
 70
2
 71
3
 72
50
 73
46
 74
0
 42
0.0000001
 43
0.0000001
 44
0.0000000001
 40
0.0
 40
0.0
 40
0.0
 40
0.0
 40
1.0
 40
1.0
 40
1.0
 40
2.0
 40
2.0
 40
2.0
 40
3.0
 40
3.0
 40
3.0
 40
4.0
 40
4.0
 40
4.0
 40
5.0
 40
5.0
 40
5.0
 40
6.0
 40
6.0
 40
6.0
 40
7.0
 40
7.0
 40
7.0
 40
8.0
 40
8.0
 40
8.0
 40
9.0
 40
9.0
 40
9.0
 40
10.0
 40
10.0
 40
10.0
 40
11.0
 40
11.0
 40
11.0
 40
12.0
 40
12.0
 40
12.0
 40
13.0
 40
13.0
 40
13.0
 40
14.0
 40
14.0
 40
14.0
 40
15.0
 40
15.0
 40
15.0
 40
15.0
 10
3020.6376104232
 20
36.5192127347
 30
0.0
 10
3020.6376104232
 20
36.5192127347
 30
0.0
 10
3020.4159457428
 20
36.5192127347
 30
0.0
 10
3020.4159457428
 20
36.5192127347
 30
0.0
 10
3020.4159457428
 20
36.5192127347
 30
0.0
 10
3020.4159457428
 20
36.3218866791
 30
0.0
 10
3020.4159457428
 20
36.3218866791
 30
0.0
 10
3020.4159457428
 20
36.3218866791
 30
0.0
 10
3020.4112350412
 20
36.3218866791
 30
0.0
 10
3020.4112350412
 20
36.3218866791
 30
0.0
 10
3020.3198997715
 20
36.4647779607
 30
0.0
 10
3020.1819808971
 20
36.5532344684
 30
0.0
 10
3020.0092551721
 20
36.5532344684
 30
0.0
 10
3019.6768890043
 20
36.5532344684
 30
0.0
 10
3019.4677861948
 20
36.26535826
 30
0.0
 10
3019.4677861948
 20
35.9497412534
 30
0.0
 10
3019.4677861948
 20
35.6199921421
 30
0.0
 10
3019.6648505447
 20
35.3268818209
 30
0.0
 10
3020.0197233979
 20
35.3268818209
 30
0.0
 10
3020.1819808971
 20
35.3268818209
 30
0.0
 10
3020.3219934166
 20
35.4153383285
 30
0.0
 10
3020.4112350412
 20
35.5461911505
 30
0.0
 10
3020.4112350412
 20
35.5461911505
 30
0.0
 10
3020.4159457428
 20
35.5461911505
 30
0.0
 10
3020.4159457428
 20
35.5461911505
 30
0.0
 10
3020.4159457428
 20
35.5461911505
 30
0.0
 10
3020.4159457428
 20
35.3268818209
 30
0.0
 10
3020.4159457428
 20
35.3268818209
 30
0.0
 10
3020.4159457428
 20
35.0902999188
 30
0.0
 10
3020.3594173237
 20
34.903442089
 30
0.0
 10
3020.0861966315
 20
34.903442089
 30
0.0
 10
3019.8838981687
 20
34.903442089
 30
0.0
 10
3019.7412685927
 20
35.0217330401
 30
0.0
 10
3019.7412685927
 20
35.2279570875
 30
0.0
 10
3019.7412685927
 20
35.2279570875
 30
0.0
 10
3019.5196039123
 20
35.2279570875
 30
0.0
 10
3019.5196039123
 20
35.2279570875
 30
0.0
 10
3019.5245763196
 20
34.903442089
 30
0.0
 10
3019.7556624032
 20
34.7066394448
 30
0.0
 10
3020.0759901113
 20
34.7066394448
 30
0.0
 10
3020.5240301738
 20
34.7066394448
 30
0.0
 10
3020.6376104232
 20
34.9918985966
 30
0.0
 10
3020.6376104232
 20
35.3886443529
 30
0.0
 10
3020.6376104232
 20
35.3886443529
 30
0.0
 10
3020.6376104232
 20
36.5192127347
 30
0.0
 10
3020.6376104232
 20
36.5192127347
 30
0.0
  0
SPLINE
  5
23C
100
AcDbEntity
  8
0
100
AcDbSpline
 62
7
  6
CONTINUOUS
 70
2
 71
3
 72
44
 73
40
 74
0
 42
0.0000001
 43
0.0000001
 44
0.0000000001
 40
0.0
 40
0.0
 40
0.0
 40
0.0
 40
1.0
 40
1.0
 40
1.0
 40
2.0
 40
2.0
 40
2.0
 40
3.0
 40
3.0
 40
3.0
 40
4.0
 40
4.0
 40
4.0
 40
5.0
 40
5.0
 40
5.0
 40
6.0
 40
6.0
 40
6.0
 40
7.0
 40
7.0
 40
7.0
 40
8.0
 40
8.0
 40
8.0
 40
9.0
 40
9.0
 40
9.0
 40
10.0
 40
10.0
 40
10.0
 40
11.0
 40
11.0
 40
11.0
 40
12.0
 40
12.0
 40
12.0
 40
13.0
 40
13.0
 40
13.0
 40
13.0
 10
3022.2065357586
 20
37.5042727784
 30
0.0
 10
3022.2065357586
 20
37.5042727784
 30
0.0
 10
3022.2065357586
 20
35.3661376675
 30
0.0
 10
3022.2065357586
 20
35.3661376675
 30
0.0
 10
3022.2065357586
 20
35.3661376675
 30
0.0
 10
3022.4279387334
 20
35.3661376675
 30
0.0
 10
3022.4279387334
 20
35.3661376675
 30
0.0
 10
3022.4279387334
 20
35.3661376675
 30
0.0
 10
3022.4279387334
 20
35.8958298908
 30
0.0
 10
3022.4279387334
 20
35.8958298908
 30
0.0
 10
3022.4279387334
 20
36.1057178172
 30
0.0
 10
3022.4279387334
 20
36.3564318241
 30
0.0
 10
3022.7131978853
 20
36.3564318241
 30
0.0
 10
3022.9400966786
 20
36.3564318241
 30
0.0
 10
3022.9670523599
 20
36.223485357
 30
0.0
 10
3022.9670523599
 20
36.0272061241
 30
0.0
 10
3022.9670523599
 20
36.0272061241
 30
0.0
 10
3022.9670523599
 20
35.3661376675
 30
0.0
 10
3022.9670523599
 20
35.3661376675
 30
0.0
 10
3022.9670523599
 20
35.3661376675
 30
0.0
 10
3023.1889787459
 20
35.3661376675
 30
0.0
 10
3023.1889787459
 20
35.3661376675
 30
0.0
 10
3023.1889787459
 20
35.3661376675
 30
0.0
 10
3023.1889787459
 20
36.0533766884
 30
0.0
 10
3023.1889787459
 20
36.0533766884
 30
0.0
 10
3023.1889787459
 20
36.3339251387
 30
0.0
 10
3023.1049712342
 20
36.5537578797
 30
0.0
 10
3022.7799328245
 20
36.5537578797
 30
0.0
 10
3022.6401820106
 20
36.5537578797
 30
0.0
 10
3022.5020014306
 20
36.4872846461
 30
0.0
 10
3022.432649435
 20
36.3642829934
 30
0.0
 10
3022.432649435
 20
36.3642829934
 30
0.0
 10
3022.4279387334
 20
36.3642829934
 30
0.0
 10
3022.4279387334
 20
36.3642829934
 30
0.0
 10
3022.4279387334
 20
36.3642829934
 30
0.0
 10
3022.4279387334
 20
37.5042727784
 30
0.0
 10
3022.4279387334
 20
37.5042727784
 30
0.0
 10
3022.4279387334
 20
37.5042727784
 30
0.0
 10
3022.2065357586
 20
37.5042727784
 30
0.0
 10
3022.2065357586
 20
37.5042727784
 30
0.0
  0
LWPOLYLINE
  5
23D
100
AcDbEntity
  8
0
100
AcDbPolyline
 62
7
  6
CONTINUOUS
 90
2
 70
0
 43
0.2
 10
3025.0287694228
 20
36.3119418647
 10
3025.2451999903
 20
36.3119418647
  0
LWPOLYLINE
  5
23E
100
AcDbEntity
  8
0
100
AcDbPolyline
 62
7
  6
CONTINUOUS
 90
2
 70
0
 43
0.2
 10
3025.2451999903
 20
36.3119418647
 10
3025.2451999903
 20
36.5186893234
  0
LWPOLYLINE
  5
23F
100
AcDbEntity
  8
0
100
AcDbPolyline
 62
7
  6
CONTINUOUS
 90
2
 70
0
 43
0.2
 10
3025.2451999903
 20
36.5186893234
 10
3025.0287694228
 20
36.5186893234
  0
LWPOLYLINE
  5
240
100
AcDbEntity
  8
0
100
AcDbPolyline
 62
7
  6
CONTINUOUS
 90
2
 70
0
 43
0.2
 10
3025.0287694228
 20
36.5186893234
 10
3025.0287694228
 20
36.9594016278
  0
LWPOLYLINE
  5
241
100
AcDbEntity
  8
0
100
AcDbPolyline
 62
7
  6
CONTINUOUS
 90
2
 70
0
 43
0.2
 10
3025.0287694228
 20
36.9594016278
 10
3024.8071047424
 20
36.9594016278
  0
LWPOLYLINE
  5
242
100
AcDbEntity
  8
0
100
AcDbPolyline
 62
7
  6
CONTINUOUS
 90
2
 70
0
 43
0.2
 10
3024.8071047424
 20
36.9594016278
 10
3024.8071047424
 20
36.5186893234
  0
LWPOLYLINE
  5
243
100
AcDbEntity
  8
0
100
AcDbPolyline
 62
7
  6
CONTINUOUS
 90
2
 70
0
 43
0.2
 10
3024.8071047424
 20
36.5186893234
 10
3024.6864584405
 20
36.5186893234
  0
LWPOLYLINE
  5
244
100
AcDbEntity
  8
0
100
AcDbPolyline
 62
7
  6
CONTINUOUS
 90
2
 70
0
 43
0.2
 10
3024.6864584405
 20
36.5186893234
 10
3024.6864584405
 20
36.3119418647
  0
LWPOLYLINE
  5
245
100
AcDbEntity
  8
0
100
AcDbPolyline
 62
7
  6
CONTINUOUS
 90
2
 70
0
 43
0.2
 10
3024.6864584405
 20
36.3119418647
 10
3024.8071047424
 20
36.3119418647
  0
LWPOLYLINE
  5
246
100
AcDbEntity
  8
0
100
AcDbPolyline
 62
7
  6
CONTINUOUS
 90
2
 70
0
 43
0.2
 10
3024.8071047424
 20
36.3119418647
 10
3024.8071047424
 20
35.3661376675
  0
LWPOLYLINE
  5
247
100
AcDbEntity
  8
0
100
AcDbPolyline
 62
7
  6
CONTINUOUS
 90
2
 70
0
 43
0.2
 10
3024.8071047424
 20
35.3661376675
 10
3025.0287694228
 20
35.3661376675
  0
LWPOLYLINE
  5
248
100
AcDbEntity
  8
0
100
AcDbPolyline
 62
7
  6
CONTINUOUS
 90
2
 70
0
 43
0.2
 10
3025.0287694228
 20
35.3661376675
 10
3025.0287694228
 20
36.3119418647
  0
SPLINE
  5
249
100
AcDbEntity
  8
0
100
AcDbSpline
 62
7
  6
CONTINUOUS
 70
2
 71
3
 72
20
 73
16
 74
0
 42
0.0000001
 43
0.0000001
 44
0.0000000001
 40
0.0
 40
0.0
 40
0.0
 40
0.0
 40
1.0
 40
1.0
 40
1.0
 40
2.0
 40
2.0
 40
2.0
 40
3.0
 40
3.0
 40
3.0
 40
4.0
 40
4.0
 40
4.0
 40
5.0
 40
5.0
 40
5.0
 40
5.0
 10
3012.8107797301
 20
45.7270641109
 30
0.0
 10
3012.8107797301
 20
45.7270641109
 30
0.0
 10
3015.1271363845
 20
42.8975026886
 30
0.0
 10
3015.1271363845
 20
42.8975026886
 30
0.0
 10
3014.4754893311
 20
42.245332224
 30
0.0
 10
3013.6986161271
 20
41.5094159532
 30
0.0
 10
3012.7274264825
 20
41.5094159532
 30
0.0
 10
3011.728888598
 20
41.5094159532
 30
0.0
 10
3010.7855706045
 20
42.4389944005
 30
0.0
 10
3010.7855706045
 20
43.438186549
 30
0.0
 10
3010.7855706045
 20
44.4373786976
 30
0.0
 10
3011.9644236776
 20
45.1439839362
 30
0.0
 10
3012.6859461379
 20
45.6438417161
 30
0.0
 10
3012.6859461379
 20
45.6438417161
 30
0.0
 10
3012.8107797301
 20
45.7270641109
 30
0.0
 10
3012.8107797301
 20
45.7270641109
 30
0.0
  0
SPLINE
  5
24A
100
AcDbEntity
  8
0
100
AcDbSpline
 62
7
  6
CONTINUOUS
 70
2
 71
3
 72
23
 73
19
 74
0
 42
0.0000001
 43
0.0000001
 44
0.0000000001
 40
0.0
 40
0.0
 40
0.0
 40
0.0
 40
1.0
 40
1.0
 40
1.0
 40
2.0
 40
2.0
 40
2.0
 40
3.0
 40
3.0
 40
3.0
 40
4.0
 40
4.0
 40
4.0
 40
5.0
 40
5.0
 40
5.0
 40
6.0
 40
6.0
 40
6.0
 40
6.0
 10
3013.0881877126
 20
47.3648180306
 30
0.0
 10
3013.0881877126
 20
47.3648180306
 30
0.0
 10
3012.7416894401
 20
47.8081473914
 30
0.0
 10
3012.7416894401
 20
47.8081473914
 30
0.0
 10
3012.4358863951
 20
48.1962568614
 30
0.0
 10
3012.116998068
 20
48.5847588898
 30
0.0
 10
3012.116998068
 20
49.1117032039
 30
0.0
 10
3012.116998068
 20
49.7778749205
 30
0.0
 10
3012.6583361925
 20
50.2215968398
 30
0.0
 10
3013.2822424476
 20
50.2215968398
 30
0.0
 10
3013.9760241097
 20
50.2215968398
 30
0.0
 10
3014.5032301294
 20
49.8193552651
 30
0.0
 10
3014.5032301294
 20
49.0843549641
 30
0.0
 10
3014.5032301294
 20
48.3210904535
 30
0.0
 10
3013.7819693747
 20
47.8909772277
 30
0.0
 10
3013.2548942078
 20
47.4752578123
 30
0.0
 10
3013.2548942078
 20
47.4752578123
 30
0.0
 10
3013.0881877126
 20
47.3648180306
 30
0.0
 10
3013.0881877126
 20
47.3648180306
 30
0.0
  0
SPLINE
  5
24B
100
AcDbEntity
  8
0
100
AcDbSpline
 62
7
  6
CONTINUOUS
 70
2
 71
3
 72
50
 73
46
 74
0
 42
0.0000001
 43
0.0000001
 44
0.0000000001
 40
0.0
 40
0.0
 40
0.0
 40
0.0
 40
1.0
 40
1.0
 40
1.0
 40
2.0
 40
2.0
 40
2.0
 40
3.0
 40
3.0
 40
3.0
 40
4.0
 40
4.0
 40
4.0
 40
5.0
 40
5.0
 40
5.0
 40
6.0
 40
6.0
 40
6.0
 40
7.0
 40
7.0
 40
7.0
 40
8.0
 40
8.0
 40
8.0
 40
9.0
 40
9.0
 40
9.0
 40
10.0
 40
10.0
 40
10.0
 40
11.0
 40
11.0
 40
11.0
 40
12.0
 40
12.0
 40
12.0
 40
13.0
 40
13.0
 40
13.0
 40
14.0
 40
14.0
 40
14.0
 40
15.0
 40
15.0
 40
15.0
 40
15.0
 10
3017.0417748756
 20
40.5662288125
 30
0.0
 10
3017.0417748756
 20
40.5662288125
 30
0.0
 10
3018.6510028801
 20
40.5662288125
 30
0.0
 10
3018.6510028801
 20
40.5662288125
 30
0.0
 10
3018.6510028801
 20
40.5662288125
 30
0.0
 10
3016.7779755865
 20
42.8833705839
 30
0.0
 10
3016.7779755865
 20
42.8833705839
 30
0.0
 10
3016.7779755865
 20
42.8833705839
 30
0.0
 10
3018.0543140119
 20
44.3808502785
 30
0.0
 10
3018.0543140119
 20
44.3808502785
 30
0.0
 10
3018.0543140119
 20
44.3808502785
 30
0.0
 10
3017.2220900642
 20
45.241861847
 30
0.0
 10
3017.2220900642
 20
45.241861847
 30
0.0
 10
3017.2220900642
 20
45.241861847
 30
0.0
 10
3016.0014949409
 20
43.8265577246
 30
0.0
 10
3016.0014949409
 20
43.8265577246
 30
0.0
 10
3016.0014949409
 20
43.8265577246
 30
0.0
 10
3013.8235805721
 20
46.461933559
 30
0.0
 10
3013.8235805721
 20
46.461933559
 30
0.0
 10
3014.6971540115
 20
47.0999719189
 30
0.0
 10
3015.7238252527
 20
47.8909772277
 30
0.0
 10
3015.7238252527
 20
49.0698303008
 30
0.0
 10
3015.7238252527
 20
50.4435232259
 30
0.0
 10
3014.5859291129
 20
51.2480063753
 30
0.0
 10
3013.31063751
 20
51.2480063753
 30
0.0
 10
3011.9372062906
 20
51.2480063753
 30
0.0
 10
3010.8962720919
 20
50.4017811757
 30
0.0
 10
3010.8962720919
 20
48.9591288135
 30
0.0
 10
3010.8962720919
 20
48.0715541221
 30
0.0
 10
3011.4516114683
 20
47.294680918
 30
0.0
 10
3012.0477769252
 20
46.6702512516
 30
0.0
 10
3012.0477769252
 20
46.6702512516
 30
0.0
 10
3011.3958681661
 20
46.1986576812
 30
0.0
 10
3011.3958681661
 20
46.1986576812
 30
0.0
 10
3010.3973302817
 20
45.4773969265
 30
0.0
 10
3009.5644520699
 20
44.7561361719
 30
0.0
 10
3009.5644520699
 20
43.4245778555
 30
0.0
 10
3009.5644520699
 20
41.6209025575
 30
0.0
 10
3011.0214982425
 20
40.3443024264
 30
0.0
 10
3012.7690376799
 20
40.3443024264
 30
0.0
 10
3014.0038957608
 20
40.3443024264
 30
0.0
 10
3015.1132659854
 20
41.0524778989
 30
0.0
 10
3015.9041404414
 20
41.9810095236
 30
0.0
 10
3015.9041404414
 20
41.9810095236
 30
0.0
 10
3017.0417748756
 20
40.5662288125
 30
0.0
 10
3017.0417748756
 20
40.5662288125
 30
0.0
  0
LINE
  5
24C
100
AcDbEntity
  8
0
100
AcDbLine
 62
7
  6
CONTINUOUS
 10
3002.8446362505
 20
38.5401037171
 11
3025.2585469782
 21
38.5401037171
  0
LINE
  5
24D
100
AcDbEntity
  8
0
100
AcDbLine
 62
7
  6
CONTINUOUS
 10
3025.2585469782
 20
38.5401037171
 11
3025.2585469782
 21
60.9540144448
  0
LINE
  5
24E
100
AcDbEntity
  8
0
100
AcDbLine
 62
7
  6
CONTINUOUS
 10
3025.2585469782
 20
60.9540144448
 11
3002.8446362505
 21
60.9540144448
  0
LINE
  5
24F
100
AcDbEntity
  8
0
100
AcDbLine
 62
7
  6
CONTINUOUS
 10
3002.8446362505
 20
60.9540144448
 11
3002.8446362505
 21
38.5401037171
  0
ENDBLK
  5
250
100
AcDbEntity
  8
0
  6
BYBLOCK
 62
0
100
AcDbBlockEnd
  0
BLOCK
  5
251
100
AcDbEntity
  8
0
100
AcDbBlockBegin
  2
_CLOSED
 70
64
 10
0.0
 20
0.0
  3
_CLOSED
  1

  0
LINE
  5
252
100
AcDbEntity
  8
0
  6
BYBLOCK
 62
0
100
AcDbLine
 10
0.0
 20
0.0
 11
-1.0
 21
0.2
  0
LINE
  5
253
100
AcDbEntity
  8
0
  6
BYBLOCK
 62
0
100
AcDbLine
 10
-1.0
 20
0.2
 11
-1.0
 21
-0.2
  0
LINE
  5
254
100
AcDbEntity
  8
0
  6
BYBLOCK
 62
0
100
AcDbLine
 10
-1.0
 20
-0.2
 11
0.0
 21
0.0
  0
LINE
  5
255
100
AcDbEntity
  8
0
  6
BYBLOCK
 62
0
100
AcDbLine
 10
-1.0
 20
0.0
 11
0.0
 21
0.0
  0
ENDBLK
  5
256
100
AcDbEntity
  8
0
  6
BYBLOCK
 62
0
100
AcDbBlockEnd
  0
BLOCK
  5
257
100
AcDbEntity
  8
0
100
AcDbBlockBegin
 62
7
  6
CONTINUOUS
  2
*D0
 70
65
 10
0.0
 20
0.0
  3
*D0
  1

  0
MTEXT
  5
258
100
AcDbEntity
  8
0
100
AcDbMText
 62
7
  6
CONTINUOUS
  7
STANDARD
 71
2
 72
1
 10
160.1281423804
 20
672.2734588664
 30
0.0
 11
1.0
 21
0.0
 31
0.0
  1
82,1
 40
10.0
 41
27.1747211896
  0
LINE
  5
259
100
AcDbEntity
  8
0
100
AcDbLine
 62
7
  6
CONTINUOUS
 10
119.0781423804
 20
704.9658912403
 11
119.0781423804
 21
659.0234588664
  0
LINE
  5
25A
100
AcDbEntity
  8
0
100
AcDbLine
 62
7
  6
CONTINUOUS
 10
201.1781423804
 20
704.9658912403
 11
201.1781423804
 21
659.0234588664
  0
LINE
  5
25B
100
AcDbEntity
  8
0
100
AcDbLine
 62
7
  6
CONTINUOUS
 10
119.0781423804
 20
659.7734588664
 11
160.1281423804
 21
659.7734588664
  0
LINE
  5
25C
100
AcDbEntity
  8
0
100
AcDbLine
 62
7
  6
CONTINUOUS
 10
201.1781423804
 20
659.7734588664
 11
160.1281423804
 21
659.7734588664
  0
INSERT
  5
25D
100
AcDbEntity
  8
0
100
AcDbBlockReference
 62
7
  6
CONTINUOUS
  2
_CLOSED
 10
119.0781423804
 20
659.7734588664
 41
2.5
 42
2.5
 43
2.5
 50
180.0
  0
INSERT
  5
25E
100
AcDbEntity
  8
0
100
AcDbBlockReference
 62
7
  6
CONTINUOUS
  2
_CLOSED
 10
201.1781423804
 20
659.7734588664
 41
2.5
 42
2.5
 43
2.5
  0
ENDBLK
  5
25F
100
AcDbEntity
  8
0
  6
BYBLOCK
 62
0
100
AcDbBlockEnd
  0
BLOCK
  5
260
100
AcDbEntity
  8
0
100
AcDbBlockBegin
 62
7
  6
CONTINUOUS
  2
*D1
 70
65
 10
0.0
 20
0.0
  3
*D1
  1

  0
MTEXT
  5
261
100
AcDbEntity
  8
0
100
AcDbMText
 62
7
  6
CONTINUOUS
  7
STANDARD
 71
2
 72
1
 10
80.86300657
 20
778.9205784205
 30
0.0
 11
0.0
 21
1.0
 31
0.0
  1
94,8
 40
10.0
 41
27.1747211896
  0
LINE
  5
262
100
AcDbEntity
  8
0
100
AcDbLine
 62
7
  6
CONTINUOUS
 10
118.707582499
 20
731.5205784205
 11
92.61300657
 21
731.5205784205
  0
LINE
  5
263
100
AcDbEntity
  8
0
100
AcDbLine
 62
7
  6
CONTINUOUS
 10
117.5750648869
 20
826.3205784205
 11
92.61300657
 21
826.3205784205
  0
LINE
  5
264
100
AcDbEntity
  8
0
100
AcDbLine
 62
7
  6
CONTINUOUS
 10
93.36300657
 20
731.5205784205
 11
93.36300657
 21
778.9205784205
  0
LINE
  5
265
100
AcDbEntity
  8
0
100
AcDbLine
 62
7
  6
CONTINUOUS
 10
93.36300657
 20
826.3205784205
 11
93.36300657
 21
778.9205784205
  0
INSERT
  5
266
100
AcDbEntity
  8
0
100
AcDbBlockReference
 62
7
  6
CONTINUOUS
  2
_CLOSED
 10
93.36300657
 20
731.5205784205
 41
2.5
 42
2.5
 43
2.5
 50
270.0
  0
INSERT
  5
267
100
AcDbEntity
  8
0
100
AcDbBlockReference
 62
7
  6
CONTINUOUS
  2
_CLOSED
 10
93.36300657
 20
826.3205784205
 41
2.5
 42
2.5
 43
2.5
 50
90.0
  0
ENDBLK
  5
268
100
AcDbEntity
  8
0
  6
BYBLOCK
 62
0
100
AcDbBlockEnd
  0
BLOCK
  5
269
100
AcDbEntity
  8
0
100
AcDbBlockBegin
 62
7
  6
CONTINUOUS
  2
*D2
 70
65
 10
0.0
 20
0.0
  3
*D2
  1

  0
MTEXT
  5
26A
100
AcDbEntity
  8
0
100
AcDbMText
 62
7
  6
CONTINUOUS
  7
STANDARD
 71
2
 72
1
 10
160.1281423804
 20
699.0779904131
 30
0.0
 11
1.0
 21
0.0
 31
0.0
  1
41,6
 40
10.0
 41
27.1747211896
  0
LINE
  5
26B
100
AcDbEntity
  8
0
100
AcDbLine
 62
7
  6
CONTINUOUS
 10
139.3281423804
 20
706.1540044492
 11
139.3281423804
 21
685.8279904131
  0
LINE
  5
26C
100
AcDbEntity
  8
0
100
AcDbLine
 62
7
  6
CONTINUOUS
 10
180.9281423804
 20
704.9658912403
 11
180.9281423804
 21
685.8279904131
  0
LINE
  5
26D
100
AcDbEntity
  8
0
100
AcDbLine
 62
7
  6
CONTINUOUS
 10
139.3281423804
 20
686.5779904131
 11
160.1281423804
 21
686.5779904131
  0
LINE
  5
26E
100
AcDbEntity
  8
0
100
AcDbLine
 62
7
  6
CONTINUOUS
 10
180.9281423804
 20
686.5779904131
 11
160.1281423804
 21
686.5779904131
  0
INSERT
  5
26F
100
AcDbEntity
  8
0
100
AcDbBlockReference
 62
7
  6
CONTINUOUS
  2
_CLOSED
 10
139.3281423804
 20
686.5779904131
 41
2.5
 42
2.5
 43
2.5
 50
180.0
  0
INSERT
  5
270
100
AcDbEntity
  8
0
100
AcDbBlockReference
 62
7
  6
CONTINUOUS
  2
_CLOSED
 10
180.9281423804
 20
686.5779904131
 41
2.5
 42
2.5
 43
2.5
  0
ENDBLK
  5
271
100
AcDbEntity
  8
0
  6
BYBLOCK
 62
0
100
AcDbBlockEnd
  0
BLOCK
  5
272
100
AcDbEntity
  8
0
100
AcDbBlockBegin
 62
7
  6
CONTINUOUS
  2
*D3
 70
65
 10
0.0
 20
0.0
  3
*D3
  1

  0
MTEXT
  5
273
100
AcDbEntity
  8
0
100
AcDbMText
 62
7
  6
CONTINUOUS
  7
STANDARD
 71
2
 72
1
 10
1708.1201334816
 20
672.2734588664
 30
0.0
 11
1.0
 21
0.0
 31
0.0
  1
2807
 40
10.0
 41
31.0780669145
  0
LINE
  5
274
100
AcDbEntity
  8
0
100
AcDbLine
 62
7
  6
CONTINUOUS
 10
304.6201334816
 20
704.9658912403
 11
304.6201334816
 21
659.0234588664
  0
LINE
  5
275
100
AcDbEntity
  8
0
100
AcDbLine
 62
7
  6
CONTINUOUS
 10
3111.6201334816
 20
704.9658912403
 11
3111.6201334816
 21
659.0234588664
  0
LINE
  5
276
100
AcDbEntity
  8
0
100
AcDbLine
 62
7
  6
CONTINUOUS
 10
304.6201334816
 20
659.7734588664
 11
1708.1201334816
 21
659.7734588664
  0
LINE
  5
277
100
AcDbEntity
  8
0
100
AcDbLine
 62
7
  6
CONTINUOUS
 10
3111.6201334816
 20
659.7734588664
 11
1708.1201334816
 21
659.7734588664
  0
INSERT
  5
278
100
AcDbEntity
  8
0
100
AcDbBlockReference
 62
7
  6
CONTINUOUS
  2
_CLOSED
 10
304.6201334816
 20
659.7734588664
 41
2.5
 42
2.5
 43
2.5
 50
180.0
  0
INSERT
  5
279
100
AcDbEntity
  8
0
100
AcDbBlockReference
 62
7
  6
CONTINUOUS
  2
_CLOSED
 10
3111.6201334816
 20
659.7734588664
 41
2.5
 42
2.5
 43
2.5
  0
ENDBLK
  5
27A
100
AcDbEntity
  8
0
  6
BYBLOCK
 62
0
100
AcDbBlockEnd
  0
ENDSEC
  0
SECTION
  2
ENTITIES
  0
DIMENSION
  5
27B
100
AcDbEntity
  8
0
100
AcDbDimension
 62
7
  6
CONTINUOUS
  2
*D0
 10
201.1781423804
 20
659.7734588664
 11
159.1114379883
 21
659.7734588664
 70
160
  3
DIMSTYLE_1
100
AcDbAlignedDimension
 13
119.0781423804
 23
705.7158912403
 14
201.1781423804
 24
705.7158912403
100
AcDbRotatedDimension
  0
DIMENSION
  5
27C
100
AcDbEntity
  8
0
100
AcDbDimension
 62
7
  6
CONTINUOUS
  2
*D1
 10
93.36300657
 20
826.3205784205
 11
93.36300657
 21
778.8704126717
 70
160
  3
DIMSTYLE_1
100
AcDbAlignedDimension
 13
119.457582499
 23
731.5205784205
 14
118.3250648869
 24
826.3205784205
 50
90.0
100
AcDbRotatedDimension
  0
DIMENSION
  5
27D
100
AcDbEntity
  8
0
100
AcDbDimension
 62
7
  6
CONTINUOUS
  2
*D2
 10
180.9281423804
 20
686.5779904131
 11
159.8735168457
 21
686.5779904131
 70
160
  3
DIMSTYLE_1
100
AcDbAlignedDimension
 13
139.3281423804
 23
706.9040044492
 14
180.9281423804
 24
705.7158912403
100
AcDbRotatedDimension
  0
DIMENSION
  5
27E
100
AcDbEntity
  8
0
100
AcDbDimension
 62
7
  6
CONTINUOUS
  2
*D3
 10
3111.6201334816
 20
659.7734588664
 11
1707.9838867188
 21
659.7734588664
 70
160
  3
DIMSTYLE_2
100
AcDbAlignedDimension
 13
304.6201334816
 23
705.7158912403
 14
3111.6201334816
 24
705.7158912403
100
AcDbRotatedDimension
  0
LINE
  5
27F
100
AcDbEntity
  8
0
100
AcDbLine
 62
2
  6
CONTINUOUS
 10
3000.2254791432
 20
61.3303269448
 11
3090.2254791432
 21
61.3303269448
  0
LINE
  5
280
100
AcDbEntity
  8
0
100
AcDbLine
 62
2
  6
CONTINUOUS
 10
3000.2254791432
 20
61.3303269448
 11
3000.2254791432
 21
21.3303269448
  0
LINE
  5
281
100
AcDbEntity
  8
0
100
AcDbLine
 62
2
  6
CONTINUOUS
 10
3030.2254791432
 20
55.3303269448
 11
3090.2254791432
 21
55.3303269448
  0
LINE
  5
282
100
AcDbEntity
  8
0
100
AcDbLine
 62
2
  6
CONTINUOUS
 10
3030.2254791432
 20
49.3303269448
 11
3090.2254791432
 21
49.3303269448
  0
LINE
  5
283
100
AcDbEntity
  8
0
100
AcDbLine
 62
2
  6
CONTINUOUS
 10
3030.2254791432
 20
39.3303269448
 11
3090.2254791432
 21
39.3303269448
  0
LINE
  5
284
100
AcDbEntity
  8
0
100
AcDbLine
 62
2
  6
CONTINUOUS
 10
3000.2254791432
 20
34.3303269448
 11
3090.2254791432
 21
34.3303269448
  0
LINE
  5
285
100
AcDbEntity
  8
0
100
AcDbLine
 62
2
  6
CONTINUOUS
 10
3000.2254791432
 20
21.3303269448
 11
3090.2254791432
 21
21.3303269448
  0
LINE
  5
286
100
AcDbEntity
  8
0
100
AcDbLine
 62
2
  6
CONTINUOUS
 10
3030.2254791432
 20
61.3303269448
 11
3030.2254791432
 21
34.3303269448
  0
LINE
  5
287
100
AcDbEntity
  8
0
100
AcDbLine
 62
2
  6
CONTINUOUS
 10
3070.2254791432
 20
61.3303269448
 11
3070.2254791432
 21
49.3303269448
  0
LINE
  5
288
100
AcDbEntity
  8
0
100
AcDbLine
 62
2
  6
CONTINUOUS
 10
3090.2254791432
 20
61.3303269448
 11
3090.2254791432
 21
21.3303269448
  0
INSERT
  5
289
100
AcDbEntity
  8
0
100
AcDbBlockReference
 62
2
  6
CONTINUOUS
  2
LOGO2_BL0
 10
3014.051526188
 20
47.8303269448
  0
MTEXT
  5
28A
100
AcDbEntity
  8
9_SOLID
100
AcDbMText
 62
2
  6
CONTINUOUS
  7
TEXTSTYLE_2
 71
1
 72
1
 10
3031.7129791432
 20
59.8303269448
 30
0.0
 11
1.0
 21
0.0
 31
0.0
  1
6F3_C_147
 40
3.0
 41
31.2857142857
  0
MTEXT
  5
28B
100
AcDbEntity
  8
0
100
AcDbMText
 62
2
  6
CONTINUOUS
  7
TEXTSTYLE_2
 71
1
 72
1
 10
3071.7129791432
 20
59.5803269448
 30
0.0
 11
1.0
 21
0.0
 31
0.0
  1
Rev:00
 40
3.5
 41
22.75
  0
MTEXT
  5
28C
100
AcDbEntity
  8
9_SOLID
100
AcDbMText
 62
2
  6
CONTINUOUS
  7
TEXTSTYLE_2
 71
1
 72
1
 10
3031.7129791432
 20
53.5803269448
 30
0.0
 11
1.0
 21
0.0
 31
0.0
  1
Scale:1:1
 40
3.5
 41
28.375
  0
MTEXT
  5
28D
100
AcDbEntity
  8
9_SOLID
100
AcDbMText
 62
2
  6
CONTINUOUS
  7
TEXTSTYLE_2
 71
1
 72
1
 10
3071.7129791432
 20
54.0803269448
 30
0.0
 11
1.0
 21
0.0
 31
0.0
  1
3200 by 2500
 40
3.5
 41
48.5
  0
MTEXT
  5
28E
100
AcDbEntity
  8
0
100
AcDbMText
 62
2
  6
CONTINUOUS
  7
TEXTSTYLE_2
 71
1
 72
1
 10
3031.7129791432
 20
46.0803269448
 30
0.0
 11
1.0
 21
0.0
 31
0.0
  1
CASS. BRENTA 1.9 ARRETRATA NO STANDARD
 40
3.5
 41
159.25
  0
MTEXT
  5
28F
100
AcDbEntity
  8
0
100
AcDbMText
 62
2
  6
CONTINUOUS
  7
TEXTSTYLE_2
 71
1
 72
1
 10
3031.7129791432
 20
38.0803269448
 30
0.0
 11
1.0
 21
0.0
 31
0.0
  1
DATE:08/05/18
 40
2.5
 41
36.875
  0
MTEXT
  5
290
100
AcDbEntity
  8
9_SOLID
100
AcDbMText
 62
2
  6
CONTINUOUS
  7
TEXTSTYLE_2
 71
1
 72
1
 10
3001.7129791432
 20
34.0178269448
 30
0.0
 11
1.0
 21
0.0
 31
0.0
  1
Any integral or partial reproductions are prohibited \Pwithout prior authorisation of L {\Ftxt.shx;\W0.190476;\H2.250000; }& L Luce & Light s.r.l., \Pin accordance with the law in force. \PAll rights reserved.
 40
2.25
 41
134.5982142857
  0
LINE
  5
291
100
AcDbEntity
  8
0
100
AcDbLine
 62
7
  6
CONTINUOUS
 10
0.0
 20
0.0
 11
0.0
 21
2500.0
  0
LINE
  5
292
100
AcDbEntity
  8
0
100
AcDbLine
 62
7
  6
CONTINUOUS
 10
0.0
 20
0.0
 11
3200.0
 21
0.0
  0
LINE
  5
293
100
AcDbEntity
  8
0
100
AcDbLine
 62
7
  6
CONTINUOUS
 10
0.0
 20
2500.0
 11
3200.0
 21
2500.0
  0
LINE
  5
294
100
AcDbEntity
  8
0
100
AcDbLine
 62
7
  6
CONTINUOUS
 10
3200.0
 20
0.0
 11
3200.0
 21
2500.0
  0
LINE
  5
295
100
AcDbEntity
  8
6_ALL_SURFS
100
AcDbLine
 62
7
  6
CONTINUOUS
 10
121.7781423804
 20
734.1705784205
 11
122.0781423804
 21
734.0205784205
  0
LINE
  5
296
100
AcDbEntity
  8
6_ALL_SURFS
100
AcDbLine
 62
7
  6
CONTINUOUS
 10
124.7781423804
 20
734.1705784205
 11
125.0781423804
 21
734.0205784205
  0
LINE
  5
297
100
AcDbEntity
  8
6_ALL_SURFS
100
AcDbLine
 62
7
  6
CONTINUOUS
 10
127.7781423804
 20
734.1705784205
 11
128.0781423804
 21
734.0205784205
  0
LINE
  5
298
100
AcDbEntity
  8
6_ALL_SURFS
100
AcDbLine
 62
7
  6
CONTINUOUS
 10
130.7781423804
 20
734.1705784205
 11
131.0781423804
 21
734.0205784205
  0
LINE
  5
299
100
AcDbEntity
  8
6_ALL_SURFS
100
AcDbLine
 62
7
  6
CONTINUOUS
 10
133.7781423804
 20
734.1705784205
 11
134.0781423804
 21
734.0205784205
  0
LINE
  5
29A
100
AcDbEntity
  8
6_ALL_SURFS
100
AcDbLine
 62
7
  6
CONTINUOUS
 10
136.7781423804
 20
734.1705784205
 11
137.0781423804
 21
734.0205784205
  0
LINE
  5
29B
100
AcDbEntity
  8
7_ALL_FEATURES
100
AcDbLine
 62
7
  6
CONTINUOUS
 10
198.6781423804
 20
733.0205784205
 11
200.8236139708
 21
733.2351255795
  0
LINE
  5
29C
100
AcDbEntity
  8
6_ALL_SURFS
100
AcDbLine
 62
7
  6
CONTINUOUS
 10
140.2781423804
 20
731.5205784205
 11
139.6281423804
 21
731.5205784205
  0
LINE
  5
29D
100
AcDbEntity
  8
7_ALL_FEATURES
100
AcDbLine
 62
7
  6
CONTINUOUS
 10
179.9781423804
 20
731.5205784205
 11
180.6281423804
 21
731.5205784205
  0
LINE
  5
29E
100
AcDbEntity
  8
6_ALL_SURFS
100
AcDbLine
 62
7
  6
CONTINUOUS
 10
139.0281423804
 20
733.0205784205
 11
137.0781423804
 21
733.0205784205
  0
LINE
  5
29F
100
AcDbEntity
  8
6_ALL_SURFS
100
AcDbLine
 62
7
  6
CONTINUOUS
 10
136.4781423804
 20
733.0205784205
 11
134.0781423804
 21
733.0205784205
  0
LINE
  5
2A0
100
AcDbEntity
  8
6_ALL_SURFS
100
AcDbLine
 62
7
  6
CONTINUOUS
 10
133.4781423804
 20
733.0205784205
 11
131.0781423804
 21
733.0205784205
  0
LINE
  5
2A1
100
AcDbEntity
  8
6_ALL_SURFS
100
AcDbLine
 62
7
  6
CONTINUOUS
 10
130.4781423804
 20
733.0205784205
 11
128.0781423804
 21
733.0205784205
  0
LINE
  5
2A2
100
AcDbEntity
  8
6_ALL_SURFS
100
AcDbLine
 62
7
  6
CONTINUOUS
 10
127.4781423804
 20
733.0205784205
 11
125.0781423804
 21
733.0205784205
  0
LINE
  5
2A3
100
AcDbEntity
  8
6_ALL_SURFS
100
AcDbLine
 62
7
  6
CONTINUOUS
 10
124.4781423804
 20
733.0205784205
 11
121.5781423804
 21
733.0205784205
  0
LINE
  5
2A4
100
AcDbEntity
  8
7_ALL_FEATURES
100
AcDbLine
 62
7
  6
CONTINUOUS
 10
181.2281423804
 20
733.0205784205
 11
183.1781423804
 21
733.0205784205
  0
LINE
  5
2A5
100
AcDbEntity
  8
7_ALL_FEATURES
100
AcDbLine
 62
7
  6
CONTINUOUS
 10
183.7781423804
 20
733.0205784205
 11
186.1781423804
 21
733.0205784205
  0
LINE
  5
2A6
100
AcDbEntity
  8
7_ALL_FEATURES
100
AcDbLine
 62
7
  6
CONTINUOUS
 10
186.7781423804
 20
733.0205784205
 11
189.1781423804
 21
733.0205784205
  0
LINE
  5
2A7
100
AcDbEntity
  8
7_ALL_FEATURES
100
AcDbLine
 62
7
  6
CONTINUOUS
 10
189.7781423804
 20
733.0205784205
 11
192.1781423804
 21
733.0205784205
  0
LINE
  5
2A8
100
AcDbEntity
  8
7_ALL_FEATURES
100
AcDbLine
 62
7
  6
CONTINUOUS
 10
192.7781423804
 20
733.0205784205
 11
195.1781423804
 21
733.0205784205
  0
LINE
  5
2A9
100
AcDbEntity
  8
7_ALL_FEATURES
100
AcDbLine
 62
7
  6
CONTINUOUS
 10
195.7781423804
 20
733.0205784205
 11
198.6781423804
 21
733.0205784205
  0
LINE
  5
2AA
100
AcDbEntity
  8
6_ALL_SURFS
100
AcDbLine
 62
7
  6
CONTINUOUS
 10
121.5781423804
 20
733.0205784205
 11
119.43267079
 21
733.2351255795
  0
LINE
  5
2AB
100
AcDbEntity
  8
7_ALL_FEATURES
100
AcDbLine
 62
7
  6
CONTINUOUS
 10
200.7844390225
 20
734.0205784205
 11
198.7781423804
 21
734.0205784205
  0
LINE
  5
2AC
100
AcDbEntity
  8
7_ALL_FEATURES
100
AcDbLine
 62
7
  6
CONTINUOUS
 10
198.1781423804
 20
734.0205784205
 11
195.7781423804
 21
734.0205784205
  0
LINE
  5
2AD
100
AcDbEntity
  8
7_ALL_FEATURES
100
AcDbLine
 62
7
  6
CONTINUOUS
 10
195.1781423804
 20
734.0205784205
 11
192.7781423804
 21
734.0205784205
  0
LINE
  5
2AE
100
AcDbEntity
  8
7_ALL_FEATURES
100
AcDbLine
 62
7
  6
CONTINUOUS
 10
192.1781423804
 20
734.0205784205
 11
189.7781423804
 21
734.0205784205
  0
LINE
  5
2AF
100
AcDbEntity
  8
7_ALL_FEATURES
100
AcDbLine
 62
7
  6
CONTINUOUS
 10
189.1781423804
 20
734.0205784205
 11
186.7781423804
 21
734.0205784205
  0
LINE
  5
2B0
100
AcDbEntity
  8
7_ALL_FEATURES
100
AcDbLine
 62
7
  6
CONTINUOUS
 10
186.1781423804
 20
734.0205784205
 11
183.7781423804
 21
734.0205784205
  0
LINE
  5
2B1
100
AcDbEntity
  8
7_ALL_FEATURES
100
AcDbLine
 62
7
  6
CONTINUOUS
 10
183.1781423804
 20
734.0205784205
 11
181.4781423804
 21
734.0205784205
  0
LINE
  5
2B2
100
AcDbEntity
  8
6_ALL_SURFS
100
AcDbLine
 62
7
  6
CONTINUOUS
 10
119.4718457383
 20
734.0205784205
 11
121.4781423804
 21
734.0205784205
  0
LINE
  5
2B3
100
AcDbEntity
  8
6_ALL_SURFS
100
AcDbLine
 62
7
  6
CONTINUOUS
 10
122.0781423804
 20
734.0205784205
 11
124.4781423804
 21
734.0205784205
  0
LINE
  5
2B4
100
AcDbEntity
  8
6_ALL_SURFS
100
AcDbLine
 62
7
  6
CONTINUOUS
 10
125.0781423804
 20
734.0205784205
 11
127.4781423804
 21
734.0205784205
  0
LINE
  5
2B5
100
AcDbEntity
  8
6_ALL_SURFS
100
AcDbLine
 62
7
  6
CONTINUOUS
 10
128.0781423804
 20
734.0205784205
 11
130.4781423804
 21
734.0205784205
  0
LINE
  5
2B6
100
AcDbEntity
  8
6_ALL_SURFS
100
AcDbLine
 62
7
  6
CONTINUOUS
 10
131.0781423804
 20
734.0205784205
 11
133.4781423804
 21
734.0205784205
  0
LINE
  5
2B7
100
AcDbEntity
  8
6_ALL_SURFS
100
AcDbLine
 62
7
  6
CONTINUOUS
 10
134.0781423804
 20
734.0205784205
 11
136.4781423804
 21
734.0205784205
  0
LINE
  5
2B8
100
AcDbEntity
  8
6_ALL_SURFS
100
AcDbLine
 62
7
  6
CONTINUOUS
 10
137.0781423804
 20
734.0205784205
 11
138.7781423804
 21
734.0205784205
  0
LINE
  5
2B9
100
AcDbEntity
  8
7_ALL_FEATURES
100
AcDbLine
 62
7
  6
CONTINUOUS
 10
158.6281423804
 20
824.3705784205
 11
158.4281423804
 21
824.1705784205
  0
LINE
  5
2BA
100
AcDbEntity
  8
6_ALL_SURFS
100
AcDbLine
 62
7
  6
CONTINUOUS
 10
148.9139540627
 20
824.4816441793
 11
149.8890607015
 21
826.1705784205
  0
LINE
  5
2BB
100
AcDbEntity
  8
7_ALL_FEATURES
100
AcDbLine
 62
7
  6
CONTINUOUS
 10
140.9781423804
 20
746.5205784205
 11
179.2781423804
 21
746.5205784205
  0
LINE
  5
2BC
100
AcDbEntity
  8
7_ALL_FEATURES
100
AcDbLine
 62
7
  6
CONTINUOUS
 10
179.2781423804
 20
747.5205784205
 11
178.4281423804
 21
747.5205784205
  0
LINE
  5
2BD
100
AcDbEntity
  8
7_ALL_FEATURES
100
AcDbLine
 62
7
  6
CONTINUOUS
 10
141.8281423804
 20
747.5205784205
 11
140.9781423804
 21
747.5205784205
  0
LINE
  5
2BE
100
AcDbEntity
  8
7_ALL_FEATURES
100
AcDbLine
 62
7
  6
CONTINUOUS
 10
177.2281423804
 20
747.6205784205
 11
143.0281423804
 21
747.6205784205
  0
LINE
  5
2BF
100
AcDbEntity
  8
7_ALL_FEATURES
100
AcDbLine
 62
7
  6
CONTINUOUS
 10
179.3781423804
 20
749.0205784205
 11
178.6641473331
 21
749.0205784205
  0
LINE
  5
2C0
100
AcDbEntity
  8
6_ALL_SURFS
100
AcDbLine
 62
7
  6
CONTINUOUS
 10
140.8781423804
 20
749.0205784205
 11
141.5921374278
 21
749.0205784205
  0
LINE
  5
2C1
100
AcDbEntity
  8
7_ALL_FEATURES
100
AcDbLine
 62
7
  6
CONTINUOUS
 10
183.7781423804
 20
734.0205784205
 11
183.4781423804
 21
734.1705784205
  0
LINE
  5
2C2
100
AcDbEntity
  8
6_ALL_SURFS
100
AcDbLine
 62
7
  6
CONTINUOUS
 10
143.4281423804
 20
752.2705784205
 11
142.6085860929
 21
752.2705784205
  0
LINE
  5
2C3
100
AcDbEntity
  8
7_ALL_FEATURES
100
AcDbLine
 62
7
  6
CONTINUOUS
 10
176.8281423804
 20
752.2705784205
 11
177.6476986679
 21
752.2705784205
  0
LINE
  5
2C4
100
AcDbEntity
  8
7_ALL_FEATURES
100
AcDbLine
 62
7
  6
CONTINUOUS
 10
186.7781423804
 20
734.0205784205
 11
186.4781423804
 21
734.1705784205
  0
LINE
  5
2C5
100
AcDbEntity
  8
7_ALL_FEATURES
100
AcDbLine
 62
7
  6
CONTINUOUS
 10
189.7781423804
 20
734.0205784205
 11
189.4781423804
 21
734.1705784205
  0
LINE
  5
2C6
100
AcDbEntity
  8
7_ALL_FEATURES
100
AcDbLine
 62
7
  6
CONTINUOUS
 10
192.7781423804
 20
734.0205784205
 11
192.4781423804
 21
734.1705784205
  0
LINE
  5
2C7
100
AcDbEntity
  8
6_ALL_SURFS
100
AcDbLine
 62
7
  6
CONTINUOUS
 10
143.1892081393
 20
756.7347667382
 11
143.5781423804
 21
756.5102154494
  0
LINE
  5
2C8
100
AcDbEntity
  8
6_ALL_SURFS
100
AcDbLine
 62
7
  6
CONTINUOUS
 10
138.9281423804
 20
756.6205784205
 11
138.9281423804
 21
758.4205784205
  0
LINE
  5
2C9
100
AcDbEntity
  8
6_ALL_SURFS
100
AcDbLine
 62
7
  6
CONTINUOUS
 10
139.0781423804
 20
734.3205784205
 11
139.0781423804
 21
743.5175105851
  0
LINE
  5
2CA
100
AcDbEntity
  8
6_ALL_SURFS
100
AcDbLine
 62
7
  6
CONTINUOUS
 10
139.0781423804
 20
747.5274981162
 11
139.0781423804
 21
750.2330778714
  0
LINE
  5
2CB
100
AcDbEntity
  8
6_ALL_SURFS
100
AcDbLine
 62
7
  6
CONTINUOUS
 10
139.3281423804
 20
731.8205784205
 11
139.3281423804
 21
732.7205784205
  0
LINE
  5
2CC
100
AcDbEntity
  8
6_ALL_SURFS
100
AcDbLine
 62
7
  6
CONTINUOUS
 10
142.2466623448
 20
806.5482904194
 11
145.3519277621
 21
820.5552375433
  0
LINE
  5
2CD
100
AcDbEntity
  8
6_ALL_SURFS
100
AcDbLine
 62
7
  6
CONTINUOUS
 10
146.554431225
 20
818.5870180344
 11
143.7749178356
 21
806.049443353
  0
LINE
  5
2CE
100
AcDbEntity
  8
6_ALL_SURFS
100
AcDbLine
 62
7
  6
CONTINUOUS
 10
144.1435059664
 20
805.305916273
 11
143.7884497596
 21
804.3304073624
  0
LINE
  5
2CF
100
AcDbEntity
  8
6_ALL_SURFS
100
AcDbLine
 62
7
  6
CONTINUOUS
 10
141.6781423804
 20
754.6205784205
 11
140.9281423804
 21
754.6205784205
  0
LINE
  5
2D0
100
AcDbEntity
  8
7_ALL_FEATURES
100
AcDbLine
 62
7
  6
CONTINUOUS
 10
178.5781423804
 20
754.6205784205
 11
179.3281423804
 21
754.6205784205
  0
LINE
  5
2D1
100
AcDbEntity
  8
7_ALL_FEATURES
100
AcDbLine
 62
7
  6
CONTINUOUS
 10
195.7781423804
 20
734.0205784205
 11
195.4781423804
 21
734.1705784205
  0
LINE
  5
2D2
100
AcDbEntity
  8
7_ALL_FEATURES
100
AcDbLine
 62
7
  6
CONTINUOUS
 10
198.7781423804
 20
734.0205784205
 11
198.4781423804
 21
734.1705784205
  0
LINE
  5
2D3
100
AcDbEntity
  8
6_ALL_SURFS
100
AcDbLine
 62
7
  6
CONTINUOUS
 10
140.5781423804
 20
750.1149047287
 11
140.5781423804
 21
749.3205784205
  0
LINE
  5
2D4
100
AcDbEntity
  8
6_ALL_SURFS
100
AcDbLine
 62
7
  6
CONTINUOUS
 10
140.5781423804
 20
747.0687421428
 11
140.5781423804
 21
746.4056804373
  0
LINE
  5
2D5
100
AcDbEntity
  8
6_ALL_SURFS
100
AcDbLine
 62
7
  6
CONTINUOUS
 10
140.5781423804
 20
744.639328264
 11
140.5781423804
 21
731.8205784205
  0
LINE
  5
2D6
100
AcDbEntity
  8
7_ALL_FEATURES
100
AcDbLine
 62
7
  6
CONTINUOUS
 10
140.7781423804
 20
747.3205784205
 11
140.7781423804
 21
746.7205784205
  0
LINE
  5
2D7
100
AcDbEntity
  8
6_ALL_SURFS
100
AcDbLine
 62
7
  6
CONTINUOUS
 10
141.9781423804
 20
754.0519859866
 11
141.9781423804
 21
754.3205784205
  0
LINE
  5
2D8
100
AcDbEntity
  8
7_ALL_FEATURES
100
AcDbLine
 62
7
  6
CONTINUOUS
 10
142.0281423804
 20
748.3405784205
 11
142.0281423804
 21
747.7205784205
  0
LINE
  5
2D9
100
AcDbEntity
  8
6_ALL_SURFS
100
AcDbLine
 62
7
  6
CONTINUOUS
 10
142.1281423804
 20
760.7205784205
 11
142.1281423804
 21
805.4660923498
  0
LINE
  5
2DA
100
AcDbEntity
  8
7_ALL_FEATURES
100
AcDbLine
 62
7
  6
CONTINUOUS
 10
142.8281423804
 20
747.8205784205
 11
142.8281423804
 21
748.3405784205
  0
LINE
  5
2DB
100
AcDbEntity
  8
6_ALL_SURFS
100
AcDbLine
 62
7
  6
CONTINUOUS
 10
143.7281423804
 20
803.988387219
 11
143.7281423804
 21
758.7907490127
  0
LINE
  5
2DC
100
AcDbEntity
  8
6_ALL_SURFS
100
AcDbLine
 62
7
  6
CONTINUOUS
 10
143.7281423804
 20
756.2504078283
 11
143.7281423804
 21
752.5705784205
  0
LINE
  5
2DD
100
AcDbEntity
  8
7_ALL_FEATURES
100
AcDbLine
 62
7
  6
CONTINUOUS
 10
179.3281423804
 20
760.4205784205
 11
178.4281423804
 21
760.4205784205
  0
LINE
  5
2DE
100
AcDbEntity
  8
6_ALL_SURFS
100
AcDbLine
 62
7
  6
CONTINUOUS
 10
140.9281423804
 20
760.4205784205
 11
141.8281423804
 21
760.4205784205
  0
LINE
  5
2DF
100
AcDbEntity
  8
6_ALL_SURFS
100
AcDbLine
 62
7
  6
CONTINUOUS
 10
144.1281423804
 20
825.3205784205
 11
144.1281423804
 21
826.0205784205
  0
LINE
  5
2E0
100
AcDbEntity
  8
7_ALL_FEATURES
100
AcDbLine
 62
7
  6
CONTINUOUS
 10
176.3428268497
 20
805.7272635911
 11
176.2403378541
 21
805.6657701937
  0
LINE
  5
2E1
100
AcDbEntity
  8
6_ALL_SURFS
100
AcDbLine
 62
7
  6
CONTINUOUS
 10
150.9281423804
 20
826.0205784205
 11
150.9281423804
 21
823.1205784205
  0
LINE
  5
2E2
100
AcDbEntity
  8
7_ALL_FEATURES
100
AcDbLine
 62
7
  6
CONTINUOUS
 10
173.8890607015
 20
826.1705784205
 11
172.9139540627
 21
824.4816441793
  0
LINE
  5
2E3
100
AcDbEntity
  8
7_ALL_FEATURES
100
AcDbLine
 62
7
  6
CONTINUOUS
 10
176.6781423804
 20
758.5309413915
 11
177.0670766215
 21
758.3063901027
  0
LINE
  5
2E4
100
AcDbEntity
  8
7_ALL_FEATURES
100
AcDbLine
 62
7
  6
CONTINUOUS
 10
152.6281423804
 20
819.3705784205
 11
152.6281423804
 21
818.3705784205
  0
LINE
  5
2E5
100
AcDbEntity
  8
7_ALL_FEATURES
100
AcDbLine
 62
7
  6
CONTINUOUS
 10
156.1281423804
 20
816.3423751902
 11
156.1281423804
 21
818.3705784205
  0
LINE
  5
2E6
100
AcDbEntity
  8
7_ALL_FEATURES
100
AcDbLine
 62
7
  6
CONTINUOUS
 10
177.9248125102
 20
750.5477790764
 11
178.2892403234
 21
750.1569780925
  0
LINE
  5
2E7
100
AcDbEntity
  8
7_ALL_FEATURES
100
AcDbLine
 62
7
  6
CONTINUOUS
 10
178.8743232847
 20
750.7025767805
 11
178.5098954715
 21
751.0933777645
  0
LINE
  5
2E8
100
AcDbEntity
  8
7_ALL_FEATURES
100
AcDbLine
 62
7
  6
CONTINUOUS
 10
177.8671047784
 20
752.1751779285
 11
179.5975484909
 21
750.3195042368
  0
LINE
  5
2E9
100
AcDbEntity
  8
7_ALL_FEATURES
100
AcDbLine
 62
7
  6
CONTINUOUS
 10
180.7751729329
 20
751.2560754115
 11
178.3587362699
 21
753.8473864786
  0
LINE
  5
2EA
100
AcDbEntity
  8
7_ALL_FEATURES
100
AcDbLine
 62
7
  6
CONTINUOUS
 10
178.505476665
 20
748.6988261347
 11
179.6161483825
 21
747.2513705715
  0
LINE
  5
2EB
100
AcDbEntity
  8
6_ALL_SURFS
100
AcDbLine
 62
7
  6
CONTINUOUS
 10
156.5281423804
 20
821.2705784205
 11
156.5281423804
 21
824.5205784205
  0
LINE
  5
2EC
100
AcDbEntity
  8
7_ALL_FEATURES
100
AcDbLine
 62
7
  6
CONTINUOUS
 10
158.1281423804
 20
815.5246117281
 11
158.1281423804
 21
815.5407660036
  0
LINE
  5
2ED
100
AcDbEntity
  8
6_ALL_SURFS
100
AcDbLine
 62
7
  6
CONTINUOUS
 10
158.4281423804
 20
824.4205784205
 11
158.4281423804
 21
819.6705784205
  0
LINE
  5
2EE
100
AcDbEntity
  8
7_ALL_FEATURES
100
AcDbLine
 62
7
  6
CONTINUOUS
 10
159.6281423804
 20
815.3018896952
 11
159.6281423804
 21
815.5407660036
  0
LINE
  5
2EF
100
AcDbEntity
  8
7_ALL_FEATURES
100
AcDbLine
 62
7
  6
CONTINUOUS
 10
160.6281423804
 20
815.5407660036
 11
160.6281423804
 21
815.3018896952
  0
LINE
  5
2F0
100
AcDbEntity
  8
7_ALL_FEATURES
100
AcDbLine
 62
7
  6
CONTINUOUS
 10
161.8281423804
 20
824.4205784205
 11
161.8281423804
 21
819.6705784205
  0
LINE
  5
2F1
100
AcDbEntity
  8
7_ALL_FEATURES
100
AcDbLine
 62
7
  6
CONTINUOUS
 10
162.1281423804
 20
815.5407660036
 11
162.1281423804
 21
815.5246117281
  0
LINE
  5
2F2
100
AcDbEntity
  8
7_ALL_FEATURES
100
AcDbLine
 62
7
  6
CONTINUOUS
 10
163.7281423804
 20
821.2705784205
 11
163.7281423804
 21
824.5205784205
  0
LINE
  5
2F3
100
AcDbEntity
  8
7_ALL_FEATURES
100
AcDbLine
 62
7
  6
CONTINUOUS
 10
164.1281423804
 20
816.3423751902
 11
164.1281423804
 21
818.3705784205
  0
LINE
  5
2F4
100
AcDbEntity
  8
6_ALL_SURFS
100
AcDbLine
 62
7
  6
CONTINUOUS
 10
141.7508080958
 20
748.6988261347
 11
140.6401363783
 21
747.2513705715
  0
LINE
  5
2F5
100
AcDbEntity
  8
6_ALL_SURFS
100
AcDbLine
 62
7
  6
CONTINUOUS
 10
139.481111828
 20
751.2560754115
 11
141.8975484909
 21
753.8473864786
  0
LINE
  5
2F6
100
AcDbEntity
  8
7_ALL_FEATURES
100
AcDbLine
 62
7
  6
CONTINUOUS
 10
167.6281423804
 20
818.3705784205
 11
167.6281423804
 21
819.3705784205
  0
LINE
  5
2F7
100
AcDbEntity
  8
6_ALL_SURFS
100
AcDbLine
 62
7
  6
CONTINUOUS
 10
142.3891799824
 20
752.1751779285
 11
140.6587362699
 21
750.3195042368
  0
LINE
  5
2F8
100
AcDbEntity
  8
7_ALL_FEATURES
100
AcDbLine
 62
7
  6
CONTINUOUS
 10
141.7463892893
 20
751.0933777645
 11
141.3819614761
 21
750.7025767805
  0
LINE
  5
2F9
100
AcDbEntity
  8
7_ALL_FEATURES
100
AcDbLine
 62
7
  6
CONTINUOUS
 10
141.9670444374
 20
750.1569780925
 11
142.3314722506
 21
750.5477790764
  0
LINE
  5
2FA
100
AcDbEntity
  8
7_ALL_FEATURES
100
AcDbLine
 62
7
  6
CONTINUOUS
 10
169.3281423804
 20
826.0205784205
 11
169.3281423804
 21
823.1205784205
  0
LINE
  5
2FB
100
AcDbEntity
  8
6_ALL_SURFS
100
AcDbLine
 62
7
  6
CONTINUOUS
 10
143.5781423804
 20
758.5309413915
 11
143.1892081393
 21
758.3063901027
  0
LINE
  5
2FC
100
AcDbEntity
  8
6_ALL_SURFS
100
AcDbLine
 62
7
  6
CONTINUOUS
 10
146.3672240594
 20
826.1705784205
 11
147.3423306981
 21
824.4816441793
  0
LINE
  5
2FD
100
AcDbEntity
  8
7_ALL_FEATURES
100
AcDbLine
 62
7
  6
CONTINUOUS
 10
176.1281423804
 20
825.3205784205
 11
176.1281423804
 21
826.0205784205
  0
LINE
  5
2FE
100
AcDbEntity
  8
7_ALL_FEATURES
100
AcDbLine
 62
7
  6
CONTINUOUS
 10
176.5281423804
 20
803.988387219
 11
176.5281423804
 21
758.7907490127
  0
LINE
  5
2FF
100
AcDbEntity
  8
7_ALL_FEATURES
100
AcDbLine
 62
7
  6
CONTINUOUS
 10
176.5281423804
 20
756.2504078283
 11
176.5281423804
 21
752.5705784205
  0
LINE
  5
300
100
AcDbEntity
  8
6_ALL_SURFS
100
AcDbLine
 62
7
  6
CONTINUOUS
 10
143.9134579111
 20
805.7272635911
 11
144.0159469068
 21
805.6657701937
  0
LINE
  5
301
100
AcDbEntity
  8
7_ALL_FEATURES
100
AcDbLine
 62
7
  6
CONTINUOUS
 10
177.4281423804
 20
748.3405784205
 11
177.4281423804
 21
747.8205784205
  0
LINE
  5
302
100
AcDbEntity
  8
7_ALL_FEATURES
100
AcDbLine
 62
7
  6
CONTINUOUS
 10
178.1281423804
 20
760.7205784205
 11
178.1281423804
 21
805.4660923498
  0
LINE
  5
303
100
AcDbEntity
  8
7_ALL_FEATURES
100
AcDbLine
 62
7
  6
CONTINUOUS
 10
178.2281423804
 20
747.7205784205
 11
178.2281423804
 21
748.3405784205
  0
LINE
  5
304
100
AcDbEntity
  8
7_ALL_FEATURES
100
AcDbLine
 62
7
  6
CONTINUOUS
 10
178.2781423804
 20
754.0519859866
 11
178.2781423804
 21
754.3205784205
  0
LINE
  5
305
100
AcDbEntity
  8
7_ALL_FEATURES
100
AcDbLine
 62
7
  6
CONTINUOUS
 10
179.4781423804
 20
746.7205784205
 11
179.4781423804
 21
747.3205784205
  0
LINE
  5
306
100
AcDbEntity
  8
7_ALL_FEATURES
100
AcDbLine
 62
7
  6
CONTINUOUS
 10
179.6781423804
 20
750.1149047287
 11
179.6781423804
 21
749.3205784205
  0
LINE
  5
307
100
AcDbEntity
  8
7_ALL_FEATURES
100
AcDbLine
 62
7
  6
CONTINUOUS
 10
179.6781423804
 20
747.0687421428
 11
179.6781423804
 21
746.4056804373
  0
LINE
  5
308
100
AcDbEntity
  8
7_ALL_FEATURES
100
AcDbLine
 62
7
  6
CONTINUOUS
 10
179.6781423804
 20
744.639328264
 11
179.6781423804
 21
731.8205784205
  0
LINE
  5
309
100
AcDbEntity
  8
7_ALL_FEATURES
100
AcDbLine
 62
7
  6
CONTINUOUS
 10
180.9281423804
 20
731.8205784205
 11
180.9281423804
 21
732.7205784205
  0
LINE
  5
30A
100
AcDbEntity
  8
7_ALL_FEATURES
100
AcDbLine
 62
7
  6
CONTINUOUS
 10
181.1781423804
 20
734.3205784205
 11
181.1781423804
 21
743.5175105851
  0
LINE
  5
30B
100
AcDbEntity
  8
7_ALL_FEATURES
100
AcDbLine
 62
7
  6
CONTINUOUS
 10
181.1781423804
 20
747.5274981162
 11
181.1781423804
 21
750.2330778714
  0
LINE
  5
30C
100
AcDbEntity
  8
7_ALL_FEATURES
100
AcDbLine
 62
7
  6
CONTINUOUS
 10
181.3281423804
 20
756.6205784205
 11
181.3281423804
 21
758.4205784205
  0
LINE
  5
30D
100
AcDbEntity
  8
6_ALL_SURFS
100
AcDbLine
 62
7
  6
CONTINUOUS
 10
121.4781423804
 20
734.0205784205
 11
121.7781423804
 21
734.1705784205
  0
LINE
  5
30E
100
AcDbEntity
  8
6_ALL_SURFS
100
AcDbLine
 62
7
  6
CONTINUOUS
 10
124.4781423804
 20
734.0205784205
 11
124.7781423804
 21
734.1705784205
  0
LINE
  5
30F
100
AcDbEntity
  8
6_ALL_SURFS
100
AcDbLine
 62
7
  6
CONTINUOUS
 10
127.4781423804
 20
734.0205784205
 11
127.7781423804
 21
734.1705784205
  0
LINE
  5
310
100
AcDbEntity
  8
7_ALL_FEATURES
100
AcDbLine
 62
7
  6
CONTINUOUS
 10
176.1127787945
 20
805.305916273
 11
176.4678350012
 21
804.3304073624
  0
LINE
  5
311
100
AcDbEntity
  8
7_ALL_FEATURES
100
AcDbLine
 62
7
  6
CONTINUOUS
 10
173.7018535359
 20
818.5870180344
 11
176.4813669252
 21
806.049443353
  0
LINE
  5
312
100
AcDbEntity
  8
7_ALL_FEATURES
100
AcDbLine
 62
7
  6
CONTINUOUS
 10
178.009622416
 20
806.5482904194
 11
174.9043569987
 21
820.5552375433
  0
LINE
  5
313
100
AcDbEntity
  8
7_ALL_FEATURES
100
AcDbLine
 62
7
  6
CONTINUOUS
 10
177.0670766215
 20
756.7347667382
 11
176.6781423804
 21
756.5102154494
  0
LINE
  5
314
100
AcDbEntity
  8
6_ALL_SURFS
100
AcDbLine
 62
7
  6
CONTINUOUS
 10
130.4781423804
 20
734.0205784205
 11
130.7781423804
 21
734.1705784205
  0
LINE
  5
315
100
AcDbEntity
  8
6_ALL_SURFS
100
AcDbLine
 62
7
  6
CONTINUOUS
 10
133.4781423804
 20
734.0205784205
 11
133.7781423804
 21
734.1705784205
  0
LINE
  5
316
100
AcDbEntity
  8
6_ALL_SURFS
100
AcDbLine
 62
7
  6
CONTINUOUS
 10
136.4781423804
 20
734.0205784205
 11
136.7781423804
 21
734.1705784205
  0
LINE
  5
317
100
AcDbEntity
  8
7_ALL_FEATURES
100
AcDbLine
 62
7
  6
CONTINUOUS
 10
161.6281423804
 20
824.3705784205
 11
161.8281423804
 21
824.1705784205
  0
LINE
  5
318
100
AcDbEntity
  8
7_ALL_FEATURES
100
AcDbLine
 62
7
  6
CONTINUOUS
 10
171.3423306981
 20
824.4816441793
 11
170.3672240594
 21
826.1705784205
  0
LINE
  5
319
100
AcDbEntity
  8
7_ALL_FEATURES
100
AcDbLine
 62
7
  6
CONTINUOUS
 10
164.1281423804
 20
816.3423751902
 11
156.1281423804
 21
816.3423751902
  0
LINE
  5
31A
100
AcDbEntity
  8
7_ALL_FEATURES
100
AcDbLine
 62
7
  6
CONTINUOUS
 10
152.6281423804
 20
818.3705784205
 11
167.6281423804
 21
818.3705784205
  0
LINE
  5
31B
100
AcDbEntity
  8
6_ALL_SURFS
100
AcDbLine
 62
7
  6
CONTINUOUS
 10
158.1281423804
 20
819.3705784205
 11
147.5307272321
 21
819.3705784205
  0
LINE
  5
31C
100
AcDbEntity
  8
7_ALL_FEATURES
100
AcDbLine
 62
7
  6
CONTINUOUS
 10
158.1281423804
 20
819.3705784205
 11
172.7255575288
 21
819.3705784205
  0
LINE
  5
31D
100
AcDbEntity
  8
7_ALL_FEATURES
100
AcDbLine
 62
7
  6
CONTINUOUS
 10
169.2702585479
 20
820.9705784205
 11
164.0281423804
 21
820.9705784205
  0
LINE
  5
31E
100
AcDbEntity
  8
6_ALL_SURFS
100
AcDbLine
 62
7
  6
CONTINUOUS
 10
150.9860262129
 20
820.9705784205
 11
156.2281423804
 21
820.9705784205
  0
LINE
  5
31F
100
AcDbEntity
  8
7_ALL_FEATURES
100
AcDbLine
 62
7
  6
CONTINUOUS
 10
161.8281423804
 20
823.8705784205
 11
158.4281423804
 21
823.8705784205
  0
LINE
  5
320
100
AcDbEntity
  8
7_ALL_FEATURES
100
AcDbLine
 62
7
  6
CONTINUOUS
 10
161.6281423804
 20
824.3705784205
 11
158.6281423804
 21
824.3705784205
  0
LINE
  5
321
100
AcDbEntity
  8
7_ALL_FEATURES
100
AcDbLine
 62
7
  6
CONTINUOUS
 10
161.5281423804
 20
824.7205784205
 11
158.7281423804
 21
824.7205784205
  0
LINE
  5
322
100
AcDbEntity
  8
6_ALL_SURFS
100
AcDbLine
 62
7
  6
CONTINUOUS
 10
145.3622790432
 20
824.8205784205
 11
144.6281423804
 21
824.8205784205
  0
LINE
  5
323
100
AcDbEntity
  8
7_ALL_FEATURES
100
AcDbLine
 62
7
  6
CONTINUOUS
 10
174.8940057176
 20
824.8205784205
 11
175.6281423804
 21
824.8205784205
  0
LINE
  5
324
100
AcDbEntity
  8
7_ALL_FEATURES
100
AcDbLine
 62
7
  6
CONTINUOUS
 10
183.4781423804
 20
734.1705784205
 11
183.1781423804
 21
734.0205784205
  0
LINE
  5
325
100
AcDbEntity
  8
7_ALL_FEATURES
100
AcDbLine
 62
7
  6
CONTINUOUS
 10
175.8281423804
 20
826.3205784205
 11
174.1488683226
 21
826.3205784205
  0
LINE
  5
326
100
AcDbEntity
  8
7_ALL_FEATURES
100
AcDbLine
 62
7
  6
CONTINUOUS
 10
170.1074164383
 20
826.3205784205
 11
169.6281423804
 21
826.3205784205
  0
LINE
  5
327
100
AcDbEntity
  8
6_ALL_SURFS
100
AcDbLine
 62
7
  6
CONTINUOUS
 10
144.4281423804
 20
826.3205784205
 11
146.1074164383
 21
826.3205784205
  0
LINE
  5
328
100
AcDbEntity
  8
6_ALL_SURFS
100
AcDbLine
 62
7
  6
CONTINUOUS
 10
150.1488683226
 20
826.3205784205
 11
150.6281423804
 21
826.3205784205
  0
LINE
  5
329
100
AcDbEntity
  8
7_ALL_FEATURES
100
AcDbLine
 62
7
  6
CONTINUOUS
 10
158.3281423804
 20
826.3205784205
 11
161.9281423804
 21
826.3205784205
  0
LINE
  5
32A
100
AcDbEntity
  8
7_ALL_FEATURES
100
AcDbLine
 62
7
  6
CONTINUOUS
 10
186.4781423804
 20
734.1705784205
 11
186.1781423804
 21
734.0205784205
  0
LINE
  5
32B
100
AcDbEntity
  8
7_ALL_FEATURES
100
AcDbLine
 62
7
  6
CONTINUOUS
 10
189.4781423804
 20
734.1705784205
 11
189.1781423804
 21
734.0205784205
  0
LINE
  5
32C
100
AcDbEntity
  8
7_ALL_FEATURES
100
AcDbLine
 62
7
  6
CONTINUOUS
 10
192.4781423804
 20
734.1705784205
 11
192.1781423804
 21
734.0205784205
  0
LINE
  5
32D
100
AcDbEntity
  8
7_ALL_FEATURES
100
AcDbLine
 62
7
  6
CONTINUOUS
 10
195.4781423804
 20
734.1705784205
 11
195.1781423804
 21
734.0205784205
  0
LINE
  5
32E
100
AcDbEntity
  8
7_ALL_FEATURES
100
AcDbLine
 62
7
  6
CONTINUOUS
 10
198.4781423804
 20
734.1705784205
 11
198.1781423804
 21
734.0205784205
  0
LINE
  5
32F
100
AcDbEntity
  8
6_ALL_SURFS
100
AcDbLine
 62
7
  6
CONTINUOUS
 10
304.6201334816
 20
731.5205784205
 11
304.6201334816
 21
733.0103561684
  0
LINE
  5
330
100
AcDbEntity
  8
6_ALL_SURFS
100
AcDbLine
 62
7
  6
CONTINUOUS
 10
304.6201334816
 20
733.0205784205
 11
304.6201334816
 21
826.3205784205
  0
LINE
  5
331
100
AcDbEntity
  8
6_ALL_SURFS
100
AcDbLine
 62
7
  6
CONTINUOUS
 10
3111.6201334816
 20
731.5205784205
 11
304.6201334816
 21
731.5205784205
  0
LINE
  5
332
100
AcDbEntity
  8
6_ALL_SURFS
100
AcDbLine
 62
9
  6
CONTINUOUS
 10
3111.6201334816
 20
731.8205784205
 11
304.6201334816
 21
731.8205784205
  0
LINE
  5
333
100
AcDbEntity
  8
6_ALL_SURFS
100
AcDbLine
 62
9
  6
CONTINUOUS
 10
304.6201334816
 20
732.7205784205
 11
3111.6201334816
 21
732.7205784205
  0
LINE
  5
334
100
AcDbEntity
  8
6_ALL_SURFS
100
AcDbLine
 62
7
  6
CONTINUOUS
 10
304.6201334816
 20
733.0205784205
 11
3111.6201334816
 21
733.0205784205
  0
LINE
  5
335
100
AcDbEntity
  8
6_ALL_SURFS
100
AcDbLine
 62
9
  6
CONTINUOUS
 10
3111.6201334816
 20
733.2351255795
 11
304.6201334816
 21
733.2351255795
  0
LINE
  5
336
100
AcDbEntity
  8
6_ALL_SURFS
100
AcDbLine
 62
7
  6
CONTINUOUS
 10
3111.6201334816
 20
734.0205784205
 11
304.6201334816
 21
734.0205784205
  0
LINE
  5
337
100
AcDbEntity
  8
6_ALL_SURFS
100
AcDbLine
 62
7
  6
CONTINUOUS
 10
304.6201334816
 20
734.1705784205
 11
3111.6201334816
 21
734.1705784205
  0
LINE
  5
338
100
AcDbEntity
  8
6_ALL_SURFS
100
AcDbLine
 62
9
  6
CONTINUOUS
 10
304.6201334816
 20
734.3205784205
 11
3111.6201334816
 21
734.3205784205
  0
LINE
  5
339
100
AcDbEntity
  8
6_ALL_SURFS
100
AcDbLine
 62
9
  6
CONTINUOUS
 10
304.6201334816
 20
743.5175105851
 11
3111.6201334816
 21
743.5175105851
  0
LINE
  5
33A
100
AcDbEntity
  8
6_ALL_SURFS
100
AcDbLine
 62
9
  6
CONTINUOUS
 10
304.6201334816
 20
744.3414806257
 11
3111.6201334816
 21
744.3414806257
  0
LINE
  5
33B
100
AcDbEntity
  8
6_ALL_SURFS
100
AcDbLine
 62
9
  6
CONTINUOUS
 10
304.6201334816
 20
746.7035280756
 11
3111.6201334816
 21
746.7035280756
  0
LINE
  5
33C
100
AcDbEntity
  8
6_ALL_SURFS
100
AcDbLine
 62
9
  6
CONTINUOUS
 10
304.6201334816
 20
747.5274981162
 11
3111.6201334816
 21
747.5274981162
  0
LINE
  5
33D
100
AcDbEntity
  8
6_ALL_SURFS
100
AcDbLine
 62
9
  6
CONTINUOUS
 10
3111.6201334816
 20
750.2330778714
 11
304.6201334816
 21
750.2330778714
  0
LINE
  5
33E
100
AcDbEntity
  8
6_ALL_SURFS
100
AcDbLine
 62
9
  6
CONTINUOUS
 10
3111.6201334816
 20
751.2560754115
 11
304.6201334816
 21
751.2560754115
  0
LINE
  5
33F
100
AcDbEntity
  8
6_ALL_SURFS
100
AcDbLine
 62
9
  6
CONTINUOUS
 10
304.6201334816
 20
753.8473864786
 11
3111.6201334816
 21
753.8473864786
  0
LINE
  5
340
100
AcDbEntity
  8
6_ALL_SURFS
100
AcDbLine
 62
9
  6
CONTINUOUS
 10
304.6201334816
 20
754.0519859866
 11
3111.6201334816
 21
754.0519859866
  0
LINE
  5
341
100
AcDbEntity
  8
6_ALL_SURFS
100
AcDbLine
 62
9
  6
CONTINUOUS
 10
304.6201334816
 20
754.3205784205
 11
3111.6201334816
 21
754.3205784205
  0
LINE
  5
342
100
AcDbEntity
  8
6_ALL_SURFS
100
AcDbLine
 62
7
  6
CONTINUOUS
 10
3111.6201334816
 20
754.6205784205
 11
304.6201334816
 21
754.6205784205
  0
LINE
  5
343
100
AcDbEntity
  8
6_ALL_SURFS
100
AcDbLine
 62
9
  6
CONTINUOUS
 10
3111.6201334816
 20
756.6205784205
 11
304.6201334816
 21
756.6205784205
  0
LINE
  5
344
100
AcDbEntity
  8
6_ALL_SURFS
100
AcDbLine
 62
9
  6
CONTINUOUS
 10
3111.6201334816
 20
758.4205784205
 11
304.6201334816
 21
758.4205784205
  0
LINE
  5
345
100
AcDbEntity
  8
6_ALL_SURFS
100
AcDbLine
 62
7
  6
CONTINUOUS
 10
3111.6201334816
 20
760.4205784205
 11
304.6201334816
 21
760.4205784205
  0
LINE
  5
346
100
AcDbEntity
  8
6_ALL_SURFS
100
AcDbLine
 62
9
  6
CONTINUOUS
 10
304.6201334816
 20
760.7205784205
 11
3111.6201334816
 21
760.7205784205
  0
LINE
  5
347
100
AcDbEntity
  8
6_ALL_SURFS
100
AcDbLine
 62
9
  6
CONTINUOUS
 10
3111.6201334816
 20
805.4660923498
 11
304.6201334816
 21
805.4660923498
  0
LINE
  5
348
100
AcDbEntity
  8
6_ALL_SURFS
100
AcDbLine
 62
9
  6
CONTINUOUS
 10
3111.6201334816
 20
806.5482904194
 11
304.6201334816
 21
806.5482904194
  0
LINE
  5
349
100
AcDbEntity
  8
6_ALL_SURFS
100
AcDbLine
 62
9
  6
CONTINUOUS
 10
304.6201334816
 20
820.5552375433
 11
3111.6201334816
 21
820.5552375433
  0
LINE
  5
34A
100
AcDbEntity
  8
6_ALL_SURFS
100
AcDbLine
 62
9
  6
CONTINUOUS
 10
304.6201334816
 20
822.5881681819
 11
3111.6201334816
 21
822.5881681819
  0
LINE
  5
34B
100
AcDbEntity
  8
6_ALL_SURFS
100
AcDbLine
 62
9
  6
CONTINUOUS
 10
304.6201334816
 20
824.3850945495
 11
3111.6201334816
 21
824.3850945495
  0
LINE
  5
34C
100
AcDbEntity
  8
6_ALL_SURFS
100
AcDbLine
 62
7
  6
CONTINUOUS
 10
3111.6201334816
 20
824.8205784205
 11
304.6201334816
 21
824.8205784205
  0
LINE
  5
34D
100
AcDbEntity
  8
6_ALL_SURFS
100
AcDbLine
 62
9
  6
CONTINUOUS
 10
3111.6201334816
 20
825.3205784205
 11
304.6201334816
 21
825.3205784205
  0
LINE
  5
34E
100
AcDbEntity
  8
6_ALL_SURFS
100
AcDbLine
 62
9
  6
CONTINUOUS
 10
3111.6201334816
 20
826.0205784205
 11
304.6201334816
 21
826.0205784205
  0
LINE
  5
34F
100
AcDbEntity
  8
6_ALL_SURFS
100
AcDbLine
 62
7
  6
CONTINUOUS
 10
3111.6201334816
 20
826.3205784205
 11
304.6201334816
 21
826.3205784205
  0
LINE
  5
350
100
AcDbEntity
  8
6_ALL_SURFS
100
AcDbLine
 62
7
  6
CONTINUOUS
 10
3111.6201334816
 20
731.5205784205
 11
3111.6201334816
 21
826.3205784205
  0
LINE
  5
351
100
AcDbEntity
  8
7_ALL_FEATURES
100
AcDbLine
 62
7
  6
CONTINUOUS
 10
304.6201334816
 20
1024.2448126649
 11
304.6201334816
 21
1045.7447719689
  0
LINE
  5
352
100
AcDbEntity
  8
7_ALL_FEATURES
100
AcDbLine
 62
7
  6
CONTINUOUS
 10
304.6201334816
 20
1045.7728796327
 11
304.6201334816
 21
1048.8947719689
  0
LINE
  5
353
100
AcDbEntity
  8
7_ALL_FEATURES
100
AcDbLine
 62
7
  6
CONTINUOUS
 10
304.6201334816
 20
1048.9550793481
 11
304.6201334816
 21
1066.6947719689
  0
LINE
  5
354
100
AcDbEntity
  8
6_ALL_SURFS
100
AcDbLine
 62
7
  6
CONTINUOUS
 10
304.6201334816
 20
1081.6947719689
 11
304.6201334816
 21
1084.816664305
  0
LINE
  5
355
100
AcDbEntity
  8
6_ALL_SURFS
100
AcDbLine
 62
7
  6
CONTINUOUS
 10
304.6201334816
 20
1066.6947719689
 11
304.6201334816
 21
1081.6344645896
  0
LINE
  5
356
100
AcDbEntity
  8
6_ALL_SURFS
100
AcDbLine
 62
7
  6
CONTINUOUS
 10
304.6201334816
 20
1084.8447719689
 11
304.6201334816
 21
1106.3447312729
  0
LINE
  5
357
100
AcDbEntity
  8
7_ALL_FEATURES
100
AcDbLine
 62
7
  6
CONTINUOUS
 10
305.8701334816
 20
1084.6447719689
 11
305.8701334816
 21
1045.9447719689
  0
LINE
  5
358
100
AcDbEntity
  8
7_ALL_FEATURES
100
AcDbLine
 62
7
  6
CONTINUOUS
 10
3111.6201334816
 20
1024.2447719689
 11
304.6201334816
 21
1024.2447719689
  0
LINE
  5
359
100
AcDbEntity
  8
7_ALL_FEATURES
100
AcDbLine
 62
9
  6
CONTINUOUS
 10
3111.6201334816
 20
1024.5993003785
 11
304.6201334816
 21
1024.5993003785
  0
LINE
  5
35A
100
AcDbEntity
  8
7_ALL_FEATURES
100
AcDbLine
 62
7
  6
CONTINUOUS
 10
304.6201334816
 20
1026.7447719689
 11
454.8367256879
 21
1026.7447719689
  0
LINE
  5
35B
100
AcDbEntity
  8
7_ALL_FEATURES
100
AcDbLine
 62
7
  6
CONTINUOUS
 10
461.4035412753
 20
1026.7447719689
 11
704.8367256879
 21
1026.7447719689
  0
LINE
  5
35C
100
AcDbEntity
  8
7_ALL_FEATURES
100
AcDbLine
 62
7
  6
CONTINUOUS
 10
711.4035412753
 20
1026.7447719689
 11
954.8367256879
 21
1026.7447719689
  0
LINE
  5
35D
100
AcDbEntity
  8
7_ALL_FEATURES
100
AcDbLine
 62
7
  6
CONTINUOUS
 10
961.4035412753
 20
1026.7447719689
 11
1204.8367256879
 21
1026.7447719689
  0
LINE
  5
35E
100
AcDbEntity
  8
7_ALL_FEATURES
100
AcDbLine
 62
7
  6
CONTINUOUS
 10
1211.4035412753
 20
1026.7447719689
 11
1454.8367256879
 21
1026.7447719689
  0
LINE
  5
35F
100
AcDbEntity
  8
7_ALL_FEATURES
100
AcDbLine
 62
7
  6
CONTINUOUS
 10
1461.4035412753
 20
1026.7447719689
 11
1704.8367256879
 21
1026.7447719689
  0
LINE
  5
360
100
AcDbEntity
  8
7_ALL_FEATURES
100
AcDbLine
 62
7
  6
CONTINUOUS
 10
1711.4035412753
 20
1026.7447719689
 11
1954.8367256879
 21
1026.7447719689
  0
LINE
  5
361
100
AcDbEntity
  8
7_ALL_FEATURES
100
AcDbLine
 62
7
  6
CONTINUOUS
 10
1961.4035412753
 20
1026.7447719689
 11
2204.8367256879
 21
1026.7447719689
  0
LINE
  5
362
100
AcDbEntity
  8
7_ALL_FEATURES
100
AcDbLine
 62
7
  6
CONTINUOUS
 10
2211.4035412753
 20
1026.7447719689
 11
2454.8367256879
 21
1026.7447719689
  0
LINE
  5
363
100
AcDbEntity
  8
7_ALL_FEATURES
100
AcDbLine
 62
7
  6
CONTINUOUS
 10
2461.4035412753
 20
1026.7447719689
 11
2704.8367256879
 21
1026.7447719689
  0
LINE
  5
364
100
AcDbEntity
  8
7_ALL_FEATURES
100
AcDbLine
 62
7
  6
CONTINUOUS
 10
2711.4035412753
 20
1026.7447719689
 11
2954.8367256879
 21
1026.7447719689
  0
LINE
  5
365
100
AcDbEntity
  8
7_ALL_FEATURES
100
AcDbLine
 62
7
  6
CONTINUOUS
 10
2961.4035412753
 20
1026.7447719689
 11
3111.6201334816
 21
1026.7447719689
  0
LINE
  5
366
100
AcDbEntity
  8
7_ALL_FEATURES
100
AcDbLine
 62
7
  6
CONTINUOUS
 10
304.6201334816
 20
1029.6447719689
 11
453.3587506216
 21
1029.6447719689
  0
LINE
  5
367
100
AcDbEntity
  8
7_ALL_FEATURES
100
AcDbLine
 62
7
  6
CONTINUOUS
 10
462.8815163417
 20
1029.6447719689
 11
703.3587506216
 21
1029.6447719689
  0
LINE
  5
368
100
AcDbEntity
  8
7_ALL_FEATURES
100
AcDbLine
 62
7
  6
CONTINUOUS
 10
712.8815163417
 20
1029.6447719689
 11
953.3587506216
 21
1029.6447719689
  0
LINE
  5
369
100
AcDbEntity
  8
7_ALL_FEATURES
100
AcDbLine
 62
7
  6
CONTINUOUS
 10
962.8815163417
 20
1029.6447719689
 11
1203.3587506216
 21
1029.6447719689
  0
LINE
  5
36A
100
AcDbEntity
  8
7_ALL_FEATURES
100
AcDbLine
 62
7
  6
CONTINUOUS
 10
1212.8815163417
 20
1029.6447719689
 11
1453.3587506216
 21
1029.6447719689
  0
LINE
  5
36B
100
AcDbEntity
  8
7_ALL_FEATURES
100
AcDbLine
 62
7
  6
CONTINUOUS
 10
1462.8815163417
 20
1029.6447719689
 11
1703.3587506216
 21
1029.6447719689
  0
LINE
  5
36C
100
AcDbEntity
  8
7_ALL_FEATURES
100
AcDbLine
 62
7
  6
CONTINUOUS
 10
1712.8815163417
 20
1029.6447719689
 11
1953.3587506216
 21
1029.6447719689
  0
LINE
  5
36D
100
AcDbEntity
  8
7_ALL_FEATURES
100
AcDbLine
 62
7
  6
CONTINUOUS
 10
1962.8815163417
 20
1029.6447719689
 11
2203.3587506216
 21
1029.6447719689
  0
LINE
  5
36E
100
AcDbEntity
  8
7_ALL_FEATURES
100
AcDbLine
 62
7
  6
CONTINUOUS
 10
2212.8815163417
 20
1029.6447719689
 11
2453.3587506216
 21
1029.6447719689
  0
LINE
  5
36F
100
AcDbEntity
  8
7_ALL_FEATURES
100
AcDbLine
 62
7
  6
CONTINUOUS
 10
2462.8815163417
 20
1029.6447719689
 11
2703.3587506216
 21
1029.6447719689
  0
LINE
  5
370
100
AcDbEntity
  8
7_ALL_FEATURES
100
AcDbLine
 62
7
  6
CONTINUOUS
 10
2712.8815163417
 20
1029.6447719689
 11
2953.3587506216
 21
1029.6447719689
  0
LINE
  5
371
100
AcDbEntity
  8
7_ALL_FEATURES
100
AcDbLine
 62
7
  6
CONTINUOUS
 10
2962.8815163417
 20
1029.6447719689
 11
3111.6201334816
 21
1029.6447719689
  0
LINE
  5
372
100
AcDbEntity
  8
7_ALL_FEATURES
100
AcDbLine
 62
7
  6
CONTINUOUS
 10
304.6201334816
 20
1030.2447719689
 11
453.321095376
 21
1030.2447719689
  0
LINE
  5
373
100
AcDbEntity
  8
7_ALL_FEATURES
100
AcDbLine
 62
7
  6
CONTINUOUS
 10
462.9191715873
 20
1030.2447719689
 11
703.321095376
 21
1030.2447719689
  0
LINE
  5
374
100
AcDbEntity
  8
7_ALL_FEATURES
100
AcDbLine
 62
7
  6
CONTINUOUS
 10
712.9191715873
 20
1030.2447719689
 11
953.321095376
 21
1030.2447719689
  0
LINE
  5
375
100
AcDbEntity
  8
7_ALL_FEATURES
100
AcDbLine
 62
7
  6
CONTINUOUS
 10
962.9191715873
 20
1030.2447719689
 11
1203.321095376
 21
1030.2447719689
  0
LINE
  5
376
100
AcDbEntity
  8
7_ALL_FEATURES
100
AcDbLine
 62
7
  6
CONTINUOUS
 10
1212.9191715873
 20
1030.2447719689
 11
1453.321095376
 21
1030.2447719689
  0
LINE
  5
377
100
AcDbEntity
  8
7_ALL_FEATURES
100
AcDbLine
 62
7
  6
CONTINUOUS
 10
1462.9191715873
 20
1030.2447719689
 11
1703.321095376
 21
1030.2447719689
  0
LINE
  5
378
100
AcDbEntity
  8
7_ALL_FEATURES
100
AcDbLine
 62
7
  6
CONTINUOUS
 10
1712.9191715873
 20
1030.2447719689
 11
1953.321095376
 21
1030.2447719689
  0
LINE
  5
379
100
AcDbEntity
  8
7_ALL_FEATURES
100
AcDbLine
 62
7
  6
CONTINUOUS
 10
1962.9191715873
 20
1030.2447719689
 11
2203.321095376
 21
1030.2447719689
  0
LINE
  5
37A
100
AcDbEntity
  8
7_ALL_FEATURES
100
AcDbLine
 62
7
  6
CONTINUOUS
 10
2212.9191715873
 20
1030.2447719689
 11
2453.321095376
 21
1030.2447719689
  0
LINE
  5
37B
100
AcDbEntity
  8
7_ALL_FEATURES
100
AcDbLine
 62
7
  6
CONTINUOUS
 10
2462.9191715873
 20
1030.2447719689
 11
2703.321095376
 21
1030.2447719689
  0
LINE
  5
37C
100
AcDbEntity
  8
7_ALL_FEATURES
100
AcDbLine
 62
7
  6
CONTINUOUS
 10
2712.9191715873
 20
1030.2447719689
 11
2953.321095376
 21
1030.2447719689
  0
LINE
  5
37D
100
AcDbEntity
  8
7_ALL_FEATURES
100
AcDbLine
 62
7
  6
CONTINUOUS
 10
2962.9191715873
 20
1030.2447719689
 11
3111.6201334816
 21
1030.2447719689
  0
LINE
  5
37E
100
AcDbEntity
  8
7_ALL_FEATURES
100
AcDbLine
 62
7
  6
CONTINUOUS
 10
304.6201334816
 20
1032.6447719689
 11
453.9643222805
 21
1032.6447719689
  0
LINE
  5
37F
100
AcDbEntity
  8
7_ALL_FEATURES
100
AcDbLine
 62
7
  6
CONTINUOUS
 10
462.2759446828
 20
1032.6447719689
 11
703.9643222805
 21
1032.6447719689
  0
LINE
  5
380
100
AcDbEntity
  8
7_ALL_FEATURES
100
AcDbLine
 62
7
  6
CONTINUOUS
 10
712.2759446828
 20
1032.6447719689
 11
953.9643222805
 21
1032.6447719689
  0
LINE
  5
381
100
AcDbEntity
  8
7_ALL_FEATURES
100
AcDbLine
 62
7
  6
CONTINUOUS
 10
962.2759446828
 20
1032.6447719689
 11
1203.9643222805
 21
1032.6447719689
  0
LINE
  5
382
100
AcDbEntity
  8
7_ALL_FEATURES
100
AcDbLine
 62
7
  6
CONTINUOUS
 10
1212.2759446828
 20
1032.6447719689
 11
1453.9643222805
 21
1032.6447719689
  0
LINE
  5
383
100
AcDbEntity
  8
7_ALL_FEATURES
100
AcDbLine
 62
7
  6
CONTINUOUS
 10
1462.2759446828
 20
1032.6447719689
 11
1703.9643222805
 21
1032.6447719689
  0
LINE
  5
384
100
AcDbEntity
  8
7_ALL_FEATURES
100
AcDbLine
 62
7
  6
CONTINUOUS
 10
1712.2759446828
 20
1032.6447719689
 11
1953.9643222805
 21
1032.6447719689
  0
LINE
  5
385
100
AcDbEntity
  8
7_ALL_FEATURES
100
AcDbLine
 62
7
  6
CONTINUOUS
 10
1962.2759446828
 20
1032.6447719689
 11
2203.9643222805
 21
1032.6447719689
  0
LINE
  5
386
100
AcDbEntity
  8
7_ALL_FEATURES
100
AcDbLine
 62
7
  6
CONTINUOUS
 10
2212.2759446828
 20
1032.6447719689
 11
2453.9643222805
 21
1032.6447719689
  0
LINE
  5
387
100
AcDbEntity
  8
7_ALL_FEATURES
100
AcDbLine
 62
7
  6
CONTINUOUS
 10
2462.2759446828
 20
1032.6447719689
 11
2703.9643222805
 21
1032.6447719689
  0
LINE
  5
388
100
AcDbEntity
  8
7_ALL_FEATURES
100
AcDbLine
 62
7
  6
CONTINUOUS
 10
2712.2759446828
 20
1032.6447719689
 11
2953.9643222805
 21
1032.6447719689
  0
LINE
  5
389
100
AcDbEntity
  8
7_ALL_FEATURES
100
AcDbLine
 62
7
  6
CONTINUOUS
 10
2962.2759446828
 20
1032.6447719689
 11
3111.6201334816
 21
1032.6447719689
  0
LINE
  5
38A
100
AcDbEntity
  8
7_ALL_FEATURES
100
AcDbLine
 62
7
  6
CONTINUOUS
 10
304.6201334816
 20
1033.2447719689
 11
454.3743669727
 21
1033.2447719689
  0
LINE
  5
38B
100
AcDbEntity
  8
7_ALL_FEATURES
100
AcDbLine
 62
7
  6
CONTINUOUS
 10
461.8658999906
 20
1033.2447719689
 11
704.3743669727
 21
1033.2447719689
  0
LINE
  5
38C
100
AcDbEntity
  8
7_ALL_FEATURES
100
AcDbLine
 62
7
  6
CONTINUOUS
 10
711.8658999906
 20
1033.2447719689
 11
954.3743669727
 21
1033.2447719689
  0
LINE
  5
38D
100
AcDbEntity
  8
7_ALL_FEATURES
100
AcDbLine
 62
7
  6
CONTINUOUS
 10
961.8658999906
 20
1033.2447719689
 11
1204.3743669727
 21
1033.2447719689
  0
LINE
  5
38E
100
AcDbEntity
  8
7_ALL_FEATURES
100
AcDbLine
 62
7
  6
CONTINUOUS
 10
1211.8658999906
 20
1033.2447719689
 11
1454.3743669727
 21
1033.2447719689
  0
LINE
  5
38F
100
AcDbEntity
  8
7_ALL_FEATURES
100
AcDbLine
 62
7
  6
CONTINUOUS
 10
1461.8658999906
 20
1033.2447719689
 11
1704.3743669727
 21
1033.2447719689
  0
LINE
  5
390
100
AcDbEntity
  8
7_ALL_FEATURES
100
AcDbLine
 62
7
  6
CONTINUOUS
 10
1711.8658999906
 20
1033.2447719689
 11
1954.3743669727
 21
1033.2447719689
  0
LINE
  5
391
100
AcDbEntity
  8
7_ALL_FEATURES
100
AcDbLine
 62
7
  6
CONTINUOUS
 10
1961.8658999906
 20
1033.2447719689
 11
2204.3743669727
 21
1033.2447719689
  0
LINE
  5
392
100
AcDbEntity
  8
7_ALL_FEATURES
100
AcDbLine
 62
7
  6
CONTINUOUS
 10
2211.8658999906
 20
1033.2447719689
 11
2454.3743669727
 21
1033.2447719689
  0
LINE
  5
393
100
AcDbEntity
  8
7_ALL_FEATURES
100
AcDbLine
 62
7
  6
CONTINUOUS
 10
2461.8658999906
 20
1033.2447719689
 11
2704.3743669727
 21
1033.2447719689
  0
LINE
  5
394
100
AcDbEntity
  8
7_ALL_FEATURES
100
AcDbLine
 62
7
  6
CONTINUOUS
 10
2711.8658999906
 20
1033.2447719689
 11
2954.3743669727
 21
1033.2447719689
  0
LINE
  5
395
100
AcDbEntity
  8
7_ALL_FEATURES
100
AcDbLine
 62
7
  6
CONTINUOUS
 10
2961.8658999906
 20
1033.2447719689
 11
3111.6201334816
 21
1033.2447719689
  0
LINE
  5
396
100
AcDbEntity
  8
7_ALL_FEATURES
100
AcDbLine
 62
7
  6
CONTINUOUS
 10
304.6201334816
 20
1035.6447719689
 11
3111.6201334816
 21
1035.6447719689
  0
LINE
  5
397
100
AcDbEntity
  8
7_ALL_FEATURES
100
AcDbLine
 62
7
  6
CONTINUOUS
 10
304.6201334816
 20
1036.2447719689
 11
3111.6201334816
 21
1036.2447719689
  0
LINE
  5
398
100
AcDbEntity
  8
7_ALL_FEATURES
100
AcDbLine
 62
7
  6
CONTINUOUS
 10
304.6201334816
 20
1038.6447719689
 11
3111.6201334816
 21
1038.6447719689
  0
LINE
  5
399
100
AcDbEntity
  8
7_ALL_FEATURES
100
AcDbLine
 62
7
  6
CONTINUOUS
 10
304.6201334816
 20
1039.2447719689
 11
3111.6201334816
 21
1039.2447719689
  0
LINE
  5
39A
100
AcDbEntity
  8
7_ALL_FEATURES
100
AcDbLine
 62
7
  6
CONTINUOUS
 10
304.6201334816
 20
1041.6447719689
 11
3111.6201334816
 21
1041.6447719689
  0
LINE
  5
39B
100
AcDbEntity
  8
7_ALL_FEATURES
100
AcDbLine
 62
7
  6
CONTINUOUS
 10
304.6201334816
 20
1042.2447719689
 11
3111.6201334816
 21
1042.2447719689
  0
LINE
  5
39C
100
AcDbEntity
  8
7_ALL_FEATURES
100
AcDbLine
 62
9
  6
CONTINUOUS
 10
304.6201334816
 20
1044.1947719689
 11
3111.6201334816
 21
1044.1947719689
  0
LINE
  5
39D
100
AcDbEntity
  8
7_ALL_FEATURES
100
AcDbLine
 62
7
  6
CONTINUOUS
 10
3111.6201334816
 20
1044.4947719689
 11
304.6201334816
 21
1044.4947719689
  0
LINE
  5
39E
100
AcDbEntity
  8
7_ALL_FEATURES
100
AcDbLine
 62
9
  6
CONTINUOUS
 10
3111.6201334816
 20
1044.7947719689
 11
304.6201334816
 21
1044.7947719689
  0
LINE
  5
39F
100
AcDbEntity
  8
7_ALL_FEATURES
100
AcDbLine
 62
9
  6
CONTINUOUS
 10
3111.6201334816
 20
1045.4447719689
 11
304.6201334816
 21
1045.4447719689
  0
LINE
  5
3A0
100
AcDbEntity
  8
7_ALL_FEATURES
100
AcDbLine
 62
7
  6
CONTINUOUS
 10
3111.6201334816
 20
1045.7447719689
 11
304.6201334816
 21
1045.7447719689
  0
LINE
  5
3A1
100
AcDbEntity
  8
7_ALL_FEATURES
100
AcDbLine
 62
9
  6
CONTINUOUS
 10
304.6201334816
 20
1045.8067659668
 11
3111.6201334816
 21
1045.8067659668
  0
LINE
  5
3A2
100
AcDbEntity
  8
7_ALL_FEATURES
100
AcDbLine
 62
7
  6
CONTINUOUS
 10
305.8701334816
 20
1045.9447719689
 11
3110.3701334816
 21
1045.9447719689
  0
LINE
  5
3A3
100
AcDbEntity
  8
7_ALL_FEATURES
100
AcDbLine
 62
9
  6
CONTINUOUS
 10
305.8701334816
 20
1046.1447719689
 11
3110.3701334816
 21
1046.1447719689
  0
LINE
  5
3A4
100
AcDbEntity
  8
7_ALL_FEATURES
100
AcDbLine
 62
9
  6
CONTINUOUS
 10
3111.6201334816
 20
1046.9174376843
 11
3110.3701334816
 21
1046.9174376843
  0
LINE
  5
3A5
100
AcDbEntity
  8
7_ALL_FEATURES
100
AcDbLine
 62
9
  6
CONTINUOUS
 10
305.8701334816
 20
1046.9174376843
 11
304.6201334816
 21
1046.9174376843
  0
LINE
  5
3A6
100
AcDbEntity
  8
6_ALL_SURFS
100
AcDbLine
 62
7
  6
CONTINUOUS
 10
3111.6201334816
 20
1046.9587670162
 11
3110.3701334816
 21
1046.9587670162
  0
LINE
  5
3A7
100
AcDbEntity
  8
6_ALL_SURFS
100
AcDbLine
 62
7
  6
CONTINUOUS
 10
305.8701334816
 20
1046.9587670162
 11
304.6201334816
 21
1046.9587670162
  0
LINE
  5
3A8
100
AcDbEntity
  8
7_ALL_FEATURES
100
AcDbLine
 62
9
  6
CONTINUOUS
 10
304.6201334816
 20
1047.5558095709
 11
305.8701334816
 21
1047.5558095709
  0
LINE
  5
3A9
100
AcDbEntity
  8
7_ALL_FEATURES
100
AcDbLine
 62
9
  6
CONTINUOUS
 10
3110.3701334816
 20
1047.5558095709
 11
3111.6201334816
 21
1047.5558095709
  0
LINE
  5
3AA
100
AcDbEntity
  8
7_ALL_FEATURES
100
AcDbLine
 62
9
  6
CONTINUOUS
 10
304.6201334816
 20
1047.7752156813
 11
305.8701334816
 21
1047.7752156813
  0
LINE
  5
3AB
100
AcDbEntity
  8
7_ALL_FEATURES
100
AcDbLine
 62
9
  6
CONTINUOUS
 10
3110.3701334816
 20
1047.7752156813
 11
3111.6201334816
 21
1047.7752156813
  0
LINE
  5
3AC
100
AcDbEntity
  8
7_ALL_FEATURES
100
AcDbLine
 62
9
  6
CONTINUOUS
 10
3111.6201334816
 20
1048.5947719689
 11
3110.3701334816
 21
1048.5947719689
  0
LINE
  5
3AD
100
AcDbEntity
  8
7_ALL_FEATURES
100
AcDbLine
 62
9
  6
CONTINUOUS
 10
305.8701334816
 20
1048.5947719689
 11
304.6201334816
 21
1048.5947719689
  0
LINE
  5
3AE
100
AcDbEntity
  8
7_ALL_FEATURES
100
AcDbLine
 62
7
  6
CONTINUOUS
 10
3111.6201334816
 20
1048.8947719689
 11
3110.3701334816
 21
1048.8947719689
  0
LINE
  5
3AF
100
AcDbEntity
  8
7_ALL_FEATURES
100
AcDbLine
 62
7
  6
CONTINUOUS
 10
305.8701334816
 20
1048.8947719689
 11
304.6201334816
 21
1048.8947719689
  0
LINE
  5
3B0
100
AcDbEntity
  8
7_ALL_FEATURES
100
AcDbLine
 62
9
  6
CONTINUOUS
 10
304.6201334816
 20
1048.9550793481
 11
305.8701334816
 21
1048.9550793481
  0
LINE
  5
3B1
100
AcDbEntity
  8
7_ALL_FEATURES
100
AcDbLine
 62
9
  6
CONTINUOUS
 10
3110.3701334816
 20
1048.9550793481
 11
3111.6201334816
 21
1048.9550793481
  0
LINE
  5
3B2
100
AcDbEntity
  8
7_ALL_FEATURES
100
AcDbLine
 62
9
  6
CONTINUOUS
 10
3111.6201334816
 20
1049.3101355548
 11
3110.3701334816
 21
1049.3101355548
  0
LINE
  5
3B3
100
AcDbEntity
  8
7_ALL_FEATURES
100
AcDbLine
 62
9
  6
CONTINUOUS
 10
305.8701334816
 20
1049.3101355548
 11
304.6201334816
 21
1049.3101355548
  0
LINE
  5
3B4
100
AcDbEntity
  8
7_ALL_FEATURES
100
AcDbLine
 62
7
  6
CONTINUOUS
 10
3111.6201334816
 20
1049.3282277686
 11
3110.3701334816
 21
1049.3282277686
  0
LINE
  5
3B5
100
AcDbEntity
  8
7_ALL_FEATURES
100
AcDbLine
 62
7
  6
CONTINUOUS
 10
305.8701334816
 20
1049.3282277686
 11
304.6201334816
 21
1049.3282277686
  0
LINE
  5
3B6
100
AcDbEntity
  8
7_ALL_FEATURES
100
AcDbLine
 62
9
  6
CONTINUOUS
 10
304.6201334816
 20
1051.7210608134
 11
305.8701334816
 21
1051.7210608134
  0
LINE
  5
3B7
100
AcDbEntity
  8
7_ALL_FEATURES
100
AcDbLine
 62
9
  6
CONTINUOUS
 10
3110.3701334816
 20
1051.7210608134
 11
3111.6201334816
 21
1051.7210608134
  0
LINE
  5
3B8
100
AcDbEntity
  8
7_ALL_FEATURES
100
AcDbLine
 62
9
  6
CONTINUOUS
 10
304.6201334816
 20
1052.6973568205
 11
305.8701334816
 21
1052.6973568205
  0
LINE
  5
3B9
100
AcDbEntity
  8
7_ALL_FEATURES
100
AcDbLine
 62
9
  6
CONTINUOUS
 10
3110.3701334816
 20
1052.6973568205
 11
3111.6201334816
 21
1052.6973568205
  0
LINE
  5
3BA
100
AcDbEntity
  8
7_ALL_FEATURES
100
AcDbLine
 62
9
  6
CONTINUOUS
 10
3111.6201334816
 20
1063.2947719689
 11
3110.3701334816
 21
1063.2947719689
  0
LINE
  5
3BB
100
AcDbEntity
  8
7_ALL_FEATURES
100
AcDbLine
 62
9
  6
CONTINUOUS
 10
305.8701334816
 20
1063.2947719689
 11
304.6201334816
 21
1063.2947719689
  0
LINE
  5
3BC
100
AcDbEntity
  8
7_ALL_FEATURES
100
AcDbLine
 62
7
  6
CONTINUOUS
 10
3111.6201334816
 20
1063.5947719689
 11
3110.3701334816
 21
1063.5947719689
  0
LINE
  5
3BD
100
AcDbEntity
  8
7_ALL_FEATURES
100
AcDbLine
 62
7
  6
CONTINUOUS
 10
305.8701334816
 20
1063.5947719689
 11
304.6201334816
 21
1063.5947719689
  0
LINE
  5
3BE
100
AcDbEntity
  8
7_ALL_FEATURES
100
AcDbLine
 62
9
  6
CONTINUOUS
 10
304.6201334816
 20
1063.8947719689
 11
305.8701334816
 21
1063.8947719689
  0
LINE
  5
3BF
100
AcDbEntity
  8
7_ALL_FEATURES
100
AcDbLine
 62
9
  6
CONTINUOUS
 10
3110.3701334816
 20
1063.8947719689
 11
3111.6201334816
 21
1063.8947719689
  0
LINE
  5
3C0
100
AcDbEntity
  8
6_ALL_SURFS
100
AcDbLine
 62
9
  6
CONTINUOUS
 10
304.6201334816
 20
1066.6947719689
 11
305.8701334816
 21
1066.6947719689
  0
LINE
  5
3C1
100
AcDbEntity
  8
6_ALL_SURFS
100
AcDbLine
 62
9
  6
CONTINUOUS
 10
3110.3701334816
 20
1066.6947719689
 11
3111.6201334816
 21
1066.6947719689
  0
LINE
  5
3C2
100
AcDbEntity
  8
6_ALL_SURFS
100
AcDbLine
 62
7
  6
CONTINUOUS
 10
3111.6201334816
 20
1066.9947719689
 11
3110.3701334816
 21
1066.9947719689
  0
LINE
  5
3C3
100
AcDbEntity
  8
6_ALL_SURFS
100
AcDbLine
 62
7
  6
CONTINUOUS
 10
305.8701334816
 20
1066.9947719689
 11
304.6201334816
 21
1066.9947719689
  0
LINE
  5
3C4
100
AcDbEntity
  8
6_ALL_SURFS
100
AcDbLine
 62
9
  6
CONTINUOUS
 10
3111.6201334816
 20
1067.2947719689
 11
3110.3701334816
 21
1067.2947719689
  0
LINE
  5
3C5
100
AcDbEntity
  8
6_ALL_SURFS
100
AcDbLine
 62
9
  6
CONTINUOUS
 10
305.8701334816
 20
1067.2947719689
 11
304.6201334816
 21
1067.2947719689
  0
LINE
  5
3C6
100
AcDbEntity
  8
6_ALL_SURFS
100
AcDbLine
 62
9
  6
CONTINUOUS
 10
304.6201334816
 20
1077.8921871172
 11
305.8701334816
 21
1077.8921871172
  0
LINE
  5
3C7
100
AcDbEntity
  8
6_ALL_SURFS
100
AcDbLine
 62
9
  6
CONTINUOUS
 10
3110.3701334816
 20
1077.8921871172
 11
3111.6201334816
 21
1077.8921871172
  0
LINE
  5
3C8
100
AcDbEntity
  8
6_ALL_SURFS
100
AcDbLine
 62
9
  6
CONTINUOUS
 10
304.6201334816
 20
1078.8684831243
 11
305.8701334816
 21
1078.8684831243
  0
LINE
  5
3C9
100
AcDbEntity
  8
6_ALL_SURFS
100
AcDbLine
 62
9
  6
CONTINUOUS
 10
3110.3701334816
 20
1078.8684831243
 11
3111.6201334816
 21
1078.8684831243
  0
LINE
  5
3CA
100
AcDbEntity
  8
6_ALL_SURFS
100
AcDbLine
 62
7
  6
CONTINUOUS
 10
304.6201334816
 20
1081.2613161692
 11
305.8701334816
 21
1081.2613161692
  0
LINE
  5
3CB
100
AcDbEntity
  8
6_ALL_SURFS
100
AcDbLine
 62
7
  6
CONTINUOUS
 10
3110.3701334816
 20
1081.2613161692
 11
3111.6201334816
 21
1081.2613161692
  0
LINE
  5
3CC
100
AcDbEntity
  8
6_ALL_SURFS
100
AcDbLine
 62
9
  6
CONTINUOUS
 10
3111.6201334816
 20
1081.2794083829
 11
3110.3701334816
 21
1081.2794083829
  0
LINE
  5
3CD
100
AcDbEntity
  8
6_ALL_SURFS
100
AcDbLine
 62
9
  6
CONTINUOUS
 10
305.8701334816
 20
1081.2794083829
 11
304.6201334816
 21
1081.2794083829
  0
LINE
  5
3CE
100
AcDbEntity
  8
6_ALL_SURFS
100
AcDbLine
 62
9
  6
CONTINUOUS
 10
304.6201334816
 20
1081.6344645896
 11
305.8701334816
 21
1081.6344645896
  0
LINE
  5
3CF
100
AcDbEntity
  8
6_ALL_SURFS
100
AcDbLine
 62
9
  6
CONTINUOUS
 10
3110.3701334816
 20
1081.6344645896
 11
3111.6201334816
 21
1081.6344645896
  0
LINE
  5
3D0
100
AcDbEntity
  8
6_ALL_SURFS
100
AcDbLine
 62
7
  6
CONTINUOUS
 10
3111.6201334816
 20
1081.6947719689
 11
3110.3701334816
 21
1081.6947719689
  0
LINE
  5
3D1
100
AcDbEntity
  8
6_ALL_SURFS
100
AcDbLine
 62
7
  6
CONTINUOUS
 10
305.8701334816
 20
1081.6947719689
 11
304.6201334816
 21
1081.6947719689
  0
LINE
  5
3D2
100
AcDbEntity
  8
6_ALL_SURFS
100
AcDbLine
 62
9
  6
CONTINUOUS
 10
3111.6201334816
 20
1081.9947719689
 11
3110.3701334816
 21
1081.9947719689
  0
LINE
  5
3D3
100
AcDbEntity
  8
6_ALL_SURFS
100
AcDbLine
 62
9
  6
CONTINUOUS
 10
305.8701334816
 20
1081.9947719689
 11
304.6201334816
 21
1081.9947719689
  0
LINE
  5
3D4
100
AcDbEntity
  8
6_ALL_SURFS
100
AcDbLine
 62
9
  6
CONTINUOUS
 10
304.6201334816
 20
1082.8143282564
 11
305.8701334816
 21
1082.8143282564
  0
LINE
  5
3D5
100
AcDbEntity
  8
6_ALL_SURFS
100
AcDbLine
 62
9
  6
CONTINUOUS
 10
3110.3701334816
 20
1082.8143282564
 11
3111.6201334816
 21
1082.8143282564
  0
LINE
  5
3D6
100
AcDbEntity
  8
6_ALL_SURFS
100
AcDbLine
 62
9
  6
CONTINUOUS
 10
304.6201334816
 20
1083.0337343669
 11
305.8701334816
 21
1083.0337343669
  0
LINE
  5
3D7
100
AcDbEntity
  8
6_ALL_SURFS
100
AcDbLine
 62
9
  6
CONTINUOUS
 10
3110.3701334816
 20
1083.0337343669
 11
3111.6201334816
 21
1083.0337343669
  0
LINE
  5
3D8
100
AcDbEntity
  8
6_ALL_SURFS
100
AcDbLine
 62
7
  6
CONTINUOUS
 10
304.6201334816
 20
1083.6307769215
 11
305.8701334816
 21
1083.6307769215
  0
LINE
  5
3D9
100
AcDbEntity
  8
6_ALL_SURFS
100
AcDbLine
 62
7
  6
CONTINUOUS
 10
3110.3701334816
 20
1083.6307769215
 11
3111.6201334816
 21
1083.6307769215
  0
LINE
  5
3DA
100
AcDbEntity
  8
6_ALL_SURFS
100
AcDbLine
 62
9
  6
CONTINUOUS
 10
3111.6201334816
 20
1083.6721062534
 11
3110.3701334816
 21
1083.6721062534
  0
LINE
  5
3DB
100
AcDbEntity
  8
6_ALL_SURFS
100
AcDbLine
 62
9
  6
CONTINUOUS
 10
305.8701334816
 20
1083.6721062534
 11
304.6201334816
 21
1083.6721062534
  0
LINE
  5
3DC
100
AcDbEntity
  8
7_ALL_FEATURES
100
AcDbLine
 62
9
  6
CONTINUOUS
 10
305.8701334816
 20
1084.4447719689
 11
3110.3701334816
 21
1084.4447719689
  0
LINE
  5
3DD
100
AcDbEntity
  8
7_ALL_FEATURES
100
AcDbLine
 62
7
  6
CONTINUOUS
 10
305.8701334816
 20
1084.6447719689
 11
3110.3701334816
 21
1084.6447719689
  0
LINE
  5
3DE
100
AcDbEntity
  8
6_ALL_SURFS
100
AcDbLine
 62
9
  6
CONTINUOUS
 10
304.6201334816
 20
1084.7827779709
 11
3111.6201334816
 21
1084.7827779709
  0
LINE
  5
3DF
100
AcDbEntity
  8
6_ALL_SURFS
100
AcDbLine
 62
7
  6
CONTINUOUS
 10
3111.6201334816
 20
1084.8447719689
 11
304.6201334816
 21
1084.8447719689
  0
LINE
  5
3E0
100
AcDbEntity
  8
6_ALL_SURFS
100
AcDbLine
 62
9
  6
CONTINUOUS
 10
3111.6201334816
 20
1085.1447719689
 11
304.6201334816
 21
1085.1447719689
  0
LINE
  5
3E1
100
AcDbEntity
  8
6_ALL_SURFS
100
AcDbLine
 62
9
  6
CONTINUOUS
 10
3111.6201334816
 20
1085.7947719689
 11
304.6201334816
 21
1085.7947719689
  0
LINE
  5
3E2
100
AcDbEntity
  8
6_ALL_SURFS
100
AcDbLine
 62
7
  6
CONTINUOUS
 10
3111.6201334816
 20
1086.0947719689
 11
304.6201334816
 21
1086.0947719689
  0
LINE
  5
3E3
100
AcDbEntity
  8
6_ALL_SURFS
100
AcDbLine
 62
9
  6
CONTINUOUS
 10
304.6201334816
 20
1086.3947719689
 11
3111.6201334816
 21
1086.3947719689
  0
LINE
  5
3E4
100
AcDbEntity
  8
6_ALL_SURFS
100
AcDbLine
 62
7
  6
CONTINUOUS
 10
304.6201334816
 20
1088.3447719689
 11
3111.6201334816
 21
1088.3447719689
  0
LINE
  5
3E5
100
AcDbEntity
  8
6_ALL_SURFS
100
AcDbLine
 62
7
  6
CONTINUOUS
 10
304.6201334816
 20
1088.9447719689
 11
3111.6201334816
 21
1088.9447719689
  0
LINE
  5
3E6
100
AcDbEntity
  8
6_ALL_SURFS
100
AcDbLine
 62
7
  6
CONTINUOUS
 10
304.6201334816
 20
1091.3447719689
 11
3111.6201334816
 21
1091.3447719689
  0
LINE
  5
3E7
100
AcDbEntity
  8
6_ALL_SURFS
100
AcDbLine
 62
7
  6
CONTINUOUS
 10
304.6201334816
 20
1091.9447719689
 11
3111.6201334816
 21
1091.9447719689
  0
LINE
  5
3E8
100
AcDbEntity
  8
6_ALL_SURFS
100
AcDbLine
 62
7
  6
CONTINUOUS
 10
304.6201334816
 20
1094.3447719689
 11
3111.6201334816
 21
1094.3447719689
  0
LINE
  5
3E9
100
AcDbEntity
  8
6_ALL_SURFS
100
AcDbLine
 62
7
  6
CONTINUOUS
 10
304.6201334816
 20
1094.9447719689
 11
3111.6201334816
 21
1094.9447719689
  0
LINE
  5
3EA
100
AcDbEntity
  8
6_ALL_SURFS
100
AcDbLine
 62
7
  6
CONTINUOUS
 10
304.6201334816
 20
1097.3447719689
 11
454.3743669727
 21
1097.3447719689
  0
LINE
  5
3EB
100
AcDbEntity
  8
6_ALL_SURFS
100
AcDbLine
 62
7
  6
CONTINUOUS
 10
461.8658999906
 20
1097.3447719689
 11
704.3743669727
 21
1097.3447719689
  0
LINE
  5
3EC
100
AcDbEntity
  8
6_ALL_SURFS
100
AcDbLine
 62
7
  6
CONTINUOUS
 10
711.8658999906
 20
1097.3447719689
 11
954.3743669727
 21
1097.3447719689
  0
LINE
  5
3ED
100
AcDbEntity
  8
6_ALL_SURFS
100
AcDbLine
 62
7
  6
CONTINUOUS
 10
961.8658999906
 20
1097.3447719689
 11
1204.3743669727
 21
1097.3447719689
  0
LINE
  5
3EE
100
AcDbEntity
  8
6_ALL_SURFS
100
AcDbLine
 62
7
  6
CONTINUOUS
 10
1211.8658999906
 20
1097.3447719689
 11
1454.3743669727
 21
1097.3447719689
  0
LINE
  5
3EF
100
AcDbEntity
  8
6_ALL_SURFS
100
AcDbLine
 62
7
  6
CONTINUOUS
 10
1461.8658999906
 20
1097.3447719689
 11
1704.3743669727
 21
1097.3447719689
  0
LINE
  5
3F0
100
AcDbEntity
  8
6_ALL_SURFS
100
AcDbLine
 62
7
  6
CONTINUOUS
 10
1711.8658999906
 20
1097.3447719689
 11
1954.3743669727
 21
1097.3447719689
  0
LINE
  5
3F1
100
AcDbEntity
  8
6_ALL_SURFS
100
AcDbLine
 62
7
  6
CONTINUOUS
 10
1961.8658999906
 20
1097.3447719689
 11
2204.3743669727
 21
1097.3447719689
  0
LINE
  5
3F2
100
AcDbEntity
  8
6_ALL_SURFS
100
AcDbLine
 62
7
  6
CONTINUOUS
 10
2211.8658999906
 20
1097.3447719689
 11
2454.3743669727
 21
1097.3447719689
  0
LINE
  5
3F3
100
AcDbEntity
  8
6_ALL_SURFS
100
AcDbLine
 62
7
  6
CONTINUOUS
 10
2461.8658999906
 20
1097.3447719689
 11
2704.3743669727
 21
1097.3447719689
  0
LINE
  5
3F4
100
AcDbEntity
  8
6_ALL_SURFS
100
AcDbLine
 62
7
  6
CONTINUOUS
 10
2711.8658999906
 20
1097.3447719689
 11
2954.3743669727
 21
1097.3447719689
  0
LINE
  5
3F5
100
AcDbEntity
  8
6_ALL_SURFS
100
AcDbLine
 62
7
  6
CONTINUOUS
 10
2961.8658999906
 20
1097.3447719689
 11
3111.6201334816
 21
1097.3447719689
  0
LINE
  5
3F6
100
AcDbEntity
  8
6_ALL_SURFS
100
AcDbLine
 62
7
  6
CONTINUOUS
 10
304.6201334816
 20
1097.9447719689
 11
453.9643222805
 21
1097.9447719689
  0
LINE
  5
3F7
100
AcDbEntity
  8
6_ALL_SURFS
100
AcDbLine
 62
7
  6
CONTINUOUS
 10
462.2759446828
 20
1097.9447719689
 11
703.9643222805
 21
1097.9447719689
  0
LINE
  5
3F8
100
AcDbEntity
  8
6_ALL_SURFS
100
AcDbLine
 62
7
  6
CONTINUOUS
 10
712.2759446828
 20
1097.9447719689
 11
953.9643222805
 21
1097.9447719689
  0
LINE
  5
3F9
100
AcDbEntity
  8
6_ALL_SURFS
100
AcDbLine
 62
7
  6
CONTINUOUS
 10
962.2759446828
 20
1097.9447719689
 11
1203.9643222805
 21
1097.9447719689
  0
LINE
  5
3FA
100
AcDbEntity
  8
6_ALL_SURFS
100
AcDbLine
 62
7
  6
CONTINUOUS
 10
1212.2759446828
 20
1097.9447719689
 11
1453.9643222805
 21
1097.9447719689
  0
LINE
  5
3FB
100
AcDbEntity
  8
6_ALL_SURFS
100
AcDbLine
 62
7
  6
CONTINUOUS
 10
1462.2759446828
 20
1097.9447719689
 11
1703.9643222805
 21
1097.9447719689
  0
LINE
  5
3FC
100
AcDbEntity
  8
6_ALL_SURFS
100
AcDbLine
 62
7
  6
CONTINUOUS
 10
1712.2759446828
 20
1097.9447719689
 11
1953.9643222805
 21
1097.9447719689
  0
LINE
  5
3FD
100
AcDbEntity
  8
6_ALL_SURFS
100
AcDbLine
 62
7
  6
CONTINUOUS
 10
1962.2759446828
 20
1097.9447719689
 11
2203.9643222805
 21
1097.9447719689
  0
LINE
  5
3FE
100
AcDbEntity
  8
6_ALL_SURFS
100
AcDbLine
 62
7
  6
CONTINUOUS
 10
2212.2759446828
 20
1097.9447719689
 11
2453.9643222805
 21
1097.9447719689
  0
LINE
  5
3FF
100
AcDbEntity
  8
6_ALL_SURFS
100
AcDbLine
 62
7
  6
CONTINUOUS
 10
2462.2759446828
 20
1097.9447719689
 11
2703.9643222805
 21
1097.9447719689
  0
LINE
  5
400
100
AcDbEntity
  8
6_ALL_SURFS
100
AcDbLine
 62
7
  6
CONTINUOUS
 10
2712.2759446828
 20
1097.9447719689
 11
2953.9643222805
 21
1097.9447719689
  0
LINE
  5
401
100
AcDbEntity
  8
6_ALL_SURFS
100
AcDbLine
 62
7
  6
CONTINUOUS
 10
2962.2759446828
 20
1097.9447719689
 11
3111.6201334816
 21
1097.9447719689
  0
LINE
  5
402
100
AcDbEntity
  8
6_ALL_SURFS
100
AcDbLine
 62
7
  6
CONTINUOUS
 10
304.6201334816
 20
1100.3447719689
 11
453.321095376
 21
1100.3447719689
  0
LINE
  5
403
100
AcDbEntity
  8
6_ALL_SURFS
100
AcDbLine
 62
7
  6
CONTINUOUS
 10
462.9191715873
 20
1100.3447719689
 11
703.321095376
 21
1100.3447719689
  0
LINE
  5
404
100
AcDbEntity
  8
6_ALL_SURFS
100
AcDbLine
 62
7
  6
CONTINUOUS
 10
712.9191715873
 20
1100.3447719689
 11
953.321095376
 21
1100.3447719689
  0
LINE
  5
405
100
AcDbEntity
  8
6_ALL_SURFS
100
AcDbLine
 62
7
  6
CONTINUOUS
 10
962.9191715873
 20
1100.3447719689
 11
1203.321095376
 21
1100.3447719689
  0
LINE
  5
406
100
AcDbEntity
  8
6_ALL_SURFS
100
AcDbLine
 62
7
  6
CONTINUOUS
 10
1212.9191715873
 20
1100.3447719689
 11
1453.321095376
 21
1100.3447719689
  0
LINE
  5
407
100
AcDbEntity
  8
6_ALL_SURFS
100
AcDbLine
 62
7
  6
CONTINUOUS
 10
1462.9191715873
 20
1100.3447719689
 11
1703.321095376
 21
1100.3447719689
  0
LINE
  5
408
100
AcDbEntity
  8
6_ALL_SURFS
100
AcDbLine
 62
7
  6
CONTINUOUS
 10
1712.9191715873
 20
1100.3447719689
 11
1953.321095376
 21
1100.3447719689
  0
LINE
  5
409
100
AcDbEntity
  8
6_ALL_SURFS
100
AcDbLine
 62
7
  6
CONTINUOUS
 10
1962.9191715873
 20
1100.3447719689
 11
2203.321095376
 21
1100.3447719689
  0
LINE
  5
40A
100
AcDbEntity
  8
6_ALL_SURFS
100
AcDbLine
 62
7
  6
CONTINUOUS
 10
2212.9191715873
 20
1100.3447719689
 11
2453.321095376
 21
1100.3447719689
  0
LINE
  5
40B
100
AcDbEntity
  8
6_ALL_SURFS
100
AcDbLine
 62
7
  6
CONTINUOUS
 10
2462.9191715873
 20
1100.3447719689
 11
2703.321095376
 21
1100.3447719689
  0
LINE
  5
40C
100
AcDbEntity
  8
6_ALL_SURFS
100
AcDbLine
 62
7
  6
CONTINUOUS
 10
2712.9191715873
 20
1100.3447719689
 11
2953.321095376
 21
1100.3447719689
  0
LINE
  5
40D
100
AcDbEntity
  8
6_ALL_SURFS
100
AcDbLine
 62
7
  6
CONTINUOUS
 10
2962.9191715873
 20
1100.3447719689
 11
3111.6201334816
 21
1100.3447719689
  0
LINE
  5
40E
100
AcDbEntity
  8
6_ALL_SURFS
100
AcDbLine
 62
7
  6
CONTINUOUS
 10
304.6201334816
 20
1100.9447719689
 11
453.3587506216
 21
1100.9447719689
  0
LINE
  5
40F
100
AcDbEntity
  8
6_ALL_SURFS
100
AcDbLine
 62
7
  6
CONTINUOUS
 10
462.8815163417
 20
1100.9447719689
 11
703.3587506216
 21
1100.9447719689
  0
LINE
  5
410
100
AcDbEntity
  8
6_ALL_SURFS
100
AcDbLine
 62
7
  6
CONTINUOUS
 10
712.8815163417
 20
1100.9447719689
 11
953.3587506216
 21
1100.9447719689
  0
LINE
  5
411
100
AcDbEntity
  8
6_ALL_SURFS
100
AcDbLine
 62
7
  6
CONTINUOUS
 10
962.8815163417
 20
1100.9447719689
 11
1203.3587506216
 21
1100.9447719689
  0
LINE
  5
412
100
AcDbEntity
  8
6_ALL_SURFS
100
AcDbLine
 62
7
  6
CONTINUOUS
 10
1212.8815163417
 20
1100.9447719689
 11
1453.3587506216
 21
1100.9447719689
  0
LINE
  5
413
100
AcDbEntity
  8
6_ALL_SURFS
100
AcDbLine
 62
7
  6
CONTINUOUS
 10
1462.8815163417
 20
1100.9447719689
 11
1703.3587506216
 21
1100.9447719689
  0
LINE
  5
414
100
AcDbEntity
  8
6_ALL_SURFS
100
AcDbLine
 62
7
  6
CONTINUOUS
 10
1712.8815163417
 20
1100.9447719689
 11
1953.3587506216
 21
1100.9447719689
  0
LINE
  5
415
100
AcDbEntity
  8
6_ALL_SURFS
100
AcDbLine
 62
7
  6
CONTINUOUS
 10
1962.8815163417
 20
1100.9447719689
 11
2203.3587506216
 21
1100.9447719689
  0
LINE
  5
416
100
AcDbEntity
  8
6_ALL_SURFS
100
AcDbLine
 62
7
  6
CONTINUOUS
 10
2212.8815163417
 20
1100.9447719689
 11
2453.3587506216
 21
1100.9447719689
  0
LINE
  5
417
100
AcDbEntity
  8
6_ALL_SURFS
100
AcDbLine
 62
7
  6
CONTINUOUS
 10
2462.8815163417
 20
1100.9447719689
 11
2703.3587506216
 21
1100.9447719689
  0
LINE
  5
418
100
AcDbEntity
  8
6_ALL_SURFS
100
AcDbLine
 62
7
  6
CONTINUOUS
 10
2712.8815163417
 20
1100.9447719689
 11
2953.3587506216
 21
1100.9447719689
  0
LINE
  5
419
100
AcDbEntity
  8
6_ALL_SURFS
100
AcDbLine
 62
7
  6
CONTINUOUS
 10
2962.8815163417
 20
1100.9447719689
 11
3111.6201334816
 21
1100.9447719689
  0
LINE
  5
41A
100
AcDbEntity
  8
6_ALL_SURFS
100
AcDbLine
 62
7
  6
CONTINUOUS
 10
304.6201334816
 20
1103.8447719689
 11
454.8367256879
 21
1103.8447719689
  0
LINE
  5
41B
100
AcDbEntity
  8
6_ALL_SURFS
100
AcDbLine
 62
7
  6
CONTINUOUS
 10
461.4035412753
 20
1103.8447719689
 11
704.8367256879
 21
1103.8447719689
  0
LINE
  5
41C
100
AcDbEntity
  8
6_ALL_SURFS
100
AcDbLine
 62
7
  6
CONTINUOUS
 10
711.4035412753
 20
1103.8447719689
 11
954.8367256879
 21
1103.8447719689
  0
LINE
  5
41D
100
AcDbEntity
  8
6_ALL_SURFS
100
AcDbLine
 62
7
  6
CONTINUOUS
 10
961.4035412753
 20
1103.8447719689
 11
1204.8367256879
 21
1103.8447719689
  0
LINE
  5
41E
100
AcDbEntity
  8
6_ALL_SURFS
100
AcDbLine
 62
7
  6
CONTINUOUS
 10
1211.4035412753
 20
1103.8447719689
 11
1454.8367256879
 21
1103.8447719689
  0
LINE
  5
41F
100
AcDbEntity
  8
6_ALL_SURFS
100
AcDbLine
 62
7
  6
CONTINUOUS
 10
1461.4035412753
 20
1103.8447719689
 11
1704.8367256879
 21
1103.8447719689
  0
LINE
  5
420
100
AcDbEntity
  8
6_ALL_SURFS
100
AcDbLine
 62
7
  6
CONTINUOUS
 10
1711.4035412753
 20
1103.8447719689
 11
1954.8367256879
 21
1103.8447719689
  0
LINE
  5
421
100
AcDbEntity
  8
6_ALL_SURFS
100
AcDbLine
 62
7
  6
CONTINUOUS
 10
1961.4035412753
 20
1103.8447719689
 11
2204.8367256879
 21
1103.8447719689
  0
LINE
  5
422
100
AcDbEntity
  8
6_ALL_SURFS
100
AcDbLine
 62
7
  6
CONTINUOUS
 10
2211.4035412753
 20
1103.8447719689
 11
2454.8367256879
 21
1103.8447719689
  0
LINE
  5
423
100
AcDbEntity
  8
6_ALL_SURFS
100
AcDbLine
 62
7
  6
CONTINUOUS
 10
2461.4035412753
 20
1103.8447719689
 11
2704.8367256879
 21
1103.8447719689
  0
LINE
  5
424
100
AcDbEntity
  8
6_ALL_SURFS
100
AcDbLine
 62
7
  6
CONTINUOUS
 10
2711.4035412753
 20
1103.8447719689
 11
2954.8367256879
 21
1103.8447719689
  0
LINE
  5
425
100
AcDbEntity
  8
6_ALL_SURFS
100
AcDbLine
 62
7
  6
CONTINUOUS
 10
2961.4035412753
 20
1103.8447719689
 11
3111.6201334816
 21
1103.8447719689
  0
LINE
  5
426
100
AcDbEntity
  8
6_ALL_SURFS
100
AcDbLine
 62
9
  6
CONTINUOUS
 10
3111.6201334816
 20
1105.9902435592
 11
304.6201334816
 21
1105.9902435592
  0
LINE
  5
427
100
AcDbEntity
  8
6_ALL_SURFS
100
AcDbLine
 62
7
  6
CONTINUOUS
 10
304.6201334816
 20
1106.3447719689
 11
3111.6201334816
 21
1106.3447719689
  0
LINE
  5
428
100
AcDbEntity
  8
7_ALL_FEATURES
100
AcDbLine
 62
7
  6
CONTINUOUS
 10
3110.3701334816
 20
1084.6447719689
 11
3110.3701334816
 21
1045.9447719689
  0
LINE
  5
429
100
AcDbEntity
  8
7_ALL_FEATURES
100
AcDbLine
 62
7
  6
CONTINUOUS
 10
3111.6201334816
 20
1024.2448126649
 11
3111.6201334816
 21
1048.8947719689
  0
LINE
  5
42A
100
AcDbEntity
  8
7_ALL_FEATURES
100
AcDbLine
 62
7
  6
CONTINUOUS
 10
3111.6201334816
 20
1048.9372907832
 11
3111.6201334816
 21
1066.6947719689
  0
LINE
  5
42B
100
AcDbEntity
  8
6_ALL_SURFS
100
AcDbLine
 62
7
  6
CONTINUOUS
 10
3111.6201334816
 20
1066.6947719689
 11
3111.6201334816
 21
1081.6522531546
  0
LINE
  5
42C
100
AcDbEntity
  8
6_ALL_SURFS
100
AcDbLine
 62
7
  6
CONTINUOUS
 10
3111.6201334816
 20
1081.6947719689
 11
3111.6201334816
 21
1106.3447312729
  0
ARC
  5
42D
100
AcDbEntity
  8
6_ALL_SURFS
100
AcDbCircle
 62
7
  6
CONTINUOUS
 10
130.7781423804
 20
732.6205784205
 40
0.5
100
AcDbArc
 50
53.1301023542
 51
126.8698976458
  0
ARC
  5
42E
100
AcDbEntity
  8
6_ALL_SURFS
100
AcDbCircle
 62
7
  6
CONTINUOUS
 10
127.7781423804
 20
732.6205784205
 40
0.5
100
AcDbArc
 50
53.1301023542
 51
126.8698976458
  0
ARC
  5
42F
100
AcDbEntity
  8
6_ALL_SURFS
100
AcDbCircle
 62
7
  6
CONTINUOUS
 10
124.7781423804
 20
732.6205784205
 40
0.5
100
AcDbArc
 50
53.1301023542
 51
126.8698976458
  0
ARC
  5
430
100
AcDbEntity
  8
6_ALL_SURFS
100
AcDbCircle
 62
7
  6
CONTINUOUS
 10
119.4718457383
 20
733.6268750625
 40
0.3937033579
100
AcDbArc
 50
90.0
 51
264.2894068625
  0
ARC
  5
431
100
AcDbEntity
  8
6_ALL_SURFS
100
AcDbCircle
 62
7
  6
CONTINUOUS
 10
140.6281423804
 20
745.5225043506
 40
2.15
100
AcDbArc
 50
146.6800806294
 51
213.3199193706
  0
ARC
  5
432
100
AcDbEntity
  8
6_ALL_SURFS
100
AcDbCircle
 62
7
  6
CONTINUOUS
 10
137.5781423804
 20
743.5175105851
 40
1.5
100
AcDbArc
 50
0.0
 51
33.3199193706
  0
ARC
  5
433
100
AcDbEntity
  8
6_ALL_SURFS
100
AcDbCircle
 62
7
  6
CONTINUOUS
 10
140.6281423804
 20
745.5225043506
 40
0.65
100
AcDbArc
 50
111.6182724222
 51
248.3817275778
  0
ARC
  5
434
100
AcDbEntity
  8
6_ALL_SURFS
100
AcDbCircle
 62
7
  6
CONTINUOUS
 10
136.7781423804
 20
732.6205784205
 40
0.5
100
AcDbArc
 50
53.1301023542
 51
126.8698976458
  0
ARC
  5
435
100
AcDbEntity
  8
6_ALL_SURFS
100
AcDbCircle
 62
7
  6
CONTINUOUS
 10
133.7781423804
 20
732.6205784205
 40
0.5
100
AcDbArc
 50
53.1301023542
 51
126.8698976458
  0
ARC
  5
436
100
AcDbEntity
  8
6_ALL_SURFS
100
AcDbCircle
 62
7
  6
CONTINUOUS
 10
138.7781423804
 20
734.3205784205
 40
0.3
100
AcDbArc
 50
270.0
 51
360.0
  0
ARC
  5
437
100
AcDbEntity
  8
6_ALL_SURFS
100
AcDbCircle
 62
7
  6
CONTINUOUS
 10
139.0281423804
 20
732.7205784205
 40
0.3
100
AcDbArc
 50
0.0
 51
90.0
  0
ARC
  5
438
100
AcDbEntity
  8
6_ALL_SURFS
100
AcDbCircle
 62
7
  6
CONTINUOUS
 10
140.2781423804
 20
744.639328264
 40
0.3
100
AcDbArc
 50
0.0
 51
68.3817275778
  0
ARC
  5
439
100
AcDbEntity
  8
6_ALL_SURFS
100
AcDbCircle
 62
7
  6
CONTINUOUS
 10
140.2781423804
 20
731.8205784205
 40
0.3
100
AcDbArc
 50
270.0
 51
360.0
  0
ARC
  5
43A
100
AcDbEntity
  8
6_ALL_SURFS
100
AcDbCircle
 62
7
  6
CONTINUOUS
 10
139.6281423804
 20
731.8205784205
 40
0.3
100
AcDbArc
 50
180.0
 51
270.0
  0
ARC
  5
43B
100
AcDbEntity
  8
6_ALL_SURFS
100
AcDbCircle
 62
7
  6
CONTINUOUS
 10
140.9281423804
 20
756.6205784205
 40
2.0
100
AcDbArc
 50
180.0
 51
270.0
  0
ARC
  5
43C
100
AcDbEntity
  8
6_ALL_SURFS
100
AcDbCircle
 62
7
  6
CONTINUOUS
 10
140.9281423804
 20
758.4205784205
 40
2.0
100
AcDbArc
 50
90.0
 51
180.0
  0
ARC
  5
43D
100
AcDbEntity
  8
7_ALL_FEATURES
100
AcDbCircle
 62
7
  6
CONTINUOUS
 10
141.0281423804
 20
748.3405784205
 40
1.8
100
AcDbArc
 50
0.0
 51
57.1401196212
  0
ARC
  5
43E
100
AcDbEntity
  8
6_ALL_SURFS
100
AcDbCircle
 62
7
  6
CONTINUOUS
 10
137.5781423804
 20
747.5274981162
 40
1.5
100
AcDbArc
 50
326.6800806294
 51
360.0
  0
ARC
  5
43F
100
AcDbEntity
  8
6_ALL_SURFS
100
AcDbCircle
 62
7
  6
CONTINUOUS
 10
140.5781423804
 20
750.2330778714
 40
1.5
100
AcDbArc
 50
137.0
 51
180.0
  0
ARC
  5
440
100
AcDbEntity
  8
6_ALL_SURFS
100
AcDbCircle
 62
7
  6
CONTINUOUS
 10
141.8281423804
 20
757.5205784205
 40
1.3
100
AcDbArc
 50
40.8069228749
 51
319.1930771251
  0
ARC
  5
441
100
AcDbEntity
  8
7_ALL_FEATURES
100
AcDbCircle
 62
7
  6
CONTINUOUS
 10
142.1133151777
 20
750.0205784205
 40
1.0
100
AcDbArc
 50
137.0
 51
237.140119621
  0
ARC
  5
442
100
AcDbEntity
  8
7_ALL_FEATURES
100
AcDbCircle
 62
7
  6
CONTINUOUS
 10
141.0281423804
 20
748.3405784205
 40
1.0
100
AcDbArc
 50
0.0
 51
57.1401196213
  0
ARC
  5
443
100
AcDbEntity
  8
7_ALL_FEATURES
100
AcDbCircle
 62
7
  6
CONTINUOUS
 10
142.03893077
 20
750.8205784205
 40
0.4
100
AcDbArc
 50
317.0
 51
136.9999999971
  0
ARC
  5
444
100
AcDbEntity
  8
6_ALL_SURFS
100
AcDbCircle
 62
7
  6
CONTINUOUS
 10
140.8781423804
 20
747.0687421428
 40
0.3
100
AcDbArc
 50
142.5
 51
180.0
  0
ARC
  5
445
100
AcDbEntity
  8
6_ALL_SURFS
100
AcDbCircle
 62
7
  6
CONTINUOUS
 10
142.6085860929
 20
751.9705784205
 40
0.3
100
AcDbArc
 50
90.0
 51
137.0
  0
ARC
  5
446
100
AcDbEntity
  8
6_ALL_SURFS
100
AcDbCircle
 62
7
  6
CONTINUOUS
 10
140.8781423804
 20
750.1149047287
 40
0.3
100
AcDbArc
 50
137.0
 51
180.0
  0
ARC
  5
447
100
AcDbEntity
  8
6_ALL_SURFS
100
AcDbCircle
 62
7
  6
CONTINUOUS
 10
140.8781423804
 20
749.3205784205
 40
0.3
100
AcDbArc
 50
180.0
 51
270.0
  0
ARC
  5
448
100
AcDbEntity
  8
6_ALL_SURFS
100
AcDbCircle
 62
7
  6
CONTINUOUS
 10
141.8281423804
 20
760.7205784205
 40
0.3
100
AcDbArc
 50
270.0
 51
360.0
  0
ARC
  5
449
100
AcDbEntity
  8
6_ALL_SURFS
100
AcDbCircle
 62
7
  6
CONTINUOUS
 10
141.6781423804
 20
754.3205784205
 40
0.3
100
AcDbArc
 50
0.0
 51
90.0
  0
ARC
  5
44A
100
AcDbEntity
  8
6_ALL_SURFS
100
AcDbCircle
 62
7
  6
CONTINUOUS
 10
141.6781423804
 20
754.0519859866
 40
0.3
100
AcDbArc
 50
317.0
 51
360.0
  0
ARC
  5
44B
100
AcDbEntity
  8
6_ALL_SURFS
100
AcDbCircle
 62
7
  6
CONTINUOUS
 10
143.4281423804
 20
758.7907490127
 40
0.3
100
AcDbArc
 50
300.0
 51
360.0
  0
ARC
  5
44C
100
AcDbEntity
  8
6_ALL_SURFS
100
AcDbCircle
 62
7
  6
CONTINUOUS
 10
143.0392081393
 20
758.5661977239
 40
0.3
100
AcDbArc
 50
220.8069228749
 51
300.0
  0
ARC
  5
44D
100
AcDbEntity
  8
6_ALL_SURFS
100
AcDbCircle
 62
7
  6
CONTINUOUS
 10
143.0392081393
 20
756.4749591171
 40
0.3
100
AcDbArc
 50
60.0
 51
139.1930771251
  0
ARC
  5
44E
100
AcDbEntity
  8
6_ALL_SURFS
100
AcDbCircle
 62
7
  6
CONTINUOUS
 10
143.4281423804
 20
756.2504078283
 40
0.3
100
AcDbArc
 50
0.0
 51
60.0
  0
ARC
  5
44F
100
AcDbEntity
  8
6_ALL_SURFS
100
AcDbCircle
 62
7
  6
CONTINUOUS
 10
143.4281423804
 20
752.5705784205
 40
0.3
100
AcDbArc
 50
270.0
 51
360.0
  0
ARC
  5
450
100
AcDbEntity
  8
6_ALL_SURFS
100
AcDbCircle
 62
7
  6
CONTINUOUS
 10
140.2781423804
 20
746.4056804373
 40
0.3
100
AcDbArc
 50
291.6182724222
 51
360.0
  0
ARC
  5
451
100
AcDbEntity
  8
7_ALL_FEATURES
100
AcDbCircle
 62
7
  6
CONTINUOUS
 10
143.0281423804
 20
747.8205784205
 40
0.2
100
AcDbArc
 50
180.0
 51
270.0
  0
ARC
  5
452
100
AcDbEntity
  8
7_ALL_FEATURES
100
AcDbCircle
 62
7
  6
CONTINUOUS
 10
142.1133151777
 20
750.0205784205
 40
0.2
100
AcDbArc
 50
136.9999999887
 51
237.1401196205
  0
ARC
  5
453
100
AcDbEntity
  8
7_ALL_FEATURES
100
AcDbCircle
 62
7
  6
CONTINUOUS
 10
141.8281423804
 20
747.7205784205
 40
0.2
100
AcDbArc
 50
270.0
 51
360.0
  0
ARC
  5
454
100
AcDbEntity
  8
7_ALL_FEATURES
100
AcDbCircle
 62
7
  6
CONTINUOUS
 10
140.9781423804
 20
747.3205784205
 40
0.2
100
AcDbArc
 50
90.0
 51
180.0
  0
ARC
  5
455
100
AcDbEntity
  8
7_ALL_FEATURES
100
AcDbCircle
 62
7
  6
CONTINUOUS
 10
140.9781423804
 20
746.7205784205
 40
0.2
100
AcDbArc
 50
180.0
 51
270.0
  0
ARC
  5
456
100
AcDbEntity
  8
6_ALL_SURFS
100
AcDbCircle
 62
7
  6
CONTINUOUS
 10
141.5921374278
 20
748.8205784205
 40
0.2
100
AcDbArc
 50
322.5
 51
90.0
  0
ARC
  5
457
100
AcDbEntity
  8
6_ALL_SURFS
100
AcDbCircle
 62
7
  6
CONTINUOUS
 10
140.4704477265
 20
821.637435613
 40
5.0
100
AcDbArc
 50
347.5
 51
10.9613346964
  0
ARC
  5
458
100
AcDbEntity
  8
6_ALL_SURFS
100
AcDbCircle
 62
7
  6
CONTINUOUS
 10
147.1281423804
 20
805.4660923498
 40
5.0
100
AcDbArc
 50
167.5
 51
180.0
  0
ARC
  5
459
100
AcDbEntity
  8
6_ALL_SURFS
100
AcDbCircle
 62
7
  6
CONTINUOUS
 10
148.1281423804
 20
823.1205784205
 40
2.8
100
AcDbArc
 50
153.152786674
 51
190.9613346964
  0
ARC
  5
45A
100
AcDbEntity
  8
6_ALL_SURFS
100
AcDbCircle
 62
7
  6
CONTINUOUS
 10
148.1281423804
 20
823.1205784205
 40
2.8
100
AcDbArc
 50
330.0
 51
360.0
  0
ARC
  5
45B
100
AcDbEntity
  8
6_ALL_SURFS
100
AcDbCircle
 62
7
  6
CONTINUOUS
 10
158.3281423804
 20
824.5205784205
 40
1.8
100
AcDbArc
 50
90.0
 51
180.0
  0
ARC
  5
45C
100
AcDbEntity
  8
6_ALL_SURFS
100
AcDbCircle
 62
7
  6
CONTINUOUS
 10
148.1281423804
 20
823.1205784205
 40
1.3
100
AcDbArc
 50
130.8069228749
 51
49.1930771251
  0
ARC
  5
45D
100
AcDbEntity
  8
6_ALL_SURFS
100
AcDbCircle
 62
7
  6
CONTINUOUS
 10
147.5307272321
 20
818.3705784205
 40
1.0
100
AcDbArc
 50
90.0
 51
167.5
  0
ARC
  5
45E
100
AcDbEntity
  8
6_ALL_SURFS
100
AcDbCircle
 62
7
  6
CONTINUOUS
 10
144.7281423804
 20
803.988387219
 40
1.0
100
AcDbArc
 50
160.0
 51
180.0
  0
ARC
  5
45F
100
AcDbEntity
  8
6_ALL_SURFS
100
AcDbCircle
 62
7
  6
CONTINUOUS
 10
150.9860262129
 20
821.4705784205
 40
0.5
100
AcDbArc
 50
150.0
 51
270.0
  0
ARC
  5
460
100
AcDbEntity
  8
6_ALL_SURFS
100
AcDbCircle
 62
7
  6
CONTINUOUS
 10
144.6281423804
 20
825.3205784205
 40
0.5
100
AcDbArc
 50
180.0
 51
270.0
  0
ARC
  5
461
100
AcDbEntity
  8
6_ALL_SURFS
100
AcDbCircle
 62
7
  6
CONTINUOUS
 10
145.3622790432
 20
824.5205784205
 40
0.3
100
AcDbArc
 50
333.152786674
 51
90.0
  0
ARC
  5
462
100
AcDbEntity
  8
6_ALL_SURFS
100
AcDbCircle
 62
7
  6
CONTINUOUS
 10
156.2281423804
 20
821.2705784205
 40
0.3
100
AcDbArc
 50
270.0
 51
360.0
  0
ARC
  5
463
100
AcDbEntity
  8
6_ALL_SURFS
100
AcDbCircle
 62
7
  6
CONTINUOUS
 10
158.7281423804
 20
824.4205784205
 40
0.3
100
AcDbArc
 50
90.0
 51
180.0
  0
ARC
  5
464
100
AcDbEntity
  8
6_ALL_SURFS
100
AcDbCircle
 62
7
  6
CONTINUOUS
 10
144.0678066377
 20
805.9845114688
 40
0.3
100
AcDbArc
 50
167.5
 51
239.0362434679
  0
ARC
  5
465
100
AcDbEntity
  8
6_ALL_SURFS
100
AcDbCircle
 62
7
  6
CONTINUOUS
 10
158.1281423804
 20
819.6705784205
 40
0.3
100
AcDbArc
 50
270.0
 51
360.0
  0
ARC
  5
466
100
AcDbEntity
  8
6_ALL_SURFS
100
AcDbCircle
 62
7
  6
CONTINUOUS
 10
143.8615981801
 20
805.408522316
 40
0.3
100
AcDbArc
 50
340.0
 51
59.0362434679
  0
ARC
  5
467
100
AcDbEntity
  8
6_ALL_SURFS
100
AcDbCircle
 62
7
  6
CONTINUOUS
 10
144.4281423804
 20
826.0205784205
 40
0.3
100
AcDbArc
 50
90.0
 51
180.0
  0
ARC
  5
468
100
AcDbEntity
  8
6_ALL_SURFS
100
AcDbCircle
 62
7
  6
CONTINUOUS
 10
146.1074164383
 20
826.0205784205
 40
0.3
100
AcDbArc
 50
30.0
 51
90.0
  0
ARC
  5
469
100
AcDbEntity
  8
6_ALL_SURFS
100
AcDbCircle
 62
7
  6
CONTINUOUS
 10
147.082523077
 20
824.3316441793
 40
0.3
100
AcDbArc
 50
310.8069228748
 51
30.0
  0
ARC
  5
46A
100
AcDbEntity
  8
6_ALL_SURFS
100
AcDbCircle
 62
7
  6
CONTINUOUS
 10
149.1737616838
 20
824.3316441793
 40
0.3
100
AcDbArc
 50
150.0
 51
229.1930771252
  0
ARC
  5
46B
100
AcDbEntity
  8
6_ALL_SURFS
100
AcDbCircle
 62
7
  6
CONTINUOUS
 10
150.1488683226
 20
826.0205784205
 40
0.3
100
AcDbArc
 50
90.0
 51
150.0
  0
ARC
  5
46C
100
AcDbEntity
  8
6_ALL_SURFS
100
AcDbCircle
 62
7
  6
CONTINUOUS
 10
150.6281423804
 20
826.0205784205
 40
0.3
100
AcDbArc
 50
0.0
 51
90.0
  0
ARC
  5
46D
100
AcDbEntity
  8
7_ALL_FEATURES
100
AcDbCircle
 62
7
  6
CONTINUOUS
 10
179.6281423804
 20
745.5225043506
 40
2.15
100
AcDbArc
 50
326.6800806294
 51
33.3199193706
  0
ARC
  5
46E
100
AcDbEntity
  8
7_ALL_FEATURES
100
AcDbCircle
 62
7
  6
CONTINUOUS
 10
182.6781423804
 20
743.5175105851
 40
1.5
100
AcDbArc
 50
146.6800806294
 51
180.0
  0
ARC
  5
46F
100
AcDbEntity
  8
7_ALL_FEATURES
100
AcDbCircle
 62
7
  6
CONTINUOUS
 10
179.6281423804
 20
745.5225043506
 40
0.65
100
AcDbArc
 50
291.6182724222
 51
68.3817275778
  0
ARC
  5
470
100
AcDbEntity
  8
7_ALL_FEATURES
100
AcDbCircle
 62
7
  6
CONTINUOUS
 10
186.4781423804
 20
732.6205784205
 40
0.5
100
AcDbArc
 50
53.1301023542
 51
126.8698976458
  0
ARC
  5
471
100
AcDbEntity
  8
7_ALL_FEATURES
100
AcDbCircle
 62
7
  6
CONTINUOUS
 10
183.4781423804
 20
732.6205784205
 40
0.5
100
AcDbArc
 50
53.1301023542
 51
126.8698976458
  0
ARC
  5
472
100
AcDbEntity
  8
7_ALL_FEATURES
100
AcDbCircle
 62
7
  6
CONTINUOUS
 10
180.6281423804
 20
731.8205784205
 40
0.3
100
AcDbArc
 50
270.0
 51
360.0
  0
ARC
  5
473
100
AcDbEntity
  8
7_ALL_FEATURES
100
AcDbCircle
 62
7
  6
CONTINUOUS
 10
179.9781423804
 20
731.8205784205
 40
0.3
100
AcDbArc
 50
180.0
 51
270.0
  0
ARC
  5
474
100
AcDbEntity
  8
7_ALL_FEATURES
100
AcDbCircle
 62
7
  6
CONTINUOUS
 10
179.9781423804
 20
744.639328264
 40
0.3
100
AcDbArc
 50
111.6182724222
 51
180.0
  0
ARC
  5
475
100
AcDbEntity
  8
7_ALL_FEATURES
100
AcDbCircle
 62
7
  6
CONTINUOUS
 10
181.4781423804
 20
734.3205784205
 40
0.3
100
AcDbArc
 50
180.0
 51
270.0
  0
ARC
  5
476
100
AcDbEntity
  8
7_ALL_FEATURES
100
AcDbCircle
 62
7
  6
CONTINUOUS
 10
181.2281423804
 20
732.7205784205
 40
0.3
100
AcDbArc
 50
90.0
 51
180.0
  0
ARC
  5
477
100
AcDbEntity
  8
7_ALL_FEATURES
100
AcDbCircle
 62
7
  6
CONTINUOUS
 10
179.3281423804
 20
758.4205784205
 40
2.0
100
AcDbArc
 50
0.0
 51
90.0
  0
ARC
  5
478
100
AcDbEntity
  8
7_ALL_FEATURES
100
AcDbCircle
 62
7
  6
CONTINUOUS
 10
179.3281423804
 20
756.6205784205
 40
2.0
100
AcDbArc
 50
270.0
 51
360.0
  0
ARC
  5
479
100
AcDbEntity
  8
7_ALL_FEATURES
100
AcDbCircle
 62
7
  6
CONTINUOUS
 10
179.2281423804
 20
748.3405784205
 40
1.8
100
AcDbArc
 50
122.8598803788
 51
180.0
  0
ARC
  5
47A
100
AcDbEntity
  8
7_ALL_FEATURES
100
AcDbCircle
 62
7
  6
CONTINUOUS
 10
179.6781423804
 20
750.2330778714
 40
1.5
100
AcDbArc
 50
0.0
 51
43.0
  0
ARC
  5
47B
100
AcDbEntity
  8
7_ALL_FEATURES
100
AcDbCircle
 62
7
  6
CONTINUOUS
 10
182.6781423804
 20
747.5274981162
 40
1.5
100
AcDbArc
 50
180.0
 51
213.3199193706
  0
ARC
  5
47C
100
AcDbEntity
  8
7_ALL_FEATURES
100
AcDbCircle
 62
7
  6
CONTINUOUS
 10
178.4281423804
 20
757.5205784205
 40
1.3
100
AcDbArc
 50
220.8069228749
 51
139.1930771252
  0
ARC
  5
47D
100
AcDbEntity
  8
7_ALL_FEATURES
100
AcDbCircle
 62
7
  6
CONTINUOUS
 10
179.2281423804
 20
748.3405784205
 40
1.0
100
AcDbArc
 50
122.8598803789
 51
180.0
  0
ARC
  5
47E
100
AcDbEntity
  8
7_ALL_FEATURES
100
AcDbCircle
 62
7
  6
CONTINUOUS
 10
178.1429695831
 20
750.0205784205
 40
1.0
100
AcDbArc
 50
302.8598803789
 51
43.0
  0
ARC
  5
47F
100
AcDbEntity
  8
7_ALL_FEATURES
100
AcDbCircle
 62
7
  6
CONTINUOUS
 10
178.2173539909
 20
750.8205784205
 40
0.4
100
AcDbArc
 50
42.9999999998
 51
223.0000000001
  0
ARC
  5
480
100
AcDbEntity
  8
7_ALL_FEATURES
100
AcDbCircle
 62
7
  6
CONTINUOUS
 10
179.3781423804
 20
747.0687421428
 40
0.3
100
AcDbArc
 50
0.0
 51
37.5
  0
ARC
  5
481
100
AcDbEntity
  8
7_ALL_FEATURES
100
AcDbCircle
 62
7
  6
CONTINUOUS
 10
179.9781423804
 20
746.4056804373
 40
0.3
100
AcDbArc
 50
180.0
 51
248.3817275778
  0
ARC
  5
482
100
AcDbEntity
  8
7_ALL_FEATURES
100
AcDbCircle
 62
7
  6
CONTINUOUS
 10
176.8281423804
 20
752.5705784205
 40
0.3
100
AcDbArc
 50
180.0
 51
270.0
  0
ARC
  5
483
100
AcDbEntity
  8
7_ALL_FEATURES
100
AcDbCircle
 62
7
  6
CONTINUOUS
 10
176.8281423804
 20
756.2504078283
 40
0.3
100
AcDbArc
 50
120.0
 51
180.0
  0
ARC
  5
484
100
AcDbEntity
  8
7_ALL_FEATURES
100
AcDbCircle
 62
7
  6
CONTINUOUS
 10
177.2170766215
 20
756.4749591171
 40
0.3
100
AcDbArc
 50
40.8069228749
 51
120.0
  0
ARC
  5
485
100
AcDbEntity
  8
7_ALL_FEATURES
100
AcDbCircle
 62
7
  6
CONTINUOUS
 10
177.2170766215
 20
758.5661977239
 40
0.3
100
AcDbArc
 50
240.0
 51
319.1930771251
  0
ARC
  5
486
100
AcDbEntity
  8
7_ALL_FEATURES
100
AcDbCircle
 62
7
  6
CONTINUOUS
 10
176.8281423804
 20
758.7907490127
 40
0.3
100
AcDbArc
 50
180.0
 51
240.0
  0
ARC
  5
487
100
AcDbEntity
  8
7_ALL_FEATURES
100
AcDbCircle
 62
7
  6
CONTINUOUS
 10
177.6476986679
 20
751.9705784205
 40
0.3
100
AcDbArc
 50
43.0
 51
90.0
  0
ARC
  5
488
100
AcDbEntity
  8
7_ALL_FEATURES
100
AcDbCircle
 62
7
  6
CONTINUOUS
 10
179.3781423804
 20
750.1149047287
 40
0.3
100
AcDbArc
 50
0.0
 51
43.0
  0
ARC
  5
489
100
AcDbEntity
  8
7_ALL_FEATURES
100
AcDbCircle
 62
7
  6
CONTINUOUS
 10
179.3781423804
 20
749.3205784205
 40
0.3
100
AcDbArc
 50
270.0
 51
360.0
  0
ARC
  5
48A
100
AcDbEntity
  8
7_ALL_FEATURES
100
AcDbCircle
 62
7
  6
CONTINUOUS
 10
178.4281423804
 20
760.7205784205
 40
0.3
100
AcDbArc
 50
180.0
 51
270.0
  0
ARC
  5
48B
100
AcDbEntity
  8
7_ALL_FEATURES
100
AcDbCircle
 62
7
  6
CONTINUOUS
 10
178.5781423804
 20
754.3205784205
 40
0.3
100
AcDbArc
 50
90.0
 51
180.0
  0
ARC
  5
48C
100
AcDbEntity
  8
7_ALL_FEATURES
100
AcDbCircle
 62
7
  6
CONTINUOUS
 10
178.5781423804
 20
754.0519859866
 40
0.3
100
AcDbArc
 50
180.0
 51
223.0
  0
ARC
  5
48D
100
AcDbEntity
  8
7_ALL_FEATURES
100
AcDbCircle
 62
7
  6
CONTINUOUS
 10
179.2781423804
 20
746.7205784205
 40
0.2
100
AcDbArc
 50
270.0
 51
360.0
  0
ARC
  5
48E
100
AcDbEntity
  8
7_ALL_FEATURES
100
AcDbCircle
 62
7
  6
CONTINUOUS
 10
179.2781423804
 20
747.3205784205
 40
0.2
100
AcDbArc
 50
0.0
 51
90.0
  0
ARC
  5
48F
100
AcDbEntity
  8
7_ALL_FEATURES
100
AcDbCircle
 62
7
  6
CONTINUOUS
 10
178.4281423804
 20
747.7205784205
 40
0.2
100
AcDbArc
 50
180.0
 51
270.0
  0
ARC
  5
490
100
AcDbEntity
  8
7_ALL_FEATURES
100
AcDbCircle
 62
7
  6
CONTINUOUS
 10
178.1429695831
 20
750.0205784205
 40
0.2
100
AcDbArc
 50
302.8598803795
 51
43.0000000113
  0
ARC
  5
491
100
AcDbEntity
  8
7_ALL_FEATURES
100
AcDbCircle
 62
7
  6
CONTINUOUS
 10
177.2281423804
 20
747.8205784205
 40
0.2
100
AcDbArc
 50
270.0
 51
360.0
  0
ARC
  5
492
100
AcDbEntity
  8
7_ALL_FEATURES
100
AcDbCircle
 62
7
  6
CONTINUOUS
 10
178.6641473331
 20
748.8205784205
 40
0.2
100
AcDbArc
 50
90.0
 51
217.5
  0
ARC
  5
493
100
AcDbEntity
  8
7_ALL_FEATURES
100
AcDbCircle
 62
7
  6
CONTINUOUS
 10
195.4781423804
 20
732.6205784205
 40
0.5
100
AcDbArc
 50
53.1301023542
 51
126.8698976458
  0
ARC
  5
494
100
AcDbEntity
  8
7_ALL_FEATURES
100
AcDbCircle
 62
7
  6
CONTINUOUS
 10
192.4781423804
 20
732.6205784205
 40
0.5
100
AcDbArc
 50
53.1301023542
 51
126.8698976458
  0
ARC
  5
495
100
AcDbEntity
  8
7_ALL_FEATURES
100
AcDbCircle
 62
7
  6
CONTINUOUS
 10
189.4781423804
 20
732.6205784205
 40
0.5
100
AcDbArc
 50
53.1301023542
 51
126.8698976458
  0
ARC
  5
496
100
AcDbEntity
  8
7_ALL_FEATURES
100
AcDbCircle
 62
7
  6
CONTINUOUS
 10
200.7844390225
 20
733.6268750625
 40
0.3937033579
100
AcDbArc
 50
275.7105931375
 51
90.0
  0
ARC
  5
497
100
AcDbEntity
  8
7_ALL_FEATURES
100
AcDbCircle
 62
7
  6
CONTINUOUS
 10
160.1281423804
 20
823.2705784205
 40
8.0
100
AcDbArc
 50
284.4775121859
 51
300.0
  0
ARC
  5
498
100
AcDbEntity
  8
7_ALL_FEATURES
100
AcDbCircle
 62
7
  6
CONTINUOUS
 10
160.1281423804
 20
823.2705784205
 40
8.0
100
AcDbArc
 50
240.0
 51
255.5224878141
  0
ARC
  5
499
100
AcDbEntity
  8
7_ALL_FEATURES
100
AcDbCircle
 62
7
  6
CONTINUOUS
 10
160.1281423804
 20
823.2705784205
 40
7.9843597113
100
AcDbArc
 50
255.4935070353
 51
266.4096498625
  0
ARC
  5
49A
100
AcDbEntity
  8
7_ALL_FEATURES
100
AcDbCircle
 62
7
  6
CONTINUOUS
 10
160.1281423804
 20
823.2705784205
 40
7.9843597113
100
AcDbArc
 50
273.5903501375
 51
284.5064929647
  0
ARC
  5
49B
100
AcDbEntity
  8
7_ALL_FEATURES
100
AcDbCircle
 62
7
  6
CONTINUOUS
 10
160.1281423804
 20
823.2705784205
 40
7.7459666924
100
AcDbArc
 50
266.2990001561
 51
273.7009998439
  0
ARC
  5
49C
100
AcDbEntity
  8
7_ALL_FEATURES
100
AcDbCircle
 62
7
  6
CONTINUOUS
 10
173.1281423804
 20
805.4660923498
 40
5.0
100
AcDbArc
 50
0.0
 51
12.5
  0
ARC
  5
49D
100
AcDbEntity
  8
7_ALL_FEATURES
100
AcDbCircle
 62
7
  6
CONTINUOUS
 10
179.7858370343
 20
821.637435613
 40
5.0
100
AcDbArc
 50
169.0386653036
 51
192.5
  0
ARC
  5
49E
100
AcDbEntity
  8
7_ALL_FEATURES
100
AcDbCircle
 62
7
  6
CONTINUOUS
 10
172.1281423804
 20
823.1205784205
 40
2.8
100
AcDbArc
 50
180.0
 51
210.0
  0
ARC
  5
49F
100
AcDbEntity
  8
7_ALL_FEATURES
100
AcDbCircle
 62
7
  6
CONTINUOUS
 10
172.1281423804
 20
823.1205784205
 40
2.8
100
AcDbArc
 50
349.0386653036
 51
26.847213326
  0
ARC
  5
4A0
100
AcDbEntity
  8
7_ALL_FEATURES
100
AcDbCircle
 62
7
  6
CONTINUOUS
 10
161.9281423804
 20
824.5205784205
 40
1.8
100
AcDbArc
 50
0.0
 51
90.0
  0
ARC
  5
4A1
100
AcDbEntity
  8
7_ALL_FEATURES
100
AcDbCircle
 62
7
  6
CONTINUOUS
 10
172.1281423804
 20
823.1205784205
 40
1.3
100
AcDbArc
 50
130.8069228749
 51
49.1930771251
  0
ARC
  5
4A2
100
AcDbEntity
  8
7_ALL_FEATURES
100
AcDbCircle
 62
7
  6
CONTINUOUS
 10
175.5281423804
 20
803.988387219
 40
1.0
100
AcDbArc
 50
0.0
 51
20.0
  0
ARC
  5
4A3
100
AcDbEntity
  8
7_ALL_FEATURES
100
AcDbCircle
 62
7
  6
CONTINUOUS
 10
172.7255575288
 20
818.3705784205
 40
1.0
100
AcDbArc
 50
12.5
 51
90.0
  0
ARC
  5
4A4
100
AcDbEntity
  8
7_ALL_FEATURES
100
AcDbCircle
 62
7
  6
CONTINUOUS
 10
175.6281423804
 20
825.3205784205
 40
0.5
100
AcDbArc
 50
270.0
 51
360.0
  0
ARC
  5
4A5
100
AcDbEntity
  8
7_ALL_FEATURES
100
AcDbCircle
 62
7
  6
CONTINUOUS
 10
169.2702585479
 20
821.4705784205
 40
0.5
100
AcDbArc
 50
270.0
 51
30.0
  0
ARC
  5
4A6
100
AcDbEntity
  8
7_ALL_FEATURES
100
AcDbCircle
 62
7
  6
CONTINUOUS
 10
169.6281423804
 20
826.0205784205
 40
0.3
100
AcDbArc
 50
90.0
 51
180.0
  0
ARC
  5
4A7
100
AcDbEntity
  8
7_ALL_FEATURES
100
AcDbCircle
 62
7
  6
CONTINUOUS
 10
170.1074164383
 20
826.0205784205
 40
0.3
100
AcDbArc
 50
30.0
 51
90.0
  0
ARC
  5
4A8
100
AcDbEntity
  8
7_ALL_FEATURES
100
AcDbCircle
 62
7
  6
CONTINUOUS
 10
171.082523077
 20
824.3316441793
 40
0.3
100
AcDbArc
 50
310.8069228748
 51
30.0
  0
ARC
  5
4A9
100
AcDbEntity
  8
7_ALL_FEATURES
100
AcDbCircle
 62
7
  6
CONTINUOUS
 10
173.1737616838
 20
824.3316441793
 40
0.3
100
AcDbArc
 50
150.0
 51
229.1930771252
  0
ARC
  5
4AA
100
AcDbEntity
  8
7_ALL_FEATURES
100
AcDbCircle
 62
7
  6
CONTINUOUS
 10
174.1488683226
 20
826.0205784205
 40
0.3
100
AcDbArc
 50
90.0
 51
150.0
  0
ARC
  5
4AB
100
AcDbEntity
  8
7_ALL_FEATURES
100
AcDbCircle
 62
7
  6
CONTINUOUS
 10
175.8281423804
 20
826.0205784205
 40
0.3
100
AcDbArc
 50
0.0
 51
90.0
  0
ARC
  5
4AC
100
AcDbEntity
  8
7_ALL_FEATURES
100
AcDbCircle
 62
7
  6
CONTINUOUS
 10
176.3946865807
 20
805.408522316
 40
0.3
100
AcDbArc
 50
120.9637565321
 51
200.0
  0
ARC
  5
4AD
100
AcDbEntity
  8
7_ALL_FEATURES
100
AcDbCircle
 62
7
  6
CONTINUOUS
 10
162.1281423804
 20
819.6705784205
 40
0.3
100
AcDbArc
 50
180.0
 51
270.0
  0
ARC
  5
4AE
100
AcDbEntity
  8
7_ALL_FEATURES
100
AcDbCircle
 62
7
  6
CONTINUOUS
 10
174.8940057176
 20
824.5205784205
 40
0.3
100
AcDbArc
 50
90.0
 51
206.847213326
  0
ARC
  5
4AF
100
AcDbEntity
  8
7_ALL_FEATURES
100
AcDbCircle
 62
7
  6
CONTINUOUS
 10
164.0281423804
 20
821.2705784205
 40
0.3
100
AcDbArc
 50
180.0
 51
270.0
  0
ARC
  5
4B0
100
AcDbEntity
  8
7_ALL_FEATURES
100
AcDbCircle
 62
7
  6
CONTINUOUS
 10
161.5281423804
 20
824.4205784205
 40
0.3
100
AcDbArc
 50
0.0
 51
90.0
  0
ARC
  5
4B1
100
AcDbEntity
  8
7_ALL_FEATURES
100
AcDbCircle
 62
7
  6
CONTINUOUS
 10
176.1884781231
 20
805.9845114688
 40
0.3
100
AcDbArc
 50
300.9637565321
 51
12.5
  0
ARC
  5
4B2
100
AcDbEntity
  8
7_ALL_FEATURES
100
AcDbCircle
 62
7
  6
CONTINUOUS
 10
458.1201334816
 20
1030.2447719689
 40
4.7990381057
100
AcDbArc
 50
38.6913826582
 51
141.3086173418
  0
ARC
  5
4B3
100
AcDbEntity
  8
7_ALL_FEATURES
100
AcDbCircle
 62
7
  6
CONTINUOUS
 10
1458.1201334816
 20
1030.2447719689
 40
4.7990381057
100
AcDbArc
 50
38.6913826582
 51
141.3086173418
  0
ARC
  5
4B4
100
AcDbEntity
  8
7_ALL_FEATURES
100
AcDbCircle
 62
7
  6
CONTINUOUS
 10
1208.1201334816
 20
1030.2447719689
 40
4.7990381057
100
AcDbArc
 50
38.6913826582
 51
141.3086173418
  0
ARC
  5
4B5
100
AcDbEntity
  8
7_ALL_FEATURES
100
AcDbCircle
 62
7
  6
CONTINUOUS
 10
958.1201334816
 20
1030.2447719689
 40
4.7990381057
100
AcDbArc
 50
38.6913826582
 51
141.3086173418
  0
ARC
  5
4B6
100
AcDbEntity
  8
7_ALL_FEATURES
100
AcDbCircle
 62
7
  6
CONTINUOUS
 10
708.1201334816
 20
1030.2447719689
 40
4.7990381057
100
AcDbArc
 50
38.6913826582
 51
141.3086173418
  0
ARC
  5
4B7
100
AcDbEntity
  8
7_ALL_FEATURES
100
AcDbCircle
 62
7
  6
CONTINUOUS
 10
1458.1201334816
 20
1030.2447719689
 40
4.7990381057
100
AcDbArc
 50
0.0
 51
30.0066305519
  0
ARC
  5
4B8
100
AcDbEntity
  8
7_ALL_FEATURES
100
AcDbCircle
 62
7
  6
CONTINUOUS
 10
1208.1201334816
 20
1030.2447719689
 40
4.7990381057
100
AcDbArc
 50
0.0
 51
30.0066305519
  0
ARC
  5
4B9
100
AcDbEntity
  8
7_ALL_FEATURES
100
AcDbCircle
 62
7
  6
CONTINUOUS
 10
1458.1201334816
 20
1030.2447719689
 40
4.7990381057
100
AcDbArc
 50
149.9933694481
 51
180.0
  0
ARC
  5
4BA
100
AcDbEntity
  8
7_ALL_FEATURES
100
AcDbCircle
 62
7
  6
CONTINUOUS
 10
958.1201334816
 20
1030.2447719689
 40
4.7990381057
100
AcDbArc
 50
0.0
 51
30.0066305519
  0
ARC
  5
4BB
100
AcDbEntity
  8
7_ALL_FEATURES
100
AcDbCircle
 62
7
  6
CONTINUOUS
 10
1208.1201334816
 20
1030.2447719689
 40
4.7990381057
100
AcDbArc
 50
149.9933694481
 51
180.0
  0
ARC
  5
4BC
100
AcDbEntity
  8
7_ALL_FEATURES
100
AcDbCircle
 62
7
  6
CONTINUOUS
 10
708.1201334816
 20
1030.2447719689
 40
4.7990381057
100
AcDbArc
 50
0.0
 51
30.0066305519
  0
ARC
  5
4BD
100
AcDbEntity
  8
7_ALL_FEATURES
100
AcDbCircle
 62
7
  6
CONTINUOUS
 10
958.1201334816
 20
1030.2447719689
 40
4.7990381057
100
AcDbArc
 50
149.9933694481
 51
180.0
  0
ARC
  5
4BE
100
AcDbEntity
  8
7_ALL_FEATURES
100
AcDbCircle
 62
7
  6
CONTINUOUS
 10
458.1201334816
 20
1030.2447719689
 40
4.7990381057
100
AcDbArc
 50
0.0
 51
30.0066305519
  0
ARC
  5
4BF
100
AcDbEntity
  8
7_ALL_FEATURES
100
AcDbCircle
 62
7
  6
CONTINUOUS
 10
708.1201334816
 20
1030.2447719689
 40
4.7990381057
100
AcDbArc
 50
149.9933694481
 51
180.0
  0
ARC
  5
4C0
100
AcDbEntity
  8
7_ALL_FEATURES
100
AcDbCircle
 62
7
  6
CONTINUOUS
 10
458.1201334816
 20
1030.2447719689
 40
4.7990381057
100
AcDbArc
 50
149.9933694481
 51
180.0
  0
ARC
  5
4C1
100
AcDbEntity
  8
7_ALL_FEATURES
100
AcDbCircle
 62
7
  6
CONTINUOUS
 10
1458.1201334816
 20
1030.2447719689
 40
4.7990381057
100
AcDbArc
 50
313.171184019
 51
352.8177973595
  0
ARC
  5
4C2
100
AcDbEntity
  8
7_ALL_FEATURES
100
AcDbCircle
 62
7
  6
CONTINUOUS
 10
1208.1201334816
 20
1030.2447719689
 40
4.7990381057
100
AcDbArc
 50
313.171184019
 51
352.8177973595
  0
ARC
  5
4C3
100
AcDbEntity
  8
7_ALL_FEATURES
100
AcDbCircle
 62
7
  6
CONTINUOUS
 10
1458.1201334816
 20
1030.2447719689
 40
4.7990381057
100
AcDbArc
 50
187.1822026405
 51
226.828815981
  0
ARC
  5
4C4
100
AcDbEntity
  8
7_ALL_FEATURES
100
AcDbCircle
 62
7
  6
CONTINUOUS
 10
958.1201334816
 20
1030.2447719689
 40
4.7990381057
100
AcDbArc
 50
313.171184019
 51
352.8177973595
  0
ARC
  5
4C5
100
AcDbEntity
  8
7_ALL_FEATURES
100
AcDbCircle
 62
7
  6
CONTINUOUS
 10
1208.1201334816
 20
1030.2447719689
 40
4.7990381057
100
AcDbArc
 50
187.1822026405
 51
226.828815981
  0
ARC
  5
4C6
100
AcDbEntity
  8
7_ALL_FEATURES
100
AcDbCircle
 62
7
  6
CONTINUOUS
 10
708.1201334816
 20
1030.2447719689
 40
4.7990381057
100
AcDbArc
 50
313.171184019
 51
352.8177973595
  0
ARC
  5
4C7
100
AcDbEntity
  8
7_ALL_FEATURES
100
AcDbCircle
 62
7
  6
CONTINUOUS
 10
958.1201334816
 20
1030.2447719689
 40
4.7990381057
100
AcDbArc
 50
187.1822026405
 51
226.828815981
  0
ARC
  5
4C8
100
AcDbEntity
  8
7_ALL_FEATURES
100
AcDbCircle
 62
7
  6
CONTINUOUS
 10
458.1201334816
 20
1030.2447719689
 40
4.7990381057
100
AcDbArc
 50
313.171184019
 51
352.8177973595
  0
ARC
  5
4C9
100
AcDbEntity
  8
7_ALL_FEATURES
100
AcDbCircle
 62
7
  6
CONTINUOUS
 10
708.1201334816
 20
1030.2447719689
 40
4.7990381057
100
AcDbArc
 50
187.1822026405
 51
226.828815981
  0
ARC
  5
4CA
100
AcDbEntity
  8
7_ALL_FEATURES
100
AcDbCircle
 62
7
  6
CONTINUOUS
 10
458.1201334816
 20
1030.2447719689
 40
4.7990381057
100
AcDbArc
 50
187.1822026405
 51
226.828815981
  0
CIRCLE
  5
4CB
100
AcDbEntity
  8
6_ALL_SURFS
100
AcDbCircle
 62
7
  6
CONTINUOUS
 10
458.1201334816
 20
1030.2447719689
 40
3.5
  0
CIRCLE
  5
4CC
100
AcDbEntity
  8
6_ALL_SURFS
100
AcDbCircle
 62
7
  6
CONTINUOUS
 10
708.1201334816
 20
1030.2447719689
 40
3.5
  0
CIRCLE
  5
4CD
100
AcDbEntity
  8
6_ALL_SURFS
100
AcDbCircle
 62
7
  6
CONTINUOUS
 10
958.1201334816
 20
1030.2447719689
 40
3.5
  0
CIRCLE
  5
4CE
100
AcDbEntity
  8
6_ALL_SURFS
100
AcDbCircle
 62
7
  6
CONTINUOUS
 10
1208.1201334816
 20
1030.2447719689
 40
3.5
  0
CIRCLE
  5
4CF
100
AcDbEntity
  8
6_ALL_SURFS
100
AcDbCircle
 62
7
  6
CONTINUOUS
 10
1458.1201334816
 20
1030.2447719689
 40
3.5
  0
ARC
  5
4D0
100
AcDbEntity
  8
6_ALL_SURFS
100
AcDbCircle
 62
7
  6
CONTINUOUS
 10
958.1201334816
 20
1100.3447719689
 40
4.7990381057
100
AcDbArc
 50
133.171184019
 51
172.8177973595
  0
ARC
  5
4D1
100
AcDbEntity
  8
6_ALL_SURFS
100
AcDbCircle
 62
7
  6
CONTINUOUS
 10
708.1201334816
 20
1100.3447719689
 40
4.7990381057
100
AcDbArc
 50
7.1822026405
 51
46.828815981
  0
ARC
  5
4D2
100
AcDbEntity
  8
6_ALL_SURFS
100
AcDbCircle
 62
7
  6
CONTINUOUS
 10
1208.1201334816
 20
1100.3447719689
 40
4.7990381057
100
AcDbArc
 50
133.171184019
 51
172.8177973595
  0
ARC
  5
4D3
100
AcDbEntity
  8
6_ALL_SURFS
100
AcDbCircle
 62
7
  6
CONTINUOUS
 10
958.1201334816
 20
1100.3447719689
 40
4.7990381057
100
AcDbArc
 50
7.1822026405
 51
46.828815981
  0
ARC
  5
4D4
100
AcDbEntity
  8
6_ALL_SURFS
100
AcDbCircle
 62
7
  6
CONTINUOUS
 10
1458.1201334816
 20
1100.3447719689
 40
4.7990381057
100
AcDbArc
 50
133.171184019
 51
172.8177973595
  0
ARC
  5
4D5
100
AcDbEntity
  8
6_ALL_SURFS
100
AcDbCircle
 62
7
  6
CONTINUOUS
 10
1208.1201334816
 20
1100.3447719689
 40
4.7990381057
100
AcDbArc
 50
7.1822026405
 51
46.828815981
  0
ARC
  5
4D6
100
AcDbEntity
  8
6_ALL_SURFS
100
AcDbCircle
 62
7
  6
CONTINUOUS
 10
1458.1201334816
 20
1100.3447719689
 40
4.7990381057
100
AcDbArc
 50
7.1822026405
 51
46.828815981
  0
ARC
  5
4D7
100
AcDbEntity
  8
6_ALL_SURFS
100
AcDbCircle
 62
7
  6
CONTINUOUS
 10
458.1201334816
 20
1100.3447719689
 40
4.7990381057
100
AcDbArc
 50
180.0
 51
210.0066305519
  0
ARC
  5
4D8
100
AcDbEntity
  8
6_ALL_SURFS
100
AcDbCircle
 62
7
  6
CONTINUOUS
 10
708.1201334816
 20
1100.3447719689
 40
4.7990381057
100
AcDbArc
 50
180.0
 51
210.0066305519
  0
ARC
  5
4D9
100
AcDbEntity
  8
6_ALL_SURFS
100
AcDbCircle
 62
7
  6
CONTINUOUS
 10
458.1201334816
 20
1100.3447719689
 40
4.7990381057
100
AcDbArc
 50
329.9933694481
 51
360.0
  0
ARC
  5
4DA
100
AcDbEntity
  8
6_ALL_SURFS
100
AcDbCircle
 62
7
  6
CONTINUOUS
 10
958.1201334816
 20
1100.3447719689
 40
4.7990381057
100
AcDbArc
 50
180.0
 51
210.0066305519
  0
ARC
  5
4DB
100
AcDbEntity
  8
6_ALL_SURFS
100
AcDbCircle
 62
7
  6
CONTINUOUS
 10
708.1201334816
 20
1100.3447719689
 40
4.7990381057
100
AcDbArc
 50
329.9933694481
 51
360.0
  0
ARC
  5
4DC
100
AcDbEntity
  8
6_ALL_SURFS
100
AcDbCircle
 62
7
  6
CONTINUOUS
 10
1208.1201334816
 20
1100.3447719689
 40
4.7990381057
100
AcDbArc
 50
180.0
 51
210.0066305519
  0
ARC
  5
4DD
100
AcDbEntity
  8
6_ALL_SURFS
100
AcDbCircle
 62
7
  6
CONTINUOUS
 10
958.1201334816
 20
1100.3447719689
 40
4.7990381057
100
AcDbArc
 50
329.9933694481
 51
360.0
  0
ARC
  5
4DE
100
AcDbEntity
  8
6_ALL_SURFS
100
AcDbCircle
 62
7
  6
CONTINUOUS
 10
1458.1201334816
 20
1100.3447719689
 40
4.7990381057
100
AcDbArc
 50
180.0
 51
210.0066305519
  0
ARC
  5
4DF
100
AcDbEntity
  8
6_ALL_SURFS
100
AcDbCircle
 62
7
  6
CONTINUOUS
 10
1208.1201334816
 20
1100.3447719689
 40
4.7990381057
100
AcDbArc
 50
329.9933694481
 51
360.0
  0
ARC
  5
4E0
100
AcDbEntity
  8
6_ALL_SURFS
100
AcDbCircle
 62
7
  6
CONTINUOUS
 10
1458.1201334816
 20
1100.3447719689
 40
4.7990381057
100
AcDbArc
 50
329.9933694481
 51
360.0
  0
ARC
  5
4E1
100
AcDbEntity
  8
6_ALL_SURFS
100
AcDbCircle
 62
7
  6
CONTINUOUS
 10
1458.1201334816
 20
1100.3447719689
 40
4.7990381057
100
AcDbArc
 50
218.6913826582
 51
321.3086173418
  0
ARC
  5
4E2
100
AcDbEntity
  8
6_ALL_SURFS
100
AcDbCircle
 62
7
  6
CONTINUOUS
 10
1208.1201334816
 20
1100.3447719689
 40
4.7990381057
100
AcDbArc
 50
218.6913826582
 51
321.3086173418
  0
ARC
  5
4E3
100
AcDbEntity
  8
6_ALL_SURFS
100
AcDbCircle
 62
7
  6
CONTINUOUS
 10
958.1201334816
 20
1100.3447719689
 40
4.7990381057
100
AcDbArc
 50
218.6913826582
 51
321.3086173418
  0
ARC
  5
4E4
100
AcDbEntity
  8
6_ALL_SURFS
100
AcDbCircle
 62
7
  6
CONTINUOUS
 10
708.1201334816
 20
1100.3447719689
 40
4.7990381057
100
AcDbArc
 50
218.6913826582
 51
321.3086173418
  0
ARC
  5
4E5
100
AcDbEntity
  8
6_ALL_SURFS
100
AcDbCircle
 62
7
  6
CONTINUOUS
 10
458.1201334816
 20
1100.3447719689
 40
4.7990381057
100
AcDbArc
 50
218.6913826582
 51
321.3086173418
  0
ARC
  5
4E6
100
AcDbEntity
  8
6_ALL_SURFS
100
AcDbCircle
 62
7
  6
CONTINUOUS
 10
458.1201334816
 20
1100.3447719689
 40
4.7990381057
100
AcDbArc
 50
133.171184019
 51
172.8177973595
  0
ARC
  5
4E7
100
AcDbEntity
  8
6_ALL_SURFS
100
AcDbCircle
 62
7
  6
CONTINUOUS
 10
708.1201334816
 20
1100.3447719689
 40
4.7990381057
100
AcDbArc
 50
133.171184019
 51
172.8177973595
  0
ARC
  5
4E8
100
AcDbEntity
  8
6_ALL_SURFS
100
AcDbCircle
 62
7
  6
CONTINUOUS
 10
458.1201334816
 20
1100.3447719689
 40
4.7990381057
100
AcDbArc
 50
7.1822026405
 51
46.828815981
  0
CIRCLE
  5
4E9
100
AcDbEntity
  8
6_ALL_SURFS
100
AcDbCircle
 62
7
  6
CONTINUOUS
 10
458.1201334816
 20
1100.3447719689
 40
3.5
  0
CIRCLE
  5
4EA
100
AcDbEntity
  8
6_ALL_SURFS
100
AcDbCircle
 62
7
  6
CONTINUOUS
 10
708.1201334816
 20
1100.3447719689
 40
3.5
  0
CIRCLE
  5
4EB
100
AcDbEntity
  8
6_ALL_SURFS
100
AcDbCircle
 62
7
  6
CONTINUOUS
 10
958.1201334816
 20
1100.3447719689
 40
3.5
  0
CIRCLE
  5
4EC
100
AcDbEntity
  8
6_ALL_SURFS
100
AcDbCircle
 62
7
  6
CONTINUOUS
 10
1208.1201334816
 20
1100.3447719689
 40
3.5
  0
CIRCLE
  5
4ED
100
AcDbEntity
  8
6_ALL_SURFS
100
AcDbCircle
 62
7
  6
CONTINUOUS
 10
1458.1201334816
 20
1100.3447719689
 40
3.5
  0
ARC
  5
4EE
100
AcDbEntity
  8
7_ALL_FEATURES
100
AcDbCircle
 62
7
  6
CONTINUOUS
 10
2958.1201334816
 20
1030.2447719689
 40
4.7990381057
100
AcDbArc
 50
38.6913826582
 51
141.3086173418
  0
ARC
  5
4EF
100
AcDbEntity
  8
7_ALL_FEATURES
100
AcDbCircle
 62
7
  6
CONTINUOUS
 10
2708.1201334816
 20
1030.2447719689
 40
4.7990381057
100
AcDbArc
 50
38.6913826582
 51
141.3086173418
  0
ARC
  5
4F0
100
AcDbEntity
  8
7_ALL_FEATURES
100
AcDbCircle
 62
7
  6
CONTINUOUS
 10
2458.1201334816
 20
1030.2447719689
 40
4.7990381057
100
AcDbArc
 50
38.6913826582
 51
141.3086173418
  0
ARC
  5
4F1
100
AcDbEntity
  8
7_ALL_FEATURES
100
AcDbCircle
 62
7
  6
CONTINUOUS
 10
2208.1201334816
 20
1030.2447719689
 40
4.7990381057
100
AcDbArc
 50
38.6913826582
 51
141.3086173418
  0
ARC
  5
4F2
100
AcDbEntity
  8
7_ALL_FEATURES
100
AcDbCircle
 62
7
  6
CONTINUOUS
 10
1958.1201334816
 20
1030.2447719689
 40
4.7990381057
100
AcDbArc
 50
38.6913826582
 51
141.3086173418
  0
ARC
  5
4F3
100
AcDbEntity
  8
7_ALL_FEATURES
100
AcDbCircle
 62
7
  6
CONTINUOUS
 10
1708.1201334816
 20
1030.2447719689
 40
4.7990381057
100
AcDbArc
 50
38.6913826582
 51
141.3086173418
  0
ARC
  5
4F4
100
AcDbEntity
  8
7_ALL_FEATURES
100
AcDbCircle
 62
7
  6
CONTINUOUS
 10
2958.1201334816
 20
1030.2447719689
 40
4.7990381057
100
AcDbArc
 50
0.0
 51
30.0066305519
  0
ARC
  5
4F5
100
AcDbEntity
  8
7_ALL_FEATURES
100
AcDbCircle
 62
7
  6
CONTINUOUS
 10
2708.1201334816
 20
1030.2447719689
 40
4.7990381057
100
AcDbArc
 50
0.0
 51
30.0066305519
  0
ARC
  5
4F6
100
AcDbEntity
  8
7_ALL_FEATURES
100
AcDbCircle
 62
7
  6
CONTINUOUS
 10
2958.1201334816
 20
1030.2447719689
 40
4.7990381057
100
AcDbArc
 50
149.9933694481
 51
180.0
  0
ARC
  5
4F7
100
AcDbEntity
  8
7_ALL_FEATURES
100
AcDbCircle
 62
7
  6
CONTINUOUS
 10
2458.1201334816
 20
1030.2447719689
 40
4.7990381057
100
AcDbArc
 50
0.0
 51
30.0066305519
  0
ARC
  5
4F8
100
AcDbEntity
  8
7_ALL_FEATURES
100
AcDbCircle
 62
7
  6
CONTINUOUS
 10
2708.1201334816
 20
1030.2447719689
 40
4.7990381057
100
AcDbArc
 50
149.9933694481
 51
180.0
  0
ARC
  5
4F9
100
AcDbEntity
  8
7_ALL_FEATURES
100
AcDbCircle
 62
7
  6
CONTINUOUS
 10
2208.1201334816
 20
1030.2447719689
 40
4.7990381057
100
AcDbArc
 50
0.0
 51
30.0066305519
  0
ARC
  5
4FA
100
AcDbEntity
  8
7_ALL_FEATURES
100
AcDbCircle
 62
7
  6
CONTINUOUS
 10
2458.1201334816
 20
1030.2447719689
 40
4.7990381057
100
AcDbArc
 50
149.9933694481
 51
180.0
  0
ARC
  5
4FB
100
AcDbEntity
  8
7_ALL_FEATURES
100
AcDbCircle
 62
7
  6
CONTINUOUS
 10
1958.1201334816
 20
1030.2447719689
 40
4.7990381057
100
AcDbArc
 50
0.0
 51
30.0066305519
  0
ARC
  5
4FC
100
AcDbEntity
  8
7_ALL_FEATURES
100
AcDbCircle
 62
7
  6
CONTINUOUS
 10
2208.1201334816
 20
1030.2447719689
 40
4.7990381057
100
AcDbArc
 50
149.9933694481
 51
180.0
  0
ARC
  5
4FD
100
AcDbEntity
  8
7_ALL_FEATURES
100
AcDbCircle
 62
7
  6
CONTINUOUS
 10
1708.1201334816
 20
1030.2447719689
 40
4.7990381057
100
AcDbArc
 50
0.0
 51
30.0066305519
  0
ARC
  5
4FE
100
AcDbEntity
  8
7_ALL_FEATURES
100
AcDbCircle
 62
7
  6
CONTINUOUS
 10
1958.1201334816
 20
1030.2447719689
 40
4.7990381057
100
AcDbArc
 50
149.9933694481
 51
180.0
  0
ARC
  5
4FF
100
AcDbEntity
  8
7_ALL_FEATURES
100
AcDbCircle
 62
7
  6
CONTINUOUS
 10
1708.1201334816
 20
1030.2447719689
 40
4.7990381057
100
AcDbArc
 50
149.9933694481
 51
180.0
  0
ARC
  5
500
100
AcDbEntity
  8
7_ALL_FEATURES
100
AcDbCircle
 62
7
  6
CONTINUOUS
 10
2958.1201334816
 20
1030.2447719689
 40
4.7990381057
100
AcDbArc
 50
313.171184019
 51
352.8177973595
  0
ARC
  5
501
100
AcDbEntity
  8
7_ALL_FEATURES
100
AcDbCircle
 62
7
  6
CONTINUOUS
 10
2708.1201334816
 20
1030.2447719689
 40
4.7990381057
100
AcDbArc
 50
313.171184019
 51
352.8177973595
  0
ARC
  5
502
100
AcDbEntity
  8
7_ALL_FEATURES
100
AcDbCircle
 62
7
  6
CONTINUOUS
 10
2958.1201334816
 20
1030.2447719689
 40
4.7990381057
100
AcDbArc
 50
187.1822026405
 51
226.828815981
  0
ARC
  5
503
100
AcDbEntity
  8
7_ALL_FEATURES
100
AcDbCircle
 62
7
  6
CONTINUOUS
 10
2458.1201334816
 20
1030.2447719689
 40
4.7990381057
100
AcDbArc
 50
313.171184019
 51
352.8177973595
  0
ARC
  5
504
100
AcDbEntity
  8
7_ALL_FEATURES
100
AcDbCircle
 62
7
  6
CONTINUOUS
 10
2708.1201334816
 20
1030.2447719689
 40
4.7990381057
100
AcDbArc
 50
187.1822026405
 51
226.828815981
  0
ARC
  5
505
100
AcDbEntity
  8
7_ALL_FEATURES
100
AcDbCircle
 62
7
  6
CONTINUOUS
 10
2208.1201334816
 20
1030.2447719689
 40
4.7990381057
100
AcDbArc
 50
313.171184019
 51
352.8177973595
  0
ARC
  5
506
100
AcDbEntity
  8
7_ALL_FEATURES
100
AcDbCircle
 62
7
  6
CONTINUOUS
 10
2458.1201334816
 20
1030.2447719689
 40
4.7990381057
100
AcDbArc
 50
187.1822026405
 51
226.828815981
  0
ARC
  5
507
100
AcDbEntity
  8
7_ALL_FEATURES
100
AcDbCircle
 62
7
  6
CONTINUOUS
 10
1958.1201334816
 20
1030.2447719689
 40
4.7990381057
100
AcDbArc
 50
313.171184019
 51
352.8177973595
  0
ARC
  5
508
100
AcDbEntity
  8
7_ALL_FEATURES
100
AcDbCircle
 62
7
  6
CONTINUOUS
 10
2208.1201334816
 20
1030.2447719689
 40
4.7990381057
100
AcDbArc
 50
187.1822026405
 51
226.828815981
  0
ARC
  5
509
100
AcDbEntity
  8
7_ALL_FEATURES
100
AcDbCircle
 62
7
  6
CONTINUOUS
 10
1708.1201334816
 20
1030.2447719689
 40
4.7990381057
100
AcDbArc
 50
313.171184019
 51
352.8177973595
  0
ARC
  5
50A
100
AcDbEntity
  8
7_ALL_FEATURES
100
AcDbCircle
 62
7
  6
CONTINUOUS
 10
1958.1201334816
 20
1030.2447719689
 40
4.7990381057
100
AcDbArc
 50
187.1822026405
 51
226.828815981
  0
ARC
  5
50B
100
AcDbEntity
  8
7_ALL_FEATURES
100
AcDbCircle
 62
7
  6
CONTINUOUS
 10
1708.1201334816
 20
1030.2447719689
 40
4.7990381057
100
AcDbArc
 50
187.1822026405
 51
226.828815981
  0
CIRCLE
  5
50C
100
AcDbEntity
  8
6_ALL_SURFS
100
AcDbCircle
 62
7
  6
CONTINUOUS
 10
1708.1201334816
 20
1030.2447719689
 40
3.5
  0
CIRCLE
  5
50D
100
AcDbEntity
  8
6_ALL_SURFS
100
AcDbCircle
 62
7
  6
CONTINUOUS
 10
1958.1201334816
 20
1030.2447719689
 40
3.5
  0
CIRCLE
  5
50E
100
AcDbEntity
  8
6_ALL_SURFS
100
AcDbCircle
 62
7
  6
CONTINUOUS
 10
2208.1201334816
 20
1030.2447719689
 40
3.5
  0
CIRCLE
  5
50F
100
AcDbEntity
  8
6_ALL_SURFS
100
AcDbCircle
 62
7
  6
CONTINUOUS
 10
2458.1201334816
 20
1030.2447719689
 40
3.5
  0
CIRCLE
  5
510
100
AcDbEntity
  8
6_ALL_SURFS
100
AcDbCircle
 62
7
  6
CONTINUOUS
 10
2708.1201334816
 20
1030.2447719689
 40
3.5
  0
CIRCLE
  5
511
100
AcDbEntity
  8
6_ALL_SURFS
100
AcDbCircle
 62
7
  6
CONTINUOUS
 10
2958.1201334816
 20
1030.2447719689
 40
3.5
  0
ARC
  5
512
100
AcDbEntity
  8
6_ALL_SURFS
100
AcDbCircle
 62
7
  6
CONTINUOUS
 10
1708.1201334816
 20
1100.3447719689
 40
4.7990381057
100
AcDbArc
 50
133.171184019
 51
172.8177973595
  0
ARC
  5
513
100
AcDbEntity
  8
6_ALL_SURFS
100
AcDbCircle
 62
7
  6
CONTINUOUS
 10
1958.1201334816
 20
1100.3447719689
 40
4.7990381057
100
AcDbArc
 50
133.171184019
 51
172.8177973595
  0
ARC
  5
514
100
AcDbEntity
  8
6_ALL_SURFS
100
AcDbCircle
 62
7
  6
CONTINUOUS
 10
1708.1201334816
 20
1100.3447719689
 40
4.7990381057
100
AcDbArc
 50
7.1822026405
 51
46.828815981
  0
ARC
  5
515
100
AcDbEntity
  8
6_ALL_SURFS
100
AcDbCircle
 62
7
  6
CONTINUOUS
 10
2208.1201334816
 20
1100.3447719689
 40
4.7990381057
100
AcDbArc
 50
133.171184019
 51
172.8177973595
  0
ARC
  5
516
100
AcDbEntity
  8
6_ALL_SURFS
100
AcDbCircle
 62
7
  6
CONTINUOUS
 10
1958.1201334816
 20
1100.3447719689
 40
4.7990381057
100
AcDbArc
 50
7.1822026405
 51
46.828815981
  0
ARC
  5
517
100
AcDbEntity
  8
6_ALL_SURFS
100
AcDbCircle
 62
7
  6
CONTINUOUS
 10
2458.1201334816
 20
1100.3447719689
 40
4.7990381057
100
AcDbArc
 50
133.171184019
 51
172.8177973595
  0
ARC
  5
518
100
AcDbEntity
  8
6_ALL_SURFS
100
AcDbCircle
 62
7
  6
CONTINUOUS
 10
2208.1201334816
 20
1100.3447719689
 40
4.7990381057
100
AcDbArc
 50
7.1822026405
 51
46.828815981
  0
ARC
  5
519
100
AcDbEntity
  8
6_ALL_SURFS
100
AcDbCircle
 62
7
  6
CONTINUOUS
 10
2708.1201334816
 20
1100.3447719689
 40
4.7990381057
100
AcDbArc
 50
133.171184019
 51
172.8177973595
  0
ARC
  5
51A
100
AcDbEntity
  8
6_ALL_SURFS
100
AcDbCircle
 62
7
  6
CONTINUOUS
 10
2458.1201334816
 20
1100.3447719689
 40
4.7990381057
100
AcDbArc
 50
7.1822026405
 51
46.828815981
  0
ARC
  5
51B
100
AcDbEntity
  8
6_ALL_SURFS
100
AcDbCircle
 62
7
  6
CONTINUOUS
 10
2958.1201334816
 20
1100.3447719689
 40
4.7990381057
100
AcDbArc
 50
133.171184019
 51
172.8177973595
  0
ARC
  5
51C
100
AcDbEntity
  8
6_ALL_SURFS
100
AcDbCircle
 62
7
  6
CONTINUOUS
 10
2708.1201334816
 20
1100.3447719689
 40
4.7990381057
100
AcDbArc
 50
7.1822026405
 51
46.828815981
  0
ARC
  5
51D
100
AcDbEntity
  8
6_ALL_SURFS
100
AcDbCircle
 62
7
  6
CONTINUOUS
 10
2958.1201334816
 20
1100.3447719689
 40
4.7990381057
100
AcDbArc
 50
7.1822026405
 51
46.828815981
  0
ARC
  5
51E
100
AcDbEntity
  8
6_ALL_SURFS
100
AcDbCircle
 62
7
  6
CONTINUOUS
 10
1708.1201334816
 20
1100.3447719689
 40
4.7990381057
100
AcDbArc
 50
180.0
 51
210.0066305519
  0
ARC
  5
51F
100
AcDbEntity
  8
6_ALL_SURFS
100
AcDbCircle
 62
7
  6
CONTINUOUS
 10
1958.1201334816
 20
1100.3447719689
 40
4.7990381057
100
AcDbArc
 50
180.0
 51
210.0066305519
  0
ARC
  5
520
100
AcDbEntity
  8
6_ALL_SURFS
100
AcDbCircle
 62
7
  6
CONTINUOUS
 10
1708.1201334816
 20
1100.3447719689
 40
4.7990381057
100
AcDbArc
 50
329.9933694481
 51
360.0
  0
ARC
  5
521
100
AcDbEntity
  8
6_ALL_SURFS
100
AcDbCircle
 62
7
  6
CONTINUOUS
 10
2208.1201334816
 20
1100.3447719689
 40
4.7990381057
100
AcDbArc
 50
180.0
 51
210.0066305519
  0
ARC
  5
522
100
AcDbEntity
  8
6_ALL_SURFS
100
AcDbCircle
 62
7
  6
CONTINUOUS
 10
1958.1201334816
 20
1100.3447719689
 40
4.7990381057
100
AcDbArc
 50
329.9933694481
 51
360.0
  0
ARC
  5
523
100
AcDbEntity
  8
6_ALL_SURFS
100
AcDbCircle
 62
7
  6
CONTINUOUS
 10
2458.1201334816
 20
1100.3447719689
 40
4.7990381057
100
AcDbArc
 50
180.0
 51
210.0066305519
  0
ARC
  5
524
100
AcDbEntity
  8
6_ALL_SURFS
100
AcDbCircle
 62
7
  6
CONTINUOUS
 10
2208.1201334816
 20
1100.3447719689
 40
4.7990381057
100
AcDbArc
 50
329.9933694481
 51
360.0
  0
ARC
  5
525
100
AcDbEntity
  8
6_ALL_SURFS
100
AcDbCircle
 62
7
  6
CONTINUOUS
 10
2708.1201334816
 20
1100.3447719689
 40
4.7990381057
100
AcDbArc
 50
180.0
 51
210.0066305519
  0
ARC
  5
526
100
AcDbEntity
  8
6_ALL_SURFS
100
AcDbCircle
 62
7
  6
CONTINUOUS
 10
2458.1201334816
 20
1100.3447719689
 40
4.7990381057
100
AcDbArc
 50
329.9933694481
 51
360.0
  0
ARC
  5
527
100
AcDbEntity
  8
6_ALL_SURFS
100
AcDbCircle
 62
7
  6
CONTINUOUS
 10
2958.1201334816
 20
1100.3447719689
 40
4.7990381057
100
AcDbArc
 50
180.0
 51
210.0066305519
  0
ARC
  5
528
100
AcDbEntity
  8
6_ALL_SURFS
100
AcDbCircle
 62
7
  6
CONTINUOUS
 10
2708.1201334816
 20
1100.3447719689
 40
4.7990381057
100
AcDbArc
 50
329.9933694481
 51
360.0
  0
ARC
  5
529
100
AcDbEntity
  8
6_ALL_SURFS
100
AcDbCircle
 62
7
  6
CONTINUOUS
 10
2958.1201334816
 20
1100.3447719689
 40
4.7990381057
100
AcDbArc
 50
329.9933694481
 51
360.0
  0
ARC
  5
52A
100
AcDbEntity
  8
6_ALL_SURFS
100
AcDbCircle
 62
7
  6
CONTINUOUS
 10
2958.1201334816
 20
1100.3447719689
 40
4.7990381057
100
AcDbArc
 50
218.6913826582
 51
321.3086173418
  0
ARC
  5
52B
100
AcDbEntity
  8
6_ALL_SURFS
100
AcDbCircle
 62
7
  6
CONTINUOUS
 10
2708.1201334816
 20
1100.3447719689
 40
4.7990381057
100
AcDbArc
 50
218.6913826582
 51
321.3086173418
  0
ARC
  5
52C
100
AcDbEntity
  8
6_ALL_SURFS
100
AcDbCircle
 62
7
  6
CONTINUOUS
 10
2458.1201334816
 20
1100.3447719689
 40
4.7990381057
100
AcDbArc
 50
218.6913826582
 51
321.3086173418
  0
ARC
  5
52D
100
AcDbEntity
  8
6_ALL_SURFS
100
AcDbCircle
 62
7
  6
CONTINUOUS
 10
2208.1201334816
 20
1100.3447719689
 40
4.7990381057
100
AcDbArc
 50
218.6913826582
 51
321.3086173418
  0
ARC
  5
52E
100
AcDbEntity
  8
6_ALL_SURFS
100
AcDbCircle
 62
7
  6
CONTINUOUS
 10
1958.1201334816
 20
1100.3447719689
 40
4.7990381057
100
AcDbArc
 50
218.6913826582
 51
321.3086173418
  0
ARC
  5
52F
100
AcDbEntity
  8
6_ALL_SURFS
100
AcDbCircle
 62
7
  6
CONTINUOUS
 10
1708.1201334816
 20
1100.3447719689
 40
4.7990381057
100
AcDbArc
 50
218.6913826582
 51
321.3086173418
  0
CIRCLE
  5
530
100
AcDbEntity
  8
6_ALL_SURFS
100
AcDbCircle
 62
7
  6
CONTINUOUS
 10
1708.1201334816
 20
1100.3447719689
 40
3.5
  0
CIRCLE
  5
531
100
AcDbEntity
  8
6_ALL_SURFS
100
AcDbCircle
 62
7
  6
CONTINUOUS
 10
1958.1201334816
 20
1100.3447719689
 40
3.5
  0
CIRCLE
  5
532
100
AcDbEntity
  8
6_ALL_SURFS
100
AcDbCircle
 62
7
  6
CONTINUOUS
 10
2208.1201334816
 20
1100.3447719689
 40
3.5
  0
CIRCLE
  5
533
100
AcDbEntity
  8
6_ALL_SURFS
100
AcDbCircle
 62
7
  6
CONTINUOUS
 10
2458.1201334816
 20
1100.3447719689
 40
3.5
  0
CIRCLE
  5
534
100
AcDbEntity
  8
6_ALL_SURFS
100
AcDbCircle
 62
7
  6
CONTINUOUS
 10
2708.1201334816
 20
1100.3447719689
 40
3.5
  0
CIRCLE
  5
535
100
AcDbEntity
  8
6_ALL_SURFS
100
AcDbCircle
 62
7
  6
CONTINUOUS
 10
2958.1201334816
 20
1100.3447719689
 40
3.5
  0
SPLINE
  5
536
100
AcDbEntity
  8
6_ALL_SURFS
100
AcDbSpline
 62
7
  6
CONTINUOUS
 70
0
 71
3
 72
9
 73
5
 74
0
 42
0.0000001
 43
0.0000001
 44
0.0000000001
 40
0.0
 40
0.0
 40
0.0
 40
0.0
 40
0.497333475
 40
1.0
 40
1.0
 40
1.0
 40
1.0
 10
453.3587506216
 20
1100.9447719689
 30
0.0
 10
453.4454009391
 20
1100.8715441431
 30
0.0
 10
453.5775689326
 20
1100.6276437686
 30
0.0
 10
453.4119567265
 20
1100.4147170691
 30
0.0
 10
453.321095376
 20
1100.3447719689
 30
0.0
  0
SPLINE
  5
537
100
AcDbEntity
  8
6_ALL_SURFS
100
AcDbSpline
 62
7
  6
CONTINUOUS
 70
0
 71
3
 72
9
 73
5
 74
0
 42
0.0000001
 43
0.0000001
 44
0.0000000001
 40
0.0
 40
0.0
 40
0.0
 40
0.0
 40
0.497333475
 40
1.0
 40
1.0
 40
1.0
 40
1.0
 10
703.3587506216
 20
1100.9447719689
 30
0.0
 10
703.4454009391
 20
1100.8715441431
 30
0.0
 10
703.5775689326
 20
1100.6276437686
 30
0.0
 10
703.4119567265
 20
1100.4147170691
 30
0.0
 10
703.321095376
 20
1100.3447719689
 30
0.0
  0
SPLINE
  5
538
100
AcDbEntity
  8
6_ALL_SURFS
100
AcDbSpline
 62
7
  6
CONTINUOUS
 70
0
 71
3
 72
9
 73
5
 74
0
 42
0.0000001
 43
0.0000001
 44
0.0000000001
 40
0.0
 40
0.0
 40
0.0
 40
0.0
 40
0.5033837408
 40
1.0
 40
1.0
 40
1.0
 40
1.0
 10
462.9191715873
 20
1100.3447719689
 30
0.0
 10
462.8281547768
 20
1100.4148367423
 30
0.0
 10
462.6622972977
 20
1100.6279792055
 30
0.0
 10
462.7949664346
 20
1100.8716289996
 30
0.0
 10
462.8815163417
 20
1100.9447719689
 30
0.0
  0
SPLINE
  5
539
100
AcDbEntity
  8
6_ALL_SURFS
100
AcDbSpline
 62
7
  6
CONTINUOUS
 70
0
 71
3
 72
9
 73
5
 74
0
 42
0.0000001
 43
0.0000001
 44
0.0000000001
 40
0.0
 40
0.0
 40
0.0
 40
0.0
 40
0.497333475
 40
1.0
 40
1.0
 40
1.0
 40
1.0
 10
953.3587506216
 20
1100.9447719689
 30
0.0
 10
953.4454009391
 20
1100.8715441431
 30
0.0
 10
953.5775689326
 20
1100.6276437686
 30
0.0
 10
953.4119567265
 20
1100.4147170691
 30
0.0
 10
953.321095376
 20
1100.3447719689
 30
0.0
  0
SPLINE
  5
53A
100
AcDbEntity
  8
6_ALL_SURFS
100
AcDbSpline
 62
7
  6
CONTINUOUS
 70
0
 71
3
 72
9
 73
5
 74
0
 42
0.0000001
 43
0.0000001
 44
0.0000000001
 40
0.0
 40
0.0
 40
0.0
 40
0.0
 40
0.5033837408
 40
1.0
 40
1.0
 40
1.0
 40
1.0
 10
712.9191715873
 20
1100.3447719689
 30
0.0
 10
712.8281547768
 20
1100.4148367423
 30
0.0
 10
712.6622972977
 20
1100.6279792055
 30
0.0
 10
712.7949664346
 20
1100.8716289996
 30
0.0
 10
712.8815163417
 20
1100.9447719689
 30
0.0
  0
SPLINE
  5
53B
100
AcDbEntity
  8
6_ALL_SURFS
100
AcDbSpline
 62
7
  6
CONTINUOUS
 70
0
 71
3
 72
9
 73
5
 74
0
 42
0.0000001
 43
0.0000001
 44
0.0000000001
 40
0.0
 40
0.0
 40
0.0
 40
0.0
 40
0.4973334749
 40
1.0
 40
1.0
 40
1.0
 40
1.0
 10
1203.3587506216
 20
1100.9447719689
 30
0.0
 10
1203.4454009391
 20
1100.8715441431
 30
0.0
 10
1203.5775689326
 20
1100.6276437686
 30
0.0
 10
1203.4119567265
 20
1100.4147170691
 30
0.0
 10
1203.321095376
 20
1100.3447719689
 30
0.0
  0
SPLINE
  5
53C
100
AcDbEntity
  8
7_ALL_FEATURES
100
AcDbSpline
 62
7
  6
CONTINUOUS
 70
0
 71
3
 72
11
 73
7
 74
0
 42
0.0000001
 43
0.0000001
 44
0.0000000001
 40
0.0
 40
0.0
 40
0.0
 40
0.0
 40
0.2319264147
 40
0.4914445057
 40
0.7485895369
 40
1.0
 40
1.0
 40
1.0
 40
1.0
 10
2961.8658999906
 20
1033.2447719689
 30
0.0
 10
2961.8244460718
 20
1033.1967601268
 30
0.0
 10
2961.7913508746
 20
1033.0415491341
 30
0.0
 10
2961.9277225946
 20
1032.8714968277
 30
0.0
 10
2962.0912300891
 20
1032.7423202211
 30
0.0
 10
2962.2139875912
 20
1032.6745933724
 30
0.0
 10
2962.2759446828
 20
1032.6447719689
 30
0.0
  0
SPLINE
  5
53D
100
AcDbEntity
  8
7_ALL_FEATURES
100
AcDbSpline
 62
7
  6
CONTINUOUS
 70
0
 71
3
 72
11
 73
7
 74
0
 42
0.0000001
 43
0.0000001
 44
0.0000000001
 40
0.0
 40
0.0
 40
0.0
 40
0.0
 40
0.2319264147
 40
0.4914445057
 40
0.7485895369
 40
1.0
 40
1.0
 40
1.0
 40
1.0
 10
2711.8658999906
 20
1033.2447719689
 30
0.0
 10
2711.8244460718
 20
1033.1967601268
 30
0.0
 10
2711.7913508746
 20
1033.0415491341
 30
0.0
 10
2711.9277225946
 20
1032.8714968277
 30
0.0
 10
2712.0912300891
 20
1032.7423202211
 30
0.0
 10
2712.2139875912
 20
1032.6745933724
 30
0.0
 10
2712.2759446828
 20
1032.6447719689
 30
0.0
  0
SPLINE
  5
53E
100
AcDbEntity
  8
7_ALL_FEATURES
100
AcDbSpline
 62
7
  6
CONTINUOUS
 70
0
 71
3
 72
11
 73
7
 74
0
 42
0.0000001
 43
0.0000001
 44
0.0000000001
 40
0.0
 40
0.0
 40
0.0
 40
0.0
 40
0.2502466172
 40
0.5061861468
 40
0.7644256489
 40
1.0
 40
1.0
 40
1.0
 40
1.0
 10
2953.9643222805
 20
1032.6447719689
 30
0.0
 10
2954.0260206321
 20
1032.6744688348
 30
0.0
 10
2954.1483673404
 20
1032.7418059388
 30
0.0
 10
2954.3108791486
 20
1032.8705688473
 30
0.0
 10
2954.4496208195
 20
1033.0392008913
 30
0.0
 10
2954.4164920831
 20
1033.195982754
 30
0.0
 10
2954.3743669727
 20
1033.2447719689
 30
0.0
  0
SPLINE
  5
53F
100
AcDbEntity
  8
7_ALL_FEATURES
100
AcDbSpline
 62
7
  6
CONTINUOUS
 70
0
 71
3
 72
11
 73
7
 74
0
 42
0.0000001
 43
0.0000001
 44
0.0000000001
 40
0.0
 40
0.0
 40
0.0
 40
0.0
 40
0.2319264147
 40
0.4914445057
 40
0.7485895369
 40
1.0
 40
1.0
 40
1.0
 40
1.0
 10
2461.8658999906
 20
1033.2447719689
 30
0.0
 10
2461.8244460718
 20
1033.1967601268
 30
0.0
 10
2461.7913508746
 20
1033.0415491341
 30
0.0
 10
2461.9277225946
 20
1032.8714968277
 30
0.0
 10
2462.0912300891
 20
1032.7423202211
 30
0.0
 10
2462.2139875912
 20
1032.6745933724
 30
0.0
 10
2462.2759446828
 20
1032.6447719689
 30
0.0
  0
SPLINE
  5
540
100
AcDbEntity
  8
7_ALL_FEATURES
100
AcDbSpline
 62
7
  6
CONTINUOUS
 70
0
 71
3
 72
11
 73
7
 74
0
 42
0.0000001
 43
0.0000001
 44
0.0000000001
 40
0.0
 40
0.0
 40
0.0
 40
0.0
 40
0.2502466172
 40
0.5061861468
 40
0.7644256489
 40
1.0
 40
1.0
 40
1.0
 40
1.0
 10
2703.9643222805
 20
1032.6447719689
 30
0.0
 10
2704.0260206321
 20
1032.6744688348
 30
0.0
 10
2704.1483673404
 20
1032.7418059388
 30
0.0
 10
2704.3108791486
 20
1032.8705688473
 30
0.0
 10
2704.4496208195
 20
1033.0392008913
 30
0.0
 10
2704.4164920831
 20
1033.195982754
 30
0.0
 10
2704.3743669727
 20
1033.2447719689
 30
0.0
  0
SPLINE
  5
541
100
AcDbEntity
  8
7_ALL_FEATURES
100
AcDbSpline
 62
7
  6
CONTINUOUS
 70
0
 71
3
 72
11
 73
7
 74
0
 42
0.0000001
 43
0.0000001
 44
0.0000000001
 40
0.0
 40
0.0
 40
0.0
 40
0.0
 40
0.2319264147
 40
0.4914445057
 40
0.7485895369
 40
1.0
 40
1.0
 40
1.0
 40
1.0
 10
2211.8658999906
 20
1033.2447719689
 30
0.0
 10
2211.8244460718
 20
1033.1967601268
 30
0.0
 10
2211.7913508746
 20
1033.0415491341
 30
0.0
 10
2211.9277225946
 20
1032.8714968277
 30
0.0
 10
2212.0912300891
 20
1032.7423202211
 30
0.0
 10
2212.2139875912
 20
1032.6745933724
 30
0.0
 10
2212.2759446828
 20
1032.6447719689
 30
0.0
  0
SPLINE
  5
542
100
AcDbEntity
  8
7_ALL_FEATURES
100
AcDbSpline
 62
7
  6
CONTINUOUS
 70
0
 71
3
 72
11
 73
7
 74
0
 42
0.0000001
 43
0.0000001
 44
0.0000000001
 40
0.0
 40
0.0
 40
0.0
 40
0.0
 40
0.2502466172
 40
0.5061861468
 40
0.7644256489
 40
1.0
 40
1.0
 40
1.0
 40
1.0
 10
2453.9643222805
 20
1032.6447719689
 30
0.0
 10
2454.0260206321
 20
1032.6744688348
 30
0.0
 10
2454.1483673404
 20
1032.7418059388
 30
0.0
 10
2454.3108791486
 20
1032.8705688473
 30
0.0
 10
2454.4496208195
 20
1033.0392008913
 30
0.0
 10
2454.4164920831
 20
1033.195982754
 30
0.0
 10
2454.3743669727
 20
1033.2447719689
 30
0.0
  0
SPLINE
  5
543
100
AcDbEntity
  8
7_ALL_FEATURES
100
AcDbSpline
 62
7
  6
CONTINUOUS
 70
0
 71
3
 72
11
 73
7
 74
0
 42
0.0000001
 43
0.0000001
 44
0.0000000001
 40
0.0
 40
0.0
 40
0.0
 40
0.0
 40
0.2319264147
 40
0.4914445057
 40
0.7485895369
 40
1.0
 40
1.0
 40
1.0
 40
1.0
 10
1961.8658999906
 20
1033.2447719689
 30
0.0
 10
1961.8244460718
 20
1033.1967601268
 30
0.0
 10
1961.7913508746
 20
1033.0415491341
 30
0.0
 10
1961.9277225946
 20
1032.8714968277
 30
0.0
 10
1962.0912300891
 20
1032.7423202211
 30
0.0
 10
1962.2139875912
 20
1032.6745933724
 30
0.0
 10
1962.2759446828
 20
1032.6447719689
 30
0.0
  0
SPLINE
  5
544
100
AcDbEntity
  8
7_ALL_FEATURES
100
AcDbSpline
 62
7
  6
CONTINUOUS
 70
0
 71
3
 72
11
 73
7
 74
0
 42
0.0000001
 43
0.0000001
 44
0.0000000001
 40
0.0
 40
0.0
 40
0.0
 40
0.0
 40
0.2502466172
 40
0.5061861468
 40
0.7644256489
 40
1.0
 40
1.0
 40
1.0
 40
1.0
 10
2203.9643222805
 20
1032.6447719689
 30
0.0
 10
2204.0260206321
 20
1032.6744688348
 30
0.0
 10
2204.1483673404
 20
1032.7418059388
 30
0.0
 10
2204.3108791486
 20
1032.8705688473
 30
0.0
 10
2204.4496208195
 20
1033.0392008913
 30
0.0
 10
2204.4164920831
 20
1033.195982754
 30
0.0
 10
2204.3743669727
 20
1033.2447719689
 30
0.0
  0
SPLINE
  5
545
100
AcDbEntity
  8
7_ALL_FEATURES
100
AcDbSpline
 62
7
  6
CONTINUOUS
 70
0
 71
3
 72
11
 73
7
 74
0
 42
0.0000001
 43
0.0000001
 44
0.0000000001
 40
0.0
 40
0.0
 40
0.0
 40
0.0
 40
0.2319264147
 40
0.4914445057
 40
0.7485895369
 40
1.0
 40
1.0
 40
1.0
 40
1.0
 10
1711.8658999906
 20
1033.2447719689
 30
0.0
 10
1711.8244460718
 20
1033.1967601268
 30
0.0
 10
1711.7913508746
 20
1033.0415491341
 30
0.0
 10
1711.9277225946
 20
1032.8714968277
 30
0.0
 10
1712.0912300891
 20
1032.7423202211
 30
0.0
 10
1712.2139875912
 20
1032.6745933724
 30
0.0
 10
1712.2759446828
 20
1032.6447719689
 30
0.0
  0
SPLINE
  5
546
100
AcDbEntity
  8
7_ALL_FEATURES
100
AcDbSpline
 62
7
  6
CONTINUOUS
 70
0
 71
3
 72
11
 73
7
 74
0
 42
0.0000001
 43
0.0000001
 44
0.0000000001
 40
0.0
 40
0.0
 40
0.0
 40
0.0
 40
0.2502466172
 40
0.5061861468
 40
0.7644256489
 40
1.0
 40
1.0
 40
1.0
 40
1.0
 10
1953.9643222805
 20
1032.6447719689
 30
0.0
 10
1954.0260206321
 20
1032.6744688348
 30
0.0
 10
1954.1483673404
 20
1032.7418059388
 30
0.0
 10
1954.3108791486
 20
1032.8705688473
 30
0.0
 10
1954.4496208195
 20
1033.0392008913
 30
0.0
 10
1954.4164920831
 20
1033.195982754
 30
0.0
 10
1954.3743669727
 20
1033.2447719689
 30
0.0
  0
SPLINE
  5
547
100
AcDbEntity
  8
7_ALL_FEATURES
100
AcDbSpline
 62
7
  6
CONTINUOUS
 70
0
 71
3
 72
11
 73
7
 74
0
 42
0.0000001
 43
0.0000001
 44
0.0000000001
 40
0.0
 40
0.0
 40
0.0
 40
0.0
 40
0.2319264147
 40
0.4914445057
 40
0.7485895369
 40
1.0
 40
1.0
 40
1.0
 40
1.0
 10
1461.8658999906
 20
1033.2447719689
 30
0.0
 10
1461.8244460718
 20
1033.1967601268
 30
0.0
 10
1461.7913508746
 20
1033.0415491341
 30
0.0
 10
1461.9277225946
 20
1032.8714968277
 30
0.0
 10
1462.0912300891
 20
1032.7423202211
 30
0.0
 10
1462.2139875912
 20
1032.6745933724
 30
0.0
 10
1462.2759446828
 20
1032.6447719689
 30
0.0
  0
SPLINE
  5
548
100
AcDbEntity
  8
7_ALL_FEATURES
100
AcDbSpline
 62
7
  6
CONTINUOUS
 70
0
 71
3
 72
11
 73
7
 74
0
 42
0.0000001
 43
0.0000001
 44
0.0000000001
 40
0.0
 40
0.0
 40
0.0
 40
0.0
 40
0.2502466172
 40
0.5061861468
 40
0.7644256489
 40
1.0
 40
1.0
 40
1.0
 40
1.0
 10
1703.9643222805
 20
1032.6447719689
 30
0.0
 10
1704.0260206321
 20
1032.6744688348
 30
0.0
 10
1704.1483673404
 20
1032.7418059388
 30
0.0
 10
1704.3108791486
 20
1032.8705688473
 30
0.0
 10
1704.4496208195
 20
1033.0392008913
 30
0.0
 10
1704.4164920831
 20
1033.195982754
 30
0.0
 10
1704.3743669727
 20
1033.2447719689
 30
0.0
  0
SPLINE
  5
549
100
AcDbEntity
  8
7_ALL_FEATURES
100
AcDbSpline
 62
7
  6
CONTINUOUS
 70
0
 71
3
 72
11
 73
7
 74
0
 42
0.0000001
 43
0.0000001
 44
0.0000000001
 40
0.0
 40
0.0
 40
0.0
 40
0.0
 40
0.2319264147
 40
0.4914445057
 40
0.7485895369
 40
1.0
 40
1.0
 40
1.0
 40
1.0
 10
1211.8658999906
 20
1033.2447719689
 30
0.0
 10
1211.8244460718
 20
1033.1967601268
 30
0.0
 10
1211.7913508746
 20
1033.0415491341
 30
0.0
 10
1211.9277225946
 20
1032.8714968277
 30
0.0
 10
1212.0912300891
 20
1032.7423202211
 30
0.0
 10
1212.2139875912
 20
1032.6745933724
 30
0.0
 10
1212.2759446828
 20
1032.6447719689
 30
0.0
  0
SPLINE
  5
54A
100
AcDbEntity
  8
7_ALL_FEATURES
100
AcDbSpline
 62
7
  6
CONTINUOUS
 70
0
 71
3
 72
11
 73
7
 74
0
 42
0.0000001
 43
0.0000001
 44
0.0000000001
 40
0.0
 40
0.0
 40
0.0
 40
0.0
 40
0.2502466172
 40
0.5061861468
 40
0.7644256489
 40
1.0
 40
1.0
 40
1.0
 40
1.0
 10
1453.9643222805
 20
1032.6447719689
 30
0.0
 10
1454.0260206321
 20
1032.6744688348
 30
0.0
 10
1454.1483673404
 20
1032.7418059388
 30
0.0
 10
1454.3108791486
 20
1032.8705688473
 30
0.0
 10
1454.4496208195
 20
1033.0392008913
 30
0.0
 10
1454.4164920831
 20
1033.195982754
 30
0.0
 10
1454.3743669727
 20
1033.2447719689
 30
0.0
  0
SPLINE
  5
54B
100
AcDbEntity
  8
7_ALL_FEATURES
100
AcDbSpline
 62
7
  6
CONTINUOUS
 70
0
 71
3
 72
11
 73
7
 74
0
 42
0.0000001
 43
0.0000001
 44
0.0000000001
 40
0.0
 40
0.0
 40
0.0
 40
0.0
 40
0.2319264147
 40
0.4914445057
 40
0.7485895369
 40
1.0
 40
1.0
 40
1.0
 40
1.0
 10
961.8658999906
 20
1033.2447719689
 30
0.0
 10
961.8244460718
 20
1033.1967601268
 30
0.0
 10
961.7913508746
 20
1033.0415491341
 30
0.0
 10
961.9277225946
 20
1032.8714968277
 30
0.0
 10
962.0912300891
 20
1032.7423202211
 30
0.0
 10
962.2139875912
 20
1032.6745933724
 30
0.0
 10
962.2759446828
 20
1032.6447719689
 30
0.0
  0
SPLINE
  5
54C
100
AcDbEntity
  8
7_ALL_FEATURES
100
AcDbSpline
 62
7
  6
CONTINUOUS
 70
0
 71
3
 72
11
 73
7
 74
0
 42
0.0000001
 43
0.0000001
 44
0.0000000001
 40
0.0
 40
0.0
 40
0.0
 40
0.0
 40
0.2502466172
 40
0.5061861468
 40
0.7644256489
 40
1.0
 40
1.0
 40
1.0
 40
1.0
 10
1203.9643222805
 20
1032.6447719689
 30
0.0
 10
1204.0260206321
 20
1032.6744688348
 30
0.0
 10
1204.1483673404
 20
1032.7418059388
 30
0.0
 10
1204.3108791486
 20
1032.8705688473
 30
0.0
 10
1204.4496208195
 20
1033.0392008913
 30
0.0
 10
1204.4164920831
 20
1033.195982754
 30
0.0
 10
1204.3743669727
 20
1033.2447719689
 30
0.0
  0
SPLINE
  5
54D
100
AcDbEntity
  8
7_ALL_FEATURES
100
AcDbSpline
 62
7
  6
CONTINUOUS
 70
0
 71
3
 72
11
 73
7
 74
0
 42
0.0000001
 43
0.0000001
 44
0.0000000001
 40
0.0
 40
0.0
 40
0.0
 40
0.0
 40
0.2319264147
 40
0.4914445057
 40
0.7485895369
 40
1.0
 40
1.0
 40
1.0
 40
1.0
 10
711.8658999906
 20
1033.2447719689
 30
0.0
 10
711.8244460718
 20
1033.1967601268
 30
0.0
 10
711.7913508746
 20
1033.0415491341
 30
0.0
 10
711.9277225946
 20
1032.8714968277
 30
0.0
 10
712.0912300891
 20
1032.7423202211
 30
0.0
 10
712.2139875912
 20
1032.6745933724
 30
0.0
 10
712.2759446828
 20
1032.6447719689
 30
0.0
  0
SPLINE
  5
54E
100
AcDbEntity
  8
7_ALL_FEATURES
100
AcDbSpline
 62
7
  6
CONTINUOUS
 70
0
 71
3
 72
11
 73
7
 74
0
 42
0.0000001
 43
0.0000001
 44
0.0000000001
 40
0.0
 40
0.0
 40
0.0
 40
0.0
 40
0.2502466172
 40
0.5061861468
 40
0.7644256489
 40
1.0
 40
1.0
 40
1.0
 40
1.0
 10
953.9643222805
 20
1032.6447719689
 30
0.0
 10
954.0260206321
 20
1032.6744688348
 30
0.0
 10
954.1483673404
 20
1032.7418059388
 30
0.0
 10
954.3108791486
 20
1032.8705688473
 30
0.0
 10
954.4496208195
 20
1033.0392008913
 30
0.0
 10
954.4164920831
 20
1033.195982754
 30
0.0
 10
954.3743669727
 20
1033.2447719689
 30
0.0
  0
SPLINE
  5
54F
100
AcDbEntity
  8
7_ALL_FEATURES
100
AcDbSpline
 62
7
  6
CONTINUOUS
 70
0
 71
3
 72
11
 73
7
 74
0
 42
0.0000001
 43
0.0000001
 44
0.0000000001
 40
0.0
 40
0.0
 40
0.0
 40
0.0
 40
0.2319264147
 40
0.4914445057
 40
0.7485895369
 40
1.0
 40
1.0
 40
1.0
 40
1.0
 10
461.8658999906
 20
1033.2447719689
 30
0.0
 10
461.8244460718
 20
1033.1967601268
 30
0.0
 10
461.7913508746
 20
1033.0415491341
 30
0.0
 10
461.9277225946
 20
1032.8714968277
 30
0.0
 10
462.0912300891
 20
1032.7423202211
 30
0.0
 10
462.2139875912
 20
1032.6745933724
 30
0.0
 10
462.2759446828
 20
1032.6447719689
 30
0.0
  0
SPLINE
  5
550
100
AcDbEntity
  8
7_ALL_FEATURES
100
AcDbSpline
 62
7
  6
CONTINUOUS
 70
0
 71
3
 72
11
 73
7
 74
0
 42
0.0000001
 43
0.0000001
 44
0.0000000001
 40
0.0
 40
0.0
 40
0.0
 40
0.0
 40
0.2502466172
 40
0.5061861468
 40
0.7644256489
 40
1.0
 40
1.0
 40
1.0
 40
1.0
 10
703.9643222805
 20
1032.6447719689
 30
0.0
 10
704.0260206321
 20
1032.6744688348
 30
0.0
 10
704.1483673404
 20
1032.7418059388
 30
0.0
 10
704.3108791486
 20
1032.8705688473
 30
0.0
 10
704.4496208195
 20
1033.0392008913
 30
0.0
 10
704.4164920831
 20
1033.195982754
 30
0.0
 10
704.3743669727
 20
1033.2447719689
 30
0.0
  0
SPLINE
  5
551
100
AcDbEntity
  8
7_ALL_FEATURES
100
AcDbSpline
 62
7
  6
CONTINUOUS
 70
0
 71
3
 72
11
 73
7
 74
0
 42
0.0000001
 43
0.0000001
 44
0.0000000001
 40
0.0
 40
0.0
 40
0.0
 40
0.0
 40
0.2502466172
 40
0.5061861468
 40
0.7644256489
 40
1.0
 40
1.0
 40
1.0
 40
1.0
 10
453.9643222805
 20
1032.6447719689
 30
0.0
 10
454.0260206321
 20
1032.6744688348
 30
0.0
 10
454.1483673404
 20
1032.7418059388
 30
0.0
 10
454.3108791486
 20
1032.8705688473
 30
0.0
 10
454.4496208195
 20
1033.0392008913
 30
0.0
 10
454.4164920831
 20
1033.195982754
 30
0.0
 10
454.3743669727
 20
1033.2447719689
 30
0.0
  0
SPLINE
  5
552
100
AcDbEntity
  8
7_ALL_FEATURES
100
AcDbSpline
 62
7
  6
CONTINUOUS
 70
0
 71
3
 72
9
 73
5
 74
0
 42
0.0000001
 43
0.0000001
 44
0.0000000001
 40
0.0
 40
0.0
 40
0.0
 40
0.0
 40
0.5033837408
 40
1.0
 40
1.0
 40
1.0
 40
1.0
 10
2962.9191715873
 20
1030.2447719689
 30
0.0
 10
2962.8281547768
 20
1030.1747071954
 30
0.0
 10
2962.6622972977
 20
1029.9615647322
 30
0.0
 10
2962.7949664346
 20
1029.7179149381
 30
0.0
 10
2962.8815163417
 20
1029.6447719689
 30
0.0
  0
SPLINE
  5
553
100
AcDbEntity
  8
7_ALL_FEATURES
100
AcDbSpline
 62
7
  6
CONTINUOUS
 70
0
 71
3
 72
9
 73
5
 74
0
 42
0.0000001
 43
0.0000001
 44
0.0000000001
 40
0.0
 40
0.0
 40
0.0
 40
0.0
 40
0.5033837408
 40
1.0
 40
1.0
 40
1.0
 40
1.0
 10
2712.9191715873
 20
1030.2447719689
 30
0.0
 10
2712.8281547768
 20
1030.1747071954
 30
0.0
 10
2712.6622972977
 20
1029.9615647322
 30
0.0
 10
2712.7949664346
 20
1029.7179149381
 30
0.0
 10
2712.8815163417
 20
1029.6447719689
 30
0.0
  0
SPLINE
  5
554
100
AcDbEntity
  8
7_ALL_FEATURES
100
AcDbSpline
 62
7
  6
CONTINUOUS
 70
0
 71
3
 72
9
 73
5
 74
0
 42
0.0000001
 43
0.0000001
 44
0.0000000001
 40
0.0
 40
0.0
 40
0.0
 40
0.0
 40
0.497333475
 40
1.0
 40
1.0
 40
1.0
 40
1.0
 10
2953.3587506216
 20
1029.6447719689
 30
0.0
 10
2953.4454009391
 20
1029.7179997946
 30
0.0
 10
2953.5775689326
 20
1029.9619001692
 30
0.0
 10
2953.4119567265
 20
1030.1748268686
 30
0.0
 10
2953.321095376
 20
1030.2447719689
 30
0.0
  0
SPLINE
  5
555
100
AcDbEntity
  8
7_ALL_FEATURES
100
AcDbSpline
 62
7
  6
CONTINUOUS
 70
0
 71
3
 72
9
 73
5
 74
0
 42
0.0000001
 43
0.0000001
 44
0.0000000001
 40
0.0
 40
0.0
 40
0.0
 40
0.0
 40
0.5033837408
 40
1.0
 40
1.0
 40
1.0
 40
1.0
 10
2462.9191715873
 20
1030.2447719689
 30
0.0
 10
2462.8281547768
 20
1030.1747071954
 30
0.0
 10
2462.6622972977
 20
1029.9615647322
 30
0.0
 10
2462.7949664346
 20
1029.7179149381
 30
0.0
 10
2462.8815163417
 20
1029.6447719689
 30
0.0
  0
SPLINE
  5
556
100
AcDbEntity
  8
7_ALL_FEATURES
100
AcDbSpline
 62
7
  6
CONTINUOUS
 70
0
 71
3
 72
9
 73
5
 74
0
 42
0.0000001
 43
0.0000001
 44
0.0000000001
 40
0.0
 40
0.0
 40
0.0
 40
0.0
 40
0.497333475
 40
1.0
 40
1.0
 40
1.0
 40
1.0
 10
2703.3587506216
 20
1029.6447719689
 30
0.0
 10
2703.4454009391
 20
1029.7179997946
 30
0.0
 10
2703.5775689326
 20
1029.9619001692
 30
0.0
 10
2703.4119567265
 20
1030.1748268686
 30
0.0
 10
2703.321095376
 20
1030.2447719689
 30
0.0
  0
SPLINE
  5
557
100
AcDbEntity
  8
7_ALL_FEATURES
100
AcDbSpline
 62
7
  6
CONTINUOUS
 70
0
 71
3
 72
9
 73
5
 74
0
 42
0.0000001
 43
0.0000001
 44
0.0000000001
 40
0.0
 40
0.0
 40
0.0
 40
0.0
 40
0.5033837408
 40
1.0
 40
1.0
 40
1.0
 40
1.0
 10
2212.9191715873
 20
1030.2447719689
 30
0.0
 10
2212.8281547768
 20
1030.1747071954
 30
0.0
 10
2212.6622972977
 20
1029.9615647322
 30
0.0
 10
2212.7949664346
 20
1029.7179149381
 30
0.0
 10
2212.8815163417
 20
1029.6447719689
 30
0.0
  0
SPLINE
  5
558
100
AcDbEntity
  8
7_ALL_FEATURES
100
AcDbSpline
 62
7
  6
CONTINUOUS
 70
0
 71
3
 72
9
 73
5
 74
0
 42
0.0000001
 43
0.0000001
 44
0.0000000001
 40
0.0
 40
0.0
 40
0.0
 40
0.0
 40
0.4973334749
 40
1.0
 40
1.0
 40
1.0
 40
1.0
 10
2453.3587506216
 20
1029.6447719689
 30
0.0
 10
2453.4454009391
 20
1029.7179997946
 30
0.0
 10
2453.5775689326
 20
1029.9619001692
 30
0.0
 10
2453.4119567265
 20
1030.1748268686
 30
0.0
 10
2453.321095376
 20
1030.2447719689
 30
0.0
  0
SPLINE
  5
559
100
AcDbEntity
  8
7_ALL_FEATURES
100
AcDbSpline
 62
7
  6
CONTINUOUS
 70
0
 71
3
 72
9
 73
5
 74
0
 42
0.0000001
 43
0.0000001
 44
0.0000000001
 40
0.0
 40
0.0
 40
0.0
 40
0.0
 40
0.5033837408
 40
1.0
 40
1.0
 40
1.0
 40
1.0
 10
1962.9191715873
 20
1030.2447719689
 30
0.0
 10
1962.8281547768
 20
1030.1747071954
 30
0.0
 10
1962.6622972977
 20
1029.9615647322
 30
0.0
 10
1962.7949664346
 20
1029.7179149381
 30
0.0
 10
1962.8815163417
 20
1029.6447719689
 30
0.0
  0
SPLINE
  5
55A
100
AcDbEntity
  8
7_ALL_FEATURES
100
AcDbSpline
 62
7
  6
CONTINUOUS
 70
0
 71
3
 72
9
 73
5
 74
0
 42
0.0000001
 43
0.0000001
 44
0.0000000001
 40
0.0
 40
0.0
 40
0.0
 40
0.0
 40
0.497333475
 40
1.0
 40
1.0
 40
1.0
 40
1.0
 10
2203.3587506216
 20
1029.6447719689
 30
0.0
 10
2203.4454009391
 20
1029.7179997946
 30
0.0
 10
2203.5775689326
 20
1029.9619001692
 30
0.0
 10
2203.4119567265
 20
1030.1748268686
 30
0.0
 10
2203.321095376
 20
1030.2447719689
 30
0.0
  0
SPLINE
  5
55B
100
AcDbEntity
  8
7_ALL_FEATURES
100
AcDbSpline
 62
7
  6
CONTINUOUS
 70
0
 71
3
 72
9
 73
5
 74
0
 42
0.0000001
 43
0.0000001
 44
0.0000000001
 40
0.0
 40
0.0
 40
0.0
 40
0.0
 40
0.5033837408
 40
1.0
 40
1.0
 40
1.0
 40
1.0
 10
1712.9191715873
 20
1030.2447719689
 30
0.0
 10
1712.8281547768
 20
1030.1747071954
 30
0.0
 10
1712.6622972977
 20
1029.9615647322
 30
0.0
 10
1712.7949664346
 20
1029.7179149381
 30
0.0
 10
1712.8815163417
 20
1029.6447719689
 30
0.0
  0
SPLINE
  5
55C
100
AcDbEntity
  8
7_ALL_FEATURES
100
AcDbSpline
 62
7
  6
CONTINUOUS
 70
0
 71
3
 72
9
 73
5
 74
0
 42
0.0000001
 43
0.0000001
 44
0.0000000001
 40
0.0
 40
0.0
 40
0.0
 40
0.0
 40
0.4973334749
 40
1.0
 40
1.0
 40
1.0
 40
1.0
 10
1953.3587506216
 20
1029.6447719689
 30
0.0
 10
1953.4454009391
 20
1029.7179997946
 30
0.0
 10
1953.5775689326
 20
1029.9619001692
 30
0.0
 10
1953.4119567265
 20
1030.1748268686
 30
0.0
 10
1953.321095376
 20
1030.2447719689
 30
0.0
  0
SPLINE
  5
55D
100
AcDbEntity
  8
7_ALL_FEATURES
100
AcDbSpline
 62
7
  6
CONTINUOUS
 70
0
 71
3
 72
9
 73
5
 74
0
 42
0.0000001
 43
0.0000001
 44
0.0000000001
 40
0.0
 40
0.0
 40
0.0
 40
0.0
 40
0.5033837408
 40
1.0
 40
1.0
 40
1.0
 40
1.0
 10
1462.9191715873
 20
1030.2447719689
 30
0.0
 10
1462.8281547768
 20
1030.1747071954
 30
0.0
 10
1462.6622972977
 20
1029.9615647322
 30
0.0
 10
1462.7949664346
 20
1029.7179149381
 30
0.0
 10
1462.8815163417
 20
1029.6447719689
 30
0.0
  0
SPLINE
  5
55E
100
AcDbEntity
  8
7_ALL_FEATURES
100
AcDbSpline
 62
7
  6
CONTINUOUS
 70
0
 71
3
 72
9
 73
5
 74
0
 42
0.0000001
 43
0.0000001
 44
0.0000000001
 40
0.0
 40
0.0
 40
0.0
 40
0.0
 40
0.497333475
 40
1.0
 40
1.0
 40
1.0
 40
1.0
 10
1703.3587506216
 20
1029.6447719689
 30
0.0
 10
1703.4454009391
 20
1029.7179997946
 30
0.0
 10
1703.5775689326
 20
1029.9619001692
 30
0.0
 10
1703.4119567265
 20
1030.1748268686
 30
0.0
 10
1703.321095376
 20
1030.2447719689
 30
0.0
  0
SPLINE
  5
55F
100
AcDbEntity
  8
7_ALL_FEATURES
100
AcDbSpline
 62
7
  6
CONTINUOUS
 70
0
 71
3
 72
9
 73
5
 74
0
 42
0.0000001
 43
0.0000001
 44
0.0000000001
 40
0.0
 40
0.0
 40
0.0
 40
0.0
 40
0.5033837408
 40
1.0
 40
1.0
 40
1.0
 40
1.0
 10
1212.9191715873
 20
1030.2447719689
 30
0.0
 10
1212.8281547768
 20
1030.1747071954
 30
0.0
 10
1212.6622972977
 20
1029.9615647322
 30
0.0
 10
1212.7949664346
 20
1029.7179149381
 30
0.0
 10
1212.8815163417
 20
1029.6447719689
 30
0.0
  0
SPLINE
  5
560
100
AcDbEntity
  8
7_ALL_FEATURES
100
AcDbSpline
 62
7
  6
CONTINUOUS
 70
0
 71
3
 72
9
 73
5
 74
0
 42
0.0000001
 43
0.0000001
 44
0.0000000001
 40
0.0
 40
0.0
 40
0.0
 40
0.0
 40
0.497333475
 40
1.0
 40
1.0
 40
1.0
 40
1.0
 10
1453.3587506216
 20
1029.6447719689
 30
0.0
 10
1453.4454009391
 20
1029.7179997946
 30
0.0
 10
1453.5775689326
 20
1029.9619001692
 30
0.0
 10
1453.4119567265
 20
1030.1748268686
 30
0.0
 10
1453.321095376
 20
1030.2447719689
 30
0.0
  0
SPLINE
  5
561
100
AcDbEntity
  8
7_ALL_FEATURES
100
AcDbSpline
 62
7
  6
CONTINUOUS
 70
0
 71
3
 72
9
 73
5
 74
0
 42
0.0000001
 43
0.0000001
 44
0.0000000001
 40
0.0
 40
0.0
 40
0.0
 40
0.0
 40
0.5033837408
 40
1.0
 40
1.0
 40
1.0
 40
1.0
 10
962.9191715873
 20
1030.2447719689
 30
0.0
 10
962.8281547768
 20
1030.1747071954
 30
0.0
 10
962.6622972977
 20
1029.9615647322
 30
0.0
 10
962.7949664346
 20
1029.7179149381
 30
0.0
 10
962.8815163417
 20
1029.6447719689
 30
0.0
  0
SPLINE
  5
562
100
AcDbEntity
  8
7_ALL_FEATURES
100
AcDbSpline
 62
7
  6
CONTINUOUS
 70
0
 71
3
 72
9
 73
5
 74
0
 42
0.0000001
 43
0.0000001
 44
0.0000000001
 40
0.0
 40
0.0
 40
0.0
 40
0.0
 40
0.497333475
 40
1.0
 40
1.0
 40
1.0
 40
1.0
 10
1203.3587506216
 20
1029.6447719689
 30
0.0
 10
1203.4454009391
 20
1029.7179997946
 30
0.0
 10
1203.5775689326
 20
1029.9619001692
 30
0.0
 10
1203.4119567265
 20
1030.1748268686
 30
0.0
 10
1203.321095376
 20
1030.2447719689
 30
0.0
  0
SPLINE
  5
563
100
AcDbEntity
  8
7_ALL_FEATURES
100
AcDbSpline
 62
7
  6
CONTINUOUS
 70
0
 71
3
 72
9
 73
5
 74
0
 42
0.0000001
 43
0.0000001
 44
0.0000000001
 40
0.0
 40
0.0
 40
0.0
 40
0.0
 40
0.5033837408
 40
1.0
 40
1.0
 40
1.0
 40
1.0
 10
712.9191715873
 20
1030.2447719689
 30
0.0
 10
712.8281547768
 20
1030.1747071954
 30
0.0
 10
712.6622972977
 20
1029.9615647322
 30
0.0
 10
712.7949664346
 20
1029.7179149381
 30
0.0
 10
712.8815163417
 20
1029.6447719689
 30
0.0
  0
SPLINE
  5
564
100
AcDbEntity
  8
7_ALL_FEATURES
100
AcDbSpline
 62
7
  6
CONTINUOUS
 70
0
 71
3
 72
9
 73
5
 74
0
 42
0.0000001
 43
0.0000001
 44
0.0000000001
 40
0.0
 40
0.0
 40
0.0
 40
0.0
 40
0.4973334749
 40
1.0
 40
1.0
 40
1.0
 40
1.0
 10
953.3587506216
 20
1029.6447719689
 30
0.0
 10
953.4454009391
 20
1029.7179997946
 30
0.0
 10
953.5775689326
 20
1029.9619001692
 30
0.0
 10
953.4119567265
 20
1030.1748268686
 30
0.0
 10
953.321095376
 20
1030.2447719689
 30
0.0
  0
SPLINE
  5
565
100
AcDbEntity
  8
7_ALL_FEATURES
100
AcDbSpline
 62
7
  6
CONTINUOUS
 70
0
 71
3
 72
9
 73
5
 74
0
 42
0.0000001
 43
0.0000001
 44
0.0000000001
 40
0.0
 40
0.0
 40
0.0
 40
0.0
 40
0.5033837408
 40
1.0
 40
1.0
 40
1.0
 40
1.0
 10
462.9191715873
 20
1030.2447719689
 30
0.0
 10
462.8281547768
 20
1030.1747071954
 30
0.0
 10
462.6622972977
 20
1029.9615647322
 30
0.0
 10
462.7949664346
 20
1029.7179149381
 30
0.0
 10
462.8815163417
 20
1029.6447719689
 30
0.0
  0
SPLINE
  5
566
100
AcDbEntity
  8
7_ALL_FEATURES
100
AcDbSpline
 62
7
  6
CONTINUOUS
 70
0
 71
3
 72
9
 73
5
 74
0
 42
0.0000001
 43
0.0000001
 44
0.0000000001
 40
0.0
 40
0.0
 40
0.0
 40
0.0
 40
0.497333475
 40
1.0
 40
1.0
 40
1.0
 40
1.0
 10
703.3587506216
 20
1029.6447719689
 30
0.0
 10
703.4454009391
 20
1029.7179997946
 30
0.0
 10
703.5775689326
 20
1029.9619001692
 30
0.0
 10
703.4119567265
 20
1030.1748268686
 30
0.0
 10
703.321095376
 20
1030.2447719689
 30
0.0
  0
SPLINE
  5
567
100
AcDbEntity
  8
7_ALL_FEATURES
100
AcDbSpline
 62
7
  6
CONTINUOUS
 70
0
 71
3
 72
9
 73
5
 74
0
 42
0.0000001
 43
0.0000001
 44
0.0000000001
 40
0.0
 40
0.0
 40
0.0
 40
0.0
 40
0.497333475
 40
1.0
 40
1.0
 40
1.0
 40
1.0
 10
453.3587506216
 20
1029.6447719689
 30
0.0
 10
453.4454009391
 20
1029.7179997946
 30
0.0
 10
453.5775689326
 20
1029.9619001692
 30
0.0
 10
453.4119567265
 20
1030.1748268686
 30
0.0
 10
453.321095376
 20
1030.2447719689
 30
0.0
  0
SPLINE
  5
568
100
AcDbEntity
  8
6_ALL_SURFS
100
AcDbSpline
 62
7
  6
CONTINUOUS
 70
0
 71
3
 72
9
 73
5
 74
0
 42
0.0000001
 43
0.0000001
 44
0.0000000001
 40
0.0
 40
0.0
 40
0.0
 40
0.0
 40
0.5033837408
 40
1.0
 40
1.0
 40
1.0
 40
1.0
 10
962.9191715873
 20
1100.3447719689
 30
0.0
 10
962.8281547768
 20
1100.4148367423
 30
0.0
 10
962.6622972977
 20
1100.6279792055
 30
0.0
 10
962.7949664346
 20
1100.8716289996
 30
0.0
 10
962.8815163417
 20
1100.9447719689
 30
0.0
  0
SPLINE
  5
569
100
AcDbEntity
  8
6_ALL_SURFS
100
AcDbSpline
 62
7
  6
CONTINUOUS
 70
0
 71
3
 72
9
 73
5
 74
0
 42
0.0000001
 43
0.0000001
 44
0.0000000001
 40
0.0
 40
0.0
 40
0.0
 40
0.0
 40
0.497333475
 40
1.0
 40
1.0
 40
1.0
 40
1.0
 10
1453.3587506216
 20
1100.9447719689
 30
0.0
 10
1453.4454009391
 20
1100.8715441431
 30
0.0
 10
1453.5775689326
 20
1100.6276437686
 30
0.0
 10
1453.4119567265
 20
1100.4147170691
 30
0.0
 10
1453.321095376
 20
1100.3447719689
 30
0.0
  0
SPLINE
  5
56A
100
AcDbEntity
  8
6_ALL_SURFS
100
AcDbSpline
 62
7
  6
CONTINUOUS
 70
0
 71
3
 72
9
 73
5
 74
0
 42
0.0000001
 43
0.0000001
 44
0.0000000001
 40
0.0
 40
0.0
 40
0.0
 40
0.0
 40
0.5033837408
 40
1.0
 40
1.0
 40
1.0
 40
1.0
 10
1212.9191715873
 20
1100.3447719689
 30
0.0
 10
1212.8281547768
 20
1100.4148367423
 30
0.0
 10
1212.6622972977
 20
1100.6279792055
 30
0.0
 10
1212.7949664346
 20
1100.8716289996
 30
0.0
 10
1212.8815163417
 20
1100.9447719689
 30
0.0
  0
SPLINE
  5
56B
100
AcDbEntity
  8
6_ALL_SURFS
100
AcDbSpline
 62
7
  6
CONTINUOUS
 70
0
 71
3
 72
9
 73
5
 74
0
 42
0.0000001
 43
0.0000001
 44
0.0000000001
 40
0.0
 40
0.0
 40
0.0
 40
0.0
 40
0.497333475
 40
1.0
 40
1.0
 40
1.0
 40
1.0
 10
1703.3587506216
 20
1100.9447719689
 30
0.0
 10
1703.4454009391
 20
1100.8715441431
 30
0.0
 10
1703.5775689326
 20
1100.6276437686
 30
0.0
 10
1703.4119567265
 20
1100.4147170691
 30
0.0
 10
1703.321095376
 20
1100.3447719689
 30
0.0
  0
SPLINE
  5
56C
100
AcDbEntity
  8
6_ALL_SURFS
100
AcDbSpline
 62
7
  6
CONTINUOUS
 70
0
 71
3
 72
9
 73
5
 74
0
 42
0.0000001
 43
0.0000001
 44
0.0000000001
 40
0.0
 40
0.0
 40
0.0
 40
0.0
 40
0.5033837408
 40
1.0
 40
1.0
 40
1.0
 40
1.0
 10
1462.9191715873
 20
1100.3447719689
 30
0.0
 10
1462.8281547768
 20
1100.4148367423
 30
0.0
 10
1462.6622972977
 20
1100.6279792055
 30
0.0
 10
1462.7949664346
 20
1100.8716289996
 30
0.0
 10
1462.8815163417
 20
1100.9447719689
 30
0.0
  0
SPLINE
  5
56D
100
AcDbEntity
  8
6_ALL_SURFS
100
AcDbSpline
 62
7
  6
CONTINUOUS
 70
0
 71
3
 72
9
 73
5
 74
0
 42
0.0000001
 43
0.0000001
 44
0.0000000001
 40
0.0
 40
0.0
 40
0.0
 40
0.0
 40
0.497333475
 40
1.0
 40
1.0
 40
1.0
 40
1.0
 10
1953.3587506216
 20
1100.9447719689
 30
0.0
 10
1953.4454009391
 20
1100.8715441431
 30
0.0
 10
1953.5775689326
 20
1100.6276437686
 30
0.0
 10
1953.4119567265
 20
1100.4147170691
 30
0.0
 10
1953.321095376
 20
1100.3447719689
 30
0.0
  0
SPLINE
  5
56E
100
AcDbEntity
  8
6_ALL_SURFS
100
AcDbSpline
 62
7
  6
CONTINUOUS
 70
0
 71
3
 72
9
 73
5
 74
0
 42
0.0000001
 43
0.0000001
 44
0.0000000001
 40
0.0
 40
0.0
 40
0.0
 40
0.0
 40
0.5033837408
 40
1.0
 40
1.0
 40
1.0
 40
1.0
 10
1712.9191715873
 20
1100.3447719689
 30
0.0
 10
1712.8281547768
 20
1100.4148367423
 30
0.0
 10
1712.6622972977
 20
1100.6279792055
 30
0.0
 10
1712.7949664346
 20
1100.8716289996
 30
0.0
 10
1712.8815163417
 20
1100.9447719689
 30
0.0
  0
SPLINE
  5
56F
100
AcDbEntity
  8
6_ALL_SURFS
100
AcDbSpline
 62
7
  6
CONTINUOUS
 70
0
 71
3
 72
9
 73
5
 74
0
 42
0.0000001
 43
0.0000001
 44
0.0000000001
 40
0.0
 40
0.0
 40
0.0
 40
0.0
 40
0.497333475
 40
1.0
 40
1.0
 40
1.0
 40
1.0
 10
2203.3587506216
 20
1100.9447719689
 30
0.0
 10
2203.4454009391
 20
1100.8715441431
 30
0.0
 10
2203.5775689326
 20
1100.6276437686
 30
0.0
 10
2203.4119567265
 20
1100.4147170691
 30
0.0
 10
2203.321095376
 20
1100.3447719689
 30
0.0
  0
SPLINE
  5
570
100
AcDbEntity
  8
6_ALL_SURFS
100
AcDbSpline
 62
7
  6
CONTINUOUS
 70
0
 71
3
 72
9
 73
5
 74
0
 42
0.0000001
 43
0.0000001
 44
0.0000000001
 40
0.0
 40
0.0
 40
0.0
 40
0.0
 40
0.5033837408
 40
1.0
 40
1.0
 40
1.0
 40
1.0
 10
1962.9191715873
 20
1100.3447719689
 30
0.0
 10
1962.8281547768
 20
1100.4148367423
 30
0.0
 10
1962.6622972977
 20
1100.6279792055
 30
0.0
 10
1962.7949664346
 20
1100.8716289996
 30
0.0
 10
1962.8815163417
 20
1100.9447719689
 30
0.0
  0
SPLINE
  5
571
100
AcDbEntity
  8
6_ALL_SURFS
100
AcDbSpline
 62
7
  6
CONTINUOUS
 70
0
 71
3
 72
9
 73
5
 74
0
 42
0.0000001
 43
0.0000001
 44
0.0000000001
 40
0.0
 40
0.0
 40
0.0
 40
0.0
 40
0.497333475
 40
1.0
 40
1.0
 40
1.0
 40
1.0
 10
2453.3587506216
 20
1100.9447719689
 30
0.0
 10
2453.4454009391
 20
1100.8715441431
 30
0.0
 10
2453.5775689326
 20
1100.6276437686
 30
0.0
 10
2453.4119567265
 20
1100.4147170691
 30
0.0
 10
2453.321095376
 20
1100.3447719689
 30
0.0
  0
SPLINE
  5
572
100
AcDbEntity
  8
6_ALL_SURFS
100
AcDbSpline
 62
7
  6
CONTINUOUS
 70
0
 71
3
 72
9
 73
5
 74
0
 42
0.0000001
 43
0.0000001
 44
0.0000000001
 40
0.0
 40
0.0
 40
0.0
 40
0.0
 40
0.5033837408
 40
1.0
 40
1.0
 40
1.0
 40
1.0
 10
2212.9191715873
 20
1100.3447719689
 30
0.0
 10
2212.8281547768
 20
1100.4148367423
 30
0.0
 10
2212.6622972977
 20
1100.6279792055
 30
0.0
 10
2212.7949664346
 20
1100.8716289996
 30
0.0
 10
2212.8815163417
 20
1100.9447719689
 30
0.0
  0
SPLINE
  5
573
100
AcDbEntity
  8
6_ALL_SURFS
100
AcDbSpline
 62
7
  6
CONTINUOUS
 70
0
 71
3
 72
9
 73
5
 74
0
 42
0.0000001
 43
0.0000001
 44
0.0000000001
 40
0.0
 40
0.0
 40
0.0
 40
0.0
 40
0.4973334749
 40
1.0
 40
1.0
 40
1.0
 40
1.0
 10
2703.3587506216
 20
1100.9447719689
 30
0.0
 10
2703.4454009391
 20
1100.8715441431
 30
0.0
 10
2703.5775689326
 20
1100.6276437686
 30
0.0
 10
2703.4119567265
 20
1100.4147170691
 30
0.0
 10
2703.321095376
 20
1100.3447719689
 30
0.0
  0
SPLINE
  5
574
100
AcDbEntity
  8
6_ALL_SURFS
100
AcDbSpline
 62
7
  6
CONTINUOUS
 70
0
 71
3
 72
9
 73
5
 74
0
 42
0.0000001
 43
0.0000001
 44
0.0000000001
 40
0.0
 40
0.0
 40
0.0
 40
0.0
 40
0.5033837408
 40
1.0
 40
1.0
 40
1.0
 40
1.0
 10
2462.9191715873
 20
1100.3447719689
 30
0.0
 10
2462.8281547768
 20
1100.4148367423
 30
0.0
 10
2462.6622972977
 20
1100.6279792055
 30
0.0
 10
2462.7949664346
 20
1100.8716289996
 30
0.0
 10
2462.8815163417
 20
1100.9447719689
 30
0.0
  0
SPLINE
  5
575
100
AcDbEntity
  8
6_ALL_SURFS
100
AcDbSpline
 62
7
  6
CONTINUOUS
 70
0
 71
3
 72
9
 73
5
 74
0
 42
0.0000001
 43
0.0000001
 44
0.0000000001
 40
0.0
 40
0.0
 40
0.0
 40
0.0
 40
0.4973334749
 40
1.0
 40
1.0
 40
1.0
 40
1.0
 10
2953.3587506216
 20
1100.9447719689
 30
0.0
 10
2953.4454009391
 20
1100.8715441431
 30
0.0
 10
2953.5775689326
 20
1100.6276437686
 30
0.0
 10
2953.4119567265
 20
1100.4147170691
 30
0.0
 10
2953.321095376
 20
1100.3447719689
 30
0.0
  0
SPLINE
  5
576
100
AcDbEntity
  8
6_ALL_SURFS
100
AcDbSpline
 62
7
  6
CONTINUOUS
 70
0
 71
3
 72
9
 73
5
 74
0
 42
0.0000001
 43
0.0000001
 44
0.0000000001
 40
0.0
 40
0.0
 40
0.0
 40
0.0
 40
0.5033837408
 40
1.0
 40
1.0
 40
1.0
 40
1.0
 10
2712.9191715873
 20
1100.3447719689
 30
0.0
 10
2712.8281547768
 20
1100.4148367423
 30
0.0
 10
2712.6622972977
 20
1100.6279792055
 30
0.0
 10
2712.7949664346
 20
1100.8716289996
 30
0.0
 10
2712.8815163417
 20
1100.9447719689
 30
0.0
  0
SPLINE
  5
577
100
AcDbEntity
  8
6_ALL_SURFS
100
AcDbSpline
 62
7
  6
CONTINUOUS
 70
0
 71
3
 72
9
 73
5
 74
0
 42
0.0000001
 43
0.0000001
 44
0.0000000001
 40
0.0
 40
0.0
 40
0.0
 40
0.0
 40
0.5033837408
 40
1.0
 40
1.0
 40
1.0
 40
1.0
 10
2962.9191715873
 20
1100.3447719689
 30
0.0
 10
2962.8281547768
 20
1100.4148367423
 30
0.0
 10
2962.6622972977
 20
1100.6279792055
 30
0.0
 10
2962.7949664346
 20
1100.8716289996
 30
0.0
 10
2962.8815163417
 20
1100.9447719689
 30
0.0
  0
SPLINE
  5
578
100
AcDbEntity
  8
6_ALL_SURFS
100
AcDbSpline
 62
7
  6
CONTINUOUS
 70
0
 71
3
 72
11
 73
7
 74
0
 42
0.0000001
 43
0.0000001
 44
0.0000000001
 40
0.0
 40
0.0
 40
0.0
 40
0.0
 40
0.2502466172
 40
0.5061861468
 40
0.7644256489
 40
1.0
 40
1.0
 40
1.0
 40
1.0
 10
453.9643222805
 20
1097.9447719689
 30
0.0
 10
454.0260206321
 20
1097.915075103
 30
0.0
 10
454.1483673404
 20
1097.8477379989
 30
0.0
 10
454.3108791486
 20
1097.7189750905
 30
0.0
 10
454.4496208195
 20
1097.5503430464
 30
0.0
 10
454.4164920831
 20
1097.3935611837
 30
0.0
 10
454.3743669727
 20
1097.3447719689
 30
0.0
  0
SPLINE
  5
579
100
AcDbEntity
  8
6_ALL_SURFS
100
AcDbSpline
 62
7
  6
CONTINUOUS
 70
0
 71
3
 72
11
 73
7
 74
0
 42
0.0000001
 43
0.0000001
 44
0.0000000001
 40
0.0
 40
0.0
 40
0.0
 40
0.0
 40
0.2502466172
 40
0.5061861468
 40
0.7644256489
 40
1.0
 40
1.0
 40
1.0
 40
1.0
 10
703.9643222805
 20
1097.9447719689
 30
0.0
 10
704.0260206321
 20
1097.915075103
 30
0.0
 10
704.1483673404
 20
1097.8477379989
 30
0.0
 10
704.3108791486
 20
1097.7189750905
 30
0.0
 10
704.4496208195
 20
1097.5503430464
 30
0.0
 10
704.4164920831
 20
1097.3935611837
 30
0.0
 10
704.3743669727
 20
1097.3447719689
 30
0.0
  0
SPLINE
  5
57A
100
AcDbEntity
  8
6_ALL_SURFS
100
AcDbSpline
 62
7
  6
CONTINUOUS
 70
0
 71
3
 72
11
 73
7
 74
0
 42
0.0000001
 43
0.0000001
 44
0.0000000001
 40
0.0
 40
0.0
 40
0.0
 40
0.0
 40
0.2319264147
 40
0.4914445057
 40
0.7485895369
 40
1.0
 40
1.0
 40
1.0
 40
1.0
 10
461.8658999906
 20
1097.3447719689
 30
0.0
 10
461.8244460718
 20
1097.392783811
 30
0.0
 10
461.7913508746
 20
1097.5479948036
 30
0.0
 10
461.9277225946
 20
1097.71804711
 30
0.0
 10
462.0912300891
 20
1097.8472237166
 30
0.0
 10
462.2139875912
 20
1097.9149505653
 30
0.0
 10
462.2759446828
 20
1097.9447719689
 30
0.0
  0
SPLINE
  5
57B
100
AcDbEntity
  8
6_ALL_SURFS
100
AcDbSpline
 62
7
  6
CONTINUOUS
 70
0
 71
3
 72
11
 73
7
 74
0
 42
0.0000001
 43
0.0000001
 44
0.0000000001
 40
0.0
 40
0.0
 40
0.0
 40
0.0
 40
0.2502466172
 40
0.5061861468
 40
0.7644256489
 40
1.0
 40
1.0
 40
1.0
 40
1.0
 10
953.9643222805
 20
1097.9447719689
 30
0.0
 10
954.0260206321
 20
1097.915075103
 30
0.0
 10
954.1483673404
 20
1097.8477379989
 30
0.0
 10
954.3108791486
 20
1097.7189750905
 30
0.0
 10
954.4496208195
 20
1097.5503430464
 30
0.0
 10
954.4164920831
 20
1097.3935611837
 30
0.0
 10
954.3743669727
 20
1097.3447719689
 30
0.0
  0
SPLINE
  5
57C
100
AcDbEntity
  8
6_ALL_SURFS
100
AcDbSpline
 62
7
  6
CONTINUOUS
 70
0
 71
3
 72
11
 73
7
 74
0
 42
0.0000001
 43
0.0000001
 44
0.0000000001
 40
0.0
 40
0.0
 40
0.0
 40
0.0
 40
0.2319264147
 40
0.4914445057
 40
0.7485895369
 40
1.0
 40
1.0
 40
1.0
 40
1.0
 10
711.8658999906
 20
1097.3447719689
 30
0.0
 10
711.8244460718
 20
1097.392783811
 30
0.0
 10
711.7913508746
 20
1097.5479948036
 30
0.0
 10
711.9277225946
 20
1097.71804711
 30
0.0
 10
712.0912300891
 20
1097.8472237166
 30
0.0
 10
712.2139875912
 20
1097.9149505653
 30
0.0
 10
712.2759446828
 20
1097.9447719689
 30
0.0
  0
SPLINE
  5
57D
100
AcDbEntity
  8
6_ALL_SURFS
100
AcDbSpline
 62
7
  6
CONTINUOUS
 70
0
 71
3
 72
11
 73
7
 74
0
 42
0.0000001
 43
0.0000001
 44
0.0000000001
 40
0.0
 40
0.0
 40
0.0
 40
0.0
 40
0.2502466172
 40
0.5061861468
 40
0.7644256489
 40
1.0
 40
1.0
 40
1.0
 40
1.0
 10
1203.9643222805
 20
1097.9447719689
 30
0.0
 10
1204.0260206321
 20
1097.915075103
 30
0.0
 10
1204.1483673404
 20
1097.8477379989
 30
0.0
 10
1204.3108791486
 20
1097.7189750905
 30
0.0
 10
1204.4496208195
 20
1097.5503430464
 30
0.0
 10
1204.4164920831
 20
1097.3935611837
 30
0.0
 10
1204.3743669727
 20
1097.3447719689
 30
0.0
  0
SPLINE
  5
57E
100
AcDbEntity
  8
6_ALL_SURFS
100
AcDbSpline
 62
7
  6
CONTINUOUS
 70
0
 71
3
 72
11
 73
7
 74
0
 42
0.0000001
 43
0.0000001
 44
0.0000000001
 40
0.0
 40
0.0
 40
0.0
 40
0.0
 40
0.2319264147
 40
0.4914445057
 40
0.7485895369
 40
1.0
 40
1.0
 40
1.0
 40
1.0
 10
961.8658999906
 20
1097.3447719689
 30
0.0
 10
961.8244460718
 20
1097.392783811
 30
0.0
 10
961.7913508746
 20
1097.5479948036
 30
0.0
 10
961.9277225946
 20
1097.71804711
 30
0.0
 10
962.0912300891
 20
1097.8472237166
 30
0.0
 10
962.2139875912
 20
1097.9149505653
 30
0.0
 10
962.2759446828
 20
1097.9447719689
 30
0.0
  0
SPLINE
  5
57F
100
AcDbEntity
  8
6_ALL_SURFS
100
AcDbSpline
 62
7
  6
CONTINUOUS
 70
0
 71
3
 72
11
 73
7
 74
0
 42
0.0000001
 43
0.0000001
 44
0.0000000001
 40
0.0
 40
0.0
 40
0.0
 40
0.0
 40
0.2502466172
 40
0.5061861468
 40
0.7644256489
 40
1.0
 40
1.0
 40
1.0
 40
1.0
 10
1453.9643222805
 20
1097.9447719689
 30
0.0
 10
1454.0260206321
 20
1097.915075103
 30
0.0
 10
1454.1483673404
 20
1097.8477379989
 30
0.0
 10
1454.3108791486
 20
1097.7189750905
 30
0.0
 10
1454.4496208195
 20
1097.5503430464
 30
0.0
 10
1454.4164920831
 20
1097.3935611837
 30
0.0
 10
1454.3743669727
 20
1097.3447719689
 30
0.0
  0
SPLINE
  5
580
100
AcDbEntity
  8
6_ALL_SURFS
100
AcDbSpline
 62
7
  6
CONTINUOUS
 70
0
 71
3
 72
11
 73
7
 74
0
 42
0.0000001
 43
0.0000001
 44
0.0000000001
 40
0.0
 40
0.0
 40
0.0
 40
0.0
 40
0.2319264147
 40
0.4914445057
 40
0.7485895369
 40
1.0
 40
1.0
 40
1.0
 40
1.0
 10
1211.8658999906
 20
1097.3447719689
 30
0.0
 10
1211.8244460718
 20
1097.392783811
 30
0.0
 10
1211.7913508746
 20
1097.5479948036
 30
0.0
 10
1211.9277225946
 20
1097.71804711
 30
0.0
 10
1212.0912300891
 20
1097.8472237166
 30
0.0
 10
1212.2139875912
 20
1097.9149505653
 30
0.0
 10
1212.2759446828
 20
1097.9447719689
 30
0.0
  0
SPLINE
  5
581
100
AcDbEntity
  8
6_ALL_SURFS
100
AcDbSpline
 62
7
  6
CONTINUOUS
 70
0
 71
3
 72
11
 73
7
 74
0
 42
0.0000001
 43
0.0000001
 44
0.0000000001
 40
0.0
 40
0.0
 40
0.0
 40
0.0
 40
0.2502466172
 40
0.5061861468
 40
0.7644256489
 40
1.0
 40
1.0
 40
1.0
 40
1.0
 10
1703.9643222805
 20
1097.9447719689
 30
0.0
 10
1704.0260206321
 20
1097.915075103
 30
0.0
 10
1704.1483673404
 20
1097.8477379989
 30
0.0
 10
1704.3108791486
 20
1097.7189750905
 30
0.0
 10
1704.4496208195
 20
1097.5503430464
 30
0.0
 10
1704.4164920831
 20
1097.3935611837
 30
0.0
 10
1704.3743669727
 20
1097.3447719689
 30
0.0
  0
SPLINE
  5
582
100
AcDbEntity
  8
6_ALL_SURFS
100
AcDbSpline
 62
7
  6
CONTINUOUS
 70
0
 71
3
 72
11
 73
7
 74
0
 42
0.0000001
 43
0.0000001
 44
0.0000000001
 40
0.0
 40
0.0
 40
0.0
 40
0.0
 40
0.2319264147
 40
0.4914445057
 40
0.7485895369
 40
1.0
 40
1.0
 40
1.0
 40
1.0
 10
1461.8658999906
 20
1097.3447719689
 30
0.0
 10
1461.8244460718
 20
1097.392783811
 30
0.0
 10
1461.7913508746
 20
1097.5479948036
 30
0.0
 10
1461.9277225946
 20
1097.71804711
 30
0.0
 10
1462.0912300891
 20
1097.8472237166
 30
0.0
 10
1462.2139875912
 20
1097.9149505653
 30
0.0
 10
1462.2759446828
 20
1097.9447719689
 30
0.0
  0
SPLINE
  5
583
100
AcDbEntity
  8
6_ALL_SURFS
100
AcDbSpline
 62
7
  6
CONTINUOUS
 70
0
 71
3
 72
11
 73
7
 74
0
 42
0.0000001
 43
0.0000001
 44
0.0000000001
 40
0.0
 40
0.0
 40
0.0
 40
0.0
 40
0.2502466172
 40
0.5061861468
 40
0.7644256489
 40
1.0
 40
1.0
 40
1.0
 40
1.0
 10
1953.9643222805
 20
1097.9447719689
 30
0.0
 10
1954.0260206321
 20
1097.915075103
 30
0.0
 10
1954.1483673404
 20
1097.8477379989
 30
0.0
 10
1954.3108791486
 20
1097.7189750905
 30
0.0
 10
1954.4496208195
 20
1097.5503430464
 30
0.0
 10
1954.4164920831
 20
1097.3935611837
 30
0.0
 10
1954.3743669727
 20
1097.3447719689
 30
0.0
  0
SPLINE
  5
584
100
AcDbEntity
  8
6_ALL_SURFS
100
AcDbSpline
 62
7
  6
CONTINUOUS
 70
0
 71
3
 72
11
 73
7
 74
0
 42
0.0000001
 43
0.0000001
 44
0.0000000001
 40
0.0
 40
0.0
 40
0.0
 40
0.0
 40
0.2319264147
 40
0.4914445057
 40
0.7485895369
 40
1.0
 40
1.0
 40
1.0
 40
1.0
 10
1711.8658999906
 20
1097.3447719689
 30
0.0
 10
1711.8244460718
 20
1097.392783811
 30
0.0
 10
1711.7913508746
 20
1097.5479948036
 30
0.0
 10
1711.9277225946
 20
1097.71804711
 30
0.0
 10
1712.0912300891
 20
1097.8472237166
 30
0.0
 10
1712.2139875912
 20
1097.9149505653
 30
0.0
 10
1712.2759446828
 20
1097.9447719689
 30
0.0
  0
SPLINE
  5
585
100
AcDbEntity
  8
6_ALL_SURFS
100
AcDbSpline
 62
7
  6
CONTINUOUS
 70
0
 71
3
 72
11
 73
7
 74
0
 42
0.0000001
 43
0.0000001
 44
0.0000000001
 40
0.0
 40
0.0
 40
0.0
 40
0.0
 40
0.2502466172
 40
0.5061861468
 40
0.7644256489
 40
1.0
 40
1.0
 40
1.0
 40
1.0
 10
2203.9643222805
 20
1097.9447719689
 30
0.0
 10
2204.0260206321
 20
1097.915075103
 30
0.0
 10
2204.1483673404
 20
1097.8477379989
 30
0.0
 10
2204.3108791486
 20
1097.7189750905
 30
0.0
 10
2204.4496208195
 20
1097.5503430464
 30
0.0
 10
2204.4164920831
 20
1097.3935611837
 30
0.0
 10
2204.3743669727
 20
1097.3447719689
 30
0.0
  0
SPLINE
  5
586
100
AcDbEntity
  8
6_ALL_SURFS
100
AcDbSpline
 62
7
  6
CONTINUOUS
 70
0
 71
3
 72
11
 73
7
 74
0
 42
0.0000001
 43
0.0000001
 44
0.0000000001
 40
0.0
 40
0.0
 40
0.0
 40
0.0
 40
0.2319264147
 40
0.4914445057
 40
0.7485895369
 40
1.0
 40
1.0
 40
1.0
 40
1.0
 10
1961.8658999906
 20
1097.3447719689
 30
0.0
 10
1961.8244460718
 20
1097.392783811
 30
0.0
 10
1961.7913508746
 20
1097.5479948036
 30
0.0
 10
1961.9277225946
 20
1097.71804711
 30
0.0
 10
1962.0912300891
 20
1097.8472237166
 30
0.0
 10
1962.2139875912
 20
1097.9149505653
 30
0.0
 10
1962.2759446828
 20
1097.9447719689
 30
0.0
  0
SPLINE
  5
587
100
AcDbEntity
  8
6_ALL_SURFS
100
AcDbSpline
 62
7
  6
CONTINUOUS
 70
0
 71
3
 72
11
 73
7
 74
0
 42
0.0000001
 43
0.0000001
 44
0.0000000001
 40
0.0
 40
0.0
 40
0.0
 40
0.0
 40
0.2502466172
 40
0.5061861468
 40
0.7644256489
 40
1.0
 40
1.0
 40
1.0
 40
1.0
 10
2453.9643222805
 20
1097.9447719689
 30
0.0
 10
2454.0260206321
 20
1097.915075103
 30
0.0
 10
2454.1483673404
 20
1097.8477379989
 30
0.0
 10
2454.3108791486
 20
1097.7189750905
 30
0.0
 10
2454.4496208195
 20
1097.5503430464
 30
0.0
 10
2454.4164920831
 20
1097.3935611837
 30
0.0
 10
2454.3743669727
 20
1097.3447719689
 30
0.0
  0
SPLINE
  5
588
100
AcDbEntity
  8
6_ALL_SURFS
100
AcDbSpline
 62
7
  6
CONTINUOUS
 70
0
 71
3
 72
11
 73
7
 74
0
 42
0.0000001
 43
0.0000001
 44
0.0000000001
 40
0.0
 40
0.0
 40
0.0
 40
0.0
 40
0.2319264147
 40
0.4914445057
 40
0.7485895369
 40
1.0
 40
1.0
 40
1.0
 40
1.0
 10
2211.8658999906
 20
1097.3447719689
 30
0.0
 10
2211.8244460718
 20
1097.392783811
 30
0.0
 10
2211.7913508746
 20
1097.5479948036
 30
0.0
 10
2211.9277225946
 20
1097.71804711
 30
0.0
 10
2212.0912300891
 20
1097.8472237166
 30
0.0
 10
2212.2139875912
 20
1097.9149505653
 30
0.0
 10
2212.2759446828
 20
1097.9447719689
 30
0.0
  0
SPLINE
  5
589
100
AcDbEntity
  8
6_ALL_SURFS
100
AcDbSpline
 62
7
  6
CONTINUOUS
 70
0
 71
3
 72
11
 73
7
 74
0
 42
0.0000001
 43
0.0000001
 44
0.0000000001
 40
0.0
 40
0.0
 40
0.0
 40
0.0
 40
0.2502466172
 40
0.5061861468
 40
0.7644256489
 40
1.0
 40
1.0
 40
1.0
 40
1.0
 10
2703.9643222805
 20
1097.9447719689
 30
0.0
 10
2704.0260206321
 20
1097.915075103
 30
0.0
 10
2704.1483673404
 20
1097.8477379989
 30
0.0
 10
2704.3108791486
 20
1097.7189750905
 30
0.0
 10
2704.4496208195
 20
1097.5503430464
 30
0.0
 10
2704.4164920831
 20
1097.3935611837
 30
0.0
 10
2704.3743669727
 20
1097.3447719689
 30
0.0
  0
SPLINE
  5
58A
100
AcDbEntity
  8
6_ALL_SURFS
100
AcDbSpline
 62
7
  6
CONTINUOUS
 70
0
 71
3
 72
11
 73
7
 74
0
 42
0.0000001
 43
0.0000001
 44
0.0000000001
 40
0.0
 40
0.0
 40
0.0
 40
0.0
 40
0.2319264147
 40
0.4914445057
 40
0.7485895369
 40
1.0
 40
1.0
 40
1.0
 40
1.0
 10
2461.8658999906
 20
1097.3447719689
 30
0.0
 10
2461.8244460718
 20
1097.392783811
 30
0.0
 10
2461.7913508746
 20
1097.5479948036
 30
0.0
 10
2461.9277225946
 20
1097.71804711
 30
0.0
 10
2462.0912300891
 20
1097.8472237166
 30
0.0
 10
2462.2139875912
 20
1097.9149505653
 30
0.0
 10
2462.2759446828
 20
1097.9447719689
 30
0.0
  0
SPLINE
  5
58B
100
AcDbEntity
  8
6_ALL_SURFS
100
AcDbSpline
 62
7
  6
CONTINUOUS
 70
0
 71
3
 72
11
 73
7
 74
0
 42
0.0000001
 43
0.0000001
 44
0.0000000001
 40
0.0
 40
0.0
 40
0.0
 40
0.0
 40
0.2502466172
 40
0.5061861468
 40
0.7644256489
 40
1.0
 40
1.0
 40
1.0
 40
1.0
 10
2953.9643222805
 20
1097.9447719689
 30
0.0
 10
2954.0260206321
 20
1097.915075103
 30
0.0
 10
2954.1483673404
 20
1097.8477379989
 30
0.0
 10
2954.3108791486
 20
1097.7189750905
 30
0.0
 10
2954.4496208195
 20
1097.5503430464
 30
0.0
 10
2954.4164920831
 20
1097.3935611837
 30
0.0
 10
2954.3743669727
 20
1097.3447719689
 30
0.0
  0
SPLINE
  5
58C
100
AcDbEntity
  8
6_ALL_SURFS
100
AcDbSpline
 62
7
  6
CONTINUOUS
 70
0
 71
3
 72
11
 73
7
 74
0
 42
0.0000001
 43
0.0000001
 44
0.0000000001
 40
0.0
 40
0.0
 40
0.0
 40
0.0
 40
0.2319264147
 40
0.4914445057
 40
0.7485895369
 40
1.0
 40
1.0
 40
1.0
 40
1.0
 10
2711.8658999906
 20
1097.3447719689
 30
0.0
 10
2711.8244460718
 20
1097.392783811
 30
0.0
 10
2711.7913508746
 20
1097.5479948036
 30
0.0
 10
2711.9277225946
 20
1097.71804711
 30
0.0
 10
2712.0912300891
 20
1097.8472237166
 30
0.0
 10
2712.2139875912
 20
1097.9149505653
 30
0.0
 10
2712.2759446828
 20
1097.9447719689
 30
0.0
  0
SPLINE
  5
58D
100
AcDbEntity
  8
6_ALL_SURFS
100
AcDbSpline
 62
7
  6
CONTINUOUS
 70
0
 71
3
 72
11
 73
7
 74
0
 42
0.0000001
 43
0.0000001
 44
0.0000000001
 40
0.0
 40
0.0
 40
0.0
 40
0.0
 40
0.2319264147
 40
0.4914445057
 40
0.7485895369
 40
1.0
 40
1.0
 40
1.0
 40
1.0
 10
2961.8658999906
 20
1097.3447719689
 30
0.0
 10
2961.8244460718
 20
1097.392783811
 30
0.0
 10
2961.7913508746
 20
1097.5479948036
 30
0.0
 10
2961.9277225946
 20
1097.71804711
 30
0.0
 10
2962.0912300891
 20
1097.8472237166
 30
0.0
 10
2962.2139875912
 20
1097.9149505653
 30
0.0
 10
2962.2759446828
 20
1097.9447719689
 30
0.0
  0
ELLIPSE
  5
58E
100
AcDbEntity
  8
6_ALL_SURFS
100
AcDbEllipse
 62
7
  6
CONTINUOUS
 10
2958.1201334816
 20
735.8205784205
 30
0.0
 11
3.5
 21
0.0
 31
0.0
 40
0.5
 41
-1.910488903
 42
-1.2311037506
  0
ELLIPSE
  5
58F
100
AcDbEntity
  8
6_ALL_SURFS
100
AcDbEllipse
 62
7
  6
CONTINUOUS
 10
2708.1201334816
 20
735.8205784205
 30
0.0
 11
3.5
 21
-0.0
 31
0.0
 40
0.5
 41
-1.910488903
 42
-1.2311037506
  0
ELLIPSE
  5
590
100
AcDbEntity
  8
6_ALL_SURFS
100
AcDbEllipse
 62
7
  6
CONTINUOUS
 10
2458.1201334816
 20
735.8205784205
 30
0.0
 11
3.5
 21
0.0
 31
0.0
 40
0.5
 41
-1.910488903
 42
-1.2311037506
  0
ELLIPSE
  5
591
100
AcDbEntity
  8
6_ALL_SURFS
100
AcDbEllipse
 62
7
  6
CONTINUOUS
 10
2208.1201334816
 20
735.8205784205
 30
0.0
 11
3.5
 21
0.0
 31
0.0
 40
0.5
 41
-1.910488903
 42
-1.2311037506
  0
ELLIPSE
  5
592
100
AcDbEntity
  8
6_ALL_SURFS
100
AcDbEllipse
 62
7
  6
CONTINUOUS
 10
1958.1201334816
 20
735.8205784205
 30
0.0
 11
3.5
 21
0.0
 31
0.0
 40
0.5
 41
-1.910488903
 42
-1.2311037506
  0
ELLIPSE
  5
593
100
AcDbEntity
  8
6_ALL_SURFS
100
AcDbEllipse
 62
7
  6
CONTINUOUS
 10
1708.1201334816
 20
735.8205784205
 30
0.0
 11
3.5
 21
0.0
 31
0.0
 40
0.5
 41
-1.910488903
 42
-1.2311037506
  0
ELLIPSE
  5
594
100
AcDbEntity
  8
6_ALL_SURFS
100
AcDbEllipse
 62
7
  6
CONTINUOUS
 10
1458.1201334816
 20
735.8205784205
 30
0.0
 11
3.5
 21
0.0
 31
0.0
 40
0.5
 41
-1.910488903
 42
-1.2311037506
  0
ELLIPSE
  5
595
100
AcDbEntity
  8
6_ALL_SURFS
100
AcDbEllipse
 62
7
  6
CONTINUOUS
 10
1208.1201334816
 20
735.8205784205
 30
0.0
 11
3.5
 21
0.0
 31
0.0
 40
0.5
 41
-1.910488903
 42
-1.2311037506
  0
ELLIPSE
  5
596
100
AcDbEntity
  8
6_ALL_SURFS
100
AcDbEllipse
 62
7
  6
CONTINUOUS
 10
958.1201334816
 20
735.8205784205
 30
0.0
 11
3.5
 21
0.0
 31
0.0
 40
0.5
 41
-1.910488903
 42
-1.2311037506
  0
ELLIPSE
  5
597
100
AcDbEntity
  8
6_ALL_SURFS
100
AcDbEllipse
 62
7
  6
CONTINUOUS
 10
708.1201334816
 20
735.8205784205
 30
0.0
 11
3.5
 21
0.0
 31
0.0
 40
0.5
 41
-1.910488903
 42
-1.2311037506
  0
ELLIPSE
  5
598
100
AcDbEntity
  8
6_ALL_SURFS
100
AcDbEllipse
 62
7
  6
CONTINUOUS
 10
458.1201334816
 20
735.8205784205
 30
0.0
 11
3.5
 21
-0.0
 31
0.0
 40
0.5
 41
4.3726964042
 42
5.0520815566
  0
ELLIPSE
  5
599
100
AcDbEntity
  8
6_ALL_SURFS
100
AcDbEllipse
 62
7
  6
CONTINUOUS
 10
458.1201334816
 20
732.5740611233
 30
0.0
 11
5.4882058378
 21
0.0
 31
0.0
 40
0.1015346165
 41
0.9294607698
 42
2.2121318838
  0
ELLIPSE
  5
59A
100
AcDbEntity
  8
6_ALL_SURFS
100
AcDbEllipse
 62
7
  6
CONTINUOUS
 10
708.1201334816
 20
732.5740611233
 30
0.0
 11
5.4882058378
 21
-0.0
 31
0.0
 40
0.1015346165
 41
0.9294607698
 42
2.2121318838
  0
ELLIPSE
  5
59B
100
AcDbEntity
  8
6_ALL_SURFS
100
AcDbEllipse
 62
7
  6
CONTINUOUS
 10
958.1201334816
 20
732.5740611233
 30
0.0
 11
5.4882058378
 21
-0.0
 31
0.0
 40
0.1015346165
 41
0.9294607698
 42
2.2121318838
  0
ELLIPSE
  5
59C
100
AcDbEntity
  8
6_ALL_SURFS
100
AcDbEllipse
 62
7
  6
CONTINUOUS
 10
1208.1201334816
 20
732.5740611233
 30
0.0
 11
5.4882058378
 21
-0.0
 31
0.0
 40
0.1015346165
 41
0.9294607698
 42
2.2121318838
  0
ELLIPSE
  5
59D
100
AcDbEntity
  8
6_ALL_SURFS
100
AcDbEllipse
 62
7
  6
CONTINUOUS
 10
1458.1201334816
 20
732.5740611233
 30
0.0
 11
5.4882058378
 21
-0.0
 31
0.0
 40
0.1015346165
 41
0.9294607698
 42
2.2121318838
  0
ELLIPSE
  5
59E
100
AcDbEntity
  8
6_ALL_SURFS
100
AcDbEllipse
 62
7
  6
CONTINUOUS
 10
1708.1201334816
 20
732.5740611233
 30
0.0
 11
5.4882058378
 21
-0.0
 31
0.0
 40
0.1015346165
 41
0.9294607698
 42
2.2121318838
  0
ELLIPSE
  5
59F
100
AcDbEntity
  8
6_ALL_SURFS
100
AcDbEllipse
 62
7
  6
CONTINUOUS
 10
1958.1201334816
 20
732.5740611233
 30
0.0
 11
5.4882058378
 21
-0.0
 31
0.0
 40
0.1015346165
 41
0.9294607698
 42
2.2121318838
  0
ELLIPSE
  5
5A0
100
AcDbEntity
  8
6_ALL_SURFS
100
AcDbEllipse
 62
7
  6
CONTINUOUS
 10
2208.1201334816
 20
732.5740611233
 30
0.0
 11
5.4882058378
 21
-0.0
 31
0.0
 40
0.1015346165
 41
0.9294607698
 42
2.2121318838
  0
ELLIPSE
  5
5A1
100
AcDbEntity
  8
6_ALL_SURFS
100
AcDbEllipse
 62
7
  6
CONTINUOUS
 10
2458.1201334816
 20
732.5740611233
 30
0.0
 11
5.4882058378
 21
0.0
 31
0.0
 40
0.1015346165
 41
0.9294607698
 42
2.2121318838
  0
ELLIPSE
  5
5A2
100
AcDbEntity
  8
6_ALL_SURFS
100
AcDbEllipse
 62
7
  6
CONTINUOUS
 10
2708.1201334816
 20
732.5740611233
 30
0.0
 11
5.4882058378
 21
-0.0
 31
0.0
 40
0.1015346165
 41
0.9294607698
 42
2.2121318838
  0
ELLIPSE
  5
5A3
100
AcDbEntity
  8
6_ALL_SURFS
100
AcDbEllipse
 62
7
  6
CONTINUOUS
 10
2958.1201334816
 20
732.5740611233
 30
0.0
 11
5.4882058378
 21
0.0
 31
0.0
 40
0.1015346165
 41
0.9294607698
 42
2.2121318838
  0
ELLIPSE
  5
5A4
100
AcDbEntity
  8
6_ALL_SURFS
100
AcDbEllipse
 62
7
  6
CONTINUOUS
 10
958.1201334816
 20
1099.3795989971
 30
0.0
 11
-0.0
 21
5.5724287509
 31
0.0
 40
0.9848857802
 41
-0.641335557
 42
0.641335557
  0
ELLIPSE
  5
5A5
100
AcDbEntity
  8
7_ALL_FEATURES
100
AcDbEllipse
 62
7
  6
CONTINUOUS
 10
458.1201334816
 20
1031.2099449407
 30
0.0
 11
0.0
 21
5.5724287509
 31
0.0
 40
0.9848857802
 41
2.5002570966
 42
3.7829282106
  0
ELLIPSE
  5
5A6
100
AcDbEntity
  8
7_ALL_FEATURES
100
AcDbEllipse
 62
7
  6
CONTINUOUS
 10
708.1201334816
 20
1031.2099449407
 30
0.0
 11
0.0
 21
5.5724287509
 31
0.0
 40
0.9848857802
 41
2.5002570966
 42
3.7829282106
  0
ELLIPSE
  5
5A7
100
AcDbEntity
  8
7_ALL_FEATURES
100
AcDbEllipse
 62
7
  6
CONTINUOUS
 10
958.1201334816
 20
1031.2099449407
 30
0.0
 11
0.0
 21
5.5724287509
 31
0.0
 40
0.9848857802
 41
2.5002570966
 42
3.7829282106
  0
ELLIPSE
  5
5A8
100
AcDbEntity
  8
7_ALL_FEATURES
100
AcDbEllipse
 62
7
  6
CONTINUOUS
 10
1208.1201334816
 20
1031.2099449407
 30
0.0
 11
0.0
 21
5.5724287509
 31
0.0
 40
0.9848857802
 41
2.5002570966
 42
3.7829282106
  0
ELLIPSE
  5
5A9
100
AcDbEntity
  8
7_ALL_FEATURES
100
AcDbEllipse
 62
7
  6
CONTINUOUS
 10
1458.1201334816
 20
1031.2099449407
 30
0.0
 11
-0.0
 21
5.5724287509
 31
0.0
 40
0.9848857802
 41
2.5002570966
 42
3.7829282106
  0
ELLIPSE
  5
5AA
100
AcDbEntity
  8
7_ALL_FEATURES
100
AcDbEllipse
 62
7
  6
CONTINUOUS
 10
1708.1201334816
 20
1031.2099449407
 30
0.0
 11
-0.0
 21
5.5724287509
 31
0.0
 40
0.9848857802
 41
2.5002570966
 42
3.7829282106
  0
ELLIPSE
  5
5AB
100
AcDbEntity
  8
7_ALL_FEATURES
100
AcDbEllipse
 62
7
  6
CONTINUOUS
 10
1958.1201334816
 20
1031.2099449407
 30
0.0
 11
-0.0
 21
5.5724287509
 31
0.0
 40
0.9848857802
 41
2.5002570966
 42
3.7829282106
  0
ELLIPSE
  5
5AC
100
AcDbEntity
  8
7_ALL_FEATURES
100
AcDbEllipse
 62
7
  6
CONTINUOUS
 10
2208.1201334816
 20
1031.2099449407
 30
0.0
 11
-0.0
 21
5.5724287509
 31
0.0
 40
0.9848857802
 41
2.5002570966
 42
3.7829282106
  0
ELLIPSE
  5
5AD
100
AcDbEntity
  8
7_ALL_FEATURES
100
AcDbEllipse
 62
7
  6
CONTINUOUS
 10
2458.1201334816
 20
1031.2099449407
 30
0.0
 11
0.0
 21
5.5724287509
 31
0.0
 40
0.9848857802
 41
2.5002570966
 42
3.7829282106
  0
ELLIPSE
  5
5AE
100
AcDbEntity
  8
7_ALL_FEATURES
100
AcDbEllipse
 62
7
  6
CONTINUOUS
 10
2708.1201334816
 20
1031.2099449407
 30
0.0
 11
-0.0
 21
5.5724287509
 31
0.0
 40
0.9848857802
 41
2.5002570966
 42
3.7829282106
  0
ELLIPSE
  5
5AF
100
AcDbEntity
  8
7_ALL_FEATURES
100
AcDbEllipse
 62
7
  6
CONTINUOUS
 10
2958.1201334816
 20
1031.2099449407
 30
0.0
 11
-0.0
 21
5.5724287509
 31
0.0
 40
0.9848857802
 41
2.5002570966
 42
3.7829282106
  0
ELLIPSE
  5
5B0
100
AcDbEntity
  8
6_ALL_SURFS
100
AcDbEllipse
 62
7
  6
CONTINUOUS
 10
1208.1201334816
 20
1099.3795989971
 30
0.0
 11
-0.0
 21
5.5724287509
 31
0.0
 40
0.9848857802
 41
-0.641335557
 42
0.641335557
  0
ELLIPSE
  5
5B1
100
AcDbEntity
  8
6_ALL_SURFS
100
AcDbEllipse
 62
7
  6
CONTINUOUS
 10
1458.1201334816
 20
1099.3795989971
 30
0.0
 11
0.0
 21
5.5724287509
 31
0.0
 40
0.9848857802
 41
-0.641335557
 42
0.641335557
  0
ELLIPSE
  5
5B2
100
AcDbEntity
  8
6_ALL_SURFS
100
AcDbEllipse
 62
7
  6
CONTINUOUS
 10
1708.1201334816
 20
1099.3795989971
 30
0.0
 11
0.0
 21
5.5724287509
 31
0.0
 40
0.9848857802
 41
-0.641335557
 42
0.641335557
  0
ELLIPSE
  5
5B3
100
AcDbEntity
  8
6_ALL_SURFS
100
AcDbEllipse
 62
7
  6
CONTINUOUS
 10
1958.1201334816
 20
1099.3795989971
 30
0.0
 11
0.0
 21
5.5724287509
 31
0.0
 40
0.9848857802
 41
-0.641335557
 42
0.641335557
  0
ELLIPSE
  5
5B4
100
AcDbEntity
  8
6_ALL_SURFS
100
AcDbEllipse
 62
7
  6
CONTINUOUS
 10
2208.1201334816
 20
1099.3795989971
 30
0.0
 11
0.0
 21
5.5724287509
 31
0.0
 40
0.9848857802
 41
-0.641335557
 42
0.641335557
  0
ELLIPSE
  5
5B5
100
AcDbEntity
  8
6_ALL_SURFS
100
AcDbEllipse
 62
7
  6
CONTINUOUS
 10
2458.1201334816
 20
1099.3795989971
 30
0.0
 11
-0.0
 21
5.5724287509
 31
0.0
 40
0.9848857802
 41
-0.641335557
 42
0.641335557
  0
ELLIPSE
  5
5B6
100
AcDbEntity
  8
6_ALL_SURFS
100
AcDbEllipse
 62
7
  6
CONTINUOUS
 10
2708.1201334816
 20
1099.3795989971
 30
0.0
 11
0.0
 21
5.5724287509
 31
0.0
 40
0.9848857802
 41
-0.641335557
 42
0.641335557
  0
ELLIPSE
  5
5B7
100
AcDbEntity
  8
6_ALL_SURFS
100
AcDbEllipse
 62
7
  6
CONTINUOUS
 10
2958.1201334816
 20
1099.3795989971
 30
0.0
 11
0.0
 21
5.5724287509
 31
0.0
 40
0.9848857802
 41
-0.641335557
 42
0.641335557
  0
ELLIPSE
  5
5B8
100
AcDbEntity
  8
6_ALL_SURFS
100
AcDbEllipse
 62
7
  6
CONTINUOUS
 10
458.1201334816
 20
1099.3795989971
 30
0.0
 11
-0.0
 21
5.5724287509
 31
0.0
 40
0.9848857802
 41
-0.641335557
 42
0.641335557
  0
ELLIPSE
  5
5B9
100
AcDbEntity
  8
6_ALL_SURFS
100
AcDbEllipse
 62
7
  6
CONTINUOUS
 10
708.1201334816
 20
1099.3795989971
 30
0.0
 11
0.0
 21
5.5724287509
 31
0.0
 40
0.9848857802
 41
-0.641335557
 42
0.641335557
  0
ENDSEC
  0
SECTION
  2
OBJECTS
  0
DICTIONARY
  5
5BA
100
AcDbDictionary
  3
ACAD_GROUP
350
5BB
  3
ACAD_MLINESTYLE
350
5BC
  0
DICTIONARY
  5
5BB
102
{ACAD_REACTORS
330
5BA
102
}
100
AcDbDictionary
  0
DICTIONARY
  5
5BC
102
{ACAD_REACTORS
330
5BA
102
}
100
AcDbDictionary
  3
STANDARD
350
5BD
  0
MLINESTYLE
  5
5BD
102
{ACAD_REACTORS
330
5BC
102
}
100
AcDbMlineStyle
  2
STANDARD
 70
0
  3

 62
256
 51
90.0
 52
90.0
 71
2
 49
0.5
 62
256
  6
BYLAYER
 49
-0.5
 62
256
  6
BYLAYER
  0
ENDSEC
  0
EOF
