999
DXF file: 6f3_c_410.dxf
999
Pro/ENGINEER 2016360 by Parametric Technology Corporation
  0
SECTION
  2
HEADER
  9
$ACADVER
  1
AC1014
  9
$DWGCODEPAGE
  3
ANSI_1252
  9
$EXTMAX
 10
1189.0
 20
841.0
 30
0.0
  9
$EXTMIN
 10
0.0
 20
0.0
 30
0.0
  9
$LIMMIN
 10
0.0
 20
0.0
  9
$LIMMAX
 10
1189.0
 20
841.0
  9
$VIEWCTR
 10
594.5
 20
420.5
  9
$VIEWSIZE
 40
841.0
  9
$CLAYER
  8
0
  9
$LTSCALE
 40
65.395
  9
$CELTYPE
  6
BYLAYER
  9
$DIMSCALE
 40
1.0
  9
$DIMASZ
 40
2.5
  9
$DIMEXO
 40
0.75
  9
$DIMDLI
 40
45.182
  9
$DIMEXE
 40
0.75
  9
$DIMCEN
 40
10.701
  9
$DIMLFAC
 40
1.0
  9
$DIMBLK
  1
_CLOSED
  9
$DIMALT
 70
0
  9
$DIMALTF
 40
25.4
  9
$DIMTXT
 40
3.0
  9
$DIMTOL
 70
1
  9
$DIMLIM
 70
0
  9
$DIMTFAC
 40
1.0
  9
$DIMTP
 40
0.01
  9
$DIMTM
 40
0.01
  9
$DIMGAP
 40
0.625
  9
$AUNITS
 70
0
  9
$PDMODE
 70
3
  9
$PDSIZE
 40
0.3125
  9
$HANDSEED
  5
785
  9
$TILEMODE
 70
1
  9
$MEASUREMENT
 70
1
  0
ENDSEC
  0
SECTION
  2
CLASSES
  0
ENDSEC
  0
SECTION
  2
TABLES
  0
TABLE
  2
VPORT
  5
8
100
AcDbSymbolTable
 70
2
  0
VPORT
  5
1F4
100
AcDbSymbolTableRecord
100
AcDbViewportTableRecord
  2
*ACTIVE
 70
0
 10
0.0
 20
0.0
 11
1.0
 21
1.0
 12
594.5
 22
420.5
 13
0.0
 23
0.0
 14
1.0
 24
1.0
 15
0.0
 25
0.0
 16
0.0
 26
0.0
 36
1.0
 17
0.0
 27
0.0
 37
0.0
 40
841.0
 41
1.4137931034
 42
50.0
 43
0.0
 44
0.0
 50
0.0
 51
0.0
 71
0
 72
100
 73
1
 74
1
 75
0
 76
0
 77
0
 78
0
  0
ENDTAB
  0
TABLE
  2
LTYPE
  5
5
100
AcDbSymbolTable
 70
6
  0
LTYPE
  5
14
100
AcDbSymbolTableRecord
100
AcDbLinetypeTableRecord
  2
BYBLOCK
 70
0
  3

 72
65
 73
0
 40
0.0
  0
LTYPE
  5
15
100
AcDbSymbolTableRecord
100
AcDbLinetypeTableRecord
  2
BYLAYER
 70
0
  3

 72
65
 73
0
 40
0.0
  0
LTYPE
  5
16
100
AcDbSymbolTableRecord
100
AcDbLinetypeTableRecord
  2
CONTINUOUS
 70
64
  3
Solid line
 72
65
 73
0
 40
0.0
  0
LTYPE
  5
1F5
100
AcDbSymbolTableRecord
100
AcDbLinetypeTableRecord
  2
CENTER
 70
64
  3
____ _ ____ _ ____ _ ____ _ ____ _ ____ _ ____
 72
65
 73
4
 40
0.6
 49
0.375
 74
0
 49
-0.075
 74
0
 49
0.075
 74
0
 49
-0.075
 74
0
  0
LTYPE
  5
1F6
100
AcDbSymbolTableRecord
100
AcDbLinetypeTableRecord
  2
HIDDEN
 70
64
  3
- - - - - - - - - - - - - - - - - - - -
 72
65
 73
2
 40
0.2
 49
0.1
 74
0
 49
-0.1
 74
0
  0
LTYPE
  5
1F7
100
AcDbSymbolTableRecord
100
AcDbLinetypeTableRecord
  2
PHANTOM
 70
64
  3
_____ _ _ _____ _ _ _____ _ _ _____
 72
65
 73
6
 40
0.8
 49
0.45
 74
0
 49
-0.05
 74
0
 49
0.1
 74
0
 49
-0.05
 74
0
 49
0.1
 74
0
 49
-0.05
 74
0
  0
LTYPE
  5
1F8
100
AcDbSymbolTableRecord
100
AcDbLinetypeTableRecord
  2
DOT
 70
64
  3
. . . . . . . . . . . . . . . . . . . .
 72
65
 73
2
 40
0.2
 49
0.1
 74
0
 49
-0.1
 74
0
  0
LTYPE
  5
1F9
100
AcDbSymbolTableRecord
100
AcDbLinetypeTableRecord
  2
DASHED
 70
64
  3
- - - - - - - - - - - - - - - - - - - -
 72
65
 73
2
 40
0.2
 49
0.1
 74
0
 49
-0.1
 74
0
  0
ENDTAB
  0
TABLE
  2
LAYER
  5
2
100
AcDbSymbolTable
 70
36
  0
LAYER
  5
10
100
AcDbSymbolTableRecord
100
AcDbLayerTableRecord
  2
0
 70
0
 62
7
  6
CONTINUOUS
  0
LAYER
  5
1FA
100
AcDbSymbolTableRecord
100
AcDbLayerTableRecord
  2
DEFAULT_1
 70
0
 62
7
  6
CENTER
  0
LAYER
  5
1FB
100
AcDbSymbolTableRecord
100
AcDbLayerTableRecord
  2
DEFAULT_2
 70
0
 62
8
  6
HIDDEN
  0
LAYER
  5
1FC
100
AcDbSymbolTableRecord
100
AcDbLayerTableRecord
  2
DEFAULT_3
 70
0
 62
7
  6
PHANTOM
  0
LAYER
  5
1FD
100
AcDbSymbolTableRecord
100
AcDbLayerTableRecord
  2
1_ALL_PLANES
 70
0
 62
7
  6
CONTINUOUS
  0
LAYER
  5
1FE
100
AcDbSymbolTableRecord
100
AcDbLayerTableRecord
  2
2_ALL_CSYS
 70
0
 62
7
  6
CONTINUOUS
  0
LAYER
  5
1FF
100
AcDbSymbolTableRecord
100
AcDbLayerTableRecord
  2
3_ALL_AXES
 70
0
 62
7
  6
CONTINUOUS
  0
LAYER
  5
200
100
AcDbSymbolTableRecord
100
AcDbLayerTableRecord
  2
4_ALL_POINTS
 70
0
 62
7
  6
CONTINUOUS
  0
LAYER
  5
201
100
AcDbSymbolTableRecord
100
AcDbLayerTableRecord
  2
5_ALL_CURVES
 70
0
 62
7
  6
CONTINUOUS
  0
LAYER
  5
202
100
AcDbSymbolTableRecord
100
AcDbLayerTableRecord
  2
5__COSTRUZIONE
 70
0
 62
7
  6
CONTINUOUS
  0
LAYER
  5
203
100
AcDbSymbolTableRecord
100
AcDbLayerTableRecord
  2
6_ALL_SURFS
 70
0
 62
7
  6
CONTINUOUS
  0
LAYER
  5
204
100
AcDbSymbolTableRecord
100
AcDbLayerTableRecord
  2
7_ALL_FEATURES
 70
0
 62
7
  6
CONTINUOUS
  0
LAYER
  5
205
100
AcDbSymbolTableRecord
100
AcDbLayerTableRecord
  2
9_SOLID
 70
0
 62
7
  6
CONTINUOUS
  0
LAYER
  5
206
100
AcDbSymbolTableRecord
100
AcDbLayerTableRecord
  2
PR9034
 70
0
 62
7
  6
CONTINUOUS
  0
LAYER
  5
207
100
AcDbSymbolTableRecord
100
AcDbLayerTableRecord
  2
WHITE
 70
0
 62
7
  6
CONTINUOUS
  0
LAYER
  5
208
100
AcDbSymbolTableRecord
100
AcDbLayerTableRecord
  2
XXX_SOLIDO
 70
0
 62
7
  6
CONTINUOUS
  0
ENDTAB
  0
TABLE
  2
STYLE
  5
3
100
AcDbSymbolTable
 70
1
  0
STYLE
  5
11
100
AcDbSymbolTableRecord
100
AcDbTextStyleTableRecord
  2
STANDARD
 70
0
 40
0.0
 41
1.0
 50
0.0
 71
0
 42
0.2
  3
arial.ttf
  4

  0
STYLE
  5
209
100
AcDbSymbolTableRecord
100
AcDbTextStyleTableRecord
  2
TEXTSTYLE_1
 70
0
 40
0.0
 41
0.8
 50
0.0
 71
0
 42
0.2
  3
gdt
  4

  0
STYLE
  5
20A
100
AcDbSymbolTableRecord
100
AcDbTextStyleTableRecord
  2
TEXTSTYLE_2
 70
0
 40
0.0
 41
0.85
 50
0.0
 71
0
 42
0.2
  3
txt
  4

  0
ENDTAB
  0
TABLE
  2
VIEW
  5
6
100
AcDbSymbolTable
 70
0
  0
ENDTAB
  0
TABLE
  2
UCS
  5
7
100
AcDbSymbolTable
 70
0
  0
ENDTAB
  0
TABLE
  2
APPID
  5
9
100
AcDbSymbolTable
 70
1
  0
APPID
  5
20B
100
AcDbSymbolTableRecord
100
AcDbRegAppTableRecord
  2
ACAD
 70
0
  0
ENDTAB
  0
TABLE
  2
BLOCK_RECORD
  5
1
100
AcDbSymbolTable
 70
0
  0
BLOCK_RECORD
  5
1F
100
AcDbSymbolTableRecord
100
AcDbBlockTableRecord
  2
*MODEL_SPACE
  0
BLOCK_RECORD
  5
1B
100
AcDbSymbolTableRecord
100
AcDbBlockTableRecord
  2
*PAPER_SPACE
  0
BLOCK_RECORD
  5
20C
100
AcDbSymbolTableRecord
100
AcDbBlockTableRecord
  2
_CLOSED
  0
BLOCK_RECORD
  5
20D
100
AcDbSymbolTableRecord
100
AcDbBlockTableRecord
  2
*D0
  0
BLOCK_RECORD
  5
20E
100
AcDbSymbolTableRecord
100
AcDbBlockTableRecord
  2
*D1
  0
BLOCK_RECORD
  5
20F
100
AcDbSymbolTableRecord
100
AcDbBlockTableRecord
  2
*D2
  0
BLOCK_RECORD
  5
210
100
AcDbSymbolTableRecord
100
AcDbBlockTableRecord
  2
LOGO2_BL0
  0
ENDTAB
  0
TABLE
  2
DIMSTYLE
  5
A
100
AcDbSymbolTable
 70
1
  0
DIMSTYLE
105
211
100
AcDbSymbolTableRecord
100
AcDbDimStyleTableRecord
  2
STANDARD
 70
0
  3

  4

  5
_CLOSED
  6
_CLOSED
  7
_CLOSED
 40
1.0
 41
2.5
 42
0.75
 43
0.38
 44
0.75
 45
0.0
 46
0.0
 47
0.01
 48
0.01
140
3.0
141
0.09
142
0.0
143
25.4
144
1.0
145
0.0
146
1.0
147
0.625
 71
1.0
 72
0.0
 73
0
 74
0
 75
0
 76
0
 77
1
 78
8
 79
2
170
0
171
1
172
0
173
0
174
0
175
0
176
0
177
0
178
0
270
2
179
2
271
2
272
2
273
2
274
2
275
0
280
0
281
0
282
0
283
1
284
8
285
0
286
0
287
3
288
0
340
11
  0
DIMSTYLE
105
212
100
AcDbSymbolTableRecord
100
AcDbDimStyleTableRecord
  2
DIMSTYLE_1
 70
0
  3

  4

  5
_CLOSED
  6
_CLOSED
  7
_CLOSED
 40
1.0
 41
2.5
 42
0.75
 43
0.38
 44
0.75
 45
0.0
 46
0.0
 47
0.8
 48
0.8
140
10.0
141
0.09
142
0.0
143
25.4
144
1.0
145
0.0
146
1.0
147
2.5
 71
0.0
 72
0.0
 73
0
 74
0
 75
0
 76
0
 77
1
 78
8
 79
2
170
0
171
1
172
0
173
0
174
0
175
0
176
0
177
0
178
0
270
2
179
2
271
2
272
2
273
2
274
2
275
0
280
0
281
0
282
0
283
1
284
8
285
0
286
0
287
3
288
0
340
11
  0
DIMSTYLE
105
213
100
AcDbSymbolTableRecord
100
AcDbDimStyleTableRecord
  2
DIMSTYLE_2
 70
0
  3

  4

  5
_CLOSED
  6
_CLOSED
  7
_CLOSED
 40
1.0
 41
2.5
 42
0.75
 43
0.38
 44
0.75
 45
0.0
 46
0.0
 47
0.3
 48
0.3
140
10.0
141
0.09
142
0.0
143
25.4
144
1.0
145
0.0
146
1.0
147
2.5
 71
0.0
 72
0.0
 73
0
 74
0
 75
0
 76
0
 77
1
 78
8
 79
2
170
0
171
1
172
0
173
0
174
0
175
0
176
0
177
0
178
0
270
2
179
2
271
2
272
2
273
2
274
2
275
0
280
0
281
0
282
0
283
1
284
8
285
0
286
0
287
3
288
0
340
11
  0
ENDTAB
  0
ENDSEC
  0
SECTION
  2
BLOCKS
  0
BLOCK
  5
20
100
AcDbEntity
  8
0
100
AcDbBlockBegin
  2
*MODEL_SPACE
 70
0
 10
0.0
 20
0.0
 30
0.0
  3
*MODEL_SPACE
  1

  0
ENDBLK
  5
21
100
AcDbEntity
  8
0
100
AcDbBlockEnd
  0
BLOCK
  5
1C
100
AcDbEntity
  8
0
100
AcDbBlockBegin
  2
*PAPER_SPACE
 70
0
 10
0.0
 20
0.0
 30
0.0
  3
*PAPER_SPACE
  1

  0
ENDBLK
  5
1D
100
AcDbEntity
  8
0
100
AcDbBlockEnd
  0
BLOCK
  5
214
100
AcDbEntity
  8
0
100
AcDbBlockBegin
 62
2
  6
CONTINUOUS
  2
LOGO2_BL0
 70
64
 10
1059.6048308666
 20
38.8515184611
  3
LOGO2_BL0
  1

  0
LINE
  5
215
100
AcDbEntity
  8
0
100
AcDbLine
 62
7
  6
CONTINUOUS
 10
1051.3477560949
 20
42.0470098
 11
1050.0434151655
 21
42.0470098
  0
LINE
  5
216
100
AcDbEntity
  8
0
100
AcDbLine
 62
7
  6
CONTINUOUS
 10
1050.0434151655
 20
42.0470098
 11
1050.0434151655
 21
31.5879437401
  0
LINE
  5
217
100
AcDbEntity
  8
0
100
AcDbLine
 62
7
  6
CONTINUOUS
 10
1050.0434151655
 20
31.5879437401
 11
1054.5244700538
 21
31.5879437401
  0
LINE
  5
218
100
AcDbEntity
  8
0
100
AcDbLine
 62
7
  6
CONTINUOUS
 10
1054.5244700538
 20
31.5879437401
 11
1054.5244700538
 21
32.7807980652
  0
LINE
  5
219
100
AcDbEntity
  8
0
100
AcDbLine
 62
7
  6
CONTINUOUS
 10
1054.5244700538
 20
32.7807980652
 11
1051.3477560949
 21
32.7807980652
  0
LINE
  5
21A
100
AcDbEntity
  8
0
100
AcDbLine
 62
7
  6
CONTINUOUS
 10
1051.3477560949
 20
32.7807980652
 11
1051.3477560949
 21
42.0470098
  0
LINE
  5
21B
100
AcDbEntity
  8
0
100
AcDbLine
 62
7
  6
CONTINUOUS
 10
1066.2840823112
 20
42.0470098
 11
1064.9802647931
 21
42.0470098
  0
LINE
  5
21C
100
AcDbEntity
  8
0
100
AcDbLine
 62
7
  6
CONTINUOUS
 10
1064.9802647931
 20
42.0470098
 11
1064.9802647931
 21
31.5879437401
  0
LINE
  5
21D
100
AcDbEntity
  8
0
100
AcDbLine
 62
7
  6
CONTINUOUS
 10
1064.9802647931
 20
31.5879437401
 11
1069.4614505342
 21
31.5879437401
  0
LINE
  5
21E
100
AcDbEntity
  8
0
100
AcDbLine
 62
7
  6
CONTINUOUS
 10
1069.4614505342
 20
31.5879437401
 11
1069.4614505342
 21
32.7807980652
  0
LINE
  5
21F
100
AcDbEntity
  8
0
100
AcDbLine
 62
7
  6
CONTINUOUS
 10
1069.4614505342
 20
32.7807980652
 11
1066.2840823112
 21
32.7807980652
  0
LINE
  5
220
100
AcDbEntity
  8
0
100
AcDbLine
 62
7
  6
CONTINUOUS
 10
1066.2840823112
 20
32.7807980652
 11
1066.2840823112
 21
42.0470098
  0
LWPOLYLINE
  5
221
100
AcDbEntity
  8
0
100
AcDbPolyline
 62
7
  6
CONTINUOUS
 90
2
 70
0
 43
0.2
 10
1048.3978100764
 20
28.2443924332
 10
1048.3978100764
 20
26.3873291838
  0
LWPOLYLINE
  5
222
100
AcDbEntity
  8
0
100
AcDbPolyline
 62
7
  6
CONTINUOUS
 90
2
 70
0
 43
0.2
 10
1048.3978100764
 20
26.3873291838
 10
1049.1935260868
 20
26.3873291838
  0
LWPOLYLINE
  5
223
100
AcDbEntity
  8
0
100
AcDbPolyline
 62
7
  6
CONTINUOUS
 90
2
 70
0
 43
0.2
 10
1049.1935260868
 20
26.3873291838
 10
1049.1935260868
 20
26.5993107554
  0
LWPOLYLINE
  5
224
100
AcDbEntity
  8
0
100
AcDbPolyline
 62
7
  6
CONTINUOUS
 90
2
 70
0
 43
0.2
 10
1049.1935260868
 20
26.5993107554
 10
1048.6294195713
 20
26.5993107554
  0
LWPOLYLINE
  5
225
100
AcDbEntity
  8
0
100
AcDbPolyline
 62
7
  6
CONTINUOUS
 90
2
 70
0
 43
0.2
 10
1048.6294195713
 20
26.5993107554
 10
1048.6294195713
 20
28.2443924332
  0
LWPOLYLINE
  5
226
100
AcDbEntity
  8
0
100
AcDbPolyline
 62
7
  6
CONTINUOUS
 90
2
 70
0
 43
0.2
 10
1048.6294195713
 20
28.2443924332
 10
1048.3978100764
 20
28.2443924332
  0
SPLINE
  5
227
100
AcDbEntity
  8
0
100
AcDbSpline
 62
7
  6
CONTINUOUS
 70
2
 71
3
 72
35
 73
31
 74
0
 42
0.0000001
 43
0.0000001
 44
0.0000000001
 40
0.0
 40
0.0
 40
0.0
 40
0.0
 40
1.0
 40
1.0
 40
1.0
 40
2.0
 40
2.0
 40
2.0
 40
3.0
 40
3.0
 40
3.0
 40
4.0
 40
4.0
 40
4.0
 40
5.0
 40
5.0
 40
5.0
 40
6.0
 40
6.0
 40
6.0
 40
7.0
 40
7.0
 40
7.0
 40
8.0
 40
8.0
 40
8.0
 40
9.0
 40
9.0
 40
9.0
 40
10.0
 40
10.0
 40
10.0
 40
10.0
 10
1050.5918193423
 20
27.5398808397
 30
0.0
 10
1050.5918193423
 20
27.5398808397
 30
0.0
 10
1050.5918193423
 20
26.8777655606
 30
0.0
 10
1050.5918193423
 20
26.8777655606
 30
0.0
 10
1050.5918193423
 20
26.5626719653
 30
0.0
 10
1050.7396830312
 20
26.3480733372
 30
0.0
 10
1051.0797695155
 20
26.3480733372
 30
0.0
 10
1051.4193325885
 20
26.3480733372
 30
0.0
 10
1051.5674579829
 20
26.5626719653
 30
0.0
 10
1051.5674579829
 20
26.8777655606
 30
0.0
 10
1051.5674579829
 20
26.8777655606
 30
0.0
 10
1051.5674579829
 20
27.5398808397
 30
0.0
 10
1051.5674579829
 20
27.5398808397
 30
0.0
 10
1051.5674579829
 20
27.5398808397
 30
0.0
 10
1051.3454007441
 20
27.5398808397
 30
0.0
 10
1051.3454007441
 20
27.5398808397
 30
0.0
 10
1051.3454007441
 20
27.5398808397
 30
0.0
 10
1051.3454007441
 20
26.9028893024
 30
0.0
 10
1051.3454007441
 20
26.9028893024
 30
0.0
 10
1051.3454007441
 20
26.7170782952
 30
0.0
 10
1051.2986862866
 20
26.5542973847
 30
0.0
 10
1051.0797695155
 20
26.5542973847
 30
0.0
 10
1050.860329333
 20
26.5542973847
 30
0.0
 10
1050.8136148756
 20
26.7170782952
 30
0.0
 10
1050.8136148756
 20
26.9028893024
 30
0.0
 10
1050.8136148756
 20
26.9028893024
 30
0.0
 10
1050.8136148756
 20
27.5398808397
 30
0.0
 10
1050.8136148756
 20
27.5398808397
 30
0.0
 10
1050.8136148756
 20
27.5398808397
 30
0.0
 10
1050.5918193423
 20
27.5398808397
 30
0.0
 10
1050.5918193423
 20
27.5398808397
 30
0.0
  0
SPLINE
  5
228
100
AcDbEntity
  8
0
100
AcDbSpline
 62
7
  6
CONTINUOUS
 70
2
 71
3
 72
35
 73
31
 74
0
 42
0.0000001
 43
0.0000001
 44
0.0000000001
 40
0.0
 40
0.0
 40
0.0
 40
0.0
 40
1.0
 40
1.0
 40
1.0
 40
2.0
 40
2.0
 40
2.0
 40
3.0
 40
3.0
 40
3.0
 40
4.0
 40
4.0
 40
4.0
 40
5.0
 40
5.0
 40
5.0
 40
6.0
 40
6.0
 40
6.0
 40
7.0
 40
7.0
 40
7.0
 40
8.0
 40
8.0
 40
8.0
 40
9.0
 40
9.0
 40
9.0
 40
10.0
 40
10.0
 40
10.0
 40
10.0
 10
1053.9905905401
 20
27.498531348
 30
0.0
 10
1053.9021340325
 20
27.5498256542
 30
0.0
 10
1053.7886846358
 20
27.574949396
 30
0.0
 10
1053.6850492008
 20
27.574949396
 30
0.0
 10
1053.3301763477
 20
27.574949396
 30
0.0
 10
1053.0547311574
 20
27.3111501069
 30
0.0
 10
1053.0547311574
 20
26.9536601973
 30
0.0
 10
1053.0547311574
 20
26.6087321586
 30
0.0
 10
1053.3331859626
 20
26.3485967485
 30
0.0
 10
1053.6727490356
 20
26.3485967485
 30
0.0
 10
1053.7886846358
 20
26.3485967485
 30
0.0
 10
1053.8894413088
 20
26.3705800226
 30
0.0
 10
1053.9905905401
 20
26.4244913853
 30
0.0
 10
1053.9905905401
 20
26.4244913853
 30
0.0
 10
1053.9905905401
 20
26.7071334807
 30
0.0
 10
1053.9905905401
 20
26.7071334807
 30
0.0
 10
1053.9067138813
 20
26.6139662715
 30
0.0
 10
1053.8032092991
 20
26.5548207959
 30
0.0
 10
1053.6751043864
 20
26.5548207959
 30
0.0
 10
1053.4414012463
 20
26.5548207959
 30
0.0
 10
1053.2761341322
 20
26.7270231096
 30
0.0
 10
1053.2761341322
 20
26.9636050118
 30
0.0
 10
1053.2761341322
 20
27.1755865834
 30
0.0
 10
1053.44388745
 20
27.367678526
 30
0.0
 10
1053.660710576
 20
27.367678526
 30
0.0
 10
1053.7935261902
 20
27.367678526
 30
0.0
 10
1053.9021340325
 20
27.3137671634
 30
0.0
 10
1053.9905905401
 20
27.2127487848
 30
0.0
 10
1053.9905905401
 20
27.2127487848
 30
0.0
 10
1053.9905905401
 20
27.498531348
 30
0.0
 10
1053.9905905401
 20
27.498531348
 30
0.0
  0
SPLINE
  5
229
100
AcDbEntity
  8
0
100
AcDbSpline
 62
7
  6
CONTINUOUS
 70
2
 71
3
 72
32
 73
28
 74
0
 42
0.0000001
 43
0.0000001
 44
0.0000000001
 40
0.0
 40
0.0
 40
0.0
 40
0.0
 40
1.0
 40
1.0
 40
1.0
 40
2.0
 40
2.0
 40
2.0
 40
3.0
 40
3.0
 40
3.0
 40
4.0
 40
4.0
 40
4.0
 40
5.0
 40
5.0
 40
5.0
 40
6.0
 40
6.0
 40
6.0
 40
7.0
 40
7.0
 40
7.0
 40
8.0
 40
8.0
 40
8.0
 40
9.0
 40
9.0
 40
9.0
 40
9.0
 10
1056.5224617924
 20
26.9269662216
 30
0.0
 10
1056.5224617924
 20
26.9269662216
 30
0.0
 10
1056.5224617924
 20
26.9609879553
 30
0.0
 10
1056.5224617924
 20
26.9609879553
 30
0.0
 10
1056.5224617924
 20
27.3032989376
 30
0.0
 10
1056.3496052146
 20
27.574949396
 30
0.0
 10
1055.9829556074
 20
27.574949396
 30
0.0
 10
1055.611333593
 20
27.574949396
 30
0.0
 10
1055.4215970012
 20
27.3085330505
 30
0.0
 10
1055.4215970012
 20
26.9536601973
 30
0.0
 10
1055.4215970012
 20
26.6139662715
 30
0.0
 10
1055.6356722179
 20
26.3480733372
 30
0.0
 10
1055.9877971618
 20
26.3480733372
 30
0.0
 10
1056.211817193
 20
26.3480733372
 30
0.0
 10
1056.413984803
 20
26.4637472319
 30
0.0
 10
1056.5224617924
 20
26.6631669325
 30
0.0
 10
1056.5224617924
 20
26.6631669325
 30
0.0
 10
1056.3348188457
 20
26.7699428353
 30
0.0
 10
1056.3348188457
 20
26.7699428353
 30
0.0
 10
1056.2513347453
 20
26.631238844
 30
0.0
 10
1056.1601303284
 20
26.5453993928
 30
0.0
 10
1055.9905450711
 20
26.5453993928
 30
0.0
 10
1055.7785634995
 20
26.5453993928
 30
0.0
 10
1055.6456170324
 20
26.7301635774
 30
0.0
 10
1055.6432616816
 20
26.9269662216
 30
0.0
 10
1055.6432616816
 20
26.9269662216
 30
0.0
 10
1056.5224617924
 20
26.9269662216
 30
0.0
 10
1056.5224617924
 20
26.9269662216
 30
0.0
  0
SPLINE
  5
22A
100
AcDbEntity
  8
0
100
AcDbSpline
 62
7
  6
CONTINUOUS
 70
2
 71
3
 72
14
 73
10
 74
0
 42
0.0000001
 43
0.0000001
 44
0.0000000001
 40
0.0
 40
0.0
 40
0.0
 40
0.0
 40
1.0
 40
1.0
 40
1.0
 40
2.0
 40
2.0
 40
2.0
 40
3.0
 40
3.0
 40
3.0
 40
3.0
 10
1055.6553001412
 20
27.0944578337
 30
0.0
 10
1055.6829100866
 20
27.2593323894
 30
0.0
 10
1055.8107532937
 20
27.3823340421
 30
0.0
 10
1055.9829556074
 20
27.3823340421
 30
0.0
 10
1056.1601303284
 20
27.3823340421
 30
0.0
 10
1056.273579725
 20
27.2666601474
 30
0.0
 10
1056.300797112
 20
27.0944578337
 30
0.0
 10
1056.300797112
 20
27.0944578337
 30
0.0
 10
1055.6553001412
 20
27.0944578337
 30
0.0
 10
1055.6553001412
 20
27.0944578337
 30
0.0
  0
SPLINE
  5
22B
100
AcDbEntity
  8
0
100
AcDbSpline
 62
7
  6
CONTINUOUS
 70
2
 71
3
 72
20
 73
16
 74
0
 42
0.0000001
 43
0.0000001
 44
0.0000000001
 40
0.0
 40
0.0
 40
0.0
 40
0.0
 40
1.0
 40
1.0
 40
1.0
 40
2.0
 40
2.0
 40
2.0
 40
3.0
 40
3.0
 40
3.0
 40
4.0
 40
4.0
 40
4.0
 40
5.0
 40
5.0
 40
5.0
 40
5.0
 10
1058.5464932426
 20
27.3038223489
 30
0.0
 10
1058.5464932426
 20
27.3038223489
 30
0.0
 10
1058.9576328092
 20
26.8013475125
 30
0.0
 10
1058.9576328092
 20
26.8013475125
 30
0.0
 10
1058.8415663561
 20
26.6856736179
 30
0.0
 10
1058.7037783346
 20
26.5553442072
 30
0.0
 10
1058.5318377265
 20
26.5553442072
 30
0.0
 10
1058.3544012999
 20
26.5553442072
 30
0.0
 10
1058.1869096878
 20
26.7196953516
 30
0.0
 10
1058.1869096878
 20
26.8966083669
 30
0.0
 10
1058.1869096878
 20
27.0745682048
 30
0.0
 10
1058.3966667614
 20
27.2007103252
 30
0.0
 10
1058.5242482628
 20
27.2886434215
 30
0.0
 10
1058.5242482628
 20
27.2886434215
 30
0.0
 10
1058.5464932426
 20
27.3038223489
 30
0.0
 10
1058.5464932426
 20
27.3038223489
 30
0.0
  0
SPLINE
  5
22C
100
AcDbEntity
  8
0
100
AcDbSpline
 62
7
  6
CONTINUOUS
 70
2
 71
3
 72
23
 73
19
 74
0
 42
0.0000001
 43
0.0000001
 44
0.0000000001
 40
0.0
 40
0.0
 40
0.0
 40
0.0
 40
1.0
 40
1.0
 40
1.0
 40
2.0
 40
2.0
 40
2.0
 40
3.0
 40
3.0
 40
3.0
 40
4.0
 40
4.0
 40
4.0
 40
5.0
 40
5.0
 40
5.0
 40
6.0
 40
6.0
 40
6.0
 40
6.0
 10
1058.5958247565
 20
27.5948390249
 30
0.0
 10
1058.5958247565
 20
27.5948390249
 30
0.0
 10
1058.5341930773
 20
27.6733507181
 30
0.0
 10
1058.5341930773
 20
27.6733507181
 30
0.0
 10
1058.4802817147
 20
27.7419175968
 30
0.0
 10
1058.4234915899
 20
27.8110078868
 30
0.0
 10
1058.4234915899
 20
27.9046985074
 30
0.0
 10
1058.4234915899
 20
28.0235128697
 30
0.0
 10
1058.5194067084
 20
28.1009777403
 30
0.0
 10
1058.6303699015
 20
28.1009777403
 30
0.0
 10
1058.7536332598
 20
28.1009777403
 30
0.0
 10
1058.8469313218
 20
28.0297938052
 30
0.0
 10
1058.8469313218
 20
27.8994643945
 30
0.0
 10
1058.8469313218
 20
27.7644242822
 30
0.0
 10
1058.7188264091
 20
27.6880062342
 30
0.0
 10
1058.6252666414
 20
27.6142052426
 30
0.0
 10
1058.6252666414
 20
27.6142052426
 30
0.0
 10
1058.5958247565
 20
27.5948390249
 30
0.0
 10
1058.5958247565
 20
27.5948390249
 30
0.0
  0
SPLINE
  5
22D
100
AcDbEntity
  8
0
100
AcDbSpline
 62
7
  6
CONTINUOUS
 70
2
 71
3
 72
50
 73
46
 74
0
 42
0.0000001
 43
0.0000001
 44
0.0000000001
 40
0.0
 40
0.0
 40
0.0
 40
0.0
 40
1.0
 40
1.0
 40
1.0
 40
2.0
 40
2.0
 40
2.0
 40
3.0
 40
3.0
 40
3.0
 40
4.0
 40
4.0
 40
4.0
 40
5.0
 40
5.0
 40
5.0
 40
6.0
 40
6.0
 40
6.0
 40
7.0
 40
7.0
 40
7.0
 40
8.0
 40
8.0
 40
8.0
 40
9.0
 40
9.0
 40
9.0
 40
10.0
 40
10.0
 40
10.0
 40
11.0
 40
11.0
 40
11.0
 40
12.0
 40
12.0
 40
12.0
 40
13.0
 40
13.0
 40
13.0
 40
14.0
 40
14.0
 40
14.0
 40
15.0
 40
15.0
 40
15.0
 40
15.0
 10
1059.2979809991
 20
26.3878525951
 30
0.0
 10
1059.2979809991
 20
26.3878525951
 30
0.0
 10
1059.5833710038
 20
26.3878525951
 30
0.0
 10
1059.5833710038
 20
26.3878525951
 30
0.0
 10
1059.5833710038
 20
26.3878525951
 30
0.0
 10
1059.251004836
 20
26.7987304561
 30
0.0
 10
1059.251004836
 20
26.7987304561
 30
0.0
 10
1059.251004836
 20
26.7987304561
 30
0.0
 10
1059.4775110709
 20
27.0646233903
 30
0.0
 10
1059.4775110709
 20
27.0646233903
 30
0.0
 10
1059.4775110709
 20
27.0646233903
 30
0.0
 10
1059.3292548236
 20
27.2174594864
 30
0.0
 10
1059.3292548236
 20
27.2174594864
 30
0.0
 10
1059.3292548236
 20
27.2174594864
 30
0.0
 10
1059.1133476673
 20
26.9662220682
 30
0.0
 10
1059.1133476673
 20
26.9662220682
 30
0.0
 10
1059.1133476673
 20
26.9662220682
 30
0.0
 10
1058.72628502
 20
27.4341517596
 30
0.0
 10
1058.72628502
 20
27.4341517596
 30
0.0
 10
1058.8817381725
 20
27.5482554203
 30
0.0
 10
1059.0640161535
 20
27.6880062342
 30
0.0
 10
1059.0640161535
 20
27.8973707493
 30
0.0
 10
1059.0640161535
 20
28.1412804095
 30
0.0
 10
1058.8619793963
 20
28.2846951024
 30
0.0
 10
1058.6354731615
 20
28.2846951024
 30
0.0
 10
1058.3913017957
 20
28.2846951024
 30
0.0
 10
1058.2069301696
 20
28.1339526514
 30
0.0
 10
1058.2069301696
 20
27.8774811204
 30
0.0
 10
1058.2069301696
 20
27.7199343227
 30
0.0
 10
1058.3055931973
 20
27.582277154
 30
0.0
 10
1058.410929719
 20
27.471313961
 30
0.0
 10
1058.410929719
 20
27.471313961
 30
0.0
 10
1058.2953866772
 20
27.3875681549
 30
0.0
 10
1058.2953866772
 20
27.3875681549
 30
0.0
 10
1058.117688545
 20
27.2593323894
 30
0.0
 10
1057.9703482675
 20
27.1316200352
 30
0.0
 10
1057.9703482675
 20
26.8945147218
 30
0.0
 10
1057.9703482675
 20
26.5741870136
 30
0.0
 10
1058.2289134437
 20
26.3480733372
 30
0.0
 10
1058.5392963374
 20
26.3480733372
 30
0.0
 10
1058.7582131085
 20
26.3480733372
 30
0.0
 10
1058.9554083112
 20
26.473168635
 30
0.0
 10
1059.0956825364
 20
26.6390900133
 30
0.0
 10
1059.0956825364
 20
26.6390900133
 30
0.0
 10
1059.2979809991
 20
26.3878525951
 30
0.0
 10
1059.2979809991
 20
26.3878525951
 30
0.0
  0
LWPOLYLINE
  5
22E
100
AcDbEntity
  8
0
100
AcDbPolyline
 62
7
  6
CONTINUOUS
 90
2
 70
0
 43
0.2
 10
1061.2334250889
 20
28.2443924332
 10
1061.0020772996
 20
28.2443924332
  0
LWPOLYLINE
  5
22F
100
AcDbEntity
  8
0
100
AcDbPolyline
 62
7
  6
CONTINUOUS
 90
2
 70
0
 43
0.2
 10
1061.0020772996
 20
28.2443924332
 10
1061.0020772996
 20
26.3873291838
  0
LWPOLYLINE
  5
230
100
AcDbEntity
  8
0
100
AcDbPolyline
 62
7
  6
CONTINUOUS
 90
2
 70
0
 43
0.2
 10
1061.0020772996
 20
26.3873291838
 10
1061.7974007515
 20
26.3873291838
  0
LWPOLYLINE
  5
231
100
AcDbEntity
  8
0
100
AcDbPolyline
 62
7
  6
CONTINUOUS
 90
2
 70
0
 43
0.2
 10
1061.7974007515
 20
26.3873291838
 10
1061.7974007515
 20
26.5993107554
  0
LWPOLYLINE
  5
232
100
AcDbEntity
  8
0
100
AcDbPolyline
 62
7
  6
CONTINUOUS
 90
2
 70
0
 43
0.2
 10
1061.7974007515
 20
26.5993107554
 10
1061.2334250889
 20
26.5993107554
  0
LWPOLYLINE
  5
233
100
AcDbEntity
  8
0
100
AcDbPolyline
 62
7
  6
CONTINUOUS
 90
2
 70
0
 43
0.2
 10
1061.2334250889
 20
26.5993107554
 10
1061.2334250889
 20
28.2443924332
  0
LWPOLYLINE
  5
234
100
AcDbEntity
  8
0
100
AcDbPolyline
 62
7
  6
CONTINUOUS
 90
2
 70
0
 43
0.2
 10
1063.476504163
 20
27.5398808397
 10
1063.2553628939
 20
27.5398808397
  0
LWPOLYLINE
  5
235
100
AcDbEntity
  8
0
100
AcDbPolyline
 62
7
  6
CONTINUOUS
 90
2
 70
0
 43
0.2
 10
1063.2553628939
 20
27.5398808397
 10
1063.2553628939
 20
26.3878525951
  0
LWPOLYLINE
  5
236
100
AcDbEntity
  8
0
100
AcDbPolyline
 62
7
  6
CONTINUOUS
 90
2
 70
0
 43
0.2
 10
1063.2553628939
 20
26.3878525951
 10
1063.476504163
 20
26.3878525951
  0
LWPOLYLINE
  5
237
100
AcDbEntity
  8
0
100
AcDbPolyline
 62
7
  6
CONTINUOUS
 90
2
 70
0
 43
0.2
 10
1063.476504163
 20
26.3878525951
 10
1063.476504163
 20
27.5398808397
  0
LWPOLYLINE
  5
238
100
AcDbEntity
  8
0
100
AcDbPolyline
 62
7
  6
CONTINUOUS
 90
2
 70
1
 43
0.2
 10
1063.2134808858
 20
28.0698347687
 42
1.0
 10
1063.5186478767
 20
28.0698347687
 42
1.0
  0
SPLINE
  5
239
100
AcDbEntity
  8
0
100
AcDbSpline
 62
7
  6
CONTINUOUS
 70
2
 71
3
 72
17
 73
13
 74
0
 42
0.0000001
 43
0.0000001
 44
0.0000000001
 40
0.0
 40
0.0
 40
0.0
 40
0.0
 40
1.0
 40
1.0
 40
1.0
 40
2.0
 40
2.0
 40
2.0
 40
3.0
 40
3.0
 40
3.0
 40
4.0
 40
4.0
 40
4.0
 40
4.0
 10
1065.6067881047
 20
26.5453993928
 30
0.0
 10
1065.372823259
 20
26.5453993928
 30
0.0
 10
1065.2424938483
 20
26.7474361499
 30
0.0
 10
1065.2424938483
 20
26.9636050118
 30
0.0
 10
1065.2424938483
 20
27.1782036398
 30
0.0
 10
1065.3783190775
 20
27.3770999292
 30
0.0
 10
1065.6067881047
 20
27.3770999292
 30
0.0
 10
1065.8462487689
 20
27.3770999292
 30
0.0
 10
1065.9818122924
 20
27.1881484543
 30
0.0
 10
1065.9818122924
 20
26.9636050118
 30
0.0
 10
1065.9818122924
 20
26.7374913354
 30
0.0
 10
1065.8486041197
 20
26.5453993928
 30
0.0
 10
1065.6067881047
 20
26.5453993928
 30
0.0
  0
SPLINE
  5
23A
100
AcDbEntity
  8
0
100
AcDbSpline
 62
7
  6
CONTINUOUS
 70
2
 71
3
 72
50
 73
46
 74
0
 42
0.0000001
 43
0.0000001
 44
0.0000000001
 40
0.0
 40
0.0
 40
0.0
 40
0.0
 40
1.0
 40
1.0
 40
1.0
 40
2.0
 40
2.0
 40
2.0
 40
3.0
 40
3.0
 40
3.0
 40
4.0
 40
4.0
 40
4.0
 40
5.0
 40
5.0
 40
5.0
 40
6.0
 40
6.0
 40
6.0
 40
7.0
 40
7.0
 40
7.0
 40
8.0
 40
8.0
 40
8.0
 40
9.0
 40
9.0
 40
9.0
 40
10.0
 40
10.0
 40
10.0
 40
11.0
 40
11.0
 40
11.0
 40
12.0
 40
12.0
 40
12.0
 40
13.0
 40
13.0
 40
13.0
 40
14.0
 40
14.0
 40
14.0
 40
15.0
 40
15.0
 40
15.0
 40
15.0
 10
1066.1909151019
 20
27.540404251
 30
0.0
 10
1066.1909151019
 20
27.540404251
 30
0.0
 10
1065.9692504215
 20
27.540404251
 30
0.0
 10
1065.9692504215
 20
27.540404251
 30
0.0
 10
1065.9692504215
 20
27.540404251
 30
0.0
 10
1065.9692504215
 20
27.3430781955
 30
0.0
 10
1065.9692504215
 20
27.3430781955
 30
0.0
 10
1065.9692504215
 20
27.3430781955
 30
0.0
 10
1065.9645397199
 20
27.3430781955
 30
0.0
 10
1065.9645397199
 20
27.3430781955
 30
0.0
 10
1065.8732044502
 20
27.4859694771
 30
0.0
 10
1065.7352855758
 20
27.5744259847
 30
0.0
 10
1065.5625598508
 20
27.5744259847
 30
0.0
 10
1065.230193683
 20
27.5744259847
 30
0.0
 10
1065.0210908735
 20
27.2865497764
 30
0.0
 10
1065.0210908735
 20
26.9709327698
 30
0.0
 10
1065.0210908735
 20
26.6411836584
 30
0.0
 10
1065.2181552234
 20
26.3480733372
 30
0.0
 10
1065.5730280766
 20
26.3480733372
 30
0.0
 10
1065.7352855758
 20
26.3480733372
 30
0.0
 10
1065.8752980953
 20
26.4365298449
 30
0.0
 10
1065.9645397199
 20
26.5673826668
 30
0.0
 10
1065.9645397199
 20
26.5673826668
 30
0.0
 10
1065.9692504215
 20
26.5673826668
 30
0.0
 10
1065.9692504215
 20
26.5673826668
 30
0.0
 10
1065.9692504215
 20
26.5673826668
 30
0.0
 10
1065.9692504215
 20
26.3480733372
 30
0.0
 10
1065.9692504215
 20
26.3480733372
 30
0.0
 10
1065.9692504215
 20
26.1114914351
 30
0.0
 10
1065.9127220024
 20
25.9246336053
 30
0.0
 10
1065.6395013101
 20
25.9246336053
 30
0.0
 10
1065.4372028474
 20
25.9246336053
 30
0.0
 10
1065.2945732714
 20
26.0429245564
 30
0.0
 10
1065.2945732714
 20
26.2491486038
 30
0.0
 10
1065.2945732714
 20
26.2491486038
 30
0.0
 10
1065.072908591
 20
26.2491486038
 30
0.0
 10
1065.072908591
 20
26.2491486038
 30
0.0
 10
1065.0778809983
 20
25.9246336053
 30
0.0
 10
1065.3089670819
 20
25.7278309611
 30
0.0
 10
1065.62929479
 20
25.7278309611
 30
0.0
 10
1066.0773348525
 20
25.7278309611
 30
0.0
 10
1066.1909151019
 20
26.013090113
 30
0.0
 10
1066.1909151019
 20
26.4098358692
 30
0.0
 10
1066.1909151019
 20
26.4098358692
 30
0.0
 10
1066.1909151019
 20
27.540404251
 30
0.0
 10
1066.1909151019
 20
27.540404251
 30
0.0
  0
SPLINE
  5
23B
100
AcDbEntity
  8
0
100
AcDbSpline
 62
7
  6
CONTINUOUS
 70
2
 71
3
 72
44
 73
40
 74
0
 42
0.0000001
 43
0.0000001
 44
0.0000000001
 40
0.0
 40
0.0
 40
0.0
 40
0.0
 40
1.0
 40
1.0
 40
1.0
 40
2.0
 40
2.0
 40
2.0
 40
3.0
 40
3.0
 40
3.0
 40
4.0
 40
4.0
 40
4.0
 40
5.0
 40
5.0
 40
5.0
 40
6.0
 40
6.0
 40
6.0
 40
7.0
 40
7.0
 40
7.0
 40
8.0
 40
8.0
 40
8.0
 40
9.0
 40
9.0
 40
9.0
 40
10.0
 40
10.0
 40
10.0
 40
11.0
 40
11.0
 40
11.0
 40
12.0
 40
12.0
 40
12.0
 40
13.0
 40
13.0
 40
13.0
 40
13.0
 10
1067.7598404373
 20
28.5254642948
 30
0.0
 10
1067.7598404373
 20
28.5254642948
 30
0.0
 10
1067.7598404373
 20
26.3873291838
 30
0.0
 10
1067.7598404373
 20
26.3873291838
 30
0.0
 10
1067.7598404373
 20
26.3873291838
 30
0.0
 10
1067.9812434121
 20
26.3873291838
 30
0.0
 10
1067.9812434121
 20
26.3873291838
 30
0.0
 10
1067.9812434121
 20
26.3873291838
 30
0.0
 10
1067.9812434121
 20
26.9170214071
 30
0.0
 10
1067.9812434121
 20
26.9170214071
 30
0.0
 10
1067.9812434121
 20
27.1269093336
 30
0.0
 10
1067.9812434121
 20
27.3776233405
 30
0.0
 10
1068.266502564
 20
27.3776233405
 30
0.0
 10
1068.4934013573
 20
27.3776233405
 30
0.0
 10
1068.5203570386
 20
27.2446768734
 30
0.0
 10
1068.5203570386
 20
27.0483976404
 30
0.0
 10
1068.5203570386
 20
27.0483976404
 30
0.0
 10
1068.5203570386
 20
26.3873291838
 30
0.0
 10
1068.5203570386
 20
26.3873291838
 30
0.0
 10
1068.5203570386
 20
26.3873291838
 30
0.0
 10
1068.7422834246
 20
26.3873291838
 30
0.0
 10
1068.7422834246
 20
26.3873291838
 30
0.0
 10
1068.7422834246
 20
26.3873291838
 30
0.0
 10
1068.7422834246
 20
27.0745682048
 30
0.0
 10
1068.7422834246
 20
27.0745682048
 30
0.0
 10
1068.7422834246
 20
27.3551166551
 30
0.0
 10
1068.6582759129
 20
27.574949396
 30
0.0
 10
1068.3332375032
 20
27.574949396
 30
0.0
 10
1068.1934866893
 20
27.574949396
 30
0.0
 10
1068.0553061093
 20
27.5084761624
 30
0.0
 10
1067.9859541137
 20
27.3854745098
 30
0.0
 10
1067.9859541137
 20
27.3854745098
 30
0.0
 10
1067.9812434121
 20
27.3854745098
 30
0.0
 10
1067.9812434121
 20
27.3854745098
 30
0.0
 10
1067.9812434121
 20
27.3854745098
 30
0.0
 10
1067.9812434121
 20
28.5254642948
 30
0.0
 10
1067.9812434121
 20
28.5254642948
 30
0.0
 10
1067.9812434121
 20
28.5254642948
 30
0.0
 10
1067.7598404373
 20
28.5254642948
 30
0.0
 10
1067.7598404373
 20
28.5254642948
 30
0.0
  0
LWPOLYLINE
  5
23C
100
AcDbEntity
  8
0
100
AcDbPolyline
 62
7
  6
CONTINUOUS
 90
2
 70
0
 43
0.2
 10
1070.5820741015
 20
27.333133381
 10
1070.798504669
 20
27.333133381
  0
LWPOLYLINE
  5
23D
100
AcDbEntity
  8
0
100
AcDbPolyline
 62
7
  6
CONTINUOUS
 90
2
 70
0
 43
0.2
 10
1070.798504669
 20
27.333133381
 10
1070.798504669
 20
27.5398808397
  0
LWPOLYLINE
  5
23E
100
AcDbEntity
  8
0
100
AcDbPolyline
 62
7
  6
CONTINUOUS
 90
2
 70
0
 43
0.2
 10
1070.798504669
 20
27.5398808397
 10
1070.5820741015
 20
27.5398808397
  0
LWPOLYLINE
  5
23F
100
AcDbEntity
  8
0
100
AcDbPolyline
 62
7
  6
CONTINUOUS
 90
2
 70
0
 43
0.2
 10
1070.5820741015
 20
27.5398808397
 10
1070.5820741015
 20
27.9805931441
  0
LWPOLYLINE
  5
240
100
AcDbEntity
  8
0
100
AcDbPolyline
 62
7
  6
CONTINUOUS
 90
2
 70
0
 43
0.2
 10
1070.5820741015
 20
27.9805931441
 10
1070.3604094211
 20
27.9805931441
  0
LWPOLYLINE
  5
241
100
AcDbEntity
  8
0
100
AcDbPolyline
 62
7
  6
CONTINUOUS
 90
2
 70
0
 43
0.2
 10
1070.3604094211
 20
27.9805931441
 10
1070.3604094211
 20
27.5398808397
  0
LWPOLYLINE
  5
242
100
AcDbEntity
  8
0
100
AcDbPolyline
 62
7
  6
CONTINUOUS
 90
2
 70
0
 43
0.2
 10
1070.3604094211
 20
27.5398808397
 10
1070.2397631192
 20
27.5398808397
  0
LWPOLYLINE
  5
243
100
AcDbEntity
  8
0
100
AcDbPolyline
 62
7
  6
CONTINUOUS
 90
2
 70
0
 43
0.2
 10
1070.2397631192
 20
27.5398808397
 10
1070.2397631192
 20
27.333133381
  0
LWPOLYLINE
  5
244
100
AcDbEntity
  8
0
100
AcDbPolyline
 62
7
  6
CONTINUOUS
 90
2
 70
0
 43
0.2
 10
1070.2397631192
 20
27.333133381
 10
1070.3604094211
 20
27.333133381
  0
LWPOLYLINE
  5
245
100
AcDbEntity
  8
0
100
AcDbPolyline
 62
7
  6
CONTINUOUS
 90
2
 70
0
 43
0.2
 10
1070.3604094211
 20
27.333133381
 10
1070.3604094211
 20
26.3873291838
  0
LWPOLYLINE
  5
246
100
AcDbEntity
  8
0
100
AcDbPolyline
 62
7
  6
CONTINUOUS
 90
2
 70
0
 43
0.2
 10
1070.3604094211
 20
26.3873291838
 10
1070.5820741015
 20
26.3873291838
  0
LWPOLYLINE
  5
247
100
AcDbEntity
  8
0
100
AcDbPolyline
 62
7
  6
CONTINUOUS
 90
2
 70
0
 43
0.2
 10
1070.5820741015
 20
26.3873291838
 10
1070.5820741015
 20
27.333133381
  0
SPLINE
  5
248
100
AcDbEntity
  8
0
100
AcDbSpline
 62
7
  6
CONTINUOUS
 70
2
 71
3
 72
20
 73
16
 74
0
 42
0.0000001
 43
0.0000001
 44
0.0000000001
 40
0.0
 40
0.0
 40
0.0
 40
0.0
 40
1.0
 40
1.0
 40
1.0
 40
2.0
 40
2.0
 40
2.0
 40
3.0
 40
3.0
 40
3.0
 40
4.0
 40
4.0
 40
4.0
 40
5.0
 40
5.0
 40
5.0
 40
5.0
 10
1058.3640844088
 20
36.7482556272
 30
0.0
 10
1058.3640844088
 20
36.7482556272
 30
0.0
 10
1060.6804410632
 20
33.918694205
 30
0.0
 10
1060.6804410632
 20
33.918694205
 30
0.0
 10
1060.0287940098
 20
33.2665237403
 30
0.0
 10
1059.2519208058
 20
32.5306074696
 30
0.0
 10
1058.2807311612
 20
32.5306074696
 30
0.0
 10
1057.2821932767
 20
32.5306074696
 30
0.0
 10
1056.3388752832
 20
33.4601859168
 30
0.0
 10
1056.3388752832
 20
34.4593780654
 30
0.0
 10
1056.3388752832
 20
35.4585702139
 30
0.0
 10
1057.5177283563
 20
36.1651754525
 30
0.0
 10
1058.2392508166
 20
36.6650332324
 30
0.0
 10
1058.2392508166
 20
36.6650332324
 30
0.0
 10
1058.3640844088
 20
36.7482556272
 30
0.0
 10
1058.3640844088
 20
36.7482556272
 30
0.0
  0
SPLINE
  5
249
100
AcDbEntity
  8
0
100
AcDbSpline
 62
7
  6
CONTINUOUS
 70
2
 71
3
 72
23
 73
19
 74
0
 42
0.0000001
 43
0.0000001
 44
0.0000000001
 40
0.0
 40
0.0
 40
0.0
 40
0.0
 40
1.0
 40
1.0
 40
1.0
 40
2.0
 40
2.0
 40
2.0
 40
3.0
 40
3.0
 40
3.0
 40
4.0
 40
4.0
 40
4.0
 40
5.0
 40
5.0
 40
5.0
 40
6.0
 40
6.0
 40
6.0
 40
6.0
 10
1058.6414923913
 20
38.386009547
 30
0.0
 10
1058.6414923913
 20
38.386009547
 30
0.0
 10
1058.2949941188
 20
38.8293389078
 30
0.0
 10
1058.2949941188
 20
38.8293389078
 30
0.0
 10
1057.9891910738
 20
39.2174483777
 30
0.0
 10
1057.6703027467
 20
39.6059504062
 30
0.0
 10
1057.6703027467
 20
40.1328947202
 30
0.0
 10
1057.6703027467
 20
40.7990664369
 30
0.0
 10
1058.2116408712
 20
41.2427883562
 30
0.0
 10
1058.8355471263
 20
41.2427883562
 30
0.0
 10
1059.5293287884
 20
41.2427883562
 30
0.0
 10
1060.0565348081
 20
40.8405467814
 30
0.0
 10
1060.0565348081
 20
40.1055464804
 30
0.0
 10
1060.0565348081
 20
39.3422819699
 30
0.0
 10
1059.3352740534
 20
38.9121687441
 30
0.0
 10
1058.8081988865
 20
38.4964493287
 30
0.0
 10
1058.8081988865
 20
38.4964493287
 30
0.0
 10
1058.6414923913
 20
38.386009547
 30
0.0
 10
1058.6414923913
 20
38.386009547
 30
0.0
  0
SPLINE
  5
24A
100
AcDbEntity
  8
0
100
AcDbSpline
 62
7
  6
CONTINUOUS
 70
2
 71
3
 72
50
 73
46
 74
0
 42
0.0000001
 43
0.0000001
 44
0.0000000001
 40
0.0
 40
0.0
 40
0.0
 40
0.0
 40
1.0
 40
1.0
 40
1.0
 40
2.0
 40
2.0
 40
2.0
 40
3.0
 40
3.0
 40
3.0
 40
4.0
 40
4.0
 40
4.0
 40
5.0
 40
5.0
 40
5.0
 40
6.0
 40
6.0
 40
6.0
 40
7.0
 40
7.0
 40
7.0
 40
8.0
 40
8.0
 40
8.0
 40
9.0
 40
9.0
 40
9.0
 40
10.0
 40
10.0
 40
10.0
 40
11.0
 40
11.0
 40
11.0
 40
12.0
 40
12.0
 40
12.0
 40
13.0
 40
13.0
 40
13.0
 40
14.0
 40
14.0
 40
14.0
 40
15.0
 40
15.0
 40
15.0
 40
15.0
 10
1062.5950795543
 20
31.5874203288
 30
0.0
 10
1062.5950795543
 20
31.5874203288
 30
0.0
 10
1064.2043075588
 20
31.5874203288
 30
0.0
 10
1064.2043075588
 20
31.5874203288
 30
0.0
 10
1064.2043075588
 20
31.5874203288
 30
0.0
 10
1062.3312802652
 20
33.9045621002
 30
0.0
 10
1062.3312802652
 20
33.9045621002
 30
0.0
 10
1062.3312802652
 20
33.9045621002
 30
0.0
 10
1063.6076186906
 20
35.4020417948
 30
0.0
 10
1063.6076186906
 20
35.4020417948
 30
0.0
 10
1063.6076186906
 20
35.4020417948
 30
0.0
 10
1062.7753947429
 20
36.2630533634
 30
0.0
 10
1062.7753947429
 20
36.2630533634
 30
0.0
 10
1062.7753947429
 20
36.2630533634
 30
0.0
 10
1061.5547996196
 20
34.847749241
 30
0.0
 10
1061.5547996196
 20
34.847749241
 30
0.0
 10
1061.5547996196
 20
34.847749241
 30
0.0
 10
1059.3768852508
 20
37.4831250754
 30
0.0
 10
1059.3768852508
 20
37.4831250754
 30
0.0
 10
1060.2504586902
 20
38.1211634353
 30
0.0
 10
1061.2771299314
 20
38.9121687441
 30
0.0
 10
1061.2771299314
 20
40.0910218172
 30
0.0
 10
1061.2771299314
 20
41.4647147422
 30
0.0
 10
1060.1392337916
 20
42.2691978917
 30
0.0
 10
1058.8639421887
 20
42.2691978917
 30
0.0
 10
1057.4905109693
 20
42.2691978917
 30
0.0
 10
1056.4495767705
 20
41.422972692
 30
0.0
 10
1056.4495767705
 20
39.9803203298
 30
0.0
 10
1056.4495767705
 20
39.0927456384
 30
0.0
 10
1057.004916147
 20
38.3158724344
 30
0.0
 10
1057.6010816039
 20
37.691442768
 30
0.0
 10
1057.6010816039
 20
37.691442768
 30
0.0
 10
1056.9491728448
 20
37.2198491976
 30
0.0
 10
1056.9491728448
 20
37.2198491976
 30
0.0
 10
1055.9506349604
 20
36.4985884429
 30
0.0
 10
1055.1177567486
 20
35.7773276882
 30
0.0
 10
1055.1177567486
 20
34.4457693719
 30
0.0
 10
1055.1177567486
 20
32.6420940739
 30
0.0
 10
1056.5748029212
 20
31.3654939428
 30
0.0
 10
1058.3223423585
 20
31.3654939428
 30
0.0
 10
1059.5572004395
 20
31.3654939428
 30
0.0
 10
1060.6665706641
 20
32.0736694152
 30
0.0
 10
1061.4574451201
 20
33.0022010399
 30
0.0
 10
1061.4574451201
 20
33.0022010399
 30
0.0
 10
1062.5950795543
 20
31.5874203288
 30
0.0
 10
1062.5950795543
 20
31.5874203288
 30
0.0
  0
LINE
  5
24B
100
AcDbEntity
  8
0
100
AcDbLine
 62
7
  6
CONTINUOUS
 10
1048.3979409292
 20
29.5612952335
 11
1070.8118516569
 21
29.5612952335
  0
LINE
  5
24C
100
AcDbEntity
  8
0
100
AcDbLine
 62
7
  6
CONTINUOUS
 10
1070.8118516569
 20
29.5612952335
 11
1070.8118516569
 21
51.9752059611
  0
LINE
  5
24D
100
AcDbEntity
  8
0
100
AcDbLine
 62
7
  6
CONTINUOUS
 10
1070.8118516569
 20
51.9752059611
 11
1048.3979409292
 21
51.9752059611
  0
LINE
  5
24E
100
AcDbEntity
  8
0
100
AcDbLine
 62
7
  6
CONTINUOUS
 10
1048.3979409292
 20
51.9752059611
 11
1048.3979409292
 21
29.5612952335
  0
ENDBLK
  5
24F
100
AcDbEntity
  8
0
  6
BYBLOCK
 62
0
100
AcDbBlockEnd
  0
BLOCK
  5
250
100
AcDbEntity
  8
0
100
AcDbBlockBegin
  2
_CLOSED
 70
64
 10
0.0
 20
0.0
  3
_CLOSED
  1

  0
LINE
  5
251
100
AcDbEntity
  8
0
  6
BYBLOCK
 62
0
100
AcDbLine
 10
0.0
 20
0.0
 11
-1.0
 21
0.2
  0
LINE
  5
252
100
AcDbEntity
  8
0
  6
BYBLOCK
 62
0
100
AcDbLine
 10
-1.0
 20
0.2
 11
-1.0
 21
-0.2
  0
LINE
  5
253
100
AcDbEntity
  8
0
  6
BYBLOCK
 62
0
100
AcDbLine
 10
-1.0
 20
-0.2
 11
0.0
 21
0.0
  0
LINE
  5
254
100
AcDbEntity
  8
0
  6
BYBLOCK
 62
0
100
AcDbLine
 10
-1.0
 20
0.0
 11
0.0
 21
0.0
  0
ENDBLK
  5
255
100
AcDbEntity
  8
0
  6
BYBLOCK
 62
0
100
AcDbBlockEnd
  0
BLOCK
  5
256
100
AcDbEntity
  8
0
100
AcDbBlockBegin
 62
7
  6
CONTINUOUS
  2
*D0
 70
65
 10
0.0
 20
0.0
  3
*D0
  1

  0
MTEXT
  5
257
100
AcDbEntity
  8
0
100
AcDbMText
 62
7
  6
CONTINUOUS
  7
STANDARD
 71
2
 72
1
 10
245.4140660625
 20
345.1748991935
 30
0.0
 11
0.0
 21
1.0
 31
0.0
  1
643,8
 40
10.0
 41
34.9442379182
  0
LINE
  5
258
100
AcDbEntity
  8
0
100
AcDbLine
 62
7
  6
CONTINUOUS
 10
283.0092741935
 20
667.0748991935
 11
257.1640660625
 21
667.0748991935
  0
LINE
  5
259
100
AcDbEntity
  8
0
100
AcDbLine
 62
7
  6
CONTINUOUS
 10
281.5969758064
 20
23.2748991935
 11
257.1640660625
 21
23.2748991935
  0
LINE
  5
25A
100
AcDbEntity
  8
0
100
AcDbLine
 62
7
  6
CONTINUOUS
 10
257.9140660625
 20
667.0748991935
 11
257.9140660625
 21
345.1748991935
  0
LINE
  5
25B
100
AcDbEntity
  8
0
100
AcDbLine
 62
7
  6
CONTINUOUS
 10
257.9140660625
 20
23.2748991935
 11
257.9140660625
 21
345.1748991935
  0
INSERT
  5
25C
100
AcDbEntity
  8
0
100
AcDbBlockReference
 62
7
  6
CONTINUOUS
  2
_CLOSED
 10
257.9140660625
 20
667.0748991935
 41
2.5
 42
2.5
 43
2.5
 50
90.0
  0
INSERT
  5
25D
100
AcDbEntity
  8
0
100
AcDbBlockReference
 62
7
  6
CONTINUOUS
  2
_CLOSED
 10
257.9140660625
 20
23.2748991935
 41
2.5
 42
2.5
 43
2.5
 50
270.0
  0
ENDBLK
  5
25E
100
AcDbEntity
  8
0
  6
BYBLOCK
 62
0
100
AcDbBlockEnd
  0
BLOCK
  5
25F
100
AcDbEntity
  8
0
100
AcDbBlockBegin
 62
7
  6
CONTINUOUS
  2
*D1
 70
65
 10
0.0
 20
0.0
  3
*D1
  1

  0
MTEXT
  5
260
100
AcDbEntity
  8
0
100
AcDbMText
 62
7
  6
CONTINUOUS
  7
STANDARD
 71
2
 72
1
 10
620.1663306452
 20
706.1947653654
 30
0.0
 11
1.0
 21
0.0
 31
0.0
  1
643,8
 40
10.0
 41
34.9442379182
  0
LINE
  5
261
100
AcDbEntity
  8
0
100
AcDbLine
 62
7
  6
CONTINUOUS
 10
298.2663306452
 20
675.1997321786
 11
298.2663306452
 21
694.4447653654
  0
LINE
  5
262
100
AcDbEntity
  8
0
100
AcDbLine
 62
7
  6
CONTINUOUS
 10
942.0663306452
 20
675.1997321786
 11
942.0663306452
 21
694.4447653654
  0
LINE
  5
263
100
AcDbEntity
  8
0
100
AcDbLine
 62
7
  6
CONTINUOUS
 10
298.2663306452
 20
693.6947653654
 11
620.1663306452
 21
693.6947653654
  0
LINE
  5
264
100
AcDbEntity
  8
0
100
AcDbLine
 62
7
  6
CONTINUOUS
 10
942.0663306452
 20
693.6947653654
 11
620.1663306452
 21
693.6947653654
  0
INSERT
  5
265
100
AcDbEntity
  8
0
100
AcDbBlockReference
 62
7
  6
CONTINUOUS
  2
_CLOSED
 10
298.2663306452
 20
693.6947653654
 41
2.5
 42
2.5
 43
2.5
 50
180.0
  0
INSERT
  5
266
100
AcDbEntity
  8
0
100
AcDbBlockReference
 62
7
  6
CONTINUOUS
  2
_CLOSED
 10
942.0663306452
 20
693.6947653654
 41
2.5
 42
2.5
 43
2.5
  0
ENDBLK
  5
267
100
AcDbEntity
  8
0
  6
BYBLOCK
 62
0
100
AcDbBlockEnd
  0
BLOCK
  5
268
100
AcDbEntity
  8
0
100
AcDbBlockBegin
 62
7
  6
CONTINUOUS
  2
*D2
 70
65
 10
0.0
 20
0.0
  3
*D2
  1

  0
MTEXT
  5
269
100
AcDbEntity
  8
0
100
AcDbMText
 62
7
  6
CONTINUOUS
  7
STANDARD
 71
2
 72
1
 10
124.6945564516
 20
706.1947653654
 30
0.0
 11
1.0
 21
0.0
 31
0.0
  1
82,1
 40
10.0
 41
27.1747211896
  0
LINE
  5
26A
100
AcDbEntity
  8
0
100
AcDbLine
 62
7
  6
CONTINUOUS
 10
83.6445564516
 20
675.1997321786
 11
83.6445564516
 21
694.4447653654
  0
LINE
  5
26B
100
AcDbEntity
  8
0
100
AcDbLine
 62
7
  6
CONTINUOUS
 10
165.7445564516
 20
678.6911958356
 11
165.7445564516
 21
694.4447653654
  0
LINE
  5
26C
100
AcDbEntity
  8
0
100
AcDbLine
 62
7
  6
CONTINUOUS
 10
83.6445564516
 20
693.6947653654
 11
124.6945564516
 21
693.6947653654
  0
LINE
  5
26D
100
AcDbEntity
  8
0
100
AcDbLine
 62
7
  6
CONTINUOUS
 10
165.7445564516
 20
693.6947653654
 11
124.6945564516
 21
693.6947653654
  0
INSERT
  5
26E
100
AcDbEntity
  8
0
100
AcDbBlockReference
 62
7
  6
CONTINUOUS
  2
_CLOSED
 10
83.6445564516
 20
693.6947653654
 41
2.5
 42
2.5
 43
2.5
 50
180.0
  0
INSERT
  5
26F
100
AcDbEntity
  8
0
100
AcDbBlockReference
 62
7
  6
CONTINUOUS
  2
_CLOSED
 10
165.7445564516
 20
693.6947653654
 41
2.5
 42
2.5
 43
2.5
  0
ENDBLK
  5
270
100
AcDbEntity
  8
0
  6
BYBLOCK
 62
0
100
AcDbBlockEnd
  0
ENDSEC
  0
SECTION
  2
ENTITIES
  0
DIMENSION
  5
271
100
AcDbEntity
  8
0
100
AcDbDimension
 62
7
  6
CONTINUOUS
  2
*D0
 10
257.9140660625
 20
23.2748991935
 11
257.9140660625
 21
345.0793335491
 70
160
  3
DIMSTYLE_1
100
AcDbAlignedDimension
 13
283.7592741935
 23
667.0748991935
 14
282.3469758064
 24
23.2748991935
 50
270.0
100
AcDbRotatedDimension
  0
DIMENSION
  5
272
100
AcDbEntity
  8
0
100
AcDbDimension
 62
7
  6
CONTINUOUS
  2
*D1
 10
942.0663306452
 20
693.6947653654
 11
620.0707570801
 21
693.6947653654
 70
160
  3
DIMSTYLE_1
100
AcDbAlignedDimension
 13
298.2663306452
 23
674.4497321786
 14
942.0663306452
 24
674.4497321786
100
AcDbRotatedDimension
  0
DIMENSION
  5
273
100
AcDbEntity
  8
0
100
AcDbDimension
 62
7
  6
CONTINUOUS
  2
*D2
 10
165.7445564516
 20
693.6947653654
 11
123.6778528824
 21
693.6947653654
 70
160
  3
DIMSTYLE_2
100
AcDbAlignedDimension
 13
83.6445564516
 23
674.4497321786
 14
165.7445564516
 24
677.9411958356
100
AcDbRotatedDimension
  0
LINE
  5
274
100
AcDbEntity
  8
0
100
AcDbLine
 62
2
  6
CONTINUOUS
 10
1045.7787838219
 20
52.3515184611
 11
1135.7787838219
 21
52.3515184611
  0
LINE
  5
275
100
AcDbEntity
  8
0
100
AcDbLine
 62
2
  6
CONTINUOUS
 10
1045.7787838219
 20
52.3515184611
 11
1045.7787838219
 21
12.3515184611
  0
LINE
  5
276
100
AcDbEntity
  8
0
100
AcDbLine
 62
2
  6
CONTINUOUS
 10
1075.7787838219
 20
46.3515184611
 11
1135.7787838219
 21
46.3515184611
  0
LINE
  5
277
100
AcDbEntity
  8
0
100
AcDbLine
 62
2
  6
CONTINUOUS
 10
1075.7787838219
 20
40.3515184611
 11
1135.7787838219
 21
40.3515184611
  0
LINE
  5
278
100
AcDbEntity
  8
0
100
AcDbLine
 62
2
  6
CONTINUOUS
 10
1075.7787838219
 20
30.3515184611
 11
1135.7787838219
 21
30.3515184611
  0
LINE
  5
279
100
AcDbEntity
  8
0
100
AcDbLine
 62
2
  6
CONTINUOUS
 10
1045.7787838219
 20
25.3515184611
 11
1135.7787838219
 21
25.3515184611
  0
LINE
  5
27A
100
AcDbEntity
  8
0
100
AcDbLine
 62
2
  6
CONTINUOUS
 10
1045.7787838219
 20
12.3515184611
 11
1135.7787838219
 21
12.3515184611
  0
LINE
  5
27B
100
AcDbEntity
  8
0
100
AcDbLine
 62
2
  6
CONTINUOUS
 10
1075.7787838219
 20
52.3515184611
 11
1075.7787838219
 21
25.3515184611
  0
LINE
  5
27C
100
AcDbEntity
  8
0
100
AcDbLine
 62
2
  6
CONTINUOUS
 10
1115.7787838219
 20
52.3515184611
 11
1115.7787838219
 21
40.3515184611
  0
LINE
  5
27D
100
AcDbEntity
  8
0
100
AcDbLine
 62
2
  6
CONTINUOUS
 10
1135.7787838219
 20
52.3515184611
 11
1135.7787838219
 21
12.3515184611
  0
INSERT
  5
27E
100
AcDbEntity
  8
0
100
AcDbBlockReference
 62
2
  6
CONTINUOUS
  2
LOGO2_BL0
 10
1059.6048308666
 20
38.8515184611
  0
MTEXT
  5
27F
100
AcDbEntity
  8
9_SOLID
100
AcDbMText
 62
2
  6
CONTINUOUS
  7
TEXTSTYLE_2
 71
1
 72
1
 10
1077.2662838219
 20
50.8515184611
 30
0.0
 11
1.0
 21
0.0
 31
0.0
  1
6F3_C_410
 40
3.0
 41
31.2857142857
  0
MTEXT
  5
280
100
AcDbEntity
  8
0
100
AcDbMText
 62
2
  6
CONTINUOUS
  7
TEXTSTYLE_2
 71
1
 72
1
 10
1117.2662838219
 20
50.6015184611
 30
0.0
 11
1.0
 21
0.0
 31
0.0
  1
Rev:00
 40
3.5
 41
22.75
  0
MTEXT
  5
281
100
AcDbEntity
  8
9_SOLID
100
AcDbMText
 62
2
  6
CONTINUOUS
  7
TEXTSTYLE_2
 71
1
 72
1
 10
1077.2662838219
 20
44.6015184611
 30
0.0
 11
1.0
 21
0.0
 31
0.0
  1
Scale:1:1
 40
3.5
 41
28.375
  0
MTEXT
  5
282
100
AcDbEntity
  8
9_SOLID
100
AcDbMText
 62
2
  6
CONTINUOUS
  7
TEXTSTYLE_2
 71
1
 72
1
 10
1117.2662838219
 20
45.1015184611
 30
0.0
 11
1.0
 21
0.0
 31
0.0
  1
A0
 40
3.5
 41
9.625
  0
MTEXT
  5
283
100
AcDbEntity
  8
0
100
AcDbMText
 62
2
  6
CONTINUOUS
  7
TEXTSTYLE_2
 71
1
 72
1
 10
1077.2662838219
 20
37.1015184611
 30
0.0
 11
1.0
 21
0.0
 31
0.0
  1
CASS. A FILO BRENTA1   A SCENDERE 90°
 40
3.5
 41
151.3375
  0
MTEXT
  5
284
100
AcDbEntity
  8
0
100
AcDbMText
 62
2
  6
CONTINUOUS
  7
TEXTSTYLE_2
 71
1
 72
1
 10
1077.2662838219
 20
29.1015184611
 30
0.0
 11
1.0
 21
0.0
 31
0.0
  1
DATE:08/05/18
 40
2.5
 41
36.875
  0
MTEXT
  5
285
100
AcDbEntity
  8
9_SOLID
100
AcDbMText
 62
2
  6
CONTINUOUS
  7
TEXTSTYLE_2
 71
1
 72
1
 10
1047.2662838219
 20
25.0390184611
 30
0.0
 11
1.0
 21
0.0
 31
0.0
  1
Any integral or partial reproductions are prohibited \Pwithout prior authorisation of L {\Ftxt.shx;\W0.190476;\H2.250000; }& L Luce & Light s.r.l., \Pin accordance with the law in force. \PAll rights reserved.
 40
2.25
 41
134.5982142857
  0
LINE
  5
286
100
AcDbEntity
  8
0
100
AcDbLine
 62
7
  6
CONTINUOUS
 10
0.0
 20
0.0
 11
0.0
 21
841.0
  0
LINE
  5
287
100
AcDbEntity
  8
0
100
AcDbLine
 62
7
  6
CONTINUOUS
 10
0.0
 20
0.0
 11
1189.0
 21
0.0
  0
LINE
  5
288
100
AcDbEntity
  8
0
100
AcDbLine
 62
7
  6
CONTINUOUS
 10
0.0
 20
841.0
 11
1189.0
 21
841.0
  0
LINE
  5
289
100
AcDbEntity
  8
0
100
AcDbLine
 62
7
  6
CONTINUOUS
 10
1189.0
 20
0.0
 11
1189.0
 21
841.0
  0
LINE
  5
28A
100
AcDbEntity
  8
7_ALL_FEATURES
100
AcDbLine
 62
7
  6
CONTINUOUS
 10
346.5663306452
 20
636.3069500011
 11
345.0663306452
 21
635.4409245973
  0
LINE
  5
28B
100
AcDbEntity
  8
7_ALL_FEATURES
100
AcDbLine
 62
7
  6
CONTINUOUS
 10
346.5663306452
 20
632.842848386
 11
348.0663306452
 21
633.7088737898
  0
LINE
  5
28C
100
AcDbEntity
  8
7_ALL_FEATURES
100
AcDbLine
 62
7
  6
CONTINUOUS
 10
330.7663306452
 20
608.0069500011
 11
329.2663306452
 21
607.1409245973
  0
LINE
  5
28D
100
AcDbEntity
  8
7_ALL_FEATURES
100
AcDbLine
 62
7
  6
CONTINUOUS
 10
330.7663306452
 20
604.542848386
 11
332.2663306452
 21
605.4088737898
  0
LINE
  5
28E
100
AcDbEntity
  8
7_ALL_FEATURES
100
AcDbLine
 62
7
  6
CONTINUOUS
 10
298.2663306452
 20
23.2748991935
 11
298.2663306452
 21
667.0748991935
  0
LINE
  5
28F
100
AcDbEntity
  8
7_ALL_FEATURES
100
AcDbLine
 62
9
  6
CONTINUOUS
 10
298.5663306452
 20
23.2748991935
 11
298.5663306452
 21
666.7748991935
  0
LINE
  5
290
100
AcDbEntity
  8
7_ALL_FEATURES
100
AcDbLine
 62
9
  6
CONTINUOUS
 10
299.2663306452
 20
666.0748991935
 11
299.2663306452
 21
23.2748991935
  0
LINE
  5
291
100
AcDbEntity
  8
7_ALL_FEATURES
100
AcDbLine
 62
7
  6
CONTINUOUS
 10
299.7663306452
 20
665.5748991935
 11
299.7663306452
 21
23.2748991935
  0
LINE
  5
292
100
AcDbEntity
  8
7_ALL_FEATURES
100
AcDbLine
 62
9
  6
CONTINUOUS
 10
300.2018145161
 20
23.2748991935
 11
300.2018145161
 21
665.1394153226
  0
LINE
  5
293
100
AcDbEntity
  8
7_ALL_FEATURES
100
AcDbLine
 62
9
  6
CONTINUOUS
 10
303.2276209677
 20
23.2748991935
 11
303.2276209677
 21
662.113608871
  0
LINE
  5
294
100
AcDbEntity
  8
7_ALL_FEATURES
100
AcDbLine
 62
9
  6
CONTINUOUS
 10
303.6901296442
 20
661.6511001945
 11
303.6901296442
 21
23.2748991935
  0
LINE
  5
295
100
AcDbEntity
  8
7_ALL_FEATURES
100
AcDbLine
 62
9
  6
CONTINUOUS
 10
304.3863533603
 20
660.9548764784
 11
304.3863533603
 21
23.2748991935
  0
LINE
  5
296
100
AcDbEntity
  8
7_ALL_FEATURES
100
AcDbLine
 62
3
  6
CONTINUOUS
 10
317.7663306452
 20
592.0748991935
 11
317.7663306452
 21
647.0748991935
  0
LINE
  5
297
100
AcDbEntity
  8
7_ALL_FEATURES
100
AcDbLine
 62
9
  6
CONTINUOUS
 10
318.0386186462
 20
647.3026111925
 11
318.0386186462
 21
647.0748991935
  0
LINE
  5
298
100
AcDbEntity
  8
7_ALL_FEATURES
100
AcDbLine
 62
9
  6
CONTINUOUS
 10
318.0386186462
 20
592.0748991935
 11
318.0386186462
 21
23.2748991935
  0
LINE
  5
299
100
AcDbEntity
  8
7_ALL_FEATURES
100
AcDbLine
 62
9
  6
CONTINUOUS
 10
319.1208167159
 20
592.0748991935
 11
319.1208167159
 21
23.2748991935
  0
LINE
  5
29A
100
AcDbEntity
  8
6_ALL_SURFS
100
AcDbLine
 62
7
  6
CONTINUOUS
 10
298.2663306452
 20
23.2748991935
 11
378.0663306452
 21
23.2748991935
  0
LINE
  5
29B
100
AcDbEntity
  8
7_ALL_FEATURES
100
AcDbLine
 62
7
  6
CONTINUOUS
 10
329.2663306452
 20
607.1409245973
 11
329.2663306452
 21
605.4088737898
  0
LINE
  5
29C
100
AcDbEntity
  8
7_ALL_FEATURES
100
AcDbLine
 62
7
  6
CONTINUOUS
 10
332.2663306452
 20
605.4088737898
 11
332.2663306452
 21
607.1409245973
  0
LINE
  5
29D
100
AcDbEntity
  8
7_ALL_FEATURES
100
AcDbLine
 62
3
  6
CONTINUOUS
 10
342.7663306452
 20
622.0748991935
 11
342.7663306452
 21
592.0748991935
  0
LINE
  5
29E
100
AcDbEntity
  8
7_ALL_FEATURES
100
AcDbLine
 62
7
  6
CONTINUOUS
 10
345.0663306452
 20
635.4409245973
 11
345.0663306452
 21
633.7088737898
  0
LINE
  5
29F
100
AcDbEntity
  8
7_ALL_FEATURES
100
AcDbLine
 62
7
  6
CONTINUOUS
 10
348.0663306452
 20
633.7088737898
 11
348.0663306452
 21
635.4409245973
  0
LINE
  5
2A0
100
AcDbEntity
  8
7_ALL_FEATURES
100
AcDbLine
 62
9
  6
CONTINUOUS
 10
363.8663306452
 20
23.2748991935
 11
363.8663306452
 21
601.4748991935
  0
LINE
  5
2A1
100
AcDbEntity
  8
7_ALL_FEATURES
100
AcDbLine
 62
7
  6
CONTINUOUS
 10
364.1663306452
 20
601.1748991935
 11
364.1663306452
 21
23.2748991935
  0
LINE
  5
2A2
100
AcDbEntity
  8
7_ALL_FEATURES
100
AcDbLine
 62
9
  6
CONTINUOUS
 10
366.1663306452
 20
599.1748991935
 11
366.1663306452
 21
23.2748991935
  0
LINE
  5
2A3
100
AcDbEntity
  8
7_ALL_FEATURES
100
AcDbLine
 62
9
  6
CONTINUOUS
 10
367.9663306452
 20
597.3748991935
 11
367.9663306452
 21
23.2748991935
  0
LINE
  5
2A4
100
AcDbEntity
  8
7_ALL_FEATURES
100
AcDbLine
 62
7
  6
CONTINUOUS
 10
369.9663306452
 20
595.3748991935
 11
369.9663306452
 21
23.2748991935
  0
LINE
  5
2A5
100
AcDbEntity
  8
7_ALL_FEATURES
100
AcDbLine
 62
9
  6
CONTINUOUS
 10
370.2663306452
 20
23.2748991935
 11
370.2663306452
 21
595.0748991935
  0
LINE
  5
2A6
100
AcDbEntity
  8
7_ALL_FEATURES
100
AcDbLine
 62
9
  6
CONTINUOUS
 10
370.4561409839
 20
23.2748991935
 11
370.4561409839
 21
594.8850888548
  0
LINE
  5
2A7
100
AcDbEntity
  8
7_ALL_FEATURES
100
AcDbLine
 62
9
  6
CONTINUOUS
 10
370.7971401639
 20
23.2748991935
 11
370.7971401639
 21
594.5440896748
  0
LINE
  5
2A8
100
AcDbEntity
  8
7_ALL_FEATURES
100
AcDbLine
 62
3
  6
CONTINUOUS
 10
372.7663306452
 20
647.0748991935
 11
372.7663306452
 21
622.0748991935
  0
LINE
  5
2A9
100
AcDbEntity
  8
7_ALL_FEATURES
100
AcDbLine
 62
9
  6
CONTINUOUS
 10
373.3308336541
 20
592.0103961846
 11
373.3308336541
 21
23.2748991935
  0
LINE
  5
2AA
100
AcDbEntity
  8
7_ALL_FEATURES
100
AcDbLine
 62
9
  6
CONTINUOUS
 10
374.3538311942
 20
590.9873986445
 11
374.3538311942
 21
23.2748991935
  0
LINE
  5
2AB
100
AcDbEntity
  8
7_ALL_FEATURES
100
AcDbLine
 62
9
  6
CONTINUOUS
 10
375.2663306452
 20
23.2748991935
 11
375.2663306452
 21
590.0748991935
  0
LINE
  5
2AC
100
AcDbEntity
  8
6_ALL_SURFS
100
AcDbLine
 62
7
  6
CONTINUOUS
 10
375.4163306452
 20
23.2748991935
 11
375.4163306452
 21
64.1087088146
  0
LINE
  5
2AD
100
AcDbEntity
  8
7_ALL_FEATURES
100
AcDbLine
 62
7
  6
CONTINUOUS
 10
375.4163306452
 20
64.1087088146
 11
375.4163306452
 21
66.4410895725
  0
LINE
  5
2AE
100
AcDbEntity
  8
6_ALL_SURFS
100
AcDbLine
 62
7
  6
CONTINUOUS
 10
375.4163306452
 20
66.4410895725
 11
375.4163306452
 21
314.1087088146
  0
LINE
  5
2AF
100
AcDbEntity
  8
7_ALL_FEATURES
100
AcDbLine
 62
7
  6
CONTINUOUS
 10
375.4163306452
 20
314.1087088146
 11
375.4163306452
 21
316.4410895725
  0
LINE
  5
2B0
100
AcDbEntity
  8
6_ALL_SURFS
100
AcDbLine
 62
7
  6
CONTINUOUS
 10
375.4163306452
 20
316.4410895725
 11
375.4163306452
 21
564.1087088146
  0
LINE
  5
2B1
100
AcDbEntity
  8
7_ALL_FEATURES
100
AcDbLine
 62
7
  6
CONTINUOUS
 10
375.4163306452
 20
564.1087088146
 11
375.4163306452
 21
589.9248991935
  0
LINE
  5
2B2
100
AcDbEntity
  8
7_ALL_FEATURES
100
AcDbLine
 62
7
  6
CONTINUOUS
 10
375.5663306452
 20
589.7748991935
 11
375.5663306452
 21
23.2748991935
  0
LINE
  5
2B3
100
AcDbEntity
  8
7_ALL_FEATURES
100
AcDbLine
 62
9
  6
CONTINUOUS
 10
376.3517834861
 20
588.9894463526
 11
376.3517834861
 21
23.2748991935
  0
LINE
  5
2B4
100
AcDbEntity
  8
6_ALL_SURFS
100
AcDbLine
 62
7
  6
CONTINUOUS
 10
376.5663306452
 20
23.2748991935
 11
376.5663306452
 21
568.5583069872
  0
LINE
  5
2B5
100
AcDbEntity
  8
7_ALL_FEATURES
100
AcDbLine
 62
7
  6
CONTINUOUS
 10
376.5663306452
 20
568.5583069872
 11
376.5663306452
 21
588.7748991935
  0
LINE
  5
2B6
100
AcDbEntity
  8
7_ALL_FEATURES
100
AcDbLine
 62
9
  6
CONTINUOUS
 10
376.8663306452
 20
23.2748991935
 11
376.8663306452
 21
588.4748991935
  0
LINE
  5
2B7
100
AcDbEntity
  8
7_ALL_FEATURES
100
AcDbLine
 62
9
  6
CONTINUOUS
 10
377.7663306452
 20
587.5748991935
 11
377.7663306452
 21
23.2748991935
  0
LINE
  5
2B8
100
AcDbEntity
  8
7_ALL_FEATURES
100
AcDbLine
 62
7
  6
CONTINUOUS
 10
378.0663306452
 20
587.2748991935
 11
378.0663306452
 21
23.2748991935
  0
LINE
  5
2B9
100
AcDbEntity
  8
7_ALL_FEATURES
100
AcDbLine
 62
7
  6
CONTINUOUS
 10
318.2663306452
 20
647.0748991935
 11
298.2663306452
 21
667.0748991935
  0
LINE
  5
2BA
100
AcDbEntity
  8
7_ALL_FEATURES
100
AcDbLine
 62
7
  6
CONTINUOUS
 10
378.0663306452
 20
587.2748991935
 11
343.2663306452
 21
622.0748991935
  0
LINE
  5
2BB
100
AcDbEntity
  8
7_ALL_FEATURES
100
AcDbLine
 62
7
  6
CONTINUOUS
 10
329.2663306452
 20
605.4088737898
 11
330.7663306452
 21
604.542848386
  0
LINE
  5
2BC
100
AcDbEntity
  8
7_ALL_FEATURES
100
AcDbLine
 62
7
  6
CONTINUOUS
 10
332.2663306452
 20
607.1409245973
 11
330.7663306452
 21
608.0069500011
  0
LINE
  5
2BD
100
AcDbEntity
  8
7_ALL_FEATURES
100
AcDbLine
 62
7
  6
CONTINUOUS
 10
345.0663306452
 20
633.7088737898
 11
346.5663306452
 21
632.842848386
  0
LINE
  5
2BE
100
AcDbEntity
  8
7_ALL_FEATURES
100
AcDbLine
 62
7
  6
CONTINUOUS
 10
348.0663306452
 20
635.4409245973
 11
346.5663306452
 21
636.3069500011
  0
LINE
  5
2BF
100
AcDbEntity
  8
7_ALL_FEATURES
100
AcDbLine
 62
7
  6
CONTINUOUS
 10
378.0663306452
 20
587.2748991935
 11
942.0663306452
 21
587.2748991935
  0
LINE
  5
2C0
100
AcDbEntity
  8
7_ALL_FEATURES
100
AcDbLine
 62
9
  6
CONTINUOUS
 10
377.7663306452
 20
587.5748991935
 11
942.0663306452
 21
587.5748991935
  0
LINE
  5
2C1
100
AcDbEntity
  8
7_ALL_FEATURES
100
AcDbLine
 62
9
  6
CONTINUOUS
 10
942.0663306452
 20
588.4748991935
 11
376.8663306452
 21
588.4748991935
  0
LINE
  5
2C2
100
AcDbEntity
  8
7_ALL_FEATURES
100
AcDbLine
 62
7
  6
CONTINUOUS
 10
942.0663306452
 20
588.7748991935
 11
376.5663306452
 21
588.7748991935
  0
LINE
  5
2C3
100
AcDbEntity
  8
7_ALL_FEATURES
100
AcDbLine
 62
9
  6
CONTINUOUS
 10
376.3517834861
 20
588.9894463526
 11
942.0663306452
 21
588.9894463526
  0
LINE
  5
2C4
100
AcDbEntity
  8
7_ALL_FEATURES
100
AcDbLine
 62
7
  6
CONTINUOUS
 10
375.5663306452
 20
589.7748991935
 11
942.0663306452
 21
589.7748991935
  0
LINE
  5
2C5
100
AcDbEntity
  8
7_ALL_FEATURES
100
AcDbLine
 62
7
  6
CONTINUOUS
 10
942.0663306452
 20
589.9248991935
 11
375.4163306452
 21
589.9248991935
  0
LINE
  5
2C6
100
AcDbEntity
  8
7_ALL_FEATURES
100
AcDbLine
 62
9
  6
CONTINUOUS
 10
942.0663306452
 20
590.0748991935
 11
375.2663306452
 21
590.0748991935
  0
LINE
  5
2C7
100
AcDbEntity
  8
7_ALL_FEATURES
100
AcDbLine
 62
9
  6
CONTINUOUS
 10
374.3538311942
 20
590.9873986445
 11
942.0663306452
 21
590.9873986445
  0
LINE
  5
2C8
100
AcDbEntity
  8
7_ALL_FEATURES
100
AcDbLine
 62
9
  6
CONTINUOUS
 10
373.3308336541
 20
592.0103961846
 11
942.0663306452
 21
592.0103961846
  0
LINE
  5
2C9
100
AcDbEntity
  8
7_ALL_FEATURES
100
AcDbLine
 62
3
  6
CONTINUOUS
 10
342.7663306452
 20
592.0748991935
 11
317.7663306452
 21
592.0748991935
  0
LINE
  5
2CA
100
AcDbEntity
  8
7_ALL_FEATURES
100
AcDbLine
 62
9
  6
CONTINUOUS
 10
942.0663306452
 20
594.5440896748
 11
370.7971401639
 21
594.5440896748
  0
LINE
  5
2CB
100
AcDbEntity
  8
7_ALL_FEATURES
100
AcDbLine
 62
9
  6
CONTINUOUS
 10
942.0663306452
 20
594.8850888548
 11
370.4561409839
 21
594.8850888548
  0
LINE
  5
2CC
100
AcDbEntity
  8
7_ALL_FEATURES
100
AcDbLine
 62
9
  6
CONTINUOUS
 10
942.0663306452
 20
595.0748991935
 11
370.2663306452
 21
595.0748991935
  0
LINE
  5
2CD
100
AcDbEntity
  8
7_ALL_FEATURES
100
AcDbLine
 62
7
  6
CONTINUOUS
 10
369.9663306452
 20
595.3748991935
 11
942.0663306452
 21
595.3748991935
  0
LINE
  5
2CE
100
AcDbEntity
  8
7_ALL_FEATURES
100
AcDbLine
 62
9
  6
CONTINUOUS
 10
367.9663306452
 20
597.3748991935
 11
942.0663306452
 21
597.3748991935
  0
LINE
  5
2CF
100
AcDbEntity
  8
7_ALL_FEATURES
100
AcDbLine
 62
9
  6
CONTINUOUS
 10
366.1663306452
 20
599.1748991935
 11
942.0663306452
 21
599.1748991935
  0
LINE
  5
2D0
100
AcDbEntity
  8
7_ALL_FEATURES
100
AcDbLine
 62
7
  6
CONTINUOUS
 10
364.1663306452
 20
601.1748991935
 11
942.0663306452
 21
601.1748991935
  0
LINE
  5
2D1
100
AcDbEntity
  8
7_ALL_FEATURES
100
AcDbLine
 62
9
  6
CONTINUOUS
 10
942.0663306452
 20
601.4748991935
 11
363.8663306452
 21
601.4748991935
  0
LINE
  5
2D2
100
AcDbEntity
  8
7_ALL_FEATURES
100
AcDbLine
 62
3
  6
CONTINUOUS
 10
372.7663306452
 20
622.0748991935
 11
342.7663306452
 21
622.0748991935
  0
LINE
  5
2D3
100
AcDbEntity
  8
7_ALL_FEATURES
100
AcDbLine
 62
9
  6
CONTINUOUS
 10
372.7663306452
 20
646.2204131228
 11
942.0663306452
 21
646.2204131228
  0
LINE
  5
2D4
100
AcDbEntity
  8
7_ALL_FEATURES
100
AcDbLine
 62
3
  6
CONTINUOUS
 10
317.7663306452
 20
647.0748991935
 11
372.7663306452
 21
647.0748991935
  0
LINE
  5
2D5
100
AcDbEntity
  8
7_ALL_FEATURES
100
AcDbLine
 62
9
  6
CONTINUOUS
 10
318.0386186462
 20
647.3026111925
 11
942.0663306452
 21
647.3026111925
  0
LINE
  5
2D6
100
AcDbEntity
  8
7_ALL_FEATURES
100
AcDbLine
 62
7
  6
CONTINUOUS
 10
942.0663306452
 20
587.2748991935
 11
942.0663306452
 21
589.7748991935
  0
LINE
  5
2D7
100
AcDbEntity
  8
3_ALL_AXES
100
AcDbLine
 62
7
  6
CONTINUOUS
 10
942.0663306452
 20
589.7748991935
 11
942.0663306452
 21
589.9248991935
  0
LINE
  5
2D8
100
AcDbEntity
  8
7_ALL_FEATURES
100
AcDbLine
 62
7
  6
CONTINUOUS
 10
942.0663306452
 20
589.9082281236
 11
942.0663306452
 21
667.0748991935
  0
LINE
  5
2D9
100
AcDbEntity
  8
7_ALL_FEATURES
100
AcDbLine
 62
9
  6
CONTINUOUS
 10
304.3863533603
 20
660.9548764784
 11
942.0663306452
 21
660.9548764784
  0
LINE
  5
2DA
100
AcDbEntity
  8
7_ALL_FEATURES
100
AcDbLine
 62
9
  6
CONTINUOUS
 10
303.6901296442
 20
661.6511001945
 11
942.0663306452
 21
661.6511001945
  0
LINE
  5
2DB
100
AcDbEntity
  8
7_ALL_FEATURES
100
AcDbLine
 62
9
  6
CONTINUOUS
 10
942.0663306452
 20
662.113608871
 11
303.2276209677
 21
662.113608871
  0
LINE
  5
2DC
100
AcDbEntity
  8
7_ALL_FEATURES
100
AcDbLine
 62
9
  6
CONTINUOUS
 10
942.0663306452
 20
665.1394153226
 11
300.2018145161
 21
665.1394153226
  0
LINE
  5
2DD
100
AcDbEntity
  8
7_ALL_FEATURES
100
AcDbLine
 62
7
  6
CONTINUOUS
 10
299.7663306452
 20
665.5748991935
 11
942.0663306452
 21
665.5748991935
  0
LINE
  5
2DE
100
AcDbEntity
  8
7_ALL_FEATURES
100
AcDbLine
 62
9
  6
CONTINUOUS
 10
299.2663306452
 20
666.0748991935
 11
942.0663306452
 21
666.0748991935
  0
LINE
  5
2DF
100
AcDbEntity
  8
7_ALL_FEATURES
100
AcDbLine
 62
9
  6
CONTINUOUS
 10
942.0663306452
 20
666.7748991935
 11
298.5663306452
 21
666.7748991935
  0
LINE
  5
2E0
100
AcDbEntity
  8
7_ALL_FEATURES
100
AcDbLine
 62
7
  6
CONTINUOUS
 10
942.0663306452
 20
667.0748991935
 11
298.2663306452
 21
667.0748991935
  0
LINE
  5
2E1
100
AcDbEntity
  8
6_ALL_SURFS
100
AcDbLine
 62
7
  6
CONTINUOUS
 10
298.2663306452
 20
781.5795362903
 11
298.2663306452
 21
779.9002622325
  0
LINE
  5
2E2
100
AcDbEntity
  8
6_ALL_SURFS
100
AcDbLine
 62
7
  6
CONTINUOUS
 10
298.2663306452
 20
775.8588103482
 11
298.2663306452
 21
775.3795362903
  0
LINE
  5
2E3
100
AcDbEntity
  8
7_ALL_FEATURES
100
AcDbLine
 62
7
  6
CONTINUOUS
 10
298.2663306452
 20
750.1795362903
 11
298.2663306452
 21
751.8588103482
  0
LINE
  5
2E4
100
AcDbEntity
  8
7_ALL_FEATURES
100
AcDbLine
 62
7
  6
CONTINUOUS
 10
298.2663306452
 20
755.9002622325
 11
298.2663306452
 21
756.3795362903
  0
LINE
  5
2E5
100
AcDbEntity
  8
7_ALL_FEATURES
100
AcDbLine
 62
7
  6
CONTINUOUS
 10
298.2663306452
 20
764.0795362903
 11
298.2663306452
 21
767.6795362903
  0
LINE
  5
2E6
100
AcDbEntity
  8
7_ALL_FEATURES
100
AcDbLine
 62
7
  6
CONTINUOUS
 10
299.7663306452
 20
751.1136729531
 11
299.7663306452
 21
750.3795362903
  0
LINE
  5
2E7
100
AcDbEntity
  8
6_ALL_SURFS
100
AcDbLine
 62
7
  6
CONTINUOUS
 10
299.7663306452
 20
780.6453996275
 11
299.7663306452
 21
781.3795362903
  0
LINE
  5
2E8
100
AcDbEntity
  8
7_ALL_FEATURES
100
AcDbLine
 62
7
  6
CONTINUOUS
 10
299.8663306452
 20
767.2795362903
 11
299.8663306452
 21
764.4795362903
  0
LINE
  5
2E9
100
AcDbEntity
  8
7_ALL_FEATURES
100
AcDbLine
 62
7
  6
CONTINUOUS
 10
300.2163306452
 20
764.3795362903
 11
300.2163306452
 21
767.3795362903
  0
LINE
  5
2EA
100
AcDbEntity
  8
7_ALL_FEATURES
100
AcDbLine
 62
7
  6
CONTINUOUS
 10
300.7163306452
 20
764.1795362903
 11
300.7163306452
 21
767.5795362903
  0
LINE
  5
2EB
100
AcDbEntity
  8
6_ALL_SURFS
100
AcDbLine
 62
7
  6
CONTINUOUS
 10
303.6163306452
 20
775.0216524578
 11
303.6163306452
 21
769.7795362903
  0
LINE
  5
2EC
100
AcDbEntity
  8
7_ALL_FEATURES
100
AcDbLine
 62
7
  6
CONTINUOUS
 10
303.6163306452
 20
756.7374201228
 11
303.6163306452
 21
761.9795362903
  0
LINE
  5
2ED
100
AcDbEntity
  8
7_ALL_FEATURES
100
AcDbLine
 62
7
  6
CONTINUOUS
 10
305.2163306452
 20
753.282121142
 11
305.2163306452
 21
767.8795362903
  0
LINE
  5
2EE
100
AcDbEntity
  8
6_ALL_SURFS
100
AcDbLine
 62
7
  6
CONTINUOUS
 10
305.2163306452
 20
767.8795362903
 11
305.2163306452
 21
778.4769514387
  0
LINE
  5
2EF
100
AcDbEntity
  8
7_ALL_FEATURES
100
AcDbLine
 62
7
  6
CONTINUOUS
 10
306.2163306452
 20
773.3795362903
 11
306.2163306452
 21
758.3795362903
  0
LINE
  5
2F0
100
AcDbEntity
  8
7_ALL_FEATURES
100
AcDbLine
 62
7
  6
CONTINUOUS
 10
308.2445338754
 20
769.8795362903
 11
308.2445338754
 21
761.8795362903
  0
LINE
  5
2F1
100
AcDbEntity
  8
7_ALL_FEATURES
100
AcDbLine
 62
7
  6
CONTINUOUS
 10
317.7663306452
 20
786.8795362903
 11
317.7663306452
 21
783.8795362903
  0
LINE
  5
2F2
100
AcDbEntity
  8
7_ALL_FEATURES
100
AcDbLine
 62
7
  6
CONTINUOUS
 10
317.7663306452
 20
744.8795362903
 11
317.7663306452
 21
747.8795362903
  0
LINE
  5
2F3
100
AcDbEntity
  8
3_ALL_AXES
100
AcDbLine
 62
7
  6
CONTINUOUS
 10
325.7663306452
 20
781.5795362903
 11
325.7663306452
 21
781.2795362903
  0
LINE
  5
2F4
100
AcDbEntity
  8
3_ALL_AXES
100
AcDbLine
 62
7
  6
CONTINUOUS
 10
325.7663306452
 20
750.1795362903
 11
325.7663306452
 21
750.4795362903
  0
LINE
  5
2F5
100
AcDbEntity
  8
3_ALL_AXES
100
AcDbLine
 62
7
  6
CONTINUOUS
 10
325.9163306452
 20
788.8795362903
 11
325.9163306452
 21
786.8795362903
  0
LINE
  5
2F6
100
AcDbEntity
  8
3_ALL_AXES
100
AcDbLine
 62
7
  6
CONTINUOUS
 10
325.9163306452
 20
742.8795362903
 11
325.9163306452
 21
744.8795362903
  0
LINE
  5
2F7
100
AcDbEntity
  8
3_ALL_AXES
100
AcDbLine
 62
7
  6
CONTINUOUS
 10
334.6163306452
 20
788.8795362903
 11
334.6163306452
 21
786.8795362903
  0
LINE
  5
2F8
100
AcDbEntity
  8
3_ALL_AXES
100
AcDbLine
 62
7
  6
CONTINUOUS
 10
334.6163306452
 20
742.8795362903
 11
334.6163306452
 21
744.8795362903
  0
LINE
  5
2F9
100
AcDbEntity
  8
3_ALL_AXES
100
AcDbLine
 62
7
  6
CONTINUOUS
 10
335.7663306452
 20
781.5795362903
 11
335.7663306452
 21
781.2795362903
  0
LINE
  5
2FA
100
AcDbEntity
  8
3_ALL_AXES
100
AcDbLine
 62
7
  6
CONTINUOUS
 10
335.7663306452
 20
750.1795362903
 11
335.7663306452
 21
750.4795362903
  0
LINE
  5
2FB
100
AcDbEntity
  8
3_ALL_AXES
100
AcDbLine
 62
7
  6
CONTINUOUS
 10
341.4163306452
 20
742.8795362903
 11
341.4163306452
 21
744.8795362903
  0
LINE
  5
2FC
100
AcDbEntity
  8
3_ALL_AXES
100
AcDbLine
 62
7
  6
CONTINUOUS
 10
341.5663306452
 20
750.1795362903
 11
341.5663306452
 21
750.4795362903
  0
LINE
  5
2FD
100
AcDbEntity
  8
7_ALL_FEATURES
100
AcDbLine
 62
7
  6
CONTINUOUS
 10
342.7663306452
 20
786.8795362903
 11
342.7663306452
 21
783.8795362903
  0
LINE
  5
2FE
100
AcDbEntity
  8
7_ALL_FEATURES
100
AcDbLine
 62
7
  6
CONTINUOUS
 10
342.7663306452
 20
744.8795362903
 11
342.7663306452
 21
747.8795362903
  0
LINE
  5
2FF
100
AcDbEntity
  8
3_ALL_AXES
100
AcDbLine
 62
7
  6
CONTINUOUS
 10
350.1163306452
 20
742.8795362903
 11
350.1163306452
 21
744.8795362903
  0
LINE
  5
300
100
AcDbEntity
  8
3_ALL_AXES
100
AcDbLine
 62
7
  6
CONTINUOUS
 10
351.5663306452
 20
750.1795362903
 11
351.5663306452
 21
750.4795362903
  0
LINE
  5
301
100
AcDbEntity
  8
3_ALL_AXES
100
AcDbLine
 62
7
  6
CONTINUOUS
 10
353.9163306452
 20
788.8795362903
 11
353.9163306452
 21
786.8795362903
  0
LINE
  5
302
100
AcDbEntity
  8
3_ALL_AXES
100
AcDbLine
 62
7
  6
CONTINUOUS
 10
354.0663306452
 20
781.5795362903
 11
354.0663306452
 21
781.2795362903
  0
LINE
  5
303
100
AcDbEntity
  8
3_ALL_AXES
100
AcDbLine
 62
7
  6
CONTINUOUS
 10
362.6163306452
 20
788.8795362903
 11
362.6163306452
 21
786.8795362903
  0
LINE
  5
304
100
AcDbEntity
  8
6_ALL_SURFS
100
AcDbLine
 62
7
  6
CONTINUOUS
 10
376.5663306452
 20
804.4295362903
 11
376.3517834861
 21
806.5750078807
  0
LINE
  5
305
100
AcDbEntity
  8
3_ALL_AXES
100
AcDbLine
 62
7
  6
CONTINUOUS
 10
364.0663306452
 20
781.5795362903
 11
364.0663306452
 21
781.2795362903
  0
LINE
  5
306
100
AcDbEntity
  8
6_ALL_SURFS
100
AcDbLine
 62
7
  6
CONTINUOUS
 10
364.1663306452
 20
785.0795362903
 11
364.1663306452
 21
784.1795362903
  0
LINE
  5
307
100
AcDbEntity
  8
7_ALL_FEATURES
100
AcDbLine
 62
7
  6
CONTINUOUS
 10
364.1663306452
 20
746.6795362903
 11
364.1663306452
 21
747.5795362903
  0
LINE
  5
308
100
AcDbEntity
  8
7_ALL_FEATURES
100
AcDbLine
 62
7
  6
CONTINUOUS
 10
369.9663306452
 20
747.4295362903
 11
369.9663306452
 21
746.6795362903
  0
LINE
  5
309
100
AcDbEntity
  8
6_ALL_SURFS
100
AcDbLine
 62
7
  6
CONTINUOUS
 10
369.9663306452
 20
784.3295362903
 11
369.9663306452
 21
785.0795362903
  0
LINE
  5
30A
100
AcDbEntity
  8
7_ALL_FEATURES
100
AcDbLine
 62
7
  6
CONTINUOUS
 10
372.3163306452
 20
749.1795362903
 11
372.3163306452
 21
748.3599800028
  0
LINE
  5
30B
100
AcDbEntity
  8
6_ALL_SURFS
100
AcDbLine
 62
7
  6
CONTINUOUS
 10
372.3163306452
 20
782.5795362903
 11
372.3163306452
 21
783.3990925778
  0
LINE
  5
30C
100
AcDbEntity
  8
6_ALL_SURFS
100
AcDbLine
 62
7
  6
CONTINUOUS
 10
375.5663306452
 20
806.5358329324
 11
375.5663306452
 21
804.5295362903
  0
LINE
  5
30D
100
AcDbEntity
  8
6_ALL_SURFS
100
AcDbLine
 62
7
  6
CONTINUOUS
 10
375.5663306452
 20
803.9295362903
 11
375.5663306452
 21
801.5295362903
  0
LINE
  5
30E
100
AcDbEntity
  8
6_ALL_SURFS
100
AcDbLine
 62
7
  6
CONTINUOUS
 10
375.5663306452
 20
800.9295362903
 11
375.5663306452
 21
798.5295362903
  0
LINE
  5
30F
100
AcDbEntity
  8
6_ALL_SURFS
100
AcDbLine
 62
7
  6
CONTINUOUS
 10
375.5663306452
 20
797.9295362903
 11
375.5663306452
 21
795.5295362903
  0
LINE
  5
310
100
AcDbEntity
  8
6_ALL_SURFS
100
AcDbLine
 62
7
  6
CONTINUOUS
 10
375.5663306452
 20
794.9295362903
 11
375.5663306452
 21
792.5295362903
  0
LINE
  5
311
100
AcDbEntity
  8
6_ALL_SURFS
100
AcDbLine
 62
7
  6
CONTINUOUS
 10
375.5663306452
 20
791.9295362903
 11
375.5663306452
 21
789.5295362903
  0
LINE
  5
312
100
AcDbEntity
  8
6_ALL_SURFS
100
AcDbLine
 62
7
  6
CONTINUOUS
 10
375.5663306452
 20
788.9295362903
 11
375.5663306452
 21
787.2295362903
  0
LINE
  5
313
100
AcDbEntity
  8
6_ALL_SURFS
100
AcDbLine
 62
7
  6
CONTINUOUS
 10
375.5663306452
 20
785.1295362903
 11
375.5663306452
 21
784.4927218339
  0
LINE
  5
314
100
AcDbEntity
  8
7_ALL_FEATURES
100
AcDbLine
 62
7
  6
CONTINUOUS
 10
375.5663306452
 20
725.2232396482
 11
375.5663306452
 21
727.2295362903
  0
LINE
  5
315
100
AcDbEntity
  8
3_ALL_AXES
100
AcDbLine
 62
7
  6
CONTINUOUS
 10
375.5663306452
 20
727.8295362903
 11
375.5663306452
 21
730.2295362903
  0
LINE
  5
316
100
AcDbEntity
  8
3_ALL_AXES
100
AcDbLine
 62
7
  6
CONTINUOUS
 10
375.5663306452
 20
730.8295362903
 11
375.5663306452
 21
733.2295362903
  0
LINE
  5
317
100
AcDbEntity
  8
3_ALL_AXES
100
AcDbLine
 62
7
  6
CONTINUOUS
 10
375.5663306452
 20
733.8295362903
 11
375.5663306452
 21
736.2295362903
  0
LINE
  5
318
100
AcDbEntity
  8
3_ALL_AXES
100
AcDbLine
 62
7
  6
CONTINUOUS
 10
375.5663306452
 20
736.8295362903
 11
375.5663306452
 21
739.2295362903
  0
LINE
  5
319
100
AcDbEntity
  8
3_ALL_AXES
100
AcDbLine
 62
7
  6
CONTINUOUS
 10
375.5663306452
 20
739.8295362903
 11
375.5663306452
 21
742.2295362903
  0
LINE
  5
31A
100
AcDbEntity
  8
7_ALL_FEATURES
100
AcDbLine
 62
7
  6
CONTINUOUS
 10
375.5663306452
 20
742.8295362903
 11
375.5663306452
 21
744.5295362903
  0
LINE
  5
31B
100
AcDbEntity
  8
7_ALL_FEATURES
100
AcDbLine
 62
7
  6
CONTINUOUS
 10
375.5663306452
 20
746.6295362903
 11
375.5663306452
 21
747.2663507467
  0
LINE
  5
31C
100
AcDbEntity
  8
7_ALL_FEATURES
100
AcDbLine
 62
7
  6
CONTINUOUS
 10
376.5663306452
 20
744.7795362903
 11
376.5663306452
 21
742.8295362903
  0
LINE
  5
31D
100
AcDbEntity
  8
3_ALL_AXES
100
AcDbLine
 62
7
  6
CONTINUOUS
 10
376.5663306452
 20
742.2295362903
 11
376.5663306452
 21
739.8295362903
  0
LINE
  5
31E
100
AcDbEntity
  8
3_ALL_AXES
100
AcDbLine
 62
7
  6
CONTINUOUS
 10
376.5663306452
 20
739.2295362903
 11
376.5663306452
 21
736.8295362903
  0
LINE
  5
31F
100
AcDbEntity
  8
3_ALL_AXES
100
AcDbLine
 62
7
  6
CONTINUOUS
 10
376.5663306452
 20
736.2295362903
 11
376.5663306452
 21
733.8295362903
  0
LINE
  5
320
100
AcDbEntity
  8
3_ALL_AXES
100
AcDbLine
 62
7
  6
CONTINUOUS
 10
376.5663306452
 20
733.2295362903
 11
376.5663306452
 21
730.8295362903
  0
LINE
  5
321
100
AcDbEntity
  8
3_ALL_AXES
100
AcDbLine
 62
7
  6
CONTINUOUS
 10
376.5663306452
 20
730.2295362903
 11
376.5663306452
 21
727.3295362903
  0
LINE
  5
322
100
AcDbEntity
  8
6_ALL_SURFS
100
AcDbLine
 62
7
  6
CONTINUOUS
 10
376.5663306452
 20
786.9795362903
 11
376.5663306452
 21
788.9295362903
  0
LINE
  5
323
100
AcDbEntity
  8
6_ALL_SURFS
100
AcDbLine
 62
7
  6
CONTINUOUS
 10
376.5663306452
 20
789.5295362903
 11
376.5663306452
 21
791.9295362903
  0
LINE
  5
324
100
AcDbEntity
  8
6_ALL_SURFS
100
AcDbLine
 62
7
  6
CONTINUOUS
 10
376.5663306452
 20
792.5295362903
 11
376.5663306452
 21
794.9295362903
  0
LINE
  5
325
100
AcDbEntity
  8
6_ALL_SURFS
100
AcDbLine
 62
7
  6
CONTINUOUS
 10
376.5663306452
 20
795.5295362903
 11
376.5663306452
 21
797.9295362903
  0
LINE
  5
326
100
AcDbEntity
  8
6_ALL_SURFS
100
AcDbLine
 62
7
  6
CONTINUOUS
 10
376.5663306452
 20
798.5295362903
 11
376.5663306452
 21
800.9295362903
  0
LINE
  5
327
100
AcDbEntity
  8
6_ALL_SURFS
100
AcDbLine
 62
7
  6
CONTINUOUS
 10
376.5663306452
 20
801.5295362903
 11
376.5663306452
 21
804.4295362903
  0
LINE
  5
328
100
AcDbEntity
  8
7_ALL_FEATURES
100
AcDbLine
 62
7
  6
CONTINUOUS
 10
376.9663306452
 20
748.7795362903
 11
376.9663306452
 21
782.9795362903
  0
LINE
  5
329
100
AcDbEntity
  8
7_ALL_FEATURES
100
AcDbLine
 62
7
  6
CONTINUOUS
 10
377.0663306452
 20
746.6295362903
 11
377.0663306452
 21
747.5795362903
  0
LINE
  5
32A
100
AcDbEntity
  8
7_ALL_FEATURES
100
AcDbLine
 62
7
  6
CONTINUOUS
 10
377.0663306452
 20
784.1795362903
 11
377.0663306452
 21
785.0295362903
  0
LINE
  5
32B
100
AcDbEntity
  8
6_ALL_SURFS
100
AcDbLine
 62
7
  6
CONTINUOUS
 10
377.0663306452
 20
784.4795362903
 11
377.0663306452
 21
785.1295362903
  0
LINE
  5
32C
100
AcDbEntity
  8
7_ALL_FEATURES
100
AcDbLine
 62
7
  6
CONTINUOUS
 10
378.0663306452
 20
785.0295362903
 11
378.0663306452
 21
746.7295362903
  0
LINE
  5
32D
100
AcDbEntity
  8
7_ALL_FEATURES
100
AcDbLine
 62
7
  6
CONTINUOUS
 10
378.0663306452
 20
746.0295362903
 11
378.0663306452
 21
745.3795362903
  0
LINE
  5
32E
100
AcDbEntity
  8
6_ALL_SURFS
100
AcDbLine
 62
7
  6
CONTINUOUS
 10
378.0663306452
 20
785.7295362903
 11
378.0663306452
 21
786.3795362903
  0
LINE
  5
32F
100
AcDbEntity
  8
7_ALL_FEATURES
100
AcDbLine
 62
7
  6
CONTINUOUS
 10
378.5663306452
 20
746.5295362903
 11
378.5663306452
 21
785.2295362903
  0
LINE
  5
330
100
AcDbEntity
  8
7_ALL_FEATURES
100
AcDbLine
 62
7
  6
CONTINUOUS
 10
376.5663306452
 20
727.3295362903
 11
376.3517834861
 21
725.1840646999
  0
LINE
  5
331
100
AcDbEntity
  8
6_ALL_SURFS
100
AcDbLine
 62
7
  6
CONTINUOUS
 10
375.5663306452
 20
804.5295362903
 11
375.4163306452
 21
804.2295362903
  0
LINE
  5
332
100
AcDbEntity
  8
7_ALL_FEATURES
100
AcDbLine
 62
7
  6
CONTINUOUS
 10
318.8596454746
 20
749.664851821
 11
318.9211388719
 21
749.7673408166
  0
LINE
  5
333
100
AcDbEntity
  8
6_ALL_SURFS
100
AcDbLine
 62
7
  6
CONTINUOUS
 10
318.8596454746
 20
782.0942207596
 11
318.9211388719
 21
781.991731764
  0
LINE
  5
334
100
AcDbEntity
  8
3_ALL_AXES
100
AcDbLine
 62
7
  6
CONTINUOUS
 10
375.5663306452
 20
727.2295362903
 11
375.4163306452
 21
727.5295362903
  0
LINE
  5
335
100
AcDbEntity
  8
6_ALL_SURFS
100
AcDbLine
 62
7
  6
CONTINUOUS
 10
375.5663306452
 20
801.5295362903
 11
375.4163306452
 21
801.2295362903
  0
LINE
  5
336
100
AcDbEntity
  8
6_ALL_SURFS
100
AcDbLine
 62
7
  6
CONTINUOUS
 10
375.5663306452
 20
798.5295362903
 11
375.4163306452
 21
798.2295362903
  0
LINE
  5
337
100
AcDbEntity
  8
6_ALL_SURFS
100
AcDbLine
 62
7
  6
CONTINUOUS
 10
375.5663306452
 20
795.5295362903
 11
375.4163306452
 21
795.2295362903
  0
LINE
  5
338
100
AcDbEntity
  8
6_ALL_SURFS
100
AcDbLine
 62
7
  6
CONTINUOUS
 10
375.5663306452
 20
792.5295362903
 11
375.4163306452
 21
792.2295362903
  0
LINE
  5
339
100
AcDbEntity
  8
6_ALL_SURFS
100
AcDbLine
 62
7
  6
CONTINUOUS
 10
375.5663306452
 20
789.5295362903
 11
375.4163306452
 21
789.2295362903
  0
LINE
  5
33A
100
AcDbEntity
  8
6_ALL_SURFS
100
AcDbLine
 62
7
  6
CONTINUOUS
 10
366.0559676741
 20
782.4295362903
 11
366.2805189629
 21
782.8184705314
  0
LINE
  5
33B
100
AcDbEntity
  8
7_ALL_FEATURES
100
AcDbLine
 62
7
  6
CONTINUOUS
 10
300.2163306452
 20
767.3795362903
 11
300.4163306452
 21
767.5795362903
  0
LINE
  5
33C
100
AcDbEntity
  8
7_ALL_FEATURES
100
AcDbLine
 62
7
  6
CONTINUOUS
 10
328.7663306452
 20
789.2795362903
 11
328.3663306452
 21
788.8795362903
  0
LINE
  5
33D
100
AcDbEntity
  8
3_ALL_AXES
100
AcDbLine
 62
7
  6
CONTINUOUS
 10
326.4663306452
 20
782.2795362903
 11
325.7663306452
 21
781.5795362903
  0
LINE
  5
33E
100
AcDbEntity
  8
7_ALL_FEATURES
100
AcDbLine
 62
7
  6
CONTINUOUS
 10
300.2163306452
 20
764.3795362903
 11
300.4163306452
 21
764.1795362903
  0
LINE
  5
33F
100
AcDbEntity
  8
7_ALL_FEATURES
100
AcDbLine
 62
7
  6
CONTINUOUS
 10
328.7663306452
 20
742.4795362903
 11
328.3663306452
 21
742.8795362903
  0
LINE
  5
340
100
AcDbEntity
  8
3_ALL_AXES
100
AcDbLine
 62
7
  6
CONTINUOUS
 10
326.4663306452
 20
749.4795362903
 11
325.7663306452
 21
750.1795362903
  0
LINE
  5
341
100
AcDbEntity
  8
7_ALL_FEATURES
100
AcDbLine
 62
7
  6
CONTINUOUS
 10
366.0559676741
 20
749.3295362903
 11
366.2805189629
 21
748.9406020492
  0
LINE
  5
342
100
AcDbEntity
  8
3_ALL_AXES
100
AcDbLine
 62
7
  6
CONTINUOUS
 10
375.5663306452
 20
730.2295362903
 11
375.4163306452
 21
730.5295362903
  0
LINE
  5
343
100
AcDbEntity
  8
3_ALL_AXES
100
AcDbLine
 62
7
  6
CONTINUOUS
 10
375.5663306452
 20
733.2295362903
 11
375.4163306452
 21
733.5295362903
  0
LINE
  5
344
100
AcDbEntity
  8
3_ALL_AXES
100
AcDbLine
 62
7
  6
CONTINUOUS
 10
375.5663306452
 20
736.2295362903
 11
375.4163306452
 21
736.5295362903
  0
LINE
  5
345
100
AcDbEntity
  8
3_ALL_AXES
100
AcDbLine
 62
7
  6
CONTINUOUS
 10
375.5663306452
 20
739.2295362903
 11
375.4163306452
 21
739.5295362903
  0
LINE
  5
346
100
AcDbEntity
  8
3_ALL_AXES
100
AcDbLine
 62
7
  6
CONTINUOUS
 10
375.5663306452
 20
742.2295362903
 11
375.4163306452
 21
742.5295362903
  0
LINE
  5
347
100
AcDbEntity
  8
3_ALL_AXES
100
AcDbLine
 62
7
  6
CONTINUOUS
 10
375.4163306452
 20
742.5295362903
 11
375.5663306452
 21
742.8295362903
  0
LINE
  5
348
100
AcDbEntity
  8
3_ALL_AXES
100
AcDbLine
 62
7
  6
CONTINUOUS
 10
375.4163306452
 20
739.5295362903
 11
375.5663306452
 21
739.8295362903
  0
LINE
  5
349
100
AcDbEntity
  8
3_ALL_AXES
100
AcDbLine
 62
7
  6
CONTINUOUS
 10
375.4163306452
 20
736.5295362903
 11
375.5663306452
 21
736.8295362903
  0
LINE
  5
34A
100
AcDbEntity
  8
3_ALL_AXES
100
AcDbLine
 62
7
  6
CONTINUOUS
 10
375.4163306452
 20
733.5295362903
 11
375.5663306452
 21
733.8295362903
  0
LINE
  5
34B
100
AcDbEntity
  8
3_ALL_AXES
100
AcDbLine
 62
7
  6
CONTINUOUS
 10
375.4163306452
 20
730.5295362903
 11
375.5663306452
 21
730.8295362903
  0
LINE
  5
34C
100
AcDbEntity
  8
3_ALL_AXES
100
AcDbLine
 62
7
  6
CONTINUOUS
 10
375.4163306452
 20
727.5295362903
 11
375.5663306452
 21
727.8295362903
  0
LINE
  5
34D
100
AcDbEntity
  8
7_ALL_FEATURES
100
AcDbLine
 62
7
  6
CONTINUOUS
 10
367.8521423274
 20
748.9406020492
 11
368.0766936162
 21
749.3295362903
  0
LINE
  5
34E
100
AcDbEntity
  8
7_ALL_FEATURES
100
AcDbLine
 62
7
  6
CONTINUOUS
 10
357.0663306452
 20
789.2795362903
 11
356.6663306452
 21
788.8795362903
  0
LINE
  5
34F
100
AcDbEntity
  8
3_ALL_AXES
100
AcDbLine
 62
7
  6
CONTINUOUS
 10
354.7663306452
 20
782.2795362903
 11
354.0663306452
 21
781.5795362903
  0
LINE
  5
350
100
AcDbEntity
  8
7_ALL_FEATURES
100
AcDbLine
 62
7
  6
CONTINUOUS
 10
344.5663306452
 20
742.4795362903
 11
344.1663306452
 21
742.8795362903
  0
LINE
  5
351
100
AcDbEntity
  8
3_ALL_AXES
100
AcDbLine
 62
7
  6
CONTINUOUS
 10
342.2663306452
 20
749.4795362903
 11
341.5663306452
 21
750.1795362903
  0
LINE
  5
352
100
AcDbEntity
  8
6_ALL_SURFS
100
AcDbLine
 62
7
  6
CONTINUOUS
 10
367.8521423274
 20
782.8184705314
 11
368.0766936162
 21
782.4295362903
  0
LINE
  5
353
100
AcDbEntity
  8
6_ALL_SURFS
100
AcDbLine
 62
7
  6
CONTINUOUS
 10
375.4163306452
 20
789.2295362903
 11
375.5663306452
 21
788.9295362903
  0
LINE
  5
354
100
AcDbEntity
  8
6_ALL_SURFS
100
AcDbLine
 62
7
  6
CONTINUOUS
 10
375.4163306452
 20
792.2295362903
 11
375.5663306452
 21
791.9295362903
  0
LINE
  5
355
100
AcDbEntity
  8
6_ALL_SURFS
100
AcDbLine
 62
7
  6
CONTINUOUS
 10
375.4163306452
 20
795.2295362903
 11
375.5663306452
 21
794.9295362903
  0
LINE
  5
356
100
AcDbEntity
  8
6_ALL_SURFS
100
AcDbLine
 62
7
  6
CONTINUOUS
 10
375.4163306452
 20
798.2295362903
 11
375.5663306452
 21
797.9295362903
  0
LINE
  5
357
100
AcDbEntity
  8
6_ALL_SURFS
100
AcDbLine
 62
7
  6
CONTINUOUS
 10
375.4163306452
 20
801.2295362903
 11
375.5663306452
 21
800.9295362903
  0
LINE
  5
358
100
AcDbEntity
  8
6_ALL_SURFS
100
AcDbLine
 62
7
  6
CONTINUOUS
 10
375.4163306452
 20
804.2295362903
 11
375.5663306452
 21
803.9295362903
  0
LINE
  5
359
100
AcDbEntity
  8
3_ALL_AXES
100
AcDbLine
 62
7
  6
CONTINUOUS
 10
335.0663306452
 20
749.4795362903
 11
335.7663306452
 21
750.1795362903
  0
LINE
  5
35A
100
AcDbEntity
  8
7_ALL_FEATURES
100
AcDbLine
 62
7
  6
CONTINUOUS
 10
332.7663306452
 20
742.4795362903
 11
333.1663306452
 21
742.8795362903
  0
LINE
  5
35B
100
AcDbEntity
  8
3_ALL_AXES
100
AcDbLine
 62
7
  6
CONTINUOUS
 10
350.8663306452
 20
749.4795362903
 11
351.5663306452
 21
750.1795362903
  0
LINE
  5
35C
100
AcDbEntity
  8
7_ALL_FEATURES
100
AcDbLine
 62
7
  6
CONTINUOUS
 10
348.5663306452
 20
742.4795362903
 11
348.9663306452
 21
742.8795362903
  0
LINE
  5
35D
100
AcDbEntity
  8
6_ALL_SURFS
100
AcDbLine
 62
7
  6
CONTINUOUS
 10
373.3308336541
 20
786.5265668428
 11
370.7971401639
 21
784.1638594395
  0
LINE
  5
35E
100
AcDbEntity
  8
6_ALL_SURFS
100
AcDbLine
 62
7
  6
CONTINUOUS
 10
372.4117311371
 20
783.6184986883
 11
374.2674048289
 21
785.3489424008
  0
LINE
  5
35F
100
AcDbEntity
  8
7_ALL_FEATURES
100
AcDbLine
 62
7
  6
CONTINUOUS
 10
373.4935313011
 20
784.2612893814
 11
373.8843322851
 21
784.6257171946
  0
LINE
  5
360
100
AcDbEntity
  8
7_ALL_FEATURES
100
AcDbLine
 62
7
  6
CONTINUOUS
 10
374.4299309731
 20
784.0406342333
 11
374.0391299892
 21
783.6762064201
  0
LINE
  5
361
100
AcDbEntity
  8
7_ALL_FEATURES
100
AcDbLine
 62
7
  6
CONTINUOUS
 10
373.3308336541
 20
745.2325057379
 11
370.7971401639
 21
747.5952131411
  0
LINE
  5
362
100
AcDbEntity
  8
7_ALL_FEATURES
100
AcDbLine
 62
7
  6
CONTINUOUS
 10
372.4117311371
 20
748.1405738923
 11
374.2674048289
 21
746.4101301798
  0
LINE
  5
363
100
AcDbEntity
  8
7_ALL_FEATURES
100
AcDbLine
 62
7
  6
CONTINUOUS
 10
373.8843322851
 20
747.133355386
 11
373.4935313011
 21
747.4977831992
  0
LINE
  5
364
100
AcDbEntity
  8
7_ALL_FEATURES
100
AcDbLine
 62
7
  6
CONTINUOUS
 10
374.0391299892
 20
748.0828661605
 11
374.4299309731
 21
747.7184383473
  0
LINE
  5
365
100
AcDbEntity
  8
3_ALL_AXES
100
AcDbLine
 62
7
  6
CONTINUOUS
 10
335.0663306452
 20
782.2795362903
 11
335.7663306452
 21
781.5795362903
  0
LINE
  5
366
100
AcDbEntity
  8
7_ALL_FEATURES
100
AcDbLine
 62
7
  6
CONTINUOUS
 10
332.7663306452
 20
789.2795362903
 11
333.1663306452
 21
788.8795362903
  0
LINE
  5
367
100
AcDbEntity
  8
6_ALL_SURFS
100
AcDbLine
 62
7
  6
CONTINUOUS
 10
300.1052648863
 20
777.093724608
 11
298.4163306452
 21
776.1186179693
  0
LINE
  5
368
100
AcDbEntity
  8
7_ALL_FEATURES
100
AcDbLine
 62
7
  6
CONTINUOUS
 10
298.4163306452
 20
752.1186179693
 11
300.1052648863
 21
753.093724608
  0
LINE
  5
369
100
AcDbEntity
  8
7_ALL_FEATURES
100
AcDbLine
 62
7
  6
CONTINUOUS
 10
300.1052648863
 20
754.6653479726
 11
298.4163306452
 21
755.6404546114
  0
LINE
  5
36A
100
AcDbEntity
  8
6_ALL_SURFS
100
AcDbLine
 62
7
  6
CONTINUOUS
 10
298.4163306452
 20
779.6404546114
 11
300.1052648863
 21
778.6653479726
  0
LINE
  5
36B
100
AcDbEntity
  8
3_ALL_AXES
100
AcDbLine
 62
7
  6
CONTINUOUS
 10
363.3663306452
 20
782.2795362903
 11
364.0663306452
 21
781.5795362903
  0
LINE
  5
36C
100
AcDbEntity
  8
7_ALL_FEATURES
100
AcDbLine
 62
7
  6
CONTINUOUS
 10
361.0663306452
 20
789.2795362903
 11
361.4663306452
 21
788.8795362903
  0
LINE
  5
36D
100
AcDbEntity
  8
6_ALL_SURFS
100
AcDbLine
 62
7
  6
CONTINUOUS
 10
319.2809927927
 20
781.8641727044
 11
320.2565017033
 21
782.2192289111
  0
LINE
  5
36E
100
AcDbEntity
  8
7_ALL_FEATURES
100
AcDbLine
 62
7
  6
CONTINUOUS
 10
319.2809927927
 20
749.8948998763
 11
320.2565017033
 21
749.5398436695
  0
LINE
  5
36F
100
AcDbEntity
  8
7_ALL_FEATURES
100
AcDbLine
 62
7
  6
CONTINUOUS
 10
375.7254891763
 20
747.5312350246
 11
375.7502875772
 21
747.5444205682
  0
LINE
  5
370
100
AcDbEntity
  8
6_ALL_SURFS
100
AcDbLine
 62
7
  6
CONTINUOUS
 10
375.7254891763
 20
784.2278375561
 11
375.7502875772
 21
784.2146520125
  0
LINE
  5
371
100
AcDbEntity
  8
7_ALL_FEATURES
100
AcDbLine
 62
7
  6
CONTINUOUS
 10
318.0386186462
 20
747.9980562547
 11
304.3863533603
 21
751.0246906016
  0
LINE
  5
372
100
AcDbEntity
  8
7_ALL_FEATURES
100
AcDbLine
 62
7
  6
CONTINUOUS
 10
305.9998910312
 20
752.3058251349
 11
318.5374657127
 21
749.5263117455
  0
LINE
  5
373
100
AcDbEntity
  8
6_ALL_SURFS
100
AcDbLine
 62
7
  6
CONTINUOUS
 10
942.0663306452
 20
724.8295362903
 11
375.9600340031
 21
724.8295362903
  0
LINE
  5
374
100
AcDbEntity
  8
7_ALL_FEATURES
100
AcDbLine
 62
9
  6
CONTINUOUS
 10
376.3517834861
 20
725.1840646999
 11
942.0663306452
 21
725.1840646999
  0
LINE
  5
375
100
AcDbEntity
  8
6_ALL_SURFS
100
AcDbLine
 62
7
  6
CONTINUOUS
 10
942.0663306452
 20
727.3295362903
 11
903.3497384389
 21
727.3295362903
  0
LINE
  5
376
100
AcDbEntity
  8
6_ALL_SURFS
100
AcDbLine
 62
7
  6
CONTINUOUS
 10
896.7829228515
 20
727.3295362903
 11
653.3497384389
 21
727.3295362903
  0
LINE
  5
377
100
AcDbEntity
  8
6_ALL_SURFS
100
AcDbLine
 62
7
  6
CONTINUOUS
 10
646.7829228515
 20
727.3295362903
 11
403.3497384389
 21
727.3295362903
  0
LINE
  5
378
100
AcDbEntity
  8
7_ALL_FEATURES
100
AcDbLine
 62
7
  6
CONTINUOUS
 10
396.7829228515
 20
727.3295362903
 11
376.5663306452
 21
727.3295362903
  0
LINE
  5
379
100
AcDbEntity
  8
6_ALL_SURFS
100
AcDbLine
 62
7
  6
CONTINUOUS
 10
942.0663306452
 20
730.2295362903
 11
904.8277135052
 21
730.2295362903
  0
LINE
  5
37A
100
AcDbEntity
  8
6_ALL_SURFS
100
AcDbLine
 62
7
  6
CONTINUOUS
 10
895.3049477851
 20
730.2295362903
 11
654.8277135052
 21
730.2295362903
  0
LINE
  5
37B
100
AcDbEntity
  8
6_ALL_SURFS
100
AcDbLine
 62
7
  6
CONTINUOUS
 10
645.3049477851
 20
730.2295362903
 11
404.8277135052
 21
730.2295362903
  0
LINE
  5
37C
100
AcDbEntity
  8
7_ALL_FEATURES
100
AcDbLine
 62
7
  6
CONTINUOUS
 10
395.3049477851
 20
730.2295362903
 11
376.5663306452
 21
730.2295362903
  0
LINE
  5
37D
100
AcDbEntity
  8
6_ALL_SURFS
100
AcDbLine
 62
7
  6
CONTINUOUS
 10
942.0663306452
 20
730.8295362903
 11
904.8653687508
 21
730.8295362903
  0
LINE
  5
37E
100
AcDbEntity
  8
6_ALL_SURFS
100
AcDbLine
 62
7
  6
CONTINUOUS
 10
895.2672925395
 20
730.8295362903
 11
654.8653687508
 21
730.8295362903
  0
LINE
  5
37F
100
AcDbEntity
  8
6_ALL_SURFS
100
AcDbLine
 62
7
  6
CONTINUOUS
 10
645.2672925395
 20
730.8295362903
 11
404.8653687508
 21
730.8295362903
  0
LINE
  5
380
100
AcDbEntity
  8
7_ALL_FEATURES
100
AcDbLine
 62
7
  6
CONTINUOUS
 10
395.2672925395
 20
730.8295362903
 11
376.5663306452
 21
730.8295362903
  0
LINE
  5
381
100
AcDbEntity
  8
6_ALL_SURFS
100
AcDbLine
 62
7
  6
CONTINUOUS
 10
942.0663306452
 20
733.2295362903
 11
904.2221418463
 21
733.2295362903
  0
LINE
  5
382
100
AcDbEntity
  8
6_ALL_SURFS
100
AcDbLine
 62
7
  6
CONTINUOUS
 10
895.910519444
 20
733.2295362903
 11
654.2221418463
 21
733.2295362903
  0
LINE
  5
383
100
AcDbEntity
  8
6_ALL_SURFS
100
AcDbLine
 62
7
  6
CONTINUOUS
 10
645.910519444
 20
733.2295362903
 11
404.2221418463
 21
733.2295362903
  0
LINE
  5
384
100
AcDbEntity
  8
7_ALL_FEATURES
100
AcDbLine
 62
7
  6
CONTINUOUS
 10
395.910519444
 20
733.2295362903
 11
376.5663306452
 21
733.2295362903
  0
LINE
  5
385
100
AcDbEntity
  8
6_ALL_SURFS
100
AcDbLine
 62
7
  6
CONTINUOUS
 10
942.0663306452
 20
733.8295362903
 11
903.8120971541
 21
733.8295362903
  0
LINE
  5
386
100
AcDbEntity
  8
6_ALL_SURFS
100
AcDbLine
 62
7
  6
CONTINUOUS
 10
896.3205641362
 20
733.8295362903
 11
653.8120971541
 21
733.8295362903
  0
LINE
  5
387
100
AcDbEntity
  8
6_ALL_SURFS
100
AcDbLine
 62
7
  6
CONTINUOUS
 10
646.3205641362
 20
733.8295362903
 11
403.8120971541
 21
733.8295362903
  0
LINE
  5
388
100
AcDbEntity
  8
7_ALL_FEATURES
100
AcDbLine
 62
7
  6
CONTINUOUS
 10
396.3205641362
 20
733.8295362903
 11
376.5663306452
 21
733.8295362903
  0
LINE
  5
389
100
AcDbEntity
  8
7_ALL_FEATURES
100
AcDbLine
 62
7
  6
CONTINUOUS
 10
942.0663306452
 20
736.2295362903
 11
376.5663306452
 21
736.2295362903
  0
LINE
  5
38A
100
AcDbEntity
  8
7_ALL_FEATURES
100
AcDbLine
 62
7
  6
CONTINUOUS
 10
942.0663306452
 20
736.8295362903
 11
376.5663306452
 21
736.8295362903
  0
LINE
  5
38B
100
AcDbEntity
  8
7_ALL_FEATURES
100
AcDbLine
 62
7
  6
CONTINUOUS
 10
942.0663306452
 20
739.2295362903
 11
376.5663306452
 21
739.2295362903
  0
LINE
  5
38C
100
AcDbEntity
  8
7_ALL_FEATURES
100
AcDbLine
 62
7
  6
CONTINUOUS
 10
942.0663306452
 20
739.8295362903
 11
376.5663306452
 21
739.8295362903
  0
LINE
  5
38D
100
AcDbEntity
  8
7_ALL_FEATURES
100
AcDbLine
 62
7
  6
CONTINUOUS
 10
942.0663306452
 20
742.2295362903
 11
376.5663306452
 21
742.2295362903
  0
LINE
  5
38E
100
AcDbEntity
  8
7_ALL_FEATURES
100
AcDbLine
 62
7
  6
CONTINUOUS
 10
328.7663306452
 20
742.4795362903
 11
332.7663306452
 21
742.4795362903
  0
LINE
  5
38F
100
AcDbEntity
  8
7_ALL_FEATURES
100
AcDbLine
 62
7
  6
CONTINUOUS
 10
344.5663306452
 20
742.4795362903
 11
348.5663306452
 21
742.4795362903
  0
LINE
  5
390
100
AcDbEntity
  8
7_ALL_FEATURES
100
AcDbLine
 62
7
  6
CONTINUOUS
 10
942.0663306452
 20
742.8295362903
 11
376.5663306452
 21
742.8295362903
  0
LINE
  5
391
100
AcDbEntity
  8
3_ALL_AXES
100
AcDbLine
 62
7
  6
CONTINUOUS
 10
325.9163306452
 20
742.8795362903
 11
334.6163306452
 21
742.8795362903
  0
LINE
  5
392
100
AcDbEntity
  8
3_ALL_AXES
100
AcDbLine
 62
7
  6
CONTINUOUS
 10
341.4163306452
 20
742.8795362903
 11
350.1163306452
 21
742.8795362903
  0
LINE
  5
393
100
AcDbEntity
  8
7_ALL_FEATURES
100
AcDbLine
 62
7
  6
CONTINUOUS
 10
366.1663306452
 20
744.6795362903
 11
375.5250223069
 21
744.6795362903
  0
LINE
  5
394
100
AcDbEntity
  8
7_ALL_FEATURES
100
AcDbLine
 62
9
  6
CONTINUOUS
 10
942.0663306452
 20
744.7795362903
 11
376.5663306452
 21
744.7795362903
  0
LINE
  5
395
100
AcDbEntity
  8
7_ALL_FEATURES
100
AcDbLine
 62
7
  6
CONTINUOUS
 10
375.2663306452
 20
744.8295362903
 11
374.3538311942
 21
744.8295362903
  0
LINE
  5
396
100
AcDbEntity
  8
7_ALL_FEATURES
100
AcDbLine
 62
3
  6
CONTINUOUS
 10
317.7663306452
 20
744.8795362903
 11
365.2981725839
 21
744.8795362903
  0
LINE
  5
397
100
AcDbEntity
  8
7_ALL_FEATURES
100
AcDbLine
 62
7
  6
CONTINUOUS
 10
376.8663306452
 20
745.0795362903
 11
942.0663306452
 21
745.0795362903
  0
LINE
  5
398
100
AcDbEntity
  8
7_ALL_FEATURES
100
AcDbLine
 62
9
  6
CONTINUOUS
 10
378.0663306452
 20
745.3795362903
 11
942.0663306452
 21
745.3795362903
  0
LINE
  5
399
100
AcDbEntity
  8
7_ALL_FEATURES
100
AcDbLine
 62
9
  6
CONTINUOUS
 10
378.0663306452
 20
746.0295362903
 11
942.0663306452
 21
746.0295362903
  0
LINE
  5
39A
100
AcDbEntity
  8
7_ALL_FEATURES
100
AcDbLine
 62
7
  6
CONTINUOUS
 10
374.4720043369
 20
746.3295362903
 11
375.2663306452
 21
746.3295362903
  0
LINE
  5
39B
100
AcDbEntity
  8
7_ALL_FEATURES
100
AcDbLine
 62
7
  6
CONTINUOUS
 10
377.3663306452
 20
746.3295362903
 11
942.0663306452
 21
746.3295362903
  0
LINE
  5
39C
100
AcDbEntity
  8
7_ALL_FEATURES
100
AcDbLine
 62
9
  6
CONTINUOUS
 10
375.4695381392
 20
746.4101301798
 11
374.2674048289
 21
746.4101301798
  0
LINE
  5
39D
100
AcDbEntity
  8
7_ALL_FEATURES
100
AcDbLine
 62
7
  6
CONTINUOUS
 10
942.0663306452
 20
746.5295362903
 11
378.5663306452
 21
746.5295362903
  0
LINE
  5
39E
100
AcDbEntity
  8
7_ALL_FEATURES
100
AcDbLine
 62
7
  6
CONTINUOUS
 10
377.8663306452
 20
746.5295362903
 11
377.2663306452
 21
746.5295362903
  0
LINE
  5
39F
100
AcDbEntity
  8
7_ALL_FEATURES
100
AcDbLine
 62
9
  6
CONTINUOUS
 10
378.5663306452
 20
746.6295362903
 11
378.0391567331
 21
746.6295362903
  0
LINE
  5
3A0
100
AcDbEntity
  8
7_ALL_FEATURES
100
AcDbLine
 62
9
  6
CONTINUOUS
 10
377.0935045572
 20
746.6295362903
 11
377.0663306452
 21
746.6295362903
  0
LINE
  5
3A1
100
AcDbEntity
  8
7_ALL_FEATURES
100
AcDbLine
 62
9
  6
CONTINUOUS
 10
369.9663306452
 20
746.6795362903
 11
371.7790833672
 21
746.6795362903
  0
LINE
  5
3A2
100
AcDbEntity
  8
7_ALL_FEATURES
100
AcDbLine
 62
9
  6
CONTINUOUS
 10
942.0663306452
 20
746.7295362903
 11
378.5663306452
 21
746.7295362903
  0
LINE
  5
3A3
100
AcDbEntity
  8
7_ALL_FEATURES
100
AcDbLine
 62
9
  6
CONTINUOUS
 10
378.0663306452
 20
747.2795362903
 11
378.5663306452
 21
747.2795362903
  0
LINE
  5
3A4
100
AcDbEntity
  8
7_ALL_FEATURES
100
AcDbLine
 62
9
  6
CONTINUOUS
 10
370.9748068347
 20
747.4295362903
 11
369.9663306452
 21
747.4295362903
  0
LINE
  5
3A5
100
AcDbEntity
  8
7_ALL_FEATURES
100
AcDbLine
 62
7
  6
CONTINUOUS
 10
375.891129046
 20
747.5795362903
 11
377.0663306452
 21
747.5795362903
  0
LINE
  5
3A6
100
AcDbEntity
  8
7_ALL_FEATURES
100
AcDbLine
 62
7
  6
CONTINUOUS
 10
378.0663306452
 20
747.5795362903
 11
378.5663306452
 21
747.5795362903
  0
LINE
  5
3A7
100
AcDbEntity
  8
7_ALL_FEATURES
100
AcDbLine
 62
7
  6
CONTINUOUS
 10
370.4561409839
 20
747.7295362903
 11
370.2663306452
 21
747.7295362903
  0
LINE
  5
3A8
100
AcDbEntity
  8
7_ALL_FEATURES
100
AcDbLine
 62
7
  6
CONTINUOUS
 10
376.8663306452
 20
747.7795362903
 11
376.2463306452
 21
747.7795362903
  0
LINE
  5
3A9
100
AcDbEntity
  8
7_ALL_FEATURES
100
AcDbLine
 62
7
  6
CONTINUOUS
 10
317.7663306452
 20
747.8795362903
 11
363.8663306452
 21
747.8795362903
  0
LINE
  5
3AA
100
AcDbEntity
  8
7_ALL_FEATURES
100
AcDbLine
 62
9
  6
CONTINUOUS
 10
378.5663306452
 20
748.1405738923
 11
378.0663306452
 21
748.1405738923
  0
LINE
  5
3AB
100
AcDbEntity
  8
7_ALL_FEATURES
100
AcDbLine
 62
9
  6
CONTINUOUS
 10
375.0684754438
 20
748.1405738923
 11
373.9584723652
 21
748.1405738923
  0
LINE
  5
3AC
100
AcDbEntity
  8
7_ALL_FEATURES
100
AcDbLine
 62
9
  6
CONTINUOUS
 10
373.5741122184
 20
748.1405738923
 11
372.4117311371
 21
748.1405738923
  0
LINE
  5
3AD
100
AcDbEntity
  8
7_ALL_FEATURES
100
AcDbLine
 62
9
  6
CONTINUOUS
 10
378.5663306452
 20
748.3599800028
 11
378.0663306452
 21
748.3599800028
  0
LINE
  5
3AE
100
AcDbEntity
  8
7_ALL_FEATURES
100
AcDbLine
 62
9
  6
CONTINUOUS
 10
375.3848762731
 20
748.3599800028
 11
372.3163306452
 21
748.3599800028
  0
LINE
  5
3AF
100
AcDbEntity
  8
7_ALL_FEATURES
100
AcDbLine
 62
9
  6
CONTINUOUS
 10
366.2167649611
 20
748.5635272194
 11
367.9158963292
 21
748.5635272194
  0
LINE
  5
3B0
100
AcDbEntity
  8
7_ALL_FEATURES
100
AcDbLine
 62
7
  6
CONTINUOUS
 10
376.2463306452
 20
748.5795362903
 11
376.7663306452
 21
748.5795362903
  0
LINE
  5
3B1
100
AcDbEntity
  8
7_ALL_FEATURES
100
AcDbLine
 62
9
  6
CONTINUOUS
 10
366.2805189629
 20
748.9406020492
 11
367.8521423274
 21
748.9406020492
  0
LINE
  5
3B2
100
AcDbEntity
  8
7_ALL_FEATURES
100
AcDbLine
 62
9
  6
CONTINUOUS
 10
372.3163306452
 20
749.1795362903
 11
376.9663306452
 21
749.1795362903
  0
LINE
  5
3B3
100
AcDbEntity
  8
7_ALL_FEATURES
100
AcDbLine
 62
9
  6
CONTINUOUS
 10
378.0663306452
 20
749.1795362903
 11
378.5663306452
 21
749.1795362903
  0
LINE
  5
3B4
100
AcDbEntity
  8
7_ALL_FEATURES
100
AcDbLine
 62
9
  6
CONTINUOUS
 10
366.0559676741
 20
749.3295362903
 11
368.0766936162
 21
749.3295362903
  0
LINE
  5
3B5
100
AcDbEntity
  8
7_ALL_FEATURES
100
AcDbLine
 62
7
  6
CONTINUOUS
 10
320.5985218466
 20
749.4795362903
 11
376.9663306452
 21
749.4795362903
  0
LINE
  5
3B6
100
AcDbEntity
  8
7_ALL_FEATURES
100
AcDbLine
 62
7
  6
CONTINUOUS
 10
378.0663306452
 20
749.4795362903
 11
378.5663306452
 21
749.4795362903
  0
LINE
  5
3B7
100
AcDbEntity
  8
7_ALL_FEATURES
100
AcDbLine
 62
9
  6
CONTINUOUS
 10
318.6615927359
 20
749.5263117455
 11
318.5374657127
 21
749.5263117455
  0
LINE
  5
3B8
100
AcDbEntity
  8
7_ALL_FEATURES
100
AcDbLine
 62
9
  6
CONTINUOUS
 10
378.5663306452
 20
749.5398436695
 11
378.0663306452
 21
749.5398436695
  0
LINE
  5
3B9
100
AcDbEntity
  8
7_ALL_FEATURES
100
AcDbLine
 62
9
  6
CONTINUOUS
 10
376.9663306452
 20
749.5398436695
 11
350.9266380244
 21
749.5398436695
  0
LINE
  5
3BA
100
AcDbEntity
  8
7_ALL_FEATURES
100
AcDbLine
 62
9
  6
CONTINUOUS
 10
342.2060232659
 20
749.5398436695
 11
335.1266380244
 21
749.5398436695
  0
LINE
  5
3BB
100
AcDbEntity
  8
7_ALL_FEATURES
100
AcDbLine
 62
9
  6
CONTINUOUS
 10
326.4060232659
 20
749.5398436695
 11
320.2565017033
 21
749.5398436695
  0
LINE
  5
3BC
100
AcDbEntity
  8
7_ALL_FEATURES
100
AcDbLine
 62
7
  6
CONTINUOUS
 10
298.5663306452
 20
749.8795362903
 11
309.5518106501
 21
749.8795362903
  0
LINE
  5
3BD
100
AcDbEntity
  8
7_ALL_FEATURES
100
AcDbLine
 62
9
  6
CONTINUOUS
 10
319.2809927927
 20
749.8948998763
 11
326.0509670592
 21
749.8948998763
  0
LINE
  5
3BE
100
AcDbEntity
  8
7_ALL_FEATURES
100
AcDbLine
 62
9
  6
CONTINUOUS
 10
335.4816942311
 20
749.8948998763
 11
341.8509670592
 21
749.8948998763
  0
LINE
  5
3BF
100
AcDbEntity
  8
7_ALL_FEATURES
100
AcDbLine
 62
9
  6
CONTINUOUS
 10
351.2816942311
 20
749.8948998763
 11
376.9663306452
 21
749.8948998763
  0
LINE
  5
3C0
100
AcDbEntity
  8
7_ALL_FEATURES
100
AcDbLine
 62
9
  6
CONTINUOUS
 10
378.0663306452
 20
749.8948998763
 11
378.5663306452
 21
749.8948998763
  0
LINE
  5
3C1
100
AcDbEntity
  8
6_ALL_SURFS
100
AcDbLine
 62
7
  6
CONTINUOUS
 10
378.5663306452
 20
749.91299209
 11
378.0663306452
 21
749.91299209
  0
LINE
  5
3C2
100
AcDbEntity
  8
6_ALL_SURFS
100
AcDbLine
 62
7
  6
CONTINUOUS
 10
376.9663306452
 20
749.91299209
 11
351.2997864449
 21
749.91299209
  0
LINE
  5
3C3
100
AcDbEntity
  8
6_ALL_SURFS
100
AcDbLine
 62
7
  6
CONTINUOUS
 10
341.8328748455
 20
749.91299209
 11
335.4997864449
 21
749.91299209
  0
LINE
  5
3C4
100
AcDbEntity
  8
6_ALL_SURFS
100
AcDbLine
 62
7
  6
CONTINUOUS
 10
326.0328748455
 20
749.91299209
 11
319.1783867497
 21
749.91299209
  0
LINE
  5
3C5
100
AcDbEntity
  8
3_ALL_AXES
100
AcDbLine
 62
7
  6
CONTINUOUS
 10
325.7663306452
 20
750.1795362903
 11
335.7663306452
 21
750.1795362903
  0
LINE
  5
3C6
100
AcDbEntity
  8
3_ALL_AXES
100
AcDbLine
 62
7
  6
CONTINUOUS
 10
341.5663306452
 20
750.1795362903
 11
351.5663306452
 21
750.1795362903
  0
LINE
  5
3C7
100
AcDbEntity
  8
7_ALL_FEATURES
100
AcDbLine
 62
9
  6
CONTINUOUS
 10
299.7663306452
 20
750.3795362903
 11
307.2964563983
 21
750.3795362903
  0
LINE
  5
3C8
100
AcDbEntity
  8
3_ALL_AXES
100
AcDbLine
 62
7
  6
CONTINUOUS
 10
325.7663598295
 20
750.4795362903
 11
335.7663014609
 21
750.4795362903
  0
LINE
  5
3C9
100
AcDbEntity
  8
3_ALL_AXES
100
AcDbLine
 62
7
  6
CONTINUOUS
 10
341.5663598295
 20
750.4795362903
 11
351.5663014609
 21
750.4795362903
  0
LINE
  5
3CA
100
AcDbEntity
  8
6_ALL_SURFS
100
AcDbLine
 62
7
  6
CONTINUOUS
 10
301.4663306452
 20
751.0795362903
 11
304.2182931051
 21
751.0795362903
  0
LINE
  5
3CB
100
AcDbEntity
  8
7_ALL_FEATURES
100
AcDbLine
 62
9
  6
CONTINUOUS
 10
301.0351631864
 20
751.1136729531
 11
299.7663306452
 21
751.1136729531
  0
LINE
  5
3CC
100
AcDbEntity
  8
7_ALL_FEATURES
100
AcDbLine
 62
9
  6
CONTINUOUS
 10
303.6031369997
 20
751.7028745344
 11
303.2276209677
 21
751.7028745344
  0
LINE
  5
3CD
100
AcDbEntity
  8
7_ALL_FEATURES
100
AcDbLine
 62
9
  6
CONTINUOUS
 10
378.5663306452
 20
752.3058251349
 11
378.0663306452
 21
752.3058251349
  0
LINE
  5
3CE
100
AcDbEntity
  8
7_ALL_FEATURES
100
AcDbLine
 62
9
  6
CONTINUOUS
 10
376.9663306452
 20
752.3058251349
 11
305.9998910312
 21
752.3058251349
  0
LINE
  5
3CF
100
AcDbEntity
  8
7_ALL_FEATURES
100
AcDbLine
 62
9
  6
CONTINUOUS
 10
300.4823397161
 20
753.0299706063
 11
302.446828336
 21
753.0299706063
  0
LINE
  5
3D0
100
AcDbEntity
  8
6_ALL_SURFS
100
AcDbLine
 62
7
  6
CONTINUOUS
 10
302.5293279275
 20
753.1339169869
 11
300.2552648863
 21
753.1339169869
  0
LINE
  5
3D1
100
AcDbEntity
  8
7_ALL_FEATURES
100
AcDbLine
 62
9
  6
CONTINUOUS
 10
378.5663306452
 20
753.282121142
 11
378.0663306452
 21
753.282121142
  0
LINE
  5
3D2
100
AcDbEntity
  8
7_ALL_FEATURES
100
AcDbLine
 62
9
  6
CONTINUOUS
 10
376.9663306452
 20
753.282121142
 11
305.2163306452
 21
753.282121142
  0
LINE
  5
3D3
100
AcDbEntity
  8
6_ALL_SURFS
100
AcDbLine
 62
7
  6
CONTINUOUS
 10
302.5293279275
 20
754.6251555937
 11
300.2552648863
 21
754.6251555937
  0
LINE
  5
3D4
100
AcDbEntity
  8
7_ALL_FEATURES
100
AcDbLine
 62
9
  6
CONTINUOUS
 10
300.4823397161
 20
754.7291019743
 11
302.446828336
 21
754.7291019743
  0
LINE
  5
3D5
100
AcDbEntity
  8
7_ALL_FEATURES
100
AcDbLine
 62
9
  6
CONTINUOUS
 10
303.3632754871
 20
756.3044074209
 11
302.8663306452
 21
756.3044074209
  0
LINE
  5
3D6
100
AcDbEntity
  8
7_ALL_FEATURES
100
AcDbLine
 62
7
  6
CONTINUOUS
 10
298.5663306452
 20
756.6795362903
 11
303.6123476515
 21
756.6795362903
  0
LINE
  5
3D7
100
AcDbEntity
  8
7_ALL_FEATURES
100
AcDbLine
 62
7
  6
CONTINUOUS
 10
306.2163306452
 20
758.3795362903
 11
305.2163306452
 21
758.3795362903
  0
LINE
  5
3D8
100
AcDbEntity
  8
7_ALL_FEATURES
100
AcDbLine
 62
7
  6
CONTINUOUS
 10
308.2445338754
 20
761.8795362903
 11
306.2163306452
 21
761.8795362903
  0
LINE
  5
3D9
100
AcDbEntity
  8
7_ALL_FEATURES
100
AcDbLine
 62
7
  6
CONTINUOUS
 10
303.3163306452
 20
762.2795362903
 11
300.0663306452
 21
762.2795362903
  0
LINE
  5
3DA
100
AcDbEntity
  8
7_ALL_FEATURES
100
AcDbLine
 62
7
  6
CONTINUOUS
 10
309.0622973376
 20
763.8795362903
 11
309.046143062
 21
763.8795362903
  0
LINE
  5
3DB
100
AcDbEntity
  8
7_ALL_FEATURES
100
AcDbLine
 62
9
  6
CONTINUOUS
 10
309.0622973376
 20
763.8795362903
 11
376.9663306452
 21
763.8795362903
  0
LINE
  5
3DC
100
AcDbEntity
  8
7_ALL_FEATURES
100
AcDbLine
 62
9
  6
CONTINUOUS
 10
378.0663306452
 20
763.8795362903
 11
378.5663306452
 21
763.8795362903
  0
LINE
  5
3DD
100
AcDbEntity
  8
7_ALL_FEATURES
100
AcDbLine
 62
7
  6
CONTINUOUS
 10
300.1663306452
 20
764.1795362903
 11
304.9163306452
 21
764.1795362903
  0
LINE
  5
3DE
100
AcDbEntity
  8
7_ALL_FEATURES
100
AcDbLine
 62
7
  6
CONTINUOUS
 10
309.1168664849
 20
764.1795362903
 11
376.9663306452
 21
764.1795362903
  0
LINE
  5
3DF
100
AcDbEntity
  8
7_ALL_FEATURES
100
AcDbLine
 62
7
  6
CONTINUOUS
 10
378.0663306452
 20
764.1795362903
 11
378.5663306452
 21
764.1795362903
  0
LINE
  5
3E0
100
AcDbEntity
  8
7_ALL_FEATURES
100
AcDbLine
 62
9
  6
CONTINUOUS
 10
378.5663306452
 20
764.4795362903
 11
378.0663306452
 21
764.4795362903
  0
LINE
  5
3E1
100
AcDbEntity
  8
7_ALL_FEATURES
100
AcDbLine
 62
9
  6
CONTINUOUS
 10
376.9663306452
 20
764.4795362903
 11
309.1765216236
 21
764.4795362903
  0
LINE
  5
3E2
100
AcDbEntity
  8
7_ALL_FEATURES
100
AcDbLine
 62
9
  6
CONTINUOUS
 10
300.2163306452
 20
764.4795362903
 11
299.8663306452
 21
764.4795362903
  0
LINE
  5
3E3
100
AcDbEntity
  8
7_ALL_FEATURES
100
AcDbLine
 62
7
  6
CONTINUOUS
 10
309.2850193704
 20
765.3795362903
 11
309.046143062
 21
765.3795362903
  0
LINE
  5
3E4
100
AcDbEntity
  8
7_ALL_FEATURES
100
AcDbLine
 62
7
  6
CONTINUOUS
 10
309.046143062
 20
766.3795362903
 11
309.2850193704
 21
766.3795362903
  0
LINE
  5
3E5
100
AcDbEntity
  8
7_ALL_FEATURES
100
AcDbLine
 62
9
  6
CONTINUOUS
 10
378.5663306452
 20
767.2795362903
 11
378.0663306452
 21
767.2795362903
  0
LINE
  5
3E6
100
AcDbEntity
  8
7_ALL_FEATURES
100
AcDbLine
 62
9
  6
CONTINUOUS
 10
376.9663306452
 20
767.2795362903
 11
309.1764730105
 21
767.2795362903
  0
LINE
  5
3E7
100
AcDbEntity
  8
7_ALL_FEATURES
100
AcDbLine
 62
9
  6
CONTINUOUS
 10
300.2163306452
 20
767.2795362903
 11
299.8663306452
 21
767.2795362903
  0
LINE
  5
3E8
100
AcDbEntity
  8
6_ALL_SURFS
100
AcDbLine
 62
7
  6
CONTINUOUS
 10
300.1663306452
 20
767.5795362903
 11
304.9163306452
 21
767.5795362903
  0
LINE
  5
3E9
100
AcDbEntity
  8
7_ALL_FEATURES
100
AcDbLine
 62
7
  6
CONTINUOUS
 10
309.1168611978
 20
767.5795362903
 11
376.9663306452
 21
767.5795362903
  0
LINE
  5
3EA
100
AcDbEntity
  8
7_ALL_FEATURES
100
AcDbLine
 62
7
  6
CONTINUOUS
 10
378.0663306452
 20
767.5795362903
 11
378.5663306452
 21
767.5795362903
  0
LINE
  5
3EB
100
AcDbEntity
  8
7_ALL_FEATURES
100
AcDbLine
 62
7
  6
CONTINUOUS
 10
309.046143062
 20
767.8795362903
 11
309.0622973376
 21
767.8795362903
  0
LINE
  5
3EC
100
AcDbEntity
  8
7_ALL_FEATURES
100
AcDbLine
 62
9
  6
CONTINUOUS
 10
309.0622973376
 20
767.8795362903
 11
376.9663306452
 21
767.8795362903
  0
LINE
  5
3ED
100
AcDbEntity
  8
7_ALL_FEATURES
100
AcDbLine
 62
9
  6
CONTINUOUS
 10
378.0663306452
 20
767.8795362903
 11
378.5663306452
 21
767.8795362903
  0
LINE
  5
3EE
100
AcDbEntity
  8
6_ALL_SURFS
100
AcDbLine
 62
7
  6
CONTINUOUS
 10
303.3163306452
 20
769.4795362903
 11
300.0663306452
 21
769.4795362903
  0
LINE
  5
3EF
100
AcDbEntity
  8
7_ALL_FEATURES
100
AcDbLine
 62
7
  6
CONTINUOUS
 10
308.2445338754
 20
769.8795362903
 11
306.2163306452
 21
769.8795362903
  0
LINE
  5
3F0
100
AcDbEntity
  8
7_ALL_FEATURES
100
AcDbLine
 62
7
  6
CONTINUOUS
 10
305.2163306452
 20
773.3795362903
 11
306.2163306452
 21
773.3795362903
  0
LINE
  5
3F1
100
AcDbEntity
  8
7_ALL_FEATURES
100
AcDbLine
 62
7
  6
CONTINUOUS
 10
303.6123476515
 20
775.0795362903
 11
301.4663306452
 21
775.0795362903
  0
LINE
  5
3F2
100
AcDbEntity
  8
6_ALL_SURFS
100
AcDbLine
 62
7
  6
CONTINUOUS
 10
298.5663306452
 20
775.0795362903
 11
301.4663306452
 21
775.0795362903
  0
LINE
  5
3F3
100
AcDbEntity
  8
7_ALL_FEATURES
100
AcDbLine
 62
9
  6
CONTINUOUS
 10
303.3632754871
 20
775.4546651597
 11
302.8663306452
 21
775.4546651597
  0
LINE
  5
3F4
100
AcDbEntity
  8
7_ALL_FEATURES
100
AcDbLine
 62
9
  6
CONTINUOUS
 10
300.4823397161
 20
777.0299706063
 11
302.446828336
 21
777.0299706063
  0
LINE
  5
3F5
100
AcDbEntity
  8
7_ALL_FEATURES
100
AcDbLine
 62
7
  6
CONTINUOUS
 10
300.2552648863
 20
777.1339169869
 11
302.5293279275
 21
777.1339169869
  0
LINE
  5
3F6
100
AcDbEntity
  8
7_ALL_FEATURES
100
AcDbLine
 62
9
  6
CONTINUOUS
 10
378.5663306452
 20
778.4769514387
 11
378.0663306452
 21
778.4769514387
  0
LINE
  5
3F7
100
AcDbEntity
  8
7_ALL_FEATURES
100
AcDbLine
 62
9
  6
CONTINUOUS
 10
376.9663306452
 20
778.4769514387
 11
305.2163306452
 21
778.4769514387
  0
LINE
  5
3F8
100
AcDbEntity
  8
7_ALL_FEATURES
100
AcDbLine
 62
7
  6
CONTINUOUS
 10
300.2552648863
 20
778.6251555937
 11
302.5293279275
 21
778.6251555937
  0
LINE
  5
3F9
100
AcDbEntity
  8
7_ALL_FEATURES
100
AcDbLine
 62
9
  6
CONTINUOUS
 10
300.4823397161
 20
778.7291019743
 11
302.446828336
 21
778.7291019743
  0
LINE
  5
3FA
100
AcDbEntity
  8
7_ALL_FEATURES
100
AcDbLine
 62
9
  6
CONTINUOUS
 10
378.5663306452
 20
779.4532474458
 11
378.0663306452
 21
779.4532474458
  0
LINE
  5
3FB
100
AcDbEntity
  8
7_ALL_FEATURES
100
AcDbLine
 62
9
  6
CONTINUOUS
 10
376.9663306452
 20
779.4532474458
 11
305.9998910312
 21
779.4532474458
  0
LINE
  5
3FC
100
AcDbEntity
  8
7_ALL_FEATURES
100
AcDbLine
 62
9
  6
CONTINUOUS
 10
303.6031369997
 20
780.0561980462
 11
303.2276209677
 21
780.0561980462
  0
LINE
  5
3FD
100
AcDbEntity
  8
7_ALL_FEATURES
100
AcDbLine
 62
9
  6
CONTINUOUS
 10
301.0351631864
 20
780.6453996275
 11
299.7663306452
 21
780.6453996275
  0
LINE
  5
3FE
100
AcDbEntity
  8
3_ALL_AXES
100
AcDbLine
 62
7
  6
CONTINUOUS
 10
304.2182931051
 20
780.6795362903
 11
301.4663306452
 21
780.6795362903
  0
LINE
  5
3FF
100
AcDbEntity
  8
3_ALL_AXES
100
AcDbLine
 62
7
  6
CONTINUOUS
 10
325.7663598295
 20
781.2795362903
 11
335.7663014609
 21
781.2795362903
  0
LINE
  5
400
100
AcDbEntity
  8
3_ALL_AXES
100
AcDbLine
 62
7
  6
CONTINUOUS
 10
354.0663598295
 20
781.2795362903
 11
364.0663014609
 21
781.2795362903
  0
LINE
  5
401
100
AcDbEntity
  8
7_ALL_FEATURES
100
AcDbLine
 62
9
  6
CONTINUOUS
 10
299.7663306452
 20
781.3795362903
 11
307.2964563983
 21
781.3795362903
  0
LINE
  5
402
100
AcDbEntity
  8
3_ALL_AXES
100
AcDbLine
 62
7
  6
CONTINUOUS
 10
325.7663306452
 20
781.5795362903
 11
335.7663306452
 21
781.5795362903
  0
LINE
  5
403
100
AcDbEntity
  8
3_ALL_AXES
100
AcDbLine
 62
7
  6
CONTINUOUS
 10
354.0663306452
 20
781.5795362903
 11
364.0663306452
 21
781.5795362903
  0
LINE
  5
404
100
AcDbEntity
  8
7_ALL_FEATURES
100
AcDbLine
 62
7
  6
CONTINUOUS
 10
319.1783867497
 20
781.8460804906
 11
326.0328748455
 21
781.8460804906
  0
LINE
  5
405
100
AcDbEntity
  8
7_ALL_FEATURES
100
AcDbLine
 62
7
  6
CONTINUOUS
 10
335.4997864449
 20
781.8460804906
 11
354.3328748455
 21
781.8460804906
  0
LINE
  5
406
100
AcDbEntity
  8
7_ALL_FEATURES
100
AcDbLine
 62
7
  6
CONTINUOUS
 10
363.7997864449
 20
781.8460804906
 11
376.9663306452
 21
781.8460804906
  0
LINE
  5
407
100
AcDbEntity
  8
7_ALL_FEATURES
100
AcDbLine
 62
7
  6
CONTINUOUS
 10
378.0663306452
 20
781.8460804906
 11
378.5663306452
 21
781.8460804906
  0
LINE
  5
408
100
AcDbEntity
  8
7_ALL_FEATURES
100
AcDbLine
 62
9
  6
CONTINUOUS
 10
319.2809927927
 20
781.8641727044
 11
326.0509670592
 21
781.8641727044
  0
LINE
  5
409
100
AcDbEntity
  8
7_ALL_FEATURES
100
AcDbLine
 62
9
  6
CONTINUOUS
 10
335.4816942311
 20
781.8641727044
 11
354.3509670592
 21
781.8641727044
  0
LINE
  5
40A
100
AcDbEntity
  8
7_ALL_FEATURES
100
AcDbLine
 62
9
  6
CONTINUOUS
 10
363.7816942311
 20
781.8641727044
 11
376.9663306452
 21
781.8641727044
  0
LINE
  5
40B
100
AcDbEntity
  8
7_ALL_FEATURES
100
AcDbLine
 62
9
  6
CONTINUOUS
 10
378.0663306452
 20
781.8641727044
 11
378.5663306452
 21
781.8641727044
  0
LINE
  5
40C
100
AcDbEntity
  8
6_ALL_SURFS
100
AcDbLine
 62
7
  6
CONTINUOUS
 10
299.2663306452
 20
781.8795362903
 11
298.5663306452
 21
781.8795362903
  0
LINE
  5
40D
100
AcDbEntity
  8
7_ALL_FEATURES
100
AcDbLine
 62
7
  6
CONTINUOUS
 10
299.2663306452
 20
781.8795362903
 11
309.5518106501
 21
781.8795362903
  0
LINE
  5
40E
100
AcDbEntity
  8
7_ALL_FEATURES
100
AcDbLine
 62
9
  6
CONTINUOUS
 10
378.5663306452
 20
782.2192289111
 11
378.0663306452
 21
782.2192289111
  0
LINE
  5
40F
100
AcDbEntity
  8
7_ALL_FEATURES
100
AcDbLine
 62
9
  6
CONTINUOUS
 10
376.9663306452
 20
782.2192289111
 11
363.4266380244
 21
782.2192289111
  0
LINE
  5
410
100
AcDbEntity
  8
7_ALL_FEATURES
100
AcDbLine
 62
9
  6
CONTINUOUS
 10
354.7060232659
 20
782.2192289111
 11
335.1266380244
 21
782.2192289111
  0
LINE
  5
411
100
AcDbEntity
  8
7_ALL_FEATURES
100
AcDbLine
 62
9
  6
CONTINUOUS
 10
326.4060232659
 20
782.2192289111
 11
320.2565017033
 21
782.2192289111
  0
LINE
  5
412
100
AcDbEntity
  8
7_ALL_FEATURES
100
AcDbLine
 62
9
  6
CONTINUOUS
 10
318.6615927359
 20
782.2327608351
 11
318.5374657127
 21
782.2327608351
  0
LINE
  5
413
100
AcDbEntity
  8
6_ALL_SURFS
100
AcDbLine
 62
7
  6
CONTINUOUS
 10
320.5985218466
 20
782.2795362903
 11
365.7961600529
 21
782.2795362903
  0
LINE
  5
414
100
AcDbEntity
  8
7_ALL_FEATURES
100
AcDbLine
 62
7
  6
CONTINUOUS
 10
365.7961600529
 20
782.2795362903
 11
368.3365012374
 21
782.2795362903
  0
LINE
  5
415
100
AcDbEntity
  8
6_ALL_SURFS
100
AcDbLine
 62
7
  6
CONTINUOUS
 10
368.3365012374
 20
782.2795362903
 11
372.0163306452
 21
782.2795362903
  0
LINE
  5
416
100
AcDbEntity
  8
7_ALL_FEATURES
100
AcDbLine
 62
7
  6
CONTINUOUS
 10
372.0163306452
 20
782.2795362903
 11
376.9663306452
 21
782.2795362903
  0
LINE
  5
417
100
AcDbEntity
  8
7_ALL_FEATURES
100
AcDbLine
 62
7
  6
CONTINUOUS
 10
378.0663306452
 20
782.2795362903
 11
378.5663306452
 21
782.2795362903
  0
LINE
  5
418
100
AcDbEntity
  8
7_ALL_FEATURES
100
AcDbLine
 62
9
  6
CONTINUOUS
 10
366.0559676741
 20
782.4295362903
 11
368.0766936162
 21
782.4295362903
  0
LINE
  5
419
100
AcDbEntity
  8
7_ALL_FEATURES
100
AcDbLine
 62
9
  6
CONTINUOUS
 10
372.3163306452
 20
782.5795362903
 11
376.9663306452
 21
782.5795362903
  0
LINE
  5
41A
100
AcDbEntity
  8
7_ALL_FEATURES
100
AcDbLine
 62
9
  6
CONTINUOUS
 10
378.0663306452
 20
782.5795362903
 11
378.5663306452
 21
782.5795362903
  0
LINE
  5
41B
100
AcDbEntity
  8
7_ALL_FEATURES
100
AcDbLine
 62
9
  6
CONTINUOUS
 10
366.2805189629
 20
782.8184705314
 11
367.8521423274
 21
782.8184705314
  0
LINE
  5
41C
100
AcDbEntity
  8
7_ALL_FEATURES
100
AcDbLine
 62
7
  6
CONTINUOUS
 10
376.7663306452
 20
783.1795362903
 11
376.2463306452
 21
783.1795362903
  0
LINE
  5
41D
100
AcDbEntity
  8
7_ALL_FEATURES
100
AcDbLine
 62
9
  6
CONTINUOUS
 10
366.2167649611
 20
783.1955453612
 11
367.9158963292
 21
783.1955453612
  0
LINE
  5
41E
100
AcDbEntity
  8
7_ALL_FEATURES
100
AcDbLine
 62
9
  6
CONTINUOUS
 10
378.5663306452
 20
783.3990925778
 11
378.0663306452
 21
783.3990925778
  0
LINE
  5
41F
100
AcDbEntity
  8
7_ALL_FEATURES
100
AcDbLine
 62
9
  6
CONTINUOUS
 10
375.3848762731
 20
783.3990925778
 11
372.3163306452
 21
783.3990925778
  0
LINE
  5
420
100
AcDbEntity
  8
7_ALL_FEATURES
100
AcDbLine
 62
9
  6
CONTINUOUS
 10
378.5663306452
 20
783.6184986883
 11
378.0663306452
 21
783.6184986883
  0
LINE
  5
421
100
AcDbEntity
  8
7_ALL_FEATURES
100
AcDbLine
 62
9
  6
CONTINUOUS
 10
375.0684754438
 20
783.6184986883
 11
373.9584723652
 21
783.6184986883
  0
LINE
  5
422
100
AcDbEntity
  8
7_ALL_FEATURES
100
AcDbLine
 62
9
  6
CONTINUOUS
 10
373.5741122184
 20
783.6184986883
 11
372.4117311371
 21
783.6184986883
  0
LINE
  5
423
100
AcDbEntity
  8
6_ALL_SURFS
100
AcDbLine
 62
7
  6
CONTINUOUS
 10
363.8663306452
 20
783.8795362903
 11
319.1208167159
 21
783.8795362903
  0
LINE
  5
424
100
AcDbEntity
  8
7_ALL_FEATURES
100
AcDbLine
 62
7
  6
CONTINUOUS
 10
319.1208167159
 20
783.8795362903
 11
317.7663306452
 21
783.8795362903
  0
LINE
  5
425
100
AcDbEntity
  8
7_ALL_FEATURES
100
AcDbLine
 62
7
  6
CONTINUOUS
 10
376.2463306452
 20
783.9795362903
 11
376.8663306452
 21
783.9795362903
  0
LINE
  5
426
100
AcDbEntity
  8
6_ALL_SURFS
100
AcDbLine
 62
7
  6
CONTINUOUS
 10
370.4561409839
 20
784.0295362903
 11
370.2663306452
 21
784.0295362903
  0
LINE
  5
427
100
AcDbEntity
  8
6_ALL_SURFS
100
AcDbLine
 62
7
  6
CONTINUOUS
 10
375.891129046
 20
784.1795362903
 11
376.7663306452
 21
784.1795362903
  0
LINE
  5
428
100
AcDbEntity
  8
7_ALL_FEATURES
100
AcDbLine
 62
7
  6
CONTINUOUS
 10
376.7663306452
 20
784.1795362903
 11
377.0663306452
 21
784.1795362903
  0
LINE
  5
429
100
AcDbEntity
  8
7_ALL_FEATURES
100
AcDbLine
 62
7
  6
CONTINUOUS
 10
378.0663306452
 20
784.1795362903
 11
378.5663306452
 21
784.1795362903
  0
LINE
  5
42A
100
AcDbEntity
  8
7_ALL_FEATURES
100
AcDbLine
 62
9
  6
CONTINUOUS
 10
370.9748068347
 20
784.3295362903
 11
369.9663306452
 21
784.3295362903
  0
LINE
  5
42B
100
AcDbEntity
  8
7_ALL_FEATURES
100
AcDbLine
 62
9
  6
CONTINUOUS
 10
378.0663306452
 20
784.4795362903
 11
378.5663306452
 21
784.4795362903
  0
LINE
  5
42C
100
AcDbEntity
  8
7_ALL_FEATURES
100
AcDbLine
 62
9
  6
CONTINUOUS
 10
942.0663306452
 20
785.0295362903
 11
378.5663306452
 21
785.0295362903
  0
LINE
  5
42D
100
AcDbEntity
  8
7_ALL_FEATURES
100
AcDbLine
 62
9
  6
CONTINUOUS
 10
369.9663306452
 20
785.0795362903
 11
371.7790833672
 21
785.0795362903
  0
LINE
  5
42E
100
AcDbEntity
  8
7_ALL_FEATURES
100
AcDbLine
 62
9
  6
CONTINUOUS
 10
378.5663306452
 20
785.1295362903
 11
378.0391567331
 21
785.1295362903
  0
LINE
  5
42F
100
AcDbEntity
  8
7_ALL_FEATURES
100
AcDbLine
 62
9
  6
CONTINUOUS
 10
377.0935045572
 20
785.1295362903
 11
377.0663306452
 21
785.1295362903
  0
LINE
  5
430
100
AcDbEntity
  8
7_ALL_FEATURES
100
AcDbLine
 62
7
  6
CONTINUOUS
 10
942.0663306452
 20
785.2295362903
 11
378.5663306452
 21
785.2295362903
  0
LINE
  5
431
100
AcDbEntity
  8
7_ALL_FEATURES
100
AcDbLine
 62
7
  6
CONTINUOUS
 10
377.2663306452
 20
785.2295362903
 11
377.8663306452
 21
785.2295362903
  0
LINE
  5
432
100
AcDbEntity
  8
7_ALL_FEATURES
100
AcDbLine
 62
9
  6
CONTINUOUS
 10
375.4695381392
 20
785.3489424008
 11
374.2674048289
 21
785.3489424008
  0
LINE
  5
433
100
AcDbEntity
  8
6_ALL_SURFS
100
AcDbLine
 62
7
  6
CONTINUOUS
 10
374.4720043369
 20
785.4295362903
 11
375.2663306452
 21
785.4295362903
  0
LINE
  5
434
100
AcDbEntity
  8
6_ALL_SURFS
100
AcDbLine
 62
7
  6
CONTINUOUS
 10
377.3663306452
 20
785.4295362903
 11
377.7663306452
 21
785.4295362903
  0
LINE
  5
435
100
AcDbEntity
  8
7_ALL_FEATURES
100
AcDbLine
 62
7
  6
CONTINUOUS
 10
377.7663306452
 20
785.4295362903
 11
942.0663306452
 21
785.4295362903
  0
LINE
  5
436
100
AcDbEntity
  8
7_ALL_FEATURES
100
AcDbLine
 62
9
  6
CONTINUOUS
 10
378.0663306452
 20
785.7295362903
 11
942.0663306452
 21
785.7295362903
  0
LINE
  5
437
100
AcDbEntity
  8
7_ALL_FEATURES
100
AcDbLine
 62
9
  6
CONTINUOUS
 10
378.0663306452
 20
786.3795362903
 11
942.0663306452
 21
786.3795362903
  0
LINE
  5
438
100
AcDbEntity
  8
6_ALL_SURFS
100
AcDbLine
 62
7
  6
CONTINUOUS
 10
377.7663306452
 20
786.6795362903
 11
376.8663306452
 21
786.6795362903
  0
LINE
  5
439
100
AcDbEntity
  8
7_ALL_FEATURES
100
AcDbLine
 62
7
  6
CONTINUOUS
 10
377.7663306452
 20
786.6795362903
 11
942.0663306452
 21
786.6795362903
  0
LINE
  5
43A
100
AcDbEntity
  8
7_ALL_FEATURES
100
AcDbLine
 62
3
  6
CONTINUOUS
 10
365.2981725839
 20
786.8795362903
 11
317.7663306452
 21
786.8795362903
  0
LINE
  5
43B
100
AcDbEntity
  8
6_ALL_SURFS
100
AcDbLine
 62
7
  6
CONTINUOUS
 10
375.2663306452
 20
786.9295362903
 11
374.3538311942
 21
786.9295362903
  0
LINE
  5
43C
100
AcDbEntity
  8
7_ALL_FEATURES
100
AcDbLine
 62
9
  6
CONTINUOUS
 10
942.0663306452
 20
786.9795362903
 11
376.5663306452
 21
786.9795362903
  0
LINE
  5
43D
100
AcDbEntity
  8
6_ALL_SURFS
100
AcDbLine
 62
7
  6
CONTINUOUS
 10
367.9663306452
 20
787.0795362903
 11
366.1663306452
 21
787.0795362903
  0
LINE
  5
43E
100
AcDbEntity
  8
7_ALL_FEATURES
100
AcDbLine
 62
7
  6
CONTINUOUS
 10
367.9663306452
 20
787.0795362903
 11
375.5250223069
 21
787.0795362903
  0
LINE
  5
43F
100
AcDbEntity
  8
3_ALL_AXES
100
AcDbLine
 62
7
  6
CONTINUOUS
 10
362.6163306452
 20
788.8795362903
 11
353.9163306452
 21
788.8795362903
  0
LINE
  5
440
100
AcDbEntity
  8
3_ALL_AXES
100
AcDbLine
 62
7
  6
CONTINUOUS
 10
334.6163306452
 20
788.8795362903
 11
325.9163306452
 21
788.8795362903
  0
LINE
  5
441
100
AcDbEntity
  8
7_ALL_FEATURES
100
AcDbLine
 62
7
  6
CONTINUOUS
 10
942.0663306452
 20
788.9295362903
 11
376.5663306452
 21
788.9295362903
  0
LINE
  5
442
100
AcDbEntity
  8
7_ALL_FEATURES
100
AcDbLine
 62
7
  6
CONTINUOUS
 10
328.7663306452
 20
789.2795362903
 11
332.7663306452
 21
789.2795362903
  0
LINE
  5
443
100
AcDbEntity
  8
7_ALL_FEATURES
100
AcDbLine
 62
7
  6
CONTINUOUS
 10
357.0663306452
 20
789.2795362903
 11
361.0663306452
 21
789.2795362903
  0
LINE
  5
444
100
AcDbEntity
  8
7_ALL_FEATURES
100
AcDbLine
 62
7
  6
CONTINUOUS
 10
942.0663306452
 20
789.5295362903
 11
376.5663306452
 21
789.5295362903
  0
LINE
  5
445
100
AcDbEntity
  8
7_ALL_FEATURES
100
AcDbLine
 62
7
  6
CONTINUOUS
 10
942.0663306452
 20
791.9295362903
 11
376.5663306452
 21
791.9295362903
  0
LINE
  5
446
100
AcDbEntity
  8
7_ALL_FEATURES
100
AcDbLine
 62
7
  6
CONTINUOUS
 10
942.0663306452
 20
792.5295362903
 11
376.5663306452
 21
792.5295362903
  0
LINE
  5
447
100
AcDbEntity
  8
7_ALL_FEATURES
100
AcDbLine
 62
7
  6
CONTINUOUS
 10
942.0663306452
 20
794.9295362903
 11
376.5663306452
 21
794.9295362903
  0
LINE
  5
448
100
AcDbEntity
  8
7_ALL_FEATURES
100
AcDbLine
 62
7
  6
CONTINUOUS
 10
942.0663306452
 20
795.5295362903
 11
376.5663306452
 21
795.5295362903
  0
LINE
  5
449
100
AcDbEntity
  8
7_ALL_FEATURES
100
AcDbLine
 62
7
  6
CONTINUOUS
 10
942.0663306452
 20
797.9295362903
 11
903.8120971541
 21
797.9295362903
  0
LINE
  5
44A
100
AcDbEntity
  8
7_ALL_FEATURES
100
AcDbLine
 62
7
  6
CONTINUOUS
 10
896.3205641362
 20
797.9295362903
 11
653.8120971541
 21
797.9295362903
  0
LINE
  5
44B
100
AcDbEntity
  8
7_ALL_FEATURES
100
AcDbLine
 62
7
  6
CONTINUOUS
 10
646.3205641362
 20
797.9295362903
 11
403.8120971541
 21
797.9295362903
  0
LINE
  5
44C
100
AcDbEntity
  8
7_ALL_FEATURES
100
AcDbLine
 62
7
  6
CONTINUOUS
 10
396.3205641362
 20
797.9295362903
 11
376.5663306452
 21
797.9295362903
  0
LINE
  5
44D
100
AcDbEntity
  8
7_ALL_FEATURES
100
AcDbLine
 62
7
  6
CONTINUOUS
 10
942.0663306452
 20
798.5295362903
 11
904.2221418463
 21
798.5295362903
  0
LINE
  5
44E
100
AcDbEntity
  8
7_ALL_FEATURES
100
AcDbLine
 62
7
  6
CONTINUOUS
 10
895.910519444
 20
798.5295362903
 11
654.2221418463
 21
798.5295362903
  0
LINE
  5
44F
100
AcDbEntity
  8
7_ALL_FEATURES
100
AcDbLine
 62
7
  6
CONTINUOUS
 10
645.910519444
 20
798.5295362903
 11
404.2221418463
 21
798.5295362903
  0
LINE
  5
450
100
AcDbEntity
  8
7_ALL_FEATURES
100
AcDbLine
 62
7
  6
CONTINUOUS
 10
395.910519444
 20
798.5295362903
 11
376.5663306452
 21
798.5295362903
  0
LINE
  5
451
100
AcDbEntity
  8
7_ALL_FEATURES
100
AcDbLine
 62
7
  6
CONTINUOUS
 10
942.0663306452
 20
800.9295362903
 11
904.8653687508
 21
800.9295362903
  0
LINE
  5
452
100
AcDbEntity
  8
7_ALL_FEATURES
100
AcDbLine
 62
7
  6
CONTINUOUS
 10
895.2672925395
 20
800.9295362903
 11
654.8653687508
 21
800.9295362903
  0
LINE
  5
453
100
AcDbEntity
  8
7_ALL_FEATURES
100
AcDbLine
 62
7
  6
CONTINUOUS
 10
645.2672925395
 20
800.9295362903
 11
404.8653687508
 21
800.9295362903
  0
LINE
  5
454
100
AcDbEntity
  8
7_ALL_FEATURES
100
AcDbLine
 62
7
  6
CONTINUOUS
 10
395.2672925395
 20
800.9295362903
 11
376.5663306452
 21
800.9295362903
  0
LINE
  5
455
100
AcDbEntity
  8
7_ALL_FEATURES
100
AcDbLine
 62
7
  6
CONTINUOUS
 10
942.0663306452
 20
801.5295362903
 11
904.8277135052
 21
801.5295362903
  0
LINE
  5
456
100
AcDbEntity
  8
7_ALL_FEATURES
100
AcDbLine
 62
7
  6
CONTINUOUS
 10
895.3049477851
 20
801.5295362903
 11
654.8277135052
 21
801.5295362903
  0
LINE
  5
457
100
AcDbEntity
  8
7_ALL_FEATURES
100
AcDbLine
 62
7
  6
CONTINUOUS
 10
645.3049477851
 20
801.5295362903
 11
404.8277135052
 21
801.5295362903
  0
LINE
  5
458
100
AcDbEntity
  8
7_ALL_FEATURES
100
AcDbLine
 62
7
  6
CONTINUOUS
 10
395.3049477851
 20
801.5295362903
 11
376.5663306452
 21
801.5295362903
  0
LINE
  5
459
100
AcDbEntity
  8
7_ALL_FEATURES
100
AcDbLine
 62
7
  6
CONTINUOUS
 10
942.0663306452
 20
804.4295362903
 11
903.3497384389
 21
804.4295362903
  0
LINE
  5
45A
100
AcDbEntity
  8
7_ALL_FEATURES
100
AcDbLine
 62
7
  6
CONTINUOUS
 10
896.7829228515
 20
804.4295362903
 11
653.3497384389
 21
804.4295362903
  0
LINE
  5
45B
100
AcDbEntity
  8
7_ALL_FEATURES
100
AcDbLine
 62
7
  6
CONTINUOUS
 10
646.7829228515
 20
804.4295362903
 11
403.3497384389
 21
804.4295362903
  0
LINE
  5
45C
100
AcDbEntity
  8
7_ALL_FEATURES
100
AcDbLine
 62
7
  6
CONTINUOUS
 10
396.7829228515
 20
804.4295362903
 11
376.5663306452
 21
804.4295362903
  0
LINE
  5
45D
100
AcDbEntity
  8
7_ALL_FEATURES
100
AcDbLine
 62
9
  6
CONTINUOUS
 10
376.3517834861
 20
806.5750078807
 11
942.0663306452
 21
806.5750078807
  0
LINE
  5
45E
100
AcDbEntity
  8
7_ALL_FEATURES
100
AcDbLine
 62
7
  6
CONTINUOUS
 10
375.9600340031
 20
806.9295362903
 11
942.0663306452
 21
806.9295362903
  0
LINE
  5
45F
100
AcDbEntity
  8
6_ALL_SURFS
100
AcDbLine
 62
7
  6
CONTINUOUS
 10
305.9998910312
 20
779.4532474458
 11
318.5374657127
 21
782.2327608351
  0
LINE
  5
460
100
AcDbEntity
  8
6_ALL_SURFS
100
AcDbLine
 62
7
  6
CONTINUOUS
 10
318.0386186462
 20
783.7610163259
 11
304.3863533603
 21
780.7343819791
  0
LINE
  5
461
100
AcDbEntity
  8
6_ALL_SURFS
100
AcDbLine
 62
7
  6
CONTINUOUS
 10
942.0663306452
 20
724.8295407899
 11
942.0663306452
 21
746.5710091937
  0
LINE
  5
462
100
AcDbEntity
  8
7_ALL_FEATURES
100
AcDbLine
 62
7
  6
CONTINUOUS
 10
942.0663306452
 20
746.5295362903
 11
942.0663306452
 21
788.9295362903
  0
LINE
  5
463
100
AcDbEntity
  8
3_ALL_AXES
100
AcDbLine
 62
7
  6
CONTINUOUS
 10
942.0663306452
 20
788.9295362903
 11
942.0663306452
 21
804.4295362903
  0
LINE
  5
464
100
AcDbEntity
  8
7_ALL_FEATURES
100
AcDbLine
 62
7
  6
CONTINUOUS
 10
942.0663306452
 20
804.4295362903
 11
942.0663306452
 21
806.9295317907
  0
LINE
  5
465
100
AcDbEntity
  8
6_ALL_SURFS
100
AcDbLine
 62
7
  6
CONTINUOUS
 10
83.6445609512
 20
23.2748991935
 11
105.386029355
 21
23.2748991935
  0
LINE
  5
466
100
AcDbEntity
  8
7_ALL_FEATURES
100
AcDbLine
 62
7
  6
CONTINUOUS
 10
105.3445564516
 20
23.2748991935
 11
147.7445564516
 21
23.2748991935
  0
LINE
  5
467
100
AcDbEntity
  8
3_ALL_AXES
100
AcDbLine
 62
7
  6
CONTINUOUS
 10
147.7445564516
 20
23.2748991935
 11
163.2445564516
 21
23.2748991935
  0
LINE
  5
468
100
AcDbEntity
  8
7_ALL_FEATURES
100
AcDbLine
 62
7
  6
CONTINUOUS
 10
163.2445564516
 20
23.2748991935
 11
165.744551952
 21
23.2748991935
  0
LINE
  5
469
100
AcDbEntity
  8
6_ALL_SURFS
100
AcDbLine
 62
7
  6
CONTINUOUS
 10
140.9092409209
 20
646.4815843641
 11
140.8067519253
 21
646.4200909668
  0
LINE
  5
46A
100
AcDbEntity
  8
3_ALL_AXES
100
AcDbLine
 62
7
  6
CONTINUOUS
 10
86.0445564516
 20
589.7748991935
 11
86.3445564516
 21
589.9248991935
  0
LINE
  5
46B
100
AcDbEntity
  8
7_ALL_FEATURES
100
AcDbLine
 62
7
  6
CONTINUOUS
 10
123.1945564516
 20
665.1248991935
 11
122.9945564516
 21
664.9248991935
  0
LINE
  5
46C
100
AcDbEntity
  8
7_ALL_FEATURES
100
AcDbLine
 62
7
  6
CONTINUOUS
 10
101.2945564516
 20
636.5748991935
 11
101.6945564516
 21
636.9748991935
  0
LINE
  5
46D
100
AcDbEntity
  8
3_ALL_AXES
100
AcDbLine
 62
7
  6
CONTINUOUS
 10
108.9945564516
 20
639.5748991935
 11
108.2945564516
 21
638.8748991935
  0
LINE
  5
46E
100
AcDbEntity
  8
7_ALL_FEATURES
100
AcDbLine
 62
7
  6
CONTINUOUS
 10
108.1445564516
 20
599.2852621646
 11
107.7556222105
 21
599.0607108758
  0
LINE
  5
46F
100
AcDbEntity
  8
3_ALL_AXES
100
AcDbLine
 62
7
  6
CONTINUOUS
 10
89.0445564516
 20
589.7748991935
 11
89.3445564516
 21
589.9248991935
  0
LINE
  5
470
100
AcDbEntity
  8
3_ALL_AXES
100
AcDbLine
 62
7
  6
CONTINUOUS
 10
92.0445564516
 20
589.7748991935
 11
92.3445564516
 21
589.9248991935
  0
LINE
  5
471
100
AcDbEntity
  8
3_ALL_AXES
100
AcDbLine
 62
7
  6
CONTINUOUS
 10
95.0445564516
 20
589.7748991935
 11
95.3445564516
 21
589.9248991935
  0
LINE
  5
472
100
AcDbEntity
  8
3_ALL_AXES
100
AcDbLine
 62
7
  6
CONTINUOUS
 10
98.0445564516
 20
589.7748991935
 11
98.3445564516
 21
589.9248991935
  0
LINE
  5
473
100
AcDbEntity
  8
3_ALL_AXES
100
AcDbLine
 62
7
  6
CONTINUOUS
 10
101.0445564516
 20
589.7748991935
 11
101.3445564516
 21
589.9248991935
  0
LINE
  5
474
100
AcDbEntity
  8
7_ALL_FEATURES
100
AcDbLine
 62
7
  6
CONTINUOUS
 10
101.2945564516
 20
620.7748991935
 11
101.6945564516
 21
621.1748991935
  0
LINE
  5
475
100
AcDbEntity
  8
3_ALL_AXES
100
AcDbLine
 62
7
  6
CONTINUOUS
 10
108.9945564516
 20
623.7748991935
 11
108.2945564516
 21
623.0748991935
  0
LINE
  5
476
100
AcDbEntity
  8
6_ALL_SURFS
100
AcDbLine
 62
7
  6
CONTINUOUS
 10
141.6334906927
 20
597.4890875113
 11
141.2445564516
 21
597.2645362225
  0
LINE
  5
477
100
AcDbEntity
  8
6_ALL_SURFS
100
AcDbLine
 62
7
  6
CONTINUOUS
 10
148.0445564516
 20
589.9248991935
 11
147.7445564516
 21
589.7748991935
  0
LINE
  5
478
100
AcDbEntity
  8
6_ALL_SURFS
100
AcDbLine
 62
7
  6
CONTINUOUS
 10
151.0445564516
 20
589.9248991935
 11
150.7445564516
 21
589.7748991935
  0
LINE
  5
479
100
AcDbEntity
  8
6_ALL_SURFS
100
AcDbLine
 62
7
  6
CONTINUOUS
 10
154.0445564516
 20
589.9248991935
 11
153.7445564516
 21
589.7748991935
  0
LINE
  5
47A
100
AcDbEntity
  8
6_ALL_SURFS
100
AcDbLine
 62
7
  6
CONTINUOUS
 10
157.0445564516
 20
589.9248991935
 11
156.7445564516
 21
589.7748991935
  0
LINE
  5
47B
100
AcDbEntity
  8
6_ALL_SURFS
100
AcDbLine
 62
7
  6
CONTINUOUS
 10
160.0445564516
 20
589.9248991935
 11
159.7445564516
 21
589.7748991935
  0
LINE
  5
47C
100
AcDbEntity
  8
6_ALL_SURFS
100
AcDbLine
 62
7
  6
CONTINUOUS
 10
163.0445564516
 20
589.9248991935
 11
162.7445564516
 21
589.7748991935
  0
LINE
  5
47D
100
AcDbEntity
  8
7_ALL_FEATURES
100
AcDbLine
 62
7
  6
CONTINUOUS
 10
104.0475258992
 20
592.0103961846
 11
106.4102333024
 21
594.5440896748
  0
LINE
  5
47E
100
AcDbEntity
  8
7_ALL_FEATURES
100
AcDbLine
 62
7
  6
CONTINUOUS
 10
106.9555940536
 20
592.9294987016
 11
105.2251503411
 21
591.0738250098
  0
LINE
  5
47F
100
AcDbEntity
  8
7_ALL_FEATURES
100
AcDbLine
 62
7
  6
CONTINUOUS
 10
105.9483755473
 20
591.4568975536
 11
106.3128033605
 21
591.8476985376
  0
LINE
  5
480
100
AcDbEntity
  8
7_ALL_FEATURES
100
AcDbLine
 62
7
  6
CONTINUOUS
 10
106.8978863218
 20
591.3020998495
 11
106.5334585086
 21
590.9112988656
  0
LINE
  5
481
100
AcDbEntity
  8
3_ALL_AXES
100
AcDbLine
 62
7
  6
CONTINUOUS
 10
140.3945564516
 20
629.5748991935
 11
141.0945564516
 21
630.2748991935
  0
LINE
  5
482
100
AcDbEntity
  8
7_ALL_FEATURES
100
AcDbLine
 62
7
  6
CONTINUOUS
 10
148.0945564516
 20
632.5748991935
 11
147.6945564516
 21
632.1748991935
  0
LINE
  5
483
100
AcDbEntity
  8
7_ALL_FEATURES
100
AcDbLine
 62
7
  6
CONTINUOUS
 10
113.4803681339
 20
665.2359649524
 11
114.4554747726
 21
666.9248991935
  0
LINE
  5
484
100
AcDbEntity
  8
6_ALL_SURFS
100
AcDbLine
 62
7
  6
CONTINUOUS
 10
138.4554747726
 20
666.9248991935
 11
137.4803681339
 21
665.2359649524
  0
LINE
  5
485
100
AcDbEntity
  8
3_ALL_AXES
100
AcDbLine
 62
7
  6
CONTINUOUS
 10
140.3945564516
 20
601.2748991935
 11
141.0945564516
 21
601.9748991935
  0
LINE
  5
486
100
AcDbEntity
  8
7_ALL_FEATURES
100
AcDbLine
 62
7
  6
CONTINUOUS
 10
148.0945564516
 20
604.2748991935
 11
147.6945564516
 21
603.8748991935
  0
LINE
  5
487
100
AcDbEntity
  8
7_ALL_FEATURES
100
AcDbLine
 62
7
  6
CONTINUOUS
 10
108.7099200375
 20
646.0602370461
 11
108.3548638308
 21
645.0847281355
  0
LINE
  5
488
100
AcDbEntity
  8
6_ALL_SURFS
100
AcDbLine
 62
7
  6
CONTINUOUS
 10
143.0428577174
 20
589.6157406624
 11
143.0296721738
 21
589.5909422615
  0
LINE
  5
489
100
AcDbEntity
  8
7_ALL_FEATURES
100
AcDbLine
 62
7
  6
CONTINUOUS
 10
106.813076416
 20
647.3026111925
 11
109.8397107629
 21
660.9548764784
  0
LINE
  5
48A
100
AcDbEntity
  8
7_ALL_FEATURES
100
AcDbLine
 62
7
  6
CONTINUOUS
 10
111.1208452962
 20
659.3413388075
 11
108.3413319068
 21
646.803764126
  0
LINE
  5
48B
100
AcDbEntity
  8
6_ALL_SURFS
100
AcDbLine
 62
7
  6
CONTINUOUS
 10
83.6445564516
 20
23.2748991935
 11
83.6445564516
 21
589.3811958356
  0
LINE
  5
48C
100
AcDbEntity
  8
7_ALL_FEATURES
100
AcDbLine
 62
9
  6
CONTINUOUS
 10
83.9990848612
 20
588.9894463526
 11
83.9990848612
 21
23.2748991935
  0
LINE
  5
48D
100
AcDbEntity
  8
6_ALL_SURFS
100
AcDbLine
 62
7
  6
CONTINUOUS
 10
86.1445564516
 20
23.2748991935
 11
86.1445564516
 21
61.9914913998
  0
LINE
  5
48E
100
AcDbEntity
  8
6_ALL_SURFS
100
AcDbLine
 62
7
  6
CONTINUOUS
 10
86.1445564516
 20
68.5583069872
 11
86.1445564516
 21
311.9914913998
  0
LINE
  5
48F
100
AcDbEntity
  8
6_ALL_SURFS
100
AcDbLine
 62
7
  6
CONTINUOUS
 10
86.1445564516
 20
318.5583069872
 11
86.1445564516
 21
561.9914913998
  0
LINE
  5
490
100
AcDbEntity
  8
7_ALL_FEATURES
100
AcDbLine
 62
7
  6
CONTINUOUS
 10
86.1445564516
 20
568.5583069872
 11
86.1445564516
 21
588.7748991935
  0
LINE
  5
491
100
AcDbEntity
  8
6_ALL_SURFS
100
AcDbLine
 62
7
  6
CONTINUOUS
 10
89.0445564516
 20
23.2748991935
 11
89.0445564516
 21
60.5135163335
  0
LINE
  5
492
100
AcDbEntity
  8
6_ALL_SURFS
100
AcDbLine
 62
7
  6
CONTINUOUS
 10
89.0445564516
 20
70.0362820536
 11
89.0445564516
 21
310.5135163335
  0
LINE
  5
493
100
AcDbEntity
  8
6_ALL_SURFS
100
AcDbLine
 62
7
  6
CONTINUOUS
 10
89.0445564516
 20
320.0362820536
 11
89.0445564516
 21
560.5135163335
  0
LINE
  5
494
100
AcDbEntity
  8
7_ALL_FEATURES
100
AcDbLine
 62
7
  6
CONTINUOUS
 10
89.0445564516
 20
570.0362820536
 11
89.0445564516
 21
588.7748991935
  0
LINE
  5
495
100
AcDbEntity
  8
6_ALL_SURFS
100
AcDbLine
 62
7
  6
CONTINUOUS
 10
89.6445564516
 20
23.2748991935
 11
89.6445564516
 21
60.4758610879
  0
LINE
  5
496
100
AcDbEntity
  8
6_ALL_SURFS
100
AcDbLine
 62
7
  6
CONTINUOUS
 10
89.6445564516
 20
70.0739372992
 11
89.6445564516
 21
310.4758610879
  0
LINE
  5
497
100
AcDbEntity
  8
6_ALL_SURFS
100
AcDbLine
 62
7
  6
CONTINUOUS
 10
89.6445564516
 20
320.0739372992
 11
89.6445564516
 21
560.4758610879
  0
LINE
  5
498
100
AcDbEntity
  8
7_ALL_FEATURES
100
AcDbLine
 62
7
  6
CONTINUOUS
 10
89.6445564516
 20
570.0739372992
 11
89.6445564516
 21
588.7748991935
  0
LINE
  5
499
100
AcDbEntity
  8
6_ALL_SURFS
100
AcDbLine
 62
7
  6
CONTINUOUS
 10
92.0445564516
 20
23.2748991935
 11
92.0445564516
 21
61.1190879924
  0
LINE
  5
49A
100
AcDbEntity
  8
6_ALL_SURFS
100
AcDbLine
 62
7
  6
CONTINUOUS
 10
92.0445564516
 20
69.4307103947
 11
92.0445564516
 21
311.1190879924
  0
LINE
  5
49B
100
AcDbEntity
  8
6_ALL_SURFS
100
AcDbLine
 62
7
  6
CONTINUOUS
 10
92.0445564516
 20
319.4307103947
 11
92.0445564516
 21
561.1190879924
  0
LINE
  5
49C
100
AcDbEntity
  8
7_ALL_FEATURES
100
AcDbLine
 62
7
  6
CONTINUOUS
 10
92.0445564516
 20
569.4307103947
 11
92.0445564516
 21
588.7748991935
  0
LINE
  5
49D
100
AcDbEntity
  8
6_ALL_SURFS
100
AcDbLine
 62
7
  6
CONTINUOUS
 10
92.6445564516
 20
23.2748991935
 11
92.6445564516
 21
61.5291326846
  0
LINE
  5
49E
100
AcDbEntity
  8
6_ALL_SURFS
100
AcDbLine
 62
7
  6
CONTINUOUS
 10
92.6445564516
 20
69.0206657025
 11
92.6445564516
 21
311.5291326846
  0
LINE
  5
49F
100
AcDbEntity
  8
6_ALL_SURFS
100
AcDbLine
 62
7
  6
CONTINUOUS
 10
92.6445564516
 20
319.0206657025
 11
92.6445564516
 21
561.5291326846
  0
LINE
  5
4A0
100
AcDbEntity
  8
7_ALL_FEATURES
100
AcDbLine
 62
7
  6
CONTINUOUS
 10
92.6445564516
 20
569.0206657025
 11
92.6445564516
 21
588.7748991935
  0
LINE
  5
4A1
100
AcDbEntity
  8
7_ALL_FEATURES
100
AcDbLine
 62
7
  6
CONTINUOUS
 10
95.0445564516
 20
23.2748991935
 11
95.0445564516
 21
588.7748991935
  0
LINE
  5
4A2
100
AcDbEntity
  8
7_ALL_FEATURES
100
AcDbLine
 62
7
  6
CONTINUOUS
 10
95.6445564516
 20
23.2748991935
 11
95.6445564516
 21
588.7748991935
  0
LINE
  5
4A3
100
AcDbEntity
  8
7_ALL_FEATURES
100
AcDbLine
 62
7
  6
CONTINUOUS
 10
98.0445564516
 20
23.2748991935
 11
98.0445564516
 21
588.7748991935
  0
LINE
  5
4A4
100
AcDbEntity
  8
7_ALL_FEATURES
100
AcDbLine
 62
7
  6
CONTINUOUS
 10
98.6445564516
 20
23.2748991935
 11
98.6445564516
 21
588.7748991935
  0
LINE
  5
4A5
100
AcDbEntity
  8
7_ALL_FEATURES
100
AcDbLine
 62
7
  6
CONTINUOUS
 10
101.0445564516
 20
23.2748991935
 11
101.0445564516
 21
588.7748991935
  0
LINE
  5
4A6
100
AcDbEntity
  8
7_ALL_FEATURES
100
AcDbLine
 62
7
  6
CONTINUOUS
 10
101.2945564516
 20
616.7748991935
 11
101.2945564516
 21
620.7748991935
  0
LINE
  5
4A7
100
AcDbEntity
  8
7_ALL_FEATURES
100
AcDbLine
 62
7
  6
CONTINUOUS
 10
101.2945564516
 20
632.5748991935
 11
101.2945564516
 21
636.5748991935
  0
LINE
  5
4A8
100
AcDbEntity
  8
7_ALL_FEATURES
100
AcDbLine
 62
7
  6
CONTINUOUS
 10
101.6445564516
 20
23.2748991935
 11
101.6445564516
 21
588.7748991935
  0
LINE
  5
4A9
100
AcDbEntity
  8
3_ALL_AXES
100
AcDbLine
 62
7
  6
CONTINUOUS
 10
101.6945564516
 20
638.9248991935
 11
101.6945564516
 21
630.2248991935
  0
LINE
  5
4AA
100
AcDbEntity
  8
3_ALL_AXES
100
AcDbLine
 62
7
  6
CONTINUOUS
 10
101.6945564516
 20
623.4248991935
 11
101.6945564516
 21
614.7248991935
  0
LINE
  5
4AB
100
AcDbEntity
  8
7_ALL_FEATURES
100
AcDbLine
 62
7
  6
CONTINUOUS
 10
103.4945564516
 20
589.8162075318
 11
103.4945564516
 21
599.1748991935
  0
LINE
  5
4AC
100
AcDbEntity
  8
7_ALL_FEATURES
100
AcDbLine
 62
9
  6
CONTINUOUS
 10
103.5945564516
 20
23.2748991935
 11
103.5945564516
 21
588.7748991935
  0
LINE
  5
4AD
100
AcDbEntity
  8
7_ALL_FEATURES
100
AcDbLine
 62
7
  6
CONTINUOUS
 10
103.6445564516
 20
590.0748991935
 11
103.6445564516
 21
590.9873986445
  0
LINE
  5
4AE
100
AcDbEntity
  8
7_ALL_FEATURES
100
AcDbLine
 62
3
  6
CONTINUOUS
 10
103.6945564516
 20
647.0748991935
 11
103.6945564516
 21
600.0430572548
  0
LINE
  5
4AF
100
AcDbEntity
  8
7_ALL_FEATURES
100
AcDbLine
 62
7
  6
CONTINUOUS
 10
103.8945564516
 20
23.2748991935
 11
103.8945564516
 21
588.4748991935
  0
LINE
  5
4B0
100
AcDbEntity
  8
7_ALL_FEATURES
100
AcDbLine
 62
9
  6
CONTINUOUS
 10
104.1945564516
 20
587.2748991935
 11
104.1945564516
 21
23.2748991935
  0
LINE
  5
4B1
100
AcDbEntity
  8
7_ALL_FEATURES
100
AcDbLine
 62
9
  6
CONTINUOUS
 10
104.8445564516
 20
587.2748991935
 11
104.8445564516
 21
23.2748991935
  0
LINE
  5
4B2
100
AcDbEntity
  8
7_ALL_FEATURES
100
AcDbLine
 62
7
  6
CONTINUOUS
 10
105.1445564516
 20
590.8692255018
 11
105.1445564516
 21
590.0748991935
  0
LINE
  5
4B3
100
AcDbEntity
  8
7_ALL_FEATURES
100
AcDbLine
 62
7
  6
CONTINUOUS
 10
105.1445564516
 20
587.9748991935
 11
105.1445564516
 21
23.2748991935
  0
LINE
  5
4B4
100
AcDbEntity
  8
7_ALL_FEATURES
100
AcDbLine
 62
9
  6
CONTINUOUS
 10
105.2251503411
 20
589.8716916995
 11
105.2251503411
 21
591.0738250098
  0
LINE
  5
4B5
100
AcDbEntity
  8
7_ALL_FEATURES
100
AcDbLine
 62
7
  6
CONTINUOUS
 10
105.3445564516
 20
23.2748991935
 11
105.3445564516
 21
586.7748991935
  0
LINE
  5
4B6
100
AcDbEntity
  8
7_ALL_FEATURES
100
AcDbLine
 62
7
  6
CONTINUOUS
 10
105.3445564516
 20
587.4748991935
 11
105.3445564516
 21
588.0748991935
  0
LINE
  5
4B7
100
AcDbEntity
  8
7_ALL_FEATURES
100
AcDbLine
 62
9
  6
CONTINUOUS
 10
105.4445564516
 20
586.7748991935
 11
105.4445564516
 21
587.3020731056
  0
LINE
  5
4B8
100
AcDbEntity
  8
7_ALL_FEATURES
100
AcDbLine
 62
9
  6
CONTINUOUS
 10
105.4445564516
 20
588.2477252815
 11
105.4445564516
 21
588.2748991935
  0
LINE
  5
4B9
100
AcDbEntity
  8
7_ALL_FEATURES
100
AcDbLine
 62
9
  6
CONTINUOUS
 10
105.4945564516
 20
595.3748991935
 11
105.4945564516
 21
593.5621464715
  0
LINE
  5
4BA
100
AcDbEntity
  8
7_ALL_FEATURES
100
AcDbLine
 62
9
  6
CONTINUOUS
 10
105.5445564516
 20
23.2748991935
 11
105.5445564516
 21
586.7748991935
  0
LINE
  5
4BB
100
AcDbEntity
  8
7_ALL_FEATURES
100
AcDbLine
 62
9
  6
CONTINUOUS
 10
106.0945564516
 20
587.2748991935
 11
106.0945564516
 21
586.7748991935
  0
LINE
  5
4BC
100
AcDbEntity
  8
7_ALL_FEATURES
100
AcDbLine
 62
9
  6
CONTINUOUS
 10
106.2445564516
 20
594.366423004
 11
106.2445564516
 21
595.3748991935
  0
LINE
  5
4BD
100
AcDbEntity
  8
7_ALL_FEATURES
100
AcDbLine
 62
7
  6
CONTINUOUS
 10
106.3945564516
 20
589.4501007927
 11
106.3945564516
 21
588.2748991935
  0
LINE
  5
4BE
100
AcDbEntity
  8
7_ALL_FEATURES
100
AcDbLine
 62
7
  6
CONTINUOUS
 10
106.3945564516
 20
587.2748991935
 11
106.3945564516
 21
586.7748991935
  0
LINE
  5
4BF
100
AcDbEntity
  8
7_ALL_FEATURES
100
AcDbLine
 62
7
  6
CONTINUOUS
 10
106.5445564516
 20
594.8850888548
 11
106.5445564516
 21
595.0748991935
  0
LINE
  5
4C0
100
AcDbEntity
  8
7_ALL_FEATURES
100
AcDbLine
 62
7
  6
CONTINUOUS
 10
106.5945564516
 20
588.4748991935
 11
106.5945564516
 21
589.0948991935
  0
LINE
  5
4C1
100
AcDbEntity
  8
7_ALL_FEATURES
100
AcDbLine
 62
7
  6
CONTINUOUS
 10
106.6945564516
 20
601.4748991935
 11
106.6945564516
 21
647.0748991935
  0
LINE
  5
4C2
100
AcDbEntity
  8
7_ALL_FEATURES
100
AcDbLine
 62
9
  6
CONTINUOUS
 10
106.9555940536
 20
586.7748991935
 11
106.9555940536
 21
587.2748991935
  0
LINE
  5
4C3
100
AcDbEntity
  8
7_ALL_FEATURES
100
AcDbLine
 62
9
  6
CONTINUOUS
 10
106.9555940536
 20
590.2727543949
 11
106.9555940536
 21
591.3827574735
  0
LINE
  5
4C4
100
AcDbEntity
  8
7_ALL_FEATURES
100
AcDbLine
 62
9
  6
CONTINUOUS
 10
106.9555940536
 20
591.7671176203
 11
106.9555940536
 21
592.9294987016
  0
LINE
  5
4C5
100
AcDbEntity
  8
7_ALL_FEATURES
100
AcDbLine
 62
9
  6
CONTINUOUS
 10
107.1750001641
 20
586.7748991935
 11
107.1750001641
 21
587.2748991935
  0
LINE
  5
4C6
100
AcDbEntity
  8
7_ALL_FEATURES
100
AcDbLine
 62
9
  6
CONTINUOUS
 10
107.1750001641
 20
589.9563535656
 11
107.1750001641
 21
593.0248991935
  0
LINE
  5
4C7
100
AcDbEntity
  8
7_ALL_FEATURES
100
AcDbLine
 62
9
  6
CONTINUOUS
 10
107.3785473807
 20
599.1244648776
 11
107.3785473807
 21
597.4253335095
  0
LINE
  5
4C8
100
AcDbEntity
  8
7_ALL_FEATURES
100
AcDbLine
 62
7
  6
CONTINUOUS
 10
107.3945564516
 20
589.0948991935
 11
107.3945564516
 21
588.5748991935
  0
LINE
  5
4C9
100
AcDbEntity
  8
7_ALL_FEATURES
100
AcDbLine
 62
9
  6
CONTINUOUS
 10
107.7556222105
 20
599.0607108758
 11
107.7556222105
 21
597.4890875113
  0
LINE
  5
4CA
100
AcDbEntity
  8
7_ALL_FEATURES
100
AcDbLine
 62
9
  6
CONTINUOUS
 10
107.9945564516
 20
593.0248991935
 11
107.9945564516
 21
588.3748991935
  0
LINE
  5
4CB
100
AcDbEntity
  8
7_ALL_FEATURES
100
AcDbLine
 62
9
  6
CONTINUOUS
 10
107.9945564516
 20
587.2748991935
 11
107.9945564516
 21
586.7748991935
  0
LINE
  5
4CC
100
AcDbEntity
  8
7_ALL_FEATURES
100
AcDbLine
 62
9
  6
CONTINUOUS
 10
108.1445564516
 20
599.2852621646
 11
108.1445564516
 21
597.2645362225
  0
LINE
  5
4CD
100
AcDbEntity
  8
7_ALL_FEATURES
100
AcDbLine
 62
7
  6
CONTINUOUS
 10
108.2945564516
 20
644.7427079921
 11
108.2945564516
 21
588.3748991935
  0
LINE
  5
4CE
100
AcDbEntity
  8
7_ALL_FEATURES
100
AcDbLine
 62
7
  6
CONTINUOUS
 10
108.2945564516
 20
587.2748991935
 11
108.2945564516
 21
586.7748991935
  0
LINE
  5
4CF
100
AcDbEntity
  8
7_ALL_FEATURES
100
AcDbLine
 62
9
  6
CONTINUOUS
 10
108.3413319068
 20
646.6796371029
 11
108.3413319068
 21
646.803764126
  0
LINE
  5
4D0
100
AcDbEntity
  8
7_ALL_FEATURES
100
AcDbLine
 62
9
  6
CONTINUOUS
 10
108.3548638308
 20
586.7748991935
 11
108.3548638308
 21
587.2748991935
  0
LINE
  5
4D1
100
AcDbEntity
  8
7_ALL_FEATURES
100
AcDbLine
 62
9
  6
CONTINUOUS
 10
108.3548638308
 20
588.3748991935
 11
108.3548638308
 21
614.4145918143
  0
LINE
  5
4D2
100
AcDbEntity
  8
7_ALL_FEATURES
100
AcDbLine
 62
9
  6
CONTINUOUS
 10
108.3548638308
 20
623.1352065728
 11
108.3548638308
 21
630.2145918143
  0
LINE
  5
4D3
100
AcDbEntity
  8
7_ALL_FEATURES
100
AcDbLine
 62
9
  6
CONTINUOUS
 10
108.3548638308
 20
638.9352065728
 11
108.3548638308
 21
645.0847281355
  0
LINE
  5
4D4
100
AcDbEntity
  8
7_ALL_FEATURES
100
AcDbLine
 62
7
  6
CONTINUOUS
 10
108.6945564516
 20
655.7894191886
 11
108.6945564516
 21
666.7748991935
  0
LINE
  5
4D5
100
AcDbEntity
  8
7_ALL_FEATURES
100
AcDbLine
 62
9
  6
CONTINUOUS
 10
108.7099200375
 20
646.0602370461
 11
108.7099200375
 21
639.2902627795
  0
LINE
  5
4D6
100
AcDbEntity
  8
7_ALL_FEATURES
100
AcDbLine
 62
9
  6
CONTINUOUS
 10
108.7099200375
 20
629.8595356076
 11
108.7099200375
 21
623.4902627795
  0
LINE
  5
4D7
100
AcDbEntity
  8
7_ALL_FEATURES
100
AcDbLine
 62
9
  6
CONTINUOUS
 10
108.7099200375
 20
614.0595356076
 11
108.7099200375
 21
588.3748991935
  0
LINE
  5
4D8
100
AcDbEntity
  8
7_ALL_FEATURES
100
AcDbLine
 62
9
  6
CONTINUOUS
 10
108.7099200375
 20
587.2748991935
 11
108.7099200375
 21
586.7748991935
  0
LINE
  5
4D9
100
AcDbEntity
  8
6_ALL_SURFS
100
AcDbLine
 62
7
  6
CONTINUOUS
 10
108.7280122513
 20
586.7748991935
 11
108.7280122513
 21
587.2748991935
  0
LINE
  5
4DA
100
AcDbEntity
  8
6_ALL_SURFS
100
AcDbLine
 62
7
  6
CONTINUOUS
 10
108.7280122513
 20
588.3748991935
 11
108.7280122513
 21
614.0414433938
  0
LINE
  5
4DB
100
AcDbEntity
  8
6_ALL_SURFS
100
AcDbLine
 62
7
  6
CONTINUOUS
 10
108.7280122513
 20
623.5083549932
 11
108.7280122513
 21
629.8414433938
  0
LINE
  5
4DC
100
AcDbEntity
  8
6_ALL_SURFS
100
AcDbLine
 62
7
  6
CONTINUOUS
 10
108.7280122513
 20
639.3083549932
 11
108.7280122513
 21
646.1628430891
  0
LINE
  5
4DD
100
AcDbEntity
  8
3_ALL_AXES
100
AcDbLine
 62
7
  6
CONTINUOUS
 10
108.9945564516
 20
613.7748991935
 11
108.9945564516
 21
623.7748991935
  0
LINE
  5
4DE
100
AcDbEntity
  8
3_ALL_AXES
100
AcDbLine
 62
7
  6
CONTINUOUS
 10
108.9945564516
 20
629.5748991935
 11
108.9945564516
 21
639.5748991935
  0
LINE
  5
4DF
100
AcDbEntity
  8
7_ALL_FEATURES
100
AcDbLine
 62
9
  6
CONTINUOUS
 10
109.1945564516
 20
665.5748991935
 11
109.1945564516
 21
658.0447734404
  0
LINE
  5
4E0
100
AcDbEntity
  8
3_ALL_AXES
100
AcDbLine
 62
7
  6
CONTINUOUS
 10
109.2945564516
 20
613.7748991935
 11
109.2945564516
 21
623.7748991935
  0
LINE
  5
4E1
100
AcDbEntity
  8
3_ALL_AXES
100
AcDbLine
 62
7
  6
CONTINUOUS
 10
109.2945564516
 20
629.5748991935
 11
109.2945564516
 21
639.5748991935
  0
LINE
  5
4E2
100
AcDbEntity
  8
6_ALL_SURFS
100
AcDbLine
 62
7
  6
CONTINUOUS
 10
109.8945564516
 20
663.8748991935
 11
109.8945564516
 21
661.1229367336
  0
LINE
  5
4E3
100
AcDbEntity
  8
7_ALL_FEATURES
100
AcDbLine
 62
9
  6
CONTINUOUS
 10
109.9286931144
 20
664.3060666523
 11
109.9286931144
 21
665.5748991935
  0
LINE
  5
4E4
100
AcDbEntity
  8
7_ALL_FEATURES
100
AcDbLine
 62
9
  6
CONTINUOUS
 10
110.5178946957
 20
661.738092839
 11
110.5178946957
 21
662.113608871
  0
LINE
  5
4E5
100
AcDbEntity
  8
7_ALL_FEATURES
100
AcDbLine
 62
9
  6
CONTINUOUS
 10
111.1208452962
 20
586.7748991935
 11
111.1208452962
 21
587.2748991935
  0
LINE
  5
4E6
100
AcDbEntity
  8
7_ALL_FEATURES
100
AcDbLine
 62
9
  6
CONTINUOUS
 10
111.1208452962
 20
588.3748991935
 11
111.1208452962
 21
659.3413388075
  0
LINE
  5
4E7
100
AcDbEntity
  8
7_ALL_FEATURES
100
AcDbLine
 62
9
  6
CONTINUOUS
 10
111.8449907676
 20
664.8588901226
 11
111.8449907676
 21
662.8944015027
  0
LINE
  5
4E8
100
AcDbEntity
  8
6_ALL_SURFS
100
AcDbLine
 62
7
  6
CONTINUOUS
 10
111.9489371482
 20
662.8119019112
 11
111.9489371482
 21
665.0859649524
  0
LINE
  5
4E9
100
AcDbEntity
  8
7_ALL_FEATURES
100
AcDbLine
 62
9
  6
CONTINUOUS
 10
112.0971413033
 20
586.7748991935
 11
112.0971413033
 21
587.2748991935
  0
LINE
  5
4EA
100
AcDbEntity
  8
7_ALL_FEATURES
100
AcDbLine
 62
9
  6
CONTINUOUS
 10
112.0971413033
 20
588.3748991935
 11
112.0971413033
 21
660.1248991935
  0
LINE
  5
4EB
100
AcDbEntity
  8
6_ALL_SURFS
100
AcDbLine
 62
7
  6
CONTINUOUS
 10
113.440175755
 20
662.8119019112
 11
113.440175755
 21
665.0859649524
  0
LINE
  5
4EC
100
AcDbEntity
  8
7_ALL_FEATURES
100
AcDbLine
 62
9
  6
CONTINUOUS
 10
113.5441221356
 20
664.8588901226
 11
113.5441221356
 21
662.8944015027
  0
LINE
  5
4ED
100
AcDbEntity
  8
7_ALL_FEATURES
100
AcDbLine
 62
9
  6
CONTINUOUS
 10
115.1194275822
 20
661.9779543516
 11
115.1194275822
 21
662.4748991935
  0
LINE
  5
4EE
100
AcDbEntity
  8
7_ALL_FEATURES
100
AcDbLine
 62
7
  6
CONTINUOUS
 10
115.4945564516
 20
661.7288821872
 11
115.4945564516
 21
666.7748991935
  0
LINE
  5
4EF
100
AcDbEntity
  8
7_ALL_FEATURES
100
AcDbLine
 62
7
  6
CONTINUOUS
 10
117.1945564516
 20
659.1248991935
 11
117.1945564516
 21
660.1248991935
  0
LINE
  5
4F0
100
AcDbEntity
  8
7_ALL_FEATURES
100
AcDbLine
 62
7
  6
CONTINUOUS
 10
120.6945564516
 20
657.0966959633
 11
120.6945564516
 21
659.1248991935
  0
LINE
  5
4F1
100
AcDbEntity
  8
7_ALL_FEATURES
100
AcDbLine
 62
7
  6
CONTINUOUS
 10
121.0945564516
 20
662.0248991935
 11
121.0945564516
 21
665.2748991935
  0
LINE
  5
4F2
100
AcDbEntity
  8
7_ALL_FEATURES
100
AcDbLine
 62
9
  6
CONTINUOUS
 10
122.6945564516
 20
656.2789325011
 11
122.6945564516
 21
588.3748991935
  0
LINE
  5
4F3
100
AcDbEntity
  8
7_ALL_FEATURES
100
AcDbLine
 62
9
  6
CONTINUOUS
 10
122.6945564516
 20
587.2748991935
 11
122.6945564516
 21
586.7748991935
  0
LINE
  5
4F4
100
AcDbEntity
  8
7_ALL_FEATURES
100
AcDbLine
 62
7
  6
CONTINUOUS
 10
122.6945564516
 20
656.2789325011
 11
122.6945564516
 21
656.2950867767
  0
LINE
  5
4F5
100
AcDbEntity
  8
7_ALL_FEATURES
100
AcDbLine
 62
7
  6
CONTINUOUS
 10
122.9945564516
 20
665.1748991935
 11
122.9945564516
 21
660.4248991935
  0
LINE
  5
4F6
100
AcDbEntity
  8
7_ALL_FEATURES
100
AcDbLine
 62
7
  6
CONTINUOUS
 10
122.9945564516
 20
656.2243633538
 11
122.9945564516
 21
588.3748991935
  0
LINE
  5
4F7
100
AcDbEntity
  8
7_ALL_FEATURES
100
AcDbLine
 62
7
  6
CONTINUOUS
 10
122.9945564516
 20
587.2748991935
 11
122.9945564516
 21
586.7748991935
  0
LINE
  5
4F8
100
AcDbEntity
  8
7_ALL_FEATURES
100
AcDbLine
 62
9
  6
CONTINUOUS
 10
123.2945564516
 20
586.7748991935
 11
123.2945564516
 21
587.2748991935
  0
LINE
  5
4F9
100
AcDbEntity
  8
7_ALL_FEATURES
100
AcDbLine
 62
9
  6
CONTINUOUS
 10
123.2945564516
 20
588.3748991935
 11
123.2945564516
 21
656.1647082151
  0
LINE
  5
4FA
100
AcDbEntity
  8
7_ALL_FEATURES
100
AcDbLine
 62
9
  6
CONTINUOUS
 10
123.2945564516
 20
665.1248991935
 11
123.2945564516
 21
665.4748991935
  0
LINE
  5
4FB
100
AcDbEntity
  8
7_ALL_FEATURES
100
AcDbLine
 62
7
  6
CONTINUOUS
 10
124.1945564516
 20
656.0562104683
 11
124.1945564516
 21
656.2950867767
  0
LINE
  5
4FC
100
AcDbEntity
  8
7_ALL_FEATURES
100
AcDbLine
 62
7
  6
CONTINUOUS
 10
125.1945564516
 20
656.2950867767
 11
125.1945564516
 21
656.0562104683
  0
LINE
  5
4FD
100
AcDbEntity
  8
7_ALL_FEATURES
100
AcDbLine
 62
9
  6
CONTINUOUS
 10
126.0945564516
 20
586.7748991935
 11
126.0945564516
 21
587.2748991935
  0
LINE
  5
4FE
100
AcDbEntity
  8
7_ALL_FEATURES
100
AcDbLine
 62
9
  6
CONTINUOUS
 10
126.0945564516
 20
588.3748991935
 11
126.0945564516
 21
656.1647568282
  0
LINE
  5
4FF
100
AcDbEntity
  8
7_ALL_FEATURES
100
AcDbLine
 62
9
  6
CONTINUOUS
 10
126.0945564516
 20
665.1248991935
 11
126.0945564516
 21
665.4748991935
  0
LINE
  5
500
100
AcDbEntity
  8
6_ALL_SURFS
100
AcDbLine
 62
7
  6
CONTINUOUS
 10
126.3945564516
 20
665.1748991935
 11
126.3945564516
 21
660.4248991935
  0
LINE
  5
501
100
AcDbEntity
  8
7_ALL_FEATURES
100
AcDbLine
 62
7
  6
CONTINUOUS
 10
126.3945564516
 20
656.2243686409
 11
126.3945564516
 21
588.3748991935
  0
LINE
  5
502
100
AcDbEntity
  8
7_ALL_FEATURES
100
AcDbLine
 62
7
  6
CONTINUOUS
 10
126.3945564516
 20
587.2748991935
 11
126.3945564516
 21
586.7748991935
  0
LINE
  5
503
100
AcDbEntity
  8
7_ALL_FEATURES
100
AcDbLine
 62
7
  6
CONTINUOUS
 10
126.6945564516
 20
656.2950867767
 11
126.6945564516
 21
656.2789325011
  0
LINE
  5
504
100
AcDbEntity
  8
7_ALL_FEATURES
100
AcDbLine
 62
9
  6
CONTINUOUS
 10
126.6945564516
 20
656.2789325011
 11
126.6945564516
 21
588.3748991935
  0
LINE
  5
505
100
AcDbEntity
  8
7_ALL_FEATURES
100
AcDbLine
 62
9
  6
CONTINUOUS
 10
126.6945564516
 20
587.2748991935
 11
126.6945564516
 21
586.7748991935
  0
LINE
  5
506
100
AcDbEntity
  8
6_ALL_SURFS
100
AcDbLine
 62
7
  6
CONTINUOUS
 10
128.2945564516
 20
662.0248991935
 11
128.2945564516
 21
665.2748991935
  0
LINE
  5
507
100
AcDbEntity
  8
7_ALL_FEATURES
100
AcDbLine
 62
7
  6
CONTINUOUS
 10
128.6945564516
 20
657.0966959633
 11
128.6945564516
 21
659.1248991935
  0
LINE
  5
508
100
AcDbEntity
  8
7_ALL_FEATURES
100
AcDbLine
 62
7
  6
CONTINUOUS
 10
132.1945564516
 20
660.1248991935
 11
132.1945564516
 21
659.1248991935
  0
LINE
  5
509
100
AcDbEntity
  8
6_ALL_SURFS
100
AcDbLine
 62
7
  6
CONTINUOUS
 10
133.8945564516
 20
666.7748991935
 11
133.8945564516
 21
663.8748991935
  0
LINE
  5
50A
100
AcDbEntity
  8
7_ALL_FEATURES
100
AcDbLine
 62
7
  6
CONTINUOUS
 10
133.8945564516
 20
661.7288821872
 11
133.8945564516
 21
663.8748991935
  0
LINE
  5
50B
100
AcDbEntity
  8
7_ALL_FEATURES
100
AcDbLine
 62
9
  6
CONTINUOUS
 10
134.269685321
 20
661.9779543516
 11
134.269685321
 21
662.4748991935
  0
LINE
  5
50C
100
AcDbEntity
  8
7_ALL_FEATURES
100
AcDbLine
 62
9
  6
CONTINUOUS
 10
135.8449907676
 20
664.8588901226
 11
135.8449907676
 21
662.8944015027
  0
LINE
  5
50D
100
AcDbEntity
  8
7_ALL_FEATURES
100
AcDbLine
 62
7
  6
CONTINUOUS
 10
135.9489371482
 20
665.0859649524
 11
135.9489371482
 21
662.8119019112
  0
LINE
  5
50E
100
AcDbEntity
  8
7_ALL_FEATURES
100
AcDbLine
 62
9
  6
CONTINUOUS
 10
137.2919715999
 20
586.7748991935
 11
137.2919715999
 21
587.2748991935
  0
LINE
  5
50F
100
AcDbEntity
  8
7_ALL_FEATURES
100
AcDbLine
 62
9
  6
CONTINUOUS
 10
137.2919715999
 20
588.3748991935
 11
137.2919715999
 21
660.1248991935
  0
LINE
  5
510
100
AcDbEntity
  8
7_ALL_FEATURES
100
AcDbLine
 62
7
  6
CONTINUOUS
 10
137.440175755
 20
665.0859649524
 11
137.440175755
 21
662.8119019112
  0
LINE
  5
511
100
AcDbEntity
  8
7_ALL_FEATURES
100
AcDbLine
 62
9
  6
CONTINUOUS
 10
137.5441221356
 20
664.8588901226
 11
137.5441221356
 21
662.8944015027
  0
LINE
  5
512
100
AcDbEntity
  8
7_ALL_FEATURES
100
AcDbLine
 62
9
  6
CONTINUOUS
 10
138.2682676071
 20
586.7748991935
 11
138.2682676071
 21
587.2748991935
  0
LINE
  5
513
100
AcDbEntity
  8
7_ALL_FEATURES
100
AcDbLine
 62
9
  6
CONTINUOUS
 10
138.2682676071
 20
588.3748991935
 11
138.2682676071
 21
659.3413388075
  0
LINE
  5
514
100
AcDbEntity
  8
7_ALL_FEATURES
100
AcDbLine
 62
9
  6
CONTINUOUS
 10
138.8712182075
 20
661.738092839
 11
138.8712182075
 21
662.113608871
  0
LINE
  5
515
100
AcDbEntity
  8
7_ALL_FEATURES
100
AcDbLine
 62
9
  6
CONTINUOUS
 10
139.4604197888
 20
664.3060666523
 11
139.4604197888
 21
665.5748991935
  0
LINE
  5
516
100
AcDbEntity
  8
3_ALL_AXES
100
AcDbLine
 62
7
  6
CONTINUOUS
 10
139.4945564516
 20
661.1229367336
 11
139.4945564516
 21
663.8748991935
  0
LINE
  5
517
100
AcDbEntity
  8
3_ALL_AXES
100
AcDbLine
 62
7
  6
CONTINUOUS
 10
140.0945564516
 20
639.5748991935
 11
140.0945564516
 21
629.5748991935
  0
LINE
  5
518
100
AcDbEntity
  8
3_ALL_AXES
100
AcDbLine
 62
7
  6
CONTINUOUS
 10
140.0945564516
 20
611.2748991935
 11
140.0945564516
 21
601.2748991935
  0
LINE
  5
519
100
AcDbEntity
  8
7_ALL_FEATURES
100
AcDbLine
 62
9
  6
CONTINUOUS
 10
140.1945564516
 20
665.5748991935
 11
140.1945564516
 21
658.0447734404
  0
LINE
  5
51A
100
AcDbEntity
  8
3_ALL_AXES
100
AcDbLine
 62
7
  6
CONTINUOUS
 10
140.3945564516
 20
639.5748991935
 11
140.3945564516
 21
629.5748991935
  0
LINE
  5
51B
100
AcDbEntity
  8
3_ALL_AXES
100
AcDbLine
 62
7
  6
CONTINUOUS
 10
140.3945564516
 20
611.2748991935
 11
140.3945564516
 21
601.2748991935
  0
LINE
  5
51C
100
AcDbEntity
  8
7_ALL_FEATURES
100
AcDbLine
 62
7
  6
CONTINUOUS
 10
140.6611006519
 20
646.1628430891
 11
140.6611006519
 21
639.3083549932
  0
LINE
  5
51D
100
AcDbEntity
  8
7_ALL_FEATURES
100
AcDbLine
 62
7
  6
CONTINUOUS
 10
140.6611006519
 20
629.8414433938
 11
140.6611006519
 21
611.0083549932
  0
LINE
  5
51E
100
AcDbEntity
  8
7_ALL_FEATURES
100
AcDbLine
 62
7
  6
CONTINUOUS
 10
140.6611006519
 20
601.5414433938
 11
140.6611006519
 21
588.3748991935
  0
LINE
  5
51F
100
AcDbEntity
  8
7_ALL_FEATURES
100
AcDbLine
 62
7
  6
CONTINUOUS
 10
140.6611006519
 20
587.2748991935
 11
140.6611006519
 21
586.7748991935
  0
LINE
  5
520
100
AcDbEntity
  8
7_ALL_FEATURES
100
AcDbLine
 62
9
  6
CONTINUOUS
 10
140.6791928657
 20
646.0602370461
 11
140.6791928657
 21
639.2902627795
  0
LINE
  5
521
100
AcDbEntity
  8
7_ALL_FEATURES
100
AcDbLine
 62
9
  6
CONTINUOUS
 10
140.6791928657
 20
629.8595356076
 11
140.6791928657
 21
610.9902627795
  0
LINE
  5
522
100
AcDbEntity
  8
7_ALL_FEATURES
100
AcDbLine
 62
9
  6
CONTINUOUS
 10
140.6791928657
 20
601.5595356076
 11
140.6791928657
 21
588.3748991935
  0
LINE
  5
523
100
AcDbEntity
  8
7_ALL_FEATURES
100
AcDbLine
 62
9
  6
CONTINUOUS
 10
140.6791928657
 20
587.2748991935
 11
140.6791928657
 21
586.7748991935
  0
LINE
  5
524
100
AcDbEntity
  8
7_ALL_FEATURES
100
AcDbLine
 62
7
  6
CONTINUOUS
 10
140.6945564516
 20
666.0748991935
 11
140.6945564516
 21
655.7894191886
  0
LINE
  5
525
100
AcDbEntity
  8
6_ALL_SURFS
100
AcDbLine
 62
7
  6
CONTINUOUS
 10
140.6945564516
 20
666.0748991935
 11
140.6945564516
 21
666.7748991935
  0
LINE
  5
526
100
AcDbEntity
  8
7_ALL_FEATURES
100
AcDbLine
 62
9
  6
CONTINUOUS
 10
141.0342490724
 20
586.7748991935
 11
141.0342490724
 21
587.2748991935
  0
LINE
  5
527
100
AcDbEntity
  8
7_ALL_FEATURES
100
AcDbLine
 62
9
  6
CONTINUOUS
 10
141.0342490724
 20
588.3748991935
 11
141.0342490724
 21
601.9145918143
  0
LINE
  5
528
100
AcDbEntity
  8
7_ALL_FEATURES
100
AcDbLine
 62
9
  6
CONTINUOUS
 10
141.0342490724
 20
610.6352065728
 11
141.0342490724
 21
630.2145918143
  0
LINE
  5
529
100
AcDbEntity
  8
7_ALL_FEATURES
100
AcDbLine
 62
9
  6
CONTINUOUS
 10
141.0342490724
 20
638.9352065728
 11
141.0342490724
 21
645.0847281355
  0
LINE
  5
52A
100
AcDbEntity
  8
7_ALL_FEATURES
100
AcDbLine
 62
9
  6
CONTINUOUS
 10
141.0477809964
 20
646.6796371029
 11
141.0477809964
 21
646.803764126
  0
LINE
  5
52B
100
AcDbEntity
  8
6_ALL_SURFS
100
AcDbLine
 62
7
  6
CONTINUOUS
 10
141.0945564516
 20
644.7427079921
 11
141.0945564516
 21
599.5450697858
  0
LINE
  5
52C
100
AcDbEntity
  8
7_ALL_FEATURES
100
AcDbLine
 62
7
  6
CONTINUOUS
 10
141.0945564516
 20
599.5450697858
 11
141.0945564516
 21
597.0047286013
  0
LINE
  5
52D
100
AcDbEntity
  8
6_ALL_SURFS
100
AcDbLine
 62
7
  6
CONTINUOUS
 10
141.0945564516
 20
597.0047286013
 11
141.0945564516
 21
593.3248991935
  0
LINE
  5
52E
100
AcDbEntity
  8
7_ALL_FEATURES
100
AcDbLine
 62
7
  6
CONTINUOUS
 10
141.0945564516
 20
593.3248991935
 11
141.0945564516
 21
588.3748991935
  0
LINE
  5
52F
100
AcDbEntity
  8
7_ALL_FEATURES
100
AcDbLine
 62
7
  6
CONTINUOUS
 10
141.0945564516
 20
587.2748991935
 11
141.0945564516
 21
586.7748991935
  0
LINE
  5
530
100
AcDbEntity
  8
7_ALL_FEATURES
100
AcDbLine
 62
9
  6
CONTINUOUS
 10
141.2445564516
 20
599.2852621646
 11
141.2445564516
 21
597.2645362225
  0
LINE
  5
531
100
AcDbEntity
  8
7_ALL_FEATURES
100
AcDbLine
 62
9
  6
CONTINUOUS
 10
141.3945564516
 20
593.0248991935
 11
141.3945564516
 21
588.3748991935
  0
LINE
  5
532
100
AcDbEntity
  8
7_ALL_FEATURES
100
AcDbLine
 62
9
  6
CONTINUOUS
 10
141.3945564516
 20
587.2748991935
 11
141.3945564516
 21
586.7748991935
  0
LINE
  5
533
100
AcDbEntity
  8
7_ALL_FEATURES
100
AcDbLine
 62
9
  6
CONTINUOUS
 10
141.6334906927
 20
599.0607108758
 11
141.6334906927
 21
597.4890875113
  0
LINE
  5
534
100
AcDbEntity
  8
7_ALL_FEATURES
100
AcDbLine
 62
7
  6
CONTINUOUS
 10
141.9945564516
 20
588.5748991935
 11
141.9945564516
 21
589.0948991935
  0
LINE
  5
535
100
AcDbEntity
  8
7_ALL_FEATURES
100
AcDbLine
 62
9
  6
CONTINUOUS
 10
142.0105655225
 20
599.1244648776
 11
142.0105655225
 21
597.4253335095
  0
LINE
  5
536
100
AcDbEntity
  8
7_ALL_FEATURES
100
AcDbLine
 62
9
  6
CONTINUOUS
 10
142.2141127391
 20
586.7748991935
 11
142.2141127391
 21
587.2748991935
  0
LINE
  5
537
100
AcDbEntity
  8
7_ALL_FEATURES
100
AcDbLine
 62
9
  6
CONTINUOUS
 10
142.2141127391
 20
589.9563535656
 11
142.2141127391
 21
593.0248991935
  0
LINE
  5
538
100
AcDbEntity
  8
7_ALL_FEATURES
100
AcDbLine
 62
9
  6
CONTINUOUS
 10
142.4335188496
 20
586.7748991935
 11
142.4335188496
 21
587.2748991935
  0
LINE
  5
539
100
AcDbEntity
  8
7_ALL_FEATURES
100
AcDbLine
 62
9
  6
CONTINUOUS
 10
142.4335188496
 20
590.2727543949
 11
142.4335188496
 21
591.3827574735
  0
LINE
  5
53A
100
AcDbEntity
  8
7_ALL_FEATURES
100
AcDbLine
 62
9
  6
CONTINUOUS
 10
142.4335188496
 20
591.7671176203
 11
142.4335188496
 21
592.9294987016
  0
LINE
  5
53B
100
AcDbEntity
  8
6_ALL_SURFS
100
AcDbLine
 62
7
  6
CONTINUOUS
 10
142.6945564516
 20
601.4748991935
 11
142.6945564516
 21
646.2204131228
  0
LINE
  5
53C
100
AcDbEntity
  8
7_ALL_FEATURES
100
AcDbLine
 62
7
  6
CONTINUOUS
 10
142.6945564516
 20
646.2204131228
 11
142.6945564516
 21
647.5748991935
  0
LINE
  5
53D
100
AcDbEntity
  8
7_ALL_FEATURES
100
AcDbLine
 62
7
  6
CONTINUOUS
 10
142.7945564516
 20
589.0948991935
 11
142.7945564516
 21
588.4748991935
  0
LINE
  5
53E
100
AcDbEntity
  8
6_ALL_SURFS
100
AcDbLine
 62
7
  6
CONTINUOUS
 10
142.8445564516
 20
594.8850888548
 11
142.8445564516
 21
595.0748991935
  0
LINE
  5
53F
100
AcDbEntity
  8
6_ALL_SURFS
100
AcDbLine
 62
7
  6
CONTINUOUS
 10
142.9945564516
 20
589.4501007927
 11
142.9945564516
 21
588.5748991935
  0
LINE
  5
540
100
AcDbEntity
  8
7_ALL_FEATURES
100
AcDbLine
 62
7
  6
CONTINUOUS
 10
142.9945564516
 20
588.5748991935
 11
142.9945564516
 21
588.2748991935
  0
LINE
  5
541
100
AcDbEntity
  8
7_ALL_FEATURES
100
AcDbLine
 62
7
  6
CONTINUOUS
 10
142.9945564516
 20
587.2748991935
 11
142.9945564516
 21
586.7748991935
  0
LINE
  5
542
100
AcDbEntity
  8
7_ALL_FEATURES
100
AcDbLine
 62
9
  6
CONTINUOUS
 10
143.1445564516
 20
594.366423004
 11
143.1445564516
 21
595.3748991935
  0
LINE
  5
543
100
AcDbEntity
  8
7_ALL_FEATURES
100
AcDbLine
 62
9
  6
CONTINUOUS
 10
143.2945564516
 20
587.2748991935
 11
143.2945564516
 21
586.7748991935
  0
LINE
  5
544
100
AcDbEntity
  8
7_ALL_FEATURES
100
AcDbLine
 62
9
  6
CONTINUOUS
 10
143.8445564516
 20
23.2748991935
 11
143.8445564516
 21
586.7748991935
  0
LINE
  5
545
100
AcDbEntity
  8
7_ALL_FEATURES
100
AcDbLine
 62
9
  6
CONTINUOUS
 10
143.8945564516
 20
595.3748991935
 11
143.8945564516
 21
593.5621464715
  0
LINE
  5
546
100
AcDbEntity
  8
7_ALL_FEATURES
100
AcDbLine
 62
9
  6
CONTINUOUS
 10
143.9445564516
 20
586.7748991935
 11
143.9445564516
 21
587.3020731056
  0
LINE
  5
547
100
AcDbEntity
  8
7_ALL_FEATURES
100
AcDbLine
 62
9
  6
CONTINUOUS
 10
143.9445564516
 20
588.2477252815
 11
143.9445564516
 21
588.2748991935
  0
LINE
  5
548
100
AcDbEntity
  8
7_ALL_FEATURES
100
AcDbLine
 62
7
  6
CONTINUOUS
 10
144.0445564516
 20
588.0748991935
 11
144.0445564516
 21
587.4748991935
  0
LINE
  5
549
100
AcDbEntity
  8
7_ALL_FEATURES
100
AcDbLine
 62
7
  6
CONTINUOUS
 10
144.0445564516
 20
23.2748991935
 11
144.0445564516
 21
586.7748991935
  0
LINE
  5
54A
100
AcDbEntity
  8
7_ALL_FEATURES
100
AcDbLine
 62
9
  6
CONTINUOUS
 10
144.1639625621
 20
589.8716916995
 11
144.1639625621
 21
591.0738250098
  0
LINE
  5
54B
100
AcDbEntity
  8
6_ALL_SURFS
100
AcDbLine
 62
7
  6
CONTINUOUS
 10
144.2445564516
 20
590.8692255018
 11
144.2445564516
 21
590.0748991935
  0
LINE
  5
54C
100
AcDbEntity
  8
6_ALL_SURFS
100
AcDbLine
 62
7
  6
CONTINUOUS
 10
144.2445564516
 20
587.9748991935
 11
144.2445564516
 21
587.5748991935
  0
LINE
  5
54D
100
AcDbEntity
  8
7_ALL_FEATURES
100
AcDbLine
 62
7
  6
CONTINUOUS
 10
144.2445564516
 20
587.5748991935
 11
144.2445564516
 21
23.2748991935
  0
LINE
  5
54E
100
AcDbEntity
  8
7_ALL_FEATURES
100
AcDbLine
 62
9
  6
CONTINUOUS
 10
144.5445564516
 20
587.2748991935
 11
144.5445564516
 21
23.2748991935
  0
LINE
  5
54F
100
AcDbEntity
  8
7_ALL_FEATURES
100
AcDbLine
 62
9
  6
CONTINUOUS
 10
145.1945564516
 20
587.2748991935
 11
145.1945564516
 21
23.2748991935
  0
LINE
  5
550
100
AcDbEntity
  8
7_ALL_FEATURES
100
AcDbLine
 62
7
  6
CONTINUOUS
 10
145.4945564516
 20
587.5748991935
 11
145.4945564516
 21
23.2748991935
  0
LINE
  5
551
100
AcDbEntity
  8
6_ALL_SURFS
100
AcDbLine
 62
7
  6
CONTINUOUS
 10
145.4945564516
 20
587.5748991935
 11
145.4945564516
 21
588.4748991935
  0
LINE
  5
552
100
AcDbEntity
  8
7_ALL_FEATURES
100
AcDbLine
 62
3
  6
CONTINUOUS
 10
145.6945564516
 20
600.0430572548
 11
145.6945564516
 21
647.5748991935
  0
LINE
  5
553
100
AcDbEntity
  8
6_ALL_SURFS
100
AcDbLine
 62
7
  6
CONTINUOUS
 10
145.7445564516
 20
590.0748991935
 11
145.7445564516
 21
590.9873986445
  0
LINE
  5
554
100
AcDbEntity
  8
7_ALL_FEATURES
100
AcDbLine
 62
9
  6
CONTINUOUS
 10
145.7945564516
 20
23.2748991935
 11
145.7945564516
 21
588.7748991935
  0
LINE
  5
555
100
AcDbEntity
  8
7_ALL_FEATURES
100
AcDbLine
 62
7
  6
CONTINUOUS
 10
145.8945564516
 20
597.3748991935
 11
145.8945564516
 21
589.8162075318
  0
LINE
  5
556
100
AcDbEntity
  8
6_ALL_SURFS
100
AcDbLine
 62
7
  6
CONTINUOUS
 10
145.8945564516
 20
597.3748991935
 11
145.8945564516
 21
599.1748991935
  0
LINE
  5
557
100
AcDbEntity
  8
3_ALL_AXES
100
AcDbLine
 62
7
  6
CONTINUOUS
 10
147.6945564516
 20
602.7248991935
 11
147.6945564516
 21
611.4248991935
  0
LINE
  5
558
100
AcDbEntity
  8
3_ALL_AXES
100
AcDbLine
 62
7
  6
CONTINUOUS
 10
147.6945564516
 20
630.7248991935
 11
147.6945564516
 21
639.4248991935
  0
LINE
  5
559
100
AcDbEntity
  8
7_ALL_FEATURES
100
AcDbLine
 62
7
  6
CONTINUOUS
 10
147.7445564516
 20
23.2748991935
 11
147.7445564516
 21
588.7748991935
  0
LINE
  5
55A
100
AcDbEntity
  8
7_ALL_FEATURES
100
AcDbLine
 62
7
  6
CONTINUOUS
 10
148.0945564516
 20
636.5748991935
 11
148.0945564516
 21
632.5748991935
  0
LINE
  5
55B
100
AcDbEntity
  8
7_ALL_FEATURES
100
AcDbLine
 62
7
  6
CONTINUOUS
 10
148.0945564516
 20
608.2748991935
 11
148.0945564516
 21
604.2748991935
  0
LINE
  5
55C
100
AcDbEntity
  8
7_ALL_FEATURES
100
AcDbLine
 62
7
  6
CONTINUOUS
 10
148.3445564516
 20
23.2748991935
 11
148.3445564516
 21
588.7748991935
  0
LINE
  5
55D
100
AcDbEntity
  8
7_ALL_FEATURES
100
AcDbLine
 62
7
  6
CONTINUOUS
 10
150.7445564516
 20
23.2748991935
 11
150.7445564516
 21
588.7748991935
  0
LINE
  5
55E
100
AcDbEntity
  8
7_ALL_FEATURES
100
AcDbLine
 62
7
  6
CONTINUOUS
 10
151.3445564516
 20
23.2748991935
 11
151.3445564516
 21
588.7748991935
  0
LINE
  5
55F
100
AcDbEntity
  8
7_ALL_FEATURES
100
AcDbLine
 62
7
  6
CONTINUOUS
 10
153.7445564516
 20
23.2748991935
 11
153.7445564516
 21
588.7748991935
  0
LINE
  5
560
100
AcDbEntity
  8
7_ALL_FEATURES
100
AcDbLine
 62
7
  6
CONTINUOUS
 10
154.3445564516
 20
23.2748991935
 11
154.3445564516
 21
588.7748991935
  0
LINE
  5
561
100
AcDbEntity
  8
7_ALL_FEATURES
100
AcDbLine
 62
7
  6
CONTINUOUS
 10
156.7445564516
 20
23.2748991935
 11
156.7445564516
 21
61.5291326846
  0
LINE
  5
562
100
AcDbEntity
  8
7_ALL_FEATURES
100
AcDbLine
 62
7
  6
CONTINUOUS
 10
156.7445564516
 20
69.0206657025
 11
156.7445564516
 21
311.5291326846
  0
LINE
  5
563
100
AcDbEntity
  8
7_ALL_FEATURES
100
AcDbLine
 62
7
  6
CONTINUOUS
 10
156.7445564516
 20
319.0206657025
 11
156.7445564516
 21
561.5291326846
  0
LINE
  5
564
100
AcDbEntity
  8
7_ALL_FEATURES
100
AcDbLine
 62
7
  6
CONTINUOUS
 10
156.7445564516
 20
569.0206657025
 11
156.7445564516
 21
588.7748991935
  0
LINE
  5
565
100
AcDbEntity
  8
7_ALL_FEATURES
100
AcDbLine
 62
7
  6
CONTINUOUS
 10
157.3445564516
 20
23.2748991935
 11
157.3445564516
 21
61.1190879924
  0
LINE
  5
566
100
AcDbEntity
  8
7_ALL_FEATURES
100
AcDbLine
 62
7
  6
CONTINUOUS
 10
157.3445564516
 20
69.4307103947
 11
157.3445564516
 21
311.1190879924
  0
LINE
  5
567
100
AcDbEntity
  8
7_ALL_FEATURES
100
AcDbLine
 62
7
  6
CONTINUOUS
 10
157.3445564516
 20
319.4307103947
 11
157.3445564516
 21
561.1190879924
  0
LINE
  5
568
100
AcDbEntity
  8
7_ALL_FEATURES
100
AcDbLine
 62
7
  6
CONTINUOUS
 10
157.3445564516
 20
569.4307103947
 11
157.3445564516
 21
588.7748991935
  0
LINE
  5
569
100
AcDbEntity
  8
7_ALL_FEATURES
100
AcDbLine
 62
7
  6
CONTINUOUS
 10
159.7445564516
 20
23.2748991935
 11
159.7445564516
 21
60.4758610879
  0
LINE
  5
56A
100
AcDbEntity
  8
7_ALL_FEATURES
100
AcDbLine
 62
7
  6
CONTINUOUS
 10
159.7445564516
 20
70.0739372992
 11
159.7445564516
 21
310.4758610879
  0
LINE
  5
56B
100
AcDbEntity
  8
7_ALL_FEATURES
100
AcDbLine
 62
7
  6
CONTINUOUS
 10
159.7445564516
 20
320.0739372992
 11
159.7445564516
 21
560.4758610879
  0
LINE
  5
56C
100
AcDbEntity
  8
7_ALL_FEATURES
100
AcDbLine
 62
7
  6
CONTINUOUS
 10
159.7445564516
 20
570.0739372992
 11
159.7445564516
 21
588.7748991935
  0
LINE
  5
56D
100
AcDbEntity
  8
7_ALL_FEATURES
100
AcDbLine
 62
7
  6
CONTINUOUS
 10
160.3445564516
 20
23.2748991935
 11
160.3445564516
 21
60.5135163335
  0
LINE
  5
56E
100
AcDbEntity
  8
7_ALL_FEATURES
100
AcDbLine
 62
7
  6
CONTINUOUS
 10
160.3445564516
 20
70.0362820536
 11
160.3445564516
 21
310.5135163335
  0
LINE
  5
56F
100
AcDbEntity
  8
7_ALL_FEATURES
100
AcDbLine
 62
7
  6
CONTINUOUS
 10
160.3445564516
 20
320.0362820536
 11
160.3445564516
 21
560.5135163335
  0
LINE
  5
570
100
AcDbEntity
  8
7_ALL_FEATURES
100
AcDbLine
 62
7
  6
CONTINUOUS
 10
160.3445564516
 20
570.0362820536
 11
160.3445564516
 21
588.7748991935
  0
LINE
  5
571
100
AcDbEntity
  8
7_ALL_FEATURES
100
AcDbLine
 62
7
  6
CONTINUOUS
 10
163.2445564516
 20
23.2748991935
 11
163.2445564516
 21
61.9914913998
  0
LINE
  5
572
100
AcDbEntity
  8
7_ALL_FEATURES
100
AcDbLine
 62
7
  6
CONTINUOUS
 10
163.2445564516
 20
68.5583069872
 11
163.2445564516
 21
311.9914913998
  0
LINE
  5
573
100
AcDbEntity
  8
7_ALL_FEATURES
100
AcDbLine
 62
7
  6
CONTINUOUS
 10
163.2445564516
 20
318.5583069872
 11
163.2445564516
 21
561.9914913998
  0
LINE
  5
574
100
AcDbEntity
  8
7_ALL_FEATURES
100
AcDbLine
 62
7
  6
CONTINUOUS
 10
163.2445564516
 20
568.5583069872
 11
163.2445564516
 21
588.7748991935
  0
LINE
  5
575
100
AcDbEntity
  8
7_ALL_FEATURES
100
AcDbLine
 62
9
  6
CONTINUOUS
 10
165.390028042
 20
588.9894463526
 11
165.390028042
 21
23.2748991935
  0
LINE
  5
576
100
AcDbEntity
  8
7_ALL_FEATURES
100
AcDbLine
 62
7
  6
CONTINUOUS
 10
165.7445564516
 20
589.3811958356
 11
165.7445564516
 21
23.2748991935
  0
LINE
  5
577
100
AcDbEntity
  8
6_ALL_SURFS
100
AcDbLine
 62
7
  6
CONTINUOUS
 10
138.2682676071
 20
659.3413388075
 11
141.0477809964
 21
646.803764126
  0
LINE
  5
578
100
AcDbEntity
  8
6_ALL_SURFS
100
AcDbLine
 62
7
  6
CONTINUOUS
 10
142.5760364872
 20
647.3026111925
 11
139.5494021403
 21
660.9548764784
  0
LINE
  5
579
100
AcDbEntity
  8
7_ALL_FEATURES
100
AcDbLine
 62
7
  6
CONTINUOUS
 10
106.3462551858
 20
589.6157406624
 11
106.3594407295
 21
589.5909422615
  0
LINE
  5
57A
100
AcDbEntity
  8
6_ALL_SURFS
100
AcDbLine
 62
7
  6
CONTINUOUS
 10
140.6791928657
 20
646.0602370461
 11
141.0342490724
 21
645.0847281355
  0
LINE
  5
57B
100
AcDbEntity
  8
7_ALL_FEATURES
100
AcDbLine
 62
7
  6
CONTINUOUS
 10
110.9336381306
 20
666.9248991935
 11
111.9087447693
 21
665.2359649524
  0
LINE
  5
57C
100
AcDbEntity
  8
7_ALL_FEATURES
100
AcDbLine
 62
7
  6
CONTINUOUS
 10
101.2945564516
 20
616.7748991935
 11
101.6945564516
 21
616.3748991935
  0
LINE
  5
57D
100
AcDbEntity
  8
6_ALL_SURFS
100
AcDbLine
 62
7
  6
CONTINUOUS
 10
135.9087447693
 20
665.2359649524
 11
134.9336381306
 21
666.9248991935
  0
LINE
  5
57E
100
AcDbEntity
  8
3_ALL_AXES
100
AcDbLine
 62
7
  6
CONTINUOUS
 10
108.9945564516
 20
613.7748991935
 11
108.2945564516
 21
614.4748991935
  0
LINE
  5
57F
100
AcDbEntity
  8
7_ALL_FEATURES
100
AcDbLine
 62
7
  6
CONTINUOUS
 10
101.2945564516
 20
632.5748991935
 11
101.6945564516
 21
632.1748991935
  0
LINE
  5
580
100
AcDbEntity
  8
3_ALL_AXES
100
AcDbLine
 62
7
  6
CONTINUOUS
 10
108.9945564516
 20
629.5748991935
 11
108.2945564516
 21
630.2748991935
  0
LINE
  5
581
100
AcDbEntity
  8
7_ALL_FEATURES
100
AcDbLine
 62
7
  6
CONTINUOUS
 10
142.8556543946
 20
590.9112988656
 11
142.4912265814
 21
591.3020998495
  0
LINE
  5
582
100
AcDbEntity
  8
7_ALL_FEATURES
100
AcDbLine
 62
7
  6
CONTINUOUS
 10
143.0763095427
 20
591.8476985376
 11
143.4407373559
 21
591.4568975536
  0
LINE
  5
583
100
AcDbEntity
  8
6_ALL_SURFS
100
AcDbLine
 62
7
  6
CONTINUOUS
 10
142.4335188496
 20
592.9294987016
 11
144.1639625621
 21
591.0738250098
  0
LINE
  5
584
100
AcDbEntity
  8
6_ALL_SURFS
100
AcDbLine
 62
7
  6
CONTINUOUS
 10
145.341587004
 20
592.0103961846
 11
142.9788796008
 21
594.5440896748
  0
LINE
  5
585
100
AcDbEntity
  8
3_ALL_AXES
100
AcDbLine
 62
7
  6
CONTINUOUS
 10
86.3445564516
 20
589.9248991935
 11
86.6445564516
 21
589.7748991935
  0
LINE
  5
586
100
AcDbEntity
  8
3_ALL_AXES
100
AcDbLine
 62
7
  6
CONTINUOUS
 10
89.3445564516
 20
589.9248991935
 11
89.6445564516
 21
589.7748991935
  0
LINE
  5
587
100
AcDbEntity
  8
3_ALL_AXES
100
AcDbLine
 62
7
  6
CONTINUOUS
 10
92.3445564516
 20
589.9248991935
 11
92.6445564516
 21
589.7748991935
  0
LINE
  5
588
100
AcDbEntity
  8
3_ALL_AXES
100
AcDbLine
 62
7
  6
CONTINUOUS
 10
95.3445564516
 20
589.9248991935
 11
95.6445564516
 21
589.7748991935
  0
LINE
  5
589
100
AcDbEntity
  8
3_ALL_AXES
100
AcDbLine
 62
7
  6
CONTINUOUS
 10
98.3445564516
 20
589.9248991935
 11
98.6445564516
 21
589.7748991935
  0
LINE
  5
58A
100
AcDbEntity
  8
3_ALL_AXES
100
AcDbLine
 62
7
  6
CONTINUOUS
 10
101.3445564516
 20
589.9248991935
 11
101.6445564516
 21
589.7748991935
  0
LINE
  5
58B
100
AcDbEntity
  8
7_ALL_FEATURES
100
AcDbLine
 62
7
  6
CONTINUOUS
 10
107.7556222105
 20
597.4890875113
 11
108.1445564516
 21
597.2645362225
  0
LINE
  5
58C
100
AcDbEntity
  8
3_ALL_AXES
100
AcDbLine
 62
7
  6
CONTINUOUS
 10
140.3945564516
 20
611.2748991935
 11
141.0945564516
 21
610.5748991935
  0
LINE
  5
58D
100
AcDbEntity
  8
7_ALL_FEATURES
100
AcDbLine
 62
7
  6
CONTINUOUS
 10
148.0945564516
 20
608.2748991935
 11
147.6945564516
 21
608.6748991935
  0
LINE
  5
58E
100
AcDbEntity
  8
6_ALL_SURFS
100
AcDbLine
 62
7
  6
CONTINUOUS
 10
163.2445564516
 20
588.7748991935
 11
165.390028042
 21
588.9894463526
  0
LINE
  5
58F
100
AcDbEntity
  8
7_ALL_FEATURES
100
AcDbLine
 62
7
  6
CONTINUOUS
 10
86.1445564516
 20
588.7748991935
 11
83.9990848612
 21
588.9894463526
  0
LINE
  5
590
100
AcDbEntity
  8
6_ALL_SURFS
100
AcDbLine
 62
7
  6
CONTINUOUS
 10
148.3445564516
 20
589.7748991935
 11
148.0445564516
 21
589.9248991935
  0
LINE
  5
591
100
AcDbEntity
  8
6_ALL_SURFS
100
AcDbLine
 62
7
  6
CONTINUOUS
 10
151.3445564516
 20
589.7748991935
 11
151.0445564516
 21
589.9248991935
  0
LINE
  5
592
100
AcDbEntity
  8
6_ALL_SURFS
100
AcDbLine
 62
7
  6
CONTINUOUS
 10
154.3445564516
 20
589.7748991935
 11
154.0445564516
 21
589.9248991935
  0
LINE
  5
593
100
AcDbEntity
  8
6_ALL_SURFS
100
AcDbLine
 62
7
  6
CONTINUOUS
 10
157.3445564516
 20
589.7748991935
 11
157.0445564516
 21
589.9248991935
  0
LINE
  5
594
100
AcDbEntity
  8
6_ALL_SURFS
100
AcDbLine
 62
7
  6
CONTINUOUS
 10
160.3445564516
 20
589.7748991935
 11
160.0445564516
 21
589.9248991935
  0
LINE
  5
595
100
AcDbEntity
  8
6_ALL_SURFS
100
AcDbLine
 62
7
  6
CONTINUOUS
 10
163.3445564516
 20
589.7748991935
 11
163.0445564516
 21
589.9248991935
  0
LINE
  5
596
100
AcDbEntity
  8
6_ALL_SURFS
100
AcDbLine
 62
7
  6
CONTINUOUS
 10
141.2445564516
 20
599.2852621646
 11
141.6334906927
 21
599.0607108758
  0
LINE
  5
597
100
AcDbEntity
  8
3_ALL_AXES
100
AcDbLine
 62
7
  6
CONTINUOUS
 10
140.3945564516
 20
639.5748991935
 11
141.0945564516
 21
638.8748991935
  0
LINE
  5
598
100
AcDbEntity
  8
7_ALL_FEATURES
100
AcDbLine
 62
7
  6
CONTINUOUS
 10
148.0945564516
 20
636.5748991935
 11
147.6945564516
 21
636.9748991935
  0
LINE
  5
599
100
AcDbEntity
  8
7_ALL_FEATURES
100
AcDbLine
 62
7
  6
CONTINUOUS
 10
126.1945564516
 20
665.1248991935
 11
126.3945564516
 21
664.9248991935
  0
LINE
  5
59A
100
AcDbEntity
  8
7_ALL_FEATURES
100
AcDbLine
 62
7
  6
CONTINUOUS
 10
105.3445564516
 20
586.7748991935
 11
144.0445564516
 21
586.7748991935
  0
LINE
  5
59B
100
AcDbEntity
  8
7_ALL_FEATURES
100
AcDbLine
 62
7
  6
CONTINUOUS
 10
143.8445564516
 20
587.2748991935
 11
105.5445564516
 21
587.2748991935
  0
LINE
  5
59C
100
AcDbEntity
  8
7_ALL_FEATURES
100
AcDbLine
 62
7
  6
CONTINUOUS
 10
104.8445564516
 20
587.2748991935
 11
104.1945564516
 21
587.2748991935
  0
LINE
  5
59D
100
AcDbEntity
  8
6_ALL_SURFS
100
AcDbLine
 62
7
  6
CONTINUOUS
 10
144.5445564516
 20
587.2748991935
 11
145.1945564516
 21
587.2748991935
  0
LINE
  5
59E
100
AcDbEntity
  8
7_ALL_FEATURES
100
AcDbLine
 62
7
  6
CONTINUOUS
 10
105.4445564516
 20
588.2748991935
 11
106.3945564516
 21
588.2748991935
  0
LINE
  5
59F
100
AcDbEntity
  8
7_ALL_FEATURES
100
AcDbLine
 62
7
  6
CONTINUOUS
 10
142.9945564516
 20
588.2748991935
 11
143.8445564516
 21
588.2748991935
  0
LINE
  5
5A0
100
AcDbEntity
  8
6_ALL_SURFS
100
AcDbLine
 62
7
  6
CONTINUOUS
 10
143.2945564516
 20
588.2748991935
 11
143.9445564516
 21
588.2748991935
  0
LINE
  5
5A1
100
AcDbEntity
  8
7_ALL_FEATURES
100
AcDbLine
 62
7
  6
CONTINUOUS
 10
107.5945564516
 20
588.3748991935
 11
141.7945564516
 21
588.3748991935
  0
LINE
  5
5A2
100
AcDbEntity
  8
7_ALL_FEATURES
100
AcDbLine
 62
7
  6
CONTINUOUS
 10
103.5945564516
 20
588.7748991935
 11
101.6445564516
 21
588.7748991935
  0
LINE
  5
5A3
100
AcDbEntity
  8
3_ALL_AXES
100
AcDbLine
 62
7
  6
CONTINUOUS
 10
101.0445564516
 20
588.7748991935
 11
98.6445564516
 21
588.7748991935
  0
LINE
  5
5A4
100
AcDbEntity
  8
3_ALL_AXES
100
AcDbLine
 62
7
  6
CONTINUOUS
 10
98.0445564516
 20
588.7748991935
 11
95.6445564516
 21
588.7748991935
  0
LINE
  5
5A5
100
AcDbEntity
  8
3_ALL_AXES
100
AcDbLine
 62
7
  6
CONTINUOUS
 10
95.0445564516
 20
588.7748991935
 11
92.6445564516
 21
588.7748991935
  0
LINE
  5
5A6
100
AcDbEntity
  8
3_ALL_AXES
100
AcDbLine
 62
7
  6
CONTINUOUS
 10
92.0445564516
 20
588.7748991935
 11
89.6445564516
 21
588.7748991935
  0
LINE
  5
5A7
100
AcDbEntity
  8
3_ALL_AXES
100
AcDbLine
 62
7
  6
CONTINUOUS
 10
89.0445564516
 20
588.7748991935
 11
86.1445564516
 21
588.7748991935
  0
LINE
  5
5A8
100
AcDbEntity
  8
6_ALL_SURFS
100
AcDbLine
 62
7
  6
CONTINUOUS
 10
145.7945564516
 20
588.7748991935
 11
147.7445564516
 21
588.7748991935
  0
LINE
  5
5A9
100
AcDbEntity
  8
6_ALL_SURFS
100
AcDbLine
 62
7
  6
CONTINUOUS
 10
148.3445564516
 20
588.7748991935
 11
150.7445564516
 21
588.7748991935
  0
LINE
  5
5AA
100
AcDbEntity
  8
6_ALL_SURFS
100
AcDbLine
 62
7
  6
CONTINUOUS
 10
151.3445564516
 20
588.7748991935
 11
153.7445564516
 21
588.7748991935
  0
LINE
  5
5AB
100
AcDbEntity
  8
6_ALL_SURFS
100
AcDbLine
 62
7
  6
CONTINUOUS
 10
154.3445564516
 20
588.7748991935
 11
156.7445564516
 21
588.7748991935
  0
LINE
  5
5AC
100
AcDbEntity
  8
6_ALL_SURFS
100
AcDbLine
 62
7
  6
CONTINUOUS
 10
157.3445564516
 20
588.7748991935
 11
159.7445564516
 21
588.7748991935
  0
LINE
  5
5AD
100
AcDbEntity
  8
6_ALL_SURFS
100
AcDbLine
 62
7
  6
CONTINUOUS
 10
160.3445564516
 20
588.7748991935
 11
163.2445564516
 21
588.7748991935
  0
LINE
  5
5AE
100
AcDbEntity
  8
6_ALL_SURFS
100
AcDbLine
 62
7
  6
CONTINUOUS
 10
165.3508530937
 20
589.7748991935
 11
163.3445564516
 21
589.7748991935
  0
LINE
  5
5AF
100
AcDbEntity
  8
6_ALL_SURFS
100
AcDbLine
 62
7
  6
CONTINUOUS
 10
162.7445564516
 20
589.7748991935
 11
160.3445564516
 21
589.7748991935
  0
LINE
  5
5B0
100
AcDbEntity
  8
6_ALL_SURFS
100
AcDbLine
 62
7
  6
CONTINUOUS
 10
159.7445564516
 20
589.7748991935
 11
157.3445564516
 21
589.7748991935
  0
LINE
  5
5B1
100
AcDbEntity
  8
6_ALL_SURFS
100
AcDbLine
 62
7
  6
CONTINUOUS
 10
156.7445564516
 20
589.7748991935
 11
154.3445564516
 21
589.7748991935
  0
LINE
  5
5B2
100
AcDbEntity
  8
6_ALL_SURFS
100
AcDbLine
 62
7
  6
CONTINUOUS
 10
153.7445564516
 20
589.7748991935
 11
151.3445564516
 21
589.7748991935
  0
LINE
  5
5B3
100
AcDbEntity
  8
6_ALL_SURFS
100
AcDbLine
 62
7
  6
CONTINUOUS
 10
150.7445564516
 20
589.7748991935
 11
148.3445564516
 21
589.7748991935
  0
LINE
  5
5B4
100
AcDbEntity
  8
6_ALL_SURFS
100
AcDbLine
 62
7
  6
CONTINUOUS
 10
147.7445564516
 20
589.7748991935
 11
146.0445564516
 21
589.7748991935
  0
LINE
  5
5B5
100
AcDbEntity
  8
6_ALL_SURFS
100
AcDbLine
 62
7
  6
CONTINUOUS
 10
143.9445564516
 20
589.7748991935
 11
143.3077419952
 21
589.7748991935
  0
LINE
  5
5B6
100
AcDbEntity
  8
7_ALL_FEATURES
100
AcDbLine
 62
7
  6
CONTINUOUS
 10
84.0382598095
 20
589.7748991935
 11
86.0445564516
 21
589.7748991935
  0
LINE
  5
5B7
100
AcDbEntity
  8
3_ALL_AXES
100
AcDbLine
 62
7
  6
CONTINUOUS
 10
86.6445564516
 20
589.7748991935
 11
89.0445564516
 21
589.7748991935
  0
LINE
  5
5B8
100
AcDbEntity
  8
3_ALL_AXES
100
AcDbLine
 62
7
  6
CONTINUOUS
 10
89.6445564516
 20
589.7748991935
 11
92.0445564516
 21
589.7748991935
  0
LINE
  5
5B9
100
AcDbEntity
  8
3_ALL_AXES
100
AcDbLine
 62
7
  6
CONTINUOUS
 10
92.6445564516
 20
589.7748991935
 11
95.0445564516
 21
589.7748991935
  0
LINE
  5
5BA
100
AcDbEntity
  8
3_ALL_AXES
100
AcDbLine
 62
7
  6
CONTINUOUS
 10
95.6445564516
 20
589.7748991935
 11
98.0445564516
 21
589.7748991935
  0
LINE
  5
5BB
100
AcDbEntity
  8
3_ALL_AXES
100
AcDbLine
 62
7
  6
CONTINUOUS
 10
98.6445564516
 20
589.7748991935
 11
101.0445564516
 21
589.7748991935
  0
LINE
  5
5BC
100
AcDbEntity
  8
7_ALL_FEATURES
100
AcDbLine
 62
7
  6
CONTINUOUS
 10
101.6445564516
 20
589.7748991935
 11
103.3445564516
 21
589.7748991935
  0
LINE
  5
5BD
100
AcDbEntity
  8
7_ALL_FEATURES
100
AcDbLine
 62
7
  6
CONTINUOUS
 10
105.4445564516
 20
589.7748991935
 11
106.081370908
 21
589.7748991935
  0
LINE
  5
5BE
100
AcDbEntity
  8
7_ALL_FEATURES
100
AcDbLine
 62
7
  6
CONTINUOUS
 10
107.9945564516
 20
593.0248991935
 11
107.1750001641
 21
593.0248991935
  0
LINE
  5
5BF
100
AcDbEntity
  8
6_ALL_SURFS
100
AcDbLine
 62
7
  6
CONTINUOUS
 10
141.3945564516
 20
593.0248991935
 11
142.2141127391
 21
593.0248991935
  0
LINE
  5
5C0
100
AcDbEntity
  8
7_ALL_FEATURES
100
AcDbLine
 62
7
  6
CONTINUOUS
 10
106.2445564516
 20
595.3748991935
 11
105.4945564516
 21
595.3748991935
  0
LINE
  5
5C1
100
AcDbEntity
  8
6_ALL_SURFS
100
AcDbLine
 62
7
  6
CONTINUOUS
 10
143.1445564516
 20
595.3748991935
 11
143.8945564516
 21
595.3748991935
  0
LINE
  5
5C2
100
AcDbEntity
  8
6_ALL_SURFS
100
AcDbLine
 62
7
  6
CONTINUOUS
 10
143.8945564516
 20
601.1748991935
 11
142.9945564516
 21
601.1748991935
  0
LINE
  5
5C3
100
AcDbEntity
  8
7_ALL_FEATURES
100
AcDbLine
 62
7
  6
CONTINUOUS
 10
105.4945564516
 20
601.1748991935
 11
106.3945564516
 21
601.1748991935
  0
LINE
  5
5C4
100
AcDbEntity
  8
3_ALL_AXES
100
AcDbLine
 62
7
  6
CONTINUOUS
 10
140.0945564516
 20
601.2748991935
 11
140.3945564516
 21
601.2748991935
  0
LINE
  5
5C5
100
AcDbEntity
  8
3_ALL_AXES
100
AcDbLine
 62
7
  6
CONTINUOUS
 10
147.6945564516
 20
602.7248991935
 11
145.6945564516
 21
602.7248991935
  0
LINE
  5
5C6
100
AcDbEntity
  8
7_ALL_FEATURES
100
AcDbLine
 62
7
  6
CONTINUOUS
 10
108.4798719823
 20
646.4815843641
 11
108.5823609779
 21
646.4200909668
  0
LINE
  5
5C7
100
AcDbEntity
  8
3_ALL_AXES
100
AcDbLine
 62
7
  6
CONTINUOUS
 10
140.0945564516
 20
611.2748991935
 11
140.3945564516
 21
611.2748991935
  0
LINE
  5
5C8
100
AcDbEntity
  8
3_ALL_AXES
100
AcDbLine
 62
7
  6
CONTINUOUS
 10
147.6945564516
 20
611.4248991935
 11
145.6945564516
 21
611.4248991935
  0
LINE
  5
5C9
100
AcDbEntity
  8
3_ALL_AXES
100
AcDbLine
 62
7
  6
CONTINUOUS
 10
109.2945564516
 20
613.7748991935
 11
108.9945564516
 21
613.7748991935
  0
LINE
  5
5CA
100
AcDbEntity
  8
3_ALL_AXES
100
AcDbLine
 62
7
  6
CONTINUOUS
 10
101.6945564516
 20
614.7248991935
 11
103.6945564516
 21
614.7248991935
  0
LINE
  5
5CB
100
AcDbEntity
  8
7_ALL_FEATURES
100
AcDbLine
 62
7
  6
CONTINUOUS
 10
103.6945564516
 20
622.0748991935
 11
106.6945564516
 21
622.0748991935
  0
LINE
  5
5CC
100
AcDbEntity
  8
7_ALL_FEATURES
100
AcDbLine
 62
7
  6
CONTINUOUS
 10
145.6945564516
 20
622.5748991935
 11
142.6945564516
 21
622.5748991935
  0
LINE
  5
5CD
100
AcDbEntity
  8
3_ALL_AXES
100
AcDbLine
 62
7
  6
CONTINUOUS
 10
101.6945564516
 20
623.4248991935
 11
103.6945564516
 21
623.4248991935
  0
LINE
  5
5CE
100
AcDbEntity
  8
3_ALL_AXES
100
AcDbLine
 62
7
  6
CONTINUOUS
 10
109.2945564516
 20
623.7748991935
 11
108.9945564516
 21
623.7748991935
  0
LINE
  5
5CF
100
AcDbEntity
  8
3_ALL_AXES
100
AcDbLine
 62
7
  6
CONTINUOUS
 10
109.2945564516
 20
629.5748991935
 11
108.9945564516
 21
629.5748991935
  0
LINE
  5
5D0
100
AcDbEntity
  8
3_ALL_AXES
100
AcDbLine
 62
7
  6
CONTINUOUS
 10
140.0945564516
 20
629.5748991935
 11
140.3945564516
 21
629.5748991935
  0
LINE
  5
5D1
100
AcDbEntity
  8
3_ALL_AXES
100
AcDbLine
 62
7
  6
CONTINUOUS
 10
101.6945564516
 20
630.2248991935
 11
103.6945564516
 21
630.2248991935
  0
LINE
  5
5D2
100
AcDbEntity
  8
3_ALL_AXES
100
AcDbLine
 62
7
  6
CONTINUOUS
 10
147.6945564516
 20
630.7248991935
 11
145.6945564516
 21
630.7248991935
  0
LINE
  5
5D3
100
AcDbEntity
  8
3_ALL_AXES
100
AcDbLine
 62
7
  6
CONTINUOUS
 10
101.6945564516
 20
638.9248991935
 11
103.6945564516
 21
638.9248991935
  0
LINE
  5
5D4
100
AcDbEntity
  8
3_ALL_AXES
100
AcDbLine
 62
7
  6
CONTINUOUS
 10
147.6945564516
 20
639.4248991935
 11
145.6945564516
 21
639.4248991935
  0
LINE
  5
5D5
100
AcDbEntity
  8
3_ALL_AXES
100
AcDbLine
 62
7
  6
CONTINUOUS
 10
109.2945564516
 20
639.5748991935
 11
108.9945564516
 21
639.5748991935
  0
LINE
  5
5D6
100
AcDbEntity
  8
3_ALL_AXES
100
AcDbLine
 62
7
  6
CONTINUOUS
 10
140.0945564516
 20
639.5748991935
 11
140.3945564516
 21
639.5748991935
  0
LINE
  5
5D7
100
AcDbEntity
  8
7_ALL_FEATURES
100
AcDbLine
 62
7
  6
CONTINUOUS
 10
103.6945564516
 20
647.0748991935
 11
106.6945564516
 21
647.0748991935
  0
LINE
  5
5D8
100
AcDbEntity
  8
7_ALL_FEATURES
100
AcDbLine
 62
7
  6
CONTINUOUS
 10
145.6945564516
 20
647.5748991935
 11
142.6945564516
 21
647.5748991935
  0
LINE
  5
5D9
100
AcDbEntity
  8
7_ALL_FEATURES
100
AcDbLine
 62
7
  6
CONTINUOUS
 10
128.6945564516
 20
657.0966959633
 11
120.6945564516
 21
657.0966959633
  0
LINE
  5
5DA
100
AcDbEntity
  8
7_ALL_FEATURES
100
AcDbLine
 62
7
  6
CONTINUOUS
 10
132.1945564516
 20
659.1248991935
 11
117.1945564516
 21
659.1248991935
  0
LINE
  5
5DB
100
AcDbEntity
  8
7_ALL_FEATURES
100
AcDbLine
 62
7
  6
CONTINUOUS
 10
112.0971413033
 20
660.1248991935
 11
126.6945564516
 21
660.1248991935
  0
LINE
  5
5DC
100
AcDbEntity
  8
6_ALL_SURFS
100
AcDbLine
 62
7
  6
CONTINUOUS
 10
126.6945564516
 20
660.1248991935
 11
137.2919715999
 21
660.1248991935
  0
LINE
  5
5DD
100
AcDbEntity
  8
6_ALL_SURFS
100
AcDbLine
 62
7
  6
CONTINUOUS
 10
133.8366726191
 20
661.7248991935
 11
128.5945564516
 21
661.7248991935
  0
LINE
  5
5DE
100
AcDbEntity
  8
7_ALL_FEATURES
100
AcDbLine
 62
7
  6
CONTINUOUS
 10
115.5524402841
 20
661.7248991935
 11
120.7945564516
 21
661.7248991935
  0
LINE
  5
5DF
100
AcDbEntity
  8
7_ALL_FEATURES
100
AcDbLine
 62
7
  6
CONTINUOUS
 10
122.9945564516
 20
664.6248991935
 11
126.3945564516
 21
664.6248991935
  0
LINE
  5
5E0
100
AcDbEntity
  8
7_ALL_FEATURES
100
AcDbLine
 62
7
  6
CONTINUOUS
 10
123.1945564516
 20
665.1248991935
 11
126.1945564516
 21
665.1248991935
  0
LINE
  5
5E1
100
AcDbEntity
  8
7_ALL_FEATURES
100
AcDbLine
 62
7
  6
CONTINUOUS
 10
126.0945564516
 20
665.4748991935
 11
123.2945564516
 21
665.4748991935
  0
LINE
  5
5E2
100
AcDbEntity
  8
7_ALL_FEATURES
100
AcDbLine
 62
7
  6
CONTINUOUS
 10
109.9286931144
 20
665.5748991935
 11
109.1945564516
 21
665.5748991935
  0
LINE
  5
5E3
100
AcDbEntity
  8
6_ALL_SURFS
100
AcDbLine
 62
7
  6
CONTINUOUS
 10
139.4604197888
 20
665.5748991935
 11
140.1945564516
 21
665.5748991935
  0
LINE
  5
5E4
100
AcDbEntity
  8
6_ALL_SURFS
100
AcDbLine
 62
7
  6
CONTINUOUS
 10
140.3945564516
 20
667.0748991935
 11
138.7152823938
 21
667.0748991935
  0
LINE
  5
5E5
100
AcDbEntity
  8
6_ALL_SURFS
100
AcDbLine
 62
7
  6
CONTINUOUS
 10
134.6738305094
 20
667.0748991935
 11
134.1945564516
 21
667.0748991935
  0
LINE
  5
5E6
100
AcDbEntity
  8
7_ALL_FEATURES
100
AcDbLine
 62
7
  6
CONTINUOUS
 10
108.9945564516
 20
667.0748991935
 11
110.6738305094
 21
667.0748991935
  0
LINE
  5
5E7
100
AcDbEntity
  8
7_ALL_FEATURES
100
AcDbLine
 62
7
  6
CONTINUOUS
 10
114.7152823938
 20
667.0748991935
 11
115.1945564516
 21
667.0748991935
  0
LINE
  5
5E8
100
AcDbEntity
  8
7_ALL_FEATURES
100
AcDbLine
 62
7
  6
CONTINUOUS
 10
122.8945564516
 20
667.0748991935
 11
126.4945564516
 21
667.0748991935
  0
CIRCLE
  5
5E9
100
AcDbEntity
  8
3_ALL_AXES
100
AcDbCircle
 62
7
  6
CONTINUOUS
 10
358.2663306452
 20
634.5748991935
 40
4.35
  0
CIRCLE
  5
5EA
100
AcDbEntity
  8
3_ALL_AXES
100
AcDbCircle
 62
7
  6
CONTINUOUS
 10
330.2663306452
 20
619.0748991935
 40
4.35
  0
ARC
  5
5EB
100
AcDbEntity
  8
0
100
AcDbCircle
 62
2
  6
CONTINUOUS
 10
358.2663306452
 20
634.5748991935
 40
2.5
100
AcDbArc
 50
180.0
 51
195.0
  0
ARC
  5
5EC
100
AcDbEntity
  8
0
100
AcDbCircle
 62
2
  6
CONTINUOUS
 10
330.2663306452
 20
619.0748991935
 40
2.5
100
AcDbArc
 50
0.0
 51
195.0
  0
ARC
  5
5ED
100
AcDbEntity
  8
7_ALL_FEATURES
100
AcDbCircle
 62
7
  6
CONTINUOUS
 10
359.0663306452
 20
634.5748991935
 40
2.5
100
AcDbArc
 50
90.0
 51
231.9510692932
  0
CIRCLE
  5
5EE
100
AcDbEntity
  8
3_ALL_AXES
100
AcDbCircle
 62
3
  6
CONTINUOUS
 10
345.7663306452
 20
634.5748991935
 40
2.5
  0
CIRCLE
  5
5EF
100
AcDbEntity
  8
3_ALL_AXES
100
AcDbCircle
 62
3
  6
CONTINUOUS
 10
330.2663306452
 20
606.5748991935
 40
2.5
  0
ARC
  5
5F0
100
AcDbEntity
  8
7_ALL_FEATURES
100
AcDbCircle
 62
7
  6
CONTINUOUS
 10
358.2663306452
 20
634.5748991935
 40
2.1
100
AcDbArc
 50
180.0
 51
360.0
  0
CIRCLE
  5
5F1
100
AcDbEntity
  8
7_ALL_FEATURES
100
AcDbCircle
 62
7
  6
CONTINUOUS
 10
330.7663306452
 20
618.7748991935
 40
2.0
  0
CIRCLE
  5
5F2
100
AcDbEntity
  8
7_ALL_FEATURES
100
AcDbCircle
 62
7
  6
CONTINUOUS
 10
359.0663306452
 20
634.5748991935
 40
2.0
  0
ARC
  5
5F3
100
AcDbEntity
  8
7_ALL_FEATURES
100
AcDbCircle
 62
7
  6
CONTINUOUS
 10
319.1208167159
 20
752.8795362903
 40
5.0
100
AcDbArc
 50
257.5
 51
270.0
  0
ARC
  5
5F4
100
AcDbEntity
  8
7_ALL_FEATURES
100
AcDbCircle
 62
7
  6
CONTINUOUS
 10
301.4663306452
 20
753.8795362903
 40
2.8
100
AcDbArc
 50
243.152786674
 51
308.978760326
  0
ARC
  5
5F5
100
AcDbEntity
  8
7_ALL_FEATURES
100
AcDbCircle
 62
7
  6
CONTINUOUS
 10
301.4663306452
 20
753.8795362903
 40
2.8
100
AcDbArc
 50
60.0
 51
90.0
  0
ARC
  5
5F6
100
AcDbEntity
  8
7_ALL_FEATURES
100
AcDbCircle
 62
7
  6
CONTINUOUS
 10
300.0663306452
 20
764.0795362903
 40
1.8
100
AcDbArc
 50
180.0
 51
270.0
  0
ARC
  5
5F7
100
AcDbEntity
  8
7_ALL_FEATURES
100
AcDbCircle
 62
7
  6
CONTINUOUS
 10
301.4663306452
 20
753.8795362903
 40
1.3
100
AcDbArc
 50
220.8069228749
 51
139.1930771251
  0
ARC
  5
5F8
100
AcDbEntity
  8
7_ALL_FEATURES
100
AcDbCircle
 62
7
  6
CONTINUOUS
 10
304.6027929742
 20
752.0009866087
 40
1.0
100
AcDbArc
 50
204.123961595
 51
257.5
  0
ARC
  5
5F9
100
AcDbEntity
  8
7_ALL_FEATURES
100
AcDbCircle
 62
7
  6
CONTINUOUS
 10
306.2163306452
 20
753.282121142
 40
1.0
100
AcDbArc
 50
180.0
 51
257.5
  0
ARC
  5
5FA
100
AcDbEntity
  8
7_ALL_FEATURES
100
AcDbCircle
 62
7
  6
CONTINUOUS
 10
320.5985218466
 20
750.4795362903
 40
1.0
100
AcDbArc
 50
250.0
 51
270.0
  0
ARC
  5
5FB
100
AcDbEntity
  8
7_ALL_FEATURES
100
AcDbCircle
 62
7
  6
CONTINUOUS
 10
299.2663306452
 20
750.3795362903
 40
0.5
100
AcDbArc
 50
270.0
 51
360.0
  0
ARC
  5
5FC
100
AcDbEntity
  8
7_ALL_FEATURES
100
AcDbCircle
 62
7
  6
CONTINUOUS
 10
303.1163306452
 20
756.7374201228
 40
0.5
100
AcDbArc
 50
240.0
 51
360.0
  0
ARC
  5
5FD
100
AcDbEntity
  8
7_ALL_FEATURES
100
AcDbCircle
 62
7
  6
CONTINUOUS
 10
304.9163306452
 20
763.8795362903
 40
0.3
100
AcDbArc
 50
0.0
 51
90.0
  0
ARC
  5
5FE
100
AcDbEntity
  8
7_ALL_FEATURES
100
AcDbCircle
 62
7
  6
CONTINUOUS
 10
319.1783867497
 20
749.61299209
 40
0.3
100
AcDbArc
 50
70.0
 51
149.0362434679
  0
ARC
  5
5FF
100
AcDbEntity
  8
7_ALL_FEATURES
100
AcDbCircle
 62
7
  6
CONTINUOUS
 10
298.5663306452
 20
750.1795362903
 40
0.3
100
AcDbArc
 50
180.0
 51
270.0
  0
ARC
  5
600
100
AcDbEntity
  8
7_ALL_FEATURES
100
AcDbCircle
 62
7
  6
CONTINUOUS
 10
298.5663306452
 20
751.8588103482
 40
0.3
100
AcDbArc
 50
120.0
 51
180.0
  0
ARC
  5
601
100
AcDbEntity
  8
7_ALL_FEATURES
100
AcDbCircle
 62
7
  6
CONTINUOUS
 10
300.2552648863
 20
752.8339169869
 40
0.3
100
AcDbArc
 50
40.8069228749
 51
120.0
  0
ARC
  5
602
100
AcDbEntity
  8
7_ALL_FEATURES
100
AcDbCircle
 62
7
  6
CONTINUOUS
 10
300.2552648863
 20
754.9251555937
 40
0.3
100
AcDbArc
 50
240.0
 51
319.1930771251
  0
ARC
  5
603
100
AcDbEntity
  8
7_ALL_FEATURES
100
AcDbCircle
 62
7
  6
CONTINUOUS
 10
298.5663306452
 20
755.9002622325
 40
0.3
100
AcDbArc
 50
180.0
 51
240.0
  0
ARC
  5
604
100
AcDbEntity
  8
7_ALL_FEATURES
100
AcDbCircle
 62
7
  6
CONTINUOUS
 10
298.5663306452
 20
756.3795362903
 40
0.3
100
AcDbArc
 50
90.0
 51
180.0
  0
ARC
  5
605
100
AcDbEntity
  8
7_ALL_FEATURES
100
AcDbCircle
 62
7
  6
CONTINUOUS
 10
300.1663306452
 20
764.4795362903
 40
0.3
100
AcDbArc
 50
180.0
 51
270.0
  0
ARC
  5
606
100
AcDbEntity
  8
7_ALL_FEATURES
100
AcDbCircle
 62
7
  6
CONTINUOUS
 10
303.3163306452
 20
761.9795362903
 40
0.3
100
AcDbArc
 50
0.0
 51
90.0
  0
ARC
  5
607
100
AcDbEntity
  8
7_ALL_FEATURES
100
AcDbCircle
 62
7
  6
CONTINUOUS
 10
303.4163306452
 20
751.4696607749
 40
0.3
100
AcDbArc
 50
24.1239615949
 51
128.978760326
  0
ARC
  5
608
100
AcDbEntity
  8
7_ALL_FEATURES
100
AcDbCircle
 62
7
  6
CONTINUOUS
 10
300.0663306452
 20
751.1136729531
 40
0.3
100
AcDbArc
 50
63.152786674
 51
180.0
  0
ARC
  5
609
100
AcDbEntity
  8
7_ALL_FEATURES
100
AcDbCircle
 62
7
  6
CONTINUOUS
 10
318.6023975969
 20
749.8192005476
 40
0.3
100
AcDbArc
 50
257.5
 51
329.0362434679
  0
ARC
  5
60A
100
AcDbEntity
  8
6_ALL_SURFS
100
AcDbCircle
 62
7
  6
CONTINUOUS
 10
400.0663306452
 20
730.8295362903
 40
4.7990381057
100
AcDbArc
 50
187.1822026405
 51
226.828815981
  0
ARC
  5
60B
100
AcDbEntity
  8
6_ALL_SURFS
100
AcDbCircle
 62
7
  6
CONTINUOUS
 10
400.0663306452
 20
730.8295362903
 40
4.7990381057
100
AcDbArc
 50
313.171184019
 51
352.8177973595
  0
ARC
  5
60C
100
AcDbEntity
  8
6_ALL_SURFS
100
AcDbCircle
 62
7
  6
CONTINUOUS
 10
400.0663306452
 20
730.8295362903
 40
4.7990381057
100
AcDbArc
 50
149.9933694481
 51
180.0
  0
ARC
  5
60D
100
AcDbEntity
  8
6_ALL_SURFS
100
AcDbCircle
 62
7
  6
CONTINUOUS
 10
400.0663306452
 20
730.8295362903
 40
4.7990381057
100
AcDbArc
 50
0.0
 51
30.0066305519
  0
ARC
  5
60E
100
AcDbEntity
  8
6_ALL_SURFS
100
AcDbCircle
 62
7
  6
CONTINUOUS
 10
400.0663306452
 20
730.8295362903
 40
4.7990381057
100
AcDbArc
 50
38.6913826582
 51
141.3086173418
  0
CIRCLE
  5
60F
100
AcDbEntity
  8
6_ALL_SURFS
100
AcDbCircle
 62
7
  6
CONTINUOUS
 10
400.0663306452
 20
730.8295362903
 40
3.5
  0
ARC
  5
610
100
AcDbEntity
  8
3_ALL_AXES
100
AcDbCircle
 62
7
  6
CONTINUOUS
 10
376.9663306452
 20
742.5295362903
 40
0.5
100
AcDbArc
 50
143.1301023542
 51
216.8698976458
  0
ARC
  5
611
100
AcDbEntity
  8
3_ALL_AXES
100
AcDbCircle
 62
7
  6
CONTINUOUS
 10
376.9663306452
 20
739.5295362903
 40
0.5
100
AcDbArc
 50
143.1301023542
 51
216.8698976458
  0
ARC
  5
612
100
AcDbEntity
  8
3_ALL_AXES
100
AcDbCircle
 62
7
  6
CONTINUOUS
 10
376.9663306452
 20
736.5295362903
 40
0.5
100
AcDbArc
 50
143.1301023541
 51
216.8698976458
  0
ARC
  5
613
100
AcDbEntity
  8
3_ALL_AXES
100
AcDbCircle
 62
7
  6
CONTINUOUS
 10
376.9663306452
 20
733.5295362903
 40
0.5
100
AcDbArc
 50
143.1301023541
 51
216.8698976458
  0
ARC
  5
614
100
AcDbEntity
  8
3_ALL_AXES
100
AcDbCircle
 62
7
  6
CONTINUOUS
 10
376.9663306452
 20
730.5295362903
 40
0.5
100
AcDbArc
 50
143.1301023541
 51
216.8698976458
  0
ARC
  5
615
100
AcDbEntity
  8
7_ALL_FEATURES
100
AcDbCircle
 62
7
  6
CONTINUOUS
 10
375.9600340031
 20
725.2232396482
 40
0.3937033579
100
AcDbArc
 50
180.0
 51
354.2894068625
  0
ARC
  5
616
100
AcDbEntity
  8
7_ALL_FEATURES
100
AcDbCircle
 62
7
  6
CONTINUOUS
 10
375.2663306452
 20
744.5295362903
 40
0.3
100
AcDbArc
 50
0.0
 51
90.0
  0
ARC
  5
617
100
AcDbEntity
  8
7_ALL_FEATURES
100
AcDbCircle
 62
7
  6
CONTINUOUS
 10
376.8663306452
 20
744.7795362903
 40
0.3
100
AcDbArc
 50
90.0
 51
180.0
  0
ARC
  5
618
100
AcDbEntity
  8
7_ALL_FEATURES
100
AcDbCircle
 62
7
  6
CONTINUOUS
 10
367.9663306452
 20
746.6795362903
 40
2.0
100
AcDbArc
 50
270.0
 51
360.0
  0
ARC
  5
619
100
AcDbEntity
  8
7_ALL_FEATURES
100
AcDbCircle
 62
7
  6
CONTINUOUS
 10
366.1663306452
 20
746.6795362903
 40
2.0
100
AcDbArc
 50
180.0
 51
270.0
  0
ARC
  5
61A
100
AcDbEntity
  8
7_ALL_FEATURES
100
AcDbCircle
 62
7
  6
CONTINUOUS
 10
376.2463306452
 20
746.7795362903
 40
1.8
100
AcDbArc
 50
90.0
 51
147.1401196212
  0
ARC
  5
61B
100
AcDbEntity
  8
7_ALL_FEATURES
100
AcDbCircle
 62
7
  6
CONTINUOUS
 10
374.3538311942
 20
746.3295362903
 40
1.5
100
AcDbArc
 50
227.0
 51
270.0
  0
ARC
  5
61C
100
AcDbEntity
  8
7_ALL_FEATURES
100
AcDbCircle
 62
7
  6
CONTINUOUS
 10
367.0663306452
 20
747.5795362903
 40
1.3
100
AcDbArc
 50
130.8069228749
 51
49.1930771251
  0
ARC
  5
61D
100
AcDbEntity
  8
7_ALL_FEATURES
100
AcDbCircle
 62
7
  6
CONTINUOUS
 10
376.2463306452
 20
746.7795362903
 40
1.0
100
AcDbArc
 50
90.0
 51
147.1401196211
  0
ARC
  5
61E
100
AcDbEntity
  8
7_ALL_FEATURES
100
AcDbCircle
 62
7
  6
CONTINUOUS
 10
374.5663306452
 20
747.8647090876
 40
1.0
100
AcDbArc
 50
227.0
 51
327.1401196211
  0
ARC
  5
61F
100
AcDbEntity
  8
7_ALL_FEATURES
100
AcDbCircle
 62
7
  6
CONTINUOUS
 10
370.4561409839
 20
747.2295362903
 40
0.5
100
AcDbArc
 50
47.0
 51
90.0
  0
ARC
  5
620
100
AcDbEntity
  8
7_ALL_FEATURES
100
AcDbCircle
 62
7
  6
CONTINUOUS
 10
373.7663306452
 20
747.7903246799
 40
0.4
100
AcDbArc
 50
46.9999999998
 51
227.0000000002
  0
ARC
  5
621
100
AcDbEntity
  8
7_ALL_FEATURES
100
AcDbCircle
 62
7
  6
CONTINUOUS
 10
365.7961600529
 20
749.1795362903
 40
0.3
100
AcDbArc
 50
30.0
 51
90.0
  0
ARC
  5
622
100
AcDbEntity
  8
7_ALL_FEATURES
100
AcDbCircle
 62
7
  6
CONTINUOUS
 10
366.0207113418
 20
748.7906020492
 40
0.3
100
AcDbArc
 50
310.8069228749
 51
30.0
  0
ARC
  5
623
100
AcDbEntity
  8
7_ALL_FEATURES
100
AcDbCircle
 62
7
  6
CONTINUOUS
 10
368.1119499486
 20
748.7906020492
 40
0.3
100
AcDbArc
 50
150.0
 51
229.1930771252
  0
ARC
  5
624
100
AcDbEntity
  8
7_ALL_FEATURES
100
AcDbCircle
 62
7
  6
CONTINUOUS
 10
368.3365012374
 20
749.1795362903
 40
0.3
100
AcDbArc
 50
90.0
 51
150.0
  0
ARC
  5
625
100
AcDbEntity
  8
7_ALL_FEATURES
100
AcDbCircle
 62
7
  6
CONTINUOUS
 10
372.0163306452
 20
749.1795362903
 40
0.3
100
AcDbArc
 50
0.0
 51
90.0
  0
ARC
  5
626
100
AcDbEntity
  8
7_ALL_FEATURES
100
AcDbCircle
 62
7
  6
CONTINUOUS
 10
375.8663306452
 20
747.2663507467
 40
0.3
100
AcDbArc
 50
118.0
 51
180.0
  0
ARC
  5
627
100
AcDbEntity
  8
7_ALL_FEATURES
100
AcDbCircle
 62
7
  6
CONTINUOUS
 10
375.891129046
 20
747.2795362903
 40
0.3
100
AcDbArc
 50
90.0
 51
118.0
  0
ARC
  5
628
100
AcDbEntity
  8
7_ALL_FEATURES
100
AcDbCircle
 62
7
  6
CONTINUOUS
 10
376.7663306452
 20
747.2795362903
 40
0.3
100
AcDbArc
 50
0.0
 51
90.0
  0
ARC
  5
629
100
AcDbEntity
  8
7_ALL_FEATURES
100
AcDbCircle
 62
7
  6
CONTINUOUS
 10
377.7663306452
 20
746.0295362903
 40
0.3
100
AcDbArc
 50
0.0
 51
90.0
  0
ARC
  5
62A
100
AcDbEntity
  8
7_ALL_FEATURES
100
AcDbCircle
 62
7
  6
CONTINUOUS
 10
377.7663306452
 20
745.3795362903
 40
0.3
100
AcDbArc
 50
270.0
 51
360.0
  0
ARC
  5
62B
100
AcDbEntity
  8
7_ALL_FEATURES
100
AcDbCircle
 62
7
  6
CONTINUOUS
 10
363.8663306452
 20
747.5795362903
 40
0.3
100
AcDbArc
 50
0.0
 51
90.0
  0
ARC
  5
62C
100
AcDbEntity
  8
7_ALL_FEATURES
100
AcDbCircle
 62
7
  6
CONTINUOUS
 10
370.2663306452
 20
747.4295362903
 40
0.3
100
AcDbArc
 50
90.0
 51
180.0
  0
ARC
  5
62D
100
AcDbEntity
  8
7_ALL_FEATURES
100
AcDbCircle
 62
7
  6
CONTINUOUS
 10
372.6163306452
 20
748.3599800028
 40
0.3
100
AcDbArc
 50
180.0
 51
227.0
  0
ARC
  5
62E
100
AcDbEntity
  8
7_ALL_FEATURES
100
AcDbCircle
 62
7
  6
CONTINUOUS
 10
374.4720043369
 20
746.6295362903
 40
0.3
100
AcDbArc
 50
227.0
 51
270.0
  0
ARC
  5
62F
100
AcDbEntity
  8
7_ALL_FEATURES
100
AcDbCircle
 62
7
  6
CONTINUOUS
 10
375.2663306452
 20
746.6295362903
 40
0.3
100
AcDbArc
 50
270.0
 51
360.0
  0
ARC
  5
630
100
AcDbEntity
  8
7_ALL_FEATURES
100
AcDbCircle
 62
7
  6
CONTINUOUS
 10
377.3663306452
 20
746.6295362903
 40
0.3
100
AcDbArc
 50
180.0
 51
270.0
  0
ARC
  5
631
100
AcDbEntity
  8
7_ALL_FEATURES
100
AcDbCircle
 62
7
  6
CONTINUOUS
 10
377.8663306452
 20
746.7295362903
 40
0.2
100
AcDbArc
 50
270.0
 51
360.0
  0
ARC
  5
632
100
AcDbEntity
  8
7_ALL_FEATURES
100
AcDbCircle
 62
7
  6
CONTINUOUS
 10
377.2663306452
 20
746.7295362903
 40
0.2
100
AcDbArc
 50
180.0
 51
270.0
  0
ARC
  5
633
100
AcDbEntity
  8
7_ALL_FEATURES
100
AcDbCircle
 62
7
  6
CONTINUOUS
 10
376.8663306452
 20
747.5795362903
 40
0.2
100
AcDbArc
 50
0.0
 51
90.0
  0
ARC
  5
634
100
AcDbEntity
  8
7_ALL_FEATURES
100
AcDbCircle
 62
7
  6
CONTINUOUS
 10
374.5663306452
 20
747.8647090876
 40
0.2
100
AcDbArc
 50
226.9999999887
 51
327.1401196205
  0
ARC
  5
635
100
AcDbEntity
  8
7_ALL_FEATURES
100
AcDbCircle
 62
7
  6
CONTINUOUS
 10
376.7663306452
 20
748.7795362903
 40
0.2
100
AcDbArc
 50
270.0
 51
360.0
  0
ARC
  5
636
100
AcDbEntity
  8
7_ALL_FEATURES
100
AcDbCircle
 62
7
  6
CONTINUOUS
 10
301.3163306452
 20
765.8795362903
 40
8.0
100
AcDbArc
 50
330.0
 51
345.5224878141
  0
ARC
  5
637
100
AcDbEntity
  8
7_ALL_FEATURES
100
AcDbCircle
 62
7
  6
CONTINUOUS
 10
301.3163306452
 20
765.8795362903
 40
8.0
100
AcDbArc
 50
14.4775121859
 51
30.0
  0
ARC
  5
638
100
AcDbEntity
  8
7_ALL_FEATURES
100
AcDbCircle
 62
7
  6
CONTINUOUS
 10
301.3163306452
 20
765.8795362903
 40
7.9843597113
100
AcDbArc
 50
345.4935070353
 51
356.4096498625
  0
ARC
  5
639
100
AcDbEntity
  8
7_ALL_FEATURES
100
AcDbCircle
 62
7
  6
CONTINUOUS
 10
301.3163306452
 20
765.8795362903
 40
7.9843597113
100
AcDbArc
 50
3.5903501375
 51
14.5064929647
  0
ARC
  5
63A
100
AcDbEntity
  8
7_ALL_FEATURES
100
AcDbCircle
 62
7
  6
CONTINUOUS
 10
301.3163306452
 20
765.8795362903
 40
7.7459666924
100
AcDbArc
 50
356.2990001561
 51
3.7009998439
  0
ARC
  5
63B
100
AcDbEntity
  8
6_ALL_SURFS
100
AcDbCircle
 62
7
  6
CONTINUOUS
 10
319.1208167159
 20
778.8795362903
 40
5.0
100
AcDbArc
 50
90.0
 51
102.5
  0
ARC
  5
63C
100
AcDbEntity
  8
6_ALL_SURFS
100
AcDbCircle
 62
7
  6
CONTINUOUS
 10
301.4663306452
 20
777.8795362903
 40
2.8
100
AcDbArc
 50
270.0
 51
300.0
  0
ARC
  5
63D
100
AcDbEntity
  8
6_ALL_SURFS
100
AcDbCircle
 62
7
  6
CONTINUOUS
 10
301.4663306452
 20
777.8795362903
 40
2.8
100
AcDbArc
 50
51.021239674
 51
116.847213326
  0
ARC
  5
63E
100
AcDbEntity
  8
6_ALL_SURFS
100
AcDbCircle
 62
7
  6
CONTINUOUS
 10
300.0663306452
 20
767.6795362903
 40
1.8
100
AcDbArc
 50
90.0
 51
180.0
  0
ARC
  5
63F
100
AcDbEntity
  8
6_ALL_SURFS
100
AcDbCircle
 62
7
  6
CONTINUOUS
 10
301.4663306452
 20
777.8795362903
 40
1.3
100
AcDbArc
 50
220.8069228749
 51
139.1930771252
  0
ARC
  5
640
100
AcDbEntity
  8
6_ALL_SURFS
100
AcDbCircle
 62
7
  6
CONTINUOUS
 10
304.6027929742
 20
779.7580859719
 40
1.0
100
AcDbArc
 50
102.5
 51
155.876038405
  0
ARC
  5
641
100
AcDbEntity
  8
6_ALL_SURFS
100
AcDbCircle
 62
7
  6
CONTINUOUS
 10
306.2163306452
 20
778.4769514387
 40
1.0
100
AcDbArc
 50
102.5
 51
180.0
  0
ARC
  5
642
100
AcDbEntity
  8
6_ALL_SURFS
100
AcDbCircle
 62
7
  6
CONTINUOUS
 10
320.5985218466
 20
781.2795362903
 40
1.0
100
AcDbArc
 50
90.0
 51
110.0
  0
ARC
  5
643
100
AcDbEntity
  8
6_ALL_SURFS
100
AcDbCircle
 62
7
  6
CONTINUOUS
 10
299.2663306452
 20
781.3795362903
 40
0.5
100
AcDbArc
 50
0.0
 51
90.0
  0
ARC
  5
644
100
AcDbEntity
  8
6_ALL_SURFS
100
AcDbCircle
 62
7
  6
CONTINUOUS
 10
303.1163306452
 20
775.0216524578
 40
0.5
100
AcDbArc
 50
0.0
 51
120.0
  0
ARC
  5
645
100
AcDbEntity
  8
6_ALL_SURFS
100
AcDbCircle
 62
7
  6
CONTINUOUS
 10
298.5663306452
 20
775.3795362903
 40
0.3
100
AcDbArc
 50
180.0
 51
270.0
  0
ARC
  5
646
100
AcDbEntity
  8
6_ALL_SURFS
100
AcDbCircle
 62
7
  6
CONTINUOUS
 10
298.5663306452
 20
775.8588103482
 40
0.3
100
AcDbArc
 50
120.0
 51
180.0
  0
ARC
  5
647
100
AcDbEntity
  8
6_ALL_SURFS
100
AcDbCircle
 62
7
  6
CONTINUOUS
 10
300.2552648863
 20
776.8339169869
 40
0.3
100
AcDbArc
 50
40.8069228749
 51
120.0
  0
ARC
  5
648
100
AcDbEntity
  8
6_ALL_SURFS
100
AcDbCircle
 62
7
  6
CONTINUOUS
 10
300.2552648863
 20
778.9251555937
 40
0.3
100
AcDbArc
 50
240.0
 51
319.1930771251
  0
ARC
  5
649
100
AcDbEntity
  8
6_ALL_SURFS
100
AcDbCircle
 62
7
  6
CONTINUOUS
 10
298.5663306452
 20
779.9002622325
 40
0.3
100
AcDbArc
 50
180.0
 51
240.0
  0
ARC
  5
64A
100
AcDbEntity
  8
6_ALL_SURFS
100
AcDbCircle
 62
7
  6
CONTINUOUS
 10
298.5663306452
 20
781.5795362903
 40
0.3
100
AcDbArc
 50
90.0
 51
180.0
  0
ARC
  5
64B
100
AcDbEntity
  8
6_ALL_SURFS
100
AcDbCircle
 62
7
  6
CONTINUOUS
 10
319.1783867497
 20
782.1460804906
 40
0.3
100
AcDbArc
 50
210.9637565321
 51
290.0
  0
ARC
  5
64C
100
AcDbEntity
  8
6_ALL_SURFS
100
AcDbCircle
 62
7
  6
CONTINUOUS
 10
304.9163306452
 20
767.8795362903
 40
0.3
100
AcDbArc
 50
270.0
 51
360.0
  0
ARC
  5
64D
100
AcDbEntity
  8
6_ALL_SURFS
100
AcDbCircle
 62
7
  6
CONTINUOUS
 10
300.1663306452
 20
767.2795362903
 40
0.3
100
AcDbArc
 50
90.0
 51
180.0
  0
ARC
  5
64E
100
AcDbEntity
  8
6_ALL_SURFS
100
AcDbCircle
 62
7
  6
CONTINUOUS
 10
303.3163306452
 20
769.7795362903
 40
0.3
100
AcDbArc
 50
270.0
 51
360.0
  0
ARC
  5
64F
100
AcDbEntity
  8
6_ALL_SURFS
100
AcDbCircle
 62
7
  6
CONTINUOUS
 10
303.4163306452
 20
780.2894118058
 40
0.3
100
AcDbArc
 50
231.021239674
 51
335.8760384051
  0
ARC
  5
650
100
AcDbEntity
  8
6_ALL_SURFS
100
AcDbCircle
 62
7
  6
CONTINUOUS
 10
300.0663306452
 20
780.6453996275
 40
0.3
100
AcDbArc
 50
180.0
 51
296.847213326
  0
ARC
  5
651
100
AcDbEntity
  8
6_ALL_SURFS
100
AcDbCircle
 62
7
  6
CONTINUOUS
 10
318.6023975969
 20
781.939872033
 40
0.3
100
AcDbArc
 50
30.9637565321
 51
102.5
  0
ARC
  5
652
100
AcDbEntity
  8
6_ALL_SURFS
100
AcDbCircle
 62
7
  6
CONTINUOUS
 10
366.1663306452
 20
785.0795362903
 40
2.0
100
AcDbArc
 50
90.0
 51
180.0
  0
ARC
  5
653
100
AcDbEntity
  8
6_ALL_SURFS
100
AcDbCircle
 62
7
  6
CONTINUOUS
 10
367.9663306452
 20
785.0795362903
 40
2.0
100
AcDbArc
 50
0.0
 51
90.0
  0
ARC
  5
654
100
AcDbEntity
  8
7_ALL_FEATURES
100
AcDbCircle
 62
7
  6
CONTINUOUS
 10
376.2463306452
 20
784.9795362903
 40
1.8
100
AcDbArc
 50
212.8598803788
 51
270.0
  0
ARC
  5
655
100
AcDbEntity
  8
6_ALL_SURFS
100
AcDbCircle
 62
7
  6
CONTINUOUS
 10
374.3538311942
 20
785.4295362903
 40
1.5
100
AcDbArc
 50
90.0
 51
133.0
  0
ARC
  5
656
100
AcDbEntity
  8
6_ALL_SURFS
100
AcDbCircle
 62
7
  6
CONTINUOUS
 10
367.0663306452
 20
784.1795362903
 40
1.3
100
AcDbArc
 50
310.8069228749
 51
229.1930771251
  0
ARC
  5
657
100
AcDbEntity
  8
7_ALL_FEATURES
100
AcDbCircle
 62
7
  6
CONTINUOUS
 10
374.5663306452
 20
783.894363493
 40
1.0
100
AcDbArc
 50
32.859880379
 51
133.0
  0
ARC
  5
658
100
AcDbEntity
  8
7_ALL_FEATURES
100
AcDbCircle
 62
7
  6
CONTINUOUS
 10
376.2463306452
 20
784.9795362903
 40
1.0
100
AcDbArc
 50
212.8598803787
 51
270.0
  0
ARC
  5
659
100
AcDbEntity
  8
6_ALL_SURFS
100
AcDbCircle
 62
7
  6
CONTINUOUS
 10
370.4561409839
 20
784.5295362903
 40
0.5
100
AcDbArc
 50
270.0
 51
313.0
  0
ARC
  5
65A
100
AcDbEntity
  8
7_ALL_FEATURES
100
AcDbCircle
 62
7
  6
CONTINUOUS
 10
373.7663306452
 20
783.9687479008
 40
0.4
100
AcDbArc
 50
133.0000000029
 51
313.0
  0
ARC
  5
65B
100
AcDbEntity
  8
6_ALL_SURFS
100
AcDbCircle
 62
7
  6
CONTINUOUS
 10
377.7663306452
 20
785.7295362903
 40
0.3
100
AcDbArc
 50
270.0
 51
360.0
  0
ARC
  5
65C
100
AcDbEntity
  8
6_ALL_SURFS
100
AcDbCircle
 62
7
  6
CONTINUOUS
 10
376.7663306452
 20
784.4795362903
 40
0.3
100
AcDbArc
 50
270.0
 51
360.0
  0
ARC
  5
65D
100
AcDbEntity
  8
6_ALL_SURFS
100
AcDbCircle
 62
7
  6
CONTINUOUS
 10
375.891129046
 20
784.4795362903
 40
0.3
100
AcDbArc
 50
242.0
 51
270.0
  0
ARC
  5
65E
100
AcDbEntity
  8
6_ALL_SURFS
100
AcDbCircle
 62
7
  6
CONTINUOUS
 10
375.8663306452
 20
784.4927218339
 40
0.3
100
AcDbArc
 50
180.0
 51
242.0
  0
ARC
  5
65F
100
AcDbEntity
  8
6_ALL_SURFS
100
AcDbCircle
 62
7
  6
CONTINUOUS
 10
372.0163306452
 20
782.5795362903
 40
0.3
100
AcDbArc
 50
270.0
 51
360.0
  0
ARC
  5
660
100
AcDbEntity
  8
6_ALL_SURFS
100
AcDbCircle
 62
7
  6
CONTINUOUS
 10
368.3365012374
 20
782.5795362903
 40
0.3
100
AcDbArc
 50
210.0
 51
270.0
  0
ARC
  5
661
100
AcDbEntity
  8
6_ALL_SURFS
100
AcDbCircle
 62
7
  6
CONTINUOUS
 10
368.1119499486
 20
782.9684705314
 40
0.3
100
AcDbArc
 50
130.8069228749
 51
210.0
  0
ARC
  5
662
100
AcDbEntity
  8
6_ALL_SURFS
100
AcDbCircle
 62
7
  6
CONTINUOUS
 10
366.0207113418
 20
782.9684705314
 40
0.3
100
AcDbArc
 50
330.0
 51
49.1930771251
  0
ARC
  5
663
100
AcDbEntity
  8
6_ALL_SURFS
100
AcDbCircle
 62
7
  6
CONTINUOUS
 10
365.7961600529
 20
782.5795362903
 40
0.3
100
AcDbArc
 50
270.0
 51
330.0
  0
ARC
  5
664
100
AcDbEntity
  8
6_ALL_SURFS
100
AcDbCircle
 62
7
  6
CONTINUOUS
 10
363.8663306452
 20
784.1795362903
 40
0.3
100
AcDbArc
 50
270.0
 51
360.0
  0
ARC
  5
665
100
AcDbEntity
  8
6_ALL_SURFS
100
AcDbCircle
 62
7
  6
CONTINUOUS
 10
370.2663306452
 20
784.3295362903
 40
0.3
100
AcDbArc
 50
180.0
 51
270.0
  0
ARC
  5
666
100
AcDbEntity
  8
6_ALL_SURFS
100
AcDbCircle
 62
7
  6
CONTINUOUS
 10
372.6163306452
 20
783.3990925778
 40
0.3
100
AcDbArc
 50
133.0
 51
180.0
  0
ARC
  5
667
100
AcDbEntity
  8
6_ALL_SURFS
100
AcDbCircle
 62
7
  6
CONTINUOUS
 10
374.4720043369
 20
785.1295362903
 40
0.3
100
AcDbArc
 50
90.0
 51
133.0
  0
ARC
  5
668
100
AcDbEntity
  8
6_ALL_SURFS
100
AcDbCircle
 62
7
  6
CONTINUOUS
 10
375.2663306452
 20
785.1295362903
 40
0.3
100
AcDbArc
 50
0.0
 51
90.0
  0
ARC
  5
669
100
AcDbEntity
  8
6_ALL_SURFS
100
AcDbCircle
 62
7
  6
CONTINUOUS
 10
377.3663306452
 20
785.1295362903
 40
0.3
100
AcDbArc
 50
90.0
 51
180.0
  0
ARC
  5
66A
100
AcDbEntity
  8
7_ALL_FEATURES
100
AcDbCircle
 62
7
  6
CONTINUOUS
 10
376.7663306452
 20
782.9795362903
 40
0.2
100
AcDbArc
 50
0.0
 51
90.0
  0
ARC
  5
66B
100
AcDbEntity
  8
7_ALL_FEATURES
100
AcDbCircle
 62
7
  6
CONTINUOUS
 10
374.5663306452
 20
783.894363493
 40
0.2
100
AcDbArc
 50
32.8598803795
 51
133.0000000113
  0
ARC
  5
66C
100
AcDbEntity
  8
7_ALL_FEATURES
100
AcDbCircle
 62
7
  6
CONTINUOUS
 10
376.8663306452
 20
784.1795362903
 40
0.2
100
AcDbArc
 50
270.0
 51
360.0
  0
ARC
  5
66D
100
AcDbEntity
  8
7_ALL_FEATURES
100
AcDbCircle
 62
7
  6
CONTINUOUS
 10
377.2663306452
 20
785.0295362903
 40
0.2
100
AcDbArc
 50
90.0
 51
180.0
  0
ARC
  5
66E
100
AcDbEntity
  8
7_ALL_FEATURES
100
AcDbCircle
 62
7
  6
CONTINUOUS
 10
377.8663306452
 20
785.0295362903
 40
0.2
100
AcDbArc
 50
0.0
 51
90.0
  0
ARC
  5
66F
100
AcDbEntity
  8
7_ALL_FEATURES
100
AcDbCircle
 62
7
  6
CONTINUOUS
 10
400.0663306452
 20
800.9295362903
 40
4.7990381057
100
AcDbArc
 50
218.6913826582
 51
321.3086173418
  0
ARC
  5
670
100
AcDbEntity
  8
7_ALL_FEATURES
100
AcDbCircle
 62
7
  6
CONTINUOUS
 10
400.0663306452
 20
800.9295362903
 40
4.7990381057
100
AcDbArc
 50
329.9933694481
 51
360.0
  0
ARC
  5
671
100
AcDbEntity
  8
7_ALL_FEATURES
100
AcDbCircle
 62
7
  6
CONTINUOUS
 10
400.0663306452
 20
800.9295362903
 40
4.7990381057
100
AcDbArc
 50
180.0
 51
210.0066305519
  0
ARC
  5
672
100
AcDbEntity
  8
7_ALL_FEATURES
100
AcDbCircle
 62
7
  6
CONTINUOUS
 10
400.0663306452
 20
800.9295362903
 40
4.7990381057
100
AcDbArc
 50
7.1822026405
 51
46.828815981
  0
ARC
  5
673
100
AcDbEntity
  8
7_ALL_FEATURES
100
AcDbCircle
 62
7
  6
CONTINUOUS
 10
400.0663306452
 20
800.9295362903
 40
4.7990381057
100
AcDbArc
 50
133.171184019
 51
172.8177973595
  0
CIRCLE
  5
674
100
AcDbEntity
  8
6_ALL_SURFS
100
AcDbCircle
 62
7
  6
CONTINUOUS
 10
400.0663306452
 20
800.9295362903
 40
3.5
  0
ARC
  5
675
100
AcDbEntity
  8
6_ALL_SURFS
100
AcDbCircle
 62
7
  6
CONTINUOUS
 10
376.9663306452
 20
801.2295362903
 40
0.5
100
AcDbArc
 50
143.1301023542
 51
216.8698976459
  0
ARC
  5
676
100
AcDbEntity
  8
6_ALL_SURFS
100
AcDbCircle
 62
7
  6
CONTINUOUS
 10
376.9663306452
 20
798.2295362903
 40
0.5
100
AcDbArc
 50
143.1301023542
 51
216.8698976459
  0
ARC
  5
677
100
AcDbEntity
  8
6_ALL_SURFS
100
AcDbCircle
 62
7
  6
CONTINUOUS
 10
376.9663306452
 20
795.2295362903
 40
0.5
100
AcDbArc
 50
143.1301023542
 51
216.8698976459
  0
ARC
  5
678
100
AcDbEntity
  8
6_ALL_SURFS
100
AcDbCircle
 62
7
  6
CONTINUOUS
 10
376.9663306452
 20
792.2295362903
 40
0.5
100
AcDbArc
 50
143.1301023542
 51
216.8698976459
  0
ARC
  5
679
100
AcDbEntity
  8
6_ALL_SURFS
100
AcDbCircle
 62
7
  6
CONTINUOUS
 10
376.9663306452
 20
789.2295362903
 40
0.5
100
AcDbArc
 50
143.1301023542
 51
216.8698976459
  0
ARC
  5
67A
100
AcDbEntity
  8
6_ALL_SURFS
100
AcDbCircle
 62
7
  6
CONTINUOUS
 10
375.9600340031
 20
806.5358329324
 40
0.3937033579
100
AcDbArc
 50
5.7105931375
 51
180.0
  0
ARC
  5
67B
100
AcDbEntity
  8
6_ALL_SURFS
100
AcDbCircle
 62
7
  6
CONTINUOUS
 10
377.7663306452
 20
786.3795362903
 40
0.3
100
AcDbArc
 50
0.0
 51
90.0
  0
ARC
  5
67C
100
AcDbEntity
  8
6_ALL_SURFS
100
AcDbCircle
 62
7
  6
CONTINUOUS
 10
375.2663306452
 20
787.2295362903
 40
0.3
100
AcDbArc
 50
270.0
 51
360.0
  0
ARC
  5
67D
100
AcDbEntity
  8
6_ALL_SURFS
100
AcDbCircle
 62
7
  6
CONTINUOUS
 10
376.8663306452
 20
786.9795362903
 40
0.3
100
AcDbArc
 50
180.0
 51
270.0
  0
ARC
  5
67E
100
AcDbEntity
  8
6_ALL_SURFS
100
AcDbCircle
 62
7
  6
CONTINUOUS
 10
650.0663306452
 20
730.8295362903
 40
4.7990381057
100
AcDbArc
 50
187.1822026405
 51
226.828815981
  0
ARC
  5
67F
100
AcDbEntity
  8
6_ALL_SURFS
100
AcDbCircle
 62
7
  6
CONTINUOUS
 10
900.0663306452
 20
730.8295362903
 40
4.7990381057
100
AcDbArc
 50
187.1822026405
 51
226.828815981
  0
ARC
  5
680
100
AcDbEntity
  8
6_ALL_SURFS
100
AcDbCircle
 62
7
  6
CONTINUOUS
 10
650.0663306452
 20
730.8295362903
 40
4.7990381057
100
AcDbArc
 50
313.171184019
 51
352.8177973595
  0
ARC
  5
681
100
AcDbEntity
  8
6_ALL_SURFS
100
AcDbCircle
 62
7
  6
CONTINUOUS
 10
900.0663306452
 20
730.8295362903
 40
4.7990381057
100
AcDbArc
 50
313.171184019
 51
352.8177973595
  0
ARC
  5
682
100
AcDbEntity
  8
6_ALL_SURFS
100
AcDbCircle
 62
7
  6
CONTINUOUS
 10
650.0663306452
 20
730.8295362903
 40
4.7990381057
100
AcDbArc
 50
149.9933694481
 51
180.0
  0
ARC
  5
683
100
AcDbEntity
  8
6_ALL_SURFS
100
AcDbCircle
 62
7
  6
CONTINUOUS
 10
900.0663306452
 20
730.8295362903
 40
4.7990381057
100
AcDbArc
 50
149.9933694481
 51
180.0
  0
ARC
  5
684
100
AcDbEntity
  8
6_ALL_SURFS
100
AcDbCircle
 62
7
  6
CONTINUOUS
 10
650.0663306452
 20
730.8295362903
 40
4.7990381057
100
AcDbArc
 50
0.0
 51
30.0066305519
  0
ARC
  5
685
100
AcDbEntity
  8
6_ALL_SURFS
100
AcDbCircle
 62
7
  6
CONTINUOUS
 10
900.0663306452
 20
730.8295362903
 40
4.7990381057
100
AcDbArc
 50
0.0
 51
30.0066305519
  0
ARC
  5
686
100
AcDbEntity
  8
6_ALL_SURFS
100
AcDbCircle
 62
7
  6
CONTINUOUS
 10
650.0663306452
 20
730.8295362903
 40
4.7990381057
100
AcDbArc
 50
38.6913826582
 51
141.3086173418
  0
ARC
  5
687
100
AcDbEntity
  8
6_ALL_SURFS
100
AcDbCircle
 62
7
  6
CONTINUOUS
 10
900.0663306452
 20
730.8295362903
 40
4.7990381057
100
AcDbArc
 50
38.6913826582
 51
141.3086173418
  0
CIRCLE
  5
688
100
AcDbEntity
  8
6_ALL_SURFS
100
AcDbCircle
 62
7
  6
CONTINUOUS
 10
650.0663306452
 20
730.8295362903
 40
3.5
  0
CIRCLE
  5
689
100
AcDbEntity
  8
6_ALL_SURFS
100
AcDbCircle
 62
7
  6
CONTINUOUS
 10
900.0663306452
 20
730.8295362903
 40
3.5
  0
ARC
  5
68A
100
AcDbEntity
  8
7_ALL_FEATURES
100
AcDbCircle
 62
7
  6
CONTINUOUS
 10
650.0663306452
 20
800.9295362903
 40
4.7990381057
100
AcDbArc
 50
218.6913826582
 51
321.3086173418
  0
ARC
  5
68B
100
AcDbEntity
  8
7_ALL_FEATURES
100
AcDbCircle
 62
7
  6
CONTINUOUS
 10
900.0663306452
 20
800.9295362903
 40
4.7990381057
100
AcDbArc
 50
218.6913826582
 51
321.3086173418
  0
ARC
  5
68C
100
AcDbEntity
  8
7_ALL_FEATURES
100
AcDbCircle
 62
7
  6
CONTINUOUS
 10
900.0663306452
 20
800.9295362903
 40
4.7990381057
100
AcDbArc
 50
329.9933694481
 51
360.0
  0
ARC
  5
68D
100
AcDbEntity
  8
7_ALL_FEATURES
100
AcDbCircle
 62
7
  6
CONTINUOUS
 10
650.0663306452
 20
800.9295362903
 40
4.7990381057
100
AcDbArc
 50
329.9933694481
 51
360.0
  0
ARC
  5
68E
100
AcDbEntity
  8
7_ALL_FEATURES
100
AcDbCircle
 62
7
  6
CONTINUOUS
 10
900.0663306452
 20
800.9295362903
 40
4.7990381057
100
AcDbArc
 50
180.0
 51
210.0066305519
  0
ARC
  5
68F
100
AcDbEntity
  8
7_ALL_FEATURES
100
AcDbCircle
 62
7
  6
CONTINUOUS
 10
650.0663306452
 20
800.9295362903
 40
4.7990381057
100
AcDbArc
 50
180.0
 51
210.0066305519
  0
ARC
  5
690
100
AcDbEntity
  8
7_ALL_FEATURES
100
AcDbCircle
 62
7
  6
CONTINUOUS
 10
900.0663306452
 20
800.9295362903
 40
4.7990381057
100
AcDbArc
 50
7.1822026405
 51
46.828815981
  0
ARC
  5
691
100
AcDbEntity
  8
7_ALL_FEATURES
100
AcDbCircle
 62
7
  6
CONTINUOUS
 10
650.0663306452
 20
800.9295362903
 40
4.7990381057
100
AcDbArc
 50
7.1822026405
 51
46.828815981
  0
ARC
  5
692
100
AcDbEntity
  8
7_ALL_FEATURES
100
AcDbCircle
 62
7
  6
CONTINUOUS
 10
900.0663306452
 20
800.9295362903
 40
4.7990381057
100
AcDbArc
 50
133.171184019
 51
172.8177973595
  0
ARC
  5
693
100
AcDbEntity
  8
7_ALL_FEATURES
100
AcDbCircle
 62
7
  6
CONTINUOUS
 10
650.0663306452
 20
800.9295362903
 40
4.7990381057
100
AcDbArc
 50
133.171184019
 51
172.8177973595
  0
CIRCLE
  5
694
100
AcDbEntity
  8
6_ALL_SURFS
100
AcDbCircle
 62
7
  6
CONTINUOUS
 10
650.0663306452
 20
800.9295362903
 40
3.5
  0
CIRCLE
  5
695
100
AcDbEntity
  8
6_ALL_SURFS
100
AcDbCircle
 62
7
  6
CONTINUOUS
 10
900.0663306452
 20
800.9295362903
 40
3.5
  0
ARC
  5
696
100
AcDbEntity
  8
6_ALL_SURFS
100
AcDbCircle
 62
7
  6
CONTINUOUS
 10
89.6445564516
 20
315.2748991935
 40
4.7990381057
100
AcDbArc
 50
97.1822026405
 51
136.828815981
  0
ARC
  5
697
100
AcDbEntity
  8
6_ALL_SURFS
100
AcDbCircle
 62
7
  6
CONTINUOUS
 10
89.6445564516
 20
65.2748991935
 40
4.7990381057
100
AcDbArc
 50
97.1822026405
 51
136.828815981
  0
ARC
  5
698
100
AcDbEntity
  8
6_ALL_SURFS
100
AcDbCircle
 62
7
  6
CONTINUOUS
 10
89.6445564516
 20
315.2748991935
 40
4.7990381057
100
AcDbArc
 50
223.171184019
 51
262.8177973595
  0
ARC
  5
699
100
AcDbEntity
  8
6_ALL_SURFS
100
AcDbCircle
 62
7
  6
CONTINUOUS
 10
89.6445564516
 20
65.2748991935
 40
4.7990381057
100
AcDbArc
 50
223.171184019
 51
262.8177973595
  0
ARC
  5
69A
100
AcDbEntity
  8
6_ALL_SURFS
100
AcDbCircle
 62
7
  6
CONTINUOUS
 10
89.6445564516
 20
315.2748991935
 40
4.7990381057
100
AcDbArc
 50
59.9933694481
 51
90.0
  0
ARC
  5
69B
100
AcDbEntity
  8
6_ALL_SURFS
100
AcDbCircle
 62
7
  6
CONTINUOUS
 10
89.6445564516
 20
65.2748991935
 40
4.7990381057
100
AcDbArc
 50
59.9933694481
 51
90.0
  0
ARC
  5
69C
100
AcDbEntity
  8
6_ALL_SURFS
100
AcDbCircle
 62
7
  6
CONTINUOUS
 10
89.6445564516
 20
315.2748991935
 40
4.7990381057
100
AcDbArc
 50
270.0
 51
300.0066305519
  0
ARC
  5
69D
100
AcDbEntity
  8
6_ALL_SURFS
100
AcDbCircle
 62
7
  6
CONTINUOUS
 10
89.6445564516
 20
65.2748991935
 40
4.7990381057
100
AcDbArc
 50
270.0
 51
300.0066305519
  0
ARC
  5
69E
100
AcDbEntity
  8
6_ALL_SURFS
100
AcDbCircle
 62
7
  6
CONTINUOUS
 10
89.6445564516
 20
315.2748991935
 40
4.7990381057
100
AcDbArc
 50
308.6913826582
 51
51.3086173418
  0
ARC
  5
69F
100
AcDbEntity
  8
6_ALL_SURFS
100
AcDbCircle
 62
7
  6
CONTINUOUS
 10
89.6445564516
 20
65.2748991935
 40
4.7990381057
100
AcDbArc
 50
308.6913826582
 51
51.3086173418
  0
CIRCLE
  5
6A0
100
AcDbEntity
  8
6_ALL_SURFS
100
AcDbCircle
 62
7
  6
CONTINUOUS
 10
89.6445564516
 20
315.2748991935
 40
3.5
  0
CIRCLE
  5
6A1
100
AcDbEntity
  8
6_ALL_SURFS
100
AcDbCircle
 62
7
  6
CONTINUOUS
 10
89.6445564516
 20
65.2748991935
 40
3.5
  0
ARC
  5
6A2
100
AcDbEntity
  8
6_ALL_SURFS
100
AcDbCircle
 62
7
  6
CONTINUOUS
 10
89.6445564516
 20
565.2748991935
 40
4.7990381057
100
AcDbArc
 50
97.1822026405
 51
136.828815981
  0
ARC
  5
6A3
100
AcDbEntity
  8
6_ALL_SURFS
100
AcDbCircle
 62
7
  6
CONTINUOUS
 10
89.6445564516
 20
565.2748991935
 40
4.7990381057
100
AcDbArc
 50
223.171184019
 51
262.8177973595
  0
ARC
  5
6A4
100
AcDbEntity
  8
6_ALL_SURFS
100
AcDbCircle
 62
7
  6
CONTINUOUS
 10
89.6445564516
 20
565.2748991935
 40
4.7990381057
100
AcDbArc
 50
59.9933694481
 51
90.0
  0
ARC
  5
6A5
100
AcDbEntity
  8
6_ALL_SURFS
100
AcDbCircle
 62
7
  6
CONTINUOUS
 10
89.6445564516
 20
565.2748991935
 40
4.7990381057
100
AcDbArc
 50
270.0
 51
300.0066305519
  0
ARC
  5
6A6
100
AcDbEntity
  8
6_ALL_SURFS
100
AcDbCircle
 62
7
  6
CONTINUOUS
 10
89.6445564516
 20
565.2748991935
 40
4.7990381057
100
AcDbArc
 50
308.6913826582
 51
51.3086173418
  0
CIRCLE
  5
6A7
100
AcDbEntity
  8
6_ALL_SURFS
100
AcDbCircle
 62
7
  6
CONTINUOUS
 10
89.6445564516
 20
565.2748991935
 40
3.5
  0
ARC
  5
6A8
100
AcDbEntity
  8
3_ALL_AXES
100
AcDbCircle
 62
7
  6
CONTINUOUS
 10
101.3445564516
 20
588.3748991935
 40
0.5
100
AcDbArc
 50
53.1301023541
 51
126.8698976459
  0
ARC
  5
6A9
100
AcDbEntity
  8
3_ALL_AXES
100
AcDbCircle
 62
7
  6
CONTINUOUS
 10
98.3445564516
 20
588.3748991935
 40
0.5
100
AcDbArc
 50
53.1301023541
 51
126.8698976459
  0
ARC
  5
6AA
100
AcDbEntity
  8
3_ALL_AXES
100
AcDbCircle
 62
7
  6
CONTINUOUS
 10
95.3445564516
 20
588.3748991935
 40
0.5
100
AcDbArc
 50
53.1301023541
 51
126.8698976459
  0
ARC
  5
6AB
100
AcDbEntity
  8
3_ALL_AXES
100
AcDbCircle
 62
7
  6
CONTINUOUS
 10
92.3445564516
 20
588.3748991935
 40
0.5
100
AcDbArc
 50
53.1301023541
 51
126.8698976459
  0
ARC
  5
6AC
100
AcDbEntity
  8
3_ALL_AXES
100
AcDbCircle
 62
7
  6
CONTINUOUS
 10
89.3445564516
 20
588.3748991935
 40
0.5
100
AcDbArc
 50
53.1301023541
 51
126.8698976459
  0
ARC
  5
6AD
100
AcDbEntity
  8
7_ALL_FEATURES
100
AcDbCircle
 62
7
  6
CONTINUOUS
 10
84.0382598095
 20
589.3811958356
 40
0.3937033579
100
AcDbArc
 50
90.0
 51
264.2894068625
  0
ARC
  5
6AE
100
AcDbEntity
  8
7_ALL_FEATURES
100
AcDbCircle
 62
7
  6
CONTINUOUS
 10
103.3445564516
 20
590.0748991935
 40
0.3
100
AcDbArc
 50
270.0
 51
360.0
  0
ARC
  5
6AF
100
AcDbEntity
  8
7_ALL_FEATURES
100
AcDbCircle
 62
7
  6
CONTINUOUS
 10
103.5945564516
 20
588.4748991935
 40
0.3
100
AcDbArc
 50
0.0
 51
90.0
  0
ARC
  5
6B0
100
AcDbEntity
  8
7_ALL_FEATURES
100
AcDbCircle
 62
7
  6
CONTINUOUS
 10
105.4945564516
 20
597.3748991935
 40
2.0
100
AcDbArc
 50
180.0
 51
270.0
  0
ARC
  5
6B1
100
AcDbEntity
  8
7_ALL_FEATURES
100
AcDbCircle
 62
7
  6
CONTINUOUS
 10
105.4945564516
 20
599.1748991935
 40
2.0
100
AcDbArc
 50
90.0
 51
180.0
  0
ARC
  5
6B2
100
AcDbEntity
  8
7_ALL_FEATURES
100
AcDbCircle
 62
7
  6
CONTINUOUS
 10
105.5945564516
 20
589.0948991935
 40
1.8
100
AcDbArc
 50
0.0
 51
57.1401196212
  0
ARC
  5
6B3
100
AcDbEntity
  8
7_ALL_FEATURES
100
AcDbCircle
 62
7
  6
CONTINUOUS
 10
105.1445564516
 20
590.9873986445
 40
1.5
100
AcDbArc
 50
137.0
 51
180.0
  0
ARC
  5
6B4
100
AcDbEntity
  8
7_ALL_FEATURES
100
AcDbCircle
 62
7
  6
CONTINUOUS
 10
106.3945564516
 20
598.2748991935
 40
1.3
100
AcDbArc
 50
40.8069228749
 51
319.1930771251
  0
ARC
  5
6B5
100
AcDbEntity
  8
7_ALL_FEATURES
100
AcDbCircle
 62
7
  6
CONTINUOUS
 10
105.5945564516
 20
589.0948991935
 40
1.0
100
AcDbArc
 50
0.0
 51
57.1401196211
  0
ARC
  5
6B6
100
AcDbEntity
  8
7_ALL_FEATURES
100
AcDbCircle
 62
7
  6
CONTINUOUS
 10
106.6797292489
 20
590.7748991935
 40
1.0
100
AcDbArc
 50
137.0
 51
237.1401196211
  0
ARC
  5
6B7
100
AcDbEntity
  8
7_ALL_FEATURES
100
AcDbCircle
 62
7
  6
CONTINUOUS
 10
106.0445564516
 20
594.8850888548
 40
0.5
100
AcDbArc
 50
317.0
 51
360.0
  0
ARC
  5
6B8
100
AcDbEntity
  8
7_ALL_FEATURES
100
AcDbCircle
 62
7
  6
CONTINUOUS
 10
106.6053448412
 20
591.5748991935
 40
0.4
100
AcDbArc
 50
316.9999999999
 51
137.0000000002
  0
ARC
  5
6B9
100
AcDbEntity
  8
7_ALL_FEATURES
100
AcDbCircle
 62
7
  6
CONTINUOUS
 10
107.9945564516
 20
599.5450697858
 40
0.3
100
AcDbArc
 50
300.0
 51
360.0
  0
ARC
  5
6BA
100
AcDbEntity
  8
7_ALL_FEATURES
100
AcDbCircle
 62
7
  6
CONTINUOUS
 10
107.6056222105
 20
599.320518497
 40
0.3
100
AcDbArc
 50
220.8069228749
 51
300.0
  0
ARC
  5
6BB
100
AcDbEntity
  8
7_ALL_FEATURES
100
AcDbCircle
 62
7
  6
CONTINUOUS
 10
107.6056222105
 20
597.2292798901
 40
0.3
100
AcDbArc
 50
60.0
 51
139.1930771251
  0
ARC
  5
6BC
100
AcDbEntity
  8
7_ALL_FEATURES
100
AcDbCircle
 62
7
  6
CONTINUOUS
 10
107.9945564516
 20
597.0047286013
 40
0.3
100
AcDbArc
 50
0.0
 51
60.0
  0
ARC
  5
6BD
100
AcDbEntity
  8
7_ALL_FEATURES
100
AcDbCircle
 62
7
  6
CONTINUOUS
 10
107.9945564516
 20
593.3248991935
 40
0.3
100
AcDbArc
 50
270.0
 51
360.0
  0
ARC
  5
6BE
100
AcDbEntity
  8
7_ALL_FEATURES
100
AcDbCircle
 62
7
  6
CONTINUOUS
 10
106.081370908
 20
589.4748991935
 40
0.3
100
AcDbArc
 50
28.0
 51
90.0
  0
ARC
  5
6BF
100
AcDbEntity
  8
7_ALL_FEATURES
100
AcDbCircle
 62
7
  6
CONTINUOUS
 10
106.0945564516
 20
589.4501007927
 40
0.3
100
AcDbArc
 50
0.0
 51
28.0
  0
ARC
  5
6C0
100
AcDbEntity
  8
7_ALL_FEATURES
100
AcDbCircle
 62
7
  6
CONTINUOUS
 10
106.0945564516
 20
588.5748991935
 40
0.3
100
AcDbArc
 50
270.0
 51
360.0
  0
ARC
  5
6C1
100
AcDbEntity
  8
7_ALL_FEATURES
100
AcDbCircle
 62
7
  6
CONTINUOUS
 10
104.8445564516
 20
587.5748991935
 40
0.3
100
AcDbArc
 50
270.0
 51
360.0
  0
ARC
  5
6C2
100
AcDbEntity
  8
7_ALL_FEATURES
100
AcDbCircle
 62
7
  6
CONTINUOUS
 10
104.1945564516
 20
587.5748991935
 40
0.3
100
AcDbArc
 50
180.0
 51
270.0
  0
ARC
  5
6C3
100
AcDbEntity
  8
7_ALL_FEATURES
100
AcDbCircle
 62
7
  6
CONTINUOUS
 10
106.3945564516
 20
601.4748991935
 40
0.3
100
AcDbArc
 50
270.0
 51
360.0
  0
ARC
  5
6C4
100
AcDbEntity
  8
7_ALL_FEATURES
100
AcDbCircle
 62
7
  6
CONTINUOUS
 10
106.2445564516
 20
595.0748991935
 40
0.3
100
AcDbArc
 50
0.0
 51
90.0
  0
ARC
  5
6C5
100
AcDbEntity
  8
7_ALL_FEATURES
100
AcDbCircle
 62
7
  6
CONTINUOUS
 10
107.1750001641
 20
592.7248991935
 40
0.3
100
AcDbArc
 50
90.0
 51
137.0
  0
ARC
  5
6C6
100
AcDbEntity
  8
7_ALL_FEATURES
100
AcDbCircle
 62
7
  6
CONTINUOUS
 10
105.4445564516
 20
590.8692255018
 40
0.3
100
AcDbArc
 50
137.0
 51
180.0
  0
ARC
  5
6C7
100
AcDbEntity
  8
7_ALL_FEATURES
100
AcDbCircle
 62
7
  6
CONTINUOUS
 10
105.4445564516
 20
590.0748991935
 40
0.3
100
AcDbArc
 50
180.0
 51
270.0
  0
ARC
  5
6C8
100
AcDbEntity
  8
7_ALL_FEATURES
100
AcDbCircle
 62
7
  6
CONTINUOUS
 10
105.4445564516
 20
587.9748991935
 40
0.3
100
AcDbArc
 50
90.0
 51
180.0
  0
ARC
  5
6C9
100
AcDbEntity
  8
7_ALL_FEATURES
100
AcDbCircle
 62
7
  6
CONTINUOUS
 10
105.5445564516
 20
587.4748991935
 40
0.2
100
AcDbArc
 50
180.0
 51
270.0
  0
ARC
  5
6CA
100
AcDbEntity
  8
7_ALL_FEATURES
100
AcDbCircle
 62
7
  6
CONTINUOUS
 10
105.5445564516
 20
588.0748991935
 40
0.2
100
AcDbArc
 50
90.0
 51
180.0
  0
ARC
  5
6CB
100
AcDbEntity
  8
7_ALL_FEATURES
100
AcDbCircle
 62
7
  6
CONTINUOUS
 10
106.3945564516
 20
588.4748991935
 40
0.2
100
AcDbArc
 50
270.0
 51
360.0
  0
ARC
  5
6CC
100
AcDbEntity
  8
7_ALL_FEATURES
100
AcDbCircle
 62
7
  6
CONTINUOUS
 10
106.6797292489
 20
590.7748991935
 40
0.2
100
AcDbArc
 50
136.9999999886
 51
237.1401196205
  0
ARC
  5
6CD
100
AcDbEntity
  8
7_ALL_FEATURES
100
AcDbCircle
 62
7
  6
CONTINUOUS
 10
107.5945564516
 20
588.5748991935
 40
0.2
100
AcDbArc
 50
180.0
 51
270.0
  0
ARC
  5
6CE
100
AcDbEntity
  8
7_ALL_FEATURES
100
AcDbCircle
 62
7
  6
CONTINUOUS
 10
111.6945564516
 20
646.2204131228
 40
5.0
100
AcDbArc
 50
167.5
 51
180.0
  0
ARC
  5
6CF
100
AcDbEntity
  8
7_ALL_FEATURES
100
AcDbCircle
 62
7
  6
CONTINUOUS
 10
112.6945564516
 20
663.8748991935
 40
2.8
100
AcDbArc
 50
153.152786674
 51
218.978760326
  0
ARC
  5
6D0
100
AcDbEntity
  8
7_ALL_FEATURES
100
AcDbCircle
 62
7
  6
CONTINUOUS
 10
112.6945564516
 20
663.8748991935
 40
2.8
100
AcDbArc
 50
330.0
 51
360.0
  0
ARC
  5
6D1
100
AcDbEntity
  8
7_ALL_FEATURES
100
AcDbCircle
 62
7
  6
CONTINUOUS
 10
122.8945564516
 20
665.2748991935
 40
1.8
100
AcDbArc
 50
90.0
 51
180.0
  0
ARC
  5
6D2
100
AcDbEntity
  8
7_ALL_FEATURES
100
AcDbCircle
 62
7
  6
CONTINUOUS
 10
112.6945564516
 20
663.8748991935
 40
1.3
100
AcDbArc
 50
130.8069228749
 51
49.1930771251
  0
ARC
  5
6D3
100
AcDbEntity
  8
7_ALL_FEATURES
100
AcDbCircle
 62
7
  6
CONTINUOUS
 10
110.81600677
 20
660.7384368645
 40
1.0
100
AcDbArc
 50
114.123961595
 51
167.5
  0
ARC
  5
6D4
100
AcDbEntity
  8
7_ALL_FEATURES
100
AcDbCircle
 62
7
  6
CONTINUOUS
 10
112.0971413033
 20
659.1248991935
 40
1.0
100
AcDbArc
 50
90.0
 51
167.5
  0
ARC
  5
6D5
100
AcDbEntity
  8
7_ALL_FEATURES
100
AcDbCircle
 62
7
  6
CONTINUOUS
 10
109.2945564516
 20
644.7427079921
 40
1.0
100
AcDbArc
 50
160.0
 51
180.0
  0
ARC
  5
6D6
100
AcDbEntity
  8
7_ALL_FEATURES
100
AcDbCircle
 62
7
  6
CONTINUOUS
 10
109.1945564516
 20
666.0748991935
 40
0.5
100
AcDbArc
 50
180.0
 51
270.0
  0
ARC
  5
6D7
100
AcDbEntity
  8
7_ALL_FEATURES
100
AcDbCircle
 62
7
  6
CONTINUOUS
 10
115.5524402841
 20
662.2248991935
 40
0.5
100
AcDbArc
 50
150.0
 51
270.0
  0
ARC
  5
6D8
100
AcDbEntity
  8
7_ALL_FEATURES
100
AcDbCircle
 62
7
  6
CONTINUOUS
 10
122.6945564516
 20
660.4248991935
 40
0.3
100
AcDbArc
 50
270.0
 51
360.0
  0
ARC
  5
6D9
100
AcDbEntity
  8
7_ALL_FEATURES
100
AcDbCircle
 62
7
  6
CONTINUOUS
 10
108.4280122513
 20
646.1628430891
 40
0.3
100
AcDbArc
 50
340.0
 51
59.0362434679
  0
ARC
  5
6DA
100
AcDbEntity
  8
7_ALL_FEATURES
100
AcDbCircle
 62
7
  6
CONTINUOUS
 10
108.9945564516
 20
666.7748991935
 40
0.3
100
AcDbArc
 50
90.0
 51
180.0
  0
ARC
  5
6DB
100
AcDbEntity
  8
7_ALL_FEATURES
100
AcDbCircle
 62
7
  6
CONTINUOUS
 10
110.6738305094
 20
666.7748991935
 40
0.3
100
AcDbArc
 50
30.0
 51
90.0
  0
ARC
  5
6DC
100
AcDbEntity
  8
7_ALL_FEATURES
100
AcDbCircle
 62
7
  6
CONTINUOUS
 10
111.6489371482
 20
665.0859649524
 40
0.3
100
AcDbArc
 50
310.8069228749
 51
30.0
  0
ARC
  5
6DD
100
AcDbEntity
  8
7_ALL_FEATURES
100
AcDbCircle
 62
7
  6
CONTINUOUS
 10
113.740175755
 20
665.0859649524
 40
0.3
100
AcDbArc
 50
150.0
 51
229.1930771252
  0
ARC
  5
6DE
100
AcDbEntity
  8
7_ALL_FEATURES
100
AcDbCircle
 62
7
  6
CONTINUOUS
 10
114.7152823938
 20
666.7748991935
 40
0.3
100
AcDbArc
 50
90.0
 51
150.0
  0
ARC
  5
6DF
100
AcDbEntity
  8
7_ALL_FEATURES
100
AcDbCircle
 62
7
  6
CONTINUOUS
 10
115.1945564516
 20
666.7748991935
 40
0.3
100
AcDbArc
 50
0.0
 51
90.0
  0
ARC
  5
6E0
100
AcDbEntity
  8
7_ALL_FEATURES
100
AcDbCircle
 62
7
  6
CONTINUOUS
 10
123.2945564516
 20
665.1748991935
 40
0.3
100
AcDbArc
 50
90.0
 51
180.0
  0
ARC
  5
6E1
100
AcDbEntity
  8
7_ALL_FEATURES
100
AcDbCircle
 62
7
  6
CONTINUOUS
 10
120.7945564516
 20
662.0248991935
 40
0.3
100
AcDbArc
 50
270.0
 51
360.0
  0
ARC
  5
6E2
100
AcDbEntity
  8
7_ALL_FEATURES
100
AcDbCircle
 62
7
  6
CONTINUOUS
 10
110.2846809362
 20
661.9248991935
 40
0.3
100
AcDbArc
 50
294.1239615949
 51
38.978760326
  0
ARC
  5
6E3
100
AcDbEntity
  8
7_ALL_FEATURES
100
AcDbCircle
 62
7
  6
CONTINUOUS
 10
109.9286931144
 20
665.2748991935
 40
0.3
100
AcDbArc
 50
333.152786674
 51
90.0
  0
ARC
  5
6E4
100
AcDbEntity
  8
7_ALL_FEATURES
100
AcDbCircle
 62
7
  6
CONTINUOUS
 10
108.6342207089
 20
646.7388322419
 40
0.3
100
AcDbArc
 50
167.5
 51
239.0362434679
  0
ARC
  5
6E5
100
AcDbEntity
  8
7_ALL_FEATURES
100
AcDbCircle
 62
7
  6
CONTINUOUS
 10
159.7445564516
 20
315.2748991935
 40
4.7990381057
100
AcDbArc
 50
128.6913826582
 51
231.3086173418
  0
ARC
  5
6E6
100
AcDbEntity
  8
7_ALL_FEATURES
100
AcDbCircle
 62
7
  6
CONTINUOUS
 10
159.7445564516
 20
65.2748991935
 40
4.7990381057
100
AcDbArc
 50
128.6913826582
 51
231.3086173418
  0
ARC
  5
6E7
100
AcDbEntity
  8
7_ALL_FEATURES
100
AcDbCircle
 62
7
  6
CONTINUOUS
 10
159.7445564516
 20
65.2748991935
 40
4.7990381057
100
AcDbArc
 50
239.9933694481
 51
270.0
  0
ARC
  5
6E8
100
AcDbEntity
  8
7_ALL_FEATURES
100
AcDbCircle
 62
7
  6
CONTINUOUS
 10
159.7445564516
 20
315.2748991935
 40
4.7990381057
100
AcDbArc
 50
239.9933694481
 51
270.0
  0
ARC
  5
6E9
100
AcDbEntity
  8
7_ALL_FEATURES
100
AcDbCircle
 62
7
  6
CONTINUOUS
 10
159.7445564516
 20
65.2748991935
 40
4.7990381057
100
AcDbArc
 50
90.0
 51
120.0066305519
  0
ARC
  5
6EA
100
AcDbEntity
  8
7_ALL_FEATURES
100
AcDbCircle
 62
7
  6
CONTINUOUS
 10
159.7445564516
 20
315.2748991935
 40
4.7990381057
100
AcDbArc
 50
90.0
 51
120.0066305519
  0
ARC
  5
6EB
100
AcDbEntity
  8
7_ALL_FEATURES
100
AcDbCircle
 62
7
  6
CONTINUOUS
 10
159.7445564516
 20
65.2748991935
 40
4.7990381057
100
AcDbArc
 50
277.1822026405
 51
316.828815981
  0
ARC
  5
6EC
100
AcDbEntity
  8
7_ALL_FEATURES
100
AcDbCircle
 62
7
  6
CONTINUOUS
 10
159.7445564516
 20
315.2748991935
 40
4.7990381057
100
AcDbArc
 50
277.1822026405
 51
316.828815981
  0
ARC
  5
6ED
100
AcDbEntity
  8
7_ALL_FEATURES
100
AcDbCircle
 62
7
  6
CONTINUOUS
 10
159.7445564516
 20
65.2748991935
 40
4.7990381057
100
AcDbArc
 50
43.171184019
 51
82.8177973595
  0
ARC
  5
6EE
100
AcDbEntity
  8
7_ALL_FEATURES
100
AcDbCircle
 62
7
  6
CONTINUOUS
 10
159.7445564516
 20
315.2748991935
 40
4.7990381057
100
AcDbArc
 50
43.171184019
 51
82.8177973595
  0
CIRCLE
  5
6EF
100
AcDbEntity
  8
6_ALL_SURFS
100
AcDbCircle
 62
7
  6
CONTINUOUS
 10
159.7445564516
 20
315.2748991935
 40
3.5
  0
CIRCLE
  5
6F0
100
AcDbEntity
  8
6_ALL_SURFS
100
AcDbCircle
 62
7
  6
CONTINUOUS
 10
159.7445564516
 20
65.2748991935
 40
3.5
  0
ARC
  5
6F1
100
AcDbEntity
  8
6_ALL_SURFS
100
AcDbCircle
 62
7
  6
CONTINUOUS
 10
143.8945564516
 20
599.1748991935
 40
2.0
100
AcDbArc
 50
0.0
 51
90.0
  0
ARC
  5
6F2
100
AcDbEntity
  8
6_ALL_SURFS
100
AcDbCircle
 62
7
  6
CONTINUOUS
 10
143.8945564516
 20
597.3748991935
 40
2.0
100
AcDbArc
 50
270.0
 51
360.0
  0
ARC
  5
6F3
100
AcDbEntity
  8
7_ALL_FEATURES
100
AcDbCircle
 62
7
  6
CONTINUOUS
 10
143.7945564516
 20
589.0948991935
 40
1.8
100
AcDbArc
 50
122.8598803788
 51
180.0
  0
ARC
  5
6F4
100
AcDbEntity
  8
6_ALL_SURFS
100
AcDbCircle
 62
7
  6
CONTINUOUS
 10
144.2445564516
 20
590.9873986445
 40
1.5
100
AcDbArc
 50
0.0
 51
43.0
  0
ARC
  5
6F5
100
AcDbEntity
  8
6_ALL_SURFS
100
AcDbCircle
 62
7
  6
CONTINUOUS
 10
142.9945564516
 20
598.2748991935
 40
1.3
100
AcDbArc
 50
220.8069228749
 51
139.1930771252
  0
ARC
  5
6F6
100
AcDbEntity
  8
7_ALL_FEATURES
100
AcDbCircle
 62
7
  6
CONTINUOUS
 10
142.7093836543
 20
590.7748991935
 40
1.0
100
AcDbArc
 50
302.859880379
 51
43.0
  0
ARC
  5
6F7
100
AcDbEntity
  8
7_ALL_FEATURES
100
AcDbCircle
 62
7
  6
CONTINUOUS
 10
143.7945564516
 20
589.0948991935
 40
1.0
100
AcDbArc
 50
122.8598803787
 51
180.0
  0
ARC
  5
6F8
100
AcDbEntity
  8
6_ALL_SURFS
100
AcDbCircle
 62
7
  6
CONTINUOUS
 10
143.3445564516
 20
594.8850888548
 40
0.5
100
AcDbArc
 50
180.0
 51
223.0
  0
ARC
  5
6F9
100
AcDbEntity
  8
7_ALL_FEATURES
100
AcDbCircle
 62
7
  6
CONTINUOUS
 10
142.7837680621
 20
591.5748991935
 40
0.4
100
AcDbArc
 50
43.0000000029
 51
223.0
  0
ARC
  5
6FA
100
AcDbEntity
  8
6_ALL_SURFS
100
AcDbCircle
 62
7
  6
CONTINUOUS
 10
144.5445564516
 20
587.5748991935
 40
0.3
100
AcDbArc
 50
180.0
 51
270.0
  0
ARC
  5
6FB
100
AcDbEntity
  8
6_ALL_SURFS
100
AcDbCircle
 62
7
  6
CONTINUOUS
 10
143.2945564516
 20
588.5748991935
 40
0.3
100
AcDbArc
 50
180.0
 51
270.0
  0
ARC
  5
6FC
100
AcDbEntity
  8
6_ALL_SURFS
100
AcDbCircle
 62
7
  6
CONTINUOUS
 10
143.2945564516
 20
589.4501007927
 40
0.3
100
AcDbArc
 50
152.0
 51
180.0
  0
ARC
  5
6FD
100
AcDbEntity
  8
6_ALL_SURFS
100
AcDbCircle
 62
7
  6
CONTINUOUS
 10
143.3077419952
 20
589.4748991935
 40
0.3
100
AcDbArc
 50
90.0
 51
152.0
  0
ARC
  5
6FE
100
AcDbEntity
  8
6_ALL_SURFS
100
AcDbCircle
 62
7
  6
CONTINUOUS
 10
141.3945564516
 20
593.3248991935
 40
0.3
100
AcDbArc
 50
180.0
 51
270.0
  0
ARC
  5
6FF
100
AcDbEntity
  8
6_ALL_SURFS
100
AcDbCircle
 62
7
  6
CONTINUOUS
 10
141.3945564516
 20
597.0047286013
 40
0.3
100
AcDbArc
 50
120.0
 51
180.0
  0
ARC
  5
700
100
AcDbEntity
  8
6_ALL_SURFS
100
AcDbCircle
 62
7
  6
CONTINUOUS
 10
141.7834906927
 20
597.2292798901
 40
0.3
100
AcDbArc
 50
40.8069228749
 51
120.0
  0
ARC
  5
701
100
AcDbEntity
  8
6_ALL_SURFS
100
AcDbCircle
 62
7
  6
CONTINUOUS
 10
141.7834906927
 20
599.320518497
 40
0.3
100
AcDbArc
 50
240.0
 51
319.1930771251
  0
ARC
  5
702
100
AcDbEntity
  8
6_ALL_SURFS
100
AcDbCircle
 62
7
  6
CONTINUOUS
 10
141.3945564516
 20
599.5450697858
 40
0.3
100
AcDbArc
 50
180.0
 51
240.0
  0
ARC
  5
703
100
AcDbEntity
  8
6_ALL_SURFS
100
AcDbCircle
 62
7
  6
CONTINUOUS
 10
142.9945564516
 20
601.4748991935
 40
0.3
100
AcDbArc
 50
180.0
 51
270.0
  0
ARC
  5
704
100
AcDbEntity
  8
6_ALL_SURFS
100
AcDbCircle
 62
7
  6
CONTINUOUS
 10
143.1445564516
 20
595.0748991935
 40
0.3
100
AcDbArc
 50
90.0
 51
180.0
  0
ARC
  5
705
100
AcDbEntity
  8
6_ALL_SURFS
100
AcDbCircle
 62
7
  6
CONTINUOUS
 10
142.2141127391
 20
592.7248991935
 40
0.3
100
AcDbArc
 50
43.0
 51
90.0
  0
ARC
  5
706
100
AcDbEntity
  8
6_ALL_SURFS
100
AcDbCircle
 62
7
  6
CONTINUOUS
 10
143.9445564516
 20
590.8692255018
 40
0.3
100
AcDbArc
 50
0.0
 51
43.0
  0
ARC
  5
707
100
AcDbEntity
  8
6_ALL_SURFS
100
AcDbCircle
 62
7
  6
CONTINUOUS
 10
143.9445564516
 20
590.0748991935
 40
0.3
100
AcDbArc
 50
270.0
 51
360.0
  0
ARC
  5
708
100
AcDbEntity
  8
6_ALL_SURFS
100
AcDbCircle
 62
7
  6
CONTINUOUS
 10
143.9445564516
 20
587.9748991935
 40
0.3
100
AcDbArc
 50
0.0
 51
90.0
  0
ARC
  5
709
100
AcDbEntity
  8
7_ALL_FEATURES
100
AcDbCircle
 62
7
  6
CONTINUOUS
 10
141.7945564516
 20
588.5748991935
 40
0.2
100
AcDbArc
 50
270.0
 51
360.0
  0
ARC
  5
70A
100
AcDbEntity
  8
7_ALL_FEATURES
100
AcDbCircle
 62
7
  6
CONTINUOUS
 10
142.7093836543
 20
590.7748991935
 40
0.2
100
AcDbArc
 50
302.8598803795
 51
43.0000000114
  0
ARC
  5
70B
100
AcDbEntity
  8
7_ALL_FEATURES
100
AcDbCircle
 62
7
  6
CONTINUOUS
 10
142.9945564516
 20
588.4748991935
 40
0.2
100
AcDbArc
 50
180.0
 51
270.0
  0
ARC
  5
70C
100
AcDbEntity
  8
7_ALL_FEATURES
100
AcDbCircle
 62
7
  6
CONTINUOUS
 10
143.8445564516
 20
588.0748991935
 40
0.2
100
AcDbArc
 50
0.0
 51
90.0
  0
ARC
  5
70D
100
AcDbEntity
  8
7_ALL_FEATURES
100
AcDbCircle
 62
7
  6
CONTINUOUS
 10
143.8445564516
 20
587.4748991935
 40
0.2
100
AcDbArc
 50
270.0
 51
360.0
  0
ARC
  5
70E
100
AcDbEntity
  8
7_ALL_FEATURES
100
AcDbCircle
 62
7
  6
CONTINUOUS
 10
124.6945564516
 20
664.0248991935
 40
8.0
100
AcDbArc
 50
240.0
 51
255.5224878141
  0
ARC
  5
70F
100
AcDbEntity
  8
7_ALL_FEATURES
100
AcDbCircle
 62
7
  6
CONTINUOUS
 10
124.6945564516
 20
664.0248991935
 40
8.0
100
AcDbArc
 50
284.4775121859
 51
300.0
  0
ARC
  5
710
100
AcDbEntity
  8
7_ALL_FEATURES
100
AcDbCircle
 62
7
  6
CONTINUOUS
 10
124.6945564516
 20
664.0248991935
 40
7.9843597113
100
AcDbArc
 50
255.4935070353
 51
266.4096498625
  0
ARC
  5
711
100
AcDbEntity
  8
7_ALL_FEATURES
100
AcDbCircle
 62
7
  6
CONTINUOUS
 10
124.6945564516
 20
664.0248991935
 40
7.9843597113
100
AcDbArc
 50
273.5903501375
 51
284.5064929647
  0
ARC
  5
712
100
AcDbEntity
  8
7_ALL_FEATURES
100
AcDbCircle
 62
7
  6
CONTINUOUS
 10
124.6945564516
 20
664.0248991935
 40
7.7459666924
100
AcDbArc
 50
266.2990001561
 51
273.7009998439
  0
ARC
  5
713
100
AcDbEntity
  8
6_ALL_SURFS
100
AcDbCircle
 62
7
  6
CONTINUOUS
 10
137.6945564516
 20
646.2204131228
 40
5.0
100
AcDbArc
 50
0.0
 51
12.5
  0
ARC
  5
714
100
AcDbEntity
  8
6_ALL_SURFS
100
AcDbCircle
 62
7
  6
CONTINUOUS
 10
136.6945564516
 20
663.8748991935
 40
2.8
100
AcDbArc
 50
180.0
 51
210.0
  0
ARC
  5
715
100
AcDbEntity
  8
6_ALL_SURFS
100
AcDbCircle
 62
7
  6
CONTINUOUS
 10
136.6945564516
 20
663.8748991935
 40
2.8
100
AcDbArc
 50
321.021239674
 51
26.847213326
  0
ARC
  5
716
100
AcDbEntity
  8
6_ALL_SURFS
100
AcDbCircle
 62
7
  6
CONTINUOUS
 10
126.4945564516
 20
665.2748991935
 40
1.8
100
AcDbArc
 50
0.0
 51
90.0
  0
ARC
  5
717
100
AcDbEntity
  8
6_ALL_SURFS
100
AcDbCircle
 62
7
  6
CONTINUOUS
 10
136.6945564516
 20
663.8748991935
 40
1.3
100
AcDbArc
 50
130.8069228749
 51
49.1930771252
  0
ARC
  5
718
100
AcDbEntity
  8
6_ALL_SURFS
100
AcDbCircle
 62
7
  6
CONTINUOUS
 10
138.5731061332
 20
660.7384368645
 40
1.0
100
AcDbArc
 50
12.5
 51
65.876038405
  0
ARC
  5
719
100
AcDbEntity
  8
6_ALL_SURFS
100
AcDbCircle
 62
7
  6
CONTINUOUS
 10
137.2919715999
 20
659.1248991935
 40
1.0
100
AcDbArc
 50
12.5
 51
90.0
  0
ARC
  5
71A
100
AcDbEntity
  8
6_ALL_SURFS
100
AcDbCircle
 62
7
  6
CONTINUOUS
 10
140.0945564516
 20
644.7427079921
 40
1.0
100
AcDbArc
 50
0.0
 51
20.0
  0
ARC
  5
71B
100
AcDbEntity
  8
6_ALL_SURFS
100
AcDbCircle
 62
7
  6
CONTINUOUS
 10
140.1945564516
 20
666.0748991935
 40
0.5
100
AcDbArc
 50
270.0
 51
360.0
  0
ARC
  5
71C
100
AcDbEntity
  8
6_ALL_SURFS
100
AcDbCircle
 62
7
  6
CONTINUOUS
 10
133.8366726191
 20
662.2248991935
 40
0.5
100
AcDbArc
 50
270.0
 51
30.0
  0
ARC
  5
71D
100
AcDbEntity
  8
6_ALL_SURFS
100
AcDbCircle
 62
7
  6
CONTINUOUS
 10
134.1945564516
 20
666.7748991935
 40
0.3
100
AcDbArc
 50
90.0
 51
180.0
  0
ARC
  5
71E
100
AcDbEntity
  8
6_ALL_SURFS
100
AcDbCircle
 62
7
  6
CONTINUOUS
 10
134.6738305094
 20
666.7748991935
 40
0.3
100
AcDbArc
 50
30.0
 51
90.0
  0
ARC
  5
71F
100
AcDbEntity
  8
6_ALL_SURFS
100
AcDbCircle
 62
7
  6
CONTINUOUS
 10
135.6489371482
 20
665.0859649524
 40
0.3
100
AcDbArc
 50
310.8069228748
 51
30.0
  0
ARC
  5
720
100
AcDbEntity
  8
6_ALL_SURFS
100
AcDbCircle
 62
7
  6
CONTINUOUS
 10
137.740175755
 20
665.0859649524
 40
0.3
100
AcDbArc
 50
150.0
 51
229.1930771251
  0
ARC
  5
721
100
AcDbEntity
  8
6_ALL_SURFS
100
AcDbCircle
 62
7
  6
CONTINUOUS
 10
138.7152823938
 20
666.7748991935
 40
0.3
100
AcDbArc
 50
90.0
 51
150.0
  0
ARC
  5
722
100
AcDbEntity
  8
6_ALL_SURFS
100
AcDbCircle
 62
7
  6
CONTINUOUS
 10
140.3945564516
 20
666.7748991935
 40
0.3
100
AcDbArc
 50
0.0
 51
90.0
  0
ARC
  5
723
100
AcDbEntity
  8
6_ALL_SURFS
100
AcDbCircle
 62
7
  6
CONTINUOUS
 10
140.9611006519
 20
646.1628430891
 40
0.3
100
AcDbArc
 50
120.9637565321
 51
200.0
  0
ARC
  5
724
100
AcDbEntity
  8
6_ALL_SURFS
100
AcDbCircle
 62
7
  6
CONTINUOUS
 10
126.6945564516
 20
660.4248991935
 40
0.3
100
AcDbArc
 50
180.0
 51
270.0
  0
ARC
  5
725
100
AcDbEntity
  8
6_ALL_SURFS
100
AcDbCircle
 62
7
  6
CONTINUOUS
 10
126.0945564516
 20
665.1748991935
 40
0.3
100
AcDbArc
 50
0.0
 51
90.0
  0
ARC
  5
726
100
AcDbEntity
  8
6_ALL_SURFS
100
AcDbCircle
 62
7
  6
CONTINUOUS
 10
128.5945564516
 20
662.0248991935
 40
0.3
100
AcDbArc
 50
180.0
 51
270.0
  0
ARC
  5
727
100
AcDbEntity
  8
6_ALL_SURFS
100
AcDbCircle
 62
7
  6
CONTINUOUS
 10
139.1044319671
 20
661.9248991935
 40
0.3
100
AcDbArc
 50
141.021239674
 51
245.8760384051
  0
ARC
  5
728
100
AcDbEntity
  8
6_ALL_SURFS
100
AcDbCircle
 62
7
  6
CONTINUOUS
 10
139.4604197888
 20
665.2748991935
 40
0.3
100
AcDbArc
 50
90.0
 51
206.847213326
  0
ARC
  5
729
100
AcDbEntity
  8
6_ALL_SURFS
100
AcDbCircle
 62
7
  6
CONTINUOUS
 10
140.7548921943
 20
646.7388322419
 40
0.3
100
AcDbArc
 50
300.9637565321
 51
12.5
  0
ARC
  5
72A
100
AcDbEntity
  8
7_ALL_FEATURES
100
AcDbCircle
 62
7
  6
CONTINUOUS
 10
159.7445564516
 20
565.2748991935
 40
4.7990381057
100
AcDbArc
 50
128.6913826582
 51
231.3086173418
  0
ARC
  5
72B
100
AcDbEntity
  8
7_ALL_FEATURES
100
AcDbCircle
 62
7
  6
CONTINUOUS
 10
159.7445564516
 20
565.2748991935
 40
4.7990381057
100
AcDbArc
 50
239.9933694481
 51
270.0
  0
ARC
  5
72C
100
AcDbEntity
  8
7_ALL_FEATURES
100
AcDbCircle
 62
7
  6
CONTINUOUS
 10
159.7445564516
 20
565.2748991935
 40
4.7990381057
100
AcDbArc
 50
90.0
 51
120.0066305519
  0
ARC
  5
72D
100
AcDbEntity
  8
7_ALL_FEATURES
100
AcDbCircle
 62
7
  6
CONTINUOUS
 10
159.7445564516
 20
565.2748991935
 40
4.7990381057
100
AcDbArc
 50
277.1822026405
 51
316.828815981
  0
ARC
  5
72E
100
AcDbEntity
  8
7_ALL_FEATURES
100
AcDbCircle
 62
7
  6
CONTINUOUS
 10
159.7445564516
 20
565.2748991935
 40
4.7990381057
100
AcDbArc
 50
43.171184019
 51
82.8177973595
  0
CIRCLE
  5
72F
100
AcDbEntity
  8
6_ALL_SURFS
100
AcDbCircle
 62
7
  6
CONTINUOUS
 10
159.7445564516
 20
565.2748991935
 40
3.5
  0
ARC
  5
730
100
AcDbEntity
  8
6_ALL_SURFS
100
AcDbCircle
 62
7
  6
CONTINUOUS
 10
160.0445564516
 20
588.3748991935
 40
0.5
100
AcDbArc
 50
53.1301023541
 51
126.8698976459
  0
ARC
  5
731
100
AcDbEntity
  8
6_ALL_SURFS
100
AcDbCircle
 62
7
  6
CONTINUOUS
 10
157.0445564516
 20
588.3748991935
 40
0.5
100
AcDbArc
 50
53.1301023541
 51
126.8698976459
  0
ARC
  5
732
100
AcDbEntity
  8
6_ALL_SURFS
100
AcDbCircle
 62
7
  6
CONTINUOUS
 10
154.0445564516
 20
588.3748991935
 40
0.5
100
AcDbArc
 50
53.1301023541
 51
126.8698976459
  0
ARC
  5
733
100
AcDbEntity
  8
6_ALL_SURFS
100
AcDbCircle
 62
7
  6
CONTINUOUS
 10
151.0445564516
 20
588.3748991935
 40
0.5
100
AcDbArc
 50
53.1301023541
 51
126.8698976459
  0
ARC
  5
734
100
AcDbEntity
  8
6_ALL_SURFS
100
AcDbCircle
 62
7
  6
CONTINUOUS
 10
148.0445564516
 20
588.3748991935
 40
0.5
100
AcDbArc
 50
53.1301023541
 51
126.8698976459
  0
ARC
  5
735
100
AcDbEntity
  8
6_ALL_SURFS
100
AcDbCircle
 62
7
  6
CONTINUOUS
 10
165.3508530937
 20
589.3811958356
 40
0.3937033579
100
AcDbArc
 50
275.7105931375
 51
90.0
  0
ARC
  5
736
100
AcDbEntity
  8
6_ALL_SURFS
100
AcDbCircle
 62
7
  6
CONTINUOUS
 10
145.1945564516
 20
587.5748991935
 40
0.3
100
AcDbArc
 50
270.0
 51
360.0
  0
ARC
  5
737
100
AcDbEntity
  8
6_ALL_SURFS
100
AcDbCircle
 62
7
  6
CONTINUOUS
 10
146.0445564516
 20
590.0748991935
 40
0.3
100
AcDbArc
 50
180.0
 51
270.0
  0
ARC
  5
738
100
AcDbEntity
  8
6_ALL_SURFS
100
AcDbCircle
 62
7
  6
CONTINUOUS
 10
145.7945564516
 20
588.4748991935
 40
0.3
100
AcDbArc
 50
90.0
 51
180.0
  0
SPLINE
  5
739
100
AcDbEntity
  8
7_ALL_FEATURES
100
AcDbSpline
 62
7
  6
CONTINUOUS
 70
0
 71
3
 72
13
 73
9
 74
0
 42
0.0000001
 43
0.0000001
 44
0.0000000001
 40
0.0
 40
0.0
 40
0.0
 40
0.0
 40
0.2501525934
 40
0.5060012853
 40
0.6358569015
 40
0.7643379363
 40
0.8857625293
 40
1.0
 40
1.0
 40
1.0
 40
1.0
 10
904.2221418463
 20
798.5295362903
 30
0.0
 10
904.1598708359
 20
798.4995637903
 30
0.0
 10
904.0374066073
 20
798.431593585
 30
0.0
 10
903.8973619557
 20
798.3228740221
 30
0.0
 10
903.8061255793
 20
798.2131844485
 30
0.0
 10
903.75893111
 20
798.1173270957
 30
0.0
 10
903.7569979721
 20
798.0120273734
 30
0.0
 10
903.7914720008
 20
797.9534242998
 30
0.0
 10
903.8120971541
 20
797.9295362903
 30
0.0
  0
SPLINE
  5
73A
100
AcDbEntity
  8
7_ALL_FEATURES
100
AcDbSpline
 62
7
  6
CONTINUOUS
 70
0
 71
3
 72
13
 73
9
 74
0
 42
0.0000001
 43
0.0000001
 44
0.0000000001
 40
0.0
 40
0.0
 40
0.0
 40
0.0
 40
0.2501525934
 40
0.5060012853
 40
0.6358569015
 40
0.7643379363
 40
0.8857625293
 40
1.0
 40
1.0
 40
1.0
 40
1.0
 10
654.2221418463
 20
798.5295362903
 30
0.0
 10
654.1598708359
 20
798.4995637903
 30
0.0
 10
654.0374066073
 20
798.431593585
 30
0.0
 10
653.8973619557
 20
798.3228740221
 30
0.0
 10
653.8061255793
 20
798.2131844485
 30
0.0
 10
653.75893111
 20
798.1173270957
 30
0.0
 10
653.7569979721
 20
798.0120273734
 30
0.0
 10
653.7914720008
 20
797.9534242998
 30
0.0
 10
653.8120971541
 20
797.9295362903
 30
0.0
  0
SPLINE
  5
73B
100
AcDbEntity
  8
7_ALL_FEATURES
100
AcDbSpline
 62
7
  6
CONTINUOUS
 70
0
 71
3
 72
13
 73
9
 74
0
 42
0.0000001
 43
0.0000001
 44
0.0000000001
 40
0.0
 40
0.0
 40
0.0
 40
0.0
 40
0.1142402995
 40
0.2356684165
 40
0.3641485376
 40
0.4940030118
 40
0.7498496516
 40
1.0
 40
1.0
 40
1.0
 40
1.0
 10
896.3205641362
 20
797.9295362903
 30
0.0
 10
896.3411897954
 20
797.9534248857
 30
0.0
 10
896.3756646161
 20
798.0120298822
 30
0.0
 10
896.3737286246
 20
798.1173312948
 30
0.0
 10
896.326532946
 20
798.2131881443
 30
0.0
 10
896.2352969402
 20
798.3228765505
 30
0.0
 10
896.095253022
 20
798.4315944714
 30
0.0
 10
895.9727898811
 20
798.4995640662
 30
0.0
 10
895.910519444
 20
798.5295362903
 30
0.0
  0
SPLINE
  5
73C
100
AcDbEntity
  8
7_ALL_FEATURES
100
AcDbSpline
 62
7
  6
CONTINUOUS
 70
0
 71
3
 72
13
 73
9
 74
0
 42
0.0000001
 43
0.0000001
 44
0.0000000001
 40
0.0
 40
0.0
 40
0.0
 40
0.0
 40
0.2501525934
 40
0.5060012853
 40
0.6358569015
 40
0.7643379363
 40
0.8857625293
 40
1.0
 40
1.0
 40
1.0
 40
1.0
 10
404.2221418463
 20
798.5295362903
 30
0.0
 10
404.1598708359
 20
798.4995637903
 30
0.0
 10
404.0374066073
 20
798.431593585
 30
0.0
 10
403.8973619557
 20
798.3228740221
 30
0.0
 10
403.8061255793
 20
798.2131844485
 30
0.0
 10
403.75893111
 20
798.1173270957
 30
0.0
 10
403.7569979721
 20
798.0120273734
 30
0.0
 10
403.7914720008
 20
797.9534242998
 30
0.0
 10
403.8120971541
 20
797.9295362903
 30
0.0
  0
SPLINE
  5
73D
100
AcDbEntity
  8
7_ALL_FEATURES
100
AcDbSpline
 62
7
  6
CONTINUOUS
 70
0
 71
3
 72
13
 73
9
 74
0
 42
0.0000001
 43
0.0000001
 44
0.0000000001
 40
0.0
 40
0.0
 40
0.0
 40
0.0
 40
0.1142402995
 40
0.2356684165
 40
0.3641485376
 40
0.4940030118
 40
0.7498496516
 40
1.0
 40
1.0
 40
1.0
 40
1.0
 10
646.3205641362
 20
797.9295362903
 30
0.0
 10
646.3411897954
 20
797.9534248857
 30
0.0
 10
646.3756646161
 20
798.0120298822
 30
0.0
 10
646.3737286246
 20
798.1173312948
 30
0.0
 10
646.326532946
 20
798.2131881443
 30
0.0
 10
646.2352969402
 20
798.3228765505
 30
0.0
 10
646.095253022
 20
798.4315944714
 30
0.0
 10
645.9727898811
 20
798.4995640662
 30
0.0
 10
645.910519444
 20
798.5295362903
 30
0.0
  0
SPLINE
  5
73E
100
AcDbEntity
  8
7_ALL_FEATURES
100
AcDbSpline
 62
7
  6
CONTINUOUS
 70
0
 71
3
 72
13
 73
9
 74
0
 42
0.0000001
 43
0.0000001
 44
0.0000000001
 40
0.0
 40
0.0
 40
0.0
 40
0.0
 40
0.1142402995
 40
0.2356684165
 40
0.3641485376
 40
0.4940030118
 40
0.7498496516
 40
1.0
 40
1.0
 40
1.0
 40
1.0
 10
396.3205641362
 20
797.9295362903
 30
0.0
 10
396.3411897954
 20
797.9534248857
 30
0.0
 10
396.3756646161
 20
798.0120298822
 30
0.0
 10
396.3737286246
 20
798.1173312948
 30
0.0
 10
396.326532946
 20
798.2131881443
 30
0.0
 10
396.2352969402
 20
798.3228765505
 30
0.0
 10
396.095253022
 20
798.4315944714
 30
0.0
 10
395.9727898811
 20
798.4995640662
 30
0.0
 10
395.910519444
 20
798.5295362903
 30
0.0
  0
SPLINE
  5
73F
100
AcDbEntity
  8
7_ALL_FEATURES
100
AcDbSpline
 62
7
  6
CONTINUOUS
 70
0
 71
3
 72
11
 73
7
 74
0
 42
0.0000001
 43
0.0000001
 44
0.0000000001
 40
0.0
 40
0.0
 40
0.0
 40
0.0
 40
0.2424934777
 40
0.4987655062
 40
0.7553756709
 40
1.0
 40
1.0
 40
1.0
 40
1.0
 10
904.8277135052
 20
801.5295362903
 30
0.0
 10
904.7843643003
 20
801.4929020561
 30
0.0
 10
904.7046546655
 20
801.4030574931
 30
0.0
 10
904.6641255361
 20
801.219866382
 30
0.0
 10
904.7351060517
 20
801.0480255664
 30
0.0
 10
904.8199999313
 20
800.9644612239
 30
0.0
 10
904.8653687508
 20
800.9295362903
 30
0.0
  0
SPLINE
  5
740
100
AcDbEntity
  8
7_ALL_FEATURES
100
AcDbSpline
 62
7
  6
CONTINUOUS
 70
0
 71
3
 72
11
 73
7
 74
0
 42
0.0000001
 43
0.0000001
 44
0.0000000001
 40
0.0
 40
0.0
 40
0.0
 40
0.0
 40
0.2424934777
 40
0.4987655062
 40
0.7553756709
 40
1.0
 40
1.0
 40
1.0
 40
1.0
 10
654.8277135052
 20
801.5295362903
 30
0.0
 10
654.7843643003
 20
801.4929020561
 30
0.0
 10
654.7046546655
 20
801.4030574931
 30
0.0
 10
654.6641255361
 20
801.219866382
 30
0.0
 10
654.7351060517
 20
801.0480255664
 30
0.0
 10
654.8199999313
 20
800.9644612239
 30
0.0
 10
654.8653687508
 20
800.9295362903
 30
0.0
  0
SPLINE
  5
741
100
AcDbEntity
  8
7_ALL_FEATURES
100
AcDbSpline
 62
7
  6
CONTINUOUS
 70
0
 71
3
 72
11
 73
7
 74
0
 42
0.0000001
 43
0.0000001
 44
0.0000000001
 40
0.0
 40
0.0
 40
0.0
 40
0.0
 40
0.2446243291
 40
0.5012344938
 40
0.7575065223
 40
1.0
 40
1.0
 40
1.0
 40
1.0
 10
895.2672925395
 20
800.9295362903
 30
0.0
 10
895.312661359
 20
800.9644612239
 30
0.0
 10
895.3975552386
 20
801.0480255664
 30
0.0
 10
895.4685357542
 20
801.219866382
 30
0.0
 10
895.4280066248
 20
801.4030574931
 30
0.0
 10
895.3482969901
 20
801.4929020561
 30
0.0
 10
895.3049477851
 20
801.5295362903
 30
0.0
  0
SPLINE
  5
742
100
AcDbEntity
  8
7_ALL_FEATURES
100
AcDbSpline
 62
7
  6
CONTINUOUS
 70
0
 71
3
 72
11
 73
7
 74
0
 42
0.0000001
 43
0.0000001
 44
0.0000000001
 40
0.0
 40
0.0
 40
0.0
 40
0.0
 40
0.2424934777
 40
0.4987655062
 40
0.7553756709
 40
1.0
 40
1.0
 40
1.0
 40
1.0
 10
404.8277135052
 20
801.5295362903
 30
0.0
 10
404.7843643003
 20
801.4929020561
 30
0.0
 10
404.7046546655
 20
801.4030574931
 30
0.0
 10
404.6641255361
 20
801.219866382
 30
0.0
 10
404.7351060517
 20
801.0480255664
 30
0.0
 10
404.8199999313
 20
800.9644612239
 30
0.0
 10
404.8653687508
 20
800.9295362903
 30
0.0
  0
SPLINE
  5
743
100
AcDbEntity
  8
7_ALL_FEATURES
100
AcDbSpline
 62
7
  6
CONTINUOUS
 70
0
 71
3
 72
11
 73
7
 74
0
 42
0.0000001
 43
0.0000001
 44
0.0000000001
 40
0.0
 40
0.0
 40
0.0
 40
0.0
 40
0.2446243291
 40
0.5012344938
 40
0.7575065223
 40
1.0
 40
1.0
 40
1.0
 40
1.0
 10
645.2672925395
 20
800.9295362903
 30
0.0
 10
645.312661359
 20
800.9644612239
 30
0.0
 10
645.3975552386
 20
801.0480255664
 30
0.0
 10
645.4685357542
 20
801.219866382
 30
0.0
 10
645.4280066248
 20
801.4030574931
 30
0.0
 10
645.3482969901
 20
801.4929020561
 30
0.0
 10
645.3049477851
 20
801.5295362903
 30
0.0
  0
SPLINE
  5
744
100
AcDbEntity
  8
7_ALL_FEATURES
100
AcDbSpline
 62
7
  6
CONTINUOUS
 70
0
 71
3
 72
11
 73
7
 74
0
 42
0.0000001
 43
0.0000001
 44
0.0000000001
 40
0.0
 40
0.0
 40
0.0
 40
0.0
 40
0.2446243291
 40
0.5012344938
 40
0.7575065223
 40
1.0
 40
1.0
 40
1.0
 40
1.0
 10
395.2672925395
 20
800.9295362903
 30
0.0
 10
395.312661359
 20
800.9644612239
 30
0.0
 10
395.3975552386
 20
801.0480255664
 30
0.0
 10
395.4685357542
 20
801.219866382
 30
0.0
 10
395.4280066248
 20
801.4030574931
 30
0.0
 10
395.3482969901
 20
801.4929020561
 30
0.0
 10
395.3049477851
 20
801.5295362903
 30
0.0
  0
SPLINE
  5
745
100
AcDbEntity
  8
6_ALL_SURFS
100
AcDbSpline
 62
7
  6
CONTINUOUS
 70
0
 71
3
 72
11
 73
7
 74
0
 42
0.0000001
 43
0.0000001
 44
0.0000000001
 40
0.0
 40
0.0
 40
0.0
 40
0.0
 40
0.2446243291
 40
0.5012344938
 40
0.7575065223
 40
1.0
 40
1.0
 40
1.0
 40
1.0
 10
395.2672925395
 20
730.8295362903
 30
0.0
 10
395.312661359
 20
730.7946113568
 30
0.0
 10
395.3975552386
 20
730.7110470142
 30
0.0
 10
395.4685357542
 20
730.5392061986
 30
0.0
 10
395.4280066248
 20
730.3560150876
 30
0.0
 10
395.3482969901
 20
730.2661705245
 30
0.0
 10
395.3049477851
 20
730.2295362903
 30
0.0
  0
SPLINE
  5
746
100
AcDbEntity
  8
6_ALL_SURFS
100
AcDbSpline
 62
7
  6
CONTINUOUS
 70
0
 71
3
 72
11
 73
7
 74
0
 42
0.0000001
 43
0.0000001
 44
0.0000000001
 40
0.0
 40
0.0
 40
0.0
 40
0.0
 40
0.2446243291
 40
0.5012344938
 40
0.7575065223
 40
1.0
 40
1.0
 40
1.0
 40
1.0
 10
645.2672925395
 20
730.8295362903
 30
0.0
 10
645.312661359
 20
730.7946113568
 30
0.0
 10
645.3975552386
 20
730.7110470142
 30
0.0
 10
645.4685357542
 20
730.5392061986
 30
0.0
 10
645.4280066248
 20
730.3560150876
 30
0.0
 10
645.3482969901
 20
730.2661705245
 30
0.0
 10
645.3049477851
 20
730.2295362903
 30
0.0
  0
SPLINE
  5
747
100
AcDbEntity
  8
6_ALL_SURFS
100
AcDbSpline
 62
7
  6
CONTINUOUS
 70
0
 71
3
 72
11
 73
7
 74
0
 42
0.0000001
 43
0.0000001
 44
0.0000000001
 40
0.0
 40
0.0
 40
0.0
 40
0.0
 40
0.2424934777
 40
0.4987655062
 40
0.7553756709
 40
1.0
 40
1.0
 40
1.0
 40
1.0
 10
404.8277135052
 20
730.2295362903
 30
0.0
 10
404.7843643003
 20
730.2661705245
 30
0.0
 10
404.7046546655
 20
730.3560150876
 30
0.0
 10
404.6641255361
 20
730.5392061986
 30
0.0
 10
404.7351060517
 20
730.7110470142
 30
0.0
 10
404.8199999313
 20
730.7946113568
 30
0.0
 10
404.8653687508
 20
730.8295362903
 30
0.0
  0
SPLINE
  5
748
100
AcDbEntity
  8
6_ALL_SURFS
100
AcDbSpline
 62
7
  6
CONTINUOUS
 70
0
 71
3
 72
11
 73
7
 74
0
 42
0.0000001
 43
0.0000001
 44
0.0000000001
 40
0.0
 40
0.0
 40
0.0
 40
0.0
 40
0.2446243291
 40
0.5012344938
 40
0.7575065223
 40
1.0
 40
1.0
 40
1.0
 40
1.0
 10
895.2672925395
 20
730.8295362903
 30
0.0
 10
895.312661359
 20
730.7946113568
 30
0.0
 10
895.3975552386
 20
730.7110470142
 30
0.0
 10
895.4685357542
 20
730.5392061986
 30
0.0
 10
895.4280066248
 20
730.3560150876
 30
0.0
 10
895.3482969901
 20
730.2661705245
 30
0.0
 10
895.3049477851
 20
730.2295362903
 30
0.0
  0
SPLINE
  5
749
100
AcDbEntity
  8
6_ALL_SURFS
100
AcDbSpline
 62
7
  6
CONTINUOUS
 70
0
 71
3
 72
11
 73
7
 74
0
 42
0.0000001
 43
0.0000001
 44
0.0000000001
 40
0.0
 40
0.0
 40
0.0
 40
0.0
 40
0.2424934777
 40
0.4987655062
 40
0.7553756709
 40
1.0
 40
1.0
 40
1.0
 40
1.0
 10
654.8277135052
 20
730.2295362903
 30
0.0
 10
654.7843643003
 20
730.2661705245
 30
0.0
 10
654.7046546655
 20
730.3560150876
 30
0.0
 10
654.6641255361
 20
730.5392061986
 30
0.0
 10
654.7351060517
 20
730.7110470142
 30
0.0
 10
654.8199999313
 20
730.7946113568
 30
0.0
 10
654.8653687508
 20
730.8295362903
 30
0.0
  0
SPLINE
  5
74A
100
AcDbEntity
  8
6_ALL_SURFS
100
AcDbSpline
 62
7
  6
CONTINUOUS
 70
0
 71
3
 72
11
 73
7
 74
0
 42
0.0000001
 43
0.0000001
 44
0.0000000001
 40
0.0
 40
0.0
 40
0.0
 40
0.0
 40
0.2424934777
 40
0.4987655062
 40
0.7553756709
 40
1.0
 40
1.0
 40
1.0
 40
1.0
 10
904.8277135052
 20
730.2295362903
 30
0.0
 10
904.7843643003
 20
730.2661705245
 30
0.0
 10
904.7046546655
 20
730.3560150876
 30
0.0
 10
904.6641255361
 20
730.5392061986
 30
0.0
 10
904.7351060517
 20
730.7110470142
 30
0.0
 10
904.8199999313
 20
730.7946113568
 30
0.0
 10
904.8653687508
 20
730.8295362903
 30
0.0
  0
SPLINE
  5
74B
100
AcDbEntity
  8
6_ALL_SURFS
100
AcDbSpline
 62
7
  6
CONTINUOUS
 70
0
 71
3
 72
13
 73
9
 74
0
 42
0.0000001
 43
0.0000001
 44
0.0000000001
 40
0.0
 40
0.0
 40
0.0
 40
0.0
 40
0.1142402995
 40
0.2356684165
 40
0.3641485376
 40
0.4940030118
 40
0.7498496516
 40
1.0
 40
1.0
 40
1.0
 40
1.0
 10
396.3205641362
 20
733.8295362903
 30
0.0
 10
396.3411897954
 20
733.8056476949
 30
0.0
 10
396.3756646161
 20
733.7470426985
 30
0.0
 10
396.3737286246
 20
733.6417412858
 30
0.0
 10
396.326532946
 20
733.5458844363
 30
0.0
 10
396.2352969402
 20
733.4361960301
 30
0.0
 10
396.095253022
 20
733.3274781093
 30
0.0
 10
395.9727898811
 20
733.2595085144
 30
0.0
 10
395.910519444
 20
733.2295362903
 30
0.0
  0
SPLINE
  5
74C
100
AcDbEntity
  8
6_ALL_SURFS
100
AcDbSpline
 62
7
  6
CONTINUOUS
 70
0
 71
3
 72
13
 73
9
 74
0
 42
0.0000001
 43
0.0000001
 44
0.0000000001
 40
0.0
 40
0.0
 40
0.0
 40
0.0
 40
0.1142402995
 40
0.2356684165
 40
0.3641485376
 40
0.4940030118
 40
0.7498496516
 40
1.0
 40
1.0
 40
1.0
 40
1.0
 10
646.3205641362
 20
733.8295362903
 30
0.0
 10
646.3411897954
 20
733.8056476949
 30
0.0
 10
646.3756646161
 20
733.7470426985
 30
0.0
 10
646.3737286246
 20
733.6417412858
 30
0.0
 10
646.326532946
 20
733.5458844363
 30
0.0
 10
646.2352969402
 20
733.4361960301
 30
0.0
 10
646.095253022
 20
733.3274781093
 30
0.0
 10
645.9727898811
 20
733.2595085144
 30
0.0
 10
645.910519444
 20
733.2295362903
 30
0.0
  0
SPLINE
  5
74D
100
AcDbEntity
  8
6_ALL_SURFS
100
AcDbSpline
 62
7
  6
CONTINUOUS
 70
0
 71
3
 72
13
 73
9
 74
0
 42
0.0000001
 43
0.0000001
 44
0.0000000001
 40
0.0
 40
0.0
 40
0.0
 40
0.0
 40
0.2501525934
 40
0.5060012853
 40
0.6358569015
 40
0.7643379363
 40
0.8857625293
 40
1.0
 40
1.0
 40
1.0
 40
1.0
 10
404.2221418463
 20
733.2295362903
 30
0.0
 10
404.1598708359
 20
733.2595087904
 30
0.0
 10
404.0374066073
 20
733.3274789956
 30
0.0
 10
403.8973619557
 20
733.4361985585
 30
0.0
 10
403.8061255793
 20
733.5458881321
 30
0.0
 10
403.75893111
 20
733.641745485
 30
0.0
 10
403.7569979721
 20
733.7470452072
 30
0.0
 10
403.7914720008
 20
733.8056482809
 30
0.0
 10
403.8120971541
 20
733.8295362903
 30
0.0
  0
SPLINE
  5
74E
100
AcDbEntity
  8
6_ALL_SURFS
100
AcDbSpline
 62
7
  6
CONTINUOUS
 70
0
 71
3
 72
13
 73
9
 74
0
 42
0.0000001
 43
0.0000001
 44
0.0000000001
 40
0.0
 40
0.0
 40
0.0
 40
0.0
 40
0.1142402995
 40
0.2356684165
 40
0.3641485376
 40
0.4940030118
 40
0.7498496516
 40
1.0
 40
1.0
 40
1.0
 40
1.0
 10
896.3205641362
 20
733.8295362903
 30
0.0
 10
896.3411897954
 20
733.8056476949
 30
0.0
 10
896.3756646161
 20
733.7470426985
 30
0.0
 10
896.3737286246
 20
733.6417412858
 30
0.0
 10
896.326532946
 20
733.5458844363
 30
0.0
 10
896.2352969402
 20
733.4361960301
 30
0.0
 10
896.095253022
 20
733.3274781093
 30
0.0
 10
895.9727898811
 20
733.2595085144
 30
0.0
 10
895.910519444
 20
733.2295362903
 30
0.0
  0
SPLINE
  5
74F
100
AcDbEntity
  8
6_ALL_SURFS
100
AcDbSpline
 62
7
  6
CONTINUOUS
 70
0
 71
3
 72
13
 73
9
 74
0
 42
0.0000001
 43
0.0000001
 44
0.0000000001
 40
0.0
 40
0.0
 40
0.0
 40
0.0
 40
0.2501525934
 40
0.5060012853
 40
0.6358569015
 40
0.7643379363
 40
0.8857625293
 40
1.0
 40
1.0
 40
1.0
 40
1.0
 10
654.2221418463
 20
733.2295362903
 30
0.0
 10
654.1598708359
 20
733.2595087904
 30
0.0
 10
654.0374066073
 20
733.3274789956
 30
0.0
 10
653.8973619557
 20
733.4361985585
 30
0.0
 10
653.8061255793
 20
733.5458881321
 30
0.0
 10
653.75893111
 20
733.641745485
 30
0.0
 10
653.7569979721
 20
733.7470452072
 30
0.0
 10
653.7914720008
 20
733.8056482809
 30
0.0
 10
653.8120971541
 20
733.8295362903
 30
0.0
  0
SPLINE
  5
750
100
AcDbEntity
  8
6_ALL_SURFS
100
AcDbSpline
 62
7
  6
CONTINUOUS
 70
0
 71
3
 72
13
 73
9
 74
0
 42
0.0000001
 43
0.0000001
 44
0.0000000001
 40
0.0
 40
0.0
 40
0.0
 40
0.0
 40
0.2501525934
 40
0.5060012853
 40
0.6358569015
 40
0.7643379363
 40
0.8857625293
 40
1.0
 40
1.0
 40
1.0
 40
1.0
 10
904.2221418463
 20
733.2295362903
 30
0.0
 10
904.1598708359
 20
733.2595087904
 30
0.0
 10
904.0374066073
 20
733.3274789956
 30
0.0
 10
903.8973619557
 20
733.4361985585
 30
0.0
 10
903.8061255793
 20
733.5458881321
 30
0.0
 10
903.75893111
 20
733.641745485
 30
0.0
 10
903.7569979721
 20
733.7470452072
 30
0.0
 10
903.7914720008
 20
733.8056482809
 30
0.0
 10
903.8120971541
 20
733.8295362903
 30
0.0
  0
SPLINE
  5
751
100
AcDbEntity
  8
7_ALL_FEATURES
100
AcDbSpline
 62
7
  6
CONTINUOUS
 70
0
 71
3
 72
13
 73
9
 74
0
 42
0.0000001
 43
0.0000001
 44
0.0000000001
 40
0.0
 40
0.0
 40
0.0
 40
0.0
 40
0.2501525934
 40
0.5060012853
 40
0.6358569015
 40
0.7643379363
 40
0.8857625293
 40
1.0
 40
1.0
 40
1.0
 40
1.0
 10
157.3445564516
 20
61.1190879924
 30
0.0
 10
157.3145839516
 20
61.1813590028
 30
0.0
 10
157.2466137463
 20
61.3038232314
 30
0.0
 10
157.1378941834
 20
61.443867883
 30
0.0
 10
157.0282046098
 20
61.5351042595
 30
0.0
 10
156.932347257
 20
61.5822987287
 30
0.0
 10
156.8270475347
 20
61.5842318666
 30
0.0
 10
156.7684444611
 20
61.5497578379
 30
0.0
 10
156.7445564516
 20
61.5291326846
 30
0.0
  0
SPLINE
  5
752
100
AcDbEntity
  8
7_ALL_FEATURES
100
AcDbSpline
 62
7
  6
CONTINUOUS
 70
0
 71
3
 72
13
 73
9
 74
0
 42
0.0000001
 43
0.0000001
 44
0.0000000001
 40
0.0
 40
0.0
 40
0.0
 40
0.0
 40
0.2501525934
 40
0.5060012853
 40
0.6358569015
 40
0.7643379363
 40
0.8857625293
 40
1.0
 40
1.0
 40
1.0
 40
1.0
 10
157.3445564516
 20
311.1190879924
 30
0.0
 10
157.3145839516
 20
311.1813590028
 30
0.0
 10
157.2466137463
 20
311.3038232314
 30
0.0
 10
157.1378941834
 20
311.443867883
 30
0.0
 10
157.0282046098
 20
311.5351042595
 30
0.0
 10
156.932347257
 20
311.5822987287
 30
0.0
 10
156.8270475347
 20
311.5842318666
 30
0.0
 10
156.7684444611
 20
311.5497578379
 30
0.0
 10
156.7445564516
 20
311.5291326846
 30
0.0
  0
SPLINE
  5
753
100
AcDbEntity
  8
7_ALL_FEATURES
100
AcDbSpline
 62
7
  6
CONTINUOUS
 70
0
 71
3
 72
13
 73
9
 74
0
 42
0.0000001
 43
0.0000001
 44
0.0000000001
 40
0.0
 40
0.0
 40
0.0
 40
0.0
 40
0.1142402995
 40
0.2356684165
 40
0.3641485376
 40
0.4940030118
 40
0.7498496516
 40
1.0
 40
1.0
 40
1.0
 40
1.0
 10
156.7445564516
 20
69.0206657025
 30
0.0
 10
156.768445047
 20
69.0000400433
 30
0.0
 10
156.8270500435
 20
68.9655652227
 30
0.0
 10
156.9323514561
 20
68.9675012141
 30
0.0
 10
157.0282083056
 20
69.0146968927
 30
0.0
 10
157.1378967118
 20
69.1059328985
 30
0.0
 10
157.2466146327
 20
69.2459768167
 30
0.0
 10
157.3145842275
 20
69.3684399576
 30
0.0
 10
157.3445564516
 20
69.4307103947
 30
0.0
  0
SPLINE
  5
754
100
AcDbEntity
  8
7_ALL_FEATURES
100
AcDbSpline
 62
7
  6
CONTINUOUS
 70
0
 71
3
 72
13
 73
9
 74
0
 42
0.0000001
 43
0.0000001
 44
0.0000000001
 40
0.0
 40
0.0
 40
0.0
 40
0.0
 40
0.2501525934
 40
0.5060012853
 40
0.6358569015
 40
0.7643379363
 40
0.8857625293
 40
1.0
 40
1.0
 40
1.0
 40
1.0
 10
157.3445564516
 20
561.1190879924
 30
0.0
 10
157.3145839516
 20
561.1813590028
 30
0.0
 10
157.2466137463
 20
561.3038232314
 30
0.0
 10
157.1378941834
 20
561.443867883
 30
0.0
 10
157.0282046098
 20
561.5351042595
 30
0.0
 10
156.932347257
 20
561.5822987287
 30
0.0
 10
156.8270475347
 20
561.5842318666
 30
0.0
 10
156.7684444611
 20
561.5497578379
 30
0.0
 10
156.7445564516
 20
561.5291326846
 30
0.0
  0
SPLINE
  5
755
100
AcDbEntity
  8
7_ALL_FEATURES
100
AcDbSpline
 62
7
  6
CONTINUOUS
 70
0
 71
3
 72
13
 73
9
 74
0
 42
0.0000001
 43
0.0000001
 44
0.0000000001
 40
0.0
 40
0.0
 40
0.0
 40
0.0
 40
0.1142402995
 40
0.2356684165
 40
0.3641485376
 40
0.4940030118
 40
0.7498496516
 40
1.0
 40
1.0
 40
1.0
 40
1.0
 10
156.7445564516
 20
319.0206657025
 30
0.0
 10
156.768445047
 20
319.0000400433
 30
0.0
 10
156.8270500435
 20
318.9655652227
 30
0.0
 10
156.9323514561
 20
318.9675012141
 30
0.0
 10
157.0282083056
 20
319.0146968927
 30
0.0
 10
157.1378967118
 20
319.1059328985
 30
0.0
 10
157.2466146327
 20
319.2459768167
 30
0.0
 10
157.3145842275
 20
319.3684399576
 30
0.0
 10
157.3445564516
 20
319.4307103947
 30
0.0
  0
SPLINE
  5
756
100
AcDbEntity
  8
7_ALL_FEATURES
100
AcDbSpline
 62
7
  6
CONTINUOUS
 70
0
 71
3
 72
13
 73
9
 74
0
 42
0.0000001
 43
0.0000001
 44
0.0000000001
 40
0.0
 40
0.0
 40
0.0
 40
0.0
 40
0.1142402995
 40
0.2356684165
 40
0.3641485376
 40
0.4940030118
 40
0.7498496516
 40
1.0
 40
1.0
 40
1.0
 40
1.0
 10
156.7445564516
 20
569.0206657025
 30
0.0
 10
156.768445047
 20
569.0000400433
 30
0.0
 10
156.8270500435
 20
568.9655652227
 30
0.0
 10
156.9323514561
 20
568.9675012141
 30
0.0
 10
157.0282083056
 20
569.0146968927
 30
0.0
 10
157.1378967118
 20
569.1059328985
 30
0.0
 10
157.2466146327
 20
569.2459768167
 30
0.0
 10
157.3145842275
 20
569.3684399576
 30
0.0
 10
157.3445564516
 20
569.4307103947
 30
0.0
  0
SPLINE
  5
757
100
AcDbEntity
  8
7_ALL_FEATURES
100
AcDbSpline
 62
7
  6
CONTINUOUS
 70
0
 71
3
 72
11
 73
7
 74
0
 42
0.0000001
 43
0.0000001
 44
0.0000000001
 40
0.0
 40
0.0
 40
0.0
 40
0.0
 40
0.2424934777
 40
0.4987655062
 40
0.7553756709
 40
1.0
 40
1.0
 40
1.0
 40
1.0
 10
160.3445564516
 20
60.5135163335
 30
0.0
 10
160.3079222174
 20
60.5568655384
 30
0.0
 10
160.2180776544
 20
60.6365751732
 30
0.0
 10
160.0348865433
 20
60.6771043026
 30
0.0
 10
159.8630457277
 20
60.606123787
 30
0.0
 10
159.7794813852
 20
60.5212299074
 30
0.0
 10
159.7445564516
 20
60.4758610879
 30
0.0
  0
SPLINE
  5
758
100
AcDbEntity
  8
7_ALL_FEATURES
100
AcDbSpline
 62
7
  6
CONTINUOUS
 70
0
 71
3
 72
11
 73
7
 74
0
 42
0.0000001
 43
0.0000001
 44
0.0000000001
 40
0.0
 40
0.0
 40
0.0
 40
0.0
 40
0.2424934777
 40
0.4987655062
 40
0.7553756709
 40
1.0
 40
1.0
 40
1.0
 40
1.0
 10
160.3445564516
 20
310.5135163335
 30
0.0
 10
160.3079222174
 20
310.5568655384
 30
0.0
 10
160.2180776544
 20
310.6365751732
 30
0.0
 10
160.0348865433
 20
310.6771043026
 30
0.0
 10
159.8630457277
 20
310.606123787
 30
0.0
 10
159.7794813852
 20
310.5212299074
 30
0.0
 10
159.7445564516
 20
310.4758610879
 30
0.0
  0
SPLINE
  5
759
100
AcDbEntity
  8
7_ALL_FEATURES
100
AcDbSpline
 62
7
  6
CONTINUOUS
 70
0
 71
3
 72
11
 73
7
 74
0
 42
0.0000001
 43
0.0000001
 44
0.0000000001
 40
0.0
 40
0.0
 40
0.0
 40
0.0
 40
0.2446243291
 40
0.5012344938
 40
0.7575065223
 40
1.0
 40
1.0
 40
1.0
 40
1.0
 10
159.7445564516
 20
70.0739372992
 30
0.0
 10
159.7794813852
 20
70.0285684797
 30
0.0
 10
159.8630457277
 20
69.9436746001
 30
0.0
 10
160.0348865433
 20
69.8726940845
 30
0.0
 10
160.2180776544
 20
69.9132232139
 30
0.0
 10
160.3079222174
 20
69.9929328487
 30
0.0
 10
160.3445564516
 20
70.0362820536
 30
0.0
  0
SPLINE
  5
75A
100
AcDbEntity
  8
7_ALL_FEATURES
100
AcDbSpline
 62
7
  6
CONTINUOUS
 70
0
 71
3
 72
11
 73
7
 74
0
 42
0.0000001
 43
0.0000001
 44
0.0000000001
 40
0.0
 40
0.0
 40
0.0
 40
0.0
 40
0.2424934777
 40
0.4987655062
 40
0.7553756709
 40
1.0
 40
1.0
 40
1.0
 40
1.0
 10
160.3445564516
 20
560.5135163335
 30
0.0
 10
160.3079222174
 20
560.5568655384
 30
0.0
 10
160.2180776544
 20
560.6365751732
 30
0.0
 10
160.0348865433
 20
560.6771043026
 30
0.0
 10
159.8630457277
 20
560.606123787
 30
0.0
 10
159.7794813852
 20
560.5212299074
 30
0.0
 10
159.7445564516
 20
560.4758610879
 30
0.0
  0
SPLINE
  5
75B
100
AcDbEntity
  8
7_ALL_FEATURES
100
AcDbSpline
 62
7
  6
CONTINUOUS
 70
0
 71
3
 72
11
 73
7
 74
0
 42
0.0000001
 43
0.0000001
 44
0.0000000001
 40
0.0
 40
0.0
 40
0.0
 40
0.0
 40
0.2446243291
 40
0.5012344938
 40
0.7575065223
 40
1.0
 40
1.0
 40
1.0
 40
1.0
 10
159.7445564516
 20
320.0739372992
 30
0.0
 10
159.7794813852
 20
320.0285684797
 30
0.0
 10
159.8630457277
 20
319.9436746001
 30
0.0
 10
160.0348865433
 20
319.8726940845
 30
0.0
 10
160.2180776544
 20
319.9132232139
 30
0.0
 10
160.3079222174
 20
319.9929328487
 30
0.0
 10
160.3445564516
 20
320.0362820536
 30
0.0
  0
SPLINE
  5
75C
100
AcDbEntity
  8
7_ALL_FEATURES
100
AcDbSpline
 62
7
  6
CONTINUOUS
 70
0
 71
3
 72
11
 73
7
 74
0
 42
0.0000001
 43
0.0000001
 44
0.0000000001
 40
0.0
 40
0.0
 40
0.0
 40
0.0
 40
0.2446243291
 40
0.5012344938
 40
0.7575065223
 40
1.0
 40
1.0
 40
1.0
 40
1.0
 10
159.7445564516
 20
570.0739372992
 30
0.0
 10
159.7794813852
 20
570.0285684797
 30
0.0
 10
159.8630457277
 20
569.9436746001
 30
0.0
 10
160.0348865433
 20
569.8726940845
 30
0.0
 10
160.2180776544
 20
569.9132232139
 30
0.0
 10
160.3079222174
 20
569.9929328487
 30
0.0
 10
160.3445564516
 20
570.0362820536
 30
0.0
  0
SPLINE
  5
75D
100
AcDbEntity
  8
6_ALL_SURFS
100
AcDbSpline
 62
7
  6
CONTINUOUS
 70
0
 71
3
 72
11
 73
7
 74
0
 42
0.0000001
 43
0.0000001
 44
0.0000000001
 40
0.0
 40
0.0
 40
0.0
 40
0.0
 40
0.2446243291
 40
0.5012344938
 40
0.7575065223
 40
1.0
 40
1.0
 40
1.0
 40
1.0
 10
89.6445564516
 20
570.0739372992
 30
0.0
 10
89.6096315181
 20
570.0285684797
 30
0.0
 10
89.5260671755
 20
569.9436746001
 30
0.0
 10
89.3542263599
 20
569.8726940845
 30
0.0
 10
89.1710352488
 20
569.9132232139
 30
0.0
 10
89.0811906858
 20
569.9929328487
 30
0.0
 10
89.0445564516
 20
570.0362820536
 30
0.0
  0
SPLINE
  5
75E
100
AcDbEntity
  8
6_ALL_SURFS
100
AcDbSpline
 62
7
  6
CONTINUOUS
 70
0
 71
3
 72
11
 73
7
 74
0
 42
0.0000001
 43
0.0000001
 44
0.0000000001
 40
0.0
 40
0.0
 40
0.0
 40
0.0
 40
0.2446243291
 40
0.5012344938
 40
0.7575065223
 40
1.0
 40
1.0
 40
1.0
 40
1.0
 10
89.6445564516
 20
320.0739372992
 30
0.0
 10
89.6096315181
 20
320.0285684797
 30
0.0
 10
89.5260671755
 20
319.9436746001
 30
0.0
 10
89.3542263599
 20
319.8726940845
 30
0.0
 10
89.1710352488
 20
319.9132232139
 30
0.0
 10
89.0811906858
 20
319.9929328487
 30
0.0
 10
89.0445564516
 20
320.0362820536
 30
0.0
  0
SPLINE
  5
75F
100
AcDbEntity
  8
6_ALL_SURFS
100
AcDbSpline
 62
7
  6
CONTINUOUS
 70
0
 71
3
 72
11
 73
7
 74
0
 42
0.0000001
 43
0.0000001
 44
0.0000000001
 40
0.0
 40
0.0
 40
0.0
 40
0.0
 40
0.2424934777
 40
0.4987655062
 40
0.7553756709
 40
1.0
 40
1.0
 40
1.0
 40
1.0
 10
89.0445564516
 20
560.5135163335
 30
0.0
 10
89.0811906858
 20
560.5568655384
 30
0.0
 10
89.1710352488
 20
560.6365751732
 30
0.0
 10
89.3542263599
 20
560.6771043026
 30
0.0
 10
89.5260671755
 20
560.606123787
 30
0.0
 10
89.6096315181
 20
560.5212299074
 30
0.0
 10
89.6445564516
 20
560.4758610879
 30
0.0
  0
SPLINE
  5
760
100
AcDbEntity
  8
6_ALL_SURFS
100
AcDbSpline
 62
7
  6
CONTINUOUS
 70
0
 71
3
 72
11
 73
7
 74
0
 42
0.0000001
 43
0.0000001
 44
0.0000000001
 40
0.0
 40
0.0
 40
0.0
 40
0.0
 40
0.2446243291
 40
0.5012344938
 40
0.7575065223
 40
1.0
 40
1.0
 40
1.0
 40
1.0
 10
89.6445564516
 20
70.0739372992
 30
0.0
 10
89.6096315181
 20
70.0285684797
 30
0.0
 10
89.5260671755
 20
69.9436746001
 30
0.0
 10
89.3542263599
 20
69.8726940845
 30
0.0
 10
89.1710352488
 20
69.9132232139
 30
0.0
 10
89.0811906858
 20
69.9929328487
 30
0.0
 10
89.0445564516
 20
70.0362820536
 30
0.0
  0
SPLINE
  5
761
100
AcDbEntity
  8
6_ALL_SURFS
100
AcDbSpline
 62
7
  6
CONTINUOUS
 70
0
 71
3
 72
11
 73
7
 74
0
 42
0.0000001
 43
0.0000001
 44
0.0000000001
 40
0.0
 40
0.0
 40
0.0
 40
0.0
 40
0.2424934777
 40
0.4987655062
 40
0.7553756709
 40
1.0
 40
1.0
 40
1.0
 40
1.0
 10
89.0445564516
 20
310.5135163335
 30
0.0
 10
89.0811906858
 20
310.5568655384
 30
0.0
 10
89.1710352488
 20
310.6365751732
 30
0.0
 10
89.3542263599
 20
310.6771043026
 30
0.0
 10
89.5260671755
 20
310.606123787
 30
0.0
 10
89.6096315181
 20
310.5212299074
 30
0.0
 10
89.6445564516
 20
310.4758610879
 30
0.0
  0
SPLINE
  5
762
100
AcDbEntity
  8
6_ALL_SURFS
100
AcDbSpline
 62
7
  6
CONTINUOUS
 70
0
 71
3
 72
11
 73
7
 74
0
 42
0.0000001
 43
0.0000001
 44
0.0000000001
 40
0.0
 40
0.0
 40
0.0
 40
0.0
 40
0.2424934777
 40
0.4987655062
 40
0.7553756709
 40
1.0
 40
1.0
 40
1.0
 40
1.0
 10
89.0445564516
 20
60.5135163335
 30
0.0
 10
89.0811906858
 20
60.5568655384
 30
0.0
 10
89.1710352488
 20
60.6365751732
 30
0.0
 10
89.3542263599
 20
60.6771043026
 30
0.0
 10
89.5260671755
 20
60.606123787
 30
0.0
 10
89.6096315181
 20
60.5212299074
 30
0.0
 10
89.6445564516
 20
60.4758610879
 30
0.0
  0
SPLINE
  5
763
100
AcDbEntity
  8
6_ALL_SURFS
100
AcDbSpline
 62
7
  6
CONTINUOUS
 70
0
 71
3
 72
13
 73
9
 74
0
 42
0.0000001
 43
0.0000001
 44
0.0000000001
 40
0.0
 40
0.0
 40
0.0
 40
0.0
 40
0.1142402995
 40
0.2356684165
 40
0.3641485376
 40
0.4940030118
 40
0.7498496516
 40
1.0
 40
1.0
 40
1.0
 40
1.0
 10
92.6445564516
 20
569.0206657025
 30
0.0
 10
92.6206678562
 20
569.0000400433
 30
0.0
 10
92.5620628598
 20
568.9655652227
 30
0.0
 10
92.4567614471
 20
568.9675012141
 30
0.0
 10
92.3609045976
 20
569.0146968927
 30
0.0
 10
92.2512161914
 20
569.1059328985
 30
0.0
 10
92.1424982706
 20
569.2459768167
 30
0.0
 10
92.0745286757
 20
569.3684399576
 30
0.0
 10
92.0445564516
 20
569.4307103947
 30
0.0
  0
SPLINE
  5
764
100
AcDbEntity
  8
6_ALL_SURFS
100
AcDbSpline
 62
7
  6
CONTINUOUS
 70
0
 71
3
 72
13
 73
9
 74
0
 42
0.0000001
 43
0.0000001
 44
0.0000000001
 40
0.0
 40
0.0
 40
0.0
 40
0.0
 40
0.1142402995
 40
0.2356684165
 40
0.3641485376
 40
0.4940030118
 40
0.7498496516
 40
1.0
 40
1.0
 40
1.0
 40
1.0
 10
92.6445564516
 20
319.0206657025
 30
0.0
 10
92.6206678562
 20
319.0000400433
 30
0.0
 10
92.5620628598
 20
318.9655652227
 30
0.0
 10
92.4567614471
 20
318.9675012141
 30
0.0
 10
92.3609045976
 20
319.0146968927
 30
0.0
 10
92.2512161914
 20
319.1059328985
 30
0.0
 10
92.1424982706
 20
319.2459768167
 30
0.0
 10
92.0745286757
 20
319.3684399576
 30
0.0
 10
92.0445564516
 20
319.4307103947
 30
0.0
  0
SPLINE
  5
765
100
AcDbEntity
  8
6_ALL_SURFS
100
AcDbSpline
 62
7
  6
CONTINUOUS
 70
0
 71
3
 72
13
 73
9
 74
0
 42
0.0000001
 43
0.0000001
 44
0.0000000001
 40
0.0
 40
0.0
 40
0.0
 40
0.0
 40
0.2501525934
 40
0.5060012853
 40
0.6358569015
 40
0.7643379363
 40
0.8857625293
 40
1.0
 40
1.0
 40
1.0
 40
1.0
 10
92.0445564516
 20
561.1190879924
 30
0.0
 10
92.0745289517
 20
561.1813590028
 30
0.0
 10
92.1424991569
 20
561.3038232314
 30
0.0
 10
92.2512187198
 20
561.443867883
 30
0.0
 10
92.3609082934
 20
561.5351042595
 30
0.0
 10
92.4567656463
 20
561.5822987287
 30
0.0
 10
92.5620653685
 20
561.5842318666
 30
0.0
 10
92.6206684422
 20
561.5497578379
 30
0.0
 10
92.6445564516
 20
561.5291326846
 30
0.0
  0
SPLINE
  5
766
100
AcDbEntity
  8
6_ALL_SURFS
100
AcDbSpline
 62
7
  6
CONTINUOUS
 70
0
 71
3
 72
13
 73
9
 74
0
 42
0.0000001
 43
0.0000001
 44
0.0000000001
 40
0.0
 40
0.0
 40
0.0
 40
0.0
 40
0.1142402995
 40
0.2356684165
 40
0.3641485376
 40
0.4940030118
 40
0.7498496516
 40
1.0
 40
1.0
 40
1.0
 40
1.0
 10
92.6445564516
 20
69.0206657025
 30
0.0
 10
92.6206678562
 20
69.0000400433
 30
0.0
 10
92.5620628598
 20
68.9655652227
 30
0.0
 10
92.4567614471
 20
68.9675012141
 30
0.0
 10
92.3609045976
 20
69.0146968927
 30
0.0
 10
92.2512161914
 20
69.1059328985
 30
0.0
 10
92.1424982706
 20
69.2459768167
 30
0.0
 10
92.0745286757
 20
69.3684399576
 30
0.0
 10
92.0445564516
 20
69.4307103947
 30
0.0
  0
SPLINE
  5
767
100
AcDbEntity
  8
6_ALL_SURFS
100
AcDbSpline
 62
7
  6
CONTINUOUS
 70
0
 71
3
 72
13
 73
9
 74
0
 42
0.0000001
 43
0.0000001
 44
0.0000000001
 40
0.0
 40
0.0
 40
0.0
 40
0.0
 40
0.2501525934
 40
0.5060012853
 40
0.6358569015
 40
0.7643379363
 40
0.8857625293
 40
1.0
 40
1.0
 40
1.0
 40
1.0
 10
92.0445564516
 20
311.1190879924
 30
0.0
 10
92.0745289517
 20
311.1813590028
 30
0.0
 10
92.1424991569
 20
311.3038232314
 30
0.0
 10
92.2512187198
 20
311.443867883
 30
0.0
 10
92.3609082934
 20
311.5351042595
 30
0.0
 10
92.4567656463
 20
311.5822987287
 30
0.0
 10
92.5620653685
 20
311.5842318666
 30
0.0
 10
92.6206684422
 20
311.5497578379
 30
0.0
 10
92.6445564516
 20
311.5291326846
 30
0.0
  0
SPLINE
  5
768
100
AcDbEntity
  8
6_ALL_SURFS
100
AcDbSpline
 62
7
  6
CONTINUOUS
 70
0
 71
3
 72
13
 73
9
 74
0
 42
0.0000001
 43
0.0000001
 44
0.0000000001
 40
0.0
 40
0.0
 40
0.0
 40
0.0
 40
0.2501525934
 40
0.5060012853
 40
0.6358569015
 40
0.7643379363
 40
0.8857625293
 40
1.0
 40
1.0
 40
1.0
 40
1.0
 10
92.0445564516
 20
61.1190879924
 30
0.0
 10
92.0745289517
 20
61.1813590028
 30
0.0
 10
92.1424991569
 20
61.3038232314
 30
0.0
 10
92.2512187198
 20
61.443867883
 30
0.0
 10
92.3609082934
 20
61.5351042595
 30
0.0
 10
92.4567656463
 20
61.5822987287
 30
0.0
 10
92.5620653685
 20
61.5842318666
 30
0.0
 10
92.6206684422
 20
61.5497578379
 30
0.0
 10
92.6445564516
 20
61.5291326846
 30
0.0
  0
ELLIPSE
  5
769
100
AcDbEntity
  8
7_ALL_FEATURES
100
AcDbEllipse
 62
7
  6
CONTINUOUS
 10
400.0663306452
 20
588.3283818964
 30
0.0
 11
5.4882058378
 21
-0.0
 31
0.0
 40
0.1015346165
 41
7.212646077
 42
8.495317191
  0
ELLIPSE
  5
76A
100
AcDbEntity
  8
7_ALL_FEATURES
100
AcDbEllipse
 62
7
  6
CONTINUOUS
 10
900.0663306452
 20
588.3283818964
 30
0.0
 11
5.4882058378
 21
0.0
 31
0.0
 40
0.1015346165
 41
7.212646077
 42
8.495317191
  0
ELLIPSE
  5
76B
100
AcDbEntity
  8
7_ALL_FEATURES
100
AcDbEllipse
 62
7
  6
CONTINUOUS
 10
650.0663306452
 20
588.3283818964
 30
0.0
 11
5.4882058378
 21
0.0
 31
0.0
 40
0.1015346165
 41
7.212646077
 42
8.495317191
  0
ELLIPSE
  5
76C
100
AcDbEntity
  8
7_ALL_FEATURES
100
AcDbEllipse
 62
7
  6
CONTINUOUS
 10
650.0663306452
 20
591.5748991935
 30
0.0
 11
3.5
 21
0.0
 31
0.0
 40
0.5
 41
4.3726964042
 42
5.0520815566
  0
ELLIPSE
  5
76D
100
AcDbEntity
  8
7_ALL_FEATURES
100
AcDbEllipse
 62
7
  6
CONTINUOUS
 10
900.0663306452
 20
591.5748991935
 30
0.0
 11
3.5
 21
0.0
 31
0.0
 40
0.5
 41
4.3726964042
 42
5.0520815566
  0
ELLIPSE
  5
76E
100
AcDbEntity
  8
7_ALL_FEATURES
100
AcDbEllipse
 62
7
  6
CONTINUOUS
 10
400.0663306452
 20
591.5748991935
 30
0.0
 11
3.5
 21
0.0
 31
0.0
 40
0.5
 41
-1.910488903
 42
-1.2311037506
  0
ELLIPSE
  5
76F
100
AcDbEntity
  8
6_ALL_SURFS
100
AcDbEllipse
 62
7
  6
CONTINUOUS
 10
373.7663306452
 20
315.2748991935
 30
0.0
 11
0.0
 21
3.5
 31
0.0
 40
0.5
 41
-1.910488903
 42
-1.2311037506
  0
ELLIPSE
  5
770
100
AcDbEntity
  8
6_ALL_SURFS
100
AcDbEllipse
 62
7
  6
CONTINUOUS
 10
373.7663306452
 20
65.2748991935
 30
0.0
 11
-0.0
 21
3.5
 31
0.0
 40
0.5
 41
-1.910488903
 42
-1.2311037506
  0
ELLIPSE
  5
771
100
AcDbEntity
  8
6_ALL_SURFS
100
AcDbEllipse
 62
7
  6
CONTINUOUS
 10
373.7663306452
 20
565.2748991935
 30
0.0
 11
-0.0
 21
3.5
 31
0.0
 40
0.5
 41
-1.910488903
 42
-1.2311037506
  0
ELLIPSE
  5
772
100
AcDbEntity
  8
6_ALL_SURFS
100
AcDbEllipse
 62
7
  6
CONTINUOUS
 10
377.0128479423
 20
65.2748991935
 30
0.0
 11
0.0
 21
5.4882058378
 31
0.0
 40
0.1015346165
 41
0.9294607698
 42
2.2121318838
  0
ELLIPSE
  5
773
100
AcDbEntity
  8
6_ALL_SURFS
100
AcDbEllipse
 62
7
  6
CONTINUOUS
 10
377.0128479423
 20
315.2748991935
 30
0.0
 11
0.0
 21
5.4882058378
 31
0.0
 40
0.1015346165
 41
0.9294607698
 42
2.2121318838
  0
ELLIPSE
  5
774
100
AcDbEntity
  8
6_ALL_SURFS
100
AcDbEllipse
 62
7
  6
CONTINUOUS
 10
377.0128479423
 20
565.2748991935
 30
0.0
 11
-0.0
 21
5.4882058378
 31
0.0
 40
0.1015346165
 41
0.9294607698
 42
2.2121318838
  0
ELLIPSE
  5
775
100
AcDbEntity
  8
7_ALL_FEATURES
100
AcDbEllipse
 62
7
  6
CONTINUOUS
 10
400.0663306452
 20
799.9643633185
 30
0.0
 11
0.0
 21
5.5724287509
 31
0.0
 40
0.9848857802
 41
5.6418497502
 42
6.9245208642
  0
ELLIPSE
  5
776
100
AcDbEntity
  8
7_ALL_FEATURES
100
AcDbEllipse
 62
7
  6
CONTINUOUS
 10
900.0663306452
 20
799.9643633185
 30
0.0
 11
0.0
 21
5.5724287509
 31
0.0
 40
0.9848857802
 41
5.6418497502
 42
6.9245208642
  0
ELLIPSE
  5
777
100
AcDbEntity
  8
7_ALL_FEATURES
100
AcDbEllipse
 62
7
  6
CONTINUOUS
 10
650.0663306452
 20
799.9643633185
 30
0.0
 11
-0.0
 21
5.5724287509
 31
0.0
 40
0.9848857802
 41
5.6418497502
 42
6.9245208642
  0
ELLIPSE
  5
778
100
AcDbEntity
  8
6_ALL_SURFS
100
AcDbEllipse
 62
7
  6
CONTINUOUS
 10
900.0663306452
 20
731.7947092621
 30
0.0
 11
0.0
 21
5.5724287509
 31
0.0
 40
0.9848857802
 41
-3.7829282106
 42
-2.5002570966
  0
ELLIPSE
  5
779
100
AcDbEntity
  8
6_ALL_SURFS
100
AcDbEllipse
 62
7
  6
CONTINUOUS
 10
650.0663306452
 20
731.7947092621
 30
0.0
 11
-0.0
 21
5.5724287509
 31
0.0
 40
0.9848857802
 41
-3.7829282106
 42
-2.5002570966
  0
ELLIPSE
  5
77A
100
AcDbEntity
  8
6_ALL_SURFS
100
AcDbEllipse
 62
7
  6
CONTINUOUS
 10
400.0663306452
 20
731.7947092621
 30
0.0
 11
-0.0
 21
5.5724287509
 31
0.0
 40
0.9848857802
 41
2.5002570966
 42
3.7829282106
  0
ELLIPSE
  5
77B
100
AcDbEntity
  8
7_ALL_FEATURES
100
AcDbEllipse
 62
7
  6
CONTINUOUS
 10
158.7793834798
 20
565.2748991935
 30
0.0
 11
5.5724287509
 21
-0.0
 31
0.0
 40
0.9848857802
 41
5.6418497502
 42
6.9245208642
  0
ELLIPSE
  5
77C
100
AcDbEntity
  8
7_ALL_FEATURES
100
AcDbEllipse
 62
7
  6
CONTINUOUS
 10
158.7793834798
 20
65.2748991935
 30
0.0
 11
5.5724287509
 21
0.0
 31
0.0
 40
0.9848857802
 41
5.6418497502
 42
6.9245208642
  0
ELLIPSE
  5
77D
100
AcDbEntity
  8
7_ALL_FEATURES
100
AcDbEllipse
 62
7
  6
CONTINUOUS
 10
158.7793834798
 20
315.2748991935
 30
0.0
 11
5.5724287509
 21
0.0
 31
0.0
 40
0.9848857802
 41
5.6418497502
 42
6.9245208642
  0
ELLIPSE
  5
77E
100
AcDbEntity
  8
6_ALL_SURFS
100
AcDbEllipse
 62
7
  6
CONTINUOUS
 10
90.6097294234
 20
65.2748991935
 30
0.0
 11
5.5724287509
 21
0.0
 31
0.0
 40
0.9848857802
 41
2.5002570966
 42
3.7829282106
  0
ELLIPSE
  5
77F
100
AcDbEntity
  8
6_ALL_SURFS
100
AcDbEllipse
 62
7
  6
CONTINUOUS
 10
90.6097294234
 20
315.2748991935
 30
0.0
 11
5.5724287509
 21
0.0
 31
0.0
 40
0.9848857802
 41
2.5002570966
 42
3.7829282106
  0
ELLIPSE
  5
780
100
AcDbEntity
  8
6_ALL_SURFS
100
AcDbEllipse
 62
7
  6
CONTINUOUS
 10
90.6097294234
 20
565.2748991935
 30
0.0
 11
5.5724287509
 21
0.0
 31
0.0
 40
0.9848857802
 41
8.7834424038
 42
10.0661135178
  0
ENDSEC
  0
SECTION
  2
OBJECTS
  0
DICTIONARY
  5
781
100
AcDbDictionary
  3
ACAD_GROUP
350
782
  3
ACAD_MLINESTYLE
350
783
  0
DICTIONARY
  5
782
102
{ACAD_REACTORS
330
781
102
}
100
AcDbDictionary
  0
DICTIONARY
  5
783
102
{ACAD_REACTORS
330
781
102
}
100
AcDbDictionary
  3
STANDARD
350
784
  0
MLINESTYLE
  5
784
102
{ACAD_REACTORS
330
783
102
}
100
AcDbMlineStyle
  2
STANDARD
 70
0
  3

 62
256
 51
90.0
 52
90.0
 71
2
 49
0.5
 62
256
  6
BYLAYER
 49
-0.5
 62
256
  6
BYLAYER
  0
ENDSEC
  0
EOF
