999
DXF file: 6f3_c_460.dxf
999
Pro/ENGINEER 2016360 by Parametric Technology Corporation
  0
SECTION
  2
HEADER
  9
$ACADVER
  1
AC1014
  9
$DWGCODEPAGE
  3
ANSI_1252
  9
$EXTMAX
 10
1189.0
 20
841.0
 30
0.0
  9
$EXTMIN
 10
0.0
 20
0.0
 30
0.0
  9
$LIMMIN
 10
0.0
 20
0.0
  9
$LIMMAX
 10
1189.0
 20
841.0
  9
$VIEWCTR
 10
594.5
 20
420.5
  9
$VIEWSIZE
 40
841.0
  9
$CLAYER
  8
0
  9
$LTSCALE
 40
65.395
  9
$CELTYPE
  6
BYLAYER
  9
$DIMSCALE
 40
1.0
  9
$DIMASZ
 40
2.5
  9
$DIMEXO
 40
0.75
  9
$DIMDLI
 40
45.182
  9
$DIMEXE
 40
0.75
  9
$DIMCEN
 40
10.701
  9
$DIMLFAC
 40
1.0
  9
$DIMBLK
  1
_CLOSED
  9
$DIMALT
 70
0
  9
$DIMALTF
 40
25.4
  9
$DIMTXT
 40
3.0
  9
$DIMTOL
 70
1
  9
$DIMLIM
 70
0
  9
$DIMTFAC
 40
1.0
  9
$DIMTP
 40
0.01
  9
$DIMTM
 40
0.01
  9
$DIMGAP
 40
0.625
  9
$AUNITS
 70
0
  9
$PDMODE
 70
3
  9
$PDSIZE
 40
0.3125
  9
$HANDSEED
  5
7A1
  9
$TILEMODE
 70
1
  9
$MEASUREMENT
 70
1
  0
ENDSEC
  0
SECTION
  2
CLASSES
  0
ENDSEC
  0
SECTION
  2
TABLES
  0
TABLE
  2
VPORT
  5
8
100
AcDbSymbolTable
 70
2
  0
VPORT
  5
1F4
100
AcDbSymbolTableRecord
100
AcDbViewportTableRecord
  2
*ACTIVE
 70
0
 10
0.0
 20
0.0
 11
1.0
 21
1.0
 12
594.5
 22
420.5
 13
0.0
 23
0.0
 14
1.0
 24
1.0
 15
0.0
 25
0.0
 16
0.0
 26
0.0
 36
1.0
 17
0.0
 27
0.0
 37
0.0
 40
841.0
 41
1.4137931034
 42
50.0
 43
0.0
 44
0.0
 50
0.0
 51
0.0
 71
0
 72
100
 73
1
 74
1
 75
0
 76
0
 77
0
 78
0
  0
ENDTAB
  0
TABLE
  2
LTYPE
  5
5
100
AcDbSymbolTable
 70
6
  0
LTYPE
  5
14
100
AcDbSymbolTableRecord
100
AcDbLinetypeTableRecord
  2
BYBLOCK
 70
0
  3

 72
65
 73
0
 40
0.0
  0
LTYPE
  5
15
100
AcDbSymbolTableRecord
100
AcDbLinetypeTableRecord
  2
BYLAYER
 70
0
  3

 72
65
 73
0
 40
0.0
  0
LTYPE
  5
16
100
AcDbSymbolTableRecord
100
AcDbLinetypeTableRecord
  2
CONTINUOUS
 70
64
  3
Solid line
 72
65
 73
0
 40
0.0
  0
LTYPE
  5
1F5
100
AcDbSymbolTableRecord
100
AcDbLinetypeTableRecord
  2
CENTER
 70
64
  3
____ _ ____ _ ____ _ ____ _ ____ _ ____ _ ____
 72
65
 73
4
 40
0.6
 49
0.375
 74
0
 49
-0.075
 74
0
 49
0.075
 74
0
 49
-0.075
 74
0
  0
LTYPE
  5
1F6
100
AcDbSymbolTableRecord
100
AcDbLinetypeTableRecord
  2
HIDDEN
 70
64
  3
- - - - - - - - - - - - - - - - - - - -
 72
65
 73
2
 40
0.2
 49
0.1
 74
0
 49
-0.1
 74
0
  0
LTYPE
  5
1F7
100
AcDbSymbolTableRecord
100
AcDbLinetypeTableRecord
  2
PHANTOM
 70
64
  3
_____ _ _ _____ _ _ _____ _ _ _____
 72
65
 73
6
 40
0.8
 49
0.45
 74
0
 49
-0.05
 74
0
 49
0.1
 74
0
 49
-0.05
 74
0
 49
0.1
 74
0
 49
-0.05
 74
0
  0
LTYPE
  5
1F8
100
AcDbSymbolTableRecord
100
AcDbLinetypeTableRecord
  2
DOT
 70
64
  3
. . . . . . . . . . . . . . . . . . . .
 72
65
 73
2
 40
0.2
 49
0.1
 74
0
 49
-0.1
 74
0
  0
LTYPE
  5
1F9
100
AcDbSymbolTableRecord
100
AcDbLinetypeTableRecord
  2
DASHED
 70
64
  3
- - - - - - - - - - - - - - - - - - - -
 72
65
 73
2
 40
0.2
 49
0.1
 74
0
 49
-0.1
 74
0
  0
ENDTAB
  0
TABLE
  2
LAYER
  5
2
100
AcDbSymbolTable
 70
36
  0
LAYER
  5
10
100
AcDbSymbolTableRecord
100
AcDbLayerTableRecord
  2
0
 70
0
 62
7
  6
CONTINUOUS
  0
LAYER
  5
1FA
100
AcDbSymbolTableRecord
100
AcDbLayerTableRecord
  2
DEFAULT_1
 70
0
 62
7
  6
CENTER
  0
LAYER
  5
1FB
100
AcDbSymbolTableRecord
100
AcDbLayerTableRecord
  2
DEFAULT_2
 70
0
 62
8
  6
HIDDEN
  0
LAYER
  5
1FC
100
AcDbSymbolTableRecord
100
AcDbLayerTableRecord
  2
DEFAULT_3
 70
0
 62
7
  6
PHANTOM
  0
LAYER
  5
1FD
100
AcDbSymbolTableRecord
100
AcDbLayerTableRecord
  2
1_ALL_PLANES
 70
0
 62
7
  6
CONTINUOUS
  0
LAYER
  5
1FE
100
AcDbSymbolTableRecord
100
AcDbLayerTableRecord
  2
2_ALL_CSYS
 70
0
 62
7
  6
CONTINUOUS
  0
LAYER
  5
1FF
100
AcDbSymbolTableRecord
100
AcDbLayerTableRecord
  2
3_ALL_AXES
 70
0
 62
7
  6
CONTINUOUS
  0
LAYER
  5
200
100
AcDbSymbolTableRecord
100
AcDbLayerTableRecord
  2
4_ALL_POINTS
 70
0
 62
7
  6
CONTINUOUS
  0
LAYER
  5
201
100
AcDbSymbolTableRecord
100
AcDbLayerTableRecord
  2
5_ALL_CURVES
 70
0
 62
7
  6
CONTINUOUS
  0
LAYER
  5
202
100
AcDbSymbolTableRecord
100
AcDbLayerTableRecord
  2
5__COSTRUZIONE
 70
0
 62
7
  6
CONTINUOUS
  0
LAYER
  5
203
100
AcDbSymbolTableRecord
100
AcDbLayerTableRecord
  2
6_ALL_SURFS
 70
0
 62
7
  6
CONTINUOUS
  0
LAYER
  5
204
100
AcDbSymbolTableRecord
100
AcDbLayerTableRecord
  2
7_ALL_FEATURES
 70
0
 62
7
  6
CONTINUOUS
  0
LAYER
  5
205
100
AcDbSymbolTableRecord
100
AcDbLayerTableRecord
  2
9_SOLID
 70
0
 62
7
  6
CONTINUOUS
  0
LAYER
  5
206
100
AcDbSymbolTableRecord
100
AcDbLayerTableRecord
  2
PR9035
 70
0
 62
7
  6
CONTINUOUS
  0
LAYER
  5
207
100
AcDbSymbolTableRecord
100
AcDbLayerTableRecord
  2
WHITE
 70
0
 62
7
  6
CONTINUOUS
  0
LAYER
  5
208
100
AcDbSymbolTableRecord
100
AcDbLayerTableRecord
  2
XXX_SOLIDO
 70
0
 62
7
  6
CONTINUOUS
  0
ENDTAB
  0
TABLE
  2
STYLE
  5
3
100
AcDbSymbolTable
 70
1
  0
STYLE
  5
11
100
AcDbSymbolTableRecord
100
AcDbTextStyleTableRecord
  2
STANDARD
 70
0
 40
0.0
 41
1.0
 50
0.0
 71
0
 42
0.2
  3
arial.ttf
  4

  0
STYLE
  5
209
100
AcDbSymbolTableRecord
100
AcDbTextStyleTableRecord
  2
TEXTSTYLE_1
 70
0
 40
0.0
 41
0.8
 50
0.0
 71
0
 42
0.2
  3
gdt
  4

  0
STYLE
  5
20A
100
AcDbSymbolTableRecord
100
AcDbTextStyleTableRecord
  2
TEXTSTYLE_2
 70
0
 40
0.0
 41
0.85
 50
0.0
 71
0
 42
0.2
  3
txt
  4

  0
ENDTAB
  0
TABLE
  2
VIEW
  5
6
100
AcDbSymbolTable
 70
0
  0
ENDTAB
  0
TABLE
  2
UCS
  5
7
100
AcDbSymbolTable
 70
0
  0
ENDTAB
  0
TABLE
  2
APPID
  5
9
100
AcDbSymbolTable
 70
1
  0
APPID
  5
20B
100
AcDbSymbolTableRecord
100
AcDbRegAppTableRecord
  2
ACAD
 70
0
  0
ENDTAB
  0
TABLE
  2
BLOCK_RECORD
  5
1
100
AcDbSymbolTable
 70
0
  0
BLOCK_RECORD
  5
1F
100
AcDbSymbolTableRecord
100
AcDbBlockTableRecord
  2
*MODEL_SPACE
  0
BLOCK_RECORD
  5
1B
100
AcDbSymbolTableRecord
100
AcDbBlockTableRecord
  2
*PAPER_SPACE
  0
BLOCK_RECORD
  5
20C
100
AcDbSymbolTableRecord
100
AcDbBlockTableRecord
  2
_CLOSED
  0
BLOCK_RECORD
  5
20D
100
AcDbSymbolTableRecord
100
AcDbBlockTableRecord
  2
*D0
  0
BLOCK_RECORD
  5
20E
100
AcDbSymbolTableRecord
100
AcDbBlockTableRecord
  2
*D1
  0
BLOCK_RECORD
  5
20F
100
AcDbSymbolTableRecord
100
AcDbBlockTableRecord
  2
*D2
  0
BLOCK_RECORD
  5
210
100
AcDbSymbolTableRecord
100
AcDbBlockTableRecord
  2
LOGO2_BL0
  0
ENDTAB
  0
TABLE
  2
DIMSTYLE
  5
A
100
AcDbSymbolTable
 70
1
  0
DIMSTYLE
105
211
100
AcDbSymbolTableRecord
100
AcDbDimStyleTableRecord
  2
STANDARD
 70
0
  3

  4

  5
_CLOSED
  6
_CLOSED
  7
_CLOSED
 40
1.0
 41
2.5
 42
0.75
 43
0.38
 44
0.75
 45
0.0
 46
0.0
 47
0.01
 48
0.01
140
3.0
141
0.09
142
0.0
143
25.4
144
1.0
145
0.0
146
1.0
147
0.625
 71
1.0
 72
0.0
 73
0
 74
0
 75
0
 76
0
 77
1
 78
8
 79
2
170
0
171
1
172
0
173
0
174
0
175
0
176
0
177
0
178
0
270
2
179
2
271
2
272
2
273
2
274
2
275
0
280
0
281
0
282
0
283
1
284
8
285
0
286
0
287
3
288
0
340
11
  0
DIMSTYLE
105
212
100
AcDbSymbolTableRecord
100
AcDbDimStyleTableRecord
  2
DIMSTYLE_1
 70
0
  3

  4

  5
_CLOSED
  6
_CLOSED
  7
_CLOSED
 40
1.0
 41
2.5
 42
0.75
 43
0.38
 44
0.75
 45
0.0
 46
0.0
 47
0.8
 48
0.8
140
10.0
141
0.09
142
0.0
143
25.4
144
1.0
145
0.0
146
1.0
147
2.5
 71
0.0
 72
0.0
 73
0
 74
0
 75
0
 76
0
 77
1
 78
8
 79
2
170
0
171
1
172
0
173
0
174
0
175
0
176
0
177
0
178
0
270
2
179
2
271
2
272
2
273
2
274
2
275
0
280
0
281
0
282
0
283
1
284
8
285
0
286
0
287
3
288
0
340
11
  0
DIMSTYLE
105
213
100
AcDbSymbolTableRecord
100
AcDbDimStyleTableRecord
  2
DIMSTYLE_2
 70
0
  3

  4

  5
_CLOSED
  6
_CLOSED
  7
_CLOSED
 40
1.0
 41
2.5
 42
0.75
 43
0.38
 44
0.75
 45
0.0
 46
0.0
 47
0.3
 48
0.3
140
10.0
141
0.09
142
0.0
143
25.4
144
1.0
145
0.0
146
1.0
147
2.5
 71
0.0
 72
0.0
 73
0
 74
0
 75
0
 76
0
 77
1
 78
8
 79
2
170
0
171
1
172
0
173
0
174
0
175
0
176
0
177
0
178
0
270
2
179
2
271
2
272
2
273
2
274
2
275
0
280
0
281
0
282
0
283
1
284
8
285
0
286
0
287
3
288
0
340
11
  0
ENDTAB
  0
ENDSEC
  0
SECTION
  2
BLOCKS
  0
BLOCK
  5
20
100
AcDbEntity
  8
0
100
AcDbBlockBegin
  2
*MODEL_SPACE
 70
0
 10
0.0
 20
0.0
 30
0.0
  3
*MODEL_SPACE
  1

  0
ENDBLK
  5
21
100
AcDbEntity
  8
0
100
AcDbBlockEnd
  0
BLOCK
  5
1C
100
AcDbEntity
  8
0
100
AcDbBlockBegin
  2
*PAPER_SPACE
 70
0
 10
0.0
 20
0.0
 30
0.0
  3
*PAPER_SPACE
  1

  0
ENDBLK
  5
1D
100
AcDbEntity
  8
0
100
AcDbBlockEnd
  0
BLOCK
  5
214
100
AcDbEntity
  8
0
100
AcDbBlockBegin
 62
2
  6
CONTINUOUS
  2
LOGO2_BL0
 70
64
 10
1058.4738063458
 20
37.7204939402
  3
LOGO2_BL0
  1

  0
LINE
  5
215
100
AcDbEntity
  8
0
100
AcDbLine
 62
7
  6
CONTINUOUS
 10
1050.216731574
 20
40.9159852791
 11
1048.9123906446
 21
40.9159852791
  0
LINE
  5
216
100
AcDbEntity
  8
0
100
AcDbLine
 62
7
  6
CONTINUOUS
 10
1048.9123906446
 20
40.9159852791
 11
1048.9123906446
 21
30.4569192192
  0
LINE
  5
217
100
AcDbEntity
  8
0
100
AcDbLine
 62
7
  6
CONTINUOUS
 10
1048.9123906446
 20
30.4569192192
 11
1053.3934455329
 21
30.4569192192
  0
LINE
  5
218
100
AcDbEntity
  8
0
100
AcDbLine
 62
7
  6
CONTINUOUS
 10
1053.3934455329
 20
30.4569192192
 11
1053.3934455329
 21
31.6497735443
  0
LINE
  5
219
100
AcDbEntity
  8
0
100
AcDbLine
 62
7
  6
CONTINUOUS
 10
1053.3934455329
 20
31.6497735443
 11
1050.216731574
 21
31.6497735443
  0
LINE
  5
21A
100
AcDbEntity
  8
0
100
AcDbLine
 62
7
  6
CONTINUOUS
 10
1050.216731574
 20
31.6497735443
 11
1050.216731574
 21
40.9159852791
  0
LINE
  5
21B
100
AcDbEntity
  8
0
100
AcDbLine
 62
7
  6
CONTINUOUS
 10
1065.1530577903
 20
40.9159852791
 11
1063.8492402722
 21
40.9159852791
  0
LINE
  5
21C
100
AcDbEntity
  8
0
100
AcDbLine
 62
7
  6
CONTINUOUS
 10
1063.8492402722
 20
40.9159852791
 11
1063.8492402722
 21
30.4569192192
  0
LINE
  5
21D
100
AcDbEntity
  8
0
100
AcDbLine
 62
7
  6
CONTINUOUS
 10
1063.8492402722
 20
30.4569192192
 11
1068.3304260133
 21
30.4569192192
  0
LINE
  5
21E
100
AcDbEntity
  8
0
100
AcDbLine
 62
7
  6
CONTINUOUS
 10
1068.3304260133
 20
30.4569192192
 11
1068.3304260133
 21
31.6497735443
  0
LINE
  5
21F
100
AcDbEntity
  8
0
100
AcDbLine
 62
7
  6
CONTINUOUS
 10
1068.3304260133
 20
31.6497735443
 11
1065.1530577903
 21
31.6497735443
  0
LINE
  5
220
100
AcDbEntity
  8
0
100
AcDbLine
 62
7
  6
CONTINUOUS
 10
1065.1530577903
 20
31.6497735443
 11
1065.1530577903
 21
40.9159852791
  0
LWPOLYLINE
  5
221
100
AcDbEntity
  8
0
100
AcDbPolyline
 62
7
  6
CONTINUOUS
 90
2
 70
0
 43
0.2
 10
1047.2667855556
 20
27.1133679123
 10
1047.2667855556
 20
25.256304663
  0
LWPOLYLINE
  5
222
100
AcDbEntity
  8
0
100
AcDbPolyline
 62
7
  6
CONTINUOUS
 90
2
 70
0
 43
0.2
 10
1047.2667855556
 20
25.256304663
 10
1048.0625015659
 20
25.256304663
  0
LWPOLYLINE
  5
223
100
AcDbEntity
  8
0
100
AcDbPolyline
 62
7
  6
CONTINUOUS
 90
2
 70
0
 43
0.2
 10
1048.0625015659
 20
25.256304663
 10
1048.0625015659
 20
25.4682862346
  0
LWPOLYLINE
  5
224
100
AcDbEntity
  8
0
100
AcDbPolyline
 62
7
  6
CONTINUOUS
 90
2
 70
0
 43
0.2
 10
1048.0625015659
 20
25.4682862346
 10
1047.4983950504
 20
25.4682862346
  0
LWPOLYLINE
  5
225
100
AcDbEntity
  8
0
100
AcDbPolyline
 62
7
  6
CONTINUOUS
 90
2
 70
0
 43
0.2
 10
1047.4983950504
 20
25.4682862346
 10
1047.4983950504
 20
27.1133679123
  0
LWPOLYLINE
  5
226
100
AcDbEntity
  8
0
100
AcDbPolyline
 62
7
  6
CONTINUOUS
 90
2
 70
0
 43
0.2
 10
1047.4983950504
 20
27.1133679123
 10
1047.2667855556
 20
27.1133679123
  0
SPLINE
  5
227
100
AcDbEntity
  8
0
100
AcDbSpline
 62
7
  6
CONTINUOUS
 70
2
 71
3
 72
35
 73
31
 74
0
 42
0.0000001
 43
0.0000001
 44
0.0000000001
 40
0.0
 40
0.0
 40
0.0
 40
0.0
 40
1.0
 40
1.0
 40
1.0
 40
2.0
 40
2.0
 40
2.0
 40
3.0
 40
3.0
 40
3.0
 40
4.0
 40
4.0
 40
4.0
 40
5.0
 40
5.0
 40
5.0
 40
6.0
 40
6.0
 40
6.0
 40
7.0
 40
7.0
 40
7.0
 40
8.0
 40
8.0
 40
8.0
 40
9.0
 40
9.0
 40
9.0
 40
10.0
 40
10.0
 40
10.0
 40
10.0
 10
1049.4607948215
 20
26.4088563189
 30
0.0
 10
1049.4607948215
 20
26.4088563189
 30
0.0
 10
1049.4607948215
 20
25.7467410397
 30
0.0
 10
1049.4607948215
 20
25.7467410397
 30
0.0
 10
1049.4607948215
 20
25.4316474444
 30
0.0
 10
1049.6086585103
 20
25.2170488164
 30
0.0
 10
1049.9487449946
 20
25.2170488164
 30
0.0
 10
1050.2883080676
 20
25.2170488164
 30
0.0
 10
1050.4364334621
 20
25.4316474444
 30
0.0
 10
1050.4364334621
 20
25.7467410397
 30
0.0
 10
1050.4364334621
 20
25.7467410397
 30
0.0
 10
1050.4364334621
 20
26.4088563189
 30
0.0
 10
1050.4364334621
 20
26.4088563189
 30
0.0
 10
1050.4364334621
 20
26.4088563189
 30
0.0
 10
1050.2143762232
 20
26.4088563189
 30
0.0
 10
1050.2143762232
 20
26.4088563189
 30
0.0
 10
1050.2143762232
 20
26.4088563189
 30
0.0
 10
1050.2143762232
 20
25.7718647815
 30
0.0
 10
1050.2143762232
 20
25.7718647815
 30
0.0
 10
1050.2143762232
 20
25.5860537743
 30
0.0
 10
1050.1676617658
 20
25.4232728638
 30
0.0
 10
1049.9487449946
 20
25.4232728638
 30
0.0
 10
1049.7293048122
 20
25.4232728638
 30
0.0
 10
1049.6825903547
 20
25.5860537743
 30
0.0
 10
1049.6825903547
 20
25.7718647815
 30
0.0
 10
1049.6825903547
 20
25.7718647815
 30
0.0
 10
1049.6825903547
 20
26.4088563189
 30
0.0
 10
1049.6825903547
 20
26.4088563189
 30
0.0
 10
1049.6825903547
 20
26.4088563189
 30
0.0
 10
1049.4607948215
 20
26.4088563189
 30
0.0
 10
1049.4607948215
 20
26.4088563189
 30
0.0
  0
SPLINE
  5
228
100
AcDbEntity
  8
0
100
AcDbSpline
 62
7
  6
CONTINUOUS
 70
2
 71
3
 72
35
 73
31
 74
0
 42
0.0000001
 43
0.0000001
 44
0.0000000001
 40
0.0
 40
0.0
 40
0.0
 40
0.0
 40
1.0
 40
1.0
 40
1.0
 40
2.0
 40
2.0
 40
2.0
 40
3.0
 40
3.0
 40
3.0
 40
4.0
 40
4.0
 40
4.0
 40
5.0
 40
5.0
 40
5.0
 40
6.0
 40
6.0
 40
6.0
 40
7.0
 40
7.0
 40
7.0
 40
8.0
 40
8.0
 40
8.0
 40
9.0
 40
9.0
 40
9.0
 40
10.0
 40
10.0
 40
10.0
 40
10.0
 10
1052.8595660193
 20
26.3675068271
 30
0.0
 10
1052.7711095116
 20
26.4188011333
 30
0.0
 10
1052.657660115
 20
26.4439248751
 30
0.0
 10
1052.55402468
 20
26.4439248751
 30
0.0
 10
1052.1991518268
 20
26.4439248751
 30
0.0
 10
1051.9237066366
 20
26.1801255861
 30
0.0
 10
1051.9237066366
 20
25.8226356764
 30
0.0
 10
1051.9237066366
 20
25.4777076377
 30
0.0
 10
1052.2021614417
 20
25.2175722277
 30
0.0
 10
1052.5417245147
 20
25.2175722277
 30
0.0
 10
1052.657660115
 20
25.2175722277
 30
0.0
 10
1052.7584167879
 20
25.2395555018
 30
0.0
 10
1052.8595660193
 20
25.2934668644
 30
0.0
 10
1052.8595660193
 20
25.2934668644
 30
0.0
 10
1052.8595660193
 20
25.5761089599
 30
0.0
 10
1052.8595660193
 20
25.5761089599
 30
0.0
 10
1052.7756893604
 20
25.4829417506
 30
0.0
 10
1052.6721847782
 20
25.4237962751
 30
0.0
 10
1052.5440798655
 20
25.4237962751
 30
0.0
 10
1052.3103767255
 20
25.4237962751
 30
0.0
 10
1052.1451096113
 20
25.5959985888
 30
0.0
 10
1052.1451096113
 20
25.8325804909
 30
0.0
 10
1052.1451096113
 20
26.0445620625
 30
0.0
 10
1052.3128629291
 20
26.2366540051
 30
0.0
 10
1052.5296860551
 20
26.2366540051
 30
0.0
 10
1052.6625016694
 20
26.2366540051
 30
0.0
 10
1052.7711095116
 20
26.1827426425
 30
0.0
 10
1052.8595660193
 20
26.0817242639
 30
0.0
 10
1052.8595660193
 20
26.0817242639
 30
0.0
 10
1052.8595660193
 20
26.3675068271
 30
0.0
 10
1052.8595660193
 20
26.3675068271
 30
0.0
  0
SPLINE
  5
229
100
AcDbEntity
  8
0
100
AcDbSpline
 62
7
  6
CONTINUOUS
 70
2
 71
3
 72
32
 73
28
 74
0
 42
0.0000001
 43
0.0000001
 44
0.0000000001
 40
0.0
 40
0.0
 40
0.0
 40
0.0
 40
1.0
 40
1.0
 40
1.0
 40
2.0
 40
2.0
 40
2.0
 40
3.0
 40
3.0
 40
3.0
 40
4.0
 40
4.0
 40
4.0
 40
5.0
 40
5.0
 40
5.0
 40
6.0
 40
6.0
 40
6.0
 40
7.0
 40
7.0
 40
7.0
 40
8.0
 40
8.0
 40
8.0
 40
9.0
 40
9.0
 40
9.0
 40
9.0
 10
1055.3914372715
 20
25.7959417008
 30
0.0
 10
1055.3914372715
 20
25.7959417008
 30
0.0
 10
1055.3914372715
 20
25.8299634345
 30
0.0
 10
1055.3914372715
 20
25.8299634345
 30
0.0
 10
1055.3914372715
 20
26.1722744167
 30
0.0
 10
1055.2185806937
 20
26.4439248751
 30
0.0
 10
1054.8519310866
 20
26.4439248751
 30
0.0
 10
1054.4803090722
 20
26.4439248751
 30
0.0
 10
1054.2905724803
 20
26.1775085296
 30
0.0
 10
1054.2905724803
 20
25.8226356764
 30
0.0
 10
1054.2905724803
 20
25.4829417506
 30
0.0
 10
1054.5046476971
 20
25.2170488164
 30
0.0
 10
1054.856772641
 20
25.2170488164
 30
0.0
 10
1055.0807926722
 20
25.2170488164
 30
0.0
 10
1055.2829602821
 20
25.332722711
 30
0.0
 10
1055.3914372715
 20
25.5321424117
 30
0.0
 10
1055.3914372715
 20
25.5321424117
 30
0.0
 10
1055.2037943248
 20
25.6389183144
 30
0.0
 10
1055.2037943248
 20
25.6389183144
 30
0.0
 10
1055.1203102244
 20
25.5002143231
 30
0.0
 10
1055.0291058075
 20
25.4143748719
 30
0.0
 10
1054.8595205502
 20
25.4143748719
 30
0.0
 10
1054.6475389786
 20
25.4143748719
 30
0.0
 10
1054.5145925115
 20
25.5991390565
 30
0.0
 10
1054.5122371607
 20
25.7959417008
 30
0.0
 10
1054.5122371607
 20
25.7959417008
 30
0.0
 10
1055.3914372715
 20
25.7959417008
 30
0.0
 10
1055.3914372715
 20
25.7959417008
 30
0.0
  0
SPLINE
  5
22A
100
AcDbEntity
  8
0
100
AcDbSpline
 62
7
  6
CONTINUOUS
 70
2
 71
3
 72
14
 73
10
 74
0
 42
0.0000001
 43
0.0000001
 44
0.0000000001
 40
0.0
 40
0.0
 40
0.0
 40
0.0
 40
1.0
 40
1.0
 40
1.0
 40
2.0
 40
2.0
 40
2.0
 40
3.0
 40
3.0
 40
3.0
 40
3.0
 10
1054.5242756203
 20
25.9634333129
 30
0.0
 10
1054.5518855658
 20
26.1283078686
 30
0.0
 10
1054.6797287728
 20
26.2513095212
 30
0.0
 10
1054.8519310866
 20
26.2513095212
 30
0.0
 10
1055.0291058075
 20
26.2513095212
 30
0.0
 10
1055.1425552041
 20
26.1356356266
 30
0.0
 10
1055.1697725911
 20
25.9634333129
 30
0.0
 10
1055.1697725911
 20
25.9634333129
 30
0.0
 10
1054.5242756203
 20
25.9634333129
 30
0.0
 10
1054.5242756203
 20
25.9634333129
 30
0.0
  0
SPLINE
  5
22B
100
AcDbEntity
  8
0
100
AcDbSpline
 62
7
  6
CONTINUOUS
 70
2
 71
3
 72
20
 73
16
 74
0
 42
0.0000001
 43
0.0000001
 44
0.0000000001
 40
0.0
 40
0.0
 40
0.0
 40
0.0
 40
1.0
 40
1.0
 40
1.0
 40
2.0
 40
2.0
 40
2.0
 40
3.0
 40
3.0
 40
3.0
 40
4.0
 40
4.0
 40
4.0
 40
5.0
 40
5.0
 40
5.0
 40
5.0
 10
1057.4154687217
 20
26.172797828
 30
0.0
 10
1057.4154687217
 20
26.172797828
 30
0.0
 10
1057.8266082883
 20
25.6703229917
 30
0.0
 10
1057.8266082883
 20
25.6703229917
 30
0.0
 10
1057.7105418353
 20
25.5546490971
 30
0.0
 10
1057.5727538137
 20
25.4243196864
 30
0.0
 10
1057.4008132057
 20
25.4243196864
 30
0.0
 10
1057.2233767791
 20
25.4243196864
 30
0.0
 10
1057.055885167
 20
25.5886708308
 30
0.0
 10
1057.055885167
 20
25.7655838461
 30
0.0
 10
1057.055885167
 20
25.9435436839
 30
0.0
 10
1057.2656422406
 20
26.0696858043
 30
0.0
 10
1057.393223742
 20
26.1576189007
 30
0.0
 10
1057.393223742
 20
26.1576189007
 30
0.0
 10
1057.4154687217
 20
26.172797828
 30
0.0
 10
1057.4154687217
 20
26.172797828
 30
0.0
  0
SPLINE
  5
22C
100
AcDbEntity
  8
0
100
AcDbSpline
 62
7
  6
CONTINUOUS
 70
2
 71
3
 72
23
 73
19
 74
0
 42
0.0000001
 43
0.0000001
 44
0.0000000001
 40
0.0
 40
0.0
 40
0.0
 40
0.0
 40
1.0
 40
1.0
 40
1.0
 40
2.0
 40
2.0
 40
2.0
 40
3.0
 40
3.0
 40
3.0
 40
4.0
 40
4.0
 40
4.0
 40
5.0
 40
5.0
 40
5.0
 40
6.0
 40
6.0
 40
6.0
 40
6.0
 10
1057.4648002356
 20
26.4638145041
 30
0.0
 10
1057.4648002356
 20
26.4638145041
 30
0.0
 10
1057.4031685565
 20
26.5423261973
 30
0.0
 10
1057.4031685565
 20
26.5423261973
 30
0.0
 10
1057.3492571938
 20
26.610893076
 30
0.0
 10
1057.2924670691
 20
26.679983366
 30
0.0
 10
1057.2924670691
 20
26.7736739865
 30
0.0
 10
1057.2924670691
 20
26.8924883488
 30
0.0
 10
1057.3883821876
 20
26.9699532195
 30
0.0
 10
1057.4993453806
 20
26.9699532195
 30
0.0
 10
1057.6226087389
 20
26.9699532195
 30
0.0
 10
1057.715906801
 20
26.8987692843
 30
0.0
 10
1057.715906801
 20
26.7684398736
 30
0.0
 10
1057.715906801
 20
26.6333997614
 30
0.0
 10
1057.5878018882
 20
26.5569817133
 30
0.0
 10
1057.4942421205
 20
26.4831807217
 30
0.0
 10
1057.4942421205
 20
26.4831807217
 30
0.0
 10
1057.4648002356
 20
26.4638145041
 30
0.0
 10
1057.4648002356
 20
26.4638145041
 30
0.0
  0
SPLINE
  5
22D
100
AcDbEntity
  8
0
100
AcDbSpline
 62
7
  6
CONTINUOUS
 70
2
 71
3
 72
50
 73
46
 74
0
 42
0.0000001
 43
0.0000001
 44
0.0000000001
 40
0.0
 40
0.0
 40
0.0
 40
0.0
 40
1.0
 40
1.0
 40
1.0
 40
2.0
 40
2.0
 40
2.0
 40
3.0
 40
3.0
 40
3.0
 40
4.0
 40
4.0
 40
4.0
 40
5.0
 40
5.0
 40
5.0
 40
6.0
 40
6.0
 40
6.0
 40
7.0
 40
7.0
 40
7.0
 40
8.0
 40
8.0
 40
8.0
 40
9.0
 40
9.0
 40
9.0
 40
10.0
 40
10.0
 40
10.0
 40
11.0
 40
11.0
 40
11.0
 40
12.0
 40
12.0
 40
12.0
 40
13.0
 40
13.0
 40
13.0
 40
14.0
 40
14.0
 40
14.0
 40
15.0
 40
15.0
 40
15.0
 40
15.0
 10
1058.1669564783
 20
25.2568280743
 30
0.0
 10
1058.1669564783
 20
25.2568280743
 30
0.0
 10
1058.452346483
 20
25.2568280743
 30
0.0
 10
1058.452346483
 20
25.2568280743
 30
0.0
 10
1058.452346483
 20
25.2568280743
 30
0.0
 10
1058.1199803152
 20
25.6677059352
 30
0.0
 10
1058.1199803152
 20
25.6677059352
 30
0.0
 10
1058.1199803152
 20
25.6677059352
 30
0.0
 10
1058.34648655
 20
25.9335988695
 30
0.0
 10
1058.34648655
 20
25.9335988695
 30
0.0
 10
1058.34648655
 20
25.9335988695
 30
0.0
 10
1058.1982303027
 20
26.0864349655
 30
0.0
 10
1058.1982303027
 20
26.0864349655
 30
0.0
 10
1058.1982303027
 20
26.0864349655
 30
0.0
 10
1057.9823231465
 20
25.8351975473
 30
0.0
 10
1057.9823231465
 20
25.8351975473
 30
0.0
 10
1057.9823231465
 20
25.8351975473
 30
0.0
 10
1057.5952604991
 20
26.3031272387
 30
0.0
 10
1057.5952604991
 20
26.3031272387
 30
0.0
 10
1057.7507136516
 20
26.4172308995
 30
0.0
 10
1057.9329916326
 20
26.5569817133
 30
0.0
 10
1057.9329916326
 20
26.7663462285
 30
0.0
 10
1057.9329916326
 20
27.0102558886
 30
0.0
 10
1057.7309548755
 20
27.1536705815
 30
0.0
 10
1057.5044486407
 20
27.1536705815
 30
0.0
 10
1057.2602772749
 20
27.1536705815
 30
0.0
 10
1057.0759056487
 20
27.0029281306
 30
0.0
 10
1057.0759056487
 20
26.7464565995
 30
0.0
 10
1057.0759056487
 20
26.5889098019
 30
0.0
 10
1057.1745686765
 20
26.4512526332
 30
0.0
 10
1057.2799051982
 20
26.3402894401
 30
0.0
 10
1057.2799051982
 20
26.3402894401
 30
0.0
 10
1057.1643621564
 20
26.2565436341
 30
0.0
 10
1057.1643621564
 20
26.2565436341
 30
0.0
 10
1056.9866640241
 20
26.1283078686
 30
0.0
 10
1056.8393237466
 20
26.0005955143
 30
0.0
 10
1056.8393237466
 20
25.7634902009
 30
0.0
 10
1056.8393237466
 20
25.4431624927
 30
0.0
 10
1057.0978889228
 20
25.2170488164
 30
0.0
 10
1057.4082718165
 20
25.2170488164
 30
0.0
 10
1057.6271885877
 20
25.2170488164
 30
0.0
 10
1057.8243837904
 20
25.3421441142
 30
0.0
 10
1057.9646580155
 20
25.5080654924
 30
0.0
 10
1057.9646580155
 20
25.5080654924
 30
0.0
 10
1058.1669564783
 20
25.2568280743
 30
0.0
 10
1058.1669564783
 20
25.2568280743
 30
0.0
  0
LWPOLYLINE
  5
22E
100
AcDbEntity
  8
0
100
AcDbPolyline
 62
7
  6
CONTINUOUS
 90
2
 70
0
 43
0.2
 10
1060.102400568
 20
27.1133679123
 10
1059.8710527788
 20
27.1133679123
  0
LWPOLYLINE
  5
22F
100
AcDbEntity
  8
0
100
AcDbPolyline
 62
7
  6
CONTINUOUS
 90
2
 70
0
 43
0.2
 10
1059.8710527788
 20
27.1133679123
 10
1059.8710527788
 20
25.256304663
  0
LWPOLYLINE
  5
230
100
AcDbEntity
  8
0
100
AcDbPolyline
 62
7
  6
CONTINUOUS
 90
2
 70
0
 43
0.2
 10
1059.8710527788
 20
25.256304663
 10
1060.6663762307
 20
25.256304663
  0
LWPOLYLINE
  5
231
100
AcDbEntity
  8
0
100
AcDbPolyline
 62
7
  6
CONTINUOUS
 90
2
 70
0
 43
0.2
 10
1060.6663762307
 20
25.256304663
 10
1060.6663762307
 20
25.4682862346
  0
LWPOLYLINE
  5
232
100
AcDbEntity
  8
0
100
AcDbPolyline
 62
7
  6
CONTINUOUS
 90
2
 70
0
 43
0.2
 10
1060.6663762307
 20
25.4682862346
 10
1060.102400568
 20
25.4682862346
  0
LWPOLYLINE
  5
233
100
AcDbEntity
  8
0
100
AcDbPolyline
 62
7
  6
CONTINUOUS
 90
2
 70
0
 43
0.2
 10
1060.102400568
 20
25.4682862346
 10
1060.102400568
 20
27.1133679123
  0
LWPOLYLINE
  5
234
100
AcDbEntity
  8
0
100
AcDbPolyline
 62
7
  6
CONTINUOUS
 90
2
 70
0
 43
0.2
 10
1062.3454796422
 20
26.4088563189
 10
1062.124338373
 20
26.4088563189
  0
LWPOLYLINE
  5
235
100
AcDbEntity
  8
0
100
AcDbPolyline
 62
7
  6
CONTINUOUS
 90
2
 70
0
 43
0.2
 10
1062.124338373
 20
26.4088563189
 10
1062.124338373
 20
25.2568280743
  0
LWPOLYLINE
  5
236
100
AcDbEntity
  8
0
100
AcDbPolyline
 62
7
  6
CONTINUOUS
 90
2
 70
0
 43
0.2
 10
1062.124338373
 20
25.2568280743
 10
1062.3454796422
 20
25.2568280743
  0
LWPOLYLINE
  5
237
100
AcDbEntity
  8
0
100
AcDbPolyline
 62
7
  6
CONTINUOUS
 90
2
 70
0
 43
0.2
 10
1062.3454796422
 20
25.2568280743
 10
1062.3454796422
 20
26.4088563189
  0
LWPOLYLINE
  5
238
100
AcDbEntity
  8
0
100
AcDbPolyline
 62
7
  6
CONTINUOUS
 90
2
 70
1
 43
0.2
 10
1062.082456365
 20
26.9388102478
 42
1.0
 10
1062.3876233559
 20
26.9388102478
 42
1.0
  0
SPLINE
  5
239
100
AcDbEntity
  8
0
100
AcDbSpline
 62
7
  6
CONTINUOUS
 70
2
 71
3
 72
17
 73
13
 74
0
 42
0.0000001
 43
0.0000001
 44
0.0000000001
 40
0.0
 40
0.0
 40
0.0
 40
0.0
 40
1.0
 40
1.0
 40
1.0
 40
2.0
 40
2.0
 40
2.0
 40
3.0
 40
3.0
 40
3.0
 40
4.0
 40
4.0
 40
4.0
 40
4.0
 10
1064.4757635838
 20
25.4143748719
 30
0.0
 10
1064.2417987381
 20
25.4143748719
 30
0.0
 10
1064.1114693274
 20
25.616411629
 30
0.0
 10
1064.1114693274
 20
25.8325804909
 30
0.0
 10
1064.1114693274
 20
26.0471791189
 30
0.0
 10
1064.2472945566
 20
26.2460754083
 30
0.0
 10
1064.4757635838
 20
26.2460754083
 30
0.0
 10
1064.715224248
 20
26.2460754083
 30
0.0
 10
1064.8507877716
 20
26.0571239334
 30
0.0
 10
1064.8507877716
 20
25.8325804909
 30
0.0
 10
1064.8507877716
 20
25.6064668145
 30
0.0
 10
1064.7175795988
 20
25.4143748719
 30
0.0
 10
1064.4757635838
 20
25.4143748719
 30
0.0
  0
SPLINE
  5
23A
100
AcDbEntity
  8
0
100
AcDbSpline
 62
7
  6
CONTINUOUS
 70
2
 71
3
 72
50
 73
46
 74
0
 42
0.0000001
 43
0.0000001
 44
0.0000000001
 40
0.0
 40
0.0
 40
0.0
 40
0.0
 40
1.0
 40
1.0
 40
1.0
 40
2.0
 40
2.0
 40
2.0
 40
3.0
 40
3.0
 40
3.0
 40
4.0
 40
4.0
 40
4.0
 40
5.0
 40
5.0
 40
5.0
 40
6.0
 40
6.0
 40
6.0
 40
7.0
 40
7.0
 40
7.0
 40
8.0
 40
8.0
 40
8.0
 40
9.0
 40
9.0
 40
9.0
 40
10.0
 40
10.0
 40
10.0
 40
11.0
 40
11.0
 40
11.0
 40
12.0
 40
12.0
 40
12.0
 40
13.0
 40
13.0
 40
13.0
 40
14.0
 40
14.0
 40
14.0
 40
15.0
 40
15.0
 40
15.0
 40
15.0
 10
1065.0598905811
 20
26.4093797301
 30
0.0
 10
1065.0598905811
 20
26.4093797301
 30
0.0
 10
1064.8382259006
 20
26.4093797301
 30
0.0
 10
1064.8382259006
 20
26.4093797301
 30
0.0
 10
1064.8382259006
 20
26.4093797301
 30
0.0
 10
1064.8382259006
 20
26.2120536746
 30
0.0
 10
1064.8382259006
 20
26.2120536746
 30
0.0
 10
1064.8382259006
 20
26.2120536746
 30
0.0
 10
1064.8335151991
 20
26.2120536746
 30
0.0
 10
1064.8335151991
 20
26.2120536746
 30
0.0
 10
1064.7421799293
 20
26.3549449562
 30
0.0
 10
1064.604261055
 20
26.4434014639
 30
0.0
 10
1064.43153533
 20
26.4434014639
 30
0.0
 10
1064.0991691622
 20
26.4434014639
 30
0.0
 10
1063.8900663527
 20
26.1555252555
 30
0.0
 10
1063.8900663527
 20
25.8399082489
 30
0.0
 10
1063.8900663527
 20
25.5101591376
 30
0.0
 10
1064.0871307026
 20
25.2170488164
 30
0.0
 10
1064.4420035557
 20
25.2170488164
 30
0.0
 10
1064.604261055
 20
25.2170488164
 30
0.0
 10
1064.7442735745
 20
25.305505324
 30
0.0
 10
1064.8335151991
 20
25.436358146
 30
0.0
 10
1064.8335151991
 20
25.436358146
 30
0.0
 10
1064.8382259006
 20
25.436358146
 30
0.0
 10
1064.8382259006
 20
25.436358146
 30
0.0
 10
1064.8382259006
 20
25.436358146
 30
0.0
 10
1064.8382259006
 20
25.2170488164
 30
0.0
 10
1064.8382259006
 20
25.2170488164
 30
0.0
 10
1064.8382259006
 20
24.9804669143
 30
0.0
 10
1064.7816974816
 20
24.7936090845
 30
0.0
 10
1064.5084767893
 20
24.7936090845
 30
0.0
 10
1064.3061783265
 20
24.7936090845
 30
0.0
 10
1064.1635487506
 20
24.9119000355
 30
0.0
 10
1064.1635487506
 20
25.118124083
 30
0.0
 10
1064.1635487506
 20
25.118124083
 30
0.0
 10
1063.9418840702
 20
25.118124083
 30
0.0
 10
1063.9418840702
 20
25.118124083
 30
0.0
 10
1063.9468564774
 20
24.7936090845
 30
0.0
 10
1064.177942561
 20
24.5968064402
 30
0.0
 10
1064.4982702692
 20
24.5968064402
 30
0.0
 10
1064.9463103316
 20
24.5968064402
 30
0.0
 10
1065.0598905811
 20
24.8820655921
 30
0.0
 10
1065.0598905811
 20
25.2788113483
 30
0.0
 10
1065.0598905811
 20
25.2788113483
 30
0.0
 10
1065.0598905811
 20
26.4093797301
 30
0.0
 10
1065.0598905811
 20
26.4093797301
 30
0.0
  0
SPLINE
  5
23B
100
AcDbEntity
  8
0
100
AcDbSpline
 62
7
  6
CONTINUOUS
 70
2
 71
3
 72
44
 73
40
 74
0
 42
0.0000001
 43
0.0000001
 44
0.0000000001
 40
0.0
 40
0.0
 40
0.0
 40
0.0
 40
1.0
 40
1.0
 40
1.0
 40
2.0
 40
2.0
 40
2.0
 40
3.0
 40
3.0
 40
3.0
 40
4.0
 40
4.0
 40
4.0
 40
5.0
 40
5.0
 40
5.0
 40
6.0
 40
6.0
 40
6.0
 40
7.0
 40
7.0
 40
7.0
 40
8.0
 40
8.0
 40
8.0
 40
9.0
 40
9.0
 40
9.0
 40
10.0
 40
10.0
 40
10.0
 40
11.0
 40
11.0
 40
11.0
 40
12.0
 40
12.0
 40
12.0
 40
13.0
 40
13.0
 40
13.0
 40
13.0
 10
1066.6288159165
 20
27.3944397739
 30
0.0
 10
1066.6288159165
 20
27.3944397739
 30
0.0
 10
1066.6288159165
 20
25.256304663
 30
0.0
 10
1066.6288159165
 20
25.256304663
 30
0.0
 10
1066.6288159165
 20
25.256304663
 30
0.0
 10
1066.8502188912
 20
25.256304663
 30
0.0
 10
1066.8502188912
 20
25.256304663
 30
0.0
 10
1066.8502188912
 20
25.256304663
 30
0.0
 10
1066.8502188912
 20
25.7859968863
 30
0.0
 10
1066.8502188912
 20
25.7859968863
 30
0.0
 10
1066.8502188912
 20
25.9958848127
 30
0.0
 10
1066.8502188912
 20
26.2465988196
 30
0.0
 10
1067.1354780431
 20
26.2465988196
 30
0.0
 10
1067.3623768364
 20
26.2465988196
 30
0.0
 10
1067.3893325177
 20
26.1136523525
 30
0.0
 10
1067.3893325177
 20
25.9173731195
 30
0.0
 10
1067.3893325177
 20
25.9173731195
 30
0.0
 10
1067.3893325177
 20
25.256304663
 30
0.0
 10
1067.3893325177
 20
25.256304663
 30
0.0
 10
1067.3893325177
 20
25.256304663
 30
0.0
 10
1067.6112589038
 20
25.256304663
 30
0.0
 10
1067.6112589038
 20
25.256304663
 30
0.0
 10
1067.6112589038
 20
25.256304663
 30
0.0
 10
1067.6112589038
 20
25.9435436839
 30
0.0
 10
1067.6112589038
 20
25.9435436839
 30
0.0
 10
1067.6112589038
 20
26.2240921342
 30
0.0
 10
1067.5272513921
 20
26.4439248751
 30
0.0
 10
1067.2022129823
 20
26.4439248751
 30
0.0
 10
1067.0624621685
 20
26.4439248751
 30
0.0
 10
1066.9242815885
 20
26.3774516416
 30
0.0
 10
1066.8549295928
 20
26.2544499889
 30
0.0
 10
1066.8549295928
 20
26.2544499889
 30
0.0
 10
1066.8502188912
 20
26.2544499889
 30
0.0
 10
1066.8502188912
 20
26.2544499889
 30
0.0
 10
1066.8502188912
 20
26.2544499889
 30
0.0
 10
1066.8502188912
 20
27.3944397739
 30
0.0
 10
1066.8502188912
 20
27.3944397739
 30
0.0
 10
1066.8502188912
 20
27.3944397739
 30
0.0
 10
1066.6288159165
 20
27.3944397739
 30
0.0
 10
1066.6288159165
 20
27.3944397739
 30
0.0
  0
LWPOLYLINE
  5
23C
100
AcDbEntity
  8
0
100
AcDbPolyline
 62
7
  6
CONTINUOUS
 90
2
 70
0
 43
0.2
 10
1069.4510495806
 20
26.2021088601
 10
1069.6674801482
 20
26.2021088601
  0
LWPOLYLINE
  5
23D
100
AcDbEntity
  8
0
100
AcDbPolyline
 62
7
  6
CONTINUOUS
 90
2
 70
0
 43
0.2
 10
1069.6674801482
 20
26.2021088601
 10
1069.6674801482
 20
26.4088563189
  0
LWPOLYLINE
  5
23E
100
AcDbEntity
  8
0
100
AcDbPolyline
 62
7
  6
CONTINUOUS
 90
2
 70
0
 43
0.2
 10
1069.6674801482
 20
26.4088563189
 10
1069.4510495806
 20
26.4088563189
  0
LWPOLYLINE
  5
23F
100
AcDbEntity
  8
0
100
AcDbPolyline
 62
7
  6
CONTINUOUS
 90
2
 70
0
 43
0.2
 10
1069.4510495806
 20
26.4088563189
 10
1069.4510495806
 20
26.8495686232
  0
LWPOLYLINE
  5
240
100
AcDbEntity
  8
0
100
AcDbPolyline
 62
7
  6
CONTINUOUS
 90
2
 70
0
 43
0.2
 10
1069.4510495806
 20
26.8495686232
 10
1069.2293849002
 20
26.8495686232
  0
LWPOLYLINE
  5
241
100
AcDbEntity
  8
0
100
AcDbPolyline
 62
7
  6
CONTINUOUS
 90
2
 70
0
 43
0.2
 10
1069.2293849002
 20
26.8495686232
 10
1069.2293849002
 20
26.4088563189
  0
LWPOLYLINE
  5
242
100
AcDbEntity
  8
0
100
AcDbPolyline
 62
7
  6
CONTINUOUS
 90
2
 70
0
 43
0.2
 10
1069.2293849002
 20
26.4088563189
 10
1069.1087385984
 20
26.4088563189
  0
LWPOLYLINE
  5
243
100
AcDbEntity
  8
0
100
AcDbPolyline
 62
7
  6
CONTINUOUS
 90
2
 70
0
 43
0.2
 10
1069.1087385984
 20
26.4088563189
 10
1069.1087385984
 20
26.2021088601
  0
LWPOLYLINE
  5
244
100
AcDbEntity
  8
0
100
AcDbPolyline
 62
7
  6
CONTINUOUS
 90
2
 70
0
 43
0.2
 10
1069.1087385984
 20
26.2021088601
 10
1069.2293849002
 20
26.2021088601
  0
LWPOLYLINE
  5
245
100
AcDbEntity
  8
0
100
AcDbPolyline
 62
7
  6
CONTINUOUS
 90
2
 70
0
 43
0.2
 10
1069.2293849002
 20
26.2021088601
 10
1069.2293849002
 20
25.256304663
  0
LWPOLYLINE
  5
246
100
AcDbEntity
  8
0
100
AcDbPolyline
 62
7
  6
CONTINUOUS
 90
2
 70
0
 43
0.2
 10
1069.2293849002
 20
25.256304663
 10
1069.4510495806
 20
25.256304663
  0
LWPOLYLINE
  5
247
100
AcDbEntity
  8
0
100
AcDbPolyline
 62
7
  6
CONTINUOUS
 90
2
 70
0
 43
0.2
 10
1069.4510495806
 20
25.256304663
 10
1069.4510495806
 20
26.2021088601
  0
SPLINE
  5
248
100
AcDbEntity
  8
0
100
AcDbSpline
 62
7
  6
CONTINUOUS
 70
2
 71
3
 72
20
 73
16
 74
0
 42
0.0000001
 43
0.0000001
 44
0.0000000001
 40
0.0
 40
0.0
 40
0.0
 40
0.0
 40
1.0
 40
1.0
 40
1.0
 40
2.0
 40
2.0
 40
2.0
 40
3.0
 40
3.0
 40
3.0
 40
4.0
 40
4.0
 40
4.0
 40
5.0
 40
5.0
 40
5.0
 40
5.0
 10
1057.2330598879
 20
35.6172311064
 30
0.0
 10
1057.2330598879
 20
35.6172311064
 30
0.0
 10
1059.5494165424
 20
32.7876696841
 30
0.0
 10
1059.5494165424
 20
32.7876696841
 30
0.0
 10
1058.897769489
 20
32.1354992194
 30
0.0
 10
1058.1208962849
 20
31.3995829487
 30
0.0
 10
1057.1497066403
 20
31.3995829487
 30
0.0
 10
1056.1511687559
 20
31.3995829487
 30
0.0
 10
1055.2078507623
 20
32.329161396
 30
0.0
 10
1055.2078507623
 20
33.3283535445
 30
0.0
 10
1055.2078507623
 20
34.327545693
 30
0.0
 10
1056.3867038354
 20
35.0341509317
 30
0.0
 10
1057.1082262957
 20
35.5340087116
 30
0.0
 10
1057.1082262957
 20
35.5340087116
 30
0.0
 10
1057.2330598879
 20
35.6172311064
 30
0.0
 10
1057.2330598879
 20
35.6172311064
 30
0.0
  0
SPLINE
  5
249
100
AcDbEntity
  8
0
100
AcDbSpline
 62
7
  6
CONTINUOUS
 70
2
 71
3
 72
23
 73
19
 74
0
 42
0.0000001
 43
0.0000001
 44
0.0000000001
 40
0.0
 40
0.0
 40
0.0
 40
0.0
 40
1.0
 40
1.0
 40
1.0
 40
2.0
 40
2.0
 40
2.0
 40
3.0
 40
3.0
 40
3.0
 40
4.0
 40
4.0
 40
4.0
 40
5.0
 40
5.0
 40
5.0
 40
6.0
 40
6.0
 40
6.0
 40
6.0
 10
1057.5104678705
 20
37.2549850261
 30
0.0
 10
1057.5104678705
 20
37.2549850261
 30
0.0
 10
1057.1639695979
 20
37.6983143869
 30
0.0
 10
1057.1639695979
 20
37.6983143869
 30
0.0
 10
1056.858166553
 20
38.0864238569
 30
0.0
 10
1056.5392782258
 20
38.4749258853
 30
0.0
 10
1056.5392782258
 20
39.0018701994
 30
0.0
 10
1056.5392782258
 20
39.668041916
 30
0.0
 10
1057.0806163503
 20
40.1117638353
 30
0.0
 10
1057.7045226054
 20
40.1117638353
 30
0.0
 10
1058.3983042675
 20
40.1117638353
 30
0.0
 10
1058.9255102872
 20
39.7095222606
 30
0.0
 10
1058.9255102872
 20
38.9745219596
 30
0.0
 10
1058.9255102872
 20
38.211257449
 30
0.0
 10
1058.2042495325
 20
37.7811442232
 30
0.0
 10
1057.6771743657
 20
37.3654248078
 30
0.0
 10
1057.6771743657
 20
37.3654248078
 30
0.0
 10
1057.5104678705
 20
37.2549850261
 30
0.0
 10
1057.5104678705
 20
37.2549850261
 30
0.0
  0
SPLINE
  5
24A
100
AcDbEntity
  8
0
100
AcDbSpline
 62
7
  6
CONTINUOUS
 70
2
 71
3
 72
50
 73
46
 74
0
 42
0.0000001
 43
0.0000001
 44
0.0000000001
 40
0.0
 40
0.0
 40
0.0
 40
0.0
 40
1.0
 40
1.0
 40
1.0
 40
2.0
 40
2.0
 40
2.0
 40
3.0
 40
3.0
 40
3.0
 40
4.0
 40
4.0
 40
4.0
 40
5.0
 40
5.0
 40
5.0
 40
6.0
 40
6.0
 40
6.0
 40
7.0
 40
7.0
 40
7.0
 40
8.0
 40
8.0
 40
8.0
 40
9.0
 40
9.0
 40
9.0
 40
10.0
 40
10.0
 40
10.0
 40
11.0
 40
11.0
 40
11.0
 40
12.0
 40
12.0
 40
12.0
 40
13.0
 40
13.0
 40
13.0
 40
14.0
 40
14.0
 40
14.0
 40
15.0
 40
15.0
 40
15.0
 40
15.0
 10
1061.4640550334
 20
30.456395808
 30
0.0
 10
1061.4640550334
 20
30.456395808
 30
0.0
 10
1063.073283038
 20
30.456395808
 30
0.0
 10
1063.073283038
 20
30.456395808
 30
0.0
 10
1063.073283038
 20
30.456395808
 30
0.0
 10
1061.2002557443
 20
32.7735375794
 30
0.0
 10
1061.2002557443
 20
32.7735375794
 30
0.0
 10
1061.2002557443
 20
32.7735375794
 30
0.0
 10
1062.4765941698
 20
34.271017274
 30
0.0
 10
1062.4765941698
 20
34.271017274
 30
0.0
 10
1062.4765941698
 20
34.271017274
 30
0.0
 10
1061.6443702221
 20
35.1320288425
 30
0.0
 10
1061.6443702221
 20
35.1320288425
 30
0.0
 10
1061.6443702221
 20
35.1320288425
 30
0.0
 10
1060.4237750988
 20
33.7167247201
 30
0.0
 10
1060.4237750988
 20
33.7167247201
 30
0.0
 10
1060.4237750988
 20
33.7167247201
 30
0.0
 10
1058.2458607299
 20
36.3521005545
 30
0.0
 10
1058.2458607299
 20
36.3521005545
 30
0.0
 10
1059.1194341694
 20
36.9901389144
 30
0.0
 10
1060.1461054105
 20
37.7811442232
 30
0.0
 10
1060.1461054105
 20
38.9599972963
 30
0.0
 10
1060.1461054105
 20
40.3336902214
 30
0.0
 10
1059.0082092707
 20
41.1381733708
 30
0.0
 10
1057.7329176678
 20
41.1381733708
 30
0.0
 10
1056.3594864484
 20
41.1381733708
 30
0.0
 10
1055.3185522497
 20
40.2919481711
 30
0.0
 10
1055.3185522497
 20
38.849295809
 30
0.0
 10
1055.3185522497
 20
37.9617211175
 30
0.0
 10
1055.8738916261
 20
37.1848479135
 30
0.0
 10
1056.470057083
 20
36.5604182471
 30
0.0
 10
1056.470057083
 20
36.5604182471
 30
0.0
 10
1055.818148324
 20
36.0888246767
 30
0.0
 10
1055.818148324
 20
36.0888246767
 30
0.0
 10
1054.8196104395
 20
35.367563922
 30
0.0
 10
1053.9867322277
 20
34.6463031674
 30
0.0
 10
1053.9867322277
 20
33.314744851
 30
0.0
 10
1053.9867322277
 20
31.511069553
 30
0.0
 10
1055.4437784003
 20
30.2344694219
 30
0.0
 10
1057.1913178377
 20
30.2344694219
 30
0.0
 10
1058.4261759186
 20
30.2344694219
 30
0.0
 10
1059.5355461432
 20
30.9426448944
 30
0.0
 10
1060.3264205992
 20
31.8711765191
 30
0.0
 10
1060.3264205992
 20
31.8711765191
 30
0.0
 10
1061.4640550334
 20
30.456395808
 30
0.0
 10
1061.4640550334
 20
30.456395808
 30
0.0
  0
LINE
  5
24B
100
AcDbEntity
  8
0
100
AcDbLine
 62
7
  6
CONTINUOUS
 10
1047.2669164084
 20
28.4302707126
 11
1069.680827136
 21
28.4302707126
  0
LINE
  5
24C
100
AcDbEntity
  8
0
100
AcDbLine
 62
7
  6
CONTINUOUS
 10
1069.680827136
 20
28.4302707126
 11
1069.680827136
 21
50.8441814402
  0
LINE
  5
24D
100
AcDbEntity
  8
0
100
AcDbLine
 62
7
  6
CONTINUOUS
 10
1069.680827136
 20
50.8441814402
 11
1047.2669164084
 21
50.8441814402
  0
LINE
  5
24E
100
AcDbEntity
  8
0
100
AcDbLine
 62
7
  6
CONTINUOUS
 10
1047.2669164084
 20
50.8441814402
 11
1047.2669164084
 21
28.4302707126
  0
ENDBLK
  5
24F
100
AcDbEntity
  8
0
  6
BYBLOCK
 62
0
100
AcDbBlockEnd
  0
BLOCK
  5
250
100
AcDbEntity
  8
0
100
AcDbBlockBegin
  2
_CLOSED
 70
64
 10
0.0
 20
0.0
  3
_CLOSED
  1

  0
LINE
  5
251
100
AcDbEntity
  8
0
  6
BYBLOCK
 62
0
100
AcDbLine
 10
0.0
 20
0.0
 11
-1.0
 21
0.2
  0
LINE
  5
252
100
AcDbEntity
  8
0
  6
BYBLOCK
 62
0
100
AcDbLine
 10
-1.0
 20
0.2
 11
-1.0
 21
-0.2
  0
LINE
  5
253
100
AcDbEntity
  8
0
  6
BYBLOCK
 62
0
100
AcDbLine
 10
-1.0
 20
-0.2
 11
0.0
 21
0.0
  0
LINE
  5
254
100
AcDbEntity
  8
0
  6
BYBLOCK
 62
0
100
AcDbLine
 10
-1.0
 20
0.0
 11
0.0
 21
0.0
  0
ENDBLK
  5
255
100
AcDbEntity
  8
0
  6
BYBLOCK
 62
0
100
AcDbBlockEnd
  0
BLOCK
  5
256
100
AcDbEntity
  8
0
100
AcDbBlockBegin
 62
7
  6
CONTINUOUS
  2
*D0
 70
65
 10
0.0
 20
0.0
  3
*D0
  1

  0
MTEXT
  5
257
100
AcDbEntity
  8
0
100
AcDbMText
 62
7
  6
CONTINUOUS
  7
STANDARD
 71
2
 72
1
 10
244.8323711863
 20
340.7111895161
 30
0.0
 11
0.0
 21
1.0
 31
0.0
  1
643,8
 40
10.0
 41
34.9442379182
  0
LINE
  5
258
100
AcDbEntity
  8
0
100
AcDbLine
 62
7
  6
CONTINUOUS
 10
288.865151003
 20
662.6111895161
 11
256.5823711863
 21
662.6111895161
  0
LINE
  5
259
100
AcDbEntity
  8
0
100
AcDbLine
 62
7
  6
CONTINUOUS
 10
288.865151003
 20
18.8111895161
 11
256.5823711863
 21
18.8111895161
  0
LINE
  5
25A
100
AcDbEntity
  8
0
100
AcDbLine
 62
7
  6
CONTINUOUS
 10
257.3323711863
 20
662.6111895161
 11
257.3323711863
 21
340.7111895161
  0
LINE
  5
25B
100
AcDbEntity
  8
0
100
AcDbLine
 62
7
  6
CONTINUOUS
 10
257.3323711863
 20
18.8111895161
 11
257.3323711863
 21
340.7111895161
  0
INSERT
  5
25C
100
AcDbEntity
  8
0
100
AcDbBlockReference
 62
7
  6
CONTINUOUS
  2
_CLOSED
 10
257.3323711863
 20
662.6111895161
 41
2.5
 42
2.5
 43
2.5
 50
90.0
  0
INSERT
  5
25D
100
AcDbEntity
  8
0
100
AcDbBlockReference
 62
7
  6
CONTINUOUS
  2
_CLOSED
 10
257.3323711863
 20
18.8111895161
 41
2.5
 42
2.5
 43
2.5
 50
270.0
  0
ENDBLK
  5
25E
100
AcDbEntity
  8
0
  6
BYBLOCK
 62
0
100
AcDbBlockEnd
  0
BLOCK
  5
25F
100
AcDbEntity
  8
0
100
AcDbBlockBegin
 62
7
  6
CONTINUOUS
  2
*D1
 70
65
 10
0.0
 20
0.0
  3
*D1
  1

  0
MTEXT
  5
260
100
AcDbEntity
  8
0
100
AcDbMText
 62
7
  6
CONTINUOUS
  7
STANDARD
 71
2
 72
1
 10
244.8323711863
 20
756.9521169355
 30
0.0
 11
0.0
 21
1.0
 31
0.0
  1
82,1
 40
10.0
 41
27.1747211896
  0
LINE
  5
261
100
AcDbEntity
  8
0
100
AcDbLine
 62
7
  6
CONTINUOUS
 10
288.865151003
 20
715.9021169355
 11
256.5823711863
 21
715.9021169355
  0
LINE
  5
262
100
AcDbEntity
  8
0
100
AcDbLine
 62
7
  6
CONTINUOUS
 10
290.8749093207
 20
798.0021169355
 11
256.5823711863
 21
798.0021169355
  0
LINE
  5
263
100
AcDbEntity
  8
0
100
AcDbLine
 62
7
  6
CONTINUOUS
 10
257.3323711863
 20
715.9021169355
 11
257.3323711863
 21
756.9521169355
  0
LINE
  5
264
100
AcDbEntity
  8
0
100
AcDbLine
 62
7
  6
CONTINUOUS
 10
257.3323711863
 20
798.0021169355
 11
257.3323711863
 21
756.9521169355
  0
INSERT
  5
265
100
AcDbEntity
  8
0
100
AcDbBlockReference
 62
7
  6
CONTINUOUS
  2
_CLOSED
 10
257.3323711863
 20
715.9021169355
 41
2.5
 42
2.5
 43
2.5
 50
270.0
  0
INSERT
  5
266
100
AcDbEntity
  8
0
100
AcDbBlockReference
 62
7
  6
CONTINUOUS
  2
_CLOSED
 10
257.3323711863
 20
798.0021169355
 41
2.5
 42
2.5
 43
2.5
 50
90.0
  0
ENDBLK
  5
267
100
AcDbEntity
  8
0
  6
BYBLOCK
 62
0
100
AcDbBlockEnd
  0
BLOCK
  5
268
100
AcDbEntity
  8
0
100
AcDbBlockBegin
 62
7
  6
CONTINUOUS
  2
*D2
 70
65
 10
0.0
 20
0.0
  3
*D2
  1

  0
MTEXT
  5
269
100
AcDbEntity
  8
0
100
AcDbMText
 62
7
  6
CONTINUOUS
  7
STANDARD
 71
2
 72
1
 10
629.09375
 20
705.4864145111
 30
0.0
 11
1.0
 21
0.0
 31
0.0
  1
643,8
 40
10.0
 41
34.9442379182
  0
LINE
  5
26A
100
AcDbEntity
  8
0
100
AcDbLine
 62
7
  6
CONTINUOUS
 10
307.19375
 20
677.0472918672
 11
307.19375
 21
693.7364145111
  0
LINE
  5
26B
100
AcDbEntity
  8
0
100
AcDbLine
 62
7
  6
CONTINUOUS
 10
950.99375
 20
678.2679699061
 11
950.99375
 21
693.7364145111
  0
LINE
  5
26C
100
AcDbEntity
  8
0
100
AcDbLine
 62
7
  6
CONTINUOUS
 10
307.19375
 20
692.9864145111
 11
629.09375
 21
692.9864145111
  0
LINE
  5
26D
100
AcDbEntity
  8
0
100
AcDbLine
 62
7
  6
CONTINUOUS
 10
950.99375
 20
692.9864145111
 11
629.09375
 21
692.9864145111
  0
INSERT
  5
26E
100
AcDbEntity
  8
0
100
AcDbBlockReference
 62
7
  6
CONTINUOUS
  2
_CLOSED
 10
307.19375
 20
692.9864145111
 41
2.5
 42
2.5
 43
2.5
 50
180.0
  0
INSERT
  5
26F
100
AcDbEntity
  8
0
100
AcDbBlockReference
 62
7
  6
CONTINUOUS
  2
_CLOSED
 10
950.99375
 20
692.9864145111
 41
2.5
 42
2.5
 43
2.5
 50
360.0
  0
ENDBLK
  5
270
100
AcDbEntity
  8
0
  6
BYBLOCK
 62
0
100
AcDbBlockEnd
  0
ENDSEC
  0
SECTION
  2
ENTITIES
  0
DIMENSION
  5
271
100
AcDbEntity
  8
0
100
AcDbDimension
 62
7
  6
CONTINUOUS
  2
*D0
 10
257.3323711863
 20
18.8111895161
 11
257.3323711863
 21
340.6156184228
 70
160
  3
DIMSTYLE_1
100
AcDbAlignedDimension
 13
289.615151003
 23
662.6111895161
 14
289.615151003
 24
18.8111895161
 50
270.0
100
AcDbRotatedDimension
  0
DIMENSION
  5
272
100
AcDbEntity
  8
0
100
AcDbDimension
 62
7
  6
CONTINUOUS
  2
*D1
 10
257.3323711863
 20
798.0021169355
 11
257.3323711863
 21
755.9354208523
 70
160
  3
DIMSTYLE_2
100
AcDbAlignedDimension
 13
289.615151003
 23
715.9021169355
 14
291.6249093207
 24
798.0021169355
 50
90.0
100
AcDbRotatedDimension
  0
DIMENSION
  5
273
100
AcDbEntity
  8
0
100
AcDbDimension
 62
7
  6
CONTINUOUS
  2
*D2
 10
950.99375
 20
692.9864145111
 11
628.9981992798
 21
692.9864145111
 70
160
  3
DIMSTYLE_1
100
AcDbAlignedDimension
 13
307.19375
 23
676.2972918672
 14
950.99375
 24
677.5179699061
100
AcDbRotatedDimension
  0
LINE
  5
274
100
AcDbEntity
  8
0
100
AcDbLine
 62
2
  6
CONTINUOUS
 10
1044.647759301
 20
51.2204939402
 11
1134.647759301
 21
51.2204939402
  0
LINE
  5
275
100
AcDbEntity
  8
0
100
AcDbLine
 62
2
  6
CONTINUOUS
 10
1044.647759301
 20
51.2204939402
 11
1044.647759301
 21
11.2204939402
  0
LINE
  5
276
100
AcDbEntity
  8
0
100
AcDbLine
 62
2
  6
CONTINUOUS
 10
1074.647759301
 20
45.2204939402
 11
1134.647759301
 21
45.2204939402
  0
LINE
  5
277
100
AcDbEntity
  8
0
100
AcDbLine
 62
2
  6
CONTINUOUS
 10
1074.647759301
 20
39.2204939402
 11
1134.647759301
 21
39.2204939402
  0
LINE
  5
278
100
AcDbEntity
  8
0
100
AcDbLine
 62
2
  6
CONTINUOUS
 10
1074.647759301
 20
29.2204939402
 11
1134.647759301
 21
29.2204939402
  0
LINE
  5
279
100
AcDbEntity
  8
0
100
AcDbLine
 62
2
  6
CONTINUOUS
 10
1044.647759301
 20
24.2204939402
 11
1134.647759301
 21
24.2204939402
  0
LINE
  5
27A
100
AcDbEntity
  8
0
100
AcDbLine
 62
2
  6
CONTINUOUS
 10
1044.647759301
 20
11.2204939402
 11
1134.647759301
 21
11.2204939402
  0
LINE
  5
27B
100
AcDbEntity
  8
0
100
AcDbLine
 62
2
  6
CONTINUOUS
 10
1074.647759301
 20
51.2204939402
 11
1074.647759301
 21
24.2204939402
  0
LINE
  5
27C
100
AcDbEntity
  8
0
100
AcDbLine
 62
2
  6
CONTINUOUS
 10
1114.647759301
 20
51.2204939402
 11
1114.647759301
 21
39.2204939402
  0
LINE
  5
27D
100
AcDbEntity
  8
0
100
AcDbLine
 62
2
  6
CONTINUOUS
 10
1134.647759301
 20
51.2204939402
 11
1134.647759301
 21
11.2204939402
  0
INSERT
  5
27E
100
AcDbEntity
  8
0
100
AcDbBlockReference
 62
2
  6
CONTINUOUS
  2
LOGO2_BL0
 10
1058.4738063458
 20
37.7204939402
  0
MTEXT
  5
27F
100
AcDbEntity
  8
9_SOLID
100
AcDbMText
 62
2
  6
CONTINUOUS
  7
TEXTSTYLE_2
 71
1
 72
1
 10
1076.135259301
 20
49.7204939402
 30
0.0
 11
1.0
 21
0.0
 31
0.0
  1
6F3_C_460
 40
3.0
 41
32.25
  0
MTEXT
  5
280
100
AcDbEntity
  8
0
100
AcDbMText
 62
2
  6
CONTINUOUS
  7
TEXTSTYLE_2
 71
1
 72
1
 10
1116.135259301
 20
49.4704939402
 30
0.0
 11
1.0
 21
0.0
 31
0.0
  1
Rev:00
 40
3.5
 41
22.75
  0
MTEXT
  5
281
100
AcDbEntity
  8
9_SOLID
100
AcDbMText
 62
2
  6
CONTINUOUS
  7
TEXTSTYLE_2
 71
1
 72
1
 10
1076.135259301
 20
43.4704939402
 30
0.0
 11
1.0
 21
0.0
 31
0.0
  1
Scale:1:1
 40
3.5
 41
28.375
  0
MTEXT
  5
282
100
AcDbEntity
  8
9_SOLID
100
AcDbMText
 62
2
  6
CONTINUOUS
  7
TEXTSTYLE_2
 71
1
 72
1
 10
1116.135259301
 20
43.9704939402
 30
0.0
 11
1.0
 21
0.0
 31
0.0
  1
A0
 40
3.5
 41
9.625
  0
MTEXT
  5
283
100
AcDbEntity
  8
0
100
AcDbMText
 62
2
  6
CONTINUOUS
  7
TEXTSTYLE_2
 71
1
 72
1
 10
1076.135259301
 20
35.9704939402
 30
0.0
 11
1.0
 21
0.0
 31
0.0
  1
CASS. ARRETRATA BRENTA1 A SCENDERE 90°
 40
3.5
 41
158.4625
  0
MTEXT
  5
284
100
AcDbEntity
  8
0
100
AcDbMText
 62
2
  6
CONTINUOUS
  7
TEXTSTYLE_2
 71
1
 72
1
 10
1076.135259301
 20
27.9704939402
 30
0.0
 11
1.0
 21
0.0
 31
0.0
  1
DATE:08/05/18
 40
2.5
 41
36.875
  0
MTEXT
  5
285
100
AcDbEntity
  8
9_SOLID
100
AcDbMText
 62
2
  6
CONTINUOUS
  7
TEXTSTYLE_2
 71
1
 72
1
 10
1046.135259301
 20
23.9079939402
 30
0.0
 11
1.0
 21
0.0
 31
0.0
  1
Any integral or partial reproductions are prohibited \Pwithout prior authorisation of L {\Ftxt.shx;\W0.190476;\H2.250000; }& L Luce & Light s.r.l., \Pin accordance with the law in force. \PAll rights reserved.
 40
2.25
 41
134.5982142857
  0
LINE
  5
286
100
AcDbEntity
  8
0
100
AcDbLine
 62
7
  6
CONTINUOUS
 10
0.0
 20
0.0
 11
0.0
 21
841.0
  0
LINE
  5
287
100
AcDbEntity
  8
0
100
AcDbLine
 62
7
  6
CONTINUOUS
 10
0.0
 20
0.0
 11
1189.0
 21
0.0
  0
LINE
  5
288
100
AcDbEntity
  8
0
100
AcDbLine
 62
7
  6
CONTINUOUS
 10
0.0
 20
841.0
 11
1189.0
 21
841.0
  0
LINE
  5
289
100
AcDbEntity
  8
0
100
AcDbLine
 62
7
  6
CONTINUOUS
 10
1189.0
 20
0.0
 11
1189.0
 21
841.0
  0
LINE
  5
28A
100
AcDbEntity
  8
7_ALL_FEATURES
100
AcDbLine
 62
7
  6
CONTINUOUS
 10
355.49375
 20
631.8432403237
 11
353.99375
 21
630.9772149199
  0
LINE
  5
28B
100
AcDbEntity
  8
7_ALL_FEATURES
100
AcDbLine
 62
7
  6
CONTINUOUS
 10
355.49375
 20
628.3791387086
 11
356.99375
 21
629.2451641123
  0
LINE
  5
28C
100
AcDbEntity
  8
7_ALL_FEATURES
100
AcDbLine
 62
7
  6
CONTINUOUS
 10
339.69375
 20
603.5432403237
 11
338.19375
 21
602.6772149199
  0
LINE
  5
28D
100
AcDbEntity
  8
7_ALL_FEATURES
100
AcDbLine
 62
7
  6
CONTINUOUS
 10
339.69375
 20
600.0791387086
 11
341.19375
 21
600.9451641123
  0
LINE
  5
28E
100
AcDbEntity
  8
7_ALL_FEATURES
100
AcDbLine
 62
7
  6
CONTINUOUS
 10
307.19375
 20
662.6111895161
 11
307.19375
 21
18.8111895161
  0
LINE
  5
28F
100
AcDbEntity
  8
7_ALL_FEATURES
100
AcDbLine
 62
9
  6
CONTINUOUS
 10
307.49375
 20
662.3111895161
 11
307.49375
 21
18.8111895161
  0
LINE
  5
290
100
AcDbEntity
  8
7_ALL_FEATURES
100
AcDbLine
 62
9
  6
CONTINUOUS
 10
308.19375
 20
661.6111895161
 11
308.19375
 21
18.8111895161
  0
LINE
  5
291
100
AcDbEntity
  8
7_ALL_FEATURES
100
AcDbLine
 62
7
  6
CONTINUOUS
 10
308.69375
 20
661.1111895161
 11
308.69375
 21
18.8111895161
  0
LINE
  5
292
100
AcDbEntity
  8
7_ALL_FEATURES
100
AcDbLine
 62
9
  6
CONTINUOUS
 10
309.129233871
 20
18.8111895161
 11
309.129233871
 21
660.6757056452
  0
LINE
  5
293
100
AcDbEntity
  8
7_ALL_FEATURES
100
AcDbLine
 62
9
  6
CONTINUOUS
 10
310.9261602386
 20
18.8111895161
 11
310.9261602386
 21
658.8787792775
  0
LINE
  5
294
100
AcDbEntity
  8
7_ALL_FEATURES
100
AcDbLine
 62
9
  6
CONTINUOUS
 10
312.9590908772
 20
18.8111895161
 11
312.9590908772
 21
656.845848639
  0
LINE
  5
295
100
AcDbEntity
  8
7_ALL_FEATURES
100
AcDbLine
 62
3
  6
CONTINUOUS
 10
326.69375
 20
587.6111895161
 11
326.69375
 21
642.6111895161
  0
LINE
  5
296
100
AcDbEntity
  8
7_ALL_FEATURES
100
AcDbLine
 62
9
  6
CONTINUOUS
 10
326.966038001
 20
642.8389015151
 11
326.966038001
 21
642.6111895161
  0
LINE
  5
297
100
AcDbEntity
  8
7_ALL_FEATURES
100
AcDbLine
 62
9
  6
CONTINUOUS
 10
326.966038001
 20
587.6111895161
 11
326.966038001
 21
18.8111895161
  0
LINE
  5
298
100
AcDbEntity
  8
7_ALL_FEATURES
100
AcDbLine
 62
9
  6
CONTINUOUS
 10
328.0482360707
 20
587.6111895161
 11
328.0482360707
 21
18.8111895161
  0
LINE
  5
299
100
AcDbEntity
  8
6_ALL_SURFS
100
AcDbLine
 62
7
  6
CONTINUOUS
 10
307.19375
 20
18.8111895161
 11
401.99375
 21
18.8111895161
  0
LINE
  5
29A
100
AcDbEntity
  8
7_ALL_FEATURES
100
AcDbLine
 62
7
  6
CONTINUOUS
 10
338.19375
 20
602.6772149199
 11
338.19375
 21
600.9451641123
  0
LINE
  5
29B
100
AcDbEntity
  8
7_ALL_FEATURES
100
AcDbLine
 62
7
  6
CONTINUOUS
 10
341.19375
 20
600.9451641123
 11
341.19375
 21
602.6772149199
  0
LINE
  5
29C
100
AcDbEntity
  8
7_ALL_FEATURES
100
AcDbLine
 62
3
  6
CONTINUOUS
 10
351.69375
 20
617.6111895161
 11
351.69375
 21
587.6111895161
  0
LINE
  5
29D
100
AcDbEntity
  8
7_ALL_FEATURES
100
AcDbLine
 62
7
  6
CONTINUOUS
 10
353.99375
 20
630.9772149199
 11
353.99375
 21
629.2451641123
  0
LINE
  5
29E
100
AcDbEntity
  8
7_ALL_FEATURES
100
AcDbLine
 62
7
  6
CONTINUOUS
 10
356.99375
 20
629.2451641123
 11
356.99375
 21
630.9772149199
  0
LINE
  5
29F
100
AcDbEntity
  8
7_ALL_FEATURES
100
AcDbLine
 62
9
  6
CONTINUOUS
 10
372.79375
 20
18.8111895161
 11
372.79375
 21
597.0111895161
  0
LINE
  5
2A0
100
AcDbEntity
  8
7_ALL_FEATURES
100
AcDbLine
 62
7
  6
CONTINUOUS
 10
373.09375
 20
596.7111895161
 11
373.09375
 21
18.8111895161
  0
LINE
  5
2A1
100
AcDbEntity
  8
7_ALL_FEATURES
100
AcDbLine
 62
9
  6
CONTINUOUS
 10
375.09375
 20
594.7111895161
 11
375.09375
 21
18.8111895161
  0
LINE
  5
2A2
100
AcDbEntity
  8
7_ALL_FEATURES
100
AcDbLine
 62
9
  6
CONTINUOUS
 10
376.89375
 20
592.9111895161
 11
376.89375
 21
18.8111895161
  0
LINE
  5
2A3
100
AcDbEntity
  8
7_ALL_FEATURES
100
AcDbLine
 62
7
  6
CONTINUOUS
 10
378.89375
 20
590.9111895161
 11
378.89375
 21
18.8111895161
  0
LINE
  5
2A4
100
AcDbEntity
  8
7_ALL_FEATURES
100
AcDbLine
 62
9
  6
CONTINUOUS
 10
379.19375
 20
18.8111895161
 11
379.19375
 21
590.6111895161
  0
LINE
  5
2A5
100
AcDbEntity
  8
7_ALL_FEATURES
100
AcDbLine
 62
9
  6
CONTINUOUS
 10
379.4623424339
 20
18.8111895161
 11
379.4623424339
 21
590.3425970823
  0
LINE
  5
2A6
100
AcDbEntity
  8
7_ALL_FEATURES
100
AcDbLine
 62
9
  6
CONTINUOUS
 10
379.6669419419
 20
18.8111895161
 11
379.6669419419
 21
590.1379975742
  0
LINE
  5
2A7
100
AcDbEntity
  8
7_ALL_FEATURES
100
AcDbLine
 62
3
  6
CONTINUOUS
 10
381.69375
 20
642.6111895161
 11
381.69375
 21
617.6111895161
  0
LINE
  5
2A8
100
AcDbEntity
  8
7_ALL_FEATURES
100
AcDbLine
 62
9
  6
CONTINUOUS
 10
382.258253009
 20
587.5466865072
 11
382.258253009
 21
18.8111895161
  0
LINE
  5
2A9
100
AcDbEntity
  8
7_ALL_FEATURES
100
AcDbLine
 62
9
  6
CONTINUOUS
 10
383.281250549
 20
586.5236889671
 11
383.281250549
 21
18.8111895161
  0
LINE
  5
2AA
100
AcDbEntity
  8
7_ALL_FEATURES
100
AcDbLine
 62
9
  6
CONTINUOUS
 10
385.9868303043
 20
18.8111895161
 11
385.9868303043
 21
583.8181092119
  0
LINE
  5
2AB
100
AcDbEntity
  8
7_ALL_FEATURES
100
AcDbLine
 62
9
  6
CONTINUOUS
 10
386.8108003449
 20
18.8111895161
 11
386.8108003449
 21
582.9941391712
  0
LINE
  5
2AC
100
AcDbEntity
  8
7_ALL_FEATURES
100
AcDbLine
 62
9
  6
CONTINUOUS
 10
389.1728477948
 20
18.8111895161
 11
389.1728477948
 21
580.6320917214
  0
LINE
  5
2AD
100
AcDbEntity
  8
7_ALL_FEATURES
100
AcDbLine
 62
9
  6
CONTINUOUS
 10
389.9968178354
 20
18.8111895161
 11
389.9968178354
 21
579.8081216807
  0
LINE
  5
2AE
100
AcDbEntity
  8
7_ALL_FEATURES
100
AcDbLine
 62
9
  6
CONTINUOUS
 10
399.19375
 20
18.8111895161
 11
399.19375
 21
570.6111895161
  0
LINE
  5
2AF
100
AcDbEntity
  8
6_ALL_SURFS
100
AcDbLine
 62
7
  6
CONTINUOUS
 10
399.34375
 20
18.8111895161
 11
399.34375
 21
49.6449991372
  0
LINE
  5
2B0
100
AcDbEntity
  8
7_ALL_FEATURES
100
AcDbLine
 62
7
  6
CONTINUOUS
 10
399.34375
 20
49.6449991372
 11
399.34375
 21
51.9773798951
  0
LINE
  5
2B1
100
AcDbEntity
  8
6_ALL_SURFS
100
AcDbLine
 62
7
  6
CONTINUOUS
 10
399.34375
 20
51.9773798951
 11
399.34375
 21
299.6449991372
  0
LINE
  5
2B2
100
AcDbEntity
  8
7_ALL_FEATURES
100
AcDbLine
 62
7
  6
CONTINUOUS
 10
399.34375
 20
299.6449991372
 11
399.34375
 21
301.9773798951
  0
LINE
  5
2B3
100
AcDbEntity
  8
6_ALL_SURFS
100
AcDbLine
 62
7
  6
CONTINUOUS
 10
399.34375
 20
301.9773798951
 11
399.34375
 21
549.6449991372
  0
LINE
  5
2B4
100
AcDbEntity
  8
7_ALL_FEATURES
100
AcDbLine
 62
7
  6
CONTINUOUS
 10
399.34375
 20
549.6449991372
 11
399.34375
 21
570.4611895161
  0
LINE
  5
2B5
100
AcDbEntity
  8
7_ALL_FEATURES
100
AcDbLine
 62
7
  6
CONTINUOUS
 10
399.49375
 20
570.3111895161
 11
399.49375
 21
18.8111895161
  0
LINE
  5
2B6
100
AcDbEntity
  8
7_ALL_FEATURES
100
AcDbLine
 62
9
  6
CONTINUOUS
 10
400.279202841
 20
569.5257366752
 11
400.279202841
 21
18.8111895161
  0
LINE
  5
2B7
100
AcDbEntity
  8
6_ALL_SURFS
100
AcDbLine
 62
7
  6
CONTINUOUS
 10
400.49375
 20
18.8111895161
 11
400.49375
 21
554.0945973098
  0
LINE
  5
2B8
100
AcDbEntity
  8
7_ALL_FEATURES
100
AcDbLine
 62
7
  6
CONTINUOUS
 10
400.49375
 20
554.0945973098
 11
400.49375
 21
569.3111895161
  0
LINE
  5
2B9
100
AcDbEntity
  8
7_ALL_FEATURES
100
AcDbLine
 62
9
  6
CONTINUOUS
 10
400.79375
 20
18.8111895161
 11
400.79375
 21
569.0111895161
  0
LINE
  5
2BA
100
AcDbEntity
  8
7_ALL_FEATURES
100
AcDbLine
 62
9
  6
CONTINUOUS
 10
401.69375
 20
568.1111895161
 11
401.69375
 21
18.8111895161
  0
LINE
  5
2BB
100
AcDbEntity
  8
7_ALL_FEATURES
100
AcDbLine
 62
7
  6
CONTINUOUS
 10
401.99375
 20
567.8111895161
 11
401.99375
 21
18.8111895161
  0
LINE
  5
2BC
100
AcDbEntity
  8
7_ALL_FEATURES
100
AcDbLine
 62
7
  6
CONTINUOUS
 10
327.19375
 20
642.6111895161
 11
307.19375
 21
662.6111895161
  0
LINE
  5
2BD
100
AcDbEntity
  8
7_ALL_FEATURES
100
AcDbLine
 62
7
  6
CONTINUOUS
 10
401.99375
 20
567.8111895161
 11
352.19375
 21
617.6111895161
  0
LINE
  5
2BE
100
AcDbEntity
  8
7_ALL_FEATURES
100
AcDbLine
 62
7
  6
CONTINUOUS
 10
338.19375
 20
600.9451641123
 11
339.69375
 21
600.0791387086
  0
LINE
  5
2BF
100
AcDbEntity
  8
7_ALL_FEATURES
100
AcDbLine
 62
7
  6
CONTINUOUS
 10
341.19375
 20
602.6772149199
 11
339.69375
 21
603.5432403237
  0
LINE
  5
2C0
100
AcDbEntity
  8
7_ALL_FEATURES
100
AcDbLine
 62
7
  6
CONTINUOUS
 10
353.99375
 20
629.2451641123
 11
355.49375
 21
628.3791387086
  0
LINE
  5
2C1
100
AcDbEntity
  8
7_ALL_FEATURES
100
AcDbLine
 62
7
  6
CONTINUOUS
 10
356.99375
 20
630.9772149199
 11
355.49375
 21
631.8432403237
  0
LINE
  5
2C2
100
AcDbEntity
  8
7_ALL_FEATURES
100
AcDbLine
 62
7
  6
CONTINUOUS
 10
401.99375
 20
567.8111895161
 11
950.99375
 21
567.8111895161
  0
LINE
  5
2C3
100
AcDbEntity
  8
7_ALL_FEATURES
100
AcDbLine
 62
9
  6
CONTINUOUS
 10
401.69375
 20
568.1111895161
 11
950.99375
 21
568.1111895161
  0
LINE
  5
2C4
100
AcDbEntity
  8
7_ALL_FEATURES
100
AcDbLine
 62
9
  6
CONTINUOUS
 10
950.99375
 20
569.0111895161
 11
400.79375
 21
569.0111895161
  0
LINE
  5
2C5
100
AcDbEntity
  8
7_ALL_FEATURES
100
AcDbLine
 62
7
  6
CONTINUOUS
 10
950.99375
 20
569.3111895161
 11
400.49375
 21
569.3111895161
  0
LINE
  5
2C6
100
AcDbEntity
  8
7_ALL_FEATURES
100
AcDbLine
 62
9
  6
CONTINUOUS
 10
400.279202841
 20
569.5257366752
 11
950.99375
 21
569.5257366752
  0
LINE
  5
2C7
100
AcDbEntity
  8
7_ALL_FEATURES
100
AcDbLine
 62
7
  6
CONTINUOUS
 10
399.49375
 20
570.3111895161
 11
950.99375
 21
570.3111895161
  0
LINE
  5
2C8
100
AcDbEntity
  8
7_ALL_FEATURES
100
AcDbLine
 62
7
  6
CONTINUOUS
 10
950.99375
 20
570.4611895161
 11
399.34375
 21
570.4611895161
  0
LINE
  5
2C9
100
AcDbEntity
  8
7_ALL_FEATURES
100
AcDbLine
 62
9
  6
CONTINUOUS
 10
950.99375
 20
570.6111895161
 11
399.19375
 21
570.6111895161
  0
LINE
  5
2CA
100
AcDbEntity
  8
7_ALL_FEATURES
100
AcDbLine
 62
9
  6
CONTINUOUS
 10
950.99375
 20
579.8081216807
 11
389.9968178354
 21
579.8081216807
  0
LINE
  5
2CB
100
AcDbEntity
  8
7_ALL_FEATURES
100
AcDbLine
 62
9
  6
CONTINUOUS
 10
950.99375
 20
580.6320917214
 11
389.1728477948
 21
580.6320917214
  0
LINE
  5
2CC
100
AcDbEntity
  8
7_ALL_FEATURES
100
AcDbLine
 62
9
  6
CONTINUOUS
 10
950.99375
 20
582.9941391712
 11
386.8108003449
 21
582.9941391712
  0
LINE
  5
2CD
100
AcDbEntity
  8
7_ALL_FEATURES
100
AcDbLine
 62
9
  6
CONTINUOUS
 10
950.99375
 20
583.8181092119
 11
385.9868303043
 21
583.8181092119
  0
LINE
  5
2CE
100
AcDbEntity
  8
7_ALL_FEATURES
100
AcDbLine
 62
9
  6
CONTINUOUS
 10
383.281250549
 20
586.5236889671
 11
950.99375
 21
586.5236889671
  0
LINE
  5
2CF
100
AcDbEntity
  8
7_ALL_FEATURES
100
AcDbLine
 62
9
  6
CONTINUOUS
 10
382.258253009
 20
587.5466865072
 11
950.99375
 21
587.5466865072
  0
LINE
  5
2D0
100
AcDbEntity
  8
7_ALL_FEATURES
100
AcDbLine
 62
3
  6
CONTINUOUS
 10
351.69375
 20
587.6111895161
 11
326.69375
 21
587.6111895161
  0
LINE
  5
2D1
100
AcDbEntity
  8
7_ALL_FEATURES
100
AcDbLine
 62
9
  6
CONTINUOUS
 10
950.99375
 20
590.1379975742
 11
379.6669419419
 21
590.1379975742
  0
LINE
  5
2D2
100
AcDbEntity
  8
7_ALL_FEATURES
100
AcDbLine
 62
9
  6
CONTINUOUS
 10
950.99375
 20
590.3425970823
 11
379.4623424339
 21
590.3425970823
  0
LINE
  5
2D3
100
AcDbEntity
  8
7_ALL_FEATURES
100
AcDbLine
 62
9
  6
CONTINUOUS
 10
950.99375
 20
590.6111895161
 11
379.19375
 21
590.6111895161
  0
LINE
  5
2D4
100
AcDbEntity
  8
7_ALL_FEATURES
100
AcDbLine
 62
7
  6
CONTINUOUS
 10
378.89375
 20
590.9111895161
 11
950.99375
 21
590.9111895161
  0
LINE
  5
2D5
100
AcDbEntity
  8
7_ALL_FEATURES
100
AcDbLine
 62
9
  6
CONTINUOUS
 10
376.89375
 20
592.9111895161
 11
950.99375
 21
592.9111895161
  0
LINE
  5
2D6
100
AcDbEntity
  8
7_ALL_FEATURES
100
AcDbLine
 62
9
  6
CONTINUOUS
 10
375.09375
 20
594.7111895161
 11
950.99375
 21
594.7111895161
  0
LINE
  5
2D7
100
AcDbEntity
  8
7_ALL_FEATURES
100
AcDbLine
 62
7
  6
CONTINUOUS
 10
373.09375
 20
596.7111895161
 11
950.99375
 21
596.7111895161
  0
LINE
  5
2D8
100
AcDbEntity
  8
7_ALL_FEATURES
100
AcDbLine
 62
9
  6
CONTINUOUS
 10
950.99375
 20
597.0111895161
 11
372.79375
 21
597.0111895161
  0
LINE
  5
2D9
100
AcDbEntity
  8
7_ALL_FEATURES
100
AcDbLine
 62
3
  6
CONTINUOUS
 10
381.69375
 20
617.6111895161
 11
351.69375
 21
617.6111895161
  0
LINE
  5
2DA
100
AcDbEntity
  8
7_ALL_FEATURES
100
AcDbLine
 62
9
  6
CONTINUOUS
 10
381.69375
 20
641.7567034454
 11
950.99375
 21
641.7567034454
  0
LINE
  5
2DB
100
AcDbEntity
  8
7_ALL_FEATURES
100
AcDbLine
 62
3
  6
CONTINUOUS
 10
326.69375
 20
642.6111895161
 11
381.69375
 21
642.6111895161
  0
LINE
  5
2DC
100
AcDbEntity
  8
7_ALL_FEATURES
100
AcDbLine
 62
9
  6
CONTINUOUS
 10
326.966038001
 20
642.8389015151
 11
950.99375
 21
642.8389015151
  0
LINE
  5
2DD
100
AcDbEntity
  8
7_ALL_FEATURES
100
AcDbLine
 62
7
  6
CONTINUOUS
 10
950.99375
 20
567.8111895161
 11
950.99375
 21
662.6111895161
  0
LINE
  5
2DE
100
AcDbEntity
  8
7_ALL_FEATURES
100
AcDbLine
 62
9
  6
CONTINUOUS
 10
950.99375
 20
656.845848639
 11
312.9590908772
 21
656.845848639
  0
LINE
  5
2DF
100
AcDbEntity
  8
7_ALL_FEATURES
100
AcDbLine
 62
9
  6
CONTINUOUS
 10
950.99375
 20
658.8787792775
 11
310.9261602386
 21
658.8787792775
  0
LINE
  5
2E0
100
AcDbEntity
  8
7_ALL_FEATURES
100
AcDbLine
 62
9
  6
CONTINUOUS
 10
950.99375
 20
660.6757056452
 11
309.129233871
 21
660.6757056452
  0
LINE
  5
2E1
100
AcDbEntity
  8
7_ALL_FEATURES
100
AcDbLine
 62
7
  6
CONTINUOUS
 10
308.69375
 20
661.1111895161
 11
950.99375
 21
661.1111895161
  0
LINE
  5
2E2
100
AcDbEntity
  8
7_ALL_FEATURES
100
AcDbLine
 62
9
  6
CONTINUOUS
 10
308.19375
 20
661.6111895161
 11
950.99375
 21
661.6111895161
  0
LINE
  5
2E3
100
AcDbEntity
  8
7_ALL_FEATURES
100
AcDbLine
 62
9
  6
CONTINUOUS
 10
307.49375
 20
662.3111895161
 11
950.99375
 21
662.3111895161
  0
LINE
  5
2E4
100
AcDbEntity
  8
7_ALL_FEATURES
100
AcDbLine
 62
7
  6
CONTINUOUS
 10
307.19375
 20
662.6111895161
 11
950.99375
 21
662.6111895161
  0
LINE
  5
2E5
100
AcDbEntity
  8
6_ALL_SURFS
100
AcDbLine
 62
7
  6
CONTINUOUS
 10
307.19375
 20
772.6521169355
 11
307.19375
 21
770.9728428776
  0
LINE
  5
2E6
100
AcDbEntity
  8
6_ALL_SURFS
100
AcDbLine
 62
7
  6
CONTINUOUS
 10
307.19375
 20
766.9313909933
 11
307.19375
 21
766.4521169355
  0
LINE
  5
2E7
100
AcDbEntity
  8
7_ALL_FEATURES
100
AcDbLine
 62
7
  6
CONTINUOUS
 10
307.19375
 20
741.2521169355
 11
307.19375
 21
742.9313909933
  0
LINE
  5
2E8
100
AcDbEntity
  8
7_ALL_FEATURES
100
AcDbLine
 62
7
  6
CONTINUOUS
 10
307.19375
 20
746.9728428776
 11
307.19375
 21
747.4521169355
  0
LINE
  5
2E9
100
AcDbEntity
  8
7_ALL_FEATURES
100
AcDbLine
 62
7
  6
CONTINUOUS
 10
307.19375
 20
755.1521169355
 11
307.19375
 21
758.7521169355
  0
LINE
  5
2EA
100
AcDbEntity
  8
7_ALL_FEATURES
100
AcDbLine
 62
7
  6
CONTINUOUS
 10
308.69375
 20
742.1862535983
 11
308.69375
 21
741.4521169355
  0
LINE
  5
2EB
100
AcDbEntity
  8
6_ALL_SURFS
100
AcDbLine
 62
7
  6
CONTINUOUS
 10
308.69375
 20
771.7179802727
 11
308.69375
 21
772.4521169355
  0
LINE
  5
2EC
100
AcDbEntity
  8
7_ALL_FEATURES
100
AcDbLine
 62
7
  6
CONTINUOUS
 10
308.79375
 20
758.3521169355
 11
308.79375
 21
755.5521169355
  0
LINE
  5
2ED
100
AcDbEntity
  8
7_ALL_FEATURES
100
AcDbLine
 62
7
  6
CONTINUOUS
 10
309.14375
 20
755.4521169355
 11
309.14375
 21
758.4521169355
  0
LINE
  5
2EE
100
AcDbEntity
  8
7_ALL_FEATURES
100
AcDbLine
 62
7
  6
CONTINUOUS
 10
309.64375
 20
755.2521169355
 11
309.64375
 21
758.6521169355
  0
LINE
  5
2EF
100
AcDbEntity
  8
6_ALL_SURFS
100
AcDbLine
 62
7
  6
CONTINUOUS
 10
312.54375
 20
766.094233103
 11
312.54375
 21
760.8521169355
  0
LINE
  5
2F0
100
AcDbEntity
  8
7_ALL_FEATURES
100
AcDbLine
 62
7
  6
CONTINUOUS
 10
312.54375
 20
747.810000768
 11
312.54375
 21
753.0521169355
  0
LINE
  5
2F1
100
AcDbEntity
  8
7_ALL_FEATURES
100
AcDbLine
 62
7
  6
CONTINUOUS
 10
314.14375
 20
744.3547017872
 11
314.14375
 21
758.9521169355
  0
LINE
  5
2F2
100
AcDbEntity
  8
6_ALL_SURFS
100
AcDbLine
 62
7
  6
CONTINUOUS
 10
314.14375
 20
758.9521169355
 11
314.14375
 21
769.5495320838
  0
LINE
  5
2F3
100
AcDbEntity
  8
7_ALL_FEATURES
100
AcDbLine
 62
7
  6
CONTINUOUS
 10
315.14375
 20
764.4521169355
 11
315.14375
 21
749.4521169355
  0
LINE
  5
2F4
100
AcDbEntity
  8
7_ALL_FEATURES
100
AcDbLine
 62
7
  6
CONTINUOUS
 10
317.1719532303
 20
760.9521169355
 11
317.1719532303
 21
752.9521169355
  0
LINE
  5
2F5
100
AcDbEntity
  8
7_ALL_FEATURES
100
AcDbLine
 62
7
  6
CONTINUOUS
 10
326.69375
 20
777.9521169355
 11
326.69375
 21
774.9521169355
  0
LINE
  5
2F6
100
AcDbEntity
  8
7_ALL_FEATURES
100
AcDbLine
 62
7
  6
CONTINUOUS
 10
326.69375
 20
735.9521169355
 11
326.69375
 21
738.9521169355
  0
LINE
  5
2F7
100
AcDbEntity
  8
3_ALL_AXES
100
AcDbLine
 62
7
  6
CONTINUOUS
 10
334.69375
 20
772.6521169355
 11
334.69375
 21
772.3521169355
  0
LINE
  5
2F8
100
AcDbEntity
  8
3_ALL_AXES
100
AcDbLine
 62
7
  6
CONTINUOUS
 10
334.69375
 20
741.2521169355
 11
334.69375
 21
741.5521169355
  0
LINE
  5
2F9
100
AcDbEntity
  8
3_ALL_AXES
100
AcDbLine
 62
7
  6
CONTINUOUS
 10
334.84375
 20
779.9521169355
 11
334.84375
 21
777.9521169355
  0
LINE
  5
2FA
100
AcDbEntity
  8
3_ALL_AXES
100
AcDbLine
 62
7
  6
CONTINUOUS
 10
334.84375
 20
733.9521169355
 11
334.84375
 21
735.9521169355
  0
LINE
  5
2FB
100
AcDbEntity
  8
3_ALL_AXES
100
AcDbLine
 62
7
  6
CONTINUOUS
 10
343.54375
 20
779.9521169355
 11
343.54375
 21
777.9521169355
  0
LINE
  5
2FC
100
AcDbEntity
  8
3_ALL_AXES
100
AcDbLine
 62
7
  6
CONTINUOUS
 10
343.54375
 20
733.9521169355
 11
343.54375
 21
735.9521169355
  0
LINE
  5
2FD
100
AcDbEntity
  8
3_ALL_AXES
100
AcDbLine
 62
7
  6
CONTINUOUS
 10
344.69375
 20
772.6521169355
 11
344.69375
 21
772.3521169355
  0
LINE
  5
2FE
100
AcDbEntity
  8
3_ALL_AXES
100
AcDbLine
 62
7
  6
CONTINUOUS
 10
344.69375
 20
741.2521169355
 11
344.69375
 21
741.5521169355
  0
LINE
  5
2FF
100
AcDbEntity
  8
3_ALL_AXES
100
AcDbLine
 62
7
  6
CONTINUOUS
 10
350.34375
 20
733.9521169355
 11
350.34375
 21
735.9521169355
  0
LINE
  5
300
100
AcDbEntity
  8
3_ALL_AXES
100
AcDbLine
 62
7
  6
CONTINUOUS
 10
350.49375
 20
741.2521169355
 11
350.49375
 21
741.5521169355
  0
LINE
  5
301
100
AcDbEntity
  8
7_ALL_FEATURES
100
AcDbLine
 62
7
  6
CONTINUOUS
 10
351.69375
 20
777.9521169355
 11
351.69375
 21
774.9521169355
  0
LINE
  5
302
100
AcDbEntity
  8
7_ALL_FEATURES
100
AcDbLine
 62
7
  6
CONTINUOUS
 10
351.69375
 20
735.9521169355
 11
351.69375
 21
738.9521169355
  0
LINE
  5
303
100
AcDbEntity
  8
3_ALL_AXES
100
AcDbLine
 62
7
  6
CONTINUOUS
 10
359.04375
 20
733.9521169355
 11
359.04375
 21
735.9521169355
  0
LINE
  5
304
100
AcDbEntity
  8
3_ALL_AXES
100
AcDbLine
 62
7
  6
CONTINUOUS
 10
360.49375
 20
741.2521169355
 11
360.49375
 21
741.5521169355
  0
LINE
  5
305
100
AcDbEntity
  8
3_ALL_AXES
100
AcDbLine
 62
7
  6
CONTINUOUS
 10
362.84375
 20
779.9521169355
 11
362.84375
 21
777.9521169355
  0
LINE
  5
306
100
AcDbEntity
  8
3_ALL_AXES
100
AcDbLine
 62
7
  6
CONTINUOUS
 10
362.99375
 20
772.6521169355
 11
362.99375
 21
772.3521169355
  0
LINE
  5
307
100
AcDbEntity
  8
3_ALL_AXES
100
AcDbLine
 62
7
  6
CONTINUOUS
 10
371.54375
 20
779.9521169355
 11
371.54375
 21
777.9521169355
  0
LINE
  5
308
100
AcDbEntity
  8
3_ALL_AXES
100
AcDbLine
 62
7
  6
CONTINUOUS
 10
372.99375
 20
772.6521169355
 11
372.99375
 21
772.3521169355
  0
LINE
  5
309
100
AcDbEntity
  8
6_ALL_SURFS
100
AcDbLine
 62
7
  6
CONTINUOUS
 10
373.09375
 20
776.1521169355
 11
373.09375
 21
775.2521169355
  0
LINE
  5
30A
100
AcDbEntity
  8
7_ALL_FEATURES
100
AcDbLine
 62
7
  6
CONTINUOUS
 10
373.09375
 20
737.7521169355
 11
373.09375
 21
738.6521169355
  0
LINE
  5
30B
100
AcDbEntity
  8
7_ALL_FEATURES
100
AcDbLine
 62
7
  6
CONTINUOUS
 10
378.89375
 20
738.5021169355
 11
378.89375
 21
737.7521169355
  0
LINE
  5
30C
100
AcDbEntity
  8
6_ALL_SURFS
100
AcDbLine
 62
7
  6
CONTINUOUS
 10
378.89375
 20
775.4021169355
 11
378.89375
 21
776.1521169355
  0
LINE
  5
30D
100
AcDbEntity
  8
7_ALL_FEATURES
100
AcDbLine
 62
7
  6
CONTINUOUS
 10
381.24375
 20
740.2521169355
 11
381.24375
 21
739.432560648
  0
LINE
  5
30E
100
AcDbEntity
  8
6_ALL_SURFS
100
AcDbLine
 62
7
  6
CONTINUOUS
 10
381.24375
 20
773.6521169355
 11
381.24375
 21
774.471673223
  0
LINE
  5
30F
100
AcDbEntity
  8
7_ALL_FEATURES
100
AcDbLine
 62
7
  6
CONTINUOUS
 10
384.49375
 20
738.4161119828
 11
384.49375
 21
737.7021169355
  0
LINE
  5
310
100
AcDbEntity
  8
6_ALL_SURFS
100
AcDbLine
 62
7
  6
CONTINUOUS
 10
384.49375
 20
775.4881218881
 11
384.49375
 21
776.2021169355
  0
LINE
  5
311
100
AcDbEntity
  8
7_ALL_FEATURES
100
AcDbLine
 62
7
  6
CONTINUOUS
 10
385.89375
 20
739.8521169355
 11
385.89375
 21
774.0521169355
  0
LINE
  5
312
100
AcDbEntity
  8
7_ALL_FEATURES
100
AcDbLine
 62
7
  6
CONTINUOUS
 10
385.99375
 20
737.8021169355
 11
385.99375
 21
738.6521169355
  0
LINE
  5
313
100
AcDbEntity
  8
7_ALL_FEATURES
100
AcDbLine
 62
7
  6
CONTINUOUS
 10
385.99375
 20
775.2521169355
 11
385.99375
 21
776.1021169355
  0
LINE
  5
314
100
AcDbEntity
  8
7_ALL_FEATURES
100
AcDbLine
 62
7
  6
CONTINUOUS
 10
386.99375
 20
776.1021169355
 11
386.99375
 21
737.8021169355
  0
LINE
  5
315
100
AcDbEntity
  8
7_ALL_FEATURES
100
AcDbLine
 62
7
  6
CONTINUOUS
 10
387.49375
 20
737.6021169355
 11
387.49375
 21
776.3021169355
  0
LINE
  5
316
100
AcDbEntity
  8
7_ALL_FEATURES
100
AcDbLine
 62
7
  6
CONTINUOUS
 10
327.7870648294
 20
740.7374324662
 11
327.8485582268
 21
740.8399214618
  0
LINE
  5
317
100
AcDbEntity
  8
6_ALL_SURFS
100
AcDbLine
 62
7
  6
CONTINUOUS
 10
327.7870648294
 20
773.1668014048
 11
327.8485582268
 21
773.0643124092
  0
LINE
  5
318
100
AcDbEntity
  8
6_ALL_SURFS
100
AcDbLine
 62
7
  6
CONTINUOUS
 10
400.49375
 20
795.5021169355
 11
400.279202841
 21
797.6475885259
  0
LINE
  5
319
100
AcDbEntity
  8
6_ALL_SURFS
100
AcDbLine
 62
7
  6
CONTINUOUS
 10
399.49375
 20
797.6084135776
 11
399.49375
 21
795.6021169355
  0
LINE
  5
31A
100
AcDbEntity
  8
6_ALL_SURFS
100
AcDbLine
 62
7
  6
CONTINUOUS
 10
399.49375
 20
795.0021169355
 11
399.49375
 21
792.6021169355
  0
LINE
  5
31B
100
AcDbEntity
  8
6_ALL_SURFS
100
AcDbLine
 62
7
  6
CONTINUOUS
 10
399.49375
 20
792.0021169355
 11
399.49375
 21
789.6021169355
  0
LINE
  5
31C
100
AcDbEntity
  8
6_ALL_SURFS
100
AcDbLine
 62
7
  6
CONTINUOUS
 10
399.49375
 20
789.0021169355
 11
399.49375
 21
786.6021169355
  0
LINE
  5
31D
100
AcDbEntity
  8
6_ALL_SURFS
100
AcDbLine
 62
7
  6
CONTINUOUS
 10
399.49375
 20
786.0021169355
 11
399.49375
 21
783.6021169355
  0
LINE
  5
31E
100
AcDbEntity
  8
6_ALL_SURFS
100
AcDbLine
 62
7
  6
CONTINUOUS
 10
399.49375
 20
783.0021169355
 11
399.49375
 21
780.6021169355
  0
LINE
  5
31F
100
AcDbEntity
  8
6_ALL_SURFS
100
AcDbLine
 62
7
  6
CONTINUOUS
 10
399.49375
 20
780.0021169355
 11
399.49375
 21
778.3021169355
  0
LINE
  5
320
100
AcDbEntity
  8
7_ALL_FEATURES
100
AcDbLine
 62
7
  6
CONTINUOUS
 10
399.49375
 20
716.2958202934
 11
399.49375
 21
718.3021169355
  0
LINE
  5
321
100
AcDbEntity
  8
7_ALL_FEATURES
100
AcDbLine
 62
7
  6
CONTINUOUS
 10
399.49375
 20
718.9021169355
 11
399.49375
 21
721.3021169355
  0
LINE
  5
322
100
AcDbEntity
  8
7_ALL_FEATURES
100
AcDbLine
 62
7
  6
CONTINUOUS
 10
399.49375
 20
721.9021169355
 11
399.49375
 21
724.3021169355
  0
LINE
  5
323
100
AcDbEntity
  8
7_ALL_FEATURES
100
AcDbLine
 62
7
  6
CONTINUOUS
 10
399.49375
 20
724.9021169355
 11
399.49375
 21
727.3021169355
  0
LINE
  5
324
100
AcDbEntity
  8
7_ALL_FEATURES
100
AcDbLine
 62
7
  6
CONTINUOUS
 10
399.49375
 20
727.9021169355
 11
399.49375
 21
730.3021169355
  0
LINE
  5
325
100
AcDbEntity
  8
7_ALL_FEATURES
100
AcDbLine
 62
7
  6
CONTINUOUS
 10
399.49375
 20
730.9021169355
 11
399.49375
 21
733.3021169355
  0
LINE
  5
326
100
AcDbEntity
  8
7_ALL_FEATURES
100
AcDbLine
 62
7
  6
CONTINUOUS
 10
399.49375
 20
733.9021169355
 11
399.49375
 21
735.6021169355
  0
LINE
  5
327
100
AcDbEntity
  8
7_ALL_FEATURES
100
AcDbLine
 62
7
  6
CONTINUOUS
 10
400.49375
 20
735.8521169355
 11
400.49375
 21
733.9021169355
  0
LINE
  5
328
100
AcDbEntity
  8
7_ALL_FEATURES
100
AcDbLine
 62
7
  6
CONTINUOUS
 10
400.49375
 20
733.3021169355
 11
400.49375
 21
730.9021169355
  0
LINE
  5
329
100
AcDbEntity
  8
7_ALL_FEATURES
100
AcDbLine
 62
7
  6
CONTINUOUS
 10
400.49375
 20
730.3021169355
 11
400.49375
 21
727.9021169355
  0
LINE
  5
32A
100
AcDbEntity
  8
7_ALL_FEATURES
100
AcDbLine
 62
7
  6
CONTINUOUS
 10
400.49375
 20
727.3021169355
 11
400.49375
 21
724.9021169355
  0
LINE
  5
32B
100
AcDbEntity
  8
7_ALL_FEATURES
100
AcDbLine
 62
7
  6
CONTINUOUS
 10
400.49375
 20
724.3021169355
 11
400.49375
 21
721.9021169355
  0
LINE
  5
32C
100
AcDbEntity
  8
7_ALL_FEATURES
100
AcDbLine
 62
7
  6
CONTINUOUS
 10
400.49375
 20
721.3021169355
 11
400.49375
 21
718.4021169355
  0
LINE
  5
32D
100
AcDbEntity
  8
6_ALL_SURFS
100
AcDbLine
 62
7
  6
CONTINUOUS
 10
400.49375
 20
778.0521169355
 11
400.49375
 21
780.0021169355
  0
LINE
  5
32E
100
AcDbEntity
  8
6_ALL_SURFS
100
AcDbLine
 62
7
  6
CONTINUOUS
 10
400.49375
 20
780.6021169355
 11
400.49375
 21
783.0021169355
  0
LINE
  5
32F
100
AcDbEntity
  8
6_ALL_SURFS
100
AcDbLine
 62
7
  6
CONTINUOUS
 10
400.49375
 20
783.6021169355
 11
400.49375
 21
786.0021169355
  0
LINE
  5
330
100
AcDbEntity
  8
6_ALL_SURFS
100
AcDbLine
 62
7
  6
CONTINUOUS
 10
400.49375
 20
786.6021169355
 11
400.49375
 21
789.0021169355
  0
LINE
  5
331
100
AcDbEntity
  8
6_ALL_SURFS
100
AcDbLine
 62
7
  6
CONTINUOUS
 10
400.49375
 20
789.6021169355
 11
400.49375
 21
792.0021169355
  0
LINE
  5
332
100
AcDbEntity
  8
6_ALL_SURFS
100
AcDbLine
 62
7
  6
CONTINUOUS
 10
400.49375
 20
792.6021169355
 11
400.49375
 21
795.5021169355
  0
LINE
  5
333
100
AcDbEntity
  8
7_ALL_FEATURES
100
AcDbLine
 62
7
  6
CONTINUOUS
 10
401.99375
 20
737.1021169355
 11
401.99375
 21
736.4521169355
  0
LINE
  5
334
100
AcDbEntity
  8
6_ALL_SURFS
100
AcDbLine
 62
7
  6
CONTINUOUS
 10
401.99375
 20
776.8021169355
 11
401.99375
 21
777.4521169355
  0
LINE
  5
335
100
AcDbEntity
  8
7_ALL_FEATURES
100
AcDbLine
 62
7
  6
CONTINUOUS
 10
400.49375
 20
718.4021169355
 11
400.279202841
 21
716.2566453451
  0
LINE
  5
336
100
AcDbEntity
  8
6_ALL_SURFS
100
AcDbLine
 62
7
  6
CONTINUOUS
 10
399.49375
 20
795.6021169355
 11
399.34375
 21
795.3021169355
  0
LINE
  5
337
100
AcDbEntity
  8
6_ALL_SURFS
100
AcDbLine
 62
7
  6
CONTINUOUS
 10
399.49375
 20
792.6021169355
 11
399.34375
 21
792.3021169355
  0
LINE
  5
338
100
AcDbEntity
  8
6_ALL_SURFS
100
AcDbLine
 62
7
  6
CONTINUOUS
 10
399.49375
 20
789.6021169355
 11
399.34375
 21
789.3021169355
  0
LINE
  5
339
100
AcDbEntity
  8
6_ALL_SURFS
100
AcDbLine
 62
7
  6
CONTINUOUS
 10
399.49375
 20
786.6021169355
 11
399.34375
 21
786.3021169355
  0
LINE
  5
33A
100
AcDbEntity
  8
6_ALL_SURFS
100
AcDbLine
 62
7
  6
CONTINUOUS
 10
399.49375
 20
783.6021169355
 11
399.34375
 21
783.3021169355
  0
LINE
  5
33B
100
AcDbEntity
  8
6_ALL_SURFS
100
AcDbLine
 62
7
  6
CONTINUOUS
 10
399.49375
 20
780.6021169355
 11
399.34375
 21
780.3021169355
  0
LINE
  5
33C
100
AcDbEntity
  8
6_ALL_SURFS
100
AcDbLine
 62
7
  6
CONTINUOUS
 10
374.9833870289
 20
773.5021169355
 11
375.2079383177
 21
773.8910511766
  0
LINE
  5
33D
100
AcDbEntity
  8
7_ALL_FEATURES
100
AcDbLine
 62
7
  6
CONTINUOUS
 10
309.14375
 20
758.4521169355
 11
309.34375
 21
758.6521169355
  0
LINE
  5
33E
100
AcDbEntity
  8
7_ALL_FEATURES
100
AcDbLine
 62
7
  6
CONTINUOUS
 10
337.69375
 20
780.3521169355
 11
337.29375
 21
779.9521169355
  0
LINE
  5
33F
100
AcDbEntity
  8
3_ALL_AXES
100
AcDbLine
 62
7
  6
CONTINUOUS
 10
335.39375
 20
773.3521169355
 11
334.69375
 21
772.6521169355
  0
LINE
  5
340
100
AcDbEntity
  8
7_ALL_FEATURES
100
AcDbLine
 62
7
  6
CONTINUOUS
 10
309.14375
 20
755.4521169355
 11
309.34375
 21
755.2521169355
  0
LINE
  5
341
100
AcDbEntity
  8
7_ALL_FEATURES
100
AcDbLine
 62
7
  6
CONTINUOUS
 10
337.69375
 20
733.5521169355
 11
337.29375
 21
733.9521169355
  0
LINE
  5
342
100
AcDbEntity
  8
3_ALL_AXES
100
AcDbLine
 62
7
  6
CONTINUOUS
 10
335.39375
 20
740.5521169355
 11
334.69375
 21
741.2521169355
  0
LINE
  5
343
100
AcDbEntity
  8
7_ALL_FEATURES
100
AcDbLine
 62
7
  6
CONTINUOUS
 10
374.9833870289
 20
740.4021169355
 11
375.2079383177
 21
740.0131826944
  0
LINE
  5
344
100
AcDbEntity
  8
7_ALL_FEATURES
100
AcDbLine
 62
7
  6
CONTINUOUS
 10
399.49375
 20
718.3021169355
 11
399.34375
 21
718.6021169355
  0
LINE
  5
345
100
AcDbEntity
  8
7_ALL_FEATURES
100
AcDbLine
 62
7
  6
CONTINUOUS
 10
399.49375
 20
721.3021169355
 11
399.34375
 21
721.6021169355
  0
LINE
  5
346
100
AcDbEntity
  8
7_ALL_FEATURES
100
AcDbLine
 62
7
  6
CONTINUOUS
 10
399.49375
 20
724.3021169355
 11
399.34375
 21
724.6021169355
  0
LINE
  5
347
100
AcDbEntity
  8
7_ALL_FEATURES
100
AcDbLine
 62
7
  6
CONTINUOUS
 10
399.49375
 20
727.3021169355
 11
399.34375
 21
727.6021169355
  0
LINE
  5
348
100
AcDbEntity
  8
7_ALL_FEATURES
100
AcDbLine
 62
7
  6
CONTINUOUS
 10
399.49375
 20
730.3021169355
 11
399.34375
 21
730.6021169355
  0
LINE
  5
349
100
AcDbEntity
  8
7_ALL_FEATURES
100
AcDbLine
 62
7
  6
CONTINUOUS
 10
399.49375
 20
733.3021169355
 11
399.34375
 21
733.6021169355
  0
LINE
  5
34A
100
AcDbEntity
  8
7_ALL_FEATURES
100
AcDbLine
 62
7
  6
CONTINUOUS
 10
399.34375
 20
733.6021169355
 11
399.49375
 21
733.9021169355
  0
LINE
  5
34B
100
AcDbEntity
  8
7_ALL_FEATURES
100
AcDbLine
 62
7
  6
CONTINUOUS
 10
399.34375
 20
730.6021169355
 11
399.49375
 21
730.9021169355
  0
LINE
  5
34C
100
AcDbEntity
  8
7_ALL_FEATURES
100
AcDbLine
 62
7
  6
CONTINUOUS
 10
399.34375
 20
727.6021169355
 11
399.49375
 21
727.9021169355
  0
LINE
  5
34D
100
AcDbEntity
  8
7_ALL_FEATURES
100
AcDbLine
 62
7
  6
CONTINUOUS
 10
376.7795616823
 20
740.0131826944
 11
377.0041129711
 21
740.4021169355
  0
LINE
  5
34E
100
AcDbEntity
  8
7_ALL_FEATURES
100
AcDbLine
 62
7
  6
CONTINUOUS
 10
365.99375
 20
780.3521169355
 11
365.59375
 21
779.9521169355
  0
LINE
  5
34F
100
AcDbEntity
  8
3_ALL_AXES
100
AcDbLine
 62
7
  6
CONTINUOUS
 10
363.69375
 20
773.3521169355
 11
362.99375
 21
772.6521169355
  0
LINE
  5
350
100
AcDbEntity
  8
7_ALL_FEATURES
100
AcDbLine
 62
7
  6
CONTINUOUS
 10
353.49375
 20
733.5521169355
 11
353.09375
 21
733.9521169355
  0
LINE
  5
351
100
AcDbEntity
  8
3_ALL_AXES
100
AcDbLine
 62
7
  6
CONTINUOUS
 10
351.19375
 20
740.5521169355
 11
350.49375
 21
741.2521169355
  0
LINE
  5
352
100
AcDbEntity
  8
6_ALL_SURFS
100
AcDbLine
 62
7
  6
CONTINUOUS
 10
376.7795616823
 20
773.8910511766
 11
377.0041129711
 21
773.5021169355
  0
LINE
  5
353
100
AcDbEntity
  8
6_ALL_SURFS
100
AcDbLine
 62
7
  6
CONTINUOUS
 10
399.34375
 20
780.3021169355
 11
399.49375
 21
780.0021169355
  0
LINE
  5
354
100
AcDbEntity
  8
6_ALL_SURFS
100
AcDbLine
 62
7
  6
CONTINUOUS
 10
399.34375
 20
783.3021169355
 11
399.49375
 21
783.0021169355
  0
LINE
  5
355
100
AcDbEntity
  8
6_ALL_SURFS
100
AcDbLine
 62
7
  6
CONTINUOUS
 10
399.34375
 20
786.3021169355
 11
399.49375
 21
786.0021169355
  0
LINE
  5
356
100
AcDbEntity
  8
7_ALL_FEATURES
100
AcDbLine
 62
7
  6
CONTINUOUS
 10
399.34375
 20
724.6021169355
 11
399.49375
 21
724.9021169355
  0
LINE
  5
357
100
AcDbEntity
  8
7_ALL_FEATURES
100
AcDbLine
 62
7
  6
CONTINUOUS
 10
399.34375
 20
721.6021169355
 11
399.49375
 21
721.9021169355
  0
LINE
  5
358
100
AcDbEntity
  8
7_ALL_FEATURES
100
AcDbLine
 62
7
  6
CONTINUOUS
 10
399.34375
 20
718.6021169355
 11
399.49375
 21
718.9021169355
  0
LINE
  5
359
100
AcDbEntity
  8
3_ALL_AXES
100
AcDbLine
 62
7
  6
CONTINUOUS
 10
343.99375
 20
740.5521169355
 11
344.69375
 21
741.2521169355
  0
LINE
  5
35A
100
AcDbEntity
  8
7_ALL_FEATURES
100
AcDbLine
 62
7
  6
CONTINUOUS
 10
341.69375
 20
733.5521169355
 11
342.09375
 21
733.9521169355
  0
LINE
  5
35B
100
AcDbEntity
  8
3_ALL_AXES
100
AcDbLine
 62
7
  6
CONTINUOUS
 10
359.79375
 20
740.5521169355
 11
360.49375
 21
741.2521169355
  0
LINE
  5
35C
100
AcDbEntity
  8
7_ALL_FEATURES
100
AcDbLine
 62
7
  6
CONTINUOUS
 10
357.49375
 20
733.5521169355
 11
357.89375
 21
733.9521169355
  0
LINE
  5
35D
100
AcDbEntity
  8
6_ALL_SURFS
100
AcDbLine
 62
7
  6
CONTINUOUS
 10
382.258253009
 20
777.5991474879
 11
379.6669419419
 21
775.182710825
  0
LINE
  5
35E
100
AcDbEntity
  8
6_ALL_SURFS
100
AcDbLine
 62
7
  6
CONTINUOUS
 10
381.339150492
 20
774.6910793335
 11
383.1948241837
 21
776.421523046
  0
LINE
  5
35F
100
AcDbEntity
  8
7_ALL_FEATURES
100
AcDbLine
 62
7
  6
CONTINUOUS
 10
382.420950656
 20
775.3338700266
 11
382.8117516399
 21
775.6982978398
  0
LINE
  5
360
100
AcDbEntity
  8
7_ALL_FEATURES
100
AcDbLine
 62
7
  6
CONTINUOUS
 10
383.357350328
 20
775.1132148785
 11
382.966549344
 21
774.7487870653
  0
LINE
  5
361
100
AcDbEntity
  8
7_ALL_FEATURES
100
AcDbLine
 62
7
  6
CONTINUOUS
 10
382.258253009
 20
736.3050863831
 11
379.6669419419
 21
738.721523046
  0
LINE
  5
362
100
AcDbEntity
  8
7_ALL_FEATURES
100
AcDbLine
 62
7
  6
CONTINUOUS
 10
381.339150492
 20
739.2131545375
 11
383.1948241837
 21
737.482710825
  0
LINE
  5
363
100
AcDbEntity
  8
7_ALL_FEATURES
100
AcDbLine
 62
7
  6
CONTINUOUS
 10
382.8117516399
 20
738.2059360312
 11
382.420950656
 21
738.5703638444
  0
LINE
  5
364
100
AcDbEntity
  8
7_ALL_FEATURES
100
AcDbLine
 62
7
  6
CONTINUOUS
 10
382.966549344
 20
739.1554468057
 11
383.357350328
 21
738.7910189925
  0
LINE
  5
365
100
AcDbEntity
  8
3_ALL_AXES
100
AcDbLine
 62
7
  6
CONTINUOUS
 10
343.99375
 20
773.3521169355
 11
344.69375
 21
772.6521169355
  0
LINE
  5
366
100
AcDbEntity
  8
7_ALL_FEATURES
100
AcDbLine
 62
7
  6
CONTINUOUS
 10
341.69375
 20
780.3521169355
 11
342.09375
 21
779.9521169355
  0
LINE
  5
367
100
AcDbEntity
  8
6_ALL_SURFS
100
AcDbLine
 62
7
  6
CONTINUOUS
 10
399.34375
 20
789.3021169355
 11
399.49375
 21
789.0021169355
  0
LINE
  5
368
100
AcDbEntity
  8
6_ALL_SURFS
100
AcDbLine
 62
7
  6
CONTINUOUS
 10
399.34375
 20
792.3021169355
 11
399.49375
 21
792.0021169355
  0
LINE
  5
369
100
AcDbEntity
  8
6_ALL_SURFS
100
AcDbLine
 62
7
  6
CONTINUOUS
 10
399.34375
 20
795.3021169355
 11
399.49375
 21
795.0021169355
  0
LINE
  5
36A
100
AcDbEntity
  8
6_ALL_SURFS
100
AcDbLine
 62
7
  6
CONTINUOUS
 10
386.262957849
 20
776.4401229376
 11
384.8155022858
 21
775.3294512201
  0
LINE
  5
36B
100
AcDbEntity
  8
6_ALL_SURFS
100
AcDbLine
 62
7
  6
CONTINUOUS
 10
309.0326842411
 20
768.1663052532
 11
307.34375
 21
767.1911986145
  0
LINE
  5
36C
100
AcDbEntity
  8
7_ALL_FEATURES
100
AcDbLine
 62
7
  6
CONTINUOUS
 10
307.34375
 20
743.1911986145
 11
309.0326842411
 21
744.1663052532
  0
LINE
  5
36D
100
AcDbEntity
  8
7_ALL_FEATURES
100
AcDbLine
 62
7
  6
CONTINUOUS
 10
309.0326842411
 20
745.7379286178
 11
307.34375
 21
746.7130352565
  0
LINE
  5
36E
100
AcDbEntity
  8
6_ALL_SURFS
100
AcDbLine
 62
7
  6
CONTINUOUS
 10
307.34375
 20
770.7130352565
 11
309.0326842411
 21
769.7379286178
  0
LINE
  5
36F
100
AcDbEntity
  8
7_ALL_FEATURES
100
AcDbLine
 62
7
  6
CONTINUOUS
 10
386.262957849
 20
737.4641109334
 11
384.8155022858
 21
738.5747826509
  0
LINE
  5
370
100
AcDbEntity
  8
3_ALL_AXES
100
AcDbLine
 62
7
  6
CONTINUOUS
 10
372.29375
 20
773.3521169355
 11
372.99375
 21
772.6521169355
  0
LINE
  5
371
100
AcDbEntity
  8
7_ALL_FEATURES
100
AcDbLine
 62
7
  6
CONTINUOUS
 10
369.99375
 20
780.3521169355
 11
370.39375
 21
779.9521169355
  0
LINE
  5
372
100
AcDbEntity
  8
6_ALL_SURFS
100
AcDbLine
 62
7
  6
CONTINUOUS
 10
328.2084121475
 20
772.9367533495
 11
329.1839210581
 21
773.2918095563
  0
LINE
  5
373
100
AcDbEntity
  8
7_ALL_FEATURES
100
AcDbLine
 62
7
  6
CONTINUOUS
 10
328.2084121475
 20
740.9674805214
 11
329.1839210581
 21
740.6124243147
  0
LINE
  5
374
100
AcDbEntity
  8
7_ALL_FEATURES
100
AcDbLine
 62
7
  6
CONTINUOUS
 10
326.966038001
 20
739.0706368999
 11
312.9590908772
 21
742.1759023172
  0
LINE
  5
375
100
AcDbEntity
  8
7_ALL_FEATURES
100
AcDbLine
 62
7
  6
CONTINUOUS
 10
314.9273103861
 20
743.37840578
 11
327.4648850675
 21
740.5988923907
  0
LINE
  5
376
100
AcDbEntity
  8
6_ALL_SURFS
100
AcDbLine
 62
7
  6
CONTINUOUS
 10
950.99375
 20
715.9021169355
 11
399.8874533579
 21
715.9021169355
  0
LINE
  5
377
100
AcDbEntity
  8
7_ALL_FEATURES
100
AcDbLine
 62
9
  6
CONTINUOUS
 10
400.279202841
 20
716.2566453451
 11
950.99375
 21
716.2566453451
  0
LINE
  5
378
100
AcDbEntity
  8
6_ALL_SURFS
100
AcDbLine
 62
7
  6
CONTINUOUS
 10
950.99375
 20
718.4021169355
 11
922.2771577937
 21
718.4021169355
  0
LINE
  5
379
100
AcDbEntity
  8
6_ALL_SURFS
100
AcDbLine
 62
7
  6
CONTINUOUS
 10
915.7103422063
 20
718.4021169355
 11
672.2771577937
 21
718.4021169355
  0
LINE
  5
37A
100
AcDbEntity
  8
6_ALL_SURFS
100
AcDbLine
 62
7
  6
CONTINUOUS
 10
665.7103422063
 20
718.4021169355
 11
422.2771577937
 21
718.4021169355
  0
LINE
  5
37B
100
AcDbEntity
  8
7_ALL_FEATURES
100
AcDbLine
 62
7
  6
CONTINUOUS
 10
415.7103422063
 20
718.4021169355
 11
400.49375
 21
718.4021169355
  0
LINE
  5
37C
100
AcDbEntity
  8
6_ALL_SURFS
100
AcDbLine
 62
7
  6
CONTINUOUS
 10
950.99375
 20
721.3021169355
 11
923.75513286
 21
721.3021169355
  0
LINE
  5
37D
100
AcDbEntity
  8
6_ALL_SURFS
100
AcDbLine
 62
7
  6
CONTINUOUS
 10
914.23236714
 20
721.3021169355
 11
673.75513286
 21
721.3021169355
  0
LINE
  5
37E
100
AcDbEntity
  8
6_ALL_SURFS
100
AcDbLine
 62
7
  6
CONTINUOUS
 10
664.23236714
 20
721.3021169355
 11
423.75513286
 21
721.3021169355
  0
LINE
  5
37F
100
AcDbEntity
  8
7_ALL_FEATURES
100
AcDbLine
 62
7
  6
CONTINUOUS
 10
414.23236714
 20
721.3021169355
 11
400.49375
 21
721.3021169355
  0
LINE
  5
380
100
AcDbEntity
  8
6_ALL_SURFS
100
AcDbLine
 62
7
  6
CONTINUOUS
 10
950.99375
 20
721.9021169355
 11
923.7927881057
 21
721.9021169355
  0
LINE
  5
381
100
AcDbEntity
  8
6_ALL_SURFS
100
AcDbLine
 62
7
  6
CONTINUOUS
 10
914.1947118943
 20
721.9021169355
 11
673.7927881057
 21
721.9021169355
  0
LINE
  5
382
100
AcDbEntity
  8
6_ALL_SURFS
100
AcDbLine
 62
7
  6
CONTINUOUS
 10
664.1947118943
 20
721.9021169355
 11
423.7927881057
 21
721.9021169355
  0
LINE
  5
383
100
AcDbEntity
  8
7_ALL_FEATURES
100
AcDbLine
 62
7
  6
CONTINUOUS
 10
414.1947118943
 20
721.9021169355
 11
400.49375
 21
721.9021169355
  0
LINE
  5
384
100
AcDbEntity
  8
6_ALL_SURFS
100
AcDbLine
 62
7
  6
CONTINUOUS
 10
950.99375
 20
724.3021169355
 11
923.1495612012
 21
724.3021169355
  0
LINE
  5
385
100
AcDbEntity
  8
6_ALL_SURFS
100
AcDbLine
 62
7
  6
CONTINUOUS
 10
914.8379387988
 20
724.3021169355
 11
673.1495612012
 21
724.3021169355
  0
LINE
  5
386
100
AcDbEntity
  8
6_ALL_SURFS
100
AcDbLine
 62
7
  6
CONTINUOUS
 10
664.8379387988
 20
724.3021169355
 11
423.1495612012
 21
724.3021169355
  0
LINE
  5
387
100
AcDbEntity
  8
7_ALL_FEATURES
100
AcDbLine
 62
7
  6
CONTINUOUS
 10
414.8379387988
 20
724.3021169355
 11
400.49375
 21
724.3021169355
  0
LINE
  5
388
100
AcDbEntity
  8
6_ALL_SURFS
100
AcDbLine
 62
7
  6
CONTINUOUS
 10
950.99375
 20
724.9021169355
 11
922.739516509
 21
724.9021169355
  0
LINE
  5
389
100
AcDbEntity
  8
6_ALL_SURFS
100
AcDbLine
 62
7
  6
CONTINUOUS
 10
915.247983491
 20
724.9021169355
 11
672.739516509
 21
724.9021169355
  0
LINE
  5
38A
100
AcDbEntity
  8
6_ALL_SURFS
100
AcDbLine
 62
7
  6
CONTINUOUS
 10
665.247983491
 20
724.9021169355
 11
422.739516509
 21
724.9021169355
  0
LINE
  5
38B
100
AcDbEntity
  8
7_ALL_FEATURES
100
AcDbLine
 62
7
  6
CONTINUOUS
 10
415.247983491
 20
724.9021169355
 11
400.49375
 21
724.9021169355
  0
LINE
  5
38C
100
AcDbEntity
  8
7_ALL_FEATURES
100
AcDbLine
 62
7
  6
CONTINUOUS
 10
950.99375
 20
727.3021169355
 11
400.49375
 21
727.3021169355
  0
LINE
  5
38D
100
AcDbEntity
  8
7_ALL_FEATURES
100
AcDbLine
 62
7
  6
CONTINUOUS
 10
950.99375
 20
727.9021169355
 11
400.49375
 21
727.9021169355
  0
LINE
  5
38E
100
AcDbEntity
  8
7_ALL_FEATURES
100
AcDbLine
 62
7
  6
CONTINUOUS
 10
950.99375
 20
730.3021169355
 11
400.49375
 21
730.3021169355
  0
LINE
  5
38F
100
AcDbEntity
  8
7_ALL_FEATURES
100
AcDbLine
 62
7
  6
CONTINUOUS
 10
950.99375
 20
730.9021169355
 11
400.49375
 21
730.9021169355
  0
LINE
  5
390
100
AcDbEntity
  8
7_ALL_FEATURES
100
AcDbLine
 62
7
  6
CONTINUOUS
 10
950.99375
 20
733.3021169355
 11
400.49375
 21
733.3021169355
  0
LINE
  5
391
100
AcDbEntity
  8
7_ALL_FEATURES
100
AcDbLine
 62
7
  6
CONTINUOUS
 10
337.69375
 20
733.5521169355
 11
341.69375
 21
733.5521169355
  0
LINE
  5
392
100
AcDbEntity
  8
7_ALL_FEATURES
100
AcDbLine
 62
7
  6
CONTINUOUS
 10
353.49375
 20
733.5521169355
 11
357.49375
 21
733.5521169355
  0
LINE
  5
393
100
AcDbEntity
  8
7_ALL_FEATURES
100
AcDbLine
 62
7
  6
CONTINUOUS
 10
950.99375
 20
733.9021169355
 11
400.49375
 21
733.9021169355
  0
LINE
  5
394
100
AcDbEntity
  8
3_ALL_AXES
100
AcDbLine
 62
7
  6
CONTINUOUS
 10
334.84375
 20
733.9521169355
 11
343.54375
 21
733.9521169355
  0
LINE
  5
395
100
AcDbEntity
  8
3_ALL_AXES
100
AcDbLine
 62
7
  6
CONTINUOUS
 10
350.34375
 20
733.9521169355
 11
359.04375
 21
733.9521169355
  0
LINE
  5
396
100
AcDbEntity
  8
6_ALL_SURFS
100
AcDbLine
 62
7
  6
CONTINUOUS
 10
387.9918240698
 20
735.3021169355
 11
399.49375
 21
735.3021169355
  0
LINE
  5
397
100
AcDbEntity
  8
7_ALL_FEATURES
100
AcDbLine
 62
9
  6
CONTINUOUS
 10
399.49375
 20
735.655541593
 11
389.1728477948
 21
735.655541593
  0
LINE
  5
398
100
AcDbEntity
  8
7_ALL_FEATURES
100
AcDbLine
 62
7
  6
CONTINUOUS
 10
375.09375
 20
735.7521169355
 11
386.6387364271
 21
735.7521169355
  0
LINE
  5
399
100
AcDbEntity
  8
7_ALL_FEATURES
100
AcDbLine
 62
9
  6
CONTINUOUS
 10
950.99375
 20
735.8521169355
 11
400.49375
 21
735.8521169355
  0
LINE
  5
39A
100
AcDbEntity
  8
7_ALL_FEATURES
100
AcDbLine
 62
7
  6
CONTINUOUS
 10
399.19375
 20
735.9021169355
 11
389.9968178354
 21
735.9021169355
  0
LINE
  5
39B
100
AcDbEntity
  8
7_ALL_FEATURES
100
AcDbLine
 62
7
  6
CONTINUOUS
 10
385.9868303043
 20
735.9021169355
 11
383.281250549
 21
735.9021169355
  0
LINE
  5
39C
100
AcDbEntity
  8
7_ALL_FEATURES
100
AcDbLine
 62
3
  6
CONTINUOUS
 10
326.69375
 20
735.9521169355
 11
374.2255919388
 21
735.9521169355
  0
LINE
  5
39D
100
AcDbEntity
  8
7_ALL_FEATURES
100
AcDbLine
 62
7
  6
CONTINUOUS
 10
400.79375
 20
736.1521169355
 11
950.99375
 21
736.1521169355
  0
LINE
  5
39E
100
AcDbEntity
  8
7_ALL_FEATURES
100
AcDbLine
 62
9
  6
CONTINUOUS
 10
401.99375
 20
736.4521169355
 11
950.99375
 21
736.4521169355
  0
LINE
  5
39F
100
AcDbEntity
  8
7_ALL_FEATURES
100
AcDbLine
 62
9
  6
CONTINUOUS
 10
401.99375
 20
737.1021169355
 11
950.99375
 21
737.1021169355
  0
LINE
  5
3A0
100
AcDbEntity
  8
7_ALL_FEATURES
100
AcDbLine
 62
9
  6
CONTINUOUS
 10
387.3875456948
 20
737.2126432513
 11
388.5961024449
 21
737.2126432513
  0
LINE
  5
3A1
100
AcDbEntity
  8
7_ALL_FEATURES
100
AcDbLine
 62
7
  6
CONTINUOUS
 10
383.3994236917
 20
737.4021169355
 11
384.19375
 21
737.4021169355
  0
LINE
  5
3A2
100
AcDbEntity
  8
7_ALL_FEATURES
100
AcDbLine
 62
7
  6
CONTINUOUS
 10
386.4455862777
 20
737.4021169355
 11
950.99375
 21
737.4021169355
  0
LINE
  5
3A3
100
AcDbEntity
  8
7_ALL_FEATURES
100
AcDbLine
 62
9
  6
CONTINUOUS
 10
950.99375
 20
737.4641109334
 11
386.262957849
 21
737.4641109334
  0
LINE
  5
3A4
100
AcDbEntity
  8
7_ALL_FEATURES
100
AcDbLine
 62
9
  6
CONTINUOUS
 10
384.3968832637
 20
737.482710825
 11
383.1948241837
 21
737.482710825
  0
LINE
  5
3A5
100
AcDbEntity
  8
7_ALL_FEATURES
100
AcDbLine
 62
7
  6
CONTINUOUS
 10
950.99375
 20
737.6021169355
 11
387.49375
 21
737.6021169355
  0
LINE
  5
3A6
100
AcDbEntity
  8
7_ALL_FEATURES
100
AcDbLine
 62
7
  6
CONTINUOUS
 10
386.79375
 20
737.6021169355
 11
386.19375
 21
737.6021169355
  0
LINE
  5
3A7
100
AcDbEntity
  8
7_ALL_FEATURES
100
AcDbLine
 62
9
  6
CONTINUOUS
 10
378.89375
 20
737.7521169355
 11
380.7065027221
 21
737.7521169355
  0
LINE
  5
3A8
100
AcDbEntity
  8
7_ALL_FEATURES
100
AcDbLine
 62
9
  6
CONTINUOUS
 10
950.99375
 20
737.8021169355
 11
387.49375
 21
737.8021169355
  0
LINE
  5
3A9
100
AcDbEntity
  8
7_ALL_FEATURES
100
AcDbLine
 62
9
  6
CONTINUOUS
 10
379.9022261896
 20
738.5021169355
 11
378.89375
 21
738.5021169355
  0
LINE
  5
3AA
100
AcDbEntity
  8
7_ALL_FEATURES
100
AcDbLine
 62
9
  6
CONTINUOUS
 10
384.8155022858
 20
738.5747826509
 11
385.99375
 21
738.5747826509
  0
LINE
  5
3AB
100
AcDbEntity
  8
7_ALL_FEATURES
100
AcDbLine
 62
9
  6
CONTINUOUS
 10
386.99375
 20
738.5747826509
 11
387.49375
 21
738.5747826509
  0
LINE
  5
3AC
100
AcDbEntity
  8
6_ALL_SURFS
100
AcDbLine
 62
7
  6
CONTINUOUS
 10
387.49375
 20
738.6161119828
 11
386.99375
 21
738.6161119828
  0
LINE
  5
3AD
100
AcDbEntity
  8
6_ALL_SURFS
100
AcDbLine
 62
7
  6
CONTINUOUS
 10
385.99375
 20
738.6161119828
 11
384.69375
 21
738.6161119828
  0
LINE
  5
3AE
100
AcDbEntity
  8
7_ALL_FEATURES
100
AcDbLine
 62
7
  6
CONTINUOUS
 10
379.4623424339
 20
738.8021169355
 11
379.19375
 21
738.8021169355
  0
LINE
  5
3AF
100
AcDbEntity
  8
7_ALL_FEATURES
100
AcDbLine
 62
7
  6
CONTINUOUS
 10
385.79375
 20
738.8521169355
 11
385.17375
 21
738.8521169355
  0
LINE
  5
3B0
100
AcDbEntity
  8
7_ALL_FEATURES
100
AcDbLine
 62
7
  6
CONTINUOUS
 10
326.69375
 20
738.9521169355
 11
372.79375
 21
738.9521169355
  0
LINE
  5
3B1
100
AcDbEntity
  8
7_ALL_FEATURES
100
AcDbLine
 62
9
  6
CONTINUOUS
 10
387.49375
 20
739.2131545375
 11
386.99375
 21
739.2131545375
  0
LINE
  5
3B2
100
AcDbEntity
  8
7_ALL_FEATURES
100
AcDbLine
 62
9
  6
CONTINUOUS
 10
383.9958947986
 20
739.2131545375
 11
382.88589172
 21
739.2131545375
  0
LINE
  5
3B3
100
AcDbEntity
  8
7_ALL_FEATURES
100
AcDbLine
 62
9
  6
CONTINUOUS
 10
382.5015315732
 20
739.2131545375
 11
381.339150492
 21
739.2131545375
  0
LINE
  5
3B4
100
AcDbEntity
  8
7_ALL_FEATURES
100
AcDbLine
 62
9
  6
CONTINUOUS
 10
387.49375
 20
739.432560648
 11
386.99375
 21
739.432560648
  0
LINE
  5
3B5
100
AcDbEntity
  8
7_ALL_FEATURES
100
AcDbLine
 62
9
  6
CONTINUOUS
 10
384.3122956279
 20
739.432560648
 11
381.24375
 21
739.432560648
  0
LINE
  5
3B6
100
AcDbEntity
  8
7_ALL_FEATURES
100
AcDbLine
 62
9
  6
CONTINUOUS
 10
375.144184316
 20
739.6361078646
 11
376.843315684
 21
739.6361078646
  0
LINE
  5
3B7
100
AcDbEntity
  8
7_ALL_FEATURES
100
AcDbLine
 62
7
  6
CONTINUOUS
 10
385.17375
 20
739.6521169355
 11
385.69375
 21
739.6521169355
  0
LINE
  5
3B8
100
AcDbEntity
  8
7_ALL_FEATURES
100
AcDbLine
 62
9
  6
CONTINUOUS
 10
375.2079383177
 20
740.0131826944
 11
376.7795616823
 21
740.0131826944
  0
LINE
  5
3B9
100
AcDbEntity
  8
7_ALL_FEATURES
100
AcDbLine
 62
9
  6
CONTINUOUS
 10
381.24375
 20
740.2521169355
 11
385.89375
 21
740.2521169355
  0
LINE
  5
3BA
100
AcDbEntity
  8
7_ALL_FEATURES
100
AcDbLine
 62
9
  6
CONTINUOUS
 10
386.99375
 20
740.2521169355
 11
387.49375
 21
740.2521169355
  0
LINE
  5
3BB
100
AcDbEntity
  8
7_ALL_FEATURES
100
AcDbLine
 62
9
  6
CONTINUOUS
 10
374.9833870289
 20
740.4021169355
 11
377.0041129711
 21
740.4021169355
  0
LINE
  5
3BC
100
AcDbEntity
  8
7_ALL_FEATURES
100
AcDbLine
 62
7
  6
CONTINUOUS
 10
329.5259412014
 20
740.5521169355
 11
385.89375
 21
740.5521169355
  0
LINE
  5
3BD
100
AcDbEntity
  8
7_ALL_FEATURES
100
AcDbLine
 62
7
  6
CONTINUOUS
 10
386.99375
 20
740.5521169355
 11
387.49375
 21
740.5521169355
  0
LINE
  5
3BE
100
AcDbEntity
  8
7_ALL_FEATURES
100
AcDbLine
 62
9
  6
CONTINUOUS
 10
327.5890570295
 20
740.5988923907
 11
327.4648850675
 21
740.5988923907
  0
LINE
  5
3BF
100
AcDbEntity
  8
7_ALL_FEATURES
100
AcDbLine
 62
9
  6
CONTINUOUS
 10
387.49375
 20
740.6124243147
 11
386.99375
 21
740.6124243147
  0
LINE
  5
3C0
100
AcDbEntity
  8
7_ALL_FEATURES
100
AcDbLine
 62
9
  6
CONTINUOUS
 10
385.89375
 20
740.6124243147
 11
359.8540573792
 21
740.6124243147
  0
LINE
  5
3C1
100
AcDbEntity
  8
7_ALL_FEATURES
100
AcDbLine
 62
9
  6
CONTINUOUS
 10
351.1334426208
 20
740.6124243147
 11
344.0540573792
 21
740.6124243147
  0
LINE
  5
3C2
100
AcDbEntity
  8
7_ALL_FEATURES
100
AcDbLine
 62
9
  6
CONTINUOUS
 10
335.3334426208
 20
740.6124243147
 11
329.1839210581
 21
740.6124243147
  0
LINE
  5
3C3
100
AcDbEntity
  8
7_ALL_FEATURES
100
AcDbLine
 62
7
  6
CONTINUOUS
 10
307.49375
 20
740.9521169355
 11
318.479230005
 21
740.9521169355
  0
LINE
  5
3C4
100
AcDbEntity
  8
7_ALL_FEATURES
100
AcDbLine
 62
9
  6
CONTINUOUS
 10
328.2084121475
 20
740.9674805214
 11
334.9783864141
 21
740.9674805214
  0
LINE
  5
3C5
100
AcDbEntity
  8
7_ALL_FEATURES
100
AcDbLine
 62
9
  6
CONTINUOUS
 10
344.4091135859
 20
740.9674805214
 11
350.7783864141
 21
740.9674805214
  0
LINE
  5
3C6
100
AcDbEntity
  8
7_ALL_FEATURES
100
AcDbLine
 62
9
  6
CONTINUOUS
 10
360.2091135859
 20
740.9674805214
 11
385.89375
 21
740.9674805214
  0
LINE
  5
3C7
100
AcDbEntity
  8
7_ALL_FEATURES
100
AcDbLine
 62
9
  6
CONTINUOUS
 10
386.99375
 20
740.9674805214
 11
387.49375
 21
740.9674805214
  0
LINE
  5
3C8
100
AcDbEntity
  8
6_ALL_SURFS
100
AcDbLine
 62
7
  6
CONTINUOUS
 10
387.49375
 20
740.9855727352
 11
386.99375
 21
740.9855727352
  0
LINE
  5
3C9
100
AcDbEntity
  8
6_ALL_SURFS
100
AcDbLine
 62
7
  6
CONTINUOUS
 10
385.89375
 20
740.9855727352
 11
360.2272057997
 21
740.9855727352
  0
LINE
  5
3CA
100
AcDbEntity
  8
6_ALL_SURFS
100
AcDbLine
 62
7
  6
CONTINUOUS
 10
350.7602942003
 20
740.9855727352
 11
344.4272057997
 21
740.9855727352
  0
LINE
  5
3CB
100
AcDbEntity
  8
6_ALL_SURFS
100
AcDbLine
 62
7
  6
CONTINUOUS
 10
334.9602942003
 20
740.9855727352
 11
328.1058061045
 21
740.9855727352
  0
LINE
  5
3CC
100
AcDbEntity
  8
3_ALL_AXES
100
AcDbLine
 62
7
  6
CONTINUOUS
 10
334.69375
 20
741.2521169355
 11
344.69375
 21
741.2521169355
  0
LINE
  5
3CD
100
AcDbEntity
  8
3_ALL_AXES
100
AcDbLine
 62
7
  6
CONTINUOUS
 10
350.49375
 20
741.2521169355
 11
360.49375
 21
741.2521169355
  0
LINE
  5
3CE
100
AcDbEntity
  8
7_ALL_FEATURES
100
AcDbLine
 62
9
  6
CONTINUOUS
 10
308.69375
 20
741.4521169355
 11
316.2238757531
 21
741.4521169355
  0
LINE
  5
3CF
100
AcDbEntity
  8
3_ALL_AXES
100
AcDbLine
 62
7
  6
CONTINUOUS
 10
334.6937791843
 20
741.5521169355
 11
344.6937208157
 21
741.5521169355
  0
LINE
  5
3D0
100
AcDbEntity
  8
3_ALL_AXES
100
AcDbLine
 62
7
  6
CONTINUOUS
 10
350.4937791843
 20
741.5521169355
 11
360.4937208157
 21
741.5521169355
  0
LINE
  5
3D1
100
AcDbEntity
  8
6_ALL_SURFS
100
AcDbLine
 62
7
  6
CONTINUOUS
 10
310.39375
 20
742.1521169355
 11
313.0663798006
 21
742.1521169355
  0
LINE
  5
3D2
100
AcDbEntity
  8
7_ALL_FEATURES
100
AcDbLine
 62
9
  6
CONTINUOUS
 10
309.9683054168
 20
742.1862535983
 11
308.69375
 21
742.1862535983
  0
LINE
  5
3D3
100
AcDbEntity
  8
7_ALL_FEATURES
100
AcDbLine
 62
9
  6
CONTINUOUS
 10
312.7970646815
 20
742.2032009059
 11
310.9261602386
 21
742.2032009059
  0
LINE
  5
3D4
100
AcDbEntity
  8
7_ALL_FEATURES
100
AcDbLine
 62
9
  6
CONTINUOUS
 10
387.49375
 20
743.37840578
 11
386.99375
 21
743.37840578
  0
LINE
  5
3D5
100
AcDbEntity
  8
7_ALL_FEATURES
100
AcDbLine
 62
9
  6
CONTINUOUS
 10
385.89375
 20
743.37840578
 11
314.9273103861
 21
743.37840578
  0
LINE
  5
3D6
100
AcDbEntity
  8
7_ALL_FEATURES
100
AcDbLine
 62
9
  6
CONTINUOUS
 10
309.4097590709
 20
744.1025512515
 11
311.3742232674
 21
744.1025512515
  0
LINE
  5
3D7
100
AcDbEntity
  8
6_ALL_SURFS
100
AcDbLine
 62
7
  6
CONTINUOUS
 10
311.4565752064
 20
744.2064976321
 11
309.1826842411
 21
744.2064976321
  0
LINE
  5
3D8
100
AcDbEntity
  8
7_ALL_FEATURES
100
AcDbLine
 62
9
  6
CONTINUOUS
 10
387.49375
 20
744.3547017872
 11
386.99375
 21
744.3547017872
  0
LINE
  5
3D9
100
AcDbEntity
  8
7_ALL_FEATURES
100
AcDbLine
 62
9
  6
CONTINUOUS
 10
385.89375
 20
744.3547017872
 11
314.14375
 21
744.3547017872
  0
LINE
  5
3DA
100
AcDbEntity
  8
6_ALL_SURFS
100
AcDbLine
 62
7
  6
CONTINUOUS
 10
311.4565752064
 20
745.6977362389
 11
309.1826842411
 21
745.6977362389
  0
LINE
  5
3DB
100
AcDbEntity
  8
7_ALL_FEATURES
100
AcDbLine
 62
9
  6
CONTINUOUS
 10
309.4097590709
 20
745.8016826195
 11
311.3742232674
 21
745.8016826195
  0
LINE
  5
3DC
100
AcDbEntity
  8
7_ALL_FEATURES
100
AcDbLine
 62
9
  6
CONTINUOUS
 10
312.2906948419
 20
747.3769880661
 11
311.79375
 21
747.3769880661
  0
LINE
  5
3DD
100
AcDbEntity
  8
7_ALL_FEATURES
100
AcDbLine
 62
7
  6
CONTINUOUS
 10
307.49375
 20
747.7521169355
 11
312.5397670063
 21
747.7521169355
  0
LINE
  5
3DE
100
AcDbEntity
  8
7_ALL_FEATURES
100
AcDbLine
 62
7
  6
CONTINUOUS
 10
315.14375
 20
749.4521169355
 11
314.14375
 21
749.4521169355
  0
LINE
  5
3DF
100
AcDbEntity
  8
7_ALL_FEATURES
100
AcDbLine
 62
7
  6
CONTINUOUS
 10
317.1719532303
 20
752.9521169355
 11
315.14375
 21
752.9521169355
  0
LINE
  5
3E0
100
AcDbEntity
  8
7_ALL_FEATURES
100
AcDbLine
 62
7
  6
CONTINUOUS
 10
312.24375
 20
753.3521169355
 11
308.99375
 21
753.3521169355
  0
LINE
  5
3E1
100
AcDbEntity
  8
7_ALL_FEATURES
100
AcDbLine
 62
7
  6
CONTINUOUS
 10
317.9897166924
 20
754.9521169355
 11
317.9735624169
 21
754.9521169355
  0
LINE
  5
3E2
100
AcDbEntity
  8
7_ALL_FEATURES
100
AcDbLine
 62
9
  6
CONTINUOUS
 10
317.9897166924
 20
754.9521169355
 11
385.89375
 21
754.9521169355
  0
LINE
  5
3E3
100
AcDbEntity
  8
7_ALL_FEATURES
100
AcDbLine
 62
9
  6
CONTINUOUS
 10
386.99375
 20
754.9521169355
 11
387.49375
 21
754.9521169355
  0
LINE
  5
3E4
100
AcDbEntity
  8
7_ALL_FEATURES
100
AcDbLine
 62
7
  6
CONTINUOUS
 10
309.09375
 20
755.2521169355
 11
313.84375
 21
755.2521169355
  0
LINE
  5
3E5
100
AcDbEntity
  8
7_ALL_FEATURES
100
AcDbLine
 62
7
  6
CONTINUOUS
 10
318.0442858398
 20
755.2521169355
 11
385.89375
 21
755.2521169355
  0
LINE
  5
3E6
100
AcDbEntity
  8
7_ALL_FEATURES
100
AcDbLine
 62
7
  6
CONTINUOUS
 10
386.99375
 20
755.2521169355
 11
387.49375
 21
755.2521169355
  0
LINE
  5
3E7
100
AcDbEntity
  8
7_ALL_FEATURES
100
AcDbLine
 62
9
  6
CONTINUOUS
 10
387.49375
 20
755.5521169355
 11
386.99375
 21
755.5521169355
  0
LINE
  5
3E8
100
AcDbEntity
  8
7_ALL_FEATURES
100
AcDbLine
 62
9
  6
CONTINUOUS
 10
385.89375
 20
755.5521169355
 11
318.1039409785
 21
755.5521169355
  0
LINE
  5
3E9
100
AcDbEntity
  8
7_ALL_FEATURES
100
AcDbLine
 62
9
  6
CONTINUOUS
 10
309.14375
 20
755.5521169355
 11
308.79375
 21
755.5521169355
  0
LINE
  5
3EA
100
AcDbEntity
  8
7_ALL_FEATURES
100
AcDbLine
 62
7
  6
CONTINUOUS
 10
318.2124387253
 20
756.4521169355
 11
317.9735624169
 21
756.4521169355
  0
LINE
  5
3EB
100
AcDbEntity
  8
7_ALL_FEATURES
100
AcDbLine
 62
7
  6
CONTINUOUS
 10
317.9735624169
 20
757.4521169355
 11
318.2124387253
 21
757.4521169355
  0
LINE
  5
3EC
100
AcDbEntity
  8
7_ALL_FEATURES
100
AcDbLine
 62
9
  6
CONTINUOUS
 10
387.49375
 20
758.3521169355
 11
386.99375
 21
758.3521169355
  0
LINE
  5
3ED
100
AcDbEntity
  8
7_ALL_FEATURES
100
AcDbLine
 62
9
  6
CONTINUOUS
 10
385.89375
 20
758.3521169355
 11
318.1038923653
 21
758.3521169355
  0
LINE
  5
3EE
100
AcDbEntity
  8
7_ALL_FEATURES
100
AcDbLine
 62
9
  6
CONTINUOUS
 10
309.14375
 20
758.3521169355
 11
308.79375
 21
758.3521169355
  0
LINE
  5
3EF
100
AcDbEntity
  8
6_ALL_SURFS
100
AcDbLine
 62
7
  6
CONTINUOUS
 10
309.09375
 20
758.6521169355
 11
313.84375
 21
758.6521169355
  0
LINE
  5
3F0
100
AcDbEntity
  8
7_ALL_FEATURES
100
AcDbLine
 62
7
  6
CONTINUOUS
 10
318.0442805526
 20
758.6521169355
 11
385.89375
 21
758.6521169355
  0
LINE
  5
3F1
100
AcDbEntity
  8
7_ALL_FEATURES
100
AcDbLine
 62
7
  6
CONTINUOUS
 10
386.99375
 20
758.6521169355
 11
387.49375
 21
758.6521169355
  0
LINE
  5
3F2
100
AcDbEntity
  8
7_ALL_FEATURES
100
AcDbLine
 62
7
  6
CONTINUOUS
 10
317.9735624169
 20
758.9521169355
 11
317.9897166924
 21
758.9521169355
  0
LINE
  5
3F3
100
AcDbEntity
  8
7_ALL_FEATURES
100
AcDbLine
 62
9
  6
CONTINUOUS
 10
317.9897166924
 20
758.9521169355
 11
385.89375
 21
758.9521169355
  0
LINE
  5
3F4
100
AcDbEntity
  8
7_ALL_FEATURES
100
AcDbLine
 62
9
  6
CONTINUOUS
 10
386.99375
 20
758.9521169355
 11
387.49375
 21
758.9521169355
  0
LINE
  5
3F5
100
AcDbEntity
  8
6_ALL_SURFS
100
AcDbLine
 62
7
  6
CONTINUOUS
 10
312.24375
 20
760.5521169355
 11
308.99375
 21
760.5521169355
  0
LINE
  5
3F6
100
AcDbEntity
  8
7_ALL_FEATURES
100
AcDbLine
 62
7
  6
CONTINUOUS
 10
317.1719532303
 20
760.9521169355
 11
315.14375
 21
760.9521169355
  0
LINE
  5
3F7
100
AcDbEntity
  8
7_ALL_FEATURES
100
AcDbLine
 62
7
  6
CONTINUOUS
 10
314.14375
 20
764.4521169355
 11
315.14375
 21
764.4521169355
  0
LINE
  5
3F8
100
AcDbEntity
  8
7_ALL_FEATURES
100
AcDbLine
 62
7
  6
CONTINUOUS
 10
312.5397670063
 20
766.1521169355
 11
310.39375
 21
766.1521169355
  0
LINE
  5
3F9
100
AcDbEntity
  8
6_ALL_SURFS
100
AcDbLine
 62
7
  6
CONTINUOUS
 10
307.49375
 20
766.1521169355
 11
310.39375
 21
766.1521169355
  0
LINE
  5
3FA
100
AcDbEntity
  8
7_ALL_FEATURES
100
AcDbLine
 62
9
  6
CONTINUOUS
 10
312.2906948419
 20
766.5272458049
 11
311.79375
 21
766.5272458049
  0
LINE
  5
3FB
100
AcDbEntity
  8
7_ALL_FEATURES
100
AcDbLine
 62
9
  6
CONTINUOUS
 10
309.4097590709
 20
768.1025512515
 11
311.3742232674
 21
768.1025512515
  0
LINE
  5
3FC
100
AcDbEntity
  8
7_ALL_FEATURES
100
AcDbLine
 62
7
  6
CONTINUOUS
 10
309.1826842411
 20
768.2064976321
 11
311.4565752064
 21
768.2064976321
  0
LINE
  5
3FD
100
AcDbEntity
  8
7_ALL_FEATURES
100
AcDbLine
 62
9
  6
CONTINUOUS
 10
387.49375
 20
769.5495320838
 11
386.99375
 21
769.5495320838
  0
LINE
  5
3FE
100
AcDbEntity
  8
7_ALL_FEATURES
100
AcDbLine
 62
9
  6
CONTINUOUS
 10
385.89375
 20
769.5495320838
 11
314.14375
 21
769.5495320838
  0
LINE
  5
3FF
100
AcDbEntity
  8
7_ALL_FEATURES
100
AcDbLine
 62
7
  6
CONTINUOUS
 10
309.1826842411
 20
769.6977362389
 11
311.4565752064
 21
769.6977362389
  0
LINE
  5
400
100
AcDbEntity
  8
7_ALL_FEATURES
100
AcDbLine
 62
9
  6
CONTINUOUS
 10
309.4097590709
 20
769.8016826195
 11
311.3742232674
 21
769.8016826195
  0
LINE
  5
401
100
AcDbEntity
  8
7_ALL_FEATURES
100
AcDbLine
 62
9
  6
CONTINUOUS
 10
387.49375
 20
770.5258280909
 11
386.99375
 21
770.5258280909
  0
LINE
  5
402
100
AcDbEntity
  8
7_ALL_FEATURES
100
AcDbLine
 62
9
  6
CONTINUOUS
 10
385.89375
 20
770.5258280909
 11
314.9273103861
 21
770.5258280909
  0
LINE
  5
403
100
AcDbEntity
  8
7_ALL_FEATURES
100
AcDbLine
 62
9
  6
CONTINUOUS
 10
312.7970646815
 20
771.7010329651
 11
310.9261602386
 21
771.7010329651
  0
LINE
  5
404
100
AcDbEntity
  8
7_ALL_FEATURES
100
AcDbLine
 62
9
  6
CONTINUOUS
 10
309.9683054168
 20
771.7179802727
 11
308.69375
 21
771.7179802727
  0
LINE
  5
405
100
AcDbEntity
  8
7_ALL_FEATURES
100
AcDbLine
 62
7
  6
CONTINUOUS
 10
313.0663798006
 20
771.7521169355
 11
310.39375
 21
771.7521169355
  0
LINE
  5
406
100
AcDbEntity
  8
3_ALL_AXES
100
AcDbLine
 62
7
  6
CONTINUOUS
 10
334.6937791843
 20
772.3521169355
 11
344.6937208157
 21
772.3521169355
  0
LINE
  5
407
100
AcDbEntity
  8
3_ALL_AXES
100
AcDbLine
 62
7
  6
CONTINUOUS
 10
362.9937791843
 20
772.3521169355
 11
372.9937208157
 21
772.3521169355
  0
LINE
  5
408
100
AcDbEntity
  8
7_ALL_FEATURES
100
AcDbLine
 62
9
  6
CONTINUOUS
 10
308.69375
 20
772.4521169355
 11
316.2238757531
 21
772.4521169355
  0
LINE
  5
409
100
AcDbEntity
  8
3_ALL_AXES
100
AcDbLine
 62
7
  6
CONTINUOUS
 10
334.69375
 20
772.6521169355
 11
344.69375
 21
772.6521169355
  0
LINE
  5
40A
100
AcDbEntity
  8
3_ALL_AXES
100
AcDbLine
 62
7
  6
CONTINUOUS
 10
362.99375
 20
772.6521169355
 11
372.99375
 21
772.6521169355
  0
LINE
  5
40B
100
AcDbEntity
  8
7_ALL_FEATURES
100
AcDbLine
 62
7
  6
CONTINUOUS
 10
328.1058061045
 20
772.9186611358
 11
334.9602942003
 21
772.9186611358
  0
LINE
  5
40C
100
AcDbEntity
  8
7_ALL_FEATURES
100
AcDbLine
 62
7
  6
CONTINUOUS
 10
344.4272057997
 20
772.9186611358
 11
363.2602942003
 21
772.9186611358
  0
LINE
  5
40D
100
AcDbEntity
  8
7_ALL_FEATURES
100
AcDbLine
 62
7
  6
CONTINUOUS
 10
372.7272057997
 20
772.9186611358
 11
385.89375
 21
772.9186611358
  0
LINE
  5
40E
100
AcDbEntity
  8
7_ALL_FEATURES
100
AcDbLine
 62
7
  6
CONTINUOUS
 10
386.99375
 20
772.9186611358
 11
387.49375
 21
772.9186611358
  0
LINE
  5
40F
100
AcDbEntity
  8
7_ALL_FEATURES
100
AcDbLine
 62
9
  6
CONTINUOUS
 10
328.2084121475
 20
772.9367533495
 11
334.9783864141
 21
772.9367533495
  0
LINE
  5
410
100
AcDbEntity
  8
7_ALL_FEATURES
100
AcDbLine
 62
9
  6
CONTINUOUS
 10
344.4091135859
 20
772.9367533495
 11
363.2783864141
 21
772.9367533495
  0
LINE
  5
411
100
AcDbEntity
  8
7_ALL_FEATURES
100
AcDbLine
 62
9
  6
CONTINUOUS
 10
372.7091135859
 20
772.9367533495
 11
385.89375
 21
772.9367533495
  0
LINE
  5
412
100
AcDbEntity
  8
7_ALL_FEATURES
100
AcDbLine
 62
9
  6
CONTINUOUS
 10
386.99375
 20
772.9367533495
 11
387.49375
 21
772.9367533495
  0
LINE
  5
413
100
AcDbEntity
  8
6_ALL_SURFS
100
AcDbLine
 62
7
  6
CONTINUOUS
 10
308.19375
 20
772.9521169355
 11
307.49375
 21
772.9521169355
  0
LINE
  5
414
100
AcDbEntity
  8
7_ALL_FEATURES
100
AcDbLine
 62
7
  6
CONTINUOUS
 10
308.19375
 20
772.9521169355
 11
318.479230005
 21
772.9521169355
  0
LINE
  5
415
100
AcDbEntity
  8
7_ALL_FEATURES
100
AcDbLine
 62
9
  6
CONTINUOUS
 10
387.49375
 20
773.2918095563
 11
386.99375
 21
773.2918095563
  0
LINE
  5
416
100
AcDbEntity
  8
7_ALL_FEATURES
100
AcDbLine
 62
9
  6
CONTINUOUS
 10
385.89375
 20
773.2918095563
 11
372.3540573792
 21
773.2918095563
  0
LINE
  5
417
100
AcDbEntity
  8
7_ALL_FEATURES
100
AcDbLine
 62
9
  6
CONTINUOUS
 10
363.6334426208
 20
773.2918095563
 11
344.0540573792
 21
773.2918095563
  0
LINE
  5
418
100
AcDbEntity
  8
7_ALL_FEATURES
100
AcDbLine
 62
9
  6
CONTINUOUS
 10
335.3334426208
 20
773.2918095563
 11
329.1839210581
 21
773.2918095563
  0
LINE
  5
419
100
AcDbEntity
  8
7_ALL_FEATURES
100
AcDbLine
 62
9
  6
CONTINUOUS
 10
327.5890570295
 20
773.3053414803
 11
327.4648850675
 21
773.3053414803
  0
LINE
  5
41A
100
AcDbEntity
  8
6_ALL_SURFS
100
AcDbLine
 62
7
  6
CONTINUOUS
 10
329.5259412014
 20
773.3521169355
 11
374.7235794078
 21
773.3521169355
  0
LINE
  5
41B
100
AcDbEntity
  8
7_ALL_FEATURES
100
AcDbLine
 62
7
  6
CONTINUOUS
 10
374.7235794078
 20
773.3521169355
 11
377.2639205922
 21
773.3521169355
  0
LINE
  5
41C
100
AcDbEntity
  8
6_ALL_SURFS
100
AcDbLine
 62
7
  6
CONTINUOUS
 10
377.2639205922
 20
773.3521169355
 11
380.94375
 21
773.3521169355
  0
LINE
  5
41D
100
AcDbEntity
  8
7_ALL_FEATURES
100
AcDbLine
 62
7
  6
CONTINUOUS
 10
380.94375
 20
773.3521169355
 11
385.89375
 21
773.3521169355
  0
LINE
  5
41E
100
AcDbEntity
  8
7_ALL_FEATURES
100
AcDbLine
 62
7
  6
CONTINUOUS
 10
386.99375
 20
773.3521169355
 11
387.49375
 21
773.3521169355
  0
LINE
  5
41F
100
AcDbEntity
  8
7_ALL_FEATURES
100
AcDbLine
 62
9
  6
CONTINUOUS
 10
374.9833870289
 20
773.5021169355
 11
377.0041129711
 21
773.5021169355
  0
LINE
  5
420
100
AcDbEntity
  8
7_ALL_FEATURES
100
AcDbLine
 62
9
  6
CONTINUOUS
 10
381.24375
 20
773.6521169355
 11
385.89375
 21
773.6521169355
  0
LINE
  5
421
100
AcDbEntity
  8
7_ALL_FEATURES
100
AcDbLine
 62
9
  6
CONTINUOUS
 10
386.99375
 20
773.6521169355
 11
387.49375
 21
773.6521169355
  0
LINE
  5
422
100
AcDbEntity
  8
7_ALL_FEATURES
100
AcDbLine
 62
9
  6
CONTINUOUS
 10
375.2079383177
 20
773.8910511766
 11
376.7795616823
 21
773.8910511766
  0
LINE
  5
423
100
AcDbEntity
  8
7_ALL_FEATURES
100
AcDbLine
 62
7
  6
CONTINUOUS
 10
385.69375
 20
774.2521169355
 11
385.17375
 21
774.2521169355
  0
LINE
  5
424
100
AcDbEntity
  8
7_ALL_FEATURES
100
AcDbLine
 62
9
  6
CONTINUOUS
 10
375.144184316
 20
774.2681260064
 11
376.843315684
 21
774.2681260064
  0
LINE
  5
425
100
AcDbEntity
  8
7_ALL_FEATURES
100
AcDbLine
 62
9
  6
CONTINUOUS
 10
387.49375
 20
774.471673223
 11
386.99375
 21
774.471673223
  0
LINE
  5
426
100
AcDbEntity
  8
7_ALL_FEATURES
100
AcDbLine
 62
9
  6
CONTINUOUS
 10
384.3122956279
 20
774.471673223
 11
381.24375
 21
774.471673223
  0
LINE
  5
427
100
AcDbEntity
  8
7_ALL_FEATURES
100
AcDbLine
 62
9
  6
CONTINUOUS
 10
387.49375
 20
774.6910793335
 11
386.99375
 21
774.6910793335
  0
LINE
  5
428
100
AcDbEntity
  8
7_ALL_FEATURES
100
AcDbLine
 62
9
  6
CONTINUOUS
 10
383.9958947986
 20
774.6910793335
 11
382.88589172
 21
774.6910793335
  0
LINE
  5
429
100
AcDbEntity
  8
7_ALL_FEATURES
100
AcDbLine
 62
9
  6
CONTINUOUS
 10
382.5015315732
 20
774.6910793335
 11
381.339150492
 21
774.6910793335
  0
LINE
  5
42A
100
AcDbEntity
  8
6_ALL_SURFS
100
AcDbLine
 62
7
  6
CONTINUOUS
 10
372.79375
 20
774.9521169355
 11
328.0482360707
 21
774.9521169355
  0
LINE
  5
42B
100
AcDbEntity
  8
7_ALL_FEATURES
100
AcDbLine
 62
7
  6
CONTINUOUS
 10
328.0482360707
 20
774.9521169355
 11
326.69375
 21
774.9521169355
  0
LINE
  5
42C
100
AcDbEntity
  8
7_ALL_FEATURES
100
AcDbLine
 62
7
  6
CONTINUOUS
 10
385.17375
 20
775.0521169355
 11
385.79375
 21
775.0521169355
  0
LINE
  5
42D
100
AcDbEntity
  8
6_ALL_SURFS
100
AcDbLine
 62
7
  6
CONTINUOUS
 10
379.4623424339
 20
775.1021169355
 11
379.19375
 21
775.1021169355
  0
LINE
  5
42E
100
AcDbEntity
  8
6_ALL_SURFS
100
AcDbLine
 62
7
  6
CONTINUOUS
 10
384.69375
 20
775.2881218881
 11
385.99375
 21
775.2881218881
  0
LINE
  5
42F
100
AcDbEntity
  8
6_ALL_SURFS
100
AcDbLine
 62
7
  6
CONTINUOUS
 10
386.99375
 20
775.2881218881
 11
387.49375
 21
775.2881218881
  0
LINE
  5
430
100
AcDbEntity
  8
7_ALL_FEATURES
100
AcDbLine
 62
9
  6
CONTINUOUS
 10
384.8155022858
 20
775.3294512201
 11
385.99375
 21
775.3294512201
  0
LINE
  5
431
100
AcDbEntity
  8
7_ALL_FEATURES
100
AcDbLine
 62
9
  6
CONTINUOUS
 10
386.99375
 20
775.3294512201
 11
387.49375
 21
775.3294512201
  0
LINE
  5
432
100
AcDbEntity
  8
7_ALL_FEATURES
100
AcDbLine
 62
9
  6
CONTINUOUS
 10
379.9022261896
 20
775.4021169355
 11
378.89375
 21
775.4021169355
  0
LINE
  5
433
100
AcDbEntity
  8
7_ALL_FEATURES
100
AcDbLine
 62
9
  6
CONTINUOUS
 10
950.99375
 20
776.1021169355
 11
387.49375
 21
776.1021169355
  0
LINE
  5
434
100
AcDbEntity
  8
7_ALL_FEATURES
100
AcDbLine
 62
9
  6
CONTINUOUS
 10
378.89375
 20
776.1521169355
 11
380.7065027221
 21
776.1521169355
  0
LINE
  5
435
100
AcDbEntity
  8
7_ALL_FEATURES
100
AcDbLine
 62
7
  6
CONTINUOUS
 10
950.99375
 20
776.3021169355
 11
387.49375
 21
776.3021169355
  0
LINE
  5
436
100
AcDbEntity
  8
7_ALL_FEATURES
100
AcDbLine
 62
7
  6
CONTINUOUS
 10
386.19375
 20
776.3021169355
 11
386.79375
 21
776.3021169355
  0
LINE
  5
437
100
AcDbEntity
  8
7_ALL_FEATURES
100
AcDbLine
 62
9
  6
CONTINUOUS
 10
384.3968832637
 20
776.421523046
 11
383.1948241837
 21
776.421523046
  0
LINE
  5
438
100
AcDbEntity
  8
7_ALL_FEATURES
100
AcDbLine
 62
9
  6
CONTINUOUS
 10
950.99375
 20
776.4401229376
 11
386.262957849
 21
776.4401229376
  0
LINE
  5
439
100
AcDbEntity
  8
6_ALL_SURFS
100
AcDbLine
 62
7
  6
CONTINUOUS
 10
383.3994236917
 20
776.5021169355
 11
384.19375
 21
776.5021169355
  0
LINE
  5
43A
100
AcDbEntity
  8
6_ALL_SURFS
100
AcDbLine
 62
7
  6
CONTINUOUS
 10
386.4455862777
 20
776.5021169355
 11
387.1086479832
 21
776.5021169355
  0
LINE
  5
43B
100
AcDbEntity
  8
7_ALL_FEATURES
100
AcDbLine
 62
7
  6
CONTINUOUS
 10
387.1086479832
 20
776.5021169355
 11
388.8750001565
 21
776.5021169355
  0
LINE
  5
43C
100
AcDbEntity
  8
6_ALL_SURFS
100
AcDbLine
 62
7
  6
CONTINUOUS
 10
388.8750001565
 20
776.5021169355
 11
401.69375
 21
776.5021169355
  0
LINE
  5
43D
100
AcDbEntity
  8
7_ALL_FEATURES
100
AcDbLine
 62
7
  6
CONTINUOUS
 10
401.69375
 20
776.5021169355
 11
950.99375
 21
776.5021169355
  0
LINE
  5
43E
100
AcDbEntity
  8
7_ALL_FEATURES
100
AcDbLine
 62
9
  6
CONTINUOUS
 10
387.3875456948
 20
776.6915906197
 11
388.5961024449
 21
776.6915906197
  0
LINE
  5
43F
100
AcDbEntity
  8
7_ALL_FEATURES
100
AcDbLine
 62
9
  6
CONTINUOUS
 10
401.99375
 20
776.8021169355
 11
950.99375
 21
776.8021169355
  0
LINE
  5
440
100
AcDbEntity
  8
7_ALL_FEATURES
100
AcDbLine
 62
9
  6
CONTINUOUS
 10
401.99375
 20
777.4521169355
 11
950.99375
 21
777.4521169355
  0
LINE
  5
441
100
AcDbEntity
  8
6_ALL_SURFS
100
AcDbLine
 62
7
  6
CONTINUOUS
 10
401.69375
 20
777.7521169355
 11
400.79375
 21
777.7521169355
  0
LINE
  5
442
100
AcDbEntity
  8
7_ALL_FEATURES
100
AcDbLine
 62
7
  6
CONTINUOUS
 10
401.69375
 20
777.7521169355
 11
950.99375
 21
777.7521169355
  0
LINE
  5
443
100
AcDbEntity
  8
7_ALL_FEATURES
100
AcDbLine
 62
3
  6
CONTINUOUS
 10
374.2255919388
 20
777.9521169355
 11
326.69375
 21
777.9521169355
  0
LINE
  5
444
100
AcDbEntity
  8
6_ALL_SURFS
100
AcDbLine
 62
7
  6
CONTINUOUS
 10
399.19375
 20
778.0021169355
 11
389.9968178354
 21
778.0021169355
  0
LINE
  5
445
100
AcDbEntity
  8
6_ALL_SURFS
100
AcDbLine
 62
7
  6
CONTINUOUS
 10
385.9868303043
 20
778.0021169355
 11
383.281250549
 21
778.0021169355
  0
LINE
  5
446
100
AcDbEntity
  8
7_ALL_FEATURES
100
AcDbLine
 62
9
  6
CONTINUOUS
 10
950.99375
 20
778.0521169355
 11
400.49375
 21
778.0521169355
  0
LINE
  5
447
100
AcDbEntity
  8
6_ALL_SURFS
100
AcDbLine
 62
7
  6
CONTINUOUS
 10
376.89375
 20
778.1521169355
 11
375.09375
 21
778.1521169355
  0
LINE
  5
448
100
AcDbEntity
  8
7_ALL_FEATURES
100
AcDbLine
 62
7
  6
CONTINUOUS
 10
376.89375
 20
778.1521169355
 11
386.6387364271
 21
778.1521169355
  0
LINE
  5
449
100
AcDbEntity
  8
7_ALL_FEATURES
100
AcDbLine
 62
9
  6
CONTINUOUS
 10
399.49375
 20
778.2486922779
 11
389.1728477948
 21
778.2486922779
  0
LINE
  5
44A
100
AcDbEntity
  8
7_ALL_FEATURES
100
AcDbLine
 62
7
  6
CONTINUOUS
 10
399.49375
 20
778.6021169355
 11
387.9918240698
 21
778.6021169355
  0
LINE
  5
44B
100
AcDbEntity
  8
3_ALL_AXES
100
AcDbLine
 62
7
  6
CONTINUOUS
 10
371.54375
 20
779.9521169355
 11
362.84375
 21
779.9521169355
  0
LINE
  5
44C
100
AcDbEntity
  8
3_ALL_AXES
100
AcDbLine
 62
7
  6
CONTINUOUS
 10
343.54375
 20
779.9521169355
 11
334.84375
 21
779.9521169355
  0
LINE
  5
44D
100
AcDbEntity
  8
7_ALL_FEATURES
100
AcDbLine
 62
7
  6
CONTINUOUS
 10
950.99375
 20
780.0021169355
 11
400.49375
 21
780.0021169355
  0
LINE
  5
44E
100
AcDbEntity
  8
7_ALL_FEATURES
100
AcDbLine
 62
7
  6
CONTINUOUS
 10
337.69375
 20
780.3521169355
 11
341.69375
 21
780.3521169355
  0
LINE
  5
44F
100
AcDbEntity
  8
7_ALL_FEATURES
100
AcDbLine
 62
7
  6
CONTINUOUS
 10
365.99375
 20
780.3521169355
 11
369.99375
 21
780.3521169355
  0
LINE
  5
450
100
AcDbEntity
  8
7_ALL_FEATURES
100
AcDbLine
 62
7
  6
CONTINUOUS
 10
950.99375
 20
780.6021169355
 11
400.49375
 21
780.6021169355
  0
LINE
  5
451
100
AcDbEntity
  8
7_ALL_FEATURES
100
AcDbLine
 62
7
  6
CONTINUOUS
 10
950.99375
 20
783.0021169355
 11
400.49375
 21
783.0021169355
  0
LINE
  5
452
100
AcDbEntity
  8
7_ALL_FEATURES
100
AcDbLine
 62
7
  6
CONTINUOUS
 10
950.99375
 20
783.6021169355
 11
400.49375
 21
783.6021169355
  0
LINE
  5
453
100
AcDbEntity
  8
7_ALL_FEATURES
100
AcDbLine
 62
7
  6
CONTINUOUS
 10
950.99375
 20
786.0021169355
 11
400.49375
 21
786.0021169355
  0
LINE
  5
454
100
AcDbEntity
  8
7_ALL_FEATURES
100
AcDbLine
 62
7
  6
CONTINUOUS
 10
950.99375
 20
786.6021169355
 11
400.49375
 21
786.6021169355
  0
LINE
  5
455
100
AcDbEntity
  8
7_ALL_FEATURES
100
AcDbLine
 62
7
  6
CONTINUOUS
 10
950.99375
 20
789.0021169355
 11
922.739516509
 21
789.0021169355
  0
LINE
  5
456
100
AcDbEntity
  8
7_ALL_FEATURES
100
AcDbLine
 62
7
  6
CONTINUOUS
 10
915.247983491
 20
789.0021169355
 11
672.739516509
 21
789.0021169355
  0
LINE
  5
457
100
AcDbEntity
  8
7_ALL_FEATURES
100
AcDbLine
 62
7
  6
CONTINUOUS
 10
665.247983491
 20
789.0021169355
 11
422.739516509
 21
789.0021169355
  0
LINE
  5
458
100
AcDbEntity
  8
7_ALL_FEATURES
100
AcDbLine
 62
7
  6
CONTINUOUS
 10
415.247983491
 20
789.0021169355
 11
400.49375
 21
789.0021169355
  0
LINE
  5
459
100
AcDbEntity
  8
7_ALL_FEATURES
100
AcDbLine
 62
7
  6
CONTINUOUS
 10
950.99375
 20
789.6021169355
 11
923.1495612012
 21
789.6021169355
  0
LINE
  5
45A
100
AcDbEntity
  8
7_ALL_FEATURES
100
AcDbLine
 62
7
  6
CONTINUOUS
 10
914.8379387988
 20
789.6021169355
 11
673.1495612012
 21
789.6021169355
  0
LINE
  5
45B
100
AcDbEntity
  8
7_ALL_FEATURES
100
AcDbLine
 62
7
  6
CONTINUOUS
 10
664.8379387988
 20
789.6021169355
 11
423.1495612012
 21
789.6021169355
  0
LINE
  5
45C
100
AcDbEntity
  8
7_ALL_FEATURES
100
AcDbLine
 62
7
  6
CONTINUOUS
 10
414.8379387988
 20
789.6021169355
 11
400.49375
 21
789.6021169355
  0
LINE
  5
45D
100
AcDbEntity
  8
7_ALL_FEATURES
100
AcDbLine
 62
7
  6
CONTINUOUS
 10
950.99375
 20
792.0021169355
 11
923.7927881057
 21
792.0021169355
  0
LINE
  5
45E
100
AcDbEntity
  8
7_ALL_FEATURES
100
AcDbLine
 62
7
  6
CONTINUOUS
 10
914.1947118943
 20
792.0021169355
 11
673.7927881057
 21
792.0021169355
  0
LINE
  5
45F
100
AcDbEntity
  8
7_ALL_FEATURES
100
AcDbLine
 62
7
  6
CONTINUOUS
 10
664.1947118943
 20
792.0021169355
 11
423.7927881057
 21
792.0021169355
  0
LINE
  5
460
100
AcDbEntity
  8
7_ALL_FEATURES
100
AcDbLine
 62
7
  6
CONTINUOUS
 10
414.1947118943
 20
792.0021169355
 11
400.49375
 21
792.0021169355
  0
LINE
  5
461
100
AcDbEntity
  8
7_ALL_FEATURES
100
AcDbLine
 62
7
  6
CONTINUOUS
 10
950.99375
 20
792.6021169355
 11
923.75513286
 21
792.6021169355
  0
LINE
  5
462
100
AcDbEntity
  8
7_ALL_FEATURES
100
AcDbLine
 62
7
  6
CONTINUOUS
 10
914.23236714
 20
792.6021169355
 11
673.75513286
 21
792.6021169355
  0
LINE
  5
463
100
AcDbEntity
  8
7_ALL_FEATURES
100
AcDbLine
 62
7
  6
CONTINUOUS
 10
664.23236714
 20
792.6021169355
 11
423.75513286
 21
792.6021169355
  0
LINE
  5
464
100
AcDbEntity
  8
7_ALL_FEATURES
100
AcDbLine
 62
7
  6
CONTINUOUS
 10
414.23236714
 20
792.6021169355
 11
400.49375
 21
792.6021169355
  0
LINE
  5
465
100
AcDbEntity
  8
7_ALL_FEATURES
100
AcDbLine
 62
7
  6
CONTINUOUS
 10
950.99375
 20
795.5021169355
 11
922.2771577937
 21
795.5021169355
  0
LINE
  5
466
100
AcDbEntity
  8
7_ALL_FEATURES
100
AcDbLine
 62
7
  6
CONTINUOUS
 10
915.7103422063
 20
795.5021169355
 11
672.2771577937
 21
795.5021169355
  0
LINE
  5
467
100
AcDbEntity
  8
7_ALL_FEATURES
100
AcDbLine
 62
7
  6
CONTINUOUS
 10
665.7103422063
 20
795.5021169355
 11
422.2771577937
 21
795.5021169355
  0
LINE
  5
468
100
AcDbEntity
  8
7_ALL_FEATURES
100
AcDbLine
 62
7
  6
CONTINUOUS
 10
415.7103422063
 20
795.5021169355
 11
400.49375
 21
795.5021169355
  0
LINE
  5
469
100
AcDbEntity
  8
7_ALL_FEATURES
100
AcDbLine
 62
9
  6
CONTINUOUS
 10
400.279202841
 20
797.6475885259
 11
950.99375
 21
797.6475885259
  0
LINE
  5
46A
100
AcDbEntity
  8
7_ALL_FEATURES
100
AcDbLine
 62
7
  6
CONTINUOUS
 10
399.8874533579
 20
798.0021169355
 11
950.99375
 21
798.0021169355
  0
LINE
  5
46B
100
AcDbEntity
  8
6_ALL_SURFS
100
AcDbLine
 62
7
  6
CONTINUOUS
 10
314.9273103861
 20
770.5258280909
 11
327.4648850675
 21
773.3053414803
  0
LINE
  5
46C
100
AcDbEntity
  8
6_ALL_SURFS
100
AcDbLine
 62
7
  6
CONTINUOUS
 10
326.966038001
 20
774.8335969711
 11
312.9590908772
 21
771.7283315538
  0
LINE
  5
46D
100
AcDbEntity
  8
6_ALL_SURFS
100
AcDbLine
 62
7
  6
CONTINUOUS
 10
950.99375
 20
715.9021214351
 11
950.99375
 21
737.6021169355
  0
LINE
  5
46E
100
AcDbEntity
  8
7_ALL_FEATURES
100
AcDbLine
 62
7
  6
CONTINUOUS
 10
950.99375
 20
737.6021169355
 11
950.99375
 21
798.0021124359
  0
LINE
  5
46F
100
AcDbEntity
  8
6_ALL_SURFS
100
AcDbLine
 62
7
  6
CONTINUOUS
 10
99.2675448222
 20
18.8111895161
 11
120.9675403226
 21
18.8111895161
  0
LINE
  5
470
100
AcDbEntity
  8
7_ALL_FEATURES
100
AcDbLine
 62
7
  6
CONTINUOUS
 10
120.9675403226
 20
18.8111895161
 11
181.367535823
 21
18.8111895161
  0
LINE
  5
471
100
AcDbEntity
  8
6_ALL_SURFS
100
AcDbLine
 62
7
  6
CONTINUOUS
 10
156.5322247919
 20
642.0178746867
 11
156.4297357963
 21
641.9563812893
  0
LINE
  5
472
100
AcDbEntity
  8
7_ALL_FEATURES
100
AcDbLine
 62
7
  6
CONTINUOUS
 10
138.8175403226
 20
660.6611895161
 11
138.6175403226
 21
660.4611895161
  0
LINE
  5
473
100
AcDbEntity
  8
7_ALL_FEATURES
100
AcDbLine
 62
7
  6
CONTINUOUS
 10
116.9175403226
 20
632.1111895161
 11
117.3175403226
 21
632.5111895161
  0
LINE
  5
474
100
AcDbEntity
  8
3_ALL_AXES
100
AcDbLine
 62
7
  6
CONTINUOUS
 10
124.6175403226
 20
635.1111895161
 11
123.9175403226
 21
634.4111895161
  0
LINE
  5
475
100
AcDbEntity
  8
7_ALL_FEATURES
100
AcDbLine
 62
7
  6
CONTINUOUS
 10
123.7675403226
 20
594.8215524872
 11
123.3786060815
 21
594.5970011984
  0
LINE
  5
476
100
AcDbEntity
  8
7_ALL_FEATURES
100
AcDbLine
 62
7
  6
CONTINUOUS
 10
101.6675403226
 20
570.3111895161
 11
101.9675403226
 21
570.4611895161
  0
LINE
  5
477
100
AcDbEntity
  8
7_ALL_FEATURES
100
AcDbLine
 62
7
  6
CONTINUOUS
 10
104.6675403226
 20
570.3111895161
 11
104.9675403226
 21
570.4611895161
  0
LINE
  5
478
100
AcDbEntity
  8
7_ALL_FEATURES
100
AcDbLine
 62
7
  6
CONTINUOUS
 10
107.6675403226
 20
570.3111895161
 11
107.9675403226
 21
570.4611895161
  0
LINE
  5
479
100
AcDbEntity
  8
7_ALL_FEATURES
100
AcDbLine
 62
7
  6
CONTINUOUS
 10
110.6675403226
 20
570.3111895161
 11
110.9675403226
 21
570.4611895161
  0
LINE
  5
47A
100
AcDbEntity
  8
7_ALL_FEATURES
100
AcDbLine
 62
7
  6
CONTINUOUS
 10
113.6675403226
 20
570.3111895161
 11
113.9675403226
 21
570.4611895161
  0
LINE
  5
47B
100
AcDbEntity
  8
7_ALL_FEATURES
100
AcDbLine
 62
7
  6
CONTINUOUS
 10
116.6675403226
 20
570.3111895161
 11
116.9675403226
 21
570.4611895161
  0
LINE
  5
47C
100
AcDbEntity
  8
7_ALL_FEATURES
100
AcDbLine
 62
7
  6
CONTINUOUS
 10
116.9175403226
 20
616.3111895161
 11
117.3175403226
 21
616.7111895161
  0
LINE
  5
47D
100
AcDbEntity
  8
3_ALL_AXES
100
AcDbLine
 62
7
  6
CONTINUOUS
 10
124.6175403226
 20
619.3111895161
 11
123.9175403226
 21
618.6111895161
  0
LINE
  5
47E
100
AcDbEntity
  8
6_ALL_SURFS
100
AcDbLine
 62
7
  6
CONTINUOUS
 10
157.2564745637
 20
593.0253778339
 11
156.8675403226
 21
592.800826545
  0
LINE
  5
47F
100
AcDbEntity
  8
6_ALL_SURFS
100
AcDbLine
 62
7
  6
CONTINUOUS
 10
163.6675403226
 20
570.4611895161
 11
163.3675403226
 21
570.3111895161
  0
LINE
  5
480
100
AcDbEntity
  8
6_ALL_SURFS
100
AcDbLine
 62
7
  6
CONTINUOUS
 10
166.6675403226
 20
570.4611895161
 11
166.3675403226
 21
570.3111895161
  0
LINE
  5
481
100
AcDbEntity
  8
6_ALL_SURFS
100
AcDbLine
 62
7
  6
CONTINUOUS
 10
169.6675403226
 20
570.4611895161
 11
169.3675403226
 21
570.3111895161
  0
LINE
  5
482
100
AcDbEntity
  8
7_ALL_FEATURES
100
AcDbLine
 62
7
  6
CONTINUOUS
 10
119.6705097702
 20
587.5466865072
 11
122.0869464331
 21
590.1379975742
  0
LINE
  5
483
100
AcDbEntity
  8
7_ALL_FEATURES
100
AcDbLine
 62
7
  6
CONTINUOUS
 10
122.5785779246
 20
588.4657890241
 11
120.8481342121
 21
586.6101153324
  0
LINE
  5
484
100
AcDbEntity
  8
7_ALL_FEATURES
100
AcDbLine
 62
7
  6
CONTINUOUS
 10
121.5713594183
 20
586.9931878762
 11
121.9357872315
 21
587.3839888602
  0
LINE
  5
485
100
AcDbEntity
  8
7_ALL_FEATURES
100
AcDbLine
 62
7
  6
CONTINUOUS
 10
122.5208701928
 20
586.8383901721
 11
122.1564423796
 21
586.4475891882
  0
LINE
  5
486
100
AcDbEntity
  8
3_ALL_AXES
100
AcDbLine
 62
7
  6
CONTINUOUS
 10
156.0175403226
 20
625.1111895161
 11
156.7175403226
 21
625.8111895161
  0
LINE
  5
487
100
AcDbEntity
  8
7_ALL_FEATURES
100
AcDbLine
 62
7
  6
CONTINUOUS
 10
163.7175403226
 20
628.1111895161
 11
163.3175403226
 21
627.7111895161
  0
LINE
  5
488
100
AcDbEntity
  8
6_ALL_SURFS
100
AcDbLine
 62
7
  6
CONTINUOUS
 10
172.6675403226
 20
570.4611895161
 11
172.3675403226
 21
570.3111895161
  0
LINE
  5
489
100
AcDbEntity
  8
6_ALL_SURFS
100
AcDbLine
 62
7
  6
CONTINUOUS
 10
175.6675403226
 20
570.4611895161
 11
175.3675403226
 21
570.3111895161
  0
LINE
  5
48A
100
AcDbEntity
  8
6_ALL_SURFS
100
AcDbLine
 62
7
  6
CONTINUOUS
 10
178.6675403226
 20
570.4611895161
 11
178.3675403226
 21
570.3111895161
  0
LINE
  5
48B
100
AcDbEntity
  8
7_ALL_FEATURES
100
AcDbLine
 62
7
  6
CONTINUOUS
 10
129.1033520049
 20
660.772255275
 11
130.0784586436
 21
662.4611895161
  0
LINE
  5
48C
100
AcDbEntity
  8
6_ALL_SURFS
100
AcDbLine
 62
7
  6
CONTINUOUS
 10
154.0784586436
 20
662.4611895161
 11
153.1033520049
 21
660.772255275
  0
LINE
  5
48D
100
AcDbEntity
  8
7_ALL_FEATURES
100
AcDbLine
 62
7
  6
CONTINUOUS
 10
120.8295343205
 20
583.5419816672
 11
121.940206038
 21
584.9894372303
  0
LINE
  5
48E
100
AcDbEntity
  8
3_ALL_AXES
100
AcDbLine
 62
7
  6
CONTINUOUS
 10
156.0175403226
 20
596.8111895161
 11
156.7175403226
 21
597.5111895161
  0
LINE
  5
48F
100
AcDbEntity
  8
7_ALL_FEATURES
100
AcDbLine
 62
7
  6
CONTINUOUS
 10
163.7175403226
 20
599.8111895161
 11
163.3175403226
 21
599.4111895161
  0
LINE
  5
490
100
AcDbEntity
  8
7_ALL_FEATURES
100
AcDbLine
 62
7
  6
CONTINUOUS
 10
124.3329039085
 20
641.5965273686
 11
123.9778477018
 21
640.621018458
  0
LINE
  5
491
100
AcDbEntity
  8
7_ALL_FEATURES
100
AcDbLine
 62
7
  6
CONTINUOUS
 10
122.436060287
 20
642.8389015151
 11
125.5413257043
 21
656.845848639
  0
LINE
  5
492
100
AcDbEntity
  8
7_ALL_FEATURES
100
AcDbLine
 62
7
  6
CONTINUOUS
 10
126.7438291671
 20
654.8776291301
 11
123.9643157778
 21
642.3400544486
  0
LINE
  5
493
100
AcDbEntity
  8
6_ALL_SURFS
100
AcDbLine
 62
7
  6
CONTINUOUS
 10
99.2675403226
 20
18.8111895161
 11
99.2675403226
 21
569.9174861582
  0
LINE
  5
494
100
AcDbEntity
  8
7_ALL_FEATURES
100
AcDbLine
 62
9
  6
CONTINUOUS
 10
99.6220687322
 20
569.5257366752
 11
99.6220687322
 21
18.8111895161
  0
LINE
  5
495
100
AcDbEntity
  8
6_ALL_SURFS
100
AcDbLine
 62
7
  6
CONTINUOUS
 10
101.7675403226
 20
18.8111895161
 11
101.7675403226
 21
47.5277817224
  0
LINE
  5
496
100
AcDbEntity
  8
6_ALL_SURFS
100
AcDbLine
 62
7
  6
CONTINUOUS
 10
101.7675403226
 20
54.0945973098
 11
101.7675403226
 21
297.5277817224
  0
LINE
  5
497
100
AcDbEntity
  8
6_ALL_SURFS
100
AcDbLine
 62
7
  6
CONTINUOUS
 10
101.7675403226
 20
304.0945973098
 11
101.7675403226
 21
547.5277817224
  0
LINE
  5
498
100
AcDbEntity
  8
7_ALL_FEATURES
100
AcDbLine
 62
7
  6
CONTINUOUS
 10
101.7675403226
 20
554.0945973098
 11
101.7675403226
 21
569.3111895161
  0
LINE
  5
499
100
AcDbEntity
  8
6_ALL_SURFS
100
AcDbLine
 62
7
  6
CONTINUOUS
 10
104.6675403226
 20
18.8111895161
 11
104.6675403226
 21
46.0498066561
  0
LINE
  5
49A
100
AcDbEntity
  8
6_ALL_SURFS
100
AcDbLine
 62
7
  6
CONTINUOUS
 10
104.6675403226
 20
55.5725723762
 11
104.6675403226
 21
296.0498066561
  0
LINE
  5
49B
100
AcDbEntity
  8
6_ALL_SURFS
100
AcDbLine
 62
7
  6
CONTINUOUS
 10
104.6675403226
 20
305.5725723762
 11
104.6675403226
 21
546.0498066561
  0
LINE
  5
49C
100
AcDbEntity
  8
7_ALL_FEATURES
100
AcDbLine
 62
7
  6
CONTINUOUS
 10
104.6675403226
 20
555.5725723762
 11
104.6675403226
 21
569.3111895161
  0
LINE
  5
49D
100
AcDbEntity
  8
6_ALL_SURFS
100
AcDbLine
 62
7
  6
CONTINUOUS
 10
105.2675403226
 20
18.8111895161
 11
105.2675403226
 21
46.0121514105
  0
LINE
  5
49E
100
AcDbEntity
  8
6_ALL_SURFS
100
AcDbLine
 62
7
  6
CONTINUOUS
 10
105.2675403226
 20
55.6102276218
 11
105.2675403226
 21
296.0121514105
  0
LINE
  5
49F
100
AcDbEntity
  8
6_ALL_SURFS
100
AcDbLine
 62
7
  6
CONTINUOUS
 10
105.2675403226
 20
305.6102276218
 11
105.2675403226
 21
546.0121514105
  0
LINE
  5
4A0
100
AcDbEntity
  8
7_ALL_FEATURES
100
AcDbLine
 62
7
  6
CONTINUOUS
 10
105.2675403226
 20
555.6102276218
 11
105.2675403226
 21
569.3111895161
  0
LINE
  5
4A1
100
AcDbEntity
  8
6_ALL_SURFS
100
AcDbLine
 62
7
  6
CONTINUOUS
 10
107.6675403226
 20
18.8111895161
 11
107.6675403226
 21
46.655378315
  0
LINE
  5
4A2
100
AcDbEntity
  8
6_ALL_SURFS
100
AcDbLine
 62
7
  6
CONTINUOUS
 10
107.6675403226
 20
54.9670007173
 11
107.6675403226
 21
296.655378315
  0
LINE
  5
4A3
100
AcDbEntity
  8
6_ALL_SURFS
100
AcDbLine
 62
7
  6
CONTINUOUS
 10
107.6675403226
 20
304.9670007173
 11
107.6675403226
 21
546.655378315
  0
LINE
  5
4A4
100
AcDbEntity
  8
7_ALL_FEATURES
100
AcDbLine
 62
7
  6
CONTINUOUS
 10
107.6675403226
 20
554.9670007173
 11
107.6675403226
 21
569.3111895161
  0
LINE
  5
4A5
100
AcDbEntity
  8
6_ALL_SURFS
100
AcDbLine
 62
7
  6
CONTINUOUS
 10
108.2675403226
 20
18.8111895161
 11
108.2675403226
 21
47.0654230072
  0
LINE
  5
4A6
100
AcDbEntity
  8
6_ALL_SURFS
100
AcDbLine
 62
7
  6
CONTINUOUS
 10
108.2675403226
 20
54.5569560251
 11
108.2675403226
 21
297.0654230072
  0
LINE
  5
4A7
100
AcDbEntity
  8
6_ALL_SURFS
100
AcDbLine
 62
7
  6
CONTINUOUS
 10
108.2675403226
 20
304.5569560251
 11
108.2675403226
 21
547.0654230072
  0
LINE
  5
4A8
100
AcDbEntity
  8
7_ALL_FEATURES
100
AcDbLine
 62
7
  6
CONTINUOUS
 10
108.2675403226
 20
554.5569560251
 11
108.2675403226
 21
569.3111895161
  0
LINE
  5
4A9
100
AcDbEntity
  8
7_ALL_FEATURES
100
AcDbLine
 62
7
  6
CONTINUOUS
 10
110.6675403226
 20
18.8111895161
 11
110.6675403226
 21
569.3111895161
  0
LINE
  5
4AA
100
AcDbEntity
  8
7_ALL_FEATURES
100
AcDbLine
 62
7
  6
CONTINUOUS
 10
111.2675403226
 20
18.8111895161
 11
111.2675403226
 21
569.3111895161
  0
LINE
  5
4AB
100
AcDbEntity
  8
7_ALL_FEATURES
100
AcDbLine
 62
7
  6
CONTINUOUS
 10
113.6675403226
 20
18.8111895161
 11
113.6675403226
 21
569.3111895161
  0
LINE
  5
4AC
100
AcDbEntity
  8
7_ALL_FEATURES
100
AcDbLine
 62
7
  6
CONTINUOUS
 10
114.2675403226
 20
18.8111895161
 11
114.2675403226
 21
569.3111895161
  0
LINE
  5
4AD
100
AcDbEntity
  8
7_ALL_FEATURES
100
AcDbLine
 62
7
  6
CONTINUOUS
 10
116.6675403226
 20
18.8111895161
 11
116.6675403226
 21
569.3111895161
  0
LINE
  5
4AE
100
AcDbEntity
  8
7_ALL_FEATURES
100
AcDbLine
 62
7
  6
CONTINUOUS
 10
116.9175403226
 20
612.3111895161
 11
116.9175403226
 21
616.3111895161
  0
LINE
  5
4AF
100
AcDbEntity
  8
7_ALL_FEATURES
100
AcDbLine
 62
7
  6
CONTINUOUS
 10
116.9175403226
 20
628.1111895161
 11
116.9175403226
 21
632.1111895161
  0
LINE
  5
4B0
100
AcDbEntity
  8
7_ALL_FEATURES
100
AcDbLine
 62
7
  6
CONTINUOUS
 10
117.2675403226
 20
18.8111895161
 11
117.2675403226
 21
569.3111895161
  0
LINE
  5
4B1
100
AcDbEntity
  8
3_ALL_AXES
100
AcDbLine
 62
7
  6
CONTINUOUS
 10
117.3175403226
 20
634.4611895161
 11
117.3175403226
 21
625.7611895161
  0
LINE
  5
4B2
100
AcDbEntity
  8
3_ALL_AXES
100
AcDbLine
 62
7
  6
CONTINUOUS
 10
117.3175403226
 20
618.9611895161
 11
117.3175403226
 21
610.2611895161
  0
LINE
  5
4B3
100
AcDbEntity
  8
6_ALL_SURFS
100
AcDbLine
 62
7
  6
CONTINUOUS
 10
118.6675403226
 20
581.8131154463
 11
118.6675403226
 21
570.3111895161
  0
LINE
  5
4B4
100
AcDbEntity
  8
7_ALL_FEATURES
100
AcDbLine
 62
9
  6
CONTINUOUS
 10
119.0209649801
 20
570.3111895161
 11
119.0209649801
 21
580.6320917214
  0
LINE
  5
4B5
100
AcDbEntity
  8
7_ALL_FEATURES
100
AcDbLine
 62
7
  6
CONTINUOUS
 10
119.1175403226
 20
583.166203089
 11
119.1175403226
 21
594.7111895161
  0
LINE
  5
4B6
100
AcDbEntity
  8
7_ALL_FEATURES
100
AcDbLine
 62
9
  6
CONTINUOUS
 10
119.2175403226
 20
18.8111895161
 11
119.2175403226
 21
569.3111895161
  0
LINE
  5
4B7
100
AcDbEntity
  8
7_ALL_FEATURES
100
AcDbLine
 62
7
  6
CONTINUOUS
 10
119.2675403226
 20
570.6111895161
 11
119.2675403226
 21
579.8081216807
  0
LINE
  5
4B8
100
AcDbEntity
  8
7_ALL_FEATURES
100
AcDbLine
 62
7
  6
CONTINUOUS
 10
119.2675403226
 20
583.8181092119
 11
119.2675403226
 21
586.5236889671
  0
LINE
  5
4B9
100
AcDbEntity
  8
7_ALL_FEATURES
100
AcDbLine
 62
3
  6
CONTINUOUS
 10
119.3175403226
 20
642.6111895161
 11
119.3175403226
 21
595.5793475774
  0
LINE
  5
4BA
100
AcDbEntity
  8
7_ALL_FEATURES
100
AcDbLine
 62
7
  6
CONTINUOUS
 10
119.5175403226
 20
18.8111895161
 11
119.5175403226
 21
569.0111895161
  0
LINE
  5
4BB
100
AcDbEntity
  8
7_ALL_FEATURES
100
AcDbLine
 62
9
  6
CONTINUOUS
 10
119.8175403226
 20
567.8111895161
 11
119.8175403226
 21
18.8111895161
  0
LINE
  5
4BC
100
AcDbEntity
  8
7_ALL_FEATURES
100
AcDbLine
 62
9
  6
CONTINUOUS
 10
120.4675403226
 20
567.8111895161
 11
120.4675403226
 21
18.8111895161
  0
LINE
  5
4BD
100
AcDbEntity
  8
7_ALL_FEATURES
100
AcDbLine
 62
9
  6
CONTINUOUS
 10
120.5780666384
 20
582.4173938214
 11
120.5780666384
 21
581.2088370712
  0
LINE
  5
4BE
100
AcDbEntity
  8
7_ALL_FEATURES
100
AcDbLine
 62
7
  6
CONTINUOUS
 10
120.7675403226
 20
586.4055158244
 11
120.7675403226
 21
585.6111895161
  0
LINE
  5
4BF
100
AcDbEntity
  8
7_ALL_FEATURES
100
AcDbLine
 62
7
  6
CONTINUOUS
 10
120.7675403226
 20
583.3593532385
 11
120.7675403226
 21
18.8111895161
  0
LINE
  5
4C0
100
AcDbEntity
  8
7_ALL_FEATURES
100
AcDbLine
 62
9
  6
CONTINUOUS
 10
120.8295343205
 20
18.8111895161
 11
120.8295343205
 21
583.5419816672
  0
LINE
  5
4C1
100
AcDbEntity
  8
7_ALL_FEATURES
100
AcDbLine
 62
9
  6
CONTINUOUS
 10
120.8481342121
 20
585.4080562524
 11
120.8481342121
 21
586.6101153324
  0
LINE
  5
4C2
100
AcDbEntity
  8
7_ALL_FEATURES
100
AcDbLine
 62
7
  6
CONTINUOUS
 10
120.9675403226
 20
18.8111895161
 11
120.9675403226
 21
582.3111895161
  0
LINE
  5
4C3
100
AcDbEntity
  8
7_ALL_FEATURES
100
AcDbLine
 62
7
  6
CONTINUOUS
 10
120.9675403226
 20
583.0111895161
 11
120.9675403226
 21
583.6111895161
  0
LINE
  5
4C4
100
AcDbEntity
  8
7_ALL_FEATURES
100
AcDbLine
 62
9
  6
CONTINUOUS
 10
121.1175403226
 20
590.9111895161
 11
121.1175403226
 21
589.0984367941
  0
LINE
  5
4C5
100
AcDbEntity
  8
7_ALL_FEATURES
100
AcDbLine
 62
9
  6
CONTINUOUS
 10
121.1675403226
 20
18.8111895161
 11
121.1675403226
 21
582.3111895161
  0
LINE
  5
4C6
100
AcDbEntity
  8
7_ALL_FEATURES
100
AcDbLine
 62
9
  6
CONTINUOUS
 10
121.8675403226
 20
589.9027133266
 11
121.8675403226
 21
590.9111895161
  0
LINE
  5
4C7
100
AcDbEntity
  8
7_ALL_FEATURES
100
AcDbLine
 62
9
  6
CONTINUOUS
 10
121.940206038
 20
584.9894372303
 11
121.940206038
 21
583.8111895161
  0
LINE
  5
4C8
100
AcDbEntity
  8
7_ALL_FEATURES
100
AcDbLine
 62
9
  6
CONTINUOUS
 10
121.940206038
 20
582.8111895161
 11
121.940206038
 21
582.3111895161
  0
LINE
  5
4C9
100
AcDbEntity
  8
6_ALL_SURFS
100
AcDbLine
 62
7
  6
CONTINUOUS
 10
121.9815353699
 20
582.3111895161
 11
121.9815353699
 21
582.8111895161
  0
LINE
  5
4CA
100
AcDbEntity
  8
6_ALL_SURFS
100
AcDbLine
 62
7
  6
CONTINUOUS
 10
121.9815353699
 20
583.8111895161
 11
121.9815353699
 21
585.1111895161
  0
LINE
  5
4CB
100
AcDbEntity
  8
7_ALL_FEATURES
100
AcDbLine
 62
7
  6
CONTINUOUS
 10
122.1675403226
 20
590.3425970823
 11
122.1675403226
 21
590.6111895161
  0
LINE
  5
4CC
100
AcDbEntity
  8
7_ALL_FEATURES
100
AcDbLine
 62
7
  6
CONTINUOUS
 10
122.2175403226
 20
584.0111895161
 11
122.2175403226
 21
584.6311895161
  0
LINE
  5
4CD
100
AcDbEntity
  8
7_ALL_FEATURES
100
AcDbLine
 62
7
  6
CONTINUOUS
 10
122.3175403226
 20
597.0111895161
 11
122.3175403226
 21
642.6111895161
  0
LINE
  5
4CE
100
AcDbEntity
  8
7_ALL_FEATURES
100
AcDbLine
 62
9
  6
CONTINUOUS
 10
122.5785779246
 20
582.3111895161
 11
122.5785779246
 21
582.8111895161
  0
LINE
  5
4CF
100
AcDbEntity
  8
7_ALL_FEATURES
100
AcDbLine
 62
9
  6
CONTINUOUS
 10
122.5785779246
 20
585.8090447175
 11
122.5785779246
 21
586.9190477961
  0
LINE
  5
4D0
100
AcDbEntity
  8
7_ALL_FEATURES
100
AcDbLine
 62
9
  6
CONTINUOUS
 10
122.5785779246
 20
587.3034079429
 11
122.5785779246
 21
588.4657890241
  0
LINE
  5
4D1
100
AcDbEntity
  8
7_ALL_FEATURES
100
AcDbLine
 62
9
  6
CONTINUOUS
 10
122.7979840351
 20
582.3111895161
 11
122.7979840351
 21
582.8111895161
  0
LINE
  5
4D2
100
AcDbEntity
  8
7_ALL_FEATURES
100
AcDbLine
 62
9
  6
CONTINUOUS
 10
122.7979840351
 20
585.4926438882
 11
122.7979840351
 21
588.5611895161
  0
LINE
  5
4D3
100
AcDbEntity
  8
7_ALL_FEATURES
100
AcDbLine
 62
9
  6
CONTINUOUS
 10
123.0015312517
 20
594.6607552002
 11
123.0015312517
 21
592.9616238321
  0
LINE
  5
4D4
100
AcDbEntity
  8
7_ALL_FEATURES
100
AcDbLine
 62
7
  6
CONTINUOUS
 10
123.0175403226
 20
584.6311895161
 11
123.0175403226
 21
584.1111895161
  0
LINE
  5
4D5
100
AcDbEntity
  8
7_ALL_FEATURES
100
AcDbLine
 62
9
  6
CONTINUOUS
 10
123.3786060815
 20
594.5970011984
 11
123.3786060815
 21
593.0253778339
  0
LINE
  5
4D6
100
AcDbEntity
  8
7_ALL_FEATURES
100
AcDbLine
 62
9
  6
CONTINUOUS
 10
123.6175403226
 20
588.5611895161
 11
123.6175403226
 21
583.9111895161
  0
LINE
  5
4D7
100
AcDbEntity
  8
7_ALL_FEATURES
100
AcDbLine
 62
9
  6
CONTINUOUS
 10
123.6175403226
 20
582.8111895161
 11
123.6175403226
 21
582.3111895161
  0
LINE
  5
4D8
100
AcDbEntity
  8
7_ALL_FEATURES
100
AcDbLine
 62
9
  6
CONTINUOUS
 10
123.7675403226
 20
594.8215524872
 11
123.7675403226
 21
592.800826545
  0
LINE
  5
4D9
100
AcDbEntity
  8
7_ALL_FEATURES
100
AcDbLine
 62
7
  6
CONTINUOUS
 10
123.9175403226
 20
640.2789983147
 11
123.9175403226
 21
583.9111895161
  0
LINE
  5
4DA
100
AcDbEntity
  8
7_ALL_FEATURES
100
AcDbLine
 62
7
  6
CONTINUOUS
 10
123.9175403226
 20
582.8111895161
 11
123.9175403226
 21
582.3111895161
  0
LINE
  5
4DB
100
AcDbEntity
  8
7_ALL_FEATURES
100
AcDbLine
 62
9
  6
CONTINUOUS
 10
123.9643157778
 20
642.2158824866
 11
123.9643157778
 21
642.3400544486
  0
LINE
  5
4DC
100
AcDbEntity
  8
7_ALL_FEATURES
100
AcDbLine
 62
9
  6
CONTINUOUS
 10
123.9778477018
 20
582.3111895161
 11
123.9778477018
 21
582.8111895161
  0
LINE
  5
4DD
100
AcDbEntity
  8
7_ALL_FEATURES
100
AcDbLine
 62
9
  6
CONTINUOUS
 10
123.9778477018
 20
583.9111895161
 11
123.9778477018
 21
609.9508821369
  0
LINE
  5
4DE
100
AcDbEntity
  8
7_ALL_FEATURES
100
AcDbLine
 62
9
  6
CONTINUOUS
 10
123.9778477018
 20
618.6714968953
 11
123.9778477018
 21
625.7508821369
  0
LINE
  5
4DF
100
AcDbEntity
  8
7_ALL_FEATURES
100
AcDbLine
 62
9
  6
CONTINUOUS
 10
123.9778477018
 20
634.4714968953
 11
123.9778477018
 21
640.621018458
  0
LINE
  5
4E0
100
AcDbEntity
  8
7_ALL_FEATURES
100
AcDbLine
 62
7
  6
CONTINUOUS
 10
124.3175403226
 20
651.3257095112
 11
124.3175403226
 21
662.3111895161
  0
LINE
  5
4E1
100
AcDbEntity
  8
7_ALL_FEATURES
100
AcDbLine
 62
9
  6
CONTINUOUS
 10
124.3329039085
 20
641.5965273686
 11
124.3329039085
 21
634.8265531021
  0
LINE
  5
4E2
100
AcDbEntity
  8
7_ALL_FEATURES
100
AcDbLine
 62
9
  6
CONTINUOUS
 10
124.3329039085
 20
625.3958259302
 11
124.3329039085
 21
619.0265531021
  0
LINE
  5
4E3
100
AcDbEntity
  8
7_ALL_FEATURES
100
AcDbLine
 62
9
  6
CONTINUOUS
 10
124.3329039085
 20
609.5958259302
 11
124.3329039085
 21
583.9111895161
  0
LINE
  5
4E4
100
AcDbEntity
  8
7_ALL_FEATURES
100
AcDbLine
 62
9
  6
CONTINUOUS
 10
124.3329039085
 20
582.8111895161
 11
124.3329039085
 21
582.3111895161
  0
LINE
  5
4E5
100
AcDbEntity
  8
6_ALL_SURFS
100
AcDbLine
 62
7
  6
CONTINUOUS
 10
124.3509961223
 20
582.3111895161
 11
124.3509961223
 21
582.8111895161
  0
LINE
  5
4E6
100
AcDbEntity
  8
6_ALL_SURFS
100
AcDbLine
 62
7
  6
CONTINUOUS
 10
124.3509961223
 20
583.9111895161
 11
124.3509961223
 21
609.5777337164
  0
LINE
  5
4E7
100
AcDbEntity
  8
6_ALL_SURFS
100
AcDbLine
 62
7
  6
CONTINUOUS
 10
124.3509961223
 20
619.0446453158
 11
124.3509961223
 21
625.3777337164
  0
LINE
  5
4E8
100
AcDbEntity
  8
6_ALL_SURFS
100
AcDbLine
 62
7
  6
CONTINUOUS
 10
124.3509961223
 20
634.8446453158
 11
124.3509961223
 21
641.6991334116
  0
LINE
  5
4E9
100
AcDbEntity
  8
3_ALL_AXES
100
AcDbLine
 62
7
  6
CONTINUOUS
 10
124.6175403226
 20
609.3111895161
 11
124.6175403226
 21
619.3111895161
  0
LINE
  5
4EA
100
AcDbEntity
  8
3_ALL_AXES
100
AcDbLine
 62
7
  6
CONTINUOUS
 10
124.6175403226
 20
625.1111895161
 11
124.6175403226
 21
635.1111895161
  0
LINE
  5
4EB
100
AcDbEntity
  8
7_ALL_FEATURES
100
AcDbLine
 62
9
  6
CONTINUOUS
 10
124.8175403226
 20
661.1111895161
 11
124.8175403226
 21
653.581063763
  0
LINE
  5
4EC
100
AcDbEntity
  8
3_ALL_AXES
100
AcDbLine
 62
7
  6
CONTINUOUS
 10
124.9175403226
 20
609.3111895161
 11
124.9175403226
 21
619.3111895161
  0
LINE
  5
4ED
100
AcDbEntity
  8
3_ALL_AXES
100
AcDbLine
 62
7
  6
CONTINUOUS
 10
124.9175403226
 20
625.1111895161
 11
124.9175403226
 21
635.1111895161
  0
LINE
  5
4EE
100
AcDbEntity
  8
6_ALL_SURFS
100
AcDbLine
 62
7
  6
CONTINUOUS
 10
125.5175403226
 20
659.4111895161
 11
125.5175403226
 21
656.7385597156
  0
LINE
  5
4EF
100
AcDbEntity
  8
7_ALL_FEATURES
100
AcDbLine
 62
9
  6
CONTINUOUS
 10
125.5516769854
 20
659.8366340994
 11
125.5516769854
 21
661.1111895161
  0
LINE
  5
4F0
100
AcDbEntity
  8
7_ALL_FEATURES
100
AcDbLine
 62
9
  6
CONTINUOUS
 10
125.568624293
 20
657.0078748346
 11
125.568624293
 21
658.8787792775
  0
LINE
  5
4F1
100
AcDbEntity
  8
7_ALL_FEATURES
100
AcDbLine
 62
9
  6
CONTINUOUS
 10
126.7438291671
 20
582.3111895161
 11
126.7438291671
 21
582.8111895161
  0
LINE
  5
4F2
100
AcDbEntity
  8
7_ALL_FEATURES
100
AcDbLine
 62
9
  6
CONTINUOUS
 10
126.7438291671
 20
583.9111895161
 11
126.7438291671
 21
654.8776291301
  0
LINE
  5
4F3
100
AcDbEntity
  8
7_ALL_FEATURES
100
AcDbLine
 62
9
  6
CONTINUOUS
 10
127.4679746386
 20
660.3951804452
 11
127.4679746386
 21
658.4307162487
  0
LINE
  5
4F4
100
AcDbEntity
  8
6_ALL_SURFS
100
AcDbLine
 62
7
  6
CONTINUOUS
 10
127.5719210192
 20
658.3483643097
 11
127.5719210192
 21
660.622255275
  0
LINE
  5
4F5
100
AcDbEntity
  8
7_ALL_FEATURES
100
AcDbLine
 62
9
  6
CONTINUOUS
 10
127.7201251743
 20
582.3111895161
 11
127.7201251743
 21
582.8111895161
  0
LINE
  5
4F6
100
AcDbEntity
  8
7_ALL_FEATURES
100
AcDbLine
 62
9
  6
CONTINUOUS
 10
127.7201251743
 20
583.9111895161
 11
127.7201251743
 21
655.6611895161
  0
LINE
  5
4F7
100
AcDbEntity
  8
6_ALL_SURFS
100
AcDbLine
 62
7
  6
CONTINUOUS
 10
129.063159626
 20
658.3483643097
 11
129.063159626
 21
660.622255275
  0
LINE
  5
4F8
100
AcDbEntity
  8
7_ALL_FEATURES
100
AcDbLine
 62
9
  6
CONTINUOUS
 10
129.1671060066
 20
660.3951804452
 11
129.1671060066
 21
658.4307162487
  0
LINE
  5
4F9
100
AcDbEntity
  8
7_ALL_FEATURES
100
AcDbLine
 62
9
  6
CONTINUOUS
 10
130.7424114532
 20
657.5142446742
 11
130.7424114532
 21
658.0111895161
  0
LINE
  5
4FA
100
AcDbEntity
  8
7_ALL_FEATURES
100
AcDbLine
 62
7
  6
CONTINUOUS
 10
131.1175403226
 20
657.2651725098
 11
131.1175403226
 21
662.3111895161
  0
LINE
  5
4FB
100
AcDbEntity
  8
7_ALL_FEATURES
100
AcDbLine
 62
7
  6
CONTINUOUS
 10
132.8175403226
 20
654.6611895161
 11
132.8175403226
 21
655.6611895161
  0
LINE
  5
4FC
100
AcDbEntity
  8
7_ALL_FEATURES
100
AcDbLine
 62
7
  6
CONTINUOUS
 10
136.3175403226
 20
652.6329862859
 11
136.3175403226
 21
654.6611895161
  0
LINE
  5
4FD
100
AcDbEntity
  8
7_ALL_FEATURES
100
AcDbLine
 62
7
  6
CONTINUOUS
 10
136.7175403226
 20
657.5611895161
 11
136.7175403226
 21
660.8111895161
  0
LINE
  5
4FE
100
AcDbEntity
  8
7_ALL_FEATURES
100
AcDbLine
 62
9
  6
CONTINUOUS
 10
138.3175403226
 20
651.8152228237
 11
138.3175403226
 21
583.9111895161
  0
LINE
  5
4FF
100
AcDbEntity
  8
7_ALL_FEATURES
100
AcDbLine
 62
9
  6
CONTINUOUS
 10
138.3175403226
 20
582.8111895161
 11
138.3175403226
 21
582.3111895161
  0
LINE
  5
500
100
AcDbEntity
  8
7_ALL_FEATURES
100
AcDbLine
 62
7
  6
CONTINUOUS
 10
138.3175403226
 20
651.8152228237
 11
138.3175403226
 21
651.8313770993
  0
LINE
  5
501
100
AcDbEntity
  8
7_ALL_FEATURES
100
AcDbLine
 62
7
  6
CONTINUOUS
 10
138.6175403226
 20
660.7111895161
 11
138.6175403226
 21
655.9611895161
  0
LINE
  5
502
100
AcDbEntity
  8
7_ALL_FEATURES
100
AcDbLine
 62
7
  6
CONTINUOUS
 10
138.6175403226
 20
651.7606536764
 11
138.6175403226
 21
583.9111895161
  0
LINE
  5
503
100
AcDbEntity
  8
7_ALL_FEATURES
100
AcDbLine
 62
7
  6
CONTINUOUS
 10
138.6175403226
 20
582.8111895161
 11
138.6175403226
 21
582.3111895161
  0
LINE
  5
504
100
AcDbEntity
  8
7_ALL_FEATURES
100
AcDbLine
 62
9
  6
CONTINUOUS
 10
138.9175403226
 20
582.3111895161
 11
138.9175403226
 21
582.8111895161
  0
LINE
  5
505
100
AcDbEntity
  8
7_ALL_FEATURES
100
AcDbLine
 62
9
  6
CONTINUOUS
 10
138.9175403226
 20
583.9111895161
 11
138.9175403226
 21
651.7009985377
  0
LINE
  5
506
100
AcDbEntity
  8
7_ALL_FEATURES
100
AcDbLine
 62
9
  6
CONTINUOUS
 10
138.9175403226
 20
660.6611895161
 11
138.9175403226
 21
661.0111895161
  0
LINE
  5
507
100
AcDbEntity
  8
7_ALL_FEATURES
100
AcDbLine
 62
7
  6
CONTINUOUS
 10
139.8175403226
 20
651.5925007909
 11
139.8175403226
 21
651.8313770993
  0
LINE
  5
508
100
AcDbEntity
  8
7_ALL_FEATURES
100
AcDbLine
 62
7
  6
CONTINUOUS
 10
140.8175403226
 20
651.8313770993
 11
140.8175403226
 21
651.5925007909
  0
LINE
  5
509
100
AcDbEntity
  8
7_ALL_FEATURES
100
AcDbLine
 62
9
  6
CONTINUOUS
 10
141.7175403226
 20
582.3111895161
 11
141.7175403226
 21
582.8111895161
  0
LINE
  5
50A
100
AcDbEntity
  8
7_ALL_FEATURES
100
AcDbLine
 62
9
  6
CONTINUOUS
 10
141.7175403226
 20
583.9111895161
 11
141.7175403226
 21
651.7010471508
  0
LINE
  5
50B
100
AcDbEntity
  8
7_ALL_FEATURES
100
AcDbLine
 62
9
  6
CONTINUOUS
 10
141.7175403226
 20
660.6611895161
 11
141.7175403226
 21
661.0111895161
  0
LINE
  5
50C
100
AcDbEntity
  8
6_ALL_SURFS
100
AcDbLine
 62
7
  6
CONTINUOUS
 10
142.0175403226
 20
660.7111895161
 11
142.0175403226
 21
655.9611895161
  0
LINE
  5
50D
100
AcDbEntity
  8
7_ALL_FEATURES
100
AcDbLine
 62
7
  6
CONTINUOUS
 10
142.0175403226
 20
651.7606589635
 11
142.0175403226
 21
583.9111895161
  0
LINE
  5
50E
100
AcDbEntity
  8
7_ALL_FEATURES
100
AcDbLine
 62
7
  6
CONTINUOUS
 10
142.0175403226
 20
582.8111895161
 11
142.0175403226
 21
582.3111895161
  0
LINE
  5
50F
100
AcDbEntity
  8
7_ALL_FEATURES
100
AcDbLine
 62
7
  6
CONTINUOUS
 10
142.3175403226
 20
651.8313770993
 11
142.3175403226
 21
651.8152228237
  0
LINE
  5
510
100
AcDbEntity
  8
7_ALL_FEATURES
100
AcDbLine
 62
9
  6
CONTINUOUS
 10
142.3175403226
 20
651.8152228237
 11
142.3175403226
 21
583.9111895161
  0
LINE
  5
511
100
AcDbEntity
  8
7_ALL_FEATURES
100
AcDbLine
 62
9
  6
CONTINUOUS
 10
142.3175403226
 20
582.8111895161
 11
142.3175403226
 21
582.3111895161
  0
LINE
  5
512
100
AcDbEntity
  8
6_ALL_SURFS
100
AcDbLine
 62
7
  6
CONTINUOUS
 10
143.9175403226
 20
657.5611895161
 11
143.9175403226
 21
660.8111895161
  0
LINE
  5
513
100
AcDbEntity
  8
7_ALL_FEATURES
100
AcDbLine
 62
7
  6
CONTINUOUS
 10
144.3175403226
 20
652.6329862859
 11
144.3175403226
 21
654.6611895161
  0
LINE
  5
514
100
AcDbEntity
  8
7_ALL_FEATURES
100
AcDbLine
 62
7
  6
CONTINUOUS
 10
147.8175403226
 20
655.6611895161
 11
147.8175403226
 21
654.6611895161
  0
LINE
  5
515
100
AcDbEntity
  8
6_ALL_SURFS
100
AcDbLine
 62
7
  6
CONTINUOUS
 10
149.5175403226
 20
662.3111895161
 11
149.5175403226
 21
659.4111895161
  0
LINE
  5
516
100
AcDbEntity
  8
7_ALL_FEATURES
100
AcDbLine
 62
7
  6
CONTINUOUS
 10
149.5175403226
 20
657.2651725098
 11
149.5175403226
 21
659.4111895161
  0
LINE
  5
517
100
AcDbEntity
  8
7_ALL_FEATURES
100
AcDbLine
 62
9
  6
CONTINUOUS
 10
149.892669192
 20
657.5142446742
 11
149.892669192
 21
658.0111895161
  0
LINE
  5
518
100
AcDbEntity
  8
7_ALL_FEATURES
100
AcDbLine
 62
9
  6
CONTINUOUS
 10
151.4679746386
 20
660.3951804452
 11
151.4679746386
 21
658.4307162487
  0
LINE
  5
519
100
AcDbEntity
  8
7_ALL_FEATURES
100
AcDbLine
 62
7
  6
CONTINUOUS
 10
151.5719210192
 20
660.622255275
 11
151.5719210192
 21
658.3483643097
  0
LINE
  5
51A
100
AcDbEntity
  8
7_ALL_FEATURES
100
AcDbLine
 62
9
  6
CONTINUOUS
 10
152.9149554709
 20
582.3111895161
 11
152.9149554709
 21
582.8111895161
  0
LINE
  5
51B
100
AcDbEntity
  8
7_ALL_FEATURES
100
AcDbLine
 62
9
  6
CONTINUOUS
 10
152.9149554709
 20
583.9111895161
 11
152.9149554709
 21
655.6611895161
  0
LINE
  5
51C
100
AcDbEntity
  8
7_ALL_FEATURES
100
AcDbLine
 62
7
  6
CONTINUOUS
 10
153.063159626
 20
660.622255275
 11
153.063159626
 21
658.3483643097
  0
LINE
  5
51D
100
AcDbEntity
  8
7_ALL_FEATURES
100
AcDbLine
 62
9
  6
CONTINUOUS
 10
153.1671060066
 20
660.3951804452
 11
153.1671060066
 21
658.4307162487
  0
LINE
  5
51E
100
AcDbEntity
  8
7_ALL_FEATURES
100
AcDbLine
 62
9
  6
CONTINUOUS
 10
153.891251478
 20
582.3111895161
 11
153.891251478
 21
582.8111895161
  0
LINE
  5
51F
100
AcDbEntity
  8
7_ALL_FEATURES
100
AcDbLine
 62
9
  6
CONTINUOUS
 10
153.891251478
 20
583.9111895161
 11
153.891251478
 21
654.8776291301
  0
LINE
  5
520
100
AcDbEntity
  8
7_ALL_FEATURES
100
AcDbLine
 62
9
  6
CONTINUOUS
 10
155.0664563522
 20
657.0078748346
 11
155.0664563522
 21
658.8787792775
  0
LINE
  5
521
100
AcDbEntity
  8
7_ALL_FEATURES
100
AcDbLine
 62
9
  6
CONTINUOUS
 10
155.0834036598
 20
659.8366340994
 11
155.0834036598
 21
661.1111895161
  0
LINE
  5
522
100
AcDbEntity
  8
7_ALL_FEATURES
100
AcDbLine
 62
7
  6
CONTINUOUS
 10
155.1175403226
 20
656.7385597156
 11
155.1175403226
 21
659.4111895161
  0
LINE
  5
523
100
AcDbEntity
  8
3_ALL_AXES
100
AcDbLine
 62
7
  6
CONTINUOUS
 10
155.7175403226
 20
635.1111895161
 11
155.7175403226
 21
625.1111895161
  0
LINE
  5
524
100
AcDbEntity
  8
3_ALL_AXES
100
AcDbLine
 62
7
  6
CONTINUOUS
 10
155.7175403226
 20
606.8111895161
 11
155.7175403226
 21
596.8111895161
  0
LINE
  5
525
100
AcDbEntity
  8
7_ALL_FEATURES
100
AcDbLine
 62
9
  6
CONTINUOUS
 10
155.8175403226
 20
661.1111895161
 11
155.8175403226
 21
653.581063763
  0
LINE
  5
526
100
AcDbEntity
  8
3_ALL_AXES
100
AcDbLine
 62
7
  6
CONTINUOUS
 10
156.0175403226
 20
635.1111895161
 11
156.0175403226
 21
625.1111895161
  0
LINE
  5
527
100
AcDbEntity
  8
3_ALL_AXES
100
AcDbLine
 62
7
  6
CONTINUOUS
 10
156.0175403226
 20
606.8111895161
 11
156.0175403226
 21
596.8111895161
  0
LINE
  5
528
100
AcDbEntity
  8
7_ALL_FEATURES
100
AcDbLine
 62
7
  6
CONTINUOUS
 10
156.2840845229
 20
641.6991334116
 11
156.2840845229
 21
634.8446453158
  0
LINE
  5
529
100
AcDbEntity
  8
7_ALL_FEATURES
100
AcDbLine
 62
7
  6
CONTINUOUS
 10
156.2840845229
 20
625.3777337164
 11
156.2840845229
 21
606.5446453158
  0
LINE
  5
52A
100
AcDbEntity
  8
7_ALL_FEATURES
100
AcDbLine
 62
7
  6
CONTINUOUS
 10
156.2840845229
 20
597.0777337164
 11
156.2840845229
 21
583.9111895161
  0
LINE
  5
52B
100
AcDbEntity
  8
7_ALL_FEATURES
100
AcDbLine
 62
7
  6
CONTINUOUS
 10
156.2840845229
 20
582.8111895161
 11
156.2840845229
 21
582.3111895161
  0
LINE
  5
52C
100
AcDbEntity
  8
7_ALL_FEATURES
100
AcDbLine
 62
9
  6
CONTINUOUS
 10
156.3021767366
 20
641.5965273686
 11
156.3021767366
 21
634.8265531021
  0
LINE
  5
52D
100
AcDbEntity
  8
7_ALL_FEATURES
100
AcDbLine
 62
9
  6
CONTINUOUS
 10
156.3021767366
 20
625.3958259302
 11
156.3021767366
 21
606.5265531021
  0
LINE
  5
52E
100
AcDbEntity
  8
7_ALL_FEATURES
100
AcDbLine
 62
9
  6
CONTINUOUS
 10
156.3021767366
 20
597.0958259302
 11
156.3021767366
 21
583.9111895161
  0
LINE
  5
52F
100
AcDbEntity
  8
7_ALL_FEATURES
100
AcDbLine
 62
9
  6
CONTINUOUS
 10
156.3021767366
 20
582.8111895161
 11
156.3021767366
 21
582.3111895161
  0
LINE
  5
530
100
AcDbEntity
  8
7_ALL_FEATURES
100
AcDbLine
 62
7
  6
CONTINUOUS
 10
156.3175403226
 20
661.6111895161
 11
156.3175403226
 21
651.3257095112
  0
LINE
  5
531
100
AcDbEntity
  8
6_ALL_SURFS
100
AcDbLine
 62
7
  6
CONTINUOUS
 10
156.3175403226
 20
661.6111895161
 11
156.3175403226
 21
662.3111895161
  0
LINE
  5
532
100
AcDbEntity
  8
7_ALL_FEATURES
100
AcDbLine
 62
9
  6
CONTINUOUS
 10
156.6572329434
 20
582.3111895161
 11
156.6572329434
 21
582.8111895161
  0
LINE
  5
533
100
AcDbEntity
  8
7_ALL_FEATURES
100
AcDbLine
 62
9
  6
CONTINUOUS
 10
156.6572329434
 20
583.9111895161
 11
156.6572329434
 21
597.4508821369
  0
LINE
  5
534
100
AcDbEntity
  8
7_ALL_FEATURES
100
AcDbLine
 62
9
  6
CONTINUOUS
 10
156.6572329434
 20
606.1714968953
 11
156.6572329434
 21
625.7508821369
  0
LINE
  5
535
100
AcDbEntity
  8
7_ALL_FEATURES
100
AcDbLine
 62
9
  6
CONTINUOUS
 10
156.6572329434
 20
634.4714968953
 11
156.6572329434
 21
640.621018458
  0
LINE
  5
536
100
AcDbEntity
  8
7_ALL_FEATURES
100
AcDbLine
 62
9
  6
CONTINUOUS
 10
156.6707648674
 20
642.2158824866
 11
156.6707648674
 21
642.3400544486
  0
LINE
  5
537
100
AcDbEntity
  8
6_ALL_SURFS
100
AcDbLine
 62
7
  6
CONTINUOUS
 10
156.7175403226
 20
640.2789983147
 11
156.7175403226
 21
595.0813601083
  0
LINE
  5
538
100
AcDbEntity
  8
7_ALL_FEATURES
100
AcDbLine
 62
7
  6
CONTINUOUS
 10
156.7175403226
 20
595.0813601083
 11
156.7175403226
 21
592.5410189239
  0
LINE
  5
539
100
AcDbEntity
  8
6_ALL_SURFS
100
AcDbLine
 62
7
  6
CONTINUOUS
 10
156.7175403226
 20
592.5410189239
 11
156.7175403226
 21
588.8611895161
  0
LINE
  5
53A
100
AcDbEntity
  8
7_ALL_FEATURES
100
AcDbLine
 62
7
  6
CONTINUOUS
 10
156.7175403226
 20
588.8611895161
 11
156.7175403226
 21
583.9111895161
  0
LINE
  5
53B
100
AcDbEntity
  8
7_ALL_FEATURES
100
AcDbLine
 62
7
  6
CONTINUOUS
 10
156.7175403226
 20
582.8111895161
 11
156.7175403226
 21
582.3111895161
  0
LINE
  5
53C
100
AcDbEntity
  8
7_ALL_FEATURES
100
AcDbLine
 62
9
  6
CONTINUOUS
 10
156.8675403226
 20
594.8215524872
 11
156.8675403226
 21
592.800826545
  0
LINE
  5
53D
100
AcDbEntity
  8
7_ALL_FEATURES
100
AcDbLine
 62
9
  6
CONTINUOUS
 10
157.0175403226
 20
588.5611895161
 11
157.0175403226
 21
583.9111895161
  0
LINE
  5
53E
100
AcDbEntity
  8
7_ALL_FEATURES
100
AcDbLine
 62
9
  6
CONTINUOUS
 10
157.0175403226
 20
582.8111895161
 11
157.0175403226
 21
582.3111895161
  0
LINE
  5
53F
100
AcDbEntity
  8
7_ALL_FEATURES
100
AcDbLine
 62
9
  6
CONTINUOUS
 10
157.2564745637
 20
594.5970011984
 11
157.2564745637
 21
593.0253778339
  0
LINE
  5
540
100
AcDbEntity
  8
7_ALL_FEATURES
100
AcDbLine
 62
7
  6
CONTINUOUS
 10
157.6175403226
 20
584.1111895161
 11
157.6175403226
 21
584.6311895161
  0
LINE
  5
541
100
AcDbEntity
  8
7_ALL_FEATURES
100
AcDbLine
 62
9
  6
CONTINUOUS
 10
157.6335493935
 20
594.6607552002
 11
157.6335493935
 21
592.9616238321
  0
LINE
  5
542
100
AcDbEntity
  8
7_ALL_FEATURES
100
AcDbLine
 62
9
  6
CONTINUOUS
 10
157.8370966101
 20
582.3111895161
 11
157.8370966101
 21
582.8111895161
  0
LINE
  5
543
100
AcDbEntity
  8
7_ALL_FEATURES
100
AcDbLine
 62
9
  6
CONTINUOUS
 10
157.8370966101
 20
585.4926438882
 11
157.8370966101
 21
588.5611895161
  0
LINE
  5
544
100
AcDbEntity
  8
7_ALL_FEATURES
100
AcDbLine
 62
9
  6
CONTINUOUS
 10
158.0565027206
 20
582.3111895161
 11
158.0565027206
 21
582.8111895161
  0
LINE
  5
545
100
AcDbEntity
  8
7_ALL_FEATURES
100
AcDbLine
 62
9
  6
CONTINUOUS
 10
158.0565027206
 20
585.8090447175
 11
158.0565027206
 21
586.9190477961
  0
LINE
  5
546
100
AcDbEntity
  8
7_ALL_FEATURES
100
AcDbLine
 62
9
  6
CONTINUOUS
 10
158.0565027206
 20
587.3034079429
 11
158.0565027206
 21
588.4657890241
  0
LINE
  5
547
100
AcDbEntity
  8
6_ALL_SURFS
100
AcDbLine
 62
7
  6
CONTINUOUS
 10
158.3175403226
 20
597.0111895161
 11
158.3175403226
 21
641.7567034454
  0
LINE
  5
548
100
AcDbEntity
  8
7_ALL_FEATURES
100
AcDbLine
 62
7
  6
CONTINUOUS
 10
158.3175403226
 20
641.7567034454
 11
158.3175403226
 21
643.1111895161
  0
LINE
  5
549
100
AcDbEntity
  8
7_ALL_FEATURES
100
AcDbLine
 62
7
  6
CONTINUOUS
 10
158.4175403226
 20
584.6311895161
 11
158.4175403226
 21
584.0111895161
  0
LINE
  5
54A
100
AcDbEntity
  8
6_ALL_SURFS
100
AcDbLine
 62
7
  6
CONTINUOUS
 10
158.4675403226
 20
590.3425970823
 11
158.4675403226
 21
590.6111895161
  0
LINE
  5
54B
100
AcDbEntity
  8
6_ALL_SURFS
100
AcDbLine
 62
7
  6
CONTINUOUS
 10
158.6535452752
 20
585.1111895161
 11
158.6535452752
 21
583.8111895161
  0
LINE
  5
54C
100
AcDbEntity
  8
6_ALL_SURFS
100
AcDbLine
 62
7
  6
CONTINUOUS
 10
158.6535452752
 20
582.8111895161
 11
158.6535452752
 21
582.3111895161
  0
LINE
  5
54D
100
AcDbEntity
  8
7_ALL_FEATURES
100
AcDbLine
 62
9
  6
CONTINUOUS
 10
158.6948746072
 20
584.9894372303
 11
158.6948746072
 21
583.8111895161
  0
LINE
  5
54E
100
AcDbEntity
  8
7_ALL_FEATURES
100
AcDbLine
 62
9
  6
CONTINUOUS
 10
158.6948746072
 20
582.8111895161
 11
158.6948746072
 21
582.3111895161
  0
LINE
  5
54F
100
AcDbEntity
  8
7_ALL_FEATURES
100
AcDbLine
 62
9
  6
CONTINUOUS
 10
158.7675403226
 20
589.9027133266
 11
158.7675403226
 21
590.9111895161
  0
LINE
  5
550
100
AcDbEntity
  8
7_ALL_FEATURES
100
AcDbLine
 62
9
  6
CONTINUOUS
 10
159.4675403226
 20
18.8111895161
 11
159.4675403226
 21
582.3111895161
  0
LINE
  5
551
100
AcDbEntity
  8
7_ALL_FEATURES
100
AcDbLine
 62
9
  6
CONTINUOUS
 10
159.5175403226
 20
590.9111895161
 11
159.5175403226
 21
589.0984367941
  0
LINE
  5
552
100
AcDbEntity
  8
7_ALL_FEATURES
100
AcDbLine
 62
7
  6
CONTINUOUS
 10
159.6675403226
 20
583.6111895161
 11
159.6675403226
 21
583.0111895161
  0
LINE
  5
553
100
AcDbEntity
  8
7_ALL_FEATURES
100
AcDbLine
 62
7
  6
CONTINUOUS
 10
159.6675403226
 20
18.8111895161
 11
159.6675403226
 21
582.3111895161
  0
LINE
  5
554
100
AcDbEntity
  8
7_ALL_FEATURES
100
AcDbLine
 62
9
  6
CONTINUOUS
 10
159.7869464331
 20
585.4080562524
 11
159.7869464331
 21
586.6101153324
  0
LINE
  5
555
100
AcDbEntity
  8
7_ALL_FEATURES
100
AcDbLine
 62
9
  6
CONTINUOUS
 10
159.8055463247
 20
18.8111895161
 11
159.8055463247
 21
583.5419816672
  0
LINE
  5
556
100
AcDbEntity
  8
6_ALL_SURFS
100
AcDbLine
 62
7
  6
CONTINUOUS
 10
159.8675403226
 20
586.4055158244
 11
159.8675403226
 21
585.6111895161
  0
LINE
  5
557
100
AcDbEntity
  8
6_ALL_SURFS
100
AcDbLine
 62
7
  6
CONTINUOUS
 10
159.8675403226
 20
583.3593532385
 11
159.8675403226
 21
582.6962915329
  0
LINE
  5
558
100
AcDbEntity
  8
7_ALL_FEATURES
100
AcDbLine
 62
7
  6
CONTINUOUS
 10
159.8675403226
 20
582.6962915329
 11
159.8675403226
 21
580.9299393597
  0
LINE
  5
559
100
AcDbEntity
  8
6_ALL_SURFS
100
AcDbLine
 62
7
  6
CONTINUOUS
 10
159.8675403226
 20
580.9299393597
 11
159.8675403226
 21
568.1111895161
  0
LINE
  5
55A
100
AcDbEntity
  8
7_ALL_FEATURES
100
AcDbLine
 62
7
  6
CONTINUOUS
 10
159.8675403226
 20
568.1111895161
 11
159.8675403226
 21
18.8111895161
  0
LINE
  5
55B
100
AcDbEntity
  8
7_ALL_FEATURES
100
AcDbLine
 62
9
  6
CONTINUOUS
 10
160.0570140068
 20
582.4173938214
 11
160.0570140068
 21
581.2088370712
  0
LINE
  5
55C
100
AcDbEntity
  8
7_ALL_FEATURES
100
AcDbLine
 62
9
  6
CONTINUOUS
 10
160.1675403226
 20
567.8111895161
 11
160.1675403226
 21
18.8111895161
  0
LINE
  5
55D
100
AcDbEntity
  8
7_ALL_FEATURES
100
AcDbLine
 62
9
  6
CONTINUOUS
 10
160.8175403226
 20
567.8111895161
 11
160.8175403226
 21
18.8111895161
  0
LINE
  5
55E
100
AcDbEntity
  8
7_ALL_FEATURES
100
AcDbLine
 62
7
  6
CONTINUOUS
 10
161.1175403226
 20
568.1111895161
 11
161.1175403226
 21
18.8111895161
  0
LINE
  5
55F
100
AcDbEntity
  8
6_ALL_SURFS
100
AcDbLine
 62
7
  6
CONTINUOUS
 10
161.1175403226
 20
568.1111895161
 11
161.1175403226
 21
569.0111895161
  0
LINE
  5
560
100
AcDbEntity
  8
7_ALL_FEATURES
100
AcDbLine
 62
3
  6
CONTINUOUS
 10
161.3175403226
 20
595.5793475773
 11
161.3175403226
 21
643.1111895161
  0
LINE
  5
561
100
AcDbEntity
  8
6_ALL_SURFS
100
AcDbLine
 62
7
  6
CONTINUOUS
 10
161.3675403226
 20
570.6111895161
 11
161.3675403226
 21
579.8081216807
  0
LINE
  5
562
100
AcDbEntity
  8
6_ALL_SURFS
100
AcDbLine
 62
7
  6
CONTINUOUS
 10
161.3675403226
 20
583.8181092119
 11
161.3675403226
 21
586.5236889671
  0
LINE
  5
563
100
AcDbEntity
  8
7_ALL_FEATURES
100
AcDbLine
 62
9
  6
CONTINUOUS
 10
161.4175403226
 20
18.8111895161
 11
161.4175403226
 21
569.3111895161
  0
LINE
  5
564
100
AcDbEntity
  8
7_ALL_FEATURES
100
AcDbLine
 62
7
  6
CONTINUOUS
 10
161.5175403226
 20
592.9111895161
 11
161.5175403226
 21
583.166203089
  0
LINE
  5
565
100
AcDbEntity
  8
6_ALL_SURFS
100
AcDbLine
 62
7
  6
CONTINUOUS
 10
161.5175403226
 20
592.9111895161
 11
161.5175403226
 21
594.7111895161
  0
LINE
  5
566
100
AcDbEntity
  8
7_ALL_FEATURES
100
AcDbLine
 62
9
  6
CONTINUOUS
 10
161.614115665
 20
570.3111895161
 11
161.614115665
 21
580.6320917214
  0
LINE
  5
567
100
AcDbEntity
  8
7_ALL_FEATURES
100
AcDbLine
 62
7
  6
CONTINUOUS
 10
161.9675403226
 20
570.3111895161
 11
161.9675403226
 21
581.8131154463
  0
LINE
  5
568
100
AcDbEntity
  8
3_ALL_AXES
100
AcDbLine
 62
7
  6
CONTINUOUS
 10
163.3175403226
 20
598.2611895161
 11
163.3175403226
 21
606.9611895161
  0
LINE
  5
569
100
AcDbEntity
  8
3_ALL_AXES
100
AcDbLine
 62
7
  6
CONTINUOUS
 10
163.3175403226
 20
626.2611895161
 11
163.3175403226
 21
634.9611895161
  0
LINE
  5
56A
100
AcDbEntity
  8
7_ALL_FEATURES
100
AcDbLine
 62
7
  6
CONTINUOUS
 10
163.3675403226
 20
18.8111895161
 11
163.3675403226
 21
569.3111895161
  0
LINE
  5
56B
100
AcDbEntity
  8
7_ALL_FEATURES
100
AcDbLine
 62
7
  6
CONTINUOUS
 10
163.7175403226
 20
632.1111895161
 11
163.7175403226
 21
628.1111895161
  0
LINE
  5
56C
100
AcDbEntity
  8
7_ALL_FEATURES
100
AcDbLine
 62
7
  6
CONTINUOUS
 10
163.7175403226
 20
603.8111895161
 11
163.7175403226
 21
599.8111895161
  0
LINE
  5
56D
100
AcDbEntity
  8
7_ALL_FEATURES
100
AcDbLine
 62
7
  6
CONTINUOUS
 10
163.9675403226
 20
18.8111895161
 11
163.9675403226
 21
569.3111895161
  0
LINE
  5
56E
100
AcDbEntity
  8
7_ALL_FEATURES
100
AcDbLine
 62
7
  6
CONTINUOUS
 10
166.3675403226
 20
18.8111895161
 11
166.3675403226
 21
569.3111895161
  0
LINE
  5
56F
100
AcDbEntity
  8
7_ALL_FEATURES
100
AcDbLine
 62
7
  6
CONTINUOUS
 10
166.9675403226
 20
18.8111895161
 11
166.9675403226
 21
569.3111895161
  0
LINE
  5
570
100
AcDbEntity
  8
7_ALL_FEATURES
100
AcDbLine
 62
7
  6
CONTINUOUS
 10
169.3675403226
 20
18.8111895161
 11
169.3675403226
 21
569.3111895161
  0
LINE
  5
571
100
AcDbEntity
  8
7_ALL_FEATURES
100
AcDbLine
 62
7
  6
CONTINUOUS
 10
169.9675403226
 20
18.8111895161
 11
169.9675403226
 21
569.3111895161
  0
LINE
  5
572
100
AcDbEntity
  8
7_ALL_FEATURES
100
AcDbLine
 62
7
  6
CONTINUOUS
 10
172.3675403226
 20
18.8111895161
 11
172.3675403226
 21
47.0654230072
  0
LINE
  5
573
100
AcDbEntity
  8
7_ALL_FEATURES
100
AcDbLine
 62
7
  6
CONTINUOUS
 10
172.3675403226
 20
54.5569560251
 11
172.3675403226
 21
297.0654230072
  0
LINE
  5
574
100
AcDbEntity
  8
7_ALL_FEATURES
100
AcDbLine
 62
7
  6
CONTINUOUS
 10
172.3675403226
 20
304.5569560251
 11
172.3675403226
 21
547.0654230072
  0
LINE
  5
575
100
AcDbEntity
  8
7_ALL_FEATURES
100
AcDbLine
 62
7
  6
CONTINUOUS
 10
172.3675403226
 20
554.5569560251
 11
172.3675403226
 21
569.3111895161
  0
LINE
  5
576
100
AcDbEntity
  8
7_ALL_FEATURES
100
AcDbLine
 62
7
  6
CONTINUOUS
 10
172.9675403226
 20
18.8111895161
 11
172.9675403226
 21
46.655378315
  0
LINE
  5
577
100
AcDbEntity
  8
7_ALL_FEATURES
100
AcDbLine
 62
7
  6
CONTINUOUS
 10
172.9675403226
 20
54.9670007173
 11
172.9675403226
 21
296.655378315
  0
LINE
  5
578
100
AcDbEntity
  8
7_ALL_FEATURES
100
AcDbLine
 62
7
  6
CONTINUOUS
 10
172.9675403226
 20
304.9670007173
 11
172.9675403226
 21
546.655378315
  0
LINE
  5
579
100
AcDbEntity
  8
7_ALL_FEATURES
100
AcDbLine
 62
7
  6
CONTINUOUS
 10
172.9675403226
 20
554.9670007173
 11
172.9675403226
 21
569.3111895161
  0
LINE
  5
57A
100
AcDbEntity
  8
7_ALL_FEATURES
100
AcDbLine
 62
7
  6
CONTINUOUS
 10
175.3675403226
 20
18.8111895161
 11
175.3675403226
 21
46.0121514105
  0
LINE
  5
57B
100
AcDbEntity
  8
7_ALL_FEATURES
100
AcDbLine
 62
7
  6
CONTINUOUS
 10
175.3675403226
 20
55.6102276218
 11
175.3675403226
 21
296.0121514105
  0
LINE
  5
57C
100
AcDbEntity
  8
7_ALL_FEATURES
100
AcDbLine
 62
7
  6
CONTINUOUS
 10
175.3675403226
 20
305.6102276218
 11
175.3675403226
 21
546.0121514105
  0
LINE
  5
57D
100
AcDbEntity
  8
7_ALL_FEATURES
100
AcDbLine
 62
7
  6
CONTINUOUS
 10
175.3675403226
 20
555.6102276218
 11
175.3675403226
 21
569.3111895161
  0
LINE
  5
57E
100
AcDbEntity
  8
7_ALL_FEATURES
100
AcDbLine
 62
7
  6
CONTINUOUS
 10
175.9675403226
 20
18.8111895161
 11
175.9675403226
 21
46.0498066561
  0
LINE
  5
57F
100
AcDbEntity
  8
7_ALL_FEATURES
100
AcDbLine
 62
7
  6
CONTINUOUS
 10
175.9675403226
 20
55.5725723762
 11
175.9675403226
 21
296.0498066561
  0
LINE
  5
580
100
AcDbEntity
  8
7_ALL_FEATURES
100
AcDbLine
 62
7
  6
CONTINUOUS
 10
175.9675403226
 20
305.5725723762
 11
175.9675403226
 21
546.0498066561
  0
LINE
  5
581
100
AcDbEntity
  8
7_ALL_FEATURES
100
AcDbLine
 62
7
  6
CONTINUOUS
 10
175.9675403226
 20
555.5725723762
 11
175.9675403226
 21
569.3111895161
  0
LINE
  5
582
100
AcDbEntity
  8
7_ALL_FEATURES
100
AcDbLine
 62
7
  6
CONTINUOUS
 10
178.8675403226
 20
18.8111895161
 11
178.8675403226
 21
47.5277817224
  0
LINE
  5
583
100
AcDbEntity
  8
7_ALL_FEATURES
100
AcDbLine
 62
7
  6
CONTINUOUS
 10
178.8675403226
 20
54.0945973098
 11
178.8675403226
 21
297.5277817224
  0
LINE
  5
584
100
AcDbEntity
  8
7_ALL_FEATURES
100
AcDbLine
 62
7
  6
CONTINUOUS
 10
178.8675403226
 20
304.0945973098
 11
178.8675403226
 21
547.5277817224
  0
LINE
  5
585
100
AcDbEntity
  8
7_ALL_FEATURES
100
AcDbLine
 62
7
  6
CONTINUOUS
 10
178.8675403226
 20
554.0945973098
 11
178.8675403226
 21
569.3111895161
  0
LINE
  5
586
100
AcDbEntity
  8
7_ALL_FEATURES
100
AcDbLine
 62
9
  6
CONTINUOUS
 10
181.013011913
 20
569.5257366752
 11
181.013011913
 21
18.8111895161
  0
LINE
  5
587
100
AcDbEntity
  8
7_ALL_FEATURES
100
AcDbLine
 62
7
  6
CONTINUOUS
 10
181.3675403226
 20
569.9174861582
 11
181.3675403226
 21
18.8111895161
  0
LINE
  5
588
100
AcDbEntity
  8
6_ALL_SURFS
100
AcDbLine
 62
7
  6
CONTINUOUS
 10
153.891251478
 20
654.8776291301
 11
156.6707648674
 21
642.3400544486
  0
LINE
  5
589
100
AcDbEntity
  8
6_ALL_SURFS
100
AcDbLine
 62
7
  6
CONTINUOUS
 10
158.1990203582
 20
642.8389015151
 11
155.0937549409
 21
656.845848639
  0
LINE
  5
58A
100
AcDbEntity
  8
6_ALL_SURFS
100
AcDbLine
 62
7
  6
CONTINUOUS
 10
156.3021767366
 20
641.5965273686
 11
156.6572329434
 21
640.621018458
  0
LINE
  5
58B
100
AcDbEntity
  8
7_ALL_FEATURES
100
AcDbLine
 62
7
  6
CONTINUOUS
 10
126.5566220016
 20
662.4611895161
 11
127.5317286403
 21
660.772255275
  0
LINE
  5
58C
100
AcDbEntity
  8
7_ALL_FEATURES
100
AcDbLine
 62
7
  6
CONTINUOUS
 10
116.9175403226
 20
612.3111895161
 11
117.3175403226
 21
611.9111895161
  0
LINE
  5
58D
100
AcDbEntity
  8
6_ALL_SURFS
100
AcDbLine
 62
7
  6
CONTINUOUS
 10
159.8055463247
 20
583.5419816672
 11
158.6948746072
 21
584.9894372303
  0
LINE
  5
58E
100
AcDbEntity
  8
6_ALL_SURFS
100
AcDbLine
 62
7
  6
CONTINUOUS
 10
151.5317286403
 20
660.772255275
 11
150.5566220016
 21
662.4611895161
  0
LINE
  5
58F
100
AcDbEntity
  8
7_ALL_FEATURES
100
AcDbLine
 62
7
  6
CONTINUOUS
 10
101.9675403226
 20
570.4611895161
 11
102.2675403226
 21
570.3111895161
  0
LINE
  5
590
100
AcDbEntity
  8
7_ALL_FEATURES
100
AcDbLine
 62
7
  6
CONTINUOUS
 10
104.9675403226
 20
570.4611895161
 11
105.2675403226
 21
570.3111895161
  0
LINE
  5
591
100
AcDbEntity
  8
7_ALL_FEATURES
100
AcDbLine
 62
7
  6
CONTINUOUS
 10
107.9675403226
 20
570.4611895161
 11
108.2675403226
 21
570.3111895161
  0
LINE
  5
592
100
AcDbEntity
  8
7_ALL_FEATURES
100
AcDbLine
 62
7
  6
CONTINUOUS
 10
110.9675403226
 20
570.4611895161
 11
111.2675403226
 21
570.3111895161
  0
LINE
  5
593
100
AcDbEntity
  8
7_ALL_FEATURES
100
AcDbLine
 62
7
  6
CONTINUOUS
 10
113.9675403226
 20
570.4611895161
 11
114.2675403226
 21
570.3111895161
  0
LINE
  5
594
100
AcDbEntity
  8
7_ALL_FEATURES
100
AcDbLine
 62
7
  6
CONTINUOUS
 10
116.9675403226
 20
570.4611895161
 11
117.2675403226
 21
570.3111895161
  0
LINE
  5
595
100
AcDbEntity
  8
3_ALL_AXES
100
AcDbLine
 62
7
  6
CONTINUOUS
 10
124.6175403226
 20
609.3111895161
 11
123.9175403226
 21
610.0111895161
  0
LINE
  5
596
100
AcDbEntity
  8
7_ALL_FEATURES
100
AcDbLine
 62
7
  6
CONTINUOUS
 10
116.9175403226
 20
628.1111895161
 11
117.3175403226
 21
627.7111895161
  0
LINE
  5
597
100
AcDbEntity
  8
3_ALL_AXES
100
AcDbLine
 62
7
  6
CONTINUOUS
 10
124.6175403226
 20
625.1111895161
 11
123.9175403226
 21
625.8111895161
  0
LINE
  5
598
100
AcDbEntity
  8
7_ALL_FEATURES
100
AcDbLine
 62
7
  6
CONTINUOUS
 10
158.4786382656
 20
586.4475891882
 11
158.1142104524
 21
586.8383901721
  0
LINE
  5
599
100
AcDbEntity
  8
7_ALL_FEATURES
100
AcDbLine
 62
7
  6
CONTINUOUS
 10
158.6992934137
 20
587.3839888602
 11
159.0637212269
 21
586.9931878762
  0
LINE
  5
59A
100
AcDbEntity
  8
6_ALL_SURFS
100
AcDbLine
 62
7
  6
CONTINUOUS
 10
158.0565027206
 20
588.4657890241
 11
159.7869464331
 21
586.6101153324
  0
LINE
  5
59B
100
AcDbEntity
  8
6_ALL_SURFS
100
AcDbLine
 62
7
  6
CONTINUOUS
 10
160.964570875
 20
587.5466865072
 11
158.5481342121
 21
590.1379975742
  0
LINE
  5
59C
100
AcDbEntity
  8
6_ALL_SURFS
100
AcDbLine
 62
7
  6
CONTINUOUS
 10
163.9675403226
 20
570.3111895161
 11
163.6675403226
 21
570.4611895161
  0
LINE
  5
59D
100
AcDbEntity
  8
6_ALL_SURFS
100
AcDbLine
 62
7
  6
CONTINUOUS
 10
166.9675403226
 20
570.3111895161
 11
166.6675403226
 21
570.4611895161
  0
LINE
  5
59E
100
AcDbEntity
  8
6_ALL_SURFS
100
AcDbLine
 62
7
  6
CONTINUOUS
 10
169.9675403226
 20
570.3111895161
 11
169.6675403226
 21
570.4611895161
  0
LINE
  5
59F
100
AcDbEntity
  8
7_ALL_FEATURES
100
AcDbLine
 62
7
  6
CONTINUOUS
 10
123.3786060815
 20
593.0253778339
 11
123.7675403226
 21
592.800826545
  0
LINE
  5
5A0
100
AcDbEntity
  8
3_ALL_AXES
100
AcDbLine
 62
7
  6
CONTINUOUS
 10
156.0175403226
 20
606.8111895161
 11
156.7175403226
 21
606.1111895161
  0
LINE
  5
5A1
100
AcDbEntity
  8
7_ALL_FEATURES
100
AcDbLine
 62
7
  6
CONTINUOUS
 10
163.7175403226
 20
603.8111895161
 11
163.3175403226
 21
604.2111895161
  0
LINE
  5
5A2
100
AcDbEntity
  8
6_ALL_SURFS
100
AcDbLine
 62
7
  6
CONTINUOUS
 10
178.8675403226
 20
569.3111895161
 11
181.013011913
 21
569.5257366752
  0
LINE
  5
5A3
100
AcDbEntity
  8
7_ALL_FEATURES
100
AcDbLine
 62
7
  6
CONTINUOUS
 10
120.4675403226
 20
567.8111895161
 11
119.8175403226
 21
567.8111895161
  0
LINE
  5
5A4
100
AcDbEntity
  8
6_ALL_SURFS
100
AcDbLine
 62
7
  6
CONTINUOUS
 10
160.1675403226
 20
567.8111895161
 11
160.8175403226
 21
567.8111895161
  0
LINE
  5
5A5
100
AcDbEntity
  8
7_ALL_FEATURES
100
AcDbLine
 62
7
  6
CONTINUOUS
 10
119.2175403226
 20
569.3111895161
 11
117.2675403226
 21
569.3111895161
  0
LINE
  5
5A6
100
AcDbEntity
  8
7_ALL_FEATURES
100
AcDbLine
 62
7
  6
CONTINUOUS
 10
116.6675403226
 20
569.3111895161
 11
114.2675403226
 21
569.3111895161
  0
LINE
  5
5A7
100
AcDbEntity
  8
7_ALL_FEATURES
100
AcDbLine
 62
7
  6
CONTINUOUS
 10
113.6675403226
 20
569.3111895161
 11
111.2675403226
 21
569.3111895161
  0
LINE
  5
5A8
100
AcDbEntity
  8
7_ALL_FEATURES
100
AcDbLine
 62
7
  6
CONTINUOUS
 10
110.6675403226
 20
569.3111895161
 11
108.2675403226
 21
569.3111895161
  0
LINE
  5
5A9
100
AcDbEntity
  8
7_ALL_FEATURES
100
AcDbLine
 62
7
  6
CONTINUOUS
 10
107.6675403226
 20
569.3111895161
 11
105.2675403226
 21
569.3111895161
  0
LINE
  5
5AA
100
AcDbEntity
  8
7_ALL_FEATURES
100
AcDbLine
 62
7
  6
CONTINUOUS
 10
104.6675403226
 20
569.3111895161
 11
101.7675403226
 21
569.3111895161
  0
LINE
  5
5AB
100
AcDbEntity
  8
6_ALL_SURFS
100
AcDbLine
 62
7
  6
CONTINUOUS
 10
161.4175403226
 20
569.3111895161
 11
163.3675403226
 21
569.3111895161
  0
LINE
  5
5AC
100
AcDbEntity
  8
6_ALL_SURFS
100
AcDbLine
 62
7
  6
CONTINUOUS
 10
163.9675403226
 20
569.3111895161
 11
166.3675403226
 21
569.3111895161
  0
LINE
  5
5AD
100
AcDbEntity
  8
6_ALL_SURFS
100
AcDbLine
 62
7
  6
CONTINUOUS
 10
166.9675403226
 20
569.3111895161
 11
169.3675403226
 21
569.3111895161
  0
LINE
  5
5AE
100
AcDbEntity
  8
6_ALL_SURFS
100
AcDbLine
 62
7
  6
CONTINUOUS
 10
169.9675403226
 20
569.3111895161
 11
172.3675403226
 21
569.3111895161
  0
LINE
  5
5AF
100
AcDbEntity
  8
6_ALL_SURFS
100
AcDbLine
 62
7
  6
CONTINUOUS
 10
172.9675403226
 20
569.3111895161
 11
175.3675403226
 21
569.3111895161
  0
LINE
  5
5B0
100
AcDbEntity
  8
6_ALL_SURFS
100
AcDbLine
 62
7
  6
CONTINUOUS
 10
175.9675403226
 20
569.3111895161
 11
178.8675403226
 21
569.3111895161
  0
LINE
  5
5B1
100
AcDbEntity
  8
6_ALL_SURFS
100
AcDbLine
 62
7
  6
CONTINUOUS
 10
180.9738369647
 20
570.3111895161
 11
178.9675403226
 21
570.3111895161
  0
LINE
  5
5B2
100
AcDbEntity
  8
6_ALL_SURFS
100
AcDbLine
 62
7
  6
CONTINUOUS
 10
178.3675403226
 20
570.3111895161
 11
175.9675403226
 21
570.3111895161
  0
LINE
  5
5B3
100
AcDbEntity
  8
6_ALL_SURFS
100
AcDbLine
 62
7
  6
CONTINUOUS
 10
175.3675403226
 20
570.3111895161
 11
172.9675403226
 21
570.3111895161
  0
LINE
  5
5B4
100
AcDbEntity
  8
6_ALL_SURFS
100
AcDbLine
 62
7
  6
CONTINUOUS
 10
172.3675403226
 20
570.3111895161
 11
169.9675403226
 21
570.3111895161
  0
LINE
  5
5B5
100
AcDbEntity
  8
6_ALL_SURFS
100
AcDbLine
 62
7
  6
CONTINUOUS
 10
169.3675403226
 20
570.3111895161
 11
166.9675403226
 21
570.3111895161
  0
LINE
  5
5B6
100
AcDbEntity
  8
6_ALL_SURFS
100
AcDbLine
 62
7
  6
CONTINUOUS
 10
166.3675403226
 20
570.3111895161
 11
163.9675403226
 21
570.3111895161
  0
LINE
  5
5B7
100
AcDbEntity
  8
6_ALL_SURFS
100
AcDbLine
 62
7
  6
CONTINUOUS
 10
163.3675403226
 20
570.3111895161
 11
161.6675403226
 21
570.3111895161
  0
LINE
  5
5B8
100
AcDbEntity
  8
7_ALL_FEATURES
100
AcDbLine
 62
7
  6
CONTINUOUS
 10
99.6612436805
 20
570.3111895161
 11
101.6675403226
 21
570.3111895161
  0
LINE
  5
5B9
100
AcDbEntity
  8
7_ALL_FEATURES
100
AcDbLine
 62
7
  6
CONTINUOUS
 10
102.2675403226
 20
570.3111895161
 11
104.6675403226
 21
570.3111895161
  0
LINE
  5
5BA
100
AcDbEntity
  8
7_ALL_FEATURES
100
AcDbLine
 62
7
  6
CONTINUOUS
 10
105.2675403226
 20
570.3111895161
 11
107.6675403226
 21
570.3111895161
  0
LINE
  5
5BB
100
AcDbEntity
  8
7_ALL_FEATURES
100
AcDbLine
 62
7
  6
CONTINUOUS
 10
108.2675403226
 20
570.3111895161
 11
110.6675403226
 21
570.3111895161
  0
LINE
  5
5BC
100
AcDbEntity
  8
7_ALL_FEATURES
100
AcDbLine
 62
7
  6
CONTINUOUS
 10
111.2675403226
 20
570.3111895161
 11
113.6675403226
 21
570.3111895161
  0
LINE
  5
5BD
100
AcDbEntity
  8
7_ALL_FEATURES
100
AcDbLine
 62
7
  6
CONTINUOUS
 10
114.2675403226
 20
570.3111895161
 11
116.6675403226
 21
570.3111895161
  0
LINE
  5
5BE
100
AcDbEntity
  8
7_ALL_FEATURES
100
AcDbLine
 62
7
  6
CONTINUOUS
 10
117.2675403226
 20
570.3111895161
 11
118.9675403226
 21
570.3111895161
  0
LINE
  5
5BF
100
AcDbEntity
  8
7_ALL_FEATURES
100
AcDbLine
 62
7
  6
CONTINUOUS
 10
101.7675403226
 20
569.3111895161
 11
99.6220687322
 21
569.5257366752
  0
LINE
  5
5C0
100
AcDbEntity
  8
6_ALL_SURFS
100
AcDbLine
 62
7
  6
CONTINUOUS
 10
172.9675403226
 20
570.3111895161
 11
172.6675403226
 21
570.4611895161
  0
LINE
  5
5C1
100
AcDbEntity
  8
6_ALL_SURFS
100
AcDbLine
 62
7
  6
CONTINUOUS
 10
175.9675403226
 20
570.3111895161
 11
175.6675403226
 21
570.4611895161
  0
LINE
  5
5C2
100
AcDbEntity
  8
6_ALL_SURFS
100
AcDbLine
 62
7
  6
CONTINUOUS
 10
178.9675403226
 20
570.3111895161
 11
178.6675403226
 21
570.4611895161
  0
LINE
  5
5C3
100
AcDbEntity
  8
6_ALL_SURFS
100
AcDbLine
 62
7
  6
CONTINUOUS
 10
156.8675403226
 20
594.8215524872
 11
157.2564745637
 21
594.5970011984
  0
LINE
  5
5C4
100
AcDbEntity
  8
3_ALL_AXES
100
AcDbLine
 62
7
  6
CONTINUOUS
 10
156.0175403226
 20
635.1111895161
 11
156.7175403226
 21
634.4111895161
  0
LINE
  5
5C5
100
AcDbEntity
  8
7_ALL_FEATURES
100
AcDbLine
 62
7
  6
CONTINUOUS
 10
163.7175403226
 20
632.1111895161
 11
163.3175403226
 21
632.5111895161
  0
LINE
  5
5C6
100
AcDbEntity
  8
7_ALL_FEATURES
100
AcDbLine
 62
7
  6
CONTINUOUS
 10
141.8175403226
 20
660.6611895161
 11
142.0175403226
 21
660.4611895161
  0
LINE
  5
5C7
100
AcDbEntity
  8
7_ALL_FEATURES
100
AcDbLine
 62
7
  6
CONTINUOUS
 10
120.9675403226
 20
582.3111895161
 11
159.6675403226
 21
582.3111895161
  0
LINE
  5
5C8
100
AcDbEntity
  8
7_ALL_FEATURES
100
AcDbLine
 62
7
  6
CONTINUOUS
 10
159.4675403226
 20
582.8111895161
 11
121.1675403226
 21
582.8111895161
  0
LINE
  5
5C9
100
AcDbEntity
  8
7_ALL_FEATURES
100
AcDbLine
 62
7
  6
CONTINUOUS
 10
121.1675403226
 20
583.8111895161
 11
122.0175403226
 21
583.8111895161
  0
LINE
  5
5CA
100
AcDbEntity
  8
7_ALL_FEATURES
100
AcDbLine
 62
7
  6
CONTINUOUS
 10
158.6175403226
 20
583.8111895161
 11
159.4675403226
 21
583.8111895161
  0
LINE
  5
5CB
100
AcDbEntity
  8
7_ALL_FEATURES
100
AcDbLine
 62
7
  6
CONTINUOUS
 10
123.2175403226
 20
583.9111895161
 11
157.4175403226
 21
583.9111895161
  0
LINE
  5
5CC
100
AcDbEntity
  8
7_ALL_FEATURES
100
AcDbLine
 62
7
  6
CONTINUOUS
 10
121.7815353699
 20
585.3111895161
 11
121.0675403226
 21
585.3111895161
  0
LINE
  5
5CD
100
AcDbEntity
  8
6_ALL_SURFS
100
AcDbLine
 62
7
  6
CONTINUOUS
 10
158.8535452752
 20
585.3111895161
 11
159.5675403226
 21
585.3111895161
  0
LINE
  5
5CE
100
AcDbEntity
  8
7_ALL_FEATURES
100
AcDbLine
 62
7
  6
CONTINUOUS
 10
123.6175403226
 20
588.5611895161
 11
122.7979840351
 21
588.5611895161
  0
LINE
  5
5CF
100
AcDbEntity
  8
6_ALL_SURFS
100
AcDbLine
 62
7
  6
CONTINUOUS
 10
157.0175403226
 20
588.5611895161
 11
157.8370966101
 21
588.5611895161
  0
LINE
  5
5D0
100
AcDbEntity
  8
7_ALL_FEATURES
100
AcDbLine
 62
7
  6
CONTINUOUS
 10
121.8675403226
 20
590.9111895161
 11
121.1175403226
 21
590.9111895161
  0
LINE
  5
5D1
100
AcDbEntity
  8
6_ALL_SURFS
100
AcDbLine
 62
7
  6
CONTINUOUS
 10
158.7675403226
 20
590.9111895161
 11
159.5175403226
 21
590.9111895161
  0
LINE
  5
5D2
100
AcDbEntity
  8
6_ALL_SURFS
100
AcDbLine
 62
7
  6
CONTINUOUS
 10
159.5175403226
 20
596.7111895161
 11
158.6175403226
 21
596.7111895161
  0
LINE
  5
5D3
100
AcDbEntity
  8
7_ALL_FEATURES
100
AcDbLine
 62
7
  6
CONTINUOUS
 10
121.1175403226
 20
596.7111895161
 11
122.0175403226
 21
596.7111895161
  0
LINE
  5
5D4
100
AcDbEntity
  8
3_ALL_AXES
100
AcDbLine
 62
7
  6
CONTINUOUS
 10
155.7175403226
 20
596.8111895161
 11
156.0175403226
 21
596.8111895161
  0
LINE
  5
5D5
100
AcDbEntity
  8
3_ALL_AXES
100
AcDbLine
 62
7
  6
CONTINUOUS
 10
163.3175403226
 20
598.2611895161
 11
161.3175403226
 21
598.2611895161
  0
LINE
  5
5D6
100
AcDbEntity
  8
7_ALL_FEATURES
100
AcDbLine
 62
7
  6
CONTINUOUS
 10
124.1028558533
 20
642.0178746867
 11
124.2053448489
 21
641.9563812893
  0
LINE
  5
5D7
100
AcDbEntity
  8
3_ALL_AXES
100
AcDbLine
 62
7
  6
CONTINUOUS
 10
155.7175403226
 20
606.8111895161
 11
156.0175403226
 21
606.8111895161
  0
LINE
  5
5D8
100
AcDbEntity
  8
3_ALL_AXES
100
AcDbLine
 62
7
  6
CONTINUOUS
 10
163.3175403226
 20
606.9611895161
 11
161.3175403226
 21
606.9611895161
  0
LINE
  5
5D9
100
AcDbEntity
  8
3_ALL_AXES
100
AcDbLine
 62
7
  6
CONTINUOUS
 10
124.9175403226
 20
609.3111895161
 11
124.6175403226
 21
609.3111895161
  0
LINE
  5
5DA
100
AcDbEntity
  8
3_ALL_AXES
100
AcDbLine
 62
7
  6
CONTINUOUS
 10
117.3175403226
 20
610.2611895161
 11
119.3175403226
 21
610.2611895161
  0
LINE
  5
5DB
100
AcDbEntity
  8
7_ALL_FEATURES
100
AcDbLine
 62
7
  6
CONTINUOUS
 10
119.3175403226
 20
617.6111895161
 11
122.3175403226
 21
617.6111895161
  0
LINE
  5
5DC
100
AcDbEntity
  8
7_ALL_FEATURES
100
AcDbLine
 62
7
  6
CONTINUOUS
 10
161.3175403226
 20
618.1111895161
 11
158.3175403226
 21
618.1111895161
  0
LINE
  5
5DD
100
AcDbEntity
  8
3_ALL_AXES
100
AcDbLine
 62
7
  6
CONTINUOUS
 10
117.3175403226
 20
618.9611895161
 11
119.3175403226
 21
618.9611895161
  0
LINE
  5
5DE
100
AcDbEntity
  8
3_ALL_AXES
100
AcDbLine
 62
7
  6
CONTINUOUS
 10
124.9175403226
 20
619.3111895161
 11
124.6175403226
 21
619.3111895161
  0
LINE
  5
5DF
100
AcDbEntity
  8
3_ALL_AXES
100
AcDbLine
 62
7
  6
CONTINUOUS
 10
124.9175403226
 20
625.1111895161
 11
124.6175403226
 21
625.1111895161
  0
LINE
  5
5E0
100
AcDbEntity
  8
3_ALL_AXES
100
AcDbLine
 62
7
  6
CONTINUOUS
 10
155.7175403226
 20
625.1111895161
 11
156.0175403226
 21
625.1111895161
  0
LINE
  5
5E1
100
AcDbEntity
  8
3_ALL_AXES
100
AcDbLine
 62
7
  6
CONTINUOUS
 10
117.3175403226
 20
625.7611895161
 11
119.3175403226
 21
625.7611895161
  0
LINE
  5
5E2
100
AcDbEntity
  8
3_ALL_AXES
100
AcDbLine
 62
7
  6
CONTINUOUS
 10
163.3175403226
 20
626.2611895161
 11
161.3175403226
 21
626.2611895161
  0
LINE
  5
5E3
100
AcDbEntity
  8
3_ALL_AXES
100
AcDbLine
 62
7
  6
CONTINUOUS
 10
117.3175403226
 20
634.4611895161
 11
119.3175403226
 21
634.4611895161
  0
LINE
  5
5E4
100
AcDbEntity
  8
3_ALL_AXES
100
AcDbLine
 62
7
  6
CONTINUOUS
 10
163.3175403226
 20
634.9611895161
 11
161.3175403226
 21
634.9611895161
  0
LINE
  5
5E5
100
AcDbEntity
  8
3_ALL_AXES
100
AcDbLine
 62
7
  6
CONTINUOUS
 10
124.9175403226
 20
635.1111895161
 11
124.6175403226
 21
635.1111895161
  0
LINE
  5
5E6
100
AcDbEntity
  8
3_ALL_AXES
100
AcDbLine
 62
7
  6
CONTINUOUS
 10
155.7175403226
 20
635.1111895161
 11
156.0175403226
 21
635.1111895161
  0
LINE
  5
5E7
100
AcDbEntity
  8
7_ALL_FEATURES
100
AcDbLine
 62
7
  6
CONTINUOUS
 10
119.3175403226
 20
642.6111895161
 11
122.3175403226
 21
642.6111895161
  0
LINE
  5
5E8
100
AcDbEntity
  8
7_ALL_FEATURES
100
AcDbLine
 62
7
  6
CONTINUOUS
 10
161.3175403226
 20
643.1111895161
 11
158.3175403226
 21
643.1111895161
  0
LINE
  5
5E9
100
AcDbEntity
  8
7_ALL_FEATURES
100
AcDbLine
 62
7
  6
CONTINUOUS
 10
144.3175403226
 20
652.6329862859
 11
136.3175403226
 21
652.6329862859
  0
LINE
  5
5EA
100
AcDbEntity
  8
7_ALL_FEATURES
100
AcDbLine
 62
7
  6
CONTINUOUS
 10
147.8175403226
 20
654.6611895161
 11
132.8175403226
 21
654.6611895161
  0
LINE
  5
5EB
100
AcDbEntity
  8
7_ALL_FEATURES
100
AcDbLine
 62
7
  6
CONTINUOUS
 10
127.7201251743
 20
655.6611895161
 11
142.3175403226
 21
655.6611895161
  0
LINE
  5
5EC
100
AcDbEntity
  8
6_ALL_SURFS
100
AcDbLine
 62
7
  6
CONTINUOUS
 10
142.3175403226
 20
655.6611895161
 11
152.9149554709
 21
655.6611895161
  0
LINE
  5
5ED
100
AcDbEntity
  8
6_ALL_SURFS
100
AcDbLine
 62
7
  6
CONTINUOUS
 10
149.4596564901
 20
657.2611895161
 11
144.2175403226
 21
657.2611895161
  0
LINE
  5
5EE
100
AcDbEntity
  8
7_ALL_FEATURES
100
AcDbLine
 62
7
  6
CONTINUOUS
 10
131.1754241551
 20
657.2611895161
 11
136.4175403226
 21
657.2611895161
  0
LINE
  5
5EF
100
AcDbEntity
  8
7_ALL_FEATURES
100
AcDbLine
 62
7
  6
CONTINUOUS
 10
138.6175403226
 20
660.1611895161
 11
142.0175403226
 21
660.1611895161
  0
LINE
  5
5F0
100
AcDbEntity
  8
7_ALL_FEATURES
100
AcDbLine
 62
7
  6
CONTINUOUS
 10
138.8175403226
 20
660.6611895161
 11
141.8175403226
 21
660.6611895161
  0
LINE
  5
5F1
100
AcDbEntity
  8
7_ALL_FEATURES
100
AcDbLine
 62
7
  6
CONTINUOUS
 10
141.7175403226
 20
661.0111895161
 11
138.9175403226
 21
661.0111895161
  0
LINE
  5
5F2
100
AcDbEntity
  8
7_ALL_FEATURES
100
AcDbLine
 62
7
  6
CONTINUOUS
 10
125.5516769854
 20
661.1111895161
 11
124.8175403226
 21
661.1111895161
  0
LINE
  5
5F3
100
AcDbEntity
  8
6_ALL_SURFS
100
AcDbLine
 62
7
  6
CONTINUOUS
 10
155.0834036598
 20
661.1111895161
 11
155.8175403226
 21
661.1111895161
  0
LINE
  5
5F4
100
AcDbEntity
  8
6_ALL_SURFS
100
AcDbLine
 62
7
  6
CONTINUOUS
 10
156.0175403226
 20
662.6111895161
 11
154.3382662647
 21
662.6111895161
  0
LINE
  5
5F5
100
AcDbEntity
  8
6_ALL_SURFS
100
AcDbLine
 62
7
  6
CONTINUOUS
 10
150.2968143804
 20
662.6111895161
 11
149.8175403226
 21
662.6111895161
  0
LINE
  5
5F6
100
AcDbEntity
  8
7_ALL_FEATURES
100
AcDbLine
 62
7
  6
CONTINUOUS
 10
124.6175403226
 20
662.6111895161
 11
126.2968143804
 21
662.6111895161
  0
LINE
  5
5F7
100
AcDbEntity
  8
7_ALL_FEATURES
100
AcDbLine
 62
7
  6
CONTINUOUS
 10
130.3382662647
 20
662.6111895161
 11
130.8175403226
 21
662.6111895161
  0
LINE
  5
5F8
100
AcDbEntity
  8
7_ALL_FEATURES
100
AcDbLine
 62
7
  6
CONTINUOUS
 10
138.5175403226
 20
662.6111895161
 11
142.1175403226
 21
662.6111895161
  0
CIRCLE
  5
5F9
100
AcDbEntity
  8
3_ALL_AXES
100
AcDbCircle
 62
7
  6
CONTINUOUS
 10
367.19375
 20
630.1111895161
 40
4.35
  0
CIRCLE
  5
5FA
100
AcDbEntity
  8
3_ALL_AXES
100
AcDbCircle
 62
7
  6
CONTINUOUS
 10
339.19375
 20
614.6111895161
 40
4.35
  0
ARC
  5
5FB
100
AcDbEntity
  8
0
100
AcDbCircle
 62
2
  6
CONTINUOUS
 10
367.19375
 20
630.1111895161
 40
2.5
100
AcDbArc
 50
180.0
 51
195.0
  0
ARC
  5
5FC
100
AcDbEntity
  8
0
100
AcDbCircle
 62
2
  6
CONTINUOUS
 10
339.19375
 20
614.6111895161
 40
2.5
100
AcDbArc
 50
0.0
 51
195.0
  0
ARC
  5
5FD
100
AcDbEntity
  8
7_ALL_FEATURES
100
AcDbCircle
 62
7
  6
CONTINUOUS
 10
367.99375
 20
630.1111895161
 40
2.5
100
AcDbArc
 50
90.0
 51
231.9510692932
  0
CIRCLE
  5
5FE
100
AcDbEntity
  8
3_ALL_AXES
100
AcDbCircle
 62
3
  6
CONTINUOUS
 10
354.69375
 20
630.1111895161
 40
2.5
  0
CIRCLE
  5
5FF
100
AcDbEntity
  8
3_ALL_AXES
100
AcDbCircle
 62
3
  6
CONTINUOUS
 10
339.19375
 20
602.1111895161
 40
2.5
  0
ARC
  5
600
100
AcDbEntity
  8
7_ALL_FEATURES
100
AcDbCircle
 62
7
  6
CONTINUOUS
 10
367.19375
 20
630.1111895161
 40
2.1
100
AcDbArc
 50
180.0
 51
360.0
  0
CIRCLE
  5
601
100
AcDbEntity
  8
7_ALL_FEATURES
100
AcDbCircle
 62
7
  6
CONTINUOUS
 10
339.69375
 20
614.3111895161
 40
2.0
  0
CIRCLE
  5
602
100
AcDbEntity
  8
7_ALL_FEATURES
100
AcDbCircle
 62
7
  6
CONTINUOUS
 10
367.99375
 20
630.1111895161
 40
2.0
  0
ARC
  5
603
100
AcDbEntity
  8
7_ALL_FEATURES
100
AcDbCircle
 62
7
  6
CONTINUOUS
 10
328.0482360707
 20
743.9521169355
 40
5.0
100
AcDbArc
 50
257.5
 51
270.0
  0
ARC
  5
604
100
AcDbEntity
  8
7_ALL_FEATURES
100
AcDbCircle
 62
7
  6
CONTINUOUS
 10
311.8768928075
 20
737.2944222816
 40
5.0
100
AcDbArc
 50
77.5
 51
100.9613346964
  0
ARC
  5
605
100
AcDbEntity
  8
7_ALL_FEATURES
100
AcDbCircle
 62
7
  6
CONTINUOUS
 10
310.39375
 20
744.9521169355
 40
2.8
100
AcDbArc
 50
243.152786674
 51
280.9613346964
  0
ARC
  5
606
100
AcDbEntity
  8
7_ALL_FEATURES
100
AcDbCircle
 62
7
  6
CONTINUOUS
 10
310.39375
 20
744.9521169355
 40
2.8
100
AcDbArc
 50
60.0
 51
90.0
  0
ARC
  5
607
100
AcDbEntity
  8
7_ALL_FEATURES
100
AcDbCircle
 62
7
  6
CONTINUOUS
 10
308.99375
 20
755.1521169355
 40
1.8
100
AcDbArc
 50
180.0
 51
270.0
  0
ARC
  5
608
100
AcDbEntity
  8
7_ALL_FEATURES
100
AcDbCircle
 62
7
  6
CONTINUOUS
 10
310.39375
 20
744.9521169355
 40
1.3
100
AcDbArc
 50
220.8069228749
 51
139.1930771251
  0
ARC
  5
609
100
AcDbEntity
  8
7_ALL_FEATURES
100
AcDbCircle
 62
7
  6
CONTINUOUS
 10
315.14375
 20
744.3547017872
 40
1.0
100
AcDbArc
 50
180.0
 51
257.5
  0
ARC
  5
60A
100
AcDbEntity
  8
7_ALL_FEATURES
100
AcDbCircle
 62
7
  6
CONTINUOUS
 10
329.5259412014
 20
741.5521169355
 40
1.0
100
AcDbArc
 50
250.0
 51
270.0
  0
ARC
  5
60B
100
AcDbEntity
  8
7_ALL_FEATURES
100
AcDbCircle
 62
7
  6
CONTINUOUS
 10
308.19375
 20
741.4521169355
 40
0.5
100
AcDbArc
 50
270.0
 51
360.0
  0
ARC
  5
60C
100
AcDbEntity
  8
7_ALL_FEATURES
100
AcDbCircle
 62
7
  6
CONTINUOUS
 10
312.04375
 20
747.810000768
 40
0.5
100
AcDbArc
 50
240.0
 51
360.0
  0
ARC
  5
60D
100
AcDbEntity
  8
7_ALL_FEATURES
100
AcDbCircle
 62
7
  6
CONTINUOUS
 10
313.84375
 20
754.9521169355
 40
0.3
100
AcDbArc
 50
0.0
 51
90.0
  0
ARC
  5
60E
100
AcDbEntity
  8
7_ALL_FEATURES
100
AcDbCircle
 62
7
  6
CONTINUOUS
 10
328.1058061045
 20
740.6855727352
 40
0.3
100
AcDbArc
 50
70.0
 51
149.0362434679
  0
ARC
  5
60F
100
AcDbEntity
  8
7_ALL_FEATURES
100
AcDbCircle
 62
7
  6
CONTINUOUS
 10
307.49375
 20
741.2521169355
 40
0.3
100
AcDbArc
 50
180.0
 51
270.0
  0
ARC
  5
610
100
AcDbEntity
  8
7_ALL_FEATURES
100
AcDbCircle
 62
7
  6
CONTINUOUS
 10
307.49375
 20
742.9313909933
 40
0.3
100
AcDbArc
 50
120.0
 51
180.0
  0
ARC
  5
611
100
AcDbEntity
  8
7_ALL_FEATURES
100
AcDbCircle
 62
7
  6
CONTINUOUS
 10
309.1826842411
 20
743.9064976321
 40
0.3
100
AcDbArc
 50
40.8069228749
 51
120.0
  0
ARC
  5
612
100
AcDbEntity
  8
7_ALL_FEATURES
100
AcDbCircle
 62
7
  6
CONTINUOUS
 10
309.1826842411
 20
745.9977362389
 40
0.3
100
AcDbArc
 50
240.0
 51
319.1930771251
  0
ARC
  5
613
100
AcDbEntity
  8
7_ALL_FEATURES
100
AcDbCircle
 62
7
  6
CONTINUOUS
 10
307.49375
 20
746.9728428776
 40
0.3
100
AcDbArc
 50
180.0
 51
240.0
  0
ARC
  5
614
100
AcDbEntity
  8
7_ALL_FEATURES
100
AcDbCircle
 62
7
  6
CONTINUOUS
 10
307.49375
 20
747.4521169355
 40
0.3
100
AcDbArc
 50
90.0
 51
180.0
  0
ARC
  5
615
100
AcDbEntity
  8
7_ALL_FEATURES
100
AcDbCircle
 62
7
  6
CONTINUOUS
 10
308.99375
 20
742.1862535983
 40
0.3
100
AcDbArc
 50
63.152786674
 51
180.0
  0
ARC
  5
616
100
AcDbEntity
  8
7_ALL_FEATURES
100
AcDbCircle
 62
7
  6
CONTINUOUS
 10
312.24375
 20
753.0521169355
 40
0.3
100
AcDbArc
 50
0.0
 51
90.0
  0
ARC
  5
617
100
AcDbEntity
  8
7_ALL_FEATURES
100
AcDbCircle
 62
7
  6
CONTINUOUS
 10
309.09375
 20
755.5521169355
 40
0.3
100
AcDbArc
 50
180.0
 51
270.0
  0
ARC
  5
618
100
AcDbEntity
  8
7_ALL_FEATURES
100
AcDbCircle
 62
7
  6
CONTINUOUS
 10
327.5298169517
 20
740.8917811928
 40
0.3
100
AcDbArc
 50
257.5
 51
329.0362434679
  0
ARC
  5
619
100
AcDbEntity
  8
6_ALL_SURFS
100
AcDbCircle
 62
7
  6
CONTINUOUS
 10
418.99375
 20
721.9021169355
 40
4.7990381057
100
AcDbArc
 50
313.171184019
 51
352.8177973595
  0
ARC
  5
61A
100
AcDbEntity
  8
6_ALL_SURFS
100
AcDbCircle
 62
7
  6
CONTINUOUS
 10
418.99375
 20
721.9021169355
 40
4.7990381057
100
AcDbArc
 50
187.1822026405
 51
226.828815981
  0
ARC
  5
61B
100
AcDbEntity
  8
6_ALL_SURFS
100
AcDbCircle
 62
7
  6
CONTINUOUS
 10
418.99375
 20
721.9021169355
 40
4.7990381057
100
AcDbArc
 50
0.0
 51
30.0066305519
  0
ARC
  5
61C
100
AcDbEntity
  8
6_ALL_SURFS
100
AcDbCircle
 62
7
  6
CONTINUOUS
 10
418.99375
 20
721.9021169355
 40
4.7990381057
100
AcDbArc
 50
149.9933694481
 51
180.0
  0
ARC
  5
61D
100
AcDbEntity
  8
6_ALL_SURFS
100
AcDbCircle
 62
7
  6
CONTINUOUS
 10
418.99375
 20
721.9021169355
 40
4.7990381057
100
AcDbArc
 50
38.6913826582
 51
141.3086173418
  0
CIRCLE
  5
61E
100
AcDbEntity
  8
6_ALL_SURFS
100
AcDbCircle
 62
7
  6
CONTINUOUS
 10
418.99375
 20
721.9021169355
 40
3.5
  0
ARC
  5
61F
100
AcDbEntity
  8
7_ALL_FEATURES
100
AcDbCircle
 62
7
  6
CONTINUOUS
 10
385.9868303043
 20
734.4021169355
 40
1.5
100
AcDbArc
 50
56.6800806294
 51
90.0
  0
ARC
  5
620
100
AcDbEntity
  8
7_ALL_FEATURES
100
AcDbCircle
 62
7
  6
CONTINUOUS
 10
389.9968178354
 20
734.4021169355
 40
1.5
100
AcDbArc
 50
90.0
 51
123.3199193706
  0
ARC
  5
621
100
AcDbEntity
  8
7_ALL_FEATURES
100
AcDbCircle
 62
7
  6
CONTINUOUS
 10
400.89375
 20
733.6021169355
 40
0.5
100
AcDbArc
 50
143.1301023542
 51
216.8698976458
  0
ARC
  5
622
100
AcDbEntity
  8
7_ALL_FEATURES
100
AcDbCircle
 62
7
  6
CONTINUOUS
 10
400.89375
 20
730.6021169355
 40
0.5
100
AcDbArc
 50
143.1301023541
 51
216.8698976458
  0
ARC
  5
623
100
AcDbEntity
  8
7_ALL_FEATURES
100
AcDbCircle
 62
7
  6
CONTINUOUS
 10
400.89375
 20
727.6021169355
 40
0.5
100
AcDbArc
 50
143.1301023541
 51
216.8698976458
  0
ARC
  5
624
100
AcDbEntity
  8
7_ALL_FEATURES
100
AcDbCircle
 62
7
  6
CONTINUOUS
 10
400.89375
 20
724.6021169355
 40
0.5
100
AcDbArc
 50
143.1301023541
 51
216.8698976458
  0
ARC
  5
625
100
AcDbEntity
  8
7_ALL_FEATURES
100
AcDbCircle
 62
7
  6
CONTINUOUS
 10
400.89375
 20
721.6021169355
 40
0.5
100
AcDbArc
 50
143.1301023541
 51
216.8698976458
  0
ARC
  5
626
100
AcDbEntity
  8
7_ALL_FEATURES
100
AcDbCircle
 62
7
  6
CONTINUOUS
 10
399.8874533579
 20
716.2958202934
 40
0.3937033579
100
AcDbArc
 50
180.0
 51
354.2894068625
  0
ARC
  5
627
100
AcDbEntity
  8
7_ALL_FEATURES
100
AcDbCircle
 62
7
  6
CONTINUOUS
 10
399.19375
 20
735.6021169355
 40
0.3
100
AcDbArc
 50
0.0
 51
90.0
  0
ARC
  5
628
100
AcDbEntity
  8
7_ALL_FEATURES
100
AcDbCircle
 62
7
  6
CONTINUOUS
 10
400.79375
 20
735.8521169355
 40
0.3
100
AcDbArc
 50
90.0
 51
180.0
  0
ARC
  5
629
100
AcDbEntity
  8
7_ALL_FEATURES
100
AcDbCircle
 62
7
  6
CONTINUOUS
 10
387.9918240698
 20
737.4521169355
 40
2.15
100
AcDbArc
 50
236.6800806294
 51
303.3199193706
  0
ARC
  5
62A
100
AcDbEntity
  8
7_ALL_FEATURES
100
AcDbCircle
 62
7
  6
CONTINUOUS
 10
376.89375
 20
737.7521169355
 40
2.0
100
AcDbArc
 50
270.0
 51
360.0
  0
ARC
  5
62B
100
AcDbEntity
  8
7_ALL_FEATURES
100
AcDbCircle
 62
7
  6
CONTINUOUS
 10
375.09375
 20
737.7521169355
 40
2.0
100
AcDbArc
 50
180.0
 51
270.0
  0
ARC
  5
62C
100
AcDbEntity
  8
7_ALL_FEATURES
100
AcDbCircle
 62
7
  6
CONTINUOUS
 10
385.17375
 20
737.8521169355
 40
1.8
100
AcDbArc
 50
90.0
 51
147.1401196212
  0
ARC
  5
62D
100
AcDbEntity
  8
7_ALL_FEATURES
100
AcDbCircle
 62
7
  6
CONTINUOUS
 10
383.281250549
 20
737.4021169355
 40
1.5
100
AcDbArc
 50
227.0
 51
270.0
  0
ARC
  5
62E
100
AcDbEntity
  8
7_ALL_FEATURES
100
AcDbCircle
 62
7
  6
CONTINUOUS
 10
375.99375
 20
738.6521169355
 40
1.3
100
AcDbArc
 50
130.8069228749
 51
49.1930771251
  0
ARC
  5
62F
100
AcDbEntity
  8
7_ALL_FEATURES
100
AcDbCircle
 62
7
  6
CONTINUOUS
 10
385.17375
 20
737.8521169355
 40
1.0
100
AcDbArc
 50
90.0
 51
147.1401196211
  0
ARC
  5
630
100
AcDbEntity
  8
7_ALL_FEATURES
100
AcDbCircle
 62
7
  6
CONTINUOUS
 10
383.49375
 20
738.9372897328
 40
1.0
100
AcDbArc
 50
227.0
 51
327.1401196211
  0
ARC
  5
631
100
AcDbEntity
  8
7_ALL_FEATURES
100
AcDbCircle
 62
7
  6
CONTINUOUS
 10
387.9918240698
 20
737.4521169355
 40
0.65
100
AcDbArc
 50
201.6182724222
 51
338.3817275778
  0
ARC
  5
632
100
AcDbEntity
  8
7_ALL_FEATURES
100
AcDbCircle
 62
7
  6
CONTINUOUS
 10
382.69375
 20
738.862905325
 40
0.4
100
AcDbArc
 50
46.9999999998
 51
227.0000000002
  0
ARC
  5
633
100
AcDbEntity
  8
7_ALL_FEATURES
100
AcDbCircle
 62
7
  6
CONTINUOUS
 10
374.7235794078
 20
740.2521169355
 40
0.3
100
AcDbArc
 50
30.0
 51
90.0
  0
ARC
  5
634
100
AcDbEntity
  8
7_ALL_FEATURES
100
AcDbCircle
 62
7
  6
CONTINUOUS
 10
374.9481306966
 20
739.8631826944
 40
0.3
100
AcDbArc
 50
310.8069228749
 51
30.0
  0
ARC
  5
635
100
AcDbEntity
  8
7_ALL_FEATURES
100
AcDbCircle
 62
7
  6
CONTINUOUS
 10
377.0393693034
 20
739.8631826944
 40
0.3
100
AcDbArc
 50
150.0
 51
229.1930771251
  0
ARC
  5
636
100
AcDbEntity
  8
7_ALL_FEATURES
100
AcDbCircle
 62
7
  6
CONTINUOUS
 10
377.2639205922
 20
740.2521169355
 40
0.3
100
AcDbArc
 50
90.0
 51
150.0
  0
ARC
  5
637
100
AcDbEntity
  8
7_ALL_FEATURES
100
AcDbCircle
 62
7
  6
CONTINUOUS
 10
380.94375
 20
740.2521169355
 40
0.3
100
AcDbArc
 50
0.0
 51
90.0
  0
ARC
  5
638
100
AcDbEntity
  8
7_ALL_FEATURES
100
AcDbCircle
 62
7
  6
CONTINUOUS
 10
387.1086479832
 20
737.1021169355
 40
0.3
100
AcDbArc
 50
21.6182724222
 51
90.0
  0
ARC
  5
639
100
AcDbEntity
  8
7_ALL_FEATURES
100
AcDbCircle
 62
7
  6
CONTINUOUS
 10
388.8750001565
 20
737.1021169355
 40
0.3
100
AcDbArc
 50
90.0
 51
158.3817275778
  0
ARC
  5
63A
100
AcDbEntity
  8
7_ALL_FEATURES
100
AcDbCircle
 62
7
  6
CONTINUOUS
 10
401.69375
 20
737.1021169355
 40
0.3
100
AcDbArc
 50
0.0
 51
90.0
  0
ARC
  5
63B
100
AcDbEntity
  8
7_ALL_FEATURES
100
AcDbCircle
 62
7
  6
CONTINUOUS
 10
401.69375
 20
736.4521169355
 40
0.3
100
AcDbArc
 50
270.0
 51
360.0
  0
ARC
  5
63C
100
AcDbEntity
  8
7_ALL_FEATURES
100
AcDbCircle
 62
7
  6
CONTINUOUS
 10
386.4455862777
 20
737.7021169355
 40
0.3
100
AcDbArc
 50
232.5
 51
270.0
  0
ARC
  5
63D
100
AcDbEntity
  8
7_ALL_FEATURES
100
AcDbCircle
 62
7
  6
CONTINUOUS
 10
381.54375
 20
739.432560648
 40
0.3
100
AcDbArc
 50
180.0
 51
227.0
  0
ARC
  5
63E
100
AcDbEntity
  8
7_ALL_FEATURES
100
AcDbCircle
 62
7
  6
CONTINUOUS
 10
383.3994236917
 20
737.7021169355
 40
0.3
100
AcDbArc
 50
227.0
 51
270.0
  0
ARC
  5
63F
100
AcDbEntity
  8
7_ALL_FEATURES
100
AcDbCircle
 62
7
  6
CONTINUOUS
 10
384.19375
 20
737.7021169355
 40
0.3
100
AcDbArc
 50
270.0
 51
360.0
  0
ARC
  5
640
100
AcDbEntity
  8
7_ALL_FEATURES
100
AcDbCircle
 62
7
  6
CONTINUOUS
 10
372.79375
 20
738.6521169355
 40
0.3
100
AcDbArc
 50
0.0
 51
90.0
  0
ARC
  5
641
100
AcDbEntity
  8
7_ALL_FEATURES
100
AcDbCircle
 62
7
  6
CONTINUOUS
 10
379.19375
 20
738.5021169355
 40
0.3
100
AcDbArc
 50
90.0
 51
180.0
  0
ARC
  5
642
100
AcDbEntity
  8
7_ALL_FEATURES
100
AcDbCircle
 62
7
  6
CONTINUOUS
 10
379.4623424339
 20
738.5021169355
 40
0.3
100
AcDbArc
 50
47.0
 51
90.0
  0
ARC
  5
643
100
AcDbEntity
  8
7_ALL_FEATURES
100
AcDbCircle
 62
7
  6
CONTINUOUS
 10
386.79375
 20
737.8021169355
 40
0.2
100
AcDbArc
 50
270.0
 51
360.0
  0
ARC
  5
644
100
AcDbEntity
  8
7_ALL_FEATURES
100
AcDbCircle
 62
7
  6
CONTINUOUS
 10
386.19375
 20
737.8021169355
 40
0.2
100
AcDbArc
 50
180.0
 51
270.0
  0
ARC
  5
645
100
AcDbEntity
  8
7_ALL_FEATURES
100
AcDbCircle
 62
7
  6
CONTINUOUS
 10
385.79375
 20
738.6521169355
 40
0.2
100
AcDbArc
 50
0.0
 51
90.0
  0
ARC
  5
646
100
AcDbEntity
  8
7_ALL_FEATURES
100
AcDbCircle
 62
7
  6
CONTINUOUS
 10
383.49375
 20
738.9372897328
 40
0.2
100
AcDbArc
 50
226.9999999887
 51
327.1401196205
  0
ARC
  5
647
100
AcDbEntity
  8
7_ALL_FEATURES
100
AcDbCircle
 62
7
  6
CONTINUOUS
 10
385.69375
 20
739.8521169355
 40
0.2
100
AcDbArc
 50
270.0
 51
360.0
  0
ARC
  5
648
100
AcDbEntity
  8
7_ALL_FEATURES
100
AcDbCircle
 62
7
  6
CONTINUOUS
 10
384.69375
 20
738.4161119828
 40
0.2
100
AcDbArc
 50
52.5
 51
180.0
  0
ARC
  5
649
100
AcDbEntity
  8
7_ALL_FEATURES
100
AcDbCircle
 62
7
  6
CONTINUOUS
 10
310.24375
 20
756.9521169355
 40
8.0
100
AcDbArc
 50
330.0
 51
345.5224878141
  0
ARC
  5
64A
100
AcDbEntity
  8
7_ALL_FEATURES
100
AcDbCircle
 62
7
  6
CONTINUOUS
 10
310.24375
 20
756.9521169355
 40
8.0
100
AcDbArc
 50
14.4775121859
 51
30.0
  0
ARC
  5
64B
100
AcDbEntity
  8
7_ALL_FEATURES
100
AcDbCircle
 62
7
  6
CONTINUOUS
 10
310.24375
 20
756.9521169355
 40
7.9843597113
100
AcDbArc
 50
345.4935070353
 51
356.4096498625
  0
ARC
  5
64C
100
AcDbEntity
  8
7_ALL_FEATURES
100
AcDbCircle
 62
7
  6
CONTINUOUS
 10
310.24375
 20
756.9521169355
 40
7.9843597113
100
AcDbArc
 50
3.5903501375
 51
14.5064929647
  0
ARC
  5
64D
100
AcDbEntity
  8
7_ALL_FEATURES
100
AcDbCircle
 62
7
  6
CONTINUOUS
 10
310.24375
 20
756.9521169355
 40
7.7459666924
100
AcDbArc
 50
356.2990001561
 51
3.7009998439
  0
ARC
  5
64E
100
AcDbEntity
  8
6_ALL_SURFS
100
AcDbCircle
 62
7
  6
CONTINUOUS
 10
328.0482360707
 20
769.9521169355
 40
5.0
100
AcDbArc
 50
90.0
 51
102.5
  0
ARC
  5
64F
100
AcDbEntity
  8
6_ALL_SURFS
100
AcDbCircle
 62
7
  6
CONTINUOUS
 10
311.8768928075
 20
776.6098115894
 40
5.0
100
AcDbArc
 50
259.0386653036
 51
282.5
  0
ARC
  5
650
100
AcDbEntity
  8
6_ALL_SURFS
100
AcDbCircle
 62
7
  6
CONTINUOUS
 10
310.39375
 20
768.9521169355
 40
2.8
100
AcDbArc
 50
270.0
 51
300.0
  0
ARC
  5
651
100
AcDbEntity
  8
6_ALL_SURFS
100
AcDbCircle
 62
7
  6
CONTINUOUS
 10
310.39375
 20
768.9521169355
 40
2.8
100
AcDbArc
 50
79.0386653036
 51
116.847213326
  0
ARC
  5
652
100
AcDbEntity
  8
6_ALL_SURFS
100
AcDbCircle
 62
7
  6
CONTINUOUS
 10
308.99375
 20
758.7521169355
 40
1.8
100
AcDbArc
 50
90.0
 51
180.0
  0
ARC
  5
653
100
AcDbEntity
  8
6_ALL_SURFS
100
AcDbCircle
 62
7
  6
CONTINUOUS
 10
310.39375
 20
768.9521169355
 40
1.3
100
AcDbArc
 50
220.8069228749
 51
139.1930771251
  0
ARC
  5
654
100
AcDbEntity
  8
6_ALL_SURFS
100
AcDbCircle
 62
7
  6
CONTINUOUS
 10
315.14375
 20
769.5495320838
 40
1.0
100
AcDbArc
 50
102.5
 51
180.0
  0
ARC
  5
655
100
AcDbEntity
  8
6_ALL_SURFS
100
AcDbCircle
 62
7
  6
CONTINUOUS
 10
329.5259412014
 20
772.3521169355
 40
1.0
100
AcDbArc
 50
90.0
 51
110.0
  0
ARC
  5
656
100
AcDbEntity
  8
6_ALL_SURFS
100
AcDbCircle
 62
7
  6
CONTINUOUS
 10
308.19375
 20
772.4521169355
 40
0.5
100
AcDbArc
 50
0.0
 51
90.0
  0
ARC
  5
657
100
AcDbEntity
  8
6_ALL_SURFS
100
AcDbCircle
 62
7
  6
CONTINUOUS
 10
312.04375
 20
766.094233103
 40
0.5
100
AcDbArc
 50
0.0
 51
120.0
  0
ARC
  5
658
100
AcDbEntity
  8
6_ALL_SURFS
100
AcDbCircle
 62
7
  6
CONTINUOUS
 10
307.49375
 20
766.4521169355
 40
0.3
100
AcDbArc
 50
180.0
 51
270.0
  0
ARC
  5
659
100
AcDbEntity
  8
6_ALL_SURFS
100
AcDbCircle
 62
7
  6
CONTINUOUS
 10
307.49375
 20
766.9313909933
 40
0.3
100
AcDbArc
 50
120.0
 51
180.0
  0
ARC
  5
65A
100
AcDbEntity
  8
6_ALL_SURFS
100
AcDbCircle
 62
7
  6
CONTINUOUS
 10
309.1826842411
 20
767.9064976321
 40
0.3
100
AcDbArc
 50
40.8069228749
 51
120.0
  0
ARC
  5
65B
100
AcDbEntity
  8
6_ALL_SURFS
100
AcDbCircle
 62
7
  6
CONTINUOUS
 10
309.1826842411
 20
769.9977362389
 40
0.3
100
AcDbArc
 50
240.0
 51
319.1930771251
  0
ARC
  5
65C
100
AcDbEntity
  8
6_ALL_SURFS
100
AcDbCircle
 62
7
  6
CONTINUOUS
 10
307.49375
 20
770.9728428776
 40
0.3
100
AcDbArc
 50
180.0
 51
240.0
  0
ARC
  5
65D
100
AcDbEntity
  8
6_ALL_SURFS
100
AcDbCircle
 62
7
  6
CONTINUOUS
 10
307.49375
 20
772.6521169355
 40
0.3
100
AcDbArc
 50
90.0
 51
180.0
  0
ARC
  5
65E
100
AcDbEntity
  8
6_ALL_SURFS
100
AcDbCircle
 62
7
  6
CONTINUOUS
 10
328.1058061045
 20
773.2186611358
 40
0.3
100
AcDbArc
 50
210.9637565321
 51
290.0
  0
ARC
  5
65F
100
AcDbEntity
  8
6_ALL_SURFS
100
AcDbCircle
 62
7
  6
CONTINUOUS
 10
313.84375
 20
758.9521169355
 40
0.3
100
AcDbArc
 50
270.0
 51
360.0
  0
ARC
  5
660
100
AcDbEntity
  8
6_ALL_SURFS
100
AcDbCircle
 62
7
  6
CONTINUOUS
 10
308.99375
 20
771.7179802727
 40
0.3
100
AcDbArc
 50
180.0
 51
296.847213326
  0
ARC
  5
661
100
AcDbEntity
  8
6_ALL_SURFS
100
AcDbCircle
 62
7
  6
CONTINUOUS
 10
312.24375
 20
760.8521169355
 40
0.3
100
AcDbArc
 50
270.0
 51
360.0
  0
ARC
  5
662
100
AcDbEntity
  8
6_ALL_SURFS
100
AcDbCircle
 62
7
  6
CONTINUOUS
 10
309.09375
 20
758.3521169355
 40
0.3
100
AcDbArc
 50
90.0
 51
180.0
  0
ARC
  5
663
100
AcDbEntity
  8
6_ALL_SURFS
100
AcDbCircle
 62
7
  6
CONTINUOUS
 10
327.5298169517
 20
773.0124526782
 40
0.3
100
AcDbArc
 50
30.9637565321
 51
102.5
  0
ARC
  5
664
100
AcDbEntity
  8
6_ALL_SURFS
100
AcDbCircle
 62
7
  6
CONTINUOUS
 10
387.9918240698
 20
776.4521169355
 40
2.15
100
AcDbArc
 50
56.6800806294
 51
123.3199193706
  0
ARC
  5
665
100
AcDbEntity
  8
6_ALL_SURFS
100
AcDbCircle
 62
7
  6
CONTINUOUS
 10
375.09375
 20
776.1521169355
 40
2.0
100
AcDbArc
 50
90.0
 51
180.0
  0
ARC
  5
666
100
AcDbEntity
  8
6_ALL_SURFS
100
AcDbCircle
 62
7
  6
CONTINUOUS
 10
376.89375
 20
776.1521169355
 40
2.0
100
AcDbArc
 50
0.0
 51
90.0
  0
ARC
  5
667
100
AcDbEntity
  8
7_ALL_FEATURES
100
AcDbCircle
 62
7
  6
CONTINUOUS
 10
385.17375
 20
776.0521169355
 40
1.8
100
AcDbArc
 50
212.8598803788
 51
270.0
  0
ARC
  5
668
100
AcDbEntity
  8
6_ALL_SURFS
100
AcDbCircle
 62
7
  6
CONTINUOUS
 10
383.281250549
 20
776.5021169355
 40
1.5
100
AcDbArc
 50
90.0
 51
133.0
  0
ARC
  5
669
100
AcDbEntity
  8
6_ALL_SURFS
100
AcDbCircle
 62
7
  6
CONTINUOUS
 10
375.99375
 20
775.2521169355
 40
1.3
100
AcDbArc
 50
310.8069228749
 51
229.1930771252
  0
ARC
  5
66A
100
AcDbEntity
  8
7_ALL_FEATURES
100
AcDbCircle
 62
7
  6
CONTINUOUS
 10
383.49375
 20
774.9669441382
 40
1.0
100
AcDbArc
 50
32.859880379
 51
133.0
  0
ARC
  5
66B
100
AcDbEntity
  8
7_ALL_FEATURES
100
AcDbCircle
 62
7
  6
CONTINUOUS
 10
385.17375
 20
776.0521169355
 40
1.0
100
AcDbArc
 50
212.8598803787
 51
270.0
  0
ARC
  5
66C
100
AcDbEntity
  8
6_ALL_SURFS
100
AcDbCircle
 62
7
  6
CONTINUOUS
 10
387.9918240698
 20
776.4521169355
 40
0.65
100
AcDbArc
 50
21.6182724222
 51
158.3817275778
  0
ARC
  5
66D
100
AcDbEntity
  8
7_ALL_FEATURES
100
AcDbCircle
 62
7
  6
CONTINUOUS
 10
382.69375
 20
775.0413285459
 40
0.4
100
AcDbArc
 50
133.0000000029
 51
313.0
  0
ARC
  5
66E
100
AcDbEntity
  8
6_ALL_SURFS
100
AcDbCircle
 62
7
  6
CONTINUOUS
 10
401.69375
 20
776.8021169355
 40
0.3
100
AcDbArc
 50
270.0
 51
360.0
  0
ARC
  5
66F
100
AcDbEntity
  8
6_ALL_SURFS
100
AcDbCircle
 62
7
  6
CONTINUOUS
 10
388.8750001565
 20
776.8021169355
 40
0.3
100
AcDbArc
 50
201.6182724222
 51
270.0
  0
ARC
  5
670
100
AcDbEntity
  8
6_ALL_SURFS
100
AcDbCircle
 62
7
  6
CONTINUOUS
 10
387.1086479832
 20
776.8021169355
 40
0.3
100
AcDbArc
 50
270.0
 51
338.3817275779
  0
ARC
  5
671
100
AcDbEntity
  8
6_ALL_SURFS
100
AcDbCircle
 62
7
  6
CONTINUOUS
 10
380.94375
 20
773.6521169355
 40
0.3
100
AcDbArc
 50
270.0
 51
360.0
  0
ARC
  5
672
100
AcDbEntity
  8
6_ALL_SURFS
100
AcDbCircle
 62
7
  6
CONTINUOUS
 10
377.2639205922
 20
773.6521169355
 40
0.3
100
AcDbArc
 50
210.0
 51
270.0
  0
ARC
  5
673
100
AcDbEntity
  8
6_ALL_SURFS
100
AcDbCircle
 62
7
  6
CONTINUOUS
 10
377.0393693034
 20
774.0410511766
 40
0.3
100
AcDbArc
 50
130.8069228749
 51
210.0
  0
ARC
  5
674
100
AcDbEntity
  8
6_ALL_SURFS
100
AcDbCircle
 62
7
  6
CONTINUOUS
 10
374.9481306966
 20
774.0410511766
 40
0.3
100
AcDbArc
 50
330.0
 51
49.1930771251
  0
ARC
  5
675
100
AcDbEntity
  8
6_ALL_SURFS
100
AcDbCircle
 62
7
  6
CONTINUOUS
 10
374.7235794078
 20
773.6521169355
 40
0.3
100
AcDbArc
 50
270.0
 51
330.0
  0
ARC
  5
676
100
AcDbEntity
  8
6_ALL_SURFS
100
AcDbCircle
 62
7
  6
CONTINUOUS
 10
386.4455862777
 20
776.2021169355
 40
0.3
100
AcDbArc
 50
90.0
 51
127.5
  0
ARC
  5
677
100
AcDbEntity
  8
6_ALL_SURFS
100
AcDbCircle
 62
7
  6
CONTINUOUS
 10
381.54375
 20
774.471673223
 40
0.3
100
AcDbArc
 50
133.0
 51
180.0
  0
ARC
  5
678
100
AcDbEntity
  8
6_ALL_SURFS
100
AcDbCircle
 62
7
  6
CONTINUOUS
 10
383.3994236917
 20
776.2021169355
 40
0.3
100
AcDbArc
 50
90.0
 51
133.0
  0
ARC
  5
679
100
AcDbEntity
  8
6_ALL_SURFS
100
AcDbCircle
 62
7
  6
CONTINUOUS
 10
384.19375
 20
776.2021169355
 40
0.3
100
AcDbArc
 50
0.0
 51
90.0
  0
ARC
  5
67A
100
AcDbEntity
  8
6_ALL_SURFS
100
AcDbCircle
 62
7
  6
CONTINUOUS
 10
372.79375
 20
775.2521169355
 40
0.3
100
AcDbArc
 50
270.0
 51
360.0
  0
ARC
  5
67B
100
AcDbEntity
  8
6_ALL_SURFS
100
AcDbCircle
 62
7
  6
CONTINUOUS
 10
379.19375
 20
775.4021169355
 40
0.3
100
AcDbArc
 50
180.0
 51
270.0
  0
ARC
  5
67C
100
AcDbEntity
  8
6_ALL_SURFS
100
AcDbCircle
 62
7
  6
CONTINUOUS
 10
379.4623424339
 20
775.4021169355
 40
0.3
100
AcDbArc
 50
270.0
 51
313.0
  0
ARC
  5
67D
100
AcDbEntity
  8
7_ALL_FEATURES
100
AcDbCircle
 62
7
  6
CONTINUOUS
 10
385.69375
 20
774.0521169355
 40
0.2
100
AcDbArc
 50
0.0
 51
90.0
  0
ARC
  5
67E
100
AcDbEntity
  8
7_ALL_FEATURES
100
AcDbCircle
 62
7
  6
CONTINUOUS
 10
383.49375
 20
774.9669441382
 40
0.2
100
AcDbArc
 50
32.8598803795
 51
133.0000000113
  0
ARC
  5
67F
100
AcDbEntity
  8
7_ALL_FEATURES
100
AcDbCircle
 62
7
  6
CONTINUOUS
 10
385.79375
 20
775.2521169355
 40
0.2
100
AcDbArc
 50
270.0
 51
360.0
  0
ARC
  5
680
100
AcDbEntity
  8
7_ALL_FEATURES
100
AcDbCircle
 62
7
  6
CONTINUOUS
 10
386.19375
 20
776.1021169355
 40
0.2
100
AcDbArc
 50
90.0
 51
180.0
  0
ARC
  5
681
100
AcDbEntity
  8
7_ALL_FEATURES
100
AcDbCircle
 62
7
  6
CONTINUOUS
 10
386.79375
 20
776.1021169355
 40
0.2
100
AcDbArc
 50
0.0
 51
90.0
  0
ARC
  5
682
100
AcDbEntity
  8
6_ALL_SURFS
100
AcDbCircle
 62
7
  6
CONTINUOUS
 10
384.69375
 20
775.4881218881
 40
0.2
100
AcDbArc
 50
180.0
 51
307.5
  0
ARC
  5
683
100
AcDbEntity
  8
7_ALL_FEATURES
100
AcDbCircle
 62
7
  6
CONTINUOUS
 10
418.99375
 20
792.0021169355
 40
4.7990381057
100
AcDbArc
 50
218.6913826582
 51
321.3086173418
  0
ARC
  5
684
100
AcDbEntity
  8
7_ALL_FEATURES
100
AcDbCircle
 62
7
  6
CONTINUOUS
 10
418.99375
 20
792.0021169355
 40
4.7990381057
100
AcDbArc
 50
180.0
 51
210.0066305519
  0
ARC
  5
685
100
AcDbEntity
  8
7_ALL_FEATURES
100
AcDbCircle
 62
7
  6
CONTINUOUS
 10
418.99375
 20
792.0021169355
 40
4.7990381057
100
AcDbArc
 50
329.9933694481
 51
360.0
  0
ARC
  5
686
100
AcDbEntity
  8
7_ALL_FEATURES
100
AcDbCircle
 62
7
  6
CONTINUOUS
 10
418.99375
 20
792.0021169355
 40
4.7990381057
100
AcDbArc
 50
133.171184019
 51
172.8177973595
  0
ARC
  5
687
100
AcDbEntity
  8
7_ALL_FEATURES
100
AcDbCircle
 62
7
  6
CONTINUOUS
 10
418.99375
 20
792.0021169355
 40
4.7990381057
100
AcDbArc
 50
7.1822026405
 51
46.828815981
  0
CIRCLE
  5
688
100
AcDbEntity
  8
6_ALL_SURFS
100
AcDbCircle
 62
7
  6
CONTINUOUS
 10
418.99375
 20
792.0021169355
 40
3.5
  0
ARC
  5
689
100
AcDbEntity
  8
6_ALL_SURFS
100
AcDbCircle
 62
7
  6
CONTINUOUS
 10
385.9868303043
 20
779.5021169355
 40
1.5
100
AcDbArc
 50
270.0
 51
303.3199193706
  0
ARC
  5
68A
100
AcDbEntity
  8
6_ALL_SURFS
100
AcDbCircle
 62
7
  6
CONTINUOUS
 10
389.9968178354
 20
779.5021169355
 40
1.5
100
AcDbArc
 50
236.6800806294
 51
270.0
  0
ARC
  5
68B
100
AcDbEntity
  8
6_ALL_SURFS
100
AcDbCircle
 62
7
  6
CONTINUOUS
 10
400.89375
 20
792.3021169355
 40
0.5
100
AcDbArc
 50
143.1301023542
 51
216.8698976459
  0
ARC
  5
68C
100
AcDbEntity
  8
6_ALL_SURFS
100
AcDbCircle
 62
7
  6
CONTINUOUS
 10
400.89375
 20
789.3021169355
 40
0.5
100
AcDbArc
 50
143.1301023542
 51
216.8698976459
  0
ARC
  5
68D
100
AcDbEntity
  8
6_ALL_SURFS
100
AcDbCircle
 62
7
  6
CONTINUOUS
 10
400.89375
 20
786.3021169355
 40
0.5
100
AcDbArc
 50
143.1301023542
 51
216.8698976459
  0
ARC
  5
68E
100
AcDbEntity
  8
6_ALL_SURFS
100
AcDbCircle
 62
7
  6
CONTINUOUS
 10
400.89375
 20
783.3021169355
 40
0.5
100
AcDbArc
 50
143.1301023542
 51
216.8698976459
  0
ARC
  5
68F
100
AcDbEntity
  8
6_ALL_SURFS
100
AcDbCircle
 62
7
  6
CONTINUOUS
 10
400.89375
 20
780.3021169355
 40
0.5
100
AcDbArc
 50
143.1301023542
 51
216.8698976459
  0
ARC
  5
690
100
AcDbEntity
  8
6_ALL_SURFS
100
AcDbCircle
 62
7
  6
CONTINUOUS
 10
399.8874533579
 20
797.6084135776
 40
0.3937033579
100
AcDbArc
 50
5.7105931375
 51
180.0
  0
ARC
  5
691
100
AcDbEntity
  8
6_ALL_SURFS
100
AcDbCircle
 62
7
  6
CONTINUOUS
 10
401.69375
 20
777.4521169355
 40
0.3
100
AcDbArc
 50
0.0
 51
90.0
  0
ARC
  5
692
100
AcDbEntity
  8
6_ALL_SURFS
100
AcDbCircle
 62
7
  6
CONTINUOUS
 10
399.19375
 20
778.3021169355
 40
0.3
100
AcDbArc
 50
270.0
 51
360.0
  0
ARC
  5
693
100
AcDbEntity
  8
6_ALL_SURFS
100
AcDbCircle
 62
7
  6
CONTINUOUS
 10
400.79375
 20
778.0521169355
 40
0.3
100
AcDbArc
 50
180.0
 51
270.0
  0
ARC
  5
694
100
AcDbEntity
  8
6_ALL_SURFS
100
AcDbCircle
 62
7
  6
CONTINUOUS
 10
918.99375
 20
721.9021169355
 40
4.7990381057
100
AcDbArc
 50
313.171184019
 51
352.8177973595
  0
ARC
  5
695
100
AcDbEntity
  8
6_ALL_SURFS
100
AcDbCircle
 62
7
  6
CONTINUOUS
 10
668.99375
 20
721.9021169355
 40
4.7990381057
100
AcDbArc
 50
313.171184019
 51
352.8177973595
  0
ARC
  5
696
100
AcDbEntity
  8
6_ALL_SURFS
100
AcDbCircle
 62
7
  6
CONTINUOUS
 10
918.99375
 20
721.9021169355
 40
4.7990381057
100
AcDbArc
 50
187.1822026405
 51
226.828815981
  0
ARC
  5
697
100
AcDbEntity
  8
6_ALL_SURFS
100
AcDbCircle
 62
7
  6
CONTINUOUS
 10
668.99375
 20
721.9021169355
 40
4.7990381057
100
AcDbArc
 50
187.1822026405
 51
226.828815981
  0
ARC
  5
698
100
AcDbEntity
  8
6_ALL_SURFS
100
AcDbCircle
 62
7
  6
CONTINUOUS
 10
918.99375
 20
721.9021169355
 40
4.7990381057
100
AcDbArc
 50
0.0
 51
30.0066305519
  0
ARC
  5
699
100
AcDbEntity
  8
6_ALL_SURFS
100
AcDbCircle
 62
7
  6
CONTINUOUS
 10
668.99375
 20
721.9021169355
 40
4.7990381057
100
AcDbArc
 50
0.0
 51
30.0066305519
  0
ARC
  5
69A
100
AcDbEntity
  8
6_ALL_SURFS
100
AcDbCircle
 62
7
  6
CONTINUOUS
 10
918.99375
 20
721.9021169355
 40
4.7990381057
100
AcDbArc
 50
149.9933694481
 51
180.0
  0
ARC
  5
69B
100
AcDbEntity
  8
6_ALL_SURFS
100
AcDbCircle
 62
7
  6
CONTINUOUS
 10
668.99375
 20
721.9021169355
 40
4.7990381057
100
AcDbArc
 50
149.9933694481
 51
180.0
  0
ARC
  5
69C
100
AcDbEntity
  8
6_ALL_SURFS
100
AcDbCircle
 62
7
  6
CONTINUOUS
 10
668.99375
 20
721.9021169355
 40
4.7990381057
100
AcDbArc
 50
38.6913826582
 51
141.3086173418
  0
ARC
  5
69D
100
AcDbEntity
  8
6_ALL_SURFS
100
AcDbCircle
 62
7
  6
CONTINUOUS
 10
918.99375
 20
721.9021169355
 40
4.7990381057
100
AcDbArc
 50
38.6913826582
 51
141.3086173418
  0
CIRCLE
  5
69E
100
AcDbEntity
  8
6_ALL_SURFS
100
AcDbCircle
 62
7
  6
CONTINUOUS
 10
918.99375
 20
721.9021169355
 40
3.5
  0
CIRCLE
  5
69F
100
AcDbEntity
  8
6_ALL_SURFS
100
AcDbCircle
 62
7
  6
CONTINUOUS
 10
668.99375
 20
721.9021169355
 40
3.5
  0
ARC
  5
6A0
100
AcDbEntity
  8
7_ALL_FEATURES
100
AcDbCircle
 62
7
  6
CONTINUOUS
 10
918.99375
 20
792.0021169355
 40
4.7990381057
100
AcDbArc
 50
218.6913826582
 51
321.3086173418
  0
ARC
  5
6A1
100
AcDbEntity
  8
7_ALL_FEATURES
100
AcDbCircle
 62
7
  6
CONTINUOUS
 10
668.99375
 20
792.0021169355
 40
4.7990381057
100
AcDbArc
 50
218.6913826582
 51
321.3086173418
  0
ARC
  5
6A2
100
AcDbEntity
  8
7_ALL_FEATURES
100
AcDbCircle
 62
7
  6
CONTINUOUS
 10
668.99375
 20
792.0021169355
 40
4.7990381057
100
AcDbArc
 50
180.0
 51
210.0066305519
  0
ARC
  5
6A3
100
AcDbEntity
  8
7_ALL_FEATURES
100
AcDbCircle
 62
7
  6
CONTINUOUS
 10
918.99375
 20
792.0021169355
 40
4.7990381057
100
AcDbArc
 50
180.0
 51
210.0066305519
  0
ARC
  5
6A4
100
AcDbEntity
  8
7_ALL_FEATURES
100
AcDbCircle
 62
7
  6
CONTINUOUS
 10
668.99375
 20
792.0021169355
 40
4.7990381057
100
AcDbArc
 50
329.9933694481
 51
360.0
  0
ARC
  5
6A5
100
AcDbEntity
  8
7_ALL_FEATURES
100
AcDbCircle
 62
7
  6
CONTINUOUS
 10
918.99375
 20
792.0021169355
 40
4.7990381057
100
AcDbArc
 50
329.9933694481
 51
360.0
  0
ARC
  5
6A6
100
AcDbEntity
  8
7_ALL_FEATURES
100
AcDbCircle
 62
7
  6
CONTINUOUS
 10
668.99375
 20
792.0021169355
 40
4.7990381057
100
AcDbArc
 50
133.171184019
 51
172.8177973595
  0
ARC
  5
6A7
100
AcDbEntity
  8
7_ALL_FEATURES
100
AcDbCircle
 62
7
  6
CONTINUOUS
 10
918.99375
 20
792.0021169355
 40
4.7990381057
100
AcDbArc
 50
133.171184019
 51
172.8177973595
  0
ARC
  5
6A8
100
AcDbEntity
  8
7_ALL_FEATURES
100
AcDbCircle
 62
7
  6
CONTINUOUS
 10
668.99375
 20
792.0021169355
 40
4.7990381057
100
AcDbArc
 50
7.1822026405
 51
46.828815981
  0
ARC
  5
6A9
100
AcDbEntity
  8
7_ALL_FEATURES
100
AcDbCircle
 62
7
  6
CONTINUOUS
 10
918.99375
 20
792.0021169355
 40
4.7990381057
100
AcDbArc
 50
7.1822026405
 51
46.828815981
  0
CIRCLE
  5
6AA
100
AcDbEntity
  8
6_ALL_SURFS
100
AcDbCircle
 62
7
  6
CONTINUOUS
 10
668.99375
 20
792.0021169355
 40
3.5
  0
CIRCLE
  5
6AB
100
AcDbEntity
  8
6_ALL_SURFS
100
AcDbCircle
 62
7
  6
CONTINUOUS
 10
918.99375
 20
792.0021169355
 40
3.5
  0
ARC
  5
6AC
100
AcDbEntity
  8
6_ALL_SURFS
100
AcDbCircle
 62
7
  6
CONTINUOUS
 10
105.2675403226
 20
50.8111895161
 40
4.7990381057
100
AcDbArc
 50
223.171184019
 51
262.8177973595
  0
ARC
  5
6AD
100
AcDbEntity
  8
6_ALL_SURFS
100
AcDbCircle
 62
7
  6
CONTINUOUS
 10
105.2675403226
 20
300.8111895161
 40
4.7990381057
100
AcDbArc
 50
223.171184019
 51
262.8177973595
  0
ARC
  5
6AE
100
AcDbEntity
  8
6_ALL_SURFS
100
AcDbCircle
 62
7
  6
CONTINUOUS
 10
105.2675403226
 20
50.8111895161
 40
4.7990381057
100
AcDbArc
 50
97.1822026405
 51
136.828815981
  0
ARC
  5
6AF
100
AcDbEntity
  8
6_ALL_SURFS
100
AcDbCircle
 62
7
  6
CONTINUOUS
 10
105.2675403226
 20
300.8111895161
 40
4.7990381057
100
AcDbArc
 50
97.1822026405
 51
136.828815981
  0
ARC
  5
6B0
100
AcDbEntity
  8
6_ALL_SURFS
100
AcDbCircle
 62
7
  6
CONTINUOUS
 10
105.2675403226
 20
50.8111895161
 40
4.7990381057
100
AcDbArc
 50
270.0
 51
300.0066305519
  0
ARC
  5
6B1
100
AcDbEntity
  8
6_ALL_SURFS
100
AcDbCircle
 62
7
  6
CONTINUOUS
 10
105.2675403226
 20
300.8111895161
 40
4.7990381057
100
AcDbArc
 50
270.0
 51
300.0066305519
  0
ARC
  5
6B2
100
AcDbEntity
  8
6_ALL_SURFS
100
AcDbCircle
 62
7
  6
CONTINUOUS
 10
105.2675403226
 20
50.8111895161
 40
4.7990381057
100
AcDbArc
 50
59.9933694481
 51
90.0
  0
ARC
  5
6B3
100
AcDbEntity
  8
6_ALL_SURFS
100
AcDbCircle
 62
7
  6
CONTINUOUS
 10
105.2675403226
 20
300.8111895161
 40
4.7990381057
100
AcDbArc
 50
59.9933694481
 51
90.0
  0
ARC
  5
6B4
100
AcDbEntity
  8
6_ALL_SURFS
100
AcDbCircle
 62
7
  6
CONTINUOUS
 10
105.2675403226
 20
300.8111895161
 40
4.7990381057
100
AcDbArc
 50
308.6913826582
 51
51.3086173418
  0
ARC
  5
6B5
100
AcDbEntity
  8
6_ALL_SURFS
100
AcDbCircle
 62
7
  6
CONTINUOUS
 10
105.2675403226
 20
50.8111895161
 40
4.7990381057
100
AcDbArc
 50
308.6913826582
 51
51.3086173418
  0
CIRCLE
  5
6B6
100
AcDbEntity
  8
6_ALL_SURFS
100
AcDbCircle
 62
7
  6
CONTINUOUS
 10
105.2675403226
 20
50.8111895161
 40
3.5
  0
CIRCLE
  5
6B7
100
AcDbEntity
  8
6_ALL_SURFS
100
AcDbCircle
 62
7
  6
CONTINUOUS
 10
105.2675403226
 20
300.8111895161
 40
3.5
  0
ARC
  5
6B8
100
AcDbEntity
  8
6_ALL_SURFS
100
AcDbCircle
 62
7
  6
CONTINUOUS
 10
105.2675403226
 20
550.8111895161
 40
4.7990381057
100
AcDbArc
 50
223.171184019
 51
262.8177973595
  0
ARC
  5
6B9
100
AcDbEntity
  8
6_ALL_SURFS
100
AcDbCircle
 62
7
  6
CONTINUOUS
 10
105.2675403226
 20
550.8111895161
 40
4.7990381057
100
AcDbArc
 50
97.1822026405
 51
136.828815981
  0
ARC
  5
6BA
100
AcDbEntity
  8
6_ALL_SURFS
100
AcDbCircle
 62
7
  6
CONTINUOUS
 10
105.2675403226
 20
550.8111895161
 40
4.7990381057
100
AcDbArc
 50
270.0
 51
300.0066305519
  0
ARC
  5
6BB
100
AcDbEntity
  8
6_ALL_SURFS
100
AcDbCircle
 62
7
  6
CONTINUOUS
 10
105.2675403226
 20
550.8111895161
 40
4.7990381057
100
AcDbArc
 50
59.9933694481
 51
90.0
  0
ARC
  5
6BC
100
AcDbEntity
  8
6_ALL_SURFS
100
AcDbCircle
 62
7
  6
CONTINUOUS
 10
105.2675403226
 20
550.8111895161
 40
4.7990381057
100
AcDbArc
 50
308.6913826582
 51
51.3086173418
  0
CIRCLE
  5
6BD
100
AcDbEntity
  8
6_ALL_SURFS
100
AcDbCircle
 62
7
  6
CONTINUOUS
 10
105.2675403226
 20
550.8111895161
 40
3.5
  0
ARC
  5
6BE
100
AcDbEntity
  8
7_ALL_FEATURES
100
AcDbCircle
 62
7
  6
CONTINUOUS
 10
117.7675403226
 20
583.8181092119
 40
1.5
100
AcDbArc
 50
326.6800806294
 51
360.0
  0
ARC
  5
6BF
100
AcDbEntity
  8
7_ALL_FEATURES
100
AcDbCircle
 62
7
  6
CONTINUOUS
 10
117.7675403226
 20
579.8081216807
 40
1.5
100
AcDbArc
 50
0.0
 51
33.3199193706
  0
ARC
  5
6C0
100
AcDbEntity
  8
7_ALL_FEATURES
100
AcDbCircle
 62
7
  6
CONTINUOUS
 10
116.9675403226
 20
568.9111895161
 40
0.5
100
AcDbArc
 50
53.1301023542
 51
126.8698976458
  0
ARC
  5
6C1
100
AcDbEntity
  8
7_ALL_FEATURES
100
AcDbCircle
 62
7
  6
CONTINUOUS
 10
113.9675403226
 20
568.9111895161
 40
0.5
100
AcDbArc
 50
53.1301023542
 51
126.8698976458
  0
ARC
  5
6C2
100
AcDbEntity
  8
7_ALL_FEATURES
100
AcDbCircle
 62
7
  6
CONTINUOUS
 10
110.9675403226
 20
568.9111895161
 40
0.5
100
AcDbArc
 50
53.1301023542
 51
126.8698976458
  0
ARC
  5
6C3
100
AcDbEntity
  8
7_ALL_FEATURES
100
AcDbCircle
 62
7
  6
CONTINUOUS
 10
107.9675403226
 20
568.9111895161
 40
0.5
100
AcDbArc
 50
53.1301023542
 51
126.8698976458
  0
ARC
  5
6C4
100
AcDbEntity
  8
7_ALL_FEATURES
100
AcDbCircle
 62
7
  6
CONTINUOUS
 10
104.9675403226
 20
568.9111895161
 40
0.5
100
AcDbArc
 50
53.1301023542
 51
126.8698976458
  0
ARC
  5
6C5
100
AcDbEntity
  8
7_ALL_FEATURES
100
AcDbCircle
 62
7
  6
CONTINUOUS
 10
99.6612436805
 20
569.9174861582
 40
0.3937033579
100
AcDbArc
 50
90.0
 51
264.2894068625
  0
ARC
  5
6C6
100
AcDbEntity
  8
7_ALL_FEATURES
100
AcDbCircle
 62
7
  6
CONTINUOUS
 10
118.9675403226
 20
570.6111895161
 40
0.3
100
AcDbArc
 50
270.0
 51
360.0
  0
ARC
  5
6C7
100
AcDbEntity
  8
7_ALL_FEATURES
100
AcDbCircle
 62
7
  6
CONTINUOUS
 10
119.2175403226
 20
569.0111895161
 40
0.3
100
AcDbArc
 50
0.0
 51
90.0
  0
ARC
  5
6C8
100
AcDbEntity
  8
7_ALL_FEATURES
100
AcDbCircle
 62
7
  6
CONTINUOUS
 10
120.8175403226
 20
581.8131154463
 40
2.15
100
AcDbArc
 50
146.6800806294
 51
213.3199193706
  0
ARC
  5
6C9
100
AcDbEntity
  8
7_ALL_FEATURES
100
AcDbCircle
 62
7
  6
CONTINUOUS
 10
121.1175403226
 20
592.9111895161
 40
2.0
100
AcDbArc
 50
180.0
 51
270.0
  0
ARC
  5
6CA
100
AcDbEntity
  8
7_ALL_FEATURES
100
AcDbCircle
 62
7
  6
CONTINUOUS
 10
121.1175403226
 20
594.7111895161
 40
2.0
100
AcDbArc
 50
90.0
 51
180.0
  0
ARC
  5
6CB
100
AcDbEntity
  8
7_ALL_FEATURES
100
AcDbCircle
 62
7
  6
CONTINUOUS
 10
121.2175403226
 20
584.6311895161
 40
1.8
100
AcDbArc
 50
0.0
 51
57.1401196212
  0
ARC
  5
6CC
100
AcDbEntity
  8
7_ALL_FEATURES
100
AcDbCircle
 62
7
  6
CONTINUOUS
 10
120.7675403226
 20
586.5236889671
 40
1.5
100
AcDbArc
 50
137.0
 51
180.0
  0
ARC
  5
6CD
100
AcDbEntity
  8
7_ALL_FEATURES
100
AcDbCircle
 62
7
  6
CONTINUOUS
 10
122.0175403226
 20
593.8111895161
 40
1.3
100
AcDbArc
 50
40.8069228749
 51
319.1930771251
  0
ARC
  5
6CE
100
AcDbEntity
  8
7_ALL_FEATURES
100
AcDbCircle
 62
7
  6
CONTINUOUS
 10
121.2175403226
 20
584.6311895161
 40
1.0
100
AcDbArc
 50
0.0
 51
57.1401196211
  0
ARC
  5
6CF
100
AcDbEntity
  8
7_ALL_FEATURES
100
AcDbCircle
 62
7
  6
CONTINUOUS
 10
122.3027131199
 20
586.3111895161
 40
1.0
100
AcDbArc
 50
137.0
 51
237.1401196211
  0
ARC
  5
6D0
100
AcDbEntity
  8
7_ALL_FEATURES
100
AcDbCircle
 62
7
  6
CONTINUOUS
 10
120.8175403226
 20
581.8131154463
 40
0.65
100
AcDbArc
 50
111.6182724222
 51
248.3817275778
  0
ARC
  5
6D1
100
AcDbEntity
  8
7_ALL_FEATURES
100
AcDbCircle
 62
7
  6
CONTINUOUS
 10
122.2283287121
 20
587.1111895161
 40
0.4
100
AcDbArc
 50
316.9999999999
 51
137.0000000002
  0
ARC
  5
6D2
100
AcDbEntity
  8
7_ALL_FEATURES
100
AcDbCircle
 62
7
  6
CONTINUOUS
 10
123.6175403226
 20
595.0813601083
 40
0.3
100
AcDbArc
 50
300.0
 51
360.0
  0
ARC
  5
6D3
100
AcDbEntity
  8
7_ALL_FEATURES
100
AcDbCircle
 62
7
  6
CONTINUOUS
 10
123.2286060815
 20
594.8568088195
 40
0.3
100
AcDbArc
 50
220.8069228749
 51
300.0
  0
ARC
  5
6D4
100
AcDbEntity
  8
7_ALL_FEATURES
100
AcDbCircle
 62
7
  6
CONTINUOUS
 10
123.2286060815
 20
592.7655702127
 40
0.3
100
AcDbArc
 50
60.0
 51
139.1930771251
  0
ARC
  5
6D5
100
AcDbEntity
  8
7_ALL_FEATURES
100
AcDbCircle
 62
7
  6
CONTINUOUS
 10
123.6175403226
 20
592.5410189239
 40
0.3
100
AcDbArc
 50
0.0
 51
60.0
  0
ARC
  5
6D6
100
AcDbEntity
  8
7_ALL_FEATURES
100
AcDbCircle
 62
7
  6
CONTINUOUS
 10
123.6175403226
 20
588.8611895161
 40
0.3
100
AcDbArc
 50
270.0
 51
360.0
  0
ARC
  5
6D7
100
AcDbEntity
  8
7_ALL_FEATURES
100
AcDbCircle
 62
7
  6
CONTINUOUS
 10
120.4675403226
 20
582.6962915329
 40
0.3
100
AcDbArc
 50
291.6182724222
 51
360.0
  0
ARC
  5
6D8
100
AcDbEntity
  8
7_ALL_FEATURES
100
AcDbCircle
 62
7
  6
CONTINUOUS
 10
120.4675403226
 20
580.9299393597
 40
0.3
100
AcDbArc
 50
0.0
 51
68.3817275778
  0
ARC
  5
6D9
100
AcDbEntity
  8
7_ALL_FEATURES
100
AcDbCircle
 62
7
  6
CONTINUOUS
 10
120.4675403226
 20
568.1111895161
 40
0.3
100
AcDbArc
 50
270.0
 51
360.0
  0
ARC
  5
6DA
100
AcDbEntity
  8
7_ALL_FEATURES
100
AcDbCircle
 62
7
  6
CONTINUOUS
 10
119.8175403226
 20
568.1111895161
 40
0.3
100
AcDbArc
 50
180.0
 51
270.0
  0
ARC
  5
6DB
100
AcDbEntity
  8
7_ALL_FEATURES
100
AcDbCircle
 62
7
  6
CONTINUOUS
 10
121.0675403226
 20
583.3593532385
 40
0.3
100
AcDbArc
 50
142.5
 51
180.0
  0
ARC
  5
6DC
100
AcDbEntity
  8
7_ALL_FEATURES
100
AcDbCircle
 62
7
  6
CONTINUOUS
 10
122.7979840351
 20
588.2611895161
 40
0.3
100
AcDbArc
 50
90.0
 51
137.0
  0
ARC
  5
6DD
100
AcDbEntity
  8
7_ALL_FEATURES
100
AcDbCircle
 62
7
  6
CONTINUOUS
 10
121.0675403226
 20
586.4055158244
 40
0.3
100
AcDbArc
 50
137.0
 51
180.0
  0
ARC
  5
6DE
100
AcDbEntity
  8
7_ALL_FEATURES
100
AcDbCircle
 62
7
  6
CONTINUOUS
 10
121.0675403226
 20
585.6111895161
 40
0.3
100
AcDbArc
 50
180.0
 51
270.0
  0
ARC
  5
6DF
100
AcDbEntity
  8
7_ALL_FEATURES
100
AcDbCircle
 62
7
  6
CONTINUOUS
 10
122.0175403226
 20
597.0111895161
 40
0.3
100
AcDbArc
 50
270.0
 51
360.0
  0
ARC
  5
6E0
100
AcDbEntity
  8
7_ALL_FEATURES
100
AcDbCircle
 62
7
  6
CONTINUOUS
 10
121.8675403226
 20
590.6111895161
 40
0.3
100
AcDbArc
 50
0.0
 51
90.0
  0
ARC
  5
6E1
100
AcDbEntity
  8
7_ALL_FEATURES
100
AcDbCircle
 62
7
  6
CONTINUOUS
 10
121.8675403226
 20
590.3425970823
 40
0.3
100
AcDbArc
 50
317.0
 51
360.0
  0
ARC
  5
6E2
100
AcDbEntity
  8
7_ALL_FEATURES
100
AcDbCircle
 62
7
  6
CONTINUOUS
 10
121.1675403226
 20
583.0111895161
 40
0.2
100
AcDbArc
 50
180.0
 51
270.0
  0
ARC
  5
6E3
100
AcDbEntity
  8
7_ALL_FEATURES
100
AcDbCircle
 62
7
  6
CONTINUOUS
 10
121.1675403226
 20
583.6111895161
 40
0.2
100
AcDbArc
 50
90.0
 51
180.0
  0
ARC
  5
6E4
100
AcDbEntity
  8
7_ALL_FEATURES
100
AcDbCircle
 62
7
  6
CONTINUOUS
 10
122.0175403226
 20
584.0111895161
 40
0.2
100
AcDbArc
 50
270.0
 51
360.0
  0
ARC
  5
6E5
100
AcDbEntity
  8
7_ALL_FEATURES
100
AcDbCircle
 62
7
  6
CONTINUOUS
 10
122.3027131199
 20
586.3111895161
 40
0.2
100
AcDbArc
 50
136.9999999886
 51
237.1401196205
  0
ARC
  5
6E6
100
AcDbEntity
  8
7_ALL_FEATURES
100
AcDbCircle
 62
7
  6
CONTINUOUS
 10
123.2175403226
 20
584.1111895161
 40
0.2
100
AcDbArc
 50
180.0
 51
270.0
  0
ARC
  5
6E7
100
AcDbEntity
  8
7_ALL_FEATURES
100
AcDbCircle
 62
7
  6
CONTINUOUS
 10
121.7815353699
 20
585.1111895161
 40
0.2
100
AcDbArc
 50
322.5
 51
90.0
  0
ARC
  5
6E8
100
AcDbEntity
  8
7_ALL_FEATURES
100
AcDbCircle
 62
7
  6
CONTINUOUS
 10
127.3175403226
 20
641.7567034454
 40
5.0
100
AcDbArc
 50
167.5
 51
180.0
  0
ARC
  5
6E9
100
AcDbEntity
  8
7_ALL_FEATURES
100
AcDbCircle
 62
7
  6
CONTINUOUS
 10
120.6598456687
 20
657.9280467087
 40
5.0
100
AcDbArc
 50
347.5
 51
10.9613346964
  0
ARC
  5
6EA
100
AcDbEntity
  8
7_ALL_FEATURES
100
AcDbCircle
 62
7
  6
CONTINUOUS
 10
128.3175403226
 20
659.4111895161
 40
2.8
100
AcDbArc
 50
153.152786674
 51
190.9613346964
  0
ARC
  5
6EB
100
AcDbEntity
  8
7_ALL_FEATURES
100
AcDbCircle
 62
7
  6
CONTINUOUS
 10
128.3175403226
 20
659.4111895161
 40
2.8
100
AcDbArc
 50
330.0
 51
360.0
  0
ARC
  5
6EC
100
AcDbEntity
  8
7_ALL_FEATURES
100
AcDbCircle
 62
7
  6
CONTINUOUS
 10
138.5175403226
 20
660.8111895161
 40
1.8
100
AcDbArc
 50
90.0
 51
180.0
  0
ARC
  5
6ED
100
AcDbEntity
  8
7_ALL_FEATURES
100
AcDbCircle
 62
7
  6
CONTINUOUS
 10
128.3175403226
 20
659.4111895161
 40
1.3
100
AcDbArc
 50
130.8069228749
 51
49.1930771251
  0
ARC
  5
6EE
100
AcDbEntity
  8
7_ALL_FEATURES
100
AcDbCircle
 62
7
  6
CONTINUOUS
 10
127.7201251743
 20
654.6611895161
 40
1.0
100
AcDbArc
 50
90.0
 51
167.5
  0
ARC
  5
6EF
100
AcDbEntity
  8
7_ALL_FEATURES
100
AcDbCircle
 62
7
  6
CONTINUOUS
 10
124.9175403226
 20
640.2789983147
 40
1.0
100
AcDbArc
 50
160.0
 51
180.0
  0
ARC
  5
6F0
100
AcDbEntity
  8
7_ALL_FEATURES
100
AcDbCircle
 62
7
  6
CONTINUOUS
 10
124.8175403226
 20
661.6111895161
 40
0.5
100
AcDbArc
 50
180.0
 51
270.0
  0
ARC
  5
6F1
100
AcDbEntity
  8
7_ALL_FEATURES
100
AcDbCircle
 62
7
  6
CONTINUOUS
 10
131.1754241551
 20
657.7611895161
 40
0.5
100
AcDbArc
 50
150.0
 51
270.0
  0
ARC
  5
6F2
100
AcDbEntity
  8
7_ALL_FEATURES
100
AcDbCircle
 62
7
  6
CONTINUOUS
 10
138.3175403226
 20
655.9611895161
 40
0.3
100
AcDbArc
 50
270.0
 51
360.0
  0
ARC
  5
6F3
100
AcDbEntity
  8
7_ALL_FEATURES
100
AcDbCircle
 62
7
  6
CONTINUOUS
 10
124.0509961223
 20
641.6991334116
 40
0.3
100
AcDbArc
 50
340.0
 51
59.0362434679
  0
ARC
  5
6F4
100
AcDbEntity
  8
7_ALL_FEATURES
100
AcDbCircle
 62
7
  6
CONTINUOUS
 10
124.6175403226
 20
662.3111895161
 40
0.3
100
AcDbArc
 50
90.0
 51
180.0
  0
ARC
  5
6F5
100
AcDbEntity
  8
7_ALL_FEATURES
100
AcDbCircle
 62
7
  6
CONTINUOUS
 10
126.2968143804
 20
662.3111895161
 40
0.3
100
AcDbArc
 50
30.0
 51
90.0
  0
ARC
  5
6F6
100
AcDbEntity
  8
7_ALL_FEATURES
100
AcDbCircle
 62
7
  6
CONTINUOUS
 10
127.2719210192
 20
660.622255275
 40
0.3
100
AcDbArc
 50
310.8069228748
 51
30.0
  0
ARC
  5
6F7
100
AcDbEntity
  8
7_ALL_FEATURES
100
AcDbCircle
 62
7
  6
CONTINUOUS
 10
129.363159626
 20
660.622255275
 40
0.3
100
AcDbArc
 50
150.0
 51
229.1930771251
  0
ARC
  5
6F8
100
AcDbEntity
  8
7_ALL_FEATURES
100
AcDbCircle
 62
7
  6
CONTINUOUS
 10
130.3382662647
 20
662.3111895161
 40
0.3
100
AcDbArc
 50
90.0
 51
150.0
  0
ARC
  5
6F9
100
AcDbEntity
  8
7_ALL_FEATURES
100
AcDbCircle
 62
7
  6
CONTINUOUS
 10
130.8175403226
 20
662.3111895161
 40
0.3
100
AcDbArc
 50
0.0
 51
90.0
  0
ARC
  5
6FA
100
AcDbEntity
  8
7_ALL_FEATURES
100
AcDbCircle
 62
7
  6
CONTINUOUS
 10
125.5516769854
 20
660.8111895161
 40
0.3
100
AcDbArc
 50
333.152786674
 51
90.0
  0
ARC
  5
6FB
100
AcDbEntity
  8
7_ALL_FEATURES
100
AcDbCircle
 62
7
  6
CONTINUOUS
 10
136.4175403226
 20
657.5611895161
 40
0.3
100
AcDbArc
 50
270.0
 51
360.0
  0
ARC
  5
6FC
100
AcDbEntity
  8
7_ALL_FEATURES
100
AcDbCircle
 62
7
  6
CONTINUOUS
 10
138.9175403226
 20
660.7111895161
 40
0.3
100
AcDbArc
 50
90.0
 51
180.0
  0
ARC
  5
6FD
100
AcDbEntity
  8
7_ALL_FEATURES
100
AcDbCircle
 62
7
  6
CONTINUOUS
 10
124.2572045799
 20
642.2751225644
 40
0.3
100
AcDbArc
 50
167.5
 51
239.0362434679
  0
ARC
  5
6FE
100
AcDbEntity
  8
7_ALL_FEATURES
100
AcDbCircle
 62
7
  6
CONTINUOUS
 10
175.3675403226
 20
50.8111895161
 40
4.7990381057
100
AcDbArc
 50
128.6913826582
 51
231.3086173418
  0
ARC
  5
6FF
100
AcDbEntity
  8
7_ALL_FEATURES
100
AcDbCircle
 62
7
  6
CONTINUOUS
 10
175.3675403226
 20
300.8111895161
 40
4.7990381057
100
AcDbArc
 50
128.6913826582
 51
231.3086173418
  0
ARC
  5
700
100
AcDbEntity
  8
7_ALL_FEATURES
100
AcDbCircle
 62
7
  6
CONTINUOUS
 10
175.3675403226
 20
300.8111895161
 40
4.7990381057
100
AcDbArc
 50
90.0
 51
120.0066305519
  0
ARC
  5
701
100
AcDbEntity
  8
7_ALL_FEATURES
100
AcDbCircle
 62
7
  6
CONTINUOUS
 10
175.3675403226
 20
50.8111895161
 40
4.7990381057
100
AcDbArc
 50
90.0
 51
120.0066305519
  0
ARC
  5
702
100
AcDbEntity
  8
7_ALL_FEATURES
100
AcDbCircle
 62
7
  6
CONTINUOUS
 10
175.3675403226
 20
300.8111895161
 40
4.7990381057
100
AcDbArc
 50
239.9933694481
 51
270.0
  0
ARC
  5
703
100
AcDbEntity
  8
7_ALL_FEATURES
100
AcDbCircle
 62
7
  6
CONTINUOUS
 10
175.3675403226
 20
50.8111895161
 40
4.7990381057
100
AcDbArc
 50
239.9933694481
 51
270.0
  0
ARC
  5
704
100
AcDbEntity
  8
7_ALL_FEATURES
100
AcDbCircle
 62
7
  6
CONTINUOUS
 10
175.3675403226
 20
300.8111895161
 40
4.7990381057
100
AcDbArc
 50
43.171184019
 51
82.8177973595
  0
ARC
  5
705
100
AcDbEntity
  8
7_ALL_FEATURES
100
AcDbCircle
 62
7
  6
CONTINUOUS
 10
175.3675403226
 20
50.8111895161
 40
4.7990381057
100
AcDbArc
 50
43.171184019
 51
82.8177973595
  0
ARC
  5
706
100
AcDbEntity
  8
7_ALL_FEATURES
100
AcDbCircle
 62
7
  6
CONTINUOUS
 10
175.3675403226
 20
300.8111895161
 40
4.7990381057
100
AcDbArc
 50
277.1822026405
 51
316.828815981
  0
ARC
  5
707
100
AcDbEntity
  8
7_ALL_FEATURES
100
AcDbCircle
 62
7
  6
CONTINUOUS
 10
175.3675403226
 20
50.8111895161
 40
4.7990381057
100
AcDbArc
 50
277.1822026405
 51
316.828815981
  0
CIRCLE
  5
708
100
AcDbEntity
  8
6_ALL_SURFS
100
AcDbCircle
 62
7
  6
CONTINUOUS
 10
175.3675403226
 20
300.8111895161
 40
3.5
  0
CIRCLE
  5
709
100
AcDbEntity
  8
6_ALL_SURFS
100
AcDbCircle
 62
7
  6
CONTINUOUS
 10
175.3675403226
 20
50.8111895161
 40
3.5
  0
ARC
  5
70A
100
AcDbEntity
  8
6_ALL_SURFS
100
AcDbCircle
 62
7
  6
CONTINUOUS
 10
159.8175403226
 20
581.8131154463
 40
2.15
100
AcDbArc
 50
326.6800806294
 51
33.3199193706
  0
ARC
  5
70B
100
AcDbEntity
  8
6_ALL_SURFS
100
AcDbCircle
 62
7
  6
CONTINUOUS
 10
159.5175403226
 20
594.7111895161
 40
2.0
100
AcDbArc
 50
0.0
 51
90.0
  0
ARC
  5
70C
100
AcDbEntity
  8
6_ALL_SURFS
100
AcDbCircle
 62
7
  6
CONTINUOUS
 10
159.5175403226
 20
592.9111895161
 40
2.0
100
AcDbArc
 50
270.0
 51
360.0
  0
ARC
  5
70D
100
AcDbEntity
  8
7_ALL_FEATURES
100
AcDbCircle
 62
7
  6
CONTINUOUS
 10
159.4175403226
 20
584.6311895161
 40
1.8
100
AcDbArc
 50
122.8598803788
 51
180.0
  0
ARC
  5
70E
100
AcDbEntity
  8
6_ALL_SURFS
100
AcDbCircle
 62
7
  6
CONTINUOUS
 10
159.8675403226
 20
586.5236889671
 40
1.5
100
AcDbArc
 50
0.0
 51
43.0
  0
ARC
  5
70F
100
AcDbEntity
  8
6_ALL_SURFS
100
AcDbCircle
 62
7
  6
CONTINUOUS
 10
158.6175403226
 20
593.8111895161
 40
1.3
100
AcDbArc
 50
220.8069228749
 51
139.1930771252
  0
ARC
  5
710
100
AcDbEntity
  8
7_ALL_FEATURES
100
AcDbCircle
 62
7
  6
CONTINUOUS
 10
158.3323675253
 20
586.3111895161
 40
1.0
100
AcDbArc
 50
302.859880379
 51
43.0
  0
ARC
  5
711
100
AcDbEntity
  8
7_ALL_FEATURES
100
AcDbCircle
 62
7
  6
CONTINUOUS
 10
159.4175403226
 20
584.6311895161
 40
1.0
100
AcDbArc
 50
122.8598803787
 51
180.0
  0
ARC
  5
712
100
AcDbEntity
  8
6_ALL_SURFS
100
AcDbCircle
 62
7
  6
CONTINUOUS
 10
159.8175403226
 20
581.8131154463
 40
0.65
100
AcDbArc
 50
291.6182724222
 51
68.3817275778
  0
ARC
  5
713
100
AcDbEntity
  8
7_ALL_FEATURES
100
AcDbCircle
 62
7
  6
CONTINUOUS
 10
158.406751933
 20
587.1111895161
 40
0.4
100
AcDbArc
 50
43.0000000029
 51
223.0
  0
ARC
  5
714
100
AcDbEntity
  8
6_ALL_SURFS
100
AcDbCircle
 62
7
  6
CONTINUOUS
 10
160.1675403226
 20
568.1111895161
 40
0.3
100
AcDbArc
 50
180.0
 51
270.0
  0
ARC
  5
715
100
AcDbEntity
  8
6_ALL_SURFS
100
AcDbCircle
 62
7
  6
CONTINUOUS
 10
160.1675403226
 20
580.9299393597
 40
0.3
100
AcDbArc
 50
111.6182724222
 51
180.0
  0
ARC
  5
716
100
AcDbEntity
  8
6_ALL_SURFS
100
AcDbCircle
 62
7
  6
CONTINUOUS
 10
160.1675403226
 20
582.6962915329
 40
0.3
100
AcDbArc
 50
180.0
 51
248.3817275779
  0
ARC
  5
717
100
AcDbEntity
  8
6_ALL_SURFS
100
AcDbCircle
 62
7
  6
CONTINUOUS
 10
157.0175403226
 20
588.8611895161
 40
0.3
100
AcDbArc
 50
180.0
 51
270.0
  0
ARC
  5
718
100
AcDbEntity
  8
6_ALL_SURFS
100
AcDbCircle
 62
7
  6
CONTINUOUS
 10
157.0175403226
 20
592.5410189239
 40
0.3
100
AcDbArc
 50
120.0
 51
180.0
  0
ARC
  5
719
100
AcDbEntity
  8
6_ALL_SURFS
100
AcDbCircle
 62
7
  6
CONTINUOUS
 10
157.4064745637
 20
592.7655702127
 40
0.3
100
AcDbArc
 50
40.8069228749
 51
120.0
  0
ARC
  5
71A
100
AcDbEntity
  8
6_ALL_SURFS
100
AcDbCircle
 62
7
  6
CONTINUOUS
 10
157.4064745637
 20
594.8568088195
 40
0.3
100
AcDbArc
 50
240.0
 51
319.1930771251
  0
ARC
  5
71B
100
AcDbEntity
  8
6_ALL_SURFS
100
AcDbCircle
 62
7
  6
CONTINUOUS
 10
157.0175403226
 20
595.0813601083
 40
0.3
100
AcDbArc
 50
180.0
 51
240.0
  0
ARC
  5
71C
100
AcDbEntity
  8
6_ALL_SURFS
100
AcDbCircle
 62
7
  6
CONTINUOUS
 10
159.5675403226
 20
583.3593532385
 40
0.3
100
AcDbArc
 50
0.0
 51
37.5
  0
ARC
  5
71D
100
AcDbEntity
  8
6_ALL_SURFS
100
AcDbCircle
 62
7
  6
CONTINUOUS
 10
157.8370966101
 20
588.2611895161
 40
0.3
100
AcDbArc
 50
43.0
 51
90.0
  0
ARC
  5
71E
100
AcDbEntity
  8
6_ALL_SURFS
100
AcDbCircle
 62
7
  6
CONTINUOUS
 10
159.5675403226
 20
586.4055158244
 40
0.3
100
AcDbArc
 50
0.0
 51
43.0
  0
ARC
  5
71F
100
AcDbEntity
  8
6_ALL_SURFS
100
AcDbCircle
 62
7
  6
CONTINUOUS
 10
159.5675403226
 20
585.6111895161
 40
0.3
100
AcDbArc
 50
270.0
 51
360.0
  0
ARC
  5
720
100
AcDbEntity
  8
6_ALL_SURFS
100
AcDbCircle
 62
7
  6
CONTINUOUS
 10
158.6175403226
 20
597.0111895161
 40
0.3
100
AcDbArc
 50
180.0
 51
270.0
  0
ARC
  5
721
100
AcDbEntity
  8
6_ALL_SURFS
100
AcDbCircle
 62
7
  6
CONTINUOUS
 10
158.7675403226
 20
590.6111895161
 40
0.3
100
AcDbArc
 50
90.0
 51
180.0
  0
ARC
  5
722
100
AcDbEntity
  8
6_ALL_SURFS
100
AcDbCircle
 62
7
  6
CONTINUOUS
 10
158.7675403226
 20
590.3425970823
 40
0.3
100
AcDbArc
 50
180.0
 51
223.0
  0
ARC
  5
723
100
AcDbEntity
  8
7_ALL_FEATURES
100
AcDbCircle
 62
7
  6
CONTINUOUS
 10
157.4175403226
 20
584.1111895161
 40
0.2
100
AcDbArc
 50
270.0
 51
360.0
  0
ARC
  5
724
100
AcDbEntity
  8
7_ALL_FEATURES
100
AcDbCircle
 62
7
  6
CONTINUOUS
 10
158.3323675253
 20
586.3111895161
 40
0.2
100
AcDbArc
 50
302.8598803795
 51
43.0000000114
  0
ARC
  5
725
100
AcDbEntity
  8
7_ALL_FEATURES
100
AcDbCircle
 62
7
  6
CONTINUOUS
 10
158.6175403226
 20
584.0111895161
 40
0.2
100
AcDbArc
 50
180.0
 51
270.0
  0
ARC
  5
726
100
AcDbEntity
  8
7_ALL_FEATURES
100
AcDbCircle
 62
7
  6
CONTINUOUS
 10
159.4675403226
 20
583.6111895161
 40
0.2
100
AcDbArc
 50
0.0
 51
90.0
  0
ARC
  5
727
100
AcDbEntity
  8
7_ALL_FEATURES
100
AcDbCircle
 62
7
  6
CONTINUOUS
 10
159.4675403226
 20
583.0111895161
 40
0.2
100
AcDbArc
 50
270.0
 51
360.0
  0
ARC
  5
728
100
AcDbEntity
  8
6_ALL_SURFS
100
AcDbCircle
 62
7
  6
CONTINUOUS
 10
158.8535452752
 20
585.1111895161
 40
0.2
100
AcDbArc
 50
90.0
 51
217.5
  0
ARC
  5
729
100
AcDbEntity
  8
7_ALL_FEATURES
100
AcDbCircle
 62
7
  6
CONTINUOUS
 10
140.3175403226
 20
659.5611895161
 40
8.0
100
AcDbArc
 50
240.0
 51
255.5224878141
  0
ARC
  5
72A
100
AcDbEntity
  8
7_ALL_FEATURES
100
AcDbCircle
 62
7
  6
CONTINUOUS
 10
140.3175403226
 20
659.5611895161
 40
8.0
100
AcDbArc
 50
284.4775121859
 51
300.0
  0
ARC
  5
72B
100
AcDbEntity
  8
7_ALL_FEATURES
100
AcDbCircle
 62
7
  6
CONTINUOUS
 10
140.3175403226
 20
659.5611895161
 40
7.9843597113
100
AcDbArc
 50
255.4935070353
 51
266.4096498625
  0
ARC
  5
72C
100
AcDbEntity
  8
7_ALL_FEATURES
100
AcDbCircle
 62
7
  6
CONTINUOUS
 10
140.3175403226
 20
659.5611895161
 40
7.9843597113
100
AcDbArc
 50
273.5903501375
 51
284.5064929647
  0
ARC
  5
72D
100
AcDbEntity
  8
7_ALL_FEATURES
100
AcDbCircle
 62
7
  6
CONTINUOUS
 10
140.3175403226
 20
659.5611895161
 40
7.7459666924
100
AcDbArc
 50
266.2990001561
 51
273.7009998439
  0
ARC
  5
72E
100
AcDbEntity
  8
6_ALL_SURFS
100
AcDbCircle
 62
7
  6
CONTINUOUS
 10
153.3175403226
 20
641.7567034454
 40
5.0
100
AcDbArc
 50
0.0
 51
12.5
  0
ARC
  5
72F
100
AcDbEntity
  8
6_ALL_SURFS
100
AcDbCircle
 62
7
  6
CONTINUOUS
 10
159.9752349765
 20
657.9280467087
 40
5.0
100
AcDbArc
 50
169.0386653036
 51
192.5
  0
ARC
  5
730
100
AcDbEntity
  8
6_ALL_SURFS
100
AcDbCircle
 62
7
  6
CONTINUOUS
 10
152.3175403226
 20
659.4111895161
 40
2.8
100
AcDbArc
 50
180.0
 51
210.0
  0
ARC
  5
731
100
AcDbEntity
  8
6_ALL_SURFS
100
AcDbCircle
 62
7
  6
CONTINUOUS
 10
152.3175403226
 20
659.4111895161
 40
2.8
100
AcDbArc
 50
349.0386653036
 51
26.847213326
  0
ARC
  5
732
100
AcDbEntity
  8
6_ALL_SURFS
100
AcDbCircle
 62
7
  6
CONTINUOUS
 10
142.1175403226
 20
660.8111895161
 40
1.8
100
AcDbArc
 50
0.0
 51
90.0
  0
ARC
  5
733
100
AcDbEntity
  8
6_ALL_SURFS
100
AcDbCircle
 62
7
  6
CONTINUOUS
 10
152.3175403226
 20
659.4111895161
 40
1.3
100
AcDbArc
 50
130.8069228749
 51
49.1930771251
  0
ARC
  5
734
100
AcDbEntity
  8
6_ALL_SURFS
100
AcDbCircle
 62
7
  6
CONTINUOUS
 10
152.9149554709
 20
654.6611895161
 40
1.0
100
AcDbArc
 50
12.5
 51
90.0
  0
ARC
  5
735
100
AcDbEntity
  8
6_ALL_SURFS
100
AcDbCircle
 62
7
  6
CONTINUOUS
 10
155.7175403226
 20
640.2789983147
 40
1.0
100
AcDbArc
 50
0.0
 51
20.0
  0
ARC
  5
736
100
AcDbEntity
  8
6_ALL_SURFS
100
AcDbCircle
 62
7
  6
CONTINUOUS
 10
155.8175403226
 20
661.6111895161
 40
0.5
100
AcDbArc
 50
270.0
 51
360.0
  0
ARC
  5
737
100
AcDbEntity
  8
6_ALL_SURFS
100
AcDbCircle
 62
7
  6
CONTINUOUS
 10
149.4596564901
 20
657.7611895161
 40
0.5
100
AcDbArc
 50
270.0
 51
30.0
  0
ARC
  5
738
100
AcDbEntity
  8
6_ALL_SURFS
100
AcDbCircle
 62
7
  6
CONTINUOUS
 10
149.8175403226
 20
662.3111895161
 40
0.3
100
AcDbArc
 50
90.0
 51
180.0
  0
ARC
  5
739
100
AcDbEntity
  8
6_ALL_SURFS
100
AcDbCircle
 62
7
  6
CONTINUOUS
 10
150.2968143804
 20
662.3111895161
 40
0.3
100
AcDbArc
 50
30.0
 51
90.0
  0
ARC
  5
73A
100
AcDbEntity
  8
6_ALL_SURFS
100
AcDbCircle
 62
7
  6
CONTINUOUS
 10
151.2719210192
 20
660.622255275
 40
0.3
100
AcDbArc
 50
310.8069228749
 51
30.0
  0
ARC
  5
73B
100
AcDbEntity
  8
6_ALL_SURFS
100
AcDbCircle
 62
7
  6
CONTINUOUS
 10
153.363159626
 20
660.622255275
 40
0.3
100
AcDbArc
 50
150.0
 51
229.1930771252
  0
ARC
  5
73C
100
AcDbEntity
  8
6_ALL_SURFS
100
AcDbCircle
 62
7
  6
CONTINUOUS
 10
154.3382662647
 20
662.3111895161
 40
0.3
100
AcDbArc
 50
90.0
 51
150.0
  0
ARC
  5
73D
100
AcDbEntity
  8
6_ALL_SURFS
100
AcDbCircle
 62
7
  6
CONTINUOUS
 10
156.0175403226
 20
662.3111895161
 40
0.3
100
AcDbArc
 50
0.0
 51
90.0
  0
ARC
  5
73E
100
AcDbEntity
  8
6_ALL_SURFS
100
AcDbCircle
 62
7
  6
CONTINUOUS
 10
156.5840845229
 20
641.6991334116
 40
0.3
100
AcDbArc
 50
120.9637565321
 51
200.0
  0
ARC
  5
73F
100
AcDbEntity
  8
6_ALL_SURFS
100
AcDbCircle
 62
7
  6
CONTINUOUS
 10
142.3175403226
 20
655.9611895161
 40
0.3
100
AcDbArc
 50
180.0
 51
270.0
  0
ARC
  5
740
100
AcDbEntity
  8
6_ALL_SURFS
100
AcDbCircle
 62
7
  6
CONTINUOUS
 10
155.0834036598
 20
660.8111895161
 40
0.3
100
AcDbArc
 50
90.0
 51
206.847213326
  0
ARC
  5
741
100
AcDbEntity
  8
6_ALL_SURFS
100
AcDbCircle
 62
7
  6
CONTINUOUS
 10
144.2175403226
 20
657.5611895161
 40
0.3
100
AcDbArc
 50
180.0
 51
270.0
  0
ARC
  5
742
100
AcDbEntity
  8
6_ALL_SURFS
100
AcDbCircle
 62
7
  6
CONTINUOUS
 10
141.7175403226
 20
660.7111895161
 40
0.3
100
AcDbArc
 50
0.0
 51
90.0
  0
ARC
  5
743
100
AcDbEntity
  8
6_ALL_SURFS
100
AcDbCircle
 62
7
  6
CONTINUOUS
 10
156.3778760653
 20
642.2751225644
 40
0.3
100
AcDbArc
 50
300.9637565321
 51
12.5
  0
ARC
  5
744
100
AcDbEntity
  8
7_ALL_FEATURES
100
AcDbCircle
 62
7
  6
CONTINUOUS
 10
175.3675403226
 20
550.8111895161
 40
4.7990381057
100
AcDbArc
 50
128.6913826582
 51
231.3086173418
  0
ARC
  5
745
100
AcDbEntity
  8
7_ALL_FEATURES
100
AcDbCircle
 62
7
  6
CONTINUOUS
 10
175.3675403226
 20
550.8111895161
 40
4.7990381057
100
AcDbArc
 50
90.0
 51
120.0066305519
  0
ARC
  5
746
100
AcDbEntity
  8
7_ALL_FEATURES
100
AcDbCircle
 62
7
  6
CONTINUOUS
 10
175.3675403226
 20
550.8111895161
 40
4.7990381057
100
AcDbArc
 50
239.9933694481
 51
270.0
  0
ARC
  5
747
100
AcDbEntity
  8
7_ALL_FEATURES
100
AcDbCircle
 62
7
  6
CONTINUOUS
 10
175.3675403226
 20
550.8111895161
 40
4.7990381057
100
AcDbArc
 50
43.171184019
 51
82.8177973595
  0
ARC
  5
748
100
AcDbEntity
  8
7_ALL_FEATURES
100
AcDbCircle
 62
7
  6
CONTINUOUS
 10
175.3675403226
 20
550.8111895161
 40
4.7990381057
100
AcDbArc
 50
277.1822026405
 51
316.828815981
  0
CIRCLE
  5
749
100
AcDbEntity
  8
6_ALL_SURFS
100
AcDbCircle
 62
7
  6
CONTINUOUS
 10
175.3675403226
 20
550.8111895161
 40
3.5
  0
ARC
  5
74A
100
AcDbEntity
  8
6_ALL_SURFS
100
AcDbCircle
 62
7
  6
CONTINUOUS
 10
162.8675403226
 20
583.8181092119
 40
1.5
100
AcDbArc
 50
180.0
 51
213.3199193706
  0
ARC
  5
74B
100
AcDbEntity
  8
6_ALL_SURFS
100
AcDbCircle
 62
7
  6
CONTINUOUS
 10
162.8675403226
 20
579.8081216807
 40
1.5
100
AcDbArc
 50
146.6800806294
 51
180.0
  0
ARC
  5
74C
100
AcDbEntity
  8
6_ALL_SURFS
100
AcDbCircle
 62
7
  6
CONTINUOUS
 10
175.6675403226
 20
568.9111895161
 40
0.5
100
AcDbArc
 50
53.1301023542
 51
126.8698976458
  0
ARC
  5
74D
100
AcDbEntity
  8
6_ALL_SURFS
100
AcDbCircle
 62
7
  6
CONTINUOUS
 10
172.6675403226
 20
568.9111895161
 40
0.5
100
AcDbArc
 50
53.1301023542
 51
126.8698976458
  0
ARC
  5
74E
100
AcDbEntity
  8
6_ALL_SURFS
100
AcDbCircle
 62
7
  6
CONTINUOUS
 10
169.6675403226
 20
568.9111895161
 40
0.5
100
AcDbArc
 50
53.1301023542
 51
126.8698976458
  0
ARC
  5
74F
100
AcDbEntity
  8
6_ALL_SURFS
100
AcDbCircle
 62
7
  6
CONTINUOUS
 10
166.6675403226
 20
568.9111895161
 40
0.5
100
AcDbArc
 50
53.1301023542
 51
126.8698976458
  0
ARC
  5
750
100
AcDbEntity
  8
6_ALL_SURFS
100
AcDbCircle
 62
7
  6
CONTINUOUS
 10
163.6675403226
 20
568.9111895161
 40
0.5
100
AcDbArc
 50
53.1301023542
 51
126.8698976458
  0
ARC
  5
751
100
AcDbEntity
  8
6_ALL_SURFS
100
AcDbCircle
 62
7
  6
CONTINUOUS
 10
180.9738369647
 20
569.9174861582
 40
0.3937033579
100
AcDbArc
 50
275.7105931375
 51
90.0
  0
ARC
  5
752
100
AcDbEntity
  8
6_ALL_SURFS
100
AcDbCircle
 62
7
  6
CONTINUOUS
 10
160.8175403226
 20
568.1111895161
 40
0.3
100
AcDbArc
 50
270.0
 51
360.0
  0
ARC
  5
753
100
AcDbEntity
  8
6_ALL_SURFS
100
AcDbCircle
 62
7
  6
CONTINUOUS
 10
161.6675403226
 20
570.6111895161
 40
0.3
100
AcDbArc
 50
180.0
 51
270.0
  0
ARC
  5
754
100
AcDbEntity
  8
6_ALL_SURFS
100
AcDbCircle
 62
7
  6
CONTINUOUS
 10
161.4175403226
 20
569.0111895161
 40
0.3
100
AcDbArc
 50
90.0
 51
180.0
  0
SPLINE
  5
755
100
AcDbEntity
  8
7_ALL_FEATURES
100
AcDbSpline
 62
7
  6
CONTINUOUS
 70
0
 71
3
 72
13
 73
9
 74
0
 42
0.0000001
 43
0.0000001
 44
0.0000000001
 40
0.0
 40
0.0
 40
0.0
 40
0.0
 40
0.1142400004
 40
0.2356675797
 40
0.3641475735
 40
0.4940022787
 40
0.7498493214
 40
1.0
 40
1.0
 40
1.0
 40
1.0
 10
415.247983491
 20
789.0021169355
 30
0.0
 10
415.2686090969
 20
789.0260054691
 30
0.0
 10
415.303083803
 20
789.0846102225
 30
0.0
 10
415.3011481814
 20
789.1899113336
 30
0.0
 10
415.2539527325
 20
789.2857682031
 30
0.0
 10
415.1627166993
 20
789.3954567737
 30
0.0
 10
415.0226726482
 20
789.5041749766
 30
0.0
 10
414.9002093201
 20
789.5721446709
 30
0.0
 10
414.8379387988
 20
789.6021169355
 30
0.0
  0
SPLINE
  5
756
100
AcDbEntity
  8
7_ALL_FEATURES
100
AcDbSpline
 62
7
  6
CONTINUOUS
 70
0
 71
3
 72
13
 73
9
 74
0
 42
0.0000001
 43
0.0000001
 44
0.0000000001
 40
0.0
 40
0.0
 40
0.0
 40
0.0
 40
0.1142400004
 40
0.2356675797
 40
0.3641475735
 40
0.4940022787
 40
0.7498493214
 40
1.0
 40
1.0
 40
1.0
 40
1.0
 10
665.247983491
 20
789.0021169355
 30
0.0
 10
665.2686090969
 20
789.0260054691
 30
0.0
 10
665.303083803
 20
789.0846102225
 30
0.0
 10
665.3011481814
 20
789.1899113336
 30
0.0
 10
665.2539527325
 20
789.2857682031
 30
0.0
 10
665.1627166993
 20
789.3954567737
 30
0.0
 10
665.0226726482
 20
789.5041749766
 30
0.0
 10
664.9002093201
 20
789.5721446709
 30
0.0
 10
664.8379387988
 20
789.6021169355
 30
0.0
  0
SPLINE
  5
757
100
AcDbEntity
  8
7_ALL_FEATURES
100
AcDbSpline
 62
7
  6
CONTINUOUS
 70
0
 71
3
 72
13
 73
9
 74
0
 42
0.0000001
 43
0.0000001
 44
0.0000000001
 40
0.0
 40
0.0
 40
0.0
 40
0.0
 40
0.2501530023
 40
0.506002219
 40
0.6358582271
 40
0.7643392319
 40
0.885762938
 40
1.0
 40
1.0
 40
1.0
 40
1.0
 10
423.1495612012
 20
789.6021169355
 30
0.0
 10
423.0872900844
 20
789.5721443843
 30
0.0
 10
422.9648256158
 20
789.5041740468
 30
0.0
 10
422.8247807635
 20
789.3954541117
 30
0.0
 10
422.7335443073
 20
789.2857642731
 30
0.0
 10
422.6863501543
 20
789.1899068598
 30
0.0
 10
422.684417554
 20
789.0846075531
 30
0.0
 10
422.718891428
 20
789.0260048612
 30
0.0
 10
422.739516509
 20
789.0021169355
 30
0.0
  0
SPLINE
  5
758
100
AcDbEntity
  8
7_ALL_FEATURES
100
AcDbSpline
 62
7
  6
CONTINUOUS
 70
0
 71
3
 72
13
 73
9
 74
0
 42
0.0000001
 43
0.0000001
 44
0.0000000001
 40
0.0
 40
0.0
 40
0.0
 40
0.0
 40
0.1142400004
 40
0.2356675797
 40
0.3641475735
 40
0.4940022787
 40
0.7498493214
 40
1.0
 40
1.0
 40
1.0
 40
1.0
 10
915.247983491
 20
789.0021169355
 30
0.0
 10
915.2686090969
 20
789.0260054691
 30
0.0
 10
915.303083803
 20
789.0846102225
 30
0.0
 10
915.3011481814
 20
789.1899113336
 30
0.0
 10
915.2539527325
 20
789.2857682031
 30
0.0
 10
915.1627166993
 20
789.3954567737
 30
0.0
 10
915.0226726482
 20
789.5041749766
 30
0.0
 10
914.9002093201
 20
789.5721446709
 30
0.0
 10
914.8379387988
 20
789.6021169355
 30
0.0
  0
SPLINE
  5
759
100
AcDbEntity
  8
7_ALL_FEATURES
100
AcDbSpline
 62
7
  6
CONTINUOUS
 70
0
 71
3
 72
13
 73
9
 74
0
 42
0.0000001
 43
0.0000001
 44
0.0000000001
 40
0.0
 40
0.0
 40
0.0
 40
0.0
 40
0.2501530023
 40
0.506002219
 40
0.6358582271
 40
0.7643392319
 40
0.885762938
 40
1.0
 40
1.0
 40
1.0
 40
1.0
 10
673.1495612012
 20
789.6021169355
 30
0.0
 10
673.0872900844
 20
789.5721443843
 30
0.0
 10
672.9648256158
 20
789.5041740468
 30
0.0
 10
672.8247807635
 20
789.3954541117
 30
0.0
 10
672.7335443073
 20
789.2857642731
 30
0.0
 10
672.6863501543
 20
789.1899068598
 30
0.0
 10
672.684417554
 20
789.0846075531
 30
0.0
 10
672.718891428
 20
789.0260048612
 30
0.0
 10
672.739516509
 20
789.0021169355
 30
0.0
  0
SPLINE
  5
75A
100
AcDbEntity
  8
7_ALL_FEATURES
100
AcDbSpline
 62
7
  6
CONTINUOUS
 70
0
 71
3
 72
13
 73
9
 74
0
 42
0.0000001
 43
0.0000001
 44
0.0000000001
 40
0.0
 40
0.0
 40
0.0
 40
0.0
 40
0.2501530023
 40
0.506002219
 40
0.6358582271
 40
0.7643392319
 40
0.885762938
 40
1.0
 40
1.0
 40
1.0
 40
1.0
 10
923.1495612012
 20
789.6021169355
 30
0.0
 10
923.0872900844
 20
789.5721443843
 30
0.0
 10
922.9648256158
 20
789.5041740468
 30
0.0
 10
922.8247807635
 20
789.3954541117
 30
0.0
 10
922.7335443073
 20
789.2857642731
 30
0.0
 10
922.6863501543
 20
789.1899068598
 30
0.0
 10
922.684417554
 20
789.0846075531
 30
0.0
 10
922.718891428
 20
789.0260048612
 30
0.0
 10
922.739516509
 20
789.0021169355
 30
0.0
  0
SPLINE
  5
75B
100
AcDbEntity
  8
7_ALL_FEATURES
100
AcDbSpline
 62
7
  6
CONTINUOUS
 70
0
 71
3
 72
11
 73
7
 74
0
 42
0.0000001
 43
0.0000001
 44
0.0000000001
 40
0.0
 40
0.0
 40
0.0
 40
0.0
 40
0.2446246163
 40
0.5012345397
 40
0.7575061497
 40
1.0
 40
1.0
 40
1.0
 40
1.0
 10
414.1947118943
 20
792.0021169355
 30
0.0
 10
414.2400807675
 20
792.0370419104
 30
0.0
 10
414.324974645
 20
792.1206062846
 30
0.0
 10
414.3959550639
 20
792.2924470274
 30
0.0
 10
414.3554260223
 20
792.475638051
 30
0.0
 10
414.2757164119
 20
792.5654826447
 30
0.0
 10
414.23236714
 20
792.6021169355
 30
0.0
  0
SPLINE
  5
75C
100
AcDbEntity
  8
7_ALL_FEATURES
100
AcDbSpline
 62
7
  6
CONTINUOUS
 70
0
 71
3
 72
11
 73
7
 74
0
 42
0.0000001
 43
0.0000001
 44
0.0000000001
 40
0.0
 40
0.0
 40
0.0
 40
0.0
 40
0.2446246163
 40
0.5012345397
 40
0.7575061497
 40
1.0
 40
1.0
 40
1.0
 40
1.0
 10
664.1947118943
 20
792.0021169355
 30
0.0
 10
664.2400807675
 20
792.0370419104
 30
0.0
 10
664.324974645
 20
792.1206062846
 30
0.0
 10
664.3959550639
 20
792.2924470274
 30
0.0
 10
664.3554260223
 20
792.475638051
 30
0.0
 10
664.2757164119
 20
792.5654826447
 30
0.0
 10
664.23236714
 20
792.6021169355
 30
0.0
  0
SPLINE
  5
75D
100
AcDbEntity
  8
7_ALL_FEATURES
100
AcDbSpline
 62
7
  6
CONTINUOUS
 70
0
 71
3
 72
11
 73
7
 74
0
 42
0.0000001
 43
0.0000001
 44
0.0000000001
 40
0.0
 40
0.0
 40
0.0
 40
0.0
 40
0.2424938503
 40
0.4987654603
 40
0.7553753837
 40
1.0
 40
1.0
 40
1.0
 40
1.0
 10
423.75513286
 20
792.6021169355
 30
0.0
 10
423.7117835881
 20
792.5654826447
 30
0.0
 10
423.6320739777
 20
792.475638051
 30
0.0
 10
423.5915449361
 20
792.2924470274
 30
0.0
 10
423.662525355
 20
792.1206062846
 30
0.0
 10
423.7474192325
 20
792.0370419104
 30
0.0
 10
423.7927881057
 20
792.0021169355
 30
0.0
  0
SPLINE
  5
75E
100
AcDbEntity
  8
7_ALL_FEATURES
100
AcDbSpline
 62
7
  6
CONTINUOUS
 70
0
 71
3
 72
11
 73
7
 74
0
 42
0.0000001
 43
0.0000001
 44
0.0000000001
 40
0.0
 40
0.0
 40
0.0
 40
0.0
 40
0.2446246163
 40
0.5012345397
 40
0.7575061497
 40
1.0
 40
1.0
 40
1.0
 40
1.0
 10
914.1947118943
 20
792.0021169355
 30
0.0
 10
914.2400807675
 20
792.0370419104
 30
0.0
 10
914.324974645
 20
792.1206062846
 30
0.0
 10
914.3959550639
 20
792.2924470274
 30
0.0
 10
914.3554260223
 20
792.475638051
 30
0.0
 10
914.2757164119
 20
792.5654826447
 30
0.0
 10
914.23236714
 20
792.6021169355
 30
0.0
  0
SPLINE
  5
75F
100
AcDbEntity
  8
7_ALL_FEATURES
100
AcDbSpline
 62
7
  6
CONTINUOUS
 70
0
 71
3
 72
11
 73
7
 74
0
 42
0.0000001
 43
0.0000001
 44
0.0000000001
 40
0.0
 40
0.0
 40
0.0
 40
0.0
 40
0.2424938503
 40
0.4987654603
 40
0.7553753837
 40
1.0
 40
1.0
 40
1.0
 40
1.0
 10
673.75513286
 20
792.6021169355
 30
0.0
 10
673.7117835881
 20
792.5654826447
 30
0.0
 10
673.6320739777
 20
792.475638051
 30
0.0
 10
673.5915449361
 20
792.2924470274
 30
0.0
 10
673.662525355
 20
792.1206062846
 30
0.0
 10
673.7474192325
 20
792.0370419104
 30
0.0
 10
673.7927881057
 20
792.0021169355
 30
0.0
  0
SPLINE
  5
760
100
AcDbEntity
  8
7_ALL_FEATURES
100
AcDbSpline
 62
7
  6
CONTINUOUS
 70
0
 71
3
 72
11
 73
7
 74
0
 42
0.0000001
 43
0.0000001
 44
0.0000000001
 40
0.0
 40
0.0
 40
0.0
 40
0.0
 40
0.2424938503
 40
0.4987654603
 40
0.7553753837
 40
1.0
 40
1.0
 40
1.0
 40
1.0
 10
923.75513286
 20
792.6021169355
 30
0.0
 10
923.7117835881
 20
792.5654826447
 30
0.0
 10
923.6320739777
 20
792.475638051
 30
0.0
 10
923.5915449361
 20
792.2924470274
 30
0.0
 10
923.662525355
 20
792.1206062846
 30
0.0
 10
923.7474192325
 20
792.0370419104
 30
0.0
 10
923.7927881057
 20
792.0021169355
 30
0.0
  0
SPLINE
  5
761
100
AcDbEntity
  8
6_ALL_SURFS
100
AcDbSpline
 62
7
  6
CONTINUOUS
 70
0
 71
3
 72
11
 73
7
 74
0
 42
0.0000001
 43
0.0000001
 44
0.0000000001
 40
0.0
 40
0.0
 40
0.0
 40
0.0
 40
0.2424938503
 40
0.4987654603
 40
0.7553753837
 40
1.0
 40
1.0
 40
1.0
 40
1.0
 10
923.75513286
 20
721.3021169355
 30
0.0
 10
923.7117835881
 20
721.3387512263
 30
0.0
 10
923.6320739777
 20
721.42859582
 30
0.0
 10
923.5915449361
 20
721.6117868436
 30
0.0
 10
923.662525355
 20
721.7836275864
 30
0.0
 10
923.7474192325
 20
721.8671919606
 30
0.0
 10
923.7927881057
 20
721.9021169355
 30
0.0
  0
SPLINE
  5
762
100
AcDbEntity
  8
6_ALL_SURFS
100
AcDbSpline
 62
7
  6
CONTINUOUS
 70
0
 71
3
 72
11
 73
7
 74
0
 42
0.0000001
 43
0.0000001
 44
0.0000000001
 40
0.0
 40
0.0
 40
0.0
 40
0.0
 40
0.2424938503
 40
0.4987654603
 40
0.7553753837
 40
1.0
 40
1.0
 40
1.0
 40
1.0
 10
673.75513286
 20
721.3021169355
 30
0.0
 10
673.7117835881
 20
721.3387512263
 30
0.0
 10
673.6320739777
 20
721.42859582
 30
0.0
 10
673.5915449361
 20
721.6117868436
 30
0.0
 10
673.662525355
 20
721.7836275864
 30
0.0
 10
673.7474192325
 20
721.8671919606
 30
0.0
 10
673.7927881057
 20
721.9021169355
 30
0.0
  0
SPLINE
  5
763
100
AcDbEntity
  8
6_ALL_SURFS
100
AcDbSpline
 62
7
  6
CONTINUOUS
 70
0
 71
3
 72
11
 73
7
 74
0
 42
0.0000001
 43
0.0000001
 44
0.0000000001
 40
0.0
 40
0.0
 40
0.0
 40
0.0
 40
0.2446246163
 40
0.5012345397
 40
0.7575061497
 40
1.0
 40
1.0
 40
1.0
 40
1.0
 10
914.1947118943
 20
721.9021169355
 30
0.0
 10
914.2400807675
 20
721.8671919606
 30
0.0
 10
914.324974645
 20
721.7836275864
 30
0.0
 10
914.3959550639
 20
721.6117868436
 30
0.0
 10
914.3554260223
 20
721.42859582
 30
0.0
 10
914.2757164119
 20
721.3387512263
 30
0.0
 10
914.23236714
 20
721.3021169355
 30
0.0
  0
SPLINE
  5
764
100
AcDbEntity
  8
6_ALL_SURFS
100
AcDbSpline
 62
7
  6
CONTINUOUS
 70
0
 71
3
 72
11
 73
7
 74
0
 42
0.0000001
 43
0.0000001
 44
0.0000000001
 40
0.0
 40
0.0
 40
0.0
 40
0.0
 40
0.2424938503
 40
0.4987654603
 40
0.7553753837
 40
1.0
 40
1.0
 40
1.0
 40
1.0
 10
423.75513286
 20
721.3021169355
 30
0.0
 10
423.7117835881
 20
721.3387512263
 30
0.0
 10
423.6320739777
 20
721.42859582
 30
0.0
 10
423.5915449361
 20
721.6117868436
 30
0.0
 10
423.662525355
 20
721.7836275864
 30
0.0
 10
423.7474192325
 20
721.8671919606
 30
0.0
 10
423.7927881057
 20
721.9021169355
 30
0.0
  0
SPLINE
  5
765
100
AcDbEntity
  8
6_ALL_SURFS
100
AcDbSpline
 62
7
  6
CONTINUOUS
 70
0
 71
3
 72
11
 73
7
 74
0
 42
0.0000001
 43
0.0000001
 44
0.0000000001
 40
0.0
 40
0.0
 40
0.0
 40
0.0
 40
0.2446246163
 40
0.5012345397
 40
0.7575061497
 40
1.0
 40
1.0
 40
1.0
 40
1.0
 10
664.1947118943
 20
721.9021169355
 30
0.0
 10
664.2400807675
 20
721.8671919606
 30
0.0
 10
664.324974645
 20
721.7836275864
 30
0.0
 10
664.3959550639
 20
721.6117868436
 30
0.0
 10
664.3554260223
 20
721.42859582
 30
0.0
 10
664.2757164119
 20
721.3387512263
 30
0.0
 10
664.23236714
 20
721.3021169355
 30
0.0
  0
SPLINE
  5
766
100
AcDbEntity
  8
6_ALL_SURFS
100
AcDbSpline
 62
7
  6
CONTINUOUS
 70
0
 71
3
 72
11
 73
7
 74
0
 42
0.0000001
 43
0.0000001
 44
0.0000000001
 40
0.0
 40
0.0
 40
0.0
 40
0.0
 40
0.2446246163
 40
0.5012345397
 40
0.7575061497
 40
1.0
 40
1.0
 40
1.0
 40
1.0
 10
414.1947118943
 20
721.9021169355
 30
0.0
 10
414.2400807675
 20
721.8671919606
 30
0.0
 10
414.324974645
 20
721.7836275864
 30
0.0
 10
414.3959550639
 20
721.6117868436
 30
0.0
 10
414.3554260223
 20
721.42859582
 30
0.0
 10
414.2757164119
 20
721.3387512263
 30
0.0
 10
414.23236714
 20
721.3021169355
 30
0.0
  0
SPLINE
  5
767
100
AcDbEntity
  8
6_ALL_SURFS
100
AcDbSpline
 62
7
  6
CONTINUOUS
 70
0
 71
3
 72
13
 73
9
 74
0
 42
0.0000001
 43
0.0000001
 44
0.0000000001
 40
0.0
 40
0.0
 40
0.0
 40
0.0
 40
0.2501530023
 40
0.506002219
 40
0.6358582271
 40
0.7643392319
 40
0.885762938
 40
1.0
 40
1.0
 40
1.0
 40
1.0
 10
923.1495612012
 20
724.3021169355
 30
0.0
 10
923.0872900844
 20
724.3320894867
 30
0.0
 10
922.9648256158
 20
724.4000598242
 30
0.0
 10
922.8247807635
 20
724.5087797593
 30
0.0
 10
922.7335443073
 20
724.6184695979
 30
0.0
 10
922.6863501543
 20
724.7143270111
 30
0.0
 10
922.684417554
 20
724.8196263178
 30
0.0
 10
922.718891428
 20
724.8782290098
 30
0.0
 10
922.739516509
 20
724.9021169355
 30
0.0
  0
SPLINE
  5
768
100
AcDbEntity
  8
6_ALL_SURFS
100
AcDbSpline
 62
7
  6
CONTINUOUS
 70
0
 71
3
 72
13
 73
9
 74
0
 42
0.0000001
 43
0.0000001
 44
0.0000000001
 40
0.0
 40
0.0
 40
0.0
 40
0.0
 40
0.2501530023
 40
0.506002219
 40
0.6358582271
 40
0.7643392319
 40
0.885762938
 40
1.0
 40
1.0
 40
1.0
 40
1.0
 10
673.1495612012
 20
724.3021169355
 30
0.0
 10
673.0872900844
 20
724.3320894867
 30
0.0
 10
672.9648256158
 20
724.4000598242
 30
0.0
 10
672.8247807635
 20
724.5087797593
 30
0.0
 10
672.7335443073
 20
724.6184695979
 30
0.0
 10
672.6863501543
 20
724.7143270111
 30
0.0
 10
672.684417554
 20
724.8196263178
 30
0.0
 10
672.718891428
 20
724.8782290098
 30
0.0
 10
672.739516509
 20
724.9021169355
 30
0.0
  0
SPLINE
  5
769
100
AcDbEntity
  8
6_ALL_SURFS
100
AcDbSpline
 62
7
  6
CONTINUOUS
 70
0
 71
3
 72
13
 73
9
 74
0
 42
0.0000001
 43
0.0000001
 44
0.0000000001
 40
0.0
 40
0.0
 40
0.0
 40
0.0
 40
0.1142400004
 40
0.2356675797
 40
0.3641475735
 40
0.4940022787
 40
0.7498493214
 40
1.0
 40
1.0
 40
1.0
 40
1.0
 10
915.247983491
 20
724.9021169355
 30
0.0
 10
915.2686090969
 20
724.8782284018
 30
0.0
 10
915.303083803
 20
724.8196236485
 30
0.0
 10
915.3011481814
 20
724.7143225374
 30
0.0
 10
915.2539527325
 20
724.6184656678
 30
0.0
 10
915.1627166993
 20
724.5087770972
 30
0.0
 10
915.0226726482
 20
724.4000588944
 30
0.0
 10
914.9002093201
 20
724.3320892001
 30
0.0
 10
914.8379387988
 20
724.3021169355
 30
0.0
  0
SPLINE
  5
76A
100
AcDbEntity
  8
6_ALL_SURFS
100
AcDbSpline
 62
7
  6
CONTINUOUS
 70
0
 71
3
 72
13
 73
9
 74
0
 42
0.0000001
 43
0.0000001
 44
0.0000000001
 40
0.0
 40
0.0
 40
0.0
 40
0.0
 40
0.2501530023
 40
0.506002219
 40
0.6358582271
 40
0.7643392319
 40
0.885762938
 40
1.0
 40
1.0
 40
1.0
 40
1.0
 10
423.1495612012
 20
724.3021169355
 30
0.0
 10
423.0872900844
 20
724.3320894867
 30
0.0
 10
422.9648256158
 20
724.4000598242
 30
0.0
 10
422.8247807635
 20
724.5087797593
 30
0.0
 10
422.7335443073
 20
724.6184695979
 30
0.0
 10
422.6863501543
 20
724.7143270111
 30
0.0
 10
422.684417554
 20
724.8196263178
 30
0.0
 10
422.718891428
 20
724.8782290098
 30
0.0
 10
422.739516509
 20
724.9021169355
 30
0.0
  0
SPLINE
  5
76B
100
AcDbEntity
  8
6_ALL_SURFS
100
AcDbSpline
 62
7
  6
CONTINUOUS
 70
0
 71
3
 72
13
 73
9
 74
0
 42
0.0000001
 43
0.0000001
 44
0.0000000001
 40
0.0
 40
0.0
 40
0.0
 40
0.0
 40
0.1142400004
 40
0.2356675797
 40
0.3641475735
 40
0.4940022787
 40
0.7498493214
 40
1.0
 40
1.0
 40
1.0
 40
1.0
 10
665.247983491
 20
724.9021169355
 30
0.0
 10
665.2686090969
 20
724.8782284018
 30
0.0
 10
665.303083803
 20
724.8196236485
 30
0.0
 10
665.3011481814
 20
724.7143225374
 30
0.0
 10
665.2539527325
 20
724.6184656678
 30
0.0
 10
665.1627166993
 20
724.5087770972
 30
0.0
 10
665.0226726482
 20
724.4000588944
 30
0.0
 10
664.9002093201
 20
724.3320892001
 30
0.0
 10
664.8379387988
 20
724.3021169355
 30
0.0
  0
SPLINE
  5
76C
100
AcDbEntity
  8
6_ALL_SURFS
100
AcDbSpline
 62
7
  6
CONTINUOUS
 70
0
 71
3
 72
13
 73
9
 74
0
 42
0.0000001
 43
0.0000001
 44
0.0000000001
 40
0.0
 40
0.0
 40
0.0
 40
0.0
 40
0.1142400004
 40
0.2356675797
 40
0.3641475735
 40
0.4940022787
 40
0.7498493214
 40
1.0
 40
1.0
 40
1.0
 40
1.0
 10
415.247983491
 20
724.9021169355
 30
0.0
 10
415.2686090969
 20
724.8782284018
 30
0.0
 10
415.303083803
 20
724.8196236485
 30
0.0
 10
415.3011481814
 20
724.7143225374
 30
0.0
 10
415.2539527325
 20
724.6184656678
 30
0.0
 10
415.1627166993
 20
724.5087770972
 30
0.0
 10
415.0226726482
 20
724.4000588944
 30
0.0
 10
414.9002093201
 20
724.3320892001
 30
0.0
 10
414.8379387988
 20
724.3021169355
 30
0.0
  0
SPLINE
  5
76D
100
AcDbEntity
  8
7_ALL_FEATURES
100
AcDbSpline
 62
7
  6
CONTINUOUS
 70
0
 71
3
 72
13
 73
9
 74
0
 42
0.0000001
 43
0.0000001
 44
0.0000000001
 40
0.0
 40
0.0
 40
0.0
 40
0.0
 40
0.1142400004
 40
0.2356675797
 40
0.3641475735
 40
0.4940022787
 40
0.7498493214
 40
1.0
 40
1.0
 40
1.0
 40
1.0
 10
172.3675403226
 20
554.5569560251
 30
0.0
 10
172.3914288562
 20
554.5363304192
 30
0.0
 10
172.4500336096
 20
554.5018557131
 30
0.0
 10
172.5553347207
 20
554.5037913347
 30
0.0
 10
172.6511915902
 20
554.5509867837
 30
0.0
 10
172.7608801608
 20
554.6422228168
 30
0.0
 10
172.8695983637
 20
554.7822668679
 30
0.0
 10
172.937568058
 20
554.904730196
 30
0.0
 10
172.9675403226
 20
554.9670007173
 30
0.0
  0
SPLINE
  5
76E
100
AcDbEntity
  8
7_ALL_FEATURES
100
AcDbSpline
 62
7
  6
CONTINUOUS
 70
0
 71
3
 72
13
 73
9
 74
0
 42
0.0000001
 43
0.0000001
 44
0.0000000001
 40
0.0
 40
0.0
 40
0.0
 40
0.0
 40
0.1142400004
 40
0.2356675797
 40
0.3641475735
 40
0.4940022787
 40
0.7498493214
 40
1.0
 40
1.0
 40
1.0
 40
1.0
 10
172.3675403226
 20
304.5569560251
 30
0.0
 10
172.3914288562
 20
304.5363304192
 30
0.0
 10
172.4500336096
 20
304.5018557131
 30
0.0
 10
172.5553347207
 20
304.5037913347
 30
0.0
 10
172.6511915902
 20
304.5509867837
 30
0.0
 10
172.7608801608
 20
304.6422228168
 30
0.0
 10
172.8695983637
 20
304.7822668679
 30
0.0
 10
172.937568058
 20
304.904730196
 30
0.0
 10
172.9675403226
 20
304.9670007173
 30
0.0
  0
SPLINE
  5
76F
100
AcDbEntity
  8
7_ALL_FEATURES
100
AcDbSpline
 62
7
  6
CONTINUOUS
 70
0
 71
3
 72
13
 73
9
 74
0
 42
0.0000001
 43
0.0000001
 44
0.0000000001
 40
0.0
 40
0.0
 40
0.0
 40
0.0
 40
0.2501530023
 40
0.506002219
 40
0.6358582271
 40
0.7643392319
 40
0.885762938
 40
1.0
 40
1.0
 40
1.0
 40
1.0
 10
172.9675403226
 20
546.655378315
 30
0.0
 10
172.9375677714
 20
546.7176494317
 30
0.0
 10
172.8695974339
 20
546.8401139003
 30
0.0
 10
172.7608774988
 20
546.9801587526
 30
0.0
 10
172.6511876602
 20
547.0713952089
 30
0.0
 10
172.5553302469
 20
547.1185893618
 30
0.0
 10
172.4500309402
 20
547.1205219622
 30
0.0
 10
172.3914282483
 20
547.0860480882
 30
0.0
 10
172.3675403226
 20
547.0654230072
 30
0.0
  0
SPLINE
  5
770
100
AcDbEntity
  8
7_ALL_FEATURES
100
AcDbSpline
 62
7
  6
CONTINUOUS
 70
0
 71
3
 72
13
 73
9
 74
0
 42
0.0000001
 43
0.0000001
 44
0.0000000001
 40
0.0
 40
0.0
 40
0.0
 40
0.0
 40
0.1142400004
 40
0.2356675797
 40
0.3641475735
 40
0.4940022787
 40
0.7498493214
 40
1.0
 40
1.0
 40
1.0
 40
1.0
 10
172.3675403226
 20
54.5569560251
 30
0.0
 10
172.3914288562
 20
54.5363304192
 30
0.0
 10
172.4500336096
 20
54.5018557131
 30
0.0
 10
172.5553347207
 20
54.5037913347
 30
0.0
 10
172.6511915902
 20
54.5509867837
 30
0.0
 10
172.7608801608
 20
54.6422228168
 30
0.0
 10
172.8695983637
 20
54.7822668679
 30
0.0
 10
172.937568058
 20
54.904730196
 30
0.0
 10
172.9675403226
 20
54.9670007173
 30
0.0
  0
SPLINE
  5
771
100
AcDbEntity
  8
7_ALL_FEATURES
100
AcDbSpline
 62
7
  6
CONTINUOUS
 70
0
 71
3
 72
13
 73
9
 74
0
 42
0.0000001
 43
0.0000001
 44
0.0000000001
 40
0.0
 40
0.0
 40
0.0
 40
0.0
 40
0.2501530023
 40
0.506002219
 40
0.6358582271
 40
0.7643392319
 40
0.885762938
 40
1.0
 40
1.0
 40
1.0
 40
1.0
 10
172.9675403226
 20
296.655378315
 30
0.0
 10
172.9375677714
 20
296.7176494317
 30
0.0
 10
172.8695974339
 20
296.8401139003
 30
0.0
 10
172.7608774988
 20
296.9801587526
 30
0.0
 10
172.6511876602
 20
297.0713952089
 30
0.0
 10
172.5553302469
 20
297.1185893618
 30
0.0
 10
172.4500309402
 20
297.1205219622
 30
0.0
 10
172.3914282483
 20
297.0860480882
 30
0.0
 10
172.3675403226
 20
297.0654230072
 30
0.0
  0
SPLINE
  5
772
100
AcDbEntity
  8
7_ALL_FEATURES
100
AcDbSpline
 62
7
  6
CONTINUOUS
 70
0
 71
3
 72
13
 73
9
 74
0
 42
0.0000001
 43
0.0000001
 44
0.0000000001
 40
0.0
 40
0.0
 40
0.0
 40
0.0
 40
0.2501530023
 40
0.506002219
 40
0.6358582271
 40
0.7643392319
 40
0.885762938
 40
1.0
 40
1.0
 40
1.0
 40
1.0
 10
172.9675403226
 20
46.655378315
 30
0.0
 10
172.9375677714
 20
46.7176494317
 30
0.0
 10
172.8695974339
 20
46.8401139003
 30
0.0
 10
172.7608774988
 20
46.9801587526
 30
0.0
 10
172.6511876602
 20
47.0713952089
 30
0.0
 10
172.5553302469
 20
47.1185893618
 30
0.0
 10
172.4500309402
 20
47.1205219622
 30
0.0
 10
172.3914282483
 20
47.0860480882
 30
0.0
 10
172.3675403226
 20
47.0654230072
 30
0.0
  0
SPLINE
  5
773
100
AcDbEntity
  8
7_ALL_FEATURES
100
AcDbSpline
 62
7
  6
CONTINUOUS
 70
0
 71
3
 72
11
 73
7
 74
0
 42
0.0000001
 43
0.0000001
 44
0.0000000001
 40
0.0
 40
0.0
 40
0.0
 40
0.0
 40
0.2446246163
 40
0.5012345397
 40
0.7575061497
 40
1.0
 40
1.0
 40
1.0
 40
1.0
 10
175.3675403226
 20
555.6102276218
 30
0.0
 10
175.4024652975
 20
555.5648587486
 30
0.0
 10
175.4860296717
 20
555.4799648712
 30
0.0
 10
175.6578704145
 20
555.4089844523
 30
0.0
 10
175.8410614381
 20
555.4495134938
 30
0.0
 10
175.9309060318
 20
555.5292231042
 30
0.0
 10
175.9675403226
 20
555.5725723762
 30
0.0
  0
SPLINE
  5
774
100
AcDbEntity
  8
7_ALL_FEATURES
100
AcDbSpline
 62
7
  6
CONTINUOUS
 70
0
 71
3
 72
11
 73
7
 74
0
 42
0.0000001
 43
0.0000001
 44
0.0000000001
 40
0.0
 40
0.0
 40
0.0
 40
0.0
 40
0.2446246163
 40
0.5012345397
 40
0.7575061497
 40
1.0
 40
1.0
 40
1.0
 40
1.0
 10
175.3675403226
 20
305.6102276218
 30
0.0
 10
175.4024652975
 20
305.5648587486
 30
0.0
 10
175.4860296717
 20
305.4799648712
 30
0.0
 10
175.6578704145
 20
305.4089844523
 30
0.0
 10
175.8410614381
 20
305.4495134938
 30
0.0
 10
175.9309060318
 20
305.5292231042
 30
0.0
 10
175.9675403226
 20
305.5725723762
 30
0.0
  0
SPLINE
  5
775
100
AcDbEntity
  8
7_ALL_FEATURES
100
AcDbSpline
 62
7
  6
CONTINUOUS
 70
0
 71
3
 72
11
 73
7
 74
0
 42
0.0000001
 43
0.0000001
 44
0.0000000001
 40
0.0
 40
0.0
 40
0.0
 40
0.0
 40
0.2424938503
 40
0.4987654603
 40
0.7553753837
 40
1.0
 40
1.0
 40
1.0
 40
1.0
 10
175.9675403226
 20
546.0498066561
 30
0.0
 10
175.9309060318
 20
546.093155928
 30
0.0
 10
175.8410614381
 20
546.1728655384
 30
0.0
 10
175.6578704145
 20
546.21339458
 30
0.0
 10
175.4860296717
 20
546.1424141611
 30
0.0
 10
175.4024652975
 20
546.0575202837
 30
0.0
 10
175.3675403226
 20
546.0121514105
 30
0.0
  0
SPLINE
  5
776
100
AcDbEntity
  8
7_ALL_FEATURES
100
AcDbSpline
 62
7
  6
CONTINUOUS
 70
0
 71
3
 72
11
 73
7
 74
0
 42
0.0000001
 43
0.0000001
 44
0.0000000001
 40
0.0
 40
0.0
 40
0.0
 40
0.0
 40
0.2446246163
 40
0.5012345397
 40
0.7575061497
 40
1.0
 40
1.0
 40
1.0
 40
1.0
 10
175.3675403226
 20
55.6102276218
 30
0.0
 10
175.4024652975
 20
55.5648587486
 30
0.0
 10
175.4860296717
 20
55.4799648712
 30
0.0
 10
175.6578704145
 20
55.4089844523
 30
0.0
 10
175.8410614381
 20
55.4495134938
 30
0.0
 10
175.9309060318
 20
55.5292231042
 30
0.0
 10
175.9675403226
 20
55.5725723762
 30
0.0
  0
SPLINE
  5
777
100
AcDbEntity
  8
7_ALL_FEATURES
100
AcDbSpline
 62
7
  6
CONTINUOUS
 70
0
 71
3
 72
11
 73
7
 74
0
 42
0.0000001
 43
0.0000001
 44
0.0000000001
 40
0.0
 40
0.0
 40
0.0
 40
0.0
 40
0.2424938503
 40
0.4987654603
 40
0.7553753837
 40
1.0
 40
1.0
 40
1.0
 40
1.0
 10
175.9675403226
 20
296.0498066561
 30
0.0
 10
175.9309060318
 20
296.093155928
 30
0.0
 10
175.8410614381
 20
296.1728655384
 30
0.0
 10
175.6578704145
 20
296.21339458
 30
0.0
 10
175.4860296717
 20
296.1424141611
 30
0.0
 10
175.4024652975
 20
296.0575202837
 30
0.0
 10
175.3675403226
 20
296.0121514105
 30
0.0
  0
SPLINE
  5
778
100
AcDbEntity
  8
7_ALL_FEATURES
100
AcDbSpline
 62
7
  6
CONTINUOUS
 70
0
 71
3
 72
11
 73
7
 74
0
 42
0.0000001
 43
0.0000001
 44
0.0000000001
 40
0.0
 40
0.0
 40
0.0
 40
0.0
 40
0.2424938503
 40
0.4987654603
 40
0.7553753837
 40
1.0
 40
1.0
 40
1.0
 40
1.0
 10
175.9675403226
 20
46.0498066561
 30
0.0
 10
175.9309060318
 20
46.093155928
 30
0.0
 10
175.8410614381
 20
46.1728655384
 30
0.0
 10
175.6578704145
 20
46.21339458
 30
0.0
 10
175.4860296717
 20
46.1424141611
 30
0.0
 10
175.4024652975
 20
46.0575202837
 30
0.0
 10
175.3675403226
 20
46.0121514105
 30
0.0
  0
SPLINE
  5
779
100
AcDbEntity
  8
6_ALL_SURFS
100
AcDbSpline
 62
7
  6
CONTINUOUS
 70
0
 71
3
 72
11
 73
7
 74
0
 42
0.0000001
 43
0.0000001
 44
0.0000000001
 40
0.0
 40
0.0
 40
0.0
 40
0.0
 40
0.2424938503
 40
0.4987654603
 40
0.7553753837
 40
1.0
 40
1.0
 40
1.0
 40
1.0
 10
104.6675403226
 20
46.0498066561
 30
0.0
 10
104.7041746134
 20
46.093155928
 30
0.0
 10
104.7940192071
 20
46.1728655384
 30
0.0
 10
104.9772102307
 20
46.21339458
 30
0.0
 10
105.1490509735
 20
46.1424141611
 30
0.0
 10
105.2326153477
 20
46.0575202837
 30
0.0
 10
105.2675403226
 20
46.0121514105
 30
0.0
  0
SPLINE
  5
77A
100
AcDbEntity
  8
6_ALL_SURFS
100
AcDbSpline
 62
7
  6
CONTINUOUS
 70
0
 71
3
 72
11
 73
7
 74
0
 42
0.0000001
 43
0.0000001
 44
0.0000000001
 40
0.0
 40
0.0
 40
0.0
 40
0.0
 40
0.2424938503
 40
0.4987654603
 40
0.7553753837
 40
1.0
 40
1.0
 40
1.0
 40
1.0
 10
104.6675403226
 20
296.0498066561
 30
0.0
 10
104.7041746134
 20
296.093155928
 30
0.0
 10
104.7940192071
 20
296.1728655384
 30
0.0
 10
104.9772102307
 20
296.21339458
 30
0.0
 10
105.1490509735
 20
296.1424141611
 30
0.0
 10
105.2326153477
 20
296.0575202837
 30
0.0
 10
105.2675403226
 20
296.0121514105
 30
0.0
  0
SPLINE
  5
77B
100
AcDbEntity
  8
6_ALL_SURFS
100
AcDbSpline
 62
7
  6
CONTINUOUS
 70
0
 71
3
 72
11
 73
7
 74
0
 42
0.0000001
 43
0.0000001
 44
0.0000000001
 40
0.0
 40
0.0
 40
0.0
 40
0.0
 40
0.2446246163
 40
0.5012345397
 40
0.7575061497
 40
1.0
 40
1.0
 40
1.0
 40
1.0
 10
105.2675403226
 20
55.6102276218
 30
0.0
 10
105.2326153477
 20
55.5648587486
 30
0.0
 10
105.1490509735
 20
55.4799648712
 30
0.0
 10
104.9772102307
 20
55.4089844523
 30
0.0
 10
104.7940192071
 20
55.4495134938
 30
0.0
 10
104.7041746134
 20
55.5292231042
 30
0.0
 10
104.6675403226
 20
55.5725723762
 30
0.0
  0
SPLINE
  5
77C
100
AcDbEntity
  8
6_ALL_SURFS
100
AcDbSpline
 62
7
  6
CONTINUOUS
 70
0
 71
3
 72
11
 73
7
 74
0
 42
0.0000001
 43
0.0000001
 44
0.0000000001
 40
0.0
 40
0.0
 40
0.0
 40
0.0
 40
0.2424938503
 40
0.4987654603
 40
0.7553753837
 40
1.0
 40
1.0
 40
1.0
 40
1.0
 10
104.6675403226
 20
546.0498066561
 30
0.0
 10
104.7041746134
 20
546.093155928
 30
0.0
 10
104.7940192071
 20
546.1728655384
 30
0.0
 10
104.9772102307
 20
546.21339458
 30
0.0
 10
105.1490509735
 20
546.1424141611
 30
0.0
 10
105.2326153477
 20
546.0575202837
 30
0.0
 10
105.2675403226
 20
546.0121514105
 30
0.0
  0
SPLINE
  5
77D
100
AcDbEntity
  8
6_ALL_SURFS
100
AcDbSpline
 62
7
  6
CONTINUOUS
 70
0
 71
3
 72
11
 73
7
 74
0
 42
0.0000001
 43
0.0000001
 44
0.0000000001
 40
0.0
 40
0.0
 40
0.0
 40
0.0
 40
0.2446246163
 40
0.5012345397
 40
0.7575061497
 40
1.0
 40
1.0
 40
1.0
 40
1.0
 10
105.2675403226
 20
305.6102276218
 30
0.0
 10
105.2326153477
 20
305.5648587486
 30
0.0
 10
105.1490509735
 20
305.4799648712
 30
0.0
 10
104.9772102307
 20
305.4089844523
 30
0.0
 10
104.7940192071
 20
305.4495134938
 30
0.0
 10
104.7041746134
 20
305.5292231042
 30
0.0
 10
104.6675403226
 20
305.5725723762
 30
0.0
  0
SPLINE
  5
77E
100
AcDbEntity
  8
6_ALL_SURFS
100
AcDbSpline
 62
7
  6
CONTINUOUS
 70
0
 71
3
 72
11
 73
7
 74
0
 42
0.0000001
 43
0.0000001
 44
0.0000000001
 40
0.0
 40
0.0
 40
0.0
 40
0.0
 40
0.2446246163
 40
0.5012345397
 40
0.7575061497
 40
1.0
 40
1.0
 40
1.0
 40
1.0
 10
105.2675403226
 20
555.6102276218
 30
0.0
 10
105.2326153477
 20
555.5648587486
 30
0.0
 10
105.1490509735
 20
555.4799648712
 30
0.0
 10
104.9772102307
 20
555.4089844523
 30
0.0
 10
104.7940192071
 20
555.4495134938
 30
0.0
 10
104.7041746134
 20
555.5292231042
 30
0.0
 10
104.6675403226
 20
555.5725723762
 30
0.0
  0
SPLINE
  5
77F
100
AcDbEntity
  8
6_ALL_SURFS
100
AcDbSpline
 62
7
  6
CONTINUOUS
 70
0
 71
3
 72
13
 73
9
 74
0
 42
0.0000001
 43
0.0000001
 44
0.0000000001
 40
0.0
 40
0.0
 40
0.0
 40
0.0
 40
0.2501530023
 40
0.506002219
 40
0.6358582271
 40
0.7643392319
 40
0.885762938
 40
1.0
 40
1.0
 40
1.0
 40
1.0
 10
107.6675403226
 20
46.655378315
 30
0.0
 10
107.6975128738
 20
46.7176494317
 30
0.0
 10
107.7654832113
 20
46.8401139003
 30
0.0
 10
107.8742031464
 20
46.9801587526
 30
0.0
 10
107.983892985
 20
47.0713952089
 30
0.0
 10
108.0797503982
 20
47.1185893618
 30
0.0
 10
108.1850497049
 20
47.1205219622
 30
0.0
 10
108.2436523969
 20
47.0860480882
 30
0.0
 10
108.2675403226
 20
47.0654230072
 30
0.0
  0
SPLINE
  5
780
100
AcDbEntity
  8
6_ALL_SURFS
100
AcDbSpline
 62
7
  6
CONTINUOUS
 70
0
 71
3
 72
13
 73
9
 74
0
 42
0.0000001
 43
0.0000001
 44
0.0000000001
 40
0.0
 40
0.0
 40
0.0
 40
0.0
 40
0.2501530023
 40
0.506002219
 40
0.6358582271
 40
0.7643392319
 40
0.885762938
 40
1.0
 40
1.0
 40
1.0
 40
1.0
 10
107.6675403226
 20
296.655378315
 30
0.0
 10
107.6975128738
 20
296.7176494317
 30
0.0
 10
107.7654832113
 20
296.8401139003
 30
0.0
 10
107.8742031464
 20
296.9801587526
 30
0.0
 10
107.983892985
 20
297.0713952089
 30
0.0
 10
108.0797503982
 20
297.1185893618
 30
0.0
 10
108.1850497049
 20
297.1205219622
 30
0.0
 10
108.2436523969
 20
297.0860480882
 30
0.0
 10
108.2675403226
 20
297.0654230072
 30
0.0
  0
SPLINE
  5
781
100
AcDbEntity
  8
6_ALL_SURFS
100
AcDbSpline
 62
7
  6
CONTINUOUS
 70
0
 71
3
 72
13
 73
9
 74
0
 42
0.0000001
 43
0.0000001
 44
0.0000000001
 40
0.0
 40
0.0
 40
0.0
 40
0.0
 40
0.1142400004
 40
0.2356675797
 40
0.3641475735
 40
0.4940022787
 40
0.7498493214
 40
1.0
 40
1.0
 40
1.0
 40
1.0
 10
108.2675403226
 20
54.5569560251
 30
0.0
 10
108.2436517889
 20
54.5363304192
 30
0.0
 10
108.1850470356
 20
54.5018557131
 30
0.0
 10
108.0797459244
 20
54.5037913347
 30
0.0
 10
107.9838890549
 20
54.5509867837
 30
0.0
 10
107.8742004843
 20
54.6422228168
 30
0.0
 10
107.7654822815
 20
54.7822668679
 30
0.0
 10
107.6975125872
 20
54.904730196
 30
0.0
 10
107.6675403226
 20
54.9670007173
 30
0.0
  0
SPLINE
  5
782
100
AcDbEntity
  8
6_ALL_SURFS
100
AcDbSpline
 62
7
  6
CONTINUOUS
 70
0
 71
3
 72
13
 73
9
 74
0
 42
0.0000001
 43
0.0000001
 44
0.0000000001
 40
0.0
 40
0.0
 40
0.0
 40
0.0
 40
0.2501530023
 40
0.506002219
 40
0.6358582271
 40
0.7643392319
 40
0.885762938
 40
1.0
 40
1.0
 40
1.0
 40
1.0
 10
107.6675403226
 20
546.655378315
 30
0.0
 10
107.6975128738
 20
546.7176494317
 30
0.0
 10
107.7654832113
 20
546.8401139003
 30
0.0
 10
107.8742031464
 20
546.9801587526
 30
0.0
 10
107.983892985
 20
547.0713952089
 30
0.0
 10
108.0797503982
 20
547.1185893618
 30
0.0
 10
108.1850497049
 20
547.1205219622
 30
0.0
 10
108.2436523969
 20
547.0860480882
 30
0.0
 10
108.2675403226
 20
547.0654230072
 30
0.0
  0
SPLINE
  5
783
100
AcDbEntity
  8
6_ALL_SURFS
100
AcDbSpline
 62
7
  6
CONTINUOUS
 70
0
 71
3
 72
13
 73
9
 74
0
 42
0.0000001
 43
0.0000001
 44
0.0000000001
 40
0.0
 40
0.0
 40
0.0
 40
0.0
 40
0.1142400004
 40
0.2356675797
 40
0.3641475735
 40
0.4940022787
 40
0.7498493214
 40
1.0
 40
1.0
 40
1.0
 40
1.0
 10
108.2675403226
 20
304.5569560251
 30
0.0
 10
108.2436517889
 20
304.5363304192
 30
0.0
 10
108.1850470356
 20
304.5018557131
 30
0.0
 10
108.0797459244
 20
304.5037913347
 30
0.0
 10
107.9838890549
 20
304.5509867837
 30
0.0
 10
107.8742004843
 20
304.6422228168
 30
0.0
 10
107.7654822815
 20
304.7822668679
 30
0.0
 10
107.6975125872
 20
304.904730196
 30
0.0
 10
107.6675403226
 20
304.9670007173
 30
0.0
  0
SPLINE
  5
784
100
AcDbEntity
  8
6_ALL_SURFS
100
AcDbSpline
 62
7
  6
CONTINUOUS
 70
0
 71
3
 72
13
 73
9
 74
0
 42
0.0000001
 43
0.0000001
 44
0.0000000001
 40
0.0
 40
0.0
 40
0.0
 40
0.0
 40
0.1142400004
 40
0.2356675797
 40
0.3641475735
 40
0.4940022787
 40
0.7498493214
 40
1.0
 40
1.0
 40
1.0
 40
1.0
 10
108.2675403226
 20
554.5569560251
 30
0.0
 10
108.2436517889
 20
554.5363304192
 30
0.0
 10
108.1850470356
 20
554.5018557131
 30
0.0
 10
108.0797459244
 20
554.5037913347
 30
0.0
 10
107.9838890549
 20
554.5509867837
 30
0.0
 10
107.8742004843
 20
554.6422228168
 30
0.0
 10
107.7654822815
 20
554.7822668679
 30
0.0
 10
107.6975125872
 20
554.904730196
 30
0.0
 10
107.6675403226
 20
554.9670007173
 30
0.0
  0
ELLIPSE
  5
785
100
AcDbEntity
  8
7_ALL_FEATURES
100
AcDbEllipse
 62
7
  6
CONTINUOUS
 10
918.99375
 20
568.8646722189
 30
0.0
 11
5.4882058378
 21
0.0
 31
0.0
 40
0.1015346165
 41
7.212646077
 42
8.495317191
  0
ELLIPSE
  5
786
100
AcDbEntity
  8
7_ALL_FEATURES
100
AcDbEllipse
 62
7
  6
CONTINUOUS
 10
668.99375
 20
568.8646722189
 30
0.0
 11
5.4882058378
 21
-0.0
 31
0.0
 40
0.1015346165
 41
7.212646077
 42
8.495317191
  0
ELLIPSE
  5
787
100
AcDbEntity
  8
7_ALL_FEATURES
100
AcDbEllipse
 62
7
  6
CONTINUOUS
 10
418.99375
 20
568.8646722189
 30
0.0
 11
5.4882058378
 21
-0.0
 31
0.0
 40
0.1015346165
 41
7.212646077
 42
8.495317191
  0
ELLIPSE
  5
788
100
AcDbEntity
  8
7_ALL_FEATURES
100
AcDbEllipse
 62
7
  6
CONTINUOUS
 10
918.99375
 20
572.1111895161
 30
0.0
 11
3.5
 21
0.0
 31
0.0
 40
0.5
 41
4.3726964042
 42
5.0520815566
  0
ELLIPSE
  5
789
100
AcDbEntity
  8
7_ALL_FEATURES
100
AcDbEllipse
 62
7
  6
CONTINUOUS
 10
418.99375
 20
572.1111895161
 30
0.0
 11
3.5
 21
0.0
 31
0.0
 40
0.5
 41
4.3726964042
 42
5.0520815566
  0
ELLIPSE
  5
78A
100
AcDbEntity
  8
7_ALL_FEATURES
100
AcDbEllipse
 62
7
  6
CONTINUOUS
 10
668.99375
 20
572.1111895161
 30
0.0
 11
3.5
 21
0.0
 31
0.0
 40
0.5
 41
4.3726964042
 42
5.0520815566
  0
ELLIPSE
  5
78B
100
AcDbEntity
  8
6_ALL_SURFS
100
AcDbEllipse
 62
7
  6
CONTINUOUS
 10
397.69375
 20
550.8111895161
 30
0.0
 11
0.0
 21
3.5
 31
0.0
 40
0.5
 41
-1.910488903
 42
-1.2311037506
  0
ELLIPSE
  5
78C
100
AcDbEntity
  8
6_ALL_SURFS
100
AcDbEllipse
 62
7
  6
CONTINUOUS
 10
397.69375
 20
300.8111895161
 30
0.0
 11
-0.0
 21
3.5
 31
0.0
 40
0.5
 41
-1.910488903
 42
-1.2311037506
  0
ELLIPSE
  5
78D
100
AcDbEntity
  8
6_ALL_SURFS
100
AcDbEllipse
 62
7
  6
CONTINUOUS
 10
397.69375
 20
50.8111895161
 30
0.0
 11
0.0
 21
3.5
 31
0.0
 40
0.5
 41
4.3726964042
 42
5.0520815566
  0
ELLIPSE
  5
78E
100
AcDbEntity
  8
6_ALL_SURFS
100
AcDbEllipse
 62
7
  6
CONTINUOUS
 10
400.9402672972
 20
50.8111895161
 30
0.0
 11
0.0
 21
5.4882058378
 31
0.0
 40
0.1015346165
 41
0.9294607698
 42
2.2121318838
  0
ELLIPSE
  5
78F
100
AcDbEntity
  8
6_ALL_SURFS
100
AcDbEllipse
 62
7
  6
CONTINUOUS
 10
400.9402672972
 20
300.8111895161
 30
0.0
 11
0.0
 21
5.4882058378
 31
0.0
 40
0.1015346165
 41
0.9294607698
 42
2.2121318838
  0
ELLIPSE
  5
790
100
AcDbEntity
  8
6_ALL_SURFS
100
AcDbEllipse
 62
7
  6
CONTINUOUS
 10
400.9402672972
 20
550.8111895161
 30
0.0
 11
0.0
 21
5.4882058378
 31
0.0
 40
0.1015346165
 41
0.9294607698
 42
2.2121318838
  0
ELLIPSE
  5
791
100
AcDbEntity
  8
7_ALL_FEATURES
100
AcDbEllipse
 62
7
  6
CONTINUOUS
 10
918.99375
 20
791.0369439637
 30
0.0
 11
0.0
 21
5.5724287509
 31
0.0
 40
0.9848857802
 41
5.6418497502
 42
6.9245208642
  0
ELLIPSE
  5
792
100
AcDbEntity
  8
7_ALL_FEATURES
100
AcDbEllipse
 62
7
  6
CONTINUOUS
 10
668.99375
 20
791.0369439637
 30
0.0
 11
-0.0
 21
5.5724287509
 31
0.0
 40
0.9848857802
 41
5.6418497502
 42
6.9245208642
  0
ELLIPSE
  5
793
100
AcDbEntity
  8
7_ALL_FEATURES
100
AcDbEllipse
 62
7
  6
CONTINUOUS
 10
418.99375
 20
791.0369439637
 30
0.0
 11
-0.0
 21
5.5724287509
 31
0.0
 40
0.9848857802
 41
5.6418497502
 42
6.9245208642
  0
ELLIPSE
  5
794
100
AcDbEntity
  8
6_ALL_SURFS
100
AcDbEllipse
 62
7
  6
CONTINUOUS
 10
918.99375
 20
722.8672899073
 30
0.0
 11
-0.0
 21
5.5724287509
 31
0.0
 40
0.9848857802
 41
-3.7829282106
 42
-2.5002570966
  0
ELLIPSE
  5
795
100
AcDbEntity
  8
6_ALL_SURFS
100
AcDbEllipse
 62
7
  6
CONTINUOUS
 10
668.99375
 20
722.8672899073
 30
0.0
 11
-0.0
 21
5.5724287509
 31
0.0
 40
0.9848857802
 41
-3.7829282106
 42
-2.5002570966
  0
ELLIPSE
  5
796
100
AcDbEntity
  8
6_ALL_SURFS
100
AcDbEllipse
 62
7
  6
CONTINUOUS
 10
418.99375
 20
722.8672899073
 30
0.0
 11
-0.0
 21
5.5724287509
 31
0.0
 40
0.9848857802
 41
-3.7829282106
 42
-2.5002570966
  0
ELLIPSE
  5
797
100
AcDbEntity
  8
7_ALL_FEATURES
100
AcDbEllipse
 62
7
  6
CONTINUOUS
 10
174.4023673508
 20
50.8111895161
 30
0.0
 11
5.5724287509
 21
-0.0
 31
0.0
 40
0.9848857802
 41
5.6418497502
 42
6.9245208642
  0
ELLIPSE
  5
798
100
AcDbEntity
  8
7_ALL_FEATURES
100
AcDbEllipse
 62
7
  6
CONTINUOUS
 10
174.4023673508
 20
300.8111895161
 30
0.0
 11
5.5724287509
 21
-0.0
 31
0.0
 40
0.9848857802
 41
5.6418497502
 42
6.9245208642
  0
ELLIPSE
  5
799
100
AcDbEntity
  8
7_ALL_FEATURES
100
AcDbEllipse
 62
7
  6
CONTINUOUS
 10
174.4023673508
 20
550.8111895161
 30
0.0
 11
5.5724287509
 21
0.0
 31
0.0
 40
0.9848857802
 41
5.6418497502
 42
6.9245208642
  0
ELLIPSE
  5
79A
100
AcDbEntity
  8
6_ALL_SURFS
100
AcDbEllipse
 62
7
  6
CONTINUOUS
 10
106.2327132944
 20
50.8111895161
 30
0.0
 11
5.5724287509
 21
0.0
 31
0.0
 40
0.9848857802
 41
2.5002570966
 42
3.7829282106
  0
ELLIPSE
  5
79B
100
AcDbEntity
  8
6_ALL_SURFS
100
AcDbEllipse
 62
7
  6
CONTINUOUS
 10
106.2327132944
 20
300.8111895161
 30
0.0
 11
5.5724287509
 21
0.0
 31
0.0
 40
0.9848857802
 41
2.5002570966
 42
3.7829282106
  0
ELLIPSE
  5
79C
100
AcDbEntity
  8
6_ALL_SURFS
100
AcDbEllipse
 62
7
  6
CONTINUOUS
 10
106.2327132944
 20
550.8111895161
 30
0.0
 11
5.5724287509
 21
0.0
 31
0.0
 40
0.9848857802
 41
2.5002570966
 42
3.7829282106
  0
ENDSEC
  0
SECTION
  2
OBJECTS
  0
DICTIONARY
  5
79D
100
AcDbDictionary
  3
ACAD_GROUP
350
79E
  3
ACAD_MLINESTYLE
350
79F
  0
DICTIONARY
  5
79E
102
{ACAD_REACTORS
330
79D
102
}
100
AcDbDictionary
  0
DICTIONARY
  5
79F
102
{ACAD_REACTORS
330
79D
102
}
100
AcDbDictionary
  3
STANDARD
350
7A0
  0
MLINESTYLE
  5
7A0
102
{ACAD_REACTORS
330
79F
102
}
100
AcDbMlineStyle
  2
STANDARD
 70
0
  3

 62
256
 51
90.0
 52
90.0
 71
2
 49
0.5
 62
256
  6
BYLAYER
 49
-0.5
 62
256
  6
BYLAYER
  0
ENDSEC
  0
EOF
