999
DXF file: 6f3_c_450.dxf
999
Pro/ENGINEER 2016360 by Parametric Technology Corporation
  0
SECTION
  2
HEADER
  9
$ACADVER
  1
AC1014
  9
$DWGCODEPAGE
  3
ANSI_1252
  9
$EXTMAX
 10
1189.0
 20
841.0
 30
0.0
  9
$EXTMIN
 10
0.0
 20
0.0
 30
0.0
  9
$LIMMIN
 10
0.0
 20
0.0
  9
$LIMMAX
 10
1189.0
 20
841.0
  9
$VIEWCTR
 10
594.5
 20
420.5
  9
$VIEWSIZE
 40
841.0
  9
$CLAYER
  8
0
  9
$LTSCALE
 40
65.395
  9
$CELTYPE
  6
BYLAYER
  9
$DIMSCALE
 40
1.0
  9
$DIMASZ
 40
2.5
  9
$DIMEXO
 40
0.75
  9
$DIMDLI
 40
45.182
  9
$DIMEXE
 40
0.75
  9
$DIMCEN
 40
10.701
  9
$DIMLFAC
 40
1.0
  9
$DIMBLK
  1
_CLOSED
  9
$DIMALT
 70
0
  9
$DIMALTF
 40
25.4
  9
$DIMTXT
 40
3.0
  9
$DIMTOL
 70
1
  9
$DIMLIM
 70
0
  9
$DIMTFAC
 40
1.0
  9
$DIMTP
 40
0.01
  9
$DIMTM
 40
0.01
  9
$DIMGAP
 40
0.625
  9
$AUNITS
 70
0
  9
$PDMODE
 70
3
  9
$PDSIZE
 40
0.3125
  9
$HANDSEED
  5
76A
  9
$TILEMODE
 70
1
  9
$MEASUREMENT
 70
1
  0
ENDSEC
  0
SECTION
  2
CLASSES
  0
ENDSEC
  0
SECTION
  2
TABLES
  0
TABLE
  2
VPORT
  5
8
100
AcDbSymbolTable
 70
2
  0
VPORT
  5
1F4
100
AcDbSymbolTableRecord
100
AcDbViewportTableRecord
  2
*ACTIVE
 70
0
 10
0.0
 20
0.0
 11
1.0
 21
1.0
 12
594.5
 22
420.5
 13
0.0
 23
0.0
 14
1.0
 24
1.0
 15
0.0
 25
0.0
 16
0.0
 26
0.0
 36
1.0
 17
0.0
 27
0.0
 37
0.0
 40
841.0
 41
1.4137931034
 42
50.0
 43
0.0
 44
0.0
 50
0.0
 51
0.0
 71
0
 72
100
 73
1
 74
1
 75
0
 76
0
 77
0
 78
0
  0
ENDTAB
  0
TABLE
  2
LTYPE
  5
5
100
AcDbSymbolTable
 70
6
  0
LTYPE
  5
14
100
AcDbSymbolTableRecord
100
AcDbLinetypeTableRecord
  2
BYBLOCK
 70
0
  3

 72
65
 73
0
 40
0.0
  0
LTYPE
  5
15
100
AcDbSymbolTableRecord
100
AcDbLinetypeTableRecord
  2
BYLAYER
 70
0
  3

 72
65
 73
0
 40
0.0
  0
LTYPE
  5
16
100
AcDbSymbolTableRecord
100
AcDbLinetypeTableRecord
  2
CONTINUOUS
 70
64
  3
Solid line
 72
65
 73
0
 40
0.0
  0
LTYPE
  5
1F5
100
AcDbSymbolTableRecord
100
AcDbLinetypeTableRecord
  2
CENTER
 70
64
  3
____ _ ____ _ ____ _ ____ _ ____ _ ____ _ ____
 72
65
 73
4
 40
0.6
 49
0.375
 74
0
 49
-0.075
 74
0
 49
0.075
 74
0
 49
-0.075
 74
0
  0
LTYPE
  5
1F6
100
AcDbSymbolTableRecord
100
AcDbLinetypeTableRecord
  2
HIDDEN
 70
64
  3
- - - - - - - - - - - - - - - - - - - -
 72
65
 73
2
 40
0.2
 49
0.1
 74
0
 49
-0.1
 74
0
  0
LTYPE
  5
1F7
100
AcDbSymbolTableRecord
100
AcDbLinetypeTableRecord
  2
PHANTOM
 70
64
  3
_____ _ _ _____ _ _ _____ _ _ _____
 72
65
 73
6
 40
0.8
 49
0.45
 74
0
 49
-0.05
 74
0
 49
0.1
 74
0
 49
-0.05
 74
0
 49
0.1
 74
0
 49
-0.05
 74
0
  0
LTYPE
  5
1F8
100
AcDbSymbolTableRecord
100
AcDbLinetypeTableRecord
  2
DOT
 70
64
  3
. . . . . . . . . . . . . . . . . . . .
 72
65
 73
2
 40
0.2
 49
0.1
 74
0
 49
-0.1
 74
0
  0
LTYPE
  5
1F9
100
AcDbSymbolTableRecord
100
AcDbLinetypeTableRecord
  2
DASHED
 70
64
  3
- - - - - - - - - - - - - - - - - - - -
 72
65
 73
2
 40
0.2
 49
0.1
 74
0
 49
-0.1
 74
0
  0
ENDTAB
  0
TABLE
  2
LAYER
  5
2
100
AcDbSymbolTable
 70
36
  0
LAYER
  5
10
100
AcDbSymbolTableRecord
100
AcDbLayerTableRecord
  2
0
 70
0
 62
7
  6
CONTINUOUS
  0
LAYER
  5
1FA
100
AcDbSymbolTableRecord
100
AcDbLayerTableRecord
  2
DEFAULT_1
 70
0
 62
7
  6
CENTER
  0
LAYER
  5
1FB
100
AcDbSymbolTableRecord
100
AcDbLayerTableRecord
  2
DEFAULT_2
 70
0
 62
8
  6
HIDDEN
  0
LAYER
  5
1FC
100
AcDbSymbolTableRecord
100
AcDbLayerTableRecord
  2
DEFAULT_3
 70
0
 62
7
  6
PHANTOM
  0
LAYER
  5
1FD
100
AcDbSymbolTableRecord
100
AcDbLayerTableRecord
  2
1_ALL_PLANES
 70
0
 62
7
  6
CONTINUOUS
  0
LAYER
  5
1FE
100
AcDbSymbolTableRecord
100
AcDbLayerTableRecord
  2
2_ALL_CSYS
 70
0
 62
7
  6
CONTINUOUS
  0
LAYER
  5
1FF
100
AcDbSymbolTableRecord
100
AcDbLayerTableRecord
  2
3_ALL_AXES
 70
0
 62
7
  6
CONTINUOUS
  0
LAYER
  5
200
100
AcDbSymbolTableRecord
100
AcDbLayerTableRecord
  2
4_ALL_POINTS
 70
0
 62
7
  6
CONTINUOUS
  0
LAYER
  5
201
100
AcDbSymbolTableRecord
100
AcDbLayerTableRecord
  2
5_ALL_CURVES
 70
0
 62
7
  6
CONTINUOUS
  0
LAYER
  5
202
100
AcDbSymbolTableRecord
100
AcDbLayerTableRecord
  2
5__COSTRUZIONE
 70
0
 62
7
  6
CONTINUOUS
  0
LAYER
  5
203
100
AcDbSymbolTableRecord
100
AcDbLayerTableRecord
  2
6_ALL_SURFS
 70
0
 62
7
  6
CONTINUOUS
  0
LAYER
  5
204
100
AcDbSymbolTableRecord
100
AcDbLayerTableRecord
  2
7_ALL_FEATURES
 70
0
 62
7
  6
CONTINUOUS
  0
LAYER
  5
205
100
AcDbSymbolTableRecord
100
AcDbLayerTableRecord
  2
9_SOLID
 70
0
 62
7
  6
CONTINUOUS
  0
LAYER
  5
206
100
AcDbSymbolTableRecord
100
AcDbLayerTableRecord
  2
PR9035
 70
0
 62
7
  6
CONTINUOUS
  0
LAYER
  5
207
100
AcDbSymbolTableRecord
100
AcDbLayerTableRecord
  2
WHITE
 70
0
 62
7
  6
CONTINUOUS
  0
LAYER
  5
208
100
AcDbSymbolTableRecord
100
AcDbLayerTableRecord
  2
XXX_SOLIDO
 70
0
 62
7
  6
CONTINUOUS
  0
ENDTAB
  0
TABLE
  2
STYLE
  5
3
100
AcDbSymbolTable
 70
1
  0
STYLE
  5
11
100
AcDbSymbolTableRecord
100
AcDbTextStyleTableRecord
  2
STANDARD
 70
0
 40
0.0
 41
1.0
 50
0.0
 71
0
 42
0.2
  3
arial.ttf
  4

  0
STYLE
  5
209
100
AcDbSymbolTableRecord
100
AcDbTextStyleTableRecord
  2
TEXTSTYLE_1
 70
0
 40
0.0
 41
0.8
 50
0.0
 71
0
 42
0.2
  3
gdt
  4

  0
STYLE
  5
20A
100
AcDbSymbolTableRecord
100
AcDbTextStyleTableRecord
  2
TEXTSTYLE_2
 70
0
 40
0.0
 41
0.85
 50
0.0
 71
0
 42
0.2
  3
txt
  4

  0
ENDTAB
  0
TABLE
  2
VIEW
  5
6
100
AcDbSymbolTable
 70
0
  0
ENDTAB
  0
TABLE
  2
UCS
  5
7
100
AcDbSymbolTable
 70
0
  0
ENDTAB
  0
TABLE
  2
APPID
  5
9
100
AcDbSymbolTable
 70
1
  0
APPID
  5
20B
100
AcDbSymbolTableRecord
100
AcDbRegAppTableRecord
  2
ACAD
 70
0
  0
ENDTAB
  0
TABLE
  2
BLOCK_RECORD
  5
1
100
AcDbSymbolTable
 70
0
  0
BLOCK_RECORD
  5
1F
100
AcDbSymbolTableRecord
100
AcDbBlockTableRecord
  2
*MODEL_SPACE
  0
BLOCK_RECORD
  5
1B
100
AcDbSymbolTableRecord
100
AcDbBlockTableRecord
  2
*PAPER_SPACE
  0
BLOCK_RECORD
  5
20C
100
AcDbSymbolTableRecord
100
AcDbBlockTableRecord
  2
_CLOSED
  0
BLOCK_RECORD
  5
20D
100
AcDbSymbolTableRecord
100
AcDbBlockTableRecord
  2
*D0
  0
BLOCK_RECORD
  5
20E
100
AcDbSymbolTableRecord
100
AcDbBlockTableRecord
  2
*D1
  0
BLOCK_RECORD
  5
20F
100
AcDbSymbolTableRecord
100
AcDbBlockTableRecord
  2
*D2
  0
BLOCK_RECORD
  5
210
100
AcDbSymbolTableRecord
100
AcDbBlockTableRecord
  2
LOGO2_BL0
  0
ENDTAB
  0
TABLE
  2
DIMSTYLE
  5
A
100
AcDbSymbolTable
 70
1
  0
DIMSTYLE
105
211
100
AcDbSymbolTableRecord
100
AcDbDimStyleTableRecord
  2
STANDARD
 70
0
  3

  4

  5
_CLOSED
  6
_CLOSED
  7
_CLOSED
 40
1.0
 41
2.5
 42
0.75
 43
0.38
 44
0.75
 45
0.0
 46
0.0
 47
0.01
 48
0.01
140
3.0
141
0.09
142
0.0
143
25.4
144
1.0
145
0.0
146
1.0
147
0.625
 71
1.0
 72
0.0
 73
0
 74
0
 75
0
 76
0
 77
1
 78
8
 79
2
170
0
171
1
172
0
173
0
174
0
175
0
176
0
177
0
178
0
270
2
179
2
271
2
272
2
273
2
274
2
275
0
280
0
281
0
282
0
283
1
284
8
285
0
286
0
287
3
288
0
340
11
  0
DIMSTYLE
105
212
100
AcDbSymbolTableRecord
100
AcDbDimStyleTableRecord
  2
DIMSTYLE_1
 70
0
  3

  4

  5
_CLOSED
  6
_CLOSED
  7
_CLOSED
 40
1.0
 41
2.5
 42
0.75
 43
0.38
 44
0.75
 45
0.0
 46
0.0
 47
0.8
 48
0.8
140
10.0
141
0.09
142
0.0
143
25.4
144
1.0
145
0.0
146
1.0
147
2.5
 71
0.0
 72
0.0
 73
0
 74
0
 75
0
 76
0
 77
1
 78
8
 79
2
170
0
171
1
172
0
173
0
174
0
175
0
176
0
177
0
178
0
270
2
179
2
271
2
272
2
273
2
274
2
275
0
280
0
281
0
282
0
283
1
284
8
285
0
286
0
287
3
288
0
340
11
  0
DIMSTYLE
105
213
100
AcDbSymbolTableRecord
100
AcDbDimStyleTableRecord
  2
DIMSTYLE_2
 70
0
  3

  4

  5
_CLOSED
  6
_CLOSED
  7
_CLOSED
 40
1.0
 41
2.5
 42
0.75
 43
0.38
 44
0.75
 45
0.0
 46
0.0
 47
0.3
 48
0.3
140
10.0
141
0.09
142
0.0
143
25.4
144
1.0
145
0.0
146
1.0
147
2.5
 71
0.0
 72
0.0
 73
0
 74
0
 75
0
 76
0
 77
1
 78
8
 79
2
170
0
171
1
172
0
173
0
174
0
175
0
176
0
177
0
178
0
270
2
179
2
271
2
272
2
273
2
274
2
275
0
280
0
281
0
282
0
283
1
284
8
285
0
286
0
287
3
288
0
340
11
  0
ENDTAB
  0
ENDSEC
  0
SECTION
  2
BLOCKS
  0
BLOCK
  5
20
100
AcDbEntity
  8
0
100
AcDbBlockBegin
  2
*MODEL_SPACE
 70
0
 10
0.0
 20
0.0
 30
0.0
  3
*MODEL_SPACE
  1

  0
ENDBLK
  5
21
100
AcDbEntity
  8
0
100
AcDbBlockEnd
  0
BLOCK
  5
1C
100
AcDbEntity
  8
0
100
AcDbBlockBegin
  2
*PAPER_SPACE
 70
0
 10
0.0
 20
0.0
 30
0.0
  3
*PAPER_SPACE
  1

  0
ENDBLK
  5
1D
100
AcDbEntity
  8
0
100
AcDbBlockEnd
  0
BLOCK
  5
214
100
AcDbEntity
  8
0
100
AcDbBlockBegin
 62
2
  6
CONTINUOUS
  2
LOGO2_BL0
 70
64
 10
1055.0807327832
 20
33.1963958568
  3
LOGO2_BL0
  1

  0
LINE
  5
215
100
AcDbEntity
  8
0
100
AcDbLine
 62
7
  6
CONTINUOUS
 10
1046.8236580114
 20
36.3918871957
 11
1045.5193170821
 21
36.3918871957
  0
LINE
  5
216
100
AcDbEntity
  8
0
100
AcDbLine
 62
7
  6
CONTINUOUS
 10
1045.5193170821
 20
36.3918871957
 11
1045.5193170821
 21
25.9328211358
  0
LINE
  5
217
100
AcDbEntity
  8
0
100
AcDbLine
 62
7
  6
CONTINUOUS
 10
1045.5193170821
 20
25.9328211358
 11
1050.0003719703
 21
25.9328211358
  0
LINE
  5
218
100
AcDbEntity
  8
0
100
AcDbLine
 62
7
  6
CONTINUOUS
 10
1050.0003719703
 20
25.9328211358
 11
1050.0003719703
 21
27.1256754609
  0
LINE
  5
219
100
AcDbEntity
  8
0
100
AcDbLine
 62
7
  6
CONTINUOUS
 10
1050.0003719703
 20
27.1256754609
 11
1046.8236580114
 21
27.1256754609
  0
LINE
  5
21A
100
AcDbEntity
  8
0
100
AcDbLine
 62
7
  6
CONTINUOUS
 10
1046.8236580114
 20
27.1256754609
 11
1046.8236580114
 21
36.3918871957
  0
LINE
  5
21B
100
AcDbEntity
  8
0
100
AcDbLine
 62
7
  6
CONTINUOUS
 10
1061.7599842277
 20
36.3918871957
 11
1060.4561667096
 21
36.3918871957
  0
LINE
  5
21C
100
AcDbEntity
  8
0
100
AcDbLine
 62
7
  6
CONTINUOUS
 10
1060.4561667096
 20
36.3918871957
 11
1060.4561667096
 21
25.9328211358
  0
LINE
  5
21D
100
AcDbEntity
  8
0
100
AcDbLine
 62
7
  6
CONTINUOUS
 10
1060.4561667096
 20
25.9328211358
 11
1064.9373524507
 21
25.9328211358
  0
LINE
  5
21E
100
AcDbEntity
  8
0
100
AcDbLine
 62
7
  6
CONTINUOUS
 10
1064.9373524507
 20
25.9328211358
 11
1064.9373524507
 21
27.1256754609
  0
LINE
  5
21F
100
AcDbEntity
  8
0
100
AcDbLine
 62
7
  6
CONTINUOUS
 10
1064.9373524507
 20
27.1256754609
 11
1061.7599842277
 21
27.1256754609
  0
LINE
  5
220
100
AcDbEntity
  8
0
100
AcDbLine
 62
7
  6
CONTINUOUS
 10
1061.7599842277
 20
27.1256754609
 11
1061.7599842277
 21
36.3918871957
  0
LWPOLYLINE
  5
221
100
AcDbEntity
  8
0
100
AcDbPolyline
 62
7
  6
CONTINUOUS
 90
2
 70
0
 43
0.2
 10
1043.873711993
 20
22.5892698289
 10
1043.873711993
 20
20.7322065795
  0
LWPOLYLINE
  5
222
100
AcDbEntity
  8
0
100
AcDbPolyline
 62
7
  6
CONTINUOUS
 90
2
 70
0
 43
0.2
 10
1043.873711993
 20
20.7322065795
 10
1044.6694280034
 20
20.7322065795
  0
LWPOLYLINE
  5
223
100
AcDbEntity
  8
0
100
AcDbPolyline
 62
7
  6
CONTINUOUS
 90
2
 70
0
 43
0.2
 10
1044.6694280034
 20
20.7322065795
 10
1044.6694280034
 20
20.9441881511
  0
LWPOLYLINE
  5
224
100
AcDbEntity
  8
0
100
AcDbPolyline
 62
7
  6
CONTINUOUS
 90
2
 70
0
 43
0.2
 10
1044.6694280034
 20
20.9441881511
 10
1044.1053214879
 20
20.9441881511
  0
LWPOLYLINE
  5
225
100
AcDbEntity
  8
0
100
AcDbPolyline
 62
7
  6
CONTINUOUS
 90
2
 70
0
 43
0.2
 10
1044.1053214879
 20
20.9441881511
 10
1044.1053214879
 20
22.5892698289
  0
LWPOLYLINE
  5
226
100
AcDbEntity
  8
0
100
AcDbPolyline
 62
7
  6
CONTINUOUS
 90
2
 70
0
 43
0.2
 10
1044.1053214879
 20
22.5892698289
 10
1043.873711993
 20
22.5892698289
  0
SPLINE
  5
227
100
AcDbEntity
  8
0
100
AcDbSpline
 62
7
  6
CONTINUOUS
 70
2
 71
3
 72
35
 73
31
 74
0
 42
0.0000001
 43
0.0000001
 44
0.0000000001
 40
0.0
 40
0.0
 40
0.0
 40
0.0
 40
1.0
 40
1.0
 40
1.0
 40
2.0
 40
2.0
 40
2.0
 40
3.0
 40
3.0
 40
3.0
 40
4.0
 40
4.0
 40
4.0
 40
5.0
 40
5.0
 40
5.0
 40
6.0
 40
6.0
 40
6.0
 40
7.0
 40
7.0
 40
7.0
 40
8.0
 40
8.0
 40
8.0
 40
9.0
 40
9.0
 40
9.0
 40
10.0
 40
10.0
 40
10.0
 40
10.0
 10
1046.0677212589
 20
21.8847582354
 30
0.0
 10
1046.0677212589
 20
21.8847582354
 30
0.0
 10
1046.0677212589
 20
21.2226429563
 30
0.0
 10
1046.0677212589
 20
21.2226429563
 30
0.0
 10
1046.0677212589
 20
20.907549361
 30
0.0
 10
1046.2155849477
 20
20.6929507329
 30
0.0
 10
1046.555671432
 20
20.6929507329
 30
0.0
 10
1046.895234505
 20
20.6929507329
 30
0.0
 10
1047.0433598995
 20
20.907549361
 30
0.0
 10
1047.0433598995
 20
21.2226429563
 30
0.0
 10
1047.0433598995
 20
21.2226429563
 30
0.0
 10
1047.0433598995
 20
21.8847582354
 30
0.0
 10
1047.0433598995
 20
21.8847582354
 30
0.0
 10
1047.0433598995
 20
21.8847582354
 30
0.0
 10
1046.8213026606
 20
21.8847582354
 30
0.0
 10
1046.8213026606
 20
21.8847582354
 30
0.0
 10
1046.8213026606
 20
21.8847582354
 30
0.0
 10
1046.8213026606
 20
21.2477666981
 30
0.0
 10
1046.8213026606
 20
21.2477666981
 30
0.0
 10
1046.8213026606
 20
21.0619556909
 30
0.0
 10
1046.7745882032
 20
20.8991747804
 30
0.0
 10
1046.555671432
 20
20.8991747804
 30
0.0
 10
1046.3362312496
 20
20.8991747804
 30
0.0
 10
1046.2895167922
 20
21.0619556909
 30
0.0
 10
1046.2895167922
 20
21.2477666981
 30
0.0
 10
1046.2895167922
 20
21.2477666981
 30
0.0
 10
1046.2895167922
 20
21.8847582354
 30
0.0
 10
1046.2895167922
 20
21.8847582354
 30
0.0
 10
1046.2895167922
 20
21.8847582354
 30
0.0
 10
1046.0677212589
 20
21.8847582354
 30
0.0
 10
1046.0677212589
 20
21.8847582354
 30
0.0
  0
SPLINE
  5
228
100
AcDbEntity
  8
0
100
AcDbSpline
 62
7
  6
CONTINUOUS
 70
2
 71
3
 72
35
 73
31
 74
0
 42
0.0000001
 43
0.0000001
 44
0.0000000001
 40
0.0
 40
0.0
 40
0.0
 40
0.0
 40
1.0
 40
1.0
 40
1.0
 40
2.0
 40
2.0
 40
2.0
 40
3.0
 40
3.0
 40
3.0
 40
4.0
 40
4.0
 40
4.0
 40
5.0
 40
5.0
 40
5.0
 40
6.0
 40
6.0
 40
6.0
 40
7.0
 40
7.0
 40
7.0
 40
8.0
 40
8.0
 40
8.0
 40
9.0
 40
9.0
 40
9.0
 40
10.0
 40
10.0
 40
10.0
 40
10.0
 10
1049.4664924567
 20
21.8434087437
 30
0.0
 10
1049.3780359491
 20
21.8947030499
 30
0.0
 10
1049.2645865524
 20
21.9198267917
 30
0.0
 10
1049.1609511174
 20
21.9198267917
 30
0.0
 10
1048.8060782642
 20
21.9198267917
 30
0.0
 10
1048.530633074
 20
21.6560275026
 30
0.0
 10
1048.530633074
 20
21.298537593
 30
0.0
 10
1048.530633074
 20
20.9536095543
 30
0.0
 10
1048.8090878791
 20
20.6934741442
 30
0.0
 10
1049.1486509521
 20
20.6934741442
 30
0.0
 10
1049.2645865524
 20
20.6934741442
 30
0.0
 10
1049.3653432253
 20
20.7154574183
 30
0.0
 10
1049.4664924567
 20
20.769368781
 30
0.0
 10
1049.4664924567
 20
20.769368781
 30
0.0
 10
1049.4664924567
 20
21.0520108764
 30
0.0
 10
1049.4664924567
 20
21.0520108764
 30
0.0
 10
1049.3826157978
 20
20.9588436672
 30
0.0
 10
1049.2791112156
 20
20.8996981917
 30
0.0
 10
1049.1510063029
 20
20.8996981917
 30
0.0
 10
1048.9173031629
 20
20.8996981917
 30
0.0
 10
1048.7520360488
 20
21.0719005054
 30
0.0
 10
1048.7520360488
 20
21.3084824075
 30
0.0
 10
1048.7520360488
 20
21.5204639791
 30
0.0
 10
1048.9197893665
 20
21.7125559217
 30
0.0
 10
1049.1366124925
 20
21.7125559217
 30
0.0
 10
1049.2694281068
 20
21.7125559217
 30
0.0
 10
1049.3780359491
 20
21.6586445591
 30
0.0
 10
1049.4664924567
 20
21.5576261805
 30
0.0
 10
1049.4664924567
 20
21.5576261805
 30
0.0
 10
1049.4664924567
 20
21.8434087437
 30
0.0
 10
1049.4664924567
 20
21.8434087437
 30
0.0
  0
SPLINE
  5
229
100
AcDbEntity
  8
0
100
AcDbSpline
 62
7
  6
CONTINUOUS
 70
2
 71
3
 72
32
 73
28
 74
0
 42
0.0000001
 43
0.0000001
 44
0.0000000001
 40
0.0
 40
0.0
 40
0.0
 40
0.0
 40
1.0
 40
1.0
 40
1.0
 40
2.0
 40
2.0
 40
2.0
 40
3.0
 40
3.0
 40
3.0
 40
4.0
 40
4.0
 40
4.0
 40
5.0
 40
5.0
 40
5.0
 40
6.0
 40
6.0
 40
6.0
 40
7.0
 40
7.0
 40
7.0
 40
8.0
 40
8.0
 40
8.0
 40
9.0
 40
9.0
 40
9.0
 40
9.0
 10
1051.998363709
 20
21.2718436173
 30
0.0
 10
1051.998363709
 20
21.2718436173
 30
0.0
 10
1051.998363709
 20
21.305865351
 30
0.0
 10
1051.998363709
 20
21.305865351
 30
0.0
 10
1051.998363709
 20
21.6481763333
 30
0.0
 10
1051.8255071311
 20
21.9198267917
 30
0.0
 10
1051.458857524
 20
21.9198267917
 30
0.0
 10
1051.0872355096
 20
21.9198267917
 30
0.0
 10
1050.8974989177
 20
21.6534104462
 30
0.0
 10
1050.8974989177
 20
21.298537593
 30
0.0
 10
1050.8974989177
 20
20.9588436672
 30
0.0
 10
1051.1115741345
 20
20.6929507329
 30
0.0
 10
1051.4636990784
 20
20.6929507329
 30
0.0
 10
1051.6877191096
 20
20.6929507329
 30
0.0
 10
1051.8898867195
 20
20.8086246276
 30
0.0
 10
1051.998363709
 20
21.0080443282
 30
0.0
 10
1051.998363709
 20
21.0080443282
 30
0.0
 10
1051.8107207623
 20
21.114820231
 30
0.0
 10
1051.8107207623
 20
21.114820231
 30
0.0
 10
1051.7272366618
 20
20.9761162397
 30
0.0
 10
1051.6360322449
 20
20.8902767885
 30
0.0
 10
1051.4664469877
 20
20.8902767885
 30
0.0
 10
1051.2544654161
 20
20.8902767885
 30
0.0
 10
1051.121518949
 20
21.0750409731
 30
0.0
 10
1051.1191635982
 20
21.2718436173
 30
0.0
 10
1051.1191635982
 20
21.2718436173
 30
0.0
 10
1051.998363709
 20
21.2718436173
 30
0.0
 10
1051.998363709
 20
21.2718436173
 30
0.0
  0
SPLINE
  5
22A
100
AcDbEntity
  8
0
100
AcDbSpline
 62
7
  6
CONTINUOUS
 70
2
 71
3
 72
14
 73
10
 74
0
 42
0.0000001
 43
0.0000001
 44
0.0000000001
 40
0.0
 40
0.0
 40
0.0
 40
0.0
 40
1.0
 40
1.0
 40
1.0
 40
2.0
 40
2.0
 40
2.0
 40
3.0
 40
3.0
 40
3.0
 40
3.0
 10
1051.1312020578
 20
21.4393352294
 30
0.0
 10
1051.1588120032
 20
21.6042097851
 30
0.0
 10
1051.2866552103
 20
21.7272114378
 30
0.0
 10
1051.458857524
 20
21.7272114378
 30
0.0
 10
1051.6360322449
 20
21.7272114378
 30
0.0
 10
1051.7494816416
 20
21.6115375432
 30
0.0
 10
1051.7766990285
 20
21.4393352294
 30
0.0
 10
1051.7766990285
 20
21.4393352294
 30
0.0
 10
1051.1312020578
 20
21.4393352294
 30
0.0
 10
1051.1312020578
 20
21.4393352294
 30
0.0
  0
SPLINE
  5
22B
100
AcDbEntity
  8
0
100
AcDbSpline
 62
7
  6
CONTINUOUS
 70
2
 71
3
 72
20
 73
16
 74
0
 42
0.0000001
 43
0.0000001
 44
0.0000000001
 40
0.0
 40
0.0
 40
0.0
 40
0.0
 40
1.0
 40
1.0
 40
1.0
 40
2.0
 40
2.0
 40
2.0
 40
3.0
 40
3.0
 40
3.0
 40
4.0
 40
4.0
 40
4.0
 40
5.0
 40
5.0
 40
5.0
 40
5.0
 10
1054.0223951591
 20
21.6486997446
 30
0.0
 10
1054.0223951591
 20
21.6486997446
 30
0.0
 10
1054.4335347258
 20
21.1462249082
 30
0.0
 10
1054.4335347258
 20
21.1462249082
 30
0.0
 10
1054.3174682727
 20
21.0305510136
 30
0.0
 10
1054.1796802512
 20
20.9002216029
 30
0.0
 10
1054.0077396431
 20
20.9002216029
 30
0.0
 10
1053.8303032165
 20
20.9002216029
 30
0.0
 10
1053.6628116044
 20
21.0645727473
 30
0.0
 10
1053.6628116044
 20
21.2414857626
 30
0.0
 10
1053.6628116044
 20
21.4194456005
 30
0.0
 10
1053.872568678
 20
21.5455877209
 30
0.0
 10
1054.0001501794
 20
21.6335208172
 30
0.0
 10
1054.0001501794
 20
21.6335208172
 30
0.0
 10
1054.0223951591
 20
21.6486997446
 30
0.0
 10
1054.0223951591
 20
21.6486997446
 30
0.0
  0
SPLINE
  5
22C
100
AcDbEntity
  8
0
100
AcDbSpline
 62
7
  6
CONTINUOUS
 70
2
 71
3
 72
23
 73
19
 74
0
 42
0.0000001
 43
0.0000001
 44
0.0000000001
 40
0.0
 40
0.0
 40
0.0
 40
0.0
 40
1.0
 40
1.0
 40
1.0
 40
2.0
 40
2.0
 40
2.0
 40
3.0
 40
3.0
 40
3.0
 40
4.0
 40
4.0
 40
4.0
 40
5.0
 40
5.0
 40
5.0
 40
6.0
 40
6.0
 40
6.0
 40
6.0
 10
1054.071726673
 20
21.9397164207
 30
0.0
 10
1054.071726673
 20
21.9397164207
 30
0.0
 10
1054.0100949939
 20
22.0182281138
 30
0.0
 10
1054.0100949939
 20
22.0182281138
 30
0.0
 10
1053.9561836312
 20
22.0867949925
 30
0.0
 10
1053.8993935065
 20
22.1558852825
 30
0.0
 10
1053.8993935065
 20
22.2495759031
 30
0.0
 10
1053.8993935065
 20
22.3683902654
 30
0.0
 10
1053.995308625
 20
22.445855136
 30
0.0
 10
1054.106271818
 20
22.445855136
 30
0.0
 10
1054.2295351763
 20
22.445855136
 30
0.0
 10
1054.3228332384
 20
22.3746712009
 30
0.0
 10
1054.3228332384
 20
22.2443417902
 30
0.0
 10
1054.3228332384
 20
22.1093016779
 30
0.0
 10
1054.1947283257
 20
22.0328836299
 30
0.0
 10
1054.101168558
 20
21.9590826383
 30
0.0
 10
1054.101168558
 20
21.9590826383
 30
0.0
 10
1054.071726673
 20
21.9397164207
 30
0.0
 10
1054.071726673
 20
21.9397164207
 30
0.0
  0
SPLINE
  5
22D
100
AcDbEntity
  8
0
100
AcDbSpline
 62
7
  6
CONTINUOUS
 70
2
 71
3
 72
50
 73
46
 74
0
 42
0.0000001
 43
0.0000001
 44
0.0000000001
 40
0.0
 40
0.0
 40
0.0
 40
0.0
 40
1.0
 40
1.0
 40
1.0
 40
2.0
 40
2.0
 40
2.0
 40
3.0
 40
3.0
 40
3.0
 40
4.0
 40
4.0
 40
4.0
 40
5.0
 40
5.0
 40
5.0
 40
6.0
 40
6.0
 40
6.0
 40
7.0
 40
7.0
 40
7.0
 40
8.0
 40
8.0
 40
8.0
 40
9.0
 40
9.0
 40
9.0
 40
10.0
 40
10.0
 40
10.0
 40
11.0
 40
11.0
 40
11.0
 40
12.0
 40
12.0
 40
12.0
 40
13.0
 40
13.0
 40
13.0
 40
14.0
 40
14.0
 40
14.0
 40
15.0
 40
15.0
 40
15.0
 40
15.0
 10
1054.7738829157
 20
20.7327299908
 30
0.0
 10
1054.7738829157
 20
20.7327299908
 30
0.0
 10
1055.0592729204
 20
20.7327299908
 30
0.0
 10
1055.0592729204
 20
20.7327299908
 30
0.0
 10
1055.0592729204
 20
20.7327299908
 30
0.0
 10
1054.7269067526
 20
21.1436078518
 30
0.0
 10
1054.7269067526
 20
21.1436078518
 30
0.0
 10
1054.7269067526
 20
21.1436078518
 30
0.0
 10
1054.9534129874
 20
21.409500786
 30
0.0
 10
1054.9534129874
 20
21.409500786
 30
0.0
 10
1054.9534129874
 20
21.409500786
 30
0.0
 10
1054.8051567402
 20
21.5623368821
 30
0.0
 10
1054.8051567402
 20
21.5623368821
 30
0.0
 10
1054.8051567402
 20
21.5623368821
 30
0.0
 10
1054.5892495839
 20
21.3110994639
 30
0.0
 10
1054.5892495839
 20
21.3110994639
 30
0.0
 10
1054.5892495839
 20
21.3110994639
 30
0.0
 10
1054.2021869365
 20
21.7790291553
 30
0.0
 10
1054.2021869365
 20
21.7790291553
 30
0.0
 10
1054.357640089
 20
21.893132816
 30
0.0
 10
1054.53991807
 20
22.0328836299
 30
0.0
 10
1054.53991807
 20
22.242248145
 30
0.0
 10
1054.53991807
 20
22.4861578052
 30
0.0
 10
1054.3378813129
 20
22.6295724981
 30
0.0
 10
1054.1113750781
 20
22.6295724981
 30
0.0
 10
1053.8672037123
 20
22.6295724981
 30
0.0
 10
1053.6828320861
 20
22.4788300472
 30
0.0
 10
1053.6828320861
 20
22.2223585161
 30
0.0
 10
1053.6828320861
 20
22.0648117185
 30
0.0
 10
1053.7814951139
 20
21.9271545497
 30
0.0
 10
1053.8868316356
 20
21.8161913567
 30
0.0
 10
1053.8868316356
 20
21.8161913567
 30
0.0
 10
1053.7712885938
 20
21.7324455507
 30
0.0
 10
1053.7712885938
 20
21.7324455507
 30
0.0
 10
1053.5935904616
 20
21.6042097851
 30
0.0
 10
1053.446250184
 20
21.4764974309
 30
0.0
 10
1053.446250184
 20
21.2393921175
 30
0.0
 10
1053.446250184
 20
20.9190644093
 30
0.0
 10
1053.7048153602
 20
20.6929507329
 30
0.0
 10
1054.0151982539
 20
20.6929507329
 30
0.0
 10
1054.2341150251
 20
20.6929507329
 30
0.0
 10
1054.4313102278
 20
20.8180460307
 30
0.0
 10
1054.5715844529
 20
20.983967409
 30
0.0
 10
1054.5715844529
 20
20.983967409
 30
0.0
 10
1054.7738829157
 20
20.7327299908
 30
0.0
 10
1054.7738829157
 20
20.7327299908
 30
0.0
  0
LWPOLYLINE
  5
22E
100
AcDbEntity
  8
0
100
AcDbPolyline
 62
7
  6
CONTINUOUS
 90
2
 70
0
 43
0.2
 10
1056.7093270054
 20
22.5892698289
 10
1056.4779792162
 20
22.5892698289
  0
LWPOLYLINE
  5
22F
100
AcDbEntity
  8
0
100
AcDbPolyline
 62
7
  6
CONTINUOUS
 90
2
 70
0
 43
0.2
 10
1056.4779792162
 20
22.5892698289
 10
1056.4779792162
 20
20.7322065795
  0
LWPOLYLINE
  5
230
100
AcDbEntity
  8
0
100
AcDbPolyline
 62
7
  6
CONTINUOUS
 90
2
 70
0
 43
0.2
 10
1056.4779792162
 20
20.7322065795
 10
1057.2733026681
 20
20.7322065795
  0
LWPOLYLINE
  5
231
100
AcDbEntity
  8
0
100
AcDbPolyline
 62
7
  6
CONTINUOUS
 90
2
 70
0
 43
0.2
 10
1057.2733026681
 20
20.7322065795
 10
1057.2733026681
 20
20.9441881511
  0
LWPOLYLINE
  5
232
100
AcDbEntity
  8
0
100
AcDbPolyline
 62
7
  6
CONTINUOUS
 90
2
 70
0
 43
0.2
 10
1057.2733026681
 20
20.9441881511
 10
1056.7093270054
 20
20.9441881511
  0
LWPOLYLINE
  5
233
100
AcDbEntity
  8
0
100
AcDbPolyline
 62
7
  6
CONTINUOUS
 90
2
 70
0
 43
0.2
 10
1056.7093270054
 20
20.9441881511
 10
1056.7093270054
 20
22.5892698289
  0
LWPOLYLINE
  5
234
100
AcDbEntity
  8
0
100
AcDbPolyline
 62
7
  6
CONTINUOUS
 90
2
 70
0
 43
0.2
 10
1058.9524060796
 20
21.8847582354
 10
1058.7312648105
 20
21.8847582354
  0
LWPOLYLINE
  5
235
100
AcDbEntity
  8
0
100
AcDbPolyline
 62
7
  6
CONTINUOUS
 90
2
 70
0
 43
0.2
 10
1058.7312648105
 20
21.8847582354
 10
1058.7312648105
 20
20.7327299908
  0
LWPOLYLINE
  5
236
100
AcDbEntity
  8
0
100
AcDbPolyline
 62
7
  6
CONTINUOUS
 90
2
 70
0
 43
0.2
 10
1058.7312648105
 20
20.7327299908
 10
1058.9524060796
 20
20.7327299908
  0
LWPOLYLINE
  5
237
100
AcDbEntity
  8
0
100
AcDbPolyline
 62
7
  6
CONTINUOUS
 90
2
 70
0
 43
0.2
 10
1058.9524060796
 20
20.7327299908
 10
1058.9524060796
 20
21.8847582354
  0
LWPOLYLINE
  5
238
100
AcDbEntity
  8
0
100
AcDbPolyline
 62
7
  6
CONTINUOUS
 90
2
 70
1
 43
0.2
 10
1058.6893828024
 20
22.4147121644
 42
1.0
 10
1058.9945497933
 20
22.4147121644
 42
1.0
  0
SPLINE
  5
239
100
AcDbEntity
  8
0
100
AcDbSpline
 62
7
  6
CONTINUOUS
 70
2
 71
3
 72
17
 73
13
 74
0
 42
0.0000001
 43
0.0000001
 44
0.0000000001
 40
0.0
 40
0.0
 40
0.0
 40
0.0
 40
1.0
 40
1.0
 40
1.0
 40
2.0
 40
2.0
 40
2.0
 40
3.0
 40
3.0
 40
3.0
 40
4.0
 40
4.0
 40
4.0
 40
4.0
 10
1061.0826900212
 20
20.8902767885
 30
0.0
 10
1060.8487251756
 20
20.8902767885
 30
0.0
 10
1060.7183957649
 20
21.0923135456
 30
0.0
 10
1060.7183957649
 20
21.3084824075
 30
0.0
 10
1060.7183957649
 20
21.5230810355
 30
0.0
 10
1060.8542209941
 20
21.7219773249
 30
0.0
 10
1061.0826900212
 20
21.7219773249
 30
0.0
 10
1061.3221506854
 20
21.7219773249
 30
0.0
 10
1061.457714209
 20
21.53302585
 30
0.0
 10
1061.457714209
 20
21.3084824075
 30
0.0
 10
1061.457714209
 20
21.0823687311
 30
0.0
 10
1061.3245060362
 20
20.8902767885
 30
0.0
 10
1061.0826900212
 20
20.8902767885
 30
0.0
  0
SPLINE
  5
23A
100
AcDbEntity
  8
0
100
AcDbSpline
 62
7
  6
CONTINUOUS
 70
2
 71
3
 72
50
 73
46
 74
0
 42
0.0000001
 43
0.0000001
 44
0.0000000001
 40
0.0
 40
0.0
 40
0.0
 40
0.0
 40
1.0
 40
1.0
 40
1.0
 40
2.0
 40
2.0
 40
2.0
 40
3.0
 40
3.0
 40
3.0
 40
4.0
 40
4.0
 40
4.0
 40
5.0
 40
5.0
 40
5.0
 40
6.0
 40
6.0
 40
6.0
 40
7.0
 40
7.0
 40
7.0
 40
8.0
 40
8.0
 40
8.0
 40
9.0
 40
9.0
 40
9.0
 40
10.0
 40
10.0
 40
10.0
 40
11.0
 40
11.0
 40
11.0
 40
12.0
 40
12.0
 40
12.0
 40
13.0
 40
13.0
 40
13.0
 40
14.0
 40
14.0
 40
14.0
 40
15.0
 40
15.0
 40
15.0
 40
15.0
 10
1061.6668170185
 20
21.8852816467
 30
0.0
 10
1061.6668170185
 20
21.8852816467
 30
0.0
 10
1061.4451523381
 20
21.8852816467
 30
0.0
 10
1061.4451523381
 20
21.8852816467
 30
0.0
 10
1061.4451523381
 20
21.8852816467
 30
0.0
 10
1061.4451523381
 20
21.6879555912
 30
0.0
 10
1061.4451523381
 20
21.6879555912
 30
0.0
 10
1061.4451523381
 20
21.6879555912
 30
0.0
 10
1061.4404416365
 20
21.6879555912
 30
0.0
 10
1061.4404416365
 20
21.6879555912
 30
0.0
 10
1061.3491063668
 20
21.8308468728
 30
0.0
 10
1061.2111874924
 20
21.9193033804
 30
0.0
 10
1061.0384617674
 20
21.9193033804
 30
0.0
 10
1060.7060955996
 20
21.9193033804
 30
0.0
 10
1060.4969927901
 20
21.6314271721
 30
0.0
 10
1060.4969927901
 20
21.3158101655
 30
0.0
 10
1060.4969927901
 20
20.9860610542
 30
0.0
 10
1060.69405714
 20
20.6929507329
 30
0.0
 10
1061.0489299932
 20
20.6929507329
 30
0.0
 10
1061.2111874924
 20
20.6929507329
 30
0.0
 10
1061.3512000119
 20
20.7814072406
 30
0.0
 10
1061.4404416365
 20
20.9122600626
 30
0.0
 10
1061.4404416365
 20
20.9122600626
 30
0.0
 10
1061.4451523381
 20
20.9122600626
 30
0.0
 10
1061.4451523381
 20
20.9122600626
 30
0.0
 10
1061.4451523381
 20
20.9122600626
 30
0.0
 10
1061.4451523381
 20
20.6929507329
 30
0.0
 10
1061.4451523381
 20
20.6929507329
 30
0.0
 10
1061.4451523381
 20
20.4563688308
 30
0.0
 10
1061.388623919
 20
20.2695110011
 30
0.0
 10
1061.1154032267
 20
20.2695110011
 30
0.0
 10
1060.913104764
 20
20.2695110011
 30
0.0
 10
1060.770475188
 20
20.3878019521
 30
0.0
 10
1060.770475188
 20
20.5940259995
 30
0.0
 10
1060.770475188
 20
20.5940259995
 30
0.0
 10
1060.5488105076
 20
20.5940259995
 30
0.0
 10
1060.5488105076
 20
20.5940259995
 30
0.0
 10
1060.5537829148
 20
20.2695110011
 30
0.0
 10
1060.7848689984
 20
20.0727083568
 30
0.0
 10
1061.1051967066
 20
20.0727083568
 30
0.0
 10
1061.553236769
 20
20.0727083568
 30
0.0
 10
1061.6668170185
 20
20.3579675087
 30
0.0
 10
1061.6668170185
 20
20.7547132649
 30
0.0
 10
1061.6668170185
 20
20.7547132649
 30
0.0
 10
1061.6668170185
 20
21.8852816467
 30
0.0
 10
1061.6668170185
 20
21.8852816467
 30
0.0
  0
SPLINE
  5
23B
100
AcDbEntity
  8
0
100
AcDbSpline
 62
7
  6
CONTINUOUS
 70
2
 71
3
 72
44
 73
40
 74
0
 42
0.0000001
 43
0.0000001
 44
0.0000000001
 40
0.0
 40
0.0
 40
0.0
 40
0.0
 40
1.0
 40
1.0
 40
1.0
 40
2.0
 40
2.0
 40
2.0
 40
3.0
 40
3.0
 40
3.0
 40
4.0
 40
4.0
 40
4.0
 40
5.0
 40
5.0
 40
5.0
 40
6.0
 40
6.0
 40
6.0
 40
7.0
 40
7.0
 40
7.0
 40
8.0
 40
8.0
 40
8.0
 40
9.0
 40
9.0
 40
9.0
 40
10.0
 40
10.0
 40
10.0
 40
11.0
 40
11.0
 40
11.0
 40
12.0
 40
12.0
 40
12.0
 40
13.0
 40
13.0
 40
13.0
 40
13.0
 10
1063.2357423539
 20
22.8703416905
 30
0.0
 10
1063.2357423539
 20
22.8703416905
 30
0.0
 10
1063.2357423539
 20
20.7322065795
 30
0.0
 10
1063.2357423539
 20
20.7322065795
 30
0.0
 10
1063.2357423539
 20
20.7322065795
 30
0.0
 10
1063.4571453287
 20
20.7322065795
 30
0.0
 10
1063.4571453287
 20
20.7322065795
 30
0.0
 10
1063.4571453287
 20
20.7322065795
 30
0.0
 10
1063.4571453287
 20
21.2618988029
 30
0.0
 10
1063.4571453287
 20
21.2618988029
 30
0.0
 10
1063.4571453287
 20
21.4717867293
 30
0.0
 10
1063.4571453287
 20
21.7225007362
 30
0.0
 10
1063.7424044805
 20
21.7225007362
 30
0.0
 10
1063.9693032738
 20
21.7225007362
 30
0.0
 10
1063.9962589552
 20
21.5895542691
 30
0.0
 10
1063.9962589552
 20
21.3932750361
 30
0.0
 10
1063.9962589552
 20
21.3932750361
 30
0.0
 10
1063.9962589552
 20
20.7322065795
 30
0.0
 10
1063.9962589552
 20
20.7322065795
 30
0.0
 10
1063.9962589552
 20
20.7322065795
 30
0.0
 10
1064.2181853412
 20
20.7322065795
 30
0.0
 10
1064.2181853412
 20
20.7322065795
 30
0.0
 10
1064.2181853412
 20
20.7322065795
 30
0.0
 10
1064.2181853412
 20
21.4194456005
 30
0.0
 10
1064.2181853412
 20
21.4194456005
 30
0.0
 10
1064.2181853412
 20
21.6999940508
 30
0.0
 10
1064.1341778295
 20
21.9198267917
 30
0.0
 10
1063.8091394197
 20
21.9198267917
 30
0.0
 10
1063.6693886059
 20
21.9198267917
 30
0.0
 10
1063.5312080259
 20
21.8533535582
 30
0.0
 10
1063.4618560302
 20
21.7303519055
 30
0.0
 10
1063.4618560302
 20
21.7303519055
 30
0.0
 10
1063.4571453287
 20
21.7303519055
 30
0.0
 10
1063.4571453287
 20
21.7303519055
 30
0.0
 10
1063.4571453287
 20
21.7303519055
 30
0.0
 10
1063.4571453287
 20
22.8703416905
 30
0.0
 10
1063.4571453287
 20
22.8703416905
 30
0.0
 10
1063.4571453287
 20
22.8703416905
 30
0.0
 10
1063.2357423539
 20
22.8703416905
 30
0.0
 10
1063.2357423539
 20
22.8703416905
 30
0.0
  0
LWPOLYLINE
  5
23C
100
AcDbEntity
  8
0
100
AcDbPolyline
 62
7
  6
CONTINUOUS
 90
2
 70
0
 43
0.2
 10
1066.0579760181
 20
21.6780107767
 10
1066.2744065856
 20
21.6780107767
  0
LWPOLYLINE
  5
23D
100
AcDbEntity
  8
0
100
AcDbPolyline
 62
7
  6
CONTINUOUS
 90
2
 70
0
 43
0.2
 10
1066.2744065856
 20
21.6780107767
 10
1066.2744065856
 20
21.8847582354
  0
LWPOLYLINE
  5
23E
100
AcDbEntity
  8
0
100
AcDbPolyline
 62
7
  6
CONTINUOUS
 90
2
 70
0
 43
0.2
 10
1066.2744065856
 20
21.8847582354
 10
1066.0579760181
 20
21.8847582354
  0
LWPOLYLINE
  5
23F
100
AcDbEntity
  8
0
100
AcDbPolyline
 62
7
  6
CONTINUOUS
 90
2
 70
0
 43
0.2
 10
1066.0579760181
 20
21.8847582354
 10
1066.0579760181
 20
22.3254705398
  0
LWPOLYLINE
  5
240
100
AcDbEntity
  8
0
100
AcDbPolyline
 62
7
  6
CONTINUOUS
 90
2
 70
0
 43
0.2
 10
1066.0579760181
 20
22.3254705398
 10
1065.8363113377
 20
22.3254705398
  0
LWPOLYLINE
  5
241
100
AcDbEntity
  8
0
100
AcDbPolyline
 62
7
  6
CONTINUOUS
 90
2
 70
0
 43
0.2
 10
1065.8363113377
 20
22.3254705398
 10
1065.8363113377
 20
21.8847582354
  0
LWPOLYLINE
  5
242
100
AcDbEntity
  8
0
100
AcDbPolyline
 62
7
  6
CONTINUOUS
 90
2
 70
0
 43
0.2
 10
1065.8363113377
 20
21.8847582354
 10
1065.7156650358
 20
21.8847582354
  0
LWPOLYLINE
  5
243
100
AcDbEntity
  8
0
100
AcDbPolyline
 62
7
  6
CONTINUOUS
 90
2
 70
0
 43
0.2
 10
1065.7156650358
 20
21.8847582354
 10
1065.7156650358
 20
21.6780107767
  0
LWPOLYLINE
  5
244
100
AcDbEntity
  8
0
100
AcDbPolyline
 62
7
  6
CONTINUOUS
 90
2
 70
0
 43
0.2
 10
1065.7156650358
 20
21.6780107767
 10
1065.8363113377
 20
21.6780107767
  0
LWPOLYLINE
  5
245
100
AcDbEntity
  8
0
100
AcDbPolyline
 62
7
  6
CONTINUOUS
 90
2
 70
0
 43
0.2
 10
1065.8363113377
 20
21.6780107767
 10
1065.8363113377
 20
20.7322065795
  0
LWPOLYLINE
  5
246
100
AcDbEntity
  8
0
100
AcDbPolyline
 62
7
  6
CONTINUOUS
 90
2
 70
0
 43
0.2
 10
1065.8363113377
 20
20.7322065795
 10
1066.0579760181
 20
20.7322065795
  0
LWPOLYLINE
  5
247
100
AcDbEntity
  8
0
100
AcDbPolyline
 62
7
  6
CONTINUOUS
 90
2
 70
0
 43
0.2
 10
1066.0579760181
 20
20.7322065795
 10
1066.0579760181
 20
21.6780107767
  0
SPLINE
  5
248
100
AcDbEntity
  8
0
100
AcDbSpline
 62
7
  6
CONTINUOUS
 70
2
 71
3
 72
20
 73
16
 74
0
 42
0.0000001
 43
0.0000001
 44
0.0000000001
 40
0.0
 40
0.0
 40
0.0
 40
0.0
 40
1.0
 40
1.0
 40
1.0
 40
2.0
 40
2.0
 40
2.0
 40
3.0
 40
3.0
 40
3.0
 40
4.0
 40
4.0
 40
4.0
 40
5.0
 40
5.0
 40
5.0
 40
5.0
 10
1053.8399863253
 20
31.0931330229
 30
0.0
 10
1053.8399863253
 20
31.0931330229
 30
0.0
 10
1056.1563429798
 20
28.2635716007
 30
0.0
 10
1056.1563429798
 20
28.2635716007
 30
0.0
 10
1055.5046959264
 20
27.611401136
 30
0.0
 10
1054.7278227224
 20
26.8754848653
 30
0.0
 10
1053.7566330777
 20
26.8754848653
 30
0.0
 10
1052.7580951933
 20
26.8754848653
 30
0.0
 10
1051.8147771997
 20
27.8050633125
 30
0.0
 10
1051.8147771997
 20
28.8042554611
 30
0.0
 10
1051.8147771997
 20
29.8034476096
 30
0.0
 10
1052.9936302728
 20
30.5100528482
 30
0.0
 10
1053.7151527332
 20
31.0099106282
 30
0.0
 10
1053.7151527332
 20
31.0099106282
 30
0.0
 10
1053.8399863253
 20
31.0931330229
 30
0.0
 10
1053.8399863253
 20
31.0931330229
 30
0.0
  0
SPLINE
  5
249
100
AcDbEntity
  8
0
100
AcDbSpline
 62
7
  6
CONTINUOUS
 70
2
 71
3
 72
23
 73
19
 74
0
 42
0.0000001
 43
0.0000001
 44
0.0000000001
 40
0.0
 40
0.0
 40
0.0
 40
0.0
 40
1.0
 40
1.0
 40
1.0
 40
2.0
 40
2.0
 40
2.0
 40
3.0
 40
3.0
 40
3.0
 40
4.0
 40
4.0
 40
4.0
 40
5.0
 40
5.0
 40
5.0
 40
6.0
 40
6.0
 40
6.0
 40
6.0
 10
1054.1173943079
 20
32.7308869427
 30
0.0
 10
1054.1173943079
 20
32.7308869427
 30
0.0
 10
1053.7708960353
 20
33.1742163035
 30
0.0
 10
1053.7708960353
 20
33.1742163035
 30
0.0
 10
1053.4650929904
 20
33.5623257735
 30
0.0
 10
1053.1462046633
 20
33.9508278019
 30
0.0
 10
1053.1462046633
 20
34.4777721159
 30
0.0
 10
1053.1462046633
 20
35.1439438326
 30
0.0
 10
1053.6875427877
 20
35.5876657519
 30
0.0
 10
1054.3114490429
 20
35.5876657519
 30
0.0
 10
1055.0052307049
 20
35.5876657519
 30
0.0
 10
1055.5324367247
 20
35.1854241771
 30
0.0
 10
1055.5324367247
 20
34.4504238761
 30
0.0
 10
1055.5324367247
 20
33.6871593656
 30
0.0
 10
1054.81117597
 20
33.2570461398
 30
0.0
 10
1054.2841008031
 20
32.8413267244
 30
0.0
 10
1054.2841008031
 20
32.8413267244
 30
0.0
 10
1054.1173943079
 20
32.7308869427
 30
0.0
 10
1054.1173943079
 20
32.7308869427
 30
0.0
  0
SPLINE
  5
24A
100
AcDbEntity
  8
0
100
AcDbSpline
 62
7
  6
CONTINUOUS
 70
2
 71
3
 72
50
 73
46
 74
0
 42
0.0000001
 43
0.0000001
 44
0.0000000001
 40
0.0
 40
0.0
 40
0.0
 40
0.0
 40
1.0
 40
1.0
 40
1.0
 40
2.0
 40
2.0
 40
2.0
 40
3.0
 40
3.0
 40
3.0
 40
4.0
 40
4.0
 40
4.0
 40
5.0
 40
5.0
 40
5.0
 40
6.0
 40
6.0
 40
6.0
 40
7.0
 40
7.0
 40
7.0
 40
8.0
 40
8.0
 40
8.0
 40
9.0
 40
9.0
 40
9.0
 40
10.0
 40
10.0
 40
10.0
 40
11.0
 40
11.0
 40
11.0
 40
12.0
 40
12.0
 40
12.0
 40
13.0
 40
13.0
 40
13.0
 40
14.0
 40
14.0
 40
14.0
 40
15.0
 40
15.0
 40
15.0
 40
15.0
 10
1058.0709814708
 20
25.9322977245
 30
0.0
 10
1058.0709814708
 20
25.9322977245
 30
0.0
 10
1059.6802094754
 20
25.9322977245
 30
0.0
 10
1059.6802094754
 20
25.9322977245
 30
0.0
 10
1059.6802094754
 20
25.9322977245
 30
0.0
 10
1057.8071821817
 20
28.2494394959
 30
0.0
 10
1057.8071821817
 20
28.2494394959
 30
0.0
 10
1057.8071821817
 20
28.2494394959
 30
0.0
 10
1059.0835206072
 20
29.7469191905
 30
0.0
 10
1059.0835206072
 20
29.7469191905
 30
0.0
 10
1059.0835206072
 20
29.7469191905
 30
0.0
 10
1058.2512966595
 20
30.6079307591
 30
0.0
 10
1058.2512966595
 20
30.6079307591
 30
0.0
 10
1058.2512966595
 20
30.6079307591
 30
0.0
 10
1057.0307015362
 20
29.1926266367
 30
0.0
 10
1057.0307015362
 20
29.1926266367
 30
0.0
 10
1057.0307015362
 20
29.1926266367
 30
0.0
 10
1054.8527871674
 20
31.8280024711
 30
0.0
 10
1054.8527871674
 20
31.8280024711
 30
0.0
 10
1055.7263606068
 20
32.466040831
 30
0.0
 10
1056.753031848
 20
33.2570461398
 30
0.0
 10
1056.753031848
 20
34.4358992129
 30
0.0
 10
1056.753031848
 20
35.8095921379
 30
0.0
 10
1055.6151357081
 20
36.6140752874
 30
0.0
 10
1054.3398441052
 20
36.6140752874
 30
0.0
 10
1052.9664128859
 20
36.6140752874
 30
0.0
 10
1051.9254786871
 20
35.7678500877
 30
0.0
 10
1051.9254786871
 20
34.3251977255
 30
0.0
 10
1051.9254786871
 20
33.4376230341
 30
0.0
 10
1052.4808180635
 20
32.6607498301
 30
0.0
 10
1053.0769835204
 20
32.0363201637
 30
0.0
 10
1053.0769835204
 20
32.0363201637
 30
0.0
 10
1052.4250747614
 20
31.5647265933
 30
0.0
 10
1052.4250747614
 20
31.5647265933
 30
0.0
 10
1051.426536877
 20
30.8434658386
 30
0.0
 10
1050.5936586651
 20
30.1222050839
 30
0.0
 10
1050.5936586651
 20
28.7906467676
 30
0.0
 10
1050.5936586651
 20
26.9869714696
 30
0.0
 10
1052.0507048377
 20
25.7103713385
 30
0.0
 10
1053.7982442751
 20
25.7103713385
 30
0.0
 10
1055.033102356
 20
25.7103713385
 30
0.0
 10
1056.1424725807
 20
26.418546811
 30
0.0
 10
1056.9333470366
 20
27.3470784356
 30
0.0
 10
1056.9333470366
 20
27.3470784356
 30
0.0
 10
1058.0709814708
 20
25.9322977245
 30
0.0
 10
1058.0709814708
 20
25.9322977245
 30
0.0
  0
LINE
  5
24B
100
AcDbEntity
  8
0
100
AcDbLine
 62
7
  6
CONTINUOUS
 10
1043.8738428458
 20
23.9061726292
 11
1066.2877535735
 21
23.9061726292
  0
LINE
  5
24C
100
AcDbEntity
  8
0
100
AcDbLine
 62
7
  6
CONTINUOUS
 10
1066.2877535735
 20
23.9061726292
 11
1066.2877535735
 21
46.3200833568
  0
LINE
  5
24D
100
AcDbEntity
  8
0
100
AcDbLine
 62
7
  6
CONTINUOUS
 10
1066.2877535735
 20
46.3200833568
 11
1043.8738428458
 21
46.3200833568
  0
LINE
  5
24E
100
AcDbEntity
  8
0
100
AcDbLine
 62
7
  6
CONTINUOUS
 10
1043.8738428458
 20
46.3200833568
 11
1043.8738428458
 21
23.9061726292
  0
ENDBLK
  5
24F
100
AcDbEntity
  8
0
  6
BYBLOCK
 62
0
100
AcDbBlockEnd
  0
BLOCK
  5
250
100
AcDbEntity
  8
0
100
AcDbBlockBegin
  2
_CLOSED
 70
64
 10
0.0
 20
0.0
  3
_CLOSED
  1

  0
LINE
  5
251
100
AcDbEntity
  8
0
  6
BYBLOCK
 62
0
100
AcDbLine
 10
0.0
 20
0.0
 11
-1.0
 21
0.2
  0
LINE
  5
252
100
AcDbEntity
  8
0
  6
BYBLOCK
 62
0
100
AcDbLine
 10
-1.0
 20
0.2
 11
-1.0
 21
-0.2
  0
LINE
  5
253
100
AcDbEntity
  8
0
  6
BYBLOCK
 62
0
100
AcDbLine
 10
-1.0
 20
-0.2
 11
0.0
 21
0.0
  0
LINE
  5
254
100
AcDbEntity
  8
0
  6
BYBLOCK
 62
0
100
AcDbLine
 10
-1.0
 20
0.0
 11
0.0
 21
0.0
  0
ENDBLK
  5
255
100
AcDbEntity
  8
0
  6
BYBLOCK
 62
0
100
AcDbBlockEnd
  0
BLOCK
  5
256
100
AcDbEntity
  8
0
100
AcDbBlockBegin
 62
7
  6
CONTINUOUS
  2
*D0
 70
65
 10
0.0
 20
0.0
  3
*D0
  1

  0
MTEXT
  5
257
100
AcDbEntity
  8
0
100
AcDbMText
 62
7
  6
CONTINUOUS
  7
STANDARD
 71
2
 72
1
 10
619.0502661359
 20
660.9673399839
 30
0.0
 11
1.0
 21
0.0
 31
0.0
  1
620
 40
10.0
 41
23.3085501859
  0
LINE
  5
258
100
AcDbEntity
  8
0
100
AcDbLine
 62
7
  6
CONTINUOUS
 10
309.0502661359
 20
635.2559637029
 11
309.0502661359
 21
649.2173399839
  0
LINE
  5
259
100
AcDbEntity
  8
0
100
AcDbLine
 62
7
  6
CONTINUOUS
 10
929.0502661359
 20
633.4692754678
 11
929.0502661359
 21
649.2173399839
  0
LINE
  5
25A
100
AcDbEntity
  8
0
100
AcDbLine
 62
7
  6
CONTINUOUS
 10
309.0502661359
 20
648.4673399839
 11
619.0502661359
 21
648.4673399839
  0
LINE
  5
25B
100
AcDbEntity
  8
0
100
AcDbLine
 62
7
  6
CONTINUOUS
 10
929.0502661359
 20
648.4673399839
 11
619.0502661359
 21
648.4673399839
  0
INSERT
  5
25C
100
AcDbEntity
  8
0
100
AcDbBlockReference
 62
7
  6
CONTINUOUS
  2
_CLOSED
 10
309.0502661359
 20
648.4673399839
 41
2.5
 42
2.5
 43
2.5
 50
180.0
  0
INSERT
  5
25D
100
AcDbEntity
  8
0
100
AcDbBlockReference
 62
7
  6
CONTINUOUS
  2
_CLOSED
 10
929.0502661359
 20
648.4673399839
 41
2.5
 42
2.5
 43
2.5
  0
ENDBLK
  5
25E
100
AcDbEntity
  8
0
  6
BYBLOCK
 62
0
100
AcDbBlockEnd
  0
BLOCK
  5
25F
100
AcDbEntity
  8
0
100
AcDbBlockBegin
 62
7
  6
CONTINUOUS
  2
*D1
 70
65
 10
0.0
 20
0.0
  3
*D1
  1

  0
MTEXT
  5
260
100
AcDbEntity
  8
0
100
AcDbMText
 62
7
  6
CONTINUOUS
  7
STANDARD
 71
2
 72
1
 10
252.819625298
 20
332.8998346706
 30
0.0
 11
0.0
 21
1.0
 31
0.0
  1
587,5
 40
10.0
 41
34.9442379182
  0
LINE
  5
261
100
AcDbEntity
  8
0
100
AcDbLine
 62
7
  6
CONTINUOUS
 10
291.1596209746
 20
626.6498346706
 11
264.569625298
 21
626.6498346706
  0
LINE
  5
262
100
AcDbEntity
  8
0
100
AcDbLine
 62
7
  6
CONTINUOUS
 10
288.5681009971
 20
39.1498346706
 11
264.569625298
 21
39.1498346706
  0
LINE
  5
263
100
AcDbEntity
  8
0
100
AcDbLine
 62
7
  6
CONTINUOUS
 10
265.319625298
 20
626.6498346706
 11
265.319625298
 21
332.8998346706
  0
LINE
  5
264
100
AcDbEntity
  8
0
100
AcDbLine
 62
7
  6
CONTINUOUS
 10
265.319625298
 20
39.1498346706
 11
265.319625298
 21
332.8998346706
  0
INSERT
  5
265
100
AcDbEntity
  8
0
100
AcDbBlockReference
 62
7
  6
CONTINUOUS
  2
_CLOSED
 10
265.319625298
 20
626.6498346706
 41
2.5
 42
2.5
 43
2.5
 50
90.0
  0
INSERT
  5
266
100
AcDbEntity
  8
0
100
AcDbBlockReference
 62
7
  6
CONTINUOUS
  2
_CLOSED
 10
265.319625298
 20
39.1498346706
 41
2.5
 42
2.5
 43
2.5
 50
270.0
  0
ENDBLK
  5
267
100
AcDbEntity
  8
0
  6
BYBLOCK
 62
0
100
AcDbBlockEnd
  0
BLOCK
  5
268
100
AcDbEntity
  8
0
100
AcDbBlockBegin
 62
7
  6
CONTINUOUS
  2
*D2
 70
65
 10
0.0
 20
0.0
  3
*D2
  1

  0
MTEXT
  5
269
100
AcDbEntity
  8
0
100
AcDbMText
 62
7
  6
CONTINUOUS
  7
STANDARD
 71
2
 72
1
 10
128.508266129
 20
660.9673399839
 30
0.0
 11
1.0
 21
0.0
 31
0.0
  1
99,8
 40
10.0
 41
27.1747211896
  0
LINE
  5
26A
100
AcDbEntity
  8
0
100
AcDbLine
 62
7
  6
CONTINUOUS
 10
78.608266129
 20
633.4692754678
 11
78.608266129
 21
649.2173399839
  0
LINE
  5
26B
100
AcDbEntity
  8
0
100
AcDbLine
 62
7
  6
CONTINUOUS
 10
178.408266129
 20
633.4692754678
 11
178.408266129
 21
649.2173399839
  0
LINE
  5
26C
100
AcDbEntity
  8
0
100
AcDbLine
 62
7
  6
CONTINUOUS
 10
78.608266129
 20
648.4673399839
 11
128.508266129
 21
648.4673399839
  0
LINE
  5
26D
100
AcDbEntity
  8
0
100
AcDbLine
 62
7
  6
CONTINUOUS
 10
178.408266129
 20
648.4673399839
 11
128.508266129
 21
648.4673399839
  0
INSERT
  5
26E
100
AcDbEntity
  8
0
100
AcDbBlockReference
 62
7
  6
CONTINUOUS
  2
_CLOSED
 10
78.608266129
 20
648.4673399839
 41
2.5
 42
2.5
 43
2.5
 50
180.0
  0
INSERT
  5
26F
100
AcDbEntity
  8
0
100
AcDbBlockReference
 62
7
  6
CONTINUOUS
  2
_CLOSED
 10
178.408266129
 20
648.4673399839
 41
2.5
 42
2.5
 43
2.5
  0
ENDBLK
  5
270
100
AcDbEntity
  8
0
  6
BYBLOCK
 62
0
100
AcDbBlockEnd
  0
ENDSEC
  0
SECTION
  2
ENTITIES
  0
DIMENSION
  5
271
100
AcDbEntity
  8
0
100
AcDbDimension
 62
7
  6
CONTINUOUS
  2
*D0
 10
929.0502661359
 20
648.4673399839
 11
618.9780585327
 21
648.4673399839
 70
160
  3
DIMSTYLE_1
100
AcDbAlignedDimension
 13
309.0502661359
 23
634.5059637029
 14
929.0502661359
 24
632.7192754678
100
AcDbRotatedDimension
  0
DIMENSION
  5
272
100
AcDbEntity
  8
0
100
AcDbDimension
 62
7
  6
CONTINUOUS
  2
*D1
 10
265.319625298
 20
39.1498346706
 11
265.319625298
 21
332.8972057089
 70
160
  3
DIMSTYLE_1
100
AcDbAlignedDimension
 13
291.9096209746
 23
626.6498346706
 14
289.3181009971
 24
39.1498346706
 50
270.0
100
AcDbRotatedDimension
  0
DIMENSION
  5
273
100
AcDbEntity
  8
0
100
AcDbDimension
 62
7
  6
CONTINUOUS
  2
*D2
 10
178.408266129
 20
648.4673399839
 11
128.4581006012
 21
648.4673399839
 70
160
  3
DIMSTYLE_2
100
AcDbAlignedDimension
 13
78.608266129
 23
632.7192754678
 14
178.408266129
 24
632.7192754678
100
AcDbRotatedDimension
  0
LINE
  5
274
100
AcDbEntity
  8
0
100
AcDbLine
 62
2
  6
CONTINUOUS
 10
1041.2546857384
 20
46.6963958568
 11
1131.2546857384
 21
46.6963958568
  0
LINE
  5
275
100
AcDbEntity
  8
0
100
AcDbLine
 62
2
  6
CONTINUOUS
 10
1041.2546857384
 20
46.6963958568
 11
1041.2546857384
 21
6.6963958568
  0
LINE
  5
276
100
AcDbEntity
  8
0
100
AcDbLine
 62
2
  6
CONTINUOUS
 10
1071.2546857384
 20
40.6963958568
 11
1131.2546857384
 21
40.6963958568
  0
LINE
  5
277
100
AcDbEntity
  8
0
100
AcDbLine
 62
2
  6
CONTINUOUS
 10
1071.2546857384
 20
34.6963958568
 11
1131.2546857384
 21
34.6963958568
  0
LINE
  5
278
100
AcDbEntity
  8
0
100
AcDbLine
 62
2
  6
CONTINUOUS
 10
1071.2546857384
 20
24.6963958568
 11
1131.2546857384
 21
24.6963958568
  0
LINE
  5
279
100
AcDbEntity
  8
0
100
AcDbLine
 62
2
  6
CONTINUOUS
 10
1041.2546857384
 20
19.6963958568
 11
1131.2546857384
 21
19.6963958568
  0
LINE
  5
27A
100
AcDbEntity
  8
0
100
AcDbLine
 62
2
  6
CONTINUOUS
 10
1041.2546857384
 20
6.6963958568
 11
1131.2546857384
 21
6.6963958568
  0
LINE
  5
27B
100
AcDbEntity
  8
0
100
AcDbLine
 62
2
  6
CONTINUOUS
 10
1071.2546857384
 20
46.6963958568
 11
1071.2546857384
 21
19.6963958568
  0
LINE
  5
27C
100
AcDbEntity
  8
0
100
AcDbLine
 62
2
  6
CONTINUOUS
 10
1111.2546857384
 20
46.6963958568
 11
1111.2546857384
 21
34.6963958568
  0
LINE
  5
27D
100
AcDbEntity
  8
0
100
AcDbLine
 62
2
  6
CONTINUOUS
 10
1131.2546857384
 20
46.6963958568
 11
1131.2546857384
 21
6.6963958568
  0
INSERT
  5
27E
100
AcDbEntity
  8
0
100
AcDbBlockReference
 62
2
  6
CONTINUOUS
  2
LOGO2_BL0
 10
1055.0807327832
 20
33.1963958568
  0
MTEXT
  5
27F
100
AcDbEntity
  8
9_SOLID
100
AcDbMText
 62
2
  6
CONTINUOUS
  7
TEXTSTYLE_2
 71
1
 72
1
 10
1072.7421857384
 20
45.1963958568
 30
0.0
 11
1.0
 21
0.0
 31
0.0
  1
6F3_C_450
 40
3.0
 41
31.9285714286
  0
MTEXT
  5
280
100
AcDbEntity
  8
0
100
AcDbMText
 62
2
  6
CONTINUOUS
  7
TEXTSTYLE_2
 71
1
 72
1
 10
1112.7421857384
 20
44.9463958568
 30
0.0
 11
1.0
 21
0.0
 31
0.0
  1
Rev:00
 40
3.5
 41
22.75
  0
MTEXT
  5
281
100
AcDbEntity
  8
9_SOLID
100
AcDbMText
 62
2
  6
CONTINUOUS
  7
TEXTSTYLE_2
 71
1
 72
1
 10
1072.7421857384
 20
38.9463958568
 30
0.0
 11
1.0
 21
0.0
 31
0.0
  1
Scale:1:1
 40
3.5
 41
28.375
  0
MTEXT
  5
282
100
AcDbEntity
  8
9_SOLID
100
AcDbMText
 62
2
  6
CONTINUOUS
  7
TEXTSTYLE_2
 71
1
 72
1
 10
1112.7421857384
 20
39.4463958568
 30
0.0
 11
1.0
 21
0.0
 31
0.0
  1
A0
 40
3.5
 41
9.625
  0
MTEXT
  5
283
100
AcDbEntity
  8
0
100
AcDbMText
 62
2
  6
CONTINUOUS
  7
TEXTSTYLE_2
 71
1
 72
1
 10
1072.7421857384
 20
31.4463958568
 30
0.0
 11
1.0
 21
0.0
 31
0.0
  1
CASS. ARRETRATA BRENTA1 ANG. PIANO 90°
 40
3.5
 41
157.2125
  0
MTEXT
  5
284
100
AcDbEntity
  8
0
100
AcDbMText
 62
2
  6
CONTINUOUS
  7
TEXTSTYLE_2
 71
1
 72
1
 10
1072.7421857384
 20
23.4463958568
 30
0.0
 11
1.0
 21
0.0
 31
0.0
  1
DATE:08/05/18
 40
2.5
 41
36.875
  0
MTEXT
  5
285
100
AcDbEntity
  8
9_SOLID
100
AcDbMText
 62
2
  6
CONTINUOUS
  7
TEXTSTYLE_2
 71
1
 72
1
 10
1042.7421857384
 20
19.3838958568
 30
0.0
 11
1.0
 21
0.0
 31
0.0
  1
Any integral or partial reproductions are prohibited \Pwithout prior authorisation of L {\Ftxt.shx;\W0.190476;\H2.250000; }& L Luce & Light s.r.l., \Pin accordance with the law in force. \PAll rights reserved.
 40
2.25
 41
134.5982142857
  0
LINE
  5
286
100
AcDbEntity
  8
0
100
AcDbLine
 62
7
  6
CONTINUOUS
 10
0.0
 20
0.0
 11
0.0
 21
841.0
  0
LINE
  5
287
100
AcDbEntity
  8
0
100
AcDbLine
 62
7
  6
CONTINUOUS
 10
0.0
 20
0.0
 11
1189.0
 21
0.0
  0
LINE
  5
288
100
AcDbEntity
  8
0
100
AcDbLine
 62
7
  6
CONTINUOUS
 10
0.0
 20
841.0
 11
1189.0
 21
841.0
  0
LINE
  5
289
100
AcDbEntity
  8
0
100
AcDbLine
 62
7
  6
CONTINUOUS
 10
1189.0
 20
0.0
 11
1189.0
 21
841.0
  0
LINE
  5
28A
100
AcDbEntity
  8
6_ALL_SURFS
100
AcDbLine
 62
7
  6
CONTINUOUS
 10
309.0502661359
 20
39.1498346706
 11
309.0502661359
 21
626.6498346706
  0
LINE
  5
28B
100
AcDbEntity
  8
7_ALL_FEATURES
100
AcDbLine
 62
9
  6
CONTINUOUS
 10
309.4047945455
 20
626.295306261
 11
309.4047945455
 21
39.1498346706
  0
LINE
  5
28C
100
AcDbEntity
  8
6_ALL_SURFS
100
AcDbLine
 62
7
  6
CONTINUOUS
 10
311.5502661359
 20
39.1498346706
 11
311.5502661359
 21
77.8664268769
  0
LINE
  5
28D
100
AcDbEntity
  8
6_ALL_SURFS
100
AcDbLine
 62
7
  6
CONTINUOUS
 10
311.5502661359
 20
84.4332424643
 11
311.5502661359
 21
277.8664268769
  0
LINE
  5
28E
100
AcDbEntity
  8
6_ALL_SURFS
100
AcDbLine
 62
7
  6
CONTINUOUS
 10
311.5502661359
 20
284.4332424643
 11
311.5502661359
 21
477.8664268769
  0
LINE
  5
28F
100
AcDbEntity
  8
7_ALL_FEATURES
100
AcDbLine
 62
7
  6
CONTINUOUS
 10
311.5502661359
 20
484.4332424643
 11
311.5502661359
 21
624.1498346706
  0
LINE
  5
290
100
AcDbEntity
  8
6_ALL_SURFS
100
AcDbLine
 62
7
  6
CONTINUOUS
 10
314.4502661359
 20
39.1498346706
 11
314.4502661359
 21
76.3884518105
  0
LINE
  5
291
100
AcDbEntity
  8
6_ALL_SURFS
100
AcDbLine
 62
7
  6
CONTINUOUS
 10
314.4502661359
 20
85.9112175306
 11
314.4502661359
 21
276.3884518105
  0
LINE
  5
292
100
AcDbEntity
  8
6_ALL_SURFS
100
AcDbLine
 62
7
  6
CONTINUOUS
 10
314.4502661359
 20
285.9112175306
 11
314.4502661359
 21
476.3884518105
  0
LINE
  5
293
100
AcDbEntity
  8
7_ALL_FEATURES
100
AcDbLine
 62
7
  6
CONTINUOUS
 10
314.4502661359
 20
485.9112175306
 11
314.4502661359
 21
621.2498346706
  0
LINE
  5
294
100
AcDbEntity
  8
6_ALL_SURFS
100
AcDbLine
 62
7
  6
CONTINUOUS
 10
315.0502661359
 20
39.1498346706
 11
315.0502661359
 21
76.3507965649
  0
LINE
  5
295
100
AcDbEntity
  8
6_ALL_SURFS
100
AcDbLine
 62
7
  6
CONTINUOUS
 10
315.0502661359
 20
85.9488727763
 11
315.0502661359
 21
276.3507965649
  0
LINE
  5
296
100
AcDbEntity
  8
6_ALL_SURFS
100
AcDbLine
 62
7
  6
CONTINUOUS
 10
315.0502661359
 20
285.9488727763
 11
315.0502661359
 21
476.3507965649
  0
LINE
  5
297
100
AcDbEntity
  8
7_ALL_FEATURES
100
AcDbLine
 62
7
  6
CONTINUOUS
 10
315.0502661359
 20
485.9488727763
 11
315.0502661359
 21
620.6498346706
  0
LINE
  5
298
100
AcDbEntity
  8
6_ALL_SURFS
100
AcDbLine
 62
7
  6
CONTINUOUS
 10
317.4502661359
 20
39.1498346706
 11
317.4502661359
 21
76.9940234694
  0
LINE
  5
299
100
AcDbEntity
  8
6_ALL_SURFS
100
AcDbLine
 62
7
  6
CONTINUOUS
 10
317.4502661359
 20
85.3056458717
 11
317.4502661359
 21
276.9940234694
  0
LINE
  5
29A
100
AcDbEntity
  8
6_ALL_SURFS
100
AcDbLine
 62
7
  6
CONTINUOUS
 10
317.4502661359
 20
285.3056458717
 11
317.4502661359
 21
476.9940234694
  0
LINE
  5
29B
100
AcDbEntity
  8
7_ALL_FEATURES
100
AcDbLine
 62
7
  6
CONTINUOUS
 10
317.4502661359
 20
485.3056458717
 11
317.4502661359
 21
618.2498346706
  0
LINE
  5
29C
100
AcDbEntity
  8
6_ALL_SURFS
100
AcDbLine
 62
7
  6
CONTINUOUS
 10
318.0502661359
 20
39.1498346706
 11
318.0502661359
 21
77.4040681616
  0
LINE
  5
29D
100
AcDbEntity
  8
6_ALL_SURFS
100
AcDbLine
 62
7
  6
CONTINUOUS
 10
318.0502661359
 20
84.8956011795
 11
318.0502661359
 21
277.4040681616
  0
LINE
  5
29E
100
AcDbEntity
  8
6_ALL_SURFS
100
AcDbLine
 62
7
  6
CONTINUOUS
 10
318.0502661359
 20
284.8956011795
 11
318.0502661359
 21
477.4040681616
  0
LINE
  5
29F
100
AcDbEntity
  8
7_ALL_FEATURES
100
AcDbLine
 62
7
  6
CONTINUOUS
 10
318.0502661359
 20
484.8956011795
 11
318.0502661359
 21
617.6498346706
  0
LINE
  5
2A0
100
AcDbEntity
  8
7_ALL_FEATURES
100
AcDbLine
 62
7
  6
CONTINUOUS
 10
320.4502661359
 20
39.1498346706
 11
320.4502661359
 21
615.2498346706
  0
LINE
  5
2A1
100
AcDbEntity
  8
7_ALL_FEATURES
100
AcDbLine
 62
7
  6
CONTINUOUS
 10
321.0502661359
 20
39.1498346706
 11
321.0502661359
 21
614.6498346706
  0
LINE
  5
2A2
100
AcDbEntity
  8
7_ALL_FEATURES
100
AcDbLine
 62
7
  6
CONTINUOUS
 10
323.4502661359
 20
39.1498346706
 11
323.4502661359
 21
612.2498346706
  0
LINE
  5
2A3
100
AcDbEntity
  8
7_ALL_FEATURES
100
AcDbLine
 62
7
  6
CONTINUOUS
 10
324.0502661359
 20
39.1498346706
 11
324.0502661359
 21
611.6498346706
  0
LINE
  5
2A4
100
AcDbEntity
  8
7_ALL_FEATURES
100
AcDbLine
 62
7
  6
CONTINUOUS
 10
326.4502661359
 20
39.1498346706
 11
326.4502661359
 21
609.2498346706
  0
LINE
  5
2A5
100
AcDbEntity
  8
7_ALL_FEATURES
100
AcDbLine
 62
7
  6
CONTINUOUS
 10
327.0502661359
 20
39.1498346706
 11
327.0502661359
 21
608.6498346706
  0
LINE
  5
2A6
100
AcDbEntity
  8
7_ALL_FEATURES
100
AcDbLine
 62
9
  6
CONTINUOUS
 10
329.0002661359
 20
39.1498346706
 11
329.0002661359
 21
606.6998346706
  0
LINE
  5
2A7
100
AcDbEntity
  8
7_ALL_FEATURES
100
AcDbLine
 62
7
  6
CONTINUOUS
 10
329.3002661359
 20
606.3998346706
 11
329.3002661359
 21
39.1498346706
  0
LINE
  5
2A8
100
AcDbEntity
  8
7_ALL_FEATURES
100
AcDbLine
 62
9
  6
CONTINUOUS
 10
329.6002661359
 20
606.0998346706
 11
329.6002661359
 21
39.1498346706
  0
LINE
  5
2A9
100
AcDbEntity
  8
7_ALL_FEATURES
100
AcDbLine
 62
9
  6
CONTINUOUS
 10
330.2502661359
 20
605.4498346706
 11
330.2502661359
 21
39.1498346706
  0
LINE
  5
2AA
100
AcDbEntity
  8
7_ALL_FEATURES
100
AcDbLine
 62
7
  6
CONTINUOUS
 10
330.5502661359
 20
605.1498346706
 11
330.5502661359
 21
39.1498346706
  0
LINE
  5
2AB
100
AcDbEntity
  8
7_ALL_FEATURES
100
AcDbLine
 62
9
  6
CONTINUOUS
 10
330.6122601338
 20
39.1498346706
 11
330.6122601338
 21
605.0878406727
  0
LINE
  5
2AC
100
AcDbEntity
  8
7_ALL_FEATURES
100
AcDbLine
 62
7
  6
CONTINUOUS
 10
330.7502661359
 20
39.1498346706
 11
330.7502661359
 21
604.5998346706
  0
LINE
  5
2AD
100
AcDbEntity
  8
7_ALL_FEATURES
100
AcDbLine
 62
9
  6
CONTINUOUS
 10
330.9502661359
 20
39.1498346706
 11
330.9502661359
 21
604.3998346706
  0
LINE
  5
2AE
100
AcDbEntity
  8
7_ALL_FEATURES
100
AcDbLine
 62
9
  6
CONTINUOUS
 10
331.7229318513
 20
603.9771689552
 11
331.7229318513
 21
603.6271689552
  0
LINE
  5
2AF
100
AcDbEntity
  8
6_ALL_SURFS
100
AcDbLine
 62
7
  6
CONTINUOUS
 10
331.7642611832
 20
603.5858396232
 11
331.7642611832
 21
603.9358396232
  0
LINE
  5
2B0
100
AcDbEntity
  8
7_ALL_FEATURES
100
AcDbLine
 62
9
  6
CONTINUOUS
 10
332.3613037379
 20
602.9887970686
 11
332.3613037379
 21
603.3387970686
  0
LINE
  5
2B1
100
AcDbEntity
  8
7_ALL_FEATURES
100
AcDbLine
 62
9
  6
CONTINUOUS
 10
332.5807098484
 20
602.7693909581
 11
332.5807098484
 21
603.1193909581
  0
LINE
  5
2B2
100
AcDbEntity
  8
7_ALL_FEATURES
100
AcDbLine
 62
9
  6
CONTINUOUS
 10
333.4002661359
 20
602.2998346706
 11
333.4002661359
 21
601.9498346706
  0
LINE
  5
2B3
100
AcDbEntity
  8
7_ALL_FEATURES
100
AcDbLine
 62
7
  6
CONTINUOUS
 10
333.7002661359
 20
601.9998346706
 11
333.7002661359
 21
601.6498346706
  0
LINE
  5
2B4
100
AcDbEntity
  8
7_ALL_FEATURES
100
AcDbLine
 62
9
  6
CONTINUOUS
 10
333.7605735151
 20
601.5895272914
 11
333.7605735151
 21
601.9395272914
  0
LINE
  5
2B5
100
AcDbEntity
  8
7_ALL_FEATURES
100
AcDbLine
 62
9
  6
CONTINUOUS
 10
334.1156297218
 20
601.5844710846
 11
334.1156297218
 21
601.2344710846
  0
LINE
  5
2B6
100
AcDbEntity
  8
6_ALL_SURFS
100
AcDbLine
 62
7
  6
CONTINUOUS
 10
334.1337219356
 20
601.2163788709
 11
334.1337219356
 21
601.5663788709
  0
LINE
  5
2B7
100
AcDbEntity
  8
7_ALL_FEATURES
100
AcDbLine
 62
9
  6
CONTINUOUS
 10
336.5265549804
 20
598.823545826
 11
336.5265549804
 21
599.173545826
  0
LINE
  5
2B8
100
AcDbEntity
  8
7_ALL_FEATURES
100
AcDbLine
 62
9
  6
CONTINUOUS
 10
337.5028509875
 20
597.8472498189
 11
337.5028509875
 21
598.1972498189
  0
LINE
  5
2B9
100
AcDbEntity
  8
6_ALL_SURFS
100
AcDbLine
 62
7
  6
CONTINUOUS
 10
309.0502706355
 20
39.1498346706
 11
330.7502661359
 21
39.1498346706
  0
LINE
  5
2BA
100
AcDbEntity
  8
7_ALL_FEATURES
100
AcDbLine
 62
7
  6
CONTINUOUS
 10
330.7502661359
 20
39.1498346706
 11
391.1502616363
 21
39.1498346706
  0
LINE
  5
2BB
100
AcDbEntity
  8
7_ALL_FEATURES
100
AcDbLine
 62
9
  6
CONTINUOUS
 10
348.1002661359
 20
587.5998346706
 11
348.1002661359
 21
587.2498346706
  0
LINE
  5
2BC
100
AcDbEntity
  8
7_ALL_FEATURES
100
AcDbLine
 62
7
  6
CONTINUOUS
 10
348.4002661359
 20
587.2998346706
 11
348.4002661359
 21
586.9498346706
  0
LINE
  5
2BD
100
AcDbEntity
  8
7_ALL_FEATURES
100
AcDbLine
 62
9
  6
CONTINUOUS
 10
348.7002661359
 20
586.6498346706
 11
348.7002661359
 21
586.9998346706
  0
LINE
  5
2BE
100
AcDbEntity
  8
7_ALL_FEATURES
100
AcDbLine
 62
9
  6
CONTINUOUS
 10
351.5002661359
 20
583.8498346706
 11
351.5002661359
 21
584.1998346706
  0
LINE
  5
2BF
100
AcDbEntity
  8
7_ALL_FEATURES
100
AcDbLine
 62
7
  6
CONTINUOUS
 10
351.8002661359
 20
583.8998346706
 11
351.8002661359
 21
583.5498346706
  0
LINE
  5
2C0
100
AcDbEntity
  8
7_ALL_FEATURES
100
AcDbLine
 62
9
  6
CONTINUOUS
 10
352.1002661359
 20
583.5998346706
 11
352.1002661359
 21
583.2498346706
  0
LINE
  5
2C1
100
AcDbEntity
  8
7_ALL_FEATURES
100
AcDbLine
 62
9
  6
CONTINUOUS
 10
362.6976812842
 20
572.6524195222
 11
362.6976812842
 21
573.0024195222
  0
LINE
  5
2C2
100
AcDbEntity
  8
7_ALL_FEATURES
100
AcDbLine
 62
9
  6
CONTINUOUS
 10
363.6739772913
 20
571.6761235151
 11
363.6739772913
 21
572.0261235151
  0
LINE
  5
2C3
100
AcDbEntity
  8
7_ALL_FEATURES
100
AcDbLine
 62
7
  6
CONTINUOUS
 10
366.0668103362
 20
569.6332904703
 11
366.0668103362
 21
569.2832904703
  0
LINE
  5
2C4
100
AcDbEntity
  8
7_ALL_FEATURES
100
AcDbLine
 62
9
  6
CONTINUOUS
 10
366.0849025499
 20
569.6151982565
 11
366.0849025499
 21
569.2651982565
  0
LINE
  5
2C5
100
AcDbEntity
  8
7_ALL_FEATURES
100
AcDbLine
 62
9
  6
CONTINUOUS
 10
366.4399587567
 20
568.9101420498
 11
366.4399587567
 21
569.2601420498
  0
LINE
  5
2C6
100
AcDbEntity
  8
7_ALL_FEATURES
100
AcDbLine
 62
7
  6
CONTINUOUS
 10
366.5002661359
 20
569.1998346706
 11
366.5002661359
 21
568.8498346706
  0
LINE
  5
2C7
100
AcDbEntity
  8
7_ALL_FEATURES
100
AcDbLine
 62
9
  6
CONTINUOUS
 10
366.8002661359
 20
568.8998346706
 11
366.8002661359
 21
568.5498346706
  0
LINE
  5
2C8
100
AcDbEntity
  8
7_ALL_FEATURES
100
AcDbLine
 62
9
  6
CONTINUOUS
 10
367.6198224234
 20
567.7302783831
 11
367.6198224234
 21
568.0802783831
  0
LINE
  5
2C9
100
AcDbEntity
  8
7_ALL_FEATURES
100
AcDbLine
 62
9
  6
CONTINUOUS
 10
367.8392285339
 20
567.5108722726
 11
367.8392285339
 21
567.8608722726
  0
LINE
  5
2CA
100
AcDbEntity
  8
6_ALL_SURFS
100
AcDbLine
 62
7
  6
CONTINUOUS
 10
368.4362710885
 20
567.2638297179
 11
368.4362710885
 21
566.9138297179
  0
LINE
  5
2CB
100
AcDbEntity
  8
7_ALL_FEATURES
100
AcDbLine
 62
9
  6
CONTINUOUS
 10
368.4776004205
 20
567.222500386
 11
368.4776004205
 21
566.872500386
  0
LINE
  5
2CC
100
AcDbEntity
  8
7_ALL_FEATURES
100
AcDbLine
 62
9
  6
CONTINUOUS
 10
369.2502661359
 20
39.1498346706
 11
369.2502661359
 21
566.0998346706
  0
LINE
  5
2CD
100
AcDbEntity
  8
7_ALL_FEATURES
100
AcDbLine
 62
7
  6
CONTINUOUS
 10
369.4502661359
 20
39.1498346706
 11
369.4502661359
 21
565.8998346706
  0
LINE
  5
2CE
100
AcDbEntity
  8
7_ALL_FEATURES
100
AcDbLine
 62
9
  6
CONTINUOUS
 10
369.588272138
 20
39.1498346706
 11
369.588272138
 21
566.1118286685
  0
LINE
  5
2CF
100
AcDbEntity
  8
7_ALL_FEATURES
100
AcDbLine
 62
7
  6
CONTINUOUS
 10
369.6502661359
 20
566.0498346706
 11
369.6502661359
 21
39.1498346706
  0
LINE
  5
2D0
100
AcDbEntity
  8
7_ALL_FEATURES
100
AcDbLine
 62
9
  6
CONTINUOUS
 10
369.9502661359
 20
565.7498346706
 11
369.9502661359
 21
39.1498346706
  0
LINE
  5
2D1
100
AcDbEntity
  8
7_ALL_FEATURES
100
AcDbLine
 62
9
  6
CONTINUOUS
 10
370.6002661359
 20
565.0998346706
 11
370.6002661359
 21
39.1498346706
  0
LINE
  5
2D2
100
AcDbEntity
  8
7_ALL_FEATURES
100
AcDbLine
 62
7
  6
CONTINUOUS
 10
370.9002661359
 20
564.7998346706
 11
370.9002661359
 21
39.1498346706
  0
LINE
  5
2D3
100
AcDbEntity
  8
7_ALL_FEATURES
100
AcDbLine
 62
9
  6
CONTINUOUS
 10
371.2002661359
 20
39.1498346706
 11
371.2002661359
 21
564.4998346706
  0
LINE
  5
2D4
100
AcDbEntity
  8
7_ALL_FEATURES
100
AcDbLine
 62
7
  6
CONTINUOUS
 10
373.1502661359
 20
39.1498346706
 11
373.1502661359
 21
562.5498346706
  0
LINE
  5
2D5
100
AcDbEntity
  8
7_ALL_FEATURES
100
AcDbLine
 62
7
  6
CONTINUOUS
 10
373.7502661359
 20
39.1498346706
 11
373.7502661359
 21
561.9498346706
  0
LINE
  5
2D6
100
AcDbEntity
  8
7_ALL_FEATURES
100
AcDbLine
 62
7
  6
CONTINUOUS
 10
376.1502661359
 20
39.1498346706
 11
376.1502661359
 21
559.5498346706
  0
LINE
  5
2D7
100
AcDbEntity
  8
7_ALL_FEATURES
100
AcDbLine
 62
7
  6
CONTINUOUS
 10
376.7502661359
 20
39.1498346706
 11
376.7502661359
 21
558.9498346706
  0
LINE
  5
2D8
100
AcDbEntity
  8
7_ALL_FEATURES
100
AcDbLine
 62
7
  6
CONTINUOUS
 10
379.1502661359
 20
39.1498346706
 11
379.1502661359
 21
556.5498346706
  0
LINE
  5
2D9
100
AcDbEntity
  8
7_ALL_FEATURES
100
AcDbLine
 62
7
  6
CONTINUOUS
 10
379.7502661359
 20
39.1498346706
 11
379.7502661359
 21
555.9498346706
  0
LINE
  5
2DA
100
AcDbEntity
  8
7_ALL_FEATURES
100
AcDbLine
 62
7
  6
CONTINUOUS
 10
382.1502661359
 20
39.1498346706
 11
382.1502661359
 21
77.4040681616
  0
LINE
  5
2DB
100
AcDbEntity
  8
7_ALL_FEATURES
100
AcDbLine
 62
7
  6
CONTINUOUS
 10
382.1502661359
 20
84.8956011795
 11
382.1502661359
 21
277.4040681616
  0
LINE
  5
2DC
100
AcDbEntity
  8
7_ALL_FEATURES
100
AcDbLine
 62
7
  6
CONTINUOUS
 10
382.1502661359
 20
284.8956011795
 11
382.1502661359
 21
477.4040681616
  0
LINE
  5
2DD
100
AcDbEntity
  8
7_ALL_FEATURES
100
AcDbLine
 62
7
  6
CONTINUOUS
 10
382.1502661359
 20
484.8956011795
 11
382.1502661359
 21
553.5498346706
  0
LINE
  5
2DE
100
AcDbEntity
  8
7_ALL_FEATURES
100
AcDbLine
 62
7
  6
CONTINUOUS
 10
382.7502661359
 20
39.1498346706
 11
382.7502661359
 21
76.9940234694
  0
LINE
  5
2DF
100
AcDbEntity
  8
7_ALL_FEATURES
100
AcDbLine
 62
7
  6
CONTINUOUS
 10
382.7502661359
 20
85.3056458717
 11
382.7502661359
 21
276.9940234694
  0
LINE
  5
2E0
100
AcDbEntity
  8
7_ALL_FEATURES
100
AcDbLine
 62
7
  6
CONTINUOUS
 10
382.7502661359
 20
285.3056458717
 11
382.7502661359
 21
476.9940234694
  0
LINE
  5
2E1
100
AcDbEntity
  8
7_ALL_FEATURES
100
AcDbLine
 62
7
  6
CONTINUOUS
 10
382.7502661359
 20
485.3056458717
 11
382.7502661359
 21
552.9498346706
  0
LINE
  5
2E2
100
AcDbEntity
  8
7_ALL_FEATURES
100
AcDbLine
 62
7
  6
CONTINUOUS
 10
385.1502661359
 20
39.1498346706
 11
385.1502661359
 21
76.3507965649
  0
LINE
  5
2E3
100
AcDbEntity
  8
7_ALL_FEATURES
100
AcDbLine
 62
7
  6
CONTINUOUS
 10
385.1502661359
 20
85.9488727763
 11
385.1502661359
 21
276.3507965649
  0
LINE
  5
2E4
100
AcDbEntity
  8
7_ALL_FEATURES
100
AcDbLine
 62
7
  6
CONTINUOUS
 10
385.1502661359
 20
285.9488727763
 11
385.1502661359
 21
476.3507965649
  0
LINE
  5
2E5
100
AcDbEntity
  8
7_ALL_FEATURES
100
AcDbLine
 62
7
  6
CONTINUOUS
 10
385.1502661359
 20
485.9488727763
 11
385.1502661359
 21
550.5498346706
  0
LINE
  5
2E6
100
AcDbEntity
  8
7_ALL_FEATURES
100
AcDbLine
 62
7
  6
CONTINUOUS
 10
385.7502661359
 20
39.1498346706
 11
385.7502661359
 21
76.3884518105
  0
LINE
  5
2E7
100
AcDbEntity
  8
7_ALL_FEATURES
100
AcDbLine
 62
7
  6
CONTINUOUS
 10
385.7502661359
 20
85.9112175306
 11
385.7502661359
 21
276.3884518105
  0
LINE
  5
2E8
100
AcDbEntity
  8
7_ALL_FEATURES
100
AcDbLine
 62
7
  6
CONTINUOUS
 10
385.7502661359
 20
285.9112175306
 11
385.7502661359
 21
476.3884518105
  0
LINE
  5
2E9
100
AcDbEntity
  8
7_ALL_FEATURES
100
AcDbLine
 62
7
  6
CONTINUOUS
 10
385.7502661359
 20
485.9112175306
 11
385.7502661359
 21
549.9498346706
  0
LINE
  5
2EA
100
AcDbEntity
  8
7_ALL_FEATURES
100
AcDbLine
 62
7
  6
CONTINUOUS
 10
388.6502661359
 20
39.1498346706
 11
388.6502661359
 21
77.8664268769
  0
LINE
  5
2EB
100
AcDbEntity
  8
7_ALL_FEATURES
100
AcDbLine
 62
7
  6
CONTINUOUS
 10
388.6502661359
 20
84.4332424643
 11
388.6502661359
 21
277.8664268769
  0
LINE
  5
2EC
100
AcDbEntity
  8
7_ALL_FEATURES
100
AcDbLine
 62
7
  6
CONTINUOUS
 10
388.6502661359
 20
284.4332424643
 11
388.6502661359
 21
477.8664268769
  0
LINE
  5
2ED
100
AcDbEntity
  8
7_ALL_FEATURES
100
AcDbLine
 62
7
  6
CONTINUOUS
 10
388.6502661359
 20
484.4332424643
 11
388.6502661359
 21
547.0498346706
  0
LINE
  5
2EE
100
AcDbEntity
  8
7_ALL_FEATURES
100
AcDbLine
 62
9
  6
CONTINUOUS
 10
390.7957377263
 20
544.9043630802
 11
390.7957377263
 21
39.1498346706
  0
LINE
  5
2EF
100
AcDbEntity
  8
7_ALL_FEATURES
100
AcDbLine
 62
7
  6
CONTINUOUS
 10
391.1502661359
 20
544.5498346706
 11
391.1502661359
 21
39.1498346706
  0
LINE
  5
2F0
100
AcDbEntity
  8
7_ALL_FEATURES
100
AcDbLine
 62
7
  6
CONTINUOUS
 10
330.7502661359
 20
604.5998346706
 11
369.4502661359
 21
565.8998346706
  0
LINE
  5
2F1
100
AcDbEntity
  8
7_ALL_FEATURES
100
AcDbLine
 62
7
  6
CONTINUOUS
 10
391.1502942277
 20
544.5498065787
 11
369.6502661359
 21
566.0498346706
  0
LINE
  5
2F2
100
AcDbEntity
  8
7_ALL_FEATURES
100
AcDbLine
 62
7
  6
CONTINUOUS
 10
369.6468586072
 20
566.0532421993
 11
348.4033973572
 21
587.2967034492
  0
LINE
  5
2F3
100
AcDbEntity
  8
7_ALL_FEATURES
100
AcDbLine
 62
7
  6
CONTINUOUS
 10
348.4002661359
 20
587.2998346706
 11
330.5536736646
 21
605.1464271419
  0
LINE
  5
2F4
100
AcDbEntity
  8
7_ALL_FEATURES
100
AcDbLine
 62
7
  6
CONTINUOUS
 10
330.5502661359
 20
605.1498346706
 11
329.3002661359
 21
606.3998346706
  0
LINE
  5
2F5
100
AcDbEntity
  8
7_ALL_FEATURES
100
AcDbLine
 62
7
  6
CONTINUOUS
 10
329.2971349145
 20
606.4029658919
 11
309.0502381043
 21
626.6498627022
  0
LINE
  5
2F6
100
AcDbEntity
  8
7_ALL_FEATURES
100
AcDbLine
 62
7
  6
CONTINUOUS
 10
331.1002661359
 20
604.9498346706
 11
369.8002661359
 21
566.2498346706
  0
LINE
  5
2F7
100
AcDbEntity
  8
7_ALL_FEATURES
100
AcDbLine
 62
7
  6
CONTINUOUS
 10
929.0502661359
 20
544.5498346706
 11
391.1502661359
 21
544.5498346706
  0
LINE
  5
2F8
100
AcDbEntity
  8
7_ALL_FEATURES
100
AcDbLine
 62
9
  6
CONTINUOUS
 10
929.0502661359
 20
544.9043630802
 11
390.7957377263
 21
544.9043630802
  0
LINE
  5
2F9
100
AcDbEntity
  8
7_ALL_FEATURES
100
AcDbLine
 62
7
  6
CONTINUOUS
 10
388.6502661359
 20
547.0498346706
 11
393.7668583422
 21
547.0498346706
  0
LINE
  5
2FA
100
AcDbEntity
  8
7_ALL_FEATURES
100
AcDbLine
 62
7
  6
CONTINUOUS
 10
400.3336739296
 20
547.0498346706
 11
643.7668583422
 21
547.0498346706
  0
LINE
  5
2FB
100
AcDbEntity
  8
7_ALL_FEATURES
100
AcDbLine
 62
7
  6
CONTINUOUS
 10
650.3336739296
 20
547.0498346706
 11
893.7668583422
 21
547.0498346706
  0
LINE
  5
2FC
100
AcDbEntity
  8
7_ALL_FEATURES
100
AcDbLine
 62
7
  6
CONTINUOUS
 10
900.3336739296
 20
547.0498346706
 11
929.0502661359
 21
547.0498346706
  0
LINE
  5
2FD
100
AcDbEntity
  8
7_ALL_FEATURES
100
AcDbLine
 62
7
  6
CONTINUOUS
 10
385.7502661359
 20
549.9498346706
 11
392.2888832759
 21
549.9498346706
  0
LINE
  5
2FE
100
AcDbEntity
  8
7_ALL_FEATURES
100
AcDbLine
 62
7
  6
CONTINUOUS
 10
401.8116489959
 20
549.9498346706
 11
642.2888832759
 21
549.9498346706
  0
LINE
  5
2FF
100
AcDbEntity
  8
7_ALL_FEATURES
100
AcDbLine
 62
7
  6
CONTINUOUS
 10
651.8116489959
 20
549.9498346706
 11
892.2888832759
 21
549.9498346706
  0
LINE
  5
300
100
AcDbEntity
  8
7_ALL_FEATURES
100
AcDbLine
 62
7
  6
CONTINUOUS
 10
901.8116489959
 20
549.9498346706
 11
929.0502661359
 21
549.9498346706
  0
LINE
  5
301
100
AcDbEntity
  8
7_ALL_FEATURES
100
AcDbLine
 62
7
  6
CONTINUOUS
 10
385.1502661359
 20
550.5498346706
 11
392.2512280302
 21
550.5498346706
  0
LINE
  5
302
100
AcDbEntity
  8
7_ALL_FEATURES
100
AcDbLine
 62
7
  6
CONTINUOUS
 10
401.8493042416
 20
550.5498346706
 11
642.2512280302
 21
550.5498346706
  0
LINE
  5
303
100
AcDbEntity
  8
7_ALL_FEATURES
100
AcDbLine
 62
7
  6
CONTINUOUS
 10
651.8493042416
 20
550.5498346706
 11
892.2512280302
 21
550.5498346706
  0
LINE
  5
304
100
AcDbEntity
  8
7_ALL_FEATURES
100
AcDbLine
 62
7
  6
CONTINUOUS
 10
901.8493042416
 20
550.5498346706
 11
929.0502661359
 21
550.5498346706
  0
LINE
  5
305
100
AcDbEntity
  8
7_ALL_FEATURES
100
AcDbLine
 62
7
  6
CONTINUOUS
 10
382.7502661359
 20
552.9498346706
 11
392.8944549347
 21
552.9498346706
  0
LINE
  5
306
100
AcDbEntity
  8
7_ALL_FEATURES
100
AcDbLine
 62
7
  6
CONTINUOUS
 10
401.206077337
 20
552.9498346706
 11
642.8944549347
 21
552.9498346706
  0
LINE
  5
307
100
AcDbEntity
  8
7_ALL_FEATURES
100
AcDbLine
 62
7
  6
CONTINUOUS
 10
651.206077337
 20
552.9498346706
 11
892.8944549347
 21
552.9498346706
  0
LINE
  5
308
100
AcDbEntity
  8
7_ALL_FEATURES
100
AcDbLine
 62
7
  6
CONTINUOUS
 10
901.206077337
 20
552.9498346706
 11
929.0502661359
 21
552.9498346706
  0
LINE
  5
309
100
AcDbEntity
  8
7_ALL_FEATURES
100
AcDbLine
 62
7
  6
CONTINUOUS
 10
382.1502661359
 20
553.5498346706
 11
393.3044996269
 21
553.5498346706
  0
LINE
  5
30A
100
AcDbEntity
  8
7_ALL_FEATURES
100
AcDbLine
 62
7
  6
CONTINUOUS
 10
400.7960326448
 20
553.5498346706
 11
643.3044996269
 21
553.5498346706
  0
LINE
  5
30B
100
AcDbEntity
  8
7_ALL_FEATURES
100
AcDbLine
 62
7
  6
CONTINUOUS
 10
650.7960326448
 20
553.5498346706
 11
893.3044996269
 21
553.5498346706
  0
LINE
  5
30C
100
AcDbEntity
  8
7_ALL_FEATURES
100
AcDbLine
 62
7
  6
CONTINUOUS
 10
900.7960326448
 20
553.5498346706
 11
929.0502661359
 21
553.5498346706
  0
LINE
  5
30D
100
AcDbEntity
  8
7_ALL_FEATURES
100
AcDbLine
 62
7
  6
CONTINUOUS
 10
379.7502661359
 20
555.9498346706
 11
929.0502661359
 21
555.9498346706
  0
LINE
  5
30E
100
AcDbEntity
  8
7_ALL_FEATURES
100
AcDbLine
 62
7
  6
CONTINUOUS
 10
379.1502661359
 20
556.5498346706
 11
929.0502661359
 21
556.5498346706
  0
LINE
  5
30F
100
AcDbEntity
  8
7_ALL_FEATURES
100
AcDbLine
 62
7
  6
CONTINUOUS
 10
376.7502661359
 20
558.9498346706
 11
929.0502661359
 21
558.9498346706
  0
LINE
  5
310
100
AcDbEntity
  8
7_ALL_FEATURES
100
AcDbLine
 62
7
  6
CONTINUOUS
 10
376.1502661359
 20
559.5498346706
 11
929.0502661359
 21
559.5498346706
  0
LINE
  5
311
100
AcDbEntity
  8
7_ALL_FEATURES
100
AcDbLine
 62
7
  6
CONTINUOUS
 10
373.7502661359
 20
561.9498346706
 11
929.0502661359
 21
561.9498346706
  0
LINE
  5
312
100
AcDbEntity
  8
7_ALL_FEATURES
100
AcDbLine
 62
7
  6
CONTINUOUS
 10
373.1502661359
 20
562.5498346706
 11
929.0502661359
 21
562.5498346706
  0
LINE
  5
313
100
AcDbEntity
  8
7_ALL_FEATURES
100
AcDbLine
 62
9
  6
CONTINUOUS
 10
371.2002661359
 20
564.4998346706
 11
929.0502661359
 21
564.4998346706
  0
LINE
  5
314
100
AcDbEntity
  8
7_ALL_FEATURES
100
AcDbLine
 62
7
  6
CONTINUOUS
 10
929.0502661359
 20
564.7998346706
 11
370.9002661359
 21
564.7998346706
  0
LINE
  5
315
100
AcDbEntity
  8
7_ALL_FEATURES
100
AcDbLine
 62
9
  6
CONTINUOUS
 10
929.0502661359
 20
565.0998346706
 11
370.6002661359
 21
565.0998346706
  0
LINE
  5
316
100
AcDbEntity
  8
7_ALL_FEATURES
100
AcDbLine
 62
9
  6
CONTINUOUS
 10
929.0502661359
 20
565.7498346706
 11
369.9502661359
 21
565.7498346706
  0
LINE
  5
317
100
AcDbEntity
  8
7_ALL_FEATURES
100
AcDbLine
 62
7
  6
CONTINUOUS
 10
929.0502661359
 20
566.0498346706
 11
369.6502661359
 21
566.0498346706
  0
LINE
  5
318
100
AcDbEntity
  8
7_ALL_FEATURES
100
AcDbLine
 62
9
  6
CONTINUOUS
 10
369.588272138
 20
566.1118286685
 11
929.0502661359
 21
566.1118286685
  0
LINE
  5
319
100
AcDbEntity
  8
7_ALL_FEATURES
100
AcDbLine
 62
7
  6
CONTINUOUS
 10
369.8002661359
 20
566.2498346706
 11
929.0502661359
 21
566.2498346706
  0
LINE
  5
31A
100
AcDbEntity
  8
7_ALL_FEATURES
100
AcDbLine
 62
9
  6
CONTINUOUS
 10
369.6002661359
 20
566.4498346706
 11
929.0502661359
 21
566.4498346706
  0
LINE
  5
31B
100
AcDbEntity
  8
7_ALL_FEATURES
100
AcDbLine
 62
9
  6
CONTINUOUS
 10
368.8276004205
 20
567.222500386
 11
368.4776004205
 21
567.222500386
  0
LINE
  5
31C
100
AcDbEntity
  8
6_ALL_SURFS
100
AcDbLine
 62
7
  6
CONTINUOUS
 10
368.7862710885
 20
567.2638297179
 11
368.4362710885
 21
567.2638297179
  0
LINE
  5
31D
100
AcDbEntity
  8
7_ALL_FEATURES
100
AcDbLine
 62
9
  6
CONTINUOUS
 10
367.8392285339
 20
567.8608722726
 11
368.1892285339
 21
567.8608722726
  0
LINE
  5
31E
100
AcDbEntity
  8
7_ALL_FEATURES
100
AcDbLine
 62
9
  6
CONTINUOUS
 10
367.6198224234
 20
568.0802783831
 11
367.9698224234
 21
568.0802783831
  0
LINE
  5
31F
100
AcDbEntity
  8
7_ALL_FEATURES
100
AcDbLine
 62
9
  6
CONTINUOUS
 10
367.1502661359
 20
568.8998346706
 11
366.8002661359
 21
568.8998346706
  0
LINE
  5
320
100
AcDbEntity
  8
7_ALL_FEATURES
100
AcDbLine
 62
7
  6
CONTINUOUS
 10
366.8502661359
 20
569.1998346706
 11
366.5002661359
 21
569.1998346706
  0
LINE
  5
321
100
AcDbEntity
  8
7_ALL_FEATURES
100
AcDbLine
 62
9
  6
CONTINUOUS
 10
366.4399587567
 20
569.2601420498
 11
366.7899587567
 21
569.2601420498
  0
LINE
  5
322
100
AcDbEntity
  8
7_ALL_FEATURES
100
AcDbLine
 62
9
  6
CONTINUOUS
 10
366.4349025499
 20
569.6151982565
 11
366.0849025499
 21
569.6151982565
  0
LINE
  5
323
100
AcDbEntity
  8
7_ALL_FEATURES
100
AcDbLine
 62
7
  6
CONTINUOUS
 10
366.4168103362
 20
569.6332904703
 11
366.0668103362
 21
569.6332904703
  0
LINE
  5
324
100
AcDbEntity
  8
7_ALL_FEATURES
100
AcDbLine
 62
9
  6
CONTINUOUS
 10
363.6739772913
 20
572.0261235151
 11
364.0239772913
 21
572.0261235151
  0
LINE
  5
325
100
AcDbEntity
  8
7_ALL_FEATURES
100
AcDbLine
 62
9
  6
CONTINUOUS
 10
362.6976812842
 20
573.0024195222
 11
363.0476812842
 21
573.0024195222
  0
LINE
  5
326
100
AcDbEntity
  8
7_ALL_FEATURES
100
AcDbLine
 62
9
  6
CONTINUOUS
 10
352.4502661359
 20
583.5998346706
 11
352.1002661359
 21
583.5998346706
  0
LINE
  5
327
100
AcDbEntity
  8
7_ALL_FEATURES
100
AcDbLine
 62
7
  6
CONTINUOUS
 10
352.1502661359
 20
583.8998346706
 11
351.8002661359
 21
583.8998346706
  0
LINE
  5
328
100
AcDbEntity
  8
7_ALL_FEATURES
100
AcDbLine
 62
9
  6
CONTINUOUS
 10
351.5002661359
 20
584.1998346706
 11
351.8502661359
 21
584.1998346706
  0
LINE
  5
329
100
AcDbEntity
  8
7_ALL_FEATURES
100
AcDbLine
 62
9
  6
CONTINUOUS
 10
348.7002661359
 20
586.9998346706
 11
349.0502661359
 21
586.9998346706
  0
LINE
  5
32A
100
AcDbEntity
  8
7_ALL_FEATURES
100
AcDbLine
 62
7
  6
CONTINUOUS
 10
348.7502661359
 20
587.2998346706
 11
348.4002661359
 21
587.2998346706
  0
LINE
  5
32B
100
AcDbEntity
  8
7_ALL_FEATURES
100
AcDbLine
 62
9
  6
CONTINUOUS
 10
348.4502661359
 20
587.5998346706
 11
348.1002661359
 21
587.5998346706
  0
LINE
  5
32C
100
AcDbEntity
  8
7_ALL_FEATURES
100
AcDbLine
 62
9
  6
CONTINUOUS
 10
337.5028509875
 20
598.1972498189
 11
337.8528509875
 21
598.1972498189
  0
LINE
  5
32D
100
AcDbEntity
  8
7_ALL_FEATURES
100
AcDbLine
 62
9
  6
CONTINUOUS
 10
336.5265549804
 20
599.173545826
 11
336.8765549804
 21
599.173545826
  0
LINE
  5
32E
100
AcDbEntity
  8
6_ALL_SURFS
100
AcDbLine
 62
7
  6
CONTINUOUS
 10
334.1337219356
 20
601.5663788709
 11
334.4837219356
 21
601.5663788709
  0
LINE
  5
32F
100
AcDbEntity
  8
7_ALL_FEATURES
100
AcDbLine
 62
9
  6
CONTINUOUS
 10
334.4656297218
 20
601.5844710846
 11
334.1156297218
 21
601.5844710846
  0
LINE
  5
330
100
AcDbEntity
  8
7_ALL_FEATURES
100
AcDbLine
 62
9
  6
CONTINUOUS
 10
333.7605735151
 20
601.9395272914
 11
334.1105735151
 21
601.9395272914
  0
LINE
  5
331
100
AcDbEntity
  8
7_ALL_FEATURES
100
AcDbLine
 62
7
  6
CONTINUOUS
 10
334.0502661359
 20
601.9998346706
 11
333.7002661359
 21
601.9998346706
  0
LINE
  5
332
100
AcDbEntity
  8
7_ALL_FEATURES
100
AcDbLine
 62
9
  6
CONTINUOUS
 10
333.7502661359
 20
602.2998346706
 11
333.4002661359
 21
602.2998346706
  0
LINE
  5
333
100
AcDbEntity
  8
7_ALL_FEATURES
100
AcDbLine
 62
9
  6
CONTINUOUS
 10
332.5807098484
 20
603.1193909581
 11
332.9307098484
 21
603.1193909581
  0
LINE
  5
334
100
AcDbEntity
  8
7_ALL_FEATURES
100
AcDbLine
 62
9
  6
CONTINUOUS
 10
332.3613037379
 20
603.3387970686
 11
332.7113037379
 21
603.3387970686
  0
LINE
  5
335
100
AcDbEntity
  8
6_ALL_SURFS
100
AcDbLine
 62
7
  6
CONTINUOUS
 10
331.7642611832
 20
603.9358396232
 11
332.1142611832
 21
603.9358396232
  0
LINE
  5
336
100
AcDbEntity
  8
7_ALL_FEATURES
100
AcDbLine
 62
9
  6
CONTINUOUS
 10
332.0729318513
 20
603.9771689552
 11
331.7229318513
 21
603.9771689552
  0
LINE
  5
337
100
AcDbEntity
  8
7_ALL_FEATURES
100
AcDbLine
 62
9
  6
CONTINUOUS
 10
331.3002661359
 20
604.7498346706
 11
929.0502661359
 21
604.7498346706
  0
LINE
  5
338
100
AcDbEntity
  8
7_ALL_FEATURES
100
AcDbLine
 62
7
  6
CONTINUOUS
 10
331.1002661359
 20
604.9498346706
 11
929.0502661359
 21
604.9498346706
  0
LINE
  5
339
100
AcDbEntity
  8
7_ALL_FEATURES
100
AcDbLine
 62
9
  6
CONTINUOUS
 10
330.6122601338
 20
605.0878406727
 11
929.0502661359
 21
605.0878406727
  0
LINE
  5
33A
100
AcDbEntity
  8
7_ALL_FEATURES
100
AcDbLine
 62
7
  6
CONTINUOUS
 10
929.0502661359
 20
605.1498346706
 11
330.5502661359
 21
605.1498346706
  0
LINE
  5
33B
100
AcDbEntity
  8
7_ALL_FEATURES
100
AcDbLine
 62
9
  6
CONTINUOUS
 10
929.0502661359
 20
605.4498346706
 11
330.2502661359
 21
605.4498346706
  0
LINE
  5
33C
100
AcDbEntity
  8
7_ALL_FEATURES
100
AcDbLine
 62
9
  6
CONTINUOUS
 10
929.0502661359
 20
606.0998346706
 11
329.6002661359
 21
606.0998346706
  0
LINE
  5
33D
100
AcDbEntity
  8
7_ALL_FEATURES
100
AcDbLine
 62
7
  6
CONTINUOUS
 10
929.0502661359
 20
606.3998346706
 11
329.3002661359
 21
606.3998346706
  0
LINE
  5
33E
100
AcDbEntity
  8
7_ALL_FEATURES
100
AcDbLine
 62
9
  6
CONTINUOUS
 10
329.0002661359
 20
606.6998346706
 11
929.0502661359
 21
606.6998346706
  0
LINE
  5
33F
100
AcDbEntity
  8
7_ALL_FEATURES
100
AcDbLine
 62
7
  6
CONTINUOUS
 10
327.0502661359
 20
608.6498346706
 11
929.0502661359
 21
608.6498346706
  0
LINE
  5
340
100
AcDbEntity
  8
7_ALL_FEATURES
100
AcDbLine
 62
7
  6
CONTINUOUS
 10
326.4502661359
 20
609.2498346706
 11
929.0502661359
 21
609.2498346706
  0
LINE
  5
341
100
AcDbEntity
  8
7_ALL_FEATURES
100
AcDbLine
 62
7
  6
CONTINUOUS
 10
324.0502661359
 20
611.6498346706
 11
929.0502661359
 21
611.6498346706
  0
LINE
  5
342
100
AcDbEntity
  8
7_ALL_FEATURES
100
AcDbLine
 62
7
  6
CONTINUOUS
 10
323.4502661359
 20
612.2498346706
 11
929.0502661359
 21
612.2498346706
  0
LINE
  5
343
100
AcDbEntity
  8
7_ALL_FEATURES
100
AcDbLine
 62
7
  6
CONTINUOUS
 10
321.0502661359
 20
614.6498346706
 11
929.0502661359
 21
614.6498346706
  0
LINE
  5
344
100
AcDbEntity
  8
7_ALL_FEATURES
100
AcDbLine
 62
7
  6
CONTINUOUS
 10
320.4502661359
 20
615.2498346706
 11
929.0502661359
 21
615.2498346706
  0
LINE
  5
345
100
AcDbEntity
  8
7_ALL_FEATURES
100
AcDbLine
 62
7
  6
CONTINUOUS
 10
318.0502661359
 20
617.6498346706
 11
393.3044996269
 21
617.6498346706
  0
LINE
  5
346
100
AcDbEntity
  8
6_ALL_SURFS
100
AcDbLine
 62
7
  6
CONTINUOUS
 10
400.7960326448
 20
617.6498346706
 11
643.3044996269
 21
617.6498346706
  0
LINE
  5
347
100
AcDbEntity
  8
6_ALL_SURFS
100
AcDbLine
 62
7
  6
CONTINUOUS
 10
650.7960326448
 20
617.6498346706
 11
893.3044996269
 21
617.6498346706
  0
LINE
  5
348
100
AcDbEntity
  8
6_ALL_SURFS
100
AcDbLine
 62
7
  6
CONTINUOUS
 10
900.7960326448
 20
617.6498346706
 11
929.0502661359
 21
617.6498346706
  0
LINE
  5
349
100
AcDbEntity
  8
7_ALL_FEATURES
100
AcDbLine
 62
7
  6
CONTINUOUS
 10
317.4502661359
 20
618.2498346706
 11
392.8944549347
 21
618.2498346706
  0
LINE
  5
34A
100
AcDbEntity
  8
6_ALL_SURFS
100
AcDbLine
 62
7
  6
CONTINUOUS
 10
401.206077337
 20
618.2498346706
 11
642.8944549347
 21
618.2498346706
  0
LINE
  5
34B
100
AcDbEntity
  8
6_ALL_SURFS
100
AcDbLine
 62
7
  6
CONTINUOUS
 10
651.206077337
 20
618.2498346706
 11
892.8944549347
 21
618.2498346706
  0
LINE
  5
34C
100
AcDbEntity
  8
6_ALL_SURFS
100
AcDbLine
 62
7
  6
CONTINUOUS
 10
901.206077337
 20
618.2498346706
 11
929.0502661359
 21
618.2498346706
  0
LINE
  5
34D
100
AcDbEntity
  8
7_ALL_FEATURES
100
AcDbLine
 62
7
  6
CONTINUOUS
 10
315.0502661359
 20
620.6498346706
 11
392.2512280302
 21
620.6498346706
  0
LINE
  5
34E
100
AcDbEntity
  8
6_ALL_SURFS
100
AcDbLine
 62
7
  6
CONTINUOUS
 10
401.8493042416
 20
620.6498346706
 11
642.2512280302
 21
620.6498346706
  0
LINE
  5
34F
100
AcDbEntity
  8
6_ALL_SURFS
100
AcDbLine
 62
7
  6
CONTINUOUS
 10
651.8493042416
 20
620.6498346706
 11
892.2512280302
 21
620.6498346706
  0
LINE
  5
350
100
AcDbEntity
  8
6_ALL_SURFS
100
AcDbLine
 62
7
  6
CONTINUOUS
 10
901.8493042416
 20
620.6498346706
 11
929.0502661359
 21
620.6498346706
  0
LINE
  5
351
100
AcDbEntity
  8
7_ALL_FEATURES
100
AcDbLine
 62
7
  6
CONTINUOUS
 10
314.4502661359
 20
621.2498346706
 11
392.2888832759
 21
621.2498346706
  0
LINE
  5
352
100
AcDbEntity
  8
6_ALL_SURFS
100
AcDbLine
 62
7
  6
CONTINUOUS
 10
401.8116489959
 20
621.2498346706
 11
642.2888832759
 21
621.2498346706
  0
LINE
  5
353
100
AcDbEntity
  8
6_ALL_SURFS
100
AcDbLine
 62
7
  6
CONTINUOUS
 10
651.8116489959
 20
621.2498346706
 11
892.2888832759
 21
621.2498346706
  0
LINE
  5
354
100
AcDbEntity
  8
6_ALL_SURFS
100
AcDbLine
 62
7
  6
CONTINUOUS
 10
901.8116489959
 20
621.2498346706
 11
929.0502661359
 21
621.2498346706
  0
LINE
  5
355
100
AcDbEntity
  8
7_ALL_FEATURES
100
AcDbLine
 62
7
  6
CONTINUOUS
 10
929.0502661359
 20
604.9498346706
 11
929.0502661359
 21
544.5498391702
  0
LINE
  5
356
100
AcDbEntity
  8
6_ALL_SURFS
100
AcDbLine
 62
7
  6
CONTINUOUS
 10
929.0502661359
 20
604.9498346706
 11
929.0502661359
 21
626.649830171
  0
LINE
  5
357
100
AcDbEntity
  8
7_ALL_FEATURES
100
AcDbLine
 62
7
  6
CONTINUOUS
 10
311.5502661359
 20
624.1498346706
 11
393.7668583422
 21
624.1498346706
  0
LINE
  5
358
100
AcDbEntity
  8
6_ALL_SURFS
100
AcDbLine
 62
7
  6
CONTINUOUS
 10
400.3336739296
 20
624.1498346706
 11
643.7668583422
 21
624.1498346706
  0
LINE
  5
359
100
AcDbEntity
  8
6_ALL_SURFS
100
AcDbLine
 62
7
  6
CONTINUOUS
 10
650.3336739296
 20
624.1498346706
 11
893.7668583422
 21
624.1498346706
  0
LINE
  5
35A
100
AcDbEntity
  8
6_ALL_SURFS
100
AcDbLine
 62
7
  6
CONTINUOUS
 10
900.3336739296
 20
624.1498346706
 11
929.0502661359
 21
624.1498346706
  0
LINE
  5
35B
100
AcDbEntity
  8
7_ALL_FEATURES
100
AcDbLine
 62
9
  6
CONTINUOUS
 10
929.0502661359
 20
626.295306261
 11
309.4047945455
 21
626.295306261
  0
LINE
  5
35C
100
AcDbEntity
  8
6_ALL_SURFS
100
AcDbLine
 62
7
  6
CONTINUOUS
 10
309.0502661359
 20
626.6498346706
 11
929.0502661359
 21
626.6498346706
  0
LINE
  5
35D
100
AcDbEntity
  8
6_ALL_SURFS
100
AcDbLine
 62
7
  6
CONTINUOUS
 10
328.9002661359
 20
767.7700766129
 11
328.9002661359
 21
765.9700766129
  0
LINE
  5
35E
100
AcDbEntity
  8
6_ALL_SURFS
100
AcDbLine
 62
7
  6
CONTINUOUS
 10
329.0502661359
 20
790.0700766129
 11
329.0502661359
 21
780.8731444483
  0
LINE
  5
35F
100
AcDbEntity
  8
6_ALL_SURFS
100
AcDbLine
 62
7
  6
CONTINUOUS
 10
329.0502661359
 20
776.8631569172
 11
329.0502661359
 21
774.1575771619
  0
LINE
  5
360
100
AcDbEntity
  8
6_ALL_SURFS
100
AcDbLine
 62
7
  6
CONTINUOUS
 10
329.3002661359
 20
792.5700766129
 11
329.3002661359
 21
791.6700766129
  0
LINE
  5
361
100
AcDbEntity
  8
6_ALL_SURFS
100
AcDbLine
 62
7
  6
CONTINUOUS
 10
330.5502661359
 20
774.2757503046
 11
330.5502661359
 21
775.0700766129
  0
LINE
  5
362
100
AcDbEntity
  8
6_ALL_SURFS
100
AcDbLine
 62
7
  6
CONTINUOUS
 10
330.5502661359
 20
777.3219128906
 11
330.5502661359
 21
777.9849745961
  0
LINE
  5
363
100
AcDbEntity
  8
6_ALL_SURFS
100
AcDbLine
 62
7
  6
CONTINUOUS
 10
330.5502661359
 20
779.7513267694
 11
330.5502661359
 21
792.5700766129
  0
LINE
  5
364
100
AcDbEntity
  8
7_ALL_FEATURES
100
AcDbLine
 62
7
  6
CONTINUOUS
 10
330.7502661359
 20
777.0700766129
 11
330.7502661359
 21
777.6700766129
  0
LINE
  5
365
100
AcDbEntity
  8
7_ALL_FEATURES
100
AcDbLine
 62
7
  6
CONTINUOUS
 10
331.1002661359
 20
695.0700766129
 11
331.1002661359
 21
698.0700766129
  0
LINE
  5
366
100
AcDbEntity
  8
6_ALL_SURFS
100
AcDbLine
 62
7
  6
CONTINUOUS
 10
331.9502661359
 20
770.3386690468
 11
331.9502661359
 21
770.0700766129
  0
LINE
  5
367
100
AcDbEntity
  8
7_ALL_FEATURES
100
AcDbLine
 62
7
  6
CONTINUOUS
 10
332.0002661359
 20
776.0500766129
 11
332.0002661359
 21
776.6700766129
  0
LINE
  5
368
100
AcDbEntity
  8
6_ALL_SURFS
100
AcDbLine
 62
7
  6
CONTINUOUS
 10
332.1002661359
 20
763.6700766129
 11
332.1002661359
 21
718.9245626836
  0
LINE
  5
369
100
AcDbEntity
  8
7_ALL_FEATURES
100
AcDbLine
 62
7
  6
CONTINUOUS
 10
332.8002661359
 20
776.5700766129
 11
332.8002661359
 21
776.0500766129
  0
LINE
  5
36A
100
AcDbEntity
  8
7_ALL_FEATURES
100
AcDbLine
 62
7
  6
CONTINUOUS
 10
333.1502661359
 20
776.5700766129
 11
333.1502661359
 21
776.0500766129
  0
LINE
  5
36B
100
AcDbEntity
  8
6_ALL_SURFS
100
AcDbLine
 62
7
  6
CONTINUOUS
 10
333.7002661359
 20
720.4022678143
 11
333.7002661359
 21
765.5999060207
  0
LINE
  5
36C
100
AcDbEntity
  8
6_ALL_SURFS
100
AcDbLine
 62
7
  6
CONTINUOUS
 10
333.7002661359
 20
768.1402472051
 11
333.7002661359
 21
771.8200766129
  0
LINE
  5
36D
100
AcDbEntity
  8
6_ALL_SURFS
100
AcDbLine
 62
7
  6
CONTINUOUS
 10
334.1002661359
 20
699.0700766129
 11
334.1002661359
 21
698.3700766129
  0
LINE
  5
36E
100
AcDbEntity
  8
3_ALL_AXES
100
AcDbLine
 62
7
  6
CONTINUOUS
 10
338.1002661359
 20
705.7700766129
 11
338.1002661359
 21
705.4700766129
  0
LINE
  5
36F
100
AcDbEntity
  8
3_ALL_AXES
100
AcDbLine
 62
7
  6
CONTINUOUS
 10
339.2502661359
 20
693.0700766129
 11
339.2502661359
 21
695.0700766129
  0
LINE
  5
370
100
AcDbEntity
  8
7_ALL_FEATURES
100
AcDbLine
 62
7
  6
CONTINUOUS
 10
340.6002661359
 20
702.9700766129
 11
340.6002661359
 21
702.5279263056
  0
LINE
  5
371
100
AcDbEntity
  8
7_ALL_FEATURES
100
AcDbLine
 62
7
  6
CONTINUOUS
 10
340.6002661359
 20
693.0700766129
 11
340.6002661359
 21
692.2700766129
  0
LINE
  5
372
100
AcDbEntity
  8
6_ALL_SURFS
100
AcDbLine
 62
7
  6
CONTINUOUS
 10
340.9002661359
 20
698.3700766129
 11
340.9002661359
 21
701.2700766129
  0
LINE
  5
373
100
AcDbEntity
  8
7_ALL_FEATURES
100
AcDbLine
 62
7
  6
CONTINUOUS
 10
342.6002661359
 20
706.0200766129
 11
342.6002661359
 21
705.0200766129
  0
LINE
  5
374
100
AcDbEntity
  8
7_ALL_FEATURES
100
AcDbLine
 62
7
  6
CONTINUOUS
 10
345.6002661359
 20
702.9700766129
 11
345.6002661359
 21
698.0700766129
  0
LINE
  5
375
100
AcDbEntity
  8
7_ALL_FEATURES
100
AcDbLine
 62
7
  6
CONTINUOUS
 10
345.6002661359
 20
693.0700766129
 11
345.6002661359
 21
692.2700766129
  0
LINE
  5
376
100
AcDbEntity
  8
7_ALL_FEATURES
100
AcDbLine
 62
7
  6
CONTINUOUS
 10
346.1002661359
 20
708.0482798432
 11
346.1002661359
 21
706.0200766129
  0
LINE
  5
377
100
AcDbEntity
  8
6_ALL_SURFS
100
AcDbLine
 62
7
  6
CONTINUOUS
 10
346.5002661359
 20
703.1200766129
 11
346.5002661359
 21
699.8700766129
  0
LINE
  5
378
100
AcDbEntity
  8
3_ALL_AXES
100
AcDbLine
 62
7
  6
CONTINUOUS
 10
347.9502661359
 20
693.0700766129
 11
347.9502661359
 21
695.0700766129
  0
LINE
  5
379
100
AcDbEntity
  8
7_ALL_FEATURES
100
AcDbLine
 62
7
  6
CONTINUOUS
 10
348.1002661359
 20
708.8498890298
 11
348.1002661359
 21
708.8660433053
  0
LINE
  5
37A
100
AcDbEntity
  8
6_ALL_SURFS
100
AcDbLine
 62
7
  6
CONTINUOUS
 10
348.4002661359
 20
699.9700766129
 11
348.4002661359
 21
704.7200766129
  0
LINE
  5
37B
100
AcDbEntity
  8
7_ALL_FEATURES
100
AcDbLine
 62
7
  6
CONTINUOUS
 10
349.6002661359
 20
708.8498890298
 11
349.6002661359
 21
709.0887653382
  0
LINE
  5
37C
100
AcDbEntity
  8
6_ALL_SURFS
100
AcDbLine
 62
7
  6
CONTINUOUS
 10
334.1156297218
 20
719.0847387604
 11
333.7605735151
 21
720.060247671
  0
LINE
  5
37D
100
AcDbEntity
  8
6_ALL_SURFS
100
AcDbLine
 62
7
  6
CONTINUOUS
 10
332.2187861003
 20
717.8423646139
 11
335.3240515176
 21
703.8354174901
  0
LINE
  5
37E
100
AcDbEntity
  8
6_ALL_SURFS
100
AcDbLine
 62
7
  6
CONTINUOUS
 10
336.5265549804
 20
705.803636999
 11
333.7470415911
 21
718.3412116804
  0
LINE
  5
37F
100
AcDbEntity
  8
7_ALL_FEATURES
100
AcDbLine
 62
7
  6
CONTINUOUS
 10
350.6002661359
 20
709.0887653382
 11
350.6002661359
 21
708.8498890298
  0
LINE
  5
380
100
AcDbEntity
  8
7_ALL_FEATURES
100
AcDbLine
 62
7
  6
CONTINUOUS
 10
351.8002661359
 20
699.9700766129
 11
351.8002661359
 21
704.7200766129
  0
LINE
  5
381
100
AcDbEntity
  8
7_ALL_FEATURES
100
AcDbLine
 62
7
  6
CONTINUOUS
 10
352.1002661359
 20
708.8660433053
 11
352.1002661359
 21
708.8498890298
  0
LINE
  5
382
100
AcDbEntity
  8
7_ALL_FEATURES
100
AcDbLine
 62
7
  6
CONTINUOUS
 10
353.7002661359
 20
703.1200766129
 11
353.7002661359
 21
699.8700766129
  0
LINE
  5
383
100
AcDbEntity
  8
7_ALL_FEATURES
100
AcDbLine
 62
7
  6
CONTINUOUS
 10
354.1002661359
 20
708.0482798432
 11
354.1002661359
 21
706.0200766129
  0
LINE
  5
384
100
AcDbEntity
  8
3_ALL_AXES
100
AcDbLine
 62
7
  6
CONTINUOUS
 10
354.7502661359
 20
693.0700766129
 11
354.7502661359
 21
695.0700766129
  0
LINE
  5
385
100
AcDbEntity
  8
7_ALL_FEATURES
100
AcDbLine
 62
7
  6
CONTINUOUS
 10
356.1002661359
 20
695.0700766129
 11
356.1002661359
 21
698.0700766129
  0
LINE
  5
386
100
AcDbEntity
  8
7_ALL_FEATURES
100
AcDbLine
 62
7
  6
CONTINUOUS
 10
356.4002661359
 20
693.0700766129
 11
356.4002661359
 21
692.2700766129
  0
LINE
  5
387
100
AcDbEntity
  8
7_ALL_FEATURES
100
AcDbLine
 62
7
  6
CONTINUOUS
 10
357.6002661359
 20
705.0200766129
 11
357.6002661359
 21
706.0200766129
  0
LINE
  5
388
100
AcDbEntity
  8
7_ALL_FEATURES
100
AcDbLine
 62
7
  6
CONTINUOUS
 10
359.3002661359
 20
698.3700766129
 11
359.3002661359
 21
701.2700766129
  0
LINE
  5
389
100
AcDbEntity
  8
7_ALL_FEATURES
100
AcDbLine
 62
7
  6
CONTINUOUS
 10
361.4002661359
 20
693.0700766129
 11
361.4002661359
 21
692.2700766129
  0
LINE
  5
38A
100
AcDbEntity
  8
3_ALL_AXES
100
AcDbLine
 62
7
  6
CONTINUOUS
 10
363.4502661359
 20
693.0700766129
 11
363.4502661359
 21
695.0700766129
  0
LINE
  5
38B
100
AcDbEntity
  8
3_ALL_AXES
100
AcDbLine
 62
7
  6
CONTINUOUS
 10
366.0002661359
 20
733.0700766129
 11
366.0002661359
 21
723.0700766129
  0
LINE
  5
38C
100
AcDbEntity
  8
7_ALL_FEATURES
100
AcDbLine
 62
7
  6
CONTINUOUS
 10
366.1002661359
 20
699.0700766129
 11
366.1002661359
 21
698.3700766129
  0
LINE
  5
38D
100
AcDbEntity
  8
3_ALL_AXES
100
AcDbLine
 62
7
  6
CONTINUOUS
 10
366.3002661359
 20
733.0700766129
 11
366.3002661359
 21
723.0700766129
  0
LINE
  5
38E
100
AcDbEntity
  8
7_ALL_FEATURES
100
AcDbLine
 62
7
  6
CONTINUOUS
 10
366.5002661359
 20
720.4022678143
 11
366.5002661359
 21
765.5999060207
  0
LINE
  5
38F
100
AcDbEntity
  8
7_ALL_FEATURES
100
AcDbLine
 62
7
  6
CONTINUOUS
 10
366.5002661359
 20
768.1402472051
 11
366.5002661359
 21
771.8200766129
  0
LINE
  5
390
100
AcDbEntity
  8
7_ALL_FEATURES
100
AcDbLine
 62
7
  6
CONTINUOUS
 10
367.4002661359
 20
776.0500766129
 11
367.4002661359
 21
776.5700766129
  0
LINE
  5
391
100
AcDbEntity
  8
7_ALL_FEATURES
100
AcDbLine
 62
7
  6
CONTINUOUS
 10
368.1002661359
 20
763.6700766129
 11
368.1002661359
 21
718.9245626836
  0
LINE
  5
392
100
AcDbEntity
  8
7_ALL_FEATURES
100
AcDbLine
 62
7
  6
CONTINUOUS
 10
368.2002661359
 20
776.6700766129
 11
368.2002661359
 21
776.0500766129
  0
LINE
  5
393
100
AcDbEntity
  8
7_ALL_FEATURES
100
AcDbLine
 62
7
  6
CONTINUOUS
 10
368.2502661359
 20
770.3386690468
 11
368.2502661359
 21
770.0700766129
  0
LINE
  5
394
100
AcDbEntity
  8
7_ALL_FEATURES
100
AcDbLine
 62
7
  6
CONTINUOUS
 10
368.5502661359
 20
776.6700766129
 11
368.5502661359
 21
776.0500766129
  0
LINE
  5
395
100
AcDbEntity
  8
7_ALL_FEATURES
100
AcDbLine
 62
7
  6
CONTINUOUS
 10
369.4502661359
 20
777.6700766129
 11
369.4502661359
 21
777.0700766129
  0
LINE
  5
396
100
AcDbEntity
  8
7_ALL_FEATURES
100
AcDbLine
 62
7
  6
CONTINUOUS
 10
369.6502661359
 20
774.2757503046
 11
369.6502661359
 21
775.0700766129
  0
LINE
  5
397
100
AcDbEntity
  8
7_ALL_FEATURES
100
AcDbLine
 62
7
  6
CONTINUOUS
 10
369.6502661359
 20
777.3219128906
 11
369.6502661359
 21
777.9849745961
  0
LINE
  5
398
100
AcDbEntity
  8
7_ALL_FEATURES
100
AcDbLine
 62
7
  6
CONTINUOUS
 10
369.6502661359
 20
779.7513267694
 11
369.6502661359
 21
792.5700766129
  0
LINE
  5
399
100
AcDbEntity
  8
6_ALL_SURFS
100
AcDbLine
 62
7
  6
CONTINUOUS
 10
338.8860778182
 20
699.909010854
 11
339.8611844569
 21
698.2200766129
  0
LINE
  5
39A
100
AcDbEntity
  8
7_ALL_FEATURES
100
AcDbLine
 62
7
  6
CONTINUOUS
 10
370.9002661359
 20
792.5700766129
 11
370.9002661359
 21
791.6700766129
  0
LINE
  5
39B
100
AcDbEntity
  8
7_ALL_FEATURES
100
AcDbLine
 62
7
  6
CONTINUOUS
 10
371.1002661359
 20
719.0700766129
 11
371.1002661359
 21
744.0700766129
  0
LINE
  5
39C
100
AcDbEntity
  8
7_ALL_FEATURES
100
AcDbLine
 62
7
  6
CONTINUOUS
 10
371.1502661359
 20
790.0700766129
 11
371.1502661359
 21
780.8731444483
  0
LINE
  5
39D
100
AcDbEntity
  8
7_ALL_FEATURES
100
AcDbLine
 62
7
  6
CONTINUOUS
 10
371.1502661359
 20
776.8631569172
 11
371.1502661359
 21
774.1575771619
  0
LINE
  5
39E
100
AcDbEntity
  8
7_ALL_FEATURES
100
AcDbLine
 62
7
  6
CONTINUOUS
 10
371.3002661359
 20
767.7700766129
 11
371.3002661359
 21
765.9700766129
  0
LINE
  5
39F
100
AcDbEntity
  8
3_ALL_AXES
100
AcDbLine
 62
7
  6
CONTINUOUS
 10
373.1002661359
 20
723.2200766129
 11
373.1002661359
 21
731.9200766129
  0
LINE
  5
3A0
100
AcDbEntity
  8
7_ALL_FEATURES
100
AcDbLine
 62
7
  6
CONTINUOUS
 10
373.5002661359
 20
730.5700766129
 11
373.5002661359
 21
725.5700766129
  0
LINE
  5
3A1
100
AcDbEntity
  8
7_ALL_FEATURES
100
AcDbLine
 62
7
  6
CONTINUOUS
 10
374.0002661359
 20
730.0700766129
 11
374.0002661359
 21
726.0700766129
  0
LINE
  5
3A2
100
AcDbEntity
  8
7_ALL_FEATURES
100
AcDbLine
 62
9
  6
CONTINUOUS
 10
374.1002661359
 20
744.0700766129
 11
374.1002661359
 21
719.0700766129
  0
LINE
  5
3A3
100
AcDbEntity
  8
7_ALL_FEATURES
100
AcDbLine
 62
7
  6
CONTINUOUS
 10
386.1002661359
 20
695.0700766129
 11
386.1002661359
 21
698.0700766129
  0
LINE
  5
3A4
100
AcDbEntity
  8
7_ALL_FEATURES
100
AcDbLine
 62
7
  6
CONTINUOUS
 10
363.6739772913
 20
705.803636999
 11
366.4534906807
 21
718.3412116804
  0
LINE
  5
3A5
100
AcDbEntity
  8
7_ALL_FEATURES
100
AcDbLine
 62
7
  6
CONTINUOUS
 10
367.9817461715
 20
717.8423646139
 11
364.8764807542
 21
703.8354174901
  0
LINE
  5
3A6
100
AcDbEntity
  8
7_ALL_FEATURES
100
AcDbLine
 62
7
  6
CONTINUOUS
 10
366.0849025499
 20
719.0847387604
 11
366.4399587567
 21
720.060247671
  0
LINE
  5
3A7
100
AcDbEntity
  8
7_ALL_FEATURES
100
AcDbLine
 62
7
  6
CONTINUOUS
 10
341.1002661359
 20
691.7700766129
 11
340.6002661359
 21
692.2700766129
  0
LINE
  5
3A8
100
AcDbEntity
  8
7_ALL_FEATURES
100
AcDbLine
 62
7
  6
CONTINUOUS
 10
363.8611844569
 20
698.2200766129
 11
362.8860778182
 21
699.909010854
  0
LINE
  5
3A9
100
AcDbEntity
  8
6_ALL_SURFS
100
AcDbLine
 62
7
  6
CONTINUOUS
 10
336.3393478148
 20
698.2200766129
 11
337.3144544536
 21
699.909010854
  0
LINE
  5
3AA
100
AcDbEntity
  8
7_ALL_FEATURES
100
AcDbLine
 62
7
  6
CONTINUOUS
 10
369.588272138
 20
777.1392844619
 11
368.4776004205
 21
775.6918288987
  0
LINE
  5
3AB
100
AcDbEntity
  8
3_ALL_AXES
100
AcDbLine
 62
7
  6
CONTINUOUS
 10
338.1002661359
 20
705.4700766129
 11
338.5502661359
 21
705.0200766129
  0
LINE
  5
3AC
100
AcDbEntity
  8
3_ALL_AXES
100
AcDbLine
 62
7
  6
CONTINUOUS
 10
340.4863916764
 20
703.0839510723
 11
340.6002661359
 21
702.9700766129
  0
LINE
  5
3AD
100
AcDbEntity
  8
7_ALL_FEATURES
100
AcDbLine
 62
7
  6
CONTINUOUS
 10
348.6002661359
 20
700.0200766129
 11
348.4002661359
 21
700.2200766129
  0
LINE
  5
3AE
100
AcDbEntity
  8
7_ALL_FEATURES
100
AcDbLine
 62
7
  6
CONTINUOUS
 10
356.9002661359
 20
691.7700766129
 11
356.4002661359
 21
692.2700766129
  0
LINE
  5
3AF
100
AcDbEntity
  8
6_ALL_SURFS
100
AcDbLine
 62
7
  6
CONTINUOUS
 10
330.6122601338
 20
777.1392844619
 11
331.7229318513
 21
775.6918288987
  0
LINE
  5
3B0
100
AcDbEntity
  8
7_ALL_FEATURES
100
AcDbLine
 62
7
  6
CONTINUOUS
 10
413.1002661359
 20
719.0700766129
 11
413.1002661359
 21
744.0700766129
  0
LINE
  5
3B1
100
AcDbEntity
  8
7_ALL_FEATURES
100
AcDbLine
 62
7
  6
CONTINUOUS
 10
361.3144544536
 20
699.909010854
 11
360.3393478148
 21
698.2200766129
  0
LINE
  5
3B2
100
AcDbEntity
  8
7_ALL_FEATURES
100
AcDbLine
 62
7
  6
CONTINUOUS
 10
367.8969362657
 20
773.8428759569
 11
368.2613640789
 21
774.2336769409
  0
LINE
  5
3B3
100
AcDbEntity
  8
7_ALL_FEATURES
100
AcDbLine
 62
7
  6
CONTINUOUS
 10
368.8464470402
 20
773.6880782528
 11
368.482019227
 21
773.2972772689
  0
LINE
  5
3B4
100
AcDbEntity
  8
7_ALL_FEATURES
100
AcDbLine
 62
7
  6
CONTINUOUS
 10
369.1964470402
 20
773.6880782528
 11
368.832019227
 21
773.2972772689
  0
LINE
  5
3B5
100
AcDbEntity
  8
7_ALL_FEATURES
100
AcDbLine
 62
7
  6
CONTINUOUS
 10
367.8392285339
 20
772.2154771049
 11
369.5696722464
 21
774.0711507966
  0
LINE
  5
3B6
100
AcDbEntity
  8
7_ALL_FEATURES
100
AcDbLine
 62
7
  6
CONTINUOUS
 10
370.7472966883
 20
773.1345796219
 11
368.3308600254
 21
770.5432685548
  0
LINE
  5
3B7
100
AcDbEntity
  8
6_ALL_SURFS
100
AcDbLine
 62
7
  6
CONTINUOUS
 10
329.4532355834
 20
773.1345796219
 11
331.8696722464
 21
770.5432685548
  0
LINE
  5
3B8
100
AcDbEntity
  8
6_ALL_SURFS
100
AcDbLine
 62
7
  6
CONTINUOUS
 10
332.3613037379
 20
772.2154771049
 11
330.6308600254
 21
774.0711507966
  0
LINE
  5
3B9
100
AcDbEntity
  8
7_ALL_FEATURES
100
AcDbLine
 62
7
  6
CONTINUOUS
 10
331.7185130448
 20
773.2972772689
 11
331.3540852316
 21
773.6880782528
  0
LINE
  5
3BA
100
AcDbEntity
  8
7_ALL_FEATURES
100
AcDbLine
 62
7
  6
CONTINUOUS
 10
331.9391681929
 20
774.2336769409
 11
332.3035960061
 21
773.8428759569
  0
LINE
  5
3BB
100
AcDbEntity
  8
7_ALL_FEATURES
100
AcDbLine
 62
7
  6
CONTINUOUS
 10
332.2891681929
 20
774.2336769409
 11
332.6535960061
 21
773.8428759569
  0
LINE
  5
3BC
100
AcDbEntity
  8
3_ALL_AXES
100
AcDbLine
 62
7
  6
CONTINUOUS
 10
346.0502661359
 20
703.4200766129
 11
345.6002661359
 21
702.9700766129
  0
LINE
  5
3BD
100
AcDbEntity
  8
3_ALL_AXES
100
AcDbLine
 62
7
  6
CONTINUOUS
 10
366.3002661359
 20
723.0700766129
 11
366.5002661359
 21
723.2700766129
  0
LINE
  5
3BE
100
AcDbEntity
  8
6_ALL_SURFS
100
AcDbLine
 62
7
  6
CONTINUOUS
 10
333.1613318948
 20
767.6558882952
 11
333.5502661359
 21
767.880439584
  0
LINE
  5
3BF
100
AcDbEntity
  8
6_ALL_SURFS
100
AcDbLine
 62
7
  6
CONTINUOUS
 10
311.7502661359
 20
790.2200766129
 11
312.0502661359
 21
790.3700766129
  0
LINE
  5
3C0
100
AcDbEntity
  8
6_ALL_SURFS
100
AcDbLine
 62
7
  6
CONTINUOUS
 10
314.7502661359
 20
790.2200766129
 11
315.0502661359
 21
790.3700766129
  0
LINE
  5
3C1
100
AcDbEntity
  8
6_ALL_SURFS
100
AcDbLine
 62
7
  6
CONTINUOUS
 10
317.7502661359
 20
790.2200766129
 11
318.0502661359
 21
790.3700766129
  0
LINE
  5
3C2
100
AcDbEntity
  8
6_ALL_SURFS
100
AcDbLine
 62
7
  6
CONTINUOUS
 10
320.7502661359
 20
790.2200766129
 11
321.0502661359
 21
790.3700766129
  0
LINE
  5
3C3
100
AcDbEntity
  8
6_ALL_SURFS
100
AcDbLine
 62
7
  6
CONTINUOUS
 10
323.7502661359
 20
790.2200766129
 11
324.0502661359
 21
790.3700766129
  0
LINE
  5
3C4
100
AcDbEntity
  8
6_ALL_SURFS
100
AcDbLine
 62
7
  6
CONTINUOUS
 10
326.7502661359
 20
790.2200766129
 11
327.0502661359
 21
790.3700766129
  0
LINE
  5
3C5
100
AcDbEntity
  8
3_ALL_AXES
100
AcDbLine
 62
7
  6
CONTINUOUS
 10
366.3002661359
 20
733.0700766129
 11
366.5002661359
 21
732.8700766129
  0
LINE
  5
3C6
100
AcDbEntity
  8
7_ALL_FEATURES
100
AcDbLine
 62
7
  6
CONTINUOUS
 10
374.0002661359
 20
730.0700766129
 11
373.5002661359
 21
730.5700766129
  0
LINE
  5
3C7
100
AcDbEntity
  8
7_ALL_FEATURES
100
AcDbLine
 62
7
  6
CONTINUOUS
 10
374.0002661359
 20
726.0700766129
 11
373.5002661359
 21
725.5700766129
  0
LINE
  5
3C8
100
AcDbEntity
  8
7_ALL_FEATURES
100
AcDbLine
 62
7
  6
CONTINUOUS
 10
351.6002661359
 20
700.0200766129
 11
351.8002661359
 21
700.2200766129
  0
LINE
  5
3C9
100
AcDbEntity
  8
7_ALL_FEATURES
100
AcDbLine
 62
7
  6
CONTINUOUS
 10
345.1002661359
 20
691.7700766129
 11
345.6002661359
 21
692.2700766129
  0
LINE
  5
3CA
100
AcDbEntity
  8
7_ALL_FEATURES
100
AcDbLine
 62
7
  6
CONTINUOUS
 10
360.9002661359
 20
691.7700766129
 11
361.4002661359
 21
692.2700766129
  0
LINE
  5
3CB
100
AcDbEntity
  8
7_ALL_FEATURES
100
AcDbLine
 62
7
  6
CONTINUOUS
 10
366.6502661359
 20
765.8597136418
 11
367.039200377
 21
766.0842649306
  0
LINE
  5
3CC
100
AcDbEntity
  8
7_ALL_FEATURES
100
AcDbLine
 62
7
  6
CONTINUOUS
 10
373.7502661359
 20
790.3700766129
 11
373.4502661359
 21
790.2200766129
  0
LINE
  5
3CD
100
AcDbEntity
  8
7_ALL_FEATURES
100
AcDbLine
 62
7
  6
CONTINUOUS
 10
376.7502661359
 20
790.3700766129
 11
376.4502661359
 21
790.2200766129
  0
LINE
  5
3CE
100
AcDbEntity
  8
7_ALL_FEATURES
100
AcDbLine
 62
7
  6
CONTINUOUS
 10
379.7502661359
 20
790.3700766129
 11
379.4502661359
 21
790.2200766129
  0
LINE
  5
3CF
100
AcDbEntity
  8
7_ALL_FEATURES
100
AcDbLine
 62
7
  6
CONTINUOUS
 10
382.7502661359
 20
790.3700766129
 11
382.4502661359
 21
790.2200766129
  0
LINE
  5
3D0
100
AcDbEntity
  8
7_ALL_FEATURES
100
AcDbLine
 62
7
  6
CONTINUOUS
 10
385.7502661359
 20
790.3700766129
 11
385.4502661359
 21
790.2200766129
  0
LINE
  5
3D1
100
AcDbEntity
  8
7_ALL_FEATURES
100
AcDbLine
 62
7
  6
CONTINUOUS
 10
388.7502661359
 20
790.3700766129
 11
388.4502661359
 21
790.2200766129
  0
LINE
  5
3D2
100
AcDbEntity
  8
7_ALL_FEATURES
100
AcDbLine
 62
7
  6
CONTINUOUS
 10
366.3149506052
 20
718.6633914423
 11
366.2124616095
 21
718.7248848397
  0
LINE
  5
3D3
100
AcDbEntity
  8
6_ALL_SURFS
100
AcDbLine
 62
7
  6
CONTINUOUS
 10
333.8855816666
 20
718.6633914423
 11
333.9880706622
 21
718.7248848397
  0
LINE
  5
3D4
100
AcDbEntity
  8
6_ALL_SURFS
100
AcDbLine
 62
7
  6
CONTINUOUS
 10
333.5502661359
 20
765.8597136418
 11
333.1613318948
 21
766.0842649306
  0
LINE
  5
3D5
100
AcDbEntity
  8
7_ALL_FEATURES
100
AcDbLine
 62
7
  6
CONTINUOUS
 10
367.039200377
 20
767.6558882952
 11
366.6502661359
 21
767.880439584
  0
LINE
  5
3D6
100
AcDbEntity
  8
6_ALL_SURFS
100
AcDbLine
 62
7
  6
CONTINUOUS
 10
311.4502661359
 20
790.3700766129
 11
311.7502661359
 21
790.2200766129
  0
LINE
  5
3D7
100
AcDbEntity
  8
6_ALL_SURFS
100
AcDbLine
 62
7
  6
CONTINUOUS
 10
314.4502661359
 20
790.3700766129
 11
314.7502661359
 21
790.2200766129
  0
LINE
  5
3D8
100
AcDbEntity
  8
6_ALL_SURFS
100
AcDbLine
 62
7
  6
CONTINUOUS
 10
317.4502661359
 20
790.3700766129
 11
317.7502661359
 21
790.2200766129
  0
LINE
  5
3D9
100
AcDbEntity
  8
6_ALL_SURFS
100
AcDbLine
 62
7
  6
CONTINUOUS
 10
320.4502661359
 20
790.3700766129
 11
320.7502661359
 21
790.2200766129
  0
LINE
  5
3DA
100
AcDbEntity
  8
6_ALL_SURFS
100
AcDbLine
 62
7
  6
CONTINUOUS
 10
323.4502661359
 20
790.3700766129
 11
323.7502661359
 21
790.2200766129
  0
LINE
  5
3DB
100
AcDbEntity
  8
6_ALL_SURFS
100
AcDbLine
 62
7
  6
CONTINUOUS
 10
326.4502661359
 20
790.3700766129
 11
326.7502661359
 21
790.2200766129
  0
LINE
  5
3DC
100
AcDbEntity
  8
7_ALL_FEATURES
100
AcDbLine
 62
7
  6
CONTINUOUS
 10
373.4502661359
 20
790.2200766129
 11
373.1502661359
 21
790.3700766129
  0
LINE
  5
3DD
100
AcDbEntity
  8
7_ALL_FEATURES
100
AcDbLine
 62
7
  6
CONTINUOUS
 10
376.4502661359
 20
790.2200766129
 11
376.1502661359
 21
790.3700766129
  0
LINE
  5
3DE
100
AcDbEntity
  8
7_ALL_FEATURES
100
AcDbLine
 62
7
  6
CONTINUOUS
 10
379.4502661359
 20
790.2200766129
 11
379.1502661359
 21
790.3700766129
  0
LINE
  5
3DF
100
AcDbEntity
  8
7_ALL_FEATURES
100
AcDbLine
 62
7
  6
CONTINUOUS
 10
382.4502661359
 20
790.2200766129
 11
382.1502661359
 21
790.3700766129
  0
LINE
  5
3E0
100
AcDbEntity
  8
7_ALL_FEATURES
100
AcDbLine
 62
7
  6
CONTINUOUS
 10
385.4502661359
 20
790.2200766129
 11
385.1502661359
 21
790.3700766129
  0
LINE
  5
3E1
100
AcDbEntity
  8
7_ALL_FEATURES
100
AcDbLine
 62
7
  6
CONTINUOUS
 10
388.4502661359
 20
790.2200766129
 11
388.1502661359
 21
790.3700766129
  0
LINE
  5
3E2
100
AcDbEntity
  8
7_ALL_FEATURES
100
AcDbLine
 62
7
  6
CONTINUOUS
 10
360.9002661359
 20
691.7700766129
 11
356.9002661359
 21
691.7700766129
  0
LINE
  5
3E3
100
AcDbEntity
  8
7_ALL_FEATURES
100
AcDbLine
 62
7
  6
CONTINUOUS
 10
345.1002661359
 20
691.7700766129
 11
341.1002661359
 21
691.7700766129
  0
LINE
  5
3E4
100
AcDbEntity
  8
7_ALL_FEATURES
100
AcDbLine
 62
7
  6
CONTINUOUS
 10
361.4002661359
 20
692.2700766129
 11
356.4002661359
 21
692.2700766129
  0
LINE
  5
3E5
100
AcDbEntity
  8
7_ALL_FEATURES
100
AcDbLine
 62
7
  6
CONTINUOUS
 10
345.6002661359
 20
692.2700766129
 11
340.6002661359
 21
692.2700766129
  0
LINE
  5
3E6
100
AcDbEntity
  8
3_ALL_AXES
100
AcDbLine
 62
7
  6
CONTINUOUS
 10
339.2502661359
 20
693.0700766129
 11
347.9502661359
 21
693.0700766129
  0
LINE
  5
3E7
100
AcDbEntity
  8
3_ALL_AXES
100
AcDbLine
 62
7
  6
CONTINUOUS
 10
354.7502661359
 20
693.0700766129
 11
363.4502661359
 21
693.0700766129
  0
LINE
  5
3E8
100
AcDbEntity
  8
7_ALL_FEATURES
100
AcDbLine
 62
3
  6
CONTINUOUS
 10
331.1002661359
 20
695.0700766129
 11
386.1002661359
 21
695.0700766129
  0
LINE
  5
3E9
100
AcDbEntity
  8
7_ALL_FEATURES
100
AcDbLine
 62
7
  6
CONTINUOUS
 10
331.1002661359
 20
698.0700766129
 11
334.4002661359
 21
698.0700766129
  0
LINE
  5
3EA
100
AcDbEntity
  8
6_ALL_SURFS
100
AcDbLine
 62
7
  6
CONTINUOUS
 10
334.4002661359
 20
698.0700766129
 11
336.0795401937
 21
698.0700766129
  0
LINE
  5
3EB
100
AcDbEntity
  8
7_ALL_FEATURES
100
AcDbLine
 62
7
  6
CONTINUOUS
 10
336.0795401937
 20
698.0700766129
 11
340.120992078
 21
698.0700766129
  0
LINE
  5
3EC
100
AcDbEntity
  8
6_ALL_SURFS
100
AcDbLine
 62
7
  6
CONTINUOUS
 10
340.120992078
 20
698.0700766129
 11
340.6002661359
 21
698.0700766129
  0
LINE
  5
3ED
100
AcDbEntity
  8
7_ALL_FEATURES
100
AcDbLine
 62
7
  6
CONTINUOUS
 10
340.6002661359
 20
698.0700766129
 11
929.0502661359
 21
698.0700766129
  0
LINE
  5
3EE
100
AcDbEntity
  8
7_ALL_FEATURES
100
AcDbLine
 62
9
  6
CONTINUOUS
 10
363.8611844569
 20
698.2200766129
 11
360.3393478148
 21
698.2200766129
  0
LINE
  5
3EF
100
AcDbEntity
  8
7_ALL_FEATURES
100
AcDbLine
 62
9
  6
CONTINUOUS
 10
339.8611844569
 20
698.2200766129
 11
336.3393478148
 21
698.2200766129
  0
LINE
  5
3F0
100
AcDbEntity
  8
7_ALL_FEATURES
100
AcDbLine
 62
9
  6
CONTINUOUS
 10
929.0502661359
 20
698.3700766129
 11
366.1002661359
 21
698.3700766129
  0
LINE
  5
3F1
100
AcDbEntity
  8
3_ALL_AXES
100
AcDbLine
 62
9
  6
CONTINUOUS
 10
347.3073870289
 20
698.3700766129
 11
345.6002661359
 21
698.3700766129
  0
LINE
  5
3F2
100
AcDbEntity
  8
7_ALL_FEATURES
100
AcDbLine
 62
9
  6
CONTINUOUS
 10
929.0502661359
 20
699.0700766129
 11
366.1002661359
 21
699.0700766129
  0
LINE
  5
3F3
100
AcDbEntity
  8
6_ALL_SURFS
100
AcDbLine
 62
7
  6
CONTINUOUS
 10
335.3344027987
 20
699.5700766129
 11
334.6002661359
 21
699.5700766129
  0
LINE
  5
3F4
100
AcDbEntity
  8
7_ALL_FEATURES
100
AcDbLine
 62
7
  6
CONTINUOUS
 10
364.8661294731
 20
699.5700766129
 11
929.0502661359
 21
699.5700766129
  0
LINE
  5
3F5
100
AcDbEntity
  8
7_ALL_FEATURES
100
AcDbLine
 62
7
  6
CONTINUOUS
 10
348.7002661359
 20
699.6700766129
 11
351.5002661359
 21
699.6700766129
  0
LINE
  5
3F6
100
AcDbEntity
  8
7_ALL_FEATURES
100
AcDbLine
 62
9
  6
CONTINUOUS
 10
359.3002661359
 20
699.8700766129
 11
353.7002661359
 21
699.8700766129
  0
LINE
  5
3F7
100
AcDbEntity
  8
7_ALL_FEATURES
100
AcDbLine
 62
9
  6
CONTINUOUS
 10
362.8860778182
 20
699.909010854
 11
361.3144544536
 21
699.909010854
  0
LINE
  5
3F8
100
AcDbEntity
  8
7_ALL_FEATURES
100
AcDbLine
 62
9
  6
CONTINUOUS
 10
338.8860778182
 20
699.909010854
 11
337.3144544536
 21
699.909010854
  0
LINE
  5
3F9
100
AcDbEntity
  8
7_ALL_FEATURES
100
AcDbLine
 62
9
  6
CONTINUOUS
 10
348.4002661359
 20
699.9700766129
 11
351.8002661359
 21
699.9700766129
  0
LINE
  5
3FA
100
AcDbEntity
  8
7_ALL_FEATURES
100
AcDbLine
 62
9
  6
CONTINUOUS
 10
364.5984652791
 20
700.0055604839
 11
929.0502661359
 21
700.0055604839
  0
LINE
  5
3FB
100
AcDbEntity
  8
7_ALL_FEATURES
100
AcDbLine
 62
7
  6
CONTINUOUS
 10
351.6002661359
 20
700.0200766129
 11
348.6002661359
 21
700.0200766129
  0
LINE
  5
3FC
100
AcDbEntity
  8
7_ALL_FEATURES
100
AcDbLine
 62
9
  6
CONTINUOUS
 10
362.9498318199
 20
700.2860856838
 11
361.2507004519
 21
700.2860856838
  0
LINE
  5
3FD
100
AcDbEntity
  8
7_ALL_FEATURES
100
AcDbLine
 62
9
  6
CONTINUOUS
 10
338.9498318199
 20
700.2860856838
 11
337.2507004519
 21
700.2860856838
  0
LINE
  5
3FE
100
AcDbEntity
  8
7_ALL_FEATURES
100
AcDbLine
 62
7
  6
CONTINUOUS
 10
351.8002661359
 20
700.5200766129
 11
348.4002661359
 21
700.5200766129
  0
LINE
  5
3FF
100
AcDbEntity
  8
3_ALL_AXES
100
AcDbLine
 62
9
  6
CONTINUOUS
 10
345.6002661359
 20
701.2700766129
 11
346.5002661359
 21
701.2700766129
  0
LINE
  5
400
100
AcDbEntity
  8
7_ALL_FEATURES
100
AcDbLine
 62
9
  6
CONTINUOUS
 10
364.8491821655
 20
701.8024868515
 11
929.0502661359
 21
701.8024868515
  0
LINE
  5
401
100
AcDbEntity
  8
3_ALL_AXES
100
AcDbLine
 62
9
  6
CONTINUOUS
 10
340.5251372665
 20
702.6700766129
 11
340.6002661359
 21
702.6700766129
  0
LINE
  5
402
100
AcDbEntity
  8
3_ALL_AXES
100
AcDbLine
 62
9
  6
CONTINUOUS
 10
345.6002661359
 20
702.6700766129
 11
346.5002661359
 21
702.6700766129
  0
LINE
  5
403
100
AcDbEntity
  8
3_ALL_AXES
100
AcDbLine
 62
7
  6
CONTINUOUS
 10
345.6002661359
 20
702.9700766129
 11
340.6002661359
 21
702.9700766129
  0
LINE
  5
404
100
AcDbEntity
  8
7_ALL_FEATURES
100
AcDbLine
 62
9
  6
CONTINUOUS
 10
353.7002661359
 20
703.1200766129
 11
359.6992043899
 21
703.1200766129
  0
LINE
  5
405
100
AcDbEntity
  8
7_ALL_FEATURES
100
AcDbLine
 62
7
  6
CONTINUOUS
 10
359.2423823034
 20
703.4200766129
 11
354.0002661359
 21
703.4200766129
  0
LINE
  5
406
100
AcDbEntity
  8
6_ALL_SURFS
100
AcDbLine
 62
7
  6
CONTINUOUS
 10
340.9581499684
 20
703.4200766129
 11
346.2002661359
 21
703.4200766129
  0
LINE
  5
407
100
AcDbEntity
  8
7_ALL_FEATURES
100
AcDbLine
 62
9
  6
CONTINUOUS
 10
364.8764807542
 20
703.8354174901
 11
929.0502661359
 21
703.8354174901
  0
LINE
  5
408
100
AcDbEntity
  8
6_ALL_SURFS
100
AcDbLine
 62
7
  6
CONTINUOUS
 10
348.1002661359
 20
705.0200766129
 11
337.5028509875
 21
705.0200766129
  0
LINE
  5
409
100
AcDbEntity
  8
7_ALL_FEATURES
100
AcDbLine
 62
7
  6
CONTINUOUS
 10
348.1002661359
 20
705.0200766129
 11
362.6976812842
 21
705.0200766129
  0
LINE
  5
40A
100
AcDbEntity
  8
3_ALL_AXES
100
AcDbLine
 62
7
  6
CONTINUOUS
 10
363.5305530769
 20
705.4700766129
 11
357.6002661359
 21
705.4700766129
  0
LINE
  5
40B
100
AcDbEntity
  8
3_ALL_AXES
100
AcDbLine
 62
7
  6
CONTINUOUS
 10
342.6002661359
 20
705.4700766129
 11
338.1002661359
 21
705.4700766129
  0
LINE
  5
40C
100
AcDbEntity
  8
3_ALL_AXES
100
AcDbLine
 62
7
  6
CONTINUOUS
 10
363.6643529966
 20
705.7700766129
 11
357.6002661359
 21
705.7700766129
  0
LINE
  5
40D
100
AcDbEntity
  8
3_ALL_AXES
100
AcDbLine
 62
7
  6
CONTINUOUS
 10
342.6002661359
 20
705.7700766129
 11
338.1002661359
 21
705.7700766129
  0
LINE
  5
40E
100
AcDbEntity
  8
7_ALL_FEATURES
100
AcDbLine
 62
9
  6
CONTINUOUS
 10
336.5265549804
 20
705.803636999
 11
342.6002661359
 21
705.803636999
  0
LINE
  5
40F
100
AcDbEntity
  8
7_ALL_FEATURES
100
AcDbLine
 62
9
  6
CONTINUOUS
 10
357.6002661359
 20
705.803636999
 11
363.6739772913
 21
705.803636999
  0
LINE
  5
410
100
AcDbEntity
  8
7_ALL_FEATURES
100
AcDbLine
 62
7
  6
CONTINUOUS
 10
357.6002661359
 20
706.0200766129
 11
342.6002661359
 21
706.0200766129
  0
LINE
  5
411
100
AcDbEntity
  8
7_ALL_FEATURES
100
AcDbLine
 62
7
  6
CONTINUOUS
 10
346.1002661359
 20
708.0482798432
 11
354.1002661359
 21
708.0482798432
  0
LINE
  5
412
100
AcDbEntity
  8
7_ALL_FEATURES
100
AcDbLine
 62
9
  6
CONTINUOUS
 10
929.0502661359
 20
717.8423646139
 11
367.9817461715
 21
717.8423646139
  0
LINE
  5
413
100
AcDbEntity
  8
7_ALL_FEATURES
100
AcDbLine
 62
9
  6
CONTINUOUS
 10
333.7470415911
 20
718.3412116804
 11
366.4534906807
 21
718.3412116804
  0
LINE
  5
414
100
AcDbEntity
  8
7_ALL_FEATURES
100
AcDbLine
 62
9
  6
CONTINUOUS
 10
333.8855816666
 20
718.6633914423
 11
366.3149506052
 21
718.6633914423
  0
LINE
  5
415
100
AcDbEntity
  8
7_ALL_FEATURES
100
AcDbLine
 62
9
  6
CONTINUOUS
 10
366.2124616095
 20
718.7248848397
 11
333.9880706622
 21
718.7248848397
  0
LINE
  5
416
100
AcDbEntity
  8
7_ALL_FEATURES
100
AcDbLine
 62
9
  6
CONTINUOUS
 10
929.0502661359
 20
718.9245626836
 11
368.1002661359
 21
718.9245626836
  0
LINE
  5
417
100
AcDbEntity
  8
7_ALL_FEATURES
100
AcDbLine
 62
7
  6
CONTINUOUS
 10
368.1002661359
 20
719.0700766129
 11
413.1002661359
 21
719.0700766129
  0
LINE
  5
418
100
AcDbEntity
  8
7_ALL_FEATURES
100
AcDbLine
 62
9
  6
CONTINUOUS
 10
366.0849025499
 20
719.0847387604
 11
334.1156297218
 21
719.0847387604
  0
LINE
  5
419
100
AcDbEntity
  8
7_ALL_FEATURES
100
AcDbLine
 62
9
  6
CONTINUOUS
 10
333.7605735151
 20
720.060247671
 11
366.4399587567
 21
720.060247671
  0
LINE
  5
41A
100
AcDbEntity
  8
7_ALL_FEATURES
100
AcDbLine
 62
9
  6
CONTINUOUS
 10
333.7002661359
 20
720.4022678143
 11
366.5002661359
 21
720.4022678143
  0
LINE
  5
41B
100
AcDbEntity
  8
3_ALL_AXES
100
AcDbLine
 62
7
  6
CONTINUOUS
 10
366.0002661359
 20
723.0700766129
 11
366.3002661359
 21
723.0700766129
  0
LINE
  5
41C
100
AcDbEntity
  8
3_ALL_AXES
100
AcDbLine
 62
7
  6
CONTINUOUS
 10
373.1002661359
 20
723.2200766129
 11
371.1002661359
 21
723.2200766129
  0
LINE
  5
41D
100
AcDbEntity
  8
7_ALL_FEATURES
100
AcDbLine
 62
7
  6
CONTINUOUS
 10
373.1002661359
 20
725.5700766129
 11
373.5002661359
 21
725.5700766129
  0
LINE
  5
41E
100
AcDbEntity
  8
7_ALL_FEATURES
100
AcDbLine
 62
7
  6
CONTINUOUS
 10
373.1002661359
 20
730.5700766129
 11
373.5002661359
 21
730.5700766129
  0
LINE
  5
41F
100
AcDbEntity
  8
3_ALL_AXES
100
AcDbLine
 62
7
  6
CONTINUOUS
 10
373.1002661359
 20
731.9200766129
 11
371.1002661359
 21
731.9200766129
  0
LINE
  5
420
100
AcDbEntity
  8
3_ALL_AXES
100
AcDbLine
 62
7
  6
CONTINUOUS
 10
366.0002661359
 20
733.0700766129
 11
366.3002661359
 21
733.0700766129
  0
LINE
  5
421
100
AcDbEntity
  8
7_ALL_FEATURES
100
AcDbLine
 62
7
  6
CONTINUOUS
 10
368.1002661359
 20
744.0700766129
 11
413.1002661359
 21
744.0700766129
  0
LINE
  5
422
100
AcDbEntity
  8
7_ALL_FEATURES
100
AcDbLine
 62
9
  6
CONTINUOUS
 10
368.1002661359
 20
763.6700766129
 11
929.0502661359
 21
763.6700766129
  0
LINE
  5
423
100
AcDbEntity
  8
7_ALL_FEATURES
100
AcDbLine
 62
7
  6
CONTINUOUS
 10
929.0502661359
 20
763.9700766129
 11
368.4002661359
 21
763.9700766129
  0
LINE
  5
424
100
AcDbEntity
  8
6_ALL_SURFS
100
AcDbLine
 62
7
  6
CONTINUOUS
 10
330.9002661359
 20
763.9700766129
 11
331.8002661359
 21
763.9700766129
  0
LINE
  5
425
100
AcDbEntity
  8
7_ALL_FEATURES
100
AcDbLine
 62
9
  6
CONTINUOUS
 10
366.5002661359
 20
765.5999060207
 11
333.7002661359
 21
765.5999060207
  0
LINE
  5
426
100
AcDbEntity
  8
7_ALL_FEATURES
100
AcDbLine
 62
9
  6
CONTINUOUS
 10
366.6502661359
 20
765.8597136418
 11
333.5502661359
 21
765.8597136418
  0
LINE
  5
427
100
AcDbEntity
  8
7_ALL_FEATURES
100
AcDbLine
 62
9
  6
CONTINUOUS
 10
929.0502661359
 20
765.9700766129
 11
371.3002661359
 21
765.9700766129
  0
LINE
  5
428
100
AcDbEntity
  8
7_ALL_FEATURES
100
AcDbLine
 62
9
  6
CONTINUOUS
 10
369.3829022833
 20
766.0205109289
 11
367.4162752068
 21
766.0205109289
  0
LINE
  5
429
100
AcDbEntity
  8
7_ALL_FEATURES
100
AcDbLine
 62
9
  6
CONTINUOUS
 10
367.039200377
 20
766.0842649306
 11
333.1613318948
 21
766.0842649306
  0
LINE
  5
42A
100
AcDbEntity
  8
7_ALL_FEATURES
100
AcDbLine
 62
7
  6
CONTINUOUS
 10
369.4637335201
 20
766.1244573095
 11
367.189200377
 21
766.1244573095
  0
LINE
  5
42B
100
AcDbEntity
  8
6_ALL_SURFS
100
AcDbLine
 62
7
  6
CONTINUOUS
 10
333.0113318948
 20
766.1244573095
 11
367.1892003841
 21
766.1244573095
  0
LINE
  5
42C
100
AcDbEntity
  8
7_ALL_FEATURES
100
AcDbLine
 62
7
  6
CONTINUOUS
 10
369.4637335201
 20
767.6156959163
 11
367.189200377
 21
767.6156959163
  0
LINE
  5
42D
100
AcDbEntity
  8
6_ALL_SURFS
100
AcDbLine
 62
7
  6
CONTINUOUS
 10
333.0113318948
 20
767.6156959163
 11
367.1892003841
 21
767.6156959163
  0
LINE
  5
42E
100
AcDbEntity
  8
7_ALL_FEATURES
100
AcDbLine
 62
9
  6
CONTINUOUS
 10
367.039200377
 20
767.6558882952
 11
333.1613318948
 21
767.6558882952
  0
LINE
  5
42F
100
AcDbEntity
  8
7_ALL_FEATURES
100
AcDbLine
 62
9
  6
CONTINUOUS
 10
369.3829022833
 20
767.7196422969
 11
367.4162752068
 21
767.7196422969
  0
LINE
  5
430
100
AcDbEntity
  8
7_ALL_FEATURES
100
AcDbLine
 62
9
  6
CONTINUOUS
 10
929.0502661359
 20
767.7700766129
 11
371.3002661359
 21
767.7700766129
  0
LINE
  5
431
100
AcDbEntity
  8
7_ALL_FEATURES
100
AcDbLine
 62
9
  6
CONTINUOUS
 10
366.6502661359
 20
767.880439584
 11
333.5502661359
 21
767.880439584
  0
LINE
  5
432
100
AcDbEntity
  8
7_ALL_FEATURES
100
AcDbLine
 62
9
  6
CONTINUOUS
 10
366.5002661359
 20
768.1402472051
 11
333.7002661359
 21
768.1402472051
  0
LINE
  5
433
100
AcDbEntity
  8
6_ALL_SURFS
100
AcDbLine
 62
7
  6
CONTINUOUS
 10
331.6502661359
 20
769.7700766129
 11
330.9002661359
 21
769.7700766129
  0
LINE
  5
434
100
AcDbEntity
  8
7_ALL_FEATURES
100
AcDbLine
 62
7
  6
CONTINUOUS
 10
368.5502661359
 20
769.7700766129
 11
929.0502661359
 21
769.7700766129
  0
LINE
  5
435
100
AcDbEntity
  8
7_ALL_FEATURES
100
AcDbLine
 62
9
  6
CONTINUOUS
 10
368.2502661359
 20
770.0700766129
 11
929.0502661359
 21
770.0700766129
  0
LINE
  5
436
100
AcDbEntity
  8
7_ALL_FEATURES
100
AcDbLine
 62
9
  6
CONTINUOUS
 10
368.2502661359
 20
770.3386690468
 11
929.0502661359
 21
770.3386690468
  0
LINE
  5
437
100
AcDbEntity
  8
7_ALL_FEATURES
100
AcDbLine
 62
9
  6
CONTINUOUS
 10
368.3308600254
 20
770.5432685548
 11
929.0502661359
 21
770.5432685548
  0
LINE
  5
438
100
AcDbEntity
  8
7_ALL_FEATURES
100
AcDbLine
 62
9
  6
CONTINUOUS
 10
366.5002661359
 20
771.8200766129
 11
333.7002661359
 21
771.8200766129
  0
LINE
  5
439
100
AcDbEntity
  8
6_ALL_SURFS
100
AcDbLine
 62
7
  6
CONTINUOUS
 10
333.4002661359
 20
772.1200766129
 11
332.5807098484
 21
772.1200766129
  0
LINE
  5
43A
100
AcDbEntity
  8
7_ALL_FEATURES
100
AcDbLine
 62
7
  6
CONTINUOUS
 10
333.4002661359
 20
772.1200766129
 11
367.6198224234
 21
772.1200766129
  0
LINE
  5
43B
100
AcDbEntity
  8
7_ALL_FEATURES
100
AcDbLine
 62
9
  6
CONTINUOUS
 10
332.3613037379
 20
772.2154771049
 11
367.8392285339
 21
772.2154771049
  0
LINE
  5
43C
100
AcDbEntity
  8
7_ALL_FEATURES
100
AcDbLine
 62
9
  6
CONTINUOUS
 10
929.0502661359
 20
773.1345796219
 11
370.7472966883
 21
773.1345796219
  0
LINE
  5
43D
100
AcDbEntity
  8
7_ALL_FEATURES
100
AcDbLine
 62
7
  6
CONTINUOUS
 10
332.3610545254
 20
773.1700766129
 11
368.7294069763
 21
773.1700766129
  0
LINE
  5
43E
100
AcDbEntity
  8
7_ALL_FEATURES
100
AcDbLine
 62
9
  6
CONTINUOUS
 10
368.832019227
 20
773.2972772689
 11
368.848023507
 21
773.2972772689
  0
LINE
  5
43F
100
AcDbEntity
  8
7_ALL_FEATURES
100
AcDbLine
 62
9
  6
CONTINUOUS
 10
369.1964470402
 20
773.6880782528
 11
369.2124513202
 21
773.6880782528
  0
LINE
  5
440
100
AcDbEntity
  8
7_ALL_FEATURES
100
AcDbLine
 62
9
  6
CONTINUOUS
 10
332.6535960061
 20
773.8428759569
 11
367.8969362657
 21
773.8428759569
  0
LINE
  5
441
100
AcDbEntity
  8
7_ALL_FEATURES
100
AcDbLine
 62
9
  6
CONTINUOUS
 10
330.6308600254
 20
774.0711507966
 11
331.1319394685
 21
774.0711507966
  0
LINE
  5
442
100
AcDbEntity
  8
7_ALL_FEATURES
100
AcDbLine
 62
9
  6
CONTINUOUS
 10
929.0502661359
 20
774.1575771619
 11
371.1502661359
 21
774.1575771619
  0
LINE
  5
443
100
AcDbEntity
  8
7_ALL_FEATURES
100
AcDbLine
 62
9
  6
CONTINUOUS
 10
332.2891681929
 20
774.2336769409
 11
368.2613640789
 21
774.2336769409
  0
LINE
  5
444
100
AcDbEntity
  8
7_ALL_FEATURES
100
AcDbLine
 62
9
  6
CONTINUOUS
 10
330.5502661359
 20
774.2757503046
 11
331.0905028213
 21
774.2757503046
  0
LINE
  5
445
100
AcDbEntity
  8
7_ALL_FEATURES
100
AcDbLine
 62
9
  6
CONTINUOUS
 10
332.3269216534
 20
774.5380766129
 11
368.2236106183
 21
774.5380766129
  0
LINE
  5
446
100
AcDbEntity
  8
7_ALL_FEATURES
100
AcDbLine
 62
9
  6
CONTINUOUS
 10
330.5502661359
 20
775.0700766129
 11
331.3720385333
 21
775.0700766129
  0
LINE
  5
447
100
AcDbEntity
  8
7_ALL_FEATURES
100
AcDbLine
 62
9
  6
CONTINUOUS
 10
369.0076797372
 20
775.2100766129
 11
369.6147743137
 21
775.2100766129
  0
LINE
  5
448
100
AcDbEntity
  8
6_ALL_SURFS
100
AcDbLine
 62
7
  6
CONTINUOUS
 10
331.5642611832
 20
775.3700766129
 11
330.8502661359
 21
775.3700766129
  0
LINE
  5
449
100
AcDbEntity
  8
7_ALL_FEATURES
100
AcDbLine
 62
7
  6
CONTINUOUS
 10
331.7334673632
 20
775.3700766129
 11
331.5642611832
 21
775.3700766129
  0
LINE
  5
44A
100
AcDbEntity
  8
7_ALL_FEATURES
100
AcDbLine
 62
7
  6
CONTINUOUS
 10
368.6362710885
 20
775.3700766129
 11
369.3502661359
 21
775.3700766129
  0
LINE
  5
44B
100
AcDbEntity
  8
7_ALL_FEATURES
100
AcDbLine
 62
9
  6
CONTINUOUS
 10
331.9329963401
 20
775.6918288987
 11
331.7229318513
 21
775.6918288987
  0
LINE
  5
44C
100
AcDbEntity
  8
7_ALL_FEATURES
100
AcDbLine
 62
9
  6
CONTINUOUS
 10
333.1502661359
 20
776.0500766129
 11
367.4002661359
 21
776.0500766129
  0
LINE
  5
44D
100
AcDbEntity
  8
7_ALL_FEATURES
100
AcDbLine
 62
9
  6
CONTINUOUS
 10
368.5502661359
 20
776.0500766129
 11
368.7524935599
 21
776.0500766129
  0
LINE
  5
44E
100
AcDbEntity
  8
7_ALL_FEATURES
100
AcDbLine
 62
9
  6
CONTINUOUS
 10
333.1502661359
 20
776.5700766129
 11
367.4002661359
 21
776.5700766129
  0
LINE
  5
44F
100
AcDbEntity
  8
7_ALL_FEATURES
100
AcDbLine
 62
9
  6
CONTINUOUS
 10
368.5502661359
 20
776.6700766129
 11
369.2282362925
 21
776.6700766129
  0
LINE
  5
450
100
AcDbEntity
  8
7_ALL_FEATURES
100
AcDbLine
 62
7
  6
CONTINUOUS
 10
367.2002661359
 20
776.7700766129
 11
333.0002661359
 21
776.7700766129
  0
LINE
  5
451
100
AcDbEntity
  8
7_ALL_FEATURES
100
AcDbLine
 62
9
  6
CONTINUOUS
 10
371.1502661359
 20
776.8631569172
 11
929.0502661359
 21
776.8631569172
  0
LINE
  5
452
100
AcDbEntity
  8
7_ALL_FEATURES
100
AcDbLine
 62
7
  6
CONTINUOUS
 10
369.3817016901
 20
776.8700766129
 11
368.4002661359
 21
776.8700766129
  0
LINE
  5
453
100
AcDbEntity
  8
7_ALL_FEATURES
100
AcDbLine
 62
7
  6
CONTINUOUS
 10
331.8002661359
 20
776.8700766129
 11
330.9502661359
 21
776.8700766129
  0
LINE
  5
454
100
AcDbEntity
  8
7_ALL_FEATURES
100
AcDbLine
 62
9
  6
CONTINUOUS
 10
330.6122601338
 20
777.1392844619
 11
330.7502661359
 21
777.1392844619
  0
LINE
  5
455
100
AcDbEntity
  8
7_ALL_FEATURES
100
AcDbLine
 62
9
  6
CONTINUOUS
 10
330.5502661359
 20
777.3219128906
 11
330.7502661359
 21
777.3219128906
  0
LINE
  5
456
100
AcDbEntity
  8
7_ALL_FEATURES
100
AcDbLine
 62
9
  6
CONTINUOUS
 10
371.3968414783
 20
777.6871269578
 11
929.0502661359
 21
777.6871269578
  0
LINE
  5
457
100
AcDbEntity
  8
7_ALL_FEATURES
100
AcDbLine
 62
7
  6
CONTINUOUS
 10
330.9502661359
 20
777.8700766129
 11
369.6002661359
 21
777.8700766129
  0
LINE
  5
458
100
AcDbEntity
  8
7_ALL_FEATURES
100
AcDbLine
 62
9
  6
CONTINUOUS
 10
369.6502661359
 20
777.9849745961
 11
330.5502661359
 21
777.9849745961
  0
LINE
  5
459
100
AcDbEntity
  8
7_ALL_FEATURES
100
AcDbLine
 62
9
  6
CONTINUOUS
 10
369.8397398201
 20
778.2638723077
 11
330.3607924517
 21
778.2638723077
  0
LINE
  5
45A
100
AcDbEntity
  8
7_ALL_FEATURES
100
AcDbLine
 62
9
  6
CONTINUOUS
 10
369.8397398201
 20
779.4724290578
 11
330.3607924517
 21
779.4724290578
  0
LINE
  5
45B
100
AcDbEntity
  8
7_ALL_FEATURES
100
AcDbLine
 62
9
  6
CONTINUOUS
 10
369.6502661359
 20
779.7513267694
 11
330.5502661359
 21
779.7513267694
  0
LINE
  5
45C
100
AcDbEntity
  8
7_ALL_FEATURES
100
AcDbLine
 62
9
  6
CONTINUOUS
 10
371.3968414783
 20
780.0491744077
 11
929.0502661359
 21
780.0491744077
  0
LINE
  5
45D
100
AcDbEntity
  8
7_ALL_FEATURES
100
AcDbLine
 62
9
  6
CONTINUOUS
 10
371.1502661359
 20
780.8731444483
 11
929.0502661359
 21
780.8731444483
  0
LINE
  5
45E
100
AcDbEntity
  8
7_ALL_FEATURES
100
AcDbLine
 62
7
  6
CONTINUOUS
 10
388.6502661359
 20
791.3700766129
 11
390.7957377263
 21
791.1555294539
  0
LINE
  5
45F
100
AcDbEntity
  8
7_ALL_FEATURES
100
AcDbLine
 62
9
  6
CONTINUOUS
 10
371.1502661359
 20
790.0700766129
 11
929.0502661359
 21
790.0700766129
  0
LINE
  5
460
100
AcDbEntity
  8
7_ALL_FEATURES
100
AcDbLine
 62
7
  6
CONTINUOUS
 10
311.7502661359
 20
790.2200766129
 11
329.008957765
 21
790.2200766129
  0
LINE
  5
461
100
AcDbEntity
  8
7_ALL_FEATURES
100
AcDbLine
 62
7
  6
CONTINUOUS
 10
373.4502661359
 20
790.2200766129
 11
929.0502661359
 21
790.2200766129
  0
LINE
  5
462
100
AcDbEntity
  8
7_ALL_FEATURES
100
AcDbLine
 62
7
  6
CONTINUOUS
 10
929.0502661359
 20
790.3700766129
 11
388.7502661359
 21
790.3700766129
  0
LINE
  5
463
100
AcDbEntity
  8
7_ALL_FEATURES
100
AcDbLine
 62
7
  6
CONTINUOUS
 10
388.1502661359
 20
790.3700766129
 11
385.7502661359
 21
790.3700766129
  0
LINE
  5
464
100
AcDbEntity
  8
7_ALL_FEATURES
100
AcDbLine
 62
7
  6
CONTINUOUS
 10
385.1502661359
 20
790.3700766129
 11
382.7502661359
 21
790.3700766129
  0
LINE
  5
465
100
AcDbEntity
  8
7_ALL_FEATURES
100
AcDbLine
 62
7
  6
CONTINUOUS
 10
382.1502661359
 20
790.3700766129
 11
379.7502661359
 21
790.3700766129
  0
LINE
  5
466
100
AcDbEntity
  8
7_ALL_FEATURES
100
AcDbLine
 62
7
  6
CONTINUOUS
 10
379.1502661359
 20
790.3700766129
 11
376.7502661359
 21
790.3700766129
  0
LINE
  5
467
100
AcDbEntity
  8
7_ALL_FEATURES
100
AcDbLine
 62
7
  6
CONTINUOUS
 10
376.1502661359
 20
790.3700766129
 11
373.7502661359
 21
790.3700766129
  0
LINE
  5
468
100
AcDbEntity
  8
7_ALL_FEATURES
100
AcDbLine
 62
7
  6
CONTINUOUS
 10
373.1502661359
 20
790.3700766129
 11
371.4502661359
 21
790.3700766129
  0
LINE
  5
469
100
AcDbEntity
  8
6_ALL_SURFS
100
AcDbLine
 62
7
  6
CONTINUOUS
 10
309.4439694938
 20
790.3700766129
 11
311.4502661359
 21
790.3700766129
  0
LINE
  5
46A
100
AcDbEntity
  8
6_ALL_SURFS
100
AcDbLine
 62
7
  6
CONTINUOUS
 10
312.0502661359
 20
790.3700766129
 11
314.4502661359
 21
790.3700766129
  0
LINE
  5
46B
100
AcDbEntity
  8
6_ALL_SURFS
100
AcDbLine
 62
7
  6
CONTINUOUS
 10
315.0502661359
 20
790.3700766129
 11
317.4502661359
 21
790.3700766129
  0
LINE
  5
46C
100
AcDbEntity
  8
6_ALL_SURFS
100
AcDbLine
 62
7
  6
CONTINUOUS
 10
318.0502661359
 20
790.3700766129
 11
320.4502661359
 21
790.3700766129
  0
LINE
  5
46D
100
AcDbEntity
  8
6_ALL_SURFS
100
AcDbLine
 62
7
  6
CONTINUOUS
 10
321.0502661359
 20
790.3700766129
 11
323.4502661359
 21
790.3700766129
  0
LINE
  5
46E
100
AcDbEntity
  8
6_ALL_SURFS
100
AcDbLine
 62
7
  6
CONTINUOUS
 10
324.0502661359
 20
790.3700766129
 11
326.4502661359
 21
790.3700766129
  0
LINE
  5
46F
100
AcDbEntity
  8
6_ALL_SURFS
100
AcDbLine
 62
7
  6
CONTINUOUS
 10
327.0502661359
 20
790.3700766129
 11
328.7502661359
 21
790.3700766129
  0
LINE
  5
470
100
AcDbEntity
  8
7_ALL_FEATURES
100
AcDbLine
 62
9
  6
CONTINUOUS
 10
929.0502661359
 20
791.1555294539
 11
390.7957377263
 21
791.1555294539
  0
LINE
  5
471
100
AcDbEntity
  8
6_ALL_SURFS
100
AcDbLine
 62
7
  6
CONTINUOUS
 10
329.0002661359
 20
791.3700766129
 11
327.0502661359
 21
791.3700766129
  0
LINE
  5
472
100
AcDbEntity
  8
6_ALL_SURFS
100
AcDbLine
 62
7
  6
CONTINUOUS
 10
326.4502661359
 20
791.3700766129
 11
324.0502661359
 21
791.3700766129
  0
LINE
  5
473
100
AcDbEntity
  8
6_ALL_SURFS
100
AcDbLine
 62
7
  6
CONTINUOUS
 10
323.4502661359
 20
791.3700766129
 11
321.0502661359
 21
791.3700766129
  0
LINE
  5
474
100
AcDbEntity
  8
6_ALL_SURFS
100
AcDbLine
 62
7
  6
CONTINUOUS
 10
320.4502661359
 20
791.3700766129
 11
318.0502661359
 21
791.3700766129
  0
LINE
  5
475
100
AcDbEntity
  8
6_ALL_SURFS
100
AcDbLine
 62
7
  6
CONTINUOUS
 10
317.4502661359
 20
791.3700766129
 11
315.0502661359
 21
791.3700766129
  0
LINE
  5
476
100
AcDbEntity
  8
6_ALL_SURFS
100
AcDbLine
 62
7
  6
CONTINUOUS
 10
314.4502661359
 20
791.3700766129
 11
311.5502661359
 21
791.3700766129
  0
LINE
  5
477
100
AcDbEntity
  8
7_ALL_FEATURES
100
AcDbLine
 62
7
  6
CONTINUOUS
 10
314.4502661359
 20
791.3700766129
 11
315.0502661359
 21
791.3700766129
  0
LINE
  5
478
100
AcDbEntity
  8
7_ALL_FEATURES
100
AcDbLine
 62
7
  6
CONTINUOUS
 10
317.4502661359
 20
791.3700766129
 11
318.0502661359
 21
791.3700766129
  0
LINE
  5
479
100
AcDbEntity
  8
7_ALL_FEATURES
100
AcDbLine
 62
7
  6
CONTINUOUS
 10
320.4502661359
 20
791.3700766129
 11
321.0502661359
 21
791.3700766129
  0
LINE
  5
47A
100
AcDbEntity
  8
7_ALL_FEATURES
100
AcDbLine
 62
7
  6
CONTINUOUS
 10
323.4502661359
 20
791.3700766129
 11
324.0502661359
 21
791.3700766129
  0
LINE
  5
47B
100
AcDbEntity
  8
7_ALL_FEATURES
100
AcDbLine
 62
7
  6
CONTINUOUS
 10
326.4502661359
 20
791.3700766129
 11
327.0502661359
 21
791.3700766129
  0
LINE
  5
47C
100
AcDbEntity
  8
7_ALL_FEATURES
100
AcDbLine
 62
7
  6
CONTINUOUS
 10
371.2002661359
 20
791.3700766129
 11
929.0502661359
 21
791.3700766129
  0
LINE
  5
47D
100
AcDbEntity
  8
7_ALL_FEATURES
100
AcDbLine
 62
9
  6
CONTINUOUS
 10
370.9002661359
 20
791.6700766129
 11
929.0502661359
 21
791.6700766129
  0
LINE
  5
47E
100
AcDbEntity
  8
7_ALL_FEATURES
100
AcDbLine
 62
9
  6
CONTINUOUS
 10
929.0502661359
 20
792.5700766129
 11
370.9002661359
 21
792.5700766129
  0
LINE
  5
47F
100
AcDbEntity
  8
7_ALL_FEATURES
100
AcDbLine
 62
9
  6
CONTINUOUS
 10
369.6502661359
 20
792.5700766129
 11
330.5502661359
 21
792.5700766129
  0
LINE
  5
480
100
AcDbEntity
  8
6_ALL_SURFS
100
AcDbLine
 62
7
  6
CONTINUOUS
 10
330.2502661359
 20
792.8700766129
 11
329.6002661359
 21
792.8700766129
  0
LINE
  5
481
100
AcDbEntity
  8
7_ALL_FEATURES
100
AcDbLine
 62
7
  6
CONTINUOUS
 10
330.2502661359
 20
792.8700766129
 11
929.0502661359
 21
792.8700766129
  0
LINE
  5
482
100
AcDbEntity
  8
6_ALL_SURFS
100
AcDbLine
 62
7
  6
CONTINUOUS
 10
311.5502661359
 20
791.3700766129
 11
309.4047945455
 21
791.1555294539
  0
LINE
  5
483
100
AcDbEntity
  8
7_ALL_FEATURES
100
AcDbLine
 62
7
  6
CONTINUOUS
 10
929.0502661359
 20
792.8700766129
 11
929.0502661359
 21
698.0700766129
  0
LINE
  5
484
100
AcDbEntity
  8
7_ALL_FEATURES
100
AcDbLine
 62
7
  6
CONTINUOUS
 10
78.608266129
 20
39.1498346706
 11
173.408266129
 21
39.1498346706
  0
LINE
  5
485
100
AcDbEntity
  8
7_ALL_FEATURES
100
AcDbLine
 62
7
  6
CONTINUOUS
 10
95.7865138432
 20
567.222500386
 11
94.3390582801
 21
566.1118286685
  0
LINE
  5
486
100
AcDbEntity
  8
6_ALL_SURFS
100
AcDbLine
 62
7
  6
CONTINUOUS
 10
173.258266129
 20
599.3607529916
 11
171.5693318879
 21
598.3856463528
  0
LINE
  5
487
100
AcDbEntity
  8
7_ALL_FEATURES
100
AcDbLine
 62
7
  6
CONTINUOUS
 10
152.3936039815
 20
569.6151982565
 11
151.4180950709
 21
569.2601420498
  0
LINE
  5
488
100
AcDbEntity
  8
7_ALL_FEATURES
100
AcDbLine
 62
7
  6
CONTINUOUS
 10
97.635466785
 20
567.8031645408
 11
97.2446658011
 21
567.4387367276
  0
LINE
  5
489
100
AcDbEntity
  8
7_ALL_FEATURES
100
AcDbLine
 62
7
  6
CONTINUOUS
 10
97.7902644891
 20
566.8536537663
 11
98.1810654731
 21
567.2180815795
  0
LINE
  5
48A
100
AcDbEntity
  8
7_ALL_FEATURES
100
AcDbLine
 62
7
  6
CONTINUOUS
 10
97.7902644891
 20
566.5036537663
 11
98.1810654731
 21
566.8680815795
  0
LINE
  5
48B
100
AcDbEntity
  8
7_ALL_FEATURES
100
AcDbLine
 62
7
  6
CONTINUOUS
 10
99.2628656371
 20
567.8608722726
 11
97.4071919453
 21
566.1304285601
  0
LINE
  5
48C
100
AcDbEntity
  8
7_ALL_FEATURES
100
AcDbLine
 62
7
  6
CONTINUOUS
 10
98.3437631201
 20
564.9528041181
 11
100.9350741871
 21
567.3692407811
  0
LINE
  5
48D
100
AcDbEntity
  8
7_ALL_FEATURES
100
AcDbLine
 62
7
  6
CONTINUOUS
 10
171.5693318879
 20
574.3856463528
 11
173.258266129
 21
575.3607529916
  0
LINE
  5
48E
100
AcDbEntity
  8
6_ALL_SURFS
100
AcDbLine
 62
7
  6
CONTINUOUS
 10
81.258266129
 20
623.9498346706
 11
81.108266129
 21
623.6498346706
  0
LINE
  5
48F
100
AcDbEntity
  8
6_ALL_SURFS
100
AcDbLine
 62
7
  6
CONTINUOUS
 10
81.258266129
 20
620.9498346706
 11
81.108266129
 21
620.6498346706
  0
LINE
  5
490
100
AcDbEntity
  8
6_ALL_SURFS
100
AcDbLine
 62
7
  6
CONTINUOUS
 10
81.258266129
 20
617.9498346706
 11
81.108266129
 21
617.6498346706
  0
LINE
  5
491
100
AcDbEntity
  8
6_ALL_SURFS
100
AcDbLine
 62
7
  6
CONTINUOUS
 10
81.258266129
 20
614.9498346706
 11
81.108266129
 21
614.6498346706
  0
LINE
  5
492
100
AcDbEntity
  8
6_ALL_SURFS
100
AcDbLine
 62
7
  6
CONTINUOUS
 10
81.258266129
 20
611.9498346706
 11
81.108266129
 21
611.6498346706
  0
LINE
  5
493
100
AcDbEntity
  8
6_ALL_SURFS
100
AcDbLine
 62
7
  6
CONTINUOUS
 10
81.258266129
 20
608.9498346706
 11
81.108266129
 21
608.6498346706
  0
LINE
  5
494
100
AcDbEntity
  8
6_ALL_SURFS
100
AcDbLine
 62
7
  6
CONTINUOUS
 10
103.8224544468
 20
602.5387689117
 11
103.597903158
 21
602.1498346706
  0
LINE
  5
495
100
AcDbEntity
  8
7_ALL_FEATURES
100
AcDbLine
 62
7
  6
CONTINUOUS
 10
81.108266129
 20
561.9498346706
 11
81.258266129
 21
562.2498346706
  0
LINE
  5
496
100
AcDbEntity
  8
7_ALL_FEATURES
100
AcDbLine
 62
7
  6
CONTINUOUS
 10
81.108266129
 20
558.9498346706
 11
81.258266129
 21
559.2498346706
  0
LINE
  5
497
100
AcDbEntity
  8
7_ALL_FEATURES
100
AcDbLine
 62
7
  6
CONTINUOUS
 10
81.108266129
 20
555.9498346706
 11
81.258266129
 21
556.2498346706
  0
LINE
  5
498
100
AcDbEntity
  8
7_ALL_FEATURES
100
AcDbLine
 62
7
  6
CONTINUOUS
 10
81.108266129
 20
552.9498346706
 11
81.258266129
 21
553.2498346706
  0
LINE
  5
499
100
AcDbEntity
  8
7_ALL_FEATURES
100
AcDbLine
 62
7
  6
CONTINUOUS
 10
81.108266129
 20
549.9498346706
 11
81.258266129
 21
550.2498346706
  0
LINE
  5
49A
100
AcDbEntity
  8
7_ALL_FEATURES
100
AcDbLine
 62
7
  6
CONTINUOUS
 10
81.108266129
 20
546.9498346706
 11
81.258266129
 21
547.2498346706
  0
LINE
  5
49B
100
AcDbEntity
  8
7_ALL_FEATURES
100
AcDbLine
 62
7
  6
CONTINUOUS
 10
105.6186291001
 20
569.0498346706
 11
105.3940778113
 21
568.6609004295
  0
LINE
  5
49C
100
AcDbEntity
  8
3_ALL_AXES
100
AcDbLine
 62
7
  6
CONTINUOUS
 10
168.508266129
 20
590.0998346706
 11
168.058266129
 21
589.6498346706
  0
LINE
  5
49D
100
AcDbEntity
  8
3_ALL_AXES
100
AcDbLine
 62
7
  6
CONTINUOUS
 10
147.708266129
 20
569.1998346706
 11
148.408266129
 21
569.8998346706
  0
LINE
  5
49E
100
AcDbEntity
  8
7_ALL_FEATURES
100
AcDbLine
 62
7
  6
CONTINUOUS
 10
145.408266129
 20
562.1998346706
 11
145.808266129
 21
562.5998346706
  0
LINE
  5
49F
100
AcDbEntity
  8
7_ALL_FEATURES
100
AcDbLine
 62
7
  6
CONTINUOUS
 10
171.458266129
 20
584.0998346706
 11
171.258266129
 21
583.8998346706
  0
LINE
  5
4A0
100
AcDbEntity
  8
7_ALL_FEATURES
100
AcDbLine
 62
7
  6
CONTINUOUS
 10
179.708266129
 20
590.5998346706
 11
179.208266129
 21
590.0998346706
  0
LINE
  5
4A1
100
AcDbEntity
  8
6_ALL_SURFS
100
AcDbLine
 62
7
  6
CONTINUOUS
 10
152.8149512996
 20
601.8145191399
 11
152.7534579023
 21
601.7120301442
  0
LINE
  5
4A2
100
AcDbEntity
  8
7_ALL_FEATURES
100
AcDbLine
 62
7
  6
CONTINUOUS
 10
179.708266129
 20
562.0998346706
 11
179.208266129
 21
561.5998346706
  0
LINE
  5
4A3
100
AcDbEntity
  8
6_ALL_SURFS
100
AcDbLine
 62
7
  6
CONTINUOUS
 10
80.108266129
 20
624.1498346706
 11
80.3228132881
 21
626.295306261
  0
LINE
  5
4A4
100
AcDbEntity
  8
7_ALL_FEATURES
100
AcDbLine
 62
7
  6
CONTINUOUS
 10
78.608266129
 20
605.4498346706
 11
78.608266129
 21
39.1498346706
  0
LINE
  5
4A5
100
AcDbEntity
  8
6_ALL_SURFS
100
AcDbLine
 62
7
  6
CONTINUOUS
 10
78.608266129
 20
605.4498346706
 11
78.608266129
 21
606.0998346706
  0
LINE
  5
4A6
100
AcDbEntity
  8
7_ALL_FEATURES
100
AcDbLine
 62
9
  6
CONTINUOUS
 10
78.908266129
 20
605.1498346706
 11
78.908266129
 21
566.0498346706
  0
LINE
  5
4A7
100
AcDbEntity
  8
7_ALL_FEATURES
100
AcDbLine
 62
9
  6
CONTINUOUS
 10
78.908266129
 20
564.7998346706
 11
78.908266129
 21
39.1498346706
  0
LINE
  5
4A8
100
AcDbEntity
  8
7_ALL_FEATURES
100
AcDbLine
 62
9
  6
CONTINUOUS
 10
79.808266129
 20
39.1498346706
 11
79.808266129
 21
564.7998346706
  0
LINE
  5
4A9
100
AcDbEntity
  8
7_ALL_FEATURES
100
AcDbLine
 62
7
  6
CONTINUOUS
 10
80.108266129
 20
39.1498346706
 11
80.108266129
 21
564.4998346706
  0
LINE
  5
4AA
100
AcDbEntity
  8
6_ALL_SURFS
100
AcDbLine
 62
7
  6
CONTINUOUS
 10
80.108266129
 20
606.6998346706
 11
80.108266129
 21
608.6498346706
  0
LINE
  5
4AB
100
AcDbEntity
  8
7_ALL_FEATURES
100
AcDbLine
 62
7
  6
CONTINUOUS
 10
80.108266129
 20
608.6498346706
 11
80.108266129
 21
609.2498346706
  0
LINE
  5
4AC
100
AcDbEntity
  8
6_ALL_SURFS
100
AcDbLine
 62
7
  6
CONTINUOUS
 10
80.108266129
 20
609.2498346706
 11
80.108266129
 21
611.6498346706
  0
LINE
  5
4AD
100
AcDbEntity
  8
7_ALL_FEATURES
100
AcDbLine
 62
7
  6
CONTINUOUS
 10
80.108266129
 20
611.6498346706
 11
80.108266129
 21
612.2498346706
  0
LINE
  5
4AE
100
AcDbEntity
  8
6_ALL_SURFS
100
AcDbLine
 62
7
  6
CONTINUOUS
 10
80.108266129
 20
612.2498346706
 11
80.108266129
 21
614.6498346706
  0
LINE
  5
4AF
100
AcDbEntity
  8
7_ALL_FEATURES
100
AcDbLine
 62
7
  6
CONTINUOUS
 10
80.108266129
 20
614.6498346706
 11
80.108266129
 21
615.2498346706
  0
LINE
  5
4B0
100
AcDbEntity
  8
6_ALL_SURFS
100
AcDbLine
 62
7
  6
CONTINUOUS
 10
80.108266129
 20
615.2498346706
 11
80.108266129
 21
617.6498346706
  0
LINE
  5
4B1
100
AcDbEntity
  8
7_ALL_FEATURES
100
AcDbLine
 62
7
  6
CONTINUOUS
 10
80.108266129
 20
617.6498346706
 11
80.108266129
 21
618.2498346706
  0
LINE
  5
4B2
100
AcDbEntity
  8
6_ALL_SURFS
100
AcDbLine
 62
7
  6
CONTINUOUS
 10
80.108266129
 20
618.2498346706
 11
80.108266129
 21
620.6498346706
  0
LINE
  5
4B3
100
AcDbEntity
  8
7_ALL_FEATURES
100
AcDbLine
 62
7
  6
CONTINUOUS
 10
80.108266129
 20
620.6498346706
 11
80.108266129
 21
621.2498346706
  0
LINE
  5
4B4
100
AcDbEntity
  8
6_ALL_SURFS
100
AcDbLine
 62
7
  6
CONTINUOUS
 10
80.108266129
 20
621.2498346706
 11
80.108266129
 21
624.1498346706
  0
LINE
  5
4B5
100
AcDbEntity
  8
7_ALL_FEATURES
100
AcDbLine
 62
9
  6
CONTINUOUS
 10
80.3228132881
 20
544.9043630802
 11
80.3228132881
 21
39.1498346706
  0
LINE
  5
4B6
100
AcDbEntity
  8
6_ALL_SURFS
100
AcDbLine
 62
7
  6
CONTINUOUS
 10
81.108266129
 20
626.2561313127
 11
81.108266129
 21
624.2498346706
  0
LINE
  5
4B7
100
AcDbEntity
  8
6_ALL_SURFS
100
AcDbLine
 62
7
  6
CONTINUOUS
 10
81.108266129
 20
623.6498346706
 11
81.108266129
 21
621.2498346706
  0
LINE
  5
4B8
100
AcDbEntity
  8
6_ALL_SURFS
100
AcDbLine
 62
7
  6
CONTINUOUS
 10
81.108266129
 20
620.6498346706
 11
81.108266129
 21
618.2498346706
  0
LINE
  5
4B9
100
AcDbEntity
  8
6_ALL_SURFS
100
AcDbLine
 62
7
  6
CONTINUOUS
 10
81.108266129
 20
617.6498346706
 11
81.108266129
 21
615.2498346706
  0
LINE
  5
4BA
100
AcDbEntity
  8
6_ALL_SURFS
100
AcDbLine
 62
7
  6
CONTINUOUS
 10
81.108266129
 20
614.6498346706
 11
81.108266129
 21
612.2498346706
  0
LINE
  5
4BB
100
AcDbEntity
  8
6_ALL_SURFS
100
AcDbLine
 62
7
  6
CONTINUOUS
 10
81.108266129
 20
611.6498346706
 11
81.108266129
 21
609.2498346706
  0
LINE
  5
4BC
100
AcDbEntity
  8
6_ALL_SURFS
100
AcDbLine
 62
7
  6
CONTINUOUS
 10
81.108266129
 20
608.6498346706
 11
81.108266129
 21
606.9498346706
  0
LINE
  5
4BD
100
AcDbEntity
  8
7_ALL_FEATURES
100
AcDbLine
 62
7
  6
CONTINUOUS
 10
81.108266129
 20
39.1498346706
 11
81.108266129
 21
546.9498346706
  0
LINE
  5
4BE
100
AcDbEntity
  8
7_ALL_FEATURES
100
AcDbLine
 62
7
  6
CONTINUOUS
 10
81.108266129
 20
547.5498346706
 11
81.108266129
 21
549.9498346706
  0
LINE
  5
4BF
100
AcDbEntity
  8
7_ALL_FEATURES
100
AcDbLine
 62
7
  6
CONTINUOUS
 10
81.108266129
 20
550.5498346706
 11
81.108266129
 21
552.9498346706
  0
LINE
  5
4C0
100
AcDbEntity
  8
7_ALL_FEATURES
100
AcDbLine
 62
7
  6
CONTINUOUS
 10
81.108266129
 20
553.5498346706
 11
81.108266129
 21
555.9498346706
  0
LINE
  5
4C1
100
AcDbEntity
  8
7_ALL_FEATURES
100
AcDbLine
 62
7
  6
CONTINUOUS
 10
81.108266129
 20
556.5498346706
 11
81.108266129
 21
558.9498346706
  0
LINE
  5
4C2
100
AcDbEntity
  8
7_ALL_FEATURES
100
AcDbLine
 62
7
  6
CONTINUOUS
 10
81.108266129
 20
559.5498346706
 11
81.108266129
 21
561.9498346706
  0
LINE
  5
4C3
100
AcDbEntity
  8
7_ALL_FEATURES
100
AcDbLine
 62
7
  6
CONTINUOUS
 10
81.108266129
 20
562.5498346706
 11
81.108266129
 21
564.2498346706
  0
LINE
  5
4C4
100
AcDbEntity
  8
7_ALL_FEATURES
100
AcDbLine
 62
7
  6
CONTINUOUS
 10
81.258266129
 20
39.1498346706
 11
81.258266129
 21
562.2498346706
  0
LINE
  5
4C5
100
AcDbEntity
  8
7_ALL_FEATURES
100
AcDbLine
 62
7
  6
CONTINUOUS
 10
81.258266129
 20
606.6911384973
 11
81.258266129
 21
623.9498346706
  0
LINE
  5
4C6
100
AcDbEntity
  8
7_ALL_FEATURES
100
AcDbLine
 62
9
  6
CONTINUOUS
 10
81.408266129
 20
39.1498346706
 11
81.408266129
 21
564.5498346706
  0
LINE
  5
4C7
100
AcDbEntity
  8
7_ALL_FEATURES
100
AcDbLine
 62
9
  6
CONTINUOUS
 10
90.6051982936
 20
39.1498346706
 11
90.6051982936
 21
564.5498346706
  0
LINE
  5
4C8
100
AcDbEntity
  8
7_ALL_FEATURES
100
AcDbLine
 62
9
  6
CONTINUOUS
 10
91.4291683343
 20
39.1498346706
 11
91.4291683343
 21
564.3032593281
  0
LINE
  5
4C9
100
AcDbEntity
  8
7_ALL_FEATURES
100
AcDbLine
 62
9
  6
CONTINUOUS
 10
91.7270159726
 20
605.1498346706
 11
91.7270159726
 21
566.0498346706
  0
LINE
  5
4CA
100
AcDbEntity
  8
7_ALL_FEATURES
100
AcDbLine
 62
9
  6
CONTINUOUS
 10
92.0059136841
 20
605.3393083548
 11
92.0059136841
 21
565.8603609864
  0
LINE
  5
4CB
100
AcDbEntity
  8
7_ALL_FEATURES
100
AcDbLine
 62
7
  6
CONTINUOUS
 10
80.108266129
 20
547.0498346706
 11
80.3228132881
 21
544.9043630802
  0
LINE
  5
4CC
100
AcDbEntity
  8
7_ALL_FEATURES
100
AcDbLine
 62
9
  6
CONTINUOUS
 10
93.2144704343
 20
605.3393083548
 11
93.2144704343
 21
565.8603609864
  0
LINE
  5
4CD
100
AcDbEntity
  8
7_ALL_FEATURES
100
AcDbLine
 62
9
  6
CONTINUOUS
 10
93.4933681458
 20
605.1498346706
 11
93.4933681458
 21
566.0498346706
  0
LINE
  5
4CE
100
AcDbEntity
  8
7_ALL_FEATURES
100
AcDbLine
 62
7
  6
CONTINUOUS
 10
93.608266129
 20
604.7498346706
 11
93.608266129
 21
566.0998346706
  0
LINE
  5
4CF
100
AcDbEntity
  8
7_ALL_FEATURES
100
AcDbLine
 62
9
  6
CONTINUOUS
 10
93.7912157841
 20
39.1498346706
 11
93.7912157841
 21
564.3032593281
  0
LINE
  5
4D0
100
AcDbEntity
  8
7_ALL_FEATURES
100
AcDbLine
 62
9
  6
CONTINUOUS
 10
94.1564298514
 20
604.9498346706
 11
94.1564298514
 21
605.1498346706
  0
LINE
  5
4D1
100
AcDbEntity
  8
7_ALL_FEATURES
100
AcDbLine
 62
9
  6
CONTINUOUS
 10
94.3390582801
 20
604.9498346706
 11
94.3390582801
 21
605.0878406727
  0
LINE
  5
4D2
100
AcDbEntity
  8
7_ALL_FEATURES
100
AcDbLine
 62
7
  6
CONTINUOUS
 10
94.608266129
 20
566.3183991164
 11
94.608266129
 21
567.2998346706
  0
LINE
  5
4D3
100
AcDbEntity
  8
7_ALL_FEATURES
100
AcDbLine
 62
7
  6
CONTINUOUS
 10
94.608266129
 20
603.8998346706
 11
94.608266129
 21
604.7498346706
  0
LINE
  5
4D4
100
AcDbEntity
  8
7_ALL_FEATURES
100
AcDbLine
 62
9
  6
CONTINUOUS
 10
94.6151858248
 20
39.1498346706
 11
94.6151858248
 21
564.5498346706
  0
LINE
  5
4D5
100
AcDbEntity
  8
7_ALL_FEATURES
100
AcDbLine
 62
7
  6
CONTINUOUS
 10
94.708266129
 20
568.4998346706
 11
94.708266129
 21
602.6998346706
  0
LINE
  5
4D6
100
AcDbEntity
  8
7_ALL_FEATURES
100
AcDbLine
 62
9
  6
CONTINUOUS
 10
94.808266129
 20
566.471864514
 11
94.808266129
 21
567.1498346706
  0
LINE
  5
4D7
100
AcDbEntity
  8
7_ALL_FEATURES
100
AcDbLine
 62
9
  6
CONTINUOUS
 10
94.908266129
 20
568.2998346706
 11
94.908266129
 21
602.5498346706
  0
LINE
  5
4D8
100
AcDbEntity
  8
7_ALL_FEATURES
100
AcDbLine
 62
9
  6
CONTINUOUS
 10
95.428266129
 20
566.9476072465
 11
95.428266129
 21
567.1498346706
  0
LINE
  5
4D9
100
AcDbEntity
  8
7_ALL_FEATURES
100
AcDbLine
 62
9
  6
CONTINUOUS
 10
95.428266129
 20
568.2998346706
 11
95.428266129
 21
602.5498346706
  0
LINE
  5
4DA
100
AcDbEntity
  8
7_ALL_FEATURES
100
AcDbLine
 62
9
  6
CONTINUOUS
 10
95.7865138432
 20
603.9771689552
 11
95.7865138432
 21
603.7671044663
  0
LINE
  5
4DB
100
AcDbEntity
  8
6_ALL_SURFS
100
AcDbLine
 62
7
  6
CONTINUOUS
 10
96.108266129
 20
604.8498346706
 11
96.108266129
 21
604.1358396232
  0
LINE
  5
4DC
100
AcDbEntity
  8
7_ALL_FEATURES
100
AcDbLine
 62
7
  6
CONTINUOUS
 10
96.108266129
 20
604.1358396232
 11
96.108266129
 21
603.9666334432
  0
LINE
  5
4DD
100
AcDbEntity
  8
7_ALL_FEATURES
100
AcDbLine
 62
7
  6
CONTINUOUS
 10
96.108266129
 20
566.3498346706
 11
96.108266129
 21
567.0638297179
  0
LINE
  5
4DE
100
AcDbEntity
  8
7_ALL_FEATURES
100
AcDbLine
 62
9
  6
CONTINUOUS
 10
96.268266129
 20
566.0853840668
 11
96.268266129
 21
566.6924210692
  0
LINE
  5
4DF
100
AcDbEntity
  8
7_ALL_FEATURES
100
AcDbLine
 62
9
  6
CONTINUOUS
 10
96.408266129
 20
604.3280622732
 11
96.408266129
 21
605.1498346706
  0
LINE
  5
4E0
100
AcDbEntity
  8
7_ALL_FEATURES
100
AcDbLine
 62
9
  6
CONTINUOUS
 10
96.940266129
 20
567.4764901881
 11
96.940266129
 21
603.373179153
  0
LINE
  5
4E1
100
AcDbEntity
  8
7_ALL_FEATURES
100
AcDbLine
 62
9
  6
CONTINUOUS
 10
97.2025924373
 20
604.6095979851
 11
97.2025924373
 21
605.1498346706
  0
LINE
  5
4E2
100
AcDbEntity
  8
7_ALL_FEATURES
100
AcDbLine
 62
9
  6
CONTINUOUS
 10
97.244665801
 20
567.4387367276
 11
97.244665801
 21
603.4109326136
  0
LINE
  5
4E3
100
AcDbEntity
  8
7_ALL_FEATURES
100
AcDbLine
 62
9
  6
CONTINUOUS
 10
97.32076558
 20
564.5498346706
 11
97.32076558
 21
39.1498346706
  0
LINE
  5
4E4
100
AcDbEntity
  8
7_ALL_FEATURES
100
AcDbLine
 62
9
  6
CONTINUOUS
 10
97.4071919453
 20
604.568161338
 11
97.4071919453
 21
605.0692407811
  0
LINE
  5
4E5
100
AcDbEntity
  8
7_ALL_FEATURES
100
AcDbLine
 62
9
  6
CONTINUOUS
 10
97.635466785
 20
567.8031645408
 11
97.635466785
 21
603.0465048004
  0
LINE
  5
4E6
100
AcDbEntity
  8
7_ALL_FEATURES
100
AcDbLine
 62
9
  6
CONTINUOUS
 10
97.7902644891
 20
566.4876494862
 11
97.7902644891
 21
566.5036537663
  0
LINE
  5
4E7
100
AcDbEntity
  8
7_ALL_FEATURES
100
AcDbLine
 62
9
  6
CONTINUOUS
 10
98.1810654731
 20
566.8520772995
 11
98.1810654731
 21
566.8680815795
  0
LINE
  5
4E8
100
AcDbEntity
  8
7_ALL_FEATURES
100
AcDbLine
 62
7
  6
CONTINUOUS
 10
98.308266129
 20
566.9706938301
 11
98.308266129
 21
603.339046281
  0
LINE
  5
4E9
100
AcDbEntity
  8
7_ALL_FEATURES
100
AcDbLine
 62
9
  6
CONTINUOUS
 10
98.3437631201
 20
564.9528041181
 11
98.3437631201
 21
39.1498346706
  0
LINE
  5
4EA
100
AcDbEntity
  8
7_ALL_FEATURES
100
AcDbLine
 62
9
  6
CONTINUOUS
 10
99.2628656371
 20
567.8608722726
 11
99.2628656371
 21
603.3387970686
  0
LINE
  5
4EB
100
AcDbEntity
  8
7_ALL_FEATURES
100
AcDbLine
 62
7
  6
CONTINUOUS
 10
99.358266129
 20
602.2998346706
 11
99.358266129
 21
568.0802783831
  0
LINE
  5
4EC
100
AcDbEntity
  8
6_ALL_SURFS
100
AcDbLine
 62
7
  6
CONTINUOUS
 10
99.358266129
 20
602.2998346706
 11
99.358266129
 21
603.1193909581
  0
LINE
  5
4ED
100
AcDbEntity
  8
7_ALL_FEATURES
100
AcDbLine
 62
9
  6
CONTINUOUS
 10
99.658266129
 20
601.9998346706
 11
99.658266129
 21
569.1998346706
  0
LINE
  5
4EE
100
AcDbEntity
  8
7_ALL_FEATURES
100
AcDbLine
 62
9
  6
CONTINUOUS
 10
100.9350741871
 20
39.1498346706
 11
100.9350741871
 21
567.3692407811
  0
LINE
  5
4EF
100
AcDbEntity
  8
7_ALL_FEATURES
100
AcDbLine
 62
9
  6
CONTINUOUS
 10
101.1396736952
 20
39.1498346706
 11
101.1396736952
 21
567.4498346706
  0
LINE
  5
4F0
100
AcDbEntity
  8
7_ALL_FEATURES
100
AcDbLine
 62
9
  6
CONTINUOUS
 10
101.408266129
 20
39.1498346706
 11
101.408266129
 21
567.4498346706
  0
LINE
  5
4F1
100
AcDbEntity
  8
7_ALL_FEATURES
100
AcDbLine
 62
7
  6
CONTINUOUS
 10
101.708266129
 20
567.1498346706
 11
101.708266129
 21
39.1498346706
  0
LINE
  5
4F2
100
AcDbEntity
  8
6_ALL_SURFS
100
AcDbLine
 62
7
  6
CONTINUOUS
 10
101.708266129
 20
604.0498346706
 11
101.708266129
 21
604.7998346706
  0
LINE
  5
4F3
100
AcDbEntity
  8
7_ALL_FEATURES
100
AcDbLine
 62
9
  6
CONTINUOUS
 10
103.3380955368
 20
601.9998346706
 11
103.3380955368
 21
569.1998346706
  0
LINE
  5
4F4
100
AcDbEntity
  8
7_ALL_FEATURES
100
AcDbLine
 62
9
  6
CONTINUOUS
 10
103.597903158
 20
602.1498346706
 11
103.597903158
 21
569.0498346706
  0
LINE
  5
4F5
100
AcDbEntity
  8
7_ALL_FEATURES
100
AcDbLine
 62
9
  6
CONTINUOUS
 10
103.708266129
 20
564.3998346706
 11
103.708266129
 21
39.1498346706
  0
LINE
  5
4F6
100
AcDbEntity
  8
7_ALL_FEATURES
100
AcDbLine
 62
9
  6
CONTINUOUS
 10
103.758700445
 20
568.2838255997
 11
103.758700445
 21
566.3190948989
  0
LINE
  5
4F7
100
AcDbEntity
  8
7_ALL_FEATURES
100
AcDbLine
 62
9
  6
CONTINUOUS
 10
103.8224544468
 20
602.5387689117
 11
103.8224544468
 21
568.6609004295
  0
LINE
  5
4F8
100
AcDbEntity
  8
7_ALL_FEATURES
100
AcDbLine
 62
7
  6
CONTINUOUS
 10
103.8626468256
 20
568.5109004295
 11
103.8626468256
 21
566.2363292558
  0
LINE
  5
4F9
100
AcDbEntity
  8
6_ALL_SURFS
100
AcDbLine
 62
7
  6
CONTINUOUS
 10
103.8626468256
 20
568.5109004216
 11
103.8626468256
 21
602.6887689117
  0
LINE
  5
4FA
100
AcDbEntity
  8
7_ALL_FEATURES
100
AcDbLine
 62
7
  6
CONTINUOUS
 10
105.3538854324
 20
568.5109004295
 11
105.3538854324
 21
566.2363292558
  0
LINE
  5
4FB
100
AcDbEntity
  8
6_ALL_SURFS
100
AcDbLine
 62
7
  6
CONTINUOUS
 10
105.3538854324
 20
568.5109004295
 11
105.3538854324
 21
602.6887689117
  0
LINE
  5
4FC
100
AcDbEntity
  8
7_ALL_FEATURES
100
AcDbLine
 62
9
  6
CONTINUOUS
 10
105.3940778113
 20
602.5387689117
 11
105.3940778113
 21
568.6609004295
  0
LINE
  5
4FD
100
AcDbEntity
  8
7_ALL_FEATURES
100
AcDbLine
 62
9
  6
CONTINUOUS
 10
105.4578318131
 20
568.2838255997
 11
105.4578318131
 21
566.3190948989
  0
LINE
  5
4FE
100
AcDbEntity
  8
7_ALL_FEATURES
100
AcDbLine
 62
9
  6
CONTINUOUS
 10
105.508266129
 20
564.3998346706
 11
105.508266129
 21
39.1498346706
  0
LINE
  5
4FF
100
AcDbEntity
  8
7_ALL_FEATURES
100
AcDbLine
 62
9
  6
CONTINUOUS
 10
105.6186291001
 20
602.1498346706
 11
105.6186291001
 21
569.0498346706
  0
LINE
  5
500
100
AcDbEntity
  8
7_ALL_FEATURES
100
AcDbLine
 62
9
  6
CONTINUOUS
 10
105.8784367212
 20
601.9998346706
 11
105.8784367212
 21
569.1998346706
  0
LINE
  5
501
100
AcDbEntity
  8
6_ALL_SURFS
100
AcDbLine
 62
7
  6
CONTINUOUS
 10
107.508266129
 20
604.7998346706
 11
107.508266129
 21
603.8998346706
  0
LINE
  5
502
100
AcDbEntity
  8
7_ALL_FEATURES
100
AcDbLine
 62
7
  6
CONTINUOUS
 10
107.508266129
 20
39.1498346706
 11
107.508266129
 21
567.2998346706
  0
LINE
  5
503
100
AcDbEntity
  8
7_ALL_FEATURES
100
AcDbLine
 62
9
  6
CONTINUOUS
 10
107.808266129
 20
39.1498346706
 11
107.808266129
 21
567.5998346706
  0
LINE
  5
504
100
AcDbEntity
  8
7_ALL_FEATURES
100
AcDbLine
 62
7
  6
CONTINUOUS
 10
127.408266129
 20
522.5998346706
 11
127.408266129
 21
567.5998346706
  0
LINE
  5
505
100
AcDbEntity
  8
3_ALL_AXES
100
AcDbLine
 62
7
  6
CONTINUOUS
 10
138.408266129
 20
569.8998346706
 11
138.408266129
 21
570.1998346706
  0
LINE
  5
506
100
AcDbEntity
  8
3_ALL_AXES
100
AcDbLine
 62
7
  6
CONTINUOUS
 10
139.558266129
 20
562.5998346706
 11
139.558266129
 21
564.5998346706
  0
LINE
  5
507
100
AcDbEntity
  8
3_ALL_AXES
100
AcDbLine
 62
7
  6
CONTINUOUS
 10
148.258266129
 20
562.5998346706
 11
148.258266129
 21
564.5998346706
  0
LINE
  5
508
100
AcDbEntity
  8
3_ALL_AXES
100
AcDbLine
 62
7
  6
CONTINUOUS
 10
148.408266129
 20
569.8998346706
 11
148.408266129
 21
570.1998346706
  0
LINE
  5
509
100
AcDbEntity
  8
7_ALL_FEATURES
100
AcDbLine
 62
9
  6
CONTINUOUS
 10
151.0760749276
 20
569.1998346706
 11
151.0760749276
 21
601.9998346706
  0
LINE
  5
50A
100
AcDbEntity
  8
7_ALL_FEATURES
100
AcDbLine
 62
9
  6
CONTINUOUS
 10
151.4180950709
 20
569.2601420498
 11
151.4180950709
 21
601.9395272914
  0
LINE
  5
50B
100
AcDbEntity
  8
7_ALL_FEATURES
100
AcDbLine
 62
9
  6
CONTINUOUS
 10
152.3936039815
 20
601.5844710846
 11
152.3936039815
 21
569.6151982565
  0
LINE
  5
50C
100
AcDbEntity
  8
7_ALL_FEATURES
100
AcDbLine
 62
7
  6
CONTINUOUS
 10
152.408266129
 20
522.5998346706
 11
152.408266129
 21
567.5998346706
  0
LINE
  5
50D
100
AcDbEntity
  8
7_ALL_FEATURES
100
AcDbLine
 62
9
  6
CONTINUOUS
 10
152.5537800583
 20
567.5998346706
 11
152.5537800583
 21
39.1498346706
  0
LINE
  5
50E
100
AcDbEntity
  8
7_ALL_FEATURES
100
AcDbLine
 62
9
  6
CONTINUOUS
 10
152.7534579023
 20
601.7120301442
 11
152.7534579023
 21
569.4876391969
  0
LINE
  5
50F
100
AcDbEntity
  8
7_ALL_FEATURES
100
AcDbLine
 62
9
  6
CONTINUOUS
 10
152.8149512996
 20
569.3851502013
 11
152.8149512996
 21
601.8145191399
  0
LINE
  5
510
100
AcDbEntity
  8
7_ALL_FEATURES
100
AcDbLine
 62
9
  6
CONTINUOUS
 10
153.1371310615
 20
569.2466101258
 11
153.1371310615
 21
601.9530592154
  0
LINE
  5
511
100
AcDbEntity
  8
7_ALL_FEATURES
100
AcDbLine
 62
9
  6
CONTINUOUS
 10
153.635978128
 20
567.718354635
 11
153.635978128
 21
39.1498346706
  0
LINE
  5
512
100
AcDbEntity
  8
7_ALL_FEATURES
100
AcDbLine
 62
7
  6
CONTINUOUS
 10
163.4300628988
 20
581.5998346706
 11
163.4300628988
 21
589.5998346706
  0
LINE
  5
513
100
AcDbEntity
  8
7_ALL_FEATURES
100
AcDbLine
 62
7
  6
CONTINUOUS
 10
165.458266129
 20
593.0998346706
 11
165.458266129
 21
578.0998346706
  0
LINE
  5
514
100
AcDbEntity
  8
7_ALL_FEATURES
100
AcDbLine
 62
9
  6
CONTINUOUS
 10
165.674705743
 20
572.0261235151
 11
165.674705743
 21
578.0998346706
  0
LINE
  5
515
100
AcDbEntity
  8
7_ALL_FEATURES
100
AcDbLine
 62
9
  6
CONTINUOUS
 10
165.674705743
 20
593.0998346706
 11
165.674705743
 21
599.173545826
  0
LINE
  5
516
100
AcDbEntity
  8
3_ALL_AXES
100
AcDbLine
 62
7
  6
CONTINUOUS
 10
165.708266129
 20
593.0998346706
 11
165.708266129
 21
597.5998346706
  0
LINE
  5
517
100
AcDbEntity
  8
3_ALL_AXES
100
AcDbLine
 62
7
  6
CONTINUOUS
 10
166.008266129
 20
593.0998346706
 11
166.008266129
 21
597.5998346706
  0
LINE
  5
518
100
AcDbEntity
  8
7_ALL_FEATURES
100
AcDbLine
 62
7
  6
CONTINUOUS
 10
166.458266129
 20
573.0024195222
 11
166.458266129
 21
587.5998346706
  0
LINE
  5
519
100
AcDbEntity
  8
6_ALL_SURFS
100
AcDbLine
 62
7
  6
CONTINUOUS
 10
166.458266129
 20
587.5998346706
 11
166.458266129
 21
598.1972498189
  0
LINE
  5
51A
100
AcDbEntity
  8
7_ALL_FEATURES
100
AcDbLine
 62
9
  6
CONTINUOUS
 10
167.6429252519
 20
39.1498346706
 11
167.6429252519
 21
570.8236200523
  0
LINE
  5
51B
100
AcDbEntity
  8
6_ALL_SURFS
100
AcDbLine
 62
7
  6
CONTINUOUS
 10
168.058266129
 20
594.7419508381
 11
168.058266129
 21
589.4998346706
  0
LINE
  5
51C
100
AcDbEntity
  8
7_ALL_FEATURES
100
AcDbLine
 62
7
  6
CONTINUOUS
 10
168.058266129
 20
576.4577185031
 11
168.058266129
 21
581.6998346706
  0
LINE
  5
51D
100
AcDbEntity
  8
7_ALL_FEATURES
100
AcDbLine
 62
9
  6
CONTINUOUS
 10
168.358266129
 20
576.0008964165
 11
168.358266129
 21
581.9998346706
  0
LINE
  5
51E
100
AcDbEntity
  8
3_ALL_AXES
100
AcDbLine
 62
7
  6
CONTINUOUS
 10
168.508266129
 20
590.0998346706
 11
168.508266129
 21
595.0998346706
  0
LINE
  5
51F
100
AcDbEntity
  8
3_ALL_AXES
100
AcDbLine
 62
9
  6
CONTINUOUS
 10
168.808266129
 20
589.1998346706
 11
168.808266129
 21
590.0998346706
  0
LINE
  5
520
100
AcDbEntity
  8
3_ALL_AXES
100
AcDbLine
 62
9
  6
CONTINUOUS
 10
168.808266129
 20
595.0998346706
 11
168.808266129
 21
595.17496354
  0
LINE
  5
521
100
AcDbEntity
  8
7_ALL_FEATURES
100
AcDbLine
 62
9
  6
CONTINUOUS
 10
169.6758558905
 20
39.1498346706
 11
169.6758558905
 21
570.850918641
  0
LINE
  5
522
100
AcDbEntity
  8
3_ALL_AXES
100
AcDbLine
 62
9
  6
CONTINUOUS
 10
170.208266129
 20
589.1998346706
 11
170.208266129
 21
590.0998346706
  0
LINE
  5
523
100
AcDbEntity
  8
7_ALL_FEATURES
100
AcDbLine
 62
7
  6
CONTINUOUS
 10
170.958266129
 20
583.8998346706
 11
170.958266129
 21
587.2998346706
  0
LINE
  5
524
100
AcDbEntity
  8
7_ALL_FEATURES
100
AcDbLine
 62
9
  6
CONTINUOUS
 10
171.1922570581
 20
598.4494003546
 11
171.1922570581
 21
596.7502689866
  0
LINE
  5
525
100
AcDbEntity
  8
7_ALL_FEATURES
100
AcDbLine
 62
9
  6
CONTINUOUS
 10
171.1922570581
 20
574.4494003546
 11
171.1922570581
 21
572.7502689866
  0
LINE
  5
526
100
AcDbEntity
  8
7_ALL_FEATURES
100
AcDbLine
 62
7
  6
CONTINUOUS
 10
171.458266129
 20
584.0998346706
 11
171.458266129
 21
587.0998346706
  0
LINE
  5
527
100
AcDbEntity
  8
7_ALL_FEATURES
100
AcDbLine
 62
9
  6
CONTINUOUS
 10
171.4727822581
 20
39.1498346706
 11
171.4727822581
 21
571.1016355273
  0
LINE
  5
528
100
AcDbEntity
  8
7_ALL_FEATURES
100
AcDbLine
 62
9
  6
CONTINUOUS
 10
171.508266129
 20
583.8998346706
 11
171.508266129
 21
587.2998346706
  0
LINE
  5
529
100
AcDbEntity
  8
7_ALL_FEATURES
100
AcDbLine
 62
9
  6
CONTINUOUS
 10
171.5693318879
 20
598.3856463528
 11
171.5693318879
 21
596.8140229883
  0
LINE
  5
52A
100
AcDbEntity
  8
7_ALL_FEATURES
100
AcDbLine
 62
9
  6
CONTINUOUS
 10
171.5693318879
 20
574.3856463528
 11
171.5693318879
 21
572.8140229883
  0
LINE
  5
52B
100
AcDbEntity
  8
7_ALL_FEATURES
100
AcDbLine
 62
9
  6
CONTINUOUS
 10
171.608266129
 20
581.9998346706
 11
171.608266129
 21
576.3998346706
  0
LINE
  5
52C
100
AcDbEntity
  8
7_ALL_FEATURES
100
AcDbLine
 62
7
  6
CONTINUOUS
 10
171.808266129
 20
584.1998346706
 11
171.808266129
 21
586.9998346706
  0
LINE
  5
52D
100
AcDbEntity
  8
7_ALL_FEATURES
100
AcDbLine
 62
7
  6
CONTINUOUS
 10
171.908266129
 20
570.8339713334
 11
171.908266129
 21
39.1498346706
  0
LINE
  5
52E
100
AcDbEntity
  8
6_ALL_SURFS
100
AcDbLine
 62
7
  6
CONTINUOUS
 10
171.908266129
 20
600.3656980078
 11
171.908266129
 21
601.0998346706
  0
LINE
  5
52F
100
AcDbEntity
  8
7_ALL_FEATURES
100
AcDbLine
 62
9
  6
CONTINUOUS
 10
172.408266129
 20
569.5998346706
 11
172.408266129
 21
39.1498346706
  0
LINE
  5
530
100
AcDbEntity
  8
3_ALL_AXES
100
AcDbLine
 62
9
  6
CONTINUOUS
 10
173.108266129
 20
590.0998346706
 11
173.108266129
 21
588.3927137775
  0
LINE
  5
531
100
AcDbEntity
  8
7_ALL_FEATURES
100
AcDbLine
 62
9
  6
CONTINUOUS
 10
173.108266129
 20
569.5998346706
 11
173.108266129
 21
39.1498346706
  0
LINE
  5
532
100
AcDbEntity
  8
7_ALL_FEATURES
100
AcDbLine
 62
9
  6
CONTINUOUS
 10
173.258266129
 20
599.3607529916
 11
173.258266129
 21
595.8389163495
  0
LINE
  5
533
100
AcDbEntity
  8
7_ALL_FEATURES
100
AcDbLine
 62
9
  6
CONTINUOUS
 10
173.258266129
 20
575.3607529916
 11
173.258266129
 21
571.8389163495
  0
LINE
  5
534
100
AcDbEntity
  8
6_ALL_SURFS
100
AcDbLine
 62
7
  6
CONTINUOUS
 10
173.408266129
 20
601.2998346706
 11
173.408266129
 21
599.6205606127
  0
LINE
  5
535
100
AcDbEntity
  8
6_ALL_SURFS
100
AcDbLine
 62
7
  6
CONTINUOUS
 10
173.408266129
 20
595.5791087284
 11
173.408266129
 21
595.0998346706
  0
LINE
  5
536
100
AcDbEntity
  8
7_ALL_FEATURES
100
AcDbLine
 62
7
  6
CONTINUOUS
 10
173.408266129
 20
39.1498346706
 11
173.408266129
 21
595.0998346706
  0
LINE
  5
537
100
AcDbEntity
  8
7_ALL_FEATURES
100
AcDbLine
 62
7
  6
CONTINUOUS
 10
173.408266129
 20
595.5791087284
 11
173.408266129
 21
599.6205606127
  0
LINE
  5
538
100
AcDbEntity
  8
7_ALL_FEATURES
100
AcDbLine
 62
7
  6
CONTINUOUS
 10
173.408266129
 20
601.2998346706
 11
173.408266129
 21
604.5998346706
  0
LINE
  5
539
100
AcDbEntity
  8
7_ALL_FEATURES
100
AcDbLine
 62
3
  6
CONTINUOUS
 10
176.408266129
 20
549.5998346706
 11
176.408266129
 21
604.5998346706
  0
LINE
  5
53A
100
AcDbEntity
  8
3_ALL_AXES
100
AcDbLine
 62
7
  6
CONTINUOUS
 10
178.408266129
 20
559.7498346706
 11
178.408266129
 21
568.4498346706
  0
LINE
  5
53B
100
AcDbEntity
  8
3_ALL_AXES
100
AcDbLine
 62
7
  6
CONTINUOUS
 10
178.408266129
 20
587.7498346706
 11
178.408266129
 21
596.4498346706
  0
LINE
  5
53C
100
AcDbEntity
  8
7_ALL_FEATURES
100
AcDbLine
 62
7
  6
CONTINUOUS
 10
179.208266129
 20
561.5998346706
 11
179.208266129
 21
566.5998346706
  0
LINE
  5
53D
100
AcDbEntity
  8
7_ALL_FEATURES
100
AcDbLine
 62
7
  6
CONTINUOUS
 10
179.208266129
 20
590.0998346706
 11
179.208266129
 21
595.0998346706
  0
LINE
  5
53E
100
AcDbEntity
  8
7_ALL_FEATURES
100
AcDbLine
 62
7
  6
CONTINUOUS
 10
179.708266129
 20
562.0998346706
 11
179.708266129
 21
566.0998346706
  0
LINE
  5
53F
100
AcDbEntity
  8
7_ALL_FEATURES
100
AcDbLine
 62
7
  6
CONTINUOUS
 10
179.708266129
 20
590.5998346706
 11
179.708266129
 21
594.5998346706
  0
LINE
  5
540
100
AcDbEntity
  8
7_ALL_FEATURES
100
AcDbLine
 62
7
  6
CONTINUOUS
 10
81.258266129
 20
547.2498346706
 11
81.108266129
 21
547.5498346706
  0
LINE
  5
541
100
AcDbEntity
  8
7_ALL_FEATURES
100
AcDbLine
 62
7
  6
CONTINUOUS
 10
81.258266129
 20
550.2498346706
 11
81.108266129
 21
550.5498346706
  0
LINE
  5
542
100
AcDbEntity
  8
7_ALL_FEATURES
100
AcDbLine
 62
7
  6
CONTINUOUS
 10
81.258266129
 20
553.2498346706
 11
81.108266129
 21
553.5498346706
  0
LINE
  5
543
100
AcDbEntity
  8
7_ALL_FEATURES
100
AcDbLine
 62
7
  6
CONTINUOUS
 10
81.258266129
 20
556.2498346706
 11
81.108266129
 21
556.5498346706
  0
LINE
  5
544
100
AcDbEntity
  8
7_ALL_FEATURES
100
AcDbLine
 62
7
  6
CONTINUOUS
 10
81.258266129
 20
559.2498346706
 11
81.108266129
 21
559.5498346706
  0
LINE
  5
545
100
AcDbEntity
  8
7_ALL_FEATURES
100
AcDbLine
 62
7
  6
CONTINUOUS
 10
81.258266129
 20
562.2498346706
 11
81.108266129
 21
562.5498346706
  0
LINE
  5
546
100
AcDbEntity
  8
6_ALL_SURFS
100
AcDbLine
 62
7
  6
CONTINUOUS
 10
81.108266129
 20
609.2498346706
 11
81.258266129
 21
608.9498346706
  0
LINE
  5
547
100
AcDbEntity
  8
6_ALL_SURFS
100
AcDbLine
 62
7
  6
CONTINUOUS
 10
81.108266129
 20
612.2498346706
 11
81.258266129
 21
611.9498346706
  0
LINE
  5
548
100
AcDbEntity
  8
7_ALL_FEATURES
100
AcDbLine
 62
7
  6
CONTINUOUS
 10
103.8224544468
 20
568.6609004295
 11
103.597903158
 21
569.0498346706
  0
LINE
  5
549
100
AcDbEntity
  8
6_ALL_SURFS
100
AcDbLine
 62
7
  6
CONTINUOUS
 10
81.108266129
 20
615.2498346706
 11
81.258266129
 21
614.9498346706
  0
LINE
  5
54A
100
AcDbEntity
  8
6_ALL_SURFS
100
AcDbLine
 62
7
  6
CONTINUOUS
 10
81.108266129
 20
618.2498346706
 11
81.258266129
 21
617.9498346706
  0
LINE
  5
54B
100
AcDbEntity
  8
6_ALL_SURFS
100
AcDbLine
 62
7
  6
CONTINUOUS
 10
81.108266129
 20
621.2498346706
 11
81.258266129
 21
620.9498346706
  0
LINE
  5
54C
100
AcDbEntity
  8
6_ALL_SURFS
100
AcDbLine
 62
7
  6
CONTINUOUS
 10
81.108266129
 20
624.2498346706
 11
81.258266129
 21
623.9498346706
  0
LINE
  5
54D
100
AcDbEntity
  8
6_ALL_SURFS
100
AcDbLine
 62
7
  6
CONTINUOUS
 10
105.6186291001
 20
602.1498346706
 11
105.3940778113
 21
602.5387689117
  0
LINE
  5
54E
100
AcDbEntity
  8
7_ALL_FEATURES
100
AcDbLine
 62
7
  6
CONTINUOUS
 10
152.8149512996
 20
569.3851502013
 11
152.7534579023
 21
569.4876391969
  0
LINE
  5
54F
100
AcDbEntity
  8
7_ALL_FEATURES
100
AcDbLine
 62
7
  6
CONTINUOUS
 10
97.244665801
 20
603.4109326136
 11
97.635466785
 21
603.0465048004
  0
LINE
  5
550
100
AcDbEntity
  8
7_ALL_FEATURES
100
AcDbLine
 62
7
  6
CONTINUOUS
 10
97.2446658011
 20
603.7609326136
 11
97.635466785
 21
603.3965048004
  0
LINE
  5
551
100
AcDbEntity
  8
7_ALL_FEATURES
100
AcDbLine
 62
7
  6
CONTINUOUS
 10
98.1810654731
 20
603.9815877617
 11
97.7902644891
 21
604.3460155749
  0
LINE
  5
552
100
AcDbEntity
  8
6_ALL_SURFS
100
AcDbLine
 62
7
  6
CONTINUOUS
 10
99.2628656371
 20
603.3387970686
 11
97.4071919453
 21
605.0692407811
  0
LINE
  5
553
100
AcDbEntity
  8
6_ALL_SURFS
100
AcDbLine
 62
7
  6
CONTINUOUS
 10
98.3437631201
 20
606.246865223
 11
100.9350741871
 21
603.8304285601
  0
LINE
  5
554
100
AcDbEntity
  8
7_ALL_FEATURES
100
AcDbLine
 62
7
  6
CONTINUOUS
 10
141.408266129
 20
562.1998346706
 11
141.008266129
 21
562.5998346706
  0
LINE
  5
555
100
AcDbEntity
  8
3_ALL_AXES
100
AcDbLine
 62
7
  6
CONTINUOUS
 10
139.108266129
 20
569.1998346706
 11
138.408266129
 21
569.8998346706
  0
LINE
  5
556
100
AcDbEntity
  8
7_ALL_FEATURES
100
AcDbLine
 62
7
  6
CONTINUOUS
 10
152.408266129
 20
522.5998346706
 11
127.408266129
 21
522.5998346706
  0
LINE
  5
557
100
AcDbEntity
  8
6_ALL_SURFS
100
AcDbLine
 62
7
  6
CONTINUOUS
 10
95.7865138432
 20
603.9771689552
 11
94.3390582801
 21
605.0878406727
  0
LINE
  5
558
100
AcDbEntity
  8
7_ALL_FEATURES
100
AcDbLine
 62
7
  6
CONTINUOUS
 10
179.708266129
 20
566.0998346706
 11
179.208266129
 21
566.5998346706
  0
LINE
  5
559
100
AcDbEntity
  8
7_ALL_FEATURES
100
AcDbLine
 62
7
  6
CONTINUOUS
 10
176.408266129
 20
549.5998346706
 11
173.408266129
 21
549.5998346706
  0
LINE
  5
55A
100
AcDbEntity
  8
7_ALL_FEATURES
100
AcDbLine
 62
7
  6
CONTINUOUS
 10
171.458266129
 20
587.0998346706
 11
171.258266129
 21
587.2998346706
  0
LINE
  5
55B
100
AcDbEntity
  8
3_ALL_AXES
100
AcDbLine
 62
7
  6
CONTINUOUS
 10
168.508266129
 20
595.0998346706
 11
168.3943916696
 21
595.21370913
  0
LINE
  5
55C
100
AcDbEntity
  8
3_ALL_AXES
100
AcDbLine
 62
7
  6
CONTINUOUS
 10
166.458266129
 20
597.1498346706
 11
166.008266129
 21
597.5998346706
  0
LINE
  5
55D
100
AcDbEntity
  8
7_ALL_FEATURES
100
AcDbLine
 62
7
  6
CONTINUOUS
 10
179.708266129
 20
594.5998346706
 11
179.208266129
 21
595.0998346706
  0
LINE
  5
55E
100
AcDbEntity
  8
7_ALL_FEATURES
100
AcDbLine
 62
7
  6
CONTINUOUS
 10
153.635978128
 20
567.718354635
 11
167.6429252519
 21
570.8236200523
  0
LINE
  5
55F
100
AcDbEntity
  8
7_ALL_FEATURES
100
AcDbLine
 62
7
  6
CONTINUOUS
 10
165.674705743
 20
572.0261235151
 11
153.1371310615
 21
569.2466101258
  0
LINE
  5
560
100
AcDbEntity
  8
3_ALL_AXES
100
AcDbLine
 62
7
  6
CONTINUOUS
 10
178.408266129
 20
559.7498346706
 11
176.408266129
 21
559.7498346706
  0
LINE
  5
561
100
AcDbEntity
  8
3_ALL_AXES
100
AcDbLine
 62
7
  6
CONTINUOUS
 10
179.208266129
 20
561.5998346706
 11
178.408266129
 21
561.5998346706
  0
LINE
  5
562
100
AcDbEntity
  8
7_ALL_FEATURES
100
AcDbLine
 62
9
  6
CONTINUOUS
 10
127.408266129
 20
561.5998346706
 11
152.408266129
 21
561.5998346706
  0
LINE
  5
563
100
AcDbEntity
  8
7_ALL_FEATURES
100
AcDbLine
 62
7
  6
CONTINUOUS
 10
141.408266129
 20
562.1998346706
 11
145.408266129
 21
562.1998346706
  0
LINE
  5
564
100
AcDbEntity
  8
3_ALL_AXES
100
AcDbLine
 62
7
  6
CONTINUOUS
 10
139.558266129
 20
562.5998346706
 11
148.258266129
 21
562.5998346706
  0
LINE
  5
565
100
AcDbEntity
  8
7_ALL_FEATURES
100
AcDbLine
 62
7
  6
CONTINUOUS
 10
103.708266129
 20
564.3998346706
 11
105.508266129
 21
564.3998346706
  0
LINE
  5
566
100
AcDbEntity
  8
7_ALL_FEATURES
100
AcDbLine
 62
7
  6
CONTINUOUS
 10
81.408266129
 20
564.5498346706
 11
90.6051982936
 21
564.5498346706
  0
LINE
  5
567
100
AcDbEntity
  8
7_ALL_FEATURES
100
AcDbLine
 62
7
  6
CONTINUOUS
 10
94.6151858248
 20
564.5498346706
 11
97.32076558
 21
564.5498346706
  0
LINE
  5
568
100
AcDbEntity
  8
7_ALL_FEATURES
100
AcDbLine
 62
7
  6
CONTINUOUS
 10
152.408266129
 20
564.5998346706
 11
127.408266129
 21
564.5998346706
  0
LINE
  5
569
100
AcDbEntity
  8
7_ALL_FEATURES
100
AcDbLine
 62
7
  6
CONTINUOUS
 10
78.908266129
 20
564.7998346706
 11
79.808266129
 21
564.7998346706
  0
LINE
  5
56A
100
AcDbEntity
  8
7_ALL_FEATURES
100
AcDbLine
 62
7
  6
CONTINUOUS
 10
97.2025924373
 20
566.0498346706
 11
96.408266129
 21
566.0498346706
  0
LINE
  5
56B
100
AcDbEntity
  8
7_ALL_FEATURES
100
AcDbLine
 62
7
  6
CONTINUOUS
 10
94.1564298514
 20
566.0498346706
 11
93.4933681458
 21
566.0498346706
  0
LINE
  5
56C
100
AcDbEntity
  8
7_ALL_FEATURES
100
AcDbLine
 62
7
  6
CONTINUOUS
 10
91.7270159726
 20
566.0498346706
 11
78.908266129
 21
566.0498346706
  0
LINE
  5
56D
100
AcDbEntity
  8
7_ALL_FEATURES
100
AcDbLine
 62
7
  6
CONTINUOUS
 10
93.808266129
 20
566.2498346706
 11
94.408266129
 21
566.2498346706
  0
LINE
  5
56E
100
AcDbEntity
  8
3_ALL_AXES
100
AcDbLine
 62
7
  6
CONTINUOUS
 10
179.208266129
 20
566.5998346706
 11
178.408266129
 21
566.5998346706
  0
LINE
  5
56F
100
AcDbEntity
  8
7_ALL_FEATURES
100
AcDbLine
 62
7
  6
CONTINUOUS
 10
94.808266129
 20
567.1498346706
 11
95.428266129
 21
567.1498346706
  0
LINE
  5
570
100
AcDbEntity
  8
7_ALL_FEATURES
100
AcDbLine
 62
7
  6
CONTINUOUS
 10
101.1396736952
 20
567.4498346706
 11
101.408266129
 21
567.4498346706
  0
LINE
  5
571
100
AcDbEntity
  8
7_ALL_FEATURES
100
AcDbLine
 62
7
  6
CONTINUOUS
 10
94.808266129
 20
567.4998346706
 11
95.428266129
 21
567.4998346706
  0
LINE
  5
572
100
AcDbEntity
  8
7_ALL_FEATURES
100
AcDbLine
 62
7
  6
CONTINUOUS
 10
107.808266129
 20
567.5998346706
 11
152.5537800583
 21
567.5998346706
  0
LINE
  5
573
100
AcDbEntity
  8
7_ALL_FEATURES
100
AcDbLine
 62
7
  6
CONTINUOUS
 10
95.428266129
 20
568.2998346706
 11
94.908266129
 21
568.2998346706
  0
LINE
  5
574
100
AcDbEntity
  8
3_ALL_AXES
100
AcDbLine
 62
7
  6
CONTINUOUS
 10
178.408266129
 20
568.4498346706
 11
176.408266129
 21
568.4498346706
  0
LINE
  5
575
100
AcDbEntity
  8
7_ALL_FEATURES
100
AcDbLine
 62
7
  6
CONTINUOUS
 10
151.0760749276
 20
569.1998346706
 11
105.8784367212
 21
569.1998346706
  0
LINE
  5
576
100
AcDbEntity
  8
7_ALL_FEATURES
100
AcDbLine
 62
7
  6
CONTINUOUS
 10
103.3380955368
 20
569.1998346706
 11
99.658266129
 21
569.1998346706
  0
LINE
  5
577
100
AcDbEntity
  8
7_ALL_FEATURES
100
AcDbLine
 62
7
  6
CONTINUOUS
 10
172.408266129
 20
569.5998346706
 11
173.108266129
 21
569.5998346706
  0
LINE
  5
578
100
AcDbEntity
  8
3_ALL_AXES
100
AcDbLine
 62
7
  6
CONTINUOUS
 10
138.408266129
 20
569.8998346706
 11
148.408266129
 21
569.8998346706
  0
LINE
  5
579
100
AcDbEntity
  8
3_ALL_AXES
100
AcDbLine
 62
7
  6
CONTINUOUS
 10
138.4082953133
 20
570.1998346706
 11
148.4082369447
 21
570.1998346706
  0
LINE
  5
57A
100
AcDbEntity
  8
7_ALL_FEATURES
100
AcDbLine
 62
7
  6
CONTINUOUS
 10
173.258266129
 20
571.8389163495
 11
171.5693318879
 21
572.8140229883
  0
LINE
  5
57B
100
AcDbEntity
  8
7_ALL_FEATURES
100
AcDbLine
 62
7
  6
CONTINUOUS
 10
173.108266129
 20
576.3998346706
 11
170.208266129
 21
576.3998346706
  0
LINE
  5
57C
100
AcDbEntity
  8
7_ALL_FEATURES
100
AcDbLine
 62
7
  6
CONTINUOUS
 10
165.458266129
 20
578.0998346706
 11
166.458266129
 21
578.0998346706
  0
LINE
  5
57D
100
AcDbEntity
  8
7_ALL_FEATURES
100
AcDbLine
 62
7
  6
CONTINUOUS
 10
176.408266129
 20
579.5998346706
 11
173.408266129
 21
579.5998346706
  0
LINE
  5
57E
100
AcDbEntity
  8
3_ALL_AXES
100
AcDbLine
 62
7
  6
CONTINUOUS
 10
165.458266129
 20
581.5998346706
 11
163.4300628988
 21
581.5998346706
  0
LINE
  5
57F
100
AcDbEntity
  8
7_ALL_FEATURES
100
AcDbLine
 62
7
  6
CONTINUOUS
 10
168.358266129
 20
581.9998346706
 11
171.608266129
 21
581.9998346706
  0
LINE
  5
580
100
AcDbEntity
  8
7_ALL_FEATURES
100
AcDbLine
 62
7
  6
CONTINUOUS
 10
162.6284537122
 20
583.5998346706
 11
162.6123013092
 21
583.5998346706
  0
LINE
  5
581
100
AcDbEntity
  8
7_ALL_FEATURES
100
AcDbLine
 62
7
  6
CONTINUOUS
 10
171.508266129
 20
583.8998346706
 11
166.758266129
 21
583.8998346706
  0
LINE
  5
582
100
AcDbEntity
  8
7_ALL_FEATURES
100
AcDbLine
 62
7
  6
CONTINUOUS
 10
162.6284537122
 20
585.0998346706
 11
162.3895774038
 21
585.0998346706
  0
LINE
  5
583
100
AcDbEntity
  8
7_ALL_FEATURES
100
AcDbLine
 62
7
  6
CONTINUOUS
 10
162.3895774038
 20
586.0998346706
 11
162.6284537122
 21
586.0998346706
  0
LINE
  5
584
100
AcDbEntity
  8
6_ALL_SURFS
100
AcDbLine
 62
7
  6
CONTINUOUS
 10
171.508266129
 20
587.2998346706
 11
166.758266129
 21
587.2998346706
  0
LINE
  5
585
100
AcDbEntity
  8
7_ALL_FEATURES
100
AcDbLine
 62
7
  6
CONTINUOUS
 10
162.6123013092
 20
587.5998346706
 11
162.6284537122
 21
587.5998346706
  0
LINE
  5
586
100
AcDbEntity
  8
3_ALL_AXES
100
AcDbLine
 62
7
  6
CONTINUOUS
 10
178.408266129
 20
587.7498346706
 11
176.408266129
 21
587.7498346706
  0
LINE
  5
587
100
AcDbEntity
  8
6_ALL_SURFS
100
AcDbLine
 62
7
  6
CONTINUOUS
 10
168.358266129
 20
589.1998346706
 11
171.608266129
 21
589.1998346706
  0
LINE
  5
588
100
AcDbEntity
  8
3_ALL_AXES
100
AcDbLine
 62
7
  6
CONTINUOUS
 10
165.458266129
 20
589.5998346706
 11
163.4300628988
 21
589.5998346706
  0
LINE
  5
589
100
AcDbEntity
  8
3_ALL_AXES
100
AcDbLine
 62
7
  6
CONTINUOUS
 10
179.208266129
 20
590.0998346706
 11
178.408266129
 21
590.0998346706
  0
LINE
  5
58A
100
AcDbEntity
  8
3_ALL_AXES
100
AcDbLine
 62
7
  6
CONTINUOUS
 10
173.408266129
 20
590.0998346706
 11
168.508266129
 21
590.0998346706
  0
LINE
  5
58B
100
AcDbEntity
  8
7_ALL_FEATURES
100
AcDbLine
 62
7
  6
CONTINUOUS
 10
166.458266129
 20
593.0998346706
 11
165.458266129
 21
593.0998346706
  0
LINE
  5
58C
100
AcDbEntity
  8
6_ALL_SURFS
100
AcDbLine
 62
7
  6
CONTINUOUS
 10
152.3936039815
 20
601.5844710846
 11
151.4180950709
 21
601.9395272914
  0
LINE
  5
58D
100
AcDbEntity
  8
6_ALL_SURFS
100
AcDbLine
 62
7
  6
CONTINUOUS
 10
171.5693318879
 20
596.8140229883
 11
173.258266129
 21
595.8389163495
  0
LINE
  5
58E
100
AcDbEntity
  8
6_ALL_SURFS
100
AcDbLine
 62
7
  6
CONTINUOUS
 10
173.108266129
 20
594.7998346706
 11
170.208266129
 21
594.7998346706
  0
LINE
  5
58F
100
AcDbEntity
  8
3_ALL_AXES
100
AcDbLine
 62
7
  6
CONTINUOUS
 10
179.208266129
 20
595.0998346706
 11
178.408266129
 21
595.0998346706
  0
LINE
  5
590
100
AcDbEntity
  8
3_ALL_AXES
100
AcDbLine
 62
7
  6
CONTINUOUS
 10
168.9504164363
 20
595.0998346706
 11
168.508266129
 21
595.0998346706
  0
LINE
  5
591
100
AcDbEntity
  8
3_ALL_AXES
100
AcDbLine
 62
7
  6
CONTINUOUS
 10
178.408266129
 20
596.4498346706
 11
176.408266129
 21
596.4498346706
  0
LINE
  5
592
100
AcDbEntity
  8
3_ALL_AXES
100
AcDbLine
 62
7
  6
CONTINUOUS
 10
166.008266129
 20
597.5998346706
 11
165.708266129
 21
597.5998346706
  0
LINE
  5
593
100
AcDbEntity
  8
6_ALL_SURFS
100
AcDbLine
 62
7
  6
CONTINUOUS
 10
172.408266129
 20
601.5998346706
 11
173.108266129
 21
601.5998346706
  0
LINE
  5
594
100
AcDbEntity
  8
6_ALL_SURFS
100
AcDbLine
 62
7
  6
CONTINUOUS
 10
151.0760749276
 20
601.9998346706
 11
105.8784367212
 21
601.9998346706
  0
LINE
  5
595
100
AcDbEntity
  8
6_ALL_SURFS
100
AcDbLine
 62
7
  6
CONTINUOUS
 10
103.3380955368
 20
601.9998346706
 11
99.658266129
 21
601.9998346706
  0
LINE
  5
596
100
AcDbEntity
  8
7_ALL_FEATURES
100
AcDbLine
 62
7
  6
CONTINUOUS
 10
94.908266129
 20
602.5498346706
 11
95.428266129
 21
602.5498346706
  0
LINE
  5
597
100
AcDbEntity
  8
7_ALL_FEATURES
100
AcDbLine
 62
7
  6
CONTINUOUS
 10
94.908266129
 20
602.8998346706
 11
95.428266129
 21
602.8998346706
  0
LINE
  5
598
100
AcDbEntity
  8
6_ALL_SURFS
100
AcDbLine
 62
7
  6
CONTINUOUS
 10
107.808266129
 20
603.5998346706
 11
152.5537800583
 21
603.5998346706
  0
LINE
  5
599
100
AcDbEntity
  8
7_ALL_FEATURES
100
AcDbLine
 62
7
  6
CONTINUOUS
 10
95.428266129
 20
603.6998346706
 11
94.808266129
 21
603.6998346706
  0
LINE
  5
59A
100
AcDbEntity
  8
6_ALL_SURFS
100
AcDbLine
 62
7
  6
CONTINUOUS
 10
101.1396736952
 20
603.7498346706
 11
101.408266129
 21
603.7498346706
  0
LINE
  5
59B
100
AcDbEntity
  8
7_ALL_FEATURES
100
AcDbLine
 62
7
  6
CONTINUOUS
 10
176.408266129
 20
604.5998346706
 11
173.408266129
 21
604.5998346706
  0
LINE
  5
59C
100
AcDbEntity
  8
7_ALL_FEATURES
100
AcDbLine
 62
7
  6
CONTINUOUS
 10
94.408266129
 20
604.9498346706
 11
93.808266129
 21
604.9498346706
  0
LINE
  5
59D
100
AcDbEntity
  8
6_ALL_SURFS
100
AcDbLine
 62
7
  6
CONTINUOUS
 10
97.2025924373
 20
605.1498346706
 11
96.408266129
 21
605.1498346706
  0
LINE
  5
59E
100
AcDbEntity
  8
6_ALL_SURFS
100
AcDbLine
 62
7
  6
CONTINUOUS
 10
94.1564298514
 20
605.1498346706
 11
93.4933681458
 21
605.1498346706
  0
LINE
  5
59F
100
AcDbEntity
  8
6_ALL_SURFS
100
AcDbLine
 62
7
  6
CONTINUOUS
 10
91.7270159726
 20
605.1498346706
 11
78.908266129
 21
605.1498346706
  0
LINE
  5
5A0
100
AcDbEntity
  8
6_ALL_SURFS
100
AcDbLine
 62
7
  6
CONTINUOUS
 10
78.908266129
 20
606.3998346706
 11
79.808266129
 21
606.3998346706
  0
LINE
  5
5A1
100
AcDbEntity
  8
6_ALL_SURFS
100
AcDbLine
 62
7
  6
CONTINUOUS
 10
81.408266129
 20
606.6498346706
 11
90.6051982936
 21
606.6498346706
  0
LINE
  5
5A2
100
AcDbEntity
  8
6_ALL_SURFS
100
AcDbLine
 62
7
  6
CONTINUOUS
 10
94.6151858248
 20
606.6498346706
 11
97.32076558
 21
606.6498346706
  0
LINE
  5
5A3
100
AcDbEntity
  8
6_ALL_SURFS
100
AcDbLine
 62
7
  6
CONTINUOUS
 10
103.708266129
 20
606.7998346706
 11
105.508266129
 21
606.7998346706
  0
LINE
  5
5A4
100
AcDbEntity
  8
6_ALL_SURFS
100
AcDbLine
 62
7
  6
CONTINUOUS
 10
165.674705743
 20
599.173545826
 11
153.1371310615
 21
601.9530592154
  0
LINE
  5
5A5
100
AcDbEntity
  8
6_ALL_SURFS
100
AcDbLine
 62
7
  6
CONTINUOUS
 10
153.635978128
 20
603.4813147062
 11
167.6429252519
 21
600.3760492889
  0
ARC
  5
5A6
100
AcDbEntity
  8
6_ALL_SURFS
100
AcDbCircle
 62
7
  6
CONTINUOUS
 10
315.0502661359
 20
281.1498346706
 40
4.7990381057
100
AcDbArc
 50
308.6913826582
 51
51.3086173418
  0
ARC
  5
5A7
100
AcDbEntity
  8
6_ALL_SURFS
100
AcDbCircle
 62
7
  6
CONTINUOUS
 10
315.0502661359
 20
81.1498346706
 40
4.7990381057
100
AcDbArc
 50
308.6913826582
 51
51.3086173418
  0
ARC
  5
5A8
100
AcDbEntity
  8
6_ALL_SURFS
100
AcDbCircle
 62
7
  6
CONTINUOUS
 10
315.0502661359
 20
281.1498346706
 40
4.7990381057
100
AcDbArc
 50
97.1822026405
 51
136.828815981
  0
ARC
  5
5A9
100
AcDbEntity
  8
7_ALL_FEATURES
100
AcDbCircle
 62
7
  6
CONTINUOUS
 10
385.1502661359
 20
81.1498346706
 40
4.7990381057
100
AcDbArc
 50
128.6913826582
 51
231.3086173418
  0
ARC
  5
5AA
100
AcDbEntity
  8
7_ALL_FEATURES
100
AcDbCircle
 62
7
  6
CONTINUOUS
 10
385.1502661359
 20
281.1498346706
 40
4.7990381057
100
AcDbArc
 50
128.6913826582
 51
231.3086173418
  0
ARC
  5
5AB
100
AcDbEntity
  8
7_ALL_FEATURES
100
AcDbCircle
 62
7
  6
CONTINUOUS
 10
385.1502661359
 20
281.1498346706
 40
4.7990381057
100
AcDbArc
 50
90.0
 51
120.0066305519
  0
ARC
  5
5AC
100
AcDbEntity
  8
7_ALL_FEATURES
100
AcDbCircle
 62
7
  6
CONTINUOUS
 10
385.1502661359
 20
81.1498346706
 40
4.7990381057
100
AcDbArc
 50
90.0
 51
120.0066305519
  0
ARC
  5
5AD
100
AcDbEntity
  8
7_ALL_FEATURES
100
AcDbCircle
 62
7
  6
CONTINUOUS
 10
385.1502661359
 20
281.1498346706
 40
4.7990381057
100
AcDbArc
 50
239.9933694481
 51
270.0
  0
ARC
  5
5AE
100
AcDbEntity
  8
7_ALL_FEATURES
100
AcDbCircle
 62
7
  6
CONTINUOUS
 10
385.1502661359
 20
81.1498346706
 40
4.7990381057
100
AcDbArc
 50
239.9933694481
 51
270.0
  0
ARC
  5
5AF
100
AcDbEntity
  8
7_ALL_FEATURES
100
AcDbCircle
 62
7
  6
CONTINUOUS
 10
385.1502661359
 20
281.1498346706
 40
4.7990381057
100
AcDbArc
 50
43.171184019
 51
82.8177973595
  0
ARC
  5
5B0
100
AcDbEntity
  8
7_ALL_FEATURES
100
AcDbCircle
 62
7
  6
CONTINUOUS
 10
385.1502661359
 20
81.1498346706
 40
4.7990381057
100
AcDbArc
 50
43.171184019
 51
82.8177973595
  0
ARC
  5
5B1
100
AcDbEntity
  8
7_ALL_FEATURES
100
AcDbCircle
 62
7
  6
CONTINUOUS
 10
385.1502661359
 20
281.1498346706
 40
4.7990381057
100
AcDbArc
 50
277.1822026405
 51
316.828815981
  0
ARC
  5
5B2
100
AcDbEntity
  8
7_ALL_FEATURES
100
AcDbCircle
 62
7
  6
CONTINUOUS
 10
385.1502661359
 20
81.1498346706
 40
4.7990381057
100
AcDbArc
 50
277.1822026405
 51
316.828815981
  0
ARC
  5
5B3
100
AcDbEntity
  8
6_ALL_SURFS
100
AcDbCircle
 62
7
  6
CONTINUOUS
 10
315.0502661359
 20
81.1498346706
 40
4.7990381057
100
AcDbArc
 50
270.0
 51
300.0066305519
  0
ARC
  5
5B4
100
AcDbEntity
  8
6_ALL_SURFS
100
AcDbCircle
 62
7
  6
CONTINUOUS
 10
315.0502661359
 20
281.1498346706
 40
4.7990381057
100
AcDbArc
 50
270.0
 51
300.0066305519
  0
ARC
  5
5B5
100
AcDbEntity
  8
6_ALL_SURFS
100
AcDbCircle
 62
7
  6
CONTINUOUS
 10
315.0502661359
 20
81.1498346706
 40
4.7990381057
100
AcDbArc
 50
59.9933694481
 51
90.0
  0
ARC
  5
5B6
100
AcDbEntity
  8
6_ALL_SURFS
100
AcDbCircle
 62
7
  6
CONTINUOUS
 10
315.0502661359
 20
281.1498346706
 40
4.7990381057
100
AcDbArc
 50
59.9933694481
 51
90.0
  0
ARC
  5
5B7
100
AcDbEntity
  8
6_ALL_SURFS
100
AcDbCircle
 62
7
  6
CONTINUOUS
 10
315.0502661359
 20
81.1498346706
 40
4.7990381057
100
AcDbArc
 50
223.171184019
 51
262.8177973595
  0
ARC
  5
5B8
100
AcDbEntity
  8
6_ALL_SURFS
100
AcDbCircle
 62
7
  6
CONTINUOUS
 10
315.0502661359
 20
281.1498346706
 40
4.7990381057
100
AcDbArc
 50
223.171184019
 51
262.8177973595
  0
ARC
  5
5B9
100
AcDbEntity
  8
6_ALL_SURFS
100
AcDbCircle
 62
7
  6
CONTINUOUS
 10
315.0502661359
 20
81.1498346706
 40
4.7990381057
100
AcDbArc
 50
97.1822026405
 51
136.828815981
  0
CIRCLE
  5
5BA
100
AcDbEntity
  8
6_ALL_SURFS
100
AcDbCircle
 62
7
  6
CONTINUOUS
 10
315.0502661359
 20
81.1498346706
 40
3.5
  0
CIRCLE
  5
5BB
100
AcDbEntity
  8
6_ALL_SURFS
100
AcDbCircle
 62
7
  6
CONTINUOUS
 10
315.0502661359
 20
281.1498346706
 40
3.5
  0
CIRCLE
  5
5BC
100
AcDbEntity
  8
6_ALL_SURFS
100
AcDbCircle
 62
7
  6
CONTINUOUS
 10
385.1502661359
 20
81.1498346706
 40
3.5
  0
CIRCLE
  5
5BD
100
AcDbEntity
  8
6_ALL_SURFS
100
AcDbCircle
 62
7
  6
CONTINUOUS
 10
385.1502661359
 20
281.1498346706
 40
3.5
  0
ARC
  5
5BE
100
AcDbEntity
  8
6_ALL_SURFS
100
AcDbCircle
 62
7
  6
CONTINUOUS
 10
315.0502661359
 20
481.1498346706
 40
4.7990381057
100
AcDbArc
 50
308.6913826582
 51
51.3086173418
  0
ARC
  5
5BF
100
AcDbEntity
  8
6_ALL_SURFS
100
AcDbCircle
 62
7
  6
CONTINUOUS
 10
315.0502661359
 20
481.1498346706
 40
4.7990381057
100
AcDbArc
 50
97.1822026405
 51
136.828815981
  0
ARC
  5
5C0
100
AcDbEntity
  8
7_ALL_FEATURES
100
AcDbCircle
 62
7
  6
CONTINUOUS
 10
385.1502661359
 20
481.1498346706
 40
4.7990381057
100
AcDbArc
 50
128.6913826582
 51
231.3086173418
  0
ARC
  5
5C1
100
AcDbEntity
  8
7_ALL_FEATURES
100
AcDbCircle
 62
7
  6
CONTINUOUS
 10
385.1502661359
 20
481.1498346706
 40
4.7990381057
100
AcDbArc
 50
90.0
 51
120.0066305519
  0
ARC
  5
5C2
100
AcDbEntity
  8
7_ALL_FEATURES
100
AcDbCircle
 62
7
  6
CONTINUOUS
 10
385.1502661359
 20
481.1498346706
 40
4.7990381057
100
AcDbArc
 50
239.9933694481
 51
270.0
  0
ARC
  5
5C3
100
AcDbEntity
  8
7_ALL_FEATURES
100
AcDbCircle
 62
7
  6
CONTINUOUS
 10
385.1502661359
 20
481.1498346706
 40
4.7990381057
100
AcDbArc
 50
43.171184019
 51
82.8177973595
  0
ARC
  5
5C4
100
AcDbEntity
  8
7_ALL_FEATURES
100
AcDbCircle
 62
7
  6
CONTINUOUS
 10
385.1502661359
 20
481.1498346706
 40
4.7990381057
100
AcDbArc
 50
277.1822026405
 51
316.828815981
  0
ARC
  5
5C5
100
AcDbEntity
  8
6_ALL_SURFS
100
AcDbCircle
 62
7
  6
CONTINUOUS
 10
315.0502661359
 20
481.1498346706
 40
4.7990381057
100
AcDbArc
 50
270.0
 51
300.0066305519
  0
ARC
  5
5C6
100
AcDbEntity
  8
6_ALL_SURFS
100
AcDbCircle
 62
7
  6
CONTINUOUS
 10
315.0502661359
 20
481.1498346706
 40
4.7990381057
100
AcDbArc
 50
59.9933694481
 51
90.0
  0
ARC
  5
5C7
100
AcDbEntity
  8
6_ALL_SURFS
100
AcDbCircle
 62
7
  6
CONTINUOUS
 10
315.0502661359
 20
481.1498346706
 40
4.7990381057
100
AcDbArc
 50
223.171184019
 51
262.8177973595
  0
ARC
  5
5C8
100
AcDbEntity
  8
6_ALL_SURFS
100
AcDbCircle
 62
7
  6
CONTINUOUS
 10
397.0502661359
 20
620.6498346706
 40
4.7990381057
100
AcDbArc
 50
218.6913826582
 51
321.3086173418
  0
ARC
  5
5C9
100
AcDbEntity
  8
7_ALL_FEATURES
100
AcDbCircle
 62
7
  6
CONTINUOUS
 10
397.0502661359
 20
550.5498346706
 40
4.7990381057
100
AcDbArc
 50
38.6913826582
 51
141.3086173418
  0
ARC
  5
5CA
100
AcDbEntity
  8
7_ALL_FEATURES
100
AcDbCircle
 62
7
  6
CONTINUOUS
 10
397.0502661359
 20
550.5498346706
 40
4.7990381057
100
AcDbArc
 50
0.0
 51
30.0066305519
  0
ARC
  5
5CB
100
AcDbEntity
  8
7_ALL_FEATURES
100
AcDbCircle
 62
7
  6
CONTINUOUS
 10
397.0502661359
 20
550.5498346706
 40
4.7990381057
100
AcDbArc
 50
149.9933694481
 51
180.0
  0
ARC
  5
5CC
100
AcDbEntity
  8
7_ALL_FEATURES
100
AcDbCircle
 62
7
  6
CONTINUOUS
 10
397.0502661359
 20
550.5498346706
 40
4.7990381057
100
AcDbArc
 50
313.171184019
 51
352.8177973595
  0
ARC
  5
5CD
100
AcDbEntity
  8
7_ALL_FEATURES
100
AcDbCircle
 62
7
  6
CONTINUOUS
 10
397.0502661359
 20
550.5498346706
 40
4.7990381057
100
AcDbArc
 50
187.1822026405
 51
226.828815981
  0
ARC
  5
5CE
100
AcDbEntity
  8
6_ALL_SURFS
100
AcDbCircle
 62
7
  6
CONTINUOUS
 10
397.0502661359
 20
620.6498346706
 40
4.7990381057
100
AcDbArc
 50
180.0
 51
210.0066305519
  0
ARC
  5
5CF
100
AcDbEntity
  8
6_ALL_SURFS
100
AcDbCircle
 62
7
  6
CONTINUOUS
 10
397.0502661359
 20
620.6498346706
 40
4.7990381057
100
AcDbArc
 50
329.9933694481
 51
360.0
  0
ARC
  5
5D0
100
AcDbEntity
  8
6_ALL_SURFS
100
AcDbCircle
 62
7
  6
CONTINUOUS
 10
397.0502661359
 20
620.6498346706
 40
4.7990381057
100
AcDbArc
 50
133.171184019
 51
172.8177973595
  0
ARC
  5
5D1
100
AcDbEntity
  8
6_ALL_SURFS
100
AcDbCircle
 62
7
  6
CONTINUOUS
 10
397.0502661359
 20
620.6498346706
 40
4.7990381057
100
AcDbArc
 50
7.1822026405
 51
46.828815981
  0
CIRCLE
  5
5D2
100
AcDbEntity
  8
6_ALL_SURFS
100
AcDbCircle
 62
7
  6
CONTINUOUS
 10
315.0502661359
 20
481.1498346706
 40
3.5
  0
CIRCLE
  5
5D3
100
AcDbEntity
  8
6_ALL_SURFS
100
AcDbCircle
 62
7
  6
CONTINUOUS
 10
385.1502661359
 20
481.1498346706
 40
3.5
  0
CIRCLE
  5
5D4
100
AcDbEntity
  8
6_ALL_SURFS
100
AcDbCircle
 62
7
  6
CONTINUOUS
 10
397.0502661359
 20
620.6498346706
 40
3.5
  0
CIRCLE
  5
5D5
100
AcDbEntity
  8
6_ALL_SURFS
100
AcDbCircle
 62
7
  6
CONTINUOUS
 10
397.0502661359
 20
550.5498346706
 40
3.5
  0
ARC
  5
5D6
100
AcDbEntity
  8
6_ALL_SURFS
100
AcDbCircle
 62
7
  6
CONTINUOUS
 10
897.0502661359
 20
620.6498346706
 40
4.7990381057
100
AcDbArc
 50
218.6913826582
 51
321.3086173418
  0
ARC
  5
5D7
100
AcDbEntity
  8
6_ALL_SURFS
100
AcDbCircle
 62
7
  6
CONTINUOUS
 10
647.0502661359
 20
620.6498346706
 40
4.7990381057
100
AcDbArc
 50
218.6913826582
 51
321.3086173418
  0
ARC
  5
5D8
100
AcDbEntity
  8
6_ALL_SURFS
100
AcDbCircle
 62
7
  6
CONTINUOUS
 10
647.0502661359
 20
620.6498346706
 40
4.7990381057
100
AcDbArc
 50
7.1822026405
 51
46.828815981
  0
ARC
  5
5D9
100
AcDbEntity
  8
6_ALL_SURFS
100
AcDbCircle
 62
7
  6
CONTINUOUS
 10
897.0502661359
 20
620.6498346706
 40
4.7990381057
100
AcDbArc
 50
7.1822026405
 51
46.828815981
  0
ARC
  5
5DA
100
AcDbEntity
  8
7_ALL_FEATURES
100
AcDbCircle
 62
7
  6
CONTINUOUS
 10
897.0502661359
 20
550.5498346706
 40
4.7990381057
100
AcDbArc
 50
38.6913826582
 51
141.3086173418
  0
ARC
  5
5DB
100
AcDbEntity
  8
7_ALL_FEATURES
100
AcDbCircle
 62
7
  6
CONTINUOUS
 10
647.0502661359
 20
550.5498346706
 40
4.7990381057
100
AcDbArc
 50
38.6913826582
 51
141.3086173418
  0
ARC
  5
5DC
100
AcDbEntity
  8
7_ALL_FEATURES
100
AcDbCircle
 62
7
  6
CONTINUOUS
 10
897.0502661359
 20
550.5498346706
 40
4.7990381057
100
AcDbArc
 50
0.0
 51
30.0066305519
  0
ARC
  5
5DD
100
AcDbEntity
  8
7_ALL_FEATURES
100
AcDbCircle
 62
7
  6
CONTINUOUS
 10
647.0502661359
 20
550.5498346706
 40
4.7990381057
100
AcDbArc
 50
0.0
 51
30.0066305519
  0
ARC
  5
5DE
100
AcDbEntity
  8
7_ALL_FEATURES
100
AcDbCircle
 62
7
  6
CONTINUOUS
 10
897.0502661359
 20
550.5498346706
 40
4.7990381057
100
AcDbArc
 50
149.9933694481
 51
180.0
  0
ARC
  5
5DF
100
AcDbEntity
  8
7_ALL_FEATURES
100
AcDbCircle
 62
7
  6
CONTINUOUS
 10
647.0502661359
 20
550.5498346706
 40
4.7990381057
100
AcDbArc
 50
149.9933694481
 51
180.0
  0
ARC
  5
5E0
100
AcDbEntity
  8
7_ALL_FEATURES
100
AcDbCircle
 62
7
  6
CONTINUOUS
 10
897.0502661359
 20
550.5498346706
 40
4.7990381057
100
AcDbArc
 50
313.171184019
 51
352.8177973595
  0
ARC
  5
5E1
100
AcDbEntity
  8
7_ALL_FEATURES
100
AcDbCircle
 62
7
  6
CONTINUOUS
 10
647.0502661359
 20
550.5498346706
 40
4.7990381057
100
AcDbArc
 50
313.171184019
 51
352.8177973595
  0
ARC
  5
5E2
100
AcDbEntity
  8
7_ALL_FEATURES
100
AcDbCircle
 62
7
  6
CONTINUOUS
 10
897.0502661359
 20
550.5498346706
 40
4.7990381057
100
AcDbArc
 50
187.1822026405
 51
226.828815981
  0
ARC
  5
5E3
100
AcDbEntity
  8
7_ALL_FEATURES
100
AcDbCircle
 62
7
  6
CONTINUOUS
 10
647.0502661359
 20
550.5498346706
 40
4.7990381057
100
AcDbArc
 50
187.1822026405
 51
226.828815981
  0
ARC
  5
5E4
100
AcDbEntity
  8
6_ALL_SURFS
100
AcDbCircle
 62
7
  6
CONTINUOUS
 10
647.0502661359
 20
620.6498346706
 40
4.7990381057
100
AcDbArc
 50
180.0
 51
210.0066305519
  0
ARC
  5
5E5
100
AcDbEntity
  8
6_ALL_SURFS
100
AcDbCircle
 62
7
  6
CONTINUOUS
 10
897.0502661359
 20
620.6498346706
 40
4.7990381057
100
AcDbArc
 50
180.0
 51
210.0066305519
  0
ARC
  5
5E6
100
AcDbEntity
  8
6_ALL_SURFS
100
AcDbCircle
 62
7
  6
CONTINUOUS
 10
647.0502661359
 20
620.6498346706
 40
4.7990381057
100
AcDbArc
 50
329.9933694481
 51
360.0
  0
ARC
  5
5E7
100
AcDbEntity
  8
6_ALL_SURFS
100
AcDbCircle
 62
7
  6
CONTINUOUS
 10
897.0502661359
 20
620.6498346706
 40
4.7990381057
100
AcDbArc
 50
329.9933694481
 51
360.0
  0
ARC
  5
5E8
100
AcDbEntity
  8
6_ALL_SURFS
100
AcDbCircle
 62
7
  6
CONTINUOUS
 10
647.0502661359
 20
620.6498346706
 40
4.7990381057
100
AcDbArc
 50
133.171184019
 51
172.8177973595
  0
ARC
  5
5E9
100
AcDbEntity
  8
6_ALL_SURFS
100
AcDbCircle
 62
7
  6
CONTINUOUS
 10
897.0502661359
 20
620.6498346706
 40
4.7990381057
100
AcDbArc
 50
133.171184019
 51
172.8177973595
  0
CIRCLE
  5
5EA
100
AcDbEntity
  8
6_ALL_SURFS
100
AcDbCircle
 62
7
  6
CONTINUOUS
 10
647.0502661359
 20
620.6498346706
 40
3.5
  0
CIRCLE
  5
5EB
100
AcDbEntity
  8
6_ALL_SURFS
100
AcDbCircle
 62
7
  6
CONTINUOUS
 10
897.0502661359
 20
620.6498346706
 40
3.5
  0
CIRCLE
  5
5EC
100
AcDbEntity
  8
6_ALL_SURFS
100
AcDbCircle
 62
7
  6
CONTINUOUS
 10
647.0502661359
 20
550.5498346706
 40
3.5
  0
CIRCLE
  5
5ED
100
AcDbEntity
  8
6_ALL_SURFS
100
AcDbCircle
 62
7
  6
CONTINUOUS
 10
897.0502661359
 20
550.5498346706
 40
3.5
  0
ARC
  5
5EE
100
AcDbEntity
  8
7_ALL_FEATURES
100
AcDbCircle
 62
7
  6
CONTINUOUS
 10
350.1002661359
 20
701.1200766129
 40
8.0
100
AcDbArc
 50
60.0
 51
75.5224878141
  0
ARC
  5
5EF
100
AcDbEntity
  8
7_ALL_FEATURES
100
AcDbCircle
 62
7
  6
CONTINUOUS
 10
350.1002661359
 20
701.1200766129
 40
8.0
100
AcDbArc
 50
104.4775121859
 51
120.0
  0
ARC
  5
5F0
100
AcDbEntity
  8
7_ALL_FEATURES
100
AcDbCircle
 62
7
  6
CONTINUOUS
 10
350.1002661359
 20
701.1200766129
 40
7.9843597113
100
AcDbArc
 50
75.4935070353
 51
86.4096498625
  0
ARC
  5
5F1
100
AcDbEntity
  8
7_ALL_FEATURES
100
AcDbCircle
 62
7
  6
CONTINUOUS
 10
350.1002661359
 20
701.1200766129
 40
7.9843597113
100
AcDbArc
 50
93.5903501375
 51
104.5064929647
  0
ARC
  5
5F2
100
AcDbEntity
  8
7_ALL_FEATURES
100
AcDbCircle
 62
7
  6
CONTINUOUS
 10
350.1002661359
 20
701.1200766129
 40
7.7459666924
100
AcDbArc
 50
86.2990001561
 51
93.7009998439
  0
ARC
  5
5F3
100
AcDbEntity
  8
6_ALL_SURFS
100
AcDbCircle
 62
7
  6
CONTINUOUS
 10
337.1002661359
 20
718.9245626836
 40
5.0
100
AcDbArc
 50
180.0
 51
192.5
  0
ARC
  5
5F4
100
AcDbEntity
  8
6_ALL_SURFS
100
AcDbCircle
 62
7
  6
CONTINUOUS
 10
330.442571482
 20
702.7532194204
 40
5.0
100
AcDbArc
 50
349.0386653036
 51
12.5
  0
ARC
  5
5F5
100
AcDbEntity
  8
6_ALL_SURFS
100
AcDbCircle
 62
7
  6
CONTINUOUS
 10
338.1002661359
 20
701.2700766129
 40
2.8
100
AcDbArc
 50
0.0
 51
30.0
  0
ARC
  5
5F6
100
AcDbEntity
  8
6_ALL_SURFS
100
AcDbCircle
 62
7
  6
CONTINUOUS
 10
338.1002661359
 20
701.2700766129
 40
2.8
100
AcDbArc
 50
169.0386653036
 51
206.847213326
  0
ARC
  5
5F7
100
AcDbEntity
  8
7_ALL_FEATURES
100
AcDbCircle
 62
7
  6
CONTINUOUS
 10
351.9002661359
 20
699.8700766129
 40
1.8
100
AcDbArc
 50
270.0
 51
360.0
  0
ARC
  5
5F8
100
AcDbEntity
  8
6_ALL_SURFS
100
AcDbCircle
 62
7
  6
CONTINUOUS
 10
348.3002661359
 20
699.8700766129
 40
1.8
100
AcDbArc
 50
180.0
 51
270.0
  0
ARC
  5
5F9
100
AcDbEntity
  8
6_ALL_SURFS
100
AcDbCircle
 62
7
  6
CONTINUOUS
 10
338.1002661359
 20
701.2700766129
 40
1.3
100
AcDbArc
 50
310.8069228749
 51
229.1930771251
  0
ARC
  5
5FA
100
AcDbEntity
  8
6_ALL_SURFS
100
AcDbCircle
 62
7
  6
CONTINUOUS
 10
337.5028509875
 20
706.0200766129
 40
1.0
100
AcDbArc
 50
192.5
 51
270.0
  0
ARC
  5
5FB
100
AcDbEntity
  8
6_ALL_SURFS
100
AcDbCircle
 62
7
  6
CONTINUOUS
 10
334.7002661359
 20
720.4022678143
 40
1.0
100
AcDbArc
 50
180.0
 51
200.0
  0
ARC
  5
5FC
100
AcDbEntity
  8
6_ALL_SURFS
100
AcDbCircle
 62
7
  6
CONTINUOUS
 10
334.6002661359
 20
699.0700766129
 40
0.5
100
AcDbArc
 50
90.0
 51
180.0
  0
ARC
  5
5FD
100
AcDbEntity
  8
6_ALL_SURFS
100
AcDbCircle
 62
7
  6
CONTINUOUS
 10
340.9581499684
 20
702.9200766129
 40
0.5
100
AcDbArc
 50
90.0
 51
210.0
  0
ARC
  5
5FE
100
AcDbEntity
  8
7_ALL_FEATURES
100
AcDbCircle
 62
7
  6
CONTINUOUS
 10
352.1002661359
 20
704.7200766129
 40
0.3
100
AcDbArc
 50
90.0
 51
180.0
  0
ARC
  5
5FF
100
AcDbEntity
  8
6_ALL_SURFS
100
AcDbCircle
 62
7
  6
CONTINUOUS
 10
340.6002661359
 20
698.3700766129
 40
0.3
100
AcDbArc
 50
270.0
 51
360.0
  0
ARC
  5
600
100
AcDbEntity
  8
6_ALL_SURFS
100
AcDbCircle
 62
7
  6
CONTINUOUS
 10
340.120992078
 20
698.3700766129
 40
0.3
100
AcDbArc
 50
210.0
 51
270.0
  0
ARC
  5
601
100
AcDbEntity
  8
6_ALL_SURFS
100
AcDbCircle
 62
7
  6
CONTINUOUS
 10
339.1458854393
 20
700.059010854
 40
0.3
100
AcDbArc
 50
130.8069228748
 51
210.0
  0
ARC
  5
602
100
AcDbEntity
  8
6_ALL_SURFS
100
AcDbCircle
 62
7
  6
CONTINUOUS
 10
337.0546468325
 20
700.059010854
 40
0.3
100
AcDbArc
 50
330.0
 51
49.1930771252
  0
ARC
  5
603
100
AcDbEntity
  8
6_ALL_SURFS
100
AcDbCircle
 62
7
  6
CONTINUOUS
 10
336.0795401937
 20
698.3700766129
 40
0.3
100
AcDbArc
 50
270.0
 51
330.0
  0
ARC
  5
604
100
AcDbEntity
  8
6_ALL_SURFS
100
AcDbCircle
 62
7
  6
CONTINUOUS
 10
334.4002661359
 20
698.3700766129
 40
0.3
100
AcDbArc
 50
180.0
 51
270.0
  0
ARC
  5
605
100
AcDbEntity
  8
6_ALL_SURFS
100
AcDbCircle
 62
7
  6
CONTINUOUS
 10
333.8337219356
 20
718.9821327174
 40
0.3
100
AcDbArc
 50
300.9637565321
 51
20.0
  0
ARC
  5
606
100
AcDbEntity
  8
6_ALL_SURFS
100
AcDbCircle
 62
7
  6
CONTINUOUS
 10
348.1002661359
 20
704.7200766129
 40
0.3
100
AcDbArc
 50
0.0
 51
90.0
  0
ARC
  5
607
100
AcDbEntity
  8
6_ALL_SURFS
100
AcDbCircle
 62
7
  6
CONTINUOUS
 10
335.3344027987
 20
699.8700766129
 40
0.3
100
AcDbArc
 50
270.0
 51
26.847213326
  0
ARC
  5
608
100
AcDbEntity
  8
6_ALL_SURFS
100
AcDbCircle
 62
7
  6
CONTINUOUS
 10
346.2002661359
 20
703.1200766129
 40
0.3
100
AcDbArc
 50
0.0
 51
90.0
  0
ARC
  5
609
100
AcDbEntity
  8
6_ALL_SURFS
100
AcDbCircle
 62
7
  6
CONTINUOUS
 10
348.7002661359
 20
699.9700766129
 40
0.3
100
AcDbArc
 50
180.0
 51
270.0
  0
ARC
  5
60A
100
AcDbEntity
  8
6_ALL_SURFS
100
AcDbCircle
 62
7
  6
CONTINUOUS
 10
334.0399303932
 20
718.4061435646
 40
0.3
100
AcDbArc
 50
120.9637565321
 51
192.5
  0
ARC
  5
60B
100
AcDbEntity
  8
7_ALL_FEATURES
100
AcDbCircle
 62
7
  6
CONTINUOUS
 10
351.5002661359
 20
699.9700766129
 40
0.3
100
AcDbArc
 50
270.0
 51
360.0
  0
ARC
  5
60C
100
AcDbEntity
  8
6_ALL_SURFS
100
AcDbCircle
 62
7
  6
CONTINUOUS
 10
314.7502661359
 20
791.7700766129
 40
0.5
100
AcDbArc
 50
233.1301023542
 51
306.8698976458
  0
ARC
  5
60D
100
AcDbEntity
  8
6_ALL_SURFS
100
AcDbCircle
 62
7
  6
CONTINUOUS
 10
317.7502661359
 20
791.7700766129
 40
0.5
100
AcDbArc
 50
233.1301023542
 51
306.8698976458
  0
ARC
  5
60E
100
AcDbEntity
  8
6_ALL_SURFS
100
AcDbCircle
 62
7
  6
CONTINUOUS
 10
320.7502661359
 20
791.7700766129
 40
0.5
100
AcDbArc
 50
233.1301023542
 51
306.8698976458
  0
ARC
  5
60F
100
AcDbEntity
  8
6_ALL_SURFS
100
AcDbCircle
 62
7
  6
CONTINUOUS
 10
309.4439694938
 20
790.7637799708
 40
0.3937033579
100
AcDbArc
 50
95.7105931375
 51
270.0
  0
ARC
  5
610
100
AcDbEntity
  8
6_ALL_SURFS
100
AcDbCircle
 62
7
  6
CONTINUOUS
 10
330.9002661359
 20
765.9700766129
 40
2.0
100
AcDbArc
 50
180.0
 51
270.0
  0
ARC
  5
611
100
AcDbEntity
  8
6_ALL_SURFS
100
AcDbCircle
 62
7
  6
CONTINUOUS
 10
330.9002661359
 20
767.7700766129
 40
2.0
100
AcDbArc
 50
90.0
 51
180.0
  0
ARC
  5
612
100
AcDbEntity
  8
7_ALL_FEATURES
100
AcDbCircle
 62
7
  6
CONTINUOUS
 10
331.0002661359
 20
776.0500766129
 40
1.8
100
AcDbArc
 50
302.8598803788
 51
360.0
  0
ARC
  5
613
100
AcDbEntity
  8
6_ALL_SURFS
100
AcDbCircle
 62
7
  6
CONTINUOUS
 10
330.5502661359
 20
774.1575771619
 40
1.5
100
AcDbArc
 50
180.0
 51
223.0
  0
ARC
  5
614
100
AcDbEntity
  8
6_ALL_SURFS
100
AcDbCircle
 62
7
  6
CONTINUOUS
 10
327.5502661359
 20
776.8631569172
 40
1.5
100
AcDbArc
 50
0.0
 51
33.3199193706
  0
ARC
  5
615
100
AcDbEntity
  8
6_ALL_SURFS
100
AcDbCircle
 62
7
  6
CONTINUOUS
 10
331.8002661359
 20
766.8700766129
 40
1.3
100
AcDbArc
 50
40.8069228749
 51
319.1930771252
  0
ARC
  5
616
100
AcDbEntity
  8
7_ALL_FEATURES
100
AcDbCircle
 62
7
  6
CONTINUOUS
 10
332.0854389332
 20
774.3700766129
 40
1.0
100
AcDbArc
 50
122.859880379
 51
223.0
  0
ARC
  5
617
100
AcDbEntity
  8
7_ALL_FEATURES
100
AcDbCircle
 62
7
  6
CONTINUOUS
 10
331.0002661359
 20
776.0500766129
 40
1.0
100
AcDbArc
 50
302.8598803787
 51
360.0
  0
ARC
  5
618
100
AcDbEntity
  8
7_ALL_FEATURES
100
AcDbCircle
 62
7
  6
CONTINUOUS
 10
332.0110545254
 20
773.5700766129
 40
0.4
100
AcDbArc
 50
223.0000000029
 51
43.0
  0
ARC
  5
619
100
AcDbEntity
  8
6_ALL_SURFS
100
AcDbCircle
 62
7
  6
CONTINUOUS
 10
330.2502661359
 20
777.9849745961
 40
0.3
100
AcDbArc
 50
0.0
 51
68.3817275779
  0
ARC
  5
61A
100
AcDbEntity
  8
6_ALL_SURFS
100
AcDbCircle
 62
7
  6
CONTINUOUS
 10
333.4002661359
 20
771.8200766129
 40
0.3
100
AcDbArc
 50
0.0
 51
90.0
  0
ARC
  5
61B
100
AcDbEntity
  8
6_ALL_SURFS
100
AcDbCircle
 62
7
  6
CONTINUOUS
 10
333.4002661359
 20
768.1402472051
 40
0.3
100
AcDbArc
 50
300.0
 51
360.0
  0
ARC
  5
61C
100
AcDbEntity
  8
6_ALL_SURFS
100
AcDbCircle
 62
7
  6
CONTINUOUS
 10
333.0113318948
 20
767.9156959163
 40
0.3
100
AcDbArc
 50
220.8069228749
 51
300.0
  0
ARC
  5
61D
100
AcDbEntity
  8
6_ALL_SURFS
100
AcDbCircle
 62
7
  6
CONTINUOUS
 10
333.0113318948
 20
765.8244573095
 40
0.3
100
AcDbArc
 50
60.0
 51
139.1930771251
  0
ARC
  5
61E
100
AcDbEntity
  8
6_ALL_SURFS
100
AcDbCircle
 62
7
  6
CONTINUOUS
 10
333.4002661359
 20
765.5999060207
 40
0.3
100
AcDbArc
 50
0.0
 51
60.0
  0
ARC
  5
61F
100
AcDbEntity
  8
6_ALL_SURFS
100
AcDbCircle
 62
7
  6
CONTINUOUS
 10
330.8502661359
 20
777.3219128906
 40
0.3
100
AcDbArc
 50
180.0
 51
217.5
  0
ARC
  5
620
100
AcDbEntity
  8
6_ALL_SURFS
100
AcDbCircle
 62
7
  6
CONTINUOUS
 10
332.5807098484
 20
772.4200766129
 40
0.3
100
AcDbArc
 50
223.0
 51
270.0
  0
ARC
  5
621
100
AcDbEntity
  8
6_ALL_SURFS
100
AcDbCircle
 62
7
  6
CONTINUOUS
 10
330.8502661359
 20
774.2757503046
 40
0.3
100
AcDbArc
 50
180.0
 51
223.0
  0
ARC
  5
622
100
AcDbEntity
  8
6_ALL_SURFS
100
AcDbCircle
 62
7
  6
CONTINUOUS
 10
330.8502661359
 20
775.0700766129
 40
0.3
100
AcDbArc
 50
90.0
 51
180.0
  0
ARC
  5
623
100
AcDbEntity
  8
6_ALL_SURFS
100
AcDbCircle
 62
7
  6
CONTINUOUS
 10
331.8002661359
 20
763.6700766129
 40
0.3
100
AcDbArc
 50
0.0
 51
90.0
  0
ARC
  5
624
100
AcDbEntity
  8
6_ALL_SURFS
100
AcDbCircle
 62
7
  6
CONTINUOUS
 10
331.6502661359
 20
770.0700766129
 40
0.3
100
AcDbArc
 50
270.0
 51
360.0
  0
ARC
  5
625
100
AcDbEntity
  8
6_ALL_SURFS
100
AcDbCircle
 62
7
  6
CONTINUOUS
 10
331.6502661359
 20
770.3386690468
 40
0.3
100
AcDbArc
 50
0.0
 51
43.0
  0
ARC
  5
626
100
AcDbEntity
  8
7_ALL_FEATURES
100
AcDbCircle
 62
7
  6
CONTINUOUS
 10
333.0002661359
 20
776.5700766129
 40
0.2
100
AcDbArc
 50
90.0
 51
180.0
  0
ARC
  5
627
100
AcDbEntity
  8
7_ALL_FEATURES
100
AcDbCircle
 62
7
  6
CONTINUOUS
 10
332.0854389332
 20
774.3700766129
 40
0.2
100
AcDbArc
 50
122.8598803795
 51
223.0000000114
  0
ARC
  5
628
100
AcDbEntity
  8
7_ALL_FEATURES
100
AcDbCircle
 62
7
  6
CONTINUOUS
 10
331.8002661359
 20
776.6700766129
 40
0.2
100
AcDbArc
 50
0.0
 51
90.0
  0
ARC
  5
629
100
AcDbEntity
  8
7_ALL_FEATURES
100
AcDbCircle
 62
7
  6
CONTINUOUS
 10
330.9502661359
 20
777.0700766129
 40
0.2
100
AcDbArc
 50
180.0
 51
270.0
  0
ARC
  5
62A
100
AcDbEntity
  8
7_ALL_FEATURES
100
AcDbCircle
 62
7
  6
CONTINUOUS
 10
330.9502661359
 20
777.6700766129
 40
0.2
100
AcDbArc
 50
90.0
 51
180.0
  0
ARC
  5
62B
100
AcDbEntity
  8
6_ALL_SURFS
100
AcDbCircle
 62
7
  6
CONTINUOUS
 10
331.5642611832
 20
775.5700766129
 40
0.2
100
AcDbArc
 50
270.0
 51
37.5
  0
ARC
  5
62C
100
AcDbEntity
  8
6_ALL_SURFS
100
AcDbCircle
 62
7
  6
CONTINUOUS
 10
330.6002661359
 20
778.8681506827
 40
2.15
100
AcDbArc
 50
146.6800806294
 51
213.3199193706
  0
ARC
  5
62D
100
AcDbEntity
  8
6_ALL_SURFS
100
AcDbCircle
 62
7
  6
CONTINUOUS
 10
327.5502661359
 20
780.8731444483
 40
1.5
100
AcDbArc
 50
326.6800806294
 51
360.0
  0
ARC
  5
62E
100
AcDbEntity
  8
6_ALL_SURFS
100
AcDbCircle
 62
7
  6
CONTINUOUS
 10
330.6002661359
 20
778.8681506827
 40
0.65
100
AcDbArc
 50
111.6182724222
 51
248.3817275778
  0
ARC
  5
62F
100
AcDbEntity
  8
6_ALL_SURFS
100
AcDbCircle
 62
7
  6
CONTINUOUS
 10
323.7502661359
 20
791.7700766129
 40
0.5
100
AcDbArc
 50
233.1301023542
 51
306.8698976458
  0
ARC
  5
630
100
AcDbEntity
  8
6_ALL_SURFS
100
AcDbCircle
 62
7
  6
CONTINUOUS
 10
326.7502661359
 20
791.7700766129
 40
0.5
100
AcDbArc
 50
233.1301023542
 51
306.8698976458
  0
ARC
  5
631
100
AcDbEntity
  8
6_ALL_SURFS
100
AcDbCircle
 62
7
  6
CONTINUOUS
 10
329.6002661359
 20
792.5700766129
 40
0.3
100
AcDbArc
 50
90.0
 51
180.0
  0
ARC
  5
632
100
AcDbEntity
  8
6_ALL_SURFS
100
AcDbCircle
 62
7
  6
CONTINUOUS
 10
330.2502661359
 20
792.5700766129
 40
0.3
100
AcDbArc
 50
0.0
 51
90.0
  0
ARC
  5
633
100
AcDbEntity
  8
6_ALL_SURFS
100
AcDbCircle
 62
7
  6
CONTINUOUS
 10
330.2502661359
 20
779.7513267694
 40
0.3
100
AcDbArc
 50
291.6182724221
 51
360.0
  0
ARC
  5
634
100
AcDbEntity
  8
6_ALL_SURFS
100
AcDbCircle
 62
7
  6
CONTINUOUS
 10
328.7502661359
 20
790.0700766129
 40
0.3
100
AcDbArc
 50
0.0
 51
90.0
  0
ARC
  5
635
100
AcDbEntity
  8
6_ALL_SURFS
100
AcDbCircle
 62
7
  6
CONTINUOUS
 10
329.0002661359
 20
791.6700766129
 40
0.3
100
AcDbArc
 50
270.0
 51
360.0
  0
ARC
  5
636
100
AcDbEntity
  8
7_ALL_FEATURES
100
AcDbCircle
 62
7
  6
CONTINUOUS
 10
363.1002661359
 20
718.9245626836
 40
5.0
100
AcDbArc
 50
347.5
 51
360.0
  0
ARC
  5
637
100
AcDbEntity
  8
7_ALL_FEATURES
100
AcDbCircle
 62
7
  6
CONTINUOUS
 10
369.7579607898
 20
702.7532194204
 40
5.0
100
AcDbArc
 50
167.5
 51
190.9613346964
  0
CIRCLE
  5
638
100
AcDbEntity
  8
3_ALL_AXES
100
AcDbCircle
 62
7
  6
CONTINUOUS
 10
385.6002661359
 20
727.5700766129
 40
4.35
  0
ARC
  5
639
100
AcDbEntity
  8
7_ALL_FEATURES
100
AcDbCircle
 62
7
  6
CONTINUOUS
 10
362.1002661359
 20
701.2700766129
 40
2.8
100
AcDbArc
 50
333.152786674
 51
10.9613346964
  0
ARC
  5
63A
100
AcDbEntity
  8
7_ALL_FEATURES
100
AcDbCircle
 62
7
  6
CONTINUOUS
 10
362.1002661359
 20
701.2700766129
 40
2.8
100
AcDbArc
 50
150.0
 51
180.0
  0
ARC
  5
63B
100
AcDbEntity
  8
0
100
AcDbCircle
 62
2
  6
CONTINUOUS
 10
385.6002661359
 20
727.5700766129
 40
2.5
100
AcDbArc
 50
255.0
 51
360.0
  0
ARC
  5
63C
100
AcDbEntity
  8
0
100
AcDbCircle
 62
2
  6
CONTINUOUS
 10
385.6002661359
 20
727.5700766129
 40
2.5
100
AcDbArc
 50
180.0
 51
195.0
  0
ARC
  5
63D
100
AcDbEntity
  8
7_ALL_FEATURES
100
AcDbCircle
 62
7
  6
CONTINUOUS
 10
386.1002661359
 20
728.0700766129
 40
2.5
100
AcDbArc
 50
180.0
 51
273.458548712
  0
CIRCLE
  5
63E
100
AcDbEntity
  8
3_ALL_AXES
100
AcDbCircle
 62
7
  6
CONTINUOUS
 10
398.1002661359
 20
727.5700766129
 40
2.5
  0
ARC
  5
63F
100
AcDbEntity
  8
7_ALL_FEATURES
100
AcDbCircle
 62
7
  6
CONTINUOUS
 10
385.6002661359
 20
727.5700766129
 40
2.1
100
AcDbArc
 50
180.0
 51
360.0
  0
CIRCLE
  5
640
100
AcDbEntity
  8
7_ALL_FEATURES
100
AcDbCircle
 62
7
  6
CONTINUOUS
 10
386.1002661359
 20
728.0700766129
 40
2.0
  0
ARC
  5
641
100
AcDbEntity
  8
7_ALL_FEATURES
100
AcDbCircle
 62
7
  6
CONTINUOUS
 10
362.1002661359
 20
701.2700766129
 40
1.3
100
AcDbArc
 50
310.8069228749
 51
229.1930771251
  0
ARC
  5
642
100
AcDbEntity
  8
7_ALL_FEATURES
100
AcDbCircle
 62
7
  6
CONTINUOUS
 10
362.6976812842
 20
706.0200766129
 40
1.0
100
AcDbArc
 50
270.0
 51
347.5
  0
ARC
  5
643
100
AcDbEntity
  8
7_ALL_FEATURES
100
AcDbCircle
 62
7
  6
CONTINUOUS
 10
365.5002661359
 20
720.4022678143
 40
1.0
100
AcDbArc
 50
340.0
 51
360.0
  0
ARC
  5
644
100
AcDbEntity
  8
7_ALL_FEATURES
100
AcDbCircle
 62
7
  6
CONTINUOUS
 10
365.6002661359
 20
699.0700766129
 40
0.5
100
AcDbArc
 50
0.0
 51
90.0
  0
ARC
  5
645
100
AcDbEntity
  8
7_ALL_FEATURES
100
AcDbCircle
 62
7
  6
CONTINUOUS
 10
359.2423823034
 20
702.9200766129
 40
0.5
100
AcDbArc
 50
330.0
 51
90.0
  0
ARC
  5
646
100
AcDbEntity
  8
7_ALL_FEATURES
100
AcDbCircle
 62
7
  6
CONTINUOUS
 10
366.3668103362
 20
718.9821327174
 40
0.3
100
AcDbArc
 50
160.0
 51
239.0362434679
  0
ARC
  5
647
100
AcDbEntity
  8
7_ALL_FEATURES
100
AcDbCircle
 62
7
  6
CONTINUOUS
 10
365.8002661359
 20
698.3700766129
 40
0.3
100
AcDbArc
 50
270.0
 51
360.0
  0
ARC
  5
648
100
AcDbEntity
  8
7_ALL_FEATURES
100
AcDbCircle
 62
7
  6
CONTINUOUS
 10
364.120992078
 20
698.3700766129
 40
0.3
100
AcDbArc
 50
210.0
 51
270.0
  0
ARC
  5
649
100
AcDbEntity
  8
7_ALL_FEATURES
100
AcDbCircle
 62
7
  6
CONTINUOUS
 10
363.1458854393
 20
700.059010854
 40
0.3
100
AcDbArc
 50
130.8069228748
 51
210.0
  0
ARC
  5
64A
100
AcDbEntity
  8
7_ALL_FEATURES
100
AcDbCircle
 62
7
  6
CONTINUOUS
 10
361.0546468325
 20
700.059010854
 40
0.3
100
AcDbArc
 50
330.0
 51
49.1930771252
  0
ARC
  5
64B
100
AcDbEntity
  8
7_ALL_FEATURES
100
AcDbCircle
 62
7
  6
CONTINUOUS
 10
360.0795401937
 20
698.3700766129
 40
0.3
100
AcDbArc
 50
270.0
 51
330.0
  0
ARC
  5
64C
100
AcDbEntity
  8
7_ALL_FEATURES
100
AcDbCircle
 62
7
  6
CONTINUOUS
 10
359.6002661359
 20
698.3700766129
 40
0.3
100
AcDbArc
 50
180.0
 51
270.0
  0
ARC
  5
64D
100
AcDbEntity
  8
7_ALL_FEATURES
100
AcDbCircle
 62
7
  6
CONTINUOUS
 10
364.8661294731
 20
699.8700766129
 40
0.3
100
AcDbArc
 50
153.152786674
 51
270.0
  0
ARC
  5
64E
100
AcDbEntity
  8
7_ALL_FEATURES
100
AcDbCircle
 62
7
  6
CONTINUOUS
 10
354.0002661359
 20
703.1200766129
 40
0.3
100
AcDbArc
 50
90.0
 51
180.0
  0
ARC
  5
64F
100
AcDbEntity
  8
7_ALL_FEATURES
100
AcDbCircle
 62
7
  6
CONTINUOUS
 10
366.1606018786
 20
718.4061435646
 40
0.3
100
AcDbArc
 50
347.5
 51
59.0362434679
  0
ARC
  5
650
100
AcDbEntity
  8
7_ALL_FEATURES
100
AcDbCircle
 62
7
  6
CONTINUOUS
 10
369.3002661359
 20
767.7700766129
 40
2.0
100
AcDbArc
 50
0.0
 51
90.0
  0
ARC
  5
651
100
AcDbEntity
  8
7_ALL_FEATURES
100
AcDbCircle
 62
7
  6
CONTINUOUS
 10
369.3002661359
 20
765.9700766129
 40
2.0
100
AcDbArc
 50
270.0
 51
360.0
  0
ARC
  5
652
100
AcDbEntity
  8
7_ALL_FEATURES
100
AcDbCircle
 62
7
  6
CONTINUOUS
 10
369.2002661359
 20
776.0500766129
 40
1.8
100
AcDbArc
 50
180.0
 51
237.1401196212
  0
ARC
  5
653
100
AcDbEntity
  8
7_ALL_FEATURES
100
AcDbCircle
 62
7
  6
CONTINUOUS
 10
369.6502661359
 20
774.1575771619
 40
1.5
100
AcDbArc
 50
317.0
 51
360.0
  0
ARC
  5
654
100
AcDbEntity
  8
7_ALL_FEATURES
100
AcDbCircle
 62
7
  6
CONTINUOUS
 10
372.6502661359
 20
776.8631569172
 40
1.5
100
AcDbArc
 50
146.6800806294
 51
180.0
  0
ARC
  5
655
100
AcDbEntity
  8
7_ALL_FEATURES
100
AcDbCircle
 62
7
  6
CONTINUOUS
 10
368.4002661359
 20
766.8700766129
 40
1.3
100
AcDbArc
 50
220.8069228749
 51
139.1930771251
  0
ARC
  5
656
100
AcDbEntity
  8
7_ALL_FEATURES
100
AcDbCircle
 62
7
  6
CONTINUOUS
 10
369.2002661359
 20
776.0500766129
 40
1.0
100
AcDbArc
 50
180.0
 51
237.1401196211
  0
ARC
  5
657
100
AcDbEntity
  8
7_ALL_FEATURES
100
AcDbCircle
 62
7
  6
CONTINUOUS
 10
368.1150933386
 20
774.3700766129
 40
1.0
100
AcDbArc
 50
317.0
 51
57.1401196211
  0
ARC
  5
658
100
AcDbEntity
  8
7_ALL_FEATURES
100
AcDbCircle
 62
7
  6
CONTINUOUS
 10
368.1894777463
 20
773.5700766129
 40
0.4
100
AcDbArc
 50
136.9999999999
 51
317.0000000002
  0
ARC
  5
659
100
AcDbEntity
  8
7_ALL_FEATURES
100
AcDbCircle
 62
7
  6
CONTINUOUS
 10
366.8002661359
 20
765.5999060207
 40
0.3
100
AcDbArc
 50
120.0
 51
180.0
  0
ARC
  5
65A
100
AcDbEntity
  8
7_ALL_FEATURES
100
AcDbCircle
 62
7
  6
CONTINUOUS
 10
367.189200377
 20
765.8244573095
 40
0.3
100
AcDbArc
 50
40.8069228749
 51
120.0
  0
ARC
  5
65B
100
AcDbEntity
  8
7_ALL_FEATURES
100
AcDbCircle
 62
7
  6
CONTINUOUS
 10
367.189200377
 20
767.9156959163
 40
0.3
100
AcDbArc
 50
240.0
 51
319.1930771251
  0
ARC
  5
65C
100
AcDbEntity
  8
7_ALL_FEATURES
100
AcDbCircle
 62
7
  6
CONTINUOUS
 10
366.8002661359
 20
768.1402472051
 40
0.3
100
AcDbArc
 50
180.0
 51
240.0
  0
ARC
  5
65D
100
AcDbEntity
  8
7_ALL_FEATURES
100
AcDbCircle
 62
7
  6
CONTINUOUS
 10
366.8002661359
 20
771.8200766129
 40
0.3
100
AcDbArc
 50
90.0
 51
180.0
  0
ARC
  5
65E
100
AcDbEntity
  8
7_ALL_FEATURES
100
AcDbCircle
 62
7
  6
CONTINUOUS
 10
369.9502661359
 20
777.9849745961
 40
0.3
100
AcDbArc
 50
111.6182724221
 51
180.0
  0
ARC
  5
65F
100
AcDbEntity
  8
7_ALL_FEATURES
100
AcDbCircle
 62
7
  6
CONTINUOUS
 10
369.3502661359
 20
777.3219128906
 40
0.3
100
AcDbArc
 50
322.5
 51
360.0
  0
ARC
  5
660
100
AcDbEntity
  8
7_ALL_FEATURES
100
AcDbCircle
 62
7
  6
CONTINUOUS
 10
367.6198224234
 20
772.4200766129
 40
0.3
100
AcDbArc
 50
270.0
 51
317.0
  0
ARC
  5
661
100
AcDbEntity
  8
7_ALL_FEATURES
100
AcDbCircle
 62
7
  6
CONTINUOUS
 10
369.3502661359
 20
774.2757503046
 40
0.3
100
AcDbArc
 50
317.0
 51
360.0
  0
ARC
  5
662
100
AcDbEntity
  8
7_ALL_FEATURES
100
AcDbCircle
 62
7
  6
CONTINUOUS
 10
369.3502661359
 20
775.0700766129
 40
0.3
100
AcDbArc
 50
0.0
 51
90.0
  0
ARC
  5
663
100
AcDbEntity
  8
7_ALL_FEATURES
100
AcDbCircle
 62
7
  6
CONTINUOUS
 10
368.4002661359
 20
763.6700766129
 40
0.3
100
AcDbArc
 50
90.0
 51
180.0
  0
ARC
  5
664
100
AcDbEntity
  8
7_ALL_FEATURES
100
AcDbCircle
 62
7
  6
CONTINUOUS
 10
368.5502661359
 20
770.0700766129
 40
0.3
100
AcDbArc
 50
180.0
 51
270.0
  0
ARC
  5
665
100
AcDbEntity
  8
7_ALL_FEATURES
100
AcDbCircle
 62
7
  6
CONTINUOUS
 10
368.5502661359
 20
770.3386690468
 40
0.3
100
AcDbArc
 50
137.0
 51
180.0
  0
ARC
  5
666
100
AcDbEntity
  8
7_ALL_FEATURES
100
AcDbCircle
 62
7
  6
CONTINUOUS
 10
369.2502661359
 20
777.6700766129
 40
0.2
100
AcDbArc
 50
0.0
 51
90.0
  0
ARC
  5
667
100
AcDbEntity
  8
7_ALL_FEATURES
100
AcDbCircle
 62
7
  6
CONTINUOUS
 10
369.2502661359
 20
777.0700766129
 40
0.2
100
AcDbArc
 50
270.0
 51
360.0
  0
ARC
  5
668
100
AcDbEntity
  8
7_ALL_FEATURES
100
AcDbCircle
 62
7
  6
CONTINUOUS
 10
368.4002661359
 20
776.6700766129
 40
0.2
100
AcDbArc
 50
90.0
 51
180.0
  0
ARC
  5
669
100
AcDbEntity
  8
7_ALL_FEATURES
100
AcDbCircle
 62
7
  6
CONTINUOUS
 10
368.1150933386
 20
774.3700766129
 40
0.2
100
AcDbArc
 50
316.9999999886
 51
57.1401196205
  0
ARC
  5
66A
100
AcDbEntity
  8
7_ALL_FEATURES
100
AcDbCircle
 62
7
  6
CONTINUOUS
 10
367.2002661359
 20
776.5700766129
 40
0.2
100
AcDbArc
 50
0.0
 51
90.0
  0
ARC
  5
66B
100
AcDbEntity
  8
7_ALL_FEATURES
100
AcDbCircle
 62
7
  6
CONTINUOUS
 10
368.6362710885
 20
775.5700766129
 40
0.2
100
AcDbArc
 50
142.5
 51
270.0
  0
ARC
  5
66C
100
AcDbEntity
  8
7_ALL_FEATURES
100
AcDbCircle
 62
7
  6
CONTINUOUS
 10
369.6002661359
 20
778.8681506827
 40
2.15
100
AcDbArc
 50
326.6800806294
 51
33.3199193706
  0
ARC
  5
66D
100
AcDbEntity
  8
7_ALL_FEATURES
100
AcDbCircle
 62
7
  6
CONTINUOUS
 10
372.6502661359
 20
780.8731444483
 40
1.5
100
AcDbArc
 50
180.0
 51
213.3199193706
  0
ARC
  5
66E
100
AcDbEntity
  8
7_ALL_FEATURES
100
AcDbCircle
 62
7
  6
CONTINUOUS
 10
369.6002661359
 20
778.8681506827
 40
0.65
100
AcDbArc
 50
291.6182724222
 51
68.3817275778
  0
ARC
  5
66F
100
AcDbEntity
  8
7_ALL_FEATURES
100
AcDbCircle
 62
7
  6
CONTINUOUS
 10
373.4502661359
 20
791.7700766129
 40
0.5
100
AcDbArc
 50
233.1301023542
 51
306.8698976458
  0
ARC
  5
670
100
AcDbEntity
  8
7_ALL_FEATURES
100
AcDbCircle
 62
7
  6
CONTINUOUS
 10
376.4502661359
 20
791.7700766129
 40
0.5
100
AcDbArc
 50
233.1301023542
 51
306.8698976458
  0
ARC
  5
671
100
AcDbEntity
  8
7_ALL_FEATURES
100
AcDbCircle
 62
7
  6
CONTINUOUS
 10
369.9502661359
 20
779.7513267694
 40
0.3
100
AcDbArc
 50
180.0
 51
248.3817275779
  0
ARC
  5
672
100
AcDbEntity
  8
7_ALL_FEATURES
100
AcDbCircle
 62
7
  6
CONTINUOUS
 10
369.9502661359
 20
792.5700766129
 40
0.3
100
AcDbArc
 50
90.0
 51
180.0
  0
ARC
  5
673
100
AcDbEntity
  8
7_ALL_FEATURES
100
AcDbCircle
 62
7
  6
CONTINUOUS
 10
370.6002661359
 20
792.5700766129
 40
0.3
100
AcDbArc
 50
0.0
 51
90.0
  0
ARC
  5
674
100
AcDbEntity
  8
7_ALL_FEATURES
100
AcDbCircle
 62
7
  6
CONTINUOUS
 10
371.4502661359
 20
790.0700766129
 40
0.3
100
AcDbArc
 50
90.0
 51
180.0
  0
ARC
  5
675
100
AcDbEntity
  8
7_ALL_FEATURES
100
AcDbCircle
 62
7
  6
CONTINUOUS
 10
371.2002661359
 20
791.6700766129
 40
0.3
100
AcDbArc
 50
180.0
 51
270.0
  0
ARC
  5
676
100
AcDbEntity
  8
7_ALL_FEATURES
100
AcDbCircle
 62
7
  6
CONTINUOUS
 10
379.4502661359
 20
791.7700766129
 40
0.5
100
AcDbArc
 50
233.1301023542
 51
306.8698976458
  0
ARC
  5
677
100
AcDbEntity
  8
7_ALL_FEATURES
100
AcDbCircle
 62
7
  6
CONTINUOUS
 10
382.4502661359
 20
791.7700766129
 40
0.5
100
AcDbArc
 50
233.1301023542
 51
306.8698976458
  0
ARC
  5
678
100
AcDbEntity
  8
7_ALL_FEATURES
100
AcDbCircle
 62
7
  6
CONTINUOUS
 10
385.4502661359
 20
791.7700766129
 40
0.5
100
AcDbArc
 50
233.1301023542
 51
306.8698976458
  0
ARC
  5
679
100
AcDbEntity
  8
7_ALL_FEATURES
100
AcDbCircle
 62
7
  6
CONTINUOUS
 10
390.756562778
 20
790.7637799708
 40
0.3937033579
100
AcDbArc
 50
270.0
 51
84.2894068625
  0
ARC
  5
67A
100
AcDbEntity
  8
7_ALL_FEATURES
100
AcDbCircle
 62
7
  6
CONTINUOUS
 10
79.708266129
 20
550.2498346706
 40
0.5
100
AcDbArc
 50
323.1301023541
 51
36.8698976458
  0
ARC
  5
67B
100
AcDbEntity
  8
7_ALL_FEATURES
100
AcDbCircle
 62
7
  6
CONTINUOUS
 10
79.708266129
 20
553.2498346706
 40
0.5
100
AcDbArc
 50
323.1301023541
 51
36.8698976458
  0
ARC
  5
67C
100
AcDbEntity
  8
7_ALL_FEATURES
100
AcDbCircle
 62
7
  6
CONTINUOUS
 10
79.708266129
 20
556.2498346706
 40
0.5
100
AcDbArc
 50
323.1301023541
 51
36.8698976458
  0
ARC
  5
67D
100
AcDbEntity
  8
7_ALL_FEATURES
100
AcDbCircle
 62
7
  6
CONTINUOUS
 10
80.7145627711
 20
544.9435380285
 40
0.3937033579
100
AcDbArc
 50
185.7105931375
 51
360.0
  0
ARC
  5
67E
100
AcDbEntity
  8
7_ALL_FEATURES
100
AcDbCircle
 62
7
  6
CONTINUOUS
 10
92.6101920592
 20
566.0998346706
 40
2.15
100
AcDbArc
 50
236.6800806294
 51
303.3199193706
  0
ARC
  5
67F
100
AcDbEntity
  8
7_ALL_FEATURES
100
AcDbCircle
 62
7
  6
CONTINUOUS
 10
90.6051982936
 20
563.0498346706
 40
1.5
100
AcDbArc
 50
56.6800806294
 51
90.0
  0
ARC
  5
680
100
AcDbEntity
  8
7_ALL_FEATURES
100
AcDbCircle
 62
7
  6
CONTINUOUS
 10
92.6101920592
 20
566.0998346706
 40
0.65
100
AcDbArc
 50
201.6182724221
 51
338.3817275779
  0
ARC
  5
681
100
AcDbEntity
  8
7_ALL_FEATURES
100
AcDbCircle
 62
7
  6
CONTINUOUS
 10
79.708266129
 20
559.2498346706
 40
0.5
100
AcDbArc
 50
323.1301023541
 51
36.8698976458
  0
ARC
  5
682
100
AcDbEntity
  8
7_ALL_FEATURES
100
AcDbCircle
 62
7
  6
CONTINUOUS
 10
79.708266129
 20
562.2498346706
 40
0.5
100
AcDbArc
 50
323.1301023541
 51
36.8698976458
  0
ARC
  5
683
100
AcDbEntity
  8
7_ALL_FEATURES
100
AcDbCircle
 62
7
  6
CONTINUOUS
 10
81.408266129
 20
564.2498346706
 40
0.3
100
AcDbArc
 50
90.0
 51
180.0
  0
ARC
  5
684
100
AcDbEntity
  8
7_ALL_FEATURES
100
AcDbCircle
 62
7
  6
CONTINUOUS
 10
79.808266129
 20
564.4998346706
 40
0.3
100
AcDbArc
 50
0.0
 51
90.0
  0
ARC
  5
685
100
AcDbEntity
  8
7_ALL_FEATURES
100
AcDbCircle
 62
7
  6
CONTINUOUS
 10
78.908266129
 20
565.0998346706
 40
0.3
100
AcDbArc
 50
180.0
 51
270.0
  0
ARC
  5
686
100
AcDbEntity
  8
7_ALL_FEATURES
100
AcDbCircle
 62
7
  6
CONTINUOUS
 10
78.908266129
 20
565.7498346706
 40
0.3
100
AcDbArc
 50
90.0
 51
180.0
  0
ARC
  5
687
100
AcDbEntity
  8
7_ALL_FEATURES
100
AcDbCircle
 62
7
  6
CONTINUOUS
 10
91.7270159726
 20
565.7498346706
 40
0.3
100
AcDbArc
 50
21.6182724222
 51
90.0
  0
ARC
  5
688
100
AcDbEntity
  8
7_ALL_FEATURES
100
AcDbCircle
 62
7
  6
CONTINUOUS
 10
105.508266129
 20
566.3998346706
 40
2.0
100
AcDbArc
 50
270.0
 51
360.0
  0
ARC
  5
689
100
AcDbEntity
  8
7_ALL_FEATURES
100
AcDbCircle
 62
7
  6
CONTINUOUS
 10
103.708266129
 20
566.3998346706
 40
2.0
100
AcDbArc
 50
180.0
 51
270.0
  0
ARC
  5
68A
100
AcDbEntity
  8
7_ALL_FEATURES
100
AcDbCircle
 62
7
  6
CONTINUOUS
 10
95.428266129
 20
566.4998346706
 40
1.8
100
AcDbArc
 50
32.8598803788
 51
90.0
  0
ARC
  5
68B
100
AcDbEntity
  8
7_ALL_FEATURES
100
AcDbCircle
 62
7
  6
CONTINUOUS
 10
94.6151858248
 20
563.0498346706
 40
1.5
100
AcDbArc
 50
90.0
 51
123.3199193706
  0
ARC
  5
68C
100
AcDbEntity
  8
7_ALL_FEATURES
100
AcDbCircle
 62
7
  6
CONTINUOUS
 10
97.32076558
 20
566.0498346706
 40
1.5
100
AcDbArc
 50
270.0
 51
313.0
  0
ARC
  5
68D
100
AcDbEntity
  8
7_ALL_FEATURES
100
AcDbCircle
 62
7
  6
CONTINUOUS
 10
104.608266129
 20
567.2998346706
 40
1.3
100
AcDbArc
 50
130.8069228749
 51
49.1930771252
  0
ARC
  5
68E
100
AcDbEntity
  8
7_ALL_FEATURES
100
AcDbCircle
 62
7
  6
CONTINUOUS
 10
95.428266129
 20
566.4998346706
 40
1.0
100
AcDbArc
 50
32.8598803789
 51
90.0
  0
ARC
  5
68F
100
AcDbEntity
  8
7_ALL_FEATURES
100
AcDbCircle
 62
7
  6
CONTINUOUS
 10
97.108266129
 20
567.5850074679
 40
1.0
100
AcDbArc
 50
212.8598803789
 51
313.0
  0
ARC
  5
690
100
AcDbEntity
  8
7_ALL_FEATURES
100
AcDbCircle
 62
7
  6
CONTINUOUS
 10
97.908266129
 20
567.5106230601
 40
0.4
100
AcDbArc
 50
312.9999999998
 51
133.0000000001
  0
ARC
  5
691
100
AcDbEntity
  8
7_ALL_FEATURES
100
AcDbCircle
 62
7
  6
CONTINUOUS
 10
94.1564298514
 20
566.3498346706
 40
0.3
100
AcDbArc
 50
270.0
 51
307.5
  0
ARC
  5
692
100
AcDbEntity
  8
7_ALL_FEATURES
100
AcDbCircle
 62
7
  6
CONTINUOUS
 10
99.058266129
 20
568.0802783831
 40
0.3
100
AcDbArc
 50
313.0
 51
360.0
  0
ARC
  5
693
100
AcDbEntity
  8
7_ALL_FEATURES
100
AcDbCircle
 62
7
  6
CONTINUOUS
 10
97.2025924373
 20
566.3498346706
 40
0.3
100
AcDbArc
 50
270.0
 51
313.0
  0
ARC
  5
694
100
AcDbEntity
  8
7_ALL_FEATURES
100
AcDbCircle
 62
7
  6
CONTINUOUS
 10
96.408266129
 20
566.3498346706
 40
0.3
100
AcDbArc
 50
180.0
 51
270.0
  0
ARC
  5
695
100
AcDbEntity
  8
7_ALL_FEATURES
100
AcDbCircle
 62
7
  6
CONTINUOUS
 10
107.808266129
 20
567.2998346706
 40
0.3
100
AcDbArc
 50
90.0
 51
180.0
  0
ARC
  5
696
100
AcDbEntity
  8
7_ALL_FEATURES
100
AcDbCircle
 62
7
  6
CONTINUOUS
 10
101.408266129
 20
567.1498346706
 40
0.3
100
AcDbArc
 50
0.0
 51
90.0
  0
ARC
  5
697
100
AcDbEntity
  8
7_ALL_FEATURES
100
AcDbCircle
 62
7
  6
CONTINUOUS
 10
101.1396736952
 20
567.1498346706
 40
0.3
100
AcDbArc
 50
90.0
 51
133.0
  0
ARC
  5
698
100
AcDbEntity
  8
7_ALL_FEATURES
100
AcDbCircle
 62
7
  6
CONTINUOUS
 10
93.4933681458
 20
565.7498346706
 40
0.3
100
AcDbArc
 50
90.0
 51
158.3817275778
  0
ARC
  5
699
100
AcDbEntity
  8
7_ALL_FEATURES
100
AcDbCircle
 62
7
  6
CONTINUOUS
 10
99.658266129
 20
568.8998346706
 40
0.3
100
AcDbArc
 50
90.0
 51
180.0
  0
ARC
  5
69A
100
AcDbEntity
  8
7_ALL_FEATURES
100
AcDbCircle
 62
7
  6
CONTINUOUS
 10
103.3380955368
 20
568.8998346706
 40
0.3
100
AcDbArc
 50
30.0
 51
90.0
  0
ARC
  5
69B
100
AcDbEntity
  8
7_ALL_FEATURES
100
AcDbCircle
 62
7
  6
CONTINUOUS
 10
103.5626468256
 20
568.5109004295
 40
0.3
100
AcDbArc
 50
310.8069228748
 51
30.0
  0
ARC
  5
69C
100
AcDbEntity
  8
7_ALL_FEATURES
100
AcDbCircle
 62
7
  6
CONTINUOUS
 10
105.6538854324
 20
568.5109004295
 40
0.3
100
AcDbArc
 50
150.0
 51
229.1930771252
  0
ARC
  5
69D
100
AcDbEntity
  8
7_ALL_FEATURES
100
AcDbCircle
 62
7
  6
CONTINUOUS
 10
105.8784367212
 20
568.8998346706
 40
0.3
100
AcDbArc
 50
90.0
 51
150.0
  0
ARC
  5
69E
100
AcDbEntity
  8
7_ALL_FEATURES
100
AcDbCircle
 62
7
  6
CONTINUOUS
 10
93.808266129
 20
566.4498346706
 40
0.2
100
AcDbArc
 50
180.0
 51
270.0
  0
ARC
  5
69F
100
AcDbEntity
  8
7_ALL_FEATURES
100
AcDbCircle
 62
7
  6
CONTINUOUS
 10
94.408266129
 20
566.4498346706
 40
0.2
100
AcDbArc
 50
270.0
 51
360.0
  0
ARC
  5
6A0
100
AcDbEntity
  8
7_ALL_FEATURES
100
AcDbCircle
 62
7
  6
CONTINUOUS
 10
94.808266129
 20
567.2998346706
 40
0.2
100
AcDbArc
 50
90.0
 51
180.0
  0
ARC
  5
6A1
100
AcDbEntity
  8
7_ALL_FEATURES
100
AcDbCircle
 62
7
  6
CONTINUOUS
 10
97.108266129
 20
567.5850074679
 40
0.2
100
AcDbArc
 50
212.8598803795
 51
313.0000000114
  0
ARC
  5
6A2
100
AcDbEntity
  8
7_ALL_FEATURES
100
AcDbCircle
 62
7
  6
CONTINUOUS
 10
94.908266129
 20
568.4998346706
 40
0.2
100
AcDbArc
 50
180.0
 51
270.0
  0
ARC
  5
6A3
100
AcDbEntity
  8
7_ALL_FEATURES
100
AcDbCircle
 62
7
  6
CONTINUOUS
 10
95.908266129
 20
567.0638297179
 40
0.2
100
AcDbArc
 50
0.0
 51
127.5
  0
ARC
  5
6A4
100
AcDbEntity
  8
6_ALL_SURFS
100
AcDbCircle
 62
7
  6
CONTINUOUS
 10
92.6101920592
 20
605.0998346706
 40
2.15
100
AcDbArc
 50
56.6800806294
 51
123.3199193706
  0
ARC
  5
6A5
100
AcDbEntity
  8
6_ALL_SURFS
100
AcDbCircle
 62
7
  6
CONTINUOUS
 10
90.6051982936
 20
608.1498346706
 40
1.5
100
AcDbArc
 50
270.0
 51
303.3199193706
  0
ARC
  5
6A6
100
AcDbEntity
  8
6_ALL_SURFS
100
AcDbCircle
 62
7
  6
CONTINUOUS
 10
92.6101920592
 20
605.0998346706
 40
0.65
100
AcDbArc
 50
21.6182724222
 51
158.3817275778
  0
ARC
  5
6A7
100
AcDbEntity
  8
6_ALL_SURFS
100
AcDbCircle
 62
7
  6
CONTINUOUS
 10
79.708266129
 20
608.9498346706
 40
0.5
100
AcDbArc
 50
323.1301023542
 51
36.8698976458
  0
ARC
  5
6A8
100
AcDbEntity
  8
6_ALL_SURFS
100
AcDbCircle
 62
7
  6
CONTINUOUS
 10
79.708266129
 20
611.9498346706
 40
0.5
100
AcDbArc
 50
323.1301023542
 51
36.8698976458
  0
ARC
  5
6A9
100
AcDbEntity
  8
6_ALL_SURFS
100
AcDbCircle
 62
7
  6
CONTINUOUS
 10
81.408266129
 20
606.9498346706
 40
0.3
100
AcDbArc
 50
180.0
 51
270.0
  0
ARC
  5
6AA
100
AcDbEntity
  8
6_ALL_SURFS
100
AcDbCircle
 62
7
  6
CONTINUOUS
 10
79.808266129
 20
606.6998346706
 40
0.3
100
AcDbArc
 50
270.0
 51
360.0
  0
ARC
  5
6AB
100
AcDbEntity
  8
6_ALL_SURFS
100
AcDbCircle
 62
7
  6
CONTINUOUS
 10
91.7270159726
 20
605.4498346706
 40
0.3
100
AcDbArc
 50
270.0
 51
338.3817275778
  0
ARC
  5
6AC
100
AcDbEntity
  8
6_ALL_SURFS
100
AcDbCircle
 62
7
  6
CONTINUOUS
 10
78.908266129
 20
605.4498346706
 40
0.3
100
AcDbArc
 50
180.0
 51
270.0
  0
ARC
  5
6AD
100
AcDbEntity
  8
6_ALL_SURFS
100
AcDbCircle
 62
7
  6
CONTINUOUS
 10
78.908266129
 20
606.0998346706
 40
0.3
100
AcDbArc
 50
90.0
 51
180.0
  0
ARC
  5
6AE
100
AcDbEntity
  8
6_ALL_SURFS
100
AcDbCircle
 62
7
  6
CONTINUOUS
 10
79.708266129
 20
614.9498346706
 40
0.5
100
AcDbArc
 50
323.1301023542
 51
36.8698976458
  0
ARC
  5
6AF
100
AcDbEntity
  8
6_ALL_SURFS
100
AcDbCircle
 62
7
  6
CONTINUOUS
 10
79.708266129
 20
617.9498346706
 40
0.5
100
AcDbArc
 50
323.1301023542
 51
36.8698976458
  0
ARC
  5
6B0
100
AcDbEntity
  8
6_ALL_SURFS
100
AcDbCircle
 62
7
  6
CONTINUOUS
 10
79.708266129
 20
620.9498346706
 40
0.5
100
AcDbArc
 50
323.1301023542
 51
36.8698976458
  0
ARC
  5
6B1
100
AcDbEntity
  8
6_ALL_SURFS
100
AcDbCircle
 62
7
  6
CONTINUOUS
 10
80.7145627711
 20
626.2561313127
 40
0.3937033579
100
AcDbArc
 50
0.0
 51
174.2894068625
  0
ARC
  5
6B2
100
AcDbEntity
  8
6_ALL_SURFS
100
AcDbCircle
 62
7
  6
CONTINUOUS
 10
105.508266129
 20
604.7998346706
 40
2.0
100
AcDbArc
 50
0.0
 51
90.0
  0
ARC
  5
6B3
100
AcDbEntity
  8
6_ALL_SURFS
100
AcDbCircle
 62
7
  6
CONTINUOUS
 10
103.708266129
 20
604.7998346706
 40
2.0
100
AcDbArc
 50
90.0
 51
180.0
  0
ARC
  5
6B4
100
AcDbEntity
  8
7_ALL_FEATURES
100
AcDbCircle
 62
7
  6
CONTINUOUS
 10
95.428266129
 20
604.6998346706
 40
1.8
100
AcDbArc
 50
270.0
 51
327.1401196212
  0
ARC
  5
6B5
100
AcDbEntity
  8
6_ALL_SURFS
100
AcDbCircle
 62
7
  6
CONTINUOUS
 10
94.6151858248
 20
608.1498346706
 40
1.5
100
AcDbArc
 50
236.6800806294
 51
270.0
  0
ARC
  5
6B6
100
AcDbEntity
  8
6_ALL_SURFS
100
AcDbCircle
 62
7
  6
CONTINUOUS
 10
97.32076558
 20
605.1498346706
 40
1.5
100
AcDbArc
 50
47.0
 51
90.0
  0
ARC
  5
6B7
100
AcDbEntity
  8
6_ALL_SURFS
100
AcDbCircle
 62
7
  6
CONTINUOUS
 10
104.608266129
 20
603.8998346706
 40
1.3
100
AcDbArc
 50
310.8069228749
 51
229.1930771251
  0
ARC
  5
6B8
100
AcDbEntity
  8
7_ALL_FEATURES
100
AcDbCircle
 62
7
  6
CONTINUOUS
 10
97.108266129
 20
603.6146618733
 40
1.0
100
AcDbArc
 50
47.0
 51
147.140119621
  0
ARC
  5
6B9
100
AcDbEntity
  8
7_ALL_FEATURES
100
AcDbCircle
 62
7
  6
CONTINUOUS
 10
95.428266129
 20
604.6998346706
 40
1.0
100
AcDbArc
 50
270.0
 51
327.1401196213
  0
ARC
  5
6BA
100
AcDbEntity
  8
7_ALL_FEATURES
100
AcDbCircle
 62
7
  6
CONTINUOUS
 10
97.908266129
 20
603.689046281
 40
0.4
100
AcDbArc
 50
227.0
 51
46.9999999971
  0
ARC
  5
6BB
100
AcDbEntity
  8
6_ALL_SURFS
100
AcDbCircle
 62
7
  6
CONTINUOUS
 10
94.1564298514
 20
604.8498346706
 40
0.3
100
AcDbArc
 50
52.5
 51
90.0
  0
ARC
  5
6BC
100
AcDbEntity
  8
6_ALL_SURFS
100
AcDbCircle
 62
7
  6
CONTINUOUS
 10
99.058266129
 20
603.1193909581
 40
0.3
100
AcDbArc
 50
0.0
 51
47.0
  0
ARC
  5
6BD
100
AcDbEntity
  8
6_ALL_SURFS
100
AcDbCircle
 62
7
  6
CONTINUOUS
 10
97.2025924373
 20
604.8498346706
 40
0.3
100
AcDbArc
 50
47.0
 51
90.0
  0
ARC
  5
6BE
100
AcDbEntity
  8
6_ALL_SURFS
100
AcDbCircle
 62
7
  6
CONTINUOUS
 10
96.408266129
 20
604.8498346706
 40
0.3
100
AcDbArc
 50
90.0
 51
180.0
  0
ARC
  5
6BF
100
AcDbEntity
  8
6_ALL_SURFS
100
AcDbCircle
 62
7
  6
CONTINUOUS
 10
107.808266129
 20
603.8998346706
 40
0.3
100
AcDbArc
 50
180.0
 51
270.0
  0
ARC
  5
6C0
100
AcDbEntity
  8
6_ALL_SURFS
100
AcDbCircle
 62
7
  6
CONTINUOUS
 10
101.408266129
 20
604.0498346706
 40
0.3
100
AcDbArc
 50
270.0
 51
360.0
  0
ARC
  5
6C1
100
AcDbEntity
  8
6_ALL_SURFS
100
AcDbCircle
 62
7
  6
CONTINUOUS
 10
101.1396736952
 20
604.0498346706
 40
0.3
100
AcDbArc
 50
227.0
 51
270.0
  0
ARC
  5
6C2
100
AcDbEntity
  8
6_ALL_SURFS
100
AcDbCircle
 62
7
  6
CONTINUOUS
 10
105.8784367212
 20
602.2998346706
 40
0.3
100
AcDbArc
 50
210.0
 51
270.0
  0
ARC
  5
6C3
100
AcDbEntity
  8
6_ALL_SURFS
100
AcDbCircle
 62
7
  6
CONTINUOUS
 10
105.6538854324
 20
602.6887689117
 40
0.3
100
AcDbArc
 50
130.8069228749
 51
210.0
  0
ARC
  5
6C4
100
AcDbEntity
  8
6_ALL_SURFS
100
AcDbCircle
 62
7
  6
CONTINUOUS
 10
103.5626468256
 20
602.6887689117
 40
0.3
100
AcDbArc
 50
330.0
 51
49.1930771251
  0
ARC
  5
6C5
100
AcDbEntity
  8
6_ALL_SURFS
100
AcDbCircle
 62
7
  6
CONTINUOUS
 10
103.3380955368
 20
602.2998346706
 40
0.3
100
AcDbArc
 50
270.0
 51
330.0
  0
ARC
  5
6C6
100
AcDbEntity
  8
6_ALL_SURFS
100
AcDbCircle
 62
7
  6
CONTINUOUS
 10
99.658266129
 20
602.2998346706
 40
0.3
100
AcDbArc
 50
180.0
 51
270.0
  0
ARC
  5
6C7
100
AcDbEntity
  8
6_ALL_SURFS
100
AcDbCircle
 62
7
  6
CONTINUOUS
 10
93.4933681458
 20
605.4498346706
 40
0.3
100
AcDbArc
 50
201.6182724222
 51
270.0
  0
ARC
  5
6C8
100
AcDbEntity
  8
7_ALL_FEATURES
100
AcDbCircle
 62
7
  6
CONTINUOUS
 10
94.908266129
 20
602.6998346706
 40
0.2
100
AcDbArc
 50
90.0
 51
180.0
  0
ARC
  5
6C9
100
AcDbEntity
  8
7_ALL_FEATURES
100
AcDbCircle
 62
7
  6
CONTINUOUS
 10
97.108266129
 20
603.6146618733
 40
0.2
100
AcDbArc
 50
46.9999999886
 51
147.1401196205
  0
ARC
  5
6CA
100
AcDbEntity
  8
7_ALL_FEATURES
100
AcDbCircle
 62
7
  6
CONTINUOUS
 10
94.808266129
 20
603.8998346706
 40
0.2
100
AcDbArc
 50
180.0
 51
270.0
  0
ARC
  5
6CB
100
AcDbEntity
  8
7_ALL_FEATURES
100
AcDbCircle
 62
7
  6
CONTINUOUS
 10
94.408266129
 20
604.7498346706
 40
0.2
100
AcDbArc
 50
0.0
 51
90.0
  0
ARC
  5
6CC
100
AcDbEntity
  8
7_ALL_FEATURES
100
AcDbCircle
 62
7
  6
CONTINUOUS
 10
93.808266129
 20
604.7498346706
 40
0.2
100
AcDbArc
 50
90.0
 51
180.0
  0
ARC
  5
6CD
100
AcDbEntity
  8
6_ALL_SURFS
100
AcDbCircle
 62
7
  6
CONTINUOUS
 10
95.908266129
 20
604.1358396232
 40
0.2
100
AcDbArc
 50
232.5
 51
360.0
  0
ARC
  5
6CE
100
AcDbEntity
  8
7_ALL_FEATURES
100
AcDbCircle
 62
7
  6
CONTINUOUS
 10
168.7251233216
 20
565.9421400167
 40
5.0
100
AcDbArc
 50
79.0386653036
 51
102.5
  0
ARC
  5
6CF
100
AcDbEntity
  8
7_ALL_FEATURES
100
AcDbCircle
 62
7
  6
CONTINUOUS
 10
152.5537800583
 20
572.5998346706
 40
5.0
100
AcDbArc
 50
270.0
 51
282.5
  0
CIRCLE
  5
6D0
100
AcDbEntity
  8
3_ALL_AXES
100
AcDbCircle
 62
7
  6
CONTINUOUS
 10
143.908266129
 20
537.5998346706
 40
4.35
  0
ARC
  5
6D1
100
AcDbEntity
  8
7_ALL_FEATURES
100
AcDbCircle
 62
7
  6
CONTINUOUS
 10
170.208266129
 20
573.5998346706
 40
2.8
100
AcDbArc
 50
90.0
 51
120.0
  0
ARC
  5
6D2
100
AcDbEntity
  8
7_ALL_FEATURES
100
AcDbCircle
 62
7
  6
CONTINUOUS
 10
170.208266129
 20
573.5998346706
 40
2.8
100
AcDbArc
 50
259.0386653036
 51
296.847213326
  0
ARC
  5
6D3
100
AcDbEntity
  8
0
100
AcDbCircle
 62
2
  6
CONTINUOUS
 10
143.908266129
 20
537.5998346706
 40
2.5
100
AcDbArc
 50
300.6968754235
 51
136.9599300958
  0
CIRCLE
  5
6D4
100
AcDbEntity
  8
7_ALL_FEATURES
100
AcDbCircle
 62
7
  6
CONTINUOUS
 10
143.408266129
 20
537.1998346706
 40
2.5
  0
CIRCLE
  5
6D5
100
AcDbEntity
  8
3_ALL_AXES
100
AcDbCircle
 62
7
  6
CONTINUOUS
 10
143.908266129
 20
550.0998346706
 40
2.5
  0
ARC
  5
6D6
100
AcDbEntity
  8
7_ALL_FEATURES
100
AcDbCircle
 62
7
  6
CONTINUOUS
 10
143.908266129
 20
537.5998346706
 40
2.1
100
AcDbArc
 50
339.9925373596
 51
96.409429768
  0
CIRCLE
  5
6D7
100
AcDbEntity
  8
7_ALL_FEATURES
100
AcDbCircle
 62
7
  6
CONTINUOUS
 10
143.408266129
 20
537.1998346706
 40
2.0
  0
ARC
  5
6D8
100
AcDbEntity
  8
7_ALL_FEATURES
100
AcDbCircle
 62
7
  6
CONTINUOUS
 10
170.208266129
 20
573.5998346706
 40
1.3
100
AcDbArc
 50
40.8069228749
 51
319.1930771251
  0
ARC
  5
6D9
100
AcDbEntity
  8
7_ALL_FEATURES
100
AcDbCircle
 62
7
  6
CONTINUOUS
 10
165.458266129
 20
573.0024195222
 40
1.0
100
AcDbArc
 50
282.5
 51
360.0
  0
ARC
  5
6DA
100
AcDbEntity
  8
7_ALL_FEATURES
100
AcDbCircle
 62
7
  6
CONTINUOUS
 10
151.0760749276
 20
570.1998346706
 40
1.0
100
AcDbArc
 50
270.0
 51
290.0
  0
ARC
  5
6DB
100
AcDbEntity
  8
7_ALL_FEATURES
100
AcDbCircle
 62
7
  6
CONTINUOUS
 10
168.558266129
 20
576.4577185031
 40
0.5
100
AcDbArc
 50
180.0
 51
300.0
  0
ARC
  5
6DC
100
AcDbEntity
  8
7_ALL_FEATURES
100
AcDbCircle
 62
7
  6
CONTINUOUS
 10
172.408266129
 20
570.0998346706
 40
0.5
100
AcDbArc
 50
180.0
 51
270.0
  0
ARC
  5
6DD
100
AcDbEntity
  8
7_ALL_FEATURES
100
AcDbCircle
 62
7
  6
CONTINUOUS
 10
171.608266129
 20
570.8339713334
 40
0.3
100
AcDbArc
 50
0.0
 51
116.847213326
  0
ARC
  5
6DE
100
AcDbEntity
  8
7_ALL_FEATURES
100
AcDbCircle
 62
7
  6
CONTINUOUS
 10
168.358266129
 20
581.6998346706
 40
0.3
100
AcDbArc
 50
90.0
 51
180.0
  0
ARC
  5
6DF
100
AcDbEntity
  8
7_ALL_FEATURES
100
AcDbCircle
 62
7
  6
CONTINUOUS
 10
153.0721991773
 20
569.5394989279
 40
0.3
100
AcDbArc
 50
210.9637565321
 51
282.5
  0
ARC
  5
6E0
100
AcDbEntity
  8
7_ALL_FEATURES
100
AcDbCircle
 62
7
  6
CONTINUOUS
 10
173.108266129
 20
576.0998346706
 40
0.3
100
AcDbArc
 50
0.0
 51
90.0
  0
ARC
  5
6E1
100
AcDbEntity
  8
7_ALL_FEATURES
100
AcDbCircle
 62
7
  6
CONTINUOUS
 10
173.108266129
 20
575.6205606127
 40
0.3
100
AcDbArc
 50
300.0
 51
360.0
  0
ARC
  5
6E2
100
AcDbEntity
  8
7_ALL_FEATURES
100
AcDbCircle
 62
7
  6
CONTINUOUS
 10
171.4193318879
 20
574.645453974
 40
0.3
100
AcDbArc
 50
220.8069228749
 51
300.0
  0
ARC
  5
6E3
100
AcDbEntity
  8
7_ALL_FEATURES
100
AcDbCircle
 62
7
  6
CONTINUOUS
 10
171.4193318879
 20
572.5542153672
 40
0.3
100
AcDbArc
 50
60.0
 51
139.1930771251
  0
ARC
  5
6E4
100
AcDbEntity
  8
7_ALL_FEATURES
100
AcDbCircle
 62
7
  6
CONTINUOUS
 10
173.108266129
 20
571.5791087284
 40
0.3
100
AcDbArc
 50
0.0
 51
60.0
  0
ARC
  5
6E5
100
AcDbEntity
  8
7_ALL_FEATURES
100
AcDbCircle
 62
7
  6
CONTINUOUS
 10
173.108266129
 20
569.8998346706
 40
0.3
100
AcDbArc
 50
270.0
 51
360.0
  0
ARC
  5
6E6
100
AcDbEntity
  8
7_ALL_FEATURES
100
AcDbCircle
 62
7
  6
CONTINUOUS
 10
152.4962100245
 20
569.3332904703
 40
0.3
100
AcDbArc
 50
30.9637565321
 51
110.0
  0
ARC
  5
6E7
100
AcDbEntity
  8
7_ALL_FEATURES
100
AcDbCircle
 62
7
  6
CONTINUOUS
 10
170.358266129
 20
585.5998346706
 40
8.0
100
AcDbArc
 50
150.0
 51
165.5224878141
  0
ARC
  5
6E8
100
AcDbEntity
  8
7_ALL_FEATURES
100
AcDbCircle
 62
7
  6
CONTINUOUS
 10
170.358266129
 20
585.5998346706
 40
8.0
100
AcDbArc
 50
194.4775121859
 51
210.0
  0
ARC
  5
6E9
100
AcDbEntity
  8
7_ALL_FEATURES
100
AcDbCircle
 62
7
  6
CONTINUOUS
 10
170.358266129
 20
585.5998346706
 40
7.9843597113
100
AcDbArc
 50
183.5903501375
 51
194.5064929647
  0
ARC
  5
6EA
100
AcDbEntity
  8
7_ALL_FEATURES
100
AcDbCircle
 62
7
  6
CONTINUOUS
 10
170.358266129
 20
585.5998346706
 40
7.9843597113
100
AcDbArc
 50
165.4935070353
 51
176.4096498625
  0
ARC
  5
6EB
100
AcDbEntity
  8
7_ALL_FEATURES
100
AcDbCircle
 62
7
  6
CONTINUOUS
 10
170.358266129
 20
585.5998346706
 40
7.7459666924
100
AcDbArc
 50
176.2990001561
 51
183.7009998439
  0
ARC
  5
6EC
100
AcDbEntity
  8
6_ALL_SURFS
100
AcDbCircle
 62
7
  6
CONTINUOUS
 10
168.7251233216
 20
605.2575293245
 40
5.0
100
AcDbArc
 50
257.5
 51
280.9613346964
  0
ARC
  5
6ED
100
AcDbEntity
  8
6_ALL_SURFS
100
AcDbCircle
 62
7
  6
CONTINUOUS
 10
152.5537800583
 20
598.5998346706
 40
5.0
100
AcDbArc
 50
77.5
 51
90.0
  0
ARC
  5
6EE
100
AcDbEntity
  8
6_ALL_SURFS
100
AcDbCircle
 62
7
  6
CONTINUOUS
 10
170.208266129
 20
597.5998346706
 40
2.8
100
AcDbArc
 50
240.0
 51
270.0
  0
ARC
  5
6EF
100
AcDbEntity
  8
6_ALL_SURFS
100
AcDbCircle
 62
7
  6
CONTINUOUS
 10
170.208266129
 20
597.5998346706
 40
2.8
100
AcDbArc
 50
63.152786674
 51
100.9613346964
  0
ARC
  5
6F0
100
AcDbEntity
  8
6_ALL_SURFS
100
AcDbCircle
 62
7
  6
CONTINUOUS
 10
171.608266129
 20
587.3998346706
 40
1.8
100
AcDbArc
 50
0.0
 51
90.0
  0
ARC
  5
6F1
100
AcDbEntity
  8
7_ALL_FEATURES
100
AcDbCircle
 62
7
  6
CONTINUOUS
 10
171.608266129
 20
583.7998346706
 40
1.8
100
AcDbArc
 50
270.0
 51
360.0
  0
ARC
  5
6F2
100
AcDbEntity
  8
6_ALL_SURFS
100
AcDbCircle
 62
7
  6
CONTINUOUS
 10
170.208266129
 20
597.5998346706
 40
1.3
100
AcDbArc
 50
40.8069228749
 51
319.1930771251
  0
ARC
  5
6F3
100
AcDbEntity
  8
6_ALL_SURFS
100
AcDbCircle
 62
7
  6
CONTINUOUS
 10
165.458266129
 20
598.1972498189
 40
1.0
100
AcDbArc
 50
0.0
 51
77.5
  0
ARC
  5
6F4
100
AcDbEntity
  8
6_ALL_SURFS
100
AcDbCircle
 62
7
  6
CONTINUOUS
 10
151.0760749276
 20
600.9998346706
 40
1.0
100
AcDbArc
 50
70.0
 51
90.0
  0
ARC
  5
6F5
100
AcDbEntity
  8
6_ALL_SURFS
100
AcDbCircle
 62
7
  6
CONTINUOUS
 10
168.558266129
 20
594.7419508381
 40
0.5
100
AcDbArc
 50
60.0
 51
180.0
  0
ARC
  5
6F6
100
AcDbEntity
  8
6_ALL_SURFS
100
AcDbCircle
 62
7
  6
CONTINUOUS
 10
172.408266129
 20
601.0998346706
 40
0.5
100
AcDbArc
 50
90.0
 51
180.0
  0
ARC
  5
6F7
100
AcDbEntity
  8
6_ALL_SURFS
100
AcDbCircle
 62
7
  6
CONTINUOUS
 10
171.608266129
 20
600.3656980078
 40
0.3
100
AcDbArc
 50
243.152786674
 51
360.0
  0
ARC
  5
6F8
100
AcDbEntity
  8
6_ALL_SURFS
100
AcDbCircle
 62
7
  6
CONTINUOUS
 10
168.358266129
 20
589.4998346706
 40
0.3
100
AcDbArc
 50
180.0
 51
270.0
  0
ARC
  5
6F9
100
AcDbEntity
  8
6_ALL_SURFS
100
AcDbCircle
 62
7
  6
CONTINUOUS
 10
171.508266129
 20
586.9998346706
 40
0.3
100
AcDbArc
 50
0.0
 51
90.0
  0
ARC
  5
6FA
100
AcDbEntity
  8
6_ALL_SURFS
100
AcDbCircle
 62
7
  6
CONTINUOUS
 10
153.0721991773
 20
601.6601704133
 40
0.3
100
AcDbArc
 50
77.5
 51
149.0362434679
  0
ARC
  5
6FB
100
AcDbEntity
  8
7_ALL_FEATURES
100
AcDbCircle
 62
7
  6
CONTINUOUS
 10
171.508266129
 20
584.1998346706
 40
0.3
100
AcDbArc
 50
270.0
 51
360.0
  0
ARC
  5
6FC
100
AcDbEntity
  8
6_ALL_SURFS
100
AcDbCircle
 62
7
  6
CONTINUOUS
 10
173.108266129
 20
595.0998346706
 40
0.3
100
AcDbArc
 50
270.0
 51
360.0
  0
ARC
  5
6FD
100
AcDbEntity
  8
6_ALL_SURFS
100
AcDbCircle
 62
7
  6
CONTINUOUS
 10
173.108266129
 20
595.5791087284
 40
0.3
100
AcDbArc
 50
0.0
 51
60.0
  0
ARC
  5
6FE
100
AcDbEntity
  8
6_ALL_SURFS
100
AcDbCircle
 62
7
  6
CONTINUOUS
 10
171.4193318879
 20
596.5542153672
 40
0.3
100
AcDbArc
 50
60.0
 51
139.1930771251
  0
ARC
  5
6FF
100
AcDbEntity
  8
6_ALL_SURFS
100
AcDbCircle
 62
7
  6
CONTINUOUS
 10
171.4193318879
 20
598.645453974
 40
0.3
100
AcDbArc
 50
220.8069228749
 51
300.0
  0
ARC
  5
700
100
AcDbEntity
  8
6_ALL_SURFS
100
AcDbCircle
 62
7
  6
CONTINUOUS
 10
173.108266129
 20
599.6205606127
 40
0.3
100
AcDbArc
 50
300.0
 51
360.0
  0
ARC
  5
701
100
AcDbEntity
  8
6_ALL_SURFS
100
AcDbCircle
 62
7
  6
CONTINUOUS
 10
173.108266129
 20
601.2998346706
 40
0.3
100
AcDbArc
 50
0.0
 51
90.0
  0
ARC
  5
702
100
AcDbEntity
  8
7_ALL_FEATURES
100
AcDbCircle
 62
7
  6
CONTINUOUS
 10
166.758266129
 20
583.5998346706
 40
0.3
100
AcDbArc
 50
90.0
 51
180.0
  0
ARC
  5
703
100
AcDbEntity
  8
6_ALL_SURFS
100
AcDbCircle
 62
7
  6
CONTINUOUS
 10
166.758266129
 20
587.5998346706
 40
0.3
100
AcDbArc
 50
180.0
 51
270.0
  0
ARC
  5
704
100
AcDbEntity
  8
6_ALL_SURFS
100
AcDbCircle
 62
7
  6
CONTINUOUS
 10
152.4962100245
 20
601.8663788709
 40
0.3
100
AcDbArc
 50
250.0
 51
329.0362434679
  0
SPLINE
  5
705
100
AcDbEntity
  8
6_ALL_SURFS
100
AcDbSpline
 62
7
  6
CONTINUOUS
 70
0
 71
3
 72
13
 73
9
 74
0
 42
0.0000001
 43
0.0000001
 44
0.0000000001
 40
0.0
 40
0.0
 40
0.0
 40
0.0
 40
0.250153609
 40
0.5060036038
 40
0.6358601994
 40
0.764341123
 40
0.8857634882
 40
1.0
 40
1.0
 40
1.0
 40
1.0
 10
317.4502661359
 20
476.9940234694
 30
0.0
 10
317.4802387632
 20
477.0562947442
 30
0.0
 10
317.5482092991
 20
477.1787595687
 30
0.0
 10
317.6569297848
 20
477.3188047217
 30
0.0
 10
317.7666200091
 20
477.4100412953
 30
0.0
 10
317.8624774979
 20
477.4572349677
 30
0.0
 10
317.9677761844
 20
477.4591667949
 30
0.0
 10
318.0263783225
 20
477.4246931456
 30
0.0
 10
318.0502661359
 20
477.4040681616
 30
0.0
  0
SPLINE
  5
706
100
AcDbEntity
  8
6_ALL_SURFS
100
AcDbSpline
 62
7
  6
CONTINUOUS
 70
0
 71
3
 72
13
 73
9
 74
0
 42
0.0000001
 43
0.0000001
 44
0.0000000001
 40
0.0
 40
0.0
 40
0.0
 40
0.0
 40
0.1142395548
 40
0.2356663061
 40
0.3641460913
 40
0.4940011579
 40
0.7498488143
 40
1.0
 40
1.0
 40
1.0
 40
1.0
 10
318.0502661359
 20
284.8956011795
 30
0.0
 10
318.0263776942
 20
284.874975653
 30
0.0
 10
317.9677733106
 20
284.8405011198
 30
0.0
 10
317.8624726631
 20
284.8424361806
 30
0.0
 10
317.7666157637
 20
284.8896312721
 30
0.0
 10
317.6569269466
 20
284.9808673514
 30
0.0
 10
317.5482083101
 20
285.1209116062
 30
0.0
 10
317.4802384628
 20
285.2433752209
 30
0.0
 10
317.4502661359
 20
285.3056458717
 30
0.0
  0
SPLINE
  5
707
100
AcDbEntity
  8
6_ALL_SURFS
100
AcDbSpline
 62
7
  6
CONTINUOUS
 70
0
 71
3
 72
13
 73
9
 74
0
 42
0.0000001
 43
0.0000001
 44
0.0000000001
 40
0.0
 40
0.0
 40
0.0
 40
0.0
 40
0.1142395548
 40
0.2356663061
 40
0.3641460913
 40
0.4940011579
 40
0.7498488143
 40
1.0
 40
1.0
 40
1.0
 40
1.0
 10
318.0502661359
 20
484.8956011795
 30
0.0
 10
318.0263776942
 20
484.874975653
 30
0.0
 10
317.9677733106
 20
484.8405011198
 30
0.0
 10
317.8624726631
 20
484.8424361806
 30
0.0
 10
317.7666157637
 20
484.8896312721
 30
0.0
 10
317.6569269466
 20
484.9808673514
 30
0.0
 10
317.5482083101
 20
485.1209116062
 30
0.0
 10
317.4802384628
 20
485.2433752209
 30
0.0
 10
317.4502661359
 20
485.3056458717
 30
0.0
  0
SPLINE
  5
708
100
AcDbEntity
  8
6_ALL_SURFS
100
AcDbSpline
 62
7
  6
CONTINUOUS
 70
0
 71
3
 72
11
 73
7
 74
0
 42
0.0000001
 43
0.0000001
 44
0.0000000001
 40
0.0
 40
0.0
 40
0.0
 40
0.0
 40
0.2424926146
 40
0.4987677796
 40
0.7553763016
 40
1.0
 40
1.0
 40
1.0
 40
1.0
 10
314.4502661359
 20
76.3884518105
 30
0.0
 10
314.4869002435
 20
76.4318008657
 30
0.0
 10
314.5767449694
 20
76.5115111368
 30
0.0
 10
314.7599366933
 20
76.5520397995
 30
0.0
 10
314.9317773434
 20
76.4810588097
 30
0.0
 10
315.0153412887
 20
76.3961652722
 30
0.0
 10
315.0502661359
 20
76.3507965649
 30
0.0
  0
SPLINE
  5
709
100
AcDbEntity
  8
6_ALL_SURFS
100
AcDbSpline
 62
7
  6
CONTINUOUS
 70
0
 71
3
 72
11
 73
7
 74
0
 42
0.0000001
 43
0.0000001
 44
0.0000000001
 40
0.0
 40
0.0
 40
0.0
 40
0.0
 40
0.2424926146
 40
0.4987677796
 40
0.7553763016
 40
1.0
 40
1.0
 40
1.0
 40
1.0
 10
314.4502661359
 20
276.3884518105
 30
0.0
 10
314.4869002435
 20
276.4318008657
 30
0.0
 10
314.5767449694
 20
276.5115111368
 30
0.0
 10
314.7599366933
 20
276.5520397995
 30
0.0
 10
314.9317773434
 20
276.4810588097
 30
0.0
 10
315.0153412887
 20
276.3961652722
 30
0.0
 10
315.0502661359
 20
276.3507965649
 30
0.0
  0
SPLINE
  5
70A
100
AcDbEntity
  8
6_ALL_SURFS
100
AcDbSpline
 62
7
  6
CONTINUOUS
 70
0
 71
3
 72
11
 73
7
 74
0
 42
0.0000001
 43
0.0000001
 44
0.0000000001
 40
0.0
 40
0.0
 40
0.0
 40
0.0
 40
0.2446237354
 40
0.501232235
 40
0.7575073666
 40
1.0
 40
1.0
 40
1.0
 40
1.0
 10
315.0502661359
 20
85.9488727763
 30
0.0
 10
315.0153412834
 20
85.9035040621
 30
0.0
 10
314.9317773328
 20
85.8186105232
 30
0.0
 10
314.7599366842
 20
85.7476295455
 30
0.0
 10
314.5767449716
 20
85.7881582039
 30
0.0
 10
314.4869002464
 20
85.867868472
 30
0.0
 10
314.4502661359
 20
85.9112175306
 30
0.0
  0
SPLINE
  5
70B
100
AcDbEntity
  8
6_ALL_SURFS
100
AcDbSpline
 62
7
  6
CONTINUOUS
 70
0
 71
3
 72
11
 73
7
 74
0
 42
0.0000001
 43
0.0000001
 44
0.0000000001
 40
0.0
 40
0.0
 40
0.0
 40
0.0
 40
0.2424926146
 40
0.4987677796
 40
0.7553763016
 40
1.0
 40
1.0
 40
1.0
 40
1.0
 10
314.4502661359
 20
476.3884518105
 30
0.0
 10
314.4869002435
 20
476.4318008657
 30
0.0
 10
314.5767449694
 20
476.5115111368
 30
0.0
 10
314.7599366933
 20
476.5520397995
 30
0.0
 10
314.9317773434
 20
476.4810588097
 30
0.0
 10
315.0153412887
 20
476.3961652722
 30
0.0
 10
315.0502661359
 20
476.3507965649
 30
0.0
  0
SPLINE
  5
70C
100
AcDbEntity
  8
6_ALL_SURFS
100
AcDbSpline
 62
7
  6
CONTINUOUS
 70
0
 71
3
 72
11
 73
7
 74
0
 42
0.0000001
 43
0.0000001
 44
0.0000000001
 40
0.0
 40
0.0
 40
0.0
 40
0.0
 40
0.2446237354
 40
0.501232235
 40
0.7575073666
 40
1.0
 40
1.0
 40
1.0
 40
1.0
 10
315.0502661359
 20
285.9488727763
 30
0.0
 10
315.0153412834
 20
285.9035040621
 30
0.0
 10
314.9317773328
 20
285.8186105232
 30
0.0
 10
314.7599366842
 20
285.7476295455
 30
0.0
 10
314.5767449716
 20
285.7881582039
 30
0.0
 10
314.4869002464
 20
285.867868472
 30
0.0
 10
314.4502661359
 20
285.9112175306
 30
0.0
  0
SPLINE
  5
70D
100
AcDbEntity
  8
6_ALL_SURFS
100
AcDbSpline
 62
7
  6
CONTINUOUS
 70
0
 71
3
 72
11
 73
7
 74
0
 42
0.0000001
 43
0.0000001
 44
0.0000000001
 40
0.0
 40
0.0
 40
0.0
 40
0.0
 40
0.2446237354
 40
0.501232235
 40
0.7575073666
 40
1.0
 40
1.0
 40
1.0
 40
1.0
 10
315.0502661359
 20
485.9488727763
 30
0.0
 10
315.0153412834
 20
485.9035040621
 30
0.0
 10
314.9317773328
 20
485.8186105232
 30
0.0
 10
314.7599366842
 20
485.7476295455
 30
0.0
 10
314.5767449716
 20
485.7881582039
 30
0.0
 10
314.4869002464
 20
485.867868472
 30
0.0
 10
314.4502661359
 20
485.9112175306
 30
0.0
  0
SPLINE
  5
70E
100
AcDbEntity
  8
7_ALL_FEATURES
100
AcDbSpline
 62
7
  6
CONTINUOUS
 70
0
 71
3
 72
13
 73
9
 74
0
 42
0.0000001
 43
0.0000001
 44
0.0000000001
 40
0.0
 40
0.0
 40
0.0
 40
0.0
 40
0.1142395548
 40
0.2356663061
 40
0.3641460913
 40
0.4940011579
 40
0.7498488143
 40
1.0
 40
1.0
 40
1.0
 40
1.0
 10
382.1502661359
 20
484.8956011795
 30
0.0
 10
382.1741545776
 20
484.874975653
 30
0.0
 10
382.2327589611
 20
484.8405011198
 30
0.0
 10
382.3380596087
 20
484.8424361806
 30
0.0
 10
382.4339165081
 20
484.8896312721
 30
0.0
 10
382.5436053252
 20
484.9808673514
 30
0.0
 10
382.6523239616
 20
485.1209116062
 30
0.0
 10
382.720293809
 20
485.2433752209
 30
0.0
 10
382.7502661359
 20
485.3056458717
 30
0.0
  0
SPLINE
  5
70F
100
AcDbEntity
  8
7_ALL_FEATURES
100
AcDbSpline
 62
7
  6
CONTINUOUS
 70
0
 71
3
 72
13
 73
9
 74
0
 42
0.0000001
 43
0.0000001
 44
0.0000000001
 40
0.0
 40
0.0
 40
0.0
 40
0.0
 40
0.1142395548
 40
0.2356663061
 40
0.3641460913
 40
0.4940011579
 40
0.7498488143
 40
1.0
 40
1.0
 40
1.0
 40
1.0
 10
382.1502661359
 20
284.8956011795
 30
0.0
 10
382.1741545776
 20
284.874975653
 30
0.0
 10
382.2327589611
 20
284.8405011198
 30
0.0
 10
382.3380596087
 20
284.8424361806
 30
0.0
 10
382.4339165081
 20
284.8896312721
 30
0.0
 10
382.5436053252
 20
284.9808673514
 30
0.0
 10
382.6523239616
 20
285.1209116062
 30
0.0
 10
382.720293809
 20
285.2433752209
 30
0.0
 10
382.7502661359
 20
285.3056458717
 30
0.0
  0
SPLINE
  5
710
100
AcDbEntity
  8
7_ALL_FEATURES
100
AcDbSpline
 62
7
  6
CONTINUOUS
 70
0
 71
3
 72
13
 73
9
 74
0
 42
0.0000001
 43
0.0000001
 44
0.0000000001
 40
0.0
 40
0.0
 40
0.0
 40
0.0
 40
0.250153609
 40
0.5060036038
 40
0.6358601994
 40
0.764341123
 40
0.8857634882
 40
1.0
 40
1.0
 40
1.0
 40
1.0
 10
382.7502661359
 20
476.9940234694
 30
0.0
 10
382.7202935086
 20
477.0562947442
 30
0.0
 10
382.6523229727
 20
477.1787595687
 30
0.0
 10
382.543602487
 20
477.3188047217
 30
0.0
 10
382.4339122626
 20
477.4100412953
 30
0.0
 10
382.3380547739
 20
477.4572349677
 30
0.0
 10
382.2327560874
 20
477.4591667949
 30
0.0
 10
382.1741539492
 20
477.4246931456
 30
0.0
 10
382.1502661359
 20
477.4040681616
 30
0.0
  0
SPLINE
  5
711
100
AcDbEntity
  8
7_ALL_FEATURES
100
AcDbSpline
 62
7
  6
CONTINUOUS
 70
0
 71
3
 72
13
 73
9
 74
0
 42
0.0000001
 43
0.0000001
 44
0.0000000001
 40
0.0
 40
0.0
 40
0.0
 40
0.0
 40
0.1142395548
 40
0.2356663061
 40
0.3641460913
 40
0.4940011579
 40
0.7498488143
 40
1.0
 40
1.0
 40
1.0
 40
1.0
 10
382.1502661359
 20
84.8956011795
 30
0.0
 10
382.1741545776
 20
84.874975653
 30
0.0
 10
382.2327589611
 20
84.8405011198
 30
0.0
 10
382.3380596087
 20
84.8424361806
 30
0.0
 10
382.4339165081
 20
84.8896312721
 30
0.0
 10
382.5436053252
 20
84.9808673514
 30
0.0
 10
382.6523239616
 20
85.1209116062
 30
0.0
 10
382.720293809
 20
85.2433752209
 30
0.0
 10
382.7502661359
 20
85.3056458717
 30
0.0
  0
SPLINE
  5
712
100
AcDbEntity
  8
7_ALL_FEATURES
100
AcDbSpline
 62
7
  6
CONTINUOUS
 70
0
 71
3
 72
13
 73
9
 74
0
 42
0.0000001
 43
0.0000001
 44
0.0000000001
 40
0.0
 40
0.0
 40
0.0
 40
0.0
 40
0.250153609
 40
0.5060036038
 40
0.6358601994
 40
0.764341123
 40
0.8857634882
 40
1.0
 40
1.0
 40
1.0
 40
1.0
 10
382.7502661359
 20
276.9940234694
 30
0.0
 10
382.7202935086
 20
277.0562947442
 30
0.0
 10
382.6523229727
 20
277.1787595687
 30
0.0
 10
382.543602487
 20
277.3188047217
 30
0.0
 10
382.4339122626
 20
277.4100412953
 30
0.0
 10
382.3380547739
 20
277.4572349677
 30
0.0
 10
382.2327560874
 20
277.4591667949
 30
0.0
 10
382.1741539492
 20
277.4246931456
 30
0.0
 10
382.1502661359
 20
277.4040681616
 30
0.0
  0
SPLINE
  5
713
100
AcDbEntity
  8
7_ALL_FEATURES
100
AcDbSpline
 62
7
  6
CONTINUOUS
 70
0
 71
3
 72
13
 73
9
 74
0
 42
0.0000001
 43
0.0000001
 44
0.0000000001
 40
0.0
 40
0.0
 40
0.0
 40
0.0
 40
0.250153609
 40
0.5060036038
 40
0.6358601994
 40
0.764341123
 40
0.8857634882
 40
1.0
 40
1.0
 40
1.0
 40
1.0
 10
382.7502661359
 20
76.9940234694
 30
0.0
 10
382.7202935086
 20
77.0562947442
 30
0.0
 10
382.6523229727
 20
77.1787595687
 30
0.0
 10
382.543602487
 20
77.3188047217
 30
0.0
 10
382.4339122626
 20
77.4100412953
 30
0.0
 10
382.3380547739
 20
77.4572349677
 30
0.0
 10
382.2327560874
 20
77.4591667949
 30
0.0
 10
382.1741539492
 20
77.4246931456
 30
0.0
 10
382.1502661359
 20
77.4040681616
 30
0.0
  0
SPLINE
  5
714
100
AcDbEntity
  8
7_ALL_FEATURES
100
AcDbSpline
 62
7
  6
CONTINUOUS
 70
0
 71
3
 72
11
 73
7
 74
0
 42
0.0000001
 43
0.0000001
 44
0.0000000001
 40
0.0
 40
0.0
 40
0.0
 40
0.0
 40
0.2446237354
 40
0.501232235
 40
0.7575073666
 40
1.0
 40
1.0
 40
1.0
 40
1.0
 10
385.1502661359
 20
485.9488727763
 30
0.0
 10
385.1851909883
 20
485.9035040621
 30
0.0
 10
385.2687549389
 20
485.8186105232
 30
0.0
 10
385.4405955876
 20
485.7476295455
 30
0.0
 10
385.6237873002
 20
485.7881582039
 30
0.0
 10
385.7136320254
 20
485.867868472
 30
0.0
 10
385.7502661359
 20
485.9112175306
 30
0.0
  0
SPLINE
  5
715
100
AcDbEntity
  8
7_ALL_FEATURES
100
AcDbSpline
 62
7
  6
CONTINUOUS
 70
0
 71
3
 72
11
 73
7
 74
0
 42
0.0000001
 43
0.0000001
 44
0.0000000001
 40
0.0
 40
0.0
 40
0.0
 40
0.0
 40
0.2446237354
 40
0.501232235
 40
0.7575073666
 40
1.0
 40
1.0
 40
1.0
 40
1.0
 10
385.1502661359
 20
285.9488727763
 30
0.0
 10
385.1851909883
 20
285.9035040621
 30
0.0
 10
385.2687549389
 20
285.8186105232
 30
0.0
 10
385.4405955876
 20
285.7476295455
 30
0.0
 10
385.6237873002
 20
285.7881582039
 30
0.0
 10
385.7136320254
 20
285.867868472
 30
0.0
 10
385.7502661359
 20
285.9112175306
 30
0.0
  0
SPLINE
  5
716
100
AcDbEntity
  8
7_ALL_FEATURES
100
AcDbSpline
 62
7
  6
CONTINUOUS
 70
0
 71
3
 72
11
 73
7
 74
0
 42
0.0000001
 43
0.0000001
 44
0.0000000001
 40
0.0
 40
0.0
 40
0.0
 40
0.0
 40
0.2424926146
 40
0.4987677796
 40
0.7553763016
 40
1.0
 40
1.0
 40
1.0
 40
1.0
 10
385.7502661359
 20
476.3884518105
 30
0.0
 10
385.7136320282
 20
476.4318008657
 30
0.0
 10
385.6237873023
 20
476.5115111368
 30
0.0
 10
385.4405955784
 20
476.5520397995
 30
0.0
 10
385.2687549283
 20
476.4810588097
 30
0.0
 10
385.1851909831
 20
476.3961652722
 30
0.0
 10
385.1502661359
 20
476.3507965649
 30
0.0
  0
SPLINE
  5
717
100
AcDbEntity
  8
7_ALL_FEATURES
100
AcDbSpline
 62
7
  6
CONTINUOUS
 70
0
 71
3
 72
11
 73
7
 74
0
 42
0.0000001
 43
0.0000001
 44
0.0000000001
 40
0.0
 40
0.0
 40
0.0
 40
0.0
 40
0.2446237354
 40
0.501232235
 40
0.7575073666
 40
1.0
 40
1.0
 40
1.0
 40
1.0
 10
385.1502661359
 20
85.9488727763
 30
0.0
 10
385.1851909883
 20
85.9035040621
 30
0.0
 10
385.2687549389
 20
85.8186105232
 30
0.0
 10
385.4405955876
 20
85.7476295455
 30
0.0
 10
385.6237873002
 20
85.7881582039
 30
0.0
 10
385.7136320254
 20
85.867868472
 30
0.0
 10
385.7502661359
 20
85.9112175306
 30
0.0
  0
SPLINE
  5
718
100
AcDbEntity
  8
7_ALL_FEATURES
100
AcDbSpline
 62
7
  6
CONTINUOUS
 70
0
 71
3
 72
11
 73
7
 74
0
 42
0.0000001
 43
0.0000001
 44
0.0000000001
 40
0.0
 40
0.0
 40
0.0
 40
0.0
 40
0.2424926146
 40
0.4987677796
 40
0.7553763016
 40
1.0
 40
1.0
 40
1.0
 40
1.0
 10
385.7502661359
 20
276.3884518105
 30
0.0
 10
385.7136320282
 20
276.4318008657
 30
0.0
 10
385.6237873023
 20
276.5115111368
 30
0.0
 10
385.4405955784
 20
276.5520397995
 30
0.0
 10
385.2687549283
 20
276.4810588097
 30
0.0
 10
385.1851909831
 20
276.3961652722
 30
0.0
 10
385.1502661359
 20
276.3507965649
 30
0.0
  0
SPLINE
  5
719
100
AcDbEntity
  8
7_ALL_FEATURES
100
AcDbSpline
 62
7
  6
CONTINUOUS
 70
0
 71
3
 72
11
 73
7
 74
0
 42
0.0000001
 43
0.0000001
 44
0.0000000001
 40
0.0
 40
0.0
 40
0.0
 40
0.0
 40
0.2424926146
 40
0.4987677796
 40
0.7553763016
 40
1.0
 40
1.0
 40
1.0
 40
1.0
 10
385.7502661359
 20
76.3884518105
 30
0.0
 10
385.7136320282
 20
76.4318008657
 30
0.0
 10
385.6237873023
 20
76.5115111368
 30
0.0
 10
385.4405955784
 20
76.5520397995
 30
0.0
 10
385.2687549283
 20
76.4810588097
 30
0.0
 10
385.1851909831
 20
76.3961652722
 30
0.0
 10
385.1502661359
 20
76.3507965649
 30
0.0
  0
SPLINE
  5
71A
100
AcDbEntity
  8
6_ALL_SURFS
100
AcDbSpline
 62
7
  6
CONTINUOUS
 70
0
 71
3
 72
13
 73
9
 74
0
 42
0.0000001
 43
0.0000001
 44
0.0000000001
 40
0.0
 40
0.0
 40
0.0
 40
0.0
 40
0.250153609
 40
0.5060036038
 40
0.6358601994
 40
0.764341123
 40
0.8857634882
 40
1.0
 40
1.0
 40
1.0
 40
1.0
 10
317.4502661359
 20
76.9940234694
 30
0.0
 10
317.4802387632
 20
77.0562947442
 30
0.0
 10
317.5482092991
 20
77.1787595687
 30
0.0
 10
317.6569297848
 20
77.3188047217
 30
0.0
 10
317.7666200091
 20
77.4100412953
 30
0.0
 10
317.8624774979
 20
77.4572349677
 30
0.0
 10
317.9677761844
 20
77.4591667949
 30
0.0
 10
318.0263783225
 20
77.4246931456
 30
0.0
 10
318.0502661359
 20
77.4040681616
 30
0.0
  0
SPLINE
  5
71B
100
AcDbEntity
  8
6_ALL_SURFS
100
AcDbSpline
 62
7
  6
CONTINUOUS
 70
0
 71
3
 72
13
 73
9
 74
0
 42
0.0000001
 43
0.0000001
 44
0.0000000001
 40
0.0
 40
0.0
 40
0.0
 40
0.0
 40
0.250153609
 40
0.5060036038
 40
0.6358601994
 40
0.764341123
 40
0.8857634882
 40
1.0
 40
1.0
 40
1.0
 40
1.0
 10
317.4502661359
 20
276.9940234694
 30
0.0
 10
317.4802387632
 20
277.0562947442
 30
0.0
 10
317.5482092991
 20
277.1787595687
 30
0.0
 10
317.6569297848
 20
277.3188047217
 30
0.0
 10
317.7666200091
 20
277.4100412953
 30
0.0
 10
317.8624774979
 20
277.4572349677
 30
0.0
 10
317.9677761844
 20
277.4591667949
 30
0.0
 10
318.0263783225
 20
277.4246931456
 30
0.0
 10
318.0502661359
 20
277.4040681616
 30
0.0
  0
SPLINE
  5
71C
100
AcDbEntity
  8
6_ALL_SURFS
100
AcDbSpline
 62
7
  6
CONTINUOUS
 70
0
 71
3
 72
13
 73
9
 74
0
 42
0.0000001
 43
0.0000001
 44
0.0000000001
 40
0.0
 40
0.0
 40
0.0
 40
0.0
 40
0.1142395548
 40
0.2356663061
 40
0.3641460913
 40
0.4940011579
 40
0.7498488143
 40
1.0
 40
1.0
 40
1.0
 40
1.0
 10
318.0502661359
 20
84.8956011795
 30
0.0
 10
318.0263776942
 20
84.874975653
 30
0.0
 10
317.9677733106
 20
84.8405011198
 30
0.0
 10
317.8624726631
 20
84.8424361806
 30
0.0
 10
317.7666157637
 20
84.8896312721
 30
0.0
 10
317.6569269466
 20
84.9808673514
 30
0.0
 10
317.5482083101
 20
85.1209116062
 30
0.0
 10
317.4802384628
 20
85.2433752209
 30
0.0
 10
317.4502661359
 20
85.3056458717
 30
0.0
  0
SPLINE
  5
71D
100
AcDbEntity
  8
6_ALL_SURFS
100
AcDbSpline
 62
7
  6
CONTINUOUS
 70
0
 71
3
 72
13
 73
9
 74
0
 42
0.0000001
 43
0.0000001
 44
0.0000000001
 40
0.0
 40
0.0
 40
0.0
 40
0.0
 40
0.250152565
 40
0.5060012204
 40
0.6358568096
 40
0.7643378458
 40
0.8857624998
 40
1.0
 40
1.0
 40
1.0
 40
1.0
 10
892.8944549347
 20
618.2498346706
 30
0.0
 10
892.9567259378
 20
618.2198621741
 30
0.0
 10
893.0791901497
 20
618.151891978
 30
0.0
 10
893.2192347874
 20
618.0431724409
 30
0.0
 10
893.3104711583
 20
617.9334828859
 30
0.0
 10
893.3576656493
 20
617.8376255375
 30
0.0
 10
893.359598825
 20
617.7323257865
 30
0.0
 10
893.3251247854
 20
617.6737226861
 30
0.0
 10
893.3044996269
 20
617.6498346706
 30
0.0
  0
SPLINE
  5
71E
100
AcDbEntity
  8
6_ALL_SURFS
100
AcDbSpline
 62
7
  6
CONTINUOUS
 70
0
 71
3
 72
13
 73
9
 74
0
 42
0.0000001
 43
0.0000001
 44
0.0000000001
 40
0.0
 40
0.0
 40
0.0
 40
0.0
 40
0.1142403202
 40
0.235668474
 40
0.3641486035
 40
0.494003062
 40
0.7498496742
 40
1.0
 40
1.0
 40
1.0
 40
1.0
 10
650.7960326448
 20
617.6498346706
 30
0.0
 10
650.7754069819
 20
617.6737232703
 30
0.0
 10
650.7409321534
 20
617.7323282834
 30
0.0
 10
650.7428681703
 20
617.8376297167
 30
0.0
 10
650.7900638645
 20
617.9334865648
 30
0.0
 10
650.8812998685
 20
618.0431749596
 30
0.0
 10
651.0213437776
 20
618.1518928612
 30
0.0
 10
651.1438069057
 20
618.2198624493
 30
0.0
 10
651.206077337
 20
618.2498346706
 30
0.0
  0
SPLINE
  5
71F
100
AcDbEntity
  8
6_ALL_SURFS
100
AcDbSpline
 62
7
  6
CONTINUOUS
 70
0
 71
3
 72
13
 73
9
 74
0
 42
0.0000001
 43
0.0000001
 44
0.0000000001
 40
0.0
 40
0.0
 40
0.0
 40
0.0
 40
0.1142403202
 40
0.235668474
 40
0.3641486035
 40
0.494003062
 40
0.7498496742
 40
1.0
 40
1.0
 40
1.0
 40
1.0
 10
900.7960326448
 20
617.6498346706
 30
0.0
 10
900.7754069819
 20
617.6737232703
 30
0.0
 10
900.7409321534
 20
617.7323282834
 30
0.0
 10
900.7428681703
 20
617.8376297167
 30
0.0
 10
900.7900638645
 20
617.9334865648
 30
0.0
 10
900.8812998685
 20
618.0431749596
 30
0.0
 10
901.0213437776
 20
618.1518928612
 30
0.0
 10
901.1438069057
 20
618.2198624493
 30
0.0
 10
901.206077337
 20
618.2498346706
 30
0.0
  0
SPLINE
  5
720
100
AcDbEntity
  8
6_ALL_SURFS
100
AcDbSpline
 62
7
  6
CONTINUOUS
 70
0
 71
3
 72
11
 73
7
 74
0
 42
0.0000001
 43
0.0000001
 44
0.0000000001
 40
0.0
 40
0.0
 40
0.0
 40
0.0
 40
0.2424934522
 40
0.4987655095
 40
0.7553756907
 40
1.0
 40
1.0
 40
1.0
 40
1.0
 10
392.2888832759
 20
621.2498346706
 30
0.0
 10
392.3322324762
 20
621.2132004403
 30
0.0
 10
392.4119421126
 20
621.1233558793
 30
0.0
 10
392.452471248
 20
620.9401647622
 30
0.0
 10
392.3814907258
 20
620.7683239416
 30
0.0
 10
392.296596846
 20
620.6847596013
 30
0.0
 10
392.2512280302
 20
620.6498346706
 30
0.0
  0
SPLINE
  5
721
100
AcDbEntity
  8
6_ALL_SURFS
100
AcDbSpline
 62
7
  6
CONTINUOUS
 70
0
 71
3
 72
11
 73
7
 74
0
 42
0.0000001
 43
0.0000001
 44
0.0000000001
 40
0.0
 40
0.0
 40
0.0
 40
0.0
 40
0.2424934522
 40
0.4987655095
 40
0.7553756907
 40
1.0
 40
1.0
 40
1.0
 40
1.0
 10
642.2888832759
 20
621.2498346706
 30
0.0
 10
642.3322324762
 20
621.2132004403
 30
0.0
 10
642.4119421126
 20
621.1233558793
 30
0.0
 10
642.452471248
 20
620.9401647622
 30
0.0
 10
642.3814907258
 20
620.7683239416
 30
0.0
 10
642.296596846
 20
620.6847596013
 30
0.0
 10
642.2512280302
 20
620.6498346706
 30
0.0
  0
SPLINE
  5
722
100
AcDbEntity
  8
6_ALL_SURFS
100
AcDbSpline
 62
7
  6
CONTINUOUS
 70
0
 71
3
 72
11
 73
7
 74
0
 42
0.0000001
 43
0.0000001
 44
0.0000000001
 40
0.0
 40
0.0
 40
0.0
 40
0.0
 40
0.2446243093
 40
0.5012344905
 40
0.7575065478
 40
1.0
 40
1.0
 40
1.0
 40
1.0
 10
401.8493042416
 20
620.6498346706
 30
0.0
 10
401.8039354257
 20
620.6847596013
 30
0.0
 10
401.719041546
 20
620.7683239416
 30
0.0
 10
401.6480610237
 20
620.9401647622
 30
0.0
 10
401.6885901591
 20
621.1233558793
 30
0.0
 10
401.7682997956
 20
621.2132004403
 30
0.0
 10
401.8116489959
 20
621.2498346706
 30
0.0
  0
SPLINE
  5
723
100
AcDbEntity
  8
6_ALL_SURFS
100
AcDbSpline
 62
7
  6
CONTINUOUS
 70
0
 71
3
 72
11
 73
7
 74
0
 42
0.0000001
 43
0.0000001
 44
0.0000000001
 40
0.0
 40
0.0
 40
0.0
 40
0.0
 40
0.2424934522
 40
0.4987655095
 40
0.7553756907
 40
1.0
 40
1.0
 40
1.0
 40
1.0
 10
892.2888832759
 20
621.2498346706
 30
0.0
 10
892.3322324762
 20
621.2132004403
 30
0.0
 10
892.4119421126
 20
621.1233558793
 30
0.0
 10
892.452471248
 20
620.9401647622
 30
0.0
 10
892.3814907258
 20
620.7683239416
 30
0.0
 10
892.296596846
 20
620.6847596013
 30
0.0
 10
892.2512280302
 20
620.6498346706
 30
0.0
  0
SPLINE
  5
724
100
AcDbEntity
  8
6_ALL_SURFS
100
AcDbSpline
 62
7
  6
CONTINUOUS
 70
0
 71
3
 72
11
 73
7
 74
0
 42
0.0000001
 43
0.0000001
 44
0.0000000001
 40
0.0
 40
0.0
 40
0.0
 40
0.0
 40
0.2446243093
 40
0.5012344905
 40
0.7575065478
 40
1.0
 40
1.0
 40
1.0
 40
1.0
 10
651.8493042416
 20
620.6498346706
 30
0.0
 10
651.8039354257
 20
620.6847596013
 30
0.0
 10
651.719041546
 20
620.7683239416
 30
0.0
 10
651.6480610237
 20
620.9401647622
 30
0.0
 10
651.6885901591
 20
621.1233558793
 30
0.0
 10
651.7682997956
 20
621.2132004403
 30
0.0
 10
651.8116489959
 20
621.2498346706
 30
0.0
  0
SPLINE
  5
725
100
AcDbEntity
  8
6_ALL_SURFS
100
AcDbSpline
 62
7
  6
CONTINUOUS
 70
0
 71
3
 72
11
 73
7
 74
0
 42
0.0000001
 43
0.0000001
 44
0.0000000001
 40
0.0
 40
0.0
 40
0.0
 40
0.0
 40
0.2446243093
 40
0.5012344905
 40
0.7575065478
 40
1.0
 40
1.0
 40
1.0
 40
1.0
 10
901.8493042416
 20
620.6498346706
 30
0.0
 10
901.8039354257
 20
620.6847596013
 30
0.0
 10
901.719041546
 20
620.7683239416
 30
0.0
 10
901.6480610237
 20
620.9401647622
 30
0.0
 10
901.6885901591
 20
621.1233558793
 30
0.0
 10
901.7682997956
 20
621.2132004403
 30
0.0
 10
901.8116489959
 20
621.2498346706
 30
0.0
  0
SPLINE
  5
726
100
AcDbEntity
  8
7_ALL_FEATURES
100
AcDbSpline
 62
7
  6
CONTINUOUS
 70
0
 71
3
 72
13
 73
9
 74
0
 42
0.0000001
 43
0.0000001
 44
0.0000000001
 40
0.0
 40
0.0
 40
0.0
 40
0.0
 40
0.1142403202
 40
0.235668474
 40
0.3641486035
 40
0.494003062
 40
0.7498496742
 40
1.0
 40
1.0
 40
1.0
 40
1.0
 10
900.7960326448
 20
553.5498346706
 30
0.0
 10
900.7754069819
 20
553.5259460709
 30
0.0
 10
900.7409321534
 20
553.4673410578
 30
0.0
 10
900.7428681703
 20
553.3620396245
 30
0.0
 10
900.7900638645
 20
553.2661827764
 30
0.0
 10
900.8812998685
 20
553.1564943815
 30
0.0
 10
901.0213437776
 20
553.0477764799
 30
0.0
 10
901.1438069057
 20
552.9798068919
 30
0.0
 10
901.206077337
 20
552.9498346706
 30
0.0
  0
SPLINE
  5
727
100
AcDbEntity
  8
7_ALL_FEATURES
100
AcDbSpline
 62
7
  6
CONTINUOUS
 70
0
 71
3
 72
13
 73
9
 74
0
 42
0.0000001
 43
0.0000001
 44
0.0000000001
 40
0.0
 40
0.0
 40
0.0
 40
0.0
 40
0.1142403202
 40
0.235668474
 40
0.3641486035
 40
0.494003062
 40
0.7498496742
 40
1.0
 40
1.0
 40
1.0
 40
1.0
 10
650.7960326448
 20
553.5498346706
 30
0.0
 10
650.7754069819
 20
553.5259460709
 30
0.0
 10
650.7409321534
 20
553.4673410578
 30
0.0
 10
650.7428681703
 20
553.3620396245
 30
0.0
 10
650.7900638645
 20
553.2661827764
 30
0.0
 10
650.8812998685
 20
553.1564943815
 30
0.0
 10
651.0213437776
 20
553.0477764799
 30
0.0
 10
651.1438069057
 20
552.9798068919
 30
0.0
 10
651.206077337
 20
552.9498346706
 30
0.0
  0
SPLINE
  5
728
100
AcDbEntity
  8
7_ALL_FEATURES
100
AcDbSpline
 62
7
  6
CONTINUOUS
 70
0
 71
3
 72
13
 73
9
 74
0
 42
0.0000001
 43
0.0000001
 44
0.0000000001
 40
0.0
 40
0.0
 40
0.0
 40
0.0
 40
0.250152565
 40
0.5060012204
 40
0.6358568096
 40
0.7643378458
 40
0.8857624998
 40
1.0
 40
1.0
 40
1.0
 40
1.0
 10
892.8944549347
 20
552.9498346706
 30
0.0
 10
892.9567259378
 20
552.9798071671
 30
0.0
 10
893.0791901497
 20
553.0477773632
 30
0.0
 10
893.2192347874
 20
553.1564969003
 30
0.0
 10
893.3104711583
 20
553.2661864553
 30
0.0
 10
893.3576656493
 20
553.3620438037
 30
0.0
 10
893.359598825
 20
553.4673435547
 30
0.0
 10
893.3251247854
 20
553.5259466551
 30
0.0
 10
893.3044996269
 20
553.5498346706
 30
0.0
  0
SPLINE
  5
729
100
AcDbEntity
  8
7_ALL_FEATURES
100
AcDbSpline
 62
7
  6
CONTINUOUS
 70
0
 71
3
 72
13
 73
9
 74
0
 42
0.0000001
 43
0.0000001
 44
0.0000000001
 40
0.0
 40
0.0
 40
0.0
 40
0.0
 40
0.1142403202
 40
0.235668474
 40
0.3641486035
 40
0.494003062
 40
0.7498496742
 40
1.0
 40
1.0
 40
1.0
 40
1.0
 10
400.7960326448
 20
553.5498346706
 30
0.0
 10
400.7754069819
 20
553.5259460709
 30
0.0
 10
400.7409321534
 20
553.4673410578
 30
0.0
 10
400.7428681703
 20
553.3620396245
 30
0.0
 10
400.7900638645
 20
553.2661827764
 30
0.0
 10
400.8812998685
 20
553.1564943815
 30
0.0
 10
401.0213437776
 20
553.0477764799
 30
0.0
 10
401.1438069057
 20
552.9798068919
 30
0.0
 10
401.206077337
 20
552.9498346706
 30
0.0
  0
SPLINE
  5
72A
100
AcDbEntity
  8
7_ALL_FEATURES
100
AcDbSpline
 62
7
  6
CONTINUOUS
 70
0
 71
3
 72
13
 73
9
 74
0
 42
0.0000001
 43
0.0000001
 44
0.0000000001
 40
0.0
 40
0.0
 40
0.0
 40
0.0
 40
0.250152565
 40
0.5060012204
 40
0.6358568096
 40
0.7643378458
 40
0.8857624998
 40
1.0
 40
1.0
 40
1.0
 40
1.0
 10
642.8944549347
 20
552.9498346706
 30
0.0
 10
642.9567259378
 20
552.9798071671
 30
0.0
 10
643.0791901497
 20
553.0477773632
 30
0.0
 10
643.2192347874
 20
553.1564969003
 30
0.0
 10
643.3104711583
 20
553.2661864553
 30
0.0
 10
643.3576656493
 20
553.3620438037
 30
0.0
 10
643.359598825
 20
553.4673435547
 30
0.0
 10
643.3251247854
 20
553.5259466551
 30
0.0
 10
643.3044996269
 20
553.5498346706
 30
0.0
  0
SPLINE
  5
72B
100
AcDbEntity
  8
7_ALL_FEATURES
100
AcDbSpline
 62
7
  6
CONTINUOUS
 70
0
 71
3
 72
13
 73
9
 74
0
 42
0.0000001
 43
0.0000001
 44
0.0000000001
 40
0.0
 40
0.0
 40
0.0
 40
0.0
 40
0.250152565
 40
0.5060012204
 40
0.6358568096
 40
0.7643378458
 40
0.8857624998
 40
1.0
 40
1.0
 40
1.0
 40
1.0
 10
392.8944549347
 20
552.9498346706
 30
0.0
 10
392.9567259378
 20
552.9798071671
 30
0.0
 10
393.0791901497
 20
553.0477773632
 30
0.0
 10
393.2192347874
 20
553.1564969003
 30
0.0
 10
393.3104711583
 20
553.2661864553
 30
0.0
 10
393.3576656493
 20
553.3620438037
 30
0.0
 10
393.359598825
 20
553.4673435547
 30
0.0
 10
393.3251247854
 20
553.5259466551
 30
0.0
 10
393.3044996269
 20
553.5498346706
 30
0.0
  0
SPLINE
  5
72C
100
AcDbEntity
  8
7_ALL_FEATURES
100
AcDbSpline
 62
7
  6
CONTINUOUS
 70
0
 71
3
 72
11
 73
7
 74
0
 42
0.0000001
 43
0.0000001
 44
0.0000000001
 40
0.0
 40
0.0
 40
0.0
 40
0.0
 40
0.2446243093
 40
0.5012344905
 40
0.7575065478
 40
1.0
 40
1.0
 40
1.0
 40
1.0
 10
901.8493042416
 20
550.5498346706
 30
0.0
 10
901.8039354257
 20
550.5149097399
 30
0.0
 10
901.719041546
 20
550.4313453995
 30
0.0
 10
901.6480610237
 20
550.2595045789
 30
0.0
 10
901.6885901591
 20
550.0763134619
 30
0.0
 10
901.7682997956
 20
549.9864689009
 30
0.0
 10
901.8116489959
 20
549.9498346706
 30
0.0
  0
SPLINE
  5
72D
100
AcDbEntity
  8
7_ALL_FEATURES
100
AcDbSpline
 62
7
  6
CONTINUOUS
 70
0
 71
3
 72
11
 73
7
 74
0
 42
0.0000001
 43
0.0000001
 44
0.0000000001
 40
0.0
 40
0.0
 40
0.0
 40
0.0
 40
0.2446243093
 40
0.5012344905
 40
0.7575065478
 40
1.0
 40
1.0
 40
1.0
 40
1.0
 10
651.8493042416
 20
550.5498346706
 30
0.0
 10
651.8039354257
 20
550.5149097399
 30
0.0
 10
651.719041546
 20
550.4313453995
 30
0.0
 10
651.6480610237
 20
550.2595045789
 30
0.0
 10
651.6885901591
 20
550.0763134619
 30
0.0
 10
651.7682997956
 20
549.9864689009
 30
0.0
 10
651.8116489959
 20
549.9498346706
 30
0.0
  0
SPLINE
  5
72E
100
AcDbEntity
  8
7_ALL_FEATURES
100
AcDbSpline
 62
7
  6
CONTINUOUS
 70
0
 71
3
 72
11
 73
7
 74
0
 42
0.0000001
 43
0.0000001
 44
0.0000000001
 40
0.0
 40
0.0
 40
0.0
 40
0.0
 40
0.2424934522
 40
0.4987655095
 40
0.7553756907
 40
1.0
 40
1.0
 40
1.0
 40
1.0
 10
892.2888832759
 20
549.9498346706
 30
0.0
 10
892.3322324762
 20
549.9864689009
 30
0.0
 10
892.4119421126
 20
550.0763134619
 30
0.0
 10
892.452471248
 20
550.2595045789
 30
0.0
 10
892.3814907258
 20
550.4313453995
 30
0.0
 10
892.296596846
 20
550.5149097399
 30
0.0
 10
892.2512280302
 20
550.5498346706
 30
0.0
  0
SPLINE
  5
72F
100
AcDbEntity
  8
7_ALL_FEATURES
100
AcDbSpline
 62
7
  6
CONTINUOUS
 70
0
 71
3
 72
11
 73
7
 74
0
 42
0.0000001
 43
0.0000001
 44
0.0000000001
 40
0.0
 40
0.0
 40
0.0
 40
0.0
 40
0.2446243093
 40
0.5012344905
 40
0.7575065478
 40
1.0
 40
1.0
 40
1.0
 40
1.0
 10
401.8493042416
 20
550.5498346706
 30
0.0
 10
401.8039354257
 20
550.5149097399
 30
0.0
 10
401.719041546
 20
550.4313453995
 30
0.0
 10
401.6480610237
 20
550.2595045789
 30
0.0
 10
401.6885901591
 20
550.0763134619
 30
0.0
 10
401.7682997956
 20
549.9864689009
 30
0.0
 10
401.8116489959
 20
549.9498346706
 30
0.0
  0
SPLINE
  5
730
100
AcDbEntity
  8
7_ALL_FEATURES
100
AcDbSpline
 62
7
  6
CONTINUOUS
 70
0
 71
3
 72
11
 73
7
 74
0
 42
0.0000001
 43
0.0000001
 44
0.0000000001
 40
0.0
 40
0.0
 40
0.0
 40
0.0
 40
0.2424934522
 40
0.4987655095
 40
0.7553756907
 40
1.0
 40
1.0
 40
1.0
 40
1.0
 10
642.2888832759
 20
549.9498346706
 30
0.0
 10
642.3322324762
 20
549.9864689009
 30
0.0
 10
642.4119421126
 20
550.0763134619
 30
0.0
 10
642.452471248
 20
550.2595045789
 30
0.0
 10
642.3814907258
 20
550.4313453995
 30
0.0
 10
642.296596846
 20
550.5149097399
 30
0.0
 10
642.2512280302
 20
550.5498346706
 30
0.0
  0
SPLINE
  5
731
100
AcDbEntity
  8
7_ALL_FEATURES
100
AcDbSpline
 62
7
  6
CONTINUOUS
 70
0
 71
3
 72
11
 73
7
 74
0
 42
0.0000001
 43
0.0000001
 44
0.0000000001
 40
0.0
 40
0.0
 40
0.0
 40
0.0
 40
0.2424934522
 40
0.4987655095
 40
0.7553756907
 40
1.0
 40
1.0
 40
1.0
 40
1.0
 10
392.2888832759
 20
549.9498346706
 30
0.0
 10
392.3322324762
 20
549.9864689009
 30
0.0
 10
392.4119421126
 20
550.0763134619
 30
0.0
 10
392.452471248
 20
550.2595045789
 30
0.0
 10
392.3814907258
 20
550.4313453995
 30
0.0
 10
392.296596846
 20
550.5149097399
 30
0.0
 10
392.2512280302
 20
550.5498346706
 30
0.0
  0
SPLINE
  5
732
100
AcDbEntity
  8
6_ALL_SURFS
100
AcDbSpline
 62
7
  6
CONTINUOUS
 70
0
 71
3
 72
13
 73
9
 74
0
 42
0.0000001
 43
0.0000001
 44
0.0000000001
 40
0.0
 40
0.0
 40
0.0
 40
0.0
 40
0.250152565
 40
0.5060012204
 40
0.6358568096
 40
0.7643378458
 40
0.8857624998
 40
1.0
 40
1.0
 40
1.0
 40
1.0
 10
392.8944549347
 20
618.2498346706
 30
0.0
 10
392.9567259378
 20
618.2198621741
 30
0.0
 10
393.0791901497
 20
618.151891978
 30
0.0
 10
393.2192347874
 20
618.0431724409
 30
0.0
 10
393.3104711583
 20
617.9334828859
 30
0.0
 10
393.3576656493
 20
617.8376255375
 30
0.0
 10
393.359598825
 20
617.7323257865
 30
0.0
 10
393.3251247854
 20
617.6737226861
 30
0.0
 10
393.3044996269
 20
617.6498346706
 30
0.0
  0
SPLINE
  5
733
100
AcDbEntity
  8
6_ALL_SURFS
100
AcDbSpline
 62
7
  6
CONTINUOUS
 70
0
 71
3
 72
13
 73
9
 74
0
 42
0.0000001
 43
0.0000001
 44
0.0000000001
 40
0.0
 40
0.0
 40
0.0
 40
0.0
 40
0.250152565
 40
0.5060012204
 40
0.6358568096
 40
0.7643378458
 40
0.8857624998
 40
1.0
 40
1.0
 40
1.0
 40
1.0
 10
642.8944549347
 20
618.2498346706
 30
0.0
 10
642.9567259378
 20
618.2198621741
 30
0.0
 10
643.0791901497
 20
618.151891978
 30
0.0
 10
643.2192347874
 20
618.0431724409
 30
0.0
 10
643.3104711583
 20
617.9334828859
 30
0.0
 10
643.3576656493
 20
617.8376255375
 30
0.0
 10
643.359598825
 20
617.7323257865
 30
0.0
 10
643.3251247854
 20
617.6737226861
 30
0.0
 10
643.3044996269
 20
617.6498346706
 30
0.0
  0
SPLINE
  5
734
100
AcDbEntity
  8
6_ALL_SURFS
100
AcDbSpline
 62
7
  6
CONTINUOUS
 70
0
 71
3
 72
13
 73
9
 74
0
 42
0.0000001
 43
0.0000001
 44
0.0000000001
 40
0.0
 40
0.0
 40
0.0
 40
0.0
 40
0.1142403202
 40
0.235668474
 40
0.3641486035
 40
0.494003062
 40
0.7498496742
 40
1.0
 40
1.0
 40
1.0
 40
1.0
 10
400.7960326448
 20
617.6498346706
 30
0.0
 10
400.7754069819
 20
617.6737232703
 30
0.0
 10
400.7409321534
 20
617.7323282834
 30
0.0
 10
400.7428681703
 20
617.8376297167
 30
0.0
 10
400.7900638645
 20
617.9334865648
 30
0.0
 10
400.8812998685
 20
618.0431749596
 30
0.0
 10
401.0213437776
 20
618.1518928612
 30
0.0
 10
401.1438069057
 20
618.2198624493
 30
0.0
 10
401.206077337
 20
618.2498346706
 30
0.0
  0
ELLIPSE
  5
735
100
AcDbEntity
  8
7_ALL_FEATURES
100
AcDbEllipse
 62
7
  6
CONTINUOUS
 10
384.1850931641
 20
81.1498346706
 30
0.0
 11
5.5724287509
 21
0.0
 31
0.0
 40
0.9848857802
 41
5.6418497502
 42
6.9245208642
  0
ELLIPSE
  5
736
100
AcDbEntity
  8
7_ALL_FEATURES
100
AcDbEllipse
 62
7
  6
CONTINUOUS
 10
384.1850931641
 20
281.1498346706
 30
0.0
 11
5.5724287509
 21
-0.0
 31
0.0
 40
0.9848857802
 41
5.6418497502
 42
6.9245208642
  0
ELLIPSE
  5
737
100
AcDbEntity
  8
7_ALL_FEATURES
100
AcDbEllipse
 62
7
  6
CONTINUOUS
 10
384.1850931641
 20
481.1498346706
 30
0.0
 11
5.5724287509
 21
-0.0
 31
0.0
 40
0.9848857802
 41
5.6418497502
 42
6.9245208642
  0
ELLIPSE
  5
738
100
AcDbEntity
  8
6_ALL_SURFS
100
AcDbEllipse
 62
7
  6
CONTINUOUS
 10
316.0154391077
 20
81.1498346706
 30
0.0
 11
5.5724287509
 21
-0.0
 31
0.0
 40
0.9848857802
 41
2.5002570966
 42
3.7829282106
  0
ELLIPSE
  5
739
100
AcDbEntity
  8
6_ALL_SURFS
100
AcDbEllipse
 62
7
  6
CONTINUOUS
 10
316.0154391077
 20
281.1498346706
 30
0.0
 11
5.5724287509
 21
0.0
 31
0.0
 40
0.9848857802
 41
2.5002570966
 42
3.7829282106
  0
ELLIPSE
  5
73A
100
AcDbEntity
  8
6_ALL_SURFS
100
AcDbEllipse
 62
7
  6
CONTINUOUS
 10
316.0154391077
 20
481.1498346706
 30
0.0
 11
5.5724287509
 21
0.0
 31
0.0
 40
0.9848857802
 41
2.5002570966
 42
3.7829282106
  0
ELLIPSE
  5
73B
100
AcDbEntity
  8
7_ALL_FEATURES
100
AcDbEllipse
 62
7
  6
CONTINUOUS
 10
397.0502661359
 20
551.5150076424
 30
0.0
 11
0.0
 21
5.5724287509
 31
0.0
 40
0.9848857802
 41
2.5002570966
 42
3.7829282106
  0
ELLIPSE
  5
73C
100
AcDbEntity
  8
7_ALL_FEATURES
100
AcDbEllipse
 62
7
  6
CONTINUOUS
 10
647.0502661359
 20
551.5150076424
 30
0.0
 11
0.0
 21
5.5724287509
 31
0.0
 40
0.9848857802
 41
2.5002570966
 42
3.7829282106
  0
ELLIPSE
  5
73D
100
AcDbEntity
  8
7_ALL_FEATURES
100
AcDbEllipse
 62
7
  6
CONTINUOUS
 10
897.0502661359
 20
551.5150076424
 30
0.0
 11
0.0
 21
5.5724287509
 31
0.0
 40
0.9848857802
 41
2.5002570966
 42
3.7829282106
  0
ELLIPSE
  5
73E
100
AcDbEntity
  8
6_ALL_SURFS
100
AcDbEllipse
 62
7
  6
CONTINUOUS
 10
397.0502661359
 20
619.6846616988
 30
0.0
 11
-0.0
 21
5.5724287509
 31
0.0
 40
0.9848857802
 41
-0.641335557
 42
0.641335557
  0
ELLIPSE
  5
73F
100
AcDbEntity
  8
6_ALL_SURFS
100
AcDbEllipse
 62
7
  6
CONTINUOUS
 10
647.0502661359
 20
619.6846616988
 30
0.0
 11
-0.0
 21
5.5724287509
 31
0.0
 40
0.9848857802
 41
-0.641335557
 42
0.641335557
  0
ELLIPSE
  5
740
100
AcDbEntity
  8
6_ALL_SURFS
100
AcDbEllipse
 62
7
  6
CONTINUOUS
 10
897.0502661359
 20
619.6846616988
 30
0.0
 11
-0.0
 21
5.5724287509
 31
0.0
 40
0.9848857802
 41
-0.641335557
 42
0.641335557
  0
ELLIPSE
  5
741
100
AcDbEntity
  8
7_ALL_FEATURES
100
AcDbEllipse
 62
7
  6
CONTINUOUS
 10
332.3610545254
 20
773.5700766129
 30
0.0
 11
0.4
 21
-0.0
 31
0.0
 40
1.0
 41
-2.024069789
 42
-1.5707963436
  0
ELLIPSE
  5
742
100
AcDbEntity
  8
7_ALL_FEATURES
100
AcDbEllipse
 62
7
  6
CONTINUOUS
 10
368.5394777463
 20
773.5700766129
 30
0.0
 11
0.4
 21
0.0
 31
0.0
 40
1.0
 41
-1.9701596302
 42
-1.5707963099
  0
ELLIPSE
  5
743
100
AcDbEntity
  8
7_ALL_FEATURES
100
AcDbEllipse
 62
7
  6
CONTINUOUS
 10
368.5394777463
 20
773.5700766129
 30
0.0
 11
-0.0
 21
0.4
 31
0.0
 40
1.0
 41
-3.5921912059
 42
-3.540955957
  0
ELLIPSE
  5
744
100
AcDbEntity
  8
7_ALL_FEATURES
100
AcDbEllipse
 62
7
  6
CONTINUOUS
 10
368.5394777463
 20
773.5700766129
 30
0.0
 11
0.0
 21
0.4
 31
0.0
 40
1.0
 41
-3.1415926367
 42
-2.3212879051
  0
ELLIPSE
  5
745
100
AcDbEntity
  8
7_ALL_FEATURES
100
AcDbEllipse
 62
7
  6
CONTINUOUS
 10
369.6002661359
 20
777.6700766129
 30
0.0
 11
0.0
 21
0.2
 31
0.0
 40
1.0
 41
-0.2528405209
 42
0.0
  0
ELLIPSE
  5
746
100
AcDbEntity
  8
7_ALL_FEATURES
100
AcDbEllipse
 62
7
  6
CONTINUOUS
 10
368.7502661359
 20
776.6700766129
 30
0.0
 11
0.0
 21
0.2
 31
0.0
 40
1.0
 41
0.0
 42
1.5707963268
  0
ELLIPSE
  5
747
100
AcDbEntity
  8
7_ALL_FEATURES
100
AcDbEllipse
 62
7
  6
CONTINUOUS
 10
369.5502661359
 20
776.0500766129
 30
0.0
 11
1.0
 21
-0.0
 31
0.0
 40
1.0
 41
-3.1415926536
 42
-2.9108915208
  0
ELLIPSE
  5
748
100
AcDbEntity
  8
7_ALL_FEATURES
100
AcDbEllipse
 62
7
  6
CONTINUOUS
 10
369.5502661359
 20
776.0500766129
 30
0.0
 11
0.0
 21
1.0
 31
0.0
 40
1.0
 41
-3.9621588773
 42
-3.715105758
  0
ELLIPSE
  5
749
100
AcDbEntity
  8
7_ALL_FEATURES
100
AcDbEllipse
 62
7
  6
CONTINUOUS
 10
333.3502661359
 20
776.5700766129
 30
0.0
 11
0.0
 21
0.2
 31
0.0
 40
1.0
 41
0.0
 42
1.5707963268
  0
ELLIPSE
  5
74A
100
AcDbEntity
  8
7_ALL_FEATURES
100
AcDbEllipse
 62
7
  6
CONTINUOUS
 10
331.3502661359
 20
776.0500766129
 30
0.0
 11
1.8
 21
0.0
 31
0.0
 40
1.0
 41
-0.9972832224
 42
0.0
  0
ELLIPSE
  5
74B
100
AcDbEntity
  8
7_ALL_FEATURES
100
AcDbEllipse
 62
7
  6
CONTINUOUS
 10
332.4354389332
 20
774.3700766129
 30
0.0
 11
0.2
 21
0.0
 31
0.0
 40
1.0
 41
2.1443094312
 42
3.8920842319
  0
ELLIPSE
  5
74C
100
AcDbEntity
  8
7_ALL_FEATURES
100
AcDbEllipse
 62
7
  6
CONTINUOUS
 10
332.3610545254
 20
773.5700766129
 30
0.0
 11
0.0
 21
0.4
 31
0.0
 40
1.0
 41
-3.1415926704
 42
-0.8203047484
  0
ELLIPSE
  5
74D
100
AcDbEntity
  8
7_ALL_FEATURES
100
AcDbEllipse
 62
7
  6
CONTINUOUS
 10
368.4650933386
 20
774.3700766129
 30
0.0
 11
0.0
 21
1.0
 31
0.0
 40
1.0
 41
-2.3212879051
 42
-0.5735131044
  0
ELLIPSE
  5
74E
100
AcDbEntity
  8
7_ALL_FEATURES
100
AcDbEllipse
 62
7
  6
CONTINUOUS
 10
397.0502661359
 20
791.8165939101
 30
0.0
 11
5.4882058378
 21
0.0
 31
0.0
 40
0.1015346165
 41
4.0710534234
 42
5.3537245374
  0
ELLIPSE
  5
74F
100
AcDbEntity
  8
7_ALL_FEATURES
100
AcDbEllipse
 62
7
  6
CONTINUOUS
 10
647.0502661359
 20
791.8165939101
 30
0.0
 11
5.4882058378
 21
0.0
 31
0.0
 40
0.1015346165
 41
4.0710534234
 42
5.3537245374
  0
ELLIPSE
  5
750
100
AcDbEntity
  8
7_ALL_FEATURES
100
AcDbEllipse
 62
7
  6
CONTINUOUS
 10
897.0502661359
 20
791.8165939101
 30
0.0
 11
5.4882058378
 21
0.0
 31
0.0
 40
0.1015346165
 41
4.0710534234
 42
5.3537245374
  0
ELLIPSE
  5
751
100
AcDbEntity
  8
7_ALL_FEATURES
100
AcDbEllipse
 62
7
  6
CONTINUOUS
 10
397.0502661359
 20
788.5700766129
 30
0.0
 11
3.5
 21
0.0
 31
0.0
 40
0.5
 41
7.5142890578
 42
8.1936742101
  0
ELLIPSE
  5
752
100
AcDbEntity
  8
7_ALL_FEATURES
100
AcDbEllipse
 62
7
  6
CONTINUOUS
 10
897.0502661359
 20
788.5700766129
 30
0.0
 11
3.5
 21
0.0
 31
0.0
 40
0.5
 41
7.5142890578
 42
8.1936742101
  0
ELLIPSE
  5
753
100
AcDbEntity
  8
7_ALL_FEATURES
100
AcDbEllipse
 62
7
  6
CONTINUOUS
 10
647.0502661359
 20
788.5700766129
 30
0.0
 11
3.5
 21
0.0
 31
0.0
 40
0.5
 41
7.5142890578
 42
8.1936742101
  0
ELLIPSE
  5
754
100
AcDbEntity
  8
7_ALL_FEATURES
100
AcDbEllipse
 62
7
  6
CONTINUOUS
 10
97.908266129
 20
603.339046281
 30
0.0
 11
0.0
 21
0.4
 31
0.0
 40
1.0
 41
-1.5707963093
 42
-1.1175136982
  0
ELLIPSE
  5
755
100
AcDbEntity
  8
7_ALL_FEATURES
100
AcDbEllipse
 62
7
  6
CONTINUOUS
 10
97.908266129
 20
567.1606230601
 30
0.0
 11
0.4
 21
0.0
 31
0.0
 40
1.0
 41
6.2831852897
 42
6.7337671273
  0
ELLIPSE
  5
756
100
AcDbEntity
  8
7_ALL_FEATURES
100
AcDbEllipse
 62
7
  6
CONTINUOUS
 10
97.108266129
 20
603.2646618733
 30
0.0
 11
0.0
 21
0.2
 31
0.0
 40
1.0
 41
-0.7504915784
 42
0.9972832224
  0
ELLIPSE
  5
757
100
AcDbEntity
  8
7_ALL_FEATURES
100
AcDbEllipse
 62
7
  6
CONTINUOUS
 10
95.428266129
 20
604.3498346706
 30
0.0
 11
0.0
 21
1.8
 31
0.0
 40
1.0
 41
-3.1415926536
 42
-2.1443094312
  0
ELLIPSE
  5
758
100
AcDbEntity
  8
7_ALL_FEATURES
100
AcDbEllipse
 62
7
  6
CONTINUOUS
 10
94.908266129
 20
602.3498346706
 30
0.0
 11
-0.0
 21
0.2
 31
0.0
 40
1.0
 41
0.0
 42
1.5707963268
  0
ELLIPSE
  5
759
100
AcDbEntity
  8
7_ALL_FEATURES
100
AcDbEllipse
 62
7
  6
CONTINUOUS
 10
97.908266129
 20
567.1606230601
 30
0.0
 11
0.0
 21
0.4
 31
0.0
 40
1.0
 41
-2.3911010752
 42
-1.5707963443
  0
ELLIPSE
  5
75A
100
AcDbEntity
  8
7_ALL_FEATURES
100
AcDbEllipse
 62
7
  6
CONTINUOUS
 10
97.108266129
 20
567.2350074679
 30
0.0
 11
1.0
 21
-0.0
 31
0.0
 40
1.0
 41
-2.5680795492
 42
-0.8203047484
  0
ELLIPSE
  5
75B
100
AcDbEntity
  8
7_ALL_FEATURES
100
AcDbEllipse
 62
7
  6
CONTINUOUS
 10
95.428266129
 20
566.1498346706
 30
0.0
 11
-0.0
 21
1.0
 31
0.0
 40
1.0
 41
-0.2307011328
 42
0.0
  0
ELLIPSE
  5
75C
100
AcDbEntity
  8
7_ALL_FEATURES
100
AcDbEllipse
 62
7
  6
CONTINUOUS
 10
95.428266129
 20
566.1498346706
 30
0.0
 11
1.0
 21
-0.0
 31
0.0
 40
1.0
 41
0.5735131044
 42
0.8205662237
  0
ELLIPSE
  5
75D
100
AcDbEntity
  8
7_ALL_FEATURES
100
AcDbEllipse
 62
7
  6
CONTINUOUS
 10
94.808266129
 20
566.9498346706
 30
0.0
 11
0.0
 21
0.2
 31
0.0
 40
1.0
 41
0.0
 42
1.5707963268
  0
ELLIPSE
  5
75E
100
AcDbEntity
  8
7_ALL_FEATURES
100
AcDbEllipse
 62
7
  6
CONTINUOUS
 10
93.808266129
 20
566.0998346706
 30
0.0
 11
-0.0
 21
0.2
 31
0.0
 40
1.0
 41
1.5707963268
 42
1.8236434953
  0
ELLIPSE
  5
75F
100
AcDbEntity
  8
7_ALL_FEATURES
100
AcDbEllipse
 62
7
  6
CONTINUOUS
 10
97.908266129
 20
603.339046281
 30
0.0
 11
0.4
 21
0.0
 31
0.0
 40
1.0
 41
-2.3212879052
 42
0.0000000175
  0
ELLIPSE
  5
760
100
AcDbEntity
  8
7_ALL_FEATURES
100
AcDbEllipse
 62
7
  6
CONTINUOUS
 10
79.6617488319
 20
81.1498346706
 30
0.0
 11
0.0
 21
5.4882058378
 31
0.0
 40
0.1015346165
 41
4.0710534234
 42
5.3537245374
  0
ELLIPSE
  5
761
100
AcDbEntity
  8
7_ALL_FEATURES
100
AcDbEllipse
 62
7
  6
CONTINUOUS
 10
79.6617488319
 20
281.1498346706
 30
0.0
 11
-0.0
 21
5.4882058378
 31
0.0
 40
0.1015346165
 41
4.0710534234
 42
5.3537245374
  0
ELLIPSE
  5
762
100
AcDbEntity
  8
7_ALL_FEATURES
100
AcDbEllipse
 62
7
  6
CONTINUOUS
 10
79.6617488319
 20
481.1498346706
 30
0.0
 11
-0.0
 21
5.4882058378
 31
0.0
 40
0.1015346165
 41
4.0710534234
 42
5.3537245374
  0
ELLIPSE
  5
763
100
AcDbEntity
  8
7_ALL_FEATURES
100
AcDbEllipse
 62
7
  6
CONTINUOUS
 10
82.908266129
 20
81.1498346706
 30
0.0
 11
-0.0
 21
3.5
 31
0.0
 40
0.5
 41
7.5142890578
 42
8.1936742101
  0
ELLIPSE
  5
764
100
AcDbEntity
  8
7_ALL_FEATURES
100
AcDbEllipse
 62
7
  6
CONTINUOUS
 10
82.908266129
 20
481.1498346706
 30
0.0
 11
0.0
 21
3.5
 31
0.0
 40
0.5
 41
1.2311037506
 42
1.910488903
  0
ELLIPSE
  5
765
100
AcDbEntity
  8
7_ALL_FEATURES
100
AcDbEllipse
 62
7
  6
CONTINUOUS
 10
82.908266129
 20
281.1498346706
 30
0.0
 11
0.0
 21
3.5
 31
0.0
 40
0.5
 41
1.2311037506
 42
1.910488903
  0
ENDSEC
  0
SECTION
  2
OBJECTS
  0
DICTIONARY
  5
766
100
AcDbDictionary
  3
ACAD_GROUP
350
767
  3
ACAD_MLINESTYLE
350
768
  0
DICTIONARY
  5
767
102
{ACAD_REACTORS
330
766
102
}
100
AcDbDictionary
  0
DICTIONARY
  5
768
102
{ACAD_REACTORS
330
766
102
}
100
AcDbDictionary
  3
STANDARD
350
769
  0
MLINESTYLE
  5
769
102
{ACAD_REACTORS
330
768
102
}
100
AcDbMlineStyle
  2
STANDARD
 70
0
  3

 62
256
 51
90.0
 52
90.0
 71
2
 49
0.5
 62
256
  6
BYLAYER
 49
-0.5
 62
256
  6
BYLAYER
  0
ENDSEC
  0
EOF
