999
DXF file: 6f3_c_046.dxf
999
Pro/ENGINEER 2016360 by Parametric Technology Corporation
  0
SECTION
  2
HEADER
  9
$ACADVER
  1
AC1014
  9
$DWGCODEPAGE
  3
ANSI_1252
  9
$EXTMAX
 10
3200.0
 20
2500.0
 30
0.0
  9
$EXTMIN
 10
0.0
 20
0.0
 30
0.0
  9
$LIMMIN
 10
0.0
 20
0.0
  9
$LIMMAX
 10
3200.0
 20
2500.0
  9
$VIEWCTR
 10
1600.0
 20
1250.0
  9
$VIEWSIZE
 40
2500.0
  9
$CLAYER
  8
0
  9
$LTSCALE
 40
176.0
  9
$CELTYPE
  6
BYLAYER
  9
$DIMSCALE
 40
1.0
  9
$DIMASZ
 40
2.5
  9
$DIMEXO
 40
0.75
  9
$DIMDLI
 40
121.6
  9
$DIMEXE
 40
0.75
  9
$DIMCEN
 40
28.8
  9
$DIMLFAC
 40
1.0
  9
$DIMBLK
  1
_CLOSED
  9
$DIMALT
 70
0
  9
$DIMALTF
 40
25.4
  9
$DIMTXT
 40
3.0
  9
$DIMTOL
 70
1
  9
$DIMLIM
 70
0
  9
$DIMTFAC
 40
1.0
  9
$DIMTP
 40
0.01
  9
$DIMTM
 40
0.01
  9
$DIMGAP
 40
0.625
  9
$AUNITS
 70
0
  9
$PDMODE
 70
3
  9
$PDSIZE
 40
0.3125
  9
$HANDSEED
  5
56F
  9
$TILEMODE
 70
1
  9
$MEASUREMENT
 70
1
  0
ENDSEC
  0
SECTION
  2
CLASSES
  0
ENDSEC
  0
SECTION
  2
TABLES
  0
TABLE
  2
VPORT
  5
8
100
AcDbSymbolTable
 70
2
  0
VPORT
  5
1F4
100
AcDbSymbolTableRecord
100
AcDbViewportTableRecord
  2
*ACTIVE
 70
0
 10
0.0
 20
0.0
 11
1.0
 21
1.0
 12
1600.0
 22
1250.0
 13
0.0
 23
0.0
 14
1.0
 24
1.0
 15
0.0
 25
0.0
 16
0.0
 26
0.0
 36
1.0
 17
0.0
 27
0.0
 37
0.0
 40
2500.0
 41
1.28
 42
50.0
 43
0.0
 44
0.0
 50
0.0
 51
0.0
 71
0
 72
100
 73
1
 74
1
 75
0
 76
0
 77
0
 78
0
  0
ENDTAB
  0
TABLE
  2
LTYPE
  5
5
100
AcDbSymbolTable
 70
6
  0
LTYPE
  5
14
100
AcDbSymbolTableRecord
100
AcDbLinetypeTableRecord
  2
BYBLOCK
 70
0
  3

 72
65
 73
0
 40
0.0
  0
LTYPE
  5
15
100
AcDbSymbolTableRecord
100
AcDbLinetypeTableRecord
  2
BYLAYER
 70
0
  3

 72
65
 73
0
 40
0.0
  0
LTYPE
  5
16
100
AcDbSymbolTableRecord
100
AcDbLinetypeTableRecord
  2
CONTINUOUS
 70
64
  3
Solid line
 72
65
 73
0
 40
0.0
  0
LTYPE
  5
1F5
100
AcDbSymbolTableRecord
100
AcDbLinetypeTableRecord
  2
CENTER
 70
64
  3
____ _ ____ _ ____ _ ____ _ ____ _ ____ _ ____
 72
65
 73
4
 40
0.6
 49
0.375
 74
0
 49
-0.075
 74
0
 49
0.075
 74
0
 49
-0.075
 74
0
  0
LTYPE
  5
1F6
100
AcDbSymbolTableRecord
100
AcDbLinetypeTableRecord
  2
HIDDEN
 70
64
  3
- - - - - - - - - - - - - - - - - - - -
 72
65
 73
2
 40
0.2
 49
0.1
 74
0
 49
-0.1
 74
0
  0
LTYPE
  5
1F7
100
AcDbSymbolTableRecord
100
AcDbLinetypeTableRecord
  2
PHANTOM
 70
64
  3
_____ _ _ _____ _ _ _____ _ _ _____
 72
65
 73
6
 40
0.8
 49
0.45
 74
0
 49
-0.05
 74
0
 49
0.1
 74
0
 49
-0.05
 74
0
 49
0.1
 74
0
 49
-0.05
 74
0
  0
LTYPE
  5
1F8
100
AcDbSymbolTableRecord
100
AcDbLinetypeTableRecord
  2
DOT
 70
64
  3
. . . . . . . . . . . . . . . . . . . .
 72
65
 73
2
 40
0.2
 49
0.1
 74
0
 49
-0.1
 74
0
  0
LTYPE
  5
1F9
100
AcDbSymbolTableRecord
100
AcDbLinetypeTableRecord
  2
DASHED
 70
64
  3
- - - - - - - - - - - - - - - - - - - -
 72
65
 73
2
 40
0.2
 49
0.1
 74
0
 49
-0.1
 74
0
  0
ENDTAB
  0
TABLE
  2
LAYER
  5
2
100
AcDbSymbolTable
 70
36
  0
LAYER
  5
10
100
AcDbSymbolTableRecord
100
AcDbLayerTableRecord
  2
0
 70
0
 62
7
  6
CONTINUOUS
  0
LAYER
  5
1FA
100
AcDbSymbolTableRecord
100
AcDbLayerTableRecord
  2
DEFAULT_1
 70
0
 62
7
  6
CENTER
  0
LAYER
  5
1FB
100
AcDbSymbolTableRecord
100
AcDbLayerTableRecord
  2
DEFAULT_2
 70
0
 62
8
  6
HIDDEN
  0
LAYER
  5
1FC
100
AcDbSymbolTableRecord
100
AcDbLayerTableRecord
  2
DEFAULT_3
 70
0
 62
7
  6
PHANTOM
  0
LAYER
  5
1FD
100
AcDbSymbolTableRecord
100
AcDbLayerTableRecord
  2
1_ALL_PLANES
 70
0
 62
7
  6
CONTINUOUS
  0
LAYER
  5
1FE
100
AcDbSymbolTableRecord
100
AcDbLayerTableRecord
  2
2_ALL_CSYS
 70
0
 62
7
  6
CONTINUOUS
  0
LAYER
  5
1FF
100
AcDbSymbolTableRecord
100
AcDbLayerTableRecord
  2
3_ALL_AXES
 70
0
 62
7
  6
CONTINUOUS
  0
LAYER
  5
200
100
AcDbSymbolTableRecord
100
AcDbLayerTableRecord
  2
4_ALL_POINTS
 70
0
 62
7
  6
CONTINUOUS
  0
LAYER
  5
201
100
AcDbSymbolTableRecord
100
AcDbLayerTableRecord
  2
5_ALL_CURVES
 70
0
 62
7
  6
CONTINUOUS
  0
LAYER
  5
202
100
AcDbSymbolTableRecord
100
AcDbLayerTableRecord
  2
5__COSTRUZIONE
 70
0
 62
7
  6
CONTINUOUS
  0
LAYER
  5
203
100
AcDbSymbolTableRecord
100
AcDbLayerTableRecord
  2
6_ALL_SURFS
 70
0
 62
7
  6
CONTINUOUS
  0
LAYER
  5
204
100
AcDbSymbolTableRecord
100
AcDbLayerTableRecord
  2
7_ALL_FEATURES
 70
0
 62
7
  6
CONTINUOUS
  0
LAYER
  5
205
100
AcDbSymbolTableRecord
100
AcDbLayerTableRecord
  2
9_SOLID
 70
0
 62
7
  6
CONTINUOUS
  0
LAYER
  5
206
100
AcDbSymbolTableRecord
100
AcDbLayerTableRecord
  2
PR9034
 70
0
 62
7
  6
CONTINUOUS
  0
LAYER
  5
207
100
AcDbSymbolTableRecord
100
AcDbLayerTableRecord
  2
WHITE
 70
0
 62
7
  6
CONTINUOUS
  0
LAYER
  5
208
100
AcDbSymbolTableRecord
100
AcDbLayerTableRecord
  2
XXX_SOLIDO
 70
0
 62
7
  6
CONTINUOUS
  0
ENDTAB
  0
TABLE
  2
STYLE
  5
3
100
AcDbSymbolTable
 70
1
  0
STYLE
  5
11
100
AcDbSymbolTableRecord
100
AcDbTextStyleTableRecord
  2
STANDARD
 70
0
 40
0.0
 41
1.0
 50
0.0
 71
0
 42
0.2
  3
arial.ttf
  4

  0
STYLE
  5
209
100
AcDbSymbolTableRecord
100
AcDbTextStyleTableRecord
  2
TEXTSTYLE_1
 70
0
 40
0.0
 41
0.8
 50
0.0
 71
0
 42
0.2
  3
gdt
  4

  0
STYLE
  5
20A
100
AcDbSymbolTableRecord
100
AcDbTextStyleTableRecord
  2
TEXTSTYLE_2
 70
0
 40
0.0
 41
0.85
 50
0.0
 71
0
 42
0.2
  3
txt
  4

  0
ENDTAB
  0
TABLE
  2
VIEW
  5
6
100
AcDbSymbolTable
 70
0
  0
ENDTAB
  0
TABLE
  2
UCS
  5
7
100
AcDbSymbolTable
 70
0
  0
ENDTAB
  0
TABLE
  2
APPID
  5
9
100
AcDbSymbolTable
 70
1
  0
APPID
  5
20B
100
AcDbSymbolTableRecord
100
AcDbRegAppTableRecord
  2
ACAD
 70
0
  0
ENDTAB
  0
TABLE
  2
BLOCK_RECORD
  5
1
100
AcDbSymbolTable
 70
0
  0
BLOCK_RECORD
  5
1F
100
AcDbSymbolTableRecord
100
AcDbBlockTableRecord
  2
*MODEL_SPACE
  0
BLOCK_RECORD
  5
1B
100
AcDbSymbolTableRecord
100
AcDbBlockTableRecord
  2
*PAPER_SPACE
  0
BLOCK_RECORD
  5
20C
100
AcDbSymbolTableRecord
100
AcDbBlockTableRecord
  2
_CLOSED
  0
BLOCK_RECORD
  5
20D
100
AcDbSymbolTableRecord
100
AcDbBlockTableRecord
  2
*D0
  0
BLOCK_RECORD
  5
20E
100
AcDbSymbolTableRecord
100
AcDbBlockTableRecord
  2
*D1
  0
BLOCK_RECORD
  5
20F
100
AcDbSymbolTableRecord
100
AcDbBlockTableRecord
  2
*D2
  0
BLOCK_RECORD
  5
210
100
AcDbSymbolTableRecord
100
AcDbBlockTableRecord
  2
*D3
  0
BLOCK_RECORD
  5
211
100
AcDbSymbolTableRecord
100
AcDbBlockTableRecord
  2
LOGO2_BL0
  0
ENDTAB
  0
TABLE
  2
DIMSTYLE
  5
A
100
AcDbSymbolTable
 70
1
  0
DIMSTYLE
105
212
100
AcDbSymbolTableRecord
100
AcDbDimStyleTableRecord
  2
STANDARD
 70
0
  3

  4

  5
_CLOSED
  6
_CLOSED
  7
_CLOSED
 40
1.0
 41
2.5
 42
0.75
 43
0.38
 44
0.75
 45
0.0
 46
0.0
 47
0.01
 48
0.01
140
3.0
141
0.09
142
0.0
143
25.4
144
1.0
145
0.0
146
1.0
147
0.625
 71
1.0
 72
0.0
 73
0
 74
0
 75
0
 76
0
 77
1
 78
8
 79
2
170
0
171
1
172
0
173
0
174
0
175
0
176
0
177
0
178
0
270
2
179
2
271
2
272
2
273
2
274
2
275
0
280
0
281
0
282
0
283
1
284
8
285
0
286
0
287
3
288
0
340
11
  0
DIMSTYLE
105
213
100
AcDbSymbolTableRecord
100
AcDbDimStyleTableRecord
  2
DIMSTYLE_1
 70
0
  3

  4

  5
_CLOSED
  6
_CLOSED
  7
_CLOSED
 40
1.0
 41
2.5
 42
0.75
 43
0.38
 44
0.75
 45
0.0
 46
0.0
 47
0.3
 48
0.3
140
10.0
141
0.09
142
0.0
143
25.4
144
1.0
145
0.0
146
1.0
147
2.5
 71
0.0
 72
0.0
 73
0
 74
0
 75
0
 76
0
 77
1
 78
8
 79
2
170
0
171
1
172
0
173
0
174
0
175
0
176
0
177
0
178
0
270
2
179
2
271
2
272
2
273
2
274
2
275
0
280
0
281
0
282
0
283
1
284
8
285
0
286
0
287
3
288
0
340
11
  0
DIMSTYLE
105
214
100
AcDbSymbolTableRecord
100
AcDbDimStyleTableRecord
  2
DIMSTYLE_2
 70
0
  3

  4

  5
_CLOSED
  6
_CLOSED
  7
_CLOSED
 40
1.0
 41
2.5
 42
0.75
 43
0.38
 44
0.75
 45
0.0
 46
0.0
 47
2.0
 48
2.0
140
10.0
141
0.09
142
0.0
143
25.4
144
1.0
145
0.0
146
1.0
147
2.5
 71
0.0
 72
0.0
 73
0
 74
0
 75
0
 76
0
 77
1
 78
8
 79
2
170
0
171
1
172
0
173
0
174
0
175
0
176
0
177
0
178
0
270
2
179
2
271
2
272
2
273
2
274
2
275
0
280
0
281
0
282
0
283
1
284
8
285
0
286
0
287
3
288
0
340
11
  0
ENDTAB
  0
ENDSEC
  0
SECTION
  2
BLOCKS
  0
BLOCK
  5
20
100
AcDbEntity
  8
0
100
AcDbBlockBegin
  2
*MODEL_SPACE
 70
0
 10
0.0
 20
0.0
 30
0.0
  3
*MODEL_SPACE
  1

  0
ENDBLK
  5
21
100
AcDbEntity
  8
0
100
AcDbBlockEnd
  0
BLOCK
  5
1C
100
AcDbEntity
  8
0
100
AcDbBlockBegin
  2
*PAPER_SPACE
 70
0
 10
0.0
 20
0.0
 30
0.0
  3
*PAPER_SPACE
  1

  0
ENDBLK
  5
1D
100
AcDbEntity
  8
0
100
AcDbBlockEnd
  0
BLOCK
  5
215
100
AcDbEntity
  8
0
100
AcDbBlockBegin
 62
2
  6
CONTINUOUS
  2
LOGO2_BL0
 70
64
 10
3113.3767684765
 20
37.2776170738
  3
LOGO2_BL0
  1

  0
LINE
  5
216
100
AcDbEntity
  8
0
100
AcDbLine
 62
7
  6
CONTINUOUS
 10
3105.1196937047
 20
40.4731084126
 11
3103.8153527753
 21
40.4731084126
  0
LINE
  5
217
100
AcDbEntity
  8
0
100
AcDbLine
 62
7
  6
CONTINUOUS
 10
3103.8153527753
 20
40.4731084126
 11
3103.8153527753
 21
30.0140423528
  0
LINE
  5
218
100
AcDbEntity
  8
0
100
AcDbLine
 62
7
  6
CONTINUOUS
 10
3103.8153527753
 20
30.0140423528
 11
3108.2964076636
 21
30.0140423528
  0
LINE
  5
219
100
AcDbEntity
  8
0
100
AcDbLine
 62
7
  6
CONTINUOUS
 10
3108.2964076636
 20
30.0140423528
 11
3108.2964076636
 21
31.2068966778
  0
LINE
  5
21A
100
AcDbEntity
  8
0
100
AcDbLine
 62
7
  6
CONTINUOUS
 10
3108.2964076636
 20
31.2068966778
 11
3105.1196937047
 21
31.2068966778
  0
LINE
  5
21B
100
AcDbEntity
  8
0
100
AcDbLine
 62
7
  6
CONTINUOUS
 10
3105.1196937047
 20
31.2068966778
 11
3105.1196937047
 21
40.4731084126
  0
LINE
  5
21C
100
AcDbEntity
  8
0
100
AcDbLine
 62
7
  6
CONTINUOUS
 10
3120.056019921
 20
40.4731084126
 11
3118.7522024029
 21
40.4731084126
  0
LINE
  5
21D
100
AcDbEntity
  8
0
100
AcDbLine
 62
7
  6
CONTINUOUS
 10
3118.7522024029
 20
40.4731084126
 11
3118.7522024029
 21
30.0140423528
  0
LINE
  5
21E
100
AcDbEntity
  8
0
100
AcDbLine
 62
7
  6
CONTINUOUS
 10
3118.7522024029
 20
30.0140423528
 11
3123.233388144
 21
30.0140423528
  0
LINE
  5
21F
100
AcDbEntity
  8
0
100
AcDbLine
 62
7
  6
CONTINUOUS
 10
3123.233388144
 20
30.0140423528
 11
3123.233388144
 21
31.2068966778
  0
LINE
  5
220
100
AcDbEntity
  8
0
100
AcDbLine
 62
7
  6
CONTINUOUS
 10
3123.233388144
 20
31.2068966778
 11
3120.056019921
 21
31.2068966778
  0
LINE
  5
221
100
AcDbEntity
  8
0
100
AcDbLine
 62
7
  6
CONTINUOUS
 10
3120.056019921
 20
31.2068966778
 11
3120.056019921
 21
40.4731084126
  0
LWPOLYLINE
  5
222
100
AcDbEntity
  8
0
100
AcDbPolyline
 62
7
  6
CONTINUOUS
 90
2
 70
0
 43
0.2
 10
3102.1697476862
 20
26.6704910458
 10
3102.1697476862
 20
24.8134277965
  0
LWPOLYLINE
  5
223
100
AcDbEntity
  8
0
100
AcDbPolyline
 62
7
  6
CONTINUOUS
 90
2
 70
0
 43
0.2
 10
3102.1697476862
 20
24.8134277965
 10
3102.9654636966
 20
24.8134277965
  0
LWPOLYLINE
  5
224
100
AcDbEntity
  8
0
100
AcDbPolyline
 62
7
  6
CONTINUOUS
 90
2
 70
0
 43
0.2
 10
3102.9654636966
 20
24.8134277965
 10
3102.9654636966
 20
25.0254093681
  0
LWPOLYLINE
  5
225
100
AcDbEntity
  8
0
100
AcDbPolyline
 62
7
  6
CONTINUOUS
 90
2
 70
0
 43
0.2
 10
3102.9654636966
 20
25.0254093681
 10
3102.4013571811
 20
25.0254093681
  0
LWPOLYLINE
  5
226
100
AcDbEntity
  8
0
100
AcDbPolyline
 62
7
  6
CONTINUOUS
 90
2
 70
0
 43
0.2
 10
3102.4013571811
 20
25.0254093681
 10
3102.4013571811
 20
26.6704910458
  0
LWPOLYLINE
  5
227
100
AcDbEntity
  8
0
100
AcDbPolyline
 62
7
  6
CONTINUOUS
 90
2
 70
0
 43
0.2
 10
3102.4013571811
 20
26.6704910458
 10
3102.1697476862
 20
26.6704910458
  0
SPLINE
  5
228
100
AcDbEntity
  8
0
100
AcDbSpline
 62
7
  6
CONTINUOUS
 70
2
 71
3
 72
35
 73
31
 74
0
 42
0.0000001
 43
0.0000001
 44
0.0000000001
 40
0.0
 40
0.0
 40
0.0
 40
0.0
 40
1.0
 40
1.0
 40
1.0
 40
2.0
 40
2.0
 40
2.0
 40
3.0
 40
3.0
 40
3.0
 40
4.0
 40
4.0
 40
4.0
 40
5.0
 40
5.0
 40
5.0
 40
6.0
 40
6.0
 40
6.0
 40
7.0
 40
7.0
 40
7.0
 40
8.0
 40
8.0
 40
8.0
 40
9.0
 40
9.0
 40
9.0
 40
10.0
 40
10.0
 40
10.0
 40
10.0
 10
3104.3637569522
 20
25.9659794524
 30
0.0
 10
3104.3637569522
 20
25.9659794524
 30
0.0
 10
3104.3637569522
 20
25.3038641732
 30
0.0
 10
3104.3637569522
 20
25.3038641732
 30
0.0
 10
3104.3637569522
 20
24.9887705779
 30
0.0
 10
3104.511620641
 20
24.7741719499
 30
0.0
 10
3104.8517071253
 20
24.7741719499
 30
0.0
 10
3105.1912701983
 20
24.7741719499
 30
0.0
 10
3105.3393955928
 20
24.9887705779
 30
0.0
 10
3105.3393955928
 20
25.3038641732
 30
0.0
 10
3105.3393955928
 20
25.3038641732
 30
0.0
 10
3105.3393955928
 20
25.9659794524
 30
0.0
 10
3105.3393955928
 20
25.9659794524
 30
0.0
 10
3105.3393955928
 20
25.9659794524
 30
0.0
 10
3105.1173383539
 20
25.9659794524
 30
0.0
 10
3105.1173383539
 20
25.9659794524
 30
0.0
 10
3105.1173383539
 20
25.9659794524
 30
0.0
 10
3105.1173383539
 20
25.328987915
 30
0.0
 10
3105.1173383539
 20
25.328987915
 30
0.0
 10
3105.1173383539
 20
25.1431769078
 30
0.0
 10
3105.0706238964
 20
24.9803959973
 30
0.0
 10
3104.8517071253
 20
24.9803959973
 30
0.0
 10
3104.6322669428
 20
24.9803959973
 30
0.0
 10
3104.5855524854
 20
25.1431769078
 30
0.0
 10
3104.5855524854
 20
25.328987915
 30
0.0
 10
3104.5855524854
 20
25.328987915
 30
0.0
 10
3104.5855524854
 20
25.9659794524
 30
0.0
 10
3104.5855524854
 20
25.9659794524
 30
0.0
 10
3104.5855524854
 20
25.9659794524
 30
0.0
 10
3104.3637569522
 20
25.9659794524
 30
0.0
 10
3104.3637569522
 20
25.9659794524
 30
0.0
  0
SPLINE
  5
229
100
AcDbEntity
  8
0
100
AcDbSpline
 62
7
  6
CONTINUOUS
 70
2
 71
3
 72
35
 73
31
 74
0
 42
0.0000001
 43
0.0000001
 44
0.0000000001
 40
0.0
 40
0.0
 40
0.0
 40
0.0
 40
1.0
 40
1.0
 40
1.0
 40
2.0
 40
2.0
 40
2.0
 40
3.0
 40
3.0
 40
3.0
 40
4.0
 40
4.0
 40
4.0
 40
5.0
 40
5.0
 40
5.0
 40
6.0
 40
6.0
 40
6.0
 40
7.0
 40
7.0
 40
7.0
 40
8.0
 40
8.0
 40
8.0
 40
9.0
 40
9.0
 40
9.0
 40
10.0
 40
10.0
 40
10.0
 40
10.0
 10
3107.76252815
 20
25.9246299606
 30
0.0
 10
3107.6740716423
 20
25.9759242668
 30
0.0
 10
3107.5606222457
 20
26.0010480087
 30
0.0
 10
3107.4569868107
 20
26.0010480087
 30
0.0
 10
3107.1021139575
 20
26.0010480087
 30
0.0
 10
3106.8266687672
 20
25.7372487196
 30
0.0
 10
3106.8266687672
 20
25.37975881
 30
0.0
 10
3106.8266687672
 20
25.0348307713
 30
0.0
 10
3107.1051235724
 20
24.7746953612
 30
0.0
 10
3107.4446866454
 20
24.7746953612
 30
0.0
 10
3107.5606222457
 20
24.7746953612
 30
0.0
 10
3107.6613789186
 20
24.7966786353
 30
0.0
 10
3107.76252815
 20
24.8505899979
 30
0.0
 10
3107.76252815
 20
24.8505899979
 30
0.0
 10
3107.76252815
 20
25.1332320934
 30
0.0
 10
3107.76252815
 20
25.1332320934
 30
0.0
 10
3107.6786514911
 20
25.0400648841
 30
0.0
 10
3107.5751469089
 20
24.9809194086
 30
0.0
 10
3107.4470419962
 20
24.9809194086
 30
0.0
 10
3107.2133388562
 20
24.9809194086
 30
0.0
 10
3107.048071742
 20
25.1531217223
 30
0.0
 10
3107.048071742
 20
25.3897036244
 30
0.0
 10
3107.048071742
 20
25.601685196
 30
0.0
 10
3107.2158250598
 20
25.7937771387
 30
0.0
 10
3107.4326481858
 20
25.7937771387
 30
0.0
 10
3107.5654638001
 20
25.7937771387
 30
0.0
 10
3107.6740716423
 20
25.739865776
 30
0.0
 10
3107.76252815
 20
25.6388473975
 30
0.0
 10
3107.76252815
 20
25.6388473975
 30
0.0
 10
3107.76252815
 20
25.9246299606
 30
0.0
 10
3107.76252815
 20
25.9246299606
 30
0.0
  0
SPLINE
  5
22A
100
AcDbEntity
  8
0
100
AcDbSpline
 62
7
  6
CONTINUOUS
 70
2
 71
3
 72
32
 73
28
 74
0
 42
0.0000001
 43
0.0000001
 44
0.0000000001
 40
0.0
 40
0.0
 40
0.0
 40
0.0
 40
1.0
 40
1.0
 40
1.0
 40
2.0
 40
2.0
 40
2.0
 40
3.0
 40
3.0
 40
3.0
 40
4.0
 40
4.0
 40
4.0
 40
5.0
 40
5.0
 40
5.0
 40
6.0
 40
6.0
 40
6.0
 40
7.0
 40
7.0
 40
7.0
 40
8.0
 40
8.0
 40
8.0
 40
9.0
 40
9.0
 40
9.0
 40
9.0
 10
3110.2943994022
 20
25.3530648343
 30
0.0
 10
3110.2943994022
 20
25.3530648343
 30
0.0
 10
3110.2943994022
 20
25.387086568
 30
0.0
 10
3110.2943994022
 20
25.387086568
 30
0.0
 10
3110.2943994022
 20
25.7293975503
 30
0.0
 10
3110.1215428244
 20
26.0010480087
 30
0.0
 10
3109.7548932172
 20
26.0010480087
 30
0.0
 10
3109.3832712028
 20
26.0010480087
 30
0.0
 10
3109.193534611
 20
25.7346316631
 30
0.0
 10
3109.193534611
 20
25.37975881
 30
0.0
 10
3109.193534611
 20
25.0400648841
 30
0.0
 10
3109.4076098277
 20
24.7741719499
 30
0.0
 10
3109.7597347716
 20
24.7741719499
 30
0.0
 10
3109.9837548029
 20
24.7741719499
 30
0.0
 10
3110.1859224128
 20
24.8898458445
 30
0.0
 10
3110.2943994022
 20
25.0892655452
 30
0.0
 10
3110.2943994022
 20
25.0892655452
 30
0.0
 10
3110.1067564555
 20
25.1960414479
 30
0.0
 10
3110.1067564555
 20
25.1960414479
 30
0.0
 10
3110.0232723551
 20
25.0573374566
 30
0.0
 10
3109.9320679382
 20
24.9714980054
 30
0.0
 10
3109.7624826809
 20
24.9714980054
 30
0.0
 10
3109.5505011093
 20
24.9714980054
 30
0.0
 10
3109.4175546422
 20
25.15626219
 30
0.0
 10
3109.4151992914
 20
25.3530648343
 30
0.0
 10
3109.4151992914
 20
25.3530648343
 30
0.0
 10
3110.2943994022
 20
25.3530648343
 30
0.0
 10
3110.2943994022
 20
25.3530648343
 30
0.0
  0
SPLINE
  5
22B
100
AcDbEntity
  8
0
100
AcDbSpline
 62
7
  6
CONTINUOUS
 70
2
 71
3
 72
14
 73
10
 74
0
 42
0.0000001
 43
0.0000001
 44
0.0000000001
 40
0.0
 40
0.0
 40
0.0
 40
0.0
 40
1.0
 40
1.0
 40
1.0
 40
2.0
 40
2.0
 40
2.0
 40
3.0
 40
3.0
 40
3.0
 40
3.0
 10
3109.427237751
 20
25.5205564464
 30
0.0
 10
3109.4548476965
 20
25.6854310021
 30
0.0
 10
3109.5826909035
 20
25.8084326547
 30
0.0
 10
3109.7548932172
 20
25.8084326547
 30
0.0
 10
3109.9320679382
 20
25.8084326547
 30
0.0
 10
3110.0455173348
 20
25.6927587601
 30
0.0
 10
3110.0727347218
 20
25.5205564464
 30
0.0
 10
3110.0727347218
 20
25.5205564464
 30
0.0
 10
3109.427237751
 20
25.5205564464
 30
0.0
 10
3109.427237751
 20
25.5205564464
 30
0.0
  0
SPLINE
  5
22C
100
AcDbEntity
  8
0
100
AcDbSpline
 62
7
  6
CONTINUOUS
 70
2
 71
3
 72
20
 73
16
 74
0
 42
0.0000001
 43
0.0000001
 44
0.0000000001
 40
0.0
 40
0.0
 40
0.0
 40
0.0
 40
1.0
 40
1.0
 40
1.0
 40
2.0
 40
2.0
 40
2.0
 40
3.0
 40
3.0
 40
3.0
 40
4.0
 40
4.0
 40
4.0
 40
5.0
 40
5.0
 40
5.0
 40
5.0
 10
3112.3184308524
 20
25.7299209615
 30
0.0
 10
3112.3184308524
 20
25.7299209615
 30
0.0
 10
3112.729570419
 20
25.2274461252
 30
0.0
 10
3112.729570419
 20
25.2274461252
 30
0.0
 10
3112.6135039659
 20
25.1117722306
 30
0.0
 10
3112.4757159444
 20
24.9814428199
 30
0.0
 10
3112.3037753363
 20
24.9814428199
 30
0.0
 10
3112.1263389098
 20
24.9814428199
 30
0.0
 10
3111.9588472976
 20
25.1457939643
 30
0.0
 10
3111.9588472976
 20
25.3227069796
 30
0.0
 10
3111.9588472976
 20
25.5006668175
 30
0.0
 10
3112.1686043712
 20
25.6268089378
 30
0.0
 10
3112.2961858727
 20
25.7147420342
 30
0.0
 10
3112.2961858727
 20
25.7147420342
 30
0.0
 10
3112.3184308524
 20
25.7299209615
 30
0.0
 10
3112.3184308524
 20
25.7299209615
 30
0.0
  0
SPLINE
  5
22D
100
AcDbEntity
  8
0
100
AcDbSpline
 62
7
  6
CONTINUOUS
 70
2
 71
3
 72
23
 73
19
 74
0
 42
0.0000001
 43
0.0000001
 44
0.0000000001
 40
0.0
 40
0.0
 40
0.0
 40
0.0
 40
1.0
 40
1.0
 40
1.0
 40
2.0
 40
2.0
 40
2.0
 40
3.0
 40
3.0
 40
3.0
 40
4.0
 40
4.0
 40
4.0
 40
5.0
 40
5.0
 40
5.0
 40
6.0
 40
6.0
 40
6.0
 40
6.0
 10
3112.3677623663
 20
26.0209376376
 30
0.0
 10
3112.3677623663
 20
26.0209376376
 30
0.0
 10
3112.3061306871
 20
26.0994493308
 30
0.0
 10
3112.3061306871
 20
26.0994493308
 30
0.0
 10
3112.2522193245
 20
26.1680162095
 30
0.0
 10
3112.1954291998
 20
26.2371064995
 30
0.0
 10
3112.1954291998
 20
26.33079712
 30
0.0
 10
3112.1954291998
 20
26.4496114824
 30
0.0
 10
3112.2913443183
 20
26.527076353
 30
0.0
 10
3112.4023075113
 20
26.527076353
 30
0.0
 10
3112.5255708696
 20
26.527076353
 30
0.0
 10
3112.6188689316
 20
26.4558924178
 30
0.0
 10
3112.6188689316
 20
26.3255630071
 30
0.0
 10
3112.6188689316
 20
26.1905228949
 30
0.0
 10
3112.4907640189
 20
26.1141048468
 30
0.0
 10
3112.3972042512
 20
26.0403038553
 30
0.0
 10
3112.3972042512
 20
26.0403038553
 30
0.0
 10
3112.3677623663
 20
26.0209376376
 30
0.0
 10
3112.3677623663
 20
26.0209376376
 30
0.0
  0
SPLINE
  5
22E
100
AcDbEntity
  8
0
100
AcDbSpline
 62
7
  6
CONTINUOUS
 70
2
 71
3
 72
50
 73
46
 74
0
 42
0.0000001
 43
0.0000001
 44
0.0000000001
 40
0.0
 40
0.0
 40
0.0
 40
0.0
 40
1.0
 40
1.0
 40
1.0
 40
2.0
 40
2.0
 40
2.0
 40
3.0
 40
3.0
 40
3.0
 40
4.0
 40
4.0
 40
4.0
 40
5.0
 40
5.0
 40
5.0
 40
6.0
 40
6.0
 40
6.0
 40
7.0
 40
7.0
 40
7.0
 40
8.0
 40
8.0
 40
8.0
 40
9.0
 40
9.0
 40
9.0
 40
10.0
 40
10.0
 40
10.0
 40
11.0
 40
11.0
 40
11.0
 40
12.0
 40
12.0
 40
12.0
 40
13.0
 40
13.0
 40
13.0
 40
14.0
 40
14.0
 40
14.0
 40
15.0
 40
15.0
 40
15.0
 40
15.0
 10
3113.069918609
 20
24.8139512078
 30
0.0
 10
3113.069918609
 20
24.8139512078
 30
0.0
 10
3113.3553086137
 20
24.8139512078
 30
0.0
 10
3113.3553086137
 20
24.8139512078
 30
0.0
 10
3113.3553086137
 20
24.8139512078
 30
0.0
 10
3113.0229424459
 20
25.2248290688
 30
0.0
 10
3113.0229424459
 20
25.2248290688
 30
0.0
 10
3113.0229424459
 20
25.2248290688
 30
0.0
 10
3113.2494486807
 20
25.490722003
 30
0.0
 10
3113.2494486807
 20
25.490722003
 30
0.0
 10
3113.2494486807
 20
25.490722003
 30
0.0
 10
3113.1011924334
 20
25.643558099
 30
0.0
 10
3113.1011924334
 20
25.643558099
 30
0.0
 10
3113.1011924334
 20
25.643558099
 30
0.0
 10
3112.8852852772
 20
25.3923206809
 30
0.0
 10
3112.8852852772
 20
25.3923206809
 30
0.0
 10
3112.8852852772
 20
25.3923206809
 30
0.0
 10
3112.4982226298
 20
25.8602503722
 30
0.0
 10
3112.4982226298
 20
25.8602503722
 30
0.0
 10
3112.6536757823
 20
25.974354033
 30
0.0
 10
3112.8359537633
 20
26.1141048468
 30
0.0
 10
3112.8359537633
 20
26.323469362
 30
0.0
 10
3112.8359537633
 20
26.5673790221
 30
0.0
 10
3112.6339170062
 20
26.710793715
 30
0.0
 10
3112.4074107713
 20
26.710793715
 30
0.0
 10
3112.1632394055
 20
26.710793715
 30
0.0
 10
3111.9788677794
 20
26.5600512641
 30
0.0
 10
3111.9788677794
 20
26.3035797331
 30
0.0
 10
3111.9788677794
 20
26.1460329354
 30
0.0
 10
3112.0775308072
 20
26.0083757667
 30
0.0
 10
3112.1828673288
 20
25.8974125737
 30
0.0
 10
3112.1828673288
 20
25.8974125737
 30
0.0
 10
3112.067324287
 20
25.8136667676
 30
0.0
 10
3112.067324287
 20
25.8136667676
 30
0.0
 10
3111.8896261548
 20
25.6854310021
 30
0.0
 10
3111.7422858773
 20
25.5577186478
 30
0.0
 10
3111.7422858773
 20
25.3206133344
 30
0.0
 10
3111.7422858773
 20
25.0002856263
 30
0.0
 10
3112.0008510535
 20
24.7741719499
 30
0.0
 10
3112.3112339472
 20
24.7741719499
 30
0.0
 10
3112.5301507183
 20
24.7741719499
 30
0.0
 10
3112.727345921
 20
24.8992672477
 30
0.0
 10
3112.8676201462
 20
25.065188626
 30
0.0
 10
3112.8676201462
 20
25.065188626
 30
0.0
 10
3113.069918609
 20
24.8139512078
 30
0.0
 10
3113.069918609
 20
24.8139512078
 30
0.0
  0
LWPOLYLINE
  5
22F
100
AcDbEntity
  8
0
100
AcDbPolyline
 62
7
  6
CONTINUOUS
 90
2
 70
0
 43
0.2
 10
3115.0053626987
 20
26.6704910458
 10
3114.7740149094
 20
26.6704910458
  0
LWPOLYLINE
  5
230
100
AcDbEntity
  8
0
100
AcDbPolyline
 62
7
  6
CONTINUOUS
 90
2
 70
0
 43
0.2
 10
3114.7740149094
 20
26.6704910458
 10
3114.7740149094
 20
24.8134277965
  0
LWPOLYLINE
  5
231
100
AcDbEntity
  8
0
100
AcDbPolyline
 62
7
  6
CONTINUOUS
 90
2
 70
0
 43
0.2
 10
3114.7740149094
 20
24.8134277965
 10
3115.5693383614
 20
24.8134277965
  0
LWPOLYLINE
  5
232
100
AcDbEntity
  8
0
100
AcDbPolyline
 62
7
  6
CONTINUOUS
 90
2
 70
0
 43
0.2
 10
3115.5693383614
 20
24.8134277965
 10
3115.5693383614
 20
25.0254093681
  0
LWPOLYLINE
  5
233
100
AcDbEntity
  8
0
100
AcDbPolyline
 62
7
  6
CONTINUOUS
 90
2
 70
0
 43
0.2
 10
3115.5693383614
 20
25.0254093681
 10
3115.0053626987
 20
25.0254093681
  0
LWPOLYLINE
  5
234
100
AcDbEntity
  8
0
100
AcDbPolyline
 62
7
  6
CONTINUOUS
 90
2
 70
0
 43
0.2
 10
3115.0053626987
 20
25.0254093681
 10
3115.0053626987
 20
26.6704910458
  0
LWPOLYLINE
  5
235
100
AcDbEntity
  8
0
100
AcDbPolyline
 62
7
  6
CONTINUOUS
 90
2
 70
0
 43
0.2
 10
3117.2484417728
 20
25.9659794524
 10
3117.0273005037
 20
25.9659794524
  0
LWPOLYLINE
  5
236
100
AcDbEntity
  8
0
100
AcDbPolyline
 62
7
  6
CONTINUOUS
 90
2
 70
0
 43
0.2
 10
3117.0273005037
 20
25.9659794524
 10
3117.0273005037
 20
24.8139512078
  0
LWPOLYLINE
  5
237
100
AcDbEntity
  8
0
100
AcDbPolyline
 62
7
  6
CONTINUOUS
 90
2
 70
0
 43
0.2
 10
3117.0273005037
 20
24.8139512078
 10
3117.2484417728
 20
24.8139512078
  0
LWPOLYLINE
  5
238
100
AcDbEntity
  8
0
100
AcDbPolyline
 62
7
  6
CONTINUOUS
 90
2
 70
0
 43
0.2
 10
3117.2484417728
 20
24.8139512078
 10
3117.2484417728
 20
25.9659794524
  0
LWPOLYLINE
  5
239
100
AcDbEntity
  8
0
100
AcDbPolyline
 62
7
  6
CONTINUOUS
 90
2
 70
1
 43
0.2
 10
3116.9854184956
 20
26.4959333813
 42
1.0
 10
3117.2905854866
 20
26.4959333813
 42
1.0
  0
SPLINE
  5
23A
100
AcDbEntity
  8
0
100
AcDbSpline
 62
7
  6
CONTINUOUS
 70
2
 71
3
 72
17
 73
13
 74
0
 42
0.0000001
 43
0.0000001
 44
0.0000000001
 40
0.0
 40
0.0
 40
0.0
 40
0.0
 40
1.0
 40
1.0
 40
1.0
 40
2.0
 40
2.0
 40
2.0
 40
3.0
 40
3.0
 40
3.0
 40
4.0
 40
4.0
 40
4.0
 40
4.0
 10
3119.3787257145
 20
24.9714980054
 30
0.0
 10
3119.1447608688
 20
24.9714980054
 30
0.0
 10
3119.0144314581
 20
25.1735347625
 30
0.0
 10
3119.0144314581
 20
25.3897036244
 30
0.0
 10
3119.0144314581
 20
25.6043022525
 30
0.0
 10
3119.1502566873
 20
25.8031985418
 30
0.0
 10
3119.3787257145
 20
25.8031985418
 30
0.0
 10
3119.6181863787
 20
25.8031985418
 30
0.0
 10
3119.7537499022
 20
25.6142470669
 30
0.0
 10
3119.7537499022
 20
25.3897036244
 30
0.0
 10
3119.7537499022
 20
25.1635899481
 30
0.0
 10
3119.6205417295
 20
24.9714980054
 30
0.0
 10
3119.3787257145
 20
24.9714980054
 30
0.0
  0
SPLINE
  5
23B
100
AcDbEntity
  8
0
100
AcDbSpline
 62
7
  6
CONTINUOUS
 70
2
 71
3
 72
50
 73
46
 74
0
 42
0.0000001
 43
0.0000001
 44
0.0000000001
 40
0.0
 40
0.0
 40
0.0
 40
0.0
 40
1.0
 40
1.0
 40
1.0
 40
2.0
 40
2.0
 40
2.0
 40
3.0
 40
3.0
 40
3.0
 40
4.0
 40
4.0
 40
4.0
 40
5.0
 40
5.0
 40
5.0
 40
6.0
 40
6.0
 40
6.0
 40
7.0
 40
7.0
 40
7.0
 40
8.0
 40
8.0
 40
8.0
 40
9.0
 40
9.0
 40
9.0
 40
10.0
 40
10.0
 40
10.0
 40
11.0
 40
11.0
 40
11.0
 40
12.0
 40
12.0
 40
12.0
 40
13.0
 40
13.0
 40
13.0
 40
14.0
 40
14.0
 40
14.0
 40
15.0
 40
15.0
 40
15.0
 40
15.0
 10
3119.9628527117
 20
25.9665028637
 30
0.0
 10
3119.9628527117
 20
25.9665028637
 30
0.0
 10
3119.7411880313
 20
25.9665028637
 30
0.0
 10
3119.7411880313
 20
25.9665028637
 30
0.0
 10
3119.7411880313
 20
25.9665028637
 30
0.0
 10
3119.7411880313
 20
25.7691768081
 30
0.0
 10
3119.7411880313
 20
25.7691768081
 30
0.0
 10
3119.7411880313
 20
25.7691768081
 30
0.0
 10
3119.7364773297
 20
25.7691768081
 30
0.0
 10
3119.7364773297
 20
25.7691768081
 30
0.0
 10
3119.64514206
 20
25.9120680897
 30
0.0
 10
3119.5072231857
 20
26.0005245974
 30
0.0
 10
3119.3344974607
 20
26.0005245974
 30
0.0
 10
3119.0021312929
 20
26.0005245974
 30
0.0
 10
3118.7930284834
 20
25.712648389
 30
0.0
 10
3118.7930284834
 20
25.3970313825
 30
0.0
 10
3118.7930284834
 20
25.0672822711
 30
0.0
 10
3118.9900928332
 20
24.7741719499
 30
0.0
 10
3119.3449656864
 20
24.7741719499
 30
0.0
 10
3119.5072231857
 20
24.7741719499
 30
0.0
 10
3119.6472357052
 20
24.8626284575
 30
0.0
 10
3119.7364773297
 20
24.9934812795
 30
0.0
 10
3119.7364773297
 20
24.9934812795
 30
0.0
 10
3119.7411880313
 20
24.9934812795
 30
0.0
 10
3119.7411880313
 20
24.9934812795
 30
0.0
 10
3119.7411880313
 20
24.9934812795
 30
0.0
 10
3119.7411880313
 20
24.7741719499
 30
0.0
 10
3119.7411880313
 20
24.7741719499
 30
0.0
 10
3119.7411880313
 20
24.5375900478
 30
0.0
 10
3119.6846596122
 20
24.350732218
 30
0.0
 10
3119.41143892
 20
24.350732218
 30
0.0
 10
3119.2091404572
 20
24.350732218
 30
0.0
 10
3119.0665108813
 20
24.4690231691
 30
0.0
 10
3119.0665108813
 20
24.6752472165
 30
0.0
 10
3119.0665108813
 20
24.6752472165
 30
0.0
 10
3118.8448462009
 20
24.6752472165
 30
0.0
 10
3118.8448462009
 20
24.6752472165
 30
0.0
 10
3118.8498186081
 20
24.350732218
 30
0.0
 10
3119.0809046917
 20
24.1539295738
 30
0.0
 10
3119.4012323999
 20
24.1539295738
 30
0.0
 10
3119.8492724623
 20
24.1539295738
 30
0.0
 10
3119.9628527117
 20
24.4391887257
 30
0.0
 10
3119.9628527117
 20
24.8359344819
 30
0.0
 10
3119.9628527117
 20
24.8359344819
 30
0.0
 10
3119.9628527117
 20
25.9665028637
 30
0.0
 10
3119.9628527117
 20
25.9665028637
 30
0.0
  0
SPLINE
  5
23C
100
AcDbEntity
  8
0
100
AcDbSpline
 62
7
  6
CONTINUOUS
 70
2
 71
3
 72
44
 73
40
 74
0
 42
0.0000001
 43
0.0000001
 44
0.0000000001
 40
0.0
 40
0.0
 40
0.0
 40
0.0
 40
1.0
 40
1.0
 40
1.0
 40
2.0
 40
2.0
 40
2.0
 40
3.0
 40
3.0
 40
3.0
 40
4.0
 40
4.0
 40
4.0
 40
5.0
 40
5.0
 40
5.0
 40
6.0
 40
6.0
 40
6.0
 40
7.0
 40
7.0
 40
7.0
 40
8.0
 40
8.0
 40
8.0
 40
9.0
 40
9.0
 40
9.0
 40
10.0
 40
10.0
 40
10.0
 40
11.0
 40
11.0
 40
11.0
 40
12.0
 40
12.0
 40
12.0
 40
13.0
 40
13.0
 40
13.0
 40
13.0
 10
3121.5317780471
 20
26.9515629074
 30
0.0
 10
3121.5317780471
 20
26.9515629074
 30
0.0
 10
3121.5317780471
 20
24.8134277965
 30
0.0
 10
3121.5317780471
 20
24.8134277965
 30
0.0
 10
3121.5317780471
 20
24.8134277965
 30
0.0
 10
3121.7531810219
 20
24.8134277965
 30
0.0
 10
3121.7531810219
 20
24.8134277965
 30
0.0
 10
3121.7531810219
 20
24.8134277965
 30
0.0
 10
3121.7531810219
 20
25.3431200198
 30
0.0
 10
3121.7531810219
 20
25.3431200198
 30
0.0
 10
3121.7531810219
 20
25.5530079462
 30
0.0
 10
3121.7531810219
 20
25.8037219531
 30
0.0
 10
3122.0384401738
 20
25.8037219531
 30
0.0
 10
3122.2653389671
 20
25.8037219531
 30
0.0
 10
3122.2922946484
 20
25.670775486
 30
0.0
 10
3122.2922946484
 20
25.4744962531
 30
0.0
 10
3122.2922946484
 20
25.4744962531
 30
0.0
 10
3122.2922946484
 20
24.8134277965
 30
0.0
 10
3122.2922946484
 20
24.8134277965
 30
0.0
 10
3122.2922946484
 20
24.8134277965
 30
0.0
 10
3122.5142210345
 20
24.8134277965
 30
0.0
 10
3122.5142210345
 20
24.8134277965
 30
0.0
 10
3122.5142210345
 20
24.8134277965
 30
0.0
 10
3122.5142210345
 20
25.5006668175
 30
0.0
 10
3122.5142210345
 20
25.5006668175
 30
0.0
 10
3122.5142210345
 20
25.7812152678
 30
0.0
 10
3122.4302135228
 20
26.0010480087
 30
0.0
 10
3122.105175113
 20
26.0010480087
 30
0.0
 10
3121.9654242991
 20
26.0010480087
 30
0.0
 10
3121.8272437191
 20
25.9345747751
 30
0.0
 10
3121.7578917235
 20
25.8115731225
 30
0.0
 10
3121.7578917235
 20
25.8115731225
 30
0.0
 10
3121.7531810219
 20
25.8115731225
 30
0.0
 10
3121.7531810219
 20
25.8115731225
 30
0.0
 10
3121.7531810219
 20
25.8115731225
 30
0.0
 10
3121.7531810219
 20
26.9515629074
 30
0.0
 10
3121.7531810219
 20
26.9515629074
 30
0.0
 10
3121.7531810219
 20
26.9515629074
 30
0.0
 10
3121.5317780471
 20
26.9515629074
 30
0.0
 10
3121.5317780471
 20
26.9515629074
 30
0.0
  0
LWPOLYLINE
  5
23D
100
AcDbEntity
  8
0
100
AcDbPolyline
 62
7
  6
CONTINUOUS
 90
2
 70
0
 43
0.2
 10
3124.3540117113
 20
25.7592319937
 10
3124.5704422789
 20
25.7592319937
  0
LWPOLYLINE
  5
23E
100
AcDbEntity
  8
0
100
AcDbPolyline
 62
7
  6
CONTINUOUS
 90
2
 70
0
 43
0.2
 10
3124.5704422789
 20
25.7592319937
 10
3124.5704422789
 20
25.9659794524
  0
LWPOLYLINE
  5
23F
100
AcDbEntity
  8
0
100
AcDbPolyline
 62
7
  6
CONTINUOUS
 90
2
 70
0
 43
0.2
 10
3124.5704422789
 20
25.9659794524
 10
3124.3540117113
 20
25.9659794524
  0
LWPOLYLINE
  5
240
100
AcDbEntity
  8
0
100
AcDbPolyline
 62
7
  6
CONTINUOUS
 90
2
 70
0
 43
0.2
 10
3124.3540117113
 20
25.9659794524
 10
3124.3540117113
 20
26.4066917568
  0
LWPOLYLINE
  5
241
100
AcDbEntity
  8
0
100
AcDbPolyline
 62
7
  6
CONTINUOUS
 90
2
 70
0
 43
0.2
 10
3124.3540117113
 20
26.4066917568
 10
3124.1323470309
 20
26.4066917568
  0
LWPOLYLINE
  5
242
100
AcDbEntity
  8
0
100
AcDbPolyline
 62
7
  6
CONTINUOUS
 90
2
 70
0
 43
0.2
 10
3124.1323470309
 20
26.4066917568
 10
3124.1323470309
 20
25.9659794524
  0
LWPOLYLINE
  5
243
100
AcDbEntity
  8
0
100
AcDbPolyline
 62
7
  6
CONTINUOUS
 90
2
 70
0
 43
0.2
 10
3124.1323470309
 20
25.9659794524
 10
3124.0117007291
 20
25.9659794524
  0
LWPOLYLINE
  5
244
100
AcDbEntity
  8
0
100
AcDbPolyline
 62
7
  6
CONTINUOUS
 90
2
 70
0
 43
0.2
 10
3124.0117007291
 20
25.9659794524
 10
3124.0117007291
 20
25.7592319937
  0
LWPOLYLINE
  5
245
100
AcDbEntity
  8
0
100
AcDbPolyline
 62
7
  6
CONTINUOUS
 90
2
 70
0
 43
0.2
 10
3124.0117007291
 20
25.7592319937
 10
3124.1323470309
 20
25.7592319937
  0
LWPOLYLINE
  5
246
100
AcDbEntity
  8
0
100
AcDbPolyline
 62
7
  6
CONTINUOUS
 90
2
 70
0
 43
0.2
 10
3124.1323470309
 20
25.7592319937
 10
3124.1323470309
 20
24.8134277965
  0
LWPOLYLINE
  5
247
100
AcDbEntity
  8
0
100
AcDbPolyline
 62
7
  6
CONTINUOUS
 90
2
 70
0
 43
0.2
 10
3124.1323470309
 20
24.8134277965
 10
3124.3540117113
 20
24.8134277965
  0
LWPOLYLINE
  5
248
100
AcDbEntity
  8
0
100
AcDbPolyline
 62
7
  6
CONTINUOUS
 90
2
 70
0
 43
0.2
 10
3124.3540117113
 20
24.8134277965
 10
3124.3540117113
 20
25.7592319937
  0
SPLINE
  5
249
100
AcDbEntity
  8
0
100
AcDbSpline
 62
7
  6
CONTINUOUS
 70
2
 71
3
 72
20
 73
16
 74
0
 42
0.0000001
 43
0.0000001
 44
0.0000000001
 40
0.0
 40
0.0
 40
0.0
 40
0.0
 40
1.0
 40
1.0
 40
1.0
 40
2.0
 40
2.0
 40
2.0
 40
3.0
 40
3.0
 40
3.0
 40
4.0
 40
4.0
 40
4.0
 40
5.0
 40
5.0
 40
5.0
 40
5.0
 10
3112.1360220186
 20
35.1743542399
 30
0.0
 10
3112.1360220186
 20
35.1743542399
 30
0.0
 10
3114.452378673
 20
32.3447928176
 30
0.0
 10
3114.452378673
 20
32.3447928176
 30
0.0
 10
3113.8007316196
 20
31.692622353
 30
0.0
 10
3113.0238584156
 20
30.9567060822
 30
0.0
 10
3112.052668771
 20
30.9567060822
 30
0.0
 10
3111.0541308865
 20
30.9567060822
 30
0.0
 10
3110.110812893
 20
31.8862845295
 30
0.0
 10
3110.110812893
 20
32.885476678
 30
0.0
 10
3110.110812893
 20
33.8846688266
 30
0.0
 10
3111.2896659661
 20
34.5912740652
 30
0.0
 10
3112.0111884264
 20
35.0911318451
 30
0.0
 10
3112.0111884264
 20
35.0911318451
 30
0.0
 10
3112.1360220186
 20
35.1743542399
 30
0.0
 10
3112.1360220186
 20
35.1743542399
 30
0.0
  0
SPLINE
  5
24A
100
AcDbEntity
  8
0
100
AcDbSpline
 62
7
  6
CONTINUOUS
 70
2
 71
3
 72
23
 73
19
 74
0
 42
0.0000001
 43
0.0000001
 44
0.0000000001
 40
0.0
 40
0.0
 40
0.0
 40
0.0
 40
1.0
 40
1.0
 40
1.0
 40
2.0
 40
2.0
 40
2.0
 40
3.0
 40
3.0
 40
3.0
 40
4.0
 40
4.0
 40
4.0
 40
5.0
 40
5.0
 40
5.0
 40
6.0
 40
6.0
 40
6.0
 40
6.0
 10
3112.4134300011
 20
36.8121081596
 30
0.0
 10
3112.4134300011
 20
36.8121081596
 30
0.0
 10
3112.0669317286
 20
37.2554375204
 30
0.0
 10
3112.0669317286
 20
37.2554375204
 30
0.0
 10
3111.7611286836
 20
37.6435469904
 30
0.0
 10
3111.4422403565
 20
38.0320490188
 30
0.0
 10
3111.4422403565
 20
38.5589933329
 30
0.0
 10
3111.4422403565
 20
39.2251650495
 30
0.0
 10
3111.983578481
 20
39.6688869688
 30
0.0
 10
3112.6074847361
 20
39.6688869688
 30
0.0
 10
3113.3012663982
 20
39.6688869688
 30
0.0
 10
3113.8284724179
 20
39.2666453941
 30
0.0
 10
3113.8284724179
 20
38.5316450931
 30
0.0
 10
3113.8284724179
 20
37.7683805826
 30
0.0
 10
3113.1072116632
 20
37.3382673568
 30
0.0
 10
3112.5801364963
 20
36.9225479414
 30
0.0
 10
3112.5801364963
 20
36.9225479414
 30
0.0
 10
3112.4134300011
 20
36.8121081596
 30
0.0
 10
3112.4134300011
 20
36.8121081596
 30
0.0
  0
SPLINE
  5
24B
100
AcDbEntity
  8
0
100
AcDbSpline
 62
7
  6
CONTINUOUS
 70
2
 71
3
 72
50
 73
46
 74
0
 42
0.0000001
 43
0.0000001
 44
0.0000000001
 40
0.0
 40
0.0
 40
0.0
 40
0.0
 40
1.0
 40
1.0
 40
1.0
 40
2.0
 40
2.0
 40
2.0
 40
3.0
 40
3.0
 40
3.0
 40
4.0
 40
4.0
 40
4.0
 40
5.0
 40
5.0
 40
5.0
 40
6.0
 40
6.0
 40
6.0
 40
7.0
 40
7.0
 40
7.0
 40
8.0
 40
8.0
 40
8.0
 40
9.0
 40
9.0
 40
9.0
 40
10.0
 40
10.0
 40
10.0
 40
11.0
 40
11.0
 40
11.0
 40
12.0
 40
12.0
 40
12.0
 40
13.0
 40
13.0
 40
13.0
 40
14.0
 40
14.0
 40
14.0
 40
15.0
 40
15.0
 40
15.0
 40
15.0
 10
3116.3670171641
 20
30.0135189415
 30
0.0
 10
3116.3670171641
 20
30.0135189415
 30
0.0
 10
3117.9762451686
 20
30.0135189415
 30
0.0
 10
3117.9762451686
 20
30.0135189415
 30
0.0
 10
3117.9762451686
 20
30.0135189415
 30
0.0
 10
3116.103217875
 20
32.3306607129
 30
0.0
 10
3116.103217875
 20
32.3306607129
 30
0.0
 10
3116.103217875
 20
32.3306607129
 30
0.0
 10
3117.3795563005
 20
33.8281404075
 30
0.0
 10
3117.3795563005
 20
33.8281404075
 30
0.0
 10
3117.3795563005
 20
33.8281404075
 30
0.0
 10
3116.5473323527
 20
34.689151976
 30
0.0
 10
3116.5473323527
 20
34.689151976
 30
0.0
 10
3116.5473323527
 20
34.689151976
 30
0.0
 10
3115.3267372294
 20
33.2738478536
 30
0.0
 10
3115.3267372294
 20
33.2738478536
 30
0.0
 10
3115.3267372294
 20
33.2738478536
 30
0.0
 10
3113.1488228606
 20
35.909223688
 30
0.0
 10
3113.1488228606
 20
35.909223688
 30
0.0
 10
3114.0223963001
 20
36.547262048
 30
0.0
 10
3115.0490675412
 20
37.3382673568
 30
0.0
 10
3115.0490675412
 20
38.5171204299
 30
0.0
 10
3115.0490675412
 20
39.8908133549
 30
0.0
 10
3113.9111714014
 20
40.6952965043
 30
0.0
 10
3112.6358797985
 20
40.6952965043
 30
0.0
 10
3111.2624485791
 20
40.6952965043
 30
0.0
 10
3110.2215143804
 20
39.8490713047
 30
0.0
 10
3110.2215143804
 20
38.4064189425
 30
0.0
 10
3110.2215143804
 20
37.5188442511
 30
0.0
 10
3110.7768537568
 20
36.741971047
 30
0.0
 10
3111.3730192137
 20
36.1175413806
 30
0.0
 10
3111.3730192137
 20
36.1175413806
 30
0.0
 10
3110.7211104546
 20
35.6459478102
 30
0.0
 10
3110.7211104546
 20
35.6459478102
 30
0.0
 10
3109.7225725702
 20
34.9246870556
 30
0.0
 10
3108.8896943584
 20
34.2034263009
 30
0.0
 10
3108.8896943584
 20
32.8718679845
 30
0.0
 10
3108.8896943584
 20
31.0681926865
 30
0.0
 10
3110.346740531
 20
29.7915925554
 30
0.0
 10
3112.0942799684
 20
29.7915925554
 30
0.0
 10
3113.3291380493
 20
29.7915925554
 30
0.0
 10
3114.4385082739
 20
30.4997680279
 30
0.0
 10
3115.2293827299
 20
31.4282996526
 30
0.0
 10
3115.2293827299
 20
31.4282996526
 30
0.0
 10
3116.3670171641
 20
30.0135189415
 30
0.0
 10
3116.3670171641
 20
30.0135189415
 30
0.0
  0
LINE
  5
24C
100
AcDbEntity
  8
0
100
AcDbLine
 62
7
  6
CONTINUOUS
 10
3102.1698785391
 20
27.9873938461
 11
3124.5837892667
 21
27.9873938461
  0
LINE
  5
24D
100
AcDbEntity
  8
0
100
AcDbLine
 62
7
  6
CONTINUOUS
 10
3124.5837892667
 20
27.9873938461
 11
3124.5837892667
 21
50.4013045738
  0
LINE
  5
24E
100
AcDbEntity
  8
0
100
AcDbLine
 62
7
  6
CONTINUOUS
 10
3124.5837892667
 20
50.4013045738
 11
3102.1698785391
 21
50.4013045738
  0
LINE
  5
24F
100
AcDbEntity
  8
0
100
AcDbLine
 62
7
  6
CONTINUOUS
 10
3102.1698785391
 20
50.4013045738
 11
3102.1698785391
 21
27.9873938461
  0
ENDBLK
  5
250
100
AcDbEntity
  8
0
  6
BYBLOCK
 62
0
100
AcDbBlockEnd
  0
BLOCK
  5
251
100
AcDbEntity
  8
0
100
AcDbBlockBegin
  2
_CLOSED
 70
64
 10
0.0
 20
0.0
  3
_CLOSED
  1

  0
LINE
  5
252
100
AcDbEntity
  8
0
  6
BYBLOCK
 62
0
100
AcDbLine
 10
0.0
 20
0.0
 11
-1.0
 21
0.2
  0
LINE
  5
253
100
AcDbEntity
  8
0
  6
BYBLOCK
 62
0
100
AcDbLine
 10
-1.0
 20
0.2
 11
-1.0
 21
-0.2
  0
LINE
  5
254
100
AcDbEntity
  8
0
  6
BYBLOCK
 62
0
100
AcDbLine
 10
-1.0
 20
-0.2
 11
0.0
 21
0.0
  0
LINE
  5
255
100
AcDbEntity
  8
0
  6
BYBLOCK
 62
0
100
AcDbLine
 10
-1.0
 20
0.0
 11
0.0
 21
0.0
  0
ENDBLK
  5
256
100
AcDbEntity
  8
0
  6
BYBLOCK
 62
0
100
AcDbBlockEnd
  0
BLOCK
  5
257
100
AcDbEntity
  8
0
100
AcDbBlockBegin
 62
7
  6
CONTINUOUS
  2
*D0
 70
65
 10
0.0
 20
0.0
  3
*D0
  1

  0
MTEXT
  5
258
100
AcDbEntity
  8
0
100
AcDbMText
 62
7
  6
CONTINUOUS
  7
STANDARD
 71
2
 72
1
 10
345.015080592
 20
816.0177975528
 30
0.0
 11
0.0
 21
1.0
 31
0.0
  1
79,8
 40
10.0
 41
27.1747211896
  0
LINE
  5
259
100
AcDbEntity
  8
0
100
AcDbLine
 62
7
  6
CONTINUOUS
 10
384.7008123436
 20
776.1177975528
 11
356.765080592
 21
776.1177975528
  0
LINE
  5
25A
100
AcDbEntity
  8
0
100
AcDbLine
 62
7
  6
CONTINUOUS
 10
392.3975494591
 20
855.9177975528
 11
356.765080592
 21
855.9177975528
  0
LINE
  5
25B
100
AcDbEntity
  8
0
100
AcDbLine
 62
7
  6
CONTINUOUS
 10
357.515080592
 20
776.1177975528
 11
357.515080592
 21
816.0177975528
  0
LINE
  5
25C
100
AcDbEntity
  8
0
100
AcDbLine
 62
7
  6
CONTINUOUS
 10
357.515080592
 20
855.9177975528
 11
357.515080592
 21
816.0177975528
  0
INSERT
  5
25D
100
AcDbEntity
  8
0
100
AcDbBlockReference
 62
7
  6
CONTINUOUS
  2
_CLOSED
 10
357.515080592
 20
776.1177975528
 41
2.5
 42
2.5
 43
2.5
 50
270.0
  0
INSERT
  5
25E
100
AcDbEntity
  8
0
100
AcDbBlockReference
 62
7
  6
CONTINUOUS
  2
_CLOSED
 10
357.515080592
 20
855.9177975528
 41
2.5
 42
2.5
 43
2.5
 50
90.0
  0
ENDBLK
  5
25F
100
AcDbEntity
  8
0
  6
BYBLOCK
 62
0
100
AcDbBlockEnd
  0
BLOCK
  5
260
100
AcDbEntity
  8
0
100
AcDbBlockBegin
 62
7
  6
CONTINUOUS
  2
*D1
 70
65
 10
0.0
 20
0.0
  3
*D1
  1

  0
MTEXT
  5
261
100
AcDbEntity
  8
0
100
AcDbMText
 62
7
  6
CONTINUOUS
  7
STANDARD
 71
2
 72
1
 10
440.7116577274
 20
713.1612814901
 30
0.0
 11
1.0
 21
0.0
 31
0.0
  1
81,31
 40
10.0
 41
34.9442379182
  0
LINE
  5
262
100
AcDbEntity
  8
0
100
AcDbLine
 62
7
  6
CONTINUOUS
 10
400.0553610853
 20
755.550772327
 11
400.0553610853
 21
699.9112814901
  0
LINE
  5
263
100
AcDbEntity
  8
0
100
AcDbLine
 62
7
  6
CONTINUOUS
 10
481.3679543695
 20
755.550772327
 11
481.3679543695
 21
699.9112814901
  0
LINE
  5
264
100
AcDbEntity
  8
0
100
AcDbLine
 62
7
  6
CONTINUOUS
 10
400.0553610853
 20
700.6612814901
 11
440.7116577274
 21
700.6612814901
  0
LINE
  5
265
100
AcDbEntity
  8
0
100
AcDbLine
 62
7
  6
CONTINUOUS
 10
481.3679543695
 20
700.6612814901
 11
440.7116577274
 21
700.6612814901
  0
INSERT
  5
266
100
AcDbEntity
  8
0
100
AcDbBlockReference
 62
7
  6
CONTINUOUS
  2
_CLOSED
 10
400.0553610853
 20
700.6612814901
 41
2.5
 42
2.5
 43
2.5
 50
180.0
  0
INSERT
  5
267
100
AcDbEntity
  8
0
100
AcDbBlockReference
 62
7
  6
CONTINUOUS
  2
_CLOSED
 10
481.3679543695
 20
700.6612814901
 41
2.5
 42
2.5
 43
2.5
  0
ENDBLK
  5
268
100
AcDbEntity
  8
0
  6
BYBLOCK
 62
0
100
AcDbBlockEnd
  0
BLOCK
  5
269
100
AcDbEntity
  8
0
100
AcDbBlockBegin
 62
7
  6
CONTINUOUS
  2
*D2
 70
65
 10
0.0
 20
0.0
  3
*D2
  1

  0
MTEXT
  5
26A
100
AcDbEntity
  8
0
100
AcDbMText
 62
7
  6
CONTINUOUS
  7
STANDARD
 71
2
 72
1
 10
440.7116577274
 20
748.6102924179
 30
0.0
 11
1.0
 21
0.0
 31
0.0
  1
41,6
 40
10.0
 41
27.1747211896
  0
LINE
  5
26B
100
AcDbEntity
  8
0
100
AcDbLine
 62
7
  6
CONTINUOUS
 10
461.5116577274
 20
756.8390063032
 11
461.5116577274
 21
735.3602924179
  0
LINE
  5
26C
100
AcDbEntity
  8
0
100
AcDbLine
 62
7
  6
CONTINUOUS
 10
419.9116577274
 20
755.550772327
 11
419.9116577274
 21
735.3602924179
  0
LINE
  5
26D
100
AcDbEntity
  8
0
100
AcDbLine
 62
7
  6
CONTINUOUS
 10
461.5116577274
 20
736.1102924179
 11
440.7116577274
 21
736.1102924179
  0
LINE
  5
26E
100
AcDbEntity
  8
0
100
AcDbLine
 62
7
  6
CONTINUOUS
 10
419.9116577274
 20
736.1102924179
 11
440.7116577274
 21
736.1102924179
  0
INSERT
  5
26F
100
AcDbEntity
  8
0
100
AcDbBlockReference
 62
7
  6
CONTINUOUS
  2
_CLOSED
 10
461.5116577274
 20
736.1102924179
 41
2.5
 42
2.5
 43
2.5
  0
INSERT
  5
270
100
AcDbEntity
  8
0
100
AcDbBlockReference
 62
7
  6
CONTINUOUS
  2
_CLOSED
 10
419.9116577274
 20
736.1102924179
 41
2.5
 42
2.5
 43
2.5
 50
180.0
  0
ENDBLK
  5
271
100
AcDbEntity
  8
0
  6
BYBLOCK
 62
0
100
AcDbBlockEnd
  0
BLOCK
  5
272
100
AcDbEntity
  8
0
100
AcDbBlockBegin
 62
7
  6
CONTINUOUS
  2
*D3
 70
65
 10
0.0
 20
0.0
  3
*D3
  1

  0
MTEXT
  5
273
100
AcDbEntity
  8
0
100
AcDbMText
 62
7
  6
CONTINUOUS
  7
STANDARD
 71
2
 72
1
 10
1906.340378198
 20
713.1612814901
 30
0.0
 11
1.0
 21
0.0
 31
0.0
  1
2247
 40
10.0
 41
31.0780669145
  0
LINE
  5
274
100
AcDbEntity
  8
0
100
AcDbLine
 62
7
  6
CONTINUOUS
 10
3029.840378198
 20
755.550772327
 11
3029.840378198
 21
699.9112814901
  0
LINE
  5
275
100
AcDbEntity
  8
0
100
AcDbLine
 62
7
  6
CONTINUOUS
 10
782.840378198
 20
755.550772327
 11
782.840378198
 21
699.9112814901
  0
LINE
  5
276
100
AcDbEntity
  8
0
100
AcDbLine
 62
7
  6
CONTINUOUS
 10
3029.840378198
 20
700.6612814901
 11
1906.340378198
 21
700.6612814901
  0
LINE
  5
277
100
AcDbEntity
  8
0
100
AcDbLine
 62
7
  6
CONTINUOUS
 10
782.840378198
 20
700.6612814901
 11
1906.340378198
 21
700.6612814901
  0
INSERT
  5
278
100
AcDbEntity
  8
0
100
AcDbBlockReference
 62
7
  6
CONTINUOUS
  2
_CLOSED
 10
3029.840378198
 20
700.6612814901
 41
2.5
 42
2.5
 43
2.5
  0
INSERT
  5
279
100
AcDbEntity
  8
0
100
AcDbBlockReference
 62
7
  6
CONTINUOUS
  2
_CLOSED
 10
782.840378198
 20
700.6612814901
 41
2.5
 42
2.5
 43
2.5
 50
180.0
  0
ENDBLK
  5
27A
100
AcDbEntity
  8
0
  6
BYBLOCK
 62
0
100
AcDbBlockEnd
  0
ENDSEC
  0
SECTION
  2
ENTITIES
  0
DIMENSION
  5
27B
100
AcDbEntity
  8
0
100
AcDbDimension
 62
7
  6
CONTINUOUS
  2
*D0
 10
357.515080592
 20
855.9177975528
 11
357.515080592
 21
816.0048094911
 70
160
  3
DIMSTYLE_1
100
AcDbAlignedDimension
 13
385.4508123436
 23
776.1177975528
 14
393.1475494591
 24
855.9177975528
 50
90.0
100
AcDbRotatedDimension
  0
DIMENSION
  5
27C
100
AcDbEntity
  8
0
100
AcDbDimension
 62
7
  6
CONTINUOUS
  2
*D1
 10
481.3679543695
 20
700.6612814901
 11
439.68671875
 21
700.6612814901
 70
160
  3
DIMSTYLE_1
100
AcDbAlignedDimension
 13
400.0553610853
 23
756.300772327
 14
481.3679543695
 24
756.300772327
100
AcDbRotatedDimension
  0
DIMENSION
  5
27D
100
AcDbEntity
  8
0
100
AcDbDimension
 62
7
  6
CONTINUOUS
  2
*D2
 10
419.9116577274
 20
736.1102924179
 11
440.45703125
 21
736.1102924179
 70
160
  3
DIMSTYLE_1
100
AcDbAlignedDimension
 13
461.5116577274
 23
757.5890063032
 14
419.9116577274
 24
756.300772327
 50
180.0
100
AcDbRotatedDimension
  0
DIMENSION
  5
27E
100
AcDbEntity
  8
0
100
AcDbDimension
 62
7
  6
CONTINUOUS
  2
*D3
 10
782.840378198
 20
700.6612814901
 11
1906.2041992188
 21
700.6612814901
 70
160
  3
DIMSTYLE_2
100
AcDbAlignedDimension
 13
3029.840378198
 23
756.300772327
 14
782.840378198
 24
756.300772327
 50
180.0
100
AcDbRotatedDimension
  0
LINE
  5
27F
100
AcDbEntity
  8
0
100
AcDbLine
 62
2
  6
CONTINUOUS
 10
3099.5507214317
 20
50.7776170738
 11
3189.5507214317
 21
50.7776170738
  0
LINE
  5
280
100
AcDbEntity
  8
0
100
AcDbLine
 62
2
  6
CONTINUOUS
 10
3099.5507214317
 20
50.7776170738
 11
3099.5507214317
 21
10.7776170738
  0
LINE
  5
281
100
AcDbEntity
  8
0
100
AcDbLine
 62
2
  6
CONTINUOUS
 10
3129.5507214317
 20
44.7776170738
 11
3189.5507214317
 21
44.7776170738
  0
LINE
  5
282
100
AcDbEntity
  8
0
100
AcDbLine
 62
2
  6
CONTINUOUS
 10
3129.5507214317
 20
38.7776170738
 11
3189.5507214317
 21
38.7776170738
  0
LINE
  5
283
100
AcDbEntity
  8
0
100
AcDbLine
 62
2
  6
CONTINUOUS
 10
3129.5507214317
 20
28.7776170738
 11
3189.5507214317
 21
28.7776170738
  0
LINE
  5
284
100
AcDbEntity
  8
0
100
AcDbLine
 62
2
  6
CONTINUOUS
 10
3099.5507214317
 20
23.7776170738
 11
3189.5507214317
 21
23.7776170738
  0
LINE
  5
285
100
AcDbEntity
  8
0
100
AcDbLine
 62
2
  6
CONTINUOUS
 10
3099.5507214317
 20
10.7776170738
 11
3189.5507214317
 21
10.7776170738
  0
LINE
  5
286
100
AcDbEntity
  8
0
100
AcDbLine
 62
2
  6
CONTINUOUS
 10
3129.5507214317
 20
50.7776170738
 11
3129.5507214317
 21
23.7776170738
  0
LINE
  5
287
100
AcDbEntity
  8
0
100
AcDbLine
 62
2
  6
CONTINUOUS
 10
3169.5507214317
 20
50.7776170738
 11
3169.5507214317
 21
38.7776170738
  0
LINE
  5
288
100
AcDbEntity
  8
0
100
AcDbLine
 62
2
  6
CONTINUOUS
 10
3189.5507214317
 20
50.7776170738
 11
3189.5507214317
 21
10.7776170738
  0
INSERT
  5
289
100
AcDbEntity
  8
0
100
AcDbBlockReference
 62
2
  6
CONTINUOUS
  2
LOGO2_BL0
 10
3113.3767684765
 20
37.2776170738
  0
MTEXT
  5
28A
100
AcDbEntity
  8
9_SOLID
100
AcDbMText
 62
2
  6
CONTINUOUS
  7
TEXTSTYLE_2
 71
1
 72
1
 10
3131.0382214317
 20
49.2776170738
 30
0.0
 11
1.0
 21
0.0
 31
0.0
  1
6F3_C_046
 40
3.0
 41
32.25
  0
MTEXT
  5
28B
100
AcDbEntity
  8
0
100
AcDbMText
 62
2
  6
CONTINUOUS
  7
TEXTSTYLE_2
 71
1
 72
1
 10
3171.0382214317
 20
49.0276170738
 30
0.0
 11
1.0
 21
0.0
 31
0.0
  1
Rev:00
 40
3.5
 41
22.75
  0
MTEXT
  5
28C
100
AcDbEntity
  8
9_SOLID
100
AcDbMText
 62
2
  6
CONTINUOUS
  7
TEXTSTYLE_2
 71
1
 72
1
 10
3131.0382214317
 20
43.0276170738
 30
0.0
 11
1.0
 21
0.0
 31
0.0
  1
Scale:1:1
 40
3.5
 41
28.375
  0
MTEXT
  5
28D
100
AcDbEntity
  8
9_SOLID
100
AcDbMText
 62
2
  6
CONTINUOUS
  7
TEXTSTYLE_2
 71
1
 72
1
 10
3171.0382214317
 20
43.5276170738
 30
0.0
 11
1.0
 21
0.0
 31
0.0
  1
3200 by 2500
 40
3.5
 41
48.5
  0
MTEXT
  5
28E
100
AcDbEntity
  8
0
100
AcDbMText
 62
2
  6
CONTINUOUS
  7
TEXTSTYLE_2
 71
1
 72
1
 10
3131.0382214317
 20
35.5276170738
 30
0.0
 11
1.0
 21
0.0
 31
0.0
  1
CASS. BRENTA 1.7 A FILO NO STANDARD
 40
3.5
 41
143.875
  0
MTEXT
  5
28F
100
AcDbEntity
  8
0
100
AcDbMText
 62
2
  6
CONTINUOUS
  7
TEXTSTYLE_2
 71
1
 72
1
 10
3131.0382214317
 20
27.5276170738
 30
0.0
 11
1.0
 21
0.0
 31
0.0
  1
DATE:08/05/18
 40
2.5
 41
36.875
  0
MTEXT
  5
290
100
AcDbEntity
  8
9_SOLID
100
AcDbMText
 62
2
  6
CONTINUOUS
  7
TEXTSTYLE_2
 71
1
 72
1
 10
3101.0382214317
 20
23.4651170738
 30
0.0
 11
1.0
 21
0.0
 31
0.0
  1
Any integral or partial reproductions are prohibited \Pwithout prior authorisation of L {\Ftxt.shx;\W0.190476;\H2.250000; }& L Luce & Light s.r.l., \Pin accordance with the law in force. \PAll rights reserved.
 40
2.25
 41
134.5982142857
  0
LINE
  5
291
100
AcDbEntity
  8
0
100
AcDbLine
 62
7
  6
CONTINUOUS
 10
0.0
 20
0.0
 11
0.0
 21
2500.0
  0
LINE
  5
292
100
AcDbEntity
  8
0
100
AcDbLine
 62
7
  6
CONTINUOUS
 10
0.0
 20
0.0
 11
3200.0
 21
0.0
  0
LINE
  5
293
100
AcDbEntity
  8
0
100
AcDbLine
 62
7
  6
CONTINUOUS
 10
0.0
 20
2500.0
 11
3200.0
 21
2500.0
  0
LINE
  5
294
100
AcDbEntity
  8
0
100
AcDbLine
 62
7
  6
CONTINUOUS
 10
3200.0
 20
0.0
 11
3200.0
 21
2500.0
  0
LINE
  5
295
100
AcDbEntity
  8
6_ALL_SURFS
100
AcDbLine
 62
7
  6
CONTINUOUS
 10
402.3616577274
 20
778.7677975528
 11
402.6616577274
 21
778.6177975528
  0
LINE
  5
296
100
AcDbEntity
  8
6_ALL_SURFS
100
AcDbLine
 62
7
  6
CONTINUOUS
 10
405.3616577274
 20
778.7677975528
 11
405.6616577274
 21
778.6177975528
  0
LINE
  5
297
100
AcDbEntity
  8
6_ALL_SURFS
100
AcDbLine
 62
7
  6
CONTINUOUS
 10
408.3616577274
 20
778.7677975528
 11
408.6616577274
 21
778.6177975528
  0
LINE
  5
298
100
AcDbEntity
  8
6_ALL_SURFS
100
AcDbLine
 62
7
  6
CONTINUOUS
 10
411.3616577274
 20
778.7677975528
 11
411.6616577274
 21
778.6177975528
  0
LINE
  5
299
100
AcDbEntity
  8
7_ALL_FEATURES
100
AcDbLine
 62
7
  6
CONTINUOUS
 10
479.2616577274
 20
777.6177975528
 11
481.4071293178
 21
777.8323447119
  0
LINE
  5
29A
100
AcDbEntity
  8
6_ALL_SURFS
100
AcDbLine
 62
7
  6
CONTINUOUS
 10
402.1616577274
 20
777.6177975528
 11
400.016186137
 21
777.8323447119
  0
LINE
  5
29B
100
AcDbEntity
  8
6_ALL_SURFS
100
AcDbLine
 62
7
  6
CONTINUOUS
 10
414.3616577274
 20
778.7677975528
 11
414.6616577274
 21
778.6177975528
  0
LINE
  5
29C
100
AcDbEntity
  8
6_ALL_SURFS
100
AcDbLine
 62
7
  6
CONTINUOUS
 10
417.3616577274
 20
778.7677975528
 11
417.6616577274
 21
778.6177975528
  0
LINE
  5
29D
100
AcDbEntity
  8
6_ALL_SURFS
100
AcDbLine
 62
7
  6
CONTINUOUS
 10
420.8616577274
 20
776.1177975528
 11
420.2116577274
 21
776.1177975528
  0
LINE
  5
29E
100
AcDbEntity
  8
7_ALL_FEATURES
100
AcDbLine
 62
7
  6
CONTINUOUS
 10
421.5616577274
 20
776.1177975528
 11
459.8616577274
 21
776.1177975528
  0
LINE
  5
29F
100
AcDbEntity
  8
7_ALL_FEATURES
100
AcDbLine
 62
7
  6
CONTINUOUS
 10
460.5616577274
 20
776.1177975528
 11
461.2116577274
 21
776.1177975528
  0
LINE
  5
2A0
100
AcDbEntity
  8
7_ALL_FEATURES
100
AcDbLine
 62
7
  6
CONTINUOUS
 10
422.4116577274
 20
777.1177975528
 11
422.1116577274
 21
777.1177975528
  0
LINE
  5
2A1
100
AcDbEntity
  8
6_ALL_SURFS
100
AcDbLine
 62
7
  6
CONTINUOUS
 10
422.1116577274
 20
777.1177975528
 11
421.4616577274
 21
777.1177975528
  0
LINE
  5
2A2
100
AcDbEntity
  8
7_ALL_FEATURES
100
AcDbLine
 62
7
  6
CONTINUOUS
 10
459.0116577274
 20
777.1177975528
 11
459.9616577274
 21
777.1177975528
  0
LINE
  5
2A3
100
AcDbEntity
  8
7_ALL_FEATURES
100
AcDbLine
 62
7
  6
CONTINUOUS
 10
457.8116577274
 20
777.2177975528
 11
423.6116577274
 21
777.2177975528
  0
LINE
  5
2A4
100
AcDbEntity
  8
6_ALL_SURFS
100
AcDbLine
 62
7
  6
CONTINUOUS
 10
419.6116577274
 20
777.6177975528
 11
417.6616577274
 21
777.6177975528
  0
LINE
  5
2A5
100
AcDbEntity
  8
6_ALL_SURFS
100
AcDbLine
 62
7
  6
CONTINUOUS
 10
417.0616577274
 20
777.6177975528
 11
414.6616577274
 21
777.6177975528
  0
LINE
  5
2A6
100
AcDbEntity
  8
6_ALL_SURFS
100
AcDbLine
 62
7
  6
CONTINUOUS
 10
414.0616577274
 20
777.6177975528
 11
411.6616577274
 21
777.6177975528
  0
LINE
  5
2A7
100
AcDbEntity
  8
6_ALL_SURFS
100
AcDbLine
 62
7
  6
CONTINUOUS
 10
411.0616577274
 20
777.6177975528
 11
408.6616577274
 21
777.6177975528
  0
LINE
  5
2A8
100
AcDbEntity
  8
6_ALL_SURFS
100
AcDbLine
 62
7
  6
CONTINUOUS
 10
408.0616577274
 20
777.6177975528
 11
405.6616577274
 21
777.6177975528
  0
LINE
  5
2A9
100
AcDbEntity
  8
6_ALL_SURFS
100
AcDbLine
 62
7
  6
CONTINUOUS
 10
405.0616577274
 20
777.6177975528
 11
402.1616577274
 21
777.6177975528
  0
LINE
  5
2AA
100
AcDbEntity
  8
7_ALL_FEATURES
100
AcDbLine
 62
7
  6
CONTINUOUS
 10
461.8116577274
 20
777.6177975528
 11
463.7616577274
 21
777.6177975528
  0
LINE
  5
2AB
100
AcDbEntity
  8
3_ALL_AXES
100
AcDbLine
 62
7
  6
CONTINUOUS
 10
464.3616577274
 20
777.6177975528
 11
466.7616577274
 21
777.6177975528
  0
LINE
  5
2AC
100
AcDbEntity
  8
3_ALL_AXES
100
AcDbLine
 62
7
  6
CONTINUOUS
 10
470.3616577274
 20
777.6177975528
 11
472.7616577274
 21
777.6177975528
  0
LINE
  5
2AD
100
AcDbEntity
  8
3_ALL_AXES
100
AcDbLine
 62
7
  6
CONTINUOUS
 10
467.3616577274
 20
777.6177975528
 11
469.7616577274
 21
777.6177975528
  0
LINE
  5
2AE
100
AcDbEntity
  8
3_ALL_AXES
100
AcDbLine
 62
7
  6
CONTINUOUS
 10
473.3616577274
 20
777.6177975528
 11
475.7616577274
 21
777.6177975528
  0
LINE
  5
2AF
100
AcDbEntity
  8
3_ALL_AXES
100
AcDbLine
 62
7
  6
CONTINUOUS
 10
476.3616577274
 20
777.6177975528
 11
479.2616577274
 21
777.6177975528
  0
LINE
  5
2B0
100
AcDbEntity
  8
7_ALL_FEATURES
100
AcDbLine
 62
7
  6
CONTINUOUS
 10
481.3679543695
 20
778.6177975528
 11
479.3616577274
 21
778.6177975528
  0
LINE
  5
2B1
100
AcDbEntity
  8
3_ALL_AXES
100
AcDbLine
 62
7
  6
CONTINUOUS
 10
478.7616577274
 20
778.6177975528
 11
476.3616577274
 21
778.6177975528
  0
LINE
  5
2B2
100
AcDbEntity
  8
3_ALL_AXES
100
AcDbLine
 62
7
  6
CONTINUOUS
 10
475.7616577274
 20
778.6177975528
 11
473.3616577274
 21
778.6177975528
  0
LINE
  5
2B3
100
AcDbEntity
  8
3_ALL_AXES
100
AcDbLine
 62
7
  6
CONTINUOUS
 10
469.7616577274
 20
778.6177975528
 11
467.3616577274
 21
778.6177975528
  0
LINE
  5
2B4
100
AcDbEntity
  8
3_ALL_AXES
100
AcDbLine
 62
7
  6
CONTINUOUS
 10
472.7616577274
 20
778.6177975528
 11
470.3616577274
 21
778.6177975528
  0
LINE
  5
2B5
100
AcDbEntity
  8
3_ALL_AXES
100
AcDbLine
 62
7
  6
CONTINUOUS
 10
466.7616577274
 20
778.6177975528
 11
464.3616577274
 21
778.6177975528
  0
LINE
  5
2B6
100
AcDbEntity
  8
7_ALL_FEATURES
100
AcDbLine
 62
7
  6
CONTINUOUS
 10
463.7616577274
 20
778.6177975528
 11
462.0616577274
 21
778.6177975528
  0
LINE
  5
2B7
100
AcDbEntity
  8
7_ALL_FEATURES
100
AcDbLine
 62
7
  6
CONTINUOUS
 10
459.9616577274
 20
778.6177975528
 11
459.1445850853
 21
778.6177975528
  0
LINE
  5
2B8
100
AcDbEntity
  8
6_ALL_SURFS
100
AcDbLine
 62
7
  6
CONTINUOUS
 10
400.0553610853
 20
778.6177975528
 11
402.0616577274
 21
778.6177975528
  0
LINE
  5
2B9
100
AcDbEntity
  8
6_ALL_SURFS
100
AcDbLine
 62
7
  6
CONTINUOUS
 10
402.6616577274
 20
778.6177975528
 11
405.0616577274
 21
778.6177975528
  0
LINE
  5
2BA
100
AcDbEntity
  8
6_ALL_SURFS
100
AcDbLine
 62
7
  6
CONTINUOUS
 10
405.6616577274
 20
778.6177975528
 11
408.0616577274
 21
778.6177975528
  0
LINE
  5
2BB
100
AcDbEntity
  8
6_ALL_SURFS
100
AcDbLine
 62
7
  6
CONTINUOUS
 10
408.6616577274
 20
778.6177975528
 11
411.0616577274
 21
778.6177975528
  0
LINE
  5
2BC
100
AcDbEntity
  8
6_ALL_SURFS
100
AcDbLine
 62
7
  6
CONTINUOUS
 10
411.6616577274
 20
778.6177975528
 11
414.0616577274
 21
778.6177975528
  0
LINE
  5
2BD
100
AcDbEntity
  8
6_ALL_SURFS
100
AcDbLine
 62
7
  6
CONTINUOUS
 10
414.6616577274
 20
778.6177975528
 11
417.0616577274
 21
778.6177975528
  0
LINE
  5
2BE
100
AcDbEntity
  8
6_ALL_SURFS
100
AcDbLine
 62
7
  6
CONTINUOUS
 10
417.6616577274
 20
778.6177975528
 11
419.3616577274
 21
778.6177975528
  0
LINE
  5
2BF
100
AcDbEntity
  8
6_ALL_SURFS
100
AcDbLine
 62
7
  6
CONTINUOUS
 10
421.4616577274
 20
778.6177975528
 11
422.2787303695
 21
778.6177975528
  0
LINE
  5
2C0
100
AcDbEntity
  8
6_ALL_SURFS
100
AcDbLine
 62
7
  6
CONTINUOUS
 10
424.0116577274
 20
781.8677975528
 11
423.1921014399
 21
781.8677975528
  0
LINE
  5
2C1
100
AcDbEntity
  8
7_ALL_FEATURES
100
AcDbLine
 62
7
  6
CONTINUOUS
 10
457.4116577274
 20
781.8677975528
 11
458.2312140149
 21
781.8677975528
  0
LINE
  5
2C2
100
AcDbEntity
  8
6_ALL_SURFS
100
AcDbLine
 62
7
  6
CONTINUOUS
 10
423.7727234863
 20
786.3319858706
 11
424.1616577274
 21
786.1074345818
  0
LINE
  5
2C3
100
AcDbEntity
  8
6_ALL_SURFS
100
AcDbLine
 62
7
  6
CONTINUOUS
 10
422.2616577274
 20
784.2177975528
 11
421.5116577274
 21
784.2177975528
  0
LINE
  5
2C4
100
AcDbEntity
  8
7_ALL_FEATURES
100
AcDbLine
 62
7
  6
CONTINUOUS
 10
459.1616577274
 20
784.2177975528
 11
459.9116577274
 21
784.2177975528
  0
LINE
  5
2C5
100
AcDbEntity
  8
6_ALL_SURFS
100
AcDbLine
 62
7
  6
CONTINUOUS
 10
422.2787303695
 20
778.6177975528
 11
422.3765420053
 21
778.4338406208
  0
LINE
  5
2C6
100
AcDbEntity
  8
6_ALL_SURFS
100
AcDbLine
 62
7
  6
CONTINUOUS
 10
429.4974694097
 20
854.0788633117
 11
430.4725760484
 21
855.7677975528
  0
LINE
  5
2C7
100
AcDbEntity
  8
7_ALL_FEATURES
100
AcDbLine
 62
7
  6
CONTINUOUS
 10
439.2116577274
 20
853.9677975528
 11
439.0116577274
 21
853.7677975528
  0
LINE
  5
2C8
100
AcDbEntity
  8
7_ALL_FEATURES
100
AcDbLine
 62
7
  6
CONTINUOUS
 10
459.9116577274
 20
790.0177975528
 11
459.0116577274
 21
790.0177975528
  0
LINE
  5
2C9
100
AcDbEntity
  8
6_ALL_SURFS
100
AcDbLine
 62
7
  6
CONTINUOUS
 10
421.5116577274
 20
790.0177975528
 11
422.4116577274
 21
790.0177975528
  0
LINE
  5
2CA
100
AcDbEntity
  8
3_ALL_AXES
100
AcDbLine
 62
7
  6
CONTINUOUS
 10
464.3616577274
 20
778.6177975528
 11
464.0616577274
 21
778.7677975528
  0
LINE
  5
2CB
100
AcDbEntity
  8
6_ALL_SURFS
100
AcDbLine
 62
7
  6
CONTINUOUS
 10
419.5116577274
 20
786.2177975528
 11
419.5116577274
 21
788.0177975528
  0
LINE
  5
2CC
100
AcDbEntity
  8
6_ALL_SURFS
100
AcDbLine
 62
7
  6
CONTINUOUS
 10
419.6616577274
 20
778.9177975528
 11
419.6616577274
 21
779.8302970038
  0
LINE
  5
2CD
100
AcDbEntity
  8
6_ALL_SURFS
100
AcDbLine
 62
7
  6
CONTINUOUS
 10
419.9116577274
 20
776.4177975528
 11
419.9116577274
 21
777.3177975528
  0
LINE
  5
2CE
100
AcDbEntity
  8
6_ALL_SURFS
100
AcDbLine
 62
7
  6
CONTINUOUS
 10
421.1616577274
 20
779.7121238611
 11
421.1616577274
 21
778.9177975528
  0
LINE
  5
2CF
100
AcDbEntity
  8
6_ALL_SURFS
100
AcDbLine
 62
7
  6
CONTINUOUS
 10
421.1616577274
 20
776.8177975528
 11
421.1616577274
 21
776.4177975528
  0
LINE
  5
2D0
100
AcDbEntity
  8
7_ALL_FEATURES
100
AcDbLine
 62
7
  6
CONTINUOUS
 10
421.3616577274
 20
776.9177975528
 11
421.3616577274
 21
776.3177975528
  0
LINE
  5
2D1
100
AcDbEntity
  8
6_ALL_SURFS
100
AcDbLine
 62
7
  6
CONTINUOUS
 10
422.8301776918
 20
836.1455095518
 11
425.8568120387
 21
849.7977748377
  0
LINE
  5
2D2
100
AcDbEntity
  8
6_ALL_SURFS
100
AcDbLine
 62
7
  6
CONTINUOUS
 10
427.137946572
 20
848.1842371668
 11
424.3584331826
 21
835.6466624853
  0
LINE
  5
2D3
100
AcDbEntity
  8
6_ALL_SURFS
100
AcDbLine
 62
7
  6
CONTINUOUS
 10
424.7270213133
 20
834.9031354053
 11
424.3719651066
 21
833.9276264947
  0
LINE
  5
2D4
100
AcDbEntity
  8
3_ALL_AXES
100
AcDbLine
 62
7
  6
CONTINUOUS
 10
467.3616577274
 20
778.6177975528
 11
467.0616577274
 21
778.7677975528
  0
LINE
  5
2D5
100
AcDbEntity
  8
3_ALL_AXES
100
AcDbLine
 62
7
  6
CONTINUOUS
 10
470.3616577274
 20
778.6177975528
 11
470.0616577274
 21
778.7677975528
  0
LINE
  5
2D6
100
AcDbEntity
  8
3_ALL_AXES
100
AcDbLine
 62
7
  6
CONTINUOUS
 10
473.3616577274
 20
778.6177975528
 11
473.0616577274
 21
778.7677975528
  0
LINE
  5
2D7
100
AcDbEntity
  8
6_ALL_SURFS
100
AcDbLine
 62
7
  6
CONTINUOUS
 10
422.4116577274
 20
778.292999152
 11
422.4116577274
 21
777.4177975528
  0
LINE
  5
2D8
100
AcDbEntity
  8
6_ALL_SURFS
100
AcDbLine
 62
7
  6
CONTINUOUS
 10
422.5616577274
 20
783.7279872141
 11
422.5616577274
 21
783.9177975528
  0
LINE
  5
2D9
100
AcDbEntity
  8
7_ALL_FEATURES
100
AcDbLine
 62
7
  6
CONTINUOUS
 10
422.6116577274
 20
777.9377975528
 11
422.6116577274
 21
777.3177975528
  0
LINE
  5
2DA
100
AcDbEntity
  8
6_ALL_SURFS
100
AcDbLine
 62
7
  6
CONTINUOUS
 10
422.7116577274
 20
790.3177975528
 11
422.7116577274
 21
835.0633114821
  0
LINE
  5
2DB
100
AcDbEntity
  8
7_ALL_FEATURES
100
AcDbLine
 62
7
  6
CONTINUOUS
 10
423.4116577274
 20
777.4177975528
 11
423.4116577274
 21
777.9377975528
  0
LINE
  5
2DC
100
AcDbEntity
  8
6_ALL_SURFS
100
AcDbLine
 62
7
  6
CONTINUOUS
 10
424.3116577274
 20
833.5856063514
 11
424.3116577274
 21
788.3879681451
  0
LINE
  5
2DD
100
AcDbEntity
  8
6_ALL_SURFS
100
AcDbLine
 62
7
  6
CONTINUOUS
 10
424.3116577274
 20
785.8476269606
 11
424.3116577274
 21
782.1677975528
  0
LINE
  5
2DE
100
AcDbEntity
  8
6_ALL_SURFS
100
AcDbLine
 62
7
  6
CONTINUOUS
 10
424.7116577274
 20
854.9177975528
 11
424.7116577274
 21
855.6177975528
  0
LINE
  5
2DF
100
AcDbEntity
  8
3_ALL_AXES
100
AcDbLine
 62
7
  6
CONTINUOUS
 10
476.3616577274
 20
778.6177975528
 11
476.0616577274
 21
778.7677975528
  0
LINE
  5
2E0
100
AcDbEntity
  8
3_ALL_AXES
100
AcDbLine
 62
7
  6
CONTINUOUS
 10
479.3616577274
 20
778.6177975528
 11
479.0616577274
 21
778.7677975528
  0
LINE
  5
2E1
100
AcDbEntity
  8
7_ALL_FEATURES
100
AcDbLine
 62
7
  6
CONTINUOUS
 10
457.2616577274
 20
788.1281605239
 11
457.6505919685
 21
787.9036092351
  0
LINE
  5
2E2
100
AcDbEntity
  8
7_ALL_FEATURES
100
AcDbLine
 62
7
  6
CONTINUOUS
 10
458.5083278572
 20
780.1449982088
 11
458.8727556704
 21
779.7541972249
  0
LINE
  5
2E3
100
AcDbEntity
  8
6_ALL_SURFS
100
AcDbLine
 62
7
  6
CONTINUOUS
 10
431.5116577274
 20
855.6177975528
 11
431.5116577274
 21
852.7177975528
  0
LINE
  5
2E4
100
AcDbEntity
  8
7_ALL_FEATURES
100
AcDbLine
 62
7
  6
CONTINUOUS
 10
433.2116577274
 20
848.9677975528
 11
433.2116577274
 21
847.9677975528
  0
LINE
  5
2E5
100
AcDbEntity
  8
7_ALL_FEATURES
100
AcDbLine
 62
7
  6
CONTINUOUS
 10
454.4725760484
 20
855.7677975528
 11
453.4974694097
 21
854.0788633117
  0
LINE
  5
2E6
100
AcDbEntity
  8
7_ALL_FEATURES
100
AcDbLine
 62
7
  6
CONTINUOUS
 10
456.9263421967
 20
835.3244827234
 11
456.8238532011
 21
835.2629893261
  0
LINE
  5
2E7
100
AcDbEntity
  8
7_ALL_FEATURES
100
AcDbLine
 62
7
  6
CONTINUOUS
 10
459.4578386317
 20
780.2997959129
 11
459.0934108185
 21
780.6905968969
  0
LINE
  5
2E8
100
AcDbEntity
  8
7_ALL_FEATURES
100
AcDbLine
 62
7
  6
CONTINUOUS
 10
458.4506201254
 20
781.7723970609
 11
460.1810638379
 21
779.9167233691
  0
LINE
  5
2E9
100
AcDbEntity
  8
7_ALL_FEATURES
100
AcDbLine
 62
7
  6
CONTINUOUS
 10
461.3586882798
 20
780.8532945439
 11
458.9959808766
 21
783.3869880341
  0
LINE
  5
2EA
100
AcDbEntity
  8
7_ALL_FEATURES
100
AcDbLine
 62
7
  6
CONTINUOUS
 10
436.7116577274
 20
845.9395943226
 11
436.7116577274
 21
847.9677975528
  0
LINE
  5
2EB
100
AcDbEntity
  8
6_ALL_SURFS
100
AcDbLine
 62
7
  6
CONTINUOUS
 10
437.1116577274
 20
850.8677975528
 11
437.1116577274
 21
854.1177975528
  0
LINE
  5
2EC
100
AcDbEntity
  8
7_ALL_FEATURES
100
AcDbLine
 62
7
  6
CONTINUOUS
 10
438.7116577274
 20
845.1218308604
 11
438.7116577274
 21
845.137985136
  0
LINE
  5
2ED
100
AcDbEntity
  8
6_ALL_SURFS
100
AcDbLine
 62
7
  6
CONTINUOUS
 10
439.0116577274
 20
854.0177975528
 11
439.0116577274
 21
849.2677975528
  0
LINE
  5
2EE
100
AcDbEntity
  8
7_ALL_FEATURES
100
AcDbLine
 62
7
  6
CONTINUOUS
 10
440.2116577274
 20
844.8991088276
 11
440.2116577274
 21
845.137985136
  0
LINE
  5
2EF
100
AcDbEntity
  8
7_ALL_FEATURES
100
AcDbLine
 62
7
  6
CONTINUOUS
 10
441.2116577274
 20
845.137985136
 11
441.2116577274
 21
844.8991088276
  0
LINE
  5
2F0
100
AcDbEntity
  8
7_ALL_FEATURES
100
AcDbLine
 62
7
  6
CONTINUOUS
 10
442.4116577274
 20
854.0177975528
 11
442.4116577274
 21
849.2677975528
  0
LINE
  5
2F1
100
AcDbEntity
  8
7_ALL_FEATURES
100
AcDbLine
 62
7
  6
CONTINUOUS
 10
442.7116577274
 20
845.137985136
 11
442.7116577274
 21
845.1218308604
  0
LINE
  5
2F2
100
AcDbEntity
  8
7_ALL_FEATURES
100
AcDbLine
 62
7
  6
CONTINUOUS
 10
444.3116577274
 20
850.8677975528
 11
444.3116577274
 21
854.1177975528
  0
LINE
  5
2F3
100
AcDbEntity
  8
7_ALL_FEATURES
100
AcDbLine
 62
7
  6
CONTINUOUS
 10
444.7116577274
 20
845.9395943226
 11
444.7116577274
 21
847.9677975528
  0
LINE
  5
2F4
100
AcDbEntity
  8
7_ALL_FEATURES
100
AcDbLine
 62
7
  6
CONTINUOUS
 10
448.2116577274
 20
847.9677975528
 11
448.2116577274
 21
848.9677975528
  0
LINE
  5
2F5
100
AcDbEntity
  8
6_ALL_SURFS
100
AcDbLine
 62
7
  6
CONTINUOUS
 10
426.9507394064
 20
855.7677975528
 11
427.9258460451
 21
854.0788633117
  0
LINE
  5
2F6
100
AcDbEntity
  8
7_ALL_FEATURES
100
AcDbLine
 62
7
  6
CONTINUOUS
 10
449.9116577274
 20
855.6177975528
 11
449.9116577274
 21
852.7177975528
  0
LINE
  5
2F7
100
AcDbEntity
  8
6_ALL_SURFS
100
AcDbLine
 62
7
  6
CONTINUOUS
 10
420.064627175
 20
780.8532945439
 11
422.4273345782
 21
783.3869880341
  0
LINE
  5
2F8
100
AcDbEntity
  8
6_ALL_SURFS
100
AcDbLine
 62
7
  6
CONTINUOUS
 10
422.9726953294
 20
781.7723970609
 11
421.2422516169
 21
779.9167233691
  0
LINE
  5
2F9
100
AcDbEntity
  8
7_ALL_FEATURES
100
AcDbLine
 62
7
  6
CONTINUOUS
 10
422.3299046363
 20
780.6905968969
 11
421.9654768231
 21
780.2997959129
  0
LINE
  5
2FA
100
AcDbEntity
  8
7_ALL_FEATURES
100
AcDbLine
 62
7
  6
CONTINUOUS
 10
422.5505597844
 20
779.7541972249
 11
422.9149875976
 21
780.1449982088
  0
LINE
  5
2FB
100
AcDbEntity
  8
6_ALL_SURFS
100
AcDbLine
 62
7
  6
CONTINUOUS
 10
424.4969732581
 20
835.3244827234
 11
424.5994622537
 21
835.2629893261
  0
LINE
  5
2FC
100
AcDbEntity
  8
7_ALL_FEATURES
100
AcDbLine
 62
7
  6
CONTINUOUS
 10
456.7116577274
 20
854.9177975528
 11
456.7116577274
 21
855.6177975528
  0
LINE
  5
2FD
100
AcDbEntity
  8
7_ALL_FEATURES
100
AcDbLine
 62
7
  6
CONTINUOUS
 10
457.1116577274
 20
833.5856063514
 11
457.1116577274
 21
788.3879681451
  0
LINE
  5
2FE
100
AcDbEntity
  8
7_ALL_FEATURES
100
AcDbLine
 62
7
  6
CONTINUOUS
 10
457.1116577274
 20
785.8476269606
 11
457.1116577274
 21
782.1677975528
  0
LINE
  5
2FF
100
AcDbEntity
  8
7_ALL_FEATURES
100
AcDbLine
 62
7
  6
CONTINUOUS
 10
458.0116577274
 20
777.9377975528
 11
458.0116577274
 21
777.4177975528
  0
LINE
  5
300
100
AcDbEntity
  8
7_ALL_FEATURES
100
AcDbLine
 62
7
  6
CONTINUOUS
 10
458.7116577274
 20
790.3177975528
 11
458.7116577274
 21
835.0633114821
  0
LINE
  5
301
100
AcDbEntity
  8
7_ALL_FEATURES
100
AcDbLine
 62
7
  6
CONTINUOUS
 10
458.8116577274
 20
777.3177975528
 11
458.8116577274
 21
777.9377975528
  0
LINE
  5
302
100
AcDbEntity
  8
7_ALL_FEATURES
100
AcDbLine
 62
7
  6
CONTINUOUS
 10
458.8616577274
 20
783.7279872141
 11
458.8616577274
 21
783.9177975528
  0
LINE
  5
303
100
AcDbEntity
  8
7_ALL_FEATURES
100
AcDbLine
 62
7
  6
CONTINUOUS
 10
459.0116577274
 20
778.292999152
 11
459.0116577274
 21
777.4177975528
  0
LINE
  5
304
100
AcDbEntity
  8
7_ALL_FEATURES
100
AcDbLine
 62
7
  6
CONTINUOUS
 10
460.0616577274
 20
776.3177975528
 11
460.0616577274
 21
776.9177975528
  0
LINE
  5
305
100
AcDbEntity
  8
7_ALL_FEATURES
100
AcDbLine
 62
7
  6
CONTINUOUS
 10
460.2616577274
 20
776.8177975528
 11
460.2616577274
 21
776.4177975528
  0
LINE
  5
306
100
AcDbEntity
  8
7_ALL_FEATURES
100
AcDbLine
 62
7
  6
CONTINUOUS
 10
460.2616577274
 20
779.7121238611
 11
460.2616577274
 21
778.9177975528
  0
LINE
  5
307
100
AcDbEntity
  8
6_ALL_SURFS
100
AcDbLine
 62
7
  6
CONTINUOUS
 10
424.1616577274
 20
788.1281605239
 11
423.7727234863
 21
787.9036092351
  0
LINE
  5
308
100
AcDbEntity
  8
6_ALL_SURFS
100
AcDbLine
 62
7
  6
CONTINUOUS
 10
402.0616577274
 20
778.6177975528
 11
402.3616577274
 21
778.7677975528
  0
LINE
  5
309
100
AcDbEntity
  8
6_ALL_SURFS
100
AcDbLine
 62
7
  6
CONTINUOUS
 10
405.0616577274
 20
778.6177975528
 11
405.3616577274
 21
778.7677975528
  0
LINE
  5
30A
100
AcDbEntity
  8
6_ALL_SURFS
100
AcDbLine
 62
7
  6
CONTINUOUS
 10
408.0616577274
 20
778.6177975528
 11
408.3616577274
 21
778.7677975528
  0
LINE
  5
30B
100
AcDbEntity
  8
7_ALL_FEATURES
100
AcDbLine
 62
7
  6
CONTINUOUS
 10
461.5116577274
 20
776.4177975528
 11
461.5116577274
 21
777.3177975528
  0
LINE
  5
30C
100
AcDbEntity
  8
7_ALL_FEATURES
100
AcDbLine
 62
7
  6
CONTINUOUS
 10
461.7616577274
 20
778.9177975528
 11
461.7616577274
 21
779.8302970038
  0
LINE
  5
30D
100
AcDbEntity
  8
7_ALL_FEATURES
100
AcDbLine
 62
7
  6
CONTINUOUS
 10
461.9116577274
 20
786.2177975528
 11
461.9116577274
 21
788.0177975528
  0
LINE
  5
30E
100
AcDbEntity
  8
6_ALL_SURFS
100
AcDbLine
 62
7
  6
CONTINUOUS
 10
411.0616577274
 20
778.6177975528
 11
411.3616577274
 21
778.7677975528
  0
LINE
  5
30F
100
AcDbEntity
  8
6_ALL_SURFS
100
AcDbLine
 62
7
  6
CONTINUOUS
 10
414.0616577274
 20
778.6177975528
 11
414.3616577274
 21
778.7677975528
  0
LINE
  5
310
100
AcDbEntity
  8
6_ALL_SURFS
100
AcDbLine
 62
7
  6
CONTINUOUS
 10
417.0616577274
 20
778.6177975528
 11
417.3616577274
 21
778.7677975528
  0
LINE
  5
311
100
AcDbEntity
  8
7_ALL_FEATURES
100
AcDbLine
 62
7
  6
CONTINUOUS
 10
456.6962941415
 20
834.9031354053
 11
457.0513503482
 21
833.9276264947
  0
LINE
  5
312
100
AcDbEntity
  8
7_ALL_FEATURES
100
AcDbLine
 62
7
  6
CONTINUOUS
 10
454.2853688828
 20
848.1842371668
 11
457.0648822722
 21
835.6466624853
  0
LINE
  5
313
100
AcDbEntity
  8
7_ALL_FEATURES
100
AcDbLine
 62
7
  6
CONTINUOUS
 10
458.593137763
 20
836.1455095518
 11
455.5665034161
 21
849.7977748377
  0
LINE
  5
314
100
AcDbEntity
  8
7_ALL_FEATURES
100
AcDbLine
 62
7
  6
CONTINUOUS
 10
444.7116577274
 20
845.9395943226
 11
436.7116577274
 21
845.9395943226
  0
LINE
  5
315
100
AcDbEntity
  8
7_ALL_FEATURES
100
AcDbLine
 62
7
  6
CONTINUOUS
 10
442.2116577274
 20
853.9677975528
 11
442.4116577274
 21
853.7677975528
  0
LINE
  5
316
100
AcDbEntity
  8
7_ALL_FEATURES
100
AcDbLine
 62
7
  6
CONTINUOUS
 10
451.9258460451
 20
854.0788633117
 11
450.9507394064
 21
855.7677975528
  0
LINE
  5
317
100
AcDbEntity
  8
7_ALL_FEATURES
100
AcDbLine
 62
7
  6
CONTINUOUS
 10
459.1445850853
 20
778.6177975528
 11
459.0467734495
 21
778.4338406208
  0
LINE
  5
318
100
AcDbEntity
  8
7_ALL_FEATURES
100
AcDbLine
 62
7
  6
CONTINUOUS
 10
457.6505919685
 20
786.3319858706
 11
457.2616577274
 21
786.1074345818
  0
LINE
  5
319
100
AcDbEntity
  8
7_ALL_FEATURES
100
AcDbLine
 62
7
  6
CONTINUOUS
 10
433.2116577274
 20
847.9677975528
 11
448.2116577274
 21
847.9677975528
  0
LINE
  5
31A
100
AcDbEntity
  8
6_ALL_SURFS
100
AcDbLine
 62
7
  6
CONTINUOUS
 10
438.7116577274
 20
848.9677975528
 11
428.1142425791
 21
848.9677975528
  0
LINE
  5
31B
100
AcDbEntity
  8
7_ALL_FEATURES
100
AcDbLine
 62
7
  6
CONTINUOUS
 10
438.7116577274
 20
848.9677975528
 11
453.3090728757
 21
848.9677975528
  0
LINE
  5
31C
100
AcDbEntity
  8
7_ALL_FEATURES
100
AcDbLine
 62
7
  6
CONTINUOUS
 10
449.8537738949
 20
850.5677975528
 11
444.6116577274
 21
850.5677975528
  0
LINE
  5
31D
100
AcDbEntity
  8
6_ALL_SURFS
100
AcDbLine
 62
7
  6
CONTINUOUS
 10
431.5695415599
 20
850.5677975528
 11
436.8116577274
 21
850.5677975528
  0
LINE
  5
31E
100
AcDbEntity
  8
7_ALL_FEATURES
100
AcDbLine
 62
7
  6
CONTINUOUS
 10
442.4116577274
 20
853.4677975528
 11
439.0116577274
 21
853.4677975528
  0
LINE
  5
31F
100
AcDbEntity
  8
7_ALL_FEATURES
100
AcDbLine
 62
7
  6
CONTINUOUS
 10
442.2116577274
 20
853.9677975528
 11
439.2116577274
 21
853.9677975528
  0
LINE
  5
320
100
AcDbEntity
  8
7_ALL_FEATURES
100
AcDbLine
 62
7
  6
CONTINUOUS
 10
442.1116577274
 20
854.3177975528
 11
439.3116577274
 21
854.3177975528
  0
LINE
  5
321
100
AcDbEntity
  8
6_ALL_SURFS
100
AcDbLine
 62
7
  6
CONTINUOUS
 10
425.9457943902
 20
854.4177975528
 11
425.2116577274
 21
854.4177975528
  0
LINE
  5
322
100
AcDbEntity
  8
7_ALL_FEATURES
100
AcDbLine
 62
7
  6
CONTINUOUS
 10
455.4775210646
 20
854.4177975528
 11
456.2116577274
 21
854.4177975528
  0
LINE
  5
323
100
AcDbEntity
  8
7_ALL_FEATURES
100
AcDbLine
 62
7
  6
CONTINUOUS
 10
456.4116577274
 20
855.9177975528
 11
454.7323836696
 21
855.9177975528
  0
LINE
  5
324
100
AcDbEntity
  8
7_ALL_FEATURES
100
AcDbLine
 62
7
  6
CONTINUOUS
 10
450.6909317852
 20
855.9177975528
 11
450.2116577274
 21
855.9177975528
  0
LINE
  5
325
100
AcDbEntity
  8
6_ALL_SURFS
100
AcDbLine
 62
7
  6
CONTINUOUS
 10
425.0116577274
 20
855.9177975528
 11
426.6909317852
 21
855.9177975528
  0
LINE
  5
326
100
AcDbEntity
  8
6_ALL_SURFS
100
AcDbLine
 62
7
  6
CONTINUOUS
 10
430.7323836696
 20
855.9177975528
 11
431.2116577274
 21
855.9177975528
  0
LINE
  5
327
100
AcDbEntity
  8
7_ALL_FEATURES
100
AcDbLine
 62
7
  6
CONTINUOUS
 10
438.9116577274
 20
855.9177975528
 11
442.5116577274
 21
855.9177975528
  0
LINE
  5
328
100
AcDbEntity
  8
3_ALL_AXES
100
AcDbLine
 62
7
  6
CONTINUOUS
 10
464.0616577274
 20
778.7677975528
 11
463.7616577274
 21
778.6177975528
  0
LINE
  5
329
100
AcDbEntity
  8
3_ALL_AXES
100
AcDbLine
 62
7
  6
CONTINUOUS
 10
467.0616577274
 20
778.7677975528
 11
466.7616577274
 21
778.6177975528
  0
LINE
  5
32A
100
AcDbEntity
  8
3_ALL_AXES
100
AcDbLine
 62
7
  6
CONTINUOUS
 10
470.0616577274
 20
778.7677975528
 11
469.7616577274
 21
778.6177975528
  0
LINE
  5
32B
100
AcDbEntity
  8
3_ALL_AXES
100
AcDbLine
 62
7
  6
CONTINUOUS
 10
473.0616577274
 20
778.7677975528
 11
472.7616577274
 21
778.6177975528
  0
LINE
  5
32C
100
AcDbEntity
  8
3_ALL_AXES
100
AcDbLine
 62
7
  6
CONTINUOUS
 10
476.0616577274
 20
778.7677975528
 11
475.7616577274
 21
778.6177975528
  0
LINE
  5
32D
100
AcDbEntity
  8
3_ALL_AXES
100
AcDbLine
 62
7
  6
CONTINUOUS
 10
479.0616577274
 20
778.7677975528
 11
478.7616577274
 21
778.6177975528
  0
LINE
  5
32E
100
AcDbEntity
  8
6_ALL_SURFS
100
AcDbLine
 62
7
  6
CONTINUOUS
 10
782.840378198
 20
776.1177975528
 11
782.840378198
 21
855.9177975528
  0
LINE
  5
32F
100
AcDbEntity
  8
6_ALL_SURFS
100
AcDbLine
 62
7
  6
CONTINUOUS
 10
3029.840378198
 20
776.1177975528
 11
782.840378198
 21
776.1177975528
  0
LINE
  5
330
100
AcDbEntity
  8
6_ALL_SURFS
100
AcDbLine
 62
9
  6
CONTINUOUS
 10
3029.840378198
 20
776.4177975528
 11
782.840378198
 21
776.4177975528
  0
LINE
  5
331
100
AcDbEntity
  8
6_ALL_SURFS
100
AcDbLine
 62
9
  6
CONTINUOUS
 10
782.840378198
 20
777.3177975528
 11
3029.840378198
 21
777.3177975528
  0
LINE
  5
332
100
AcDbEntity
  8
6_ALL_SURFS
100
AcDbLine
 62
7
  6
CONTINUOUS
 10
782.840378198
 20
777.6177975528
 11
3029.840378198
 21
777.6177975528
  0
LINE
  5
333
100
AcDbEntity
  8
6_ALL_SURFS
100
AcDbLine
 62
9
  6
CONTINUOUS
 10
3029.840378198
 20
777.8323447119
 11
782.840378198
 21
777.8323447119
  0
LINE
  5
334
100
AcDbEntity
  8
6_ALL_SURFS
100
AcDbLine
 62
7
  6
CONTINUOUS
 10
3029.840378198
 20
778.6177975528
 11
782.840378198
 21
778.6177975528
  0
LINE
  5
335
100
AcDbEntity
  8
6_ALL_SURFS
100
AcDbLine
 62
7
  6
CONTINUOUS
 10
782.840378198
 20
778.7677975528
 11
3029.840378198
 21
778.7677975528
  0
LINE
  5
336
100
AcDbEntity
  8
6_ALL_SURFS
100
AcDbLine
 62
9
  6
CONTINUOUS
 10
782.840378198
 20
778.9177975528
 11
3029.840378198
 21
778.9177975528
  0
LINE
  5
337
100
AcDbEntity
  8
6_ALL_SURFS
100
AcDbLine
 62
9
  6
CONTINUOUS
 10
3029.840378198
 20
779.8302970038
 11
782.840378198
 21
779.8302970038
  0
LINE
  5
338
100
AcDbEntity
  8
6_ALL_SURFS
100
AcDbLine
 62
9
  6
CONTINUOUS
 10
3029.840378198
 20
780.8532945439
 11
782.840378198
 21
780.8532945439
  0
LINE
  5
339
100
AcDbEntity
  8
6_ALL_SURFS
100
AcDbLine
 62
9
  6
CONTINUOUS
 10
782.840378198
 20
783.3869880341
 11
3029.840378198
 21
783.3869880341
  0
LINE
  5
33A
100
AcDbEntity
  8
6_ALL_SURFS
100
AcDbLine
 62
9
  6
CONTINUOUS
 10
782.840378198
 20
783.7279872141
 11
3029.840378198
 21
783.7279872141
  0
LINE
  5
33B
100
AcDbEntity
  8
6_ALL_SURFS
100
AcDbLine
 62
9
  6
CONTINUOUS
 10
782.840378198
 20
783.9177975528
 11
3029.840378198
 21
783.9177975528
  0
LINE
  5
33C
100
AcDbEntity
  8
6_ALL_SURFS
100
AcDbLine
 62
7
  6
CONTINUOUS
 10
3029.840378198
 20
784.2177975528
 11
782.840378198
 21
784.2177975528
  0
LINE
  5
33D
100
AcDbEntity
  8
6_ALL_SURFS
100
AcDbLine
 62
9
  6
CONTINUOUS
 10
3029.840378198
 20
786.2177975528
 11
782.840378198
 21
786.2177975528
  0
LINE
  5
33E
100
AcDbEntity
  8
6_ALL_SURFS
100
AcDbLine
 62
9
  6
CONTINUOUS
 10
3029.840378198
 20
788.0177975528
 11
782.840378198
 21
788.0177975528
  0
LINE
  5
33F
100
AcDbEntity
  8
6_ALL_SURFS
100
AcDbLine
 62
7
  6
CONTINUOUS
 10
3029.840378198
 20
790.0177975528
 11
782.840378198
 21
790.0177975528
  0
LINE
  5
340
100
AcDbEntity
  8
6_ALL_SURFS
100
AcDbLine
 62
9
  6
CONTINUOUS
 10
782.840378198
 20
790.3177975528
 11
3029.840378198
 21
790.3177975528
  0
LINE
  5
341
100
AcDbEntity
  8
6_ALL_SURFS
100
AcDbLine
 62
9
  6
CONTINUOUS
 10
3029.840378198
 20
835.0633114821
 11
782.840378198
 21
835.0633114821
  0
LINE
  5
342
100
AcDbEntity
  8
6_ALL_SURFS
100
AcDbLine
 62
9
  6
CONTINUOUS
 10
3029.840378198
 20
836.1455095518
 11
782.840378198
 21
836.1455095518
  0
LINE
  5
343
100
AcDbEntity
  8
6_ALL_SURFS
100
AcDbLine
 62
9
  6
CONTINUOUS
 10
3029.840378198
 20
849.7977748377
 11
782.840378198
 21
849.7977748377
  0
LINE
  5
344
100
AcDbEntity
  8
6_ALL_SURFS
100
AcDbLine
 62
9
  6
CONTINUOUS
 10
3029.840378198
 20
850.4939985538
 11
782.840378198
 21
850.4939985538
  0
LINE
  5
345
100
AcDbEntity
  8
6_ALL_SURFS
100
AcDbLine
 62
9
  6
CONTINUOUS
 10
782.840378198
 20
850.9565072303
 11
3029.840378198
 21
850.9565072303
  0
LINE
  5
346
100
AcDbEntity
  8
6_ALL_SURFS
100
AcDbLine
 62
9
  6
CONTINUOUS
 10
782.840378198
 20
853.9823136819
 11
3029.840378198
 21
853.9823136819
  0
LINE
  5
347
100
AcDbEntity
  8
6_ALL_SURFS
100
AcDbLine
 62
7
  6
CONTINUOUS
 10
3029.840378198
 20
854.4177975528
 11
782.840378198
 21
854.4177975528
  0
LINE
  5
348
100
AcDbEntity
  8
6_ALL_SURFS
100
AcDbLine
 62
9
  6
CONTINUOUS
 10
3029.840378198
 20
854.9177975528
 11
782.840378198
 21
854.9177975528
  0
LINE
  5
349
100
AcDbEntity
  8
6_ALL_SURFS
100
AcDbLine
 62
9
  6
CONTINUOUS
 10
782.840378198
 20
855.6177975528
 11
3029.840378198
 21
855.6177975528
  0
LINE
  5
34A
100
AcDbEntity
  8
6_ALL_SURFS
100
AcDbLine
 62
7
  6
CONTINUOUS
 10
782.840378198
 20
855.9177975528
 11
3029.840378198
 21
855.9177975528
  0
LINE
  5
34B
100
AcDbEntity
  8
6_ALL_SURFS
100
AcDbLine
 62
7
  6
CONTINUOUS
 10
3029.840378198
 20
776.1177975528
 11
3029.840378198
 21
855.9177975528
  0
LINE
  5
34C
100
AcDbEntity
  8
3_ALL_AXES
100
AcDbLine
 62
7
  6
CONTINUOUS
 10
782.840378198
 20
1105.3150942192
 11
782.840378198
 21
1089.8150942192
  0
LINE
  5
34D
100
AcDbEntity
  8
7_ALL_FEATURES
100
AcDbLine
 62
7
  6
CONTINUOUS
 10
782.840378198
 20
1087.3151094355
 11
782.840378198
 21
1089.8150942192
  0
LINE
  5
34E
100
AcDbEntity
  8
7_ALL_FEATURES
100
AcDbLine
 62
7
  6
CONTINUOUS
 10
782.840378198
 20
1105.3150942192
 11
782.840378198
 21
1129.7650942192
  0
LINE
  5
34F
100
AcDbEntity
  8
6_ALL_SURFS
100
AcDbLine
 62
7
  6
CONTINUOUS
 10
782.840378198
 20
1129.7650942192
 11
782.840378198
 21
1169.4150790029
  0
LINE
  5
350
100
AcDbEntity
  8
7_ALL_FEATURES
100
AcDbLine
 62
7
  6
CONTINUOUS
 10
784.090378198
 20
1147.7150942192
 11
784.090378198
 21
1109.0150942192
  0
LINE
  5
351
100
AcDbEntity
  8
7_ALL_FEATURES
100
AcDbLine
 62
7
  6
CONTINUOUS
 10
3029.840378198
 20
1087.3150942192
 11
782.840378198
 21
1087.3150942192
  0
LINE
  5
352
100
AcDbEntity
  8
7_ALL_FEATURES
100
AcDbLine
 62
9
  6
CONTINUOUS
 10
3029.840378198
 20
1087.6696226288
 11
782.840378198
 21
1087.6696226288
  0
LINE
  5
353
100
AcDbEntity
  8
7_ALL_FEATURES
100
AcDbLine
 62
7
  6
CONTINUOUS
 10
782.840378198
 20
1089.8150942192
 11
903.0569704043
 21
1089.8150942192
  0
LINE
  5
354
100
AcDbEntity
  8
7_ALL_FEATURES
100
AcDbLine
 62
7
  6
CONTINUOUS
 10
909.6237859917
 20
1089.8150942192
 11
1153.0569704043
 21
1089.8150942192
  0
LINE
  5
355
100
AcDbEntity
  8
7_ALL_FEATURES
100
AcDbLine
 62
7
  6
CONTINUOUS
 10
1159.6237859917
 20
1089.8150942192
 11
1403.0569704043
 21
1089.8150942192
  0
LINE
  5
356
100
AcDbEntity
  8
7_ALL_FEATURES
100
AcDbLine
 62
7
  6
CONTINUOUS
 10
1409.6237859917
 20
1089.8150942192
 11
1653.0569704043
 21
1089.8150942192
  0
LINE
  5
357
100
AcDbEntity
  8
7_ALL_FEATURES
100
AcDbLine
 62
7
  6
CONTINUOUS
 10
1659.6237859917
 20
1089.8150942192
 11
1903.0569704043
 21
1089.8150942192
  0
LINE
  5
358
100
AcDbEntity
  8
7_ALL_FEATURES
100
AcDbLine
 62
7
  6
CONTINUOUS
 10
1909.6237859917
 20
1089.8150942192
 11
2153.0569704043
 21
1089.8150942192
  0
LINE
  5
359
100
AcDbEntity
  8
7_ALL_FEATURES
100
AcDbLine
 62
7
  6
CONTINUOUS
 10
2159.6237859917
 20
1089.8150942192
 11
2403.0569704043
 21
1089.8150942192
  0
LINE
  5
35A
100
AcDbEntity
  8
7_ALL_FEATURES
100
AcDbLine
 62
7
  6
CONTINUOUS
 10
2409.6237859917
 20
1089.8150942192
 11
2653.0569704043
 21
1089.8150942192
  0
LINE
  5
35B
100
AcDbEntity
  8
7_ALL_FEATURES
100
AcDbLine
 62
7
  6
CONTINUOUS
 10
2659.6237859917
 20
1089.8150942192
 11
2903.0569704043
 21
1089.8150942192
  0
LINE
  5
35C
100
AcDbEntity
  8
7_ALL_FEATURES
100
AcDbLine
 62
7
  6
CONTINUOUS
 10
2909.6237859917
 20
1089.8150942192
 11
3029.840378198
 21
1089.8150942192
  0
LINE
  5
35D
100
AcDbEntity
  8
7_ALL_FEATURES
100
AcDbLine
 62
7
  6
CONTINUOUS
 10
782.840378198
 20
1092.7150942192
 11
901.578995338
 21
1092.7150942192
  0
LINE
  5
35E
100
AcDbEntity
  8
7_ALL_FEATURES
100
AcDbLine
 62
7
  6
CONTINUOUS
 10
911.101761058
 20
1092.7150942192
 11
1151.578995338
 21
1092.7150942192
  0
LINE
  5
35F
100
AcDbEntity
  8
7_ALL_FEATURES
100
AcDbLine
 62
7
  6
CONTINUOUS
 10
1161.101761058
 20
1092.7150942192
 11
1401.578995338
 21
1092.7150942192
  0
LINE
  5
360
100
AcDbEntity
  8
7_ALL_FEATURES
100
AcDbLine
 62
7
  6
CONTINUOUS
 10
1411.101761058
 20
1092.7150942192
 11
1651.578995338
 21
1092.7150942192
  0
LINE
  5
361
100
AcDbEntity
  8
7_ALL_FEATURES
100
AcDbLine
 62
7
  6
CONTINUOUS
 10
1661.101761058
 20
1092.7150942192
 11
1901.578995338
 21
1092.7150942192
  0
LINE
  5
362
100
AcDbEntity
  8
7_ALL_FEATURES
100
AcDbLine
 62
7
  6
CONTINUOUS
 10
1911.101761058
 20
1092.7150942192
 11
2151.578995338
 21
1092.7150942192
  0
LINE
  5
363
100
AcDbEntity
  8
7_ALL_FEATURES
100
AcDbLine
 62
7
  6
CONTINUOUS
 10
2161.101761058
 20
1092.7150942192
 11
2401.578995338
 21
1092.7150942192
  0
LINE
  5
364
100
AcDbEntity
  8
7_ALL_FEATURES
100
AcDbLine
 62
7
  6
CONTINUOUS
 10
2411.101761058
 20
1092.7150942192
 11
2651.578995338
 21
1092.7150942192
  0
LINE
  5
365
100
AcDbEntity
  8
7_ALL_FEATURES
100
AcDbLine
 62
7
  6
CONTINUOUS
 10
2661.101761058
 20
1092.7150942192
 11
2901.578995338
 21
1092.7150942192
  0
LINE
  5
366
100
AcDbEntity
  8
7_ALL_FEATURES
100
AcDbLine
 62
7
  6
CONTINUOUS
 10
2911.101761058
 20
1092.7150942192
 11
3029.840378198
 21
1092.7150942192
  0
LINE
  5
367
100
AcDbEntity
  8
7_ALL_FEATURES
100
AcDbLine
 62
7
  6
CONTINUOUS
 10
782.840378198
 20
1093.3150942192
 11
901.5413400923
 21
1093.3150942192
  0
LINE
  5
368
100
AcDbEntity
  8
7_ALL_FEATURES
100
AcDbLine
 62
7
  6
CONTINUOUS
 10
911.1394163037
 20
1093.3150942192
 11
1151.5413400923
 21
1093.3150942192
  0
LINE
  5
369
100
AcDbEntity
  8
7_ALL_FEATURES
100
AcDbLine
 62
7
  6
CONTINUOUS
 10
1161.1394163037
 20
1093.3150942192
 11
1401.5413400923
 21
1093.3150942192
  0
LINE
  5
36A
100
AcDbEntity
  8
7_ALL_FEATURES
100
AcDbLine
 62
7
  6
CONTINUOUS
 10
1411.1394163037
 20
1093.3150942192
 11
1651.5413400923
 21
1093.3150942192
  0
LINE
  5
36B
100
AcDbEntity
  8
7_ALL_FEATURES
100
AcDbLine
 62
7
  6
CONTINUOUS
 10
1661.1394163037
 20
1093.3150942192
 11
1901.5413400923
 21
1093.3150942192
  0
LINE
  5
36C
100
AcDbEntity
  8
7_ALL_FEATURES
100
AcDbLine
 62
7
  6
CONTINUOUS
 10
1911.1394163037
 20
1093.3150942192
 11
2151.5413400923
 21
1093.3150942192
  0
LINE
  5
36D
100
AcDbEntity
  8
7_ALL_FEATURES
100
AcDbLine
 62
7
  6
CONTINUOUS
 10
2161.1394163037
 20
1093.3150942192
 11
2401.5413400923
 21
1093.3150942192
  0
LINE
  5
36E
100
AcDbEntity
  8
7_ALL_FEATURES
100
AcDbLine
 62
7
  6
CONTINUOUS
 10
2411.1394163037
 20
1093.3150942192
 11
2651.5413400923
 21
1093.3150942192
  0
LINE
  5
36F
100
AcDbEntity
  8
7_ALL_FEATURES
100
AcDbLine
 62
7
  6
CONTINUOUS
 10
2661.1394163037
 20
1093.3150942192
 11
2901.5413400923
 21
1093.3150942192
  0
LINE
  5
370
100
AcDbEntity
  8
7_ALL_FEATURES
100
AcDbLine
 62
7
  6
CONTINUOUS
 10
2911.1394163037
 20
1093.3150942192
 11
3029.840378198
 21
1093.3150942192
  0
LINE
  5
371
100
AcDbEntity
  8
7_ALL_FEATURES
100
AcDbLine
 62
7
  6
CONTINUOUS
 10
782.840378198
 20
1095.7150942192
 11
902.1845669968
 21
1095.7150942192
  0
LINE
  5
372
100
AcDbEntity
  8
7_ALL_FEATURES
100
AcDbLine
 62
7
  6
CONTINUOUS
 10
910.4961893992
 20
1095.7150942192
 11
1152.1845669968
 21
1095.7150942192
  0
LINE
  5
373
100
AcDbEntity
  8
7_ALL_FEATURES
100
AcDbLine
 62
7
  6
CONTINUOUS
 10
1160.4961893992
 20
1095.7150942192
 11
1402.1845669968
 21
1095.7150942192
  0
LINE
  5
374
100
AcDbEntity
  8
7_ALL_FEATURES
100
AcDbLine
 62
7
  6
CONTINUOUS
 10
1410.4961893992
 20
1095.7150942192
 11
1652.1845669968
 21
1095.7150942192
  0
LINE
  5
375
100
AcDbEntity
  8
7_ALL_FEATURES
100
AcDbLine
 62
7
  6
CONTINUOUS
 10
1660.4961893992
 20
1095.7150942192
 11
1902.1845669968
 21
1095.7150942192
  0
LINE
  5
376
100
AcDbEntity
  8
7_ALL_FEATURES
100
AcDbLine
 62
7
  6
CONTINUOUS
 10
1910.4961893992
 20
1095.7150942192
 11
2152.1845669968
 21
1095.7150942192
  0
LINE
  5
377
100
AcDbEntity
  8
7_ALL_FEATURES
100
AcDbLine
 62
7
  6
CONTINUOUS
 10
2160.4961893992
 20
1095.7150942192
 11
2402.1845669968
 21
1095.7150942192
  0
LINE
  5
378
100
AcDbEntity
  8
7_ALL_FEATURES
100
AcDbLine
 62
7
  6
CONTINUOUS
 10
2410.4961893992
 20
1095.7150942192
 11
2652.1845669968
 21
1095.7150942192
  0
LINE
  5
379
100
AcDbEntity
  8
7_ALL_FEATURES
100
AcDbLine
 62
7
  6
CONTINUOUS
 10
2660.4961893992
 20
1095.7150942192
 11
2902.1845669968
 21
1095.7150942192
  0
LINE
  5
37A
100
AcDbEntity
  8
7_ALL_FEATURES
100
AcDbLine
 62
7
  6
CONTINUOUS
 10
2910.4961893992
 20
1095.7150942192
 11
3029.840378198
 21
1095.7150942192
  0
LINE
  5
37B
100
AcDbEntity
  8
7_ALL_FEATURES
100
AcDbLine
 62
7
  6
CONTINUOUS
 10
782.840378198
 20
1096.3150942192
 11
902.594611689
 21
1096.3150942192
  0
LINE
  5
37C
100
AcDbEntity
  8
7_ALL_FEATURES
100
AcDbLine
 62
7
  6
CONTINUOUS
 10
910.086144707
 20
1096.3150942192
 11
1152.594611689
 21
1096.3150942192
  0
LINE
  5
37D
100
AcDbEntity
  8
7_ALL_FEATURES
100
AcDbLine
 62
7
  6
CONTINUOUS
 10
1160.086144707
 20
1096.3150942192
 11
1402.594611689
 21
1096.3150942192
  0
LINE
  5
37E
100
AcDbEntity
  8
7_ALL_FEATURES
100
AcDbLine
 62
7
  6
CONTINUOUS
 10
1410.086144707
 20
1096.3150942192
 11
1652.594611689
 21
1096.3150942192
  0
LINE
  5
37F
100
AcDbEntity
  8
7_ALL_FEATURES
100
AcDbLine
 62
7
  6
CONTINUOUS
 10
1660.086144707
 20
1096.3150942192
 11
1902.594611689
 21
1096.3150942192
  0
LINE
  5
380
100
AcDbEntity
  8
7_ALL_FEATURES
100
AcDbLine
 62
7
  6
CONTINUOUS
 10
1910.086144707
 20
1096.3150942192
 11
2152.594611689
 21
1096.3150942192
  0
LINE
  5
381
100
AcDbEntity
  8
7_ALL_FEATURES
100
AcDbLine
 62
7
  6
CONTINUOUS
 10
2160.086144707
 20
1096.3150942192
 11
2402.594611689
 21
1096.3150942192
  0
LINE
  5
382
100
AcDbEntity
  8
7_ALL_FEATURES
100
AcDbLine
 62
7
  6
CONTINUOUS
 10
2410.086144707
 20
1096.3150942192
 11
2652.594611689
 21
1096.3150942192
  0
LINE
  5
383
100
AcDbEntity
  8
7_ALL_FEATURES
100
AcDbLine
 62
7
  6
CONTINUOUS
 10
2660.086144707
 20
1096.3150942192
 11
2902.594611689
 21
1096.3150942192
  0
LINE
  5
384
100
AcDbEntity
  8
7_ALL_FEATURES
100
AcDbLine
 62
7
  6
CONTINUOUS
 10
2910.086144707
 20
1096.3150942192
 11
3029.840378198
 21
1096.3150942192
  0
LINE
  5
385
100
AcDbEntity
  8
3_ALL_AXES
100
AcDbLine
 62
7
  6
CONTINUOUS
 10
782.840378198
 20
1098.7150942192
 11
3029.840378198
 21
1098.7150942192
  0
LINE
  5
386
100
AcDbEntity
  8
3_ALL_AXES
100
AcDbLine
 62
7
  6
CONTINUOUS
 10
782.840378198
 20
1099.3150942192
 11
3029.840378198
 21
1099.3150942192
  0
LINE
  5
387
100
AcDbEntity
  8
3_ALL_AXES
100
AcDbLine
 62
7
  6
CONTINUOUS
 10
782.840378198
 20
1101.7150942192
 11
3029.840378198
 21
1101.7150942192
  0
LINE
  5
388
100
AcDbEntity
  8
3_ALL_AXES
100
AcDbLine
 62
7
  6
CONTINUOUS
 10
782.840378198
 20
1102.3150942192
 11
3029.840378198
 21
1102.3150942192
  0
LINE
  5
389
100
AcDbEntity
  8
3_ALL_AXES
100
AcDbLine
 62
7
  6
CONTINUOUS
 10
782.840378198
 20
1104.7150942192
 11
3029.840378198
 21
1104.7150942192
  0
LINE
  5
38A
100
AcDbEntity
  8
3_ALL_AXES
100
AcDbLine
 62
7
  6
CONTINUOUS
 10
782.840378198
 20
1105.3150942192
 11
3029.840378198
 21
1105.3150942192
  0
LINE
  5
38B
100
AcDbEntity
  8
7_ALL_FEATURES
100
AcDbLine
 62
9
  6
CONTINUOUS
 10
782.840378198
 20
1107.2650942192
 11
3029.840378198
 21
1107.2650942192
  0
LINE
  5
38C
100
AcDbEntity
  8
7_ALL_FEATURES
100
AcDbLine
 62
7
  6
CONTINUOUS
 10
3029.840378198
 20
1107.5650942192
 11
782.840378198
 21
1107.5650942192
  0
LINE
  5
38D
100
AcDbEntity
  8
7_ALL_FEATURES
100
AcDbLine
 62
9
  6
CONTINUOUS
 10
3029.840378198
 20
1107.8650942192
 11
782.840378198
 21
1107.8650942192
  0
LINE
  5
38E
100
AcDbEntity
  8
7_ALL_FEATURES
100
AcDbLine
 62
9
  6
CONTINUOUS
 10
3029.840378198
 20
1108.5150942192
 11
782.840378198
 21
1108.5150942192
  0
LINE
  5
38F
100
AcDbEntity
  8
7_ALL_FEATURES
100
AcDbLine
 62
7
  6
CONTINUOUS
 10
3029.840378198
 20
1108.8150942192
 11
782.840378198
 21
1108.8150942192
  0
LINE
  5
390
100
AcDbEntity
  8
7_ALL_FEATURES
100
AcDbLine
 62
7
  6
CONTINUOUS
 10
784.090378198
 20
1109.0150942192
 11
3028.590378198
 21
1109.0150942192
  0
LINE
  5
391
100
AcDbEntity
  8
7_ALL_FEATURES
100
AcDbLine
 62
9
  6
CONTINUOUS
 10
782.840378198
 20
1109.1150942192
 11
784.090378198
 21
1109.1150942192
  0
LINE
  5
392
100
AcDbEntity
  8
7_ALL_FEATURES
100
AcDbLine
 62
9
  6
CONTINUOUS
 10
3028.590378198
 20
1109.1150942192
 11
3029.840378198
 21
1109.1150942192
  0
LINE
  5
393
100
AcDbEntity
  8
7_ALL_FEATURES
100
AcDbLine
 62
9
  6
CONTINUOUS
 10
784.090378198
 20
1109.2150942192
 11
3028.590378198
 21
1109.2150942192
  0
LINE
  5
394
100
AcDbEntity
  8
7_ALL_FEATURES
100
AcDbLine
 62
9
  6
CONTINUOUS
 10
3029.840378198
 20
1109.7650942192
 11
3028.590378198
 21
1109.7650942192
  0
LINE
  5
395
100
AcDbEntity
  8
7_ALL_FEATURES
100
AcDbLine
 62
9
  6
CONTINUOUS
 10
784.090378198
 20
1109.7650942192
 11
782.840378198
 21
1109.7650942192
  0
LINE
  5
396
100
AcDbEntity
  8
7_ALL_FEATURES
100
AcDbLine
 62
7
  6
CONTINUOUS
 10
3029.840378198
 20
1110.0650942192
 11
3028.590378198
 21
1110.0650942192
  0
LINE
  5
397
100
AcDbEntity
  8
7_ALL_FEATURES
100
AcDbLine
 62
7
  6
CONTINUOUS
 10
784.090378198
 20
1110.0650942192
 11
782.840378198
 21
1110.0650942192
  0
LINE
  5
398
100
AcDbEntity
  8
7_ALL_FEATURES
100
AcDbLine
 62
9
  6
CONTINUOUS
 10
782.840378198
 20
1110.6261318212
 11
784.090378198
 21
1110.6261318212
  0
LINE
  5
399
100
AcDbEntity
  8
7_ALL_FEATURES
100
AcDbLine
 62
9
  6
CONTINUOUS
 10
3028.590378198
 20
1110.6261318212
 11
3029.840378198
 21
1110.6261318212
  0
LINE
  5
39A
100
AcDbEntity
  8
7_ALL_FEATURES
100
AcDbLine
 62
9
  6
CONTINUOUS
 10
782.840378198
 20
1110.8455379317
 11
784.090378198
 21
1110.8455379317
  0
LINE
  5
39B
100
AcDbEntity
  8
7_ALL_FEATURES
100
AcDbLine
 62
9
  6
CONTINUOUS
 10
3028.590378198
 20
1110.8455379317
 11
3029.840378198
 21
1110.8455379317
  0
LINE
  5
39C
100
AcDbEntity
  8
7_ALL_FEATURES
100
AcDbLine
 62
9
  6
CONTINUOUS
 10
3029.840378198
 20
1111.6650942192
 11
3028.590378198
 21
1111.6650942192
  0
LINE
  5
39D
100
AcDbEntity
  8
7_ALL_FEATURES
100
AcDbLine
 62
9
  6
CONTINUOUS
 10
784.090378198
 20
1111.6650942192
 11
782.840378198
 21
1111.6650942192
  0
LINE
  5
39E
100
AcDbEntity
  8
7_ALL_FEATURES
100
AcDbLine
 62
7
  6
CONTINUOUS
 10
3029.840378198
 20
1111.9650942192
 11
3028.590378198
 21
1111.9650942192
  0
LINE
  5
39F
100
AcDbEntity
  8
7_ALL_FEATURES
100
AcDbLine
 62
7
  6
CONTINUOUS
 10
784.090378198
 20
1111.9650942192
 11
782.840378198
 21
1111.9650942192
  0
LINE
  5
3A0
100
AcDbEntity
  8
7_ALL_FEATURES
100
AcDbLine
 62
9
  6
CONTINUOUS
 10
782.840378198
 20
1112.0254015984
 11
784.090378198
 21
1112.0254015984
  0
LINE
  5
3A1
100
AcDbEntity
  8
7_ALL_FEATURES
100
AcDbLine
 62
9
  6
CONTINUOUS
 10
3028.590378198
 20
1112.0254015984
 11
3029.840378198
 21
1112.0254015984
  0
LINE
  5
3A2
100
AcDbEntity
  8
7_ALL_FEATURES
100
AcDbLine
 62
9
  6
CONTINUOUS
 10
3029.840378198
 20
1112.3804578051
 11
3028.590378198
 21
1112.3804578051
  0
LINE
  5
3A3
100
AcDbEntity
  8
7_ALL_FEATURES
100
AcDbLine
 62
9
  6
CONTINUOUS
 10
784.090378198
 20
1112.3804578051
 11
782.840378198
 21
1112.3804578051
  0
LINE
  5
3A4
100
AcDbEntity
  8
7_ALL_FEATURES
100
AcDbLine
 62
7
  6
CONTINUOUS
 10
3029.840378198
 20
1112.3985500189
 11
3028.590378198
 21
1112.3985500189
  0
LINE
  5
3A5
100
AcDbEntity
  8
7_ALL_FEATURES
100
AcDbLine
 62
7
  6
CONTINUOUS
 10
784.090378198
 20
1112.3985500189
 11
782.840378198
 21
1112.3985500189
  0
LINE
  5
3A6
100
AcDbEntity
  8
7_ALL_FEATURES
100
AcDbLine
 62
9
  6
CONTINUOUS
 10
782.840378198
 20
1114.7913830638
 11
784.090378198
 21
1114.7913830638
  0
LINE
  5
3A7
100
AcDbEntity
  8
7_ALL_FEATURES
100
AcDbLine
 62
9
  6
CONTINUOUS
 10
3028.590378198
 20
1114.7913830638
 11
3029.840378198
 21
1114.7913830638
  0
LINE
  5
3A8
100
AcDbEntity
  8
7_ALL_FEATURES
100
AcDbLine
 62
9
  6
CONTINUOUS
 10
782.840378198
 20
1115.7676790709
 11
784.090378198
 21
1115.7676790709
  0
LINE
  5
3A9
100
AcDbEntity
  8
7_ALL_FEATURES
100
AcDbLine
 62
9
  6
CONTINUOUS
 10
3028.590378198
 20
1115.7676790709
 11
3029.840378198
 21
1115.7676790709
  0
LINE
  5
3AA
100
AcDbEntity
  8
7_ALL_FEATURES
100
AcDbLine
 62
9
  6
CONTINUOUS
 10
3029.840378198
 20
1126.3650942192
 11
3028.590378198
 21
1126.3650942192
  0
LINE
  5
3AB
100
AcDbEntity
  8
7_ALL_FEATURES
100
AcDbLine
 62
9
  6
CONTINUOUS
 10
784.090378198
 20
1126.3650942192
 11
782.840378198
 21
1126.3650942192
  0
LINE
  5
3AC
100
AcDbEntity
  8
7_ALL_FEATURES
100
AcDbLine
 62
7
  6
CONTINUOUS
 10
3029.840378198
 20
1126.6650942192
 11
3028.590378198
 21
1126.6650942192
  0
LINE
  5
3AD
100
AcDbEntity
  8
7_ALL_FEATURES
100
AcDbLine
 62
7
  6
CONTINUOUS
 10
784.090378198
 20
1126.6650942192
 11
782.840378198
 21
1126.6650942192
  0
LINE
  5
3AE
100
AcDbEntity
  8
7_ALL_FEATURES
100
AcDbLine
 62
9
  6
CONTINUOUS
 10
782.840378198
 20
1126.9650942192
 11
784.090378198
 21
1126.9650942192
  0
LINE
  5
3AF
100
AcDbEntity
  8
7_ALL_FEATURES
100
AcDbLine
 62
9
  6
CONTINUOUS
 10
3028.590378198
 20
1126.9650942192
 11
3029.840378198
 21
1126.9650942192
  0
LINE
  5
3B0
100
AcDbEntity
  8
6_ALL_SURFS
100
AcDbLine
 62
9
  6
CONTINUOUS
 10
782.840378198
 20
1129.7650942192
 11
784.090378198
 21
1129.7650942192
  0
LINE
  5
3B1
100
AcDbEntity
  8
6_ALL_SURFS
100
AcDbLine
 62
9
  6
CONTINUOUS
 10
3028.590378198
 20
1129.7650942192
 11
3029.840378198
 21
1129.7650942192
  0
LINE
  5
3B2
100
AcDbEntity
  8
6_ALL_SURFS
100
AcDbLine
 62
7
  6
CONTINUOUS
 10
3029.840378198
 20
1130.0650942192
 11
3028.590378198
 21
1130.0650942192
  0
LINE
  5
3B3
100
AcDbEntity
  8
6_ALL_SURFS
100
AcDbLine
 62
7
  6
CONTINUOUS
 10
784.090378198
 20
1130.0650942192
 11
782.840378198
 21
1130.0650942192
  0
LINE
  5
3B4
100
AcDbEntity
  8
6_ALL_SURFS
100
AcDbLine
 62
9
  6
CONTINUOUS
 10
3029.840378198
 20
1130.3650942192
 11
3028.590378198
 21
1130.3650942192
  0
LINE
  5
3B5
100
AcDbEntity
  8
6_ALL_SURFS
100
AcDbLine
 62
9
  6
CONTINUOUS
 10
784.090378198
 20
1130.3650942192
 11
782.840378198
 21
1130.3650942192
  0
LINE
  5
3B6
100
AcDbEntity
  8
6_ALL_SURFS
100
AcDbLine
 62
9
  6
CONTINUOUS
 10
782.840378198
 20
1140.9625093675
 11
784.090378198
 21
1140.9625093675
  0
LINE
  5
3B7
100
AcDbEntity
  8
6_ALL_SURFS
100
AcDbLine
 62
9
  6
CONTINUOUS
 10
3028.590378198
 20
1140.9625093675
 11
3029.840378198
 21
1140.9625093675
  0
LINE
  5
3B8
100
AcDbEntity
  8
6_ALL_SURFS
100
AcDbLine
 62
9
  6
CONTINUOUS
 10
782.840378198
 20
1141.9388053747
 11
784.090378198
 21
1141.9388053747
  0
LINE
  5
3B9
100
AcDbEntity
  8
6_ALL_SURFS
100
AcDbLine
 62
9
  6
CONTINUOUS
 10
3028.590378198
 20
1141.9388053747
 11
3029.840378198
 21
1141.9388053747
  0
LINE
  5
3BA
100
AcDbEntity
  8
6_ALL_SURFS
100
AcDbLine
 62
7
  6
CONTINUOUS
 10
782.840378198
 20
1144.3316384195
 11
784.090378198
 21
1144.3316384195
  0
LINE
  5
3BB
100
AcDbEntity
  8
6_ALL_SURFS
100
AcDbLine
 62
7
  6
CONTINUOUS
 10
3028.590378198
 20
1144.3316384195
 11
3029.840378198
 21
1144.3316384195
  0
LINE
  5
3BC
100
AcDbEntity
  8
6_ALL_SURFS
100
AcDbLine
 62
9
  6
CONTINUOUS
 10
3029.840378198
 20
1144.3497306333
 11
3028.590378198
 21
1144.3497306333
  0
LINE
  5
3BD
100
AcDbEntity
  8
6_ALL_SURFS
100
AcDbLine
 62
9
  6
CONTINUOUS
 10
784.090378198
 20
1144.3497306333
 11
782.840378198
 21
1144.3497306333
  0
LINE
  5
3BE
100
AcDbEntity
  8
6_ALL_SURFS
100
AcDbLine
 62
9
  6
CONTINUOUS
 10
782.840378198
 20
1144.70478684
 11
784.090378198
 21
1144.70478684
  0
LINE
  5
3BF
100
AcDbEntity
  8
6_ALL_SURFS
100
AcDbLine
 62
9
  6
CONTINUOUS
 10
3028.590378198
 20
1144.70478684
 11
3029.840378198
 21
1144.70478684
  0
LINE
  5
3C0
100
AcDbEntity
  8
6_ALL_SURFS
100
AcDbLine
 62
7
  6
CONTINUOUS
 10
3029.840378198
 20
1144.7650942192
 11
3028.590378198
 21
1144.7650942192
  0
LINE
  5
3C1
100
AcDbEntity
  8
6_ALL_SURFS
100
AcDbLine
 62
7
  6
CONTINUOUS
 10
784.090378198
 20
1144.7650942192
 11
782.840378198
 21
1144.7650942192
  0
LINE
  5
3C2
100
AcDbEntity
  8
6_ALL_SURFS
100
AcDbLine
 62
9
  6
CONTINUOUS
 10
3029.840378198
 20
1145.0650942192
 11
3028.590378198
 21
1145.0650942192
  0
LINE
  5
3C3
100
AcDbEntity
  8
6_ALL_SURFS
100
AcDbLine
 62
9
  6
CONTINUOUS
 10
784.090378198
 20
1145.0650942192
 11
782.840378198
 21
1145.0650942192
  0
LINE
  5
3C4
100
AcDbEntity
  8
6_ALL_SURFS
100
AcDbLine
 62
9
  6
CONTINUOUS
 10
782.840378198
 20
1145.8846505067
 11
784.090378198
 21
1145.8846505067
  0
LINE
  5
3C5
100
AcDbEntity
  8
6_ALL_SURFS
100
AcDbLine
 62
9
  6
CONTINUOUS
 10
3028.590378198
 20
1145.8846505067
 11
3029.840378198
 21
1145.8846505067
  0
LINE
  5
3C6
100
AcDbEntity
  8
6_ALL_SURFS
100
AcDbLine
 62
9
  6
CONTINUOUS
 10
782.840378198
 20
1146.1040566172
 11
784.090378198
 21
1146.1040566172
  0
LINE
  5
3C7
100
AcDbEntity
  8
6_ALL_SURFS
100
AcDbLine
 62
9
  6
CONTINUOUS
 10
3028.590378198
 20
1146.1040566172
 11
3029.840378198
 21
1146.1040566172
  0
LINE
  5
3C8
100
AcDbEntity
  8
6_ALL_SURFS
100
AcDbLine
 62
7
  6
CONTINUOUS
 10
3029.840378198
 20
1146.6650942192
 11
3028.590378198
 21
1146.6650942192
  0
LINE
  5
3C9
100
AcDbEntity
  8
6_ALL_SURFS
100
AcDbLine
 62
7
  6
CONTINUOUS
 10
784.090378198
 20
1146.6650942192
 11
782.840378198
 21
1146.6650942192
  0
LINE
  5
3CA
100
AcDbEntity
  8
6_ALL_SURFS
100
AcDbLine
 62
9
  6
CONTINUOUS
 10
3029.840378198
 20
1146.9650942192
 11
3028.590378198
 21
1146.9650942192
  0
LINE
  5
3CB
100
AcDbEntity
  8
6_ALL_SURFS
100
AcDbLine
 62
9
  6
CONTINUOUS
 10
784.090378198
 20
1146.9650942192
 11
782.840378198
 21
1146.9650942192
  0
LINE
  5
3CC
100
AcDbEntity
  8
7_ALL_FEATURES
100
AcDbLine
 62
9
  6
CONTINUOUS
 10
784.090378198
 20
1147.5150942192
 11
3028.590378198
 21
1147.5150942192
  0
LINE
  5
3CD
100
AcDbEntity
  8
6_ALL_SURFS
100
AcDbLine
 62
9
  6
CONTINUOUS
 10
782.840378198
 20
1147.6150942192
 11
784.090378198
 21
1147.6150942192
  0
LINE
  5
3CE
100
AcDbEntity
  8
6_ALL_SURFS
100
AcDbLine
 62
9
  6
CONTINUOUS
 10
3028.590378198
 20
1147.6150942192
 11
3029.840378198
 21
1147.6150942192
  0
LINE
  5
3CF
100
AcDbEntity
  8
7_ALL_FEATURES
100
AcDbLine
 62
7
  6
CONTINUOUS
 10
784.090378198
 20
1147.7150942192
 11
3028.590378198
 21
1147.7150942192
  0
LINE
  5
3D0
100
AcDbEntity
  8
6_ALL_SURFS
100
AcDbLine
 62
7
  6
CONTINUOUS
 10
3029.840378198
 20
1147.9150942192
 11
782.840378198
 21
1147.9150942192
  0
LINE
  5
3D1
100
AcDbEntity
  8
6_ALL_SURFS
100
AcDbLine
 62
9
  6
CONTINUOUS
 10
3029.840378198
 20
1148.2150942192
 11
782.840378198
 21
1148.2150942192
  0
LINE
  5
3D2
100
AcDbEntity
  8
6_ALL_SURFS
100
AcDbLine
 62
9
  6
CONTINUOUS
 10
3029.840378198
 20
1148.8650942192
 11
782.840378198
 21
1148.8650942192
  0
LINE
  5
3D3
100
AcDbEntity
  8
6_ALL_SURFS
100
AcDbLine
 62
7
  6
CONTINUOUS
 10
3029.840378198
 20
1149.1650942192
 11
782.840378198
 21
1149.1650942192
  0
LINE
  5
3D4
100
AcDbEntity
  8
6_ALL_SURFS
100
AcDbLine
 62
9
  6
CONTINUOUS
 10
782.840378198
 20
1149.4650942192
 11
3029.840378198
 21
1149.4650942192
  0
LINE
  5
3D5
100
AcDbEntity
  8
6_ALL_SURFS
100
AcDbLine
 62
7
  6
CONTINUOUS
 10
782.840378198
 20
1151.4150942192
 11
3029.840378198
 21
1151.4150942192
  0
LINE
  5
3D6
100
AcDbEntity
  8
6_ALL_SURFS
100
AcDbLine
 62
7
  6
CONTINUOUS
 10
782.840378198
 20
1152.0150942192
 11
3029.840378198
 21
1152.0150942192
  0
LINE
  5
3D7
100
AcDbEntity
  8
6_ALL_SURFS
100
AcDbLine
 62
7
  6
CONTINUOUS
 10
782.840378198
 20
1154.4150942192
 11
3029.840378198
 21
1154.4150942192
  0
LINE
  5
3D8
100
AcDbEntity
  8
6_ALL_SURFS
100
AcDbLine
 62
7
  6
CONTINUOUS
 10
782.840378198
 20
1155.0150942192
 11
3029.840378198
 21
1155.0150942192
  0
LINE
  5
3D9
100
AcDbEntity
  8
6_ALL_SURFS
100
AcDbLine
 62
7
  6
CONTINUOUS
 10
782.840378198
 20
1157.4150942192
 11
3029.840378198
 21
1157.4150942192
  0
LINE
  5
3DA
100
AcDbEntity
  8
6_ALL_SURFS
100
AcDbLine
 62
7
  6
CONTINUOUS
 10
782.840378198
 20
1158.0150942192
 11
3029.840378198
 21
1158.0150942192
  0
LINE
  5
3DB
100
AcDbEntity
  8
6_ALL_SURFS
100
AcDbLine
 62
7
  6
CONTINUOUS
 10
782.840378198
 20
1160.4150942192
 11
902.594611689
 21
1160.4150942192
  0
LINE
  5
3DC
100
AcDbEntity
  8
6_ALL_SURFS
100
AcDbLine
 62
7
  6
CONTINUOUS
 10
910.086144707
 20
1160.4150942192
 11
1152.594611689
 21
1160.4150942192
  0
LINE
  5
3DD
100
AcDbEntity
  8
6_ALL_SURFS
100
AcDbLine
 62
7
  6
CONTINUOUS
 10
1160.086144707
 20
1160.4150942192
 11
1402.594611689
 21
1160.4150942192
  0
LINE
  5
3DE
100
AcDbEntity
  8
6_ALL_SURFS
100
AcDbLine
 62
7
  6
CONTINUOUS
 10
1410.086144707
 20
1160.4150942192
 11
1652.594611689
 21
1160.4150942192
  0
LINE
  5
3DF
100
AcDbEntity
  8
6_ALL_SURFS
100
AcDbLine
 62
7
  6
CONTINUOUS
 10
1660.086144707
 20
1160.4150942192
 11
1902.594611689
 21
1160.4150942192
  0
LINE
  5
3E0
100
AcDbEntity
  8
6_ALL_SURFS
100
AcDbLine
 62
7
  6
CONTINUOUS
 10
1910.086144707
 20
1160.4150942192
 11
2152.594611689
 21
1160.4150942192
  0
LINE
  5
3E1
100
AcDbEntity
  8
6_ALL_SURFS
100
AcDbLine
 62
7
  6
CONTINUOUS
 10
2160.086144707
 20
1160.4150942192
 11
2402.594611689
 21
1160.4150942192
  0
LINE
  5
3E2
100
AcDbEntity
  8
6_ALL_SURFS
100
AcDbLine
 62
7
  6
CONTINUOUS
 10
2410.086144707
 20
1160.4150942192
 11
2652.594611689
 21
1160.4150942192
  0
LINE
  5
3E3
100
AcDbEntity
  8
6_ALL_SURFS
100
AcDbLine
 62
7
  6
CONTINUOUS
 10
2660.086144707
 20
1160.4150942192
 11
2902.594611689
 21
1160.4150942192
  0
LINE
  5
3E4
100
AcDbEntity
  8
6_ALL_SURFS
100
AcDbLine
 62
7
  6
CONTINUOUS
 10
2910.086144707
 20
1160.4150942192
 11
3029.840378198
 21
1160.4150942192
  0
LINE
  5
3E5
100
AcDbEntity
  8
6_ALL_SURFS
100
AcDbLine
 62
7
  6
CONTINUOUS
 10
782.840378198
 20
1161.0150942192
 11
902.1845669968
 21
1161.0150942192
  0
LINE
  5
3E6
100
AcDbEntity
  8
6_ALL_SURFS
100
AcDbLine
 62
7
  6
CONTINUOUS
 10
910.4961893992
 20
1161.0150942192
 11
1152.1845669968
 21
1161.0150942192
  0
LINE
  5
3E7
100
AcDbEntity
  8
6_ALL_SURFS
100
AcDbLine
 62
7
  6
CONTINUOUS
 10
1160.4961893992
 20
1161.0150942192
 11
1402.1845669968
 21
1161.0150942192
  0
LINE
  5
3E8
100
AcDbEntity
  8
6_ALL_SURFS
100
AcDbLine
 62
7
  6
CONTINUOUS
 10
1410.4961893992
 20
1161.0150942192
 11
1652.1845669968
 21
1161.0150942192
  0
LINE
  5
3E9
100
AcDbEntity
  8
6_ALL_SURFS
100
AcDbLine
 62
7
  6
CONTINUOUS
 10
1660.4961893992
 20
1161.0150942192
 11
1902.1845669968
 21
1161.0150942192
  0
LINE
  5
3EA
100
AcDbEntity
  8
6_ALL_SURFS
100
AcDbLine
 62
7
  6
CONTINUOUS
 10
1910.4961893992
 20
1161.0150942192
 11
2152.1845669968
 21
1161.0150942192
  0
LINE
  5
3EB
100
AcDbEntity
  8
6_ALL_SURFS
100
AcDbLine
 62
7
  6
CONTINUOUS
 10
2160.4961893992
 20
1161.0150942192
 11
2402.1845669968
 21
1161.0150942192
  0
LINE
  5
3EC
100
AcDbEntity
  8
6_ALL_SURFS
100
AcDbLine
 62
7
  6
CONTINUOUS
 10
2410.4961893992
 20
1161.0150942192
 11
2652.1845669968
 21
1161.0150942192
  0
LINE
  5
3ED
100
AcDbEntity
  8
6_ALL_SURFS
100
AcDbLine
 62
7
  6
CONTINUOUS
 10
2660.4961893992
 20
1161.0150942192
 11
2902.1845669968
 21
1161.0150942192
  0
LINE
  5
3EE
100
AcDbEntity
  8
6_ALL_SURFS
100
AcDbLine
 62
7
  6
CONTINUOUS
 10
2910.4961893992
 20
1161.0150942192
 11
3029.840378198
 21
1161.0150942192
  0
LINE
  5
3EF
100
AcDbEntity
  8
6_ALL_SURFS
100
AcDbLine
 62
7
  6
CONTINUOUS
 10
782.840378198
 20
1163.4150942192
 11
901.5413400923
 21
1163.4150942192
  0
LINE
  5
3F0
100
AcDbEntity
  8
6_ALL_SURFS
100
AcDbLine
 62
7
  6
CONTINUOUS
 10
911.1394163037
 20
1163.4150942192
 11
1151.5413400923
 21
1163.4150942192
  0
LINE
  5
3F1
100
AcDbEntity
  8
6_ALL_SURFS
100
AcDbLine
 62
7
  6
CONTINUOUS
 10
1161.1394163037
 20
1163.4150942192
 11
1401.5413400923
 21
1163.4150942192
  0
LINE
  5
3F2
100
AcDbEntity
  8
6_ALL_SURFS
100
AcDbLine
 62
7
  6
CONTINUOUS
 10
1411.1394163037
 20
1163.4150942192
 11
1651.5413400923
 21
1163.4150942192
  0
LINE
  5
3F3
100
AcDbEntity
  8
6_ALL_SURFS
100
AcDbLine
 62
7
  6
CONTINUOUS
 10
1661.1394163037
 20
1163.4150942192
 11
1901.5413400923
 21
1163.4150942192
  0
LINE
  5
3F4
100
AcDbEntity
  8
6_ALL_SURFS
100
AcDbLine
 62
7
  6
CONTINUOUS
 10
1911.1394163037
 20
1163.4150942192
 11
2151.5413400923
 21
1163.4150942192
  0
LINE
  5
3F5
100
AcDbEntity
  8
6_ALL_SURFS
100
AcDbLine
 62
7
  6
CONTINUOUS
 10
2161.1394163037
 20
1163.4150942192
 11
2401.5413400923
 21
1163.4150942192
  0
LINE
  5
3F6
100
AcDbEntity
  8
6_ALL_SURFS
100
AcDbLine
 62
7
  6
CONTINUOUS
 10
2411.1394163037
 20
1163.4150942192
 11
2651.5413400923
 21
1163.4150942192
  0
LINE
  5
3F7
100
AcDbEntity
  8
6_ALL_SURFS
100
AcDbLine
 62
7
  6
CONTINUOUS
 10
2661.1394163037
 20
1163.4150942192
 11
2901.5413400923
 21
1163.4150942192
  0
LINE
  5
3F8
100
AcDbEntity
  8
6_ALL_SURFS
100
AcDbLine
 62
7
  6
CONTINUOUS
 10
2911.1394163037
 20
1163.4150942192
 11
3029.840378198
 21
1163.4150942192
  0
LINE
  5
3F9
100
AcDbEntity
  8
6_ALL_SURFS
100
AcDbLine
 62
7
  6
CONTINUOUS
 10
782.840378198
 20
1164.0150942192
 11
901.578995338
 21
1164.0150942192
  0
LINE
  5
3FA
100
AcDbEntity
  8
6_ALL_SURFS
100
AcDbLine
 62
7
  6
CONTINUOUS
 10
911.101761058
 20
1164.0150942192
 11
1151.578995338
 21
1164.0150942192
  0
LINE
  5
3FB
100
AcDbEntity
  8
6_ALL_SURFS
100
AcDbLine
 62
7
  6
CONTINUOUS
 10
1161.101761058
 20
1164.0150942192
 11
1401.578995338
 21
1164.0150942192
  0
LINE
  5
3FC
100
AcDbEntity
  8
6_ALL_SURFS
100
AcDbLine
 62
7
  6
CONTINUOUS
 10
1411.101761058
 20
1164.0150942192
 11
1651.578995338
 21
1164.0150942192
  0
LINE
  5
3FD
100
AcDbEntity
  8
6_ALL_SURFS
100
AcDbLine
 62
7
  6
CONTINUOUS
 10
1661.101761058
 20
1164.0150942192
 11
1901.578995338
 21
1164.0150942192
  0
LINE
  5
3FE
100
AcDbEntity
  8
6_ALL_SURFS
100
AcDbLine
 62
7
  6
CONTINUOUS
 10
1911.101761058
 20
1164.0150942192
 11
2151.578995338
 21
1164.0150942192
  0
LINE
  5
3FF
100
AcDbEntity
  8
6_ALL_SURFS
100
AcDbLine
 62
7
  6
CONTINUOUS
 10
2161.101761058
 20
1164.0150942192
 11
2401.578995338
 21
1164.0150942192
  0
LINE
  5
400
100
AcDbEntity
  8
6_ALL_SURFS
100
AcDbLine
 62
7
  6
CONTINUOUS
 10
2411.101761058
 20
1164.0150942192
 11
2651.578995338
 21
1164.0150942192
  0
LINE
  5
401
100
AcDbEntity
  8
6_ALL_SURFS
100
AcDbLine
 62
7
  6
CONTINUOUS
 10
2661.101761058
 20
1164.0150942192
 11
2901.578995338
 21
1164.0150942192
  0
LINE
  5
402
100
AcDbEntity
  8
6_ALL_SURFS
100
AcDbLine
 62
7
  6
CONTINUOUS
 10
2911.101761058
 20
1164.0150942192
 11
3029.840378198
 21
1164.0150942192
  0
LINE
  5
403
100
AcDbEntity
  8
6_ALL_SURFS
100
AcDbLine
 62
7
  6
CONTINUOUS
 10
782.840378198
 20
1166.9150942192
 11
903.0569704043
 21
1166.9150942192
  0
LINE
  5
404
100
AcDbEntity
  8
6_ALL_SURFS
100
AcDbLine
 62
7
  6
CONTINUOUS
 10
909.6237859917
 20
1166.9150942192
 11
1153.0569704043
 21
1166.9150942192
  0
LINE
  5
405
100
AcDbEntity
  8
6_ALL_SURFS
100
AcDbLine
 62
7
  6
CONTINUOUS
 10
1159.6237859917
 20
1166.9150942192
 11
1403.0569704043
 21
1166.9150942192
  0
LINE
  5
406
100
AcDbEntity
  8
6_ALL_SURFS
100
AcDbLine
 62
7
  6
CONTINUOUS
 10
1409.6237859917
 20
1166.9150942192
 11
1653.0569704043
 21
1166.9150942192
  0
LINE
  5
407
100
AcDbEntity
  8
6_ALL_SURFS
100
AcDbLine
 62
7
  6
CONTINUOUS
 10
1659.6237859917
 20
1166.9150942192
 11
1903.0569704043
 21
1166.9150942192
  0
LINE
  5
408
100
AcDbEntity
  8
6_ALL_SURFS
100
AcDbLine
 62
7
  6
CONTINUOUS
 10
1909.6237859917
 20
1166.9150942192
 11
2153.0569704043
 21
1166.9150942192
  0
LINE
  5
409
100
AcDbEntity
  8
6_ALL_SURFS
100
AcDbLine
 62
7
  6
CONTINUOUS
 10
2159.6237859917
 20
1166.9150942192
 11
2403.0569704043
 21
1166.9150942192
  0
LINE
  5
40A
100
AcDbEntity
  8
6_ALL_SURFS
100
AcDbLine
 62
7
  6
CONTINUOUS
 10
2409.6237859917
 20
1166.9150942192
 11
2653.0569704043
 21
1166.9150942192
  0
LINE
  5
40B
100
AcDbEntity
  8
6_ALL_SURFS
100
AcDbLine
 62
7
  6
CONTINUOUS
 10
2659.6237859917
 20
1166.9150942192
 11
2903.0569704043
 21
1166.9150942192
  0
LINE
  5
40C
100
AcDbEntity
  8
6_ALL_SURFS
100
AcDbLine
 62
7
  6
CONTINUOUS
 10
2909.6237859917
 20
1166.9150942192
 11
3029.840378198
 21
1166.9150942192
  0
LINE
  5
40D
100
AcDbEntity
  8
6_ALL_SURFS
100
AcDbLine
 62
9
  6
CONTINUOUS
 10
3029.840378198
 20
1169.0605658096
 11
782.840378198
 21
1169.0605658096
  0
LINE
  5
40E
100
AcDbEntity
  8
6_ALL_SURFS
100
AcDbLine
 62
7
  6
CONTINUOUS
 10
782.840378198
 20
1169.4150942192
 11
3029.840378198
 21
1169.4150942192
  0
LINE
  5
40F
100
AcDbEntity
  8
7_ALL_FEATURES
100
AcDbLine
 62
7
  6
CONTINUOUS
 10
3028.590378198
 20
1147.7150942192
 11
3028.590378198
 21
1109.0150942192
  0
LINE
  5
410
100
AcDbEntity
  8
7_ALL_FEATURES
100
AcDbLine
 62
7
  6
CONTINUOUS
 10
3029.840378198
 20
1111.9650942192
 11
3029.840378198
 21
1105.3150942192
  0
LINE
  5
411
100
AcDbEntity
  8
3_ALL_AXES
100
AcDbLine
 62
7
  6
CONTINUOUS
 10
3029.840378198
 20
1105.3150942192
 11
3029.840378198
 21
1089.8150942192
  0
LINE
  5
412
100
AcDbEntity
  8
7_ALL_FEATURES
100
AcDbLine
 62
7
  6
CONTINUOUS
 10
3029.840378198
 20
1089.8150942192
 11
3029.840378198
 21
1087.3151094355
  0
LINE
  5
413
100
AcDbEntity
  8
7_ALL_FEATURES
100
AcDbLine
 62
7
  6
CONTINUOUS
 10
3029.840378198
 20
1111.9942178776
 11
3029.840378198
 21
1129.7650942192
  0
LINE
  5
414
100
AcDbEntity
  8
6_ALL_SURFS
100
AcDbLine
 62
7
  6
CONTINUOUS
 10
3029.840378198
 20
1129.7650942192
 11
3029.840378198
 21
1144.7359705609
  0
LINE
  5
415
100
AcDbEntity
  8
6_ALL_SURFS
100
AcDbLine
 62
7
  6
CONTINUOUS
 10
3029.840378198
 20
1144.7650942192
 11
3029.840378198
 21
1169.4150790029
  0
ARC
  5
416
100
AcDbEntity
  8
6_ALL_SURFS
100
AcDbCircle
 62
7
  6
CONTINUOUS
 10
411.3616577274
 20
777.2177975528
 40
0.5
100
AcDbArc
 50
53.1301023542
 51
126.8698976458
  0
ARC
  5
417
100
AcDbEntity
  8
6_ALL_SURFS
100
AcDbCircle
 62
7
  6
CONTINUOUS
 10
408.3616577274
 20
777.2177975528
 40
0.5
100
AcDbArc
 50
53.1301023542
 51
126.8698976458
  0
ARC
  5
418
100
AcDbEntity
  8
6_ALL_SURFS
100
AcDbCircle
 62
7
  6
CONTINUOUS
 10
405.3616577274
 20
777.2177975528
 40
0.5
100
AcDbArc
 50
53.1301023542
 51
126.8698976458
  0
ARC
  5
419
100
AcDbEntity
  8
6_ALL_SURFS
100
AcDbCircle
 62
7
  6
CONTINUOUS
 10
400.0553610853
 20
778.2240941949
 40
0.3937033579
100
AcDbArc
 50
90.0
 51
264.2894068625
  0
ARC
  5
41A
100
AcDbEntity
  8
7_ALL_FEATURES
100
AcDbCircle
 62
7
  6
CONTINUOUS
 10
421.6116577274
 20
777.9377975528
 40
1.8
100
AcDbArc
 50
0.0
 51
57.1401196212
  0
ARC
  5
41B
100
AcDbEntity
  8
6_ALL_SURFS
100
AcDbCircle
 62
7
  6
CONTINUOUS
 10
421.1616577274
 20
779.8302970038
 40
1.5
100
AcDbArc
 50
137.0
 51
180.0
  0
ARC
  5
41C
100
AcDbEntity
  8
7_ALL_FEATURES
100
AcDbCircle
 62
7
  6
CONTINUOUS
 10
422.6968305247
 20
779.6177975528
 40
1.0
100
AcDbArc
 50
137.0
 51
237.140119621
  0
ARC
  5
41D
100
AcDbEntity
  8
7_ALL_FEATURES
100
AcDbCircle
 62
7
  6
CONTINUOUS
 10
421.6116577274
 20
777.9377975528
 40
1.0
100
AcDbArc
 50
0.0
 51
57.1401196213
  0
ARC
  5
41E
100
AcDbEntity
  8
6_ALL_SURFS
100
AcDbCircle
 62
7
  6
CONTINUOUS
 10
417.3616577274
 20
777.2177975528
 40
0.5
100
AcDbArc
 50
53.1301023542
 51
126.8698976458
  0
ARC
  5
41F
100
AcDbEntity
  8
6_ALL_SURFS
100
AcDbCircle
 62
7
  6
CONTINUOUS
 10
414.3616577274
 20
777.2177975528
 40
0.5
100
AcDbArc
 50
53.1301023542
 51
126.8698976458
  0
ARC
  5
420
100
AcDbEntity
  8
7_ALL_FEATURES
100
AcDbCircle
 62
7
  6
CONTINUOUS
 10
422.6224461169
 20
780.4177975528
 40
0.4
100
AcDbArc
 50
317.0
 51
136.9999999971
  0
ARC
  5
421
100
AcDbEntity
  8
6_ALL_SURFS
100
AcDbCircle
 62
7
  6
CONTINUOUS
 10
419.3616577274
 20
778.9177975528
 40
0.3
100
AcDbArc
 50
270.0
 51
360.0
  0
ARC
  5
422
100
AcDbEntity
  8
6_ALL_SURFS
100
AcDbCircle
 62
7
  6
CONTINUOUS
 10
419.6116577274
 20
777.3177975528
 40
0.3
100
AcDbArc
 50
0.0
 51
90.0
  0
ARC
  5
423
100
AcDbEntity
  8
6_ALL_SURFS
100
AcDbCircle
 62
7
  6
CONTINUOUS
 10
423.1921014399
 20
781.5677975528
 40
0.3
100
AcDbArc
 50
90.0
 51
137.0
  0
ARC
  5
424
100
AcDbEntity
  8
6_ALL_SURFS
100
AcDbCircle
 62
7
  6
CONTINUOUS
 10
421.4616577274
 20
779.7121238611
 40
0.3
100
AcDbArc
 50
137.0
 51
180.0
  0
ARC
  5
425
100
AcDbEntity
  8
6_ALL_SURFS
100
AcDbCircle
 62
7
  6
CONTINUOUS
 10
421.4616577274
 20
778.9177975528
 40
0.3
100
AcDbArc
 50
180.0
 51
270.0
  0
ARC
  5
426
100
AcDbEntity
  8
6_ALL_SURFS
100
AcDbCircle
 62
7
  6
CONTINUOUS
 10
421.4616577274
 20
776.8177975528
 40
0.3
100
AcDbArc
 50
90.0
 51
180.0
  0
ARC
  5
427
100
AcDbEntity
  8
6_ALL_SURFS
100
AcDbCircle
 62
7
  6
CONTINUOUS
 10
424.0116577274
 20
782.1677975528
 40
0.3
100
AcDbArc
 50
270.0
 51
360.0
  0
ARC
  5
428
100
AcDbEntity
  8
6_ALL_SURFS
100
AcDbCircle
 62
7
  6
CONTINUOUS
 10
422.1116577274
 20
778.292999152
 40
0.3
100
AcDbArc
 50
0.0
 51
28.0
  0
ARC
  5
429
100
AcDbEntity
  8
6_ALL_SURFS
100
AcDbCircle
 62
7
  6
CONTINUOUS
 10
422.1116577274
 20
777.4177975528
 40
0.3
100
AcDbArc
 50
270.0
 51
360.0
  0
ARC
  5
42A
100
AcDbEntity
  8
6_ALL_SURFS
100
AcDbCircle
 62
7
  6
CONTINUOUS
 10
420.8616577274
 20
776.4177975528
 40
0.3
100
AcDbArc
 50
270.0
 51
360.0
  0
ARC
  5
42B
100
AcDbEntity
  8
6_ALL_SURFS
100
AcDbCircle
 62
7
  6
CONTINUOUS
 10
420.2116577274
 20
776.4177975528
 40
0.3
100
AcDbArc
 50
180.0
 51
270.0
  0
ARC
  5
42C
100
AcDbEntity
  8
7_ALL_FEATURES
100
AcDbCircle
 62
7
  6
CONTINUOUS
 10
423.6116577274
 20
777.4177975528
 40
0.2
100
AcDbArc
 50
180.0
 51
270.0
  0
ARC
  5
42D
100
AcDbEntity
  8
7_ALL_FEATURES
100
AcDbCircle
 62
7
  6
CONTINUOUS
 10
422.6968305247
 20
779.6177975528
 40
0.2
100
AcDbArc
 50
136.9999999886
 51
237.1401196205
  0
ARC
  5
42E
100
AcDbEntity
  8
7_ALL_FEATURES
100
AcDbCircle
 62
7
  6
CONTINUOUS
 10
422.4116577274
 20
777.3177975528
 40
0.2
100
AcDbArc
 50
270.0
 51
360.0
  0
ARC
  5
42F
100
AcDbEntity
  8
7_ALL_FEATURES
100
AcDbCircle
 62
7
  6
CONTINUOUS
 10
421.5616577274
 20
776.9177975528
 40
0.2
100
AcDbArc
 50
90.0
 51
180.0
  0
ARC
  5
430
100
AcDbEntity
  8
7_ALL_FEATURES
100
AcDbCircle
 62
7
  6
CONTINUOUS
 10
421.5616577274
 20
776.3177975528
 40
0.2
100
AcDbArc
 50
180.0
 51
270.0
  0
ARC
  5
431
100
AcDbEntity
  8
6_ALL_SURFS
100
AcDbCircle
 62
7
  6
CONTINUOUS
 10
421.5116577274
 20
786.2177975528
 40
2.0
100
AcDbArc
 50
180.0
 51
270.0
  0
ARC
  5
432
100
AcDbEntity
  8
6_ALL_SURFS
100
AcDbCircle
 62
7
  6
CONTINUOUS
 10
421.5116577274
 20
788.0177975528
 40
2.0
100
AcDbArc
 50
90.0
 51
180.0
  0
ARC
  5
433
100
AcDbEntity
  8
6_ALL_SURFS
100
AcDbCircle
 62
7
  6
CONTINUOUS
 10
422.4116577274
 20
787.1177975528
 40
1.3
100
AcDbArc
 50
40.8069228748
 51
319.1930771252
  0
ARC
  5
434
100
AcDbEntity
  8
6_ALL_SURFS
100
AcDbCircle
 62
7
  6
CONTINUOUS
 10
422.0616577274
 20
783.7279872141
 40
0.5
100
AcDbArc
 50
317.0
 51
360.0
  0
ARC
  5
435
100
AcDbEntity
  8
6_ALL_SURFS
100
AcDbCircle
 62
7
  6
CONTINUOUS
 10
422.4116577274
 20
790.3177975528
 40
0.3
100
AcDbArc
 50
270.0
 51
360.0
  0
ARC
  5
436
100
AcDbEntity
  8
6_ALL_SURFS
100
AcDbCircle
 62
7
  6
CONTINUOUS
 10
422.2616577274
 20
783.9177975528
 40
0.3
100
AcDbArc
 50
0.0
 51
90.0
  0
ARC
  5
437
100
AcDbEntity
  8
6_ALL_SURFS
100
AcDbCircle
 62
7
  6
CONTINUOUS
 10
424.0116577274
 20
788.3879681451
 40
0.3
100
AcDbArc
 50
300.0
 51
360.0
  0
ARC
  5
438
100
AcDbEntity
  8
6_ALL_SURFS
100
AcDbCircle
 62
7
  6
CONTINUOUS
 10
423.6227234863
 20
788.1634168562
 40
0.3
100
AcDbArc
 50
220.8069228752
 51
300.0
  0
ARC
  5
439
100
AcDbEntity
  8
6_ALL_SURFS
100
AcDbCircle
 62
7
  6
CONTINUOUS
 10
423.6227234863
 20
786.0721782494
 40
0.3
100
AcDbArc
 50
60.0
 51
139.1930771248
  0
ARC
  5
43A
100
AcDbEntity
  8
6_ALL_SURFS
100
AcDbCircle
 62
7
  6
CONTINUOUS
 10
424.0116577274
 20
785.8476269606
 40
0.3
100
AcDbArc
 50
0.0
 51
60.0
  0
ARC
  5
43B
100
AcDbEntity
  8
6_ALL_SURFS
100
AcDbCircle
 62
7
  6
CONTINUOUS
 10
427.7116577274
 20
835.0633114821
 40
5.0
100
AcDbArc
 50
167.5
 51
180.0
  0
ARC
  5
43C
100
AcDbEntity
  8
6_ALL_SURFS
100
AcDbCircle
 62
7
  6
CONTINUOUS
 10
428.7116577274
 20
852.7177975528
 40
2.8
100
AcDbArc
 50
153.152786674
 51
218.978760326
  0
ARC
  5
43D
100
AcDbEntity
  8
6_ALL_SURFS
100
AcDbCircle
 62
7
  6
CONTINUOUS
 10
428.7116577274
 20
852.7177975528
 40
2.8
100
AcDbArc
 50
330.0
 51
360.0
  0
ARC
  5
43E
100
AcDbEntity
  8
6_ALL_SURFS
100
AcDbCircle
 62
7
  6
CONTINUOUS
 10
438.9116577274
 20
854.1177975528
 40
1.8
100
AcDbArc
 50
90.0
 51
180.0
  0
ARC
  5
43F
100
AcDbEntity
  8
6_ALL_SURFS
100
AcDbCircle
 62
7
  6
CONTINUOUS
 10
428.7116577274
 20
852.7177975528
 40
1.3
100
AcDbArc
 50
130.8069228748
 51
49.1930771252
  0
ARC
  5
440
100
AcDbEntity
  8
6_ALL_SURFS
100
AcDbCircle
 62
7
  6
CONTINUOUS
 10
428.1142425791
 20
847.9677975528
 40
1.0
100
AcDbArc
 50
90.0
 51
167.5
  0
ARC
  5
441
100
AcDbEntity
  8
6_ALL_SURFS
100
AcDbCircle
 62
7
  6
CONTINUOUS
 10
425.3116577274
 20
833.5856063514
 40
1.0
100
AcDbArc
 50
160.0
 51
180.0
  0
ARC
  5
442
100
AcDbEntity
  8
6_ALL_SURFS
100
AcDbCircle
 62
7
  6
CONTINUOUS
 10
426.8331080458
 20
849.5813352238
 40
1.0
100
AcDbArc
 50
114.1239615962
 51
167.5
  0
ARC
  5
443
100
AcDbEntity
  8
6_ALL_SURFS
100
AcDbCircle
 62
7
  6
CONTINUOUS
 10
431.5695415599
 20
851.0677975528
 40
0.5
100
AcDbArc
 50
150.0
 51
270.0
  0
ARC
  5
444
100
AcDbEntity
  8
6_ALL_SURFS
100
AcDbCircle
 62
7
  6
CONTINUOUS
 10
425.2116577274
 20
854.9177975528
 40
0.5
100
AcDbArc
 50
180.0
 51
270.0
  0
ARC
  5
445
100
AcDbEntity
  8
6_ALL_SURFS
100
AcDbCircle
 62
7
  6
CONTINUOUS
 10
439.3116577274
 20
854.0177975528
 40
0.3
100
AcDbArc
 50
90.0
 51
180.0
  0
ARC
  5
446
100
AcDbEntity
  8
6_ALL_SURFS
100
AcDbCircle
 62
7
  6
CONTINUOUS
 10
436.8116577274
 20
850.8677975528
 40
0.3
100
AcDbArc
 50
270.0
 51
360.0
  0
ARC
  5
447
100
AcDbEntity
  8
6_ALL_SURFS
100
AcDbCircle
 62
7
  6
CONTINUOUS
 10
426.3017822119
 20
850.7677975528
 40
0.3
100
AcDbArc
 50
294.123961591
 51
38.978760326
  0
ARC
  5
448
100
AcDbEntity
  8
6_ALL_SURFS
100
AcDbCircle
 62
7
  6
CONTINUOUS
 10
425.9457943902
 20
854.1177975528
 40
0.3
100
AcDbArc
 50
333.152786674
 51
90.0
  0
ARC
  5
449
100
AcDbEntity
  8
6_ALL_SURFS
100
AcDbCircle
 62
7
  6
CONTINUOUS
 10
424.6513219847
 20
835.5817306011
 40
0.3
100
AcDbArc
 50
167.5
 51
239.0362434679
  0
ARC
  5
44A
100
AcDbEntity
  8
6_ALL_SURFS
100
AcDbCircle
 62
7
  6
CONTINUOUS
 10
438.7116577274
 20
849.2677975528
 40
0.3
100
AcDbArc
 50
270.0
 51
360.0
  0
ARC
  5
44B
100
AcDbEntity
  8
6_ALL_SURFS
100
AcDbCircle
 62
7
  6
CONTINUOUS
 10
424.4451135271
 20
835.0057414483
 40
0.3
100
AcDbArc
 50
340.0
 51
59.0362434679
  0
ARC
  5
44C
100
AcDbEntity
  8
6_ALL_SURFS
100
AcDbCircle
 62
7
  6
CONTINUOUS
 10
425.0116577274
 20
855.6177975528
 40
0.3
100
AcDbArc
 50
90.0
 51
180.0
  0
ARC
  5
44D
100
AcDbEntity
  8
6_ALL_SURFS
100
AcDbCircle
 62
7
  6
CONTINUOUS
 10
426.6909317852
 20
855.6177975528
 40
0.3
100
AcDbArc
 50
30.0
 51
90.0
  0
ARC
  5
44E
100
AcDbEntity
  8
6_ALL_SURFS
100
AcDbCircle
 62
7
  6
CONTINUOUS
 10
427.666038424
 20
853.9288633117
 40
0.3
100
AcDbArc
 50
310.8069228752
 51
30.0
  0
ARC
  5
44F
100
AcDbEntity
  8
6_ALL_SURFS
100
AcDbCircle
 62
7
  6
CONTINUOUS
 10
429.7572770308
 20
853.9288633117
 40
0.3
100
AcDbArc
 50
150.0
 51
229.1930771248
  0
ARC
  5
450
100
AcDbEntity
  8
6_ALL_SURFS
100
AcDbCircle
 62
7
  6
CONTINUOUS
 10
430.7323836696
 20
855.6177975528
 40
0.3
100
AcDbArc
 50
90.0
 51
150.0
  0
ARC
  5
451
100
AcDbEntity
  8
6_ALL_SURFS
100
AcDbCircle
 62
7
  6
CONTINUOUS
 10
431.2116577274
 20
855.6177975528
 40
0.3
100
AcDbArc
 50
0.0
 51
90.0
  0
ARC
  5
452
100
AcDbEntity
  8
7_ALL_FEATURES
100
AcDbCircle
 62
7
  6
CONTINUOUS
 10
459.8116577274
 20
777.9377975528
 40
1.8
100
AcDbArc
 50
122.8598803788
 51
180.0
  0
ARC
  5
453
100
AcDbEntity
  8
7_ALL_FEATURES
100
AcDbCircle
 62
7
  6
CONTINUOUS
 10
460.2616577274
 20
779.8302970038
 40
1.5
100
AcDbArc
 50
0.0
 51
43.0
  0
ARC
  5
454
100
AcDbEntity
  8
7_ALL_FEATURES
100
AcDbCircle
 62
7
  6
CONTINUOUS
 10
459.8116577274
 20
777.9377975528
 40
1.0
100
AcDbArc
 50
122.8598803789
 51
180.0
  0
ARC
  5
455
100
AcDbEntity
  8
7_ALL_FEATURES
100
AcDbCircle
 62
7
  6
CONTINUOUS
 10
458.7264849301
 20
779.6177975528
 40
1.0
100
AcDbArc
 50
302.8598803789
 51
43.0
  0
ARC
  5
456
100
AcDbEntity
  8
3_ALL_AXES
100
AcDbCircle
 62
7
  6
CONTINUOUS
 10
467.0616577274
 20
777.2177975528
 40
0.5
100
AcDbArc
 50
53.1301023542
 51
126.8698976458
  0
ARC
  5
457
100
AcDbEntity
  8
3_ALL_AXES
100
AcDbCircle
 62
7
  6
CONTINUOUS
 10
464.0616577274
 20
777.2177975528
 40
0.5
100
AcDbArc
 50
53.1301023542
 51
126.8698976458
  0
ARC
  5
458
100
AcDbEntity
  8
7_ALL_FEATURES
100
AcDbCircle
 62
7
  6
CONTINUOUS
 10
458.8008693379
 20
780.4177975528
 40
0.4
100
AcDbArc
 50
42.9999999998
 51
223.0000000001
  0
ARC
  5
459
100
AcDbEntity
  8
7_ALL_FEATURES
100
AcDbCircle
 62
7
  6
CONTINUOUS
 10
462.0616577274
 20
778.9177975528
 40
0.3
100
AcDbArc
 50
180.0
 51
270.0
  0
ARC
  5
45A
100
AcDbEntity
  8
7_ALL_FEATURES
100
AcDbCircle
 62
7
  6
CONTINUOUS
 10
461.8116577274
 20
777.3177975528
 40
0.3
100
AcDbArc
 50
90.0
 51
180.0
  0
ARC
  5
45B
100
AcDbEntity
  8
7_ALL_FEATURES
100
AcDbCircle
 62
7
  6
CONTINUOUS
 10
458.2312140149
 20
781.5677975528
 40
0.3
100
AcDbArc
 50
43.0
 51
90.0
  0
ARC
  5
45C
100
AcDbEntity
  8
7_ALL_FEATURES
100
AcDbCircle
 62
7
  6
CONTINUOUS
 10
459.9616577274
 20
779.7121238611
 40
0.3
100
AcDbArc
 50
0.0
 51
43.0
  0
ARC
  5
45D
100
AcDbEntity
  8
7_ALL_FEATURES
100
AcDbCircle
 62
7
  6
CONTINUOUS
 10
459.9616577274
 20
778.9177975528
 40
0.3
100
AcDbArc
 50
270.0
 51
360.0
  0
ARC
  5
45E
100
AcDbEntity
  8
7_ALL_FEATURES
100
AcDbCircle
 62
7
  6
CONTINUOUS
 10
459.9616577274
 20
776.8177975528
 40
0.3
100
AcDbArc
 50
0.0
 51
90.0
  0
ARC
  5
45F
100
AcDbEntity
  8
7_ALL_FEATURES
100
AcDbCircle
 62
7
  6
CONTINUOUS
 10
461.2116577274
 20
776.4177975528
 40
0.3
100
AcDbArc
 50
270.0
 51
360.0
  0
ARC
  5
460
100
AcDbEntity
  8
7_ALL_FEATURES
100
AcDbCircle
 62
7
  6
CONTINUOUS
 10
460.5616577274
 20
776.4177975528
 40
0.3
100
AcDbArc
 50
180.0
 51
270.0
  0
ARC
  5
461
100
AcDbEntity
  8
7_ALL_FEATURES
100
AcDbCircle
 62
7
  6
CONTINUOUS
 10
459.3116577274
 20
777.4177975528
 40
0.3
100
AcDbArc
 50
180.0
 51
270.0
  0
ARC
  5
462
100
AcDbEntity
  8
7_ALL_FEATURES
100
AcDbCircle
 62
7
  6
CONTINUOUS
 10
459.3116577274
 20
778.292999152
 40
0.3
100
AcDbArc
 50
152.0
 51
180.0
  0
ARC
  5
463
100
AcDbEntity
  8
7_ALL_FEATURES
100
AcDbCircle
 62
7
  6
CONTINUOUS
 10
457.4116577274
 20
782.1677975528
 40
0.3
100
AcDbArc
 50
180.0
 51
270.0
  0
ARC
  5
464
100
AcDbEntity
  8
7_ALL_FEATURES
100
AcDbCircle
 62
7
  6
CONTINUOUS
 10
459.8616577274
 20
776.3177975528
 40
0.2
100
AcDbArc
 50
270.0
 51
360.0
  0
ARC
  5
465
100
AcDbEntity
  8
7_ALL_FEATURES
100
AcDbCircle
 62
7
  6
CONTINUOUS
 10
459.8616577274
 20
776.9177975528
 40
0.2
100
AcDbArc
 50
0.0
 51
83.0769230769
  0
ARC
  5
466
100
AcDbEntity
  8
7_ALL_FEATURES
100
AcDbCircle
 62
7
  6
CONTINUOUS
 10
459.0116577274
 20
777.3177975528
 40
0.2
100
AcDbArc
 50
180.0
 51
270.0
  0
ARC
  5
467
100
AcDbEntity
  8
7_ALL_FEATURES
100
AcDbCircle
 62
7
  6
CONTINUOUS
 10
458.7264849301
 20
779.6177975528
 40
0.2
100
AcDbArc
 50
302.8598803796
 51
43.0000000114
  0
ARC
  5
468
100
AcDbEntity
  8
7_ALL_FEATURES
100
AcDbCircle
 62
7
  6
CONTINUOUS
 10
457.8116577274
 20
777.4177975528
 40
0.2
100
AcDbArc
 50
270.0
 51
360.0
  0
ARC
  5
469
100
AcDbEntity
  8
7_ALL_FEATURES
100
AcDbCircle
 62
7
  6
CONTINUOUS
 10
459.9116577274
 20
788.0177975528
 40
2.0
100
AcDbArc
 50
0.0
 51
90.0
  0
ARC
  5
46A
100
AcDbEntity
  8
7_ALL_FEATURES
100
AcDbCircle
 62
7
  6
CONTINUOUS
 10
459.9116577274
 20
786.2177975528
 40
2.0
100
AcDbArc
 50
270.0
 51
360.0
  0
ARC
  5
46B
100
AcDbEntity
  8
7_ALL_FEATURES
100
AcDbCircle
 62
7
  6
CONTINUOUS
 10
459.0116577274
 20
787.1177975528
 40
1.3
100
AcDbArc
 50
220.8069228748
 51
139.1930771252
  0
ARC
  5
46C
100
AcDbEntity
  8
7_ALL_FEATURES
100
AcDbCircle
 62
7
  6
CONTINUOUS
 10
459.3616577274
 20
783.7279872141
 40
0.5
100
AcDbArc
 50
180.0
 51
223.0
  0
ARC
  5
46D
100
AcDbEntity
  8
7_ALL_FEATURES
100
AcDbCircle
 62
7
  6
CONTINUOUS
 10
459.0116577274
 20
790.3177975528
 40
0.3
100
AcDbArc
 50
180.0
 51
270.0
  0
ARC
  5
46E
100
AcDbEntity
  8
7_ALL_FEATURES
100
AcDbCircle
 62
7
  6
CONTINUOUS
 10
459.1616577274
 20
783.9177975528
 40
0.3
100
AcDbArc
 50
90.0
 51
180.0
  0
ARC
  5
46F
100
AcDbEntity
  8
7_ALL_FEATURES
100
AcDbCircle
 62
7
  6
CONTINUOUS
 10
457.4116577274
 20
785.8476269606
 40
0.3
100
AcDbArc
 50
120.0
 51
180.0
  0
ARC
  5
470
100
AcDbEntity
  8
7_ALL_FEATURES
100
AcDbCircle
 62
7
  6
CONTINUOUS
 10
457.8005919685
 20
786.0721782494
 40
0.3
100
AcDbArc
 50
40.8069228752
 51
120.0
  0
ARC
  5
471
100
AcDbEntity
  8
7_ALL_FEATURES
100
AcDbCircle
 62
7
  6
CONTINUOUS
 10
457.8005919685
 20
788.1634168562
 40
0.3
100
AcDbArc
 50
240.0
 51
319.1930771248
  0
ARC
  5
472
100
AcDbEntity
  8
7_ALL_FEATURES
100
AcDbCircle
 62
7
  6
CONTINUOUS
 10
457.4116577274
 20
788.3879681451
 40
0.3
100
AcDbArc
 50
180.0
 51
240.0
  0
ARC
  5
473
100
AcDbEntity
  8
3_ALL_AXES
100
AcDbCircle
 62
7
  6
CONTINUOUS
 10
476.0616577274
 20
777.2177975528
 40
0.5
100
AcDbArc
 50
53.1301023542
 51
126.8698976458
  0
ARC
  5
474
100
AcDbEntity
  8
3_ALL_AXES
100
AcDbCircle
 62
7
  6
CONTINUOUS
 10
473.0616577274
 20
777.2177975528
 40
0.5
100
AcDbArc
 50
53.1301023542
 51
126.8698976458
  0
ARC
  5
475
100
AcDbEntity
  8
3_ALL_AXES
100
AcDbCircle
 62
7
  6
CONTINUOUS
 10
470.0616577274
 20
777.2177975528
 40
0.5
100
AcDbArc
 50
53.1301023542
 51
126.8698976458
  0
ARC
  5
476
100
AcDbEntity
  8
7_ALL_FEATURES
100
AcDbCircle
 62
7
  6
CONTINUOUS
 10
481.3679543695
 20
778.2240941949
 40
0.3937033579
100
AcDbArc
 50
275.7105931375
 51
90.0
  0
ARC
  5
477
100
AcDbEntity
  8
7_ALL_FEATURES
100
AcDbCircle
 62
7
  6
CONTINUOUS
 10
440.7116577274
 20
852.8677975528
 40
8.0
100
AcDbArc
 50
284.4775121859
 51
300.0
  0
ARC
  5
478
100
AcDbEntity
  8
7_ALL_FEATURES
100
AcDbCircle
 62
7
  6
CONTINUOUS
 10
440.7116577274
 20
852.8677975528
 40
8.0
100
AcDbArc
 50
240.0
 51
255.5224878141
  0
ARC
  5
479
100
AcDbEntity
  8
7_ALL_FEATURES
100
AcDbCircle
 62
7
  6
CONTINUOUS
 10
440.7116577274
 20
852.8677975528
 40
7.9843597113
100
AcDbArc
 50
255.4935070353
 51
266.4096498625
  0
ARC
  5
47A
100
AcDbEntity
  8
7_ALL_FEATURES
100
AcDbCircle
 62
7
  6
CONTINUOUS
 10
440.7116577274
 20
852.8677975528
 40
7.9843597113
100
AcDbArc
 50
273.5903501375
 51
284.5064929647
  0
ARC
  5
47B
100
AcDbEntity
  8
7_ALL_FEATURES
100
AcDbCircle
 62
7
  6
CONTINUOUS
 10
440.7116577274
 20
852.8677975528
 40
7.7459666924
100
AcDbArc
 50
266.2990001561
 51
273.7009998439
  0
ARC
  5
47C
100
AcDbEntity
  8
7_ALL_FEATURES
100
AcDbCircle
 62
7
  6
CONTINUOUS
 10
453.7116577274
 20
835.0633114821
 40
5.0
100
AcDbArc
 50
0.0
 51
12.5
  0
ARC
  5
47D
100
AcDbEntity
  8
7_ALL_FEATURES
100
AcDbCircle
 62
7
  6
CONTINUOUS
 10
452.7116577274
 20
852.7177975528
 40
2.8
100
AcDbArc
 50
180.0
 51
210.0
  0
ARC
  5
47E
100
AcDbEntity
  8
7_ALL_FEATURES
100
AcDbCircle
 62
7
  6
CONTINUOUS
 10
452.7116577274
 20
852.7177975528
 40
2.8
100
AcDbArc
 50
321.021239674
 51
26.847213326
  0
ARC
  5
47F
100
AcDbEntity
  8
7_ALL_FEATURES
100
AcDbCircle
 62
7
  6
CONTINUOUS
 10
442.5116577274
 20
854.1177975528
 40
1.8
100
AcDbArc
 50
0.0
 51
90.0
  0
ARC
  5
480
100
AcDbEntity
  8
7_ALL_FEATURES
100
AcDbCircle
 62
7
  6
CONTINUOUS
 10
452.7116577274
 20
852.7177975528
 40
1.3
100
AcDbArc
 50
130.8069228748
 51
49.1930771252
  0
ARC
  5
481
100
AcDbEntity
  8
7_ALL_FEATURES
100
AcDbCircle
 62
7
  6
CONTINUOUS
 10
453.3090728757
 20
847.9677975528
 40
1.0
100
AcDbArc
 50
12.5
 51
90.0
  0
ARC
  5
482
100
AcDbEntity
  8
7_ALL_FEATURES
100
AcDbCircle
 62
7
  6
CONTINUOUS
 10
454.590207409
 20
849.5813352238
 40
1.0
100
AcDbArc
 50
12.5
 51
65.8760384038
  0
ARC
  5
483
100
AcDbEntity
  8
7_ALL_FEATURES
100
AcDbCircle
 62
7
  6
CONTINUOUS
 10
456.1116577274
 20
833.5856063514
 40
1.0
100
AcDbArc
 50
0.0
 51
20.0
  0
ARC
  5
484
100
AcDbEntity
  8
7_ALL_FEATURES
100
AcDbCircle
 62
7
  6
CONTINUOUS
 10
449.8537738949
 20
851.0677975528
 40
0.5
100
AcDbArc
 50
270.0
 51
30.0
  0
ARC
  5
485
100
AcDbEntity
  8
7_ALL_FEATURES
100
AcDbCircle
 62
7
  6
CONTINUOUS
 10
456.2116577274
 20
854.9177975528
 40
0.5
100
AcDbArc
 50
270.0
 51
360.0
  0
ARC
  5
486
100
AcDbEntity
  8
7_ALL_FEATURES
100
AcDbCircle
 62
7
  6
CONTINUOUS
 10
442.1116577274
 20
854.0177975528
 40
0.3
100
AcDbArc
 50
0.0
 51
90.0
  0
ARC
  5
487
100
AcDbEntity
  8
7_ALL_FEATURES
100
AcDbCircle
 62
7
  6
CONTINUOUS
 10
444.6116577274
 20
850.8677975528
 40
0.3
100
AcDbArc
 50
180.0
 51
270.0
  0
ARC
  5
488
100
AcDbEntity
  8
7_ALL_FEATURES
100
AcDbCircle
 62
7
  6
CONTINUOUS
 10
455.1215332429
 20
850.7677975528
 40
0.3
100
AcDbArc
 50
141.021239674
 51
245.876038409
  0
ARC
  5
489
100
AcDbEntity
  8
7_ALL_FEATURES
100
AcDbCircle
 62
7
  6
CONTINUOUS
 10
455.4775210646
 20
854.1177975528
 40
0.3
100
AcDbArc
 50
90.0
 51
206.847213326
  0
ARC
  5
48A
100
AcDbEntity
  8
7_ALL_FEATURES
100
AcDbCircle
 62
7
  6
CONTINUOUS
 10
456.7719934701
 20
835.5817306011
 40
0.3
100
AcDbArc
 50
300.9637565321
 51
12.5
  0
ARC
  5
48B
100
AcDbEntity
  8
7_ALL_FEATURES
100
AcDbCircle
 62
7
  6
CONTINUOUS
 10
450.2116577274
 20
855.6177975528
 40
0.3
100
AcDbArc
 50
90.0
 51
180.0
  0
ARC
  5
48C
100
AcDbEntity
  8
7_ALL_FEATURES
100
AcDbCircle
 62
7
  6
CONTINUOUS
 10
450.6909317852
 20
855.6177975528
 40
0.3
100
AcDbArc
 50
30.0
 51
90.0
  0
ARC
  5
48D
100
AcDbEntity
  8
7_ALL_FEATURES
100
AcDbCircle
 62
7
  6
CONTINUOUS
 10
451.666038424
 20
853.9288633117
 40
0.3
100
AcDbArc
 50
310.8069228752
 51
30.0
  0
ARC
  5
48E
100
AcDbEntity
  8
7_ALL_FEATURES
100
AcDbCircle
 62
7
  6
CONTINUOUS
 10
453.7572770308
 20
853.9288633117
 40
0.3
100
AcDbArc
 50
150.0
 51
229.1930771248
  0
ARC
  5
48F
100
AcDbEntity
  8
7_ALL_FEATURES
100
AcDbCircle
 62
7
  6
CONTINUOUS
 10
454.7323836696
 20
855.6177975528
 40
0.3
100
AcDbArc
 50
90.0
 51
150.0
  0
ARC
  5
490
100
AcDbEntity
  8
7_ALL_FEATURES
100
AcDbCircle
 62
7
  6
CONTINUOUS
 10
456.4116577274
 20
855.6177975528
 40
0.3
100
AcDbArc
 50
0.0
 51
90.0
  0
ARC
  5
491
100
AcDbEntity
  8
7_ALL_FEATURES
100
AcDbCircle
 62
7
  6
CONTINUOUS
 10
456.9782019277
 20
835.0057414483
 40
0.3
100
AcDbArc
 50
120.9637565321
 51
200.0
  0
ARC
  5
492
100
AcDbEntity
  8
7_ALL_FEATURES
100
AcDbCircle
 62
7
  6
CONTINUOUS
 10
442.7116577274
 20
849.2677975528
 40
0.3
100
AcDbArc
 50
180.0
 51
270.0
  0
ARC
  5
493
100
AcDbEntity
  8
7_ALL_FEATURES
100
AcDbCircle
 62
7
  6
CONTINUOUS
 10
1656.340378198
 20
1093.3150942192
 40
4.7990381057
100
AcDbArc
 50
38.6913826582
 51
141.3086173418
  0
ARC
  5
494
100
AcDbEntity
  8
7_ALL_FEATURES
100
AcDbCircle
 62
7
  6
CONTINUOUS
 10
1406.340378198
 20
1093.3150942192
 40
4.7990381057
100
AcDbArc
 50
38.6913826582
 51
141.3086173418
  0
ARC
  5
495
100
AcDbEntity
  8
7_ALL_FEATURES
100
AcDbCircle
 62
7
  6
CONTINUOUS
 10
1156.340378198
 20
1093.3150942192
 40
4.7990381057
100
AcDbArc
 50
38.6913826582
 51
141.3086173418
  0
ARC
  5
496
100
AcDbEntity
  8
7_ALL_FEATURES
100
AcDbCircle
 62
7
  6
CONTINUOUS
 10
906.340378198
 20
1093.3150942192
 40
4.7990381057
100
AcDbArc
 50
38.6913826582
 51
141.3086173418
  0
ARC
  5
497
100
AcDbEntity
  8
7_ALL_FEATURES
100
AcDbCircle
 62
7
  6
CONTINUOUS
 10
906.340378198
 20
1093.3150942192
 40
4.7990381057
100
AcDbArc
 50
149.9933694481
 51
180.0
  0
ARC
  5
498
100
AcDbEntity
  8
7_ALL_FEATURES
100
AcDbCircle
 62
7
  6
CONTINUOUS
 10
1156.340378198
 20
1093.3150942192
 40
4.7990381057
100
AcDbArc
 50
149.9933694481
 51
180.0
  0
ARC
  5
499
100
AcDbEntity
  8
7_ALL_FEATURES
100
AcDbCircle
 62
7
  6
CONTINUOUS
 10
906.340378198
 20
1093.3150942192
 40
4.7990381057
100
AcDbArc
 50
0.0
 51
30.0066305519
  0
ARC
  5
49A
100
AcDbEntity
  8
7_ALL_FEATURES
100
AcDbCircle
 62
7
  6
CONTINUOUS
 10
1406.340378198
 20
1093.3150942192
 40
4.7990381057
100
AcDbArc
 50
149.9933694481
 51
180.0
  0
ARC
  5
49B
100
AcDbEntity
  8
7_ALL_FEATURES
100
AcDbCircle
 62
7
  6
CONTINUOUS
 10
1156.340378198
 20
1093.3150942192
 40
4.7990381057
100
AcDbArc
 50
0.0
 51
30.0066305519
  0
ARC
  5
49C
100
AcDbEntity
  8
7_ALL_FEATURES
100
AcDbCircle
 62
7
  6
CONTINUOUS
 10
1656.340378198
 20
1093.3150942192
 40
4.7990381057
100
AcDbArc
 50
149.9933694481
 51
180.0
  0
ARC
  5
49D
100
AcDbEntity
  8
7_ALL_FEATURES
100
AcDbCircle
 62
7
  6
CONTINUOUS
 10
1406.340378198
 20
1093.3150942192
 40
4.7990381057
100
AcDbArc
 50
0.0
 51
30.0066305519
  0
ARC
  5
49E
100
AcDbEntity
  8
7_ALL_FEATURES
100
AcDbCircle
 62
7
  6
CONTINUOUS
 10
1656.340378198
 20
1093.3150942192
 40
4.7990381057
100
AcDbArc
 50
0.0
 51
30.0066305519
  0
ARC
  5
49F
100
AcDbEntity
  8
7_ALL_FEATURES
100
AcDbCircle
 62
7
  6
CONTINUOUS
 10
906.340378198
 20
1093.3150942192
 40
4.7990381057
100
AcDbArc
 50
187.1822026405
 51
226.828815981
  0
ARC
  5
4A0
100
AcDbEntity
  8
7_ALL_FEATURES
100
AcDbCircle
 62
7
  6
CONTINUOUS
 10
1156.340378198
 20
1093.3150942192
 40
4.7990381057
100
AcDbArc
 50
187.1822026405
 51
226.828815981
  0
ARC
  5
4A1
100
AcDbEntity
  8
7_ALL_FEATURES
100
AcDbCircle
 62
7
  6
CONTINUOUS
 10
906.340378198
 20
1093.3150942192
 40
4.7990381057
100
AcDbArc
 50
313.171184019
 51
352.8177973595
  0
ARC
  5
4A2
100
AcDbEntity
  8
7_ALL_FEATURES
100
AcDbCircle
 62
7
  6
CONTINUOUS
 10
1406.340378198
 20
1093.3150942192
 40
4.7990381057
100
AcDbArc
 50
187.1822026405
 51
226.828815981
  0
ARC
  5
4A3
100
AcDbEntity
  8
7_ALL_FEATURES
100
AcDbCircle
 62
7
  6
CONTINUOUS
 10
1156.340378198
 20
1093.3150942192
 40
4.7990381057
100
AcDbArc
 50
313.171184019
 51
352.8177973595
  0
ARC
  5
4A4
100
AcDbEntity
  8
7_ALL_FEATURES
100
AcDbCircle
 62
7
  6
CONTINUOUS
 10
1656.340378198
 20
1093.3150942192
 40
4.7990381057
100
AcDbArc
 50
187.1822026405
 51
226.828815981
  0
ARC
  5
4A5
100
AcDbEntity
  8
7_ALL_FEATURES
100
AcDbCircle
 62
7
  6
CONTINUOUS
 10
1406.340378198
 20
1093.3150942192
 40
4.7990381057
100
AcDbArc
 50
313.171184019
 51
352.8177973595
  0
ARC
  5
4A6
100
AcDbEntity
  8
7_ALL_FEATURES
100
AcDbCircle
 62
7
  6
CONTINUOUS
 10
1656.340378198
 20
1093.3150942192
 40
4.7990381057
100
AcDbArc
 50
313.171184019
 51
352.8177973595
  0
CIRCLE
  5
4A7
100
AcDbEntity
  8
6_ALL_SURFS
100
AcDbCircle
 62
7
  6
CONTINUOUS
 10
1656.340378198
 20
1093.3150942192
 40
3.5
  0
CIRCLE
  5
4A8
100
AcDbEntity
  8
6_ALL_SURFS
100
AcDbCircle
 62
7
  6
CONTINUOUS
 10
1406.340378198
 20
1093.3150942192
 40
3.5
  0
CIRCLE
  5
4A9
100
AcDbEntity
  8
6_ALL_SURFS
100
AcDbCircle
 62
7
  6
CONTINUOUS
 10
1156.340378198
 20
1093.3150942192
 40
3.5
  0
CIRCLE
  5
4AA
100
AcDbEntity
  8
6_ALL_SURFS
100
AcDbCircle
 62
7
  6
CONTINUOUS
 10
906.340378198
 20
1093.3150942192
 40
3.5
  0
ARC
  5
4AB
100
AcDbEntity
  8
6_ALL_SURFS
100
AcDbCircle
 62
7
  6
CONTINUOUS
 10
1656.340378198
 20
1163.4150942192
 40
4.7990381057
100
AcDbArc
 50
329.9933694481
 51
360.0
  0
ARC
  5
4AC
100
AcDbEntity
  8
6_ALL_SURFS
100
AcDbCircle
 62
7
  6
CONTINUOUS
 10
1406.340378198
 20
1163.4150942192
 40
4.7990381057
100
AcDbArc
 50
329.9933694481
 51
360.0
  0
ARC
  5
4AD
100
AcDbEntity
  8
6_ALL_SURFS
100
AcDbCircle
 62
7
  6
CONTINUOUS
 10
1656.340378198
 20
1163.4150942192
 40
4.7990381057
100
AcDbArc
 50
180.0
 51
210.0066305519
  0
ARC
  5
4AE
100
AcDbEntity
  8
6_ALL_SURFS
100
AcDbCircle
 62
7
  6
CONTINUOUS
 10
1156.340378198
 20
1163.4150942192
 40
4.7990381057
100
AcDbArc
 50
329.9933694481
 51
360.0
  0
ARC
  5
4AF
100
AcDbEntity
  8
6_ALL_SURFS
100
AcDbCircle
 62
7
  6
CONTINUOUS
 10
1406.340378198
 20
1163.4150942192
 40
4.7990381057
100
AcDbArc
 50
180.0
 51
210.0066305519
  0
ARC
  5
4B0
100
AcDbEntity
  8
6_ALL_SURFS
100
AcDbCircle
 62
7
  6
CONTINUOUS
 10
906.340378198
 20
1163.4150942192
 40
4.7990381057
100
AcDbArc
 50
329.9933694481
 51
360.0
  0
ARC
  5
4B1
100
AcDbEntity
  8
6_ALL_SURFS
100
AcDbCircle
 62
7
  6
CONTINUOUS
 10
1156.340378198
 20
1163.4150942192
 40
4.7990381057
100
AcDbArc
 50
180.0
 51
210.0066305519
  0
ARC
  5
4B2
100
AcDbEntity
  8
6_ALL_SURFS
100
AcDbCircle
 62
7
  6
CONTINUOUS
 10
906.340378198
 20
1163.4150942192
 40
4.7990381057
100
AcDbArc
 50
180.0
 51
210.0066305519
  0
ARC
  5
4B3
100
AcDbEntity
  8
6_ALL_SURFS
100
AcDbCircle
 62
7
  6
CONTINUOUS
 10
1656.340378198
 20
1163.4150942192
 40
4.7990381057
100
AcDbArc
 50
218.6913826582
 51
321.3086173418
  0
ARC
  5
4B4
100
AcDbEntity
  8
6_ALL_SURFS
100
AcDbCircle
 62
7
  6
CONTINUOUS
 10
1406.340378198
 20
1163.4150942192
 40
4.7990381057
100
AcDbArc
 50
218.6913826582
 51
321.3086173418
  0
ARC
  5
4B5
100
AcDbEntity
  8
6_ALL_SURFS
100
AcDbCircle
 62
7
  6
CONTINUOUS
 10
1156.340378198
 20
1163.4150942192
 40
4.7990381057
100
AcDbArc
 50
218.6913826582
 51
321.3086173418
  0
ARC
  5
4B6
100
AcDbEntity
  8
6_ALL_SURFS
100
AcDbCircle
 62
7
  6
CONTINUOUS
 10
906.340378198
 20
1163.4150942192
 40
4.7990381057
100
AcDbArc
 50
218.6913826582
 51
321.3086173418
  0
ARC
  5
4B7
100
AcDbEntity
  8
6_ALL_SURFS
100
AcDbCircle
 62
7
  6
CONTINUOUS
 10
1656.340378198
 20
1163.4150942192
 40
4.7990381057
100
AcDbArc
 50
7.1822026405
 51
46.828815981
  0
ARC
  5
4B8
100
AcDbEntity
  8
6_ALL_SURFS
100
AcDbCircle
 62
7
  6
CONTINUOUS
 10
1406.340378198
 20
1163.4150942192
 40
4.7990381057
100
AcDbArc
 50
7.1822026405
 51
46.828815981
  0
ARC
  5
4B9
100
AcDbEntity
  8
6_ALL_SURFS
100
AcDbCircle
 62
7
  6
CONTINUOUS
 10
1656.340378198
 20
1163.4150942192
 40
4.7990381057
100
AcDbArc
 50
133.171184019
 51
172.8177973595
  0
ARC
  5
4BA
100
AcDbEntity
  8
6_ALL_SURFS
100
AcDbCircle
 62
7
  6
CONTINUOUS
 10
1156.340378198
 20
1163.4150942192
 40
4.7990381057
100
AcDbArc
 50
7.1822026405
 51
46.828815981
  0
ARC
  5
4BB
100
AcDbEntity
  8
6_ALL_SURFS
100
AcDbCircle
 62
7
  6
CONTINUOUS
 10
1406.340378198
 20
1163.4150942192
 40
4.7990381057
100
AcDbArc
 50
133.171184019
 51
172.8177973595
  0
ARC
  5
4BC
100
AcDbEntity
  8
6_ALL_SURFS
100
AcDbCircle
 62
7
  6
CONTINUOUS
 10
906.340378198
 20
1163.4150942192
 40
4.7990381057
100
AcDbArc
 50
7.1822026405
 51
46.828815981
  0
ARC
  5
4BD
100
AcDbEntity
  8
6_ALL_SURFS
100
AcDbCircle
 62
7
  6
CONTINUOUS
 10
1156.340378198
 20
1163.4150942192
 40
4.7990381057
100
AcDbArc
 50
133.171184019
 51
172.8177973595
  0
ARC
  5
4BE
100
AcDbEntity
  8
6_ALL_SURFS
100
AcDbCircle
 62
7
  6
CONTINUOUS
 10
906.340378198
 20
1163.4150942192
 40
4.7990381057
100
AcDbArc
 50
133.171184019
 51
172.8177973595
  0
CIRCLE
  5
4BF
100
AcDbEntity
  8
6_ALL_SURFS
100
AcDbCircle
 62
7
  6
CONTINUOUS
 10
1656.340378198
 20
1163.4150942192
 40
3.5
  0
CIRCLE
  5
4C0
100
AcDbEntity
  8
6_ALL_SURFS
100
AcDbCircle
 62
7
  6
CONTINUOUS
 10
1406.340378198
 20
1163.4150942192
 40
3.5
  0
CIRCLE
  5
4C1
100
AcDbEntity
  8
6_ALL_SURFS
100
AcDbCircle
 62
7
  6
CONTINUOUS
 10
1156.340378198
 20
1163.4150942192
 40
3.5
  0
CIRCLE
  5
4C2
100
AcDbEntity
  8
6_ALL_SURFS
100
AcDbCircle
 62
7
  6
CONTINUOUS
 10
906.340378198
 20
1163.4150942192
 40
3.5
  0
ARC
  5
4C3
100
AcDbEntity
  8
7_ALL_FEATURES
100
AcDbCircle
 62
7
  6
CONTINUOUS
 10
2656.340378198
 20
1093.3150942192
 40
4.7990381057
100
AcDbArc
 50
38.6913826582
 51
141.3086173418
  0
ARC
  5
4C4
100
AcDbEntity
  8
7_ALL_FEATURES
100
AcDbCircle
 62
7
  6
CONTINUOUS
 10
2406.340378198
 20
1093.3150942192
 40
4.7990381057
100
AcDbArc
 50
38.6913826582
 51
141.3086173418
  0
ARC
  5
4C5
100
AcDbEntity
  8
7_ALL_FEATURES
100
AcDbCircle
 62
7
  6
CONTINUOUS
 10
2156.340378198
 20
1093.3150942192
 40
4.7990381057
100
AcDbArc
 50
38.6913826582
 51
141.3086173418
  0
ARC
  5
4C6
100
AcDbEntity
  8
7_ALL_FEATURES
100
AcDbCircle
 62
7
  6
CONTINUOUS
 10
1906.340378198
 20
1093.3150942192
 40
4.7990381057
100
AcDbArc
 50
38.6913826582
 51
141.3086173418
  0
ARC
  5
4C7
100
AcDbEntity
  8
7_ALL_FEATURES
100
AcDbCircle
 62
7
  6
CONTINUOUS
 10
2906.340378198
 20
1093.3150942192
 40
4.7990381057
100
AcDbArc
 50
38.6913826582
 51
141.3086173418
  0
ARC
  5
4C8
100
AcDbEntity
  8
7_ALL_FEATURES
100
AcDbCircle
 62
7
  6
CONTINUOUS
 10
1906.340378198
 20
1093.3150942192
 40
4.7990381057
100
AcDbArc
 50
149.9933694481
 51
180.0
  0
ARC
  5
4C9
100
AcDbEntity
  8
7_ALL_FEATURES
100
AcDbCircle
 62
7
  6
CONTINUOUS
 10
2156.340378198
 20
1093.3150942192
 40
4.7990381057
100
AcDbArc
 50
149.9933694481
 51
180.0
  0
ARC
  5
4CA
100
AcDbEntity
  8
7_ALL_FEATURES
100
AcDbCircle
 62
7
  6
CONTINUOUS
 10
1906.340378198
 20
1093.3150942192
 40
4.7990381057
100
AcDbArc
 50
0.0
 51
30.0066305519
  0
ARC
  5
4CB
100
AcDbEntity
  8
7_ALL_FEATURES
100
AcDbCircle
 62
7
  6
CONTINUOUS
 10
2406.340378198
 20
1093.3150942192
 40
4.7990381057
100
AcDbArc
 50
149.9933694481
 51
180.0
  0
ARC
  5
4CC
100
AcDbEntity
  8
7_ALL_FEATURES
100
AcDbCircle
 62
7
  6
CONTINUOUS
 10
2156.340378198
 20
1093.3150942192
 40
4.7990381057
100
AcDbArc
 50
0.0
 51
30.0066305519
  0
ARC
  5
4CD
100
AcDbEntity
  8
7_ALL_FEATURES
100
AcDbCircle
 62
7
  6
CONTINUOUS
 10
2656.340378198
 20
1093.3150942192
 40
4.7990381057
100
AcDbArc
 50
149.9933694481
 51
180.0
  0
ARC
  5
4CE
100
AcDbEntity
  8
7_ALL_FEATURES
100
AcDbCircle
 62
7
  6
CONTINUOUS
 10
2406.340378198
 20
1093.3150942192
 40
4.7990381057
100
AcDbArc
 50
0.0
 51
30.0066305519
  0
ARC
  5
4CF
100
AcDbEntity
  8
7_ALL_FEATURES
100
AcDbCircle
 62
7
  6
CONTINUOUS
 10
2906.340378198
 20
1093.3150942192
 40
4.7990381057
100
AcDbArc
 50
149.9933694481
 51
180.0
  0
ARC
  5
4D0
100
AcDbEntity
  8
7_ALL_FEATURES
100
AcDbCircle
 62
7
  6
CONTINUOUS
 10
2656.340378198
 20
1093.3150942192
 40
4.7990381057
100
AcDbArc
 50
0.0
 51
30.0066305519
  0
ARC
  5
4D1
100
AcDbEntity
  8
7_ALL_FEATURES
100
AcDbCircle
 62
7
  6
CONTINUOUS
 10
2906.340378198
 20
1093.3150942192
 40
4.7990381057
100
AcDbArc
 50
0.0
 51
30.0066305519
  0
ARC
  5
4D2
100
AcDbEntity
  8
7_ALL_FEATURES
100
AcDbCircle
 62
7
  6
CONTINUOUS
 10
1906.340378198
 20
1093.3150942192
 40
4.7990381057
100
AcDbArc
 50
187.1822026405
 51
226.828815981
  0
ARC
  5
4D3
100
AcDbEntity
  8
7_ALL_FEATURES
100
AcDbCircle
 62
7
  6
CONTINUOUS
 10
2156.340378198
 20
1093.3150942192
 40
4.7990381057
100
AcDbArc
 50
187.1822026405
 51
226.828815981
  0
ARC
  5
4D4
100
AcDbEntity
  8
7_ALL_FEATURES
100
AcDbCircle
 62
7
  6
CONTINUOUS
 10
1906.340378198
 20
1093.3150942192
 40
4.7990381057
100
AcDbArc
 50
313.171184019
 51
352.8177973595
  0
ARC
  5
4D5
100
AcDbEntity
  8
7_ALL_FEATURES
100
AcDbCircle
 62
7
  6
CONTINUOUS
 10
2406.340378198
 20
1093.3150942192
 40
4.7990381057
100
AcDbArc
 50
187.1822026405
 51
226.828815981
  0
ARC
  5
4D6
100
AcDbEntity
  8
7_ALL_FEATURES
100
AcDbCircle
 62
7
  6
CONTINUOUS
 10
2156.340378198
 20
1093.3150942192
 40
4.7990381057
100
AcDbArc
 50
313.171184019
 51
352.8177973595
  0
ARC
  5
4D7
100
AcDbEntity
  8
7_ALL_FEATURES
100
AcDbCircle
 62
7
  6
CONTINUOUS
 10
2656.340378198
 20
1093.3150942192
 40
4.7990381057
100
AcDbArc
 50
187.1822026405
 51
226.828815981
  0
ARC
  5
4D8
100
AcDbEntity
  8
7_ALL_FEATURES
100
AcDbCircle
 62
7
  6
CONTINUOUS
 10
2406.340378198
 20
1093.3150942192
 40
4.7990381057
100
AcDbArc
 50
313.171184019
 51
352.8177973595
  0
ARC
  5
4D9
100
AcDbEntity
  8
7_ALL_FEATURES
100
AcDbCircle
 62
7
  6
CONTINUOUS
 10
2906.340378198
 20
1093.3150942192
 40
4.7990381057
100
AcDbArc
 50
187.1822026405
 51
226.828815981
  0
ARC
  5
4DA
100
AcDbEntity
  8
7_ALL_FEATURES
100
AcDbCircle
 62
7
  6
CONTINUOUS
 10
2656.340378198
 20
1093.3150942192
 40
4.7990381057
100
AcDbArc
 50
313.171184019
 51
352.8177973595
  0
ARC
  5
4DB
100
AcDbEntity
  8
7_ALL_FEATURES
100
AcDbCircle
 62
7
  6
CONTINUOUS
 10
2906.340378198
 20
1093.3150942192
 40
4.7990381057
100
AcDbArc
 50
313.171184019
 51
352.8177973595
  0
CIRCLE
  5
4DC
100
AcDbEntity
  8
6_ALL_SURFS
100
AcDbCircle
 62
7
  6
CONTINUOUS
 10
2906.340378198
 20
1093.3150942192
 40
3.5
  0
CIRCLE
  5
4DD
100
AcDbEntity
  8
6_ALL_SURFS
100
AcDbCircle
 62
7
  6
CONTINUOUS
 10
2656.340378198
 20
1093.3150942192
 40
3.5
  0
CIRCLE
  5
4DE
100
AcDbEntity
  8
6_ALL_SURFS
100
AcDbCircle
 62
7
  6
CONTINUOUS
 10
2406.340378198
 20
1093.3150942192
 40
3.5
  0
CIRCLE
  5
4DF
100
AcDbEntity
  8
6_ALL_SURFS
100
AcDbCircle
 62
7
  6
CONTINUOUS
 10
2156.340378198
 20
1093.3150942192
 40
3.5
  0
CIRCLE
  5
4E0
100
AcDbEntity
  8
6_ALL_SURFS
100
AcDbCircle
 62
7
  6
CONTINUOUS
 10
1906.340378198
 20
1093.3150942192
 40
3.5
  0
ARC
  5
4E1
100
AcDbEntity
  8
6_ALL_SURFS
100
AcDbCircle
 62
7
  6
CONTINUOUS
 10
2906.340378198
 20
1163.4150942192
 40
4.7990381057
100
AcDbArc
 50
329.9933694481
 51
360.0
  0
ARC
  5
4E2
100
AcDbEntity
  8
6_ALL_SURFS
100
AcDbCircle
 62
7
  6
CONTINUOUS
 10
2656.340378198
 20
1163.4150942192
 40
4.7990381057
100
AcDbArc
 50
329.9933694481
 51
360.0
  0
ARC
  5
4E3
100
AcDbEntity
  8
6_ALL_SURFS
100
AcDbCircle
 62
7
  6
CONTINUOUS
 10
2906.340378198
 20
1163.4150942192
 40
4.7990381057
100
AcDbArc
 50
180.0
 51
210.0066305519
  0
ARC
  5
4E4
100
AcDbEntity
  8
6_ALL_SURFS
100
AcDbCircle
 62
7
  6
CONTINUOUS
 10
2406.340378198
 20
1163.4150942192
 40
4.7990381057
100
AcDbArc
 50
329.9933694481
 51
360.0
  0
ARC
  5
4E5
100
AcDbEntity
  8
6_ALL_SURFS
100
AcDbCircle
 62
7
  6
CONTINUOUS
 10
2656.340378198
 20
1163.4150942192
 40
4.7990381057
100
AcDbArc
 50
180.0
 51
210.0066305519
  0
ARC
  5
4E6
100
AcDbEntity
  8
6_ALL_SURFS
100
AcDbCircle
 62
7
  6
CONTINUOUS
 10
2156.340378198
 20
1163.4150942192
 40
4.7990381057
100
AcDbArc
 50
329.9933694481
 51
360.0
  0
ARC
  5
4E7
100
AcDbEntity
  8
6_ALL_SURFS
100
AcDbCircle
 62
7
  6
CONTINUOUS
 10
2406.340378198
 20
1163.4150942192
 40
4.7990381057
100
AcDbArc
 50
180.0
 51
210.0066305519
  0
ARC
  5
4E8
100
AcDbEntity
  8
6_ALL_SURFS
100
AcDbCircle
 62
7
  6
CONTINUOUS
 10
1906.340378198
 20
1163.4150942192
 40
4.7990381057
100
AcDbArc
 50
329.9933694481
 51
360.0
  0
ARC
  5
4E9
100
AcDbEntity
  8
6_ALL_SURFS
100
AcDbCircle
 62
7
  6
CONTINUOUS
 10
2156.340378198
 20
1163.4150942192
 40
4.7990381057
100
AcDbArc
 50
180.0
 51
210.0066305519
  0
ARC
  5
4EA
100
AcDbEntity
  8
6_ALL_SURFS
100
AcDbCircle
 62
7
  6
CONTINUOUS
 10
1906.340378198
 20
1163.4150942192
 40
4.7990381057
100
AcDbArc
 50
180.0
 51
210.0066305519
  0
ARC
  5
4EB
100
AcDbEntity
  8
6_ALL_SURFS
100
AcDbCircle
 62
7
  6
CONTINUOUS
 10
2906.340378198
 20
1163.4150942192
 40
4.7990381057
100
AcDbArc
 50
7.1822026405
 51
46.828815981
  0
ARC
  5
4EC
100
AcDbEntity
  8
6_ALL_SURFS
100
AcDbCircle
 62
7
  6
CONTINUOUS
 10
2656.340378198
 20
1163.4150942192
 40
4.7990381057
100
AcDbArc
 50
7.1822026405
 51
46.828815981
  0
ARC
  5
4ED
100
AcDbEntity
  8
6_ALL_SURFS
100
AcDbCircle
 62
7
  6
CONTINUOUS
 10
2906.340378198
 20
1163.4150942192
 40
4.7990381057
100
AcDbArc
 50
133.171184019
 51
172.8177973595
  0
ARC
  5
4EE
100
AcDbEntity
  8
6_ALL_SURFS
100
AcDbCircle
 62
7
  6
CONTINUOUS
 10
2406.340378198
 20
1163.4150942192
 40
4.7990381057
100
AcDbArc
 50
7.1822026405
 51
46.828815981
  0
ARC
  5
4EF
100
AcDbEntity
  8
6_ALL_SURFS
100
AcDbCircle
 62
7
  6
CONTINUOUS
 10
2656.340378198
 20
1163.4150942192
 40
4.7990381057
100
AcDbArc
 50
133.171184019
 51
172.8177973595
  0
ARC
  5
4F0
100
AcDbEntity
  8
6_ALL_SURFS
100
AcDbCircle
 62
7
  6
CONTINUOUS
 10
2156.340378198
 20
1163.4150942192
 40
4.7990381057
100
AcDbArc
 50
7.1822026405
 51
46.828815981
  0
ARC
  5
4F1
100
AcDbEntity
  8
6_ALL_SURFS
100
AcDbCircle
 62
7
  6
CONTINUOUS
 10
2406.340378198
 20
1163.4150942192
 40
4.7990381057
100
AcDbArc
 50
133.171184019
 51
172.8177973595
  0
ARC
  5
4F2
100
AcDbEntity
  8
6_ALL_SURFS
100
AcDbCircle
 62
7
  6
CONTINUOUS
 10
1906.340378198
 20
1163.4150942192
 40
4.7990381057
100
AcDbArc
 50
7.1822026405
 51
46.828815981
  0
ARC
  5
4F3
100
AcDbEntity
  8
6_ALL_SURFS
100
AcDbCircle
 62
7
  6
CONTINUOUS
 10
2156.340378198
 20
1163.4150942192
 40
4.7990381057
100
AcDbArc
 50
133.171184019
 51
172.8177973595
  0
ARC
  5
4F4
100
AcDbEntity
  8
6_ALL_SURFS
100
AcDbCircle
 62
7
  6
CONTINUOUS
 10
2656.340378198
 20
1163.4150942192
 40
4.7990381057
100
AcDbArc
 50
218.6913826582
 51
321.3086173418
  0
ARC
  5
4F5
100
AcDbEntity
  8
6_ALL_SURFS
100
AcDbCircle
 62
7
  6
CONTINUOUS
 10
2406.340378198
 20
1163.4150942192
 40
4.7990381057
100
AcDbArc
 50
218.6913826582
 51
321.3086173418
  0
ARC
  5
4F6
100
AcDbEntity
  8
6_ALL_SURFS
100
AcDbCircle
 62
7
  6
CONTINUOUS
 10
2156.340378198
 20
1163.4150942192
 40
4.7990381057
100
AcDbArc
 50
218.6913826582
 51
321.3086173418
  0
ARC
  5
4F7
100
AcDbEntity
  8
6_ALL_SURFS
100
AcDbCircle
 62
7
  6
CONTINUOUS
 10
1906.340378198
 20
1163.4150942192
 40
4.7990381057
100
AcDbArc
 50
218.6913826582
 51
321.3086173418
  0
ARC
  5
4F8
100
AcDbEntity
  8
6_ALL_SURFS
100
AcDbCircle
 62
7
  6
CONTINUOUS
 10
2906.340378198
 20
1163.4150942192
 40
4.7990381057
100
AcDbArc
 50
218.6913826582
 51
321.3086173418
  0
ARC
  5
4F9
100
AcDbEntity
  8
6_ALL_SURFS
100
AcDbCircle
 62
7
  6
CONTINUOUS
 10
1906.340378198
 20
1163.4150942192
 40
4.7990381057
100
AcDbArc
 50
133.171184019
 51
172.8177973595
  0
CIRCLE
  5
4FA
100
AcDbEntity
  8
6_ALL_SURFS
100
AcDbCircle
 62
7
  6
CONTINUOUS
 10
2906.340378198
 20
1163.4150942192
 40
3.5
  0
CIRCLE
  5
4FB
100
AcDbEntity
  8
6_ALL_SURFS
100
AcDbCircle
 62
7
  6
CONTINUOUS
 10
2656.340378198
 20
1163.4150942192
 40
3.5
  0
CIRCLE
  5
4FC
100
AcDbEntity
  8
6_ALL_SURFS
100
AcDbCircle
 62
7
  6
CONTINUOUS
 10
2406.340378198
 20
1163.4150942192
 40
3.5
  0
CIRCLE
  5
4FD
100
AcDbEntity
  8
6_ALL_SURFS
100
AcDbCircle
 62
7
  6
CONTINUOUS
 10
2156.340378198
 20
1163.4150942192
 40
3.5
  0
CIRCLE
  5
4FE
100
AcDbEntity
  8
6_ALL_SURFS
100
AcDbCircle
 62
7
  6
CONTINUOUS
 10
1906.340378198
 20
1163.4150942192
 40
3.5
  0
SPLINE
  5
4FF
100
AcDbEntity
  8
6_ALL_SURFS
100
AcDbSpline
 62
7
  6
CONTINUOUS
 70
0
 71
3
 72
9
 73
5
 74
0
 42
0.0000001
 43
0.0000001
 44
0.0000000001
 40
0.0
 40
0.0
 40
0.0
 40
0.0
 40
0.4966225864
 40
1.0
 40
1.0
 40
1.0
 40
1.0
 10
2401.578995338
 20
1164.0150942192
 30
0.0
 10
2401.6655463697
 20
1163.9419502995
 30
0.0
 10
2401.7982145409
 20
1163.6982982796
 30
0.0
 10
2401.632355782
 20
1163.4851581298
 30
0.0
 10
2401.5413400923
 20
1163.4150942192
 30
0.0
  0
SPLINE
  5
500
100
AcDbEntity
  8
6_ALL_SURFS
100
AcDbSpline
 62
7
  6
CONTINUOUS
 70
0
 71
3
 72
9
 73
5
 74
0
 42
0.0000001
 43
0.0000001
 44
0.0000000001
 40
0.0
 40
0.0
 40
0.0
 40
0.0
 40
0.503393831
 40
1.0
 40
1.0
 40
1.0
 40
1.0
 10
1911.1394163037
 20
1163.4150942192
 30
0.0
 10
1911.0483977229
 20
1163.4851603554
 30
0.0
 10
1910.8825425215
 20
1163.6983065356
 30
0.0
 10
1911.015212961
 20
1163.9419527795
 30
0.0
 10
1911.101761058
 20
1164.0150942192
 30
0.0
  0
SPLINE
  5
501
100
AcDbEntity
  8
6_ALL_SURFS
100
AcDbSpline
 62
7
  6
CONTINUOUS
 70
0
 71
3
 72
9
 73
5
 74
0
 42
0.0000001
 43
0.0000001
 44
0.0000000001
 40
0.0
 40
0.0
 40
0.0
 40
0.0
 40
0.4966225864
 40
1.0
 40
1.0
 40
1.0
 40
1.0
 10
2151.578995338
 20
1164.0150942192
 30
0.0
 10
2151.6655463697
 20
1163.9419502995
 30
0.0
 10
2151.7982145409
 20
1163.6982982796
 30
0.0
 10
2151.632355782
 20
1163.4851581298
 30
0.0
 10
2151.5413400923
 20
1163.4150942192
 30
0.0
  0
SPLINE
  5
502
100
AcDbEntity
  8
6_ALL_SURFS
100
AcDbSpline
 62
7
  6
CONTINUOUS
 70
0
 71
3
 72
9
 73
5
 74
0
 42
0.0000001
 43
0.0000001
 44
0.0000000001
 40
0.0
 40
0.0
 40
0.0
 40
0.0
 40
0.503393831
 40
1.0
 40
1.0
 40
1.0
 40
1.0
 10
1661.1394163037
 20
1163.4150942192
 30
0.0
 10
1661.0483977229
 20
1163.4851603554
 30
0.0
 10
1660.8825425215
 20
1163.6983065356
 30
0.0
 10
1661.015212961
 20
1163.9419527795
 30
0.0
 10
1661.101761058
 20
1164.0150942192
 30
0.0
  0
SPLINE
  5
503
100
AcDbEntity
  8
6_ALL_SURFS
100
AcDbSpline
 62
7
  6
CONTINUOUS
 70
0
 71
3
 72
9
 73
5
 74
0
 42
0.0000001
 43
0.0000001
 44
0.0000000001
 40
0.0
 40
0.0
 40
0.0
 40
0.0
 40
0.4966225864
 40
1.0
 40
1.0
 40
1.0
 40
1.0
 10
1901.578995338
 20
1164.0150942192
 30
0.0
 10
1901.6655463697
 20
1163.9419502995
 30
0.0
 10
1901.7982145409
 20
1163.6982982796
 30
0.0
 10
1901.632355782
 20
1163.4851581298
 30
0.0
 10
1901.5413400923
 20
1163.4150942192
 30
0.0
  0
SPLINE
  5
504
100
AcDbEntity
  8
6_ALL_SURFS
100
AcDbSpline
 62
7
  6
CONTINUOUS
 70
0
 71
3
 72
9
 73
5
 74
0
 42
0.0000001
 43
0.0000001
 44
0.0000000001
 40
0.0
 40
0.0
 40
0.0
 40
0.0
 40
0.503393831
 40
1.0
 40
1.0
 40
1.0
 40
1.0
 10
1411.1394163037
 20
1163.4150942192
 30
0.0
 10
1411.0483977229
 20
1163.4851603554
 30
0.0
 10
1410.8825425215
 20
1163.6983065356
 30
0.0
 10
1411.015212961
 20
1163.9419527795
 30
0.0
 10
1411.101761058
 20
1164.0150942192
 30
0.0
  0
SPLINE
  5
505
100
AcDbEntity
  8
6_ALL_SURFS
100
AcDbSpline
 62
7
  6
CONTINUOUS
 70
0
 71
3
 72
9
 73
5
 74
0
 42
0.0000001
 43
0.0000001
 44
0.0000000001
 40
0.0
 40
0.0
 40
0.0
 40
0.0
 40
0.4966225864
 40
1.0
 40
1.0
 40
1.0
 40
1.0
 10
1651.578995338
 20
1164.0150942192
 30
0.0
 10
1651.6655463697
 20
1163.9419502995
 30
0.0
 10
1651.7982145409
 20
1163.6982982796
 30
0.0
 10
1651.632355782
 20
1163.4851581298
 30
0.0
 10
1651.5413400923
 20
1163.4150942192
 30
0.0
  0
SPLINE
  5
506
100
AcDbEntity
  8
6_ALL_SURFS
100
AcDbSpline
 62
7
  6
CONTINUOUS
 70
0
 71
3
 72
9
 73
5
 74
0
 42
0.0000001
 43
0.0000001
 44
0.0000000001
 40
0.0
 40
0.0
 40
0.0
 40
0.0
 40
0.503393831
 40
1.0
 40
1.0
 40
1.0
 40
1.0
 10
1161.1394163037
 20
1163.4150942192
 30
0.0
 10
1161.0483977229
 20
1163.4851603554
 30
0.0
 10
1160.8825425215
 20
1163.6983065356
 30
0.0
 10
1161.015212961
 20
1163.9419527795
 30
0.0
 10
1161.101761058
 20
1164.0150942192
 30
0.0
  0
SPLINE
  5
507
100
AcDbEntity
  8
6_ALL_SURFS
100
AcDbSpline
 62
7
  6
CONTINUOUS
 70
0
 71
3
 72
9
 73
5
 74
0
 42
0.0000001
 43
0.0000001
 44
0.0000000001
 40
0.0
 40
0.0
 40
0.0
 40
0.0
 40
0.4966225864
 40
1.0
 40
1.0
 40
1.0
 40
1.0
 10
1401.578995338
 20
1164.0150942192
 30
0.0
 10
1401.6655463697
 20
1163.9419502995
 30
0.0
 10
1401.7982145409
 20
1163.6982982796
 30
0.0
 10
1401.632355782
 20
1163.4851581298
 30
0.0
 10
1401.5413400923
 20
1163.4150942192
 30
0.0
  0
SPLINE
  5
508
100
AcDbEntity
  8
6_ALL_SURFS
100
AcDbSpline
 62
7
  6
CONTINUOUS
 70
0
 71
3
 72
9
 73
5
 74
0
 42
0.0000001
 43
0.0000001
 44
0.0000000001
 40
0.0
 40
0.0
 40
0.0
 40
0.0
 40
0.503393831
 40
1.0
 40
1.0
 40
1.0
 40
1.0
 10
911.1394163037
 20
1163.4150942192
 30
0.0
 10
911.0483977229
 20
1163.4851603554
 30
0.0
 10
910.8825425215
 20
1163.6983065356
 30
0.0
 10
911.015212961
 20
1163.9419527795
 30
0.0
 10
911.101761058
 20
1164.0150942192
 30
0.0
  0
SPLINE
  5
509
100
AcDbEntity
  8
6_ALL_SURFS
100
AcDbSpline
 62
7
  6
CONTINUOUS
 70
0
 71
3
 72
9
 73
5
 74
0
 42
0.0000001
 43
0.0000001
 44
0.0000000001
 40
0.0
 40
0.0
 40
0.0
 40
0.0
 40
0.4966225864
 40
1.0
 40
1.0
 40
1.0
 40
1.0
 10
1151.578995338
 20
1164.0150942192
 30
0.0
 10
1151.6655463697
 20
1163.9419502995
 30
0.0
 10
1151.7982145409
 20
1163.6982982796
 30
0.0
 10
1151.632355782
 20
1163.4851581298
 30
0.0
 10
1151.5413400923
 20
1163.4150942192
 30
0.0
  0
SPLINE
  5
50A
100
AcDbEntity
  8
6_ALL_SURFS
100
AcDbSpline
 62
7
  6
CONTINUOUS
 70
0
 71
3
 72
9
 73
5
 74
0
 42
0.0000001
 43
0.0000001
 44
0.0000000001
 40
0.0
 40
0.0
 40
0.0
 40
0.0
 40
0.4966225864
 40
1.0
 40
1.0
 40
1.0
 40
1.0
 10
901.578995338
 20
1164.0150942192
 30
0.0
 10
901.6655463697
 20
1163.9419502995
 30
0.0
 10
901.7982145409
 20
1163.6982982796
 30
0.0
 10
901.632355782
 20
1163.4851581298
 30
0.0
 10
901.5413400923
 20
1163.4150942192
 30
0.0
  0
SPLINE
  5
50B
100
AcDbEntity
  8
6_ALL_SURFS
100
AcDbSpline
 62
7
  6
CONTINUOUS
 70
0
 71
3
 72
11
 73
7
 74
0
 42
0.0000001
 43
0.0000001
 44
0.0000000001
 40
0.0
 40
0.0
 40
0.0
 40
0.0
 40
0.2308392983
 40
0.4895337766
 40
0.747652091
 40
1.0
 40
1.0
 40
1.0
 40
1.0
 10
2910.086144707
 20
1160.4150942192
 30
0.0
 10
2910.0448603148
 20
1160.462909716
 30
0.0
 10
2910.0105322734
 20
1160.6172234244
 30
0.0
 10
2910.1471643914
 20
1160.7874262933
 30
0.0
 10
2910.310630357
 20
1160.9171024661
 30
0.0
 10
2910.4339639333
 20
1160.9851436408
 30
0.0
 10
2910.4961893992
 20
1161.0150942192
 30
0.0
  0
SPLINE
  5
50C
100
AcDbEntity
  8
6_ALL_SURFS
100
AcDbSpline
 62
7
  6
CONTINUOUS
 70
0
 71
3
 72
11
 73
7
 74
0
 42
0.0000001
 43
0.0000001
 44
0.0000000001
 40
0.0
 40
0.0
 40
0.0
 40
0.0
 40
0.2308392983
 40
0.4895337766
 40
0.747652091
 40
1.0
 40
1.0
 40
1.0
 40
1.0
 10
2660.086144707
 20
1160.4150942192
 30
0.0
 10
2660.0448603148
 20
1160.462909716
 30
0.0
 10
2660.0105322734
 20
1160.6172234244
 30
0.0
 10
2660.1471643914
 20
1160.7874262933
 30
0.0
 10
2660.310630357
 20
1160.9171024661
 30
0.0
 10
2660.4339639333
 20
1160.9851436408
 30
0.0
 10
2660.4961893992
 20
1161.0150942192
 30
0.0
  0
SPLINE
  5
50D
100
AcDbEntity
  8
6_ALL_SURFS
100
AcDbSpline
 62
7
  6
CONTINUOUS
 70
0
 71
3
 72
11
 73
7
 74
0
 42
0.0000001
 43
0.0000001
 44
0.0000000001
 40
0.0
 40
0.0
 40
0.0
 40
0.0
 40
0.2523561177
 40
0.5104807293
 40
0.7691708397
 40
1.0
 40
1.0
 40
1.0
 40
1.0
 10
2902.1845669968
 20
1161.0150942192
 30
0.0
 10
2902.2467945366
 20
1160.9851426426
 30
0.0
 10
2902.3701319044
 20
1160.9170998129
 30
0.0
 10
2902.5335995096
 20
1160.7874206369
 30
0.0
 10
2902.6702247243
 20
1160.6172144391
 30
0.0
 10
2902.6358943011
 20
1160.4629076542
 30
0.0
 10
2902.594611689
 20
1160.4150942192
 30
0.0
  0
SPLINE
  5
50E
100
AcDbEntity
  8
6_ALL_SURFS
100
AcDbSpline
 62
7
  6
CONTINUOUS
 70
0
 71
3
 72
11
 73
7
 74
0
 42
0.0000001
 43
0.0000001
 44
0.0000000001
 40
0.0
 40
0.0
 40
0.0
 40
0.0
 40
0.2308392983
 40
0.4895337766
 40
0.747652091
 40
1.0
 40
1.0
 40
1.0
 40
1.0
 10
2410.086144707
 20
1160.4150942192
 30
0.0
 10
2410.0448603148
 20
1160.462909716
 30
0.0
 10
2410.0105322734
 20
1160.6172234244
 30
0.0
 10
2410.1471643914
 20
1160.7874262933
 30
0.0
 10
2410.310630357
 20
1160.9171024661
 30
0.0
 10
2410.4339639333
 20
1160.9851436408
 30
0.0
 10
2410.4961893992
 20
1161.0150942192
 30
0.0
  0
SPLINE
  5
50F
100
AcDbEntity
  8
7_ALL_FEATURES
100
AcDbSpline
 62
7
  6
CONTINUOUS
 70
0
 71
3
 72
11
 73
7
 74
0
 42
0.0000001
 43
0.0000001
 44
0.0000000001
 40
0.0
 40
0.0
 40
0.0
 40
0.0
 40
0.2523561177
 40
0.5104807293
 40
0.7691708397
 40
1.0
 40
1.0
 40
1.0
 40
1.0
 10
902.1845669968
 20
1095.7150942192
 30
0.0
 10
902.2467945366
 20
1095.7450457958
 30
0.0
 10
902.3701319044
 20
1095.8130886255
 30
0.0
 10
902.5335995096
 20
1095.9427678015
 30
0.0
 10
902.6702247243
 20
1096.1129739993
 30
0.0
 10
902.6358943011
 20
1096.2672807842
 30
0.0
 10
902.594611689
 20
1096.3150942192
 30
0.0
  0
SPLINE
  5
510
100
AcDbEntity
  8
7_ALL_FEATURES
100
AcDbSpline
 62
7
  6
CONTINUOUS
 70
0
 71
3
 72
11
 73
7
 74
0
 42
0.0000001
 43
0.0000001
 44
0.0000000001
 40
0.0
 40
0.0
 40
0.0
 40
0.0
 40
0.2523561177
 40
0.5104807293
 40
0.7691708397
 40
1.0
 40
1.0
 40
1.0
 40
1.0
 10
1152.1845669968
 20
1095.7150942192
 30
0.0
 10
1152.2467945366
 20
1095.7450457958
 30
0.0
 10
1152.3701319044
 20
1095.8130886255
 30
0.0
 10
1152.5335995096
 20
1095.9427678015
 30
0.0
 10
1152.6702247243
 20
1096.1129739993
 30
0.0
 10
1152.6358943011
 20
1096.2672807842
 30
0.0
 10
1152.594611689
 20
1096.3150942192
 30
0.0
  0
SPLINE
  5
511
100
AcDbEntity
  8
7_ALL_FEATURES
100
AcDbSpline
 62
7
  6
CONTINUOUS
 70
0
 71
3
 72
11
 73
7
 74
0
 42
0.0000001
 43
0.0000001
 44
0.0000000001
 40
0.0
 40
0.0
 40
0.0
 40
0.0
 40
0.2308392983
 40
0.4895337766
 40
0.747652091
 40
1.0
 40
1.0
 40
1.0
 40
1.0
 10
910.086144707
 20
1096.3150942192
 30
0.0
 10
910.0448603148
 20
1096.2672787225
 30
0.0
 10
910.0105322734
 20
1096.1129650141
 30
0.0
 10
910.1471643914
 20
1095.9427621452
 30
0.0
 10
910.310630357
 20
1095.8130859723
 30
0.0
 10
910.4339639333
 20
1095.7450447976
 30
0.0
 10
910.4961893992
 20
1095.7150942192
 30
0.0
  0
SPLINE
  5
512
100
AcDbEntity
  8
7_ALL_FEATURES
100
AcDbSpline
 62
7
  6
CONTINUOUS
 70
0
 71
3
 72
11
 73
7
 74
0
 42
0.0000001
 43
0.0000001
 44
0.0000000001
 40
0.0
 40
0.0
 40
0.0
 40
0.0
 40
0.2523561177
 40
0.5104807293
 40
0.7691708397
 40
1.0
 40
1.0
 40
1.0
 40
1.0
 10
1402.1845669968
 20
1095.7150942192
 30
0.0
 10
1402.2467945366
 20
1095.7450457958
 30
0.0
 10
1402.3701319044
 20
1095.8130886255
 30
0.0
 10
1402.5335995096
 20
1095.9427678015
 30
0.0
 10
1402.6702247243
 20
1096.1129739993
 30
0.0
 10
1402.6358943011
 20
1096.2672807842
 30
0.0
 10
1402.594611689
 20
1096.3150942192
 30
0.0
  0
SPLINE
  5
513
100
AcDbEntity
  8
7_ALL_FEATURES
100
AcDbSpline
 62
7
  6
CONTINUOUS
 70
0
 71
3
 72
11
 73
7
 74
0
 42
0.0000001
 43
0.0000001
 44
0.0000000001
 40
0.0
 40
0.0
 40
0.0
 40
0.0
 40
0.2308392983
 40
0.4895337766
 40
0.747652091
 40
1.0
 40
1.0
 40
1.0
 40
1.0
 10
1160.086144707
 20
1096.3150942192
 30
0.0
 10
1160.0448603148
 20
1096.2672787225
 30
0.0
 10
1160.0105322734
 20
1096.1129650141
 30
0.0
 10
1160.1471643914
 20
1095.9427621452
 30
0.0
 10
1160.310630357
 20
1095.8130859723
 30
0.0
 10
1160.4339639333
 20
1095.7450447976
 30
0.0
 10
1160.4961893992
 20
1095.7150942192
 30
0.0
  0
SPLINE
  5
514
100
AcDbEntity
  8
7_ALL_FEATURES
100
AcDbSpline
 62
7
  6
CONTINUOUS
 70
0
 71
3
 72
11
 73
7
 74
0
 42
0.0000001
 43
0.0000001
 44
0.0000000001
 40
0.0
 40
0.0
 40
0.0
 40
0.0
 40
0.2523561177
 40
0.5104807293
 40
0.7691708397
 40
1.0
 40
1.0
 40
1.0
 40
1.0
 10
1652.1845669968
 20
1095.7150942192
 30
0.0
 10
1652.2467945366
 20
1095.7450457958
 30
0.0
 10
1652.3701319044
 20
1095.8130886255
 30
0.0
 10
1652.5335995096
 20
1095.9427678015
 30
0.0
 10
1652.6702247243
 20
1096.1129739993
 30
0.0
 10
1652.6358943011
 20
1096.2672807842
 30
0.0
 10
1652.594611689
 20
1096.3150942192
 30
0.0
  0
SPLINE
  5
515
100
AcDbEntity
  8
7_ALL_FEATURES
100
AcDbSpline
 62
7
  6
CONTINUOUS
 70
0
 71
3
 72
11
 73
7
 74
0
 42
0.0000001
 43
0.0000001
 44
0.0000000001
 40
0.0
 40
0.0
 40
0.0
 40
0.0
 40
0.2308392983
 40
0.4895337766
 40
0.747652091
 40
1.0
 40
1.0
 40
1.0
 40
1.0
 10
1410.086144707
 20
1096.3150942192
 30
0.0
 10
1410.0448603148
 20
1096.2672787225
 30
0.0
 10
1410.0105322734
 20
1096.1129650141
 30
0.0
 10
1410.1471643914
 20
1095.9427621452
 30
0.0
 10
1410.310630357
 20
1095.8130859723
 30
0.0
 10
1410.4339639333
 20
1095.7450447976
 30
0.0
 10
1410.4961893992
 20
1095.7150942192
 30
0.0
  0
SPLINE
  5
516
100
AcDbEntity
  8
7_ALL_FEATURES
100
AcDbSpline
 62
7
  6
CONTINUOUS
 70
0
 71
3
 72
11
 73
7
 74
0
 42
0.0000001
 43
0.0000001
 44
0.0000000001
 40
0.0
 40
0.0
 40
0.0
 40
0.0
 40
0.2523561177
 40
0.5104807293
 40
0.7691708397
 40
1.0
 40
1.0
 40
1.0
 40
1.0
 10
1902.1845669968
 20
1095.7150942192
 30
0.0
 10
1902.2467945366
 20
1095.7450457958
 30
0.0
 10
1902.3701319044
 20
1095.8130886255
 30
0.0
 10
1902.5335995096
 20
1095.9427678015
 30
0.0
 10
1902.6702247243
 20
1096.1129739993
 30
0.0
 10
1902.6358943011
 20
1096.2672807842
 30
0.0
 10
1902.594611689
 20
1096.3150942192
 30
0.0
  0
SPLINE
  5
517
100
AcDbEntity
  8
7_ALL_FEATURES
100
AcDbSpline
 62
7
  6
CONTINUOUS
 70
0
 71
3
 72
11
 73
7
 74
0
 42
0.0000001
 43
0.0000001
 44
0.0000000001
 40
0.0
 40
0.0
 40
0.0
 40
0.0
 40
0.2308392983
 40
0.4895337766
 40
0.747652091
 40
1.0
 40
1.0
 40
1.0
 40
1.0
 10
1660.086144707
 20
1096.3150942192
 30
0.0
 10
1660.0448603148
 20
1096.2672787225
 30
0.0
 10
1660.0105322734
 20
1096.1129650141
 30
0.0
 10
1660.1471643914
 20
1095.9427621452
 30
0.0
 10
1660.310630357
 20
1095.8130859723
 30
0.0
 10
1660.4339639333
 20
1095.7450447976
 30
0.0
 10
1660.4961893992
 20
1095.7150942192
 30
0.0
  0
SPLINE
  5
518
100
AcDbEntity
  8
7_ALL_FEATURES
100
AcDbSpline
 62
7
  6
CONTINUOUS
 70
0
 71
3
 72
11
 73
7
 74
0
 42
0.0000001
 43
0.0000001
 44
0.0000000001
 40
0.0
 40
0.0
 40
0.0
 40
0.0
 40
0.2523561177
 40
0.5104807293
 40
0.7691708397
 40
1.0
 40
1.0
 40
1.0
 40
1.0
 10
2152.1845669968
 20
1095.7150942192
 30
0.0
 10
2152.2467945366
 20
1095.7450457958
 30
0.0
 10
2152.3701319044
 20
1095.8130886255
 30
0.0
 10
2152.5335995096
 20
1095.9427678015
 30
0.0
 10
2152.6702247243
 20
1096.1129739993
 30
0.0
 10
2152.6358943011
 20
1096.2672807842
 30
0.0
 10
2152.594611689
 20
1096.3150942192
 30
0.0
  0
SPLINE
  5
519
100
AcDbEntity
  8
7_ALL_FEATURES
100
AcDbSpline
 62
7
  6
CONTINUOUS
 70
0
 71
3
 72
11
 73
7
 74
0
 42
0.0000001
 43
0.0000001
 44
0.0000000001
 40
0.0
 40
0.0
 40
0.0
 40
0.0
 40
0.2308392983
 40
0.4895337766
 40
0.747652091
 40
1.0
 40
1.0
 40
1.0
 40
1.0
 10
1910.086144707
 20
1096.3150942192
 30
0.0
 10
1910.0448603148
 20
1096.2672787225
 30
0.0
 10
1910.0105322734
 20
1096.1129650141
 30
0.0
 10
1910.1471643914
 20
1095.9427621452
 30
0.0
 10
1910.310630357
 20
1095.8130859723
 30
0.0
 10
1910.4339639333
 20
1095.7450447976
 30
0.0
 10
1910.4961893992
 20
1095.7150942192
 30
0.0
  0
SPLINE
  5
51A
100
AcDbEntity
  8
7_ALL_FEATURES
100
AcDbSpline
 62
7
  6
CONTINUOUS
 70
0
 71
3
 72
11
 73
7
 74
0
 42
0.0000001
 43
0.0000001
 44
0.0000000001
 40
0.0
 40
0.0
 40
0.0
 40
0.0
 40
0.2523561177
 40
0.5104807293
 40
0.7691708397
 40
1.0
 40
1.0
 40
1.0
 40
1.0
 10
2402.1845669968
 20
1095.7150942192
 30
0.0
 10
2402.2467945366
 20
1095.7450457958
 30
0.0
 10
2402.3701319044
 20
1095.8130886255
 30
0.0
 10
2402.5335995096
 20
1095.9427678015
 30
0.0
 10
2402.6702247243
 20
1096.1129739993
 30
0.0
 10
2402.6358943011
 20
1096.2672807842
 30
0.0
 10
2402.594611689
 20
1096.3150942192
 30
0.0
  0
SPLINE
  5
51B
100
AcDbEntity
  8
7_ALL_FEATURES
100
AcDbSpline
 62
7
  6
CONTINUOUS
 70
0
 71
3
 72
11
 73
7
 74
0
 42
0.0000001
 43
0.0000001
 44
0.0000000001
 40
0.0
 40
0.0
 40
0.0
 40
0.0
 40
0.2308392983
 40
0.4895337766
 40
0.747652091
 40
1.0
 40
1.0
 40
1.0
 40
1.0
 10
2160.086144707
 20
1096.3150942192
 30
0.0
 10
2160.0448603148
 20
1096.2672787225
 30
0.0
 10
2160.0105322734
 20
1096.1129650141
 30
0.0
 10
2160.1471643914
 20
1095.9427621452
 30
0.0
 10
2160.310630357
 20
1095.8130859723
 30
0.0
 10
2160.4339639333
 20
1095.7450447976
 30
0.0
 10
2160.4961893992
 20
1095.7150942192
 30
0.0
  0
SPLINE
  5
51C
100
AcDbEntity
  8
7_ALL_FEATURES
100
AcDbSpline
 62
7
  6
CONTINUOUS
 70
0
 71
3
 72
11
 73
7
 74
0
 42
0.0000001
 43
0.0000001
 44
0.0000000001
 40
0.0
 40
0.0
 40
0.0
 40
0.0
 40
0.2523561177
 40
0.5104807293
 40
0.7691708397
 40
1.0
 40
1.0
 40
1.0
 40
1.0
 10
2652.1845669968
 20
1095.7150942192
 30
0.0
 10
2652.2467945366
 20
1095.7450457958
 30
0.0
 10
2652.3701319044
 20
1095.8130886255
 30
0.0
 10
2652.5335995096
 20
1095.9427678015
 30
0.0
 10
2652.6702247243
 20
1096.1129739993
 30
0.0
 10
2652.6358943011
 20
1096.2672807842
 30
0.0
 10
2652.594611689
 20
1096.3150942192
 30
0.0
  0
SPLINE
  5
51D
100
AcDbEntity
  8
7_ALL_FEATURES
100
AcDbSpline
 62
7
  6
CONTINUOUS
 70
0
 71
3
 72
11
 73
7
 74
0
 42
0.0000001
 43
0.0000001
 44
0.0000000001
 40
0.0
 40
0.0
 40
0.0
 40
0.0
 40
0.2308392983
 40
0.4895337766
 40
0.747652091
 40
1.0
 40
1.0
 40
1.0
 40
1.0
 10
2410.086144707
 20
1096.3150942192
 30
0.0
 10
2410.0448603148
 20
1096.2672787225
 30
0.0
 10
2410.0105322734
 20
1096.1129650141
 30
0.0
 10
2410.1471643914
 20
1095.9427621452
 30
0.0
 10
2410.310630357
 20
1095.8130859723
 30
0.0
 10
2410.4339639333
 20
1095.7450447976
 30
0.0
 10
2410.4961893992
 20
1095.7150942192
 30
0.0
  0
SPLINE
  5
51E
100
AcDbEntity
  8
7_ALL_FEATURES
100
AcDbSpline
 62
7
  6
CONTINUOUS
 70
0
 71
3
 72
11
 73
7
 74
0
 42
0.0000001
 43
0.0000001
 44
0.0000000001
 40
0.0
 40
0.0
 40
0.0
 40
0.0
 40
0.2523561177
 40
0.5104807293
 40
0.7691708397
 40
1.0
 40
1.0
 40
1.0
 40
1.0
 10
2902.1845669968
 20
1095.7150942192
 30
0.0
 10
2902.2467945366
 20
1095.7450457958
 30
0.0
 10
2902.3701319044
 20
1095.8130886255
 30
0.0
 10
2902.5335995096
 20
1095.9427678015
 30
0.0
 10
2902.6702247243
 20
1096.1129739993
 30
0.0
 10
2902.6358943011
 20
1096.2672807842
 30
0.0
 10
2902.594611689
 20
1096.3150942192
 30
0.0
  0
SPLINE
  5
51F
100
AcDbEntity
  8
7_ALL_FEATURES
100
AcDbSpline
 62
7
  6
CONTINUOUS
 70
0
 71
3
 72
11
 73
7
 74
0
 42
0.0000001
 43
0.0000001
 44
0.0000000001
 40
0.0
 40
0.0
 40
0.0
 40
0.0
 40
0.2308392983
 40
0.4895337766
 40
0.747652091
 40
1.0
 40
1.0
 40
1.0
 40
1.0
 10
2660.086144707
 20
1096.3150942192
 30
0.0
 10
2660.0448603148
 20
1096.2672787225
 30
0.0
 10
2660.0105322734
 20
1096.1129650141
 30
0.0
 10
2660.1471643914
 20
1095.9427621452
 30
0.0
 10
2660.310630357
 20
1095.8130859723
 30
0.0
 10
2660.4339639333
 20
1095.7450447976
 30
0.0
 10
2660.4961893992
 20
1095.7150942192
 30
0.0
  0
SPLINE
  5
520
100
AcDbEntity
  8
7_ALL_FEATURES
100
AcDbSpline
 62
7
  6
CONTINUOUS
 70
0
 71
3
 72
11
 73
7
 74
0
 42
0.0000001
 43
0.0000001
 44
0.0000000001
 40
0.0
 40
0.0
 40
0.0
 40
0.0
 40
0.2308392983
 40
0.4895337766
 40
0.747652091
 40
1.0
 40
1.0
 40
1.0
 40
1.0
 10
2910.086144707
 20
1096.3150942192
 30
0.0
 10
2910.0448603148
 20
1096.2672787225
 30
0.0
 10
2910.0105322734
 20
1096.1129650141
 30
0.0
 10
2910.1471643914
 20
1095.9427621452
 30
0.0
 10
2910.310630357
 20
1095.8130859723
 30
0.0
 10
2910.4339639333
 20
1095.7450447976
 30
0.0
 10
2910.4961893992
 20
1095.7150942192
 30
0.0
  0
SPLINE
  5
521
100
AcDbEntity
  8
7_ALL_FEATURES
100
AcDbSpline
 62
7
  6
CONTINUOUS
 70
0
 71
3
 72
9
 73
5
 74
0
 42
0.0000001
 43
0.0000001
 44
0.0000000001
 40
0.0
 40
0.0
 40
0.0
 40
0.0
 40
0.4966225864
 40
1.0
 40
1.0
 40
1.0
 40
1.0
 10
901.578995338
 20
1092.7150942192
 30
0.0
 10
901.6655463697
 20
1092.788238139
 30
0.0
 10
901.7982145409
 20
1093.0318901589
 30
0.0
 10
901.632355782
 20
1093.2450303087
 30
0.0
 10
901.5413400923
 20
1093.3150942192
 30
0.0
  0
SPLINE
  5
522
100
AcDbEntity
  8
7_ALL_FEATURES
100
AcDbSpline
 62
7
  6
CONTINUOUS
 70
0
 71
3
 72
9
 73
5
 74
0
 42
0.0000001
 43
0.0000001
 44
0.0000000001
 40
0.0
 40
0.0
 40
0.0
 40
0.0
 40
0.4966225864
 40
1.0
 40
1.0
 40
1.0
 40
1.0
 10
1151.578995338
 20
1092.7150942192
 30
0.0
 10
1151.6655463697
 20
1092.788238139
 30
0.0
 10
1151.7982145409
 20
1093.0318901589
 30
0.0
 10
1151.632355782
 20
1093.2450303087
 30
0.0
 10
1151.5413400923
 20
1093.3150942192
 30
0.0
  0
SPLINE
  5
523
100
AcDbEntity
  8
7_ALL_FEATURES
100
AcDbSpline
 62
7
  6
CONTINUOUS
 70
0
 71
3
 72
9
 73
5
 74
0
 42
0.0000001
 43
0.0000001
 44
0.0000000001
 40
0.0
 40
0.0
 40
0.0
 40
0.0
 40
0.503393831
 40
1.0
 40
1.0
 40
1.0
 40
1.0
 10
911.1394163037
 20
1093.3150942192
 30
0.0
 10
911.0483977229
 20
1093.245028083
 30
0.0
 10
910.8825425215
 20
1093.0318819028
 30
0.0
 10
911.015212961
 20
1092.7882356589
 30
0.0
 10
911.101761058
 20
1092.7150942192
 30
0.0
  0
SPLINE
  5
524
100
AcDbEntity
  8
7_ALL_FEATURES
100
AcDbSpline
 62
7
  6
CONTINUOUS
 70
0
 71
3
 72
9
 73
5
 74
0
 42
0.0000001
 43
0.0000001
 44
0.0000000001
 40
0.0
 40
0.0
 40
0.0
 40
0.0
 40
0.4966225864
 40
1.0
 40
1.0
 40
1.0
 40
1.0
 10
1401.578995338
 20
1092.7150942192
 30
0.0
 10
1401.6655463697
 20
1092.788238139
 30
0.0
 10
1401.7982145409
 20
1093.0318901589
 30
0.0
 10
1401.632355782
 20
1093.2450303087
 30
0.0
 10
1401.5413400923
 20
1093.3150942192
 30
0.0
  0
SPLINE
  5
525
100
AcDbEntity
  8
7_ALL_FEATURES
100
AcDbSpline
 62
7
  6
CONTINUOUS
 70
0
 71
3
 72
9
 73
5
 74
0
 42
0.0000001
 43
0.0000001
 44
0.0000000001
 40
0.0
 40
0.0
 40
0.0
 40
0.0
 40
0.503393831
 40
1.0
 40
1.0
 40
1.0
 40
1.0
 10
1161.1394163037
 20
1093.3150942192
 30
0.0
 10
1161.0483977229
 20
1093.245028083
 30
0.0
 10
1160.8825425215
 20
1093.0318819028
 30
0.0
 10
1161.015212961
 20
1092.7882356589
 30
0.0
 10
1161.101761058
 20
1092.7150942192
 30
0.0
  0
SPLINE
  5
526
100
AcDbEntity
  8
7_ALL_FEATURES
100
AcDbSpline
 62
7
  6
CONTINUOUS
 70
0
 71
3
 72
9
 73
5
 74
0
 42
0.0000001
 43
0.0000001
 44
0.0000000001
 40
0.0
 40
0.0
 40
0.0
 40
0.0
 40
0.4966225864
 40
1.0
 40
1.0
 40
1.0
 40
1.0
 10
1651.578995338
 20
1092.7150942192
 30
0.0
 10
1651.6655463697
 20
1092.788238139
 30
0.0
 10
1651.7982145409
 20
1093.0318901589
 30
0.0
 10
1651.632355782
 20
1093.2450303087
 30
0.0
 10
1651.5413400923
 20
1093.3150942192
 30
0.0
  0
SPLINE
  5
527
100
AcDbEntity
  8
7_ALL_FEATURES
100
AcDbSpline
 62
7
  6
CONTINUOUS
 70
0
 71
3
 72
9
 73
5
 74
0
 42
0.0000001
 43
0.0000001
 44
0.0000000001
 40
0.0
 40
0.0
 40
0.0
 40
0.0
 40
0.503393831
 40
1.0
 40
1.0
 40
1.0
 40
1.0
 10
1411.1394163037
 20
1093.3150942192
 30
0.0
 10
1411.0483977229
 20
1093.245028083
 30
0.0
 10
1410.8825425215
 20
1093.0318819028
 30
0.0
 10
1411.015212961
 20
1092.7882356589
 30
0.0
 10
1411.101761058
 20
1092.7150942192
 30
0.0
  0
SPLINE
  5
528
100
AcDbEntity
  8
7_ALL_FEATURES
100
AcDbSpline
 62
7
  6
CONTINUOUS
 70
0
 71
3
 72
9
 73
5
 74
0
 42
0.0000001
 43
0.0000001
 44
0.0000000001
 40
0.0
 40
0.0
 40
0.0
 40
0.0
 40
0.4966225864
 40
1.0
 40
1.0
 40
1.0
 40
1.0
 10
1901.578995338
 20
1092.7150942192
 30
0.0
 10
1901.6655463697
 20
1092.788238139
 30
0.0
 10
1901.7982145409
 20
1093.0318901589
 30
0.0
 10
1901.632355782
 20
1093.2450303087
 30
0.0
 10
1901.5413400923
 20
1093.3150942192
 30
0.0
  0
SPLINE
  5
529
100
AcDbEntity
  8
7_ALL_FEATURES
100
AcDbSpline
 62
7
  6
CONTINUOUS
 70
0
 71
3
 72
9
 73
5
 74
0
 42
0.0000001
 43
0.0000001
 44
0.0000000001
 40
0.0
 40
0.0
 40
0.0
 40
0.0
 40
0.503393831
 40
1.0
 40
1.0
 40
1.0
 40
1.0
 10
1661.1394163037
 20
1093.3150942192
 30
0.0
 10
1661.0483977229
 20
1093.245028083
 30
0.0
 10
1660.8825425215
 20
1093.0318819028
 30
0.0
 10
1661.015212961
 20
1092.7882356589
 30
0.0
 10
1661.101761058
 20
1092.7150942192
 30
0.0
  0
SPLINE
  5
52A
100
AcDbEntity
  8
7_ALL_FEATURES
100
AcDbSpline
 62
7
  6
CONTINUOUS
 70
0
 71
3
 72
9
 73
5
 74
0
 42
0.0000001
 43
0.0000001
 44
0.0000000001
 40
0.0
 40
0.0
 40
0.0
 40
0.0
 40
0.4966225864
 40
1.0
 40
1.0
 40
1.0
 40
1.0
 10
2151.578995338
 20
1092.7150942192
 30
0.0
 10
2151.6655463697
 20
1092.788238139
 30
0.0
 10
2151.7982145409
 20
1093.0318901589
 30
0.0
 10
2151.632355782
 20
1093.2450303087
 30
0.0
 10
2151.5413400923
 20
1093.3150942192
 30
0.0
  0
SPLINE
  5
52B
100
AcDbEntity
  8
7_ALL_FEATURES
100
AcDbSpline
 62
7
  6
CONTINUOUS
 70
0
 71
3
 72
9
 73
5
 74
0
 42
0.0000001
 43
0.0000001
 44
0.0000000001
 40
0.0
 40
0.0
 40
0.0
 40
0.0
 40
0.503393831
 40
1.0
 40
1.0
 40
1.0
 40
1.0
 10
1911.1394163037
 20
1093.3150942192
 30
0.0
 10
1911.0483977229
 20
1093.245028083
 30
0.0
 10
1910.8825425215
 20
1093.0318819028
 30
0.0
 10
1911.015212961
 20
1092.7882356589
 30
0.0
 10
1911.101761058
 20
1092.7150942192
 30
0.0
  0
SPLINE
  5
52C
100
AcDbEntity
  8
7_ALL_FEATURES
100
AcDbSpline
 62
7
  6
CONTINUOUS
 70
0
 71
3
 72
9
 73
5
 74
0
 42
0.0000001
 43
0.0000001
 44
0.0000000001
 40
0.0
 40
0.0
 40
0.0
 40
0.0
 40
0.4966225864
 40
1.0
 40
1.0
 40
1.0
 40
1.0
 10
2401.578995338
 20
1092.7150942192
 30
0.0
 10
2401.6655463697
 20
1092.788238139
 30
0.0
 10
2401.7982145409
 20
1093.0318901589
 30
0.0
 10
2401.632355782
 20
1093.2450303087
 30
0.0
 10
2401.5413400923
 20
1093.3150942192
 30
0.0
  0
SPLINE
  5
52D
100
AcDbEntity
  8
7_ALL_FEATURES
100
AcDbSpline
 62
7
  6
CONTINUOUS
 70
0
 71
3
 72
9
 73
5
 74
0
 42
0.0000001
 43
0.0000001
 44
0.0000000001
 40
0.0
 40
0.0
 40
0.0
 40
0.0
 40
0.503393831
 40
1.0
 40
1.0
 40
1.0
 40
1.0
 10
2161.1394163037
 20
1093.3150942192
 30
0.0
 10
2161.0483977229
 20
1093.245028083
 30
0.0
 10
2160.8825425215
 20
1093.0318819028
 30
0.0
 10
2161.015212961
 20
1092.7882356589
 30
0.0
 10
2161.101761058
 20
1092.7150942192
 30
0.0
  0
SPLINE
  5
52E
100
AcDbEntity
  8
7_ALL_FEATURES
100
AcDbSpline
 62
7
  6
CONTINUOUS
 70
0
 71
3
 72
9
 73
5
 74
0
 42
0.0000001
 43
0.0000001
 44
0.0000000001
 40
0.0
 40
0.0
 40
0.0
 40
0.0
 40
0.4966225864
 40
1.0
 40
1.0
 40
1.0
 40
1.0
 10
2651.578995338
 20
1092.7150942192
 30
0.0
 10
2651.6655463697
 20
1092.788238139
 30
0.0
 10
2651.7982145409
 20
1093.0318901589
 30
0.0
 10
2651.632355782
 20
1093.2450303087
 30
0.0
 10
2651.5413400923
 20
1093.3150942192
 30
0.0
  0
SPLINE
  5
52F
100
AcDbEntity
  8
7_ALL_FEATURES
100
AcDbSpline
 62
7
  6
CONTINUOUS
 70
0
 71
3
 72
9
 73
5
 74
0
 42
0.0000001
 43
0.0000001
 44
0.0000000001
 40
0.0
 40
0.0
 40
0.0
 40
0.0
 40
0.503393831
 40
1.0
 40
1.0
 40
1.0
 40
1.0
 10
2411.1394163037
 20
1093.3150942192
 30
0.0
 10
2411.0483977229
 20
1093.245028083
 30
0.0
 10
2410.8825425215
 20
1093.0318819028
 30
0.0
 10
2411.015212961
 20
1092.7882356589
 30
0.0
 10
2411.101761058
 20
1092.7150942192
 30
0.0
  0
SPLINE
  5
530
100
AcDbEntity
  8
7_ALL_FEATURES
100
AcDbSpline
 62
7
  6
CONTINUOUS
 70
0
 71
3
 72
9
 73
5
 74
0
 42
0.0000001
 43
0.0000001
 44
0.0000000001
 40
0.0
 40
0.0
 40
0.0
 40
0.0
 40
0.4966225864
 40
1.0
 40
1.0
 40
1.0
 40
1.0
 10
2901.578995338
 20
1092.7150942192
 30
0.0
 10
2901.6655463697
 20
1092.788238139
 30
0.0
 10
2901.7982145409
 20
1093.0318901589
 30
0.0
 10
2901.632355782
 20
1093.2450303087
 30
0.0
 10
2901.5413400923
 20
1093.3150942192
 30
0.0
  0
SPLINE
  5
531
100
AcDbEntity
  8
7_ALL_FEATURES
100
AcDbSpline
 62
7
  6
CONTINUOUS
 70
0
 71
3
 72
9
 73
5
 74
0
 42
0.0000001
 43
0.0000001
 44
0.0000000001
 40
0.0
 40
0.0
 40
0.0
 40
0.0
 40
0.503393831
 40
1.0
 40
1.0
 40
1.0
 40
1.0
 10
2661.1394163037
 20
1093.3150942192
 30
0.0
 10
2661.0483977229
 20
1093.245028083
 30
0.0
 10
2660.8825425215
 20
1093.0318819028
 30
0.0
 10
2661.015212961
 20
1092.7882356589
 30
0.0
 10
2661.101761058
 20
1092.7150942192
 30
0.0
  0
SPLINE
  5
532
100
AcDbEntity
  8
7_ALL_FEATURES
100
AcDbSpline
 62
7
  6
CONTINUOUS
 70
0
 71
3
 72
9
 73
5
 74
0
 42
0.0000001
 43
0.0000001
 44
0.0000000001
 40
0.0
 40
0.0
 40
0.0
 40
0.0
 40
0.503393831
 40
1.0
 40
1.0
 40
1.0
 40
1.0
 10
2911.1394163037
 20
1093.3150942192
 30
0.0
 10
2911.0483977229
 20
1093.245028083
 30
0.0
 10
2910.8825425215
 20
1093.0318819028
 30
0.0
 10
2911.015212961
 20
1092.7882356589
 30
0.0
 10
2911.101761058
 20
1092.7150942192
 30
0.0
  0
SPLINE
  5
533
100
AcDbEntity
  8
6_ALL_SURFS
100
AcDbSpline
 62
7
  6
CONTINUOUS
 70
0
 71
3
 72
11
 73
7
 74
0
 42
0.0000001
 43
0.0000001
 44
0.0000000001
 40
0.0
 40
0.0
 40
0.0
 40
0.0
 40
0.2523561177
 40
0.5104807293
 40
0.7691708397
 40
1.0
 40
1.0
 40
1.0
 40
1.0
 10
2652.1845669968
 20
1161.0150942192
 30
0.0
 10
2652.2467945366
 20
1160.9851426426
 30
0.0
 10
2652.3701319044
 20
1160.9170998129
 30
0.0
 10
2652.5335995096
 20
1160.7874206369
 30
0.0
 10
2652.6702247243
 20
1160.6172144391
 30
0.0
 10
2652.6358943011
 20
1160.4629076542
 30
0.0
 10
2652.594611689
 20
1160.4150942192
 30
0.0
  0
SPLINE
  5
534
100
AcDbEntity
  8
6_ALL_SURFS
100
AcDbSpline
 62
7
  6
CONTINUOUS
 70
0
 71
3
 72
11
 73
7
 74
0
 42
0.0000001
 43
0.0000001
 44
0.0000000001
 40
0.0
 40
0.0
 40
0.0
 40
0.0
 40
0.2308392983
 40
0.4895337766
 40
0.747652091
 40
1.0
 40
1.0
 40
1.0
 40
1.0
 10
2160.086144707
 20
1160.4150942192
 30
0.0
 10
2160.0448603148
 20
1160.462909716
 30
0.0
 10
2160.0105322734
 20
1160.6172234244
 30
0.0
 10
2160.1471643914
 20
1160.7874262933
 30
0.0
 10
2160.310630357
 20
1160.9171024661
 30
0.0
 10
2160.4339639333
 20
1160.9851436408
 30
0.0
 10
2160.4961893992
 20
1161.0150942192
 30
0.0
  0
SPLINE
  5
535
100
AcDbEntity
  8
6_ALL_SURFS
100
AcDbSpline
 62
7
  6
CONTINUOUS
 70
0
 71
3
 72
11
 73
7
 74
0
 42
0.0000001
 43
0.0000001
 44
0.0000000001
 40
0.0
 40
0.0
 40
0.0
 40
0.0
 40
0.2523561177
 40
0.5104807293
 40
0.7691708397
 40
1.0
 40
1.0
 40
1.0
 40
1.0
 10
2402.1845669968
 20
1161.0150942192
 30
0.0
 10
2402.2467945366
 20
1160.9851426426
 30
0.0
 10
2402.3701319044
 20
1160.9170998129
 30
0.0
 10
2402.5335995096
 20
1160.7874206369
 30
0.0
 10
2402.6702247243
 20
1160.6172144391
 30
0.0
 10
2402.6358943011
 20
1160.4629076542
 30
0.0
 10
2402.594611689
 20
1160.4150942192
 30
0.0
  0
SPLINE
  5
536
100
AcDbEntity
  8
6_ALL_SURFS
100
AcDbSpline
 62
7
  6
CONTINUOUS
 70
0
 71
3
 72
11
 73
7
 74
0
 42
0.0000001
 43
0.0000001
 44
0.0000000001
 40
0.0
 40
0.0
 40
0.0
 40
0.0
 40
0.2308392983
 40
0.4895337766
 40
0.747652091
 40
1.0
 40
1.0
 40
1.0
 40
1.0
 10
1910.086144707
 20
1160.4150942192
 30
0.0
 10
1910.0448603148
 20
1160.462909716
 30
0.0
 10
1910.0105322734
 20
1160.6172234244
 30
0.0
 10
1910.1471643914
 20
1160.7874262933
 30
0.0
 10
1910.310630357
 20
1160.9171024661
 30
0.0
 10
1910.4339639333
 20
1160.9851436408
 30
0.0
 10
1910.4961893992
 20
1161.0150942192
 30
0.0
  0
SPLINE
  5
537
100
AcDbEntity
  8
6_ALL_SURFS
100
AcDbSpline
 62
7
  6
CONTINUOUS
 70
0
 71
3
 72
11
 73
7
 74
0
 42
0.0000001
 43
0.0000001
 44
0.0000000001
 40
0.0
 40
0.0
 40
0.0
 40
0.0
 40
0.2523561177
 40
0.5104807293
 40
0.7691708397
 40
1.0
 40
1.0
 40
1.0
 40
1.0
 10
2152.1845669968
 20
1161.0150942192
 30
0.0
 10
2152.2467945366
 20
1160.9851426426
 30
0.0
 10
2152.3701319044
 20
1160.9170998129
 30
0.0
 10
2152.5335995096
 20
1160.7874206369
 30
0.0
 10
2152.6702247243
 20
1160.6172144391
 30
0.0
 10
2152.6358943011
 20
1160.4629076542
 30
0.0
 10
2152.594611689
 20
1160.4150942192
 30
0.0
  0
SPLINE
  5
538
100
AcDbEntity
  8
6_ALL_SURFS
100
AcDbSpline
 62
7
  6
CONTINUOUS
 70
0
 71
3
 72
11
 73
7
 74
0
 42
0.0000001
 43
0.0000001
 44
0.0000000001
 40
0.0
 40
0.0
 40
0.0
 40
0.0
 40
0.2308392983
 40
0.4895337766
 40
0.747652091
 40
1.0
 40
1.0
 40
1.0
 40
1.0
 10
1660.086144707
 20
1160.4150942192
 30
0.0
 10
1660.0448603148
 20
1160.462909716
 30
0.0
 10
1660.0105322734
 20
1160.6172234244
 30
0.0
 10
1660.1471643914
 20
1160.7874262933
 30
0.0
 10
1660.310630357
 20
1160.9171024661
 30
0.0
 10
1660.4339639333
 20
1160.9851436408
 30
0.0
 10
1660.4961893992
 20
1161.0150942192
 30
0.0
  0
SPLINE
  5
539
100
AcDbEntity
  8
6_ALL_SURFS
100
AcDbSpline
 62
7
  6
CONTINUOUS
 70
0
 71
3
 72
11
 73
7
 74
0
 42
0.0000001
 43
0.0000001
 44
0.0000000001
 40
0.0
 40
0.0
 40
0.0
 40
0.0
 40
0.2523561177
 40
0.5104807293
 40
0.7691708397
 40
1.0
 40
1.0
 40
1.0
 40
1.0
 10
1902.1845669968
 20
1161.0150942192
 30
0.0
 10
1902.2467945366
 20
1160.9851426426
 30
0.0
 10
1902.3701319044
 20
1160.9170998129
 30
0.0
 10
1902.5335995096
 20
1160.7874206369
 30
0.0
 10
1902.6702247243
 20
1160.6172144391
 30
0.0
 10
1902.6358943011
 20
1160.4629076542
 30
0.0
 10
1902.594611689
 20
1160.4150942192
 30
0.0
  0
SPLINE
  5
53A
100
AcDbEntity
  8
6_ALL_SURFS
100
AcDbSpline
 62
7
  6
CONTINUOUS
 70
0
 71
3
 72
11
 73
7
 74
0
 42
0.0000001
 43
0.0000001
 44
0.0000000001
 40
0.0
 40
0.0
 40
0.0
 40
0.0
 40
0.2308392983
 40
0.4895337766
 40
0.747652091
 40
1.0
 40
1.0
 40
1.0
 40
1.0
 10
1410.086144707
 20
1160.4150942192
 30
0.0
 10
1410.0448603148
 20
1160.462909716
 30
0.0
 10
1410.0105322734
 20
1160.6172234244
 30
0.0
 10
1410.1471643914
 20
1160.7874262933
 30
0.0
 10
1410.310630357
 20
1160.9171024661
 30
0.0
 10
1410.4339639333
 20
1160.9851436408
 30
0.0
 10
1410.4961893992
 20
1161.0150942192
 30
0.0
  0
SPLINE
  5
53B
100
AcDbEntity
  8
6_ALL_SURFS
100
AcDbSpline
 62
7
  6
CONTINUOUS
 70
0
 71
3
 72
11
 73
7
 74
0
 42
0.0000001
 43
0.0000001
 44
0.0000000001
 40
0.0
 40
0.0
 40
0.0
 40
0.0
 40
0.2523561177
 40
0.5104807293
 40
0.7691708397
 40
1.0
 40
1.0
 40
1.0
 40
1.0
 10
1652.1845669968
 20
1161.0150942192
 30
0.0
 10
1652.2467945366
 20
1160.9851426426
 30
0.0
 10
1652.3701319044
 20
1160.9170998129
 30
0.0
 10
1652.5335995096
 20
1160.7874206369
 30
0.0
 10
1652.6702247243
 20
1160.6172144391
 30
0.0
 10
1652.6358943011
 20
1160.4629076542
 30
0.0
 10
1652.594611689
 20
1160.4150942192
 30
0.0
  0
SPLINE
  5
53C
100
AcDbEntity
  8
6_ALL_SURFS
100
AcDbSpline
 62
7
  6
CONTINUOUS
 70
0
 71
3
 72
11
 73
7
 74
0
 42
0.0000001
 43
0.0000001
 44
0.0000000001
 40
0.0
 40
0.0
 40
0.0
 40
0.0
 40
0.2308392983
 40
0.4895337766
 40
0.747652091
 40
1.0
 40
1.0
 40
1.0
 40
1.0
 10
1160.086144707
 20
1160.4150942192
 30
0.0
 10
1160.0448603148
 20
1160.462909716
 30
0.0
 10
1160.0105322734
 20
1160.6172234244
 30
0.0
 10
1160.1471643914
 20
1160.7874262933
 30
0.0
 10
1160.310630357
 20
1160.9171024661
 30
0.0
 10
1160.4339639333
 20
1160.9851436408
 30
0.0
 10
1160.4961893992
 20
1161.0150942192
 30
0.0
  0
SPLINE
  5
53D
100
AcDbEntity
  8
6_ALL_SURFS
100
AcDbSpline
 62
7
  6
CONTINUOUS
 70
0
 71
3
 72
11
 73
7
 74
0
 42
0.0000001
 43
0.0000001
 44
0.0000000001
 40
0.0
 40
0.0
 40
0.0
 40
0.0
 40
0.2523561177
 40
0.5104807293
 40
0.7691708397
 40
1.0
 40
1.0
 40
1.0
 40
1.0
 10
1402.1845669968
 20
1161.0150942192
 30
0.0
 10
1402.2467945366
 20
1160.9851426426
 30
0.0
 10
1402.3701319044
 20
1160.9170998129
 30
0.0
 10
1402.5335995096
 20
1160.7874206369
 30
0.0
 10
1402.6702247243
 20
1160.6172144391
 30
0.0
 10
1402.6358943011
 20
1160.4629076542
 30
0.0
 10
1402.594611689
 20
1160.4150942192
 30
0.0
  0
SPLINE
  5
53E
100
AcDbEntity
  8
6_ALL_SURFS
100
AcDbSpline
 62
7
  6
CONTINUOUS
 70
0
 71
3
 72
11
 73
7
 74
0
 42
0.0000001
 43
0.0000001
 44
0.0000000001
 40
0.0
 40
0.0
 40
0.0
 40
0.0
 40
0.2308392983
 40
0.4895337766
 40
0.747652091
 40
1.0
 40
1.0
 40
1.0
 40
1.0
 10
910.086144707
 20
1160.4150942192
 30
0.0
 10
910.0448603148
 20
1160.462909716
 30
0.0
 10
910.0105322734
 20
1160.6172234244
 30
0.0
 10
910.1471643914
 20
1160.7874262933
 30
0.0
 10
910.310630357
 20
1160.9171024661
 30
0.0
 10
910.4339639333
 20
1160.9851436408
 30
0.0
 10
910.4961893992
 20
1161.0150942192
 30
0.0
  0
SPLINE
  5
53F
100
AcDbEntity
  8
6_ALL_SURFS
100
AcDbSpline
 62
7
  6
CONTINUOUS
 70
0
 71
3
 72
11
 73
7
 74
0
 42
0.0000001
 43
0.0000001
 44
0.0000000001
 40
0.0
 40
0.0
 40
0.0
 40
0.0
 40
0.2523561177
 40
0.5104807293
 40
0.7691708397
 40
1.0
 40
1.0
 40
1.0
 40
1.0
 10
1152.1845669968
 20
1161.0150942192
 30
0.0
 10
1152.2467945366
 20
1160.9851426426
 30
0.0
 10
1152.3701319044
 20
1160.9170998129
 30
0.0
 10
1152.5335995096
 20
1160.7874206369
 30
0.0
 10
1152.6702247243
 20
1160.6172144391
 30
0.0
 10
1152.6358943011
 20
1160.4629076542
 30
0.0
 10
1152.594611689
 20
1160.4150942192
 30
0.0
  0
SPLINE
  5
540
100
AcDbEntity
  8
6_ALL_SURFS
100
AcDbSpline
 62
7
  6
CONTINUOUS
 70
0
 71
3
 72
11
 73
7
 74
0
 42
0.0000001
 43
0.0000001
 44
0.0000000001
 40
0.0
 40
0.0
 40
0.0
 40
0.0
 40
0.2523561177
 40
0.5104807293
 40
0.7691708397
 40
1.0
 40
1.0
 40
1.0
 40
1.0
 10
902.1845669968
 20
1161.0150942192
 30
0.0
 10
902.2467945366
 20
1160.9851426426
 30
0.0
 10
902.3701319044
 20
1160.9170998129
 30
0.0
 10
902.5335995096
 20
1160.7874206369
 30
0.0
 10
902.6702247243
 20
1160.6172144391
 30
0.0
 10
902.6358943011
 20
1160.4629076542
 30
0.0
 10
902.594611689
 20
1160.4150942192
 30
0.0
  0
SPLINE
  5
541
100
AcDbEntity
  8
6_ALL_SURFS
100
AcDbSpline
 62
7
  6
CONTINUOUS
 70
0
 71
3
 72
9
 73
5
 74
0
 42
0.0000001
 43
0.0000001
 44
0.0000000001
 40
0.0
 40
0.0
 40
0.0
 40
0.0
 40
0.503393831
 40
1.0
 40
1.0
 40
1.0
 40
1.0
 10
2911.1394163037
 20
1163.4150942192
 30
0.0
 10
2911.0483977229
 20
1163.4851603554
 30
0.0
 10
2910.8825425215
 20
1163.6983065356
 30
0.0
 10
2911.015212961
 20
1163.9419527795
 30
0.0
 10
2911.101761058
 20
1164.0150942192
 30
0.0
  0
SPLINE
  5
542
100
AcDbEntity
  8
6_ALL_SURFS
100
AcDbSpline
 62
7
  6
CONTINUOUS
 70
0
 71
3
 72
9
 73
5
 74
0
 42
0.0000001
 43
0.0000001
 44
0.0000000001
 40
0.0
 40
0.0
 40
0.0
 40
0.0
 40
0.503393831
 40
1.0
 40
1.0
 40
1.0
 40
1.0
 10
2661.1394163037
 20
1163.4150942192
 30
0.0
 10
2661.0483977229
 20
1163.4851603554
 30
0.0
 10
2660.8825425215
 20
1163.6983065356
 30
0.0
 10
2661.015212961
 20
1163.9419527795
 30
0.0
 10
2661.101761058
 20
1164.0150942192
 30
0.0
  0
SPLINE
  5
543
100
AcDbEntity
  8
6_ALL_SURFS
100
AcDbSpline
 62
7
  6
CONTINUOUS
 70
0
 71
3
 72
9
 73
5
 74
0
 42
0.0000001
 43
0.0000001
 44
0.0000000001
 40
0.0
 40
0.0
 40
0.0
 40
0.0
 40
0.4966225864
 40
1.0
 40
1.0
 40
1.0
 40
1.0
 10
2901.578995338
 20
1164.0150942192
 30
0.0
 10
2901.6655463697
 20
1163.9419502995
 30
0.0
 10
2901.7982145409
 20
1163.6982982796
 30
0.0
 10
2901.632355782
 20
1163.4851581298
 30
0.0
 10
2901.5413400923
 20
1163.4150942192
 30
0.0
  0
SPLINE
  5
544
100
AcDbEntity
  8
6_ALL_SURFS
100
AcDbSpline
 62
7
  6
CONTINUOUS
 70
0
 71
3
 72
9
 73
5
 74
0
 42
0.0000001
 43
0.0000001
 44
0.0000000001
 40
0.0
 40
0.0
 40
0.0
 40
0.0
 40
0.503393831
 40
1.0
 40
1.0
 40
1.0
 40
1.0
 10
2411.1394163037
 20
1163.4150942192
 30
0.0
 10
2411.0483977229
 20
1163.4851603554
 30
0.0
 10
2410.8825425215
 20
1163.6983065356
 30
0.0
 10
2411.015212961
 20
1163.9419527795
 30
0.0
 10
2411.101761058
 20
1164.0150942192
 30
0.0
  0
SPLINE
  5
545
100
AcDbEntity
  8
6_ALL_SURFS
100
AcDbSpline
 62
7
  6
CONTINUOUS
 70
0
 71
3
 72
9
 73
5
 74
0
 42
0.0000001
 43
0.0000001
 44
0.0000000001
 40
0.0
 40
0.0
 40
0.0
 40
0.0
 40
0.4966225864
 40
1.0
 40
1.0
 40
1.0
 40
1.0
 10
2651.578995338
 20
1164.0150942192
 30
0.0
 10
2651.6655463697
 20
1163.9419502995
 30
0.0
 10
2651.7982145409
 20
1163.6982982796
 30
0.0
 10
2651.632355782
 20
1163.4851581298
 30
0.0
 10
2651.5413400923
 20
1163.4150942192
 30
0.0
  0
SPLINE
  5
546
100
AcDbEntity
  8
6_ALL_SURFS
100
AcDbSpline
 62
7
  6
CONTINUOUS
 70
0
 71
3
 72
9
 73
5
 74
0
 42
0.0000001
 43
0.0000001
 44
0.0000000001
 40
0.0
 40
0.0
 40
0.0
 40
0.0
 40
0.503393831
 40
1.0
 40
1.0
 40
1.0
 40
1.0
 10
2161.1394163037
 20
1163.4150942192
 30
0.0
 10
2161.0483977229
 20
1163.4851603554
 30
0.0
 10
2160.8825425215
 20
1163.6983065356
 30
0.0
 10
2161.015212961
 20
1163.9419527795
 30
0.0
 10
2161.101761058
 20
1164.0150942192
 30
0.0
  0
ELLIPSE
  5
547
100
AcDbEntity
  8
6_ALL_SURFS
100
AcDbEllipse
 62
7
  6
CONTINUOUS
 10
2656.340378198
 20
780.4177975528
 30
0.0
 11
3.5
 21
-0.0
 31
0.0
 40
0.5
 41
-1.910488903
 42
-1.2311037506
  0
ELLIPSE
  5
548
100
AcDbEntity
  8
6_ALL_SURFS
100
AcDbEllipse
 62
7
  6
CONTINUOUS
 10
2406.340378198
 20
780.4177975528
 30
0.0
 11
3.5
 21
-0.0
 31
0.0
 40
0.5
 41
-1.910488903
 42
-1.2311037506
  0
ELLIPSE
  5
549
100
AcDbEntity
  8
6_ALL_SURFS
100
AcDbEllipse
 62
7
  6
CONTINUOUS
 10
2156.340378198
 20
780.4177975528
 30
0.0
 11
3.5
 21
-0.0
 31
0.0
 40
0.5
 41
-1.910488903
 42
-1.2311037506
  0
ELLIPSE
  5
54A
100
AcDbEntity
  8
6_ALL_SURFS
100
AcDbEllipse
 62
7
  6
CONTINUOUS
 10
1906.340378198
 20
780.4177975528
 30
0.0
 11
3.5
 21
0.0
 31
0.0
 40
0.5
 41
-1.910488903
 42
-1.2311037506
  0
ELLIPSE
  5
54B
100
AcDbEntity
  8
6_ALL_SURFS
100
AcDbEllipse
 62
7
  6
CONTINUOUS
 10
1656.340378198
 20
780.4177975528
 30
0.0
 11
3.5
 21
-0.0
 31
0.0
 40
0.5
 41
-1.910488903
 42
-1.2311037506
  0
ELLIPSE
  5
54C
100
AcDbEntity
  8
6_ALL_SURFS
100
AcDbEllipse
 62
7
  6
CONTINUOUS
 10
1406.340378198
 20
780.4177975528
 30
0.0
 11
3.5
 21
0.0
 31
0.0
 40
0.5
 41
-1.910488903
 42
-1.2311037506
  0
ELLIPSE
  5
54D
100
AcDbEntity
  8
6_ALL_SURFS
100
AcDbEllipse
 62
7
  6
CONTINUOUS
 10
1156.340378198
 20
780.4177975528
 30
0.0
 11
3.5
 21
-0.0
 31
0.0
 40
0.5
 41
-1.910488903
 42
-1.2311037506
  0
ELLIPSE
  5
54E
100
AcDbEntity
  8
6_ALL_SURFS
100
AcDbEllipse
 62
7
  6
CONTINUOUS
 10
906.340378198
 20
780.4177975528
 30
0.0
 11
3.5
 21
-0.0
 31
0.0
 40
0.5
 41
-1.910488903
 42
-1.2311037506
  0
ELLIPSE
  5
54F
100
AcDbEntity
  8
6_ALL_SURFS
100
AcDbEllipse
 62
7
  6
CONTINUOUS
 10
2906.340378198
 20
780.4177975528
 30
0.0
 11
3.5
 21
-0.0
 31
0.0
 40
0.5
 41
-1.910488903
 42
-1.2311037506
  0
ELLIPSE
  5
550
100
AcDbEntity
  8
6_ALL_SURFS
100
AcDbEllipse
 62
7
  6
CONTINUOUS
 10
906.340378198
 20
777.1712802557
 30
0.0
 11
5.4882058378
 21
-0.0
 31
0.0
 40
0.1015346165
 41
0.9294607698
 42
2.2121318838
  0
ELLIPSE
  5
551
100
AcDbEntity
  8
6_ALL_SURFS
100
AcDbEllipse
 62
7
  6
CONTINUOUS
 10
1156.340378198
 20
777.1712802557
 30
0.0
 11
5.4882058378
 21
0.0
 31
0.0
 40
0.1015346165
 41
0.9294607698
 42
2.2121318838
  0
ELLIPSE
  5
552
100
AcDbEntity
  8
6_ALL_SURFS
100
AcDbEllipse
 62
7
  6
CONTINUOUS
 10
1406.340378198
 20
777.1712802557
 30
0.0
 11
5.4882058378
 21
0.0
 31
0.0
 40
0.1015346165
 41
0.9294607698
 42
2.2121318838
  0
ELLIPSE
  5
553
100
AcDbEntity
  8
6_ALL_SURFS
100
AcDbEllipse
 62
7
  6
CONTINUOUS
 10
1656.340378198
 20
777.1712802557
 30
0.0
 11
5.4882058378
 21
0.0
 31
0.0
 40
0.1015346165
 41
0.9294607698
 42
2.2121318838
  0
ELLIPSE
  5
554
100
AcDbEntity
  8
6_ALL_SURFS
100
AcDbEllipse
 62
7
  6
CONTINUOUS
 10
1906.340378198
 20
777.1712802557
 30
0.0
 11
5.4882058378
 21
0.0
 31
0.0
 40
0.1015346165
 41
0.9294607698
 42
2.2121318838
  0
ELLIPSE
  5
555
100
AcDbEntity
  8
6_ALL_SURFS
100
AcDbEllipse
 62
7
  6
CONTINUOUS
 10
2156.340378198
 20
777.1712802557
 30
0.0
 11
5.4882058378
 21
0.0
 31
0.0
 40
0.1015346165
 41
0.9294607698
 42
2.2121318838
  0
ELLIPSE
  5
556
100
AcDbEntity
  8
6_ALL_SURFS
100
AcDbEllipse
 62
7
  6
CONTINUOUS
 10
2406.340378198
 20
777.1712802557
 30
0.0
 11
5.4882058378
 21
-0.0
 31
0.0
 40
0.1015346165
 41
0.9294607698
 42
2.2121318838
  0
ELLIPSE
  5
557
100
AcDbEntity
  8
6_ALL_SURFS
100
AcDbEllipse
 62
7
  6
CONTINUOUS
 10
2656.340378198
 20
777.1712802557
 30
0.0
 11
5.4882058378
 21
0.0
 31
0.0
 40
0.1015346165
 41
0.9294607698
 42
2.2121318838
  0
ELLIPSE
  5
558
100
AcDbEntity
  8
6_ALL_SURFS
100
AcDbEllipse
 62
7
  6
CONTINUOUS
 10
2906.340378198
 20
777.1712802557
 30
0.0
 11
5.4882058378
 21
-0.0
 31
0.0
 40
0.1015346165
 41
7.212646077
 42
8.495317191
  0
ELLIPSE
  5
559
100
AcDbEntity
  8
6_ALL_SURFS
100
AcDbEllipse
 62
7
  6
CONTINUOUS
 10
1656.340378198
 20
1162.4499212474
 30
0.0
 11
-0.0
 21
5.5724287509
 31
0.0
 40
0.9848857802
 41
-0.641335557
 42
0.641335557
  0
ELLIPSE
  5
55A
100
AcDbEntity
  8
6_ALL_SURFS
100
AcDbEllipse
 62
7
  6
CONTINUOUS
 10
1906.340378198
 20
1162.4499212474
 30
0.0
 11
0.0
 21
5.5724287509
 31
0.0
 40
0.9848857802
 41
-0.641335557
 42
0.641335557
  0
ELLIPSE
  5
55B
100
AcDbEntity
  8
6_ALL_SURFS
100
AcDbEllipse
 62
7
  6
CONTINUOUS
 10
2156.340378198
 20
1162.4499212474
 30
0.0
 11
0.0
 21
5.5724287509
 31
0.0
 40
0.9848857802
 41
-0.641335557
 42
0.641335557
  0
ELLIPSE
  5
55C
100
AcDbEntity
  8
6_ALL_SURFS
100
AcDbEllipse
 62
7
  6
CONTINUOUS
 10
2406.340378198
 20
1162.4499212474
 30
0.0
 11
0.0
 21
5.5724287509
 31
0.0
 40
0.9848857802
 41
-0.641335557
 42
0.641335557
  0
ELLIPSE
  5
55D
100
AcDbEntity
  8
6_ALL_SURFS
100
AcDbEllipse
 62
7
  6
CONTINUOUS
 10
2656.340378198
 20
1162.4499212474
 30
0.0
 11
-0.0
 21
5.5724287509
 31
0.0
 40
0.9848857802
 41
-0.641335557
 42
0.641335557
  0
ELLIPSE
  5
55E
100
AcDbEntity
  8
7_ALL_FEATURES
100
AcDbEllipse
 62
7
  6
CONTINUOUS
 10
2906.340378198
 20
1094.280267191
 30
0.0
 11
-0.0
 21
5.5724287509
 31
0.0
 40
0.9848857802
 41
2.5002570966
 42
3.7829282106
  0
ELLIPSE
  5
55F
100
AcDbEntity
  8
7_ALL_FEATURES
100
AcDbEllipse
 62
7
  6
CONTINUOUS
 10
906.340378198
 20
1094.280267191
 30
0.0
 11
0.0
 21
5.5724287509
 31
0.0
 40
0.9848857802
 41
2.5002570966
 42
3.7829282106
  0
ELLIPSE
  5
560
100
AcDbEntity
  8
7_ALL_FEATURES
100
AcDbEllipse
 62
7
  6
CONTINUOUS
 10
1156.340378198
 20
1094.280267191
 30
0.0
 11
-0.0
 21
5.5724287509
 31
0.0
 40
0.9848857802
 41
2.5002570966
 42
3.7829282106
  0
ELLIPSE
  5
561
100
AcDbEntity
  8
7_ALL_FEATURES
100
AcDbEllipse
 62
7
  6
CONTINUOUS
 10
1406.340378198
 20
1094.280267191
 30
0.0
 11
0.0
 21
5.5724287509
 31
0.0
 40
0.9848857802
 41
2.5002570966
 42
3.7829282106
  0
ELLIPSE
  5
562
100
AcDbEntity
  8
7_ALL_FEATURES
100
AcDbEllipse
 62
7
  6
CONTINUOUS
 10
1656.340378198
 20
1094.280267191
 30
0.0
 11
0.0
 21
5.5724287509
 31
0.0
 40
0.9848857802
 41
2.5002570966
 42
3.7829282106
  0
ELLIPSE
  5
563
100
AcDbEntity
  8
7_ALL_FEATURES
100
AcDbEllipse
 62
7
  6
CONTINUOUS
 10
1906.340378198
 20
1094.280267191
 30
0.0
 11
-0.0
 21
5.5724287509
 31
0.0
 40
0.9848857802
 41
2.5002570966
 42
3.7829282106
  0
ELLIPSE
  5
564
100
AcDbEntity
  8
7_ALL_FEATURES
100
AcDbEllipse
 62
7
  6
CONTINUOUS
 10
2156.340378198
 20
1094.280267191
 30
0.0
 11
-0.0
 21
5.5724287509
 31
0.0
 40
0.9848857802
 41
2.5002570966
 42
3.7829282106
  0
ELLIPSE
  5
565
100
AcDbEntity
  8
7_ALL_FEATURES
100
AcDbEllipse
 62
7
  6
CONTINUOUS
 10
2406.340378198
 20
1094.280267191
 30
0.0
 11
-0.0
 21
5.5724287509
 31
0.0
 40
0.9848857802
 41
2.5002570966
 42
3.7829282106
  0
ELLIPSE
  5
566
100
AcDbEntity
  8
7_ALL_FEATURES
100
AcDbEllipse
 62
7
  6
CONTINUOUS
 10
2656.340378198
 20
1094.280267191
 30
0.0
 11
-0.0
 21
5.5724287509
 31
0.0
 40
0.9848857802
 41
2.5002570966
 42
3.7829282106
  0
ELLIPSE
  5
567
100
AcDbEntity
  8
6_ALL_SURFS
100
AcDbEllipse
 62
7
  6
CONTINUOUS
 10
2906.340378198
 20
1162.4499212474
 30
0.0
 11
-0.0
 21
5.5724287509
 31
0.0
 40
0.9848857802
 41
-0.641335557
 42
0.641335557
  0
ELLIPSE
  5
568
100
AcDbEntity
  8
6_ALL_SURFS
100
AcDbEllipse
 62
7
  6
CONTINUOUS
 10
906.340378198
 20
1162.4499212474
 30
0.0
 11
-0.0
 21
5.5724287509
 31
0.0
 40
0.9848857802
 41
-0.641335557
 42
0.641335557
  0
ELLIPSE
  5
569
100
AcDbEntity
  8
6_ALL_SURFS
100
AcDbEllipse
 62
7
  6
CONTINUOUS
 10
1156.340378198
 20
1162.4499212474
 30
0.0
 11
0.0
 21
5.5724287509
 31
0.0
 40
0.9848857802
 41
-0.641335557
 42
0.641335557
  0
ELLIPSE
  5
56A
100
AcDbEntity
  8
6_ALL_SURFS
100
AcDbEllipse
 62
7
  6
CONTINUOUS
 10
1406.340378198
 20
1162.4499212474
 30
0.0
 11
-0.0
 21
5.5724287509
 31
0.0
 40
0.9848857802
 41
-0.641335557
 42
0.641335557
  0
ENDSEC
  0
SECTION
  2
OBJECTS
  0
DICTIONARY
  5
56B
100
AcDbDictionary
  3
ACAD_GROUP
350
56C
  3
ACAD_MLINESTYLE
350
56D
  0
DICTIONARY
  5
56C
102
{ACAD_REACTORS
330
56B
102
}
100
AcDbDictionary
  0
DICTIONARY
  5
56D
102
{ACAD_REACTORS
330
56B
102
}
100
AcDbDictionary
  3
STANDARD
350
56E
  0
MLINESTYLE
  5
56E
102
{ACAD_REACTORS
330
56D
102
}
100
AcDbMlineStyle
  2
STANDARD
 70
0
  3

 62
256
 51
90.0
 52
90.0
 71
2
 49
0.5
 62
256
  6
BYLAYER
 49
-0.5
 62
256
  6
BYLAYER
  0
ENDSEC
  0
EOF
