999
DXF file: 6f3_c_044.dxf
999
Pro/ENGINEER 2016360 by Parametric Technology Corporation
  0
SECTION
  2
HEADER
  9
$ACADVER
  1
AC1014
  9
$DWGCODEPAGE
  3
ANSI_1252
  9
$EXTMAX
 10
3200.0
 20
2500.0
 30
0.0
  9
$EXTMIN
 10
0.0
 20
0.0
 30
0.0
  9
$LIMMIN
 10
0.0
 20
0.0
  9
$LIMMAX
 10
3200.0
 20
2500.0
  9
$VIEWCTR
 10
1600.0
 20
1250.0
  9
$VIEWSIZE
 40
2500.0
  9
$CLAYER
  8
0
  9
$LTSCALE
 40
176.0
  9
$CELTYPE
  6
BYLAYER
  9
$DIMSCALE
 40
1.0
  9
$DIMASZ
 40
2.5
  9
$DIMEXO
 40
0.75
  9
$DIMDLI
 40
121.6
  9
$DIMEXE
 40
0.75
  9
$DIMCEN
 40
28.8
  9
$DIMLFAC
 40
1.0
  9
$DIMBLK
  1
_CLOSED
  9
$DIMALT
 70
0
  9
$DIMALTF
 40
25.4
  9
$DIMTXT
 40
3.0
  9
$DIMTOL
 70
1
  9
$DIMLIM
 70
0
  9
$DIMTFAC
 40
1.0
  9
$DIMTP
 40
0.01
  9
$DIMTM
 40
0.01
  9
$DIMGAP
 40
0.625
  9
$AUNITS
 70
0
  9
$PDMODE
 70
3
  9
$PDSIZE
 40
0.3125
  9
$HANDSEED
  5
56C
  9
$TILEMODE
 70
1
  9
$MEASUREMENT
 70
1
  0
ENDSEC
  0
SECTION
  2
CLASSES
  0
ENDSEC
  0
SECTION
  2
TABLES
  0
TABLE
  2
VPORT
  5
8
100
AcDbSymbolTable
 70
2
  0
VPORT
  5
1F4
100
AcDbSymbolTableRecord
100
AcDbViewportTableRecord
  2
*ACTIVE
 70
0
 10
0.0
 20
0.0
 11
1.0
 21
1.0
 12
1600.0
 22
1250.0
 13
0.0
 23
0.0
 14
1.0
 24
1.0
 15
0.0
 25
0.0
 16
0.0
 26
0.0
 36
1.0
 17
0.0
 27
0.0
 37
0.0
 40
2500.0
 41
1.28
 42
50.0
 43
0.0
 44
0.0
 50
0.0
 51
0.0
 71
0
 72
100
 73
1
 74
1
 75
0
 76
0
 77
0
 78
0
  0
ENDTAB
  0
TABLE
  2
LTYPE
  5
5
100
AcDbSymbolTable
 70
6
  0
LTYPE
  5
14
100
AcDbSymbolTableRecord
100
AcDbLinetypeTableRecord
  2
BYBLOCK
 70
0
  3

 72
65
 73
0
 40
0.0
  0
LTYPE
  5
15
100
AcDbSymbolTableRecord
100
AcDbLinetypeTableRecord
  2
BYLAYER
 70
0
  3

 72
65
 73
0
 40
0.0
  0
LTYPE
  5
16
100
AcDbSymbolTableRecord
100
AcDbLinetypeTableRecord
  2
CONTINUOUS
 70
64
  3
Solid line
 72
65
 73
0
 40
0.0
  0
LTYPE
  5
1F5
100
AcDbSymbolTableRecord
100
AcDbLinetypeTableRecord
  2
CENTER
 70
64
  3
____ _ ____ _ ____ _ ____ _ ____ _ ____ _ ____
 72
65
 73
4
 40
0.6
 49
0.375
 74
0
 49
-0.075
 74
0
 49
0.075
 74
0
 49
-0.075
 74
0
  0
LTYPE
  5
1F6
100
AcDbSymbolTableRecord
100
AcDbLinetypeTableRecord
  2
HIDDEN
 70
64
  3
- - - - - - - - - - - - - - - - - - - -
 72
65
 73
2
 40
0.2
 49
0.1
 74
0
 49
-0.1
 74
0
  0
LTYPE
  5
1F7
100
AcDbSymbolTableRecord
100
AcDbLinetypeTableRecord
  2
PHANTOM
 70
64
  3
_____ _ _ _____ _ _ _____ _ _ _____
 72
65
 73
6
 40
0.8
 49
0.45
 74
0
 49
-0.05
 74
0
 49
0.1
 74
0
 49
-0.05
 74
0
 49
0.1
 74
0
 49
-0.05
 74
0
  0
LTYPE
  5
1F8
100
AcDbSymbolTableRecord
100
AcDbLinetypeTableRecord
  2
DOT
 70
64
  3
. . . . . . . . . . . . . . . . . . . .
 72
65
 73
2
 40
0.2
 49
0.1
 74
0
 49
-0.1
 74
0
  0
LTYPE
  5
1F9
100
AcDbSymbolTableRecord
100
AcDbLinetypeTableRecord
  2
DASHED
 70
64
  3
- - - - - - - - - - - - - - - - - - - -
 72
65
 73
2
 40
0.2
 49
0.1
 74
0
 49
-0.1
 74
0
  0
ENDTAB
  0
TABLE
  2
LAYER
  5
2
100
AcDbSymbolTable
 70
36
  0
LAYER
  5
10
100
AcDbSymbolTableRecord
100
AcDbLayerTableRecord
  2
0
 70
0
 62
7
  6
CONTINUOUS
  0
LAYER
  5
1FA
100
AcDbSymbolTableRecord
100
AcDbLayerTableRecord
  2
DEFAULT_1
 70
0
 62
7
  6
CENTER
  0
LAYER
  5
1FB
100
AcDbSymbolTableRecord
100
AcDbLayerTableRecord
  2
DEFAULT_2
 70
0
 62
8
  6
HIDDEN
  0
LAYER
  5
1FC
100
AcDbSymbolTableRecord
100
AcDbLayerTableRecord
  2
DEFAULT_3
 70
0
 62
7
  6
PHANTOM
  0
LAYER
  5
1FD
100
AcDbSymbolTableRecord
100
AcDbLayerTableRecord
  2
1_ALL_PLANES
 70
0
 62
7
  6
CONTINUOUS
  0
LAYER
  5
1FE
100
AcDbSymbolTableRecord
100
AcDbLayerTableRecord
  2
2_ALL_CSYS
 70
0
 62
7
  6
CONTINUOUS
  0
LAYER
  5
1FF
100
AcDbSymbolTableRecord
100
AcDbLayerTableRecord
  2
3_ALL_AXES
 70
0
 62
7
  6
CONTINUOUS
  0
LAYER
  5
200
100
AcDbSymbolTableRecord
100
AcDbLayerTableRecord
  2
4_ALL_POINTS
 70
0
 62
7
  6
CONTINUOUS
  0
LAYER
  5
201
100
AcDbSymbolTableRecord
100
AcDbLayerTableRecord
  2
5_ALL_CURVES
 70
0
 62
7
  6
CONTINUOUS
  0
LAYER
  5
202
100
AcDbSymbolTableRecord
100
AcDbLayerTableRecord
  2
5__COSTRUZIONE
 70
0
 62
7
  6
CONTINUOUS
  0
LAYER
  5
203
100
AcDbSymbolTableRecord
100
AcDbLayerTableRecord
  2
6_ALL_SURFS
 70
0
 62
7
  6
CONTINUOUS
  0
LAYER
  5
204
100
AcDbSymbolTableRecord
100
AcDbLayerTableRecord
  2
7_ALL_FEATURES
 70
0
 62
7
  6
CONTINUOUS
  0
LAYER
  5
205
100
AcDbSymbolTableRecord
100
AcDbLayerTableRecord
  2
9_SOLID
 70
0
 62
7
  6
CONTINUOUS
  0
LAYER
  5
206
100
AcDbSymbolTableRecord
100
AcDbLayerTableRecord
  2
PR9034
 70
0
 62
7
  6
CONTINUOUS
  0
LAYER
  5
207
100
AcDbSymbolTableRecord
100
AcDbLayerTableRecord
  2
WHITE
 70
0
 62
7
  6
CONTINUOUS
  0
LAYER
  5
208
100
AcDbSymbolTableRecord
100
AcDbLayerTableRecord
  2
XXX_SOLIDO
 70
0
 62
7
  6
CONTINUOUS
  0
ENDTAB
  0
TABLE
  2
STYLE
  5
3
100
AcDbSymbolTable
 70
1
  0
STYLE
  5
11
100
AcDbSymbolTableRecord
100
AcDbTextStyleTableRecord
  2
STANDARD
 70
0
 40
0.0
 41
1.0
 50
0.0
 71
0
 42
0.2
  3
arial.ttf
  4

  0
STYLE
  5
209
100
AcDbSymbolTableRecord
100
AcDbTextStyleTableRecord
  2
TEXTSTYLE_1
 70
0
 40
0.0
 41
0.8
 50
0.0
 71
0
 42
0.2
  3
gdt
  4

  0
STYLE
  5
20A
100
AcDbSymbolTableRecord
100
AcDbTextStyleTableRecord
  2
TEXTSTYLE_2
 70
0
 40
0.0
 41
0.85
 50
0.0
 71
0
 42
0.2
  3
txt
  4

  0
ENDTAB
  0
TABLE
  2
VIEW
  5
6
100
AcDbSymbolTable
 70
0
  0
ENDTAB
  0
TABLE
  2
UCS
  5
7
100
AcDbSymbolTable
 70
0
  0
ENDTAB
  0
TABLE
  2
APPID
  5
9
100
AcDbSymbolTable
 70
1
  0
APPID
  5
20B
100
AcDbSymbolTableRecord
100
AcDbRegAppTableRecord
  2
ACAD
 70
0
  0
ENDTAB
  0
TABLE
  2
BLOCK_RECORD
  5
1
100
AcDbSymbolTable
 70
0
  0
BLOCK_RECORD
  5
1F
100
AcDbSymbolTableRecord
100
AcDbBlockTableRecord
  2
*MODEL_SPACE
  0
BLOCK_RECORD
  5
1B
100
AcDbSymbolTableRecord
100
AcDbBlockTableRecord
  2
*PAPER_SPACE
  0
BLOCK_RECORD
  5
20C
100
AcDbSymbolTableRecord
100
AcDbBlockTableRecord
  2
_CLOSED
  0
BLOCK_RECORD
  5
20D
100
AcDbSymbolTableRecord
100
AcDbBlockTableRecord
  2
*D0
  0
BLOCK_RECORD
  5
20E
100
AcDbSymbolTableRecord
100
AcDbBlockTableRecord
  2
*D1
  0
BLOCK_RECORD
  5
20F
100
AcDbSymbolTableRecord
100
AcDbBlockTableRecord
  2
*D2
  0
BLOCK_RECORD
  5
210
100
AcDbSymbolTableRecord
100
AcDbBlockTableRecord
  2
*D3
  0
BLOCK_RECORD
  5
211
100
AcDbSymbolTableRecord
100
AcDbBlockTableRecord
  2
LOGO2_BL0
  0
ENDTAB
  0
TABLE
  2
DIMSTYLE
  5
A
100
AcDbSymbolTable
 70
1
  0
DIMSTYLE
105
212
100
AcDbSymbolTableRecord
100
AcDbDimStyleTableRecord
  2
STANDARD
 70
0
  3

  4

  5
_CLOSED
  6
_CLOSED
  7
_CLOSED
 40
1.0
 41
2.5
 42
0.75
 43
0.38
 44
0.75
 45
0.0
 46
0.0
 47
0.01
 48
0.01
140
3.0
141
0.09
142
0.0
143
25.4
144
1.0
145
0.0
146
1.0
147
0.625
 71
1.0
 72
0.0
 73
0
 74
0
 75
0
 76
0
 77
1
 78
8
 79
2
170
0
171
1
172
0
173
0
174
0
175
0
176
0
177
0
178
0
270
2
179
2
271
2
272
2
273
2
274
2
275
0
280
0
281
0
282
0
283
1
284
8
285
0
286
0
287
3
288
0
340
11
  0
DIMSTYLE
105
213
100
AcDbSymbolTableRecord
100
AcDbDimStyleTableRecord
  2
DIMSTYLE_1
 70
0
  3

  4

  5
_CLOSED
  6
_CLOSED
  7
_CLOSED
 40
1.0
 41
2.5
 42
0.75
 43
0.38
 44
0.75
 45
0.0
 46
0.0
 47
0.3
 48
0.3
140
7.0
141
0.09
142
0.0
143
25.4
144
1.0
145
0.0
146
1.0
147
1.75
 71
0.0
 72
0.0
 73
0
 74
0
 75
0
 76
0
 77
1
 78
8
 79
2
170
0
171
1
172
0
173
0
174
0
175
0
176
0
177
0
178
0
270
2
179
2
271
2
272
2
273
2
274
2
275
0
280
0
281
0
282
0
283
1
284
8
285
0
286
0
287
3
288
0
340
11
  0
DIMSTYLE
105
214
100
AcDbSymbolTableRecord
100
AcDbDimStyleTableRecord
  2
DIMSTYLE_2
 70
0
  3

  4

  5
_CLOSED
  6
_CLOSED
  7
_CLOSED
 40
1.0
 41
2.5
 42
0.75
 43
0.38
 44
0.75
 45
0.0
 46
0.0
 47
2.0
 48
2.0
140
7.0
141
0.09
142
0.0
143
25.4
144
1.0
145
0.0
146
1.0
147
1.75
 71
0.0
 72
0.0
 73
0
 74
0
 75
0
 76
0
 77
1
 78
8
 79
2
170
0
171
1
172
0
173
0
174
0
175
0
176
0
177
0
178
0
270
2
179
2
271
2
272
2
273
2
274
2
275
0
280
0
281
0
282
0
283
1
284
8
285
0
286
0
287
3
288
0
340
11
  0
ENDTAB
  0
ENDSEC
  0
SECTION
  2
BLOCKS
  0
BLOCK
  5
20
100
AcDbEntity
  8
0
100
AcDbBlockBegin
  2
*MODEL_SPACE
 70
0
 10
0.0
 20
0.0
 30
0.0
  3
*MODEL_SPACE
  1

  0
ENDBLK
  5
21
100
AcDbEntity
  8
0
100
AcDbBlockEnd
  0
BLOCK
  5
1C
100
AcDbEntity
  8
0
100
AcDbBlockBegin
  2
*PAPER_SPACE
 70
0
 10
0.0
 20
0.0
 30
0.0
  3
*PAPER_SPACE
  1

  0
ENDBLK
  5
1D
100
AcDbEntity
  8
0
100
AcDbBlockEnd
  0
BLOCK
  5
215
100
AcDbEntity
  8
0
100
AcDbBlockBegin
 62
2
  6
CONTINUOUS
  2
LOGO2_BL0
 70
64
 10
3088.5295479711
 20
43.3251082352
  3
LOGO2_BL0
  1

  0
LINE
  5
216
100
AcDbEntity
  8
0
100
AcDbLine
 62
7
  6
CONTINUOUS
 10
3080.2724731993
 20
46.5205995741
 11
3078.9681322699
 21
46.5205995741
  0
LINE
  5
217
100
AcDbEntity
  8
0
100
AcDbLine
 62
7
  6
CONTINUOUS
 10
3078.9681322699
 20
46.5205995741
 11
3078.9681322699
 21
36.0615335142
  0
LINE
  5
218
100
AcDbEntity
  8
0
100
AcDbLine
 62
7
  6
CONTINUOUS
 10
3078.9681322699
 20
36.0615335142
 11
3083.4491871582
 21
36.0615335142
  0
LINE
  5
219
100
AcDbEntity
  8
0
100
AcDbLine
 62
7
  6
CONTINUOUS
 10
3083.4491871582
 20
36.0615335142
 11
3083.4491871582
 21
37.2543878393
  0
LINE
  5
21A
100
AcDbEntity
  8
0
100
AcDbLine
 62
7
  6
CONTINUOUS
 10
3083.4491871582
 20
37.2543878393
 11
3080.2724731993
 21
37.2543878393
  0
LINE
  5
21B
100
AcDbEntity
  8
0
100
AcDbLine
 62
7
  6
CONTINUOUS
 10
3080.2724731993
 20
37.2543878393
 11
3080.2724731993
 21
46.5205995741
  0
LINE
  5
21C
100
AcDbEntity
  8
0
100
AcDbLine
 62
7
  6
CONTINUOUS
 10
3095.2087994156
 20
46.5205995741
 11
3093.9049818975
 21
46.5205995741
  0
LINE
  5
21D
100
AcDbEntity
  8
0
100
AcDbLine
 62
7
  6
CONTINUOUS
 10
3093.9049818975
 20
46.5205995741
 11
3093.9049818975
 21
36.0615335142
  0
LINE
  5
21E
100
AcDbEntity
  8
0
100
AcDbLine
 62
7
  6
CONTINUOUS
 10
3093.9049818975
 20
36.0615335142
 11
3098.3861676386
 21
36.0615335142
  0
LINE
  5
21F
100
AcDbEntity
  8
0
100
AcDbLine
 62
7
  6
CONTINUOUS
 10
3098.3861676386
 20
36.0615335142
 11
3098.3861676386
 21
37.2543878393
  0
LINE
  5
220
100
AcDbEntity
  8
0
100
AcDbLine
 62
7
  6
CONTINUOUS
 10
3098.3861676386
 20
37.2543878393
 11
3095.2087994156
 21
37.2543878393
  0
LINE
  5
221
100
AcDbEntity
  8
0
100
AcDbLine
 62
7
  6
CONTINUOUS
 10
3095.2087994156
 20
37.2543878393
 11
3095.2087994156
 21
46.5205995741
  0
LWPOLYLINE
  5
222
100
AcDbEntity
  8
0
100
AcDbPolyline
 62
7
  6
CONTINUOUS
 90
2
 70
0
 43
0.2
 10
3077.3225271809
 20
32.7179822073
 10
3077.3225271809
 20
30.8609189579
  0
LWPOLYLINE
  5
223
100
AcDbEntity
  8
0
100
AcDbPolyline
 62
7
  6
CONTINUOUS
 90
2
 70
0
 43
0.2
 10
3077.3225271809
 20
30.8609189579
 10
3078.1182431912
 20
30.8609189579
  0
LWPOLYLINE
  5
224
100
AcDbEntity
  8
0
100
AcDbPolyline
 62
7
  6
CONTINUOUS
 90
2
 70
0
 43
0.2
 10
3078.1182431912
 20
30.8609189579
 10
3078.1182431912
 20
31.0729005295
  0
LWPOLYLINE
  5
225
100
AcDbEntity
  8
0
100
AcDbPolyline
 62
7
  6
CONTINUOUS
 90
2
 70
0
 43
0.2
 10
3078.1182431912
 20
31.0729005295
 10
3077.5541366757
 20
31.0729005295
  0
LWPOLYLINE
  5
226
100
AcDbEntity
  8
0
100
AcDbPolyline
 62
7
  6
CONTINUOUS
 90
2
 70
0
 43
0.2
 10
3077.5541366757
 20
31.0729005295
 10
3077.5541366757
 20
32.7179822073
  0
LWPOLYLINE
  5
227
100
AcDbEntity
  8
0
100
AcDbPolyline
 62
7
  6
CONTINUOUS
 90
2
 70
0
 43
0.2
 10
3077.5541366757
 20
32.7179822073
 10
3077.3225271809
 20
32.7179822073
  0
SPLINE
  5
228
100
AcDbEntity
  8
0
100
AcDbSpline
 62
7
  6
CONTINUOUS
 70
2
 71
3
 72
35
 73
31
 74
0
 42
0.0000001
 43
0.0000001
 44
0.0000000001
 40
0.0
 40
0.0
 40
0.0
 40
0.0
 40
1.0
 40
1.0
 40
1.0
 40
2.0
 40
2.0
 40
2.0
 40
3.0
 40
3.0
 40
3.0
 40
4.0
 40
4.0
 40
4.0
 40
5.0
 40
5.0
 40
5.0
 40
6.0
 40
6.0
 40
6.0
 40
7.0
 40
7.0
 40
7.0
 40
8.0
 40
8.0
 40
8.0
 40
9.0
 40
9.0
 40
9.0
 40
10.0
 40
10.0
 40
10.0
 40
10.0
 10
3079.5165364468
 20
32.0134706138
 30
0.0
 10
3079.5165364468
 20
32.0134706138
 30
0.0
 10
3079.5165364468
 20
31.3513553347
 30
0.0
 10
3079.5165364468
 20
31.3513553347
 30
0.0
 10
3079.5165364468
 20
31.0362617394
 30
0.0
 10
3079.6644001356
 20
30.8216631113
 30
0.0
 10
3080.0044866199
 20
30.8216631113
 30
0.0
 10
3080.3440496929
 20
30.8216631113
 30
0.0
 10
3080.4921750874
 20
31.0362617394
 30
0.0
 10
3080.4921750874
 20
31.3513553347
 30
0.0
 10
3080.4921750874
 20
31.3513553347
 30
0.0
 10
3080.4921750874
 20
32.0134706138
 30
0.0
 10
3080.4921750874
 20
32.0134706138
 30
0.0
 10
3080.4921750874
 20
32.0134706138
 30
0.0
 10
3080.2701178485
 20
32.0134706138
 30
0.0
 10
3080.2701178485
 20
32.0134706138
 30
0.0
 10
3080.2701178485
 20
32.0134706138
 30
0.0
 10
3080.2701178485
 20
31.3764790765
 30
0.0
 10
3080.2701178485
 20
31.3764790765
 30
0.0
 10
3080.2701178485
 20
31.1906680693
 30
0.0
 10
3080.2234033911
 20
31.0278871588
 30
0.0
 10
3080.0044866199
 20
31.0278871588
 30
0.0
 10
3079.7850464375
 20
31.0278871588
 30
0.0
 10
3079.73833198
 20
31.1906680693
 30
0.0
 10
3079.73833198
 20
31.3764790765
 30
0.0
 10
3079.73833198
 20
31.3764790765
 30
0.0
 10
3079.73833198
 20
32.0134706138
 30
0.0
 10
3079.73833198
 20
32.0134706138
 30
0.0
 10
3079.73833198
 20
32.0134706138
 30
0.0
 10
3079.5165364468
 20
32.0134706138
 30
0.0
 10
3079.5165364468
 20
32.0134706138
 30
0.0
  0
SPLINE
  5
229
100
AcDbEntity
  8
0
100
AcDbSpline
 62
7
  6
CONTINUOUS
 70
2
 71
3
 72
35
 73
31
 74
0
 42
0.0000001
 43
0.0000001
 44
0.0000000001
 40
0.0
 40
0.0
 40
0.0
 40
0.0
 40
1.0
 40
1.0
 40
1.0
 40
2.0
 40
2.0
 40
2.0
 40
3.0
 40
3.0
 40
3.0
 40
4.0
 40
4.0
 40
4.0
 40
5.0
 40
5.0
 40
5.0
 40
6.0
 40
6.0
 40
6.0
 40
7.0
 40
7.0
 40
7.0
 40
8.0
 40
8.0
 40
8.0
 40
9.0
 40
9.0
 40
9.0
 40
10.0
 40
10.0
 40
10.0
 40
10.0
 10
3082.9153076446
 20
31.9721211221
 30
0.0
 10
3082.8268511369
 20
32.0234154283
 30
0.0
 10
3082.7134017403
 20
32.0485391701
 30
0.0
 10
3082.6097663053
 20
32.0485391701
 30
0.0
 10
3082.2548934521
 20
32.0485391701
 30
0.0
 10
3081.9794482619
 20
31.784739881
 30
0.0
 10
3081.9794482619
 20
31.4272499714
 30
0.0
 10
3081.9794482619
 20
31.0823219327
 30
0.0
 10
3082.257903067
 20
30.8221865226
 30
0.0
 10
3082.59746614
 20
30.8221865226
 30
0.0
 10
3082.7134017403
 20
30.8221865226
 30
0.0
 10
3082.8141584132
 20
30.8441697967
 30
0.0
 10
3082.9153076446
 20
30.8980811594
 30
0.0
 10
3082.9153076446
 20
30.8980811594
 30
0.0
 10
3082.9153076446
 20
31.1807232548
 30
0.0
 10
3082.9153076446
 20
31.1807232548
 30
0.0
 10
3082.8314309857
 20
31.0875560456
 30
0.0
 10
3082.7279264035
 20
31.02841057
 30
0.0
 10
3082.5998214908
 20
31.02841057
 30
0.0
 10
3082.3661183508
 20
31.02841057
 30
0.0
 10
3082.2008512366
 20
31.2006128837
 30
0.0
 10
3082.2008512366
 20
31.4371947859
 30
0.0
 10
3082.2008512366
 20
31.6491763575
 30
0.0
 10
3082.3686045544
 20
31.8412683001
 30
0.0
 10
3082.5854276804
 20
31.8412683001
 30
0.0
 10
3082.7182432947
 20
31.8412683001
 30
0.0
 10
3082.8268511369
 20
31.7873569375
 30
0.0
 10
3082.9153076446
 20
31.6863385589
 30
0.0
 10
3082.9153076446
 20
31.6863385589
 30
0.0
 10
3082.9153076446
 20
31.9721211221
 30
0.0
 10
3082.9153076446
 20
31.9721211221
 30
0.0
  0
SPLINE
  5
22A
100
AcDbEntity
  8
0
100
AcDbSpline
 62
7
  6
CONTINUOUS
 70
2
 71
3
 72
32
 73
28
 74
0
 42
0.0000001
 43
0.0000001
 44
0.0000000001
 40
0.0
 40
0.0
 40
0.0
 40
0.0
 40
1.0
 40
1.0
 40
1.0
 40
2.0
 40
2.0
 40
2.0
 40
3.0
 40
3.0
 40
3.0
 40
4.0
 40
4.0
 40
4.0
 40
5.0
 40
5.0
 40
5.0
 40
6.0
 40
6.0
 40
6.0
 40
7.0
 40
7.0
 40
7.0
 40
8.0
 40
8.0
 40
8.0
 40
9.0
 40
9.0
 40
9.0
 40
9.0
 10
3085.4471788968
 20
31.4005559957
 30
0.0
 10
3085.4471788968
 20
31.4005559957
 30
0.0
 10
3085.4471788968
 20
31.4345777294
 30
0.0
 10
3085.4471788968
 20
31.4345777294
 30
0.0
 10
3085.4471788968
 20
31.7768887117
 30
0.0
 10
3085.274322319
 20
32.0485391701
 30
0.0
 10
3084.9076727118
 20
32.0485391701
 30
0.0
 10
3084.5360506975
 20
32.0485391701
 30
0.0
 10
3084.3463141056
 20
31.7821228246
 30
0.0
 10
3084.3463141056
 20
31.4272499714
 30
0.0
 10
3084.3463141056
 20
31.0875560456
 30
0.0
 10
3084.5603893223
 20
30.8216631113
 30
0.0
 10
3084.9125142663
 20
30.8216631113
 30
0.0
 10
3085.1365342975
 20
30.8216631113
 30
0.0
 10
3085.3387019074
 20
30.937337006
 30
0.0
 10
3085.4471788968
 20
31.1367567066
 30
0.0
 10
3085.4471788968
 20
31.1367567066
 30
0.0
 10
3085.2595359501
 20
31.2435326094
 30
0.0
 10
3085.2595359501
 20
31.2435326094
 30
0.0
 10
3085.1760518497
 20
31.1048286181
 30
0.0
 10
3085.0848474328
 20
31.0189891669
 30
0.0
 10
3084.9152621755
 20
31.0189891669
 30
0.0
 10
3084.7032806039
 20
31.0189891669
 30
0.0
 10
3084.5703341368
 20
31.2037533515
 30
0.0
 10
3084.567978786
 20
31.4005559957
 30
0.0
 10
3084.567978786
 20
31.4005559957
 30
0.0
 10
3085.4471788968
 20
31.4005559957
 30
0.0
 10
3085.4471788968
 20
31.4005559957
 30
0.0
  0
SPLINE
  5
22B
100
AcDbEntity
  8
0
100
AcDbSpline
 62
7
  6
CONTINUOUS
 70
2
 71
3
 72
14
 73
10
 74
0
 42
0.0000001
 43
0.0000001
 44
0.0000000001
 40
0.0
 40
0.0
 40
0.0
 40
0.0
 40
1.0
 40
1.0
 40
1.0
 40
2.0
 40
2.0
 40
2.0
 40
3.0
 40
3.0
 40
3.0
 40
3.0
 10
3084.5800172456
 20
31.5680476078
 30
0.0
 10
3084.6076271911
 20
31.7329221635
 30
0.0
 10
3084.7354703981
 20
31.8559238162
 30
0.0
 10
3084.9076727118
 20
31.8559238162
 30
0.0
 10
3085.0848474328
 20
31.8559238162
 30
0.0
 10
3085.1982968294
 20
31.7402499215
 30
0.0
 10
3085.2255142164
 20
31.5680476078
 30
0.0
 10
3085.2255142164
 20
31.5680476078
 30
0.0
 10
3084.5800172456
 20
31.5680476078
 30
0.0
 10
3084.5800172456
 20
31.5680476078
 30
0.0
  0
SPLINE
  5
22C
100
AcDbEntity
  8
0
100
AcDbSpline
 62
7
  6
CONTINUOUS
 70
2
 71
3
 72
20
 73
16
 74
0
 42
0.0000001
 43
0.0000001
 44
0.0000000001
 40
0.0
 40
0.0
 40
0.0
 40
0.0
 40
1.0
 40
1.0
 40
1.0
 40
2.0
 40
2.0
 40
2.0
 40
3.0
 40
3.0
 40
3.0
 40
4.0
 40
4.0
 40
4.0
 40
5.0
 40
5.0
 40
5.0
 40
5.0
 10
3087.471210347
 20
31.777412123
 30
0.0
 10
3087.471210347
 20
31.777412123
 30
0.0
 10
3087.8823499136
 20
31.2749372866
 30
0.0
 10
3087.8823499136
 20
31.2749372866
 30
0.0
 10
3087.7662834606
 20
31.159263392
 30
0.0
 10
3087.628495439
 20
31.0289339813
 30
0.0
 10
3087.456554831
 20
31.0289339813
 30
0.0
 10
3087.2791184044
 20
31.0289339813
 30
0.0
 10
3087.1116267922
 20
31.1932851257
 30
0.0
 10
3087.1116267922
 20
31.370198141
 30
0.0
 10
3087.1116267922
 20
31.5481579789
 30
0.0
 10
3087.3213838659
 20
31.6743000993
 30
0.0
 10
3087.4489653673
 20
31.7622331956
 30
0.0
 10
3087.4489653673
 20
31.7622331956
 30
0.0
 10
3087.471210347
 20
31.777412123
 30
0.0
 10
3087.471210347
 20
31.777412123
 30
0.0
  0
SPLINE
  5
22D
100
AcDbEntity
  8
0
100
AcDbSpline
 62
7
  6
CONTINUOUS
 70
2
 71
3
 72
23
 73
19
 74
0
 42
0.0000001
 43
0.0000001
 44
0.0000000001
 40
0.0
 40
0.0
 40
0.0
 40
0.0
 40
1.0
 40
1.0
 40
1.0
 40
2.0
 40
2.0
 40
2.0
 40
3.0
 40
3.0
 40
3.0
 40
4.0
 40
4.0
 40
4.0
 40
5.0
 40
5.0
 40
5.0
 40
6.0
 40
6.0
 40
6.0
 40
6.0
 10
3087.5205418609
 20
32.068428799
 30
0.0
 10
3087.5205418609
 20
32.068428799
 30
0.0
 10
3087.4589101817
 20
32.1469404922
 30
0.0
 10
3087.4589101817
 20
32.1469404922
 30
0.0
 10
3087.4049988191
 20
32.2155073709
 30
0.0
 10
3087.3482086944
 20
32.2845976609
 30
0.0
 10
3087.3482086944
 20
32.3782882815
 30
0.0
 10
3087.3482086944
 20
32.4971026438
 30
0.0
 10
3087.4441238129
 20
32.5745675144
 30
0.0
 10
3087.5550870059
 20
32.5745675144
 30
0.0
 10
3087.6783503642
 20
32.5745675144
 30
0.0
 10
3087.7716484263
 20
32.5033835793
 30
0.0
 10
3087.7716484263
 20
32.3730541686
 30
0.0
 10
3087.7716484263
 20
32.2380140563
 30
0.0
 10
3087.6435435135
 20
32.1615960083
 30
0.0
 10
3087.5499837458
 20
32.0877950167
 30
0.0
 10
3087.5499837458
 20
32.0877950167
 30
0.0
 10
3087.5205418609
 20
32.068428799
 30
0.0
 10
3087.5205418609
 20
32.068428799
 30
0.0
  0
SPLINE
  5
22E
100
AcDbEntity
  8
0
100
AcDbSpline
 62
7
  6
CONTINUOUS
 70
2
 71
3
 72
50
 73
46
 74
0
 42
0.0000001
 43
0.0000001
 44
0.0000000001
 40
0.0
 40
0.0
 40
0.0
 40
0.0
 40
1.0
 40
1.0
 40
1.0
 40
2.0
 40
2.0
 40
2.0
 40
3.0
 40
3.0
 40
3.0
 40
4.0
 40
4.0
 40
4.0
 40
5.0
 40
5.0
 40
5.0
 40
6.0
 40
6.0
 40
6.0
 40
7.0
 40
7.0
 40
7.0
 40
8.0
 40
8.0
 40
8.0
 40
9.0
 40
9.0
 40
9.0
 40
10.0
 40
10.0
 40
10.0
 40
11.0
 40
11.0
 40
11.0
 40
12.0
 40
12.0
 40
12.0
 40
13.0
 40
13.0
 40
13.0
 40
14.0
 40
14.0
 40
14.0
 40
15.0
 40
15.0
 40
15.0
 40
15.0
 10
3088.2226981036
 20
30.8614423692
 30
0.0
 10
3088.2226981036
 20
30.8614423692
 30
0.0
 10
3088.5080881083
 20
30.8614423692
 30
0.0
 10
3088.5080881083
 20
30.8614423692
 30
0.0
 10
3088.5080881083
 20
30.8614423692
 30
0.0
 10
3088.1757219405
 20
31.2723202302
 30
0.0
 10
3088.1757219405
 20
31.2723202302
 30
0.0
 10
3088.1757219405
 20
31.2723202302
 30
0.0
 10
3088.4022281753
 20
31.5382131644
 30
0.0
 10
3088.4022281753
 20
31.5382131644
 30
0.0
 10
3088.4022281753
 20
31.5382131644
 30
0.0
 10
3088.253971928
 20
31.6910492605
 30
0.0
 10
3088.253971928
 20
31.6910492605
 30
0.0
 10
3088.253971928
 20
31.6910492605
 30
0.0
 10
3088.0380647718
 20
31.4398118423
 30
0.0
 10
3088.0380647718
 20
31.4398118423
 30
0.0
 10
3088.0380647718
 20
31.4398118423
 30
0.0
 10
3087.6510021244
 20
31.9077415337
 30
0.0
 10
3087.6510021244
 20
31.9077415337
 30
0.0
 10
3087.8064552769
 20
32.0218451944
 30
0.0
 10
3087.9887332579
 20
32.1615960083
 30
0.0
 10
3087.9887332579
 20
32.3709605234
 30
0.0
 10
3087.9887332579
 20
32.6148701836
 30
0.0
 10
3087.7866965008
 20
32.7582848765
 30
0.0
 10
3087.560190266
 20
32.7582848765
 30
0.0
 10
3087.3160189002
 20
32.7582848765
 30
0.0
 10
3087.131647274
 20
32.6075424255
 30
0.0
 10
3087.131647274
 20
32.3510708945
 30
0.0
 10
3087.131647274
 20
32.1935240968
 30
0.0
 10
3087.2303103018
 20
32.0558669281
 30
0.0
 10
3087.3356468235
 20
31.9449037351
 30
0.0
 10
3087.3356468235
 20
31.9449037351
 30
0.0
 10
3087.2201037817
 20
31.861157929
 30
0.0
 10
3087.2201037817
 20
31.861157929
 30
0.0
 10
3087.0424056494
 20
31.7329221635
 30
0.0
 10
3086.8950653719
 20
31.6052098093
 30
0.0
 10
3086.8950653719
 20
31.3681044959
 30
0.0
 10
3086.8950653719
 20
31.0477767877
 30
0.0
 10
3087.1536305481
 20
30.8216631113
 30
0.0
 10
3087.4640134418
 20
30.8216631113
 30
0.0
 10
3087.682930213
 20
30.8216631113
 30
0.0
 10
3087.8801254157
 20
30.9467584091
 30
0.0
 10
3088.0203996408
 20
31.1126797874
 30
0.0
 10
3088.0203996408
 20
31.1126797874
 30
0.0
 10
3088.2226981036
 20
30.8614423692
 30
0.0
 10
3088.2226981036
 20
30.8614423692
 30
0.0
  0
LWPOLYLINE
  5
22F
100
AcDbEntity
  8
0
100
AcDbPolyline
 62
7
  6
CONTINUOUS
 90
2
 70
0
 43
0.2
 10
3090.1581421933
 20
32.7179822073
 10
3089.9267944041
 20
32.7179822073
  0
LWPOLYLINE
  5
230
100
AcDbEntity
  8
0
100
AcDbPolyline
 62
7
  6
CONTINUOUS
 90
2
 70
0
 43
0.2
 10
3089.9267944041
 20
32.7179822073
 10
3089.9267944041
 20
30.8609189579
  0
LWPOLYLINE
  5
231
100
AcDbEntity
  8
0
100
AcDbPolyline
 62
7
  6
CONTINUOUS
 90
2
 70
0
 43
0.2
 10
3089.9267944041
 20
30.8609189579
 10
3090.722117856
 20
30.8609189579
  0
LWPOLYLINE
  5
232
100
AcDbEntity
  8
0
100
AcDbPolyline
 62
7
  6
CONTINUOUS
 90
2
 70
0
 43
0.2
 10
3090.722117856
 20
30.8609189579
 10
3090.722117856
 20
31.0729005295
  0
LWPOLYLINE
  5
233
100
AcDbEntity
  8
0
100
AcDbPolyline
 62
7
  6
CONTINUOUS
 90
2
 70
0
 43
0.2
 10
3090.722117856
 20
31.0729005295
 10
3090.1581421933
 20
31.0729005295
  0
LWPOLYLINE
  5
234
100
AcDbEntity
  8
0
100
AcDbPolyline
 62
7
  6
CONTINUOUS
 90
2
 70
0
 43
0.2
 10
3090.1581421933
 20
31.0729005295
 10
3090.1581421933
 20
32.7179822073
  0
LWPOLYLINE
  5
235
100
AcDbEntity
  8
0
100
AcDbPolyline
 62
7
  6
CONTINUOUS
 90
2
 70
0
 43
0.2
 10
3092.4012212675
 20
32.0134706138
 10
3092.1800799983
 20
32.0134706138
  0
LWPOLYLINE
  5
236
100
AcDbEntity
  8
0
100
AcDbPolyline
 62
7
  6
CONTINUOUS
 90
2
 70
0
 43
0.2
 10
3092.1800799983
 20
32.0134706138
 10
3092.1800799983
 20
30.8614423692
  0
LWPOLYLINE
  5
237
100
AcDbEntity
  8
0
100
AcDbPolyline
 62
7
  6
CONTINUOUS
 90
2
 70
0
 43
0.2
 10
3092.1800799983
 20
30.8614423692
 10
3092.4012212675
 20
30.8614423692
  0
LWPOLYLINE
  5
238
100
AcDbEntity
  8
0
100
AcDbPolyline
 62
7
  6
CONTINUOUS
 90
2
 70
0
 43
0.2
 10
3092.4012212675
 20
30.8614423692
 10
3092.4012212675
 20
32.0134706138
  0
LWPOLYLINE
  5
239
100
AcDbEntity
  8
0
100
AcDbPolyline
 62
7
  6
CONTINUOUS
 90
2
 70
1
 43
0.2
 10
3092.1381979903
 20
32.5434245428
 42
1.0
 10
3092.4433649812
 20
32.5434245428
 42
1.0
  0
SPLINE
  5
23A
100
AcDbEntity
  8
0
100
AcDbSpline
 62
7
  6
CONTINUOUS
 70
2
 71
3
 72
17
 73
13
 74
0
 42
0.0000001
 43
0.0000001
 44
0.0000000001
 40
0.0
 40
0.0
 40
0.0
 40
0.0
 40
1.0
 40
1.0
 40
1.0
 40
2.0
 40
2.0
 40
2.0
 40
3.0
 40
3.0
 40
3.0
 40
4.0
 40
4.0
 40
4.0
 40
4.0
 10
3094.5315052091
 20
31.0189891669
 30
0.0
 10
3094.2975403634
 20
31.0189891669
 30
0.0
 10
3094.1672109527
 20
31.221025924
 30
0.0
 10
3094.1672109527
 20
31.4371947859
 30
0.0
 10
3094.1672109527
 20
31.6517934139
 30
0.0
 10
3094.3030361819
 20
31.8506897033
 30
0.0
 10
3094.5315052091
 20
31.8506897033
 30
0.0
 10
3094.7709658733
 20
31.8506897033
 30
0.0
 10
3094.9065293969
 20
31.6617382284
 30
0.0
 10
3094.9065293969
 20
31.4371947859
 30
0.0
 10
3094.9065293969
 20
31.2110811095
 30
0.0
 10
3094.7733212241
 20
31.0189891669
 30
0.0
 10
3094.5315052091
 20
31.0189891669
 30
0.0
  0
SPLINE
  5
23B
100
AcDbEntity
  8
0
100
AcDbSpline
 62
7
  6
CONTINUOUS
 70
2
 71
3
 72
50
 73
46
 74
0
 42
0.0000001
 43
0.0000001
 44
0.0000000001
 40
0.0
 40
0.0
 40
0.0
 40
0.0
 40
1.0
 40
1.0
 40
1.0
 40
2.0
 40
2.0
 40
2.0
 40
3.0
 40
3.0
 40
3.0
 40
4.0
 40
4.0
 40
4.0
 40
5.0
 40
5.0
 40
5.0
 40
6.0
 40
6.0
 40
6.0
 40
7.0
 40
7.0
 40
7.0
 40
8.0
 40
8.0
 40
8.0
 40
9.0
 40
9.0
 40
9.0
 40
10.0
 40
10.0
 40
10.0
 40
11.0
 40
11.0
 40
11.0
 40
12.0
 40
12.0
 40
12.0
 40
13.0
 40
13.0
 40
13.0
 40
14.0
 40
14.0
 40
14.0
 40
15.0
 40
15.0
 40
15.0
 40
15.0
 10
3095.1156322064
 20
32.0139940251
 30
0.0
 10
3095.1156322064
 20
32.0139940251
 30
0.0
 10
3094.8939675259
 20
32.0139940251
 30
0.0
 10
3094.8939675259
 20
32.0139940251
 30
0.0
 10
3094.8939675259
 20
32.0139940251
 30
0.0
 10
3094.8939675259
 20
31.8166679696
 30
0.0
 10
3094.8939675259
 20
31.8166679696
 30
0.0
 10
3094.8939675259
 20
31.8166679696
 30
0.0
 10
3094.8892568244
 20
31.8166679696
 30
0.0
 10
3094.8892568244
 20
31.8166679696
 30
0.0
 10
3094.7979215546
 20
31.9595592512
 30
0.0
 10
3094.6600026803
 20
32.0480157588
 30
0.0
 10
3094.4872769553
 20
32.0480157588
 30
0.0
 10
3094.1549107875
 20
32.0480157588
 30
0.0
 10
3093.945807978
 20
31.7601395505
 30
0.0
 10
3093.945807978
 20
31.4445225439
 30
0.0
 10
3093.945807978
 20
31.1147734325
 30
0.0
 10
3094.1428723279
 20
30.8216631113
 30
0.0
 10
3094.497745181
 20
30.8216631113
 30
0.0
 10
3094.6600026803
 20
30.8216631113
 30
0.0
 10
3094.8000151998
 20
30.910119619
 30
0.0
 10
3094.8892568244
 20
31.0409724409
 30
0.0
 10
3094.8892568244
 20
31.0409724409
 30
0.0
 10
3094.8939675259
 20
31.0409724409
 30
0.0
 10
3094.8939675259
 20
31.0409724409
 30
0.0
 10
3094.8939675259
 20
31.0409724409
 30
0.0
 10
3094.8939675259
 20
30.8216631113
 30
0.0
 10
3094.8939675259
 20
30.8216631113
 30
0.0
 10
3094.8939675259
 20
30.5850812092
 30
0.0
 10
3094.8374391069
 20
30.3982233794
 30
0.0
 10
3094.5642184146
 20
30.3982233794
 30
0.0
 10
3094.3619199518
 20
30.3982233794
 30
0.0
 10
3094.2192903759
 20
30.5165143305
 30
0.0
 10
3094.2192903759
 20
30.7227383779
 30
0.0
 10
3094.2192903759
 20
30.7227383779
 30
0.0
 10
3093.9976256955
 20
30.7227383779
 30
0.0
 10
3093.9976256955
 20
30.7227383779
 30
0.0
 10
3094.0025981027
 20
30.3982233794
 30
0.0
 10
3094.2336841863
 20
30.2014207352
 30
0.0
 10
3094.5540118945
 20
30.2014207352
 30
0.0
 10
3095.0020519569
 20
30.2014207352
 30
0.0
 10
3095.1156322064
 20
30.4866798871
 30
0.0
 10
3095.1156322064
 20
30.8834256433
 30
0.0
 10
3095.1156322064
 20
30.8834256433
 30
0.0
 10
3095.1156322064
 20
32.0139940251
 30
0.0
 10
3095.1156322064
 20
32.0139940251
 30
0.0
  0
SPLINE
  5
23C
100
AcDbEntity
  8
0
100
AcDbSpline
 62
7
  6
CONTINUOUS
 70
2
 71
3
 72
44
 73
40
 74
0
 42
0.0000001
 43
0.0000001
 44
0.0000000001
 40
0.0
 40
0.0
 40
0.0
 40
0.0
 40
1.0
 40
1.0
 40
1.0
 40
2.0
 40
2.0
 40
2.0
 40
3.0
 40
3.0
 40
3.0
 40
4.0
 40
4.0
 40
4.0
 40
5.0
 40
5.0
 40
5.0
 40
6.0
 40
6.0
 40
6.0
 40
7.0
 40
7.0
 40
7.0
 40
8.0
 40
8.0
 40
8.0
 40
9.0
 40
9.0
 40
9.0
 40
10.0
 40
10.0
 40
10.0
 40
11.0
 40
11.0
 40
11.0
 40
12.0
 40
12.0
 40
12.0
 40
13.0
 40
13.0
 40
13.0
 40
13.0
 10
3096.6845575417
 20
32.9990540689
 30
0.0
 10
3096.6845575417
 20
32.9990540689
 30
0.0
 10
3096.6845575417
 20
30.8609189579
 30
0.0
 10
3096.6845575417
 20
30.8609189579
 30
0.0
 10
3096.6845575417
 20
30.8609189579
 30
0.0
 10
3096.9059605165
 20
30.8609189579
 30
0.0
 10
3096.9059605165
 20
30.8609189579
 30
0.0
 10
3096.9059605165
 20
30.8609189579
 30
0.0
 10
3096.9059605165
 20
31.3906111812
 30
0.0
 10
3096.9059605165
 20
31.3906111812
 30
0.0
 10
3096.9059605165
 20
31.6004991077
 30
0.0
 10
3096.9059605165
 20
31.8512131146
 30
0.0
 10
3097.1912196684
 20
31.8512131146
 30
0.0
 10
3097.4181184617
 20
31.8512131146
 30
0.0
 10
3097.445074143
 20
31.7182666475
 30
0.0
 10
3097.445074143
 20
31.5219874145
 30
0.0
 10
3097.445074143
 20
31.5219874145
 30
0.0
 10
3097.445074143
 20
30.8609189579
 30
0.0
 10
3097.445074143
 20
30.8609189579
 30
0.0
 10
3097.445074143
 20
30.8609189579
 30
0.0
 10
3097.6670005291
 20
30.8609189579
 30
0.0
 10
3097.6670005291
 20
30.8609189579
 30
0.0
 10
3097.6670005291
 20
30.8609189579
 30
0.0
 10
3097.6670005291
 20
31.5481579789
 30
0.0
 10
3097.6670005291
 20
31.5481579789
 30
0.0
 10
3097.6670005291
 20
31.8287064292
 30
0.0
 10
3097.5829930174
 20
32.0485391701
 30
0.0
 10
3097.2579546076
 20
32.0485391701
 30
0.0
 10
3097.1182037937
 20
32.0485391701
 30
0.0
 10
3096.9800232138
 20
31.9820659365
 30
0.0
 10
3096.9106712181
 20
31.8590642839
 30
0.0
 10
3096.9106712181
 20
31.8590642839
 30
0.0
 10
3096.9059605165
 20
31.8590642839
 30
0.0
 10
3096.9059605165
 20
31.8590642839
 30
0.0
 10
3096.9059605165
 20
31.8590642839
 30
0.0
 10
3096.9059605165
 20
32.9990540689
 30
0.0
 10
3096.9059605165
 20
32.9990540689
 30
0.0
 10
3096.9059605165
 20
32.9990540689
 30
0.0
 10
3096.6845575417
 20
32.9990540689
 30
0.0
 10
3096.6845575417
 20
32.9990540689
 30
0.0
  0
LWPOLYLINE
  5
23D
100
AcDbEntity
  8
0
100
AcDbPolyline
 62
7
  6
CONTINUOUS
 90
2
 70
0
 43
0.2
 10
3099.5067912059
 20
31.8067231551
 10
3099.7232217735
 20
31.8067231551
  0
LWPOLYLINE
  5
23E
100
AcDbEntity
  8
0
100
AcDbPolyline
 62
7
  6
CONTINUOUS
 90
2
 70
0
 43
0.2
 10
3099.7232217735
 20
31.8067231551
 10
3099.7232217735
 20
32.0134706138
  0
LWPOLYLINE
  5
23F
100
AcDbEntity
  8
0
100
AcDbPolyline
 62
7
  6
CONTINUOUS
 90
2
 70
0
 43
0.2
 10
3099.7232217735
 20
32.0134706138
 10
3099.5067912059
 20
32.0134706138
  0
LWPOLYLINE
  5
240
100
AcDbEntity
  8
0
100
AcDbPolyline
 62
7
  6
CONTINUOUS
 90
2
 70
0
 43
0.2
 10
3099.5067912059
 20
32.0134706138
 10
3099.5067912059
 20
32.4541829182
  0
LWPOLYLINE
  5
241
100
AcDbEntity
  8
0
100
AcDbPolyline
 62
7
  6
CONTINUOUS
 90
2
 70
0
 43
0.2
 10
3099.5067912059
 20
32.4541829182
 10
3099.2851265255
 20
32.4541829182
  0
LWPOLYLINE
  5
242
100
AcDbEntity
  8
0
100
AcDbPolyline
 62
7
  6
CONTINUOUS
 90
2
 70
0
 43
0.2
 10
3099.2851265255
 20
32.4541829182
 10
3099.2851265255
 20
32.0134706138
  0
LWPOLYLINE
  5
243
100
AcDbEntity
  8
0
100
AcDbPolyline
 62
7
  6
CONTINUOUS
 90
2
 70
0
 43
0.2
 10
3099.2851265255
 20
32.0134706138
 10
3099.1644802237
 20
32.0134706138
  0
LWPOLYLINE
  5
244
100
AcDbEntity
  8
0
100
AcDbPolyline
 62
7
  6
CONTINUOUS
 90
2
 70
0
 43
0.2
 10
3099.1644802237
 20
32.0134706138
 10
3099.1644802237
 20
31.8067231551
  0
LWPOLYLINE
  5
245
100
AcDbEntity
  8
0
100
AcDbPolyline
 62
7
  6
CONTINUOUS
 90
2
 70
0
 43
0.2
 10
3099.1644802237
 20
31.8067231551
 10
3099.2851265255
 20
31.8067231551
  0
LWPOLYLINE
  5
246
100
AcDbEntity
  8
0
100
AcDbPolyline
 62
7
  6
CONTINUOUS
 90
2
 70
0
 43
0.2
 10
3099.2851265255
 20
31.8067231551
 10
3099.2851265255
 20
30.8609189579
  0
LWPOLYLINE
  5
247
100
AcDbEntity
  8
0
100
AcDbPolyline
 62
7
  6
CONTINUOUS
 90
2
 70
0
 43
0.2
 10
3099.2851265255
 20
30.8609189579
 10
3099.5067912059
 20
30.8609189579
  0
LWPOLYLINE
  5
248
100
AcDbEntity
  8
0
100
AcDbPolyline
 62
7
  6
CONTINUOUS
 90
2
 70
0
 43
0.2
 10
3099.5067912059
 20
30.8609189579
 10
3099.5067912059
 20
31.8067231551
  0
SPLINE
  5
249
100
AcDbEntity
  8
0
100
AcDbSpline
 62
7
  6
CONTINUOUS
 70
2
 71
3
 72
20
 73
16
 74
0
 42
0.0000001
 43
0.0000001
 44
0.0000000001
 40
0.0
 40
0.0
 40
0.0
 40
0.0
 40
1.0
 40
1.0
 40
1.0
 40
2.0
 40
2.0
 40
2.0
 40
3.0
 40
3.0
 40
3.0
 40
4.0
 40
4.0
 40
4.0
 40
5.0
 40
5.0
 40
5.0
 40
5.0
 10
3087.2888015132
 20
41.2218454013
 30
0.0
 10
3087.2888015132
 20
41.2218454013
 30
0.0
 10
3089.6051581677
 20
38.3922839791
 30
0.0
 10
3089.6051581677
 20
38.3922839791
 30
0.0
 10
3088.9535111143
 20
37.7401135144
 30
0.0
 10
3088.1766379102
 20
37.0041972437
 30
0.0
 10
3087.2054482656
 20
37.0041972437
 30
0.0
 10
3086.2069103812
 20
37.0041972437
 30
0.0
 10
3085.2635923876
 20
37.9337756909
 30
0.0
 10
3085.2635923876
 20
38.9329678395
 30
0.0
 10
3085.2635923876
 20
39.932159988
 30
0.0
 10
3086.4424454607
 20
40.6387652266
 30
0.0
 10
3087.163967921
 20
41.1386230065
 30
0.0
 10
3087.163967921
 20
41.1386230065
 30
0.0
 10
3087.2888015132
 20
41.2218454013
 30
0.0
 10
3087.2888015132
 20
41.2218454013
 30
0.0
  0
SPLINE
  5
24A
100
AcDbEntity
  8
0
100
AcDbSpline
 62
7
  6
CONTINUOUS
 70
2
 71
3
 72
23
 73
19
 74
0
 42
0.0000001
 43
0.0000001
 44
0.0000000001
 40
0.0
 40
0.0
 40
0.0
 40
0.0
 40
1.0
 40
1.0
 40
1.0
 40
2.0
 40
2.0
 40
2.0
 40
3.0
 40
3.0
 40
3.0
 40
4.0
 40
4.0
 40
4.0
 40
5.0
 40
5.0
 40
5.0
 40
6.0
 40
6.0
 40
6.0
 40
6.0
 10
3087.5662094958
 20
42.8595993211
 30
0.0
 10
3087.5662094958
 20
42.8595993211
 30
0.0
 10
3087.2197112232
 20
43.3029286819
 30
0.0
 10
3087.2197112232
 20
43.3029286819
 30
0.0
 10
3086.9139081783
 20
43.6910381518
 30
0.0
 10
3086.5950198511
 20
44.0795401803
 30
0.0
 10
3086.5950198511
 20
44.6064844943
 30
0.0
 10
3086.5950198511
 20
45.272656211
 30
0.0
 10
3087.1363579756
 20
45.7163781303
 30
0.0
 10
3087.7602642307
 20
45.7163781303
 30
0.0
 10
3088.4540458928
 20
45.7163781303
 30
0.0
 10
3088.9812519125
 20
45.3141365555
 30
0.0
 10
3088.9812519125
 20
44.5791362545
 30
0.0
 10
3088.9812519125
 20
43.815871744
 30
0.0
 10
3088.2599911578
 20
43.3857585182
 30
0.0
 10
3087.7329159909
 20
42.9700391028
 30
0.0
 10
3087.7329159909
 20
42.9700391028
 30
0.0
 10
3087.5662094958
 20
42.8595993211
 30
0.0
 10
3087.5662094958
 20
42.8595993211
 30
0.0
  0
SPLINE
  5
24B
100
AcDbEntity
  8
0
100
AcDbSpline
 62
7
  6
CONTINUOUS
 70
2
 71
3
 72
50
 73
46
 74
0
 42
0.0000001
 43
0.0000001
 44
0.0000000001
 40
0.0
 40
0.0
 40
0.0
 40
0.0
 40
1.0
 40
1.0
 40
1.0
 40
2.0
 40
2.0
 40
2.0
 40
3.0
 40
3.0
 40
3.0
 40
4.0
 40
4.0
 40
4.0
 40
5.0
 40
5.0
 40
5.0
 40
6.0
 40
6.0
 40
6.0
 40
7.0
 40
7.0
 40
7.0
 40
8.0
 40
8.0
 40
8.0
 40
9.0
 40
9.0
 40
9.0
 40
10.0
 40
10.0
 40
10.0
 40
11.0
 40
11.0
 40
11.0
 40
12.0
 40
12.0
 40
12.0
 40
13.0
 40
13.0
 40
13.0
 40
14.0
 40
14.0
 40
14.0
 40
15.0
 40
15.0
 40
15.0
 40
15.0
 10
3091.5197966587
 20
36.0610101029
 30
0.0
 10
3091.5197966587
 20
36.0610101029
 30
0.0
 10
3093.1290246632
 20
36.0610101029
 30
0.0
 10
3093.1290246632
 20
36.0610101029
 30
0.0
 10
3093.1290246632
 20
36.0610101029
 30
0.0
 10
3091.2559973696
 20
38.3781518743
 30
0.0
 10
3091.2559973696
 20
38.3781518743
 30
0.0
 10
3091.2559973696
 20
38.3781518743
 30
0.0
 10
3092.5323357951
 20
39.8756315689
 30
0.0
 10
3092.5323357951
 20
39.8756315689
 30
0.0
 10
3092.5323357951
 20
39.8756315689
 30
0.0
 10
3091.7001118474
 20
40.7366431375
 30
0.0
 10
3091.7001118474
 20
40.7366431375
 30
0.0
 10
3091.7001118474
 20
40.7366431375
 30
0.0
 10
3090.479516724
 20
39.3213390151
 30
0.0
 10
3090.479516724
 20
39.3213390151
 30
0.0
 10
3090.479516724
 20
39.3213390151
 30
0.0
 10
3088.3016023552
 20
41.9567148495
 30
0.0
 10
3088.3016023552
 20
41.9567148495
 30
0.0
 10
3089.1751757947
 20
42.5947532094
 30
0.0
 10
3090.2018470358
 20
43.3857585182
 30
0.0
 10
3090.2018470358
 20
44.5646115913
 30
0.0
 10
3090.2018470358
 20
45.9383045163
 30
0.0
 10
3089.063950896
 20
46.7427876658
 30
0.0
 10
3087.7886592931
 20
46.7427876658
 30
0.0
 10
3086.4152280737
 20
46.7427876658
 30
0.0
 10
3085.374293875
 20
45.8965624661
 30
0.0
 10
3085.374293875
 20
44.4539101039
 30
0.0
 10
3085.374293875
 20
43.5663354125
 30
0.0
 10
3085.9296332514
 20
42.7894622085
 30
0.0
 10
3086.5257987083
 20
42.1650325421
 30
0.0
 10
3086.5257987083
 20
42.1650325421
 30
0.0
 10
3085.8738899493
 20
41.6934389717
 30
0.0
 10
3085.8738899493
 20
41.6934389717
 30
0.0
 10
3084.8753520648
 20
40.972178217
 30
0.0
 10
3084.042473853
 20
40.2509174623
 30
0.0
 10
3084.042473853
 20
38.919359146
 30
0.0
 10
3084.042473853
 20
37.115683848
 30
0.0
 10
3085.4995200256
 20
35.8390837169
 30
0.0
 10
3087.247059463
 20
35.8390837169
 30
0.0
 10
3088.4819175439
 20
35.8390837169
 30
0.0
 10
3089.5912877685
 20
36.5472591893
 30
0.0
 10
3090.3821622245
 20
37.475790814
 30
0.0
 10
3090.3821622245
 20
37.475790814
 30
0.0
 10
3091.5197966587
 20
36.0610101029
 30
0.0
 10
3091.5197966587
 20
36.0610101029
 30
0.0
  0
LINE
  5
24C
100
AcDbEntity
  8
0
100
AcDbLine
 62
7
  6
CONTINUOUS
 10
3077.3226580337
 20
34.0348850076
 11
3099.7365687613
 21
34.0348850076
  0
LINE
  5
24D
100
AcDbEntity
  8
0
100
AcDbLine
 62
7
  6
CONTINUOUS
 10
3099.7365687613
 20
34.0348850076
 11
3099.7365687613
 21
56.4487957352
  0
LINE
  5
24E
100
AcDbEntity
  8
0
100
AcDbLine
 62
7
  6
CONTINUOUS
 10
3099.7365687613
 20
56.4487957352
 11
3077.3226580337
 21
56.4487957352
  0
LINE
  5
24F
100
AcDbEntity
  8
0
100
AcDbLine
 62
7
  6
CONTINUOUS
 10
3077.3226580337
 20
56.4487957352
 11
3077.3226580337
 21
34.0348850076
  0
ENDBLK
  5
250
100
AcDbEntity
  8
0
  6
BYBLOCK
 62
0
100
AcDbBlockEnd
  0
BLOCK
  5
251
100
AcDbEntity
  8
0
100
AcDbBlockBegin
  2
_CLOSED
 70
64
 10
0.0
 20
0.0
  3
_CLOSED
  1

  0
LINE
  5
252
100
AcDbEntity
  8
0
  6
BYBLOCK
 62
0
100
AcDbLine
 10
0.0
 20
0.0
 11
-1.0
 21
0.2
  0
LINE
  5
253
100
AcDbEntity
  8
0
  6
BYBLOCK
 62
0
100
AcDbLine
 10
-1.0
 20
0.2
 11
-1.0
 21
-0.2
  0
LINE
  5
254
100
AcDbEntity
  8
0
  6
BYBLOCK
 62
0
100
AcDbLine
 10
-1.0
 20
-0.2
 11
0.0
 21
0.0
  0
LINE
  5
255
100
AcDbEntity
  8
0
  6
BYBLOCK
 62
0
100
AcDbLine
 10
-1.0
 20
0.0
 11
0.0
 21
0.0
  0
ENDBLK
  5
256
100
AcDbEntity
  8
0
  6
BYBLOCK
 62
0
100
AcDbBlockEnd
  0
BLOCK
  5
257
100
AcDbEntity
  8
0
100
AcDbBlockBegin
 62
7
  6
CONTINUOUS
  2
*D0
 70
65
 10
0.0
 20
0.0
  3
*D0
  1

  0
MTEXT
  5
258
100
AcDbEntity
  8
0
100
AcDbMText
 62
7
  6
CONTINUOUS
  7
STANDARD
 71
2
 72
1
 10
111.2507178532
 20
207.2331790742
 30
0.0
 11
1.0
 21
0.0
 31
0.0
  1
42,4
 40
7.0
 41
19.0223048327
  0
LINE
  5
259
100
AcDbEntity
  8
0
100
AcDbLine
 62
7
  6
CONTINUOUS
 10
90.0507178532
 20
206.9311259975
 11
90.0507178532
 21
197.7331790742
  0
LINE
  5
25A
100
AcDbEntity
  8
0
100
AcDbLine
 62
7
  6
CONTINUOUS
 10
132.4507178532
 20
208.6342092617
 11
132.4507178532
 21
197.7331790742
  0
LINE
  5
25B
100
AcDbEntity
  8
0
100
AcDbLine
 62
7
  6
CONTINUOUS
 10
90.0507178532
 20
198.4831790742
 11
111.2507178532
 21
198.4831790742
  0
LINE
  5
25C
100
AcDbEntity
  8
0
100
AcDbLine
 62
7
  6
CONTINUOUS
 10
132.4507178532
 20
198.4831790742
 11
111.2507178532
 21
198.4831790742
  0
INSERT
  5
25D
100
AcDbEntity
  8
0
100
AcDbBlockReference
 62
7
  6
CONTINUOUS
  2
_CLOSED
 10
90.0507178532
 20
198.4831790742
 41
2.5
 42
2.5
 43
2.5
 50
180.0
  0
INSERT
  5
25E
100
AcDbEntity
  8
0
100
AcDbBlockReference
 62
7
  6
CONTINUOUS
  2
_CLOSED
 10
132.4507178532
 20
198.4831790742
 41
2.5
 42
2.5
 43
2.5
  0
ENDBLK
  5
25F
100
AcDbEntity
  8
0
  6
BYBLOCK
 62
0
100
AcDbBlockEnd
  0
BLOCK
  5
260
100
AcDbEntity
  8
0
100
AcDbBlockBegin
 62
7
  6
CONTINUOUS
  2
*D1
 70
65
 10
0.0
 20
0.0
  3
*D1
  1

  0
MTEXT
  5
261
100
AcDbEntity
  8
0
100
AcDbMText
 62
7
  6
CONTINUOUS
  7
STANDARD
 71
2
 72
1
 10
39.6105031762
 20
260.4588348133
 30
0.0
 11
0.0
 21
1.0
 31
0.0
  1
79,8
 40
7.0
 41
19.0223048327
  0
LINE
  5
262
100
AcDbEntity
  8
0
100
AcDbLine
 62
7
  6
CONTINUOUS
 10
73.2339382293
 20
220.5588348133
 11
47.6105031762
 21
220.5588348133
  0
LINE
  5
263
100
AcDbEntity
  8
0
100
AcDbLine
 62
7
  6
CONTINUOUS
 10
72.9302648978
 20
300.3588348133
 11
47.6105031762
 21
300.3588348133
  0
LINE
  5
264
100
AcDbEntity
  8
0
100
AcDbLine
 62
7
  6
CONTINUOUS
 10
48.3605031762
 20
220.5588348133
 11
48.3605031762
 21
260.4588348133
  0
LINE
  5
265
100
AcDbEntity
  8
0
100
AcDbLine
 62
7
  6
CONTINUOUS
 10
48.3605031762
 20
300.3588348133
 11
48.3605031762
 21
260.4588348133
  0
INSERT
  5
266
100
AcDbEntity
  8
0
100
AcDbBlockReference
 62
7
  6
CONTINUOUS
  2
_CLOSED
 10
48.3605031762
 20
220.5588348133
 41
2.5
 42
2.5
 43
2.5
 50
270.0
  0
INSERT
  5
267
100
AcDbEntity
  8
0
100
AcDbBlockReference
 62
7
  6
CONTINUOUS
  2
_CLOSED
 10
48.3605031762
 20
300.3588348133
 41
2.5
 42
2.5
 43
2.5
 50
90.0
  0
ENDBLK
  5
268
100
AcDbEntity
  8
0
  6
BYBLOCK
 62
0
100
AcDbBlockEnd
  0
BLOCK
  5
269
100
AcDbEntity
  8
0
100
AcDbBlockBegin
 62
7
  6
CONTINUOUS
  2
*D2
 70
65
 10
0.0
 20
0.0
  3
*D2
  1

  0
MTEXT
  5
26A
100
AcDbEntity
  8
0
100
AcDbMText
 62
7
  6
CONTINUOUS
  7
STANDARD
 71
2
 72
1
 10
111.2507178532
 20
186.0419389028
 30
0.0
 11
1.0
 21
0.0
 31
0.0
  1
82,1
 40
7.0
 41
19.0223048327
  0
LINE
  5
26B
100
AcDbEntity
  8
0
100
AcDbLine
 62
7
  6
CONTINUOUS
 10
70.2007178532
 20
206.9311259975
 11
70.2007178532
 21
176.5419389028
  0
LINE
  5
26C
100
AcDbEntity
  8
0
100
AcDbLine
 62
7
  6
CONTINUOUS
 10
152.3007178532
 20
206.9311259975
 11
152.3007178532
 21
176.5419389028
  0
LINE
  5
26D
100
AcDbEntity
  8
0
100
AcDbLine
 62
7
  6
CONTINUOUS
 10
70.2007178532
 20
177.2919389028
 11
111.2507178532
 21
177.2919389028
  0
LINE
  5
26E
100
AcDbEntity
  8
0
100
AcDbLine
 62
7
  6
CONTINUOUS
 10
152.3007178532
 20
177.2919389028
 11
111.2507178532
 21
177.2919389028
  0
INSERT
  5
26F
100
AcDbEntity
  8
0
100
AcDbBlockReference
 62
7
  6
CONTINUOUS
  2
_CLOSED
 10
70.2007178532
 20
177.2919389028
 41
2.5
 42
2.5
 43
2.5
 50
180.0
  0
INSERT
  5
270
100
AcDbEntity
  8
0
100
AcDbBlockReference
 62
7
  6
CONTINUOUS
  2
_CLOSED
 10
152.3007178532
 20
177.2919389028
 41
2.5
 42
2.5
 43
2.5
  0
ENDBLK
  5
271
100
AcDbEntity
  8
0
  6
BYBLOCK
 62
0
100
AcDbBlockEnd
  0
BLOCK
  5
272
100
AcDbEntity
  8
0
100
AcDbBlockBegin
 62
7
  6
CONTINUOUS
  2
*D3
 70
65
 10
0.0
 20
0.0
  3
*D3
  1

  0
MTEXT
  5
273
100
AcDbEntity
  8
0
100
AcDbMText
 62
7
  6
CONTINUOUS
  7
STANDARD
 71
2
 72
1
 10
1337.3017414471
 20
186.0419389028
 30
0.0
 11
1.0
 21
0.0
 31
0.0
  1
2250
 40
7.0
 41
21.7546468401
  0
LINE
  5
274
100
AcDbEntity
  8
0
100
AcDbLine
 62
7
  6
CONTINUOUS
 10
2462.3017414471
 20
206.9311259975
 11
2462.3017414471
 21
176.5419389028
  0
LINE
  5
275
100
AcDbEntity
  8
0
100
AcDbLine
 62
7
  6
CONTINUOUS
 10
212.3017414471
 20
206.9311259975
 11
212.3017414471
 21
176.5419389028
  0
LINE
  5
276
100
AcDbEntity
  8
0
100
AcDbLine
 62
7
  6
CONTINUOUS
 10
2462.3017414471
 20
177.2919389028
 11
1337.3017414471
 21
177.2919389028
  0
LINE
  5
277
100
AcDbEntity
  8
0
100
AcDbLine
 62
7
  6
CONTINUOUS
 10
212.3017414471
 20
177.2919389028
 11
1337.3017414471
 21
177.2919389028
  0
INSERT
  5
278
100
AcDbEntity
  8
0
100
AcDbBlockReference
 62
7
  6
CONTINUOUS
  2
_CLOSED
 10
2462.3017414471
 20
177.2919389028
 41
2.5
 42
2.5
 43
2.5
  0
INSERT
  5
279
100
AcDbEntity
  8
0
100
AcDbBlockReference
 62
7
  6
CONTINUOUS
  2
_CLOSED
 10
212.3017414471
 20
177.2919389028
 41
2.5
 42
2.5
 43
2.5
 50
180.0
  0
ENDBLK
  5
27A
100
AcDbEntity
  8
0
  6
BYBLOCK
 62
0
100
AcDbBlockEnd
  0
ENDSEC
  0
SECTION
  2
ENTITIES
  0
DIMENSION
  5
27B
100
AcDbEntity
  8
0
100
AcDbDimension
 62
7
  6
CONTINUOUS
  2
*D0
 10
132.4507178532
 20
198.4831790742
 11
111.072479248
 21
198.4831790742
 70
160
  3
DIMSTYLE_1
100
AcDbAlignedDimension
 13
90.0507178532
 23
207.6811259975
 14
132.4507178532
 24
209.3842092617
100
AcDbRotatedDimension
  0
DIMENSION
  5
27C
100
AcDbEntity
  8
0
100
AcDbDimension
 62
7
  6
CONTINUOUS
  2
*D1
 10
48.3605031762
 20
300.3588348133
 11
48.3605031762
 21
260.4497417818
 70
160
  3
DIMSTYLE_1
100
AcDbAlignedDimension
 13
73.9839382293
 23
220.5588348133
 14
73.6802648978
 24
300.3588348133
 50
90.0
100
AcDbRotatedDimension
  0
DIMENSION
  5
27D
100
AcDbEntity
  8
0
100
AcDbDimension
 62
7
  6
CONTINUOUS
  2
*D2
 10
152.3007178532
 20
177.2919389028
 11
110.5390228271
 21
177.2919389028
 70
160
  3
DIMSTYLE_1
100
AcDbAlignedDimension
 13
70.2007178532
 23
207.6811259975
 14
152.3007178532
 24
207.6811259975
100
AcDbRotatedDimension
  0
DIMENSION
  5
27E
100
AcDbEntity
  8
0
100
AcDbDimension
 62
7
  6
CONTINUOUS
  2
*D3
 10
212.3017414471
 20
177.2919389028
 11
1337.2063964844
 21
177.2919389028
 70
160
  3
DIMSTYLE_2
100
AcDbAlignedDimension
 13
2462.3017414471
 23
207.6811259975
 14
212.3017414471
 24
207.6811259975
 50
180.0
100
AcDbRotatedDimension
  0
LINE
  5
27F
100
AcDbEntity
  8
0
100
AcDbLine
 62
2
  6
CONTINUOUS
 10
3074.7035009263
 20
56.8251082352
 11
3164.7035009263
 21
56.8251082352
  0
LINE
  5
280
100
AcDbEntity
  8
0
100
AcDbLine
 62
2
  6
CONTINUOUS
 10
3074.7035009263
 20
56.8251082352
 11
3074.7035009263
 21
16.8251082352
  0
LINE
  5
281
100
AcDbEntity
  8
0
100
AcDbLine
 62
2
  6
CONTINUOUS
 10
3104.7035009263
 20
50.8251082352
 11
3164.7035009263
 21
50.8251082352
  0
LINE
  5
282
100
AcDbEntity
  8
0
100
AcDbLine
 62
2
  6
CONTINUOUS
 10
3104.7035009263
 20
44.8251082352
 11
3164.7035009263
 21
44.8251082352
  0
LINE
  5
283
100
AcDbEntity
  8
0
100
AcDbLine
 62
2
  6
CONTINUOUS
 10
3104.7035009263
 20
34.8251082352
 11
3164.7035009263
 21
34.8251082352
  0
LINE
  5
284
100
AcDbEntity
  8
0
100
AcDbLine
 62
2
  6
CONTINUOUS
 10
3074.7035009263
 20
29.8251082352
 11
3164.7035009263
 21
29.8251082352
  0
LINE
  5
285
100
AcDbEntity
  8
0
100
AcDbLine
 62
2
  6
CONTINUOUS
 10
3074.7035009263
 20
16.8251082352
 11
3164.7035009263
 21
16.8251082352
  0
LINE
  5
286
100
AcDbEntity
  8
0
100
AcDbLine
 62
2
  6
CONTINUOUS
 10
3104.7035009263
 20
56.8251082352
 11
3104.7035009263
 21
29.8251082352
  0
LINE
  5
287
100
AcDbEntity
  8
0
100
AcDbLine
 62
2
  6
CONTINUOUS
 10
3144.7035009263
 20
56.8251082352
 11
3144.7035009263
 21
44.8251082352
  0
LINE
  5
288
100
AcDbEntity
  8
0
100
AcDbLine
 62
2
  6
CONTINUOUS
 10
3164.7035009263
 20
56.8251082352
 11
3164.7035009263
 21
16.8251082352
  0
INSERT
  5
289
100
AcDbEntity
  8
0
100
AcDbBlockReference
 62
2
  6
CONTINUOUS
  2
LOGO2_BL0
 10
3088.5295479711
 20
43.3251082352
  0
MTEXT
  5
28A
100
AcDbEntity
  8
9_SOLID
100
AcDbMText
 62
2
  6
CONTINUOUS
  7
TEXTSTYLE_2
 71
1
 72
1
 10
3106.1910009263
 20
55.3251082352
 30
0.0
 11
1.0
 21
0.0
 31
0.0
  1
6F3_C_044
 40
3.0
 41
32.25
  0
MTEXT
  5
28B
100
AcDbEntity
  8
0
100
AcDbMText
 62
2
  6
CONTINUOUS
  7
TEXTSTYLE_2
 71
1
 72
1
 10
3146.1910009263
 20
55.0751082352
 30
0.0
 11
1.0
 21
0.0
 31
0.0
  1
Rev:00
 40
3.5
 41
22.75
  0
MTEXT
  5
28C
100
AcDbEntity
  8
9_SOLID
100
AcDbMText
 62
2
  6
CONTINUOUS
  7
TEXTSTYLE_2
 71
1
 72
1
 10
3106.1910009263
 20
49.0751082352
 30
0.0
 11
1.0
 21
0.0
 31
0.0
  1
Scale:1:1
 40
3.5
 41
28.375
  0
MTEXT
  5
28D
100
AcDbEntity
  8
9_SOLID
100
AcDbMText
 62
2
  6
CONTINUOUS
  7
TEXTSTYLE_2
 71
1
 72
1
 10
3146.1910009263
 20
49.5751082352
 30
0.0
 11
1.0
 21
0.0
 31
0.0
  1
3200 by 2500
 40
3.5
 41
48.5
  0
MTEXT
  5
28E
100
AcDbEntity
  8
0
100
AcDbMText
 62
2
  6
CONTINUOUS
  7
TEXTSTYLE_2
 71
1
 72
1
 10
3106.1910009263
 20
41.4251082352
 30
0.0
 11
1.0
 21
0.0
 31
0.0
  1
CASS. BRENTA 1.7 A FILO
 40
3.2
 41
84.1142857143
  0
MTEXT
  5
28F
100
AcDbEntity
  8
0
100
AcDbMText
 62
2
  6
CONTINUOUS
  7
TEXTSTYLE_2
 71
1
 72
1
 10
3106.1910009263
 20
33.5751082352
 30
0.0
 11
1.0
 21
0.0
 31
0.0
  1
DATE:08/05/18
 40
2.5
 41
36.875
  0
MTEXT
  5
290
100
AcDbEntity
  8
9_SOLID
100
AcDbMText
 62
2
  6
CONTINUOUS
  7
TEXTSTYLE_2
 71
1
 72
1
 10
3076.1910009263
 20
29.5126082352
 30
0.0
 11
1.0
 21
0.0
 31
0.0
  1
Any integral or partial reproductions are prohibited \Pwithout prior authorisation of L {\Ftxt.shx;\W0.190476;\H2.250000; }& L Luce & Light s.r.l., \Pin accordance with the law in force. \PAll rights reserved.
 40
2.25
 41
134.5982142857
  0
LINE
  5
291
100
AcDbEntity
  8
0
100
AcDbLine
 62
7
  6
CONTINUOUS
 10
0.0
 20
0.0
 11
0.0
 21
2500.0
  0
LINE
  5
292
100
AcDbEntity
  8
0
100
AcDbLine
 62
7
  6
CONTINUOUS
 10
0.0
 20
0.0
 11
3200.0
 21
0.0
  0
LINE
  5
293
100
AcDbEntity
  8
0
100
AcDbLine
 62
7
  6
CONTINUOUS
 10
0.0
 20
2500.0
 11
3200.0
 21
2500.0
  0
LINE
  5
294
100
AcDbEntity
  8
0
100
AcDbLine
 62
7
  6
CONTINUOUS
 10
3200.0
 20
0.0
 11
3200.0
 21
2500.0
  0
LINE
  5
295
100
AcDbEntity
  8
6_ALL_SURFS
100
AcDbLine
 62
7
  6
CONTINUOUS
 10
72.9007178532
 20
223.2088348133
 11
73.2007178532
 21
223.0588348133
  0
LINE
  5
296
100
AcDbEntity
  8
6_ALL_SURFS
100
AcDbLine
 62
7
  6
CONTINUOUS
 10
75.9007178532
 20
223.2088348133
 11
76.2007178532
 21
223.0588348133
  0
LINE
  5
297
100
AcDbEntity
  8
6_ALL_SURFS
100
AcDbLine
 62
7
  6
CONTINUOUS
 10
78.9007178532
 20
223.2088348133
 11
79.2007178532
 21
223.0588348133
  0
LINE
  5
298
100
AcDbEntity
  8
6_ALL_SURFS
100
AcDbLine
 62
7
  6
CONTINUOUS
 10
81.9007178532
 20
223.2088348133
 11
82.2007178532
 21
223.0588348133
  0
LINE
  5
299
100
AcDbEntity
  8
7_ALL_FEATURES
100
AcDbLine
 62
7
  6
CONTINUOUS
 10
149.8007178532
 20
222.0588348133
 11
151.9461894435
 21
222.2733819723
  0
LINE
  5
29A
100
AcDbEntity
  8
6_ALL_SURFS
100
AcDbLine
 62
7
  6
CONTINUOUS
 10
72.7007178532
 20
222.0588348133
 11
70.5552462628
 21
222.2733819723
  0
LINE
  5
29B
100
AcDbEntity
  8
6_ALL_SURFS
100
AcDbLine
 62
7
  6
CONTINUOUS
 10
84.9007178532
 20
223.2088348133
 11
85.2007178532
 21
223.0588348133
  0
LINE
  5
29C
100
AcDbEntity
  8
6_ALL_SURFS
100
AcDbLine
 62
7
  6
CONTINUOUS
 10
87.9007178532
 20
223.2088348133
 11
88.2007178532
 21
223.0588348133
  0
LINE
  5
29D
100
AcDbEntity
  8
7_ALL_FEATURES
100
AcDbLine
 62
7
  6
CONTINUOUS
 10
90.8007178532
 20
220.5588348133
 11
131.7007178532
 21
220.5588348133
  0
LINE
  5
29E
100
AcDbEntity
  8
6_ALL_SURFS
100
AcDbLine
 62
7
  6
CONTINUOUS
 10
90.0507178532
 20
222.0588348133
 11
88.2007178532
 21
222.0588348133
  0
LINE
  5
29F
100
AcDbEntity
  8
6_ALL_SURFS
100
AcDbLine
 62
7
  6
CONTINUOUS
 10
87.6007178532
 20
222.0588348133
 11
85.2007178532
 21
222.0588348133
  0
LINE
  5
2A0
100
AcDbEntity
  8
6_ALL_SURFS
100
AcDbLine
 62
7
  6
CONTINUOUS
 10
84.6007178532
 20
222.0588348133
 11
82.2007178532
 21
222.0588348133
  0
LINE
  5
2A1
100
AcDbEntity
  8
6_ALL_SURFS
100
AcDbLine
 62
7
  6
CONTINUOUS
 10
81.6007178532
 20
222.0588348133
 11
79.2007178532
 21
222.0588348133
  0
LINE
  5
2A2
100
AcDbEntity
  8
6_ALL_SURFS
100
AcDbLine
 62
7
  6
CONTINUOUS
 10
78.6007178532
 20
222.0588348133
 11
76.2007178532
 21
222.0588348133
  0
LINE
  5
2A3
100
AcDbEntity
  8
6_ALL_SURFS
100
AcDbLine
 62
7
  6
CONTINUOUS
 10
75.6007178532
 20
222.0588348133
 11
72.7007178532
 21
222.0588348133
  0
LINE
  5
2A4
100
AcDbEntity
  8
7_ALL_FEATURES
100
AcDbLine
 62
7
  6
CONTINUOUS
 10
132.4507178532
 20
222.0588348133
 11
134.3007178532
 21
222.0588348133
  0
LINE
  5
2A5
100
AcDbEntity
  8
3_ALL_AXES
100
AcDbLine
 62
7
  6
CONTINUOUS
 10
134.9007178532
 20
222.0588348133
 11
137.3007178532
 21
222.0588348133
  0
LINE
  5
2A6
100
AcDbEntity
  8
3_ALL_AXES
100
AcDbLine
 62
7
  6
CONTINUOUS
 10
137.9007178532
 20
222.0588348133
 11
140.3007178532
 21
222.0588348133
  0
LINE
  5
2A7
100
AcDbEntity
  8
3_ALL_AXES
100
AcDbLine
 62
7
  6
CONTINUOUS
 10
143.9007178532
 20
222.0588348133
 11
146.3007178532
 21
222.0588348133
  0
LINE
  5
2A8
100
AcDbEntity
  8
3_ALL_AXES
100
AcDbLine
 62
7
  6
CONTINUOUS
 10
140.9007178532
 20
222.0588348133
 11
143.3007178532
 21
222.0588348133
  0
LINE
  5
2A9
100
AcDbEntity
  8
3_ALL_AXES
100
AcDbLine
 62
7
  6
CONTINUOUS
 10
146.9007178532
 20
222.0588348133
 11
149.8007178532
 21
222.0588348133
  0
LINE
  5
2AA
100
AcDbEntity
  8
7_ALL_FEATURES
100
AcDbLine
 62
7
  6
CONTINUOUS
 10
151.9070144952
 20
223.0588348133
 11
149.9007178532
 21
223.0588348133
  0
LINE
  5
2AB
100
AcDbEntity
  8
3_ALL_AXES
100
AcDbLine
 62
7
  6
CONTINUOUS
 10
149.3007178532
 20
223.0588348133
 11
146.9007178532
 21
223.0588348133
  0
LINE
  5
2AC
100
AcDbEntity
  8
3_ALL_AXES
100
AcDbLine
 62
7
  6
CONTINUOUS
 10
143.3007178532
 20
223.0588348133
 11
140.9007178532
 21
223.0588348133
  0
LINE
  5
2AD
100
AcDbEntity
  8
3_ALL_AXES
100
AcDbLine
 62
7
  6
CONTINUOUS
 10
146.3007178532
 20
223.0588348133
 11
143.9007178532
 21
223.0588348133
  0
LINE
  5
2AE
100
AcDbEntity
  8
3_ALL_AXES
100
AcDbLine
 62
7
  6
CONTINUOUS
 10
140.3007178532
 20
223.0588348133
 11
137.9007178532
 21
223.0588348133
  0
LINE
  5
2AF
100
AcDbEntity
  8
3_ALL_AXES
100
AcDbLine
 62
7
  6
CONTINUOUS
 10
137.3007178532
 20
223.0588348133
 11
134.9007178532
 21
223.0588348133
  0
LINE
  5
2B0
100
AcDbEntity
  8
7_ALL_FEATURES
100
AcDbLine
 62
7
  6
CONTINUOUS
 10
134.3007178532
 20
223.0588348133
 11
132.6007178532
 21
223.0588348133
  0
LINE
  5
2B1
100
AcDbEntity
  8
6_ALL_SURFS
100
AcDbLine
 62
7
  6
CONTINUOUS
 10
70.5944212111
 20
223.0588348133
 11
72.6007178532
 21
223.0588348133
  0
LINE
  5
2B2
100
AcDbEntity
  8
6_ALL_SURFS
100
AcDbLine
 62
7
  6
CONTINUOUS
 10
73.2007178532
 20
223.0588348133
 11
75.6007178532
 21
223.0588348133
  0
LINE
  5
2B3
100
AcDbEntity
  8
6_ALL_SURFS
100
AcDbLine
 62
7
  6
CONTINUOUS
 10
76.2007178532
 20
223.0588348133
 11
78.6007178532
 21
223.0588348133
  0
LINE
  5
2B4
100
AcDbEntity
  8
6_ALL_SURFS
100
AcDbLine
 62
7
  6
CONTINUOUS
 10
79.2007178532
 20
223.0588348133
 11
81.6007178532
 21
223.0588348133
  0
LINE
  5
2B5
100
AcDbEntity
  8
6_ALL_SURFS
100
AcDbLine
 62
7
  6
CONTINUOUS
 10
82.2007178532
 20
223.0588348133
 11
84.6007178532
 21
223.0588348133
  0
LINE
  5
2B6
100
AcDbEntity
  8
6_ALL_SURFS
100
AcDbLine
 62
7
  6
CONTINUOUS
 10
85.2007178532
 20
223.0588348133
 11
87.6007178532
 21
223.0588348133
  0
LINE
  5
2B7
100
AcDbEntity
  8
6_ALL_SURFS
100
AcDbLine
 62
7
  6
CONTINUOUS
 10
88.2007178532
 20
223.0588348133
 11
89.9007178532
 21
223.0588348133
  0
LINE
  5
2B8
100
AcDbEntity
  8
7_ALL_FEATURES
100
AcDbLine
 62
7
  6
CONTINUOUS
 10
129.9257178532
 20
230.3088348133
 11
129.1757178532
 21
230.3088348133
  0
LINE
  5
2B9
100
AcDbEntity
  8
7_ALL_FEATURES
100
AcDbLine
 62
7
  6
CONTINUOUS
 10
93.3257178532
 20
230.3088348133
 11
92.5757178532
 21
230.3088348133
  0
LINE
  5
2BA
100
AcDbEntity
  8
7_ALL_FEATURES
100
AcDbLine
 62
7
  6
CONTINUOUS
 10
91.7007178532
 20
231.1838348133
 11
92.5757178532
 21
231.1838348133
  0
LINE
  5
2BB
100
AcDbEntity
  8
7_ALL_FEATURES
100
AcDbLine
 62
7
  6
CONTINUOUS
 10
93.3257178532
 20
231.1838348133
 11
94.2007178532
 21
231.1838348133
  0
LINE
  5
2BC
100
AcDbEntity
  8
7_ALL_FEATURES
100
AcDbLine
 62
7
  6
CONTINUOUS
 10
129.9257178532
 20
231.1838348133
 11
130.8007178532
 21
231.1838348133
  0
LINE
  5
2BD
100
AcDbEntity
  8
7_ALL_FEATURES
100
AcDbLine
 62
7
  6
CONTINUOUS
 10
128.3007178532
 20
231.1838348133
 11
129.1757178532
 21
231.1838348133
  0
LINE
  5
2BE
100
AcDbEntity
  8
7_ALL_FEATURES
100
AcDbLine
 62
7
  6
CONTINUOUS
 10
130.8007178532
 20
231.9338348133
 11
129.9257178532
 21
231.9338348133
  0
LINE
  5
2BF
100
AcDbEntity
  8
7_ALL_FEATURES
100
AcDbLine
 62
7
  6
CONTINUOUS
 10
129.1757178532
 20
231.9338348133
 11
128.3007178532
 21
231.9338348133
  0
LINE
  5
2C0
100
AcDbEntity
  8
7_ALL_FEATURES
100
AcDbLine
 62
7
  6
CONTINUOUS
 10
94.2007178532
 20
231.9338348133
 11
93.3257178532
 21
231.9338348133
  0
LINE
  5
2C1
100
AcDbEntity
  8
7_ALL_FEATURES
100
AcDbLine
 62
7
  6
CONTINUOUS
 10
92.5757178532
 20
231.9338348133
 11
91.7007178532
 21
231.9338348133
  0
LINE
  5
2C2
100
AcDbEntity
  8
7_ALL_FEATURES
100
AcDbLine
 62
7
  6
CONTINUOUS
 10
92.5757178532
 20
232.8088348133
 11
93.3257178532
 21
232.8088348133
  0
LINE
  5
2C3
100
AcDbEntity
  8
7_ALL_FEATURES
100
AcDbLine
 62
7
  6
CONTINUOUS
 10
129.1757178532
 20
232.8088348133
 11
129.9257178532
 21
232.8088348133
  0
LINE
  5
2C4
100
AcDbEntity
  8
7_ALL_FEATURES
100
AcDbLine
 62
7
  6
CONTINUOUS
 10
131.7007178532
 20
235.4588348133
 11
130.7507178532
 21
235.4588348133
  0
LINE
  5
2C5
100
AcDbEntity
  8
7_ALL_FEATURES
100
AcDbLine
 62
7
  6
CONTINUOUS
 10
90.8007178532
 20
235.4588348133
 11
91.7507178532
 21
235.4588348133
  0
LINE
  5
2C6
100
AcDbEntity
  8
3_ALL_AXES
100
AcDbLine
 62
7
  6
CONTINUOUS
 10
134.9007178532
 20
223.0588348133
 11
134.6007178532
 21
223.2088348133
  0
LINE
  5
2C7
100
AcDbEntity
  8
7_ALL_FEATURES
100
AcDbLine
 62
7
  6
CONTINUOUS
 10
90.0507178532
 20
234.7088348133
 11
90.0507178532
 21
221.3088348133
  0
LINE
  5
2C8
100
AcDbEntity
  8
7_ALL_FEATURES
100
AcDbLine
 62
7
  6
CONTINUOUS
 10
91.7007178532
 20
231.1838348133
 11
91.7007178532
 21
231.9338348133
  0
LINE
  5
2C9
100
AcDbEntity
  8
7_ALL_FEATURES
100
AcDbLine
 62
7
  6
CONTINUOUS
 10
92.5757178532
 20
232.8088348133
 11
92.5757178532
 21
231.9338348133
  0
LINE
  5
2CA
100
AcDbEntity
  8
7_ALL_FEATURES
100
AcDbLine
 62
7
  6
CONTINUOUS
 10
92.5757178532
 20
231.1838348133
 11
92.5757178532
 21
230.3088348133
  0
LINE
  5
2CB
100
AcDbEntity
  8
7_ALL_FEATURES
100
AcDbLine
 62
7
  6
CONTINUOUS
 10
93.2507178532
 20
280.051937801
 11
95.2507178532
 21
289.0733548083
  0
LINE
  5
2CC
100
AcDbEntity
  8
3_ALL_AXES
100
AcDbLine
 62
7
  6
CONTINUOUS
 10
137.9007178532
 20
223.0588348133
 11
137.6007178532
 21
223.2088348133
  0
LINE
  5
2CD
100
AcDbEntity
  8
3_ALL_AXES
100
AcDbLine
 62
7
  6
CONTINUOUS
 10
140.9007178532
 20
223.0588348133
 11
140.6007178532
 21
223.2088348133
  0
LINE
  5
2CE
100
AcDbEntity
  8
3_ALL_AXES
100
AcDbLine
 62
7
  6
CONTINUOUS
 10
143.9007178532
 20
223.0588348133
 11
143.6007178532
 21
223.2088348133
  0
LINE
  5
2CF
100
AcDbEntity
  8
7_ALL_FEATURES
100
AcDbLine
 62
7
  6
CONTINUOUS
 10
93.2507178532
 20
236.9588348133
 11
93.2507178532
 21
280.051937801
  0
LINE
  5
2D0
100
AcDbEntity
  8
7_ALL_FEATURES
100
AcDbLine
 62
7
  6
CONTINUOUS
 10
93.3257178532
 20
230.3088348133
 11
93.3257178532
 21
231.1838348133
  0
LINE
  5
2D1
100
AcDbEntity
  8
7_ALL_FEATURES
100
AcDbLine
 62
7
  6
CONTINUOUS
 10
93.3257178532
 20
231.9338348133
 11
93.3257178532
 21
232.8088348133
  0
LINE
  5
2D2
100
AcDbEntity
  8
7_ALL_FEATURES
100
AcDbLine
 62
7
  6
CONTINUOUS
 10
94.2007178532
 20
231.9338348133
 11
94.2007178532
 21
231.1838348133
  0
LINE
  5
2D3
100
AcDbEntity
  8
7_ALL_FEATURES
100
AcDbLine
 62
7
  6
CONTINUOUS
 10
95.2507178532
 20
299.6088348133
 11
95.2507178532
 21
289.0733548083
  0
LINE
  5
2D4
100
AcDbEntity
  8
6_ALL_SURFS
100
AcDbLine
 62
7
  6
CONTINUOUS
 10
95.2507178532
 20
299.6088348133
 11
95.2507178532
 21
300.0588348133
  0
LINE
  5
2D5
100
AcDbEntity
  8
3_ALL_AXES
100
AcDbLine
 62
7
  6
CONTINUOUS
 10
146.9007178532
 20
223.0588348133
 11
146.6007178532
 21
223.2088348133
  0
LINE
  5
2D6
100
AcDbEntity
  8
3_ALL_AXES
100
AcDbLine
 62
7
  6
CONTINUOUS
 10
149.9007178532
 20
223.0588348133
 11
149.6007178532
 21
223.2088348133
  0
LINE
  5
2D7
100
AcDbEntity
  8
7_ALL_FEATURES
100
AcDbLine
 62
7
  6
CONTINUOUS
 10
98.0007178532
 20
296.7838348133
 11
98.0007178532
 21
297.5338348133
  0
LINE
  5
2D8
100
AcDbEntity
  8
7_ALL_FEATURES
100
AcDbLine
 62
7
  6
CONTINUOUS
 10
98.8757178532
 20
298.4088348133
 11
98.8757178532
 21
297.5338348133
  0
LINE
  5
2D9
100
AcDbEntity
  8
7_ALL_FEATURES
100
AcDbLine
 62
7
  6
CONTINUOUS
 10
98.8757178532
 20
296.7838348133
 11
98.8757178532
 21
295.9088348133
  0
LINE
  5
2DA
100
AcDbEntity
  8
7_ALL_FEATURES
100
AcDbLine
 62
7
  6
CONTINUOUS
 10
99.6257178532
 20
295.9088348133
 11
99.6257178532
 21
296.7838348133
  0
LINE
  5
2DB
100
AcDbEntity
  8
7_ALL_FEATURES
100
AcDbLine
 62
7
  6
CONTINUOUS
 10
99.6257178532
 20
297.5338348133
 11
99.6257178532
 21
298.4088348133
  0
LINE
  5
2DC
100
AcDbEntity
  8
7_ALL_FEATURES
100
AcDbLine
 62
7
  6
CONTINUOUS
 10
100.5007178532
 20
297.5338348133
 11
100.5007178532
 21
296.7838348133
  0
LINE
  5
2DD
100
AcDbEntity
  8
7_ALL_FEATURES
100
AcDbLine
 62
7
  6
CONTINUOUS
 10
122.0007178532
 20
296.7838348133
 11
122.0007178532
 21
297.5338348133
  0
LINE
  5
2DE
100
AcDbEntity
  8
7_ALL_FEATURES
100
AcDbLine
 62
7
  6
CONTINUOUS
 10
122.8757178532
 20
298.4088348133
 11
122.8757178532
 21
297.5338348133
  0
LINE
  5
2DF
100
AcDbEntity
  8
7_ALL_FEATURES
100
AcDbLine
 62
7
  6
CONTINUOUS
 10
122.8757178532
 20
296.7838348133
 11
122.8757178532
 21
295.9088348133
  0
LINE
  5
2E0
100
AcDbEntity
  8
7_ALL_FEATURES
100
AcDbLine
 62
7
  6
CONTINUOUS
 10
123.6257178532
 20
295.9088348133
 11
123.6257178532
 21
296.7838348133
  0
LINE
  5
2E1
100
AcDbEntity
  8
7_ALL_FEATURES
100
AcDbLine
 62
7
  6
CONTINUOUS
 10
123.6257178532
 20
297.5338348133
 11
123.6257178532
 21
298.4088348133
  0
LINE
  5
2E2
100
AcDbEntity
  8
7_ALL_FEATURES
100
AcDbLine
 62
7
  6
CONTINUOUS
 10
124.5007178532
 20
297.5338348133
 11
124.5007178532
 21
296.7838348133
  0
LINE
  5
2E3
100
AcDbEntity
  8
7_ALL_FEATURES
100
AcDbLine
 62
7
  6
CONTINUOUS
 10
127.2507178532
 20
289.0733548083
 11
127.2507178532
 21
300.0588348133
  0
LINE
  5
2E4
100
AcDbEntity
  8
7_ALL_FEATURES
100
AcDbLine
 62
7
  6
CONTINUOUS
 10
128.3007178532
 20
231.1838348133
 11
128.3007178532
 21
231.9338348133
  0
LINE
  5
2E5
100
AcDbEntity
  8
7_ALL_FEATURES
100
AcDbLine
 62
7
  6
CONTINUOUS
 10
129.1757178532
 20
232.8088348133
 11
129.1757178532
 21
231.9338348133
  0
LINE
  5
2E6
100
AcDbEntity
  8
7_ALL_FEATURES
100
AcDbLine
 62
7
  6
CONTINUOUS
 10
129.1757178532
 20
231.1838348133
 11
129.1757178532
 21
230.3088348133
  0
LINE
  5
2E7
100
AcDbEntity
  8
7_ALL_FEATURES
100
AcDbLine
 62
7
  6
CONTINUOUS
 10
129.2507178532
 20
280.051937801
 11
129.2507178532
 21
236.9588348133
  0
LINE
  5
2E8
100
AcDbEntity
  8
7_ALL_FEATURES
100
AcDbLine
 62
7
  6
CONTINUOUS
 10
129.9257178532
 20
230.3088348133
 11
129.9257178532
 21
231.1838348133
  0
LINE
  5
2E9
100
AcDbEntity
  8
7_ALL_FEATURES
100
AcDbLine
 62
7
  6
CONTINUOUS
 10
129.9257178532
 20
231.9338348133
 11
129.9257178532
 21
232.8088348133
  0
LINE
  5
2EA
100
AcDbEntity
  8
7_ALL_FEATURES
100
AcDbLine
 62
7
  6
CONTINUOUS
 10
130.8007178532
 20
231.9338348133
 11
130.8007178532
 21
231.1838348133
  0
LINE
  5
2EB
100
AcDbEntity
  8
6_ALL_SURFS
100
AcDbLine
 62
7
  6
CONTINUOUS
 10
72.6007178532
 20
223.0588348133
 11
72.9007178532
 21
223.2088348133
  0
LINE
  5
2EC
100
AcDbEntity
  8
6_ALL_SURFS
100
AcDbLine
 62
7
  6
CONTINUOUS
 10
75.6007178532
 20
223.0588348133
 11
75.9007178532
 21
223.2088348133
  0
LINE
  5
2ED
100
AcDbEntity
  8
6_ALL_SURFS
100
AcDbLine
 62
7
  6
CONTINUOUS
 10
78.6007178532
 20
223.0588348133
 11
78.9007178532
 21
223.2088348133
  0
LINE
  5
2EE
100
AcDbEntity
  8
7_ALL_FEATURES
100
AcDbLine
 62
7
  6
CONTINUOUS
 10
100.2684878883
 20
277.2338348133
 11
101.0197904758
 21
277.2338348133
  0
LINE
  5
2EF
100
AcDbEntity
  8
7_ALL_FEATURES
100
AcDbLine
 62
7
  6
CONTINUOUS
 10
121.4816452305
 20
277.2338348133
 11
122.232947818
 21
277.2338348133
  0
LINE
  5
2F0
100
AcDbEntity
  8
7_ALL_FEATURES
100
AcDbLine
 62
7
  6
CONTINUOUS
 10
122.232947818
 20
278.4838348133
 11
121.4816452305
 21
278.4838348133
  0
LINE
  5
2F1
100
AcDbEntity
  8
7_ALL_FEATURES
100
AcDbLine
 62
7
  6
CONTINUOUS
 10
101.0197904758
 20
278.4838348133
 11
100.2684878883
 21
278.4838348133
  0
LINE
  5
2F2
100
AcDbEntity
  8
7_ALL_FEATURES
100
AcDbLine
 62
7
  6
CONTINUOUS
 10
132.4507178532
 20
221.3088348133
 11
132.4507178532
 21
234.7088348133
  0
LINE
  5
2F3
100
AcDbEntity
  8
6_ALL_SURFS
100
AcDbLine
 62
7
  6
CONTINUOUS
 10
81.6007178532
 20
223.0588348133
 11
81.9007178532
 21
223.2088348133
  0
LINE
  5
2F4
100
AcDbEntity
  8
6_ALL_SURFS
100
AcDbLine
 62
7
  6
CONTINUOUS
 10
84.6007178532
 20
223.0588348133
 11
84.9007178532
 21
223.2088348133
  0
LINE
  5
2F5
100
AcDbEntity
  8
6_ALL_SURFS
100
AcDbLine
 62
7
  6
CONTINUOUS
 10
87.6007178532
 20
223.0588348133
 11
87.9007178532
 21
223.2088348133
  0
LINE
  5
2F6
100
AcDbEntity
  8
7_ALL_FEATURES
100
AcDbLine
 62
7
  6
CONTINUOUS
 10
127.2507178532
 20
289.0733548083
 11
129.2507178532
 21
280.051937801
  0
LINE
  5
2F7
100
AcDbEntity
  8
7_ALL_FEATURES
100
AcDbLine
 62
7
  6
CONTINUOUS
 10
123.6257178532
 20
295.9088348133
 11
122.8757178532
 21
295.9088348133
  0
LINE
  5
2F8
100
AcDbEntity
  8
7_ALL_FEATURES
100
AcDbLine
 62
7
  6
CONTINUOUS
 10
99.6257178532
 20
295.9088348133
 11
98.8757178532
 21
295.9088348133
  0
LINE
  5
2F9
100
AcDbEntity
  8
7_ALL_FEATURES
100
AcDbLine
 62
7
  6
CONTINUOUS
 10
98.0007178532
 20
296.7838348133
 11
98.8757178532
 21
296.7838348133
  0
LINE
  5
2FA
100
AcDbEntity
  8
7_ALL_FEATURES
100
AcDbLine
 62
7
  6
CONTINUOUS
 10
99.6257178532
 20
296.7838348133
 11
100.5007178532
 21
296.7838348133
  0
LINE
  5
2FB
100
AcDbEntity
  8
7_ALL_FEATURES
100
AcDbLine
 62
7
  6
CONTINUOUS
 10
123.6257178532
 20
296.7838348133
 11
124.5007178532
 21
296.7838348133
  0
LINE
  5
2FC
100
AcDbEntity
  8
7_ALL_FEATURES
100
AcDbLine
 62
7
  6
CONTINUOUS
 10
122.0007178532
 20
296.7838348133
 11
122.8757178532
 21
296.7838348133
  0
LINE
  5
2FD
100
AcDbEntity
  8
7_ALL_FEATURES
100
AcDbLine
 62
7
  6
CONTINUOUS
 10
124.5007178532
 20
297.5338348133
 11
123.6257178532
 21
297.5338348133
  0
LINE
  5
2FE
100
AcDbEntity
  8
7_ALL_FEATURES
100
AcDbLine
 62
7
  6
CONTINUOUS
 10
122.8757178532
 20
297.5338348133
 11
122.0007178532
 21
297.5338348133
  0
LINE
  5
2FF
100
AcDbEntity
  8
7_ALL_FEATURES
100
AcDbLine
 62
7
  6
CONTINUOUS
 10
100.5007178532
 20
297.5338348133
 11
99.6257178532
 21
297.5338348133
  0
LINE
  5
300
100
AcDbEntity
  8
7_ALL_FEATURES
100
AcDbLine
 62
7
  6
CONTINUOUS
 10
98.8757178532
 20
297.5338348133
 11
98.0007178532
 21
297.5338348133
  0
LINE
  5
301
100
AcDbEntity
  8
7_ALL_FEATURES
100
AcDbLine
 62
7
  6
CONTINUOUS
 10
98.8757178532
 20
298.4088348133
 11
99.6257178532
 21
298.4088348133
  0
LINE
  5
302
100
AcDbEntity
  8
7_ALL_FEATURES
100
AcDbLine
 62
7
  6
CONTINUOUS
 10
122.8757178532
 20
298.4088348133
 11
123.6257178532
 21
298.4088348133
  0
LINE
  5
303
100
AcDbEntity
  8
7_ALL_FEATURES
100
AcDbLine
 62
7
  6
CONTINUOUS
 10
126.9507178532
 20
300.3588348133
 11
113.8964691642
 21
300.3588348133
  0
LINE
  5
304
100
AcDbEntity
  8
7_ALL_FEATURES
100
AcDbLine
 62
7
  6
CONTINUOUS
 10
108.6049665421
 20
300.3588348133
 11
96.0007178532
 21
300.3588348133
  0
LINE
  5
305
100
AcDbEntity
  8
6_ALL_SURFS
100
AcDbLine
 62
7
  6
CONTINUOUS
 10
95.5507178532
 20
300.3588348133
 11
96.0007178532
 21
300.3588348133
  0
LINE
  5
306
100
AcDbEntity
  8
7_ALL_FEATURES
100
AcDbLine
 62
7
  6
CONTINUOUS
 10
109.4507178532
 20
300.3588348133
 11
113.0507178532
 21
300.3588348133
  0
LINE
  5
307
100
AcDbEntity
  8
3_ALL_AXES
100
AcDbLine
 62
7
  6
CONTINUOUS
 10
134.6007178532
 20
223.2088348133
 11
134.3007178532
 21
223.0588348133
  0
LINE
  5
308
100
AcDbEntity
  8
3_ALL_AXES
100
AcDbLine
 62
7
  6
CONTINUOUS
 10
137.6007178532
 20
223.2088348133
 11
137.3007178532
 21
223.0588348133
  0
LINE
  5
309
100
AcDbEntity
  8
3_ALL_AXES
100
AcDbLine
 62
7
  6
CONTINUOUS
 10
140.6007178532
 20
223.2088348133
 11
140.3007178532
 21
223.0588348133
  0
LINE
  5
30A
100
AcDbEntity
  8
3_ALL_AXES
100
AcDbLine
 62
7
  6
CONTINUOUS
 10
143.6007178532
 20
223.2088348133
 11
143.3007178532
 21
223.0588348133
  0
LINE
  5
30B
100
AcDbEntity
  8
3_ALL_AXES
100
AcDbLine
 62
7
  6
CONTINUOUS
 10
146.6007178532
 20
223.2088348133
 11
146.3007178532
 21
223.0588348133
  0
LINE
  5
30C
100
AcDbEntity
  8
3_ALL_AXES
100
AcDbLine
 62
7
  6
CONTINUOUS
 10
149.6007178532
 20
223.2088348133
 11
149.3007178532
 21
223.0588348133
  0
LINE
  5
30D
100
AcDbEntity
  8
3_ALL_AXES
100
AcDbLine
 62
7
  6
CONTINUOUS
 10
211.3017414471
 20
228.8088828795
 11
211.3017414471
 21
234.3087867471
  0
LINE
  5
30E
100
AcDbEntity
  8
3_ALL_AXES
100
AcDbLine
 62
7
  6
CONTINUOUS
 10
211.3017414471
 20
294.4088828795
 11
211.3017414471
 21
299.9087867471
  0
LINE
  5
30F
100
AcDbEntity
  8
3_ALL_AXES
100
AcDbLine
 62
7
  6
CONTINUOUS
 10
211.4524617767
 20
228.8088348133
 11
211.4524617767
 21
234.3088348133
  0
LINE
  5
310
100
AcDbEntity
  8
3_ALL_AXES
100
AcDbLine
 62
7
  6
CONTINUOUS
 10
211.4524617767
 20
294.4088348133
 11
211.4524617767
 21
299.9088348133
  0
LINE
  5
311
100
AcDbEntity
  8
7_ALL_FEATURES
100
AcDbLine
 62
7
  6
CONTINUOUS
 10
212.3017414471
 20
220.5588348133
 11
212.3017414471
 21
300.3588348133
  0
LINE
  5
312
100
AcDbEntity
  8
6_ALL_SURFS
100
AcDbLine
 62
7
  6
CONTINUOUS
 10
213.8017414471
 20
220.5712678248
 11
213.8017414471
 21
220.5588348133
  0
LINE
  5
313
100
AcDbEntity
  8
7_ALL_FEATURES
100
AcDbLine
 62
7
  6
CONTINUOUS
 10
213.8017414471
 20
220.5712678248
 11
213.8017414471
 21
222.0588348133
  0
LINE
  5
314
100
AcDbEntity
  8
6_ALL_SURFS
100
AcDbLine
 62
7
  6
CONTINUOUS
 10
213.8017414471
 20
222.0588348133
 11
213.8017414471
 21
223.2088348133
  0
LINE
  5
315
100
AcDbEntity
  8
6_ALL_SURFS
100
AcDbLine
 62
7
  6
CONTINUOUS
 10
213.8017414471
 20
230.6588348133
 11
213.8017414471
 21
232.4588348133
  0
LINE
  5
316
100
AcDbEntity
  8
7_ALL_FEATURES
100
AcDbLine
 62
7
  6
CONTINUOUS
 10
213.8017414471
 20
223.2088348133
 11
213.8017414471
 21
299.6088348133
  0
LINE
  5
317
100
AcDbEntity
  8
6_ALL_SURFS
100
AcDbLine
 62
7
  6
CONTINUOUS
 10
213.8017414471
 20
236.9588348133
 11
213.8017414471
 21
289.0733548083
  0
LINE
  5
318
100
AcDbEntity
  8
6_ALL_SURFS
100
AcDbLine
 62
7
  6
CONTINUOUS
 10
213.8017414471
 20
299.3588348133
 11
213.8017414471
 21
300.3588348133
  0
LINE
  5
319
100
AcDbEntity
  8
3_ALL_AXES
100
AcDbLine
 62
7
  6
CONTINUOUS
 10
212.3017414471
 20
295.1214650715
 11
211.4524617767
 21
294.4088348133
  0
LINE
  5
31A
100
AcDbEntity
  8
3_ALL_AXES
100
AcDbLine
 62
7
  6
CONTINUOUS
 10
212.3017414471
 20
233.5962045551
 11
211.4524617767
 21
234.3088348133
  0
LINE
  5
31B
100
AcDbEntity
  8
3_ALL_AXES
100
AcDbLine
 62
7
  6
CONTINUOUS
 10
212.3017414471
 20
229.5214650715
 11
211.4524617767
 21
228.8088348133
  0
LINE
  5
31C
100
AcDbEntity
  8
3_ALL_AXES
100
AcDbLine
 62
7
  6
CONTINUOUS
 10
212.3017414471
 20
299.1962045551
 11
211.4524617767
 21
299.9088348133
  0
LINE
  5
31D
100
AcDbEntity
  8
7_ALL_FEATURES
100
AcDbLine
 62
7
  6
CONTINUOUS
 10
2462.3017414471
 20
220.5588348133
 11
2460.8017414471
 21
220.5588348133
  0
LINE
  5
31E
100
AcDbEntity
  8
6_ALL_SURFS
100
AcDbLine
 62
7
  6
CONTINUOUS
 10
2460.8017414471
 20
220.5588348133
 11
213.8017414471
 21
220.5588348133
  0
LINE
  5
31F
100
AcDbEntity
  8
7_ALL_FEATURES
100
AcDbLine
 62
7
  6
CONTINUOUS
 10
212.3017414471
 20
220.5588348133
 11
213.8017414471
 21
220.5588348133
  0
LINE
  5
320
100
AcDbEntity
  8
6_ALL_SURFS
100
AcDbLine
 62
9
  6
CONTINUOUS
 10
2460.8017414471
 20
220.8588348133
 11
213.8017414471
 21
220.8588348133
  0
LINE
  5
321
100
AcDbEntity
  8
7_ALL_FEATURES
100
AcDbLine
 62
9
  6
CONTINUOUS
 10
2462.3017414471
 20
221.3088348133
 11
2460.8017414471
 21
221.3088348133
  0
LINE
  5
322
100
AcDbEntity
  8
7_ALL_FEATURES
100
AcDbLine
 62
9
  6
CONTINUOUS
 10
212.3017414471
 20
221.3088348133
 11
213.8017414471
 21
221.3088348133
  0
LINE
  5
323
100
AcDbEntity
  8
6_ALL_SURFS
100
AcDbLine
 62
9
  6
CONTINUOUS
 10
213.8017414471
 20
221.7588348133
 11
2460.8017414471
 21
221.7588348133
  0
LINE
  5
324
100
AcDbEntity
  8
6_ALL_SURFS
100
AcDbLine
 62
7
  6
CONTINUOUS
 10
213.8017414471
 20
222.0588348133
 11
2460.8017414471
 21
222.0588348133
  0
LINE
  5
325
100
AcDbEntity
  8
6_ALL_SURFS
100
AcDbLine
 62
9
  6
CONTINUOUS
 10
2460.8017414471
 20
222.2733819723
 11
213.8017414471
 21
222.2733819723
  0
LINE
  5
326
100
AcDbEntity
  8
6_ALL_SURFS
100
AcDbLine
 62
7
  6
CONTINUOUS
 10
2460.8017414471
 20
223.0588348133
 11
213.8017414471
 21
223.0588348133
  0
LINE
  5
327
100
AcDbEntity
  8
6_ALL_SURFS
100
AcDbLine
 62
7
  6
CONTINUOUS
 10
213.8017414471
 20
223.2088348133
 11
2460.8017414471
 21
223.2088348133
  0
LINE
  5
328
100
AcDbEntity
  8
6_ALL_SURFS
100
AcDbLine
 62
9
  6
CONTINUOUS
 10
213.8017414471
 20
223.3588348133
 11
2460.8017414471
 21
223.3588348133
  0
LINE
  5
329
100
AcDbEntity
  8
6_ALL_SURFS
100
AcDbLine
 62
9
  6
CONTINUOUS
 10
2460.8017414471
 20
224.2713342642
 11
213.8017414471
 21
224.2713342642
  0
LINE
  5
32A
100
AcDbEntity
  8
6_ALL_SURFS
100
AcDbLine
 62
9
  6
CONTINUOUS
 10
2460.8017414471
 20
225.2943318043
 11
213.8017414471
 21
225.2943318043
  0
LINE
  5
32B
100
AcDbEntity
  8
6_ALL_SURFS
100
AcDbLine
 62
9
  6
CONTINUOUS
 10
213.8017414471
 20
227.8280252945
 11
2460.8017414471
 21
227.8280252945
  0
LINE
  5
32C
100
AcDbEntity
  8
6_ALL_SURFS
100
AcDbLine
 62
9
  6
CONTINUOUS
 10
213.8017414471
 20
228.1690244745
 11
2460.8017414471
 21
228.1690244745
  0
LINE
  5
32D
100
AcDbEntity
  8
6_ALL_SURFS
100
AcDbLine
 62
9
  6
CONTINUOUS
 10
213.8017414471
 20
228.3588348133
 11
2460.8017414471
 21
228.3588348133
  0
LINE
  5
32E
100
AcDbEntity
  8
6_ALL_SURFS
100
AcDbLine
 62
7
  6
CONTINUOUS
 10
2460.8017414471
 20
228.6588348133
 11
213.8017414471
 21
228.6588348133
  0
LINE
  5
32F
100
AcDbEntity
  8
3_ALL_AXES
100
AcDbLine
 62
7
  6
CONTINUOUS
 10
211.4524617767
 20
228.8088348133
 11
211.3017414471
 21
228.8088348133
  0
LINE
  5
330
100
AcDbEntity
  8
3_ALL_AXES
100
AcDbLine
 62
7
  6
CONTINUOUS
 10
2463.1510211175
 20
228.8088348133
 11
2463.3017414471
 21
228.8088348133
  0
LINE
  5
331
100
AcDbEntity
  8
6_ALL_SURFS
100
AcDbLine
 62
9
  6
CONTINUOUS
 10
2460.8017414471
 20
230.6588348133
 11
213.8017414471
 21
230.6588348133
  0
LINE
  5
332
100
AcDbEntity
  8
6_ALL_SURFS
100
AcDbLine
 62
9
  6
CONTINUOUS
 10
2460.8017414471
 20
232.4588348133
 11
213.8017414471
 21
232.4588348133
  0
LINE
  5
333
100
AcDbEntity
  8
3_ALL_AXES
100
AcDbLine
 62
7
  6
CONTINUOUS
 10
211.4524617767
 20
234.3088348133
 11
211.3017414471
 21
234.3088348133
  0
LINE
  5
334
100
AcDbEntity
  8
3_ALL_AXES
100
AcDbLine
 62
7
  6
CONTINUOUS
 10
2463.1510211175
 20
234.3088348133
 11
2463.3017414471
 21
234.3088348133
  0
LINE
  5
335
100
AcDbEntity
  8
6_ALL_SURFS
100
AcDbLine
 62
7
  6
CONTINUOUS
 10
2460.8017414471
 20
234.4588348133
 11
213.8017414471
 21
234.4588348133
  0
LINE
  5
336
100
AcDbEntity
  8
7_ALL_FEATURES
100
AcDbLine
 62
9
  6
CONTINUOUS
 10
2462.3017414471
 20
234.7088348133
 11
2460.8017414471
 21
234.7088348133
  0
LINE
  5
337
100
AcDbEntity
  8
7_ALL_FEATURES
100
AcDbLine
 62
9
  6
CONTINUOUS
 10
213.8017414471
 20
234.7088348133
 11
212.3017414471
 21
234.7088348133
  0
LINE
  5
338
100
AcDbEntity
  8
6_ALL_SURFS
100
AcDbLine
 62
9
  6
CONTINUOUS
 10
213.8017414471
 20
234.7588348133
 11
2460.8017414471
 21
234.7588348133
  0
LINE
  5
339
100
AcDbEntity
  8
7_ALL_FEATURES
100
AcDbLine
 62
7
  6
CONTINUOUS
 10
2462.3017414471
 20
235.4588348133
 11
2460.8017414471
 21
235.4588348133
  0
LINE
  5
33A
100
AcDbEntity
  8
7_ALL_FEATURES
100
AcDbLine
 62
7
  6
CONTINUOUS
 10
213.8017414471
 20
235.4588348133
 11
212.3017414471
 21
235.4588348133
  0
LINE
  5
33B
100
AcDbEntity
  8
7_ALL_FEATURES
100
AcDbLine
 62
9
  6
CONTINUOUS
 10
2462.3017414471
 20
236.9588348133
 11
2460.8017414471
 21
236.9588348133
  0
LINE
  5
33C
100
AcDbEntity
  8
7_ALL_FEATURES
100
AcDbLine
 62
9
  6
CONTINUOUS
 10
212.3017414471
 20
236.9588348133
 11
213.8017414471
 21
236.9588348133
  0
LINE
  5
33D
100
AcDbEntity
  8
6_ALL_SURFS
100
AcDbLine
 62
9
  6
CONTINUOUS
 10
2460.8017414471
 20
279.5043487426
 11
213.8017414471
 21
279.5043487426
  0
LINE
  5
33E
100
AcDbEntity
  8
7_ALL_FEATURES
100
AcDbLine
 62
7
  6
CONTINUOUS
 10
213.8017414471
 20
280.051937801
 11
212.3017414471
 21
280.051937801
  0
LINE
  5
33F
100
AcDbEntity
  8
7_ALL_FEATURES
100
AcDbLine
 62
7
  6
CONTINUOUS
 10
2460.8017414471
 20
280.051937801
 11
2462.3017414471
 21
280.051937801
  0
LINE
  5
340
100
AcDbEntity
  8
6_ALL_SURFS
100
AcDbLine
 62
9
  6
CONTINUOUS
 10
2460.8017414471
 20
280.5865468123
 11
213.8017414471
 21
280.5865468123
  0
LINE
  5
341
100
AcDbEntity
  8
7_ALL_FEATURES
100
AcDbLine
 62
7
  6
CONTINUOUS
 10
213.8017414471
 20
289.0733548083
 11
212.3017414471
 21
289.0733548083
  0
LINE
  5
342
100
AcDbEntity
  8
7_ALL_FEATURES
100
AcDbLine
 62
7
  6
CONTINUOUS
 10
2460.8017414471
 20
289.0733548083
 11
2462.3017414471
 21
289.0733548083
  0
LINE
  5
343
100
AcDbEntity
  8
6_ALL_SURFS
100
AcDbLine
 62
9
  6
CONTINUOUS
 10
2460.8017414471
 20
294.2388120982
 11
213.8017414471
 21
294.2388120982
  0
LINE
  5
344
100
AcDbEntity
  8
3_ALL_AXES
100
AcDbLine
 62
7
  6
CONTINUOUS
 10
211.4524617767
 20
294.4088348133
 11
211.3017414471
 21
294.4088348133
  0
LINE
  5
345
100
AcDbEntity
  8
3_ALL_AXES
100
AcDbLine
 62
7
  6
CONTINUOUS
 10
2463.1510211175
 20
294.4088348133
 11
2463.3017414471
 21
294.4088348133
  0
LINE
  5
346
100
AcDbEntity
  8
6_ALL_SURFS
100
AcDbLine
 62
9
  6
CONTINUOUS
 10
2460.8017414471
 20
294.9350358143
 11
213.8017414471
 21
294.9350358143
  0
LINE
  5
347
100
AcDbEntity
  8
6_ALL_SURFS
100
AcDbLine
 62
9
  6
CONTINUOUS
 10
213.8017414471
 20
295.3975444907
 11
2460.8017414471
 21
295.3975444907
  0
LINE
  5
348
100
AcDbEntity
  8
6_ALL_SURFS
100
AcDbLine
 62
9
  6
CONTINUOUS
 10
213.8017414471
 20
298.4233509423
 11
2460.8017414471
 21
298.4233509423
  0
LINE
  5
349
100
AcDbEntity
  8
6_ALL_SURFS
100
AcDbLine
 62
7
  6
CONTINUOUS
 10
2460.8017414471
 20
298.8588348133
 11
213.8017414471
 21
298.8588348133
  0
LINE
  5
34A
100
AcDbEntity
  8
6_ALL_SURFS
100
AcDbLine
 62
9
  6
CONTINUOUS
 10
2460.8017414471
 20
299.3588348133
 11
213.8017414471
 21
299.3588348133
  0
LINE
  5
34B
100
AcDbEntity
  8
7_ALL_FEATURES
100
AcDbLine
 62
9
  6
CONTINUOUS
 10
212.3017414471
 20
299.6088348133
 11
213.8017414471
 21
299.6088348133
  0
LINE
  5
34C
100
AcDbEntity
  8
7_ALL_FEATURES
100
AcDbLine
 62
9
  6
CONTINUOUS
 10
2460.8017414471
 20
299.6088348133
 11
2462.3017414471
 21
299.6088348133
  0
LINE
  5
34D
100
AcDbEntity
  8
3_ALL_AXES
100
AcDbLine
 62
7
  6
CONTINUOUS
 10
211.4524617767
 20
299.9088348133
 11
211.3017414471
 21
299.9088348133
  0
LINE
  5
34E
100
AcDbEntity
  8
3_ALL_AXES
100
AcDbLine
 62
7
  6
CONTINUOUS
 10
2463.1510211175
 20
299.9088348133
 11
2463.3017414471
 21
299.9088348133
  0
LINE
  5
34F
100
AcDbEntity
  8
6_ALL_SURFS
100
AcDbLine
 62
9
  6
CONTINUOUS
 10
213.8017414471
 20
300.0588348133
 11
2460.8017414471
 21
300.0588348133
  0
LINE
  5
350
100
AcDbEntity
  8
7_ALL_FEATURES
100
AcDbLine
 62
7
  6
CONTINUOUS
 10
212.3017414471
 20
300.3588348133
 11
213.8017414471
 21
300.3588348133
  0
LINE
  5
351
100
AcDbEntity
  8
6_ALL_SURFS
100
AcDbLine
 62
7
  6
CONTINUOUS
 10
213.8017414471
 20
300.3588348133
 11
2460.8017414471
 21
300.3588348133
  0
LINE
  5
352
100
AcDbEntity
  8
7_ALL_FEATURES
100
AcDbLine
 62
7
  6
CONTINUOUS
 10
2460.8017414471
 20
300.3588348133
 11
2462.3017414471
 21
300.3588348133
  0
LINE
  5
353
100
AcDbEntity
  8
3_ALL_AXES
100
AcDbLine
 62
7
  6
CONTINUOUS
 10
2462.3017414471
 20
299.1962045551
 11
2463.1510211175
 21
299.9088348133
  0
LINE
  5
354
100
AcDbEntity
  8
3_ALL_AXES
100
AcDbLine
 62
7
  6
CONTINUOUS
 10
2462.3017414471
 20
233.5962045551
 11
2463.1510211175
 21
234.3088348133
  0
LINE
  5
355
100
AcDbEntity
  8
3_ALL_AXES
100
AcDbLine
 62
7
  6
CONTINUOUS
 10
2462.3017414471
 20
229.5214650715
 11
2463.1510211175
 21
228.8088348133
  0
LINE
  5
356
100
AcDbEntity
  8
3_ALL_AXES
100
AcDbLine
 62
7
  6
CONTINUOUS
 10
2462.3017414471
 20
295.1214650715
 11
2463.1510211175
 21
294.4088348133
  0
LINE
  5
357
100
AcDbEntity
  8
7_ALL_FEATURES
100
AcDbLine
 62
7
  6
CONTINUOUS
 10
2460.8017414471
 20
220.5712678248
 11
2460.8017414471
 21
222.0588348133
  0
LINE
  5
358
100
AcDbEntity
  8
6_ALL_SURFS
100
AcDbLine
 62
7
  6
CONTINUOUS
 10
2460.8017414471
 20
220.5588348133
 11
2460.8017414471
 21
220.5712678248
  0
LINE
  5
359
100
AcDbEntity
  8
6_ALL_SURFS
100
AcDbLine
 62
7
  6
CONTINUOUS
 10
2460.8017414471
 20
222.0588348133
 11
2460.8017414471
 21
223.2088348133
  0
LINE
  5
35A
100
AcDbEntity
  8
6_ALL_SURFS
100
AcDbLine
 62
7
  6
CONTINUOUS
 10
2460.8017414471
 20
230.6588348133
 11
2460.8017414471
 21
232.4588348133
  0
LINE
  5
35B
100
AcDbEntity
  8
7_ALL_FEATURES
100
AcDbLine
 62
7
  6
CONTINUOUS
 10
2460.8017414471
 20
223.2088348133
 11
2460.8017414471
 21
299.6088348133
  0
LINE
  5
35C
100
AcDbEntity
  8
6_ALL_SURFS
100
AcDbLine
 62
7
  6
CONTINUOUS
 10
2460.8017414471
 20
236.9588348133
 11
2460.8017414471
 21
289.0733548083
  0
LINE
  5
35D
100
AcDbEntity
  8
6_ALL_SURFS
100
AcDbLine
 62
7
  6
CONTINUOUS
 10
2460.8017414471
 20
299.3588348133
 11
2460.8017414471
 21
300.3588348133
  0
LINE
  5
35E
100
AcDbEntity
  8
7_ALL_FEATURES
100
AcDbLine
 62
7
  6
CONTINUOUS
 10
2462.3017414471
 20
220.5588348133
 11
2462.3017414471
 21
300.3588348133
  0
LINE
  5
35F
100
AcDbEntity
  8
3_ALL_AXES
100
AcDbLine
 62
7
  6
CONTINUOUS
 10
2463.1510211175
 20
228.8088348133
 11
2463.1510211175
 21
234.3088348133
  0
LINE
  5
360
100
AcDbEntity
  8
3_ALL_AXES
100
AcDbLine
 62
7
  6
CONTINUOUS
 10
2463.1510211175
 20
294.4088348133
 11
2463.1510211175
 21
299.9088348133
  0
LINE
  5
361
100
AcDbEntity
  8
3_ALL_AXES
100
AcDbLine
 62
7
  6
CONTINUOUS
 10
2463.3017414471
 20
228.8088828795
 11
2463.3017414471
 21
234.3087867471
  0
LINE
  5
362
100
AcDbEntity
  8
3_ALL_AXES
100
AcDbLine
 62
7
  6
CONTINUOUS
 10
2463.3017414471
 20
294.4088828795
 11
2463.3017414471
 21
299.9087867471
  0
LINE
  5
363
100
AcDbEntity
  8
3_ALL_AXES
100
AcDbLine
 62
7
  6
CONTINUOUS
 10
211.3017414471
 20
412.7421437155
 11
211.3017414471
 21
407.2421437155
  0
LINE
  5
364
100
AcDbEntity
  8
3_ALL_AXES
100
AcDbLine
 62
7
  6
CONTINUOUS
 10
211.3017414471
 20
406.4421437155
 11
211.3017414471
 21
400.9421437155
  0
LINE
  5
365
100
AcDbEntity
  8
3_ALL_AXES
100
AcDbLine
 62
7
  6
CONTINUOUS
 10
211.3017414471
 20
382.4421437155
 11
211.3017414471
 21
376.9421437155
  0
LINE
  5
366
100
AcDbEntity
  8
3_ALL_AXES
100
AcDbLine
 62
7
  6
CONTINUOUS
 10
211.3017414471
 20
376.1421437155
 11
211.3017414471
 21
370.6421437155
  0
LINE
  5
367
100
AcDbEntity
  8
3_ALL_AXES
100
AcDbLine
 62
7
  6
CONTINUOUS
 10
211.4524617767
 20
412.7421437155
 11
211.4524617767
 21
407.2421437155
  0
LINE
  5
368
100
AcDbEntity
  8
3_ALL_AXES
100
AcDbLine
 62
7
  6
CONTINUOUS
 10
211.4524617767
 20
406.4421437155
 11
211.4524617767
 21
400.9421437155
  0
LINE
  5
369
100
AcDbEntity
  8
3_ALL_AXES
100
AcDbLine
 62
7
  6
CONTINUOUS
 10
211.4524617767
 20
382.4421437155
 11
211.4524617767
 21
376.9421437155
  0
LINE
  5
36A
100
AcDbEntity
  8
3_ALL_AXES
100
AcDbLine
 62
7
  6
CONTINUOUS
 10
211.4524617767
 20
376.1421437155
 11
211.4524617767
 21
370.6421437155
  0
LINE
  5
36B
100
AcDbEntity
  8
7_ALL_FEATURES
100
AcDbLine
 62
7
  6
CONTINUOUS
 10
212.3017414471
 20
370.4921437155
 11
212.3017414471
 21
412.8921437155
  0
LINE
  5
36C
100
AcDbEntity
  8
7_ALL_FEATURES
100
AcDbLine
 62
7
  6
CONTINUOUS
 10
213.8017414471
 20
412.8921437155
 11
213.8017414471
 21
412.2751266744
  0
LINE
  5
36D
100
AcDbEntity
  8
3_ALL_AXES
100
AcDbLine
 62
7
  6
CONTINUOUS
 10
213.8017414471
 20
368.6421437155
 11
213.8017414471
 21
353.1421437155
  0
LINE
  5
36E
100
AcDbEntity
  8
7_ALL_FEATURES
100
AcDbLine
 62
7
  6
CONTINUOUS
 10
213.8017414471
 20
350.6421589318
 11
213.8017414471
 21
353.1421437155
  0
LINE
  5
36F
100
AcDbEntity
  8
7_ALL_FEATURES
100
AcDbLine
 62
7
  6
CONTINUOUS
 10
213.8017414471
 20
368.6421437155
 11
213.8017414471
 21
412.1421437155
  0
LINE
  5
370
100
AcDbEntity
  8
6_ALL_SURFS
100
AcDbLine
 62
7
  6
CONTINUOUS
 10
213.8017414471
 20
411.2421437155
 11
213.8017414471
 21
412.3421437155
  0
LINE
  5
371
100
AcDbEntity
  8
6_ALL_SURFS
100
AcDbLine
 62
7
  6
CONTINUOUS
 10
213.8017414471
 20
412.8921437155
 11
213.8017414471
 21
432.7421284991
  0
LINE
  5
372
100
AcDbEntity
  8
7_ALL_FEATURES
100
AcDbLine
 62
7
  6
CONTINUOUS
 10
215.0517414471
 20
411.0421437155
 11
215.0517414471
 21
372.3421437155
  0
LINE
  5
373
100
AcDbEntity
  8
3_ALL_AXES
100
AcDbLine
 62
7
  6
CONTINUOUS
 10
211.4524617767
 20
407.2421437155
 11
212.3017414471
 21
407.9547739736
  0
LINE
  5
374
100
AcDbEntity
  8
3_ALL_AXES
100
AcDbLine
 62
7
  6
CONTINUOUS
 10
211.4524617767
 20
400.9421437155
 11
212.3017414471
 21
401.6547739736
  0
LINE
  5
375
100
AcDbEntity
  8
3_ALL_AXES
100
AcDbLine
 62
7
  6
CONTINUOUS
 10
211.4524617767
 20
376.9421437155
 11
212.3017414471
 21
377.6547739736
  0
LINE
  5
376
100
AcDbEntity
  8
3_ALL_AXES
100
AcDbLine
 62
7
  6
CONTINUOUS
 10
211.4524617767
 20
370.6421437155
 11
212.3017414471
 21
371.3547739736
  0
LINE
  5
377
100
AcDbEntity
  8
3_ALL_AXES
100
AcDbLine
 62
7
  6
CONTINUOUS
 10
211.4524617767
 20
376.1421437155
 11
212.3017414471
 21
375.4295134573
  0
LINE
  5
378
100
AcDbEntity
  8
3_ALL_AXES
100
AcDbLine
 62
7
  6
CONTINUOUS
 10
211.4524617767
 20
382.4421437155
 11
212.3017414471
 21
381.7295134573
  0
LINE
  5
379
100
AcDbEntity
  8
3_ALL_AXES
100
AcDbLine
 62
7
  6
CONTINUOUS
 10
211.4524617767
 20
406.4421437155
 11
212.3017414471
 21
405.7295134573
  0
LINE
  5
37A
100
AcDbEntity
  8
3_ALL_AXES
100
AcDbLine
 62
7
  6
CONTINUOUS
 10
211.4524617767
 20
412.7421437155
 11
212.3017414471
 21
412.0295134573
  0
LINE
  5
37B
100
AcDbEntity
  8
7_ALL_FEATURES
100
AcDbLine
 62
7
  6
CONTINUOUS
 10
2460.8017414471
 20
350.6421437155
 11
213.8017414471
 21
350.6421437155
  0
LINE
  5
37C
100
AcDbEntity
  8
7_ALL_FEATURES
100
AcDbLine
 62
9
  6
CONTINUOUS
 10
2460.8017414471
 20
350.9966721251
 11
213.8017414471
 21
350.9966721251
  0
LINE
  5
37D
100
AcDbEntity
  8
7_ALL_FEATURES
100
AcDbLine
 62
7
  6
CONTINUOUS
 10
213.8017414471
 20
353.1421437155
 11
334.0183336534
 21
353.1421437155
  0
LINE
  5
37E
100
AcDbEntity
  8
7_ALL_FEATURES
100
AcDbLine
 62
7
  6
CONTINUOUS
 10
340.5851492408
 20
353.1421437155
 11
584.0183336534
 21
353.1421437155
  0
LINE
  5
37F
100
AcDbEntity
  8
7_ALL_FEATURES
100
AcDbLine
 62
7
  6
CONTINUOUS
 10
590.5851492408
 20
353.1421437155
 11
834.0183336534
 21
353.1421437155
  0
LINE
  5
380
100
AcDbEntity
  8
7_ALL_FEATURES
100
AcDbLine
 62
7
  6
CONTINUOUS
 10
840.5851492408
 20
353.1421437155
 11
1084.0183336534
 21
353.1421437155
  0
LINE
  5
381
100
AcDbEntity
  8
7_ALL_FEATURES
100
AcDbLine
 62
7
  6
CONTINUOUS
 10
1090.5851492408
 20
353.1421437155
 11
1334.0183336534
 21
353.1421437155
  0
LINE
  5
382
100
AcDbEntity
  8
7_ALL_FEATURES
100
AcDbLine
 62
7
  6
CONTINUOUS
 10
1340.5851492408
 20
353.1421437155
 11
1584.0183336534
 21
353.1421437155
  0
LINE
  5
383
100
AcDbEntity
  8
7_ALL_FEATURES
100
AcDbLine
 62
7
  6
CONTINUOUS
 10
1590.5851492408
 20
353.1421437155
 11
1834.0183336534
 21
353.1421437155
  0
LINE
  5
384
100
AcDbEntity
  8
7_ALL_FEATURES
100
AcDbLine
 62
7
  6
CONTINUOUS
 10
1840.5851492408
 20
353.1421437155
 11
2084.0183336534
 21
353.1421437155
  0
LINE
  5
385
100
AcDbEntity
  8
7_ALL_FEATURES
100
AcDbLine
 62
7
  6
CONTINUOUS
 10
2090.5851492408
 20
353.1421437155
 11
2334.0183336534
 21
353.1421437155
  0
LINE
  5
386
100
AcDbEntity
  8
7_ALL_FEATURES
100
AcDbLine
 62
7
  6
CONTINUOUS
 10
2340.5851492408
 20
353.1421437155
 11
2460.8017414471
 21
353.1421437155
  0
LINE
  5
387
100
AcDbEntity
  8
7_ALL_FEATURES
100
AcDbLine
 62
7
  6
CONTINUOUS
 10
213.8017414471
 20
356.0421437155
 11
332.5403585871
 21
356.0421437155
  0
LINE
  5
388
100
AcDbEntity
  8
7_ALL_FEATURES
100
AcDbLine
 62
7
  6
CONTINUOUS
 10
342.0631243071
 20
356.0421437155
 11
582.5403585871
 21
356.0421437155
  0
LINE
  5
389
100
AcDbEntity
  8
7_ALL_FEATURES
100
AcDbLine
 62
7
  6
CONTINUOUS
 10
592.0631243071
 20
356.0421437155
 11
832.5403585871
 21
356.0421437155
  0
LINE
  5
38A
100
AcDbEntity
  8
7_ALL_FEATURES
100
AcDbLine
 62
7
  6
CONTINUOUS
 10
842.0631243071
 20
356.0421437155
 11
1082.5403585871
 21
356.0421437155
  0
LINE
  5
38B
100
AcDbEntity
  8
7_ALL_FEATURES
100
AcDbLine
 62
7
  6
CONTINUOUS
 10
1092.0631243071
 20
356.0421437155
 11
1332.5403585871
 21
356.0421437155
  0
LINE
  5
38C
100
AcDbEntity
  8
7_ALL_FEATURES
100
AcDbLine
 62
7
  6
CONTINUOUS
 10
1342.0631243071
 20
356.0421437155
 11
1582.5403585871
 21
356.0421437155
  0
LINE
  5
38D
100
AcDbEntity
  8
7_ALL_FEATURES
100
AcDbLine
 62
7
  6
CONTINUOUS
 10
1592.0631243071
 20
356.0421437155
 11
1832.5403585871
 21
356.0421437155
  0
LINE
  5
38E
100
AcDbEntity
  8
7_ALL_FEATURES
100
AcDbLine
 62
7
  6
CONTINUOUS
 10
1842.0631243071
 20
356.0421437155
 11
2082.5403585871
 21
356.0421437155
  0
LINE
  5
38F
100
AcDbEntity
  8
7_ALL_FEATURES
100
AcDbLine
 62
7
  6
CONTINUOUS
 10
2092.0631243071
 20
356.0421437155
 11
2332.5403585871
 21
356.0421437155
  0
LINE
  5
390
100
AcDbEntity
  8
7_ALL_FEATURES
100
AcDbLine
 62
7
  6
CONTINUOUS
 10
2342.0631243071
 20
356.0421437155
 11
2460.8017414471
 21
356.0421437155
  0
LINE
  5
391
100
AcDbEntity
  8
7_ALL_FEATURES
100
AcDbLine
 62
7
  6
CONTINUOUS
 10
213.8017414471
 20
356.6421437155
 11
332.5027033414
 21
356.6421437155
  0
LINE
  5
392
100
AcDbEntity
  8
7_ALL_FEATURES
100
AcDbLine
 62
7
  6
CONTINUOUS
 10
342.1007795528
 20
356.6421437155
 11
582.5027033414
 21
356.6421437155
  0
LINE
  5
393
100
AcDbEntity
  8
7_ALL_FEATURES
100
AcDbLine
 62
7
  6
CONTINUOUS
 10
592.1007795528
 20
356.6421437155
 11
832.5027033414
 21
356.6421437155
  0
LINE
  5
394
100
AcDbEntity
  8
7_ALL_FEATURES
100
AcDbLine
 62
7
  6
CONTINUOUS
 10
842.1007795528
 20
356.6421437155
 11
1082.5027033414
 21
356.6421437155
  0
LINE
  5
395
100
AcDbEntity
  8
7_ALL_FEATURES
100
AcDbLine
 62
7
  6
CONTINUOUS
 10
1092.1007795528
 20
356.6421437155
 11
1332.5027033414
 21
356.6421437155
  0
LINE
  5
396
100
AcDbEntity
  8
7_ALL_FEATURES
100
AcDbLine
 62
7
  6
CONTINUOUS
 10
1342.1007795528
 20
356.6421437155
 11
1582.5027033414
 21
356.6421437155
  0
LINE
  5
397
100
AcDbEntity
  8
7_ALL_FEATURES
100
AcDbLine
 62
7
  6
CONTINUOUS
 10
1592.1007795528
 20
356.6421437155
 11
1832.5027033414
 21
356.6421437155
  0
LINE
  5
398
100
AcDbEntity
  8
7_ALL_FEATURES
100
AcDbLine
 62
7
  6
CONTINUOUS
 10
1842.1007795528
 20
356.6421437155
 11
2082.5027033414
 21
356.6421437155
  0
LINE
  5
399
100
AcDbEntity
  8
7_ALL_FEATURES
100
AcDbLine
 62
7
  6
CONTINUOUS
 10
2092.1007795528
 20
356.6421437155
 11
2332.5027033414
 21
356.6421437155
  0
LINE
  5
39A
100
AcDbEntity
  8
7_ALL_FEATURES
100
AcDbLine
 62
7
  6
CONTINUOUS
 10
2342.1007795528
 20
356.6421437155
 11
2460.8017414471
 21
356.6421437155
  0
LINE
  5
39B
100
AcDbEntity
  8
7_ALL_FEATURES
100
AcDbLine
 62
7
  6
CONTINUOUS
 10
213.8017414471
 20
359.0421437155
 11
333.1459302459
 21
359.0421437155
  0
LINE
  5
39C
100
AcDbEntity
  8
7_ALL_FEATURES
100
AcDbLine
 62
7
  6
CONTINUOUS
 10
341.4575526483
 20
359.0421437155
 11
583.1459302459
 21
359.0421437155
  0
LINE
  5
39D
100
AcDbEntity
  8
7_ALL_FEATURES
100
AcDbLine
 62
7
  6
CONTINUOUS
 10
591.4575526483
 20
359.0421437155
 11
833.1459302459
 21
359.0421437155
  0
LINE
  5
39E
100
AcDbEntity
  8
7_ALL_FEATURES
100
AcDbLine
 62
7
  6
CONTINUOUS
 10
841.4575526483
 20
359.0421437155
 11
1083.1459302459
 21
359.0421437155
  0
LINE
  5
39F
100
AcDbEntity
  8
7_ALL_FEATURES
100
AcDbLine
 62
7
  6
CONTINUOUS
 10
1091.4575526483
 20
359.0421437155
 11
1333.1459302459
 21
359.0421437155
  0
LINE
  5
3A0
100
AcDbEntity
  8
7_ALL_FEATURES
100
AcDbLine
 62
7
  6
CONTINUOUS
 10
1341.4575526483
 20
359.0421437155
 11
1583.1459302459
 21
359.0421437155
  0
LINE
  5
3A1
100
AcDbEntity
  8
7_ALL_FEATURES
100
AcDbLine
 62
7
  6
CONTINUOUS
 10
1591.4575526483
 20
359.0421437155
 11
1833.1459302459
 21
359.0421437155
  0
LINE
  5
3A2
100
AcDbEntity
  8
7_ALL_FEATURES
100
AcDbLine
 62
7
  6
CONTINUOUS
 10
1841.4575526483
 20
359.0421437155
 11
2083.1459302459
 21
359.0421437155
  0
LINE
  5
3A3
100
AcDbEntity
  8
7_ALL_FEATURES
100
AcDbLine
 62
7
  6
CONTINUOUS
 10
2091.4575526483
 20
359.0421437155
 11
2333.1459302459
 21
359.0421437155
  0
LINE
  5
3A4
100
AcDbEntity
  8
7_ALL_FEATURES
100
AcDbLine
 62
7
  6
CONTINUOUS
 10
2341.4575526483
 20
359.0421437155
 11
2460.8017414471
 21
359.0421437155
  0
LINE
  5
3A5
100
AcDbEntity
  8
7_ALL_FEATURES
100
AcDbLine
 62
7
  6
CONTINUOUS
 10
213.8017414471
 20
359.6421437155
 11
333.5559749381
 21
359.6421437155
  0
LINE
  5
3A6
100
AcDbEntity
  8
7_ALL_FEATURES
100
AcDbLine
 62
7
  6
CONTINUOUS
 10
341.0475079561
 20
359.6421437155
 11
583.5559749381
 21
359.6421437155
  0
LINE
  5
3A7
100
AcDbEntity
  8
7_ALL_FEATURES
100
AcDbLine
 62
7
  6
CONTINUOUS
 10
591.0475079561
 20
359.6421437155
 11
833.5559749381
 21
359.6421437155
  0
LINE
  5
3A8
100
AcDbEntity
  8
7_ALL_FEATURES
100
AcDbLine
 62
7
  6
CONTINUOUS
 10
841.0475079561
 20
359.6421437155
 11
1083.5559749381
 21
359.6421437155
  0
LINE
  5
3A9
100
AcDbEntity
  8
7_ALL_FEATURES
100
AcDbLine
 62
7
  6
CONTINUOUS
 10
1091.0475079561
 20
359.6421437155
 11
1333.5559749381
 21
359.6421437155
  0
LINE
  5
3AA
100
AcDbEntity
  8
7_ALL_FEATURES
100
AcDbLine
 62
7
  6
CONTINUOUS
 10
1341.0475079561
 20
359.6421437155
 11
1583.5559749381
 21
359.6421437155
  0
LINE
  5
3AB
100
AcDbEntity
  8
7_ALL_FEATURES
100
AcDbLine
 62
7
  6
CONTINUOUS
 10
1591.0475079561
 20
359.6421437155
 11
1833.5559749381
 21
359.6421437155
  0
LINE
  5
3AC
100
AcDbEntity
  8
7_ALL_FEATURES
100
AcDbLine
 62
7
  6
CONTINUOUS
 10
1841.0475079561
 20
359.6421437155
 11
2083.5559749381
 21
359.6421437155
  0
LINE
  5
3AD
100
AcDbEntity
  8
7_ALL_FEATURES
100
AcDbLine
 62
7
  6
CONTINUOUS
 10
2091.0475079561
 20
359.6421437155
 11
2333.5559749381
 21
359.6421437155
  0
LINE
  5
3AE
100
AcDbEntity
  8
7_ALL_FEATURES
100
AcDbLine
 62
7
  6
CONTINUOUS
 10
2341.0475079561
 20
359.6421437155
 11
2460.8017414471
 21
359.6421437155
  0
LINE
  5
3AF
100
AcDbEntity
  8
3_ALL_AXES
100
AcDbLine
 62
7
  6
CONTINUOUS
 10
213.8017414471
 20
362.0421437155
 11
2460.8017414471
 21
362.0421437155
  0
LINE
  5
3B0
100
AcDbEntity
  8
3_ALL_AXES
100
AcDbLine
 62
7
  6
CONTINUOUS
 10
213.8017414471
 20
362.6421437155
 11
2460.8017414471
 21
362.6421437155
  0
LINE
  5
3B1
100
AcDbEntity
  8
3_ALL_AXES
100
AcDbLine
 62
7
  6
CONTINUOUS
 10
213.8017414471
 20
365.0421437155
 11
2460.8017414471
 21
365.0421437155
  0
LINE
  5
3B2
100
AcDbEntity
  8
3_ALL_AXES
100
AcDbLine
 62
7
  6
CONTINUOUS
 10
213.8017414471
 20
365.6421437155
 11
2460.8017414471
 21
365.6421437155
  0
LINE
  5
3B3
100
AcDbEntity
  8
3_ALL_AXES
100
AcDbLine
 62
7
  6
CONTINUOUS
 10
213.8017414471
 20
368.0421437155
 11
2460.8017414471
 21
368.0421437155
  0
LINE
  5
3B4
100
AcDbEntity
  8
3_ALL_AXES
100
AcDbLine
 62
7
  6
CONTINUOUS
 10
213.8017414471
 20
368.6421437155
 11
2460.8017414471
 21
368.6421437155
  0
LINE
  5
3B5
100
AcDbEntity
  8
7_ALL_FEATURES
100
AcDbLine
 62
7
  6
CONTINUOUS
 10
2462.3017414471
 20
370.4921437155
 11
2460.8017414471
 21
370.4921437155
  0
LINE
  5
3B6
100
AcDbEntity
  8
7_ALL_FEATURES
100
AcDbLine
 62
7
  6
CONTINUOUS
 10
212.3017414471
 20
370.4921437155
 11
213.8017414471
 21
370.4921437155
  0
LINE
  5
3B7
100
AcDbEntity
  8
7_ALL_FEATURES
100
AcDbLine
 62
9
  6
CONTINUOUS
 10
213.8017414471
 20
370.5921437155
 11
2460.8017414471
 21
370.5921437155
  0
LINE
  5
3B8
100
AcDbEntity
  8
3_ALL_AXES
100
AcDbLine
 62
7
  6
CONTINUOUS
 10
2463.3017414471
 20
370.6421437155
 11
2463.1510211175
 21
370.6421437155
  0
LINE
  5
3B9
100
AcDbEntity
  8
3_ALL_AXES
100
AcDbLine
 62
7
  6
CONTINUOUS
 10
211.3017414471
 20
370.6421437155
 11
211.4524617767
 21
370.6421437155
  0
LINE
  5
3BA
100
AcDbEntity
  8
7_ALL_FEATURES
100
AcDbLine
 62
7
  6
CONTINUOUS
 10
2460.8017414471
 20
370.8921437155
 11
213.8017414471
 21
370.8921437155
  0
LINE
  5
3BB
100
AcDbEntity
  8
7_ALL_FEATURES
100
AcDbLine
 62
9
  6
CONTINUOUS
 10
2460.8017414471
 20
371.1921437155
 11
213.8017414471
 21
371.1921437155
  0
LINE
  5
3BC
100
AcDbEntity
  8
7_ALL_FEATURES
100
AcDbLine
 62
9
  6
CONTINUOUS
 10
2462.3017414471
 20
371.2421437155
 11
2460.8017414471
 21
371.2421437155
  0
LINE
  5
3BD
100
AcDbEntity
  8
7_ALL_FEATURES
100
AcDbLine
 62
9
  6
CONTINUOUS
 10
212.3017414471
 20
371.2421437155
 11
213.8017414471
 21
371.2421437155
  0
LINE
  5
3BE
100
AcDbEntity
  8
7_ALL_FEATURES
100
AcDbLine
 62
9
  6
CONTINUOUS
 10
2460.8017414471
 20
371.8421437155
 11
213.8017414471
 21
371.8421437155
  0
LINE
  5
3BF
100
AcDbEntity
  8
7_ALL_FEATURES
100
AcDbLine
 62
7
  6
CONTINUOUS
 10
2460.8017414471
 20
372.1421437155
 11
213.8017414471
 21
372.1421437155
  0
LINE
  5
3C0
100
AcDbEntity
  8
7_ALL_FEATURES
100
AcDbLine
 62
7
  6
CONTINUOUS
 10
215.0517414471
 20
372.3421437155
 11
2459.5517414471
 21
372.3421437155
  0
LINE
  5
3C1
100
AcDbEntity
  8
7_ALL_FEATURES
100
AcDbLine
 62
9
  6
CONTINUOUS
 10
213.8017414471
 20
372.4421437155
 11
215.0517414471
 21
372.4421437155
  0
LINE
  5
3C2
100
AcDbEntity
  8
7_ALL_FEATURES
100
AcDbLine
 62
9
  6
CONTINUOUS
 10
2459.5517414471
 20
372.4421437155
 11
2460.8017414471
 21
372.4421437155
  0
LINE
  5
3C3
100
AcDbEntity
  8
7_ALL_FEATURES
100
AcDbLine
 62
9
  6
CONTINUOUS
 10
215.0517414471
 20
372.5421437155
 11
2459.5517414471
 21
372.5421437155
  0
LINE
  5
3C4
100
AcDbEntity
  8
7_ALL_FEATURES
100
AcDbLine
 62
9
  6
CONTINUOUS
 10
2460.8017414471
 20
373.0921437155
 11
2459.5517414471
 21
373.0921437155
  0
LINE
  5
3C5
100
AcDbEntity
  8
7_ALL_FEATURES
100
AcDbLine
 62
9
  6
CONTINUOUS
 10
215.0517414471
 20
373.0921437155
 11
213.8017414471
 21
373.0921437155
  0
LINE
  5
3C6
100
AcDbEntity
  8
7_ALL_FEATURES
100
AcDbLine
 62
7
  6
CONTINUOUS
 10
2460.8017414471
 20
373.3921437155
 11
2459.5517414471
 21
373.3921437155
  0
LINE
  5
3C7
100
AcDbEntity
  8
7_ALL_FEATURES
100
AcDbLine
 62
7
  6
CONTINUOUS
 10
215.0517414471
 20
373.3921437155
 11
213.8017414471
 21
373.3921437155
  0
LINE
  5
3C8
100
AcDbEntity
  8
7_ALL_FEATURES
100
AcDbLine
 62
9
  6
CONTINUOUS
 10
213.8017414471
 20
373.9531813175
 11
215.0517414471
 21
373.9531813175
  0
LINE
  5
3C9
100
AcDbEntity
  8
7_ALL_FEATURES
100
AcDbLine
 62
9
  6
CONTINUOUS
 10
2459.5517414471
 20
373.9531813175
 11
2460.8017414471
 21
373.9531813175
  0
LINE
  5
3CA
100
AcDbEntity
  8
7_ALL_FEATURES
100
AcDbLine
 62
9
  6
CONTINUOUS
 10
213.8017414471
 20
374.172587428
 11
215.0517414471
 21
374.172587428
  0
LINE
  5
3CB
100
AcDbEntity
  8
7_ALL_FEATURES
100
AcDbLine
 62
9
  6
CONTINUOUS
 10
2459.5517414471
 20
374.172587428
 11
2460.8017414471
 21
374.172587428
  0
LINE
  5
3CC
100
AcDbEntity
  8
7_ALL_FEATURES
100
AcDbLine
 62
9
  6
CONTINUOUS
 10
2460.8017414471
 20
374.9921437155
 11
2459.5517414471
 21
374.9921437155
  0
LINE
  5
3CD
100
AcDbEntity
  8
7_ALL_FEATURES
100
AcDbLine
 62
9
  6
CONTINUOUS
 10
215.0517414471
 20
374.9921437155
 11
213.8017414471
 21
374.9921437155
  0
LINE
  5
3CE
100
AcDbEntity
  8
7_ALL_FEATURES
100
AcDbLine
 62
7
  6
CONTINUOUS
 10
2460.8017414471
 20
375.2921437155
 11
2459.5517414471
 21
375.2921437155
  0
LINE
  5
3CF
100
AcDbEntity
  8
7_ALL_FEATURES
100
AcDbLine
 62
7
  6
CONTINUOUS
 10
215.0517414471
 20
375.2921437155
 11
213.8017414471
 21
375.2921437155
  0
LINE
  5
3D0
100
AcDbEntity
  8
7_ALL_FEATURES
100
AcDbLine
 62
9
  6
CONTINUOUS
 10
213.8017414471
 20
375.3524510947
 11
215.0517414471
 21
375.3524510947
  0
LINE
  5
3D1
100
AcDbEntity
  8
7_ALL_FEATURES
100
AcDbLine
 62
9
  6
CONTINUOUS
 10
2459.5517414471
 20
375.3524510947
 11
2460.8017414471
 21
375.3524510947
  0
LINE
  5
3D2
100
AcDbEntity
  8
7_ALL_FEATURES
100
AcDbLine
 62
9
  6
CONTINUOUS
 10
2460.8017414471
 20
375.7075073014
 11
2459.5517414471
 21
375.7075073014
  0
LINE
  5
3D3
100
AcDbEntity
  8
7_ALL_FEATURES
100
AcDbLine
 62
9
  6
CONTINUOUS
 10
215.0517414471
 20
375.7075073014
 11
213.8017414471
 21
375.7075073014
  0
LINE
  5
3D4
100
AcDbEntity
  8
7_ALL_FEATURES
100
AcDbLine
 62
7
  6
CONTINUOUS
 10
2460.8017414471
 20
375.7255995152
 11
2459.5517414471
 21
375.7255995152
  0
LINE
  5
3D5
100
AcDbEntity
  8
7_ALL_FEATURES
100
AcDbLine
 62
7
  6
CONTINUOUS
 10
215.0517414471
 20
375.7255995152
 11
213.8017414471
 21
375.7255995152
  0
LINE
  5
3D6
100
AcDbEntity
  8
3_ALL_AXES
100
AcDbLine
 62
7
  6
CONTINUOUS
 10
2463.3017414471
 20
376.1421437155
 11
2463.1510211175
 21
376.1421437155
  0
LINE
  5
3D7
100
AcDbEntity
  8
3_ALL_AXES
100
AcDbLine
 62
7
  6
CONTINUOUS
 10
211.3017414471
 20
376.1421437155
 11
211.4524617767
 21
376.1421437155
  0
LINE
  5
3D8
100
AcDbEntity
  8
3_ALL_AXES
100
AcDbLine
 62
7
  6
CONTINUOUS
 10
2463.3017414471
 20
376.9421437155
 11
2463.1510211175
 21
376.9421437155
  0
LINE
  5
3D9
100
AcDbEntity
  8
3_ALL_AXES
100
AcDbLine
 62
7
  6
CONTINUOUS
 10
211.3017414471
 20
376.9421437155
 11
211.4524617767
 21
376.9421437155
  0
LINE
  5
3DA
100
AcDbEntity
  8
7_ALL_FEATURES
100
AcDbLine
 62
9
  6
CONTINUOUS
 10
213.8017414471
 20
378.11843256
 11
215.0517414471
 21
378.11843256
  0
LINE
  5
3DB
100
AcDbEntity
  8
7_ALL_FEATURES
100
AcDbLine
 62
9
  6
CONTINUOUS
 10
2459.5517414471
 20
378.11843256
 11
2460.8017414471
 21
378.11843256
  0
LINE
  5
3DC
100
AcDbEntity
  8
7_ALL_FEATURES
100
AcDbLine
 62
9
  6
CONTINUOUS
 10
213.8017414471
 20
379.0947285671
 11
215.0517414471
 21
379.0947285671
  0
LINE
  5
3DD
100
AcDbEntity
  8
7_ALL_FEATURES
100
AcDbLine
 62
9
  6
CONTINUOUS
 10
2459.5517414471
 20
379.0947285671
 11
2460.8017414471
 21
379.0947285671
  0
LINE
  5
3DE
100
AcDbEntity
  8
3_ALL_AXES
100
AcDbLine
 62
7
  6
CONTINUOUS
 10
2463.3017414471
 20
382.4421437155
 11
2463.1510211175
 21
382.4421437155
  0
LINE
  5
3DF
100
AcDbEntity
  8
3_ALL_AXES
100
AcDbLine
 62
7
  6
CONTINUOUS
 10
211.3017414471
 20
382.4421437155
 11
211.4524617767
 21
382.4421437155
  0
LINE
  5
3E0
100
AcDbEntity
  8
7_ALL_FEATURES
100
AcDbLine
 62
9
  6
CONTINUOUS
 10
2460.8017414471
 20
389.6921437155
 11
2459.5517414471
 21
389.6921437155
  0
LINE
  5
3E1
100
AcDbEntity
  8
7_ALL_FEATURES
100
AcDbLine
 62
9
  6
CONTINUOUS
 10
215.0517414471
 20
389.6921437155
 11
213.8017414471
 21
389.6921437155
  0
LINE
  5
3E2
100
AcDbEntity
  8
7_ALL_FEATURES
100
AcDbLine
 62
7
  6
CONTINUOUS
 10
2460.8017414471
 20
389.9921437155
 11
2459.5517414471
 21
389.9921437155
  0
LINE
  5
3E3
100
AcDbEntity
  8
7_ALL_FEATURES
100
AcDbLine
 62
7
  6
CONTINUOUS
 10
215.0517414471
 20
389.9921437155
 11
213.8017414471
 21
389.9921437155
  0
LINE
  5
3E4
100
AcDbEntity
  8
7_ALL_FEATURES
100
AcDbLine
 62
9
  6
CONTINUOUS
 10
213.8017414471
 20
390.2921437155
 11
215.0517414471
 21
390.2921437155
  0
LINE
  5
3E5
100
AcDbEntity
  8
7_ALL_FEATURES
100
AcDbLine
 62
9
  6
CONTINUOUS
 10
2459.5517414471
 20
390.2921437155
 11
2460.8017414471
 21
390.2921437155
  0
LINE
  5
3E6
100
AcDbEntity
  8
6_ALL_SURFS
100
AcDbLine
 62
9
  6
CONTINUOUS
 10
213.8017414471
 20
393.0921437155
 11
215.0517414471
 21
393.0921437155
  0
LINE
  5
3E7
100
AcDbEntity
  8
6_ALL_SURFS
100
AcDbLine
 62
9
  6
CONTINUOUS
 10
2459.5517414471
 20
393.0921437155
 11
2460.8017414471
 21
393.0921437155
  0
LINE
  5
3E8
100
AcDbEntity
  8
6_ALL_SURFS
100
AcDbLine
 62
7
  6
CONTINUOUS
 10
2460.8017414471
 20
393.3921437155
 11
2459.5517414471
 21
393.3921437155
  0
LINE
  5
3E9
100
AcDbEntity
  8
6_ALL_SURFS
100
AcDbLine
 62
7
  6
CONTINUOUS
 10
215.0517414471
 20
393.3921437155
 11
213.8017414471
 21
393.3921437155
  0
LINE
  5
3EA
100
AcDbEntity
  8
6_ALL_SURFS
100
AcDbLine
 62
9
  6
CONTINUOUS
 10
2460.8017414471
 20
393.6921437155
 11
2459.5517414471
 21
393.6921437155
  0
LINE
  5
3EB
100
AcDbEntity
  8
6_ALL_SURFS
100
AcDbLine
 62
9
  6
CONTINUOUS
 10
215.0517414471
 20
393.6921437155
 11
213.8017414471
 21
393.6921437155
  0
LINE
  5
3EC
100
AcDbEntity
  8
3_ALL_AXES
100
AcDbLine
 62
7
  6
CONTINUOUS
 10
2463.3017414471
 20
400.9421437155
 11
2463.1510211175
 21
400.9421437155
  0
LINE
  5
3ED
100
AcDbEntity
  8
3_ALL_AXES
100
AcDbLine
 62
7
  6
CONTINUOUS
 10
211.3017414471
 20
400.9421437155
 11
211.4524617767
 21
400.9421437155
  0
LINE
  5
3EE
100
AcDbEntity
  8
6_ALL_SURFS
100
AcDbLine
 62
9
  6
CONTINUOUS
 10
213.8017414471
 20
404.2895588638
 11
215.0517414471
 21
404.2895588638
  0
LINE
  5
3EF
100
AcDbEntity
  8
6_ALL_SURFS
100
AcDbLine
 62
9
  6
CONTINUOUS
 10
2459.5517414471
 20
404.2895588638
 11
2460.8017414471
 21
404.2895588638
  0
LINE
  5
3F0
100
AcDbEntity
  8
6_ALL_SURFS
100
AcDbLine
 62
9
  6
CONTINUOUS
 10
213.8017414471
 20
405.2658548709
 11
215.0517414471
 21
405.2658548709
  0
LINE
  5
3F1
100
AcDbEntity
  8
6_ALL_SURFS
100
AcDbLine
 62
9
  6
CONTINUOUS
 10
2459.5517414471
 20
405.2658548709
 11
2460.8017414471
 21
405.2658548709
  0
LINE
  5
3F2
100
AcDbEntity
  8
3_ALL_AXES
100
AcDbLine
 62
7
  6
CONTINUOUS
 10
2463.3017414471
 20
406.4421437155
 11
2463.1510211175
 21
406.4421437155
  0
LINE
  5
3F3
100
AcDbEntity
  8
3_ALL_AXES
100
AcDbLine
 62
7
  6
CONTINUOUS
 10
211.3017414471
 20
406.4421437155
 11
211.4524617767
 21
406.4421437155
  0
LINE
  5
3F4
100
AcDbEntity
  8
3_ALL_AXES
100
AcDbLine
 62
7
  6
CONTINUOUS
 10
2463.3017414471
 20
407.2421437155
 11
2463.1510211175
 21
407.2421437155
  0
LINE
  5
3F5
100
AcDbEntity
  8
3_ALL_AXES
100
AcDbLine
 62
7
  6
CONTINUOUS
 10
211.3017414471
 20
407.2421437155
 11
211.4524617767
 21
407.2421437155
  0
LINE
  5
3F6
100
AcDbEntity
  8
6_ALL_SURFS
100
AcDbLine
 62
7
  6
CONTINUOUS
 10
213.8017414471
 20
407.6586879158
 11
215.0517414471
 21
407.6586879158
  0
LINE
  5
3F7
100
AcDbEntity
  8
6_ALL_SURFS
100
AcDbLine
 62
7
  6
CONTINUOUS
 10
2459.5517414471
 20
407.6586879158
 11
2460.8017414471
 21
407.6586879158
  0
LINE
  5
3F8
100
AcDbEntity
  8
6_ALL_SURFS
100
AcDbLine
 62
9
  6
CONTINUOUS
 10
2460.8017414471
 20
407.6767801295
 11
2459.5517414471
 21
407.6767801295
  0
LINE
  5
3F9
100
AcDbEntity
  8
6_ALL_SURFS
100
AcDbLine
 62
9
  6
CONTINUOUS
 10
215.0517414471
 20
407.6767801295
 11
213.8017414471
 21
407.6767801295
  0
LINE
  5
3FA
100
AcDbEntity
  8
6_ALL_SURFS
100
AcDbLine
 62
9
  6
CONTINUOUS
 10
213.8017414471
 20
408.0318363363
 11
215.0517414471
 21
408.0318363363
  0
LINE
  5
3FB
100
AcDbEntity
  8
6_ALL_SURFS
100
AcDbLine
 62
9
  6
CONTINUOUS
 10
2459.5517414471
 20
408.0318363363
 11
2460.8017414471
 21
408.0318363363
  0
LINE
  5
3FC
100
AcDbEntity
  8
6_ALL_SURFS
100
AcDbLine
 62
7
  6
CONTINUOUS
 10
2460.8017414471
 20
408.0921437155
 11
2459.5517414471
 21
408.0921437155
  0
LINE
  5
3FD
100
AcDbEntity
  8
6_ALL_SURFS
100
AcDbLine
 62
7
  6
CONTINUOUS
 10
215.0517414471
 20
408.0921437155
 11
213.8017414471
 21
408.0921437155
  0
LINE
  5
3FE
100
AcDbEntity
  8
6_ALL_SURFS
100
AcDbLine
 62
9
  6
CONTINUOUS
 10
2460.8017414471
 20
408.3921437155
 11
2459.5517414471
 21
408.3921437155
  0
LINE
  5
3FF
100
AcDbEntity
  8
6_ALL_SURFS
100
AcDbLine
 62
9
  6
CONTINUOUS
 10
215.0517414471
 20
408.3921437155
 11
213.8017414471
 21
408.3921437155
  0
LINE
  5
400
100
AcDbEntity
  8
6_ALL_SURFS
100
AcDbLine
 62
9
  6
CONTINUOUS
 10
213.8017414471
 20
409.211700003
 11
215.0517414471
 21
409.211700003
  0
LINE
  5
401
100
AcDbEntity
  8
6_ALL_SURFS
100
AcDbLine
 62
9
  6
CONTINUOUS
 10
2459.5517414471
 20
409.211700003
 11
2460.8017414471
 21
409.211700003
  0
LINE
  5
402
100
AcDbEntity
  8
6_ALL_SURFS
100
AcDbLine
 62
9
  6
CONTINUOUS
 10
213.8017414471
 20
409.4311061135
 11
215.0517414471
 21
409.4311061135
  0
LINE
  5
403
100
AcDbEntity
  8
6_ALL_SURFS
100
AcDbLine
 62
9
  6
CONTINUOUS
 10
2459.5517414471
 20
409.4311061135
 11
2460.8017414471
 21
409.4311061135
  0
LINE
  5
404
100
AcDbEntity
  8
6_ALL_SURFS
100
AcDbLine
 62
7
  6
CONTINUOUS
 10
2460.8017414471
 20
409.9921437155
 11
2459.5517414471
 21
409.9921437155
  0
LINE
  5
405
100
AcDbEntity
  8
6_ALL_SURFS
100
AcDbLine
 62
7
  6
CONTINUOUS
 10
215.0517414471
 20
409.9921437155
 11
213.8017414471
 21
409.9921437155
  0
LINE
  5
406
100
AcDbEntity
  8
6_ALL_SURFS
100
AcDbLine
 62
9
  6
CONTINUOUS
 10
2460.8017414471
 20
410.2921437155
 11
2459.5517414471
 21
410.2921437155
  0
LINE
  5
407
100
AcDbEntity
  8
6_ALL_SURFS
100
AcDbLine
 62
9
  6
CONTINUOUS
 10
215.0517414471
 20
410.2921437155
 11
213.8017414471
 21
410.2921437155
  0
LINE
  5
408
100
AcDbEntity
  8
7_ALL_FEATURES
100
AcDbLine
 62
9
  6
CONTINUOUS
 10
215.0517414471
 20
410.8421437155
 11
2459.5517414471
 21
410.8421437155
  0
LINE
  5
409
100
AcDbEntity
  8
6_ALL_SURFS
100
AcDbLine
 62
9
  6
CONTINUOUS
 10
213.8017414471
 20
410.9421437155
 11
215.0517414471
 21
410.9421437155
  0
LINE
  5
40A
100
AcDbEntity
  8
6_ALL_SURFS
100
AcDbLine
 62
9
  6
CONTINUOUS
 10
2459.5517414471
 20
410.9421437155
 11
2460.8017414471
 21
410.9421437155
  0
LINE
  5
40B
100
AcDbEntity
  8
7_ALL_FEATURES
100
AcDbLine
 62
7
  6
CONTINUOUS
 10
215.0517414471
 20
411.0421437155
 11
2459.5517414471
 21
411.0421437155
  0
LINE
  5
40C
100
AcDbEntity
  8
6_ALL_SURFS
100
AcDbLine
 62
7
  6
CONTINUOUS
 10
2460.8017414471
 20
411.2421437155
 11
213.8017414471
 21
411.2421437155
  0
LINE
  5
40D
100
AcDbEntity
  8
6_ALL_SURFS
100
AcDbLine
 62
9
  6
CONTINUOUS
 10
2460.8017414471
 20
411.5421437155
 11
213.8017414471
 21
411.5421437155
  0
LINE
  5
40E
100
AcDbEntity
  8
7_ALL_FEATURES
100
AcDbLine
 62
9
  6
CONTINUOUS
 10
2462.3017414471
 20
412.1421437155
 11
2460.8017414471
 21
412.1421437155
  0
LINE
  5
40F
100
AcDbEntity
  8
7_ALL_FEATURES
100
AcDbLine
 62
9
  6
CONTINUOUS
 10
212.3017414471
 20
412.1421437155
 11
213.8017414471
 21
412.1421437155
  0
LINE
  5
410
100
AcDbEntity
  8
6_ALL_SURFS
100
AcDbLine
 62
9
  6
CONTINUOUS
 10
2460.8017414471
 20
412.1921437155
 11
213.8017414471
 21
412.1921437155
  0
LINE
  5
411
100
AcDbEntity
  8
6_ALL_SURFS
100
AcDbLine
 62
7
  6
CONTINUOUS
 10
2460.8017414471
 20
412.4921437155
 11
213.8017414471
 21
412.4921437155
  0
LINE
  5
412
100
AcDbEntity
  8
3_ALL_AXES
100
AcDbLine
 62
7
  6
CONTINUOUS
 10
2463.3017414471
 20
412.7421437155
 11
2463.1510211175
 21
412.7421437155
  0
LINE
  5
413
100
AcDbEntity
  8
3_ALL_AXES
100
AcDbLine
 62
7
  6
CONTINUOUS
 10
211.3017414471
 20
412.7421437155
 11
211.4524617767
 21
412.7421437155
  0
LINE
  5
414
100
AcDbEntity
  8
6_ALL_SURFS
100
AcDbLine
 62
9
  6
CONTINUOUS
 10
213.8017414471
 20
412.7921437155
 11
2460.8017414471
 21
412.7921437155
  0
LINE
  5
415
100
AcDbEntity
  8
7_ALL_FEATURES
100
AcDbLine
 62
7
  6
CONTINUOUS
 10
2462.3017414471
 20
412.8921437155
 11
2460.8017414471
 21
412.8921437155
  0
LINE
  5
416
100
AcDbEntity
  8
7_ALL_FEATURES
100
AcDbLine
 62
7
  6
CONTINUOUS
 10
212.3017414471
 20
412.8921437155
 11
213.8017414471
 21
412.8921437155
  0
LINE
  5
417
100
AcDbEntity
  8
6_ALL_SURFS
100
AcDbLine
 62
7
  6
CONTINUOUS
 10
213.8017414471
 20
414.7421437155
 11
2460.8017414471
 21
414.7421437155
  0
LINE
  5
418
100
AcDbEntity
  8
6_ALL_SURFS
100
AcDbLine
 62
7
  6
CONTINUOUS
 10
213.8017414471
 20
415.3421437155
 11
2460.8017414471
 21
415.3421437155
  0
LINE
  5
419
100
AcDbEntity
  8
6_ALL_SURFS
100
AcDbLine
 62
7
  6
CONTINUOUS
 10
213.8017414471
 20
417.7421437155
 11
2460.8017414471
 21
417.7421437155
  0
LINE
  5
41A
100
AcDbEntity
  8
6_ALL_SURFS
100
AcDbLine
 62
7
  6
CONTINUOUS
 10
213.8017414471
 20
418.3421437155
 11
2460.8017414471
 21
418.3421437155
  0
LINE
  5
41B
100
AcDbEntity
  8
6_ALL_SURFS
100
AcDbLine
 62
7
  6
CONTINUOUS
 10
213.8017414471
 20
420.7421437155
 11
2460.8017414471
 21
420.7421437155
  0
LINE
  5
41C
100
AcDbEntity
  8
6_ALL_SURFS
100
AcDbLine
 62
7
  6
CONTINUOUS
 10
213.8017414471
 20
421.3421437155
 11
2460.8017414471
 21
421.3421437155
  0
LINE
  5
41D
100
AcDbEntity
  8
6_ALL_SURFS
100
AcDbLine
 62
7
  6
CONTINUOUS
 10
213.8017414471
 20
423.7421437155
 11
333.5559749381
 21
423.7421437155
  0
LINE
  5
41E
100
AcDbEntity
  8
6_ALL_SURFS
100
AcDbLine
 62
7
  6
CONTINUOUS
 10
341.0475079561
 20
423.7421437155
 11
583.5559749381
 21
423.7421437155
  0
LINE
  5
41F
100
AcDbEntity
  8
6_ALL_SURFS
100
AcDbLine
 62
7
  6
CONTINUOUS
 10
591.0475079561
 20
423.7421437155
 11
833.5559749381
 21
423.7421437155
  0
LINE
  5
420
100
AcDbEntity
  8
6_ALL_SURFS
100
AcDbLine
 62
7
  6
CONTINUOUS
 10
841.0475079561
 20
423.7421437155
 11
1083.5559749381
 21
423.7421437155
  0
LINE
  5
421
100
AcDbEntity
  8
6_ALL_SURFS
100
AcDbLine
 62
7
  6
CONTINUOUS
 10
1091.0475079561
 20
423.7421437155
 11
1333.5559749381
 21
423.7421437155
  0
LINE
  5
422
100
AcDbEntity
  8
6_ALL_SURFS
100
AcDbLine
 62
7
  6
CONTINUOUS
 10
1341.0475079561
 20
423.7421437155
 11
1583.5559749381
 21
423.7421437155
  0
LINE
  5
423
100
AcDbEntity
  8
6_ALL_SURFS
100
AcDbLine
 62
7
  6
CONTINUOUS
 10
1591.0475079561
 20
423.7421437155
 11
1833.5559749381
 21
423.7421437155
  0
LINE
  5
424
100
AcDbEntity
  8
6_ALL_SURFS
100
AcDbLine
 62
7
  6
CONTINUOUS
 10
1841.0475079561
 20
423.7421437155
 11
2083.5559749381
 21
423.7421437155
  0
LINE
  5
425
100
AcDbEntity
  8
6_ALL_SURFS
100
AcDbLine
 62
7
  6
CONTINUOUS
 10
2091.0475079561
 20
423.7421437155
 11
2333.5559749381
 21
423.7421437155
  0
LINE
  5
426
100
AcDbEntity
  8
6_ALL_SURFS
100
AcDbLine
 62
7
  6
CONTINUOUS
 10
2341.0475079561
 20
423.7421437155
 11
2460.8017414471
 21
423.7421437155
  0
LINE
  5
427
100
AcDbEntity
  8
6_ALL_SURFS
100
AcDbLine
 62
7
  6
CONTINUOUS
 10
213.8017414471
 20
424.3421437155
 11
333.1459302459
 21
424.3421437155
  0
LINE
  5
428
100
AcDbEntity
  8
6_ALL_SURFS
100
AcDbLine
 62
7
  6
CONTINUOUS
 10
341.4575526483
 20
424.3421437155
 11
583.1459302459
 21
424.3421437155
  0
LINE
  5
429
100
AcDbEntity
  8
6_ALL_SURFS
100
AcDbLine
 62
7
  6
CONTINUOUS
 10
591.4575526483
 20
424.3421437155
 11
833.1459302459
 21
424.3421437155
  0
LINE
  5
42A
100
AcDbEntity
  8
6_ALL_SURFS
100
AcDbLine
 62
7
  6
CONTINUOUS
 10
841.4575526483
 20
424.3421437155
 11
1083.1459302459
 21
424.3421437155
  0
LINE
  5
42B
100
AcDbEntity
  8
6_ALL_SURFS
100
AcDbLine
 62
7
  6
CONTINUOUS
 10
1091.4575526483
 20
424.3421437155
 11
1333.1459302459
 21
424.3421437155
  0
LINE
  5
42C
100
AcDbEntity
  8
6_ALL_SURFS
100
AcDbLine
 62
7
  6
CONTINUOUS
 10
1341.4575526483
 20
424.3421437155
 11
1583.1459302459
 21
424.3421437155
  0
LINE
  5
42D
100
AcDbEntity
  8
6_ALL_SURFS
100
AcDbLine
 62
7
  6
CONTINUOUS
 10
1591.4575526483
 20
424.3421437155
 11
1833.1459302459
 21
424.3421437155
  0
LINE
  5
42E
100
AcDbEntity
  8
6_ALL_SURFS
100
AcDbLine
 62
7
  6
CONTINUOUS
 10
1841.4575526483
 20
424.3421437155
 11
2083.1459302459
 21
424.3421437155
  0
LINE
  5
42F
100
AcDbEntity
  8
6_ALL_SURFS
100
AcDbLine
 62
7
  6
CONTINUOUS
 10
2091.4575526483
 20
424.3421437155
 11
2333.1459302459
 21
424.3421437155
  0
LINE
  5
430
100
AcDbEntity
  8
6_ALL_SURFS
100
AcDbLine
 62
7
  6
CONTINUOUS
 10
2341.4575526483
 20
424.3421437155
 11
2460.8017414471
 21
424.3421437155
  0
LINE
  5
431
100
AcDbEntity
  8
6_ALL_SURFS
100
AcDbLine
 62
7
  6
CONTINUOUS
 10
213.8017414471
 20
426.7421437155
 11
332.5027033414
 21
426.7421437155
  0
LINE
  5
432
100
AcDbEntity
  8
6_ALL_SURFS
100
AcDbLine
 62
7
  6
CONTINUOUS
 10
342.1007795528
 20
426.7421437155
 11
582.5027033414
 21
426.7421437155
  0
LINE
  5
433
100
AcDbEntity
  8
6_ALL_SURFS
100
AcDbLine
 62
7
  6
CONTINUOUS
 10
592.1007795528
 20
426.7421437155
 11
832.5027033414
 21
426.7421437155
  0
LINE
  5
434
100
AcDbEntity
  8
6_ALL_SURFS
100
AcDbLine
 62
7
  6
CONTINUOUS
 10
842.1007795528
 20
426.7421437155
 11
1082.5027033414
 21
426.7421437155
  0
LINE
  5
435
100
AcDbEntity
  8
6_ALL_SURFS
100
AcDbLine
 62
7
  6
CONTINUOUS
 10
1092.1007795528
 20
426.7421437155
 11
1332.5027033414
 21
426.7421437155
  0
LINE
  5
436
100
AcDbEntity
  8
6_ALL_SURFS
100
AcDbLine
 62
7
  6
CONTINUOUS
 10
1342.1007795528
 20
426.7421437155
 11
1582.5027033414
 21
426.7421437155
  0
LINE
  5
437
100
AcDbEntity
  8
6_ALL_SURFS
100
AcDbLine
 62
7
  6
CONTINUOUS
 10
1592.1007795528
 20
426.7421437155
 11
1832.5027033414
 21
426.7421437155
  0
LINE
  5
438
100
AcDbEntity
  8
6_ALL_SURFS
100
AcDbLine
 62
7
  6
CONTINUOUS
 10
1842.1007795528
 20
426.7421437155
 11
2082.5027033414
 21
426.7421437155
  0
LINE
  5
439
100
AcDbEntity
  8
6_ALL_SURFS
100
AcDbLine
 62
7
  6
CONTINUOUS
 10
2092.1007795528
 20
426.7421437155
 11
2332.5027033414
 21
426.7421437155
  0
LINE
  5
43A
100
AcDbEntity
  8
6_ALL_SURFS
100
AcDbLine
 62
7
  6
CONTINUOUS
 10
2342.1007795528
 20
426.7421437155
 11
2460.8017414471
 21
426.7421437155
  0
LINE
  5
43B
100
AcDbEntity
  8
6_ALL_SURFS
100
AcDbLine
 62
7
  6
CONTINUOUS
 10
213.8017414471
 20
427.3421437155
 11
332.5403585871
 21
427.3421437155
  0
LINE
  5
43C
100
AcDbEntity
  8
6_ALL_SURFS
100
AcDbLine
 62
7
  6
CONTINUOUS
 10
342.0631243071
 20
427.3421437155
 11
582.5403585871
 21
427.3421437155
  0
LINE
  5
43D
100
AcDbEntity
  8
6_ALL_SURFS
100
AcDbLine
 62
7
  6
CONTINUOUS
 10
592.0631243071
 20
427.3421437155
 11
832.5403585871
 21
427.3421437155
  0
LINE
  5
43E
100
AcDbEntity
  8
6_ALL_SURFS
100
AcDbLine
 62
7
  6
CONTINUOUS
 10
842.0631243071
 20
427.3421437155
 11
1082.5403585871
 21
427.3421437155
  0
LINE
  5
43F
100
AcDbEntity
  8
6_ALL_SURFS
100
AcDbLine
 62
7
  6
CONTINUOUS
 10
1092.0631243071
 20
427.3421437155
 11
1332.5403585871
 21
427.3421437155
  0
LINE
  5
440
100
AcDbEntity
  8
6_ALL_SURFS
100
AcDbLine
 62
7
  6
CONTINUOUS
 10
1342.0631243071
 20
427.3421437155
 11
1582.5403585871
 21
427.3421437155
  0
LINE
  5
441
100
AcDbEntity
  8
6_ALL_SURFS
100
AcDbLine
 62
7
  6
CONTINUOUS
 10
1592.0631243071
 20
427.3421437155
 11
1832.5403585871
 21
427.3421437155
  0
LINE
  5
442
100
AcDbEntity
  8
6_ALL_SURFS
100
AcDbLine
 62
7
  6
CONTINUOUS
 10
1842.0631243071
 20
427.3421437155
 11
2082.5403585871
 21
427.3421437155
  0
LINE
  5
443
100
AcDbEntity
  8
6_ALL_SURFS
100
AcDbLine
 62
7
  6
CONTINUOUS
 10
2092.0631243071
 20
427.3421437155
 11
2332.5403585871
 21
427.3421437155
  0
LINE
  5
444
100
AcDbEntity
  8
6_ALL_SURFS
100
AcDbLine
 62
7
  6
CONTINUOUS
 10
2342.0631243071
 20
427.3421437155
 11
2460.8017414471
 21
427.3421437155
  0
LINE
  5
445
100
AcDbEntity
  8
6_ALL_SURFS
100
AcDbLine
 62
7
  6
CONTINUOUS
 10
213.8017414471
 20
430.2421437155
 11
334.0183336534
 21
430.2421437155
  0
LINE
  5
446
100
AcDbEntity
  8
6_ALL_SURFS
100
AcDbLine
 62
7
  6
CONTINUOUS
 10
340.5851492408
 20
430.2421437155
 11
584.0183336534
 21
430.2421437155
  0
LINE
  5
447
100
AcDbEntity
  8
6_ALL_SURFS
100
AcDbLine
 62
7
  6
CONTINUOUS
 10
590.5851492408
 20
430.2421437155
 11
834.0183336534
 21
430.2421437155
  0
LINE
  5
448
100
AcDbEntity
  8
6_ALL_SURFS
100
AcDbLine
 62
7
  6
CONTINUOUS
 10
840.5851492408
 20
430.2421437155
 11
1084.0183336534
 21
430.2421437155
  0
LINE
  5
449
100
AcDbEntity
  8
6_ALL_SURFS
100
AcDbLine
 62
7
  6
CONTINUOUS
 10
1090.5851492408
 20
430.2421437155
 11
1334.0183336534
 21
430.2421437155
  0
LINE
  5
44A
100
AcDbEntity
  8
6_ALL_SURFS
100
AcDbLine
 62
7
  6
CONTINUOUS
 10
1340.5851492408
 20
430.2421437155
 11
1584.0183336534
 21
430.2421437155
  0
LINE
  5
44B
100
AcDbEntity
  8
6_ALL_SURFS
100
AcDbLine
 62
7
  6
CONTINUOUS
 10
1590.5851492408
 20
430.2421437155
 11
1834.0183336534
 21
430.2421437155
  0
LINE
  5
44C
100
AcDbEntity
  8
6_ALL_SURFS
100
AcDbLine
 62
7
  6
CONTINUOUS
 10
1840.5851492408
 20
430.2421437155
 11
2084.0183336534
 21
430.2421437155
  0
LINE
  5
44D
100
AcDbEntity
  8
6_ALL_SURFS
100
AcDbLine
 62
7
  6
CONTINUOUS
 10
2090.5851492408
 20
430.2421437155
 11
2334.0183336534
 21
430.2421437155
  0
LINE
  5
44E
100
AcDbEntity
  8
6_ALL_SURFS
100
AcDbLine
 62
7
  6
CONTINUOUS
 10
2340.5851492408
 20
430.2421437155
 11
2460.8017414471
 21
430.2421437155
  0
LINE
  5
44F
100
AcDbEntity
  8
6_ALL_SURFS
100
AcDbLine
 62
9
  6
CONTINUOUS
 10
2460.8017414471
 20
432.3876153058
 11
213.8017414471
 21
432.3876153058
  0
LINE
  5
450
100
AcDbEntity
  8
6_ALL_SURFS
100
AcDbLine
 62
7
  6
CONTINUOUS
 10
213.8017414471
 20
432.7421437155
 11
2460.8017414471
 21
432.7421437155
  0
LINE
  5
451
100
AcDbEntity
  8
3_ALL_AXES
100
AcDbLine
 62
7
  6
CONTINUOUS
 10
2463.1510211175
 20
412.7421437155
 11
2462.3017414471
 21
412.0295134573
  0
LINE
  5
452
100
AcDbEntity
  8
3_ALL_AXES
100
AcDbLine
 62
7
  6
CONTINUOUS
 10
2463.1510211175
 20
406.4421437155
 11
2462.3017414471
 21
405.7295134573
  0
LINE
  5
453
100
AcDbEntity
  8
3_ALL_AXES
100
AcDbLine
 62
7
  6
CONTINUOUS
 10
2463.1510211175
 20
382.4421437155
 11
2462.3017414471
 21
381.7295134573
  0
LINE
  5
454
100
AcDbEntity
  8
3_ALL_AXES
100
AcDbLine
 62
7
  6
CONTINUOUS
 10
2463.1510211175
 20
376.1421437155
 11
2462.3017414471
 21
375.4295134573
  0
LINE
  5
455
100
AcDbEntity
  8
3_ALL_AXES
100
AcDbLine
 62
7
  6
CONTINUOUS
 10
2463.1510211175
 20
370.6421437155
 11
2462.3017414471
 21
371.3547739736
  0
LINE
  5
456
100
AcDbEntity
  8
3_ALL_AXES
100
AcDbLine
 62
7
  6
CONTINUOUS
 10
2463.1510211175
 20
376.9421437155
 11
2462.3017414471
 21
377.6547739736
  0
LINE
  5
457
100
AcDbEntity
  8
3_ALL_AXES
100
AcDbLine
 62
7
  6
CONTINUOUS
 10
2463.1510211175
 20
400.9421437155
 11
2462.3017414471
 21
401.6547739736
  0
LINE
  5
458
100
AcDbEntity
  8
3_ALL_AXES
100
AcDbLine
 62
7
  6
CONTINUOUS
 10
2463.1510211175
 20
407.2421437155
 11
2462.3017414471
 21
407.9547739736
  0
LINE
  5
459
100
AcDbEntity
  8
7_ALL_FEATURES
100
AcDbLine
 62
7
  6
CONTINUOUS
 10
2459.5517414471
 20
411.0421437155
 11
2459.5517414471
 21
372.3421437155
  0
LINE
  5
45A
100
AcDbEntity
  8
3_ALL_AXES
100
AcDbLine
 62
7
  6
CONTINUOUS
 10
2460.8017414471
 20
368.6421437155
 11
2460.8017414471
 21
353.1421437155
  0
LINE
  5
45B
100
AcDbEntity
  8
7_ALL_FEATURES
100
AcDbLine
 62
7
  6
CONTINUOUS
 10
2460.8017414471
 20
353.1421437155
 11
2460.8017414471
 21
350.6421589318
  0
LINE
  5
45C
100
AcDbEntity
  8
7_ALL_FEATURES
100
AcDbLine
 62
7
  6
CONTINUOUS
 10
2460.8017414471
 20
368.6421437155
 11
2460.8017414471
 21
412.1421437155
  0
LINE
  5
45D
100
AcDbEntity
  8
7_ALL_FEATURES
100
AcDbLine
 62
7
  6
CONTINUOUS
 10
2460.8017414471
 20
412.2751266744
 11
2460.8017414471
 21
412.8921437155
  0
LINE
  5
45E
100
AcDbEntity
  8
6_ALL_SURFS
100
AcDbLine
 62
7
  6
CONTINUOUS
 10
2460.8017414471
 20
411.5421437155
 11
2460.8017414471
 21
412.3421437155
  0
LINE
  5
45F
100
AcDbEntity
  8
6_ALL_SURFS
100
AcDbLine
 62
7
  6
CONTINUOUS
 10
2460.8017414471
 20
412.8921437155
 11
2460.8017414471
 21
432.7421284991
  0
LINE
  5
460
100
AcDbEntity
  8
7_ALL_FEATURES
100
AcDbLine
 62
7
  6
CONTINUOUS
 10
2462.3017414471
 20
412.8921437155
 11
2462.3017414471
 21
370.4921437155
  0
LINE
  5
461
100
AcDbEntity
  8
3_ALL_AXES
100
AcDbLine
 62
7
  6
CONTINUOUS
 10
2463.1510211175
 20
370.6421437155
 11
2463.1510211175
 21
376.1421437155
  0
LINE
  5
462
100
AcDbEntity
  8
3_ALL_AXES
100
AcDbLine
 62
7
  6
CONTINUOUS
 10
2463.1510211175
 20
376.9421437155
 11
2463.1510211175
 21
382.4421437155
  0
LINE
  5
463
100
AcDbEntity
  8
3_ALL_AXES
100
AcDbLine
 62
7
  6
CONTINUOUS
 10
2463.1510211175
 20
400.9421437155
 11
2463.1510211175
 21
406.4421437155
  0
LINE
  5
464
100
AcDbEntity
  8
3_ALL_AXES
100
AcDbLine
 62
7
  6
CONTINUOUS
 10
2463.1510211175
 20
407.2421437155
 11
2463.1510211175
 21
412.7421437155
  0
LINE
  5
465
100
AcDbEntity
  8
3_ALL_AXES
100
AcDbLine
 62
7
  6
CONTINUOUS
 10
2463.3017414471
 20
370.6421437155
 11
2463.3017414471
 21
376.1421437155
  0
LINE
  5
466
100
AcDbEntity
  8
3_ALL_AXES
100
AcDbLine
 62
7
  6
CONTINUOUS
 10
2463.3017414471
 20
376.9421437155
 11
2463.3017414471
 21
382.4421437155
  0
LINE
  5
467
100
AcDbEntity
  8
3_ALL_AXES
100
AcDbLine
 62
7
  6
CONTINUOUS
 10
2463.3017414471
 20
400.9421437155
 11
2463.3017414471
 21
406.4421437155
  0
LINE
  5
468
100
AcDbEntity
  8
3_ALL_AXES
100
AcDbLine
 62
7
  6
CONTINUOUS
 10
2463.3017414471
 20
407.2421437155
 11
2463.3017414471
 21
412.7421437155
  0
CIRCLE
  5
469
100
AcDbEntity
  8
3_ALL_AXES
100
AcDbCircle
 62
7
  6
CONTINUOUS
 10
92.9507178532
 20
231.5588348133
 40
2.75
  0
ARC
  5
46A
100
AcDbEntity
  8
7_ALL_FEATURES
100
AcDbCircle
 62
7
  6
CONTINUOUS
 10
91.7507178532
 20
236.9588348133
 40
1.5
100
AcDbArc
 50
270.0
 51
360.0
  0
ARC
  5
46B
100
AcDbEntity
  8
7_ALL_FEATURES
100
AcDbCircle
 62
7
  6
CONTINUOUS
 10
90.8007178532
 20
234.7088348133
 40
0.75
100
AcDbArc
 50
90.0
 51
180.0
  0
ARC
  5
46C
100
AcDbEntity
  8
7_ALL_FEATURES
100
AcDbCircle
 62
7
  6
CONTINUOUS
 10
90.8007178532
 20
221.3088348133
 40
0.75
100
AcDbArc
 50
180.0
 51
270.0
  0
ARC
  5
46D
100
AcDbEntity
  8
6_ALL_SURFS
100
AcDbCircle
 62
7
  6
CONTINUOUS
 10
87.9007178532
 20
221.6588348133
 40
0.5
100
AcDbArc
 50
53.1301023542
 51
126.8698976458
  0
ARC
  5
46E
100
AcDbEntity
  8
6_ALL_SURFS
100
AcDbCircle
 62
7
  6
CONTINUOUS
 10
84.9007178532
 20
221.6588348133
 40
0.5
100
AcDbArc
 50
53.1301023542
 51
126.8698976458
  0
ARC
  5
46F
100
AcDbEntity
  8
6_ALL_SURFS
100
AcDbCircle
 62
7
  6
CONTINUOUS
 10
81.9007178532
 20
221.6588348133
 40
0.5
100
AcDbArc
 50
53.1301023542
 51
126.8698976458
  0
ARC
  5
470
100
AcDbEntity
  8
6_ALL_SURFS
100
AcDbCircle
 62
7
  6
CONTINUOUS
 10
78.9007178532
 20
221.6588348133
 40
0.5
100
AcDbArc
 50
53.1301023542
 51
126.8698976458
  0
ARC
  5
471
100
AcDbEntity
  8
6_ALL_SURFS
100
AcDbCircle
 62
7
  6
CONTINUOUS
 10
75.9007178532
 20
221.6588348133
 40
0.5
100
AcDbArc
 50
53.1301023542
 51
126.8698976458
  0
ARC
  5
472
100
AcDbEntity
  8
6_ALL_SURFS
100
AcDbCircle
 62
7
  6
CONTINUOUS
 10
70.5944212111
 20
222.6651314554
 40
0.3937033579
100
AcDbArc
 50
90.0
 51
264.2894068625
  0
ARC
  5
473
100
AcDbEntity
  8
6_ALL_SURFS
100
AcDbCircle
 62
7
  6
CONTINUOUS
 10
89.9007178532
 20
223.3588348133
 40
0.3
100
AcDbArc
 50
270.0
 51
300.0
  0
ARC
  5
474
100
AcDbEntity
  8
6_ALL_SURFS
100
AcDbCircle
 62
7
  6
CONTINUOUS
 10
90.7507178532
 20
220.8588348133
 40
0.3
100
AcDbArc
 50
253.9034922137
 51
270.0
  0
CIRCLE
  5
475
100
AcDbEntity
  8
3_ALL_AXES
100
AcDbCircle
 62
7
  6
CONTINUOUS
 10
99.2507178532
 20
297.1588348133
 40
2.75
  0
ARC
  5
476
100
AcDbEntity
  8
6_ALL_SURFS
100
AcDbCircle
 62
7
  6
CONTINUOUS
 10
109.4507178532
 20
298.5588348133
 40
1.8
100
AcDbArc
 50
90.0
 51
105.4135474965
  0
ARC
  5
477
100
AcDbEntity
  8
7_ALL_FEATURES
100
AcDbCircle
 62
7
  6
CONTINUOUS
 10
108.6049665421
 20
299.3588348133
 40
1.0
100
AcDbArc
 50
48.5903778907
 51
90.0
  0
ARC
  5
478
100
AcDbEntity
  8
7_ALL_FEATURES
100
AcDbCircle
 62
7
  6
CONTINUOUS
 10
96.0007178532
 20
299.6088348133
 40
0.75
100
AcDbArc
 50
90.0
 51
180.0
  0
ARC
  5
479
100
AcDbEntity
  8
6_ALL_SURFS
100
AcDbCircle
 62
7
  6
CONTINUOUS
 10
95.5507178532
 20
300.0588348133
 40
0.3
100
AcDbArc
 50
90.0
 51
180.0
  0
CIRCLE
  5
47A
100
AcDbEntity
  8
3_ALL_AXES
100
AcDbCircle
 62
7
  6
CONTINUOUS
 10
129.5507178532
 20
231.5588348133
 40
2.75
  0
ARC
  5
47B
100
AcDbEntity
  8
7_ALL_FEATURES
100
AcDbCircle
 62
7
  6
CONTINUOUS
 10
130.7507178532
 20
236.9588348133
 40
1.5
100
AcDbArc
 50
180.0
 51
270.0
  0
ARC
  5
47C
100
AcDbEntity
  8
7_ALL_FEATURES
100
AcDbCircle
 62
7
  6
CONTINUOUS
 10
131.7007178532
 20
221.3088348133
 40
0.75
100
AcDbArc
 50
270.0
 51
360.0
  0
ARC
  5
47D
100
AcDbEntity
  8
7_ALL_FEATURES
100
AcDbCircle
 62
7
  6
CONTINUOUS
 10
131.7007178532
 20
234.7088348133
 40
0.75
100
AcDbArc
 50
0.0
 51
90.0
  0
ARC
  5
47E
100
AcDbEntity
  8
3_ALL_AXES
100
AcDbCircle
 62
7
  6
CONTINUOUS
 10
146.6007178532
 20
221.6588348133
 40
0.5
100
AcDbArc
 50
53.1301023542
 51
126.8698976458
  0
ARC
  5
47F
100
AcDbEntity
  8
3_ALL_AXES
100
AcDbCircle
 62
7
  6
CONTINUOUS
 10
143.6007178532
 20
221.6588348133
 40
0.5
100
AcDbArc
 50
53.1301023542
 51
126.8698976458
  0
ARC
  5
480
100
AcDbEntity
  8
3_ALL_AXES
100
AcDbCircle
 62
7
  6
CONTINUOUS
 10
140.6007178532
 20
221.6588348133
 40
0.5
100
AcDbArc
 50
53.1301023542
 51
126.8698976458
  0
ARC
  5
481
100
AcDbEntity
  8
3_ALL_AXES
100
AcDbCircle
 62
7
  6
CONTINUOUS
 10
137.6007178532
 20
221.6588348133
 40
0.5
100
AcDbArc
 50
53.1301023542
 51
126.8698976458
  0
ARC
  5
482
100
AcDbEntity
  8
3_ALL_AXES
100
AcDbCircle
 62
7
  6
CONTINUOUS
 10
134.6007178532
 20
221.6588348133
 40
0.5
100
AcDbArc
 50
53.1301023542
 51
126.8698976458
  0
ARC
  5
483
100
AcDbEntity
  8
7_ALL_FEATURES
100
AcDbCircle
 62
7
  6
CONTINUOUS
 10
151.9070144952
 20
222.6651314554
 40
0.3937033579
100
AcDbArc
 50
275.7105931375
 51
90.0
  0
ARC
  5
484
100
AcDbEntity
  8
7_ALL_FEATURES
100
AcDbCircle
 62
7
  6
CONTINUOUS
 10
132.6007178532
 20
223.3588348133
 40
0.3
100
AcDbArc
 50
240.0
 51
270.0
  0
ARC
  5
485
100
AcDbEntity
  8
7_ALL_FEATURES
100
AcDbCircle
 62
7
  6
CONTINUOUS
 10
131.7507178532
 20
220.8588348133
 40
0.3
100
AcDbArc
 50
270.0
 51
286.0965077863
  0
ARC
  5
486
100
AcDbEntity
  8
7_ALL_FEATURES
100
AcDbCircle
 62
7
  6
CONTINUOUS
 10
111.2507178532
 20
277.8588348133
 40
11.0
100
AcDbArc
 50
3.257196161
 51
176.742803839
  0
ARC
  5
487
100
AcDbEntity
  8
7_ALL_FEATURES
100
AcDbCircle
 62
7
  6
CONTINUOUS
 10
111.2507178532
 20
277.8588348133
 40
11.0
100
AcDbArc
 50
183.257196161
 51
356.742803839
  0
ARC
  5
488
100
AcDbEntity
  8
7_ALL_FEATURES
100
AcDbCircle
 62
7
  6
CONTINUOUS
 10
111.2507178532
 20
277.8588348133
 40
10.25
100
AcDbArc
 50
3.4958136324
 51
176.5041863676
  0
ARC
  5
489
100
AcDbEntity
  8
7_ALL_FEATURES
100
AcDbCircle
 62
7
  6
CONTINUOUS
 10
111.2507178532
 20
277.8588348133
 40
10.25
100
AcDbArc
 50
183.4958136324
 51
356.5041863676
  0
ARC
  5
48A
100
AcDbEntity
  8
7_ALL_FEATURES
100
AcDbCircle
 62
7
  6
CONTINUOUS
 10
111.2507178532
 20
302.3588348133
 40
3.0
100
AcDbArc
 50
228.5903778907
 51
311.4096221093
  0
CIRCLE
  5
48B
100
AcDbEntity
  8
3_ALL_AXES
100
AcDbCircle
 62
7
  6
CONTINUOUS
 10
123.2507178532
 20
297.1588348133
 40
2.75
  0
ARC
  5
48C
100
AcDbEntity
  8
7_ALL_FEATURES
100
AcDbCircle
 62
7
  6
CONTINUOUS
 10
113.0507178532
 20
298.5588348133
 40
1.8
100
AcDbArc
 50
74.5864525035
 51
90.0
  0
ARC
  5
48D
100
AcDbEntity
  8
7_ALL_FEATURES
100
AcDbCircle
 62
7
  6
CONTINUOUS
 10
113.8964691642
 20
299.3588348133
 40
1.0
100
AcDbArc
 50
90.0
 51
131.4096221093
  0
ARC
  5
48E
100
AcDbEntity
  8
7_ALL_FEATURES
100
AcDbCircle
 62
7
  6
CONTINUOUS
 10
126.5007178532
 20
299.6088348133
 40
0.75
100
AcDbArc
 50
0.0
 51
90.0
  0
ARC
  5
48F
100
AcDbEntity
  8
7_ALL_FEATURES
100
AcDbCircle
 62
7
  6
CONTINUOUS
 10
126.9507178532
 20
300.0588348133
 40
0.3
100
AcDbArc
 50
0.0
 51
90.0
  0
ARC
  5
490
100
AcDbEntity
  8
7_ALL_FEATURES
100
AcDbCircle
 62
7
  6
CONTINUOUS
 10
1087.3017414471
 20
356.6421437155
 40
4.7990381057
100
AcDbArc
 50
38.6913826582
 51
141.3086173418
  0
ARC
  5
491
100
AcDbEntity
  8
7_ALL_FEATURES
100
AcDbCircle
 62
7
  6
CONTINUOUS
 10
837.3017414471
 20
356.6421437155
 40
4.7990381057
100
AcDbArc
 50
38.6913826582
 51
141.3086173418
  0
ARC
  5
492
100
AcDbEntity
  8
7_ALL_FEATURES
100
AcDbCircle
 62
7
  6
CONTINUOUS
 10
587.3017414471
 20
356.6421437155
 40
4.7990381057
100
AcDbArc
 50
38.6913826582
 51
141.3086173418
  0
ARC
  5
493
100
AcDbEntity
  8
7_ALL_FEATURES
100
AcDbCircle
 62
7
  6
CONTINUOUS
 10
337.3017414471
 20
356.6421437155
 40
4.7990381057
100
AcDbArc
 50
38.6913826582
 51
141.3086173418
  0
ARC
  5
494
100
AcDbEntity
  8
7_ALL_FEATURES
100
AcDbCircle
 62
7
  6
CONTINUOUS
 10
337.3017414471
 20
356.6421437155
 40
4.7990381057
100
AcDbArc
 50
149.9933694481
 51
180.0
  0
ARC
  5
495
100
AcDbEntity
  8
7_ALL_FEATURES
100
AcDbCircle
 62
7
  6
CONTINUOUS
 10
587.3017414471
 20
356.6421437155
 40
4.7990381057
100
AcDbArc
 50
149.9933694481
 51
180.0
  0
ARC
  5
496
100
AcDbEntity
  8
7_ALL_FEATURES
100
AcDbCircle
 62
7
  6
CONTINUOUS
 10
337.3017414471
 20
356.6421437155
 40
4.7990381057
100
AcDbArc
 50
0.0
 51
30.0066305519
  0
ARC
  5
497
100
AcDbEntity
  8
7_ALL_FEATURES
100
AcDbCircle
 62
7
  6
CONTINUOUS
 10
837.3017414471
 20
356.6421437155
 40
4.7990381057
100
AcDbArc
 50
149.9933694481
 51
180.0
  0
ARC
  5
498
100
AcDbEntity
  8
7_ALL_FEATURES
100
AcDbCircle
 62
7
  6
CONTINUOUS
 10
587.3017414471
 20
356.6421437155
 40
4.7990381057
100
AcDbArc
 50
0.0
 51
30.0066305519
  0
ARC
  5
499
100
AcDbEntity
  8
7_ALL_FEATURES
100
AcDbCircle
 62
7
  6
CONTINUOUS
 10
1087.3017414471
 20
356.6421437155
 40
4.7990381057
100
AcDbArc
 50
149.9933694481
 51
180.0
  0
ARC
  5
49A
100
AcDbEntity
  8
7_ALL_FEATURES
100
AcDbCircle
 62
7
  6
CONTINUOUS
 10
837.3017414471
 20
356.6421437155
 40
4.7990381057
100
AcDbArc
 50
0.0
 51
30.0066305519
  0
ARC
  5
49B
100
AcDbEntity
  8
7_ALL_FEATURES
100
AcDbCircle
 62
7
  6
CONTINUOUS
 10
1087.3017414471
 20
356.6421437155
 40
4.7990381057
100
AcDbArc
 50
0.0
 51
30.0066305519
  0
ARC
  5
49C
100
AcDbEntity
  8
7_ALL_FEATURES
100
AcDbCircle
 62
7
  6
CONTINUOUS
 10
337.3017414471
 20
356.6421437155
 40
4.7990381057
100
AcDbArc
 50
187.1822026405
 51
226.828815981
  0
ARC
  5
49D
100
AcDbEntity
  8
7_ALL_FEATURES
100
AcDbCircle
 62
7
  6
CONTINUOUS
 10
587.3017414471
 20
356.6421437155
 40
4.7990381057
100
AcDbArc
 50
187.1822026405
 51
226.828815981
  0
ARC
  5
49E
100
AcDbEntity
  8
7_ALL_FEATURES
100
AcDbCircle
 62
7
  6
CONTINUOUS
 10
337.3017414471
 20
356.6421437155
 40
4.7990381057
100
AcDbArc
 50
313.171184019
 51
352.8177973595
  0
ARC
  5
49F
100
AcDbEntity
  8
7_ALL_FEATURES
100
AcDbCircle
 62
7
  6
CONTINUOUS
 10
837.3017414471
 20
356.6421437155
 40
4.7990381057
100
AcDbArc
 50
187.1822026405
 51
226.828815981
  0
ARC
  5
4A0
100
AcDbEntity
  8
7_ALL_FEATURES
100
AcDbCircle
 62
7
  6
CONTINUOUS
 10
587.3017414471
 20
356.6421437155
 40
4.7990381057
100
AcDbArc
 50
313.171184019
 51
352.8177973595
  0
ARC
  5
4A1
100
AcDbEntity
  8
7_ALL_FEATURES
100
AcDbCircle
 62
7
  6
CONTINUOUS
 10
1087.3017414471
 20
356.6421437155
 40
4.7990381057
100
AcDbArc
 50
187.1822026405
 51
226.828815981
  0
ARC
  5
4A2
100
AcDbEntity
  8
7_ALL_FEATURES
100
AcDbCircle
 62
7
  6
CONTINUOUS
 10
837.3017414471
 20
356.6421437155
 40
4.7990381057
100
AcDbArc
 50
313.171184019
 51
352.8177973595
  0
ARC
  5
4A3
100
AcDbEntity
  8
7_ALL_FEATURES
100
AcDbCircle
 62
7
  6
CONTINUOUS
 10
1087.3017414471
 20
356.6421437155
 40
4.7990381057
100
AcDbArc
 50
313.171184019
 51
352.8177973595
  0
CIRCLE
  5
4A4
100
AcDbEntity
  8
6_ALL_SURFS
100
AcDbCircle
 62
7
  6
CONTINUOUS
 10
1087.3017414471
 20
356.6421437155
 40
3.5
  0
CIRCLE
  5
4A5
100
AcDbEntity
  8
6_ALL_SURFS
100
AcDbCircle
 62
7
  6
CONTINUOUS
 10
837.3017414471
 20
356.6421437155
 40
3.5
  0
CIRCLE
  5
4A6
100
AcDbEntity
  8
6_ALL_SURFS
100
AcDbCircle
 62
7
  6
CONTINUOUS
 10
587.3017414471
 20
356.6421437155
 40
3.5
  0
CIRCLE
  5
4A7
100
AcDbEntity
  8
6_ALL_SURFS
100
AcDbCircle
 62
7
  6
CONTINUOUS
 10
337.3017414471
 20
356.6421437155
 40
3.5
  0
ARC
  5
4A8
100
AcDbEntity
  8
6_ALL_SURFS
100
AcDbCircle
 62
7
  6
CONTINUOUS
 10
1087.3017414471
 20
426.7421437155
 40
4.7990381057
100
AcDbArc
 50
329.9933694481
 51
360.0
  0
ARC
  5
4A9
100
AcDbEntity
  8
6_ALL_SURFS
100
AcDbCircle
 62
7
  6
CONTINUOUS
 10
837.3017414471
 20
426.7421437155
 40
4.7990381057
100
AcDbArc
 50
329.9933694481
 51
360.0
  0
ARC
  5
4AA
100
AcDbEntity
  8
6_ALL_SURFS
100
AcDbCircle
 62
7
  6
CONTINUOUS
 10
1087.3017414471
 20
426.7421437155
 40
4.7990381057
100
AcDbArc
 50
180.0
 51
210.0066305519
  0
ARC
  5
4AB
100
AcDbEntity
  8
6_ALL_SURFS
100
AcDbCircle
 62
7
  6
CONTINUOUS
 10
587.3017414471
 20
426.7421437155
 40
4.7990381057
100
AcDbArc
 50
329.9933694481
 51
360.0
  0
ARC
  5
4AC
100
AcDbEntity
  8
6_ALL_SURFS
100
AcDbCircle
 62
7
  6
CONTINUOUS
 10
837.3017414471
 20
426.7421437155
 40
4.7990381057
100
AcDbArc
 50
180.0
 51
210.0066305519
  0
ARC
  5
4AD
100
AcDbEntity
  8
6_ALL_SURFS
100
AcDbCircle
 62
7
  6
CONTINUOUS
 10
337.3017414471
 20
426.7421437155
 40
4.7990381057
100
AcDbArc
 50
329.9933694481
 51
360.0
  0
ARC
  5
4AE
100
AcDbEntity
  8
6_ALL_SURFS
100
AcDbCircle
 62
7
  6
CONTINUOUS
 10
587.3017414471
 20
426.7421437155
 40
4.7990381057
100
AcDbArc
 50
180.0
 51
210.0066305519
  0
ARC
  5
4AF
100
AcDbEntity
  8
6_ALL_SURFS
100
AcDbCircle
 62
7
  6
CONTINUOUS
 10
337.3017414471
 20
426.7421437155
 40
4.7990381057
100
AcDbArc
 50
180.0
 51
210.0066305519
  0
ARC
  5
4B0
100
AcDbEntity
  8
6_ALL_SURFS
100
AcDbCircle
 62
7
  6
CONTINUOUS
 10
1087.3017414471
 20
426.7421437155
 40
4.7990381057
100
AcDbArc
 50
218.6913826582
 51
321.3086173418
  0
ARC
  5
4B1
100
AcDbEntity
  8
6_ALL_SURFS
100
AcDbCircle
 62
7
  6
CONTINUOUS
 10
837.3017414471
 20
426.7421437155
 40
4.7990381057
100
AcDbArc
 50
218.6913826582
 51
321.3086173418
  0
ARC
  5
4B2
100
AcDbEntity
  8
6_ALL_SURFS
100
AcDbCircle
 62
7
  6
CONTINUOUS
 10
587.3017414471
 20
426.7421437155
 40
4.7990381057
100
AcDbArc
 50
218.6913826582
 51
321.3086173418
  0
ARC
  5
4B3
100
AcDbEntity
  8
6_ALL_SURFS
100
AcDbCircle
 62
7
  6
CONTINUOUS
 10
337.3017414471
 20
426.7421437155
 40
4.7990381057
100
AcDbArc
 50
218.6913826582
 51
321.3086173418
  0
ARC
  5
4B4
100
AcDbEntity
  8
6_ALL_SURFS
100
AcDbCircle
 62
7
  6
CONTINUOUS
 10
1087.3017414471
 20
426.7421437155
 40
4.7990381057
100
AcDbArc
 50
7.1822026405
 51
46.828815981
  0
ARC
  5
4B5
100
AcDbEntity
  8
6_ALL_SURFS
100
AcDbCircle
 62
7
  6
CONTINUOUS
 10
837.3017414471
 20
426.7421437155
 40
4.7990381057
100
AcDbArc
 50
7.1822026405
 51
46.828815981
  0
ARC
  5
4B6
100
AcDbEntity
  8
6_ALL_SURFS
100
AcDbCircle
 62
7
  6
CONTINUOUS
 10
1087.3017414471
 20
426.7421437155
 40
4.7990381057
100
AcDbArc
 50
133.171184019
 51
172.8177973595
  0
ARC
  5
4B7
100
AcDbEntity
  8
6_ALL_SURFS
100
AcDbCircle
 62
7
  6
CONTINUOUS
 10
587.3017414471
 20
426.7421437155
 40
4.7990381057
100
AcDbArc
 50
7.1822026405
 51
46.828815981
  0
ARC
  5
4B8
100
AcDbEntity
  8
6_ALL_SURFS
100
AcDbCircle
 62
7
  6
CONTINUOUS
 10
837.3017414471
 20
426.7421437155
 40
4.7990381057
100
AcDbArc
 50
133.171184019
 51
172.8177973595
  0
ARC
  5
4B9
100
AcDbEntity
  8
6_ALL_SURFS
100
AcDbCircle
 62
7
  6
CONTINUOUS
 10
337.3017414471
 20
426.7421437155
 40
4.7990381057
100
AcDbArc
 50
7.1822026405
 51
46.828815981
  0
ARC
  5
4BA
100
AcDbEntity
  8
6_ALL_SURFS
100
AcDbCircle
 62
7
  6
CONTINUOUS
 10
587.3017414471
 20
426.7421437155
 40
4.7990381057
100
AcDbArc
 50
133.171184019
 51
172.8177973595
  0
ARC
  5
4BB
100
AcDbEntity
  8
6_ALL_SURFS
100
AcDbCircle
 62
7
  6
CONTINUOUS
 10
337.3017414471
 20
426.7421437155
 40
4.7990381057
100
AcDbArc
 50
133.171184019
 51
172.8177973595
  0
CIRCLE
  5
4BC
100
AcDbEntity
  8
6_ALL_SURFS
100
AcDbCircle
 62
7
  6
CONTINUOUS
 10
1087.3017414471
 20
426.7421437155
 40
3.5
  0
CIRCLE
  5
4BD
100
AcDbEntity
  8
6_ALL_SURFS
100
AcDbCircle
 62
7
  6
CONTINUOUS
 10
837.3017414471
 20
426.7421437155
 40
3.5
  0
CIRCLE
  5
4BE
100
AcDbEntity
  8
6_ALL_SURFS
100
AcDbCircle
 62
7
  6
CONTINUOUS
 10
587.3017414471
 20
426.7421437155
 40
3.5
  0
CIRCLE
  5
4BF
100
AcDbEntity
  8
6_ALL_SURFS
100
AcDbCircle
 62
7
  6
CONTINUOUS
 10
337.3017414471
 20
426.7421437155
 40
3.5
  0
ARC
  5
4C0
100
AcDbEntity
  8
7_ALL_FEATURES
100
AcDbCircle
 62
7
  6
CONTINUOUS
 10
2087.3017414471
 20
356.6421437155
 40
4.7990381057
100
AcDbArc
 50
38.6913826582
 51
141.3086173418
  0
ARC
  5
4C1
100
AcDbEntity
  8
7_ALL_FEATURES
100
AcDbCircle
 62
7
  6
CONTINUOUS
 10
1837.3017414471
 20
356.6421437155
 40
4.7990381057
100
AcDbArc
 50
38.6913826582
 51
141.3086173418
  0
ARC
  5
4C2
100
AcDbEntity
  8
7_ALL_FEATURES
100
AcDbCircle
 62
7
  6
CONTINUOUS
 10
1587.3017414471
 20
356.6421437155
 40
4.7990381057
100
AcDbArc
 50
38.6913826582
 51
141.3086173418
  0
ARC
  5
4C3
100
AcDbEntity
  8
7_ALL_FEATURES
100
AcDbCircle
 62
7
  6
CONTINUOUS
 10
1337.3017414471
 20
356.6421437155
 40
4.7990381057
100
AcDbArc
 50
38.6913826582
 51
141.3086173418
  0
ARC
  5
4C4
100
AcDbEntity
  8
7_ALL_FEATURES
100
AcDbCircle
 62
7
  6
CONTINUOUS
 10
2337.3017414471
 20
356.6421437155
 40
4.7990381057
100
AcDbArc
 50
38.6913826582
 51
141.3086173418
  0
ARC
  5
4C5
100
AcDbEntity
  8
7_ALL_FEATURES
100
AcDbCircle
 62
7
  6
CONTINUOUS
 10
1337.3017414471
 20
356.6421437155
 40
4.7990381057
100
AcDbArc
 50
149.9933694481
 51
180.0
  0
ARC
  5
4C6
100
AcDbEntity
  8
7_ALL_FEATURES
100
AcDbCircle
 62
7
  6
CONTINUOUS
 10
1587.3017414471
 20
356.6421437155
 40
4.7990381057
100
AcDbArc
 50
149.9933694481
 51
180.0
  0
ARC
  5
4C7
100
AcDbEntity
  8
7_ALL_FEATURES
100
AcDbCircle
 62
7
  6
CONTINUOUS
 10
1337.3017414471
 20
356.6421437155
 40
4.7990381057
100
AcDbArc
 50
0.0
 51
30.0066305519
  0
ARC
  5
4C8
100
AcDbEntity
  8
7_ALL_FEATURES
100
AcDbCircle
 62
7
  6
CONTINUOUS
 10
1837.3017414471
 20
356.6421437155
 40
4.7990381057
100
AcDbArc
 50
149.9933694481
 51
180.0
  0
ARC
  5
4C9
100
AcDbEntity
  8
7_ALL_FEATURES
100
AcDbCircle
 62
7
  6
CONTINUOUS
 10
1587.3017414471
 20
356.6421437155
 40
4.7990381057
100
AcDbArc
 50
0.0
 51
30.0066305519
  0
ARC
  5
4CA
100
AcDbEntity
  8
7_ALL_FEATURES
100
AcDbCircle
 62
7
  6
CONTINUOUS
 10
2087.3017414471
 20
356.6421437155
 40
4.7990381057
100
AcDbArc
 50
149.9933694481
 51
180.0
  0
ARC
  5
4CB
100
AcDbEntity
  8
7_ALL_FEATURES
100
AcDbCircle
 62
7
  6
CONTINUOUS
 10
1837.3017414471
 20
356.6421437155
 40
4.7990381057
100
AcDbArc
 50
0.0
 51
30.0066305519
  0
ARC
  5
4CC
100
AcDbEntity
  8
7_ALL_FEATURES
100
AcDbCircle
 62
7
  6
CONTINUOUS
 10
2337.3017414471
 20
356.6421437155
 40
4.7990381057
100
AcDbArc
 50
149.9933694481
 51
180.0
  0
ARC
  5
4CD
100
AcDbEntity
  8
7_ALL_FEATURES
100
AcDbCircle
 62
7
  6
CONTINUOUS
 10
2087.3017414471
 20
356.6421437155
 40
4.7990381057
100
AcDbArc
 50
0.0
 51
30.0066305519
  0
ARC
  5
4CE
100
AcDbEntity
  8
7_ALL_FEATURES
100
AcDbCircle
 62
7
  6
CONTINUOUS
 10
2337.3017414471
 20
356.6421437155
 40
4.7990381057
100
AcDbArc
 50
0.0
 51
30.0066305519
  0
ARC
  5
4CF
100
AcDbEntity
  8
7_ALL_FEATURES
100
AcDbCircle
 62
7
  6
CONTINUOUS
 10
1337.3017414471
 20
356.6421437155
 40
4.7990381057
100
AcDbArc
 50
187.1822026405
 51
226.828815981
  0
ARC
  5
4D0
100
AcDbEntity
  8
7_ALL_FEATURES
100
AcDbCircle
 62
7
  6
CONTINUOUS
 10
1587.3017414471
 20
356.6421437155
 40
4.7990381057
100
AcDbArc
 50
187.1822026405
 51
226.828815981
  0
ARC
  5
4D1
100
AcDbEntity
  8
7_ALL_FEATURES
100
AcDbCircle
 62
7
  6
CONTINUOUS
 10
1337.3017414471
 20
356.6421437155
 40
4.7990381057
100
AcDbArc
 50
313.171184019
 51
352.8177973595
  0
ARC
  5
4D2
100
AcDbEntity
  8
7_ALL_FEATURES
100
AcDbCircle
 62
7
  6
CONTINUOUS
 10
1837.3017414471
 20
356.6421437155
 40
4.7990381057
100
AcDbArc
 50
187.1822026405
 51
226.828815981
  0
ARC
  5
4D3
100
AcDbEntity
  8
7_ALL_FEATURES
100
AcDbCircle
 62
7
  6
CONTINUOUS
 10
1587.3017414471
 20
356.6421437155
 40
4.7990381057
100
AcDbArc
 50
313.171184019
 51
352.8177973595
  0
ARC
  5
4D4
100
AcDbEntity
  8
7_ALL_FEATURES
100
AcDbCircle
 62
7
  6
CONTINUOUS
 10
2087.3017414471
 20
356.6421437155
 40
4.7990381057
100
AcDbArc
 50
187.1822026405
 51
226.828815981
  0
ARC
  5
4D5
100
AcDbEntity
  8
7_ALL_FEATURES
100
AcDbCircle
 62
7
  6
CONTINUOUS
 10
1837.3017414471
 20
356.6421437155
 40
4.7990381057
100
AcDbArc
 50
313.171184019
 51
352.8177973595
  0
ARC
  5
4D6
100
AcDbEntity
  8
7_ALL_FEATURES
100
AcDbCircle
 62
7
  6
CONTINUOUS
 10
2337.3017414471
 20
356.6421437155
 40
4.7990381057
100
AcDbArc
 50
187.1822026405
 51
226.828815981
  0
ARC
  5
4D7
100
AcDbEntity
  8
7_ALL_FEATURES
100
AcDbCircle
 62
7
  6
CONTINUOUS
 10
2087.3017414471
 20
356.6421437155
 40
4.7990381057
100
AcDbArc
 50
313.171184019
 51
352.8177973595
  0
ARC
  5
4D8
100
AcDbEntity
  8
7_ALL_FEATURES
100
AcDbCircle
 62
7
  6
CONTINUOUS
 10
2337.3017414471
 20
356.6421437155
 40
4.7990381057
100
AcDbArc
 50
313.171184019
 51
352.8177973595
  0
CIRCLE
  5
4D9
100
AcDbEntity
  8
6_ALL_SURFS
100
AcDbCircle
 62
7
  6
CONTINUOUS
 10
2337.3017414471
 20
356.6421437155
 40
3.5
  0
CIRCLE
  5
4DA
100
AcDbEntity
  8
6_ALL_SURFS
100
AcDbCircle
 62
7
  6
CONTINUOUS
 10
2087.3017414471
 20
356.6421437155
 40
3.5
  0
CIRCLE
  5
4DB
100
AcDbEntity
  8
6_ALL_SURFS
100
AcDbCircle
 62
7
  6
CONTINUOUS
 10
1837.3017414471
 20
356.6421437155
 40
3.5
  0
CIRCLE
  5
4DC
100
AcDbEntity
  8
6_ALL_SURFS
100
AcDbCircle
 62
7
  6
CONTINUOUS
 10
1587.3017414471
 20
356.6421437155
 40
3.5
  0
CIRCLE
  5
4DD
100
AcDbEntity
  8
6_ALL_SURFS
100
AcDbCircle
 62
7
  6
CONTINUOUS
 10
1337.3017414471
 20
356.6421437155
 40
3.5
  0
ARC
  5
4DE
100
AcDbEntity
  8
6_ALL_SURFS
100
AcDbCircle
 62
7
  6
CONTINUOUS
 10
2337.3017414471
 20
426.7421437155
 40
4.7990381057
100
AcDbArc
 50
329.9933694481
 51
360.0
  0
ARC
  5
4DF
100
AcDbEntity
  8
6_ALL_SURFS
100
AcDbCircle
 62
7
  6
CONTINUOUS
 10
2087.3017414471
 20
426.7421437155
 40
4.7990381057
100
AcDbArc
 50
329.9933694481
 51
360.0
  0
ARC
  5
4E0
100
AcDbEntity
  8
6_ALL_SURFS
100
AcDbCircle
 62
7
  6
CONTINUOUS
 10
2337.3017414471
 20
426.7421437155
 40
4.7990381057
100
AcDbArc
 50
180.0
 51
210.0066305519
  0
ARC
  5
4E1
100
AcDbEntity
  8
6_ALL_SURFS
100
AcDbCircle
 62
7
  6
CONTINUOUS
 10
1837.3017414471
 20
426.7421437155
 40
4.7990381057
100
AcDbArc
 50
329.9933694481
 51
360.0
  0
ARC
  5
4E2
100
AcDbEntity
  8
6_ALL_SURFS
100
AcDbCircle
 62
7
  6
CONTINUOUS
 10
2087.3017414471
 20
426.7421437155
 40
4.7990381057
100
AcDbArc
 50
180.0
 51
210.0066305519
  0
ARC
  5
4E3
100
AcDbEntity
  8
6_ALL_SURFS
100
AcDbCircle
 62
7
  6
CONTINUOUS
 10
1587.3017414471
 20
426.7421437155
 40
4.7990381057
100
AcDbArc
 50
329.9933694481
 51
360.0
  0
ARC
  5
4E4
100
AcDbEntity
  8
6_ALL_SURFS
100
AcDbCircle
 62
7
  6
CONTINUOUS
 10
1837.3017414471
 20
426.7421437155
 40
4.7990381057
100
AcDbArc
 50
180.0
 51
210.0066305519
  0
ARC
  5
4E5
100
AcDbEntity
  8
6_ALL_SURFS
100
AcDbCircle
 62
7
  6
CONTINUOUS
 10
1337.3017414471
 20
426.7421437155
 40
4.7990381057
100
AcDbArc
 50
329.9933694481
 51
360.0
  0
ARC
  5
4E6
100
AcDbEntity
  8
6_ALL_SURFS
100
AcDbCircle
 62
7
  6
CONTINUOUS
 10
1587.3017414471
 20
426.7421437155
 40
4.7990381057
100
AcDbArc
 50
180.0
 51
210.0066305519
  0
ARC
  5
4E7
100
AcDbEntity
  8
6_ALL_SURFS
100
AcDbCircle
 62
7
  6
CONTINUOUS
 10
1337.3017414471
 20
426.7421437155
 40
4.7990381057
100
AcDbArc
 50
180.0
 51
210.0066305519
  0
ARC
  5
4E8
100
AcDbEntity
  8
6_ALL_SURFS
100
AcDbCircle
 62
7
  6
CONTINUOUS
 10
2337.3017414471
 20
426.7421437155
 40
4.7990381057
100
AcDbArc
 50
7.1822026405
 51
46.828815981
  0
ARC
  5
4E9
100
AcDbEntity
  8
6_ALL_SURFS
100
AcDbCircle
 62
7
  6
CONTINUOUS
 10
2087.3017414471
 20
426.7421437155
 40
4.7990381057
100
AcDbArc
 50
7.1822026405
 51
46.828815981
  0
ARC
  5
4EA
100
AcDbEntity
  8
6_ALL_SURFS
100
AcDbCircle
 62
7
  6
CONTINUOUS
 10
2337.3017414471
 20
426.7421437155
 40
4.7990381057
100
AcDbArc
 50
133.171184019
 51
172.8177973595
  0
ARC
  5
4EB
100
AcDbEntity
  8
6_ALL_SURFS
100
AcDbCircle
 62
7
  6
CONTINUOUS
 10
1837.3017414471
 20
426.7421437155
 40
4.7990381057
100
AcDbArc
 50
7.1822026405
 51
46.828815981
  0
ARC
  5
4EC
100
AcDbEntity
  8
6_ALL_SURFS
100
AcDbCircle
 62
7
  6
CONTINUOUS
 10
2087.3017414471
 20
426.7421437155
 40
4.7990381057
100
AcDbArc
 50
133.171184019
 51
172.8177973595
  0
ARC
  5
4ED
100
AcDbEntity
  8
6_ALL_SURFS
100
AcDbCircle
 62
7
  6
CONTINUOUS
 10
1587.3017414471
 20
426.7421437155
 40
4.7990381057
100
AcDbArc
 50
7.1822026405
 51
46.828815981
  0
ARC
  5
4EE
100
AcDbEntity
  8
6_ALL_SURFS
100
AcDbCircle
 62
7
  6
CONTINUOUS
 10
1837.3017414471
 20
426.7421437155
 40
4.7990381057
100
AcDbArc
 50
133.171184019
 51
172.8177973595
  0
ARC
  5
4EF
100
AcDbEntity
  8
6_ALL_SURFS
100
AcDbCircle
 62
7
  6
CONTINUOUS
 10
1337.3017414471
 20
426.7421437155
 40
4.7990381057
100
AcDbArc
 50
7.1822026405
 51
46.828815981
  0
ARC
  5
4F0
100
AcDbEntity
  8
6_ALL_SURFS
100
AcDbCircle
 62
7
  6
CONTINUOUS
 10
1587.3017414471
 20
426.7421437155
 40
4.7990381057
100
AcDbArc
 50
133.171184019
 51
172.8177973595
  0
ARC
  5
4F1
100
AcDbEntity
  8
6_ALL_SURFS
100
AcDbCircle
 62
7
  6
CONTINUOUS
 10
2087.3017414471
 20
426.7421437155
 40
4.7990381057
100
AcDbArc
 50
218.6913826582
 51
321.3086173418
  0
ARC
  5
4F2
100
AcDbEntity
  8
6_ALL_SURFS
100
AcDbCircle
 62
7
  6
CONTINUOUS
 10
1837.3017414471
 20
426.7421437155
 40
4.7990381057
100
AcDbArc
 50
218.6913826582
 51
321.3086173418
  0
ARC
  5
4F3
100
AcDbEntity
  8
6_ALL_SURFS
100
AcDbCircle
 62
7
  6
CONTINUOUS
 10
1587.3017414471
 20
426.7421437155
 40
4.7990381057
100
AcDbArc
 50
218.6913826582
 51
321.3086173418
  0
ARC
  5
4F4
100
AcDbEntity
  8
6_ALL_SURFS
100
AcDbCircle
 62
7
  6
CONTINUOUS
 10
1337.3017414471
 20
426.7421437155
 40
4.7990381057
100
AcDbArc
 50
218.6913826582
 51
321.3086173418
  0
ARC
  5
4F5
100
AcDbEntity
  8
6_ALL_SURFS
100
AcDbCircle
 62
7
  6
CONTINUOUS
 10
2337.3017414471
 20
426.7421437155
 40
4.7990381057
100
AcDbArc
 50
218.6913826582
 51
321.3086173418
  0
ARC
  5
4F6
100
AcDbEntity
  8
6_ALL_SURFS
100
AcDbCircle
 62
7
  6
CONTINUOUS
 10
1337.3017414471
 20
426.7421437155
 40
4.7990381057
100
AcDbArc
 50
133.171184019
 51
172.8177973595
  0
CIRCLE
  5
4F7
100
AcDbEntity
  8
6_ALL_SURFS
100
AcDbCircle
 62
7
  6
CONTINUOUS
 10
2337.3017414471
 20
426.7421437155
 40
3.5
  0
CIRCLE
  5
4F8
100
AcDbEntity
  8
6_ALL_SURFS
100
AcDbCircle
 62
7
  6
CONTINUOUS
 10
2087.3017414471
 20
426.7421437155
 40
3.5
  0
CIRCLE
  5
4F9
100
AcDbEntity
  8
6_ALL_SURFS
100
AcDbCircle
 62
7
  6
CONTINUOUS
 10
1837.3017414471
 20
426.7421437155
 40
3.5
  0
CIRCLE
  5
4FA
100
AcDbEntity
  8
6_ALL_SURFS
100
AcDbCircle
 62
7
  6
CONTINUOUS
 10
1587.3017414471
 20
426.7421437155
 40
3.5
  0
CIRCLE
  5
4FB
100
AcDbEntity
  8
6_ALL_SURFS
100
AcDbCircle
 62
7
  6
CONTINUOUS
 10
1337.3017414471
 20
426.7421437155
 40
3.5
  0
SPLINE
  5
4FC
100
AcDbEntity
  8
6_ALL_SURFS
100
AcDbSpline
 62
7
  6
CONTINUOUS
 70
0
 71
3
 72
9
 73
5
 74
0
 42
0.0000001
 43
0.0000001
 44
0.0000000001
 40
0.0
 40
0.0
 40
0.0
 40
0.0
 40
0.4966225864
 40
1.0
 40
1.0
 40
1.0
 40
1.0
 10
1832.5403585871
 20
427.3421437155
 30
0.0
 10
1832.6269096188
 20
427.2689997957
 30
0.0
 10
1832.7595777899
 20
427.0253477758
 30
0.0
 10
1832.593719031
 20
426.812207626
 30
0.0
 10
1832.5027033414
 20
426.7421437155
 30
0.0
  0
SPLINE
  5
4FD
100
AcDbEntity
  8
6_ALL_SURFS
100
AcDbSpline
 62
7
  6
CONTINUOUS
 70
0
 71
3
 72
9
 73
5
 74
0
 42
0.0000001
 43
0.0000001
 44
0.0000000001
 40
0.0
 40
0.0
 40
0.0
 40
0.0
 40
0.503393831
 40
1.0
 40
1.0
 40
1.0
 40
1.0
 10
1342.1007795528
 20
426.7421437155
 30
0.0
 10
1342.009760972
 20
426.8122098516
 30
0.0
 10
1341.8439057706
 20
427.0253560319
 30
0.0
 10
1341.97657621
 20
427.2690022758
 30
0.0
 10
1342.0631243071
 20
427.3421437155
 30
0.0
  0
SPLINE
  5
4FE
100
AcDbEntity
  8
6_ALL_SURFS
100
AcDbSpline
 62
7
  6
CONTINUOUS
 70
0
 71
3
 72
9
 73
5
 74
0
 42
0.0000001
 43
0.0000001
 44
0.0000000001
 40
0.0
 40
0.0
 40
0.0
 40
0.0
 40
0.4966225864
 40
1.0
 40
1.0
 40
1.0
 40
1.0
 10
1582.5403585871
 20
427.3421437155
 30
0.0
 10
1582.6269096188
 20
427.2689997957
 30
0.0
 10
1582.7595777899
 20
427.0253477758
 30
0.0
 10
1582.593719031
 20
426.812207626
 30
0.0
 10
1582.5027033414
 20
426.7421437155
 30
0.0
  0
SPLINE
  5
4FF
100
AcDbEntity
  8
6_ALL_SURFS
100
AcDbSpline
 62
7
  6
CONTINUOUS
 70
0
 71
3
 72
9
 73
5
 74
0
 42
0.0000001
 43
0.0000001
 44
0.0000000001
 40
0.0
 40
0.0
 40
0.0
 40
0.0
 40
0.503393831
 40
1.0
 40
1.0
 40
1.0
 40
1.0
 10
1092.1007795528
 20
426.7421437155
 30
0.0
 10
1092.009760972
 20
426.8122098516
 30
0.0
 10
1091.8439057706
 20
427.0253560319
 30
0.0
 10
1091.97657621
 20
427.2690022758
 30
0.0
 10
1092.0631243071
 20
427.3421437155
 30
0.0
  0
SPLINE
  5
500
100
AcDbEntity
  8
6_ALL_SURFS
100
AcDbSpline
 62
7
  6
CONTINUOUS
 70
0
 71
3
 72
9
 73
5
 74
0
 42
0.0000001
 43
0.0000001
 44
0.0000000001
 40
0.0
 40
0.0
 40
0.0
 40
0.0
 40
0.4966225864
 40
1.0
 40
1.0
 40
1.0
 40
1.0
 10
1332.5403585871
 20
427.3421437155
 30
0.0
 10
1332.6269096188
 20
427.2689997957
 30
0.0
 10
1332.7595777899
 20
427.0253477758
 30
0.0
 10
1332.593719031
 20
426.812207626
 30
0.0
 10
1332.5027033414
 20
426.7421437155
 30
0.0
  0
SPLINE
  5
501
100
AcDbEntity
  8
6_ALL_SURFS
100
AcDbSpline
 62
7
  6
CONTINUOUS
 70
0
 71
3
 72
9
 73
5
 74
0
 42
0.0000001
 43
0.0000001
 44
0.0000000001
 40
0.0
 40
0.0
 40
0.0
 40
0.0
 40
0.503393831
 40
1.0
 40
1.0
 40
1.0
 40
1.0
 10
842.1007795528
 20
426.7421437155
 30
0.0
 10
842.009760972
 20
426.8122098516
 30
0.0
 10
841.8439057706
 20
427.0253560319
 30
0.0
 10
841.97657621
 20
427.2690022758
 30
0.0
 10
842.0631243071
 20
427.3421437155
 30
0.0
  0
SPLINE
  5
502
100
AcDbEntity
  8
6_ALL_SURFS
100
AcDbSpline
 62
7
  6
CONTINUOUS
 70
0
 71
3
 72
9
 73
5
 74
0
 42
0.0000001
 43
0.0000001
 44
0.0000000001
 40
0.0
 40
0.0
 40
0.0
 40
0.0
 40
0.4966225864
 40
1.0
 40
1.0
 40
1.0
 40
1.0
 10
1082.5403585871
 20
427.3421437155
 30
0.0
 10
1082.6269096188
 20
427.2689997957
 30
0.0
 10
1082.7595777899
 20
427.0253477758
 30
0.0
 10
1082.593719031
 20
426.812207626
 30
0.0
 10
1082.5027033414
 20
426.7421437155
 30
0.0
  0
SPLINE
  5
503
100
AcDbEntity
  8
6_ALL_SURFS
100
AcDbSpline
 62
7
  6
CONTINUOUS
 70
0
 71
3
 72
9
 73
5
 74
0
 42
0.0000001
 43
0.0000001
 44
0.0000000001
 40
0.0
 40
0.0
 40
0.0
 40
0.0
 40
0.503393831
 40
1.0
 40
1.0
 40
1.0
 40
1.0
 10
592.1007795528
 20
426.7421437155
 30
0.0
 10
592.009760972
 20
426.8122098516
 30
0.0
 10
591.8439057706
 20
427.0253560319
 30
0.0
 10
591.97657621
 20
427.2690022758
 30
0.0
 10
592.0631243071
 20
427.3421437155
 30
0.0
  0
SPLINE
  5
504
100
AcDbEntity
  8
6_ALL_SURFS
100
AcDbSpline
 62
7
  6
CONTINUOUS
 70
0
 71
3
 72
9
 73
5
 74
0
 42
0.0000001
 43
0.0000001
 44
0.0000000001
 40
0.0
 40
0.0
 40
0.0
 40
0.0
 40
0.4966225864
 40
1.0
 40
1.0
 40
1.0
 40
1.0
 10
832.5403585871
 20
427.3421437155
 30
0.0
 10
832.6269096188
 20
427.2689997957
 30
0.0
 10
832.7595777899
 20
427.0253477758
 30
0.0
 10
832.593719031
 20
426.812207626
 30
0.0
 10
832.5027033414
 20
426.7421437155
 30
0.0
  0
SPLINE
  5
505
100
AcDbEntity
  8
6_ALL_SURFS
100
AcDbSpline
 62
7
  6
CONTINUOUS
 70
0
 71
3
 72
9
 73
5
 74
0
 42
0.0000001
 43
0.0000001
 44
0.0000000001
 40
0.0
 40
0.0
 40
0.0
 40
0.0
 40
0.503393831
 40
1.0
 40
1.0
 40
1.0
 40
1.0
 10
342.1007795528
 20
426.7421437155
 30
0.0
 10
342.009760972
 20
426.8122098516
 30
0.0
 10
341.8439057706
 20
427.0253560319
 30
0.0
 10
341.97657621
 20
427.2690022758
 30
0.0
 10
342.0631243071
 20
427.3421437155
 30
0.0
  0
SPLINE
  5
506
100
AcDbEntity
  8
6_ALL_SURFS
100
AcDbSpline
 62
7
  6
CONTINUOUS
 70
0
 71
3
 72
9
 73
5
 74
0
 42
0.0000001
 43
0.0000001
 44
0.0000000001
 40
0.0
 40
0.0
 40
0.0
 40
0.0
 40
0.4966225864
 40
1.0
 40
1.0
 40
1.0
 40
1.0
 10
582.5403585871
 20
427.3421437155
 30
0.0
 10
582.6269096188
 20
427.2689997957
 30
0.0
 10
582.7595777899
 20
427.0253477758
 30
0.0
 10
582.593719031
 20
426.812207626
 30
0.0
 10
582.5027033414
 20
426.7421437155
 30
0.0
  0
SPLINE
  5
507
100
AcDbEntity
  8
6_ALL_SURFS
100
AcDbSpline
 62
7
  6
CONTINUOUS
 70
0
 71
3
 72
9
 73
5
 74
0
 42
0.0000001
 43
0.0000001
 44
0.0000000001
 40
0.0
 40
0.0
 40
0.0
 40
0.0
 40
0.4966225864
 40
1.0
 40
1.0
 40
1.0
 40
1.0
 10
332.5403585871
 20
427.3421437155
 30
0.0
 10
332.6269096188
 20
427.2689997957
 30
0.0
 10
332.7595777899
 20
427.0253477758
 30
0.0
 10
332.593719031
 20
426.812207626
 30
0.0
 10
332.5027033414
 20
426.7421437155
 30
0.0
  0
SPLINE
  5
508
100
AcDbEntity
  8
6_ALL_SURFS
100
AcDbSpline
 62
7
  6
CONTINUOUS
 70
0
 71
3
 72
11
 73
7
 74
0
 42
0.0000001
 43
0.0000001
 44
0.0000000001
 40
0.0
 40
0.0
 40
0.0
 40
0.0
 40
0.2308392983
 40
0.4895337766
 40
0.747652091
 40
1.0
 40
1.0
 40
1.0
 40
1.0
 10
2341.0475079561
 20
423.7421437155
 30
0.0
 10
2341.0062235639
 20
423.7899592122
 30
0.0
 10
2340.9718955225
 20
423.9442729206
 30
0.0
 10
2341.1085276405
 20
424.1144757895
 30
0.0
 10
2341.2719936061
 20
424.2441519624
 30
0.0
 10
2341.3953271823
 20
424.3121931371
 30
0.0
 10
2341.4575526483
 20
424.3421437155
 30
0.0
  0
SPLINE
  5
509
100
AcDbEntity
  8
6_ALL_SURFS
100
AcDbSpline
 62
7
  6
CONTINUOUS
 70
0
 71
3
 72
11
 73
7
 74
0
 42
0.0000001
 43
0.0000001
 44
0.0000000001
 40
0.0
 40
0.0
 40
0.0
 40
0.0
 40
0.2308392983
 40
0.4895337766
 40
0.747652091
 40
1.0
 40
1.0
 40
1.0
 40
1.0
 10
2091.0475079561
 20
423.7421437155
 30
0.0
 10
2091.0062235639
 20
423.7899592122
 30
0.0
 10
2090.9718955225
 20
423.9442729206
 30
0.0
 10
2091.1085276405
 20
424.1144757895
 30
0.0
 10
2091.2719936061
 20
424.2441519624
 30
0.0
 10
2091.3953271823
 20
424.3121931371
 30
0.0
 10
2091.4575526483
 20
424.3421437155
 30
0.0
  0
SPLINE
  5
50A
100
AcDbEntity
  8
6_ALL_SURFS
100
AcDbSpline
 62
7
  6
CONTINUOUS
 70
0
 71
3
 72
11
 73
7
 74
0
 42
0.0000001
 43
0.0000001
 44
0.0000000001
 40
0.0
 40
0.0
 40
0.0
 40
0.0
 40
0.2523561177
 40
0.5104807293
 40
0.7691708397
 40
1.0
 40
1.0
 40
1.0
 40
1.0
 10
2333.1459302459
 20
424.3421437155
 30
0.0
 10
2333.2081577857
 20
424.3121921389
 30
0.0
 10
2333.3314951535
 20
424.2441493092
 30
0.0
 10
2333.4949627587
 20
424.1144701332
 30
0.0
 10
2333.6315879734
 20
423.9442639354
 30
0.0
 10
2333.5972575501
 20
423.7899571504
 30
0.0
 10
2333.5559749381
 20
423.7421437155
 30
0.0
  0
SPLINE
  5
50B
100
AcDbEntity
  8
6_ALL_SURFS
100
AcDbSpline
 62
7
  6
CONTINUOUS
 70
0
 71
3
 72
11
 73
7
 74
0
 42
0.0000001
 43
0.0000001
 44
0.0000000001
 40
0.0
 40
0.0
 40
0.0
 40
0.0
 40
0.2308392983
 40
0.4895337766
 40
0.747652091
 40
1.0
 40
1.0
 40
1.0
 40
1.0
 10
1841.0475079561
 20
423.7421437155
 30
0.0
 10
1841.0062235639
 20
423.7899592122
 30
0.0
 10
1840.9718955225
 20
423.9442729206
 30
0.0
 10
1841.1085276405
 20
424.1144757895
 30
0.0
 10
1841.2719936061
 20
424.2441519624
 30
0.0
 10
1841.3953271823
 20
424.3121931371
 30
0.0
 10
1841.4575526483
 20
424.3421437155
 30
0.0
  0
SPLINE
  5
50C
100
AcDbEntity
  8
7_ALL_FEATURES
100
AcDbSpline
 62
7
  6
CONTINUOUS
 70
0
 71
3
 72
11
 73
7
 74
0
 42
0.0000001
 43
0.0000001
 44
0.0000000001
 40
0.0
 40
0.0
 40
0.0
 40
0.0
 40
0.2523561177
 40
0.5104807293
 40
0.7691708397
 40
1.0
 40
1.0
 40
1.0
 40
1.0
 10
333.1459302459
 20
359.0421437155
 30
0.0
 10
333.2081577857
 20
359.072095292
 30
0.0
 10
333.3314951535
 20
359.1401381217
 30
0.0
 10
333.4949627587
 20
359.2698172977
 30
0.0
 10
333.6315879734
 20
359.4400234956
 30
0.0
 10
333.5972575501
 20
359.5943302805
 30
0.0
 10
333.5559749381
 20
359.6421437155
 30
0.0
  0
SPLINE
  5
50D
100
AcDbEntity
  8
7_ALL_FEATURES
100
AcDbSpline
 62
7
  6
CONTINUOUS
 70
0
 71
3
 72
11
 73
7
 74
0
 42
0.0000001
 43
0.0000001
 44
0.0000000001
 40
0.0
 40
0.0
 40
0.0
 40
0.0
 40
0.2523561177
 40
0.5104807293
 40
0.7691708397
 40
1.0
 40
1.0
 40
1.0
 40
1.0
 10
583.1459302459
 20
359.0421437155
 30
0.0
 10
583.2081577857
 20
359.072095292
 30
0.0
 10
583.3314951535
 20
359.1401381217
 30
0.0
 10
583.4949627587
 20
359.2698172977
 30
0.0
 10
583.6315879734
 20
359.4400234956
 30
0.0
 10
583.5972575501
 20
359.5943302805
 30
0.0
 10
583.5559749381
 20
359.6421437155
 30
0.0
  0
SPLINE
  5
50E
100
AcDbEntity
  8
7_ALL_FEATURES
100
AcDbSpline
 62
7
  6
CONTINUOUS
 70
0
 71
3
 72
11
 73
7
 74
0
 42
0.0000001
 43
0.0000001
 44
0.0000000001
 40
0.0
 40
0.0
 40
0.0
 40
0.0
 40
0.2308392983
 40
0.4895337766
 40
0.747652091
 40
1.0
 40
1.0
 40
1.0
 40
1.0
 10
341.0475079561
 20
359.6421437155
 30
0.0
 10
341.0062235639
 20
359.5943282187
 30
0.0
 10
340.9718955225
 20
359.4400145103
 30
0.0
 10
341.1085276405
 20
359.2698116414
 30
0.0
 10
341.2719936061
 20
359.1401354685
 30
0.0
 10
341.3953271823
 20
359.0720942938
 30
0.0
 10
341.4575526483
 20
359.0421437155
 30
0.0
  0
SPLINE
  5
50F
100
AcDbEntity
  8
7_ALL_FEATURES
100
AcDbSpline
 62
7
  6
CONTINUOUS
 70
0
 71
3
 72
11
 73
7
 74
0
 42
0.0000001
 43
0.0000001
 44
0.0000000001
 40
0.0
 40
0.0
 40
0.0
 40
0.0
 40
0.2523561177
 40
0.5104807293
 40
0.7691708397
 40
1.0
 40
1.0
 40
1.0
 40
1.0
 10
833.1459302459
 20
359.0421437155
 30
0.0
 10
833.2081577857
 20
359.072095292
 30
0.0
 10
833.3314951535
 20
359.1401381217
 30
0.0
 10
833.4949627587
 20
359.2698172977
 30
0.0
 10
833.6315879734
 20
359.4400234956
 30
0.0
 10
833.5972575501
 20
359.5943302805
 30
0.0
 10
833.5559749381
 20
359.6421437155
 30
0.0
  0
SPLINE
  5
510
100
AcDbEntity
  8
7_ALL_FEATURES
100
AcDbSpline
 62
7
  6
CONTINUOUS
 70
0
 71
3
 72
11
 73
7
 74
0
 42
0.0000001
 43
0.0000001
 44
0.0000000001
 40
0.0
 40
0.0
 40
0.0
 40
0.0
 40
0.2308392983
 40
0.4895337766
 40
0.747652091
 40
1.0
 40
1.0
 40
1.0
 40
1.0
 10
591.0475079561
 20
359.6421437155
 30
0.0
 10
591.0062235639
 20
359.5943282187
 30
0.0
 10
590.9718955225
 20
359.4400145103
 30
0.0
 10
591.1085276405
 20
359.2698116414
 30
0.0
 10
591.2719936061
 20
359.1401354685
 30
0.0
 10
591.3953271823
 20
359.0720942938
 30
0.0
 10
591.4575526483
 20
359.0421437155
 30
0.0
  0
SPLINE
  5
511
100
AcDbEntity
  8
7_ALL_FEATURES
100
AcDbSpline
 62
7
  6
CONTINUOUS
 70
0
 71
3
 72
11
 73
7
 74
0
 42
0.0000001
 43
0.0000001
 44
0.0000000001
 40
0.0
 40
0.0
 40
0.0
 40
0.0
 40
0.2523561177
 40
0.5104807293
 40
0.7691708397
 40
1.0
 40
1.0
 40
1.0
 40
1.0
 10
1083.1459302459
 20
359.0421437155
 30
0.0
 10
1083.2081577857
 20
359.072095292
 30
0.0
 10
1083.3314951535
 20
359.1401381217
 30
0.0
 10
1083.4949627587
 20
359.2698172977
 30
0.0
 10
1083.6315879734
 20
359.4400234956
 30
0.0
 10
1083.5972575501
 20
359.5943302805
 30
0.0
 10
1083.5559749381
 20
359.6421437155
 30
0.0
  0
SPLINE
  5
512
100
AcDbEntity
  8
7_ALL_FEATURES
100
AcDbSpline
 62
7
  6
CONTINUOUS
 70
0
 71
3
 72
11
 73
7
 74
0
 42
0.0000001
 43
0.0000001
 44
0.0000000001
 40
0.0
 40
0.0
 40
0.0
 40
0.0
 40
0.2308392983
 40
0.4895337766
 40
0.747652091
 40
1.0
 40
1.0
 40
1.0
 40
1.0
 10
841.0475079561
 20
359.6421437155
 30
0.0
 10
841.0062235639
 20
359.5943282187
 30
0.0
 10
840.9718955225
 20
359.4400145103
 30
0.0
 10
841.1085276405
 20
359.2698116414
 30
0.0
 10
841.2719936061
 20
359.1401354685
 30
0.0
 10
841.3953271823
 20
359.0720942938
 30
0.0
 10
841.4575526483
 20
359.0421437155
 30
0.0
  0
SPLINE
  5
513
100
AcDbEntity
  8
7_ALL_FEATURES
100
AcDbSpline
 62
7
  6
CONTINUOUS
 70
0
 71
3
 72
11
 73
7
 74
0
 42
0.0000001
 43
0.0000001
 44
0.0000000001
 40
0.0
 40
0.0
 40
0.0
 40
0.0
 40
0.2523561177
 40
0.5104807293
 40
0.7691708397
 40
1.0
 40
1.0
 40
1.0
 40
1.0
 10
1333.1459302459
 20
359.0421437155
 30
0.0
 10
1333.2081577857
 20
359.072095292
 30
0.0
 10
1333.3314951535
 20
359.1401381217
 30
0.0
 10
1333.4949627587
 20
359.2698172977
 30
0.0
 10
1333.6315879734
 20
359.4400234956
 30
0.0
 10
1333.5972575501
 20
359.5943302805
 30
0.0
 10
1333.5559749381
 20
359.6421437155
 30
0.0
  0
SPLINE
  5
514
100
AcDbEntity
  8
7_ALL_FEATURES
100
AcDbSpline
 62
7
  6
CONTINUOUS
 70
0
 71
3
 72
11
 73
7
 74
0
 42
0.0000001
 43
0.0000001
 44
0.0000000001
 40
0.0
 40
0.0
 40
0.0
 40
0.0
 40
0.2308392983
 40
0.4895337766
 40
0.747652091
 40
1.0
 40
1.0
 40
1.0
 40
1.0
 10
1091.0475079561
 20
359.6421437155
 30
0.0
 10
1091.0062235639
 20
359.5943282187
 30
0.0
 10
1090.9718955225
 20
359.4400145103
 30
0.0
 10
1091.1085276405
 20
359.2698116414
 30
0.0
 10
1091.2719936061
 20
359.1401354685
 30
0.0
 10
1091.3953271823
 20
359.0720942938
 30
0.0
 10
1091.4575526483
 20
359.0421437155
 30
0.0
  0
SPLINE
  5
515
100
AcDbEntity
  8
7_ALL_FEATURES
100
AcDbSpline
 62
7
  6
CONTINUOUS
 70
0
 71
3
 72
11
 73
7
 74
0
 42
0.0000001
 43
0.0000001
 44
0.0000000001
 40
0.0
 40
0.0
 40
0.0
 40
0.0
 40
0.2523561177
 40
0.5104807293
 40
0.7691708397
 40
1.0
 40
1.0
 40
1.0
 40
1.0
 10
1583.1459302459
 20
359.0421437155
 30
0.0
 10
1583.2081577857
 20
359.072095292
 30
0.0
 10
1583.3314951535
 20
359.1401381217
 30
0.0
 10
1583.4949627587
 20
359.2698172977
 30
0.0
 10
1583.6315879734
 20
359.4400234956
 30
0.0
 10
1583.5972575501
 20
359.5943302805
 30
0.0
 10
1583.5559749381
 20
359.6421437155
 30
0.0
  0
SPLINE
  5
516
100
AcDbEntity
  8
7_ALL_FEATURES
100
AcDbSpline
 62
7
  6
CONTINUOUS
 70
0
 71
3
 72
11
 73
7
 74
0
 42
0.0000001
 43
0.0000001
 44
0.0000000001
 40
0.0
 40
0.0
 40
0.0
 40
0.0
 40
0.2308392983
 40
0.4895337766
 40
0.747652091
 40
1.0
 40
1.0
 40
1.0
 40
1.0
 10
1341.0475079561
 20
359.6421437155
 30
0.0
 10
1341.0062235639
 20
359.5943282187
 30
0.0
 10
1340.9718955225
 20
359.4400145103
 30
0.0
 10
1341.1085276405
 20
359.2698116414
 30
0.0
 10
1341.2719936061
 20
359.1401354685
 30
0.0
 10
1341.3953271823
 20
359.0720942938
 30
0.0
 10
1341.4575526483
 20
359.0421437155
 30
0.0
  0
SPLINE
  5
517
100
AcDbEntity
  8
7_ALL_FEATURES
100
AcDbSpline
 62
7
  6
CONTINUOUS
 70
0
 71
3
 72
11
 73
7
 74
0
 42
0.0000001
 43
0.0000001
 44
0.0000000001
 40
0.0
 40
0.0
 40
0.0
 40
0.0
 40
0.2523561177
 40
0.5104807293
 40
0.7691708397
 40
1.0
 40
1.0
 40
1.0
 40
1.0
 10
1833.1459302459
 20
359.0421437155
 30
0.0
 10
1833.2081577857
 20
359.072095292
 30
0.0
 10
1833.3314951535
 20
359.1401381217
 30
0.0
 10
1833.4949627587
 20
359.2698172977
 30
0.0
 10
1833.6315879734
 20
359.4400234956
 30
0.0
 10
1833.5972575501
 20
359.5943302805
 30
0.0
 10
1833.5559749381
 20
359.6421437155
 30
0.0
  0
SPLINE
  5
518
100
AcDbEntity
  8
7_ALL_FEATURES
100
AcDbSpline
 62
7
  6
CONTINUOUS
 70
0
 71
3
 72
11
 73
7
 74
0
 42
0.0000001
 43
0.0000001
 44
0.0000000001
 40
0.0
 40
0.0
 40
0.0
 40
0.0
 40
0.2308392983
 40
0.4895337766
 40
0.747652091
 40
1.0
 40
1.0
 40
1.0
 40
1.0
 10
1591.0475079561
 20
359.6421437155
 30
0.0
 10
1591.0062235639
 20
359.5943282187
 30
0.0
 10
1590.9718955225
 20
359.4400145103
 30
0.0
 10
1591.1085276405
 20
359.2698116414
 30
0.0
 10
1591.2719936061
 20
359.1401354685
 30
0.0
 10
1591.3953271823
 20
359.0720942938
 30
0.0
 10
1591.4575526483
 20
359.0421437155
 30
0.0
  0
SPLINE
  5
519
100
AcDbEntity
  8
7_ALL_FEATURES
100
AcDbSpline
 62
7
  6
CONTINUOUS
 70
0
 71
3
 72
11
 73
7
 74
0
 42
0.0000001
 43
0.0000001
 44
0.0000000001
 40
0.0
 40
0.0
 40
0.0
 40
0.0
 40
0.2523561177
 40
0.5104807293
 40
0.7691708397
 40
1.0
 40
1.0
 40
1.0
 40
1.0
 10
2083.1459302459
 20
359.0421437155
 30
0.0
 10
2083.2081577857
 20
359.072095292
 30
0.0
 10
2083.3314951535
 20
359.1401381217
 30
0.0
 10
2083.4949627587
 20
359.2698172977
 30
0.0
 10
2083.6315879734
 20
359.4400234956
 30
0.0
 10
2083.5972575501
 20
359.5943302805
 30
0.0
 10
2083.5559749381
 20
359.6421437155
 30
0.0
  0
SPLINE
  5
51A
100
AcDbEntity
  8
7_ALL_FEATURES
100
AcDbSpline
 62
7
  6
CONTINUOUS
 70
0
 71
3
 72
11
 73
7
 74
0
 42
0.0000001
 43
0.0000001
 44
0.0000000001
 40
0.0
 40
0.0
 40
0.0
 40
0.0
 40
0.2308392983
 40
0.4895337766
 40
0.747652091
 40
1.0
 40
1.0
 40
1.0
 40
1.0
 10
1841.0475079561
 20
359.6421437155
 30
0.0
 10
1841.0062235639
 20
359.5943282187
 30
0.0
 10
1840.9718955225
 20
359.4400145103
 30
0.0
 10
1841.1085276405
 20
359.2698116414
 30
0.0
 10
1841.2719936061
 20
359.1401354685
 30
0.0
 10
1841.3953271823
 20
359.0720942938
 30
0.0
 10
1841.4575526483
 20
359.0421437155
 30
0.0
  0
SPLINE
  5
51B
100
AcDbEntity
  8
7_ALL_FEATURES
100
AcDbSpline
 62
7
  6
CONTINUOUS
 70
0
 71
3
 72
11
 73
7
 74
0
 42
0.0000001
 43
0.0000001
 44
0.0000000001
 40
0.0
 40
0.0
 40
0.0
 40
0.0
 40
0.2523561177
 40
0.5104807293
 40
0.7691708397
 40
1.0
 40
1.0
 40
1.0
 40
1.0
 10
2333.1459302459
 20
359.0421437155
 30
0.0
 10
2333.2081577857
 20
359.072095292
 30
0.0
 10
2333.3314951535
 20
359.1401381217
 30
0.0
 10
2333.4949627587
 20
359.2698172977
 30
0.0
 10
2333.6315879734
 20
359.4400234956
 30
0.0
 10
2333.5972575501
 20
359.5943302805
 30
0.0
 10
2333.5559749381
 20
359.6421437155
 30
0.0
  0
SPLINE
  5
51C
100
AcDbEntity
  8
7_ALL_FEATURES
100
AcDbSpline
 62
7
  6
CONTINUOUS
 70
0
 71
3
 72
11
 73
7
 74
0
 42
0.0000001
 43
0.0000001
 44
0.0000000001
 40
0.0
 40
0.0
 40
0.0
 40
0.0
 40
0.2308392983
 40
0.4895337766
 40
0.747652091
 40
1.0
 40
1.0
 40
1.0
 40
1.0
 10
2091.0475079561
 20
359.6421437155
 30
0.0
 10
2091.0062235639
 20
359.5943282187
 30
0.0
 10
2090.9718955225
 20
359.4400145103
 30
0.0
 10
2091.1085276405
 20
359.2698116414
 30
0.0
 10
2091.2719936061
 20
359.1401354685
 30
0.0
 10
2091.3953271823
 20
359.0720942938
 30
0.0
 10
2091.4575526483
 20
359.0421437155
 30
0.0
  0
SPLINE
  5
51D
100
AcDbEntity
  8
7_ALL_FEATURES
100
AcDbSpline
 62
7
  6
CONTINUOUS
 70
0
 71
3
 72
11
 73
7
 74
0
 42
0.0000001
 43
0.0000001
 44
0.0000000001
 40
0.0
 40
0.0
 40
0.0
 40
0.0
 40
0.2308392983
 40
0.4895337766
 40
0.747652091
 40
1.0
 40
1.0
 40
1.0
 40
1.0
 10
2341.0475079561
 20
359.6421437155
 30
0.0
 10
2341.0062235639
 20
359.5943282187
 30
0.0
 10
2340.9718955225
 20
359.4400145103
 30
0.0
 10
2341.1085276405
 20
359.2698116414
 30
0.0
 10
2341.2719936061
 20
359.1401354685
 30
0.0
 10
2341.3953271823
 20
359.0720942938
 30
0.0
 10
2341.4575526483
 20
359.0421437155
 30
0.0
  0
SPLINE
  5
51E
100
AcDbEntity
  8
7_ALL_FEATURES
100
AcDbSpline
 62
7
  6
CONTINUOUS
 70
0
 71
3
 72
9
 73
5
 74
0
 42
0.0000001
 43
0.0000001
 44
0.0000000001
 40
0.0
 40
0.0
 40
0.0
 40
0.0
 40
0.4966225864
 40
1.0
 40
1.0
 40
1.0
 40
1.0
 10
332.5403585871
 20
356.0421437155
 30
0.0
 10
332.6269096188
 20
356.1152876352
 30
0.0
 10
332.7595777899
 20
356.3589396551
 30
0.0
 10
332.593719031
 20
356.5720798049
 30
0.0
 10
332.5027033414
 20
356.6421437155
 30
0.0
  0
SPLINE
  5
51F
100
AcDbEntity
  8
7_ALL_FEATURES
100
AcDbSpline
 62
7
  6
CONTINUOUS
 70
0
 71
3
 72
9
 73
5
 74
0
 42
0.0000001
 43
0.0000001
 44
0.0000000001
 40
0.0
 40
0.0
 40
0.0
 40
0.0
 40
0.4966225864
 40
1.0
 40
1.0
 40
1.0
 40
1.0
 10
582.5403585871
 20
356.0421437155
 30
0.0
 10
582.6269096188
 20
356.1152876352
 30
0.0
 10
582.7595777899
 20
356.3589396551
 30
0.0
 10
582.593719031
 20
356.5720798049
 30
0.0
 10
582.5027033414
 20
356.6421437155
 30
0.0
  0
SPLINE
  5
520
100
AcDbEntity
  8
7_ALL_FEATURES
100
AcDbSpline
 62
7
  6
CONTINUOUS
 70
0
 71
3
 72
9
 73
5
 74
0
 42
0.0000001
 43
0.0000001
 44
0.0000000001
 40
0.0
 40
0.0
 40
0.0
 40
0.0
 40
0.503393831
 40
1.0
 40
1.0
 40
1.0
 40
1.0
 10
342.1007795528
 20
356.6421437155
 30
0.0
 10
342.009760972
 20
356.5720775793
 30
0.0
 10
341.8439057706
 20
356.3589313991
 30
0.0
 10
341.97657621
 20
356.1152851551
 30
0.0
 10
342.0631243071
 20
356.0421437155
 30
0.0
  0
SPLINE
  5
521
100
AcDbEntity
  8
7_ALL_FEATURES
100
AcDbSpline
 62
7
  6
CONTINUOUS
 70
0
 71
3
 72
9
 73
5
 74
0
 42
0.0000001
 43
0.0000001
 44
0.0000000001
 40
0.0
 40
0.0
 40
0.0
 40
0.0
 40
0.4966225864
 40
1.0
 40
1.0
 40
1.0
 40
1.0
 10
832.5403585871
 20
356.0421437155
 30
0.0
 10
832.6269096188
 20
356.1152876352
 30
0.0
 10
832.7595777899
 20
356.3589396551
 30
0.0
 10
832.593719031
 20
356.5720798049
 30
0.0
 10
832.5027033414
 20
356.6421437155
 30
0.0
  0
SPLINE
  5
522
100
AcDbEntity
  8
7_ALL_FEATURES
100
AcDbSpline
 62
7
  6
CONTINUOUS
 70
0
 71
3
 72
9
 73
5
 74
0
 42
0.0000001
 43
0.0000001
 44
0.0000000001
 40
0.0
 40
0.0
 40
0.0
 40
0.0
 40
0.503393831
 40
1.0
 40
1.0
 40
1.0
 40
1.0
 10
592.1007795528
 20
356.6421437155
 30
0.0
 10
592.009760972
 20
356.5720775793
 30
0.0
 10
591.8439057706
 20
356.3589313991
 30
0.0
 10
591.97657621
 20
356.1152851551
 30
0.0
 10
592.0631243071
 20
356.0421437155
 30
0.0
  0
SPLINE
  5
523
100
AcDbEntity
  8
7_ALL_FEATURES
100
AcDbSpline
 62
7
  6
CONTINUOUS
 70
0
 71
3
 72
9
 73
5
 74
0
 42
0.0000001
 43
0.0000001
 44
0.0000000001
 40
0.0
 40
0.0
 40
0.0
 40
0.0
 40
0.4966225864
 40
1.0
 40
1.0
 40
1.0
 40
1.0
 10
1082.5403585871
 20
356.0421437155
 30
0.0
 10
1082.6269096188
 20
356.1152876352
 30
0.0
 10
1082.7595777899
 20
356.3589396551
 30
0.0
 10
1082.593719031
 20
356.5720798049
 30
0.0
 10
1082.5027033414
 20
356.6421437155
 30
0.0
  0
SPLINE
  5
524
100
AcDbEntity
  8
7_ALL_FEATURES
100
AcDbSpline
 62
7
  6
CONTINUOUS
 70
0
 71
3
 72
9
 73
5
 74
0
 42
0.0000001
 43
0.0000001
 44
0.0000000001
 40
0.0
 40
0.0
 40
0.0
 40
0.0
 40
0.503393831
 40
1.0
 40
1.0
 40
1.0
 40
1.0
 10
842.1007795528
 20
356.6421437155
 30
0.0
 10
842.009760972
 20
356.5720775793
 30
0.0
 10
841.8439057706
 20
356.3589313991
 30
0.0
 10
841.97657621
 20
356.1152851551
 30
0.0
 10
842.0631243071
 20
356.0421437155
 30
0.0
  0
SPLINE
  5
525
100
AcDbEntity
  8
7_ALL_FEATURES
100
AcDbSpline
 62
7
  6
CONTINUOUS
 70
0
 71
3
 72
9
 73
5
 74
0
 42
0.0000001
 43
0.0000001
 44
0.0000000001
 40
0.0
 40
0.0
 40
0.0
 40
0.0
 40
0.4966225864
 40
1.0
 40
1.0
 40
1.0
 40
1.0
 10
1332.5403585871
 20
356.0421437155
 30
0.0
 10
1332.6269096188
 20
356.1152876352
 30
0.0
 10
1332.7595777899
 20
356.3589396551
 30
0.0
 10
1332.593719031
 20
356.5720798049
 30
0.0
 10
1332.5027033414
 20
356.6421437155
 30
0.0
  0
SPLINE
  5
526
100
AcDbEntity
  8
7_ALL_FEATURES
100
AcDbSpline
 62
7
  6
CONTINUOUS
 70
0
 71
3
 72
9
 73
5
 74
0
 42
0.0000001
 43
0.0000001
 44
0.0000000001
 40
0.0
 40
0.0
 40
0.0
 40
0.0
 40
0.503393831
 40
1.0
 40
1.0
 40
1.0
 40
1.0
 10
1092.1007795528
 20
356.6421437155
 30
0.0
 10
1092.009760972
 20
356.5720775793
 30
0.0
 10
1091.8439057706
 20
356.3589313991
 30
0.0
 10
1091.97657621
 20
356.1152851551
 30
0.0
 10
1092.0631243071
 20
356.0421437155
 30
0.0
  0
SPLINE
  5
527
100
AcDbEntity
  8
7_ALL_FEATURES
100
AcDbSpline
 62
7
  6
CONTINUOUS
 70
0
 71
3
 72
9
 73
5
 74
0
 42
0.0000001
 43
0.0000001
 44
0.0000000001
 40
0.0
 40
0.0
 40
0.0
 40
0.0
 40
0.4966225864
 40
1.0
 40
1.0
 40
1.0
 40
1.0
 10
1582.5403585871
 20
356.0421437155
 30
0.0
 10
1582.6269096188
 20
356.1152876352
 30
0.0
 10
1582.7595777899
 20
356.3589396551
 30
0.0
 10
1582.593719031
 20
356.5720798049
 30
0.0
 10
1582.5027033414
 20
356.6421437155
 30
0.0
  0
SPLINE
  5
528
100
AcDbEntity
  8
7_ALL_FEATURES
100
AcDbSpline
 62
7
  6
CONTINUOUS
 70
0
 71
3
 72
9
 73
5
 74
0
 42
0.0000001
 43
0.0000001
 44
0.0000000001
 40
0.0
 40
0.0
 40
0.0
 40
0.0
 40
0.503393831
 40
1.0
 40
1.0
 40
1.0
 40
1.0
 10
1342.1007795528
 20
356.6421437155
 30
0.0
 10
1342.009760972
 20
356.5720775793
 30
0.0
 10
1341.8439057706
 20
356.3589313991
 30
0.0
 10
1341.97657621
 20
356.1152851551
 30
0.0
 10
1342.0631243071
 20
356.0421437155
 30
0.0
  0
SPLINE
  5
529
100
AcDbEntity
  8
7_ALL_FEATURES
100
AcDbSpline
 62
7
  6
CONTINUOUS
 70
0
 71
3
 72
9
 73
5
 74
0
 42
0.0000001
 43
0.0000001
 44
0.0000000001
 40
0.0
 40
0.0
 40
0.0
 40
0.0
 40
0.4966225864
 40
1.0
 40
1.0
 40
1.0
 40
1.0
 10
1832.5403585871
 20
356.0421437155
 30
0.0
 10
1832.6269096188
 20
356.1152876352
 30
0.0
 10
1832.7595777899
 20
356.3589396551
 30
0.0
 10
1832.593719031
 20
356.5720798049
 30
0.0
 10
1832.5027033414
 20
356.6421437155
 30
0.0
  0
SPLINE
  5
52A
100
AcDbEntity
  8
7_ALL_FEATURES
100
AcDbSpline
 62
7
  6
CONTINUOUS
 70
0
 71
3
 72
9
 73
5
 74
0
 42
0.0000001
 43
0.0000001
 44
0.0000000001
 40
0.0
 40
0.0
 40
0.0
 40
0.0
 40
0.503393831
 40
1.0
 40
1.0
 40
1.0
 40
1.0
 10
1592.1007795528
 20
356.6421437155
 30
0.0
 10
1592.009760972
 20
356.5720775793
 30
0.0
 10
1591.8439057706
 20
356.3589313991
 30
0.0
 10
1591.97657621
 20
356.1152851551
 30
0.0
 10
1592.0631243071
 20
356.0421437155
 30
0.0
  0
SPLINE
  5
52B
100
AcDbEntity
  8
7_ALL_FEATURES
100
AcDbSpline
 62
7
  6
CONTINUOUS
 70
0
 71
3
 72
9
 73
5
 74
0
 42
0.0000001
 43
0.0000001
 44
0.0000000001
 40
0.0
 40
0.0
 40
0.0
 40
0.0
 40
0.4966225864
 40
1.0
 40
1.0
 40
1.0
 40
1.0
 10
2082.5403585871
 20
356.0421437155
 30
0.0
 10
2082.6269096188
 20
356.1152876352
 30
0.0
 10
2082.7595777899
 20
356.3589396551
 30
0.0
 10
2082.593719031
 20
356.5720798049
 30
0.0
 10
2082.5027033414
 20
356.6421437155
 30
0.0
  0
SPLINE
  5
52C
100
AcDbEntity
  8
7_ALL_FEATURES
100
AcDbSpline
 62
7
  6
CONTINUOUS
 70
0
 71
3
 72
9
 73
5
 74
0
 42
0.0000001
 43
0.0000001
 44
0.0000000001
 40
0.0
 40
0.0
 40
0.0
 40
0.0
 40
0.503393831
 40
1.0
 40
1.0
 40
1.0
 40
1.0
 10
1842.1007795528
 20
356.6421437155
 30
0.0
 10
1842.009760972
 20
356.5720775793
 30
0.0
 10
1841.8439057706
 20
356.3589313991
 30
0.0
 10
1841.97657621
 20
356.1152851551
 30
0.0
 10
1842.0631243071
 20
356.0421437155
 30
0.0
  0
SPLINE
  5
52D
100
AcDbEntity
  8
7_ALL_FEATURES
100
AcDbSpline
 62
7
  6
CONTINUOUS
 70
0
 71
3
 72
9
 73
5
 74
0
 42
0.0000001
 43
0.0000001
 44
0.0000000001
 40
0.0
 40
0.0
 40
0.0
 40
0.0
 40
0.4966225864
 40
1.0
 40
1.0
 40
1.0
 40
1.0
 10
2332.5403585871
 20
356.0421437155
 30
0.0
 10
2332.6269096188
 20
356.1152876352
 30
0.0
 10
2332.7595777899
 20
356.3589396551
 30
0.0
 10
2332.593719031
 20
356.5720798049
 30
0.0
 10
2332.5027033414
 20
356.6421437155
 30
0.0
  0
SPLINE
  5
52E
100
AcDbEntity
  8
7_ALL_FEATURES
100
AcDbSpline
 62
7
  6
CONTINUOUS
 70
0
 71
3
 72
9
 73
5
 74
0
 42
0.0000001
 43
0.0000001
 44
0.0000000001
 40
0.0
 40
0.0
 40
0.0
 40
0.0
 40
0.503393831
 40
1.0
 40
1.0
 40
1.0
 40
1.0
 10
2092.1007795528
 20
356.6421437155
 30
0.0
 10
2092.009760972
 20
356.5720775793
 30
0.0
 10
2091.8439057706
 20
356.3589313991
 30
0.0
 10
2091.97657621
 20
356.1152851551
 30
0.0
 10
2092.0631243071
 20
356.0421437155
 30
0.0
  0
SPLINE
  5
52F
100
AcDbEntity
  8
7_ALL_FEATURES
100
AcDbSpline
 62
7
  6
CONTINUOUS
 70
0
 71
3
 72
9
 73
5
 74
0
 42
0.0000001
 43
0.0000001
 44
0.0000000001
 40
0.0
 40
0.0
 40
0.0
 40
0.0
 40
0.503393831
 40
1.0
 40
1.0
 40
1.0
 40
1.0
 10
2342.1007795528
 20
356.6421437155
 30
0.0
 10
2342.009760972
 20
356.5720775793
 30
0.0
 10
2341.8439057706
 20
356.3589313991
 30
0.0
 10
2341.97657621
 20
356.1152851551
 30
0.0
 10
2342.0631243071
 20
356.0421437155
 30
0.0
  0
SPLINE
  5
530
100
AcDbEntity
  8
6_ALL_SURFS
100
AcDbSpline
 62
7
  6
CONTINUOUS
 70
0
 71
3
 72
11
 73
7
 74
0
 42
0.0000001
 43
0.0000001
 44
0.0000000001
 40
0.0
 40
0.0
 40
0.0
 40
0.0
 40
0.2523561177
 40
0.5104807293
 40
0.7691708397
 40
1.0
 40
1.0
 40
1.0
 40
1.0
 10
2083.1459302459
 20
424.3421437155
 30
0.0
 10
2083.2081577857
 20
424.3121921389
 30
0.0
 10
2083.3314951535
 20
424.2441493092
 30
0.0
 10
2083.4949627587
 20
424.1144701332
 30
0.0
 10
2083.6315879734
 20
423.9442639354
 30
0.0
 10
2083.5972575501
 20
423.7899571504
 30
0.0
 10
2083.5559749381
 20
423.7421437155
 30
0.0
  0
SPLINE
  5
531
100
AcDbEntity
  8
6_ALL_SURFS
100
AcDbSpline
 62
7
  6
CONTINUOUS
 70
0
 71
3
 72
11
 73
7
 74
0
 42
0.0000001
 43
0.0000001
 44
0.0000000001
 40
0.0
 40
0.0
 40
0.0
 40
0.0
 40
0.2308392983
 40
0.4895337766
 40
0.747652091
 40
1.0
 40
1.0
 40
1.0
 40
1.0
 10
1591.0475079561
 20
423.7421437155
 30
0.0
 10
1591.0062235639
 20
423.7899592122
 30
0.0
 10
1590.9718955225
 20
423.9442729206
 30
0.0
 10
1591.1085276405
 20
424.1144757895
 30
0.0
 10
1591.2719936061
 20
424.2441519624
 30
0.0
 10
1591.3953271823
 20
424.3121931371
 30
0.0
 10
1591.4575526483
 20
424.3421437155
 30
0.0
  0
SPLINE
  5
532
100
AcDbEntity
  8
6_ALL_SURFS
100
AcDbSpline
 62
7
  6
CONTINUOUS
 70
0
 71
3
 72
11
 73
7
 74
0
 42
0.0000001
 43
0.0000001
 44
0.0000000001
 40
0.0
 40
0.0
 40
0.0
 40
0.0
 40
0.2523561177
 40
0.5104807293
 40
0.7691708397
 40
1.0
 40
1.0
 40
1.0
 40
1.0
 10
1833.1459302459
 20
424.3421437155
 30
0.0
 10
1833.2081577857
 20
424.3121921389
 30
0.0
 10
1833.3314951535
 20
424.2441493092
 30
0.0
 10
1833.4949627587
 20
424.1144701332
 30
0.0
 10
1833.6315879734
 20
423.9442639354
 30
0.0
 10
1833.5972575501
 20
423.7899571504
 30
0.0
 10
1833.5559749381
 20
423.7421437155
 30
0.0
  0
SPLINE
  5
533
100
AcDbEntity
  8
6_ALL_SURFS
100
AcDbSpline
 62
7
  6
CONTINUOUS
 70
0
 71
3
 72
11
 73
7
 74
0
 42
0.0000001
 43
0.0000001
 44
0.0000000001
 40
0.0
 40
0.0
 40
0.0
 40
0.0
 40
0.2308392983
 40
0.4895337766
 40
0.747652091
 40
1.0
 40
1.0
 40
1.0
 40
1.0
 10
1341.0475079561
 20
423.7421437155
 30
0.0
 10
1341.0062235639
 20
423.7899592122
 30
0.0
 10
1340.9718955225
 20
423.9442729206
 30
0.0
 10
1341.1085276405
 20
424.1144757895
 30
0.0
 10
1341.2719936061
 20
424.2441519624
 30
0.0
 10
1341.3953271823
 20
424.3121931371
 30
0.0
 10
1341.4575526483
 20
424.3421437155
 30
0.0
  0
SPLINE
  5
534
100
AcDbEntity
  8
6_ALL_SURFS
100
AcDbSpline
 62
7
  6
CONTINUOUS
 70
0
 71
3
 72
11
 73
7
 74
0
 42
0.0000001
 43
0.0000001
 44
0.0000000001
 40
0.0
 40
0.0
 40
0.0
 40
0.0
 40
0.2523561177
 40
0.5104807293
 40
0.7691708397
 40
1.0
 40
1.0
 40
1.0
 40
1.0
 10
1583.1459302459
 20
424.3421437155
 30
0.0
 10
1583.2081577857
 20
424.3121921389
 30
0.0
 10
1583.3314951535
 20
424.2441493092
 30
0.0
 10
1583.4949627587
 20
424.1144701332
 30
0.0
 10
1583.6315879734
 20
423.9442639354
 30
0.0
 10
1583.5972575501
 20
423.7899571504
 30
0.0
 10
1583.5559749381
 20
423.7421437155
 30
0.0
  0
SPLINE
  5
535
100
AcDbEntity
  8
6_ALL_SURFS
100
AcDbSpline
 62
7
  6
CONTINUOUS
 70
0
 71
3
 72
11
 73
7
 74
0
 42
0.0000001
 43
0.0000001
 44
0.0000000001
 40
0.0
 40
0.0
 40
0.0
 40
0.0
 40
0.2308392983
 40
0.4895337766
 40
0.747652091
 40
1.0
 40
1.0
 40
1.0
 40
1.0
 10
1091.0475079561
 20
423.7421437155
 30
0.0
 10
1091.0062235639
 20
423.7899592122
 30
0.0
 10
1090.9718955225
 20
423.9442729206
 30
0.0
 10
1091.1085276405
 20
424.1144757895
 30
0.0
 10
1091.2719936061
 20
424.2441519624
 30
0.0
 10
1091.3953271823
 20
424.3121931371
 30
0.0
 10
1091.4575526483
 20
424.3421437155
 30
0.0
  0
SPLINE
  5
536
100
AcDbEntity
  8
6_ALL_SURFS
100
AcDbSpline
 62
7
  6
CONTINUOUS
 70
0
 71
3
 72
11
 73
7
 74
0
 42
0.0000001
 43
0.0000001
 44
0.0000000001
 40
0.0
 40
0.0
 40
0.0
 40
0.0
 40
0.2523561177
 40
0.5104807293
 40
0.7691708397
 40
1.0
 40
1.0
 40
1.0
 40
1.0
 10
1333.1459302459
 20
424.3421437155
 30
0.0
 10
1333.2081577857
 20
424.3121921389
 30
0.0
 10
1333.3314951535
 20
424.2441493092
 30
0.0
 10
1333.4949627587
 20
424.1144701332
 30
0.0
 10
1333.6315879734
 20
423.9442639354
 30
0.0
 10
1333.5972575501
 20
423.7899571504
 30
0.0
 10
1333.5559749381
 20
423.7421437155
 30
0.0
  0
SPLINE
  5
537
100
AcDbEntity
  8
6_ALL_SURFS
100
AcDbSpline
 62
7
  6
CONTINUOUS
 70
0
 71
3
 72
11
 73
7
 74
0
 42
0.0000001
 43
0.0000001
 44
0.0000000001
 40
0.0
 40
0.0
 40
0.0
 40
0.0
 40
0.2308392983
 40
0.4895337766
 40
0.747652091
 40
1.0
 40
1.0
 40
1.0
 40
1.0
 10
841.0475079561
 20
423.7421437155
 30
0.0
 10
841.0062235639
 20
423.7899592122
 30
0.0
 10
840.9718955225
 20
423.9442729206
 30
0.0
 10
841.1085276405
 20
424.1144757895
 30
0.0
 10
841.2719936061
 20
424.2441519624
 30
0.0
 10
841.3953271823
 20
424.3121931371
 30
0.0
 10
841.4575526483
 20
424.3421437155
 30
0.0
  0
SPLINE
  5
538
100
AcDbEntity
  8
6_ALL_SURFS
100
AcDbSpline
 62
7
  6
CONTINUOUS
 70
0
 71
3
 72
11
 73
7
 74
0
 42
0.0000001
 43
0.0000001
 44
0.0000000001
 40
0.0
 40
0.0
 40
0.0
 40
0.0
 40
0.2523561177
 40
0.5104807293
 40
0.7691708397
 40
1.0
 40
1.0
 40
1.0
 40
1.0
 10
1083.1459302459
 20
424.3421437155
 30
0.0
 10
1083.2081577857
 20
424.3121921389
 30
0.0
 10
1083.3314951535
 20
424.2441493092
 30
0.0
 10
1083.4949627587
 20
424.1144701332
 30
0.0
 10
1083.6315879734
 20
423.9442639354
 30
0.0
 10
1083.5972575501
 20
423.7899571504
 30
0.0
 10
1083.5559749381
 20
423.7421437155
 30
0.0
  0
SPLINE
  5
539
100
AcDbEntity
  8
6_ALL_SURFS
100
AcDbSpline
 62
7
  6
CONTINUOUS
 70
0
 71
3
 72
11
 73
7
 74
0
 42
0.0000001
 43
0.0000001
 44
0.0000000001
 40
0.0
 40
0.0
 40
0.0
 40
0.0
 40
0.2308392983
 40
0.4895337766
 40
0.747652091
 40
1.0
 40
1.0
 40
1.0
 40
1.0
 10
591.0475079561
 20
423.7421437155
 30
0.0
 10
591.0062235639
 20
423.7899592122
 30
0.0
 10
590.9718955225
 20
423.9442729206
 30
0.0
 10
591.1085276405
 20
424.1144757895
 30
0.0
 10
591.2719936061
 20
424.2441519624
 30
0.0
 10
591.3953271823
 20
424.3121931371
 30
0.0
 10
591.4575526483
 20
424.3421437155
 30
0.0
  0
SPLINE
  5
53A
100
AcDbEntity
  8
6_ALL_SURFS
100
AcDbSpline
 62
7
  6
CONTINUOUS
 70
0
 71
3
 72
11
 73
7
 74
0
 42
0.0000001
 43
0.0000001
 44
0.0000000001
 40
0.0
 40
0.0
 40
0.0
 40
0.0
 40
0.2523561177
 40
0.5104807293
 40
0.7691708397
 40
1.0
 40
1.0
 40
1.0
 40
1.0
 10
833.1459302459
 20
424.3421437155
 30
0.0
 10
833.2081577857
 20
424.3121921389
 30
0.0
 10
833.3314951535
 20
424.2441493092
 30
0.0
 10
833.4949627587
 20
424.1144701332
 30
0.0
 10
833.6315879734
 20
423.9442639354
 30
0.0
 10
833.5972575501
 20
423.7899571504
 30
0.0
 10
833.5559749381
 20
423.7421437155
 30
0.0
  0
SPLINE
  5
53B
100
AcDbEntity
  8
6_ALL_SURFS
100
AcDbSpline
 62
7
  6
CONTINUOUS
 70
0
 71
3
 72
11
 73
7
 74
0
 42
0.0000001
 43
0.0000001
 44
0.0000000001
 40
0.0
 40
0.0
 40
0.0
 40
0.0
 40
0.2308392983
 40
0.4895337766
 40
0.747652091
 40
1.0
 40
1.0
 40
1.0
 40
1.0
 10
341.0475079561
 20
423.7421437155
 30
0.0
 10
341.0062235639
 20
423.7899592122
 30
0.0
 10
340.9718955225
 20
423.9442729206
 30
0.0
 10
341.1085276405
 20
424.1144757895
 30
0.0
 10
341.2719936061
 20
424.2441519624
 30
0.0
 10
341.3953271823
 20
424.3121931371
 30
0.0
 10
341.4575526483
 20
424.3421437155
 30
0.0
  0
SPLINE
  5
53C
100
AcDbEntity
  8
6_ALL_SURFS
100
AcDbSpline
 62
7
  6
CONTINUOUS
 70
0
 71
3
 72
11
 73
7
 74
0
 42
0.0000001
 43
0.0000001
 44
0.0000000001
 40
0.0
 40
0.0
 40
0.0
 40
0.0
 40
0.2523561177
 40
0.5104807293
 40
0.7691708397
 40
1.0
 40
1.0
 40
1.0
 40
1.0
 10
583.1459302459
 20
424.3421437155
 30
0.0
 10
583.2081577857
 20
424.3121921389
 30
0.0
 10
583.3314951535
 20
424.2441493092
 30
0.0
 10
583.4949627587
 20
424.1144701332
 30
0.0
 10
583.6315879734
 20
423.9442639354
 30
0.0
 10
583.5972575501
 20
423.7899571504
 30
0.0
 10
583.5559749381
 20
423.7421437155
 30
0.0
  0
SPLINE
  5
53D
100
AcDbEntity
  8
6_ALL_SURFS
100
AcDbSpline
 62
7
  6
CONTINUOUS
 70
0
 71
3
 72
11
 73
7
 74
0
 42
0.0000001
 43
0.0000001
 44
0.0000000001
 40
0.0
 40
0.0
 40
0.0
 40
0.0
 40
0.2523561177
 40
0.5104807293
 40
0.7691708397
 40
1.0
 40
1.0
 40
1.0
 40
1.0
 10
333.1459302459
 20
424.3421437155
 30
0.0
 10
333.2081577857
 20
424.3121921389
 30
0.0
 10
333.3314951535
 20
424.2441493092
 30
0.0
 10
333.4949627587
 20
424.1144701332
 30
0.0
 10
333.6315879734
 20
423.9442639354
 30
0.0
 10
333.5972575501
 20
423.7899571504
 30
0.0
 10
333.5559749381
 20
423.7421437155
 30
0.0
  0
SPLINE
  5
53E
100
AcDbEntity
  8
6_ALL_SURFS
100
AcDbSpline
 62
7
  6
CONTINUOUS
 70
0
 71
3
 72
9
 73
5
 74
0
 42
0.0000001
 43
0.0000001
 44
0.0000000001
 40
0.0
 40
0.0
 40
0.0
 40
0.0
 40
0.503393831
 40
1.0
 40
1.0
 40
1.0
 40
1.0
 10
2342.1007795528
 20
426.7421437155
 30
0.0
 10
2342.009760972
 20
426.8122098516
 30
0.0
 10
2341.8439057706
 20
427.0253560319
 30
0.0
 10
2341.97657621
 20
427.2690022758
 30
0.0
 10
2342.0631243071
 20
427.3421437155
 30
0.0
  0
SPLINE
  5
53F
100
AcDbEntity
  8
6_ALL_SURFS
100
AcDbSpline
 62
7
  6
CONTINUOUS
 70
0
 71
3
 72
9
 73
5
 74
0
 42
0.0000001
 43
0.0000001
 44
0.0000000001
 40
0.0
 40
0.0
 40
0.0
 40
0.0
 40
0.503393831
 40
1.0
 40
1.0
 40
1.0
 40
1.0
 10
2092.1007795528
 20
426.7421437155
 30
0.0
 10
2092.009760972
 20
426.8122098516
 30
0.0
 10
2091.8439057706
 20
427.0253560319
 30
0.0
 10
2091.97657621
 20
427.2690022758
 30
0.0
 10
2092.0631243071
 20
427.3421437155
 30
0.0
  0
SPLINE
  5
540
100
AcDbEntity
  8
6_ALL_SURFS
100
AcDbSpline
 62
7
  6
CONTINUOUS
 70
0
 71
3
 72
9
 73
5
 74
0
 42
0.0000001
 43
0.0000001
 44
0.0000000001
 40
0.0
 40
0.0
 40
0.0
 40
0.0
 40
0.4966225864
 40
1.0
 40
1.0
 40
1.0
 40
1.0
 10
2332.5403585871
 20
427.3421437155
 30
0.0
 10
2332.6269096188
 20
427.2689997957
 30
0.0
 10
2332.7595777899
 20
427.0253477758
 30
0.0
 10
2332.593719031
 20
426.812207626
 30
0.0
 10
2332.5027033414
 20
426.7421437155
 30
0.0
  0
SPLINE
  5
541
100
AcDbEntity
  8
6_ALL_SURFS
100
AcDbSpline
 62
7
  6
CONTINUOUS
 70
0
 71
3
 72
9
 73
5
 74
0
 42
0.0000001
 43
0.0000001
 44
0.0000000001
 40
0.0
 40
0.0
 40
0.0
 40
0.0
 40
0.503393831
 40
1.0
 40
1.0
 40
1.0
 40
1.0
 10
1842.1007795528
 20
426.7421437155
 30
0.0
 10
1842.009760972
 20
426.8122098516
 30
0.0
 10
1841.8439057706
 20
427.0253560319
 30
0.0
 10
1841.97657621
 20
427.2690022758
 30
0.0
 10
1842.0631243071
 20
427.3421437155
 30
0.0
  0
SPLINE
  5
542
100
AcDbEntity
  8
6_ALL_SURFS
100
AcDbSpline
 62
7
  6
CONTINUOUS
 70
0
 71
3
 72
9
 73
5
 74
0
 42
0.0000001
 43
0.0000001
 44
0.0000000001
 40
0.0
 40
0.0
 40
0.0
 40
0.0
 40
0.4966225864
 40
1.0
 40
1.0
 40
1.0
 40
1.0
 10
2082.5403585871
 20
427.3421437155
 30
0.0
 10
2082.6269096188
 20
427.2689997957
 30
0.0
 10
2082.7595777899
 20
427.0253477758
 30
0.0
 10
2082.593719031
 20
426.812207626
 30
0.0
 10
2082.5027033414
 20
426.7421437155
 30
0.0
  0
SPLINE
  5
543
100
AcDbEntity
  8
6_ALL_SURFS
100
AcDbSpline
 62
7
  6
CONTINUOUS
 70
0
 71
3
 72
9
 73
5
 74
0
 42
0.0000001
 43
0.0000001
 44
0.0000000001
 40
0.0
 40
0.0
 40
0.0
 40
0.0
 40
0.503393831
 40
1.0
 40
1.0
 40
1.0
 40
1.0
 10
1592.1007795528
 20
426.7421437155
 30
0.0
 10
1592.009760972
 20
426.8122098516
 30
0.0
 10
1591.8439057706
 20
427.0253560319
 30
0.0
 10
1591.97657621
 20
427.2690022758
 30
0.0
 10
1592.0631243071
 20
427.3421437155
 30
0.0
  0
ELLIPSE
  5
544
100
AcDbEntity
  8
6_ALL_SURFS
100
AcDbEllipse
 62
7
  6
CONTINUOUS
 10
2087.3017414471
 20
224.8588348133
 30
0.0
 11
3.5
 21
-0.0
 31
0.0
 40
0.5
 41
-1.910488903
 42
-1.2311037506
  0
ELLIPSE
  5
545
100
AcDbEntity
  8
6_ALL_SURFS
100
AcDbEllipse
 62
7
  6
CONTINUOUS
 10
1837.3017414471
 20
224.8588348133
 30
0.0
 11
3.5
 21
-0.0
 31
0.0
 40
0.5
 41
-1.910488903
 42
-1.2311037506
  0
ELLIPSE
  5
546
100
AcDbEntity
  8
6_ALL_SURFS
100
AcDbEllipse
 62
7
  6
CONTINUOUS
 10
1587.3017414471
 20
224.8588348133
 30
0.0
 11
3.5
 21
-0.0
 31
0.0
 40
0.5
 41
-1.910488903
 42
-1.2311037506
  0
ELLIPSE
  5
547
100
AcDbEntity
  8
6_ALL_SURFS
100
AcDbEllipse
 62
7
  6
CONTINUOUS
 10
1337.3017414471
 20
224.8588348133
 30
0.0
 11
3.5
 21
-0.0
 31
0.0
 40
0.5
 41
-1.910488903
 42
-1.2311037506
  0
ELLIPSE
  5
548
100
AcDbEntity
  8
6_ALL_SURFS
100
AcDbEllipse
 62
7
  6
CONTINUOUS
 10
1087.3017414471
 20
224.8588348133
 30
0.0
 11
3.5
 21
-0.0
 31
0.0
 40
0.5
 41
-1.910488903
 42
-1.2311037506
  0
ELLIPSE
  5
549
100
AcDbEntity
  8
6_ALL_SURFS
100
AcDbEllipse
 62
7
  6
CONTINUOUS
 10
837.3017414471
 20
224.8588348133
 30
0.0
 11
3.5
 21
-0.0
 31
0.0
 40
0.5
 41
-1.910488903
 42
-1.2311037506
  0
ELLIPSE
  5
54A
100
AcDbEntity
  8
6_ALL_SURFS
100
AcDbEllipse
 62
7
  6
CONTINUOUS
 10
587.3017414471
 20
224.8588348133
 30
0.0
 11
3.5
 21
-0.0
 31
0.0
 40
0.5
 41
-1.910488903
 42
-1.2311037506
  0
ELLIPSE
  5
54B
100
AcDbEntity
  8
6_ALL_SURFS
100
AcDbEllipse
 62
7
  6
CONTINUOUS
 10
337.3017414471
 20
224.8588348133
 30
0.0
 11
3.5
 21
0.0
 31
0.0
 40
0.5
 41
-1.910488903
 42
-1.2311037506
  0
ELLIPSE
  5
54C
100
AcDbEntity
  8
6_ALL_SURFS
100
AcDbEllipse
 62
7
  6
CONTINUOUS
 10
2337.3017414471
 20
224.8588348133
 30
0.0
 11
3.5
 21
-0.0
 31
0.0
 40
0.5
 41
-1.910488903
 42
-1.2311037506
  0
ELLIPSE
  5
54D
100
AcDbEntity
  8
6_ALL_SURFS
100
AcDbEllipse
 62
7
  6
CONTINUOUS
 10
337.3017414471
 20
221.6123175161
 30
0.0
 11
5.4882058378
 21
0.0
 31
0.0
 40
0.1015346165
 41
0.9294607698
 42
2.2121318838
  0
ELLIPSE
  5
54E
100
AcDbEntity
  8
6_ALL_SURFS
100
AcDbEllipse
 62
7
  6
CONTINUOUS
 10
587.3017414471
 20
221.6123175161
 30
0.0
 11
5.4882058378
 21
0.0
 31
0.0
 40
0.1015346165
 41
0.9294607698
 42
2.2121318838
  0
ELLIPSE
  5
54F
100
AcDbEntity
  8
6_ALL_SURFS
100
AcDbEllipse
 62
7
  6
CONTINUOUS
 10
837.3017414471
 20
221.6123175161
 30
0.0
 11
5.4882058378
 21
0.0
 31
0.0
 40
0.1015346165
 41
0.9294607698
 42
2.2121318838
  0
ELLIPSE
  5
550
100
AcDbEntity
  8
6_ALL_SURFS
100
AcDbEllipse
 62
7
  6
CONTINUOUS
 10
1087.3017414471
 20
221.6123175161
 30
0.0
 11
5.4882058378
 21
0.0
 31
0.0
 40
0.1015346165
 41
0.9294607698
 42
2.2121318838
  0
ELLIPSE
  5
551
100
AcDbEntity
  8
6_ALL_SURFS
100
AcDbEllipse
 62
7
  6
CONTINUOUS
 10
1337.3017414471
 20
221.6123175161
 30
0.0
 11
5.4882058378
 21
-0.0
 31
0.0
 40
0.1015346165
 41
0.9294607698
 42
2.2121318838
  0
ELLIPSE
  5
552
100
AcDbEntity
  8
6_ALL_SURFS
100
AcDbEllipse
 62
7
  6
CONTINUOUS
 10
1587.3017414471
 20
221.6123175161
 30
0.0
 11
5.4882058378
 21
-0.0
 31
0.0
 40
0.1015346165
 41
0.9294607698
 42
2.2121318838
  0
ELLIPSE
  5
553
100
AcDbEntity
  8
6_ALL_SURFS
100
AcDbEllipse
 62
7
  6
CONTINUOUS
 10
1837.3017414471
 20
221.6123175161
 30
0.0
 11
5.4882058378
 21
-0.0
 31
0.0
 40
0.1015346165
 41
0.9294607698
 42
2.2121318838
  0
ELLIPSE
  5
554
100
AcDbEntity
  8
6_ALL_SURFS
100
AcDbEllipse
 62
7
  6
CONTINUOUS
 10
2087.3017414471
 20
221.6123175161
 30
0.0
 11
5.4882058378
 21
-0.0
 31
0.0
 40
0.1015346165
 41
0.9294607698
 42
2.2121318838
  0
ELLIPSE
  5
555
100
AcDbEntity
  8
6_ALL_SURFS
100
AcDbEllipse
 62
7
  6
CONTINUOUS
 10
2337.3017414471
 20
221.6123175161
 30
0.0
 11
5.4882058378
 21
0.0
 31
0.0
 40
0.1015346165
 41
7.212646077
 42
8.495317191
  0
ELLIPSE
  5
556
100
AcDbEntity
  8
6_ALL_SURFS
100
AcDbEllipse
 62
7
  6
CONTINUOUS
 10
1087.3017414471
 20
425.7769707437
 30
0.0
 11
-0.0
 21
5.5724287509
 31
0.0
 40
0.9848857802
 41
-0.641335557
 42
0.641335557
  0
ELLIPSE
  5
557
100
AcDbEntity
  8
6_ALL_SURFS
100
AcDbEllipse
 62
7
  6
CONTINUOUS
 10
1337.3017414471
 20
425.7769707437
 30
0.0
 11
0.0
 21
5.5724287509
 31
0.0
 40
0.9848857802
 41
-0.641335557
 42
0.641335557
  0
ELLIPSE
  5
558
100
AcDbEntity
  8
6_ALL_SURFS
100
AcDbEllipse
 62
7
  6
CONTINUOUS
 10
1587.3017414471
 20
425.7769707437
 30
0.0
 11
0.0
 21
5.5724287509
 31
0.0
 40
0.9848857802
 41
-0.641335557
 42
0.641335557
  0
ELLIPSE
  5
559
100
AcDbEntity
  8
6_ALL_SURFS
100
AcDbEllipse
 62
7
  6
CONTINUOUS
 10
1837.3017414471
 20
425.7769707437
 30
0.0
 11
0.0
 21
5.5724287509
 31
0.0
 40
0.9848857802
 41
-0.641335557
 42
0.641335557
  0
ELLIPSE
  5
55A
100
AcDbEntity
  8
6_ALL_SURFS
100
AcDbEllipse
 62
7
  6
CONTINUOUS
 10
2087.3017414471
 20
425.7769707437
 30
0.0
 11
0.0
 21
5.5724287509
 31
0.0
 40
0.9848857802
 41
-0.641335557
 42
0.641335557
  0
ELLIPSE
  5
55B
100
AcDbEntity
  8
7_ALL_FEATURES
100
AcDbEllipse
 62
7
  6
CONTINUOUS
 10
2337.3017414471
 20
357.6073166873
 30
0.0
 11
-0.0
 21
5.5724287509
 31
0.0
 40
0.9848857802
 41
2.5002570966
 42
3.7829282106
  0
ELLIPSE
  5
55C
100
AcDbEntity
  8
7_ALL_FEATURES
100
AcDbEllipse
 62
7
  6
CONTINUOUS
 10
337.3017414471
 20
357.6073166873
 30
0.0
 11
0.0
 21
5.5724287509
 31
0.0
 40
0.9848857802
 41
2.5002570966
 42
3.7829282106
  0
ELLIPSE
  5
55D
100
AcDbEntity
  8
7_ALL_FEATURES
100
AcDbEllipse
 62
7
  6
CONTINUOUS
 10
587.3017414471
 20
357.6073166873
 30
0.0
 11
0.0
 21
5.5724287509
 31
0.0
 40
0.9848857802
 41
2.5002570966
 42
3.7829282106
  0
ELLIPSE
  5
55E
100
AcDbEntity
  8
7_ALL_FEATURES
100
AcDbEllipse
 62
7
  6
CONTINUOUS
 10
837.3017414471
 20
357.6073166873
 30
0.0
 11
0.0
 21
5.5724287509
 31
0.0
 40
0.9848857802
 41
2.5002570966
 42
3.7829282106
  0
ELLIPSE
  5
55F
100
AcDbEntity
  8
7_ALL_FEATURES
100
AcDbEllipse
 62
7
  6
CONTINUOUS
 10
1087.3017414471
 20
357.6073166873
 30
0.0
 11
0.0
 21
5.5724287509
 31
0.0
 40
0.9848857802
 41
2.5002570966
 42
3.7829282106
  0
ELLIPSE
  5
560
100
AcDbEntity
  8
7_ALL_FEATURES
100
AcDbEllipse
 62
7
  6
CONTINUOUS
 10
1337.3017414471
 20
357.6073166873
 30
0.0
 11
0.0
 21
5.5724287509
 31
0.0
 40
0.9848857802
 41
2.5002570966
 42
3.7829282106
  0
ELLIPSE
  5
561
100
AcDbEntity
  8
7_ALL_FEATURES
100
AcDbEllipse
 62
7
  6
CONTINUOUS
 10
1587.3017414471
 20
357.6073166873
 30
0.0
 11
-0.0
 21
5.5724287509
 31
0.0
 40
0.9848857802
 41
2.5002570966
 42
3.7829282106
  0
ELLIPSE
  5
562
100
AcDbEntity
  8
7_ALL_FEATURES
100
AcDbEllipse
 62
7
  6
CONTINUOUS
 10
1837.3017414471
 20
357.6073166873
 30
0.0
 11
-0.0
 21
5.5724287509
 31
0.0
 40
0.9848857802
 41
2.5002570966
 42
3.7829282106
  0
ELLIPSE
  5
563
100
AcDbEntity
  8
7_ALL_FEATURES
100
AcDbEllipse
 62
7
  6
CONTINUOUS
 10
2087.3017414471
 20
357.6073166873
 30
0.0
 11
-0.0
 21
5.5724287509
 31
0.0
 40
0.9848857802
 41
2.5002570966
 42
3.7829282106
  0
ELLIPSE
  5
564
100
AcDbEntity
  8
6_ALL_SURFS
100
AcDbEllipse
 62
7
  6
CONTINUOUS
 10
2337.3017414471
 20
425.7769707437
 30
0.0
 11
0.0
 21
5.5724287509
 31
0.0
 40
0.9848857802
 41
-0.641335557
 42
0.641335557
  0
ELLIPSE
  5
565
100
AcDbEntity
  8
6_ALL_SURFS
100
AcDbEllipse
 62
7
  6
CONTINUOUS
 10
337.3017414471
 20
425.7769707437
 30
0.0
 11
-0.0
 21
5.5724287509
 31
0.0
 40
0.9848857802
 41
-0.641335557
 42
0.641335557
  0
ELLIPSE
  5
566
100
AcDbEntity
  8
6_ALL_SURFS
100
AcDbEllipse
 62
7
  6
CONTINUOUS
 10
587.3017414471
 20
425.7769707437
 30
0.0
 11
0.0
 21
5.5724287509
 31
0.0
 40
0.9848857802
 41
-0.641335557
 42
0.641335557
  0
ELLIPSE
  5
567
100
AcDbEntity
  8
6_ALL_SURFS
100
AcDbEllipse
 62
7
  6
CONTINUOUS
 10
837.3017414471
 20
425.7769707437
 30
0.0
 11
0.0
 21
5.5724287509
 31
0.0
 40
0.9848857802
 41
-0.641335557
 42
0.641335557
  0
ENDSEC
  0
SECTION
  2
OBJECTS
  0
DICTIONARY
  5
568
100
AcDbDictionary
  3
ACAD_GROUP
350
569
  3
ACAD_MLINESTYLE
350
56A
  0
DICTIONARY
  5
569
102
{ACAD_REACTORS
330
568
102
}
100
AcDbDictionary
  0
DICTIONARY
  5
56A
102
{ACAD_REACTORS
330
568
102
}
100
AcDbDictionary
  3
STANDARD
350
56B
  0
MLINESTYLE
  5
56B
102
{ACAD_REACTORS
330
56A
102
}
100
AcDbMlineStyle
  2
STANDARD
 70
0
  3

 62
256
 51
90.0
 52
90.0
 71
2
 49
0.5
 62
256
  6
BYLAYER
 49
-0.5
 62
256
  6
BYLAYER
  0
ENDSEC
  0
EOF
