999
DXF file: 6f3_c_146.dxf
999
Pro/ENGINEER 2016360 by Parametric Technology Corporation
  0
SECTION
  2
HEADER
  9
$ACADVER
  1
AC1014
  9
$DWGCODEPAGE
  3
ANSI_1252
  9
$EXTMAX
 10
3200.0
 20
2500.0
 30
0.0
  9
$EXTMIN
 10
0.0
 20
0.0
 30
0.0
  9
$LIMMIN
 10
0.0
 20
0.0
  9
$LIMMAX
 10
3200.0
 20
2500.0
  9
$VIEWCTR
 10
1600.0
 20
1250.0
  9
$VIEWSIZE
 40
2500.0
  9
$CLAYER
  8
0
  9
$LTSCALE
 40
176.0
  9
$CELTYPE
  6
BYLAYER
  9
$DIMSCALE
 40
1.0
  9
$DIMASZ
 40
2.5
  9
$DIMEXO
 40
0.75
  9
$DIMDLI
 40
121.6
  9
$DIMEXE
 40
0.75
  9
$DIMCEN
 40
28.8
  9
$DIMLFAC
 40
1.0
  9
$DIMBLK
  1
_CLOSED
  9
$DIMALT
 70
0
  9
$DIMALTF
 40
25.4
  9
$DIMTXT
 40
3.0
  9
$DIMTOL
 70
1
  9
$DIMLIM
 70
0
  9
$DIMTFAC
 40
1.0
  9
$DIMTP
 40
0.01
  9
$DIMTM
 40
0.01
  9
$DIMGAP
 40
0.625
  9
$AUNITS
 70
0
  9
$PDMODE
 70
3
  9
$PDSIZE
 40
0.3125
  9
$HANDSEED
  5
577
  9
$TILEMODE
 70
1
  9
$MEASUREMENT
 70
1
  0
ENDSEC
  0
SECTION
  2
CLASSES
  0
ENDSEC
  0
SECTION
  2
TABLES
  0
TABLE
  2
VPORT
  5
8
100
AcDbSymbolTable
 70
2
  0
VPORT
  5
1F4
100
AcDbSymbolTableRecord
100
AcDbViewportTableRecord
  2
*ACTIVE
 70
0
 10
0.0
 20
0.0
 11
1.0
 21
1.0
 12
1600.0
 22
1250.0
 13
0.0
 23
0.0
 14
1.0
 24
1.0
 15
0.0
 25
0.0
 16
0.0
 26
0.0
 36
1.0
 17
0.0
 27
0.0
 37
0.0
 40
2500.0
 41
1.28
 42
50.0
 43
0.0
 44
0.0
 50
0.0
 51
0.0
 71
0
 72
100
 73
1
 74
1
 75
0
 76
0
 77
0
 78
0
  0
ENDTAB
  0
TABLE
  2
LTYPE
  5
5
100
AcDbSymbolTable
 70
6
  0
LTYPE
  5
14
100
AcDbSymbolTableRecord
100
AcDbLinetypeTableRecord
  2
BYBLOCK
 70
0
  3

 72
65
 73
0
 40
0.0
  0
LTYPE
  5
15
100
AcDbSymbolTableRecord
100
AcDbLinetypeTableRecord
  2
BYLAYER
 70
0
  3

 72
65
 73
0
 40
0.0
  0
LTYPE
  5
16
100
AcDbSymbolTableRecord
100
AcDbLinetypeTableRecord
  2
CONTINUOUS
 70
64
  3
Solid line
 72
65
 73
0
 40
0.0
  0
LTYPE
  5
1F5
100
AcDbSymbolTableRecord
100
AcDbLinetypeTableRecord
  2
CENTER
 70
64
  3
____ _ ____ _ ____ _ ____ _ ____ _ ____ _ ____
 72
65
 73
4
 40
0.6
 49
0.375
 74
0
 49
-0.075
 74
0
 49
0.075
 74
0
 49
-0.075
 74
0
  0
LTYPE
  5
1F6
100
AcDbSymbolTableRecord
100
AcDbLinetypeTableRecord
  2
HIDDEN
 70
64
  3
- - - - - - - - - - - - - - - - - - - -
 72
65
 73
2
 40
0.2
 49
0.1
 74
0
 49
-0.1
 74
0
  0
LTYPE
  5
1F7
100
AcDbSymbolTableRecord
100
AcDbLinetypeTableRecord
  2
PHANTOM
 70
64
  3
_____ _ _ _____ _ _ _____ _ _ _____
 72
65
 73
6
 40
0.8
 49
0.45
 74
0
 49
-0.05
 74
0
 49
0.1
 74
0
 49
-0.05
 74
0
 49
0.1
 74
0
 49
-0.05
 74
0
  0
LTYPE
  5
1F8
100
AcDbSymbolTableRecord
100
AcDbLinetypeTableRecord
  2
DOT
 70
64
  3
. . . . . . . . . . . . . . . . . . . .
 72
65
 73
2
 40
0.2
 49
0.1
 74
0
 49
-0.1
 74
0
  0
LTYPE
  5
1F9
100
AcDbSymbolTableRecord
100
AcDbLinetypeTableRecord
  2
DASHED
 70
64
  3
- - - - - - - - - - - - - - - - - - - -
 72
65
 73
2
 40
0.2
 49
0.1
 74
0
 49
-0.1
 74
0
  0
ENDTAB
  0
TABLE
  2
LAYER
  5
2
100
AcDbSymbolTable
 70
36
  0
LAYER
  5
10
100
AcDbSymbolTableRecord
100
AcDbLayerTableRecord
  2
0
 70
0
 62
7
  6
CONTINUOUS
  0
LAYER
  5
1FA
100
AcDbSymbolTableRecord
100
AcDbLayerTableRecord
  2
DEFAULT_1
 70
0
 62
7
  6
CENTER
  0
LAYER
  5
1FB
100
AcDbSymbolTableRecord
100
AcDbLayerTableRecord
  2
DEFAULT_2
 70
0
 62
8
  6
HIDDEN
  0
LAYER
  5
1FC
100
AcDbSymbolTableRecord
100
AcDbLayerTableRecord
  2
DEFAULT_3
 70
0
 62
7
  6
PHANTOM
  0
LAYER
  5
1FD
100
AcDbSymbolTableRecord
100
AcDbLayerTableRecord
  2
1_ALL_PLANES
 70
0
 62
7
  6
CONTINUOUS
  0
LAYER
  5
1FE
100
AcDbSymbolTableRecord
100
AcDbLayerTableRecord
  2
2_ALL_CSYS
 70
0
 62
7
  6
CONTINUOUS
  0
LAYER
  5
1FF
100
AcDbSymbolTableRecord
100
AcDbLayerTableRecord
  2
3_ALL_AXES
 70
0
 62
7
  6
CONTINUOUS
  0
LAYER
  5
200
100
AcDbSymbolTableRecord
100
AcDbLayerTableRecord
  2
4_ALL_POINTS
 70
0
 62
7
  6
CONTINUOUS
  0
LAYER
  5
201
100
AcDbSymbolTableRecord
100
AcDbLayerTableRecord
  2
5_ALL_CURVES
 70
0
 62
7
  6
CONTINUOUS
  0
LAYER
  5
202
100
AcDbSymbolTableRecord
100
AcDbLayerTableRecord
  2
5__COSTRUZIONE
 70
0
 62
7
  6
CONTINUOUS
  0
LAYER
  5
203
100
AcDbSymbolTableRecord
100
AcDbLayerTableRecord
  2
6_ALL_SURFS
 70
0
 62
7
  6
CONTINUOUS
  0
LAYER
  5
204
100
AcDbSymbolTableRecord
100
AcDbLayerTableRecord
  2
7_ALL_FEATURES
 70
0
 62
7
  6
CONTINUOUS
  0
LAYER
  5
205
100
AcDbSymbolTableRecord
100
AcDbLayerTableRecord
  2
9_SOLID
 70
0
 62
7
  6
CONTINUOUS
  0
LAYER
  5
206
100
AcDbSymbolTableRecord
100
AcDbLayerTableRecord
  2
PR9035
 70
0
 62
7
  6
CONTINUOUS
  0
LAYER
  5
207
100
AcDbSymbolTableRecord
100
AcDbLayerTableRecord
  2
WHITE
 70
0
 62
7
  6
CONTINUOUS
  0
LAYER
  5
208
100
AcDbSymbolTableRecord
100
AcDbLayerTableRecord
  2
XXX_SOLIDO
 70
0
 62
7
  6
CONTINUOUS
  0
ENDTAB
  0
TABLE
  2
STYLE
  5
3
100
AcDbSymbolTable
 70
1
  0
STYLE
  5
11
100
AcDbSymbolTableRecord
100
AcDbTextStyleTableRecord
  2
STANDARD
 70
0
 40
0.0
 41
1.0
 50
0.0
 71
0
 42
0.2
  3
arial.ttf
  4

  0
STYLE
  5
209
100
AcDbSymbolTableRecord
100
AcDbTextStyleTableRecord
  2
TEXTSTYLE_1
 70
0
 40
0.0
 41
0.8
 50
0.0
 71
0
 42
0.2
  3
gdt
  4

  0
STYLE
  5
20A
100
AcDbSymbolTableRecord
100
AcDbTextStyleTableRecord
  2
TEXTSTYLE_2
 70
0
 40
0.0
 41
0.85
 50
0.0
 71
0
 42
0.2
  3
txt
  4

  0
ENDTAB
  0
TABLE
  2
VIEW
  5
6
100
AcDbSymbolTable
 70
0
  0
ENDTAB
  0
TABLE
  2
UCS
  5
7
100
AcDbSymbolTable
 70
0
  0
ENDTAB
  0
TABLE
  2
APPID
  5
9
100
AcDbSymbolTable
 70
1
  0
APPID
  5
20B
100
AcDbSymbolTableRecord
100
AcDbRegAppTableRecord
  2
ACAD
 70
0
  0
ENDTAB
  0
TABLE
  2
BLOCK_RECORD
  5
1
100
AcDbSymbolTable
 70
0
  0
BLOCK_RECORD
  5
1F
100
AcDbSymbolTableRecord
100
AcDbBlockTableRecord
  2
*MODEL_SPACE
  0
BLOCK_RECORD
  5
1B
100
AcDbSymbolTableRecord
100
AcDbBlockTableRecord
  2
*PAPER_SPACE
  0
BLOCK_RECORD
  5
20C
100
AcDbSymbolTableRecord
100
AcDbBlockTableRecord
  2
_CLOSED
  0
BLOCK_RECORD
  5
20D
100
AcDbSymbolTableRecord
100
AcDbBlockTableRecord
  2
*D0
  0
BLOCK_RECORD
  5
20E
100
AcDbSymbolTableRecord
100
AcDbBlockTableRecord
  2
*D1
  0
BLOCK_RECORD
  5
20F
100
AcDbSymbolTableRecord
100
AcDbBlockTableRecord
  2
*D2
  0
BLOCK_RECORD
  5
210
100
AcDbSymbolTableRecord
100
AcDbBlockTableRecord
  2
*D3
  0
BLOCK_RECORD
  5
211
100
AcDbSymbolTableRecord
100
AcDbBlockTableRecord
  2
LOGO2_BL0
  0
ENDTAB
  0
TABLE
  2
DIMSTYLE
  5
A
100
AcDbSymbolTable
 70
1
  0
DIMSTYLE
105
212
100
AcDbSymbolTableRecord
100
AcDbDimStyleTableRecord
  2
STANDARD
 70
0
  3

  4

  5
_CLOSED
  6
_CLOSED
  7
_CLOSED
 40
1.0
 41
2.5
 42
0.75
 43
0.38
 44
0.75
 45
0.0
 46
0.0
 47
0.01
 48
0.01
140
3.0
141
0.09
142
0.0
143
25.4
144
1.0
145
0.0
146
1.0
147
0.625
 71
1.0
 72
0.0
 73
0
 74
0
 75
0
 76
0
 77
1
 78
8
 79
2
170
0
171
1
172
0
173
0
174
0
175
0
176
0
177
0
178
0
270
2
179
2
271
2
272
2
273
2
274
2
275
0
280
0
281
0
282
0
283
1
284
8
285
0
286
0
287
3
288
0
340
11
  0
DIMSTYLE
105
213
100
AcDbSymbolTableRecord
100
AcDbDimStyleTableRecord
  2
DIMSTYLE_1
 70
0
  3

  4

  5
_CLOSED
  6
_CLOSED
  7
_CLOSED
 40
1.0
 41
2.5
 42
0.75
 43
0.38
 44
0.75
 45
0.0
 46
0.0
 47
0.3
 48
0.3
140
10.0
141
0.09
142
0.0
143
25.4
144
1.0
145
0.0
146
1.0
147
2.5
 71
0.0
 72
0.0
 73
0
 74
0
 75
0
 76
0
 77
1
 78
8
 79
2
170
0
171
1
172
0
173
0
174
0
175
0
176
0
177
0
178
0
270
2
179
2
271
2
272
2
273
2
274
2
275
0
280
0
281
0
282
0
283
1
284
8
285
0
286
0
287
3
288
0
340
11
  0
DIMSTYLE
105
214
100
AcDbSymbolTableRecord
100
AcDbDimStyleTableRecord
  2
DIMSTYLE_2
 70
0
  3

  4

  5
_CLOSED
  6
_CLOSED
  7
_CLOSED
 40
1.0
 41
2.5
 42
0.75
 43
0.38
 44
0.75
 45
0.0
 46
0.0
 47
2.0
 48
2.0
140
10.0
141
0.09
142
0.0
143
25.4
144
1.0
145
0.0
146
1.0
147
2.5
 71
0.0
 72
0.0
 73
0
 74
0
 75
0
 76
0
 77
1
 78
8
 79
2
170
0
171
1
172
0
173
0
174
0
175
0
176
0
177
0
178
0
270
2
179
2
271
2
272
2
273
2
274
2
275
0
280
0
281
0
282
0
283
1
284
8
285
0
286
0
287
3
288
0
340
11
  0
ENDTAB
  0
ENDSEC
  0
SECTION
  2
BLOCKS
  0
BLOCK
  5
20
100
AcDbEntity
  8
0
100
AcDbBlockBegin
  2
*MODEL_SPACE
 70
0
 10
0.0
 20
0.0
 30
0.0
  3
*MODEL_SPACE
  1

  0
ENDBLK
  5
21
100
AcDbEntity
  8
0
100
AcDbBlockEnd
  0
BLOCK
  5
1C
100
AcDbEntity
  8
0
100
AcDbBlockBegin
  2
*PAPER_SPACE
 70
0
 10
0.0
 20
0.0
 30
0.0
  3
*PAPER_SPACE
  1

  0
ENDBLK
  5
1D
100
AcDbEntity
  8
0
100
AcDbBlockEnd
  0
BLOCK
  5
215
100
AcDbEntity
  8
0
100
AcDbBlockBegin
 62
2
  6
CONTINUOUS
  2
LOGO2_BL0
 70
64
 10
3001.8756524563
 20
44.7863585118
  3
LOGO2_BL0
  1

  0
LINE
  5
216
100
AcDbEntity
  8
0
100
AcDbLine
 62
7
  6
CONTINUOUS
 10
2993.6185776845
 20
47.9818498507
 11
2992.3142367551
 21
47.9818498507
  0
LINE
  5
217
100
AcDbEntity
  8
0
100
AcDbLine
 62
7
  6
CONTINUOUS
 10
2992.3142367551
 20
47.9818498507
 11
2992.3142367551
 21
37.5227837908
  0
LINE
  5
218
100
AcDbEntity
  8
0
100
AcDbLine
 62
7
  6
CONTINUOUS
 10
2992.3142367551
 20
37.5227837908
 11
2996.7952916434
 21
37.5227837908
  0
LINE
  5
219
100
AcDbEntity
  8
0
100
AcDbLine
 62
7
  6
CONTINUOUS
 10
2996.7952916434
 20
37.5227837908
 11
2996.7952916434
 21
38.7156381159
  0
LINE
  5
21A
100
AcDbEntity
  8
0
100
AcDbLine
 62
7
  6
CONTINUOUS
 10
2996.7952916434
 20
38.7156381159
 11
2993.6185776845
 21
38.7156381159
  0
LINE
  5
21B
100
AcDbEntity
  8
0
100
AcDbLine
 62
7
  6
CONTINUOUS
 10
2993.6185776845
 20
38.7156381159
 11
2993.6185776845
 21
47.9818498507
  0
LINE
  5
21C
100
AcDbEntity
  8
0
100
AcDbLine
 62
7
  6
CONTINUOUS
 10
3008.5549039008
 20
47.9818498507
 11
3007.2510863827
 21
47.9818498507
  0
LINE
  5
21D
100
AcDbEntity
  8
0
100
AcDbLine
 62
7
  6
CONTINUOUS
 10
3007.2510863827
 20
47.9818498507
 11
3007.2510863827
 21
37.5227837908
  0
LINE
  5
21E
100
AcDbEntity
  8
0
100
AcDbLine
 62
7
  6
CONTINUOUS
 10
3007.2510863827
 20
37.5227837908
 11
3011.7322721238
 21
37.5227837908
  0
LINE
  5
21F
100
AcDbEntity
  8
0
100
AcDbLine
 62
7
  6
CONTINUOUS
 10
3011.7322721238
 20
37.5227837908
 11
3011.7322721238
 21
38.7156381159
  0
LINE
  5
220
100
AcDbEntity
  8
0
100
AcDbLine
 62
7
  6
CONTINUOUS
 10
3011.7322721238
 20
38.7156381159
 11
3008.5549039008
 21
38.7156381159
  0
LINE
  5
221
100
AcDbEntity
  8
0
100
AcDbLine
 62
7
  6
CONTINUOUS
 10
3008.5549039008
 20
38.7156381159
 11
3008.5549039008
 21
47.9818498507
  0
LWPOLYLINE
  5
222
100
AcDbEntity
  8
0
100
AcDbPolyline
 62
7
  6
CONTINUOUS
 90
2
 70
0
 43
0.2
 10
2990.668631666
 20
34.1792324839
 10
2990.668631666
 20
32.3221692346
  0
LWPOLYLINE
  5
223
100
AcDbEntity
  8
0
100
AcDbPolyline
 62
7
  6
CONTINUOUS
 90
2
 70
0
 43
0.2
 10
2990.668631666
 20
32.3221692346
 10
2991.4643476764
 20
32.3221692346
  0
LWPOLYLINE
  5
224
100
AcDbEntity
  8
0
100
AcDbPolyline
 62
7
  6
CONTINUOUS
 90
2
 70
0
 43
0.2
 10
2991.4643476764
 20
32.3221692346
 10
2991.4643476764
 20
32.5341508061
  0
LWPOLYLINE
  5
225
100
AcDbEntity
  8
0
100
AcDbPolyline
 62
7
  6
CONTINUOUS
 90
2
 70
0
 43
0.2
 10
2991.4643476764
 20
32.5341508061
 10
2990.9002411609
 20
32.5341508061
  0
LWPOLYLINE
  5
226
100
AcDbEntity
  8
0
100
AcDbPolyline
 62
7
  6
CONTINUOUS
 90
2
 70
0
 43
0.2
 10
2990.9002411609
 20
32.5341508061
 10
2990.9002411609
 20
34.1792324839
  0
LWPOLYLINE
  5
227
100
AcDbEntity
  8
0
100
AcDbPolyline
 62
7
  6
CONTINUOUS
 90
2
 70
0
 43
0.2
 10
2990.9002411609
 20
34.1792324839
 10
2990.668631666
 20
34.1792324839
  0
SPLINE
  5
228
100
AcDbEntity
  8
0
100
AcDbSpline
 62
7
  6
CONTINUOUS
 70
2
 71
3
 72
35
 73
31
 74
0
 42
0.0000001
 43
0.0000001
 44
0.0000000001
 40
0.0
 40
0.0
 40
0.0
 40
0.0
 40
1.0
 40
1.0
 40
1.0
 40
2.0
 40
2.0
 40
2.0
 40
3.0
 40
3.0
 40
3.0
 40
4.0
 40
4.0
 40
4.0
 40
5.0
 40
5.0
 40
5.0
 40
6.0
 40
6.0
 40
6.0
 40
7.0
 40
7.0
 40
7.0
 40
8.0
 40
8.0
 40
8.0
 40
9.0
 40
9.0
 40
9.0
 40
10.0
 40
10.0
 40
10.0
 40
10.0
 10
2992.862640932
 20
33.4747208904
 30
0.0
 10
2992.862640932
 20
33.4747208904
 30
0.0
 10
2992.862640932
 20
32.8126056113
 30
0.0
 10
2992.862640932
 20
32.8126056113
 30
0.0
 10
2992.862640932
 20
32.497512016
 30
0.0
 10
2993.0105046208
 20
32.282913388
 30
0.0
 10
2993.3505911051
 20
32.282913388
 30
0.0
 10
2993.6901541781
 20
32.282913388
 30
0.0
 10
2993.8382795726
 20
32.497512016
 30
0.0
 10
2993.8382795726
 20
32.8126056113
 30
0.0
 10
2993.8382795726
 20
32.8126056113
 30
0.0
 10
2993.8382795726
 20
33.4747208904
 30
0.0
 10
2993.8382795726
 20
33.4747208904
 30
0.0
 10
2993.8382795726
 20
33.4747208904
 30
0.0
 10
2993.6162223337
 20
33.4747208904
 30
0.0
 10
2993.6162223337
 20
33.4747208904
 30
0.0
 10
2993.6162223337
 20
33.4747208904
 30
0.0
 10
2993.6162223337
 20
32.8377293531
 30
0.0
 10
2993.6162223337
 20
32.8377293531
 30
0.0
 10
2993.6162223337
 20
32.6519183459
 30
0.0
 10
2993.5695078762
 20
32.4891374354
 30
0.0
 10
2993.3505911051
 20
32.4891374354
 30
0.0
 10
2993.1311509227
 20
32.4891374354
 30
0.0
 10
2993.0844364652
 20
32.6519183459
 30
0.0
 10
2993.0844364652
 20
32.8377293531
 30
0.0
 10
2993.0844364652
 20
32.8377293531
 30
0.0
 10
2993.0844364652
 20
33.4747208904
 30
0.0
 10
2993.0844364652
 20
33.4747208904
 30
0.0
 10
2993.0844364652
 20
33.4747208904
 30
0.0
 10
2992.862640932
 20
33.4747208904
 30
0.0
 10
2992.862640932
 20
33.4747208904
 30
0.0
  0
SPLINE
  5
229
100
AcDbEntity
  8
0
100
AcDbSpline
 62
7
  6
CONTINUOUS
 70
2
 71
3
 72
35
 73
31
 74
0
 42
0.0000001
 43
0.0000001
 44
0.0000000001
 40
0.0
 40
0.0
 40
0.0
 40
0.0
 40
1.0
 40
1.0
 40
1.0
 40
2.0
 40
2.0
 40
2.0
 40
3.0
 40
3.0
 40
3.0
 40
4.0
 40
4.0
 40
4.0
 40
5.0
 40
5.0
 40
5.0
 40
6.0
 40
6.0
 40
6.0
 40
7.0
 40
7.0
 40
7.0
 40
8.0
 40
8.0
 40
8.0
 40
9.0
 40
9.0
 40
9.0
 40
10.0
 40
10.0
 40
10.0
 40
10.0
 10
2996.2614121298
 20
33.4333713987
 30
0.0
 10
2996.1729556221
 20
33.4846657049
 30
0.0
 10
2996.0595062255
 20
33.5097894467
 30
0.0
 10
2995.9558707905
 20
33.5097894467
 30
0.0
 10
2995.6009979373
 20
33.5097894467
 30
0.0
 10
2995.325552747
 20
33.2459901576
 30
0.0
 10
2995.325552747
 20
32.888500248
 30
0.0
 10
2995.325552747
 20
32.5435722093
 30
0.0
 10
2995.6040075522
 20
32.2834367993
 30
0.0
 10
2995.9435706252
 20
32.2834367993
 30
0.0
 10
2996.0595062255
 20
32.2834367993
 30
0.0
 10
2996.1602628984
 20
32.3054200733
 30
0.0
 10
2996.2614121298
 20
32.359331436
 30
0.0
 10
2996.2614121298
 20
32.359331436
 30
0.0
 10
2996.2614121298
 20
32.6419735314
 30
0.0
 10
2996.2614121298
 20
32.6419735314
 30
0.0
 10
2996.1775354709
 20
32.5488063222
 30
0.0
 10
2996.0740308887
 20
32.4896608467
 30
0.0
 10
2995.945925976
 20
32.4896608467
 30
0.0
 10
2995.712222836
 20
32.4896608467
 30
0.0
 10
2995.5469557218
 20
32.6618631604
 30
0.0
 10
2995.5469557218
 20
32.8984450625
 30
0.0
 10
2995.5469557218
 20
33.1104266341
 30
0.0
 10
2995.7147090396
 20
33.3025185767
 30
0.0
 10
2995.9315321656
 20
33.3025185767
 30
0.0
 10
2996.0643477799
 20
33.3025185767
 30
0.0
 10
2996.1729556221
 20
33.2486072141
 30
0.0
 10
2996.2614121298
 20
33.1475888355
 30
0.0
 10
2996.2614121298
 20
33.1475888355
 30
0.0
 10
2996.2614121298
 20
33.4333713987
 30
0.0
 10
2996.2614121298
 20
33.4333713987
 30
0.0
  0
SPLINE
  5
22A
100
AcDbEntity
  8
0
100
AcDbSpline
 62
7
  6
CONTINUOUS
 70
2
 71
3
 72
32
 73
28
 74
0
 42
0.0000001
 43
0.0000001
 44
0.0000000001
 40
0.0
 40
0.0
 40
0.0
 40
0.0
 40
1.0
 40
1.0
 40
1.0
 40
2.0
 40
2.0
 40
2.0
 40
3.0
 40
3.0
 40
3.0
 40
4.0
 40
4.0
 40
4.0
 40
5.0
 40
5.0
 40
5.0
 40
6.0
 40
6.0
 40
6.0
 40
7.0
 40
7.0
 40
7.0
 40
8.0
 40
8.0
 40
8.0
 40
9.0
 40
9.0
 40
9.0
 40
9.0
 10
2998.793283382
 20
32.8618062723
 30
0.0
 10
2998.793283382
 20
32.8618062723
 30
0.0
 10
2998.793283382
 20
32.8958280061
 30
0.0
 10
2998.793283382
 20
32.8958280061
 30
0.0
 10
2998.793283382
 20
33.2381389883
 30
0.0
 10
2998.6204268042
 20
33.5097894467
 30
0.0
 10
2998.253777197
 20
33.5097894467
 30
0.0
 10
2997.8821551827
 20
33.5097894467
 30
0.0
 10
2997.6924185908
 20
33.2433731012
 30
0.0
 10
2997.6924185908
 20
32.888500248
 30
0.0
 10
2997.6924185908
 20
32.5488063222
 30
0.0
 10
2997.9064938075
 20
32.282913388
 30
0.0
 10
2998.2586187515
 20
32.282913388
 30
0.0
 10
2998.4826387827
 20
32.282913388
 30
0.0
 10
2998.6848063926
 20
32.3985872826
 30
0.0
 10
2998.793283382
 20
32.5980069833
 30
0.0
 10
2998.793283382
 20
32.5980069833
 30
0.0
 10
2998.6056404353
 20
32.704782886
 30
0.0
 10
2998.6056404353
 20
32.704782886
 30
0.0
 10
2998.5221563349
 20
32.5660788947
 30
0.0
 10
2998.430951918
 20
32.4802394435
 30
0.0
 10
2998.2613666607
 20
32.4802394435
 30
0.0
 10
2998.0493850891
 20
32.4802394435
 30
0.0
 10
2997.916438622
 20
32.6650036281
 30
0.0
 10
2997.9140832712
 20
32.8618062723
 30
0.0
 10
2997.9140832712
 20
32.8618062723
 30
0.0
 10
2998.793283382
 20
32.8618062723
 30
0.0
 10
2998.793283382
 20
32.8618062723
 30
0.0
  0
SPLINE
  5
22B
100
AcDbEntity
  8
0
100
AcDbSpline
 62
7
  6
CONTINUOUS
 70
2
 71
3
 72
14
 73
10
 74
0
 42
0.0000001
 43
0.0000001
 44
0.0000000001
 40
0.0
 40
0.0
 40
0.0
 40
0.0
 40
1.0
 40
1.0
 40
1.0
 40
2.0
 40
2.0
 40
2.0
 40
3.0
 40
3.0
 40
3.0
 40
3.0
 10
2997.9261217308
 20
33.0292978845
 30
0.0
 10
2997.9537316763
 20
33.1941724401
 30
0.0
 10
2998.0815748833
 20
33.3171740928
 30
0.0
 10
2998.253777197
 20
33.3171740928
 30
0.0
 10
2998.430951918
 20
33.3171740928
 30
0.0
 10
2998.5444013146
 20
33.2015001982
 30
0.0
 10
2998.5716187016
 20
33.0292978845
 30
0.0
 10
2998.5716187016
 20
33.0292978845
 30
0.0
 10
2997.9261217308
 20
33.0292978845
 30
0.0
 10
2997.9261217308
 20
33.0292978845
 30
0.0
  0
SPLINE
  5
22C
100
AcDbEntity
  8
0
100
AcDbSpline
 62
7
  6
CONTINUOUS
 70
2
 71
3
 72
20
 73
16
 74
0
 42
0.0000001
 43
0.0000001
 44
0.0000000001
 40
0.0
 40
0.0
 40
0.0
 40
0.0
 40
1.0
 40
1.0
 40
1.0
 40
2.0
 40
2.0
 40
2.0
 40
3.0
 40
3.0
 40
3.0
 40
4.0
 40
4.0
 40
4.0
 40
5.0
 40
5.0
 40
5.0
 40
5.0
 10
3000.8173148322
 20
33.2386623996
 30
0.0
 10
3000.8173148322
 20
33.2386623996
 30
0.0
 10
3001.2284543988
 20
32.7361875633
 30
0.0
 10
3001.2284543988
 20
32.7361875633
 30
0.0
 10
3001.1123879457
 20
32.6205136686
 30
0.0
 10
3000.9745999242
 20
32.490184258
 30
0.0
 10
3000.8026593161
 20
32.490184258
 30
0.0
 10
3000.6252228896
 20
32.490184258
 30
0.0
 10
3000.4577312774
 20
32.6545354024
 30
0.0
 10
3000.4577312774
 20
32.8314484177
 30
0.0
 10
3000.4577312774
 20
33.0094082555
 30
0.0
 10
3000.6674883511
 20
33.1355503759
 30
0.0
 10
3000.7950698525
 20
33.2234834723
 30
0.0
 10
3000.7950698525
 20
33.2234834723
 30
0.0
 10
3000.8173148322
 20
33.2386623996
 30
0.0
 10
3000.8173148322
 20
33.2386623996
 30
0.0
  0
SPLINE
  5
22D
100
AcDbEntity
  8
0
100
AcDbSpline
 62
7
  6
CONTINUOUS
 70
2
 71
3
 72
23
 73
19
 74
0
 42
0.0000001
 43
0.0000001
 44
0.0000000001
 40
0.0
 40
0.0
 40
0.0
 40
0.0
 40
1.0
 40
1.0
 40
1.0
 40
2.0
 40
2.0
 40
2.0
 40
3.0
 40
3.0
 40
3.0
 40
4.0
 40
4.0
 40
4.0
 40
5.0
 40
5.0
 40
5.0
 40
6.0
 40
6.0
 40
6.0
 40
6.0
 10
3000.8666463461
 20
33.5296790757
 30
0.0
 10
3000.8666463461
 20
33.5296790757
 30
0.0
 10
3000.8050146669
 20
33.6081907689
 30
0.0
 10
3000.8050146669
 20
33.6081907689
 30
0.0
 10
3000.7511033043
 20
33.6767576476
 30
0.0
 10
3000.6943131796
 20
33.7458479376
 30
0.0
 10
3000.6943131796
 20
33.8395385581
 30
0.0
 10
3000.6943131796
 20
33.9583529204
 30
0.0
 10
3000.7902282981
 20
34.035817791
 30
0.0
 10
3000.9011914911
 20
34.035817791
 30
0.0
 10
3001.0244548494
 20
34.035817791
 30
0.0
 10
3001.1177529114
 20
33.9646338559
 30
0.0
 10
3001.1177529114
 20
33.8343044452
 30
0.0
 10
3001.1177529114
 20
33.6992643329
 30
0.0
 10
3000.9896479987
 20
33.6228462849
 30
0.0
 10
3000.896088231
 20
33.5490452933
 30
0.0
 10
3000.896088231
 20
33.5490452933
 30
0.0
 10
3000.8666463461
 20
33.5296790757
 30
0.0
 10
3000.8666463461
 20
33.5296790757
 30
0.0
  0
SPLINE
  5
22E
100
AcDbEntity
  8
0
100
AcDbSpline
 62
7
  6
CONTINUOUS
 70
2
 71
3
 72
50
 73
46
 74
0
 42
0.0000001
 43
0.0000001
 44
0.0000000001
 40
0.0
 40
0.0
 40
0.0
 40
0.0
 40
1.0
 40
1.0
 40
1.0
 40
2.0
 40
2.0
 40
2.0
 40
3.0
 40
3.0
 40
3.0
 40
4.0
 40
4.0
 40
4.0
 40
5.0
 40
5.0
 40
5.0
 40
6.0
 40
6.0
 40
6.0
 40
7.0
 40
7.0
 40
7.0
 40
8.0
 40
8.0
 40
8.0
 40
9.0
 40
9.0
 40
9.0
 40
10.0
 40
10.0
 40
10.0
 40
11.0
 40
11.0
 40
11.0
 40
12.0
 40
12.0
 40
12.0
 40
13.0
 40
13.0
 40
13.0
 40
14.0
 40
14.0
 40
14.0
 40
15.0
 40
15.0
 40
15.0
 40
15.0
 10
3001.5688025888
 20
32.3226926458
 30
0.0
 10
3001.5688025888
 20
32.3226926458
 30
0.0
 10
3001.8541925935
 20
32.3226926458
 30
0.0
 10
3001.8541925935
 20
32.3226926458
 30
0.0
 10
3001.8541925935
 20
32.3226926458
 30
0.0
 10
3001.5218264257
 20
32.7335705068
 30
0.0
 10
3001.5218264257
 20
32.7335705068
 30
0.0
 10
3001.5218264257
 20
32.7335705068
 30
0.0
 10
3001.7483326605
 20
32.9994634411
 30
0.0
 10
3001.7483326605
 20
32.9994634411
 30
0.0
 10
3001.7483326605
 20
32.9994634411
 30
0.0
 10
3001.6000764132
 20
33.1522995371
 30
0.0
 10
3001.6000764132
 20
33.1522995371
 30
0.0
 10
3001.6000764132
 20
33.1522995371
 30
0.0
 10
3001.384169257
 20
32.9010621189
 30
0.0
 10
3001.384169257
 20
32.9010621189
 30
0.0
 10
3001.384169257
 20
32.9010621189
 30
0.0
 10
3000.9971066096
 20
33.3689918103
 30
0.0
 10
3000.9971066096
 20
33.3689918103
 30
0.0
 10
3001.1525597621
 20
33.483095471
 30
0.0
 10
3001.3348377431
 20
33.6228462849
 30
0.0
 10
3001.3348377431
 20
33.8322108001
 30
0.0
 10
3001.3348377431
 20
34.0761204602
 30
0.0
 10
3001.132800986
 20
34.2195351531
 30
0.0
 10
3000.9062947511
 20
34.2195351531
 30
0.0
 10
3000.6621233854
 20
34.2195351531
 30
0.0
 10
3000.4777517592
 20
34.0687927022
 30
0.0
 10
3000.4777517592
 20
33.8123211711
 30
0.0
 10
3000.4777517592
 20
33.6547743735
 30
0.0
 10
3000.576414787
 20
33.5171172048
 30
0.0
 10
3000.6817513086
 20
33.4061540117
 30
0.0
 10
3000.6817513086
 20
33.4061540117
 30
0.0
 10
3000.5662082668
 20
33.3224082057
 30
0.0
 10
3000.5662082668
 20
33.3224082057
 30
0.0
 10
3000.3885101346
 20
33.1941724401
 30
0.0
 10
3000.2411698571
 20
33.0664600859
 30
0.0
 10
3000.2411698571
 20
32.8293547725
 30
0.0
 10
3000.2411698571
 20
32.5090270643
 30
0.0
 10
3000.4997350333
 20
32.282913388
 30
0.0
 10
3000.810117927
 20
32.282913388
 30
0.0
 10
3001.0290346981
 20
32.282913388
 30
0.0
 10
3001.2262299009
 20
32.4080086858
 30
0.0
 10
3001.366504126
 20
32.573930064
 30
0.0
 10
3001.366504126
 20
32.573930064
 30
0.0
 10
3001.5688025888
 20
32.3226926458
 30
0.0
 10
3001.5688025888
 20
32.3226926458
 30
0.0
  0
LWPOLYLINE
  5
22F
100
AcDbEntity
  8
0
100
AcDbPolyline
 62
7
  6
CONTINUOUS
 90
2
 70
0
 43
0.2
 10
3003.5042466785
 20
34.1792324839
 10
3003.2728988892
 20
34.1792324839
  0
LWPOLYLINE
  5
230
100
AcDbEntity
  8
0
100
AcDbPolyline
 62
7
  6
CONTINUOUS
 90
2
 70
0
 43
0.2
 10
3003.2728988892
 20
34.1792324839
 10
3003.2728988892
 20
32.3221692346
  0
LWPOLYLINE
  5
231
100
AcDbEntity
  8
0
100
AcDbPolyline
 62
7
  6
CONTINUOUS
 90
2
 70
0
 43
0.2
 10
3003.2728988892
 20
32.3221692346
 10
3004.0682223412
 20
32.3221692346
  0
LWPOLYLINE
  5
232
100
AcDbEntity
  8
0
100
AcDbPolyline
 62
7
  6
CONTINUOUS
 90
2
 70
0
 43
0.2
 10
3004.0682223412
 20
32.3221692346
 10
3004.0682223412
 20
32.5341508061
  0
LWPOLYLINE
  5
233
100
AcDbEntity
  8
0
100
AcDbPolyline
 62
7
  6
CONTINUOUS
 90
2
 70
0
 43
0.2
 10
3004.0682223412
 20
32.5341508061
 10
3003.5042466785
 20
32.5341508061
  0
LWPOLYLINE
  5
234
100
AcDbEntity
  8
0
100
AcDbPolyline
 62
7
  6
CONTINUOUS
 90
2
 70
0
 43
0.2
 10
3003.5042466785
 20
32.5341508061
 10
3003.5042466785
 20
34.1792324839
  0
LWPOLYLINE
  5
235
100
AcDbEntity
  8
0
100
AcDbPolyline
 62
7
  6
CONTINUOUS
 90
2
 70
0
 43
0.2
 10
3005.7473257527
 20
33.4747208904
 10
3005.5261844835
 20
33.4747208904
  0
LWPOLYLINE
  5
236
100
AcDbEntity
  8
0
100
AcDbPolyline
 62
7
  6
CONTINUOUS
 90
2
 70
0
 43
0.2
 10
3005.5261844835
 20
33.4747208904
 10
3005.5261844835
 20
32.3226926458
  0
LWPOLYLINE
  5
237
100
AcDbEntity
  8
0
100
AcDbPolyline
 62
7
  6
CONTINUOUS
 90
2
 70
0
 43
0.2
 10
3005.5261844835
 20
32.3226926458
 10
3005.7473257527
 20
32.3226926458
  0
LWPOLYLINE
  5
238
100
AcDbEntity
  8
0
100
AcDbPolyline
 62
7
  6
CONTINUOUS
 90
2
 70
0
 43
0.2
 10
3005.7473257527
 20
32.3226926458
 10
3005.7473257527
 20
33.4747208904
  0
LWPOLYLINE
  5
239
100
AcDbEntity
  8
0
100
AcDbPolyline
 62
7
  6
CONTINUOUS
 90
2
 70
1
 43
0.2
 10
3005.4843024754
 20
34.0046748194
 42
1.0
 10
3005.7894694664
 20
34.0046748194
 42
1.0
  0
SPLINE
  5
23A
100
AcDbEntity
  8
0
100
AcDbSpline
 62
7
  6
CONTINUOUS
 70
2
 71
3
 72
17
 73
13
 74
0
 42
0.0000001
 43
0.0000001
 44
0.0000000001
 40
0.0
 40
0.0
 40
0.0
 40
0.0
 40
1.0
 40
1.0
 40
1.0
 40
2.0
 40
2.0
 40
2.0
 40
3.0
 40
3.0
 40
3.0
 40
4.0
 40
4.0
 40
4.0
 40
4.0
 10
3007.8776096943
 20
32.4802394435
 30
0.0
 10
3007.6436448486
 20
32.4802394435
 30
0.0
 10
3007.5133154379
 20
32.6822762006
 30
0.0
 10
3007.5133154379
 20
32.8984450625
 30
0.0
 10
3007.5133154379
 20
33.1130436905
 30
0.0
 10
3007.6491406671
 20
33.3119399799
 30
0.0
 10
3007.8776096943
 20
33.3119399799
 30
0.0
 10
3008.1170703585
 20
33.3119399799
 30
0.0
 10
3008.252633882
 20
33.122988505
 30
0.0
 10
3008.252633882
 20
32.8984450625
 30
0.0
 10
3008.252633882
 20
32.6723313861
 30
0.0
 10
3008.1194257093
 20
32.4802394435
 30
0.0
 10
3007.8776096943
 20
32.4802394435
 30
0.0
  0
SPLINE
  5
23B
100
AcDbEntity
  8
0
100
AcDbSpline
 62
7
  6
CONTINUOUS
 70
2
 71
3
 72
50
 73
46
 74
0
 42
0.0000001
 43
0.0000001
 44
0.0000000001
 40
0.0
 40
0.0
 40
0.0
 40
0.0
 40
1.0
 40
1.0
 40
1.0
 40
2.0
 40
2.0
 40
2.0
 40
3.0
 40
3.0
 40
3.0
 40
4.0
 40
4.0
 40
4.0
 40
5.0
 40
5.0
 40
5.0
 40
6.0
 40
6.0
 40
6.0
 40
7.0
 40
7.0
 40
7.0
 40
8.0
 40
8.0
 40
8.0
 40
9.0
 40
9.0
 40
9.0
 40
10.0
 40
10.0
 40
10.0
 40
11.0
 40
11.0
 40
11.0
 40
12.0
 40
12.0
 40
12.0
 40
13.0
 40
13.0
 40
13.0
 40
14.0
 40
14.0
 40
14.0
 40
15.0
 40
15.0
 40
15.0
 40
15.0
 10
3008.4617366915
 20
33.4752443017
 30
0.0
 10
3008.4617366915
 20
33.4752443017
 30
0.0
 10
3008.2400720111
 20
33.4752443017
 30
0.0
 10
3008.2400720111
 20
33.4752443017
 30
0.0
 10
3008.2400720111
 20
33.4752443017
 30
0.0
 10
3008.2400720111
 20
33.2779182462
 30
0.0
 10
3008.2400720111
 20
33.2779182462
 30
0.0
 10
3008.2400720111
 20
33.2779182462
 30
0.0
 10
3008.2353613095
 20
33.2779182462
 30
0.0
 10
3008.2353613095
 20
33.2779182462
 30
0.0
 10
3008.1440260398
 20
33.4208095278
 30
0.0
 10
3008.0061071655
 20
33.5092660354
 30
0.0
 10
3007.8333814405
 20
33.5092660354
 30
0.0
 10
3007.5010152727
 20
33.5092660354
 30
0.0
 10
3007.2919124632
 20
33.2213898271
 30
0.0
 10
3007.2919124632
 20
32.9057728205
 30
0.0
 10
3007.2919124632
 20
32.5760237092
 30
0.0
 10
3007.488976813
 20
32.282913388
 30
0.0
 10
3007.8438496662
 20
32.282913388
 30
0.0
 10
3008.0061071655
 20
32.282913388
 30
0.0
 10
3008.146119685
 20
32.3713698956
 30
0.0
 10
3008.2353613095
 20
32.5022227176
 30
0.0
 10
3008.2353613095
 20
32.5022227176
 30
0.0
 10
3008.2400720111
 20
32.5022227176
 30
0.0
 10
3008.2400720111
 20
32.5022227176
 30
0.0
 10
3008.2400720111
 20
32.5022227176
 30
0.0
 10
3008.2400720111
 20
32.282913388
 30
0.0
 10
3008.2400720111
 20
32.282913388
 30
0.0
 10
3008.2400720111
 20
32.0463314858
 30
0.0
 10
3008.183543592
 20
31.8594736561
 30
0.0
 10
3007.9103228998
 20
31.8594736561
 30
0.0
 10
3007.708024437
 20
31.8594736561
 30
0.0
 10
3007.5653948611
 20
31.9777646071
 30
0.0
 10
3007.5653948611
 20
32.1839886546
 30
0.0
 10
3007.5653948611
 20
32.1839886546
 30
0.0
 10
3007.3437301807
 20
32.1839886546
 30
0.0
 10
3007.3437301807
 20
32.1839886546
 30
0.0
 10
3007.3487025879
 20
31.8594736561
 30
0.0
 10
3007.5797886715
 20
31.6626710118
 30
0.0
 10
3007.9001163797
 20
31.6626710118
 30
0.0
 10
3008.3481564421
 20
31.6626710118
 30
0.0
 10
3008.4617366915
 20
31.9479301637
 30
0.0
 10
3008.4617366915
 20
32.3446759199
 30
0.0
 10
3008.4617366915
 20
32.3446759199
 30
0.0
 10
3008.4617366915
 20
33.4752443017
 30
0.0
 10
3008.4617366915
 20
33.4752443017
 30
0.0
  0
SPLINE
  5
23C
100
AcDbEntity
  8
0
100
AcDbSpline
 62
7
  6
CONTINUOUS
 70
2
 71
3
 72
44
 73
40
 74
0
 42
0.0000001
 43
0.0000001
 44
0.0000000001
 40
0.0
 40
0.0
 40
0.0
 40
0.0
 40
1.0
 40
1.0
 40
1.0
 40
2.0
 40
2.0
 40
2.0
 40
3.0
 40
3.0
 40
3.0
 40
4.0
 40
4.0
 40
4.0
 40
5.0
 40
5.0
 40
5.0
 40
6.0
 40
6.0
 40
6.0
 40
7.0
 40
7.0
 40
7.0
 40
8.0
 40
8.0
 40
8.0
 40
9.0
 40
9.0
 40
9.0
 40
10.0
 40
10.0
 40
10.0
 40
11.0
 40
11.0
 40
11.0
 40
12.0
 40
12.0
 40
12.0
 40
13.0
 40
13.0
 40
13.0
 40
13.0
 10
3010.0306620269
 20
34.4603043455
 30
0.0
 10
3010.0306620269
 20
34.4603043455
 30
0.0
 10
3010.0306620269
 20
32.3221692346
 30
0.0
 10
3010.0306620269
 20
32.3221692346
 30
0.0
 10
3010.0306620269
 20
32.3221692346
 30
0.0
 10
3010.2520650017
 20
32.3221692346
 30
0.0
 10
3010.2520650017
 20
32.3221692346
 30
0.0
 10
3010.2520650017
 20
32.3221692346
 30
0.0
 10
3010.2520650017
 20
32.8518614579
 30
0.0
 10
3010.2520650017
 20
32.8518614579
 30
0.0
 10
3010.2520650017
 20
33.0617493843
 30
0.0
 10
3010.2520650017
 20
33.3124633912
 30
0.0
 10
3010.5373241536
 20
33.3124633912
 30
0.0
 10
3010.7642229469
 20
33.3124633912
 30
0.0
 10
3010.7911786282
 20
33.1795169241
 30
0.0
 10
3010.7911786282
 20
32.9832376911
 30
0.0
 10
3010.7911786282
 20
32.9832376911
 30
0.0
 10
3010.7911786282
 20
32.3221692346
 30
0.0
 10
3010.7911786282
 20
32.3221692346
 30
0.0
 10
3010.7911786282
 20
32.3221692346
 30
0.0
 10
3011.0131050143
 20
32.3221692346
 30
0.0
 10
3011.0131050143
 20
32.3221692346
 30
0.0
 10
3011.0131050143
 20
32.3221692346
 30
0.0
 10
3011.0131050143
 20
33.0094082555
 30
0.0
 10
3011.0131050143
 20
33.0094082555
 30
0.0
 10
3011.0131050143
 20
33.2899567058
 30
0.0
 10
3010.9290975026
 20
33.5097894467
 30
0.0
 10
3010.6040590928
 20
33.5097894467
 30
0.0
 10
3010.4643082789
 20
33.5097894467
 30
0.0
 10
3010.3261276989
 20
33.4433162132
 30
0.0
 10
3010.2567757033
 20
33.3203145605
 30
0.0
 10
3010.2567757033
 20
33.3203145605
 30
0.0
 10
3010.2520650017
 20
33.3203145605
 30
0.0
 10
3010.2520650017
 20
33.3203145605
 30
0.0
 10
3010.2520650017
 20
33.3203145605
 30
0.0
 10
3010.2520650017
 20
34.4603043455
 30
0.0
 10
3010.2520650017
 20
34.4603043455
 30
0.0
 10
3010.2520650017
 20
34.4603043455
 30
0.0
 10
3010.0306620269
 20
34.4603043455
 30
0.0
 10
3010.0306620269
 20
34.4603043455
 30
0.0
  0
LWPOLYLINE
  5
23D
100
AcDbEntity
  8
0
100
AcDbPolyline
 62
7
  6
CONTINUOUS
 90
2
 70
0
 43
0.2
 10
3012.8528956911
 20
33.2679734317
 10
3013.0693262587
 20
33.2679734317
  0
LWPOLYLINE
  5
23E
100
AcDbEntity
  8
0
100
AcDbPolyline
 62
7
  6
CONTINUOUS
 90
2
 70
0
 43
0.2
 10
3013.0693262587
 20
33.2679734317
 10
3013.0693262587
 20
33.4747208904
  0
LWPOLYLINE
  5
23F
100
AcDbEntity
  8
0
100
AcDbPolyline
 62
7
  6
CONTINUOUS
 90
2
 70
0
 43
0.2
 10
3013.0693262587
 20
33.4747208904
 10
3012.8528956911
 20
33.4747208904
  0
LWPOLYLINE
  5
240
100
AcDbEntity
  8
0
100
AcDbPolyline
 62
7
  6
CONTINUOUS
 90
2
 70
0
 43
0.2
 10
3012.8528956911
 20
33.4747208904
 10
3012.8528956911
 20
33.9154331948
  0
LWPOLYLINE
  5
241
100
AcDbEntity
  8
0
100
AcDbPolyline
 62
7
  6
CONTINUOUS
 90
2
 70
0
 43
0.2
 10
3012.8528956911
 20
33.9154331948
 10
3012.6312310107
 20
33.9154331948
  0
LWPOLYLINE
  5
242
100
AcDbEntity
  8
0
100
AcDbPolyline
 62
7
  6
CONTINUOUS
 90
2
 70
0
 43
0.2
 10
3012.6312310107
 20
33.9154331948
 10
3012.6312310107
 20
33.4747208904
  0
LWPOLYLINE
  5
243
100
AcDbEntity
  8
0
100
AcDbPolyline
 62
7
  6
CONTINUOUS
 90
2
 70
0
 43
0.2
 10
3012.6312310107
 20
33.4747208904
 10
3012.5105847089
 20
33.4747208904
  0
LWPOLYLINE
  5
244
100
AcDbEntity
  8
0
100
AcDbPolyline
 62
7
  6
CONTINUOUS
 90
2
 70
0
 43
0.2
 10
3012.5105847089
 20
33.4747208904
 10
3012.5105847089
 20
33.2679734317
  0
LWPOLYLINE
  5
245
100
AcDbEntity
  8
0
100
AcDbPolyline
 62
7
  6
CONTINUOUS
 90
2
 70
0
 43
0.2
 10
3012.5105847089
 20
33.2679734317
 10
3012.6312310107
 20
33.2679734317
  0
LWPOLYLINE
  5
246
100
AcDbEntity
  8
0
100
AcDbPolyline
 62
7
  6
CONTINUOUS
 90
2
 70
0
 43
0.2
 10
3012.6312310107
 20
33.2679734317
 10
3012.6312310107
 20
32.3221692346
  0
LWPOLYLINE
  5
247
100
AcDbEntity
  8
0
100
AcDbPolyline
 62
7
  6
CONTINUOUS
 90
2
 70
0
 43
0.2
 10
3012.6312310107
 20
32.3221692346
 10
3012.8528956911
 20
32.3221692346
  0
LWPOLYLINE
  5
248
100
AcDbEntity
  8
0
100
AcDbPolyline
 62
7
  6
CONTINUOUS
 90
2
 70
0
 43
0.2
 10
3012.8528956911
 20
32.3221692346
 10
3012.8528956911
 20
33.2679734317
  0
SPLINE
  5
249
100
AcDbEntity
  8
0
100
AcDbSpline
 62
7
  6
CONTINUOUS
 70
2
 71
3
 72
20
 73
16
 74
0
 42
0.0000001
 43
0.0000001
 44
0.0000000001
 40
0.0
 40
0.0
 40
0.0
 40
0.0
 40
1.0
 40
1.0
 40
1.0
 40
2.0
 40
2.0
 40
2.0
 40
3.0
 40
3.0
 40
3.0
 40
4.0
 40
4.0
 40
4.0
 40
5.0
 40
5.0
 40
5.0
 40
5.0
 10
3000.6349059984
 20
42.6830956779
 30
0.0
 10
3000.6349059984
 20
42.6830956779
 30
0.0
 10
3002.9512626529
 20
39.8535342557
 30
0.0
 10
3002.9512626529
 20
39.8535342557
 30
0.0
 10
3002.2996155995
 20
39.201363791
 30
0.0
 10
3001.5227423954
 20
38.4654475203
 30
0.0
 10
3000.5515527508
 20
38.4654475203
 30
0.0
 10
2999.5530148664
 20
38.4654475203
 30
0.0
 10
2998.6096968728
 20
39.3950259675
 30
0.0
 10
2998.6096968728
 20
40.3942181161
 30
0.0
 10
2998.6096968728
 20
41.3934102646
 30
0.0
 10
2999.7885499459
 20
42.1000155033
 30
0.0
 10
3000.5100724062
 20
42.5998732832
 30
0.0
 10
3000.5100724062
 20
42.5998732832
 30
0.0
 10
3000.6349059984
 20
42.6830956779
 30
0.0
 10
3000.6349059984
 20
42.6830956779
 30
0.0
  0
SPLINE
  5
24A
100
AcDbEntity
  8
0
100
AcDbSpline
 62
7
  6
CONTINUOUS
 70
2
 71
3
 72
23
 73
19
 74
0
 42
0.0000001
 43
0.0000001
 44
0.0000000001
 40
0.0
 40
0.0
 40
0.0
 40
0.0
 40
1.0
 40
1.0
 40
1.0
 40
2.0
 40
2.0
 40
2.0
 40
3.0
 40
3.0
 40
3.0
 40
4.0
 40
4.0
 40
4.0
 40
5.0
 40
5.0
 40
5.0
 40
6.0
 40
6.0
 40
6.0
 40
6.0
 10
3000.912313981
 20
44.3208495977
 30
0.0
 10
3000.912313981
 20
44.3208495977
 30
0.0
 10
3000.5658157084
 20
44.7641789585
 30
0.0
 10
3000.5658157084
 20
44.7641789585
 30
0.0
 10
3000.2600126634
 20
45.1522884285
 30
0.0
 10
2999.9411243363
 20
45.5407904569
 30
0.0
 10
2999.9411243363
 20
46.067734771
 30
0.0
 10
2999.9411243363
 20
46.7339064876
 30
0.0
 10
3000.4824624608
 20
47.1776284069
 30
0.0
 10
3001.1063687159
 20
47.1776284069
 30
0.0
 10
3001.800150378
 20
47.1776284069
 30
0.0
 10
3002.3273563977
 20
46.7753868322
 30
0.0
 10
3002.3273563977
 20
46.0403865312
 30
0.0
 10
3002.3273563977
 20
45.2771220206
 30
0.0
 10
3001.606095643
 20
44.8470087948
 30
0.0
 10
3001.0790204761
 20
44.4312893794
 30
0.0
 10
3001.0790204761
 20
44.4312893794
 30
0.0
 10
3000.912313981
 20
44.3208495977
 30
0.0
 10
3000.912313981
 20
44.3208495977
 30
0.0
  0
SPLINE
  5
24B
100
AcDbEntity
  8
0
100
AcDbSpline
 62
7
  6
CONTINUOUS
 70
2
 71
3
 72
50
 73
46
 74
0
 42
0.0000001
 43
0.0000001
 44
0.0000000001
 40
0.0
 40
0.0
 40
0.0
 40
0.0
 40
1.0
 40
1.0
 40
1.0
 40
2.0
 40
2.0
 40
2.0
 40
3.0
 40
3.0
 40
3.0
 40
4.0
 40
4.0
 40
4.0
 40
5.0
 40
5.0
 40
5.0
 40
6.0
 40
6.0
 40
6.0
 40
7.0
 40
7.0
 40
7.0
 40
8.0
 40
8.0
 40
8.0
 40
9.0
 40
9.0
 40
9.0
 40
10.0
 40
10.0
 40
10.0
 40
11.0
 40
11.0
 40
11.0
 40
12.0
 40
12.0
 40
12.0
 40
13.0
 40
13.0
 40
13.0
 40
14.0
 40
14.0
 40
14.0
 40
15.0
 40
15.0
 40
15.0
 40
15.0
 10
3004.8659011439
 20
37.5222603795
 30
0.0
 10
3004.8659011439
 20
37.5222603795
 30
0.0
 10
3006.4751291484
 20
37.5222603795
 30
0.0
 10
3006.4751291484
 20
37.5222603795
 30
0.0
 10
3006.4751291484
 20
37.5222603795
 30
0.0
 10
3004.6021018548
 20
39.8394021509
 30
0.0
 10
3004.6021018548
 20
39.8394021509
 30
0.0
 10
3004.6021018548
 20
39.8394021509
 30
0.0
 10
3005.8784402803
 20
41.3368818455
 30
0.0
 10
3005.8784402803
 20
41.3368818455
 30
0.0
 10
3005.8784402803
 20
41.3368818455
 30
0.0
 10
3005.0462163326
 20
42.1978934141
 30
0.0
 10
3005.0462163326
 20
42.1978934141
 30
0.0
 10
3005.0462163326
 20
42.1978934141
 30
0.0
 10
3003.8256212092
 20
40.7825892917
 30
0.0
 10
3003.8256212092
 20
40.7825892917
 30
0.0
 10
3003.8256212092
 20
40.7825892917
 30
0.0
 10
3001.6477068404
 20
43.4179651261
 30
0.0
 10
3001.6477068404
 20
43.4179651261
 30
0.0
 10
3002.5212802799
 20
44.056003486
 30
0.0
 10
3003.547951521
 20
44.8470087948
 30
0.0
 10
3003.547951521
 20
46.0258618679
 30
0.0
 10
3003.547951521
 20
47.3995547929
 30
0.0
 10
3002.4100553812
 20
48.2040379424
 30
0.0
 10
3001.1347637783
 20
48.2040379424
 30
0.0
 10
2999.7613325589
 20
48.2040379424
 30
0.0
 10
2998.7203983602
 20
47.3578127427
 30
0.0
 10
2998.7203983602
 20
45.9151603805
 30
0.0
 10
2998.7203983602
 20
45.0275856891
 30
0.0
 10
2999.2757377366
 20
44.2507124851
 30
0.0
 10
2999.8719031935
 20
43.6262828187
 30
0.0
 10
2999.8719031935
 20
43.6262828187
 30
0.0
 10
2999.2199944344
 20
43.1546892483
 30
0.0
 10
2999.2199944344
 20
43.1546892483
 30
0.0
 10
2998.22145655
 20
42.4334284936
 30
0.0
 10
2997.3885783382
 20
41.7121677389
 30
0.0
 10
2997.3885783382
 20
40.3806094226
 30
0.0
 10
2997.3885783382
 20
38.5769341246
 30
0.0
 10
2998.8456245108
 20
37.3003339935
 30
0.0
 10
3000.5931639482
 20
37.3003339935
 30
0.0
 10
3001.8280220291
 20
37.3003339935
 30
0.0
 10
3002.9373922537
 20
38.008509466
 30
0.0
 10
3003.7282667097
 20
38.9370410907
 30
0.0
 10
3003.7282667097
 20
38.9370410907
 30
0.0
 10
3004.8659011439
 20
37.5222603795
 30
0.0
 10
3004.8659011439
 20
37.5222603795
 30
0.0
  0
LINE
  5
24C
100
AcDbEntity
  8
0
100
AcDbLine
 62
7
  6
CONTINUOUS
 10
2990.6687625189
 20
35.4961352842
 11
3013.0826732465
 21
35.4961352842
  0
LINE
  5
24D
100
AcDbEntity
  8
0
100
AcDbLine
 62
7
  6
CONTINUOUS
 10
3013.0826732465
 20
35.4961352842
 11
3013.0826732465
 21
57.9100460118
  0
LINE
  5
24E
100
AcDbEntity
  8
0
100
AcDbLine
 62
7
  6
CONTINUOUS
 10
3013.0826732465
 20
57.9100460118
 11
2990.6687625189
 21
57.9100460118
  0
LINE
  5
24F
100
AcDbEntity
  8
0
100
AcDbLine
 62
7
  6
CONTINUOUS
 10
2990.6687625189
 20
57.9100460118
 11
2990.6687625189
 21
35.4961352842
  0
ENDBLK
  5
250
100
AcDbEntity
  8
0
  6
BYBLOCK
 62
0
100
AcDbBlockEnd
  0
BLOCK
  5
251
100
AcDbEntity
  8
0
100
AcDbBlockBegin
  2
_CLOSED
 70
64
 10
0.0
 20
0.0
  3
_CLOSED
  1

  0
LINE
  5
252
100
AcDbEntity
  8
0
  6
BYBLOCK
 62
0
100
AcDbLine
 10
0.0
 20
0.0
 11
-1.0
 21
0.2
  0
LINE
  5
253
100
AcDbEntity
  8
0
  6
BYBLOCK
 62
0
100
AcDbLine
 10
-1.0
 20
0.2
 11
-1.0
 21
-0.2
  0
LINE
  5
254
100
AcDbEntity
  8
0
  6
BYBLOCK
 62
0
100
AcDbLine
 10
-1.0
 20
-0.2
 11
0.0
 21
0.0
  0
LINE
  5
255
100
AcDbEntity
  8
0
  6
BYBLOCK
 62
0
100
AcDbLine
 10
-1.0
 20
0.0
 11
0.0
 21
0.0
  0
ENDBLK
  5
256
100
AcDbEntity
  8
0
  6
BYBLOCK
 62
0
100
AcDbBlockEnd
  0
BLOCK
  5
257
100
AcDbEntity
  8
0
100
AcDbBlockBegin
 62
7
  6
CONTINUOUS
  2
*D0
 70
65
 10
0.0
 20
0.0
  3
*D0
  1

  0
MTEXT
  5
258
100
AcDbEntity
  8
0
100
AcDbMText
 62
7
  6
CONTINUOUS
  7
STANDARD
 71
2
 72
1
 10
209.738248118
 20
807.4492769744
 30
0.0
 11
0.0
 21
1.0
 31
0.0
  1
94,8
 40
10.0
 41
27.1747211896
  0
LINE
  5
259
100
AcDbEntity
  8
0
100
AcDbLine
 62
7
  6
CONTINUOUS
 10
253.187967984
 20
760.0492769744
 11
221.488248118
 21
760.0492769744
  0
LINE
  5
25A
100
AcDbEntity
  8
0
100
AcDbLine
 62
7
  6
CONTINUOUS
 10
257.987967984
 20
854.8492769744
 11
221.488248118
 21
854.8492769744
  0
LINE
  5
25B
100
AcDbEntity
  8
0
100
AcDbLine
 62
7
  6
CONTINUOUS
 10
222.238248118
 20
760.0492769744
 11
222.238248118
 21
807.4492769744
  0
LINE
  5
25C
100
AcDbEntity
  8
0
100
AcDbLine
 62
7
  6
CONTINUOUS
 10
222.238248118
 20
854.8492769744
 11
222.238248118
 21
807.4492769744
  0
INSERT
  5
25D
100
AcDbEntity
  8
0
100
AcDbBlockReference
 62
7
  6
CONTINUOUS
  2
_CLOSED
 10
222.238248118
 20
760.0492769744
 41
2.5
 42
2.5
 43
2.5
 50
270.0
  0
INSERT
  5
25E
100
AcDbEntity
  8
0
100
AcDbBlockReference
 62
7
  6
CONTINUOUS
  2
_CLOSED
 10
222.238248118
 20
854.8492769744
 41
2.5
 42
2.5
 43
2.5
 50
90.0
  0
ENDBLK
  5
25F
100
AcDbEntity
  8
0
  6
BYBLOCK
 62
0
100
AcDbBlockEnd
  0
BLOCK
  5
260
100
AcDbEntity
  8
0
100
AcDbBlockBegin
 62
7
  6
CONTINUOUS
  2
*D1
 70
65
 10
0.0
 20
0.0
  3
*D1
  1

  0
MTEXT
  5
261
100
AcDbEntity
  8
0
100
AcDbMText
 62
7
  6
CONTINUOUS
  7
STANDARD
 71
2
 72
1
 10
305.8695773081
 20
735.6996019075
 30
0.0
 11
1.0
 21
0.0
 31
0.0
  1
41,6
 40
10.0
 41
27.1747211896
  0
LINE
  5
262
100
AcDbEntity
  8
0
100
AcDbLine
 62
7
  6
CONTINUOUS
 10
285.0695773081
 20
731.8093022583
 11
285.0695773081
 21
722.4496019075
  0
LINE
  5
263
100
AcDbEntity
  8
0
100
AcDbLine
 62
7
  6
CONTINUOUS
 10
326.6695773081
 20
731.8093022583
 11
326.6695773081
 21
722.4496019075
  0
LINE
  5
264
100
AcDbEntity
  8
0
100
AcDbLine
 62
7
  6
CONTINUOUS
 10
285.0695773081
 20
723.1996019075
 11
305.8695773081
 21
723.1996019075
  0
LINE
  5
265
100
AcDbEntity
  8
0
100
AcDbLine
 62
7
  6
CONTINUOUS
 10
326.6695773081
 20
723.1996019075
 11
305.8695773081
 21
723.1996019075
  0
INSERT
  5
266
100
AcDbEntity
  8
0
100
AcDbBlockReference
 62
7
  6
CONTINUOUS
  2
_CLOSED
 10
285.0695773081
 20
723.1996019075
 41
2.5
 42
2.5
 43
2.5
 50
180.0
  0
INSERT
  5
267
100
AcDbEntity
  8
0
100
AcDbBlockReference
 62
7
  6
CONTINUOUS
  2
_CLOSED
 10
326.6695773081
 20
723.1996019075
 41
2.5
 42
2.5
 43
2.5
  0
ENDBLK
  5
268
100
AcDbEntity
  8
0
  6
BYBLOCK
 62
0
100
AcDbBlockEnd
  0
BLOCK
  5
269
100
AcDbEntity
  8
0
100
AcDbBlockBegin
 62
7
  6
CONTINUOUS
  2
*D2
 70
65
 10
0.0
 20
0.0
  3
*D2
  1

  0
MTEXT
  5
26A
100
AcDbEntity
  8
0
100
AcDbMText
 62
7
  6
CONTINUOUS
  7
STANDARD
 71
2
 72
1
 10
1861.2903225806
 20
710.0562089233
 30
0.0
 11
1.0
 21
0.0
 31
0.0
  1
2247
 40
10.0
 41
31.0780669145
  0
LINE
  5
26B
100
AcDbEntity
  8
0
100
AcDbLine
 62
7
  6
CONTINUOUS
 10
737.7903225806
 20
731.8093022583
 11
737.7903225806
 21
696.8062089233
  0
LINE
  5
26C
100
AcDbEntity
  8
0
100
AcDbLine
 62
7
  6
CONTINUOUS
 10
2984.7903225806
 20
731.8093022583
 11
2984.7903225806
 21
696.8062089233
  0
LINE
  5
26D
100
AcDbEntity
  8
0
100
AcDbLine
 62
7
  6
CONTINUOUS
 10
737.7903225806
 20
697.5562089233
 11
1861.2903225806
 21
697.5562089233
  0
LINE
  5
26E
100
AcDbEntity
  8
0
100
AcDbLine
 62
7
  6
CONTINUOUS
 10
2984.7903225806
 20
697.5562089233
 11
1861.2903225806
 21
697.5562089233
  0
INSERT
  5
26F
100
AcDbEntity
  8
0
100
AcDbBlockReference
 62
7
  6
CONTINUOUS
  2
_CLOSED
 10
737.7903225806
 20
697.5562089233
 41
2.5
 42
2.5
 43
2.5
 50
180.0
  0
INSERT
  5
270
100
AcDbEntity
  8
0
100
AcDbBlockReference
 62
7
  6
CONTINUOUS
  2
_CLOSED
 10
2984.7903225806
 20
697.5562089233
 41
2.5
 42
2.5
 43
2.5
  0
ENDBLK
  5
271
100
AcDbEntity
  8
0
  6
BYBLOCK
 62
0
100
AcDbBlockEnd
  0
BLOCK
  5
272
100
AcDbEntity
  8
0
100
AcDbBlockBegin
 62
7
  6
CONTINUOUS
  2
*D3
 70
65
 10
0.0
 20
0.0
  3
*D3
  1

  0
MTEXT
  5
273
100
AcDbEntity
  8
0
100
AcDbMText
 62
7
  6
CONTINUOUS
  7
STANDARD
 71
2
 72
1
 10
305.8695773081
 20
710.0562089233
 30
0.0
 11
1.0
 21
0.0
 31
0.0
  1
81,31
 40
10.0
 41
34.9442379182
  0
LINE
  5
274
100
AcDbEntity
  8
0
100
AcDbLine
 62
7
  6
CONTINUOUS
 10
265.213280666
 20
739.4034470895
 11
265.213280666
 21
696.8062089233
  0
LINE
  5
275
100
AcDbEntity
  8
0
100
AcDbLine
 62
7
  6
CONTINUOUS
 10
346.5258739502
 20
731.8093022583
 11
346.5258739502
 21
696.8062089233
  0
LINE
  5
276
100
AcDbEntity
  8
0
100
AcDbLine
 62
7
  6
CONTINUOUS
 10
265.213280666
 20
697.5562089233
 11
305.8695773081
 21
697.5562089233
  0
LINE
  5
277
100
AcDbEntity
  8
0
100
AcDbLine
 62
7
  6
CONTINUOUS
 10
346.5258739502
 20
697.5562089233
 11
305.8695773081
 21
697.5562089233
  0
INSERT
  5
278
100
AcDbEntity
  8
0
100
AcDbBlockReference
 62
7
  6
CONTINUOUS
  2
_CLOSED
 10
265.213280666
 20
697.5562089233
 41
2.5
 42
2.5
 43
2.5
 50
180.0
  0
INSERT
  5
279
100
AcDbEntity
  8
0
100
AcDbBlockReference
 62
7
  6
CONTINUOUS
  2
_CLOSED
 10
346.5258739502
 20
697.5562089233
 41
2.5
 42
2.5
 43
2.5
  0
ENDBLK
  5
27A
100
AcDbEntity
  8
0
  6
BYBLOCK
 62
0
100
AcDbBlockEnd
  0
ENDSEC
  0
SECTION
  2
ENTITIES
  0
DIMENSION
  5
27B
100
AcDbEntity
  8
0
100
AcDbDimension
 62
7
  6
CONTINUOUS
  2
*D0
 10
222.238248118
 20
854.8492769744
 11
222.238248118
 21
807.3991077148
 70
160
  3
DIMSTYLE_1
100
AcDbAlignedDimension
 13
253.937967984
 23
760.0492769744
 14
258.737967984
 24
854.8492769744
 50
90.0
100
AcDbRotatedDimension
  0
DIMENSION
  5
27C
100
AcDbEntity
  8
0
100
AcDbDimension
 62
7
  6
CONTINUOUS
  2
*D1
 10
326.6695773081
 20
723.1996019075
 11
305.6149536133
 21
723.1996019075
 70
160
  3
DIMSTYLE_1
100
AcDbAlignedDimension
 13
285.0695773081
 23
732.5593022583
 14
326.6695773081
 24
732.5593022583
100
AcDbRotatedDimension
  0
DIMENSION
  5
27D
100
AcDbEntity
  8
0
100
AcDbDimension
 62
7
  6
CONTINUOUS
  2
*D2
 10
2984.7903225806
 20
697.5562089233
 11
1861.1541015625
 21
697.5562089233
 70
160
  3
DIMSTYLE_2
100
AcDbAlignedDimension
 13
737.7903225806
 23
732.5593022583
 14
2984.7903225806
 24
732.5593022583
100
AcDbRotatedDimension
  0
DIMENSION
  5
27E
100
AcDbEntity
  8
0
100
AcDbDimension
 62
7
  6
CONTINUOUS
  2
*D3
 10
346.5258739502
 20
697.5562089233
 11
304.8446411133
 21
697.5562089233
 70
160
  3
DIMSTYLE_1
100
AcDbAlignedDimension
 13
265.213280666
 23
740.1534470895
 14
346.5258739502
 24
732.5593022583
100
AcDbRotatedDimension
  0
LINE
  5
27F
100
AcDbEntity
  8
0
100
AcDbLine
 62
2
  6
CONTINUOUS
 10
2988.0496054115
 20
58.2863585118
 11
3078.0496054115
 21
58.2863585118
  0
LINE
  5
280
100
AcDbEntity
  8
0
100
AcDbLine
 62
2
  6
CONTINUOUS
 10
2988.0496054115
 20
58.2863585118
 11
2988.0496054115
 21
18.2863585118
  0
LINE
  5
281
100
AcDbEntity
  8
0
100
AcDbLine
 62
2
  6
CONTINUOUS
 10
3018.0496054115
 20
52.2863585118
 11
3078.0496054115
 21
52.2863585118
  0
LINE
  5
282
100
AcDbEntity
  8
0
100
AcDbLine
 62
2
  6
CONTINUOUS
 10
3018.0496054115
 20
46.2863585118
 11
3078.0496054115
 21
46.2863585118
  0
LINE
  5
283
100
AcDbEntity
  8
0
100
AcDbLine
 62
2
  6
CONTINUOUS
 10
3018.0496054115
 20
36.2863585118
 11
3078.0496054115
 21
36.2863585118
  0
LINE
  5
284
100
AcDbEntity
  8
0
100
AcDbLine
 62
2
  6
CONTINUOUS
 10
2988.0496054115
 20
31.2863585118
 11
3078.0496054115
 21
31.2863585118
  0
LINE
  5
285
100
AcDbEntity
  8
0
100
AcDbLine
 62
2
  6
CONTINUOUS
 10
2988.0496054115
 20
18.2863585118
 11
3078.0496054115
 21
18.2863585118
  0
LINE
  5
286
100
AcDbEntity
  8
0
100
AcDbLine
 62
2
  6
CONTINUOUS
 10
3018.0496054115
 20
58.2863585118
 11
3018.0496054115
 21
31.2863585118
  0
LINE
  5
287
100
AcDbEntity
  8
0
100
AcDbLine
 62
2
  6
CONTINUOUS
 10
3058.0496054115
 20
58.2863585118
 11
3058.0496054115
 21
46.2863585118
  0
LINE
  5
288
100
AcDbEntity
  8
0
100
AcDbLine
 62
2
  6
CONTINUOUS
 10
3078.0496054115
 20
58.2863585118
 11
3078.0496054115
 21
18.2863585118
  0
INSERT
  5
289
100
AcDbEntity
  8
0
100
AcDbBlockReference
 62
2
  6
CONTINUOUS
  2
LOGO2_BL0
 10
3001.8756524563
 20
44.7863585118
  0
MTEXT
  5
28A
100
AcDbEntity
  8
9_SOLID
100
AcDbMText
 62
2
  6
CONTINUOUS
  7
TEXTSTYLE_2
 71
1
 72
1
 10
3019.5371054115
 20
56.7863585118
 30
0.0
 11
1.0
 21
0.0
 31
0.0
  1
6F3_C_146
 40
3.0
 41
31.2857142857
  0
MTEXT
  5
28B
100
AcDbEntity
  8
0
100
AcDbMText
 62
2
  6
CONTINUOUS
  7
TEXTSTYLE_2
 71
1
 72
1
 10
3059.5371054115
 20
56.5363585118
 30
0.0
 11
1.0
 21
0.0
 31
0.0
  1
Rev:00
 40
3.5
 41
22.75
  0
MTEXT
  5
28C
100
AcDbEntity
  8
9_SOLID
100
AcDbMText
 62
2
  6
CONTINUOUS
  7
TEXTSTYLE_2
 71
1
 72
1
 10
3019.5371054115
 20
50.5363585118
 30
0.0
 11
1.0
 21
0.0
 31
0.0
  1
Scale:1:1
 40
3.5
 41
28.375
  0
MTEXT
  5
28D
100
AcDbEntity
  8
9_SOLID
100
AcDbMText
 62
2
  6
CONTINUOUS
  7
TEXTSTYLE_2
 71
1
 72
1
 10
3059.5371054115
 20
51.0363585118
 30
0.0
 11
1.0
 21
0.0
 31
0.0
  1
3200 by 2500
 40
3.5
 41
48.5
  0
MTEXT
  5
28E
100
AcDbEntity
  8
0
100
AcDbMText
 62
2
  6
CONTINUOUS
  7
TEXTSTYLE_2
 71
1
 72
1
 10
3019.5371054115
 20
43.0363585118
 30
0.0
 11
1.0
 21
0.0
 31
0.0
  1
CASS. BRENTA 1.9 ARRETRATA NO STANDARD
 40
3.5
 41
159.25
  0
MTEXT
  5
28F
100
AcDbEntity
  8
0
100
AcDbMText
 62
2
  6
CONTINUOUS
  7
TEXTSTYLE_2
 71
1
 72
1
 10
3019.5371054115
 20
35.0363585118
 30
0.0
 11
1.0
 21
0.0
 31
0.0
  1
DATE:08/05/18
 40
2.5
 41
36.875
  0
MTEXT
  5
290
100
AcDbEntity
  8
9_SOLID
100
AcDbMText
 62
2
  6
CONTINUOUS
  7
TEXTSTYLE_2
 71
1
 72
1
 10
2989.5371054115
 20
30.9738585118
 30
0.0
 11
1.0
 21
0.0
 31
0.0
  1
Any integral or partial reproductions are prohibited \Pwithout prior authorisation of L {\Ftxt.shx;\W0.190476;\H2.250000; }& L Luce & Light s.r.l., \Pin accordance with the law in force. \PAll rights reserved.
 40
2.25
 41
134.5982142857
  0
LINE
  5
291
100
AcDbEntity
  8
0
100
AcDbLine
 62
7
  6
CONTINUOUS
 10
0.0
 20
0.0
 11
0.0
 21
2500.0
  0
LINE
  5
292
100
AcDbEntity
  8
0
100
AcDbLine
 62
7
  6
CONTINUOUS
 10
0.0
 20
0.0
 11
3200.0
 21
0.0
  0
LINE
  5
293
100
AcDbEntity
  8
0
100
AcDbLine
 62
7
  6
CONTINUOUS
 10
0.0
 20
2500.0
 11
3200.0
 21
2500.0
  0
LINE
  5
294
100
AcDbEntity
  8
0
100
AcDbLine
 62
7
  6
CONTINUOUS
 10
3200.0
 20
0.0
 11
3200.0
 21
2500.0
  0
LINE
  5
295
100
AcDbEntity
  8
6_ALL_SURFS
100
AcDbLine
 62
7
  6
CONTINUOUS
 10
267.5195773081
 20
762.6992769744
 11
267.8195773081
 21
762.5492769744
  0
LINE
  5
296
100
AcDbEntity
  8
6_ALL_SURFS
100
AcDbLine
 62
7
  6
CONTINUOUS
 10
270.5195773081
 20
762.6992769744
 11
270.8195773081
 21
762.5492769744
  0
LINE
  5
297
100
AcDbEntity
  8
6_ALL_SURFS
100
AcDbLine
 62
7
  6
CONTINUOUS
 10
273.5195773081
 20
762.6992769744
 11
273.8195773081
 21
762.5492769744
  0
LINE
  5
298
100
AcDbEntity
  8
6_ALL_SURFS
100
AcDbLine
 62
7
  6
CONTINUOUS
 10
276.5195773081
 20
762.6992769744
 11
276.8195773081
 21
762.5492769744
  0
LINE
  5
299
100
AcDbEntity
  8
6_ALL_SURFS
100
AcDbLine
 62
7
  6
CONTINUOUS
 10
279.5195773081
 20
762.6992769744
 11
279.8195773081
 21
762.5492769744
  0
LINE
  5
29A
100
AcDbEntity
  8
6_ALL_SURFS
100
AcDbLine
 62
7
  6
CONTINUOUS
 10
282.5195773081
 20
762.6992769744
 11
282.8195773081
 21
762.5492769744
  0
LINE
  5
29B
100
AcDbEntity
  8
7_ALL_FEATURES
100
AcDbLine
 62
7
  6
CONTINUOUS
 10
344.4195773081
 20
761.5492769744
 11
346.5650488985
 21
761.7638241335
  0
LINE
  5
29C
100
AcDbEntity
  8
6_ALL_SURFS
100
AcDbLine
 62
7
  6
CONTINUOUS
 10
286.0195773081
 20
760.0492769744
 11
285.3695773081
 21
760.0492769744
  0
LINE
  5
29D
100
AcDbEntity
  8
7_ALL_FEATURES
100
AcDbLine
 62
7
  6
CONTINUOUS
 10
325.7195773081
 20
760.0492769744
 11
326.3695773081
 21
760.0492769744
  0
LINE
  5
29E
100
AcDbEntity
  8
6_ALL_SURFS
100
AcDbLine
 62
7
  6
CONTINUOUS
 10
284.7695773081
 20
761.5492769744
 11
282.8195773081
 21
761.5492769744
  0
LINE
  5
29F
100
AcDbEntity
  8
6_ALL_SURFS
100
AcDbLine
 62
7
  6
CONTINUOUS
 10
282.2195773081
 20
761.5492769744
 11
279.8195773081
 21
761.5492769744
  0
LINE
  5
2A0
100
AcDbEntity
  8
6_ALL_SURFS
100
AcDbLine
 62
7
  6
CONTINUOUS
 10
279.2195773081
 20
761.5492769744
 11
276.8195773081
 21
761.5492769744
  0
LINE
  5
2A1
100
AcDbEntity
  8
6_ALL_SURFS
100
AcDbLine
 62
7
  6
CONTINUOUS
 10
276.2195773081
 20
761.5492769744
 11
273.8195773081
 21
761.5492769744
  0
LINE
  5
2A2
100
AcDbEntity
  8
6_ALL_SURFS
100
AcDbLine
 62
7
  6
CONTINUOUS
 10
273.2195773081
 20
761.5492769744
 11
270.8195773081
 21
761.5492769744
  0
LINE
  5
2A3
100
AcDbEntity
  8
6_ALL_SURFS
100
AcDbLine
 62
7
  6
CONTINUOUS
 10
270.2195773081
 20
761.5492769744
 11
267.3195773081
 21
761.5492769744
  0
LINE
  5
2A4
100
AcDbEntity
  8
7_ALL_FEATURES
100
AcDbLine
 62
7
  6
CONTINUOUS
 10
329.5195773081
 20
761.5492769744
 11
331.9195773081
 21
761.5492769744
  0
LINE
  5
2A5
100
AcDbEntity
  8
7_ALL_FEATURES
100
AcDbLine
 62
7
  6
CONTINUOUS
 10
326.9695773081
 20
761.5492769744
 11
328.9195773081
 21
761.5492769744
  0
LINE
  5
2A6
100
AcDbEntity
  8
7_ALL_FEATURES
100
AcDbLine
 62
7
  6
CONTINUOUS
 10
332.5195773081
 20
761.5492769744
 11
334.9195773081
 21
761.5492769744
  0
LINE
  5
2A7
100
AcDbEntity
  8
7_ALL_FEATURES
100
AcDbLine
 62
7
  6
CONTINUOUS
 10
335.5195773081
 20
761.5492769744
 11
337.9195773081
 21
761.5492769744
  0
LINE
  5
2A8
100
AcDbEntity
  8
7_ALL_FEATURES
100
AcDbLine
 62
7
  6
CONTINUOUS
 10
338.5195773081
 20
761.5492769744
 11
340.9195773081
 21
761.5492769744
  0
LINE
  5
2A9
100
AcDbEntity
  8
7_ALL_FEATURES
100
AcDbLine
 62
7
  6
CONTINUOUS
 10
341.5195773081
 20
761.5492769744
 11
344.4195773081
 21
761.5492769744
  0
LINE
  5
2AA
100
AcDbEntity
  8
6_ALL_SURFS
100
AcDbLine
 62
7
  6
CONTINUOUS
 10
267.3195773081
 20
761.5492769744
 11
265.1741057177
 21
761.7638241335
  0
LINE
  5
2AB
100
AcDbEntity
  8
7_ALL_FEATURES
100
AcDbLine
 62
7
  6
CONTINUOUS
 10
346.5258739502
 20
762.5492769744
 11
344.5195773081
 21
762.5492769744
  0
LINE
  5
2AC
100
AcDbEntity
  8
7_ALL_FEATURES
100
AcDbLine
 62
7
  6
CONTINUOUS
 10
343.9195773081
 20
762.5492769744
 11
341.5195773081
 21
762.5492769744
  0
LINE
  5
2AD
100
AcDbEntity
  8
7_ALL_FEATURES
100
AcDbLine
 62
7
  6
CONTINUOUS
 10
340.9195773081
 20
762.5492769744
 11
338.5195773081
 21
762.5492769744
  0
LINE
  5
2AE
100
AcDbEntity
  8
7_ALL_FEATURES
100
AcDbLine
 62
7
  6
CONTINUOUS
 10
337.9195773081
 20
762.5492769744
 11
335.5195773081
 21
762.5492769744
  0
LINE
  5
2AF
100
AcDbEntity
  8
7_ALL_FEATURES
100
AcDbLine
 62
7
  6
CONTINUOUS
 10
334.9195773081
 20
762.5492769744
 11
332.5195773081
 21
762.5492769744
  0
LINE
  5
2B0
100
AcDbEntity
  8
7_ALL_FEATURES
100
AcDbLine
 62
7
  6
CONTINUOUS
 10
328.9195773081
 20
762.5492769744
 11
327.2195773081
 21
762.5492769744
  0
LINE
  5
2B1
100
AcDbEntity
  8
7_ALL_FEATURES
100
AcDbLine
 62
7
  6
CONTINUOUS
 10
331.9195773081
 20
762.5492769744
 11
329.5195773081
 21
762.5492769744
  0
LINE
  5
2B2
100
AcDbEntity
  8
6_ALL_SURFS
100
AcDbLine
 62
7
  6
CONTINUOUS
 10
265.213280666
 20
762.5492769744
 11
267.2195773081
 21
762.5492769744
  0
LINE
  5
2B3
100
AcDbEntity
  8
6_ALL_SURFS
100
AcDbLine
 62
7
  6
CONTINUOUS
 10
267.8195773081
 20
762.5492769744
 11
270.2195773081
 21
762.5492769744
  0
LINE
  5
2B4
100
AcDbEntity
  8
6_ALL_SURFS
100
AcDbLine
 62
7
  6
CONTINUOUS
 10
270.8195773081
 20
762.5492769744
 11
273.2195773081
 21
762.5492769744
  0
LINE
  5
2B5
100
AcDbEntity
  8
6_ALL_SURFS
100
AcDbLine
 62
7
  6
CONTINUOUS
 10
273.8195773081
 20
762.5492769744
 11
276.2195773081
 21
762.5492769744
  0
LINE
  5
2B6
100
AcDbEntity
  8
6_ALL_SURFS
100
AcDbLine
 62
7
  6
CONTINUOUS
 10
276.8195773081
 20
762.5492769744
 11
279.2195773081
 21
762.5492769744
  0
LINE
  5
2B7
100
AcDbEntity
  8
6_ALL_SURFS
100
AcDbLine
 62
7
  6
CONTINUOUS
 10
279.8195773081
 20
762.5492769744
 11
282.2195773081
 21
762.5492769744
  0
LINE
  5
2B8
100
AcDbEntity
  8
6_ALL_SURFS
100
AcDbLine
 62
7
  6
CONTINUOUS
 10
282.8195773081
 20
762.5492769744
 11
284.5195773081
 21
762.5492769744
  0
LINE
  5
2B9
100
AcDbEntity
  8
7_ALL_FEATURES
100
AcDbLine
 62
7
  6
CONTINUOUS
 10
304.3695773081
 20
852.8992769744
 11
304.1695773081
 21
852.6992769744
  0
LINE
  5
2BA
100
AcDbEntity
  8
6_ALL_SURFS
100
AcDbLine
 62
7
  6
CONTINUOUS
 10
294.6553889904
 20
853.0103427333
 11
295.6304956291
 21
854.6992769744
  0
LINE
  5
2BB
100
AcDbEntity
  8
7_ALL_FEATURES
100
AcDbLine
 62
7
  6
CONTINUOUS
 10
286.7195773081
 20
775.0492769744
 11
325.0195773081
 21
775.0492769744
  0
LINE
  5
2BC
100
AcDbEntity
  8
7_ALL_FEATURES
100
AcDbLine
 62
7
  6
CONTINUOUS
 10
325.0195773081
 20
776.0492769744
 11
324.1695773081
 21
776.0492769744
  0
LINE
  5
2BD
100
AcDbEntity
  8
7_ALL_FEATURES
100
AcDbLine
 62
7
  6
CONTINUOUS
 10
287.5695773081
 20
776.0492769744
 11
286.7195773081
 21
776.0492769744
  0
LINE
  5
2BE
100
AcDbEntity
  8
7_ALL_FEATURES
100
AcDbLine
 62
7
  6
CONTINUOUS
 10
322.9695773081
 20
776.1492769744
 11
288.7695773081
 21
776.1492769744
  0
LINE
  5
2BF
100
AcDbEntity
  8
7_ALL_FEATURES
100
AcDbLine
 62
7
  6
CONTINUOUS
 10
325.1195773081
 20
777.5492769744
 11
324.4055822608
 21
777.5492769744
  0
LINE
  5
2C0
100
AcDbEntity
  8
6_ALL_SURFS
100
AcDbLine
 62
7
  6
CONTINUOUS
 10
286.6195773081
 20
777.5492769744
 11
287.3335723555
 21
777.5492769744
  0
LINE
  5
2C1
100
AcDbEntity
  8
7_ALL_FEATURES
100
AcDbLine
 62
7
  6
CONTINUOUS
 10
329.5195773081
 20
762.5492769744
 11
329.2195773081
 21
762.6992769744
  0
LINE
  5
2C2
100
AcDbEntity
  8
6_ALL_SURFS
100
AcDbLine
 62
7
  6
CONTINUOUS
 10
289.1695773081
 20
780.7992769744
 11
288.3500210206
 21
780.7992769744
  0
LINE
  5
2C3
100
AcDbEntity
  8
7_ALL_FEATURES
100
AcDbLine
 62
7
  6
CONTINUOUS
 10
322.5695773081
 20
780.7992769744
 11
323.3891335956
 21
780.7992769744
  0
LINE
  5
2C4
100
AcDbEntity
  8
7_ALL_FEATURES
100
AcDbLine
 62
7
  6
CONTINUOUS
 10
332.5195773081
 20
762.5492769744
 11
332.2195773081
 21
762.6992769744
  0
LINE
  5
2C5
100
AcDbEntity
  8
7_ALL_FEATURES
100
AcDbLine
 62
7
  6
CONTINUOUS
 10
335.5195773081
 20
762.5492769744
 11
335.2195773081
 21
762.6992769744
  0
LINE
  5
2C6
100
AcDbEntity
  8
7_ALL_FEATURES
100
AcDbLine
 62
7
  6
CONTINUOUS
 10
338.5195773081
 20
762.5492769744
 11
338.2195773081
 21
762.6992769744
  0
LINE
  5
2C7
100
AcDbEntity
  8
6_ALL_SURFS
100
AcDbLine
 62
7
  6
CONTINUOUS
 10
288.930643067
 20
785.2634652921
 11
289.3195773081
 21
785.0389140033
  0
LINE
  5
2C8
100
AcDbEntity
  8
6_ALL_SURFS
100
AcDbLine
 62
7
  6
CONTINUOUS
 10
284.6695773081
 20
785.1492769744
 11
284.6695773081
 21
786.9492769744
  0
LINE
  5
2C9
100
AcDbEntity
  8
6_ALL_SURFS
100
AcDbLine
 62
7
  6
CONTINUOUS
 10
284.8195773081
 20
762.8492769744
 11
284.8195773081
 21
772.046209139
  0
LINE
  5
2CA
100
AcDbEntity
  8
6_ALL_SURFS
100
AcDbLine
 62
7
  6
CONTINUOUS
 10
284.8195773081
 20
776.0561966702
 11
284.8195773081
 21
778.7617764254
  0
LINE
  5
2CB
100
AcDbEntity
  8
6_ALL_SURFS
100
AcDbLine
 62
7
  6
CONTINUOUS
 10
285.0695773081
 20
760.3492769744
 11
285.0695773081
 21
761.2492769744
  0
LINE
  5
2CC
100
AcDbEntity
  8
6_ALL_SURFS
100
AcDbLine
 62
7
  6
CONTINUOUS
 10
287.9880972725
 20
835.0769889734
 11
291.0933626898
 21
849.0839360973
  0
LINE
  5
2CD
100
AcDbEntity
  8
6_ALL_SURFS
100
AcDbLine
 62
7
  6
CONTINUOUS
 10
292.2958661527
 20
847.1157165884
 11
289.5163527633
 21
834.5781419069
  0
LINE
  5
2CE
100
AcDbEntity
  8
6_ALL_SURFS
100
AcDbLine
 62
7
  6
CONTINUOUS
 10
289.8849408941
 20
833.8346148269
 11
289.5298846873
 21
832.8591059163
  0
LINE
  5
2CF
100
AcDbEntity
  8
6_ALL_SURFS
100
AcDbLine
 62
7
  6
CONTINUOUS
 10
287.4195773081
 20
783.1492769744
 11
286.6695773081
 21
783.1492769744
  0
LINE
  5
2D0
100
AcDbEntity
  8
7_ALL_FEATURES
100
AcDbLine
 62
7
  6
CONTINUOUS
 10
324.3195773081
 20
783.1492769744
 11
325.0695773081
 21
783.1492769744
  0
LINE
  5
2D1
100
AcDbEntity
  8
7_ALL_FEATURES
100
AcDbLine
 62
7
  6
CONTINUOUS
 10
341.5195773081
 20
762.5492769744
 11
341.2195773081
 21
762.6992769744
  0
LINE
  5
2D2
100
AcDbEntity
  8
7_ALL_FEATURES
100
AcDbLine
 62
7
  6
CONTINUOUS
 10
344.5195773081
 20
762.5492769744
 11
344.2195773081
 21
762.6992769744
  0
LINE
  5
2D3
100
AcDbEntity
  8
6_ALL_SURFS
100
AcDbLine
 62
7
  6
CONTINUOUS
 10
286.3195773081
 20
778.6436032827
 11
286.3195773081
 21
777.8492769744
  0
LINE
  5
2D4
100
AcDbEntity
  8
6_ALL_SURFS
100
AcDbLine
 62
7
  6
CONTINUOUS
 10
286.3195773081
 20
775.5974406968
 11
286.3195773081
 21
774.9343789912
  0
LINE
  5
2D5
100
AcDbEntity
  8
6_ALL_SURFS
100
AcDbLine
 62
7
  6
CONTINUOUS
 10
286.3195773081
 20
773.1680268179
 11
286.3195773081
 21
760.3492769744
  0
LINE
  5
2D6
100
AcDbEntity
  8
7_ALL_FEATURES
100
AcDbLine
 62
7
  6
CONTINUOUS
 10
286.5195773081
 20
775.8492769744
 11
286.5195773081
 21
775.2492769744
  0
LINE
  5
2D7
100
AcDbEntity
  8
6_ALL_SURFS
100
AcDbLine
 62
7
  6
CONTINUOUS
 10
287.7195773081
 20
782.5806845405
 11
287.7195773081
 21
782.8492769744
  0
LINE
  5
2D8
100
AcDbEntity
  8
7_ALL_FEATURES
100
AcDbLine
 62
7
  6
CONTINUOUS
 10
287.7695773081
 20
776.8692769744
 11
287.7695773081
 21
776.2492769744
  0
LINE
  5
2D9
100
AcDbEntity
  8
6_ALL_SURFS
100
AcDbLine
 62
7
  6
CONTINUOUS
 10
287.8695773081
 20
789.2492769744
 11
287.8695773081
 21
833.9947909037
  0
LINE
  5
2DA
100
AcDbEntity
  8
7_ALL_FEATURES
100
AcDbLine
 62
7
  6
CONTINUOUS
 10
288.5695773081
 20
776.3492769744
 11
288.5695773081
 21
776.8692769744
  0
LINE
  5
2DB
100
AcDbEntity
  8
6_ALL_SURFS
100
AcDbLine
 62
7
  6
CONTINUOUS
 10
289.4695773081
 20
832.517085773
 11
289.4695773081
 21
787.3194475666
  0
LINE
  5
2DC
100
AcDbEntity
  8
6_ALL_SURFS
100
AcDbLine
 62
7
  6
CONTINUOUS
 10
289.4695773081
 20
784.7791063822
 11
289.4695773081
 21
781.0992769744
  0
LINE
  5
2DD
100
AcDbEntity
  8
7_ALL_FEATURES
100
AcDbLine
 62
7
  6
CONTINUOUS
 10
325.0695773081
 20
788.9492769744
 11
324.1695773081
 21
788.9492769744
  0
LINE
  5
2DE
100
AcDbEntity
  8
6_ALL_SURFS
100
AcDbLine
 62
7
  6
CONTINUOUS
 10
286.6695773081
 20
788.9492769744
 11
287.5695773081
 21
788.9492769744
  0
LINE
  5
2DF
100
AcDbEntity
  8
6_ALL_SURFS
100
AcDbLine
 62
7
  6
CONTINUOUS
 10
289.8695773081
 20
853.8492769744
 11
289.8695773081
 21
854.5492769744
  0
LINE
  5
2E0
100
AcDbEntity
  8
7_ALL_FEATURES
100
AcDbLine
 62
7
  6
CONTINUOUS
 10
322.0842617774
 20
834.255962145
 11
321.9817727818
 21
834.1944687476
  0
LINE
  5
2E1
100
AcDbEntity
  8
6_ALL_SURFS
100
AcDbLine
 62
7
  6
CONTINUOUS
 10
296.6695773081
 20
854.5492769744
 11
296.6695773081
 21
851.6492769744
  0
LINE
  5
2E2
100
AcDbEntity
  8
7_ALL_FEATURES
100
AcDbLine
 62
7
  6
CONTINUOUS
 10
319.6304956291
 20
854.6992769744
 11
318.6553889904
 21
853.0103427333
  0
LINE
  5
2E3
100
AcDbEntity
  8
7_ALL_FEATURES
100
AcDbLine
 62
7
  6
CONTINUOUS
 10
322.4195773081
 20
787.0596399455
 11
322.8085115492
 21
786.8350886567
  0
LINE
  5
2E4
100
AcDbEntity
  8
7_ALL_FEATURES
100
AcDbLine
 62
7
  6
CONTINUOUS
 10
298.3695773081
 20
847.8992769744
 11
298.3695773081
 21
846.8992769744
  0
LINE
  5
2E5
100
AcDbEntity
  8
7_ALL_FEATURES
100
AcDbLine
 62
7
  6
CONTINUOUS
 10
301.8695773081
 20
844.8710737441
 11
301.8695773081
 21
846.8992769744
  0
LINE
  5
2E6
100
AcDbEntity
  8
7_ALL_FEATURES
100
AcDbLine
 62
7
  6
CONTINUOUS
 10
323.6662474379
 20
779.0764776304
 11
324.0306752511
 21
778.6856766465
  0
LINE
  5
2E7
100
AcDbEntity
  8
7_ALL_FEATURES
100
AcDbLine
 62
7
  6
CONTINUOUS
 10
324.6157582124
 20
779.2312753345
 11
324.2513303992
 21
779.6220763184
  0
LINE
  5
2E8
100
AcDbEntity
  8
7_ALL_FEATURES
100
AcDbLine
 62
7
  6
CONTINUOUS
 10
323.6085397061
 20
780.7038764824
 11
325.3389834186
 21
778.8482027907
  0
LINE
  5
2E9
100
AcDbEntity
  8
7_ALL_FEATURES
100
AcDbLine
 62
7
  6
CONTINUOUS
 10
326.5166078605
 20
779.7847739655
 11
324.1001711976
 21
782.3760850325
  0
LINE
  5
2EA
100
AcDbEntity
  8
7_ALL_FEATURES
100
AcDbLine
 62
7
  6
CONTINUOUS
 10
324.2469115927
 20
777.2275246886
 11
325.3575833102
 21
775.7800691255
  0
LINE
  5
2EB
100
AcDbEntity
  8
6_ALL_SURFS
100
AcDbLine
 62
7
  6
CONTINUOUS
 10
302.2695773081
 20
849.7992769744
 11
302.2695773081
 21
853.0492769744
  0
LINE
  5
2EC
100
AcDbEntity
  8
7_ALL_FEATURES
100
AcDbLine
 62
7
  6
CONTINUOUS
 10
303.8695773081
 20
844.053310282
 11
303.8695773081
 21
844.0694645575
  0
LINE
  5
2ED
100
AcDbEntity
  8
6_ALL_SURFS
100
AcDbLine
 62
7
  6
CONTINUOUS
 10
304.1695773081
 20
852.9492769744
 11
304.1695773081
 21
848.1992769744
  0
LINE
  5
2EE
100
AcDbEntity
  8
7_ALL_FEATURES
100
AcDbLine
 62
7
  6
CONTINUOUS
 10
305.3695773081
 20
843.8305882492
 11
305.3695773081
 21
844.0694645575
  0
LINE
  5
2EF
100
AcDbEntity
  8
7_ALL_FEATURES
100
AcDbLine
 62
7
  6
CONTINUOUS
 10
306.3695773081
 20
844.0694645575
 11
306.3695773081
 21
843.8305882492
  0
LINE
  5
2F0
100
AcDbEntity
  8
7_ALL_FEATURES
100
AcDbLine
 62
7
  6
CONTINUOUS
 10
307.5695773081
 20
852.9492769744
 11
307.5695773081
 21
848.1992769744
  0
LINE
  5
2F1
100
AcDbEntity
  8
7_ALL_FEATURES
100
AcDbLine
 62
7
  6
CONTINUOUS
 10
307.8695773081
 20
844.0694645575
 11
307.8695773081
 21
844.053310282
  0
LINE
  5
2F2
100
AcDbEntity
  8
7_ALL_FEATURES
100
AcDbLine
 62
7
  6
CONTINUOUS
 10
309.4695773081
 20
849.7992769744
 11
309.4695773081
 21
853.0492769744
  0
LINE
  5
2F3
100
AcDbEntity
  8
7_ALL_FEATURES
100
AcDbLine
 62
7
  6
CONTINUOUS
 10
309.8695773081
 20
844.8710737441
 11
309.8695773081
 21
846.8992769744
  0
LINE
  5
2F4
100
AcDbEntity
  8
6_ALL_SURFS
100
AcDbLine
 62
7
  6
CONTINUOUS
 10
287.4922430235
 20
777.2275246886
 11
286.381571306
 21
775.7800691255
  0
LINE
  5
2F5
100
AcDbEntity
  8
6_ALL_SURFS
100
AcDbLine
 62
7
  6
CONTINUOUS
 10
285.2225467557
 20
779.7847739655
 11
287.6389834186
 21
782.3760850325
  0
LINE
  5
2F6
100
AcDbEntity
  8
7_ALL_FEATURES
100
AcDbLine
 62
7
  6
CONTINUOUS
 10
313.3695773081
 20
846.8992769744
 11
313.3695773081
 21
847.8992769744
  0
LINE
  5
2F7
100
AcDbEntity
  8
6_ALL_SURFS
100
AcDbLine
 62
7
  6
CONTINUOUS
 10
288.1306149101
 20
780.7038764824
 11
286.4001711976
 21
778.8482027907
  0
LINE
  5
2F8
100
AcDbEntity
  8
7_ALL_FEATURES
100
AcDbLine
 62
7
  6
CONTINUOUS
 10
287.487824217
 20
779.6220763185
 11
287.1233964038
 21
779.2312753345
  0
LINE
  5
2F9
100
AcDbEntity
  8
7_ALL_FEATURES
100
AcDbLine
 62
7
  6
CONTINUOUS
 10
287.7084793651
 20
778.6856766465
 11
288.0729071783
 21
779.0764776304
  0
LINE
  5
2FA
100
AcDbEntity
  8
7_ALL_FEATURES
100
AcDbLine
 62
7
  6
CONTINUOUS
 10
315.0695773081
 20
854.5492769744
 11
315.0695773081
 21
851.6492769744
  0
LINE
  5
2FB
100
AcDbEntity
  8
6_ALL_SURFS
100
AcDbLine
 62
7
  6
CONTINUOUS
 10
289.3195773081
 20
787.0596399455
 11
288.930643067
 21
786.8350886567
  0
LINE
  5
2FC
100
AcDbEntity
  8
6_ALL_SURFS
100
AcDbLine
 62
7
  6
CONTINUOUS
 10
292.1086589871
 20
854.6992769744
 11
293.0837656258
 21
853.0103427333
  0
LINE
  5
2FD
100
AcDbEntity
  8
7_ALL_FEATURES
100
AcDbLine
 62
7
  6
CONTINUOUS
 10
321.8695773081
 20
853.8492769744
 11
321.8695773081
 21
854.5492769744
  0
LINE
  5
2FE
100
AcDbEntity
  8
7_ALL_FEATURES
100
AcDbLine
 62
7
  6
CONTINUOUS
 10
322.2695773081
 20
832.517085773
 11
322.2695773081
 21
787.3194475666
  0
LINE
  5
2FF
100
AcDbEntity
  8
7_ALL_FEATURES
100
AcDbLine
 62
7
  6
CONTINUOUS
 10
322.2695773081
 20
784.7791063822
 11
322.2695773081
 21
781.0992769744
  0
LINE
  5
300
100
AcDbEntity
  8
6_ALL_SURFS
100
AcDbLine
 62
7
  6
CONTINUOUS
 10
289.6548928388
 20
834.255962145
 11
289.7573818344
 21
834.1944687476
  0
LINE
  5
301
100
AcDbEntity
  8
7_ALL_FEATURES
100
AcDbLine
 62
7
  6
CONTINUOUS
 10
323.1695773081
 20
776.8692769744
 11
323.1695773081
 21
776.3492769744
  0
LINE
  5
302
100
AcDbEntity
  8
7_ALL_FEATURES
100
AcDbLine
 62
7
  6
CONTINUOUS
 10
323.8695773081
 20
789.2492769744
 11
323.8695773081
 21
833.9947909037
  0
LINE
  5
303
100
AcDbEntity
  8
7_ALL_FEATURES
100
AcDbLine
 62
7
  6
CONTINUOUS
 10
323.9695773081
 20
776.2492769744
 11
323.9695773081
 21
776.8692769744
  0
LINE
  5
304
100
AcDbEntity
  8
7_ALL_FEATURES
100
AcDbLine
 62
7
  6
CONTINUOUS
 10
324.0195773081
 20
782.5806845405
 11
324.0195773081
 21
782.8492769744
  0
LINE
  5
305
100
AcDbEntity
  8
7_ALL_FEATURES
100
AcDbLine
 62
7
  6
CONTINUOUS
 10
325.2195773081
 20
775.2492769744
 11
325.2195773081
 21
775.8492769744
  0
LINE
  5
306
100
AcDbEntity
  8
7_ALL_FEATURES
100
AcDbLine
 62
7
  6
CONTINUOUS
 10
325.4195773081
 20
778.6436032827
 11
325.4195773081
 21
777.8492769744
  0
LINE
  5
307
100
AcDbEntity
  8
7_ALL_FEATURES
100
AcDbLine
 62
7
  6
CONTINUOUS
 10
325.4195773081
 20
775.5974406968
 11
325.4195773081
 21
774.9343789912
  0
LINE
  5
308
100
AcDbEntity
  8
7_ALL_FEATURES
100
AcDbLine
 62
7
  6
CONTINUOUS
 10
325.4195773081
 20
773.1680268179
 11
325.4195773081
 21
760.3492769744
  0
LINE
  5
309
100
AcDbEntity
  8
7_ALL_FEATURES
100
AcDbLine
 62
7
  6
CONTINUOUS
 10
326.6695773081
 20
760.3492769744
 11
326.6695773081
 21
761.2492769744
  0
LINE
  5
30A
100
AcDbEntity
  8
7_ALL_FEATURES
100
AcDbLine
 62
7
  6
CONTINUOUS
 10
326.9195773081
 20
762.8492769744
 11
326.9195773081
 21
772.046209139
  0
LINE
  5
30B
100
AcDbEntity
  8
7_ALL_FEATURES
100
AcDbLine
 62
7
  6
CONTINUOUS
 10
326.9195773081
 20
776.0561966702
 11
326.9195773081
 21
778.7617764254
  0
LINE
  5
30C
100
AcDbEntity
  8
7_ALL_FEATURES
100
AcDbLine
 62
7
  6
CONTINUOUS
 10
327.0695773081
 20
785.1492769744
 11
327.0695773081
 21
786.9492769744
  0
LINE
  5
30D
100
AcDbEntity
  8
6_ALL_SURFS
100
AcDbLine
 62
7
  6
CONTINUOUS
 10
267.2195773081
 20
762.5492769744
 11
267.5195773081
 21
762.6992769744
  0
LINE
  5
30E
100
AcDbEntity
  8
6_ALL_SURFS
100
AcDbLine
 62
7
  6
CONTINUOUS
 10
270.2195773081
 20
762.5492769744
 11
270.5195773081
 21
762.6992769744
  0
LINE
  5
30F
100
AcDbEntity
  8
6_ALL_SURFS
100
AcDbLine
 62
7
  6
CONTINUOUS
 10
273.2195773081
 20
762.5492769744
 11
273.5195773081
 21
762.6992769744
  0
LINE
  5
310
100
AcDbEntity
  8
7_ALL_FEATURES
100
AcDbLine
 62
7
  6
CONTINUOUS
 10
321.8542137222
 20
833.8346148269
 11
322.2092699289
 21
832.8591059163
  0
LINE
  5
311
100
AcDbEntity
  8
7_ALL_FEATURES
100
AcDbLine
 62
7
  6
CONTINUOUS
 10
319.4432884636
 20
847.1157165884
 11
322.2228018529
 21
834.5781419069
  0
LINE
  5
312
100
AcDbEntity
  8
7_ALL_FEATURES
100
AcDbLine
 62
7
  6
CONTINUOUS
 10
323.7510573437
 20
835.0769889734
 11
320.6457919264
 21
849.0839360973
  0
LINE
  5
313
100
AcDbEntity
  8
7_ALL_FEATURES
100
AcDbLine
 62
7
  6
CONTINUOUS
 10
322.8085115492
 20
785.2634652921
 11
322.4195773081
 21
785.0389140033
  0
LINE
  5
314
100
AcDbEntity
  8
6_ALL_SURFS
100
AcDbLine
 62
7
  6
CONTINUOUS
 10
276.2195773081
 20
762.5492769744
 11
276.5195773081
 21
762.6992769744
  0
LINE
  5
315
100
AcDbEntity
  8
6_ALL_SURFS
100
AcDbLine
 62
7
  6
CONTINUOUS
 10
279.2195773081
 20
762.5492769744
 11
279.5195773081
 21
762.6992769744
  0
LINE
  5
316
100
AcDbEntity
  8
6_ALL_SURFS
100
AcDbLine
 62
7
  6
CONTINUOUS
 10
282.2195773081
 20
762.5492769744
 11
282.5195773081
 21
762.6992769744
  0
LINE
  5
317
100
AcDbEntity
  8
7_ALL_FEATURES
100
AcDbLine
 62
7
  6
CONTINUOUS
 10
307.3695773081
 20
852.8992769744
 11
307.5695773081
 21
852.6992769744
  0
LINE
  5
318
100
AcDbEntity
  8
7_ALL_FEATURES
100
AcDbLine
 62
7
  6
CONTINUOUS
 10
317.0837656258
 20
853.0103427333
 11
316.1086589871
 21
854.6992769744
  0
LINE
  5
319
100
AcDbEntity
  8
7_ALL_FEATURES
100
AcDbLine
 62
7
  6
CONTINUOUS
 10
309.8695773081
 20
844.8710737441
 11
301.8695773081
 21
844.8710737441
  0
LINE
  5
31A
100
AcDbEntity
  8
7_ALL_FEATURES
100
AcDbLine
 62
7
  6
CONTINUOUS
 10
298.3695773081
 20
846.8992769744
 11
313.3695773081
 21
846.8992769744
  0
LINE
  5
31B
100
AcDbEntity
  8
6_ALL_SURFS
100
AcDbLine
 62
7
  6
CONTINUOUS
 10
303.8695773081
 20
847.8992769744
 11
293.2721621598
 21
847.8992769744
  0
LINE
  5
31C
100
AcDbEntity
  8
7_ALL_FEATURES
100
AcDbLine
 62
7
  6
CONTINUOUS
 10
303.8695773081
 20
847.8992769744
 11
318.4669924564
 21
847.8992769744
  0
LINE
  5
31D
100
AcDbEntity
  8
7_ALL_FEATURES
100
AcDbLine
 62
7
  6
CONTINUOUS
 10
315.0116934756
 20
849.4992769744
 11
309.7695773081
 21
849.4992769744
  0
LINE
  5
31E
100
AcDbEntity
  8
6_ALL_SURFS
100
AcDbLine
 62
7
  6
CONTINUOUS
 10
296.7274611406
 20
849.4992769744
 11
301.9695773081
 21
849.4992769744
  0
LINE
  5
31F
100
AcDbEntity
  8
7_ALL_FEATURES
100
AcDbLine
 62
7
  6
CONTINUOUS
 10
307.5695773081
 20
852.3992769744
 11
304.1695773081
 21
852.3992769744
  0
LINE
  5
320
100
AcDbEntity
  8
7_ALL_FEATURES
100
AcDbLine
 62
7
  6
CONTINUOUS
 10
307.3695773081
 20
852.8992769744
 11
304.3695773081
 21
852.8992769744
  0
LINE
  5
321
100
AcDbEntity
  8
7_ALL_FEATURES
100
AcDbLine
 62
7
  6
CONTINUOUS
 10
307.2695773081
 20
853.2492769744
 11
304.4695773081
 21
853.2492769744
  0
LINE
  5
322
100
AcDbEntity
  8
6_ALL_SURFS
100
AcDbLine
 62
7
  6
CONTINUOUS
 10
291.1037139709
 20
853.3492769744
 11
290.3695773081
 21
853.3492769744
  0
LINE
  5
323
100
AcDbEntity
  8
7_ALL_FEATURES
100
AcDbLine
 62
7
  6
CONTINUOUS
 10
320.6354406453
 20
853.3492769744
 11
321.3695773081
 21
853.3492769744
  0
LINE
  5
324
100
AcDbEntity
  8
7_ALL_FEATURES
100
AcDbLine
 62
7
  6
CONTINUOUS
 10
329.2195773081
 20
762.6992769744
 11
328.9195773081
 21
762.5492769744
  0
LINE
  5
325
100
AcDbEntity
  8
7_ALL_FEATURES
100
AcDbLine
 62
7
  6
CONTINUOUS
 10
321.5695773081
 20
854.8492769744
 11
319.8903032503
 21
854.8492769744
  0
LINE
  5
326
100
AcDbEntity
  8
7_ALL_FEATURES
100
AcDbLine
 62
7
  6
CONTINUOUS
 10
315.848851366
 20
854.8492769744
 11
315.3695773081
 21
854.8492769744
  0
LINE
  5
327
100
AcDbEntity
  8
6_ALL_SURFS
100
AcDbLine
 62
7
  6
CONTINUOUS
 10
290.1695773081
 20
854.8492769744
 11
291.848851366
 21
854.8492769744
  0
LINE
  5
328
100
AcDbEntity
  8
6_ALL_SURFS
100
AcDbLine
 62
7
  6
CONTINUOUS
 10
295.8903032503
 20
854.8492769744
 11
296.3695773081
 21
854.8492769744
  0
LINE
  5
329
100
AcDbEntity
  8
7_ALL_FEATURES
100
AcDbLine
 62
7
  6
CONTINUOUS
 10
304.0695773081
 20
854.8492769744
 11
307.6695773081
 21
854.8492769744
  0
LINE
  5
32A
100
AcDbEntity
  8
7_ALL_FEATURES
100
AcDbLine
 62
7
  6
CONTINUOUS
 10
332.2195773081
 20
762.6992769744
 11
331.9195773081
 21
762.5492769744
  0
LINE
  5
32B
100
AcDbEntity
  8
7_ALL_FEATURES
100
AcDbLine
 62
7
  6
CONTINUOUS
 10
335.2195773081
 20
762.6992769744
 11
334.9195773081
 21
762.5492769744
  0
LINE
  5
32C
100
AcDbEntity
  8
7_ALL_FEATURES
100
AcDbLine
 62
7
  6
CONTINUOUS
 10
338.2195773081
 20
762.6992769744
 11
337.9195773081
 21
762.5492769744
  0
LINE
  5
32D
100
AcDbEntity
  8
7_ALL_FEATURES
100
AcDbLine
 62
7
  6
CONTINUOUS
 10
341.2195773081
 20
762.6992769744
 11
340.9195773081
 21
762.5492769744
  0
LINE
  5
32E
100
AcDbEntity
  8
7_ALL_FEATURES
100
AcDbLine
 62
7
  6
CONTINUOUS
 10
344.2195773081
 20
762.6992769744
 11
343.9195773081
 21
762.5492769744
  0
LINE
  5
32F
100
AcDbEntity
  8
6_ALL_SURFS
100
AcDbLine
 62
7
  6
CONTINUOUS
 10
737.7903225806
 20
760.0492769744
 11
737.7903225806
 21
854.8492769744
  0
LINE
  5
330
100
AcDbEntity
  8
6_ALL_SURFS
100
AcDbLine
 62
7
  6
CONTINUOUS
 10
2984.7903225806
 20
760.0492769744
 11
737.7903225806
 21
760.0492769744
  0
LINE
  5
331
100
AcDbEntity
  8
6_ALL_SURFS
100
AcDbLine
 62
9
  6
CONTINUOUS
 10
2984.7903225806
 20
760.3492769744
 11
737.7903225806
 21
760.3492769744
  0
LINE
  5
332
100
AcDbEntity
  8
6_ALL_SURFS
100
AcDbLine
 62
9
  6
CONTINUOUS
 10
737.7903225806
 20
761.2492769744
 11
2984.7903225806
 21
761.2492769744
  0
LINE
  5
333
100
AcDbEntity
  8
6_ALL_SURFS
100
AcDbLine
 62
7
  6
CONTINUOUS
 10
737.7903225806
 20
761.5492769744
 11
2984.7903225806
 21
761.5492769744
  0
LINE
  5
334
100
AcDbEntity
  8
6_ALL_SURFS
100
AcDbLine
 62
9
  6
CONTINUOUS
 10
2984.7903225806
 20
761.7638241335
 11
737.7903225806
 21
761.7638241335
  0
LINE
  5
335
100
AcDbEntity
  8
6_ALL_SURFS
100
AcDbLine
 62
7
  6
CONTINUOUS
 10
2984.7903225806
 20
762.5492769744
 11
737.7903225806
 21
762.5492769744
  0
LINE
  5
336
100
AcDbEntity
  8
6_ALL_SURFS
100
AcDbLine
 62
7
  6
CONTINUOUS
 10
737.7903225806
 20
762.6992769744
 11
2984.7903225806
 21
762.6992769744
  0
LINE
  5
337
100
AcDbEntity
  8
6_ALL_SURFS
100
AcDbLine
 62
9
  6
CONTINUOUS
 10
737.7903225806
 20
762.8492769744
 11
2984.7903225806
 21
762.8492769744
  0
LINE
  5
338
100
AcDbEntity
  8
6_ALL_SURFS
100
AcDbLine
 62
9
  6
CONTINUOUS
 10
737.7903225806
 20
772.046209139
 11
2984.7903225806
 21
772.046209139
  0
LINE
  5
339
100
AcDbEntity
  8
6_ALL_SURFS
100
AcDbLine
 62
9
  6
CONTINUOUS
 10
737.7903225806
 20
772.8701791796
 11
2984.7903225806
 21
772.8701791796
  0
LINE
  5
33A
100
AcDbEntity
  8
6_ALL_SURFS
100
AcDbLine
 62
9
  6
CONTINUOUS
 10
737.7903225806
 20
775.2322266295
 11
2984.7903225806
 21
775.2322266295
  0
LINE
  5
33B
100
AcDbEntity
  8
6_ALL_SURFS
100
AcDbLine
 62
9
  6
CONTINUOUS
 10
737.7903225806
 20
776.0561966702
 11
2984.7903225806
 21
776.0561966702
  0
LINE
  5
33C
100
AcDbEntity
  8
6_ALL_SURFS
100
AcDbLine
 62
9
  6
CONTINUOUS
 10
2984.7903225806
 20
778.7617764254
 11
737.7903225806
 21
778.7617764254
  0
LINE
  5
33D
100
AcDbEntity
  8
6_ALL_SURFS
100
AcDbLine
 62
9
  6
CONTINUOUS
 10
2984.7903225806
 20
779.7847739655
 11
737.7903225806
 21
779.7847739655
  0
LINE
  5
33E
100
AcDbEntity
  8
6_ALL_SURFS
100
AcDbLine
 62
9
  6
CONTINUOUS
 10
737.7903225806
 20
782.3760850325
 11
2984.7903225806
 21
782.3760850325
  0
LINE
  5
33F
100
AcDbEntity
  8
6_ALL_SURFS
100
AcDbLine
 62
9
  6
CONTINUOUS
 10
737.7903225806
 20
782.5806845405
 11
2984.7903225806
 21
782.5806845405
  0
LINE
  5
340
100
AcDbEntity
  8
6_ALL_SURFS
100
AcDbLine
 62
9
  6
CONTINUOUS
 10
737.7903225806
 20
782.8492769744
 11
2984.7903225806
 21
782.8492769744
  0
LINE
  5
341
100
AcDbEntity
  8
6_ALL_SURFS
100
AcDbLine
 62
7
  6
CONTINUOUS
 10
2984.7903225806
 20
783.1492769744
 11
737.7903225806
 21
783.1492769744
  0
LINE
  5
342
100
AcDbEntity
  8
6_ALL_SURFS
100
AcDbLine
 62
9
  6
CONTINUOUS
 10
2984.7903225806
 20
785.1492769744
 11
737.7903225806
 21
785.1492769744
  0
LINE
  5
343
100
AcDbEntity
  8
6_ALL_SURFS
100
AcDbLine
 62
9
  6
CONTINUOUS
 10
2984.7903225806
 20
786.9492769744
 11
737.7903225806
 21
786.9492769744
  0
LINE
  5
344
100
AcDbEntity
  8
6_ALL_SURFS
100
AcDbLine
 62
7
  6
CONTINUOUS
 10
2984.7903225806
 20
788.9492769744
 11
737.7903225806
 21
788.9492769744
  0
LINE
  5
345
100
AcDbEntity
  8
6_ALL_SURFS
100
AcDbLine
 62
9
  6
CONTINUOUS
 10
737.7903225806
 20
789.2492769744
 11
2984.7903225806
 21
789.2492769744
  0
LINE
  5
346
100
AcDbEntity
  8
6_ALL_SURFS
100
AcDbLine
 62
9
  6
CONTINUOUS
 10
2984.7903225806
 20
833.9947909037
 11
737.7903225806
 21
833.9947909037
  0
LINE
  5
347
100
AcDbEntity
  8
6_ALL_SURFS
100
AcDbLine
 62
9
  6
CONTINUOUS
 10
2984.7903225806
 20
835.0769889734
 11
737.7903225806
 21
835.0769889734
  0
LINE
  5
348
100
AcDbEntity
  8
6_ALL_SURFS
100
AcDbLine
 62
9
  6
CONTINUOUS
 10
737.7903225806
 20
849.0839360973
 11
2984.7903225806
 21
849.0839360973
  0
LINE
  5
349
100
AcDbEntity
  8
6_ALL_SURFS
100
AcDbLine
 62
9
  6
CONTINUOUS
 10
737.7903225806
 20
851.1168667358
 11
2984.7903225806
 21
851.1168667358
  0
LINE
  5
34A
100
AcDbEntity
  8
6_ALL_SURFS
100
AcDbLine
 62
9
  6
CONTINUOUS
 10
737.7903225806
 20
852.9137931034
 11
2984.7903225806
 21
852.9137931034
  0
LINE
  5
34B
100
AcDbEntity
  8
6_ALL_SURFS
100
AcDbLine
 62
7
  6
CONTINUOUS
 10
2984.7903225806
 20
853.3492769744
 11
737.7903225806
 21
853.3492769744
  0
LINE
  5
34C
100
AcDbEntity
  8
6_ALL_SURFS
100
AcDbLine
 62
9
  6
CONTINUOUS
 10
2984.7903225806
 20
853.8492769744
 11
737.7903225806
 21
853.8492769744
  0
LINE
  5
34D
100
AcDbEntity
  8
6_ALL_SURFS
100
AcDbLine
 62
9
  6
CONTINUOUS
 10
2984.7903225806
 20
854.5492769744
 11
737.7903225806
 21
854.5492769744
  0
LINE
  5
34E
100
AcDbEntity
  8
6_ALL_SURFS
100
AcDbLine
 62
7
  6
CONTINUOUS
 10
2984.7903225806
 20
854.8492769744
 11
737.7903225806
 21
854.8492769744
  0
LINE
  5
34F
100
AcDbEntity
  8
6_ALL_SURFS
100
AcDbLine
 62
7
  6
CONTINUOUS
 10
2984.7903225806
 20
760.0492769744
 11
2984.7903225806
 21
854.8492769744
  0
LINE
  5
350
100
AcDbEntity
  8
7_ALL_FEATURES
100
AcDbLine
 62
7
  6
CONTINUOUS
 10
737.7903225806
 20
1105.527100867
 11
737.7903225806
 21
1127.0270856507
  0
LINE
  5
351
100
AcDbEntity
  8
7_ALL_FEATURES
100
AcDbLine
 62
7
  6
CONTINUOUS
 10
737.7903225806
 20
1127.0890796486
 11
737.7903225806
 21
1147.9770856507
  0
LINE
  5
352
100
AcDbEntity
  8
6_ALL_SURFS
100
AcDbLine
 62
7
  6
CONTINUOUS
 10
737.7903225806
 20
1147.9770856507
 11
737.7903225806
 21
1166.0650916528
  0
LINE
  5
353
100
AcDbEntity
  8
6_ALL_SURFS
100
AcDbLine
 62
7
  6
CONTINUOUS
 10
737.7903225806
 20
1166.1270856507
 11
737.7903225806
 21
1187.6270704344
  0
LINE
  5
354
100
AcDbEntity
  8
7_ALL_FEATURES
100
AcDbLine
 62
7
  6
CONTINUOUS
 10
739.0403225806
 20
1165.9270856507
 11
739.0403225806
 21
1127.2270856507
  0
LINE
  5
355
100
AcDbEntity
  8
7_ALL_FEATURES
100
AcDbLine
 62
7
  6
CONTINUOUS
 10
2984.7903225806
 20
1105.5270856507
 11
737.7903225806
 21
1105.5270856507
  0
LINE
  5
356
100
AcDbEntity
  8
7_ALL_FEATURES
100
AcDbLine
 62
9
  6
CONTINUOUS
 10
2984.7903225806
 20
1105.8816140603
 11
737.7903225806
 21
1105.8816140603
  0
LINE
  5
357
100
AcDbEntity
  8
7_ALL_FEATURES
100
AcDbLine
 62
7
  6
CONTINUOUS
 10
737.7903225806
 20
1108.0270856507
 11
858.0069147869
 21
1108.0270856507
  0
LINE
  5
358
100
AcDbEntity
  8
7_ALL_FEATURES
100
AcDbLine
 62
7
  6
CONTINUOUS
 10
864.5737303743
 20
1108.0270856507
 11
1108.0069147869
 21
1108.0270856507
  0
LINE
  5
359
100
AcDbEntity
  8
7_ALL_FEATURES
100
AcDbLine
 62
7
  6
CONTINUOUS
 10
1114.5737303743
 20
1108.0270856507
 11
1358.0069147869
 21
1108.0270856507
  0
LINE
  5
35A
100
AcDbEntity
  8
7_ALL_FEATURES
100
AcDbLine
 62
7
  6
CONTINUOUS
 10
1364.5737303743
 20
1108.0270856507
 11
1608.0069147869
 21
1108.0270856507
  0
LINE
  5
35B
100
AcDbEntity
  8
7_ALL_FEATURES
100
AcDbLine
 62
7
  6
CONTINUOUS
 10
1614.5737303743
 20
1108.0270856507
 11
1858.0069147869
 21
1108.0270856507
  0
LINE
  5
35C
100
AcDbEntity
  8
7_ALL_FEATURES
100
AcDbLine
 62
7
  6
CONTINUOUS
 10
1864.5737303743
 20
1108.0270856507
 11
2108.0069147869
 21
1108.0270856507
  0
LINE
  5
35D
100
AcDbEntity
  8
7_ALL_FEATURES
100
AcDbLine
 62
7
  6
CONTINUOUS
 10
2114.5737303743
 20
1108.0270856507
 11
2358.0069147869
 21
1108.0270856507
  0
LINE
  5
35E
100
AcDbEntity
  8
7_ALL_FEATURES
100
AcDbLine
 62
7
  6
CONTINUOUS
 10
2364.5737303743
 20
1108.0270856507
 11
2608.0069147869
 21
1108.0270856507
  0
LINE
  5
35F
100
AcDbEntity
  8
7_ALL_FEATURES
100
AcDbLine
 62
7
  6
CONTINUOUS
 10
2614.5737303743
 20
1108.0270856507
 11
2858.0069147869
 21
1108.0270856507
  0
LINE
  5
360
100
AcDbEntity
  8
7_ALL_FEATURES
100
AcDbLine
 62
7
  6
CONTINUOUS
 10
2864.5737303743
 20
1108.0270856507
 11
2984.7903225806
 21
1108.0270856507
  0
LINE
  5
361
100
AcDbEntity
  8
7_ALL_FEATURES
100
AcDbLine
 62
7
  6
CONTINUOUS
 10
737.7903225806
 20
1110.9270856507
 11
856.5289397206
 21
1110.9270856507
  0
LINE
  5
362
100
AcDbEntity
  8
7_ALL_FEATURES
100
AcDbLine
 62
7
  6
CONTINUOUS
 10
866.0517054407
 20
1110.9270856507
 11
1106.5289397206
 21
1110.9270856507
  0
LINE
  5
363
100
AcDbEntity
  8
7_ALL_FEATURES
100
AcDbLine
 62
7
  6
CONTINUOUS
 10
1116.0517054407
 20
1110.9270856507
 11
1356.5289397206
 21
1110.9270856507
  0
LINE
  5
364
100
AcDbEntity
  8
7_ALL_FEATURES
100
AcDbLine
 62
7
  6
CONTINUOUS
 10
1366.0517054407
 20
1110.9270856507
 11
1606.5289397206
 21
1110.9270856507
  0
LINE
  5
365
100
AcDbEntity
  8
7_ALL_FEATURES
100
AcDbLine
 62
7
  6
CONTINUOUS
 10
1616.0517054407
 20
1110.9270856507
 11
1856.5289397206
 21
1110.9270856507
  0
LINE
  5
366
100
AcDbEntity
  8
7_ALL_FEATURES
100
AcDbLine
 62
7
  6
CONTINUOUS
 10
1866.0517054407
 20
1110.9270856507
 11
2106.5289397206
 21
1110.9270856507
  0
LINE
  5
367
100
AcDbEntity
  8
7_ALL_FEATURES
100
AcDbLine
 62
7
  6
CONTINUOUS
 10
2116.0517054407
 20
1110.9270856507
 11
2356.5289397206
 21
1110.9270856507
  0
LINE
  5
368
100
AcDbEntity
  8
7_ALL_FEATURES
100
AcDbLine
 62
7
  6
CONTINUOUS
 10
2366.0517054407
 20
1110.9270856507
 11
2606.5289397206
 21
1110.9270856507
  0
LINE
  5
369
100
AcDbEntity
  8
7_ALL_FEATURES
100
AcDbLine
 62
7
  6
CONTINUOUS
 10
2616.0517054407
 20
1110.9270856507
 11
2856.5289397206
 21
1110.9270856507
  0
LINE
  5
36A
100
AcDbEntity
  8
7_ALL_FEATURES
100
AcDbLine
 62
7
  6
CONTINUOUS
 10
2866.0517054407
 20
1110.9270856507
 11
2984.7903225806
 21
1110.9270856507
  0
LINE
  5
36B
100
AcDbEntity
  8
7_ALL_FEATURES
100
AcDbLine
 62
7
  6
CONTINUOUS
 10
737.7903225806
 20
1111.5270856507
 11
856.491284475
 21
1111.5270856507
  0
LINE
  5
36C
100
AcDbEntity
  8
7_ALL_FEATURES
100
AcDbLine
 62
7
  6
CONTINUOUS
 10
866.0893606863
 20
1111.5270856507
 11
1106.491284475
 21
1111.5270856507
  0
LINE
  5
36D
100
AcDbEntity
  8
7_ALL_FEATURES
100
AcDbLine
 62
7
  6
CONTINUOUS
 10
1116.0893606863
 20
1111.5270856507
 11
1356.491284475
 21
1111.5270856507
  0
LINE
  5
36E
100
AcDbEntity
  8
7_ALL_FEATURES
100
AcDbLine
 62
7
  6
CONTINUOUS
 10
1366.0893606863
 20
1111.5270856507
 11
1606.491284475
 21
1111.5270856507
  0
LINE
  5
36F
100
AcDbEntity
  8
7_ALL_FEATURES
100
AcDbLine
 62
7
  6
CONTINUOUS
 10
1616.0893606863
 20
1111.5270856507
 11
1856.491284475
 21
1111.5270856507
  0
LINE
  5
370
100
AcDbEntity
  8
7_ALL_FEATURES
100
AcDbLine
 62
7
  6
CONTINUOUS
 10
1866.0893606863
 20
1111.5270856507
 11
2106.491284475
 21
1111.5270856507
  0
LINE
  5
371
100
AcDbEntity
  8
7_ALL_FEATURES
100
AcDbLine
 62
7
  6
CONTINUOUS
 10
2116.0893606863
 20
1111.5270856507
 11
2356.491284475
 21
1111.5270856507
  0
LINE
  5
372
100
AcDbEntity
  8
7_ALL_FEATURES
100
AcDbLine
 62
7
  6
CONTINUOUS
 10
2366.0893606863
 20
1111.5270856507
 11
2606.491284475
 21
1111.5270856507
  0
LINE
  5
373
100
AcDbEntity
  8
7_ALL_FEATURES
100
AcDbLine
 62
7
  6
CONTINUOUS
 10
2616.0893606863
 20
1111.5270856507
 11
2856.491284475
 21
1111.5270856507
  0
LINE
  5
374
100
AcDbEntity
  8
7_ALL_FEATURES
100
AcDbLine
 62
7
  6
CONTINUOUS
 10
2866.0893606863
 20
1111.5270856507
 11
2984.7903225806
 21
1111.5270856507
  0
LINE
  5
375
100
AcDbEntity
  8
7_ALL_FEATURES
100
AcDbLine
 62
7
  6
CONTINUOUS
 10
737.7903225806
 20
1113.9270856507
 11
857.1345113795
 21
1113.9270856507
  0
LINE
  5
376
100
AcDbEntity
  8
7_ALL_FEATURES
100
AcDbLine
 62
7
  6
CONTINUOUS
 10
865.4461337818
 20
1113.9270856507
 11
1107.1345113795
 21
1113.9270856507
  0
LINE
  5
377
100
AcDbEntity
  8
7_ALL_FEATURES
100
AcDbLine
 62
7
  6
CONTINUOUS
 10
1115.4461337818
 20
1113.9270856507
 11
1357.1345113795
 21
1113.9270856507
  0
LINE
  5
378
100
AcDbEntity
  8
7_ALL_FEATURES
100
AcDbLine
 62
7
  6
CONTINUOUS
 10
1365.4461337818
 20
1113.9270856507
 11
1607.1345113795
 21
1113.9270856507
  0
LINE
  5
379
100
AcDbEntity
  8
7_ALL_FEATURES
100
AcDbLine
 62
7
  6
CONTINUOUS
 10
1615.4461337818
 20
1113.9270856507
 11
1857.1345113795
 21
1113.9270856507
  0
LINE
  5
37A
100
AcDbEntity
  8
7_ALL_FEATURES
100
AcDbLine
 62
7
  6
CONTINUOUS
 10
1865.4461337818
 20
1113.9270856507
 11
2107.1345113795
 21
1113.9270856507
  0
LINE
  5
37B
100
AcDbEntity
  8
7_ALL_FEATURES
100
AcDbLine
 62
7
  6
CONTINUOUS
 10
2115.4461337818
 20
1113.9270856507
 11
2357.1345113795
 21
1113.9270856507
  0
LINE
  5
37C
100
AcDbEntity
  8
7_ALL_FEATURES
100
AcDbLine
 62
7
  6
CONTINUOUS
 10
2365.4461337818
 20
1113.9270856507
 11
2607.1345113795
 21
1113.9270856507
  0
LINE
  5
37D
100
AcDbEntity
  8
7_ALL_FEATURES
100
AcDbLine
 62
7
  6
CONTINUOUS
 10
2615.4461337818
 20
1113.9270856507
 11
2857.1345113795
 21
1113.9270856507
  0
LINE
  5
37E
100
AcDbEntity
  8
7_ALL_FEATURES
100
AcDbLine
 62
7
  6
CONTINUOUS
 10
2865.4461337818
 20
1113.9270856507
 11
2984.7903225806
 21
1113.9270856507
  0
LINE
  5
37F
100
AcDbEntity
  8
7_ALL_FEATURES
100
AcDbLine
 62
7
  6
CONTINUOUS
 10
737.7903225806
 20
1114.5270856507
 11
857.5445560717
 21
1114.5270856507
  0
LINE
  5
380
100
AcDbEntity
  8
7_ALL_FEATURES
100
AcDbLine
 62
7
  6
CONTINUOUS
 10
865.0360890896
 20
1114.5270856507
 11
1107.5445560717
 21
1114.5270856507
  0
LINE
  5
381
100
AcDbEntity
  8
7_ALL_FEATURES
100
AcDbLine
 62
7
  6
CONTINUOUS
 10
1115.0360890896
 20
1114.5270856507
 11
1357.5445560717
 21
1114.5270856507
  0
LINE
  5
382
100
AcDbEntity
  8
7_ALL_FEATURES
100
AcDbLine
 62
7
  6
CONTINUOUS
 10
1365.0360890896
 20
1114.5270856507
 11
1607.5445560717
 21
1114.5270856507
  0
LINE
  5
383
100
AcDbEntity
  8
7_ALL_FEATURES
100
AcDbLine
 62
7
  6
CONTINUOUS
 10
1615.0360890896
 20
1114.5270856507
 11
1857.5445560717
 21
1114.5270856507
  0
LINE
  5
384
100
AcDbEntity
  8
7_ALL_FEATURES
100
AcDbLine
 62
7
  6
CONTINUOUS
 10
1865.0360890896
 20
1114.5270856507
 11
2107.5445560717
 21
1114.5270856507
  0
LINE
  5
385
100
AcDbEntity
  8
7_ALL_FEATURES
100
AcDbLine
 62
7
  6
CONTINUOUS
 10
2115.0360890896
 20
1114.5270856507
 11
2357.5445560717
 21
1114.5270856507
  0
LINE
  5
386
100
AcDbEntity
  8
7_ALL_FEATURES
100
AcDbLine
 62
7
  6
CONTINUOUS
 10
2365.0360890896
 20
1114.5270856507
 11
2607.5445560717
 21
1114.5270856507
  0
LINE
  5
387
100
AcDbEntity
  8
7_ALL_FEATURES
100
AcDbLine
 62
7
  6
CONTINUOUS
 10
2615.0360890896
 20
1114.5270856507
 11
2857.5445560717
 21
1114.5270856507
  0
LINE
  5
388
100
AcDbEntity
  8
7_ALL_FEATURES
100
AcDbLine
 62
7
  6
CONTINUOUS
 10
2865.0360890896
 20
1114.5270856507
 11
2984.7903225806
 21
1114.5270856507
  0
LINE
  5
389
100
AcDbEntity
  8
7_ALL_FEATURES
100
AcDbLine
 62
7
  6
CONTINUOUS
 10
737.7903225806
 20
1116.9270856507
 11
2984.7903225806
 21
1116.9270856507
  0
LINE
  5
38A
100
AcDbEntity
  8
7_ALL_FEATURES
100
AcDbLine
 62
7
  6
CONTINUOUS
 10
737.7903225806
 20
1117.5270856507
 11
2984.7903225806
 21
1117.5270856507
  0
LINE
  5
38B
100
AcDbEntity
  8
7_ALL_FEATURES
100
AcDbLine
 62
7
  6
CONTINUOUS
 10
737.7903225806
 20
1119.9270856507
 11
2984.7903225806
 21
1119.9270856507
  0
LINE
  5
38C
100
AcDbEntity
  8
7_ALL_FEATURES
100
AcDbLine
 62
7
  6
CONTINUOUS
 10
737.7903225806
 20
1120.5270856507
 11
2984.7903225806
 21
1120.5270856507
  0
LINE
  5
38D
100
AcDbEntity
  8
7_ALL_FEATURES
100
AcDbLine
 62
7
  6
CONTINUOUS
 10
737.7903225806
 20
1122.9270856507
 11
2984.7903225806
 21
1122.9270856507
  0
LINE
  5
38E
100
AcDbEntity
  8
7_ALL_FEATURES
100
AcDbLine
 62
7
  6
CONTINUOUS
 10
737.7903225806
 20
1123.5270856507
 11
2984.7903225806
 21
1123.5270856507
  0
LINE
  5
38F
100
AcDbEntity
  8
7_ALL_FEATURES
100
AcDbLine
 62
9
  6
CONTINUOUS
 10
737.7903225806
 20
1125.4770856507
 11
2984.7903225806
 21
1125.4770856507
  0
LINE
  5
390
100
AcDbEntity
  8
7_ALL_FEATURES
100
AcDbLine
 62
7
  6
CONTINUOUS
 10
2984.7903225806
 20
1125.7770856507
 11
737.7903225806
 21
1125.7770856507
  0
LINE
  5
391
100
AcDbEntity
  8
7_ALL_FEATURES
100
AcDbLine
 62
9
  6
CONTINUOUS
 10
2984.7903225806
 20
1126.0770856507
 11
737.7903225806
 21
1126.0770856507
  0
LINE
  5
392
100
AcDbEntity
  8
7_ALL_FEATURES
100
AcDbLine
 62
9
  6
CONTINUOUS
 10
2984.7903225806
 20
1126.7270856507
 11
737.7903225806
 21
1126.7270856507
  0
LINE
  5
393
100
AcDbEntity
  8
7_ALL_FEATURES
100
AcDbLine
 62
7
  6
CONTINUOUS
 10
2984.7903225806
 20
1127.0270856507
 11
737.7903225806
 21
1127.0270856507
  0
LINE
  5
394
100
AcDbEntity
  8
7_ALL_FEATURES
100
AcDbLine
 62
9
  6
CONTINUOUS
 10
737.7903225806
 20
1127.0890796486
 11
2984.7903225806
 21
1127.0890796486
  0
LINE
  5
395
100
AcDbEntity
  8
7_ALL_FEATURES
100
AcDbLine
 62
7
  6
CONTINUOUS
 10
739.0403225806
 20
1127.2270856507
 11
2983.5403225806
 21
1127.2270856507
  0
LINE
  5
396
100
AcDbEntity
  8
7_ALL_FEATURES
100
AcDbLine
 62
9
  6
CONTINUOUS
 10
739.0403225806
 20
1127.4270856507
 11
2983.5403225806
 21
1127.4270856507
  0
LINE
  5
397
100
AcDbEntity
  8
7_ALL_FEATURES
100
AcDbLine
 62
9
  6
CONTINUOUS
 10
2984.7903225806
 20
1128.1997513661
 11
2983.5403225806
 21
1128.1997513661
  0
LINE
  5
398
100
AcDbEntity
  8
7_ALL_FEATURES
100
AcDbLine
 62
9
  6
CONTINUOUS
 10
739.0403225806
 20
1128.1997513661
 11
737.7903225806
 21
1128.1997513661
  0
LINE
  5
399
100
AcDbEntity
  8
6_ALL_SURFS
100
AcDbLine
 62
7
  6
CONTINUOUS
 10
2984.7903225806
 20
1128.2410806981
 11
2983.5403225806
 21
1128.2410806981
  0
LINE
  5
39A
100
AcDbEntity
  8
6_ALL_SURFS
100
AcDbLine
 62
7
  6
CONTINUOUS
 10
739.0403225806
 20
1128.2410806981
 11
737.7903225806
 21
1128.2410806981
  0
LINE
  5
39B
100
AcDbEntity
  8
7_ALL_FEATURES
100
AcDbLine
 62
9
  6
CONTINUOUS
 10
737.7903225806
 20
1128.8381232527
 11
739.0403225806
 21
1128.8381232527
  0
LINE
  5
39C
100
AcDbEntity
  8
7_ALL_FEATURES
100
AcDbLine
 62
9
  6
CONTINUOUS
 10
2983.5403225806
 20
1128.8381232527
 11
2984.7903225806
 21
1128.8381232527
  0
LINE
  5
39D
100
AcDbEntity
  8
7_ALL_FEATURES
100
AcDbLine
 62
9
  6
CONTINUOUS
 10
737.7903225806
 20
1129.0575293632
 11
739.0403225806
 21
1129.0575293632
  0
LINE
  5
39E
100
AcDbEntity
  8
7_ALL_FEATURES
100
AcDbLine
 62
9
  6
CONTINUOUS
 10
2983.5403225806
 20
1129.0575293632
 11
2984.7903225806
 21
1129.0575293632
  0
LINE
  5
39F
100
AcDbEntity
  8
7_ALL_FEATURES
100
AcDbLine
 62
9
  6
CONTINUOUS
 10
2984.7903225806
 20
1129.8770856507
 11
2983.5403225806
 21
1129.8770856507
  0
LINE
  5
3A0
100
AcDbEntity
  8
7_ALL_FEATURES
100
AcDbLine
 62
9
  6
CONTINUOUS
 10
739.0403225806
 20
1129.8770856507
 11
737.7903225806
 21
1129.8770856507
  0
LINE
  5
3A1
100
AcDbEntity
  8
7_ALL_FEATURES
100
AcDbLine
 62
7
  6
CONTINUOUS
 10
2984.7903225806
 20
1130.1770856507
 11
2983.5403225806
 21
1130.1770856507
  0
LINE
  5
3A2
100
AcDbEntity
  8
7_ALL_FEATURES
100
AcDbLine
 62
7
  6
CONTINUOUS
 10
739.0403225806
 20
1130.1770856507
 11
737.7903225806
 21
1130.1770856507
  0
LINE
  5
3A3
100
AcDbEntity
  8
7_ALL_FEATURES
100
AcDbLine
 62
9
  6
CONTINUOUS
 10
737.7903225806
 20
1130.2373930299
 11
739.0403225806
 21
1130.2373930299
  0
LINE
  5
3A4
100
AcDbEntity
  8
7_ALL_FEATURES
100
AcDbLine
 62
9
  6
CONTINUOUS
 10
2983.5403225806
 20
1130.2373930299
 11
2984.7903225806
 21
1130.2373930299
  0
LINE
  5
3A5
100
AcDbEntity
  8
7_ALL_FEATURES
100
AcDbLine
 62
9
  6
CONTINUOUS
 10
2984.7903225806
 20
1130.5924492367
 11
2983.5403225806
 21
1130.5924492367
  0
LINE
  5
3A6
100
AcDbEntity
  8
7_ALL_FEATURES
100
AcDbLine
 62
9
  6
CONTINUOUS
 10
739.0403225806
 20
1130.5924492367
 11
737.7903225806
 21
1130.5924492367
  0
LINE
  5
3A7
100
AcDbEntity
  8
7_ALL_FEATURES
100
AcDbLine
 62
7
  6
CONTINUOUS
 10
2984.7903225806
 20
1130.6105414504
 11
2983.5403225806
 21
1130.6105414504
  0
LINE
  5
3A8
100
AcDbEntity
  8
7_ALL_FEATURES
100
AcDbLine
 62
7
  6
CONTINUOUS
 10
739.0403225806
 20
1130.6105414504
 11
737.7903225806
 21
1130.6105414504
  0
LINE
  5
3A9
100
AcDbEntity
  8
7_ALL_FEATURES
100
AcDbLine
 62
9
  6
CONTINUOUS
 10
737.7903225806
 20
1133.0033744953
 11
739.0403225806
 21
1133.0033744953
  0
LINE
  5
3AA
100
AcDbEntity
  8
7_ALL_FEATURES
100
AcDbLine
 62
9
  6
CONTINUOUS
 10
2983.5403225806
 20
1133.0033744953
 11
2984.7903225806
 21
1133.0033744953
  0
LINE
  5
3AB
100
AcDbEntity
  8
7_ALL_FEATURES
100
AcDbLine
 62
9
  6
CONTINUOUS
 10
737.7903225806
 20
1133.9796705024
 11
739.0403225806
 21
1133.9796705024
  0
LINE
  5
3AC
100
AcDbEntity
  8
7_ALL_FEATURES
100
AcDbLine
 62
9
  6
CONTINUOUS
 10
2983.5403225806
 20
1133.9796705024
 11
2984.7903225806
 21
1133.9796705024
  0
LINE
  5
3AD
100
AcDbEntity
  8
7_ALL_FEATURES
100
AcDbLine
 62
9
  6
CONTINUOUS
 10
2984.7903225806
 20
1144.5770856507
 11
2983.5403225806
 21
1144.5770856507
  0
LINE
  5
3AE
100
AcDbEntity
  8
7_ALL_FEATURES
100
AcDbLine
 62
9
  6
CONTINUOUS
 10
739.0403225806
 20
1144.5770856507
 11
737.7903225806
 21
1144.5770856507
  0
LINE
  5
3AF
100
AcDbEntity
  8
7_ALL_FEATURES
100
AcDbLine
 62
7
  6
CONTINUOUS
 10
2984.7903225806
 20
1144.8770856507
 11
2983.5403225806
 21
1144.8770856507
  0
LINE
  5
3B0
100
AcDbEntity
  8
7_ALL_FEATURES
100
AcDbLine
 62
7
  6
CONTINUOUS
 10
739.0403225806
 20
1144.8770856507
 11
737.7903225806
 21
1144.8770856507
  0
LINE
  5
3B1
100
AcDbEntity
  8
7_ALL_FEATURES
100
AcDbLine
 62
9
  6
CONTINUOUS
 10
737.7903225806
 20
1145.1770856507
 11
739.0403225806
 21
1145.1770856507
  0
LINE
  5
3B2
100
AcDbEntity
  8
7_ALL_FEATURES
100
AcDbLine
 62
9
  6
CONTINUOUS
 10
2983.5403225806
 20
1145.1770856507
 11
2984.7903225806
 21
1145.1770856507
  0
LINE
  5
3B3
100
AcDbEntity
  8
6_ALL_SURFS
100
AcDbLine
 62
9
  6
CONTINUOUS
 10
737.7903225806
 20
1147.9770856507
 11
739.0403225806
 21
1147.9770856507
  0
LINE
  5
3B4
100
AcDbEntity
  8
6_ALL_SURFS
100
AcDbLine
 62
9
  6
CONTINUOUS
 10
2983.5403225806
 20
1147.9770856507
 11
2984.7903225806
 21
1147.9770856507
  0
LINE
  5
3B5
100
AcDbEntity
  8
6_ALL_SURFS
100
AcDbLine
 62
7
  6
CONTINUOUS
 10
2984.7903225806
 20
1148.2770856507
 11
2983.5403225806
 21
1148.2770856507
  0
LINE
  5
3B6
100
AcDbEntity
  8
6_ALL_SURFS
100
AcDbLine
 62
7
  6
CONTINUOUS
 10
739.0403225806
 20
1148.2770856507
 11
737.7903225806
 21
1148.2770856507
  0
LINE
  5
3B7
100
AcDbEntity
  8
6_ALL_SURFS
100
AcDbLine
 62
9
  6
CONTINUOUS
 10
2984.7903225806
 20
1148.5770856507
 11
2983.5403225806
 21
1148.5770856507
  0
LINE
  5
3B8
100
AcDbEntity
  8
6_ALL_SURFS
100
AcDbLine
 62
9
  6
CONTINUOUS
 10
739.0403225806
 20
1148.5770856507
 11
737.7903225806
 21
1148.5770856507
  0
LINE
  5
3B9
100
AcDbEntity
  8
6_ALL_SURFS
100
AcDbLine
 62
9
  6
CONTINUOUS
 10
737.7903225806
 20
1159.1745007991
 11
739.0403225806
 21
1159.1745007991
  0
LINE
  5
3BA
100
AcDbEntity
  8
6_ALL_SURFS
100
AcDbLine
 62
9
  6
CONTINUOUS
 10
2983.5403225806
 20
1159.1745007991
 11
2984.7903225806
 21
1159.1745007991
  0
LINE
  5
3BB
100
AcDbEntity
  8
6_ALL_SURFS
100
AcDbLine
 62
9
  6
CONTINUOUS
 10
737.7903225806
 20
1160.1507968062
 11
739.0403225806
 21
1160.1507968062
  0
LINE
  5
3BC
100
AcDbEntity
  8
6_ALL_SURFS
100
AcDbLine
 62
9
  6
CONTINUOUS
 10
2983.5403225806
 20
1160.1507968062
 11
2984.7903225806
 21
1160.1507968062
  0
LINE
  5
3BD
100
AcDbEntity
  8
6_ALL_SURFS
100
AcDbLine
 62
7
  6
CONTINUOUS
 10
737.7903225806
 20
1162.543629851
 11
739.0403225806
 21
1162.543629851
  0
LINE
  5
3BE
100
AcDbEntity
  8
6_ALL_SURFS
100
AcDbLine
 62
7
  6
CONTINUOUS
 10
2983.5403225806
 20
1162.543629851
 11
2984.7903225806
 21
1162.543629851
  0
LINE
  5
3BF
100
AcDbEntity
  8
6_ALL_SURFS
100
AcDbLine
 62
9
  6
CONTINUOUS
 10
2984.7903225806
 20
1162.5617220648
 11
2983.5403225806
 21
1162.5617220648
  0
LINE
  5
3C0
100
AcDbEntity
  8
6_ALL_SURFS
100
AcDbLine
 62
9
  6
CONTINUOUS
 10
739.0403225806
 20
1162.5617220648
 11
737.7903225806
 21
1162.5617220648
  0
LINE
  5
3C1
100
AcDbEntity
  8
6_ALL_SURFS
100
AcDbLine
 62
9
  6
CONTINUOUS
 10
737.7903225806
 20
1162.9167782715
 11
739.0403225806
 21
1162.9167782715
  0
LINE
  5
3C2
100
AcDbEntity
  8
6_ALL_SURFS
100
AcDbLine
 62
9
  6
CONTINUOUS
 10
2983.5403225806
 20
1162.9167782715
 11
2984.7903225806
 21
1162.9167782715
  0
LINE
  5
3C3
100
AcDbEntity
  8
6_ALL_SURFS
100
AcDbLine
 62
7
  6
CONTINUOUS
 10
2984.7903225806
 20
1162.9770856507
 11
2983.5403225806
 21
1162.9770856507
  0
LINE
  5
3C4
100
AcDbEntity
  8
6_ALL_SURFS
100
AcDbLine
 62
7
  6
CONTINUOUS
 10
739.0403225806
 20
1162.9770856507
 11
737.7903225806
 21
1162.9770856507
  0
LINE
  5
3C5
100
AcDbEntity
  8
6_ALL_SURFS
100
AcDbLine
 62
9
  6
CONTINUOUS
 10
2984.7903225806
 20
1163.2770856507
 11
2983.5403225806
 21
1163.2770856507
  0
LINE
  5
3C6
100
AcDbEntity
  8
6_ALL_SURFS
100
AcDbLine
 62
9
  6
CONTINUOUS
 10
739.0403225806
 20
1163.2770856507
 11
737.7903225806
 21
1163.2770856507
  0
LINE
  5
3C7
100
AcDbEntity
  8
6_ALL_SURFS
100
AcDbLine
 62
9
  6
CONTINUOUS
 10
737.7903225806
 20
1164.0966419382
 11
739.0403225806
 21
1164.0966419382
  0
LINE
  5
3C8
100
AcDbEntity
  8
6_ALL_SURFS
100
AcDbLine
 62
9
  6
CONTINUOUS
 10
2983.5403225806
 20
1164.0966419382
 11
2984.7903225806
 21
1164.0966419382
  0
LINE
  5
3C9
100
AcDbEntity
  8
6_ALL_SURFS
100
AcDbLine
 62
9
  6
CONTINUOUS
 10
737.7903225806
 20
1164.3160480487
 11
739.0403225806
 21
1164.3160480487
  0
LINE
  5
3CA
100
AcDbEntity
  8
6_ALL_SURFS
100
AcDbLine
 62
9
  6
CONTINUOUS
 10
2983.5403225806
 20
1164.3160480487
 11
2984.7903225806
 21
1164.3160480487
  0
LINE
  5
3CB
100
AcDbEntity
  8
6_ALL_SURFS
100
AcDbLine
 62
7
  6
CONTINUOUS
 10
737.7903225806
 20
1164.9130906034
 11
739.0403225806
 21
1164.9130906034
  0
LINE
  5
3CC
100
AcDbEntity
  8
6_ALL_SURFS
100
AcDbLine
 62
7
  6
CONTINUOUS
 10
2983.5403225806
 20
1164.9130906034
 11
2984.7903225806
 21
1164.9130906034
  0
LINE
  5
3CD
100
AcDbEntity
  8
6_ALL_SURFS
100
AcDbLine
 62
9
  6
CONTINUOUS
 10
2984.7903225806
 20
1164.9544199353
 11
2983.5403225806
 21
1164.9544199353
  0
LINE
  5
3CE
100
AcDbEntity
  8
6_ALL_SURFS
100
AcDbLine
 62
9
  6
CONTINUOUS
 10
739.0403225806
 20
1164.9544199353
 11
737.7903225806
 21
1164.9544199353
  0
LINE
  5
3CF
100
AcDbEntity
  8
7_ALL_FEATURES
100
AcDbLine
 62
9
  6
CONTINUOUS
 10
739.0403225806
 20
1165.7270856507
 11
2983.5403225806
 21
1165.7270856507
  0
LINE
  5
3D0
100
AcDbEntity
  8
7_ALL_FEATURES
100
AcDbLine
 62
7
  6
CONTINUOUS
 10
739.0403225806
 20
1165.9270856507
 11
2983.5403225806
 21
1165.9270856507
  0
LINE
  5
3D1
100
AcDbEntity
  8
6_ALL_SURFS
100
AcDbLine
 62
9
  6
CONTINUOUS
 10
737.7903225806
 20
1166.0650916528
 11
2984.7903225806
 21
1166.0650916528
  0
LINE
  5
3D2
100
AcDbEntity
  8
6_ALL_SURFS
100
AcDbLine
 62
7
  6
CONTINUOUS
 10
2984.7903225806
 20
1166.1270856507
 11
737.7903225806
 21
1166.1270856507
  0
LINE
  5
3D3
100
AcDbEntity
  8
6_ALL_SURFS
100
AcDbLine
 62
9
  6
CONTINUOUS
 10
2984.7903225806
 20
1166.4270856507
 11
737.7903225806
 21
1166.4270856507
  0
LINE
  5
3D4
100
AcDbEntity
  8
6_ALL_SURFS
100
AcDbLine
 62
9
  6
CONTINUOUS
 10
2984.7903225806
 20
1167.0770856507
 11
737.7903225806
 21
1167.0770856507
  0
LINE
  5
3D5
100
AcDbEntity
  8
6_ALL_SURFS
100
AcDbLine
 62
7
  6
CONTINUOUS
 10
2984.7903225806
 20
1167.3770856507
 11
737.7903225806
 21
1167.3770856507
  0
LINE
  5
3D6
100
AcDbEntity
  8
6_ALL_SURFS
100
AcDbLine
 62
9
  6
CONTINUOUS
 10
737.7903225806
 20
1167.6770856507
 11
2984.7903225806
 21
1167.6770856507
  0
LINE
  5
3D7
100
AcDbEntity
  8
6_ALL_SURFS
100
AcDbLine
 62
7
  6
CONTINUOUS
 10
737.7903225806
 20
1169.6270856507
 11
2984.7903225806
 21
1169.6270856507
  0
LINE
  5
3D8
100
AcDbEntity
  8
6_ALL_SURFS
100
AcDbLine
 62
7
  6
CONTINUOUS
 10
737.7903225806
 20
1170.2270856507
 11
2984.7903225806
 21
1170.2270856507
  0
LINE
  5
3D9
100
AcDbEntity
  8
6_ALL_SURFS
100
AcDbLine
 62
7
  6
CONTINUOUS
 10
737.7903225806
 20
1172.6270856507
 11
2984.7903225806
 21
1172.6270856507
  0
LINE
  5
3DA
100
AcDbEntity
  8
6_ALL_SURFS
100
AcDbLine
 62
7
  6
CONTINUOUS
 10
737.7903225806
 20
1173.2270856507
 11
2984.7903225806
 21
1173.2270856507
  0
LINE
  5
3DB
100
AcDbEntity
  8
6_ALL_SURFS
100
AcDbLine
 62
7
  6
CONTINUOUS
 10
737.7903225806
 20
1175.6270856507
 11
2984.7903225806
 21
1175.6270856507
  0
LINE
  5
3DC
100
AcDbEntity
  8
6_ALL_SURFS
100
AcDbLine
 62
7
  6
CONTINUOUS
 10
737.7903225806
 20
1176.2270856507
 11
2984.7903225806
 21
1176.2270856507
  0
LINE
  5
3DD
100
AcDbEntity
  8
6_ALL_SURFS
100
AcDbLine
 62
7
  6
CONTINUOUS
 10
737.7903225806
 20
1178.6270856507
 11
857.5445560717
 21
1178.6270856507
  0
LINE
  5
3DE
100
AcDbEntity
  8
6_ALL_SURFS
100
AcDbLine
 62
7
  6
CONTINUOUS
 10
865.0360890896
 20
1178.6270856507
 11
1107.5445560717
 21
1178.6270856507
  0
LINE
  5
3DF
100
AcDbEntity
  8
6_ALL_SURFS
100
AcDbLine
 62
7
  6
CONTINUOUS
 10
1115.0360890896
 20
1178.6270856507
 11
1357.5445560717
 21
1178.6270856507
  0
LINE
  5
3E0
100
AcDbEntity
  8
6_ALL_SURFS
100
AcDbLine
 62
7
  6
CONTINUOUS
 10
1365.0360890896
 20
1178.6270856507
 11
1607.5445560717
 21
1178.6270856507
  0
LINE
  5
3E1
100
AcDbEntity
  8
6_ALL_SURFS
100
AcDbLine
 62
7
  6
CONTINUOUS
 10
1615.0360890896
 20
1178.6270856507
 11
1857.5445560717
 21
1178.6270856507
  0
LINE
  5
3E2
100
AcDbEntity
  8
6_ALL_SURFS
100
AcDbLine
 62
7
  6
CONTINUOUS
 10
1865.0360890896
 20
1178.6270856507
 11
2107.5445560717
 21
1178.6270856507
  0
LINE
  5
3E3
100
AcDbEntity
  8
6_ALL_SURFS
100
AcDbLine
 62
7
  6
CONTINUOUS
 10
2115.0360890896
 20
1178.6270856507
 11
2357.5445560717
 21
1178.6270856507
  0
LINE
  5
3E4
100
AcDbEntity
  8
6_ALL_SURFS
100
AcDbLine
 62
7
  6
CONTINUOUS
 10
2365.0360890896
 20
1178.6270856507
 11
2607.5445560717
 21
1178.6270856507
  0
LINE
  5
3E5
100
AcDbEntity
  8
6_ALL_SURFS
100
AcDbLine
 62
7
  6
CONTINUOUS
 10
2615.0360890896
 20
1178.6270856507
 11
2857.5445560717
 21
1178.6270856507
  0
LINE
  5
3E6
100
AcDbEntity
  8
6_ALL_SURFS
100
AcDbLine
 62
7
  6
CONTINUOUS
 10
2865.0360890896
 20
1178.6270856507
 11
2984.7903225806
 21
1178.6270856507
  0
LINE
  5
3E7
100
AcDbEntity
  8
6_ALL_SURFS
100
AcDbLine
 62
7
  6
CONTINUOUS
 10
737.7903225806
 20
1179.2270856507
 11
857.1345113795
 21
1179.2270856507
  0
LINE
  5
3E8
100
AcDbEntity
  8
6_ALL_SURFS
100
AcDbLine
 62
7
  6
CONTINUOUS
 10
865.4461337818
 20
1179.2270856507
 11
1107.1345113795
 21
1179.2270856507
  0
LINE
  5
3E9
100
AcDbEntity
  8
6_ALL_SURFS
100
AcDbLine
 62
7
  6
CONTINUOUS
 10
1115.4461337818
 20
1179.2270856507
 11
1357.1345113795
 21
1179.2270856507
  0
LINE
  5
3EA
100
AcDbEntity
  8
6_ALL_SURFS
100
AcDbLine
 62
7
  6
CONTINUOUS
 10
1365.4461337818
 20
1179.2270856507
 11
1607.1345113795
 21
1179.2270856507
  0
LINE
  5
3EB
100
AcDbEntity
  8
6_ALL_SURFS
100
AcDbLine
 62
7
  6
CONTINUOUS
 10
1615.4461337818
 20
1179.2270856507
 11
1857.1345113795
 21
1179.2270856507
  0
LINE
  5
3EC
100
AcDbEntity
  8
6_ALL_SURFS
100
AcDbLine
 62
7
  6
CONTINUOUS
 10
1865.4461337818
 20
1179.2270856507
 11
2107.1345113795
 21
1179.2270856507
  0
LINE
  5
3ED
100
AcDbEntity
  8
6_ALL_SURFS
100
AcDbLine
 62
7
  6
CONTINUOUS
 10
2115.4461337818
 20
1179.2270856507
 11
2357.1345113795
 21
1179.2270856507
  0
LINE
  5
3EE
100
AcDbEntity
  8
6_ALL_SURFS
100
AcDbLine
 62
7
  6
CONTINUOUS
 10
2365.4461337818
 20
1179.2270856507
 11
2607.1345113795
 21
1179.2270856507
  0
LINE
  5
3EF
100
AcDbEntity
  8
6_ALL_SURFS
100
AcDbLine
 62
7
  6
CONTINUOUS
 10
2615.4461337818
 20
1179.2270856507
 11
2857.1345113795
 21
1179.2270856507
  0
LINE
  5
3F0
100
AcDbEntity
  8
6_ALL_SURFS
100
AcDbLine
 62
7
  6
CONTINUOUS
 10
2865.4461337818
 20
1179.2270856507
 11
2984.7903225806
 21
1179.2270856507
  0
LINE
  5
3F1
100
AcDbEntity
  8
6_ALL_SURFS
100
AcDbLine
 62
7
  6
CONTINUOUS
 10
737.7903225806
 20
1181.6270856507
 11
856.491284475
 21
1181.6270856507
  0
LINE
  5
3F2
100
AcDbEntity
  8
6_ALL_SURFS
100
AcDbLine
 62
7
  6
CONTINUOUS
 10
866.0893606863
 20
1181.6270856507
 11
1106.491284475
 21
1181.6270856507
  0
LINE
  5
3F3
100
AcDbEntity
  8
6_ALL_SURFS
100
AcDbLine
 62
7
  6
CONTINUOUS
 10
1116.0893606863
 20
1181.6270856507
 11
1356.491284475
 21
1181.6270856507
  0
LINE
  5
3F4
100
AcDbEntity
  8
6_ALL_SURFS
100
AcDbLine
 62
7
  6
CONTINUOUS
 10
1366.0893606863
 20
1181.6270856507
 11
1606.491284475
 21
1181.6270856507
  0
LINE
  5
3F5
100
AcDbEntity
  8
6_ALL_SURFS
100
AcDbLine
 62
7
  6
CONTINUOUS
 10
1616.0893606863
 20
1181.6270856507
 11
1856.491284475
 21
1181.6270856507
  0
LINE
  5
3F6
100
AcDbEntity
  8
6_ALL_SURFS
100
AcDbLine
 62
7
  6
CONTINUOUS
 10
1866.0893606863
 20
1181.6270856507
 11
2106.491284475
 21
1181.6270856507
  0
LINE
  5
3F7
100
AcDbEntity
  8
6_ALL_SURFS
100
AcDbLine
 62
7
  6
CONTINUOUS
 10
2116.0893606863
 20
1181.6270856507
 11
2356.491284475
 21
1181.6270856507
  0
LINE
  5
3F8
100
AcDbEntity
  8
6_ALL_SURFS
100
AcDbLine
 62
7
  6
CONTINUOUS
 10
2366.0893606863
 20
1181.6270856507
 11
2606.491284475
 21
1181.6270856507
  0
LINE
  5
3F9
100
AcDbEntity
  8
6_ALL_SURFS
100
AcDbLine
 62
7
  6
CONTINUOUS
 10
2616.0893606863
 20
1181.6270856507
 11
2856.491284475
 21
1181.6270856507
  0
LINE
  5
3FA
100
AcDbEntity
  8
6_ALL_SURFS
100
AcDbLine
 62
7
  6
CONTINUOUS
 10
2866.0893606863
 20
1181.6270856507
 11
2984.7903225806
 21
1181.6270856507
  0
LINE
  5
3FB
100
AcDbEntity
  8
6_ALL_SURFS
100
AcDbLine
 62
7
  6
CONTINUOUS
 10
737.7903225806
 20
1182.2270856507
 11
856.5289397206
 21
1182.2270856507
  0
LINE
  5
3FC
100
AcDbEntity
  8
6_ALL_SURFS
100
AcDbLine
 62
7
  6
CONTINUOUS
 10
866.0517054407
 20
1182.2270856507
 11
1106.5289397206
 21
1182.2270856507
  0
LINE
  5
3FD
100
AcDbEntity
  8
6_ALL_SURFS
100
AcDbLine
 62
7
  6
CONTINUOUS
 10
1116.0517054407
 20
1182.2270856507
 11
1356.5289397206
 21
1182.2270856507
  0
LINE
  5
3FE
100
AcDbEntity
  8
6_ALL_SURFS
100
AcDbLine
 62
7
  6
CONTINUOUS
 10
1366.0517054407
 20
1182.2270856507
 11
1606.5289397206
 21
1182.2270856507
  0
LINE
  5
3FF
100
AcDbEntity
  8
6_ALL_SURFS
100
AcDbLine
 62
7
  6
CONTINUOUS
 10
1616.0517054407
 20
1182.2270856507
 11
1856.5289397206
 21
1182.2270856507
  0
LINE
  5
400
100
AcDbEntity
  8
6_ALL_SURFS
100
AcDbLine
 62
7
  6
CONTINUOUS
 10
1866.0517054407
 20
1182.2270856507
 11
2106.5289397206
 21
1182.2270856507
  0
LINE
  5
401
100
AcDbEntity
  8
6_ALL_SURFS
100
AcDbLine
 62
7
  6
CONTINUOUS
 10
2116.0517054407
 20
1182.2270856507
 11
2356.5289397206
 21
1182.2270856507
  0
LINE
  5
402
100
AcDbEntity
  8
6_ALL_SURFS
100
AcDbLine
 62
7
  6
CONTINUOUS
 10
2366.0517054407
 20
1182.2270856507
 11
2606.5289397206
 21
1182.2270856507
  0
LINE
  5
403
100
AcDbEntity
  8
6_ALL_SURFS
100
AcDbLine
 62
7
  6
CONTINUOUS
 10
2616.0517054407
 20
1182.2270856507
 11
2856.5289397206
 21
1182.2270856507
  0
LINE
  5
404
100
AcDbEntity
  8
6_ALL_SURFS
100
AcDbLine
 62
7
  6
CONTINUOUS
 10
2866.0517054407
 20
1182.2270856507
 11
2984.7903225806
 21
1182.2270856507
  0
LINE
  5
405
100
AcDbEntity
  8
6_ALL_SURFS
100
AcDbLine
 62
7
  6
CONTINUOUS
 10
737.7903225806
 20
1185.1270856507
 11
858.0069147869
 21
1185.1270856507
  0
LINE
  5
406
100
AcDbEntity
  8
6_ALL_SURFS
100
AcDbLine
 62
7
  6
CONTINUOUS
 10
864.5737303743
 20
1185.1270856507
 11
1108.0069147869
 21
1185.1270856507
  0
LINE
  5
407
100
AcDbEntity
  8
6_ALL_SURFS
100
AcDbLine
 62
7
  6
CONTINUOUS
 10
1114.5737303743
 20
1185.1270856507
 11
1358.0069147869
 21
1185.1270856507
  0
LINE
  5
408
100
AcDbEntity
  8
6_ALL_SURFS
100
AcDbLine
 62
7
  6
CONTINUOUS
 10
1364.5737303743
 20
1185.1270856507
 11
1608.0069147869
 21
1185.1270856507
  0
LINE
  5
409
100
AcDbEntity
  8
6_ALL_SURFS
100
AcDbLine
 62
7
  6
CONTINUOUS
 10
1614.5737303743
 20
1185.1270856507
 11
1858.0069147869
 21
1185.1270856507
  0
LINE
  5
40A
100
AcDbEntity
  8
6_ALL_SURFS
100
AcDbLine
 62
7
  6
CONTINUOUS
 10
1864.5737303743
 20
1185.1270856507
 11
2108.0069147869
 21
1185.1270856507
  0
LINE
  5
40B
100
AcDbEntity
  8
6_ALL_SURFS
100
AcDbLine
 62
7
  6
CONTINUOUS
 10
2114.5737303743
 20
1185.1270856507
 11
2358.0069147869
 21
1185.1270856507
  0
LINE
  5
40C
100
AcDbEntity
  8
6_ALL_SURFS
100
AcDbLine
 62
7
  6
CONTINUOUS
 10
2364.5737303743
 20
1185.1270856507
 11
2608.0069147869
 21
1185.1270856507
  0
LINE
  5
40D
100
AcDbEntity
  8
6_ALL_SURFS
100
AcDbLine
 62
7
  6
CONTINUOUS
 10
2614.5737303743
 20
1185.1270856507
 11
2858.0069147869
 21
1185.1270856507
  0
LINE
  5
40E
100
AcDbEntity
  8
6_ALL_SURFS
100
AcDbLine
 62
7
  6
CONTINUOUS
 10
2864.5737303743
 20
1185.1270856507
 11
2984.7903225806
 21
1185.1270856507
  0
LINE
  5
40F
100
AcDbEntity
  8
6_ALL_SURFS
100
AcDbLine
 62
9
  6
CONTINUOUS
 10
2984.7903225806
 20
1187.2725572411
 11
737.7903225806
 21
1187.2725572411
  0
LINE
  5
410
100
AcDbEntity
  8
6_ALL_SURFS
100
AcDbLine
 62
7
  6
CONTINUOUS
 10
737.7903225806
 20
1187.6270856507
 11
2984.7903225806
 21
1187.6270856507
  0
LINE
  5
411
100
AcDbEntity
  8
7_ALL_FEATURES
100
AcDbLine
 62
7
  6
CONTINUOUS
 10
2983.5403225806
 20
1165.9270856507
 11
2983.5403225806
 21
1127.2270856507
  0
LINE
  5
412
100
AcDbEntity
  8
7_ALL_FEATURES
100
AcDbLine
 62
7
  6
CONTINUOUS
 10
2984.7903225806
 20
1105.527100867
 11
2984.7903225806
 21
1130.1770856507
  0
LINE
  5
413
100
AcDbEntity
  8
7_ALL_FEATURES
100
AcDbLine
 62
7
  6
CONTINUOUS
 10
2984.7903225806
 20
1130.2062093934
 11
2984.7903225806
 21
1147.9770856507
  0
LINE
  5
414
100
AcDbEntity
  8
6_ALL_SURFS
100
AcDbLine
 62
7
  6
CONTINUOUS
 10
2984.7903225806
 20
1147.9770856507
 11
2984.7903225806
 21
1162.9479619081
  0
LINE
  5
415
100
AcDbEntity
  8
6_ALL_SURFS
100
AcDbLine
 62
7
  6
CONTINUOUS
 10
2984.7903225806
 20
1162.9770856507
 11
2984.7903225806
 21
1187.6270704344
  0
ARC
  5
416
100
AcDbEntity
  8
6_ALL_SURFS
100
AcDbCircle
 62
7
  6
CONTINUOUS
 10
276.5195773081
 20
761.1492769744
 40
0.5
100
AcDbArc
 50
53.1301023542
 51
126.8698976458
  0
ARC
  5
417
100
AcDbEntity
  8
6_ALL_SURFS
100
AcDbCircle
 62
7
  6
CONTINUOUS
 10
273.5195773081
 20
761.1492769744
 40
0.5
100
AcDbArc
 50
53.1301023542
 51
126.8698976458
  0
ARC
  5
418
100
AcDbEntity
  8
6_ALL_SURFS
100
AcDbCircle
 62
7
  6
CONTINUOUS
 10
270.5195773081
 20
761.1492769744
 40
0.5
100
AcDbArc
 50
53.1301023542
 51
126.8698976458
  0
ARC
  5
419
100
AcDbEntity
  8
6_ALL_SURFS
100
AcDbCircle
 62
7
  6
CONTINUOUS
 10
265.213280666
 20
762.1555736165
 40
0.3937033579
100
AcDbArc
 50
90.0
 51
264.2894068625
  0
ARC
  5
41A
100
AcDbEntity
  8
6_ALL_SURFS
100
AcDbCircle
 62
7
  6
CONTINUOUS
 10
286.3695773081
 20
774.0512029046
 40
2.15
100
AcDbArc
 50
146.6800806294
 51
213.3199193706
  0
ARC
  5
41B
100
AcDbEntity
  8
6_ALL_SURFS
100
AcDbCircle
 62
7
  6
CONTINUOUS
 10
283.3195773081
 20
772.046209139
 40
1.5
100
AcDbArc
 50
0.0
 51
33.3199193706
  0
ARC
  5
41C
100
AcDbEntity
  8
6_ALL_SURFS
100
AcDbCircle
 62
7
  6
CONTINUOUS
 10
286.3695773081
 20
774.0512029046
 40
0.65
100
AcDbArc
 50
111.6182724222
 51
248.3817275778
  0
ARC
  5
41D
100
AcDbEntity
  8
6_ALL_SURFS
100
AcDbCircle
 62
7
  6
CONTINUOUS
 10
282.5195773081
 20
761.1492769744
 40
0.5
100
AcDbArc
 50
53.1301023542
 51
126.8698976458
  0
ARC
  5
41E
100
AcDbEntity
  8
6_ALL_SURFS
100
AcDbCircle
 62
7
  6
CONTINUOUS
 10
279.5195773081
 20
761.1492769744
 40
0.5
100
AcDbArc
 50
53.1301023542
 51
126.8698976458
  0
ARC
  5
41F
100
AcDbEntity
  8
6_ALL_SURFS
100
AcDbCircle
 62
7
  6
CONTINUOUS
 10
284.5195773081
 20
762.8492769744
 40
0.3
100
AcDbArc
 50
270.0
 51
360.0
  0
ARC
  5
420
100
AcDbEntity
  8
6_ALL_SURFS
100
AcDbCircle
 62
7
  6
CONTINUOUS
 10
284.7695773081
 20
761.2492769744
 40
0.3
100
AcDbArc
 50
0.0
 51
90.0
  0
ARC
  5
421
100
AcDbEntity
  8
6_ALL_SURFS
100
AcDbCircle
 62
7
  6
CONTINUOUS
 10
286.0195773081
 20
773.1680268179
 40
0.3
100
AcDbArc
 50
0.0
 51
68.3817275778
  0
ARC
  5
422
100
AcDbEntity
  8
6_ALL_SURFS
100
AcDbCircle
 62
7
  6
CONTINUOUS
 10
286.0195773081
 20
760.3492769744
 40
0.3
100
AcDbArc
 50
270.0
 51
360.0
  0
ARC
  5
423
100
AcDbEntity
  8
6_ALL_SURFS
100
AcDbCircle
 62
7
  6
CONTINUOUS
 10
285.3695773081
 20
760.3492769744
 40
0.3
100
AcDbArc
 50
180.0
 51
270.0
  0
ARC
  5
424
100
AcDbEntity
  8
6_ALL_SURFS
100
AcDbCircle
 62
7
  6
CONTINUOUS
 10
286.6695773081
 20
785.1492769744
 40
2.0
100
AcDbArc
 50
180.0
 51
270.0
  0
ARC
  5
425
100
AcDbEntity
  8
6_ALL_SURFS
100
AcDbCircle
 62
7
  6
CONTINUOUS
 10
286.6695773081
 20
786.9492769744
 40
2.0
100
AcDbArc
 50
90.0
 51
180.0
  0
ARC
  5
426
100
AcDbEntity
  8
7_ALL_FEATURES
100
AcDbCircle
 62
7
  6
CONTINUOUS
 10
286.7695773081
 20
776.8692769744
 40
1.8
100
AcDbArc
 50
0.0
 51
57.1401196212
  0
ARC
  5
427
100
AcDbEntity
  8
6_ALL_SURFS
100
AcDbCircle
 62
7
  6
CONTINUOUS
 10
283.3195773081
 20
776.0561966702
 40
1.5
100
AcDbArc
 50
326.6800806294
 51
360.0
  0
ARC
  5
428
100
AcDbEntity
  8
6_ALL_SURFS
100
AcDbCircle
 62
7
  6
CONTINUOUS
 10
286.3195773081
 20
778.7617764254
 40
1.5
100
AcDbArc
 50
137.0
 51
180.0
  0
ARC
  5
429
100
AcDbEntity
  8
6_ALL_SURFS
100
AcDbCircle
 62
7
  6
CONTINUOUS
 10
287.5695773081
 20
786.0492769744
 40
1.3
100
AcDbArc
 50
40.8069228749
 51
319.1930771251
  0
ARC
  5
42A
100
AcDbEntity
  8
7_ALL_FEATURES
100
AcDbCircle
 62
7
  6
CONTINUOUS
 10
287.8547501054
 20
778.5492769744
 40
1.0
100
AcDbArc
 50
137.0
 51
237.140119621
  0
ARC
  5
42B
100
AcDbEntity
  8
7_ALL_FEATURES
100
AcDbCircle
 62
7
  6
CONTINUOUS
 10
286.7695773081
 20
776.8692769744
 40
1.0
100
AcDbArc
 50
0.0
 51
57.1401196213
  0
ARC
  5
42C
100
AcDbEntity
  8
7_ALL_FEATURES
100
AcDbCircle
 62
7
  6
CONTINUOUS
 10
287.7803656977
 20
779.3492769744
 40
0.4
100
AcDbArc
 50
317.0
 51
136.9999999971
  0
ARC
  5
42D
100
AcDbEntity
  8
6_ALL_SURFS
100
AcDbCircle
 62
7
  6
CONTINUOUS
 10
286.6195773081
 20
775.5974406968
 40
0.3
100
AcDbArc
 50
142.5
 51
180.0
  0
ARC
  5
42E
100
AcDbEntity
  8
6_ALL_SURFS
100
AcDbCircle
 62
7
  6
CONTINUOUS
 10
288.3500210206
 20
780.4992769744
 40
0.3
100
AcDbArc
 50
90.0
 51
137.0
  0
ARC
  5
42F
100
AcDbEntity
  8
6_ALL_SURFS
100
AcDbCircle
 62
7
  6
CONTINUOUS
 10
286.6195773081
 20
778.6436032827
 40
0.3
100
AcDbArc
 50
137.0
 51
180.0
  0
ARC
  5
430
100
AcDbEntity
  8
6_ALL_SURFS
100
AcDbCircle
 62
7
  6
CONTINUOUS
 10
286.6195773081
 20
777.8492769744
 40
0.3
100
AcDbArc
 50
180.0
 51
270.0
  0
ARC
  5
431
100
AcDbEntity
  8
6_ALL_SURFS
100
AcDbCircle
 62
7
  6
CONTINUOUS
 10
287.5695773081
 20
789.2492769744
 40
0.3
100
AcDbArc
 50
270.0
 51
360.0
  0
ARC
  5
432
100
AcDbEntity
  8
6_ALL_SURFS
100
AcDbCircle
 62
7
  6
CONTINUOUS
 10
287.4195773081
 20
782.8492769744
 40
0.3
100
AcDbArc
 50
0.0
 51
90.0
  0
ARC
  5
433
100
AcDbEntity
  8
6_ALL_SURFS
100
AcDbCircle
 62
7
  6
CONTINUOUS
 10
287.4195773081
 20
782.5806845405
 40
0.3
100
AcDbArc
 50
317.0
 51
360.0
  0
ARC
  5
434
100
AcDbEntity
  8
6_ALL_SURFS
100
AcDbCircle
 62
7
  6
CONTINUOUS
 10
289.1695773081
 20
787.3194475666
 40
0.3
100
AcDbArc
 50
300.0
 51
360.0
  0
ARC
  5
435
100
AcDbEntity
  8
6_ALL_SURFS
100
AcDbCircle
 62
7
  6
CONTINUOUS
 10
288.780643067
 20
787.0948962778
 40
0.3
100
AcDbArc
 50
220.8069228749
 51
300.0
  0
ARC
  5
436
100
AcDbEntity
  8
6_ALL_SURFS
100
AcDbCircle
 62
7
  6
CONTINUOUS
 10
288.780643067
 20
785.003657671
 40
0.3
100
AcDbArc
 50
60.0
 51
139.1930771251
  0
ARC
  5
437
100
AcDbEntity
  8
6_ALL_SURFS
100
AcDbCircle
 62
7
  6
CONTINUOUS
 10
289.1695773081
 20
784.7791063822
 40
0.3
100
AcDbArc
 50
0.0
 51
60.0
  0
ARC
  5
438
100
AcDbEntity
  8
6_ALL_SURFS
100
AcDbCircle
 62
7
  6
CONTINUOUS
 10
289.1695773081
 20
781.0992769744
 40
0.3
100
AcDbArc
 50
270.0
 51
360.0
  0
ARC
  5
439
100
AcDbEntity
  8
6_ALL_SURFS
100
AcDbCircle
 62
7
  6
CONTINUOUS
 10
286.0195773081
 20
774.9343789912
 40
0.3
100
AcDbArc
 50
291.6182724222
 51
360.0
  0
ARC
  5
43A
100
AcDbEntity
  8
7_ALL_FEATURES
100
AcDbCircle
 62
7
  6
CONTINUOUS
 10
288.7695773081
 20
776.3492769744
 40
0.2
100
AcDbArc
 50
180.0
 51
270.0
  0
ARC
  5
43B
100
AcDbEntity
  8
7_ALL_FEATURES
100
AcDbCircle
 62
7
  6
CONTINUOUS
 10
287.8547501054
 20
778.5492769744
 40
0.2
100
AcDbArc
 50
136.9999999886
 51
237.1401196205
  0
ARC
  5
43C
100
AcDbEntity
  8
7_ALL_FEATURES
100
AcDbCircle
 62
7
  6
CONTINUOUS
 10
287.5695773081
 20
776.2492769744
 40
0.2
100
AcDbArc
 50
270.0
 51
360.0
  0
ARC
  5
43D
100
AcDbEntity
  8
7_ALL_FEATURES
100
AcDbCircle
 62
7
  6
CONTINUOUS
 10
286.7195773081
 20
775.8492769744
 40
0.2
100
AcDbArc
 50
90.0
 51
180.0
  0
ARC
  5
43E
100
AcDbEntity
  8
7_ALL_FEATURES
100
AcDbCircle
 62
7
  6
CONTINUOUS
 10
286.7195773081
 20
775.2492769744
 40
0.2
100
AcDbArc
 50
180.0
 51
270.0
  0
ARC
  5
43F
100
AcDbEntity
  8
6_ALL_SURFS
100
AcDbCircle
 62
7
  6
CONTINUOUS
 10
287.3335723555
 20
777.3492769744
 40
0.2
100
AcDbArc
 50
322.5
 51
90.0
  0
ARC
  5
440
100
AcDbEntity
  8
6_ALL_SURFS
100
AcDbCircle
 62
7
  6
CONTINUOUS
 10
286.2118826542
 20
850.1661341669
 40
5.0
100
AcDbArc
 50
347.5
 51
10.9613346964
  0
ARC
  5
441
100
AcDbEntity
  8
6_ALL_SURFS
100
AcDbCircle
 62
7
  6
CONTINUOUS
 10
292.8695773081
 20
833.9947909037
 40
5.0
100
AcDbArc
 50
167.5
 51
180.0
  0
ARC
  5
442
100
AcDbEntity
  8
6_ALL_SURFS
100
AcDbCircle
 62
7
  6
CONTINUOUS
 10
293.8695773081
 20
851.6492769744
 40
2.8
100
AcDbArc
 50
153.152786674
 51
190.9613346964
  0
ARC
  5
443
100
AcDbEntity
  8
6_ALL_SURFS
100
AcDbCircle
 62
7
  6
CONTINUOUS
 10
293.8695773081
 20
851.6492769744
 40
2.8
100
AcDbArc
 50
330.0
 51
360.0
  0
ARC
  5
444
100
AcDbEntity
  8
6_ALL_SURFS
100
AcDbCircle
 62
7
  6
CONTINUOUS
 10
304.0695773081
 20
853.0492769744
 40
1.8
100
AcDbArc
 50
90.0
 51
180.0
  0
ARC
  5
445
100
AcDbEntity
  8
6_ALL_SURFS
100
AcDbCircle
 62
7
  6
CONTINUOUS
 10
293.8695773081
 20
851.6492769744
 40
1.3
100
AcDbArc
 50
130.8069228749
 51
49.1930771251
  0
ARC
  5
446
100
AcDbEntity
  8
6_ALL_SURFS
100
AcDbCircle
 62
7
  6
CONTINUOUS
 10
293.2721621598
 20
846.8992769744
 40
1.0
100
AcDbArc
 50
90.0
 51
167.5
  0
ARC
  5
447
100
AcDbEntity
  8
6_ALL_SURFS
100
AcDbCircle
 62
7
  6
CONTINUOUS
 10
290.4695773081
 20
832.517085773
 40
1.0
100
AcDbArc
 50
160.0
 51
180.0
  0
ARC
  5
448
100
AcDbEntity
  8
6_ALL_SURFS
100
AcDbCircle
 62
7
  6
CONTINUOUS
 10
296.7274611406
 20
849.9992769744
 40
0.5
100
AcDbArc
 50
150.0
 51
270.0
  0
ARC
  5
449
100
AcDbEntity
  8
6_ALL_SURFS
100
AcDbCircle
 62
7
  6
CONTINUOUS
 10
290.3695773081
 20
853.8492769744
 40
0.5
100
AcDbArc
 50
180.0
 51
270.0
  0
ARC
  5
44A
100
AcDbEntity
  8
6_ALL_SURFS
100
AcDbCircle
 62
7
  6
CONTINUOUS
 10
291.1037139709
 20
853.0492769744
 40
0.3
100
AcDbArc
 50
333.152786674
 51
90.0
  0
ARC
  5
44B
100
AcDbEntity
  8
6_ALL_SURFS
100
AcDbCircle
 62
7
  6
CONTINUOUS
 10
301.9695773081
 20
849.7992769744
 40
0.3
100
AcDbArc
 50
270.0
 51
360.0
  0
ARC
  5
44C
100
AcDbEntity
  8
6_ALL_SURFS
100
AcDbCircle
 62
7
  6
CONTINUOUS
 10
304.4695773081
 20
852.9492769744
 40
0.3
100
AcDbArc
 50
90.0
 51
180.0
  0
ARC
  5
44D
100
AcDbEntity
  8
6_ALL_SURFS
100
AcDbCircle
 62
7
  6
CONTINUOUS
 10
289.8092415654
 20
834.5132100227
 40
0.3
100
AcDbArc
 50
167.5
 51
239.0362434679
  0
ARC
  5
44E
100
AcDbEntity
  8
6_ALL_SURFS
100
AcDbCircle
 62
7
  6
CONTINUOUS
 10
303.8695773081
 20
848.1992769744
 40
0.3
100
AcDbArc
 50
270.0
 51
360.0
  0
ARC
  5
44F
100
AcDbEntity
  8
6_ALL_SURFS
100
AcDbCircle
 62
7
  6
CONTINUOUS
 10
289.6030331078
 20
833.9372208699
 40
0.3
100
AcDbArc
 50
340.0
 51
59.0362434679
  0
ARC
  5
450
100
AcDbEntity
  8
6_ALL_SURFS
100
AcDbCircle
 62
7
  6
CONTINUOUS
 10
290.1695773081
 20
854.5492769744
 40
0.3
100
AcDbArc
 50
90.0
 51
180.0
  0
ARC
  5
451
100
AcDbEntity
  8
6_ALL_SURFS
100
AcDbCircle
 62
7
  6
CONTINUOUS
 10
291.848851366
 20
854.5492769744
 40
0.3
100
AcDbArc
 50
30.0
 51
90.0
  0
ARC
  5
452
100
AcDbEntity
  8
6_ALL_SURFS
100
AcDbCircle
 62
7
  6
CONTINUOUS
 10
292.8239580047
 20
852.8603427333
 40
0.3
100
AcDbArc
 50
310.8069228749
 51
30.0
  0
ARC
  5
453
100
AcDbEntity
  8
6_ALL_SURFS
100
AcDbCircle
 62
7
  6
CONTINUOUS
 10
294.9151966115
 20
852.8603427333
 40
0.3
100
AcDbArc
 50
150.0
 51
229.1930771252
  0
ARC
  5
454
100
AcDbEntity
  8
6_ALL_SURFS
100
AcDbCircle
 62
7
  6
CONTINUOUS
 10
295.8903032503
 20
854.5492769744
 40
0.3
100
AcDbArc
 50
90.0
 51
150.0
  0
ARC
  5
455
100
AcDbEntity
  8
6_ALL_SURFS
100
AcDbCircle
 62
7
  6
CONTINUOUS
 10
296.3695773081
 20
854.5492769744
 40
0.3
100
AcDbArc
 50
0.0
 51
90.0
  0
ARC
  5
456
100
AcDbEntity
  8
7_ALL_FEATURES
100
AcDbCircle
 62
7
  6
CONTINUOUS
 10
325.3695773081
 20
774.0512029046
 40
2.15
100
AcDbArc
 50
326.6800806294
 51
33.3199193706
  0
ARC
  5
457
100
AcDbEntity
  8
7_ALL_FEATURES
100
AcDbCircle
 62
7
  6
CONTINUOUS
 10
328.4195773081
 20
772.046209139
 40
1.5
100
AcDbArc
 50
146.6800806294
 51
180.0
  0
ARC
  5
458
100
AcDbEntity
  8
7_ALL_FEATURES
100
AcDbCircle
 62
7
  6
CONTINUOUS
 10
325.3695773081
 20
774.0512029046
 40
0.65
100
AcDbArc
 50
291.6182724222
 51
68.3817275778
  0
ARC
  5
459
100
AcDbEntity
  8
7_ALL_FEATURES
100
AcDbCircle
 62
7
  6
CONTINUOUS
 10
332.2195773081
 20
761.1492769744
 40
0.5
100
AcDbArc
 50
53.1301023542
 51
126.8698976458
  0
ARC
  5
45A
100
AcDbEntity
  8
7_ALL_FEATURES
100
AcDbCircle
 62
7
  6
CONTINUOUS
 10
329.2195773081
 20
761.1492769744
 40
0.5
100
AcDbArc
 50
53.1301023542
 51
126.8698976458
  0
ARC
  5
45B
100
AcDbEntity
  8
7_ALL_FEATURES
100
AcDbCircle
 62
7
  6
CONTINUOUS
 10
327.2195773081
 20
762.8492769744
 40
0.3
100
AcDbArc
 50
180.0
 51
270.0
  0
ARC
  5
45C
100
AcDbEntity
  8
7_ALL_FEATURES
100
AcDbCircle
 62
7
  6
CONTINUOUS
 10
326.9695773081
 20
761.2492769744
 40
0.3
100
AcDbArc
 50
90.0
 51
180.0
  0
ARC
  5
45D
100
AcDbEntity
  8
7_ALL_FEATURES
100
AcDbCircle
 62
7
  6
CONTINUOUS
 10
326.3695773081
 20
760.3492769744
 40
0.3
100
AcDbArc
 50
270.0
 51
360.0
  0
ARC
  5
45E
100
AcDbEntity
  8
7_ALL_FEATURES
100
AcDbCircle
 62
7
  6
CONTINUOUS
 10
325.7195773081
 20
760.3492769744
 40
0.3
100
AcDbArc
 50
180.0
 51
270.0
  0
ARC
  5
45F
100
AcDbEntity
  8
7_ALL_FEATURES
100
AcDbCircle
 62
7
  6
CONTINUOUS
 10
325.7195773081
 20
773.1680268179
 40
0.3
100
AcDbArc
 50
111.6182724222
 51
180.0
  0
ARC
  5
460
100
AcDbEntity
  8
7_ALL_FEATURES
100
AcDbCircle
 62
7
  6
CONTINUOUS
 10
325.0695773081
 20
786.9492769744
 40
2.0
100
AcDbArc
 50
0.0
 51
90.0
  0
ARC
  5
461
100
AcDbEntity
  8
7_ALL_FEATURES
100
AcDbCircle
 62
7
  6
CONTINUOUS
 10
325.0695773081
 20
785.1492769744
 40
2.0
100
AcDbArc
 50
270.0
 51
360.0
  0
ARC
  5
462
100
AcDbEntity
  8
7_ALL_FEATURES
100
AcDbCircle
 62
7
  6
CONTINUOUS
 10
324.9695773081
 20
776.8692769744
 40
1.8
100
AcDbArc
 50
122.8598803788
 51
180.0
  0
ARC
  5
463
100
AcDbEntity
  8
7_ALL_FEATURES
100
AcDbCircle
 62
7
  6
CONTINUOUS
 10
328.4195773081
 20
776.0561966702
 40
1.5
100
AcDbArc
 50
180.0
 51
213.3199193706
  0
ARC
  5
464
100
AcDbEntity
  8
7_ALL_FEATURES
100
AcDbCircle
 62
7
  6
CONTINUOUS
 10
325.4195773081
 20
778.7617764254
 40
1.5
100
AcDbArc
 50
0.0
 51
43.0
  0
ARC
  5
465
100
AcDbEntity
  8
7_ALL_FEATURES
100
AcDbCircle
 62
7
  6
CONTINUOUS
 10
324.1695773081
 20
786.0492769744
 40
1.3
100
AcDbArc
 50
220.8069228749
 51
139.1930771252
  0
ARC
  5
466
100
AcDbEntity
  8
7_ALL_FEATURES
100
AcDbCircle
 62
7
  6
CONTINUOUS
 10
324.9695773081
 20
776.8692769744
 40
1.0
100
AcDbArc
 50
122.8598803789
 51
180.0
  0
ARC
  5
467
100
AcDbEntity
  8
7_ALL_FEATURES
100
AcDbCircle
 62
7
  6
CONTINUOUS
 10
323.8844045108
 20
778.5492769744
 40
1.0
100
AcDbArc
 50
302.8598803789
 51
43.0
  0
ARC
  5
468
100
AcDbEntity
  8
7_ALL_FEATURES
100
AcDbCircle
 62
7
  6
CONTINUOUS
 10
323.9587889186
 20
779.3492769744
 40
0.4
100
AcDbArc
 50
42.9999999998
 51
223.0000000001
  0
ARC
  5
469
100
AcDbEntity
  8
7_ALL_FEATURES
100
AcDbCircle
 62
7
  6
CONTINUOUS
 10
325.1195773081
 20
775.5974406968
 40
0.3
100
AcDbArc
 50
0.0
 51
37.5
  0
ARC
  5
46A
100
AcDbEntity
  8
7_ALL_FEATURES
100
AcDbCircle
 62
7
  6
CONTINUOUS
 10
323.3891335956
 20
780.4992769744
 40
0.3
100
AcDbArc
 50
43.0
 51
90.0
  0
ARC
  5
46B
100
AcDbEntity
  8
7_ALL_FEATURES
100
AcDbCircle
 62
7
  6
CONTINUOUS
 10
325.1195773081
 20
778.6436032827
 40
0.3
100
AcDbArc
 50
0.0
 51
43.0
  0
ARC
  5
46C
100
AcDbEntity
  8
7_ALL_FEATURES
100
AcDbCircle
 62
7
  6
CONTINUOUS
 10
325.1195773081
 20
777.8492769744
 40
0.3
100
AcDbArc
 50
270.0
 51
360.0
  0
ARC
  5
46D
100
AcDbEntity
  8
7_ALL_FEATURES
100
AcDbCircle
 62
7
  6
CONTINUOUS
 10
324.1695773081
 20
789.2492769744
 40
0.3
100
AcDbArc
 50
180.0
 51
270.0
  0
ARC
  5
46E
100
AcDbEntity
  8
7_ALL_FEATURES
100
AcDbCircle
 62
7
  6
CONTINUOUS
 10
324.3195773081
 20
782.8492769744
 40
0.3
100
AcDbArc
 50
90.0
 51
180.0
  0
ARC
  5
46F
100
AcDbEntity
  8
7_ALL_FEATURES
100
AcDbCircle
 62
7
  6
CONTINUOUS
 10
324.3195773081
 20
782.5806845405
 40
0.3
100
AcDbArc
 50
180.0
 51
223.0
  0
ARC
  5
470
100
AcDbEntity
  8
7_ALL_FEATURES
100
AcDbCircle
 62
7
  6
CONTINUOUS
 10
325.7195773081
 20
774.9343789912
 40
0.3
100
AcDbArc
 50
180.0
 51
248.3817275778
  0
ARC
  5
471
100
AcDbEntity
  8
7_ALL_FEATURES
100
AcDbCircle
 62
7
  6
CONTINUOUS
 10
322.5695773081
 20
781.0992769744
 40
0.3
100
AcDbArc
 50
180.0
 51
270.0
  0
ARC
  5
472
100
AcDbEntity
  8
7_ALL_FEATURES
100
AcDbCircle
 62
7
  6
CONTINUOUS
 10
322.5695773081
 20
784.7791063822
 40
0.3
100
AcDbArc
 50
120.0
 51
180.0
  0
ARC
  5
473
100
AcDbEntity
  8
7_ALL_FEATURES
100
AcDbCircle
 62
7
  6
CONTINUOUS
 10
322.9585115492
 20
785.003657671
 40
0.3
100
AcDbArc
 50
40.8069228749
 51
120.0
  0
ARC
  5
474
100
AcDbEntity
  8
7_ALL_FEATURES
100
AcDbCircle
 62
7
  6
CONTINUOUS
 10
322.9585115492
 20
787.0948962778
 40
0.3
100
AcDbArc
 50
240.0
 51
319.1930771251
  0
ARC
  5
475
100
AcDbEntity
  8
7_ALL_FEATURES
100
AcDbCircle
 62
7
  6
CONTINUOUS
 10
322.5695773081
 20
787.3194475666
 40
0.3
100
AcDbArc
 50
180.0
 51
240.0
  0
ARC
  5
476
100
AcDbEntity
  8
7_ALL_FEATURES
100
AcDbCircle
 62
7
  6
CONTINUOUS
 10
325.0195773081
 20
775.2492769744
 40
0.2
100
AcDbArc
 50
270.0
 51
360.0
  0
ARC
  5
477
100
AcDbEntity
  8
7_ALL_FEATURES
100
AcDbCircle
 62
7
  6
CONTINUOUS
 10
325.0195773081
 20
775.8492769744
 40
0.2
100
AcDbArc
 50
0.0
 51
90.0
  0
ARC
  5
478
100
AcDbEntity
  8
7_ALL_FEATURES
100
AcDbCircle
 62
7
  6
CONTINUOUS
 10
324.1695773081
 20
776.2492769744
 40
0.2
100
AcDbArc
 50
180.0
 51
270.0
  0
ARC
  5
479
100
AcDbEntity
  8
7_ALL_FEATURES
100
AcDbCircle
 62
7
  6
CONTINUOUS
 10
323.8844045108
 20
778.5492769744
 40
0.2
100
AcDbArc
 50
302.8598803795
 51
43.0000000114
  0
ARC
  5
47A
100
AcDbEntity
  8
7_ALL_FEATURES
100
AcDbCircle
 62
7
  6
CONTINUOUS
 10
322.9695773081
 20
776.3492769744
 40
0.2
100
AcDbArc
 50
270.0
 51
360.0
  0
ARC
  5
47B
100
AcDbEntity
  8
7_ALL_FEATURES
100
AcDbCircle
 62
7
  6
CONTINUOUS
 10
324.4055822608
 20
777.3492769744
 40
0.2
100
AcDbArc
 50
90.0
 51
217.5
  0
ARC
  5
47C
100
AcDbEntity
  8
7_ALL_FEATURES
100
AcDbCircle
 62
7
  6
CONTINUOUS
 10
341.2195773081
 20
761.1492769744
 40
0.5
100
AcDbArc
 50
53.1301023542
 51
126.8698976458
  0
ARC
  5
47D
100
AcDbEntity
  8
7_ALL_FEATURES
100
AcDbCircle
 62
7
  6
CONTINUOUS
 10
338.2195773081
 20
761.1492769744
 40
0.5
100
AcDbArc
 50
53.1301023542
 51
126.8698976458
  0
ARC
  5
47E
100
AcDbEntity
  8
7_ALL_FEATURES
100
AcDbCircle
 62
7
  6
CONTINUOUS
 10
335.2195773081
 20
761.1492769744
 40
0.5
100
AcDbArc
 50
53.1301023542
 51
126.8698976458
  0
ARC
  5
47F
100
AcDbEntity
  8
7_ALL_FEATURES
100
AcDbCircle
 62
7
  6
CONTINUOUS
 10
346.5258739502
 20
762.1555736165
 40
0.3937033579
100
AcDbArc
 50
275.7105931375
 51
90.0
  0
ARC
  5
480
100
AcDbEntity
  8
7_ALL_FEATURES
100
AcDbCircle
 62
7
  6
CONTINUOUS
 10
305.8695773081
 20
851.7992769744
 40
8.0
100
AcDbArc
 50
284.4775121859
 51
300.0
  0
ARC
  5
481
100
AcDbEntity
  8
7_ALL_FEATURES
100
AcDbCircle
 62
7
  6
CONTINUOUS
 10
305.8695773081
 20
851.7992769744
 40
8.0
100
AcDbArc
 50
240.0
 51
255.5224878141
  0
ARC
  5
482
100
AcDbEntity
  8
7_ALL_FEATURES
100
AcDbCircle
 62
7
  6
CONTINUOUS
 10
305.8695773081
 20
851.7992769744
 40
7.9843597113
100
AcDbArc
 50
255.4935070353
 51
266.4096498625
  0
ARC
  5
483
100
AcDbEntity
  8
7_ALL_FEATURES
100
AcDbCircle
 62
7
  6
CONTINUOUS
 10
305.8695773081
 20
851.7992769744
 40
7.9843597113
100
AcDbArc
 50
273.5903501375
 51
284.5064929647
  0
ARC
  5
484
100
AcDbEntity
  8
7_ALL_FEATURES
100
AcDbCircle
 62
7
  6
CONTINUOUS
 10
305.8695773081
 20
851.7992769744
 40
7.7459666924
100
AcDbArc
 50
266.2990001561
 51
273.7009998439
  0
ARC
  5
485
100
AcDbEntity
  8
7_ALL_FEATURES
100
AcDbCircle
 62
7
  6
CONTINUOUS
 10
325.527271962
 20
850.1661341669
 40
5.0
100
AcDbArc
 50
169.0386653036
 51
192.5
  0
ARC
  5
486
100
AcDbEntity
  8
7_ALL_FEATURES
100
AcDbCircle
 62
7
  6
CONTINUOUS
 10
318.8695773081
 20
833.9947909037
 40
5.0
100
AcDbArc
 50
0.0
 51
12.5
  0
ARC
  5
487
100
AcDbEntity
  8
7_ALL_FEATURES
100
AcDbCircle
 62
7
  6
CONTINUOUS
 10
317.8695773081
 20
851.6492769744
 40
2.8
100
AcDbArc
 50
180.0
 51
210.0
  0
ARC
  5
488
100
AcDbEntity
  8
7_ALL_FEATURES
100
AcDbCircle
 62
7
  6
CONTINUOUS
 10
317.8695773081
 20
851.6492769744
 40
2.8
100
AcDbArc
 50
349.0386653036
 51
26.847213326
  0
ARC
  5
489
100
AcDbEntity
  8
7_ALL_FEATURES
100
AcDbCircle
 62
7
  6
CONTINUOUS
 10
307.6695773081
 20
853.0492769744
 40
1.8
100
AcDbArc
 50
0.0
 51
90.0
  0
ARC
  5
48A
100
AcDbEntity
  8
7_ALL_FEATURES
100
AcDbCircle
 62
7
  6
CONTINUOUS
 10
317.8695773081
 20
851.6492769744
 40
1.3
100
AcDbArc
 50
130.8069228749
 51
49.1930771251
  0
ARC
  5
48B
100
AcDbEntity
  8
7_ALL_FEATURES
100
AcDbCircle
 62
7
  6
CONTINUOUS
 10
318.4669924564
 20
846.8992769744
 40
1.0
100
AcDbArc
 50
12.5
 51
90.0
  0
ARC
  5
48C
100
AcDbEntity
  8
7_ALL_FEATURES
100
AcDbCircle
 62
7
  6
CONTINUOUS
 10
321.2695773081
 20
832.517085773
 40
1.0
100
AcDbArc
 50
0.0
 51
20.0
  0
ARC
  5
48D
100
AcDbEntity
  8
7_ALL_FEATURES
100
AcDbCircle
 62
7
  6
CONTINUOUS
 10
315.0116934756
 20
849.9992769744
 40
0.5
100
AcDbArc
 50
270.0
 51
30.0
  0
ARC
  5
48E
100
AcDbEntity
  8
7_ALL_FEATURES
100
AcDbCircle
 62
7
  6
CONTINUOUS
 10
321.3695773081
 20
853.8492769744
 40
0.5
100
AcDbArc
 50
270.0
 51
360.0
  0
ARC
  5
48F
100
AcDbEntity
  8
7_ALL_FEATURES
100
AcDbCircle
 62
7
  6
CONTINUOUS
 10
320.6354406453
 20
853.0492769744
 40
0.3
100
AcDbArc
 50
90.0
 51
206.847213326
  0
ARC
  5
490
100
AcDbEntity
  8
7_ALL_FEATURES
100
AcDbCircle
 62
7
  6
CONTINUOUS
 10
309.7695773081
 20
849.7992769744
 40
0.3
100
AcDbArc
 50
180.0
 51
270.0
  0
ARC
  5
491
100
AcDbEntity
  8
7_ALL_FEATURES
100
AcDbCircle
 62
7
  6
CONTINUOUS
 10
307.2695773081
 20
852.9492769744
 40
0.3
100
AcDbArc
 50
0.0
 51
90.0
  0
ARC
  5
492
100
AcDbEntity
  8
7_ALL_FEATURES
100
AcDbCircle
 62
7
  6
CONTINUOUS
 10
321.9299130508
 20
834.5132100227
 40
0.3
100
AcDbArc
 50
300.9637565321
 51
12.5
  0
ARC
  5
493
100
AcDbEntity
  8
7_ALL_FEATURES
100
AcDbCircle
 62
7
  6
CONTINUOUS
 10
315.3695773081
 20
854.5492769744
 40
0.3
100
AcDbArc
 50
90.0
 51
180.0
  0
ARC
  5
494
100
AcDbEntity
  8
7_ALL_FEATURES
100
AcDbCircle
 62
7
  6
CONTINUOUS
 10
315.848851366
 20
854.5492769744
 40
0.3
100
AcDbArc
 50
30.0
 51
90.0
  0
ARC
  5
495
100
AcDbEntity
  8
7_ALL_FEATURES
100
AcDbCircle
 62
7
  6
CONTINUOUS
 10
316.8239580047
 20
852.8603427333
 40
0.3
100
AcDbArc
 50
310.8069228748
 51
30.0
  0
ARC
  5
496
100
AcDbEntity
  8
7_ALL_FEATURES
100
AcDbCircle
 62
7
  6
CONTINUOUS
 10
318.9151966115
 20
852.8603427333
 40
0.3
100
AcDbArc
 50
150.0
 51
229.1930771251
  0
ARC
  5
497
100
AcDbEntity
  8
7_ALL_FEATURES
100
AcDbCircle
 62
7
  6
CONTINUOUS
 10
319.8903032503
 20
854.5492769744
 40
0.3
100
AcDbArc
 50
90.0
 51
150.0
  0
ARC
  5
498
100
AcDbEntity
  8
7_ALL_FEATURES
100
AcDbCircle
 62
7
  6
CONTINUOUS
 10
321.5695773081
 20
854.5492769744
 40
0.3
100
AcDbArc
 50
0.0
 51
90.0
  0
ARC
  5
499
100
AcDbEntity
  8
7_ALL_FEATURES
100
AcDbCircle
 62
7
  6
CONTINUOUS
 10
322.1361215084
 20
833.9372208699
 40
0.3
100
AcDbArc
 50
120.9637565321
 51
200.0
  0
ARC
  5
49A
100
AcDbEntity
  8
7_ALL_FEATURES
100
AcDbCircle
 62
7
  6
CONTINUOUS
 10
307.8695773081
 20
848.1992769744
 40
0.3
100
AcDbArc
 50
180.0
 51
270.0
  0
ARC
  5
49B
100
AcDbEntity
  8
7_ALL_FEATURES
100
AcDbCircle
 62
7
  6
CONTINUOUS
 10
861.2903225806
 20
1111.5270856507
 40
4.7990381057
100
AcDbArc
 50
38.6913826582
 51
141.3086173418
  0
ARC
  5
49C
100
AcDbEntity
  8
7_ALL_FEATURES
100
AcDbCircle
 62
7
  6
CONTINUOUS
 10
1611.2903225806
 20
1111.5270856507
 40
4.7990381057
100
AcDbArc
 50
38.6913826582
 51
141.3086173418
  0
ARC
  5
49D
100
AcDbEntity
  8
7_ALL_FEATURES
100
AcDbCircle
 62
7
  6
CONTINUOUS
 10
1361.2903225806
 20
1111.5270856507
 40
4.7990381057
100
AcDbArc
 50
38.6913826582
 51
141.3086173418
  0
ARC
  5
49E
100
AcDbEntity
  8
7_ALL_FEATURES
100
AcDbCircle
 62
7
  6
CONTINUOUS
 10
1111.2903225806
 20
1111.5270856507
 40
4.7990381057
100
AcDbArc
 50
38.6913826582
 51
141.3086173418
  0
ARC
  5
49F
100
AcDbEntity
  8
7_ALL_FEATURES
100
AcDbCircle
 62
7
  6
CONTINUOUS
 10
1611.2903225806
 20
1111.5270856507
 40
4.7990381057
100
AcDbArc
 50
0.0
 51
30.0066305519
  0
ARC
  5
4A0
100
AcDbEntity
  8
7_ALL_FEATURES
100
AcDbCircle
 62
7
  6
CONTINUOUS
 10
1361.2903225806
 20
1111.5270856507
 40
4.7990381057
100
AcDbArc
 50
0.0
 51
30.0066305519
  0
ARC
  5
4A1
100
AcDbEntity
  8
7_ALL_FEATURES
100
AcDbCircle
 62
7
  6
CONTINUOUS
 10
1611.2903225806
 20
1111.5270856507
 40
4.7990381057
100
AcDbArc
 50
149.9933694481
 51
180.0
  0
ARC
  5
4A2
100
AcDbEntity
  8
7_ALL_FEATURES
100
AcDbCircle
 62
7
  6
CONTINUOUS
 10
1111.2903225806
 20
1111.5270856507
 40
4.7990381057
100
AcDbArc
 50
0.0
 51
30.0066305519
  0
ARC
  5
4A3
100
AcDbEntity
  8
7_ALL_FEATURES
100
AcDbCircle
 62
7
  6
CONTINUOUS
 10
1361.2903225806
 20
1111.5270856507
 40
4.7990381057
100
AcDbArc
 50
149.9933694481
 51
180.0
  0
ARC
  5
4A4
100
AcDbEntity
  8
7_ALL_FEATURES
100
AcDbCircle
 62
7
  6
CONTINUOUS
 10
861.2903225806
 20
1111.5270856507
 40
4.7990381057
100
AcDbArc
 50
0.0
 51
30.0066305519
  0
ARC
  5
4A5
100
AcDbEntity
  8
7_ALL_FEATURES
100
AcDbCircle
 62
7
  6
CONTINUOUS
 10
1111.2903225806
 20
1111.5270856507
 40
4.7990381057
100
AcDbArc
 50
149.9933694481
 51
180.0
  0
ARC
  5
4A6
100
AcDbEntity
  8
7_ALL_FEATURES
100
AcDbCircle
 62
7
  6
CONTINUOUS
 10
861.2903225806
 20
1111.5270856507
 40
4.7990381057
100
AcDbArc
 50
149.9933694481
 51
180.0
  0
ARC
  5
4A7
100
AcDbEntity
  8
7_ALL_FEATURES
100
AcDbCircle
 62
7
  6
CONTINUOUS
 10
1611.2903225806
 20
1111.5270856507
 40
4.7990381057
100
AcDbArc
 50
313.171184019
 51
352.8177973595
  0
ARC
  5
4A8
100
AcDbEntity
  8
7_ALL_FEATURES
100
AcDbCircle
 62
7
  6
CONTINUOUS
 10
1361.2903225806
 20
1111.5270856507
 40
4.7990381057
100
AcDbArc
 50
313.171184019
 51
352.8177973595
  0
ARC
  5
4A9
100
AcDbEntity
  8
7_ALL_FEATURES
100
AcDbCircle
 62
7
  6
CONTINUOUS
 10
1611.2903225806
 20
1111.5270856507
 40
4.7990381057
100
AcDbArc
 50
187.1822026405
 51
226.828815981
  0
ARC
  5
4AA
100
AcDbEntity
  8
7_ALL_FEATURES
100
AcDbCircle
 62
7
  6
CONTINUOUS
 10
1111.2903225806
 20
1111.5270856507
 40
4.7990381057
100
AcDbArc
 50
313.171184019
 51
352.8177973595
  0
ARC
  5
4AB
100
AcDbEntity
  8
7_ALL_FEATURES
100
AcDbCircle
 62
7
  6
CONTINUOUS
 10
1361.2903225806
 20
1111.5270856507
 40
4.7990381057
100
AcDbArc
 50
187.1822026405
 51
226.828815981
  0
ARC
  5
4AC
100
AcDbEntity
  8
7_ALL_FEATURES
100
AcDbCircle
 62
7
  6
CONTINUOUS
 10
861.2903225806
 20
1111.5270856507
 40
4.7990381057
100
AcDbArc
 50
313.171184019
 51
352.8177973595
  0
ARC
  5
4AD
100
AcDbEntity
  8
7_ALL_FEATURES
100
AcDbCircle
 62
7
  6
CONTINUOUS
 10
1111.2903225806
 20
1111.5270856507
 40
4.7990381057
100
AcDbArc
 50
187.1822026405
 51
226.828815981
  0
ARC
  5
4AE
100
AcDbEntity
  8
7_ALL_FEATURES
100
AcDbCircle
 62
7
  6
CONTINUOUS
 10
861.2903225806
 20
1111.5270856507
 40
4.7990381057
100
AcDbArc
 50
187.1822026405
 51
226.828815981
  0
CIRCLE
  5
4AF
100
AcDbEntity
  8
6_ALL_SURFS
100
AcDbCircle
 62
7
  6
CONTINUOUS
 10
861.2903225806
 20
1111.5270856507
 40
3.5
  0
CIRCLE
  5
4B0
100
AcDbEntity
  8
6_ALL_SURFS
100
AcDbCircle
 62
7
  6
CONTINUOUS
 10
1111.2903225806
 20
1111.5270856507
 40
3.5
  0
CIRCLE
  5
4B1
100
AcDbEntity
  8
6_ALL_SURFS
100
AcDbCircle
 62
7
  6
CONTINUOUS
 10
1361.2903225806
 20
1111.5270856507
 40
3.5
  0
CIRCLE
  5
4B2
100
AcDbEntity
  8
6_ALL_SURFS
100
AcDbCircle
 62
7
  6
CONTINUOUS
 10
1611.2903225806
 20
1111.5270856507
 40
3.5
  0
ARC
  5
4B3
100
AcDbEntity
  8
6_ALL_SURFS
100
AcDbCircle
 62
7
  6
CONTINUOUS
 10
861.2903225806
 20
1181.6270856507
 40
4.7990381057
100
AcDbArc
 50
180.0
 51
210.0066305519
  0
ARC
  5
4B4
100
AcDbEntity
  8
6_ALL_SURFS
100
AcDbCircle
 62
7
  6
CONTINUOUS
 10
1111.2903225806
 20
1181.6270856507
 40
4.7990381057
100
AcDbArc
 50
180.0
 51
210.0066305519
  0
ARC
  5
4B5
100
AcDbEntity
  8
6_ALL_SURFS
100
AcDbCircle
 62
7
  6
CONTINUOUS
 10
861.2903225806
 20
1181.6270856507
 40
4.7990381057
100
AcDbArc
 50
329.9933694481
 51
360.0
  0
ARC
  5
4B6
100
AcDbEntity
  8
6_ALL_SURFS
100
AcDbCircle
 62
7
  6
CONTINUOUS
 10
1361.2903225806
 20
1181.6270856507
 40
4.7990381057
100
AcDbArc
 50
180.0
 51
210.0066305519
  0
ARC
  5
4B7
100
AcDbEntity
  8
6_ALL_SURFS
100
AcDbCircle
 62
7
  6
CONTINUOUS
 10
1111.2903225806
 20
1181.6270856507
 40
4.7990381057
100
AcDbArc
 50
329.9933694481
 51
360.0
  0
ARC
  5
4B8
100
AcDbEntity
  8
6_ALL_SURFS
100
AcDbCircle
 62
7
  6
CONTINUOUS
 10
1611.2903225806
 20
1181.6270856507
 40
4.7990381057
100
AcDbArc
 50
180.0
 51
210.0066305519
  0
ARC
  5
4B9
100
AcDbEntity
  8
6_ALL_SURFS
100
AcDbCircle
 62
7
  6
CONTINUOUS
 10
1361.2903225806
 20
1181.6270856507
 40
4.7990381057
100
AcDbArc
 50
329.9933694481
 51
360.0
  0
ARC
  5
4BA
100
AcDbEntity
  8
6_ALL_SURFS
100
AcDbCircle
 62
7
  6
CONTINUOUS
 10
1611.2903225806
 20
1181.6270856507
 40
4.7990381057
100
AcDbArc
 50
329.9933694481
 51
360.0
  0
ARC
  5
4BB
100
AcDbEntity
  8
6_ALL_SURFS
100
AcDbCircle
 62
7
  6
CONTINUOUS
 10
1611.2903225806
 20
1181.6270856507
 40
4.7990381057
100
AcDbArc
 50
218.6913826582
 51
321.3086173418
  0
ARC
  5
4BC
100
AcDbEntity
  8
6_ALL_SURFS
100
AcDbCircle
 62
7
  6
CONTINUOUS
 10
1361.2903225806
 20
1181.6270856507
 40
4.7990381057
100
AcDbArc
 50
218.6913826582
 51
321.3086173418
  0
ARC
  5
4BD
100
AcDbEntity
  8
6_ALL_SURFS
100
AcDbCircle
 62
7
  6
CONTINUOUS
 10
1111.2903225806
 20
1181.6270856507
 40
4.7990381057
100
AcDbArc
 50
218.6913826582
 51
321.3086173418
  0
ARC
  5
4BE
100
AcDbEntity
  8
6_ALL_SURFS
100
AcDbCircle
 62
7
  6
CONTINUOUS
 10
861.2903225806
 20
1181.6270856507
 40
4.7990381057
100
AcDbArc
 50
218.6913826582
 51
321.3086173418
  0
ARC
  5
4BF
100
AcDbEntity
  8
6_ALL_SURFS
100
AcDbCircle
 62
7
  6
CONTINUOUS
 10
861.2903225806
 20
1181.6270856507
 40
4.7990381057
100
AcDbArc
 50
133.171184019
 51
172.8177973595
  0
ARC
  5
4C0
100
AcDbEntity
  8
6_ALL_SURFS
100
AcDbCircle
 62
7
  6
CONTINUOUS
 10
1111.2903225806
 20
1181.6270856507
 40
4.7990381057
100
AcDbArc
 50
133.171184019
 51
172.8177973595
  0
ARC
  5
4C1
100
AcDbEntity
  8
6_ALL_SURFS
100
AcDbCircle
 62
7
  6
CONTINUOUS
 10
861.2903225806
 20
1181.6270856507
 40
4.7990381057
100
AcDbArc
 50
7.1822026405
 51
46.828815981
  0
ARC
  5
4C2
100
AcDbEntity
  8
6_ALL_SURFS
100
AcDbCircle
 62
7
  6
CONTINUOUS
 10
1361.2903225806
 20
1181.6270856507
 40
4.7990381057
100
AcDbArc
 50
133.171184019
 51
172.8177973595
  0
ARC
  5
4C3
100
AcDbEntity
  8
6_ALL_SURFS
100
AcDbCircle
 62
7
  6
CONTINUOUS
 10
1111.2903225806
 20
1181.6270856507
 40
4.7990381057
100
AcDbArc
 50
7.1822026405
 51
46.828815981
  0
ARC
  5
4C4
100
AcDbEntity
  8
6_ALL_SURFS
100
AcDbCircle
 62
7
  6
CONTINUOUS
 10
1611.2903225806
 20
1181.6270856507
 40
4.7990381057
100
AcDbArc
 50
133.171184019
 51
172.8177973595
  0
ARC
  5
4C5
100
AcDbEntity
  8
6_ALL_SURFS
100
AcDbCircle
 62
7
  6
CONTINUOUS
 10
1361.2903225806
 20
1181.6270856507
 40
4.7990381057
100
AcDbArc
 50
7.1822026405
 51
46.828815981
  0
ARC
  5
4C6
100
AcDbEntity
  8
6_ALL_SURFS
100
AcDbCircle
 62
7
  6
CONTINUOUS
 10
1611.2903225806
 20
1181.6270856507
 40
4.7990381057
100
AcDbArc
 50
7.1822026405
 51
46.828815981
  0
CIRCLE
  5
4C7
100
AcDbEntity
  8
6_ALL_SURFS
100
AcDbCircle
 62
7
  6
CONTINUOUS
 10
861.2903225806
 20
1181.6270856507
 40
3.5
  0
CIRCLE
  5
4C8
100
AcDbEntity
  8
6_ALL_SURFS
100
AcDbCircle
 62
7
  6
CONTINUOUS
 10
1111.2903225806
 20
1181.6270856507
 40
3.5
  0
CIRCLE
  5
4C9
100
AcDbEntity
  8
6_ALL_SURFS
100
AcDbCircle
 62
7
  6
CONTINUOUS
 10
1361.2903225806
 20
1181.6270856507
 40
3.5
  0
CIRCLE
  5
4CA
100
AcDbEntity
  8
6_ALL_SURFS
100
AcDbCircle
 62
7
  6
CONTINUOUS
 10
1611.2903225806
 20
1181.6270856507
 40
3.5
  0
ARC
  5
4CB
100
AcDbEntity
  8
7_ALL_FEATURES
100
AcDbCircle
 62
7
  6
CONTINUOUS
 10
2861.2903225806
 20
1111.5270856507
 40
4.7990381057
100
AcDbArc
 50
38.6913826582
 51
141.3086173418
  0
ARC
  5
4CC
100
AcDbEntity
  8
7_ALL_FEATURES
100
AcDbCircle
 62
7
  6
CONTINUOUS
 10
2611.2903225806
 20
1111.5270856507
 40
4.7990381057
100
AcDbArc
 50
38.6913826582
 51
141.3086173418
  0
ARC
  5
4CD
100
AcDbEntity
  8
7_ALL_FEATURES
100
AcDbCircle
 62
7
  6
CONTINUOUS
 10
2361.2903225806
 20
1111.5270856507
 40
4.7990381057
100
AcDbArc
 50
38.6913826582
 51
141.3086173418
  0
ARC
  5
4CE
100
AcDbEntity
  8
7_ALL_FEATURES
100
AcDbCircle
 62
7
  6
CONTINUOUS
 10
2111.2903225806
 20
1111.5270856507
 40
4.7990381057
100
AcDbArc
 50
38.6913826582
 51
141.3086173418
  0
ARC
  5
4CF
100
AcDbEntity
  8
7_ALL_FEATURES
100
AcDbCircle
 62
7
  6
CONTINUOUS
 10
1861.2903225806
 20
1111.5270856507
 40
4.7990381057
100
AcDbArc
 50
38.6913826582
 51
141.3086173418
  0
ARC
  5
4D0
100
AcDbEntity
  8
7_ALL_FEATURES
100
AcDbCircle
 62
7
  6
CONTINUOUS
 10
2861.2903225806
 20
1111.5270856507
 40
4.7990381057
100
AcDbArc
 50
0.0
 51
30.0066305519
  0
ARC
  5
4D1
100
AcDbEntity
  8
7_ALL_FEATURES
100
AcDbCircle
 62
7
  6
CONTINUOUS
 10
2611.2903225806
 20
1111.5270856507
 40
4.7990381057
100
AcDbArc
 50
0.0
 51
30.0066305519
  0
ARC
  5
4D2
100
AcDbEntity
  8
7_ALL_FEATURES
100
AcDbCircle
 62
7
  6
CONTINUOUS
 10
2861.2903225806
 20
1111.5270856507
 40
4.7990381057
100
AcDbArc
 50
149.9933694481
 51
180.0
  0
ARC
  5
4D3
100
AcDbEntity
  8
7_ALL_FEATURES
100
AcDbCircle
 62
7
  6
CONTINUOUS
 10
2361.2903225806
 20
1111.5270856507
 40
4.7990381057
100
AcDbArc
 50
0.0
 51
30.0066305519
  0
ARC
  5
4D4
100
AcDbEntity
  8
7_ALL_FEATURES
100
AcDbCircle
 62
7
  6
CONTINUOUS
 10
2611.2903225806
 20
1111.5270856507
 40
4.7990381057
100
AcDbArc
 50
149.9933694481
 51
180.0
  0
ARC
  5
4D5
100
AcDbEntity
  8
7_ALL_FEATURES
100
AcDbCircle
 62
7
  6
CONTINUOUS
 10
2111.2903225806
 20
1111.5270856507
 40
4.7990381057
100
AcDbArc
 50
0.0
 51
30.0066305519
  0
ARC
  5
4D6
100
AcDbEntity
  8
7_ALL_FEATURES
100
AcDbCircle
 62
7
  6
CONTINUOUS
 10
2361.2903225806
 20
1111.5270856507
 40
4.7990381057
100
AcDbArc
 50
149.9933694481
 51
180.0
  0
ARC
  5
4D7
100
AcDbEntity
  8
7_ALL_FEATURES
100
AcDbCircle
 62
7
  6
CONTINUOUS
 10
1861.2903225806
 20
1111.5270856507
 40
4.7990381057
100
AcDbArc
 50
0.0
 51
30.0066305519
  0
ARC
  5
4D8
100
AcDbEntity
  8
7_ALL_FEATURES
100
AcDbCircle
 62
7
  6
CONTINUOUS
 10
2111.2903225806
 20
1111.5270856507
 40
4.7990381057
100
AcDbArc
 50
149.9933694481
 51
180.0
  0
ARC
  5
4D9
100
AcDbEntity
  8
7_ALL_FEATURES
100
AcDbCircle
 62
7
  6
CONTINUOUS
 10
1861.2903225806
 20
1111.5270856507
 40
4.7990381057
100
AcDbArc
 50
149.9933694481
 51
180.0
  0
ARC
  5
4DA
100
AcDbEntity
  8
7_ALL_FEATURES
100
AcDbCircle
 62
7
  6
CONTINUOUS
 10
2861.2903225806
 20
1111.5270856507
 40
4.7990381057
100
AcDbArc
 50
313.171184019
 51
352.8177973595
  0
ARC
  5
4DB
100
AcDbEntity
  8
7_ALL_FEATURES
100
AcDbCircle
 62
7
  6
CONTINUOUS
 10
2611.2903225806
 20
1111.5270856507
 40
4.7990381057
100
AcDbArc
 50
313.171184019
 51
352.8177973595
  0
ARC
  5
4DC
100
AcDbEntity
  8
7_ALL_FEATURES
100
AcDbCircle
 62
7
  6
CONTINUOUS
 10
2861.2903225806
 20
1111.5270856507
 40
4.7990381057
100
AcDbArc
 50
187.1822026405
 51
226.828815981
  0
ARC
  5
4DD
100
AcDbEntity
  8
7_ALL_FEATURES
100
AcDbCircle
 62
7
  6
CONTINUOUS
 10
2361.2903225806
 20
1111.5270856507
 40
4.7990381057
100
AcDbArc
 50
313.171184019
 51
352.8177973595
  0
ARC
  5
4DE
100
AcDbEntity
  8
7_ALL_FEATURES
100
AcDbCircle
 62
7
  6
CONTINUOUS
 10
2611.2903225806
 20
1111.5270856507
 40
4.7990381057
100
AcDbArc
 50
187.1822026405
 51
226.828815981
  0
ARC
  5
4DF
100
AcDbEntity
  8
7_ALL_FEATURES
100
AcDbCircle
 62
7
  6
CONTINUOUS
 10
2111.2903225806
 20
1111.5270856507
 40
4.7990381057
100
AcDbArc
 50
313.171184019
 51
352.8177973595
  0
ARC
  5
4E0
100
AcDbEntity
  8
7_ALL_FEATURES
100
AcDbCircle
 62
7
  6
CONTINUOUS
 10
2361.2903225806
 20
1111.5270856507
 40
4.7990381057
100
AcDbArc
 50
187.1822026405
 51
226.828815981
  0
ARC
  5
4E1
100
AcDbEntity
  8
7_ALL_FEATURES
100
AcDbCircle
 62
7
  6
CONTINUOUS
 10
1861.2903225806
 20
1111.5270856507
 40
4.7990381057
100
AcDbArc
 50
313.171184019
 51
352.8177973595
  0
ARC
  5
4E2
100
AcDbEntity
  8
7_ALL_FEATURES
100
AcDbCircle
 62
7
  6
CONTINUOUS
 10
2111.2903225806
 20
1111.5270856507
 40
4.7990381057
100
AcDbArc
 50
187.1822026405
 51
226.828815981
  0
ARC
  5
4E3
100
AcDbEntity
  8
7_ALL_FEATURES
100
AcDbCircle
 62
7
  6
CONTINUOUS
 10
1861.2903225806
 20
1111.5270856507
 40
4.7990381057
100
AcDbArc
 50
187.1822026405
 51
226.828815981
  0
CIRCLE
  5
4E4
100
AcDbEntity
  8
6_ALL_SURFS
100
AcDbCircle
 62
7
  6
CONTINUOUS
 10
1861.2903225806
 20
1111.5270856507
 40
3.5
  0
CIRCLE
  5
4E5
100
AcDbEntity
  8
6_ALL_SURFS
100
AcDbCircle
 62
7
  6
CONTINUOUS
 10
2111.2903225806
 20
1111.5270856507
 40
3.5
  0
CIRCLE
  5
4E6
100
AcDbEntity
  8
6_ALL_SURFS
100
AcDbCircle
 62
7
  6
CONTINUOUS
 10
2361.2903225806
 20
1111.5270856507
 40
3.5
  0
CIRCLE
  5
4E7
100
AcDbEntity
  8
6_ALL_SURFS
100
AcDbCircle
 62
7
  6
CONTINUOUS
 10
2611.2903225806
 20
1111.5270856507
 40
3.5
  0
CIRCLE
  5
4E8
100
AcDbEntity
  8
6_ALL_SURFS
100
AcDbCircle
 62
7
  6
CONTINUOUS
 10
2861.2903225806
 20
1111.5270856507
 40
3.5
  0
ARC
  5
4E9
100
AcDbEntity
  8
6_ALL_SURFS
100
AcDbCircle
 62
7
  6
CONTINUOUS
 10
2111.2903225806
 20
1181.6270856507
 40
4.7990381057
100
AcDbArc
 50
133.171184019
 51
172.8177973595
  0
ARC
  5
4EA
100
AcDbEntity
  8
6_ALL_SURFS
100
AcDbCircle
 62
7
  6
CONTINUOUS
 10
1861.2903225806
 20
1181.6270856507
 40
4.7990381057
100
AcDbArc
 50
7.1822026405
 51
46.828815981
  0
ARC
  5
4EB
100
AcDbEntity
  8
6_ALL_SURFS
100
AcDbCircle
 62
7
  6
CONTINUOUS
 10
2361.2903225806
 20
1181.6270856507
 40
4.7990381057
100
AcDbArc
 50
133.171184019
 51
172.8177973595
  0
ARC
  5
4EC
100
AcDbEntity
  8
6_ALL_SURFS
100
AcDbCircle
 62
7
  6
CONTINUOUS
 10
2111.2903225806
 20
1181.6270856507
 40
4.7990381057
100
AcDbArc
 50
7.1822026405
 51
46.828815981
  0
ARC
  5
4ED
100
AcDbEntity
  8
6_ALL_SURFS
100
AcDbCircle
 62
7
  6
CONTINUOUS
 10
2611.2903225806
 20
1181.6270856507
 40
4.7990381057
100
AcDbArc
 50
133.171184019
 51
172.8177973595
  0
ARC
  5
4EE
100
AcDbEntity
  8
6_ALL_SURFS
100
AcDbCircle
 62
7
  6
CONTINUOUS
 10
2361.2903225806
 20
1181.6270856507
 40
4.7990381057
100
AcDbArc
 50
7.1822026405
 51
46.828815981
  0
ARC
  5
4EF
100
AcDbEntity
  8
6_ALL_SURFS
100
AcDbCircle
 62
7
  6
CONTINUOUS
 10
2861.2903225806
 20
1181.6270856507
 40
4.7990381057
100
AcDbArc
 50
133.171184019
 51
172.8177973595
  0
ARC
  5
4F0
100
AcDbEntity
  8
6_ALL_SURFS
100
AcDbCircle
 62
7
  6
CONTINUOUS
 10
2611.2903225806
 20
1181.6270856507
 40
4.7990381057
100
AcDbArc
 50
7.1822026405
 51
46.828815981
  0
ARC
  5
4F1
100
AcDbEntity
  8
6_ALL_SURFS
100
AcDbCircle
 62
7
  6
CONTINUOUS
 10
2861.2903225806
 20
1181.6270856507
 40
4.7990381057
100
AcDbArc
 50
7.1822026405
 51
46.828815981
  0
ARC
  5
4F2
100
AcDbEntity
  8
6_ALL_SURFS
100
AcDbCircle
 62
7
  6
CONTINUOUS
 10
1861.2903225806
 20
1181.6270856507
 40
4.7990381057
100
AcDbArc
 50
180.0
 51
210.0066305519
  0
ARC
  5
4F3
100
AcDbEntity
  8
6_ALL_SURFS
100
AcDbCircle
 62
7
  6
CONTINUOUS
 10
2111.2903225806
 20
1181.6270856507
 40
4.7990381057
100
AcDbArc
 50
180.0
 51
210.0066305519
  0
ARC
  5
4F4
100
AcDbEntity
  8
6_ALL_SURFS
100
AcDbCircle
 62
7
  6
CONTINUOUS
 10
1861.2903225806
 20
1181.6270856507
 40
4.7990381057
100
AcDbArc
 50
329.9933694481
 51
360.0
  0
ARC
  5
4F5
100
AcDbEntity
  8
6_ALL_SURFS
100
AcDbCircle
 62
7
  6
CONTINUOUS
 10
2361.2903225806
 20
1181.6270856507
 40
4.7990381057
100
AcDbArc
 50
180.0
 51
210.0066305519
  0
ARC
  5
4F6
100
AcDbEntity
  8
6_ALL_SURFS
100
AcDbCircle
 62
7
  6
CONTINUOUS
 10
2111.2903225806
 20
1181.6270856507
 40
4.7990381057
100
AcDbArc
 50
329.9933694481
 51
360.0
  0
ARC
  5
4F7
100
AcDbEntity
  8
6_ALL_SURFS
100
AcDbCircle
 62
7
  6
CONTINUOUS
 10
2611.2903225806
 20
1181.6270856507
 40
4.7990381057
100
AcDbArc
 50
180.0
 51
210.0066305519
  0
ARC
  5
4F8
100
AcDbEntity
  8
6_ALL_SURFS
100
AcDbCircle
 62
7
  6
CONTINUOUS
 10
2361.2903225806
 20
1181.6270856507
 40
4.7990381057
100
AcDbArc
 50
329.9933694481
 51
360.0
  0
ARC
  5
4F9
100
AcDbEntity
  8
6_ALL_SURFS
100
AcDbCircle
 62
7
  6
CONTINUOUS
 10
2861.2903225806
 20
1181.6270856507
 40
4.7990381057
100
AcDbArc
 50
180.0
 51
210.0066305519
  0
ARC
  5
4FA
100
AcDbEntity
  8
6_ALL_SURFS
100
AcDbCircle
 62
7
  6
CONTINUOUS
 10
2611.2903225806
 20
1181.6270856507
 40
4.7990381057
100
AcDbArc
 50
329.9933694481
 51
360.0
  0
ARC
  5
4FB
100
AcDbEntity
  8
6_ALL_SURFS
100
AcDbCircle
 62
7
  6
CONTINUOUS
 10
2861.2903225806
 20
1181.6270856507
 40
4.7990381057
100
AcDbArc
 50
329.9933694481
 51
360.0
  0
ARC
  5
4FC
100
AcDbEntity
  8
6_ALL_SURFS
100
AcDbCircle
 62
7
  6
CONTINUOUS
 10
2861.2903225806
 20
1181.6270856507
 40
4.7990381057
100
AcDbArc
 50
218.6913826582
 51
321.3086173418
  0
ARC
  5
4FD
100
AcDbEntity
  8
6_ALL_SURFS
100
AcDbCircle
 62
7
  6
CONTINUOUS
 10
2611.2903225806
 20
1181.6270856507
 40
4.7990381057
100
AcDbArc
 50
218.6913826582
 51
321.3086173418
  0
ARC
  5
4FE
100
AcDbEntity
  8
6_ALL_SURFS
100
AcDbCircle
 62
7
  6
CONTINUOUS
 10
2361.2903225806
 20
1181.6270856507
 40
4.7990381057
100
AcDbArc
 50
218.6913826582
 51
321.3086173418
  0
ARC
  5
4FF
100
AcDbEntity
  8
6_ALL_SURFS
100
AcDbCircle
 62
7
  6
CONTINUOUS
 10
2111.2903225806
 20
1181.6270856507
 40
4.7990381057
100
AcDbArc
 50
218.6913826582
 51
321.3086173418
  0
ARC
  5
500
100
AcDbEntity
  8
6_ALL_SURFS
100
AcDbCircle
 62
7
  6
CONTINUOUS
 10
1861.2903225806
 20
1181.6270856507
 40
4.7990381057
100
AcDbArc
 50
218.6913826582
 51
321.3086173418
  0
ARC
  5
501
100
AcDbEntity
  8
6_ALL_SURFS
100
AcDbCircle
 62
7
  6
CONTINUOUS
 10
1861.2903225806
 20
1181.6270856507
 40
4.7990381057
100
AcDbArc
 50
133.171184019
 51
172.8177973595
  0
CIRCLE
  5
502
100
AcDbEntity
  8
6_ALL_SURFS
100
AcDbCircle
 62
7
  6
CONTINUOUS
 10
1861.2903225806
 20
1181.6270856507
 40
3.5
  0
CIRCLE
  5
503
100
AcDbEntity
  8
6_ALL_SURFS
100
AcDbCircle
 62
7
  6
CONTINUOUS
 10
2111.2903225806
 20
1181.6270856507
 40
3.5
  0
CIRCLE
  5
504
100
AcDbEntity
  8
6_ALL_SURFS
100
AcDbCircle
 62
7
  6
CONTINUOUS
 10
2361.2903225806
 20
1181.6270856507
 40
3.5
  0
CIRCLE
  5
505
100
AcDbEntity
  8
6_ALL_SURFS
100
AcDbCircle
 62
7
  6
CONTINUOUS
 10
2611.2903225806
 20
1181.6270856507
 40
3.5
  0
CIRCLE
  5
506
100
AcDbEntity
  8
6_ALL_SURFS
100
AcDbCircle
 62
7
  6
CONTINUOUS
 10
2861.2903225806
 20
1181.6270856507
 40
3.5
  0
SPLINE
  5
507
100
AcDbEntity
  8
6_ALL_SURFS
100
AcDbSpline
 62
7
  6
CONTINUOUS
 70
0
 71
3
 72
9
 73
5
 74
0
 42
0.0000001
 43
0.0000001
 44
0.0000000001
 40
0.0
 40
0.0
 40
0.0
 40
0.0
 40
0.4966226038
 40
1.0
 40
1.0
 40
1.0
 40
1.0
 10
856.5289397206
 20
1182.2270856507
 30
0.0
 10
856.6154907555
 20
1182.1539417283
 30
0.0
 10
856.7481589245
 20
1181.9102897023
 30
0.0
 10
856.5823001616
 20
1181.6971495589
 30
0.0
 10
856.491284475
 20
1181.6270856507
 30
0.0
  0
SPLINE
  5
508
100
AcDbEntity
  8
6_ALL_SURFS
100
AcDbSpline
 62
7
  6
CONTINUOUS
 70
0
 71
3
 72
9
 73
5
 74
0
 42
0.0000001
 43
0.0000001
 44
0.0000000001
 40
0.0
 40
0.0
 40
0.0
 40
0.0
 40
0.4966226038
 40
1.0
 40
1.0
 40
1.0
 40
1.0
 10
1106.5289397206
 20
1182.2270856507
 30
0.0
 10
1106.6154907555
 20
1182.1539417283
 30
0.0
 10
1106.7481589245
 20
1181.9102897023
 30
0.0
 10
1106.5823001616
 20
1181.6971495589
 30
0.0
 10
1106.491284475
 20
1181.6270856507
 30
0.0
  0
SPLINE
  5
509
100
AcDbEntity
  8
6_ALL_SURFS
100
AcDbSpline
 62
7
  6
CONTINUOUS
 70
0
 71
3
 72
9
 73
5
 74
0
 42
0.0000001
 43
0.0000001
 44
0.0000000001
 40
0.0
 40
0.0
 40
0.0
 40
0.0
 40
0.5033938181
 40
1.0
 40
1.0
 40
1.0
 40
1.0
 10
866.0893606863
 20
1181.6270856507
 30
0.0
 10
865.9983421078
 20
1181.6971517852
 30
0.0
 10
865.8324869033
 20
1181.9102979606
 30
0.0
 10
865.9651573413
 20
1182.1539442091
 30
0.0
 10
866.0517054407
 20
1182.2270856507
 30
0.0
  0
SPLINE
  5
50A
100
AcDbEntity
  8
6_ALL_SURFS
100
AcDbSpline
 62
7
  6
CONTINUOUS
 70
0
 71
3
 72
9
 73
5
 74
0
 42
0.0000001
 43
0.0000001
 44
0.0000000001
 40
0.0
 40
0.0
 40
0.0
 40
0.0
 40
0.4966226038
 40
1.0
 40
1.0
 40
1.0
 40
1.0
 10
1356.5289397206
 20
1182.2270856507
 30
0.0
 10
1356.6154907555
 20
1182.1539417283
 30
0.0
 10
1356.7481589245
 20
1181.9102897023
 30
0.0
 10
1356.5823001616
 20
1181.6971495589
 30
0.0
 10
1356.491284475
 20
1181.6270856507
 30
0.0
  0
SPLINE
  5
50B
100
AcDbEntity
  8
6_ALL_SURFS
100
AcDbSpline
 62
7
  6
CONTINUOUS
 70
0
 71
3
 72
9
 73
5
 74
0
 42
0.0000001
 43
0.0000001
 44
0.0000000001
 40
0.0
 40
0.0
 40
0.0
 40
0.0
 40
0.5033938181
 40
1.0
 40
1.0
 40
1.0
 40
1.0
 10
1116.0893606863
 20
1181.6270856507
 30
0.0
 10
1115.9983421078
 20
1181.6971517852
 30
0.0
 10
1115.8324869033
 20
1181.9102979606
 30
0.0
 10
1115.9651573413
 20
1182.1539442091
 30
0.0
 10
1116.0517054407
 20
1182.2270856507
 30
0.0
  0
SPLINE
  5
50C
100
AcDbEntity
  8
6_ALL_SURFS
100
AcDbSpline
 62
7
  6
CONTINUOUS
 70
0
 71
3
 72
9
 73
5
 74
0
 42
0.0000001
 43
0.0000001
 44
0.0000000001
 40
0.0
 40
0.0
 40
0.0
 40
0.0
 40
0.4966226038
 40
1.0
 40
1.0
 40
1.0
 40
1.0
 10
1606.5289397206
 20
1182.2270856507
 30
0.0
 10
1606.6154907555
 20
1182.1539417283
 30
0.0
 10
1606.7481589245
 20
1181.9102897023
 30
0.0
 10
1606.5823001616
 20
1181.6971495589
 30
0.0
 10
1606.491284475
 20
1181.6270856507
 30
0.0
  0
SPLINE
  5
50D
100
AcDbEntity
  8
6_ALL_SURFS
100
AcDbSpline
 62
7
  6
CONTINUOUS
 70
0
 71
3
 72
9
 73
5
 74
0
 42
0.0000001
 43
0.0000001
 44
0.0000000001
 40
0.0
 40
0.0
 40
0.0
 40
0.0
 40
0.5033938181
 40
1.0
 40
1.0
 40
1.0
 40
1.0
 10
1366.0893606863
 20
1181.6270856507
 30
0.0
 10
1365.9983421078
 20
1181.6971517852
 30
0.0
 10
1365.8324869033
 20
1181.9102979606
 30
0.0
 10
1365.9651573413
 20
1182.1539442091
 30
0.0
 10
1366.0517054407
 20
1182.2270856507
 30
0.0
  0
SPLINE
  5
50E
100
AcDbEntity
  8
6_ALL_SURFS
100
AcDbSpline
 62
7
  6
CONTINUOUS
 70
0
 71
3
 72
9
 73
5
 74
0
 42
0.0000001
 43
0.0000001
 44
0.0000000001
 40
0.0
 40
0.0
 40
0.0
 40
0.0
 40
0.4966226038
 40
1.0
 40
1.0
 40
1.0
 40
1.0
 10
1856.5289397206
 20
1182.2270856507
 30
0.0
 10
1856.6154907555
 20
1182.1539417283
 30
0.0
 10
1856.7481589245
 20
1181.9102897023
 30
0.0
 10
1856.5823001616
 20
1181.6971495589
 30
0.0
 10
1856.491284475
 20
1181.6270856507
 30
0.0
  0
SPLINE
  5
50F
100
AcDbEntity
  8
6_ALL_SURFS
100
AcDbSpline
 62
7
  6
CONTINUOUS
 70
0
 71
3
 72
9
 73
5
 74
0
 42
0.0000001
 43
0.0000001
 44
0.0000000001
 40
0.0
 40
0.0
 40
0.0
 40
0.0
 40
0.5033938181
 40
1.0
 40
1.0
 40
1.0
 40
1.0
 10
1616.0893606863
 20
1181.6270856507
 30
0.0
 10
1615.9983421078
 20
1181.6971517852
 30
0.0
 10
1615.8324869033
 20
1181.9102979606
 30
0.0
 10
1615.9651573413
 20
1182.1539442091
 30
0.0
 10
1616.0517054407
 20
1182.2270856507
 30
0.0
  0
SPLINE
  5
510
100
AcDbEntity
  8
6_ALL_SURFS
100
AcDbSpline
 62
7
  6
CONTINUOUS
 70
0
 71
3
 72
9
 73
5
 74
0
 42
0.0000001
 43
0.0000001
 44
0.0000000001
 40
0.0
 40
0.0
 40
0.0
 40
0.0
 40
0.4966226038
 40
1.0
 40
1.0
 40
1.0
 40
1.0
 10
2106.5289397206
 20
1182.2270856507
 30
0.0
 10
2106.6154907555
 20
1182.1539417283
 30
0.0
 10
2106.7481589245
 20
1181.9102897023
 30
0.0
 10
2106.5823001616
 20
1181.6971495589
 30
0.0
 10
2106.491284475
 20
1181.6270856507
 30
0.0
  0
SPLINE
  5
511
100
AcDbEntity
  8
6_ALL_SURFS
100
AcDbSpline
 62
7
  6
CONTINUOUS
 70
0
 71
3
 72
9
 73
5
 74
0
 42
0.0000001
 43
0.0000001
 44
0.0000000001
 40
0.0
 40
0.0
 40
0.0
 40
0.0
 40
0.5033938181
 40
1.0
 40
1.0
 40
1.0
 40
1.0
 10
1866.0893606863
 20
1181.6270856507
 30
0.0
 10
1865.9983421078
 20
1181.6971517852
 30
0.0
 10
1865.8324869033
 20
1181.9102979606
 30
0.0
 10
1865.9651573413
 20
1182.1539442091
 30
0.0
 10
1866.0517054407
 20
1182.2270856507
 30
0.0
  0
SPLINE
  5
512
100
AcDbEntity
  8
6_ALL_SURFS
100
AcDbSpline
 62
7
  6
CONTINUOUS
 70
0
 71
3
 72
9
 73
5
 74
0
 42
0.0000001
 43
0.0000001
 44
0.0000000001
 40
0.0
 40
0.0
 40
0.0
 40
0.0
 40
0.4966226038
 40
1.0
 40
1.0
 40
1.0
 40
1.0
 10
2356.5289397206
 20
1182.2270856507
 30
0.0
 10
2356.6154907555
 20
1182.1539417283
 30
0.0
 10
2356.7481589245
 20
1181.9102897023
 30
0.0
 10
2356.5823001616
 20
1181.6971495589
 30
0.0
 10
2356.491284475
 20
1181.6270856507
 30
0.0
  0
SPLINE
  5
513
100
AcDbEntity
  8
6_ALL_SURFS
100
AcDbSpline
 62
7
  6
CONTINUOUS
 70
0
 71
3
 72
9
 73
5
 74
0
 42
0.0000001
 43
0.0000001
 44
0.0000000001
 40
0.0
 40
0.0
 40
0.0
 40
0.0
 40
0.5033938181
 40
1.0
 40
1.0
 40
1.0
 40
1.0
 10
2116.0893606863
 20
1181.6270856507
 30
0.0
 10
2115.9983421078
 20
1181.6971517852
 30
0.0
 10
2115.8324869033
 20
1181.9102979606
 30
0.0
 10
2115.9651573413
 20
1182.1539442091
 30
0.0
 10
2116.0517054407
 20
1182.2270856507
 30
0.0
  0
SPLINE
  5
514
100
AcDbEntity
  8
6_ALL_SURFS
100
AcDbSpline
 62
7
  6
CONTINUOUS
 70
0
 71
3
 72
9
 73
5
 74
0
 42
0.0000001
 43
0.0000001
 44
0.0000000001
 40
0.0
 40
0.0
 40
0.0
 40
0.0
 40
0.4966226038
 40
1.0
 40
1.0
 40
1.0
 40
1.0
 10
2606.5289397206
 20
1182.2270856507
 30
0.0
 10
2606.6154907555
 20
1182.1539417283
 30
0.0
 10
2606.7481589245
 20
1181.9102897023
 30
0.0
 10
2606.5823001616
 20
1181.6971495589
 30
0.0
 10
2606.491284475
 20
1181.6270856507
 30
0.0
  0
SPLINE
  5
515
100
AcDbEntity
  8
6_ALL_SURFS
100
AcDbSpline
 62
7
  6
CONTINUOUS
 70
0
 71
3
 72
9
 73
5
 74
0
 42
0.0000001
 43
0.0000001
 44
0.0000000001
 40
0.0
 40
0.0
 40
0.0
 40
0.0
 40
0.5033938181
 40
1.0
 40
1.0
 40
1.0
 40
1.0
 10
2366.0893606863
 20
1181.6270856507
 30
0.0
 10
2365.9983421078
 20
1181.6971517852
 30
0.0
 10
2365.8324869033
 20
1181.9102979606
 30
0.0
 10
2365.9651573413
 20
1182.1539442091
 30
0.0
 10
2366.0517054407
 20
1182.2270856507
 30
0.0
  0
SPLINE
  5
516
100
AcDbEntity
  8
6_ALL_SURFS
100
AcDbSpline
 62
7
  6
CONTINUOUS
 70
0
 71
3
 72
9
 73
5
 74
0
 42
0.0000001
 43
0.0000001
 44
0.0000000001
 40
0.0
 40
0.0
 40
0.0
 40
0.0
 40
0.4966226038
 40
1.0
 40
1.0
 40
1.0
 40
1.0
 10
2856.5289397206
 20
1182.2270856507
 30
0.0
 10
2856.6154907555
 20
1182.1539417283
 30
0.0
 10
2856.7481589245
 20
1181.9102897023
 30
0.0
 10
2856.5823001616
 20
1181.6971495589
 30
0.0
 10
2856.491284475
 20
1181.6270856507
 30
0.0
  0
SPLINE
  5
517
100
AcDbEntity
  8
6_ALL_SURFS
100
AcDbSpline
 62
7
  6
CONTINUOUS
 70
0
 71
3
 72
9
 73
5
 74
0
 42
0.0000001
 43
0.0000001
 44
0.0000000001
 40
0.0
 40
0.0
 40
0.0
 40
0.0
 40
0.5033938181
 40
1.0
 40
1.0
 40
1.0
 40
1.0
 10
2616.0893606863
 20
1181.6270856507
 30
0.0
 10
2615.9983421078
 20
1181.6971517852
 30
0.0
 10
2615.8324869033
 20
1181.9102979606
 30
0.0
 10
2615.9651573413
 20
1182.1539442091
 30
0.0
 10
2616.0517054407
 20
1182.2270856507
 30
0.0
  0
SPLINE
  5
518
100
AcDbEntity
  8
6_ALL_SURFS
100
AcDbSpline
 62
7
  6
CONTINUOUS
 70
0
 71
3
 72
9
 73
5
 74
0
 42
0.0000001
 43
0.0000001
 44
0.0000000001
 40
0.0
 40
0.0
 40
0.0
 40
0.0
 40
0.5033938181
 40
1.0
 40
1.0
 40
1.0
 40
1.0
 10
2866.0893606863
 20
1181.6270856507
 30
0.0
 10
2865.9983421078
 20
1181.6971517852
 30
0.0
 10
2865.8324869033
 20
1181.9102979606
 30
0.0
 10
2865.9651573413
 20
1182.1539442091
 30
0.0
 10
2866.0517054407
 20
1182.2270856507
 30
0.0
  0
SPLINE
  5
519
100
AcDbEntity
  8
7_ALL_FEATURES
100
AcDbSpline
 62
7
  6
CONTINUOUS
 70
0
 71
3
 72
11
 73
7
 74
0
 42
0.0000001
 43
0.0000001
 44
0.0000000001
 40
0.0
 40
0.0
 40
0.0
 40
0.0
 40
0.2308393096
 40
0.4895337914
 40
0.7476520987
 40
1.0
 40
1.0
 40
1.0
 40
1.0
 10
2865.0360890896
 20
1114.5270856507
 30
0.0
 10
2864.9948046954
 20
1114.4792701517
 30
0.0
 10
2864.9604766571
 20
1114.324956436
 30
0.0
 10
2865.0971087816
 20
1114.1547535707
 30
0.0
 10
2865.2605747454
 20
1114.0250774009
 30
0.0
 10
2865.3839083179
 20
1113.9570362282
 30
0.0
 10
2865.4461337818
 20
1113.9270856507
 30
0.0
  0
SPLINE
  5
51A
100
AcDbEntity
  8
7_ALL_FEATURES
100
AcDbSpline
 62
7
  6
CONTINUOUS
 70
0
 71
3
 72
11
 73
7
 74
0
 42
0.0000001
 43
0.0000001
 44
0.0000000001
 40
0.0
 40
0.0
 40
0.0
 40
0.0
 40
0.2308393096
 40
0.4895337914
 40
0.7476520987
 40
1.0
 40
1.0
 40
1.0
 40
1.0
 10
2615.0360890896
 20
1114.5270856507
 30
0.0
 10
2614.9948046954
 20
1114.4792701517
 30
0.0
 10
2614.9604766571
 20
1114.324956436
 30
0.0
 10
2615.0971087816
 20
1114.1547535707
 30
0.0
 10
2615.2605747454
 20
1114.0250774009
 30
0.0
 10
2615.3839083179
 20
1113.9570362282
 30
0.0
 10
2615.4461337818
 20
1113.9270856507
 30
0.0
  0
SPLINE
  5
51B
100
AcDbEntity
  8
7_ALL_FEATURES
100
AcDbSpline
 62
7
  6
CONTINUOUS
 70
0
 71
3
 72
11
 73
7
 74
0
 42
0.0000001
 43
0.0000001
 44
0.0000000001
 40
0.0
 40
0.0
 40
0.0
 40
0.0
 40
0.252356101
 40
0.5104807016
 40
0.7691708237
 40
1.0
 40
1.0
 40
1.0
 40
1.0
 10
2857.1345113795
 20
1113.9270856507
 30
0.0
 10
2857.196738915
 20
1113.9570372253
 30
0.0
 10
2857.3200762755
 20
1114.0250800521
 30
0.0
 10
2857.4835438782
 20
1114.1547592227
 30
0.0
 10
2857.6201691066
 20
1114.3249654151
 30
0.0
 10
2857.5858386865
 20
1114.4792722125
 30
0.0
 10
2857.5445560717
 20
1114.5270856507
 30
0.0
  0
SPLINE
  5
51C
100
AcDbEntity
  8
7_ALL_FEATURES
100
AcDbSpline
 62
7
  6
CONTINUOUS
 70
0
 71
3
 72
11
 73
7
 74
0
 42
0.0000001
 43
0.0000001
 44
0.0000000001
 40
0.0
 40
0.0
 40
0.0
 40
0.0
 40
0.2308393096
 40
0.4895337914
 40
0.7476520987
 40
1.0
 40
1.0
 40
1.0
 40
1.0
 10
2365.0360890896
 20
1114.5270856507
 30
0.0
 10
2364.9948046954
 20
1114.4792701517
 30
0.0
 10
2364.9604766571
 20
1114.324956436
 30
0.0
 10
2365.0971087816
 20
1114.1547535707
 30
0.0
 10
2365.2605747454
 20
1114.0250774009
 30
0.0
 10
2365.3839083179
 20
1113.9570362282
 30
0.0
 10
2365.4461337818
 20
1113.9270856507
 30
0.0
  0
SPLINE
  5
51D
100
AcDbEntity
  8
7_ALL_FEATURES
100
AcDbSpline
 62
7
  6
CONTINUOUS
 70
0
 71
3
 72
11
 73
7
 74
0
 42
0.0000001
 43
0.0000001
 44
0.0000000001
 40
0.0
 40
0.0
 40
0.0
 40
0.0
 40
0.252356101
 40
0.5104807016
 40
0.7691708237
 40
1.0
 40
1.0
 40
1.0
 40
1.0
 10
2607.1345113795
 20
1113.9270856507
 30
0.0
 10
2607.196738915
 20
1113.9570372253
 30
0.0
 10
2607.3200762755
 20
1114.0250800521
 30
0.0
 10
2607.4835438782
 20
1114.1547592227
 30
0.0
 10
2607.6201691066
 20
1114.3249654151
 30
0.0
 10
2607.5858386865
 20
1114.4792722125
 30
0.0
 10
2607.5445560717
 20
1114.5270856507
 30
0.0
  0
SPLINE
  5
51E
100
AcDbEntity
  8
7_ALL_FEATURES
100
AcDbSpline
 62
7
  6
CONTINUOUS
 70
0
 71
3
 72
11
 73
7
 74
0
 42
0.0000001
 43
0.0000001
 44
0.0000000001
 40
0.0
 40
0.0
 40
0.0
 40
0.0
 40
0.2308393096
 40
0.4895337914
 40
0.7476520987
 40
1.0
 40
1.0
 40
1.0
 40
1.0
 10
2115.0360890896
 20
1114.5270856507
 30
0.0
 10
2114.9948046954
 20
1114.4792701517
 30
0.0
 10
2114.9604766571
 20
1114.324956436
 30
0.0
 10
2115.0971087816
 20
1114.1547535707
 30
0.0
 10
2115.2605747454
 20
1114.0250774009
 30
0.0
 10
2115.3839083179
 20
1113.9570362282
 30
0.0
 10
2115.4461337818
 20
1113.9270856507
 30
0.0
  0
SPLINE
  5
51F
100
AcDbEntity
  8
7_ALL_FEATURES
100
AcDbSpline
 62
7
  6
CONTINUOUS
 70
0
 71
3
 72
11
 73
7
 74
0
 42
0.0000001
 43
0.0000001
 44
0.0000000001
 40
0.0
 40
0.0
 40
0.0
 40
0.0
 40
0.252356101
 40
0.5104807016
 40
0.7691708237
 40
1.0
 40
1.0
 40
1.0
 40
1.0
 10
2357.1345113795
 20
1113.9270856507
 30
0.0
 10
2357.196738915
 20
1113.9570372253
 30
0.0
 10
2357.3200762755
 20
1114.0250800521
 30
0.0
 10
2357.4835438782
 20
1114.1547592227
 30
0.0
 10
2357.6201691066
 20
1114.3249654151
 30
0.0
 10
2357.5858386865
 20
1114.4792722125
 30
0.0
 10
2357.5445560717
 20
1114.5270856507
 30
0.0
  0
SPLINE
  5
520
100
AcDbEntity
  8
7_ALL_FEATURES
100
AcDbSpline
 62
7
  6
CONTINUOUS
 70
0
 71
3
 72
11
 73
7
 74
0
 42
0.0000001
 43
0.0000001
 44
0.0000000001
 40
0.0
 40
0.0
 40
0.0
 40
0.0
 40
0.2308393096
 40
0.4895337914
 40
0.7476520987
 40
1.0
 40
1.0
 40
1.0
 40
1.0
 10
1865.0360890896
 20
1114.5270856507
 30
0.0
 10
1864.9948046954
 20
1114.4792701517
 30
0.0
 10
1864.9604766571
 20
1114.324956436
 30
0.0
 10
1865.0971087816
 20
1114.1547535707
 30
0.0
 10
1865.2605747454
 20
1114.0250774009
 30
0.0
 10
1865.3839083179
 20
1113.9570362282
 30
0.0
 10
1865.4461337818
 20
1113.9270856507
 30
0.0
  0
SPLINE
  5
521
100
AcDbEntity
  8
7_ALL_FEATURES
100
AcDbSpline
 62
7
  6
CONTINUOUS
 70
0
 71
3
 72
11
 73
7
 74
0
 42
0.0000001
 43
0.0000001
 44
0.0000000001
 40
0.0
 40
0.0
 40
0.0
 40
0.0
 40
0.252356101
 40
0.5104807016
 40
0.7691708237
 40
1.0
 40
1.0
 40
1.0
 40
1.0
 10
2107.1345113795
 20
1113.9270856507
 30
0.0
 10
2107.196738915
 20
1113.9570372253
 30
0.0
 10
2107.3200762755
 20
1114.0250800521
 30
0.0
 10
2107.4835438782
 20
1114.1547592227
 30
0.0
 10
2107.6201691066
 20
1114.3249654151
 30
0.0
 10
2107.5858386865
 20
1114.4792722125
 30
0.0
 10
2107.5445560717
 20
1114.5270856507
 30
0.0
  0
SPLINE
  5
522
100
AcDbEntity
  8
7_ALL_FEATURES
100
AcDbSpline
 62
7
  6
CONTINUOUS
 70
0
 71
3
 72
11
 73
7
 74
0
 42
0.0000001
 43
0.0000001
 44
0.0000000001
 40
0.0
 40
0.0
 40
0.0
 40
0.0
 40
0.2308393096
 40
0.4895337914
 40
0.7476520987
 40
1.0
 40
1.0
 40
1.0
 40
1.0
 10
1615.0360890896
 20
1114.5270856507
 30
0.0
 10
1614.9948046954
 20
1114.4792701517
 30
0.0
 10
1614.9604766571
 20
1114.324956436
 30
0.0
 10
1615.0971087816
 20
1114.1547535707
 30
0.0
 10
1615.2605747454
 20
1114.0250774009
 30
0.0
 10
1615.3839083179
 20
1113.9570362282
 30
0.0
 10
1615.4461337818
 20
1113.9270856507
 30
0.0
  0
SPLINE
  5
523
100
AcDbEntity
  8
7_ALL_FEATURES
100
AcDbSpline
 62
7
  6
CONTINUOUS
 70
0
 71
3
 72
11
 73
7
 74
0
 42
0.0000001
 43
0.0000001
 44
0.0000000001
 40
0.0
 40
0.0
 40
0.0
 40
0.0
 40
0.252356101
 40
0.5104807016
 40
0.7691708237
 40
1.0
 40
1.0
 40
1.0
 40
1.0
 10
1857.1345113795
 20
1113.9270856507
 30
0.0
 10
1857.196738915
 20
1113.9570372253
 30
0.0
 10
1857.3200762755
 20
1114.0250800521
 30
0.0
 10
1857.4835438782
 20
1114.1547592227
 30
0.0
 10
1857.6201691066
 20
1114.3249654151
 30
0.0
 10
1857.5858386865
 20
1114.4792722125
 30
0.0
 10
1857.5445560717
 20
1114.5270856507
 30
0.0
  0
SPLINE
  5
524
100
AcDbEntity
  8
7_ALL_FEATURES
100
AcDbSpline
 62
7
  6
CONTINUOUS
 70
0
 71
3
 72
11
 73
7
 74
0
 42
0.0000001
 43
0.0000001
 44
0.0000000001
 40
0.0
 40
0.0
 40
0.0
 40
0.0
 40
0.2308393096
 40
0.4895337914
 40
0.7476520987
 40
1.0
 40
1.0
 40
1.0
 40
1.0
 10
1365.0360890896
 20
1114.5270856507
 30
0.0
 10
1364.9948046954
 20
1114.4792701517
 30
0.0
 10
1364.9604766571
 20
1114.324956436
 30
0.0
 10
1365.0971087816
 20
1114.1547535707
 30
0.0
 10
1365.2605747454
 20
1114.0250774009
 30
0.0
 10
1365.3839083179
 20
1113.9570362282
 30
0.0
 10
1365.4461337818
 20
1113.9270856507
 30
0.0
  0
SPLINE
  5
525
100
AcDbEntity
  8
7_ALL_FEATURES
100
AcDbSpline
 62
7
  6
CONTINUOUS
 70
0
 71
3
 72
11
 73
7
 74
0
 42
0.0000001
 43
0.0000001
 44
0.0000000001
 40
0.0
 40
0.0
 40
0.0
 40
0.0
 40
0.252356101
 40
0.5104807016
 40
0.7691708237
 40
1.0
 40
1.0
 40
1.0
 40
1.0
 10
1607.1345113795
 20
1113.9270856507
 30
0.0
 10
1607.196738915
 20
1113.9570372253
 30
0.0
 10
1607.3200762755
 20
1114.0250800521
 30
0.0
 10
1607.4835438782
 20
1114.1547592227
 30
0.0
 10
1607.6201691066
 20
1114.3249654151
 30
0.0
 10
1607.5858386865
 20
1114.4792722125
 30
0.0
 10
1607.5445560717
 20
1114.5270856507
 30
0.0
  0
SPLINE
  5
526
100
AcDbEntity
  8
7_ALL_FEATURES
100
AcDbSpline
 62
7
  6
CONTINUOUS
 70
0
 71
3
 72
11
 73
7
 74
0
 42
0.0000001
 43
0.0000001
 44
0.0000000001
 40
0.0
 40
0.0
 40
0.0
 40
0.0
 40
0.2308393096
 40
0.4895337914
 40
0.7476520987
 40
1.0
 40
1.0
 40
1.0
 40
1.0
 10
1115.0360890896
 20
1114.5270856507
 30
0.0
 10
1114.9948046954
 20
1114.4792701517
 30
0.0
 10
1114.9604766571
 20
1114.324956436
 30
0.0
 10
1115.0971087816
 20
1114.1547535707
 30
0.0
 10
1115.2605747454
 20
1114.0250774009
 30
0.0
 10
1115.3839083179
 20
1113.9570362282
 30
0.0
 10
1115.4461337818
 20
1113.9270856507
 30
0.0
  0
SPLINE
  5
527
100
AcDbEntity
  8
7_ALL_FEATURES
100
AcDbSpline
 62
7
  6
CONTINUOUS
 70
0
 71
3
 72
11
 73
7
 74
0
 42
0.0000001
 43
0.0000001
 44
0.0000000001
 40
0.0
 40
0.0
 40
0.0
 40
0.0
 40
0.252356101
 40
0.5104807016
 40
0.7691708237
 40
1.0
 40
1.0
 40
1.0
 40
1.0
 10
1357.1345113795
 20
1113.9270856507
 30
0.0
 10
1357.196738915
 20
1113.9570372253
 30
0.0
 10
1357.3200762755
 20
1114.0250800521
 30
0.0
 10
1357.4835438782
 20
1114.1547592227
 30
0.0
 10
1357.6201691066
 20
1114.3249654151
 30
0.0
 10
1357.5858386865
 20
1114.4792722125
 30
0.0
 10
1357.5445560717
 20
1114.5270856507
 30
0.0
  0
SPLINE
  5
528
100
AcDbEntity
  8
7_ALL_FEATURES
100
AcDbSpline
 62
7
  6
CONTINUOUS
 70
0
 71
3
 72
11
 73
7
 74
0
 42
0.0000001
 43
0.0000001
 44
0.0000000001
 40
0.0
 40
0.0
 40
0.0
 40
0.0
 40
0.2308393096
 40
0.4895337914
 40
0.7476520987
 40
1.0
 40
1.0
 40
1.0
 40
1.0
 10
865.0360890896
 20
1114.5270856507
 30
0.0
 10
864.9948046954
 20
1114.4792701517
 30
0.0
 10
864.9604766571
 20
1114.324956436
 30
0.0
 10
865.0971087816
 20
1114.1547535707
 30
0.0
 10
865.2605747454
 20
1114.0250774009
 30
0.0
 10
865.3839083179
 20
1113.9570362282
 30
0.0
 10
865.4461337818
 20
1113.9270856507
 30
0.0
  0
SPLINE
  5
529
100
AcDbEntity
  8
7_ALL_FEATURES
100
AcDbSpline
 62
7
  6
CONTINUOUS
 70
0
 71
3
 72
11
 73
7
 74
0
 42
0.0000001
 43
0.0000001
 44
0.0000000001
 40
0.0
 40
0.0
 40
0.0
 40
0.0
 40
0.252356101
 40
0.5104807016
 40
0.7691708237
 40
1.0
 40
1.0
 40
1.0
 40
1.0
 10
1107.1345113795
 20
1113.9270856507
 30
0.0
 10
1107.196738915
 20
1113.9570372253
 30
0.0
 10
1107.3200762755
 20
1114.0250800521
 30
0.0
 10
1107.4835438782
 20
1114.1547592227
 30
0.0
 10
1107.6201691066
 20
1114.3249654151
 30
0.0
 10
1107.5858386865
 20
1114.4792722125
 30
0.0
 10
1107.5445560717
 20
1114.5270856507
 30
0.0
  0
SPLINE
  5
52A
100
AcDbEntity
  8
7_ALL_FEATURES
100
AcDbSpline
 62
7
  6
CONTINUOUS
 70
0
 71
3
 72
11
 73
7
 74
0
 42
0.0000001
 43
0.0000001
 44
0.0000000001
 40
0.0
 40
0.0
 40
0.0
 40
0.0
 40
0.252356101
 40
0.5104807016
 40
0.7691708237
 40
1.0
 40
1.0
 40
1.0
 40
1.0
 10
857.1345113795
 20
1113.9270856507
 30
0.0
 10
857.196738915
 20
1113.9570372253
 30
0.0
 10
857.3200762755
 20
1114.0250800521
 30
0.0
 10
857.4835438782
 20
1114.1547592227
 30
0.0
 10
857.6201691066
 20
1114.3249654151
 30
0.0
 10
857.5858386865
 20
1114.4792722125
 30
0.0
 10
857.5445560717
 20
1114.5270856507
 30
0.0
  0
SPLINE
  5
52B
100
AcDbEntity
  8
7_ALL_FEATURES
100
AcDbSpline
 62
7
  6
CONTINUOUS
 70
0
 71
3
 72
9
 73
5
 74
0
 42
0.0000001
 43
0.0000001
 44
0.0000000001
 40
0.0
 40
0.0
 40
0.0
 40
0.0
 40
0.5033938181
 40
1.0
 40
1.0
 40
1.0
 40
1.0
 10
2866.0893606863
 20
1111.5270856507
 30
0.0
 10
2865.9983421078
 20
1111.4570195163
 30
0.0
 10
2865.8324869033
 20
1111.2438733408
 30
0.0
 10
2865.9651573413
 20
1111.0002270924
 30
0.0
 10
2866.0517054407
 20
1110.9270856507
 30
0.0
  0
SPLINE
  5
52C
100
AcDbEntity
  8
7_ALL_FEATURES
100
AcDbSpline
 62
7
  6
CONTINUOUS
 70
0
 71
3
 72
9
 73
5
 74
0
 42
0.0000001
 43
0.0000001
 44
0.0000000001
 40
0.0
 40
0.0
 40
0.0
 40
0.0
 40
0.5033938181
 40
1.0
 40
1.0
 40
1.0
 40
1.0
 10
2616.0893606863
 20
1111.5270856507
 30
0.0
 10
2615.9983421078
 20
1111.4570195163
 30
0.0
 10
2615.8324869033
 20
1111.2438733408
 30
0.0
 10
2615.9651573413
 20
1111.0002270924
 30
0.0
 10
2616.0517054407
 20
1110.9270856507
 30
0.0
  0
SPLINE
  5
52D
100
AcDbEntity
  8
7_ALL_FEATURES
100
AcDbSpline
 62
7
  6
CONTINUOUS
 70
0
 71
3
 72
9
 73
5
 74
0
 42
0.0000001
 43
0.0000001
 44
0.0000000001
 40
0.0
 40
0.0
 40
0.0
 40
0.0
 40
0.4966226038
 40
1.0
 40
1.0
 40
1.0
 40
1.0
 10
2856.5289397206
 20
1110.9270856507
 30
0.0
 10
2856.6154907555
 20
1111.0002295731
 30
0.0
 10
2856.7481589245
 20
1111.2438815991
 30
0.0
 10
2856.5823001616
 20
1111.4570217425
 30
0.0
 10
2856.491284475
 20
1111.5270856507
 30
0.0
  0
SPLINE
  5
52E
100
AcDbEntity
  8
7_ALL_FEATURES
100
AcDbSpline
 62
7
  6
CONTINUOUS
 70
0
 71
3
 72
9
 73
5
 74
0
 42
0.0000001
 43
0.0000001
 44
0.0000000001
 40
0.0
 40
0.0
 40
0.0
 40
0.0
 40
0.5033938181
 40
1.0
 40
1.0
 40
1.0
 40
1.0
 10
2366.0893606863
 20
1111.5270856507
 30
0.0
 10
2365.9983421078
 20
1111.4570195163
 30
0.0
 10
2365.8324869033
 20
1111.2438733408
 30
0.0
 10
2365.9651573413
 20
1111.0002270924
 30
0.0
 10
2366.0517054407
 20
1110.9270856507
 30
0.0
  0
SPLINE
  5
52F
100
AcDbEntity
  8
7_ALL_FEATURES
100
AcDbSpline
 62
7
  6
CONTINUOUS
 70
0
 71
3
 72
9
 73
5
 74
0
 42
0.0000001
 43
0.0000001
 44
0.0000000001
 40
0.0
 40
0.0
 40
0.0
 40
0.0
 40
0.4966226038
 40
1.0
 40
1.0
 40
1.0
 40
1.0
 10
2606.5289397206
 20
1110.9270856507
 30
0.0
 10
2606.6154907555
 20
1111.0002295731
 30
0.0
 10
2606.7481589245
 20
1111.2438815991
 30
0.0
 10
2606.5823001616
 20
1111.4570217425
 30
0.0
 10
2606.491284475
 20
1111.5270856507
 30
0.0
  0
SPLINE
  5
530
100
AcDbEntity
  8
7_ALL_FEATURES
100
AcDbSpline
 62
7
  6
CONTINUOUS
 70
0
 71
3
 72
9
 73
5
 74
0
 42
0.0000001
 43
0.0000001
 44
0.0000000001
 40
0.0
 40
0.0
 40
0.0
 40
0.0
 40
0.5033938181
 40
1.0
 40
1.0
 40
1.0
 40
1.0
 10
2116.0893606863
 20
1111.5270856507
 30
0.0
 10
2115.9983421078
 20
1111.4570195163
 30
0.0
 10
2115.8324869033
 20
1111.2438733408
 30
0.0
 10
2115.9651573413
 20
1111.0002270924
 30
0.0
 10
2116.0517054407
 20
1110.9270856507
 30
0.0
  0
SPLINE
  5
531
100
AcDbEntity
  8
7_ALL_FEATURES
100
AcDbSpline
 62
7
  6
CONTINUOUS
 70
0
 71
3
 72
9
 73
5
 74
0
 42
0.0000001
 43
0.0000001
 44
0.0000000001
 40
0.0
 40
0.0
 40
0.0
 40
0.0
 40
0.4966226038
 40
1.0
 40
1.0
 40
1.0
 40
1.0
 10
2356.5289397206
 20
1110.9270856507
 30
0.0
 10
2356.6154907555
 20
1111.0002295731
 30
0.0
 10
2356.7481589245
 20
1111.2438815991
 30
0.0
 10
2356.5823001616
 20
1111.4570217425
 30
0.0
 10
2356.491284475
 20
1111.5270856507
 30
0.0
  0
SPLINE
  5
532
100
AcDbEntity
  8
7_ALL_FEATURES
100
AcDbSpline
 62
7
  6
CONTINUOUS
 70
0
 71
3
 72
9
 73
5
 74
0
 42
0.0000001
 43
0.0000001
 44
0.0000000001
 40
0.0
 40
0.0
 40
0.0
 40
0.0
 40
0.5033938181
 40
1.0
 40
1.0
 40
1.0
 40
1.0
 10
1866.0893606863
 20
1111.5270856507
 30
0.0
 10
1865.9983421078
 20
1111.4570195163
 30
0.0
 10
1865.8324869033
 20
1111.2438733408
 30
0.0
 10
1865.9651573413
 20
1111.0002270924
 30
0.0
 10
1866.0517054407
 20
1110.9270856507
 30
0.0
  0
SPLINE
  5
533
100
AcDbEntity
  8
7_ALL_FEATURES
100
AcDbSpline
 62
7
  6
CONTINUOUS
 70
0
 71
3
 72
9
 73
5
 74
0
 42
0.0000001
 43
0.0000001
 44
0.0000000001
 40
0.0
 40
0.0
 40
0.0
 40
0.0
 40
0.4966226038
 40
1.0
 40
1.0
 40
1.0
 40
1.0
 10
2106.5289397206
 20
1110.9270856507
 30
0.0
 10
2106.6154907555
 20
1111.0002295731
 30
0.0
 10
2106.7481589245
 20
1111.2438815991
 30
0.0
 10
2106.5823001616
 20
1111.4570217425
 30
0.0
 10
2106.491284475
 20
1111.5270856507
 30
0.0
  0
SPLINE
  5
534
100
AcDbEntity
  8
7_ALL_FEATURES
100
AcDbSpline
 62
7
  6
CONTINUOUS
 70
0
 71
3
 72
9
 73
5
 74
0
 42
0.0000001
 43
0.0000001
 44
0.0000000001
 40
0.0
 40
0.0
 40
0.0
 40
0.0
 40
0.5033938181
 40
1.0
 40
1.0
 40
1.0
 40
1.0
 10
1616.0893606863
 20
1111.5270856507
 30
0.0
 10
1615.9983421078
 20
1111.4570195163
 30
0.0
 10
1615.8324869033
 20
1111.2438733408
 30
0.0
 10
1615.9651573413
 20
1111.0002270924
 30
0.0
 10
1616.0517054407
 20
1110.9270856507
 30
0.0
  0
SPLINE
  5
535
100
AcDbEntity
  8
7_ALL_FEATURES
100
AcDbSpline
 62
7
  6
CONTINUOUS
 70
0
 71
3
 72
9
 73
5
 74
0
 42
0.0000001
 43
0.0000001
 44
0.0000000001
 40
0.0
 40
0.0
 40
0.0
 40
0.0
 40
0.4966226038
 40
1.0
 40
1.0
 40
1.0
 40
1.0
 10
1856.5289397206
 20
1110.9270856507
 30
0.0
 10
1856.6154907555
 20
1111.0002295731
 30
0.0
 10
1856.7481589245
 20
1111.2438815991
 30
0.0
 10
1856.5823001616
 20
1111.4570217425
 30
0.0
 10
1856.491284475
 20
1111.5270856507
 30
0.0
  0
SPLINE
  5
536
100
AcDbEntity
  8
7_ALL_FEATURES
100
AcDbSpline
 62
7
  6
CONTINUOUS
 70
0
 71
3
 72
9
 73
5
 74
0
 42
0.0000001
 43
0.0000001
 44
0.0000000001
 40
0.0
 40
0.0
 40
0.0
 40
0.0
 40
0.5033938181
 40
1.0
 40
1.0
 40
1.0
 40
1.0
 10
1366.0893606863
 20
1111.5270856507
 30
0.0
 10
1365.9983421078
 20
1111.4570195163
 30
0.0
 10
1365.8324869033
 20
1111.2438733408
 30
0.0
 10
1365.9651573413
 20
1111.0002270924
 30
0.0
 10
1366.0517054407
 20
1110.9270856507
 30
0.0
  0
SPLINE
  5
537
100
AcDbEntity
  8
7_ALL_FEATURES
100
AcDbSpline
 62
7
  6
CONTINUOUS
 70
0
 71
3
 72
9
 73
5
 74
0
 42
0.0000001
 43
0.0000001
 44
0.0000000001
 40
0.0
 40
0.0
 40
0.0
 40
0.0
 40
0.4966226038
 40
1.0
 40
1.0
 40
1.0
 40
1.0
 10
1606.5289397206
 20
1110.9270856507
 30
0.0
 10
1606.6154907555
 20
1111.0002295731
 30
0.0
 10
1606.7481589245
 20
1111.2438815991
 30
0.0
 10
1606.5823001616
 20
1111.4570217425
 30
0.0
 10
1606.491284475
 20
1111.5270856507
 30
0.0
  0
SPLINE
  5
538
100
AcDbEntity
  8
7_ALL_FEATURES
100
AcDbSpline
 62
7
  6
CONTINUOUS
 70
0
 71
3
 72
9
 73
5
 74
0
 42
0.0000001
 43
0.0000001
 44
0.0000000001
 40
0.0
 40
0.0
 40
0.0
 40
0.0
 40
0.5033938181
 40
1.0
 40
1.0
 40
1.0
 40
1.0
 10
1116.0893606863
 20
1111.5270856507
 30
0.0
 10
1115.9983421078
 20
1111.4570195163
 30
0.0
 10
1115.8324869033
 20
1111.2438733408
 30
0.0
 10
1115.9651573413
 20
1111.0002270924
 30
0.0
 10
1116.0517054407
 20
1110.9270856507
 30
0.0
  0
SPLINE
  5
539
100
AcDbEntity
  8
7_ALL_FEATURES
100
AcDbSpline
 62
7
  6
CONTINUOUS
 70
0
 71
3
 72
9
 73
5
 74
0
 42
0.0000001
 43
0.0000001
 44
0.0000000001
 40
0.0
 40
0.0
 40
0.0
 40
0.0
 40
0.4966226038
 40
1.0
 40
1.0
 40
1.0
 40
1.0
 10
1356.5289397206
 20
1110.9270856507
 30
0.0
 10
1356.6154907555
 20
1111.0002295731
 30
0.0
 10
1356.7481589245
 20
1111.2438815991
 30
0.0
 10
1356.5823001616
 20
1111.4570217425
 30
0.0
 10
1356.491284475
 20
1111.5270856507
 30
0.0
  0
SPLINE
  5
53A
100
AcDbEntity
  8
7_ALL_FEATURES
100
AcDbSpline
 62
7
  6
CONTINUOUS
 70
0
 71
3
 72
9
 73
5
 74
0
 42
0.0000001
 43
0.0000001
 44
0.0000000001
 40
0.0
 40
0.0
 40
0.0
 40
0.0
 40
0.5033938181
 40
1.0
 40
1.0
 40
1.0
 40
1.0
 10
866.0893606863
 20
1111.5270856507
 30
0.0
 10
865.9983421078
 20
1111.4570195163
 30
0.0
 10
865.8324869033
 20
1111.2438733408
 30
0.0
 10
865.9651573413
 20
1111.0002270924
 30
0.0
 10
866.0517054407
 20
1110.9270856507
 30
0.0
  0
SPLINE
  5
53B
100
AcDbEntity
  8
7_ALL_FEATURES
100
AcDbSpline
 62
7
  6
CONTINUOUS
 70
0
 71
3
 72
9
 73
5
 74
0
 42
0.0000001
 43
0.0000001
 44
0.0000000001
 40
0.0
 40
0.0
 40
0.0
 40
0.0
 40
0.4966226038
 40
1.0
 40
1.0
 40
1.0
 40
1.0
 10
1106.5289397206
 20
1110.9270856507
 30
0.0
 10
1106.6154907555
 20
1111.0002295731
 30
0.0
 10
1106.7481589245
 20
1111.2438815991
 30
0.0
 10
1106.5823001616
 20
1111.4570217425
 30
0.0
 10
1106.491284475
 20
1111.5270856507
 30
0.0
  0
SPLINE
  5
53C
100
AcDbEntity
  8
7_ALL_FEATURES
100
AcDbSpline
 62
7
  6
CONTINUOUS
 70
0
 71
3
 72
9
 73
5
 74
0
 42
0.0000001
 43
0.0000001
 44
0.0000000001
 40
0.0
 40
0.0
 40
0.0
 40
0.0
 40
0.4966226038
 40
1.0
 40
1.0
 40
1.0
 40
1.0
 10
856.5289397206
 20
1110.9270856507
 30
0.0
 10
856.6154907555
 20
1111.0002295731
 30
0.0
 10
856.7481589245
 20
1111.2438815991
 30
0.0
 10
856.5823001616
 20
1111.4570217425
 30
0.0
 10
856.491284475
 20
1111.5270856507
 30
0.0
  0
SPLINE
  5
53D
100
AcDbEntity
  8
6_ALL_SURFS
100
AcDbSpline
 62
7
  6
CONTINUOUS
 70
0
 71
3
 72
11
 73
7
 74
0
 42
0.0000001
 43
0.0000001
 44
0.0000000001
 40
0.0
 40
0.0
 40
0.0
 40
0.0
 40
0.252356101
 40
0.5104807016
 40
0.7691708237
 40
1.0
 40
1.0
 40
1.0
 40
1.0
 10
857.1345113795
 20
1179.2270856507
 30
0.0
 10
857.196738915
 20
1179.1971340762
 30
0.0
 10
857.3200762755
 20
1179.1290912494
 30
0.0
 10
857.4835438782
 20
1178.9994120788
 30
0.0
 10
857.6201691066
 20
1178.8292058863
 30
0.0
 10
857.5858386865
 20
1178.6748990889
 30
0.0
 10
857.5445560717
 20
1178.6270856507
 30
0.0
  0
SPLINE
  5
53E
100
AcDbEntity
  8
6_ALL_SURFS
100
AcDbSpline
 62
7
  6
CONTINUOUS
 70
0
 71
3
 72
11
 73
7
 74
0
 42
0.0000001
 43
0.0000001
 44
0.0000000001
 40
0.0
 40
0.0
 40
0.0
 40
0.0
 40
0.252356101
 40
0.5104807016
 40
0.7691708237
 40
1.0
 40
1.0
 40
1.0
 40
1.0
 10
1107.1345113795
 20
1179.2270856507
 30
0.0
 10
1107.196738915
 20
1179.1971340762
 30
0.0
 10
1107.3200762755
 20
1179.1290912494
 30
0.0
 10
1107.4835438782
 20
1178.9994120788
 30
0.0
 10
1107.6201691066
 20
1178.8292058863
 30
0.0
 10
1107.5858386865
 20
1178.6748990889
 30
0.0
 10
1107.5445560717
 20
1178.6270856507
 30
0.0
  0
SPLINE
  5
53F
100
AcDbEntity
  8
6_ALL_SURFS
100
AcDbSpline
 62
7
  6
CONTINUOUS
 70
0
 71
3
 72
11
 73
7
 74
0
 42
0.0000001
 43
0.0000001
 44
0.0000000001
 40
0.0
 40
0.0
 40
0.0
 40
0.0
 40
0.2308393096
 40
0.4895337914
 40
0.7476520987
 40
1.0
 40
1.0
 40
1.0
 40
1.0
 10
865.0360890896
 20
1178.6270856507
 30
0.0
 10
864.9948046954
 20
1178.6749011498
 30
0.0
 10
864.9604766571
 20
1178.8292148655
 30
0.0
 10
865.0971087816
 20
1178.9994177307
 30
0.0
 10
865.2605747454
 20
1179.1290939005
 30
0.0
 10
865.3839083179
 20
1179.1971350733
 30
0.0
 10
865.4461337818
 20
1179.2270856507
 30
0.0
  0
SPLINE
  5
540
100
AcDbEntity
  8
6_ALL_SURFS
100
AcDbSpline
 62
7
  6
CONTINUOUS
 70
0
 71
3
 72
11
 73
7
 74
0
 42
0.0000001
 43
0.0000001
 44
0.0000000001
 40
0.0
 40
0.0
 40
0.0
 40
0.0
 40
0.252356101
 40
0.5104807016
 40
0.7691708237
 40
1.0
 40
1.0
 40
1.0
 40
1.0
 10
1357.1345113795
 20
1179.2270856507
 30
0.0
 10
1357.196738915
 20
1179.1971340762
 30
0.0
 10
1357.3200762755
 20
1179.1290912494
 30
0.0
 10
1357.4835438782
 20
1178.9994120788
 30
0.0
 10
1357.6201691066
 20
1178.8292058863
 30
0.0
 10
1357.5858386865
 20
1178.6748990889
 30
0.0
 10
1357.5445560717
 20
1178.6270856507
 30
0.0
  0
SPLINE
  5
541
100
AcDbEntity
  8
6_ALL_SURFS
100
AcDbSpline
 62
7
  6
CONTINUOUS
 70
0
 71
3
 72
11
 73
7
 74
0
 42
0.0000001
 43
0.0000001
 44
0.0000000001
 40
0.0
 40
0.0
 40
0.0
 40
0.0
 40
0.2308393096
 40
0.4895337914
 40
0.7476520987
 40
1.0
 40
1.0
 40
1.0
 40
1.0
 10
1115.0360890896
 20
1178.6270856507
 30
0.0
 10
1114.9948046954
 20
1178.6749011498
 30
0.0
 10
1114.9604766571
 20
1178.8292148655
 30
0.0
 10
1115.0971087816
 20
1178.9994177307
 30
0.0
 10
1115.2605747454
 20
1179.1290939005
 30
0.0
 10
1115.3839083179
 20
1179.1971350733
 30
0.0
 10
1115.4461337818
 20
1179.2270856507
 30
0.0
  0
SPLINE
  5
542
100
AcDbEntity
  8
6_ALL_SURFS
100
AcDbSpline
 62
7
  6
CONTINUOUS
 70
0
 71
3
 72
11
 73
7
 74
0
 42
0.0000001
 43
0.0000001
 44
0.0000000001
 40
0.0
 40
0.0
 40
0.0
 40
0.0
 40
0.252356101
 40
0.5104807016
 40
0.7691708237
 40
1.0
 40
1.0
 40
1.0
 40
1.0
 10
1607.1345113795
 20
1179.2270856507
 30
0.0
 10
1607.196738915
 20
1179.1971340762
 30
0.0
 10
1607.3200762755
 20
1179.1290912494
 30
0.0
 10
1607.4835438782
 20
1178.9994120788
 30
0.0
 10
1607.6201691066
 20
1178.8292058863
 30
0.0
 10
1607.5858386865
 20
1178.6748990889
 30
0.0
 10
1607.5445560717
 20
1178.6270856507
 30
0.0
  0
SPLINE
  5
543
100
AcDbEntity
  8
6_ALL_SURFS
100
AcDbSpline
 62
7
  6
CONTINUOUS
 70
0
 71
3
 72
11
 73
7
 74
0
 42
0.0000001
 43
0.0000001
 44
0.0000000001
 40
0.0
 40
0.0
 40
0.0
 40
0.0
 40
0.2308393096
 40
0.4895337914
 40
0.7476520987
 40
1.0
 40
1.0
 40
1.0
 40
1.0
 10
1365.0360890896
 20
1178.6270856507
 30
0.0
 10
1364.9948046954
 20
1178.6749011498
 30
0.0
 10
1364.9604766571
 20
1178.8292148655
 30
0.0
 10
1365.0971087816
 20
1178.9994177307
 30
0.0
 10
1365.2605747454
 20
1179.1290939005
 30
0.0
 10
1365.3839083179
 20
1179.1971350733
 30
0.0
 10
1365.4461337818
 20
1179.2270856507
 30
0.0
  0
SPLINE
  5
544
100
AcDbEntity
  8
6_ALL_SURFS
100
AcDbSpline
 62
7
  6
CONTINUOUS
 70
0
 71
3
 72
11
 73
7
 74
0
 42
0.0000001
 43
0.0000001
 44
0.0000000001
 40
0.0
 40
0.0
 40
0.0
 40
0.0
 40
0.252356101
 40
0.5104807016
 40
0.7691708237
 40
1.0
 40
1.0
 40
1.0
 40
1.0
 10
1857.1345113795
 20
1179.2270856507
 30
0.0
 10
1857.196738915
 20
1179.1971340762
 30
0.0
 10
1857.3200762755
 20
1179.1290912494
 30
0.0
 10
1857.4835438782
 20
1178.9994120788
 30
0.0
 10
1857.6201691066
 20
1178.8292058863
 30
0.0
 10
1857.5858386865
 20
1178.6748990889
 30
0.0
 10
1857.5445560717
 20
1178.6270856507
 30
0.0
  0
SPLINE
  5
545
100
AcDbEntity
  8
6_ALL_SURFS
100
AcDbSpline
 62
7
  6
CONTINUOUS
 70
0
 71
3
 72
11
 73
7
 74
0
 42
0.0000001
 43
0.0000001
 44
0.0000000001
 40
0.0
 40
0.0
 40
0.0
 40
0.0
 40
0.2308393096
 40
0.4895337914
 40
0.7476520987
 40
1.0
 40
1.0
 40
1.0
 40
1.0
 10
1615.0360890896
 20
1178.6270856507
 30
0.0
 10
1614.9948046954
 20
1178.6749011498
 30
0.0
 10
1614.9604766571
 20
1178.8292148655
 30
0.0
 10
1615.0971087816
 20
1178.9994177307
 30
0.0
 10
1615.2605747454
 20
1179.1290939005
 30
0.0
 10
1615.3839083179
 20
1179.1971350733
 30
0.0
 10
1615.4461337818
 20
1179.2270856507
 30
0.0
  0
SPLINE
  5
546
100
AcDbEntity
  8
6_ALL_SURFS
100
AcDbSpline
 62
7
  6
CONTINUOUS
 70
0
 71
3
 72
11
 73
7
 74
0
 42
0.0000001
 43
0.0000001
 44
0.0000000001
 40
0.0
 40
0.0
 40
0.0
 40
0.0
 40
0.252356101
 40
0.5104807016
 40
0.7691708237
 40
1.0
 40
1.0
 40
1.0
 40
1.0
 10
2107.1345113795
 20
1179.2270856507
 30
0.0
 10
2107.196738915
 20
1179.1971340762
 30
0.0
 10
2107.3200762755
 20
1179.1290912494
 30
0.0
 10
2107.4835438782
 20
1178.9994120788
 30
0.0
 10
2107.6201691066
 20
1178.8292058863
 30
0.0
 10
2107.5858386865
 20
1178.6748990889
 30
0.0
 10
2107.5445560717
 20
1178.6270856507
 30
0.0
  0
SPLINE
  5
547
100
AcDbEntity
  8
6_ALL_SURFS
100
AcDbSpline
 62
7
  6
CONTINUOUS
 70
0
 71
3
 72
11
 73
7
 74
0
 42
0.0000001
 43
0.0000001
 44
0.0000000001
 40
0.0
 40
0.0
 40
0.0
 40
0.0
 40
0.2308393096
 40
0.4895337914
 40
0.7476520987
 40
1.0
 40
1.0
 40
1.0
 40
1.0
 10
1865.0360890896
 20
1178.6270856507
 30
0.0
 10
1864.9948046954
 20
1178.6749011498
 30
0.0
 10
1864.9604766571
 20
1178.8292148655
 30
0.0
 10
1865.0971087816
 20
1178.9994177307
 30
0.0
 10
1865.2605747454
 20
1179.1290939005
 30
0.0
 10
1865.3839083179
 20
1179.1971350733
 30
0.0
 10
1865.4461337818
 20
1179.2270856507
 30
0.0
  0
SPLINE
  5
548
100
AcDbEntity
  8
6_ALL_SURFS
100
AcDbSpline
 62
7
  6
CONTINUOUS
 70
0
 71
3
 72
11
 73
7
 74
0
 42
0.0000001
 43
0.0000001
 44
0.0000000001
 40
0.0
 40
0.0
 40
0.0
 40
0.0
 40
0.252356101
 40
0.5104807016
 40
0.7691708237
 40
1.0
 40
1.0
 40
1.0
 40
1.0
 10
2357.1345113795
 20
1179.2270856507
 30
0.0
 10
2357.196738915
 20
1179.1971340762
 30
0.0
 10
2357.3200762755
 20
1179.1290912494
 30
0.0
 10
2357.4835438782
 20
1178.9994120788
 30
0.0
 10
2357.6201691066
 20
1178.8292058863
 30
0.0
 10
2357.5858386865
 20
1178.6748990889
 30
0.0
 10
2357.5445560717
 20
1178.6270856507
 30
0.0
  0
SPLINE
  5
549
100
AcDbEntity
  8
6_ALL_SURFS
100
AcDbSpline
 62
7
  6
CONTINUOUS
 70
0
 71
3
 72
11
 73
7
 74
0
 42
0.0000001
 43
0.0000001
 44
0.0000000001
 40
0.0
 40
0.0
 40
0.0
 40
0.0
 40
0.2308393096
 40
0.4895337914
 40
0.7476520987
 40
1.0
 40
1.0
 40
1.0
 40
1.0
 10
2115.0360890896
 20
1178.6270856507
 30
0.0
 10
2114.9948046954
 20
1178.6749011498
 30
0.0
 10
2114.9604766571
 20
1178.8292148655
 30
0.0
 10
2115.0971087816
 20
1178.9994177307
 30
0.0
 10
2115.2605747454
 20
1179.1290939005
 30
0.0
 10
2115.3839083179
 20
1179.1971350733
 30
0.0
 10
2115.4461337818
 20
1179.2270856507
 30
0.0
  0
SPLINE
  5
54A
100
AcDbEntity
  8
6_ALL_SURFS
100
AcDbSpline
 62
7
  6
CONTINUOUS
 70
0
 71
3
 72
11
 73
7
 74
0
 42
0.0000001
 43
0.0000001
 44
0.0000000001
 40
0.0
 40
0.0
 40
0.0
 40
0.0
 40
0.252356101
 40
0.5104807016
 40
0.7691708237
 40
1.0
 40
1.0
 40
1.0
 40
1.0
 10
2607.1345113795
 20
1179.2270856507
 30
0.0
 10
2607.196738915
 20
1179.1971340762
 30
0.0
 10
2607.3200762755
 20
1179.1290912494
 30
0.0
 10
2607.4835438782
 20
1178.9994120788
 30
0.0
 10
2607.6201691066
 20
1178.8292058863
 30
0.0
 10
2607.5858386865
 20
1178.6748990889
 30
0.0
 10
2607.5445560717
 20
1178.6270856507
 30
0.0
  0
SPLINE
  5
54B
100
AcDbEntity
  8
6_ALL_SURFS
100
AcDbSpline
 62
7
  6
CONTINUOUS
 70
0
 71
3
 72
11
 73
7
 74
0
 42
0.0000001
 43
0.0000001
 44
0.0000000001
 40
0.0
 40
0.0
 40
0.0
 40
0.0
 40
0.2308393096
 40
0.4895337914
 40
0.7476520987
 40
1.0
 40
1.0
 40
1.0
 40
1.0
 10
2365.0360890896
 20
1178.6270856507
 30
0.0
 10
2364.9948046954
 20
1178.6749011498
 30
0.0
 10
2364.9604766571
 20
1178.8292148655
 30
0.0
 10
2365.0971087816
 20
1178.9994177307
 30
0.0
 10
2365.2605747454
 20
1179.1290939005
 30
0.0
 10
2365.3839083179
 20
1179.1971350733
 30
0.0
 10
2365.4461337818
 20
1179.2270856507
 30
0.0
  0
SPLINE
  5
54C
100
AcDbEntity
  8
6_ALL_SURFS
100
AcDbSpline
 62
7
  6
CONTINUOUS
 70
0
 71
3
 72
11
 73
7
 74
0
 42
0.0000001
 43
0.0000001
 44
0.0000000001
 40
0.0
 40
0.0
 40
0.0
 40
0.0
 40
0.252356101
 40
0.5104807016
 40
0.7691708237
 40
1.0
 40
1.0
 40
1.0
 40
1.0
 10
2857.1345113795
 20
1179.2270856507
 30
0.0
 10
2857.196738915
 20
1179.1971340762
 30
0.0
 10
2857.3200762755
 20
1179.1290912494
 30
0.0
 10
2857.4835438782
 20
1178.9994120788
 30
0.0
 10
2857.6201691066
 20
1178.8292058863
 30
0.0
 10
2857.5858386865
 20
1178.6748990889
 30
0.0
 10
2857.5445560717
 20
1178.6270856507
 30
0.0
  0
SPLINE
  5
54D
100
AcDbEntity
  8
6_ALL_SURFS
100
AcDbSpline
 62
7
  6
CONTINUOUS
 70
0
 71
3
 72
11
 73
7
 74
0
 42
0.0000001
 43
0.0000001
 44
0.0000000001
 40
0.0
 40
0.0
 40
0.0
 40
0.0
 40
0.2308393096
 40
0.4895337914
 40
0.7476520987
 40
1.0
 40
1.0
 40
1.0
 40
1.0
 10
2615.0360890896
 20
1178.6270856507
 30
0.0
 10
2614.9948046954
 20
1178.6749011498
 30
0.0
 10
2614.9604766571
 20
1178.8292148655
 30
0.0
 10
2615.0971087816
 20
1178.9994177307
 30
0.0
 10
2615.2605747454
 20
1179.1290939005
 30
0.0
 10
2615.3839083179
 20
1179.1971350733
 30
0.0
 10
2615.4461337818
 20
1179.2270856507
 30
0.0
  0
SPLINE
  5
54E
100
AcDbEntity
  8
6_ALL_SURFS
100
AcDbSpline
 62
7
  6
CONTINUOUS
 70
0
 71
3
 72
11
 73
7
 74
0
 42
0.0000001
 43
0.0000001
 44
0.0000000001
 40
0.0
 40
0.0
 40
0.0
 40
0.0
 40
0.2308393096
 40
0.4895337914
 40
0.7476520987
 40
1.0
 40
1.0
 40
1.0
 40
1.0
 10
2865.0360890896
 20
1178.6270856507
 30
0.0
 10
2864.9948046954
 20
1178.6749011498
 30
0.0
 10
2864.9604766571
 20
1178.8292148655
 30
0.0
 10
2865.0971087816
 20
1178.9994177307
 30
0.0
 10
2865.2605747454
 20
1179.1290939005
 30
0.0
 10
2865.3839083179
 20
1179.1971350733
 30
0.0
 10
2865.4461337818
 20
1179.2270856507
 30
0.0
  0
ELLIPSE
  5
54F
100
AcDbEntity
  8
6_ALL_SURFS
100
AcDbEllipse
 62
7
  6
CONTINUOUS
 10
2861.2903225806
 20
764.3492769744
 30
0.0
 11
3.5
 21
0.0
 31
0.0
 40
0.5
 41
-1.910488903
 42
-1.2311037506
  0
ELLIPSE
  5
550
100
AcDbEntity
  8
6_ALL_SURFS
100
AcDbEllipse
 62
7
  6
CONTINUOUS
 10
2611.2903225806
 20
764.3492769744
 30
0.0
 11
3.5
 21
0.0
 31
0.0
 40
0.5
 41
-1.910488903
 42
-1.2311037506
  0
ELLIPSE
  5
551
100
AcDbEntity
  8
6_ALL_SURFS
100
AcDbEllipse
 62
7
  6
CONTINUOUS
 10
2361.2903225806
 20
764.3492769744
 30
0.0
 11
3.5
 21
0.0
 31
0.0
 40
0.5
 41
-1.910488903
 42
-1.2311037506
  0
ELLIPSE
  5
552
100
AcDbEntity
  8
6_ALL_SURFS
100
AcDbEllipse
 62
7
  6
CONTINUOUS
 10
2111.2903225806
 20
764.3492769744
 30
0.0
 11
3.5
 21
0.0
 31
0.0
 40
0.5
 41
-1.910488903
 42
-1.2311037506
  0
ELLIPSE
  5
553
100
AcDbEntity
  8
6_ALL_SURFS
100
AcDbEllipse
 62
7
  6
CONTINUOUS
 10
1861.2903225806
 20
764.3492769744
 30
0.0
 11
3.5
 21
0.0
 31
0.0
 40
0.5
 41
-1.910488903
 42
-1.2311037506
  0
ELLIPSE
  5
554
100
AcDbEntity
  8
6_ALL_SURFS
100
AcDbEllipse
 62
7
  6
CONTINUOUS
 10
1611.2903225806
 20
764.3492769744
 30
0.0
 11
3.5
 21
0.0
 31
0.0
 40
0.5
 41
-1.910488903
 42
-1.2311037506
  0
ELLIPSE
  5
555
100
AcDbEntity
  8
6_ALL_SURFS
100
AcDbEllipse
 62
7
  6
CONTINUOUS
 10
1361.2903225806
 20
764.3492769744
 30
0.0
 11
3.5
 21
0.0
 31
0.0
 40
0.5
 41
-1.910488903
 42
-1.2311037506
  0
ELLIPSE
  5
556
100
AcDbEntity
  8
6_ALL_SURFS
100
AcDbEllipse
 62
7
  6
CONTINUOUS
 10
1111.2903225806
 20
764.3492769744
 30
0.0
 11
3.5
 21
0.0
 31
0.0
 40
0.5
 41
-1.910488903
 42
-1.2311037506
  0
ELLIPSE
  5
557
100
AcDbEntity
  8
6_ALL_SURFS
100
AcDbEllipse
 62
7
  6
CONTINUOUS
 10
861.2903225806
 20
764.3492769744
 30
0.0
 11
3.5
 21
-0.0
 31
0.0
 40
0.5
 41
4.3726964042
 42
5.0520815566
  0
ELLIPSE
  5
558
100
AcDbEntity
  8
6_ALL_SURFS
100
AcDbEllipse
 62
7
  6
CONTINUOUS
 10
861.2903225806
 20
761.1027596772
 30
0.0
 11
5.4882058378
 21
-0.0
 31
0.0
 40
0.1015346165
 41
0.9294607698
 42
2.2121318838
  0
ELLIPSE
  5
559
100
AcDbEntity
  8
6_ALL_SURFS
100
AcDbEllipse
 62
7
  6
CONTINUOUS
 10
1111.2903225806
 20
761.1027596772
 30
0.0
 11
5.4882058378
 21
-0.0
 31
0.0
 40
0.1015346165
 41
0.9294607698
 42
2.2121318838
  0
ELLIPSE
  5
55A
100
AcDbEntity
  8
6_ALL_SURFS
100
AcDbEllipse
 62
7
  6
CONTINUOUS
 10
1361.2903225806
 20
761.1027596772
 30
0.0
 11
5.4882058378
 21
-0.0
 31
0.0
 40
0.1015346165
 41
0.9294607698
 42
2.2121318838
  0
ELLIPSE
  5
55B
100
AcDbEntity
  8
6_ALL_SURFS
100
AcDbEllipse
 62
7
  6
CONTINUOUS
 10
1611.2903225806
 20
761.1027596772
 30
0.0
 11
5.4882058378
 21
-0.0
 31
0.0
 40
0.1015346165
 41
0.9294607698
 42
2.2121318838
  0
ELLIPSE
  5
55C
100
AcDbEntity
  8
6_ALL_SURFS
100
AcDbEllipse
 62
7
  6
CONTINUOUS
 10
1861.2903225806
 20
761.1027596772
 30
0.0
 11
5.4882058378
 21
0.0
 31
0.0
 40
0.1015346165
 41
0.9294607698
 42
2.2121318838
  0
ELLIPSE
  5
55D
100
AcDbEntity
  8
6_ALL_SURFS
100
AcDbEllipse
 62
7
  6
CONTINUOUS
 10
2111.2903225806
 20
761.1027596772
 30
0.0
 11
5.4882058378
 21
-0.0
 31
0.0
 40
0.1015346165
 41
0.9294607698
 42
2.2121318838
  0
ELLIPSE
  5
55E
100
AcDbEntity
  8
6_ALL_SURFS
100
AcDbEllipse
 62
7
  6
CONTINUOUS
 10
2361.2903225806
 20
761.1027596772
 30
0.0
 11
5.4882058378
 21
0.0
 31
0.0
 40
0.1015346165
 41
0.9294607698
 42
2.2121318838
  0
ELLIPSE
  5
55F
100
AcDbEntity
  8
6_ALL_SURFS
100
AcDbEllipse
 62
7
  6
CONTINUOUS
 10
2611.2903225806
 20
761.1027596772
 30
0.0
 11
5.4882058378
 21
0.0
 31
0.0
 40
0.1015346165
 41
0.9294607698
 42
2.2121318838
  0
ELLIPSE
  5
560
100
AcDbEntity
  8
6_ALL_SURFS
100
AcDbEllipse
 62
7
  6
CONTINUOUS
 10
2861.2903225806
 20
761.1027596772
 30
0.0
 11
5.4882058378
 21
0.0
 31
0.0
 40
0.1015346165
 41
0.9294607698
 42
2.2121318838
  0
ELLIPSE
  5
561
100
AcDbEntity
  8
7_ALL_FEATURES
100
AcDbEllipse
 62
7
  6
CONTINUOUS
 10
861.2903225806
 20
1112.4922586225
 30
0.0
 11
0.0
 21
5.5724287509
 31
0.0
 40
0.9848857802
 41
2.5002570966
 42
3.7829282106
  0
ELLIPSE
  5
562
100
AcDbEntity
  8
7_ALL_FEATURES
100
AcDbEllipse
 62
7
  6
CONTINUOUS
 10
1111.2903225806
 20
1112.4922586225
 30
0.0
 11
0.0
 21
5.5724287509
 31
0.0
 40
0.9848857802
 41
2.5002570966
 42
3.7829282106
  0
ELLIPSE
  5
563
100
AcDbEntity
  8
7_ALL_FEATURES
100
AcDbEllipse
 62
7
  6
CONTINUOUS
 10
1361.2903225806
 20
1112.4922586225
 30
0.0
 11
0.0
 21
5.5724287509
 31
0.0
 40
0.9848857802
 41
2.5002570966
 42
3.7829282106
  0
ELLIPSE
  5
564
100
AcDbEntity
  8
7_ALL_FEATURES
100
AcDbEllipse
 62
7
  6
CONTINUOUS
 10
1611.2903225806
 20
1112.4922586225
 30
0.0
 11
0.0
 21
5.5724287509
 31
0.0
 40
0.9848857802
 41
2.5002570966
 42
3.7829282106
  0
ELLIPSE
  5
565
100
AcDbEntity
  8
7_ALL_FEATURES
100
AcDbEllipse
 62
7
  6
CONTINUOUS
 10
1861.2903225806
 20
1112.4922586225
 30
0.0
 11
-0.0
 21
5.5724287509
 31
0.0
 40
0.9848857802
 41
2.5002570966
 42
3.7829282106
  0
ELLIPSE
  5
566
100
AcDbEntity
  8
7_ALL_FEATURES
100
AcDbEllipse
 62
7
  6
CONTINUOUS
 10
2111.2903225806
 20
1112.4922586225
 30
0.0
 11
-0.0
 21
5.5724287509
 31
0.0
 40
0.9848857802
 41
2.5002570966
 42
3.7829282106
  0
ELLIPSE
  5
567
100
AcDbEntity
  8
7_ALL_FEATURES
100
AcDbEllipse
 62
7
  6
CONTINUOUS
 10
2361.2903225806
 20
1112.4922586225
 30
0.0
 11
-0.0
 21
5.5724287509
 31
0.0
 40
0.9848857802
 41
2.5002570966
 42
3.7829282106
  0
ELLIPSE
  5
568
100
AcDbEntity
  8
7_ALL_FEATURES
100
AcDbEllipse
 62
7
  6
CONTINUOUS
 10
2611.2903225806
 20
1112.4922586225
 30
0.0
 11
-0.0
 21
5.5724287509
 31
0.0
 40
0.9848857802
 41
2.5002570966
 42
3.7829282106
  0
ELLIPSE
  5
569
100
AcDbEntity
  8
7_ALL_FEATURES
100
AcDbEllipse
 62
7
  6
CONTINUOUS
 10
2861.2903225806
 20
1112.4922586225
 30
0.0
 11
-0.0
 21
5.5724287509
 31
0.0
 40
0.9848857802
 41
2.5002570966
 42
3.7829282106
  0
ELLIPSE
  5
56A
100
AcDbEntity
  8
6_ALL_SURFS
100
AcDbEllipse
 62
7
  6
CONTINUOUS
 10
2111.2903225806
 20
1180.6619126789
 30
0.0
 11
0.0
 21
5.5724287509
 31
0.0
 40
0.9848857802
 41
-0.641335557
 42
0.641335557
  0
ELLIPSE
  5
56B
100
AcDbEntity
  8
6_ALL_SURFS
100
AcDbEllipse
 62
7
  6
CONTINUOUS
 10
2361.2903225806
 20
1180.6619126789
 30
0.0
 11
0.0
 21
5.5724287509
 31
0.0
 40
0.9848857802
 41
-0.641335557
 42
0.641335557
  0
ELLIPSE
  5
56C
100
AcDbEntity
  8
6_ALL_SURFS
100
AcDbEllipse
 62
7
  6
CONTINUOUS
 10
2611.2903225806
 20
1180.6619126789
 30
0.0
 11
0.0
 21
5.5724287509
 31
0.0
 40
0.9848857802
 41
-0.641335557
 42
0.641335557
  0
ELLIPSE
  5
56D
100
AcDbEntity
  8
6_ALL_SURFS
100
AcDbEllipse
 62
7
  6
CONTINUOUS
 10
2861.2903225806
 20
1180.6619126789
 30
0.0
 11
0.0
 21
5.5724287509
 31
0.0
 40
0.9848857802
 41
-0.641335557
 42
0.641335557
  0
ELLIPSE
  5
56E
100
AcDbEntity
  8
6_ALL_SURFS
100
AcDbEllipse
 62
7
  6
CONTINUOUS
 10
861.2903225806
 20
1180.6619126789
 30
0.0
 11
-0.0
 21
5.5724287509
 31
0.0
 40
0.9848857802
 41
-0.641335557
 42
0.641335557
  0
ELLIPSE
  5
56F
100
AcDbEntity
  8
6_ALL_SURFS
100
AcDbEllipse
 62
7
  6
CONTINUOUS
 10
1111.2903225806
 20
1180.6619126789
 30
0.0
 11
-0.0
 21
5.5724287509
 31
0.0
 40
0.9848857802
 41
-0.641335557
 42
0.641335557
  0
ELLIPSE
  5
570
100
AcDbEntity
  8
6_ALL_SURFS
100
AcDbEllipse
 62
7
  6
CONTINUOUS
 10
1361.2903225806
 20
1180.6619126789
 30
0.0
 11
-0.0
 21
5.5724287509
 31
0.0
 40
0.9848857802
 41
-0.641335557
 42
0.641335557
  0
ELLIPSE
  5
571
100
AcDbEntity
  8
6_ALL_SURFS
100
AcDbEllipse
 62
7
  6
CONTINUOUS
 10
1611.2903225806
 20
1180.6619126789
 30
0.0
 11
-0.0
 21
5.5724287509
 31
0.0
 40
0.9848857802
 41
-0.641335557
 42
0.641335557
  0
ELLIPSE
  5
572
100
AcDbEntity
  8
6_ALL_SURFS
100
AcDbEllipse
 62
7
  6
CONTINUOUS
 10
1861.2903225806
 20
1180.6619126789
 30
0.0
 11
0.0
 21
5.5724287509
 31
0.0
 40
0.9848857802
 41
-0.641335557
 42
0.641335557
  0
ENDSEC
  0
SECTION
  2
OBJECTS
  0
DICTIONARY
  5
573
100
AcDbDictionary
  3
ACAD_GROUP
350
574
  3
ACAD_MLINESTYLE
350
575
  0
DICTIONARY
  5
574
102
{ACAD_REACTORS
330
573
102
}
100
AcDbDictionary
  0
DICTIONARY
  5
575
102
{ACAD_REACTORS
330
573
102
}
100
AcDbDictionary
  3
STANDARD
350
576
  0
MLINESTYLE
  5
576
102
{ACAD_REACTORS
330
575
102
}
100
AcDbMlineStyle
  2
STANDARD
 70
0
  3

 62
256
 51
90.0
 52
90.0
 71
2
 49
0.5
 62
256
  6
BYLAYER
 49
-0.5
 62
256
  6
BYLAYER
  0
ENDSEC
  0
EOF
