999
DXF file: 6f3_c_043.dxf
999
Pro/ENGINEER 2016360 by Parametric Technology Corporation
  0
SECTION
  2
HEADER
  9
$ACADVER
  1
AC1014
  9
$DWGCODEPAGE
  3
ANSI_1252
  9
$EXTMAX
 10
2500.0
 20
3200.0
 30
0.0
  9
$EXTMIN
 10
0.0
 20
0.0
 30
0.0
  9
$LIMMIN
 10
0.0
 20
0.0
  9
$LIMMAX
 10
2500.0
 20
3200.0
  9
$VIEWCTR
 10
1250.0
 20
1600.0
  9
$VIEWSIZE
 40
3200.0
  9
$CLAYER
  8
0
  9
$LTSCALE
 40
208.5925925926
  9
$CELTYPE
  6
BYLAYER
  9
$DIMSCALE
 40
1.0
  9
$DIMASZ
 40
2.5
  9
$DIMEXO
 40
0.75
  9
$DIMDLI
 40
144.1185185185
  9
$DIMEXE
 40
0.75
  9
$DIMCEN
 40
34.1333333333
  9
$DIMLFAC
 40
1.0
  9
$DIMBLK
  1
_CLOSED
  9
$DIMALT
 70
0
  9
$DIMALTF
 40
25.4
  9
$DIMTXT
 40
3.0
  9
$DIMTOL
 70
1
  9
$DIMLIM
 70
0
  9
$DIMTFAC
 40
1.0
  9
$DIMTP
 40
0.01
  9
$DIMTM
 40
0.01
  9
$DIMGAP
 40
0.625
  9
$AUNITS
 70
0
  9
$PDMODE
 70
3
  9
$PDSIZE
 40
0.3125
  9
$HANDSEED
  5
529
  9
$TILEMODE
 70
1
  9
$MEASUREMENT
 70
1
  0
ENDSEC
  0
SECTION
  2
CLASSES
  0
ENDSEC
  0
SECTION
  2
TABLES
  0
TABLE
  2
VPORT
  5
8
100
AcDbSymbolTable
 70
2
  0
VPORT
  5
1F4
100
AcDbSymbolTableRecord
100
AcDbViewportTableRecord
  2
*ACTIVE
 70
0
 10
0.0
 20
0.0
 11
1.0
 21
1.0
 12
1250.0
 22
1600.0
 13
0.0
 23
0.0
 14
1.0
 24
1.0
 15
0.0
 25
0.0
 16
0.0
 26
0.0
 36
1.0
 17
0.0
 27
0.0
 37
0.0
 40
3200.0
 41
0.78125
 42
50.0
 43
0.0
 44
0.0
 50
0.0
 51
0.0
 71
0
 72
100
 73
1
 74
1
 75
0
 76
0
 77
0
 78
0
  0
ENDTAB
  0
TABLE
  2
LTYPE
  5
5
100
AcDbSymbolTable
 70
6
  0
LTYPE
  5
14
100
AcDbSymbolTableRecord
100
AcDbLinetypeTableRecord
  2
BYBLOCK
 70
0
  3

 72
65
 73
0
 40
0.0
  0
LTYPE
  5
15
100
AcDbSymbolTableRecord
100
AcDbLinetypeTableRecord
  2
BYLAYER
 70
0
  3

 72
65
 73
0
 40
0.0
  0
LTYPE
  5
16
100
AcDbSymbolTableRecord
100
AcDbLinetypeTableRecord
  2
CONTINUOUS
 70
64
  3
Solid line
 72
65
 73
0
 40
0.0
  0
LTYPE
  5
1F5
100
AcDbSymbolTableRecord
100
AcDbLinetypeTableRecord
  2
CENTER
 70
64
  3
____ _ ____ _ ____ _ ____ _ ____ _ ____ _ ____
 72
65
 73
4
 40
0.6
 49
0.375
 74
0
 49
-0.075
 74
0
 49
0.075
 74
0
 49
-0.075
 74
0
  0
LTYPE
  5
1F6
100
AcDbSymbolTableRecord
100
AcDbLinetypeTableRecord
  2
HIDDEN
 70
64
  3
- - - - - - - - - - - - - - - - - - - -
 72
65
 73
2
 40
0.2
 49
0.1
 74
0
 49
-0.1
 74
0
  0
LTYPE
  5
1F7
100
AcDbSymbolTableRecord
100
AcDbLinetypeTableRecord
  2
PHANTOM
 70
64
  3
_____ _ _ _____ _ _ _____ _ _ _____
 72
65
 73
6
 40
0.8
 49
0.45
 74
0
 49
-0.05
 74
0
 49
0.1
 74
0
 49
-0.05
 74
0
 49
0.1
 74
0
 49
-0.05
 74
0
  0
LTYPE
  5
1F8
100
AcDbSymbolTableRecord
100
AcDbLinetypeTableRecord
  2
DOT
 70
64
  3
. . . . . . . . . . . . . . . . . . . .
 72
65
 73
2
 40
0.2
 49
0.1
 74
0
 49
-0.1
 74
0
  0
LTYPE
  5
1F9
100
AcDbSymbolTableRecord
100
AcDbLinetypeTableRecord
  2
DASHED
 70
64
  3
- - - - - - - - - - - - - - - - - - - -
 72
65
 73
2
 40
0.2
 49
0.1
 74
0
 49
-0.1
 74
0
  0
ENDTAB
  0
TABLE
  2
LAYER
  5
2
100
AcDbSymbolTable
 70
36
  0
LAYER
  5
10
100
AcDbSymbolTableRecord
100
AcDbLayerTableRecord
  2
0
 70
0
 62
7
  6
CONTINUOUS
  0
LAYER
  5
1FA
100
AcDbSymbolTableRecord
100
AcDbLayerTableRecord
  2
DEFAULT_1
 70
0
 62
7
  6
CENTER
  0
LAYER
  5
1FB
100
AcDbSymbolTableRecord
100
AcDbLayerTableRecord
  2
DEFAULT_2
 70
0
 62
8
  6
HIDDEN
  0
LAYER
  5
1FC
100
AcDbSymbolTableRecord
100
AcDbLayerTableRecord
  2
DEFAULT_3
 70
0
 62
7
  6
PHANTOM
  0
LAYER
  5
1FD
100
AcDbSymbolTableRecord
100
AcDbLayerTableRecord
  2
1_ALL_PLANES
 70
0
 62
7
  6
CONTINUOUS
  0
LAYER
  5
1FE
100
AcDbSymbolTableRecord
100
AcDbLayerTableRecord
  2
2_ALL_CSYS
 70
0
 62
7
  6
CONTINUOUS
  0
LAYER
  5
1FF
100
AcDbSymbolTableRecord
100
AcDbLayerTableRecord
  2
3_ALL_AXES
 70
0
 62
7
  6
CONTINUOUS
  0
LAYER
  5
200
100
AcDbSymbolTableRecord
100
AcDbLayerTableRecord
  2
4_ALL_POINTS
 70
0
 62
7
  6
CONTINUOUS
  0
LAYER
  5
201
100
AcDbSymbolTableRecord
100
AcDbLayerTableRecord
  2
5_ALL_CURVES
 70
0
 62
7
  6
CONTINUOUS
  0
LAYER
  5
202
100
AcDbSymbolTableRecord
100
AcDbLayerTableRecord
  2
5__COSTRUZIONE
 70
0
 62
7
  6
CONTINUOUS
  0
LAYER
  5
203
100
AcDbSymbolTableRecord
100
AcDbLayerTableRecord
  2
6_ALL_SURFS
 70
0
 62
7
  6
CONTINUOUS
  0
LAYER
  5
204
100
AcDbSymbolTableRecord
100
AcDbLayerTableRecord
  2
7_ALL_FEATURES
 70
0
 62
7
  6
CONTINUOUS
  0
LAYER
  5
205
100
AcDbSymbolTableRecord
100
AcDbLayerTableRecord
  2
9_SOLID
 70
0
 62
7
  6
CONTINUOUS
  0
LAYER
  5
206
100
AcDbSymbolTableRecord
100
AcDbLayerTableRecord
  2
PR9034
 70
0
 62
7
  6
CONTINUOUS
  0
LAYER
  5
207
100
AcDbSymbolTableRecord
100
AcDbLayerTableRecord
  2
WHITE
 70
0
 62
7
  6
CONTINUOUS
  0
LAYER
  5
208
100
AcDbSymbolTableRecord
100
AcDbLayerTableRecord
  2
XXX_SOLIDO
 70
0
 62
7
  6
CONTINUOUS
  0
ENDTAB
  0
TABLE
  2
STYLE
  5
3
100
AcDbSymbolTable
 70
1
  0
STYLE
  5
11
100
AcDbSymbolTableRecord
100
AcDbTextStyleTableRecord
  2
STANDARD
 70
0
 40
0.0
 41
1.0
 50
0.0
 71
0
 42
0.2
  3
arial.ttf
  4

  0
STYLE
  5
209
100
AcDbSymbolTableRecord
100
AcDbTextStyleTableRecord
  2
TEXTSTYLE_1
 70
0
 40
0.0
 41
0.8
 50
0.0
 71
0
 42
0.2
  3
gdt
  4

  0
STYLE
  5
20A
100
AcDbSymbolTableRecord
100
AcDbTextStyleTableRecord
  2
TEXTSTYLE_2
 70
0
 40
0.0
 41
0.85
 50
0.0
 71
0
 42
0.2
  3
txt
  4

  0
ENDTAB
  0
TABLE
  2
VIEW
  5
6
100
AcDbSymbolTable
 70
0
  0
ENDTAB
  0
TABLE
  2
UCS
  5
7
100
AcDbSymbolTable
 70
0
  0
ENDTAB
  0
TABLE
  2
APPID
  5
9
100
AcDbSymbolTable
 70
1
  0
APPID
  5
20B
100
AcDbSymbolTableRecord
100
AcDbRegAppTableRecord
  2
ACAD
 70
0
  0
ENDTAB
  0
TABLE
  2
BLOCK_RECORD
  5
1
100
AcDbSymbolTable
 70
0
  0
BLOCK_RECORD
  5
1F
100
AcDbSymbolTableRecord
100
AcDbBlockTableRecord
  2
*MODEL_SPACE
  0
BLOCK_RECORD
  5
1B
100
AcDbSymbolTableRecord
100
AcDbBlockTableRecord
  2
*PAPER_SPACE
  0
BLOCK_RECORD
  5
20C
100
AcDbSymbolTableRecord
100
AcDbBlockTableRecord
  2
_CLOSED
  0
BLOCK_RECORD
  5
20D
100
AcDbSymbolTableRecord
100
AcDbBlockTableRecord
  2
*D0
  0
BLOCK_RECORD
  5
20E
100
AcDbSymbolTableRecord
100
AcDbBlockTableRecord
  2
*D1
  0
BLOCK_RECORD
  5
20F
100
AcDbSymbolTableRecord
100
AcDbBlockTableRecord
  2
*D2
  0
BLOCK_RECORD
  5
210
100
AcDbSymbolTableRecord
100
AcDbBlockTableRecord
  2
*D3
  0
BLOCK_RECORD
  5
211
100
AcDbSymbolTableRecord
100
AcDbBlockTableRecord
  2
LOGO2_BL0
  0
ENDTAB
  0
TABLE
  2
DIMSTYLE
  5
A
100
AcDbSymbolTable
 70
1
  0
DIMSTYLE
105
212
100
AcDbSymbolTableRecord
100
AcDbDimStyleTableRecord
  2
STANDARD
 70
0
  3

  4

  5
_CLOSED
  6
_CLOSED
  7
_CLOSED
 40
1.0
 41
2.5
 42
0.75
 43
0.38
 44
0.75
 45
0.0
 46
0.0
 47
0.01
 48
0.01
140
3.0
141
0.09
142
0.0
143
25.4
144
1.0
145
0.0
146
1.0
147
0.625
 71
1.0
 72
0.0
 73
0
 74
0
 75
0
 76
0
 77
1
 78
8
 79
2
170
0
171
1
172
0
173
0
174
0
175
0
176
0
177
0
178
0
270
2
179
2
271
2
272
2
273
2
274
2
275
0
280
0
281
0
282
0
283
1
284
8
285
0
286
0
287
3
288
0
340
11
  0
DIMSTYLE
105
213
100
AcDbSymbolTableRecord
100
AcDbDimStyleTableRecord
  2
DIMSTYLE_1
 70
0
  3

  4

  5
_CLOSED
  6
_CLOSED
  7
_CLOSED
 40
1.0
 41
2.5
 42
0.75
 43
0.38
 44
0.75
 45
0.0
 46
0.0
 47
0.3
 48
0.3
140
6.0
141
0.09
142
0.0
143
25.4
144
1.0
145
0.0
146
1.0
147
1.5
 71
0.0
 72
0.0
 73
0
 74
0
 75
0
 76
0
 77
1
 78
8
 79
2
170
0
171
1
172
0
173
0
174
0
175
0
176
0
177
0
178
0
270
2
179
2
271
2
272
2
273
2
274
2
275
0
280
0
281
0
282
0
283
1
284
8
285
0
286
0
287
3
288
0
340
11
  0
DIMSTYLE
105
214
100
AcDbSymbolTableRecord
100
AcDbDimStyleTableRecord
  2
DIMSTYLE_2
 70
0
  3

  4

  5
_CLOSED
  6
_CLOSED
  7
_CLOSED
 40
1.0
 41
2.5
 42
0.75
 43
0.38
 44
0.75
 45
0.0
 46
0.0
 47
1.2
 48
1.2
140
6.0
141
0.09
142
0.0
143
25.4
144
1.0
145
0.0
146
1.0
147
1.5
 71
0.0
 72
0.0
 73
0
 74
0
 75
0
 76
0
 77
1
 78
8
 79
2
170
0
171
1
172
0
173
0
174
0
175
0
176
0
177
0
178
0
270
2
179
2
271
2
272
2
273
2
274
2
275
0
280
0
281
0
282
0
283
1
284
8
285
0
286
0
287
3
288
0
340
11
  0
ENDTAB
  0
ENDSEC
  0
SECTION
  2
BLOCKS
  0
BLOCK
  5
20
100
AcDbEntity
  8
0
100
AcDbBlockBegin
  2
*MODEL_SPACE
 70
0
 10
0.0
 20
0.0
 30
0.0
  3
*MODEL_SPACE
  1

  0
ENDBLK
  5
21
100
AcDbEntity
  8
0
100
AcDbBlockEnd
  0
BLOCK
  5
1C
100
AcDbEntity
  8
0
100
AcDbBlockBegin
  2
*PAPER_SPACE
 70
0
 10
0.0
 20
0.0
 30
0.0
  3
*PAPER_SPACE
  1

  0
ENDBLK
  5
1D
100
AcDbEntity
  8
0
100
AcDbBlockEnd
  0
BLOCK
  5
215
100
AcDbEntity
  8
0
100
AcDbBlockBegin
 62
2
  6
CONTINUOUS
  2
LOGO2_BL0
 70
64
 10
2412.6902282314
 20
39.3878690713
  3
LOGO2_BL0
  1

  0
LINE
  5
216
100
AcDbEntity
  8
0
100
AcDbLine
 62
7
  6
CONTINUOUS
 10
2404.4331534596
 20
42.5833604101
 11
2403.1288125302
 21
42.5833604101
  0
LINE
  5
217
100
AcDbEntity
  8
0
100
AcDbLine
 62
7
  6
CONTINUOUS
 10
2403.1288125302
 20
42.5833604101
 11
2403.1288125302
 21
32.1242943503
  0
LINE
  5
218
100
AcDbEntity
  8
0
100
AcDbLine
 62
7
  6
CONTINUOUS
 10
2403.1288125302
 20
32.1242943503
 11
2407.6098674185
 21
32.1242943503
  0
LINE
  5
219
100
AcDbEntity
  8
0
100
AcDbLine
 62
7
  6
CONTINUOUS
 10
2407.6098674185
 20
32.1242943503
 11
2407.6098674185
 21
33.3171486753
  0
LINE
  5
21A
100
AcDbEntity
  8
0
100
AcDbLine
 62
7
  6
CONTINUOUS
 10
2407.6098674185
 20
33.3171486753
 11
2404.4331534596
 21
33.3171486753
  0
LINE
  5
21B
100
AcDbEntity
  8
0
100
AcDbLine
 62
7
  6
CONTINUOUS
 10
2404.4331534596
 20
33.3171486753
 11
2404.4331534596
 21
42.5833604101
  0
LINE
  5
21C
100
AcDbEntity
  8
0
100
AcDbLine
 62
7
  6
CONTINUOUS
 10
2419.3694796759
 20
42.5833604101
 11
2418.0656621578
 21
42.5833604101
  0
LINE
  5
21D
100
AcDbEntity
  8
0
100
AcDbLine
 62
7
  6
CONTINUOUS
 10
2418.0656621578
 20
42.5833604101
 11
2418.0656621578
 21
32.1242943503
  0
LINE
  5
21E
100
AcDbEntity
  8
0
100
AcDbLine
 62
7
  6
CONTINUOUS
 10
2418.0656621578
 20
32.1242943503
 11
2422.5468478989
 21
32.1242943503
  0
LINE
  5
21F
100
AcDbEntity
  8
0
100
AcDbLine
 62
7
  6
CONTINUOUS
 10
2422.5468478989
 20
32.1242943503
 11
2422.5468478989
 21
33.3171486753
  0
LINE
  5
220
100
AcDbEntity
  8
0
100
AcDbLine
 62
7
  6
CONTINUOUS
 10
2422.5468478989
 20
33.3171486753
 11
2419.3694796759
 21
33.3171486753
  0
LINE
  5
221
100
AcDbEntity
  8
0
100
AcDbLine
 62
7
  6
CONTINUOUS
 10
2419.3694796759
 20
33.3171486753
 11
2419.3694796759
 21
42.5833604101
  0
LWPOLYLINE
  5
222
100
AcDbEntity
  8
0
100
AcDbPolyline
 62
7
  6
CONTINUOUS
 90
2
 70
0
 43
0.2
 10
2401.4832074411
 20
28.7807430434
 10
2401.4832074411
 20
26.923679794
  0
LWPOLYLINE
  5
223
100
AcDbEntity
  8
0
100
AcDbPolyline
 62
7
  6
CONTINUOUS
 90
2
 70
0
 43
0.2
 10
2401.4832074411
 20
26.923679794
 10
2402.2789234515
 20
26.923679794
  0
LWPOLYLINE
  5
224
100
AcDbEntity
  8
0
100
AcDbPolyline
 62
7
  6
CONTINUOUS
 90
2
 70
0
 43
0.2
 10
2402.2789234515
 20
26.923679794
 10
2402.2789234515
 20
27.1356613656
  0
LWPOLYLINE
  5
225
100
AcDbEntity
  8
0
100
AcDbPolyline
 62
7
  6
CONTINUOUS
 90
2
 70
0
 43
0.2
 10
2402.2789234515
 20
27.1356613656
 10
2401.714816936
 20
27.1356613656
  0
LWPOLYLINE
  5
226
100
AcDbEntity
  8
0
100
AcDbPolyline
 62
7
  6
CONTINUOUS
 90
2
 70
0
 43
0.2
 10
2401.714816936
 20
27.1356613656
 10
2401.714816936
 20
28.7807430434
  0
LWPOLYLINE
  5
227
100
AcDbEntity
  8
0
100
AcDbPolyline
 62
7
  6
CONTINUOUS
 90
2
 70
0
 43
0.2
 10
2401.714816936
 20
28.7807430434
 10
2401.4832074411
 20
28.7807430434
  0
SPLINE
  5
228
100
AcDbEntity
  8
0
100
AcDbSpline
 62
7
  6
CONTINUOUS
 70
2
 71
3
 72
35
 73
31
 74
0
 42
0.0000001
 43
0.0000001
 44
0.0000000001
 40
0.0
 40
0.0
 40
0.0
 40
0.0
 40
1.0
 40
1.0
 40
1.0
 40
2.0
 40
2.0
 40
2.0
 40
3.0
 40
3.0
 40
3.0
 40
4.0
 40
4.0
 40
4.0
 40
5.0
 40
5.0
 40
5.0
 40
6.0
 40
6.0
 40
6.0
 40
7.0
 40
7.0
 40
7.0
 40
8.0
 40
8.0
 40
8.0
 40
9.0
 40
9.0
 40
9.0
 40
10.0
 40
10.0
 40
10.0
 40
10.0
 10
2403.6772167071
 20
28.0762314499
 30
0.0
 10
2403.6772167071
 20
28.0762314499
 30
0.0
 10
2403.6772167071
 20
27.4141161707
 30
0.0
 10
2403.6772167071
 20
27.4141161707
 30
0.0
 10
2403.6772167071
 20
27.0990225754
 30
0.0
 10
2403.8250803959
 20
26.8844239474
 30
0.0
 10
2404.1651668802
 20
26.8844239474
 30
0.0
 10
2404.5047299532
 20
26.8844239474
 30
0.0
 10
2404.6528553477
 20
27.0990225754
 30
0.0
 10
2404.6528553477
 20
27.4141161707
 30
0.0
 10
2404.6528553477
 20
27.4141161707
 30
0.0
 10
2404.6528553477
 20
28.0762314499
 30
0.0
 10
2404.6528553477
 20
28.0762314499
 30
0.0
 10
2404.6528553477
 20
28.0762314499
 30
0.0
 10
2404.4307981088
 20
28.0762314499
 30
0.0
 10
2404.4307981088
 20
28.0762314499
 30
0.0
 10
2404.4307981088
 20
28.0762314499
 30
0.0
 10
2404.4307981088
 20
27.4392399126
 30
0.0
 10
2404.4307981088
 20
27.4392399126
 30
0.0
 10
2404.4307981088
 20
27.2534289054
 30
0.0
 10
2404.3840836513
 20
27.0906479948
 30
0.0
 10
2404.1651668802
 20
27.0906479948
 30
0.0
 10
2403.9457266977
 20
27.0906479948
 30
0.0
 10
2403.8990122403
 20
27.2534289054
 30
0.0
 10
2403.8990122403
 20
27.4392399126
 30
0.0
 10
2403.8990122403
 20
27.4392399126
 30
0.0
 10
2403.8990122403
 20
28.0762314499
 30
0.0
 10
2403.8990122403
 20
28.0762314499
 30
0.0
 10
2403.8990122403
 20
28.0762314499
 30
0.0
 10
2403.6772167071
 20
28.0762314499
 30
0.0
 10
2403.6772167071
 20
28.0762314499
 30
0.0
  0
SPLINE
  5
229
100
AcDbEntity
  8
0
100
AcDbSpline
 62
7
  6
CONTINUOUS
 70
2
 71
3
 72
35
 73
31
 74
0
 42
0.0000001
 43
0.0000001
 44
0.0000000001
 40
0.0
 40
0.0
 40
0.0
 40
0.0
 40
1.0
 40
1.0
 40
1.0
 40
2.0
 40
2.0
 40
2.0
 40
3.0
 40
3.0
 40
3.0
 40
4.0
 40
4.0
 40
4.0
 40
5.0
 40
5.0
 40
5.0
 40
6.0
 40
6.0
 40
6.0
 40
7.0
 40
7.0
 40
7.0
 40
8.0
 40
8.0
 40
8.0
 40
9.0
 40
9.0
 40
9.0
 40
10.0
 40
10.0
 40
10.0
 40
10.0
 10
2407.0759879049
 20
28.0348819581
 30
0.0
 10
2406.9875313972
 20
28.0861762644
 30
0.0
 10
2406.8740820006
 20
28.1113000062
 30
0.0
 10
2406.7704465656
 20
28.1113000062
 30
0.0
 10
2406.4155737124
 20
28.1113000062
 30
0.0
 10
2406.1401285221
 20
27.8475007171
 30
0.0
 10
2406.1401285221
 20
27.4900108075
 30
0.0
 10
2406.1401285221
 20
27.1450827688
 30
0.0
 10
2406.4185833273
 20
26.8849473587
 30
0.0
 10
2406.7581464003
 20
26.8849473587
 30
0.0
 10
2406.8740820006
 20
26.8849473587
 30
0.0
 10
2406.9748386735
 20
26.9069306328
 30
0.0
 10
2407.0759879049
 20
26.9608419954
 30
0.0
 10
2407.0759879049
 20
26.9608419954
 30
0.0
 10
2407.0759879049
 20
27.2434840909
 30
0.0
 10
2407.0759879049
 20
27.2434840909
 30
0.0
 10
2406.992111246
 20
27.1503168816
 30
0.0
 10
2406.8886066638
 20
27.0911714061
 30
0.0
 10
2406.7605017511
 20
27.0911714061
 30
0.0
 10
2406.5267986111
 20
27.0911714061
 30
0.0
 10
2406.3615314969
 20
27.2633737198
 30
0.0
 10
2406.3615314969
 20
27.4999556219
 30
0.0
 10
2406.3615314969
 20
27.7119371935
 30
0.0
 10
2406.5292848147
 20
27.9040291362
 30
0.0
 10
2406.7461079407
 20
27.9040291362
 30
0.0
 10
2406.878923555
 20
27.9040291362
 30
0.0
 10
2406.9875313972
 20
27.8501177735
 30
0.0
 10
2407.0759879049
 20
27.749099395
 30
0.0
 10
2407.0759879049
 20
27.749099395
 30
0.0
 10
2407.0759879049
 20
28.0348819581
 30
0.0
 10
2407.0759879049
 20
28.0348819581
 30
0.0
  0
SPLINE
  5
22A
100
AcDbEntity
  8
0
100
AcDbSpline
 62
7
  6
CONTINUOUS
 70
2
 71
3
 72
32
 73
28
 74
0
 42
0.0000001
 43
0.0000001
 44
0.0000000001
 40
0.0
 40
0.0
 40
0.0
 40
0.0
 40
1.0
 40
1.0
 40
1.0
 40
2.0
 40
2.0
 40
2.0
 40
3.0
 40
3.0
 40
3.0
 40
4.0
 40
4.0
 40
4.0
 40
5.0
 40
5.0
 40
5.0
 40
6.0
 40
6.0
 40
6.0
 40
7.0
 40
7.0
 40
7.0
 40
8.0
 40
8.0
 40
8.0
 40
9.0
 40
9.0
 40
9.0
 40
9.0
 10
2409.6078591571
 20
27.4633168318
 30
0.0
 10
2409.6078591571
 20
27.4633168318
 30
0.0
 10
2409.6078591571
 20
27.4973385655
 30
0.0
 10
2409.6078591571
 20
27.4973385655
 30
0.0
 10
2409.6078591571
 20
27.8396495478
 30
0.0
 10
2409.4350025793
 20
28.1113000062
 30
0.0
 10
2409.0683529721
 20
28.1113000062
 30
0.0
 10
2408.6967309577
 20
28.1113000062
 30
0.0
 10
2408.5069943659
 20
27.8448836607
 30
0.0
 10
2408.5069943659
 20
27.4900108075
 30
0.0
 10
2408.5069943659
 20
27.1503168816
 30
0.0
 10
2408.7210695826
 20
26.8844239474
 30
0.0
 10
2409.0731945265
 20
26.8844239474
 30
0.0
 10
2409.2972145578
 20
26.8844239474
 30
0.0
 10
2409.4993821677
 20
27.000097842
 30
0.0
 10
2409.6078591571
 20
27.1995175427
 30
0.0
 10
2409.6078591571
 20
27.1995175427
 30
0.0
 10
2409.4202162104
 20
27.3062934454
 30
0.0
 10
2409.4202162104
 20
27.3062934454
 30
0.0
 10
2409.33673211
 20
27.1675894541
 30
0.0
 10
2409.2455276931
 20
27.0817500029
 30
0.0
 10
2409.0759424358
 20
27.0817500029
 30
0.0
 10
2408.8639608642
 20
27.0817500029
 30
0.0
 10
2408.7310143971
 20
27.2665141876
 30
0.0
 10
2408.7286590463
 20
27.4633168318
 30
0.0
 10
2408.7286590463
 20
27.4633168318
 30
0.0
 10
2409.6078591571
 20
27.4633168318
 30
0.0
 10
2409.6078591571
 20
27.4633168318
 30
0.0
  0
SPLINE
  5
22B
100
AcDbEntity
  8
0
100
AcDbSpline
 62
7
  6
CONTINUOUS
 70
2
 71
3
 72
14
 73
10
 74
0
 42
0.0000001
 43
0.0000001
 44
0.0000000001
 40
0.0
 40
0.0
 40
0.0
 40
0.0
 40
1.0
 40
1.0
 40
1.0
 40
2.0
 40
2.0
 40
2.0
 40
3.0
 40
3.0
 40
3.0
 40
3.0
 10
2408.7406975059
 20
27.6308084439
 30
0.0
 10
2408.7683074514
 20
27.7956829996
 30
0.0
 10
2408.8961506584
 20
27.9186846522
 30
0.0
 10
2409.0683529721
 20
27.9186846522
 30
0.0
 10
2409.2455276931
 20
27.9186846522
 30
0.0
 10
2409.3589770897
 20
27.8030107576
 30
0.0
 10
2409.3861944767
 20
27.6308084439
 30
0.0
 10
2409.3861944767
 20
27.6308084439
 30
0.0
 10
2408.7406975059
 20
27.6308084439
 30
0.0
 10
2408.7406975059
 20
27.6308084439
 30
0.0
  0
SPLINE
  5
22C
100
AcDbEntity
  8
0
100
AcDbSpline
 62
7
  6
CONTINUOUS
 70
2
 71
3
 72
20
 73
16
 74
0
 42
0.0000001
 43
0.0000001
 44
0.0000000001
 40
0.0
 40
0.0
 40
0.0
 40
0.0
 40
1.0
 40
1.0
 40
1.0
 40
2.0
 40
2.0
 40
2.0
 40
3.0
 40
3.0
 40
3.0
 40
4.0
 40
4.0
 40
4.0
 40
5.0
 40
5.0
 40
5.0
 40
5.0
 10
2411.6318906073
 20
27.8401729591
 30
0.0
 10
2411.6318906073
 20
27.8401729591
 30
0.0
 10
2412.0430301739
 20
27.3376981227
 30
0.0
 10
2412.0430301739
 20
27.3376981227
 30
0.0
 10
2411.9269637208
 20
27.2220242281
 30
0.0
 10
2411.7891756993
 20
27.0916948174
 30
0.0
 10
2411.6172350912
 20
27.0916948174
 30
0.0
 10
2411.4397986647
 20
27.0916948174
 30
0.0
 10
2411.2723070525
 20
27.2560459618
 30
0.0
 10
2411.2723070525
 20
27.4329589771
 30
0.0
 10
2411.2723070525
 20
27.610918815
 30
0.0
 10
2411.4820641261
 20
27.7370609354
 30
0.0
 10
2411.6096456276
 20
27.8249940317
 30
0.0
 10
2411.6096456276
 20
27.8249940317
 30
0.0
 10
2411.6318906073
 20
27.8401729591
 30
0.0
 10
2411.6318906073
 20
27.8401729591
 30
0.0
  0
SPLINE
  5
22D
100
AcDbEntity
  8
0
100
AcDbSpline
 62
7
  6
CONTINUOUS
 70
2
 71
3
 72
23
 73
19
 74
0
 42
0.0000001
 43
0.0000001
 44
0.0000000001
 40
0.0
 40
0.0
 40
0.0
 40
0.0
 40
1.0
 40
1.0
 40
1.0
 40
2.0
 40
2.0
 40
2.0
 40
3.0
 40
3.0
 40
3.0
 40
4.0
 40
4.0
 40
4.0
 40
5.0
 40
5.0
 40
5.0
 40
6.0
 40
6.0
 40
6.0
 40
6.0
 10
2411.6812221212
 20
28.1311896351
 30
0.0
 10
2411.6812221212
 20
28.1311896351
 30
0.0
 10
2411.619590442
 20
28.2097013283
 30
0.0
 10
2411.619590442
 20
28.2097013283
 30
0.0
 10
2411.5656790794
 20
28.278268207
 30
0.0
 10
2411.5088889546
 20
28.347358497
 30
0.0
 10
2411.5088889546
 20
28.4410491175
 30
0.0
 10
2411.5088889546
 20
28.5598634799
 30
0.0
 10
2411.6048040732
 20
28.6373283505
 30
0.0
 10
2411.7157672662
 20
28.6373283505
 30
0.0
 10
2411.8390306245
 20
28.6373283505
 30
0.0
 10
2411.9323286865
 20
28.5661444153
 30
0.0
 10
2411.9323286865
 20
28.4358150047
 30
0.0
 10
2411.9323286865
 20
28.3007748924
 30
0.0
 10
2411.8042237738
 20
28.2243568444
 30
0.0
 10
2411.7106640061
 20
28.1505558528
 30
0.0
 10
2411.7106640061
 20
28.1505558528
 30
0.0
 10
2411.6812221212
 20
28.1311896351
 30
0.0
 10
2411.6812221212
 20
28.1311896351
 30
0.0
  0
SPLINE
  5
22E
100
AcDbEntity
  8
0
100
AcDbSpline
 62
7
  6
CONTINUOUS
 70
2
 71
3
 72
50
 73
46
 74
0
 42
0.0000001
 43
0.0000001
 44
0.0000000001
 40
0.0
 40
0.0
 40
0.0
 40
0.0
 40
1.0
 40
1.0
 40
1.0
 40
2.0
 40
2.0
 40
2.0
 40
3.0
 40
3.0
 40
3.0
 40
4.0
 40
4.0
 40
4.0
 40
5.0
 40
5.0
 40
5.0
 40
6.0
 40
6.0
 40
6.0
 40
7.0
 40
7.0
 40
7.0
 40
8.0
 40
8.0
 40
8.0
 40
9.0
 40
9.0
 40
9.0
 40
10.0
 40
10.0
 40
10.0
 40
11.0
 40
11.0
 40
11.0
 40
12.0
 40
12.0
 40
12.0
 40
13.0
 40
13.0
 40
13.0
 40
14.0
 40
14.0
 40
14.0
 40
15.0
 40
15.0
 40
15.0
 40
15.0
 10
2412.3833783639
 20
26.9242032053
 30
0.0
 10
2412.3833783639
 20
26.9242032053
 30
0.0
 10
2412.6687683686
 20
26.9242032053
 30
0.0
 10
2412.6687683686
 20
26.9242032053
 30
0.0
 10
2412.6687683686
 20
26.9242032053
 30
0.0
 10
2412.3364022008
 20
27.3350810663
 30
0.0
 10
2412.3364022008
 20
27.3350810663
 30
0.0
 10
2412.3364022008
 20
27.3350810663
 30
0.0
 10
2412.5629084356
 20
27.6009740005
 30
0.0
 10
2412.5629084356
 20
27.6009740005
 30
0.0
 10
2412.5629084356
 20
27.6009740005
 30
0.0
 10
2412.4146521883
 20
27.7538100966
 30
0.0
 10
2412.4146521883
 20
27.7538100966
 30
0.0
 10
2412.4146521883
 20
27.7538100966
 30
0.0
 10
2412.1987450321
 20
27.5025726784
 30
0.0
 10
2412.1987450321
 20
27.5025726784
 30
0.0
 10
2412.1987450321
 20
27.5025726784
 30
0.0
 10
2411.8116823847
 20
27.9705023697
 30
0.0
 10
2411.8116823847
 20
27.9705023697
 30
0.0
 10
2411.9671355372
 20
28.0846060305
 30
0.0
 10
2412.1494135182
 20
28.2243568444
 30
0.0
 10
2412.1494135182
 20
28.4337213595
 30
0.0
 10
2412.1494135182
 20
28.6776310197
 30
0.0
 10
2411.9473767611
 20
28.8210457125
 30
0.0
 10
2411.7208705262
 20
28.8210457125
 30
0.0
 10
2411.4766991604
 20
28.8210457125
 30
0.0
 10
2411.2923275343
 20
28.6703032616
 30
0.0
 10
2411.2923275343
 20
28.4138317306
 30
0.0
 10
2411.2923275343
 20
28.2562849329
 30
0.0
 10
2411.3909905621
 20
28.1186277642
 30
0.0
 10
2411.4963270837
 20
28.0076645712
 30
0.0
 10
2411.4963270837
 20
28.0076645712
 30
0.0
 10
2411.3807840419
 20
27.9239187651
 30
0.0
 10
2411.3807840419
 20
27.9239187651
 30
0.0
 10
2411.2030859097
 20
27.7956829996
 30
0.0
 10
2411.0557456322
 20
27.6679706454
 30
0.0
 10
2411.0557456322
 20
27.4308653319
 30
0.0
 10
2411.0557456322
 20
27.1105376238
 30
0.0
 10
2411.3143108084
 20
26.8844239474
 30
0.0
 10
2411.6246937021
 20
26.8844239474
 30
0.0
 10
2411.8436104732
 20
26.8844239474
 30
0.0
 10
2412.0408056759
 20
27.0095192452
 30
0.0
 10
2412.1810799011
 20
27.1754406235
 30
0.0
 10
2412.1810799011
 20
27.1754406235
 30
0.0
 10
2412.3833783639
 20
26.9242032053
 30
0.0
 10
2412.3833783639
 20
26.9242032053
 30
0.0
  0
LWPOLYLINE
  5
22F
100
AcDbEntity
  8
0
100
AcDbPolyline
 62
7
  6
CONTINUOUS
 90
2
 70
0
 43
0.2
 10
2414.3188224536
 20
28.7807430434
 10
2414.0874746643
 20
28.7807430434
  0
LWPOLYLINE
  5
230
100
AcDbEntity
  8
0
100
AcDbPolyline
 62
7
  6
CONTINUOUS
 90
2
 70
0
 43
0.2
 10
2414.0874746643
 20
28.7807430434
 10
2414.0874746643
 20
26.923679794
  0
LWPOLYLINE
  5
231
100
AcDbEntity
  8
0
100
AcDbPolyline
 62
7
  6
CONTINUOUS
 90
2
 70
0
 43
0.2
 10
2414.0874746643
 20
26.923679794
 10
2414.8827981163
 20
26.923679794
  0
LWPOLYLINE
  5
232
100
AcDbEntity
  8
0
100
AcDbPolyline
 62
7
  6
CONTINUOUS
 90
2
 70
0
 43
0.2
 10
2414.8827981163
 20
26.923679794
 10
2414.8827981163
 20
27.1356613656
  0
LWPOLYLINE
  5
233
100
AcDbEntity
  8
0
100
AcDbPolyline
 62
7
  6
CONTINUOUS
 90
2
 70
0
 43
0.2
 10
2414.8827981163
 20
27.1356613656
 10
2414.3188224536
 20
27.1356613656
  0
LWPOLYLINE
  5
234
100
AcDbEntity
  8
0
100
AcDbPolyline
 62
7
  6
CONTINUOUS
 90
2
 70
0
 43
0.2
 10
2414.3188224536
 20
27.1356613656
 10
2414.3188224536
 20
28.7807430434
  0
LWPOLYLINE
  5
235
100
AcDbEntity
  8
0
100
AcDbPolyline
 62
7
  6
CONTINUOUS
 90
2
 70
0
 43
0.2
 10
2416.5619015277
 20
28.0762314499
 10
2416.3407602586
 20
28.0762314499
  0
LWPOLYLINE
  5
236
100
AcDbEntity
  8
0
100
AcDbPolyline
 62
7
  6
CONTINUOUS
 90
2
 70
0
 43
0.2
 10
2416.3407602586
 20
28.0762314499
 10
2416.3407602586
 20
26.9242032053
  0
LWPOLYLINE
  5
237
100
AcDbEntity
  8
0
100
AcDbPolyline
 62
7
  6
CONTINUOUS
 90
2
 70
0
 43
0.2
 10
2416.3407602586
 20
26.9242032053
 10
2416.5619015277
 20
26.9242032053
  0
LWPOLYLINE
  5
238
100
AcDbEntity
  8
0
100
AcDbPolyline
 62
7
  6
CONTINUOUS
 90
2
 70
0
 43
0.2
 10
2416.5619015277
 20
26.9242032053
 10
2416.5619015277
 20
28.0762314499
  0
LWPOLYLINE
  5
239
100
AcDbEntity
  8
0
100
AcDbPolyline
 62
7
  6
CONTINUOUS
 90
2
 70
1
 43
0.2
 10
2416.2988782505
 20
28.6061853789
 42
1.0
 10
2416.6040452415
 20
28.6061853789
 42
1.0
  0
SPLINE
  5
23A
100
AcDbEntity
  8
0
100
AcDbSpline
 62
7
  6
CONTINUOUS
 70
2
 71
3
 72
17
 73
13
 74
0
 42
0.0000001
 43
0.0000001
 44
0.0000000001
 40
0.0
 40
0.0
 40
0.0
 40
0.0
 40
1.0
 40
1.0
 40
1.0
 40
2.0
 40
2.0
 40
2.0
 40
3.0
 40
3.0
 40
3.0
 40
4.0
 40
4.0
 40
4.0
 40
4.0
 10
2418.6921854694
 20
27.0817500029
 30
0.0
 10
2418.4582206237
 20
27.0817500029
 30
0.0
 10
2418.327891213
 20
27.2837867601
 30
0.0
 10
2418.327891213
 20
27.4999556219
 30
0.0
 10
2418.327891213
 20
27.71455425
 30
0.0
 10
2418.4637164422
 20
27.9134505394
 30
0.0
 10
2418.6921854694
 20
27.9134505394
 30
0.0
 10
2418.9316461336
 20
27.9134505394
 30
0.0
 10
2419.0672096571
 20
27.7244990644
 30
0.0
 10
2419.0672096571
 20
27.4999556219
 30
0.0
 10
2419.0672096571
 20
27.2738419456
 30
0.0
 10
2418.9340014844
 20
27.0817500029
 30
0.0
 10
2418.6921854694
 20
27.0817500029
 30
0.0
  0
SPLINE
  5
23B
100
AcDbEntity
  8
0
100
AcDbSpline
 62
7
  6
CONTINUOUS
 70
2
 71
3
 72
50
 73
46
 74
0
 42
0.0000001
 43
0.0000001
 44
0.0000000001
 40
0.0
 40
0.0
 40
0.0
 40
0.0
 40
1.0
 40
1.0
 40
1.0
 40
2.0
 40
2.0
 40
2.0
 40
3.0
 40
3.0
 40
3.0
 40
4.0
 40
4.0
 40
4.0
 40
5.0
 40
5.0
 40
5.0
 40
6.0
 40
6.0
 40
6.0
 40
7.0
 40
7.0
 40
7.0
 40
8.0
 40
8.0
 40
8.0
 40
9.0
 40
9.0
 40
9.0
 40
10.0
 40
10.0
 40
10.0
 40
11.0
 40
11.0
 40
11.0
 40
12.0
 40
12.0
 40
12.0
 40
13.0
 40
13.0
 40
13.0
 40
14.0
 40
14.0
 40
14.0
 40
15.0
 40
15.0
 40
15.0
 40
15.0
 10
2419.2763124666
 20
28.0767548612
 30
0.0
 10
2419.2763124666
 20
28.0767548612
 30
0.0
 10
2419.0546477862
 20
28.0767548612
 30
0.0
 10
2419.0546477862
 20
28.0767548612
 30
0.0
 10
2419.0546477862
 20
28.0767548612
 30
0.0
 10
2419.0546477862
 20
27.8794288057
 30
0.0
 10
2419.0546477862
 20
27.8794288057
 30
0.0
 10
2419.0546477862
 20
27.8794288057
 30
0.0
 10
2419.0499370846
 20
27.8794288057
 30
0.0
 10
2419.0499370846
 20
27.8794288057
 30
0.0
 10
2418.9586018149
 20
28.0223200872
 30
0.0
 10
2418.8206829406
 20
28.1107765949
 30
0.0
 10
2418.6479572156
 20
28.1107765949
 30
0.0
 10
2418.3155910478
 20
28.1107765949
 30
0.0
 10
2418.1064882383
 20
27.8229003866
 30
0.0
 10
2418.1064882383
 20
27.50728338
 30
0.0
 10
2418.1064882383
 20
27.1775342686
 30
0.0
 10
2418.3035525881
 20
26.8844239474
 30
0.0
 10
2418.6584254413
 20
26.8844239474
 30
0.0
 10
2418.8206829406
 20
26.8844239474
 30
0.0
 10
2418.9606954601
 20
26.9728804551
 30
0.0
 10
2419.0499370846
 20
27.103733277
 30
0.0
 10
2419.0499370846
 20
27.103733277
 30
0.0
 10
2419.0546477862
 20
27.103733277
 30
0.0
 10
2419.0546477862
 20
27.103733277
 30
0.0
 10
2419.0546477862
 20
27.103733277
 30
0.0
 10
2419.0546477862
 20
26.8844239474
 30
0.0
 10
2419.0546477862
 20
26.8844239474
 30
0.0
 10
2419.0546477862
 20
26.6478420453
 30
0.0
 10
2418.9981193671
 20
26.4609842155
 30
0.0
 10
2418.7248986749
 20
26.4609842155
 30
0.0
 10
2418.5226002121
 20
26.4609842155
 30
0.0
 10
2418.3799706362
 20
26.5792751666
 30
0.0
 10
2418.3799706362
 20
26.785499214
 30
0.0
 10
2418.3799706362
 20
26.785499214
 30
0.0
 10
2418.1583059558
 20
26.785499214
 30
0.0
 10
2418.1583059558
 20
26.785499214
 30
0.0
 10
2418.163278363
 20
26.4609842155
 30
0.0
 10
2418.3943644466
 20
26.2641815713
 30
0.0
 10
2418.7146921548
 20
26.2641815713
 30
0.0
 10
2419.1627322172
 20
26.2641815713
 30
0.0
 10
2419.2763124666
 20
26.5494407232
 30
0.0
 10
2419.2763124666
 20
26.9461864794
 30
0.0
 10
2419.2763124666
 20
26.9461864794
 30
0.0
 10
2419.2763124666
 20
28.0767548612
 30
0.0
 10
2419.2763124666
 20
28.0767548612
 30
0.0
  0
SPLINE
  5
23C
100
AcDbEntity
  8
0
100
AcDbSpline
 62
7
  6
CONTINUOUS
 70
2
 71
3
 72
44
 73
40
 74
0
 42
0.0000001
 43
0.0000001
 44
0.0000000001
 40
0.0
 40
0.0
 40
0.0
 40
0.0
 40
1.0
 40
1.0
 40
1.0
 40
2.0
 40
2.0
 40
2.0
 40
3.0
 40
3.0
 40
3.0
 40
4.0
 40
4.0
 40
4.0
 40
5.0
 40
5.0
 40
5.0
 40
6.0
 40
6.0
 40
6.0
 40
7.0
 40
7.0
 40
7.0
 40
8.0
 40
8.0
 40
8.0
 40
9.0
 40
9.0
 40
9.0
 40
10.0
 40
10.0
 40
10.0
 40
11.0
 40
11.0
 40
11.0
 40
12.0
 40
12.0
 40
12.0
 40
13.0
 40
13.0
 40
13.0
 40
13.0
 10
2420.845237802
 20
29.0618149049
 30
0.0
 10
2420.845237802
 20
29.0618149049
 30
0.0
 10
2420.845237802
 20
26.923679794
 30
0.0
 10
2420.845237802
 20
26.923679794
 30
0.0
 10
2420.845237802
 20
26.923679794
 30
0.0
 10
2421.0666407768
 20
26.923679794
 30
0.0
 10
2421.0666407768
 20
26.923679794
 30
0.0
 10
2421.0666407768
 20
26.923679794
 30
0.0
 10
2421.0666407768
 20
27.4533720173
 30
0.0
 10
2421.0666407768
 20
27.4533720173
 30
0.0
 10
2421.0666407768
 20
27.6632599438
 30
0.0
 10
2421.0666407768
 20
27.9139739507
 30
0.0
 10
2421.3518999287
 20
27.9139739507
 30
0.0
 10
2421.578798722
 20
27.9139739507
 30
0.0
 10
2421.6057544033
 20
27.7810274835
 30
0.0
 10
2421.6057544033
 20
27.5847482506
 30
0.0
 10
2421.6057544033
 20
27.5847482506
 30
0.0
 10
2421.6057544033
 20
26.923679794
 30
0.0
 10
2421.6057544033
 20
26.923679794
 30
0.0
 10
2421.6057544033
 20
26.923679794
 30
0.0
 10
2421.8276807894
 20
26.923679794
 30
0.0
 10
2421.8276807894
 20
26.923679794
 30
0.0
 10
2421.8276807894
 20
26.923679794
 30
0.0
 10
2421.8276807894
 20
27.610918815
 30
0.0
 10
2421.8276807894
 20
27.610918815
 30
0.0
 10
2421.8276807894
 20
27.8914672653
 30
0.0
 10
2421.7436732777
 20
28.1113000062
 30
0.0
 10
2421.4186348679
 20
28.1113000062
 30
0.0
 10
2421.278884054
 20
28.1113000062
 30
0.0
 10
2421.140703474
 20
28.0448267726
 30
0.0
 10
2421.0713514784
 20
27.92182512
 30
0.0
 10
2421.0713514784
 20
27.92182512
 30
0.0
 10
2421.0666407768
 20
27.92182512
 30
0.0
 10
2421.0666407768
 20
27.92182512
 30
0.0
 10
2421.0666407768
 20
27.92182512
 30
0.0
 10
2421.0666407768
 20
29.0618149049
 30
0.0
 10
2421.0666407768
 20
29.0618149049
 30
0.0
 10
2421.0666407768
 20
29.0618149049
 30
0.0
 10
2420.845237802
 20
29.0618149049
 30
0.0
 10
2420.845237802
 20
29.0618149049
 30
0.0
  0
LWPOLYLINE
  5
23D
100
AcDbEntity
  8
0
100
AcDbPolyline
 62
7
  6
CONTINUOUS
 90
2
 70
0
 43
0.2
 10
2423.6674714662
 20
27.8694839912
 10
2423.8839020338
 20
27.8694839912
  0
LWPOLYLINE
  5
23E
100
AcDbEntity
  8
0
100
AcDbPolyline
 62
7
  6
CONTINUOUS
 90
2
 70
0
 43
0.2
 10
2423.8839020338
 20
27.8694839912
 10
2423.8839020338
 20
28.0762314499
  0
LWPOLYLINE
  5
23F
100
AcDbEntity
  8
0
100
AcDbPolyline
 62
7
  6
CONTINUOUS
 90
2
 70
0
 43
0.2
 10
2423.8839020338
 20
28.0762314499
 10
2423.6674714662
 20
28.0762314499
  0
LWPOLYLINE
  5
240
100
AcDbEntity
  8
0
100
AcDbPolyline
 62
7
  6
CONTINUOUS
 90
2
 70
0
 43
0.2
 10
2423.6674714662
 20
28.0762314499
 10
2423.6674714662
 20
28.5169437543
  0
LWPOLYLINE
  5
241
100
AcDbEntity
  8
0
100
AcDbPolyline
 62
7
  6
CONTINUOUS
 90
2
 70
0
 43
0.2
 10
2423.6674714662
 20
28.5169437543
 10
2423.4458067858
 20
28.5169437543
  0
LWPOLYLINE
  5
242
100
AcDbEntity
  8
0
100
AcDbPolyline
 62
7
  6
CONTINUOUS
 90
2
 70
0
 43
0.2
 10
2423.4458067858
 20
28.5169437543
 10
2423.4458067858
 20
28.0762314499
  0
LWPOLYLINE
  5
243
100
AcDbEntity
  8
0
100
AcDbPolyline
 62
7
  6
CONTINUOUS
 90
2
 70
0
 43
0.2
 10
2423.4458067858
 20
28.0762314499
 10
2423.325160484
 20
28.0762314499
  0
LWPOLYLINE
  5
244
100
AcDbEntity
  8
0
100
AcDbPolyline
 62
7
  6
CONTINUOUS
 90
2
 70
0
 43
0.2
 10
2423.325160484
 20
28.0762314499
 10
2423.325160484
 20
27.8694839912
  0
LWPOLYLINE
  5
245
100
AcDbEntity
  8
0
100
AcDbPolyline
 62
7
  6
CONTINUOUS
 90
2
 70
0
 43
0.2
 10
2423.325160484
 20
27.8694839912
 10
2423.4458067858
 20
27.8694839912
  0
LWPOLYLINE
  5
246
100
AcDbEntity
  8
0
100
AcDbPolyline
 62
7
  6
CONTINUOUS
 90
2
 70
0
 43
0.2
 10
2423.4458067858
 20
27.8694839912
 10
2423.4458067858
 20
26.923679794
  0
LWPOLYLINE
  5
247
100
AcDbEntity
  8
0
100
AcDbPolyline
 62
7
  6
CONTINUOUS
 90
2
 70
0
 43
0.2
 10
2423.4458067858
 20
26.923679794
 10
2423.6674714662
 20
26.923679794
  0
LWPOLYLINE
  5
248
100
AcDbEntity
  8
0
100
AcDbPolyline
 62
7
  6
CONTINUOUS
 90
2
 70
0
 43
0.2
 10
2423.6674714662
 20
26.923679794
 10
2423.6674714662
 20
27.8694839912
  0
SPLINE
  5
249
100
AcDbEntity
  8
0
100
AcDbSpline
 62
7
  6
CONTINUOUS
 70
2
 71
3
 72
20
 73
16
 74
0
 42
0.0000001
 43
0.0000001
 44
0.0000000001
 40
0.0
 40
0.0
 40
0.0
 40
0.0
 40
1.0
 40
1.0
 40
1.0
 40
2.0
 40
2.0
 40
2.0
 40
3.0
 40
3.0
 40
3.0
 40
4.0
 40
4.0
 40
4.0
 40
5.0
 40
5.0
 40
5.0
 40
5.0
 10
2411.4494817735
 20
37.2846062374
 30
0.0
 10
2411.4494817735
 20
37.2846062374
 30
0.0
 10
2413.7658384279
 20
34.4550448152
 30
0.0
 10
2413.7658384279
 20
34.4550448152
 30
0.0
 10
2413.1141913745
 20
33.8028743505
 30
0.0
 10
2412.3373181705
 20
33.0669580797
 30
0.0
 10
2411.3661285259
 20
33.0669580797
 30
0.0
 10
2410.3675906414
 20
33.0669580797
 30
0.0
 10
2409.4242726479
 20
33.996536527
 30
0.0
 10
2409.4242726479
 20
34.9957286755
 30
0.0
 10
2409.4242726479
 20
35.9949208241
 30
0.0
 10
2410.603125721
 20
36.7015260627
 30
0.0
 10
2411.3246481813
 20
37.2013838426
 30
0.0
 10
2411.3246481813
 20
37.2013838426
 30
0.0
 10
2411.4494817735
 20
37.2846062374
 30
0.0
 10
2411.4494817735
 20
37.2846062374
 30
0.0
  0
SPLINE
  5
24A
100
AcDbEntity
  8
0
100
AcDbSpline
 62
7
  6
CONTINUOUS
 70
2
 71
3
 72
23
 73
19
 74
0
 42
0.0000001
 43
0.0000001
 44
0.0000000001
 40
0.0
 40
0.0
 40
0.0
 40
0.0
 40
1.0
 40
1.0
 40
1.0
 40
2.0
 40
2.0
 40
2.0
 40
3.0
 40
3.0
 40
3.0
 40
4.0
 40
4.0
 40
4.0
 40
5.0
 40
5.0
 40
5.0
 40
6.0
 40
6.0
 40
6.0
 40
6.0
 10
2411.726889756
 20
38.9223601571
 30
0.0
 10
2411.726889756
 20
38.9223601571
 30
0.0
 10
2411.3803914835
 20
39.365689518
 30
0.0
 10
2411.3803914835
 20
39.365689518
 30
0.0
 10
2411.0745884385
 20
39.7537989879
 30
0.0
 10
2410.7557001114
 20
40.1423010163
 30
0.0
 10
2410.7557001114
 20
40.6692453304
 30
0.0
 10
2410.7557001114
 20
41.335417047
 30
0.0
 10
2411.2970382359
 20
41.7791389663
 30
0.0
 10
2411.920944491
 20
41.7791389663
 30
0.0
 10
2412.6147261531
 20
41.7791389663
 30
0.0
 10
2413.1419321728
 20
41.3768973916
 30
0.0
 10
2413.1419321728
 20
40.6418970906
 30
0.0
 10
2413.1419321728
 20
39.8786325801
 30
0.0
 10
2412.4206714181
 20
39.4485193543
 30
0.0
 10
2411.8935962512
 20
39.0327999389
 30
0.0
 10
2411.8935962512
 20
39.0327999389
 30
0.0
 10
2411.726889756
 20
38.9223601571
 30
0.0
 10
2411.726889756
 20
38.9223601571
 30
0.0
  0
SPLINE
  5
24B
100
AcDbEntity
  8
0
100
AcDbSpline
 62
7
  6
CONTINUOUS
 70
2
 71
3
 72
50
 73
46
 74
0
 42
0.0000001
 43
0.0000001
 44
0.0000000001
 40
0.0
 40
0.0
 40
0.0
 40
0.0
 40
1.0
 40
1.0
 40
1.0
 40
2.0
 40
2.0
 40
2.0
 40
3.0
 40
3.0
 40
3.0
 40
4.0
 40
4.0
 40
4.0
 40
5.0
 40
5.0
 40
5.0
 40
6.0
 40
6.0
 40
6.0
 40
7.0
 40
7.0
 40
7.0
 40
8.0
 40
8.0
 40
8.0
 40
9.0
 40
9.0
 40
9.0
 40
10.0
 40
10.0
 40
10.0
 40
11.0
 40
11.0
 40
11.0
 40
12.0
 40
12.0
 40
12.0
 40
13.0
 40
13.0
 40
13.0
 40
14.0
 40
14.0
 40
14.0
 40
15.0
 40
15.0
 40
15.0
 40
15.0
 10
2415.680476919
 20
32.123770939
 30
0.0
 10
2415.680476919
 20
32.123770939
 30
0.0
 10
2417.2897049235
 20
32.123770939
 30
0.0
 10
2417.2897049235
 20
32.123770939
 30
0.0
 10
2417.2897049235
 20
32.123770939
 30
0.0
 10
2415.4166776299
 20
34.4409127104
 30
0.0
 10
2415.4166776299
 20
34.4409127104
 30
0.0
 10
2415.4166776299
 20
34.4409127104
 30
0.0
 10
2416.6930160554
 20
35.938392405
 30
0.0
 10
2416.6930160554
 20
35.938392405
 30
0.0
 10
2416.6930160554
 20
35.938392405
 30
0.0
 10
2415.8607921076
 20
36.7994039735
 30
0.0
 10
2415.8607921076
 20
36.7994039735
 30
0.0
 10
2415.8607921076
 20
36.7994039735
 30
0.0
 10
2414.6401969843
 20
35.3840998511
 30
0.0
 10
2414.6401969843
 20
35.3840998511
 30
0.0
 10
2414.6401969843
 20
35.3840998511
 30
0.0
 10
2412.4622826155
 20
38.0194756856
 30
0.0
 10
2412.4622826155
 20
38.0194756856
 30
0.0
 10
2413.335856055
 20
38.6575140455
 30
0.0
 10
2414.3625272961
 20
39.4485193543
 30
0.0
 10
2414.3625272961
 20
40.6273724274
 30
0.0
 10
2414.3625272961
 20
42.0010653524
 30
0.0
 10
2413.2246311563
 20
42.8055485018
 30
0.0
 10
2411.9493395534
 20
42.8055485018
 30
0.0
 10
2410.575908334
 20
42.8055485018
 30
0.0
 10
2409.5349741353
 20
41.9593233022
 30
0.0
 10
2409.5349741353
 20
40.51667094
 30
0.0
 10
2409.5349741353
 20
39.6290962486
 30
0.0
 10
2410.0903135117
 20
38.8522230446
 30
0.0
 10
2410.6864789686
 20
38.2277933781
 30
0.0
 10
2410.6864789686
 20
38.2277933781
 30
0.0
 10
2410.0345702095
 20
37.7561998078
 30
0.0
 10
2410.0345702095
 20
37.7561998078
 30
0.0
 10
2409.0360323251
 20
37.0349390531
 30
0.0
 10
2408.2031541133
 20
36.3136782984
 30
0.0
 10
2408.2031541133
 20
34.982119982
 30
0.0
 10
2408.2031541133
 20
33.178444684
 30
0.0
 10
2409.6602002859
 20
31.9018445529
 30
0.0
 10
2411.4077397233
 20
31.9018445529
 30
0.0
 10
2412.6425978042
 20
31.9018445529
 30
0.0
 10
2413.7519680288
 20
32.6100200254
 30
0.0
 10
2414.5428424848
 20
33.5385516501
 30
0.0
 10
2414.5428424848
 20
33.5385516501
 30
0.0
 10
2415.680476919
 20
32.123770939
 30
0.0
 10
2415.680476919
 20
32.123770939
 30
0.0
  0
LINE
  5
24C
100
AcDbEntity
  8
0
100
AcDbLine
 62
7
  6
CONTINUOUS
 10
2401.483338294
 20
30.0976458436
 11
2423.8972490216
 21
30.0976458436
  0
LINE
  5
24D
100
AcDbEntity
  8
0
100
AcDbLine
 62
7
  6
CONTINUOUS
 10
2423.8972490216
 20
30.0976458436
 11
2423.8972490216
 21
52.5115565713
  0
LINE
  5
24E
100
AcDbEntity
  8
0
100
AcDbLine
 62
7
  6
CONTINUOUS
 10
2423.8972490216
 20
52.5115565713
 11
2401.483338294
 21
52.5115565713
  0
LINE
  5
24F
100
AcDbEntity
  8
0
100
AcDbLine
 62
7
  6
CONTINUOUS
 10
2401.483338294
 20
52.5115565713
 11
2401.483338294
 21
30.0976458436
  0
ENDBLK
  5
250
100
AcDbEntity
  8
0
  6
BYBLOCK
 62
0
100
AcDbBlockEnd
  0
BLOCK
  5
251
100
AcDbEntity
  8
0
100
AcDbBlockBegin
  2
_CLOSED
 70
64
 10
0.0
 20
0.0
  3
_CLOSED
  1

  0
LINE
  5
252
100
AcDbEntity
  8
0
  6
BYBLOCK
 62
0
100
AcDbLine
 10
0.0
 20
0.0
 11
-1.0
 21
0.2
  0
LINE
  5
253
100
AcDbEntity
  8
0
  6
BYBLOCK
 62
0
100
AcDbLine
 10
-1.0
 20
0.2
 11
-1.0
 21
-0.2
  0
LINE
  5
254
100
AcDbEntity
  8
0
  6
BYBLOCK
 62
0
100
AcDbLine
 10
-1.0
 20
-0.2
 11
0.0
 21
0.0
  0
LINE
  5
255
100
AcDbEntity
  8
0
  6
BYBLOCK
 62
0
100
AcDbLine
 10
-1.0
 20
0.0
 11
0.0
 21
0.0
  0
ENDBLK
  5
256
100
AcDbEntity
  8
0
  6
BYBLOCK
 62
0
100
AcDbBlockEnd
  0
BLOCK
  5
257
100
AcDbEntity
  8
0
100
AcDbBlockBegin
 62
7
  6
CONTINUOUS
  2
*D0
 70
65
 10
0.0
 20
0.0
  3
*D0
  1

  0
MTEXT
  5
258
100
AcDbEntity
  8
0
100
AcDbMText
 62
7
  6
CONTINUOUS
  7
STANDARD
 71
2
 72
1
 10
178.8877189471
 20
532.6227478273
 30
0.0
 11
1.0
 21
0.0
 31
0.0
  1
42,4
 40
6.0
 41
16.3048327138
  0
LINE
  5
259
100
AcDbEntity
  8
0
100
AcDbLine
 62
7
  6
CONTINUOUS
 10
157.6877189471
 20
530.4554676717
 11
157.6877189471
 21
524.3727478273
  0
LINE
  5
25A
100
AcDbEntity
  8
0
100
AcDbLine
 62
7
  6
CONTINUOUS
 10
200.0877189471
 20
530.4554676717
 11
200.0877189471
 21
524.3727478273
  0
LINE
  5
25B
100
AcDbEntity
  8
0
100
AcDbLine
 62
7
  6
CONTINUOUS
 10
157.6877189471
 20
525.1227478273
 11
178.8877189471
 21
525.1227478273
  0
LINE
  5
25C
100
AcDbEntity
  8
0
100
AcDbLine
 62
7
  6
CONTINUOUS
 10
200.0877189471
 20
525.1227478273
 11
178.8877189471
 21
525.1227478273
  0
INSERT
  5
25D
100
AcDbEntity
  8
0
100
AcDbBlockReference
 62
7
  6
CONTINUOUS
  2
_CLOSED
 10
157.6877189471
 20
525.1227478273
 41
2.5
 42
2.5
 43
2.5
 50
180.0
  0
INSERT
  5
25E
100
AcDbEntity
  8
0
100
AcDbBlockReference
 62
7
  6
CONTINUOUS
  2
_CLOSED
 10
200.0877189471
 20
525.1227478273
 41
2.5
 42
2.5
 43
2.5
  0
ENDBLK
  5
25F
100
AcDbEntity
  8
0
  6
BYBLOCK
 62
0
100
AcDbBlockEnd
  0
BLOCK
  5
260
100
AcDbEntity
  8
0
100
AcDbBlockBegin
 62
7
  6
CONTINUOUS
  2
*D1
 70
65
 10
0.0
 20
0.0
  3
*D1
  1

  0
MTEXT
  5
261
100
AcDbEntity
  8
0
100
AcDbMText
 62
7
  6
CONTINUOUS
  7
STANDARD
 71
2
 72
1
 10
178.8877189471
 20
517.966161925
 30
0.0
 11
1.0
 21
0.0
 31
0.0
  1
82,1
 40
6.0
 41
16.3048327138
  0
LINE
  5
262
100
AcDbEntity
  8
0
100
AcDbLine
 62
7
  6
CONTINUOUS
 10
137.8377189471
 20
530.4554676717
 11
137.8377189471
 21
509.716161925
  0
LINE
  5
263
100
AcDbEntity
  8
0
100
AcDbLine
 62
7
  6
CONTINUOUS
 10
219.9377189471
 20
532.0442678654
 11
219.9377189471
 21
509.716161925
  0
LINE
  5
264
100
AcDbEntity
  8
0
100
AcDbLine
 62
7
  6
CONTINUOUS
 10
137.8377189471
 20
510.466161925
 11
178.8877189471
 21
510.466161925
  0
LINE
  5
265
100
AcDbEntity
  8
0
100
AcDbLine
 62
7
  6
CONTINUOUS
 10
219.9377189471
 20
510.466161925
 11
178.8877189471
 21
510.466161925
  0
INSERT
  5
266
100
AcDbEntity
  8
0
100
AcDbBlockReference
 62
7
  6
CONTINUOUS
  2
_CLOSED
 10
137.8377189471
 20
510.466161925
 41
2.5
 42
2.5
 43
2.5
 50
180.0
  0
INSERT
  5
267
100
AcDbEntity
  8
0
100
AcDbBlockReference
 62
7
  6
CONTINUOUS
  2
_CLOSED
 10
219.9377189471
 20
510.466161925
 41
2.5
 42
2.5
 43
2.5
  0
ENDBLK
  5
268
100
AcDbEntity
  8
0
  6
BYBLOCK
 62
0
100
AcDbBlockEnd
  0
BLOCK
  5
269
100
AcDbEntity
  8
0
100
AcDbBlockBegin
 62
7
  6
CONTINUOUS
  2
*D2
 70
65
 10
0.0
 20
0.0
  3
*D2
  1

  0
MTEXT
  5
26A
100
AcDbEntity
  8
0
100
AcDbMText
 62
7
  6
CONTINUOUS
  7
STANDARD
 71
2
 72
1
 10
1255.9675843425
 20
517.966161925
 30
0.0
 11
1.0
 21
0.0
 31
0.0
  1
1689
 40
6.0
 41
18.6468401487
  0
LINE
  5
26B
100
AcDbEntity
  8
0
100
AcDbLine
 62
7
  6
CONTINUOUS
 10
411.4675843425
 20
530.4554676717
 11
411.4675843425
 21
509.716161925
  0
LINE
  5
26C
100
AcDbEntity
  8
0
100
AcDbLine
 62
7
  6
CONTINUOUS
 10
2100.4675843425
 20
530.4554676717
 11
2100.4675843425
 21
509.716161925
  0
LINE
  5
26D
100
AcDbEntity
  8
0
100
AcDbLine
 62
7
  6
CONTINUOUS
 10
411.4675843425
 20
510.466161925
 11
1255.9675843425
 21
510.466161925
  0
LINE
  5
26E
100
AcDbEntity
  8
0
100
AcDbLine
 62
7
  6
CONTINUOUS
 10
2100.4675843425
 20
510.466161925
 11
1255.9675843425
 21
510.466161925
  0
INSERT
  5
26F
100
AcDbEntity
  8
0
100
AcDbBlockReference
 62
7
  6
CONTINUOUS
  2
_CLOSED
 10
411.4675843425
 20
510.466161925
 41
2.5
 42
2.5
 43
2.5
 50
180.0
  0
INSERT
  5
270
100
AcDbEntity
  8
0
100
AcDbBlockReference
 62
7
  6
CONTINUOUS
  2
_CLOSED
 10
2100.4675843425
 20
510.466161925
 41
2.5
 42
2.5
 43
2.5
  0
ENDBLK
  5
271
100
AcDbEntity
  8
0
  6
BYBLOCK
 62
0
100
AcDbBlockEnd
  0
BLOCK
  5
272
100
AcDbEntity
  8
0
100
AcDbBlockBegin
 62
7
  6
CONTINUOUS
  2
*D3
 70
65
 10
0.0
 20
0.0
  3
*D3
  1

  0
MTEXT
  5
273
100
AcDbEntity
  8
0
100
AcDbMText
 62
7
  6
CONTINUOUS
  7
STANDARD
 71
2
 72
1
 10
91.1474877752
 20
585.5176406338
 30
0.0
 11
0.0
 21
1.0
 31
0.0
  1
79,8
 40
6.0
 41
16.3048327138
  0
LINE
  5
274
100
AcDbEntity
  8
0
100
AcDbLine
 62
7
  6
CONTINUOUS
 10
132.6398900963
 20
545.6176406338
 11
97.8974877752
 21
545.6176406338
  0
LINE
  5
275
100
AcDbEntity
  8
0
100
AcDbLine
 62
7
  6
CONTINUOUS
 10
134.1218530012
 20
625.4176406338
 11
97.8974877752
 21
625.4176406338
  0
LINE
  5
276
100
AcDbEntity
  8
0
100
AcDbLine
 62
7
  6
CONTINUOUS
 10
98.6474877752
 20
545.6176406338
 11
98.6474877752
 21
585.5176406338
  0
LINE
  5
277
100
AcDbEntity
  8
0
100
AcDbLine
 62
7
  6
CONTINUOUS
 10
98.6474877752
 20
625.4176406338
 11
98.6474877752
 21
585.5176406338
  0
INSERT
  5
278
100
AcDbEntity
  8
0
100
AcDbBlockReference
 62
7
  6
CONTINUOUS
  2
_CLOSED
 10
98.6474877752
 20
545.6176406338
 41
2.5
 42
2.5
 43
2.5
 50
270.0
  0
INSERT
  5
279
100
AcDbEntity
  8
0
100
AcDbBlockReference
 62
7
  6
CONTINUOUS
  2
_CLOSED
 10
98.6474877752
 20
625.4176406338
 41
2.5
 42
2.5
 43
2.5
 50
90.0
  0
ENDBLK
  5
27A
100
AcDbEntity
  8
0
  6
BYBLOCK
 62
0
100
AcDbBlockEnd
  0
ENDSEC
  0
SECTION
  2
ENTITIES
  0
DIMENSION
  5
27B
100
AcDbEntity
  8
0
100
AcDbDimension
 62
7
  6
CONTINUOUS
  2
*D0
 10
200.0877189471
 20
525.1227478273
 11
178.7349537037
 21
525.1227478273
 70
160
  3
DIMSTYLE_1
100
AcDbAlignedDimension
 13
157.6877189471
 23
531.2054676717
 14
200.0877189471
 24
531.2054676717
100
AcDbRotatedDimension
  0
DIMENSION
  5
27C
100
AcDbEntity
  8
0
100
AcDbDimension
 62
7
  6
CONTINUOUS
  2
*D1
 10
219.9377189471
 20
510.466161925
 11
178.2776909722
 21
510.466161925
 70
160
  3
DIMSTYLE_1
100
AcDbAlignedDimension
 13
137.8377189471
 23
531.2054676717
 14
219.9377189471
 24
532.7942678654
100
AcDbRotatedDimension
  0
DIMENSION
  5
27D
100
AcDbEntity
  8
0
100
AcDbDimension
 62
7
  6
CONTINUOUS
  2
*D2
 10
2100.4675843425
 20
510.466161925
 11
1256.2204282407
 21
510.466161925
 70
160
  3
DIMSTYLE_2
100
AcDbAlignedDimension
 13
411.4675843425
 23
531.2054676717
 14
2100.4675843425
 24
531.2054676717
100
AcDbRotatedDimension
  0
DIMENSION
  5
27E
100
AcDbEntity
  8
0
100
AcDbDimension
 62
7
  6
CONTINUOUS
  2
*D3
 10
98.6474877752
 20
625.4176406338
 11
98.6474877752
 21
585.5098371962
 70
160
  3
DIMSTYLE_1
100
AcDbAlignedDimension
 13
133.3898900963
 23
545.6176406338
 14
134.8718530012
 24
625.4176406338
 50
90.0
100
AcDbRotatedDimension
  0
LINE
  5
27F
100
AcDbEntity
  8
0
100
AcDbLine
 62
2
  6
CONTINUOUS
 10
2398.8641811866
 20
52.8878690713
 11
2488.8641811866
 21
52.8878690713
  0
LINE
  5
280
100
AcDbEntity
  8
0
100
AcDbLine
 62
2
  6
CONTINUOUS
 10
2398.8641811866
 20
52.8878690713
 11
2398.8641811866
 21
12.8878690713
  0
LINE
  5
281
100
AcDbEntity
  8
0
100
AcDbLine
 62
2
  6
CONTINUOUS
 10
2428.8641811866
 20
46.8878690713
 11
2488.8641811866
 21
46.8878690713
  0
LINE
  5
282
100
AcDbEntity
  8
0
100
AcDbLine
 62
2
  6
CONTINUOUS
 10
2428.8641811866
 20
40.8878690713
 11
2488.8641811866
 21
40.8878690713
  0
LINE
  5
283
100
AcDbEntity
  8
0
100
AcDbLine
 62
2
  6
CONTINUOUS
 10
2428.8641811866
 20
30.8878690713
 11
2488.8641811866
 21
30.8878690713
  0
LINE
  5
284
100
AcDbEntity
  8
0
100
AcDbLine
 62
2
  6
CONTINUOUS
 10
2398.8641811866
 20
25.8878690713
 11
2488.8641811866
 21
25.8878690713
  0
LINE
  5
285
100
AcDbEntity
  8
0
100
AcDbLine
 62
2
  6
CONTINUOUS
 10
2398.8641811866
 20
12.8878690713
 11
2488.8641811866
 21
12.8878690713
  0
LINE
  5
286
100
AcDbEntity
  8
0
100
AcDbLine
 62
2
  6
CONTINUOUS
 10
2428.8641811866
 20
52.8878690713
 11
2428.8641811866
 21
25.8878690713
  0
LINE
  5
287
100
AcDbEntity
  8
0
100
AcDbLine
 62
2
  6
CONTINUOUS
 10
2468.8641811866
 20
52.8878690713
 11
2468.8641811866
 21
40.8878690713
  0
LINE
  5
288
100
AcDbEntity
  8
0
100
AcDbLine
 62
2
  6
CONTINUOUS
 10
2488.8641811866
 20
52.8878690713
 11
2488.8641811866
 21
12.8878690713
  0
INSERT
  5
289
100
AcDbEntity
  8
0
100
AcDbBlockReference
 62
2
  6
CONTINUOUS
  2
LOGO2_BL0
 10
2412.6902282314
 20
39.3878690713
  0
MTEXT
  5
28A
100
AcDbEntity
  8
9_SOLID
100
AcDbMText
 62
2
  6
CONTINUOUS
  7
TEXTSTYLE_2
 71
1
 72
1
 10
2430.3516811866
 20
51.3878690713
 30
0.0
 11
1.0
 21
0.0
 31
0.0
  1
6F3_C_043
 40
3.0
 41
31.9285714286
  0
MTEXT
  5
28B
100
AcDbEntity
  8
0
100
AcDbMText
 62
2
  6
CONTINUOUS
  7
TEXTSTYLE_2
 71
1
 72
1
 10
2470.3516811866
 20
51.1378690713
 30
0.0
 11
1.0
 21
0.0
 31
0.0
  1
Rev:00
 40
3.5
 41
22.75
  0
MTEXT
  5
28C
100
AcDbEntity
  8
9_SOLID
100
AcDbMText
 62
2
  6
CONTINUOUS
  7
TEXTSTYLE_2
 71
1
 72
1
 10
2430.3516811866
 20
45.1378690713
 30
0.0
 11
1.0
 21
0.0
 31
0.0
  1
Scale:1:1
 40
3.5
 41
28.375
  0
MTEXT
  5
28D
100
AcDbEntity
  8
9_SOLID
100
AcDbMText
 62
2
  6
CONTINUOUS
  7
TEXTSTYLE_2
 71
1
 72
1
 10
2470.3516811866
 20
45.6378690713
 30
0.0
 11
1.0
 21
0.0
 31
0.0
  1
2500 by 3200
 40
3.5
 41
48.5
  0
MTEXT
  5
28E
100
AcDbEntity
  8
0
100
AcDbMText
 62
2
  6
CONTINUOUS
  7
TEXTSTYLE_2
 71
1
 72
1
 10
2430.3516811866
 20
37.4878690713
 30
0.0
 11
1.0
 21
0.0
 31
0.0
  1
CASS. BRENTA 1.5 A FILO
 40
3.2
 41
83.7714285714
  0
MTEXT
  5
28F
100
AcDbEntity
  8
0
100
AcDbMText
 62
2
  6
CONTINUOUS
  7
TEXTSTYLE_2
 71
1
 72
1
 10
2430.3516811866
 20
29.6378690713
 30
0.0
 11
1.0
 21
0.0
 31
0.0
  1
DATE:08/05/18
 40
2.5
 41
36.875
  0
MTEXT
  5
290
100
AcDbEntity
  8
9_SOLID
100
AcDbMText
 62
2
  6
CONTINUOUS
  7
TEXTSTYLE_2
 71
1
 72
1
 10
2400.3516811866
 20
25.5753690713
 30
0.0
 11
1.0
 21
0.0
 31
0.0
  1
Any integral or partial reproductions are prohibited \Pwithout prior authorisation of L {\Ftxt.shx;\W0.190476;\H2.250000; }& L Luce & Light s.r.l., \Pin accordance with the law in force. \PAll rights reserved.
 40
2.25
 41
134.5982142857
  0
LINE
  5
291
100
AcDbEntity
  8
0
100
AcDbLine
 62
7
  6
CONTINUOUS
 10
0.0
 20
0.0
 11
2500.0
 21
0.0
  0
LINE
  5
292
100
AcDbEntity
  8
0
100
AcDbLine
 62
7
  6
CONTINUOUS
 10
0.0
 20
0.0
 11
0.0
 21
3200.0
  0
LINE
  5
293
100
AcDbEntity
  8
0
100
AcDbLine
 62
7
  6
CONTINUOUS
 10
2500.0
 20
0.0
 11
2500.0
 21
3200.0
  0
LINE
  5
294
100
AcDbEntity
  8
0
100
AcDbLine
 62
7
  6
CONTINUOUS
 10
0.0
 20
3200.0
 11
2500.0
 21
3200.0
  0
LINE
  5
295
100
AcDbEntity
  8
6_ALL_SURFS
100
AcDbLine
 62
7
  6
CONTINUOUS
 10
140.5377189471
 20
548.2676406338
 11
140.8377189471
 21
548.1176406338
  0
LINE
  5
296
100
AcDbEntity
  8
6_ALL_SURFS
100
AcDbLine
 62
7
  6
CONTINUOUS
 10
143.5377189471
 20
548.2676406338
 11
143.8377189471
 21
548.1176406338
  0
LINE
  5
297
100
AcDbEntity
  8
6_ALL_SURFS
100
AcDbLine
 62
7
  6
CONTINUOUS
 10
146.5377189471
 20
548.2676406338
 11
146.8377189471
 21
548.1176406338
  0
LINE
  5
298
100
AcDbEntity
  8
6_ALL_SURFS
100
AcDbLine
 62
7
  6
CONTINUOUS
 10
149.5377189471
 20
548.2676406338
 11
149.8377189471
 21
548.1176406338
  0
LINE
  5
299
100
AcDbEntity
  8
7_ALL_FEATURES
100
AcDbLine
 62
7
  6
CONTINUOUS
 10
217.4377189471
 20
547.1176406338
 11
219.5831905375
 21
547.3321877929
  0
LINE
  5
29A
100
AcDbEntity
  8
6_ALL_SURFS
100
AcDbLine
 62
7
  6
CONTINUOUS
 10
140.3377189471
 20
547.1176406338
 11
138.1922473567
 21
547.3321877929
  0
LINE
  5
29B
100
AcDbEntity
  8
6_ALL_SURFS
100
AcDbLine
 62
7
  6
CONTINUOUS
 10
152.5377189471
 20
548.2676406338
 11
152.8377189471
 21
548.1176406338
  0
LINE
  5
29C
100
AcDbEntity
  8
6_ALL_SURFS
100
AcDbLine
 62
7
  6
CONTINUOUS
 10
155.5377189471
 20
548.2676406338
 11
155.8377189471
 21
548.1176406338
  0
LINE
  5
29D
100
AcDbEntity
  8
7_ALL_FEATURES
100
AcDbLine
 62
7
  6
CONTINUOUS
 10
158.4377189471
 20
545.6176406338
 11
199.3377189471
 21
545.6176406338
  0
LINE
  5
29E
100
AcDbEntity
  8
6_ALL_SURFS
100
AcDbLine
 62
7
  6
CONTINUOUS
 10
157.6877189471
 20
547.1176406338
 11
155.8377189471
 21
547.1176406338
  0
LINE
  5
29F
100
AcDbEntity
  8
6_ALL_SURFS
100
AcDbLine
 62
7
  6
CONTINUOUS
 10
155.2377189471
 20
547.1176406338
 11
152.8377189471
 21
547.1176406338
  0
LINE
  5
2A0
100
AcDbEntity
  8
6_ALL_SURFS
100
AcDbLine
 62
7
  6
CONTINUOUS
 10
152.2377189471
 20
547.1176406338
 11
149.8377189471
 21
547.1176406338
  0
LINE
  5
2A1
100
AcDbEntity
  8
6_ALL_SURFS
100
AcDbLine
 62
7
  6
CONTINUOUS
 10
149.2377189471
 20
547.1176406338
 11
146.8377189471
 21
547.1176406338
  0
LINE
  5
2A2
100
AcDbEntity
  8
6_ALL_SURFS
100
AcDbLine
 62
7
  6
CONTINUOUS
 10
146.2377189471
 20
547.1176406338
 11
143.8377189471
 21
547.1176406338
  0
LINE
  5
2A3
100
AcDbEntity
  8
6_ALL_SURFS
100
AcDbLine
 62
7
  6
CONTINUOUS
 10
143.2377189471
 20
547.1176406338
 11
140.3377189471
 21
547.1176406338
  0
LINE
  5
2A4
100
AcDbEntity
  8
3_ALL_AXES
100
AcDbLine
 62
7
  6
CONTINUOUS
 10
202.5377189471
 20
547.1176406338
 11
204.9377189471
 21
547.1176406338
  0
LINE
  5
2A5
100
AcDbEntity
  8
7_ALL_FEATURES
100
AcDbLine
 62
7
  6
CONTINUOUS
 10
200.0877189471
 20
547.1176406338
 11
201.9377189471
 21
547.1176406338
  0
LINE
  5
2A6
100
AcDbEntity
  8
3_ALL_AXES
100
AcDbLine
 62
7
  6
CONTINUOUS
 10
205.5377189471
 20
547.1176406338
 11
207.9377189471
 21
547.1176406338
  0
LINE
  5
2A7
100
AcDbEntity
  8
3_ALL_AXES
100
AcDbLine
 62
7
  6
CONTINUOUS
 10
208.5377189471
 20
547.1176406338
 11
210.9377189471
 21
547.1176406338
  0
LINE
  5
2A8
100
AcDbEntity
  8
3_ALL_AXES
100
AcDbLine
 62
7
  6
CONTINUOUS
 10
214.5377189471
 20
547.1176406338
 11
217.4377189471
 21
547.1176406338
  0
LINE
  5
2A9
100
AcDbEntity
  8
3_ALL_AXES
100
AcDbLine
 62
7
  6
CONTINUOUS
 10
211.5377189471
 20
547.1176406338
 11
213.9377189471
 21
547.1176406338
  0
LINE
  5
2AA
100
AcDbEntity
  8
7_ALL_FEATURES
100
AcDbLine
 62
7
  6
CONTINUOUS
 10
219.5440155892
 20
548.1176406338
 11
217.5377189471
 21
548.1176406338
  0
LINE
  5
2AB
100
AcDbEntity
  8
3_ALL_AXES
100
AcDbLine
 62
7
  6
CONTINUOUS
 10
213.9377189471
 20
548.1176406338
 11
211.5377189471
 21
548.1176406338
  0
LINE
  5
2AC
100
AcDbEntity
  8
3_ALL_AXES
100
AcDbLine
 62
7
  6
CONTINUOUS
 10
216.9377189471
 20
548.1176406338
 11
214.5377189471
 21
548.1176406338
  0
LINE
  5
2AD
100
AcDbEntity
  8
3_ALL_AXES
100
AcDbLine
 62
7
  6
CONTINUOUS
 10
210.9377189471
 20
548.1176406338
 11
208.5377189471
 21
548.1176406338
  0
LINE
  5
2AE
100
AcDbEntity
  8
3_ALL_AXES
100
AcDbLine
 62
7
  6
CONTINUOUS
 10
207.9377189471
 20
548.1176406338
 11
205.5377189471
 21
548.1176406338
  0
LINE
  5
2AF
100
AcDbEntity
  8
7_ALL_FEATURES
100
AcDbLine
 62
7
  6
CONTINUOUS
 10
201.9377189471
 20
548.1176406338
 11
200.2377189471
 21
548.1176406338
  0
LINE
  5
2B0
100
AcDbEntity
  8
3_ALL_AXES
100
AcDbLine
 62
7
  6
CONTINUOUS
 10
204.9377189471
 20
548.1176406338
 11
202.5377189471
 21
548.1176406338
  0
LINE
  5
2B1
100
AcDbEntity
  8
6_ALL_SURFS
100
AcDbLine
 62
7
  6
CONTINUOUS
 10
138.231422305
 20
548.1176406338
 11
140.2377189471
 21
548.1176406338
  0
LINE
  5
2B2
100
AcDbEntity
  8
6_ALL_SURFS
100
AcDbLine
 62
7
  6
CONTINUOUS
 10
140.8377189471
 20
548.1176406338
 11
143.2377189471
 21
548.1176406338
  0
LINE
  5
2B3
100
AcDbEntity
  8
6_ALL_SURFS
100
AcDbLine
 62
7
  6
CONTINUOUS
 10
143.8377189471
 20
548.1176406338
 11
146.2377189471
 21
548.1176406338
  0
LINE
  5
2B4
100
AcDbEntity
  8
6_ALL_SURFS
100
AcDbLine
 62
7
  6
CONTINUOUS
 10
146.8377189471
 20
548.1176406338
 11
149.2377189471
 21
548.1176406338
  0
LINE
  5
2B5
100
AcDbEntity
  8
6_ALL_SURFS
100
AcDbLine
 62
7
  6
CONTINUOUS
 10
149.8377189471
 20
548.1176406338
 11
152.2377189471
 21
548.1176406338
  0
LINE
  5
2B6
100
AcDbEntity
  8
6_ALL_SURFS
100
AcDbLine
 62
7
  6
CONTINUOUS
 10
152.8377189471
 20
548.1176406338
 11
155.2377189471
 21
548.1176406338
  0
LINE
  5
2B7
100
AcDbEntity
  8
6_ALL_SURFS
100
AcDbLine
 62
7
  6
CONTINUOUS
 10
155.8377189471
 20
548.1176406338
 11
157.5377189471
 21
548.1176406338
  0
LINE
  5
2B8
100
AcDbEntity
  8
7_ALL_FEATURES
100
AcDbLine
 62
7
  6
CONTINUOUS
 10
197.5627189471
 20
555.3676406338
 11
196.8127189471
 21
555.3676406338
  0
LINE
  5
2B9
100
AcDbEntity
  8
7_ALL_FEATURES
100
AcDbLine
 62
7
  6
CONTINUOUS
 10
160.9627189471
 20
555.3676406338
 11
160.2127189471
 21
555.3676406338
  0
LINE
  5
2BA
100
AcDbEntity
  8
7_ALL_FEATURES
100
AcDbLine
 62
7
  6
CONTINUOUS
 10
160.9627189471
 20
556.2426406338
 11
161.8377189471
 21
556.2426406338
  0
LINE
  5
2BB
100
AcDbEntity
  8
7_ALL_FEATURES
100
AcDbLine
 62
7
  6
CONTINUOUS
 10
159.3377189471
 20
556.2426406338
 11
160.2127189471
 21
556.2426406338
  0
LINE
  5
2BC
100
AcDbEntity
  8
7_ALL_FEATURES
100
AcDbLine
 62
7
  6
CONTINUOUS
 10
197.5627189471
 20
556.2426406338
 11
198.4377189471
 21
556.2426406338
  0
LINE
  5
2BD
100
AcDbEntity
  8
7_ALL_FEATURES
100
AcDbLine
 62
7
  6
CONTINUOUS
 10
195.9377189471
 20
556.2426406338
 11
196.8127189471
 21
556.2426406338
  0
LINE
  5
2BE
100
AcDbEntity
  8
7_ALL_FEATURES
100
AcDbLine
 62
7
  6
CONTINUOUS
 10
198.4377189471
 20
556.9926406338
 11
197.5627189471
 21
556.9926406338
  0
LINE
  5
2BF
100
AcDbEntity
  8
7_ALL_FEATURES
100
AcDbLine
 62
7
  6
CONTINUOUS
 10
196.8127189471
 20
556.9926406338
 11
195.9377189471
 21
556.9926406338
  0
LINE
  5
2C0
100
AcDbEntity
  8
7_ALL_FEATURES
100
AcDbLine
 62
7
  6
CONTINUOUS
 10
161.8377189471
 20
556.9926406338
 11
160.9627189471
 21
556.9926406338
  0
LINE
  5
2C1
100
AcDbEntity
  8
7_ALL_FEATURES
100
AcDbLine
 62
7
  6
CONTINUOUS
 10
160.2127189471
 20
556.9926406338
 11
159.3377189471
 21
556.9926406338
  0
LINE
  5
2C2
100
AcDbEntity
  8
7_ALL_FEATURES
100
AcDbLine
 62
7
  6
CONTINUOUS
 10
160.2127189471
 20
557.8676406338
 11
160.9627189471
 21
557.8676406338
  0
LINE
  5
2C3
100
AcDbEntity
  8
7_ALL_FEATURES
100
AcDbLine
 62
7
  6
CONTINUOUS
 10
196.8127189471
 20
557.8676406338
 11
197.5627189471
 21
557.8676406338
  0
LINE
  5
2C4
100
AcDbEntity
  8
7_ALL_FEATURES
100
AcDbLine
 62
7
  6
CONTINUOUS
 10
199.3377189471
 20
560.5176406338
 11
198.3877189471
 21
560.5176406338
  0
LINE
  5
2C5
100
AcDbEntity
  8
7_ALL_FEATURES
100
AcDbLine
 62
7
  6
CONTINUOUS
 10
158.4377189471
 20
560.5176406338
 11
159.3877189471
 21
560.5176406338
  0
LINE
  5
2C6
100
AcDbEntity
  8
3_ALL_AXES
100
AcDbLine
 62
7
  6
CONTINUOUS
 10
202.5377189471
 20
548.1176406338
 11
202.2377189471
 21
548.2676406338
  0
LINE
  5
2C7
100
AcDbEntity
  8
7_ALL_FEATURES
100
AcDbLine
 62
7
  6
CONTINUOUS
 10
157.6877189471
 20
559.7676406338
 11
157.6877189471
 21
546.3676406338
  0
LINE
  5
2C8
100
AcDbEntity
  8
7_ALL_FEATURES
100
AcDbLine
 62
7
  6
CONTINUOUS
 10
159.3377189471
 20
556.2426406338
 11
159.3377189471
 21
556.9926406338
  0
LINE
  5
2C9
100
AcDbEntity
  8
7_ALL_FEATURES
100
AcDbLine
 62
7
  6
CONTINUOUS
 10
160.2127189471
 20
557.8676406338
 11
160.2127189471
 21
556.9926406338
  0
LINE
  5
2CA
100
AcDbEntity
  8
7_ALL_FEATURES
100
AcDbLine
 62
7
  6
CONTINUOUS
 10
160.2127189471
 20
556.2426406338
 11
160.2127189471
 21
555.3676406338
  0
LINE
  5
2CB
100
AcDbEntity
  8
7_ALL_FEATURES
100
AcDbLine
 62
7
  6
CONTINUOUS
 10
160.8877189471
 20
605.1107436215
 11
162.8877189471
 21
614.1321606289
  0
LINE
  5
2CC
100
AcDbEntity
  8
3_ALL_AXES
100
AcDbLine
 62
7
  6
CONTINUOUS
 10
205.5377189471
 20
548.1176406338
 11
205.2377189471
 21
548.2676406338
  0
LINE
  5
2CD
100
AcDbEntity
  8
3_ALL_AXES
100
AcDbLine
 62
7
  6
CONTINUOUS
 10
208.5377189471
 20
548.1176406338
 11
208.2377189471
 21
548.2676406338
  0
LINE
  5
2CE
100
AcDbEntity
  8
3_ALL_AXES
100
AcDbLine
 62
7
  6
CONTINUOUS
 10
211.5377189471
 20
548.1176406338
 11
211.2377189471
 21
548.2676406338
  0
LINE
  5
2CF
100
AcDbEntity
  8
7_ALL_FEATURES
100
AcDbLine
 62
7
  6
CONTINUOUS
 10
160.8877189471
 20
562.0176406338
 11
160.8877189471
 21
605.1107436215
  0
LINE
  5
2D0
100
AcDbEntity
  8
7_ALL_FEATURES
100
AcDbLine
 62
7
  6
CONTINUOUS
 10
160.9627189471
 20
555.3676406338
 11
160.9627189471
 21
556.2426406338
  0
LINE
  5
2D1
100
AcDbEntity
  8
7_ALL_FEATURES
100
AcDbLine
 62
7
  6
CONTINUOUS
 10
160.9627189471
 20
556.9926406338
 11
160.9627189471
 21
557.8676406338
  0
LINE
  5
2D2
100
AcDbEntity
  8
7_ALL_FEATURES
100
AcDbLine
 62
7
  6
CONTINUOUS
 10
161.8377189471
 20
556.9926406338
 11
161.8377189471
 21
556.2426406338
  0
LINE
  5
2D3
100
AcDbEntity
  8
7_ALL_FEATURES
100
AcDbLine
 62
7
  6
CONTINUOUS
 10
162.8877189471
 20
624.6676406338
 11
162.8877189471
 21
614.1321606289
  0
LINE
  5
2D4
100
AcDbEntity
  8
6_ALL_SURFS
100
AcDbLine
 62
7
  6
CONTINUOUS
 10
162.8877189471
 20
624.6676406338
 11
162.8877189471
 21
625.1176406338
  0
LINE
  5
2D5
100
AcDbEntity
  8
3_ALL_AXES
100
AcDbLine
 62
7
  6
CONTINUOUS
 10
214.5377189471
 20
548.1176406338
 11
214.2377189471
 21
548.2676406338
  0
LINE
  5
2D6
100
AcDbEntity
  8
3_ALL_AXES
100
AcDbLine
 62
7
  6
CONTINUOUS
 10
217.5377189471
 20
548.1176406338
 11
217.2377189471
 21
548.2676406338
  0
LINE
  5
2D7
100
AcDbEntity
  8
7_ALL_FEATURES
100
AcDbLine
 62
7
  6
CONTINUOUS
 10
165.6377189471
 20
621.8426406338
 11
165.6377189471
 21
622.5926406338
  0
LINE
  5
2D8
100
AcDbEntity
  8
7_ALL_FEATURES
100
AcDbLine
 62
7
  6
CONTINUOUS
 10
166.5127189471
 20
623.4676406338
 11
166.5127189471
 21
622.5926406338
  0
LINE
  5
2D9
100
AcDbEntity
  8
7_ALL_FEATURES
100
AcDbLine
 62
7
  6
CONTINUOUS
 10
166.5127189471
 20
621.8426406338
 11
166.5127189471
 21
620.9676406338
  0
LINE
  5
2DA
100
AcDbEntity
  8
7_ALL_FEATURES
100
AcDbLine
 62
7
  6
CONTINUOUS
 10
167.2627189471
 20
620.9676406338
 11
167.2627189471
 21
621.8426406338
  0
LINE
  5
2DB
100
AcDbEntity
  8
7_ALL_FEATURES
100
AcDbLine
 62
7
  6
CONTINUOUS
 10
167.2627189471
 20
622.5926406338
 11
167.2627189471
 21
623.4676406338
  0
LINE
  5
2DC
100
AcDbEntity
  8
7_ALL_FEATURES
100
AcDbLine
 62
7
  6
CONTINUOUS
 10
168.1377189471
 20
622.5926406338
 11
168.1377189471
 21
621.8426406338
  0
LINE
  5
2DD
100
AcDbEntity
  8
7_ALL_FEATURES
100
AcDbLine
 62
7
  6
CONTINUOUS
 10
189.6377189471
 20
621.8426406338
 11
189.6377189471
 21
622.5926406338
  0
LINE
  5
2DE
100
AcDbEntity
  8
7_ALL_FEATURES
100
AcDbLine
 62
7
  6
CONTINUOUS
 10
190.5127189471
 20
623.4676406338
 11
190.5127189471
 21
622.5926406338
  0
LINE
  5
2DF
100
AcDbEntity
  8
7_ALL_FEATURES
100
AcDbLine
 62
7
  6
CONTINUOUS
 10
190.5127189471
 20
621.8426406338
 11
190.5127189471
 21
620.9676406338
  0
LINE
  5
2E0
100
AcDbEntity
  8
7_ALL_FEATURES
100
AcDbLine
 62
7
  6
CONTINUOUS
 10
191.2627189471
 20
620.9676406338
 11
191.2627189471
 21
621.8426406338
  0
LINE
  5
2E1
100
AcDbEntity
  8
7_ALL_FEATURES
100
AcDbLine
 62
7
  6
CONTINUOUS
 10
191.2627189471
 20
622.5926406338
 11
191.2627189471
 21
623.4676406338
  0
LINE
  5
2E2
100
AcDbEntity
  8
7_ALL_FEATURES
100
AcDbLine
 62
7
  6
CONTINUOUS
 10
192.1377189471
 20
622.5926406338
 11
192.1377189471
 21
621.8426406338
  0
LINE
  5
2E3
100
AcDbEntity
  8
7_ALL_FEATURES
100
AcDbLine
 62
7
  6
CONTINUOUS
 10
194.8877189471
 20
614.1321606289
 11
194.8877189471
 21
625.1176406338
  0
LINE
  5
2E4
100
AcDbEntity
  8
7_ALL_FEATURES
100
AcDbLine
 62
7
  6
CONTINUOUS
 10
195.9377189471
 20
556.2426406338
 11
195.9377189471
 21
556.9926406338
  0
LINE
  5
2E5
100
AcDbEntity
  8
7_ALL_FEATURES
100
AcDbLine
 62
7
  6
CONTINUOUS
 10
196.8127189471
 20
557.8676406338
 11
196.8127189471
 21
556.9926406338
  0
LINE
  5
2E6
100
AcDbEntity
  8
7_ALL_FEATURES
100
AcDbLine
 62
7
  6
CONTINUOUS
 10
196.8127189471
 20
556.2426406338
 11
196.8127189471
 21
555.3676406338
  0
LINE
  5
2E7
100
AcDbEntity
  8
7_ALL_FEATURES
100
AcDbLine
 62
7
  6
CONTINUOUS
 10
196.8877189471
 20
605.1107436215
 11
196.8877189471
 21
562.0176406338
  0
LINE
  5
2E8
100
AcDbEntity
  8
7_ALL_FEATURES
100
AcDbLine
 62
7
  6
CONTINUOUS
 10
197.5627189471
 20
555.3676406338
 11
197.5627189471
 21
556.2426406338
  0
LINE
  5
2E9
100
AcDbEntity
  8
7_ALL_FEATURES
100
AcDbLine
 62
7
  6
CONTINUOUS
 10
197.5627189471
 20
556.9926406338
 11
197.5627189471
 21
557.8676406338
  0
LINE
  5
2EA
100
AcDbEntity
  8
7_ALL_FEATURES
100
AcDbLine
 62
7
  6
CONTINUOUS
 10
198.4377189471
 20
556.9926406338
 11
198.4377189471
 21
556.2426406338
  0
LINE
  5
2EB
100
AcDbEntity
  8
6_ALL_SURFS
100
AcDbLine
 62
7
  6
CONTINUOUS
 10
140.2377189471
 20
548.1176406338
 11
140.5377189471
 21
548.2676406338
  0
LINE
  5
2EC
100
AcDbEntity
  8
6_ALL_SURFS
100
AcDbLine
 62
7
  6
CONTINUOUS
 10
143.2377189471
 20
548.1176406338
 11
143.5377189471
 21
548.2676406338
  0
LINE
  5
2ED
100
AcDbEntity
  8
6_ALL_SURFS
100
AcDbLine
 62
7
  6
CONTINUOUS
 10
146.2377189471
 20
548.1176406338
 11
146.5377189471
 21
548.2676406338
  0
LINE
  5
2EE
100
AcDbEntity
  8
7_ALL_FEATURES
100
AcDbLine
 62
7
  6
CONTINUOUS
 10
167.9054889823
 20
602.2926406338
 11
168.6567915698
 21
602.2926406338
  0
LINE
  5
2EF
100
AcDbEntity
  8
7_ALL_FEATURES
100
AcDbLine
 62
7
  6
CONTINUOUS
 10
189.1186463244
 20
602.2926406338
 11
189.8699489119
 21
602.2926406338
  0
LINE
  5
2F0
100
AcDbEntity
  8
7_ALL_FEATURES
100
AcDbLine
 62
7
  6
CONTINUOUS
 10
189.8699489119
 20
603.5426406338
 11
189.1186463244
 21
603.5426406338
  0
LINE
  5
2F1
100
AcDbEntity
  8
7_ALL_FEATURES
100
AcDbLine
 62
7
  6
CONTINUOUS
 10
168.6567915698
 20
603.5426406338
 11
167.9054889823
 21
603.5426406338
  0
LINE
  5
2F2
100
AcDbEntity
  8
7_ALL_FEATURES
100
AcDbLine
 62
7
  6
CONTINUOUS
 10
200.0877189471
 20
546.3676406338
 11
200.0877189471
 21
559.7676406338
  0
LINE
  5
2F3
100
AcDbEntity
  8
6_ALL_SURFS
100
AcDbLine
 62
7
  6
CONTINUOUS
 10
149.2377189471
 20
548.1176406338
 11
149.5377189471
 21
548.2676406338
  0
LINE
  5
2F4
100
AcDbEntity
  8
6_ALL_SURFS
100
AcDbLine
 62
7
  6
CONTINUOUS
 10
152.2377189471
 20
548.1176406338
 11
152.5377189471
 21
548.2676406338
  0
LINE
  5
2F5
100
AcDbEntity
  8
6_ALL_SURFS
100
AcDbLine
 62
7
  6
CONTINUOUS
 10
155.2377189471
 20
548.1176406338
 11
155.5377189471
 21
548.2676406338
  0
LINE
  5
2F6
100
AcDbEntity
  8
7_ALL_FEATURES
100
AcDbLine
 62
7
  6
CONTINUOUS
 10
194.8877189471
 20
614.1321606289
 11
196.8877189471
 21
605.1107436215
  0
LINE
  5
2F7
100
AcDbEntity
  8
7_ALL_FEATURES
100
AcDbLine
 62
7
  6
CONTINUOUS
 10
191.2627189471
 20
620.9676406338
 11
190.5127189471
 21
620.9676406338
  0
LINE
  5
2F8
100
AcDbEntity
  8
7_ALL_FEATURES
100
AcDbLine
 62
7
  6
CONTINUOUS
 10
167.2627189471
 20
620.9676406338
 11
166.5127189471
 21
620.9676406338
  0
LINE
  5
2F9
100
AcDbEntity
  8
7_ALL_FEATURES
100
AcDbLine
 62
7
  6
CONTINUOUS
 10
167.2627189471
 20
621.8426406338
 11
168.1377189471
 21
621.8426406338
  0
LINE
  5
2FA
100
AcDbEntity
  8
7_ALL_FEATURES
100
AcDbLine
 62
7
  6
CONTINUOUS
 10
165.6377189471
 20
621.8426406338
 11
166.5127189471
 21
621.8426406338
  0
LINE
  5
2FB
100
AcDbEntity
  8
7_ALL_FEATURES
100
AcDbLine
 62
7
  6
CONTINUOUS
 10
191.2627189471
 20
621.8426406338
 11
192.1377189471
 21
621.8426406338
  0
LINE
  5
2FC
100
AcDbEntity
  8
7_ALL_FEATURES
100
AcDbLine
 62
7
  6
CONTINUOUS
 10
189.6377189471
 20
621.8426406338
 11
190.5127189471
 21
621.8426406338
  0
LINE
  5
2FD
100
AcDbEntity
  8
7_ALL_FEATURES
100
AcDbLine
 62
7
  6
CONTINUOUS
 10
192.1377189471
 20
622.5926406338
 11
191.2627189471
 21
622.5926406338
  0
LINE
  5
2FE
100
AcDbEntity
  8
7_ALL_FEATURES
100
AcDbLine
 62
7
  6
CONTINUOUS
 10
190.5127189471
 20
622.5926406338
 11
189.6377189471
 21
622.5926406338
  0
LINE
  5
2FF
100
AcDbEntity
  8
7_ALL_FEATURES
100
AcDbLine
 62
7
  6
CONTINUOUS
 10
168.1377189471
 20
622.5926406338
 11
167.2627189471
 21
622.5926406338
  0
LINE
  5
300
100
AcDbEntity
  8
7_ALL_FEATURES
100
AcDbLine
 62
7
  6
CONTINUOUS
 10
166.5127189471
 20
622.5926406338
 11
165.6377189471
 21
622.5926406338
  0
LINE
  5
301
100
AcDbEntity
  8
7_ALL_FEATURES
100
AcDbLine
 62
7
  6
CONTINUOUS
 10
166.5127189471
 20
623.4676406338
 11
167.2627189471
 21
623.4676406338
  0
LINE
  5
302
100
AcDbEntity
  8
7_ALL_FEATURES
100
AcDbLine
 62
7
  6
CONTINUOUS
 10
190.5127189471
 20
623.4676406338
 11
191.2627189471
 21
623.4676406338
  0
LINE
  5
303
100
AcDbEntity
  8
7_ALL_FEATURES
100
AcDbLine
 62
7
  6
CONTINUOUS
 10
194.5877189471
 20
625.4176406338
 11
181.5334702581
 21
625.4176406338
  0
LINE
  5
304
100
AcDbEntity
  8
7_ALL_FEATURES
100
AcDbLine
 62
7
  6
CONTINUOUS
 10
176.241967636
 20
625.4176406338
 11
163.6377189471
 21
625.4176406338
  0
LINE
  5
305
100
AcDbEntity
  8
6_ALL_SURFS
100
AcDbLine
 62
7
  6
CONTINUOUS
 10
163.1877189471
 20
625.4176406338
 11
163.6377189471
 21
625.4176406338
  0
LINE
  5
306
100
AcDbEntity
  8
7_ALL_FEATURES
100
AcDbLine
 62
7
  6
CONTINUOUS
 10
177.0877189471
 20
625.4176406338
 11
180.6877189471
 21
625.4176406338
  0
LINE
  5
307
100
AcDbEntity
  8
3_ALL_AXES
100
AcDbLine
 62
7
  6
CONTINUOUS
 10
202.2377189471
 20
548.2676406338
 11
201.9377189471
 21
548.1176406338
  0
LINE
  5
308
100
AcDbEntity
  8
3_ALL_AXES
100
AcDbLine
 62
7
  6
CONTINUOUS
 10
205.2377189471
 20
548.2676406338
 11
204.9377189471
 21
548.1176406338
  0
LINE
  5
309
100
AcDbEntity
  8
3_ALL_AXES
100
AcDbLine
 62
7
  6
CONTINUOUS
 10
208.2377189471
 20
548.2676406338
 11
207.9377189471
 21
548.1176406338
  0
LINE
  5
30A
100
AcDbEntity
  8
3_ALL_AXES
100
AcDbLine
 62
7
  6
CONTINUOUS
 10
211.2377189471
 20
548.2676406338
 11
210.9377189471
 21
548.1176406338
  0
LINE
  5
30B
100
AcDbEntity
  8
3_ALL_AXES
100
AcDbLine
 62
7
  6
CONTINUOUS
 10
214.2377189471
 20
548.2676406338
 11
213.9377189471
 21
548.1176406338
  0
LINE
  5
30C
100
AcDbEntity
  8
3_ALL_AXES
100
AcDbLine
 62
7
  6
CONTINUOUS
 10
217.2377189471
 20
548.2676406338
 11
216.9377189471
 21
548.1176406338
  0
LINE
  5
30D
100
AcDbEntity
  8
3_ALL_AXES
100
AcDbLine
 62
7
  6
CONTINUOUS
 10
410.4675843425
 20
553.8676887
 11
410.4675843425
 21
559.3675925677
  0
LINE
  5
30E
100
AcDbEntity
  8
3_ALL_AXES
100
AcDbLine
 62
7
  6
CONTINUOUS
 10
410.4675843425
 20
619.4676887
 11
410.4675843425
 21
624.9675925677
  0
LINE
  5
30F
100
AcDbEntity
  8
3_ALL_AXES
100
AcDbLine
 62
7
  6
CONTINUOUS
 10
410.6183046721
 20
553.8676406338
 11
410.6183046721
 21
559.3676406338
  0
LINE
  5
310
100
AcDbEntity
  8
3_ALL_AXES
100
AcDbLine
 62
7
  6
CONTINUOUS
 10
410.6183046721
 20
619.4676406338
 11
410.6183046721
 21
624.9676406338
  0
LINE
  5
311
100
AcDbEntity
  8
7_ALL_FEATURES
100
AcDbLine
 62
7
  6
CONTINUOUS
 10
411.4675843425
 20
545.6176406338
 11
411.4675843425
 21
625.4176406338
  0
LINE
  5
312
100
AcDbEntity
  8
6_ALL_SURFS
100
AcDbLine
 62
7
  6
CONTINUOUS
 10
412.9675843425
 20
545.6300736454
 11
412.9675843425
 21
545.6176406338
  0
LINE
  5
313
100
AcDbEntity
  8
7_ALL_FEATURES
100
AcDbLine
 62
7
  6
CONTINUOUS
 10
412.9675843425
 20
545.6300736454
 11
412.9675843425
 21
547.1176406338
  0
LINE
  5
314
100
AcDbEntity
  8
6_ALL_SURFS
100
AcDbLine
 62
7
  6
CONTINUOUS
 10
412.9675843425
 20
547.1176406338
 11
412.9675843425
 21
548.2676406338
  0
LINE
  5
315
100
AcDbEntity
  8
7_ALL_FEATURES
100
AcDbLine
 62
7
  6
CONTINUOUS
 10
412.9675843425
 20
548.2676406338
 11
412.9675843425
 21
624.6676406338
  0
LINE
  5
316
100
AcDbEntity
  8
6_ALL_SURFS
100
AcDbLine
 62
7
  6
CONTINUOUS
 10
412.9675843425
 20
555.7176406338
 11
412.9675843425
 21
557.5176406338
  0
LINE
  5
317
100
AcDbEntity
  8
6_ALL_SURFS
100
AcDbLine
 62
7
  6
CONTINUOUS
 10
412.9675843425
 20
562.0176406338
 11
412.9675843425
 21
614.1321606289
  0
LINE
  5
318
100
AcDbEntity
  8
6_ALL_SURFS
100
AcDbLine
 62
7
  6
CONTINUOUS
 10
412.9675843425
 20
624.4176406338
 11
412.9675843425
 21
625.4176406338
  0
LINE
  5
319
100
AcDbEntity
  8
3_ALL_AXES
100
AcDbLine
 62
7
  6
CONTINUOUS
 10
411.4675843425
 20
620.180270892
 11
410.6183046721
 21
619.4676406338
  0
LINE
  5
31A
100
AcDbEntity
  8
3_ALL_AXES
100
AcDbLine
 62
7
  6
CONTINUOUS
 10
411.4675843425
 20
558.6550103757
 11
410.6183046721
 21
559.3676406338
  0
LINE
  5
31B
100
AcDbEntity
  8
3_ALL_AXES
100
AcDbLine
 62
7
  6
CONTINUOUS
 10
411.4675843425
 20
554.580270892
 11
410.6183046721
 21
553.8676406338
  0
LINE
  5
31C
100
AcDbEntity
  8
3_ALL_AXES
100
AcDbLine
 62
7
  6
CONTINUOUS
 10
411.4675843425
 20
624.2550103757
 11
410.6183046721
 21
624.9676406338
  0
LINE
  5
31D
100
AcDbEntity
  8
7_ALL_FEATURES
100
AcDbLine
 62
7
  6
CONTINUOUS
 10
2100.4675843425
 20
545.6176406338
 11
2098.9675843425
 21
545.6176406338
  0
LINE
  5
31E
100
AcDbEntity
  8
6_ALL_SURFS
100
AcDbLine
 62
7
  6
CONTINUOUS
 10
2098.9675843425
 20
545.6176406338
 11
412.9675843425
 21
545.6176406338
  0
LINE
  5
31F
100
AcDbEntity
  8
7_ALL_FEATURES
100
AcDbLine
 62
7
  6
CONTINUOUS
 10
411.4675843425
 20
545.6176406338
 11
412.9675843425
 21
545.6176406338
  0
LINE
  5
320
100
AcDbEntity
  8
6_ALL_SURFS
100
AcDbLine
 62
9
  6
CONTINUOUS
 10
2098.9675843425
 20
545.9176406338
 11
412.9675843425
 21
545.9176406338
  0
LINE
  5
321
100
AcDbEntity
  8
7_ALL_FEATURES
100
AcDbLine
 62
9
  6
CONTINUOUS
 10
2100.4675843425
 20
546.3676406338
 11
2098.9675843425
 21
546.3676406338
  0
LINE
  5
322
100
AcDbEntity
  8
7_ALL_FEATURES
100
AcDbLine
 62
9
  6
CONTINUOUS
 10
411.4675843425
 20
546.3676406338
 11
412.9675843425
 21
546.3676406338
  0
LINE
  5
323
100
AcDbEntity
  8
6_ALL_SURFS
100
AcDbLine
 62
9
  6
CONTINUOUS
 10
412.9675843425
 20
546.8176406338
 11
2098.9675843425
 21
546.8176406338
  0
LINE
  5
324
100
AcDbEntity
  8
6_ALL_SURFS
100
AcDbLine
 62
7
  6
CONTINUOUS
 10
412.9675843425
 20
547.1176406338
 11
2098.9675843425
 21
547.1176406338
  0
LINE
  5
325
100
AcDbEntity
  8
6_ALL_SURFS
100
AcDbLine
 62
9
  6
CONTINUOUS
 10
2098.9675843425
 20
547.3321877929
 11
412.9675843425
 21
547.3321877929
  0
LINE
  5
326
100
AcDbEntity
  8
6_ALL_SURFS
100
AcDbLine
 62
7
  6
CONTINUOUS
 10
2098.9675843425
 20
548.1176406338
 11
412.9675843425
 21
548.1176406338
  0
LINE
  5
327
100
AcDbEntity
  8
6_ALL_SURFS
100
AcDbLine
 62
7
  6
CONTINUOUS
 10
412.9675843425
 20
548.2676406338
 11
2098.9675843425
 21
548.2676406338
  0
LINE
  5
328
100
AcDbEntity
  8
6_ALL_SURFS
100
AcDbLine
 62
9
  6
CONTINUOUS
 10
412.9675843425
 20
548.4176406338
 11
2098.9675843425
 21
548.4176406338
  0
LINE
  5
329
100
AcDbEntity
  8
6_ALL_SURFS
100
AcDbLine
 62
9
  6
CONTINUOUS
 10
2098.9675843425
 20
549.3301400848
 11
412.9675843425
 21
549.3301400848
  0
LINE
  5
32A
100
AcDbEntity
  8
6_ALL_SURFS
100
AcDbLine
 62
9
  6
CONTINUOUS
 10
2098.9675843425
 20
550.3531376249
 11
412.9675843425
 21
550.3531376249
  0
LINE
  5
32B
100
AcDbEntity
  8
6_ALL_SURFS
100
AcDbLine
 62
9
  6
CONTINUOUS
 10
412.9675843425
 20
552.8868311151
 11
2098.9675843425
 21
552.8868311151
  0
LINE
  5
32C
100
AcDbEntity
  8
6_ALL_SURFS
100
AcDbLine
 62
9
  6
CONTINUOUS
 10
412.9675843425
 20
553.2278302951
 11
2098.9675843425
 21
553.2278302951
  0
LINE
  5
32D
100
AcDbEntity
  8
6_ALL_SURFS
100
AcDbLine
 62
9
  6
CONTINUOUS
 10
412.9675843425
 20
553.4176406338
 11
2098.9675843425
 21
553.4176406338
  0
LINE
  5
32E
100
AcDbEntity
  8
6_ALL_SURFS
100
AcDbLine
 62
7
  6
CONTINUOUS
 10
2098.9675843425
 20
553.7176406338
 11
412.9675843425
 21
553.7176406338
  0
LINE
  5
32F
100
AcDbEntity
  8
3_ALL_AXES
100
AcDbLine
 62
7
  6
CONTINUOUS
 10
410.6183046721
 20
553.8676406338
 11
410.4675843425
 21
553.8676406338
  0
LINE
  5
330
100
AcDbEntity
  8
3_ALL_AXES
100
AcDbLine
 62
7
  6
CONTINUOUS
 10
2101.3168640128
 20
553.8676406338
 11
2101.4675843425
 21
553.8676406338
  0
LINE
  5
331
100
AcDbEntity
  8
6_ALL_SURFS
100
AcDbLine
 62
9
  6
CONTINUOUS
 10
2098.9675843425
 20
555.7176406338
 11
412.9675843425
 21
555.7176406338
  0
LINE
  5
332
100
AcDbEntity
  8
6_ALL_SURFS
100
AcDbLine
 62
9
  6
CONTINUOUS
 10
2098.9675843425
 20
557.5176406338
 11
412.9675843425
 21
557.5176406338
  0
LINE
  5
333
100
AcDbEntity
  8
3_ALL_AXES
100
AcDbLine
 62
7
  6
CONTINUOUS
 10
410.6183046721
 20
559.3676406338
 11
410.4675843425
 21
559.3676406338
  0
LINE
  5
334
100
AcDbEntity
  8
3_ALL_AXES
100
AcDbLine
 62
7
  6
CONTINUOUS
 10
2101.3168640128
 20
559.3676406338
 11
2101.4675843425
 21
559.3676406338
  0
LINE
  5
335
100
AcDbEntity
  8
6_ALL_SURFS
100
AcDbLine
 62
7
  6
CONTINUOUS
 10
2098.9675843425
 20
559.5176406338
 11
412.9675843425
 21
559.5176406338
  0
LINE
  5
336
100
AcDbEntity
  8
7_ALL_FEATURES
100
AcDbLine
 62
9
  6
CONTINUOUS
 10
2100.4675843425
 20
559.7676406338
 11
2098.9675843425
 21
559.7676406338
  0
LINE
  5
337
100
AcDbEntity
  8
7_ALL_FEATURES
100
AcDbLine
 62
9
  6
CONTINUOUS
 10
412.9675843425
 20
559.7676406338
 11
411.4675843425
 21
559.7676406338
  0
LINE
  5
338
100
AcDbEntity
  8
6_ALL_SURFS
100
AcDbLine
 62
9
  6
CONTINUOUS
 10
412.9675843425
 20
559.8176406338
 11
2098.9675843425
 21
559.8176406338
  0
LINE
  5
339
100
AcDbEntity
  8
7_ALL_FEATURES
100
AcDbLine
 62
7
  6
CONTINUOUS
 10
2100.4675843425
 20
560.5176406338
 11
2098.9675843425
 21
560.5176406338
  0
LINE
  5
33A
100
AcDbEntity
  8
7_ALL_FEATURES
100
AcDbLine
 62
7
  6
CONTINUOUS
 10
412.9675843425
 20
560.5176406338
 11
411.4675843425
 21
560.5176406338
  0
LINE
  5
33B
100
AcDbEntity
  8
7_ALL_FEATURES
100
AcDbLine
 62
9
  6
CONTINUOUS
 10
2100.4675843425
 20
562.0176406338
 11
2098.9675843425
 21
562.0176406338
  0
LINE
  5
33C
100
AcDbEntity
  8
7_ALL_FEATURES
100
AcDbLine
 62
9
  6
CONTINUOUS
 10
411.4675843425
 20
562.0176406338
 11
412.9675843425
 21
562.0176406338
  0
LINE
  5
33D
100
AcDbEntity
  8
6_ALL_SURFS
100
AcDbLine
 62
9
  6
CONTINUOUS
 10
2098.9675843425
 20
604.5631545631
 11
412.9675843425
 21
604.5631545631
  0
LINE
  5
33E
100
AcDbEntity
  8
7_ALL_FEATURES
100
AcDbLine
 62
7
  6
CONTINUOUS
 10
412.9675843425
 20
605.1107436215
 11
411.4675843425
 21
605.1107436215
  0
LINE
  5
33F
100
AcDbEntity
  8
7_ALL_FEATURES
100
AcDbLine
 62
7
  6
CONTINUOUS
 10
2098.9675843425
 20
605.1107436215
 11
2100.4675843425
 21
605.1107436215
  0
LINE
  5
340
100
AcDbEntity
  8
6_ALL_SURFS
100
AcDbLine
 62
9
  6
CONTINUOUS
 10
2098.9675843425
 20
605.6453526328
 11
412.9675843425
 21
605.6453526328
  0
LINE
  5
341
100
AcDbEntity
  8
7_ALL_FEATURES
100
AcDbLine
 62
7
  6
CONTINUOUS
 10
412.9675843425
 20
614.1321606289
 11
411.4675843425
 21
614.1321606289
  0
LINE
  5
342
100
AcDbEntity
  8
7_ALL_FEATURES
100
AcDbLine
 62
7
  6
CONTINUOUS
 10
2098.9675843425
 20
614.1321606289
 11
2100.4675843425
 21
614.1321606289
  0
LINE
  5
343
100
AcDbEntity
  8
6_ALL_SURFS
100
AcDbLine
 62
9
  6
CONTINUOUS
 10
2098.9675843425
 20
619.2976179187
 11
412.9675843425
 21
619.2976179187
  0
LINE
  5
344
100
AcDbEntity
  8
3_ALL_AXES
100
AcDbLine
 62
7
  6
CONTINUOUS
 10
410.6183046721
 20
619.4676406338
 11
410.4675843425
 21
619.4676406338
  0
LINE
  5
345
100
AcDbEntity
  8
3_ALL_AXES
100
AcDbLine
 62
7
  6
CONTINUOUS
 10
2101.3168640128
 20
619.4676406338
 11
2101.4675843425
 21
619.4676406338
  0
LINE
  5
346
100
AcDbEntity
  8
6_ALL_SURFS
100
AcDbLine
 62
9
  6
CONTINUOUS
 10
2098.9675843425
 20
619.9938416348
 11
412.9675843425
 21
619.9938416348
  0
LINE
  5
347
100
AcDbEntity
  8
6_ALL_SURFS
100
AcDbLine
 62
9
  6
CONTINUOUS
 10
412.9675843425
 20
620.4563503113
 11
2098.9675843425
 21
620.4563503113
  0
LINE
  5
348
100
AcDbEntity
  8
6_ALL_SURFS
100
AcDbLine
 62
9
  6
CONTINUOUS
 10
412.9675843425
 20
623.4821567629
 11
2098.9675843425
 21
623.4821567629
  0
LINE
  5
349
100
AcDbEntity
  8
6_ALL_SURFS
100
AcDbLine
 62
7
  6
CONTINUOUS
 10
2098.9675843425
 20
623.9176406338
 11
412.9675843425
 21
623.9176406338
  0
LINE
  5
34A
100
AcDbEntity
  8
6_ALL_SURFS
100
AcDbLine
 62
9
  6
CONTINUOUS
 10
2098.9675843425
 20
624.4176406338
 11
412.9675843425
 21
624.4176406338
  0
LINE
  5
34B
100
AcDbEntity
  8
7_ALL_FEATURES
100
AcDbLine
 62
9
  6
CONTINUOUS
 10
411.4675843425
 20
624.6676406338
 11
412.9675843425
 21
624.6676406338
  0
LINE
  5
34C
100
AcDbEntity
  8
7_ALL_FEATURES
100
AcDbLine
 62
9
  6
CONTINUOUS
 10
2098.9675843425
 20
624.6676406338
 11
2100.4675843425
 21
624.6676406338
  0
LINE
  5
34D
100
AcDbEntity
  8
3_ALL_AXES
100
AcDbLine
 62
7
  6
CONTINUOUS
 10
410.6183046721
 20
624.9676406338
 11
410.4675843425
 21
624.9676406338
  0
LINE
  5
34E
100
AcDbEntity
  8
3_ALL_AXES
100
AcDbLine
 62
7
  6
CONTINUOUS
 10
2101.3168640128
 20
624.9676406338
 11
2101.4675843425
 21
624.9676406338
  0
LINE
  5
34F
100
AcDbEntity
  8
6_ALL_SURFS
100
AcDbLine
 62
9
  6
CONTINUOUS
 10
412.9675843425
 20
625.1176406338
 11
2098.9675843425
 21
625.1176406338
  0
LINE
  5
350
100
AcDbEntity
  8
7_ALL_FEATURES
100
AcDbLine
 62
7
  6
CONTINUOUS
 10
411.4675843425
 20
625.4176406338
 11
412.9675843425
 21
625.4176406338
  0
LINE
  5
351
100
AcDbEntity
  8
6_ALL_SURFS
100
AcDbLine
 62
7
  6
CONTINUOUS
 10
412.9675843425
 20
625.4176406338
 11
2098.9675843425
 21
625.4176406338
  0
LINE
  5
352
100
AcDbEntity
  8
7_ALL_FEATURES
100
AcDbLine
 62
7
  6
CONTINUOUS
 10
2098.9675843425
 20
625.4176406338
 11
2100.4675843425
 21
625.4176406338
  0
LINE
  5
353
100
AcDbEntity
  8
3_ALL_AXES
100
AcDbLine
 62
7
  6
CONTINUOUS
 10
2100.4675843425
 20
624.2550103757
 11
2101.3168640128
 21
624.9676406338
  0
LINE
  5
354
100
AcDbEntity
  8
3_ALL_AXES
100
AcDbLine
 62
7
  6
CONTINUOUS
 10
2100.4675843425
 20
558.6550103757
 11
2101.3168640128
 21
559.3676406338
  0
LINE
  5
355
100
AcDbEntity
  8
3_ALL_AXES
100
AcDbLine
 62
7
  6
CONTINUOUS
 10
2100.4675843425
 20
554.580270892
 11
2101.3168640128
 21
553.8676406338
  0
LINE
  5
356
100
AcDbEntity
  8
3_ALL_AXES
100
AcDbLine
 62
7
  6
CONTINUOUS
 10
2100.4675843425
 20
620.180270892
 11
2101.3168640128
 21
619.4676406338
  0
LINE
  5
357
100
AcDbEntity
  8
6_ALL_SURFS
100
AcDbLine
 62
7
  6
CONTINUOUS
 10
2098.9675843425
 20
545.6176406338
 11
2098.9675843425
 21
545.6300736454
  0
LINE
  5
358
100
AcDbEntity
  8
7_ALL_FEATURES
100
AcDbLine
 62
7
  6
CONTINUOUS
 10
2098.9675843425
 20
545.6300736454
 11
2098.9675843425
 21
547.1176406338
  0
LINE
  5
359
100
AcDbEntity
  8
6_ALL_SURFS
100
AcDbLine
 62
7
  6
CONTINUOUS
 10
2098.9675843425
 20
547.1176406338
 11
2098.9675843425
 21
548.2676406338
  0
LINE
  5
35A
100
AcDbEntity
  8
6_ALL_SURFS
100
AcDbLine
 62
7
  6
CONTINUOUS
 10
2098.9675843425
 20
555.7176406338
 11
2098.9675843425
 21
557.5176406338
  0
LINE
  5
35B
100
AcDbEntity
  8
7_ALL_FEATURES
100
AcDbLine
 62
7
  6
CONTINUOUS
 10
2098.9675843425
 20
548.2676406338
 11
2098.9675843425
 21
624.6676406338
  0
LINE
  5
35C
100
AcDbEntity
  8
6_ALL_SURFS
100
AcDbLine
 62
7
  6
CONTINUOUS
 10
2098.9675843425
 20
562.0176406338
 11
2098.9675843425
 21
614.1321606289
  0
LINE
  5
35D
100
AcDbEntity
  8
6_ALL_SURFS
100
AcDbLine
 62
7
  6
CONTINUOUS
 10
2098.9675843425
 20
624.4176406338
 11
2098.9675843425
 21
625.4176406338
  0
LINE
  5
35E
100
AcDbEntity
  8
7_ALL_FEATURES
100
AcDbLine
 62
7
  6
CONTINUOUS
 10
2100.4675843425
 20
545.6176406338
 11
2100.4675843425
 21
625.4176406338
  0
LINE
  5
35F
100
AcDbEntity
  8
3_ALL_AXES
100
AcDbLine
 62
7
  6
CONTINUOUS
 10
2101.3168640128
 20
553.8676406338
 11
2101.3168640128
 21
559.3676406338
  0
LINE
  5
360
100
AcDbEntity
  8
3_ALL_AXES
100
AcDbLine
 62
7
  6
CONTINUOUS
 10
2101.3168640128
 20
619.4676406338
 11
2101.3168640128
 21
624.9676406338
  0
LINE
  5
361
100
AcDbEntity
  8
3_ALL_AXES
100
AcDbLine
 62
7
  6
CONTINUOUS
 10
2101.4675843425
 20
553.8676887
 11
2101.4675843425
 21
559.3675925677
  0
LINE
  5
362
100
AcDbEntity
  8
3_ALL_AXES
100
AcDbLine
 62
7
  6
CONTINUOUS
 10
2101.4675843425
 20
619.4676887
 11
2101.4675843425
 21
624.9675925677
  0
LINE
  5
363
100
AcDbEntity
  8
3_ALL_AXES
100
AcDbLine
 62
7
  6
CONTINUOUS
 10
410.4675843425
 20
863.536271324
 11
410.4675843425
 21
858.036271324
  0
LINE
  5
364
100
AcDbEntity
  8
3_ALL_AXES
100
AcDbLine
 62
7
  6
CONTINUOUS
 10
410.4675843425
 20
857.236271324
 11
410.4675843425
 21
851.736271324
  0
LINE
  5
365
100
AcDbEntity
  8
3_ALL_AXES
100
AcDbLine
 62
7
  6
CONTINUOUS
 10
410.4675843425
 20
833.236271324
 11
410.4675843425
 21
827.736271324
  0
LINE
  5
366
100
AcDbEntity
  8
3_ALL_AXES
100
AcDbLine
 62
7
  6
CONTINUOUS
 10
410.4675843425
 20
826.936271324
 11
410.4675843425
 21
821.436271324
  0
LINE
  5
367
100
AcDbEntity
  8
3_ALL_AXES
100
AcDbLine
 62
7
  6
CONTINUOUS
 10
410.6183046721
 20
863.536271324
 11
410.6183046721
 21
858.036271324
  0
LINE
  5
368
100
AcDbEntity
  8
3_ALL_AXES
100
AcDbLine
 62
7
  6
CONTINUOUS
 10
410.6183046721
 20
857.236271324
 11
410.6183046721
 21
851.736271324
  0
LINE
  5
369
100
AcDbEntity
  8
3_ALL_AXES
100
AcDbLine
 62
7
  6
CONTINUOUS
 10
410.6183046721
 20
833.236271324
 11
410.6183046721
 21
827.736271324
  0
LINE
  5
36A
100
AcDbEntity
  8
3_ALL_AXES
100
AcDbLine
 62
7
  6
CONTINUOUS
 10
410.6183046721
 20
826.936271324
 11
410.6183046721
 21
821.436271324
  0
LINE
  5
36B
100
AcDbEntity
  8
7_ALL_FEATURES
100
AcDbLine
 62
7
  6
CONTINUOUS
 10
411.4675843425
 20
821.286271324
 11
411.4675843425
 21
863.686271324
  0
LINE
  5
36C
100
AcDbEntity
  8
7_ALL_FEATURES
100
AcDbLine
 62
7
  6
CONTINUOUS
 10
412.9675843425
 20
863.686271324
 11
412.9675843425
 21
863.069254283
  0
LINE
  5
36D
100
AcDbEntity
  8
7_ALL_FEATURES
100
AcDbLine
 62
7
  6
CONTINUOUS
 10
412.9675843425
 20
821.903288365
 11
412.9675843425
 21
819.436271324
  0
LINE
  5
36E
100
AcDbEntity
  8
3_ALL_AXES
100
AcDbLine
 62
7
  6
CONTINUOUS
 10
412.9675843425
 20
819.436271324
 11
412.9675843425
 21
803.936271324
  0
LINE
  5
36F
100
AcDbEntity
  8
7_ALL_FEATURES
100
AcDbLine
 62
7
  6
CONTINUOUS
 10
412.9675843425
 20
801.4362898213
 11
412.9675843425
 21
803.936271324
  0
LINE
  5
370
100
AcDbEntity
  8
7_ALL_FEATURES
100
AcDbLine
 62
7
  6
CONTINUOUS
 10
412.9675843425
 20
821.9086256105
 11
412.9675843425
 21
862.986271324
  0
LINE
  5
371
100
AcDbEntity
  8
6_ALL_SURFS
100
AcDbLine
 62
7
  6
CONTINUOUS
 10
412.9675843425
 20
862.036271324
 11
412.9675843425
 21
863.0639170375
  0
LINE
  5
372
100
AcDbEntity
  8
6_ALL_SURFS
100
AcDbLine
 62
7
  6
CONTINUOUS
 10
412.9675843425
 20
863.686271324
 11
412.9675843425
 21
883.5362528267
  0
LINE
  5
373
100
AcDbEntity
  8
7_ALL_FEATURES
100
AcDbLine
 62
7
  6
CONTINUOUS
 10
413.9675843425
 20
861.836271324
 11
413.9675843425
 21
823.136271324
  0
LINE
  5
374
100
AcDbEntity
  8
3_ALL_AXES
100
AcDbLine
 62
7
  6
CONTINUOUS
 10
410.6183046721
 20
858.036271324
 11
411.4675843425
 21
858.7489015822
  0
LINE
  5
375
100
AcDbEntity
  8
3_ALL_AXES
100
AcDbLine
 62
7
  6
CONTINUOUS
 10
410.6183046721
 20
851.736271324
 11
411.4675843425
 21
852.4489015822
  0
LINE
  5
376
100
AcDbEntity
  8
3_ALL_AXES
100
AcDbLine
 62
7
  6
CONTINUOUS
 10
410.6183046721
 20
827.736271324
 11
411.4675843425
 21
828.4489015822
  0
LINE
  5
377
100
AcDbEntity
  8
3_ALL_AXES
100
AcDbLine
 62
7
  6
CONTINUOUS
 10
410.6183046721
 20
821.436271324
 11
411.4675843425
 21
822.1489015822
  0
LINE
  5
378
100
AcDbEntity
  8
3_ALL_AXES
100
AcDbLine
 62
7
  6
CONTINUOUS
 10
410.6183046721
 20
826.936271324
 11
411.4675843425
 21
826.2236410658
  0
LINE
  5
379
100
AcDbEntity
  8
3_ALL_AXES
100
AcDbLine
 62
7
  6
CONTINUOUS
 10
410.6183046721
 20
833.236271324
 11
411.4675843425
 21
832.5236410658
  0
LINE
  5
37A
100
AcDbEntity
  8
3_ALL_AXES
100
AcDbLine
 62
7
  6
CONTINUOUS
 10
410.6183046721
 20
857.236271324
 11
411.4675843425
 21
856.5236410658
  0
LINE
  5
37B
100
AcDbEntity
  8
3_ALL_AXES
100
AcDbLine
 62
7
  6
CONTINUOUS
 10
410.6183046721
 20
863.536271324
 11
411.4675843425
 21
862.8236410658
  0
LINE
  5
37C
100
AcDbEntity
  8
7_ALL_FEATURES
100
AcDbLine
 62
7
  6
CONTINUOUS
 10
2098.9675843425
 20
801.436271324
 11
412.9675843425
 21
801.436271324
  0
LINE
  5
37D
100
AcDbEntity
  8
7_ALL_FEATURES
100
AcDbLine
 62
9
  6
CONTINUOUS
 10
2098.9675843425
 20
801.7907997336
 11
412.9675843425
 21
801.7907997336
  0
LINE
  5
37E
100
AcDbEntity
  8
7_ALL_FEATURES
100
AcDbLine
 62
7
  6
CONTINUOUS
 10
412.9675843425
 20
803.936271324
 11
502.6841765488
 21
803.936271324
  0
LINE
  5
37F
100
AcDbEntity
  8
7_ALL_FEATURES
100
AcDbLine
 62
7
  6
CONTINUOUS
 10
509.2509921362
 20
803.936271324
 11
752.6841765488
 21
803.936271324
  0
LINE
  5
380
100
AcDbEntity
  8
7_ALL_FEATURES
100
AcDbLine
 62
7
  6
CONTINUOUS
 10
759.2509921362
 20
803.936271324
 11
1002.6841765488
 21
803.936271324
  0
LINE
  5
381
100
AcDbEntity
  8
7_ALL_FEATURES
100
AcDbLine
 62
7
  6
CONTINUOUS
 10
1009.2509921362
 20
803.936271324
 11
1252.6841765488
 21
803.936271324
  0
LINE
  5
382
100
AcDbEntity
  8
7_ALL_FEATURES
100
AcDbLine
 62
7
  6
CONTINUOUS
 10
1259.2509921362
 20
803.936271324
 11
1502.6841765488
 21
803.936271324
  0
LINE
  5
383
100
AcDbEntity
  8
7_ALL_FEATURES
100
AcDbLine
 62
7
  6
CONTINUOUS
 10
1509.2509921362
 20
803.936271324
 11
1752.6841765488
 21
803.936271324
  0
LINE
  5
384
100
AcDbEntity
  8
7_ALL_FEATURES
100
AcDbLine
 62
7
  6
CONTINUOUS
 10
1759.2509921362
 20
803.936271324
 11
2002.6841765488
 21
803.936271324
  0
LINE
  5
385
100
AcDbEntity
  8
7_ALL_FEATURES
100
AcDbLine
 62
7
  6
CONTINUOUS
 10
2009.2509921362
 20
803.936271324
 11
2098.9675843425
 21
803.936271324
  0
LINE
  5
386
100
AcDbEntity
  8
7_ALL_FEATURES
100
AcDbLine
 62
7
  6
CONTINUOUS
 10
412.9675843425
 20
806.836271324
 11
501.2062014824
 21
806.836271324
  0
LINE
  5
387
100
AcDbEntity
  8
7_ALL_FEATURES
100
AcDbLine
 62
7
  6
CONTINUOUS
 10
510.7289672025
 20
806.836271324
 11
751.2062014824
 21
806.836271324
  0
LINE
  5
388
100
AcDbEntity
  8
7_ALL_FEATURES
100
AcDbLine
 62
7
  6
CONTINUOUS
 10
760.7289672025
 20
806.836271324
 11
1001.2062014824
 21
806.836271324
  0
LINE
  5
389
100
AcDbEntity
  8
7_ALL_FEATURES
100
AcDbLine
 62
7
  6
CONTINUOUS
 10
1010.7289672025
 20
806.836271324
 11
1251.2062014824
 21
806.836271324
  0
LINE
  5
38A
100
AcDbEntity
  8
7_ALL_FEATURES
100
AcDbLine
 62
7
  6
CONTINUOUS
 10
1260.7289672025
 20
806.836271324
 11
1501.2062014824
 21
806.836271324
  0
LINE
  5
38B
100
AcDbEntity
  8
7_ALL_FEATURES
100
AcDbLine
 62
7
  6
CONTINUOUS
 10
1510.7289672025
 20
806.836271324
 11
1751.2062014824
 21
806.836271324
  0
LINE
  5
38C
100
AcDbEntity
  8
7_ALL_FEATURES
100
AcDbLine
 62
7
  6
CONTINUOUS
 10
1760.7289672025
 20
806.836271324
 11
2001.2062014824
 21
806.836271324
  0
LINE
  5
38D
100
AcDbEntity
  8
7_ALL_FEATURES
100
AcDbLine
 62
7
  6
CONTINUOUS
 10
2010.7289672025
 20
806.836271324
 11
2098.9675843425
 21
806.836271324
  0
LINE
  5
38E
100
AcDbEntity
  8
7_ALL_FEATURES
100
AcDbLine
 62
7
  6
CONTINUOUS
 10
412.9675843425
 20
807.436271324
 11
501.1685462368
 21
807.436271324
  0
LINE
  5
38F
100
AcDbEntity
  8
7_ALL_FEATURES
100
AcDbLine
 62
7
  6
CONTINUOUS
 10
510.7666224481
 20
807.436271324
 11
751.1685462368
 21
807.436271324
  0
LINE
  5
390
100
AcDbEntity
  8
7_ALL_FEATURES
100
AcDbLine
 62
7
  6
CONTINUOUS
 10
760.7666224481
 20
807.436271324
 11
1001.1685462368
 21
807.436271324
  0
LINE
  5
391
100
AcDbEntity
  8
7_ALL_FEATURES
100
AcDbLine
 62
7
  6
CONTINUOUS
 10
1010.7666224481
 20
807.436271324
 11
1251.1685462368
 21
807.436271324
  0
LINE
  5
392
100
AcDbEntity
  8
7_ALL_FEATURES
100
AcDbLine
 62
7
  6
CONTINUOUS
 10
1260.7666224481
 20
807.436271324
 11
1501.1685462368
 21
807.436271324
  0
LINE
  5
393
100
AcDbEntity
  8
7_ALL_FEATURES
100
AcDbLine
 62
7
  6
CONTINUOUS
 10
1510.7666224481
 20
807.436271324
 11
1751.1685462368
 21
807.436271324
  0
LINE
  5
394
100
AcDbEntity
  8
7_ALL_FEATURES
100
AcDbLine
 62
7
  6
CONTINUOUS
 10
1760.7666224481
 20
807.436271324
 11
2001.1685462368
 21
807.436271324
  0
LINE
  5
395
100
AcDbEntity
  8
7_ALL_FEATURES
100
AcDbLine
 62
7
  6
CONTINUOUS
 10
2010.7666224481
 20
807.436271324
 11
2098.9675843425
 21
807.436271324
  0
LINE
  5
396
100
AcDbEntity
  8
7_ALL_FEATURES
100
AcDbLine
 62
7
  6
CONTINUOUS
 10
412.9675843425
 20
809.836271324
 11
501.8117731413
 21
809.836271324
  0
LINE
  5
397
100
AcDbEntity
  8
7_ALL_FEATURES
100
AcDbLine
 62
7
  6
CONTINUOUS
 10
510.1233955436
 20
809.836271324
 11
751.8117731413
 21
809.836271324
  0
LINE
  5
398
100
AcDbEntity
  8
7_ALL_FEATURES
100
AcDbLine
 62
7
  6
CONTINUOUS
 10
760.1233955436
 20
809.836271324
 11
1001.8117731413
 21
809.836271324
  0
LINE
  5
399
100
AcDbEntity
  8
7_ALL_FEATURES
100
AcDbLine
 62
7
  6
CONTINUOUS
 10
1010.1233955436
 20
809.836271324
 11
1251.8117731413
 21
809.836271324
  0
LINE
  5
39A
100
AcDbEntity
  8
7_ALL_FEATURES
100
AcDbLine
 62
7
  6
CONTINUOUS
 10
1260.1233955436
 20
809.836271324
 11
1501.8117731413
 21
809.836271324
  0
LINE
  5
39B
100
AcDbEntity
  8
7_ALL_FEATURES
100
AcDbLine
 62
7
  6
CONTINUOUS
 10
1510.1233955436
 20
809.836271324
 11
1751.8117731413
 21
809.836271324
  0
LINE
  5
39C
100
AcDbEntity
  8
7_ALL_FEATURES
100
AcDbLine
 62
7
  6
CONTINUOUS
 10
1760.1233955436
 20
809.836271324
 11
2001.8117731413
 21
809.836271324
  0
LINE
  5
39D
100
AcDbEntity
  8
7_ALL_FEATURES
100
AcDbLine
 62
7
  6
CONTINUOUS
 10
2010.1233955436
 20
809.836271324
 11
2098.9675843425
 21
809.836271324
  0
LINE
  5
39E
100
AcDbEntity
  8
7_ALL_FEATURES
100
AcDbLine
 62
7
  6
CONTINUOUS
 10
412.9675843425
 20
810.436271324
 11
502.2218178335
 21
810.436271324
  0
LINE
  5
39F
100
AcDbEntity
  8
7_ALL_FEATURES
100
AcDbLine
 62
7
  6
CONTINUOUS
 10
509.7133508514
 20
810.436271324
 11
752.2218178335
 21
810.436271324
  0
LINE
  5
3A0
100
AcDbEntity
  8
7_ALL_FEATURES
100
AcDbLine
 62
7
  6
CONTINUOUS
 10
759.7133508514
 20
810.436271324
 11
1002.2218178335
 21
810.436271324
  0
LINE
  5
3A1
100
AcDbEntity
  8
7_ALL_FEATURES
100
AcDbLine
 62
7
  6
CONTINUOUS
 10
1009.7133508514
 20
810.436271324
 11
1252.2218178335
 21
810.436271324
  0
LINE
  5
3A2
100
AcDbEntity
  8
7_ALL_FEATURES
100
AcDbLine
 62
7
  6
CONTINUOUS
 10
1259.7133508514
 20
810.436271324
 11
1502.2218178335
 21
810.436271324
  0
LINE
  5
3A3
100
AcDbEntity
  8
7_ALL_FEATURES
100
AcDbLine
 62
7
  6
CONTINUOUS
 10
1509.7133508514
 20
810.436271324
 11
1752.2218178335
 21
810.436271324
  0
LINE
  5
3A4
100
AcDbEntity
  8
7_ALL_FEATURES
100
AcDbLine
 62
7
  6
CONTINUOUS
 10
1759.7133508514
 20
810.436271324
 11
2002.2218178335
 21
810.436271324
  0
LINE
  5
3A5
100
AcDbEntity
  8
7_ALL_FEATURES
100
AcDbLine
 62
7
  6
CONTINUOUS
 10
2009.7133508514
 20
810.436271324
 11
2098.9675843425
 21
810.436271324
  0
LINE
  5
3A6
100
AcDbEntity
  8
3_ALL_AXES
100
AcDbLine
 62
7
  6
CONTINUOUS
 10
412.9675843425
 20
812.836271324
 11
2098.9675843425
 21
812.836271324
  0
LINE
  5
3A7
100
AcDbEntity
  8
3_ALL_AXES
100
AcDbLine
 62
7
  6
CONTINUOUS
 10
412.9675843425
 20
813.436271324
 11
2098.9675843425
 21
813.436271324
  0
LINE
  5
3A8
100
AcDbEntity
  8
3_ALL_AXES
100
AcDbLine
 62
7
  6
CONTINUOUS
 10
412.9675843425
 20
815.836271324
 11
2098.9675843425
 21
815.836271324
  0
LINE
  5
3A9
100
AcDbEntity
  8
3_ALL_AXES
100
AcDbLine
 62
7
  6
CONTINUOUS
 10
412.9675843425
 20
816.436271324
 11
2098.9675843425
 21
816.436271324
  0
LINE
  5
3AA
100
AcDbEntity
  8
3_ALL_AXES
100
AcDbLine
 62
7
  6
CONTINUOUS
 10
412.9675843425
 20
818.836271324
 11
2098.9675843425
 21
818.836271324
  0
LINE
  5
3AB
100
AcDbEntity
  8
3_ALL_AXES
100
AcDbLine
 62
7
  6
CONTINUOUS
 10
412.9675843425
 20
819.436271324
 11
2098.9675843425
 21
819.436271324
  0
LINE
  5
3AC
100
AcDbEntity
  8
7_ALL_FEATURES
100
AcDbLine
 62
7
  6
CONTINUOUS
 10
2100.4675843425
 20
821.286271324
 11
2098.9675843425
 21
821.286271324
  0
LINE
  5
3AD
100
AcDbEntity
  8
7_ALL_FEATURES
100
AcDbLine
 62
7
  6
CONTINUOUS
 10
411.4675843425
 20
821.286271324
 11
412.9675843425
 21
821.286271324
  0
LINE
  5
3AE
100
AcDbEntity
  8
7_ALL_FEATURES
100
AcDbLine
 62
9
  6
CONTINUOUS
 10
412.9675843425
 20
821.386271324
 11
2098.9675843425
 21
821.386271324
  0
LINE
  5
3AF
100
AcDbEntity
  8
3_ALL_AXES
100
AcDbLine
 62
7
  6
CONTINUOUS
 10
2101.4675843425
 20
821.436271324
 11
2101.3168640128
 21
821.436271324
  0
LINE
  5
3B0
100
AcDbEntity
  8
3_ALL_AXES
100
AcDbLine
 62
7
  6
CONTINUOUS
 10
410.4675843425
 20
821.436271324
 11
410.6183046721
 21
821.436271324
  0
LINE
  5
3B1
100
AcDbEntity
  8
7_ALL_FEATURES
100
AcDbLine
 62
7
  6
CONTINUOUS
 10
2098.9675843425
 20
821.686271324
 11
412.9675843425
 21
821.686271324
  0
LINE
  5
3B2
100
AcDbEntity
  8
7_ALL_FEATURES
100
AcDbLine
 62
9
  6
CONTINUOUS
 10
2098.9675843425
 20
821.986271324
 11
412.9675843425
 21
821.986271324
  0
LINE
  5
3B3
100
AcDbEntity
  8
7_ALL_FEATURES
100
AcDbLine
 62
9
  6
CONTINUOUS
 10
2100.4675843425
 20
822.036271324
 11
2098.9675843425
 21
822.036271324
  0
LINE
  5
3B4
100
AcDbEntity
  8
7_ALL_FEATURES
100
AcDbLine
 62
9
  6
CONTINUOUS
 10
411.4675843425
 20
822.036271324
 11
412.9675843425
 21
822.036271324
  0
LINE
  5
3B5
100
AcDbEntity
  8
7_ALL_FEATURES
100
AcDbLine
 62
9
  6
CONTINUOUS
 10
2098.9675843425
 20
822.636271324
 11
412.9675843425
 21
822.636271324
  0
LINE
  5
3B6
100
AcDbEntity
  8
7_ALL_FEATURES
100
AcDbLine
 62
7
  6
CONTINUOUS
 10
2098.9675843425
 20
822.936271324
 11
412.9675843425
 21
822.936271324
  0
LINE
  5
3B7
100
AcDbEntity
  8
7_ALL_FEATURES
100
AcDbLine
 62
7
  6
CONTINUOUS
 10
413.9675843425
 20
823.136271324
 11
2097.9675843425
 21
823.136271324
  0
LINE
  5
3B8
100
AcDbEntity
  8
7_ALL_FEATURES
100
AcDbLine
 62
9
  6
CONTINUOUS
 10
412.9675843425
 20
823.236271324
 11
413.9675843425
 21
823.236271324
  0
LINE
  5
3B9
100
AcDbEntity
  8
7_ALL_FEATURES
100
AcDbLine
 62
9
  6
CONTINUOUS
 10
2097.9675843425
 20
823.236271324
 11
2098.9675843425
 21
823.236271324
  0
LINE
  5
3BA
100
AcDbEntity
  8
7_ALL_FEATURES
100
AcDbLine
 62
9
  6
CONTINUOUS
 10
413.9675843425
 20
823.336271324
 11
2097.9675843425
 21
823.336271324
  0
LINE
  5
3BB
100
AcDbEntity
  8
7_ALL_FEATURES
100
AcDbLine
 62
9
  6
CONTINUOUS
 10
2098.9675843425
 20
823.886271324
 11
2097.9675843425
 21
823.886271324
  0
LINE
  5
3BC
100
AcDbEntity
  8
7_ALL_FEATURES
100
AcDbLine
 62
9
  6
CONTINUOUS
 10
413.9675843425
 20
823.886271324
 11
412.9675843425
 21
823.886271324
  0
LINE
  5
3BD
100
AcDbEntity
  8
7_ALL_FEATURES
100
AcDbLine
 62
7
  6
CONTINUOUS
 10
2098.9675843425
 20
824.186271324
 11
2097.9675843425
 21
824.186271324
  0
LINE
  5
3BE
100
AcDbEntity
  8
7_ALL_FEATURES
100
AcDbLine
 62
7
  6
CONTINUOUS
 10
413.9675843425
 20
824.186271324
 11
412.9675843425
 21
824.186271324
  0
LINE
  5
3BF
100
AcDbEntity
  8
7_ALL_FEATURES
100
AcDbLine
 62
9
  6
CONTINUOUS
 10
412.9675843425
 20
824.747308926
 11
413.9675843425
 21
824.747308926
  0
LINE
  5
3C0
100
AcDbEntity
  8
7_ALL_FEATURES
100
AcDbLine
 62
9
  6
CONTINUOUS
 10
2097.9675843425
 20
824.747308926
 11
2098.9675843425
 21
824.747308926
  0
LINE
  5
3C1
100
AcDbEntity
  8
7_ALL_FEATURES
100
AcDbLine
 62
9
  6
CONTINUOUS
 10
412.9675843425
 20
824.9667150365
 11
413.9675843425
 21
824.9667150365
  0
LINE
  5
3C2
100
AcDbEntity
  8
7_ALL_FEATURES
100
AcDbLine
 62
9
  6
CONTINUOUS
 10
2097.9675843425
 20
824.9667150365
 11
2098.9675843425
 21
824.9667150365
  0
LINE
  5
3C3
100
AcDbEntity
  8
7_ALL_FEATURES
100
AcDbLine
 62
9
  6
CONTINUOUS
 10
2098.9675843425
 20
825.786271324
 11
2097.9675843425
 21
825.786271324
  0
LINE
  5
3C4
100
AcDbEntity
  8
7_ALL_FEATURES
100
AcDbLine
 62
9
  6
CONTINUOUS
 10
413.9675843425
 20
825.786271324
 11
412.9675843425
 21
825.786271324
  0
LINE
  5
3C5
100
AcDbEntity
  8
7_ALL_FEATURES
100
AcDbLine
 62
7
  6
CONTINUOUS
 10
2098.9675843425
 20
826.086271324
 11
2097.9675843425
 21
826.086271324
  0
LINE
  5
3C6
100
AcDbEntity
  8
7_ALL_FEATURES
100
AcDbLine
 62
7
  6
CONTINUOUS
 10
413.9675843425
 20
826.086271324
 11
412.9675843425
 21
826.086271324
  0
LINE
  5
3C7
100
AcDbEntity
  8
7_ALL_FEATURES
100
AcDbLine
 62
9
  6
CONTINUOUS
 10
412.9675843425
 20
826.1465787032
 11
413.9675843425
 21
826.1465787032
  0
LINE
  5
3C8
100
AcDbEntity
  8
7_ALL_FEATURES
100
AcDbLine
 62
9
  6
CONTINUOUS
 10
2097.9675843425
 20
826.1465787032
 11
2098.9675843425
 21
826.1465787032
  0
LINE
  5
3C9
100
AcDbEntity
  8
7_ALL_FEATURES
100
AcDbLine
 62
9
  6
CONTINUOUS
 10
2098.9675843425
 20
826.5016349099
 11
2097.9675843425
 21
826.5016349099
  0
LINE
  5
3CA
100
AcDbEntity
  8
7_ALL_FEATURES
100
AcDbLine
 62
9
  6
CONTINUOUS
 10
413.9675843425
 20
826.5016349099
 11
412.9675843425
 21
826.5016349099
  0
LINE
  5
3CB
100
AcDbEntity
  8
7_ALL_FEATURES
100
AcDbLine
 62
7
  6
CONTINUOUS
 10
2098.9675843425
 20
826.5197271237
 11
2097.9675843425
 21
826.5197271237
  0
LINE
  5
3CC
100
AcDbEntity
  8
7_ALL_FEATURES
100
AcDbLine
 62
7
  6
CONTINUOUS
 10
413.9675843425
 20
826.5197271237
 11
412.9675843425
 21
826.5197271237
  0
LINE
  5
3CD
100
AcDbEntity
  8
3_ALL_AXES
100
AcDbLine
 62
7
  6
CONTINUOUS
 10
2101.4675843425
 20
826.936271324
 11
2101.3168640128
 21
826.936271324
  0
LINE
  5
3CE
100
AcDbEntity
  8
3_ALL_AXES
100
AcDbLine
 62
7
  6
CONTINUOUS
 10
410.4675843425
 20
826.936271324
 11
410.6183046721
 21
826.936271324
  0
LINE
  5
3CF
100
AcDbEntity
  8
3_ALL_AXES
100
AcDbLine
 62
7
  6
CONTINUOUS
 10
2101.4675843425
 20
827.736271324
 11
2101.3168640128
 21
827.736271324
  0
LINE
  5
3D0
100
AcDbEntity
  8
3_ALL_AXES
100
AcDbLine
 62
7
  6
CONTINUOUS
 10
410.4675843425
 20
827.736271324
 11
410.6183046721
 21
827.736271324
  0
LINE
  5
3D1
100
AcDbEntity
  8
7_ALL_FEATURES
100
AcDbLine
 62
9
  6
CONTINUOUS
 10
412.9675843425
 20
828.9125601686
 11
413.9675843425
 21
828.9125601686
  0
LINE
  5
3D2
100
AcDbEntity
  8
7_ALL_FEATURES
100
AcDbLine
 62
9
  6
CONTINUOUS
 10
2097.9675843425
 20
828.9125601686
 11
2098.9675843425
 21
828.9125601686
  0
LINE
  5
3D3
100
AcDbEntity
  8
7_ALL_FEATURES
100
AcDbLine
 62
9
  6
CONTINUOUS
 10
412.9675843425
 20
829.8888561757
 11
413.9675843425
 21
829.8888561757
  0
LINE
  5
3D4
100
AcDbEntity
  8
7_ALL_FEATURES
100
AcDbLine
 62
9
  6
CONTINUOUS
 10
2097.9675843425
 20
829.8888561757
 11
2098.9675843425
 21
829.8888561757
  0
LINE
  5
3D5
100
AcDbEntity
  8
3_ALL_AXES
100
AcDbLine
 62
7
  6
CONTINUOUS
 10
2101.4675843425
 20
833.236271324
 11
2101.3168640128
 21
833.236271324
  0
LINE
  5
3D6
100
AcDbEntity
  8
3_ALL_AXES
100
AcDbLine
 62
7
  6
CONTINUOUS
 10
410.4675843425
 20
833.236271324
 11
410.6183046721
 21
833.236271324
  0
LINE
  5
3D7
100
AcDbEntity
  8
7_ALL_FEATURES
100
AcDbLine
 62
9
  6
CONTINUOUS
 10
2098.9675843425
 20
840.486271324
 11
2097.9675843425
 21
840.486271324
  0
LINE
  5
3D8
100
AcDbEntity
  8
7_ALL_FEATURES
100
AcDbLine
 62
9
  6
CONTINUOUS
 10
413.9675843425
 20
840.486271324
 11
412.9675843425
 21
840.486271324
  0
LINE
  5
3D9
100
AcDbEntity
  8
7_ALL_FEATURES
100
AcDbLine
 62
7
  6
CONTINUOUS
 10
2098.9675843425
 20
840.786271324
 11
2097.9675843425
 21
840.786271324
  0
LINE
  5
3DA
100
AcDbEntity
  8
7_ALL_FEATURES
100
AcDbLine
 62
7
  6
CONTINUOUS
 10
413.9675843425
 20
840.786271324
 11
412.9675843425
 21
840.786271324
  0
LINE
  5
3DB
100
AcDbEntity
  8
7_ALL_FEATURES
100
AcDbLine
 62
9
  6
CONTINUOUS
 10
412.9675843425
 20
841.086271324
 11
413.9675843425
 21
841.086271324
  0
LINE
  5
3DC
100
AcDbEntity
  8
7_ALL_FEATURES
100
AcDbLine
 62
9
  6
CONTINUOUS
 10
2097.9675843425
 20
841.086271324
 11
2098.9675843425
 21
841.086271324
  0
LINE
  5
3DD
100
AcDbEntity
  8
6_ALL_SURFS
100
AcDbLine
 62
9
  6
CONTINUOUS
 10
412.9675843425
 20
843.886271324
 11
413.9675843425
 21
843.886271324
  0
LINE
  5
3DE
100
AcDbEntity
  8
6_ALL_SURFS
100
AcDbLine
 62
9
  6
CONTINUOUS
 10
2097.9675843425
 20
843.886271324
 11
2098.9675843425
 21
843.886271324
  0
LINE
  5
3DF
100
AcDbEntity
  8
6_ALL_SURFS
100
AcDbLine
 62
7
  6
CONTINUOUS
 10
2098.9675843425
 20
844.186271324
 11
2097.9675843425
 21
844.186271324
  0
LINE
  5
3E0
100
AcDbEntity
  8
6_ALL_SURFS
100
AcDbLine
 62
7
  6
CONTINUOUS
 10
413.9675843425
 20
844.186271324
 11
412.9675843425
 21
844.186271324
  0
LINE
  5
3E1
100
AcDbEntity
  8
6_ALL_SURFS
100
AcDbLine
 62
9
  6
CONTINUOUS
 10
2098.9675843425
 20
844.486271324
 11
2097.9675843425
 21
844.486271324
  0
LINE
  5
3E2
100
AcDbEntity
  8
6_ALL_SURFS
100
AcDbLine
 62
9
  6
CONTINUOUS
 10
413.9675843425
 20
844.486271324
 11
412.9675843425
 21
844.486271324
  0
LINE
  5
3E3
100
AcDbEntity
  8
3_ALL_AXES
100
AcDbLine
 62
7
  6
CONTINUOUS
 10
2101.4675843425
 20
851.736271324
 11
2101.3168640128
 21
851.736271324
  0
LINE
  5
3E4
100
AcDbEntity
  8
3_ALL_AXES
100
AcDbLine
 62
7
  6
CONTINUOUS
 10
410.4675843425
 20
851.736271324
 11
410.6183046721
 21
851.736271324
  0
LINE
  5
3E5
100
AcDbEntity
  8
6_ALL_SURFS
100
AcDbLine
 62
9
  6
CONTINUOUS
 10
412.9675843425
 20
855.0836864723
 11
413.9675843425
 21
855.0836864723
  0
LINE
  5
3E6
100
AcDbEntity
  8
6_ALL_SURFS
100
AcDbLine
 62
9
  6
CONTINUOUS
 10
2097.9675843425
 20
855.0836864723
 11
2098.9675843425
 21
855.0836864723
  0
LINE
  5
3E7
100
AcDbEntity
  8
6_ALL_SURFS
100
AcDbLine
 62
9
  6
CONTINUOUS
 10
412.9675843425
 20
856.0599824795
 11
413.9675843425
 21
856.0599824795
  0
LINE
  5
3E8
100
AcDbEntity
  8
6_ALL_SURFS
100
AcDbLine
 62
9
  6
CONTINUOUS
 10
2097.9675843425
 20
856.0599824795
 11
2098.9675843425
 21
856.0599824795
  0
LINE
  5
3E9
100
AcDbEntity
  8
3_ALL_AXES
100
AcDbLine
 62
7
  6
CONTINUOUS
 10
2101.4675843425
 20
857.236271324
 11
2101.3168640128
 21
857.236271324
  0
LINE
  5
3EA
100
AcDbEntity
  8
3_ALL_AXES
100
AcDbLine
 62
7
  6
CONTINUOUS
 10
410.4675843425
 20
857.236271324
 11
410.6183046721
 21
857.236271324
  0
LINE
  5
3EB
100
AcDbEntity
  8
3_ALL_AXES
100
AcDbLine
 62
7
  6
CONTINUOUS
 10
2101.4675843425
 20
858.036271324
 11
2101.3168640128
 21
858.036271324
  0
LINE
  5
3EC
100
AcDbEntity
  8
3_ALL_AXES
100
AcDbLine
 62
7
  6
CONTINUOUS
 10
410.4675843425
 20
858.036271324
 11
410.6183046721
 21
858.036271324
  0
LINE
  5
3ED
100
AcDbEntity
  8
6_ALL_SURFS
100
AcDbLine
 62
7
  6
CONTINUOUS
 10
412.9675843425
 20
858.4528155243
 11
413.9675843425
 21
858.4528155243
  0
LINE
  5
3EE
100
AcDbEntity
  8
6_ALL_SURFS
100
AcDbLine
 62
7
  6
CONTINUOUS
 10
2097.9675843425
 20
858.4528155243
 11
2098.9675843425
 21
858.4528155243
  0
LINE
  5
3EF
100
AcDbEntity
  8
6_ALL_SURFS
100
AcDbLine
 62
9
  6
CONTINUOUS
 10
2098.9675843425
 20
858.4709077381
 11
2097.9675843425
 21
858.4709077381
  0
LINE
  5
3F0
100
AcDbEntity
  8
6_ALL_SURFS
100
AcDbLine
 62
9
  6
CONTINUOUS
 10
413.9675843425
 20
858.4709077381
 11
412.9675843425
 21
858.4709077381
  0
LINE
  5
3F1
100
AcDbEntity
  8
6_ALL_SURFS
100
AcDbLine
 62
9
  6
CONTINUOUS
 10
412.9675843425
 20
858.8259639448
 11
413.9675843425
 21
858.8259639448
  0
LINE
  5
3F2
100
AcDbEntity
  8
6_ALL_SURFS
100
AcDbLine
 62
9
  6
CONTINUOUS
 10
2097.9675843425
 20
858.8259639448
 11
2098.9675843425
 21
858.8259639448
  0
LINE
  5
3F3
100
AcDbEntity
  8
6_ALL_SURFS
100
AcDbLine
 62
7
  6
CONTINUOUS
 10
2098.9675843425
 20
858.886271324
 11
2097.9675843425
 21
858.886271324
  0
LINE
  5
3F4
100
AcDbEntity
  8
6_ALL_SURFS
100
AcDbLine
 62
7
  6
CONTINUOUS
 10
413.9675843425
 20
858.886271324
 11
412.9675843425
 21
858.886271324
  0
LINE
  5
3F5
100
AcDbEntity
  8
6_ALL_SURFS
100
AcDbLine
 62
9
  6
CONTINUOUS
 10
2098.9675843425
 20
859.186271324
 11
2097.9675843425
 21
859.186271324
  0
LINE
  5
3F6
100
AcDbEntity
  8
6_ALL_SURFS
100
AcDbLine
 62
9
  6
CONTINUOUS
 10
413.9675843425
 20
859.186271324
 11
412.9675843425
 21
859.186271324
  0
LINE
  5
3F7
100
AcDbEntity
  8
6_ALL_SURFS
100
AcDbLine
 62
9
  6
CONTINUOUS
 10
412.9675843425
 20
860.0058276115
 11
413.9675843425
 21
860.0058276115
  0
LINE
  5
3F8
100
AcDbEntity
  8
6_ALL_SURFS
100
AcDbLine
 62
9
  6
CONTINUOUS
 10
2097.9675843425
 20
860.0058276115
 11
2098.9675843425
 21
860.0058276115
  0
LINE
  5
3F9
100
AcDbEntity
  8
6_ALL_SURFS
100
AcDbLine
 62
9
  6
CONTINUOUS
 10
412.9675843425
 20
860.225233722
 11
413.9675843425
 21
860.225233722
  0
LINE
  5
3FA
100
AcDbEntity
  8
6_ALL_SURFS
100
AcDbLine
 62
9
  6
CONTINUOUS
 10
2097.9675843425
 20
860.225233722
 11
2098.9675843425
 21
860.225233722
  0
LINE
  5
3FB
100
AcDbEntity
  8
6_ALL_SURFS
100
AcDbLine
 62
7
  6
CONTINUOUS
 10
2098.9675843425
 20
860.786271324
 11
2097.9675843425
 21
860.786271324
  0
LINE
  5
3FC
100
AcDbEntity
  8
6_ALL_SURFS
100
AcDbLine
 62
7
  6
CONTINUOUS
 10
413.9675843425
 20
860.786271324
 11
412.9675843425
 21
860.786271324
  0
LINE
  5
3FD
100
AcDbEntity
  8
6_ALL_SURFS
100
AcDbLine
 62
9
  6
CONTINUOUS
 10
2098.9675843425
 20
861.086271324
 11
2097.9675843425
 21
861.086271324
  0
LINE
  5
3FE
100
AcDbEntity
  8
6_ALL_SURFS
100
AcDbLine
 62
9
  6
CONTINUOUS
 10
413.9675843425
 20
861.086271324
 11
412.9675843425
 21
861.086271324
  0
LINE
  5
3FF
100
AcDbEntity
  8
7_ALL_FEATURES
100
AcDbLine
 62
9
  6
CONTINUOUS
 10
413.9675843425
 20
861.636271324
 11
2097.9675843425
 21
861.636271324
  0
LINE
  5
400
100
AcDbEntity
  8
6_ALL_SURFS
100
AcDbLine
 62
9
  6
CONTINUOUS
 10
412.9675843425
 20
861.736271324
 11
413.9675843425
 21
861.736271324
  0
LINE
  5
401
100
AcDbEntity
  8
6_ALL_SURFS
100
AcDbLine
 62
9
  6
CONTINUOUS
 10
2097.9675843425
 20
861.736271324
 11
2098.9675843425
 21
861.736271324
  0
LINE
  5
402
100
AcDbEntity
  8
7_ALL_FEATURES
100
AcDbLine
 62
7
  6
CONTINUOUS
 10
413.9675843425
 20
861.836271324
 11
2097.9675843425
 21
861.836271324
  0
LINE
  5
403
100
AcDbEntity
  8
6_ALL_SURFS
100
AcDbLine
 62
7
  6
CONTINUOUS
 10
2098.9675843425
 20
862.036271324
 11
412.9675843425
 21
862.036271324
  0
LINE
  5
404
100
AcDbEntity
  8
6_ALL_SURFS
100
AcDbLine
 62
9
  6
CONTINUOUS
 10
2098.9675843425
 20
862.336271324
 11
412.9675843425
 21
862.336271324
  0
LINE
  5
405
100
AcDbEntity
  8
7_ALL_FEATURES
100
AcDbLine
 62
9
  6
CONTINUOUS
 10
2100.4675843425
 20
862.936271324
 11
2098.9675843425
 21
862.936271324
  0
LINE
  5
406
100
AcDbEntity
  8
7_ALL_FEATURES
100
AcDbLine
 62
9
  6
CONTINUOUS
 10
411.4675843425
 20
862.936271324
 11
412.9675843425
 21
862.936271324
  0
LINE
  5
407
100
AcDbEntity
  8
6_ALL_SURFS
100
AcDbLine
 62
9
  6
CONTINUOUS
 10
2098.9675843425
 20
862.986271324
 11
412.9675843425
 21
862.986271324
  0
LINE
  5
408
100
AcDbEntity
  8
6_ALL_SURFS
100
AcDbLine
 62
7
  6
CONTINUOUS
 10
2098.9675843425
 20
863.286271324
 11
412.9675843425
 21
863.286271324
  0
LINE
  5
409
100
AcDbEntity
  8
3_ALL_AXES
100
AcDbLine
 62
7
  6
CONTINUOUS
 10
2101.4675843425
 20
863.536271324
 11
2101.3168640128
 21
863.536271324
  0
LINE
  5
40A
100
AcDbEntity
  8
3_ALL_AXES
100
AcDbLine
 62
7
  6
CONTINUOUS
 10
410.4675843425
 20
863.536271324
 11
410.6183046721
 21
863.536271324
  0
LINE
  5
40B
100
AcDbEntity
  8
6_ALL_SURFS
100
AcDbLine
 62
9
  6
CONTINUOUS
 10
412.9675843425
 20
863.586271324
 11
2098.9675843425
 21
863.586271324
  0
LINE
  5
40C
100
AcDbEntity
  8
7_ALL_FEATURES
100
AcDbLine
 62
7
  6
CONTINUOUS
 10
2100.4675843425
 20
863.686271324
 11
2098.9675843425
 21
863.686271324
  0
LINE
  5
40D
100
AcDbEntity
  8
7_ALL_FEATURES
100
AcDbLine
 62
7
  6
CONTINUOUS
 10
411.4675843425
 20
863.686271324
 11
412.9675843425
 21
863.686271324
  0
LINE
  5
40E
100
AcDbEntity
  8
6_ALL_SURFS
100
AcDbLine
 62
7
  6
CONTINUOUS
 10
412.9675843425
 20
865.536271324
 11
2098.9675843425
 21
865.536271324
  0
LINE
  5
40F
100
AcDbEntity
  8
6_ALL_SURFS
100
AcDbLine
 62
7
  6
CONTINUOUS
 10
412.9675843425
 20
866.136271324
 11
2098.9675843425
 21
866.136271324
  0
LINE
  5
410
100
AcDbEntity
  8
6_ALL_SURFS
100
AcDbLine
 62
7
  6
CONTINUOUS
 10
412.9675843425
 20
868.536271324
 11
2098.9675843425
 21
868.536271324
  0
LINE
  5
411
100
AcDbEntity
  8
6_ALL_SURFS
100
AcDbLine
 62
7
  6
CONTINUOUS
 10
412.9675843425
 20
869.136271324
 11
2098.9675843425
 21
869.136271324
  0
LINE
  5
412
100
AcDbEntity
  8
6_ALL_SURFS
100
AcDbLine
 62
7
  6
CONTINUOUS
 10
412.9675843425
 20
871.536271324
 11
2098.9675843425
 21
871.536271324
  0
LINE
  5
413
100
AcDbEntity
  8
6_ALL_SURFS
100
AcDbLine
 62
7
  6
CONTINUOUS
 10
412.9675843425
 20
872.136271324
 11
2098.9675843425
 21
872.136271324
  0
LINE
  5
414
100
AcDbEntity
  8
6_ALL_SURFS
100
AcDbLine
 62
7
  6
CONTINUOUS
 10
412.9675843425
 20
874.536271324
 11
502.2218178335
 21
874.536271324
  0
LINE
  5
415
100
AcDbEntity
  8
6_ALL_SURFS
100
AcDbLine
 62
7
  6
CONTINUOUS
 10
509.7133508514
 20
874.536271324
 11
752.2218178335
 21
874.536271324
  0
LINE
  5
416
100
AcDbEntity
  8
6_ALL_SURFS
100
AcDbLine
 62
7
  6
CONTINUOUS
 10
759.7133508514
 20
874.536271324
 11
1002.2218178335
 21
874.536271324
  0
LINE
  5
417
100
AcDbEntity
  8
6_ALL_SURFS
100
AcDbLine
 62
7
  6
CONTINUOUS
 10
1009.7133508514
 20
874.536271324
 11
1252.2218178335
 21
874.536271324
  0
LINE
  5
418
100
AcDbEntity
  8
6_ALL_SURFS
100
AcDbLine
 62
7
  6
CONTINUOUS
 10
1259.7133508514
 20
874.536271324
 11
1502.2218178335
 21
874.536271324
  0
LINE
  5
419
100
AcDbEntity
  8
6_ALL_SURFS
100
AcDbLine
 62
7
  6
CONTINUOUS
 10
1509.7133508514
 20
874.536271324
 11
1752.2218178335
 21
874.536271324
  0
LINE
  5
41A
100
AcDbEntity
  8
6_ALL_SURFS
100
AcDbLine
 62
7
  6
CONTINUOUS
 10
1759.7133508514
 20
874.536271324
 11
2002.2218178335
 21
874.536271324
  0
LINE
  5
41B
100
AcDbEntity
  8
6_ALL_SURFS
100
AcDbLine
 62
7
  6
CONTINUOUS
 10
2009.7133508514
 20
874.536271324
 11
2098.9675843425
 21
874.536271324
  0
LINE
  5
41C
100
AcDbEntity
  8
6_ALL_SURFS
100
AcDbLine
 62
7
  6
CONTINUOUS
 10
412.9675843425
 20
875.136271324
 11
501.8117731413
 21
875.136271324
  0
LINE
  5
41D
100
AcDbEntity
  8
6_ALL_SURFS
100
AcDbLine
 62
7
  6
CONTINUOUS
 10
510.1233955436
 20
875.136271324
 11
751.8117731413
 21
875.136271324
  0
LINE
  5
41E
100
AcDbEntity
  8
6_ALL_SURFS
100
AcDbLine
 62
7
  6
CONTINUOUS
 10
760.1233955436
 20
875.136271324
 11
1001.8117731413
 21
875.136271324
  0
LINE
  5
41F
100
AcDbEntity
  8
6_ALL_SURFS
100
AcDbLine
 62
7
  6
CONTINUOUS
 10
1010.1233955436
 20
875.136271324
 11
1251.8117731413
 21
875.136271324
  0
LINE
  5
420
100
AcDbEntity
  8
6_ALL_SURFS
100
AcDbLine
 62
7
  6
CONTINUOUS
 10
1260.1233955436
 20
875.136271324
 11
1501.8117731413
 21
875.136271324
  0
LINE
  5
421
100
AcDbEntity
  8
6_ALL_SURFS
100
AcDbLine
 62
7
  6
CONTINUOUS
 10
1510.1233955436
 20
875.136271324
 11
1751.8117731413
 21
875.136271324
  0
LINE
  5
422
100
AcDbEntity
  8
6_ALL_SURFS
100
AcDbLine
 62
7
  6
CONTINUOUS
 10
1760.1233955436
 20
875.136271324
 11
2001.8117731413
 21
875.136271324
  0
LINE
  5
423
100
AcDbEntity
  8
6_ALL_SURFS
100
AcDbLine
 62
7
  6
CONTINUOUS
 10
2010.1233955436
 20
875.136271324
 11
2098.9675843425
 21
875.136271324
  0
LINE
  5
424
100
AcDbEntity
  8
6_ALL_SURFS
100
AcDbLine
 62
7
  6
CONTINUOUS
 10
412.9675843425
 20
877.536271324
 11
501.1685462368
 21
877.536271324
  0
LINE
  5
425
100
AcDbEntity
  8
6_ALL_SURFS
100
AcDbLine
 62
7
  6
CONTINUOUS
 10
510.7666224481
 20
877.536271324
 11
751.1685462368
 21
877.536271324
  0
LINE
  5
426
100
AcDbEntity
  8
6_ALL_SURFS
100
AcDbLine
 62
7
  6
CONTINUOUS
 10
760.7666224481
 20
877.536271324
 11
1001.1685462368
 21
877.536271324
  0
LINE
  5
427
100
AcDbEntity
  8
6_ALL_SURFS
100
AcDbLine
 62
7
  6
CONTINUOUS
 10
1010.7666224481
 20
877.536271324
 11
1251.1685462368
 21
877.536271324
  0
LINE
  5
428
100
AcDbEntity
  8
6_ALL_SURFS
100
AcDbLine
 62
7
  6
CONTINUOUS
 10
1260.7666224481
 20
877.536271324
 11
1501.1685462368
 21
877.536271324
  0
LINE
  5
429
100
AcDbEntity
  8
6_ALL_SURFS
100
AcDbLine
 62
7
  6
CONTINUOUS
 10
1510.7666224481
 20
877.536271324
 11
1751.1685462368
 21
877.536271324
  0
LINE
  5
42A
100
AcDbEntity
  8
6_ALL_SURFS
100
AcDbLine
 62
7
  6
CONTINUOUS
 10
1760.7666224481
 20
877.536271324
 11
2001.1685462368
 21
877.536271324
  0
LINE
  5
42B
100
AcDbEntity
  8
6_ALL_SURFS
100
AcDbLine
 62
7
  6
CONTINUOUS
 10
2010.7666224481
 20
877.536271324
 11
2098.9675843425
 21
877.536271324
  0
LINE
  5
42C
100
AcDbEntity
  8
6_ALL_SURFS
100
AcDbLine
 62
7
  6
CONTINUOUS
 10
412.9675843425
 20
878.136271324
 11
501.2062014824
 21
878.136271324
  0
LINE
  5
42D
100
AcDbEntity
  8
6_ALL_SURFS
100
AcDbLine
 62
7
  6
CONTINUOUS
 10
510.7289672025
 20
878.136271324
 11
751.2062014824
 21
878.136271324
  0
LINE
  5
42E
100
AcDbEntity
  8
6_ALL_SURFS
100
AcDbLine
 62
7
  6
CONTINUOUS
 10
760.7289672025
 20
878.136271324
 11
1001.2062014824
 21
878.136271324
  0
LINE
  5
42F
100
AcDbEntity
  8
6_ALL_SURFS
100
AcDbLine
 62
7
  6
CONTINUOUS
 10
1010.7289672025
 20
878.136271324
 11
1251.2062014824
 21
878.136271324
  0
LINE
  5
430
100
AcDbEntity
  8
6_ALL_SURFS
100
AcDbLine
 62
7
  6
CONTINUOUS
 10
1260.7289672025
 20
878.136271324
 11
1501.2062014824
 21
878.136271324
  0
LINE
  5
431
100
AcDbEntity
  8
6_ALL_SURFS
100
AcDbLine
 62
7
  6
CONTINUOUS
 10
1510.7289672025
 20
878.136271324
 11
1751.2062014824
 21
878.136271324
  0
LINE
  5
432
100
AcDbEntity
  8
6_ALL_SURFS
100
AcDbLine
 62
7
  6
CONTINUOUS
 10
1760.7289672025
 20
878.136271324
 11
2001.2062014824
 21
878.136271324
  0
LINE
  5
433
100
AcDbEntity
  8
6_ALL_SURFS
100
AcDbLine
 62
7
  6
CONTINUOUS
 10
2010.7289672025
 20
878.136271324
 11
2098.9675843425
 21
878.136271324
  0
LINE
  5
434
100
AcDbEntity
  8
6_ALL_SURFS
100
AcDbLine
 62
7
  6
CONTINUOUS
 10
412.9675843425
 20
881.036271324
 11
502.6841765488
 21
881.036271324
  0
LINE
  5
435
100
AcDbEntity
  8
6_ALL_SURFS
100
AcDbLine
 62
7
  6
CONTINUOUS
 10
509.2509921362
 20
881.036271324
 11
752.6841765488
 21
881.036271324
  0
LINE
  5
436
100
AcDbEntity
  8
6_ALL_SURFS
100
AcDbLine
 62
7
  6
CONTINUOUS
 10
759.2509921362
 20
881.036271324
 11
1002.6841765488
 21
881.036271324
  0
LINE
  5
437
100
AcDbEntity
  8
6_ALL_SURFS
100
AcDbLine
 62
7
  6
CONTINUOUS
 10
1009.2509921362
 20
881.036271324
 11
1252.6841765488
 21
881.036271324
  0
LINE
  5
438
100
AcDbEntity
  8
6_ALL_SURFS
100
AcDbLine
 62
7
  6
CONTINUOUS
 10
1259.2509921362
 20
881.036271324
 11
1502.6841765488
 21
881.036271324
  0
LINE
  5
439
100
AcDbEntity
  8
6_ALL_SURFS
100
AcDbLine
 62
7
  6
CONTINUOUS
 10
1509.2509921362
 20
881.036271324
 11
1752.6841765488
 21
881.036271324
  0
LINE
  5
43A
100
AcDbEntity
  8
6_ALL_SURFS
100
AcDbLine
 62
7
  6
CONTINUOUS
 10
1759.2509921362
 20
881.036271324
 11
2002.6841765488
 21
881.036271324
  0
LINE
  5
43B
100
AcDbEntity
  8
6_ALL_SURFS
100
AcDbLine
 62
7
  6
CONTINUOUS
 10
2009.2509921362
 20
881.036271324
 11
2098.9675843425
 21
881.036271324
  0
LINE
  5
43C
100
AcDbEntity
  8
6_ALL_SURFS
100
AcDbLine
 62
9
  6
CONTINUOUS
 10
2098.9675843425
 20
883.1817429144
 11
412.9675843425
 21
883.1817429144
  0
LINE
  5
43D
100
AcDbEntity
  8
6_ALL_SURFS
100
AcDbLine
 62
7
  6
CONTINUOUS
 10
412.9675843425
 20
883.536271324
 11
2098.9675843425
 21
883.536271324
  0
LINE
  5
43E
100
AcDbEntity
  8
3_ALL_AXES
100
AcDbLine
 62
7
  6
CONTINUOUS
 10
2101.3168640128
 20
863.536271324
 11
2100.4675843425
 21
862.8236410658
  0
LINE
  5
43F
100
AcDbEntity
  8
3_ALL_AXES
100
AcDbLine
 62
7
  6
CONTINUOUS
 10
2101.3168640128
 20
857.236271324
 11
2100.4675843425
 21
856.5236410658
  0
LINE
  5
440
100
AcDbEntity
  8
3_ALL_AXES
100
AcDbLine
 62
7
  6
CONTINUOUS
 10
2101.3168640128
 20
833.236271324
 11
2100.4675843425
 21
832.5236410658
  0
LINE
  5
441
100
AcDbEntity
  8
3_ALL_AXES
100
AcDbLine
 62
7
  6
CONTINUOUS
 10
2101.3168640128
 20
826.936271324
 11
2100.4675843425
 21
826.2236410658
  0
LINE
  5
442
100
AcDbEntity
  8
3_ALL_AXES
100
AcDbLine
 62
7
  6
CONTINUOUS
 10
2101.3168640128
 20
821.436271324
 11
2100.4675843425
 21
822.1489015822
  0
LINE
  5
443
100
AcDbEntity
  8
3_ALL_AXES
100
AcDbLine
 62
7
  6
CONTINUOUS
 10
2101.3168640128
 20
827.736271324
 11
2100.4675843425
 21
828.4489015822
  0
LINE
  5
444
100
AcDbEntity
  8
3_ALL_AXES
100
AcDbLine
 62
7
  6
CONTINUOUS
 10
2101.3168640128
 20
851.736271324
 11
2100.4675843425
 21
852.4489015822
  0
LINE
  5
445
100
AcDbEntity
  8
3_ALL_AXES
100
AcDbLine
 62
7
  6
CONTINUOUS
 10
2101.3168640128
 20
858.036271324
 11
2100.4675843425
 21
858.7489015822
  0
LINE
  5
446
100
AcDbEntity
  8
7_ALL_FEATURES
100
AcDbLine
 62
7
  6
CONTINUOUS
 10
2097.9675843425
 20
861.836271324
 11
2097.9675843425
 21
823.136271324
  0
LINE
  5
447
100
AcDbEntity
  8
3_ALL_AXES
100
AcDbLine
 62
7
  6
CONTINUOUS
 10
2098.9675843425
 20
819.436271324
 11
2098.9675843425
 21
803.936271324
  0
LINE
  5
448
100
AcDbEntity
  8
7_ALL_FEATURES
100
AcDbLine
 62
7
  6
CONTINUOUS
 10
2098.9675843425
 20
803.936271324
 11
2098.9675843425
 21
801.4362898213
  0
LINE
  5
449
100
AcDbEntity
  8
7_ALL_FEATURES
100
AcDbLine
 62
7
  6
CONTINUOUS
 10
2098.9675843425
 20
819.436271324
 11
2098.9675843425
 21
862.936271324
  0
LINE
  5
44A
100
AcDbEntity
  8
7_ALL_FEATURES
100
AcDbLine
 62
7
  6
CONTINUOUS
 10
2098.9675843425
 20
863.069254283
 11
2098.9675843425
 21
863.686271324
  0
LINE
  5
44B
100
AcDbEntity
  8
6_ALL_SURFS
100
AcDbLine
 62
7
  6
CONTINUOUS
 10
2098.9675843425
 20
862.336271324
 11
2098.9675843425
 21
863.286271324
  0
LINE
  5
44C
100
AcDbEntity
  8
6_ALL_SURFS
100
AcDbLine
 62
7
  6
CONTINUOUS
 10
2098.9675843425
 20
863.686271324
 11
2098.9675843425
 21
883.5362528267
  0
LINE
  5
44D
100
AcDbEntity
  8
7_ALL_FEATURES
100
AcDbLine
 62
7
  6
CONTINUOUS
 10
2100.4675843425
 20
863.686271324
 11
2100.4675843425
 21
821.286271324
  0
LINE
  5
44E
100
AcDbEntity
  8
3_ALL_AXES
100
AcDbLine
 62
7
  6
CONTINUOUS
 10
2101.3168640128
 20
821.436271324
 11
2101.3168640128
 21
826.936271324
  0
LINE
  5
44F
100
AcDbEntity
  8
3_ALL_AXES
100
AcDbLine
 62
7
  6
CONTINUOUS
 10
2101.3168640128
 20
827.736271324
 11
2101.3168640128
 21
833.236271324
  0
LINE
  5
450
100
AcDbEntity
  8
3_ALL_AXES
100
AcDbLine
 62
7
  6
CONTINUOUS
 10
2101.3168640128
 20
851.736271324
 11
2101.3168640128
 21
857.236271324
  0
LINE
  5
451
100
AcDbEntity
  8
3_ALL_AXES
100
AcDbLine
 62
7
  6
CONTINUOUS
 10
2101.3168640128
 20
858.036271324
 11
2101.3168640128
 21
863.536271324
  0
LINE
  5
452
100
AcDbEntity
  8
3_ALL_AXES
100
AcDbLine
 62
7
  6
CONTINUOUS
 10
2101.4675843425
 20
821.436271324
 11
2101.4675843425
 21
826.936271324
  0
LINE
  5
453
100
AcDbEntity
  8
3_ALL_AXES
100
AcDbLine
 62
7
  6
CONTINUOUS
 10
2101.4675843425
 20
827.736271324
 11
2101.4675843425
 21
833.236271324
  0
LINE
  5
454
100
AcDbEntity
  8
3_ALL_AXES
100
AcDbLine
 62
7
  6
CONTINUOUS
 10
2101.4675843425
 20
851.736271324
 11
2101.4675843425
 21
857.236271324
  0
LINE
  5
455
100
AcDbEntity
  8
3_ALL_AXES
100
AcDbLine
 62
7
  6
CONTINUOUS
 10
2101.4675843425
 20
858.036271324
 11
2101.4675843425
 21
863.536271324
  0
CIRCLE
  5
456
100
AcDbEntity
  8
3_ALL_AXES
100
AcDbCircle
 62
7
  6
CONTINUOUS
 10
160.5877189471
 20
556.6176406338
 40
2.75
  0
ARC
  5
457
100
AcDbEntity
  8
7_ALL_FEATURES
100
AcDbCircle
 62
7
  6
CONTINUOUS
 10
159.3877189471
 20
562.0176406338
 40
1.5
100
AcDbArc
 50
270.0
 51
360.0
  0
ARC
  5
458
100
AcDbEntity
  8
7_ALL_FEATURES
100
AcDbCircle
 62
7
  6
CONTINUOUS
 10
158.4377189471
 20
559.7676406338
 40
0.75
100
AcDbArc
 50
90.0
 51
180.0
  0
ARC
  5
459
100
AcDbEntity
  8
7_ALL_FEATURES
100
AcDbCircle
 62
7
  6
CONTINUOUS
 10
158.4377189471
 20
546.3676406338
 40
0.75
100
AcDbArc
 50
180.0
 51
270.0
  0
ARC
  5
45A
100
AcDbEntity
  8
6_ALL_SURFS
100
AcDbCircle
 62
7
  6
CONTINUOUS
 10
155.5377189471
 20
546.7176406338
 40
0.5
100
AcDbArc
 50
53.1301023542
 51
126.8698976458
  0
ARC
  5
45B
100
AcDbEntity
  8
6_ALL_SURFS
100
AcDbCircle
 62
7
  6
CONTINUOUS
 10
152.5377189471
 20
546.7176406338
 40
0.5
100
AcDbArc
 50
53.1301023542
 51
126.8698976458
  0
ARC
  5
45C
100
AcDbEntity
  8
6_ALL_SURFS
100
AcDbCircle
 62
7
  6
CONTINUOUS
 10
149.5377189471
 20
546.7176406338
 40
0.5
100
AcDbArc
 50
53.1301023542
 51
126.8698976458
  0
ARC
  5
45D
100
AcDbEntity
  8
6_ALL_SURFS
100
AcDbCircle
 62
7
  6
CONTINUOUS
 10
146.5377189471
 20
546.7176406338
 40
0.5
100
AcDbArc
 50
53.1301023542
 51
126.8698976458
  0
ARC
  5
45E
100
AcDbEntity
  8
6_ALL_SURFS
100
AcDbCircle
 62
7
  6
CONTINUOUS
 10
143.5377189471
 20
546.7176406338
 40
0.5
100
AcDbArc
 50
53.1301023542
 51
126.8698976458
  0
ARC
  5
45F
100
AcDbEntity
  8
6_ALL_SURFS
100
AcDbCircle
 62
7
  6
CONTINUOUS
 10
138.231422305
 20
547.7239372759
 40
0.3937033579
100
AcDbArc
 50
90.0
 51
264.2894068625
  0
ARC
  5
460
100
AcDbEntity
  8
6_ALL_SURFS
100
AcDbCircle
 62
7
  6
CONTINUOUS
 10
157.5377189471
 20
548.4176406338
 40
0.3
100
AcDbArc
 50
270.0
 51
300.0
  0
ARC
  5
461
100
AcDbEntity
  8
6_ALL_SURFS
100
AcDbCircle
 62
7
  6
CONTINUOUS
 10
158.3877189471
 20
545.9176406338
 40
0.3
100
AcDbArc
 50
255.0
 51
270.0
  0
CIRCLE
  5
462
100
AcDbEntity
  8
3_ALL_AXES
100
AcDbCircle
 62
7
  6
CONTINUOUS
 10
166.8877189471
 20
622.2176406338
 40
2.75
  0
ARC
  5
463
100
AcDbEntity
  8
6_ALL_SURFS
100
AcDbCircle
 62
7
  6
CONTINUOUS
 10
177.0877189471
 20
623.6176406338
 40
1.8
100
AcDbArc
 50
90.0
 51
105.50726141
  0
ARC
  5
464
100
AcDbEntity
  8
7_ALL_FEATURES
100
AcDbCircle
 62
7
  6
CONTINUOUS
 10
176.241967636
 20
624.4176406338
 40
1.0
100
AcDbArc
 50
48.5903778907
 51
90.0
  0
ARC
  5
465
100
AcDbEntity
  8
7_ALL_FEATURES
100
AcDbCircle
 62
7
  6
CONTINUOUS
 10
163.6377189471
 20
624.6676406338
 40
0.75
100
AcDbArc
 50
90.0
 51
180.0
  0
ARC
  5
466
100
AcDbEntity
  8
6_ALL_SURFS
100
AcDbCircle
 62
7
  6
CONTINUOUS
 10
163.1877189471
 20
625.1176406338
 40
0.3
100
AcDbArc
 50
90.0
 51
180.0
  0
CIRCLE
  5
467
100
AcDbEntity
  8
3_ALL_AXES
100
AcDbCircle
 62
7
  6
CONTINUOUS
 10
197.1877189471
 20
556.6176406338
 40
2.75
  0
ARC
  5
468
100
AcDbEntity
  8
7_ALL_FEATURES
100
AcDbCircle
 62
7
  6
CONTINUOUS
 10
198.3877189471
 20
562.0176406338
 40
1.5
100
AcDbArc
 50
180.0
 51
270.0
  0
ARC
  5
469
100
AcDbEntity
  8
7_ALL_FEATURES
100
AcDbCircle
 62
7
  6
CONTINUOUS
 10
199.3377189471
 20
546.3676406338
 40
0.75
100
AcDbArc
 50
270.0
 51
360.0
  0
ARC
  5
46A
100
AcDbEntity
  8
7_ALL_FEATURES
100
AcDbCircle
 62
7
  6
CONTINUOUS
 10
199.3377189471
 20
559.7676406338
 40
0.75
100
AcDbArc
 50
0.0
 51
90.0
  0
ARC
  5
46B
100
AcDbEntity
  8
3_ALL_AXES
100
AcDbCircle
 62
7
  6
CONTINUOUS
 10
214.2377189471
 20
546.7176406338
 40
0.5
100
AcDbArc
 50
53.1301023542
 51
126.8698976458
  0
ARC
  5
46C
100
AcDbEntity
  8
3_ALL_AXES
100
AcDbCircle
 62
7
  6
CONTINUOUS
 10
211.2377189471
 20
546.7176406338
 40
0.5
100
AcDbArc
 50
53.1301023542
 51
126.8698976458
  0
ARC
  5
46D
100
AcDbEntity
  8
3_ALL_AXES
100
AcDbCircle
 62
7
  6
CONTINUOUS
 10
208.2377189471
 20
546.7176406338
 40
0.5
100
AcDbArc
 50
53.1301023542
 51
126.8698976458
  0
ARC
  5
46E
100
AcDbEntity
  8
3_ALL_AXES
100
AcDbCircle
 62
7
  6
CONTINUOUS
 10
205.2377189471
 20
546.7176406338
 40
0.5
100
AcDbArc
 50
53.1301023542
 51
126.8698976458
  0
ARC
  5
46F
100
AcDbEntity
  8
3_ALL_AXES
100
AcDbCircle
 62
7
  6
CONTINUOUS
 10
202.2377189471
 20
546.7176406338
 40
0.5
100
AcDbArc
 50
53.1301023542
 51
126.8698976458
  0
ARC
  5
470
100
AcDbEntity
  8
7_ALL_FEATURES
100
AcDbCircle
 62
7
  6
CONTINUOUS
 10
219.5440155892
 20
547.7239372759
 40
0.3937033579
100
AcDbArc
 50
275.7105931375
 51
90.0
  0
ARC
  5
471
100
AcDbEntity
  8
7_ALL_FEATURES
100
AcDbCircle
 62
7
  6
CONTINUOUS
 10
200.2377189471
 20
548.4176406338
 40
0.3
100
AcDbArc
 50
240.0
 51
270.0
  0
ARC
  5
472
100
AcDbEntity
  8
7_ALL_FEATURES
100
AcDbCircle
 62
7
  6
CONTINUOUS
 10
199.3877189471
 20
545.9176406338
 40
0.3
100
AcDbArc
 50
270.0
 51
285.0
  0
ARC
  5
473
100
AcDbEntity
  8
7_ALL_FEATURES
100
AcDbCircle
 62
7
  6
CONTINUOUS
 10
178.8877189471
 20
602.9176406338
 40
11.0
100
AcDbArc
 50
3.257196161
 51
176.742803839
  0
ARC
  5
474
100
AcDbEntity
  8
7_ALL_FEATURES
100
AcDbCircle
 62
7
  6
CONTINUOUS
 10
178.8877189471
 20
602.9176406338
 40
11.0
100
AcDbArc
 50
183.257196161
 51
356.742803839
  0
ARC
  5
475
100
AcDbEntity
  8
7_ALL_FEATURES
100
AcDbCircle
 62
7
  6
CONTINUOUS
 10
178.8877189471
 20
602.9176406338
 40
10.25
100
AcDbArc
 50
3.4958136324
 51
176.5041863676
  0
ARC
  5
476
100
AcDbEntity
  8
7_ALL_FEATURES
100
AcDbCircle
 62
7
  6
CONTINUOUS
 10
178.8877189471
 20
602.9176406338
 40
10.25
100
AcDbArc
 50
183.4958136324
 51
356.5041863676
  0
ARC
  5
477
100
AcDbEntity
  8
7_ALL_FEATURES
100
AcDbCircle
 62
7
  6
CONTINUOUS
 10
178.8877189471
 20
627.4176406338
 40
3.0
100
AcDbArc
 50
228.5903778907
 51
311.4096221093
  0
CIRCLE
  5
478
100
AcDbEntity
  8
3_ALL_AXES
100
AcDbCircle
 62
7
  6
CONTINUOUS
 10
190.8877189471
 20
622.2176406338
 40
2.75
  0
ARC
  5
479
100
AcDbEntity
  8
7_ALL_FEATURES
100
AcDbCircle
 62
7
  6
CONTINUOUS
 10
180.6877189471
 20
623.6176406338
 40
1.8
100
AcDbArc
 50
74.49273859
 51
90.0
  0
ARC
  5
47A
100
AcDbEntity
  8
7_ALL_FEATURES
100
AcDbCircle
 62
7
  6
CONTINUOUS
 10
181.5334702581
 20
624.4176406338
 40
1.0
100
AcDbArc
 50
90.0
 51
131.4096221093
  0
ARC
  5
47B
100
AcDbEntity
  8
7_ALL_FEATURES
100
AcDbCircle
 62
7
  6
CONTINUOUS
 10
194.1377189471
 20
624.6676406338
 40
0.75
100
AcDbArc
 50
0.0
 51
90.0
  0
ARC
  5
47C
100
AcDbEntity
  8
7_ALL_FEATURES
100
AcDbCircle
 62
7
  6
CONTINUOUS
 10
194.5877189471
 20
625.1176406338
 40
0.3
100
AcDbArc
 50
0.0
 51
90.0
  0
ARC
  5
47D
100
AcDbEntity
  8
7_ALL_FEATURES
100
AcDbCircle
 62
7
  6
CONTINUOUS
 10
1005.9675843425
 20
807.436271324
 40
4.7990381057
100
AcDbArc
 50
38.6913826582
 51
141.3086173418
  0
ARC
  5
47E
100
AcDbEntity
  8
7_ALL_FEATURES
100
AcDbCircle
 62
7
  6
CONTINUOUS
 10
755.9675843425
 20
807.436271324
 40
4.7990381057
100
AcDbArc
 50
38.6913826582
 51
141.3086173418
  0
ARC
  5
47F
100
AcDbEntity
  8
7_ALL_FEATURES
100
AcDbCircle
 62
7
  6
CONTINUOUS
 10
505.9675843425
 20
807.436271324
 40
4.7990381057
100
AcDbArc
 50
38.6913826582
 51
141.3086173418
  0
ARC
  5
480
100
AcDbEntity
  8
7_ALL_FEATURES
100
AcDbCircle
 62
7
  6
CONTINUOUS
 10
505.9675843425
 20
807.436271324
 40
4.7990381057
100
AcDbArc
 50
149.9933694481
 51
180.0
  0
ARC
  5
481
100
AcDbEntity
  8
7_ALL_FEATURES
100
AcDbCircle
 62
7
  6
CONTINUOUS
 10
755.9675843425
 20
807.436271324
 40
4.7990381057
100
AcDbArc
 50
149.9933694481
 51
180.0
  0
ARC
  5
482
100
AcDbEntity
  8
7_ALL_FEATURES
100
AcDbCircle
 62
7
  6
CONTINUOUS
 10
505.9675843425
 20
807.436271324
 40
4.7990381057
100
AcDbArc
 50
0.0
 51
30.0066305519
  0
ARC
  5
483
100
AcDbEntity
  8
7_ALL_FEATURES
100
AcDbCircle
 62
7
  6
CONTINUOUS
 10
1005.9675843425
 20
807.436271324
 40
4.7990381057
100
AcDbArc
 50
149.9933694481
 51
180.0
  0
ARC
  5
484
100
AcDbEntity
  8
7_ALL_FEATURES
100
AcDbCircle
 62
7
  6
CONTINUOUS
 10
755.9675843425
 20
807.436271324
 40
4.7990381057
100
AcDbArc
 50
0.0
 51
30.0066305519
  0
ARC
  5
485
100
AcDbEntity
  8
7_ALL_FEATURES
100
AcDbCircle
 62
7
  6
CONTINUOUS
 10
1005.9675843425
 20
807.436271324
 40
4.7990381057
100
AcDbArc
 50
0.0
 51
30.0066305519
  0
ARC
  5
486
100
AcDbEntity
  8
7_ALL_FEATURES
100
AcDbCircle
 62
7
  6
CONTINUOUS
 10
505.9675843425
 20
807.436271324
 40
4.7990381057
100
AcDbArc
 50
187.1822026405
 51
226.828815981
  0
ARC
  5
487
100
AcDbEntity
  8
7_ALL_FEATURES
100
AcDbCircle
 62
7
  6
CONTINUOUS
 10
755.9675843425
 20
807.436271324
 40
4.7990381057
100
AcDbArc
 50
187.1822026405
 51
226.828815981
  0
ARC
  5
488
100
AcDbEntity
  8
7_ALL_FEATURES
100
AcDbCircle
 62
7
  6
CONTINUOUS
 10
505.9675843425
 20
807.436271324
 40
4.7990381057
100
AcDbArc
 50
313.171184019
 51
352.8177973595
  0
ARC
  5
489
100
AcDbEntity
  8
7_ALL_FEATURES
100
AcDbCircle
 62
7
  6
CONTINUOUS
 10
1005.9675843425
 20
807.436271324
 40
4.7990381057
100
AcDbArc
 50
187.1822026405
 51
226.828815981
  0
ARC
  5
48A
100
AcDbEntity
  8
7_ALL_FEATURES
100
AcDbCircle
 62
7
  6
CONTINUOUS
 10
755.9675843425
 20
807.436271324
 40
4.7990381057
100
AcDbArc
 50
313.171184019
 51
352.8177973595
  0
ARC
  5
48B
100
AcDbEntity
  8
7_ALL_FEATURES
100
AcDbCircle
 62
7
  6
CONTINUOUS
 10
1005.9675843425
 20
807.436271324
 40
4.7990381057
100
AcDbArc
 50
313.171184019
 51
352.8177973595
  0
CIRCLE
  5
48C
100
AcDbEntity
  8
6_ALL_SURFS
100
AcDbCircle
 62
7
  6
CONTINUOUS
 10
1005.9675843425
 20
807.436271324
 40
3.5
  0
CIRCLE
  5
48D
100
AcDbEntity
  8
6_ALL_SURFS
100
AcDbCircle
 62
7
  6
CONTINUOUS
 10
755.9675843425
 20
807.436271324
 40
3.5
  0
CIRCLE
  5
48E
100
AcDbEntity
  8
6_ALL_SURFS
100
AcDbCircle
 62
7
  6
CONTINUOUS
 10
505.9675843425
 20
807.436271324
 40
3.5
  0
ARC
  5
48F
100
AcDbEntity
  8
6_ALL_SURFS
100
AcDbCircle
 62
7
  6
CONTINUOUS
 10
1005.9675843425
 20
877.536271324
 40
4.7990381057
100
AcDbArc
 50
329.9933694481
 51
360.0
  0
ARC
  5
490
100
AcDbEntity
  8
6_ALL_SURFS
100
AcDbCircle
 62
7
  6
CONTINUOUS
 10
755.9675843425
 20
877.536271324
 40
4.7990381057
100
AcDbArc
 50
329.9933694481
 51
360.0
  0
ARC
  5
491
100
AcDbEntity
  8
6_ALL_SURFS
100
AcDbCircle
 62
7
  6
CONTINUOUS
 10
1005.9675843425
 20
877.536271324
 40
4.7990381057
100
AcDbArc
 50
180.0
 51
210.0066305519
  0
ARC
  5
492
100
AcDbEntity
  8
6_ALL_SURFS
100
AcDbCircle
 62
7
  6
CONTINUOUS
 10
505.9675843425
 20
877.536271324
 40
4.7990381057
100
AcDbArc
 50
329.9933694481
 51
360.0
  0
ARC
  5
493
100
AcDbEntity
  8
6_ALL_SURFS
100
AcDbCircle
 62
7
  6
CONTINUOUS
 10
755.9675843425
 20
877.536271324
 40
4.7990381057
100
AcDbArc
 50
180.0
 51
210.0066305519
  0
ARC
  5
494
100
AcDbEntity
  8
6_ALL_SURFS
100
AcDbCircle
 62
7
  6
CONTINUOUS
 10
505.9675843425
 20
877.536271324
 40
4.7990381057
100
AcDbArc
 50
180.0
 51
210.0066305519
  0
ARC
  5
495
100
AcDbEntity
  8
6_ALL_SURFS
100
AcDbCircle
 62
7
  6
CONTINUOUS
 10
1005.9675843425
 20
877.536271324
 40
4.7990381057
100
AcDbArc
 50
218.6913826582
 51
321.3086173418
  0
ARC
  5
496
100
AcDbEntity
  8
6_ALL_SURFS
100
AcDbCircle
 62
7
  6
CONTINUOUS
 10
1005.9675843425
 20
877.536271324
 40
4.7990381057
100
AcDbArc
 50
7.1822026405
 51
46.828815981
  0
ARC
  5
497
100
AcDbEntity
  8
6_ALL_SURFS
100
AcDbCircle
 62
7
  6
CONTINUOUS
 10
755.9675843425
 20
877.536271324
 40
4.7990381057
100
AcDbArc
 50
218.6913826582
 51
321.3086173418
  0
ARC
  5
498
100
AcDbEntity
  8
6_ALL_SURFS
100
AcDbCircle
 62
7
  6
CONTINUOUS
 10
505.9675843425
 20
877.536271324
 40
4.7990381057
100
AcDbArc
 50
218.6913826582
 51
321.3086173418
  0
ARC
  5
499
100
AcDbEntity
  8
6_ALL_SURFS
100
AcDbCircle
 62
7
  6
CONTINUOUS
 10
755.9675843425
 20
877.536271324
 40
4.7990381057
100
AcDbArc
 50
7.1822026405
 51
46.828815981
  0
ARC
  5
49A
100
AcDbEntity
  8
6_ALL_SURFS
100
AcDbCircle
 62
7
  6
CONTINUOUS
 10
1005.9675843425
 20
877.536271324
 40
4.7990381057
100
AcDbArc
 50
133.171184019
 51
172.8177973595
  0
ARC
  5
49B
100
AcDbEntity
  8
6_ALL_SURFS
100
AcDbCircle
 62
7
  6
CONTINUOUS
 10
505.9675843425
 20
877.536271324
 40
4.7990381057
100
AcDbArc
 50
7.1822026405
 51
46.828815981
  0
ARC
  5
49C
100
AcDbEntity
  8
6_ALL_SURFS
100
AcDbCircle
 62
7
  6
CONTINUOUS
 10
755.9675843425
 20
877.536271324
 40
4.7990381057
100
AcDbArc
 50
133.171184019
 51
172.8177973595
  0
ARC
  5
49D
100
AcDbEntity
  8
6_ALL_SURFS
100
AcDbCircle
 62
7
  6
CONTINUOUS
 10
505.9675843425
 20
877.536271324
 40
4.7990381057
100
AcDbArc
 50
133.171184019
 51
172.8177973595
  0
CIRCLE
  5
49E
100
AcDbEntity
  8
6_ALL_SURFS
100
AcDbCircle
 62
7
  6
CONTINUOUS
 10
1005.9675843425
 20
877.536271324
 40
3.5
  0
CIRCLE
  5
49F
100
AcDbEntity
  8
6_ALL_SURFS
100
AcDbCircle
 62
7
  6
CONTINUOUS
 10
755.9675843425
 20
877.536271324
 40
3.5
  0
CIRCLE
  5
4A0
100
AcDbEntity
  8
6_ALL_SURFS
100
AcDbCircle
 62
7
  6
CONTINUOUS
 10
505.9675843425
 20
877.536271324
 40
3.5
  0
ARC
  5
4A1
100
AcDbEntity
  8
7_ALL_FEATURES
100
AcDbCircle
 62
7
  6
CONTINUOUS
 10
1755.9675843425
 20
807.436271324
 40
4.7990381057
100
AcDbArc
 50
38.6913826582
 51
141.3086173418
  0
ARC
  5
4A2
100
AcDbEntity
  8
7_ALL_FEATURES
100
AcDbCircle
 62
7
  6
CONTINUOUS
 10
1505.9675843425
 20
807.436271324
 40
4.7990381057
100
AcDbArc
 50
38.6913826582
 51
141.3086173418
  0
ARC
  5
4A3
100
AcDbEntity
  8
7_ALL_FEATURES
100
AcDbCircle
 62
7
  6
CONTINUOUS
 10
1255.9675843425
 20
807.436271324
 40
4.7990381057
100
AcDbArc
 50
38.6913826582
 51
141.3086173418
  0
ARC
  5
4A4
100
AcDbEntity
  8
7_ALL_FEATURES
100
AcDbCircle
 62
7
  6
CONTINUOUS
 10
2005.9675843425
 20
807.436271324
 40
4.7990381057
100
AcDbArc
 50
38.6913826582
 51
141.3086173418
  0
ARC
  5
4A5
100
AcDbEntity
  8
7_ALL_FEATURES
100
AcDbCircle
 62
7
  6
CONTINUOUS
 10
1255.9675843425
 20
807.436271324
 40
4.7990381057
100
AcDbArc
 50
149.9933694481
 51
180.0
  0
ARC
  5
4A6
100
AcDbEntity
  8
7_ALL_FEATURES
100
AcDbCircle
 62
7
  6
CONTINUOUS
 10
1505.9675843425
 20
807.436271324
 40
4.7990381057
100
AcDbArc
 50
149.9933694481
 51
180.0
  0
ARC
  5
4A7
100
AcDbEntity
  8
7_ALL_FEATURES
100
AcDbCircle
 62
7
  6
CONTINUOUS
 10
1255.9675843425
 20
807.436271324
 40
4.7990381057
100
AcDbArc
 50
0.0
 51
30.0066305519
  0
ARC
  5
4A8
100
AcDbEntity
  8
7_ALL_FEATURES
100
AcDbCircle
 62
7
  6
CONTINUOUS
 10
1755.9675843425
 20
807.436271324
 40
4.7990381057
100
AcDbArc
 50
149.9933694481
 51
180.0
  0
ARC
  5
4A9
100
AcDbEntity
  8
7_ALL_FEATURES
100
AcDbCircle
 62
7
  6
CONTINUOUS
 10
1505.9675843425
 20
807.436271324
 40
4.7990381057
100
AcDbArc
 50
0.0
 51
30.0066305519
  0
ARC
  5
4AA
100
AcDbEntity
  8
7_ALL_FEATURES
100
AcDbCircle
 62
7
  6
CONTINUOUS
 10
2005.9675843425
 20
807.436271324
 40
4.7990381057
100
AcDbArc
 50
149.9933694481
 51
180.0
  0
ARC
  5
4AB
100
AcDbEntity
  8
7_ALL_FEATURES
100
AcDbCircle
 62
7
  6
CONTINUOUS
 10
1755.9675843425
 20
807.436271324
 40
4.7990381057
100
AcDbArc
 50
0.0
 51
30.0066305519
  0
ARC
  5
4AC
100
AcDbEntity
  8
7_ALL_FEATURES
100
AcDbCircle
 62
7
  6
CONTINUOUS
 10
2005.9675843425
 20
807.436271324
 40
4.7990381057
100
AcDbArc
 50
0.0
 51
30.0066305519
  0
ARC
  5
4AD
100
AcDbEntity
  8
7_ALL_FEATURES
100
AcDbCircle
 62
7
  6
CONTINUOUS
 10
1255.9675843425
 20
807.436271324
 40
4.7990381057
100
AcDbArc
 50
187.1822026405
 51
226.828815981
  0
ARC
  5
4AE
100
AcDbEntity
  8
7_ALL_FEATURES
100
AcDbCircle
 62
7
  6
CONTINUOUS
 10
1505.9675843425
 20
807.436271324
 40
4.7990381057
100
AcDbArc
 50
187.1822026405
 51
226.828815981
  0
ARC
  5
4AF
100
AcDbEntity
  8
7_ALL_FEATURES
100
AcDbCircle
 62
7
  6
CONTINUOUS
 10
1255.9675843425
 20
807.436271324
 40
4.7990381057
100
AcDbArc
 50
313.171184019
 51
352.8177973595
  0
ARC
  5
4B0
100
AcDbEntity
  8
7_ALL_FEATURES
100
AcDbCircle
 62
7
  6
CONTINUOUS
 10
1755.9675843425
 20
807.436271324
 40
4.7990381057
100
AcDbArc
 50
187.1822026405
 51
226.828815981
  0
ARC
  5
4B1
100
AcDbEntity
  8
7_ALL_FEATURES
100
AcDbCircle
 62
7
  6
CONTINUOUS
 10
1505.9675843425
 20
807.436271324
 40
4.7990381057
100
AcDbArc
 50
313.171184019
 51
352.8177973595
  0
ARC
  5
4B2
100
AcDbEntity
  8
7_ALL_FEATURES
100
AcDbCircle
 62
7
  6
CONTINUOUS
 10
2005.9675843425
 20
807.436271324
 40
4.7990381057
100
AcDbArc
 50
187.1822026405
 51
226.828815981
  0
ARC
  5
4B3
100
AcDbEntity
  8
7_ALL_FEATURES
100
AcDbCircle
 62
7
  6
CONTINUOUS
 10
1755.9675843425
 20
807.436271324
 40
4.7990381057
100
AcDbArc
 50
313.171184019
 51
352.8177973595
  0
ARC
  5
4B4
100
AcDbEntity
  8
7_ALL_FEATURES
100
AcDbCircle
 62
7
  6
CONTINUOUS
 10
2005.9675843425
 20
807.436271324
 40
4.7990381057
100
AcDbArc
 50
313.171184019
 51
352.8177973595
  0
CIRCLE
  5
4B5
100
AcDbEntity
  8
6_ALL_SURFS
100
AcDbCircle
 62
7
  6
CONTINUOUS
 10
2005.9675843425
 20
807.436271324
 40
3.5
  0
CIRCLE
  5
4B6
100
AcDbEntity
  8
6_ALL_SURFS
100
AcDbCircle
 62
7
  6
CONTINUOUS
 10
1755.9675843425
 20
807.436271324
 40
3.5
  0
CIRCLE
  5
4B7
100
AcDbEntity
  8
6_ALL_SURFS
100
AcDbCircle
 62
7
  6
CONTINUOUS
 10
1505.9675843425
 20
807.436271324
 40
3.5
  0
CIRCLE
  5
4B8
100
AcDbEntity
  8
6_ALL_SURFS
100
AcDbCircle
 62
7
  6
CONTINUOUS
 10
1255.9675843425
 20
807.436271324
 40
3.5
  0
ARC
  5
4B9
100
AcDbEntity
  8
6_ALL_SURFS
100
AcDbCircle
 62
7
  6
CONTINUOUS
 10
1505.9675843425
 20
877.536271324
 40
4.7990381057
100
AcDbArc
 50
329.9933694481
 51
360.0
  0
ARC
  5
4BA
100
AcDbEntity
  8
6_ALL_SURFS
100
AcDbCircle
 62
7
  6
CONTINUOUS
 10
1755.9675843425
 20
877.536271324
 40
4.7990381057
100
AcDbArc
 50
180.0
 51
210.0066305519
  0
ARC
  5
4BB
100
AcDbEntity
  8
6_ALL_SURFS
100
AcDbCircle
 62
7
  6
CONTINUOUS
 10
1255.9675843425
 20
877.536271324
 40
4.7990381057
100
AcDbArc
 50
329.9933694481
 51
360.0
  0
ARC
  5
4BC
100
AcDbEntity
  8
6_ALL_SURFS
100
AcDbCircle
 62
7
  6
CONTINUOUS
 10
1505.9675843425
 20
877.536271324
 40
4.7990381057
100
AcDbArc
 50
180.0
 51
210.0066305519
  0
ARC
  5
4BD
100
AcDbEntity
  8
6_ALL_SURFS
100
AcDbCircle
 62
7
  6
CONTINUOUS
 10
2005.9675843425
 20
877.536271324
 40
4.7990381057
100
AcDbArc
 50
7.1822026405
 51
46.828815981
  0
ARC
  5
4BE
100
AcDbEntity
  8
6_ALL_SURFS
100
AcDbCircle
 62
7
  6
CONTINUOUS
 10
1755.9675843425
 20
877.536271324
 40
4.7990381057
100
AcDbArc
 50
7.1822026405
 51
46.828815981
  0
ARC
  5
4BF
100
AcDbEntity
  8
6_ALL_SURFS
100
AcDbCircle
 62
7
  6
CONTINUOUS
 10
1255.9675843425
 20
877.536271324
 40
4.7990381057
100
AcDbArc
 50
180.0
 51
210.0066305519
  0
ARC
  5
4C0
100
AcDbEntity
  8
6_ALL_SURFS
100
AcDbCircle
 62
7
  6
CONTINUOUS
 10
2005.9675843425
 20
877.536271324
 40
4.7990381057
100
AcDbArc
 50
133.171184019
 51
172.8177973595
  0
ARC
  5
4C1
100
AcDbEntity
  8
6_ALL_SURFS
100
AcDbCircle
 62
7
  6
CONTINUOUS
 10
1505.9675843425
 20
877.536271324
 40
4.7990381057
100
AcDbArc
 50
7.1822026405
 51
46.828815981
  0
ARC
  5
4C2
100
AcDbEntity
  8
6_ALL_SURFS
100
AcDbCircle
 62
7
  6
CONTINUOUS
 10
1755.9675843425
 20
877.536271324
 40
4.7990381057
100
AcDbArc
 50
133.171184019
 51
172.8177973595
  0
ARC
  5
4C3
100
AcDbEntity
  8
6_ALL_SURFS
100
AcDbCircle
 62
7
  6
CONTINUOUS
 10
1255.9675843425
 20
877.536271324
 40
4.7990381057
100
AcDbArc
 50
7.1822026405
 51
46.828815981
  0
ARC
  5
4C4
100
AcDbEntity
  8
6_ALL_SURFS
100
AcDbCircle
 62
7
  6
CONTINUOUS
 10
1755.9675843425
 20
877.536271324
 40
4.7990381057
100
AcDbArc
 50
218.6913826582
 51
321.3086173418
  0
ARC
  5
4C5
100
AcDbEntity
  8
6_ALL_SURFS
100
AcDbCircle
 62
7
  6
CONTINUOUS
 10
1505.9675843425
 20
877.536271324
 40
4.7990381057
100
AcDbArc
 50
218.6913826582
 51
321.3086173418
  0
ARC
  5
4C6
100
AcDbEntity
  8
6_ALL_SURFS
100
AcDbCircle
 62
7
  6
CONTINUOUS
 10
1505.9675843425
 20
877.536271324
 40
4.7990381057
100
AcDbArc
 50
133.171184019
 51
172.8177973595
  0
ARC
  5
4C7
100
AcDbEntity
  8
6_ALL_SURFS
100
AcDbCircle
 62
7
  6
CONTINUOUS
 10
1255.9675843425
 20
877.536271324
 40
4.7990381057
100
AcDbArc
 50
218.6913826582
 51
321.3086173418
  0
ARC
  5
4C8
100
AcDbEntity
  8
6_ALL_SURFS
100
AcDbCircle
 62
7
  6
CONTINUOUS
 10
1255.9675843425
 20
877.536271324
 40
4.7990381057
100
AcDbArc
 50
133.171184019
 51
172.8177973595
  0
ARC
  5
4C9
100
AcDbEntity
  8
6_ALL_SURFS
100
AcDbCircle
 62
7
  6
CONTINUOUS
 10
2005.9675843425
 20
877.536271324
 40
4.7990381057
100
AcDbArc
 50
218.6913826582
 51
321.3086173418
  0
ARC
  5
4CA
100
AcDbEntity
  8
6_ALL_SURFS
100
AcDbCircle
 62
7
  6
CONTINUOUS
 10
2005.9675843425
 20
877.536271324
 40
4.7990381057
100
AcDbArc
 50
329.9933694481
 51
360.0
  0
ARC
  5
4CB
100
AcDbEntity
  8
6_ALL_SURFS
100
AcDbCircle
 62
7
  6
CONTINUOUS
 10
1755.9675843425
 20
877.536271324
 40
4.7990381057
100
AcDbArc
 50
329.9933694481
 51
360.0
  0
ARC
  5
4CC
100
AcDbEntity
  8
6_ALL_SURFS
100
AcDbCircle
 62
7
  6
CONTINUOUS
 10
2005.9675843425
 20
877.536271324
 40
4.7990381057
100
AcDbArc
 50
180.0
 51
210.0066305519
  0
CIRCLE
  5
4CD
100
AcDbEntity
  8
6_ALL_SURFS
100
AcDbCircle
 62
7
  6
CONTINUOUS
 10
2005.9675843425
 20
877.536271324
 40
3.5
  0
CIRCLE
  5
4CE
100
AcDbEntity
  8
6_ALL_SURFS
100
AcDbCircle
 62
7
  6
CONTINUOUS
 10
1755.9675843425
 20
877.536271324
 40
3.5
  0
CIRCLE
  5
4CF
100
AcDbEntity
  8
6_ALL_SURFS
100
AcDbCircle
 62
7
  6
CONTINUOUS
 10
1505.9675843425
 20
877.536271324
 40
3.5
  0
CIRCLE
  5
4D0
100
AcDbEntity
  8
6_ALL_SURFS
100
AcDbCircle
 62
7
  6
CONTINUOUS
 10
1255.9675843425
 20
877.536271324
 40
3.5
  0
SPLINE
  5
4D1
100
AcDbEntity
  8
6_ALL_SURFS
100
AcDbSpline
 62
7
  6
CONTINUOUS
 70
0
 71
3
 72
11
 73
7
 74
0
 42
0.0000001
 43
0.0000001
 44
0.0000000001
 40
0.0
 40
0.0
 40
0.0
 40
0.0
 40
0.2307319972
 40
0.4894056152
 40
0.747586031
 40
1.0
 40
1.0
 40
1.0
 40
1.0
 10
2009.7133508514
 20
874.536271324
 30
0.0
 10
2009.67208565
 20
874.5840645941
 30
0.0
 10
2009.6377419227
 20
874.7383126792
 30
0.0
 10
2009.7742996738
 20
874.9085561599
 30
0.0
 10
2009.9377935103
 20
875.0382486195
 30
0.0
 10
2010.061153789
 20
875.1063129055
 30
0.0
 10
2010.1233955436
 20
875.136271324
 30
0.0
  0
SPLINE
  5
4D2
100
AcDbEntity
  8
6_ALL_SURFS
100
AcDbSpline
 62
7
  6
CONTINUOUS
 70
0
 71
3
 72
11
 73
7
 74
0
 42
0.0000001
 43
0.0000001
 44
0.0000000001
 40
0.0
 40
0.0
 40
0.0
 40
0.0
 40
0.2307319972
 40
0.4894056152
 40
0.747586031
 40
1.0
 40
1.0
 40
1.0
 40
1.0
 10
1759.7133508514
 20
874.536271324
 30
0.0
 10
1759.67208565
 20
874.5840645941
 30
0.0
 10
1759.6377419227
 20
874.7383126792
 30
0.0
 10
1759.7742996738
 20
874.9085561599
 30
0.0
 10
1759.9377935103
 20
875.0382486195
 30
0.0
 10
1760.061153789
 20
875.1063129055
 30
0.0
 10
1760.1233955436
 20
875.136271324
 30
0.0
  0
SPLINE
  5
4D3
100
AcDbEntity
  8
6_ALL_SURFS
100
AcDbSpline
 62
7
  6
CONTINUOUS
 70
0
 71
3
 72
11
 73
7
 74
0
 42
0.0000001
 43
0.0000001
 44
0.0000000001
 40
0.0
 40
0.0
 40
0.0
 40
0.0
 40
0.2524140544
 40
0.5105945874
 40
0.7692677849
 40
1.0
 40
1.0
 40
1.0
 40
1.0
 10
2001.8117731413
 20
875.136271324
 30
0.0
 10
2001.8740149134
 20
875.1063128971
 30
0.0
 10
2001.9973752336
 20
875.0382485931
 30
0.0
 10
2002.1608689963
 20
874.9085561197
 30
0.0
 10
2002.2974266477
 20
874.7383127205
 30
0.0
 10
2002.2630830716
 20
874.5840646365
 30
0.0
 10
2002.2218178335
 20
874.536271324
 30
0.0
  0
SPLINE
  5
4D4
100
AcDbEntity
  8
6_ALL_SURFS
100
AcDbSpline
 62
7
  6
CONTINUOUS
 70
0
 71
3
 72
11
 73
7
 74
0
 42
0.0000001
 43
0.0000001
 44
0.0000000001
 40
0.0
 40
0.0
 40
0.0
 40
0.0
 40
0.2307319972
 40
0.4894056152
 40
0.747586031
 40
1.0
 40
1.0
 40
1.0
 40
1.0
 10
1509.7133508514
 20
874.536271324
 30
0.0
 10
1509.67208565
 20
874.5840645941
 30
0.0
 10
1509.6377419227
 20
874.7383126792
 30
0.0
 10
1509.7742996738
 20
874.9085561599
 30
0.0
 10
1509.9377935103
 20
875.0382486195
 30
0.0
 10
1510.061153789
 20
875.1063129055
 30
0.0
 10
1510.1233955436
 20
875.136271324
 30
0.0
  0
SPLINE
  5
4D5
100
AcDbEntity
  8
6_ALL_SURFS
100
AcDbSpline
 62
7
  6
CONTINUOUS
 70
0
 71
3
 72
11
 73
7
 74
0
 42
0.0000001
 43
0.0000001
 44
0.0000000001
 40
0.0
 40
0.0
 40
0.0
 40
0.0
 40
0.2524140544
 40
0.5105945874
 40
0.7692677849
 40
1.0
 40
1.0
 40
1.0
 40
1.0
 10
1751.8117731413
 20
875.136271324
 30
0.0
 10
1751.8740149134
 20
875.1063128971
 30
0.0
 10
1751.9973752337
 20
875.0382485931
 30
0.0
 10
1752.1608689963
 20
874.9085561197
 30
0.0
 10
1752.2974266477
 20
874.7383127205
 30
0.0
 10
1752.2630830716
 20
874.5840646365
 30
0.0
 10
1752.2218178335
 20
874.536271324
 30
0.0
  0
SPLINE
  5
4D6
100
AcDbEntity
  8
6_ALL_SURFS
100
AcDbSpline
 62
7
  6
CONTINUOUS
 70
0
 71
3
 72
11
 73
7
 74
0
 42
0.0000001
 43
0.0000001
 44
0.0000000001
 40
0.0
 40
0.0
 40
0.0
 40
0.0
 40
0.2307319972
 40
0.4894056152
 40
0.747586031
 40
1.0
 40
1.0
 40
1.0
 40
1.0
 10
1259.7133508514
 20
874.536271324
 30
0.0
 10
1259.67208565
 20
874.5840645941
 30
0.0
 10
1259.6377419227
 20
874.7383126792
 30
0.0
 10
1259.7742996738
 20
874.9085561599
 30
0.0
 10
1259.9377935103
 20
875.0382486195
 30
0.0
 10
1260.061153789
 20
875.1063129055
 30
0.0
 10
1260.1233955436
 20
875.136271324
 30
0.0
  0
SPLINE
  5
4D7
100
AcDbEntity
  8
6_ALL_SURFS
100
AcDbSpline
 62
7
  6
CONTINUOUS
 70
0
 71
3
 72
11
 73
7
 74
0
 42
0.0000001
 43
0.0000001
 44
0.0000000001
 40
0.0
 40
0.0
 40
0.0
 40
0.0
 40
0.2524140544
 40
0.5105945874
 40
0.7692677849
 40
1.0
 40
1.0
 40
1.0
 40
1.0
 10
1501.8117731413
 20
875.136271324
 30
0.0
 10
1501.8740149134
 20
875.1063128971
 30
0.0
 10
1501.9973752336
 20
875.0382485931
 30
0.0
 10
1502.1608689963
 20
874.9085561197
 30
0.0
 10
1502.2974266477
 20
874.7383127205
 30
0.0
 10
1502.2630830716
 20
874.5840646365
 30
0.0
 10
1502.2218178335
 20
874.536271324
 30
0.0
  0
SPLINE
  5
4D8
100
AcDbEntity
  8
6_ALL_SURFS
100
AcDbSpline
 62
7
  6
CONTINUOUS
 70
0
 71
3
 72
11
 73
7
 74
0
 42
0.0000001
 43
0.0000001
 44
0.0000000001
 40
0.0
 40
0.0
 40
0.0
 40
0.0
 40
0.2307319972
 40
0.4894056152
 40
0.747586031
 40
1.0
 40
1.0
 40
1.0
 40
1.0
 10
1009.7133508514
 20
874.536271324
 30
0.0
 10
1009.67208565
 20
874.5840645941
 30
0.0
 10
1009.6377419227
 20
874.7383126792
 30
0.0
 10
1009.7742996738
 20
874.9085561599
 30
0.0
 10
1009.9377935103
 20
875.0382486195
 30
0.0
 10
1010.061153789
 20
875.1063129055
 30
0.0
 10
1010.1233955436
 20
875.136271324
 30
0.0
  0
SPLINE
  5
4D9
100
AcDbEntity
  8
6_ALL_SURFS
100
AcDbSpline
 62
7
  6
CONTINUOUS
 70
0
 71
3
 72
11
 73
7
 74
0
 42
0.0000001
 43
0.0000001
 44
0.0000000001
 40
0.0
 40
0.0
 40
0.0
 40
0.0
 40
0.2524140544
 40
0.5105945874
 40
0.7692677849
 40
1.0
 40
1.0
 40
1.0
 40
1.0
 10
1251.8117731413
 20
875.136271324
 30
0.0
 10
1251.8740149134
 20
875.1063128971
 30
0.0
 10
1251.9973752336
 20
875.0382485931
 30
0.0
 10
1252.1608689963
 20
874.9085561197
 30
0.0
 10
1252.2974266477
 20
874.7383127205
 30
0.0
 10
1252.2630830716
 20
874.5840646365
 30
0.0
 10
1252.2218178335
 20
874.536271324
 30
0.0
  0
SPLINE
  5
4DA
100
AcDbEntity
  8
6_ALL_SURFS
100
AcDbSpline
 62
7
  6
CONTINUOUS
 70
0
 71
3
 72
11
 73
7
 74
0
 42
0.0000001
 43
0.0000001
 44
0.0000000001
 40
0.0
 40
0.0
 40
0.0
 40
0.0
 40
0.2307319972
 40
0.4894056152
 40
0.747586031
 40
1.0
 40
1.0
 40
1.0
 40
1.0
 10
759.7133508514
 20
874.536271324
 30
0.0
 10
759.67208565
 20
874.5840645941
 30
0.0
 10
759.6377419227
 20
874.7383126792
 30
0.0
 10
759.7742996738
 20
874.9085561599
 30
0.0
 10
759.9377935103
 20
875.0382486195
 30
0.0
 10
760.061153789
 20
875.1063129055
 30
0.0
 10
760.1233955436
 20
875.136271324
 30
0.0
  0
SPLINE
  5
4DB
100
AcDbEntity
  8
6_ALL_SURFS
100
AcDbSpline
 62
7
  6
CONTINUOUS
 70
0
 71
3
 72
11
 73
7
 74
0
 42
0.0000001
 43
0.0000001
 44
0.0000000001
 40
0.0
 40
0.0
 40
0.0
 40
0.0
 40
0.2524140544
 40
0.5105945874
 40
0.7692677849
 40
1.0
 40
1.0
 40
1.0
 40
1.0
 10
1001.8117731413
 20
875.136271324
 30
0.0
 10
1001.8740149134
 20
875.1063128971
 30
0.0
 10
1001.9973752336
 20
875.0382485931
 30
0.0
 10
1002.1608689963
 20
874.9085561197
 30
0.0
 10
1002.2974266477
 20
874.7383127205
 30
0.0
 10
1002.2630830716
 20
874.5840646365
 30
0.0
 10
1002.2218178335
 20
874.536271324
 30
0.0
  0
SPLINE
  5
4DC
100
AcDbEntity
  8
6_ALL_SURFS
100
AcDbSpline
 62
7
  6
CONTINUOUS
 70
0
 71
3
 72
11
 73
7
 74
0
 42
0.0000001
 43
0.0000001
 44
0.0000000001
 40
0.0
 40
0.0
 40
0.0
 40
0.0
 40
0.2307319972
 40
0.4894056152
 40
0.747586031
 40
1.0
 40
1.0
 40
1.0
 40
1.0
 10
509.7133508514
 20
874.536271324
 30
0.0
 10
509.67208565
 20
874.5840645941
 30
0.0
 10
509.6377419227
 20
874.7383126792
 30
0.0
 10
509.7742996738
 20
874.9085561599
 30
0.0
 10
509.9377935103
 20
875.0382486195
 30
0.0
 10
510.061153789
 20
875.1063129055
 30
0.0
 10
510.1233955436
 20
875.136271324
 30
0.0
  0
SPLINE
  5
4DD
100
AcDbEntity
  8
6_ALL_SURFS
100
AcDbSpline
 62
7
  6
CONTINUOUS
 70
0
 71
3
 72
11
 73
7
 74
0
 42
0.0000001
 43
0.0000001
 44
0.0000000001
 40
0.0
 40
0.0
 40
0.0
 40
0.0
 40
0.2524140544
 40
0.5105945874
 40
0.7692677849
 40
1.0
 40
1.0
 40
1.0
 40
1.0
 10
751.8117731413
 20
875.136271324
 30
0.0
 10
751.8740149134
 20
875.1063128971
 30
0.0
 10
751.9973752336
 20
875.0382485931
 30
0.0
 10
752.1608689963
 20
874.9085561197
 30
0.0
 10
752.2974266477
 20
874.7383127205
 30
0.0
 10
752.2630830716
 20
874.5840646365
 30
0.0
 10
752.2218178335
 20
874.536271324
 30
0.0
  0
SPLINE
  5
4DE
100
AcDbEntity
  8
6_ALL_SURFS
100
AcDbSpline
 62
7
  6
CONTINUOUS
 70
0
 71
3
 72
11
 73
7
 74
0
 42
0.0000001
 43
0.0000001
 44
0.0000000001
 40
0.0
 40
0.0
 40
0.0
 40
0.0
 40
0.2524140544
 40
0.5105945874
 40
0.7692677849
 40
1.0
 40
1.0
 40
1.0
 40
1.0
 10
501.8117731413
 20
875.136271324
 30
0.0
 10
501.8740149134
 20
875.1063128971
 30
0.0
 10
501.9973752336
 20
875.0382485931
 30
0.0
 10
502.1608689963
 20
874.9085561197
 30
0.0
 10
502.2974266477
 20
874.7383127205
 30
0.0
 10
502.2630830716
 20
874.5840646365
 30
0.0
 10
502.2218178335
 20
874.536271324
 30
0.0
  0
SPLINE
  5
4DF
100
AcDbEntity
  8
7_ALL_FEATURES
100
AcDbSpline
 62
7
  6
CONTINUOUS
 70
0
 71
3
 72
11
 73
7
 74
0
 42
0.0000001
 43
0.0000001
 44
0.0000000001
 40
0.0
 40
0.0
 40
0.0
 40
0.0
 40
0.2524140544
 40
0.5105945874
 40
0.7692677849
 40
1.0
 40
1.0
 40
1.0
 40
1.0
 10
501.8117731413
 20
809.836271324
 30
0.0
 10
501.8740149134
 20
809.8662297509
 30
0.0
 10
501.9973752336
 20
809.934294055
 30
0.0
 10
502.1608689963
 20
810.0639865283
 30
0.0
 10
502.2974266477
 20
810.2342299275
 30
0.0
 10
502.2630830716
 20
810.3884780115
 30
0.0
 10
502.2218178335
 20
810.436271324
 30
0.0
  0
SPLINE
  5
4E0
100
AcDbEntity
  8
7_ALL_FEATURES
100
AcDbSpline
 62
7
  6
CONTINUOUS
 70
0
 71
3
 72
11
 73
7
 74
0
 42
0.0000001
 43
0.0000001
 44
0.0000000001
 40
0.0
 40
0.0
 40
0.0
 40
0.0
 40
0.2524140544
 40
0.5105945874
 40
0.7692677849
 40
1.0
 40
1.0
 40
1.0
 40
1.0
 10
751.8117731413
 20
809.836271324
 30
0.0
 10
751.8740149134
 20
809.8662297509
 30
0.0
 10
751.9973752336
 20
809.934294055
 30
0.0
 10
752.1608689963
 20
810.0639865283
 30
0.0
 10
752.2974266477
 20
810.2342299275
 30
0.0
 10
752.2630830716
 20
810.3884780115
 30
0.0
 10
752.2218178335
 20
810.436271324
 30
0.0
  0
SPLINE
  5
4E1
100
AcDbEntity
  8
7_ALL_FEATURES
100
AcDbSpline
 62
7
  6
CONTINUOUS
 70
0
 71
3
 72
11
 73
7
 74
0
 42
0.0000001
 43
0.0000001
 44
0.0000000001
 40
0.0
 40
0.0
 40
0.0
 40
0.0
 40
0.2307319972
 40
0.4894056152
 40
0.747586031
 40
1.0
 40
1.0
 40
1.0
 40
1.0
 10
509.7133508514
 20
810.436271324
 30
0.0
 10
509.67208565
 20
810.3884780539
 30
0.0
 10
509.6377419227
 20
810.2342299688
 30
0.0
 10
509.7742996738
 20
810.0639864881
 30
0.0
 10
509.9377935103
 20
809.9342940285
 30
0.0
 10
510.061153789
 20
809.8662297425
 30
0.0
 10
510.1233955436
 20
809.836271324
 30
0.0
  0
SPLINE
  5
4E2
100
AcDbEntity
  8
7_ALL_FEATURES
100
AcDbSpline
 62
7
  6
CONTINUOUS
 70
0
 71
3
 72
11
 73
7
 74
0
 42
0.0000001
 43
0.0000001
 44
0.0000000001
 40
0.0
 40
0.0
 40
0.0
 40
0.0
 40
0.2524140544
 40
0.5105945874
 40
0.7692677849
 40
1.0
 40
1.0
 40
1.0
 40
1.0
 10
1001.8117731413
 20
809.836271324
 30
0.0
 10
1001.8740149134
 20
809.8662297509
 30
0.0
 10
1001.9973752336
 20
809.934294055
 30
0.0
 10
1002.1608689963
 20
810.0639865283
 30
0.0
 10
1002.2974266477
 20
810.2342299275
 30
0.0
 10
1002.2630830716
 20
810.3884780115
 30
0.0
 10
1002.2218178335
 20
810.436271324
 30
0.0
  0
SPLINE
  5
4E3
100
AcDbEntity
  8
7_ALL_FEATURES
100
AcDbSpline
 62
7
  6
CONTINUOUS
 70
0
 71
3
 72
11
 73
7
 74
0
 42
0.0000001
 43
0.0000001
 44
0.0000000001
 40
0.0
 40
0.0
 40
0.0
 40
0.0
 40
0.2307319972
 40
0.4894056152
 40
0.747586031
 40
1.0
 40
1.0
 40
1.0
 40
1.0
 10
759.7133508514
 20
810.436271324
 30
0.0
 10
759.67208565
 20
810.3884780539
 30
0.0
 10
759.6377419227
 20
810.2342299688
 30
0.0
 10
759.7742996738
 20
810.0639864881
 30
0.0
 10
759.9377935103
 20
809.9342940285
 30
0.0
 10
760.061153789
 20
809.8662297425
 30
0.0
 10
760.1233955436
 20
809.836271324
 30
0.0
  0
SPLINE
  5
4E4
100
AcDbEntity
  8
7_ALL_FEATURES
100
AcDbSpline
 62
7
  6
CONTINUOUS
 70
0
 71
3
 72
11
 73
7
 74
0
 42
0.0000001
 43
0.0000001
 44
0.0000000001
 40
0.0
 40
0.0
 40
0.0
 40
0.0
 40
0.2524140544
 40
0.5105945874
 40
0.7692677849
 40
1.0
 40
1.0
 40
1.0
 40
1.0
 10
1251.8117731413
 20
809.836271324
 30
0.0
 10
1251.8740149134
 20
809.8662297509
 30
0.0
 10
1251.9973752336
 20
809.934294055
 30
0.0
 10
1252.1608689963
 20
810.0639865283
 30
0.0
 10
1252.2974266477
 20
810.2342299275
 30
0.0
 10
1252.2630830716
 20
810.3884780115
 30
0.0
 10
1252.2218178335
 20
810.436271324
 30
0.0
  0
SPLINE
  5
4E5
100
AcDbEntity
  8
7_ALL_FEATURES
100
AcDbSpline
 62
7
  6
CONTINUOUS
 70
0
 71
3
 72
11
 73
7
 74
0
 42
0.0000001
 43
0.0000001
 44
0.0000000001
 40
0.0
 40
0.0
 40
0.0
 40
0.0
 40
0.2307319972
 40
0.4894056152
 40
0.747586031
 40
1.0
 40
1.0
 40
1.0
 40
1.0
 10
1009.7133508514
 20
810.436271324
 30
0.0
 10
1009.67208565
 20
810.3884780539
 30
0.0
 10
1009.6377419227
 20
810.2342299688
 30
0.0
 10
1009.7742996738
 20
810.0639864881
 30
0.0
 10
1009.9377935103
 20
809.9342940285
 30
0.0
 10
1010.061153789
 20
809.8662297425
 30
0.0
 10
1010.1233955436
 20
809.836271324
 30
0.0
  0
SPLINE
  5
4E6
100
AcDbEntity
  8
7_ALL_FEATURES
100
AcDbSpline
 62
7
  6
CONTINUOUS
 70
0
 71
3
 72
11
 73
7
 74
0
 42
0.0000001
 43
0.0000001
 44
0.0000000001
 40
0.0
 40
0.0
 40
0.0
 40
0.0
 40
0.2524140544
 40
0.5105945874
 40
0.7692677849
 40
1.0
 40
1.0
 40
1.0
 40
1.0
 10
1501.8117731413
 20
809.836271324
 30
0.0
 10
1501.8740149134
 20
809.8662297509
 30
0.0
 10
1501.9973752336
 20
809.934294055
 30
0.0
 10
1502.1608689963
 20
810.0639865283
 30
0.0
 10
1502.2974266477
 20
810.2342299275
 30
0.0
 10
1502.2630830716
 20
810.3884780115
 30
0.0
 10
1502.2218178335
 20
810.436271324
 30
0.0
  0
SPLINE
  5
4E7
100
AcDbEntity
  8
7_ALL_FEATURES
100
AcDbSpline
 62
7
  6
CONTINUOUS
 70
0
 71
3
 72
11
 73
7
 74
0
 42
0.0000001
 43
0.0000001
 44
0.0000000001
 40
0.0
 40
0.0
 40
0.0
 40
0.0
 40
0.2307319972
 40
0.4894056152
 40
0.747586031
 40
1.0
 40
1.0
 40
1.0
 40
1.0
 10
1259.7133508514
 20
810.436271324
 30
0.0
 10
1259.67208565
 20
810.3884780539
 30
0.0
 10
1259.6377419227
 20
810.2342299688
 30
0.0
 10
1259.7742996738
 20
810.0639864881
 30
0.0
 10
1259.9377935103
 20
809.9342940285
 30
0.0
 10
1260.061153789
 20
809.8662297425
 30
0.0
 10
1260.1233955436
 20
809.836271324
 30
0.0
  0
SPLINE
  5
4E8
100
AcDbEntity
  8
7_ALL_FEATURES
100
AcDbSpline
 62
7
  6
CONTINUOUS
 70
0
 71
3
 72
11
 73
7
 74
0
 42
0.0000001
 43
0.0000001
 44
0.0000000001
 40
0.0
 40
0.0
 40
0.0
 40
0.0
 40
0.2524140544
 40
0.5105945874
 40
0.7692677849
 40
1.0
 40
1.0
 40
1.0
 40
1.0
 10
1751.8117731413
 20
809.836271324
 30
0.0
 10
1751.8740149134
 20
809.8662297509
 30
0.0
 10
1751.9973752336
 20
809.934294055
 30
0.0
 10
1752.1608689963
 20
810.0639865283
 30
0.0
 10
1752.2974266477
 20
810.2342299275
 30
0.0
 10
1752.2630830716
 20
810.3884780115
 30
0.0
 10
1752.2218178335
 20
810.436271324
 30
0.0
  0
SPLINE
  5
4E9
100
AcDbEntity
  8
7_ALL_FEATURES
100
AcDbSpline
 62
7
  6
CONTINUOUS
 70
0
 71
3
 72
11
 73
7
 74
0
 42
0.0000001
 43
0.0000001
 44
0.0000000001
 40
0.0
 40
0.0
 40
0.0
 40
0.0
 40
0.2307319972
 40
0.4894056152
 40
0.747586031
 40
1.0
 40
1.0
 40
1.0
 40
1.0
 10
1509.7133508514
 20
810.436271324
 30
0.0
 10
1509.67208565
 20
810.3884780539
 30
0.0
 10
1509.6377419227
 20
810.2342299688
 30
0.0
 10
1509.7742996738
 20
810.0639864881
 30
0.0
 10
1509.9377935103
 20
809.9342940285
 30
0.0
 10
1510.061153789
 20
809.8662297425
 30
0.0
 10
1510.1233955436
 20
809.836271324
 30
0.0
  0
SPLINE
  5
4EA
100
AcDbEntity
  8
7_ALL_FEATURES
100
AcDbSpline
 62
7
  6
CONTINUOUS
 70
0
 71
3
 72
11
 73
7
 74
0
 42
0.0000001
 43
0.0000001
 44
0.0000000001
 40
0.0
 40
0.0
 40
0.0
 40
0.0
 40
0.2524140544
 40
0.5105945874
 40
0.7692677849
 40
1.0
 40
1.0
 40
1.0
 40
1.0
 10
2001.8117731413
 20
809.836271324
 30
0.0
 10
2001.8740149134
 20
809.8662297509
 30
0.0
 10
2001.9973752336
 20
809.934294055
 30
0.0
 10
2002.1608689963
 20
810.0639865283
 30
0.0
 10
2002.2974266477
 20
810.2342299275
 30
0.0
 10
2002.2630830716
 20
810.3884780115
 30
0.0
 10
2002.2218178335
 20
810.436271324
 30
0.0
  0
SPLINE
  5
4EB
100
AcDbEntity
  8
7_ALL_FEATURES
100
AcDbSpline
 62
7
  6
CONTINUOUS
 70
0
 71
3
 72
11
 73
7
 74
0
 42
0.0000001
 43
0.0000001
 44
0.0000000001
 40
0.0
 40
0.0
 40
0.0
 40
0.0
 40
0.2307319972
 40
0.4894056152
 40
0.747586031
 40
1.0
 40
1.0
 40
1.0
 40
1.0
 10
1759.7133508514
 20
810.436271324
 30
0.0
 10
1759.67208565
 20
810.3884780539
 30
0.0
 10
1759.6377419227
 20
810.2342299688
 30
0.0
 10
1759.7742996738
 20
810.0639864881
 30
0.0
 10
1759.9377935103
 20
809.9342940285
 30
0.0
 10
1760.061153789
 20
809.8662297425
 30
0.0
 10
1760.1233955436
 20
809.836271324
 30
0.0
  0
SPLINE
  5
4EC
100
AcDbEntity
  8
7_ALL_FEATURES
100
AcDbSpline
 62
7
  6
CONTINUOUS
 70
0
 71
3
 72
11
 73
7
 74
0
 42
0.0000001
 43
0.0000001
 44
0.0000000001
 40
0.0
 40
0.0
 40
0.0
 40
0.0
 40
0.2307319972
 40
0.4894056152
 40
0.747586031
 40
1.0
 40
1.0
 40
1.0
 40
1.0
 10
2009.7133508514
 20
810.436271324
 30
0.0
 10
2009.67208565
 20
810.3884780539
 30
0.0
 10
2009.6377419227
 20
810.2342299688
 30
0.0
 10
2009.7742996738
 20
810.0639864881
 30
0.0
 10
2009.9377935103
 20
809.9342940285
 30
0.0
 10
2010.061153789
 20
809.8662297425
 30
0.0
 10
2010.1233955436
 20
809.836271324
 30
0.0
  0
SPLINE
  5
4ED
100
AcDbEntity
  8
7_ALL_FEATURES
100
AcDbSpline
 62
7
  6
CONTINUOUS
 70
0
 71
3
 72
9
 73
5
 74
0
 42
0.0000001
 43
0.0000001
 44
0.0000000001
 40
0.0
 40
0.0
 40
0.0
 40
0.0
 40
0.4966040317
 40
1.0
 40
1.0
 40
1.0
 40
1.0
 10
501.2062014824
 20
806.836271324
 30
0.0
 10
501.2927482661
 20
806.9094116538
 30
0.0
 10
501.4254055078
 20
807.1530571087
 30
0.0
 10
501.2595642146
 20
807.366205652
 30
0.0
 10
501.1685462368
 20
807.436271324
 30
0.0
  0
SPLINE
  5
4EE
100
AcDbEntity
  8
7_ALL_FEATURES
100
AcDbSpline
 62
7
  6
CONTINUOUS
 70
0
 71
3
 72
9
 73
5
 74
0
 42
0.0000001
 43
0.0000001
 44
0.0000000001
 40
0.0
 40
0.0
 40
0.0
 40
0.0
 40
0.4966040317
 40
1.0
 40
1.0
 40
1.0
 40
1.0
 10
751.2062014824
 20
806.836271324
 30
0.0
 10
751.2927482661
 20
806.9094116538
 30
0.0
 10
751.4254055078
 20
807.1530571087
 30
0.0
 10
751.2595642146
 20
807.366205652
 30
0.0
 10
751.1685462368
 20
807.436271324
 30
0.0
  0
SPLINE
  5
4EF
100
AcDbEntity
  8
7_ALL_FEATURES
100
AcDbSpline
 62
7
  6
CONTINUOUS
 70
0
 71
3
 72
9
 73
5
 74
0
 42
0.0000001
 43
0.0000001
 44
0.0000000001
 40
0.0
 40
0.0
 40
0.0
 40
0.0
 40
0.5034046685
 40
1.0
 40
1.0
 40
1.0
 40
1.0
 10
510.7666224481
 20
807.436271324
 30
0.0
 10
510.6756026568
 20
807.3662042559
 30
0.0
 10
510.5097593853
 20
807.1530529706
 30
0.0
 10
510.6424217064
 20
806.9094105656
 30
0.0
 10
510.7289672025
 20
806.836271324
 30
0.0
  0
SPLINE
  5
4F0
100
AcDbEntity
  8
7_ALL_FEATURES
100
AcDbSpline
 62
7
  6
CONTINUOUS
 70
0
 71
3
 72
9
 73
5
 74
0
 42
0.0000001
 43
0.0000001
 44
0.0000000001
 40
0.0
 40
0.0
 40
0.0
 40
0.0
 40
0.4966040317
 40
1.0
 40
1.0
 40
1.0
 40
1.0
 10
1001.2062014824
 20
806.836271324
 30
0.0
 10
1001.2927482661
 20
806.9094116538
 30
0.0
 10
1001.4254055078
 20
807.1530571087
 30
0.0
 10
1001.2595642146
 20
807.366205652
 30
0.0
 10
1001.1685462368
 20
807.436271324
 30
0.0
  0
SPLINE
  5
4F1
100
AcDbEntity
  8
7_ALL_FEATURES
100
AcDbSpline
 62
7
  6
CONTINUOUS
 70
0
 71
3
 72
9
 73
5
 74
0
 42
0.0000001
 43
0.0000001
 44
0.0000000001
 40
0.0
 40
0.0
 40
0.0
 40
0.0
 40
0.5034046685
 40
1.0
 40
1.0
 40
1.0
 40
1.0
 10
760.7666224481
 20
807.436271324
 30
0.0
 10
760.6756026568
 20
807.3662042559
 30
0.0
 10
760.5097593853
 20
807.1530529706
 30
0.0
 10
760.6424217064
 20
806.9094105656
 30
0.0
 10
760.7289672025
 20
806.836271324
 30
0.0
  0
SPLINE
  5
4F2
100
AcDbEntity
  8
7_ALL_FEATURES
100
AcDbSpline
 62
7
  6
CONTINUOUS
 70
0
 71
3
 72
9
 73
5
 74
0
 42
0.0000001
 43
0.0000001
 44
0.0000000001
 40
0.0
 40
0.0
 40
0.0
 40
0.0
 40
0.4966040317
 40
1.0
 40
1.0
 40
1.0
 40
1.0
 10
1251.2062014824
 20
806.836271324
 30
0.0
 10
1251.2927482661
 20
806.9094116538
 30
0.0
 10
1251.4254055078
 20
807.1530571087
 30
0.0
 10
1251.2595642146
 20
807.366205652
 30
0.0
 10
1251.1685462368
 20
807.436271324
 30
0.0
  0
SPLINE
  5
4F3
100
AcDbEntity
  8
7_ALL_FEATURES
100
AcDbSpline
 62
7
  6
CONTINUOUS
 70
0
 71
3
 72
9
 73
5
 74
0
 42
0.0000001
 43
0.0000001
 44
0.0000000001
 40
0.0
 40
0.0
 40
0.0
 40
0.0
 40
0.5034046685
 40
1.0
 40
1.0
 40
1.0
 40
1.0
 10
1010.7666224481
 20
807.436271324
 30
0.0
 10
1010.6756026568
 20
807.3662042559
 30
0.0
 10
1010.5097593853
 20
807.1530529706
 30
0.0
 10
1010.6424217064
 20
806.9094105656
 30
0.0
 10
1010.7289672025
 20
806.836271324
 30
0.0
  0
SPLINE
  5
4F4
100
AcDbEntity
  8
7_ALL_FEATURES
100
AcDbSpline
 62
7
  6
CONTINUOUS
 70
0
 71
3
 72
9
 73
5
 74
0
 42
0.0000001
 43
0.0000001
 44
0.0000000001
 40
0.0
 40
0.0
 40
0.0
 40
0.0
 40
0.4966040317
 40
1.0
 40
1.0
 40
1.0
 40
1.0
 10
1501.2062014824
 20
806.836271324
 30
0.0
 10
1501.2927482661
 20
806.9094116538
 30
0.0
 10
1501.4254055078
 20
807.1530571087
 30
0.0
 10
1501.2595642146
 20
807.366205652
 30
0.0
 10
1501.1685462368
 20
807.436271324
 30
0.0
  0
SPLINE
  5
4F5
100
AcDbEntity
  8
7_ALL_FEATURES
100
AcDbSpline
 62
7
  6
CONTINUOUS
 70
0
 71
3
 72
9
 73
5
 74
0
 42
0.0000001
 43
0.0000001
 44
0.0000000001
 40
0.0
 40
0.0
 40
0.0
 40
0.0
 40
0.5034046685
 40
1.0
 40
1.0
 40
1.0
 40
1.0
 10
1260.7666224481
 20
807.436271324
 30
0.0
 10
1260.6756026568
 20
807.3662042559
 30
0.0
 10
1260.5097593853
 20
807.1530529706
 30
0.0
 10
1260.6424217064
 20
806.9094105656
 30
0.0
 10
1260.7289672025
 20
806.836271324
 30
0.0
  0
SPLINE
  5
4F6
100
AcDbEntity
  8
7_ALL_FEATURES
100
AcDbSpline
 62
7
  6
CONTINUOUS
 70
0
 71
3
 72
9
 73
5
 74
0
 42
0.0000001
 43
0.0000001
 44
0.0000000001
 40
0.0
 40
0.0
 40
0.0
 40
0.0
 40
0.4966040317
 40
1.0
 40
1.0
 40
1.0
 40
1.0
 10
1751.2062014824
 20
806.836271324
 30
0.0
 10
1751.2927482661
 20
806.9094116538
 30
0.0
 10
1751.4254055078
 20
807.1530571087
 30
0.0
 10
1751.2595642146
 20
807.366205652
 30
0.0
 10
1751.1685462368
 20
807.436271324
 30
0.0
  0
SPLINE
  5
4F7
100
AcDbEntity
  8
7_ALL_FEATURES
100
AcDbSpline
 62
7
  6
CONTINUOUS
 70
0
 71
3
 72
9
 73
5
 74
0
 42
0.0000001
 43
0.0000001
 44
0.0000000001
 40
0.0
 40
0.0
 40
0.0
 40
0.0
 40
0.5034046685
 40
1.0
 40
1.0
 40
1.0
 40
1.0
 10
1510.7666224481
 20
807.436271324
 30
0.0
 10
1510.6756026568
 20
807.3662042559
 30
0.0
 10
1510.5097593853
 20
807.1530529706
 30
0.0
 10
1510.6424217064
 20
806.9094105656
 30
0.0
 10
1510.7289672025
 20
806.836271324
 30
0.0
  0
SPLINE
  5
4F8
100
AcDbEntity
  8
7_ALL_FEATURES
100
AcDbSpline
 62
7
  6
CONTINUOUS
 70
0
 71
3
 72
9
 73
5
 74
0
 42
0.0000001
 43
0.0000001
 44
0.0000000001
 40
0.0
 40
0.0
 40
0.0
 40
0.0
 40
0.4966040317
 40
1.0
 40
1.0
 40
1.0
 40
1.0
 10
2001.2062014824
 20
806.836271324
 30
0.0
 10
2001.2927482661
 20
806.9094116538
 30
0.0
 10
2001.4254055078
 20
807.1530571087
 30
0.0
 10
2001.2595642146
 20
807.366205652
 30
0.0
 10
2001.1685462368
 20
807.436271324
 30
0.0
  0
SPLINE
  5
4F9
100
AcDbEntity
  8
7_ALL_FEATURES
100
AcDbSpline
 62
7
  6
CONTINUOUS
 70
0
 71
3
 72
9
 73
5
 74
0
 42
0.0000001
 43
0.0000001
 44
0.0000000001
 40
0.0
 40
0.0
 40
0.0
 40
0.0
 40
0.5034046685
 40
1.0
 40
1.0
 40
1.0
 40
1.0
 10
1760.7666224481
 20
807.436271324
 30
0.0
 10
1760.6756026568
 20
807.3662042559
 30
0.0
 10
1760.5097593853
 20
807.1530529706
 30
0.0
 10
1760.6424217064
 20
806.9094105656
 30
0.0
 10
1760.7289672025
 20
806.836271324
 30
0.0
  0
SPLINE
  5
4FA
100
AcDbEntity
  8
7_ALL_FEATURES
100
AcDbSpline
 62
7
  6
CONTINUOUS
 70
0
 71
3
 72
9
 73
5
 74
0
 42
0.0000001
 43
0.0000001
 44
0.0000000001
 40
0.0
 40
0.0
 40
0.0
 40
0.0
 40
0.5034046685
 40
1.0
 40
1.0
 40
1.0
 40
1.0
 10
2010.7666224481
 20
807.436271324
 30
0.0
 10
2010.6756026568
 20
807.3662042559
 30
0.0
 10
2010.5097593853
 20
807.1530529706
 30
0.0
 10
2010.6424217064
 20
806.9094105656
 30
0.0
 10
2010.7289672025
 20
806.836271324
 30
0.0
  0
SPLINE
  5
4FB
100
AcDbEntity
  8
6_ALL_SURFS
100
AcDbSpline
 62
7
  6
CONTINUOUS
 70
0
 71
3
 72
9
 73
5
 74
0
 42
0.0000001
 43
0.0000001
 44
0.0000000001
 40
0.0
 40
0.0
 40
0.0
 40
0.0
 40
0.5034046685
 40
1.0
 40
1.0
 40
1.0
 40
1.0
 10
2010.7666224481
 20
877.536271324
 30
0.0
 10
2010.6756026568
 20
877.6063383921
 30
0.0
 10
2010.5097593853
 20
877.8194896774
 30
0.0
 10
2010.6424217064
 20
878.0631320824
 30
0.0
 10
2010.7289672025
 20
878.136271324
 30
0.0
  0
SPLINE
  5
4FC
100
AcDbEntity
  8
6_ALL_SURFS
100
AcDbSpline
 62
7
  6
CONTINUOUS
 70
0
 71
3
 72
9
 73
5
 74
0
 42
0.0000001
 43
0.0000001
 44
0.0000000001
 40
0.0
 40
0.0
 40
0.0
 40
0.0
 40
0.5034046685
 40
1.0
 40
1.0
 40
1.0
 40
1.0
 10
1760.7666224481
 20
877.536271324
 30
0.0
 10
1760.6756026568
 20
877.6063383921
 30
0.0
 10
1760.5097593853
 20
877.8194896774
 30
0.0
 10
1760.6424217064
 20
878.0631320824
 30
0.0
 10
1760.7289672025
 20
878.136271324
 30
0.0
  0
SPLINE
  5
4FD
100
AcDbEntity
  8
6_ALL_SURFS
100
AcDbSpline
 62
7
  6
CONTINUOUS
 70
0
 71
3
 72
9
 73
5
 74
0
 42
0.0000001
 43
0.0000001
 44
0.0000000001
 40
0.0
 40
0.0
 40
0.0
 40
0.0
 40
0.4966040317
 40
1.0
 40
1.0
 40
1.0
 40
1.0
 10
2001.2062014824
 20
878.136271324
 30
0.0
 10
2001.2927482661
 20
878.0631309943
 30
0.0
 10
2001.4254055078
 20
877.8194855393
 30
0.0
 10
2001.2595642146
 20
877.606336996
 30
0.0
 10
2001.1685462368
 20
877.536271324
 30
0.0
  0
SPLINE
  5
4FE
100
AcDbEntity
  8
6_ALL_SURFS
100
AcDbSpline
 62
7
  6
CONTINUOUS
 70
0
 71
3
 72
9
 73
5
 74
0
 42
0.0000001
 43
0.0000001
 44
0.0000000001
 40
0.0
 40
0.0
 40
0.0
 40
0.0
 40
0.5034046685
 40
1.0
 40
1.0
 40
1.0
 40
1.0
 10
1510.7666224481
 20
877.536271324
 30
0.0
 10
1510.6756026568
 20
877.6063383921
 30
0.0
 10
1510.5097593853
 20
877.8194896774
 30
0.0
 10
1510.6424217064
 20
878.0631320824
 30
0.0
 10
1510.7289672025
 20
878.136271324
 30
0.0
  0
SPLINE
  5
4FF
100
AcDbEntity
  8
6_ALL_SURFS
100
AcDbSpline
 62
7
  6
CONTINUOUS
 70
0
 71
3
 72
9
 73
5
 74
0
 42
0.0000001
 43
0.0000001
 44
0.0000000001
 40
0.0
 40
0.0
 40
0.0
 40
0.0
 40
0.4966040317
 40
1.0
 40
1.0
 40
1.0
 40
1.0
 10
1751.2062014824
 20
878.136271324
 30
0.0
 10
1751.2927482661
 20
878.0631309943
 30
0.0
 10
1751.4254055078
 20
877.8194855393
 30
0.0
 10
1751.2595642146
 20
877.606336996
 30
0.0
 10
1751.1685462368
 20
877.536271324
 30
0.0
  0
SPLINE
  5
500
100
AcDbEntity
  8
6_ALL_SURFS
100
AcDbSpline
 62
7
  6
CONTINUOUS
 70
0
 71
3
 72
9
 73
5
 74
0
 42
0.0000001
 43
0.0000001
 44
0.0000000001
 40
0.0
 40
0.0
 40
0.0
 40
0.0
 40
0.5034046685
 40
1.0
 40
1.0
 40
1.0
 40
1.0
 10
1260.7666224481
 20
877.536271324
 30
0.0
 10
1260.6756026568
 20
877.6063383921
 30
0.0
 10
1260.5097593853
 20
877.8194896774
 30
0.0
 10
1260.6424217064
 20
878.0631320824
 30
0.0
 10
1260.7289672025
 20
878.136271324
 30
0.0
  0
SPLINE
  5
501
100
AcDbEntity
  8
6_ALL_SURFS
100
AcDbSpline
 62
7
  6
CONTINUOUS
 70
0
 71
3
 72
9
 73
5
 74
0
 42
0.0000001
 43
0.0000001
 44
0.0000000001
 40
0.0
 40
0.0
 40
0.0
 40
0.0
 40
0.4966040317
 40
1.0
 40
1.0
 40
1.0
 40
1.0
 10
1501.2062014824
 20
878.136271324
 30
0.0
 10
1501.2927482661
 20
878.0631309943
 30
0.0
 10
1501.4254055078
 20
877.8194855393
 30
0.0
 10
1501.2595642146
 20
877.606336996
 30
0.0
 10
1501.1685462368
 20
877.536271324
 30
0.0
  0
SPLINE
  5
502
100
AcDbEntity
  8
6_ALL_SURFS
100
AcDbSpline
 62
7
  6
CONTINUOUS
 70
0
 71
3
 72
9
 73
5
 74
0
 42
0.0000001
 43
0.0000001
 44
0.0000000001
 40
0.0
 40
0.0
 40
0.0
 40
0.0
 40
0.5034046685
 40
1.0
 40
1.0
 40
1.0
 40
1.0
 10
1010.7666224481
 20
877.536271324
 30
0.0
 10
1010.6756026568
 20
877.6063383921
 30
0.0
 10
1010.5097593853
 20
877.8194896774
 30
0.0
 10
1010.6424217064
 20
878.0631320824
 30
0.0
 10
1010.7289672025
 20
878.136271324
 30
0.0
  0
SPLINE
  5
503
100
AcDbEntity
  8
6_ALL_SURFS
100
AcDbSpline
 62
7
  6
CONTINUOUS
 70
0
 71
3
 72
9
 73
5
 74
0
 42
0.0000001
 43
0.0000001
 44
0.0000000001
 40
0.0
 40
0.0
 40
0.0
 40
0.0
 40
0.4966040317
 40
1.0
 40
1.0
 40
1.0
 40
1.0
 10
1251.2062014824
 20
878.136271324
 30
0.0
 10
1251.2927482661
 20
878.0631309943
 30
0.0
 10
1251.4254055078
 20
877.8194855393
 30
0.0
 10
1251.2595642146
 20
877.606336996
 30
0.0
 10
1251.1685462368
 20
877.536271324
 30
0.0
  0
SPLINE
  5
504
100
AcDbEntity
  8
6_ALL_SURFS
100
AcDbSpline
 62
7
  6
CONTINUOUS
 70
0
 71
3
 72
9
 73
5
 74
0
 42
0.0000001
 43
0.0000001
 44
0.0000000001
 40
0.0
 40
0.0
 40
0.0
 40
0.0
 40
0.5034046685
 40
1.0
 40
1.0
 40
1.0
 40
1.0
 10
760.7666224481
 20
877.536271324
 30
0.0
 10
760.6756026568
 20
877.6063383921
 30
0.0
 10
760.5097593853
 20
877.8194896774
 30
0.0
 10
760.6424217064
 20
878.0631320824
 30
0.0
 10
760.7289672025
 20
878.136271324
 30
0.0
  0
SPLINE
  5
505
100
AcDbEntity
  8
6_ALL_SURFS
100
AcDbSpline
 62
7
  6
CONTINUOUS
 70
0
 71
3
 72
9
 73
5
 74
0
 42
0.0000001
 43
0.0000001
 44
0.0000000001
 40
0.0
 40
0.0
 40
0.0
 40
0.0
 40
0.4966040317
 40
1.0
 40
1.0
 40
1.0
 40
1.0
 10
1001.2062014824
 20
878.136271324
 30
0.0
 10
1001.2927482661
 20
878.0631309943
 30
0.0
 10
1001.4254055078
 20
877.8194855393
 30
0.0
 10
1001.2595642146
 20
877.606336996
 30
0.0
 10
1001.1685462368
 20
877.536271324
 30
0.0
  0
SPLINE
  5
506
100
AcDbEntity
  8
6_ALL_SURFS
100
AcDbSpline
 62
7
  6
CONTINUOUS
 70
0
 71
3
 72
9
 73
5
 74
0
 42
0.0000001
 43
0.0000001
 44
0.0000000001
 40
0.0
 40
0.0
 40
0.0
 40
0.0
 40
0.5034046685
 40
1.0
 40
1.0
 40
1.0
 40
1.0
 10
510.7666224481
 20
877.536271324
 30
0.0
 10
510.6756026568
 20
877.6063383921
 30
0.0
 10
510.5097593853
 20
877.8194896774
 30
0.0
 10
510.6424217064
 20
878.0631320824
 30
0.0
 10
510.7289672025
 20
878.136271324
 30
0.0
  0
SPLINE
  5
507
100
AcDbEntity
  8
6_ALL_SURFS
100
AcDbSpline
 62
7
  6
CONTINUOUS
 70
0
 71
3
 72
9
 73
5
 74
0
 42
0.0000001
 43
0.0000001
 44
0.0000000001
 40
0.0
 40
0.0
 40
0.0
 40
0.0
 40
0.4966040317
 40
1.0
 40
1.0
 40
1.0
 40
1.0
 10
751.2062014824
 20
878.136271324
 30
0.0
 10
751.2927482661
 20
878.0631309943
 30
0.0
 10
751.4254055078
 20
877.8194855393
 30
0.0
 10
751.2595642146
 20
877.606336996
 30
0.0
 10
751.1685462368
 20
877.536271324
 30
0.0
  0
SPLINE
  5
508
100
AcDbEntity
  8
6_ALL_SURFS
100
AcDbSpline
 62
7
  6
CONTINUOUS
 70
0
 71
3
 72
9
 73
5
 74
0
 42
0.0000001
 43
0.0000001
 44
0.0000000001
 40
0.0
 40
0.0
 40
0.0
 40
0.0
 40
0.4966040317
 40
1.0
 40
1.0
 40
1.0
 40
1.0
 10
501.2062014824
 20
878.136271324
 30
0.0
 10
501.2927482661
 20
878.0631309943
 30
0.0
 10
501.4254055078
 20
877.8194855393
 30
0.0
 10
501.2595642146
 20
877.606336996
 30
0.0
 10
501.1685462368
 20
877.536271324
 30
0.0
  0
ELLIPSE
  5
509
100
AcDbEntity
  8
6_ALL_SURFS
100
AcDbEllipse
 62
7
  6
CONTINUOUS
 10
1755.9675843425
 20
549.9176406338
 30
0.0
 11
3.5
 21
-0.0
 31
0.0
 40
0.5
 41
-1.910488903
 42
-1.2311037506
  0
ELLIPSE
  5
50A
100
AcDbEntity
  8
6_ALL_SURFS
100
AcDbEllipse
 62
7
  6
CONTINUOUS
 10
1505.9675843425
 20
549.9176406338
 30
0.0
 11
3.5
 21
0.0
 31
0.0
 40
0.5
 41
-1.910488903
 42
-1.2311037506
  0
ELLIPSE
  5
50B
100
AcDbEntity
  8
6_ALL_SURFS
100
AcDbEllipse
 62
7
  6
CONTINUOUS
 10
1255.9675843425
 20
549.9176406338
 30
0.0
 11
3.5
 21
0.0
 31
0.0
 40
0.5
 41
-1.910488903
 42
-1.2311037506
  0
ELLIPSE
  5
50C
100
AcDbEntity
  8
6_ALL_SURFS
100
AcDbEllipse
 62
7
  6
CONTINUOUS
 10
1005.9675843425
 20
549.9176406338
 30
0.0
 11
3.5
 21
0.0
 31
0.0
 40
0.5
 41
-1.910488903
 42
-1.2311037506
  0
ELLIPSE
  5
50D
100
AcDbEntity
  8
6_ALL_SURFS
100
AcDbEllipse
 62
7
  6
CONTINUOUS
 10
755.9675843425
 20
549.9176406338
 30
0.0
 11
3.5
 21
0.0
 31
0.0
 40
0.5
 41
-1.910488903
 42
-1.2311037506
  0
ELLIPSE
  5
50E
100
AcDbEntity
  8
6_ALL_SURFS
100
AcDbEllipse
 62
7
  6
CONTINUOUS
 10
505.9675843425
 20
549.9176406338
 30
0.0
 11
3.5
 21
0.0
 31
0.0
 40
0.5
 41
-1.910488903
 42
-1.2311037506
  0
ELLIPSE
  5
50F
100
AcDbEntity
  8
6_ALL_SURFS
100
AcDbEllipse
 62
7
  6
CONTINUOUS
 10
2005.9675843425
 20
549.9176406338
 30
0.0
 11
3.5
 21
0.0
 31
0.0
 40
0.5
 41
-1.910488903
 42
-1.2311037506
  0
ELLIPSE
  5
510
100
AcDbEntity
  8
6_ALL_SURFS
100
AcDbEllipse
 62
7
  6
CONTINUOUS
 10
505.9675843425
 20
546.6711233367
 30
0.0
 11
5.4882058378
 21
0.0
 31
0.0
 40
0.1015346165
 41
0.9294607698
 42
2.2121318838
  0
ELLIPSE
  5
511
100
AcDbEntity
  8
6_ALL_SURFS
100
AcDbEllipse
 62
7
  6
CONTINUOUS
 10
755.9675843425
 20
546.6711233367
 30
0.0
 11
5.4882058378
 21
0.0
 31
0.0
 40
0.1015346165
 41
0.9294607698
 42
2.2121318838
  0
ELLIPSE
  5
512
100
AcDbEntity
  8
6_ALL_SURFS
100
AcDbEllipse
 62
7
  6
CONTINUOUS
 10
1005.9675843425
 20
546.6711233367
 30
0.0
 11
5.4882058378
 21
-0.0
 31
0.0
 40
0.1015346165
 41
0.9294607698
 42
2.2121318838
  0
ELLIPSE
  5
513
100
AcDbEntity
  8
6_ALL_SURFS
100
AcDbEllipse
 62
7
  6
CONTINUOUS
 10
1255.9675843425
 20
546.6711233367
 30
0.0
 11
5.4882058378
 21
-0.0
 31
0.0
 40
0.1015346165
 41
0.9294607698
 42
2.2121318838
  0
ELLIPSE
  5
514
100
AcDbEntity
  8
6_ALL_SURFS
100
AcDbEllipse
 62
7
  6
CONTINUOUS
 10
1505.9675843425
 20
546.6711233367
 30
0.0
 11
5.4882058378
 21
-0.0
 31
0.0
 40
0.1015346165
 41
0.9294607698
 42
2.2121318838
  0
ELLIPSE
  5
515
100
AcDbEntity
  8
6_ALL_SURFS
100
AcDbEllipse
 62
7
  6
CONTINUOUS
 10
1755.9675843425
 20
546.6711233367
 30
0.0
 11
5.4882058378
 21
-0.0
 31
0.0
 40
0.1015346165
 41
0.9294607698
 42
2.2121318838
  0
ELLIPSE
  5
516
100
AcDbEntity
  8
6_ALL_SURFS
100
AcDbEllipse
 62
7
  6
CONTINUOUS
 10
2005.9675843425
 20
546.6711233367
 30
0.0
 11
5.4882058378
 21
-0.0
 31
0.0
 40
0.1015346165
 41
7.212646077
 42
8.495317191
  0
ELLIPSE
  5
517
100
AcDbEntity
  8
6_ALL_SURFS
100
AcDbEllipse
 62
7
  6
CONTINUOUS
 10
1255.9675843425
 20
876.5710983522
 30
0.0
 11
-0.0
 21
5.5724287509
 31
0.0
 40
0.9848857802
 41
-0.641335557
 42
0.641335557
  0
ELLIPSE
  5
518
100
AcDbEntity
  8
6_ALL_SURFS
100
AcDbEllipse
 62
7
  6
CONTINUOUS
 10
1505.9675843425
 20
876.5710983522
 30
0.0
 11
0.0
 21
5.5724287509
 31
0.0
 40
0.9848857802
 41
-0.641335557
 42
0.641335557
  0
ELLIPSE
  5
519
100
AcDbEntity
  8
6_ALL_SURFS
100
AcDbEllipse
 62
7
  6
CONTINUOUS
 10
1755.9675843425
 20
876.5710983522
 30
0.0
 11
-0.0
 21
5.5724287509
 31
0.0
 40
0.9848857802
 41
-0.641335557
 42
0.641335557
  0
ELLIPSE
  5
51A
100
AcDbEntity
  8
7_ALL_FEATURES
100
AcDbEllipse
 62
7
  6
CONTINUOUS
 10
2005.9675843425
 20
808.4014442958
 30
0.0
 11
-0.0
 21
5.5724287509
 31
0.0
 40
0.9848857802
 41
2.5002570966
 42
3.7829282106
  0
ELLIPSE
  5
51B
100
AcDbEntity
  8
7_ALL_FEATURES
100
AcDbEllipse
 62
7
  6
CONTINUOUS
 10
505.9675843425
 20
808.4014442958
 30
0.0
 11
0.0
 21
5.5724287509
 31
0.0
 40
0.9848857802
 41
2.5002570966
 42
3.7829282106
  0
ELLIPSE
  5
51C
100
AcDbEntity
  8
7_ALL_FEATURES
100
AcDbEllipse
 62
7
  6
CONTINUOUS
 10
755.9675843425
 20
808.4014442958
 30
0.0
 11
0.0
 21
5.5724287509
 31
0.0
 40
0.9848857802
 41
2.5002570966
 42
3.7829282106
  0
ELLIPSE
  5
51D
100
AcDbEntity
  8
7_ALL_FEATURES
100
AcDbEllipse
 62
7
  6
CONTINUOUS
 10
1005.9675843425
 20
808.4014442958
 30
0.0
 11
-0.0
 21
5.5724287509
 31
0.0
 40
0.9848857802
 41
2.5002570966
 42
3.7829282106
  0
ELLIPSE
  5
51E
100
AcDbEntity
  8
7_ALL_FEATURES
100
AcDbEllipse
 62
7
  6
CONTINUOUS
 10
1255.9675843425
 20
808.4014442958
 30
0.0
 11
-0.0
 21
5.5724287509
 31
0.0
 40
0.9848857802
 41
2.5002570966
 42
3.7829282106
  0
ELLIPSE
  5
51F
100
AcDbEntity
  8
7_ALL_FEATURES
100
AcDbEllipse
 62
7
  6
CONTINUOUS
 10
1505.9675843425
 20
808.4014442958
 30
0.0
 11
-0.0
 21
5.5724287509
 31
0.0
 40
0.9848857802
 41
2.5002570966
 42
3.7829282106
  0
ELLIPSE
  5
520
100
AcDbEntity
  8
7_ALL_FEATURES
100
AcDbEllipse
 62
7
  6
CONTINUOUS
 10
1755.9675843425
 20
808.4014442958
 30
0.0
 11
0.0
 21
5.5724287509
 31
0.0
 40
0.9848857802
 41
2.5002570966
 42
3.7829282106
  0
ELLIPSE
  5
521
100
AcDbEntity
  8
6_ALL_SURFS
100
AcDbEllipse
 62
7
  6
CONTINUOUS
 10
2005.9675843425
 20
876.5710983522
 30
0.0
 11
0.0
 21
5.5724287509
 31
0.0
 40
0.9848857802
 41
-0.641335557
 42
0.641335557
  0
ELLIPSE
  5
522
100
AcDbEntity
  8
6_ALL_SURFS
100
AcDbEllipse
 62
7
  6
CONTINUOUS
 10
505.9675843425
 20
876.5710983522
 30
0.0
 11
-0.0
 21
5.5724287509
 31
0.0
 40
0.9848857802
 41
-0.641335557
 42
0.641335557
  0
ELLIPSE
  5
523
100
AcDbEntity
  8
6_ALL_SURFS
100
AcDbEllipse
 62
7
  6
CONTINUOUS
 10
755.9675843425
 20
876.5710983522
 30
0.0
 11
-0.0
 21
5.5724287509
 31
0.0
 40
0.9848857802
 41
-0.641335557
 42
0.641335557
  0
ELLIPSE
  5
524
100
AcDbEntity
  8
6_ALL_SURFS
100
AcDbEllipse
 62
7
  6
CONTINUOUS
 10
1005.9675843425
 20
876.5710983522
 30
0.0
 11
0.0
 21
5.5724287509
 31
0.0
 40
0.9848857802
 41
-0.641335557
 42
0.641335557
  0
ENDSEC
  0
SECTION
  2
OBJECTS
  0
DICTIONARY
  5
525
100
AcDbDictionary
  3
ACAD_GROUP
350
526
  3
ACAD_MLINESTYLE
350
527
  0
DICTIONARY
  5
526
102
{ACAD_REACTORS
330
525
102
}
100
AcDbDictionary
  0
DICTIONARY
  5
527
102
{ACAD_REACTORS
330
525
102
}
100
AcDbDictionary
  3
STANDARD
350
528
  0
MLINESTYLE
  5
528
102
{ACAD_REACTORS
330
527
102
}
100
AcDbMlineStyle
  2
STANDARD
 70
0
  3

 62
256
 51
90.0
 52
90.0
 71
2
 49
0.5
 62
256
  6
BYLAYER
 49
-0.5
 62
256
  6
BYLAYER
  0
ENDSEC
  0
EOF
