999
DXF file: 6f3_c_143.dxf
999
Pro/ENGINEER 2016360 by Parametric Technology Corporation
  0
SECTION
  2
HEADER
  9
$ACADVER
  1
AC1014
  9
$DWGCODEPAGE
  3
ANSI_1252
  9
$EXTMAX
 10
3200.0
 20
2500.0
 30
0.0
  9
$EXTMIN
 10
0.0
 20
0.0
 30
0.0
  9
$LIMMIN
 10
0.0
 20
0.0
  9
$LIMMAX
 10
3200.0
 20
2500.0
  9
$VIEWCTR
 10
1600.0
 20
1250.0
  9
$VIEWSIZE
 40
2500.0
  9
$CLAYER
  8
0
  9
$LTSCALE
 40
176.0
  9
$CELTYPE
  6
BYLAYER
  9
$DIMSCALE
 40
1.0
  9
$DIMASZ
 40
2.5
  9
$DIMEXO
 40
0.75
  9
$DIMDLI
 40
121.6
  9
$DIMEXE
 40
0.75
  9
$DIMCEN
 40
28.8
  9
$DIMLFAC
 40
1.0
  9
$DIMBLK
  1
_CLOSED
  9
$DIMALT
 70
0
  9
$DIMALTF
 40
25.4
  9
$DIMTXT
 40
3.0
  9
$DIMTOL
 70
1
  9
$DIMLIM
 70
0
  9
$DIMTFAC
 40
1.0
  9
$DIMTP
 40
0.01
  9
$DIMTM
 40
0.01
  9
$DIMGAP
 40
0.625
  9
$AUNITS
 70
0
  9
$PDMODE
 70
3
  9
$PDSIZE
 40
0.3125
  9
$HANDSEED
  5
52E
  9
$TILEMODE
 70
1
  9
$MEASUREMENT
 70
1
  0
ENDSEC
  0
SECTION
  2
CLASSES
  0
ENDSEC
  0
SECTION
  2
TABLES
  0
TABLE
  2
VPORT
  5
8
100
AcDbSymbolTable
 70
2
  0
VPORT
  5
1F4
100
AcDbSymbolTableRecord
100
AcDbViewportTableRecord
  2
*ACTIVE
 70
0
 10
0.0
 20
0.0
 11
1.0
 21
1.0
 12
1600.0
 22
1250.0
 13
0.0
 23
0.0
 14
1.0
 24
1.0
 15
0.0
 25
0.0
 16
0.0
 26
0.0
 36
1.0
 17
0.0
 27
0.0
 37
0.0
 40
2500.0
 41
1.28
 42
50.0
 43
0.0
 44
0.0
 50
0.0
 51
0.0
 71
0
 72
100
 73
1
 74
1
 75
0
 76
0
 77
0
 78
0
  0
ENDTAB
  0
TABLE
  2
LTYPE
  5
5
100
AcDbSymbolTable
 70
6
  0
LTYPE
  5
14
100
AcDbSymbolTableRecord
100
AcDbLinetypeTableRecord
  2
BYBLOCK
 70
0
  3

 72
65
 73
0
 40
0.0
  0
LTYPE
  5
15
100
AcDbSymbolTableRecord
100
AcDbLinetypeTableRecord
  2
BYLAYER
 70
0
  3

 72
65
 73
0
 40
0.0
  0
LTYPE
  5
16
100
AcDbSymbolTableRecord
100
AcDbLinetypeTableRecord
  2
CONTINUOUS
 70
64
  3
Solid line
 72
65
 73
0
 40
0.0
  0
LTYPE
  5
1F5
100
AcDbSymbolTableRecord
100
AcDbLinetypeTableRecord
  2
CENTER
 70
64
  3
____ _ ____ _ ____ _ ____ _ ____ _ ____ _ ____
 72
65
 73
4
 40
0.6
 49
0.375
 74
0
 49
-0.075
 74
0
 49
0.075
 74
0
 49
-0.075
 74
0
  0
LTYPE
  5
1F6
100
AcDbSymbolTableRecord
100
AcDbLinetypeTableRecord
  2
HIDDEN
 70
64
  3
- - - - - - - - - - - - - - - - - - - -
 72
65
 73
2
 40
0.2
 49
0.1
 74
0
 49
-0.1
 74
0
  0
LTYPE
  5
1F7
100
AcDbSymbolTableRecord
100
AcDbLinetypeTableRecord
  2
PHANTOM
 70
64
  3
_____ _ _ _____ _ _ _____ _ _ _____
 72
65
 73
6
 40
0.8
 49
0.45
 74
0
 49
-0.05
 74
0
 49
0.1
 74
0
 49
-0.05
 74
0
 49
0.1
 74
0
 49
-0.05
 74
0
  0
LTYPE
  5
1F8
100
AcDbSymbolTableRecord
100
AcDbLinetypeTableRecord
  2
DOT
 70
64
  3
. . . . . . . . . . . . . . . . . . . .
 72
65
 73
2
 40
0.2
 49
0.1
 74
0
 49
-0.1
 74
0
  0
LTYPE
  5
1F9
100
AcDbSymbolTableRecord
100
AcDbLinetypeTableRecord
  2
DASHED
 70
64
  3
- - - - - - - - - - - - - - - - - - - -
 72
65
 73
2
 40
0.2
 49
0.1
 74
0
 49
-0.1
 74
0
  0
ENDTAB
  0
TABLE
  2
LAYER
  5
2
100
AcDbSymbolTable
 70
36
  0
LAYER
  5
10
100
AcDbSymbolTableRecord
100
AcDbLayerTableRecord
  2
0
 70
0
 62
7
  6
CONTINUOUS
  0
LAYER
  5
1FA
100
AcDbSymbolTableRecord
100
AcDbLayerTableRecord
  2
DEFAULT_1
 70
0
 62
7
  6
CENTER
  0
LAYER
  5
1FB
100
AcDbSymbolTableRecord
100
AcDbLayerTableRecord
  2
DEFAULT_2
 70
0
 62
8
  6
HIDDEN
  0
LAYER
  5
1FC
100
AcDbSymbolTableRecord
100
AcDbLayerTableRecord
  2
DEFAULT_3
 70
0
 62
7
  6
PHANTOM
  0
LAYER
  5
1FD
100
AcDbSymbolTableRecord
100
AcDbLayerTableRecord
  2
1_ALL_PLANES
 70
0
 62
7
  6
CONTINUOUS
  0
LAYER
  5
1FE
100
AcDbSymbolTableRecord
100
AcDbLayerTableRecord
  2
2_ALL_CSYS
 70
0
 62
7
  6
CONTINUOUS
  0
LAYER
  5
1FF
100
AcDbSymbolTableRecord
100
AcDbLayerTableRecord
  2
3_ALL_AXES
 70
0
 62
7
  6
CONTINUOUS
  0
LAYER
  5
200
100
AcDbSymbolTableRecord
100
AcDbLayerTableRecord
  2
4_ALL_POINTS
 70
0
 62
7
  6
CONTINUOUS
  0
LAYER
  5
201
100
AcDbSymbolTableRecord
100
AcDbLayerTableRecord
  2
5_ALL_CURVES
 70
0
 62
7
  6
CONTINUOUS
  0
LAYER
  5
202
100
AcDbSymbolTableRecord
100
AcDbLayerTableRecord
  2
5__COSTRUZIONE
 70
0
 62
7
  6
CONTINUOUS
  0
LAYER
  5
203
100
AcDbSymbolTableRecord
100
AcDbLayerTableRecord
  2
6_ALL_SURFS
 70
0
 62
7
  6
CONTINUOUS
  0
LAYER
  5
204
100
AcDbSymbolTableRecord
100
AcDbLayerTableRecord
  2
7_ALL_FEATURES
 70
0
 62
7
  6
CONTINUOUS
  0
LAYER
  5
205
100
AcDbSymbolTableRecord
100
AcDbLayerTableRecord
  2
9_SOLID
 70
0
 62
7
  6
CONTINUOUS
  0
LAYER
  5
206
100
AcDbSymbolTableRecord
100
AcDbLayerTableRecord
  2
PR9035
 70
0
 62
7
  6
CONTINUOUS
  0
LAYER
  5
207
100
AcDbSymbolTableRecord
100
AcDbLayerTableRecord
  2
WHITE
 70
0
 62
7
  6
CONTINUOUS
  0
LAYER
  5
208
100
AcDbSymbolTableRecord
100
AcDbLayerTableRecord
  2
XXX_SOLIDO
 70
0
 62
7
  6
CONTINUOUS
  0
ENDTAB
  0
TABLE
  2
STYLE
  5
3
100
AcDbSymbolTable
 70
1
  0
STYLE
  5
11
100
AcDbSymbolTableRecord
100
AcDbTextStyleTableRecord
  2
STANDARD
 70
0
 40
0.0
 41
1.0
 50
0.0
 71
0
 42
0.2
  3
arial.ttf
  4

  0
STYLE
  5
209
100
AcDbSymbolTableRecord
100
AcDbTextStyleTableRecord
  2
TEXTSTYLE_1
 70
0
 40
0.0
 41
0.8
 50
0.0
 71
0
 42
0.2
  3
gdt
  4

  0
STYLE
  5
20A
100
AcDbSymbolTableRecord
100
AcDbTextStyleTableRecord
  2
TEXTSTYLE_2
 70
0
 40
0.0
 41
0.85
 50
0.0
 71
0
 42
0.2
  3
txt
  4

  0
ENDTAB
  0
TABLE
  2
VIEW
  5
6
100
AcDbSymbolTable
 70
0
  0
ENDTAB
  0
TABLE
  2
UCS
  5
7
100
AcDbSymbolTable
 70
0
  0
ENDTAB
  0
TABLE
  2
APPID
  5
9
100
AcDbSymbolTable
 70
1
  0
APPID
  5
20B
100
AcDbSymbolTableRecord
100
AcDbRegAppTableRecord
  2
ACAD
 70
0
  0
ENDTAB
  0
TABLE
  2
BLOCK_RECORD
  5
1
100
AcDbSymbolTable
 70
0
  0
BLOCK_RECORD
  5
1F
100
AcDbSymbolTableRecord
100
AcDbBlockTableRecord
  2
*MODEL_SPACE
  0
BLOCK_RECORD
  5
1B
100
AcDbSymbolTableRecord
100
AcDbBlockTableRecord
  2
*PAPER_SPACE
  0
BLOCK_RECORD
  5
20C
100
AcDbSymbolTableRecord
100
AcDbBlockTableRecord
  2
_CLOSED
  0
BLOCK_RECORD
  5
20D
100
AcDbSymbolTableRecord
100
AcDbBlockTableRecord
  2
*D0
  0
BLOCK_RECORD
  5
20E
100
AcDbSymbolTableRecord
100
AcDbBlockTableRecord
  2
*D1
  0
BLOCK_RECORD
  5
20F
100
AcDbSymbolTableRecord
100
AcDbBlockTableRecord
  2
*D2
  0
BLOCK_RECORD
  5
210
100
AcDbSymbolTableRecord
100
AcDbBlockTableRecord
  2
*D3
  0
BLOCK_RECORD
  5
211
100
AcDbSymbolTableRecord
100
AcDbBlockTableRecord
  2
LOGO2_BL0
  0
ENDTAB
  0
TABLE
  2
DIMSTYLE
  5
A
100
AcDbSymbolTable
 70
1
  0
DIMSTYLE
105
212
100
AcDbSymbolTableRecord
100
AcDbDimStyleTableRecord
  2
STANDARD
 70
0
  3

  4

  5
_CLOSED
  6
_CLOSED
  7
_CLOSED
 40
1.0
 41
2.5
 42
0.75
 43
0.38
 44
0.75
 45
0.0
 46
0.0
 47
0.01
 48
0.01
140
3.0
141
0.09
142
0.0
143
25.4
144
1.0
145
0.0
146
1.0
147
0.625
 71
1.0
 72
0.0
 73
0
 74
0
 75
0
 76
0
 77
1
 78
8
 79
2
170
0
171
1
172
0
173
0
174
0
175
0
176
0
177
0
178
0
270
2
179
2
271
2
272
2
273
2
274
2
275
0
280
0
281
0
282
0
283
1
284
8
285
0
286
0
287
3
288
0
340
11
  0
DIMSTYLE
105
213
100
AcDbSymbolTableRecord
100
AcDbDimStyleTableRecord
  2
DIMSTYLE_1
 70
0
  3

  4

  5
_CLOSED
  6
_CLOSED
  7
_CLOSED
 40
1.0
 41
2.5
 42
0.75
 43
0.38
 44
0.75
 45
0.0
 46
0.0
 47
0.3
 48
0.3
140
6.0
141
0.09
142
0.0
143
25.4
144
1.0
145
0.0
146
1.0
147
1.5
 71
0.0
 72
0.0
 73
0
 74
0
 75
0
 76
0
 77
1
 78
8
 79
2
170
0
171
1
172
0
173
0
174
0
175
0
176
0
177
0
178
0
270
2
179
2
271
2
272
2
273
2
274
2
275
0
280
0
281
0
282
0
283
1
284
8
285
0
286
0
287
3
288
0
340
11
  0
DIMSTYLE
105
214
100
AcDbSymbolTableRecord
100
AcDbDimStyleTableRecord
  2
DIMSTYLE_2
 70
0
  3

  4

  5
_CLOSED
  6
_CLOSED
  7
_CLOSED
 40
1.0
 41
2.5
 42
0.75
 43
0.38
 44
0.75
 45
0.0
 46
0.0
 47
1.2
 48
1.2
140
6.0
141
0.09
142
0.0
143
25.4
144
1.0
145
0.0
146
1.0
147
1.5
 71
0.0
 72
0.0
 73
0
 74
0
 75
0
 76
0
 77
1
 78
8
 79
2
170
0
171
1
172
0
173
0
174
0
175
0
176
0
177
0
178
0
270
2
179
2
271
2
272
2
273
2
274
2
275
0
280
0
281
0
282
0
283
1
284
8
285
0
286
0
287
3
288
0
340
11
  0
ENDTAB
  0
ENDSEC
  0
SECTION
  2
BLOCKS
  0
BLOCK
  5
20
100
AcDbEntity
  8
0
100
AcDbBlockBegin
  2
*MODEL_SPACE
 70
0
 10
0.0
 20
0.0
 30
0.0
  3
*MODEL_SPACE
  1

  0
ENDBLK
  5
21
100
AcDbEntity
  8
0
100
AcDbBlockEnd
  0
BLOCK
  5
1C
100
AcDbEntity
  8
0
100
AcDbBlockBegin
  2
*PAPER_SPACE
 70
0
 10
0.0
 20
0.0
 30
0.0
  3
*PAPER_SPACE
  1

  0
ENDBLK
  5
1D
100
AcDbEntity
  8
0
100
AcDbBlockEnd
  0
BLOCK
  5
215
100
AcDbEntity
  8
0
100
AcDbBlockBegin
 62
2
  6
CONTINUOUS
  2
LOGO2_BL0
 70
64
 10
3113.3767684765
 20
37.2776170738
  3
LOGO2_BL0
  1

  0
LINE
  5
216
100
AcDbEntity
  8
0
100
AcDbLine
 62
7
  6
CONTINUOUS
 10
3105.1196937047
 20
40.4731084126
 11
3103.8153527753
 21
40.4731084126
  0
LINE
  5
217
100
AcDbEntity
  8
0
100
AcDbLine
 62
7
  6
CONTINUOUS
 10
3103.8153527753
 20
40.4731084126
 11
3103.8153527753
 21
30.0140423528
  0
LINE
  5
218
100
AcDbEntity
  8
0
100
AcDbLine
 62
7
  6
CONTINUOUS
 10
3103.8153527753
 20
30.0140423528
 11
3108.2964076636
 21
30.0140423528
  0
LINE
  5
219
100
AcDbEntity
  8
0
100
AcDbLine
 62
7
  6
CONTINUOUS
 10
3108.2964076636
 20
30.0140423528
 11
3108.2964076636
 21
31.2068966778
  0
LINE
  5
21A
100
AcDbEntity
  8
0
100
AcDbLine
 62
7
  6
CONTINUOUS
 10
3108.2964076636
 20
31.2068966778
 11
3105.1196937047
 21
31.2068966778
  0
LINE
  5
21B
100
AcDbEntity
  8
0
100
AcDbLine
 62
7
  6
CONTINUOUS
 10
3105.1196937047
 20
31.2068966778
 11
3105.1196937047
 21
40.4731084126
  0
LINE
  5
21C
100
AcDbEntity
  8
0
100
AcDbLine
 62
7
  6
CONTINUOUS
 10
3120.056019921
 20
40.4731084126
 11
3118.7522024029
 21
40.4731084126
  0
LINE
  5
21D
100
AcDbEntity
  8
0
100
AcDbLine
 62
7
  6
CONTINUOUS
 10
3118.7522024029
 20
40.4731084126
 11
3118.7522024029
 21
30.0140423528
  0
LINE
  5
21E
100
AcDbEntity
  8
0
100
AcDbLine
 62
7
  6
CONTINUOUS
 10
3118.7522024029
 20
30.0140423528
 11
3123.233388144
 21
30.0140423528
  0
LINE
  5
21F
100
AcDbEntity
  8
0
100
AcDbLine
 62
7
  6
CONTINUOUS
 10
3123.233388144
 20
30.0140423528
 11
3123.233388144
 21
31.2068966778
  0
LINE
  5
220
100
AcDbEntity
  8
0
100
AcDbLine
 62
7
  6
CONTINUOUS
 10
3123.233388144
 20
31.2068966778
 11
3120.056019921
 21
31.2068966778
  0
LINE
  5
221
100
AcDbEntity
  8
0
100
AcDbLine
 62
7
  6
CONTINUOUS
 10
3120.056019921
 20
31.2068966778
 11
3120.056019921
 21
40.4731084126
  0
LWPOLYLINE
  5
222
100
AcDbEntity
  8
0
100
AcDbPolyline
 62
7
  6
CONTINUOUS
 90
2
 70
0
 43
0.2
 10
3102.1697476862
 20
26.6704910458
 10
3102.1697476862
 20
24.8134277965
  0
LWPOLYLINE
  5
223
100
AcDbEntity
  8
0
100
AcDbPolyline
 62
7
  6
CONTINUOUS
 90
2
 70
0
 43
0.2
 10
3102.1697476862
 20
24.8134277965
 10
3102.9654636966
 20
24.8134277965
  0
LWPOLYLINE
  5
224
100
AcDbEntity
  8
0
100
AcDbPolyline
 62
7
  6
CONTINUOUS
 90
2
 70
0
 43
0.2
 10
3102.9654636966
 20
24.8134277965
 10
3102.9654636966
 20
25.0254093681
  0
LWPOLYLINE
  5
225
100
AcDbEntity
  8
0
100
AcDbPolyline
 62
7
  6
CONTINUOUS
 90
2
 70
0
 43
0.2
 10
3102.9654636966
 20
25.0254093681
 10
3102.4013571811
 20
25.0254093681
  0
LWPOLYLINE
  5
226
100
AcDbEntity
  8
0
100
AcDbPolyline
 62
7
  6
CONTINUOUS
 90
2
 70
0
 43
0.2
 10
3102.4013571811
 20
25.0254093681
 10
3102.4013571811
 20
26.6704910458
  0
LWPOLYLINE
  5
227
100
AcDbEntity
  8
0
100
AcDbPolyline
 62
7
  6
CONTINUOUS
 90
2
 70
0
 43
0.2
 10
3102.4013571811
 20
26.6704910458
 10
3102.1697476862
 20
26.6704910458
  0
SPLINE
  5
228
100
AcDbEntity
  8
0
100
AcDbSpline
 62
7
  6
CONTINUOUS
 70
2
 71
3
 72
35
 73
31
 74
0
 42
0.0000001
 43
0.0000001
 44
0.0000000001
 40
0.0
 40
0.0
 40
0.0
 40
0.0
 40
1.0
 40
1.0
 40
1.0
 40
2.0
 40
2.0
 40
2.0
 40
3.0
 40
3.0
 40
3.0
 40
4.0
 40
4.0
 40
4.0
 40
5.0
 40
5.0
 40
5.0
 40
6.0
 40
6.0
 40
6.0
 40
7.0
 40
7.0
 40
7.0
 40
8.0
 40
8.0
 40
8.0
 40
9.0
 40
9.0
 40
9.0
 40
10.0
 40
10.0
 40
10.0
 40
10.0
 10
3104.3637569522
 20
25.9659794524
 30
0.0
 10
3104.3637569522
 20
25.9659794524
 30
0.0
 10
3104.3637569522
 20
25.3038641732
 30
0.0
 10
3104.3637569522
 20
25.3038641732
 30
0.0
 10
3104.3637569522
 20
24.9887705779
 30
0.0
 10
3104.511620641
 20
24.7741719499
 30
0.0
 10
3104.8517071253
 20
24.7741719499
 30
0.0
 10
3105.1912701983
 20
24.7741719499
 30
0.0
 10
3105.3393955928
 20
24.9887705779
 30
0.0
 10
3105.3393955928
 20
25.3038641732
 30
0.0
 10
3105.3393955928
 20
25.3038641732
 30
0.0
 10
3105.3393955928
 20
25.9659794524
 30
0.0
 10
3105.3393955928
 20
25.9659794524
 30
0.0
 10
3105.3393955928
 20
25.9659794524
 30
0.0
 10
3105.1173383539
 20
25.9659794524
 30
0.0
 10
3105.1173383539
 20
25.9659794524
 30
0.0
 10
3105.1173383539
 20
25.9659794524
 30
0.0
 10
3105.1173383539
 20
25.328987915
 30
0.0
 10
3105.1173383539
 20
25.328987915
 30
0.0
 10
3105.1173383539
 20
25.1431769078
 30
0.0
 10
3105.0706238964
 20
24.9803959973
 30
0.0
 10
3104.8517071253
 20
24.9803959973
 30
0.0
 10
3104.6322669428
 20
24.9803959973
 30
0.0
 10
3104.5855524854
 20
25.1431769078
 30
0.0
 10
3104.5855524854
 20
25.328987915
 30
0.0
 10
3104.5855524854
 20
25.328987915
 30
0.0
 10
3104.5855524854
 20
25.9659794524
 30
0.0
 10
3104.5855524854
 20
25.9659794524
 30
0.0
 10
3104.5855524854
 20
25.9659794524
 30
0.0
 10
3104.3637569522
 20
25.9659794524
 30
0.0
 10
3104.3637569522
 20
25.9659794524
 30
0.0
  0
SPLINE
  5
229
100
AcDbEntity
  8
0
100
AcDbSpline
 62
7
  6
CONTINUOUS
 70
2
 71
3
 72
35
 73
31
 74
0
 42
0.0000001
 43
0.0000001
 44
0.0000000001
 40
0.0
 40
0.0
 40
0.0
 40
0.0
 40
1.0
 40
1.0
 40
1.0
 40
2.0
 40
2.0
 40
2.0
 40
3.0
 40
3.0
 40
3.0
 40
4.0
 40
4.0
 40
4.0
 40
5.0
 40
5.0
 40
5.0
 40
6.0
 40
6.0
 40
6.0
 40
7.0
 40
7.0
 40
7.0
 40
8.0
 40
8.0
 40
8.0
 40
9.0
 40
9.0
 40
9.0
 40
10.0
 40
10.0
 40
10.0
 40
10.0
 10
3107.76252815
 20
25.9246299606
 30
0.0
 10
3107.6740716423
 20
25.9759242668
 30
0.0
 10
3107.5606222457
 20
26.0010480087
 30
0.0
 10
3107.4569868107
 20
26.0010480087
 30
0.0
 10
3107.1021139575
 20
26.0010480087
 30
0.0
 10
3106.8266687672
 20
25.7372487196
 30
0.0
 10
3106.8266687672
 20
25.37975881
 30
0.0
 10
3106.8266687672
 20
25.0348307713
 30
0.0
 10
3107.1051235724
 20
24.7746953612
 30
0.0
 10
3107.4446866454
 20
24.7746953612
 30
0.0
 10
3107.5606222457
 20
24.7746953612
 30
0.0
 10
3107.6613789186
 20
24.7966786353
 30
0.0
 10
3107.76252815
 20
24.8505899979
 30
0.0
 10
3107.76252815
 20
24.8505899979
 30
0.0
 10
3107.76252815
 20
25.1332320934
 30
0.0
 10
3107.76252815
 20
25.1332320934
 30
0.0
 10
3107.6786514911
 20
25.0400648841
 30
0.0
 10
3107.5751469089
 20
24.9809194086
 30
0.0
 10
3107.4470419962
 20
24.9809194086
 30
0.0
 10
3107.2133388562
 20
24.9809194086
 30
0.0
 10
3107.048071742
 20
25.1531217223
 30
0.0
 10
3107.048071742
 20
25.3897036244
 30
0.0
 10
3107.048071742
 20
25.601685196
 30
0.0
 10
3107.2158250598
 20
25.7937771387
 30
0.0
 10
3107.4326481858
 20
25.7937771387
 30
0.0
 10
3107.5654638001
 20
25.7937771387
 30
0.0
 10
3107.6740716423
 20
25.739865776
 30
0.0
 10
3107.76252815
 20
25.6388473975
 30
0.0
 10
3107.76252815
 20
25.6388473975
 30
0.0
 10
3107.76252815
 20
25.9246299606
 30
0.0
 10
3107.76252815
 20
25.9246299606
 30
0.0
  0
SPLINE
  5
22A
100
AcDbEntity
  8
0
100
AcDbSpline
 62
7
  6
CONTINUOUS
 70
2
 71
3
 72
32
 73
28
 74
0
 42
0.0000001
 43
0.0000001
 44
0.0000000001
 40
0.0
 40
0.0
 40
0.0
 40
0.0
 40
1.0
 40
1.0
 40
1.0
 40
2.0
 40
2.0
 40
2.0
 40
3.0
 40
3.0
 40
3.0
 40
4.0
 40
4.0
 40
4.0
 40
5.0
 40
5.0
 40
5.0
 40
6.0
 40
6.0
 40
6.0
 40
7.0
 40
7.0
 40
7.0
 40
8.0
 40
8.0
 40
8.0
 40
9.0
 40
9.0
 40
9.0
 40
9.0
 10
3110.2943994022
 20
25.3530648343
 30
0.0
 10
3110.2943994022
 20
25.3530648343
 30
0.0
 10
3110.2943994022
 20
25.387086568
 30
0.0
 10
3110.2943994022
 20
25.387086568
 30
0.0
 10
3110.2943994022
 20
25.7293975503
 30
0.0
 10
3110.1215428244
 20
26.0010480087
 30
0.0
 10
3109.7548932172
 20
26.0010480087
 30
0.0
 10
3109.3832712028
 20
26.0010480087
 30
0.0
 10
3109.193534611
 20
25.7346316631
 30
0.0
 10
3109.193534611
 20
25.37975881
 30
0.0
 10
3109.193534611
 20
25.0400648841
 30
0.0
 10
3109.4076098277
 20
24.7741719499
 30
0.0
 10
3109.7597347716
 20
24.7741719499
 30
0.0
 10
3109.9837548029
 20
24.7741719499
 30
0.0
 10
3110.1859224128
 20
24.8898458445
 30
0.0
 10
3110.2943994022
 20
25.0892655452
 30
0.0
 10
3110.2943994022
 20
25.0892655452
 30
0.0
 10
3110.1067564555
 20
25.1960414479
 30
0.0
 10
3110.1067564555
 20
25.1960414479
 30
0.0
 10
3110.0232723551
 20
25.0573374566
 30
0.0
 10
3109.9320679382
 20
24.9714980054
 30
0.0
 10
3109.7624826809
 20
24.9714980054
 30
0.0
 10
3109.5505011093
 20
24.9714980054
 30
0.0
 10
3109.4175546422
 20
25.15626219
 30
0.0
 10
3109.4151992914
 20
25.3530648343
 30
0.0
 10
3109.4151992914
 20
25.3530648343
 30
0.0
 10
3110.2943994022
 20
25.3530648343
 30
0.0
 10
3110.2943994022
 20
25.3530648343
 30
0.0
  0
SPLINE
  5
22B
100
AcDbEntity
  8
0
100
AcDbSpline
 62
7
  6
CONTINUOUS
 70
2
 71
3
 72
14
 73
10
 74
0
 42
0.0000001
 43
0.0000001
 44
0.0000000001
 40
0.0
 40
0.0
 40
0.0
 40
0.0
 40
1.0
 40
1.0
 40
1.0
 40
2.0
 40
2.0
 40
2.0
 40
3.0
 40
3.0
 40
3.0
 40
3.0
 10
3109.427237751
 20
25.5205564464
 30
0.0
 10
3109.4548476965
 20
25.6854310021
 30
0.0
 10
3109.5826909035
 20
25.8084326547
 30
0.0
 10
3109.7548932172
 20
25.8084326547
 30
0.0
 10
3109.9320679382
 20
25.8084326547
 30
0.0
 10
3110.0455173348
 20
25.6927587601
 30
0.0
 10
3110.0727347218
 20
25.5205564464
 30
0.0
 10
3110.0727347218
 20
25.5205564464
 30
0.0
 10
3109.427237751
 20
25.5205564464
 30
0.0
 10
3109.427237751
 20
25.5205564464
 30
0.0
  0
SPLINE
  5
22C
100
AcDbEntity
  8
0
100
AcDbSpline
 62
7
  6
CONTINUOUS
 70
2
 71
3
 72
20
 73
16
 74
0
 42
0.0000001
 43
0.0000001
 44
0.0000000001
 40
0.0
 40
0.0
 40
0.0
 40
0.0
 40
1.0
 40
1.0
 40
1.0
 40
2.0
 40
2.0
 40
2.0
 40
3.0
 40
3.0
 40
3.0
 40
4.0
 40
4.0
 40
4.0
 40
5.0
 40
5.0
 40
5.0
 40
5.0
 10
3112.3184308524
 20
25.7299209615
 30
0.0
 10
3112.3184308524
 20
25.7299209615
 30
0.0
 10
3112.729570419
 20
25.2274461252
 30
0.0
 10
3112.729570419
 20
25.2274461252
 30
0.0
 10
3112.6135039659
 20
25.1117722306
 30
0.0
 10
3112.4757159444
 20
24.9814428199
 30
0.0
 10
3112.3037753363
 20
24.9814428199
 30
0.0
 10
3112.1263389098
 20
24.9814428199
 30
0.0
 10
3111.9588472976
 20
25.1457939643
 30
0.0
 10
3111.9588472976
 20
25.3227069796
 30
0.0
 10
3111.9588472976
 20
25.5006668175
 30
0.0
 10
3112.1686043712
 20
25.6268089378
 30
0.0
 10
3112.2961858727
 20
25.7147420342
 30
0.0
 10
3112.2961858727
 20
25.7147420342
 30
0.0
 10
3112.3184308524
 20
25.7299209615
 30
0.0
 10
3112.3184308524
 20
25.7299209615
 30
0.0
  0
SPLINE
  5
22D
100
AcDbEntity
  8
0
100
AcDbSpline
 62
7
  6
CONTINUOUS
 70
2
 71
3
 72
23
 73
19
 74
0
 42
0.0000001
 43
0.0000001
 44
0.0000000001
 40
0.0
 40
0.0
 40
0.0
 40
0.0
 40
1.0
 40
1.0
 40
1.0
 40
2.0
 40
2.0
 40
2.0
 40
3.0
 40
3.0
 40
3.0
 40
4.0
 40
4.0
 40
4.0
 40
5.0
 40
5.0
 40
5.0
 40
6.0
 40
6.0
 40
6.0
 40
6.0
 10
3112.3677623663
 20
26.0209376376
 30
0.0
 10
3112.3677623663
 20
26.0209376376
 30
0.0
 10
3112.3061306871
 20
26.0994493308
 30
0.0
 10
3112.3061306871
 20
26.0994493308
 30
0.0
 10
3112.2522193245
 20
26.1680162095
 30
0.0
 10
3112.1954291998
 20
26.2371064995
 30
0.0
 10
3112.1954291998
 20
26.33079712
 30
0.0
 10
3112.1954291998
 20
26.4496114824
 30
0.0
 10
3112.2913443183
 20
26.527076353
 30
0.0
 10
3112.4023075113
 20
26.527076353
 30
0.0
 10
3112.5255708696
 20
26.527076353
 30
0.0
 10
3112.6188689316
 20
26.4558924178
 30
0.0
 10
3112.6188689316
 20
26.3255630071
 30
0.0
 10
3112.6188689316
 20
26.1905228949
 30
0.0
 10
3112.4907640189
 20
26.1141048468
 30
0.0
 10
3112.3972042512
 20
26.0403038553
 30
0.0
 10
3112.3972042512
 20
26.0403038553
 30
0.0
 10
3112.3677623663
 20
26.0209376376
 30
0.0
 10
3112.3677623663
 20
26.0209376376
 30
0.0
  0
SPLINE
  5
22E
100
AcDbEntity
  8
0
100
AcDbSpline
 62
7
  6
CONTINUOUS
 70
2
 71
3
 72
50
 73
46
 74
0
 42
0.0000001
 43
0.0000001
 44
0.0000000001
 40
0.0
 40
0.0
 40
0.0
 40
0.0
 40
1.0
 40
1.0
 40
1.0
 40
2.0
 40
2.0
 40
2.0
 40
3.0
 40
3.0
 40
3.0
 40
4.0
 40
4.0
 40
4.0
 40
5.0
 40
5.0
 40
5.0
 40
6.0
 40
6.0
 40
6.0
 40
7.0
 40
7.0
 40
7.0
 40
8.0
 40
8.0
 40
8.0
 40
9.0
 40
9.0
 40
9.0
 40
10.0
 40
10.0
 40
10.0
 40
11.0
 40
11.0
 40
11.0
 40
12.0
 40
12.0
 40
12.0
 40
13.0
 40
13.0
 40
13.0
 40
14.0
 40
14.0
 40
14.0
 40
15.0
 40
15.0
 40
15.0
 40
15.0
 10
3113.069918609
 20
24.8139512078
 30
0.0
 10
3113.069918609
 20
24.8139512078
 30
0.0
 10
3113.3553086137
 20
24.8139512078
 30
0.0
 10
3113.3553086137
 20
24.8139512078
 30
0.0
 10
3113.3553086137
 20
24.8139512078
 30
0.0
 10
3113.0229424459
 20
25.2248290688
 30
0.0
 10
3113.0229424459
 20
25.2248290688
 30
0.0
 10
3113.0229424459
 20
25.2248290688
 30
0.0
 10
3113.2494486807
 20
25.490722003
 30
0.0
 10
3113.2494486807
 20
25.490722003
 30
0.0
 10
3113.2494486807
 20
25.490722003
 30
0.0
 10
3113.1011924334
 20
25.643558099
 30
0.0
 10
3113.1011924334
 20
25.643558099
 30
0.0
 10
3113.1011924334
 20
25.643558099
 30
0.0
 10
3112.8852852772
 20
25.3923206809
 30
0.0
 10
3112.8852852772
 20
25.3923206809
 30
0.0
 10
3112.8852852772
 20
25.3923206809
 30
0.0
 10
3112.4982226298
 20
25.8602503722
 30
0.0
 10
3112.4982226298
 20
25.8602503722
 30
0.0
 10
3112.6536757823
 20
25.974354033
 30
0.0
 10
3112.8359537633
 20
26.1141048468
 30
0.0
 10
3112.8359537633
 20
26.323469362
 30
0.0
 10
3112.8359537633
 20
26.5673790221
 30
0.0
 10
3112.6339170062
 20
26.710793715
 30
0.0
 10
3112.4074107713
 20
26.710793715
 30
0.0
 10
3112.1632394055
 20
26.710793715
 30
0.0
 10
3111.9788677794
 20
26.5600512641
 30
0.0
 10
3111.9788677794
 20
26.3035797331
 30
0.0
 10
3111.9788677794
 20
26.1460329354
 30
0.0
 10
3112.0775308072
 20
26.0083757667
 30
0.0
 10
3112.1828673288
 20
25.8974125737
 30
0.0
 10
3112.1828673288
 20
25.8974125737
 30
0.0
 10
3112.067324287
 20
25.8136667676
 30
0.0
 10
3112.067324287
 20
25.8136667676
 30
0.0
 10
3111.8896261548
 20
25.6854310021
 30
0.0
 10
3111.7422858773
 20
25.5577186478
 30
0.0
 10
3111.7422858773
 20
25.3206133344
 30
0.0
 10
3111.7422858773
 20
25.0002856263
 30
0.0
 10
3112.0008510535
 20
24.7741719499
 30
0.0
 10
3112.3112339472
 20
24.7741719499
 30
0.0
 10
3112.5301507183
 20
24.7741719499
 30
0.0
 10
3112.727345921
 20
24.8992672477
 30
0.0
 10
3112.8676201462
 20
25.065188626
 30
0.0
 10
3112.8676201462
 20
25.065188626
 30
0.0
 10
3113.069918609
 20
24.8139512078
 30
0.0
 10
3113.069918609
 20
24.8139512078
 30
0.0
  0
LWPOLYLINE
  5
22F
100
AcDbEntity
  8
0
100
AcDbPolyline
 62
7
  6
CONTINUOUS
 90
2
 70
0
 43
0.2
 10
3115.0053626987
 20
26.6704910458
 10
3114.7740149094
 20
26.6704910458
  0
LWPOLYLINE
  5
230
100
AcDbEntity
  8
0
100
AcDbPolyline
 62
7
  6
CONTINUOUS
 90
2
 70
0
 43
0.2
 10
3114.7740149094
 20
26.6704910458
 10
3114.7740149094
 20
24.8134277965
  0
LWPOLYLINE
  5
231
100
AcDbEntity
  8
0
100
AcDbPolyline
 62
7
  6
CONTINUOUS
 90
2
 70
0
 43
0.2
 10
3114.7740149094
 20
24.8134277965
 10
3115.5693383614
 20
24.8134277965
  0
LWPOLYLINE
  5
232
100
AcDbEntity
  8
0
100
AcDbPolyline
 62
7
  6
CONTINUOUS
 90
2
 70
0
 43
0.2
 10
3115.5693383614
 20
24.8134277965
 10
3115.5693383614
 20
25.0254093681
  0
LWPOLYLINE
  5
233
100
AcDbEntity
  8
0
100
AcDbPolyline
 62
7
  6
CONTINUOUS
 90
2
 70
0
 43
0.2
 10
3115.5693383614
 20
25.0254093681
 10
3115.0053626987
 20
25.0254093681
  0
LWPOLYLINE
  5
234
100
AcDbEntity
  8
0
100
AcDbPolyline
 62
7
  6
CONTINUOUS
 90
2
 70
0
 43
0.2
 10
3115.0053626987
 20
25.0254093681
 10
3115.0053626987
 20
26.6704910458
  0
LWPOLYLINE
  5
235
100
AcDbEntity
  8
0
100
AcDbPolyline
 62
7
  6
CONTINUOUS
 90
2
 70
0
 43
0.2
 10
3117.2484417728
 20
25.9659794524
 10
3117.0273005037
 20
25.9659794524
  0
LWPOLYLINE
  5
236
100
AcDbEntity
  8
0
100
AcDbPolyline
 62
7
  6
CONTINUOUS
 90
2
 70
0
 43
0.2
 10
3117.0273005037
 20
25.9659794524
 10
3117.0273005037
 20
24.8139512078
  0
LWPOLYLINE
  5
237
100
AcDbEntity
  8
0
100
AcDbPolyline
 62
7
  6
CONTINUOUS
 90
2
 70
0
 43
0.2
 10
3117.0273005037
 20
24.8139512078
 10
3117.2484417728
 20
24.8139512078
  0
LWPOLYLINE
  5
238
100
AcDbEntity
  8
0
100
AcDbPolyline
 62
7
  6
CONTINUOUS
 90
2
 70
0
 43
0.2
 10
3117.2484417728
 20
24.8139512078
 10
3117.2484417728
 20
25.9659794524
  0
LWPOLYLINE
  5
239
100
AcDbEntity
  8
0
100
AcDbPolyline
 62
7
  6
CONTINUOUS
 90
2
 70
1
 43
0.2
 10
3116.9854184956
 20
26.4959333813
 42
1.0
 10
3117.2905854866
 20
26.4959333813
 42
1.0
  0
SPLINE
  5
23A
100
AcDbEntity
  8
0
100
AcDbSpline
 62
7
  6
CONTINUOUS
 70
2
 71
3
 72
17
 73
13
 74
0
 42
0.0000001
 43
0.0000001
 44
0.0000000001
 40
0.0
 40
0.0
 40
0.0
 40
0.0
 40
1.0
 40
1.0
 40
1.0
 40
2.0
 40
2.0
 40
2.0
 40
3.0
 40
3.0
 40
3.0
 40
4.0
 40
4.0
 40
4.0
 40
4.0
 10
3119.3787257145
 20
24.9714980054
 30
0.0
 10
3119.1447608688
 20
24.9714980054
 30
0.0
 10
3119.0144314581
 20
25.1735347625
 30
0.0
 10
3119.0144314581
 20
25.3897036244
 30
0.0
 10
3119.0144314581
 20
25.6043022525
 30
0.0
 10
3119.1502566873
 20
25.8031985418
 30
0.0
 10
3119.3787257145
 20
25.8031985418
 30
0.0
 10
3119.6181863787
 20
25.8031985418
 30
0.0
 10
3119.7537499022
 20
25.6142470669
 30
0.0
 10
3119.7537499022
 20
25.3897036244
 30
0.0
 10
3119.7537499022
 20
25.1635899481
 30
0.0
 10
3119.6205417295
 20
24.9714980054
 30
0.0
 10
3119.3787257145
 20
24.9714980054
 30
0.0
  0
SPLINE
  5
23B
100
AcDbEntity
  8
0
100
AcDbSpline
 62
7
  6
CONTINUOUS
 70
2
 71
3
 72
50
 73
46
 74
0
 42
0.0000001
 43
0.0000001
 44
0.0000000001
 40
0.0
 40
0.0
 40
0.0
 40
0.0
 40
1.0
 40
1.0
 40
1.0
 40
2.0
 40
2.0
 40
2.0
 40
3.0
 40
3.0
 40
3.0
 40
4.0
 40
4.0
 40
4.0
 40
5.0
 40
5.0
 40
5.0
 40
6.0
 40
6.0
 40
6.0
 40
7.0
 40
7.0
 40
7.0
 40
8.0
 40
8.0
 40
8.0
 40
9.0
 40
9.0
 40
9.0
 40
10.0
 40
10.0
 40
10.0
 40
11.0
 40
11.0
 40
11.0
 40
12.0
 40
12.0
 40
12.0
 40
13.0
 40
13.0
 40
13.0
 40
14.0
 40
14.0
 40
14.0
 40
15.0
 40
15.0
 40
15.0
 40
15.0
 10
3119.9628527117
 20
25.9665028637
 30
0.0
 10
3119.9628527117
 20
25.9665028637
 30
0.0
 10
3119.7411880313
 20
25.9665028637
 30
0.0
 10
3119.7411880313
 20
25.9665028637
 30
0.0
 10
3119.7411880313
 20
25.9665028637
 30
0.0
 10
3119.7411880313
 20
25.7691768081
 30
0.0
 10
3119.7411880313
 20
25.7691768081
 30
0.0
 10
3119.7411880313
 20
25.7691768081
 30
0.0
 10
3119.7364773297
 20
25.7691768081
 30
0.0
 10
3119.7364773297
 20
25.7691768081
 30
0.0
 10
3119.64514206
 20
25.9120680897
 30
0.0
 10
3119.5072231857
 20
26.0005245974
 30
0.0
 10
3119.3344974607
 20
26.0005245974
 30
0.0
 10
3119.0021312929
 20
26.0005245974
 30
0.0
 10
3118.7930284834
 20
25.712648389
 30
0.0
 10
3118.7930284834
 20
25.3970313825
 30
0.0
 10
3118.7930284834
 20
25.0672822711
 30
0.0
 10
3118.9900928332
 20
24.7741719499
 30
0.0
 10
3119.3449656864
 20
24.7741719499
 30
0.0
 10
3119.5072231857
 20
24.7741719499
 30
0.0
 10
3119.6472357052
 20
24.8626284575
 30
0.0
 10
3119.7364773297
 20
24.9934812795
 30
0.0
 10
3119.7364773297
 20
24.9934812795
 30
0.0
 10
3119.7411880313
 20
24.9934812795
 30
0.0
 10
3119.7411880313
 20
24.9934812795
 30
0.0
 10
3119.7411880313
 20
24.9934812795
 30
0.0
 10
3119.7411880313
 20
24.7741719499
 30
0.0
 10
3119.7411880313
 20
24.7741719499
 30
0.0
 10
3119.7411880313
 20
24.5375900478
 30
0.0
 10
3119.6846596122
 20
24.350732218
 30
0.0
 10
3119.41143892
 20
24.350732218
 30
0.0
 10
3119.2091404572
 20
24.350732218
 30
0.0
 10
3119.0665108813
 20
24.4690231691
 30
0.0
 10
3119.0665108813
 20
24.6752472165
 30
0.0
 10
3119.0665108813
 20
24.6752472165
 30
0.0
 10
3118.8448462009
 20
24.6752472165
 30
0.0
 10
3118.8448462009
 20
24.6752472165
 30
0.0
 10
3118.8498186081
 20
24.350732218
 30
0.0
 10
3119.0809046917
 20
24.1539295738
 30
0.0
 10
3119.4012323999
 20
24.1539295738
 30
0.0
 10
3119.8492724623
 20
24.1539295738
 30
0.0
 10
3119.9628527117
 20
24.4391887257
 30
0.0
 10
3119.9628527117
 20
24.8359344819
 30
0.0
 10
3119.9628527117
 20
24.8359344819
 30
0.0
 10
3119.9628527117
 20
25.9665028637
 30
0.0
 10
3119.9628527117
 20
25.9665028637
 30
0.0
  0
SPLINE
  5
23C
100
AcDbEntity
  8
0
100
AcDbSpline
 62
7
  6
CONTINUOUS
 70
2
 71
3
 72
44
 73
40
 74
0
 42
0.0000001
 43
0.0000001
 44
0.0000000001
 40
0.0
 40
0.0
 40
0.0
 40
0.0
 40
1.0
 40
1.0
 40
1.0
 40
2.0
 40
2.0
 40
2.0
 40
3.0
 40
3.0
 40
3.0
 40
4.0
 40
4.0
 40
4.0
 40
5.0
 40
5.0
 40
5.0
 40
6.0
 40
6.0
 40
6.0
 40
7.0
 40
7.0
 40
7.0
 40
8.0
 40
8.0
 40
8.0
 40
9.0
 40
9.0
 40
9.0
 40
10.0
 40
10.0
 40
10.0
 40
11.0
 40
11.0
 40
11.0
 40
12.0
 40
12.0
 40
12.0
 40
13.0
 40
13.0
 40
13.0
 40
13.0
 10
3121.5317780471
 20
26.9515629074
 30
0.0
 10
3121.5317780471
 20
26.9515629074
 30
0.0
 10
3121.5317780471
 20
24.8134277965
 30
0.0
 10
3121.5317780471
 20
24.8134277965
 30
0.0
 10
3121.5317780471
 20
24.8134277965
 30
0.0
 10
3121.7531810219
 20
24.8134277965
 30
0.0
 10
3121.7531810219
 20
24.8134277965
 30
0.0
 10
3121.7531810219
 20
24.8134277965
 30
0.0
 10
3121.7531810219
 20
25.3431200198
 30
0.0
 10
3121.7531810219
 20
25.3431200198
 30
0.0
 10
3121.7531810219
 20
25.5530079462
 30
0.0
 10
3121.7531810219
 20
25.8037219531
 30
0.0
 10
3122.0384401738
 20
25.8037219531
 30
0.0
 10
3122.2653389671
 20
25.8037219531
 30
0.0
 10
3122.2922946484
 20
25.670775486
 30
0.0
 10
3122.2922946484
 20
25.4744962531
 30
0.0
 10
3122.2922946484
 20
25.4744962531
 30
0.0
 10
3122.2922946484
 20
24.8134277965
 30
0.0
 10
3122.2922946484
 20
24.8134277965
 30
0.0
 10
3122.2922946484
 20
24.8134277965
 30
0.0
 10
3122.5142210345
 20
24.8134277965
 30
0.0
 10
3122.5142210345
 20
24.8134277965
 30
0.0
 10
3122.5142210345
 20
24.8134277965
 30
0.0
 10
3122.5142210345
 20
25.5006668175
 30
0.0
 10
3122.5142210345
 20
25.5006668175
 30
0.0
 10
3122.5142210345
 20
25.7812152678
 30
0.0
 10
3122.4302135228
 20
26.0010480087
 30
0.0
 10
3122.105175113
 20
26.0010480087
 30
0.0
 10
3121.9654242991
 20
26.0010480087
 30
0.0
 10
3121.8272437191
 20
25.9345747751
 30
0.0
 10
3121.7578917235
 20
25.8115731225
 30
0.0
 10
3121.7578917235
 20
25.8115731225
 30
0.0
 10
3121.7531810219
 20
25.8115731225
 30
0.0
 10
3121.7531810219
 20
25.8115731225
 30
0.0
 10
3121.7531810219
 20
25.8115731225
 30
0.0
 10
3121.7531810219
 20
26.9515629074
 30
0.0
 10
3121.7531810219
 20
26.9515629074
 30
0.0
 10
3121.7531810219
 20
26.9515629074
 30
0.0
 10
3121.5317780471
 20
26.9515629074
 30
0.0
 10
3121.5317780471
 20
26.9515629074
 30
0.0
  0
LWPOLYLINE
  5
23D
100
AcDbEntity
  8
0
100
AcDbPolyline
 62
7
  6
CONTINUOUS
 90
2
 70
0
 43
0.2
 10
3124.3540117113
 20
25.7592319937
 10
3124.5704422789
 20
25.7592319937
  0
LWPOLYLINE
  5
23E
100
AcDbEntity
  8
0
100
AcDbPolyline
 62
7
  6
CONTINUOUS
 90
2
 70
0
 43
0.2
 10
3124.5704422789
 20
25.7592319937
 10
3124.5704422789
 20
25.9659794524
  0
LWPOLYLINE
  5
23F
100
AcDbEntity
  8
0
100
AcDbPolyline
 62
7
  6
CONTINUOUS
 90
2
 70
0
 43
0.2
 10
3124.5704422789
 20
25.9659794524
 10
3124.3540117113
 20
25.9659794524
  0
LWPOLYLINE
  5
240
100
AcDbEntity
  8
0
100
AcDbPolyline
 62
7
  6
CONTINUOUS
 90
2
 70
0
 43
0.2
 10
3124.3540117113
 20
25.9659794524
 10
3124.3540117113
 20
26.4066917568
  0
LWPOLYLINE
  5
241
100
AcDbEntity
  8
0
100
AcDbPolyline
 62
7
  6
CONTINUOUS
 90
2
 70
0
 43
0.2
 10
3124.3540117113
 20
26.4066917568
 10
3124.1323470309
 20
26.4066917568
  0
LWPOLYLINE
  5
242
100
AcDbEntity
  8
0
100
AcDbPolyline
 62
7
  6
CONTINUOUS
 90
2
 70
0
 43
0.2
 10
3124.1323470309
 20
26.4066917568
 10
3124.1323470309
 20
25.9659794524
  0
LWPOLYLINE
  5
243
100
AcDbEntity
  8
0
100
AcDbPolyline
 62
7
  6
CONTINUOUS
 90
2
 70
0
 43
0.2
 10
3124.1323470309
 20
25.9659794524
 10
3124.0117007291
 20
25.9659794524
  0
LWPOLYLINE
  5
244
100
AcDbEntity
  8
0
100
AcDbPolyline
 62
7
  6
CONTINUOUS
 90
2
 70
0
 43
0.2
 10
3124.0117007291
 20
25.9659794524
 10
3124.0117007291
 20
25.7592319937
  0
LWPOLYLINE
  5
245
100
AcDbEntity
  8
0
100
AcDbPolyline
 62
7
  6
CONTINUOUS
 90
2
 70
0
 43
0.2
 10
3124.0117007291
 20
25.7592319937
 10
3124.1323470309
 20
25.7592319937
  0
LWPOLYLINE
  5
246
100
AcDbEntity
  8
0
100
AcDbPolyline
 62
7
  6
CONTINUOUS
 90
2
 70
0
 43
0.2
 10
3124.1323470309
 20
25.7592319937
 10
3124.1323470309
 20
24.8134277965
  0
LWPOLYLINE
  5
247
100
AcDbEntity
  8
0
100
AcDbPolyline
 62
7
  6
CONTINUOUS
 90
2
 70
0
 43
0.2
 10
3124.1323470309
 20
24.8134277965
 10
3124.3540117113
 20
24.8134277965
  0
LWPOLYLINE
  5
248
100
AcDbEntity
  8
0
100
AcDbPolyline
 62
7
  6
CONTINUOUS
 90
2
 70
0
 43
0.2
 10
3124.3540117113
 20
24.8134277965
 10
3124.3540117113
 20
25.7592319937
  0
SPLINE
  5
249
100
AcDbEntity
  8
0
100
AcDbSpline
 62
7
  6
CONTINUOUS
 70
2
 71
3
 72
20
 73
16
 74
0
 42
0.0000001
 43
0.0000001
 44
0.0000000001
 40
0.0
 40
0.0
 40
0.0
 40
0.0
 40
1.0
 40
1.0
 40
1.0
 40
2.0
 40
2.0
 40
2.0
 40
3.0
 40
3.0
 40
3.0
 40
4.0
 40
4.0
 40
4.0
 40
5.0
 40
5.0
 40
5.0
 40
5.0
 10
3112.1360220186
 20
35.1743542399
 30
0.0
 10
3112.1360220186
 20
35.1743542399
 30
0.0
 10
3114.452378673
 20
32.3447928176
 30
0.0
 10
3114.452378673
 20
32.3447928176
 30
0.0
 10
3113.8007316196
 20
31.692622353
 30
0.0
 10
3113.0238584156
 20
30.9567060822
 30
0.0
 10
3112.052668771
 20
30.9567060822
 30
0.0
 10
3111.0541308865
 20
30.9567060822
 30
0.0
 10
3110.110812893
 20
31.8862845295
 30
0.0
 10
3110.110812893
 20
32.885476678
 30
0.0
 10
3110.110812893
 20
33.8846688266
 30
0.0
 10
3111.2896659661
 20
34.5912740652
 30
0.0
 10
3112.0111884264
 20
35.0911318451
 30
0.0
 10
3112.0111884264
 20
35.0911318451
 30
0.0
 10
3112.1360220186
 20
35.1743542399
 30
0.0
 10
3112.1360220186
 20
35.1743542399
 30
0.0
  0
SPLINE
  5
24A
100
AcDbEntity
  8
0
100
AcDbSpline
 62
7
  6
CONTINUOUS
 70
2
 71
3
 72
23
 73
19
 74
0
 42
0.0000001
 43
0.0000001
 44
0.0000000001
 40
0.0
 40
0.0
 40
0.0
 40
0.0
 40
1.0
 40
1.0
 40
1.0
 40
2.0
 40
2.0
 40
2.0
 40
3.0
 40
3.0
 40
3.0
 40
4.0
 40
4.0
 40
4.0
 40
5.0
 40
5.0
 40
5.0
 40
6.0
 40
6.0
 40
6.0
 40
6.0
 10
3112.4134300011
 20
36.8121081596
 30
0.0
 10
3112.4134300011
 20
36.8121081596
 30
0.0
 10
3112.0669317286
 20
37.2554375204
 30
0.0
 10
3112.0669317286
 20
37.2554375204
 30
0.0
 10
3111.7611286836
 20
37.6435469904
 30
0.0
 10
3111.4422403565
 20
38.0320490188
 30
0.0
 10
3111.4422403565
 20
38.5589933329
 30
0.0
 10
3111.4422403565
 20
39.2251650495
 30
0.0
 10
3111.983578481
 20
39.6688869688
 30
0.0
 10
3112.6074847361
 20
39.6688869688
 30
0.0
 10
3113.3012663982
 20
39.6688869688
 30
0.0
 10
3113.8284724179
 20
39.2666453941
 30
0.0
 10
3113.8284724179
 20
38.5316450931
 30
0.0
 10
3113.8284724179
 20
37.7683805826
 30
0.0
 10
3113.1072116632
 20
37.3382673568
 30
0.0
 10
3112.5801364963
 20
36.9225479414
 30
0.0
 10
3112.5801364963
 20
36.9225479414
 30
0.0
 10
3112.4134300011
 20
36.8121081596
 30
0.0
 10
3112.4134300011
 20
36.8121081596
 30
0.0
  0
SPLINE
  5
24B
100
AcDbEntity
  8
0
100
AcDbSpline
 62
7
  6
CONTINUOUS
 70
2
 71
3
 72
50
 73
46
 74
0
 42
0.0000001
 43
0.0000001
 44
0.0000000001
 40
0.0
 40
0.0
 40
0.0
 40
0.0
 40
1.0
 40
1.0
 40
1.0
 40
2.0
 40
2.0
 40
2.0
 40
3.0
 40
3.0
 40
3.0
 40
4.0
 40
4.0
 40
4.0
 40
5.0
 40
5.0
 40
5.0
 40
6.0
 40
6.0
 40
6.0
 40
7.0
 40
7.0
 40
7.0
 40
8.0
 40
8.0
 40
8.0
 40
9.0
 40
9.0
 40
9.0
 40
10.0
 40
10.0
 40
10.0
 40
11.0
 40
11.0
 40
11.0
 40
12.0
 40
12.0
 40
12.0
 40
13.0
 40
13.0
 40
13.0
 40
14.0
 40
14.0
 40
14.0
 40
15.0
 40
15.0
 40
15.0
 40
15.0
 10
3116.3670171641
 20
30.0135189415
 30
0.0
 10
3116.3670171641
 20
30.0135189415
 30
0.0
 10
3117.9762451686
 20
30.0135189415
 30
0.0
 10
3117.9762451686
 20
30.0135189415
 30
0.0
 10
3117.9762451686
 20
30.0135189415
 30
0.0
 10
3116.103217875
 20
32.3306607129
 30
0.0
 10
3116.103217875
 20
32.3306607129
 30
0.0
 10
3116.103217875
 20
32.3306607129
 30
0.0
 10
3117.3795563005
 20
33.8281404075
 30
0.0
 10
3117.3795563005
 20
33.8281404075
 30
0.0
 10
3117.3795563005
 20
33.8281404075
 30
0.0
 10
3116.5473323527
 20
34.689151976
 30
0.0
 10
3116.5473323527
 20
34.689151976
 30
0.0
 10
3116.5473323527
 20
34.689151976
 30
0.0
 10
3115.3267372294
 20
33.2738478536
 30
0.0
 10
3115.3267372294
 20
33.2738478536
 30
0.0
 10
3115.3267372294
 20
33.2738478536
 30
0.0
 10
3113.1488228606
 20
35.909223688
 30
0.0
 10
3113.1488228606
 20
35.909223688
 30
0.0
 10
3114.0223963001
 20
36.547262048
 30
0.0
 10
3115.0490675412
 20
37.3382673568
 30
0.0
 10
3115.0490675412
 20
38.5171204299
 30
0.0
 10
3115.0490675412
 20
39.8908133549
 30
0.0
 10
3113.9111714014
 20
40.6952965043
 30
0.0
 10
3112.6358797985
 20
40.6952965043
 30
0.0
 10
3111.2624485791
 20
40.6952965043
 30
0.0
 10
3110.2215143804
 20
39.8490713047
 30
0.0
 10
3110.2215143804
 20
38.4064189425
 30
0.0
 10
3110.2215143804
 20
37.5188442511
 30
0.0
 10
3110.7768537568
 20
36.741971047
 30
0.0
 10
3111.3730192137
 20
36.1175413806
 30
0.0
 10
3111.3730192137
 20
36.1175413806
 30
0.0
 10
3110.7211104546
 20
35.6459478102
 30
0.0
 10
3110.7211104546
 20
35.6459478102
 30
0.0
 10
3109.7225725702
 20
34.9246870556
 30
0.0
 10
3108.8896943584
 20
34.2034263009
 30
0.0
 10
3108.8896943584
 20
32.8718679845
 30
0.0
 10
3108.8896943584
 20
31.0681926865
 30
0.0
 10
3110.346740531
 20
29.7915925554
 30
0.0
 10
3112.0942799684
 20
29.7915925554
 30
0.0
 10
3113.3291380493
 20
29.7915925554
 30
0.0
 10
3114.4385082739
 20
30.4997680279
 30
0.0
 10
3115.2293827299
 20
31.4282996526
 30
0.0
 10
3115.2293827299
 20
31.4282996526
 30
0.0
 10
3116.3670171641
 20
30.0135189415
 30
0.0
 10
3116.3670171641
 20
30.0135189415
 30
0.0
  0
LINE
  5
24C
100
AcDbEntity
  8
0
100
AcDbLine
 62
7
  6
CONTINUOUS
 10
3102.1698785391
 20
27.9873938461
 11
3124.5837892667
 21
27.9873938461
  0
LINE
  5
24D
100
AcDbEntity
  8
0
100
AcDbLine
 62
7
  6
CONTINUOUS
 10
3124.5837892667
 20
27.9873938461
 11
3124.5837892667
 21
50.4013045738
  0
LINE
  5
24E
100
AcDbEntity
  8
0
100
AcDbLine
 62
7
  6
CONTINUOUS
 10
3124.5837892667
 20
50.4013045738
 11
3102.1698785391
 21
50.4013045738
  0
LINE
  5
24F
100
AcDbEntity
  8
0
100
AcDbLine
 62
7
  6
CONTINUOUS
 10
3102.1698785391
 20
50.4013045738
 11
3102.1698785391
 21
27.9873938461
  0
ENDBLK
  5
250
100
AcDbEntity
  8
0
  6
BYBLOCK
 62
0
100
AcDbBlockEnd
  0
BLOCK
  5
251
100
AcDbEntity
  8
0
100
AcDbBlockBegin
  2
_CLOSED
 70
64
 10
0.0
 20
0.0
  3
_CLOSED
  1

  0
LINE
  5
252
100
AcDbEntity
  8
0
  6
BYBLOCK
 62
0
100
AcDbLine
 10
0.0
 20
0.0
 11
-1.0
 21
0.2
  0
LINE
  5
253
100
AcDbEntity
  8
0
  6
BYBLOCK
 62
0
100
AcDbLine
 10
-1.0
 20
0.2
 11
-1.0
 21
-0.2
  0
LINE
  5
254
100
AcDbEntity
  8
0
  6
BYBLOCK
 62
0
100
AcDbLine
 10
-1.0
 20
-0.2
 11
0.0
 21
0.0
  0
LINE
  5
255
100
AcDbEntity
  8
0
  6
BYBLOCK
 62
0
100
AcDbLine
 10
-1.0
 20
0.0
 11
0.0
 21
0.0
  0
ENDBLK
  5
256
100
AcDbEntity
  8
0
  6
BYBLOCK
 62
0
100
AcDbBlockEnd
  0
BLOCK
  5
257
100
AcDbEntity
  8
0
100
AcDbBlockBegin
 62
7
  6
CONTINUOUS
  2
*D0
 70
65
 10
0.0
 20
0.0
  3
*D0
  1

  0
MTEXT
  5
258
100
AcDbEntity
  8
0
100
AcDbMText
 62
7
  6
CONTINUOUS
  7
STANDARD
 71
2
 72
1
 10
339.116922469
 20
455.7482605673
 30
0.0
 11
0.0
 21
1.0
 31
0.0
  1
94,8
 40
6.0
 41
16.3048327138
  0
LINE
  5
259
100
AcDbEntity
  8
0
100
AcDbLine
 62
7
  6
CONTINUOUS
 10
401.0725952447
 20
408.3482605673
 11
345.866922469
 21
408.3482605673
  0
LINE
  5
25A
100
AcDbEntity
  8
0
100
AcDbLine
 62
7
  6
CONTINUOUS
 10
406.2725952447
 20
503.1482605673
 11
345.866922469
 21
503.1482605673
  0
LINE
  5
25B
100
AcDbEntity
  8
0
100
AcDbLine
 62
7
  6
CONTINUOUS
 10
346.616922469
 20
408.3482605673
 11
346.616922469
 21
455.7482605673
  0
LINE
  5
25C
100
AcDbEntity
  8
0
100
AcDbLine
 62
7
  6
CONTINUOUS
 10
346.616922469
 20
503.1482605673
 11
346.616922469
 21
455.7482605673
  0
INSERT
  5
25D
100
AcDbEntity
  8
0
100
AcDbBlockReference
 62
7
  6
CONTINUOUS
  2
_CLOSED
 10
346.616922469
 20
408.3482605673
 41
2.5
 42
2.5
 43
2.5
 50
270.0
  0
INSERT
  5
25E
100
AcDbEntity
  8
0
100
AcDbBlockReference
 62
7
  6
CONTINUOUS
  2
_CLOSED
 10
346.616922469
 20
503.1482605673
 41
2.5
 42
2.5
 43
2.5
 50
90.0
  0
ENDBLK
  5
25F
100
AcDbEntity
  8
0
  6
BYBLOCK
 62
0
100
AcDbBlockEnd
  0
BLOCK
  5
260
100
AcDbEntity
  8
0
100
AcDbBlockBegin
 62
7
  6
CONTINUOUS
  2
*D1
 70
65
 10
0.0
 20
0.0
  3
*D1
  1

  0
MTEXT
  5
261
100
AcDbEntity
  8
0
100
AcDbMText
 62
7
  6
CONTINUOUS
  7
STANDARD
 71
2
 72
1
 10
422.2725952447
 20
394.1619540691
 30
0.0
 11
1.0
 21
0.0
 31
0.0
  1
42,4
 40
6.0
 41
16.3048327138
  0
LINE
  5
262
100
AcDbEntity
  8
0
100
AcDbLine
 62
7
  6
CONTINUOUS
 10
401.0725952447
 20
392.3560914905
 11
401.0725952447
 21
385.9119540691
  0
LINE
  5
263
100
AcDbEntity
  8
0
100
AcDbLine
 62
7
  6
CONTINUOUS
 10
443.4725952447
 20
391.8295203226
 11
443.4725952447
 21
385.9119540691
  0
LINE
  5
264
100
AcDbEntity
  8
0
100
AcDbLine
 62
7
  6
CONTINUOUS
 10
401.0725952447
 20
386.6619540691
 11
422.2725952447
 21
386.6619540691
  0
LINE
  5
265
100
AcDbEntity
  8
0
100
AcDbLine
 62
7
  6
CONTINUOUS
 10
443.4725952447
 20
386.6619540691
 11
422.2725952447
 21
386.6619540691
  0
INSERT
  5
266
100
AcDbEntity
  8
0
100
AcDbBlockReference
 62
7
  6
CONTINUOUS
  2
_CLOSED
 10
401.0725952447
 20
386.6619540691
 41
2.5
 42
2.5
 43
2.5
 50
180.0
  0
INSERT
  5
267
100
AcDbEntity
  8
0
100
AcDbBlockReference
 62
7
  6
CONTINUOUS
  2
_CLOSED
 10
443.4725952447
 20
386.6619540691
 41
2.5
 42
2.5
 43
2.5
  0
ENDBLK
  5
268
100
AcDbEntity
  8
0
  6
BYBLOCK
 62
0
100
AcDbBlockEnd
  0
BLOCK
  5
269
100
AcDbEntity
  8
0
100
AcDbBlockBegin
 62
7
  6
CONTINUOUS
  2
*D2
 70
65
 10
0.0
 20
0.0
  3
*D2
  1

  0
MTEXT
  5
26A
100
AcDbEntity
  8
0
100
AcDbMText
 62
7
  6
CONTINUOUS
  7
STANDARD
 71
2
 72
1
 10
422.2725952447
 20
369.225672848
 30
0.0
 11
1.0
 21
0.0
 31
0.0
  1
82,1
 40
6.0
 41
16.3048327138
  0
LINE
  5
26B
100
AcDbEntity
  8
0
100
AcDbLine
 62
7
  6
CONTINUOUS
 10
381.2225952447
 20
391.8295203226
 11
381.2225952447
 21
360.975672848
  0
LINE
  5
26C
100
AcDbEntity
  8
0
100
AcDbLine
 62
7
  6
CONTINUOUS
 10
463.3225952447
 20
391.8295203226
 11
463.3225952447
 21
360.975672848
  0
LINE
  5
26D
100
AcDbEntity
  8
0
100
AcDbLine
 62
7
  6
CONTINUOUS
 10
381.2225952447
 20
361.725672848
 11
422.2725952447
 21
361.725672848
  0
LINE
  5
26E
100
AcDbEntity
  8
0
100
AcDbLine
 62
7
  6
CONTINUOUS
 10
463.3225952447
 20
361.725672848
 11
422.2725952447
 21
361.725672848
  0
INSERT
  5
26F
100
AcDbEntity
  8
0
100
AcDbBlockReference
 62
7
  6
CONTINUOUS
  2
_CLOSED
 10
381.2225952447
 20
361.725672848
 41
2.5
 42
2.5
 43
2.5
 50
180.0
  0
INSERT
  5
270
100
AcDbEntity
  8
0
100
AcDbBlockReference
 62
7
  6
CONTINUOUS
  2
_CLOSED
 10
463.3225952447
 20
361.725672848
 41
2.5
 42
2.5
 43
2.5
  0
ENDBLK
  5
271
100
AcDbEntity
  8
0
  6
BYBLOCK
 62
0
100
AcDbBlockEnd
  0
BLOCK
  5
272
100
AcDbEntity
  8
0
100
AcDbBlockBegin
 62
7
  6
CONTINUOUS
  2
*D3
 70
65
 10
0.0
 20
0.0
  3
*D3
  1

  0
MTEXT
  5
273
100
AcDbEntity
  8
0
100
AcDbMText
 62
7
  6
CONTINUOUS
  7
STANDARD
 71
2
 72
1
 10
1813.4460706479
 20
375.8988398331
 30
0.0
 11
1.0
 21
0.0
 31
0.0
  1
1689
 40
6.0
 41
18.6468401487
  0
LINE
  5
274
100
AcDbEntity
  8
0
100
AcDbLine
 62
7
  6
CONTINUOUS
 10
968.9460706479
 20
391.8295203226
 11
968.9460706479
 21
367.6488398331
  0
LINE
  5
275
100
AcDbEntity
  8
0
100
AcDbLine
 62
7
  6
CONTINUOUS
 10
2657.9460706479
 20
391.8295203226
 11
2657.9460706479
 21
367.6488398331
  0
LINE
  5
276
100
AcDbEntity
  8
0
100
AcDbLine
 62
7
  6
CONTINUOUS
 10
968.9460706479
 20
368.3988398331
 11
1813.4460706479
 21
368.3988398331
  0
LINE
  5
277
100
AcDbEntity
  8
0
100
AcDbLine
 62
7
  6
CONTINUOUS
 10
2657.9460706479
 20
368.3988398331
 11
1813.4460706479
 21
368.3988398331
  0
INSERT
  5
278
100
AcDbEntity
  8
0
100
AcDbBlockReference
 62
7
  6
CONTINUOUS
  2
_CLOSED
 10
968.9460706479
 20
368.3988398331
 41
2.5
 42
2.5
 43
2.5
 50
180.0
  0
INSERT
  5
279
100
AcDbEntity
  8
0
100
AcDbBlockReference
 62
7
  6
CONTINUOUS
  2
_CLOSED
 10
2657.9460706479
 20
368.3988398331
 41
2.5
 42
2.5
 43
2.5
  0
ENDBLK
  5
27A
100
AcDbEntity
  8
0
  6
BYBLOCK
 62
0
100
AcDbBlockEnd
  0
ENDSEC
  0
SECTION
  2
ENTITIES
  0
DIMENSION
  5
27B
100
AcDbEntity
  8
0
100
AcDbDimension
 62
7
  6
CONTINUOUS
  2
*D0
 10
346.616922469
 20
503.1482605673
 11
346.616922469
 21
455.7181673469
 70
160
  3
DIMSTYLE_1
100
AcDbAlignedDimension
 13
401.8225952447
 23
408.3482605673
 14
407.0225952447
 24
503.1482605673
 50
90.0
100
AcDbRotatedDimension
  0
DIMENSION
  5
27C
100
AcDbEntity
  8
0
100
AcDbDimension
 62
7
  6
CONTINUOUS
  2
*D1
 10
443.4725952447
 20
386.6619540691
 11
422.1197998047
 21
386.6619540691
 70
160
  3
DIMSTYLE_1
100
AcDbAlignedDimension
 13
401.0725952447
 23
393.1060914905
 14
443.4725952447
 24
392.5795203226
100
AcDbRotatedDimension
  0
DIMENSION
  5
27D
100
AcDbEntity
  8
0
100
AcDbDimension
 62
7
  6
CONTINUOUS
  2
*D2
 10
463.3225952447
 20
361.725672848
 11
421.6625732422
 21
361.725672848
 70
160
  3
DIMSTYLE_1
100
AcDbAlignedDimension
 13
381.2225952447
 23
392.5795203226
 14
463.3225952447
 24
392.5795203226
100
AcDbRotatedDimension
  0
DIMENSION
  5
27E
100
AcDbEntity
  8
0
100
AcDbDimension
 62
7
  6
CONTINUOUS
  2
*D3
 10
2657.9460706479
 20
368.3988398331
 11
1813.6989257813
 21
368.3988398331
 70
160
  3
DIMSTYLE_2
100
AcDbAlignedDimension
 13
968.9460706479
 23
392.5795203226
 14
2657.9460706479
 24
392.5795203226
100
AcDbRotatedDimension
  0
LINE
  5
27F
100
AcDbEntity
  8
0
100
AcDbLine
 62
2
  6
CONTINUOUS
 10
3099.5507214317
 20
50.7776170738
 11
3189.5507214317
 21
50.7776170738
  0
LINE
  5
280
100
AcDbEntity
  8
0
100
AcDbLine
 62
2
  6
CONTINUOUS
 10
3099.5507214317
 20
50.7776170738
 11
3099.5507214317
 21
10.7776170738
  0
LINE
  5
281
100
AcDbEntity
  8
0
100
AcDbLine
 62
2
  6
CONTINUOUS
 10
3129.5507214317
 20
44.7776170738
 11
3189.5507214317
 21
44.7776170738
  0
LINE
  5
282
100
AcDbEntity
  8
0
100
AcDbLine
 62
2
  6
CONTINUOUS
 10
3129.5507214317
 20
38.7776170738
 11
3189.5507214317
 21
38.7776170738
  0
LINE
  5
283
100
AcDbEntity
  8
0
100
AcDbLine
 62
2
  6
CONTINUOUS
 10
3129.5507214317
 20
28.7776170738
 11
3189.5507214317
 21
28.7776170738
  0
LINE
  5
284
100
AcDbEntity
  8
0
100
AcDbLine
 62
2
  6
CONTINUOUS
 10
3099.5507214317
 20
23.7776170738
 11
3189.5507214317
 21
23.7776170738
  0
LINE
  5
285
100
AcDbEntity
  8
0
100
AcDbLine
 62
2
  6
CONTINUOUS
 10
3099.5507214317
 20
10.7776170738
 11
3189.5507214317
 21
10.7776170738
  0
LINE
  5
286
100
AcDbEntity
  8
0
100
AcDbLine
 62
2
  6
CONTINUOUS
 10
3129.5507214317
 20
50.7776170738
 11
3129.5507214317
 21
23.7776170738
  0
LINE
  5
287
100
AcDbEntity
  8
0
100
AcDbLine
 62
2
  6
CONTINUOUS
 10
3169.5507214317
 20
50.7776170738
 11
3169.5507214317
 21
38.7776170738
  0
LINE
  5
288
100
AcDbEntity
  8
0
100
AcDbLine
 62
2
  6
CONTINUOUS
 10
3189.5507214317
 20
50.7776170738
 11
3189.5507214317
 21
10.7776170738
  0
INSERT
  5
289
100
AcDbEntity
  8
0
100
AcDbBlockReference
 62
2
  6
CONTINUOUS
  2
LOGO2_BL0
 10
3113.3767684765
 20
37.2776170738
  0
MTEXT
  5
28A
100
AcDbEntity
  8
9_SOLID
100
AcDbMText
 62
2
  6
CONTINUOUS
  7
TEXTSTYLE_2
 71
1
 72
1
 10
3131.0382214317
 20
49.2776170738
 30
0.0
 11
1.0
 21
0.0
 31
0.0
  1
6F3_C_143
 40
3.0
 41
30.9642857143
  0
MTEXT
  5
28B
100
AcDbEntity
  8
0
100
AcDbMText
 62
2
  6
CONTINUOUS
  7
TEXTSTYLE_2
 71
1
 72
1
 10
3171.0382214317
 20
49.0276170738
 30
0.0
 11
1.0
 21
0.0
 31
0.0
  1
Rev:00
 40
3.5
 41
22.75
  0
MTEXT
  5
28C
100
AcDbEntity
  8
9_SOLID
100
AcDbMText
 62
2
  6
CONTINUOUS
  7
TEXTSTYLE_2
 71
1
 72
1
 10
3131.0382214317
 20
43.0276170738
 30
0.0
 11
1.0
 21
0.0
 31
0.0
  1
Scale:1:1
 40
3.5
 41
28.375
  0
MTEXT
  5
28D
100
AcDbEntity
  8
9_SOLID
100
AcDbMText
 62
2
  6
CONTINUOUS
  7
TEXTSTYLE_2
 71
1
 72
1
 10
3171.0382214317
 20
43.5276170738
 30
0.0
 11
1.0
 21
0.0
 31
0.0
  1
3200 by 2500
 40
3.5
 41
48.5
  0
MTEXT
  5
28E
100
AcDbEntity
  8
0
100
AcDbMText
 62
2
  6
CONTINUOUS
  7
TEXTSTYLE_2
 71
1
 72
1
 10
3131.0382214317
 20
35.5276170738
 30
0.0
 11
1.0
 21
0.0
 31
0.0
  1
CASS. BRENTA 1.5 ARRETRATA
 40
3.5
 41
107.0
  0
MTEXT
  5
28F
100
AcDbEntity
  8
0
100
AcDbMText
 62
2
  6
CONTINUOUS
  7
TEXTSTYLE_2
 71
1
 72
1
 10
3131.0382214317
 20
27.5276170738
 30
0.0
 11
1.0
 21
0.0
 31
0.0
  1
DATE:08/05/18
 40
2.5
 41
36.875
  0
MTEXT
  5
290
100
AcDbEntity
  8
9_SOLID
100
AcDbMText
 62
2
  6
CONTINUOUS
  7
TEXTSTYLE_2
 71
1
 72
1
 10
3101.0382214317
 20
23.4651170738
 30
0.0
 11
1.0
 21
0.0
 31
0.0
  1
Any integral or partial reproductions are prohibited \Pwithout prior authorisation of L {\Ftxt.shx;\W0.190476;\H2.250000; }& L Luce & Light s.r.l., \Pin accordance with the law in force. \PAll rights reserved.
 40
2.25
 41
134.5982142857
  0
LINE
  5
291
100
AcDbEntity
  8
0
100
AcDbLine
 62
7
  6
CONTINUOUS
 10
0.0
 20
0.0
 11
0.0
 21
2500.0
  0
LINE
  5
292
100
AcDbEntity
  8
0
100
AcDbLine
 62
7
  6
CONTINUOUS
 10
0.0
 20
0.0
 11
3200.0
 21
0.0
  0
LINE
  5
293
100
AcDbEntity
  8
0
100
AcDbLine
 62
7
  6
CONTINUOUS
 10
0.0
 20
2500.0
 11
3200.0
 21
2500.0
  0
LINE
  5
294
100
AcDbEntity
  8
0
100
AcDbLine
 62
7
  6
CONTINUOUS
 10
3200.0
 20
0.0
 11
3200.0
 21
2500.0
  0
LINE
  5
295
100
AcDbEntity
  8
6_ALL_SURFS
100
AcDbLine
 62
7
  6
CONTINUOUS
 10
383.9225952447
 20
410.9982605673
 11
384.2225952447
 21
410.8482605673
  0
LINE
  5
296
100
AcDbEntity
  8
6_ALL_SURFS
100
AcDbLine
 62
7
  6
CONTINUOUS
 10
386.9225952447
 20
410.9982605673
 11
387.2225952447
 21
410.8482605673
  0
LINE
  5
297
100
AcDbEntity
  8
6_ALL_SURFS
100
AcDbLine
 62
7
  6
CONTINUOUS
 10
389.9225952447
 20
410.9982605673
 11
390.2225952447
 21
410.8482605673
  0
LINE
  5
298
100
AcDbEntity
  8
6_ALL_SURFS
100
AcDbLine
 62
7
  6
CONTINUOUS
 10
392.9225952447
 20
410.9982605673
 11
393.2225952447
 21
410.8482605673
  0
LINE
  5
299
100
AcDbEntity
  8
6_ALL_SURFS
100
AcDbLine
 62
7
  6
CONTINUOUS
 10
395.9225952447
 20
410.9982605673
 11
396.2225952447
 21
410.8482605673
  0
LINE
  5
29A
100
AcDbEntity
  8
6_ALL_SURFS
100
AcDbLine
 62
7
  6
CONTINUOUS
 10
398.9225952447
 20
410.9982605673
 11
399.2225952447
 21
410.8482605673
  0
LINE
  5
29B
100
AcDbEntity
  8
7_ALL_FEATURES
100
AcDbLine
 62
7
  6
CONTINUOUS
 10
460.8225952447
 20
409.8482605673
 11
462.9680668351
 21
410.0628077263
  0
LINE
  5
29C
100
AcDbEntity
  8
7_ALL_FEATURES
100
AcDbLine
 62
7
  6
CONTINUOUS
 10
442.7225952447
 20
408.3482605673
 11
401.8225952447
 21
408.3482605673
  0
LINE
  5
29D
100
AcDbEntity
  8
6_ALL_SURFS
100
AcDbLine
 62
7
  6
CONTINUOUS
 10
401.0725952447
 20
409.8482605673
 11
399.2225952447
 21
409.8482605673
  0
LINE
  5
29E
100
AcDbEntity
  8
6_ALL_SURFS
100
AcDbLine
 62
7
  6
CONTINUOUS
 10
398.6225952447
 20
409.8482605673
 11
396.2225952447
 21
409.8482605673
  0
LINE
  5
29F
100
AcDbEntity
  8
6_ALL_SURFS
100
AcDbLine
 62
7
  6
CONTINUOUS
 10
395.6225952447
 20
409.8482605673
 11
393.2225952447
 21
409.8482605673
  0
LINE
  5
2A0
100
AcDbEntity
  8
6_ALL_SURFS
100
AcDbLine
 62
7
  6
CONTINUOUS
 10
392.6225952447
 20
409.8482605673
 11
390.2225952447
 21
409.8482605673
  0
LINE
  5
2A1
100
AcDbEntity
  8
6_ALL_SURFS
100
AcDbLine
 62
7
  6
CONTINUOUS
 10
389.6225952447
 20
409.8482605673
 11
387.2225952447
 21
409.8482605673
  0
LINE
  5
2A2
100
AcDbEntity
  8
6_ALL_SURFS
100
AcDbLine
 62
7
  6
CONTINUOUS
 10
386.6225952447
 20
409.8482605673
 11
383.7225952447
 21
409.8482605673
  0
LINE
  5
2A3
100
AcDbEntity
  8
7_ALL_FEATURES
100
AcDbLine
 62
7
  6
CONTINUOUS
 10
443.4725952447
 20
409.8482605673
 11
445.3225952447
 21
409.8482605673
  0
LINE
  5
2A4
100
AcDbEntity
  8
7_ALL_FEATURES
100
AcDbLine
 62
7
  6
CONTINUOUS
 10
445.9225952447
 20
409.8482605673
 11
448.3225952447
 21
409.8482605673
  0
LINE
  5
2A5
100
AcDbEntity
  8
7_ALL_FEATURES
100
AcDbLine
 62
7
  6
CONTINUOUS
 10
448.9225952447
 20
409.8482605673
 11
451.3225952447
 21
409.8482605673
  0
LINE
  5
2A6
100
AcDbEntity
  8
7_ALL_FEATURES
100
AcDbLine
 62
7
  6
CONTINUOUS
 10
451.9225952447
 20
409.8482605673
 11
454.3225952447
 21
409.8482605673
  0
LINE
  5
2A7
100
AcDbEntity
  8
7_ALL_FEATURES
100
AcDbLine
 62
7
  6
CONTINUOUS
 10
454.9225952447
 20
409.8482605673
 11
457.3225952447
 21
409.8482605673
  0
LINE
  5
2A8
100
AcDbEntity
  8
7_ALL_FEATURES
100
AcDbLine
 62
7
  6
CONTINUOUS
 10
457.9225952447
 20
409.8482605673
 11
460.8225952447
 21
409.8482605673
  0
LINE
  5
2A9
100
AcDbEntity
  8
6_ALL_SURFS
100
AcDbLine
 62
7
  6
CONTINUOUS
 10
383.7225952447
 20
409.8482605673
 11
381.5771236543
 21
410.0628077263
  0
LINE
  5
2AA
100
AcDbEntity
  8
7_ALL_FEATURES
100
AcDbLine
 62
7
  6
CONTINUOUS
 10
462.9288918868
 20
410.8482605673
 11
460.9225952447
 21
410.8482605673
  0
LINE
  5
2AB
100
AcDbEntity
  8
7_ALL_FEATURES
100
AcDbLine
 62
7
  6
CONTINUOUS
 10
460.3225952447
 20
410.8482605673
 11
457.9225952447
 21
410.8482605673
  0
LINE
  5
2AC
100
AcDbEntity
  8
7_ALL_FEATURES
100
AcDbLine
 62
7
  6
CONTINUOUS
 10
457.3225952447
 20
410.8482605673
 11
454.9225952447
 21
410.8482605673
  0
LINE
  5
2AD
100
AcDbEntity
  8
7_ALL_FEATURES
100
AcDbLine
 62
7
  6
CONTINUOUS
 10
454.3225952447
 20
410.8482605673
 11
451.9225952447
 21
410.8482605673
  0
LINE
  5
2AE
100
AcDbEntity
  8
7_ALL_FEATURES
100
AcDbLine
 62
7
  6
CONTINUOUS
 10
451.3225952447
 20
410.8482605673
 11
448.9225952447
 21
410.8482605673
  0
LINE
  5
2AF
100
AcDbEntity
  8
7_ALL_FEATURES
100
AcDbLine
 62
7
  6
CONTINUOUS
 10
448.3225952447
 20
410.8482605673
 11
445.9225952447
 21
410.8482605673
  0
LINE
  5
2B0
100
AcDbEntity
  8
7_ALL_FEATURES
100
AcDbLine
 62
7
  6
CONTINUOUS
 10
445.3225952447
 20
410.8482605673
 11
443.6225952447
 21
410.8482605673
  0
LINE
  5
2B1
100
AcDbEntity
  8
6_ALL_SURFS
100
AcDbLine
 62
7
  6
CONTINUOUS
 10
381.6162986026
 20
410.8482605673
 11
383.6225952447
 21
410.8482605673
  0
LINE
  5
2B2
100
AcDbEntity
  8
6_ALL_SURFS
100
AcDbLine
 62
7
  6
CONTINUOUS
 10
384.2225952447
 20
410.8482605673
 11
386.6225952447
 21
410.8482605673
  0
LINE
  5
2B3
100
AcDbEntity
  8
6_ALL_SURFS
100
AcDbLine
 62
7
  6
CONTINUOUS
 10
387.2225952447
 20
410.8482605673
 11
389.6225952447
 21
410.8482605673
  0
LINE
  5
2B4
100
AcDbEntity
  8
6_ALL_SURFS
100
AcDbLine
 62
7
  6
CONTINUOUS
 10
390.2225952447
 20
410.8482605673
 11
392.6225952447
 21
410.8482605673
  0
LINE
  5
2B5
100
AcDbEntity
  8
6_ALL_SURFS
100
AcDbLine
 62
7
  6
CONTINUOUS
 10
393.2225952447
 20
410.8482605673
 11
395.6225952447
 21
410.8482605673
  0
LINE
  5
2B6
100
AcDbEntity
  8
6_ALL_SURFS
100
AcDbLine
 62
7
  6
CONTINUOUS
 10
396.2225952447
 20
410.8482605673
 11
398.6225952447
 21
410.8482605673
  0
LINE
  5
2B7
100
AcDbEntity
  8
6_ALL_SURFS
100
AcDbLine
 62
7
  6
CONTINUOUS
 10
399.2225952447
 20
410.8482605673
 11
400.9225952447
 21
410.8482605673
  0
LINE
  5
2B8
100
AcDbEntity
  8
7_ALL_FEATURES
100
AcDbLine
 62
7
  6
CONTINUOUS
 10
445.9225952447
 20
410.8482605673
 11
445.6225952447
 21
410.9982605673
  0
LINE
  5
2B9
100
AcDbEntity
  8
7_ALL_FEATURES
100
AcDbLine
 62
7
  6
CONTINUOUS
 10
448.9225952447
 20
410.8482605673
 11
448.6225952447
 21
410.9982605673
  0
LINE
  5
2BA
100
AcDbEntity
  8
7_ALL_FEATURES
100
AcDbLine
 62
7
  6
CONTINUOUS
 10
451.9225952447
 20
410.8482605673
 11
451.6225952447
 21
410.9982605673
  0
LINE
  5
2BB
100
AcDbEntity
  8
7_ALL_FEATURES
100
AcDbLine
 62
7
  6
CONTINUOUS
 10
454.9225952447
 20
410.8482605673
 11
454.6225952447
 21
410.9982605673
  0
LINE
  5
2BC
100
AcDbEntity
  8
7_ALL_FEATURES
100
AcDbLine
 62
7
  6
CONTINUOUS
 10
401.0725952447
 20
437.4982605673
 11
401.0725952447
 21
409.0982605673
  0
LINE
  5
2BD
100
AcDbEntity
  8
6_ALL_SURFS
100
AcDbLine
 62
7
  6
CONTINUOUS
 10
404.2725952447
 20
482.841363555
 11
406.2725952447
 21
491.8627805623
  0
LINE
  5
2BE
100
AcDbEntity
  8
7_ALL_FEATURES
100
AcDbLine
 62
7
  6
CONTINUOUS
 10
440.9475952447
 20
433.0982605673
 11
440.1975952447
 21
433.0982605673
  0
LINE
  5
2BF
100
AcDbEntity
  8
7_ALL_FEATURES
100
AcDbLine
 62
7
  6
CONTINUOUS
 10
404.3475952447
 20
433.0982605673
 11
403.5975952447
 21
433.0982605673
  0
LINE
  5
2C0
100
AcDbEntity
  8
7_ALL_FEATURES
100
AcDbLine
 62
7
  6
CONTINUOUS
 10
402.7225952447
 20
433.9732605673
 11
403.5975952447
 21
433.9732605673
  0
LINE
  5
2C1
100
AcDbEntity
  8
7_ALL_FEATURES
100
AcDbLine
 62
7
  6
CONTINUOUS
 10
404.3475952447
 20
433.9732605673
 11
405.2225952447
 21
433.9732605673
  0
LINE
  5
2C2
100
AcDbEntity
  8
7_ALL_FEATURES
100
AcDbLine
 62
7
  6
CONTINUOUS
 10
440.9475952447
 20
433.9732605673
 11
441.8225952447
 21
433.9732605673
  0
LINE
  5
2C3
100
AcDbEntity
  8
7_ALL_FEATURES
100
AcDbLine
 62
7
  6
CONTINUOUS
 10
439.3225952447
 20
433.9732605673
 11
440.1975952447
 21
433.9732605673
  0
LINE
  5
2C4
100
AcDbEntity
  8
7_ALL_FEATURES
100
AcDbLine
 62
7
  6
CONTINUOUS
 10
441.8225952447
 20
434.7232605673
 11
440.9475952447
 21
434.7232605673
  0
LINE
  5
2C5
100
AcDbEntity
  8
7_ALL_FEATURES
100
AcDbLine
 62
7
  6
CONTINUOUS
 10
440.1975952447
 20
434.7232605673
 11
439.3225952447
 21
434.7232605673
  0
LINE
  5
2C6
100
AcDbEntity
  8
7_ALL_FEATURES
100
AcDbLine
 62
7
  6
CONTINUOUS
 10
405.2225952447
 20
434.7232605673
 11
404.3475952447
 21
434.7232605673
  0
LINE
  5
2C7
100
AcDbEntity
  8
7_ALL_FEATURES
100
AcDbLine
 62
7
  6
CONTINUOUS
 10
403.5975952447
 20
434.7232605673
 11
402.7225952447
 21
434.7232605673
  0
LINE
  5
2C8
100
AcDbEntity
  8
7_ALL_FEATURES
100
AcDbLine
 62
7
  6
CONTINUOUS
 10
457.9225952447
 20
410.8482605673
 11
457.6225952447
 21
410.9982605673
  0
LINE
  5
2C9
100
AcDbEntity
  8
7_ALL_FEATURES
100
AcDbLine
 62
7
  6
CONTINUOUS
 10
460.9225952447
 20
410.8482605673
 11
460.6225952447
 21
410.9982605673
  0
LINE
  5
2CA
100
AcDbEntity
  8
7_ALL_FEATURES
100
AcDbLine
 62
7
  6
CONTINUOUS
 10
402.7225952447
 20
433.9732605673
 11
402.7225952447
 21
434.7232605673
  0
LINE
  5
2CB
100
AcDbEntity
  8
7_ALL_FEATURES
100
AcDbLine
 62
7
  6
CONTINUOUS
 10
403.5975952447
 20
435.5982605673
 11
403.5975952447
 21
434.7232605673
  0
LINE
  5
2CC
100
AcDbEntity
  8
7_ALL_FEATURES
100
AcDbLine
 62
7
  6
CONTINUOUS
 10
403.5975952447
 20
433.9732605673
 11
403.5975952447
 21
433.0982605673
  0
LINE
  5
2CD
100
AcDbEntity
  8
6_ALL_SURFS
100
AcDbLine
 62
7
  6
CONTINUOUS
 10
404.2725952447
 20
439.7482605673
 11
404.2725952447
 21
482.841363555
  0
LINE
  5
2CE
100
AcDbEntity
  8
7_ALL_FEATURES
100
AcDbLine
 62
7
  6
CONTINUOUS
 10
404.3475952447
 20
433.0982605673
 11
404.3475952447
 21
433.9732605673
  0
LINE
  5
2CF
100
AcDbEntity
  8
7_ALL_FEATURES
100
AcDbLine
 62
7
  6
CONTINUOUS
 10
404.3475952447
 20
434.7232605673
 11
404.3475952447
 21
435.5982605673
  0
LINE
  5
2D0
100
AcDbEntity
  8
7_ALL_FEATURES
100
AcDbLine
 62
7
  6
CONTINUOUS
 10
405.2225952447
 20
434.7232605673
 11
405.2225952447
 21
433.9732605673
  0
LINE
  5
2D1
100
AcDbEntity
  8
7_ALL_FEATURES
100
AcDbLine
 62
7
  6
CONTINUOUS
 10
403.5975952447
 20
435.5982605673
 11
404.3475952447
 21
435.5982605673
  0
LINE
  5
2D2
100
AcDbEntity
  8
7_ALL_FEATURES
100
AcDbLine
 62
7
  6
CONTINUOUS
 10
440.1975952447
 20
435.5982605673
 11
440.9475952447
 21
435.5982605673
  0
LINE
  5
2D3
100
AcDbEntity
  8
6_ALL_SURFS
100
AcDbLine
 62
7
  6
CONTINUOUS
 10
442.7225952447
 20
438.2482605673
 11
441.7725952447
 21
438.2482605673
  0
LINE
  5
2D4
100
AcDbEntity
  8
6_ALL_SURFS
100
AcDbLine
 62
7
  6
CONTINUOUS
 10
401.8225952447
 20
438.2482605673
 11
402.7725952447
 21
438.2482605673
  0
LINE
  5
2D5
100
AcDbEntity
  8
6_ALL_SURFS
100
AcDbLine
 62
7
  6
CONTINUOUS
 10
406.2725952447
 20
491.8627805623
 11
406.2725952447
 21
502.8482605673
  0
LINE
  5
2D6
100
AcDbEntity
  8
7_ALL_FEATURES
100
AcDbLine
 62
7
  6
CONTINUOUS
 10
409.0225952447
 20
499.5732605673
 11
409.0225952447
 21
500.3232605673
  0
LINE
  5
2D7
100
AcDbEntity
  8
7_ALL_FEATURES
100
AcDbLine
 62
7
  6
CONTINUOUS
 10
409.8975952447
 20
501.1982605673
 11
409.8975952447
 21
500.3232605673
  0
LINE
  5
2D8
100
AcDbEntity
  8
7_ALL_FEATURES
100
AcDbLine
 62
7
  6
CONTINUOUS
 10
409.8975952447
 20
499.5732605673
 11
409.8975952447
 21
498.6982605673
  0
LINE
  5
2D9
100
AcDbEntity
  8
7_ALL_FEATURES
100
AcDbLine
 62
7
  6
CONTINUOUS
 10
410.6475952447
 20
498.6982605673
 11
410.6475952447
 21
499.5732605673
  0
LINE
  5
2DA
100
AcDbEntity
  8
7_ALL_FEATURES
100
AcDbLine
 62
7
  6
CONTINUOUS
 10
410.6475952447
 20
500.3232605673
 11
410.6475952447
 21
501.1982605673
  0
LINE
  5
2DB
100
AcDbEntity
  8
7_ALL_FEATURES
100
AcDbLine
 62
7
  6
CONTINUOUS
 10
411.5225952447
 20
500.3232605673
 11
411.5225952447
 21
499.5732605673
  0
LINE
  5
2DC
100
AcDbEntity
  8
7_ALL_FEATURES
100
AcDbLine
 62
7
  6
CONTINUOUS
 10
433.0225952447
 20
499.5732605673
 11
433.0225952447
 21
500.3232605673
  0
LINE
  5
2DD
100
AcDbEntity
  8
7_ALL_FEATURES
100
AcDbLine
 62
7
  6
CONTINUOUS
 10
433.8975952447
 20
501.1982605673
 11
433.8975952447
 21
500.3232605673
  0
LINE
  5
2DE
100
AcDbEntity
  8
7_ALL_FEATURES
100
AcDbLine
 62
7
  6
CONTINUOUS
 10
433.8975952447
 20
499.5732605673
 11
433.8975952447
 21
498.6982605673
  0
LINE
  5
2DF
100
AcDbEntity
  8
7_ALL_FEATURES
100
AcDbLine
 62
7
  6
CONTINUOUS
 10
434.6475952447
 20
498.6982605673
 11
434.6475952447
 21
499.5732605673
  0
LINE
  5
2E0
100
AcDbEntity
  8
7_ALL_FEATURES
100
AcDbLine
 62
7
  6
CONTINUOUS
 10
434.6475952447
 20
500.3232605673
 11
434.6475952447
 21
501.1982605673
  0
LINE
  5
2E1
100
AcDbEntity
  8
7_ALL_FEATURES
100
AcDbLine
 62
7
  6
CONTINUOUS
 10
435.5225952447
 20
500.3232605673
 11
435.5225952447
 21
499.5732605673
  0
LINE
  5
2E2
100
AcDbEntity
  8
6_ALL_SURFS
100
AcDbLine
 62
7
  6
CONTINUOUS
 10
438.2725952447
 20
502.3982605673
 11
438.2725952447
 21
491.8627805623
  0
LINE
  5
2E3
100
AcDbEntity
  8
7_ALL_FEATURES
100
AcDbLine
 62
7
  6
CONTINUOUS
 10
438.2725952447
 20
502.3982605673
 11
438.2725952447
 21
502.8482605673
  0
LINE
  5
2E4
100
AcDbEntity
  8
7_ALL_FEATURES
100
AcDbLine
 62
7
  6
CONTINUOUS
 10
439.3225952447
 20
433.9732605673
 11
439.3225952447
 21
434.7232605673
  0
LINE
  5
2E5
100
AcDbEntity
  8
7_ALL_FEATURES
100
AcDbLine
 62
7
  6
CONTINUOUS
 10
440.1975952447
 20
435.5982605673
 11
440.1975952447
 21
434.7232605673
  0
LINE
  5
2E6
100
AcDbEntity
  8
7_ALL_FEATURES
100
AcDbLine
 62
7
  6
CONTINUOUS
 10
440.1975952447
 20
433.9732605673
 11
440.1975952447
 21
433.0982605673
  0
LINE
  5
2E7
100
AcDbEntity
  8
6_ALL_SURFS
100
AcDbLine
 62
7
  6
CONTINUOUS
 10
440.2725952447
 20
482.841363555
 11
440.2725952447
 21
439.7482605673
  0
LINE
  5
2E8
100
AcDbEntity
  8
7_ALL_FEATURES
100
AcDbLine
 62
7
  6
CONTINUOUS
 10
440.9475952447
 20
433.0982605673
 11
440.9475952447
 21
433.9732605673
  0
LINE
  5
2E9
100
AcDbEntity
  8
7_ALL_FEATURES
100
AcDbLine
 62
7
  6
CONTINUOUS
 10
440.9475952447
 20
434.7232605673
 11
440.9475952447
 21
435.5982605673
  0
LINE
  5
2EA
100
AcDbEntity
  8
7_ALL_FEATURES
100
AcDbLine
 62
7
  6
CONTINUOUS
 10
441.8225952447
 20
434.7232605673
 11
441.8225952447
 21
433.9732605673
  0
LINE
  5
2EB
100
AcDbEntity
  8
7_ALL_FEATURES
100
AcDbLine
 62
7
  6
CONTINUOUS
 10
443.4725952447
 20
409.0982605673
 11
443.4725952447
 21
437.4982605673
  0
LINE
  5
2EC
100
AcDbEntity
  8
6_ALL_SURFS
100
AcDbLine
 62
7
  6
CONTINUOUS
 10
383.6225952447
 20
410.8482605673
 11
383.9225952447
 21
410.9982605673
  0
LINE
  5
2ED
100
AcDbEntity
  8
6_ALL_SURFS
100
AcDbLine
 62
7
  6
CONTINUOUS
 10
386.6225952447
 20
410.8482605673
 11
386.9225952447
 21
410.9982605673
  0
LINE
  5
2EE
100
AcDbEntity
  8
6_ALL_SURFS
100
AcDbLine
 62
7
  6
CONTINUOUS
 10
389.6225952447
 20
410.8482605673
 11
389.9225952447
 21
410.9982605673
  0
LINE
  5
2EF
100
AcDbEntity
  8
6_ALL_SURFS
100
AcDbLine
 62
7
  6
CONTINUOUS
 10
411.2903652799
 20
480.0232605673
 11
412.0416678674
 21
480.0232605673
  0
LINE
  5
2F0
100
AcDbEntity
  8
6_ALL_SURFS
100
AcDbLine
 62
7
  6
CONTINUOUS
 10
432.503522622
 20
480.0232605673
 11
433.2548252095
 21
480.0232605673
  0
LINE
  5
2F1
100
AcDbEntity
  8
6_ALL_SURFS
100
AcDbLine
 62
7
  6
CONTINUOUS
 10
433.2548252095
 20
481.2732605673
 11
432.503522622
 21
481.2732605673
  0
LINE
  5
2F2
100
AcDbEntity
  8
6_ALL_SURFS
100
AcDbLine
 62
7
  6
CONTINUOUS
 10
412.0416678674
 20
481.2732605673
 11
411.2903652799
 21
481.2732605673
  0
LINE
  5
2F3
100
AcDbEntity
  8
6_ALL_SURFS
100
AcDbLine
 62
7
  6
CONTINUOUS
 10
438.2725952447
 20
491.8627805623
 11
440.2725952447
 21
482.841363555
  0
LINE
  5
2F4
100
AcDbEntity
  8
6_ALL_SURFS
100
AcDbLine
 62
7
  6
CONTINUOUS
 10
392.6225952447
 20
410.8482605673
 11
392.9225952447
 21
410.9982605673
  0
LINE
  5
2F5
100
AcDbEntity
  8
6_ALL_SURFS
100
AcDbLine
 62
7
  6
CONTINUOUS
 10
395.6225952447
 20
410.8482605673
 11
395.9225952447
 21
410.9982605673
  0
LINE
  5
2F6
100
AcDbEntity
  8
6_ALL_SURFS
100
AcDbLine
 62
7
  6
CONTINUOUS
 10
398.6225952447
 20
410.8482605673
 11
398.9225952447
 21
410.9982605673
  0
LINE
  5
2F7
100
AcDbEntity
  8
7_ALL_FEATURES
100
AcDbLine
 62
7
  6
CONTINUOUS
 10
434.6475952447
 20
498.6982605673
 11
433.8975952447
 21
498.6982605673
  0
LINE
  5
2F8
100
AcDbEntity
  8
7_ALL_FEATURES
100
AcDbLine
 62
7
  6
CONTINUOUS
 10
410.6475952447
 20
498.6982605673
 11
409.8975952447
 21
498.6982605673
  0
LINE
  5
2F9
100
AcDbEntity
  8
7_ALL_FEATURES
100
AcDbLine
 62
7
  6
CONTINUOUS
 10
409.0225952447
 20
499.5732605673
 11
409.8975952447
 21
499.5732605673
  0
LINE
  5
2FA
100
AcDbEntity
  8
7_ALL_FEATURES
100
AcDbLine
 62
7
  6
CONTINUOUS
 10
410.6475952447
 20
499.5732605673
 11
411.5225952447
 21
499.5732605673
  0
LINE
  5
2FB
100
AcDbEntity
  8
7_ALL_FEATURES
100
AcDbLine
 62
7
  6
CONTINUOUS
 10
434.6475952447
 20
499.5732605673
 11
435.5225952447
 21
499.5732605673
  0
LINE
  5
2FC
100
AcDbEntity
  8
7_ALL_FEATURES
100
AcDbLine
 62
7
  6
CONTINUOUS
 10
433.0225952447
 20
499.5732605673
 11
433.8975952447
 21
499.5732605673
  0
LINE
  5
2FD
100
AcDbEntity
  8
7_ALL_FEATURES
100
AcDbLine
 62
7
  6
CONTINUOUS
 10
435.5225952447
 20
500.3232605673
 11
434.6475952447
 21
500.3232605673
  0
LINE
  5
2FE
100
AcDbEntity
  8
7_ALL_FEATURES
100
AcDbLine
 62
7
  6
CONTINUOUS
 10
433.8975952447
 20
500.3232605673
 11
433.0225952447
 21
500.3232605673
  0
LINE
  5
2FF
100
AcDbEntity
  8
7_ALL_FEATURES
100
AcDbLine
 62
7
  6
CONTINUOUS
 10
411.5225952447
 20
500.3232605673
 11
410.6475952447
 21
500.3232605673
  0
LINE
  5
300
100
AcDbEntity
  8
7_ALL_FEATURES
100
AcDbLine
 62
7
  6
CONTINUOUS
 10
409.8975952447
 20
500.3232605673
 11
409.0225952447
 21
500.3232605673
  0
LINE
  5
301
100
AcDbEntity
  8
7_ALL_FEATURES
100
AcDbLine
 62
7
  6
CONTINUOUS
 10
409.8975952447
 20
501.1982605673
 11
410.6475952447
 21
501.1982605673
  0
LINE
  5
302
100
AcDbEntity
  8
7_ALL_FEATURES
100
AcDbLine
 62
7
  6
CONTINUOUS
 10
433.8975952447
 20
501.1982605673
 11
434.6475952447
 21
501.1982605673
  0
LINE
  5
303
100
AcDbEntity
  8
7_ALL_FEATURES
100
AcDbLine
 62
7
  6
CONTINUOUS
 10
445.6225952447
 20
410.9982605673
 11
445.3225952447
 21
410.8482605673
  0
LINE
  5
304
100
AcDbEntity
  8
7_ALL_FEATURES
100
AcDbLine
 62
7
  6
CONTINUOUS
 10
437.9725952447
 20
503.1482605673
 11
437.5225952447
 21
503.1482605673
  0
LINE
  5
305
100
AcDbEntity
  8
6_ALL_SURFS
100
AcDbLine
 62
7
  6
CONTINUOUS
 10
437.5225952447
 20
503.1482605673
 11
424.9183465558
 21
503.1482605673
  0
LINE
  5
306
100
AcDbEntity
  8
6_ALL_SURFS
100
AcDbLine
 62
7
  6
CONTINUOUS
 10
406.5725952447
 20
503.1482605673
 11
419.6268439337
 21
503.1482605673
  0
LINE
  5
307
100
AcDbEntity
  8
7_ALL_FEATURES
100
AcDbLine
 62
7
  6
CONTINUOUS
 10
420.4725952447
 20
503.1482605673
 11
424.0725952447
 21
503.1482605673
  0
LINE
  5
308
100
AcDbEntity
  8
7_ALL_FEATURES
100
AcDbLine
 62
7
  6
CONTINUOUS
 10
448.6225952447
 20
410.9982605673
 11
448.3225952447
 21
410.8482605673
  0
LINE
  5
309
100
AcDbEntity
  8
7_ALL_FEATURES
100
AcDbLine
 62
7
  6
CONTINUOUS
 10
451.6225952447
 20
410.9982605673
 11
451.3225952447
 21
410.8482605673
  0
LINE
  5
30A
100
AcDbEntity
  8
7_ALL_FEATURES
100
AcDbLine
 62
7
  6
CONTINUOUS
 10
454.6225952447
 20
410.9982605673
 11
454.3225952447
 21
410.8482605673
  0
LINE
  5
30B
100
AcDbEntity
  8
7_ALL_FEATURES
100
AcDbLine
 62
7
  6
CONTINUOUS
 10
457.6225952447
 20
410.9982605673
 11
457.3225952447
 21
410.8482605673
  0
LINE
  5
30C
100
AcDbEntity
  8
7_ALL_FEATURES
100
AcDbLine
 62
7
  6
CONTINUOUS
 10
460.6225952447
 20
410.9982605673
 11
460.3225952447
 21
410.8482605673
  0
LINE
  5
30D
100
AcDbEntity
  8
3_ALL_AXES
100
AcDbLine
 62
7
  6
CONTINUOUS
 10
967.9460706479
 20
431.5983086335
 11
967.9460706479
 21
437.0982125011
  0
LINE
  5
30E
100
AcDbEntity
  8
3_ALL_AXES
100
AcDbLine
 62
7
  6
CONTINUOUS
 10
967.9460706479
 20
497.1983086335
 11
967.9460706479
 21
502.6982125011
  0
LINE
  5
30F
100
AcDbEntity
  8
3_ALL_AXES
100
AcDbLine
 62
7
  6
CONTINUOUS
 10
968.0967909776
 20
431.5982605673
 11
968.0967909776
 21
437.0982605673
  0
LINE
  5
310
100
AcDbEntity
  8
3_ALL_AXES
100
AcDbLine
 62
7
  6
CONTINUOUS
 10
968.0967909776
 20
497.1982605673
 11
968.0967909776
 21
502.6982605673
  0
LINE
  5
311
100
AcDbEntity
  8
7_ALL_FEATURES
100
AcDbLine
 62
7
  6
CONTINUOUS
 10
968.9460706479
 20
408.3482605673
 11
968.9460706479
 21
437.4982605673
  0
LINE
  5
312
100
AcDbEntity
  8
6_ALL_SURFS
100
AcDbLine
 62
7
  6
CONTINUOUS
 10
968.9460706479
 20
437.4982605673
 11
968.9460706479
 21
503.1482605673
  0
LINE
  5
313
100
AcDbEntity
  8
6_ALL_SURFS
100
AcDbLine
 62
7
  6
CONTINUOUS
 10
970.4460706479
 20
408.3612136942
 11
970.4460706479
 21
408.3482605673
  0
LINE
  5
314
100
AcDbEntity
  8
7_ALL_FEATURES
100
AcDbLine
 62
7
  6
CONTINUOUS
 10
970.4460706479
 20
408.3612136942
 11
970.4460706479
 21
409.8482605673
  0
LINE
  5
315
100
AcDbEntity
  8
6_ALL_SURFS
100
AcDbLine
 62
7
  6
CONTINUOUS
 10
970.4460706479
 20
409.8482605673
 11
970.4460706479
 21
410.9982605673
  0
LINE
  5
316
100
AcDbEntity
  8
7_ALL_FEATURES
100
AcDbLine
 62
7
  6
CONTINUOUS
 10
970.4460706479
 20
410.9982605673
 11
970.4460706479
 21
420.9960419057
  0
LINE
  5
317
100
AcDbEntity
  8
6_ALL_SURFS
100
AcDbLine
 62
7
  6
CONTINUOUS
 10
970.4460706479
 20
420.9960419057
 11
970.4460706479
 21
423.7043310892
  0
LINE
  5
318
100
AcDbEntity
  8
7_ALL_FEATURES
100
AcDbLine
 62
7
  6
CONTINUOUS
 10
970.4460706479
 20
423.7043310892
 11
970.4460706479
 21
437.4982605673
  0
LINE
  5
319
100
AcDbEntity
  8
6_ALL_SURFS
100
AcDbLine
 62
7
  6
CONTINUOUS
 10
970.4460706479
 20
433.4482605673
 11
970.4460706479
 21
435.2482605673
  0
LINE
  5
31A
100
AcDbEntity
  8
6_ALL_SURFS
100
AcDbLine
 62
7
  6
CONTINUOUS
 10
970.4460706479
 20
437.4982605673
 11
970.4460706479
 21
503.1482605673
  0
LINE
  5
31B
100
AcDbEntity
  8
3_ALL_AXES
100
AcDbLine
 62
7
  6
CONTINUOUS
 10
968.9460706479
 20
497.9108908255
 11
968.0967909776
 21
497.1982605673
  0
LINE
  5
31C
100
AcDbEntity
  8
3_ALL_AXES
100
AcDbLine
 62
7
  6
CONTINUOUS
 10
968.9460706479
 20
436.3856303091
 11
968.0967909776
 21
437.0982605673
  0
LINE
  5
31D
100
AcDbEntity
  8
3_ALL_AXES
100
AcDbLine
 62
7
  6
CONTINUOUS
 10
968.9460706479
 20
432.3108908255
 11
968.0967909776
 21
431.5982605673
  0
LINE
  5
31E
100
AcDbEntity
  8
3_ALL_AXES
100
AcDbLine
 62
7
  6
CONTINUOUS
 10
968.9460706479
 20
501.9856303091
 11
968.0967909776
 21
502.6982605673
  0
LINE
  5
31F
100
AcDbEntity
  8
6_ALL_SURFS
100
AcDbLine
 62
7
  6
CONTINUOUS
 10
2656.4460706479
 20
408.3482605673
 11
970.4460706479
 21
408.3482605673
  0
LINE
  5
320
100
AcDbEntity
  8
7_ALL_FEATURES
100
AcDbLine
 62
7
  6
CONTINUOUS
 10
970.4460706479
 20
408.3482605673
 11
968.9460706479
 21
408.3482605673
  0
LINE
  5
321
100
AcDbEntity
  8
7_ALL_FEATURES
100
AcDbLine
 62
7
  6
CONTINUOUS
 10
2656.4460706479
 20
408.3482605673
 11
2657.9460706479
 21
408.3482605673
  0
LINE
  5
322
100
AcDbEntity
  8
6_ALL_SURFS
100
AcDbLine
 62
9
  6
CONTINUOUS
 10
2656.4460706479
 20
408.6482605673
 11
970.4460706479
 21
408.6482605673
  0
LINE
  5
323
100
AcDbEntity
  8
7_ALL_FEATURES
100
AcDbLine
 62
9
  6
CONTINUOUS
 10
970.4460706479
 20
409.0982605673
 11
968.9460706479
 21
409.0982605673
  0
LINE
  5
324
100
AcDbEntity
  8
7_ALL_FEATURES
100
AcDbLine
 62
9
  6
CONTINUOUS
 10
2656.4460706479
 20
409.0982605673
 11
2657.9460706479
 21
409.0982605673
  0
LINE
  5
325
100
AcDbEntity
  8
6_ALL_SURFS
100
AcDbLine
 62
9
  6
CONTINUOUS
 10
970.4460706479
 20
409.5482605673
 11
2656.4460706479
 21
409.5482605673
  0
LINE
  5
326
100
AcDbEntity
  8
6_ALL_SURFS
100
AcDbLine
 62
7
  6
CONTINUOUS
 10
970.4460706479
 20
409.8482605673
 11
2656.4460706479
 21
409.8482605673
  0
LINE
  5
327
100
AcDbEntity
  8
6_ALL_SURFS
100
AcDbLine
 62
9
  6
CONTINUOUS
 10
2656.4460706479
 20
410.0628077263
 11
970.4460706479
 21
410.0628077263
  0
LINE
  5
328
100
AcDbEntity
  8
6_ALL_SURFS
100
AcDbLine
 62
7
  6
CONTINUOUS
 10
2656.4460706479
 20
410.8482605673
 11
970.4460706479
 21
410.8482605673
  0
LINE
  5
329
100
AcDbEntity
  8
6_ALL_SURFS
100
AcDbLine
 62
7
  6
CONTINUOUS
 10
970.4460706479
 20
410.9982605673
 11
2656.4460706479
 21
410.9982605673
  0
LINE
  5
32A
100
AcDbEntity
  8
6_ALL_SURFS
100
AcDbLine
 62
9
  6
CONTINUOUS
 10
970.4460706479
 20
411.1482605673
 11
2656.4460706479
 21
411.1482605673
  0
LINE
  5
32B
100
AcDbEntity
  8
6_ALL_SURFS
100
AcDbLine
 62
9
  6
CONTINUOUS
 10
970.4460706479
 20
420.3451927319
 11
2656.4460706479
 21
420.3451927319
  0
LINE
  5
32C
100
AcDbEntity
  8
6_ALL_SURFS
100
AcDbLine
 62
9
  6
CONTINUOUS
 10
970.4460706479
 20
421.1691627725
 11
2656.4460706479
 21
421.1691627725
  0
LINE
  5
32D
100
AcDbEntity
  8
6_ALL_SURFS
100
AcDbLine
 62
9
  6
CONTINUOUS
 10
970.4460706479
 20
423.5312102224
 11
2656.4460706479
 21
423.5312102224
  0
LINE
  5
32E
100
AcDbEntity
  8
6_ALL_SURFS
100
AcDbLine
 62
9
  6
CONTINUOUS
 10
970.4460706479
 20
424.355180263
 11
2656.4460706479
 21
424.355180263
  0
LINE
  5
32F
100
AcDbEntity
  8
6_ALL_SURFS
100
AcDbLine
 62
9
  6
CONTINUOUS
 10
2656.4460706479
 20
427.0607600182
 11
970.4460706479
 21
427.0607600182
  0
LINE
  5
330
100
AcDbEntity
  8
6_ALL_SURFS
100
AcDbLine
 62
9
  6
CONTINUOUS
 10
2656.4460706479
 20
428.0837575583
 11
970.4460706479
 21
428.0837575583
  0
LINE
  5
331
100
AcDbEntity
  8
6_ALL_SURFS
100
AcDbLine
 62
9
  6
CONTINUOUS
 10
970.4460706479
 20
430.6750686254
 11
2656.4460706479
 21
430.6750686254
  0
LINE
  5
332
100
AcDbEntity
  8
6_ALL_SURFS
100
AcDbLine
 62
9
  6
CONTINUOUS
 10
970.4460706479
 20
430.8796681334
 11
2656.4460706479
 21
430.8796681334
  0
LINE
  5
333
100
AcDbEntity
  8
6_ALL_SURFS
100
AcDbLine
 62
9
  6
CONTINUOUS
 10
970.4460706479
 20
431.1482605673
 11
2656.4460706479
 21
431.1482605673
  0
LINE
  5
334
100
AcDbEntity
  8
6_ALL_SURFS
100
AcDbLine
 62
7
  6
CONTINUOUS
 10
2656.4460706479
 20
431.4482605673
 11
970.4460706479
 21
431.4482605673
  0
LINE
  5
335
100
AcDbEntity
  8
3_ALL_AXES
100
AcDbLine
 62
7
  6
CONTINUOUS
 10
968.0967909776
 20
431.5982605673
 11
967.9460706479
 21
431.5982605673
  0
LINE
  5
336
100
AcDbEntity
  8
3_ALL_AXES
100
AcDbLine
 62
7
  6
CONTINUOUS
 10
2658.7953503183
 20
431.5982605673
 11
2658.9460706479
 21
431.5982605673
  0
LINE
  5
337
100
AcDbEntity
  8
6_ALL_SURFS
100
AcDbLine
 62
9
  6
CONTINUOUS
 10
2656.4460706479
 20
433.4482605673
 11
970.4460706479
 21
433.4482605673
  0
LINE
  5
338
100
AcDbEntity
  8
6_ALL_SURFS
100
AcDbLine
 62
9
  6
CONTINUOUS
 10
2656.4460706479
 20
435.2482605673
 11
970.4460706479
 21
435.2482605673
  0
LINE
  5
339
100
AcDbEntity
  8
3_ALL_AXES
100
AcDbLine
 62
7
  6
CONTINUOUS
 10
968.0967909776
 20
437.0982605673
 11
967.9460706479
 21
437.0982605673
  0
LINE
  5
33A
100
AcDbEntity
  8
3_ALL_AXES
100
AcDbLine
 62
7
  6
CONTINUOUS
 10
2658.7953503183
 20
437.0982605673
 11
2658.9460706479
 21
437.0982605673
  0
LINE
  5
33B
100
AcDbEntity
  8
6_ALL_SURFS
100
AcDbLine
 62
7
  6
CONTINUOUS
 10
2656.4460706479
 20
437.2482605673
 11
970.4460706479
 21
437.2482605673
  0
LINE
  5
33C
100
AcDbEntity
  8
6_ALL_SURFS
100
AcDbLine
 62
9
  6
CONTINUOUS
 10
2657.9460706479
 20
437.4982605673
 11
2656.4460706479
 21
437.4982605673
  0
LINE
  5
33D
100
AcDbEntity
  8
6_ALL_SURFS
100
AcDbLine
 62
9
  6
CONTINUOUS
 10
970.4460706479
 20
437.4982605673
 11
968.9460706479
 21
437.4982605673
  0
LINE
  5
33E
100
AcDbEntity
  8
6_ALL_SURFS
100
AcDbLine
 62
9
  6
CONTINUOUS
 10
970.4460706479
 20
437.5482605673
 11
2656.4460706479
 21
437.5482605673
  0
LINE
  5
33F
100
AcDbEntity
  8
6_ALL_SURFS
100
AcDbLine
 62
7
  6
CONTINUOUS
 10
2657.9460706479
 20
438.2482605673
 11
2656.4460706479
 21
438.2482605673
  0
LINE
  5
340
100
AcDbEntity
  8
6_ALL_SURFS
100
AcDbLine
 62
7
  6
CONTINUOUS
 10
970.4460706479
 20
438.2482605673
 11
968.9460706479
 21
438.2482605673
  0
LINE
  5
341
100
AcDbEntity
  8
6_ALL_SURFS
100
AcDbLine
 62
9
  6
CONTINUOUS
 10
2657.9460706479
 20
439.7482605673
 11
2656.4460706479
 21
439.7482605673
  0
LINE
  5
342
100
AcDbEntity
  8
6_ALL_SURFS
100
AcDbLine
 62
9
  6
CONTINUOUS
 10
968.9460706479
 20
439.7482605673
 11
970.4460706479
 21
439.7482605673
  0
LINE
  5
343
100
AcDbEntity
  8
6_ALL_SURFS
100
AcDbLine
 62
9
  6
CONTINUOUS
 10
2656.4460706479
 20
482.2937744966
 11
970.4460706479
 21
482.2937744966
  0
LINE
  5
344
100
AcDbEntity
  8
6_ALL_SURFS
100
AcDbLine
 62
7
  6
CONTINUOUS
 10
970.4460706479
 20
482.841363555
 11
968.9460706479
 21
482.841363555
  0
LINE
  5
345
100
AcDbEntity
  8
6_ALL_SURFS
100
AcDbLine
 62
7
  6
CONTINUOUS
 10
2656.4460706479
 20
482.841363555
 11
2657.9460706479
 21
482.841363555
  0
LINE
  5
346
100
AcDbEntity
  8
6_ALL_SURFS
100
AcDbLine
 62
9
  6
CONTINUOUS
 10
2656.4460706479
 20
483.3759725663
 11
970.4460706479
 21
483.3759725663
  0
LINE
  5
347
100
AcDbEntity
  8
6_ALL_SURFS
100
AcDbLine
 62
7
  6
CONTINUOUS
 10
970.4460706479
 20
491.8627805623
 11
968.9460706479
 21
491.8627805623
  0
LINE
  5
348
100
AcDbEntity
  8
6_ALL_SURFS
100
AcDbLine
 62
7
  6
CONTINUOUS
 10
2656.4460706479
 20
491.8627805623
 11
2657.9460706479
 21
491.8627805623
  0
LINE
  5
349
100
AcDbEntity
  8
3_ALL_AXES
100
AcDbLine
 62
7
  6
CONTINUOUS
 10
968.0967909776
 20
497.1982605673
 11
967.9460706479
 21
497.1982605673
  0
LINE
  5
34A
100
AcDbEntity
  8
3_ALL_AXES
100
AcDbLine
 62
7
  6
CONTINUOUS
 10
2658.7953503183
 20
497.1982605673
 11
2658.9460706479
 21
497.1982605673
  0
LINE
  5
34B
100
AcDbEntity
  8
6_ALL_SURFS
100
AcDbLine
 62
9
  6
CONTINUOUS
 10
970.4460706479
 20
497.3829196901
 11
2656.4460706479
 21
497.3829196901
  0
LINE
  5
34C
100
AcDbEntity
  8
6_ALL_SURFS
100
AcDbLine
 62
9
  6
CONTINUOUS
 10
970.4460706479
 20
499.4158503287
 11
2656.4460706479
 21
499.4158503287
  0
LINE
  5
34D
100
AcDbEntity
  8
6_ALL_SURFS
100
AcDbLine
 62
9
  6
CONTINUOUS
 10
970.4460706479
 20
501.2127766963
 11
2656.4460706479
 21
501.2127766963
  0
LINE
  5
34E
100
AcDbEntity
  8
6_ALL_SURFS
100
AcDbLine
 62
7
  6
CONTINUOUS
 10
2656.4460706479
 20
501.6482605673
 11
970.4460706479
 21
501.6482605673
  0
LINE
  5
34F
100
AcDbEntity
  8
6_ALL_SURFS
100
AcDbLine
 62
9
  6
CONTINUOUS
 10
2656.4460706479
 20
502.1482605673
 11
970.4460706479
 21
502.1482605673
  0
LINE
  5
350
100
AcDbEntity
  8
6_ALL_SURFS
100
AcDbLine
 62
9
  6
CONTINUOUS
 10
968.9460706479
 20
502.3982605673
 11
970.4460706479
 21
502.3982605673
  0
LINE
  5
351
100
AcDbEntity
  8
6_ALL_SURFS
100
AcDbLine
 62
9
  6
CONTINUOUS
 10
2656.4460706479
 20
502.3982605673
 11
2657.9460706479
 21
502.3982605673
  0
LINE
  5
352
100
AcDbEntity
  8
3_ALL_AXES
100
AcDbLine
 62
7
  6
CONTINUOUS
 10
968.0967909776
 20
502.6982605673
 11
967.9460706479
 21
502.6982605673
  0
LINE
  5
353
100
AcDbEntity
  8
3_ALL_AXES
100
AcDbLine
 62
7
  6
CONTINUOUS
 10
2658.7953503183
 20
502.6982605673
 11
2658.9460706479
 21
502.6982605673
  0
LINE
  5
354
100
AcDbEntity
  8
6_ALL_SURFS
100
AcDbLine
 62
9
  6
CONTINUOUS
 10
2656.4460706479
 20
502.8482605673
 11
970.4460706479
 21
502.8482605673
  0
LINE
  5
355
100
AcDbEntity
  8
6_ALL_SURFS
100
AcDbLine
 62
7
  6
CONTINUOUS
 10
968.9460706479
 20
503.1482605673
 11
2657.9460706479
 21
503.1482605673
  0
LINE
  5
356
100
AcDbEntity
  8
3_ALL_AXES
100
AcDbLine
 62
7
  6
CONTINUOUS
 10
2657.9460706479
 20
501.9856303091
 11
2658.7953503183
 21
502.6982605673
  0
LINE
  5
357
100
AcDbEntity
  8
3_ALL_AXES
100
AcDbLine
 62
7
  6
CONTINUOUS
 10
2657.9460706479
 20
436.3856303091
 11
2658.7953503183
 21
437.0982605673
  0
LINE
  5
358
100
AcDbEntity
  8
3_ALL_AXES
100
AcDbLine
 62
7
  6
CONTINUOUS
 10
2657.9460706479
 20
432.3108908255
 11
2658.7953503183
 21
431.5982605673
  0
LINE
  5
359
100
AcDbEntity
  8
3_ALL_AXES
100
AcDbLine
 62
7
  6
CONTINUOUS
 10
2657.9460706479
 20
497.9108908255
 11
2658.7953503183
 21
497.1982605673
  0
LINE
  5
35A
100
AcDbEntity
  8
7_ALL_FEATURES
100
AcDbLine
 62
7
  6
CONTINUOUS
 10
2656.4460706479
 20
437.4982605673
 11
2656.4460706479
 21
423.7043310892
  0
LINE
  5
35B
100
AcDbEntity
  8
7_ALL_FEATURES
100
AcDbLine
 62
7
  6
CONTINUOUS
 10
2656.4460706479
 20
420.9960419057
 11
2656.4460706479
 21
410.9982605673
  0
LINE
  5
35C
100
AcDbEntity
  8
6_ALL_SURFS
100
AcDbLine
 62
7
  6
CONTINUOUS
 10
2656.4460706479
 20
408.3482605673
 11
2656.4460706479
 21
408.3612136942
  0
LINE
  5
35D
100
AcDbEntity
  8
7_ALL_FEATURES
100
AcDbLine
 62
7
  6
CONTINUOUS
 10
2656.4460706479
 20
408.3612136942
 11
2656.4460706479
 21
409.8482605673
  0
LINE
  5
35E
100
AcDbEntity
  8
6_ALL_SURFS
100
AcDbLine
 62
7
  6
CONTINUOUS
 10
2656.4460706479
 20
409.8482605673
 11
2656.4460706479
 21
410.9982605673
  0
LINE
  5
35F
100
AcDbEntity
  8
6_ALL_SURFS
100
AcDbLine
 62
7
  6
CONTINUOUS
 10
2656.4460706479
 20
420.9960419057
 11
2656.4460706479
 21
423.7043310892
  0
LINE
  5
360
100
AcDbEntity
  8
6_ALL_SURFS
100
AcDbLine
 62
7
  6
CONTINUOUS
 10
2656.4460706479
 20
433.4482605673
 11
2656.4460706479
 21
435.2482605673
  0
LINE
  5
361
100
AcDbEntity
  8
6_ALL_SURFS
100
AcDbLine
 62
7
  6
CONTINUOUS
 10
2656.4460706479
 20
437.4982605673
 11
2656.4460706479
 21
503.1482605673
  0
LINE
  5
362
100
AcDbEntity
  8
7_ALL_FEATURES
100
AcDbLine
 62
7
  6
CONTINUOUS
 10
2657.9460706479
 20
437.4982605673
 11
2657.9460706479
 21
408.3482605673
  0
LINE
  5
363
100
AcDbEntity
  8
6_ALL_SURFS
100
AcDbLine
 62
7
  6
CONTINUOUS
 10
2657.9460706479
 20
437.4982605673
 11
2657.9460706479
 21
503.1482605673
  0
LINE
  5
364
100
AcDbEntity
  8
3_ALL_AXES
100
AcDbLine
 62
7
  6
CONTINUOUS
 10
2658.7953503183
 20
431.5982605673
 11
2658.7953503183
 21
437.0982605673
  0
LINE
  5
365
100
AcDbEntity
  8
3_ALL_AXES
100
AcDbLine
 62
7
  6
CONTINUOUS
 10
2658.7953503183
 20
497.1982605673
 11
2658.7953503183
 21
502.6982605673
  0
LINE
  5
366
100
AcDbEntity
  8
3_ALL_AXES
100
AcDbLine
 62
7
  6
CONTINUOUS
 10
2658.9460706479
 20
431.5983086335
 11
2658.9460706479
 21
437.0982125011
  0
LINE
  5
367
100
AcDbEntity
  8
3_ALL_AXES
100
AcDbLine
 62
7
  6
CONTINUOUS
 10
2658.9460706479
 20
497.1983086335
 11
2658.9460706479
 21
502.6982125011
  0
LINE
  5
368
100
AcDbEntity
  8
3_ALL_AXES
100
AcDbLine
 62
7
  6
CONTINUOUS
 10
967.9460706479
 20
927.2988167408
 11
967.9460706479
 21
921.7988167408
  0
LINE
  5
369
100
AcDbEntity
  8
3_ALL_AXES
100
AcDbLine
 62
7
  6
CONTINUOUS
 10
967.9460706479
 20
920.9988167408
 11
967.9460706479
 21
915.4988167408
  0
LINE
  5
36A
100
AcDbEntity
  8
3_ALL_AXES
100
AcDbLine
 62
7
  6
CONTINUOUS
 10
967.9460706479
 20
896.9988167408
 11
967.9460706479
 21
891.4988167408
  0
LINE
  5
36B
100
AcDbEntity
  8
3_ALL_AXES
100
AcDbLine
 62
7
  6
CONTINUOUS
 10
967.9460706479
 20
890.6988167408
 11
967.9460706479
 21
885.1988167408
  0
LINE
  5
36C
100
AcDbEntity
  8
3_ALL_AXES
100
AcDbLine
 62
7
  6
CONTINUOUS
 10
968.0967909776
 20
927.2988167408
 11
968.0967909776
 21
921.7988167408
  0
LINE
  5
36D
100
AcDbEntity
  8
3_ALL_AXES
100
AcDbLine
 62
7
  6
CONTINUOUS
 10
968.0967909776
 20
920.9988167408
 11
968.0967909776
 21
915.4988167408
  0
LINE
  5
36E
100
AcDbEntity
  8
3_ALL_AXES
100
AcDbLine
 62
7
  6
CONTINUOUS
 10
968.0967909776
 20
896.9988167408
 11
968.0967909776
 21
891.4988167408
  0
LINE
  5
36F
100
AcDbEntity
  8
3_ALL_AXES
100
AcDbLine
 62
7
  6
CONTINUOUS
 10
968.0967909776
 20
890.6988167408
 11
968.0967909776
 21
885.1988167408
  0
LINE
  5
370
100
AcDbEntity
  8
7_ALL_FEATURES
100
AcDbLine
 62
7
  6
CONTINUOUS
 10
968.9460706479
 20
885.0488167408
 11
968.9460706479
 21
927.4488167408
  0
LINE
  5
371
100
AcDbEntity
  8
7_ALL_FEATURES
100
AcDbLine
 62
7
  6
CONTINUOUS
 10
970.4460706479
 20
927.4488167408
 11
970.4460706479
 21
926.8330553693
  0
LINE
  5
372
100
AcDbEntity
  8
7_ALL_FEATURES
100
AcDbLine
 62
7
  6
CONTINUOUS
 10
970.4460706479
 20
865.1988352382
 11
970.4460706479
 21
885.6645781123
  0
LINE
  5
373
100
AcDbEntity
  8
7_ALL_FEATURES
100
AcDbLine
 62
7
  6
CONTINUOUS
 10
970.4460706479
 20
885.6711710273
 11
970.4460706479
 21
926.6988167408
  0
LINE
  5
374
100
AcDbEntity
  8
6_ALL_SURFS
100
AcDbLine
 62
7
  6
CONTINUOUS
 10
970.4460706479
 20
925.7988167408
 11
970.4460706479
 21
926.8264624544
  0
LINE
  5
375
100
AcDbEntity
  8
6_ALL_SURFS
100
AcDbLine
 62
7
  6
CONTINUOUS
 10
970.4460706479
 20
927.4488167408
 11
970.4460706479
 21
947.2987982435
  0
LINE
  5
376
100
AcDbEntity
  8
7_ALL_FEATURES
100
AcDbLine
 62
7
  6
CONTINUOUS
 10
971.4460706479
 20
925.5988167408
 11
971.4460706479
 21
886.8988167408
  0
LINE
  5
377
100
AcDbEntity
  8
3_ALL_AXES
100
AcDbLine
 62
7
  6
CONTINUOUS
 10
968.0967909776
 20
921.7988167408
 11
968.9460706479
 21
922.511446999
  0
LINE
  5
378
100
AcDbEntity
  8
3_ALL_AXES
100
AcDbLine
 62
7
  6
CONTINUOUS
 10
968.0967909776
 20
915.4988167408
 11
968.9460706479
 21
916.211446999
  0
LINE
  5
379
100
AcDbEntity
  8
3_ALL_AXES
100
AcDbLine
 62
7
  6
CONTINUOUS
 10
968.0967909776
 20
891.4988167408
 11
968.9460706479
 21
892.211446999
  0
LINE
  5
37A
100
AcDbEntity
  8
3_ALL_AXES
100
AcDbLine
 62
7
  6
CONTINUOUS
 10
968.0967909776
 20
885.1988167408
 11
968.9460706479
 21
885.911446999
  0
LINE
  5
37B
100
AcDbEntity
  8
3_ALL_AXES
100
AcDbLine
 62
7
  6
CONTINUOUS
 10
968.0967909776
 20
890.6988167408
 11
968.9460706479
 21
889.9861864826
  0
LINE
  5
37C
100
AcDbEntity
  8
3_ALL_AXES
100
AcDbLine
 62
7
  6
CONTINUOUS
 10
968.0967909776
 20
896.9988167408
 11
968.9460706479
 21
896.2861864826
  0
LINE
  5
37D
100
AcDbEntity
  8
3_ALL_AXES
100
AcDbLine
 62
7
  6
CONTINUOUS
 10
968.0967909776
 20
920.9988167408
 11
968.9460706479
 21
920.2861864826
  0
LINE
  5
37E
100
AcDbEntity
  8
3_ALL_AXES
100
AcDbLine
 62
7
  6
CONTINUOUS
 10
968.0967909776
 20
927.2988167408
 11
968.9460706479
 21
926.5861864826
  0
LINE
  5
37F
100
AcDbEntity
  8
7_ALL_FEATURES
100
AcDbLine
 62
7
  6
CONTINUOUS
 10
2656.4460706479
 20
865.1988167408
 11
970.4460706479
 21
865.1988167408
  0
LINE
  5
380
100
AcDbEntity
  8
7_ALL_FEATURES
100
AcDbLine
 62
9
  6
CONTINUOUS
 10
2656.4460706479
 20
865.5533451504
 11
970.4460706479
 21
865.5533451504
  0
LINE
  5
381
100
AcDbEntity
  8
7_ALL_FEATURES
100
AcDbLine
 62
7
  6
CONTINUOUS
 10
970.4460706479
 20
867.6988167408
 11
1061.1626628542
 21
867.6988167408
  0
LINE
  5
382
100
AcDbEntity
  8
7_ALL_FEATURES
100
AcDbLine
 62
7
  6
CONTINUOUS
 10
1067.7294784416
 20
867.6988167408
 11
1311.1626628542
 21
867.6988167408
  0
LINE
  5
383
100
AcDbEntity
  8
7_ALL_FEATURES
100
AcDbLine
 62
7
  6
CONTINUOUS
 10
1317.7294784416
 20
867.6988167408
 11
1561.1626628542
 21
867.6988167408
  0
LINE
  5
384
100
AcDbEntity
  8
7_ALL_FEATURES
100
AcDbLine
 62
7
  6
CONTINUOUS
 10
1567.7294784416
 20
867.6988167408
 11
1811.1626628542
 21
867.6988167408
  0
LINE
  5
385
100
AcDbEntity
  8
7_ALL_FEATURES
100
AcDbLine
 62
7
  6
CONTINUOUS
 10
1817.7294784416
 20
867.6988167408
 11
2061.1626628542
 21
867.6988167408
  0
LINE
  5
386
100
AcDbEntity
  8
7_ALL_FEATURES
100
AcDbLine
 62
7
  6
CONTINUOUS
 10
2067.7294784416
 20
867.6988167408
 11
2311.1626628542
 21
867.6988167408
  0
LINE
  5
387
100
AcDbEntity
  8
7_ALL_FEATURES
100
AcDbLine
 62
7
  6
CONTINUOUS
 10
2317.7294784416
 20
867.6988167408
 11
2561.1626628542
 21
867.6988167408
  0
LINE
  5
388
100
AcDbEntity
  8
7_ALL_FEATURES
100
AcDbLine
 62
7
  6
CONTINUOUS
 10
2567.7294784416
 20
867.6988167408
 11
2656.4460706479
 21
867.6988167408
  0
LINE
  5
389
100
AcDbEntity
  8
7_ALL_FEATURES
100
AcDbLine
 62
7
  6
CONTINUOUS
 10
970.4460706479
 20
870.5988167408
 11
1059.6846877879
 21
870.5988167408
  0
LINE
  5
38A
100
AcDbEntity
  8
7_ALL_FEATURES
100
AcDbLine
 62
7
  6
CONTINUOUS
 10
1069.207453508
 20
870.5988167408
 11
1309.6846877879
 21
870.5988167408
  0
LINE
  5
38B
100
AcDbEntity
  8
7_ALL_FEATURES
100
AcDbLine
 62
7
  6
CONTINUOUS
 10
1319.207453508
 20
870.5988167408
 11
1559.6846877879
 21
870.5988167408
  0
LINE
  5
38C
100
AcDbEntity
  8
7_ALL_FEATURES
100
AcDbLine
 62
7
  6
CONTINUOUS
 10
1569.207453508
 20
870.5988167408
 11
1809.6846877879
 21
870.5988167408
  0
LINE
  5
38D
100
AcDbEntity
  8
7_ALL_FEATURES
100
AcDbLine
 62
7
  6
CONTINUOUS
 10
1819.207453508
 20
870.5988167408
 11
2059.6846877879
 21
870.5988167408
  0
LINE
  5
38E
100
AcDbEntity
  8
7_ALL_FEATURES
100
AcDbLine
 62
7
  6
CONTINUOUS
 10
2069.207453508
 20
870.5988167408
 11
2309.6846877879
 21
870.5988167408
  0
LINE
  5
38F
100
AcDbEntity
  8
7_ALL_FEATURES
100
AcDbLine
 62
7
  6
CONTINUOUS
 10
2319.207453508
 20
870.5988167408
 11
2559.6846877879
 21
870.5988167408
  0
LINE
  5
390
100
AcDbEntity
  8
7_ALL_FEATURES
100
AcDbLine
 62
7
  6
CONTINUOUS
 10
2569.207453508
 20
870.5988167408
 11
2656.4460706479
 21
870.5988167408
  0
LINE
  5
391
100
AcDbEntity
  8
7_ALL_FEATURES
100
AcDbLine
 62
7
  6
CONTINUOUS
 10
970.4460706479
 20
871.1988167408
 11
1059.6470325423
 21
871.1988167408
  0
LINE
  5
392
100
AcDbEntity
  8
7_ALL_FEATURES
100
AcDbLine
 62
7
  6
CONTINUOUS
 10
1069.2451087536
 20
871.1988167408
 11
1309.6470325423
 21
871.1988167408
  0
LINE
  5
393
100
AcDbEntity
  8
7_ALL_FEATURES
100
AcDbLine
 62
7
  6
CONTINUOUS
 10
1319.2451087536
 20
871.1988167408
 11
1559.6470325423
 21
871.1988167408
  0
LINE
  5
394
100
AcDbEntity
  8
7_ALL_FEATURES
100
AcDbLine
 62
7
  6
CONTINUOUS
 10
1569.2451087536
 20
871.1988167408
 11
1809.6470325423
 21
871.1988167408
  0
LINE
  5
395
100
AcDbEntity
  8
7_ALL_FEATURES
100
AcDbLine
 62
7
  6
CONTINUOUS
 10
1819.2451087536
 20
871.1988167408
 11
2059.6470325423
 21
871.1988167408
  0
LINE
  5
396
100
AcDbEntity
  8
7_ALL_FEATURES
100
AcDbLine
 62
7
  6
CONTINUOUS
 10
2069.2451087536
 20
871.1988167408
 11
2309.6470325423
 21
871.1988167408
  0
LINE
  5
397
100
AcDbEntity
  8
7_ALL_FEATURES
100
AcDbLine
 62
7
  6
CONTINUOUS
 10
2319.2451087536
 20
871.1988167408
 11
2559.6470325423
 21
871.1988167408
  0
LINE
  5
398
100
AcDbEntity
  8
7_ALL_FEATURES
100
AcDbLine
 62
7
  6
CONTINUOUS
 10
2569.2451087536
 20
871.1988167408
 11
2656.4460706479
 21
871.1988167408
  0
LINE
  5
399
100
AcDbEntity
  8
7_ALL_FEATURES
100
AcDbLine
 62
7
  6
CONTINUOUS
 10
970.4460706479
 20
873.5988167408
 11
1060.2902594468
 21
873.5988167408
  0
LINE
  5
39A
100
AcDbEntity
  8
7_ALL_FEATURES
100
AcDbLine
 62
7
  6
CONTINUOUS
 10
1068.6018818491
 20
873.5988167408
 11
1310.2902594468
 21
873.5988167408
  0
LINE
  5
39B
100
AcDbEntity
  8
7_ALL_FEATURES
100
AcDbLine
 62
7
  6
CONTINUOUS
 10
1318.6018818491
 20
873.5988167408
 11
1560.2902594468
 21
873.5988167408
  0
LINE
  5
39C
100
AcDbEntity
  8
7_ALL_FEATURES
100
AcDbLine
 62
7
  6
CONTINUOUS
 10
1568.6018818491
 20
873.5988167408
 11
1810.2902594468
 21
873.5988167408
  0
LINE
  5
39D
100
AcDbEntity
  8
7_ALL_FEATURES
100
AcDbLine
 62
7
  6
CONTINUOUS
 10
1818.6018818491
 20
873.5988167408
 11
2060.2902594468
 21
873.5988167408
  0
LINE
  5
39E
100
AcDbEntity
  8
7_ALL_FEATURES
100
AcDbLine
 62
7
  6
CONTINUOUS
 10
2068.6018818491
 20
873.5988167408
 11
2310.2902594468
 21
873.5988167408
  0
LINE
  5
39F
100
AcDbEntity
  8
7_ALL_FEATURES
100
AcDbLine
 62
7
  6
CONTINUOUS
 10
2318.6018818491
 20
873.5988167408
 11
2560.2902594468
 21
873.5988167408
  0
LINE
  5
3A0
100
AcDbEntity
  8
7_ALL_FEATURES
100
AcDbLine
 62
7
  6
CONTINUOUS
 10
2568.6018818491
 20
873.5988167408
 11
2656.4460706479
 21
873.5988167408
  0
LINE
  5
3A1
100
AcDbEntity
  8
7_ALL_FEATURES
100
AcDbLine
 62
7
  6
CONTINUOUS
 10
970.4460706479
 20
874.1988167408
 11
1060.700304139
 21
874.1988167408
  0
LINE
  5
3A2
100
AcDbEntity
  8
7_ALL_FEATURES
100
AcDbLine
 62
7
  6
CONTINUOUS
 10
1068.1918371569
 20
874.1988167408
 11
1310.700304139
 21
874.1988167408
  0
LINE
  5
3A3
100
AcDbEntity
  8
7_ALL_FEATURES
100
AcDbLine
 62
7
  6
CONTINUOUS
 10
1318.1918371569
 20
874.1988167408
 11
1560.700304139
 21
874.1988167408
  0
LINE
  5
3A4
100
AcDbEntity
  8
7_ALL_FEATURES
100
AcDbLine
 62
7
  6
CONTINUOUS
 10
1568.1918371569
 20
874.1988167408
 11
1810.700304139
 21
874.1988167408
  0
LINE
  5
3A5
100
AcDbEntity
  8
7_ALL_FEATURES
100
AcDbLine
 62
7
  6
CONTINUOUS
 10
1818.1918371569
 20
874.1988167408
 11
2060.700304139
 21
874.1988167408
  0
LINE
  5
3A6
100
AcDbEntity
  8
7_ALL_FEATURES
100
AcDbLine
 62
7
  6
CONTINUOUS
 10
2068.1918371569
 20
874.1988167408
 11
2310.700304139
 21
874.1988167408
  0
LINE
  5
3A7
100
AcDbEntity
  8
7_ALL_FEATURES
100
AcDbLine
 62
7
  6
CONTINUOUS
 10
2318.1918371569
 20
874.1988167408
 11
2560.700304139
 21
874.1988167408
  0
LINE
  5
3A8
100
AcDbEntity
  8
7_ALL_FEATURES
100
AcDbLine
 62
7
  6
CONTINUOUS
 10
2568.1918371569
 20
874.1988167408
 11
2656.4460706479
 21
874.1988167408
  0
LINE
  5
3A9
100
AcDbEntity
  8
7_ALL_FEATURES
100
AcDbLine
 62
7
  6
CONTINUOUS
 10
970.4460706479
 20
876.5988167408
 11
2656.4460706479
 21
876.5988167408
  0
LINE
  5
3AA
100
AcDbEntity
  8
7_ALL_FEATURES
100
AcDbLine
 62
7
  6
CONTINUOUS
 10
970.4460706479
 20
877.1988167408
 11
2656.4460706479
 21
877.1988167408
  0
LINE
  5
3AB
100
AcDbEntity
  8
7_ALL_FEATURES
100
AcDbLine
 62
7
  6
CONTINUOUS
 10
970.4460706479
 20
879.5988167408
 11
2656.4460706479
 21
879.5988167408
  0
LINE
  5
3AC
100
AcDbEntity
  8
7_ALL_FEATURES
100
AcDbLine
 62
7
  6
CONTINUOUS
 10
970.4460706479
 20
880.1988167408
 11
2656.4460706479
 21
880.1988167408
  0
LINE
  5
3AD
100
AcDbEntity
  8
7_ALL_FEATURES
100
AcDbLine
 62
7
  6
CONTINUOUS
 10
970.4460706479
 20
882.5988167408
 11
2656.4460706479
 21
882.5988167408
  0
LINE
  5
3AE
100
AcDbEntity
  8
7_ALL_FEATURES
100
AcDbLine
 62
7
  6
CONTINUOUS
 10
970.4460706479
 20
883.1988167408
 11
2656.4460706479
 21
883.1988167408
  0
LINE
  5
3AF
100
AcDbEntity
  8
7_ALL_FEATURES
100
AcDbLine
 62
7
  6
CONTINUOUS
 10
970.4460706479
 20
885.0488167408
 11
968.9460706479
 21
885.0488167408
  0
LINE
  5
3B0
100
AcDbEntity
  8
7_ALL_FEATURES
100
AcDbLine
 62
7
  6
CONTINUOUS
 10
2656.4460706479
 20
885.0488167408
 11
2657.9460706479
 21
885.0488167408
  0
LINE
  5
3B1
100
AcDbEntity
  8
7_ALL_FEATURES
100
AcDbLine
 62
9
  6
CONTINUOUS
 10
970.4460706479
 20
885.1488167408
 11
2656.4460706479
 21
885.1488167408
  0
LINE
  5
3B2
100
AcDbEntity
  8
3_ALL_AXES
100
AcDbLine
 62
7
  6
CONTINUOUS
 10
2658.9460706479
 20
885.1988167408
 11
2658.7953503183
 21
885.1988167408
  0
LINE
  5
3B3
100
AcDbEntity
  8
3_ALL_AXES
100
AcDbLine
 62
7
  6
CONTINUOUS
 10
967.9460706479
 20
885.1988167408
 11
968.0967909776
 21
885.1988167408
  0
LINE
  5
3B4
100
AcDbEntity
  8
7_ALL_FEATURES
100
AcDbLine
 62
7
  6
CONTINUOUS
 10
2656.4460706479
 20
885.4488167408
 11
970.4460706479
 21
885.4488167408
  0
LINE
  5
3B5
100
AcDbEntity
  8
7_ALL_FEATURES
100
AcDbLine
 62
9
  6
CONTINUOUS
 10
2656.4460706479
 20
885.7488167408
 11
970.4460706479
 21
885.7488167408
  0
LINE
  5
3B6
100
AcDbEntity
  8
7_ALL_FEATURES
100
AcDbLine
 62
9
  6
CONTINUOUS
 10
970.4460706479
 20
885.7988167408
 11
968.9460706479
 21
885.7988167408
  0
LINE
  5
3B7
100
AcDbEntity
  8
7_ALL_FEATURES
100
AcDbLine
 62
9
  6
CONTINUOUS
 10
2656.4460706479
 20
885.7988167408
 11
2657.9460706479
 21
885.7988167408
  0
LINE
  5
3B8
100
AcDbEntity
  8
7_ALL_FEATURES
100
AcDbLine
 62
9
  6
CONTINUOUS
 10
2656.4460706479
 20
886.3988167408
 11
970.4460706479
 21
886.3988167408
  0
LINE
  5
3B9
100
AcDbEntity
  8
7_ALL_FEATURES
100
AcDbLine
 62
7
  6
CONTINUOUS
 10
2656.4460706479
 20
886.6988167408
 11
970.4460706479
 21
886.6988167408
  0
LINE
  5
3BA
100
AcDbEntity
  8
7_ALL_FEATURES
100
AcDbLine
 62
9
  6
CONTINUOUS
 10
970.4460706479
 20
886.7608107387
 11
2656.4460706479
 21
886.7608107387
  0
LINE
  5
3BB
100
AcDbEntity
  8
7_ALL_FEATURES
100
AcDbLine
 62
7
  6
CONTINUOUS
 10
971.4460706479
 20
886.8988167408
 11
2655.4460706479
 21
886.8988167408
  0
LINE
  5
3BC
100
AcDbEntity
  8
7_ALL_FEATURES
100
AcDbLine
 62
9
  6
CONTINUOUS
 10
971.4460706479
 20
887.0988167408
 11
2655.4460706479
 21
887.0988167408
  0
LINE
  5
3BD
100
AcDbEntity
  8
7_ALL_FEATURES
100
AcDbLine
 62
9
  6
CONTINUOUS
 10
2656.4460706479
 20
887.8714824562
 11
2655.4460706479
 21
887.8714824562
  0
LINE
  5
3BE
100
AcDbEntity
  8
7_ALL_FEATURES
100
AcDbLine
 62
9
  6
CONTINUOUS
 10
971.4460706479
 20
887.8714824562
 11
970.4460706479
 21
887.8714824562
  0
LINE
  5
3BF
100
AcDbEntity
  8
6_ALL_SURFS
100
AcDbLine
 62
7
  6
CONTINUOUS
 10
2656.4460706479
 20
887.9128117882
 11
2655.4460706479
 21
887.9128117882
  0
LINE
  5
3C0
100
AcDbEntity
  8
6_ALL_SURFS
100
AcDbLine
 62
7
  6
CONTINUOUS
 10
971.4460706479
 20
887.9128117882
 11
970.4460706479
 21
887.9128117882
  0
LINE
  5
3C1
100
AcDbEntity
  8
7_ALL_FEATURES
100
AcDbLine
 62
9
  6
CONTINUOUS
 10
970.4460706479
 20
888.5098543428
 11
971.4460706479
 21
888.5098543428
  0
LINE
  5
3C2
100
AcDbEntity
  8
7_ALL_FEATURES
100
AcDbLine
 62
9
  6
CONTINUOUS
 10
2655.4460706479
 20
888.5098543428
 11
2656.4460706479
 21
888.5098543428
  0
LINE
  5
3C3
100
AcDbEntity
  8
7_ALL_FEATURES
100
AcDbLine
 62
9
  6
CONTINUOUS
 10
970.4460706479
 20
888.7292604533
 11
971.4460706479
 21
888.7292604533
  0
LINE
  5
3C4
100
AcDbEntity
  8
7_ALL_FEATURES
100
AcDbLine
 62
9
  6
CONTINUOUS
 10
2655.4460706479
 20
888.7292604533
 11
2656.4460706479
 21
888.7292604533
  0
LINE
  5
3C5
100
AcDbEntity
  8
7_ALL_FEATURES
100
AcDbLine
 62
9
  6
CONTINUOUS
 10
2656.4460706479
 20
889.5488167408
 11
2655.4460706479
 21
889.5488167408
  0
LINE
  5
3C6
100
AcDbEntity
  8
7_ALL_FEATURES
100
AcDbLine
 62
9
  6
CONTINUOUS
 10
971.4460706479
 20
889.5488167408
 11
970.4460706479
 21
889.5488167408
  0
LINE
  5
3C7
100
AcDbEntity
  8
7_ALL_FEATURES
100
AcDbLine
 62
7
  6
CONTINUOUS
 10
2656.4460706479
 20
889.8488167408
 11
2655.4460706479
 21
889.8488167408
  0
LINE
  5
3C8
100
AcDbEntity
  8
7_ALL_FEATURES
100
AcDbLine
 62
7
  6
CONTINUOUS
 10
971.4460706479
 20
889.8488167408
 11
970.4460706479
 21
889.8488167408
  0
LINE
  5
3C9
100
AcDbEntity
  8
7_ALL_FEATURES
100
AcDbLine
 62
9
  6
CONTINUOUS
 10
970.4460706479
 20
889.90912412
 11
971.4460706479
 21
889.90912412
  0
LINE
  5
3CA
100
AcDbEntity
  8
7_ALL_FEATURES
100
AcDbLine
 62
9
  6
CONTINUOUS
 10
2655.4460706479
 20
889.90912412
 11
2656.4460706479
 21
889.90912412
  0
LINE
  5
3CB
100
AcDbEntity
  8
7_ALL_FEATURES
100
AcDbLine
 62
9
  6
CONTINUOUS
 10
2656.4460706479
 20
890.2641803268
 11
2655.4460706479
 21
890.2641803268
  0
LINE
  5
3CC
100
AcDbEntity
  8
7_ALL_FEATURES
100
AcDbLine
 62
9
  6
CONTINUOUS
 10
971.4460706479
 20
890.2641803268
 11
970.4460706479
 21
890.2641803268
  0
LINE
  5
3CD
100
AcDbEntity
  8
7_ALL_FEATURES
100
AcDbLine
 62
7
  6
CONTINUOUS
 10
2656.4460706479
 20
890.2822725405
 11
2655.4460706479
 21
890.2822725405
  0
LINE
  5
3CE
100
AcDbEntity
  8
7_ALL_FEATURES
100
AcDbLine
 62
7
  6
CONTINUOUS
 10
971.4460706479
 20
890.2822725405
 11
970.4460706479
 21
890.2822725405
  0
LINE
  5
3CF
100
AcDbEntity
  8
3_ALL_AXES
100
AcDbLine
 62
7
  6
CONTINUOUS
 10
2658.9460706479
 20
890.6988167408
 11
2658.7953503183
 21
890.6988167408
  0
LINE
  5
3D0
100
AcDbEntity
  8
3_ALL_AXES
100
AcDbLine
 62
7
  6
CONTINUOUS
 10
967.9460706479
 20
890.6988167408
 11
968.0967909776
 21
890.6988167408
  0
LINE
  5
3D1
100
AcDbEntity
  8
3_ALL_AXES
100
AcDbLine
 62
7
  6
CONTINUOUS
 10
2658.9460706479
 20
891.4988167408
 11
2658.7953503183
 21
891.4988167408
  0
LINE
  5
3D2
100
AcDbEntity
  8
3_ALL_AXES
100
AcDbLine
 62
7
  6
CONTINUOUS
 10
967.9460706479
 20
891.4988167408
 11
968.0967909776
 21
891.4988167408
  0
LINE
  5
3D3
100
AcDbEntity
  8
7_ALL_FEATURES
100
AcDbLine
 62
9
  6
CONTINUOUS
 10
970.4460706479
 20
892.6751055854
 11
971.4460706479
 21
892.6751055854
  0
LINE
  5
3D4
100
AcDbEntity
  8
7_ALL_FEATURES
100
AcDbLine
 62
9
  6
CONTINUOUS
 10
2655.4460706479
 20
892.6751055854
 11
2656.4460706479
 21
892.6751055854
  0
LINE
  5
3D5
100
AcDbEntity
  8
7_ALL_FEATURES
100
AcDbLine
 62
9
  6
CONTINUOUS
 10
970.4460706479
 20
893.6514015925
 11
971.4460706479
 21
893.6514015925
  0
LINE
  5
3D6
100
AcDbEntity
  8
7_ALL_FEATURES
100
AcDbLine
 62
9
  6
CONTINUOUS
 10
2655.4460706479
 20
893.6514015925
 11
2656.4460706479
 21
893.6514015925
  0
LINE
  5
3D7
100
AcDbEntity
  8
3_ALL_AXES
100
AcDbLine
 62
7
  6
CONTINUOUS
 10
2658.9460706479
 20
896.9988167408
 11
2658.7953503183
 21
896.9988167408
  0
LINE
  5
3D8
100
AcDbEntity
  8
3_ALL_AXES
100
AcDbLine
 62
7
  6
CONTINUOUS
 10
967.9460706479
 20
896.9988167408
 11
968.0967909776
 21
896.9988167408
  0
LINE
  5
3D9
100
AcDbEntity
  8
7_ALL_FEATURES
100
AcDbLine
 62
9
  6
CONTINUOUS
 10
2656.4460706479
 20
904.2488167408
 11
2655.4460706479
 21
904.2488167408
  0
LINE
  5
3DA
100
AcDbEntity
  8
7_ALL_FEATURES
100
AcDbLine
 62
9
  6
CONTINUOUS
 10
971.4460706479
 20
904.2488167408
 11
970.4460706479
 21
904.2488167408
  0
LINE
  5
3DB
100
AcDbEntity
  8
7_ALL_FEATURES
100
AcDbLine
 62
7
  6
CONTINUOUS
 10
2656.4460706479
 20
904.5488167408
 11
2655.4460706479
 21
904.5488167408
  0
LINE
  5
3DC
100
AcDbEntity
  8
7_ALL_FEATURES
100
AcDbLine
 62
7
  6
CONTINUOUS
 10
971.4460706479
 20
904.5488167408
 11
970.4460706479
 21
904.5488167408
  0
LINE
  5
3DD
100
AcDbEntity
  8
7_ALL_FEATURES
100
AcDbLine
 62
9
  6
CONTINUOUS
 10
970.4460706479
 20
904.8488167408
 11
971.4460706479
 21
904.8488167408
  0
LINE
  5
3DE
100
AcDbEntity
  8
7_ALL_FEATURES
100
AcDbLine
 62
9
  6
CONTINUOUS
 10
2655.4460706479
 20
904.8488167408
 11
2656.4460706479
 21
904.8488167408
  0
LINE
  5
3DF
100
AcDbEntity
  8
6_ALL_SURFS
100
AcDbLine
 62
9
  6
CONTINUOUS
 10
970.4460706479
 20
907.6488167408
 11
971.4460706479
 21
907.6488167408
  0
LINE
  5
3E0
100
AcDbEntity
  8
6_ALL_SURFS
100
AcDbLine
 62
9
  6
CONTINUOUS
 10
2655.4460706479
 20
907.6488167408
 11
2656.4460706479
 21
907.6488167408
  0
LINE
  5
3E1
100
AcDbEntity
  8
6_ALL_SURFS
100
AcDbLine
 62
7
  6
CONTINUOUS
 10
2656.4460706479
 20
907.9488167408
 11
2655.4460706479
 21
907.9488167408
  0
LINE
  5
3E2
100
AcDbEntity
  8
6_ALL_SURFS
100
AcDbLine
 62
7
  6
CONTINUOUS
 10
971.4460706479
 20
907.9488167408
 11
970.4460706479
 21
907.9488167408
  0
LINE
  5
3E3
100
AcDbEntity
  8
6_ALL_SURFS
100
AcDbLine
 62
9
  6
CONTINUOUS
 10
2656.4460706479
 20
908.2488167408
 11
2655.4460706479
 21
908.2488167408
  0
LINE
  5
3E4
100
AcDbEntity
  8
6_ALL_SURFS
100
AcDbLine
 62
9
  6
CONTINUOUS
 10
971.4460706479
 20
908.2488167408
 11
970.4460706479
 21
908.2488167408
  0
LINE
  5
3E5
100
AcDbEntity
  8
3_ALL_AXES
100
AcDbLine
 62
7
  6
CONTINUOUS
 10
2658.9460706479
 20
915.4988167408
 11
2658.7953503183
 21
915.4988167408
  0
LINE
  5
3E6
100
AcDbEntity
  8
3_ALL_AXES
100
AcDbLine
 62
7
  6
CONTINUOUS
 10
967.9460706479
 20
915.4988167408
 11
968.0967909776
 21
915.4988167408
  0
LINE
  5
3E7
100
AcDbEntity
  8
6_ALL_SURFS
100
AcDbLine
 62
9
  6
CONTINUOUS
 10
970.4460706479
 20
918.8462318892
 11
971.4460706479
 21
918.8462318892
  0
LINE
  5
3E8
100
AcDbEntity
  8
6_ALL_SURFS
100
AcDbLine
 62
9
  6
CONTINUOUS
 10
2655.4460706479
 20
918.8462318892
 11
2656.4460706479
 21
918.8462318892
  0
LINE
  5
3E9
100
AcDbEntity
  8
6_ALL_SURFS
100
AcDbLine
 62
9
  6
CONTINUOUS
 10
970.4460706479
 20
919.8225278963
 11
971.4460706479
 21
919.8225278963
  0
LINE
  5
3EA
100
AcDbEntity
  8
6_ALL_SURFS
100
AcDbLine
 62
9
  6
CONTINUOUS
 10
2655.4460706479
 20
919.8225278963
 11
2656.4460706479
 21
919.8225278963
  0
LINE
  5
3EB
100
AcDbEntity
  8
3_ALL_AXES
100
AcDbLine
 62
7
  6
CONTINUOUS
 10
2658.9460706479
 20
920.9988167408
 11
2658.7953503183
 21
920.9988167408
  0
LINE
  5
3EC
100
AcDbEntity
  8
3_ALL_AXES
100
AcDbLine
 62
7
  6
CONTINUOUS
 10
967.9460706479
 20
920.9988167408
 11
968.0967909776
 21
920.9988167408
  0
LINE
  5
3ED
100
AcDbEntity
  8
3_ALL_AXES
100
AcDbLine
 62
7
  6
CONTINUOUS
 10
2658.9460706479
 20
921.7988167408
 11
2658.7953503183
 21
921.7988167408
  0
LINE
  5
3EE
100
AcDbEntity
  8
3_ALL_AXES
100
AcDbLine
 62
7
  6
CONTINUOUS
 10
967.9460706479
 20
921.7988167408
 11
968.0967909776
 21
921.7988167408
  0
LINE
  5
3EF
100
AcDbEntity
  8
6_ALL_SURFS
100
AcDbLine
 62
7
  6
CONTINUOUS
 10
970.4460706479
 20
922.2153609411
 11
971.4460706479
 21
922.2153609411
  0
LINE
  5
3F0
100
AcDbEntity
  8
6_ALL_SURFS
100
AcDbLine
 62
7
  6
CONTINUOUS
 10
2655.4460706479
 20
922.2153609411
 11
2656.4460706479
 21
922.2153609411
  0
LINE
  5
3F1
100
AcDbEntity
  8
6_ALL_SURFS
100
AcDbLine
 62
9
  6
CONTINUOUS
 10
2656.4460706479
 20
922.2334531549
 11
2655.4460706479
 21
922.2334531549
  0
LINE
  5
3F2
100
AcDbEntity
  8
6_ALL_SURFS
100
AcDbLine
 62
9
  6
CONTINUOUS
 10
971.4460706479
 20
922.2334531549
 11
970.4460706479
 21
922.2334531549
  0
LINE
  5
3F3
100
AcDbEntity
  8
6_ALL_SURFS
100
AcDbLine
 62
9
  6
CONTINUOUS
 10
970.4460706479
 20
922.5885093616
 11
971.4460706479
 21
922.5885093616
  0
LINE
  5
3F4
100
AcDbEntity
  8
6_ALL_SURFS
100
AcDbLine
 62
9
  6
CONTINUOUS
 10
2655.4460706479
 20
922.5885093616
 11
2656.4460706479
 21
922.5885093616
  0
LINE
  5
3F5
100
AcDbEntity
  8
6_ALL_SURFS
100
AcDbLine
 62
7
  6
CONTINUOUS
 10
2656.4460706479
 20
922.6488167408
 11
2655.4460706479
 21
922.6488167408
  0
LINE
  5
3F6
100
AcDbEntity
  8
6_ALL_SURFS
100
AcDbLine
 62
7
  6
CONTINUOUS
 10
971.4460706479
 20
922.6488167408
 11
970.4460706479
 21
922.6488167408
  0
LINE
  5
3F7
100
AcDbEntity
  8
6_ALL_SURFS
100
AcDbLine
 62
9
  6
CONTINUOUS
 10
2656.4460706479
 20
922.9488167408
 11
2655.4460706479
 21
922.9488167408
  0
LINE
  5
3F8
100
AcDbEntity
  8
6_ALL_SURFS
100
AcDbLine
 62
9
  6
CONTINUOUS
 10
971.4460706479
 20
922.9488167408
 11
970.4460706479
 21
922.9488167408
  0
LINE
  5
3F9
100
AcDbEntity
  8
6_ALL_SURFS
100
AcDbLine
 62
9
  6
CONTINUOUS
 10
970.4460706479
 20
923.7683730283
 11
971.4460706479
 21
923.7683730283
  0
LINE
  5
3FA
100
AcDbEntity
  8
6_ALL_SURFS
100
AcDbLine
 62
9
  6
CONTINUOUS
 10
2655.4460706479
 20
923.7683730283
 11
2656.4460706479
 21
923.7683730283
  0
LINE
  5
3FB
100
AcDbEntity
  8
6_ALL_SURFS
100
AcDbLine
 62
9
  6
CONTINUOUS
 10
970.4460706479
 20
923.9877791388
 11
971.4460706479
 21
923.9877791388
  0
LINE
  5
3FC
100
AcDbEntity
  8
6_ALL_SURFS
100
AcDbLine
 62
9
  6
CONTINUOUS
 10
2655.4460706479
 20
923.9877791388
 11
2656.4460706479
 21
923.9877791388
  0
LINE
  5
3FD
100
AcDbEntity
  8
6_ALL_SURFS
100
AcDbLine
 62
7
  6
CONTINUOUS
 10
970.4460706479
 20
924.5848216935
 11
971.4460706479
 21
924.5848216935
  0
LINE
  5
3FE
100
AcDbEntity
  8
6_ALL_SURFS
100
AcDbLine
 62
7
  6
CONTINUOUS
 10
2655.4460706479
 20
924.5848216935
 11
2656.4460706479
 21
924.5848216935
  0
LINE
  5
3FF
100
AcDbEntity
  8
6_ALL_SURFS
100
AcDbLine
 62
9
  6
CONTINUOUS
 10
2656.4460706479
 20
924.6261510254
 11
2655.4460706479
 21
924.6261510254
  0
LINE
  5
400
100
AcDbEntity
  8
6_ALL_SURFS
100
AcDbLine
 62
9
  6
CONTINUOUS
 10
971.4460706479
 20
924.6261510254
 11
970.4460706479
 21
924.6261510254
  0
LINE
  5
401
100
AcDbEntity
  8
7_ALL_FEATURES
100
AcDbLine
 62
9
  6
CONTINUOUS
 10
971.4460706479
 20
925.3988167408
 11
2655.4460706479
 21
925.3988167408
  0
LINE
  5
402
100
AcDbEntity
  8
7_ALL_FEATURES
100
AcDbLine
 62
7
  6
CONTINUOUS
 10
971.4460706479
 20
925.5988167408
 11
2655.4460706479
 21
925.5988167408
  0
LINE
  5
403
100
AcDbEntity
  8
6_ALL_SURFS
100
AcDbLine
 62
9
  6
CONTINUOUS
 10
970.4460706479
 20
925.7368227429
 11
2656.4460706479
 21
925.7368227429
  0
LINE
  5
404
100
AcDbEntity
  8
6_ALL_SURFS
100
AcDbLine
 62
7
  6
CONTINUOUS
 10
2656.4460706479
 20
925.7988167408
 11
970.4460706479
 21
925.7988167408
  0
LINE
  5
405
100
AcDbEntity
  8
6_ALL_SURFS
100
AcDbLine
 62
9
  6
CONTINUOUS
 10
2656.4460706479
 20
926.0988167408
 11
970.4460706479
 21
926.0988167408
  0
LINE
  5
406
100
AcDbEntity
  8
7_ALL_FEATURES
100
AcDbLine
 62
9
  6
CONTINUOUS
 10
970.4460706479
 20
926.6988167408
 11
968.9460706479
 21
926.6988167408
  0
LINE
  5
407
100
AcDbEntity
  8
7_ALL_FEATURES
100
AcDbLine
 62
9
  6
CONTINUOUS
 10
2656.4460706479
 20
926.6988167408
 11
2657.9460706479
 21
926.6988167408
  0
LINE
  5
408
100
AcDbEntity
  8
6_ALL_SURFS
100
AcDbLine
 62
9
  6
CONTINUOUS
 10
2656.4460706479
 20
926.7488167408
 11
970.4460706479
 21
926.7488167408
  0
LINE
  5
409
100
AcDbEntity
  8
6_ALL_SURFS
100
AcDbLine
 62
7
  6
CONTINUOUS
 10
2656.4460706479
 20
927.0488167408
 11
970.4460706479
 21
927.0488167408
  0
LINE
  5
40A
100
AcDbEntity
  8
3_ALL_AXES
100
AcDbLine
 62
7
  6
CONTINUOUS
 10
2658.9460706479
 20
927.2988167408
 11
2658.7953503183
 21
927.2988167408
  0
LINE
  5
40B
100
AcDbEntity
  8
3_ALL_AXES
100
AcDbLine
 62
7
  6
CONTINUOUS
 10
967.9460706479
 20
927.2988167408
 11
968.0967909776
 21
927.2988167408
  0
LINE
  5
40C
100
AcDbEntity
  8
6_ALL_SURFS
100
AcDbLine
 62
9
  6
CONTINUOUS
 10
970.4460706479
 20
927.3488167408
 11
2656.4460706479
 21
927.3488167408
  0
LINE
  5
40D
100
AcDbEntity
  8
7_ALL_FEATURES
100
AcDbLine
 62
7
  6
CONTINUOUS
 10
970.4460706479
 20
927.4488167408
 11
968.9460706479
 21
927.4488167408
  0
LINE
  5
40E
100
AcDbEntity
  8
7_ALL_FEATURES
100
AcDbLine
 62
7
  6
CONTINUOUS
 10
2656.4460706479
 20
927.4488167408
 11
2657.9460706479
 21
927.4488167408
  0
LINE
  5
40F
100
AcDbEntity
  8
6_ALL_SURFS
100
AcDbLine
 62
7
  6
CONTINUOUS
 10
970.4460706479
 20
929.2988167408
 11
2656.4460706479
 21
929.2988167408
  0
LINE
  5
410
100
AcDbEntity
  8
6_ALL_SURFS
100
AcDbLine
 62
7
  6
CONTINUOUS
 10
970.4460706479
 20
929.8988167408
 11
2656.4460706479
 21
929.8988167408
  0
LINE
  5
411
100
AcDbEntity
  8
6_ALL_SURFS
100
AcDbLine
 62
7
  6
CONTINUOUS
 10
970.4460706479
 20
932.2988167408
 11
2656.4460706479
 21
932.2988167408
  0
LINE
  5
412
100
AcDbEntity
  8
6_ALL_SURFS
100
AcDbLine
 62
7
  6
CONTINUOUS
 10
970.4460706479
 20
932.8988167408
 11
2656.4460706479
 21
932.8988167408
  0
LINE
  5
413
100
AcDbEntity
  8
6_ALL_SURFS
100
AcDbLine
 62
7
  6
CONTINUOUS
 10
970.4460706479
 20
935.2988167408
 11
2656.4460706479
 21
935.2988167408
  0
LINE
  5
414
100
AcDbEntity
  8
6_ALL_SURFS
100
AcDbLine
 62
7
  6
CONTINUOUS
 10
970.4460706479
 20
935.8988167408
 11
2656.4460706479
 21
935.8988167408
  0
LINE
  5
415
100
AcDbEntity
  8
6_ALL_SURFS
100
AcDbLine
 62
7
  6
CONTINUOUS
 10
970.4460706479
 20
938.2988167408
 11
1060.700304139
 21
938.2988167408
  0
LINE
  5
416
100
AcDbEntity
  8
6_ALL_SURFS
100
AcDbLine
 62
7
  6
CONTINUOUS
 10
1068.1918371569
 20
938.2988167408
 11
1310.700304139
 21
938.2988167408
  0
LINE
  5
417
100
AcDbEntity
  8
6_ALL_SURFS
100
AcDbLine
 62
7
  6
CONTINUOUS
 10
1318.1918371569
 20
938.2988167408
 11
1560.700304139
 21
938.2988167408
  0
LINE
  5
418
100
AcDbEntity
  8
6_ALL_SURFS
100
AcDbLine
 62
7
  6
CONTINUOUS
 10
1568.1918371569
 20
938.2988167408
 11
1810.700304139
 21
938.2988167408
  0
LINE
  5
419
100
AcDbEntity
  8
6_ALL_SURFS
100
AcDbLine
 62
7
  6
CONTINUOUS
 10
1818.1918371569
 20
938.2988167408
 11
2060.700304139
 21
938.2988167408
  0
LINE
  5
41A
100
AcDbEntity
  8
6_ALL_SURFS
100
AcDbLine
 62
7
  6
CONTINUOUS
 10
2068.1918371569
 20
938.2988167408
 11
2310.700304139
 21
938.2988167408
  0
LINE
  5
41B
100
AcDbEntity
  8
6_ALL_SURFS
100
AcDbLine
 62
7
  6
CONTINUOUS
 10
2318.1918371569
 20
938.2988167408
 11
2560.700304139
 21
938.2988167408
  0
LINE
  5
41C
100
AcDbEntity
  8
6_ALL_SURFS
100
AcDbLine
 62
7
  6
CONTINUOUS
 10
2568.1918371569
 20
938.2988167408
 11
2656.4460706479
 21
938.2988167408
  0
LINE
  5
41D
100
AcDbEntity
  8
6_ALL_SURFS
100
AcDbLine
 62
7
  6
CONTINUOUS
 10
970.4460706479
 20
938.8988167408
 11
1060.2902594468
 21
938.8988167408
  0
LINE
  5
41E
100
AcDbEntity
  8
6_ALL_SURFS
100
AcDbLine
 62
7
  6
CONTINUOUS
 10
1068.6018818491
 20
938.8988167408
 11
1310.2902594468
 21
938.8988167408
  0
LINE
  5
41F
100
AcDbEntity
  8
6_ALL_SURFS
100
AcDbLine
 62
7
  6
CONTINUOUS
 10
1318.6018818491
 20
938.8988167408
 11
1560.2902594468
 21
938.8988167408
  0
LINE
  5
420
100
AcDbEntity
  8
6_ALL_SURFS
100
AcDbLine
 62
7
  6
CONTINUOUS
 10
1568.6018818491
 20
938.8988167408
 11
1810.2902594468
 21
938.8988167408
  0
LINE
  5
421
100
AcDbEntity
  8
6_ALL_SURFS
100
AcDbLine
 62
7
  6
CONTINUOUS
 10
1818.6018818491
 20
938.8988167408
 11
2060.2902594468
 21
938.8988167408
  0
LINE
  5
422
100
AcDbEntity
  8
6_ALL_SURFS
100
AcDbLine
 62
7
  6
CONTINUOUS
 10
2068.6018818491
 20
938.8988167408
 11
2310.2902594468
 21
938.8988167408
  0
LINE
  5
423
100
AcDbEntity
  8
6_ALL_SURFS
100
AcDbLine
 62
7
  6
CONTINUOUS
 10
2318.6018818491
 20
938.8988167408
 11
2560.2902594468
 21
938.8988167408
  0
LINE
  5
424
100
AcDbEntity
  8
6_ALL_SURFS
100
AcDbLine
 62
7
  6
CONTINUOUS
 10
2568.6018818491
 20
938.8988167408
 11
2656.4460706479
 21
938.8988167408
  0
LINE
  5
425
100
AcDbEntity
  8
6_ALL_SURFS
100
AcDbLine
 62
7
  6
CONTINUOUS
 10
970.4460706479
 20
941.2988167408
 11
1059.6470325423
 21
941.2988167408
  0
LINE
  5
426
100
AcDbEntity
  8
6_ALL_SURFS
100
AcDbLine
 62
7
  6
CONTINUOUS
 10
1069.2451087536
 20
941.2988167408
 11
1309.6470325423
 21
941.2988167408
  0
LINE
  5
427
100
AcDbEntity
  8
6_ALL_SURFS
100
AcDbLine
 62
7
  6
CONTINUOUS
 10
1319.2451087536
 20
941.2988167408
 11
1559.6470325423
 21
941.2988167408
  0
LINE
  5
428
100
AcDbEntity
  8
6_ALL_SURFS
100
AcDbLine
 62
7
  6
CONTINUOUS
 10
1569.2451087536
 20
941.2988167408
 11
1809.6470325423
 21
941.2988167408
  0
LINE
  5
429
100
AcDbEntity
  8
6_ALL_SURFS
100
AcDbLine
 62
7
  6
CONTINUOUS
 10
1819.2451087536
 20
941.2988167408
 11
2059.6470325423
 21
941.2988167408
  0
LINE
  5
42A
100
AcDbEntity
  8
6_ALL_SURFS
100
AcDbLine
 62
7
  6
CONTINUOUS
 10
2069.2451087536
 20
941.2988167408
 11
2309.6470325423
 21
941.2988167408
  0
LINE
  5
42B
100
AcDbEntity
  8
6_ALL_SURFS
100
AcDbLine
 62
7
  6
CONTINUOUS
 10
2319.2451087536
 20
941.2988167408
 11
2559.6470325423
 21
941.2988167408
  0
LINE
  5
42C
100
AcDbEntity
  8
6_ALL_SURFS
100
AcDbLine
 62
7
  6
CONTINUOUS
 10
2569.2451087536
 20
941.2988167408
 11
2656.4460706479
 21
941.2988167408
  0
LINE
  5
42D
100
AcDbEntity
  8
6_ALL_SURFS
100
AcDbLine
 62
7
  6
CONTINUOUS
 10
970.4460706479
 20
941.8988167408
 11
1059.6846877879
 21
941.8988167408
  0
LINE
  5
42E
100
AcDbEntity
  8
6_ALL_SURFS
100
AcDbLine
 62
7
  6
CONTINUOUS
 10
1069.207453508
 20
941.8988167408
 11
1309.6846877879
 21
941.8988167408
  0
LINE
  5
42F
100
AcDbEntity
  8
6_ALL_SURFS
100
AcDbLine
 62
7
  6
CONTINUOUS
 10
1319.207453508
 20
941.8988167408
 11
1559.6846877879
 21
941.8988167408
  0
LINE
  5
430
100
AcDbEntity
  8
6_ALL_SURFS
100
AcDbLine
 62
7
  6
CONTINUOUS
 10
1569.207453508
 20
941.8988167408
 11
1809.6846877879
 21
941.8988167408
  0
LINE
  5
431
100
AcDbEntity
  8
6_ALL_SURFS
100
AcDbLine
 62
7
  6
CONTINUOUS
 10
1819.207453508
 20
941.8988167408
 11
2059.6846877879
 21
941.8988167408
  0
LINE
  5
432
100
AcDbEntity
  8
6_ALL_SURFS
100
AcDbLine
 62
7
  6
CONTINUOUS
 10
2069.207453508
 20
941.8988167408
 11
2309.6846877879
 21
941.8988167408
  0
LINE
  5
433
100
AcDbEntity
  8
6_ALL_SURFS
100
AcDbLine
 62
7
  6
CONTINUOUS
 10
2319.207453508
 20
941.8988167408
 11
2559.6846877879
 21
941.8988167408
  0
LINE
  5
434
100
AcDbEntity
  8
6_ALL_SURFS
100
AcDbLine
 62
7
  6
CONTINUOUS
 10
2569.207453508
 20
941.8988167408
 11
2656.4460706479
 21
941.8988167408
  0
LINE
  5
435
100
AcDbEntity
  8
6_ALL_SURFS
100
AcDbLine
 62
7
  6
CONTINUOUS
 10
970.4460706479
 20
944.7988167408
 11
1061.1626628542
 21
944.7988167408
  0
LINE
  5
436
100
AcDbEntity
  8
6_ALL_SURFS
100
AcDbLine
 62
7
  6
CONTINUOUS
 10
1067.7294784416
 20
944.7988167408
 11
1311.1626628542
 21
944.7988167408
  0
LINE
  5
437
100
AcDbEntity
  8
6_ALL_SURFS
100
AcDbLine
 62
7
  6
CONTINUOUS
 10
1317.7294784416
 20
944.7988167408
 11
1561.1626628542
 21
944.7988167408
  0
LINE
  5
438
100
AcDbEntity
  8
6_ALL_SURFS
100
AcDbLine
 62
7
  6
CONTINUOUS
 10
1567.7294784416
 20
944.7988167408
 11
1811.1626628542
 21
944.7988167408
  0
LINE
  5
439
100
AcDbEntity
  8
6_ALL_SURFS
100
AcDbLine
 62
7
  6
CONTINUOUS
 10
1817.7294784416
 20
944.7988167408
 11
2061.1626628542
 21
944.7988167408
  0
LINE
  5
43A
100
AcDbEntity
  8
6_ALL_SURFS
100
AcDbLine
 62
7
  6
CONTINUOUS
 10
2067.7294784416
 20
944.7988167408
 11
2311.1626628542
 21
944.7988167408
  0
LINE
  5
43B
100
AcDbEntity
  8
6_ALL_SURFS
100
AcDbLine
 62
7
  6
CONTINUOUS
 10
2317.7294784416
 20
944.7988167408
 11
2561.1626628542
 21
944.7988167408
  0
LINE
  5
43C
100
AcDbEntity
  8
6_ALL_SURFS
100
AcDbLine
 62
7
  6
CONTINUOUS
 10
2567.7294784416
 20
944.7988167408
 11
2656.4460706479
 21
944.7988167408
  0
LINE
  5
43D
100
AcDbEntity
  8
6_ALL_SURFS
100
AcDbLine
 62
9
  6
CONTINUOUS
 10
2656.4460706479
 20
946.9442883312
 11
970.4460706479
 21
946.9442883312
  0
LINE
  5
43E
100
AcDbEntity
  8
6_ALL_SURFS
100
AcDbLine
 62
7
  6
CONTINUOUS
 10
970.4460706479
 20
947.2988167408
 11
2656.4460706479
 21
947.2988167408
  0
LINE
  5
43F
100
AcDbEntity
  8
3_ALL_AXES
100
AcDbLine
 62
7
  6
CONTINUOUS
 10
2658.7953503183
 20
927.2988167408
 11
2657.9460706479
 21
926.5861864826
  0
LINE
  5
440
100
AcDbEntity
  8
3_ALL_AXES
100
AcDbLine
 62
7
  6
CONTINUOUS
 10
2658.7953503183
 20
920.9988167408
 11
2657.9460706479
 21
920.2861864826
  0
LINE
  5
441
100
AcDbEntity
  8
3_ALL_AXES
100
AcDbLine
 62
7
  6
CONTINUOUS
 10
2658.7953503183
 20
896.9988167408
 11
2657.9460706479
 21
896.2861864826
  0
LINE
  5
442
100
AcDbEntity
  8
3_ALL_AXES
100
AcDbLine
 62
7
  6
CONTINUOUS
 10
2658.7953503183
 20
890.6988167408
 11
2657.9460706479
 21
889.9861864826
  0
LINE
  5
443
100
AcDbEntity
  8
3_ALL_AXES
100
AcDbLine
 62
7
  6
CONTINUOUS
 10
2658.7953503183
 20
885.1988167408
 11
2657.9460706479
 21
885.911446999
  0
LINE
  5
444
100
AcDbEntity
  8
3_ALL_AXES
100
AcDbLine
 62
7
  6
CONTINUOUS
 10
2658.7953503183
 20
891.4988167408
 11
2657.9460706479
 21
892.211446999
  0
LINE
  5
445
100
AcDbEntity
  8
3_ALL_AXES
100
AcDbLine
 62
7
  6
CONTINUOUS
 10
2658.7953503183
 20
915.4988167408
 11
2657.9460706479
 21
916.211446999
  0
LINE
  5
446
100
AcDbEntity
  8
3_ALL_AXES
100
AcDbLine
 62
7
  6
CONTINUOUS
 10
2658.7953503183
 20
921.7988167408
 11
2657.9460706479
 21
922.511446999
  0
LINE
  5
447
100
AcDbEntity
  8
7_ALL_FEATURES
100
AcDbLine
 62
7
  6
CONTINUOUS
 10
2655.4460706479
 20
925.5988167408
 11
2655.4460706479
 21
886.8988167408
  0
LINE
  5
448
100
AcDbEntity
  8
7_ALL_FEATURES
100
AcDbLine
 62
7
  6
CONTINUOUS
 10
2656.4460706479
 20
865.1988352382
 11
2656.4460706479
 21
926.6988167408
  0
LINE
  5
449
100
AcDbEntity
  8
6_ALL_SURFS
100
AcDbLine
 62
7
  6
CONTINUOUS
 10
2656.4460706479
 20
926.0988167408
 11
2656.4460706479
 21
927.0488167408
  0
LINE
  5
44A
100
AcDbEntity
  8
7_ALL_FEATURES
100
AcDbLine
 62
7
  6
CONTINUOUS
 10
2656.4460706479
 20
926.8330553693
 11
2656.4460706479
 21
927.4488167408
  0
LINE
  5
44B
100
AcDbEntity
  8
6_ALL_SURFS
100
AcDbLine
 62
7
  6
CONTINUOUS
 10
2656.4460706479
 20
927.4488167408
 11
2656.4460706479
 21
947.2987982435
  0
LINE
  5
44C
100
AcDbEntity
  8
7_ALL_FEATURES
100
AcDbLine
 62
7
  6
CONTINUOUS
 10
2657.9460706479
 20
885.0488167408
 11
2657.9460706479
 21
927.4488167408
  0
LINE
  5
44D
100
AcDbEntity
  8
3_ALL_AXES
100
AcDbLine
 62
7
  6
CONTINUOUS
 10
2658.7953503183
 20
885.1988167408
 11
2658.7953503183
 21
890.6988167408
  0
LINE
  5
44E
100
AcDbEntity
  8
3_ALL_AXES
100
AcDbLine
 62
7
  6
CONTINUOUS
 10
2658.7953503183
 20
891.4988167408
 11
2658.7953503183
 21
896.9988167408
  0
LINE
  5
44F
100
AcDbEntity
  8
3_ALL_AXES
100
AcDbLine
 62
7
  6
CONTINUOUS
 10
2658.7953503183
 20
915.4988167408
 11
2658.7953503183
 21
920.9988167408
  0
LINE
  5
450
100
AcDbEntity
  8
3_ALL_AXES
100
AcDbLine
 62
7
  6
CONTINUOUS
 10
2658.7953503183
 20
921.7988167408
 11
2658.7953503183
 21
927.2988167408
  0
LINE
  5
451
100
AcDbEntity
  8
3_ALL_AXES
100
AcDbLine
 62
7
  6
CONTINUOUS
 10
2658.9460706479
 20
885.1988167408
 11
2658.9460706479
 21
890.6988167408
  0
LINE
  5
452
100
AcDbEntity
  8
3_ALL_AXES
100
AcDbLine
 62
7
  6
CONTINUOUS
 10
2658.9460706479
 20
891.4988167408
 11
2658.9460706479
 21
896.9988167408
  0
LINE
  5
453
100
AcDbEntity
  8
3_ALL_AXES
100
AcDbLine
 62
7
  6
CONTINUOUS
 10
2658.9460706479
 20
915.4988167408
 11
2658.9460706479
 21
920.9988167408
  0
LINE
  5
454
100
AcDbEntity
  8
3_ALL_AXES
100
AcDbLine
 62
7
  6
CONTINUOUS
 10
2658.9460706479
 20
921.7988167408
 11
2658.9460706479
 21
927.2988167408
  0
CIRCLE
  5
455
100
AcDbEntity
  8
3_ALL_AXES
100
AcDbCircle
 62
7
  6
CONTINUOUS
 10
403.9725952447
 20
434.3482605673
 40
2.75
  0
ARC
  5
456
100
AcDbEntity
  8
6_ALL_SURFS
100
AcDbCircle
 62
7
  6
CONTINUOUS
 10
402.7725952447
 20
422.3501864975
 40
2.15
100
AcDbArc
 50
146.6800806294
 51
213.3199193706
  0
ARC
  5
457
100
AcDbEntity
  8
6_ALL_SURFS
100
AcDbCircle
 62
7
  6
CONTINUOUS
 10
402.7725952447
 20
439.7482605673
 40
1.5
100
AcDbArc
 50
270.0
 51
360.0
  0
ARC
  5
458
100
AcDbEntity
  8
6_ALL_SURFS
100
AcDbCircle
 62
7
  6
CONTINUOUS
 10
399.7225952447
 20
424.355180263
 40
1.5
100
AcDbArc
 50
326.6800806294
 51
334.2614445208
  0
ARC
  5
459
100
AcDbEntity
  8
6_ALL_SURFS
100
AcDbCircle
 62
7
  6
CONTINUOUS
 10
399.7225952447
 20
420.3451927319
 40
1.5
100
AcDbArc
 50
25.7385554792
 51
33.3199193706
  0
ARC
  5
45A
100
AcDbEntity
  8
7_ALL_FEATURES
100
AcDbCircle
 62
7
  6
CONTINUOUS
 10
401.8225952447
 20
409.0982605673
 40
0.75
100
AcDbArc
 50
180.0
 51
270.0
  0
ARC
  5
45B
100
AcDbEntity
  8
6_ALL_SURFS
100
AcDbCircle
 62
7
  6
CONTINUOUS
 10
401.8225952447
 20
437.4982605673
 40
0.75
100
AcDbArc
 50
90.0
 51
180.0
  0
ARC
  5
45C
100
AcDbEntity
  8
6_ALL_SURFS
100
AcDbCircle
 62
7
  6
CONTINUOUS
 10
398.9225952447
 20
409.4482605673
 40
0.5
100
AcDbArc
 50
53.1301023542
 51
126.8698976458
  0
ARC
  5
45D
100
AcDbEntity
  8
6_ALL_SURFS
100
AcDbCircle
 62
7
  6
CONTINUOUS
 10
395.9225952447
 20
409.4482605673
 40
0.5
100
AcDbArc
 50
53.1301023542
 51
126.8698976458
  0
ARC
  5
45E
100
AcDbEntity
  8
6_ALL_SURFS
100
AcDbCircle
 62
7
  6
CONTINUOUS
 10
392.9225952447
 20
409.4482605673
 40
0.5
100
AcDbArc
 50
53.1301023542
 51
126.8698976458
  0
ARC
  5
45F
100
AcDbEntity
  8
6_ALL_SURFS
100
AcDbCircle
 62
7
  6
CONTINUOUS
 10
389.9225952447
 20
409.4482605673
 40
0.5
100
AcDbArc
 50
53.1301023542
 51
126.8698976458
  0
ARC
  5
460
100
AcDbEntity
  8
6_ALL_SURFS
100
AcDbCircle
 62
7
  6
CONTINUOUS
 10
386.9225952447
 20
409.4482605673
 40
0.5
100
AcDbArc
 50
53.1301023542
 51
126.8698976458
  0
ARC
  5
461
100
AcDbEntity
  8
6_ALL_SURFS
100
AcDbCircle
 62
7
  6
CONTINUOUS
 10
381.6162986026
 20
410.4545572094
 40
0.3937033579
100
AcDbArc
 50
90.0
 51
264.2894068625
  0
ARC
  5
462
100
AcDbEntity
  8
6_ALL_SURFS
100
AcDbCircle
 62
7
  6
CONTINUOUS
 10
400.9225952447
 20
411.1482605673
 40
0.3
100
AcDbArc
 50
270.0
 51
300.0
  0
ARC
  5
463
100
AcDbEntity
  8
6_ALL_SURFS
100
AcDbCircle
 62
7
  6
CONTINUOUS
 10
401.7725952447
 20
408.6482605673
 40
0.3
100
AcDbArc
 50
255.0
 51
270.0
  0
CIRCLE
  5
464
100
AcDbEntity
  8
3_ALL_AXES
100
AcDbCircle
 62
7
  6
CONTINUOUS
 10
410.2725952447
 20
499.9482605673
 40
2.75
  0
ARC
  5
465
100
AcDbEntity
  8
6_ALL_SURFS
100
AcDbCircle
 62
7
  6
CONTINUOUS
 10
420.4725952447
 20
501.3482605673
 40
1.8
100
AcDbArc
 50
90.0
 51
105.50726141
  0
ARC
  5
466
100
AcDbEntity
  8
6_ALL_SURFS
100
AcDbCircle
 62
7
  6
CONTINUOUS
 10
419.6268439337
 20
502.1482605673
 40
1.0
100
AcDbArc
 50
48.5903778907
 51
90.0
  0
ARC
  5
467
100
AcDbEntity
  8
6_ALL_SURFS
100
AcDbCircle
 62
7
  6
CONTINUOUS
 10
407.0225952447
 20
502.3982605673
 40
0.75
100
AcDbArc
 50
90.0
 51
180.0
  0
ARC
  5
468
100
AcDbEntity
  8
6_ALL_SURFS
100
AcDbCircle
 62
7
  6
CONTINUOUS
 10
406.5725952447
 20
502.8482605673
 40
0.3
100
AcDbArc
 50
90.0
 51
180.0
  0
CIRCLE
  5
469
100
AcDbEntity
  8
3_ALL_AXES
100
AcDbCircle
 62
7
  6
CONTINUOUS
 10
440.5725952447
 20
434.3482605673
 40
2.75
  0
ARC
  5
46A
100
AcDbEntity
  8
7_ALL_FEATURES
100
AcDbCircle
 62
7
  6
CONTINUOUS
 10
441.7725952447
 20
422.3501864975
 40
2.15
100
AcDbArc
 50
326.6800806294
 51
33.3199193706
  0
ARC
  5
46B
100
AcDbEntity
  8
6_ALL_SURFS
100
AcDbCircle
 62
7
  6
CONTINUOUS
 10
441.7725952447
 20
439.7482605673
 40
1.5
100
AcDbArc
 50
180.0
 51
270.0
  0
ARC
  5
46C
100
AcDbEntity
  8
7_ALL_FEATURES
100
AcDbCircle
 62
7
  6
CONTINUOUS
 10
444.8225952447
 20
424.355180263
 40
1.5
100
AcDbArc
 50
205.7385554792
 51
213.3199193706
  0
ARC
  5
46D
100
AcDbEntity
  8
7_ALL_FEATURES
100
AcDbCircle
 62
7
  6
CONTINUOUS
 10
444.8225952447
 20
420.3451927319
 40
1.5
100
AcDbArc
 50
146.6800806294
 51
154.2614445208
  0
ARC
  5
46E
100
AcDbEntity
  8
7_ALL_FEATURES
100
AcDbCircle
 62
7
  6
CONTINUOUS
 10
442.7225952447
 20
409.0982605673
 40
0.75
100
AcDbArc
 50
270.0
 51
360.0
  0
ARC
  5
46F
100
AcDbEntity
  8
6_ALL_SURFS
100
AcDbCircle
 62
7
  6
CONTINUOUS
 10
442.7225952447
 20
437.4982605673
 40
0.75
100
AcDbArc
 50
0.0
 51
90.0
  0
ARC
  5
470
100
AcDbEntity
  8
7_ALL_FEATURES
100
AcDbCircle
 62
7
  6
CONTINUOUS
 10
457.6225952447
 20
409.4482605673
 40
0.5
100
AcDbArc
 50
53.1301023542
 51
126.8698976458
  0
ARC
  5
471
100
AcDbEntity
  8
7_ALL_FEATURES
100
AcDbCircle
 62
7
  6
CONTINUOUS
 10
454.6225952447
 20
409.4482605673
 40
0.5
100
AcDbArc
 50
53.1301023542
 51
126.8698976458
  0
ARC
  5
472
100
AcDbEntity
  8
7_ALL_FEATURES
100
AcDbCircle
 62
7
  6
CONTINUOUS
 10
451.6225952447
 20
409.4482605673
 40
0.5
100
AcDbArc
 50
53.1301023542
 51
126.8698976458
  0
ARC
  5
473
100
AcDbEntity
  8
7_ALL_FEATURES
100
AcDbCircle
 62
7
  6
CONTINUOUS
 10
448.6225952447
 20
409.4482605673
 40
0.5
100
AcDbArc
 50
53.1301023542
 51
126.8698976458
  0
ARC
  5
474
100
AcDbEntity
  8
7_ALL_FEATURES
100
AcDbCircle
 62
7
  6
CONTINUOUS
 10
445.6225952447
 20
409.4482605673
 40
0.5
100
AcDbArc
 50
53.1301023542
 51
126.8698976458
  0
ARC
  5
475
100
AcDbEntity
  8
7_ALL_FEATURES
100
AcDbCircle
 62
7
  6
CONTINUOUS
 10
462.9288918868
 20
410.4545572094
 40
0.3937033579
100
AcDbArc
 50
275.7105931375
 51
90.0
  0
ARC
  5
476
100
AcDbEntity
  8
7_ALL_FEATURES
100
AcDbCircle
 62
7
  6
CONTINUOUS
 10
443.6225952447
 20
411.1482605673
 40
0.3
100
AcDbArc
 50
240.0
 51
270.0
  0
ARC
  5
477
100
AcDbEntity
  8
7_ALL_FEATURES
100
AcDbCircle
 62
7
  6
CONTINUOUS
 10
442.7725952447
 20
408.6482605673
 40
0.3
100
AcDbArc
 50
270.0
 51
285.0
  0
ARC
  5
478
100
AcDbEntity
  8
6_ALL_SURFS
100
AcDbCircle
 62
7
  6
CONTINUOUS
 10
422.2725952447
 20
480.6482605673
 40
11.0
100
AcDbArc
 50
3.257196161
 51
176.742803839
  0
ARC
  5
479
100
AcDbEntity
  8
6_ALL_SURFS
100
AcDbCircle
 62
7
  6
CONTINUOUS
 10
422.2725952447
 20
480.6482605673
 40
11.0
100
AcDbArc
 50
183.257196161
 51
356.742803839
  0
ARC
  5
47A
100
AcDbEntity
  8
6_ALL_SURFS
100
AcDbCircle
 62
7
  6
CONTINUOUS
 10
422.2725952447
 20
480.6482605673
 40
10.25
100
AcDbArc
 50
3.4958136324
 51
176.5041863676
  0
ARC
  5
47B
100
AcDbEntity
  8
6_ALL_SURFS
100
AcDbCircle
 62
7
  6
CONTINUOUS
 10
422.2725952447
 20
480.6482605673
 40
10.25
100
AcDbArc
 50
183.4958136324
 51
356.5041863676
  0
ARC
  5
47C
100
AcDbEntity
  8
6_ALL_SURFS
100
AcDbCircle
 62
7
  6
CONTINUOUS
 10
422.2725952447
 20
505.1482605673
 40
3.0
100
AcDbArc
 50
228.5903778907
 51
311.4096221093
  0
CIRCLE
  5
47D
100
AcDbEntity
  8
3_ALL_AXES
100
AcDbCircle
 62
7
  6
CONTINUOUS
 10
434.2725952447
 20
499.9482605673
 40
2.75
  0
ARC
  5
47E
100
AcDbEntity
  8
7_ALL_FEATURES
100
AcDbCircle
 62
7
  6
CONTINUOUS
 10
424.0725952447
 20
501.3482605673
 40
1.8
100
AcDbArc
 50
74.49273859
 51
90.0
  0
ARC
  5
47F
100
AcDbEntity
  8
6_ALL_SURFS
100
AcDbCircle
 62
7
  6
CONTINUOUS
 10
424.9183465558
 20
502.1482605673
 40
1.0
100
AcDbArc
 50
90.0
 51
131.4096221093
  0
ARC
  5
480
100
AcDbEntity
  8
6_ALL_SURFS
100
AcDbCircle
 62
7
  6
CONTINUOUS
 10
437.5225952447
 20
502.3982605673
 40
0.75
100
AcDbArc
 50
0.0
 51
90.0
  0
ARC
  5
481
100
AcDbEntity
  8
7_ALL_FEATURES
100
AcDbCircle
 62
7
  6
CONTINUOUS
 10
437.9725952447
 20
502.8482605673
 40
0.3
100
AcDbArc
 50
0.0
 51
90.0
  0
ARC
  5
482
100
AcDbEntity
  8
7_ALL_FEATURES
100
AcDbCircle
 62
7
  6
CONTINUOUS
 10
1064.4460706479
 20
871.1988167408
 40
4.7990381057
100
AcDbArc
 50
38.6913826582
 51
141.3086173418
  0
ARC
  5
483
100
AcDbEntity
  8
7_ALL_FEATURES
100
AcDbCircle
 62
7
  6
CONTINUOUS
 10
1564.4460706479
 20
871.1988167408
 40
4.7990381057
100
AcDbArc
 50
38.6913826582
 51
141.3086173418
  0
ARC
  5
484
100
AcDbEntity
  8
7_ALL_FEATURES
100
AcDbCircle
 62
7
  6
CONTINUOUS
 10
1314.4460706479
 20
871.1988167408
 40
4.7990381057
100
AcDbArc
 50
38.6913826582
 51
141.3086173418
  0
ARC
  5
485
100
AcDbEntity
  8
7_ALL_FEATURES
100
AcDbCircle
 62
7
  6
CONTINUOUS
 10
1564.4460706479
 20
871.1988167408
 40
4.7990381057
100
AcDbArc
 50
0.0
 51
30.0066305519
  0
ARC
  5
486
100
AcDbEntity
  8
7_ALL_FEATURES
100
AcDbCircle
 62
7
  6
CONTINUOUS
 10
1314.4460706479
 20
871.1988167408
 40
4.7990381057
100
AcDbArc
 50
0.0
 51
30.0066305519
  0
ARC
  5
487
100
AcDbEntity
  8
7_ALL_FEATURES
100
AcDbCircle
 62
7
  6
CONTINUOUS
 10
1564.4460706479
 20
871.1988167408
 40
4.7990381057
100
AcDbArc
 50
149.9933694481
 51
180.0
  0
ARC
  5
488
100
AcDbEntity
  8
7_ALL_FEATURES
100
AcDbCircle
 62
7
  6
CONTINUOUS
 10
1064.4460706479
 20
871.1988167408
 40
4.7990381057
100
AcDbArc
 50
0.0
 51
30.0066305519
  0
ARC
  5
489
100
AcDbEntity
  8
7_ALL_FEATURES
100
AcDbCircle
 62
7
  6
CONTINUOUS
 10
1314.4460706479
 20
871.1988167408
 40
4.7990381057
100
AcDbArc
 50
149.9933694481
 51
180.0
  0
ARC
  5
48A
100
AcDbEntity
  8
7_ALL_FEATURES
100
AcDbCircle
 62
7
  6
CONTINUOUS
 10
1064.4460706479
 20
871.1988167408
 40
4.7990381057
100
AcDbArc
 50
149.9933694481
 51
180.0
  0
ARC
  5
48B
100
AcDbEntity
  8
7_ALL_FEATURES
100
AcDbCircle
 62
7
  6
CONTINUOUS
 10
1564.4460706479
 20
871.1988167408
 40
4.7990381057
100
AcDbArc
 50
313.171184019
 51
352.8177973595
  0
ARC
  5
48C
100
AcDbEntity
  8
7_ALL_FEATURES
100
AcDbCircle
 62
7
  6
CONTINUOUS
 10
1314.4460706479
 20
871.1988167408
 40
4.7990381057
100
AcDbArc
 50
313.171184019
 51
352.8177973595
  0
ARC
  5
48D
100
AcDbEntity
  8
7_ALL_FEATURES
100
AcDbCircle
 62
7
  6
CONTINUOUS
 10
1564.4460706479
 20
871.1988167408
 40
4.7990381057
100
AcDbArc
 50
187.1822026405
 51
226.828815981
  0
ARC
  5
48E
100
AcDbEntity
  8
7_ALL_FEATURES
100
AcDbCircle
 62
7
  6
CONTINUOUS
 10
1064.4460706479
 20
871.1988167408
 40
4.7990381057
100
AcDbArc
 50
313.171184019
 51
352.8177973595
  0
ARC
  5
48F
100
AcDbEntity
  8
7_ALL_FEATURES
100
AcDbCircle
 62
7
  6
CONTINUOUS
 10
1314.4460706479
 20
871.1988167408
 40
4.7990381057
100
AcDbArc
 50
187.1822026405
 51
226.828815981
  0
ARC
  5
490
100
AcDbEntity
  8
7_ALL_FEATURES
100
AcDbCircle
 62
7
  6
CONTINUOUS
 10
1064.4460706479
 20
871.1988167408
 40
4.7990381057
100
AcDbArc
 50
187.1822026405
 51
226.828815981
  0
CIRCLE
  5
491
100
AcDbEntity
  8
6_ALL_SURFS
100
AcDbCircle
 62
7
  6
CONTINUOUS
 10
1064.4460706479
 20
871.1988167408
 40
3.5
  0
CIRCLE
  5
492
100
AcDbEntity
  8
6_ALL_SURFS
100
AcDbCircle
 62
7
  6
CONTINUOUS
 10
1314.4460706479
 20
871.1988167408
 40
3.5
  0
CIRCLE
  5
493
100
AcDbEntity
  8
6_ALL_SURFS
100
AcDbCircle
 62
7
  6
CONTINUOUS
 10
1564.4460706479
 20
871.1988167408
 40
3.5
  0
ARC
  5
494
100
AcDbEntity
  8
6_ALL_SURFS
100
AcDbCircle
 62
7
  6
CONTINUOUS
 10
1064.4460706479
 20
941.2988167408
 40
4.7990381057
100
AcDbArc
 50
180.0
 51
210.0066305519
  0
ARC
  5
495
100
AcDbEntity
  8
6_ALL_SURFS
100
AcDbCircle
 62
7
  6
CONTINUOUS
 10
1314.4460706479
 20
941.2988167408
 40
4.7990381057
100
AcDbArc
 50
180.0
 51
210.0066305519
  0
ARC
  5
496
100
AcDbEntity
  8
6_ALL_SURFS
100
AcDbCircle
 62
7
  6
CONTINUOUS
 10
1064.4460706479
 20
941.2988167408
 40
4.7990381057
100
AcDbArc
 50
329.9933694481
 51
360.0
  0
ARC
  5
497
100
AcDbEntity
  8
6_ALL_SURFS
100
AcDbCircle
 62
7
  6
CONTINUOUS
 10
1564.4460706479
 20
941.2988167408
 40
4.7990381057
100
AcDbArc
 50
180.0
 51
210.0066305519
  0
ARC
  5
498
100
AcDbEntity
  8
6_ALL_SURFS
100
AcDbCircle
 62
7
  6
CONTINUOUS
 10
1314.4460706479
 20
941.2988167408
 40
4.7990381057
100
AcDbArc
 50
329.9933694481
 51
360.0
  0
ARC
  5
499
100
AcDbEntity
  8
6_ALL_SURFS
100
AcDbCircle
 62
7
  6
CONTINUOUS
 10
1564.4460706479
 20
941.2988167408
 40
4.7990381057
100
AcDbArc
 50
329.9933694481
 51
360.0
  0
ARC
  5
49A
100
AcDbEntity
  8
6_ALL_SURFS
100
AcDbCircle
 62
7
  6
CONTINUOUS
 10
1564.4460706479
 20
941.2988167408
 40
4.7990381057
100
AcDbArc
 50
218.6913826582
 51
321.3086173418
  0
ARC
  5
49B
100
AcDbEntity
  8
6_ALL_SURFS
100
AcDbCircle
 62
7
  6
CONTINUOUS
 10
1314.4460706479
 20
941.2988167408
 40
4.7990381057
100
AcDbArc
 50
218.6913826582
 51
321.3086173418
  0
ARC
  5
49C
100
AcDbEntity
  8
6_ALL_SURFS
100
AcDbCircle
 62
7
  6
CONTINUOUS
 10
1064.4460706479
 20
941.2988167408
 40
4.7990381057
100
AcDbArc
 50
218.6913826582
 51
321.3086173418
  0
ARC
  5
49D
100
AcDbEntity
  8
6_ALL_SURFS
100
AcDbCircle
 62
7
  6
CONTINUOUS
 10
1064.4460706479
 20
941.2988167408
 40
4.7990381057
100
AcDbArc
 50
133.171184019
 51
172.8177973595
  0
ARC
  5
49E
100
AcDbEntity
  8
6_ALL_SURFS
100
AcDbCircle
 62
7
  6
CONTINUOUS
 10
1314.4460706479
 20
941.2988167408
 40
4.7990381057
100
AcDbArc
 50
133.171184019
 51
172.8177973595
  0
ARC
  5
49F
100
AcDbEntity
  8
6_ALL_SURFS
100
AcDbCircle
 62
7
  6
CONTINUOUS
 10
1064.4460706479
 20
941.2988167408
 40
4.7990381057
100
AcDbArc
 50
7.1822026405
 51
46.828815981
  0
ARC
  5
4A0
100
AcDbEntity
  8
6_ALL_SURFS
100
AcDbCircle
 62
7
  6
CONTINUOUS
 10
1564.4460706479
 20
941.2988167408
 40
4.7990381057
100
AcDbArc
 50
133.171184019
 51
172.8177973595
  0
ARC
  5
4A1
100
AcDbEntity
  8
6_ALL_SURFS
100
AcDbCircle
 62
7
  6
CONTINUOUS
 10
1314.4460706479
 20
941.2988167408
 40
4.7990381057
100
AcDbArc
 50
7.1822026405
 51
46.828815981
  0
ARC
  5
4A2
100
AcDbEntity
  8
6_ALL_SURFS
100
AcDbCircle
 62
7
  6
CONTINUOUS
 10
1564.4460706479
 20
941.2988167408
 40
4.7990381057
100
AcDbArc
 50
7.1822026405
 51
46.828815981
  0
CIRCLE
  5
4A3
100
AcDbEntity
  8
6_ALL_SURFS
100
AcDbCircle
 62
7
  6
CONTINUOUS
 10
1064.4460706479
 20
941.2988167408
 40
3.5
  0
CIRCLE
  5
4A4
100
AcDbEntity
  8
6_ALL_SURFS
100
AcDbCircle
 62
7
  6
CONTINUOUS
 10
1314.4460706479
 20
941.2988167408
 40
3.5
  0
CIRCLE
  5
4A5
100
AcDbEntity
  8
6_ALL_SURFS
100
AcDbCircle
 62
7
  6
CONTINUOUS
 10
1564.4460706479
 20
941.2988167408
 40
3.5
  0
ARC
  5
4A6
100
AcDbEntity
  8
7_ALL_FEATURES
100
AcDbCircle
 62
7
  6
CONTINUOUS
 10
2564.4460706479
 20
871.1988167408
 40
4.7990381057
100
AcDbArc
 50
38.6913826582
 51
141.3086173418
  0
ARC
  5
4A7
100
AcDbEntity
  8
7_ALL_FEATURES
100
AcDbCircle
 62
7
  6
CONTINUOUS
 10
2314.4460706479
 20
871.1988167408
 40
4.7990381057
100
AcDbArc
 50
38.6913826582
 51
141.3086173418
  0
ARC
  5
4A8
100
AcDbEntity
  8
7_ALL_FEATURES
100
AcDbCircle
 62
7
  6
CONTINUOUS
 10
2064.4460706479
 20
871.1988167408
 40
4.7990381057
100
AcDbArc
 50
38.6913826582
 51
141.3086173418
  0
ARC
  5
4A9
100
AcDbEntity
  8
7_ALL_FEATURES
100
AcDbCircle
 62
7
  6
CONTINUOUS
 10
1814.4460706479
 20
871.1988167408
 40
4.7990381057
100
AcDbArc
 50
38.6913826582
 51
141.3086173418
  0
ARC
  5
4AA
100
AcDbEntity
  8
7_ALL_FEATURES
100
AcDbCircle
 62
7
  6
CONTINUOUS
 10
2564.4460706479
 20
871.1988167408
 40
4.7990381057
100
AcDbArc
 50
0.0
 51
30.0066305519
  0
ARC
  5
4AB
100
AcDbEntity
  8
7_ALL_FEATURES
100
AcDbCircle
 62
7
  6
CONTINUOUS
 10
2314.4460706479
 20
871.1988167408
 40
4.7990381057
100
AcDbArc
 50
0.0
 51
30.0066305519
  0
ARC
  5
4AC
100
AcDbEntity
  8
7_ALL_FEATURES
100
AcDbCircle
 62
7
  6
CONTINUOUS
 10
2564.4460706479
 20
871.1988167408
 40
4.7990381057
100
AcDbArc
 50
149.9933694481
 51
180.0
  0
ARC
  5
4AD
100
AcDbEntity
  8
7_ALL_FEATURES
100
AcDbCircle
 62
7
  6
CONTINUOUS
 10
2064.4460706479
 20
871.1988167408
 40
4.7990381057
100
AcDbArc
 50
0.0
 51
30.0066305519
  0
ARC
  5
4AE
100
AcDbEntity
  8
7_ALL_FEATURES
100
AcDbCircle
 62
7
  6
CONTINUOUS
 10
2314.4460706479
 20
871.1988167408
 40
4.7990381057
100
AcDbArc
 50
149.9933694481
 51
180.0
  0
ARC
  5
4AF
100
AcDbEntity
  8
7_ALL_FEATURES
100
AcDbCircle
 62
7
  6
CONTINUOUS
 10
1814.4460706479
 20
871.1988167408
 40
4.7990381057
100
AcDbArc
 50
0.0
 51
30.0066305519
  0
ARC
  5
4B0
100
AcDbEntity
  8
7_ALL_FEATURES
100
AcDbCircle
 62
7
  6
CONTINUOUS
 10
2064.4460706479
 20
871.1988167408
 40
4.7990381057
100
AcDbArc
 50
149.9933694481
 51
180.0
  0
ARC
  5
4B1
100
AcDbEntity
  8
7_ALL_FEATURES
100
AcDbCircle
 62
7
  6
CONTINUOUS
 10
1814.4460706479
 20
871.1988167408
 40
4.7990381057
100
AcDbArc
 50
149.9933694481
 51
180.0
  0
ARC
  5
4B2
100
AcDbEntity
  8
7_ALL_FEATURES
100
AcDbCircle
 62
7
  6
CONTINUOUS
 10
2564.4460706479
 20
871.1988167408
 40
4.7990381057
100
AcDbArc
 50
313.171184019
 51
352.8177973595
  0
ARC
  5
4B3
100
AcDbEntity
  8
7_ALL_FEATURES
100
AcDbCircle
 62
7
  6
CONTINUOUS
 10
2314.4460706479
 20
871.1988167408
 40
4.7990381057
100
AcDbArc
 50
313.171184019
 51
352.8177973595
  0
ARC
  5
4B4
100
AcDbEntity
  8
7_ALL_FEATURES
100
AcDbCircle
 62
7
  6
CONTINUOUS
 10
2564.4460706479
 20
871.1988167408
 40
4.7990381057
100
AcDbArc
 50
187.1822026405
 51
226.828815981
  0
ARC
  5
4B5
100
AcDbEntity
  8
7_ALL_FEATURES
100
AcDbCircle
 62
7
  6
CONTINUOUS
 10
2064.4460706479
 20
871.1988167408
 40
4.7990381057
100
AcDbArc
 50
313.171184019
 51
352.8177973595
  0
ARC
  5
4B6
100
AcDbEntity
  8
7_ALL_FEATURES
100
AcDbCircle
 62
7
  6
CONTINUOUS
 10
2314.4460706479
 20
871.1988167408
 40
4.7990381057
100
AcDbArc
 50
187.1822026405
 51
226.828815981
  0
ARC
  5
4B7
100
AcDbEntity
  8
7_ALL_FEATURES
100
AcDbCircle
 62
7
  6
CONTINUOUS
 10
1814.4460706479
 20
871.1988167408
 40
4.7990381057
100
AcDbArc
 50
313.171184019
 51
352.8177973595
  0
ARC
  5
4B8
100
AcDbEntity
  8
7_ALL_FEATURES
100
AcDbCircle
 62
7
  6
CONTINUOUS
 10
2064.4460706479
 20
871.1988167408
 40
4.7990381057
100
AcDbArc
 50
187.1822026405
 51
226.828815981
  0
ARC
  5
4B9
100
AcDbEntity
  8
7_ALL_FEATURES
100
AcDbCircle
 62
7
  6
CONTINUOUS
 10
1814.4460706479
 20
871.1988167408
 40
4.7990381057
100
AcDbArc
 50
187.1822026405
 51
226.828815981
  0
CIRCLE
  5
4BA
100
AcDbEntity
  8
6_ALL_SURFS
100
AcDbCircle
 62
7
  6
CONTINUOUS
 10
1814.4460706479
 20
871.1988167408
 40
3.5
  0
CIRCLE
  5
4BB
100
AcDbEntity
  8
6_ALL_SURFS
100
AcDbCircle
 62
7
  6
CONTINUOUS
 10
2064.4460706479
 20
871.1988167408
 40
3.5
  0
CIRCLE
  5
4BC
100
AcDbEntity
  8
6_ALL_SURFS
100
AcDbCircle
 62
7
  6
CONTINUOUS
 10
2314.4460706479
 20
871.1988167408
 40
3.5
  0
CIRCLE
  5
4BD
100
AcDbEntity
  8
6_ALL_SURFS
100
AcDbCircle
 62
7
  6
CONTINUOUS
 10
2564.4460706479
 20
871.1988167408
 40
3.5
  0
ARC
  5
4BE
100
AcDbEntity
  8
6_ALL_SURFS
100
AcDbCircle
 62
7
  6
CONTINUOUS
 10
1814.4460706479
 20
941.2988167408
 40
4.7990381057
100
AcDbArc
 50
180.0
 51
210.0066305519
  0
ARC
  5
4BF
100
AcDbEntity
  8
6_ALL_SURFS
100
AcDbCircle
 62
7
  6
CONTINUOUS
 10
2064.4460706479
 20
941.2988167408
 40
4.7990381057
100
AcDbArc
 50
180.0
 51
210.0066305519
  0
ARC
  5
4C0
100
AcDbEntity
  8
6_ALL_SURFS
100
AcDbCircle
 62
7
  6
CONTINUOUS
 10
1814.4460706479
 20
941.2988167408
 40
4.7990381057
100
AcDbArc
 50
329.9933694481
 51
360.0
  0
ARC
  5
4C1
100
AcDbEntity
  8
6_ALL_SURFS
100
AcDbCircle
 62
7
  6
CONTINUOUS
 10
2314.4460706479
 20
941.2988167408
 40
4.7990381057
100
AcDbArc
 50
180.0
 51
210.0066305519
  0
ARC
  5
4C2
100
AcDbEntity
  8
6_ALL_SURFS
100
AcDbCircle
 62
7
  6
CONTINUOUS
 10
2064.4460706479
 20
941.2988167408
 40
4.7990381057
100
AcDbArc
 50
329.9933694481
 51
360.0
  0
ARC
  5
4C3
100
AcDbEntity
  8
6_ALL_SURFS
100
AcDbCircle
 62
7
  6
CONTINUOUS
 10
2564.4460706479
 20
941.2988167408
 40
4.7990381057
100
AcDbArc
 50
180.0
 51
210.0066305519
  0
ARC
  5
4C4
100
AcDbEntity
  8
6_ALL_SURFS
100
AcDbCircle
 62
7
  6
CONTINUOUS
 10
2314.4460706479
 20
941.2988167408
 40
4.7990381057
100
AcDbArc
 50
329.9933694481
 51
360.0
  0
ARC
  5
4C5
100
AcDbEntity
  8
6_ALL_SURFS
100
AcDbCircle
 62
7
  6
CONTINUOUS
 10
2564.4460706479
 20
941.2988167408
 40
4.7990381057
100
AcDbArc
 50
329.9933694481
 51
360.0
  0
ARC
  5
4C6
100
AcDbEntity
  8
6_ALL_SURFS
100
AcDbCircle
 62
7
  6
CONTINUOUS
 10
2564.4460706479
 20
941.2988167408
 40
4.7990381057
100
AcDbArc
 50
218.6913826582
 51
321.3086173418
  0
ARC
  5
4C7
100
AcDbEntity
  8
6_ALL_SURFS
100
AcDbCircle
 62
7
  6
CONTINUOUS
 10
2314.4460706479
 20
941.2988167408
 40
4.7990381057
100
AcDbArc
 50
218.6913826582
 51
321.3086173418
  0
ARC
  5
4C8
100
AcDbEntity
  8
6_ALL_SURFS
100
AcDbCircle
 62
7
  6
CONTINUOUS
 10
2064.4460706479
 20
941.2988167408
 40
4.7990381057
100
AcDbArc
 50
218.6913826582
 51
321.3086173418
  0
ARC
  5
4C9
100
AcDbEntity
  8
6_ALL_SURFS
100
AcDbCircle
 62
7
  6
CONTINUOUS
 10
1814.4460706479
 20
941.2988167408
 40
4.7990381057
100
AcDbArc
 50
218.6913826582
 51
321.3086173418
  0
ARC
  5
4CA
100
AcDbEntity
  8
6_ALL_SURFS
100
AcDbCircle
 62
7
  6
CONTINUOUS
 10
1814.4460706479
 20
941.2988167408
 40
4.7990381057
100
AcDbArc
 50
133.171184019
 51
172.8177973595
  0
ARC
  5
4CB
100
AcDbEntity
  8
6_ALL_SURFS
100
AcDbCircle
 62
7
  6
CONTINUOUS
 10
2064.4460706479
 20
941.2988167408
 40
4.7990381057
100
AcDbArc
 50
133.171184019
 51
172.8177973595
  0
ARC
  5
4CC
100
AcDbEntity
  8
6_ALL_SURFS
100
AcDbCircle
 62
7
  6
CONTINUOUS
 10
1814.4460706479
 20
941.2988167408
 40
4.7990381057
100
AcDbArc
 50
7.1822026405
 51
46.828815981
  0
ARC
  5
4CD
100
AcDbEntity
  8
6_ALL_SURFS
100
AcDbCircle
 62
7
  6
CONTINUOUS
 10
2314.4460706479
 20
941.2988167408
 40
4.7990381057
100
AcDbArc
 50
133.171184019
 51
172.8177973595
  0
ARC
  5
4CE
100
AcDbEntity
  8
6_ALL_SURFS
100
AcDbCircle
 62
7
  6
CONTINUOUS
 10
2064.4460706479
 20
941.2988167408
 40
4.7990381057
100
AcDbArc
 50
7.1822026405
 51
46.828815981
  0
ARC
  5
4CF
100
AcDbEntity
  8
6_ALL_SURFS
100
AcDbCircle
 62
7
  6
CONTINUOUS
 10
2564.4460706479
 20
941.2988167408
 40
4.7990381057
100
AcDbArc
 50
133.171184019
 51
172.8177973595
  0
ARC
  5
4D0
100
AcDbEntity
  8
6_ALL_SURFS
100
AcDbCircle
 62
7
  6
CONTINUOUS
 10
2314.4460706479
 20
941.2988167408
 40
4.7990381057
100
AcDbArc
 50
7.1822026405
 51
46.828815981
  0
ARC
  5
4D1
100
AcDbEntity
  8
6_ALL_SURFS
100
AcDbCircle
 62
7
  6
CONTINUOUS
 10
2564.4460706479
 20
941.2988167408
 40
4.7990381057
100
AcDbArc
 50
7.1822026405
 51
46.828815981
  0
CIRCLE
  5
4D2
100
AcDbEntity
  8
6_ALL_SURFS
100
AcDbCircle
 62
7
  6
CONTINUOUS
 10
1814.4460706479
 20
941.2988167408
 40
3.5
  0
CIRCLE
  5
4D3
100
AcDbEntity
  8
6_ALL_SURFS
100
AcDbCircle
 62
7
  6
CONTINUOUS
 10
2064.4460706479
 20
941.2988167408
 40
3.5
  0
CIRCLE
  5
4D4
100
AcDbEntity
  8
6_ALL_SURFS
100
AcDbCircle
 62
7
  6
CONTINUOUS
 10
2314.4460706479
 20
941.2988167408
 40
3.5
  0
CIRCLE
  5
4D5
100
AcDbEntity
  8
6_ALL_SURFS
100
AcDbCircle
 62
7
  6
CONTINUOUS
 10
2564.4460706479
 20
941.2988167408
 40
3.5
  0
SPLINE
  5
4D6
100
AcDbEntity
  8
6_ALL_SURFS
100
AcDbSpline
 62
7
  6
CONTINUOUS
 70
0
 71
3
 72
9
 73
5
 74
0
 42
0.0000001
 43
0.0000001
 44
0.0000000001
 40
0.0
 40
0.0
 40
0.0
 40
0.0
 40
0.5034046277
 40
1.0
 40
1.0
 40
1.0
 40
1.0
 10
1069.2451087536
 20
941.2988167408
 30
0.0
 10
1069.1540889701
 20
941.3688838028
 30
0.0
 10
1068.9882456995
 20
941.5820350743
 30
0.0
 10
1069.1209080052
 20
941.8256774936
 30
0.0
 10
1069.207453508
 20
941.8988167408
 30
0.0
  0
SPLINE
  5
4D7
100
AcDbEntity
  8
6_ALL_SURFS
100
AcDbSpline
 62
7
  6
CONTINUOUS
 70
0
 71
3
 72
9
 73
5
 74
0
 42
0.0000001
 43
0.0000001
 44
0.0000000001
 40
0.0
 40
0.0
 40
0.0
 40
0.0
 40
0.4966040718
 40
1.0
 40
1.0
 40
1.0
 40
1.0
 10
1559.6846877879
 20
941.8988167408
 30
0.0
 10
1559.7712345781
 20
941.8256764056
 30
0.0
 10
1559.9038918042
 20
941.5820309365
 30
0.0
 10
1559.7380505123
 20
941.3688824068
 30
0.0
 10
1559.6470325423
 20
941.2988167408
 30
0.0
  0
SPLINE
  5
4D8
100
AcDbEntity
  8
6_ALL_SURFS
100
AcDbSpline
 62
7
  6
CONTINUOUS
 70
0
 71
3
 72
9
 73
5
 74
0
 42
0.0000001
 43
0.0000001
 44
0.0000000001
 40
0.0
 40
0.0
 40
0.0
 40
0.0
 40
0.5034046277
 40
1.0
 40
1.0
 40
1.0
 40
1.0
 10
1319.2451087536
 20
941.2988167408
 30
0.0
 10
1319.1540889701
 20
941.3688838028
 30
0.0
 10
1318.9882456995
 20
941.5820350743
 30
0.0
 10
1319.1209080052
 20
941.8256774936
 30
0.0
 10
1319.207453508
 20
941.8988167408
 30
0.0
  0
SPLINE
  5
4D9
100
AcDbEntity
  8
6_ALL_SURFS
100
AcDbSpline
 62
7
  6
CONTINUOUS
 70
0
 71
3
 72
9
 73
5
 74
0
 42
0.0000001
 43
0.0000001
 44
0.0000000001
 40
0.0
 40
0.0
 40
0.0
 40
0.0
 40
0.4966040718
 40
1.0
 40
1.0
 40
1.0
 40
1.0
 10
1809.6846877879
 20
941.8988167408
 30
0.0
 10
1809.7712345781
 20
941.8256764056
 30
0.0
 10
1809.9038918042
 20
941.5820309365
 30
0.0
 10
1809.7380505123
 20
941.3688824068
 30
0.0
 10
1809.6470325423
 20
941.2988167408
 30
0.0
  0
SPLINE
  5
4DA
100
AcDbEntity
  8
6_ALL_SURFS
100
AcDbSpline
 62
7
  6
CONTINUOUS
 70
0
 71
3
 72
9
 73
5
 74
0
 42
0.0000001
 43
0.0000001
 44
0.0000000001
 40
0.0
 40
0.0
 40
0.0
 40
0.0
 40
0.5034046277
 40
1.0
 40
1.0
 40
1.0
 40
1.0
 10
1569.2451087536
 20
941.2988167408
 30
0.0
 10
1569.1540889701
 20
941.3688838028
 30
0.0
 10
1568.9882456995
 20
941.5820350743
 30
0.0
 10
1569.1209080052
 20
941.8256774936
 30
0.0
 10
1569.207453508
 20
941.8988167408
 30
0.0
  0
SPLINE
  5
4DB
100
AcDbEntity
  8
6_ALL_SURFS
100
AcDbSpline
 62
7
  6
CONTINUOUS
 70
0
 71
3
 72
9
 73
5
 74
0
 42
0.0000001
 43
0.0000001
 44
0.0000000001
 40
0.0
 40
0.0
 40
0.0
 40
0.0
 40
0.4966040718
 40
1.0
 40
1.0
 40
1.0
 40
1.0
 10
2059.6846877879
 20
941.8988167408
 30
0.0
 10
2059.7712345781
 20
941.8256764056
 30
0.0
 10
2059.9038918042
 20
941.5820309365
 30
0.0
 10
2059.7380505123
 20
941.3688824068
 30
0.0
 10
2059.6470325423
 20
941.2988167408
 30
0.0
  0
SPLINE
  5
4DC
100
AcDbEntity
  8
6_ALL_SURFS
100
AcDbSpline
 62
7
  6
CONTINUOUS
 70
0
 71
3
 72
9
 73
5
 74
0
 42
0.0000001
 43
0.0000001
 44
0.0000000001
 40
0.0
 40
0.0
 40
0.0
 40
0.0
 40
0.5034046277
 40
1.0
 40
1.0
 40
1.0
 40
1.0
 10
1819.2451087536
 20
941.2988167408
 30
0.0
 10
1819.1540889701
 20
941.3688838028
 30
0.0
 10
1818.9882456995
 20
941.5820350743
 30
0.0
 10
1819.1209080052
 20
941.8256774936
 30
0.0
 10
1819.207453508
 20
941.8988167408
 30
0.0
  0
SPLINE
  5
4DD
100
AcDbEntity
  8
6_ALL_SURFS
100
AcDbSpline
 62
7
  6
CONTINUOUS
 70
0
 71
3
 72
9
 73
5
 74
0
 42
0.0000001
 43
0.0000001
 44
0.0000000001
 40
0.0
 40
0.0
 40
0.0
 40
0.0
 40
0.4966040718
 40
1.0
 40
1.0
 40
1.0
 40
1.0
 10
2309.6846877879
 20
941.8988167408
 30
0.0
 10
2309.7712345781
 20
941.8256764056
 30
0.0
 10
2309.9038918042
 20
941.5820309365
 30
0.0
 10
2309.7380505123
 20
941.3688824068
 30
0.0
 10
2309.6470325423
 20
941.2988167408
 30
0.0
  0
SPLINE
  5
4DE
100
AcDbEntity
  8
6_ALL_SURFS
100
AcDbSpline
 62
7
  6
CONTINUOUS
 70
0
 71
3
 72
9
 73
5
 74
0
 42
0.0000001
 43
0.0000001
 44
0.0000000001
 40
0.0
 40
0.0
 40
0.0
 40
0.0
 40
0.5034046277
 40
1.0
 40
1.0
 40
1.0
 40
1.0
 10
2069.2451087536
 20
941.2988167408
 30
0.0
 10
2069.1540889701
 20
941.3688838028
 30
0.0
 10
2068.9882456995
 20
941.5820350743
 30
0.0
 10
2069.1209080052
 20
941.8256774936
 30
0.0
 10
2069.207453508
 20
941.8988167408
 30
0.0
  0
SPLINE
  5
4DF
100
AcDbEntity
  8
6_ALL_SURFS
100
AcDbSpline
 62
7
  6
CONTINUOUS
 70
0
 71
3
 72
9
 73
5
 74
0
 42
0.0000001
 43
0.0000001
 44
0.0000000001
 40
0.0
 40
0.0
 40
0.0
 40
0.0
 40
0.4966040718
 40
1.0
 40
1.0
 40
1.0
 40
1.0
 10
2559.6846877879
 20
941.8988167408
 30
0.0
 10
2559.7712345781
 20
941.8256764056
 30
0.0
 10
2559.9038918042
 20
941.5820309365
 30
0.0
 10
2559.7380505123
 20
941.3688824068
 30
0.0
 10
2559.6470325423
 20
941.2988167408
 30
0.0
  0
SPLINE
  5
4E0
100
AcDbEntity
  8
6_ALL_SURFS
100
AcDbSpline
 62
7
  6
CONTINUOUS
 70
0
 71
3
 72
9
 73
5
 74
0
 42
0.0000001
 43
0.0000001
 44
0.0000000001
 40
0.0
 40
0.0
 40
0.0
 40
0.0
 40
0.5034046277
 40
1.0
 40
1.0
 40
1.0
 40
1.0
 10
2319.2451087536
 20
941.2988167408
 30
0.0
 10
2319.1540889701
 20
941.3688838028
 30
0.0
 10
2318.9882456995
 20
941.5820350743
 30
0.0
 10
2319.1209080052
 20
941.8256774936
 30
0.0
 10
2319.207453508
 20
941.8988167408
 30
0.0
  0
SPLINE
  5
4E1
100
AcDbEntity
  8
6_ALL_SURFS
100
AcDbSpline
 62
7
  6
CONTINUOUS
 70
0
 71
3
 72
9
 73
5
 74
0
 42
0.0000001
 43
0.0000001
 44
0.0000000001
 40
0.0
 40
0.0
 40
0.0
 40
0.0
 40
0.5034046277
 40
1.0
 40
1.0
 40
1.0
 40
1.0
 10
2569.2451087536
 20
941.2988167408
 30
0.0
 10
2569.1540889701
 20
941.3688838028
 30
0.0
 10
2568.9882456995
 20
941.5820350743
 30
0.0
 10
2569.1209080052
 20
941.8256774936
 30
0.0
 10
2569.207453508
 20
941.8988167408
 30
0.0
  0
SPLINE
  5
4E2
100
AcDbEntity
  8
6_ALL_SURFS
100
AcDbSpline
 62
7
  6
CONTINUOUS
 70
0
 71
3
 72
11
 73
7
 74
0
 42
0.0000001
 43
0.0000001
 44
0.0000000001
 40
0.0
 40
0.0
 40
0.0
 40
0.0
 40
0.2524140479
 40
0.5105945777
 40
0.7692678058
 40
1.0
 40
1.0
 40
1.0
 40
1.0
 10
1060.2902594468
 20
938.8988167408
 30
0.0
 10
1060.3525012172
 20
938.8688583147
 30
0.0
 10
1060.4758615342
 20
938.8007940114
 30
0.0
 10
1060.6393553045
 20
938.6711015391
 30
0.0
 10
1060.7759129517
 20
938.5008581309
 30
0.0
 10
1060.7415693732
 20
938.3466100489
 30
0.0
 10
1060.700304139
 20
938.2988167408
 30
0.0
  0
SPLINE
  5
4E3
100
AcDbEntity
  8
6_ALL_SURFS
100
AcDbSpline
 62
7
  6
CONTINUOUS
 70
0
 71
3
 72
11
 73
7
 74
0
 42
0.0000001
 43
0.0000001
 44
0.0000000001
 40
0.0
 40
0.0
 40
0.0
 40
0.0
 40
0.2524140479
 40
0.5105945777
 40
0.7692678058
 40
1.0
 40
1.0
 40
1.0
 40
1.0
 10
1310.2902594468
 20
938.8988167408
 30
0.0
 10
1310.3525012172
 20
938.8688583147
 30
0.0
 10
1310.4758615342
 20
938.8007940114
 30
0.0
 10
1310.6393553045
 20
938.6711015391
 30
0.0
 10
1310.7759129517
 20
938.5008581309
 30
0.0
 10
1310.7415693732
 20
938.3466100489
 30
0.0
 10
1310.700304139
 20
938.2988167408
 30
0.0
  0
SPLINE
  5
4E4
100
AcDbEntity
  8
7_ALL_FEATURES
100
AcDbSpline
 62
7
  6
CONTINUOUS
 70
0
 71
3
 72
11
 73
7
 74
0
 42
0.0000001
 43
0.0000001
 44
0.0000000001
 40
0.0
 40
0.0
 40
0.0
 40
0.0
 40
0.2307319782
 40
0.489405624
 40
0.7475860364
 40
1.0
 40
1.0
 40
1.0
 40
1.0
 10
2568.1918371569
 20
874.1988167408
 30
0.0
 10
2568.1505719589
 20
874.1510234748
 30
0.0
 10
2568.1162282298
 20
873.9967753914
 30
0.0
 10
2568.2527859769
 20
873.8265319027
 30
0.0
 10
2568.4162798202
 20
873.6968394439
 30
0.0
 10
2568.539640096
 20
873.6287751586
 30
0.0
 10
2568.6018818491
 20
873.5988167408
 30
0.0
  0
SPLINE
  5
4E5
100
AcDbEntity
  8
7_ALL_FEATURES
100
AcDbSpline
 62
7
  6
CONTINUOUS
 70
0
 71
3
 72
11
 73
7
 74
0
 42
0.0000001
 43
0.0000001
 44
0.0000000001
 40
0.0
 40
0.0
 40
0.0
 40
0.0
 40
0.2307319782
 40
0.489405624
 40
0.7475860364
 40
1.0
 40
1.0
 40
1.0
 40
1.0
 10
2318.1918371569
 20
874.1988167408
 30
0.0
 10
2318.1505719589
 20
874.1510234748
 30
0.0
 10
2318.1162282298
 20
873.9967753914
 30
0.0
 10
2318.2527859769
 20
873.8265319027
 30
0.0
 10
2318.4162798202
 20
873.6968394439
 30
0.0
 10
2318.539640096
 20
873.6287751586
 30
0.0
 10
2318.6018818491
 20
873.5988167408
 30
0.0
  0
SPLINE
  5
4E6
100
AcDbEntity
  8
7_ALL_FEATURES
100
AcDbSpline
 62
7
  6
CONTINUOUS
 70
0
 71
3
 72
11
 73
7
 74
0
 42
0.0000001
 43
0.0000001
 44
0.0000000001
 40
0.0
 40
0.0
 40
0.0
 40
0.0
 40
0.2524140479
 40
0.5105945777
 40
0.7692678058
 40
1.0
 40
1.0
 40
1.0
 40
1.0
 10
2560.2902594468
 20
873.5988167408
 30
0.0
 10
2560.3525012172
 20
873.6287751669
 30
0.0
 10
2560.4758615342
 20
873.6968394703
 30
0.0
 10
2560.6393553045
 20
873.8265319425
 30
0.0
 10
2560.7759129517
 20
873.9967753508
 30
0.0
 10
2560.7415693732
 20
874.1510234328
 30
0.0
 10
2560.700304139
 20
874.1988167408
 30
0.0
  0
SPLINE
  5
4E7
100
AcDbEntity
  8
7_ALL_FEATURES
100
AcDbSpline
 62
7
  6
CONTINUOUS
 70
0
 71
3
 72
11
 73
7
 74
0
 42
0.0000001
 43
0.0000001
 44
0.0000000001
 40
0.0
 40
0.0
 40
0.0
 40
0.0
 40
0.2307319782
 40
0.489405624
 40
0.7475860364
 40
1.0
 40
1.0
 40
1.0
 40
1.0
 10
2068.1918371569
 20
874.1988167408
 30
0.0
 10
2068.1505719589
 20
874.1510234748
 30
0.0
 10
2068.1162282298
 20
873.9967753914
 30
0.0
 10
2068.2527859769
 20
873.8265319027
 30
0.0
 10
2068.4162798202
 20
873.6968394439
 30
0.0
 10
2068.539640096
 20
873.6287751586
 30
0.0
 10
2068.6018818491
 20
873.5988167408
 30
0.0
  0
SPLINE
  5
4E8
100
AcDbEntity
  8
7_ALL_FEATURES
100
AcDbSpline
 62
7
  6
CONTINUOUS
 70
0
 71
3
 72
11
 73
7
 74
0
 42
0.0000001
 43
0.0000001
 44
0.0000000001
 40
0.0
 40
0.0
 40
0.0
 40
0.0
 40
0.2524140479
 40
0.5105945777
 40
0.7692678058
 40
1.0
 40
1.0
 40
1.0
 40
1.0
 10
2310.2902594468
 20
873.5988167408
 30
0.0
 10
2310.3525012172
 20
873.6287751669
 30
0.0
 10
2310.4758615342
 20
873.6968394703
 30
0.0
 10
2310.6393553045
 20
873.8265319425
 30
0.0
 10
2310.7759129517
 20
873.9967753508
 30
0.0
 10
2310.7415693732
 20
874.1510234328
 30
0.0
 10
2310.700304139
 20
874.1988167408
 30
0.0
  0
SPLINE
  5
4E9
100
AcDbEntity
  8
7_ALL_FEATURES
100
AcDbSpline
 62
7
  6
CONTINUOUS
 70
0
 71
3
 72
11
 73
7
 74
0
 42
0.0000001
 43
0.0000001
 44
0.0000000001
 40
0.0
 40
0.0
 40
0.0
 40
0.0
 40
0.2307319782
 40
0.489405624
 40
0.7475860364
 40
1.0
 40
1.0
 40
1.0
 40
1.0
 10
1818.1918371569
 20
874.1988167408
 30
0.0
 10
1818.1505719589
 20
874.1510234748
 30
0.0
 10
1818.1162282298
 20
873.9967753914
 30
0.0
 10
1818.2527859769
 20
873.8265319027
 30
0.0
 10
1818.4162798202
 20
873.6968394439
 30
0.0
 10
1818.539640096
 20
873.6287751586
 30
0.0
 10
1818.6018818491
 20
873.5988167408
 30
0.0
  0
SPLINE
  5
4EA
100
AcDbEntity
  8
7_ALL_FEATURES
100
AcDbSpline
 62
7
  6
CONTINUOUS
 70
0
 71
3
 72
11
 73
7
 74
0
 42
0.0000001
 43
0.0000001
 44
0.0000000001
 40
0.0
 40
0.0
 40
0.0
 40
0.0
 40
0.2524140479
 40
0.5105945777
 40
0.7692678058
 40
1.0
 40
1.0
 40
1.0
 40
1.0
 10
2060.2902594468
 20
873.5988167408
 30
0.0
 10
2060.3525012172
 20
873.6287751669
 30
0.0
 10
2060.4758615342
 20
873.6968394703
 30
0.0
 10
2060.6393553045
 20
873.8265319425
 30
0.0
 10
2060.7759129517
 20
873.9967753508
 30
0.0
 10
2060.7415693732
 20
874.1510234328
 30
0.0
 10
2060.700304139
 20
874.1988167408
 30
0.0
  0
SPLINE
  5
4EB
100
AcDbEntity
  8
7_ALL_FEATURES
100
AcDbSpline
 62
7
  6
CONTINUOUS
 70
0
 71
3
 72
11
 73
7
 74
0
 42
0.0000001
 43
0.0000001
 44
0.0000000001
 40
0.0
 40
0.0
 40
0.0
 40
0.0
 40
0.2307319782
 40
0.489405624
 40
0.7475860364
 40
1.0
 40
1.0
 40
1.0
 40
1.0
 10
1568.1918371569
 20
874.1988167408
 30
0.0
 10
1568.1505719589
 20
874.1510234748
 30
0.0
 10
1568.1162282298
 20
873.9967753914
 30
0.0
 10
1568.2527859769
 20
873.8265319027
 30
0.0
 10
1568.4162798202
 20
873.6968394439
 30
0.0
 10
1568.539640096
 20
873.6287751586
 30
0.0
 10
1568.6018818491
 20
873.5988167408
 30
0.0
  0
SPLINE
  5
4EC
100
AcDbEntity
  8
7_ALL_FEATURES
100
AcDbSpline
 62
7
  6
CONTINUOUS
 70
0
 71
3
 72
11
 73
7
 74
0
 42
0.0000001
 43
0.0000001
 44
0.0000000001
 40
0.0
 40
0.0
 40
0.0
 40
0.0
 40
0.2524140479
 40
0.5105945777
 40
0.7692678058
 40
1.0
 40
1.0
 40
1.0
 40
1.0
 10
1810.2902594468
 20
873.5988167408
 30
0.0
 10
1810.3525012172
 20
873.6287751669
 30
0.0
 10
1810.4758615342
 20
873.6968394703
 30
0.0
 10
1810.6393553045
 20
873.8265319425
 30
0.0
 10
1810.7759129517
 20
873.9967753508
 30
0.0
 10
1810.7415693732
 20
874.1510234328
 30
0.0
 10
1810.700304139
 20
874.1988167408
 30
0.0
  0
SPLINE
  5
4ED
100
AcDbEntity
  8
7_ALL_FEATURES
100
AcDbSpline
 62
7
  6
CONTINUOUS
 70
0
 71
3
 72
11
 73
7
 74
0
 42
0.0000001
 43
0.0000001
 44
0.0000000001
 40
0.0
 40
0.0
 40
0.0
 40
0.0
 40
0.2307319782
 40
0.489405624
 40
0.7475860364
 40
1.0
 40
1.0
 40
1.0
 40
1.0
 10
1318.1918371569
 20
874.1988167408
 30
0.0
 10
1318.1505719589
 20
874.1510234748
 30
0.0
 10
1318.1162282298
 20
873.9967753914
 30
0.0
 10
1318.2527859769
 20
873.8265319027
 30
0.0
 10
1318.4162798202
 20
873.6968394439
 30
0.0
 10
1318.539640096
 20
873.6287751586
 30
0.0
 10
1318.6018818491
 20
873.5988167408
 30
0.0
  0
SPLINE
  5
4EE
100
AcDbEntity
  8
7_ALL_FEATURES
100
AcDbSpline
 62
7
  6
CONTINUOUS
 70
0
 71
3
 72
11
 73
7
 74
0
 42
0.0000001
 43
0.0000001
 44
0.0000000001
 40
0.0
 40
0.0
 40
0.0
 40
0.0
 40
0.2524140479
 40
0.5105945777
 40
0.7692678058
 40
1.0
 40
1.0
 40
1.0
 40
1.0
 10
1560.2902594468
 20
873.5988167408
 30
0.0
 10
1560.3525012172
 20
873.6287751669
 30
0.0
 10
1560.4758615342
 20
873.6968394703
 30
0.0
 10
1560.6393553045
 20
873.8265319425
 30
0.0
 10
1560.7759129517
 20
873.9967753508
 30
0.0
 10
1560.7415693732
 20
874.1510234328
 30
0.0
 10
1560.700304139
 20
874.1988167408
 30
0.0
  0
SPLINE
  5
4EF
100
AcDbEntity
  8
7_ALL_FEATURES
100
AcDbSpline
 62
7
  6
CONTINUOUS
 70
0
 71
3
 72
11
 73
7
 74
0
 42
0.0000001
 43
0.0000001
 44
0.0000000001
 40
0.0
 40
0.0
 40
0.0
 40
0.0
 40
0.2307319782
 40
0.489405624
 40
0.7475860364
 40
1.0
 40
1.0
 40
1.0
 40
1.0
 10
1068.1918371569
 20
874.1988167408
 30
0.0
 10
1068.1505719589
 20
874.1510234748
 30
0.0
 10
1068.1162282298
 20
873.9967753914
 30
0.0
 10
1068.2527859769
 20
873.8265319027
 30
0.0
 10
1068.4162798202
 20
873.6968394439
 30
0.0
 10
1068.539640096
 20
873.6287751586
 30
0.0
 10
1068.6018818491
 20
873.5988167408
 30
0.0
  0
SPLINE
  5
4F0
100
AcDbEntity
  8
7_ALL_FEATURES
100
AcDbSpline
 62
7
  6
CONTINUOUS
 70
0
 71
3
 72
11
 73
7
 74
0
 42
0.0000001
 43
0.0000001
 44
0.0000000001
 40
0.0
 40
0.0
 40
0.0
 40
0.0
 40
0.2524140479
 40
0.5105945777
 40
0.7692678058
 40
1.0
 40
1.0
 40
1.0
 40
1.0
 10
1310.2902594468
 20
873.5988167408
 30
0.0
 10
1310.3525012172
 20
873.6287751669
 30
0.0
 10
1310.4758615342
 20
873.6968394703
 30
0.0
 10
1310.6393553045
 20
873.8265319425
 30
0.0
 10
1310.7759129517
 20
873.9967753508
 30
0.0
 10
1310.7415693732
 20
874.1510234328
 30
0.0
 10
1310.700304139
 20
874.1988167408
 30
0.0
  0
SPLINE
  5
4F1
100
AcDbEntity
  8
7_ALL_FEATURES
100
AcDbSpline
 62
7
  6
CONTINUOUS
 70
0
 71
3
 72
11
 73
7
 74
0
 42
0.0000001
 43
0.0000001
 44
0.0000000001
 40
0.0
 40
0.0
 40
0.0
 40
0.0
 40
0.2524140479
 40
0.5105945777
 40
0.7692678058
 40
1.0
 40
1.0
 40
1.0
 40
1.0
 10
1060.2902594468
 20
873.5988167408
 30
0.0
 10
1060.3525012172
 20
873.6287751669
 30
0.0
 10
1060.4758615342
 20
873.6968394703
 30
0.0
 10
1060.6393553045
 20
873.8265319425
 30
0.0
 10
1060.7759129517
 20
873.9967753508
 30
0.0
 10
1060.7415693732
 20
874.1510234328
 30
0.0
 10
1060.700304139
 20
874.1988167408
 30
0.0
  0
SPLINE
  5
4F2
100
AcDbEntity
  8
7_ALL_FEATURES
100
AcDbSpline
 62
7
  6
CONTINUOUS
 70
0
 71
3
 72
9
 73
5
 74
0
 42
0.0000001
 43
0.0000001
 44
0.0000000001
 40
0.0
 40
0.0
 40
0.0
 40
0.0
 40
0.5034046277
 40
1.0
 40
1.0
 40
1.0
 40
1.0
 10
2569.2451087536
 20
871.1988167408
 30
0.0
 10
2569.1540889701
 20
871.1287496788
 30
0.0
 10
2568.9882456995
 20
870.9155984073
 30
0.0
 10
2569.1209080052
 20
870.6719559881
 30
0.0
 10
2569.207453508
 20
870.5988167408
 30
0.0
  0
SPLINE
  5
4F3
100
AcDbEntity
  8
7_ALL_FEATURES
100
AcDbSpline
 62
7
  6
CONTINUOUS
 70
0
 71
3
 72
9
 73
5
 74
0
 42
0.0000001
 43
0.0000001
 44
0.0000000001
 40
0.0
 40
0.0
 40
0.0
 40
0.0
 40
0.5034046277
 40
1.0
 40
1.0
 40
1.0
 40
1.0
 10
2319.2451087536
 20
871.1988167408
 30
0.0
 10
2319.1540889701
 20
871.1287496788
 30
0.0
 10
2318.9882456995
 20
870.9155984073
 30
0.0
 10
2319.1209080052
 20
870.6719559881
 30
0.0
 10
2319.207453508
 20
870.5988167408
 30
0.0
  0
SPLINE
  5
4F4
100
AcDbEntity
  8
7_ALL_FEATURES
100
AcDbSpline
 62
7
  6
CONTINUOUS
 70
0
 71
3
 72
9
 73
5
 74
0
 42
0.0000001
 43
0.0000001
 44
0.0000000001
 40
0.0
 40
0.0
 40
0.0
 40
0.0
 40
0.4966040718
 40
1.0
 40
1.0
 40
1.0
 40
1.0
 10
2559.6846877879
 20
870.5988167408
 30
0.0
 10
2559.7712345781
 20
870.6719570761
 30
0.0
 10
2559.9038918042
 20
870.9156025451
 30
0.0
 10
2559.7380505123
 20
871.1287510748
 30
0.0
 10
2559.6470325423
 20
871.1988167408
 30
0.0
  0
SPLINE
  5
4F5
100
AcDbEntity
  8
7_ALL_FEATURES
100
AcDbSpline
 62
7
  6
CONTINUOUS
 70
0
 71
3
 72
9
 73
5
 74
0
 42
0.0000001
 43
0.0000001
 44
0.0000000001
 40
0.0
 40
0.0
 40
0.0
 40
0.0
 40
0.5034046277
 40
1.0
 40
1.0
 40
1.0
 40
1.0
 10
2069.2451087536
 20
871.1988167408
 30
0.0
 10
2069.1540889701
 20
871.1287496788
 30
0.0
 10
2068.9882456995
 20
870.9155984073
 30
0.0
 10
2069.1209080052
 20
870.6719559881
 30
0.0
 10
2069.207453508
 20
870.5988167408
 30
0.0
  0
SPLINE
  5
4F6
100
AcDbEntity
  8
7_ALL_FEATURES
100
AcDbSpline
 62
7
  6
CONTINUOUS
 70
0
 71
3
 72
9
 73
5
 74
0
 42
0.0000001
 43
0.0000001
 44
0.0000000001
 40
0.0
 40
0.0
 40
0.0
 40
0.0
 40
0.4966040718
 40
1.0
 40
1.0
 40
1.0
 40
1.0
 10
2309.6846877879
 20
870.5988167408
 30
0.0
 10
2309.7712345781
 20
870.6719570761
 30
0.0
 10
2309.9038918042
 20
870.9156025451
 30
0.0
 10
2309.7380505123
 20
871.1287510748
 30
0.0
 10
2309.6470325423
 20
871.1988167408
 30
0.0
  0
SPLINE
  5
4F7
100
AcDbEntity
  8
7_ALL_FEATURES
100
AcDbSpline
 62
7
  6
CONTINUOUS
 70
0
 71
3
 72
9
 73
5
 74
0
 42
0.0000001
 43
0.0000001
 44
0.0000000001
 40
0.0
 40
0.0
 40
0.0
 40
0.0
 40
0.5034046277
 40
1.0
 40
1.0
 40
1.0
 40
1.0
 10
1819.2451087536
 20
871.1988167408
 30
0.0
 10
1819.1540889701
 20
871.1287496788
 30
0.0
 10
1818.9882456995
 20
870.9155984073
 30
0.0
 10
1819.1209080052
 20
870.6719559881
 30
0.0
 10
1819.207453508
 20
870.5988167408
 30
0.0
  0
SPLINE
  5
4F8
100
AcDbEntity
  8
7_ALL_FEATURES
100
AcDbSpline
 62
7
  6
CONTINUOUS
 70
0
 71
3
 72
9
 73
5
 74
0
 42
0.0000001
 43
0.0000001
 44
0.0000000001
 40
0.0
 40
0.0
 40
0.0
 40
0.0
 40
0.4966040718
 40
1.0
 40
1.0
 40
1.0
 40
1.0
 10
2059.6846877879
 20
870.5988167408
 30
0.0
 10
2059.7712345781
 20
870.6719570761
 30
0.0
 10
2059.9038918042
 20
870.9156025451
 30
0.0
 10
2059.7380505123
 20
871.1287510748
 30
0.0
 10
2059.6470325423
 20
871.1988167408
 30
0.0
  0
SPLINE
  5
4F9
100
AcDbEntity
  8
7_ALL_FEATURES
100
AcDbSpline
 62
7
  6
CONTINUOUS
 70
0
 71
3
 72
9
 73
5
 74
0
 42
0.0000001
 43
0.0000001
 44
0.0000000001
 40
0.0
 40
0.0
 40
0.0
 40
0.0
 40
0.5034046277
 40
1.0
 40
1.0
 40
1.0
 40
1.0
 10
1569.2451087536
 20
871.1988167408
 30
0.0
 10
1569.1540889701
 20
871.1287496788
 30
0.0
 10
1568.9882456995
 20
870.9155984073
 30
0.0
 10
1569.1209080052
 20
870.6719559881
 30
0.0
 10
1569.207453508
 20
870.5988167408
 30
0.0
  0
SPLINE
  5
4FA
100
AcDbEntity
  8
7_ALL_FEATURES
100
AcDbSpline
 62
7
  6
CONTINUOUS
 70
0
 71
3
 72
9
 73
5
 74
0
 42
0.0000001
 43
0.0000001
 44
0.0000000001
 40
0.0
 40
0.0
 40
0.0
 40
0.0
 40
0.4966040718
 40
1.0
 40
1.0
 40
1.0
 40
1.0
 10
1809.6846877879
 20
870.5988167408
 30
0.0
 10
1809.7712345781
 20
870.6719570761
 30
0.0
 10
1809.9038918042
 20
870.9156025451
 30
0.0
 10
1809.7380505123
 20
871.1287510748
 30
0.0
 10
1809.6470325423
 20
871.1988167408
 30
0.0
  0
SPLINE
  5
4FB
100
AcDbEntity
  8
7_ALL_FEATURES
100
AcDbSpline
 62
7
  6
CONTINUOUS
 70
0
 71
3
 72
9
 73
5
 74
0
 42
0.0000001
 43
0.0000001
 44
0.0000000001
 40
0.0
 40
0.0
 40
0.0
 40
0.0
 40
0.5034046277
 40
1.0
 40
1.0
 40
1.0
 40
1.0
 10
1319.2451087536
 20
871.1988167408
 30
0.0
 10
1319.1540889701
 20
871.1287496788
 30
0.0
 10
1318.9882456995
 20
870.9155984073
 30
0.0
 10
1319.1209080052
 20
870.6719559881
 30
0.0
 10
1319.207453508
 20
870.5988167408
 30
0.0
  0
SPLINE
  5
4FC
100
AcDbEntity
  8
7_ALL_FEATURES
100
AcDbSpline
 62
7
  6
CONTINUOUS
 70
0
 71
3
 72
9
 73
5
 74
0
 42
0.0000001
 43
0.0000001
 44
0.0000000001
 40
0.0
 40
0.0
 40
0.0
 40
0.0
 40
0.4966040718
 40
1.0
 40
1.0
 40
1.0
 40
1.0
 10
1559.6846877879
 20
870.5988167408
 30
0.0
 10
1559.7712345781
 20
870.6719570761
 30
0.0
 10
1559.9038918042
 20
870.9156025451
 30
0.0
 10
1559.7380505123
 20
871.1287510748
 30
0.0
 10
1559.6470325423
 20
871.1988167408
 30
0.0
  0
SPLINE
  5
4FD
100
AcDbEntity
  8
7_ALL_FEATURES
100
AcDbSpline
 62
7
  6
CONTINUOUS
 70
0
 71
3
 72
9
 73
5
 74
0
 42
0.0000001
 43
0.0000001
 44
0.0000000001
 40
0.0
 40
0.0
 40
0.0
 40
0.0
 40
0.5034046277
 40
1.0
 40
1.0
 40
1.0
 40
1.0
 10
1069.2451087536
 20
871.1988167408
 30
0.0
 10
1069.1540889701
 20
871.1287496788
 30
0.0
 10
1068.9882456995
 20
870.9155984073
 30
0.0
 10
1069.1209080052
 20
870.6719559881
 30
0.0
 10
1069.207453508
 20
870.5988167408
 30
0.0
  0
SPLINE
  5
4FE
100
AcDbEntity
  8
7_ALL_FEATURES
100
AcDbSpline
 62
7
  6
CONTINUOUS
 70
0
 71
3
 72
9
 73
5
 74
0
 42
0.0000001
 43
0.0000001
 44
0.0000000001
 40
0.0
 40
0.0
 40
0.0
 40
0.0
 40
0.4966040718
 40
1.0
 40
1.0
 40
1.0
 40
1.0
 10
1309.6846877879
 20
870.5988167408
 30
0.0
 10
1309.7712345781
 20
870.6719570761
 30
0.0
 10
1309.9038918042
 20
870.9156025451
 30
0.0
 10
1309.7380505123
 20
871.1287510748
 30
0.0
 10
1309.6470325423
 20
871.1988167408
 30
0.0
  0
SPLINE
  5
4FF
100
AcDbEntity
  8
7_ALL_FEATURES
100
AcDbSpline
 62
7
  6
CONTINUOUS
 70
0
 71
3
 72
9
 73
5
 74
0
 42
0.0000001
 43
0.0000001
 44
0.0000000001
 40
0.0
 40
0.0
 40
0.0
 40
0.0
 40
0.4966040718
 40
1.0
 40
1.0
 40
1.0
 40
1.0
 10
1059.6846877879
 20
870.5988167408
 30
0.0
 10
1059.7712345781
 20
870.6719570761
 30
0.0
 10
1059.9038918042
 20
870.9156025451
 30
0.0
 10
1059.7380505123
 20
871.1287510748
 30
0.0
 10
1059.6470325423
 20
871.1988167408
 30
0.0
  0
SPLINE
  5
500
100
AcDbEntity
  8
6_ALL_SURFS
100
AcDbSpline
 62
7
  6
CONTINUOUS
 70
0
 71
3
 72
11
 73
7
 74
0
 42
0.0000001
 43
0.0000001
 44
0.0000000001
 40
0.0
 40
0.0
 40
0.0
 40
0.0
 40
0.2307319782
 40
0.489405624
 40
0.7475860364
 40
1.0
 40
1.0
 40
1.0
 40
1.0
 10
1068.1918371569
 20
938.2988167408
 30
0.0
 10
1068.1505719589
 20
938.3466100069
 30
0.0
 10
1068.1162282298
 20
938.5008580902
 30
0.0
 10
1068.2527859769
 20
938.6711015789
 30
0.0
 10
1068.4162798202
 20
938.8007940377
 30
0.0
 10
1068.539640096
 20
938.868858323
 30
0.0
 10
1068.6018818491
 20
938.8988167408
 30
0.0
  0
SPLINE
  5
501
100
AcDbEntity
  8
6_ALL_SURFS
100
AcDbSpline
 62
7
  6
CONTINUOUS
 70
0
 71
3
 72
11
 73
7
 74
0
 42
0.0000001
 43
0.0000001
 44
0.0000000001
 40
0.0
 40
0.0
 40
0.0
 40
0.0
 40
0.2524140479
 40
0.5105945777
 40
0.7692678058
 40
1.0
 40
1.0
 40
1.0
 40
1.0
 10
1560.2902594468
 20
938.8988167408
 30
0.0
 10
1560.3525012172
 20
938.8688583147
 30
0.0
 10
1560.4758615342
 20
938.8007940114
 30
0.0
 10
1560.6393553045
 20
938.6711015391
 30
0.0
 10
1560.7759129517
 20
938.5008581309
 30
0.0
 10
1560.7415693732
 20
938.3466100489
 30
0.0
 10
1560.700304139
 20
938.2988167408
 30
0.0
  0
SPLINE
  5
502
100
AcDbEntity
  8
6_ALL_SURFS
100
AcDbSpline
 62
7
  6
CONTINUOUS
 70
0
 71
3
 72
11
 73
7
 74
0
 42
0.0000001
 43
0.0000001
 44
0.0000000001
 40
0.0
 40
0.0
 40
0.0
 40
0.0
 40
0.2307319782
 40
0.489405624
 40
0.7475860364
 40
1.0
 40
1.0
 40
1.0
 40
1.0
 10
1318.1918371569
 20
938.2988167408
 30
0.0
 10
1318.1505719589
 20
938.3466100069
 30
0.0
 10
1318.1162282298
 20
938.5008580902
 30
0.0
 10
1318.2527859769
 20
938.6711015789
 30
0.0
 10
1318.4162798202
 20
938.8007940377
 30
0.0
 10
1318.539640096
 20
938.868858323
 30
0.0
 10
1318.6018818491
 20
938.8988167408
 30
0.0
  0
SPLINE
  5
503
100
AcDbEntity
  8
6_ALL_SURFS
100
AcDbSpline
 62
7
  6
CONTINUOUS
 70
0
 71
3
 72
11
 73
7
 74
0
 42
0.0000001
 43
0.0000001
 44
0.0000000001
 40
0.0
 40
0.0
 40
0.0
 40
0.0
 40
0.2524140479
 40
0.5105945777
 40
0.7692678058
 40
1.0
 40
1.0
 40
1.0
 40
1.0
 10
1810.2902594468
 20
938.8988167408
 30
0.0
 10
1810.3525012172
 20
938.8688583147
 30
0.0
 10
1810.4758615342
 20
938.8007940114
 30
0.0
 10
1810.6393553045
 20
938.6711015391
 30
0.0
 10
1810.7759129517
 20
938.5008581309
 30
0.0
 10
1810.7415693732
 20
938.3466100489
 30
0.0
 10
1810.700304139
 20
938.2988167408
 30
0.0
  0
SPLINE
  5
504
100
AcDbEntity
  8
6_ALL_SURFS
100
AcDbSpline
 62
7
  6
CONTINUOUS
 70
0
 71
3
 72
11
 73
7
 74
0
 42
0.0000001
 43
0.0000001
 44
0.0000000001
 40
0.0
 40
0.0
 40
0.0
 40
0.0
 40
0.2307319782
 40
0.489405624
 40
0.7475860364
 40
1.0
 40
1.0
 40
1.0
 40
1.0
 10
1568.1918371569
 20
938.2988167408
 30
0.0
 10
1568.1505719589
 20
938.3466100069
 30
0.0
 10
1568.1162282298
 20
938.5008580902
 30
0.0
 10
1568.2527859769
 20
938.6711015789
 30
0.0
 10
1568.4162798202
 20
938.8007940377
 30
0.0
 10
1568.539640096
 20
938.868858323
 30
0.0
 10
1568.6018818491
 20
938.8988167408
 30
0.0
  0
SPLINE
  5
505
100
AcDbEntity
  8
6_ALL_SURFS
100
AcDbSpline
 62
7
  6
CONTINUOUS
 70
0
 71
3
 72
11
 73
7
 74
0
 42
0.0000001
 43
0.0000001
 44
0.0000000001
 40
0.0
 40
0.0
 40
0.0
 40
0.0
 40
0.2524140479
 40
0.5105945777
 40
0.7692678058
 40
1.0
 40
1.0
 40
1.0
 40
1.0
 10
2060.2902594468
 20
938.8988167408
 30
0.0
 10
2060.3525012172
 20
938.8688583147
 30
0.0
 10
2060.4758615342
 20
938.8007940114
 30
0.0
 10
2060.6393553045
 20
938.6711015391
 30
0.0
 10
2060.7759129517
 20
938.5008581309
 30
0.0
 10
2060.7415693732
 20
938.3466100489
 30
0.0
 10
2060.700304139
 20
938.2988167408
 30
0.0
  0
SPLINE
  5
506
100
AcDbEntity
  8
6_ALL_SURFS
100
AcDbSpline
 62
7
  6
CONTINUOUS
 70
0
 71
3
 72
11
 73
7
 74
0
 42
0.0000001
 43
0.0000001
 44
0.0000000001
 40
0.0
 40
0.0
 40
0.0
 40
0.0
 40
0.2307319782
 40
0.489405624
 40
0.7475860364
 40
1.0
 40
1.0
 40
1.0
 40
1.0
 10
1818.1918371569
 20
938.2988167408
 30
0.0
 10
1818.1505719589
 20
938.3466100069
 30
0.0
 10
1818.1162282298
 20
938.5008580902
 30
0.0
 10
1818.2527859769
 20
938.6711015789
 30
0.0
 10
1818.4162798202
 20
938.8007940377
 30
0.0
 10
1818.539640096
 20
938.868858323
 30
0.0
 10
1818.6018818491
 20
938.8988167408
 30
0.0
  0
SPLINE
  5
507
100
AcDbEntity
  8
6_ALL_SURFS
100
AcDbSpline
 62
7
  6
CONTINUOUS
 70
0
 71
3
 72
11
 73
7
 74
0
 42
0.0000001
 43
0.0000001
 44
0.0000000001
 40
0.0
 40
0.0
 40
0.0
 40
0.0
 40
0.2524140479
 40
0.5105945777
 40
0.7692678058
 40
1.0
 40
1.0
 40
1.0
 40
1.0
 10
2310.2902594468
 20
938.8988167408
 30
0.0
 10
2310.3525012172
 20
938.8688583147
 30
0.0
 10
2310.4758615342
 20
938.8007940114
 30
0.0
 10
2310.6393553045
 20
938.6711015391
 30
0.0
 10
2310.7759129517
 20
938.5008581309
 30
0.0
 10
2310.7415693732
 20
938.3466100489
 30
0.0
 10
2310.700304139
 20
938.2988167408
 30
0.0
  0
SPLINE
  5
508
100
AcDbEntity
  8
6_ALL_SURFS
100
AcDbSpline
 62
7
  6
CONTINUOUS
 70
0
 71
3
 72
11
 73
7
 74
0
 42
0.0000001
 43
0.0000001
 44
0.0000000001
 40
0.0
 40
0.0
 40
0.0
 40
0.0
 40
0.2307319782
 40
0.489405624
 40
0.7475860364
 40
1.0
 40
1.0
 40
1.0
 40
1.0
 10
2068.1918371569
 20
938.2988167408
 30
0.0
 10
2068.1505719589
 20
938.3466100069
 30
0.0
 10
2068.1162282298
 20
938.5008580902
 30
0.0
 10
2068.2527859769
 20
938.6711015789
 30
0.0
 10
2068.4162798202
 20
938.8007940377
 30
0.0
 10
2068.539640096
 20
938.868858323
 30
0.0
 10
2068.6018818491
 20
938.8988167408
 30
0.0
  0
SPLINE
  5
509
100
AcDbEntity
  8
6_ALL_SURFS
100
AcDbSpline
 62
7
  6
CONTINUOUS
 70
0
 71
3
 72
11
 73
7
 74
0
 42
0.0000001
 43
0.0000001
 44
0.0000000001
 40
0.0
 40
0.0
 40
0.0
 40
0.0
 40
0.2524140479
 40
0.5105945777
 40
0.7692678058
 40
1.0
 40
1.0
 40
1.0
 40
1.0
 10
2560.2902594468
 20
938.8988167408
 30
0.0
 10
2560.3525012172
 20
938.8688583147
 30
0.0
 10
2560.4758615342
 20
938.8007940114
 30
0.0
 10
2560.6393553045
 20
938.6711015391
 30
0.0
 10
2560.7759129517
 20
938.5008581309
 30
0.0
 10
2560.7415693732
 20
938.3466100489
 30
0.0
 10
2560.700304139
 20
938.2988167408
 30
0.0
  0
SPLINE
  5
50A
100
AcDbEntity
  8
6_ALL_SURFS
100
AcDbSpline
 62
7
  6
CONTINUOUS
 70
0
 71
3
 72
11
 73
7
 74
0
 42
0.0000001
 43
0.0000001
 44
0.0000000001
 40
0.0
 40
0.0
 40
0.0
 40
0.0
 40
0.2307319782
 40
0.489405624
 40
0.7475860364
 40
1.0
 40
1.0
 40
1.0
 40
1.0
 10
2318.1918371569
 20
938.2988167408
 30
0.0
 10
2318.1505719589
 20
938.3466100069
 30
0.0
 10
2318.1162282298
 20
938.5008580902
 30
0.0
 10
2318.2527859769
 20
938.6711015789
 30
0.0
 10
2318.4162798202
 20
938.8007940377
 30
0.0
 10
2318.539640096
 20
938.868858323
 30
0.0
 10
2318.6018818491
 20
938.8988167408
 30
0.0
  0
SPLINE
  5
50B
100
AcDbEntity
  8
6_ALL_SURFS
100
AcDbSpline
 62
7
  6
CONTINUOUS
 70
0
 71
3
 72
11
 73
7
 74
0
 42
0.0000001
 43
0.0000001
 44
0.0000000001
 40
0.0
 40
0.0
 40
0.0
 40
0.0
 40
0.2307319782
 40
0.489405624
 40
0.7475860364
 40
1.0
 40
1.0
 40
1.0
 40
1.0
 10
2568.1918371569
 20
938.2988167408
 30
0.0
 10
2568.1505719589
 20
938.3466100069
 30
0.0
 10
2568.1162282298
 20
938.5008580902
 30
0.0
 10
2568.2527859769
 20
938.6711015789
 30
0.0
 10
2568.4162798202
 20
938.8007940377
 30
0.0
 10
2568.539640096
 20
938.868858323
 30
0.0
 10
2568.6018818491
 20
938.8988167408
 30
0.0
  0
SPLINE
  5
50C
100
AcDbEntity
  8
6_ALL_SURFS
100
AcDbSpline
 62
7
  6
CONTINUOUS
 70
0
 71
3
 72
9
 73
5
 74
0
 42
0.0000001
 43
0.0000001
 44
0.0000000001
 40
0.0
 40
0.0
 40
0.0
 40
0.0
 40
0.4966040718
 40
1.0
 40
1.0
 40
1.0
 40
1.0
 10
1059.6846877879
 20
941.8988167408
 30
0.0
 10
1059.7712345781
 20
941.8256764056
 30
0.0
 10
1059.9038918042
 20
941.5820309365
 30
0.0
 10
1059.7380505123
 20
941.3688824068
 30
0.0
 10
1059.6470325423
 20
941.2988167408
 30
0.0
  0
SPLINE
  5
50D
100
AcDbEntity
  8
6_ALL_SURFS
100
AcDbSpline
 62
7
  6
CONTINUOUS
 70
0
 71
3
 72
9
 73
5
 74
0
 42
0.0000001
 43
0.0000001
 44
0.0000000001
 40
0.0
 40
0.0
 40
0.0
 40
0.0
 40
0.4966040718
 40
1.0
 40
1.0
 40
1.0
 40
1.0
 10
1309.6846877879
 20
941.8988167408
 30
0.0
 10
1309.7712345781
 20
941.8256764056
 30
0.0
 10
1309.9038918042
 20
941.5820309365
 30
0.0
 10
1309.7380505123
 20
941.3688824068
 30
0.0
 10
1309.6470325423
 20
941.2988167408
 30
0.0
  0
ELLIPSE
  5
50E
100
AcDbEntity
  8
6_ALL_SURFS
100
AcDbEllipse
 62
7
  6
CONTINUOUS
 10
2564.4460706479
 20
412.6482605673
 30
0.0
 11
3.5
 21
-0.0
 31
0.0
 40
0.5
 41
-1.910488903
 42
-1.2311037506
  0
ELLIPSE
  5
50F
100
AcDbEntity
  8
6_ALL_SURFS
100
AcDbEllipse
 62
7
  6
CONTINUOUS
 10
2314.4460706479
 20
412.6482605673
 30
0.0
 11
3.5
 21
0.0
 31
0.0
 40
0.5
 41
-1.910488903
 42
-1.2311037506
  0
ELLIPSE
  5
510
100
AcDbEntity
  8
6_ALL_SURFS
100
AcDbEllipse
 62
7
  6
CONTINUOUS
 10
2064.4460706479
 20
412.6482605673
 30
0.0
 11
3.5
 21
-0.0
 31
0.0
 40
0.5
 41
-1.910488903
 42
-1.2311037506
  0
ELLIPSE
  5
511
100
AcDbEntity
  8
6_ALL_SURFS
100
AcDbEllipse
 62
7
  6
CONTINUOUS
 10
1814.4460706479
 20
412.6482605673
 30
0.0
 11
3.5
 21
0.0
 31
0.0
 40
0.5
 41
-1.910488903
 42
-1.2311037506
  0
ELLIPSE
  5
512
100
AcDbEntity
  8
6_ALL_SURFS
100
AcDbEllipse
 62
7
  6
CONTINUOUS
 10
1564.4460706479
 20
412.6482605673
 30
0.0
 11
3.5
 21
0.0
 31
0.0
 40
0.5
 41
-1.910488903
 42
-1.2311037506
  0
ELLIPSE
  5
513
100
AcDbEntity
  8
6_ALL_SURFS
100
AcDbEllipse
 62
7
  6
CONTINUOUS
 10
1314.4460706479
 20
412.6482605673
 30
0.0
 11
3.5
 21
-0.0
 31
0.0
 40
0.5
 41
-1.910488903
 42
-1.2311037506
  0
ELLIPSE
  5
514
100
AcDbEntity
  8
6_ALL_SURFS
100
AcDbEllipse
 62
7
  6
CONTINUOUS
 10
1064.4460706479
 20
412.6482605673
 30
0.0
 11
3.5
 21
-0.0
 31
0.0
 40
0.5
 41
4.3726964042
 42
5.0520815566
  0
ELLIPSE
  5
515
100
AcDbEntity
  8
6_ALL_SURFS
100
AcDbEllipse
 62
7
  6
CONTINUOUS
 10
1064.4460706479
 20
409.4017432701
 30
0.0
 11
5.4882058378
 21
-0.0
 31
0.0
 40
0.1015346165
 41
0.9294607698
 42
2.2121318838
  0
ELLIPSE
  5
516
100
AcDbEntity
  8
6_ALL_SURFS
100
AcDbEllipse
 62
7
  6
CONTINUOUS
 10
1314.4460706479
 20
409.4017432701
 30
0.0
 11
5.4882058378
 21
-0.0
 31
0.0
 40
0.1015346165
 41
0.9294607698
 42
2.2121318838
  0
ELLIPSE
  5
517
100
AcDbEntity
  8
6_ALL_SURFS
100
AcDbEllipse
 62
7
  6
CONTINUOUS
 10
1564.4460706479
 20
409.4017432701
 30
0.0
 11
5.4882058378
 21
-0.0
 31
0.0
 40
0.1015346165
 41
0.9294607698
 42
2.2121318838
  0
ELLIPSE
  5
518
100
AcDbEntity
  8
6_ALL_SURFS
100
AcDbEllipse
 62
7
  6
CONTINUOUS
 10
1814.4460706479
 20
409.4017432701
 30
0.0
 11
5.4882058378
 21
0.0
 31
0.0
 40
0.1015346165
 41
0.9294607698
 42
2.2121318838
  0
ELLIPSE
  5
519
100
AcDbEntity
  8
6_ALL_SURFS
100
AcDbEllipse
 62
7
  6
CONTINUOUS
 10
2064.4460706479
 20
409.4017432701
 30
0.0
 11
5.4882058378
 21
-0.0
 31
0.0
 40
0.1015346165
 41
0.9294607698
 42
2.2121318838
  0
ELLIPSE
  5
51A
100
AcDbEntity
  8
6_ALL_SURFS
100
AcDbEllipse
 62
7
  6
CONTINUOUS
 10
2314.4460706479
 20
409.4017432701
 30
0.0
 11
5.4882058378
 21
-0.0
 31
0.0
 40
0.1015346165
 41
0.9294607698
 42
2.2121318838
  0
ELLIPSE
  5
51B
100
AcDbEntity
  8
6_ALL_SURFS
100
AcDbEllipse
 62
7
  6
CONTINUOUS
 10
2564.4460706479
 20
409.4017432701
 30
0.0
 11
5.4882058378
 21
-0.0
 31
0.0
 40
0.1015346165
 41
0.9294607698
 42
2.2121318838
  0
ELLIPSE
  5
51C
100
AcDbEntity
  8
6_ALL_SURFS
100
AcDbEllipse
 62
7
  6
CONTINUOUS
 10
2314.4460706479
 20
940.333643769
 30
0.0
 11
0.0
 21
5.5724287509
 31
0.0
 40
0.9848857802
 41
-0.641335557
 42
0.641335557
  0
ELLIPSE
  5
51D
100
AcDbEntity
  8
6_ALL_SURFS
100
AcDbEllipse
 62
7
  6
CONTINUOUS
 10
2564.4460706479
 20
940.333643769
 30
0.0
 11
0.0
 21
5.5724287509
 31
0.0
 40
0.9848857802
 41
-0.641335557
 42
0.641335557
  0
ELLIPSE
  5
51E
100
AcDbEntity
  8
7_ALL_FEATURES
100
AcDbEllipse
 62
7
  6
CONTINUOUS
 10
1064.4460706479
 20
872.1639897126
 30
0.0
 11
0.0
 21
5.5724287509
 31
0.0
 40
0.9848857802
 41
2.5002570966
 42
3.7829282106
  0
ELLIPSE
  5
51F
100
AcDbEntity
  8
7_ALL_FEATURES
100
AcDbEllipse
 62
7
  6
CONTINUOUS
 10
1314.4460706479
 20
872.1639897126
 30
0.0
 11
0.0
 21
5.5724287509
 31
0.0
 40
0.9848857802
 41
2.5002570966
 42
3.7829282106
  0
ELLIPSE
  5
520
100
AcDbEntity
  8
7_ALL_FEATURES
100
AcDbEllipse
 62
7
  6
CONTINUOUS
 10
1564.4460706479
 20
872.1639897126
 30
0.0
 11
0.0
 21
5.5724287509
 31
0.0
 40
0.9848857802
 41
2.5002570966
 42
3.7829282106
  0
ELLIPSE
  5
521
100
AcDbEntity
  8
7_ALL_FEATURES
100
AcDbEllipse
 62
7
  6
CONTINUOUS
 10
1814.4460706479
 20
872.1639897126
 30
0.0
 11
0.0
 21
5.5724287509
 31
0.0
 40
0.9848857802
 41
2.5002570966
 42
3.7829282106
  0
ELLIPSE
  5
522
100
AcDbEntity
  8
7_ALL_FEATURES
100
AcDbEllipse
 62
7
  6
CONTINUOUS
 10
2064.4460706479
 20
872.1639897126
 30
0.0
 11
0.0
 21
5.5724287509
 31
0.0
 40
0.9848857802
 41
2.5002570966
 42
3.7829282106
  0
ELLIPSE
  5
523
100
AcDbEntity
  8
7_ALL_FEATURES
100
AcDbEllipse
 62
7
  6
CONTINUOUS
 10
2314.4460706479
 20
872.1639897126
 30
0.0
 11
0.0
 21
5.5724287509
 31
0.0
 40
0.9848857802
 41
2.5002570966
 42
3.7829282106
  0
ELLIPSE
  5
524
100
AcDbEntity
  8
7_ALL_FEATURES
100
AcDbEllipse
 62
7
  6
CONTINUOUS
 10
2564.4460706479
 20
872.1639897126
 30
0.0
 11
-0.0
 21
5.5724287509
 31
0.0
 40
0.9848857802
 41
2.5002570966
 42
3.7829282106
  0
ELLIPSE
  5
525
100
AcDbEntity
  8
6_ALL_SURFS
100
AcDbEllipse
 62
7
  6
CONTINUOUS
 10
1064.4460706479
 20
940.333643769
 30
0.0
 11
0.0
 21
5.5724287509
 31
0.0
 40
0.9848857802
 41
-0.641335557
 42
0.641335557
  0
ELLIPSE
  5
526
100
AcDbEntity
  8
6_ALL_SURFS
100
AcDbEllipse
 62
7
  6
CONTINUOUS
 10
1314.4460706479
 20
940.333643769
 30
0.0
 11
0.0
 21
5.5724287509
 31
0.0
 40
0.9848857802
 41
-0.641335557
 42
0.641335557
  0
ELLIPSE
  5
527
100
AcDbEntity
  8
6_ALL_SURFS
100
AcDbEllipse
 62
7
  6
CONTINUOUS
 10
1564.4460706479
 20
940.333643769
 30
0.0
 11
0.0
 21
5.5724287509
 31
0.0
 40
0.9848857802
 41
-0.641335557
 42
0.641335557
  0
ELLIPSE
  5
528
100
AcDbEntity
  8
6_ALL_SURFS
100
AcDbEllipse
 62
7
  6
CONTINUOUS
 10
1814.4460706479
 20
940.333643769
 30
0.0
 11
0.0
 21
5.5724287509
 31
0.0
 40
0.9848857802
 41
-0.641335557
 42
0.641335557
  0
ELLIPSE
  5
529
100
AcDbEntity
  8
6_ALL_SURFS
100
AcDbEllipse
 62
7
  6
CONTINUOUS
 10
2064.4460706479
 20
940.333643769
 30
0.0
 11
0.0
 21
5.5724287509
 31
0.0
 40
0.9848857802
 41
5.6418497502
 42
6.9245208642
  0
ENDSEC
  0
SECTION
  2
OBJECTS
  0
DICTIONARY
  5
52A
100
AcDbDictionary
  3
ACAD_GROUP
350
52B
  3
ACAD_MLINESTYLE
350
52C
  0
DICTIONARY
  5
52B
102
{ACAD_REACTORS
330
52A
102
}
100
AcDbDictionary
  0
DICTIONARY
  5
52C
102
{ACAD_REACTORS
330
52A
102
}
100
AcDbDictionary
  3
STANDARD
350
52D
  0
MLINESTYLE
  5
52D
102
{ACAD_REACTORS
330
52C
102
}
100
AcDbMlineStyle
  2
STANDARD
 70
0
  3

 62
256
 51
90.0
 52
90.0
 71
2
 49
0.5
 62
256
  6
BYLAYER
 49
-0.5
 62
256
  6
BYLAYER
  0
ENDSEC
  0
EOF
